  0
SECTION
  2
HEADER
  9
$ACADVER
  1
AC1015
  9
$ACADMAINTVER
 70
     6
  9
$DWGCODEPAGE
  3
ANSI_1252
  9
$INSBASE
 10
0.0
 20
0.0
 30
0.0
  9
$EXTMIN
 10
0.0
 20
0.0
 30
0.0
  9
$EXTMAX
 10
297.0
 20
210.0
 30
0.0
  9
$LIMMIN
 10
0.0
 20
0.0
  9
$LIMMAX
 10
297.0
 20
210.0
  9
$ORTHOMODE
 70
     0
  9
$REGENMODE
 70
     1
  9
$FILLMODE
 70
     1
  9
$QTEXTMODE
 70
     0
  9
$MIRRTEXT
 70
     1
  9
$LTSCALE
 40
1.0
  9
$ATTMODE
 70
     1
  9
$TEXTSIZE
 40
2.0
  9
$TRACEWID
 40
1.0
  9
$TEXTSTYLE
  7
Standard
  9
$CLAYER
  8
0
  9
$CELTYPE
  6
ByLayer
  9
$CECOLOR
 62
   256
  9
$CELTSCALE
 40
1.0
  9
$DISPSILH
 70
     0
  9
$DIMSCALE
 40
1.0
  9
$DIMASZ
 40
3.0
  9
$DIMEXO
 40
0.0
  9
$DIMDLI
 40
3.75
  9
$DIMRND
 40
0.0
  9
$DIMDLE
 40
0.0
  9
$DIMEXE
 40
1.0
  9
$DIMTP
 40
0.0
  9
$DIMTM
 40
0.0
  9
$DIMTXT
 40
2.0
  9
$DIMCEN
 40
2.5
  9
$DIMTSZ
 40
0.0
  9
$DIMTOL
 70
     0
  9
$DIMLIM
 70
     0
  9
$DIMTIH
 70
     1
  9
$DIMTOH
 70
     1
  9
$DIMSE1
 70
     0
  9
$DIMSE2
 70
     0
  9
$DIMTAD
 70
     1
  9
$DIMZIN
 70
     0
  9
$DIMBLK
  1

  9
$DIMASO
 70
     1
  9
$DIMSHO
 70
     1
  9
$DIMPOST
  1

  9
$DIMAPOST
  1

  9
$DIMALT
 70
     0
  9
$DIMALTD
 70
     3
  9
$DIMALTF
 40
0.0393700787
  9
$DIMLFAC
 40
1.0
  9
$DIMTOFL
 70
     1
  9
$DIMTVP
 40
0.0
  9
$DIMTIX
 70
     0
  9
$DIMSOXD
 70
     0
  9
$DIMSAH
 70
     0
  9
$DIMBLK1
  1

  9
$DIMBLK2
  1

  9
$DIMSTYLE
  2
ISO-25
  9
$DIMCLRD
 70
     0
  9
$DIMCLRE
 70
     0
  9
$DIMCLRT
 70
     0
  9
$DIMTFAC
 40
1.0
  9
$DIMGAP
 40
1.524
  9
$DIMJUST
 70
     0
  9
$DIMSD1
 70
     0
  9
$DIMSD2
 70
     0
  9
$DIMTOLJ
 70
     0
  9
$DIMTZIN
 70
     0
  9
$DIMALTZ
 70
     0
  9
$DIMALTTZ
 70
     0
  9
$DIMUPT
 70
     0
  9
$DIMDEC
 70
     2
  9
$DIMTDEC
 70
     3
  9
$DIMALTU
 70
     2
  9
$DIMALTTD
 70
     3
  9
$DIMTXSTY
  7
Standard
  9
$DIMAUNIT
 70
     0
  9
$DIMADEC
 70
     2
  9
$DIMALTRND
 40
0.0
  9
$DIMAZIN
 70
     0
  9
$DIMDSEP
 70
    44
  9
$DIMATFIT
 70
     3
  9
$DIMFRAC
 70
     0
  9
$DIMLDRBLK
  1

  9
$DIMLUNIT
 70
     2
  9
$DIMLWD
 70
    -2
  9
$DIMLWE
 70
    -2
  9
$DIMTMOVE
 70
     0
  9
$LUNITS
 70
     2
  9
$LUPREC
 70
     2
  9
$SKETCHINC
 40
1.0
  9
$FILLETRAD
 40
10.0
  9
$AUNITS
 70
     0
  9
$AUPREC
 70
     2
  9
$MENU
  1
.
  9
$ELEVATION
 40
0.0
  9
$PELEVATION
 40
0.0
  9
$THICKNESS
 40
0.0
  9
$LIMCHECK
 70
     0
  9
$CHAMFERA
 40
10.0
  9
$CHAMFERB
 40
10.0
  9
$CHAMFERC
 40
20.0
  9
$CHAMFERD
 40
0.0
  9
$SKPOLY
 70
     0
  9
$TDCREATE
 40
2455685.584359699
  9
$TDUCREATE
 40
2455685.501026366
  9
$TDUPDATE
 40
2455685.584359711
  9
$TDUUPDATE
 40
2455685.501026378
  9
$TDINDWG
 40
0.0000000116
  9
$TDUSRTIMER
 40
0.0000000116
  9
$USRTIMER
 70
     1
  9
$ANGBASE
 50
0.0
  9
$ANGDIR
 70
     0
  9
$PDMODE
 70
     0
  9
$PDSIZE
 40
-1.0
  9
$PLINEWID
 40
0.0
  9
$SPLFRAME
 70
     0
  9
$SPLINETYPE
 70
     6
  9
$SPLINESEGS
 70
     8
  9
$HANDSEED
  5
309
  9
$SURFTAB1
 70
     6
  9
$SURFTAB2
 70
     6
  9
$SURFTYPE
 70
     6
  9
$SURFU
 70
     6
  9
$SURFV
 70
     6
  9
$UCSBASE
  2

  9
$UCSNAME
  2

  9
$UCSORG
 10
0.0
 20
0.0
 30
0.0
  9
$UCSXDIR
 10
1.0
 20
0.0
 30
0.0
  9
$UCSYDIR
 10
0.0
 20
1.0
 30
0.0
  9
$UCSORTHOREF
  2

  9
$UCSORTHOVIEW
 70
     0
  9
$UCSORGTOP
 10
0.0
 20
0.0
 30
0.0
  9
$UCSORGBOTTOM
 10
0.0
 20
0.0
 30
0.0
  9
$UCSORGLEFT
 10
0.0
 20
0.0
 30
0.0
  9
$UCSORGRIGHT
 10
0.0
 20
0.0
 30
0.0
  9
$UCSORGFRONT
 10
0.0
 20
0.0
 30
0.0
  9
$UCSORGBACK
 10
0.0
 20
0.0
 30
0.0
  9
$PUCSBASE
  2

  9
$PUCSNAME
  2

  9
$PUCSORG
 10
0.0
 20
0.0
 30
0.0
  9
$PUCSXDIR
 10
1.0
 20
0.0
 30
0.0
  9
$PUCSYDIR
 10
0.0
 20
1.0
 30
0.0
  9
$PUCSORTHOREF
  2

  9
$PUCSORTHOVIEW
 70
     0
  9
$PUCSORGTOP
 10
0.0
 20
0.0
 30
0.0
  9
$PUCSORGBOTTOM
 10
0.0
 20
0.0
 30
0.0
  9
$PUCSORGLEFT
 10
0.0
 20
0.0
 30
0.0
  9
$PUCSORGRIGHT
 10
0.0
 20
0.0
 30
0.0
  9
$PUCSORGFRONT
 10
0.0
 20
0.0
 30
0.0
  9
$PUCSORGBACK
 10
0.0
 20
0.0
 30
0.0
  9
$USERI1
 70
     0
  9
$USERI2
 70
     0
  9
$USERI3
 70
     0
  9
$USERI4
 70
     0
  9
$USERI5
 70
     0
  9
$USERR1
 40
0.0
  9
$USERR2
 40
0.0
  9
$USERR3
 40
0.0
  9
$USERR4
 40
0.0
  9
$USERR5
 40
0.0
  9
$WORLDVIEW
 70
     1
  9
$SHADEDGE
 70
     3
  9
$SHADEDIF
 70
    70
  9
$TILEMODE
 70
     1
  9
$MAXACTVP
 70
    64
  9
$PINSBASE
 10
0.0
 20
0.0
 30
0.0
  9
$PLIMCHECK
 70
     0
  9
$PEXTMIN
 10
1.0000000000E+20
 20
1.0000000000E+20
 30
1.0000000000E+20
  9
$PEXTMAX
 10
-1.0000000000E+20
 20
-1.0000000000E+20
 30
-1.0000000000E+20
  9
$PLIMMIN
 10
0.0
 20
0.0
  9
$PLIMMAX
 10
420.0
 20
297.0
  9
$UNITMODE
 70
     0
  9
$VISRETAIN
 70
     1
  9
$PLINEGEN
 70
     0
  9
$PSLTSCALE
 70
     1
  9
$TREEDEPTH
 70
  3020
  9
$CMLSTYLE
  2
Standard
  9
$CMLJUST
 70
     0
  9
$CMLSCALE
 40
20.0
  9
$PROXYGRAPHICS
 70
     1
  9
$MEASUREMENT
 70
     1
  9
$CELWEIGHT
370
    -1
  9
$ENDCAPS
280
     0
  9
$JOINSTYLE
280
     0
  9
$LWDISPLAY
290
     1
  9
$INSUNITS
 70
     4
  9
$HYPERLINKBASE
  1

  9
$STYLESHEET
  1

  9
$XEDIT
290
     1
  9
$CEPSNTYPE
380
     0
  9
$PSTYLEMODE
290
     1
  9
$FINGERPRINTGUID
  2
{5BAB6A9A-7F9A-411C-8210-A032D612B831}
  9
$VERSIONGUID
  2
{FAEB1C32-E019-11D5-929B-00C0DF256EC4}
  9
$EXTNAMES
290
     1
  9
$PSVPSCALE
 40
0.0
  9
$OLESTARTUP
290
     0
  0
ENDSEC
  0
SECTION
  2
CLASSES
  0
CLASS
  1
ACDBDICTIONARYWDFLT
  2
AcDbDictionaryWithDefault
  3
ObjectDBX Classes
 90
        0
280
     0
281
     0
  0
CLASS
  1
VISUALSTYLE
  2
AcDbVisualStyle
  3
ObjectDBX Classes
 90
     4095
280
     0
281
     0
  0
CLASS
  1
DICTIONARYVAR
  2
AcDbDictionaryVar
  3
ObjectDBX Classes
 90
        0
280
     0
281
     0
  0
CLASS
  1
ACDBPLACEHOLDER
  2
AcDbPlaceHolder
  3
ObjectDBX Classes
 90
        0
280
     0
281
     0
  0
CLASS
  1
LAYOUT
  2
AcDbLayout
  3
ObjectDBX Classes
 90
        0
280
     0
281
     0
  0
ENDSEC
  0
SECTION
  2
TABLES
  0
TABLE
  2
VPORT
  5
8
330
0
100
AcDbSymbolTable
 70
     1
  0
VPORT
  5
29
330
8
100
AcDbSymbolTableRecord
100
AcDbViewportTableRecord
  2
*Active
 70
     0
 10
0.0
 20
0.0
 11
1.0
 21
1.0
 12
148.5
 22
105.0
 13
0.0
 23
0.0
 14
10.0
 24
10.0
 15
10.0
 25
10.0
 16
0.0
 26
0.0
 36
1.0
 17
0.0
 27
0.0
 37
0.0
 40
210.0
 41
1.4142857143
 42
50.0
 43
0.0
 44
0.0
 50
0.0
 51
0.0
 71
     0
 72
  2000
 73
     1
 74
     3
 75
     0
 76
     0
 77
     0
 78
     0
281
     0
 65
     1
110
0.0
120
0.0
130
0.0
111
1.0
121
0.0
131
0.0
112
0.0
122
1.0
132
0.0
 79
     0
146
0.0
  0
ENDTAB
  0
TABLE
  2
LTYPE
  5
5
330
0
100
AcDbSymbolTable
 70
     6
  0
LTYPE
  5
14
330
5
100
AcDbSymbolTableRecord
100
AcDbLinetypeTableRecord
  2
ByBlock
 70
     0
  3

 72
    65
 73
     0
 40
0.0
  0
LTYPE
  5
15
330
5
100
AcDbSymbolTableRecord
100
AcDbLinetypeTableRecord
  2
ByLayer
 70
     0
  3

 72
    65
 73
     0
 40
0.0
  0
LTYPE
  5
16
330
5
100
AcDbSymbolTableRecord
100
AcDbLinetypeTableRecord
  2
Continuous
 70
     0
  3
Solid line
 72
    65
 73
     0
 40
0.0
  0
LTYPE
  5
3B
330
5
100
AcDbSymbolTableRecord
100
AcDbLinetypeTableRecord
  2
HIDDEN
 70
     0
  3
Hidden __ __ __ __ __ __ __ __ __ __ __ __ __ __
 72
    65
 73
     2
 40
1.905
 49
1.27
 74
     0
 49
-0.635
 74
     0
  0
LTYPE
  5
3C
330
5
100
AcDbSymbolTableRecord
100
AcDbLinetypeTableRecord
  2
PHANTOM
 70
     0
  3
Phantom ______  __  __  ______  __  __  ______
 72
    65
 73
     6
 40
12.7
 49
6.35
 74
     0
 49
-1.27
 74
     0
 49
1.27
 74
     0
 49
-1.27
 74
     0
 49
1.27
 74
     0
 49
-1.27
 74
     0
  0
LTYPE
  5
3D
330
5
100
AcDbSymbolTableRecord
100
AcDbLinetypeTableRecord
  2
CENTER
 70
     0
  3
Center ____ _ ____ _ ____ _ ____ _ ____ _ ____
 72
    65
 73
     4
 40
10.16
 49
6.35
 74
     0
 49
-1.27
 74
     0
 49
1.27
 74
     0
 49
-1.27
 74
     0
  0
LTYPE
  5
3E
330
5
100
AcDbSymbolTableRecord
100
AcDbLinetypeTableRecord
  2
CENTERX2
 70
     0
  3
Center (2x) ________  __  ________  __  _____
 72
    65
 73
     4
 40
20.32
 49
12.7
 74
     0
 49
-2.54
 74
     0
 49
2.54
 74
     0
 49
-2.54
 74
     0
  0
LTYPE
  5
3F
330
5
100
AcDbSymbolTableRecord
100
AcDbLinetypeTableRecord
  2
DOT2
 70
     0
  3
Dot (.5x) ........................................
 72
    65
 73
     2
 40
0.635
 49
0.0
 74
     0
 49
-0.635
 74
     0
  0
ENDTAB
  0
TABLE
  2
LAYER
  5
2
330
0
100
AcDbSymbolTable
 70
     5
  0
LAYER
  5
10
330
2
100
AcDbSymbolTableRecord
100
AcDbLayerTableRecord
  2
0
 70
     0
 62
     7
  6
Continuous
370
    -3
390
F
  0
LAYER
  5
40
330
2
100
AcDbSymbolTableRecord
100
AcDbLayerTableRecord
  2
FORMAT
 70
     0
 62
     7
  6
Continuous
370
    -3
390
F
  0
LAYER
  5
41
330
2
100
AcDbSymbolTableRecord
100
AcDbLayerTableRecord
  2
VERMASSUNG
 70
     0
 62
     7
  6
Continuous
370
    -3
390
F
  0
LAYER
  5
42
330
2
100
AcDbSymbolTableRecord
100
AcDbLayerTableRecord
  2
KOPF_DÜNN
 70
     0
 62
     7
  6
Continuous
370
    -3
390
F
  0
LAYER
  5
43
330
2
100
AcDbSymbolTableRecord
100
AcDbLayerTableRecord
  2
KOPF_DICK
 70
     0
 62
     7
  6
Continuous
370
    15
390
F
  0
ENDTAB
  0
TABLE
  2
STYLE
  5
3
330
0
100
AcDbSymbolTable
 70
     2
  0
STYLE
  5
11
330
3
100
AcDbSymbolTableRecord
100
AcDbTextStyleTableRecord
  2
Standard
 70
     0
 40
0.0
 41
1.0
 50
0.0
 71
     0
 42
2.5
  3
txt
  4

  0
STYLE
  5
44
330
3
100
AcDbSymbolTableRecord
100
AcDbTextStyleTableRecord
  2
SLDTEXTSTYLE0
 70
     0
 40
0.0
 41
0.7
 50
0.0
 71
     0
 42
0.2
  3
TXT
  4

  0
ENDTAB
  0
TABLE
  2
VIEW
  5
6
330
0
100
AcDbSymbolTable
 70
     0
  0
ENDTAB
  0
TABLE
  2
UCS
  5
7
330
0
100
AcDbSymbolTable
 70
     0
  0
ENDTAB
  0
TABLE
  2
APPID
  5
9
330
0
100
AcDbSymbolTable
 70
     1
  0
APPID
  5
12
330
9
100
AcDbSymbolTableRecord
100
AcDbRegAppTableRecord
  2
ACAD
 70
     0
  0
ENDTAB
  0
TABLE
  2
DIMSTYLE
  5
A
330
0
100
AcDbSymbolTable
 70
     2
100
AcDbDimStyleTable
  0
DIMSTYLE
105
27
330
A
100
AcDbSymbolTableRecord
100
AcDbDimStyleTableRecord
  2
ISO-25
 70
     0
 41
2.5
 42
0.625
 43
3.75
 44
1.25
 73
     0
 74
     0
 77
     1
 78
     8
140
2.5
141
2.5
143
0.0393700787
147
0.625
171
     3
172
     1
271
     2
272
     2
274
     3
278
    44
283
     0
284
     8
340
11
  0
DIMSTYLE
105
180
102
{ACAD_REACTORS
330
17F
330
18C
330
196
330
1A0
330
2D9
330
2E3
330
2ED
330
2F7
102
}
330
A
100
AcDbSymbolTableRecord
100
AcDbDimStyleTableRecord
  2
SLDDIMSTYLE0
 70
     0
 41
3.0
 44
0.0
 45
0.000000001
 73
     0
 74
     0
 77
     1
 78
    12
140
2.0
147
0.5
173
     1
271
     2
272
     3
284
    12
340
44
  0
ENDTAB
  0
TABLE
  2
BLOCK_RECORD
  5
1
330
0
100
AcDbSymbolTable
 70
     9
  0
BLOCK_RECORD
  5
1F
330
1
100
AcDbSymbolTableRecord
100
AcDbBlockTableRecord
  2
*Model_Space
340
22
  0
BLOCK_RECORD
  5
1B
330
1
100
AcDbSymbolTableRecord
100
AcDbBlockTableRecord
  2
*Paper_Space
340
1E
  0
BLOCK_RECORD
  5
23
330
1
100
AcDbSymbolTableRecord
100
AcDbBlockTableRecord
  2
*Paper_Space0
340
26
  0
BLOCK_RECORD
  5
181
330
1
100
AcDbSymbolTableRecord
100
AcDbBlockTableRecord
  2
*D1
340
0
  0
BLOCK_RECORD
  5
18D
330
1
100
AcDbSymbolTableRecord
100
AcDbBlockTableRecord
  2
*D2
340
0
  0
BLOCK_RECORD
  5
197
330
1
100
AcDbSymbolTableRecord
100
AcDbBlockTableRecord
  2
*D3
340
0
  0
BLOCK_RECORD
  5
1A1
330
1
100
AcDbSymbolTableRecord
100
AcDbBlockTableRecord
  2
*D4
340
0
  0
BLOCK_RECORD
  5
2DA
330
1
100
AcDbSymbolTableRecord
100
AcDbBlockTableRecord
  2
*D5
340
0
  0
BLOCK_RECORD
  5
2E4
330
1
100
AcDbSymbolTableRecord
100
AcDbBlockTableRecord
  2
*D6
340
0
  0
BLOCK_RECORD
  5
2EE
330
1
100
AcDbSymbolTableRecord
100
AcDbBlockTableRecord
  2
*D7
340
0
  0
BLOCK_RECORD
  5
2F8
330
1
100
AcDbSymbolTableRecord
100
AcDbBlockTableRecord
  2
*D8
340
0
  0
ENDTAB
  0
ENDSEC
  0
SECTION
  2
BLOCKS
  0
BLOCK
  5
20
330
1F
100
AcDbEntity
  8
0
100
AcDbBlockBegin
  2
*Model_Space
 70
     0
 10
0.0
 20
0.0
 30
0.0
  3
*Model_Space
  1

  0
ENDBLK
  5
21
330
1F
100
AcDbEntity
  8
0
100
AcDbBlockEnd
  0
BLOCK
  5
1C
330
1B
100
AcDbEntity
 67
     1
  8
0
100
AcDbBlockBegin
  2
*Paper_Space
 70
     0
 10
0.0
 20
0.0
 30
0.0
  3
*Paper_Space
  1

  0
ENDBLK
  5
1D
330
1B
100
AcDbEntity
 67
     1
  8
0
100
AcDbBlockEnd
  0
BLOCK
  5
24
330
23
100
AcDbEntity
  8
0
100
AcDbBlockBegin
  2
*Paper_Space0
 70
     0
 10
0.0
 20
0.0
 30
0.0
  3
*Paper_Space0
  1

  0
ENDBLK
  5
25
330
23
100
AcDbEntity
  8
0
100
AcDbBlockEnd
  0
BLOCK
  5
182
330
181
100
AcDbEntity
  8
0
100
AcDbBlockBegin
  2
*D1
 70
     1
 10
0.0
 20
0.0
 30
0.0
  3
*D1
  1

  0
SOLID
  5
184
330
181
100
AcDbEntity
  8
VERMASSUNG
100
AcDbTrace
 10
96.6002269193
 20
92.1437578762
 30
0.0
 11
96.1502269193
 21
89.1437578762
 31
0.0
 12
97.0502269193
 22
89.1437578762
 32
0.0
 13
97.0502269193
 23
89.1437578762
 33
0.0
  0
SOLID
  5
185
330
181
100
AcDbEntity
  8
VERMASSUNG
100
AcDbTrace
 10
96.6002269193
 20
52.1437578762
 30
0.0
 11
97.0502269193
 21
55.1437578762
 31
0.0
 12
96.1502269193
 22
55.1437578762
 32
0.0
 13
96.1502269193
 23
55.1437578762
 33
0.0
  0
LINE
  5
186
330
181
100
AcDbEntity
  8
VERMASSUNG
100
AcDbLine
 10
122.5514060988
 20
92.1437578762
 30
0.0
 11
95.6002269193
 21
92.1437578762
 31
0.0
  0
LINE
  5
187
330
181
100
AcDbEntity
  8
VERMASSUNG
100
AcDbLine
 10
122.5514060988
 20
52.1437578762
 30
0.0
 11
95.6002269193
 21
52.1437578762
 31
0.0
  0
LINE
  5
188
330
181
100
AcDbEntity
  8
VERMASSUNG
100
AcDbLine
 10
96.6002269193
 20
92.1437578762
 30
0.0
 11
96.6002269193
 21
52.1437578762
 31
0.0
  0
MTEXT
  5
189
330
181
100
AcDbEntity
  8
VERMASSUNG
100
AcDbMText
 10
93.8220914302
 20
63.9118606149
 30
0.0
 40
2.0
 41
0.0
 71
     1
 72
     1
  1
HSK T 
  7
SLDTEXTSTYLE0
 11
-7.044195017643634E-15
 21
1.0
 31
0.0
 73
     1
 44
1.0
  0
MTEXT
  5
18A
330
181
100
AcDbEntity
  8
VERMASSUNG
100
AcDbMText
 10
94.0220914397
 20
72.7118605673
 30
0.0
 40
2.0
 41
0.0
 71
     1
 72
     1
  1
%%c
  7
SLDTEXTSTYLE0
 11
-7.044195017643634E-15
 21
1.0
 31
0.0
 73
     1
 44
1.0
  0
MTEXT
  5
18B
330
181
100
AcDbEntity
  8
VERMASSUNG
100
AcDbMText
 10
94.0220915561
 20
76.3206081772
 30
0.0
 40
2.0
 41
0.0
 71
     1
 72
     1
  1
40
  7
SLDTEXTSTYLE0
 11
-7.044195017643634E-15
 21
1.0
 31
0.0
 73
     1
 44
1.0
  0
ENDBLK
  5
183
330
181
100
AcDbEntity
  8
0
100
AcDbBlockEnd
  0
BLOCK
  5
18E
330
18D
100
AcDbEntity
  8
0
100
AcDbBlockBegin
  2
*D2
 70
     1
 10
0.0
 20
0.0
 30
0.0
  3
*D2
  1

  0
SOLID
  5
190
330
18D
100
AcDbEntity
  8
VERMASSUNG
100
AcDbTrace
 10
205.7279477267
 20
102.1437578762
 30
0.0
 11
205.2779477267
 21
99.1437578762
 31
0.0
 12
206.1779477267
 22
99.1437578762
 32
0.0
 13
206.1779477267
 23
99.1437578762
 33
0.0
  0
SOLID
  5
191
330
18D
100
AcDbEntity
  8
VERMASSUNG
100
AcDbTrace
 10
205.7279477267
 20
42.1437578762
 30
0.0
 11
206.1779477267
 21
45.1437578762
 31
0.0
 12
205.2779477267
 22
45.1437578762
 32
0.0
 13
205.2779477267
 23
45.1437578762
 33
0.0
  0
LINE
  5
192
330
18D
100
AcDbEntity
  8
VERMASSUNG
100
AcDbLine
 10
197.2514060988
 20
102.1437578762
 30
0.0
 11
206.7279477267
 21
102.1437578762
 31
0.0
  0
LINE
  5
193
330
18D
100
AcDbEntity
  8
VERMASSUNG
100
AcDbLine
 10
197.2514060988
 20
42.1437578762
 30
0.0
 11
206.7279477267
 21
42.1437578762
 31
0.0
  0
LINE
  5
194
330
18D
100
AcDbEntity
  8
VERMASSUNG
100
AcDbLine
 10
205.7279477267
 20
102.1437578762
 30
0.0
 11
205.7279477267
 21
42.1437578762
 31
0.0
  0
MTEXT
  5
195
330
18D
100
AcDbEntity
  8
VERMASSUNG
100
AcDbMText
 10
203.1498123635
 20
70.2160242119
 30
0.0
 40
2.0
 41
0.0
 71
     1
 72
     1
  1
60
  7
SLDTEXTSTYLE0
 11
-7.044195017643634E-15
 21
1.0
 31
0.0
 73
     1
 44
1.0
  0
ENDBLK
  5
18F
330
18D
100
AcDbEntity
  8
0
100
AcDbBlockEnd
  0
BLOCK
  5
198
330
197
100
AcDbEntity
  8
0
100
AcDbBlockBegin
  2
*D3
 70
     1
 10
0.0
 20
0.0
 30
0.0
  3
*D3
  1

  0
SOLID
  5
19A
330
197
100
AcDbEntity
  8
VERMASSUNG
100
AcDbTrace
 10
197.2514060988
 20
108.0516298461
 30
0.0
 11
194.2514060988
 21
108.5016298461
 31
0.0
 12
194.2514060988
 22
107.6016298461
 32
0.0
 13
194.2514060988
 23
107.6016298461
 33
0.0
  0
SOLID
  5
19B
330
197
100
AcDbEntity
  8
VERMASSUNG
100
AcDbTrace
 10
122.2514060988
 20
108.0516298461
 30
0.0
 11
125.2514060988
 21
107.6016298461
 31
0.0
 12
125.2514060988
 22
108.5016298461
 32
0.0
 13
125.2514060988
 23
108.5016298461
 33
0.0
  0
LINE
  5
19C
330
197
100
AcDbEntity
  8
VERMASSUNG
100
AcDbLine
 10
197.2514060988
 20
102.1437578762
 30
0.0
 11
197.2514060988
 21
109.0516298461
 31
0.0
  0
LINE
  5
19D
330
197
100
AcDbEntity
  8
VERMASSUNG
100
AcDbLine
 10
122.2514060988
 20
91.8437578762
 30
0.0
 11
122.2514060988
 21
109.0516298461
 31
0.0
  0
LINE
  5
19E
330
197
100
AcDbEntity
  8
VERMASSUNG
100
AcDbLine
 10
197.2514060988
 20
108.0516298461
 30
0.0
 11
122.2514060988
 21
108.0516298461
 31
0.0
  0
MTEXT
  5
19F
330
197
100
AcDbEntity
  8
VERMASSUNG
100
AcDbMText
 10
158.352027984
 20
110.6297652093
 30
0.0
 40
2.0
 41
0.0
 71
     1
 72
     1
  1
75
  7
SLDTEXTSTYLE0
 73
     1
 44
1.0
  0
ENDBLK
  5
199
330
197
100
AcDbEntity
  8
0
100
AcDbBlockEnd
  0
BLOCK
  5
1A2
330
1A1
100
AcDbEntity
  8
0
100
AcDbBlockBegin
  2
*D4
 70
     1
 10
0.0
 20
0.0
 30
0.0
  3
*D4
  1

  0
SOLID
  5
1A4
330
1A1
100
AcDbEntity
  8
VERMASSUNG
100
AcDbTrace
 10
102.3514060988
 20
114.0516298461
 30
0.0
 11
105.3514060988
 21
113.6016298461
 31
0.0
 12
105.3514060988
 22
114.5016298461
 32
0.0
 13
105.3514060988
 23
114.5016298461
 33
0.0
  0
SOLID
  5
1A5
330
1A1
100
AcDbEntity
  8
VERMASSUNG
100
AcDbTrace
 10
197.2514060988
 20
114.0516298461
 30
0.0
 11
194.2514060988
 21
114.5016298461
 31
0.0
 12
194.2514060988
 22
113.6016298461
 32
0.0
 13
194.2514060988
 23
113.6016298461
 33
0.0
  0
LINE
  5
1A6
330
1A1
100
AcDbEntity
  8
VERMASSUNG
100
AcDbLine
 10
102.3514060988
 20
84.4126971095
 30
0.0
 11
102.3514060988
 21
115.0516298461
 31
0.0
  0
LINE
  5
1A7
330
1A1
100
AcDbEntity
  8
VERMASSUNG
100
AcDbLine
 10
197.2514060988
 20
102.1437578762
 30
0.0
 11
197.2514060988
 21
115.0516298461
 31
0.0
  0
LINE
  5
1A8
330
1A1
100
AcDbEntity
  8
VERMASSUNG
100
AcDbLine
 10
102.3514060988
 20
114.0516298461
 30
0.0
 11
197.2514060988
 21
114.0516298461
 31
0.0
  0
MTEXT
  5
1A9
330
1A1
100
AcDbEntity
  8
VERMASSUNG
100
AcDbMText
 10
147.3020193166
 20
116.6297652093
 30
0.0
 40
2.0
 41
0.0
 71
     1
 72
     1
  1
94.9
  7
SLDTEXTSTYLE0
 73
     1
 44
1.0
  0
ENDBLK
  5
1A3
330
1A1
100
AcDbEntity
  8
0
100
AcDbBlockEnd
  0
BLOCK
  5
2DB
330
2DA
100
AcDbEntity
  8
0
100
AcDbBlockBegin
  2
*D5
 70
     1
 10
0.0
 20
0.0
 30
0.0
  3
*D5
  1

  0
SOLID
  5
2DD
330
2DA
100
AcDbEntity
  8
VERMASSUNG
100
AcDbTrace
 10
197.2514060988
 20
129.6634812879
 30
0.0
 11
194.2514060988
 21
130.1134812879
 31
0.0
 12
194.2514060988
 22
129.2134812879
 32
0.0
 13
194.2514060988
 23
129.2134812879
 33
0.0
  0
SOLID
  5
2DE
330
2DA
100
AcDbEntity
  8
VERMASSUNG
100
AcDbTrace
 10
177.2514060988
 20
129.6634812879
 30
0.0
 11
180.2514060988
 21
129.2134812879
 31
0.0
 12
180.2514060988
 22
130.1134812879
 32
0.0
 13
180.2514060988
 23
130.1134812879
 33
0.0
  0
LINE
  5
2DF
330
2DA
100
AcDbEntity
  8
VERMASSUNG
100
AcDbLine
 10
197.2514060988
 20
136.6560680711
 30
0.0
 11
197.2514060988
 21
128.6634812879
 31
0.0
  0
LINE
  5
2E0
330
2DA
100
AcDbEntity
  8
VERMASSUNG
100
AcDbLine
 10
177.2514060988
 20
148.6560680711
 30
0.0
 11
177.2514060988
 21
128.6634812879
 31
0.0
  0
LINE
  5
2E1
330
2DA
100
AcDbEntity
  8
VERMASSUNG
100
AcDbLine
 10
197.2514060988
 20
129.6634812879
 30
0.0
 11
177.2514060988
 21
129.6634812879
 31
0.0
  0
MTEXT
  5
2E2
330
2DA
100
AcDbEntity
  8
VERMASSUNG
100
AcDbMText
 10
185.1617723579
 20
132.241616651
 30
0.0
 40
2.0
 41
0.0
 71
     1
 72
     1
  1
20
  7
SLDTEXTSTYLE0
 73
     1
 44
1.0
  0
ENDBLK
  5
2DC
330
2DA
100
AcDbEntity
  8
0
100
AcDbBlockEnd
  0
BLOCK
  5
2E5
330
2E4
100
AcDbEntity
  8
0
100
AcDbBlockBegin
  2
*D6
 70
     1
 10
0.0
 20
0.0
 30
0.0
  3
*D6
  1

  0
SOLID
  5
2E7
330
2E4
100
AcDbEntity
  8
VERMASSUNG
100
AcDbTrace
 10
208.1778709141
 20
168.6560680711
 30
0.0
 11
207.7278709141
 21
165.6560680711
 31
0.0
 12
208.6278709141
 22
165.6560680711
 32
0.0
 13
208.6278709141
 23
165.6560680711
 33
0.0
  0
SOLID
  5
2E8
330
2E4
100
AcDbEntity
  8
VERMASSUNG
100
AcDbTrace
 10
208.1778709141
 20
148.6560680711
 30
0.0
 11
208.6278709141
 21
151.6560680711
 31
0.0
 12
207.7278709141
 22
151.6560680711
 32
0.0
 13
207.7278709141
 23
151.6560680711
 33
0.0
  0
LINE
  5
2E9
330
2E4
100
AcDbEntity
  8
VERMASSUNG
100
AcDbLine
 10
199.2514060988
 20
168.6560680711
 30
0.0
 11
209.1778709141
 21
168.6560680711
 31
0.0
  0
LINE
  5
2EA
330
2E4
100
AcDbEntity
  8
VERMASSUNG
100
AcDbLine
 10
197.2514060988
 20
148.6560680711
 30
0.0
 11
209.1778709141
 21
148.6560680711
 31
0.0
  0
LINE
  5
2EB
330
2E4
100
AcDbEntity
  8
VERMASSUNG
100
AcDbLine
 10
208.1778709141
 20
168.6560680711
 30
0.0
 11
208.1778709141
 21
148.6560680711
 31
0.0
  0
MTEXT
  5
2EC
330
2E4
100
AcDbEntity
  8
VERMASSUNG
100
AcDbMText
 10
205.599735551
 20
156.8777324481
 30
0.0
 40
2.0
 41
0.0
 71
     1
 72
     1
  1
20
  7
SLDTEXTSTYLE0
 11
-7.044195017643634E-15
 21
1.0
 31
0.0
 73
     1
 44
1.0
  0
ENDBLK
  5
2E6
330
2E4
100
AcDbEntity
  8
0
100
AcDbBlockEnd
  0
BLOCK
  5
2EF
330
2EE
100
AcDbEntity
  8
0
100
AcDbBlockBegin
  2
*D7
 70
     1
 10
0.0
 20
0.0
 30
0.0
  3
*D7
  1

  0
SOLID
  5
2F1
330
2EE
100
AcDbEntity
  8
VERMASSUNG
100
AcDbTrace
 10
214.1778709141
 20
168.6560680711
 30
0.0
 11
213.7278709141
 21
165.6560680711
 31
0.0
 12
214.6278709141
 22
165.6560680711
 32
0.0
 13
214.6278709141
 23
165.6560680711
 33
0.0
  0
SOLID
  5
2F2
330
2EE
100
AcDbEntity
  8
VERMASSUNG
100
AcDbTrace
 10
214.1778709141
 20
136.6560680711
 30
0.0
 11
214.6278709141
 21
139.6560680711
 31
0.0
 12
213.7278709141
 22
139.6560680711
 32
0.0
 13
213.7278709141
 23
139.6560680711
 33
0.0
  0
LINE
  5
2F3
330
2EE
100
AcDbEntity
  8
VERMASSUNG
100
AcDbLine
 10
199.2514060988
 20
168.6560680711
 30
0.0
 11
215.1778709141
 21
168.6560680711
 31
0.0
  0
LINE
  5
2F4
330
2EE
100
AcDbEntity
  8
VERMASSUNG
100
AcDbLine
 10
197.2514060988
 20
136.6560680711
 30
0.0
 11
215.1778709141
 21
136.6560680711
 31
0.0
  0
LINE
  5
2F5
330
2EE
100
AcDbEntity
  8
VERMASSUNG
100
AcDbLine
 10
214.1778709141
 20
168.6560680711
 30
0.0
 11
214.1778709141
 21
136.6560680711
 31
0.0
  0
MTEXT
  5
2F6
330
2EE
100
AcDbEntity
  8
VERMASSUNG
100
AcDbMText
 10
211.599735551
 20
150.1556841677
 30
0.0
 40
2.0
 41
0.0
 71
     1
 72
     1
  1
32
  7
SLDTEXTSTYLE0
 11
-7.044195017643634E-15
 21
1.0
 31
0.0
 73
     1
 44
1.0
  0
ENDBLK
  5
2F0
330
2EE
100
AcDbEntity
  8
0
100
AcDbBlockEnd
  0
BLOCK
  5
2F9
330
2F8
100
AcDbEntity
  8
0
100
AcDbBlockBegin
  2
*D8
 70
     1
 10
0.0
 20
0.0
 30
0.0
  3
*D8
  1

  0
SOLID
  5
2FB
330
2F8
100
AcDbEntity
  8
VERMASSUNG
100
AcDbTrace
 10
220.1778709141
 20
188.6560680711
 30
0.0
 11
219.7278709141
 21
185.6560680711
 31
0.0
 12
220.6278709141
 22
185.6560680711
 32
0.0
 13
220.6278709141
 23
185.6560680711
 33
0.0
  0
SOLID
  5
2FC
330
2F8
100
AcDbEntity
  8
VERMASSUNG
100
AcDbTrace
 10
220.1778709141
 20
136.6560680711
 30
0.0
 11
220.6278709141
 21
139.6560680711
 31
0.0
 12
219.7278709141
 22
139.6560680711
 32
0.0
 13
219.7278709141
 23
139.6560680711
 33
0.0
  0
LINE
  5
2FD
330
2F8
100
AcDbEntity
  8
VERMASSUNG
100
AcDbLine
 10
197.2514060988
 20
188.6560680711
 30
0.0
 11
221.1778709141
 21
188.6560680711
 31
0.0
  0
LINE
  5
2FE
330
2F8
100
AcDbEntity
  8
VERMASSUNG
100
AcDbLine
 10
197.2514060988
 20
136.6560680711
 30
0.0
 11
221.1778709141
 21
136.6560680711
 31
0.0
  0
LINE
  5
2FF
330
2F8
100
AcDbEntity
  8
VERMASSUNG
100
AcDbLine
 10
220.1778709141
 20
188.6560680711
 30
0.0
 11
220.1778709141
 21
136.6560680711
 31
0.0
  0
MTEXT
  5
300
330
2F8
100
AcDbEntity
  8
VERMASSUNG
100
AcDbMText
 10
217.599735551
 20
159.588235787
 30
0.0
 40
2.0
 41
0.0
 71
     1
 72
     1
  1
52
  7
SLDTEXTSTYLE0
 11
-7.044195017643634E-15
 21
1.0
 31
0.0
 73
     1
 44
1.0
  0
ENDBLK
  5
2FA
330
2F8
100
AcDbEntity
  8
0
100
AcDbBlockEnd
  0
ENDSEC
  0
SECTION
  2
ENTITIES
  0
MTEXT
  5
45
330
1F
100
AcDbEntity
  8
KOPF_DÜNN
100
AcDbMText
 10
13.8892156294
 20
23.8442973028
 30
0.0
 40
3.0
 41
0.0
 71
     1
 72
     1
  1
HA4.V20.N11.075
  7
SLDTEXTSTYLE0
 73
     1
 44
1.0
  0
MTEXT
  5
46
330
1F
100
AcDbEntity
  8
VERMASSUNG
100
AcDbMText
 10
13.9329988022
 20
28.8834360957
 30
0.0
 40
3.0
 41
0.0
 71
     1
 72
     1
  1
Werkzeughalter radial_Tool holder radial
  7
SLDTEXTSTYLE0
 73
     1
 44
1.0
  0
MTEXT
  5
47
330
1F
100
AcDbEntity
  8
VERMASSUNG
100
AcDbMText
 10
98.8601118557
 20
13.8365368179
 30
0.0
 40
2.0
 41
0.0
 71
     1
 72
     1
  1
Datum: 09.11.2006
  7
SLDTEXTSTYLE0
 73
     1
 44
1.0
  0
MTEXT
  5
48
330
1F
100
AcDbEntity
  8
VERMASSUNG
100
AcDbMText
 10
13.933048693
 20
18.0482802738
 30
0.0
 40
2.0
 41
0.0
 71
     1
 72
     1
  1
DIN 69893 HSK 40 A ICTM / 20x20
  7
SLDTEXTSTYLE0
 73
     1
 44
1.0
  0
MTEXT
  5
49
330
1F
100
AcDbEntity
  8
VERMASSUNG
100
AcDbMText
 10
13.9808475933
 20
13.9090973692
 30
0.0
 40
2.0
 41
0.0
 71
     1
 72
     1
  1
Gewicht: 1005g
  7
SLDTEXTSTYLE0
 73
     1
 44
1.0
  0
ARC
  5
4A
330
1F
100
AcDbEntity
  8
0
  6
Continuous
 62
     7
370
    15
100
AcDbCircle
 10
169.2514060988
 20
100.1437578762
 30
0.0
 40
4.999999999999996
100
AcDbArc
 50
132.0011551314
 51
156.4218215218
  0
ARC
  5
4B
330
1F
100
AcDbEntity
  8
0
  6
Continuous
 62
     7
370
    15
100
AcDbCircle
 10
169.2514060988
 20
100.1437578762
 30
0.0
 40
5.000000000000021
100
AcDbArc
 50
23.5781784782
 51
51.0427295383
  0
ARC
  5
4C
330
1F
100
AcDbEntity
  8
0
  6
Continuous
 62
     7
370
    15
100
AcDbCircle
 10
169.2514060988
 20
44.1437578762
 30
0.0
 40
5.000000000000019
100
AcDbArc
 50
312.5932524034
 51
336.4218215218
  0
ARC
  5
4D
330
1F
100
AcDbEntity
  8
0
  6
Continuous
 62
     7
370
    15
100
AcDbCircle
 10
169.2514060988
 20
44.1437578762
 30
0.0
 40
5.000000000000003
100
AcDbArc
 50
203.5781784782
 51
231.5926175892
  0
LINE
  5
4E
330
1F
100
AcDbEntity
  8
0
  6
Continuous
 62
     7
370
    15
100
AcDbLine
 10
160.8687201966
 20
102.1437578762
 30
0.0
 11
157.4500049371
 21
89.3849388311
 31
0.0
  0
LINE
  5
4F
330
1F
100
AcDbEntity
  8
0
  6
Continuous
 62
     7
370
    15
100
AcDbLine
 10
157.4500049371
 20
54.9025769213
 30
0.0
 11
160.8687201966
 21
42.1437578762
 31
0.0
  0
LINE
  5
50
330
1F
100
AcDbEntity
  8
0
  6
Continuous
 62
     7
370
    15
100
AcDbLine
 10
122.5514060988
 20
52.1437578762
 30
0.0
 11
130.2014060988
 21
52.1437578762
 31
0.0
  0
LINE
  5
51
330
1F
100
AcDbEntity
  8
0
  6
Continuous
 62
     7
370
    15
100
AcDbLine
 10
130.2169333077
 20
92.1437578762
 30
0.0
 11
122.5514060988
 21
92.1437578762
 31
0.0
  0
ARC
  5
52
330
1F
100
AcDbEntity
  8
0
  6
Continuous
 62
     7
370
    15
100
AcDbCircle
 10
122.5514060988
 20
52.4437578762
 30
0.0
 40
0.3000000000000114
100
AcDbArc
 50
180.0
 51
270.0
  0
ARC
  5
53
330
1F
100
AcDbEntity
  8
0
  6
Continuous
 62
     7
370
    15
100
AcDbCircle
 10
122.5514060988
 20
91.8437578762
 30
0.0
 40
0.3000000000000114
100
AcDbArc
 50
90.0
 51
180.0
  0
ARC
  5
54
330
1F
100
AcDbEntity
  8
0
  6
Continuous
 62
     7
370
    15
100
AcDbCircle
 10
143.2014060988
 20
54.6437578762
 30
0.0
 40
1.00000000000001
100
AcDbArc
 50
90.0
 51
143.1137328946
  0
ARC
  5
55
330
1F
100
AcDbEntity
  8
0
  6
Continuous
 62
     7
370
    15
100
AcDbCircle
 10
143.2014060988
 20
89.6437578762
 30
0.0
 40
1.00000000000002
100
AcDbArc
 50
216.8998129703
 51
270.0
  0
ARC
  5
56
330
1F
100
AcDbEntity
  8
0
  6
Continuous
 62
     7
370
    15
100
AcDbCircle
 10
156.4840791108
 20
89.6437578762
 30
0.0
 40
1.0
100
AcDbArc
 50
270.0
 51
345.0
  0
ARC
  5
57
330
1F
100
AcDbEntity
  8
0
  6
Continuous
 62
     7
370
    15
100
AcDbCircle
 10
156.4840791108
 20
54.6437578762
 30
0.0
 40
1.0
100
AcDbArc
 50
15.0
 51
90.0
  0
LINE
  5
58
330
1F
100
AcDbEntity
  8
0
  6
Continuous
 62
     7
370
    15
100
AcDbLine
 10
143.2014060988
 20
55.6437578762
 30
0.0
 11
156.4840791108
 21
55.6437578762
 31
0.0
  0
LINE
  5
59
330
1F
100
AcDbEntity
  8
0
  6
Continuous
 62
     7
370
    15
100
AcDbLine
 10
156.4840791108
 20
88.6437578762
 30
0.0
 11
143.2014060988
 21
88.6437578762
 31
0.0
  0
ARC
  5
5A
330
1F
100
AcDbEntity
  8
0
  6
Continuous
 62
     7
370
    15
100
AcDbCircle
 10
121.7513993461
 20
56.6900507228
 30
0.0
 40
0.6000067526677171
100
AcDbArc
 50
33.5571153394
 51
90.0
  0
ARC
  5
5B
330
1F
100
AcDbEntity
  8
0
  6
Continuous
 62
     7
370
    15
100
AcDbCircle
 10
121.7513993461
 20
87.5974650297
 30
0.0
 40
0.6000067526677164
100
AcDbArc
 50
270.0
 51
326.4428846606
  0
LINE
  5
5C
330
1F
100
AcDbEntity
  8
0
  6
Continuous
 62
     7
370
    15
100
AcDbLine
 10
113.4871894067
 20
86.9085696652
 30
0.0
 11
105.9514060988
 21
86.5310254113
 31
0.0
  0
LINE
  5
5D
330
1F
100
AcDbEntity
  8
0
  6
Continuous
 62
     7
370
    15
100
AcDbLine
 10
120.2514060988
 20
87.247458277
 30
0.0
 11
118.9640978519
 21
87.1829638759
 31
0.0
  0
LINE
  5
5E
330
1F
100
AcDbEntity
  8
0
  6
Continuous
 62
     7
370
    15
100
AcDbLine
 10
118.964185997
 20
57.1045474605
 30
0.0
 11
120.2514060988
 21
57.0400574754
 31
0.0
  0
LINE
  5
5F
330
1F
100
AcDbEntity
  8
0
  6
Continuous
 62
     7
370
    15
100
AcDbLine
 10
108.4514060988
 20
57.6312398402
 30
0.0
 11
113.4885116214
 21
57.378879844
 31
0.0
  0
LINE
  5
60
330
1F
100
AcDbEntity
  8
0
  6
Continuous
 62
     7
370
    15
100
AcDbLine
 10
120.2514060988
 20
57.0400574754
 30
0.0
 11
121.1081180135
 21
57.2696127411
 31
0.0
  0
LINE
  5
61
330
1F
100
AcDbEntity
  8
0
  6
Continuous
 62
     7
370
    15
100
AcDbLine
 10
121.1081180135
 20
87.0179030113
 30
0.0
 11
120.2514060988
 21
87.247458277
 31
0.0
  0
ARC
  5
62
330
1F
100
AcDbEntity
  8
0
  6
Continuous
 62
     7
370
    15
100
AcDbCircle
 10
121.2634111883
 20
56.6900507228
 30
0.0
 40
0.6000067526677133
100
AcDbArc
 50
90.0
 51
105.0
  0
ARC
  5
63
330
1F
100
AcDbEntity
  8
0
  6
Continuous
 62
     7
370
    15
100
AcDbCircle
 10
121.2634111883
 20
87.5974650297
 30
0.0
 40
0.6000067526677133
100
AcDbArc
 50
255.0
 51
270.0
  0
LINE
  5
64
330
1F
100
AcDbEntity
  8
0
  6
Continuous
 62
     7
370
    15
100
AcDbLine
 10
121.2634111883
 20
57.2900574754
 30
0.0
 11
121.7513993461
 21
57.2900574754
 31
0.0
  0
LINE
  5
65
330
1F
100
AcDbEntity
  8
0
  6
Continuous
 62
     7
370
    15
100
AcDbLine
 10
121.7513993461
 20
86.997458277
 30
0.0
 11
121.2634111883
 21
86.997458277
 31
0.0
  0
ARC
  5
66
330
1F
100
AcDbEntity
  8
0
  6
Continuous
 62
     7
370
    15
100
AcDbCircle
 10
105.0514060988
 20
85.9237578762
 30
0.0
 40
0.8999999999999978
100
AcDbArc
 50
270.0
 51
311.1792132369
  0
ARC
  5
67
330
1F
100
AcDbEntity
  8
0
  6
Continuous
 62
     7
370
    15
100
AcDbCircle
 10
107.5514060988
 20
58.3637578762
 30
0.0
 40
0.8999999999999915
100
AcDbArc
 50
34.6391318474
 51
90.0
  0
LINE
  5
68
330
1F
100
AcDbEntity
  8
0
  6
Continuous
 62
     7
370
    15
100
AcDbLine
 10
103.3014060988
 20
85.0237578762
 30
0.0
 11
102.3864632894
 21
84.4955153989
 31
0.0
  0
LINE
  5
69
330
1F
100
AcDbEntity
  8
0
  6
Continuous
 62
     7
370
    15
100
AcDbLine
 10
105.0514060988
 20
85.0237578762
 30
0.0
 11
103.3014060988
 21
85.0237578762
 31
0.0
  0
LINE
  5
6A
330
1F
100
AcDbEntity
  8
0
  6
Continuous
 62
     7
370
    15
100
AcDbLine
 10
103.4035970964
 20
59.2637578762
 30
0.0
 11
107.5514060988
 21
59.2637578762
 31
0.0
  0
LINE
  5
6B
330
1F
100
AcDbEntity
  8
0
  6
Continuous
 62
     7
370
    15
100
AcDbLine
 10
102.3632112111
 20
59.8644249472
 30
0.0
 11
103.4035970964
 21
59.2637578762
 31
0.0
  0
LINE
  5
6C
330
1F
100
AcDbEntity
  8
0
  6
Continuous
 62
     7
370
    15
100
AcDbLine
 10
184.4923801014
 20
71.294576577
 30
0.0
 11
185.1364805226
 21
74.1085538301
 31
0.0
  0
CIRCLE
  5
6D
330
1F
100
AcDbEntity
  8
0
  6
Continuous
 62
     7
370
    15
100
AcDbCircle
 10
187.2514060988
 20
72.1437578762
 30
0.0
 40
4.171999999999995
  0
LINE
  5
6E
330
1F
100
AcDbEntity
  8
0
  6
Continuous
 62
     7
370
    15
100
AcDbLine
 10
184.4923801014
 20
71.294576577
 30
0.0
 11
186.6073056776
 21
69.3297806232
 31
0.0
  0
LINE
  5
6F
330
1F
100
AcDbEntity
  8
0
  6
Continuous
 62
     7
370
    15
100
AcDbLine
 10
189.366331675
 20
70.1789619224
 30
0.0
 11
186.6073056776
 21
69.3297806232
 31
0.0
  0
LINE
  5
70
330
1F
100
AcDbEntity
  8
0
  6
Continuous
 62
     7
370
    15
100
AcDbLine
 10
185.1364805226
 20
74.1085538301
 30
0.0
 11
187.89550652
 21
74.9577351293
 31
0.0
  0
LINE
  5
71
330
1F
100
AcDbEntity
  8
0
  6
Continuous
 62
     7
370
    15
100
AcDbLine
 10
190.0104320962
 20
72.9929391754
 30
0.0
 11
187.89550652
 21
74.9577351293
 31
0.0
  0
LINE
  5
72
330
1F
100
AcDbEntity
  8
0
  6
Continuous
 62
     7
370
    15
100
AcDbLine
 10
189.366331675
 20
70.1789619224
 30
0.0
 11
190.0104320962
 21
72.9929391754
 31
0.0
  0
LINE
  5
73
330
1F
100
AcDbEntity
  8
0
  6
Continuous
 62
     7
370
    15
100
AcDbLine
 10
185.5371392039
 20
89.8211252436
 30
0.0
 11
184.3828137878
 21
92.4670402398
 31
0.0
  0
LINE
  5
74
330
1F
100
AcDbEntity
  8
0
  6
Continuous
 62
     7
370
    15
100
AcDbLine
 10
190.1199984098
 20
91.8204755127
 30
0.0
 11
188.4057315149
 21
89.49784288
 31
0.0
  0
CIRCLE
  5
75
330
1F
100
AcDbEntity
  8
0
  6
Continuous
 62
     7
370
    15
100
AcDbCircle
 10
187.2514060988
 20
92.1437578762
 30
0.0
 40
4.171999999999989
  0
LINE
  5
76
330
1F
100
AcDbEntity
  8
0
  6
Continuous
 62
     7
370
    15
100
AcDbLine
 10
190.1199984098
 20
91.8204755127
 30
0.0
 11
188.9656729937
 21
94.4663905089
 31
0.0
  0
LINE
  5
77
330
1F
100
AcDbEntity
  8
0
  6
Continuous
 62
     7
370
    15
100
AcDbLine
 10
188.9656729937
 20
94.4663905089
 30
0.0
 11
186.0970806827
 21
94.7896728724
 31
0.0
  0
LINE
  5
78
330
1F
100
AcDbEntity
  8
0
  6
Continuous
 62
     7
370
    15
100
AcDbLine
 10
184.3828137878
 20
92.4670402398
 30
0.0
 11
186.0970806827
 21
94.7896728724
 31
0.0
  0
LINE
  5
79
330
1F
100
AcDbEntity
  8
0
  6
Continuous
 62
     7
370
    15
100
AcDbLine
 10
185.5371392039
 20
89.8211252436
 30
0.0
 11
188.4057315149
 21
89.49784288
 31
0.0
  0
CIRCLE
  5
7A
330
1F
100
AcDbEntity
  8
0
  6
Continuous
 62
     7
370
    15
100
AcDbCircle
 10
187.2514060988
 20
52.1437578762
 30
0.0
 40
4.172000000000004
  0
LINE
  5
7B
330
1F
100
AcDbEntity
  8
0
  6
Continuous
 62
     7
370
    15
100
AcDbLine
 10
184.7514060988
 20
53.5871335492
 30
0.0
 11
187.2514060988
 21
55.0305092222
 31
0.0
  0
LINE
  5
7C
330
1F
100
AcDbEntity
  8
0
  6
Continuous
 62
     7
370
    15
100
AcDbLine
 10
184.7514060988
 20
50.7003822033
 30
0.0
 11
187.2514060988
 21
49.2570065303
 31
0.0
  0
LINE
  5
7D
330
1F
100
AcDbEntity
  8
0
  6
Continuous
 62
     7
370
    15
100
AcDbLine
 10
189.7514060988
 20
50.7003822033
 30
0.0
 11
187.2514060988
 21
49.2570065303
 31
0.0
  0
LINE
  5
7E
330
1F
100
AcDbEntity
  8
0
  6
Continuous
 62
     7
370
    15
100
AcDbLine
 10
189.7514060988
 20
50.7003822033
 30
0.0
 11
189.7514060988
 21
53.5871335492
 31
0.0
  0
LINE
  5
7F
330
1F
100
AcDbEntity
  8
0
  6
Continuous
 62
     7
370
    15
100
AcDbLine
 10
189.7514060988
 20
53.5871335492
 30
0.0
 11
187.2514060988
 21
55.0305092222
 31
0.0
  0
LINE
  5
80
330
1F
100
AcDbEntity
  8
0
  6
Continuous
 62
     7
370
    15
100
AcDbLine
 10
184.7514060988
 20
50.7003822033
 30
0.0
 11
184.7514060988
 21
53.5871335492
 31
0.0
  0
LWPOLYLINE
  5
81
330
1F
100
AcDbEntity
  8
0
  6
Continuous
 62
     7
370
    15
100
AcDbPolyline
 90
       32
 70
   128
 43
0.0
 10
172.2546082881
 20
104.0622603869
 10
172.384155894
 20
104.0378895625
 10
172.3813205848
 20
104.0094520257
 10
172.2462184385
 20
103.9781120125
 10
171.9843805527
 20
103.9451525867
 10
171.6065266012
 20
103.9119231112
 10
171.1281259693
 20
103.8797840046
 10
170.568764435
 20
103.8500510456
 10
169.9513423252
 20
103.8239415051
 10
169.3011369737
 20
103.8025243108
 10
168.644767864
 20
103.7866762851
 10
168.0091068245
 20
103.777046248
 10
167.4201778928
 20
103.7740284544
 10
166.9020918887
 20
103.7777464531
 10
166.476059314
 20
103.7880480289
 10
166.1595219923
 20
103.8045114339
 10
165.9654389989
 20
103.8264626545
 10
165.9017561142
 20
103.8530030051
 10
165.9710805231
 20
103.8830459206
 10
166.1705740761
 20
103.9153614405
 10
166.4920694837
 20
103.9486265638
 10
166.9224046861
 20
103.9814794122
 10
167.4439617097
 20
104.0125749863
 10
168.0353879485
 20
104.0406402297
 10
168.6724703429
 20
104.0645261481
 10
169.3291266647
 20
104.083254849
 10
169.9784733271
 20
104.0960595773
 10
170.5939260013
 20
104.1024161059
 10
171.1502879826
 20
104.1020641978
 10
171.6247817461
 20
104.0950182602
 10
171.9979814613
 20
104.0815667545
 10
172.2546082881
 20
104.0622603869
  0
LWPOLYLINE
  5
82
330
1F
100
AcDbEntity
  8
0
  6
Continuous
 62
     7
370
    15
100
AcDbPolyline
 90
       28
 70
   128
 43
0.0
 10
171.5382944169
 20
104.0337133068
 10
171.6440938167
 20
104.0119028051
 10
171.6154673228
 20
103.9861381782
 10
171.4539581969
 20
103.957808404
 10
171.1682734377
 20
103.9284407477
 10
170.7738143846
 20
103.8996184274
 10
170.2918464273
 20
103.8728952619
 10
169.748352583
 20
103.8497119038
 10
169.1726327456
 20
103.8313181741
 10
168.5957241206
 20
103.8187056834
 10
168.0487280012
 20
103.8125543744
 10
167.5611330898
 20
103.8131958657
 10
167.1592257544
 20
103.8205955745
 10
166.8646729233
 20
103.8343545804
 10
166.693354016
 20
103.853731132
 10
166.6545048791
 20
103.8776806342
 10
166.7502198796
 20
103.9049119633
 10
166.9753389971
 20
103.9339570712
 10
167.3177260017
 20
103.9632501286
 10
167.7589227213
 20
103.9912119393
 10
168.2751441265
 20
104.0163350747
 10
168.8385605879
 20
104.0372651403
 10
169.4187981782
 20
104.0528737906
 10
169.9845761385
 20
104.0623195593
 10
170.5053932328
 20
104.0650932227
 10
170.9531720766
 20
104.0610452517
 10
171.3037727965
 20
104.0503938735
 10
171.5382944169
 20
104.0337133068
  0
ARC
  5
83
330
1F
100
AcDbEntity
  8
0
  6
Continuous
 62
     7
370
    15
100
AcDbCircle
 10
168.9810444894
 20
68.4054009633
 30
0.0
 40
28.1804681622914
100
AcDbArc
 50
270.2741398984
 51
277.4508240773
  0
ARC
  5
84
330
1F
100
AcDbEntity
  8
0
  6
Continuous
 62
     7
370
    15
100
AcDbCircle
 10
167.6334572282
 20
60.2656218211
 30
0.0
 40
20.0951202402684
100
AcDbArc
 50
265.7526421726
 51
274.2305619428
  0
SPLINE
  5
85
330
1F
100
AcDbEntity
  8
0
  6
Continuous
 62
     7
370
    15
100
AcDbSpline
210
0.0
220
0.0
230
1.0
 70
    24
 71
     3
 72
    12
 73
     8
 74
     0
 42
0.00000001
 43
0.00000001
 40
0.0
 40
0.0
 40
0.0
 40
0.0
 40
0.2486544739237829
 40
0.4953576621473871
 40
0.742043343768874
 40
0.9903260300121386
 40
1.0
 40
1.0
 40
1.0
 40
1.0
 10
162.4912899489852
 20
102.1437578762291
 30
0.0
 10
162.2586360466725
 20
102.1437578762291
 30
0.0
 10
161.7951539652105
 20
102.1437578762291
 30
0.0
 10
161.2812099456202
 20
102.1437578762291
 30
0.0
 10
160.9666058568136
 20
102.1437578762291
 30
0.0
 10
160.8361042597844
 20
102.1437578762292
 30
0.0
 10
160.8723107057408
 20
102.1437578762291
 30
0.0
 10
160.8736685310307
 20
102.1437578762291
 30
0.0
  0
SPLINE
  5
86
330
1F
100
AcDbEntity
  8
0
  6
Continuous
 62
     7
370
    15
100
AcDbSpline
210
0.0
220
0.0
230
1.0
 70
     8
 71
     3
 72
    22
 73
    18
 74
     0
 42
0.00000001
 43
0.00000001
 40
0.0
 40
0.0
 40
0.0
 40
0.0
 40
0.125
 40
0.125
 40
0.25
 40
0.25
 40
0.375
 40
0.375
 40
0.5
 40
0.5
 40
0.625
 40
0.625
 40
0.75
 40
0.75
 40
0.875
 40
0.875
 40
1.0
 40
1.0
 40
1.0
 40
1.0
 10
162.4912899489852
 20
102.1437578762291
 30
0.0
 10
161.9404975364935
 20
99.67325184813113
 30
0.0
 10
161.4086032309119
 20
97.19679474839815
 30
0.0
 10
160.414208367463
 20
92.23864092436595
 30
0.0
 10
159.9511864351045
 20
89.75642752288934
 30
0.0
 10
159.1470172014652
 20
84.78081555796408
 30
0.0
 10
158.8063345849597
 20
82.28737434762141
 30
0.0
 10
158.3276742105699
 20
77.28188849276654
 30
0.0
 10
158.1927270229166
 20
74.76956571474453
 30
0.0
 10
158.1858673135337
 20
69.72077989820006
 30
0.0
 10
158.3144869270711
 20
67.18386461045533
 30
0.0
 10
158.7939627623619
 20
62.0912589092833
 30
0.0
 10
159.1375941189034
 20
59.56964876884117
 30
0.0
 10
159.9465279011094
 20
54.5553464684827
 30
0.0
 10
160.4115359731474
 20
52.06258434852983
 30
0.0
 10
161.4080942431054
 20
47.09287540402889
 30
0.0
 10
161.9401021485294
 20
44.61603736439395
 30
0.0
 10
162.4912899489852
 20
42.1437578762291
 30
0.0
  0
SPLINE
  5
87
330
1F
100
AcDbEntity
  8
0
  6
Continuous
 62
     7
370
    15
100
AcDbSpline
210
0.0
220
0.0
230
1.0
 70
    24
 71
     3
 72
    11
 73
     7
 74
     0
 42
0.00000001
 43
0.00000001
 40
0.0
 40
0.0
 40
0.0
 40
0.0
 40
0.2430543700359752
 40
0.4970054382710627
 40
0.7513502545042818
 40
1.0
 40
1.0
 40
1.0
 40
1.0
 10
160.8728453070255
 20
42.14375787622912
 30
0.0
 10
160.8916855749569
 20
42.14375787622912
 30
0.0
 10
160.9302107642756
 20
42.14375787622912
 30
0.0
 10
161.2729849066215
 20
42.14375787622912
 30
0.0
 10
161.7864351721098
 20
42.14375787622911
 30
0.0
 10
162.2581185417159
 20
42.14375787622911
 30
0.0
 10
162.4912899489852
 20
42.14375787622911
 30
0.0
  0
LINE
  5
88
330
1F
100
AcDbEntity
  8
0
  6
Continuous
 62
     7
370
    15
100
AcDbLine
 10
130.2014060988
 20
83.9937578762
 30
0.0
 11
136.2162463999
 21
83.9937578762
 31
0.0
  0
LINE
  5
89
330
1F
100
AcDbEntity
  8
0
  6
Continuous
 62
     7
370
    15
100
AcDbLine
 10
136.2162463999
 20
52.9148733532
 30
0.0
 11
136.2162463999
 21
83.9937578762
 31
0.0
  0
LINE
  5
8A
330
1F
100
AcDbEntity
  8
0
  6
Continuous
 62
     7
370
    15
100
AcDbLine
 10
136.2162463999
 20
52.9148733532
 30
0.0
 11
134.7014060988
 21
52.9148733532
 31
0.0
  0
SPLINE
  5
8B
330
1F
100
AcDbEntity
  8
0
  6
Continuous
 62
     7
370
    15
100
AcDbSpline
210
0.0
220
0.0
230
1.0
 70
     8
 71
     3
 72
    22
 73
    18
 74
     0
 42
0.00000001
 43
0.00000001
 40
0.0
 40
0.0
 40
0.0
 40
0.0
 40
0.125
 40
0.125
 40
0.25
 40
0.25
 40
0.375
 40
0.375
 40
0.5
 40
0.5
 40
0.625
 40
0.625
 40
0.75
 40
0.75
 40
0.875
 40
0.875
 40
1.0
 40
1.0
 40
1.0
 40
1.0
 10
134.7014060988029
 20
52.91487335319972
 30
0.0
 10
134.4022816697622
 20
52.91487335319972
 30
0.0
 10
134.1084592215134
 20
52.90635925213331
 30
0.0
 10
133.5308949452671
 20
52.87391548325142
 30
0.0
 10
133.2440772674531
 20
52.84958159454939
 30
0.0
 10
132.6996147385538
 20
52.78912156979256
 30
0.0
 10
132.4416594679325
 20
52.75320814901407
 30
0.0
 10
131.9536015245725
 20
52.67349812294493
 30
0.0
 10
131.7239032259088
 20
52.62961982175559
 30
0.0
 10
131.3114842429562
 20
52.54137619938541
 30
0.0
 10
131.1259573000961
 20
52.49656785792445
 30
0.0
 10
130.7974372551953
 20
52.40924685000527
 30
0.0
 10
130.6590233682958
 20
52.3679560614296
 30
0.0
 10
130.4344312216799
 20
52.29361783813578
 30
0.0
 10
130.3473524095557
 20
52.26020771240111
 30
0.0
 10
130.2308506016006
 20
52.20518831087498
 30
0.0
 10
130.2014060988028
 20
52.18372654440874
 30
0.0
 10
130.2014060988028
 20
52.16877352079095
 30
0.0
  0
LINE
  5
8C
330
1F
100
AcDbEntity
  8
0
  6
Continuous
 62
     7
370
    15
100
AcDbLine
 10
130.2014060988
 20
52.1687735208
 30
0.0
 11
130.2014060988
 21
52.1437578762
 31
0.0
  0
SPLINE
  5
8D
330
1F
100
AcDbEntity
  8
0
  6
Continuous
 62
     7
370
    15
100
AcDbSpline
210
0.0
220
0.0
230
1.0
 70
     8
 71
     3
 72
    17
 73
    13
 74
     0
 42
0.00000001
 43
0.00000001
 40
0.0
 40
0.0
 40
0.0
 40
0.0
 40
0.1039928027398875
 40
0.2110507583651597
 40
0.3150299276010394
 40
0.4219351577673533
 40
0.5275775719344162
 40
0.6362134668260591
 40
0.7429488749763837
 40
0.8528788158890317
 40
0.957827725016201
 40
1.0
 40
1.0
 40
1.0
 40
1.0
 10
134.7014060988029
 20
91.63093314613418
 30
0.0
 10
134.4555890843907
 20
91.63364962365091
 30
0.0
 10
133.9567096817409
 20
91.63916264594552
 30
0.0
 10
133.2332262935043
 20
91.68224612271486
 30
0.0
 10
132.5454310541942
 20
91.74611242266347
 30
0.0
 10
131.9206854332844
 20
91.82544730595
 30
0.0
 10
131.364734365583
 20
91.9123852228971
 30
0.0
 10
130.9027478154925
 20
91.99634690973703
 30
0.0
 10
130.5404831076411
 20
92.0695084016215
 30
0.0
 10
130.3087038376598
 20
92.11964625718836
 30
0.0
 10
130.1991384001694
 20
92.1442648510944
 30
0.0
 10
130.2129688192059
 20
92.14116089293836
 30
0.0
 10
130.2169333076531
 20
92.14027114359544
 30
0.0
  0
LINE
  5
8E
330
1F
100
AcDbEntity
  8
0
  6
Continuous
 62
     7
370
    15
100
AcDbLine
 10
136.2162463999
 20
91.6309331461
 30
0.0
 11
134.7014060988
 21
91.6309331461
 31
0.0
  0
LINE
  5
8F
330
1F
100
AcDbEntity
  8
0
  6
Continuous
 62
     7
370
    15
100
AcDbLine
 10
136.2162463999
 20
88.2551668773
 30
0.0
 11
136.2162463999
 21
91.6309331461
 31
0.0
  0
LINE
  5
90
330
1F
100
AcDbEntity
  8
0
  6
Continuous
 62
     7
370
    15
100
AcDbLine
 10
134.6950765735
 20
88.2551668773
 30
0.0
 11
136.2162463999
 21
88.2551668773
 31
0.0
  0
SPLINE
  5
91
330
1F
100
AcDbEntity
  8
0
  6
Continuous
 62
     7
370
    15
100
AcDbSpline
210
0.0
220
0.0
230
1.0
 70
     8
 71
     3
 72
    22
 73
    18
 74
     0
 42
0.00000001
 43
0.00000001
 40
0.0
 40
0.0
 40
0.0
 40
0.0
 40
0.2500000000000002
 40
0.2500000000000002
 40
0.3750000000000001
 40
0.3750000000000001
 40
0.5000000000000001
 40
0.5000000000000001
 40
0.6250000000000001
 40
0.6250000000000001
 40
0.75
 40
0.75
 40
0.875
 40
0.875
 40
0.9375000000000001
 40
0.9375000000000001
 40
1.0
 40
1.0
 40
1.0
 40
1.0
 10
130.2014060988028
 20
83.99375787622913
 30
0.0
 10
130.2233871167895
 20
84.55663051812715
 30
0.0
 10
130.3023640001442
 20
85.08725540185668
 30
0.0
 10
130.5487618931766
 20
85.83296639277825
 30
0.0
 10
130.6532865082675
 20
86.07458661917696
 30
0.0
 10
130.915133103574
 20
86.53344539450288
 30
0.0
 10
131.0703497257399
 20
86.7476240669727
 30
0.0
 10
131.4389414788038
 20
87.14485262611822
 30
0.0
 10
131.6550751712687
 20
87.32929746113803
 30
0.0
 10
132.1389696662556
 20
87.65037730902166
 30
0.0
 10
132.4094352112633
 20
87.78972813912767
 30
0.0
 10
133.0056617767735
 20
88.01903367355325
 30
0.0
 10
133.3211550434935
 20
88.10556968302957
 30
0.0
 10
133.821871691512
 20
88.19445928736083
 30
0.0
 10
133.9946681261272
 20
88.21726779322246
 30
0.0
 10
134.3430368989092
 20
88.24755895591869
 30
0.0
 10
134.5184379278196
 20
88.25516687730658
 30
0.0
 10
134.6950765735076
 20
88.25516687730658
 30
0.0
  0
LINE
  5
92
330
1F
100
AcDbEntity
  8
0
  6
Continuous
 62
     7
370
    15
100
AcDbLine
 10
142.2014060988
 20
53.5397260551
 30
0.0
 11
142.2014060988
 21
83.9937578762
 31
0.0
  0
SPLINE
  5
93
330
1F
100
AcDbEntity
  8
0
  6
Continuous
 62
     7
370
    15
100
AcDbSpline
210
0.0
220
0.0
230
1.0
 70
     8
 71
     3
 72
    10
 73
     6
 74
     0
 42
0.00000001
 43
0.00000001
 40
0.0
 40
0.0
 40
0.0
 40
0.0
 40
0.5
 40
0.5
 40
1.0
 40
1.0
 40
1.0
 40
1.0
 10
142.2014060988029
 20
53.53972605514259
 30
0.0
 10
142.2014060988029
 20
53.38009388623936
 30
0.0
 10
142.1397695850975
 20
53.2190442524753
 30
0.0
 10
141.9207432188547
 20
52.98605336879871
 30
0.0
 10
141.7631263308072
 20
52.91487335319971
 30
0.0
 10
141.6014060988028
 20
52.91487335319971
 30
0.0
  0
SPLINE
  5
94
330
1F
100
AcDbEntity
  8
0
  6
Continuous
 62
     7
370
    15
100
AcDbSpline
210
0.0
220
0.0
230
1.0
 70
    24
 71
     3
 72
    12
 73
     8
 74
     0
 42
0.00000001
 43
0.00000001
 40
0.0
 40
0.0
 40
0.0
 40
0.0
 40
0.250000000000002
 40
0.250000000000002
 40
0.500000000000004
 40
0.500000000000004
 40
1.0
 40
1.0
 40
1.0
 40
1.0
 10
141.6014060988028
 20
83.99375787622913
 30
0.0
 10
141.6895929641717
 20
83.99375787622913
 30
0.0
 10
141.778280357473
 20
83.99375787622913
 30
0.0
 10
141.9325328505918
 20
83.99375787622913
 30
0.0
 10
141.9978788316678
 20
83.99375787622913
 30
0.0
 10
142.1522887016189
 20
83.99375787622913
 30
0.0
 10
142.2014060988029
 20
83.99375787622913
 30
0.0
 10
142.2014060988029
 20
83.99375787622913
 30
0.0
  0
LINE
  5
95
330
1F
100
AcDbEntity
  8
0
  6
Continuous
 62
     7
370
    15
100
AcDbLine
 10
137.2114060988
 20
54.7146344882
 30
0.0
 11
137.2114060988
 21
83.9937578762
 31
0.0
  0
SPLINE
  5
96
330
1F
100
AcDbEntity
  8
0
  6
Continuous
 62
     7
370
    15
100
AcDbSpline
210
0.0
220
0.0
230
1.0
 70
     8
 71
     3
 72
     8
 73
     4
 74
     0
 42
0.00000001
 43
0.00000001
 40
0.0
 40
0.0
 40
0.0
 40
0.0
 40
1.0
 40
1.0
 40
1.0
 40
1.0
 10
137.2114060988028
 20
54.7146344882394
 30
0.0
 10
136.8807674721882
 20
54.11411413712841
 30
0.0
 10
136.5489516716147
 20
53.51424502642337
 30
0.0
 10
136.2162463999094
 20
52.91487335319971
 30
0.0
  0
SPLINE
  5
97
330
1F
100
AcDbEntity
  8
0
  6
Continuous
 62
     7
370
    15
100
AcDbSpline
210
0.0
220
0.0
230
1.0
 70
    24
 71
     3
 72
     8
 73
     4
 74
     0
 42
0.00000001
 43
0.00000001
 40
0.0
 40
0.0
 40
0.0
 40
0.0
 40
1.0
 40
1.0
 40
1.0
 40
1.0
 10
136.2162463999094
 20
83.99375787622913
 30
0.0
 10
136.555279221664
 20
83.99375787622913
 30
0.0
 10
136.8877694431806
 20
83.99375787622913
 30
0.0
 10
137.2114060988028
 20
83.99375787622913
 30
0.0
  0
LINE
  5
98
330
1F
100
AcDbEntity
  8
0
  6
Continuous
 62
     7
370
    15
100
AcDbLine
 10
162.491289949
 20
42.1437578762
 30
0.0
 11
197.2514060988
 21
42.1437578762
 31
0.0
  0
CIRCLE
  5
99
330
1F
100
AcDbEntity
  8
0
  6
Continuous
 62
     7
370
    15
100
AcDbCircle
 10
187.2514060988
 20
52.1437578762
 30
0.0
 40
5.025000000000006
  0
CIRCLE
  5
9A
330
1F
100
AcDbEntity
  8
0
  6
Continuous
 62
     7
370
    15
100
AcDbCircle
 10
187.2514060988
 20
72.1437578762
 30
0.0
 40
5.024999999999991
  0
CIRCLE
  5
9B
330
1F
100
AcDbEntity
  8
0
  6
Continuous
 62
     7
370
    15
100
AcDbCircle
 10
187.2514060988
 20
92.1437578762
 30
0.0
 40
5.024999999999991
  0
LINE
  5
9C
330
1F
100
AcDbEntity
  8
0
  6
Continuous
 62
     7
370
    15
100
AcDbLine
 10
162.491289949
 20
102.1437578762
 30
0.0
 11
197.2514060988
 21
102.1437578762
 31
0.0
  0
LINE
  5
9D
330
1F
100
AcDbEntity
  8
0
  6
Continuous
 62
     7
370
    15
100
AcDbLine
 10
197.2514060988
 20
102.1437578762
 30
0.0
 11
197.2514060988
 21
42.1437578762
 31
0.0
  0
LINE
  5
9E
330
1F
100
AcDbEntity
  8
0
  6
Continuous
 62
     7
370
    15
100
AcDbLine
 10
141.6014060988
 20
52.9148733532
 30
0.0
 11
140.2865657977
 21
52.9148733532
 31
0.0
  0
LINE
  5
9F
330
1F
100
AcDbEntity
  8
0
  6
Continuous
 62
     7
370
    15
100
AcDbLine
 10
140.2865657977
 20
52.9148733532
 30
0.0
 11
140.2865657977
 21
83.9937578762
 31
0.0
  0
LINE
  5
A0
330
1F
100
AcDbEntity
  8
0
  6
Continuous
 62
     7
370
    15
100
AcDbLine
 10
140.2865657977
 20
83.9937578762
 30
0.0
 11
141.6014060988
 21
83.9937578762
 31
0.0
  0
SPLINE
  5
A1
330
1F
100
AcDbEntity
  8
0
  6
Continuous
 62
     7
370
    15
100
AcDbSpline
210
0.0
220
0.0
230
1.0
 70
     8
 71
     3
 72
     8
 73
     4
 74
     0
 42
0.00000001
 43
0.00000001
 40
0.0
 40
0.0
 40
0.0
 40
0.0
 40
1.0
 40
1.0
 40
1.0
 40
1.0
 10
140.2865657976963
 20
52.91487335319971
 30
0.0
 10
139.953860525991
 20
53.51424502642337
 30
0.0
 10
139.6220447254175
 20
54.11411413712841
 30
0.0
 10
139.2914060988028
 20
54.7146344882394
 30
0.0
  0
LINE
  5
A2
330
1F
100
AcDbEntity
  8
0
  6
Continuous
 62
     7
370
    15
100
AcDbLine
 10
139.2914060988
 20
54.7146344882
 30
0.0
 11
139.2914060988
 21
83.9937578762
 31
0.0
  0
SPLINE
  5
A3
330
1F
100
AcDbEntity
  8
0
  6
Continuous
 62
     7
370
    15
100
AcDbSpline
210
0.0
220
0.0
230
1.0
 70
    24
 71
     3
 72
     8
 73
     4
 74
     0
 42
0.00000001
 43
0.00000001
 40
0.0
 40
0.0
 40
0.0
 40
0.0
 40
1.0
 40
1.0
 40
1.0
 40
1.0
 10
139.2914060988028
 20
83.99375787622913
 30
0.0
 10
139.6150427544251
 20
83.99375787622913
 30
0.0
 10
139.9475329759417
 20
83.99375787622913
 30
0.0
 10
140.2865657976963
 20
83.99375787622913
 30
0.0
  0
LINE
  5
A4
330
1F
100
AcDbEntity
  8
0
  6
Continuous
 62
     7
370
    15
100
AcDbLine
 10
122.2514060988
 20
52.4437578762
 30
0.0
 11
122.2514060988
 21
91.8437578762
 31
0.0
  0
CIRCLE
  5
A5
330
1F
100
AcDbEntity
  8
0
  6
Continuous
 62
     7
370
    15
100
AcDbCircle
 10
187.2514060988
 20
72.1437578762
 30
0.0
 40
4.25
  0
CIRCLE
  5
A6
330
1F
100
AcDbEntity
  8
0
  6
Continuous
 62
     7
370
    15
100
AcDbCircle
 10
187.2514060988
 20
92.1437578762
 30
0.0
 40
4.25
  0
CIRCLE
  5
A7
330
1F
100
AcDbEntity
  8
0
  6
Continuous
 62
     7
370
    15
100
AcDbCircle
 10
187.2514060988
 20
52.1437578762
 30
0.0
 40
4.250000000000007
  0
SPLINE
  5
A8
330
1F
100
AcDbEntity
  8
0
  6
Continuous
 62
     7
370
    15
100
AcDbSpline
210
0.0
220
0.0
230
1.0
 70
    24
 71
     3
 72
    16
 73
    12
 74
     0
 42
0.00000001
 43
0.00000001
 40
0.0
 40
0.0
 40
0.0
 40
0.0
 40
0.5000000000000001
 40
0.5000000000000001
 40
0.7499999999999993
 40
0.7499999999999993
 40
0.8749999999999983
 40
0.8749999999999983
 40
0.9374999999999991
 40
0.9374999999999991
 40
1.0
 40
1.0
 40
1.0
 40
1.0
 10
139.2561836982216
 20
55.24375787622912
 30
0.0
 10
139.226147278695
 20
55.24375787622912
 30
0.0
 10
139.1795131814902
 20
55.24375787622912
 30
0.0
 10
139.0691287699115
 20
55.24375787622912
 30
0.0
 10
139.0257911213909
 20
55.24375787622912
 30
0.0
 10
138.9373094870062
 20
55.24375787622912
 30
0.0
 10
138.9039339823896
 20
55.24375787622912
 30
0.0
 10
138.839441772939
 20
55.24375787622912
 30
0.0
 10
138.8152374357524
 20
55.24375787622912
 30
0.0
 10
138.759483625942
 20
55.24375787622912
 30
0.0
 10
138.7258995998738
 20
55.24375787622912
 30
0.0
 10
138.6914060988028
 20
55.24375787622912
 30
0.0
  0
SPLINE
  5
A9
330
1F
100
AcDbEntity
  8
0
  6
Continuous
 62
     7
370
    15
100
AcDbSpline
210
0.0
220
0.0
230
1.0
 70
    24
 71
     3
 72
    12
 73
     8
 74
     0
 42
0.00000001
 43
0.00000001
 40
0.0
 40
0.0
 40
0.0
 40
0.0
 40
0.249999999999999
 40
0.249999999999999
 40
0.499999999999998
 40
0.499999999999998
 40
1.0
 40
1.0
 40
1.0
 40
1.0
 10
138.6914060988028
 20
83.99375787622913
 30
0.0
 10
138.7840641883091
 20
83.99375787622913
 30
0.0
 10
138.8761275978668
 20
83.99375787622913
 30
0.0
 10
139.0302851483576
 20
83.99375787622913
 30
0.0
 10
139.0947740817223
 20
83.99375787622913
 30
0.0
 10
139.2448256306718
 20
83.99375787622913
 30
0.0
 10
139.2914060988028
 20
83.99375787622913
 30
0.0
 10
139.2914060988028
 20
83.99375787622913
 30
0.0
  0
SPLINE
  5
AA
330
1F
100
AcDbEntity
  8
0
  6
Continuous
 62
     7
370
    15
100
AcDbSpline
210
0.0
220
0.0
230
1.0
 70
    24
 71
     3
 72
    16
 73
    12
 74
     0
 42
0.00000001
 43
0.00000001
 40
0.0
 40
0.0
 40
0.0
 40
0.0
 40
0.0624999999999997
 40
0.0624999999999997
 40
0.1249999999999994
 40
0.1249999999999994
 40
0.2499999999999988
 40
0.2499999999999988
 40
0.499999999999999
 40
0.499999999999999
 40
1.0
 40
1.0
 40
1.0
 40
1.0
 10
137.8114060987763
 20
55.24375787622912
 30
0.0
 10
137.776927431591
 20
55.24375787622912
 30
0.0
 10
137.7431072547542
 20
55.24375787622912
 30
0.0
 10
137.6865851875705
 20
55.24375787622912
 30
0.0
 10
137.6622591080442
 20
55.24375787622912
 30
0.0
 10
137.597806208493
 20
55.24375787622912
 30
0.0
 10
137.5641779331344
 20
55.24375787622912
 30
0.0
 10
137.4761006176095
 20
55.24375787622912
 30
0.0
 10
137.4332811643419
 20
55.24375787622912
 30
0.0
 10
137.3226245301449
 20
55.24375787622912
 30
0.0
 10
137.2763919442009
 20
55.24375787622912
 30
0.0
 10
137.2466284993842
 20
55.24375787622912
 30
0.0
  0
SPLINE
  5
AB
330
1F
100
AcDbEntity
  8
0
  6
Continuous
 62
     7
370
    15
100
AcDbSpline
210
0.0
220
0.0
230
1.0
 70
    24
 71
     3
 72
    12
 73
     8
 74
     0
 42
0.00000001
 43
0.00000001
 40
0.0
 40
0.0
 40
0.0
 40
0.0
 40
0.5000000000000013
 40
0.5000000000000013
 40
0.7500000000000007
 40
0.7500000000000007
 40
1.0
 40
1.0
 40
1.0
 40
1.0
 10
137.2114060988028
 20
83.99375787622913
 30
0.0
 10
137.2114060988028
 20
83.99375787622913
 30
0.0
 10
137.2584021963112
 20
83.99375787622913
 30
0.0
 10
137.4079081343114
 20
83.99375787622913
 30
0.0
 10
137.4724267568699
 20
83.99375787622913
 30
0.0
 10
137.6268664495989
 20
83.99375787622913
 30
0.0
 10
137.7178048376018
 20
83.99375787622913
 30
0.0
 10
137.8114060988028
 20
83.99375787622913
 30
0.0
  0
SPLINE
  5
AC
330
1F
100
AcDbEntity
  8
0
  6
Continuous
 62
     7
370
    15
100
AcDbSpline
210
0.0
220
0.0
230
1.0
 70
    24
 71
     3
 72
    14
 73
    10
 74
     0
 42
0.00000001
 43
0.00000001
 40
0.0
 40
0.0
 40
0.0
 40
0.0
 40
0.125
 40
0.125
 40
0.2500000000000001
 40
0.2500000000000001
 40
0.5
 40
0.5
 40
1.0
 40
1.0
 40
1.0
 40
1.0
 10
142.4014060987776
 20
89.04375787622912
 30
0.0
 10
142.401406376922
 20
89.04375787622912
 30
0.0
 10
142.3990300669145
 20
89.04375787622912
 30
0.0
 10
142.389882251343
 20
89.04375787622912
 30
0.0
 10
142.3831163828021
 20
89.04375787622912
 30
0.0
 10
142.3576770230991
 20
89.04375787622912
 30
0.0
 10
142.333783978735
 20
89.04375787622912
 30
0.0
 10
142.2588496593252
 20
89.04375787622912
 30
0.0
 10
142.2036229907441
 20
89.04375787622912
 30
0.0
 10
142.2014682219262
 20
89.04375787622912
 30
0.0
  0
SPLINE
  5
AD
330
1F
100
AcDbEntity
  8
0
  6
Continuous
 62
     7
370
    15
100
AcDbSpline
210
0.0
220
0.0
230
1.0
 70
    24
 71
     3
 72
    14
 73
    10
 74
     0
 42
0.00000001
 43
0.00000001
 40
0.0
 40
0.0
 40
0.0
 40
0.0
 40
0.125
 40
0.125
 40
0.2500000000000001
 40
0.2500000000000001
 40
0.5000000000000001
 40
0.5000000000000001
 40
1.0
 40
1.0
 40
1.0
 40
1.0
 10
142.4014060987769
 20
55.24375787622912
 30
0.0
 10
142.4014063835872
 20
55.24375787622912
 30
0.0
 10
142.3989838478009
 20
55.24375787622912
 30
0.0
 10
142.3896647446762
 20
55.24375787622912
 30
0.0
 10
142.3827741226998
 20
55.24375787622912
 30
0.0
 10
142.3568957316356
 20
55.24375787622912
 30
0.0
 10
142.3326231945019
 20
55.24375787622912
 30
0.0
 10
142.2568667714561
 20
55.24375787622912
 30
0.0
 10
142.2014060988029
 20
55.24375787622912
 30
0.0
 10
142.2014060988029
 20
55.24375787622912
 30
0.0
  0
SPLINE
  5
AE
330
1F
100
AcDbEntity
  8
0
  6
Continuous
 62
     7
370
    15
100
AcDbSpline
210
0.0
220
0.0
230
1.0
 70
    24
 71
     3
 72
    12
 73
     8
 74
     0
 42
0.00000001
 43
0.00000001
 40
0.0
 40
0.0
 40
0.0
 40
0.0
 40
0.5
 40
0.5
 40
0.75
 40
0.75
 40
1.0
 40
1.0
 40
1.0
 40
1.0
 10
142.2014060988029
 20
83.99375787622913
 30
0.0
 10
142.2014060988029
 20
83.99375787622913
 30
0.0
 10
142.2286268469305
 20
83.99375787622913
 30
0.0
 10
142.3090732927034
 20
83.99375787622913
 30
0.0
 10
142.3425205211815
 20
83.99375787622913
 30
0.0
 10
142.4249300909557
 20
83.99375787622913
 30
0.0
 10
142.4742131878393
 20
83.99375787622913
 30
0.0
 10
142.5305298104759
 20
83.99375787622913
 30
0.0
  0
SPLINE
  5
AF
330
1F
100
AcDbEntity
  8
0
  6
Continuous
 62
     7
370
    15
100
AcDbSpline
210
0.0
220
0.0
230
1.0
 70
     8
 71
     3
 72
    10
 73
     6
 74
     0
 42
0.00000001
 43
0.00000001
 40
0.0
 40
0.0
 40
0.0
 40
0.0
 40
0.5
 40
0.5
 40
1.0
 40
1.0
 40
1.0
 40
1.0
 10
142.2014060988028
 20
85.02116056465974
 30
0.0
 10
142.2014060988028
 20
84.83845185252476
 30
0.0
 10
142.2283794325109
 20
84.65494356276398
 30
0.0
 10
142.3359698002967
 20
84.3066395844433
 30
0.0
 10
142.4174343446398
 20
84.13845200190042
 30
0.0
 10
142.5305298104757
 20
83.99375787622768
 30
0.0
  0
LINE
  5
B0
330
1F
100
AcDbEntity
  8
0
  6
Continuous
 62
     7
370
    15
100
AcDbLine
 10
138.6914060988
 20
55.2437578762
 30
0.0
 11
137.8114060988
 21
55.2437578762
 31
0.0
  0
LINE
  5
B1
330
1F
100
AcDbEntity
  8
0
  6
Continuous
 62
     7
370
    15
100
AcDbLine
 10
137.8114060988
 20
83.9937578762
 30
0.0
 11
138.6914060988
 21
83.9937578762
 31
0.0
  0
LINE
  5
B2
330
1F
100
AcDbEntity
  8
0
  6
Continuous
 62
     7
370
    15
100
AcDbLine
 10
108.4514060988
 20
57.6312398402
 30
0.0
 11
108.4514060988
 21
58.5070111781
 31
0.0
  0
SPLINE
  5
B3
330
1F
100
AcDbEntity
  8
0
  6
Continuous
 62
     7
370
    15
100
AcDbSpline
210
0.0
220
0.0
230
1.0
 70
     8
 71
     3
 72
    12
 73
     8
 74
     0
 42
0.00000001
 43
0.00000001
 40
0.0
 40
0.0
 40
0.0
 40
0.0
 40
0.25
 40
0.25
 40
0.5
 40
0.5
 40
1.0
 40
1.0
 40
1.0
 40
1.0
 10
108.083671005946
 20
59.21338201334439
 30
0.0
 10
108.1090952228399
 20
59.14649642027059
 30
0.0
 10
108.1497070624092
 20
59.08204793058698
 30
0.0
 10
108.2343082086814
 20
58.95704727050912
 30
0.0
 10
108.2784050049669
 20
58.896528525317
 30
0.0
 10
108.394474113453
 20
58.72032246920858
 30
0.0
 10
108.4514060988028
 20
58.60992805423679
 30
0.0
 10
108.4514060988028
 20
58.50701117814364
 30
0.0
  0
SPLINE
  5
B4
330
1F
100
AcDbEntity
  8
0
  6
Continuous
 62
     7
370
    15
100
AcDbSpline
210
0.0
220
0.0
230
1.0
 70
     8
 71
     3
 72
    14
 73
    10
 74
     0
 42
0.00000001
 43
0.00000001
 40
0.0
 40
0.0
 40
0.0
 40
0.0
 40
0.1249999999999997
 40
0.1249999999999997
 40
0.2499999999999994
 40
0.2499999999999994
 40
0.4999999999999997
 40
0.4999999999999997
 40
1.0
 40
1.0
 40
1.0
 40
1.0
 10
107.5514060988029
 20
59.70338782871811
 30
0.0
 10
107.6004184216142
 20
59.70791288787327
 30
0.0
 10
107.6532246466097
 20
59.69979350231875
 30
0.0
 10
107.7382917383392
 20
59.6694634271673
 30
0.0
 10
107.7728759236799
 20
59.64880847009081
 30
0.0
 10
107.8614316090172
 20
59.584272346764
 30
0.0
 10
107.9023673103384
 20
59.53703416671136
 30
0.0
 10
108.0062478372413
 20
59.39723806542768
 30
0.0
 10
108.0494716366734
 20
59.30335312655839
 30
0.0
 10
108.083671005946
 20
59.21338201334439
 30
0.0
  0
SPLINE
  5
B5
330
1F
100
AcDbEntity
  8
0
  6
Continuous
 62
     7
370
    15
100
AcDbSpline
210
0.0
220
0.0
230
1.0
 70
     8
 71
     3
 72
    10
 73
     6
 74
     0
 42
0.00000001
 43
0.00000001
 40
0.0
 40
0.0
 40
0.0
 40
0.0
 40
0.5
 40
0.5
 40
1.0
 40
1.0
 40
1.0
 40
1.0
 10
104.6305827071044
 20
59.37713574915161
 30
0.0
 10
105.1038589178555
 20
59.44422136109892
 30
0.0
 10
105.586945670361
 20
59.50208963132601
 30
0.0
 10
106.5626104515714
 20
59.60890879104004
 30
0.0
 10
107.055528113952
 20
59.65760592966741
 30
0.0
 10
107.5514060988028
 20
59.70338782871811
 30
0.0
  0
SPLINE
  5
B6
330
1F
100
AcDbEntity
  8
0
  6
Continuous
 62
     7
370
    15
100
AcDbSpline
210
0.0
220
0.0
230
1.0
 70
     8
 71
     3
 72
    10
 73
     6
 74
     0
 42
0.00000001
 43
0.00000001
 40
0.0
 40
0.0
 40
0.0
 40
0.0
 40
0.5
 40
0.5
 40
1.0
 40
1.0
 40
1.0
 40
1.0
 10
103.4035970964494
 20
59.29412417678717
 30
0.0
 10
103.6116565330926
 20
59.30115859395809
 30
0.0
 10
103.8188143963872
 20
59.30990778596201
 30
0.0
 10
104.229336963371
 20
59.33465052514777
 30
0.0
 10
104.4334582410993
 20
59.34919389377978
 30
0.0
 10
104.6305827071044
 20
59.37713574915161
 30
0.0
  0
SPLINE
  5
B7
330
1F
100
AcDbEntity
  8
0
  6
Continuous
 62
     7
370
    15
100
AcDbSpline
210
0.0
220
0.0
230
1.0
 70
     8
 71
     3
 72
     8
 73
     4
 74
     0
 42
0.00000001
 43
0.00000001
 40
0.0
 40
0.0
 40
0.0
 40
0.0
 40
1.0
 40
1.0
 40
1.0
 40
1.0
 10
103.2860584640682
 20
59.44090419348547
 30
0.0
 10
103.3116533959283
 20
59.38932491330759
 30
0.0
 10
103.3524385735009
 20
59.34067215423301
 30
0.0
 10
103.4035970964494
 20
59.29412417678717
 30
0.0
  0
ELLIPSE
  5
B8
330
1F
100
AcDbEntity
  8
0
  6
Continuous
 62
     7
370
    15
100
AcDbEllipse
 10
80.7533150816
 20
71.0735211193
 30
0.0
 11
22.65236303891439
 21
-12.66569662468556
 31
0.0
210
0.0
220
0.0
230
1.0
 40
0.1509348161
 41
0.216986825838092
 42
0.2660379696714056
  0
ELLIPSE
  5
B9
330
1F
100
AcDbEntity
  8
0
  6
Continuous
 62
     7
370
    15
100
AcDbEllipse
 10
80.6151321746
 20
73.2134301127
 30
0.0
 11
22.64041454007862
 21
12.65901581787022
 31
0.0
210
0.0
220
0.0
230
1.0
 40
0.1509348161
 41
6.05825276234755
 42
6.061846596668174
  0
SPLINE
  5
BA
330
1F
100
AcDbEntity
  8
0
  6
Continuous
 62
     7
370
    15
100
AcDbSpline
210
0.0
220
0.0
230
1.0
 70
     8
 71
     3
 72
     8
 73
     4
 74
     0
 42
0.00000001
 43
0.00000001
 40
0.0
 40
0.0
 40
0.0
 40
0.0
 40
1.0
 40
1.0
 40
1.0
 40
1.0
 10
103.3014060988029
 20
85.00933842320745
 30
0.0
 10
103.2221087711713
 20
84.94845212728272
 30
0.0
 10
103.1585115768266
 20
84.88392193792224
 30
0.0
 10
103.1226850313673
 20
84.81341814311547
 30
0.0
  0
SPLINE
  5
BB
330
1F
100
AcDbEntity
  8
0
  6
Continuous
 62
     7
370
    15
100
AcDbSpline
210
0.0
220
0.0
230
1.0
 70
     8
 71
     3
 72
    12
 73
     8
 74
     0
 42
0.00000001
 43
0.00000001
 40
0.0
 40
0.0
 40
0.0
 40
0.0
 40
0.2499999999999986
 40
0.2499999999999986
 40
0.4999999999999971
 40
0.4999999999999971
 40
1.0
 40
1.0
 40
1.0
 40
1.0
 10
105.0514060988029
 20
84.9245517348883
 30
0.0
 10
104.9093636956136
 20
84.94037746306452
 30
0.0
 10
104.7652455891095
 20
84.95139859683984
 30
0.0
 10
104.475491075437
 20
84.969934958707
 30
0.0
 10
104.3297491720782
 20
84.97720566444279
 30
0.0
 10
103.8910689328984
 20
84.99566651477078
 30
0.0
 10
103.5966933168272
 20
85.00354538159434
 30
0.0
 10
103.3014060988029
 20
85.00933842320745
 30
0.0
  0
SPLINE
  5
BC
330
1F
100
AcDbEntity
  8
0
  6
Continuous
 62
     7
370
    15
100
AcDbSpline
210
0.0
220
0.0
230
1.0
 70
     8
 71
     3
 72
    20
 73
    16
 74
     0
 42
0.00000001
 43
0.00000001
 40
0.0
 40
0.0
 40
0.0
 40
0.0
 40
0.2499999999999996
 40
0.2499999999999996
 40
0.4999999999999991
 40
0.4999999999999991
 40
0.7499999999999987
 40
0.7499999999999987
 40
0.8749999999999971
 40
0.8749999999999971
 40
0.9374999999999983
 40
0.9374999999999983
 40
0.9687499999999991
 40
0.9687499999999991
 40
1.0
 40
1.0
 40
1.0
 40
1.0
 10
105.9514060988038
 20
85.70128199797696
 30
0.0
 10
105.9514060988038
 20
85.6406725982796
 30
0.0
 10
105.9260110792269
 20
85.57484663287606
 30
0.0
 10
105.8397178934449
 20
85.44079886352941
 30
0.0
 10
105.7790819147617
 20
85.37210350538764
 30
0.0
 10
105.6309801205404
 20
85.23170495373321
 30
0.0
 10
105.5442105137618
 20
85.16000144915184
 30
0.0
 10
105.3955727184326
 20
85.05383804740299
 30
0.0
 10
105.3432835015464
 20
85.01830969877147
 30
0.0
 10
105.2525196732365
 20
84.96860576825596
 30
0.0
 10
105.2201536807845
 20
84.95234477024086
 30
0.0
 10
105.1624645251183
 20
84.9332322018949
 30
0.0
 10
105.1414774972308
 20
84.92784105981335
 30
0.0
 10
105.0961885182403
 20
84.92210369142086
 30
0.0
 10
105.0731742494018
 20
84.92212642507428
 30
0.0
 10
105.0514060988022
 20
84.92455173488715
 30
0.0
  0
LINE
  5
BD
330
1F
100
AcDbEntity
  8
0
  6
Continuous
 62
     7
370
    15
100
AcDbLine
 10
105.9514060988
 20
85.701281998
 30
0.0
 11
105.9514060988
 21
86.5310254113
 31
0.0
  0
LINE
  5
BE
330
1F
100
AcDbEntity
  8
0
  6
Continuous
 62
     7
370
    15
100
AcDbLine
 10
120.2514060988
 20
57.0400574754
 30
0.0
 11
120.2514060988
 21
87.247458277
 31
0.0
  0
SPLINE
  5
BF
330
1F
100
AcDbEntity
  8
0
  6
Continuous
 62
     7
370
    15
100
AcDbSpline
210
0.0
220
0.0
230
1.0
 70
     8
 71
     3
 72
    18
 73
    14
 74
     0
 42
0.00000001
 43
0.00000001
 40
0.0
 40
0.0
 40
0.0
 40
0.0
 40
0.0647987051964542
 40
0.1911457418934265
 40
0.3159453219936808
 40
0.3775977181147657
 40
0.4397856484594751
 40
0.5017220926046717
 40
0.5630628839447039
 40
0.6866516283643247
 40
0.8118021582222679
 40
0.9380327414081012
 40
0.9999999999999999
 40
0.9999999999999999
 40
0.9999999999999999
 40
0.9999999999999999
 10
113.4890525554408
 20
57.38967688695605
 30
0.0
 10
113.4784075999984
 20
57.38824216289256
 30
0.0
 10
113.4470066962413
 20
57.38400995802523
 30
0.0
 10
113.8658898917085
 20
57.44482606063921
 30
0.0
 10
114.5104532777415
 20
57.51037881210486
 30
0.0
 10
115.1641150049828
 20
57.54058081658656
 30
0.0
 10
115.6952998086424
 20
57.54415743416323
 30
0.0
 10
116.2467072350768
 20
57.52707626063142
 30
0.0
 10
116.9776090432901
 20
57.47405889165247
 30
0.0
 10
117.8394807135888
 20
57.35627476075302
 30
0.0
 10
118.6057848370779
 20
57.20373227009085
 30
0.0
 10
119.0062642769411
 20
57.1045396041994
 30
0.0
 10
118.9750068061238
 20
57.11248540026334
 30
0.0
 10
118.9647147657966
 20
57.11510168531083
 30
0.0
  0
SPLINE
  5
C0
330
1F
100
AcDbEntity
  8
0
  6
Continuous
 62
     7
370
    15
100
AcDbSpline
210
0.0
220
0.0
230
1.0
 70
     8
 71
     3
 72
    18
 73
    14
 74
     0
 42
0.00000001
 43
0.00000001
 40
0.0
 40
0.0
 40
0.0
 40
0.0
 40
0.0628581874978233
 40
0.1888210925071208
 40
0.31364295319105
 40
0.4369193488098552
 40
0.4982390280780538
 40
0.5602488697629576
 40
0.6224807882813211
 40
0.6842568515517148
 40
0.8091590186753609
 40
0.935452681076069
 40
1.0
 40
1.0
 40
1.0
 40
1.0
 10
118.9646350198951
 20
87.17224200218334
 30
0.0
 10
118.9752950534608
 20
87.1748854945613
 30
0.0
 10
119.0073169628441
 20
87.18282633948074
 30
0.0
 10
118.6018431713876
 20
87.0831329855945
 30
0.0
 10
117.8389062174435
 20
86.93071491604299
 30
0.0
 10
116.9775036213463
 20
86.81343571103308
 30
0.0
 10
116.2473767827744
 20
86.76053776547376
 30
0.0
 10
115.695596910633
 20
86.74343226871764
 30
0.0
 10
115.1636294542576
 20
86.74697683389981
 30
0.0
 10
114.5090098217215
 20
86.7771679040164
 30
0.0
 10
113.864603694535
 20
86.84283106536145
 30
0.0
 10
113.4471707028356
 20
86.9036562476231
 30
0.0
 10
113.4774837408417
 20
86.89916945656255
 30
0.0
 10
113.4877363884551
 20
86.89765190864637
 30
0.0
  0
LINE
  5
C1
330
1F
100
AcDbEntity
  8
0
  6
Continuous
 62
     7
370
    15
100
AcDbLine
 10
102.3514060988
 20
59.9029174125
 30
0.0
 11
102.3514060988
 21
84.4126971095
 31
0.0
  0
SPLINE
  5
C2
330
1F
100
AcDbEntity
  8
0
  6
Continuous
 62
     7
370
    15
100
AcDbSpline
210
0.0
220
0.0
230
1.0
 70
     8
 71
     3
 72
     9
 73
     5
 74
     0
 42
0.00000001
 43
0.00000001
 40
0.0
 40
0.0
 40
0.0
 40
0.0
 40
0.3103166847784393
 40
1.0
 40
1.0
 40
1.0
 40
1.0
 10
102.4764773934244
 20
84.46282995816296
 30
0.0
 10
102.4686462482234
 20
84.4748313017039
 30
0.0
 10
102.4434102696728
 20
84.51350580465409
 30
0.0
 10
102.4143293269537
 20
84.49485338785274
 30
0.0
 10
102.3942726859694
 20
84.4819891271963
 30
0.0
  0
SPLINE
  5
C3
330
1F
100
AcDbEntity
  8
0
  6
Continuous
 62
     7
370
    15
100
AcDbSpline
210
0.0
220
0.0
230
1.0
 70
     8
 71
     3
 72
     8
 73
     4
 74
     0
 42
0.00000001
 43
0.00000001
 40
0.0
 40
0.0
 40
0.0
 40
0.0
 40
1.0
 40
1.0
 40
1.0
 40
1.0
 10
102.3685594545803
 20
84.47699797217477
 30
0.0
 10
102.3577921653939
 20
84.46110318571658
 30
0.0
 10
102.3514060988028
 20
84.43925960013604
 30
0.0
 10
102.3514060988028
 20
84.41269710951073
 30
0.0
  0
SPLINE
  5
C4
330
1F
100
AcDbEntity
  8
0
  6
Continuous
 62
     7
370
    15
100
AcDbSpline
210
0.0
220
0.0
230
1.0
 70
     8
 71
     3
 72
    22
 73
    18
 74
     0
 42
0.00000001
 43
0.00000001
 40
0.0
 40
0.0
 40
0.0
 40
0.0
 40
0.2499999999999997
 40
0.2499999999999997
 40
0.3749999999999991
 40
0.3749999999999991
 40
0.4374999999999988
 40
0.4374999999999988
 40
0.4999999999999985
 40
0.4999999999999985
 40
0.5624999999999982
 40
0.5624999999999982
 40
0.624999999999998
 40
0.624999999999998
 40
0.7499999999999987
 40
0.7499999999999987
 40
1.0
 40
1.0
 40
1.0
 40
1.0
 10
103.1113761451928
 20
84.79137427961739
 30
0.0
 10
103.0794088577441
 20
84.72964365185867
 30
0.0
 10
103.0418997733387
 20
84.6655559529938
 30
0.0
 10
102.964450154406
 20
84.56139137918605
 30
0.0
 10
102.9350632271782
 20
84.52518834959743
 30
0.0
 10
102.8797612593416
 20
84.46863953385417
 30
0.0
 10
102.8593327527146
 20
84.44925832450423
 30
0.0
 10
102.8107447204761
 20
84.40963185854434
 30
0.0
 10
102.7823329941161
 20
84.38951628674542
 30
0.0
 10
102.7231249098399
 20
84.35813665630754
 30
0.0
 10
102.6955802265606
 20
84.34880342597643
 30
0.0
 10
102.6512385807661
 20
84.34017245898379
 30
0.0
 10
102.6337757163484
 20
84.34014391512346
 30
0.0
 10
102.5884513441111
 20
84.34532329887617
 30
0.0
 10
102.5678582314207
 20
84.35559407902713
 30
0.0
 10
102.5150381400146
 20
84.39275392114519
 30
0.0
 10
102.4936502693475
 20
84.4265836368426
 30
0.0
 10
102.4764773934222
 20
84.46282995816159
 30
0.0
  0
SPLINE
  5
C5
330
1F
100
AcDbEntity
  8
0
  6
Continuous
 62
     7
370
    15
100
AcDbSpline
210
0.0
220
0.0
230
1.0
 70
     8
 71
     3
 72
    24
 73
    20
 74
     0
 42
0.00000001
 43
0.00000001
 40
0.0
 40
0.0
 40
0.0
 40
0.0
 40
0.2499999999999973
 40
0.2499999999999973
 40
0.3749999999999957
 40
0.3749999999999957
 40
0.499999999999994
 40
0.499999999999994
 40
0.562499999999994
 40
0.562499999999994
 40
0.624999999999994
 40
0.624999999999994
 40
0.687499999999994
 40
0.687499999999994
 40
0.749999999999994
 40
0.749999999999994
 40
0.874999999999997
 40
0.874999999999997
 40
1.0
 40
1.0
 40
1.0
 40
1.0
 10
102.4128531575974
 20
59.91464582931744
 30
0.0
 10
102.4242352873242
 20
59.96504350806256
 30
0.0
 10
102.4390597720694
 20
60.01339157963903
 30
0.0
 10
102.4740936266463
 20
60.07829416954038
 30
0.0
 10
102.4879824441512
 20
60.09870790912807
 30
0.0
 10
102.5236787855815
 20
60.13427874901909
 30
0.0
 10
102.54491586222
 20
60.14978870636139
 30
0.0
 10
102.5914432984665
 20
60.16320232710748
 30
0.0
 10
102.6092979679064
 20
60.16596187995046
 30
0.0
 10
102.654431264438
 20
60.16373598947679
 30
0.0
 10
102.6828547709974
 20
60.15839527520567
 30
0.0
 10
102.7507331731947
 20
60.13087339094426
 30
0.0
 10
102.7896256633626
 20
60.1078359728521
 30
0.0
 10
102.8547419674018
 20
60.06001302244037
 30
0.0
 10
102.8823879504734
 20
60.0354892833961
 30
0.0
 10
102.9563949630516
 20
59.96382035913729
 30
0.0
 10
102.993019361978
 20
59.91974502553784
 30
0.0
 10
103.0586013254207
 20
59.83382799352925
 30
0.0
 10
103.0864803468099
 20
59.79244392793988
 30
0.0
 10
103.1113761451909
 20
59.7523022865804
 30
0.0
  0
SPLINE
  5
C6
330
1F
100
AcDbEntity
  8
0
  6
Continuous
 62
     7
370
    15
100
AcDbSpline
210
0.0
220
0.0
230
1.0
 70
     8
 71
     3
 72
     9
 73
     5
 74
     0
 42
0.00000001
 43
0.00000001
 40
0.0
 40
0.0
 40
0.0
 40
0.0
 40
0.4719347591702031
 40
1.0
 40
1.0
 40
1.0
 40
1.0
 10
102.372081092736
 20
59.87978803276842
 30
0.0
 10
102.3777716376741
 20
59.87106216703839
 30
0.0
 10
102.389829543619
 20
59.85257260770739
 30
0.0
 10
102.4048967104938
 20
59.89319470940244
 30
0.0
 10
102.4128531575981
 20
59.91464582931703
 30
0.0
  0
SPLINE
  5
C7
330
1F
100
AcDbEntity
  8
0
  6
Continuous
 62
     7
370
    15
100
AcDbSpline
210
0.0
220
0.0
230
1.0
 70
     8
 71
     3
 72
     8
 73
     4
 74
     0
 42
0.00000001
 43
0.00000001
 40
0.0
 40
0.0
 40
0.0
 40
0.0
 40
1.0
 40
1.0
 40
1.0
 40
1.0
 10
137.2114060988028
 20
89.85743457175933
 30
0.0
 10
136.8803857677832
 20
90.44899026821705
 30
0.0
 10
136.5486044962991
 20
91.04012293246224
 30
0.0
 10
136.2162463999094
 20
91.6309331461342
 30
0.0
  0
LINE
  5
C8
330
1F
100
AcDbEntity
  8
0
  6
Continuous
 62
     7
370
    15
100
AcDbLine
 10
137.2114060988
 20
86.0578457757
 30
0.0
 11
137.2114060988
 21
89.8574345718
 31
0.0
  0
SPLINE
  5
C9
330
1F
100
AcDbEntity
  8
0
  6
Continuous
 62
     7
370
    15
100
AcDbSpline
210
0.0
220
0.0
230
1.0
 70
     8
 71
     3
 72
     8
 73
     4
 74
     0
 42
0.00000001
 43
0.00000001
 40
0.0
 40
0.0
 40
0.0
 40
0.0
 40
1.0
 40
1.0
 40
1.0
 40
1.0
 10
136.2162463999094
 20
88.25516687730658
 30
0.0
 10
136.5556694411911
 20
87.5253760157872
 30
0.0
 10
136.8881801846861
 20
86.79320766036555
 30
0.0
 10
137.2114060988028
 20
86.05784577568457
 30
0.0
  0
LINE
  5
CA
330
1F
100
AcDbEntity
  8
0
  6
Continuous
 62
     7
370
    15
100
AcDbLine
 10
141.6014060988
 20
91.6309331461
 30
0.0
 11
140.2865657977
 21
91.6309331461
 31
0.0
  0
LINE
  5
CB
330
1F
100
AcDbEntity
  8
0
  6
Continuous
 62
     7
370
    15
100
AcDbLine
 10
140.2865657977
 20
88.2551668773
 30
0.0
 11
141.6014060988
 21
88.2551668773
 31
0.0
  0
LINE
  5
CC
330
1F
100
AcDbEntity
  8
0
  6
Continuous
 62
     7
370
    15
100
AcDbLine
 10
140.2865657977
 20
88.2551668773
 30
0.0
 11
140.2865657977
 21
91.6309331461
 31
0.0
  0
SPLINE
  5
CD
330
1F
100
AcDbEntity
  8
0
  6
Continuous
 62
     7
370
    15
100
AcDbSpline
210
0.0
220
0.0
230
1.0
 70
     8
 71
     3
 72
    10
 73
     6
 74
     0
 42
0.00000001
 43
0.00000001
 40
0.0
 40
0.0
 40
0.0
 40
0.0
 40
0.5
 40
0.5
 40
1.0
 40
1.0
 40
1.0
 40
1.0
 10
142.2014060988029
 20
91.01463490937202
 30
0.0
 10
142.2014060988029
 20
91.17306935225986
 30
0.0
 10
142.1392448823199
 20
91.33209004706183
 30
0.0
 10
141.9187355416482
 20
91.56209787131748
 30
0.0
 10
141.7598204387031
 20
91.63093314613424
 30
0.0
 10
141.6014060988028
 20
91.63093314613424
 30
0.0
  0
LINE
  5
CE
330
1F
100
AcDbEntity
  8
0
  6
Continuous
 62
     7
370
    15
100
AcDbLine
 10
142.2014060988
 20
87.5040150355
 30
0.0
 11
142.2014060988
 21
91.0146349094
 31
0.0
  0
SPLINE
  5
CF
330
1F
100
AcDbEntity
  8
0
  6
Continuous
 62
     7
370
    15
100
AcDbSpline
210
0.0
220
0.0
230
1.0
 70
     8
 71
     3
 72
    12
 73
     8
 74
     0
 42
0.00000001
 43
0.00000001
 40
0.0
 40
0.0
 40
0.0
 40
0.0
 40
0.25
 40
0.25
 40
0.5
 40
0.5
 40
1.0
 40
1.0
 40
1.0
 40
1.0
 10
141.6014060988028
 20
88.25516687730658
 30
0.0
 10
141.6906944578466
 20
88.25516687730658
 30
0.0
 10
141.7787532887488
 20
88.22954224470183
 30
0.0
 10
141.931407001998
 20
88.14099887177002
 30
0.0
 10
141.99720049534
 20
88.07811638865537
 30
0.0
 10
142.152641142056
 20
87.86075520072178
 30
0.0
 10
142.2014060988028
 20
87.68210819071044
 30
0.0
 10
142.2014060988029
 20
87.50401503553475
 30
0.0
  0
LINE
  5
D0
330
1F
100
AcDbEntity
  8
0
  6
Continuous
 62
     7
370
    15
100
AcDbLine
 10
137.2114060988
 20
86.0578457757
 30
0.0
 11
137.2114060988
 21
85.6596050565
 31
0.0
  0
SPLINE
  5
D1
330
1F
100
AcDbEntity
  8
0
  6
Continuous
 62
     7
370
    15
100
AcDbSpline
210
0.0
220
0.0
230
1.0
 70
     8
 71
     3
 72
    12
 73
     8
 74
     0
 42
0.00000001
 43
0.00000001
 40
0.0
 40
0.0
 40
0.0
 40
0.0
 40
0.5000000000000032
 40
0.5000000000000032
 40
0.7500000000000016
 40
0.7500000000000016
 40
1.0
 40
1.0
 40
1.0
 40
1.0
 10
137.2114060988028
 20
85.65960505648385
 30
0.0
 10
137.2114060988029
 20
85.47383897990576
 30
0.0
 10
137.2579518440594
 20
85.2886656679155
 30
0.0
 10
137.4080527924491
 20
85.05425506457198
 30
0.0
 10
137.4719896087432
 20
84.98415916715986
 30
0.0
 10
137.6273573404729
 20
84.88147864935578
 30
0.0
 10
137.7186006233908
 20
84.85076873638032
 30
0.0
 10
137.8114060988028
 20
84.85076873638032
 30
0.0
  0
LINE
  5
D2
330
1F
100
AcDbEntity
  8
0
  6
Continuous
 62
     7
370
    15
100
AcDbLine
 10
137.8114060988
 20
84.8507687364
 30
0.0
 11
138.6914060988
 21
84.8507687364
 31
0.0
  0
SPLINE
  5
D3
330
1F
100
AcDbEntity
  8
0
  6
Continuous
 62
     7
370
    15
100
AcDbSpline
210
0.0
220
0.0
230
1.0
 70
     8
 71
     3
 72
    12
 73
     8
 74
     0
 42
0.00000001
 43
0.00000001
 40
0.0
 40
0.0
 40
0.0
 40
0.0
 40
0.25
 40
0.25
 40
0.5
 40
0.5
 40
1.0
 40
1.0
 40
1.0
 40
1.0
 10
138.6914060988028
 20
84.85076873638039
 30
0.0
 10
138.7839480655247
 20
84.85076873638037
 30
0.0
 10
138.8761574426691
 20
84.8818020832966
 30
0.0
 10
139.0312944030459
 20
84.98461294912146
 30
0.0
 10
139.095104300507
 20
85.05478576346711
 30
0.0
 10
139.2442307363081
 20
85.28769824699509
 30
0.0
 10
139.2914060988029
 20
85.47449360906498
 30
0.0
 10
139.2914060988028
 20
85.65960505648385
 30
0.0
  0
LINE
  5
D4
330
1F
100
AcDbEntity
  8
0
  6
Continuous
 62
     7
370
    15
100
AcDbLine
 10
139.2914060988
 20
85.6596050565
 30
0.0
 11
139.2914060988
 21
86.0578457757
 31
0.0
  0
SPLINE
  5
D5
330
1F
100
AcDbEntity
  8
0
  6
Continuous
 62
     7
370
    15
100
AcDbSpline
210
0.0
220
0.0
230
1.0
 70
     8
 71
     3
 72
     8
 73
     4
 74
     0
 42
0.00000001
 43
0.00000001
 40
0.0
 40
0.0
 40
0.0
 40
0.0
 40
1.0
 40
1.0
 40
1.0
 40
1.0
 10
139.2914060988028
 20
86.05784577568448
 30
0.0
 10
139.6149636570578
 20
86.79396217430707
 30
0.0
 10
139.9474579772747
 20
87.5260537697257
 30
0.0
 10
140.2865657976963
 20
88.25516687730658
 30
0.0
  0
LINE
  5
D6
330
1F
100
AcDbEntity
  8
0
  6
Continuous
 62
     7
370
    15
100
AcDbLine
 10
142.2014060988
 20
87.5040150355
 30
0.0
 11
142.2014060988
 21
85.0211605647
 31
0.0
  0
LINE
  5
D7
330
1F
100
AcDbEntity
  8
0
  6
Continuous
 62
     7
370
    15
100
AcDbLine
 10
138.6914060988
 20
89.0437578762
 30
0.0
 11
137.8114060988
 21
89.0437578762
 31
0.0
  0
SPLINE
  5
D8
330
1F
100
AcDbEntity
  8
0
  6
Continuous
 62
     7
370
    15
100
AcDbSpline
210
0.0
220
0.0
230
1.0
 70
     8
 71
     3
 72
     8
 73
     4
 74
     0
 42
0.00000001
 43
0.00000001
 40
0.0
 40
0.0
 40
0.0
 40
0.0
 40
1.0
 40
1.0
 40
1.0
 40
1.0
 10
140.2865657976963
 20
91.6309331461342
 30
0.0
 10
139.9542077013066
 20
91.04012293246224
 30
0.0
 10
139.6224264298225
 20
90.44899026821705
 30
0.0
 10
139.2914060988028
 20
89.85743457175933
 30
0.0
  0
LINE
  5
D9
330
1F
100
AcDbEntity
  8
0
  6
Continuous
 62
     7
370
    15
100
AcDbLine
 10
139.2914060988
 20
86.0578457757
 30
0.0
 11
139.2914060988
 21
89.8574345718
 31
0.0
  0
SPLINE
  5
DA
330
1F
100
AcDbEntity
  8
0
  6
Continuous
 62
     7
370
    15
100
AcDbSpline
210
0.0
220
0.0
230
1.0
 70
    24
 71
     3
 72
    12
 73
     8
 74
     0
 42
0.00000001
 43
0.00000001
 40
0.0
 40
0.0
 40
0.0
 40
0.0
 40
0.5
 40
0.5
 40
0.75
 40
0.75
 40
1.0
 40
1.0
 40
1.0
 40
1.0
 10
139.0430617130529
 20
89.04375787622912
 30
0.0
 10
139.0089159647619
 20
89.04375787622912
 30
0.0
 10
138.9697228063569
 20
89.04375787622912
 30
0.0
 10
138.8918751477031
 20
89.04375787622912
 30
0.0
 10
138.8624706889178
 20
89.04375787622912
 30
0.0
 10
138.7894631676119
 20
89.04375787622912
 30
0.0
 10
138.7425578498041
 20
89.04375787622912
 30
0.0
 10
138.6914060988028
 20
89.04375787622912
 30
0.0
  0
SPLINE
  5
DB
330
1F
100
AcDbEntity
  8
0
  6
Continuous
 62
     7
370
    15
100
AcDbSpline
210
0.0
220
0.0
230
1.0
 70
     8
 71
     3
 72
    10
 73
     6
 74
     0
 42
0.00000001
 43
0.00000001
 40
0.0
 40
0.0
 40
0.0
 40
0.0
 40
0.5
 40
0.5
 40
1.0
 40
1.0
 40
1.0
 40
1.0
 10
139.2914060988029
 20
89.54636184804784
 30
0.0
 10
139.2914060988027
 20
89.44981930057132
 30
0.0
 10
139.2694654762212
 20
89.35335810030121
 30
0.0
 10
139.1833352908293
 20
89.1779555060569
 30
0.0
 10
139.1202529836857
 20
89.10153997368987
 30
0.0
 10
139.0430617130529
 20
89.04375787622914
 30
0.0
  0
SPLINE
  5
DC
330
1F
100
AcDbEntity
  8
0
  6
Continuous
 62
     7
370
    15
100
AcDbSpline
210
0.0
220
0.0
230
1.0
 70
     8
 71
     3
 72
    10
 73
     6
 74
     0
 42
0.00000001
 43
0.00000001
 40
0.0
 40
0.0
 40
0.0
 40
0.0
 40
0.5
 40
0.5
 40
1.0
 40
1.0
 40
1.0
 40
1.0
 10
137.4597504845528
 20
89.04375787622912
 30
0.0
 10
137.3824257526786
 20
89.10163987709078
 30
0.0
 10
137.3190459271421
 20
89.17871322172466
 30
0.0
 10
137.233475478369
 20
89.35321627991851
 30
0.0
 10
137.2114060988028
 20
89.45002148339897
 30
0.0
 10
137.2114060988028
 20
89.54636184804897
 30
0.0
  0
SPLINE
  5
DD
330
1F
100
AcDbEntity
  8
0
  6
Continuous
 62
     7
370
    15
100
AcDbSpline
210
0.0
220
0.0
230
1.0
 70
    24
 71
     3
 72
    12
 73
     8
 74
     0
 42
0.00000001
 43
0.00000001
 40
0.0
 40
0.0
 40
0.0
 40
0.0
 40
0.2499999999999989
 40
0.2499999999999989
 40
0.4999999999999978
 40
0.4999999999999978
 40
1.0
 40
1.0
 40
1.0
 40
1.0
 10
137.8114060988028
 20
89.04375787622912
 30
0.0
 10
137.7598138985283
 20
89.04375787622912
 30
0.0
 10
137.7129088897337
 20
89.04375787622912
 30
0.0
 10
137.6395751638572
 20
89.04375787622912
 30
0.0
 10
137.6103453344082
 20
89.04375787622912
 30
0.0
 10
137.5321125543453
 20
89.04375787622912
 30
0.0
 10
137.4936783964376
 20
89.04375787622912
 30
0.0
 10
137.4597504845528
 20
89.04375787622912
 30
0.0
  0
LINE
  5
DE
330
1F
100
AcDbEntity
  8
0
  6
Continuous
 62
     7
370
    15
100
AcDbLine
 10
103.3014060988
 20
85.0237578762
 30
0.0
 11
103.3014060988
 21
85.0093384232
 31
0.0
  0
LINE
  5
DF
330
1F
100
AcDbEntity
  8
0
  6
Continuous
 62
     7
370
    15
100
AcDbLine
 10
103.4035970964
 20
59.2637578762
 30
0.0
 11
103.4035970964
 21
59.2941241768
 31
0.0
  0
CIRCLE
  5
E0
330
1F
100
AcDbEntity
  8
0
  6
HIDDEN
 62
     7
370
     0
100
AcDbCircle
 10
187.2514060988
 20
72.1437578762
 30
0.0
 40
5.000000000000004
  0
CIRCLE
  5
E1
330
1F
100
AcDbEntity
  8
0
  6
HIDDEN
 62
     7
370
     0
100
AcDbCircle
 10
187.2514060988
 20
72.1437578762
 30
0.0
 40
3.499999999999992
  0
CIRCLE
  5
E2
330
1F
100
AcDbEntity
  8
0
  6
HIDDEN
 62
     7
370
     0
100
AcDbCircle
 10
187.2514060988
 20
92.1437578762
 30
0.0
 40
4.999999999999988
  0
CIRCLE
  5
E3
330
1F
100
AcDbEntity
  8
0
  6
HIDDEN
 62
     7
370
     0
100
AcDbCircle
 10
187.2514060988
 20
92.1437578762
 30
0.0
 40
3.49999999999998
  0
CIRCLE
  5
E4
330
1F
100
AcDbEntity
  8
0
  6
HIDDEN
 62
     7
370
     0
100
AcDbCircle
 10
187.2514060988
 20
52.1437578762
 30
0.0
 40
5.0
  0
CIRCLE
  5
E5
330
1F
100
AcDbEntity
  8
0
  6
HIDDEN
 62
     7
370
     0
100
AcDbCircle
 10
187.2514060988
 20
52.1437578762
 30
0.0
 40
3.500000000000007
  0
LWPOLYLINE
  5
E6
330
1F
100
AcDbEntity
  8
0
  6
HIDDEN
 62
     7
370
     0
100
AcDbPolyline
 90
       34
 70
   128
 43
0.0
 10
172.6889533617
 20
96.7108423063
 10
172.8240399665
 20
96.6863238947
 10
172.8334267578
 20
96.657876735
 10
172.7167744725
 20
96.6265289817
 10
172.4782992281
 20
96.5934136244
 10
172.1266201412
 20
96.5597275383
 10
171.6744478105
 20
96.5266882262
 10
171.138124922
 20
96.4954898151
 10
170.5370355822
 20
96.4672598968
 10
169.8929047262
 20
96.4430187741
 10
169.2290129212
 20
96.4236425844
 10
168.5693549468
 20
96.4098316335
 10
167.937772561
 20
96.4020850853
 10
167.3570927967
 20
96.4006829202
 10
166.8483029337
 20
96.4056758161
 10
166.4297919631
 20
96.4168833168
 10
166.1166859619
 20
96.4339003539
 10
165.9203013967
 20
96.4561118874
 10
165.8477361174
 20
96.4827151346
 10
165.9016128223
 20
96.5127485848
 10
166.0799842669
 20
96.5451267509
 10
166.3764036424
 20
96.5786794017
 10
166.7801575803
 20
96.6121938568
 10
167.2766533613
 20
96.6444588166
 10
167.8479463342
 20
96.6743081414
 10
168.4733884826
 20
96.7006629987
 10
169.1303746976
 20
96.7225708554
 10
169.7951597856
 20
96.7392399045
 10
170.4437166815
 20
96.750067683
 10
171.0526048493
 20
96.7546628469
 10
171.5998174842
 20
96.752859315
 10
172.0655768957
 20
96.7447222715
 10
172.4330493252
 20
96.7305458106
 10
172.6889533617
 20
96.7108423063
  0
LWPOLYLINE
  5
E7
330
1F
100
AcDbEntity
  8
0
  6
HIDDEN
 62
     7
370
     0
100
AcDbPolyline
 90
       26
 70
   128
 43
0.0
 10
171.3146850195
 20
98.0557591209
 10
171.4058099649
 20
98.0358146724
 10
171.365185017
 20
98.0121009964
 10
171.1953627906
 20
97.9861081105
 10
170.9070138409
 20
97.9594692432
 10
170.5182561929
 20
97.9338582126
 10
170.0535169192
 20
97.9108842538
 10
169.5419972977
 20
97.8919909053
 10
169.0158379874
 20
97.8783653055
 10
168.5080995128
 20
97.8708636011
 10
168.0506849497
 20
97.8699571517
 10
167.6723353373
 20
97.8757029129
 10
167.3968237732
 20
97.8877398573
 10
167.2414616623
 20
97.9053116595
 10
167.2160109773
 20
97.9273142185
 10
167.3220708784
 20
97.9523650326
 10
167.552977232
 20
97.978890067
 10
167.8942213426
 20
98.0052226563
 10
168.3243615878
 20
98.029708227
 10
168.816370674
 20
98.0508082608
 10
169.3393338609
 20
98.0671969647
 10
169.860391448
 20
98.0778445764
 10
170.3468034709
 20
98.0820820672
 10
170.7680068733
 20
98.07964318
 10
171.0975358963
 20
98.070681159
 10
171.3146850195
 20
98.0557591209
  0
LWPOLYLINE
  5
E8
330
1F
100
AcDbEntity
  8
0
  6
HIDDEN
 62
     7
370
     0
100
AcDbPolyline
 90
       26
 70
   128
 43
0.0
 10
171.1668743854
 20
103.6190011409
 10
171.2579993308
 20
103.5990566924
 10
171.2173743829
 20
103.5753430164
 10
171.0475521566
 20
103.5493501305
 10
170.7592032069
 20
103.5227112632
 10
170.3704455588
 20
103.4971002325
 10
169.9057062851
 20
103.4741262738
 10
169.3941866636
 20
103.4552329252
 10
168.8680273533
 20
103.4416073255
 10
168.3602888787
 20
103.4341056211
 10
167.9028743156
 20
103.4331991717
 10
167.5245247032
 20
103.4389449328
 10
167.2490131391
 20
103.4509818772
 10
167.0936510282
 20
103.4685536794
 10
167.0682003432
 20
103.4905562384
 10
167.1742602444
 20
103.5156070525
 10
167.4051665979
 20
103.5421320869
 10
167.7464107086
 20
103.5684646762
 10
168.1765509537
 20
103.592950247
 10
168.6685600399
 20
103.6140502807
 10
169.1915232268
 20
103.6304389847
 10
169.7125808139
 20
103.6410865963
 10
170.1989928368
 20
103.6453240871
 10
170.6201962392
 20
103.6428851999
 10
170.9497252622
 20
103.6339231789
 10
171.1668743854
 20
103.6190011409
  0
LWPOLYLINE
  5
E9
330
1F
100
AcDbEntity
  8
0
  6
HIDDEN
 62
     7
370
     0
100
AcDbPolyline
 90
       18
 70
   128
 43
0.0
 10
172.6353524812
 20
40.4628738953
 10
172.6360596718
 20
40.4635742474
 10
172.5917460307
 20
40.4849914417
 10
172.4163560717
 20
40.5008394674
 10
172.1170702805
 20
40.5104695045
 10
171.7061414523
 20
40.5134872981
 10
171.2003930618
 20
40.5097692993
 10
170.6205305075
 20
40.4994677236
 10
169.9902934305
 20
40.4830043186
 10
169.3354838107
 20
40.461053098
 10
168.682909631
 20
40.4345127474
 10
168.0592873549
 20
40.4044698319
 10
167.4901481517
 20
40.3721543119
 10
166.9987926473
 20
40.3388891887
 10
166.6053369936
 20
40.3060363403
 10
166.3258893115
 20
40.2749407661
 10
166.1718902218
 20
40.2468755227
 10
166.145162339
 20
40.2256907884
  0
LWPOLYLINE
  5
EA
330
1F
100
AcDbEntity
  8
0
  6
HIDDEN
 62
     7
370
     0
100
AcDbPolyline
 90
       34
 70
   128
 43
0.0
 10
168.8257801644
 20
47.5766734462
 10
169.4906912761
 20
47.6011918578
 10
170.1422437519
 20
47.6296390175
 10
170.7568887878
 20
47.6609867707
 10
171.3124115106
 20
47.6941021281
 10
171.7887338817
 20
47.7277882142
 10
172.1686403697
 20
47.7608275262
 10
172.4384001642
 20
47.7920259373
 10
172.5882634434
 20
47.8202558556
 10
172.6128137579
 20
47.8444969783
 10
172.5111637954
 20
47.8638731681
 10
172.2869874503
 20
47.877684119
 10
171.94838704
 20
47.8854306671
 10
171.5076004653
 20
47.8868328322
 10
170.9805589016
 20
47.8818399363
 10
170.3863110042
 20
47.8706324357
 10
169.7463344404
 20
47.8536153986
 10
169.0837596307
 20
47.8314038651
 10
168.422533755
 20
47.8048006179
 10
167.7865552392
 20
47.7747671677
 10
167.198810004
 20
47.7423890015
 10
166.6805406934
 20
47.7088363508
 10
166.2504789108
 20
47.6753218956
 10
165.9241682094
 20
47.6430569358
 10
165.7134023083
 20
47.6132076111
 10
165.6257988361
 20
47.5868527537
 10
165.6645240107
 20
47.564944897
 10
165.8281782033
 20
47.548275848
 10
166.1108465251
 20
47.5374480694
 10
166.5023126063
 20
47.5328529055
 10
166.9884278429
 20
47.5346564375
 10
167.5516227637
 20
47.5427934809
 10
168.1715420367
 20
47.5569699419
 10
168.8257801644
 20
47.5766734462
  0
LWPOLYLINE
  5
EB
330
1F
100
AcDbEntity
  8
0
  6
HIDDEN
 62
     7
370
     0
100
AcDbPolyline
 90
       26
 70
   128
 43
0.0
 10
168.9949981672
 20
46.2317566315
 10
169.5206020279
 20
46.25170108
 10
170.0243132118
 20
46.275414756
 10
170.4744816927
 20
46.301407642
 10
170.8428217294
 20
46.3280465092
 10
171.1061891626
 20
46.3536575399
 10
171.2480356481
 20
46.3766314986
 10
171.2594484493
 20
46.3955248472
 10
171.1397104581
 20
46.4091504469
 10
170.8963452528
 20
46.4166521513
 10
170.5446443643
 20
46.4175586008
 10
170.1067064528
 20
46.4118128396
 10
169.610048768
 20
46.3997758952
 10
169.0858781388
 20
46.382204093
 10
168.5671301336
 20
46.360201534
 10
168.0863995973
 20
46.3351507199
 10
167.6738925976
 20
46.3086256855
 10
167.3555284664
 20
46.2822930962
 10
167.1513111928
 20
46.2578075254
 10
167.0740724993
 20
46.2367074917
 10
167.128665577
 20
46.2203187877
 10
167.311660142
 20
46.2096711761
 10
167.6115579729
 20
46.2054336853
 10
168.009515386
 20
46.2078725725
 10
168.4805272534
 20
46.2168345935
 10
168.9949981672
 20
46.2317566315
  0
LWPOLYLINE
  5
EC
330
1F
100
AcDbEntity
  8
0
  6
HIDDEN
 62
     7
370
     0
100
AcDbPolyline
 90
       26
 70
   128
 43
0.0
 10
169.1983060823
 20
40.6685146116
 10
169.723909943
 20
40.6884590601
 10
170.2276211269
 20
40.7121727361
 10
170.6777896078
 20
40.738165622
 10
171.0461296444
 20
40.7648044893
 10
171.3094970777
 20
40.79041552
 10
171.4513435632
 20
40.8133894787
 10
171.4627563644
 20
40.8322828272
 10
171.3430183732
 20
40.845908427
 10
171.0996531679
 20
40.8534101314
 10
170.7479522794
 20
40.8543165808
 10
170.3100143679
 20
40.8485708197
 10
169.8133566831
 20
40.8365338752
 10
169.2891860539
 20
40.8189620731
 10
168.7704380487
 20
40.7969595141
 10
168.2897075124
 20
40.7719087
 10
167.8772005127
 20
40.7453836655
 10
167.5588363815
 20
40.7190510762
 10
167.3546191079
 20
40.6945655055
 10
167.2773804144
 20
40.6734654718
 10
167.3319734921
 20
40.6570767678
 10
167.5149680571
 20
40.6464291561
 10
167.814865888
 20
40.6421916653
 10
168.2128233011
 20
40.6446305526
 10
168.6838351685
 20
40.6535925735
 10
169.1983060823
 20
40.6685146116
  0
LWPOLYLINE
  5
ED
330
1F
100
AcDbEntity
  8
0
  6
HIDDEN
 62
     7
370
     0
100
AcDbPolyline
 90
       28
 70
   128
 43
0.0
 10
169.1791564807
 20
40.2538024457
 10
169.7589405415
 20
40.2756129474
 10
170.3188395849
 20
40.3013775742
 10
170.8286693084
 20
40.3297073485
 10
171.2609446597
 20
40.3590750047
 10
171.5923615628
 20
40.387897325
 10
171.8050532465
 20
40.4146204906
 10
171.8875534473
 20
40.4378038487
 10
171.8354145578
 20
40.4561975784
 10
171.6514473992
 20
40.4688100691
 10
171.3455696885
 20
40.4749613781
 10
170.9342713724
 20
40.4743198867
 10
170.4397256494
 20
40.466920178
 10
169.8885936076
 20
40.453161172
 10
169.310586918
 20
40.4337846205
 10
168.7368660708
 20
40.4098351183
 10
168.1983605053
 20
40.3826037892
 10
167.7241011961
 20
40.3535586813
 10
167.3396555852
 20
40.3242656239
 10
167.0657492351
 20
40.2963038132
 10
166.9171485079
 20
40.2711806777
 10
166.9018645073
 20
40.2502506122
 10
167.0207211977
 20
40.2346419619
 10
167.2673109843
 20
40.2251961931
 10
167.6283401478
 20
40.2224225298
 10
168.0843455125
 20
40.2264705008
 10
168.6107437111
 20
40.2371218789
 10
169.1791564807
 20
40.2538024457
  0
LINE
  5
EE
330
1F
100
AcDbEntity
  8
0
  6
HIDDEN
 62
     7
370
     0
100
AcDbLine
 10
175.2514060988
 20
94.1437578762
 30
0.0
 11
163.2514060988
 21
94.1437578762
 31
0.0
  0
LINE
  5
EF
330
1F
100
AcDbEntity
  8
0
  6
HIDDEN
 62
     7
370
     0
100
AcDbLine
 10
172.7514060988
 20
96.573043662
 30
0.0
 11
165.7514060988
 21
96.573043662
 31
0.0
  0
LINE
  5
F0
330
1F
100
AcDbEntity
  8
0
  6
HIDDEN
 62
     7
370
     0
100
AcDbLine
 10
170.5254483299
 20
50.1437578762
 30
0.0
 11
175.2514060988
 21
50.1437578762
 31
0.0
  0
LINE
  5
F1
330
1F
100
AcDbEntity
  8
0
  6
HIDDEN
 62
     7
370
     0
100
AcDbLine
 10
163.2514060988
 20
50.1437578762
 30
0.0
 11
170.5254483299
 21
50.1437578762
 31
0.0
  0
LINE
  5
F2
330
1F
100
AcDbEntity
  8
0
  6
HIDDEN
 62
     7
370
     0
100
AcDbLine
 10
169.9945974003
 20
47.7144720905
 30
0.0
 11
172.7514060988
 21
47.7144720905
 31
0.0
  0
LINE
  5
F3
330
1F
100
AcDbEntity
  8
0
  6
HIDDEN
 62
     7
370
     0
100
AcDbLine
 10
165.7514060988
 20
47.7144720905
 30
0.0
 11
169.9945974003
 21
47.7144720905
 31
0.0
  0
LINE
  5
F4
330
1F
100
AcDbEntity
  8
0
  6
HIDDEN
 62
     7
370
     0
100
AcDbLine
 10
163.5482121209
 20
42.1437578762
 30
0.0
 11
163.5482121209
 21
48.1437578762
 31
0.0
  0
SPLINE
  5
F5
330
1F
100
AcDbEntity
  8
0
  6
HIDDEN
 62
     7
370
     0
100
AcDbSpline
210
0.0
220
0.0
230
1.0
 70
     8
 71
     3
 72
    20
 73
    16
 74
     0
 42
0.00000001
 43
0.00000001
 40
0.0
 40
0.0
 40
0.0
 40
0.0
 40
0.1249999999999999
 40
0.1249999999999999
 40
0.2499999999999998
 40
0.2499999999999998
 40
0.4999999999999999
 40
0.4999999999999999
 40
0.6249999999999999
 40
0.6249999999999999
 40
0.7499999999999999
 40
0.7499999999999999
 40
0.875
 40
0.875
 40
1.0
 40
1.0
 40
1.0
 40
1.0
 10
163.5482121209342
 20
96.14375787622915
 30
0.0
 10
163.2277935521213
 20
94.15072724539861
 30
0.0
 10
162.932041089654
 20
92.1525143390988
 30
0.0
 10
162.4070876107307
 20
88.15833985955054
 30
0.0
 10
162.177704917559
 20
86.16075483697256
 30
0.0
 10
161.6129383320509
 20
80.1661439313186
 30
0.0
 10
161.4053369030061
 20
76.16719601331515
 30
0.0
 10
161.4042622909285
 20
70.16410635687356
 30
0.0
 10
161.454618258508
 20
68.1623136561629
 30
0.0
 10
161.6518761523245
 20
64.1572760624777
 30
0.0
 10
161.7986351878963
 20
62.15403331878755
 30
0.0
 10
162.1755198289653
 20
58.14629387640391
 30
0.0
 10
162.4055379878347
 20
56.14136682732941
 30
0.0
 10
162.9323469968589
 20
52.13227439011092
 30
0.0
 10
163.2280504368819
 20
50.13519066209592
 30
0.0
 10
163.5482121209342
 20
48.1437578762291
 30
0.0
  0
LINE
  5
F6
330
1F
100
AcDbEntity
  8
0
  6
HIDDEN
 62
     7
370
     0
100
AcDbLine
 10
163.5482121209
 20
96.1437578762
 30
0.0
 11
163.5482121209
 21
102.1437578762
 31
0.0
  0
LINE
  5
F7
330
1F
100
AcDbEntity
  8
0
  6
HIDDEN
 62
     7
370
     0
100
AcDbLine
 10
136.2162463999
 20
88.2551668773
 30
0.0
 11
136.2162463999
 21
83.9937578762
 31
0.0
  0
LINE
  5
F8
330
1F
100
AcDbEntity
  8
0
  6
HIDDEN
 62
     7
370
     0
100
AcDbLine
 10
142.2014060988
 20
85.0211605647
 30
0.0
 11
142.2014060988
 21
83.9937578762
 31
0.0
  0
LINE
  5
F9
330
1F
100
AcDbEntity
  8
0
  6
HIDDEN
 62
     7
370
     0
100
AcDbLine
 10
163.2514060988
 20
94.1437578762
 30
0.0
 11
175.2514060988
 21
94.1437578762
 31
0.0
  0
LINE
  5
FA
330
1F
100
AcDbEntity
  8
0
  6
HIDDEN
 62
     7
370
     0
100
AcDbLine
 10
175.2514060988
 20
50.1437578762
 30
0.0
 11
163.2514060988
 21
50.1437578762
 31
0.0
  0
SPLINE
  5
FB
330
1F
100
AcDbEntity
  8
0
  6
HIDDEN
 62
     7
370
     0
100
AcDbSpline
210
0.0
220
0.0
230
1.0
 70
     8
 71
     3
 72
    15
 73
    11
 74
     0
 42
0.00000001
 43
0.00000001
 40
0.0
 40
0.0
 40
0.0
 40
0.0
 40
0.1360947735241135
 40
0.2722233357654698
 40
0.4072157760377
 40
0.5405337467915902
 40
0.6745283740158747
 40
0.8104813460031202
 40
0.9466524579120685
 40
0.9999999999999999
 40
0.9999999999999999
 40
0.9999999999999999
 40
0.9999999999999999
 10
118.0755828266803
 20
59.47094758274923
 30
0.0
 10
117.8976826323239
 20
59.49489008629057
 30
0.0
 10
117.5418380757182
 20
59.54278103766089
 30
0.0
 10
116.8075147974238
 20
59.59849110582403
 30
0.0
 10
116.0281060423728
 20
59.60894206208265
 30
0.0
 10
115.2763198781747
 20
59.57174043945018
 30
0.0
 10
114.629026140736
 20
59.50238626837021
 30
0.0
 10
114.1732267374659
 20
59.43357884438612
 30
0.0
 10
113.9470037052444
 20
59.39298281171947
 30
0.0
 10
113.9744542364339
 20
59.39788669462223
 30
0.0
 10
113.9821812772137
 20
59.399267086969
 30
0.0
  0
SPLINE
  5
FC
330
1F
100
AcDbEntity
  8
0
  6
HIDDEN
 62
     7
370
     0
100
AcDbSpline
210
0.0
220
0.0
230
1.0
 70
     8
 71
     3
 72
    15
 73
    11
 74
     0
 42
0.00000001
 43
0.00000001
 40
0.0
 40
0.0
 40
0.0
 40
0.0
 40
0.0809850960727092
 40
0.2142994397980854
 40
0.3489242712273683
 40
0.4852277082876073
 40
0.6209655403931881
 40
0.7547097265114834
 40
0.8881684693202379
 40
1.0
 40
1.0
 40
1.0
 40
1.0
 10
113.9821812772137
 20
84.88824866548923
 30
0.0
 10
113.9792180440267
 20
84.88875697411507
 30
0.0
 10
113.9713768578978
 20
84.89010203955358
 30
0.0
 10
114.2428667463696
 20
84.84237714194927
 30
0.0
 10
114.7368504900094
 20
84.77121474344344
 30
0.0
 10
115.415227670819
 20
84.7051210536112
 30
0.0
 10
116.1868681084341
 20
84.6765781377938
 30
0.0
 10
116.9572366227234
 20
84.69713335260775
 30
0.0
 10
117.6187488473165
 20
84.75439837836348
 30
0.0
 10
117.9325267528633
 20
84.79709990188816
 30
0.0
 10
118.0755828266803
 20
84.816568169709
 30
0.0
  0
SPLINE
  5
FD
330
1F
100
AcDbEntity
  8
0
  6
HIDDEN
 62
     7
370
     0
100
AcDbSpline
210
0.0
220
0.0
230
1.0
 70
     8
 71
     3
 72
     9
 73
     5
 74
     0
 42
0.00000001
 43
0.00000001
 40
0.0
 40
0.0
 40
0.0
 40
0.0
 40
0.5111610086279933
 40
1.0
 40
1.0
 40
1.0
 40
1.0
 10
118.0755828266803
 20
84.816568169709
 30
0.0
 10
118.21558453634
 20
84.83391246986184
 30
0.0
 10
118.4894741861697
 20
84.8678436576091
 30
0.0
 10
118.5274750096692
 20
84.8696764173115
 30
0.0
 10
118.5460512939001
 20
84.87057234171586
 30
0.0
  0
SPLINE
  5
FE
330
1F
100
AcDbEntity
  8
0
  6
HIDDEN
 62
     7
370
     0
100
AcDbSpline
210
0.0
220
0.0
230
1.0
 70
     8
 71
     3
 72
    10
 73
     6
 74
     0
 42
0.00000001
 43
0.00000001
 40
0.0
 40
0.0
 40
0.0
 40
0.0
 40
0.022232025960457
 40
0.5336051898077301
 40
1.0
 40
1.0
 40
1.0
 40
1.0
 10
118.5460780773649
 20
59.41694093587817
 30
0.0
 10
118.5478513626619
 20
59.41677802322834
 30
0.0
 10
118.5904131264527
 20
59.41286785167705
 30
0.0
 10
118.4509679905432
 20
59.42273901042707
 30
0.0
 10
118.1968140993321
 20
59.45537854289906
 30
0.0
 10
118.0755828266803
 20
59.47094758274923
 30
0.0
  0
LINE
  5
FF
330
1F
100
AcDbEntity
  8
0
  6
HIDDEN
 62
     7
370
     0
100
AcDbLine
 10
110.2540558296
 20
61.6437578762
 30
0.0
 11
110.2540558296
 21
82.6437578762
 31
0.0
  0
SPLINE
  5
100
330
1F
100
AcDbEntity
  8
0
  6
HIDDEN
 62
     7
370
     0
100
AcDbSpline
210
0.0
220
0.0
230
1.0
 70
     8
 71
     3
 72
    62
 73
    58
 74
     0
 42
0.00000001
 43
0.00000001
 40
-0.0312499999999997
 40
-0.0312499999999997
 40
0.0
 40
0.0
 40
0.0625000000000002
 40
0.0625000000000002
 40
0.0937500000000003
 40
0.0937500000000003
 40
0.1250000000000004
 40
0.1250000000000004
 40
0.1562500000000006
 40
0.1562500000000006
 40
0.1875000000000007
 40
0.1875000000000007
 40
0.2187500000000008
 40
0.2187500000000008
 40
0.2500000000000009
 40
0.2500000000000009
 40
0.281250000000001
 40
0.281250000000001
 40
0.3125000000000011
 40
0.3125000000000011
 40
0.3750000000000006
 40
0.3750000000000006
 40
0.4062500000000004
 40
0.4062500000000004
 40
0.4375000000000003
 40
0.4375000000000003
 40
0.4687500000000002
 40
0.4687500000000002
 40
0.5000000000000001
 40
0.5000000000000001
 40
0.5624999999999999
 40
0.5624999999999999
 40
0.5937500000000002
 40
0.5937500000000002
 40
0.6250000000000006
 40
0.6250000000000006
 40
0.6562500000000009
 40
0.6562500000000009
 40
0.6875000000000012
 40
0.6875000000000012
 40
0.7500000000000019
 40
0.7500000000000019
 40
0.7812500000000017
 40
0.7812500000000017
 40
0.8125000000000014
 40
0.8125000000000014
 40
0.8437500000000012
 40
0.8437500000000012
 40
0.875000000000001
 40
0.875000000000001
 40
0.9062500000000008
 40
0.9062500000000008
 40
0.9375000000000006
 40
0.9375000000000006
 40
0.9687500000000003
 40
0.9687500000000003
 40
1.0
 40
1.0
 40
1.0625
 40
1.0625
 10
162.3595635403905
 20
69.64375787622912
 30
0.0
 10
162.0994307117869
 20
69.64375787622912
 30
0.0
 10
161.8924365205872
 20
69.67995446915883
 30
0.0
 10
161.5472791547217
 20
69.75721865709421
 30
0.0
 10
161.425791149071
 20
69.78723004607066
 30
0.0
 10
161.1767988237517
 20
69.84980989978219
 30
0.0
 10
161.048524211512
 20
69.88261480672878
 30
0.0
 10
160.7824046722128
 20
69.94589882837468
 30
0.0
 10
160.6446116684558
 20
69.97653694789022
 30
0.0
 10
160.3540711750987
 20
70.02639650997183
 30
0.0
 10
160.205834425032
 20
70.04473100449543
 30
0.0
 10
159.899455809431
 20
70.0539074636965
 30
0.0
 10
159.7492247810177
 20
70.04361450761878
 30
0.0
 10
159.4587085136721
 20
69.9932917267332
 30
0.0
 10
159.3244851702706
 20
69.9548397508034
 30
0.0
 10
159.0792231901499
 20
69.87165679782449
 30
0.0
 10
158.971110446884
 20
69.82849192246756
 30
0.0
 10
158.7733438067285
 20
69.75107133877817
 30
0.0
 10
158.6836725974723
 20
69.71664858346644
 30
0.0
 10
158.4468031948522
 20
69.64123426257207
 30
0.0
 10
158.3260711807154
 20
69.62734738726417
 30
0.0
 10
158.2136189680578
 20
69.68749912475808
 30
0.0
 10
158.1869412997538
 20
69.7214906017564
 30
0.0
 10
158.1592384675129
 20
69.81555925550165
 30
0.0
 10
158.1576285859137
 20
69.87530676510633
 30
0.0
 10
158.179594658208
 20
70.02104930816792
 30
0.0
 10
158.2030501283762
 20
70.1052305260001
 30
0.0
 10
158.2729034870146
 20
70.29036022119558
 30
0.0
 10
158.3200391796574
 20
70.39284888948639
 30
0.0
 10
158.4907513997418
 20
70.71025577947165
 30
0.0
 10
158.6454797789675
 20
70.94248459081224
 30
0.0
 10
158.9348025339166
 20
71.26460919952183
 30
0.0
 10
159.0428729069254
 20
71.36929105992428
 30
0.0
 10
159.2802398275561
 20
71.55126163977296
 30
0.0
 10
159.4131039778327
 20
71.63044902229977
 30
0.0
 10
159.6972240119348
 20
71.73564140340429
 30
0.0
 10
159.851351856343
 20
71.76119106600426
 30
0.0
 10
160.1551911915934
 20
71.75581909614344
 30
0.0
 10
160.307608544263
 20
71.72653190806219
 30
0.0
 10
160.7420181771752
 20
71.59505140516639
 30
0.0
 10
161.0139632354198
 20
71.45125966537387
 30
0.0
 10
161.3897565303382
 20
71.21487526141549
 30
0.0
 10
161.5103682152735
 20
71.13140629648501
 30
0.0
 10
161.7427911121059
 20
70.95738462224371
 30
0.0
 10
161.8553305378176
 20
70.86611431256227
 30
0.0
 10
162.0646453903216
 20
70.6820407345336
 30
0.0
 10
162.1619201188639
 20
70.58897268438257
 30
0.0
 10
162.3380787243632
 20
70.40190666710743
 30
0.0
 10
162.4159335197415
 20
70.3087743121519
 30
0.0
 10
162.5397998912944
 20
70.13181877027334
 30
0.0
 10
162.5864293284834
 20
70.04653532123184
 30
0.0
 10
162.6350808264413
 20
69.89809221943977
 30
0.0
 10
162.6373113914043
 20
69.83337804394979
 30
0.0
 10
162.5968200849582
 20
69.73419083623217
 30
0.0
 10
162.5539307711945
 20
69.69826444331733
 30
0.0
 10
162.4356695503264
 20
69.65345927820977
 30
0.0
 10
162.3595635403905
 20
69.64375787622912
 30
0.0
 10
162.0994307117869
 20
69.64375787622912
 30
0.0
  0
SPLINE
  5
101
330
1F
100
AcDbEntity
  8
0
  6
HIDDEN
 62
     7
370
     0
100
AcDbSpline
210
0.0
220
0.0
230
1.0
 70
     8
 71
     3
 72
    25
 73
    21
 74
     0
 42
0.00000001
 43
0.00000001
 40
0.0
 40
0.0
 40
0.0
 40
0.0
 40
0.062310920697885
 40
0.1603857345265171
 40
0.2358343935174676
 40
0.286020988131328
 40
0.3270763982534953
 40
0.3682715057250696
 40
0.4069683884447001
 40
0.4662562092964702
 40
0.557328271177302
 40
0.6047916795240106
 40
0.6538098007493999
 40
0.6923303696966319
 40
0.7310941026767199
 40
0.778045116573529
 40
0.8431967263063604
 40
0.9089261563511528
 40
0.9710370565730905
 40
1.0
 40
1.0
 40
1.0
 40
1.0
 10
159.9799888454378
 20
74.23709817635175
 30
0.0
 10
160.2170734685125
 20
74.25936367702325
 30
0.0
 10
160.8273194894489
 20
74.31667415550444
 30
0.0
 10
161.5869055724425
 20
74.55662324336647
 30
0.0
 10
162.1957263803953
 20
74.66146216602088
 30
0.0
 10
162.5207675126705
 20
74.62812631273451
 30
0.0
 10
162.648706074136
 20
74.49862841309734
 30
0.0
 10
162.6199398470262
 20
74.2904246582848
 30
0.0
 10
162.4367636833558
 20
73.98666338758666
 30
0.0
 10
162.014831079513
 20
73.53387267684145
 30
0.0
 10
161.4320643317877
 20
73.07967679480582
 30
0.0
 10
160.8130829934601
 20
72.7292491573969
 30
0.0
 10
160.3260197837504
 20
72.54627793153858
 30
0.0
 10
159.8353438210354
 20
72.50797378455994
 30
0.0
 10
159.3713119543732
 20
72.65535828229125
 30
0.0
 10
158.9146890977118
 20
73.0120471085223
 30
0.0
 10
158.5114065534603
 20
73.52465457298544
 30
0.0
 10
158.2359474028383
 20
74.04791424916468
 30
0.0
 10
158.1322313212531
 20
74.40048138757301
 30
0.0
 10
158.1819979973757
 20
74.48987536934864
 30
0.0
 10
158.1978245988162
 20
74.51830408974892
 30
0.0
  0
SPLINE
  5
102
330
1F
100
AcDbEntity
  8
0
  6
HIDDEN
 62
     7
370
     0
100
AcDbSpline
210
0.0
220
0.0
230
1.0
 70
     8
 71
     3
 72
    12
 73
     8
 74
     0
 42
0.00000001
 43
0.00000001
 40
0.0
 40
0.0
 40
0.0
 40
0.0
 40
0.0795208714615687
 40
0.3804667429823198
 40
0.6583507415570035
 40
0.84803834250972
 40
1.0
 40
1.0
 40
1.0
 40
1.0
 10
158.3768569548937
 20
74.62906978348973
 30
0.0
 10
158.3953505859196
 20
74.63323198904523
 30
0.0
 10
158.4838331620409
 20
74.65314601617068
 30
0.0
 10
158.7671481675056
 20
74.53897606619047
 30
0.0
 10
159.1743802085282
 20
74.3747264130021
 30
0.0
 10
159.6025214034104
 20
74.25420207757598
 30
0.0
 10
159.8637827886276
 20
74.24236373490342
 30
0.0
 10
159.9799888454378
 20
74.23709817635176
 30
0.0
  0
LINE
  5
103
330
1F
100
AcDbEntity
  8
0
  6
HIDDEN
 62
     7
370
     0
100
AcDbLine
 10
128.420781349
 20
61.6437578762
 30
0.0
 11
128.420781349
 21
82.6437578762
 31
0.0
  0
LINE
  5
104
330
1F
100
AcDbEntity
  8
0
  6
HIDDEN
 62
     7
370
     0
100
AcDbLine
 10
130.2014060988
 20
62.2687578762
 30
0.0
 11
130.2014060988
 21
82.0187578531
 31
0.0
  0
SPLINE
  5
105
330
1F
100
AcDbEntity
  8
0
  6
HIDDEN
 62
     7
370
     0
100
AcDbSpline
210
0.0
220
0.0
230
1.0
 70
     8
 71
     3
 72
    14
 73
    10
 74
     0
 42
0.00000001
 43
0.00000001
 40
0.0
 40
0.0
 40
0.0
 40
0.0
 40
0.2499999999999999
 40
0.2499999999999999
 40
0.4999999999999998
 40
0.4999999999999998
 40
0.7499999999999997
 40
0.7499999999999997
 40
1.0
 40
1.0
 40
1.0
 40
1.0
 10
105.9514060988028
 20
82.16794736964953
 30
0.0
 10
105.9514060988028
 20
82.1314755051157
 30
0.0
 10
105.9290354669988
 20
82.09373975260321
 30
0.0
 10
105.8418199357505
 20
82.01860403090376
 30
0.0
 10
105.7777987296739
 20
81.98223174468168
 30
0.0
 10
105.6143134319326
 20
81.91800820551957
 30
0.0
 10
105.5149985577594
 20
81.89048524289711
 30
0.0
 10
105.2951722870543
 20
81.85231307601002
 30
0.0
 10
105.1741687247452
 20
81.84166357797731
 30
0.0
 10
105.0514060988029
 20
81.84166357797731
 30
0.0
  0
LINE
  5
106
330
1F
100
AcDbEntity
  8
0
  6
HIDDEN
 62
     7
370
     0
100
AcDbLine
 10
105.0514060988
 20
81.841663578
 30
0.0
 11
103.3014060988
 21
81.841663578
 31
0.0
  0
ELLIPSE
  5
107
330
1F
100
AcDbEntity
  8
0
  6
HIDDEN
 62
     7
370
     0
100
AcDbEllipse
 10
110.2729105993
 20
72.1437578762
 30
0.0
 11
18.18653347947307
 21
0.0
 31
0.0
210
0.0
220
0.0
230
1.0
 40
0.5773502692
 41
4.318986348374604
 42
4.325062511992182
  0
LINE
  5
108
330
1F
100
AcDbEntity
  8
0
  6
HIDDEN
 62
     7
370
     0
100
AcDbLine
 10
103.4035970964
 20
62.4215747881
 30
0.0
 11
107.5514060988
 21
62.4215747881
 31
0.0
  0
SPLINE
  5
109
330
1F
100
AcDbEntity
  8
0
  6
HIDDEN
 62
     7
370
     0
100
AcDbSpline
210
0.0
220
0.0
230
1.0
 70
     8
 71
     3
 72
    14
 73
    10
 74
     0
 42
0.00000001
 43
0.00000001
 40
0.0
 40
0.0
 40
0.0
 40
0.0
 40
0.25
 40
0.25
 40
0.5
 40
0.5
 40
0.75
 40
0.75
 40
1.0
 40
1.0
 40
1.0
 40
1.0
 10
107.5514060988029
 20
62.42157478805392
 30
0.0
 10
107.6738741867218
 20
62.42157478805391
 30
0.0
 10
107.7940852655906
 20
62.41123776833402
 30
0.0
 10
108.0142915848432
 20
62.37377053975604
 30
0.0
 10
108.1139470375413
 20
62.34663937146681
 30
0.0
 10
108.276934390497
 20
62.28387232525998
 30
0.0
 10
108.3416717512435
 20
62.24780863133306
 30
0.0
 10
108.4285071013605
 20
62.17461596146497
 30
0.0
 10
108.4514060988028
 20
62.13707317595399
 30
0.0
 10
108.4514060988028
 20
62.10136553177255
 30
0.0
  0
LINE
  5
10A
330
1F
100
AcDbEntity
  8
0
  6
HIDDEN
 62
     7
370
     0
100
AcDbLine
 10
103.3014060988
 20
62.4458521745
 30
0.0
 11
103.3014060988
 21
81.841663578
 31
0.0
  0
LINE
  5
10B
330
1F
100
AcDbEntity
  8
0
  6
HIDDEN
 62
     7
370
     0
100
AcDbLine
 10
105.9514060988
 20
83.1437578762
 30
0.0
 11
105.9514060988
 21
85.701281998
 31
0.0
  0
LINE
  5
10C
330
1F
100
AcDbEntity
  8
0
  6
HIDDEN
 62
     7
370
     0
100
AcDbLine
 10
108.4514060988
 20
61.1437578762
 30
0.0
 11
108.4514060988
 21
58.5070111781
 31
0.0
  0
LINE
  5
10D
330
1F
100
AcDbEntity
  8
0
  6
HIDDEN
 62
     7
370
     0
100
AcDbLine
 10
103.3014060988
 20
83.1437578762
 30
0.0
 11
103.3014060988
 21
85.0093384232
 31
0.0
  0
LINE
  5
10E
330
1F
100
AcDbEntity
  8
0
  6
HIDDEN
 62
     7
370
     0
100
AcDbLine
 10
103.4035970964
 20
61.1437578762
 30
0.0
 11
103.4035970964
 21
59.2941241768
 31
0.0
  0
LINE
  5
10F
330
1F
100
AcDbEntity
  8
0
  6
HIDDEN
 62
     7
370
     0
100
AcDbLine
 10
138.0514060988
 20
65.8937578762
 30
0.0
 11
138.0514060988
 21
78.3937578762
 31
0.0
  0
LINE
  5
110
330
1F
100
AcDbEntity
  8
0
  6
HIDDEN
 62
     7
370
     0
100
AcDbLine
 10
135.5514060988
 20
65.8937578762
 30
0.0
 11
135.5514060988
 21
78.3937578762
 31
0.0
  0
LINE
  5
111
330
1F
100
AcDbEntity
  8
0
  6
HIDDEN
 62
     7
370
     0
100
AcDbLine
 10
130.7014060988
 20
66.6437578762
 30
0.0
 11
130.7014060988
 21
77.6437578762
 31
0.0
  0
LINE
  5
112
330
1F
100
AcDbEntity
  8
0
  6
HIDDEN
 62
     7
370
     0
100
AcDbLine
 10
130.2014060988
 20
52.1687735208
 30
0.0
 11
130.2014060988
 21
55.2437578762
 31
0.0
  0
LINE
  5
113
330
1F
100
AcDbEntity
  8
0
  6
HIDDEN
 62
     7
370
     0
100
AcDbLine
 10
134.7014060988
 20
55.2437578762
 30
0.0
 11
130.2014060988
 21
55.2437578762
 31
0.0
  0
LINE
  5
114
330
1F
100
AcDbEntity
  8
0
  6
HIDDEN
 62
     7
370
     0
100
AcDbLine
 10
137.2466284994
 20
55.2437578762
 30
0.0
 11
134.7014060988
 21
55.2437578762
 31
0.0
  0
LINE
  5
115
330
1F
100
AcDbEntity
  8
0
  6
HIDDEN
 62
     7
370
     0
100
AcDbLine
 10
142.2014060988
 20
55.2437578762
 30
0.0
 11
139.2561836982
 21
55.2437578762
 31
0.0
  0
SPLINE
  5
116
330
1F
100
AcDbEntity
  8
0
  6
HIDDEN
 62
     7
370
     0
100
AcDbSpline
210
0.0
220
0.0
230
1.0
 70
     8
 71
     3
 72
     8
 73
     4
 74
     0
 42
0.00000001
 43
0.00000001
 40
0.0000002426067713
 40
0.0000002426067713
 40
0.0000002426067713
 40
0.0000002426067713
 40
0.0011546267702572
 40
0.0011546267702572
 40
0.0011546267702572
 40
0.0011546267702572
 10
102.3514060988029
 20
62.08631154593706
 30
0.0
 10
102.6686183351509
 20
62.204219024844
 30
0.0
 10
102.9853125764809
 20
62.32400462918124
 30
0.0
 10
103.3014060988028
 20
62.44585217448093
 30
0.0
  0
SPLINE
  5
117
330
1F
100
AcDbEntity
  8
0
  6
HIDDEN
 62
     7
370
     0
100
AcDbSpline
210
0.0
220
0.0
230
1.0
 70
     8
 71
     3
 72
     8
 73
     4
 74
     0
 42
0.00000001
 43
0.00000001
 40
0.0000002434653511
 40
0.0000002434653511
 40
0.0000002434653511
 40
0.0000002434653511
 40
0.001154627628837
 40
0.001154627628837
 40
0.001154627628837
 40
0.001154627628837
 10
103.3014060988029
 20
81.8416635779773
 30
0.0
 10
102.9853125764809
 20
81.963511123277
 30
0.0
 10
102.6686183351509
 20
82.08329672761424
 30
0.0
 10
102.3514060988029
 20
82.20120420652117
 30
0.0
  0
LINE
  5
118
330
1F
100
AcDbEntity
  8
0
  6
HIDDEN
 62
     7
370
     0
100
AcDbLine
 10
142.2014682219
 20
89.0437578762
 30
0.0
 11
139.0430617131
 21
89.0437578762
 31
0.0
  0
LINE
  5
119
330
1F
100
AcDbEntity
  8
0
  6
HIDDEN
 62
     7
370
     0
100
AcDbLine
 10
137.4597504846
 20
89.0437578762
 30
0.0
 11
134.7014060988
 21
89.0437578762
 31
0.0
  0
LINE
  5
11A
330
1F
100
AcDbEntity
  8
0
  6
HIDDEN
 62
     7
370
     0
100
AcDbLine
 10
134.7014060988
 20
89.0437578762
 30
0.0
 11
130.2014060988
 21
89.0437578762
 31
0.0
  0
LINE
  5
11B
330
1F
100
AcDbEntity
  8
0
  6
HIDDEN
 62
     7
370
     0
100
AcDbLine
 10
103.3014060988
 20
83.1437578762
 30
0.0
 11
103.3014060988
 21
81.841663578
 31
0.0
  0
LINE
  5
11C
330
1F
100
AcDbEntity
  8
0
  6
HIDDEN
 62
     7
370
     0
100
AcDbLine
 10
105.9514060988
 20
83.1437578762
 30
0.0
 11
105.9514060988
 21
82.1679473696
 31
0.0
  0
LINE
  5
11D
330
1F
100
AcDbEntity
  8
0
  6
HIDDEN
 62
     7
370
     0
100
AcDbLine
 10
103.4035970964
 20
61.1437578762
 30
0.0
 11
103.4035970964
 21
62.4215747881
 31
0.0
  0
LINE
  5
11E
330
1F
100
AcDbEntity
  8
0
  6
HIDDEN
 62
     7
370
     0
100
AcDbLine
 10
108.4514060988
 20
61.1437578762
 30
0.0
 11
108.4514060988
 21
62.1013655318
 31
0.0
  0
SPLINE
  5
11F
330
1F
100
AcDbEntity
  8
0
  6
HIDDEN
 62
     7
370
     0
100
AcDbSpline
210
0.0
220
0.0
230
1.0
 70
     8
 71
     3
 72
    10
 73
     6
 74
     0
 42
0.00000001
 43
0.00000001
 40
0.0
 40
0.0
 40
0.0
 40
0.0
 40
0.3400730362577959
 40
0.6293644246946748
 40
0.9999999999999999
 40
0.9999999999999999
 40
0.9999999999999999
 40
0.9999999999999999
 10
114.335779843855
 20
57.93793321149381
 30
0.0
 10
114.4552646725997
 20
57.95240980686961
 30
0.0
 10
114.6763921731219
 20
57.97920126972853
 30
0.0
 10
115.1453681358822
 20
58.01582481873875
 30
0.0
 10
115.5083285765323
 20
58.02223466563377
 30
0.0
 10
115.7121784858778
 20
58.02583463566391
 30
0.0
  0
SPLINE
  5
120
330
1F
100
AcDbEntity
  8
0
  6
HIDDEN
 62
     7
370
     0
100
AcDbSpline
210
0.0
220
0.0
230
1.0
 70
     8
 71
     3
 72
    35
 73
    31
 74
     0
 42
0.00000001
 43
0.00000001
 40
0.0
 40
0.0
 40
0.0
 40
0.0
 40
0.0576509618498042
 40
0.1201827322686361
 40
0.15263373302658
 40
0.1691582154797662
 40
0.1774953880717162
 40
0.1816827208046559
 40
0.1837810748733154
 40
0.1848314239317679
 40
0.185356891476965
 40
0.1856196985046489
 40
0.1857511203323901
 40
0.1858168358247507
 40
0.1858496947155557
 40
0.1858661244471141
 40
0.1858743393844326
 40
0.1858784468709763
 40
0.18588050061872
 40
0.1858825543694437
 40
0.2005671745688659
 40
0.3114344638444237
 40
0.4365469359495326
 40
0.5574775158796252
 40
0.6208468981526788
 40
0.6861052157043975
 40
0.7283263614324469
 40
0.8112214228912845
 40
0.9358208895940755
 40
1.0
 40
1.0
 40
1.0
 40
1.0
 10
118.5114675687643
 20
57.61034451720283
 30
0.0
 10
118.5207116816939
 20
57.60783389071202
 30
0.0
 10
118.5399825266829
 20
57.60260008468886
 30
0.0
 10
118.4193236674817
 20
57.6367858516508
 30
0.0
 10
118.3101190699843
 20
57.66594172530957
 30
0.0
 10
118.2433955800045
 20
57.68354092240761
 30
0.0
 10
118.2074319829052
 20
57.69296201888651
 30
0.0
 10
118.1887497616838
 20
57.69784263845197
 30
0.0
 10
118.1792368814786
 20
57.70032443634677
 30
0.0
 10
118.1744370680858
 20
57.70157583500131
 30
0.0
 10
118.1720263405222
 20
57.70220415231232
 30
0.0
 10
118.1708182675974
 20
57.70251896662737
 30
0.0
 10
118.1702135539586
 20
57.702676537665
 30
0.0
 10
118.1699110278058
 20
57.70275536416512
 30
0.0
 10
118.1697597223959
 20
57.70279478766108
 30
0.0
 10
118.169684059107
 20
57.70281450196987
 30
0.0
 10
118.1696462248167
 20
57.70282435976563
 30
0.0
 10
118.1696273070099
 20
57.70282928882219
 30
0.0
 10
118.169616496642
 20
57.70283210547496
 30
0.0
 10
118.1502869332395
 20
57.70786842373629
 30
0.0
 10
117.9797154520316
 20
57.75402094926568
 30
0.0
 10
117.5414979151294
 20
57.85098369332591
 30
0.0
 10
116.7386682836631
 20
57.9834351110632
 30
0.0
 10
115.973766816046
 20
58.02988390829074
 30
0.0
 10
115.3922982132807
 20
58.0281974833329
 30
0.0
 10
115.0249393987976
 20
58.01089769113162
 30
0.0
 10
114.6589502484189
 20
57.97697054477831
 30
0.0
 10
114.2637602432787
 20
57.93304252401676
 30
0.0
 10
113.9660784320905
 20
57.87938442819178
 30
0.0
 10
113.9837796742815
 20
57.88368433076092
 30
0.0
 10
113.9897975709851
 20
57.88514616994811
 30
0.0
  0
LINE
  5
121
330
1F
100
AcDbEntity
  8
0
  6
HIDDEN
 62
     7
370
     0
100
AcDbLine
 10
114.3357774679
 20
86.3495115147
 30
0.0
 11
114.1253244988
 21
86.380183951
 31
0.0
  0
SPLINE
  5
122
330
1F
100
AcDbEntity
  8
0
  6
HIDDEN
 62
     7
370
     0
100
AcDbSpline
210
0.0
220
0.0
230
1.0
 70
     8
 71
     3
 72
    31
 73
    27
 74
     0
 42
0.00000001
 43
0.00000001
 40
0.0
 40
0.0
 40
0.0
 40
0.0
 40
0.0077108793544684
 40
0.0638482001656337
 40
0.0991809360909341
 40
0.1408184888845402
 40
0.188763626905476
 40
0.2785706179556172
 40
0.2937428136070159
 40
0.3054184296763308
 40
0.3135972296493678
 40
0.3787049988971796
 40
0.441949867888361
 40
0.5034389188829875
 40
0.5632887209317253
 40
0.5988336707973343
 40
0.640539897376805
 40
0.6884144477582869
 40
0.7414776647534946
 40
0.7805645023901364
 40
0.7954576293258556
 40
0.8065070999943107
 40
0.8137126522423557
 40
0.8791882433778762
 40
0.9417004061445777
 40
1.0
 40
1.0
 40
1.0
 40
1.0
 10
113.9560396162862
 20
86.4082105910131
 30
0.0
 10
113.9545089310994
 20
86.40851430976807
 30
0.0
 10
113.9418344370882
 20
86.41102918452745
 30
0.0
 10
113.9828321193083
 20
86.40481821185851
 30
0.0
 10
114.0606919918612
 20
86.39040605576362
 30
0.0
 10
114.172997672679
 20
86.37203125599824
 30
0.0
 10
114.3871807043564
 20
86.3407436184021
 30
0.0
 10
114.6386150170378
 20
86.3123503450488
 30
0.0
 10
114.8589666908539
 20
86.29224240425654
 30
0.0
 10
114.9273137511035
 20
86.28634520500265
 30
0.0
 10
115.0967575167114
 20
86.27300615664346
 30
0.0
 10
115.3913902534954
 20
86.25933543910942
 30
0.0
 10
115.8353834144599
 20
86.25812858224964
 30
0.0
 10
116.2824907992995
 20
86.2760021516438
 30
0.0
 10
116.6604714620301
 20
86.30819505681944
 30
0.0
 10
116.9788848885415
 20
86.34873222412595
 30
0.0
 10
117.2577692079849
 20
86.39095064682806
 30
0.0
 10
117.5544701661362
 20
86.44417284194127
 30
0.0
 10
117.8161388960276
 20
86.49796907181943
 30
0.0
 10
117.9908016348882
 20
86.53843179469526
 30
0.0
 10
118.0867990004783
 20
86.56272496358392
 30
0.0
 10
118.1331846932971
 20
86.57498363068947
 30
0.0
 10
118.2458073496455
 20
86.604847368524
 30
0.0
 10
118.3968659686202
 20
86.6441061281928
 30
0.0
 10
118.5282326344337
 20
86.68109577751028
 30
0.0
 10
118.5432936090492
 20
86.68627196410452
 30
0.0
 10
118.5505615168068
 20
86.68876981352415
 30
0.0
  0
LINE
  5
123
330
1F
100
AcDbEntity
  8
0
  6
HIDDEN
 62
     7
370
     0
100
AcDbLine
 10
114.6149240108
 20
86.3178567147
 30
0.0
 11
114.3357774679
 21
86.3495115147
 31
0.0
  0
LINE
  5
124
330
1F
100
AcDbEntity
  8
0
  6
HIDDEN
 62
     7
370
     0
100
AcDbLine
 10
167.3514060988
 20
72.1437578762
 30
0.0
 11
167.3514060988
 21
69.6437578762
 31
0.0
  0
LINE
  5
125
330
1F
100
AcDbEntity
  8
0
  6
HIDDEN
 62
     7
370
     0
100
AcDbLine
 10
167.3514060988
 20
74.6437578762
 30
0.0
 11
167.3514060988
 21
72.1437578762
 31
0.0
  0
LINE
  5
126
330
1F
100
AcDbEntity
  8
0
  6
HIDDEN
 62
     7
370
     0
100
AcDbLine
 10
177.2514060988
 20
102.1437578762
 30
0.0
 11
177.2514060988
 21
42.1437578762
 31
0.0
  0
LINE
  5
127
330
1F
100
AcDbEntity
  8
0
  6
HIDDEN
 62
     7
370
     0
100
AcDbLine
 10
139.2914060988
 20
85.6596050565
 30
0.0
 11
139.2914060988
 21
83.9937578762
 31
0.0
  0
LINE
  5
128
330
1F
100
AcDbEntity
  8
0
  6
HIDDEN
 62
     7
370
     0
100
AcDbLine
 10
137.2114060988
 20
85.6596050565
 30
0.0
 11
137.2114060988
 21
83.9937578762
 31
0.0
  0
LINE
  5
129
330
1F
100
AcDbEntity
  8
0
  6
HIDDEN
 62
     7
370
     0
100
AcDbLine
 10
140.2865657977
 20
88.2551668773
 30
0.0
 11
140.2865657977
 21
83.9937578762
 31
0.0
  0
CIRCLE
  5
12A
330
1F
100
AcDbEntity
  8
0
  6
HIDDEN
 62
     7
370
     0
100
AcDbCircle
 10
129.2514060988
 20
72.1437578762
 30
0.0
 40
5.0
  0
LINE
  5
12B
330
1F
100
AcDbEntity
  8
0
  6
HIDDEN
 62
     7
370
     0
100
AcDbLine
 10
163.5482121209
 20
48.1437578762
 30
0.0
 11
197.2514060988
 21
48.1437578762
 31
0.0
  0
LINE
  5
12C
330
1F
100
AcDbEntity
  8
0
  6
HIDDEN
 62
     7
370
     0
100
AcDbLine
 10
197.2514060988
 20
96.1437578762
 30
0.0
 11
163.5482121209
 21
96.1437578762
 31
0.0
  0
ARC
  5
12D
330
1F
100
AcDbEntity
  8
0
  6
HIDDEN
 62
     7
370
     0
100
AcDbCircle
 10
169.2514060988
 20
100.1437578762
 30
0.0
 40
4.999999999999992
100
AcDbArc
 50
315.8945127504
 51
1.5219423349
  0
ARC
  5
12E
330
1F
100
AcDbEntity
  8
0
  6
HIDDEN
 62
     7
370
     0
100
AcDbCircle
 10
169.2514060988
 20
100.1437578762
 30
0.0
 40
4.999999999999999
100
AcDbArc
 50
156.4218215218
 51
227.1493719193
  0
ARC
  5
12F
330
1F
100
AcDbEntity
  8
0
  6
HIDDEN
 62
     7
370
     0
100
AcDbCircle
 10
169.2514060988
 20
100.1437578762
 30
0.0
 40
5.000000000000021
100
AcDbArc
 50
1.5219423349
 51
23.5781784782
  0
LINE
  5
130
330
1F
100
AcDbEntity
  8
0
  6
HIDDEN
 62
     7
370
     0
100
AcDbLine
 10
172.8414880094
 20
96.6770053554
 30
0.0
 11
171.4062058082
 21
98.0354569504
 31
0.0
  0
LINE
  5
131
330
1F
100
AcDbEntity
  8
0
  6
HIDDEN
 62
     7
370
     0
100
AcDbLine
 10
167.2115989901
 20
97.9240097958
 30
0.0
 11
165.8504766459
 21
96.4912600977
 31
0.0
  0
LINE
  5
132
330
1F
100
AcDbEntity
  8
0
  6
HIDDEN
 62
     7
370
     0
100
AcDbLine
 10
166.6539152894
 20
103.8675686897
 30
0.0
 11
167.0639959183
 21
103.4794396625
 31
0.0
  0
LINE
  5
133
330
1F
100
AcDbEntity
  8
0
  6
HIDDEN
 62
     7
370
     0
100
AcDbLine
 10
171.2586027364
 20
103.5908868171
 30
0.0
 11
171.6474948348
 21
104.0002438737
 31
0.0
  0
LINE
  5
134
330
1F
100
AcDbEntity
  8
0
  6
HIDDEN
 62
     7
370
     0
100
AcDbLine
 10
171.4082653565
 20
98.0316028369
 30
0.0
 11
171.2604547225
 21
103.5948448568
 31
0.0
  0
LINE
  5
135
330
1F
100
AcDbEntity
  8
0
  6
HIDDEN
 62
     7
370
     0
100
AcDbLine
 10
167.0619363699
 20
103.4832937761
 30
0.0
 11
167.209747004
 21
97.9200517561
 31
0.0
  0
ARC
  5
136
330
1F
100
AcDbEntity
  8
0
  6
HIDDEN
 62
     7
370
     0
100
AcDbCircle
 10
169.2514060988
 20
44.1437578762
 30
0.0
 40
5.000000000000029
100
AcDbArc
 50
136.4839170311
 51
182.0929349963
  0
ARC
  5
137
330
1F
100
AcDbEntity
  8
0
  6
HIDDEN
 62
     7
370
     0
100
AcDbCircle
 10
169.2514060988
 20
44.1437578762
 30
0.0
 40
5.000000000000019
100
AcDbArc
 50
336.4218215218
 51
47.7019529615
  0
ARC
  5
138
330
1F
100
AcDbEntity
  8
0
  6
HIDDEN
 62
     7
370
     0
100
AcDbCircle
 10
169.2514060988
 20
44.1437578762
 30
0.0
 40
5.000000000000001
100
AcDbArc
 50
182.0929349963
 51
203.5781784782
  0
LINE
  5
139
330
1F
100
AcDbEntity
  8
0
  6
HIDDEN
 62
     7
370
     0
100
AcDbLine
 10
165.6257305275
 20
47.5778420835
 30
0.0
 11
167.0749683851
 21
46.2324578139
 31
0.0
  0
LINE
  5
13A
330
1F
100
AcDbEntity
  8
0
  6
HIDDEN
 62
     7
370
     0
100
AcDbLine
 10
171.2695792921
 20
46.385749293
 30
0.0
 11
172.6167487059
 21
47.8333278821
 31
0.0
  0
LINE
  5
13B
330
1F
100
AcDbEntity
  8
0
  6
HIDDEN
 62
     7
370
     0
100
AcDbLine
 10
171.8867662367
 20
40.4432815725
 30
0.0
 11
171.4726982774
 21
40.8276770781
 31
0.0
  0
LINE
  5
13C
330
1F
100
AcDbEntity
  8
0
  6
HIDDEN
 62
     7
370
     0
100
AcDbLine
 10
167.2780873704
 20
40.6743855989
 30
0.0
 11
166.8931818236
 21
40.2607917164
 31
0.0
  0
LINE
  5
13D
330
1F
100
AcDbEntity
  8
0
  6
HIDDEN
 62
     7
370
     0
100
AcDbLine
 10
167.073580274
 20
46.2349954403
 30
0.0
 11
167.2768881891
 21
40.6717534203
 31
0.0
  0
LINE
  5
13E
330
1F
100
AcDbEntity
  8
0
  6
HIDDEN
 62
     7
370
     0
100
AcDbLine
 10
171.4740863885
 20
40.8251394517
 30
0.0
 11
171.2707784734
 21
46.3883814717
 31
0.0
  0
LINE
  5
13F
330
1F
100
AcDbEntity
  8
0
  6
HIDDEN
 62
     7
370
     0
100
AcDbLine
 10
175.2514060988
 20
94.1437578762
 30
0.0
 11
175.2514060988
 21
102.1437578762
 31
0.0
  0
LINE
  5
140
330
1F
100
AcDbEntity
  8
0
  6
HIDDEN
 62
     7
370
     0
100
AcDbLine
 10
163.2514060988
 20
102.1437578762
 30
0.0
 11
163.2514060988
 21
94.1437578762
 31
0.0
  0
ARC
  5
141
330
1F
100
AcDbEntity
  8
0
  6
HIDDEN
 62
     7
370
     0
100
AcDbCircle
 10
169.2514060988
 20
100.1437578762
 30
0.0
 40
4.999999999999976
100
AcDbArc
 50
314.4270040008
 51
0.0
  0
ARC
  5
142
330
1F
100
AcDbEntity
  8
0
  6
HIDDEN
 62
     7
370
     0
100
AcDbCircle
 10
169.2514060988
 20
100.1437578762
 30
0.0
 40
4.999999999999996
100
AcDbArc
 50
156.4218215218
 51
225.5729959992
  0
ARC
  5
143
330
1F
100
AcDbEntity
  8
0
  6
HIDDEN
 62
     7
370
     0
100
AcDbCircle
 10
169.2514060988
 20
100.1437578762
 30
0.0
 40
4.999999999999996
100
AcDbArc
 50
0.0
 51
23.5781784782
  0
LINE
  5
144
330
1F
100
AcDbEntity
  8
0
  6
HIDDEN
 62
     7
370
     0
100
AcDbLine
 10
172.7514060988
 20
94.1437578762
 30
0.0
 11
172.7514060988
 21
96.573043662
 31
0.0
  0
LINE
  5
145
330
1F
100
AcDbEntity
  8
0
  6
HIDDEN
 62
     7
370
     0
100
AcDbLine
 10
165.7514060988
 20
96.573043662
 30
0.0
 11
165.7514060988
 21
94.1437578762
 31
0.0
  0
LINE
  5
146
330
1F
100
AcDbEntity
  8
0
  6
HIDDEN
 62
     7
370
     0
100
AcDbLine
 10
163.2514060988
 20
50.1437578762
 30
0.0
 11
163.2514060988
 21
42.1437578762
 31
0.0
  0
LINE
  5
147
330
1F
100
AcDbEntity
  8
0
  6
HIDDEN
 62
     7
370
     0
100
AcDbLine
 10
175.2514060988
 20
42.1437578762
 30
0.0
 11
175.2514060988
 21
50.1437578762
 31
0.0
  0
ARC
  5
148
330
1F
100
AcDbEntity
  8
0
  6
HIDDEN
 62
     7
370
     0
100
AcDbCircle
 10
169.2514060988
 20
44.1437578762
 30
0.0
 40
5.0
100
AcDbArc
 50
134.4270040008
 51
180.0
  0
ARC
  5
149
330
1F
100
AcDbEntity
  8
0
  6
HIDDEN
 62
     7
370
     0
100
AcDbCircle
 10
169.2514060988
 20
44.1437578762
 30
0.0
 40
4.999999999999996
100
AcDbArc
 50
336.4218215218
 51
45.5729959992
  0
ARC
  5
14A
330
1F
100
AcDbEntity
  8
0
  6
HIDDEN
 62
     7
370
     0
100
AcDbCircle
 10
169.2514060988
 20
44.1437578762
 30
0.0
 40
5.0
100
AcDbArc
 50
180.0
 51
203.5781784782
  0
LINE
  5
14B
330
1F
100
AcDbEntity
  8
0
  6
HIDDEN
 62
     7
370
     0
100
AcDbLine
 10
165.7514060988
 20
50.1437578762
 30
0.0
 11
165.7514060988
 21
47.7144720905
 31
0.0
  0
LINE
  5
14C
330
1F
100
AcDbEntity
  8
0
  6
HIDDEN
 62
     7
370
     0
100
AcDbLine
 10
172.7514060988
 20
47.7144720905
 30
0.0
 11
172.7514060988
 21
50.1437578762
 31
0.0
  0
LINE
  5
14D
330
1F
100
AcDbEntity
  8
0
  6
HIDDEN
 62
     7
370
     0
100
AcDbLine
 10
163.2514060988
 20
102.1437578762
 30
0.0
 11
163.2514060988
 21
94.1437578762
 31
0.0
  0
LINE
  5
14E
330
1F
100
AcDbEntity
  8
0
  6
HIDDEN
 62
     7
370
     0
100
AcDbLine
 10
175.2514060988
 20
94.1437578762
 30
0.0
 11
175.2514060988
 21
102.1437578762
 31
0.0
  0
LINE
  5
14F
330
1F
100
AcDbEntity
  8
0
  6
HIDDEN
 62
     7
370
     0
100
AcDbLine
 10
175.2514060988
 20
42.1437578762
 30
0.0
 11
175.2514060988
 21
50.1437578762
 31
0.0
  0
LINE
  5
150
330
1F
100
AcDbEntity
  8
0
  6
HIDDEN
 62
     7
370
     0
100
AcDbLine
 10
163.2514060988
 20
50.1437578762
 30
0.0
 11
163.2514060988
 21
42.1437578762
 31
0.0
  0
LINE
  5
151
330
1F
100
AcDbEntity
  8
0
  6
HIDDEN
 62
     7
370
     0
100
AcDbLine
 10
122.2514060988
 20
55.9365571912
 30
0.0
 11
122.3455668743
 21
56.6065459224
 31
0.0
  0
LINE
  5
152
330
1F
100
AcDbEntity
  8
0
  6
HIDDEN
 62
     7
370
     0
100
AcDbLine
 10
122.3455668743
 20
87.6809698301
 30
0.0
 11
122.2514060988
 21
88.3509585613
 31
0.0
  0
ARC
  5
153
330
1F
100
AcDbEntity
  8
0
  6
HIDDEN
 62
     7
370
     0
100
AcDbCircle
 10
121.7513993461
 20
56.6900507228
 30
0.0
 40
0.6000067526677242
100
AcDbArc
 50
352.0
 51
0.0
  0
ARC
  5
154
330
1F
100
AcDbEntity
  8
0
  6
HIDDEN
 62
     7
370
     0
100
AcDbCircle
 10
121.7513993461
 20
56.6900507228
 30
0.0
 40
0.6000067526677242
100
AcDbArc
 50
0.0
 51
33.5571153394
  0
ARC
  5
155
330
1F
100
AcDbEntity
  8
0
  6
HIDDEN
 62
     7
370
     0
100
AcDbCircle
 10
121.7513993461
 20
87.5974650297
 30
0.0
 40
0.6000067526677203
100
AcDbArc
 50
348.75
 51
8.0
  0
LWPOLYLINE
  5
156
330
1F
100
AcDbEntity
  8
0
  6
HIDDEN
 62
     7
370
     0
100
AcDbPolyline
 90
        3
 70
   128
 43
0.0
 10
122.3398771373
 20
87.4804095191
 10
122.3057333043
 20
87.3678523861
 10
122.2514060988
 20
87.2658005147
  0
LINE
  5
157
330
1F
100
AcDbEntity
  8
0
  6
HIDDEN
 62
     7
370
     0
100
AcDbLine
 10
122.3514060988
 20
56.6900507228
 30
0.0
 11
122.3514060988
 21
87.5974650297
 31
0.0
  0
ARC
  5
158
330
1F
100
AcDbEntity
  8
0
  6
HIDDEN
 62
     7
370
     0
100
AcDbCircle
 10
111.784034043
 20
59.7937578762
 30
0.0
 40
0.3999999999999998
100
AcDbArc
 50
210.0
 51
270.0
  0
ARC
  5
159
330
1F
100
AcDbEntity
  8
0
  6
HIDDEN
 62
     7
370
     0
100
AcDbCircle
 10
111.784034043
 20
84.4937578762
 30
0.0
 40
0.3999999999999998
100
AcDbArc
 50
90.0
 51
150.0
  0
LINE
  5
15A
330
1F
100
AcDbEntity
  8
0
  6
HIDDEN
 62
     7
370
     0
100
AcDbLine
 10
111.784034043
 20
59.3937578762
 30
0.0
 11
113.9821812772
 21
59.3937578762
 31
0.0
  0
LINE
  5
15B
330
1F
100
AcDbEntity
  8
0
  6
HIDDEN
 62
     7
370
     0
100
AcDbLine
 10
113.9821812772
 20
84.8937578762
 30
0.0
 11
111.784034043
 21
84.8937578762
 31
0.0
  0
ARC
  5
15C
330
1F
100
AcDbEntity
  8
0
  6
HIDDEN
 62
     7
370
     0
100
AcDbCircle
 10
118.0755828267
 20
64.3937578762
 30
0.0
 40
4.999999999999995
100
AcDbArc
 50
275.3869210949
 51
326.6329870308
  0
ARC
  5
15D
330
1F
100
AcDbEntity
  8
0
  6
HIDDEN
 62
     7
370
     0
100
AcDbCircle
 10
118.0755828267
 20
79.8937578762
 30
0.0
 40
4.999999999999992
100
AcDbArc
 50
33.3670129692
 51
84.6095344621
  0
LINE
  5
15E
330
1F
100
AcDbEntity
  8
0
  6
HIDDEN
 62
     7
370
     0
100
AcDbLine
 10
111.4376238815
 20
84.6937578762
 30
0.0
 11
110.2540558296
 21
82.6437578762
 31
0.0
  0
LINE
  5
15F
330
1F
100
AcDbEntity
  8
0
  6
HIDDEN
 62
     7
370
     0
100
AcDbLine
 10
110.2540558296
 20
61.6437578762
 30
0.0
 11
111.4376238815
 21
59.5937578762
 31
0.0
  0
LINE
  5
160
330
1F
100
AcDbEntity
  8
0
  6
HIDDEN
 62
     7
370
     0
100
AcDbLine
 10
170.5119412741
 20
50.1437578762
 30
0.0
 11
162.5931915312
 21
70.0193882898
 31
0.0
  0
LINE
  5
161
330
1F
100
AcDbEntity
  8
0
  6
HIDDEN
 62
     7
370
     0
100
AcDbLine
 10
158.176759371
 20
69.756752133
 30
0.0
 11
165.9908709235
 21
50.1437578762
 31
0.0
  0
LINE
  5
162
330
1F
100
AcDbEntity
  8
0
  6
HIDDEN
 62
     7
370
     0
100
AcDbLine
 10
165.9908709235
 20
94.1437578762
 30
0.0
 11
158.1753392441
 21
74.5271991784
 31
0.0
  0
LINE
  5
163
330
1F
100
AcDbEntity
  8
0
  6
HIDDEN
 62
     7
370
     0
100
AcDbLine
 10
162.5978027084
 20
74.2797012663
 30
0.0
 11
170.5119412741
 21
94.1437578762
 31
0.0
  0
ARC
  5
164
330
1F
100
AcDbEntity
  8
0
  6
HIDDEN
 62
     7
370
     0
100
AcDbCircle
 10
129.2014060988
 20
62.2687578762
 30
0.0
 40
1.0
100
AcDbArc
 50
218.6821874535
 51
0.0
  0
ARC
  5
165
330
1F
100
AcDbEntity
  8
0
  6
HIDDEN
 62
     7
370
     0
100
AcDbCircle
 10
129.2014060988
 20
82.0187578762
 30
0.0
 40
1.0
100
AcDbArc
 50
0.0
 51
141.3178125465
  0
LINE
  5
166
330
1F
100
AcDbEntity
  8
0
  6
HIDDEN
 62
     7
370
     0
100
AcDbLine
 10
108.4514060988
 20
61.6437578762
 30
0.0
 11
110.2540558296
 21
61.6437578762
 31
0.0
  0
LINE
  5
167
330
1F
100
AcDbEntity
  8
0
  6
HIDDEN
 62
     7
370
     0
100
AcDbLine
 10
110.2540558296
 20
82.6437578762
 30
0.0
 11
105.9514060988
 21
82.6437578762
 31
0.0
  0
LINE
  5
168
330
1F
100
AcDbEntity
  8
0
  6
HIDDEN
 62
     7
370
     0
100
AcDbLine
 10
122.2514060988
 20
61.6437578762
 30
0.0
 11
128.420781349
 21
61.6437578762
 31
0.0
  0
LINE
  5
169
330
1F
100
AcDbEntity
  8
0
  6
HIDDEN
 62
     7
370
     0
100
AcDbLine
 10
128.420781349
 20
82.6437578762
 30
0.0
 11
122.2514060988
 21
82.6437578762
 31
0.0
  0
LINE
  5
16A
330
1F
100
AcDbEntity
  8
0
  6
HIDDEN
 62
     7
370
     0
100
AcDbLine
 10
135.5514060988
 20
65.8937578762
 30
0.0
 11
138.0514060988
 21
65.8937578762
 31
0.0
  0
LINE
  5
16B
330
1F
100
AcDbEntity
  8
0
  6
HIDDEN
 62
     7
370
     0
100
AcDbLine
 10
138.0514060988
 20
78.3937578762
 30
0.0
 11
135.5514060988
 21
78.3937578762
 31
0.0
  0
LINE
  5
16C
330
1F
100
AcDbEntity
  8
0
  6
HIDDEN
 62
     7
370
     0
100
AcDbLine
 10
130.2014060988
 20
66.1437578762
 30
0.0
 11
130.7014060988
 21
66.6437578762
 31
0.0
  0
LINE
  5
16D
330
1F
100
AcDbEntity
  8
0
  6
HIDDEN
 62
     7
370
     0
100
AcDbLine
 10
130.7014060988
 20
77.6437578762
 30
0.0
 11
130.2014060988
 21
78.1437578762
 31
0.0
  0
LINE
  5
16E
330
1F
100
AcDbEntity
  8
0
  6
HIDDEN
 62
     7
370
     0
100
AcDbLine
 10
130.7014060988
 20
66.6437578762
 30
0.0
 11
135.5514060988
 21
66.6437578762
 31
0.0
  0
LINE
  5
16F
330
1F
100
AcDbEntity
  8
0
  6
HIDDEN
 62
     7
370
     0
100
AcDbLine
 10
135.5514060988
 20
77.6437578762
 30
0.0
 11
130.7014060988
 21
77.6437578762
 31
0.0
  0
LINE
  5
170
330
1F
100
AcDbEntity
  8
0
  6
HIDDEN
 62
     7
370
     0
100
AcDbLine
 10
130.2014060988
 20
92.1437578762
 30
0.0
 11
130.2014060988
 21
89.0437578762
 31
0.0
  0
LINE
  5
171
330
1F
100
AcDbEntity
  8
0
  6
HIDDEN
 62
     7
370
     0
100
AcDbLine
 10
119.0185853432
 20
57.1024532628
 30
0.0
 11
118.5506567551
 21
57.5982897437
 31
0.0
  0
LINE
  5
172
330
1F
100
AcDbEntity
  8
0
  6
HIDDEN
 62
     7
370
     0
100
AcDbLine
 10
113.9527517399
 20
57.8781434574
 30
0.0
 11
113.435278024
 21
57.3823181446
 31
0.0
  0
LINE
  5
173
330
1F
100
AcDbEntity
  8
0
  6
HIDDEN
 62
     7
370
     0
100
AcDbLine
 10
113.4346437921
 20
86.9052475491
 30
0.0
 11
113.9523300402
 21
86.4093605026
 31
0.0
  0
LINE
  5
174
330
1F
100
AcDbEntity
  8
0
  6
HIDDEN
 62
     7
370
     0
100
AcDbLine
 10
118.5499708752
 20
86.6890080357
 30
0.0
 11
119.0178747714
 21
87.1849019084
 31
0.0
  0
LINE
  5
175
330
1F
100
AcDbEntity
  8
0
  6
HIDDEN
 62
     7
370
     0
100
AcDbLine
 10
162.2728525975
 20
69.6437578762
 30
0.0
 11
167.3514060988
 21
69.6437578762
 31
0.0
  0
LINE
  5
176
330
1F
100
AcDbEntity
  8
0
  6
HIDDEN
 62
     7
370
     0
100
AcDbLine
 10
138.0514060988
 20
69.6437578762
 30
0.0
 11
158.3762464068
 21
69.6437578762
 31
0.0
  0
LINE
  5
177
330
1F
100
AcDbEntity
  8
0
  6
HIDDEN
 62
     7
370
     0
100
AcDbLine
 10
158.3768569549
 20
74.6437578762
 30
0.0
 11
138.0514060988
 21
74.6437578762
 31
0.0
  0
LINE
  5
178
330
1F
100
AcDbEntity
  8
0
  6
HIDDEN
 62
     7
370
     0
100
AcDbLine
 10
167.3514060988
 20
74.6437578762
 30
0.0
 11
162.2638048936
 21
74.6437578762
 31
0.0
  0
LINE
  5
179
330
1F
100
AcDbEntity
  8
0
  6
HIDDEN
 62
     7
370
     0
100
AcDbLine
 10
167.3514060988
 20
69.6437578762
 30
0.0
 11
168.8535576464
 21
72.1437578762
 31
0.0
  0
LINE
  5
17A
330
1F
100
AcDbEntity
  8
0
  6
HIDDEN
 62
     7
370
     0
100
AcDbLine
 10
168.8535576464
 20
72.1437578762
 30
0.0
 11
167.3514060988
 21
74.6437578762
 31
0.0
  0
LINE
  5
17B
330
1F
100
AcDbEntity
  8
0
  6
HIDDEN
 62
     7
370
     0
100
AcDbLine
 10
118.5514060988
 20
57.6103452262
 30
0.0
 11
118.5514060988
 21
59.4169034161
 31
0.0
  0
LINE
  5
17C
330
1F
100
AcDbEntity
  8
0
  6
HIDDEN
 62
     7
370
     0
100
AcDbLine
 10
113.9514060988
 20
59.3992606977
 30
0.0
 11
113.9514060988
 21
57.8851498647
 31
0.0
  0
LINE
  5
17D
330
1F
100
AcDbEntity
  8
0
  6
HIDDEN
 62
     7
370
     0
100
AcDbLine
 10
118.5514060988
 20
84.8706123364
 30
0.0
 11
118.5514060988
 21
86.6887974817
 31
0.0
  0
LINE
  5
17E
330
1F
100
AcDbEntity
  8
0
  6
HIDDEN
 62
     7
370
     0
100
AcDbLine
 10
113.9514060988
 20
86.4082551448
 30
0.0
 11
113.9514060988
 21
84.8882550547
 31
0.0
  0
DIMENSION
  5
17F
330
1F
100
AcDbEntity
  8
VERMASSUNG
100
AcDbDimension
  2
*D1
 10
96.6002269193
 20
52.1437578762
 30
0.0
 11
96.6002269193
 21
71.6154023268
 31
0.0
 70
   160
  1
HSK T %%c<>
 71
     2
 42
-1.0
  3
SLDDIMSTYLE0
100
AcDbAlignedDimension
 13
122.5514060988
 23
92.1437578762
 33
0.0
 14
122.5514060988
 24
52.1437578762
 34
0.0
 50
90.0
100
AcDbRotatedDimension
  0
DIMENSION
  5
18C
330
1F
100
AcDbEntity
  8
VERMASSUNG
100
AcDbDimension
  2
*D2
 10
205.7279477267
 20
42.1437578762
 30
0.0
 11
205.7279477267
 21
71.6154023268
 31
0.0
 70
   160
 71
     2
 42
-1.0
  3
SLDDIMSTYLE0
100
AcDbAlignedDimension
 13
197.2514060988
 23
102.1437578762
 33
0.0
 14
197.2514060988
 24
42.1437578762
 34
0.0
 50
90.0
100
AcDbRotatedDimension
  0
DIMENSION
  5
196
330
1F
100
AcDbEntity
  8
VERMASSUNG
100
AcDbDimension
  2
*D3
 10
122.2514060988
 20
108.0516298461
 30
0.0
 11
159.7514060988
 21
108.0516298461
 31
0.0
 70
   160
 71
     2
 42
-1.0
  3
SLDDIMSTYLE0
100
AcDbAlignedDimension
 13
197.2514060988
 23
102.1437578762
 33
0.0
 14
122.2514060988
 24
91.8437578762
 34
0.0
100
AcDbRotatedDimension
  0
DIMENSION
  5
1A0
330
1F
100
AcDbEntity
  8
VERMASSUNG
100
AcDbDimension
  2
*D4
 10
197.2514060988
 20
114.0516298461
 30
0.0
 11
149.8014060988
 21
114.0516298461
 31
0.0
 70
   160
 71
     2
 42
-1.0
  3
SLDDIMSTYLE0
100
AcDbAlignedDimension
 13
102.3514060988
 23
84.4126971095
 33
0.0
 14
197.2514060988
 24
102.1437578762
 34
0.0
100
AcDbRotatedDimension
  0
LINE
  5
1AA
330
1F
100
AcDbEntity
  8
VERMASSUNG
  6
CENTERX2
 62
     7
370
     0
100
AcDbLine
 10
100.2695977586
 20
72.1437578762
 30
0.0
 11
199.2514060988
 21
72.1437578762
 31
0.0
  0
LINE
  5
1AB
330
1F
100
AcDbEntity
  8
0
  6
Continuous
 62
     7
370
    15
100
AcDbLine
 10
182.7514060988
 20
169.6560680711
 30
0.0
 11
183.7514060988
 21
168.6560680711
 31
0.0
  0
LINE
  5
1AC
330
1F
100
AcDbEntity
  8
0
  6
Continuous
 62
     7
370
    15
100
AcDbLine
 10
190.7514060988
 20
168.6560680711
 30
0.0
 11
191.7514060988
 21
169.6560680711
 31
0.0
  0
LINE
  5
1AD
330
1F
100
AcDbEntity
  8
0
  6
Continuous
 62
     7
370
    15
100
AcDbLine
 10
158.1892282723
 20
188.6560680711
 30
0.0
 11
157.4500049371
 21
185.897249026
 31
0.0
  0
LINE
  5
1AE
330
1F
100
AcDbEntity
  8
0
  6
Continuous
 62
     7
370
    15
100
AcDbLine
 10
157.4500049371
 20
151.4148871162
 30
0.0
 11
161.4046185815
 21
136.6560680711
 31
0.0
  0
LINE
  5
1AF
330
1F
100
AcDbEntity
  8
0
  6
Continuous
 62
     7
370
    15
100
AcDbLine
 10
134.241851484
 20
148.6560680711
 30
0.0
 11
136.2162463999
 21
148.6560680711
 31
0.0
  0
LINE
  5
1B0
330
1F
100
AcDbEntity
  8
0
  6
Continuous
 62
     7
370
    15
100
AcDbLine
 10
122.5514060988
 20
148.6560680711
 30
0.0
 11
124.2514060988
 21
148.6560680711
 31
0.0
  0
LINE
  5
1B1
330
1F
100
AcDbEntity
  8
0
  6
Continuous
 62
     7
370
    15
100
AcDbLine
 10
136.2162463999
 20
188.6560680711
 30
0.0
 11
122.5514060988
 21
188.6560680711
 31
0.0
  0
ARC
  5
1B2
330
1F
100
AcDbEntity
  8
0
  6
Continuous
 62
     7
370
    15
100
AcDbCircle
 10
122.5514060988
 20
148.9560680711
 30
0.0
 40
0.3000000000000398
100
AcDbArc
 50
180.0
 51
270.0
  0
ARC
  5
1B3
330
1F
100
AcDbEntity
  8
0
  6
Continuous
 62
     7
370
    15
100
AcDbCircle
 10
122.5514060988
 20
188.3560680711
 30
0.0
 40
0.3000000000000114
100
AcDbArc
 50
90.0
 51
180.0
  0
ARC
  5
1B4
330
1F
100
AcDbEntity
  8
0
  6
Continuous
 62
     7
370
    15
100
AcDbCircle
 10
141.6014060988
 20
188.0560680711
 30
0.0
 40
0.5999999999999943
100
AcDbArc
 50
0.0
 51
90.0
  0
ARC
  5
1B5
330
1F
100
AcDbEntity
  8
0
  6
Continuous
 62
     7
370
    15
100
AcDbCircle
 10
141.6014060988
 20
149.2560680711
 30
0.0
 40
0.6000000000000227
100
AcDbArc
 50
270.0
 51
0.0
  0
LINE
  5
1B6
330
1F
100
AcDbEntity
  8
0
  6
Continuous
 62
     7
370
    15
100
AcDbLine
 10
141.6014060988
 20
188.6560680711
 30
0.0
 11
140.2865657977
 21
188.6560680711
 31
0.0
  0
LINE
  5
1B7
330
1F
100
AcDbEntity
  8
0
  6
Continuous
 62
     7
370
    15
100
AcDbLine
 10
139.2914060988
 20
150.3797352313
 30
0.0
 11
140.2865657977
 21
148.6560680711
 31
0.0
  0
LINE
  5
1B8
330
1F
100
AcDbEntity
  8
0
  6
Continuous
 62
     7
370
    15
100
AcDbLine
 10
140.2865657977
 20
148.6560680711
 30
0.0
 11
141.6014060988
 21
148.6560680711
 31
0.0
  0
LINE
  5
1B9
330
1F
100
AcDbEntity
  8
0
  6
Continuous
 62
     7
370
    15
100
AcDbLine
 10
140.2865657977
 20
188.6560680711
 30
0.0
 11
139.2914060988
 21
186.932400911
 31
0.0
  0
LINE
  5
1BA
330
1F
100
AcDbEntity
  8
0
  6
Continuous
 62
     7
370
    15
100
AcDbLine
 10
136.2162463999
 20
148.6560680711
 30
0.0
 11
137.2114060988
 21
150.3797352313
 31
0.0
  0
LINE
  5
1BB
330
1F
100
AcDbEntity
  8
0
  6
Continuous
 62
     7
370
    15
100
AcDbLine
 10
137.2114060988
 20
186.932400911
 30
0.0
 11
136.2162463999
 21
188.6560680711
 31
0.0
  0
ARC
  5
1BC
330
1F
100
AcDbEntity
  8
0
  6
Continuous
 62
     7
370
    15
100
AcDbCircle
 10
156.4840791108
 20
186.1560680711
 30
0.0
 40
1.0
100
AcDbArc
 50
270.0
 51
345.0
  0
ARC
  5
1BD
330
1F
100
AcDbEntity
  8
0
  6
Continuous
 62
     7
370
    15
100
AcDbCircle
 10
156.4840791108
 20
151.1560680711
 30
0.0
 40
1.000000000000028
100
AcDbArc
 50
15.0
 51
90.0
  0
ARC
  5
1BE
330
1F
100
AcDbEntity
  8
0
  6
Continuous
 62
     7
370
    15
100
AcDbCircle
 10
138.6914060988
 20
186.6310680711
 30
0.0
 40
0.5999999999999943
100
AcDbArc
 50
270.0
 51
0.0
  0
ARC
  5
1BF
330
1F
100
AcDbEntity
  8
0
  6
Continuous
 62
     7
370
    15
100
AcDbCircle
 10
137.8114060988
 20
186.6310680711
 30
0.0
 40
0.6000000000000227
100
AcDbArc
 50
180.0
 51
270.0
  0
ARC
  5
1C0
330
1F
100
AcDbEntity
  8
0
  6
Continuous
 62
     7
370
    15
100
AcDbCircle
 10
138.6914060988
 20
150.6810680711
 30
0.0
 40
0.6000000000000227
100
AcDbArc
 50
0.0
 51
90.0
  0
ARC
  5
1C1
330
1F
100
AcDbEntity
  8
0
  6
Continuous
 62
     7
370
    15
100
AcDbCircle
 10
137.8114060988
 20
150.6810680711
 30
0.0
 40
0.6000000000000227
100
AcDbArc
 50
90.0
 51
180.0
  0
LINE
  5
1C2
330
1F
100
AcDbEntity
  8
0
  6
Continuous
 62
     7
370
    15
100
AcDbLine
 10
138.6914060988
 20
186.0310680711
 30
0.0
 11
137.8114060988
 21
186.0310680711
 31
0.0
  0
ARC
  5
1C3
330
1F
100
AcDbEntity
  8
0
  6
Continuous
 62
     7
370
    15
100
AcDbCircle
 10
143.2014060988
 20
151.1560680711
 30
0.0
 40
1.000000000000028
100
AcDbArc
 50
90.0
 51
180.0
  0
ARC
  5
1C4
330
1F
100
AcDbEntity
  8
0
  6
Continuous
 62
     7
370
    15
100
AcDbCircle
 10
143.2014060988
 20
186.1560680711
 30
0.0
 40
1.0
100
AcDbArc
 50
180.0
 51
270.0
  0
LINE
  5
1C5
330
1F
100
AcDbEntity
  8
0
  6
Continuous
 62
     7
370
    15
100
AcDbLine
 10
137.8114060988
 20
151.2810680711
 30
0.0
 11
138.6914060988
 21
151.2810680711
 31
0.0
  0
LINE
  5
1C6
330
1F
100
AcDbEntity
  8
0
  6
Continuous
 62
     7
370
    15
100
AcDbLine
 10
143.2014060988
 20
152.1560680711
 30
0.0
 11
156.4840791108
 21
152.1560680711
 31
0.0
  0
LINE
  5
1C7
330
1F
100
AcDbEntity
  8
0
  6
Continuous
 62
     7
370
    15
100
AcDbLine
 10
156.4840791108
 20
185.1560680711
 30
0.0
 11
143.2014060988
 21
185.1560680711
 31
0.0
  0
ARC
  5
1C8
330
1F
100
AcDbEntity
  8
0
  6
Continuous
 62
     7
370
    15
100
AcDbCircle
 10
121.7513993461
 20
153.2023609177
 30
0.0
 40
0.6000067526677242
100
AcDbArc
 50
33.5571153394
 51
90.0
  0
ARC
  5
1C9
330
1F
100
AcDbEntity
  8
0
  6
Continuous
 62
     7
370
    15
100
AcDbCircle
 10
121.7513993461
 20
184.1097752246
 30
0.0
 40
0.6000067526677242
100
AcDbArc
 50
270.0
 51
326.4428846606
  0
LINE
  5
1CA
330
1F
100
AcDbEntity
  8
0
  6
Continuous
 62
     7
370
    15
100
AcDbLine
 10
120.2514060988
 20
183.7597684719
 30
0.0
 11
103.1113761452
 21
182.9010495364
 31
0.0
  0
LINE
  5
1CB
330
1F
100
AcDbEntity
  8
0
  6
Continuous
 62
     7
370
    15
100
AcDbLine
 10
103.1113761452
 20
154.4110866059
 30
0.0
 11
120.2514060988
 21
153.5523676703
 31
0.0
  0
LINE
  5
1CC
330
1F
100
AcDbEntity
  8
0
  6
Continuous
 62
     7
370
    15
100
AcDbLine
 10
120.2514060988
 20
153.5523676703
 30
0.0
 11
121.1081180135
 21
153.781922936
 31
0.0
  0
LINE
  5
1CD
330
1F
100
AcDbEntity
  8
0
  6
Continuous
 62
     7
370
    15
100
AcDbLine
 10
121.1081180135
 20
183.5302132063
 30
0.0
 11
120.2514060988
 21
183.7597684719
 31
0.0
  0
ARC
  5
1CE
330
1F
100
AcDbEntity
  8
0
  6
Continuous
 62
     7
370
    15
100
AcDbCircle
 10
121.2634111883
 20
153.2023609177
 30
0.0
 40
0.6000067526677242
100
AcDbArc
 50
90.0
 51
105.0
  0
ARC
  5
1CF
330
1F
100
AcDbEntity
  8
0
  6
Continuous
 62
     7
370
    15
100
AcDbCircle
 10
121.2634111883
 20
184.1097752246
 30
0.0
 40
0.6000067526677133
100
AcDbArc
 50
255.0
 51
270.0
  0
LINE
  5
1D0
330
1F
100
AcDbEntity
  8
0
  6
Continuous
 62
     7
370
    15
100
AcDbLine
 10
121.2634111883
 20
153.8023676703
 30
0.0
 11
121.7513993461
 21
153.8023676703
 31
0.0
  0
LINE
  5
1D1
330
1F
100
AcDbEntity
  8
0
  6
Continuous
 62
     7
370
    15
100
AcDbLine
 10
121.7513993461
 20
183.5097684719
 30
0.0
 11
121.2634111883
 21
183.5097684719
 31
0.0
  0
ARC
  5
1D2
330
1F
100
AcDbEntity
  8
0
  6
Continuous
 62
     7
370
    15
100
AcDbCircle
 10
103.1514060988
 20
182.1020516623
 30
0.0
 40
0.8000000000000114
100
AcDbArc
 50
92.8681319407
 51
180.0
  0
ARC
  5
1D3
330
1F
100
AcDbEntity
  8
0
  6
Continuous
 62
     7
370
    15
100
AcDbCircle
 10
103.1514060988
 20
155.21008448
 30
0.0
 40
0.8000000000000114
100
AcDbArc
 50
180.0
 51
267.1318680593
  0
LINE
  5
1D4
330
1F
100
AcDbEntity
  8
0
  6
Continuous
 62
     7
370
    15
100
AcDbLine
 10
187.2514060988
 20
168.6560680711
 30
0.0
 11
190.7514060988
 21
168.6560680711
 31
0.0
  0
LINE
  5
1D5
330
1F
100
AcDbEntity
  8
0
  6
Continuous
 62
     7
370
    15
100
AcDbLine
 10
183.7514060988
 20
168.6560680711
 30
0.0
 11
187.2514060988
 21
168.6560680711
 31
0.0
  0
CIRCLE
  5
1D6
330
1F
100
AcDbEntity
  8
0
  6
Continuous
 62
     7
370
    15
100
AcDbCircle
 10
169.3941582073
 20
179.5223059736
 30
0.0
 40
3.248439541316212
  0
CIRCLE
  5
1D7
330
1F
100
AcDbEntity
  8
0
  6
Continuous
 62
     7
370
    15
100
AcDbCircle
 10
169.3932046517
 20
179.5223609454
 30
0.0
 40
2.498847145542218
  0
CIRCLE
  5
1D8
330
1F
100
AcDbEntity
  8
0
  6
Continuous
 62
     7
370
    15
100
AcDbCircle
 10
169.3781016494
 20
179.5364193384
 30
0.0
 40
2.099069917907273
  0
ARC
  5
1D9
330
1F
100
AcDbEntity
  8
0
  6
Continuous
 62
     7
370
    15
100
AcDbCircle
 10
169.1705788775
 20
179.733766494
 30
0.0
 40
2.100138071713101
100
AcDbArc
 50
230.0411916395
 51
42.2201922806
  0
CIRCLE
  5
1DA
330
1F
100
AcDbEntity
  8
0
  6
Continuous
 62
     7
370
    15
100
AcDbCircle
 10
169.2514060988
 20
179.6560680711
 30
0.0
 40
4.582575694955867
  0
CIRCLE
  5
1DB
330
1F
100
AcDbEntity
  8
0
  6
Continuous
 62
     7
370
    15
100
AcDbCircle
 10
169.2514060988
 20
179.6560680711
 30
0.0
 40
6.000000000000008
  0
SPLINE
  5
1DC
330
1F
100
AcDbEntity
  8
0
  6
Continuous
 62
     7
370
    15
100
AcDbSpline
210
0.0
220
0.0
230
1.0
 70
    24
 71
     3
 72
    13
 73
     9
 74
     0
 42
0.00000001
 43
0.00000001
 40
0.0
 40
0.0
 40
0.0
 40
0.0
 40
0.1881768706812106
 40
0.376410756174311
 40
0.5650166034240137
 40
0.7539386068871097
 40
0.8899816474377655
 40
1.0
 40
1.0
 40
1.0
 40
1.0
 10
162.4912899489852
 20
188.6560680711354
 30
0.0
 10
162.0831693445696
 20
188.6560680711354
 30
0.0
 10
161.2668044812245
 20
188.6560680711354
 30
0.0
 10
160.160698901989
 20
188.6560680711354
 30
0.0
 10
159.2015403493781
 20
188.6560680711354
 30
0.0
 10
158.5630468333553
 20
188.6560680711354
 30
0.0
 10
158.2309243378214
 20
188.6560680711354
 30
0.0
 10
158.2144284868629
 20
188.6560680711354
 30
0.0
 10
158.207052903381
 20
188.6560680711354
 30
0.0
  0
SPLINE
  5
1DD
330
1F
100
AcDbEntity
  8
0
  6
Continuous
 62
     7
370
    15
100
AcDbSpline
210
0.0
220
0.0
230
1.0
 70
     8
 71
     3
 72
    20
 73
    16
 74
     0
 42
0.00000001
 43
0.00000001
 40
0.0
 40
0.0
 40
0.0
 40
0.0
 40
0.1250000000000001
 40
0.1250000000000001
 40
0.2500000000000001
 40
0.2500000000000001
 40
0.5000000000000001
 40
0.5000000000000001
 40
0.625
 40
0.625
 40
0.7500000000000001
 40
0.7500000000000001
 40
0.8750000000000001
 40
0.8750000000000001
 40
1.0
 40
1.0
 40
1.0
 40
1.0
 10
163.5482121209342
 20
142.1985549604895
 30
0.0
 10
163.20726472307
 20
144.1222928510711
 30
0.0
 10
162.8864592559823
 20
146.0498285548679
 30
0.0
 10
162.3002657218873
 20
149.9045957343957
 30
0.0
 10
162.03471228266
 20
151.8329918257964
 30
0.0
 10
161.3449527580329
 20
157.6221098077171
 30
0.0
 10
161.0304654344697
 20
161.4868649953995
 30
0.0
 10
160.8604479822863
 20
167.2950888639603
 30
0.0
 10
160.853506314855
 20
169.2329916077136
 30
0.0
 10
160.9404049726787
 20
173.1125018738587
 30
0.0
 10
161.034171067722
 20
175.0541066675241
 30
0.0
 10
161.3131444365402
 20
178.9406776621523
 30
0.0
 10
161.4981649565655
 20
180.8856369979868
 30
0.0
 10
161.9437895381402
 20
184.7783341450821
 30
0.0
 10
162.2037464936009
 20
186.7214612471599
 30
0.0
 10
162.4912899489852
 20
188.6560680711354
 30
0.0
  0
LINE
  5
1DE
330
1F
100
AcDbEntity
  8
0
  6
Continuous
 62
     7
370
    15
100
AcDbLine
 10
163.5482121209
 20
142.1985549605
 30
0.0
 11
163.5482121209
 21
136.6560680711
 31
0.0
  0
SPLINE
  5
1DF
330
1F
100
AcDbEntity
  8
0
  6
Continuous
 62
     7
370
    15
100
AcDbSpline
210
0.0
220
0.0
230
1.0
 70
    24
 71
     3
 72
    12
 73
     8
 74
     0
 42
0.00000001
 43
0.00000001
 40
0.0
 40
0.0
 40
0.0
 40
0.0
 40
0.111548772965289
 40
0.3209122134644194
 40
0.5312299919541337
 40
0.7417966510860592
 40
1.0
 40
1.0
 40
1.0
 40
1.0
 10
161.431056019963
 20
136.6560680711354
 30
0.0
 10
161.4266750256027
 20
136.6560680711354
 30
0.0
 10
161.4140714392078
 20
136.6560680711354
 30
0.0
 10
161.625580359812
 20
136.6560680711354
 30
0.0
 10
162.0358849241463
 20
136.6560680711354
 30
0.0
 10
162.6628941065595
 20
136.6560680711354
 30
0.0
 10
163.2337685804978
 20
136.6560680711354
 30
0.0
 10
163.5482121209342
 20
136.6560680711354
 30
0.0
  0
LINE
  5
1E0
330
1F
100
AcDbEntity
  8
0
  6
Continuous
 62
     7
370
    15
100
AcDbLine
 10
197.2514060988
 20
142.1985549605
 30
0.0
 11
163.5482121209
 21
142.1985549605
 31
0.0
  0
CIRCLE
  5
1E1
330
1F
100
AcDbEntity
  8
0
  6
Continuous
 62
     7
370
    15
100
AcDbCircle
 10
169.2514060988
 20
179.6560680711
 30
0.0
 40
6.0
  0
LINE
  5
1E2
330
1F
100
AcDbEntity
  8
0
  6
Continuous
 62
     7
370
    15
100
AcDbLine
 10
177.2514060988
 20
148.6560680711
 30
0.0
 11
197.2514060988
 21
148.6560680711
 31
0.0
  0
LINE
  5
1E3
330
1F
100
AcDbEntity
  8
0
  6
Continuous
 62
     7
370
    15
100
AcDbLine
 10
162.491289949
 20
188.6560680711
 30
0.0
 11
197.2514060988
 21
188.6560680711
 31
0.0
  0
LINE
  5
1E4
330
1F
100
AcDbEntity
  8
0
  6
Continuous
 62
     7
370
    15
100
AcDbLine
 10
197.2514060988
 20
188.6560680711
 30
0.0
 11
197.2514060988
 21
169.6560680711
 31
0.0
  0
LINE
  5
1E5
330
1F
100
AcDbEntity
  8
0
  6
Continuous
 62
     7
370
    15
100
AcDbLine
 10
177.2514060988
 20
169.6560680711
 30
0.0
 11
177.2514060988
 21
148.6560680711
 31
0.0
  0
LINE
  5
1E6
330
1F
100
AcDbEntity
  8
0
  6
Continuous
 62
     7
370
    15
100
AcDbLine
 10
197.2514060988
 20
169.6560680711
 30
0.0
 11
177.2514060988
 21
169.6560680711
 31
0.0
  0
LINE
  5
1E7
330
1F
100
AcDbEntity
  8
0
  6
Continuous
 62
     7
370
    15
100
AcDbLine
 10
197.2514060988
 20
148.6560680711
 30
0.0
 11
197.2514060988
 21
142.1985549605
 31
0.0
  0
LINE
  5
1E8
330
1F
100
AcDbEntity
  8
0
  6
Continuous
 62
     7
370
    15
100
AcDbLine
 10
163.5482121209
 20
136.6560680711
 30
0.0
 11
197.2514060988
 21
136.6560680711
 31
0.0
  0
LINE
  5
1E9
330
1F
100
AcDbEntity
  8
0
  6
Continuous
 62
     7
370
    15
100
AcDbLine
 10
197.2514060988
 20
142.1985549605
 30
0.0
 11
197.2514060988
 21
136.6560680711
 31
0.0
  0
ELLIPSE
  5
1EA
330
1F
100
AcDbEntity
  8
0
  6
Continuous
 62
     7
370
    15
100
AcDbEllipse
 10
168.2514060988
 20
178.4510991479
 30
0.0
 11
1.63127564240483
 21
1.822950110359301
 31
0.0
210
0.0
220
0.0
230
1.0
 40
0.8584519253
 41
0.0
 42
1.143954407855765
  0
ELLIPSE
  5
1EB
330
1F
100
AcDbEntity
  8
0
  6
Continuous
 62
     7
370
    15
100
AcDbEllipse
 10
168.2514060988
 20
178.4510991479
 30
0.0
 11
1.63127564240483
 21
1.822950110359301
 31
0.0
210
0.0
220
0.0
230
1.0
 40
0.8584519253
 41
5.178438524548922
 42
6.283185307179586
  0
LINE
  5
1EC
330
1F
100
AcDbEntity
  8
0
  6
Continuous
 62
     7
370
    15
100
AcDbLine
 10
136.2162463999
 20
174.1560680711
 30
0.0
 11
136.2162463999
 21
188.6560680711
 31
0.0
  0
LINE
  5
1ED
330
1F
100
AcDbEntity
  8
0
  6
Continuous
 62
     7
370
    15
100
AcDbLine
 10
136.2162463999
 20
174.1560680711
 30
0.0
 11
134.7014060988
 21
174.1560680711
 31
0.0
  0
LINE
  5
1EE
330
1F
100
AcDbEntity
  8
0
  6
Continuous
 62
     7
370
    15
100
AcDbLine
 10
134.7014060988
 20
163.1560680711
 30
0.0
 11
136.2162463999
 21
163.1560680711
 31
0.0
  0
LINE
  5
1EF
330
1F
100
AcDbEntity
  8
0
  6
Continuous
 62
     7
370
    15
100
AcDbLine
 10
136.2162463999
 20
148.6560680711
 30
0.0
 11
136.2162463999
 21
163.1560680711
 31
0.0
  0
SPLINE
  5
1F0
330
1F
100
AcDbEntity
  8
0
  6
Continuous
 62
     7
370
    15
100
AcDbSpline
210
0.0
220
0.0
230
1.0
 70
     8
 71
     3
 72
    26
 73
    22
 74
     0
 42
0.00000001
 43
0.00000001
 40
0.0
 40
0.0
 40
0.0
 40
0.0
 40
0.0518086809199696
 40
0.1051478151402686
 40
0.1569488475761887
 40
0.2102011634523923
 40
0.262960826515211
 40
0.3172046051844276
 40
0.3706941981057591
 40
0.4257950577438864
 40
0.4781958865337192
 40
0.5321929227811755
 40
0.5833710795986645
 40
0.6360072665633258
 40
0.6877351409927213
 40
0.7408824648894359
 40
0.7940564686679767
 40
0.8487591249076464
 40
0.9020657313595452
 40
0.9569975695001977
 40
1.0
 40
1.0
 40
1.0
 40
1.0
 10
124.2514060988028
 20
148.6560680711354
 30
0.0
 10
124.2643122561228
 20
148.6593145214396
 30
0.0
 10
124.2905058248442
 20
148.6659033237482
 30
0.0
 10
124.5008633511247
 20
148.717546584329
 30
0.0
 10
124.8325410567396
 20
148.7945727995416
 30
0.0
 10
125.2846000057838
 20
148.8911426323456
 30
0.0
 10
125.8518866352457
 20
148.9981424163886
 30
0.0
 10
126.5156720028279
 20
149.1030824484531
 30
0.0
 10
127.2686581118063
 20
149.1951452634804
 30
0.0
 10
128.0726430291206
 20
149.2611716756956
 30
0.0
 10
128.9142487138551
 20
149.294305131628
 30
0.0
 10
129.7458787971607
 20
149.2907481093961
 30
0.0
 10
130.5635602336267
 20
149.2521156413011
 30
0.0
 10
131.3329815883939
 20
149.1843272968212
 30
0.0
 10
132.0537507533089
 20
149.0933459356772
 30
0.0
 10
132.700281891396
 20
148.9894395184502
 30
0.0
 10
133.2624543885488
 20
148.8822202627883
 30
0.0
 10
133.713641850766
 20
148.7848573197938
 30
0.0
 10
134.0380863643657
 20
148.7088619858682
 30
0.0
 10
134.2251642331727
 20
148.6626579155582
 30
0.0
 10
134.2367598907596
 20
148.6597326079402
 30
0.0
 10
134.2418514839925
 20
148.6584481205051
 30
0.0
  0
LINE
  5
1F1
330
1F
100
AcDbEntity
  8
0
  6
Continuous
 62
     7
370
    15
100
AcDbLine
 10
130.2014060988
 20
169.6560680711
 30
0.0
 11
130.2014060988
 21
167.6560680711
 31
0.0
  0
SPLINE
  5
1F2
330
1F
100
AcDbEntity
  8
0
  6
Continuous
 62
     7
370
    15
100
AcDbSpline
210
0.0
220
0.0
230
1.0
 70
     8
 71
     3
 72
    22
 73
    18
 74
     0
 42
0.00000001
 43
0.00000001
 40
0.0
 40
0.0
 40
0.0
 40
0.0
 40
0.125
 40
0.125
 40
0.25
 40
0.25
 40
0.375
 40
0.375
 40
0.5
 40
0.5
 40
0.625
 40
0.625
 40
0.75
 40
0.75
 40
0.875
 40
0.875
 40
1.0
 40
1.0
 40
1.0
 40
1.0
 10
134.7014060988029
 20
174.1560680711354
 30
0.0
 10
134.4022816697622
 20
174.1560680711354
 30
0.0
 10
134.1084592215134
 20
174.1265421727155
 30
0.0
 10
133.5308949452671
 20
174.0111373394288
 30
0.0
 10
133.2440772674531
 20
173.923754534363
 30
0.0
 10
132.6996147385538
 20
173.6970811150554
 30
0.0
 10
132.4416594679325
 20
173.5586052687228
 30
0.0
 10
131.9536015245725
 20
173.231794771559
 30
0.0
 10
131.7239032259088
 20
173.0427499355791
 30
0.0
 10
131.3114842429562
 20
172.6298816531033
 30
0.0
 10
131.1259573000961
 20
172.404409761852
 30
0.0
 10
130.7974372551953
 20
171.9135541573043
 30
0.0
 10
130.6590233682958
 20
171.6547139993623
 30
0.0
 10
130.4344312216799
 20
171.1149611735665
 30
0.0
 10
130.3473524095557
 20
170.8308580847374
 30
0.0
 10
130.2308506016006
 20
170.2494049495955
 30
0.0
 10
130.2014060988028
 20
169.9547544839672
 30
0.0
 10
130.2014060988028
 20
169.6560680711354
 30
0.0
  0
SPLINE
  5
1F3
330
1F
100
AcDbEntity
  8
0
  6
Continuous
 62
     7
370
    15
100
AcDbSpline
210
0.0
220
0.0
230
1.0
 70
     8
 71
     3
 72
    22
 73
    18
 74
     0
 42
0.00000001
 43
0.00000001
 40
0.0
 40
0.0
 40
0.0
 40
0.0
 40
0.1250000000000001
 40
0.1250000000000001
 40
0.2500000000000002
 40
0.2500000000000002
 40
0.3750000000000003
 40
0.3750000000000003
 40
0.5000000000000004
 40
0.5000000000000004
 40
0.6250000000000003
 40
0.6250000000000003
 40
0.7500000000000002
 40
0.7500000000000002
 40
0.8750000000000001
 40
0.8750000000000001
 40
1.0
 40
1.0
 40
1.0
 40
1.0
 10
130.2014060988028
 20
167.6560680711354
 30
0.0
 10
130.2014060988028
 20
167.3573303427378
 30
0.0
 10
130.230854519933
 20
167.0641250179033
 30
0.0
 10
130.3456923861569
 20
166.4881699372757
 30
0.0
 10
130.4325052246946
 20
166.2024276434604
 30
0.0
 10
130.6581525969906
 20
165.6588985024667
 30
0.0
 10
130.7959897386548
 20
165.4014053142451
 30
0.0
 10
131.1211906985591
 20
164.9142003169798
 30
0.0
 10
131.3098929784671
 20
164.6840606947906
 30
0.0
 10
131.7222246986994
 20
164.2708550385871
 30
0.0
 10
131.9473716250513
 20
164.0850192978913
 30
0.0
 10
132.4373474764086
 20
163.7559227177078
 30
0.0
 10
132.6980551185304
 20
163.6159628608938
 30
0.0
 10
133.2389124992461
 20
163.3902764996641
 30
0.0
 10
133.5226031253001
 20
163.3030050913254
 30
0.0
 10
134.1066854962296
 20
163.1856048779745
 30
0.0
 10
134.4022530512214
 20
163.1560680711354
 30
0.0
 10
134.7014060988029
 20
163.1560680711354
 30
0.0
  0
LINE
  5
1F4
330
1F
100
AcDbEntity
  8
0
  6
Continuous
 62
     7
370
    15
100
AcDbLine
 10
122.2514060988
 20
168.6560680711
 30
0.0
 11
122.2514060988
 21
188.3560680711
 31
0.0
  0
LINE
  5
1F5
330
1F
100
AcDbEntity
  8
0
  6
Continuous
 62
     7
370
    15
100
AcDbLine
 10
122.2514060988
 20
148.9560680711
 30
0.0
 11
122.2514060988
 21
168.6560680711
 31
0.0
  0
LINE
  5
1F6
330
1F
100
AcDbEntity
  8
0
  6
Continuous
 62
     7
370
    15
100
AcDbLine
 10
142.2014060988
 20
174.1560680711
 30
0.0
 11
142.2014060988
 21
188.0560680711
 31
0.0
  0
SPLINE
  5
1F7
330
1F
100
AcDbEntity
  8
0
  6
Continuous
 62
     7
370
    15
100
AcDbSpline
210
0.0
220
0.0
230
1.0
 70
    24
 71
     3
 72
    10
 73
     6
 74
     0
 42
0.00000001
 43
0.00000001
 40
0.0
 40
0.0
 40
0.0
 40
0.0
 40
0.5
 40
0.5
 40
1.0
 40
1.0
 40
1.0
 40
1.0
 10
142.2014060988029
 20
174.1560680711354
 30
0.0
 10
142.2014060988029
 20
174.1560680711354
 30
0.0
 10
142.1397695850975
 20
174.1560680711354
 30
0.0
 10
141.9207432188547
 20
174.1560680711354
 30
0.0
 10
141.7631263308072
 20
174.1560680711354
 30
0.0
 10
141.6014060988028
 20
174.1560680711354
 30
0.0
  0
LINE
  5
1F8
330
1F
100
AcDbEntity
  8
0
  6
Continuous
 62
     7
370
    15
100
AcDbLine
 10
142.2014060988
 20
149.2560680711
 30
0.0
 11
142.2014060988
 21
163.1560680711
 31
0.0
  0
SPLINE
  5
1F9
330
1F
100
AcDbEntity
  8
0
  6
Continuous
 62
     7
370
    15
100
AcDbSpline
210
0.0
220
0.0
230
1.0
 70
    24
 71
     3
 72
    12
 73
     8
 74
     0
 42
0.00000001
 43
0.00000001
 40
0.0
 40
0.0
 40
0.0
 40
0.0
 40
0.2499999999999962
 40
0.2499999999999962
 40
0.4999999999999925
 40
0.4999999999999925
 40
1.0
 40
1.0
 40
1.0
 40
1.0
 10
141.6014060988028
 20
163.1560680711354
 30
0.0
 10
141.6811715792731
 20
163.1560680711354
 30
0.0
 10
141.7615928629302
 20
163.1560680711354
 30
0.0
 10
141.9082747795927
 20
163.1560680711354
 30
0.0
 10
141.9746285891566
 20
163.1560680711354
 30
0.0
 10
142.1408326698833
 20
163.1560680711354
 30
0.0
 10
142.2014060988028
 20
163.1560680711354
 30
0.0
 10
142.2014060988029
 20
163.1560680711354
 30
0.0
  0
LINE
  5
1FA
330
1F
100
AcDbEntity
  8
0
  6
Continuous
 62
     7
370
    15
100
AcDbLine
 10
140.2865657977
 20
174.1560680711
 30
0.0
 11
140.2865657977
 21
188.6560680711
 31
0.0
  0
LINE
  5
1FB
330
1F
100
AcDbEntity
  8
0
  6
Continuous
 62
     7
370
    15
100
AcDbLine
 10
141.6014060988
 20
174.1560680711
 30
0.0
 11
140.2865657977
 21
174.1560680711
 31
0.0
  0
LINE
  5
1FC
330
1F
100
AcDbEntity
  8
0
  6
Continuous
 62
     7
370
    15
100
AcDbLine
 10
140.2865657977
 20
148.6560680711
 30
0.0
 11
140.2865657977
 21
163.1560680711
 31
0.0
  0
LINE
  5
1FD
330
1F
100
AcDbEntity
  8
0
  6
Continuous
 62
     7
370
    15
100
AcDbLine
 10
139.2914060988
 20
150.3797352313
 30
0.0
 11
139.2914060988
 21
163.1560680711
 31
0.0
  0
SPLINE
  5
1FE
330
1F
100
AcDbEntity
  8
0
  6
Continuous
 62
     7
370
    15
100
AcDbSpline
210
0.0
220
0.0
230
1.0
 70
    24
 71
     3
 72
     8
 73
     4
 74
     0
 42
0.00000001
 43
0.00000001
 40
0.0
 40
0.0
 40
0.0
 40
0.0
 40
1.0
 40
1.0
 40
1.0
 40
1.0
 10
139.2914060988028
 20
163.1560680711354
 30
0.0
 10
139.6220447254175
 20
163.1560680711354
 30
0.0
 10
139.953860525991
 20
163.1560680711354
 30
0.0
 10
140.2865657976963
 20
163.1560680711354
 30
0.0
  0
LINE
  5
1FF
330
1F
100
AcDbEntity
  8
0
  6
Continuous
 62
     7
370
    15
100
AcDbLine
 10
140.2865657977
 20
163.1560680711
 30
0.0
 11
141.6014060988
 21
163.1560680711
 31
0.0
  0
LINE
  5
200
330
1F
100
AcDbEntity
  8
0
  6
Continuous
 62
     7
370
    15
100
AcDbLine
 10
139.2914060988
 20
174.1560680711
 30
0.0
 11
139.2914060988
 21
186.932400911
 31
0.0
  0
SPLINE
  5
201
330
1F
100
AcDbEntity
  8
0
  6
Continuous
 62
     7
370
    15
100
AcDbSpline
210
0.0
220
0.0
230
1.0
 70
    24
 71
     3
 72
     8
 73
     4
 74
     0
 42
0.00000001
 43
0.00000001
 40
0.0
 40
0.0
 40
0.0
 40
0.0
 40
1.0
 40
1.0
 40
1.0
 40
1.0
 10
140.2865657976963
 20
174.1560680711354
 30
0.0
 10
139.953860525991
 20
174.1560680711354
 30
0.0
 10
139.6220447254175
 20
174.1560680711354
 30
0.0
 10
139.2914060988028
 20
174.1560680711354
 30
0.0
  0
LINE
  5
202
330
1F
100
AcDbEntity
  8
0
  6
Continuous
 62
     7
370
    15
100
AcDbLine
 10
137.2114060988
 20
150.3797352313
 30
0.0
 11
137.2114060988
 21
163.1560680711
 31
0.0
  0
SPLINE
  5
203
330
1F
100
AcDbEntity
  8
0
  6
Continuous
 62
     7
370
    15
100
AcDbSpline
210
0.0
220
0.0
230
1.0
 70
    24
 71
     3
 72
     8
 73
     4
 74
     0
 42
0.00000001
 43
0.00000001
 40
0.0
 40
0.0
 40
0.0
 40
0.0
 40
1.0
 40
1.0
 40
1.0
 40
1.0
 10
136.2162463999094
 20
163.1560680711354
 30
0.0
 10
136.5489516716147
 20
163.1560680711354
 30
0.0
 10
136.8807674721882
 20
163.1560680711354
 30
0.0
 10
137.2114060988028
 20
163.1560680711354
 30
0.0
  0
LINE
  5
204
330
1F
100
AcDbEntity
  8
0
  6
Continuous
 62
     7
370
    15
100
AcDbLine
 10
137.2114060988
 20
174.1560680711
 30
0.0
 11
137.2114060988
 21
186.932400911
 31
0.0
  0
SPLINE
  5
205
330
1F
100
AcDbEntity
  8
0
  6
Continuous
 62
     7
370
    15
100
AcDbSpline
210
0.0
220
0.0
230
1.0
 70
    24
 71
     3
 72
     8
 73
     4
 74
     0
 42
0.00000001
 43
0.00000001
 40
0.0
 40
0.0
 40
0.0
 40
0.0
 40
1.0
 40
1.0
 40
1.0
 40
1.0
 10
137.2114060988028
 20
174.1560680711354
 30
0.0
 10
136.8807674721882
 20
174.1560680711354
 30
0.0
 10
136.5489516716147
 20
174.1560680711354
 30
0.0
 10
136.2162463999094
 20
174.1560680711354
 30
0.0
  0
SPLINE
  5
206
330
1F
100
AcDbEntity
  8
0
  6
Continuous
 62
     7
370
    15
100
AcDbSpline
210
0.0
220
0.0
230
1.0
 70
     8
 71
     3
 72
    16
 73
    12
 74
     0
 42
0.00000001
 43
0.00000001
 40
0.0
 40
0.0
 40
0.0
 40
0.0
 40
0.5000000000000001
 40
0.5000000000000001
 40
0.7499999999999993
 40
0.7499999999999993
 40
0.8749999999999983
 40
0.8749999999999983
 40
0.9374999999999991
 40
0.9374999999999991
 40
1.0
 40
1.0
 40
1.0
 40
1.0
 10
139.2561836982216
 20
174.1560680711358
 30
0.0
 10
139.226147278695
 20
173.8854359946156
 30
0.0
 10
139.1795131814902
 20
173.6179099914498
 30
0.0
 10
139.0691287699115
 20
173.2241876289676
 30
0.0
 10
139.0257911213909
 20
173.0933448497682
 30
0.0
 10
138.9373094870062
 20
172.9085277861372
 30
0.0
 10
138.9039339823896
 20
172.8482491336072
 30
0.0
 10
138.839441772939
 20
172.7683900429321
 30
0.0
 10
138.8152374357524
 20
172.7434171419523
 30
0.0
 10
138.759483625942
 20
172.7048208395665
 30
0.0
 10
138.7258995998738
 20
172.6909937210081
 30
0.0
 10
138.6914060988028
 20
172.6909937210081
 30
0.0
  0
SPLINE
  5
207
330
1F
100
AcDbEntity
  8
0
  6
Continuous
 62
     7
370
    15
100
AcDbSpline
210
0.0
220
0.0
230
1.0
 70
     8
 71
     3
 72
    16
 73
    12
 74
     0
 42
0.00000001
 43
0.00000001
 40
0.0
 40
0.0
 40
0.0
 40
0.0
 40
0.0624999999999997
 40
0.0624999999999997
 40
0.1249999999999994
 40
0.1249999999999994
 40
0.2499999999999988
 40
0.2499999999999988
 40
0.499999999999999
 40
0.499999999999999
 40
1.0
 40
1.0
 40
1.0
 40
1.0
 10
137.8114060987763
 20
172.6909937210081
 30
0.0
 10
137.776927431591
 20
172.6909937210146
 30
0.0
 10
137.7431072547542
 20
172.7048505939172
 30
0.0
 10
137.6865851875705
 20
172.7442283161919
 30
0.0
 10
137.6622591080442
 20
172.7695916205953
 30
0.0
 10
137.597806208493
 20
172.8499393804776
 30
0.0
 10
137.5641779331344
 20
172.9109981887324
 30
0.0
 10
137.4761006176095
 20
173.0958793605528
 30
0.0
 10
137.4332811643419
 20
173.2253701143981
 30
0.0
 10
137.3226245301449
 20
173.6208254967479
 30
0.0
 10
137.2763919442009
 20
173.8878955325283
 30
0.0
 10
137.2466284993842
 20
174.1560680711354
 30
0.0
  0
SPLINE
  5
208
330
1F
100
AcDbEntity
  8
0
  6
Continuous
 62
     7
370
    15
100
AcDbSpline
210
0.0
220
0.0
230
1.0
 70
     8
 71
     3
 72
    16
 73
    12
 74
     0
 42
0.00000001
 43
0.00000001
 40
0.0
 40
0.0
 40
0.0
 40
0.0
 40
0.0625000000000021
 40
0.0625000000000021
 40
0.1250000000000042
 40
0.1250000000000042
 40
0.2500000000000031
 40
0.2500000000000031
 40
0.500000000000001
 40
0.500000000000001
 40
1.0
 40
1.0
 40
1.0
 40
1.0
 10
138.6914060988028
 20
164.6211424212626
 30
0.0
 10
138.7256939222629
 20
164.6211424212626
 30
0.0
 10
138.7595778315845
 20
164.6073287181204
 30
0.0
 10
138.8159140244013
 20
164.5681709092852
 30
0.0
 10
138.8401758805683
 20
164.5429439992504
 30
0.0
 10
138.9044689986154
 20
164.4630055812495
 30
0.0
 10
138.9380327880421
 20
164.4022321177471
 30
0.0
 10
139.0259491602647
 20
164.2181883390409
 30
0.0
 10
139.0687057029813
 20
164.0892667845203
 30
0.0
 10
139.1792504446315
 20
163.6955419044622
 30
0.0
 10
139.2262298583937
 20
163.425956093746
 30
0.0
 10
139.2561836982215
 20
163.1560680711354
 30
0.0
  0
SPLINE
  5
209
330
1F
100
AcDbEntity
  8
0
  6
Continuous
 62
     7
370
    15
100
AcDbSpline
210
0.0
220
0.0
230
1.0
 70
     8
 71
     3
 72
    16
 73
    12
 74
     0
 42
0.00000001
 43
0.00000001
 40
0.0
 40
0.0
 40
0.0
 40
0.0
 40
0.5
 40
0.5
 40
0.75
 40
0.75
 40
0.875
 40
0.875
 40
0.9375
 40
0.9375
 40
1.0
 40
1.0
 40
1.0
 40
1.0
 10
137.2466284993842
 20
163.1560680711354
 30
0.0
 10
137.2764059050744
 20
163.4243663990426
 30
0.0
 10
137.3233791509382
 20
163.6945483841561
 30
0.0
 10
137.4336966102934
 20
164.0879773171525
 30
0.0
 10
137.4768410807549
 20
164.2183846557891
 30
0.0
 10
137.5655028804248
 20
164.4036240220912
 30
0.0
 10
137.5985540875543
 20
164.4633476248914
 30
0.0
 10
137.66289967204
 20
164.5432311773637
 30
0.0
 10
137.6870447854736
 20
164.5683319700451
 30
0.0
 10
137.743663706099
 20
164.607567381886
 30
0.0
 10
137.7772662529773
 20
164.6211424212623
 30
0.0
 10
137.811406098803
 20
164.6211424212623
 30
0.0
  0
LINE
  5
20A
330
1F
100
AcDbEntity
  8
0
  6
Continuous
 62
     7
370
    15
100
AcDbLine
 10
138.6914060988
 20
172.690993721
 30
0.0
 11
137.8114060988
 21
172.690993721
 31
0.0
  0
SPLINE
  5
20B
330
1F
100
AcDbEntity
  8
0
  6
Continuous
 62
     7
370
    15
100
AcDbSpline
210
0.0
220
0.0
230
1.0
 70
     8
 71
     3
 72
    18
 73
    14
 74
     0
 42
0.00000001
 43
0.00000001
 40
0.0
 40
0.0
 40
0.0
 40
0.0
 40
0.25
 40
0.25
 40
0.5
 40
0.5
 40
0.5625
 40
0.5625
 40
0.625
 40
0.625
 40
0.75
 40
0.75
 40
1.0
 40
1.0
 40
1.0
 40
1.0
 10
142.2014060988029
 20
164.1129413944952
 30
0.0
 10
142.2014060988029
 20
164.8673683247821
 30
0.0
 10
142.2563469974358
 20
165.6204832913673
 30
0.0
 10
142.3569768909881
 20
167.1269341557955
 30
0.0
 10
142.4006795677752
 20
167.8803583767298
 30
0.0
 10
142.4015750286383
 20
168.8232445915129
 30
0.0
 10
142.3993150351207
 20
169.0153930300526
 30
0.0
 10
142.3902472010332
 20
169.3960725233348
 30
0.0
 10
142.3834487963682
 20
169.5863260681219
 30
0.0
 10
142.3577433429815
 20
170.1568845585296
 30
0.0
 10
142.33344437763
 20
170.5369849951032
 30
0.0
 10
142.257379721447
 20
171.6771597989364
 30
0.0
 10
142.2014060988029
 20
172.4370676293103
 30
0.0
 10
142.2014060988029
 20
173.1991947477756
 30
0.0
  0
LINE
  5
20C
330
1F
100
AcDbEntity
  8
0
  6
Continuous
 62
     7
370
    15
100
AcDbLine
 10
137.8114060988
 20
164.6211424213
 30
0.0
 11
138.6914060988
 21
164.6211424213
 31
0.0
  0
LINE
  5
20D
330
1F
100
AcDbEntity
  8
0
  6
Continuous
 62
     7
370
    15
100
AcDbLine
 10
142.2014060988
 20
173.1991947478
 30
0.0
 11
142.2014060988
 21
174.1560680711
 31
0.0
  0
LINE
  5
20E
330
1F
100
AcDbEntity
  8
0
  6
Continuous
 62
     7
370
    15
100
AcDbLine
 10
142.2014060988
 20
163.1560680711
 30
0.0
 11
142.2014060988
 21
164.1129413945
 31
0.0
  0
SPLINE
  5
20F
330
1F
100
AcDbEntity
  8
0
  6
Continuous
 62
     7
370
    15
100
AcDbSpline
210
0.0
220
0.0
230
1.0
 70
     8
 71
     3
 72
    39
 73
    35
 74
     0
 42
0.00000001
 43
0.00000001
 40
-0.0936307374834596
 40
-0.062486694051883
 40
-0.0311899125704245
 40
0.0
 40
0.0313950051307595
 40
0.0632578417333817
 40
0.0952224636478805
 40
0.1268300883541564
 40
0.1583319028231544
 40
0.190073336630265
 40
0.221579977118189
 40
0.2525506668390318
 40
0.2832646329733507
 40
0.3142453913338124
 40
0.345100864399605
 40
0.3756595953882574
 40
0.4062483587849406
 40
0.4375428428480365
 40
0.4689219037422974
 40
0.5001883476926335
 40
0.5315602582318372
 40
0.5633787432097846
 40
0.5952897280239509
 40
0.6268283118816913
 40
0.6582867464516107
 40
0.690058202639251
 40
0.7215959795544475
 40
0.7526086401062473
 40
0.7834418460066933
 40
0.8143773968256299
 40
0.8453229801620465
 40
0.8757917625066945
 40
0.9063692625165404
 40
0.937513305948117
 40
0.9688100874295755
 40
1.0
 40
1.031395005130759
 40
1.063257841733382
 40
1.09522246364788
 10
114.2317536722723
 20
166.6064492645793
 30
0.0
 10
113.8845075056419
 20
167.0479353343901
 30
0.0
 10
113.6271077289146
 20
167.5511162746575
 30
0.0
 10
113.471331792436
 20
168.0995474463522
 30
0.0
 10
113.41593787486
 20
168.6687250618849
 30
0.0
 10
113.4720817311807
 20
169.2358881929711
 30
0.0
 10
113.6341832709715
 20
169.7804400825977
 30
0.0
 10
113.8994002115694
 20
170.2813873027396
 30
0.0
 10
114.2494340912166
 20
170.7228131673034
 30
0.0
 10
114.6762958929156
 20
171.0819402895592
 30
0.0
 10
115.1637859046417
 20
171.3483168146099
 30
0.0
 10
115.6954224205153
 20
171.5079414355051
 30
0.0
 10
116.2465473012784
 20
171.5637862629963
 30
0.0
 10
116.7940018562759
 20
171.5036316391681
 30
0.0
 10
117.318645300974
 20
171.3339741676442
 30
0.0
 10
117.8003995886548
 20
171.0596466629597
 30
0.0
 10
118.2254760003312
 20
170.6984878276291
 30
0.0
 10
118.571215852946
 20
170.2591274253084
 30
0.0
 10
118.8280857100529
 20
169.7578028220033
 30
0.0
 10
118.9830168785297
 20
169.2105951417533
 30
0.0
 10
119.037822486634
 20
168.6423248699724
 30
0.0
 10
118.9808849942965
 20
168.0761954484786
 30
0.0
 10
118.8184196490934
 20
167.5331326417146
 30
0.0
 10
118.5545437006336
 20
167.0337683888287
 30
0.0
 10
118.2069938792613
 20
166.5939299581891
 30
0.0
 10
117.7833888337215
 20
166.2358083749027
 30
0.0
 10
117.3000150901815
 20
165.9693923644112
 30
0.0
 10
116.7713185877624
 20
165.8075403853959
 30
0.0
 10
116.2219765346613
 20
165.7487629023942
 30
0.0
 10
115.6730339088077
 20
165.80515406841
 30
0.0
 10
115.1454827954792
 20
165.9716365674116
 30
0.0
 10
114.6599264867107
 20
166.2451040125204
 30
0.0
 10
114.2317536722723
 20
166.6064492645793
 30
0.0
 10
113.8845075056419
 20
167.0479353343901
 30
0.0
 10
113.6271077289146
 20
167.5511162746575
 30
0.0
  0
SPLINE
  5
210
330
1F
100
AcDbEntity
  8
0
  6
Continuous
 62
     7
370
    15
100
AcDbSpline
210
0.0
220
0.0
230
1.0
 70
     8
 71
     3
 72
    35
 73
    31
 74
     0
 42
0.00000001
 43
0.00000001
 40
-0.0968719547595006
 40
-0.0666583833390638
 40
-0.0343746550663528
 40
0.0
 40
0.0402441098602218
 40
0.0744787394150458
 40
0.102701076922835
 40
0.1249180007539461
 40
0.1620538085088403
 40
0.2036866663220331
 40
0.2499064830388325
 40
0.2843401434852735
 40
0.3106265384480303
 40
0.3287516969918892
 40
0.3698185885315884
 40
0.4071583744141671
 40
0.4519491139953024
 40
0.5000414814625184
 40
0.5203027018300285
 40
0.5628788417857504
 40
0.5977565761193747
 40
0.6256573786661428
 40
0.686051351246162
 40
0.7499481278641021
 40
0.7710338013047724
 40
0.8124324456481478
 40
0.8472054201757163
 40
0.8749589023494395
 40
0.9031280452404993
 40
0.9333416166609361
 40
0.965625344933647
 40
0.9999999999999999
 40
1.040244109860222
 40
1.074478739415046
 40
1.102701076922835
 10
114.0951993926225
 20
167.8081749002178
 30
0.0
 10
114.3338420396614
 20
167.3479510384196
 30
0.0
 10
114.6802285095576
 20
166.947440919822
 30
0.0
 10
115.0849512173436
 20
166.6565203468456
 30
0.0
 10
115.4585693422412
 20
166.4866855099404
 30
0.0
 10
115.8672367351649
 20
166.3744619072484
 30
0.0
 10
116.3573329871347
 20
166.3347522039992
 30
0.0
 10
116.9557233393745
 20
166.4358370936131
 30
0.0
 10
117.4908495289654
 20
166.6895993800541
 30
0.0
 10
117.885105837957
 20
167.0175644224093
 30
0.0
 10
118.1250348631398
 20
167.3093495449063
 30
0.0
 10
118.3388166118126
 20
167.6579492639394
 30
0.0
 10
118.506584428077
 20
168.096481453476
 30
0.0
 10
118.5770480491067
 20
168.6919584429649
 30
0.0
 10
118.4875228567631
 20
169.3223440157063
 30
0.0
 10
118.2546863624976
 20
169.8229223071374
 30
0.0
 10
117.9352522100365
 20
170.2450822501219
 30
0.0
 10
117.5831606654388
 20
170.5589341655766
 30
0.0
 10
117.1354601071748
 20
170.795307016383
 30
0.0
 10
116.5685865719996
 20
170.9651425172698
 30
0.0
 10
115.8157363600552
 20
170.9765382958777
 30
0.0
 10
115.1445649127509
 20
170.7060232652118
 30
0.0
 10
114.6597718229028
 20
170.3374361443988
 30
0.0
 10
114.3454151175638
 20
169.9827382457479
 30
0.0
 10
114.1105811658105
 20
169.5367812358161
 30
0.0
 10
113.9856372714898
 20
169.1157060865864
 30
0.0
 10
113.938815241508
 20
168.7005369384308
 30
0.0
 10
113.9703433845955
 20
168.2615763828568
 30
0.0
 10
114.0951993926225
 20
167.8081749002178
 30
0.0
 10
114.3338420396614
 20
167.3479510384196
 30
0.0
 10
114.6802285095576
 20
166.947440919822
 30
0.0
  0
SPLINE
  5
211
330
1F
100
AcDbEntity
  8
0
  6
Continuous
 62
     7
370
    15
100
AcDbSpline
210
0.0
220
0.0
230
1.0
 70
     8
 71
     3
 72
     8
 73
     4
 74
     0
 42
0.00000001
 43
0.00000001
 40
0.0
 40
0.0
 40
0.0
 40
0.0
 40
1.0
 40
1.0
 40
1.0
 40
1.0
 10
103.2860584640682
 20
162.1902800173062
 30
0.0
 10
103.3116533959283
 20
162.2887871632352
 30
0.0
 10
103.3524385735009
 20
162.3827012979166
 30
0.0
 10
103.4035970964494
 20
162.4735340046745
 30
0.0
  0
SPLINE
  5
212
330
1F
100
AcDbEntity
  8
0
  6
Continuous
 62
     7
370
    15
100
AcDbSpline
210
0.0
220
0.0
230
1.0
 70
     8
 71
     3
 72
    10
 73
     6
 74
     0
 42
0.00000001
 43
0.00000001
 40
0.0
 40
0.0
 40
0.0
 40
0.0
 40
0.5
 40
0.5
 40
1.0
 40
1.0
 40
1.0
 40
1.0
 10
103.4035970964494
 20
162.4735340046745
 30
0.0
 10
103.6116565330926
 20
162.4348719601687
 30
0.0
 10
103.8188143963872
 20
162.39306555626
 30
0.0
 10
104.229336963371
 20
162.2962316737787
 30
0.0
 10
104.4334582410993
 20
162.2438398183749
 30
0.0
 10
104.6305827071044
 20
162.1670702016832
 30
0.0
  0
SPLINE
  5
213
330
1F
100
AcDbEntity
  8
0
  6
Continuous
 62
     7
370
    15
100
AcDbSpline
210
0.0
220
0.0
230
1.0
 70
     8
 71
     3
 72
    10
 73
     6
 74
     0
 42
0.00000001
 43
0.00000001
 40
0.0
 40
0.0
 40
0.0
 40
0.0
 40
0.5
 40
0.5
 40
1.0
 40
1.0
 40
1.0
 40
1.0
 10
104.6305827071044
 20
162.1670702016831
 30
0.0
 10
105.1038589178555
 20
161.9827539976876
 30
0.0
 10
105.586945670361
 20
161.8237622319358
 30
0.0
 10
106.5626104515713
 20
161.5302790026564
 30
0.0
 10
107.0555281139519
 20
161.3964847138856
 30
0.0
 10
107.5514060988028
 20
161.2706999800241
 30
0.0
  0
SPLINE
  5
214
330
1F
100
AcDbEntity
  8
0
  6
Continuous
 62
     7
370
    15
100
AcDbSpline
210
0.0
220
0.0
230
1.0
 70
     8
 71
     3
 72
    14
 73
    10
 74
     0
 42
0.00000001
 43
0.00000001
 40
0.0
 40
0.0
 40
0.0
 40
0.0
 40
0.1249999999999983
 40
0.1249999999999983
 40
0.2499999999999967
 40
0.2499999999999967
 40
0.4999999999999978
 40
0.4999999999999978
 40
1.0
 40
1.0
 40
1.0
 40
1.0
 10
107.5514060988028
 20
161.2706999800241
 30
0.0
 10
107.6004184216141
 20
161.2582674821736
 30
0.0
 10
107.6532246466096
 20
161.2667154766215
 30
0.0
 10
107.7382917383391
 20
161.3096310039157
 30
0.0
 10
107.7728759236799
 20
161.3413225158551
 30
0.0
 10
107.8614316090172
 20
161.4434446459007
 30
0.0
 10
107.9023673103384
 20
161.5220204280916
 30
0.0
 10
108.0062478372413
 20
161.7620947576978
 30
0.0
 10
108.0494716366734
 20
161.9336107449033
 30
0.0
 10
108.083671005946
 20
162.1074687160994
 30
0.0
  0
SPLINE
  5
215
330
1F
100
AcDbEntity
  8
0
  6
Continuous
 62
     7
370
    15
100
AcDbSpline
210
0.0
220
0.0
230
1.0
 70
     8
 71
     3
 72
    12
 73
     8
 74
     0
 42
0.00000001
 43
0.00000001
 40
0.0
 40
0.0
 40
0.0
 40
0.0
 40
0.25
 40
0.25
 40
0.5
 40
0.5
 40
1.0
 40
1.0
 40
1.0
 40
1.0
 10
108.083671005946
 20
162.1074687160994
 30
0.0
 10
108.1090952228399
 20
162.2367167947177
 30
0.0
 10
108.1497070624092
 20
162.3642692099066
 30
0.0
 10
108.2343082086814
 20
162.6204590329922
 30
0.0
 10
108.2784050049669
 20
162.7490337211618
 30
0.0
 10
108.394474113453
 20
163.140308072033
 30
0.0
 10
108.4514060988028
 20
163.4082951937546
 30
0.0
 10
108.4514060988028
 20
163.6909578770336
 30
0.0
  0
LINE
  5
216
330
1F
100
AcDbEntity
  8
0
  6
Continuous
 62
     7
370
    15
100
AcDbLine
 10
108.4514060988
 20
163.690957877
 30
0.0
 11
108.4514060988
 21
173.6211782652
 31
0.0
  0
SPLINE
  5
217
330
1F
100
AcDbEntity
  8
0
  6
Continuous
 62
     7
370
    15
100
AcDbSpline
210
0.0
220
0.0
230
1.0
 70
     8
 71
     3
 72
    12
 73
     8
 74
     0
 42
0.00000001
 43
0.00000001
 40
0.0
 40
0.0
 40
0.0
 40
0.0
 40
0.25
 40
0.25
 40
0.5
 40
0.5
 40
1.0
 40
1.0
 40
1.0
 40
1.0
 10
108.083671005946
 20
175.2046674261714
 30
0.0
 10
108.1090952228399
 20
175.0754193475531
 30
0.0
 10
108.1497070624092
 20
174.9478669323643
 30
0.0
 10
108.2343082086814
 20
174.6916771092786
 30
0.0
 10
108.2784050049669
 20
174.563102421109
 30
0.0
 10
108.394474113453
 20
174.1718280702378
 30
0.0
 10
108.4514060988028
 20
173.9038409485162
 30
0.0
 10
108.4514060988028
 20
173.6211782652372
 30
0.0
  0
SPLINE
  5
218
330
1F
100
AcDbEntity
  8
0
  6
Continuous
 62
     7
370
    15
100
AcDbSpline
210
0.0
220
0.0
230
1.0
 70
     8
 71
     3
 72
    14
 73
    10
 74
     0
 42
0.00000001
 43
0.00000001
 40
0.0
 40
0.0
 40
0.0
 40
0.0
 40
0.1249999999999997
 40
0.1249999999999997
 40
0.2499999999999994
 40
0.2499999999999994
 40
0.4999999999999997
 40
0.4999999999999997
 40
1.0
 40
1.0
 40
1.0
 40
1.0
 10
107.5514060988029
 20
176.0414361622468
 30
0.0
 10
107.6004184216142
 20
176.0538686600973
 30
0.0
 10
107.6532246466097
 20
176.0454206656493
 30
0.0
 10
107.7382917383392
 20
176.0025051383551
 30
0.0
 10
107.7728759236799
 20
175.9708136264157
 30
0.0
 10
107.8614316090172
 20
175.8686914963701
 30
0.0
 10
107.9023673103384
 20
175.7901157141792
 30
0.0
 10
108.0062478372413
 20
175.550041384573
 30
0.0
 10
108.0494716366734
 20
175.3785253973675
 30
0.0
 10
108.083671005946
 20
175.2046674261714
 30
0.0
  0
SPLINE
  5
219
330
1F
100
AcDbEntity
  8
0
  6
Continuous
 62
     7
370
    15
100
AcDbSpline
210
0.0
220
0.0
230
1.0
 70
     8
 71
     3
 72
    10
 73
     6
 74
     0
 42
0.00000001
 43
0.00000001
 40
0.0
 40
0.0
 40
0.0
 40
0.0
 40
0.5
 40
0.5
 40
1.0
 40
1.0
 40
1.0
 40
1.0
 10
104.6305827071044
 20
175.1450659405877
 30
0.0
 10
105.1038589178555
 20
175.3293821445832
 30
0.0
 10
105.586945670361
 20
175.488373910335
 30
0.0
 10
106.5626104515714
 20
175.7818571396145
 30
0.0
 10
107.055528113952
 20
175.9156514283852
 30
0.0
 10
107.5514060988028
 20
176.0414361622468
 30
0.0
  0
SPLINE
  5
21A
330
1F
100
AcDbEntity
  8
0
  6
Continuous
 62
     7
370
    15
100
AcDbSpline
210
0.0
220
0.0
230
1.0
 70
     8
 71
     3
 72
    10
 73
     6
 74
     0
 42
0.00000001
 43
0.00000001
 40
0.0
 40
0.0
 40
0.0
 40
0.0
 40
0.5
 40
0.5
 40
1.0
 40
1.0
 40
1.0
 40
1.0
 10
103.4035970964494
 20
174.8386021375963
 30
0.0
 10
103.6116565330926
 20
174.8772641821022
 30
0.0
 10
103.8188143963872
 20
174.9190705860109
 30
0.0
 10
104.229336963371
 20
175.0159044684921
 30
0.0
 10
104.4334582410993
 20
175.0682963238959
 30
0.0
 10
104.6305827071044
 20
175.1450659405877
 30
0.0
  0
SPLINE
  5
21B
330
1F
100
AcDbEntity
  8
0
  6
Continuous
 62
     7
370
    15
100
AcDbSpline
210
0.0
220
0.0
230
1.0
 70
     8
 71
     3
 72
     8
 73
     4
 74
     0
 42
0.00000001
 43
0.00000001
 40
0.0
 40
0.0
 40
0.0
 40
0.0
 40
1.0
 40
1.0
 40
1.0
 40
1.0
 10
103.2860584640682
 20
175.1218561249647
 30
0.0
 10
103.3116533959283
 20
175.0233489790357
 30
0.0
 10
103.3524385735009
 20
174.9294348443542
 30
0.0
 10
103.4035970964494
 20
174.8386021375963
 30
0.0
  0
ELLIPSE
  5
21C
330
1F
100
AcDbEntity
  8
0
  6
Continuous
 62
     7
370
    15
100
AcDbEllipse
 10
80.7533150816
 20
169.0456023943
 30
0.0
 11
22.51303293021468
 21
6.150215502208171
 31
0.0
210
0.0
220
0.0
230
1.0
 40
0.5128213654
 41
6.276789859166041
 42
6.325841002999357
  0
ELLIPSE
  5
21D
330
1F
100
AcDbEntity
  8
0
  6
Continuous
 62
     7
370
    15
100
AcDbEllipse
 10
80.7533150816
 20
168.266533748
 30
0.0
 11
22.51303293021468
 21
-6.150215502208171
 31
0.0
210
0.0
220
0.0
230
1.0
 40
0.5128213654
 41
6.240529611359872
 42
6.289580755193185
  0
LINE
  5
21E
330
1F
100
AcDbEntity
  8
0
  6
Continuous
 62
     7
370
    15
100
AcDbLine
 10
120.2514060988
 20
168.6560680711
 30
0.0
 11
120.2514060988
 21
183.7597684719
 31
0.0
  0
LINE
  5
21F
330
1F
100
AcDbEntity
  8
0
  6
Continuous
 62
     7
370
    15
100
AcDbLine
 10
120.2514060988
 20
153.5523676703
 30
0.0
 11
120.2514060988
 21
168.6560680711
 31
0.0
  0
ARC
  5
220
330
1F
100
AcDbEntity
  8
0
  6
Continuous
 62
     7
370
    15
100
AcDbCircle
 10
107.5514060988
 20
165.5900680711
 30
0.0
 40
0.9000000000000057
100
AcDbArc
 50
270.0
 51
0.0
  0
ARC
  5
221
330
1F
100
AcDbEntity
  8
0
  6
Continuous
 62
     7
370
    15
100
AcDbCircle
 10
107.5514060988
 20
171.7220680711
 30
0.0
 40
0.9000000000000341
100
AcDbArc
 50
0.0
 51
90.0
  0
SPLINE
  5
222
330
1F
100
AcDbEntity
  8
0
  6
Continuous
 62
     7
370
    15
100
AcDbSpline
210
0.0
220
0.0
230
1.0
 70
     8
 71
     3
 72
    10
 73
     6
 74
     0
 42
0.00000001
 43
0.00000001
 40
0.0
 40
0.0
 40
0.0
 40
0.0
 40
0.5
 40
0.5
 40
1.0
 40
1.0
 40
1.0
 40
1.0
 10
102.3514060988028
 20
163.0922295152997
 30
0.0
 10
102.3514060988028
 20
162.9712880918964
 30
0.0
 10
102.3620533721613
 20
162.8486888482326
 30
0.0
 10
102.388528345948
 20
162.6036398900201
 30
0.0
 10
102.4043926113275
 20
162.4799144582571
 30
0.0
 10
102.4128531575974
 20
162.3627078714815
 30
0.0
  0
LINE
  5
223
330
1F
100
AcDbEntity
  8
0
  6
Continuous
 62
     7
370
    15
100
AcDbLine
 10
102.3514060988
 20
164.0825853154
 30
0.0
 11
102.3514060988
 21
163.0922295153
 31
0.0
  0
LINE
  5
224
330
1F
100
AcDbEntity
  8
0
  6
Continuous
 62
     7
370
    15
100
AcDbLine
 10
103.4035970964
 20
164.6900680711
 30
0.0
 11
102.3514060988
 21
164.0825853154
 31
0.0
  0
LINE
  5
225
330
1F
100
AcDbEntity
  8
0
  6
Continuous
 62
     7
370
    15
100
AcDbLine
 10
103.4035970964
 20
164.6900680711
 30
0.0
 11
103.4035970964
 21
162.4735340047
 31
0.0
  0
LINE
  5
226
330
1F
100
AcDbEntity
  8
0
  6
Continuous
 62
     7
370
    15
100
AcDbLine
 10
103.4035970964
 20
172.6220680711
 30
0.0
 11
103.4035970964
 21
174.8386021376
 31
0.0
  0
LINE
  5
227
330
1F
100
AcDbEntity
  8
0
  6
Continuous
 62
     7
370
    15
100
AcDbLine
 10
103.4035970964
 20
172.6220680711
 30
0.0
 11
102.3514060988
 21
173.2295508269
 31
0.0
  0
LINE
  5
228
330
1F
100
AcDbEntity
  8
0
  6
Continuous
 62
     7
370
    15
100
AcDbLine
 10
102.3514060988
 20
173.2295508269
 30
0.0
 11
102.3514060988
 21
174.219906627
 31
0.0
  0
SPLINE
  5
229
330
1F
100
AcDbEntity
  8
0
  6
Continuous
 62
     7
370
    15
100
AcDbSpline
210
0.0
220
0.0
230
1.0
 70
     8
 71
     3
 72
    10
 73
     6
 74
     0
 42
0.00000001
 43
0.00000001
 40
0.0
 40
0.0
 40
0.0
 40
0.0
 40
0.5
 40
0.5
 40
1.0
 40
1.0
 40
1.0
 40
1.0
 10
102.3514060988028
 20
174.2199066269711
 30
0.0
 10
102.3514060988028
 20
174.3408480503745
 30
0.0
 10
102.3620533721613
 20
174.4634472940383
 30
0.0
 10
102.388528345948
 20
174.7084962522507
 30
0.0
 10
102.4043926113275
 20
174.8322216840137
 30
0.0
 10
102.4128531575974
 20
174.9494282707894
 30
0.0
  0
LINE
  5
22A
330
1F
100
AcDbEntity
  8
0
  6
Continuous
 62
     7
370
    15
100
AcDbLine
 10
107.5514060988
 20
172.6220680711
 30
0.0
 11
103.4035970964
 21
172.6220680711
 31
0.0
  0
LINE
  5
22B
330
1F
100
AcDbEntity
  8
0
  6
Continuous
 62
     7
370
    15
100
AcDbLine
 10
107.5514060988
 20
164.6900680711
 30
0.0
 11
103.4035970964
 21
164.6900680711
 31
0.0
  0
SPLINE
  5
22C
330
1F
100
AcDbEntity
  8
0
  6
Continuous
 62
     7
370
    15
100
AcDbSpline
210
0.0
220
0.0
230
1.0
 70
     8
 71
     3
 72
     9
 73
     5
 74
     0
 42
0.00000001
 43
0.00000001
 40
0.0
 40
0.0
 40
0.0
 40
0.0
 40
0.897322290219357
 40
0.9999999999999999
 40
0.9999999999999999
 40
0.9999999999999999
 40
0.9999999999999999
 10
114.6000768982005
 20
167.0775817097857
 30
0.0
 10
114.4377691260923
 20
167.2399843935288
 30
0.0
 10
114.2568889965365
 20
167.4209702951532
 30
0.0
 10
114.1869630424122
 20
167.659474218928
 30
0.0
 10
114.1797832055885
 20
167.6839632555949
 30
0.0
  0
SPLINE
  5
22D
330
1F
100
AcDbEntity
  8
0
  6
Continuous
 62
     7
370
    15
100
AcDbSpline
210
0.0
220
0.0
230
1.0
 70
     8
 71
     3
 72
    24
 73
    20
 74
     0
 42
0.00000001
 43
0.00000001
 40
0.0
 40
0.0
 40
0.0
 40
0.0
 40
0.2499999999999973
 40
0.2499999999999973
 40
0.3749999999999957
 40
0.3749999999999957
 40
0.499999999999994
 40
0.499999999999994
 40
0.562499999999994
 40
0.562499999999994
 40
0.624999999999994
 40
0.624999999999994
 40
0.687499999999994
 40
0.687499999999994
 40
0.749999999999994
 40
0.749999999999994
 40
0.874999999999997
 40
0.874999999999997
 40
1.0
 40
1.0
 40
1.0
 40
1.0
 10
102.4128531575974
 20
174.9494282707894
 30
0.0
 10
102.4242352873242
 20
175.1071084645897
 30
0.0
 10
102.4390597720694
 20
175.264968308232
 30
0.0
 10
102.4740936266463
 20
175.5024259309943
 30
0.0
 10
102.4879824441512
 20
175.5819573665229
 30
0.0
 10
102.5236787855815
 20
175.7399449855244
 30
0.0
 10
102.54491586222
 20
175.8184076869208
 30
0.0
 10
102.5914432984665
 20
175.9338023765171
 30
0.0
 10
102.6092979679064
 20
175.9715239256785
 30
0.0
 10
102.654431264438
 20
176.0415960208952
 30
0.0
 10
102.6828547709974
 20
176.0749030924095
 30
0.0
 10
102.7507331731947
 20
176.1138701020733
 30
0.0
 10
102.7896256633626
 20
176.1162281441374
 30
0.0
 10
102.8547419674018
 20
176.0947558475965
 30
0.0
 10
102.8823879504734
 20
176.0740454859883
 30
0.0
 10
102.9563949630516
 20
176.0020649576125
 30
0.0
 10
102.993019361978
 20
175.9427931294508
 30
0.0
 10
103.0586013254207
 20
175.8174442645748
 30
0.0
 10
103.0864803468099
 20
175.7508039189885
 30
0.0
 10
103.1113761451909
 20
175.6825412487033
 30
0.0
  0
SPLINE
  5
22E
330
1F
100
AcDbEntity
  8
0
  6
Continuous
 62
     7
370
    15
100
AcDbSpline
210
0.0
220
0.0
230
1.0
 70
     8
 71
     3
 72
    24
 73
    20
 74
     0
 42
0.00000001
 43
0.00000001
 40
0.0
 40
0.0
 40
0.0
 40
0.0
 40
0.2499999999999973
 40
0.2499999999999973
 40
0.3749999999999957
 40
0.3749999999999957
 40
0.499999999999994
 40
0.499999999999994
 40
0.562499999999994
 40
0.562499999999994
 40
0.624999999999994
 40
0.624999999999994
 40
0.687499999999994
 40
0.687499999999994
 40
0.749999999999994
 40
0.749999999999994
 40
0.874999999999997
 40
0.874999999999997
 40
1.0
 40
1.0
 40
1.0
 40
1.0
 10
102.4128531575974
 20
162.3627078714815
 30
0.0
 10
102.4242352873242
 20
162.2050276776811
 30
0.0
 10
102.4390597720694
 20
162.0471678340389
 30
0.0
 10
102.4740936266463
 20
161.8097102112766
 30
0.0
 10
102.4879824441512
 20
161.730178775748
 30
0.0
 10
102.5236787855815
 20
161.5721911567465
 30
0.0
 10
102.54491586222
 20
161.49372845535
 30
0.0
 10
102.5914432984665
 20
161.3783337657538
 30
0.0
 10
102.6092979679064
 20
161.3406122165923
 30
0.0
 10
102.654431264438
 20
161.2705401213756
 30
0.0
 10
102.6828547709974
 20
161.2372330498614
 30
0.0
 10
102.7507331731947
 20
161.1982660401976
 30
0.0
 10
102.7896256633626
 20
161.1959079981335
 30
0.0
 10
102.8547419674018
 20
161.2173802946743
 30
0.0
 10
102.8823879504734
 20
161.2380906562825
 30
0.0
 10
102.9563949630516
 20
161.3100711846583
 30
0.0
 10
102.993019361978
 20
161.36934301282
 30
0.0
 10
103.0586013254207
 20
161.4946918776961
 30
0.0
 10
103.0864803468099
 20
161.5613322232824
 30
0.0
 10
103.1113761451909
 20
161.6295948935675
 30
0.0
  0
LINE
  5
22F
330
1F
100
AcDbEntity
  8
0
  6
Continuous
 62
     7
370
    15
100
AcDbLine
 10
102.3514060988
 20
174.219906627
 30
0.0
 11
102.3514060988
 21
182.1020516623
 31
0.0
  0
LINE
  5
230
330
1F
100
AcDbEntity
  8
0
  6
Continuous
 62
     7
370
    15
100
AcDbLine
 10
102.3514060988
 20
155.21008448
 30
0.0
 11
102.3514060988
 21
163.0922295153
 31
0.0
  0
SPLINE
  5
231
330
1F
100
AcDbEntity
  8
0
  6
Continuous
 62
     7
370
    15
100
AcDbSpline
210
0.0
220
0.0
230
1.0
 70
     8
 71
     3
 72
    11
 73
     7
 74
     0
 42
0.00000001
 43
0.00000001
 40
0.0
 40
0.0
 40
0.0
 40
0.0
 40
0.2871756444774704
 40
0.5743810337680799
 40
0.8587936217738554
 40
0.9999999999999999
 40
0.9999999999999999
 40
0.9999999999999999
 40
0.9999999999999999
 10
105.9514060988028
 20
165.5310680711354
 30
0.0
 10
105.9405391831036
 20
165.4246351795906
 30
0.0
 10
105.9188042261418
 20
165.2117583724935
 30
0.0
 10
105.7476612564336
 20
164.9376095770933
 30
0.0
 10
105.5431625280275
 20
164.7511495920149
 30
0.0
 10
105.3849386634637
 20
164.7052845755213
 30
0.0
 10
105.3324451877574
 20
164.6900680711354
 30
0.0
  0
LINE
  5
232
330
1F
100
AcDbEntity
  8
0
  6
Continuous
 62
     7
370
    15
100
AcDbLine
 10
105.9514060988
 20
165.5310680711
 30
0.0
 11
105.9514060988
 21
171.7810680711
 31
0.0
  0
SPLINE
  5
233
330
1F
100
AcDbEntity
  8
0
  6
Continuous
 62
     7
370
    15
100
AcDbSpline
210
0.0
220
0.0
230
1.0
 70
     8
 71
     3
 72
    11
 73
     7
 74
     0
 42
0.00000001
 43
0.00000001
 40
0.0
 40
0.0
 40
0.0
 40
0.0
 40
0.2871756444774704
 40
0.5743810337680799
 40
0.8587936217738554
 40
0.9999999999999999
 40
0.9999999999999999
 40
0.9999999999999999
 40
0.9999999999999999
 10
105.9514060988028
 20
171.7810680711354
 30
0.0
 10
105.9405391831036
 20
171.8875009626802
 30
0.0
 10
105.9188042261418
 20
172.1003777697773
 30
0.0
 10
105.7476612564336
 20
172.3745265651775
 30
0.0
 10
105.5431625280275
 20
172.5609865502559
 30
0.0
 10
105.3849386634637
 20
172.6068515667496
 30
0.0
 10
105.3324451877574
 20
172.6220680711354
 30
0.0
  0
LINE
  5
234
330
1F
100
AcDbEntity
  8
0
  6
HIDDEN
 62
     7
370
     0
100
AcDbLine
 10
184.4923801014
 20
180.6560680711
 30
0.0
 11
184.7514060988
 21
180.6560680711
 31
0.0
  0
LINE
  5
235
330
1F
100
AcDbEntity
  8
0
  6
HIDDEN
 62
     7
370
     0
100
AcDbLine
 10
186.6073056776
 20
180.6560680711
 30
0.0
 11
186.6073056776
 21
186.6560680711
 31
0.0
  0
LINE
  5
236
330
1F
100
AcDbEntity
  8
0
  6
HIDDEN
 62
     7
370
     0
100
AcDbLine
 10
189.7514060988
 20
180.6560680711
 30
0.0
 11
190.0104320962
 21
180.6560680711
 31
0.0
  0
LINE
  5
237
330
1F
100
AcDbEntity
  8
0
  6
HIDDEN
 62
     7
370
     0
100
AcDbLine
 10
189.366331675
 20
180.6560680711
 30
0.0
 11
189.366331675
 21
186.6560680711
 31
0.0
  0
LINE
  5
238
330
1F
100
AcDbEntity
  8
0
  6
HIDDEN
 62
     7
370
     0
100
AcDbLine
 10
185.1364805226
 20
180.6560680711
 30
0.0
 11
185.1364805226
 21
186.6560680711
 31
0.0
  0
LINE
  5
239
330
1F
100
AcDbEntity
  8
0
  6
HIDDEN
 62
     7
370
     0
100
AcDbLine
 10
184.4923801014
 20
180.6560680711
 30
0.0
 11
184.4923801014
 21
186.6560680711
 31
0.0
  0
LINE
  5
23A
330
1F
100
AcDbEntity
  8
0
  6
HIDDEN
 62
     7
370
     0
100
AcDbLine
 10
187.89550652
 20
180.6560680711
 30
0.0
 11
187.89550652
 21
186.6560680711
 31
0.0
  0
LINE
  5
23B
330
1F
100
AcDbEntity
  8
0
  6
HIDDEN
 62
     7
370
     0
100
AcDbLine
 10
190.0104320962
 20
180.6560680711
 30
0.0
 11
190.0104320962
 21
186.6560680711
 31
0.0
  0
LINE
  5
23C
330
1F
100
AcDbEntity
  8
0
  6
HIDDEN
 62
     7
370
     0
100
AcDbLine
 10
190.1199984098
 20
180.6560680711
 30
0.0
 11
190.0104320962
 21
180.6560680711
 31
0.0
  0
LINE
  5
23D
330
1F
100
AcDbEntity
  8
0
  6
HIDDEN
 62
     7
370
     0
100
AcDbLine
 10
188.4057315149
 20
180.6560680711
 30
0.0
 11
188.4057315149
 21
186.6560680711
 31
0.0
  0
LINE
  5
23E
330
1F
100
AcDbEntity
  8
0
  6
HIDDEN
 62
     7
370
     0
100
AcDbLine
 10
184.4923801014
 20
180.6560680711
 30
0.0
 11
184.3828137878
 21
180.6560680711
 31
0.0
  0
LINE
  5
23F
330
1F
100
AcDbEntity
  8
0
  6
HIDDEN
 62
     7
370
     0
100
AcDbLine
 10
185.5371392039
 20
180.6560680711
 30
0.0
 11
185.5371392039
 21
186.6560680711
 31
0.0
  0
LINE
  5
240
330
1F
100
AcDbEntity
  8
0
  6
HIDDEN
 62
     7
370
     0
100
AcDbLine
 10
188.9656729937
 20
180.6560680711
 30
0.0
 11
188.9656729937
 21
186.6560680711
 31
0.0
  0
LINE
  5
241
330
1F
100
AcDbEntity
  8
0
  6
HIDDEN
 62
     7
370
     0
100
AcDbLine
 10
190.1199984098
 20
180.6560680711
 30
0.0
 11
190.1199984098
 21
186.6560680711
 31
0.0
  0
LINE
  5
242
330
1F
100
AcDbEntity
  8
0
  6
HIDDEN
 62
     7
370
     0
100
AcDbLine
 10
186.0970806827
 20
180.6560680711
 30
0.0
 11
186.0970806827
 21
186.6560680711
 31
0.0
  0
LINE
  5
243
330
1F
100
AcDbEntity
  8
0
  6
HIDDEN
 62
     7
370
     0
100
AcDbLine
 10
184.3828137878
 20
180.6560680711
 30
0.0
 11
184.3828137878
 21
186.6560680711
 31
0.0
  0
LINE
  5
244
330
1F
100
AcDbEntity
  8
0
  6
HIDDEN
 62
     7
370
     0
100
AcDbLine
 10
187.2514060988
 20
186.6560680711
 30
0.0
 11
191.4234060988
 21
186.6560680711
 31
0.0
  0
LINE
  5
245
330
1F
100
AcDbEntity
  8
0
  6
HIDDEN
 62
     7
370
     0
100
AcDbLine
 10
183.0794060988
 20
186.6560680711
 30
0.0
 11
187.2514060988
 21
186.6560680711
 31
0.0
  0
LINE
  5
246
330
1F
100
AcDbEntity
  8
0
  6
HIDDEN
 62
     7
370
     0
100
AcDbLine
 10
187.2514060988
 20
186.1780220482
 30
0.0
 11
192.2514060988
 21
186.1780220482
 31
0.0
  0
LINE
  5
247
330
1F
100
AcDbEntity
  8
0
  6
HIDDEN
 62
     7
370
     0
100
AcDbLine
 10
182.2514060988
 20
186.1780220482
 30
0.0
 11
187.2514060988
 21
186.1780220482
 31
0.0
  0
LINE
  5
248
330
1F
100
AcDbEntity
  8
0
  6
HIDDEN
 62
     7
370
     0
100
AcDbLine
 10
187.2514060988
 20
170.1560680711
 30
0.0
 11
192.2514060988
 21
170.1560680711
 31
0.0
  0
LINE
  5
249
330
1F
100
AcDbEntity
  8
0
  6
HIDDEN
 62
     7
370
     0
100
AcDbLine
 10
182.2514060988
 20
170.1560680711
 30
0.0
 11
187.2514060988
 21
170.1560680711
 31
0.0
  0
LINE
  5
24A
330
1F
100
AcDbEntity
  8
0
  6
HIDDEN
 62
     7
370
     0
100
AcDbLine
 10
187.2514060988
 20
180.6560680711
 30
0.0
 11
187.2514060988
 21
186.6560680711
 31
0.0
  0
LINE
  5
24B
330
1F
100
AcDbEntity
  8
0
  6
HIDDEN
 62
     7
370
     0
100
AcDbLine
 10
189.7514060988
 20
180.6560680711
 30
0.0
 11
187.2514060988
 21
180.6560680711
 31
0.0
  0
LINE
  5
24C
330
1F
100
AcDbEntity
  8
0
  6
HIDDEN
 62
     7
370
     0
100
AcDbLine
 10
184.7514060988
 20
180.6560680711
 30
0.0
 11
187.2514060988
 21
180.6560680711
 31
0.0
  0
LINE
  5
24D
330
1F
100
AcDbEntity
  8
0
  6
HIDDEN
 62
     7
370
     0
100
AcDbLine
 10
189.7514060988
 20
180.6560680711
 30
0.0
 11
189.7514060988
 21
186.6560680711
 31
0.0
  0
LINE
  5
24E
330
1F
100
AcDbEntity
  8
0
  6
HIDDEN
 62
     7
370
     0
100
AcDbLine
 10
184.7514060988
 20
180.6560680711
 30
0.0
 11
184.7514060988
 21
186.6560680711
 31
0.0
  0
CIRCLE
  5
24F
330
1F
100
AcDbEntity
  8
0
  6
HIDDEN
 62
     7
370
     0
100
AcDbCircle
 10
169.1510063792
 20
179.8239679208
 30
0.0
 40
3.248439541316259
  0
CIRCLE
  5
250
330
1F
100
AcDbEntity
  8
0
  6
HIDDEN
 62
     7
370
     0
100
AcDbCircle
 10
169.3466296038
 20
179.5065085304
 30
0.0
 40
3.498305391844794
  0
CIRCLE
  5
251
330
1F
100
AcDbEntity
  8
0
  6
HIDDEN
 62
     7
370
     0
100
AcDbCircle
 10
169.3091990781
 20
179.5651096877
 30
0.0
 40
2.099069917907368
  0
CIRCLE
  5
252
330
1F
100
AcDbEntity
  8
0
  6
HIDDEN
 62
     7
370
     0
100
AcDbCircle
 10
169.161388444
 20
179.8052806832
 30
0.0
 40
2.099069917907375
  0
CIRCLE
  5
253
330
1F
100
AcDbEntity
  8
0
  6
HIDDEN
 62
     7
370
     0
100
AcDbCircle
 10
169.150857619
 20
179.8230244375
 30
0.0
 40
2.498847145542112
  0
CIRCLE
  5
254
330
1F
100
AcDbEntity
  8
0
  6
HIDDEN
 62
     7
370
     0
100
AcDbCircle
 10
169.1254769432
 20
179.7808776056
 30
0.0
 40
3.49830539184487
  0
ARC
  5
255
330
1F
100
AcDbEntity
  8
0
  6
HIDDEN
 62
     7
370
     0
100
AcDbCircle
 10
169.175099643
 20
179.7350083146
 30
0.0
 40
2.095956727981219
100
AcDbArc
 50
42.2780966366
 51
94.9293935168
  0
ARC
  5
256
330
1F
100
AcDbEntity
  8
0
  6
HIDDEN
 62
     7
370
     0
100
AcDbCircle
 10
169.173673109
 20
179.7308975461
 30
0.0
 40
2.09993046266383
100
AcDbArc
 50
94.8809772977
 51
229.9262062644
  0
CIRCLE
  5
257
330
1F
100
AcDbEntity
  8
0
  6
HIDDEN
 62
     7
370
     0
100
AcDbCircle
 10
169.2514060988
 20
179.6560680711
 30
0.0
 40
3.500000000000014
  0
LINE
  5
258
330
1F
100
AcDbEntity
  8
0
  6
HIDDEN
 62
     7
370
     0
100
AcDbLine
 10
187.2514060988
 20
187.8810680711
 30
0.0
 11
191.5014060988
 21
187.8810680711
 31
0.0
  0
LINE
  5
259
330
1F
100
AcDbEntity
  8
0
  6
HIDDEN
 62
     7
370
     0
100
AcDbLine
 10
183.0014060988
 20
187.8810680711
 30
0.0
 11
187.2514060988
 21
187.8810680711
 31
0.0
  0
LINE
  5
25A
330
1F
100
AcDbEntity
  8
0
  6
HIDDEN
 62
     7
370
     0
100
AcDbLine
 10
187.2514060988
 20
170.4310680711
 30
0.0
 11
191.5014060988
 21
170.4310680711
 31
0.0
  0
LINE
  5
25B
330
1F
100
AcDbEntity
  8
0
  6
HIDDEN
 62
     7
370
     0
100
AcDbLine
 10
183.0014060988
 20
170.4310680711
 30
0.0
 11
187.2514060988
 21
170.4310680711
 31
0.0
  0
SPLINE
  5
25C
330
1F
100
AcDbEntity
  8
0
  6
HIDDEN
 62
     7
370
     0
100
AcDbSpline
210
0.0
220
0.0
230
1.0
 70
     8
 71
     3
 72
    62
 73
    58
 74
     0
 42
0.00000001
 43
0.00000001
 40
-0.0312499999999997
 40
-0.0312499999999997
 40
0.0
 40
0.0
 40
0.0625000000000002
 40
0.0625000000000002
 40
0.0937500000000003
 40
0.0937500000000003
 40
0.1250000000000004
 40
0.1250000000000004
 40
0.1562500000000006
 40
0.1562500000000006
 40
0.1875000000000007
 40
0.1875000000000007
 40
0.2187500000000008
 40
0.2187500000000008
 40
0.2500000000000009
 40
0.2500000000000009
 40
0.281250000000001
 40
0.281250000000001
 40
0.3125000000000011
 40
0.3125000000000011
 40
0.3750000000000006
 40
0.3750000000000006
 40
0.4062500000000004
 40
0.4062500000000004
 40
0.4375000000000003
 40
0.4375000000000003
 40
0.4687500000000002
 40
0.4687500000000002
 40
0.5000000000000001
 40
0.5000000000000001
 40
0.5624999999999999
 40
0.5624999999999999
 40
0.5937500000000002
 40
0.5937500000000002
 40
0.6250000000000006
 40
0.6250000000000006
 40
0.6562500000000009
 40
0.6562500000000009
 40
0.6875000000000012
 40
0.6875000000000012
 40
0.7500000000000019
 40
0.7500000000000019
 40
0.7812500000000017
 40
0.7812500000000017
 40
0.8125000000000014
 40
0.8125000000000014
 40
0.8437500000000012
 40
0.8437500000000012
 40
0.875000000000001
 40
0.875000000000001
 40
0.9062500000000008
 40
0.9062500000000008
 40
0.9375000000000006
 40
0.9375000000000006
 40
0.9687500000000003
 40
0.9687500000000003
 40
1.0
 40
1.0
 40
1.0625
 40
1.0625
 10
162.3595635403905
 20
168.7824587416802
 30
0.0
 10
162.0994307117869
 20
168.4032867300458
 30
0.0
 10
161.8924365205872
 20
168.1889898363676
 30
0.0
 10
161.5472791547217
 20
167.9050335299509
 30
0.0
 10
161.425791149071
 20
167.8170013170612
 30
0.0
 10
161.1767988237517
 20
167.6585415735129
 30
0.0
 10
161.048524211512
 20
167.5873663575139
 30
0.0
 10
160.7824046722128
 20
167.4626247590291
 30
0.0
 10
160.6446116684558
 20
167.4088741886168
 30
0.0
 10
160.3540711750987
 20
167.3259853753969
 30
0.0
 10
160.205834425032
 20
167.2980707205525
 30
0.0
 10
159.899455809431
 20
167.2839908627803
 30
0.0
 10
159.7492247810177
 20
167.2989826051779
 30
0.0
 10
159.4587085136721
 20
167.3802238523911
 30
0.0
 10
159.3244851702706
 20
167.4448215013452
 30
0.0
 10
159.0792231901499
 20
167.6091499739767
 30
0.0
 10
158.971110446884
 20
167.7059328822142
 30
0.0
 10
158.7733438067285
 20
167.9224029926597
 30
0.0
 10
158.6836725974723
 20
168.043008849868
 30
0.0
 10
158.4468031948522
 20
168.4233019346961
 30
0.0
 10
158.3260711807154
 20
168.7102081604945
 30
0.0
 10
158.2136189680578
 20
169.1440293097436
 30
0.0
 10
158.1869412997538
 20
169.2927407064118
 30
0.0
 10
158.1592384675129
 20
169.5792267660162
 30
0.0
 10
158.1576285859137
 20
169.717834447496
 30
0.0
 10
158.179594658208
 20
169.9854764420296
 30
0.0
 10
158.2030501283762
 20
170.1107661937793
 30
0.0
 10
158.2729034870146
 20
170.3403060347176
 30
0.0
 10
158.3200391796574
 20
170.4460572188253
 30
0.0
 10
158.4907513997418
 20
170.7234445374346
 30
0.0
 10
158.6454797789675
 20
170.8609639146622
 30
0.0
 10
158.9348025339166
 20
170.9993037402494
 30
0.0
 10
159.0428729069254
 20
171.0349644976315
 30
0.0
 10
159.2802398275561
 20
171.0866843031512
 30
0.0
 10
159.4131039778327
 20
171.1033885713489
 30
0.0
 10
159.6972240119348
 20
171.123111758405
 30
0.0
 10
159.851351856343
 20
171.1266246937857
 30
0.0
 10
160.1551911915934
 20
171.1257868593605
 30
0.0
 10
160.307608544263
 20
171.1214100172633
 30
0.0
 10
160.7420181771752
 20
171.0967390624848
 30
0.0
 10
161.0139632354198
 20
171.0640812743077
 30
0.0
 10
161.3897565303382
 20
170.9786092284822
 30
0.0
 10
161.5103682152735
 20
170.9439776337681
 30
0.0
 10
161.7427911121059
 20
170.8587719527374
 30
0.0
 10
161.8553305378176
 20
170.8077490090851
 30
0.0
 10
162.0646453903216
 20
170.6871975431752
 30
0.0
 10
162.1619201188639
 20
170.6177303934935
 30
0.0
 10
162.3380787243632
 20
170.4536860575347
 30
0.0
 10
162.4159335197415
 20
170.3595997373554
 30
0.0
 10
162.5397998912944
 20
170.1464659549817
 30
0.0
 10
162.5864293284834
 20
170.0250421967613
 30
0.0
 10
162.6350808264413
 20
169.7648594670884
 30
0.0
 10
162.6373113914043
 20
169.6228842437453
 30
0.0
 10
162.5968200849582
 20
169.3391311434673
 30
0.0
 10
162.5539307711945
 20
169.1938683781121
 30
0.0
 10
162.4356695503264
 20
168.9169898856732
 30
0.0
 10
162.3595635403905
 20
168.7824587416802
 30
0.0
 10
162.0994307117869
 20
168.4032867300458
 30
0.0
  0
ELLIPSE
  5
25D
330
1F
100
AcDbEntity
  8
0
  6
HIDDEN
 62
     7
370
     0
100
AcDbEllipse
 10
168.2514060988
 20
178.4510991479
 30
0.0
 11
1.63127564240483
 21
1.822950110359301
 31
0.0
210
0.0
220
0.0
230
1.0
 40
0.8584519253
 41
1.143954407855765
 42
5.178438524548922
  0
LINE
  5
25E
330
1F
100
AcDbEntity
  8
0
  6
HIDDEN
 62
     7
370
     0
100
AcDbLine
 10
130.2014060988
 20
184.7674770722
 30
0.0
 11
136.2162463999
 21
184.7674770722
 31
0.0
  0
LINE
  5
25F
330
1F
100
AcDbEntity
  8
0
  6
HIDDEN
 62
     7
370
     0
100
AcDbLine
 10
136.2162463999
 20
164.1560680711
 30
0.0
 11
136.2162463999
 21
163.1560680711
 31
0.0
  0
LINE
  5
260
330
1F
100
AcDbEntity
  8
0
  6
HIDDEN
 62
     7
370
     0
100
AcDbLine
 10
136.2162463999
 20
174.1560680711
 30
0.0
 11
136.2162463999
 21
173.1560680711
 31
0.0
  0
SPLINE
  5
261
330
1F
100
AcDbEntity
  8
0
  6
HIDDEN
 62
     7
370
     0
100
AcDbSpline
210
0.0
220
0.0
230
1.0
 70
     8
 71
     3
 72
    12
 73
     8
 74
     0
 42
0.00000001
 43
0.00000001
 40
0.0
 40
0.0
 40
0.0
 40
0.0
 40
0.250000000000002
 40
0.250000000000002
 40
0.500000000000004
 40
0.500000000000004
 40
1.0
 40
1.0
 40
1.0
 40
1.0
 10
141.6014060988028
 20
184.7674770722129
 30
0.0
 10
141.6895929641717
 20
184.7674770722129
 30
0.0
 10
141.778280357473
 20
184.7421969220484
 30
0.0
 10
141.9325328505918
 20
184.6525855765467
 30
0.0
 10
141.9978788316678
 20
184.5895999396207
 30
0.0
 10
142.1522887016189
 20
184.3733132178631
 30
0.0
 10
142.2014060988029
 20
184.1933334604427
 30
0.0
 10
142.2014060988029
 20
184.016325230441
 30
0.0
  0
LINE
  5
262
330
1F
100
AcDbEntity
  8
0
  6
HIDDEN
 62
     7
370
     0
100
AcDbLine
 10
140.2865657977
 20
184.7674770722
 30
0.0
 11
141.6014060988
 21
184.7674770722
 31
0.0
  0
LINE
  5
263
330
1F
100
AcDbEntity
  8
0
  6
HIDDEN
 62
     7
370
     0
100
AcDbLine
 10
140.2865657977
 20
164.1560680711
 30
0.0
 11
140.2865657977
 21
163.1560680711
 31
0.0
  0
SPLINE
  5
264
330
1F
100
AcDbEntity
  8
0
  6
HIDDEN
 62
     7
370
     0
100
AcDbSpline
210
0.0
220
0.0
230
1.0
 70
     8
 71
     3
 72
     8
 73
     4
 74
     0
 42
0.00000001
 43
0.00000001
 40
0.0
 40
0.0
 40
0.0
 40
0.0
 40
1.0
 40
1.0
 40
1.0
 40
1.0
 10
139.2914060988028
 20
182.5701559705908
 30
0.0
 10
139.6150427544251
 20
183.3064523213353
 30
0.0
 10
139.9475329759417
 20
184.0385252186871
 30
0.0
 10
140.2865657976963
 20
184.7674770722129
 30
0.0
  0
SPLINE
  5
265
330
1F
100
AcDbEntity
  8
0
  6
HIDDEN
 62
     7
370
     0
100
AcDbSpline
210
0.0
220
0.0
230
1.0
 70
     8
 71
     3
 72
     8
 73
     4
 74
     0
 42
0.00000001
 43
0.00000001
 40
0.0
 40
0.0
 40
0.0
 40
0.0
 40
1.0
 40
1.0
 40
1.0
 40
1.0
 10
136.2162463999094
 20
184.7674770722129
 30
0.0
 10
136.555279221664
 20
184.0385252186871
 30
0.0
 10
136.8877694431806
 20
183.3064523213353
 30
0.0
 10
137.2114060988028
 20
182.5701559705908
 30
0.0
  0
SPLINE
  5
266
330
1F
100
AcDbEntity
  8
0
  6
HIDDEN
 62
     7
370
     0
100
AcDbSpline
210
0.0
220
0.0
230
1.0
 70
     8
 71
     3
 72
    12
 73
     8
 74
     0
 42
0.00000001
 43
0.00000001
 40
0.0
 40
0.0
 40
0.0
 40
0.0
 40
0.249999999999999
 40
0.249999999999999
 40
0.499999999999998
 40
0.499999999999998
 40
1.0
 40
1.0
 40
1.0
 40
1.0
 10
138.6914060988028
 20
181.3630789312867
 30
0.0
 10
138.7840641883091
 20
181.3630789312867
 30
0.0
 10
138.8761275978668
 20
181.3942172769797
 30
0.0
 10
139.0302851483576
 20
181.4961303617141
 30
0.0
 10
139.0947740817223
 20
181.5665888908585
 30
0.0
 10
139.2448256306718
 20
181.8009202142451
 30
0.0
 10
139.2914060988028
 20
181.9857054207927
 30
0.0
 10
139.2914060988028
 20
182.1719152513901
 30
0.0
  0
SPLINE
  5
267
330
1F
100
AcDbEntity
  8
0
  6
HIDDEN
 62
     7
370
     0
100
AcDbSpline
210
0.0
220
0.0
230
1.0
 70
     8
 71
     3
 72
    12
 73
     8
 74
     0
 42
0.00000001
 43
0.00000001
 40
0.0
 40
0.0
 40
0.0
 40
0.0
 40
0.5000000000000013
 40
0.5000000000000013
 40
0.7500000000000007
 40
0.7500000000000007
 40
1.0
 40
1.0
 40
1.0
 40
1.0
 10
137.2114060988028
 20
182.1719152513901
 30
0.0
 10
137.2114060988028
 20
181.9873538196801
 30
0.0
 10
137.2584021963112
 20
181.8002300744452
 30
0.0
 10
137.4079081343114
 20
181.5668124269872
 30
0.0
 10
137.4724267568699
 20
181.4961868959541
 30
0.0
 10
137.6268664495989
 20
181.3941068304974
 30
0.0
 10
137.7178048376018
 20
181.3630789312866
 30
0.0
 10
137.8114060988028
 20
181.3630789312866
 30
0.0
  0
LINE
  5
268
330
1F
100
AcDbEntity
  8
0
  6
HIDDEN
 62
     7
370
     0
100
AcDbLine
 10
139.2914060988
 20
164.1560680711
 30
0.0
 11
139.2914060988
 21
163.1560680711
 31
0.0
  0
LINE
  5
269
330
1F
100
AcDbEntity
  8
0
  6
HIDDEN
 62
     7
370
     0
100
AcDbLine
 10
137.2114060988
 20
164.1560680711
 30
0.0
 11
137.2114060988
 21
163.1560680711
 31
0.0
  0
LINE
  5
26A
330
1F
100
AcDbEntity
  8
0
  6
HIDDEN
 62
     7
370
     0
100
AcDbLine
 10
137.8114060988
 20
181.3630789313
 30
0.0
 11
138.6914060988
 21
181.3630789313
 31
0.0
  0
LINE
  5
26B
330
1F
100
AcDbEntity
  8
0
  6
HIDDEN
 62
     7
370
     0
100
AcDbLine
 10
142.2014682219
 20
164.1560680711
 30
0.0
 11
142.2593876488
 21
165.5153638316
 31
0.0
  0
SPLINE
  5
26C
330
1F
100
AcDbEntity
  8
0
  6
HIDDEN
 62
     7
370
     0
100
AcDbSpline
210
0.0
220
0.0
230
1.0
 70
     8
 71
     3
 72
    10
 73
     6
 74
     0
 42
0.00000001
 43
0.00000001
 40
0.0
 40
0.0
 40
0.0
 40
0.0
 40
0.5
 40
0.5
 40
1.0
 40
1.0
 40
1.0
 40
1.0
 10
142.3252724488014
 20
170.6560680711354
 30
0.0
 10
142.298345321383
 20
171.0724852242248
 30
0.0
 10
142.2683984365777
 20
171.4887826474969
 30
0.0
 10
142.2206504871967
 20
172.3218590614818
 30
0.0
 10
142.2026655255847
 20
172.738630760894
 30
0.0
 10
142.2014682219262
 20
173.1560680711354
 30
0.0
  0
SPLINE
  5
26D
330
1F
100
AcDbEntity
  8
0
  6
HIDDEN
 62
     7
370
     0
100
AcDbSpline
210
0.0
220
0.0
230
1.0
 70
     8
 71
     3
 72
    12
 73
     8
 74
     0
 42
0.00000001
 43
0.00000001
 40
0.0
 40
0.0
 40
0.0
 40
0.0
 40
0.5
 40
0.5
 40
0.75
 40
0.75
 40
1.0
 40
1.0
 40
1.0
 40
1.0
 10
142.2014060988029
 20
181.533470759566
 30
0.0
 10
142.2014060988029
 20
181.3509440560183
 30
0.0
 10
142.2286268469305
 20
181.1663534006832
 30
0.0
 10
142.3090732927034
 20
180.9060720785087
 30
0.0
 10
142.3425205211815
 20
180.8215176256976
 30
0.0
 10
142.4249300909557
 20
180.6575696759533
 30
0.0
 10
142.4742131878393
 20
180.578119451912
 30
0.0
 10
142.5305298104759
 20
180.5060680711336
 30
0.0
  0
ELLIPSE
  5
26E
330
1F
100
AcDbEntity
  8
0
  6
HIDDEN
 62
     7
370
     0
100
AcDbEllipse
 10
80.6151321746
 20
169.0453969256
 30
0.0
 11
22.5011579241814
 21
6.146971432587661
 31
0.0
210
0.0
220
0.0
230
1.0
 40
0.5128213654
 41
6.281141743839449
 42
6.28473557816007
  0
SPLINE
  5
26F
330
1F
100
AcDbEntity
  8
0
  6
HIDDEN
 62
     7
370
     0
100
AcDbSpline
210
0.0
220
0.0
230
1.0
 70
     8
 71
     3
 72
     8
 73
     4
 74
     0
 42
0.00000001
 43
0.00000001
 40
0.0
 40
0.0
 40
0.0
 40
0.0
 40
1.0
 40
1.0
 40
1.0
 40
1.0
 10
103.3014060988029
 20
174.793466915229
 30
0.0
 10
103.2221087711713
 20
174.9118732802367
 30
0.0
 10
103.1585115768266
 20
175.0355444571278
 30
0.0
 10
103.1226850313673
 20
175.1687747096188
 30
0.0
  0
SPLINE
  5
270
330
1F
100
AcDbEntity
  8
0
  6
HIDDEN
 62
     7
370
     0
100
AcDbSpline
210
0.0
220
0.0
230
1.0
 70
     8
 71
     3
 72
    12
 73
     8
 74
     0
 42
0.00000001
 43
0.00000001
 40
0.0
 40
0.0
 40
0.0
 40
0.0
 40
0.2499999999999986
 40
0.2499999999999986
 40
0.4999999999999971
 40
0.4999999999999971
 40
1.0
 40
1.0
 40
1.0
 40
1.0
 10
105.0514060988029
 20
175.1637066302749
 30
0.0
 10
104.9093636956136
 20
175.1169416844918
 30
0.0
 10
104.7652455891095
 20
175.0788872346628
 30
0.0
 10
104.475491075437
 20
175.009151684269
 30
0.0
 10
104.3297491720782
 20
174.9779132125886
 30
0.0
 10
103.8910689328984
 20
174.8903051448797
 30
0.0
 10
103.5966933168272
 20
174.8399705275142
 30
0.0
 10
103.3014060988029
 20
174.793466915229
 30
0.0
  0
SPLINE
  5
271
330
1F
100
AcDbEntity
  8
0
  6
HIDDEN
 62
     7
370
     0
100
AcDbSpline
210
0.0
220
0.0
230
1.0
 70
     8
 71
     3
 72
    20
 73
    16
 74
     0
 42
0.00000001
 43
0.00000001
 40
0.0
 40
0.0
 40
0.0
 40
0.0
 40
0.2499999999999996
 40
0.2499999999999996
 40
0.4999999999999991
 40
0.4999999999999991
 40
0.7499999999999987
 40
0.7499999999999987
 40
0.8749999999999971
 40
0.8749999999999971
 40
0.9374999999999983
 40
0.9374999999999983
 40
0.9687499999999991
 40
0.9687499999999991
 40
1.0
 40
1.0
 40
1.0
 40
1.0
 10
105.9514060988038
 20
173.4713569320356
 30
0.0
 10
105.9514060988038
 20
173.6420036828618
 30
0.0
 10
105.9260110792269
 20
173.8129683451394
 30
0.0
 10
105.8397178934449
 20
174.1380472011359
 30
0.0
 10
105.7790819147617
 20
174.2937551165412
 30
0.0
 10
105.6309801205404
 20
174.594499072179
 30
0.0
 10
105.5442105137618
 20
174.7394643888778
 30
0.0
 10
105.3955727184326
 20
174.9432485190295
 30
0.0
 10
105.3432835015464
 20
175.0096711352494
 30
0.0
 10
105.2525196732365
 20
175.0990182669441
 30
0.0
 10
105.2201536807845
 20
175.1276462282813
 30
0.0
 10
105.1624645251183
 20
175.1589273080617
 30
0.0
 10
105.1414774972308
 20
175.1671928903469
 30
0.0
 10
105.0961885182403
 20
175.1734531087135
 30
0.0
 10
105.0731742494018
 20
175.1708734083642
 30
0.0
 10
105.0514060988022
 20
175.1637066302771
 30
0.0
  0
SPLINE
  5
272
330
1F
100
AcDbEntity
  8
0
  6
HIDDEN
 62
     7
370
     0
100
AcDbSpline
210
0.0
220
0.0
230
1.0
 70
     8
 71
     3
 72
    20
 73
    16
 74
     0
 42
0.00000001
 43
0.00000001
 40
0.0
 40
0.0
 40
0.0
 40
0.0
 40
0.2499999999999986
 40
0.2499999999999986
 40
0.4999999999999971
 40
0.4999999999999971
 40
0.7499999999999957
 40
0.7499999999999957
 40
0.8749999999999962
 40
0.8749999999999962
 40
0.9374999999999981
 40
0.9374999999999981
 40
0.9687499999999991
 40
0.9687499999999991
 40
1.0
 40
1.0
 40
1.0
 40
1.0
 10
105.9514060988038
 20
163.8407792102352
 30
0.0
 10
105.9514060988038
 20
163.6701324594091
 30
0.0
 10
105.9260110792269
 20
163.4991677971315
 30
0.0
 10
105.8397178934449
 20
163.1740889411349
 30
0.0
 10
105.7790819147617
 20
163.0183810257296
 30
0.0
 10
105.6309801205404
 20
162.7176370700919
 30
0.0
 10
105.5442105137618
 20
162.572671753393
 30
0.0
 10
105.3955727184326
 20
162.3688876232413
 30
0.0
 10
105.3432835015464
 20
162.3024650070214
 30
0.0
 10
105.2525196732364
 20
162.2131178753268
 30
0.0
 10
105.2201536807845
 20
162.1844899139895
 30
0.0
 10
105.1624645251183
 20
162.1532088342091
 30
0.0
 10
105.1414774972308
 20
162.1449432519239
 30
0.0
 10
105.0961885182403
 20
162.1386830335573
 30
0.0
 10
105.0731742494018
 20
162.1412627339066
 30
0.0
 10
105.0514060988022
 20
162.1484295119937
 30
0.0
  0
SPLINE
  5
273
330
1F
100
AcDbEntity
  8
0
  6
HIDDEN
 62
     7
370
     0
100
AcDbSpline
210
0.0
220
0.0
230
1.0
 70
     8
 71
     3
 72
    12
 73
     8
 74
     0
 42
0.00000001
 43
0.00000001
 40
0.0
 40
0.0
 40
0.0
 40
0.0
 40
0.2499999999999986
 40
0.2499999999999986
 40
0.4999999999999971
 40
0.4999999999999971
 40
1.0
 40
1.0
 40
1.0
 40
1.0
 10
105.0514060988029
 20
162.1484295119959
 30
0.0
 10
104.9093636956136
 20
162.1951944577791
 30
0.0
 10
104.7652455891095
 20
162.233248907608
 30
0.0
 10
104.475491075437
 20
162.3029844580019
 30
0.0
 10
104.3297491720782
 20
162.3342229296822
 30
0.0
 10
103.8910689328984
 20
162.4218309973912
 30
0.0
 10
103.5966933168272
 20
162.4721656147566
 30
0.0
 10
103.3014060988029
 20
162.5186692270418
 30
0.0
  0
SPLINE
  5
274
330
1F
100
AcDbEntity
  8
0
  6
HIDDEN
 62
     7
370
     0
100
AcDbSpline
210
0.0
220
0.0
230
1.0
 70
     8
 71
     3
 72
     8
 73
     4
 74
     0
 42
0.00000001
 43
0.00000001
 40
0.0
 40
0.0
 40
0.0
 40
0.0
 40
1.0
 40
1.0
 40
1.0
 40
1.0
 10
103.3014060988029
 20
162.5186692270418
 30
0.0
 10
103.2221087711713
 20
162.4002628620341
 30
0.0
 10
103.1585115768266
 20
162.276591685143
 30
0.0
 10
103.1226850313673
 20
162.143361432652
 30
0.0
  0
ELLIPSE
  5
275
330
1F
100
AcDbEntity
  8
0
  6
HIDDEN
 62
     7
370
     0
100
AcDbEllipse
 10
80.6151321746
 20
168.2667392166
 30
0.0
 11
22.5011579241814
 21
-6.146971432587635
 31
0.0
210
0.0
220
0.0
230
0.9999999999999997
 40
0.5128213654
 41
6.281635036199156
 42
6.285228870519778
  0
SPLINE
  5
276
330
1F
100
AcDbEntity
  8
0
  6
HIDDEN
 62
     7
370
     0
100
AcDbSpline
210
0.0
220
0.0
230
1.0
 70
     8
 71
     3
 72
     9
 73
     5
 74
     0
 42
0.00000001
 43
0.00000001
 40
0.0
 40
0.0
 40
0.0
 40
0.0
 40
0.0758808253105058
 40
1.0
 40
1.0
 40
1.0
 40
1.0
 10
117.576138981165
 20
170.5263987476417
 30
0.0
 10
117.5917615473893
 20
170.5186278503389
 30
0.0
 10
117.7976444718346
 20
170.4162186149236
 30
0.0
 10
117.9420941288526
 20
170.2294832668398
 30
0.0
 10
118.0755828266803
 20
170.0569175510833
 30
0.0
  0
LINE
  5
277
330
1F
100
AcDbEntity
  8
0
  6
HIDDEN
 62
     7
370
     0
100
AcDbLine
 10
110.2540558296
 20
168.6560680711
 30
0.0
 11
110.2540558296
 21
179.1560680711
 31
0.0
  0
LINE
  5
278
330
1F
100
AcDbEntity
  8
0
  6
HIDDEN
 62
     7
370
     0
100
AcDbLine
 10
110.2540558296
 20
158.1560680711
 30
0.0
 11
110.2540558296
 21
168.6560680711
 31
0.0
  0
SPLINE
  5
279
330
1F
100
AcDbEntity
  8
0
  6
HIDDEN
 62
     7
370
     0
100
AcDbSpline
210
0.0
220
0.0
230
1.0
 70
     8
 71
     3
 72
    10
 73
     6
 74
     0
 42
0.00000001
 43
0.00000001
 40
0.0
 40
0.0
 40
0.0
 40
0.0
 40
0.5
 40
0.5
 40
1.0
 40
1.0
 40
1.0
 40
1.0
 10
102.4764773934222
 20
175.0411710458107
 30
0.0
 10
102.4572619626379
 20
174.8973034824423
 30
0.0
 10
102.4229295148615
 20
174.7463939645646
 30
0.0
 10
102.370754605008
 20
174.4503269230664
 30
0.0
 10
102.3514060988028
 20
174.3007786941629
 30
0.0
 10
102.3514060988028
 20
174.1576682768535
 30
0.0
  0
SPLINE
  5
27A
330
1F
100
AcDbEntity
  8
0
  6
HIDDEN
 62
     7
370
     0
100
AcDbSpline
210
0.0
220
0.0
230
1.0
 70
     8
 71
     3
 72
    22
 73
    18
 74
     0
 42
0.00000001
 43
0.00000001
 40
0.0
 40
0.0
 40
0.0
 40
0.0
 40
0.2499999999999997
 40
0.2499999999999997
 40
0.3749999999999991
 40
0.3749999999999991
 40
0.4374999999999988
 40
0.4374999999999988
 40
0.4999999999999985
 40
0.4999999999999985
 40
0.5624999999999982
 40
0.5624999999999982
 40
0.624999999999998
 40
0.624999999999998
 40
0.7499999999999987
 40
0.7499999999999987
 40
1.0
 40
1.0
 40
1.0
 40
1.0
 10
103.1113761451928
 20
175.2102496568175
 30
0.0
 10
103.0794088577441
 20
175.3258904871586
 30
0.0
 10
103.0418997733387
 20
175.4386524354841
 30
0.0
 10
102.964450154406
 20
175.5941027036995
 30
0.0
 10
102.9350632271782
 20
175.643962835454
 30
0.0
 10
102.8797612593416
 20
175.7059764310413
 30
0.0
 10
102.8593327527146
 20
175.7247413363636
 30
0.0
 10
102.8107447204761
 20
175.7515946791776
 30
0.0
 10
102.7823329941161
 20
175.7589010807712
 30
0.0
 10
102.7231249098399
 20
175.7451691520493
 30
0.0
 10
102.6955802265606
 20
175.7243149340303
 30
0.0
 10
102.6512385807661
 20
175.673176995275
 30
0.0
 10
102.6337757163484
 20
175.6437770689438
 30
0.0
 10
102.5884513441111
 20
175.5530366028915
 30
0.0
 10
102.5678582314207
 20
175.490055471829
 30
0.0
 10
102.5150381400146
 20
175.2987962004195
 30
0.0
 10
102.4936502693475
 20
175.1697458273566
 30
0.0
 10
102.4764773934222
 20
175.0411710458109
 30
0.0
  0
SPLINE
  5
27B
330
1F
100
AcDbEntity
  8
0
  6
HIDDEN
 62
     7
370
     0
100
AcDbSpline
210
0.0
220
0.0
230
1.0
 70
     8
 71
     3
 72
    22
 73
    18
 74
     0
 42
0.00000001
 43
0.00000001
 40
0.0
 40
0.0
 40
0.0
 40
0.0
 40
0.2500000000000006
 40
0.2500000000000006
 40
0.3750000000000007
 40
0.3750000000000007
 40
0.4375000000000007
 40
0.4375000000000007
 40
0.5000000000000008
 40
0.5000000000000008
 40
0.5625000000000008
 40
0.5625000000000008
 40
0.6250000000000009
 40
0.6250000000000009
 40
0.7500000000000011
 40
0.7500000000000011
 40
1.0
 40
1.0
 40
1.0
 40
1.0
 10
103.1113761451928
 20
162.1018864854533
 30
0.0
 10
103.0794088577441
 20
161.9862456551122
 30
0.0
 10
103.0418997733387
 20
161.8734837067867
 30
0.0
 10
102.964450154406
 20
161.7180334385713
 30
0.0
 10
102.9350632271782
 20
161.6681733068169
 30
0.0
 10
102.8797612593415
 20
161.6061597112296
 30
0.0
 10
102.8593327527146
 20
161.5873948059073
 30
0.0
 10
102.8107447204761
 20
161.5605414630932
 30
0.0
 10
102.7823329941161
 20
161.5532350614996
 30
0.0
 10
102.7231249098399
 20
161.5669669902215
 30
0.0
 10
102.6955802265606
 20
161.5878212082405
 30
0.0
 10
102.6512385807661
 20
161.6389591469959
 30
0.0
 10
102.6337757163484
 20
161.668359073327
 30
0.0
 10
102.5884513441111
 20
161.7590995393793
 30
0.0
 10
102.5678582314207
 20
161.8220806704418
 30
0.0
 10
102.5150381400146
 20
162.0133399418513
 30
0.0
 10
102.4936502693475
 20
162.1423903149142
 30
0.0
 10
102.4764773934222
 20
162.2709650964599
 30
0.0
  0
LINE
  5
27C
330
1F
100
AcDbEntity
  8
0
  6
HIDDEN
 62
     7
370
     0
100
AcDbLine
 10
128.420781349
 20
168.6560680711
 30
0.0
 11
128.420781349
 21
179.1560680711
 31
0.0
  0
LINE
  5
27D
330
1F
100
AcDbEntity
  8
0
  6
HIDDEN
 62
     7
370
     0
100
AcDbLine
 10
128.420781349
 20
158.1560680711
 30
0.0
 11
128.420781349
 21
168.6560680711
 31
0.0
  0
LINE
  5
27E
330
1F
100
AcDbEntity
  8
0
  6
HIDDEN
 62
     7
370
     0
100
AcDbLine
 10
130.2014060988
 20
169.6560680711
 30
0.0
 11
130.2014060988
 21
178.5310680711
 31
0.0
  0
LINE
  5
27F
330
1F
100
AcDbEntity
  8
0
  6
HIDDEN
 62
     7
370
     0
100
AcDbLine
 10
130.2014060988
 20
158.7810680711
 30
0.0
 11
130.2014060988
 21
167.6560680711
 31
0.0
  0
LINE
  5
280
330
1F
100
AcDbEntity
  8
0
  6
HIDDEN
 62
     7
370
     0
100
AcDbLine
 10
103.3014060988
 20
158.1560680711
 30
0.0
 11
103.3014060988
 21
164.6310680711
 31
0.0
  0
LINE
  5
281
330
1F
100
AcDbEntity
  8
0
  6
HIDDEN
 62
     7
370
     0
100
AcDbLine
 10
105.0514060988
 20
164.6310680711
 30
0.0
 11
103.3014060988
 21
164.6310680711
 31
0.0
  0
SPLINE
  5
282
330
1F
100
AcDbEntity
  8
0
  6
HIDDEN
 62
     7
370
     0
100
AcDbSpline
210
0.0
220
0.0
230
1.0
 70
     8
 71
     3
 72
     9
 73
     5
 74
     0
 42
0.00000001
 43
0.00000001
 40
0.0
 40
0.0
 40
0.0
 40
0.0
 40
0.5071376499419528
 40
1.0
 40
1.0
 40
1.0
 40
1.0
 10
105.3324451877574
 20
164.6900680711354
 30
0.0
 10
105.2871011804345
 20
164.6711701895089
 30
0.0
 10
105.1976895437159
 20
164.6339063783351
 30
0.0
 10
105.0997009750395
 20
164.6320051265556
 30
0.0
 10
105.0514060988029
 20
164.6310680711354
 30
0.0
  0
SPLINE
  5
283
330
1F
100
AcDbEntity
  8
0
  6
HIDDEN
 62
     7
370
     0
100
AcDbSpline
210
0.0
220
0.0
230
1.0
 70
     8
 71
     3
 72
     9
 73
     5
 74
     0
 42
0.00000001
 43
0.00000001
 40
0.0
 40
0.0
 40
0.0
 40
0.0
 40
0.5071376499419528
 40
1.0
 40
1.0
 40
1.0
 40
1.0
 10
105.3324451877574
 20
172.6220680711354
 30
0.0
 10
105.2871011804345
 20
172.640965952762
 30
0.0
 10
105.1976895437159
 20
172.6782297639357
 30
0.0
 10
105.0997009750395
 20
172.6801310157153
 30
0.0
 10
105.0514060988029
 20
172.6810680711354
 30
0.0
  0
LINE
  5
284
330
1F
100
AcDbEntity
  8
0
  6
HIDDEN
 62
     7
370
     0
100
AcDbLine
 10
105.0514060988
 20
172.6810680711
 30
0.0
 11
103.3014060988
 21
172.6810680711
 31
0.0
  0
LINE
  5
285
330
1F
100
AcDbEntity
  8
0
  6
HIDDEN
 62
     7
370
     0
100
AcDbLine
 10
103.3014060988
 20
172.6810680711
 30
0.0
 11
103.3014060988
 21
179.1560680711
 31
0.0
  0
LINE
  5
286
330
1F
100
AcDbEntity
  8
0
  6
HIDDEN
 62
     7
370
     0
100
AcDbLine
 10
135.5514060988
 20
168.6560680711
 30
0.0
 11
135.5514060988
 21
174.9060680711
 31
0.0
  0
LINE
  5
287
330
1F
100
AcDbEntity
  8
0
  6
HIDDEN
 62
     7
370
     0
100
AcDbLine
 10
135.5514060988
 20
162.4060680711
 30
0.0
 11
135.5514060988
 21
168.6560680711
 31
0.0
  0
LINE
  5
288
330
1F
100
AcDbEntity
  8
0
  6
HIDDEN
 62
     7
370
     0
100
AcDbLine
 10
138.0514060988
 20
168.6560680711
 30
0.0
 11
138.0514060988
 21
174.9060680711
 31
0.0
  0
LINE
  5
289
330
1F
100
AcDbEntity
  8
0
  6
HIDDEN
 62
     7
370
     0
100
AcDbLine
 10
138.0514060988
 20
162.4060680711
 30
0.0
 11
138.0514060988
 21
168.6560680711
 31
0.0
  0
LINE
  5
28A
330
1F
100
AcDbEntity
  8
0
  6
HIDDEN
 62
     7
370
     0
100
AcDbLine
 10
130.7014060988
 20
168.6560680711
 30
0.0
 11
130.7014060988
 21
174.1560680711
 31
0.0
  0
LINE
  5
28B
330
1F
100
AcDbEntity
  8
0
  6
HIDDEN
 62
     7
370
     0
100
AcDbLine
 10
130.7014060988
 20
163.1560680711
 30
0.0
 11
130.7014060988
 21
168.6560680711
 31
0.0
  0
LINE
  5
28C
330
1F
100
AcDbEntity
  8
0
  6
HIDDEN
 62
     7
370
     0
100
AcDbLine
 10
129.2514060988
 20
153.9560680711
 30
0.0
 11
124.5514060988
 21
153.9560680711
 31
0.0
  0
LINE
  5
28D
330
1F
100
AcDbEntity
  8
0
  6
HIDDEN
 62
     7
370
     0
100
AcDbLine
 10
133.9514060988
 20
153.9560680711
 30
0.0
 11
129.2514060988
 21
153.9560680711
 31
0.0
  0
LINE
  5
28E
330
1F
100
AcDbEntity
  8
0
  6
HIDDEN
 62
     7
370
     0
100
AcDbLine
 10
162.0148180056
 20
168.3720527927
 30
0.0
 11
162.1759108639
 21
168.5391437827
 31
0.0
  0
LINE
  5
28F
330
1F
100
AcDbEntity
  8
0
  6
HIDDEN
 62
     7
370
     0
100
AcDbLine
 10
162.2453937243
 20
168.622949113
 30
0.0
 11
162.4624474968
 21
169.0085475106
 31
0.0
  0
SPLINE
  5
290
330
1F
100
AcDbEntity
  8
0
  6
HIDDEN
 62
     7
370
     0
100
AcDbSpline
210
0.0
220
0.0
230
1.0
 70
     8
 71
     3
 72
     9
 73
     5
 74
     0
 42
0.00000001
 43
0.00000001
 40
0.0
 40
0.0
 40
0.0
 40
0.0
 40
0.1481169172901657
 40
1.0
 40
1.0
 40
1.0
 40
1.0
 10
158.5494345345314
 20
170.7505397495991
 30
0.0
 10
158.5461952228488
 20
170.7487431589225
 30
0.0
 10
158.5243252586212
 20
170.7366136148471
 30
0.0
 10
158.5142244852007
 20
170.7108077516126
 30
0.0
 10
158.5056198072015
 20
170.6888241732883
 30
0.0
  0
LINE
  5
291
330
1F
100
AcDbEntity
  8
0
  6
HIDDEN
 62
     7
370
     0
100
AcDbLine
 10
167.3514060988
 20
171.1560680711
 30
0.0
 11
167.3514060988
 21
166.1560680711
 31
0.0
  0
LINE
  5
292
330
1F
100
AcDbEntity
  8
0
  6
HIDDEN
 62
     7
370
     0
100
AcDbLine
 10
105.9514060988
 20
171.7810680711
 30
0.0
 11
105.9514060988
 21
173.471356932
 31
0.0
  0
LINE
  5
293
330
1F
100
AcDbEntity
  8
0
  6
HIDDEN
 62
     7
370
     0
100
AcDbLine
 10
105.9514060988
 20
165.5310680711
 30
0.0
 11
105.9514060988
 21
163.8407792102
 31
0.0
  0
ARC
  5
294
330
1F
100
AcDbEntity
  8
0
  6
HIDDEN
 62
     7
370
     0
100
AcDbCircle
 10
134.6950765735
 20
185.0060680711
 30
0.0
 40
4.500000000000028
100
AcDbArc
 50
183.0392600505
 51
270.0
  0
LINE
  5
295
330
1F
100
AcDbEntity
  8
0
  6
HIDDEN
 62
     7
370
     0
100
AcDbLine
 10
134.6950765735
 20
180.5060680711
 30
0.0
 11
142.5305298105
 21
180.5060680711
 31
0.0
  0
LINE
  5
296
330
1F
100
AcDbEntity
  8
0
  6
HIDDEN
 62
     7
370
     0
100
AcDbLine
 10
139.2914060988
 20
174.1560680711
 30
0.0
 11
139.2914060988
 21
173.1560680711
 31
0.0
  0
LINE
  5
297
330
1F
100
AcDbEntity
  8
0
  6
HIDDEN
 62
     7
370
     0
100
AcDbLine
 10
137.2114060988
 20
174.1560680711
 30
0.0
 11
137.2114060988
 21
173.1560680711
 31
0.0
  0
LINE
  5
298
330
1F
100
AcDbEntity
  8
0
  6
HIDDEN
 62
     7
370
     0
100
AcDbLine
 10
140.2865657977
 20
174.1560680711
 30
0.0
 11
140.2865657977
 21
173.1560680711
 31
0.0
  0
ARC
  5
299
330
1F
100
AcDbEntity
  8
0
  6
HIDDEN
 62
     7
370
     0
100
AcDbCircle
 10
134.7014060988
 20
168.6560680711
 30
0.0
 40
4.5
100
AcDbArc
 50
90.0
 51
270.0
  0
LINE
  5
29A
330
1F
100
AcDbEntity
  8
0
  6
HIDDEN
 62
     7
370
     0
100
AcDbLine
 10
142.2014682219
 20
173.1560680711
 30
0.0
 11
139.0430617131
 21
173.1560680711
 31
0.0
  0
LINE
  5
29B
330
1F
100
AcDbEntity
  8
0
  6
HIDDEN
 62
     7
370
     0
100
AcDbLine
 10
139.0430617131
 20
164.1560680711
 30
0.0
 11
142.2014682219
 21
164.1560680711
 31
0.0
  0
LINE
  5
29C
330
1F
100
AcDbEntity
  8
0
  6
HIDDEN
 62
     7
370
     0
100
AcDbLine
 10
134.7014060988
 20
164.1560680711
 30
0.0
 11
137.4597504846
 21
164.1560680711
 31
0.0
  0
LINE
  5
29D
330
1F
100
AcDbEntity
  8
0
  6
HIDDEN
 62
     7
370
     0
100
AcDbLine
 10
137.4597504846
 20
173.1560680711
 30
0.0
 11
134.7014060988
 21
173.1560680711
 31
0.0
  0
LINE
  5
29E
330
1F
100
AcDbEntity
  8
0
  6
HIDDEN
 62
     7
370
     0
100
AcDbLine
 10
192.2514060988
 20
186.1780220482
 30
0.0
 11
191.4234060988
 21
186.6560680711
 31
0.0
  0
LINE
  5
29F
330
1F
100
AcDbEntity
  8
0
  6
HIDDEN
 62
     7
370
     0
100
AcDbLine
 10
183.0794060988
 20
186.6560680711
 30
0.0
 11
182.2514060988
 21
186.1780220482
 31
0.0
  0
LINE
  5
2A0
330
1F
100
AcDbEntity
  8
0
  6
HIDDEN
 62
     7
370
     0
100
AcDbLine
 10
182.2514060988
 20
186.1780220482
 30
0.0
 11
182.2514060988
 21
170.1560680711
 31
0.0
  0
LINE
  5
2A1
330
1F
100
AcDbEntity
  8
0
  6
HIDDEN
 62
     7
370
     0
100
AcDbLine
 10
192.2514060988
 20
170.1560680711
 30
0.0
 11
192.2514060988
 21
186.1780220482
 31
0.0
  0
LINE
  5
2A2
330
1F
100
AcDbEntity
  8
0
  6
HIDDEN
 62
     7
370
     0
100
AcDbLine
 10
182.2514060988
 20
170.1560680711
 30
0.0
 11
182.7514060988
 21
169.6560680711
 31
0.0
  0
LINE
  5
2A3
330
1F
100
AcDbEntity
  8
0
  6
HIDDEN
 62
     7
370
     0
100
AcDbLine
 10
191.7514060988
 20
169.6560680711
 30
0.0
 11
192.2514060988
 21
170.1560680711
 31
0.0
  0
LINE
  5
2A4
330
1F
100
AcDbEntity
  8
0
  6
HIDDEN
 62
     7
370
     0
100
AcDbLine
 10
171.0974451079
 20
180.6631515723
 30
0.0
 11
170.9496344739
 21
180.9033225678
 31
0.0
  0
LINE
  5
2A5
330
1F
100
AcDbEntity
  8
0
  6
HIDDEN
 62
     7
370
     0
100
AcDbLine
 10
167.3727566185
 20
178.7019718896
 30
0.0
 11
167.5205672526
 21
178.4618008941
 31
0.0
  0
CIRCLE
  5
2A6
330
1F
100
AcDbEntity
  8
0
  6
HIDDEN
 62
     7
370
     0
100
AcDbCircle
 10
169.2514060988
 20
179.6560680711
 30
0.0
 40
4.999999999999966
  0
LINE
  5
2A7
330
1F
100
AcDbEntity
  8
0
  6
HIDDEN
 62
     7
370
     0
100
AcDbLine
 10
167.7168463049
 20
178.2182908142
 30
0.0
 11
167.92015422
 21
178.0228528898
 31
0.0
  0
LINE
  5
2A8
330
1F
100
AcDbEntity
  8
0
  6
HIDDEN
 62
     7
370
     0
100
AcDbLine
 10
170.8308203576
 20
181.0507271665
 30
0.0
 11
170.6275124425
 21
181.2461650909
 31
0.0
  0
CIRCLE
  5
2A9
330
1F
100
AcDbEntity
  8
0
  6
HIDDEN
 62
     7
370
     0
100
AcDbCircle
 10
169.2514060988
 20
179.6560680711
 30
0.0
 40
4.999999999999977
  0
LINE
  5
2AA
330
1F
100
AcDbEntity
  8
0
  6
HIDDEN
 62
     7
370
     0
100
AcDbLine
 10
182.2264060988
 20
188.6560680711
 30
0.0
 11
183.0014060988
 21
187.8810680711
 31
0.0
  0
LINE
  5
2AB
330
1F
100
AcDbEntity
  8
0
  6
HIDDEN
 62
     7
370
     0
100
AcDbLine
 10
191.5014060988
 20
187.8810680711
 30
0.0
 11
192.2764060988
 21
188.6560680711
 31
0.0
  0
LINE
  5
2AC
330
1F
100
AcDbEntity
  8
0
  6
HIDDEN
 62
     7
370
     0
100
AcDbLine
 10
192.2764060988
 20
169.6560680711
 30
0.0
 11
191.5014060988
 21
170.4310680711
 31
0.0
  0
LINE
  5
2AD
330
1F
100
AcDbEntity
  8
0
  6
HIDDEN
 62
     7
370
     0
100
AcDbLine
 10
183.0014060988
 20
170.4310680711
 30
0.0
 11
182.2264060988
 21
169.6560680711
 31
0.0
  0
LINE
  5
2AE
330
1F
100
AcDbEntity
  8
0
  6
HIDDEN
 62
     7
370
     0
100
AcDbLine
 10
183.0014060988
 20
187.8810680711
 30
0.0
 11
183.0014060988
 21
170.4310680711
 31
0.0
  0
LINE
  5
2AF
330
1F
100
AcDbEntity
  8
0
  6
HIDDEN
 62
     7
370
     0
100
AcDbLine
 10
191.5014060988
 20
170.4310680711
 30
0.0
 11
191.5014060988
 21
187.8810680711
 31
0.0
  0
LINE
  5
2B0
330
1F
100
AcDbEntity
  8
0
  6
HIDDEN
 62
     7
370
     0
100
AcDbLine
 10
166.6864910668
 20
179.8514708638
 30
0.0
 11
158.4944073329
 21
170.6968194005
 31
0.0
  0
LINE
  5
2B1
330
1F
100
AcDbEntity
  8
0
  6
HIDDEN
 62
     7
370
     0
100
AcDbLine
 10
162.0376305729
 20
168.3580427365
 30
0.0
 11
169.8163211308
 21
177.050727432
 31
0.0
  0
LINE
  5
2B2
330
1F
100
AcDbEntity
  8
0
  6
HIDDEN
 62
     7
370
     0
100
AcDbLine
 10
122.2514060988
 20
152.4488673861
 30
0.0
 11
122.3455668743
 21
153.1188561173
 31
0.0
  0
LINE
  5
2B3
330
1F
100
AcDbEntity
  8
0
  6
HIDDEN
 62
     7
370
     0
100
AcDbLine
 10
122.3455668743
 20
184.193280025
 30
0.0
 11
122.2514060988
 21
184.8632687562
 31
0.0
  0
ARC
  5
2B4
330
1F
100
AcDbEntity
  8
0
  6
HIDDEN
 62
     7
370
     0
100
AcDbCircle
 10
121.7513993461
 20
153.2023609177
 30
0.0
 40
0.6000067526677242
100
AcDbArc
 50
352.0
 51
0.0
  0
ARC
  5
2B5
330
1F
100
AcDbEntity
  8
0
  6
HIDDEN
 62
     7
370
     0
100
AcDbCircle
 10
121.7513993461
 20
153.2023609177
 30
0.0
 40
0.6000067526677242
100
AcDbArc
 50
0.0
 51
33.5571153394
  0
ARC
  5
2B6
330
1F
100
AcDbEntity
  8
0
  6
HIDDEN
 62
     7
370
     0
100
AcDbCircle
 10
121.7513993461
 20
184.1097752246
 30
0.0
 40
0.6000067526677183
100
AcDbArc
 50
348.75
 51
8.0
  0
LWPOLYLINE
  5
2B7
330
1F
100
AcDbEntity
  8
0
  6
HIDDEN
 62
     7
370
     0
100
AcDbPolyline
 90
        3
 70
   128
 43
0.0
 10
122.3398771373
 20
183.992719714
 10
122.3057333043
 20
183.8801625811
 10
122.2514060988
 20
183.7781107096
  0
LINE
  5
2B8
330
1F
100
AcDbEntity
  8
0
  6
HIDDEN
 62
     7
370
     0
100
AcDbLine
 10
122.3514060988
 20
153.2023609177
 30
0.0
 11
122.3514060988
 21
184.1097752246
 31
0.0
  0
ARC
  5
2B9
330
1F
100
AcDbEntity
  8
0
  6
HIDDEN
 62
     7
370
     0
100
AcDbCircle
 10
118.0755828267
 20
160.9060680711
 30
0.0
 40
5.0
100
AcDbArc
 50
270.0
 51
326.6329870308
  0
ARC
  5
2BA
330
1F
100
AcDbEntity
  8
0
  6
HIDDEN
 62
     7
370
     0
100
AcDbCircle
 10
118.0755828267
 20
176.4060680711
 30
0.0
 40
5.0
100
AcDbArc
 50
33.3670129692
 51
90.0
  0
ARC
  5
2BB
330
1F
100
AcDbEntity
  8
0
  6
HIDDEN
 62
     7
370
     0
100
AcDbCircle
 10
111.784034043
 20
156.3060680711
 30
0.0
 40
0.4000000000000069
100
AcDbArc
 50
210.0
 51
270.0
  0
ARC
  5
2BC
330
1F
100
AcDbEntity
  8
0
  6
HIDDEN
 62
     7
370
     0
100
AcDbCircle
 10
111.784034043
 20
181.0060680711
 30
0.0
 40
0.4000000000000069
100
AcDbArc
 50
90.0
 51
150.0
  0
LINE
  5
2BD
330
1F
100
AcDbEntity
  8
0
  6
HIDDEN
 62
     7
370
     0
100
AcDbLine
 10
111.784034043
 20
155.9060680711
 30
0.0
 11
118.0755828267
 21
155.9060680711
 31
0.0
  0
LINE
  5
2BE
330
1F
100
AcDbEntity
  8
0
  6
HIDDEN
 62
     7
370
     0
100
AcDbLine
 10
118.0755828267
 20
181.4060680711
 30
0.0
 11
111.784034043
 21
181.4060680711
 31
0.0
  0
LINE
  5
2BF
330
1F
100
AcDbEntity
  8
0
  6
HIDDEN
 62
     7
370
     0
100
AcDbLine
 10
111.4376238815
 20
181.2060680711
 30
0.0
 11
110.2540558296
 21
179.1560680711
 31
0.0
  0
LINE
  5
2C0
330
1F
100
AcDbEntity
  8
0
  6
HIDDEN
 62
     7
370
     0
100
AcDbLine
 10
110.2540558296
 20
158.1560680711
 30
0.0
 11
111.4376238815
 21
156.1060680711
 31
0.0
  0
ARC
  5
2C1
330
1F
100
AcDbEntity
  8
0
  6
HIDDEN
 62
     7
370
     0
100
AcDbCircle
 10
129.2014060988
 20
158.7810680711
 30
0.0
 40
1.0
100
AcDbArc
 50
218.6821874535
 51
0.0
  0
ARC
  5
2C2
330
1F
100
AcDbEntity
  8
0
  6
HIDDEN
 62
     7
370
     0
100
AcDbCircle
 10
129.2014060988
 20
178.5310680711
 30
0.0
 40
1.0
100
AcDbArc
 50
0.0
 51
141.3178125465
  0
LINE
  5
2C3
330
1F
100
AcDbEntity
  8
0
  6
HIDDEN
 62
     7
370
     0
100
AcDbLine
 10
103.3014060988
 20
158.1560680711
 30
0.0
 11
110.2540558296
 21
158.1560680711
 31
0.0
  0
LINE
  5
2C4
330
1F
100
AcDbEntity
  8
0
  6
HIDDEN
 62
     7
370
     0
100
AcDbLine
 10
110.2540558296
 20
179.1560680711
 30
0.0
 11
103.3014060988
 21
179.1560680711
 31
0.0
  0
LINE
  5
2C5
330
1F
100
AcDbEntity
  8
0
  6
HIDDEN
 62
     7
370
     0
100
AcDbLine
 10
122.2514060988
 20
158.1560680711
 30
0.0
 11
128.420781349
 21
158.1560680711
 31
0.0
  0
LINE
  5
2C6
330
1F
100
AcDbEntity
  8
0
  6
HIDDEN
 62
     7
370
     0
100
AcDbLine
 10
128.420781349
 20
179.1560680711
 30
0.0
 11
122.2514060988
 21
179.1560680711
 31
0.0
  0
LINE
  5
2C7
330
1F
100
AcDbEntity
  8
0
  6
HIDDEN
 62
     7
370
     0
100
AcDbLine
 10
102.3514060988
 20
157.6075853154
 30
0.0
 11
103.3014060988
 21
158.1560680711
 31
0.0
  0
LINE
  5
2C8
330
1F
100
AcDbEntity
  8
0
  6
HIDDEN
 62
     7
370
     0
100
AcDbLine
 10
103.3014060988
 20
179.1560680711
 30
0.0
 11
102.3514060988
 21
179.7045508269
 31
0.0
  0
LINE
  5
2C9
330
1F
100
AcDbEntity
  8
0
  6
HIDDEN
 62
     7
370
     0
100
AcDbLine
 10
135.5514060988
 20
162.4060680711
 30
0.0
 11
138.0514060988
 21
162.4060680711
 31
0.0
  0
LINE
  5
2CA
330
1F
100
AcDbEntity
  8
0
  6
HIDDEN
 62
     7
370
     0
100
AcDbLine
 10
138.0514060988
 20
174.9060680711
 30
0.0
 11
135.5514060988
 21
174.9060680711
 31
0.0
  0
LINE
  5
2CB
330
1F
100
AcDbEntity
  8
0
  6
HIDDEN
 62
     7
370
     0
100
AcDbLine
 10
130.2014060988
 20
162.6560680711
 30
0.0
 11
130.7014060988
 21
163.1560680711
 31
0.0
  0
LINE
  5
2CC
330
1F
100
AcDbEntity
  8
0
  6
HIDDEN
 62
     7
370
     0
100
AcDbLine
 10
130.7014060988
 20
174.1560680711
 30
0.0
 11
130.2014060988
 21
174.6560680711
 31
0.0
  0
LINE
  5
2CD
330
1F
100
AcDbEntity
  8
0
  6
HIDDEN
 62
     7
370
     0
100
AcDbLine
 10
130.7014060988
 20
163.1560680711
 30
0.0
 11
134.7014060988
 21
163.1560680711
 31
0.0
  0
LINE
  5
2CE
330
1F
100
AcDbEntity
  8
0
  6
HIDDEN
 62
     7
370
     0
100
AcDbLine
 10
134.7014060988
 20
174.1560680711
 30
0.0
 11
130.7014060988
 21
174.1560680711
 31
0.0
  0
ARC
  5
2CF
330
1F
100
AcDbEntity
  8
0
  6
HIDDEN
 62
     7
370
     0
100
AcDbCircle
 10
124.5514060988
 20
153.6560680711
 30
0.0
 40
0.3000000000000114
100
AcDbArc
 50
90.0
 51
180.0
  0
ARC
  5
2D0
330
1F
100
AcDbEntity
  8
0
  6
HIDDEN
 62
     7
370
     0
100
AcDbCircle
 10
133.9514060988
 20
153.6560680711
 30
0.0
 40
0.2999999999999829
100
AcDbArc
 50
0.0
 51
90.0
  0
LINE
  5
2D1
330
1F
100
AcDbEntity
  8
0
  6
HIDDEN
 62
     7
370
     0
100
AcDbLine
 10
124.2514060988
 20
153.6560680711
 30
0.0
 11
124.2514060988
 21
148.6560680711
 31
0.0
  0
LINE
  5
2D2
330
1F
100
AcDbEntity
  8
0
  6
HIDDEN
 62
     7
370
     0
100
AcDbLine
 10
134.2514060988
 20
148.6560680711
 30
0.0
 11
134.2514060988
 21
153.6560680711
 31
0.0
  0
LINE
  5
2D3
330
1F
100
AcDbEntity
  8
0
  6
HIDDEN
 62
     7
370
     0
100
AcDbLine
 10
138.0514060988
 20
166.1560680711
 30
0.0
 11
167.3514060988
 21
166.1560680711
 31
0.0
  0
LINE
  5
2D4
330
1F
100
AcDbEntity
  8
0
  6
HIDDEN
 62
     7
370
     0
100
AcDbLine
 10
167.3514060988
 20
171.1560680711
 30
0.0
 11
138.0514060988
 21
171.1560680711
 31
0.0
  0
LINE
  5
2D5
330
1F
100
AcDbEntity
  8
0
  6
HIDDEN
 62
     7
370
     0
100
AcDbLine
 10
167.3514060988
 20
166.1560680711
 30
0.0
 11
168.8535576464
 21
168.6560680711
 31
0.0
  0
LINE
  5
2D6
330
1F
100
AcDbEntity
  8
0
  6
HIDDEN
 62
     7
370
     0
100
AcDbLine
 10
168.8535576464
 20
168.6560680711
 30
0.0
 11
167.3514060988
 21
171.1560680711
 31
0.0
  0
LINE
  5
2D7
330
1F
100
AcDbEntity
  8
0
  6
HIDDEN
 62
     7
370
     0
100
AcDbLine
 10
158.4944073329
 20
170.6968194005
 30
0.0
 11
158.494374872
 21
170.6967831255
 31
0.0
  0
LINE
  5
2D8
330
1F
100
AcDbEntity
  8
0
  6
HIDDEN
 62
     7
370
     0
100
AcDbLine
 10
162.0337497549
 20
168.3537059234
 30
0.0
 11
162.0376305729
 21
168.3580427365
 31
0.0
  0
DIMENSION
  5
2D9
330
1F
100
AcDbEntity
  8
VERMASSUNG
100
AcDbDimension
  2
*D5
 10
177.2514060988
 20
129.6634812879
 30
0.0
 11
186.5611504727
 21
129.6634812879
 31
0.0
 70
   160
 71
     2
 42
-1.0
  3
SLDDIMSTYLE0
100
AcDbAlignedDimension
 13
197.2514060988
 23
136.6560680711
 33
0.0
 14
177.2514060988
 24
148.6560680711
 34
0.0
100
AcDbRotatedDimension
  0
DIMENSION
  5
2E3
330
1F
100
AcDbEntity
  8
VERMASSUNG
100
AcDbDimension
  2
*D6
 10
208.1778709141
 20
148.6560680711
 30
0.0
 11
208.1778709141
 21
158.277110563
 31
0.0
 70
   160
 71
     2
 42
-1.0
  3
SLDDIMSTYLE0
100
AcDbAlignedDimension
 13
199.2514060988
 23
168.6560680711
 33
0.0
 14
197.2514060988
 24
148.6560680711
 34
0.0
 50
90.0
100
AcDbRotatedDimension
  0
DIMENSION
  5
2ED
330
1F
100
AcDbEntity
  8
VERMASSUNG
100
AcDbDimension
  2
*D7
 10
214.1778709141
 20
136.6560680711
 30
0.0
 11
214.1778709141
 21
151.5550622825
 31
0.0
 70
   160
 71
     2
 42
-1.0
  3
SLDDIMSTYLE0
100
AcDbAlignedDimension
 13
199.2514060988
 23
168.6560680711
 33
0.0
 14
197.2514060988
 24
136.6560680711
 34
0.0
 50
90.0
100
AcDbRotatedDimension
  0
DIMENSION
  5
2F7
330
1F
100
AcDbEntity
  8
VERMASSUNG
100
AcDbDimension
  2
*D8
 10
220.1778709141
 20
136.6560680711
 30
0.0
 11
220.1778709141
 21
160.9876139019
 31
0.0
 70
   160
 71
     2
 42
-1.0
  3
SLDDIMSTYLE0
100
AcDbAlignedDimension
 13
197.2514060988
 23
188.6560680711
 33
0.0
 14
197.2514060988
 24
136.6560680711
 34
0.0
 50
90.0
100
AcDbRotatedDimension
  0
LINE
  5
301
330
1F
100
AcDbEntity
  8
VERMASSUNG
  6
CENTERX2
 62
     7
370
     0
100
AcDbLine
 10
129.2514060988
 20
146.656068183
 30
0.0
 11
129.2514060988
 21
155.6560680711
 31
0.0
  0
LINE
  5
302
330
1F
100
AcDbEntity
  8
VERMASSUNG
  6
CENTERX2
 62
     7
370
     0
100
AcDbLine
 10
100.2695977586
 20
168.6560680711
 30
0.0
 11
199.2514060988
 21
168.6560680711
 31
0.0
  0
OLE2FRAME
  5
303
330
1F
100
AcDbEntity
  8
0
100
AcDbOle2Frame
 70
     2
  3
Bitmap Image
 10
13.8511154363
 20
38.264191557
 30
0.0
 11
51.6290888628
 21
31.9806341108
 31
0.0
 71
     2
 72
     0
 73
     1
 90
    12928
310
80552BED0767C5B32B40DDAF6807D121434000000000000000006FFBDDFB85D0
310
4940DDAF6807D121434000000000000000006FFBDDFB85D04940416F4BD60AFB
310
3F4000000000000000002BED0767C5B32B40416F4BD60AFB3F40000000000000
310
0000000000000100000000010000010000000100000000000100000000320000
310
D0CF11E0A1B11AE1000000000000000000000000000000003E000300FEFF0900
310
0600000000000000000000000100000001000000000000000010000002000000
310
01000000FEFFFFFF0000000000000000FFFFFFFFFFFFFFFFFFFFFFFFFFFFFFFF
310
FFFFFFFFFFFFFFFFFFFFFFFFFFFFFFFFFFFFFFFFFFFFFFFFFFFFFFFFFFFFFFFF
310
FFFFFFFFFFFFFFFFFFFFFFFFFFFFFFFFFFFFFFFFFFFFFFFFFFFFFFFFFFFFFFFF
310
FFFFFFFFFFFFFFFFFFFFFFFFFFFFFFFFFFFFFFFFFFFFFFFFFFFFFFFFFFFFFFFF
310
FFFFFFFFFFFFFFFFFFFFFFFFFFFFFFFFFFFFFFFFFFFFFFFFFFFFFFFFFFFFFFFF
310
FFFFFFFFFFFFFFFFFFFFFFFFFFFFFFFFFFFFFFFFFFFFFFFFFFFFFFFFFFFFFFFF
310
FFFFFFFFFFFFFFFFFFFFFFFFFFFFFFFFFFFFFFFFFFFFFFFFFFFFFFFFFFFFFFFF
310
FFFFFFFFFFFFFFFFFFFFFFFFFFFFFFFFFFFFFFFFFFFFFFFFFFFFFFFFFFFFFFFF
310
FFFFFFFFFFFFFFFFFFFFFFFFFFFFFFFFFFFFFFFFFFFFFFFFFFFFFFFFFFFFFFFF
310
FFFFFFFFFFFFFFFFFFFFFFFFFFFFFFFFFFFFFFFFFFFFFFFFFFFFFFFFFFFFFFFF
310
FFFFFFFFFFFFFFFFFFFFFFFFFFFFFFFFFFFFFFFFFFFFFFFFFFFFFFFFFFFFFFFF
310
FFFFFFFFFFFFFFFFFFFFFFFFFFFFFFFFFFFFFFFFFFFFFFFFFFFFFFFFFFFFFFFF
310
FFFFFFFFFFFFFFFFFFFFFFFFFFFFFFFFFFFFFFFFFFFFFFFFFFFFFFFFFFFFFFFF
310
FFFFFFFFFFFFFFFFFFFFFFFFFFFFFFFFFFFFFFFFFFFFFFFFFFFFFFFFFFFFFFFF
310
FDFFFFFFFEFFFFFFFEFFFFFFFEFFFFFF05000000060000000700000008000000
310
090000000A0000000B0000000C0000000D0000000E0000000F00000010000000
310
11000000120000001300000014000000150000001600000017000000FEFFFFFF
310
FFFFFFFFFFFFFFFFFFFFFFFFFFFFFFFFFFFFFFFFFFFFFFFFFFFFFFFFFFFFFFFF
310
FFFFFFFFFFFFFFFFFFFFFFFFFFFFFFFFFFFFFFFFFFFFFFFFFFFFFFFFFFFFFFFF
310
FFFFFFFFFFFFFFFFFFFFFFFFFFFFFFFFFFFFFFFFFFFFFFFFFFFFFFFFFFFFFFFF
310
FFFFFFFFFFFFFFFFFFFFFFFFFFFFFFFFFFFFFFFFFFFFFFFFFFFFFFFFFFFFFFFF
310
FFFFFFFFFFFFFFFFFFFFFFFFFFFFFFFFFFFFFFFFFFFFFFFFFFFFFFFFFFFFFFFF
310
FFFFFFFFFFFFFFFFFFFFFFFFFFFFFFFFFFFFFFFFFFFFFFFFFFFFFFFFFFFFFFFF
310
FFFFFFFFFFFFFFFFFFFFFFFFFFFFFFFFFFFFFFFFFFFFFFFFFFFFFFFFFFFFFFFF
310
FFFFFFFFFFFFFFFFFFFFFFFFFFFFFFFFFFFFFFFFFFFFFFFFFFFFFFFFFFFFFFFF
310
FFFFFFFFFFFFFFFFFFFFFFFFFFFFFFFFFFFFFFFFFFFFFFFFFFFFFFFFFFFFFFFF
310
FFFFFFFFFFFFFFFFFFFFFFFFFFFFFFFFFFFFFFFFFFFFFFFFFFFFFFFFFFFFFFFF
310
FFFFFFFFFFFFFFFFFFFFFFFFFFFFFFFFFFFFFFFFFFFFFFFFFFFFFFFFFFFFFFFF
310
FFFFFFFFFFFFFFFFFFFFFFFFFFFFFFFFFFFFFFFFFFFFFFFFFFFFFFFFFFFFFFFF
310
FFFFFFFFFFFFFFFFFFFFFFFFFFFFFFFFFFFFFFFFFFFFFFFFFFFFFFFFFFFFFFFF
310
52006F006F007400200045006E00740072007900000000000000000000000000
310
0000000000000000000000000000000000000000000000000000000000000000
310
16000500FFFFFFFFFFFFFFFF020000000A00030000000000C000000000000046
310
00000000000000000000000030D4BFD58909CC0103000000C000000000000000
310
01004F006C006500000000000000000000000000000000000000000000000000
310
0000000000000000000000000000000000000000000000000000000000000000
310
0A000200FFFFFFFFFFFFFFFFFFFFFFFF00000000000000000000000000000000
310
0000000000000000000000000000000000000000000000001400000000000000
310
010043006F006D0070004F0062006A0000000000000000000000000000000000
310
0000000000000000000000000000000000000000000000000000000000000000
310
120002010100000003000000FFFFFFFF00000000000000000000000000000000
310
0000000000000000000000000000000000000000010000004D00000000000000
310
01004F006C006500310030004E00610074006900760065000000000000000000
310
0000000000000000000000000000000000000000000000000000000000000000
310
1A000200FFFFFFFFFFFFFFFFFFFFFFFF00000000000000000000000000000000
310
0000000000000000000000000000000000000000040000002426000000000000
310
FEFFFFFF02000000FEFFFFFFFFFFFFFFFFFFFFFFFFFFFFFFFFFFFFFFFFFFFFFF
310
FFFFFFFFFFFFFFFFFFFFFFFFFFFFFFFFFFFFFFFFFFFFFFFFFFFFFFFFFFFFFFFF
310
FFFFFFFFFFFFFFFFFFFFFFFFFFFFFFFFFFFFFFFFFFFFFFFFFFFFFFFFFFFFFFFF
310
FFFFFFFFFFFFFFFFFFFFFFFFFFFFFFFFFFFFFFFFFFFFFFFFFFFFFFFFFFFFFFFF
310
FFFFFFFFFFFFFFFFFFFFFFFFFFFFFFFFFFFFFFFFFFFFFFFFFFFFFFFFFFFFFFFF
310
FFFFFFFFFFFFFFFFFFFFFFFFFFFFFFFFFFFFFFFFFFFFFFFFFFFFFFFFFFFFFFFF
310
FFFFFFFFFFFFFFFFFFFFFFFFFFFFFFFFFFFFFFFFFFFFFFFFFFFFFFFFFFFFFFFF
310
FFFFFFFFFFFFFFFFFFFFFFFFFFFFFFFFFFFFFFFFFFFFFFFFFFFFFFFFFFFFFFFF
310
FFFFFFFFFFFFFFFFFFFFFFFFFFFFFFFFFFFFFFFFFFFFFFFFFFFFFFFFFFFFFFFF
310
FFFFFFFFFFFFFFFFFFFFFFFFFFFFFFFFFFFFFFFFFFFFFFFFFFFFFFFFFFFFFFFF
310
FFFFFFFFFFFFFFFFFFFFFFFFFFFFFFFFFFFFFFFFFFFFFFFFFFFFFFFFFFFFFFFF
310
FFFFFFFFFFFFFFFFFFFFFFFFFFFFFFFFFFFFFFFFFFFFFFFFFFFFFFFFFFFFFFFF
310
FFFFFFFFFFFFFFFFFFFFFFFFFFFFFFFFFFFFFFFFFFFFFFFFFFFFFFFFFFFFFFFF
310
FFFFFFFFFFFFFFFFFFFFFFFFFFFFFFFFFFFFFFFFFFFFFFFFFFFFFFFFFFFFFFFF
310
FFFFFFFFFFFFFFFFFFFFFFFFFFFFFFFFFFFFFFFFFFFFFFFFFFFFFFFFFFFFFFFF
310
FFFFFFFFFFFFFFFFFFFFFFFFFFFFFFFFFFFFFFFFFFFFFFFFFFFFFFFFFFFFFFFF
310
010000020000000000000000000000000000000061007200650064005C003100
310
30002E0030005C0044004C004C005300680061007200650064005C003B004300
310
0100FEFF030A0000FFFFFFFF0A00030000000000C00000000000004607000000
310
5042727573680007000000504272757368000700000050427275736800F439B2
310
71000000000000000000000000004100540049002E004100430045005C004300
310
6F00720065002D005300740061007400690063003B0043003A005C0050007200
310
6F006700720061006D002000460069006C006500730020002800780038003600
310
29005C0043006F006D006D006F006E002000460069006C00650073005C004100
310
750074006F006400650073006B0020005300680061007200650064005C003B00
310
43003A005C00500072006F006700720061006D002000460069006C0065007300
310
5C004E006F0072006D0061006E005C004E0070006D005C00420069006E000000
310
43003A005C00500072006F006700720061006D002000460069006C0065007300
310
5C0053006F006C006900640057006F0072006B007300200043006F0072007000
310
5C0053006F006C006900640057006F0072006B00730020002800320029005C00
310
730065007400750070005C0069003300380036005C0073007700610063007400
310
770069007A002E006500780065000000220043003A005C00500072006F006700
310
20260000424D0E260000000000003E00000028000000B40200006E0000000100
310
01000000000000000000130B0000130B00000200000002000000000000FFFFFF
310
FFFFFFFFFFFFFFFFFFFFFFFFFFFFFFFFFFFFFFFFFFFFFFFFFFFFFFFFFFFFFFFF
310
FFFFFFFFFFFFFFFFFFFFFFFFFFFFFFFFFFFFFFFFFFFFFFFFFFFFFFFFFFFFFFFF
310
FFFFFFFFFFFFFFFFFFFFFFFFFFFFFFFFFFFFFFFFFFFFFFFFF000FFFFFFFFFFFF
310
FFFFFFFFFFFFFFFFFFFFFFFFFFFFFFFFFFFFFFFFFFFFFFFFFFFFFFFFFFFFFFFF
310
FFFFFFFFFFFFFFFFFFFFFFFFFFFFFFFFFFFFFFFFFFFFFFFFFFFFFFFFFFFFFFFF
310
FFFFFFFFFFFFFFFFFFFFFFFFFFFFFFFFF000FFFFFFFFFFFFFFFFFFFFFFFFFFFF
310
FFFFFFFFFFFFFFFFFFFFFFFFFFFFFFFFFFFFFFFFFFFFFFFFFFFFFFFFFFFFFFFF
310
FFFFFFFFFFFFFFFFFFFFFFFFFFFFFFFFFFFFFFFFFFFFFFFFFFFFFFFFFFFFFFFF
310
FFFFFFFFFFFFFFFFF000FFFFFFFFFFFFFFFFFFFFFFFFFFFFFFFFFFFFFFFFFFFF
310
FFFFFFFFFFFFFFFFFFFFFFFFFFFFFFFFFFFFFFFFFFFFFFFFFFFFFFFFFFFFFFFF
310
FFFFFFFFFFFFFFFFFFFFFFFFFFFFFFFFFFFFFFFFFFFFFFFFFFFFFFFFFFFFFFFF
310
F000FFFFFFFFFFFFFFFFFFFFFFFFFFFFFFFFFFFFFFFFFFFFFFFFFFFFFFFFFFFF
310
FFFFFFFFFFFFFFFFFFFFFFFFFFFFFFFFFFFFFFFFFFFFFFFFFFFFFFFFFFFFFFFF
310
FFFFFFFFFFFFFFFFFFFFFFFFFFFFFFFFFFFFFFFFFFFFFFFFF000FFFFFFFFFFFF
310
FFFFFFFFFFFFFFFFFFFFFFFFFFFFFFFFFFFFFFFFFFFFFFFFFFFFFFFFFFFFFFFF
310
FFFFFFFFFFFFFFFFFFFFFFFFFFFFFFFFFFFFFFFFFFFFFFFFFFFFFFFFFFFFFFFF
310
FFFFFFFFFFFFFFFFFFFFFFFFFFFFFFFFF000FFFFFFFFFFFFFFFFFFFFFFFFFFFF
310
FFFFFFFFFFFFFFFFFFFFFFFFFFFFFFFFFFFFFFFFFFFFFFFFFFFFFFFFFFFFFFFF
310
FFFFFFFFFFFFFFFFFFFFFFFFFFFFFFFFFFFFFFFFFFFFFFFFFFFFFFFFFFFFFFFF
310
FFFFFFFFFFFFFFFFF000FFFFFFFFFFFFFFFFFFFFFFFFFFFFFFFFFFFFFFFFFFFF
310
FFFFFFFFFFFFFFFFFFFFFFFFFFFFFFFFFFFFFFFFFFFFFFFFFFFFFFFFFFFFFFFF
310
FFFFFFFFFFFFFFFFFFFFFFFFFFFFFFFFFFFFFFFFFFFFFFFFFFFFFFFFFFFFFFFF
310
F000FFFFFFFFFFFFFFFFFFFFFFFFFFFFFFFFFFFFFFFFFFFFFFFFFFFFFFFFFFFF
310
FFFFFFFFFFFFFFFFFFFFFFFFFFFFFFFFFFFFFFFFFFFFFFFFFFFFFFFFFFFFFFFF
310
FFFFFFFFFFFFFFFFFFFFFFFFFFFFFFFFFFFFFFFFFFFFFFFFF000FFFFFFFFFFFF
310
FFFFFFFFFFFFFFFFFFFFFFFFFFFFFFFFFFFFFFFFFFFFFFFFFFFFFFFFFFFFFFFF
310
FFFFFFFFFFFFFFFFFFFFFFFFFFFFFFFFFFFFFFFFFFFFFFFFFFFFFFFFFFFFFFFF
310
FFFFFFFFFFFFFFFFFFFFFFFFFFFFFFFFF000FFFFFFFFFFFFFFFFFFFFFFFFFFFF
310
FFFFFFFFFFFFFFFFFFFFFFFFFFFFFFFFFFFFFFFFFFFFFFFFFFFFFFFFFFFFFFFF
310
FFFFFFFFFFFFFFFFFFFFFFFFFFFFFFFFFFFFFFFFFFFFFFFFFFFFFFFFFFFFFFFF
310
FFFFFFFFFFFFFFFFF000FFFFFFFFFFFFFFFFFFFFFFFFFFFFFFFFFFFFFFFFFFFF
310
FFFFFFFFFFFFFFFFFFFFFFFFFFFFFFFFFFFFFFFFFFFFFFFFFFFFFFFFFFFFFFFF
310
FFFFFFFFFFFFFFFFFFFFFFFFFFFFFFFFFFFFFFFFFFFFFFFFFFFFFFFFFFFFFFFF
310
F000FFFFFFFFFFFFFFFFFFFFFFFFFFFFFFFFFFFFFFFFFFFFFFFFFFFFFFFFFFFF
310
FFFFFFFFFFFFFFFFFFFFFFFFFFFFFFFFFFFFFFFFFFFFFFFFFFFFFFFFFFFFFFFF
310
FFFFFFFFFFFFFFFFFFFFFFFFFFFFFFFFFFFFFFFFFFFFFFFFF000FFFFFFFFFFFF
310
FFFFFFFFFFFFFFFFFFFFFFFFFFFFFFFFFFFFFFFFFFFFFFFFFFFFFFFFFFFFFFFF
310
FFFFFFFFFFFFFFFFFFFFFFFFFFFFFFFFFFFFFFFFFFFFFFFFFFFFFFFFFFFFFFFF
310
FFFFFFFFFFFFFFFFFFFFFFFFFFFFFFFFF000FFFFFFFFFFFFFFFFFFFFFFFFFFFF
310
FFFFFFFFFFFFFFFFFFFFFFFFFFFFFFFFFFFFFFFFFFFFFFFFFFFFFFFFFFFFFFFF
310
FFFFFFFFFFFFFFFFFFFFFFFFFFFFFFFFFFFFFFFFFFFFFFFFFFFFFFFFFFFFFFFF
310
FFFFFFFFFFFFFFFFF000FFFFFFFFFFFFFFFFFFFFFFFFFFFFFFFFFFFFFFFFFFFF
310
FFFFFFFFFFFFFFFFFFFFFFFFFFFFFFFFFFFFFFFFFFFFFFFFFFFFFFFFFFFFFFFF
310
FFFFFFFFFFFFFFFFFFFFFFFFFFFFFFFFFFFFFFFFFFFFFFFFFFFFFFFFFFFFFFFF
310
F000FFFFFFFFFFFFFFFFFFFFFFFFFFFFFFFFFFFFFFFFFFFFFFFFFFFFFFFFFFFF
310
FFFFFFFFFFFFFFFFFFFFFFFFFFFFFFFFFFFFFFFFFFFFFFFFFFFFFFFFFFFFFFFF
310
FFFFFFFFFFFFFFFFFFFFFFFFFFFFFFFFFFFFFFFFFFFFFFFFF000FFFFFFFFFFFF
310
FFFFFFFFFFFFFFFFFFFFFFFFFFFFFFFFFFFFFFFFFFFFFFFFFFFFFFFFFFFFFFFF
310
FFFFFFFFFFFFFFFFFFFFFFFFFFFFFFFFFFFFFFFFFFFFFFFFFFFFFFFFFFFFFFFF
310
FFFFFFFFFFFFFFFFFFFFFFFFFFFFFFFFF000FFFFFFFFFFFFFFFFFFFFFFFFFFFF
310
FFFFFFFFFFFFFFFFFFFFFFFFFFFFFFFFFFFFFFFFFFFFFFFFFFFFFFFFFFFFFFFF
310
FFFFFFFFFFFFFFFFFFFFFFFFFFFFFFFFFFFFFFFFFFFFFFFFFFFFFFFFFFFFFFFF
310
FFFFFFFFFFFFFFFFF000FFFFF80003FFFFFFFFFFFFFFFFFFFFFFFFFFFFFFFFFF
310
FFFFF00007FFFFFFFFFF00007FFFFFF800000000000000007FFFFFFFFFFFFFFF
310
FFFFFFFC001FFFFFFFFFFFFFFC001FFFFFFFFFFFFFFFFFFFFFFFFFFE0007FFFF
310
F000FFFF8000007FFFFFFFF8000FFFFFC0007FFFFF80007FFFFF0000007FFFFF
310
FFF8000007FFFFF800000000000000007FFFFFF0001FFFFFFFFFFFC00001FFFF
310
FFFFFFFFC00001FFFFFFFF000000000003FFFFE000007FFFF000FFFE0000000F
310
FFFFFFF0000FFFFF80007FFFFF80007FFFFC0000001FFFFFFFC0000001FFFFF8
310
00000000000000007FFFFFF0001FFFFFFFFFFE0000003FFFFFFFFFFE0000003F
310
FFFFFF000000000003FFFF0000000FFFF000FFF800000003FFFFFFF00007FFFF
310
80007FFFFF80007FFFF000000007FFFFFF000000003FFFF80000000000000000
310
7FFFFFF0001FFFFFFFFFF80000000FFFFFFFFFF80000000FFFFFFF0000000000
310
03FFFC00000003FFF000FFE000000000FFFFFFF00007FFFF80003FFFFF80007F
310
FFC000000001FFFFFC000000001FFFF800000000000000007FFFFFF0001FFFFF
310
FFFFE000000003FFFFFFFFE000000003FFFFFF000000000003FFF000000000FF
310
F000FF80000000007FFFFFF00007FFFF80003FFFFF80007FFF8000000000FFFF
310
F80000000007FFF800000000000000007FFFFFF0001FFFFFFFFFC000000001FF
310
FFFFFFC000000001FFFFFF000000000003FFC0000000007FF000FF0000000000
310
3FFFFFE00007FFFF00003FFFFF80007FFE00000000003FFFF00000000003FFF8
310
00000000000000007FFFFFF0001FFFFFFFFF8000000000FFFFFFFF8000000000
310
FFFFFF000000000003FF80000000003FF000FE00000000001FFFFFE00003FFFF
310
00003FFFFF80007FFC00000000001FFFE00000000001FFF8000001FFFE000000
310
7FFFFFF0001FFFFFFFFE00000000003FFFFFFE00000000003FFFFF0000000000
310
03FF00000000001FF000FC00000000000FFFFFE00003FFFF00001FFFFF80007F
310
F800000000001FFFC00000000000FFF8000001FFFE0000007FFFFFF0001FFFFF
310
FFFC00000000001FFFFFFC00000000001FFFFF000000000003FE00000000000F
310
F000F8000000000007FFFFE00003FFFF00001FFFFF80007FF800000000000FFF
310
800000000000FFF8000001FFFE0000007FFFFFF0001FFFFFFFF800000000000F
310
FFFFF800000000000FFFFF000000000003FC000000000007F000F80000000000
310
03FFFFC00003FFFE00001FFFFF80007FF0000000000007FF0000000000007FF8
310
000001FFFE0000007FFFFFF0001FFFFFFFF0000000000007FFFFF00000000000
310
07FFFF000000000003F8000000000003F000F0000000000003FFFFC00001FFFE
310
00001FFFFF80007FE0000000000007FE0000000000003FF8000001FFFE000000
310
7FFFFFF0001FFFFFFFF0000000000007FFFFF0000000000007FFFF0000000000
310
03F800001F800003F000E00001FFF00001FFFFC00001FFFE00000FFFFF80007F
310
E00001FFE00003FE00001FFF00003FF8000001FFFE0000007FFFFFF0001FFFFF
310
FFE000003E000003FFFFE000003E000003FFFF000000000003F00001FFF80001
310
F000E00007FFFC0001FFFFC00001FFFE00000FFFFF80007FC0000FFFFC0003FC
310
0000FFFFC0001FF8000001FFFE0000007FFFFFF0001FFFFFFFC00003FFE00001
310
FFFFC00003FFE00001FFFF0001FFFFFFFFF00007FFFE0001F000E0000FFFFF00
310
00FFFF800001FFFC00000FFFFF80007FC0001FFFFE0001FC0001FFFFE0001FF8
310
000001FFFE0000007FFFFFF0001FFFFFFF80000FFFF80000FFFF80000FFFF800
310
00FFFF0003FFFFFFFFE0000FFFFF8000F000C0003FFFFF8000FFFF800000FFFC
310
000007FFFF80007F80003FFFFF0001FC0003FFFFF0001FF8000001FFFE000000
310
7FFFFFF0001FFFFFFF80003FFFFE0000FFFF80003FFFFE0000FFFF0003FFFFFF
310
FFE0003FFFFF8000F000C0003FFFFF8000FFFF800000FFFC000007FFFF80007F
310
80007FFFFF8001F80007FFFFF8000FF8000001FFFE0000007FFFFFF0001FFFFF
310
FF00007FFFFF00007FFF00007FFFFF00007FFF0003FFFFFFFFE0003FFFFFC000
310
F000C0007FFFFFC000FFFF000000FFFC000007FFFF80007F8000FFFFFF8000F8
310
000FFFFFF8000FF8000001FFFE0000007FFFFFF0001FFFFFFF0000FFFFFF8000
310
7FFF0000FFFFFF80007FFF0003FFFFFFFFC0007FFFFFC00070008000FFFFFFC0
310
00FFFF000000FFF8000007FFFF80007F8000FFFFFF8000F8000FFFFFF8000FF8
310
000001FFFE0000007FFFFFF0001FFFFFFE0001FFFFFFC0003FFE0001FFFFFFC0
310
003FFF0003FFFFFFFFC0007FFFFFE00070008000FFFFFFC0007FFF0000007FF8
310
000003FFFF80007F0001FFFFFF8000F8000FFFFFF8000FF8000001FFFE000000
310
7FFFFFF0001FFFFFFE0001FFFFFFC0003FFE0001FFFFFFC0003FFF0003FFFFFF
310
FFC000FFFFFFE00070008000FFFFFFC0007FFF0000007FF8000003FFFF80007F
310
0001FFFFFF8000F8001FFFFFF8000FF8000001FFFE0000007FFFFFF0001FFFFF
310
FE0003FFFFFFE0003FFE0003FFFFFFE0003FFF0003FFFFFFFFC000FFFFFFE000
310
70008000FFFFFFC0007FFE0000007FF8000003FFFF80007F0001FFFFFF8000F0
310
001FFFFFF8000FF8000001FFFE0000007FFFFFF0001FFFFFFC0003FFFFFFE000
310
1FFC0003FFFFFFE0001FFF0003FFFFFFFFC000FFFFFFC00070008000FFFFFF80
310
007FFE0000007FF0000003FFFF80007F0001FFFFFF0000F0001FFFFFF8000FF8
310
000001FFFE0000007FFFFFF0001FFFFFFC0007FFFFFFF0001FFC0007FFFFFFF0
310
001FFF0003FFFFFFFFC000FFFFFFC00070008001FFFFFF0000FFFE0000003FF0
310
000001FFFF80007F0001FFFFFF0000F8001FFFFFF0000FF8000001FFFE000000
310
7FFFFFF0001FFFFFFC0007FFFFFFF0001FFC0007FFFFFFF0001FFF0003FFFFFF
310
FFC001FFFFFF80007000FFFFFFFFFE0000FFFE0008003FF0008001FFFF80007F
310
FFFFFFFFFC0000FFFFFFFFFFE0000FF8000001FFFE0000007FFFFFF0001FFFFF
310
F8000FFFFFFFF8000FF8000FFFFFFFF8000FFF0003FFFFFFFFFFFFFFFFFF0000
310
7000FFFFFFFFFC0000FFFC0008003FF0008001FFFF80007FFFFFFFFFF80001FF
310
FFFFFFFF80000FF8000001FFFE0000007FFFFFF0001FFFFFF8000FFFFFFFF800
310
0FF8000FFFFFFFF8000FFF0003FFFFFFFFFFFFFFFFFE0000F000FFFFFFFFE000
310
00FFFC000C003FE000C001FFFF80007FFFFFFFFFC00001FFFFFFFFFE00001FF8
310
000001FFFE0000007FFFFFF0001FFFFFF8000FFFFFFFF8000FF8000FFFFFFFF8
310
000FFF0003FFFFFFFFFFFFFFFFF00000F000FFFFFFFE000001FFFC000C001FE0
310
00C000FFFF80007FFFFFFFFE000001FFFFFFFFE000001FF80FFFFFFFFFFFFFC0
310
7FFFFFF0001FFFFFF8000FFFFFFFF8000FF8000FFFFFFFF8000FFF0003FFFFFF
310
FFFFFFFFFF800000F000FFFFFFC0000001FFFC001C001FE001C000FFFF80007F
310
FFFFFF80000003FFFFFFF80000001FF80FFFFFFFFFFFFFC07FFFFFF0001FFFFF
310
F8001FFFFFFFFC000FF8001FFFFFFFFC000FFF0003FFFFFFFFFFFFFFF0000001
310
F000FFFFF800000001FFF8001C001FE001C000FFFF80007FFFFFF800000003FF
310
FFFF800000003FF80FFFFFFFFFFFFFC07FFFFFF0001FFFFFF8001FFFFFFFFC00
310
0FF8001FFFFFFFFC000FFF0003FFFFFFFFFFFFFE00000001F000FFFFC0000000
310
03FFF8001E001FC001E000FFFF80007FFFFF8000000007FFFFFC000000003FF8
310
0FFFFFFFFFFFFFC07FFFFFF0001FFFFFF8001FFFFFFFFC000FF8001FFFFFFFFC
310
000FFF0003FFFFFFFFFFFFE000000003F000FFFE0000000007FFF8001E000FC0
310
01E0007FFF80007FFFFE0000000007FFFFE0000000007FF80FFFFFFFFFFFFFC0
310
7FFFFFF0001FFFFFF0001FFFFFFFFC0007F0001FFFFFFFFC0007FF0003FFFFFF
310
FFFFFF0000000003F000FFF80000000007FFF8001E000FC003E0007FFF80007F
310
FFF0000000000FFFFF8000000000FFF80FFFFFFFFFFFFFC07FFFFFF0001FFFFF
310
F0001FFFFFFFFC0007F0001FFFFFFFFC0007FF0003FFFFFFFFFFFC0000000007
310
F000FFE0000000000FFFF0003E000FC003E0007FFF80007FFFC0000000001FFF
310
FE0000000001FFF80FFFFFFFFFFFFFC07FFFFFF0001FFFFFF0001FFFFFFFFC00
310
07F0001FFFFFFFFC0007FF0003FFFFFFFFFFF0000000000FF000FFC000000000
310
1FFFF0003F000F8003F0003FFF80007FFF80000000003FFFF80000000003FFF8
310
0FFFFFFFFFFFFFC07FFFFFF0001FFFFFF0001FFFFFFFFC0007F0001FFFFFFFFC
310
0007FF0003FFFFFFFFFFE0000000001FF000FF00000000007FFFF0003F000780
310
03F0003FFF80007FFF00000000007FFFF00000000007FFF80FFFFFFFFFFFFFC0
310
7FFFFFF0001FFFFFF0001FFFFFFFFC0007F0001FFFFFFFFC0007FF0003FFFFFF
310
FFFF80000000007FF000FE0000000000FFFFE0003F00078007F0003FFF80007F
310
FE0000000001FFFFE0000000001FFFF80FFFFFFFFFFFFFC07FFFFFF0001FFFFF
310
F0001FFFFFFFFC0007F0001FFFFFFFFC0007FF0003FFFFFFFFFF0000000000FF
310
F000FC0000000003FFFFE0007F00078007F0003FFF80007FFC0000000007FFFF
310
C0000000007FFFF80FFFFFFFFFFFFFC07FFFFFF0001FFFFFF8001FFFFFFFFC00
310
0FF8001FFFFFFFFC000FFF0003FFFFFFFFFE0000000003FFF000FC000000000F
310
FFFFE0007F80070007F8001FFF80007FF8000000001FFFFF8000000001FFFFF8
310
0FFFFFFFFFFFFFC07FFFFFF0001FFFFFF8001FFFFFFFFC000FF8001FFFFFFFFC
310
000FFF0003FFFFFFFFFC000000000FFFF000F8000000007FFFFFE0007F800700
310
07F8001FFF80007FF000000000FFFFFF800000000FFFFFF80FFFFFFFFFFFFFC0
310
7FFFFFF0001FFFFFF8000FFFFFFFF8000FF8000FFFFFFFF8000FFF0003FFFFFF
310
FFFC000000007FFFF000F800000007FFFFFFC0007F8003000FF8001FFF80007F
310
F000000007FFFFFF000000007FFFFFF80FFFFFFFFFFFFFC07FFFFFF0001FFFFF
310
F8000FFFFFFFF8000FF8000FFFFFFFF8000FFF0003FFFFFFFFF80000000FFFFF
310
F000F0000000FFFFFFFFC000FF8003000FF8001FFF80007FE0000000FFFFFFFF
310
0000000FFFFFFFF8000001FFFE0000007FFFFFF0001FFFFFF8000FFFFFFFF800
310
0FF8000FFFFFFFF8000FFF0003FFFFFFFFF8000000FFFFFFF000F000000FFFFF
310
FFFFC000FFC002000FF8000FFF80007FE000001FFFFFFFFE000001FFFFFFFFF8
310
000001FFFE0000007FFFFFF0001FFFFFF8000FFFFFFFF8000FF8000FFFFFFFF8
310
000FFF0003FFFFFFFFF000001FFFFFFFF000E00000FFFFFFFFFFC000FFC00200
310
0FFC000FFF80007FE00001FFFFFFFFFE00001FFFFFFFFFF8000001FFFE000000
310
7FFFFFF0001FFFFFFC000FFFFFFFF8001FFC000FFFFFFFF8001FFF0003FFFFFF
310
FFF00001FFFFFFFFF000E00007FFFFFFFFFF8000FFC000001FFC000FFF80007F
310
C0000FFFFFFFFFFE0000FFFFFFFFFFF8000001FFFE0000007FFFFFF0001FFFFF
310
FC0007FFFFFFF0001FFC0007FFFFFFF0001FFF0003FFFFFFFFF00007FFFFFFFF
310
F000E0001FFFFFFFFFFF8000FFC000001FFC000FFF80007FC0003FFFFFFFFFFE
310
0001FFFFFFFFFFF8000001FFFE0000007FFFFFF0001FFFFFFC0007FFFFFFF000
310
1FFC0007FFFFFFF0001FFF0003FFFFFFFFF0001FFFFFFFFFF000E0003FFFFF00
310
03FF8001FFE000001FFC0007FF80007FC0007FFFFF0007FC0003FFFFF0003FF8
310
000001FFFE0000007FFFFFF0001FFFFFFC0003FFFFFFE0001FFC0003FFFFFFE0
310
001FFF0003FFFFFFFFF0003FFFFFFFFFF000E0003FFFFF0001FF8001FFE00000
310
1FFE0007FF80007FC0007FFFFE0003FC0007FFFFE0003FF8000001FFFE000000
310
7FFFFFF0001FFFFFFE0003FFFFFFE0003FFE0003FFFFFFE0003FFF0003FFFFFF
310
FFF0003FFFFF8001F000E0003FFFFF0001FF0001FFE000001FFE0007FF80007F
310
C0007FFFFE0003FC0007FFFFE0003FF8000001FFFE0000007FFFFFF0001FFFFF
310
FE0001FFFFFFC0003FFE0001FFFFFFC0003FFF0003FFFFFFFFF0003FFFFF0001
310
F000E0003FFFFF0003FF0001FFE000003FFE0007FF80007FC0007FFFFE0003FC
310
0007FFFFE0003FF8000001FFFE0000007FFFFFF0001FFFFFFF0001FFFFFFC000
310
7FFF0001FFFFFFC0007FFF0003FFFFFFFFF0003FFFFF0001F000E0003FFFFE00
310
03FF0003FFF000003FFE0003FF80007FC0007FFFFC0003FE0007FFFFE0003FF8
310
000001FFFE0000007FFFFFF0001FFFFFFF0000FFFFFF80007FFF0000FFFFFF80
310
007FFF0003FFFFFFFFF0003FFFFF0001F000E0003FFFFE0003FF0003FFF00000
310
3FFF0003FF80007FC0007FFFFC0007FE0007FFFFC0003FF8000001FFFE000000
310
7FFFFFF0001FFFFFFF80007FFFFF0000FFFF80007FFFFF0000FFFF0003FFFFFF
310
FFF0003FFFFF0003F000E0003FFFFC0003FE0003FFF000003FFF0003FF80007F
310
E0003FFFF80007FE0003FFFFC0007FF8000001FFFE0000007FFFFFF0001FFFFF
310
FF80003FFFFE0000FFFF80003FFFFE0000FFFF0003FFFFFFFFF0001FFFFE0003
310
F000F0001FFFF80003FE0003FFF000007FFF0001FF80007FE0003FFFF00007FE
310
0001FFFF80007FF8000001FFFE0000007FFFFFF0001FFFFFFFC0000FFFF80001
310
FFFFC0000FFFF80001FFFF0003FFFFFFFFF0001FFFFC0003F000F0000FFFF000
310
07FE0007FFF800007FFF0001FF80007FE0001FFFE00007FF0000FFFE00007FF8
310
000001FFFE0000007FFFFFF0001FFFFFFFC00003FFE00001FFFFC00003FFE000
310
01FFFF0003FFFFFFFFF8000FFFF80003F000F00003FFC00007FC0007FFF80000
310
7FFF8001FF80007FF00007FF80000FFF00007FF80000FFF8000001FFFE000000
310
7F80000000000001FFE000003E000003FFFFE000003E000003FFFF0003FFFFFF
310
FFF80003FFE00007F000F800000000000FFC0007FFF800007FFF8001FF80007F
310
F000000000000FFF000000000000FFF8000001FFFE0000007F80000000000001
310
FFF0000000000007FFFFF0000000000007FFFF0003FFFFFFFFFC00007E000007
310
F000F800000000000FFC0007FFF80000FFFF8000FF80007FF800000000001FFF
310
800000000001FFF8000001FFFE0000007F80000000000001FFF800000000000F
310
FFFFF800000000000FFFFF0003FFFFFFFFFC00000000000FF000FC0000000000
310
1FFC0007FFFC0000FFFF8000FF80007FF800000000003FFFC00000000001FFF8
310
000001FFFE0000007F80000000000001FFF800000000000FFFFFF80000000000
310
0FFFFF0003FFFFFFFFFE00000000001FF000FE00000000003FF8000FFFFC0000
310
FFFF8000FF80007FFC00000000003FFFC00000000003FFF8000001FFFE000000
310
7F80000000000001FFFC00000000001FFFFFFC00000000001FFFFF0003FFFFFF
310
FFFF00000000001FF000FF00000000003FF8000FFFFC0000FFFFC000FF80007F
310
FE00000000007FFFE00000000007FFF8000001FFFE0000007F80000000000001
310
FFFE00000000003FFFFFFE00000000003FFFFF0003FFFFFFFFFF80000000003F
310
F000FF80000000007FF8000FFFFC0001FFFFC0007F80007FFF0000000000FFFF
310
F0000000000FFFF800000000000000007F80000000000001FFFF8000000000FF
310
FFFFFF8000000000FFFFFF0003FFFFFFFFFFC0000000007FF000FFC000000000
310
FFF8000FFFFE0001FFFFC0007F80007FFF8000000001FFFFF8000000001FFFF8
310
00000000000000007F80000000000001FFFFC000000001FFFFFFFFC000000001
310
FFFFFF0003FFFFFFFFFFE000000000FFF000FFE000000003FFF0001FFFFE0001
310
FFFFC0007F80007FFFC000000007FFFFFE000000003FFFF80000000000000000
310
7F80000000000001FFFFE000000003FFFFFFFFE000000003FFFFFF0003FFFFFF
310
FFFFF000000003FFF000FFF80000000FFFF0001FFFFE0001FFFFE0007F80007F
310
FFF00000000FFFFFFF00000000FFFFF800000000000000007F80000000000001
310
FFFFF80000000FFFFFFFFFF80000000FFFFFFF0003FFFFFFFFFFFC0000000FFF
310
F000FFFE0000003FFFF0001FFFFE0003FFFFE0003F80007FFFFC0000003FFFFF
310
FFC0000003FFFFF800000000000000007F80000000000001FFFFFE0000003FFF
310
FFFFFFFE0000003FFFFFFF0003FFFFFFFFFFFF0000003FFFF000FFFF800000FF
310
FFF0001FFFFF0003FFFFE0003F80007FFFFF000001FFFFFFFFF800001FFFFFF8
310
00000000000000007F80000000000001FFFFFFC00001FFFFFFFFFFFFC00001FF
310
FFFFFF0003FFFFFFFFFFFFC00000FFFFF000FFFFF8000FFFFFFFFFFFFFFFFFFF
310
FFFFFFFFFFFFFFFFFFFFF0001FFFFFFFFFFF0000FFFFFFF80000000000000000
310
7FFFFFFFFFFFFFFFFFFFFFFC001FFFFFFFFFFFFFFC001FFFFFFFFFFFFFFFFFFF
310
FFFFFFFC001FFFFFF000FFFFFFFFFFFFFFFFFFFFFFFFFFFFFFFFFFFFFFFFFFFF
310
FFFFFFFFFFFFFFFFFFFFFFFFFFFFFFFFFFFFFFFFFFFFFFFFFFFFFFFFFFFFFFFF
310
FFFFFFFFFFFFFFFFFFFFFFFFFFFFFFFFFFFFFFFFFFFFFFFFFFFFFFFFFFFFFFFF
310
F000FFFFFFFFFFFFFFFFFFFFFFFFFFFFFFFFFFFFFFFFFFFFFFFFFFFFFFFFFFFF
310
FFFFFFFFFFFFFFFFFFFFFFFFFFFFFFFFFFFFFFFFFFFFFFFFFFFFFFFFFFFFFFFF
310
FFFFFFFFFFFFFFFFFFFFFFFFFFFFFFFFFFFFFFFFFFFFFFFFF000FFFFFFFFFFFF
310
FFFFFFFFFFFFFFFFFFFFFFFFFFFFFFFFFFFFFFFFFFFFFFFFFFFFFFFFFFFFFFFF
310
FFFFFFFFFFFFFFFFFFFFFFFFFFFFFFFFFFFFFFFFFFFFFFFFFFFFFFFFFFFFFFFF
310
FFFFFFFFFFFFFFFFFFFFFFFFFFFFFFFFF000FFFFFFFFFFFFFFFFFFFFFFFFFFFF
310
FFFFFFFFFFFFFFFFFFFFFFFFFFFFFFFFFFFFFFFFFFFFFFFFFFFFFFFFFFFFFFFF
310
FFFFFFFFFFFFFFFFFFFFFFFFFFFFFFFFFFFFFFFFFFFFFFFFFFFFFFFFFFFFFFFF
310
FFFFFFFFFFFFFFFFF000FFFFFFFFFFFFFFFFFFFFFFFFFFFFFFFFFFFFFFFFFFFF
310
FFFFFFFFFFFFFFFFFFFFFFFFFFFFFFFFFFFFFFFFFFFFFFFFFFFFFFFFFFFFFFFF
310
FFFFFFFFFFFFFFFFFFFFFFFFFFFFFFFFFFFFFFFFFFFFFFFFFFFFFFFFFFFFFFFF
310
F000FFFFFFFFFFFFFFFFFFFFFFFFFFFFFFFFFFFFFFFFFFFFFFFFFFFFFFFFFFFF
310
FFFFFFFFFFFFFFFFFFFFFFFFFFFFFFFFFFFFFFFFFFFFFFFFFFFFFFFFFFFFFFFF
310
FFFFFFFFFFFFFFFFFFFFFFFFFFFFFFFFFFFFFFFFFFFFFFFFF000FFFFFFFFFFFF
310
FFFFFFFFFFFFFFFFFFFFFFFFFFFFFFFFFFFFFFFFFFFFFFFFFFFFFFFFFFFFFFFF
310
FFFFFFFFFFFFFFFFFFFFFFFFFFFFFFFFFFFFFFFFFFFFFFFFFFFFFFFFFFFFFFFF
310
FFFFFFFFFFFFFFFFFFFFFFFFFFFFFFFFF000FFFFFFFFFFFFFFFFFFFFFFFFFFFF
310
FFFFFFFFFFFFFFFFFFFFFFFFFFFFFFFFFFFFFFFFFFFFFFFFFFFFFFFFFFFFFFFF
310
FFFFFFFFFFFFFFFFFFFFFFFFFFFFFFFFFFFFFFFFFFFFFFFFFFFFFFFFFFFFFFFF
310
FFFFFFFFFFFFFFFFF000FFFFFFFFFFFFFFFFFFFFFFFFFFFFFFFFFFFFFFFFFFFF
310
FFFFFFFFFFFFFFFFFFFFFFFFFFFFFFFFFFFFFFFFFFFFFFFFFFFFFFFFFFFFFFFF
310
FFFFFFFFFFFFFFFFFFFFFFFFFFFFFFFFFFFFFFFFFFFFFFFFFFFFFFFFFFFFFFFF
310
F000FFFFFFFFFFFFFFFFFFFFFFFFFFFFFFFFFFFFFFFFFFFFFFFFFFFFFFFFFFFF
310
FFFFFFFFFFFFFFFFFFFFFFFFFFFFFFFFFFFFFFFFFFFFFFFFFFFFFFFFFFFFFFFF
310
FFFFFFFFFFFFFFFFFFFFFFFFFFFFFFFFFFFFFFFFFFFFFFFFF000FFFFFFFFFFFF
310
FFFFFFFFFFFFFFFFFFFFFFFFFFFFFFFFFFFFFFFFFFFFFFFFFFFFFFFFFFFFFFFF
310
FFFFFFFFFFFFFFFFFFFFFFFFFFFFFFFFFFFFFFFFFFFFFFFFFFFFFFFFFFFFFFFF
310
FFFFFFFFFFFFFFFFFFFFFFFFFFFFFFFFF000FFFFFFFFFFFFFFFFFFFFFFFFFFFF
310
FFFFFFFFFFFFFFFFFFFFFFFFFFFFFFFFFFFFFFFFFFFFFFFFFFFFFFFFFFFFFFFF
310
FFFFFFFFFFFFFFFFFFFFFFFFFFFFFFFFFFFFFFFFFFFFFFFFFFFFFFFFFFFFFFFF
310
FFFFFFFFFFFFFFFFF000FFFFFFFFFFFFFFFFFFFFFFFFFFFFFFFFFFFFFFFFFFFF
310
FFFFFFFFFFFFFFFFFFFFFFFFFFFFFFFFFFFFFFFFFFFFFFFFFFFFFFFFFFFFFFFF
310
FFFFFFFFFFFFFFFFFFFFFFFFFFFFFFFFFFFFFFFFFFFFFFFFFFFFFFFFFFFFFFFF
310
F000FFFFFFFFFFFFFFFFFFFFFFFFFFFFFFFFFFFFFFFFFFFFFFFFFFFFFFFFFFFF
310
FFFFFFFFFFFFFFFFFFFFFFFFFFFFFFFFFFFFFFFFFFFFFFFFFFFFFFFFFFFFFFFF
310
FFFFFFFFFFFFFFFFFFFFFFFFFFFFFFFFFFFFFFFFFFFFFFFFF000FFFFFFFFFFFF
310
FFFFFFFFFFFFFFFFFFFFFFFFFFFFFFFFFFFFFFFFFFFFFFFFFFFFFFFFFFFFFFFF
310
FFFFFFFFFFFFFFFFFFFFFFFFFFFFFFFFFFFFFFFFFFFFFFFFFFFFFFFFFFFFFFFF
310
FFFFFFFFFFFFFFFFFFFFFFFFFFFFFFFFF000FFFFFFFFFFFFFFFFFFFFFFFFFFFF
310
FFFFFFFFFFFFFFFFFFFFFFFFFFFFFFFFFFFFFFFFFFFFFFFFFFFFFFFFFFFFFFFF
310
FFFFFFFFFFFFFFFFFFFFFFFFFFFFFFFFFFFFFFFFFFFFFFFFFFFFFFFFFFFFFFFF
310
FFFFFFFFFFFFFFFFF000FFFFFFFFFFFFFFFFFFFFFFFFFFFFFFFFFFFFFFFFFFFF
310
FFFFFFFFFFFFFFFFFFFFFFFFFFFFFFFFFFFFFFFFFFFFFFFFFFFFFFFFFFFFFFFF
310
FFFFFFFFFFFFFFFFFFFFFFFFFFFFFFFFFFFFFFFFFFFFFFFFFFFFFFFFFFFFFFFF
310
F000FFFFFFFFFFFFFFFFFFFFFFFFFFFFFFFFFFFFFFFFFFFFFFFFFFFFFFFFFFFF
310
FFFFFFFFFFFFFFFFFFFFFFFFFFFFFFFFFFFFFFFFFFFFFFFFFFFFFFFFFFFFFFFF
310
FFFFFFFFFFFFFFFFFFFFFFFFFFFFFFFFFFFFFFFFFFFFFFFFF000FFFFFFFFFFFF
310
FFFFFFFFFFFFFFFFFFFFFFFFFFFFFFFFFFFFFFFFFFFFFFFFFFFFFFFFFFFFFFFF
310
FFFFFFFFFFFFFFFFFFFFFFFFFFFFFFFFFFFFFFFFFFFFFFFFFFFFFFFFFFFFFFFF
310
FFFFFFFFFFFFFFFFFFFFFFFFFFFFFFFFF000FFFFFFFFFFFFFFFFFFFFFFFFFFFF
310
FFFFFFFFFFFFFFFFFFFFFFFFFFFFFFFFFFFFFFFFFFFFFFFFFFFFFFFFFFFFFFFF
310
FFFFFFFFFFFFFFFFFFFFFFFFFFFFFFFFFFFFFFFFFFFFFFFFFFFFFFFFFFFFFFFF
310
FFFFFFFFFFFFFFFFF000FFFFFFFFFFFFFFFFFFFFFFFFFFFFFFFFFFFFFFFFFFFF
310
FFFFFFFFFFFFFFFFFFFFFFFFFFFFFFFFFFFFFFFFFFFFFFFFFFFFFFFFFFFFFFFF
310
FFFFFFFFFFFFFFFFFFFFFFFFFFFFFFFFFFFFFFFFFFFFFFFFFFFFFFFFFFFFFFFF
310
F000FFFFFFFFFFFFFFFFFFFFFFFFFFFFFFFFFFFFFFFFFFFFFFFFFFFFFFFFFFFF
310
FFFFFFFFFFFFFFFFFFFFFFFFFFFFFFFFFFFFFFFFFFFFFFFFFFFFFFFFFFFFFFFF
310
FFFFFFFFFFFFFFFFFFFFFFFFFFFFFFFFFFFFFFFFFFFFFFFFF000FFFFFFFFFFFF
310
FFFFFFFFFFFFFFFFFFFFFFFFFFFFFFFFFFFFFFFFFFFFFFFFFFFFFFFFFFFFFFFF
310
FFFFFFFFFFFFFFFFFFFFFFFFFFFFFFFFFFFFFFFFFFFFFFFFFFFFFFFFFFFFFFFF
310
FFFFFFFFFFFFFFFFFFFFFFFFFFFFFFFFF0000000000000000000000000000000
310
00000000000000000000000042006C00610063006B0000000000000000000000
310
0000000000000000000000000000000000000000000000000000000000000000
310
0000000000000000000000000000FFFFFFFFFFFFFFFFFFFFFFFFFFFFFFFFFFFF
310
FFFFFFFFFFFFFFFFFFFFFFFFFFFFFFFFFFFFFFFFFFFFFFFFFFFFFFFFFFFFFFFF
310
FFFFFFFFFFFFFFFFFFFFFFFF6476000800000000FFFFFFFF20FF202026000000
310
1E00000008000000060000000000000011000000200000008403000000000000
310
6000000060000000200002FB200020000000002B00FFFFFF40002200E8030000
310
A80400001C020000AF0000804A20004000000000000000000100000000000000
310
616C000800000000E40100007001000002000000270000001100000000000000
310
00000000BC0200000000000003020122420065006C006C00200047006F007400
310
680069006300200053007400640020004C006900670068007400000000000000
310
00000000000000000000000000000000420065006C006C0047006F0074006800
310
690063005300740064002D0042006F006C006400000000000000000000000000
310
0000000000000000000000000000000000000000000000000000000000000000
310
0000000000000000000000000000000000000000000000000000000000000000
  1
OLE
  0
ENDSEC
  0
SECTION
  2
OBJECTS
  0
DICTIONARY
  5
C
330
0
100
AcDbDictionary
281
     1
  3
ACAD_GROUP
350
D
  3
ACAD_LAYOUT
350
1A
  3
ACAD_MLEADERSTYLE
350
305
  3
ACAD_MLINESTYLE
350
17
  3
ACAD_PLOTSETTINGS
350
19
  3
ACAD_PLOTSTYLENAME
350
E
  3
ACAD_TABLESTYLE
350
304
  3
ACAD_VISUALSTYLE
350
2A
  3
AcDbVariableDictionary
350
306
  0
DICTIONARY
  5
D
102
{ACAD_REACTORS
330
C
102
}
330
C
100
AcDbDictionary
281
     1
  0
DICTIONARY
  5
1A
102
{ACAD_REACTORS
330
C
102
}
330
C
100
AcDbDictionary
281
     1
  3
Layout1
350
1E
  3
Layout2
350
26
  3
Model
350
22
  0
DICTIONARY
  5
305
102
{ACAD_REACTORS
330
C
102
}
330
C
100
AcDbDictionary
281
     1
  0
DICTIONARY
  5
17
102
{ACAD_REACTORS
330
C
102
}
330
C
100
AcDbDictionary
281
     1
  3
Standard
350
18
  0
DICTIONARY
  5
19
102
{ACAD_REACTORS
330
C
102
}
330
C
100
AcDbDictionary
281
     1
  0
ACDBDICTIONARYWDFLT
  5
E
102
{ACAD_REACTORS
330
C
102
}
330
C
100
AcDbDictionary
281
     1
  3
Normal
350
F
100
AcDbDictionaryWithDefault
340
F
  0
DICTIONARY
  5
304
102
{ACAD_REACTORS
330
C
102
}
330
C
100
AcDbDictionary
281
     1
  0
DICTIONARY
  5
2A
102
{ACAD_REACTORS
330
C
102
}
330
C
100
AcDbDictionary
281
     1
  3
2dWireframe
350
2F
  3
3D Hidden
350
31
  3
3dWireframe
350
30
  3
Basic
350
32
  3
Brighten
350
36
  3
ColorChange
350
3A
  3
Conceptual
350
34
  3
Dim
350
35
  3
Facepattern
350
39
  3
Flat
350
2B
  3
FlatWithEdges
350
2C
  3
Gouraud
350
2D
  3
GouraudWithEdges
350
2E
  3
Linepattern
350
38
  3
Realistic
350
33
  3
Thicken
350
37
  0
DICTIONARY
  5
306
102
{ACAD_REACTORS
330
C
102
}
330
C
100
AcDbDictionary
281
     1
  3
PSOLHEIGHT
350
308
  3
PSOLWIDTH
350
307
  0
LAYOUT
  5
1E
102
{ACAD_REACTORS
330
1A
102
}
330
1A
100
AcDbPlotSettings
  1

  2
none_device
  4

  6

 40
0.0
 41
0.0
 42
0.0
 43
0.0
 44
0.0
 45
0.0
 46
0.0
 47
0.0
 48
0.0
 49
0.0
140
0.0
141
0.0
142
1.0
143
1.0
 70
   688
 72
     0
 73
     0
 74
     5
  7

 75
    16
147
1.0
148
0.0
149
0.0
100
AcDbLayout
  1
Layout1
 70
     1
 71
     1
 10
0.0
 20
0.0
 11
420.0
 21
297.0
 12
0.0
 22
0.0
 32
0.0
 14
1.0000000000E+20
 24
1.0000000000E+20
 34
1.0000000000E+20
 15
-1.0000000000E+20
 25
-1.0000000000E+20
 35
-1.0000000000E+20
146
0.0
 13
0.0
 23
0.0
 33
0.0
 16
1.0
 26
0.0
 36
0.0
 17
0.0
 27
1.0
 37
0.0
 76
     0
330
1B
  0
LAYOUT
  5
26
102
{ACAD_REACTORS
330
1A
102
}
330
1A
100
AcDbPlotSettings
  1

  2
none_device
  4

  6

 40
0.0
 41
0.0
 42
0.0
 43
0.0
 44
0.0
 45
0.0
 46
0.0
 47
0.0
 48
0.0
 49
0.0
140
0.0
141
0.0
142
1.0
143
1.0
 70
   688
 72
     0
 73
     0
 74
     5
  7

 75
    16
147
1.0
148
0.0
149
0.0
100
AcDbLayout
  1
Layout2
 70
     1
 71
     2
 10
0.0
 20
0.0
 11
0.0
 21
0.0
 12
0.0
 22
0.0
 32
0.0
 14
0.0
 24
0.0
 34
0.0
 15
0.0
 25
0.0
 35
0.0
146
0.0
 13
0.0
 23
0.0
 33
0.0
 16
1.0
 26
0.0
 36
0.0
 17
0.0
 27
1.0
 37
0.0
 76
     0
330
23
  0
LAYOUT
  5
22
102
{ACAD_REACTORS
330
1A
102
}
330
1A
100
AcDbPlotSettings
  1

  2
none_device
  4

  6

 40
0.0
 41
0.0
 42
0.0
 43
0.0
 44
0.0
 45
0.0
 46
0.0
 47
0.0
 48
0.0
 49
0.0
140
0.0
141
0.0
142
1.0
143
1.0
 70
  1712
 72
     0
 73
     0
 74
     0
  7

 75
     0
147
1.0
148
0.0
149
0.0
100
AcDbLayout
  1
Model
 70
     1
 71
     0
 10
0.0
 20
0.0
 11
297.0
 21
210.0
 12
0.0
 22
0.0
 32
0.0
 14
0.0
 24
0.0
 34
0.0
 15
297.0
 25
210.0
 35
0.0
146
0.0
 13
0.0
 23
0.0
 33
0.0
 16
1.0
 26
0.0
 36
0.0
 17
0.0
 27
1.0
 37
0.0
 76
     0
330
1F
331
29
  0
MLINESTYLE
  5
18
102
{ACAD_REACTORS
330
17
102
}
330
17
100
AcDbMlineStyle
  2
Standard
 70
     0
  3

 62
   256
 51
90.0
 52
90.0
 71
     2
 49
0.5
 62
   256
  6
BYLAYER
 49
-0.5
 62
   256
  6
BYLAYER
  0
ACDBPLACEHOLDER
  5
F
102
{ACAD_REACTORS
330
E
102
}
330
E
  0
VISUALSTYLE
  5
2F
102
{ACAD_REACTORS
330
2A
102
}
330
2A
100
AcDbVisualStyle
  2
2dWireframe
 70
     4
 71
     0
 72
     2
 73
     0
 90
        0
 40
-0.6
 41
-30.0
 62
     5
 63
     7
 74
     1
 91
        4
 64
     7
 65
   257
 75
     1
175
     1
 42
1.0
 92
        0
 66
   257
 43
1.0
 76
     1
 77
     6
 78
     2
 67
     7
 79
     5
170
     0
171
     0
290
     0
174
     0
 93
        1
 44
0.0
173
     0
291
     0
 45
0.0
1001
ACAD
1000
AcDbSavedByObjectVersion
1070
     0
  0
VISUALSTYLE
  5
31
102
{ACAD_REACTORS
330
2A
102
}
330
2A
100
AcDbVisualStyle
  2
3D Hidden
 70
     6
 71
     1
 72
     2
 73
     2
 90
        0
 40
-0.6
 41
-30.0
 62
     5
 63
     7
 74
     2
 91
        2
 64
     7
 65
   257
 75
     2
175
     1
 42
40.0
 92
        0
 66
   257
 43
1.0
 76
     1
 77
     6
 78
     2
 67
     7
 79
     3
170
     0
171
     0
290
     0
174
     0
 93
        1
 44
0.0
173
     0
291
     0
 45
0.0
1001
ACAD
1000
AcDbSavedByObjectVersion
1070
     0
  0
VISUALSTYLE
  5
30
102
{ACAD_REACTORS
330
2A
102
}
330
2A
100
AcDbVisualStyle
  2
3dWireframe
 70
     5
 71
     0
 72
     2
 73
     0
 90
        0
 40
-0.6
 41
-30.0
 62
     5
 63
     7
 74
     1
 91
        4
 64
     7
 65
   257
 75
     1
175
     1
 42
1.0
 92
        0
 66
   257
 43
1.0
 76
     1
 77
     6
 78
     2
 67
     7
 79
     5
170
     0
171
     0
290
     0
174
     0
 93
        1
 44
0.0
173
     0
291
     0
 45
0.0
1001
ACAD
1000
AcDbSavedByObjectVersion
1070
     0
  0
VISUALSTYLE
  5
32
102
{ACAD_REACTORS
330
2A
102
}
330
2A
100
AcDbVisualStyle
  2
Basic
 70
     7
 71
     1
 72
     0
 73
     1
 90
        0
 40
-0.6
 41
-30.0
 62
     5
 63
     7
 74
     0
 91
        4
 64
     7
 65
   257
 75
     1
175
     1
 42
1.0
 92
        8
 66
     7
 43
1.0
 76
     1
 77
     6
 78
     2
 67
     7
 79
     5
170
     0
171
     0
290
     0
174
     0
 93
        1
 44
0.0
173
     0
291
     1
 45
0.0
1001
ACAD
1000
AcDbSavedByObjectVersion
1070
     0
  0
VISUALSTYLE
  5
36
102
{ACAD_REACTORS
330
2A
102
}
330
2A
100
AcDbVisualStyle
  2
Brighten
 70
    12
 71
     2
 72
     2
 73
     0
 90
        0
 40
-0.6
 41
-30.0
 62
     5
 63
     7
 74
     1
 91
        4
 64
     7
 65
   257
 75
     1
175
     1
 42
1.0
 92
        8
 66
     7
 43
1.0
 76
     1
 77
     6
 78
     2
 67
     7
 79
     5
170
     0
171
     0
290
     0
174
     0
 93
        1
 44
50.0
173
     0
291
     1
 45
0.0
1001
ACAD
1000
AcDbSavedByObjectVersion
1070
     0
  0
VISUALSTYLE
  5
3A
102
{ACAD_REACTORS
330
2A
102
}
330
2A
100
AcDbVisualStyle
  2
ColorChange
 70
    16
 71
     2
 72
     2
 73
     3
 90
        0
 40
-0.6
 41
-30.0
 62
     5
 63
     8
 74
     1
 91
        4
 64
     7
 65
   257
 75
     1
175
     1
 42
1.0
 92
        8
 66
     8
 43
1.0
 76
     1
 77
     6
 78
     2
 67
     7
 79
     5
170
     0
171
     0
290
     0
174
     0
 93
        1
 44
0.0
173
     0
291
     1
 45
0.0
1001
ACAD
1000
AcDbSavedByObjectVersion
1070
     0
  0
VISUALSTYLE
  5
34
102
{ACAD_REACTORS
330
2A
102
}
330
2A
100
AcDbVisualStyle
  2
Conceptual
 70
     9
 71
     3
 72
     2
 73
     0
 90
        0
 40
-0.6
 41
-30.0
 62
     5
 63
     7
 74
     2
 91
        2
 64
     7
 65
   257
 75
     1
175
     1
 42
40.0
 92
        8
 66
     7
 43
1.0
 76
     1
 77
     6
 78
     2
 67
     7
 79
     3
170
     0
171
     0
290
     0
174
     0
 93
        1
 44
0.0
173
     0
291
     0
 45
0.0
1001
ACAD
1000
AcDbSavedByObjectVersion
1070
     0
  0
VISUALSTYLE
  5
35
102
{ACAD_REACTORS
330
2A
102
}
330
2A
100
AcDbVisualStyle
  2
Dim
 70
    11
 71
     2
 72
     2
 73
     0
 90
        0
 40
-0.6
 41
-30.0
 62
     5
 63
     7
 74
     1
 91
        4
 64
     7
 65
   257
 75
     1
175
     1
 42
1.0
 92
        8
 66
     7
 43
1.0
 76
     1
 77
     6
 78
     2
 67
     7
 79
     5
170
     0
171
     0
290
     0
174
     0
 93
        1
 44
-50.0
173
     0
291
     1
 45
0.0
1001
ACAD
1000
AcDbSavedByObjectVersion
1070
     0
  0
VISUALSTYLE
  5
39
102
{ACAD_REACTORS
330
2A
102
}
330
2A
100
AcDbVisualStyle
  2
Facepattern
 70
    15
 71
     2
 72
     2
 73
     0
 90
        0
 40
-0.6
 41
-30.0
 62
     5
 63
     7
 74
     1
 91
        4
 64
     7
 65
   257
 75
     1
175
     1
 42
1.0
 92
        8
 66
     7
 43
1.0
 76
     1
 77
     6
 78
     2
 67
     7
 79
     5
170
     0
171
     0
290
     0
174
     0
 93
        1
 44
0.0
173
     0
291
     1
 45
0.0
1001
ACAD
1000
AcDbSavedByObjectVersion
1070
     0
  0
VISUALSTYLE
  5
2B
102
{ACAD_REACTORS
330
2A
102
}
330
2A
100
AcDbVisualStyle
  2
Flat
 70
     0
 71
     2
 72
     1
 73
     1
 90
        2
 40
-0.6
 41
30.0
 62
     5
 63
     7
 74
     0
 91
        4
 64
     7
 65
   257
 75
     1
175
     1
 42
1.0
 92
        8
 66
     7
 43
1.0
 76
     1
 77
     6
 78
     2
 67
     7
 79
     5
170
     0
171
     0
290
     0
174
     0
 93
       13
 44
0.0
173
     0
291
     1
 45
0.0
1001
ACAD
1000
AcDbSavedByObjectVersion
1070
     0
  0
VISUALSTYLE
  5
2C
102
{ACAD_REACTORS
330
2A
102
}
330
2A
100
AcDbVisualStyle
  2
FlatWithEdges
 70
     1
 71
     2
 72
     1
 73
     1
 90
        2
 40
-0.6
 41
30.0
 62
     5
 63
     7
 74
     1
 91
        4
 64
     7
 65
   257
 75
     1
175
     1
 42
1.0
 92
        0
 66
   257
 43
1.0
 76
     1
 77
     6
 78
     2
 67
     7
 79
     5
170
     0
171
     0
290
     0
174
     0
 93
       13
 44
0.0
173
     0
291
     1
 45
0.0
1001
ACAD
1000
AcDbSavedByObjectVersion
1070
     0
  0
VISUALSTYLE
  5
2D
102
{ACAD_REACTORS
330
2A
102
}
330
2A
100
AcDbVisualStyle
  2
Gouraud
 70
     2
 71
     2
 72
     2
 73
     1
 90
        2
 40
-0.6
 41
30.0
 62
     5
 63
     7
 74
     0
 91
        4
 64
     7
 65
   257
 75
     1
175
     1
 42
1.0
 92
        0
 66
     7
 43
1.0
 76
     1
 77
     6
 78
     2
 67
     7
 79
     5
170
     0
171
     0
290
     0
174
     0
 93
       13
 44
0.0
173
     0
291
     1
 45
0.0
1001
ACAD
1000
AcDbSavedByObjectVersion
1070
     0
  0
VISUALSTYLE
  5
2E
102
{ACAD_REACTORS
330
2A
102
}
330
2A
100
AcDbVisualStyle
  2
GouraudWithEdges
 70
     3
 71
     2
 72
     2
 73
     1
 90
        2
 40
-0.6
 41
30.0
 62
     5
 63
     7
 74
     1
 91
        4
 64
     7
 65
   257
 75
     1
175
     1
 42
1.0
 92
        0
 66
   257
 43
1.0
 76
     1
 77
     6
 78
     2
 67
     7
 79
     5
170
     0
171
     0
290
     0
174
     0
 93
       13
 44
0.0
173
     0
291
     1
 45
0.0
1001
ACAD
1000
AcDbSavedByObjectVersion
1070
     0
  0
VISUALSTYLE
  5
38
102
{ACAD_REACTORS
330
2A
102
}
330
2A
100
AcDbVisualStyle
  2
Linepattern
 70
    14
 71
     2
 72
     2
 73
     0
 90
        0
 40
-0.6
 41
-30.0
 62
     5
 63
     7
 74
     1
 91
        4
 64
     7
 65
   257
 75
     7
175
     7
 42
1.0
 92
        8
 66
     7
 43
1.0
 76
     1
 77
     6
 78
     2
 67
     7
 79
     5
170
     0
171
     0
290
     0
174
     0
 93
        1
 44
0.0
173
     0
291
     1
 45
0.0
1001
ACAD
1000
AcDbSavedByObjectVersion
1070
     0
  0
VISUALSTYLE
  5
33
102
{ACAD_REACTORS
330
2A
102
}
330
2A
100
AcDbVisualStyle
  2
Realistic
 70
     8
 71
     2
 72
     2
 73
     0
 90
        0
 40
-0.6
 41
-30.0
 62
     5
 63
     7
 74
     1
 91
        0
 64
     7
 65
   257
 75
     1
175
     1
 42
1.0
 92
        8
 66
     8
 43
1.0
 76
     1
 77
     6
 78
     2
 67
     7
 79
     5
170
     0
171
     0
290
     0
174
     0
 93
       13
 44
0.0
173
     0
291
     0
 45
0.0
1001
ACAD
1000
AcDbSavedByObjectVersion
1070
     0
  0
VISUALSTYLE
  5
37
102
{ACAD_REACTORS
330
2A
102
}
330
2A
100
AcDbVisualStyle
  2
Thicken
 70
    13
 71
     2
 72
     2
 73
     0
 90
        0
 40
-0.6
 41
-30.0
 62
     5
 63
     7
 74
     1
 91
        4
 64
     7
 65
   257
 75
     1
175
     1
 42
1.0
 92
       12
 66
     7
 43
1.0
 76
     1
 77
     6
 78
     2
 67
     7
 79
     5
170
     0
171
     0
290
     0
174
     0
 93
        1
 44
0.0
173
     0
291
     1
 45
0.0
1001
ACAD
1000
AcDbSavedByObjectVersion
1070
     0
  0
DICTIONARYVAR
  5
308
102
{ACAD_REACTORS
330
306
102
}
330
306
100
DictionaryVariables
280
     0
  1
80.000000
  0
DICTIONARYVAR
  5
307
102
{ACAD_REACTORS
330
306
102
}
330
306
100
DictionaryVariables
280
     0
  1
5.000000
  0
ENDSEC
  0
EOF
