  0
SECTION
  2
HEADER
  9
$ACADVER
  1
AC1015
  9
$ACADMAINTVER
 70
     6
  9
$DWGCODEPAGE
  3
ANSI_1252
  9
$INSBASE
 10
0.0
 20
0.0
 30
0.0
  9
$EXTMIN
 10
0.0
 20
0.0
 30
0.0
  9
$EXTMAX
 10
297.0
 20
210.0
 30
0.0
  9
$LIMMIN
 10
0.0
 20
0.0
  9
$LIMMAX
 10
297.0
 20
210.0
  9
$ORTHOMODE
 70
     0
  9
$REGENMODE
 70
     1
  9
$FILLMODE
 70
     1
  9
$QTEXTMODE
 70
     0
  9
$MIRRTEXT
 70
     1
  9
$LTSCALE
 40
1.0
  9
$ATTMODE
 70
     1
  9
$TEXTSIZE
 40
2.0
  9
$TRACEWID
 40
1.0
  9
$TEXTSTYLE
  7
Standard
  9
$CLAYER
  8
0
  9
$CELTYPE
  6
ByLayer
  9
$CECOLOR
 62
   256
  9
$CELTSCALE
 40
1.0
  9
$DISPSILH
 70
     0
  9
$DIMSCALE
 40
1.0
  9
$DIMASZ
 40
3.0
  9
$DIMEXO
 40
0.0
  9
$DIMDLI
 40
3.75
  9
$DIMRND
 40
0.0
  9
$DIMDLE
 40
0.0
  9
$DIMEXE
 40
1.0
  9
$DIMTP
 40
0.0
  9
$DIMTM
 40
0.0
  9
$DIMTXT
 40
2.0
  9
$DIMCEN
 40
2.5
  9
$DIMTSZ
 40
0.0
  9
$DIMTOL
 70
     0
  9
$DIMLIM
 70
     0
  9
$DIMTIH
 70
     1
  9
$DIMTOH
 70
     1
  9
$DIMSE1
 70
     0
  9
$DIMSE2
 70
     0
  9
$DIMTAD
 70
     1
  9
$DIMZIN
 70
     0
  9
$DIMBLK
  1

  9
$DIMASO
 70
     1
  9
$DIMSHO
 70
     1
  9
$DIMPOST
  1

  9
$DIMAPOST
  1

  9
$DIMALT
 70
     0
  9
$DIMALTD
 70
     3
  9
$DIMALTF
 40
0.0393700787
  9
$DIMLFAC
 40
1.0
  9
$DIMTOFL
 70
     1
  9
$DIMTVP
 40
0.0
  9
$DIMTIX
 70
     0
  9
$DIMSOXD
 70
     0
  9
$DIMSAH
 70
     0
  9
$DIMBLK1
  1

  9
$DIMBLK2
  1

  9
$DIMSTYLE
  2
ISO-25
  9
$DIMCLRD
 70
     0
  9
$DIMCLRE
 70
     0
  9
$DIMCLRT
 70
     0
  9
$DIMTFAC
 40
1.0
  9
$DIMGAP
 40
1.524
  9
$DIMJUST
 70
     0
  9
$DIMSD1
 70
     0
  9
$DIMSD2
 70
     0
  9
$DIMTOLJ
 70
     0
  9
$DIMTZIN
 70
     0
  9
$DIMALTZ
 70
     0
  9
$DIMALTTZ
 70
     0
  9
$DIMUPT
 70
     0
  9
$DIMDEC
 70
     2
  9
$DIMTDEC
 70
     3
  9
$DIMALTU
 70
     2
  9
$DIMALTTD
 70
     3
  9
$DIMTXSTY
  7
Standard
  9
$DIMAUNIT
 70
     0
  9
$DIMADEC
 70
     2
  9
$DIMALTRND
 40
0.0
  9
$DIMAZIN
 70
     0
  9
$DIMDSEP
 70
    44
  9
$DIMATFIT
 70
     3
  9
$DIMFRAC
 70
     0
  9
$DIMLDRBLK
  1

  9
$DIMLUNIT
 70
     2
  9
$DIMLWD
 70
    -2
  9
$DIMLWE
 70
    -2
  9
$DIMTMOVE
 70
     0
  9
$LUNITS
 70
     2
  9
$LUPREC
 70
     2
  9
$SKETCHINC
 40
1.0
  9
$FILLETRAD
 40
10.0
  9
$AUNITS
 70
     0
  9
$AUPREC
 70
     2
  9
$MENU
  1
.
  9
$ELEVATION
 40
0.0
  9
$PELEVATION
 40
0.0
  9
$THICKNESS
 40
0.0
  9
$LIMCHECK
 70
     0
  9
$CHAMFERA
 40
10.0
  9
$CHAMFERB
 40
10.0
  9
$CHAMFERC
 40
20.0
  9
$CHAMFERD
 40
0.0
  9
$SKPOLY
 70
     0
  9
$TDCREATE
 40
2456091.544743727
  9
$TDUCREATE
 40
2456091.461410393
  9
$TDUPDATE
 40
2456091.544745903
  9
$TDUUPDATE
 40
2456091.46141257
  9
$TDINDWG
 40
0.0000000116
  9
$TDUSRTIMER
 40
0.0000000116
  9
$USRTIMER
 70
     1
  9
$ANGBASE
 50
0.0
  9
$ANGDIR
 70
     0
  9
$PDMODE
 70
     0
  9
$PDSIZE
 40
-1.0
  9
$PLINEWID
 40
0.0
  9
$SPLFRAME
 70
     0
  9
$SPLINETYPE
 70
     6
  9
$SPLINESEGS
 70
     8
  9
$HANDSEED
  5
295
  9
$SURFTAB1
 70
     6
  9
$SURFTAB2
 70
     6
  9
$SURFTYPE
 70
     6
  9
$SURFU
 70
     6
  9
$SURFV
 70
     6
  9
$UCSBASE
  2

  9
$UCSNAME
  2

  9
$UCSORG
 10
0.0
 20
0.0
 30
0.0
  9
$UCSXDIR
 10
1.0
 20
0.0
 30
0.0
  9
$UCSYDIR
 10
0.0
 20
1.0
 30
0.0
  9
$UCSORTHOREF
  2

  9
$UCSORTHOVIEW
 70
     0
  9
$UCSORGTOP
 10
0.0
 20
0.0
 30
0.0
  9
$UCSORGBOTTOM
 10
0.0
 20
0.0
 30
0.0
  9
$UCSORGLEFT
 10
0.0
 20
0.0
 30
0.0
  9
$UCSORGRIGHT
 10
0.0
 20
0.0
 30
0.0
  9
$UCSORGFRONT
 10
0.0
 20
0.0
 30
0.0
  9
$UCSORGBACK
 10
0.0
 20
0.0
 30
0.0
  9
$PUCSBASE
  2

  9
$PUCSNAME
  2

  9
$PUCSORG
 10
0.0
 20
0.0
 30
0.0
  9
$PUCSXDIR
 10
1.0
 20
0.0
 30
0.0
  9
$PUCSYDIR
 10
0.0
 20
1.0
 30
0.0
  9
$PUCSORTHOREF
  2

  9
$PUCSORTHOVIEW
 70
     0
  9
$PUCSORGTOP
 10
0.0
 20
0.0
 30
0.0
  9
$PUCSORGBOTTOM
 10
0.0
 20
0.0
 30
0.0
  9
$PUCSORGLEFT
 10
0.0
 20
0.0
 30
0.0
  9
$PUCSORGRIGHT
 10
0.0
 20
0.0
 30
0.0
  9
$PUCSORGFRONT
 10
0.0
 20
0.0
 30
0.0
  9
$PUCSORGBACK
 10
0.0
 20
0.0
 30
0.0
  9
$USERI1
 70
     0
  9
$USERI2
 70
     0
  9
$USERI3
 70
     0
  9
$USERI4
 70
     0
  9
$USERI5
 70
     0
  9
$USERR1
 40
0.0
  9
$USERR2
 40
0.0
  9
$USERR3
 40
0.0
  9
$USERR4
 40
0.0
  9
$USERR5
 40
0.0
  9
$WORLDVIEW
 70
     1
  9
$SHADEDGE
 70
     3
  9
$SHADEDIF
 70
    70
  9
$TILEMODE
 70
     1
  9
$MAXACTVP
 70
    64
  9
$PINSBASE
 10
0.0
 20
0.0
 30
0.0
  9
$PLIMCHECK
 70
     0
  9
$PEXTMIN
 10
1.0000000000E+20
 20
1.0000000000E+20
 30
1.0000000000E+20
  9
$PEXTMAX
 10
-1.0000000000E+20
 20
-1.0000000000E+20
 30
-1.0000000000E+20
  9
$PLIMMIN
 10
0.0
 20
0.0
  9
$PLIMMAX
 10
420.0
 20
297.0
  9
$UNITMODE
 70
     0
  9
$VISRETAIN
 70
     1
  9
$PLINEGEN
 70
     0
  9
$PSLTSCALE
 70
     1
  9
$TREEDEPTH
 70
  3020
  9
$CMLSTYLE
  2
Standard
  9
$CMLJUST
 70
     0
  9
$CMLSCALE
 40
20.0
  9
$PROXYGRAPHICS
 70
     1
  9
$MEASUREMENT
 70
     1
  9
$CELWEIGHT
370
    -1
  9
$ENDCAPS
280
     0
  9
$JOINSTYLE
280
     0
  9
$LWDISPLAY
290
     1
  9
$INSUNITS
 70
     4
  9
$HYPERLINKBASE
  1

  9
$STYLESHEET
  1

  9
$XEDIT
290
     1
  9
$CEPSNTYPE
380
     0
  9
$PSTYLEMODE
290
     1
  9
$FINGERPRINTGUID
  2
{D1E05483-0DDE-409E-ACDE-B3A4F188B8C3}
  9
$VERSIONGUID
  2
{FAEB1C32-E019-11D5-929B-00C0DF256EC4}
  9
$EXTNAMES
290
     1
  9
$PSVPSCALE
 40
0.0
  9
$OLESTARTUP
290
     0
  0
ENDSEC
  0
SECTION
  2
CLASSES
  0
CLASS
  1
ACDBDICTIONARYWDFLT
  2
AcDbDictionaryWithDefault
  3
ObjectDBX Classes
 90
        0
280
     0
281
     0
  0
CLASS
  1
VISUALSTYLE
  2
AcDbVisualStyle
  3
ObjectDBX Classes
 90
     4095
280
     0
281
     0
  0
CLASS
  1
MATERIAL
  2
AcDbMaterial
  3
ObjectDBX Classes
 90
     1153
280
     0
281
     0
  0
CLASS
  1
ACDBPLACEHOLDER
  2
AcDbPlaceHolder
  3
ObjectDBX Classes
 90
        0
280
     0
281
     0
  0
CLASS
  1
LAYOUT
  2
AcDbLayout
  3
ObjectDBX Classes
 90
        0
280
     0
281
     0
  0
ENDSEC
  0
SECTION
  2
TABLES
  0
TABLE
  2
VPORT
  5
8
330
0
100
AcDbSymbolTable
 70
     1
  0
VPORT
  5
29
330
8
100
AcDbSymbolTableRecord
100
AcDbViewportTableRecord
  2
*Active
 70
     0
 10
0.0
 20
0.0
 11
1.0
 21
1.0
 12
148.5
 22
105.0
 13
0.0
 23
0.0
 14
10.0
 24
10.0
 15
10.0
 25
10.0
 16
0.0
 26
0.0
 36
1.0
 17
0.0
 27
0.0
 37
0.0
 40
210.0
 41
1.4142857143
 42
50.0
 43
0.0
 44
0.0
 50
0.0
 51
0.0
 71
     0
 72
  2000
 73
     1
 74
     3
 75
     0
 76
     0
 77
     0
 78
     0
281
     0
 65
     1
110
0.0
120
0.0
130
0.0
111
1.0
121
0.0
131
0.0
112
0.0
122
1.0
132
0.0
 79
     0
146
0.0
  0
ENDTAB
  0
TABLE
  2
LTYPE
  5
5
330
0
100
AcDbSymbolTable
 70
     6
  0
LTYPE
  5
14
330
5
100
AcDbSymbolTableRecord
100
AcDbLinetypeTableRecord
  2
ByBlock
 70
     0
  3

 72
    65
 73
     0
 40
0.0
  0
LTYPE
  5
15
330
5
100
AcDbSymbolTableRecord
100
AcDbLinetypeTableRecord
  2
ByLayer
 70
     0
  3

 72
    65
 73
     0
 40
0.0
  0
LTYPE
  5
16
330
5
100
AcDbSymbolTableRecord
100
AcDbLinetypeTableRecord
  2
Continuous
 70
     0
  3
Solid line
 72
    65
 73
     0
 40
0.0
  0
LTYPE
  5
3F
330
5
100
AcDbSymbolTableRecord
100
AcDbLinetypeTableRecord
  2
HIDDEN
 70
     0
  3
Hidden __ __ __ __ __ __ __ __ __ __ __ __ __ __
 72
    65
 73
     2
 40
1.905
 49
1.27
 74
     0
 49
-0.635
 74
     0
  0
LTYPE
  5
40
330
5
100
AcDbSymbolTableRecord
100
AcDbLinetypeTableRecord
  2
PHANTOM
 70
     0
  3
Phantom ______  __  __  ______  __  __  ______
 72
    65
 73
     6
 40
12.7
 49
6.35
 74
     0
 49
-1.27
 74
     0
 49
1.27
 74
     0
 49
-1.27
 74
     0
 49
1.27
 74
     0
 49
-1.27
 74
     0
  0
LTYPE
  5
41
330
5
100
AcDbSymbolTableRecord
100
AcDbLinetypeTableRecord
  2
CENTER
 70
     0
  3
Center ____ _ ____ _ ____ _ ____ _ ____ _ ____
 72
    65
 73
     4
 40
10.16
 49
6.35
 74
     0
 49
-1.27
 74
     0
 49
1.27
 74
     0
 49
-1.27
 74
     0
  0
LTYPE
  5
42
330
5
100
AcDbSymbolTableRecord
100
AcDbLinetypeTableRecord
  2
CENTERX2
 70
     0
  3
Center (2x) ________  __  ________  __  _____
 72
    65
 73
     4
 40
20.32
 49
12.7
 74
     0
 49
-2.54
 74
     0
 49
2.54
 74
     0
 49
-2.54
 74
     0
  0
LTYPE
  5
43
330
5
100
AcDbSymbolTableRecord
100
AcDbLinetypeTableRecord
  2
DOT2
 70
     0
  3
Dot (.5x) ........................................
 72
    65
 73
     2
 40
0.635
 49
0.0
 74
     0
 49
-0.635
 74
     0
  0
ENDTAB
  0
TABLE
  2
LAYER
  5
2
330
0
100
AcDbSymbolTable
 70
     5
  0
LAYER
  5
10
330
2
100
AcDbSymbolTableRecord
100
AcDbLayerTableRecord
  2
0
 70
     0
 62
     7
  6
Continuous
370
    -3
390
F
  0
LAYER
  5
44
330
2
100
AcDbSymbolTableRecord
100
AcDbLayerTableRecord
  2
FORMAT
 70
     0
 62
     7
  6
Continuous
370
    -3
390
F
  0
LAYER
  5
45
330
2
100
AcDbSymbolTableRecord
100
AcDbLayerTableRecord
  2
VERMASSUNG
 70
     0
 62
     7
  6
Continuous
370
    -3
390
F
  0
LAYER
  5
46
330
2
100
AcDbSymbolTableRecord
100
AcDbLayerTableRecord
  2
KOPF_DÜNN
 70
     0
 62
     7
  6
Continuous
370
    -3
390
F
  0
LAYER
  5
47
330
2
100
AcDbSymbolTableRecord
100
AcDbLayerTableRecord
  2
KOPF_DICK
 70
     0
 62
     7
  6
Continuous
370
    15
390
F
  0
ENDTAB
  0
TABLE
  2
STYLE
  5
3
330
0
100
AcDbSymbolTable
 70
     3
  0
STYLE
  5
11
330
3
100
AcDbSymbolTableRecord
100
AcDbTextStyleTableRecord
  2
Standard
 70
     0
 40
0.0
 41
1.0
 50
0.0
 71
     0
 42
2.0
  3
txt
  4

  0
STYLE
  5
48
330
3
100
AcDbSymbolTableRecord
100
AcDbTextStyleTableRecord
  2
SLDTEXTSTYLE0
 70
     0
 40
0.0
 41
0.7
 50
0.0
 71
     0
 42
0.2
  3
TXT
  4

  0
STYLE
  5
4C
330
3
100
AcDbSymbolTableRecord
100
AcDbTextStyleTableRecord
  2
SLDTEXTSTYLE1
 70
     0
 40
0.0
 41
0.6515151515
 50
0.0
 71
     0
 42
0.2
  3
TXT
  4

  0
ENDTAB
  0
TABLE
  2
VIEW
  5
6
330
0
100
AcDbSymbolTable
 70
     0
  0
ENDTAB
  0
TABLE
  2
UCS
  5
7
330
0
100
AcDbSymbolTable
 70
     0
  0
ENDTAB
  0
TABLE
  2
APPID
  5
9
330
0
100
AcDbSymbolTable
 70
     1
  0
APPID
  5
12
330
9
100
AcDbSymbolTableRecord
100
AcDbRegAppTableRecord
  2
ACAD
 70
     0
  0
ENDTAB
  0
TABLE
  2
DIMSTYLE
  5
A
330
0
100
AcDbSymbolTable
 70
     4
100
AcDbDimStyleTable
  0
DIMSTYLE
105
27
330
A
100
AcDbSymbolTableRecord
100
AcDbDimStyleTableRecord
  2
ISO-25
 70
     0
 41
2.5
 42
0.625
 43
3.75
 44
1.25
 73
     0
 74
     0
 77
     1
 78
     8
140
2.5
141
2.5
143
0.0393700787
147
0.625
171
     3
172
     1
178
     0
271
     2
272
     2
274
     3
278
    44
283
     0
284
     8
340
11
  0
DIMSTYLE
105
1F8
102
{ACAD_REACTORS
330
1F7
330
20B
330
215
330
21F
330
22B
330
270
102
}
330
A
100
AcDbSymbolTableRecord
100
AcDbDimStyleTableRecord
  2
SLDDIMSTYLE0
 70
     0
 41
3.0
 44
0.0
 45
0.000000001
 73
     0
 74
     0
 77
     1
 78
    12
 79
     3
140
2.0
147
0.5
173
     1
178
     0
271
     2
272
     3
276
     2
284
    12
340
48
  0
DIMSTYLE
105
203
102
{ACAD_REACTORS
330
202
102
}
330
A
100
AcDbSymbolTableRecord
100
AcDbDimStyleTableRecord
  2
SLDDIMSTYLE1
 70
     0
 41
3.0
 44
0.0
 73
     0
 74
     0
 77
     1
 78
    12
 79
     3
140
2.0
147
0.5
173
     1
178
     0
179
     1
272
     3
276
     2
284
    12
340
48
  0
DIMSTYLE
105
27C
102
{ACAD_REACTORS
330
27B
102
}
330
A
100
AcDbSymbolTableRecord
100
AcDbDimStyleTableRecord
  2
SLDDIMSTYLE2
 70
     0
 41
3.0
 44
0.0
 73
     0
 74
     0
 77
     1
 78
    12
 79
     3
140
2.0
147
0.5
173
     1
178
     0
179
     2
272
     3
276
     2
284
    12
340
48
  0
ENDTAB
  0
TABLE
  2
BLOCK_RECORD
  5
1
330
0
100
AcDbSymbolTable
 70
    10
  0
BLOCK_RECORD
  5
1F
330
1
100
AcDbSymbolTableRecord
100
AcDbBlockTableRecord
  2
*Model_Space
340
22
  0
BLOCK_RECORD
  5
1B
330
1
100
AcDbSymbolTableRecord
100
AcDbBlockTableRecord
  2
*Paper_Space
340
1E
  0
BLOCK_RECORD
  5
23
330
1
100
AcDbSymbolTableRecord
100
AcDbBlockTableRecord
  2
*Paper_Space0
340
26
  0
BLOCK_RECORD
  5
1F9
330
1
100
AcDbSymbolTableRecord
100
AcDbBlockTableRecord
  2
_D
340
0
  0
BLOCK_RECORD
  5
204
330
1
100
AcDbSymbolTableRecord
100
AcDbBlockTableRecord
  2
_D_1
340
0
  0
BLOCK_RECORD
  5
20C
330
1
100
AcDbSymbolTableRecord
100
AcDbBlockTableRecord
  2
_D_2
340
0
  0
BLOCK_RECORD
  5
216
330
1
100
AcDbSymbolTableRecord
100
AcDbBlockTableRecord
  2
_D_3
340
0
  0
BLOCK_RECORD
  5
220
330
1
100
AcDbSymbolTableRecord
100
AcDbBlockTableRecord
  2
_D_4
340
0
  0
BLOCK_RECORD
  5
22C
330
1
100
AcDbSymbolTableRecord
100
AcDbBlockTableRecord
  2
_D_5
340
0
  0
BLOCK_RECORD
  5
271
330
1
100
AcDbSymbolTableRecord
100
AcDbBlockTableRecord
  2
_D_6
340
0
  0
BLOCK_RECORD
  5
27D
330
1
100
AcDbSymbolTableRecord
100
AcDbBlockTableRecord
  2
_D_7
340
0
  0
BLOCK_RECORD
  5
288
330
1
100
AcDbSymbolTableRecord
100
AcDbBlockTableRecord
  2
SW_CENTERMARKSYMBOL_0
340
0
102
{BLKREFS
331
293
102
}
  0
ENDTAB
  0
ENDSEC
  0
SECTION
  2
BLOCKS
  0
BLOCK
  5
20
330
1F
100
AcDbEntity
  8
0
100
AcDbBlockBegin
  2
*Model_Space
 70
     0
 10
0.0
 20
0.0
 30
0.0
  3
*Model_Space
  1

  0
ENDBLK
  5
21
330
1F
100
AcDbEntity
  8
0
100
AcDbBlockEnd
  0
BLOCK
  5
1C
330
1B
100
AcDbEntity
 67
     1
  8
0
100
AcDbBlockBegin
  2
*Paper_Space
 70
     0
 10
0.0
 20
0.0
 30
0.0
  3
*Paper_Space
  1

  0
ENDBLK
  5
1D
330
1B
100
AcDbEntity
 67
     1
  8
0
100
AcDbBlockEnd
  0
BLOCK
  5
24
330
23
100
AcDbEntity
  8
0
100
AcDbBlockBegin
  2
*Paper_Space0
 70
     0
 10
0.0
 20
0.0
 30
0.0
  3
*Paper_Space0
  1

  0
ENDBLK
  5
25
330
23
100
AcDbEntity
  8
0
100
AcDbBlockEnd
  0
BLOCK
  5
1FA
330
1F9
100
AcDbEntity
  8
0
100
AcDbBlockBegin
  2
_D
 70
     0
 10
0.0
 20
0.0
 30
0.0
  3
_D
  1

  0
SOLID
  5
1FC
330
1F9
100
AcDbEntity
  8
VERMASSUNG
100
AcDbTrace
 10
288.7067254052
 20
118.1974884184
 30
0.0
 11
288.2567254052
 21
115.1974884184
 31
0.0
 12
289.1567254052
 22
115.1974884184
 32
0.0
 13
289.1567254052
 23
115.1974884184
 33
0.0
  0
SOLID
  5
1FD
330
1F9
100
AcDbEntity
  8
VERMASSUNG
100
AcDbTrace
 10
288.7067254052
 20
91.1974884184
 30
0.0
 11
289.1567254052
 21
94.1974884184
 31
0.0
 12
288.2567254052
 22
94.1974884184
 32
0.0
 13
288.2567254052
 23
94.1974884184
 33
0.0
  0
LINE
  5
1FE
330
1F9
100
AcDbEntity
  8
VERMASSUNG
100
AcDbLine
 10
274.5729491294
 20
118.1974884184
 30
0.0
 11
289.7067254052
 21
118.1974884184
 31
0.0
  0
LINE
  5
1FF
330
1F9
100
AcDbEntity
  8
VERMASSUNG
100
AcDbLine
 10
286.354545247
 20
91.1974884184
 30
0.0
 11
289.7067254052
 21
91.1974884184
 31
0.0
  0
LINE
  5
200
330
1F9
100
AcDbEntity
  8
VERMASSUNG
100
AcDbLine
 10
288.7067254052
 20
118.1974884184
 30
0.0
 11
288.7067254052
 21
91.1974884184
 31
0.0
  0
MTEXT
  5
201
330
1F9
100
AcDbEntity
  8
VERMASSUNG
100
AcDbMText
 10
286.1285900421
 20
102.3974883674
 30
0.1
 40
2.0
 41
0.0
 71
     1
 72
     1
  1
27
  7
SLDTEXTSTYLE0
 11
-7.044195017643634E-15
 21
1.0
 31
0.0
 73
     1
 44
1.0
  0
ENDBLK
  5
1FB
330
1F9
100
AcDbEntity
  8
0
100
AcDbBlockEnd
  0
BLOCK
  5
205
330
204
100
AcDbEntity
  8
0
100
AcDbBlockBegin
  2
_D_1
 70
     0
 10
0.0
 20
0.0
 30
0.0
  3
_D_1
  1

  0
ARC
  5
207
330
204
100
AcDbEntity
  8
VERMASSUNG
100
AcDbCircle
 10
273.6435256079
 20
91.1974884184
 30
0.0
 40
10.14618943090187
100
AcDbArc
 50
0.0
 51
95.0121473722
  0
SOLID
  5
208
330
204
100
AcDbEntity
  8
VERMASSUNG
100
AcDbTrace
 10
283.7897150388
 20
91.1974884184
 30
0.0
 11
283.8053277939
 21
94.2310105037
 31
0.0
 12
282.9146097503
 22
94.1020866237
 32
0.0
 13
282.9146097503
 23
94.1020866237
 33
0.0
  0
SOLID
  5
209
330
204
100
AcDbEntity
  8
VERMASSUNG
100
AcDbTrace
 10
272.7570840272
 20
101.3048808265
 30
0.0
 11
275.7270308993
 21
100.6868876413
 31
0.0
 12
275.777642485
 22
101.5854634408
 32
0.0
 13
275.777642485
 23
101.5854634408
 33
0.0
  0
MTEXT
  5
20A
330
204
100
AcDbEntity
  8
VERMASSUNG
100
AcDbMText
 10
280.1006482135
 20
102.538741006
 30
0.1
 40
2.0
 41
0.0
 71
     1
 72
     1
  1
95°
  7
SLDTEXTSTYLE0
 11
0.7373489491614972
 21
-0.6755120481312201
 31
0.0
 73
     1
 44
1.0
  0
ENDBLK
  5
206
330
204
100
AcDbEntity
  8
0
100
AcDbBlockEnd
  0
BLOCK
  5
20D
330
20C
100
AcDbEntity
  8
0
100
AcDbBlockBegin
  2
_D_2
 70
     0
 10
0.0
 20
0.0
 30
0.0
  3
_D_2
  1

  0
SOLID
  5
20F
330
20C
100
AcDbEntity
  8
VERMASSUNG
100
AcDbTrace
 10
133.6435256079
 20
75.1695977371
 30
0.0
 11
136.6435256079
 21
74.7195977371
 31
0.0
 12
136.6435256079
 22
75.6195977371
 32
0.0
 13
136.6435256079
 23
75.6195977371
 33
0.0
  0
SOLID
  5
210
330
20C
100
AcDbEntity
  8
VERMASSUNG
100
AcDbTrace
 10
273.6435256079
 20
75.1695977371
 30
0.0
 11
270.6435256079
 21
75.6195977371
 31
0.0
 12
270.6435256079
 22
74.7195977371
 32
0.0
 13
270.6435256079
 23
74.7195977371
 33
0.0
  0
LINE
  5
211
330
20C
100
AcDbEntity
  8
VERMASSUNG
100
AcDbLine
 10
133.6435256079
 20
86.9974884184
 30
0.0
 11
133.6435256079
 21
74.1695977371
 31
0.0
  0
LINE
  5
212
330
20C
100
AcDbEntity
  8
VERMASSUNG
100
AcDbLine
 10
273.6435256079
 20
91.2158991929
 30
0.0
 11
273.6435256079
 21
74.1695977371
 31
0.0
  0
LINE
  5
213
330
20C
100
AcDbEntity
  8
VERMASSUNG
100
AcDbLine
 10
133.6435256079
 20
75.1695977371
 30
0.0
 11
273.6435256079
 21
75.1695977371
 31
0.0
  0
MTEXT
  5
214
330
20C
100
AcDbEntity
  8
VERMASSUNG
100
AcDbMText
 10
200.7435254119
 20
77.7477331002
 30
0.1
 40
2.0
 41
0.0
 71
     1
 72
     1
  1
140
  7
SLDTEXTSTYLE0
 73
     1
 44
1.0
  0
ENDBLK
  5
20E
330
20C
100
AcDbEntity
  8
0
100
AcDbBlockEnd
  0
BLOCK
  5
217
330
216
100
AcDbEntity
  8
0
100
AcDbBlockBegin
  2
_D_3
 70
     0
 10
0.0
 20
0.0
 30
0.0
  3
_D_3
  1

  0
SOLID
  5
219
330
216
100
AcDbEntity
  8
VERMASSUNG
100
AcDbTrace
 10
101.7435256079
 20
62.1269980906
 30
0.0
 11
104.7435256079
 21
61.6769980906
 31
0.0
 12
104.7435256079
 22
62.5769980906
 32
0.0
 13
104.7435256079
 23
62.5769980906
 33
0.0
  0
SOLID
  5
21A
330
216
100
AcDbEntity
  8
VERMASSUNG
100
AcDbTrace
 10
273.6435256079
 20
62.1269980906
 30
0.0
 11
270.6435256079
 21
62.5769980906
 31
0.0
 12
270.6435256079
 22
61.6769980906
 32
0.0
 13
270.6435256079
 23
61.6769980906
 33
0.0
  0
LINE
  5
21B
330
216
100
AcDbEntity
  8
VERMASSUNG
100
AcDbLine
 10
101.7435256079
 20
98.2383706564
 30
0.0
 11
101.7435256079
 21
61.1269980906
 31
0.0
  0
LINE
  5
21C
330
216
100
AcDbEntity
  8
VERMASSUNG
100
AcDbLine
 10
273.6435256079
 20
91.2158991929
 30
0.0
 11
273.6435256079
 21
61.1269980906
 31
0.0
  0
LINE
  5
21D
330
216
100
AcDbEntity
  8
VERMASSUNG
100
AcDbLine
 10
101.7435256079
 20
62.1269980906
 30
0.0
 11
273.6435256079
 21
62.1269980906
 31
0.0
  0
MTEXT
  5
21E
330
216
100
AcDbEntity
  8
VERMASSUNG
100
AcDbMText
 10
184.0935254369
 20
64.7051334537
 30
0.1
 40
2.0
 41
0.0
 71
     1
 72
     1
  1
171.9
  7
SLDTEXTSTYLE0
 73
     1
 44
1.0
  0
ENDBLK
  5
218
330
216
100
AcDbEntity
  8
0
100
AcDbBlockEnd
  0
BLOCK
  5
221
330
220
100
AcDbEntity
  8
0
100
AcDbBlockBegin
  2
_D_4
 70
     0
 10
0.0
 20
0.0
 30
0.0
  3
_D_4
  1

  0
SOLID
  5
223
330
220
100
AcDbEntity
  8
VERMASSUNG
100
AcDbTrace
 10
95.2829666283
 20
149.6974884184
 30
0.0
 11
94.8329666283
 21
146.6974884184
 31
0.0
 12
95.7329666283
 22
146.6974884184
 32
0.0
 13
95.7329666283
 23
146.6974884184
 33
0.0
  0
SOLID
  5
224
330
220
100
AcDbEntity
  8
VERMASSUNG
100
AcDbTrace
 10
95.2829666283
 20
86.6974884184
 30
0.0
 11
95.7329666283
 21
89.6974884184
 31
0.0
 12
94.8329666283
 22
89.6974884184
 32
0.0
 13
94.8329666283
 23
89.6974884184
 33
0.0
  0
LINE
  5
225
330
220
100
AcDbEntity
  8
VERMASSUNG
100
AcDbLine
 10
133.9435256079
 20
149.6974884184
 30
0.0
 11
94.2829666283
 21
149.6974884184
 31
0.0
  0
LINE
  5
226
330
220
100
AcDbEntity
  8
VERMASSUNG
100
AcDbLine
 10
133.9435256079
 20
86.6974884184
 30
0.0
 11
94.2829666283
 21
86.6974884184
 31
0.0
  0
LINE
  5
227
330
220
100
AcDbEntity
  8
VERMASSUNG
100
AcDbLine
 10
95.2829666283
 20
149.6974884184
 30
0.0
 11
95.2829666283
 21
86.6974884184
 31
0.0
  0
MTEXT
  5
228
330
220
100
AcDbEntity
  8
VERMASSUNG
100
AcDbMText
 10
92.5048311393
 20
111.9941018791
 30
0.0
 40
2.0
 41
0.0
 71
     1
 72
     1
  1
HSK
  7
SLDTEXTSTYLE0
 11
-7.044195017643634E-15
 21
1.0
 31
0.0
 73
     1
 44
1.0
  0
MTEXT
  5
229
330
220
100
AcDbEntity
  8
VERMASSUNG
100
AcDbMText
 10
92.7048311488
 20
117.9941019313
 30
0.0
 40
2.0
 41
0.0
 71
     1
 72
     1
  1
%%c
  7
SLDTEXTSTYLE0
 11
-7.044195017643634E-15
 21
1.0
 31
0.0
 73
     1
 44
1.0
  0
MTEXT
  5
22A
330
220
100
AcDbEntity
  8
VERMASSUNG
100
AcDbMText
 10
92.7048312652
 20
121.6040663476
 30
0.0
 40
2.0
 41
0.0
 71
     1
 72
     1
  1
63
  7
SLDTEXTSTYLE0
 11
-7.044195017643634E-15
 21
1.0
 31
0.0
 73
     1
 44
1.0
  0
ENDBLK
  5
222
330
220
100
AcDbEntity
  8
0
100
AcDbBlockEnd
  0
BLOCK
  5
22D
330
22C
100
AcDbEntity
  8
0
100
AcDbBlockBegin
  2
_D_5
 70
     0
 10
0.0
 20
0.0
 30
0.0
  3
_D_5
  1

  0
SOLID
  5
22F
330
22C
100
AcDbEntity
  8
VERMASSUNG
100
AcDbTrace
 10
182.2559615874
 20
98.1974884184
 30
0.0
 11
182.7059615874
 21
101.1974884184
 31
0.0
 12
181.8059615874
 22
101.1974884184
 32
0.0
 13
181.8059615874
 23
101.1974884184
 33
0.0
  0
SOLID
  5
230
330
22C
100
AcDbEntity
  8
VERMASSUNG
100
AcDbTrace
 10
182.2559615874
 20
138.1974884184
 30
0.0
 11
181.8059615874
 21
135.1974884184
 31
0.0
 12
182.7059615874
 22
135.1974884184
 32
0.0
 13
182.7059615874
 23
135.1974884184
 33
0.0
  0
LINE
  5
231
330
22C
100
AcDbEntity
  8
VERMASSUNG
100
AcDbLine
 10
182.2559615874
 20
98.1974884184
 30
0.0
 11
182.2559615874
 21
138.1974884184
 31
0.0
  0
MTEXT
  5
232
330
22C
100
AcDbEntity
  8
VERMASSUNG
100
AcDbMText
 10
179.6778261079
 20
103.6792250555
 30
0.1
 40
2.0
 41
0.0
 71
     1
 72
     1
  1
%%c
  7
SLDTEXTSTYLE0
 11
6.123233995736766E-17
 21
1.0
 31
0.0
 73
     1
 44
1.0
  0
MTEXT
  5
233
330
22C
100
AcDbEntity
  8
VERMASSUNG
100
AcDbMText
 10
179.4778260984
 20
107.2892250698
 30
0.1
 40
2.0
 41
0.0
 71
     1
 72
     1
  1
40
  7
SLDTEXTSTYLE0
 11
6.123233995736766E-17
 21
1.0
 31
0.0
 73
     1
 44
1.0
  0
ENDBLK
  5
22E
330
22C
100
AcDbEntity
  8
0
100
AcDbBlockEnd
  0
BLOCK
  5
272
330
271
100
AcDbEntity
  8
0
100
AcDbBlockBegin
  2
_D_6
 70
     0
 10
0.0
 20
0.0
 30
0.0
  3
_D_6
  1

  0
SOLID
  5
274
330
271
100
AcDbEntity
  8
VERMASSUNG
100
AcDbTrace
 10
13.5869220687
 20
91.2374159103
 30
0.0
 11
14.0369220687
 21
94.2374159103
 31
0.0
 12
13.1369220687
 22
94.2374159103
 32
0.0
 13
13.1369220687
 23
94.2374159103
 33
0.0
  0
SOLID
  5
275
330
271
100
AcDbEntity
  8
VERMASSUNG
100
AcDbTrace
 10
13.5869220687
 20
141.2374159103
 30
0.0
 11
13.1369220687
 21
138.2374159103
 31
0.0
 12
14.0369220687
 22
138.2374159103
 32
0.0
 13
14.0369220687
 23
138.2374159103
 33
0.0
  0
LINE
  5
276
330
271
100
AcDbEntity
  8
VERMASSUNG
100
AcDbLine
 10
49.2436007018
 20
91.2374159103
 30
0.0
 11
12.5869220687
 21
91.2374159103
 31
0.0
  0
LINE
  5
277
330
271
100
AcDbEntity
  8
VERMASSUNG
100
AcDbLine
 10
49.2436007018
 20
141.2374159103
 30
0.0
 11
12.5869220687
 21
141.2374159103
 31
0.0
  0
LINE
  5
278
330
271
100
AcDbEntity
  8
VERMASSUNG
100
AcDbLine
 10
13.5869220687
 20
91.2374159103
 30
0.0
 11
13.5869220687
 21
141.2374159103
 31
0.0
  0
MTEXT
  5
279
330
271
100
AcDbEntity
  8
VERMASSUNG
100
AcDbMText
 10
11.0087865892
 20
113.0340944208
 30
0.0
 40
2.0
 41
0.0
 71
     1
 72
     1
  1
%%c
  7
SLDTEXTSTYLE0
 11
6.123233995736766E-17
 21
1.0
 31
0.0
 73
     1
 44
1.0
  0
MTEXT
  5
27A
330
271
100
AcDbEntity
  8
VERMASSUNG
100
AcDbMText
 10
11.0087867056
 20
116.6439287897
 30
0.0
 40
2.0
 41
0.0
 71
     1
 72
     1
  1
50
  7
SLDTEXTSTYLE0
 11
6.123233995736766E-17
 21
1.0
 31
0.0
 73
     1
 44
1.0
  0
ENDBLK
  5
273
330
271
100
AcDbEntity
  8
0
100
AcDbBlockEnd
  0
BLOCK
  5
27E
330
27D
100
AcDbEntity
  8
0
100
AcDbBlockBegin
  2
_D_7
 70
     0
 10
0.0
 20
0.0
 30
0.0
  3
_D_7
  1

  0
ARC
  5
280
330
27D
100
AcDbEntity
  8
VERMASSUNG
100
AcDbCircle
 10
49.2436007018
 20
95.4981645263
 30
0.0
 40
65.0169227843621
100
AcDbArc
 50
90.0
 51
94.0
  0
ARC
  5
281
330
27D
100
AcDbEntity
  8
VERMASSUNG
100
AcDbCircle
 10
49.2436007018
 20
95.4981645263
 30
0.0
 40
65.01692278436207
100
AcDbArc
 50
84.7176881916
 51
90.0
  0
ARC
  5
282
330
27D
100
AcDbEntity
  8
VERMASSUNG
100
AcDbCircle
 10
49.2436007018
 20
95.4981645263
 30
0.0
 40
65.0169227843621
100
AcDbArc
 50
94.0
 51
99.2823118084
  0
SOLID
  5
283
330
27D
100
AcDbEntity
  8
VERMASSUNG
100
AcDbTrace
 10
49.2436007018
 20
160.5150873106
 30
0.0
 11
52.2324298328
 21
159.9960493297
 31
0.0
 12
52.2531771026
 22
160.8958101595
 32
0.0
 13
52.2531771026
 23
160.8958101595
 33
0.0
  0
SOLID
  5
284
330
27D
100
AcDbEntity
  8
VERMASSUNG
100
AcDbTrace
 10
44.7082494347
 20
160.3567093545
 30
0.0
 11
41.6794463273
 21
160.5265673445
 31
0.0
 12
41.7629072005
 22
159.6304455432
 32
0.0
 13
41.7629072005
 23
159.6304455432
 33
0.0
  0
LINE
  5
285
330
27D
100
AcDbEntity
  8
VERMASSUNG
100
AcDbLine
 10
49.2436007018
 20
152.1974884184
 30
0.0
 11
49.2436007018
 21
161.5150873106
 31
0.0
  0
LINE
  5
286
330
27D
100
AcDbEntity
  8
VERMASSUNG
100
AcDbLine
 10
46.3451577964
 20
136.9478291806
 30
0.0
 11
44.6384929609
 21
161.3542734047
 31
0.0
  0
MTEXT
  5
287
330
27D
100
AcDbEntity
  8
VERMASSUNG
100
AcDbMText
 10
44.5859682397
 20
162.9717767465
 30
-54.3758926333
 40
2.0
 41
0.0
 71
     1
 72
     1
  1
4°
  7
SLDTEXTSTYLE0
 11
0.9993908270190957
 21
0.03489949670250368
 31
0.0
 73
     1
 44
1.0
  0
ENDBLK
  5
27F
330
27D
100
AcDbEntity
  8
0
100
AcDbBlockEnd
  0
BLOCK
  5
289
330
288
100
AcDbEntity
  8
0
100
AcDbBlockBegin
  2
SW_CENTERMARKSYMBOL_0
 70
     0
 10
0.0
 20
0.0
 30
0.0
  3
SW_CENTERMARKSYMBOL_0
  1

  0
LINE
  5
28B
330
288
100
AcDbEntity
  8
VERMASSUNG
 62
     0
100
AcDbLine
 10
0.0
 20
0.0
 30
0.0
 11
0.0
 21
2.5
 31
0.0
  0
LINE
  5
28C
330
288
100
AcDbEntity
  8
VERMASSUNG
 62
     0
100
AcDbLine
 10
0.0
 20
0.0
 30
0.0
 11
-2.5
 21
0.0
 31
0.0
  0
LINE
  5
28D
330
288
100
AcDbEntity
  8
VERMASSUNG
 62
     0
100
AcDbLine
 10
0.0
 20
0.0
 30
0.0
 11
0.0
 21
-2.5
 31
0.0
  0
LINE
  5
28E
330
288
100
AcDbEntity
  8
VERMASSUNG
 62
     0
100
AcDbLine
 10
0.0
 20
0.0
 30
0.0
 11
2.5
 21
0.0
 31
0.0
  0
LINE
  5
28F
330
288
100
AcDbEntity
  8
VERMASSUNG
 62
     0
100
AcDbLine
 10
0.0
 20
5.0
 30
0.0
 11
0.0
 21
34.0
 31
0.0
  0
LINE
  5
290
330
288
100
AcDbEntity
  8
VERMASSUNG
 62
     0
100
AcDbLine
 10
-5.0
 20
0.0
 30
0.0
 11
-34.0
 21
0.0
 31
0.0
  0
LINE
  5
291
330
288
100
AcDbEntity
  8
VERMASSUNG
 62
     0
100
AcDbLine
 10
0.0
 20
-5.0
 30
0.0
 11
0.0
 21
-34.0
 31
0.0
  0
LINE
  5
292
330
288
100
AcDbEntity
  8
VERMASSUNG
 62
     0
100
AcDbLine
 10
5.0
 20
0.0
 30
0.0
 11
34.0
 21
0.0
 31
0.0
  0
ENDBLK
  5
28A
330
288
100
AcDbEntity
  8
0
100
AcDbBlockEnd
  0
ENDSEC
  0
SECTION
  2
ENTITIES
  0
MTEXT
  5
49
330
1F
100
AcDbEntity
  8
KOPF_DÜNN
100
AcDbMText
 10
13.8892156294
 20
23.8442973028
 30
0.0
 40
3.0
 41
0.0
 71
     1
 72
     1
  1
HA6.BCC.LLC.140
  7
SLDTEXTSTYLE0
 73
     1
 44
1.0
  0
MTEXT
  5
4A
330
1F
100
AcDbEntity
  8
VERMASSUNG
100
AcDbMText
 10
13.9329988022
 20
28.8834360957
 30
0.0
 40
3.0
 41
0.0
 71
     1
 72
     1
  1
Bohrstange links_Boring bar left
  7
SLDTEXTSTYLE0
 73
     1
 44
1.0
  0
MTEXT
  5
4B
330
1F
100
AcDbEntity
  8
VERMASSUNG
100
AcDbMText
 10
98.8601118557
 20
13.8365368179
 30
0.0
 40
2.0
 41
0.0
 71
     1
 72
     1
  1
Datum: 24.02.2011
  7
SLDTEXTSTYLE0
 73
     1
 44
1.0
  0
MTEXT
  5
4D
330
1F
100
AcDbEntity
  8
VERMASSUNG
100
AcDbMText
 10
13.933048693
 20
18.0482802738
 30
0.0
 40
2.0
 41
0.0
 71
     1
 72
     1
  1
DIN 69893 HSK T 63 / CC.. 12 04..
  7
SLDTEXTSTYLE1
 73
     1
 44
1.0
  0
MTEXT
  5
4E
330
1F
100
AcDbEntity
  8
VERMASSUNG
100
AcDbMText
 10
13.9808475933
 20
13.9090973692
 30
0.0
 40
2.0
 41
0.0
 71
     1
 72
     1
  1
Gewicht: 1528g
  7
SLDTEXTSTYLE0
 73
     1
 44
1.0
  0
LINE
  5
4F
330
1F
100
AcDbEntity
  8
0
  6
Continuous
 62
     7
370
    15
100
AcDbLine
 10
267.634074086
 20
99.540679994
 30
0.0
 11
267.634074086
 21
99.4271645496
 31
0.0
  0
LINE
  5
50
330
1F
100
AcDbEntity
  8
0
  6
Continuous
 62
     7
370
    15
100
AcDbLine
 10
265.3686807755
 20
99.1703186373
 30
0.0
 11
265.3686807755
 21
99.2830535242
 31
0.0
  0
LINE
  5
51
330
1F
100
AcDbEntity
  8
0
  6
Continuous
 62
     7
370
    15
100
AcDbLine
 10
267.7831780074
 20
97.4417139962
 30
0.0
 11
267.7831780074
 21
97.3290022698
 31
0.0
  0
LINE
  5
52
330
1F
100
AcDbEntity
  8
0
  6
Continuous
 62
     7
370
    15
100
AcDbLine
 10
265.5177846968
 20
97.0705019421
 30
0.0
 11
265.5177846968
 21
97.1840875263
 31
0.0
  0
LINE
  5
53
330
1F
100
AcDbEntity
  8
0
  6
Continuous
 62
     7
370
    15
100
AcDbLine
 10
270.0783642585
 20
98.2803176267
 30
0.0
 11
270.0783642585
 21
98.2942689214
 31
0.0
  0
LINE
  5
54
330
1F
100
AcDbEntity
  8
0
  6
Continuous
 62
     7
370
    15
100
AcDbLine
 10
263.0783642585
 20
98.2942689214
 30
0.0
 11
263.0783642585
 21
98.2803176267
 31
0.0
  0
LINE
  5
55
330
1F
100
AcDbEntity
  8
0
  6
Continuous
 62
     7
370
    15
100
AcDbLine
 10
133.9435256079
 20
86.6974884184
 30
0.0
 11
138.5935256079
 21
86.6974884184
 31
0.0
  0
LINE
  5
56
330
1F
100
AcDbEntity
  8
0
  6
Continuous
 62
     7
370
    15
100
AcDbLine
 10
138.5977298053
 20
149.6974884184
 30
0.0
 11
133.9435256079
 21
149.6974884184
 31
0.0
  0
ARC
  5
57
330
1F
100
AcDbEntity
  8
0
  6
Continuous
 62
     7
370
    15
100
AcDbCircle
 10
133.9435256079
 20
86.9974884184
 30
0.0
 40
0.3000000000000114
100
AcDbArc
 50
180.0
 51
270.0
  0
ARC
  5
58
330
1F
100
AcDbEntity
  8
0
  6
Continuous
 62
     7
370
    15
100
AcDbCircle
 10
133.9435256079
 20
149.3974884184
 30
0.0
 40
0.3000000000000114
100
AcDbArc
 50
90.0
 51
180.0
  0
ARC
  5
59
330
1F
100
AcDbEntity
  8
0
  6
Continuous
 62
     7
370
    15
100
AcDbCircle
 10
133.1435256079
 20
93.6270575567
 30
0.0
 40
0.6000000000000019
100
AcDbArc
 50
33.5573097619
 51
90.0
  0
ARC
  5
5A
330
1F
100
AcDbEntity
  8
0
  6
Continuous
 62
     7
370
    15
100
AcDbCircle
 10
133.1435256079
 20
142.7679192801
 30
0.0
 40
0.6000000000000019
100
AcDbArc
 50
270.0
 51
326.4426902381
  0
LINE
  5
5B
330
1F
100
AcDbEntity
  8
0
  6
Continuous
 62
     7
370
    15
100
AcDbLine
 10
131.6435256079
 20
93.9770575567
 30
0.0
 11
132.5002383813
 21
94.2066130525
 31
0.0
  0
LINE
  5
5C
330
1F
100
AcDbEntity
  8
0
  6
Continuous
 62
     7
370
    15
100
AcDbLine
 10
132.5002383813
 20
142.1883637844
 30
0.0
 11
131.6435256079
 21
142.4179192801
 31
0.0
  0
LINE
  5
5D
330
1F
100
AcDbEntity
  8
0
  6
Continuous
 62
     7
370
    15
100
AcDbLine
 10
120.4131034254
 20
141.8552728782
 30
0.0
 11
107.8435256079
 21
141.2255345106
 31
0.0
  0
LINE
  5
5E
330
1F
100
AcDbEntity
  8
0
  6
Continuous
 62
     7
370
    15
100
AcDbLine
 10
131.6435256079
 20
142.4179192801
 30
0.0
 11
128.8249162504
 21
142.2767063865
 31
0.0
  0
LINE
  5
5F
330
1F
100
AcDbEntity
  8
0
  6
Continuous
 62
     7
370
    15
100
AcDbLine
 10
128.8251377256
 20
94.1182593544
 30
0.0
 11
131.6435256079
 21
93.9770575567
 31
0.0
  0
LINE
  5
60
330
1F
100
AcDbEntity
  8
0
  6
Continuous
 62
     7
370
    15
100
AcDbLine
 10
111.8435256079
 20
94.9690415246
 30
0.0
 11
120.4138023771
 21
94.539668941
 31
0.0
  0
ARC
  5
61
330
1F
100
AcDbEntity
  8
0
  6
Continuous
 62
     7
370
    15
100
AcDbCircle
 10
132.6555298083
 20
93.6270575567
 30
0.0
 40
0.5999999999999943
100
AcDbArc
 50
90.0
 51
105.0
  0
ARC
  5
62
330
1F
100
AcDbEntity
  8
0
  6
Continuous
 62
     7
370
    15
100
AcDbCircle
 10
132.6555298083
 20
142.7679192801
 30
0.0
 40
0.5999999999999934
100
AcDbArc
 50
255.0
 51
270.0
  0
LINE
  5
63
330
1F
100
AcDbEntity
  8
0
  6
Continuous
 62
     7
370
    15
100
AcDbLine
 10
132.6555298083
 20
94.2270575567
 30
0.0
 11
133.1435256079
 21
94.2270575567
 31
0.0
  0
LINE
  5
64
330
1F
100
AcDbEntity
  8
0
  6
Continuous
 62
     7
370
    15
100
AcDbLine
 10
133.1435256079
 20
142.1679192801
 30
0.0
 11
132.6555298083
 21
142.1679192801
 31
0.0
  0
ARC
  5
65
330
1F
100
AcDbEntity
  8
0
  6
Continuous
 62
     7
370
    15
100
AcDbCircle
 10
162.5935256079
 20
95.1974884184
 30
0.0
 40
3.0
100
AcDbArc
 50
90.0
 51
180.0
  0
ARC
  5
66
330
1F
100
AcDbEntity
  8
0
  6
Continuous
 62
     7
370
    15
100
AcDbCircle
 10
162.5935256079
 20
141.1974884184
 30
0.0
 40
3.0
100
AcDbArc
 50
180.0
 51
270.0
  0
LINE
  5
67
330
1F
100
AcDbEntity
  8
0
  6
Continuous
 62
     7
370
    15
100
AcDbLine
 10
162.5935256079
 20
98.1974884184
 30
0.0
 11
247.6435256079
 21
98.1974884184
 31
0.0
  0
LINE
  5
68
330
1F
100
AcDbEntity
  8
0
  6
Continuous
 62
     7
370
    15
100
AcDbLine
 10
244.3711067295
 20
138.1974884184
 30
0.0
 11
162.5935256079
 21
138.1974884184
 31
0.0
  0
LINE
  5
69
330
1F
100
AcDbEntity
  8
0
  6
Continuous
 62
     7
370
    15
100
AcDbLine
 10
102.8935256079
 20
97.3849884184
 30
0.0
 11
110.4435256079
 21
97.3849884184
 31
0.0
  0
ARC
  5
6A
330
1F
100
AcDbEntity
  8
0
  6
Continuous
 62
     7
370
    15
100
AcDbCircle
 10
110.4435256079
 20
95.9849884184
 30
0.0
 40
1.399999999999996
100
AcDbArc
 50
37.6443616934
 51
90.0
  0
LINE
  5
6B
330
1F
100
AcDbEntity
  8
0
  6
Continuous
 62
     7
370
    15
100
AcDbLine
 10
101.9144656729
 20
97.9502489355
 30
0.0
 11
102.8935256079
 21
97.3849884184
 31
0.0
  0
ARC
  5
6C
330
1F
100
AcDbEntity
  8
0
  6
Continuous
 62
     7
370
    15
100
AcDbCircle
 10
106.4435256079
 20
140.4674884184
 30
0.0
 40
1.400000000000034
100
AcDbArc
 50
270.0
 51
301.7485287426
  0
LINE
  5
6D
330
1F
100
AcDbEntity
  8
0
  6
Continuous
 62
     7
370
    15
100
AcDbLine
 10
106.4435256079
 20
139.0674884184
 30
0.0
 11
103.0344140093
 21
139.0674884184
 31
0.0
  0
LINE
  5
6E
330
1F
100
AcDbEntity
  8
0
  6
Continuous
 62
     7
370
    15
100
AcDbLine
 10
102.8763942886
 20
139.0575976466
 30
0.0
 11
101.9948901772
 21
138.5486610106
 31
0.0
  0
LINE
  5
6F
330
1F
100
AcDbEntity
  8
0
  6
Continuous
 62
     7
370
    15
100
AcDbLine
 10
247.6435256079
 20
98.1974884184
 30
0.0
 11
250.3431194688
 21
95.4978945575
 31
0.0
  0
CIRCLE
  5
70
330
1F
100
AcDbEntity
  8
0
  6
Continuous
 62
     7
370
    15
100
AcDbCircle
 10
266.5776393672
 20
98.2863277842
 30
0.0
 40
3.497561860214445
  0
CIRCLE
  5
71
330
1F
100
AcDbEntity
  8
0
  6
Continuous
 62
     7
370
    15
100
AcDbCircle
 10
266.5776264564
 20
98.2496273369
 30
0.0
 40
2.631818950143596
  0
CIRCLE
  5
72
330
1F
100
AcDbEntity
  8
0
  6
Continuous
 62
     7
370
    15
100
AcDbCircle
 10
266.5776654984
 20
98.2489007888
 30
0.0
 40
1.998653675191698
  0
SPLINE
  5
73
330
1F
100
AcDbEntity
  8
0
  6
Continuous
 62
     7
370
    15
100
AcDbSpline
210
0.0
220
0.0
230
1.0
 70
     8
 71
     3
 72
    15
 73
    11
 74
     0
 42
0.00000001
 43
0.00000001
 12
1.0
 22
0.0
 32
0.0
 13
1.0
 23
0.0
 33
0.0
 40
0.0
 40
0.0
 40
0.0
 40
0.0
 40
0.1262470803731036
 40
0.2533633350513353
 40
0.3794185517357516
 40
0.5042689738350611
 40
0.6284502821606411
 40
0.7526361292231489
 40
0.8774891912114748
 40
1.0
 40
1.0
 40
1.0
 40
1.0
 10
268.2676716765203
 20
97.98340743121429
 30
0.0
 10
268.3085292140411
 20
98.00014019118981
 30
0.0
 10
268.3905255813049
 20
98.0337209113101
 30
0.0
 10
268.4833371385956
 20
98.13269025512197
 30
0.0
 10
268.5391486524119
 20
98.25448562886801
 30
0.0
 10
268.5506231961281
 20
98.38811788276172
 30
0.0
 10
268.5175952283385
 20
98.51783518641871
 30
0.0
 10
268.4439042361561
 20
98.62897968959194
 30
0.0
 10
268.3390976700518
 20
98.71264494043352
 30
0.0
 10
268.2550687164616
 20
98.7354040825498
 30
0.0
 10
268.2134520687528
 20
98.74667590207318
 30
0.0
  0
SPLINE
  5
74
330
1F
100
AcDbEntity
  8
0
  6
Continuous
 62
     7
370
    15
100
AcDbSpline
210
0.0
220
0.0
230
1.0
 70
     8
 71
     3
 72
    12
 73
     8
 74
     0
 42
0.00000001
 43
0.00000001
 12
1.0
 22
0.0
 32
0.0
 13
1.0
 23
0.0
 33
0.0
 40
0.0
 40
0.0
 40
0.0
 40
0.0
 40
0.2058748011360952
 40
0.4120995812665857
 40
0.6141693366127298
 40
0.8132901286728961
 40
1.0
 40
1.0
 40
1.0
 40
1.0
 10
268.2134520687528
 20
98.74667590207318
 30
0.0
 10
268.1388543763691
 20
98.76703684979692
 30
0.0
 10
267.9895321784841
 20
98.80779335804786
 30
0.0
 10
267.8050627666047
 20
98.95733511939844
 30
0.0
 10
267.6799795193803
 20
99.15083361624893
 30
0.0
 10
267.6223756487703
 20
99.36749075705505
 30
0.0
 10
267.6416322004835
 20
99.508620896518
 30
0.0
 10
267.6509507659418
 20
99.57691611688273
 30
0.0
  0
SPLINE
  5
75
330
1F
100
AcDbEntity
  8
0
  6
Continuous
 62
     7
370
    15
100
AcDbSpline
210
0.0
220
0.0
230
1.0
 70
     8
 71
     3
 72
    15
 73
    11
 74
     0
 42
0.00000001
 43
0.00000001
 12
1.0
 22
0.0
 32
0.0
 13
1.0
 23
0.0
 33
0.0
 40
0.0
 40
0.0
 40
0.0
 40
0.0
 40
0.126876550897334
 40
0.2539936290345831
 40
0.3800496379885245
 40
0.5049006370991534
 40
0.6290821973265863
 40
0.753267940771813
 40
0.8781205851189195
 40
1.0
 40
1.0
 40
1.0
 40
1.0
 10
267.6509507659418
 20
99.57691611688273
 30
0.0
 10
267.6564560820846
 20
99.620569566897
 30
0.0
 10
267.6674771511172
 20
99.7079592233039
 30
0.0
 10
267.6267819794964
 20
99.83726324885319
 30
0.0
 10
267.5482108428481
 20
99.94592325021115
 30
0.0
 10
267.4376292099923
 20
100.0223646632515
 30
0.0
 10
267.3086442188253
 20
100.0585885722147
 30
0.0
 10
267.1758942565916
 20
100.0506035789805
 30
0.0
 10
267.0520416181527
 20
100.0022707953685
 30
0.0
 10
266.9912523579779
 20
99.94164475096096
 30
0.0
 10
266.9612239965062
 20
99.91169701396215
 30
0.0
  0
SPLINE
  5
76
330
1F
100
AcDbEntity
  8
0
  6
Continuous
 62
     7
370
    15
100
AcDbSpline
210
0.0
220
0.0
230
1.0
 70
     8
 71
     3
 72
    12
 73
     8
 74
     0
 42
0.00000001
 43
0.00000001
 12
1.0
 22
0.0
 32
0.0
 13
1.0
 23
0.0
 33
0.0
 40
0.0
 40
0.0
 40
0.0
 40
0.0
 40
0.205794988208725
 40
0.4120010155282802
 40
0.6140549927929384
 40
0.8131810826683074
 40
1.0
 40
1.0
 40
1.0
 40
1.0
 10
266.9612239965062
 20
99.91169701396215
 30
0.0
 10
266.9069669118766
 20
99.85784940589085
 30
0.0
 10
266.7983443736817
 20
99.75004663866972
 30
0.0
 10
266.5774542354393
 20
99.66607554694183
 30
0.0
 10
266.3468606131344
 20
99.65467577737952
 30
0.0
 10
266.1287449238516
 20
99.71252550600485
 30
0.0
 10
266.0145063328483
 20
99.79899089869461
 30
0.0
 10
265.9592084808483
 20
99.8408449731024
 30
0.0
  0
SPLINE
  5
77
330
1F
100
AcDbEntity
  8
0
  6
Continuous
 62
     7
370
    15
100
AcDbSpline
210
0.0
220
0.0
230
1.0
 70
     8
 71
     3
 72
    15
 73
    11
 74
     0
 42
0.00000001
 43
0.00000001
 12
1.0
 22
0.0
 32
0.0
 13
1.0
 23
0.0
 33
0.0
 40
0.0
 40
0.0
 40
0.0
 40
0.0
 40
0.1268036956059689
 40
0.2539263442698138
 40
0.3799872671766379
 40
0.504841009795683
 40
0.6290227167745256
 40
0.7532063308917798
 40
0.8780553361590283
 40
1.0
 40
1.0
 40
1.0
 40
1.0
 10
265.9592084808483
 20
99.8408449731024
 30
0.0
 10
265.9236800088938
 20
99.86717941913199
 30
0.0
 10
265.8525336991763
 20
99.91991455099628
 30
0.0
 10
265.7190729687966
 20
99.94891681448397
 30
0.0
 10
265.5848914463836
 20
99.93506984830519
 30
0.0
 10
265.4630495462516
 20
99.87767471661601
 30
0.0
 10
265.3672950241964
 20
99.78448553393834
 30
0.0
 10
265.3084034873476
 20
99.6661470517102
 30
0.0
 10
265.2892911114058
 20
99.53546941129359
 30
0.0
 10
265.3123215931122
 20
99.45307152469096
 30
0.0
 10
265.3237013191804
 20
99.41235742282898
 30
0.0
  0
SPLINE
  5
78
330
1F
100
AcDbEntity
  8
0
  6
Continuous
 62
     7
370
    15
100
AcDbSpline
210
0.0
220
0.0
230
1.0
 70
     8
 71
     3
 72
    12
 73
     8
 74
     0
 42
0.00000001
 43
0.00000001
 12
1.0
 22
0.0
 32
0.0
 13
1.0
 23
0.0
 33
0.0
 40
0.0
 40
0.0
 40
0.0
 40
0.0
 40
0.205849740095443
 40
0.4120524486337743
 40
0.614108126289413
 40
0.8132431903674247
 40
1.0
 40
1.0
 40
1.0
 40
1.0
 10
265.3237013191804
 20
99.41235742282898
 30
0.0
 10
265.3440185953389
 20
99.33893927021936
 30
0.0
 10
265.3846879854813
 20
99.19197707564514
 30
0.0
 10
265.348231752936
 20
98.95978459886761
 30
0.0
 10
265.242726461326
 20
98.75482876753047
 30
0.0
 10
265.0822611280642
 20
98.59466760726764
 30
0.0
 10
264.9487846046697
 20
98.53846506425378
 30
0.0
 10
264.8841871063335
 20
98.51126519729218
 30
0.0
  0
SPLINE
  5
79
330
1F
100
AcDbEntity
  8
0
  6
Continuous
 62
     7
370
    15
100
AcDbSpline
210
0.0
220
0.0
230
1.0
 70
     8
 71
     3
 72
    15
 73
    11
 74
     0
 42
0.00000001
 43
0.00000001
 12
1.0
 22
0.0
 32
0.0
 13
1.0
 23
0.0
 33
0.0
 40
0.0
 40
0.0
 40
0.0
 40
0.0
 40
0.1262564375372339
 40
0.2533820972842116
 40
0.3794454811305087
 40
0.5043002379035935
 40
0.6284814530465991
 40
0.7526634909000971
 40
0.8775104621122228
 40
1.0
 40
1.0
 40
1.0
 40
1.0
 10
264.8841871063335
 20
98.51126519729218
 30
0.0
 10
264.8433276901665
 20
98.49359932534044
 30
0.0
 10
264.7613275580215
 20
98.45814595937514
 30
0.0
 10
264.6685140655843
 20
98.35712131270942
 30
0.0
 10
264.6127048645299
 20
98.234031525214
 30
0.0
 10
264.6012371033447
 20
98.0999854339126
 30
0.0
 10
264.6342734431013
 20
97.97073342843002
 30
0.0
 10
264.7079706662379
 20
97.86090982268719
 30
0.0
 10
264.8127752097228
 20
97.77928877816917
 30
0.0
 10
264.8967964893999
 20
97.75836093628165
 30
0.0
 10
264.9384067141009
 20
97.74799674988991
 30
0.0
  0
SPLINE
  5
7A
330
1F
100
AcDbEntity
  8
0
  6
Continuous
 62
     7
370
    15
100
AcDbSpline
210
0.0
220
0.0
230
1.0
 70
     8
 71
     3
 72
    12
 73
     8
 74
     0
 42
0.00000001
 43
0.00000001
 12
1.0
 22
0.0
 32
0.0
 13
1.0
 23
0.0
 33
0.0
 40
0.0
 40
0.0
 40
0.0
 40
0.0
 40
0.2058713741445048
 40
0.4120924153879619
 40
0.6141683533434237
 40
0.8133068872805392
 40
1.0
 40
1.0
 40
1.0
 40
1.0
 10
264.9384067141009
 20
97.74799674988991
 30
0.0
 10
265.0130036468247
 20
97.72923858981669
 30
0.0
 10
265.1623242131948
 20
97.69169040943012
 30
0.0
 10
265.3467936968763
 20
97.54472611339777
 30
0.0
 10
265.4718811070392
 20
97.35103344250756
 30
0.0
 10
265.5294838702572
 20
97.13165071355557
 30
0.0
 10
265.5102262427568
 20
96.9875047325481
 30
0.0
 10
265.500908016912
 20
96.91775653508041
 30
0.0
  0
SPLINE
  5
7B
330
1F
100
AcDbEntity
  8
0
  6
Continuous
 62
     7
370
    15
100
AcDbSpline
210
0.0
220
0.0
230
1.0
 70
     8
 71
     3
 72
    15
 73
    11
 74
     0
 42
0.00000001
 43
0.00000001
 12
1.0
 22
0.0
 32
0.0
 13
1.0
 23
0.0
 33
0.0
 40
0.0
 40
0.0
 40
0.0
 40
0.0
 40
0.1268702503427847
 40
0.2539810595568258
 40
0.3800301963396524
 40
0.504874996754687
 40
0.6290527571815633
 40
0.7532384607998416
 40
0.8780953942143824
 40
1.0
 40
1.0
 40
1.0
 40
1.0
 10
265.500908016912
 20
96.91775653508041
 30
0.0
 10
265.4954027266634
 20
96.87316795864504
 30
0.0
 10
265.4843817075773
 20
96.78390626130785
 30
0.0
 10
265.5250736000054
 20
96.65255751826705
 30
0.0
 10
265.6036393879521
 20
96.54261652286696
 30
0.0
 10
265.7142141731583
 20
96.46576929857726
 30
0.0
 10
265.8431934816934
 20
96.43000929755391
 30
0.0
 10
265.9759418827837
 20
96.43930602971268
 30
0.0
 10
266.0998042937803
 20
96.48966704297311
 30
0.0
 10
266.1606004163889
 20
96.55212183318
 30
0.0
 10
266.1906347863475
 20
96.58297561454427
 30
0.0
  0
SPLINE
  5
7C
330
1F
100
AcDbEntity
  8
0
  6
Continuous
 62
     7
370
    15
100
AcDbSpline
210
0.0
220
0.0
230
1.0
 70
     8
 71
     3
 72
    12
 73
     8
 74
     0
 42
0.00000001
 43
0.00000001
 12
1.0
 22
0.0
 32
0.0
 13
1.0
 23
0.0
 33
0.0
 40
0.0
 40
0.0
 40
0.0
 40
0.0
 40
0.2058321750920916
 40
0.4120750343577198
 40
0.6141697879284709
 40
0.8133029339857941
 40
1.0
 40
1.0
 40
1.0
 40
1.0
 10
266.1906347863475
 20
96.58297561454427
 30
0.0
 10
266.244900425346
 20
96.63843228778435
 30
0.0
 10
266.3535399762071
 20
96.74945628352529
 30
0.0
 10
266.5744675070417
 20
96.83600078618228
 30
0.0
 10
266.8050959846985
 20
96.84718525165232
 30
0.0
 10
267.0231848189561
 20
96.7865810748557
 30
0.0
 10
267.1373888154579
 20
96.69711757928644
 30
0.0
 10
267.1926503020055
 20
96.65382762527149
 30
0.0
  0
SPLINE
  5
7D
330
1F
100
AcDbEntity
  8
0
  6
Continuous
 62
     7
370
    15
100
AcDbSpline
210
0.0
220
0.0
230
1.0
 70
     8
 71
     3
 72
    23
 73
    19
 74
     0
 42
0.00000001
 43
0.00000001
 12
1.0
 22
0.0
 32
0.0
 13
1.0
 23
0.0
 33
0.0
 40
0.0
 40
0.0
 40
0.0
 40
0.0
 40
0.0624988066047684
 40
0.1267875659926103
 40
0.1894243117293362
 40
0.2539068068159316
 40
0.3160185992639349
 40
0.3799659197983686
 40
0.4414903780363284
 40
0.504818251371096
 40
0.5660216610165509
 40
0.6290003214445882
 40
0.6902150064541094
 40
0.7531869152440014
 40
0.814737973880071
 40
0.8780418128572987
 40
0.938222304307528
 40
1.0
 40
1.0
 40
1.0
 40
1.0
 10
267.1926503020055
 20
96.65382762527149
 30
0.0
 10
267.2094114819201
 20
96.63958828019703
 30
0.0
 10
267.2434138784454
 20
96.6107017781757
 30
0.0
 10
267.3025131603654
 20
96.57905991988258
 30
0.0
 10
267.3663223677888
 20
96.55696345170531
 30
0.0
 10
267.4324024221659
 20
96.54631480797167
 30
0.0
 10
267.49978138849
 20
96.54700677398253
 30
0.0
 10
267.5651266620107
 20
96.55896358394746
 30
0.0
 10
267.6279217046593
 20
96.58196047041173
 30
0.0
 10
267.6851610553056
 20
96.61476771473987
 30
0.0
 10
267.7364733269615
 20
96.6570586730833
 30
0.0
 10
267.7795276704957
 20
96.7068078264488
 30
0.0
 10
267.8139981460034
 20
96.76356353474226
 30
0.0
 10
267.8383613181476
 20
96.8247952227891
 30
0.0
 10
267.852424863618
 20
96.88991380676516
 30
0.0
 10
267.8552772469506
 20
96.95536717669037
 30
0.0
 10
267.8481185391822
 20
97.02067817658623
 30
0.0
 10
267.834868995626
 20
97.06159090706596
 30
0.0
 10
267.8281574636734
 20
97.08231517554471
 30
0.0
  0
SPLINE
  5
7E
330
1F
100
AcDbEntity
  8
0
  6
Continuous
 62
     7
370
    15
100
AcDbSpline
210
0.0
220
0.0
230
1.0
 70
     8
 71
     3
 72
    12
 73
     8
 74
     0
 42
0.00000001
 43
0.00000001
 12
1.0
 22
0.0
 32
0.0
 13
1.0
 23
0.0
 33
0.0
 40
0.0
 40
0.0
 40
0.0
 40
0.0
 40
0.2058903596434131
 40
0.4121336430764417
 40
0.6142239121175903
 40
0.8133482777366974
 40
1.0
 40
1.0
 40
1.0
 40
1.0
 10
267.8281574636734
 20
97.08231517554471
 30
0.0
 10
267.8078382466874
 20
97.15734750143021
 30
0.0
 10
267.7671649828425
 20
97.30754076870726
 30
0.0
 10
267.8036438887445
 20
97.54234071280044
 30
0.0
 10
267.9091877456124
 20
97.7471179621624
 30
0.0
 10
268.0696644675331
 20
97.90451670506647
 30
0.0
 10
268.2031074014747
 20
97.95768350647636
 30
0.0
 10
268.2676716765203
 20
97.98340743121429
 30
0.0
  0
LWPOLYLINE
  5
7F
330
1F
100
AcDbEntity
  8
0
  6
Continuous
 62
     7
370
    15
100
AcDbPolyline
 90
        3
 70
   128
 43
0.0
 10
265.3686807755
 20
99.2830535242
 10
265.3599631859
 20
99.3920830295
 10
265.3237013192
 20
99.5274129801
  0
ARC
  5
80
330
1F
100
AcDbEntity
  8
0
  6
Continuous
 62
     7
370
    15
100
AcDbCircle
 10
268.1513186668
 20
98.4740743379
 30
0.0
 40
0.3932529485340843
100
AcDbArc
 50
287.2099058642
 51
350.8225768565
  0
ARC
  5
81
330
1F
100
AcDbEntity
  8
0
  6
Continuous
 62
     7
370
    15
100
AcDbCircle
 10
265.0007606721
 20
98.2516068117
 30
0.0
 40
0.393499780706168
100
AcDbArc
 50
190.0838783123
 51
260.8824821377
  0
ARC
  5
82
330
1F
100
AcDbEntity
  8
0
  6
Continuous
 62
     7
370
    15
100
AcDbCircle
 10
268.4709961404
 20
97.4413492126
 30
0.0
 40
0.6878182297742159
100
AcDbArc
 50
107.1939899235
 51
179.9696132475
  0
ARC
  5
83
330
1F
100
AcDbEntity
  8
0
  6
Continuous
 62
     7
370
    15
100
AcDbCircle
 10
264.8293385626
 20
97.1833267302
 30
0.0
 40
0.6884465546408339
100
AcDbArc
 50
0.063317071
 51
80.8844257922
  0
ARC
  5
84
330
1F
100
AcDbEntity
  8
0
  6
Continuous
 62
     7
370
    15
100
AcDbCircle
 10
267.4597774413
 20
97.0587565331
 30
0.0
 40
0.3941870976110734
100
AcDbArc
 50
227.3384865758
 51
353.4365507585
  0
ARC
  5
85
330
1F
100
AcDbEntity
  8
0
  6
Continuous
 62
     7
370
    15
100
AcDbCircle
 10
265.8853270552
 20
96.9473692034
 30
0.0
 40
0.3941739647011172
100
AcDbArc
 50
187.7862994006
 51
320.7643177271
  0
ARC
  5
86
330
1F
100
AcDbEntity
  8
0
  6
Continuous
 62
     7
370
    15
100
AcDbCircle
 10
266.7250630433
 20
96.260698769
 30
0.0
 40
0.6905716781606046
100
AcDbArc
 50
47.3824271302
 51
140.7047323313
  0
ARC
  5
87
330
1F
100
AcDbEntity
  8
0
  6
Continuous
 62
     7
370
    15
100
AcDbCircle
 10
266.5783642585
 20
98.2875542207
 30
0.0
 40
3.500006441023552
100
AcDbArc
 50
0.1099210121
 51
179.8900789879
  0
LINE
  5
88
330
1F
100
AcDbEntity
  8
0
  6
Continuous
 62
     7
370
    15
100
AcDbLine
 10
259.7142744568
 20
104.6605240323
 30
0.0
 11
260.7674275576
 21
92.6522519847
 31
0.0
  0
ARC
  5
89
330
1F
100
AcDbEntity
  8
0
  6
Continuous
 62
     7
370
    15
100
AcDbCircle
 10
260.1123100008
 20
104.6948579912
 30
0.0
 40
0.3995135980504889
100
AcDbArc
 50
84.9302140244
 51
184.9300462061
  0
LINE
  5
8A
330
1F
100
AcDbEntity
  8
0
  6
Continuous
 62
     7
370
    15
100
AcDbLine
 10
272.1852096572
 20
104.0422209411
 30
0.0
 11
260.1476146332
 21
105.0928086138
 31
0.0
  0
ARC
  5
8B
330
1F
100
AcDbEntity
  8
0
  6
Continuous
 62
     7
370
    15
100
AcDbCircle
 10
272.1508745147
 20
103.644185292
 30
0.0
 40
0.3995138043827932
100
AcDbArc
 50
5.0699537939
 51
85.0697859757
  0
LINE
  5
8C
330
1F
100
AcDbEntity
  8
0
  6
Continuous
 62
     7
370
    15
100
AcDbLine
 10
273.6019783401
 20
91.6712190606
 30
0.0
 11
272.5488252393
 21
103.6794911082
 31
0.0
  0
ARC
  5
8D
330
1F
100
AcDbEntity
  8
0
  6
Continuous
 62
     7
370
    15
100
AcDbCircle
 10
273.2039427961
 20
91.6368851017
 30
0.0
 40
0.3995135980505936
100
AcDbArc
 50
264.9302140244
 51
4.930046206
  0
LINE
  5
8E
330
1F
100
AcDbEntity
  8
0
  6
Continuous
 62
     7
370
    15
100
AcDbLine
 10
261.1310431397
 20
92.2895221519
 30
0.0
 11
273.1686381637
 21
91.2389344792
 31
0.0
  0
ARC
  5
8F
330
1F
100
AcDbEntity
  8
0
  6
Continuous
 62
     7
370
    15
100
AcDbCircle
 10
261.1653782822
 20
92.6875578009
 30
0.0
 40
0.399513804383051
100
AcDbArc
 50
185.0699537939
 51
265.0697859756
  0
ARC
  5
90
330
1F
100
AcDbEntity
  8
0
  6
Continuous
 62
     7
370
    15
100
AcDbCircle
 10
273.2039206793
 20
91.6368629309
 30
0.0
 40
0.3795379181481064
100
AcDbArc
 50
264.9302140244
 51
4.930046206
  0
LINE
  5
91
330
1F
100
AcDbEntity
  8
0
  6
Continuous
 62
     7
370
    15
100
AcDbLine
 10
273.5820544461
 20
91.6694801919
 30
0.0
 11
272.5289013451
 21
103.6777522395
 31
0.0
  0
ARC
  5
92
330
1F
100
AcDbEntity
  8
0
  6
Continuous
 62
     7
370
    15
100
AcDbCircle
 10
272.1508481563
 20
103.6442117138
 30
0.0
 40
0.3795381145904495
100
AcDbArc
 50
5.069953842
 51
85.0697858765
  0
LINE
  5
93
330
1F
100
AcDbEntity
  8
0
  6
Continuous
 62
     7
370
    15
100
AcDbLine
 10
272.1834665424
 20
104.0223455807
 30
0.0
 11
260.1458715183
 21
105.0729332534
 31
0.0
  0
ARC
  5
94
330
1F
100
AcDbEntity
  8
0
  6
Continuous
 62
     7
370
    15
100
AcDbCircle
 10
260.1123321176
 20
104.694880162
 30
0.0
 40
0.379537918148104
100
AcDbArc
 50
84.9302140244
 51
184.930046206
  0
LINE
  5
95
330
1F
100
AcDbEntity
  8
0
  6
Continuous
 62
     7
370
    15
100
AcDbLine
 10
259.7341983508
 20
104.662262901
 30
0.0
 11
260.7873514515
 21
92.6539908534
 31
0.0
  0
ARC
  5
96
330
1F
100
AcDbEntity
  8
0
  6
Continuous
 62
     7
370
    15
100
AcDbCircle
 10
261.1654046399
 20
92.6875313788
 30
0.0
 40
0.3795381141635618
100
AcDbArc
 50
185.0699537939
 51
265.0697859757
  0
LINE
  5
97
330
1F
100
AcDbEntity
  8
0
  6
Continuous
 62
     7
370
    15
100
AcDbLine
 10
261.1327862546
 20
92.3093975122
 30
0.0
 11
273.1703812786
 21
91.2588098395
 31
0.0
  0
LINE
  5
98
330
1F
100
AcDbEntity
  8
0
  6
Continuous
 62
     7
370
    15
100
AcDbLine
 10
260.1127523361
 20
104.7106054958
 30
0.0
 11
259.7341983508
 21
104.662262901
 31
0.0
  0
LINE
  5
99
330
1F
100
AcDbEntity
  8
0
  6
Continuous
 62
     7
370
    15
100
AcDbLine
 10
260.1127523361
 20
104.7106054958
 30
0.0
 11
260.1458715183
 21
105.0729332534
 31
0.0
  0
LINE
  5
9A
330
1F
100
AcDbEntity
  8
0
  6
Continuous
 62
     7
370
    15
100
AcDbLine
 10
272.1503473601
 20
103.6600178231
 30
0.0
 11
272.1834665424
 21
104.0223455807
 31
0.0
  0
LINE
  5
9B
330
1F
100
AcDbEntity
  8
0
  6
Continuous
 62
     7
370
    15
100
AcDbLine
 10
271.5766530309
 20
103.1127517085
 30
0.0
 11
272.1503473601
 21
103.6600178231
 31
0.0
  0
LINE
  5
9C
330
1F
100
AcDbEntity
  8
0
  6
Continuous
 62
     7
370
    15
100
AcDbLine
 10
261.0317526806
 20
103.8274889082
 30
0.0
 11
260.1127523361
 21
104.7106054958
 31
0.0
  0
LINE
  5
9D
330
1F
100
AcDbEntity
  8
0
  6
Continuous
 62
     7
370
    15
100
AcDbLine
 10
261.1659054368
 20
92.7023334482
 30
0.0
 11
260.7873514515
 21
92.6539908534
 31
0.0
  0
LINE
  5
9E
330
1F
100
AcDbEntity
  8
0
  6
Continuous
 62
     7
370
    15
100
AcDbLine
 10
261.739599766
 20
93.299661011
 30
0.0
 11
261.1659054368
 21
92.7023334482
 31
0.0
  0
LINE
  5
9F
330
1F
100
AcDbEntity
  8
0
  6
Continuous
 62
     7
370
    15
100
AcDbLine
 10
272.1503473601
 20
103.6600178231
 30
0.0
 11
272.5289013451
 21
103.6777522395
 31
0.0
  0
LINE
  5
A0
330
1F
100
AcDbEntity
  8
0
  6
Continuous
 62
     7
370
    15
100
AcDbLine
 10
273.2035004608
 20
91.6517457755
 30
0.0
 11
273.5820544461
 21
91.6694801919
 31
0.0
  0
LINE
  5
A1
330
1F
100
AcDbEntity
  8
0
  6
Continuous
 62
     7
370
    15
100
AcDbLine
 10
272.2845001163
 20
92.6021525997
 30
0.0
 11
273.2035004608
 21
91.6517457755
 31
0.0
  0
ARC
  5
A2
330
1F
100
AcDbEntity
  8
0
  6
Continuous
 62
     7
370
    15
100
AcDbCircle
 10
262.9938112112
 20
101.8190489634
 30
0.0
 40
0.9987839951264672
100
AcDbArc
 50
84.9302140244
 51
184.930046206
  0
LINE
  5
A3
330
1F
100
AcDbEntity
  8
0
  6
Continuous
 62
     7
370
    15
100
AcDbLine
 10
269.819079755
 20
102.2259495617
 30
0.0
 11
263.082072792
 21
102.8139255197
 31
0.0
  0
ARC
  5
A4
330
1F
100
AcDbEntity
  8
0
  6
Continuous
 62
     7
370
    15
100
AcDbCircle
 10
269.7332418988
 20
101.2308604392
 30
0.0
 40
0.9987845109571891
100
AcDbArc
 50
5.0699537939
 51
85.0697859757
  0
LINE
  5
A5
330
1F
100
AcDbEntity
  8
0
  6
Continuous
 62
     7
370
    15
100
AcDbLine
 10
261.9987223512
 20
101.7332140661
 30
0.0
 11
262.5881340865
 21
95.0126181134
 31
0.0
  0
LINE
  5
A6
330
1F
100
AcDbEntity
  8
0
  6
Continuous
 62
     7
370
    15
100
AcDbLine
 10
271.3175304457
 20
94.5985290269
 30
0.0
 11
270.7281187104
 21
101.3191249795
 31
0.0
  0
ARC
  5
A7
330
1F
100
AcDbEntity
  8
0
  6
Continuous
 62
     7
370
    15
100
AcDbCircle
 10
270.322441586
 20
94.5126941291
 30
0.0
 40
0.9987839949380916
100
AcDbArc
 50
264.9302140086
 51
4.9300462354
  0
LINE
  5
A8
330
1F
100
AcDbEntity
  8
0
  6
Continuous
 62
     7
370
    15
100
AcDbLine
 10
263.4971730419
 20
94.1057935313
 30
0.0
 11
270.2341800049
 21
93.517817573
 31
0.0
  0
ARC
  5
A9
330
1F
100
AcDbEntity
  8
0
  6
Continuous
 62
     7
370
    15
100
AcDbCircle
 10
263.5830108981
 20
95.1008826538
 30
0.0
 40
0.9987845109568927
100
AcDbArc
 50
185.0699537939
 51
265.0697859757
  0
CIRCLE
  5
AA
330
1F
100
AcDbEntity
  8
0
  6
Continuous
 62
     7
370
    15
100
AcDbCircle
 10
266.6555063139
 20
98.1719658804
 30
0.0
 40
3.79665721265084
  0
ARC
  5
AB
330
1F
100
AcDbEntity
  8
0
  6
Continuous
 62
     7
370
    15
100
AcDbCircle
 10
266.6630886306
 20
98.2498955852
 30
0.0
 40
3.795039674477386
100
AcDbArc
 50
264.9182392615
 51
359.9425675142
  0
ARC
  5
AC
330
1F
100
AcDbEntity
  8
0
  6
Continuous
 62
     7
370
    15
100
AcDbCircle
 10
266.6522905897
 20
98.2499635433
 30
0.0
 40
3.794166167034243
100
AcDbArc
 50
180.0584719461
 51
265.080750869
  0
SPLINE
  5
AD
330
1F
100
AcDbEntity
  8
0
  6
Continuous
 62
     7
370
    15
100
AcDbSpline
210
0.0
220
0.0
230
1.0
 70
     8
 71
     3
 72
    11
 73
     7
 74
     0
 42
0.00000001
 43
0.00000001
 12
1.0
 22
0.0
 32
0.0
 13
1.0
 23
0.0
 33
0.0
 40
0.0
 40
0.0
 40
0.0
 40
0.0
 40
0.3367831131414483
 40
0.6790111347689768
 40
0.9923717339918564
 40
1.0
 40
1.0
 40
1.0
 40
1.0
 10
261.0317526805786
 20
103.8274889082383
 30
0.0
 10
261.0872425183754
 20
103.7735499091185
 30
0.0
 10
261.1991193205677
 20
103.6647998573149
 30
0.0
 10
261.3685671846575
 20
103.4932229644665
 30
0.0
 10
261.4726231573663
 20
103.3851609471776
 30
0.0
 10
261.5195646974934
 20
103.3356718270434
 30
0.0
 10
261.5206802581675
 20
103.3344957234031
 30
0.0
  0
SPLINE
  5
AE
330
1F
100
AcDbEntity
  8
0
  6
Continuous
 62
     7
370
    15
100
AcDbSpline
210
0.0
220
0.0
230
1.0
 70
     8
 71
     3
 72
    11
 73
     7
 74
     0
 42
0.00000001
 43
0.00000001
 12
1.0
 22
0.0
 32
0.0
 13
1.0
 23
0.0
 33
0.0
 40
0.0
 40
0.0
 40
0.0
 40
0.0
 40
0.3372314186521255
 40
0.673632148307156
 40
0.9918835608968571
 40
1.0
 40
1.0
 40
1.0
 40
1.0
 10
271.5766530308784
 20
103.1127517084553
 30
0.0
 10
271.5217492182587
 20
103.0597328855118
 30
0.0
 10
271.412076835439
 20
102.9538258388228
 30
0.0
 10
271.2406246663857
 20
102.7809561930778
 30
0.0
 10
271.1351460221904
 20
102.6716187922914
 30
0.0
 10
271.0871898197806
 20
102.6210621359724
 30
0.0
 10
271.0859971974238
 20
102.6198048429512
 30
0.0
  0
LINE
  5
AF
330
1F
100
AcDbEntity
  8
0
  6
Continuous
 62
     7
370
    15
100
AcDbLine
 10
273.2035004608
 20
91.6517457755
 30
0.0
 11
273.1703812786
 21
91.2588098395
 31
0.0
  0
LINE
  5
B0
330
1F
100
AcDbEntity
  8
0
  6
Continuous
 62
     7
370
    15
100
AcDbLine
 10
261.1659054368
 20
92.7023334482
 30
0.0
 11
261.1327862546
 21
92.3093975122
 31
0.0
  0
SPLINE
  5
B1
330
1F
100
AcDbEntity
  8
0
  6
Continuous
 62
     7
370
    15
100
AcDbSpline
210
0.0
220
0.0
230
1.0
 70
     8
 71
     3
 72
    11
 73
     7
 74
     0
 42
0.00000001
 43
0.00000001
 12
1.0
 22
0.0
 32
0.0
 13
1.0
 23
0.0
 33
0.0
 40
0.0
 40
0.0
 40
0.0
 40
0.0
 40
0.0081164391031418
 40
0.3263678516928437
 40
0.6627685813478761
 40
1.0
 40
1.0
 40
1.0
 40
1.0
 10
262.2302555994824
 20
93.78563538645459
 30
0.0
 10
262.2290629771256
 20
93.78451324509835
 30
0.0
 10
262.1811067747152
 20
93.73939113439539
 30
0.0
 10
262.0756281305209
 20
93.63828512814314
 30
0.0
 10
261.9041759614672
 20
93.46908573351479
 30
0.0
 10
261.7945035786476
 20
93.35618232738915
 30
0.0
 10
261.7395997660278
 20
93.29966101094948
 30
0.0
  0
SPLINE
  5
B2
330
1F
100
AcDbEntity
  8
0
  6
Continuous
 62
     7
370
    15
100
AcDbSpline
210
0.0
220
0.0
230
1.0
 70
     8
 71
     3
 72
    11
 73
     7
 74
     0
 42
0.00000001
 43
0.00000001
 12
1.0
 22
0.0
 32
0.0
 13
1.0
 23
0.0
 33
0.0
 40
0.0
 40
0.0
 40
0.0
 40
0.0
 40
0.0076282660081557
 40
0.3209888652312544
 40
0.6632168868587147
 40
1.0
 40
1.0
 40
1.0
 40
1.0
 10
271.7955725387387
 20
93.08463256401306
 30
0.0
 10
271.7966880994129
 20
93.08358298120439
 30
0.0
 10
271.8436296395395
 20
93.03941771555165
 30
0.0
 10
271.9476856122489
 20
92.93987473765905
 30
0.0
 10
272.1171334763386
 20
92.77338143529023
 30
0.0
 10
272.2290102785306
 20
92.65892293524334
 30
0.0
 10
272.2845001163274
 20
92.60215259968118
 30
0.0
  0
LINE
  5
B3
330
1F
100
AcDbEntity
  8
0
  6
Continuous
 62
     7
370
    15
100
AcDbLine
 10
149.7335256079
 20
90.6996512594
 30
0.0
 11
149.7335256079
 21
138.0474884184
 31
0.0
  0
SPLINE
  5
B4
330
1F
100
AcDbEntity
  8
0
  6
Continuous
 62
     7
370
    15
100
AcDbSpline
210
0.0
220
0.0
230
1.0
 70
     8
 71
     3
 72
     8
 73
     4
 74
     0
 42
0.00000001
 43
0.00000001
 12
1.0
 22
0.0
 32
0.0
 13
1.0
 23
0.0
 33
0.0
 40
0.0
 40
0.0
 40
0.0
 40
0.0
 40
1.0
 40
1.0
 40
1.0
 40
1.0
 10
149.7335256078967
 20
90.69965125936638
 30
0.0
 10
149.2411864851155
 20
89.80238122515969
 30
0.0
 10
148.7470724370734
 20
88.90609681010746
 30
0.0
 10
148.2515927764076
 20
88.01057072217411
 30
0.0
  0
LINE
  5
B5
330
1F
100
AcDbEntity
  8
0
  6
Continuous
 62
     7
370
    15
100
AcDbLine
 10
148.2515927764
 20
88.0105707222
 30
0.0
 11
148.2515927764
 21
138.0474884184
 31
0.0
  0
SPLINE
  5
B6
330
1F
100
AcDbEntity
  8
0
  6
Continuous
 62
     7
370
    15
100
AcDbSpline
210
0.0
220
0.0
230
1.0
 70
    24
 71
     3
 72
     8
 73
     4
 74
     0
 42
0.00000001
 43
0.00000001
 12
1.0
 22
0.0
 32
0.0
 13
1.0
 23
0.0
 33
0.0
 40
0.0
 40
0.0
 40
0.0
 40
0.0
 40
1.0
 40
1.0
 40
1.0
 40
1.0
 10
148.2515927764076
 20
138.0474884184213
 30
0.0
 10
148.7582728845582
 20
138.0474884184213
 30
0.0
 10
149.2535736135318
 20
138.0474884184213
 30
0.0
 10
149.7335256078967
 20
138.0474884184213
 30
0.0
  0
LINE
  5
B7
330
1F
100
AcDbEntity
  8
0
  6
Continuous
 62
     7
370
    15
100
AcDbLine
 10
159.5935256079
 20
88.6372110178
 30
0.0
 11
159.5935256079
 21
138.0474884184
 31
0.0
  0
SPLINE
  5
B8
330
1F
100
AcDbEntity
  8
0
  6
Continuous
 62
     7
370
    15
100
AcDbSpline
210
0.0
220
0.0
230
1.0
 70
     8
 71
     3
 72
    10
 73
     6
 74
     0
 42
0.00000001
 43
0.00000001
 12
1.0
 22
0.0
 32
0.0
 13
1.0
 23
0.0
 33
0.0
 40
0.0
 40
0.0
 40
0.0
 40
0.0
 40
0.5
 40
0.5
 40
1.0
 40
1.0
 40
1.0
 40
1.0
 10
159.5935256078967
 20
88.63721101782842
 30
0.0
 10
159.5935256078967
 20
88.47732374963476
 30
0.0
 10
159.5322159566608
 20
88.31619649412016
 30
0.0
 10
159.3131163191258
 20
88.08209749576534
 30
0.0
 10
159.1550681128123
 20
88.01057072217411
 30
0.0
 10
158.9935256078967
 20
88.01057072217411
 30
0.0
  0
SPLINE
  5
B9
330
1F
100
AcDbEntity
  8
0
  6
Continuous
 62
     7
370
    15
100
AcDbSpline
210
0.0
220
0.0
230
1.0
 70
    24
 71
     3
 72
    12
 73
     8
 74
     0
 42
0.00000001
 43
0.00000001
 12
1.0
 22
0.0
 32
0.0
 13
1.0
 23
0.0
 33
0.0
 40
0.0
 40
0.0
 40
0.0
 40
0.0
 40
0.25
 40
0.25
 40
0.5
 40
0.5
 40
1.0
 40
1.0
 40
1.0
 40
1.0
 10
158.9935256078967
 20
138.0474884184213
 30
0.0
 10
159.0837646755838
 20
138.0474884184213
 30
0.0
 10
159.1746627896902
 20
138.0474884184213
 30
0.0
 10
159.3292598261788
 20
138.0474884184213
 30
0.0
 10
159.3942382422869
 20
138.0474884184213
 30
0.0
 10
159.5460732702231
 20
138.0474884184213
 30
0.0
 10
159.5935256078967
 20
138.0474884184213
 30
0.0
 10
159.5935256078967
 20
138.0474884184213
 30
0.0
  0
LINE
  5
BA
330
1F
100
AcDbEntity
  8
0
  6
Continuous
 62
     7
370
    15
100
AcDbLine
 10
158.9935256079
 20
88.0105707222
 30
0.0
 11
155.0354584394
 21
88.0105707222
 31
0.0
  0
LINE
  5
BB
330
1F
100
AcDbEntity
  8
0
  6
Continuous
 62
     7
370
    15
100
AcDbLine
 10
155.0354584394
 20
88.0105707222
 30
0.0
 11
155.0354584394
 21
138.0474884184
 31
0.0
  0
LINE
  5
BC
330
1F
100
AcDbEntity
  8
0
  6
Continuous
 62
     7
370
    15
100
AcDbLine
 10
155.0354584394
 20
138.0474884184
 30
0.0
 11
158.9935256079
 21
138.0474884184
 31
0.0
  0
LINE
  5
BD
330
1F
100
AcDbEntity
  8
0
  6
Continuous
 62
     7
370
    15
100
AcDbLine
 10
138.5935256079
 20
138.0474884184
 30
0.0
 11
148.2515927764
 21
138.0474884184
 31
0.0
  0
LINE
  5
BE
330
1F
100
AcDbEntity
  8
0
  6
Continuous
 62
     7
370
    15
100
AcDbLine
 10
148.2515927764
 20
88.0105707222
 30
0.0
 11
146.5935256079
 21
88.0105707222
 31
0.0
  0
SPLINE
  5
BF
330
1F
100
AcDbEntity
  8
0
  6
Continuous
 62
     7
370
    15
100
AcDbSpline
210
0.0
220
0.0
230
1.0
 70
     8
 71
     3
 72
    28
 73
    24
 74
     0
 42
0.00000001
 43
0.00000001
 12
1.0
 22
0.0
 32
0.0
 13
1.0
 23
0.0
 33
0.0
 40
0.0
 40
0.0
 40
0.0
 40
0.0
 40
0.1249999999999998
 40
0.1249999999999998
 40
0.1874999999999997
 40
0.1874999999999997
 40
0.2499999999999995
 40
0.2499999999999995
 40
0.3749999999999996
 40
0.3749999999999996
 40
0.4374999999999999
 40
0.4374999999999999
 40
0.5000000000000001
 40
0.5000000000000001
 40
0.6250000000000002
 40
0.6250000000000002
 40
0.7500000000000003
 40
0.7500000000000003
 40
0.8125000000000003
 40
0.8125000000000003
 40
0.8750000000000002
 40
0.8750000000000002
 40
1.0
 40
1.0
 40
1.0
 40
1.0
 10
146.5935256078967
 20
88.01057072217411
 30
0.0
 10
146.0618178504038
 20
88.0105707221741
 30
0.0
 10
145.5395792850934
 20
87.9947860082239
 30
0.0
 10
144.7697087988184
 20
87.94979059414767
 30
0.0
 10
144.5153492266271
 20
87.93123559907197
 30
0.0
 10
144.0112276459286
 20
87.88738287662548
 30
0.0
 10
143.7615048285006
 20
87.86203826967328
 30
0.0
 10
143.0359148770542
 20
87.7786361919232
 30
0.0
 10
142.5775546154727
 20
87.71277063277208
 30
0.0
 10
141.9270566720788
 20
87.60380029228028
 30
0.0
 10
141.7153746212864
 20
87.56556065651364
 30
0.0
 10
141.3113031321483
 20
87.48780191909428
 30
0.0
 10
141.1187966183275
 20
87.44830095691894
 30
0.0
 10
140.5689616473062
 20
87.32939321455294
 30
0.0
 10
140.2390328689974
 20
87.24957553312832
 30
0.0
 10
139.6545616004287
 20
87.09623237133226
 30
0.0
 10
139.4082844624153
 20
87.024898618063
 30
0.0
 10
139.1084416697172
 20
86.93095511098839
 30
0.0
 10
139.019984812645
 20
86.90176131762844
 30
0.0
 10
138.8666234593399
 20
86.84829474336503
 30
0.0
 10
138.8015352451137
 20
86.82393540908987
 30
0.0
 10
138.6459412291729
 20
86.76034526364514
 30
0.0
 10
138.5935256078967
 20
86.73024232855585
 30
0.0
 10
138.5935256078967
 20
86.71336543555891
 30
0.0
  0
LINE
  5
C0
330
1F
100
AcDbEntity
  8
0
  6
Continuous
 62
     7
370
    15
100
AcDbLine
 10
138.5935256079
 20
86.7133654356
 30
0.0
 11
138.5935256079
 21
86.6974884184
 31
0.0
  0
SPLINE
  5
C1
330
1F
100
AcDbEntity
  8
0
  6
Continuous
 62
     7
370
    15
100
AcDbSpline
210
0.0
220
0.0
230
1.0
 70
     8
 71
     3
 72
    23
 73
    19
 74
     0
 42
0.00000001
 43
0.00000001
 12
1.0
 22
0.0
 32
0.0
 13
1.0
 23
0.0
 33
0.0
 40
0.0
 40
0.0
 40
0.0
 40
0.0
 40
0.103929859316674
 40
0.1565101346282321
 40
0.2099971364241522
 40
0.3138802321230464
 40
0.3664025094649871
 40
0.4197765036366438
 40
0.4725856500884695
 40
0.5257535528791005
 40
0.5794764308388188
 40
0.633960881134479
 40
0.6872819449419407
 40
0.7409827388856084
 40
0.7958990539931359
 40
0.8512438285529255
 40
0.9563115150030199
 40
1.0
 40
1.0
 40
1.0
 40
1.0
 10
146.5935256078967
 20
148.6646838915855
 30
0.0
 10
146.1559921143841
 20
148.6699379492031
 30
0.0
 10
145.497101335312
 20
148.6778501437397
 30
0.0
 10
144.6331673460969
 20
148.7256362966367
 30
0.0
 10
143.7884585710205
 20
148.7884423731638
 30
0.0
 10
142.9796440072293
 20
148.8741895063704
 30
0.0
 10
142.2254602234069
 20
148.9745706287954
 30
0.0
 10
141.6851637318828
 20
149.0560749661317
 30
0.0
 10
141.1769433922902
 20
149.1411823003468
 30
0.0
 10
140.7050177621638
 20
149.227448049898
 30
0.0
 10
140.2693889338729
 20
149.3132306824942
 30
0.0
 10
139.8781140289717
 20
149.3953060668142
 30
0.0
 10
139.5342674390356
 20
149.4713011137495
 30
0.0
 10
139.2392855946719
 20
149.5393420499055
 30
0.0
 10
138.9935817780458
 20
149.5980335237069
 30
0.0
 10
138.746839698963
 20
149.6585991052597
 30
0.0
 10
138.6075248665163
 20
149.6939366406363
 30
0.0
 10
138.5999534647582
 20
149.6958575199081
 30
0.0
 10
138.5977298052698
 20
149.6964216666216
 30
0.0
  0
LINE
  5
C2
330
1F
100
AcDbEntity
  8
0
  6
Continuous
 62
     7
370
    15
100
AcDbLine
 10
148.2515927764
 20
148.6646838916
 30
0.0
 11
146.5935256079
 21
148.6646838916
 31
0.0
  0
LINE
  5
C3
330
1F
100
AcDbEntity
  8
0
  6
Continuous
 62
     7
370
    15
100
AcDbLine
 10
148.2515927764
 20
142.6561780808
 30
0.0
 11
148.2515927764
 21
148.6646838916
 31
0.0
  0
LINE
  5
C4
330
1F
100
AcDbEntity
  8
0
  6
Continuous
 62
     7
370
    15
100
AcDbLine
 10
145.8391459536
 20
142.6561780808
 30
0.0
 11
148.2515927764
 21
142.6561780808
 31
0.0
  0
SPLINE
  5
C5
330
1F
100
AcDbEntity
  8
0
  6
Continuous
 62
     7
370
    15
100
AcDbSpline
210
0.0
220
0.0
230
1.0
 70
     8
 71
     3
 72
    20
 73
    16
 74
     0
 42
0.00000001
 43
0.00000001
 12
1.0
 22
0.0
 32
0.0
 13
1.0
 23
0.0
 33
0.0
 40
0.0
 40
0.0
 40
0.0
 40
0.0
 40
0.2499999999999997
 40
0.2499999999999997
 40
0.3749999999999997
 40
0.3749999999999997
 40
0.4999999999999998
 40
0.4999999999999998
 40
0.6249999999999998
 40
0.6249999999999998
 40
0.7499999999999999
 40
0.7499999999999999
 40
0.8749999999999999
 40
0.8749999999999999
 40
1.0
 40
1.0
 40
1.0
 40
1.0
 10
138.5935256078967
 20
138.0474884184213
 30
0.0
 10
138.8418993421848
 20
138.7013508467187
 30
0.0
 10
139.16146943453
 20
139.3051366287158
 30
0.0
 10
139.7837756677347
 20
140.1319753648844
 30
0.0
 10
140.0151999281655
 20
140.3944040028373
 30
0.0
 10
140.5364142678152
 20
140.8910666569423
 30
0.0
 10
140.8230347504503
 20
141.1216535359638
 30
0.0
 10
141.4425194917579
 20
141.5382077605464
 30
0.0
 10
141.7768198712448
 20
141.7257055625139
 30
0.0
 10
142.5020803438696
 20
142.0571025401503
 30
0.0
 10
142.8839954012601
 20
142.1966065276456
 30
0.0
 10
143.6787835774318
 20
142.4220600351166
 30
0.0
 10
144.0929417716382
 20
142.5086861466602
 30
0.0
 10
144.9584881122195
 20
142.6266669355144
 30
0.0
 10
145.3963757272313
 20
142.6561780807887
 30
0.0
 10
145.839145953586
 20
142.6561780807887
 30
0.0
  0
SPLINE
  5
C6
330
1F
100
AcDbEntity
  8
0
  6
Continuous
 62
     7
370
    15
100
AcDbSpline
210
0.0
220
0.0
230
1.0
 70
     8
 71
     3
 72
     8
 73
     4
 74
     0
 42
0.00000001
 43
0.00000001
 12
1.0
 22
0.0
 32
0.0
 13
1.0
 23
0.0
 33
0.0
 40
0.0
 40
0.0
 40
0.0
 40
0.0
 40
1.0
 40
1.0
 40
1.0
 40
1.0
 10
155.0354584393857
 20
88.0105707221741
 30
0.0
 10
154.53997877872
 20
88.90609681010744
 30
0.0
 10
154.0458647306779
 20
89.80238122515968
 30
0.0
 10
153.5535256078967
 20
90.69965125936638
 30
0.0
  0
LINE
  5
C7
330
1F
100
AcDbEntity
  8
0
  6
Continuous
 62
     7
370
    15
100
AcDbLine
 10
153.5535256079
 20
90.6996512594
 30
0.0
 11
153.5535256079
 21
138.0474884184
 31
0.0
  0
SPLINE
  5
C8
330
1F
100
AcDbEntity
  8
0
  6
Continuous
 62
     7
370
    15
100
AcDbSpline
210
0.0
220
0.0
230
1.0
 70
    24
 71
     3
 72
     8
 73
     4
 74
     0
 42
0.00000001
 43
0.00000001
 12
1.0
 22
0.0
 32
0.0
 13
1.0
 23
0.0
 33
0.0
 40
0.0
 40
0.0
 40
0.0
 40
0.0
 40
1.0
 40
1.0
 40
1.0
 40
1.0
 10
153.5535256078967
 20
138.0474884184213
 30
0.0
 10
154.0334776022616
 20
138.0474884184213
 30
0.0
 10
154.5287783312352
 20
138.0474884184213
 30
0.0
 10
155.0354584393858
 20
138.0474884184213
 30
0.0
  0
LINE
  5
C9
330
1F
100
AcDbEntity
  8
0
  6
Continuous
 62
     7
370
    15
100
AcDbLine
 10
133.6435256079
 20
86.9974884184
 30
0.0
 11
133.6435256079
 21
149.3974884126
 31
0.0
  0
SPLINE
  5
CA
330
1F
100
AcDbEntity
  8
0
  6
Continuous
 62
     7
370
    15
100
AcDbSpline
210
0.0
220
0.0
230
1.0
 70
    24
 71
     3
 72
    14
 73
    10
 74
     0
 42
0.00000001
 43
0.00000001
 12
1.0
 22
0.0
 32
0.0
 13
1.0
 23
0.0
 33
0.0
 40
0.0
 40
0.0
 40
0.0
 40
0.0
 40
0.5000000000000003
 40
0.5000000000000003
 40
0.750000000000002
 40
0.750000000000002
 40
0.875000000000001
 40
0.875000000000001
 40
1.0
 40
1.0
 40
1.0
 40
1.0
 10
153.4558508055644
 20
91.79748841842125
 30
0.0
 10
153.4090661005162
 20
91.79748841842125
 30
0.0
 10
153.3470149037366
 20
91.79748841842124
 30
0.0
 10
153.203623265186
 20
91.79748841842125
 30
0.0
 10
153.1474796116348
 20
91.79748841842125
 30
0.0
 10
153.0345285894986
 20
91.79748841842125
 30
0.0
 10
152.9915278274605
 20
91.79748841842124
 30
0.0
 10
152.8874651171541
 20
91.79748841842124
 30
0.0
 10
152.8221328787971
 20
91.79748841842125
 30
0.0
 10
152.7535256078967
 20
91.79748841842125
 30
0.0
  0
SPLINE
  5
CB
330
1F
100
AcDbEntity
  8
0
  6
Continuous
 62
     7
370
    15
100
AcDbSpline
210
0.0
220
0.0
230
1.0
 70
    24
 71
     3
 72
    12
 73
     8
 74
     0
 42
0.00000001
 43
0.00000001
 12
1.0
 22
0.0
 32
0.0
 13
1.0
 23
0.0
 33
0.0
 40
0.0
 40
0.0
 40
0.0
 40
0.0
 40
0.5000000000000091
 40
0.5000000000000091
 40
0.7500000000000046
 40
0.7500000000000046
 40
1.0
 40
1.0
 40
1.0
 40
1.0
 10
153.1592280762057
 20
144.5974884184213
 30
0.0
 10
153.116142526595
 20
144.5974884184213
 30
0.0
 10
153.0669903248479
 20
144.5974884184213
 30
0.0
 10
152.9705177305583
 20
144.5974884184213
 30
0.0
 10
152.9344161454241
 20
144.5974884184213
 30
0.0
 10
152.8513103875615
 20
144.5974884184213
 30
0.0
 10
152.8033137905975
 20
144.5974884184213
 30
0.0
 10
152.7535256078967
 20
144.5974884184213
 30
0.0
  0
SPLINE
  5
CC
330
1F
100
AcDbEntity
  8
0
  6
Continuous
 62
     7
370
    15
100
AcDbSpline
210
0.0
220
0.0
230
1.0
 70
     8
 71
     3
 72
    10
 73
     6
 74
     0
 42
0.00000001
 43
0.00000001
 12
1.0
 22
0.0
 32
0.0
 13
1.0
 23
0.0
 33
0.0
 40
0.0
 40
0.0
 40
0.0
 40
0.0
 40
0.5
 40
0.5
 40
1.0
 40
1.0
 40
1.0
 40
1.0
 10
153.5535256078967
 20
145.3171422694571
 30
0.0
 10
153.5535256078967
 20
145.173372211639
 30
0.0
 10
153.5174765491778
 20
145.0309528491439
 30
0.0
 10
153.3819676884038
 20
144.7810585557866
 30
0.0
 10
153.2820916953076
 20
144.6730282195385
 30
0.0
 10
153.1592280762057
 20
144.5974884184212
 30
0.0
  0
SPLINE
  5
CD
330
1F
100
AcDbEntity
  8
0
  6
Continuous
 62
     7
370
    15
100
AcDbSpline
210
0.0
220
0.0
230
1.0
 70
     8
 71
     3
 72
    10
 73
     6
 74
     0
 42
0.00000001
 43
0.00000001
 12
1.0
 22
0.0
 32
0.0
 13
1.0
 23
0.0
 33
0.0
 40
0.0
 40
0.0
 40
0.0
 40
0.0
 40
0.5
 40
0.5
 40
1.0
 40
1.0
 40
1.0
 40
1.0
 10
153.5273779847366
 20
138.0474884184213
 30
0.0
 10
153.5360676276482
 20
138.0943672677394
 30
0.0
 10
153.5426066923987
 20
138.1417897331407
 30
0.0
 10
153.5513653267918
 20
138.2377265317274
 30
0.0
 10
153.5535256078967
 20
138.2856418197379
 30
0.0
 10
153.5535256078967
 20
138.3333550498824
 30
0.0
  0
SPLINE
  5
CE
330
1F
100
AcDbEntity
  8
0
  6
Continuous
 62
     7
370
    15
100
AcDbSpline
210
0.0
220
0.0
230
1.0
 70
     8
 71
     3
 72
    10
 73
     6
 74
     0
 42
0.00000001
 43
0.00000001
 12
1.0
 22
0.0
 32
0.0
 13
1.0
 23
0.0
 33
0.0
 40
0.0
 40
0.0
 40
0.0
 40
0.0
 40
0.5
 40
0.5
 40
1.0
 40
1.0
 40
1.0
 40
1.0
 10
150.1278231395876
 20
144.5974884184213
 30
0.0
 10
150.0062828759191
 20
144.672214585633
 30
0.0
 10
149.9049485155702
 20
144.7811596015498
 30
0.0
 10
149.7693095726817
 20
145.0315900823114
 30
0.0
 10
149.7335256078967
 20
145.1740094444104
 30
0.0
 10
149.7335256078967
 20
145.3171422694571
 30
0.0
  0
SPLINE
  5
CF
330
1F
100
AcDbEntity
  8
0
  6
Continuous
 62
     7
370
    15
100
AcDbSpline
210
0.0
220
0.0
230
1.0
 70
    24
 71
     3
 72
    12
 73
     8
 74
     0
 42
0.00000001
 43
0.00000001
 12
1.0
 22
0.0
 32
0.0
 13
1.0
 23
0.0
 33
0.0
 40
0.0
 40
0.0
 40
0.0
 40
0.0
 40
0.2499999999999979
 40
0.2499999999999979
 40
0.4999999999999959
 40
0.4999999999999959
 40
1.0
 40
1.0
 40
1.0
 40
1.0
 10
150.5335256078967
 20
144.5974884184213
 30
0.0
 10
150.4841822460871
 20
144.5974884184213
 30
0.0
 10
150.4354915477854
 20
144.5974884184213
 30
0.0
 10
150.352640450215
 20
144.5974884184213
 30
0.0
 10
150.3164404825944
 20
144.5974884184213
 30
0.0
 10
150.220690566045
 20
144.5974884184213
 30
0.0
 10
150.1708085962329
 20
144.5974884184213
 30
0.0
 10
150.1278231395876
 20
144.5974884184213
 30
0.0
  0
SPLINE
  5
D0
330
1F
100
AcDbEntity
  8
0
  6
Continuous
 62
     7
370
    15
100
AcDbSpline
210
0.0
220
0.0
230
1.0
 70
    24
 71
     3
 72
    14
 73
    10
 74
     0
 42
0.00000001
 43
0.00000001
 12
1.0
 22
0.0
 32
0.0
 13
1.0
 23
0.0
 33
0.0
 40
0.0
 40
0.0
 40
0.0
 40
0.0
 40
0.1249999999999984
 40
0.1249999999999984
 40
0.2499999999999969
 40
0.2499999999999969
 40
0.4999999999999972
 40
0.4999999999999972
 40
1.0
 40
1.0
 40
1.0
 40
1.0
 10
150.5335256078967
 20
91.79748841842125
 30
0.0
 10
150.4641788861655
 20
91.79748841842125
 30
0.0
 10
150.3989808327816
 20
91.79748841842125
 30
0.0
 10
150.2946016401546
 20
91.79748841842125
 30
0.0
 10
150.2516992691456
 20
91.79748841842125
 30
0.0
 10
150.1393736115409
 20
91.79748841842125
 30
0.0
 10
150.0841499171871
 20
91.79748841842125
 30
0.0
 10
149.9400925384195
 20
91.79748841842125
 30
0.0
 10
149.8780118415881
 20
91.79748841842125
 30
0.0
 10
149.831200410229
 20
91.79748841842125
 30
0.0
  0
SPLINE
  5
D1
330
1F
100
AcDbEntity
  8
0
  6
Continuous
 62
     7
370
    15
100
AcDbSpline
210
0.0
220
0.0
230
1.0
 70
     8
 71
     3
 72
     9
 73
     5
 74
     0
 42
0.00000001
 43
0.00000001
 12
1.0
 22
0.0
 32
0.0
 13
1.0
 23
0.0
 33
0.0
 40
0.0
 40
0.0
 40
0.0
 40
0.0
 40
0.5
 40
1.0
 40
1.0
 40
1.0
 40
1.0
 10
149.7335256078967
 20
138.3333550498826
 30
0.0
 10
149.7335256078967
 20
138.2851229977599
 30
0.0
 10
149.7379315826018
 20
138.1892529843203
 30
0.0
 10
149.7509507626957
 20
138.094544354337
 30
0.0
 10
149.7596732310568
 20
138.0474884184213
 30
0.0
  0
LINE
  5
D2
330
1F
100
AcDbEntity
  8
0
  6
Continuous
 62
     7
370
    15
100
AcDbLine
 10
152.7535256079
 20
144.5974884184
 30
0.0
 11
150.5335256079
 21
144.5974884184
 31
0.0
  0
LINE
  5
D3
330
1F
100
AcDbEntity
  8
0
  6
Continuous
 62
     7
370
    15
100
AcDbLine
 10
152.7535256079
 20
91.7974884184
 30
0.0
 11
150.5335256079
 21
91.7974884184
 31
0.0
  0
LINE
  5
D4
330
1F
100
AcDbEntity
  8
0
  6
Continuous
 62
     7
370
    15
100
AcDbLine
 10
131.6435256079
 20
93.9770575567
 30
0.0
 11
131.6435256079
 21
142.4179192801
 31
0.0
  0
LINE
  5
D5
330
1F
100
AcDbEntity
  8
0
  6
Continuous
 62
     7
370
    15
100
AcDbLine
 10
111.8435256079
 20
94.9690415246
 30
0.0
 11
111.8435256079
 21
96.2523401591
 31
0.0
  0
SPLINE
  5
D6
330
1F
100
AcDbEntity
  8
0
  6
Continuous
 62
     7
370
    15
100
AcDbSpline
210
0.0
220
0.0
230
1.0
 70
     8
 71
     3
 72
    14
 73
    10
 74
     0
 42
0.00000001
 43
0.00000001
 12
1.0
 22
0.0
 32
0.0
 13
1.0
 23
0.0
 33
0.0
 40
0.0
 40
0.0
 40
0.0
 40
0.0
 40
0.25
 40
0.25
 40
0.5
 40
0.5
 40
0.75
 40
0.75
 40
1.0
 40
1.0
 40
1.0
 40
1.0
 10
111.2219213711569
 20
97.33311720113805
 30
0.0
 10
111.2603577559779
 20
97.23049280342651
 30
0.0
 10
111.3291591493697
 20
97.13129637998695
 30
0.0
 10
111.4724451615287
 20
96.94040435066043
 30
0.0
 10
111.5476272166356
 20
96.84814708462753
 30
0.0
 10
111.6798145052858
 20
96.66853976281251
 30
0.0
 10
111.7373317007556
 20
96.58123020836817
 30
0.0
 10
111.8193764990479
 20
96.41129637485244
 30
0.0
 10
111.8435256078967
 20
96.32939403298127
 30
0.0
 10
111.8435256078967
 20
96.25234015914536
 30
0.0
  0
SPLINE
  5
D7
330
1F
100
AcDbEntity
  8
0
  6
Continuous
 62
     7
370
    15
100
AcDbSpline
210
0.0
220
0.0
230
1.0
 70
     8
 71
     3
 72
    18
 73
    14
 74
     0
 42
0.00000001
 43
0.00000001
 12
1.0
 22
0.0
 32
0.0
 13
1.0
 23
0.0
 33
0.0
 40
0.0
 40
0.0
 40
0.0
 40
0.0
 40
0.0624999999999989
 40
0.0624999999999989
 40
0.1249999999999978
 40
0.1249999999999978
 40
0.2499999999999987
 40
0.2499999999999987
 40
0.4999999999999991
 40
0.4999999999999991
 40
0.7499999999999996
 40
0.7499999999999996
 40
1.0
 40
1.0
 40
1.0
 40
1.0
 10
110.4435256078967
 20
98.05139965262461
 30
0.0
 10
110.4800978182471
 20
98.05517705615205
 30
0.0
 10
110.5187482916825
 20
98.05462002826893
 30
0.0
 10
110.5928397853964
 20
98.04456082310706
 30
0.0
 10
110.6281900791505
 20
98.03520694168249
 30
0.0
 10
110.7227843765399
 20
98.00082251524869
 30
0.0
 10
110.7729225496788
 20
97.97011078058587
 30
0.0
 10
110.90211582126
 20
97.87418147054782
 30
0.0
 10
110.9603959660011
 20
97.80566597643059
 30
0.0
 10
111.0605910624246
 20
97.66909402649799
 30
0.0
 10
111.1006063138713
 20
97.60032912399508
 30
0.0
 10
111.169005734689
 20
97.46529369488741
 30
0.0
 10
111.197367458551
 20
97.39867566883426
 30
0.0
 10
111.2219213711569
 20
97.33311720113805
 30
0.0
  0
SPLINE
  5
D8
330
1F
100
AcDbEntity
  8
0
  6
Continuous
 62
     7
370
    15
100
AcDbSpline
210
0.0
220
0.0
230
1.0
 70
     8
 71
     3
 72
    10
 73
     6
 74
     0
 42
0.00000001
 43
0.00000001
 12
1.0
 22
0.0
 32
0.0
 13
1.0
 23
0.0
 33
0.0
 40
0.0
 40
0.0
 40
0.0
 40
0.0
 40
0.5
 40
0.5
 40
1.0
 40
1.0
 40
1.0
 40
1.0
 10
106.5299237467748
 20
97.55520599625298
 30
0.0
 10
107.1575514024821
 20
97.65847955498859
 30
0.0
 10
107.8087521475135
 20
97.74730466674012
 30
0.0
 10
109.1174568515258
 20
97.90941237361045
 30
0.0
 10
109.778501288817
 20
97.98271183789703
 30
0.0
 10
110.4435256078966
 20
98.05139965262472
 30
0.0
  0
SPLINE
  5
D9
330
1F
100
AcDbEntity
  8
0
  6
Continuous
 62
     7
370
    15
100
AcDbSpline
210
0.0
220
0.0
230
1.0
 70
     8
 71
     3
 72
    14
 73
    10
 74
     0
 42
0.00000001
 43
0.00000001
 12
1.0
 22
0.0
 32
0.0
 13
1.0
 23
0.0
 33
0.0
 40
0.0
 40
0.0
 40
0.0
 40
0.0
 40
0.5000000000000011
 40
0.5000000000000011
 40
0.7500000000000019
 40
0.7500000000000019
 40
0.8750000000000009
 40
0.8750000000000009
 40
1.0
 40
1.0
 40
1.0
 40
1.0
 10
102.8935256078967
 20
97.3908568598937
 30
0.0
 10
103.509602511652
 20
97.39658298012284
 30
0.0
 10
104.1237345077679
 20
97.40647334552487
 30
0.0
 10
105.0376311382814
 20
97.43710831319463
 30
0.0
 10
105.341070065829
 20
97.44990177083261
 30
0.0
 10
105.7922066814665
 20
97.477827598792
 30
0.0
 10
105.9419129310091
 20
97.48859721895175
 30
0.0
 10
106.2387540672571
 20
97.51572993455129
 30
0.0
 10
106.3861396197604
 20
97.53154690737851
 30
0.0
 10
106.5299237467747
 20
97.55520599625298
 30
0.0
  0
SPLINE
  5
DA
330
1F
100
AcDbEntity
  8
0
  6
Continuous
 62
     7
370
    15
100
AcDbSpline
210
0.0
220
0.0
230
1.0
 70
     8
 71
     3
 72
     8
 73
     4
 74
     0
 42
0.00000001
 43
0.00000001
 12
1.0
 22
0.0
 32
0.0
 13
1.0
 23
0.0
 33
0.0
 40
0.0000003682006999
 40
0.0000003682006999
 40
0.0000003682006999
 40
0.0000003682006999
 40
0.0000187826246626
 40
0.0000187826246626
 40
0.0000187826246626
 40
0.0000187826246626
 10
102.8834806774785
 20
97.39760126435226
 30
0.0
 10
102.8868150729059
 20
97.39534850649845
 30
0.0
 10
102.890163487015
 20
97.3931003783679
 30
0.0
 10
102.8935256078966
 20
97.39085685989369
 30
0.0
  0
SPLINE
  5
DB
330
1F
100
AcDbEntity
  8
0
  6
Continuous
 62
     7
370
    15
100
AcDbSpline
210
0.0
220
0.0
230
1.0
 70
     8
 71
     3
 72
     8
 73
     4
 74
     0
 42
0.00000001
 43
0.00000001
 12
1.0
 22
0.0
 32
0.0
 13
1.0
 23
0.0
 33
0.0
 40
0.0000003292049707
 40
0.0000003292049707
 40
0.0000003292049707
 40
0.0000003292049707
 40
0.0000169050949325
 40
0.0000169050949325
 40
0.0000169050949325
 40
0.0000169050949325
 10
102.8935256078966
 20
139.0674261838163
 30
0.0
 10
102.8901690257599
 20
139.0655141897195
 30
0.0
 10
102.8868206616343
 20
139.0635988994644
 30
0.0
 10
102.8834806774653
 20
139.061680290849
 30
0.0
  0
SPLINE
  5
DC
330
1F
100
AcDbEntity
  8
0
  6
Continuous
 62
     7
370
    15
100
AcDbSpline
210
0.0
220
0.0
230
1.0
 70
     8
 71
     3
 72
    10
 73
     6
 74
     0
 42
0.00000001
 43
0.00000001
 12
1.0
 22
0.0
 32
0.0
 13
1.0
 23
0.0
 33
0.0
 40
0.0
 40
0.0
 40
0.0
 40
0.0
 40
0.5
 40
0.5
 40
1.0
 40
1.0
 40
1.0
 40
1.0
 10
106.4435256078967
 20
139.020575810249
 30
0.0
 10
105.8559400608061
 20
139.0416413304854
 30
0.0
 10
105.2651936673457
 20
139.0523998163576
 30
0.0
 10
104.0811745020468
 20
139.0657645968933
 30
0.0
 10
103.4877605138414
 20
139.0679072395579
 30
0.0
 10
102.8935256078967
 20
139.0674261838163
 30
0.0
  0
SPLINE
  5
DD
330
1F
100
AcDbEntity
  8
0
  6
Continuous
 62
     7
370
    15
100
AcDbSpline
210
0.0
220
0.0
230
1.0
 70
     8
 71
     3
 72
    18
 73
    14
 74
     0
 42
0.00000001
 43
0.00000001
 12
1.0
 22
0.0
 32
0.0
 13
1.0
 23
0.0
 33
0.0
 40
0.0
 40
0.0
 40
0.0
 40
0.0
 40
0.2500000000000007
 40
0.2500000000000007
 40
0.5000000000000007
 40
0.5000000000000007
 40
0.7500000000000006
 40
0.7500000000000006
 40
0.8750000000000012
 40
0.8750000000000012
 40
0.9375000000000006
 40
0.9375000000000006
 40
1.0
 40
1.0
 40
1.0
 40
1.0
 10
107.8435256078967
 20
140.0415960907843
 30
0.0
 10
107.8435256078967
 20
139.958389181927
 30
0.0
 10
107.8076765079584
 20
139.8696525266135
 30
0.0
 10
107.6828047719245
 20
139.6875273360533
 30
0.0
 10
107.5924043542766
 20
139.5923972874266
 30
0.0
 10
107.3701616995345
 20
139.4032157783023
 30
0.0
 10
107.2403969130887
 20
139.3082706102076
 30
0.0
 10
106.9997594557772
 20
139.1699919026277
 30
0.0
 10
106.9119921576397
 20
139.1242814693253
 30
0.0
 10
106.7574680704329
 20
139.0664581641038
 30
0.0
 10
106.7008571843782
 20
139.0487434000659
 30
0.0
 10
106.5768131534716
 20
139.024204096833
 30
0.0
 10
106.5090984784533
 20
139.0182249582948
 30
0.0
 10
106.4435256078967
 20
139.020575810249
 30
0.0
  0
LINE
  5
DE
330
1F
100
AcDbEntity
  8
0
  6
Continuous
 62
     7
370
    15
100
AcDbLine
 10
107.8435256079
 20
140.0415960908
 30
0.0
 11
107.8435256079
 21
141.2255345106
 31
0.0
  0
SPLINE
  5
DF
330
1F
100
AcDbEntity
  8
0
  6
Continuous
 62
     7
370
    15
100
AcDbSpline
210
0.0
220
0.0
230
1.0
 70
     8
 71
     3
 72
    18
 73
    14
 74
     0
 42
0.00000001
 43
0.00000001
 12
1.0
 22
0.0
 32
0.0
 13
1.0
 23
0.0
 33
0.0
 40
0.0
 40
0.0
 40
0.0
 40
0.0
 40
0.0010671296451825
 40
0.1270947795731585
 40
0.2524053457512666
 40
0.3766468878986943
 40
0.4391415999050648
 40
0.5008278021400229
 40
0.5624255708817563
 40
0.62531624391613
 40
0.7499985144706808
 40
0.8752758950341303
 40
1.0
 40
1.0
 40
1.0
 40
1.0
 10
120.4138264479694
 20
94.5401493955049
 30
0.0
 10
120.4129146153309
 20
94.54003461696826
 30
0.0
 10
120.3043156566941
 20
94.5263645321022
 30
0.0
 10
120.6919567243437
 20
94.577284032718
 30
0.0
 10
121.5579214061789
 20
94.67686720576444
 30
0.0
 10
122.7583253309485
 20
94.74599108890804
 30
0.0
 10
123.8159012454372
 20
94.74994331804703
 30
0.0
 10
124.6430353323473
 20
94.72245437959158
 30
0.0
 10
125.4683071999829
 20
94.66391420318443
 30
0.0
 10
126.5226724199804
 20
94.55039304344763
 30
0.0
 10
127.6845087014534
 20
94.36724221920004
 30
0.0
 10
128.6367434828367
 20
94.16263900956496
 30
0.0
 10
128.7624485436446
 20
94.1333536587889
 30
0.0
 10
128.8251619757898
 20
94.11874338894822
 30
0.0
  0
SPLINE
  5
E0
330
1F
100
AcDbEntity
  8
0
  6
Continuous
 62
     7
370
    15
100
AcDbSpline
210
0.0
220
0.0
230
1.0
 70
     8
 71
     3
 72
    18
 73
    14
 74
     0
 42
0.00000001
 43
0.00000001
 12
1.0
 22
0.0
 32
0.0
 13
1.0
 23
0.0
 33
0.0
 40
0.0
 40
0.0
 40
0.0
 40
0.0
 40
0.1248907792210126
 40
0.25053840203417
 40
0.3748721840485287
 40
0.4374907653352096
 40
0.4990776265894368
 40
0.5607931536355757
 40
0.6233901338664934
 40
0.7478191038417352
 40
0.8731940995934956
 40
0.9991614644710078
 40
0.9999999999999999
 40
0.9999999999999999
 40
0.9999999999999999
 40
0.9999999999999999
 10
128.8249432102659
 20
142.2761682673399
 30
0.0
 10
128.7612024575542
 20
142.2615069747418
 30
0.0
 10
128.6333346803778
 20
142.2320955414704
 30
0.0
 10
127.6813354593174
 20
142.0271424374079
 30
0.0
 10
126.5207917541131
 20
141.8438786615969
 30
0.0
 10
125.4685273020251
 20
141.7308510693479
 30
0.0
 10
124.6443001869563
 20
141.6725874218066
 30
0.0
 10
123.8166964174372
 20
141.6451410338027
 30
0.0
 10
122.7578792249519
 20
141.6491258397317
 30
0.0
 10
121.5556605269179
 20
141.7182153161131
 30
0.0
 10
120.6904765872307
 20
141.81784153267
 30
0.0
 10
120.3043361657002
 20
141.8686576062698
 30
0.0
 10
120.4124077064807
 20
141.8549854262072
 30
0.0
 10
120.413122356401
 20
141.8548950155188
 30
0.0
  0
SPLINE
  5
E1
330
1F
100
AcDbEntity
  8
0
  6
Continuous
 62
     7
370
    15
100
AcDbSpline
210
0.0
220
0.0
230
1.0
 70
     8
 71
     3
 72
    22
 73
    18
 74
     0
 42
0.00000001
 43
0.00000001
 12
1.0
 22
0.0
 32
0.0
 13
1.0
 23
0.0
 33
0.0
 40
0.0
 40
0.0
 40
0.0
 40
0.0
 40
0.1250000000000022
 40
0.1250000000000022
 40
0.2500000000000044
 40
0.2500000000000044
 40
0.3125000000000044
 40
0.3125000000000044
 40
0.3750000000000043
 40
0.3750000000000043
 40
0.5000000000000043
 40
0.5000000000000043
 40
0.6250000000000043
 40
0.6250000000000043
 40
0.7500000000000042
 40
0.7500000000000042
 40
1.0
 40
1.0
 40
1.0
 40
1.0
 10
102.8834806774658
 20
139.06168029085
 30
0.0
 10
102.8228609565894
 20
139.0268581142027
 30
0.0
 10
102.7606716166229
 20
138.988354310502
 30
0.0
 10
102.6269421503934
 20
138.9024198227033
 30
0.0
 10
102.5546876086811
 20
138.8541132215011
 30
0.0
 10
102.4327896678454
 20
138.7777615033313
 30
0.0
 10
102.3889831146934
 20
138.7513470427243
 30
0.0
 10
102.3025879455185
 20
138.7028381181937
 30
0.0
 10
102.2602479692268
 20
138.6809039954673
 30
0.0
 10
102.1462772228578
 20
138.6245342055227
 30
0.0
 10
102.0878584968676
 20
138.598177380989
 30
0.0
 10
101.9879509256801
 20
138.5460375564849
 30
0.0
 10
101.9465369348847
 20
138.5208769667723
 30
0.0
 10
101.8745119670074
 20
138.4657701234453
 30
0.0
 10
101.8441634256945
 20
138.4359137199503
 30
0.0
 10
101.7706716956624
 20
138.3385070179576
 30
0.0
 10
101.7435256078967
 20
138.2621753341473
 30
0.0
 10
101.7435256078967
 20
138.1735489230772
 30
0.0
  0
SPLINE
  5
E2
330
1F
100
AcDbEntity
  8
0
  6
Continuous
 62
     7
370
    15
100
AcDbSpline
210
0.0
220
0.0
230
1.0
 70
     8
 71
     3
 72
    22
 73
    18
 74
     0
 42
0.00000001
 43
0.00000001
 12
1.0
 22
0.0
 32
0.0
 13
1.0
 23
0.0
 33
0.0
 40
0.0
 40
0.0
 40
0.0
 40
0.0
 40
0.2499999999999959
 40
0.2499999999999959
 40
0.4999999999999919
 40
0.4999999999999919
 40
0.5624999999999932
 40
0.5624999999999932
 40
0.6249999999999946
 40
0.6249999999999946
 40
0.6874999999999959
 40
0.6874999999999959
 40
0.7499999999999971
 40
0.7499999999999971
 40
0.8749999999999986
 40
0.8749999999999986
 40
1.0
 40
1.0
 40
1.0
 40
1.0
 10
101.7435256078966
 20
98.23837065642192
 30
0.0
 10
101.7435256078966
 20
98.14839727140416
 30
0.0
 10
101.7750238262423
 20
98.07334922888906
 30
0.0
 10
101.8815512554188
 20
97.96032201517754
 30
0.0
 10
101.9547114745557
 20
97.92350843238479
 30
0.0
 10
102.0756399508801
 20
97.88786475613098
 30
0.0
 10
102.101490438684
 20
97.88111454234483
 30
0.0
 10
102.1590849964583
 20
97.86604553363038
 30
0.0
 10
102.1910307369819
 20
97.8579125102037
 30
0.0
 10
102.2668877775542
 20
97.83262693561932
 30
0.0
 10
102.3140988282002
 20
97.8132517175022
 30
0.0
 10
102.4103248217992
 20
97.75749323885242
 30
0.0
 10
102.4547457517232
 20
97.72500809574153
 30
0.0
 10
102.5709667616089
 20
97.63609771411996
 30
0.0
 10
102.6361190010208
 20
97.58159963079179
 30
0.0
 10
102.7626734413867
 20
97.48297215173548
 30
0.0
 10
102.8233475183563
 20
97.43822795348731
 30
0.0
 10
102.8834806774788
 20
97.39760126435097
 30
0.0
  0
LINE
  5
E3
330
1F
100
AcDbEntity
  8
0
  6
Continuous
 62
     7
370
    15
100
AcDbLine
 10
101.7435256079
 20
98.2383706564
 30
0.0
 11
101.7435256079
 21
138.1735489231
 31
0.0
  0
ELLIPSE
  5
E4
330
1F
100
AcDbEntity
  8
0
  6
Continuous
 62
     7
370
    15
100
AcDbEllipse
 10
241.0678030019
 20
118.1974884184
 30
0.0
 11
0.4025701892336429
 21
19.99971074150081
 31
0.0
210
0.0
220
0.0
230
1.0
 40
0.2671959542
 41
0.3814836951312544
 42
2.910491863059591
  0
SPLINE
  5
E5
330
1F
100
AcDbEntity
  8
0
  6
Continuous
 62
     7
370
    15
100
AcDbSpline
210
0.0
220
0.0
230
1.0
 70
     8
 71
     3
 72
    16
 73
    12
 74
     0
 42
0.00000001
 43
0.00000001
 12
1.0
 22
0.0
 32
0.0
 13
1.0
 23
0.0
 33
0.0
 40
0.0
 40
0.0
 40
0.0
 40
0.0
 40
0.2499999999999993
 40
0.2499999999999993
 40
0.4999999999999986
 40
0.4999999999999986
 40
0.7499999999999978
 40
0.7499999999999978
 40
0.8749999999999989
 40
0.8749999999999989
 40
1.0
 40
1.0
 40
1.0
 40
1.0
 10
245.2474875357704
 20
98.19837973893681
 30
0.0
 10
244.5802615695892
 20
98.19837973893681
 30
0.0
 10
243.9314855382004
 20
98.19852061877815
 30
0.0
 10
242.6708428611261
 20
98.20969206295429
 30
0.0
 10
242.0920957269503
 20
98.22063998435995
 30
0.0
 10
241.0437708155942
 20
98.28051165944213
 30
0.0
 10
240.599883176838
 20
98.32842438529222
 30
0.0
 10
240.0588602185118
 20
98.45040921740707
 30
0.0
 10
239.9029915682173
 20
98.49885843238576
 30
0.0
 10
239.6411701526183
 20
98.6127759326147
 30
0.0
 10
239.5344976479264
 20
98.67839609880697
 30
0.0
 10
239.451932578036
 20
98.75411069882595
 30
0.0
  0
LINE
  5
E6
330
1F
100
AcDbEntity
  8
0
  6
Continuous
 62
     7
370
    15
100
AcDbLine
 10
247.6435256079
 20
98.1983797389
 30
0.0
 11
245.2474875358
 21
98.1983797389
 31
0.0
  0
LINE
  5
E7
330
1F
100
AcDbEntity
  8
0
  6
Continuous
 62
     7
370
    15
100
AcDbLine
 10
247.6435256079
 20
98.1983797389
 30
0.0
 11
247.6435256079
 21
98.1974884184
 31
0.0
  0
ELLIPSE
  5
E8
330
1F
100
AcDbEntity
  8
0
  6
Continuous
 62
     7
370
    15
100
AcDbEllipse
 10
261.1122192625
 20
118.1974884184
 30
0.0
 11
-16.76790472595215
 21
19.99168568572456
 31
0.0
210
0.0
220
0.0
230
1.0
 40
0.0343889785
 41
5.684954451968881
 42
6.406527592021804
  0
SPLINE
  5
E9
330
1F
100
AcDbEntity
  8
0
  6
Continuous
 62
     7
370
    15
100
AcDbSpline
210
0.0
220
0.0
230
1.0
 70
     8
 71
     3
 72
    20
 73
    16
 74
     0
 42
0.00000001
 43
0.00000001
 12
1.0
 22
0.0
 32
0.0
 13
1.0
 23
0.0
 33
0.0
 40
0.0
 40
0.0
 40
0.0
 40
0.0
 40
0.2500000000000021
 40
0.2500000000000021
 40
0.3750000000000018
 40
0.3750000000000018
 40
0.5000000000000016
 40
0.5000000000000016
 40
0.6250000000000012
 40
0.6250000000000012
 40
0.7500000000000009
 40
0.7500000000000009
 40
0.8750000000000004
 40
0.8750000000000004
 40
1.0
 40
1.0
 40
1.0
 40
1.0
 10
239.451932578036
 20
136.7995318404463
 30
0.0
 10
239.5991012018333
 20
137.0111160017724
 30
0.0
 10
239.8217396890052
 20
137.1871147013809
 30
0.0
 10
240.2745996799616
 20
137.4086373802959
 30
0.0
 10
240.4454223033513
 20
137.4749251341203
 30
0.0
 10
240.8165042979621
 20
137.5912471928029
 30
0.0
 10
241.0179629490032
 20
137.6419176433744
 30
0.0
 10
241.4531568428736
 20
137.7309129075758
 30
0.0
 10
241.6888237000888
 20
137.7694079834479
 30
0.0
 10
242.1787758884776
 20
137.8341954986873
 30
0.0
 10
242.434097857957
 20
137.8608242949917
 30
0.0
 10
242.9651970133632
 20
137.9050852136863
 30
0.0
 10
243.2431015362433
 20
137.9228051923384
 30
0.0
 10
243.8097932518977
 20
137.9502422297214
 30
0.0
 10
244.096714423003
 20
137.9599538067528
 30
0.0
 10
244.3871184665624
 20
137.9663540487299
 30
0.0
  0
ELLIPSE
  5
EA
330
1F
100
AcDbEntity
  8
0
  6
Continuous
 62
     7
370
    15
100
AcDbEllipse
 10
238.2474829603
 20
110.9046836061
 30
0.0
 11
-0.129533762421346
 21
2.44708977310448
 31
0.0
210
0.0
220
0.0
230
1.0
 40
0.2476740557
 41
0.0
 42
6.283185307179586
  0
SPLINE
  5
EB
330
1F
100
AcDbEntity
  8
0
  6
Continuous
 62
     7
370
    15
100
AcDbSpline
210
0.0
220
0.0
230
1.0
 70
     8
 71
     3
 72
    10
 73
     6
 74
     0
 42
0.00000001
 43
0.00000001
 12
1.0
 22
0.0
 32
0.0
 13
1.0
 23
0.0
 33
0.0
 40
0.0
 40
0.0
 40
0.0
 40
0.0
 40
0.5
 40
0.5
 40
1.0
 40
1.0
 40
1.0
 40
1.0
 10
159.5935256078967
 20
148.0439287421852
 30
0.0
 10
159.5935256078967
 20
148.204334008536
 30
0.0
 10
159.5312877767898
 20
148.3633958215246
 30
0.0
 10
159.3121528530473
 20
148.5943082871549
 30
0.0
 10
159.1545641580554
 20
148.6646838915855
 30
0.0
 10
158.9935256078967
 20
148.6646838915855
 30
0.0
  0
SPLINE
  5
EC
330
1F
100
AcDbEntity
  8
0
  6
Continuous
 62
     7
370
    15
100
AcDbSpline
210
0.0
220
0.0
230
1.0
 70
     8
 71
     3
 72
    12
 73
     8
 74
     0
 42
0.00000001
 43
0.00000001
 12
1.0
 22
0.0
 32
0.0
 13
1.0
 23
0.0
 33
0.0
 40
0.0
 40
0.0
 40
0.0
 40
0.0
 40
0.2499999999999987
 40
0.2499999999999987
 40
0.4999999999999973
 40
0.4999999999999973
 40
1.0
 40
1.0
 40
1.0
 40
1.0
 10
158.9935256078967
 20
142.6561780807887
 30
0.0
 10
159.0847253297224
 20
142.6561780807887
 30
0.0
 10
159.1753203388583
 20
142.6279583822008
 30
0.0
 10
159.328733065305
 20
142.5335153749527
 30
0.0
 10
159.3939419326287
 20
142.4672283982474
 30
0.0
 10
159.5467264619686
 20
142.2416035749591
 30
0.0
 10
159.5935256078967
 20
142.0591773119265
 30
0.0
 10
159.5935256078967
 20
141.8784406796796
 30
0.0
  0
LINE
  5
ED
330
1F
100
AcDbEntity
  8
0
  6
Continuous
 62
     7
370
    15
100
AcDbLine
 10
159.5935256079
 20
141.8784406797
 30
0.0
 11
159.5935256079
 21
148.0439287422
 31
0.0
  0
LINE
  5
EE
330
1F
100
AcDbEntity
  8
0
  6
Continuous
 62
     7
370
    15
100
AcDbLine
 10
153.5535256079
 20
138.3333550499
 30
0.0
 11
153.5535256079
 21
139.247632086
 31
0.0
  0
SPLINE
  5
EF
330
1F
100
AcDbEntity
  8
0
  6
Continuous
 62
     7
370
    15
100
AcDbSpline
210
0.0
220
0.0
230
1.0
 70
     8
 71
     3
 72
     8
 73
     4
 74
     0
 42
0.00000001
 43
0.00000001
 12
1.0
 22
0.0
 32
0.0
 13
1.0
 23
0.0
 33
0.0
 40
0.0
 40
0.0
 40
0.0
 40
0.0
 40
1.0
 40
1.0
 40
1.0
 40
1.0
 10
153.5535256078967
 20
139.2476320860046
 30
0.0
 10
154.0328037584866
 20
140.3886433158572
 30
0.0
 10
154.5283715976265
 20
141.525027726625
 30
0.0
 10
155.0354584393857
 20
142.6561780807887
 30
0.0
  0
LINE
  5
F0
330
1F
100
AcDbEntity
  8
0
  6
Continuous
 62
     7
370
    15
100
AcDbLine
 10
155.0354584394
 20
142.6561780808
 30
0.0
 11
158.9935256079
 21
142.6561780808
 31
0.0
  0
LINE
  5
F1
330
1F
100
AcDbEntity
  8
0
  6
Continuous
 62
     7
370
    15
100
AcDbLine
 10
159.5935256079
 20
141.8784406797
 30
0.0
 11
159.5935256079
 21
138.0474884184
 31
0.0
  0
LINE
  5
F2
330
1F
100
AcDbEntity
  8
0
  6
Continuous
 62
     7
370
    15
100
AcDbLine
 10
158.9935256079
 20
148.6646838916
 30
0.0
 11
155.0354584394
 21
148.6646838916
 31
0.0
  0
LINE
  5
F3
330
1F
100
AcDbEntity
  8
0
  6
Continuous
 62
     7
370
    15
100
AcDbLine
 10
155.0354584394
 20
142.6561780808
 30
0.0
 11
155.0354584394
 21
148.6646838916
 31
0.0
  0
SPLINE
  5
F4
330
1F
100
AcDbEntity
  8
0
  6
Continuous
 62
     7
370
    15
100
AcDbSpline
210
0.0
220
0.0
230
1.0
 70
     8
 71
     3
 72
     8
 73
     4
 74
     0
 42
0.00000001
 43
0.00000001
 12
1.0
 22
0.0
 32
0.0
 13
1.0
 23
0.0
 33
0.0
 40
0.0
 40
0.0
 40
0.0
 40
0.0
 40
1.0
 40
1.0
 40
1.0
 40
1.0
 10
155.0354584393857
 20
148.6646838915855
 30
0.0
 10
154.5403184100214
 20
147.7780042434053
 30
0.0
 10
154.0462357047425
 20
146.8907416077193
 30
0.0
 10
153.5535256078967
 20
146.0027226095929
 30
0.0
  0
LINE
  5
F5
330
1F
100
AcDbEntity
  8
0
  6
Continuous
 62
     7
370
    15
100
AcDbLine
 10
153.5535256079
 20
139.247632086
 30
0.0
 11
153.5535256079
 21
146.0027226096
 31
0.0
  0
SPLINE
  5
F6
330
1F
100
AcDbEntity
  8
0
  6
Continuous
 62
     7
370
    15
100
AcDbSpline
210
0.0
220
0.0
230
1.0
 70
     8
 71
     3
 72
     8
 73
     4
 74
     0
 42
0.00000001
 43
0.00000001
 12
1.0
 22
0.0
 32
0.0
 13
1.0
 23
0.0
 33
0.0
 40
0.0
 40
0.0
 40
0.0
 40
0.0
 40
1.0
 40
1.0
 40
1.0
 40
1.0
 10
148.2515927764076
 20
142.6561780807887
 30
0.0
 10
148.7586796181669
 20
141.525027726625
 30
0.0
 10
149.2542474573068
 20
140.3886433158572
 30
0.0
 10
149.7335256078967
 20
139.2476320860046
 30
0.0
  0
LINE
  5
F7
330
1F
100
AcDbEntity
  8
0
  6
Continuous
 62
     7
370
    15
100
AcDbLine
 10
149.7335256079
 20
139.247632086
 30
0.0
 11
149.7335256079
 21
138.3333550499
 31
0.0
  0
SPLINE
  5
F8
330
1F
100
AcDbEntity
  8
0
  6
Continuous
 62
     7
370
    15
100
AcDbSpline
210
0.0
220
0.0
230
1.0
 70
     8
 71
     3
 72
     8
 73
     4
 74
     0
 42
0.00000001
 43
0.00000001
 12
1.0
 22
0.0
 32
0.0
 13
1.0
 23
0.0
 33
0.0
 40
0.0
 40
0.0
 40
0.0
 40
0.0
 40
1.0
 40
1.0
 40
1.0
 40
1.0
 10
149.7335256078967
 20
146.0027226095929
 30
0.0
 10
149.2408155110509
 20
146.8907416077193
 30
0.0
 10
148.746732805772
 20
147.7780042434053
 30
0.0
 10
148.2515927764076
 20
148.6646838915855
 30
0.0
  0
LINE
  5
F9
330
1F
100
AcDbEntity
  8
0
  6
Continuous
 62
     7
370
    15
100
AcDbLine
 10
149.7335256079
 20
139.247632086
 30
0.0
 11
149.7335256079
 21
146.0027226096
 31
0.0
  0
LINE
  5
FA
330
1F
100
AcDbEntity
  8
0
  6
Continuous
 62
     7
370
    15
100
AcDbLine
 10
102.8935256079
 20
97.3849884184
 30
0.0
 11
102.8935256079
 21
97.3908568599
 31
0.0
  0
ELLIPSE
  5
FB
330
1F
100
AcDbEntity
  8
0
  6
Continuous
 62
     7
370
    15
100
AcDbEllipse
 10
245.2474875358
 20
136.5292903381
 30
0.0
 11
-5.996454817160014
 21
7.143274228709402
 31
0.0
210
0.0
220
0.0
230
1.0
 40
0.0288701113
 41
4.746766938511837
 42
4.890657802947242
  0
LINE
  5
FC
330
1F
100
AcDbEntity
  8
0
  6
Continuous
 62
     7
370
    15
100
AcDbLine
 10
271.5749230797
 20
105.6484431979
 30
0.0
 11
245.2474875358
 21
136.9478291806
 31
0.0
  0
ELLIPSE
  5
FD
330
1F
100
AcDbEntity
  8
0
  6
Continuous
 62
     7
370
    15
100
AcDbEllipse
 10
340.747134999
 20
23.5234757833
 30
0.0
 11
-94.88164015629269
 21
112.895707950937
 31
0.0
210
0.0
220
0.0
230
1.0
 40
0.0187289517
 41
6.084785203248178
 42
6.110308082105701
  0
ELLIPSE
  5
FE
330
1F
100
AcDbEntity
  8
0
  6
Continuous
 62
     7
370
    15
100
AcDbEllipse
 10
261.1122192625
 20
118.1974884184
 30
0.0
 11
-17.18710234410122
 21
20.49147782786802
 31
0.0
210
0.0
220
0.0
230
1.0
 40
0.0343889785
 41
4.683553428708858
 42
5.607384692680101
  0
LINE
  5
FF
330
1F
100
AcDbEntity
  8
0
  6
Continuous
 62
     7
370
    15
100
AcDbLine
 10
271.5749230797
 20
107.1315752595
 30
0.0
 11
262.312138206
 21
118.1974884184
 31
0.0
  0
LINE
  5
100
330
1F
100
AcDbEntity
  8
0
  6
Continuous
 62
     7
370
    15
100
AcDbLine
 10
271.5749230797
 20
107.1315752595
 30
0.0
 11
271.5749230797
 21
105.6484431979
 31
0.0
  0
SPLINE
  5
101
330
1F
100
AcDbEntity
  8
0
  6
Continuous
 62
     7
370
    15
100
AcDbSpline
210
0.0
220
0.0
230
1.0
 70
     8
 71
     3
 72
     8
 73
     4
 74
     0
 42
0.00000001
 43
0.00000001
 12
1.0
 22
0.0
 32
0.0
 13
1.0
 23
0.0
 33
0.0
 40
0.0
 40
0.0
 40
0.0
 40
0.0
 40
1.0
 40
1.0
 40
1.0
 40
1.0
 10
247.6435256078967
 20
98.19837973893681
 30
0.0
 10
249.1135143319573
 20
96.72735433014958
 30
0.0
 10
250.5839994998985
 20
95.25682153269854
 30
0.0
 10
252.0547527208555
 20
93.78655471889546
 30
0.0
  0
LINE
  5
102
330
1F
100
AcDbEntity
  8
0
  6
Continuous
 62
     7
370
    15
100
AcDbLine
 10
271.7121717106
 20
104.0835055859
 30
0.0
 11
271.5749230797
 21
105.6484431979
 31
0.0
  0
ARC
  5
103
330
1F
100
AcDbEntity
  8
0
  6
Continuous
 62
     7
370
    15
100
AcDbCircle
 10
260.7745734922
 20
104.0587267118
 30
0.0
 40
2.09726207936431
100
AcDbArc
 50
22.2459788443
 51
246.4206981303
  0
LINE
  5
104
330
1F
100
AcDbEntity
  8
0
  6
Continuous
 62
     7
370
    15
100
AcDbLine
 10
260.7345197907
 20
93.0274732296
 30
0.0
 11
252.0547527209
 21
93.7865547189
 31
0.0
  0
ARC
  5
105
330
1F
100
AcDbEntity
  8
0
  6
Continuous
 62
     7
370
    15
100
AcDbCircle
 10
260.767278239
 20
104.3728873727
 30
0.0
 40
2.09456407658147
100
AcDbArc
 50
184.3298768169
 51
245.7496412927
  0
LINE
  5
106
330
1F
100
AcDbEntity
  8
0
  6
Continuous
 62
     7
370
    15
100
AcDbLine
 10
271.7348804254
 20
104.1356899405
 30
0.0
 11
271.7348804254
 21
104.0815236704
 31
0.0
  0
LINE
  5
107
330
1F
100
AcDbEntity
  8
0
  6
Continuous
 62
     7
370
    15
100
AcDbLine
 10
271.8419334209
 20
104.0721805619
 30
0.0
 11
271.5749230797
 21
107.1315752595
 31
0.0
  0
LINE
  5
108
330
1F
100
AcDbEntity
  8
0
  6
Continuous
 62
     7
370
    15
100
AcDbLine
 10
271.7396675741
 20
104.0811058694
 30
0.0
 11
271.7348804254
 21
104.1356899405
 31
0.0
  0
LINE
  5
109
330
1F
100
AcDbEntity
  8
0
  6
HIDDEN
 62
     7
370
     0
100
AcDbLine
 10
138.5935256079
 20
86.6974884184
 30
0.0
 11
138.5935256079
 21
86.7133654356
 31
0.0
  0
SPLINE
  5
10A
330
1F
100
AcDbEntity
  8
0
  6
HIDDEN
 62
     7
370
     0
100
AcDbSpline
210
0.0
220
0.0
230
1.0
 70
     8
 71
     3
 72
    30
 73
    26
 74
     0
 42
0.00000001
 43
0.00000001
 12
1.0
 22
0.0
 32
0.0
 13
1.0
 23
0.0
 33
0.0
 40
0.0
 40
0.0
 40
0.0
 40
0.0
 40
0.1250000000000001
 40
0.1250000000000001
 40
0.1875000000000001
 40
0.1875000000000001
 40
0.2500000000000002
 40
0.2500000000000002
 40
0.3749999999999999
 40
0.3749999999999999
 40
0.4374999999999999
 40
0.4374999999999999
 40
0.4999999999999998
 40
0.4999999999999998
 40
0.6249999999999996
 40
0.6249999999999996
 40
0.6874999999999996
 40
0.6874999999999996
 40
0.7499999999999996
 40
0.7499999999999996
 40
0.8124999999999997
 40
0.8124999999999997
 40
0.8749999999999997
 40
0.8749999999999997
 40
1.0
 40
1.0
 40
1.0
 40
1.0
 10
138.5935256078967
 20
86.71336543555891
 30
0.0
 10
138.5935256078967
 20
86.73024435356751
 30
0.0
 10
138.6459431738751
 20
86.76026191839223
 30
0.0
 10
138.7993226537774
 20
86.82307230766534
 30
0.0
 10
138.8630037744452
 20
86.84697621489224
 30
0.0
 10
139.0159586418968
 20
86.90041150733462
 30
0.0
 10
139.1055309406661
 20
86.93001837550221
 30
0.0
 10
139.4067549735192
 20
87.02446807421664
 30
0.0
 10
139.6520699696034
 20
87.09549546804584
 30
0.0
 10
140.0861669506736
 20
87.20950975475161
 30
0.0
 10
140.2428366397773
 20
87.24896500589217
 30
0.0
 10
140.5748298036197
 20
87.32848644866284
 30
0.0
 10
140.7495353326121
 20
87.36842259116362
 30
0.0
 10
141.2992050152037
 20
87.48735899399178
 30
0.0
 10
141.699455977915
 20
87.56552375787564
 30
0.0
 10
142.3530428445525
 20
87.67523319814453
 30
0.0
 10
142.5787189642296
 20
87.71031403485294
 30
0.0
 10
143.0384307853608
 20
87.77555431423255
 30
0.0
 10
143.2734841194039
 20
87.8058891302773
 30
0.0
 10
143.753991401703
 20
87.86122750949913
 30
0.0
 10
143.9994449296171
 20
87.88623218605922
 30
0.0
 10
144.5010603544245
 20
87.93011199494991
 30
0.0
 10
144.758552737025
 20
87.9490556797122
 30
0.0
 10
145.5366292534611
 20
87.99477540698238
 30
0.0
 10
146.061791530706
 20
88.0105707221741
 30
0.0
 10
146.5935256078967
 20
88.0105707221741
 30
0.0
  0
LINE
  5
10B
330
1F
100
AcDbEntity
  8
0
  6
HIDDEN
 62
     7
370
     0
100
AcDbLine
 10
146.5935256079
 20
88.0105707222
 30
0.0
 11
148.2515927764
 21
88.0105707222
 31
0.0
  0
LINE
  5
10C
330
1F
100
AcDbEntity
  8
0
  6
HIDDEN
 62
     7
370
     0
100
AcDbLine
 10
148.2515927764
 20
148.6646838916
 30
0.0
 11
148.2515927764
 21
88.0105707222
 31
0.0
  0
LINE
  5
10D
330
1F
100
AcDbEntity
  8
0
  6
HIDDEN
 62
     7
370
     0
100
AcDbLine
 10
146.5935256079
 20
148.6646838916
 30
0.0
 11
148.2515927764
 21
148.6646838916
 31
0.0
  0
SPLINE
  5
10E
330
1F
100
AcDbEntity
  8
0
  6
HIDDEN
 62
     7
370
     0
100
AcDbSpline
210
0.0
220
0.0
230
1.0
 70
     8
 71
     3
 72
    24
 73
    20
 74
     0
 42
0.00000001
 43
0.00000001
 12
1.0
 22
0.0
 32
0.0
 13
1.0
 23
0.0
 33
0.0
 40
0.0
 40
0.0
 40
0.0
 40
0.0
 40
0.0096782450857499
 40
0.0638588832262714
 40
0.1666995963864479
 40
0.2187073086513884
 40
0.2715778650293461
 40
0.3754179639224224
 40
0.4279092214835913
 40
0.4812398962802085
 40
0.5342050537990922
 40
0.5875320435876281
 40
0.6420045032308597
 40
0.6968767173848074
 40
0.7500516912797762
 40
0.8036098346242008
 40
0.8583964709226126
 40
0.9136164391573224
 40
1.0
 40
1.0
 40
1.0
 40
1.0
 10
138.5977298052698
 20
149.6964216666216
 30
0.0
 10
138.596410952331
 20
149.6967562578502
 30
0.0
 10
138.587708912337
 20
149.6989639537713
 30
0.0
 10
138.6426172838195
 20
149.6850240571331
 30
0.0
 10
138.7948027989905
 20
149.6466317581
 30
0.0
 10
139.0568702292591
 20
149.5827617270427
 30
0.0
 10
139.3860269218144
 20
149.504787647718
 30
0.0
 10
139.814693961849
 20
149.4080843849452
 30
0.0
 10
140.3317824309262
 20
149.3006223645608
 30
0.0
 10
140.7661780727555
 20
149.2158856494362
 30
0.0
 10
141.2430043944377
 20
149.1296539330925
 30
0.0
 10
141.7606354653095
 20
149.0440874190729
 30
0.0
 10
142.3193784100616
 20
148.9612420346854
 30
0.0
 10
142.9092746825714
 20
148.8846852541748
 30
0.0
 10
143.5229400216383
 20
148.816971419559
 30
0.0
 10
144.1589185523311
 20
148.7594544171748
 30
0.0
 10
144.8217020347365
 20
148.713901564942
 30
0.0
 10
145.6341292363301
 20
148.6743669269683
 30
0.0
 10
146.2300134683956
 20
148.6683527619432
 30
0.0
 10
146.5935256078967
 20
148.6646838915855
 30
0.0
  0
SPLINE
  5
10F
330
1F
100
AcDbEntity
  8
0
  6
HIDDEN
 62
     7
370
     0
100
AcDbSpline
210
0.0
220
0.0
230
1.0
 70
     8
 71
     3
 72
    76
 73
    72
 74
     0
 42
0.00000001
 43
0.00000001
 12
1.0
 22
0.0
 32
0.0
 13
1.0
 23
0.0
 33
0.0
 40
-0.03125
 40
-0.03125
 40
0.0
 40
0.0
 40
0.0312499999999999
 40
0.0312499999999999
 40
0.0468749999999999
 40
0.0468749999999999
 40
0.0624999999999998
 40
0.0624999999999998
 40
0.0937499999999998
 40
0.0937499999999998
 40
0.1249999999999996
 40
0.1249999999999996
 40
0.1562499999999995
 40
0.1562499999999995
 40
0.1874999999999994
 40
0.1874999999999994
 40
0.2187499999999993
 40
0.2187499999999993
 40
0.2499999999999992
 40
0.2499999999999992
 40
0.2812499999999992
 40
0.2812499999999992
 40
0.3124999999999991
 40
0.3124999999999991
 40
0.3281249999999992
 40
0.3281249999999992
 40
0.3437499999999992
 40
0.3437499999999992
 40
0.3749999999999992
 40
0.3749999999999992
 40
0.4062499999999992
 40
0.4062499999999992
 40
0.4374999999999993
 40
0.4374999999999993
 40
0.4687499999999993
 40
0.4687499999999993
 40
0.4999999999999993
 40
0.4999999999999993
 40
0.5312499999999993
 40
0.5312499999999993
 40
0.5624999999999994
 40
0.5624999999999994
 40
0.5937499999999994
 40
0.5937499999999994
 40
0.6249999999999994
 40
0.6249999999999994
 40
0.6562499999999996
 40
0.6562499999999996
 40
0.6874999999999996
 40
0.6874999999999996
 40
0.7031249999999997
 40
0.7031249999999997
 40
0.7187499999999997
 40
0.7187499999999997
 40
0.7499999999999997
 40
0.7499999999999997
 40
0.7812499999999998
 40
0.7812499999999998
 40
0.8124999999999998
 40
0.8124999999999998
 40
0.8437499999999998
 40
0.8437499999999998
 40
0.8749999999999999
 40
0.8749999999999999
 40
0.9062499999999999
 40
0.9062499999999999
 40
0.9374999999999999
 40
0.9374999999999999
 40
0.96875
 40
0.96875
 40
1.0
 40
1.0
 40
1.03125
 40
1.03125
 10
135.6435256078967
 20
118.5283724142153
 30
0.0
 10
135.6435256078967
 20
117.8666044226272
 30
0.0
 10
135.6760460856811
 20
117.5413532545313
 30
0.0
 10
135.7715393299631
 20
117.0615565336422
 30
0.0
 10
135.8112141653743
 20
116.9029808498486
 30
0.0
 10
135.9066007787099
 20
116.5885984640555
 30
0.0
 10
135.9625450201206
 20
116.4324788404714
 30
0.0
 10
136.1509080435702
 20
115.9785382805694
 30
0.0
 10
136.3045203199886
 20
115.6915580345624
 30
0.0
 10
136.6673481137727
 20
115.1484448778231
 30
0.0
 10
136.8781832153552
 20
114.8917055862792
 30
0.0
 10
137.3386827853726
 20
114.4313209520482
 30
0.0
 10
137.5900457262905
 20
114.2245441352944
 30
0.0
 10
138.1363924206439
 20
113.859019927631
 30
0.0
 10
138.4266070603619
 20
113.7040203689161
 30
0.0
 10
139.0279938766635
 20
113.4544893478219
 30
0.0
 10
139.3436235697539
 20
113.3582110741332
 30
0.0
 10
139.9892639710335
 20
113.2295620668902
 30
0.0
 10
140.3140197268468
 20
113.1976758077737
 30
0.0
 10
140.9673197572382
 20
113.1973026602629
 30
0.0
 10
141.2991920980689
 20
113.2298821465089
 30
0.0
 10
141.9408433316726
 20
113.3576560512153
 30
0.0
 10
142.2527682486057
 20
113.4521884955124
 30
0.0
 10
142.7072578491226
 20
113.6403080900511
 30
0.0
 10
142.8571211569565
 20
113.7111910712719
 30
0.0
 10
143.1462063908792
 20
113.8658076776063
 30
0.0
 10
143.2860673051872
 20
113.9497302763442
 30
0.0
 10
143.6919437488914
 20
114.22092579982
 30
0.0
 10
143.944981895381
 20
114.4280258052612
 30
0.0
 10
144.4108814515445
 20
114.8936282583184
 30
0.0
 10
144.6173875260403
 20
115.1455471107057
 30
0.0
 10
144.9794930894399
 20
115.6864507267066
 30
0.0
 10
145.1363522032551
 20
115.978993569458
 30
0.0
 10
145.3873023201177
 20
116.5838612262156
 30
0.0
 10
145.4821134194487
 20
116.8955080576622
 30
0.0
 10
145.6105352822418
 20
117.5372613628838
 30
0.0
 10
145.643398568733
 20
117.8689891817631
 30
0.0
 10
145.6436518948415
 20
118.522108947024
 30
0.0
 10
145.6120958942723
 20
118.8470421533671
 30
0.0
 10
145.4838546728479
 20
119.4935691598202
 30
0.0
 10
145.3880486241895
 20
119.8085771136811
 30
0.0
 10
145.1389151130954
 20
120.4105357818267
 30
0.0
 10
144.9834549914006
 20
120.7020119521023
 30
0.0
 10
144.6190007370409
 20
121.247606888599
 30
0.0
 10
144.4125678296051
 20
121.4990840036041
 30
0.0
 10
143.9520987470872
 20
121.9604070276589
 30
0.0
 10
143.6953017390313
 20
122.1715303286052
 30
0.0
 10
143.1532565251968
 20
122.5342611103212
 30
0.0
 10
142.8664869452613
 20
122.6881500137068
 30
0.0
 10
142.4121797693757
 20
122.8770997403988
 30
0.0
 10
142.2560394686022
 20
122.9331725364186
 30
0.0
 10
141.9421935072561
 20
123.0286753019513
 30
0.0
 10
141.7838067195623
 20
123.0684559449788
 30
0.0
 10
141.3043304796189
 20
123.1643384821041
 30
0.0
 10
140.9780905351921
 20
123.1972139301036
 30
0.0
 10
140.3172159379141
 20
123.1977594992747
 30
0.0
 10
139.9920795905691
 20
123.1655929806613
 30
0.0
 10
139.3519970900827
 20
123.038810442674
 30
0.0
 10
139.0336761660149
 20
122.9425426888827
 30
0.0
 10
138.4287598871758
 20
122.6921483674576
 30
0.0
 10
138.1416109735243
 20
122.538834205736
 30
0.0
 10
137.5976594198513
 20
122.1761262817162
 30
0.0
 10
137.3410134701247
 20
121.9656872089824
 30
0.0
 10
136.8804229167118
 20
121.505806220706
 30
0.0
 10
136.6732740307209
 20
121.2545244210132
 30
0.0
 10
136.3067427873075
 20
120.7076042472732
 30
0.0
 10
136.1520585998031
 20
120.418464095657
 30
0.0
 10
135.9019589464648
 20
119.8172274217377
 30
0.0
 10
135.8052721719718
 20
119.5012517280969
 30
0.0
 10
135.6760505970155
 20
118.8552779700003
 30
0.0
 10
135.6435256078967
 20
118.5283724142153
 30
0.0
 10
135.6435256078967
 20
117.8666044226272
 30
0.0
  0
LINE
  5
110
330
1F
100
AcDbEntity
  8
0
  6
HIDDEN
 62
     7
370
     0
100
AcDbLine
 10
133.6435256079
 20
149.3974884126
 30
0.0
 11
133.6435256079
 21
86.9974884184
 31
0.0
  0
SPLINE
  5
111
330
1F
100
AcDbEntity
  8
0
  6
HIDDEN
 62
     7
370
     0
100
AcDbSpline
210
0.0
220
0.0
230
1.0
 70
     8
 71
     3
 72
    10
 73
     6
 74
     0
 42
0.00000001
 43
0.00000001
 12
1.0
 22
0.0
 32
0.0
 13
1.0
 23
0.0
 33
0.0
 40
0.0
 40
0.0
 40
0.0
 40
0.0
 40
0.5
 40
0.5
 40
1.0
 40
1.0
 40
1.0
 40
1.0
 10
153.5535256078967
 20
91.39309279009191
 30
0.0
 10
153.5535256078967
 20
91.46332915046268
 30
0.0
 10
153.5452429958062
 20
91.53332325196017
 30
0.0
 10
153.5121430527476
 20
91.67028251651911
 30
0.0
 10
153.4878056607891
 20
91.73559042577438
 30
0.0
 10
153.4558508055645
 20
91.79748841842127
 30
0.0
  0
LINE
  5
112
330
1F
100
AcDbEntity
  8
0
  6
HIDDEN
 62
     7
370
     0
100
AcDbLine
 10
153.5535256079
 20
138.3333550499
 30
0.0
 11
153.5535256079
 21
145.3171422695
 31
0.0
  0
SPLINE
  5
113
330
1F
100
AcDbEntity
  8
0
  6
HIDDEN
 62
     7
370
     0
100
AcDbSpline
210
0.0
220
0.0
230
1.0
 70
    24
 71
     3
 72
    10
 73
     6
 74
     0
 42
0.00000001
 43
0.00000001
 12
1.0
 22
0.0
 32
0.0
 13
1.0
 23
0.0
 33
0.0
 40
0.0
 40
0.0
 40
0.0
 40
0.0
 40
0.5
 40
0.5
 40
1.0
 40
1.0
 40
1.0
 40
1.0
 10
153.5273779847366
 20
138.0474884184213
 30
0.0
 10
153.5360557596442
 20
138.0474884184213
 30
0.0
 10
153.5426087836511
 20
138.0474884184213
 30
0.0
 10
153.5513433931481
 20
138.0474884184213
 30
0.0
 10
153.5535256078967
 20
138.0474884184213
 30
0.0
 10
153.5535256078967
 20
138.0474884184213
 30
0.0
  0
LINE
  5
114
330
1F
100
AcDbEntity
  8
0
  6
HIDDEN
 62
     7
370
     0
100
AcDbLine
 10
153.5535256079
 20
91.3930927901
 30
0.0
 11
153.5535256079
 21
138.0474884184
 31
0.0
  0
SPLINE
  5
115
330
1F
100
AcDbEntity
  8
0
  6
HIDDEN
 62
     7
370
     0
100
AcDbSpline
210
0.0
220
0.0
230
1.0
 70
     8
 71
     3
 72
    10
 73
     6
 74
     0
 42
0.00000001
 43
0.00000001
 12
1.0
 22
0.0
 32
0.0
 13
1.0
 23
0.0
 33
0.0
 40
0.0
 40
0.0
 40
0.0
 40
0.0
 40
0.5
 40
0.5
 40
1.0
 40
1.0
 40
1.0
 40
1.0
 10
149.831200410229
 20
91.79748841842128
 30
0.0
 10
149.799045222607
 20
91.73520237290516
 30
0.0
 10
149.7743889914128
 20
91.66867194803598
 30
0.0
 10
149.7415762344872
 20
91.53181331767354
 30
0.0
 10
149.7335256078967
 20
91.46275572249522
 30
0.0
 10
149.7335256078967
 20
91.39309279009191
 30
0.0
  0
SPLINE
  5
116
330
1F
100
AcDbEntity
  8
0
  6
HIDDEN
 62
     7
370
     0
100
AcDbSpline
210
0.0
220
0.0
230
1.0
 70
    24
 71
     3
 72
    10
 73
     6
 74
     0
 42
0.00000001
 43
0.00000001
 12
1.0
 22
0.0
 32
0.0
 13
1.0
 23
0.0
 33
0.0
 40
0.0
 40
0.0
 40
0.0
 40
0.0
 40
0.5
 40
0.5
 40
1.0
 40
1.0
 40
1.0
 40
1.0
 10
149.7335256078967
 20
138.0474884184213
 30
0.0
 10
149.7335256078967
 20
138.0474884184213
 30
0.0
 10
149.7357474663814
 20
138.0474884184213
 30
0.0
 10
149.744484138105
 20
138.0474884184213
 30
0.0
 10
149.7509956518993
 20
138.0474884184213
 30
0.0
 10
149.7596732310568
 20
138.0474884184213
 30
0.0
  0
LINE
  5
117
330
1F
100
AcDbEntity
  8
0
  6
HIDDEN
 62
     7
370
     0
100
AcDbLine
 10
149.7335256079
 20
138.3333550499
 30
0.0
 11
149.7335256079
 21
145.3171422695
 31
0.0
  0
LINE
  5
118
330
1F
100
AcDbEntity
  8
0
  6
HIDDEN
 62
     7
370
     0
100
AcDbLine
 10
149.7335256079
 20
91.3930927901
 30
0.0
 11
149.7335256079
 21
138.0474884184
 31
0.0
  0
LINE
  5
119
330
1F
100
AcDbEntity
  8
0
  6
HIDDEN
 62
     7
370
     0
100
AcDbLine
 10
133.6435256079
 20
92.8735644973
 30
0.0
 11
133.6435256079
 21
143.5214123395
 31
0.0
  0
LINE
  5
11A
330
1F
100
AcDbEntity
  8
0
  6
HIDDEN
 62
     7
370
     0
100
AcDbLine
 10
138.5935256079
 20
138.0474884184
 30
0.0
 11
145.8391459536
 21
138.0474884184
 31
0.0
  0
LINE
  5
11B
330
1F
100
AcDbEntity
  8
0
  6
HIDDEN
 62
     7
370
     0
100
AcDbLine
 10
131.6435256079
 20
142.4179192801
 30
0.0
 11
131.6435256079
 21
93.9770575567
 31
0.0
  0
SPLINE
  5
11C
330
1F
100
AcDbEntity
  8
0
  6
HIDDEN
 62
     7
370
     0
100
AcDbSpline
210
0.0
220
0.0
230
1.0
 70
     8
 71
     3
 72
    14
 73
    10
 74
     0
 42
0.00000001
 43
0.00000001
 12
1.0
 22
0.0
 32
0.0
 13
1.0
 23
0.0
 33
0.0
 40
0.0
 40
0.0
 40
0.0
 40
0.0
 40
0.4999999999999987
 40
0.4999999999999987
 40
0.749999999999998
 40
0.749999999999998
 40
0.874999999999999
 40
0.874999999999999
 40
1.0
 40
1.0
 40
1.0
 40
1.0
 10
102.8935256078967
 20
97.39085685989369
 30
0.0
 10
103.509602511652
 20
97.39658298012284
 30
0.0
 10
104.1237345077679
 20
97.40647334552486
 30
0.0
 10
105.0376311382814
 20
97.43710831319463
 30
0.0
 10
105.3410700658291
 20
97.4499017708326
 30
0.0
 10
105.7922066814666
 20
97.47782759879199
 30
0.0
 10
105.9419129310091
 20
97.48859721895175
 30
0.0
 10
106.2387540672571
 20
97.51572993455129
 30
0.0
 10
106.3861396197604
 20
97.5315469073785
 30
0.0
 10
106.5299237467747
 20
97.55520599625298
 30
0.0
  0
SPLINE
  5
11D
330
1F
100
AcDbEntity
  8
0
  6
HIDDEN
 62
     7
370
     0
100
AcDbSpline
210
0.0
220
0.0
230
1.0
 70
     8
 71
     3
 72
    10
 73
     6
 74
     0
 42
0.00000001
 43
0.00000001
 12
1.0
 22
0.0
 32
0.0
 13
1.0
 23
0.0
 33
0.0
 40
0.0
 40
0.0
 40
0.0
 40
0.0
 40
0.5
 40
0.5
 40
1.0
 40
1.0
 40
1.0
 40
1.0
 10
106.5299237467747
 20
97.55520599625301
 30
0.0
 10
107.157551402482
 20
97.6584795549886
 30
0.0
 10
107.8087521475135
 20
97.74730466674015
 30
0.0
 10
109.1174568515256
 20
97.90941237361048
 30
0.0
 10
109.7785012888168
 20
97.98271183789704
 30
0.0
 10
110.4435256078964
 20
98.05139965262472
 30
0.0
  0
SPLINE
  5
11E
330
1F
100
AcDbEntity
  8
0
  6
HIDDEN
 62
     7
370
     0
100
AcDbSpline
210
0.0
220
0.0
230
1.0
 70
     8
 71
     3
 72
    18
 73
    14
 74
     0
 42
0.00000001
 43
0.00000001
 12
1.0
 22
0.0
 32
0.0
 13
1.0
 23
0.0
 33
0.0
 40
0.0
 40
0.0
 40
0.0
 40
0.0
 40
0.062500000000001
 40
0.062500000000001
 40
0.125000000000002
 40
0.125000000000002
 40
0.2500000000000022
 40
0.2500000000000022
 40
0.5000000000000014
 40
0.5000000000000014
 40
0.7500000000000008
 40
0.7500000000000008
 40
1.0
 40
1.0
 40
1.0
 40
1.0
 10
110.4435256078966
 20
98.0513996526246
 30
0.0
 10
110.480097818247
 20
98.05517705615205
 30
0.0
 10
110.5187482916824
 20
98.05462002826893
 30
0.0
 10
110.5928397853963
 20
98.04456082310708
 30
0.0
 10
110.6281900791504
 20
98.0352069416825
 30
0.0
 10
110.7227843765398
 20
98.00082251524871
 30
0.0
 10
110.7729225496788
 20
97.9701107805859
 30
0.0
 10
110.90211582126
 20
97.87418147054787
 30
0.0
 10
110.9603959660011
 20
97.80566597643062
 30
0.0
 10
111.0605910624246
 20
97.669094026498
 30
0.0
 10
111.1006063138712
 20
97.6003291239951
 30
0.0
 10
111.169005734689
 20
97.46529369488741
 30
0.0
 10
111.197367458551
 20
97.39867566883426
 30
0.0
 10
111.2219213711569
 20
97.33311720113805
 30
0.0
  0
SPLINE
  5
11F
330
1F
100
AcDbEntity
  8
0
  6
HIDDEN
 62
     7
370
     0
100
AcDbSpline
210
0.0
220
0.0
230
1.0
 70
     8
 71
     3
 72
    14
 73
    10
 74
     0
 42
0.00000001
 43
0.00000001
 12
1.0
 22
0.0
 32
0.0
 13
1.0
 23
0.0
 33
0.0
 40
0.0
 40
0.0
 40
0.0
 40
0.0
 40
0.25
 40
0.25
 40
0.5
 40
0.5
 40
0.75
 40
0.75
 40
1.0
 40
1.0
 40
1.0
 40
1.0
 10
111.2219213711569
 20
97.33311720113805
 30
0.0
 10
111.2603577559779
 20
97.23049280342651
 30
0.0
 10
111.3291591493697
 20
97.13129637998695
 30
0.0
 10
111.4724451615287
 20
96.94040435066043
 30
0.0
 10
111.5476272166356
 20
96.84814708462753
 30
0.0
 10
111.6798145052858
 20
96.66853976281251
 30
0.0
 10
111.7373317007556
 20
96.58123020836817
 30
0.0
 10
111.8193764990479
 20
96.41129637485244
 30
0.0
 10
111.8435256078967
 20
96.32939403298127
 30
0.0
 10
111.8435256078967
 20
96.25234015914536
 30
0.0
  0
LINE
  5
120
330
1F
100
AcDbEntity
  8
0
  6
HIDDEN
 62
     7
370
     0
100
AcDbLine
 10
111.8435256079
 20
96.2523401591
 30
0.0
 11
111.8435256079
 21
94.9690415246
 31
0.0
  0
LINE
  5
121
330
1F
100
AcDbEntity
  8
0
  6
HIDDEN
 62
     7
370
     0
100
AcDbLine
 10
107.8435256079
 20
141.2255345106
 30
0.0
 11
107.8435256079
 21
140.0415960908
 31
0.0
  0
SPLINE
  5
122
330
1F
100
AcDbEntity
  8
0
  6
HIDDEN
 62
     7
370
     0
100
AcDbSpline
210
0.0
220
0.0
230
1.0
 70
     8
 71
     3
 72
    18
 73
    14
 74
     0
 42
0.00000001
 43
0.00000001
 12
1.0
 22
0.0
 32
0.0
 13
1.0
 23
0.0
 33
0.0
 40
0.0
 40
0.0
 40
0.0
 40
0.0
 40
0.2499999999999999
 40
0.2499999999999999
 40
0.4999999999999999
 40
0.4999999999999999
 40
0.7499999999999998
 40
0.7499999999999998
 40
0.8750000000000003
 40
0.8750000000000003
 40
0.9375000000000002
 40
0.9375000000000002
 40
1.0
 40
1.0
 40
1.0
 40
1.0
 10
107.8435256078967
 20
140.0415960907843
 30
0.0
 10
107.8435256078967
 20
139.958389181927
 30
0.0
 10
107.8076765079584
 20
139.8696525266135
 30
0.0
 10
107.6828047719245
 20
139.6875273360533
 30
0.0
 10
107.5924043542767
 20
139.5923972874266
 30
0.0
 10
107.3701616995345
 20
139.4032157783023
 30
0.0
 10
107.2403969130887
 20
139.3082706102076
 30
0.0
 10
106.9997594557772
 20
139.1699919026277
 30
0.0
 10
106.9119921576397
 20
139.1242814693253
 30
0.0
 10
106.7574680704329
 20
139.0664581641038
 30
0.0
 10
106.7008571843782
 20
139.0487434000659
 30
0.0
 10
106.5768131534716
 20
139.024204096833
 30
0.0
 10
106.5090984784533
 20
139.0182249582948
 30
0.0
 10
106.4435256078967
 20
139.020575810249
 30
0.0
  0
SPLINE
  5
123
330
1F
100
AcDbEntity
  8
0
  6
HIDDEN
 62
     7
370
     0
100
AcDbSpline
210
0.0
220
0.0
230
1.0
 70
     8
 71
     3
 72
    10
 73
     6
 74
     0
 42
0.00000001
 43
0.00000001
 12
1.0
 22
0.0
 32
0.0
 13
1.0
 23
0.0
 33
0.0
 40
0.0
 40
0.0
 40
0.0
 40
0.0
 40
0.5
 40
0.5
 40
1.0
 40
1.0
 40
1.0
 40
1.0
 10
106.4435256078967
 20
139.020575810249
 30
0.0
 10
105.8559400608061
 20
139.0416413304854
 30
0.0
 10
105.2651936673457
 20
139.0523998163576
 30
0.0
 10
104.0811745020469
 20
139.0657645968933
 30
0.0
 10
103.4877605138414
 20
139.0679072395579
 30
0.0
 10
102.8935256078967
 20
139.0674261838163
 30
0.0
  0
SPLINE
  5
124
330
1F
100
AcDbEntity
  8
0
  6
HIDDEN
 62
     7
370
     0
100
AcDbSpline
210
0.0
220
0.0
230
1.0
 70
     8
 71
     3
 72
     8
 73
     4
 74
     0
 42
0.00000001
 43
0.00000001
 12
1.0
 22
0.0
 32
0.0
 13
1.0
 23
0.0
 33
0.0
 40
0.0000003292049693
 40
0.0000003292049693
 40
0.0000003292049693
 40
0.0000003292049693
 40
0.000016905094931
 40
0.000016905094931
 40
0.000016905094931
 40
0.000016905094931
 10
102.8935256078966
 20
139.0674261838163
 30
0.0
 10
102.8901690257599
 20
139.0655141897195
 30
0.0
 10
102.8868206616343
 20
139.0635988994644
 30
0.0
 10
102.8834806774653
 20
139.061680290849
 30
0.0
  0
SPLINE
  5
125
330
1F
100
AcDbEntity
  8
0
  6
HIDDEN
 62
     7
370
     0
100
AcDbSpline
210
0.0
220
0.0
230
1.0
 70
     8
 71
     3
 72
     8
 73
     4
 74
     0
 42
0.00000001
 43
0.00000001
 12
1.0
 22
0.0
 32
0.0
 13
1.0
 23
0.0
 33
0.0
 40
0.0000003682006999
 40
0.0000003682006999
 40
0.0000003682006999
 40
0.0000003682006999
 40
0.0000187826246626
 40
0.0000187826246626
 40
0.0000187826246626
 40
0.0000187826246626
 10
102.8834806774785
 20
97.39760126435226
 30
0.0
 10
102.8868150729059
 20
97.39534850649844
 30
0.0
 10
102.890163487015
 20
97.3931003783679
 30
0.0
 10
102.8935256078966
 20
97.39085685989369
 30
0.0
  0
SPLINE
  5
126
330
1F
100
AcDbEntity
  8
0
  6
HIDDEN
 62
     7
370
     0
100
AcDbSpline
210
0.0
220
0.0
230
1.0
 70
     8
 71
     3
 72
    10
 73
     6
 74
     0
 42
0.00000001
 43
0.00000001
 12
1.0
 22
0.0
 32
0.0
 13
1.0
 23
0.0
 33
0.0
 40
0.0
 40
0.0
 40
0.0
 40
0.0
 40
0.2949159523317605
 40
0.500763917079738
 40
1.0
 40
1.0
 40
1.0
 40
1.0
 10
121.6386758124683
 20
94.67288879559948
 30
0.0
 10
121.4657435993809
 20
94.65514158283382
 30
0.0
 10
121.1721066776403
 20
94.62500701835364
 30
0.0
 10
120.49735754557
 20
94.55692495960189
 30
0.0
 10
120.4484532360708
 20
94.54710349906576
 30
0.0
 10
120.4138264479694
 20
94.5401493955049
 30
0.0
  0
SPLINE
  5
127
330
1F
100
AcDbEntity
  8
0
  6
HIDDEN
 62
     7
370
     0
100
AcDbSpline
210
0.0
220
0.0
230
1.0
 70
     8
 71
     3
 72
    16
 73
    12
 74
     0
 42
0.00000001
 43
0.00000001
 12
1.0
 22
0.0
 32
0.0
 13
1.0
 23
0.0
 33
0.0
 40
0.0
 40
0.0
 40
0.0
 40
0.0
 40
0.0014619398999441
 40
0.1695060946944867
 40
0.3368148262131686
 40
0.5027784258718647
 40
0.5863380399920289
 40
0.6685202984823473
 40
0.7507638349534447
 40
0.8341946041745462
 40
1.0
 40
1.0
 40
1.0
 40
1.0
 10
128.8251619757898
 20
94.11874338894822
 30
0.0
 10
128.8260920805045
 20
94.11853513553525
 30
0.0
 10
128.9339340087834
 20
94.09438898374042
 30
0.0
 10
128.5459202759869
 20
94.1829358392861
 30
0.0
 10
127.6841296473079
 20
94.36653919705091
 30
0.0
 10
126.4938239808296
 20
94.55476911753134
 30
0.0
 10
125.4424237102476
 20
94.66617409752944
 30
0.0
 10
124.6163947543945
 20
94.72380971276581
 30
0.0
 10
123.792606809991
 20
94.75029547101872
 30
0.0
 10
122.7224513382728
 20
94.74555588410577
 30
0.0
 10
122.0716344531992
 20
94.70191864829171
 30
0.0
 10
121.6386758124683
 20
94.67288879559948
 30
0.0
  0
SPLINE
  5
128
330
1F
100
AcDbEntity
  8
0
  6
HIDDEN
 62
     7
370
     0
100
AcDbSpline
210
0.0
220
0.0
230
1.0
 70
     8
 71
     3
 72
    16
 73
    12
 74
     0
 42
0.00000001
 43
0.00000001
 12
1.0
 22
0.0
 32
0.0
 13
1.0
 23
0.0
 33
0.0
 40
0.0
 40
0.0
 40
0.0
 40
0.0
 40
0.1658979086808742
 40
0.249360819822282
 40
0.3317589050038946
 40
0.4138911421869726
 40
0.4976181669650959
 40
0.6634955966468967
 40
0.8305394509979775
 40
0.9983760749348634
 40
1.0
 40
1.0
 40
1.0
 40
1.0
 10
121.6385830921864
 20
141.722071448403
 30
0.0
 10
122.0721515043823
 20
141.693118635116
 30
0.0
 10
122.7238473308932
 20
141.6495997184832
 30
0.0
 10
123.794813234778
 20
141.6448600892805
 30
0.0
 10
124.6190362740134
 20
141.6712618440446
 30
0.0
 10
125.4460544899895
 20
141.7289554070021
 30
0.0
 10
126.4971716728255
 20
141.8406143040296
 30
0.0
 10
127.6858835250113
 20
142.0288131788028
 30
0.0
 10
128.5466216126851
 20
142.2120726799139
 30
0.0
 10
128.9346262057613
 20
142.3005961458018
 30
0.0
 10
128.8259843156413
 20
142.2764001355111
 30
0.0
 10
128.8249432102659
 20
142.2761682673399
 30
0.0
  0
SPLINE
  5
129
330
1F
100
AcDbEntity
  8
0
  6
HIDDEN
 62
     7
370
     0
100
AcDbSpline
210
0.0
220
0.0
230
1.0
 70
     8
 71
     3
 72
    10
 73
     6
 74
     0
 42
0.00000001
 43
0.00000001
 12
1.0
 22
0.0
 32
0.0
 13
1.0
 23
0.0
 33
0.0
 40
0.0
 40
0.0
 40
0.0
 40
0.0
 40
0.4995493564858557
 40
0.5744878148481728
 40
1.0
 40
1.0
 40
1.0
 40
1.0
 10
120.413122356401
 20
141.8548950155188
 30
0.0
 10
120.4334170724593
 20
141.8491027652055
 30
0.0
 10
120.4567562419124
 20
141.842441607139
 30
0.0
 10
121.0889348804104
 20
141.7782950340646
 30
0.0
 10
121.3860005862617
 20
141.7479081451378
 30
0.0
 10
121.6385830921864
 20
141.722071448403
 30
0.0
  0
LINE
  5
12A
330
1F
100
AcDbEntity
  8
0
  6
HIDDEN
 62
     7
370
     0
100
AcDbLine
 10
159.5935256079
 20
95.1974884184
 30
0.0
 11
159.5935256079
 21
141.164890419
 31
0.0
  0
SPLINE
  5
12B
330
1F
100
AcDbEntity
  8
0
  6
HIDDEN
 62
     7
370
     0
100
AcDbSpline
210
0.0
220
0.0
230
1.0
 70
    11
 71
     3
 72
    56
 73
    52
 74
     0
 42
0.00000001
 43
0.00000001
 12
1.0
 22
0.0
 32
0.0
 13
1.0
 23
0.0
 33
0.0
 40
0.0
 40
0.0
 40
0.0
 40
0.0
 40
0.0625000000000002
 40
0.0625000000000002
 40
0.0937500000000003
 40
0.0937500000000003
 40
0.1250000000000004
 40
0.1250000000000004
 40
0.1562500000000006
 40
0.1562500000000006
 40
0.1875000000000007
 40
0.1875000000000007
 40
0.2187500000000008
 40
0.2187500000000008
 40
0.2500000000000009
 40
0.2500000000000009
 40
0.3125000000000011
 40
0.3125000000000011
 40
0.3437500000000011
 40
0.3437500000000011
 40
0.3750000000000011
 40
0.3750000000000011
 40
0.4062500000000011
 40
0.4062500000000011
 40
0.4375000000000011
 40
0.4375000000000011
 40
0.4687500000000011
 40
0.4687500000000011
 40
0.5000000000000011
 40
0.5000000000000011
 40
0.5625000000000012
 40
0.5625000000000012
 40
0.6250000000000013
 40
0.6250000000000013
 40
0.6875000000000013
 40
0.6875000000000013
 40
0.7187500000000013
 40
0.7187500000000013
 40
0.7500000000000013
 40
0.7500000000000013
 40
0.7812500000000013
 40
0.7812500000000013
 40
0.8125000000000013
 40
0.8125000000000013
 40
0.875000000000001
 40
0.875000000000001
 40
0.9375000000000004
 40
0.9375000000000004
 40
0.9687500000000002
 40
0.9687500000000002
 40
1.0
 40
1.0
 40
1.0
 40
1.0
 10
127.3985276094983
 20
98.3599599426048
 30
0.0
 10
127.1427402989505
 20
98.39548324649834
 30
0.0
 10
126.8525504920072
 20
98.43102711546659
 30
0.0
 10
126.3658973937165
 20
98.47749881537547
 30
0.0
 10
126.1955515515553
 20
98.49174472860697
 30
0.0
 10
125.8485781414642
 20
98.51603264280537
 30
0.0
 10
125.6706402442295
 20
98.52620898912743
 30
0.0
 10
125.3057209666697
 20
98.5418843167313
 30
0.0
 10
125.1173863745744
 20
98.5473712779442
 30
0.0
 10
124.7434995221189
 20
98.55283127221992
 30
0.0
 10
124.556809307949
 20
98.55288949547908
 30
0.0
 10
124.1839308170297
 20
98.54770535350228
 30
0.0
 10
123.9962265741074
 20
98.54238987503086
 30
0.0
 10
123.6293076745598
 20
98.52688749400757
 30
0.0
 10
123.4508579324953
 20
98.51678808624686
 30
0.0
 10
122.9300690291346
 20
98.48065624459295
 30
0.0
 10
122.5991853094636
 20
98.44822702357489
 30
0.0
 10
122.1626837511321
 20
98.3967005322078
 30
0.0
 10
122.0258982120795
 20
98.3789759211638
 30
0.0
 10
121.7701736026257
 20
98.34358159465451
 30
0.0
 10
121.6525498745201
 20
98.32608507327392
 30
0.0
 10
121.4424804213315
 20
98.29338267728541
 30
0.0
 10
121.3491455826464
 20
98.27805086833935
 30
0.0
 10
121.1861998719673
 20
98.25045470899055
 30
0.0
 10
121.1164969091175
 20
98.23816802587693
 30
0.0
 10
121.0058738427853
 20
98.21832303409047
 30
0.0
 10
120.9641921711749
 20
98.21063692156379
 30
0.0
 10
120.9080170307997
 20
98.20021954118654
 30
0.0
 10
120.8935787550391
 20
98.19749838351008
 30
0.0
 10
120.8934197599365
 20
98.19746857192949
 30
0.0
 10
120.9490790976733
 20
98.20813070207745
 30
0.0
 10
121.1719038582077
 20
98.24811137381245
 30
0.0
 10
121.3338161438013
 20
98.27644762544476
 30
0.0
 10
121.7576077025371
 20
98.34245853440481
 30
0.0
 10
122.0124541250844
 20
98.37891840719602
 30
0.0
 10
122.4510977851981
 20
98.43076993018238
 30
0.0
 10
122.6077953214776
 20
98.44765756424235
 30
0.0
 10
122.9309952712562
 20
98.4783509848633
 30
0.0
 10
123.0986687526764
 20
98.49231079180714
 30
0.0
 10
123.4462536188651
 20
98.51651022095832
 30
0.0
 10
123.6278170996841
 20
98.52680716978912
 30
0.0
 10
123.994003374493
 20
98.54231311665104
 30
0.0
 10
124.1786607903353
 20
98.54757909854803
 30
0.0
 10
124.7372571968937
 20
98.55550192180354
 30
0.0
 10
125.1195915383642
 20
98.5497877984299
 30
0.0
 10
125.8468886827326
 20
98.51872871226763
 30
0.0
 10
126.2025827568326
 20
98.49304007621768
 30
0.0
 10
126.6858950337836
 20
98.44696806600959
 30
0.0
 10
126.8395926410001
 20
98.43036590759328
 30
0.0
 10
127.1320148658432
 20
98.39574605237898
 30
0.0
 10
127.2706300890484
 20
98.3777221313406
 30
0.0
 10
127.3985276094983
 20
98.3599599426048
 30
0.0
  0
SPLINE
  5
12C
330
1F
100
AcDbEntity
  8
0
  6
HIDDEN
 62
     7
370
     0
100
AcDbSpline
210
0.0
220
0.0
230
1.0
 70
    11
 71
     3
 72
    56
 73
    52
 74
     0
 42
0.00000001
 43
0.00000001
 12
1.0
 22
0.0
 32
0.0
 13
1.0
 23
0.0
 33
0.0
 40
0.0
 40
0.0
 40
0.0
 40
0.0
 40
0.0624999999999999
 40
0.0624999999999999
 40
0.0937499999999998
 40
0.0937499999999998
 40
0.1249999999999997
 40
0.1249999999999997
 40
0.1562499999999996
 40
0.1562499999999996
 40
0.1874999999999995
 40
0.1874999999999995
 40
0.2187499999999994
 40
0.2187499999999994
 40
0.2499999999999993
 40
0.2499999999999993
 40
0.3124999999999993
 40
0.3124999999999993
 40
0.3437499999999993
 40
0.3437499999999993
 40
0.3749999999999994
 40
0.3749999999999994
 40
0.4062499999999995
 40
0.4062499999999995
 40
0.4374999999999996
 40
0.4374999999999996
 40
0.4687499999999997
 40
0.4687499999999997
 40
0.4999999999999998
 40
0.4999999999999998
 40
0.5625
 40
0.5625
 40
0.6250000000000002
 40
0.6250000000000002
 40
0.6875000000000004
 40
0.6875000000000004
 40
0.7187500000000006
 40
0.7187500000000006
 40
0.7500000000000006
 40
0.7500000000000006
 40
0.7812500000000007
 40
0.7812500000000007
 40
0.8125000000000008
 40
0.8125000000000008
 40
0.8750000000000007
 40
0.8750000000000007
 40
0.9375000000000002
 40
0.9375000000000002
 40
0.96875
 40
0.96875
 40
1.0
 40
1.0
 40
1.0
 40
1.0
 10
127.3985276094983
 20
138.0350168942377
 30
0.0
 10
127.1427402989505
 20
137.9994935903442
 30
0.0
 10
126.8525504920072
 20
137.9639497213759
 30
0.0
 10
126.3658973937165
 20
137.917478021467
 30
0.0
 10
126.1955515515553
 20
137.9032321082356
 30
0.0
 10
125.8485781414642
 20
137.8789441940372
 30
0.0
 10
125.6706402442295
 20
137.8687678477151
 30
0.0
 10
125.3057209666697
 20
137.8530925201112
 30
0.0
 10
125.1173863745744
 20
137.8476055588984
 30
0.0
 10
124.7434995221189
 20
137.8421455646226
 30
0.0
 10
124.556809307949
 20
137.8420873413635
 30
0.0
 10
124.1839308170297
 20
137.8472714833403
 30
0.0
 10
123.9962265741074
 20
137.8525869618117
 30
0.0
 10
123.6293076745598
 20
137.868089342835
 30
0.0
 10
123.4508579324953
 20
137.8781887505957
 30
0.0
 10
122.9300690291346
 20
137.9143205922496
 30
0.0
 10
122.5991853094636
 20
137.9467498132676
 30
0.0
 10
122.1626837511321
 20
137.9982763046347
 30
0.0
 10
122.0258982120795
 20
138.0160009156787
 30
0.0
 10
121.7701736026257
 20
138.051395242188
 30
0.0
 10
121.6525498745201
 20
138.0688917635686
 30
0.0
 10
121.4424804213315
 20
138.1015941595571
 30
0.0
 10
121.3491455826464
 20
138.1169259685032
 30
0.0
 10
121.1861998719673
 20
138.144522127852
 30
0.0
 10
121.1164969091175
 20
138.1568088109656
 30
0.0
 10
121.0058738427853
 20
138.176653802752
 30
0.0
 10
120.9641921711749
 20
138.1843399152787
 30
0.0
 10
120.9080170307997
 20
138.194757295656
 30
0.0
 10
120.8935787550391
 20
138.1974784533325
 30
0.0
 10
120.8934197599365
 20
138.197508264913
 30
0.0
 10
120.9490790976733
 20
138.1868461347651
 30
0.0
 10
121.1719038582077
 20
138.1468654630301
 30
0.0
 10
121.3338161438013
 20
138.1185292113978
 30
0.0
 10
121.7576077025371
 20
138.0525183024377
 30
0.0
 10
122.0124541250844
 20
138.0160584296465
 30
0.0
 10
122.4510977851981
 20
137.9642069066601
 30
0.0
 10
122.6077953214776
 20
137.9473192726002
 30
0.0
 10
122.9309952712562
 20
137.9166258519792
 30
0.0
 10
123.0986687526764
 20
137.9026660450354
 30
0.0
 10
123.4462536188651
 20
137.8784666158842
 30
0.0
 10
123.6278170996841
 20
137.8681696670534
 30
0.0
 10
123.994003374493
 20
137.8526637201915
 30
0.0
 10
124.1786607903353
 20
137.8473977382945
 30
0.0
 10
124.7372571968937
 20
137.839474915039
 30
0.0
 10
125.1195915383642
 20
137.8451890384126
 30
0.0
 10
125.8468886827326
 20
137.8762481245749
 30
0.0
 10
126.2025827568326
 20
137.9019367606248
 30
0.0
 10
126.6858950337836
 20
137.9480087708329
 30
0.0
 10
126.8395926410001
 20
137.9646109292493
 30
0.0
 10
127.1320148658432
 20
137.9992307844635
 30
0.0
 10
127.2706300890484
 20
138.0172547055019
 30
0.0
 10
127.3985276094983
 20
138.0350168942377
 30
0.0
  0
SPLINE
  5
12D
330
1F
100
AcDbEntity
  8
0
  6
HIDDEN
 62
     7
370
     0
100
AcDbSpline
210
0.0
220
0.0
230
1.0
 70
    11
 71
     3
 72
    22
 73
    18
 74
     0
 42
0.00000001
 43
0.00000001
 12
1.0
 22
0.0
 32
0.0
 13
1.0
 23
0.0
 33
0.0
 40
0.0
 40
0.0
 40
0.0
 40
0.0
 40
0.125
 40
0.125
 40
0.2499999999999999
 40
0.2499999999999999
 40
0.3749999999999999
 40
0.3749999999999999
 40
0.5
 40
0.5
 40
0.625
 40
0.625
 40
0.75
 40
0.75
 40
0.8750000000000001
 40
0.8750000000000001
 40
1.0
 40
1.0
 40
1.0
 40
1.0
 10
127.3985276094983
 20
138.0350168942377
 30
0.0
 10
127.5574704384674
 20
138.0570906022848
 30
0.0
 10
127.6981619863577
 20
138.0737744202724
 30
0.0
 10
127.9441482238201
 20
138.0999961151547
 30
0.0
 10
128.0501863065014
 20
138.109575421
 30
0.0
 10
128.2206783470685
 20
138.1236546880791
 30
0.0
 10
128.2847310465322
 20
138.1281612643262
 30
0.0
 10
128.3712350976252
 20
138.1340254341641
 30
0.0
 10
128.3934685929853
 20
138.1353673666824
 30
0.0
 10
128.3935823989972
 20
138.1353745064319
 30
0.0
 10
128.372124470512
 20
138.1340818709457
 30
0.0
 10
128.286138677633
 20
138.1282604414355
 30
0.0
 10
128.2208245308835
 20
138.1236609721596
 30
0.0
 10
128.051818696948
 20
138.1097159513498
 30
0.0
 10
127.9478596590723
 20
138.1003635644914
 30
0.0
 10
127.7003492128334
 20
138.074035094025
 30
0.0
 10
127.5574651227496
 20
138.057089864047
 30
0.0
 10
127.3985276094986
 20
138.0350168942378
 30
0.0
  0
SPLINE
  5
12E
330
1F
100
AcDbEntity
  8
0
  6
HIDDEN
 62
     7
370
     0
100
AcDbSpline
210
0.0
220
0.0
230
1.0
 70
    11
 71
     3
 72
    22
 73
    18
 74
     0
 42
0.00000001
 43
0.00000001
 12
1.0
 22
0.0
 32
0.0
 13
1.0
 23
0.0
 33
0.0
 40
0.0
 40
0.0
 40
0.0
 40
0.0
 40
0.125
 40
0.125
 40
0.25
 40
0.25
 40
0.375
 40
0.375
 40
0.5
 40
0.5
 40
0.625
 40
0.625
 40
0.75
 40
0.75
 40
0.875
 40
0.875
 40
1.0
 40
1.0
 40
1.0
 40
1.0
 10
127.3985276094983
 20
98.3599599426048
 30
0.0
 10
127.5574704384674
 20
98.33788623455776
 30
0.0
 10
127.6981619863577
 20
98.32120241657013
 30
0.0
 10
127.9441482238201
 20
98.29498072168785
 30
0.0
 10
128.0501863065014
 20
98.28540141584253
 30
0.0
 10
128.2206783470685
 20
98.27132214876339
 30
0.0
 10
128.2847310465322
 20
98.26681557251635
 30
0.0
 10
128.3712350976252
 20
98.26095140267843
 30
0.0
 10
128.3934685929853
 20
98.25960947016013
 30
0.0
 10
128.3935823989972
 20
98.25960233041063
 30
0.0
 10
128.372124470512
 20
98.26089496589685
 30
0.0
 10
128.286138677633
 20
98.26671639540706
 30
0.0
 10
128.2208245308835
 20
98.2713158646829
 30
0.0
 10
128.051818696948
 20
98.28526088549275
 30
0.0
 10
127.9478596590723
 20
98.29461327235109
 30
0.0
 10
127.7003492128334
 20
98.3209417428175
 30
0.0
 10
127.5574651227496
 20
98.3378869727955
 30
0.0
 10
127.3985276094986
 20
98.35995994260472
 30
0.0
  0
LINE
  5
12F
330
1F
100
AcDbEntity
  8
0
  6
HIDDEN
 62
     7
370
     0
100
AcDbLine
 10
133.6435256079
 20
101.1974884184
 30
0.0
 11
133.6435256079
 21
135.165245007
 31
0.0
  0
LINE
  5
130
330
1F
100
AcDbEntity
  8
0
  6
HIDDEN
 62
     7
370
     0
100
AcDbLine
 10
247.6435256079
 20
98.1974884184
 30
0.0
 11
247.6435256079
 21
135.0420311146
 31
0.0
  0
SPLINE
  5
131
330
1F
100
AcDbEntity
  8
0
  6
HIDDEN
 62
     7
370
     0
100
AcDbSpline
210
0.0
220
0.0
230
1.0
 70
     8
 71
     3
 72
    68
 73
    64
 74
     0
 42
0.00000001
 43
0.00000001
 12
1.0
 22
0.0
 32
0.0
 13
1.0
 23
0.0
 33
0.0
 40
-0.0625000000000023
 40
-0.0625000000000023
 40
0.0
 40
0.0
 40
0.0312499999999998
 40
0.0312499999999998
 40
0.0624999999999996
 40
0.0624999999999996
 40
0.0937499999999995
 40
0.0937499999999995
 40
0.1249999999999994
 40
0.1249999999999994
 40
0.1562499999999992
 40
0.1562499999999992
 40
0.1874999999999991
 40
0.1874999999999991
 40
0.218749999999999
 40
0.218749999999999
 40
0.2499999999999988
 40
0.2499999999999988
 40
0.2812499999999987
 40
0.2812499999999987
 40
0.3124999999999986
 40
0.3124999999999986
 40
0.3437499999999984
 40
0.3437499999999984
 40
0.3749999999999983
 40
0.3749999999999983
 40
0.4062499999999982
 40
0.4062499999999982
 40
0.4374999999999981
 40
0.4374999999999981
 40
0.4687499999999979
 40
0.4687499999999979
 40
0.4999999999999978
 40
0.4999999999999978
 40
0.5312499999999977
 40
0.5312499999999977
 40
0.5624999999999977
 40
0.5624999999999977
 40
0.5937499999999976
 40
0.5937499999999976
 40
0.6249999999999974
 40
0.6249999999999974
 40
0.6562499999999974
 40
0.6562499999999974
 40
0.6874999999999974
 40
0.6874999999999974
 40
0.7187499999999974
 40
0.7187499999999974
 40
0.7499999999999974
 40
0.7499999999999974
 40
0.7812499999999976
 40
0.7812499999999976
 40
0.8124999999999976
 40
0.8124999999999976
 40
0.8437499999999976
 40
0.8437499999999976
 40
0.8749999999999977
 40
0.8749999999999977
 40
0.9062499999999977
 40
0.9062499999999977
 40
0.9374999999999977
 40
0.9374999999999977
 40
1.0
 40
1.0
 40
1.03125
 40
1.03125
 10
231.31285509522
 20
121.9517130127488
 30
0.0
 10
231.808860864235
 20
121.9517130127488
 30
0.0
 10
231.9714006066577
 20
121.9677959743737
 30
0.0
 10
232.291127816355
 20
122.030710398418
 30
0.0
 10
232.4499843929403
 20
122.078315950544
 30
0.0
 10
232.7526562911692
 20
122.2022186334741
 30
0.0
 10
232.8961841067654
 20
122.277927431922
 30
0.0
 10
233.1678158857127
 20
122.4563208076954
 30
0.0
 10
233.2963005180358
 20
122.5598522199306
 30
0.0
 10
233.5266572739962
 20
122.7852979393776
 30
0.0
 10
233.630084773959
 20
122.9080323060947
 30
0.0
 10
233.8128498505143
 20
123.1737576938454
 30
0.0
 10
233.8904162262358
 20
123.3146016051405
 30
0.0
 10
234.015151419232
 20
123.6050834958238
 30
0.0
 10
234.0632317625748
 20
123.7568729291679
 30
0.0
 10
234.1275152713861
 20
124.0662875878305
 30
0.0
 10
234.1434345989425
 20
124.2212771373179
 30
0.0
 10
234.1436158461288
 20
124.5317391329891
 30
0.0
 10
234.1273518168482
 20
124.6887997270751
 30
0.0
 10
234.0635115990491
 20
124.9914320918756
 30
0.0
 10
234.016278054462
 20
125.1379444802591
 30
0.0
 10
233.8909728882337
 20
125.4215158468316
 30
0.0
 10
233.8127651106085
 20
125.5578347554077
 30
0.0
 10
233.6319132281103
 20
125.8094845666683
 30
0.0
 10
233.5285410644505
 20
125.9265059985162
 30
0.0
 10
233.2954045285734
 20
126.1420075222785
 30
0.0
 10
233.169314491589
 20
126.2371331290864
 30
0.0
 10
232.8987723552659
 20
126.4034972391128
 30
0.0
 10
232.7525773946788
 20
126.4753110702118
 30
0.0
 10
232.449952045729
 20
126.59016957588
 30
0.0
 10
232.29412954718
 20
126.6334252688356
 30
0.0
 10
231.9734963749015
 20
126.6919655715499
 30
0.0
 10
231.8076911942935
 20
126.706939532114
 30
0.0
 10
231.4812373781837
 20
126.7070513348599
 30
0.0
 10
231.3188977758951
 20
126.6926729476926
 30
0.0
 10
230.9960357882405
 20
126.6342550243188
 30
0.0
 10
230.8382950778153
 20
126.5904797146248
 30
0.0
 10
230.5373427451429
 20
126.4765417698135
 30
0.0
 10
230.391823267203
 20
126.405479653861
 30
0.0
 10
230.1186200113123
 20
126.237870259617
 30
0.0
 10
229.9927893633811
 20
126.1427709852254
 30
0.0
 10
229.7621095398052
 20
125.9301199375454
 30
0.0
 10
229.6564920618662
 20
125.8111662925397
 30
0.0
 10
229.4749476745423
 20
125.5589554989967
 30
0.0
 10
229.3980292175488
 20
125.4252036179348
 30
0.0
 10
229.2722014224242
 20
125.1418845732659
 30
0.0
 10
229.2239411531384
 20
124.9927080372617
 30
0.0
 10
229.1600663843403
 20
124.6911594131626
 30
0.0
 10
229.1436762238745
 20
124.5372011105963
 30
0.0
 10
229.143377038914
 20
124.2227583561559
 30
0.0
 10
229.1594664078289
 20
124.0675328389042
 30
0.0
 10
229.2227818147434
 20
123.7609725636177
 30
0.0
 10
229.2707954822341
 20
123.6080172525754
 30
0.0
 10
229.3960510212441
 20
123.3156043437691
 30
0.0
 10
229.4727214688924
 20
123.1763725229886
 30
0.0
 10
229.6539312531072
 20
122.9119934244812
 30
0.0
 10
229.7592942991944
 20
122.7865242271682
 30
0.0
 10
229.9894759175088
 20
122.560951273822
 30
0.0
 10
230.1151412573845
 20
122.4593231833602
 30
0.0
 10
230.3882694918298
 20
122.2793273904677
 30
0.0
 10
230.5333892265498
 20
122.2027830758225
 30
0.0
 10
230.9843394768027
 20
122.0177255436363
 30
0.0
 10
231.31285509522
 20
121.9517130127488
 30
0.0
 10
231.808860864235
 20
121.9517130127488
 30
0.0
  0
LINE
  5
132
330
1F
100
AcDbEntity
  8
0
  6
HIDDEN
 62
     7
370
     0
100
AcDbLine
 10
153.5273779847
 20
138.0474884184
 30
0.0
 11
159.5935256079
 21
138.0474884184
 31
0.0
  0
LINE
  5
133
330
1F
100
AcDbEntity
  8
0
  6
HIDDEN
 62
     7
370
     0
100
AcDbLine
 10
145.8391459536
 20
138.0474884184
 30
0.0
 11
149.7596732311
 21
138.0474884184
 31
0.0
  0
LINE
  5
134
330
1F
100
AcDbEntity
  8
0
  6
HIDDEN
 62
     7
370
     0
100
AcDbLine
 10
114.6475002041
 20
135.1974884184
 30
0.0
 11
114.6475002041
 21
101.1974884184
 31
0.0
  0
LINE
  5
135
330
1F
100
AcDbEntity
  8
0
  6
HIDDEN
 62
     7
370
     0
100
AcDbLine
 10
101.7435256079
 20
101.9513957407
 30
0.0
 11
101.7435256079
 21
134.4435810961
 31
0.0
  0
LINE
  5
136
330
1F
100
AcDbEntity
  8
0
  6
HIDDEN
 62
     7
370
     0
100
AcDbLine
 10
141.3033515764
 20
135.1974884184
 30
0.0
 11
141.3033515764
 21
101.1974884184
 31
0.0
  0
LINE
  5
137
330
1F
100
AcDbEntity
  8
0
  6
HIDDEN
 62
     7
370
     0
100
AcDbLine
 10
143.5935256079
 20
133.9224883584
 30
0.0
 11
143.5935256079
 21
102.4724884184
 31
0.0
  0
LINE
  5
138
330
1F
100
AcDbEntity
  8
0
  6
HIDDEN
 62
     7
370
     0
100
AcDbLine
 10
102.8935256079
 20
102.3959979824
 30
0.0
 11
110.4435256079
 21
102.3959979824
 31
0.0
  0
LINE
  5
139
330
1F
100
AcDbEntity
  8
0
  6
HIDDEN
 62
     7
370
     0
100
AcDbLine
 10
102.8935256079
 20
133.9989788545
 30
0.0
 11
102.8935256079
 21
102.3959979824
 31
0.0
  0
LINE
  5
13A
330
1F
100
AcDbEntity
  8
0
  6
HIDDEN
 62
     7
370
     0
100
AcDbLine
 10
106.4435256079
 20
133.9989788545
 30
0.0
 11
102.8935256079
 21
133.9989788545
 31
0.0
  0
SPLINE
  5
13B
330
1F
100
AcDbEntity
  8
0
  6
HIDDEN
 62
     7
370
     0
100
AcDbSpline
210
0.0
220
0.0
230
1.0
 70
     8
 71
     3
 72
    18
 73
    14
 74
     0
 42
0.00000001
 43
0.00000001
 12
1.0
 22
0.0
 32
0.0
 13
1.0
 23
0.0
 33
0.0
 40
0.0
 40
0.0
 40
0.0
 40
0.0
 40
0.2500000000000022
 40
0.2500000000000022
 40
0.3750000000000025
 40
0.3750000000000025
 40
0.5000000000000028
 40
0.5000000000000028
 40
0.6250000000000031
 40
0.6250000000000031
 40
0.7500000000000033
 40
0.7500000000000033
 40
1.0
 40
1.0
 40
1.0
 40
1.0
 10
107.8435256078967
 20
134.4850020408254
 30
0.0
 10
107.8435256078967
 20
134.4305275202732
 30
0.0
 10
107.8086149165045
 20
134.3741464609207
 30
0.0
 10
107.7066056151715
 20
134.2900696200672
 30
0.0
 10
107.6649692604934
 20
134.2627359160763
 30
0.0
 10
107.5665634650046
 20
134.2097820004773
 30
0.0
 10
107.5090202533003
 20
134.1838946467601
 30
0.0
 10
107.3817220797274
 20
134.1361171019269
 30
0.0
 10
107.3121347749699
 20
134.114169183749
 30
0.0
 10
107.160700529815
 20
134.0747366188363
 30
0.0
 10
107.078016626721
 20
134.0571803696104
 30
0.0
 10
106.8219051646829
 20
134.0147416041899
 30
0.0
 10
106.633990160795
 20
133.998978854453
 30
0.0
 10
106.4435256078967
 20
133.998978854453
 30
0.0
  0
LINE
  5
13C
330
1F
100
AcDbEntity
  8
0
  6
HIDDEN
 62
     7
370
     0
100
AcDbLine
 10
107.8435256079
 20
134.4850020408
 30
0.0
 11
107.8435256079
 21
135.1974884184
 31
0.0
  0
SPLINE
  5
13D
330
1F
100
AcDbEntity
  8
0
  6
HIDDEN
 62
     7
370
     0
100
AcDbSpline
210
0.0
220
0.0
230
1.0
 70
     8
 71
     3
 72
    18
 73
    14
 74
     0
 42
0.00000001
 43
0.00000001
 12
1.0
 22
0.0
 32
0.0
 13
1.0
 23
0.0
 33
0.0
 40
0.0
 40
0.0
 40
0.0
 40
0.0
 40
0.2499999999999989
 40
0.2499999999999989
 40
0.3749999999999983
 40
0.3749999999999983
 40
0.4999999999999977
 40
0.4999999999999977
 40
0.624999999999997
 40
0.624999999999997
 40
0.7499999999999964
 40
0.7499999999999964
 40
1.0
 40
1.0
 40
1.0
 40
1.0
 10
107.8435256078967
 20
134.4850020408254
 30
0.0
 10
107.8435256078967
 20
134.4305275202732
 30
0.0
 10
107.8086149165045
 20
134.3741464609207
 30
0.0
 10
107.7066056151715
 20
134.2900696200672
 30
0.0
 10
107.6649692604934
 20
134.2627359160763
 30
0.0
 10
107.5665634650046
 20
134.2097820004773
 30
0.0
 10
107.5090202533003
 20
134.1838946467601
 30
0.0
 10
107.3817220797274
 20
134.1361171019269
 30
0.0
 10
107.3121347749699
 20
134.114169183749
 30
0.0
 10
107.160700529815
 20
134.0747366188363
 30
0.0
 10
107.078016626721
 20
134.0571803696104
 30
0.0
 10
106.8219051646829
 20
134.0147416041899
 30
0.0
 10
106.633990160795
 20
133.9989788544529
 30
0.0
 10
106.4435256078967
 20
133.998978854453
 30
0.0
  0
SPLINE
  5
13E
330
1F
100
AcDbEntity
  8
0
  6
HIDDEN
 62
     7
370
     0
100
AcDbSpline
210
0.0
220
0.0
230
1.0
 70
     8
 71
     3
 72
    16
 73
    12
 74
     0
 42
0.00000001
 43
0.00000001
 12
1.0
 22
0.0
 32
0.0
 13
1.0
 23
0.0
 33
0.0
 40
0.0
 40
0.0
 40
0.0
 40
0.0
 40
0.1250000000000017
 40
0.1250000000000017
 40
0.2500000000000033
 40
0.2500000000000033
 40
0.5000000000000022
 40
0.5000000000000022
 40
0.7500000000000011
 40
0.7500000000000011
 40
1.0
 40
1.0
 40
1.0
 40
1.0
 10
110.4435256078967
 20
102.3959979823896
 30
0.0
 10
110.5386473625625
 20
102.3959979823896
 30
0.0
 10
110.6319774312906
 20
102.3921821489968
 30
0.0
 10
110.8152391920286
 20
102.377411596267
 30
0.0
 10
110.9061169075856
 20
102.3662535482914
 30
0.0
 10
111.1629186051054
 20
102.3237822781497
 30
0.0
 10
111.3179859699773
 20
102.2827360809469
 30
0.0
 10
111.571732431532
 20
102.187589964365
 30
0.0
 10
111.6726028831998
 20
102.1328272302834
 30
0.0
 10
111.8078492978947
 20
102.0215661063796
 30
0.0
 10
111.8435256078967
 20
101.9643963690509
 30
0.0
 10
111.8435256078967
 20
101.9099747960171
 30
0.0
  0
LINE
  5
13F
330
1F
100
AcDbEntity
  8
0
  6
HIDDEN
 62
     7
370
     0
100
AcDbLine
 10
111.8435256079
 20
101.909974796
 30
0.0
 11
111.8435256079
 21
101.1974884184
 31
0.0
  0
SPLINE
  5
140
330
1F
100
AcDbEntity
  8
0
  6
HIDDEN
 62
     7
370
     0
100
AcDbSpline
210
0.0
220
0.0
230
1.0
 70
     8
 71
     3
 72
    16
 73
    12
 74
     0
 42
0.00000001
 43
0.00000001
 12
1.0
 22
0.0
 32
0.0
 13
1.0
 23
0.0
 33
0.0
 40
0.0
 40
0.0
 40
0.0
 40
0.0
 40
0.1250000000000017
 40
0.1250000000000017
 40
0.2500000000000033
 40
0.2500000000000033
 40
0.5000000000000022
 40
0.5000000000000022
 40
0.7500000000000011
 40
0.7500000000000011
 40
1.0
 40
1.0
 40
1.0
 40
1.0
 10
110.4435256078967
 20
102.3959979823896
 30
0.0
 10
110.5386473625625
 20
102.3959979823896
 30
0.0
 10
110.6319774312906
 20
102.3921821489968
 30
0.0
 10
110.8152391920286
 20
102.377411596267
 30
0.0
 10
110.9061169075856
 20
102.3662535482914
 30
0.0
 10
111.1629186051054
 20
102.3237822781497
 30
0.0
 10
111.3179859699773
 20
102.2827360809469
 30
0.0
 10
111.571732431532
 20
102.187589964365
 30
0.0
 10
111.6726028831998
 20
102.1328272302834
 30
0.0
 10
111.8078492978947
 20
102.0215661063796
 30
0.0
 10
111.8435256078967
 20
101.9643963690509
 30
0.0
 10
111.8435256078967
 20
101.9099747960171
 30
0.0
  0
LINE
  5
141
330
1F
100
AcDbEntity
  8
0
  6
HIDDEN
 62
     7
370
     0
100
AcDbLine
 10
102.8935256079
 20
102.3959979824
 30
0.0
 11
102.8935256079
 21
133.9989788545
 31
0.0
  0
LWPOLYLINE
  5
142
330
1F
100
AcDbEntity
  8
0
  6
HIDDEN
 62
     7
370
     0
100
AcDbPolyline
 90
       18
 70
   128
 43
0.0
 10
230.5665667708
 20
117.5846768028
 10
230.6570401708
 20
117.371998502
 10
230.5973297072
 20
116.9402451284
 10
230.3954996088
 20
116.3477273676
 10
230.0788081489
 20
115.6744680264
 10
229.690026264
 20
115.0113945096
 10
229.2816611019
 20
114.4480585697
 10
228.9088646406
 20
114.0605418471
 10
228.621985108
 20
113.9011806224
 10
228.4597671746
 20
113.991497512
 10
228.4441192711
 20
114.3192947196
 10
228.5771547337
 20
114.8403014159
 10
228.8409063859
 20
115.4841527595
 10
229.1997531056
 20
116.1638930588
 10
229.605230655
 20
116.7877196198
 10
230.002577044
 20
117.2713812087
 10
230.3381284411
 20
117.5495566479
 10
230.5665667708
 20
117.5846768028
  0
SPLINE
  5
143
330
1F
100
AcDbEntity
  8
0
  6
HIDDEN
 62
     7
370
     0
100
AcDbSpline
210
0.0
220
0.0
230
1.0
 70
     8
 71
     3
 72
    12
 73
     8
 74
     0
 42
0.00000001
 43
0.00000001
 12
1.0
 22
0.0
 32
0.0
 13
1.0
 23
0.0
 33
0.0
 40
0.0
 40
0.0
 40
0.0
 40
0.0
 40
0.4999999999999999
 40
0.4999999999999999
 40
0.7499999999999999
 40
0.7499999999999999
 40
1.0
 40
1.0
 40
1.0
 40
1.0
 10
231.4901433027026
 20
112.4974002305731
 30
0.0
 10
231.2048551055632
 20
112.62707378881
 30
0.0
 10
230.9199518245749
 20
112.7751076274391
 30
0.0
 10
230.4899118114876
 20
113.0350848634114
 30
0.0
 10
230.3469991949137
 20
113.1277560235343
 30
0.0
 10
230.0699887945374
 20
113.320790087552
 30
0.0
 10
229.934810985263
 20
113.4217824258086
 30
0.0
 10
229.8030987797445
 20
113.5274333522883
 30
0.0
  0
SPLINE
  5
144
330
1F
100
AcDbEntity
  8
0
  6
HIDDEN
 62
     7
370
     0
100
AcDbSpline
210
0.0
220
0.0
230
1.0
 70
     8
 71
     3
 72
    62
 73
    58
 74
     0
 42
0.00000001
 43
0.00000001
 12
1.0
 22
0.0
 32
0.0
 13
1.0
 23
0.0
 33
0.0
 40
0.0
 40
0.0
 40
0.0
 40
0.0
 40
0.0312500000000002
 40
0.0312500000000002
 40
0.0625000000000004
 40
0.0625000000000004
 40
0.125
 40
0.125
 40
0.1562499999999998
 40
0.1562499999999998
 40
0.1874999999999996
 40
0.1874999999999996
 40
0.2187499999999994
 40
0.2187499999999994
 40
0.2499999999999991
 40
0.2499999999999991
 40
0.2812499999999989
 40
0.2812499999999989
 40
0.3124999999999987
 40
0.3124999999999987
 40
0.3437499999999985
 40
0.3437499999999985
 40
0.3749999999999983
 40
0.3749999999999983
 40
0.4062499999999981
 40
0.4062499999999981
 40
0.4374999999999978
 40
0.4374999999999978
 40
0.4687499999999976
 40
0.4687499999999976
 40
0.4999999999999974
 40
0.4999999999999974
 40
0.5312499999999971
 40
0.5312499999999971
 40
0.5624999999999969
 40
0.5624999999999969
 40
0.6249999999999978
 40
0.6249999999999978
 40
0.6562499999999987
 40
0.6562499999999987
 40
0.6874999999999996
 40
0.6874999999999996
 40
0.7187500000000004
 40
0.7187500000000004
 40
0.7500000000000013
 40
0.7500000000000013
 40
0.781250000000002
 40
0.781250000000002
 40
0.8125000000000027
 40
0.8125000000000027
 40
0.8750000000000018
 40
0.8750000000000018
 40
0.9375000000000009
 40
0.9375000000000009
 40
0.9687500000000004
 40
0.9687500000000004
 40
1.0
 40
1.0
 40
1.0
 40
1.0
 10
229.8030987797447
 20
113.527433352288
 30
0.0
 10
229.7718483104675
 20
113.618656677241
 30
0.0
 10
229.7369903893534
 20
113.7189959913308
 30
0.0
 10
229.671731880161
 20
113.9323805305074
 30
0.0
 10
229.6410796421033
 20
114.0455741568206
 30
0.0
 10
229.5644242354677
 20
114.403393311067
 30
0.0
 10
229.5354028219709
 20
114.6550634405414
 30
0.0
 10
229.5505099484442
 20
115.052686480988
 30
0.0
 10
229.5653744257656
 20
115.1850955284656
 30
0.0
 10
229.6181896162524
 20
115.4477701583466
 30
0.0
 10
229.6569806158057
 20
115.5799122970287
 30
0.0
 10
229.7580428694095
 20
115.8285011561038
 30
0.0
 10
229.8201910258965
 20
115.9460948345609
 30
0.0
 10
229.9704566132422
 20
116.1664607952263
 30
0.0
 10
230.0563587279257
 20
116.2655391852059
 30
0.0
 10
230.2448740757974
 20
116.4379797554019
 30
0.0
 10
230.3489052212867
 20
116.5122447446705
 30
0.0
 10
230.5642146790262
 20
116.6314207429758
 30
0.0
 10
230.6777688846219
 20
116.6778405882454
 30
0.0
 10
230.9081530541869
 20
116.7445364980789
 30
0.0
 10
231.0243871200781
 20
116.7649830504025
 30
0.0
 10
231.2596414245731
 20
116.7839244344188
 30
0.0
 10
231.3795531453542
 20
116.7822268333545
 30
0.0
 10
231.6176514414331
 20
116.7588660611035
 30
0.0
 10
231.7360766919001
 20
116.7374068371719
 30
0.0
 10
231.9747812531162
 20
116.6764319470914
 30
0.0
 10
232.0959441795576
 20
116.6364758967758
 30
0.0
 10
232.338433778209
 20
116.5406893146767
 30
0.0
 10
232.4623822711883
 20
116.4837398257195
 30
0.0
 10
232.7024296246803
 20
116.3613669603385
 30
0.0
 10
232.8193159994718
 20
116.295751807252
 30
0.0
 10
233.0256606667285
 20
116.1683073319673
 30
0.0
 10
233.1160912000928
 20
116.1058665812204
 30
0.0
 10
233.2750431485462
 20
115.9802274727709
 30
0.0
 10
233.3450457061305
 20
115.9158034660527
 30
0.0
 10
233.5280863098913
 20
115.7156112845932
 30
0.0
 10
233.6180010200262
 20
115.5709799665134
 30
0.0
 10
233.7051058935993
 20
115.317807302183
 30
0.0
 10
233.7252393923443
 20
115.2291298189181
 30
0.0
 10
233.7459742263823
 20
115.0405616866054
 30
0.0
 10
233.7464426246693
 20
114.939473380352
 30
0.0
 10
233.7238290484096
 20
114.7286373321198
 30
0.0
 10
233.7010940551472
 20
114.6194876426469
 30
0.0
 10
233.6288424824853
 20
114.3915161471149
 30
0.0
 10
233.5801888873621
 20
114.2761696319881
 30
0.0
 10
233.4597444462667
 20
114.047869534255
 30
0.0
 10
233.386396234782
 20
113.9327537949218
 30
0.0
 10
233.2255105485075
 20
113.7170007756376
 30
0.0
 10
233.1361147525716
 20
113.6135059776285
 30
0.0
 10
232.857417872321
 20
113.3277491195729
 30
0.0
 10
232.6566357045987
 20
113.1683998259669
 30
0.0
 10
232.2709214081936
 20
112.909107858865
 30
0.0
 10
232.0803775375036
 20
112.8058870071654
 30
0.0
 10
231.8254085286137
 20
112.678719744114
 30
0.0
 10
231.7447804833811
 20
112.6405048516708
 30
0.0
 10
231.5999318026308
 20
112.5677199273184
 30
0.0
 10
231.5363759599703
 20
112.5337568808817
 30
0.0
 10
231.4901433027025
 20
112.4974002305731
 30
0.0
  0
ARC
  5
145
330
1F
100
AcDbEntity
  8
0
  6
HIDDEN
 62
     7
370
     0
100
AcDbCircle
 10
231.6180143466
 20
114.6034178193
 30
0.0
 40
2.109895989835428
100
AcDbArc
 50
210.6618570206
 51
266.5254383935
  0
SPLINE
  5
146
330
1F
100
AcDbEntity
  8
0
  6
HIDDEN
 62
     7
370
     0
100
AcDbSpline
210
0.0
220
0.0
230
1.0
 70
     8
 71
     3
 72
    62
 73
    58
 74
     0
 42
0.00000001
 43
0.00000001
 12
1.0
 22
0.0
 32
0.0
 13
1.0
 23
0.0
 33
0.0
 40
-0.0312500000000001
 40
-0.0312500000000001
 40
0.0
 40
0.0
 40
0.0312500000000002
 40
0.0312500000000002
 40
0.0625000000000003
 40
0.0625000000000003
 40
0.1249999999999979
 40
0.1249999999999979
 40
0.1874999999999954
 40
0.1874999999999954
 40
0.2187499999999948
 40
0.2187499999999948
 40
0.2499999999999941
 40
0.2499999999999941
 40
0.2812499999999935
 40
0.2812499999999935
 40
0.3124999999999929
 40
0.3124999999999929
 40
0.3437499999999923
 40
0.3437499999999923
 40
0.3749999999999917
 40
0.3749999999999917
 40
0.4374999999999904
 40
0.4374999999999904
 40
0.4687499999999912
 40
0.4687499999999912
 40
0.499999999999992
 40
0.499999999999992
 40
0.5312499999999927
 40
0.5312499999999927
 40
0.5624999999999934
 40
0.5624999999999934
 40
0.5937499999999941
 40
0.5937499999999941
 40
0.6249999999999949
 40
0.6249999999999949
 40
0.6562499999999956
 40
0.6562499999999956
 40
0.6874999999999963
 40
0.6874999999999963
 40
0.718749999999997
 40
0.718749999999997
 40
0.7499999999999978
 40
0.7499999999999978
 40
0.7812499999999984
 40
0.7812499999999984
 40
0.8124999999999992
 40
0.8124999999999992
 40
0.8749999999999994
 40
0.8749999999999994
 40
0.9062499999999996
 40
0.9062499999999996
 40
0.9374999999999998
 40
0.9374999999999998
 40
0.9687499999999999
 40
0.9687499999999999
 40
1.0
 40
1.0
 40
1.03125
 40
1.03125
 10
231.5022631906098
 20
115.0762801514162
 30
0.0
 10
231.7847880251836
 20
115.0762801514162
 30
0.0
 10
231.9231110562347
 20
115.0871453453311
 30
0.0
 10
232.1943390019269
 20
115.1296676710792
 30
0.0
 10
232.3285493680954
 20
115.1619144856939
 30
0.0
 10
232.7075288757997
 20
115.2873966232383
 30
0.0
 10
232.9364054362592
 20
115.4113494744784
 30
0.0
 10
233.3172982884105
 20
115.728375427429
 30
0.0
 10
233.4728963612775
 20
115.9250437339878
 30
0.0
 10
233.6320424067994
 20
116.2614562490835
 30
0.0
 10
233.6738077977497
 20
116.3831063329137
 30
0.0
 10
233.7291262115598
 20
116.6335947154522
 30
0.0
 10
233.7432320390303
 20
116.7625784149735
 30
0.0
 10
233.7438101970853
 20
117.0283971313637
 30
0.0
 10
233.7298191481423
 20
117.1649766825317
 30
0.0
 10
233.6753207192657
 20
117.431857405951
 30
0.0
 10
233.6344303803176
 20
117.5650413612331
 30
0.0
 10
233.5278223806412
 20
117.823138892545
 30
0.0
 10
233.4630748335625
 20
117.9463692498015
 30
0.0
 10
233.311513957935
 20
118.181417680452
 30
0.0
 10
233.2242273607955
 20
118.2933375916668
 30
0.0
 10
232.938613406349
 20
118.5985523210254
 30
0.0
 10
232.7092272112979
 20
118.7689798686949
 30
0.0
 10
232.3330085416446
 20
118.9450440322299
 30
0.0
 10
232.2005374865939
 20
118.9914391704798
 30
0.0
 10
231.926582510142
 20
119.0543391512874
 30
0.0
 10
231.7885418468397
 20
119.0702661468605
 30
0.0
 10
231.5103242748585
 20
119.0711501232223
 30
0.0
 10
231.3685149160939
 20
119.055488734313
 30
0.0
 10
231.0960583487628
 20
118.9942847768324
 30
0.0
 10
230.9641926176878
 20
118.9491205092135
 30
0.0
 10
230.7086761975671
 20
118.8308501574459
 30
0.0
 10
230.588689437927
 20
118.7594311627795
 30
0.0
 10
230.3635434406066
 20
118.5949682878847
 30
0.0
 10
230.2574166762229
 20
118.5007960649084
 30
0.0
 10
230.0660900285309
 20
118.2972978608852
 30
0.0
 10
229.9801536819975
 20
118.1877129279369
 30
0.0
 10
229.8276567207789
 20
117.9528951667912
 30
0.0
 10
229.7615116575506
 20
117.8276059378513
 30
0.0
 10
229.6552912223547
 20
117.5725175578495
 30
0.0
 10
229.6142506105261
 20
117.4413870889302
 30
0.0
 10
229.5580640225774
 20
117.171697762323
 30
0.0
 10
229.5438464510133
 20
117.0365184615978
 30
0.0
 10
229.5432155593276
 20
116.77177353006
 30
0.0
 10
229.5570039411274
 20
116.6396626605499
 30
0.0
 10
229.6118475128713
 20
116.3876078600498
 30
0.0
 10
229.6523486949261
 20
116.2681436355888
 30
0.0
 10
229.8119378936094
 20
115.9276749155474
 30
0.0
 10
229.9667057272884
 20
115.7312635601134
 30
0.0
 10
230.2546854411689
 20
115.4910456130725
 30
0.0
 10
230.3586343637219
 20
115.4209145986838
 30
0.0
 10
230.5830455616131
 20
115.2985235362832
 30
0.0
 10
230.7049761156616
 20
115.2459262582414
 30
0.0
 10
230.9572185691204
 20
115.1622719155177
 30
0.0
 10
231.0880957428096
 20
115.1306182640876
 30
0.0
 10
231.3603020911896
 20
115.0874956491609
 30
0.0
 10
231.5022631906098
 20
115.0762801514162
 30
0.0
 10
231.7847880251836
 20
115.0762801514162
 30
0.0
  0
LINE
  5
147
330
1F
100
AcDbEntity
  8
0
  6
HIDDEN
 62
     7
370
     0
100
AcDbLine
 10
102.8935256079
 20
100.2074884184
 30
0.0
 11
102.8935256079
 21
97.3849884184
 31
0.0
  0
LINE
  5
148
330
1F
100
AcDbEntity
  8
0
  6
HIDDEN
 62
     7
370
     0
100
AcDbLine
 10
111.8435256079
 20
100.2074884184
 30
0.0
 11
111.8435256079
 21
96.2523401591
 31
0.0
  0
LINE
  5
149
330
1F
100
AcDbEntity
  8
0
  6
HIDDEN
 62
     7
370
     0
100
AcDbLine
 10
101.7435256079
 20
100.2074884184
 30
0.0
 11
101.7435256079
 21
98.2383706564
 31
0.0
  0
LINE
  5
14A
330
1F
100
AcDbEntity
  8
0
  6
HIDDEN
 62
     7
370
     0
100
AcDbLine
 10
107.8435256079
 20
136.1874884184
 30
0.0
 11
107.8435256079
 21
140.0415960908
 31
0.0
  0
LINE
  5
14B
330
1F
100
AcDbEntity
  8
0
  6
HIDDEN
 62
     7
370
     0
100
AcDbLine
 10
102.8935256079
 20
136.1874884184
 30
0.0
 11
102.8935256079
 21
139.0674261838
 31
0.0
  0
LINE
  5
14C
330
1F
100
AcDbEntity
  8
0
  6
HIDDEN
 62
     7
370
     0
100
AcDbLine
 10
101.7435256079
 20
136.1874884184
 30
0.0
 11
101.7435256079
 21
138.1735489231
 31
0.0
  0
LINE
  5
14D
330
1F
100
AcDbEntity
  8
0
  6
HIDDEN
 62
     7
370
     0
100
AcDbLine
 10
152.9435256079
 20
127.6974884184
 30
0.0
 11
152.9435256079
 21
108.6974884184
 31
0.0
  0
LINE
  5
14E
330
1F
100
AcDbEntity
  8
0
  6
HIDDEN
 62
     7
370
     0
100
AcDbLine
 10
155.4435256079
 20
127.6974884184
 30
0.0
 11
155.4435256079
 21
108.6974884184
 31
0.0
  0
LINE
  5
14F
330
1F
100
AcDbEntity
  8
0
  6
HIDDEN
 62
     7
370
     0
100
AcDbLine
 10
144.0935256079
 20
126.6974884184
 30
0.0
 11
144.0935256079
 21
109.6974884184
 31
0.0
  0
LINE
  5
150
330
1F
100
AcDbEntity
  8
0
  6
HIDDEN
 62
     7
370
     0
100
AcDbLine
 10
143.5935256079
 20
109.1974884184
 30
0.0
 11
143.5935256079
 21
127.1650658153
 31
0.0
  0
LINE
  5
151
330
1F
100
AcDbEntity
  8
0
  6
HIDDEN
 62
     7
370
     0
100
AcDbLine
 10
159.5935256079
 20
91.7974884184
 30
0.0
 11
153.4558508056
 21
91.7974884184
 31
0.0
  0
LINE
  5
152
330
1F
100
AcDbEntity
  8
0
  6
HIDDEN
 62
     7
370
     0
100
AcDbLine
 10
153.5535256079
 20
90.6996512594
 30
0.0
 11
153.5535256079
 21
91.3930927901
 31
0.0
  0
LINE
  5
153
330
1F
100
AcDbEntity
  8
0
  6
HIDDEN
 62
     7
370
     0
100
AcDbLine
 10
159.5935256079
 20
91.7974884184
 30
0.0
 11
159.5935256079
 21
88.6372110178
 31
0.0
  0
LINE
  5
154
330
1F
100
AcDbEntity
  8
0
  6
HIDDEN
 62
     7
370
     0
100
AcDbLine
 10
138.5935256079
 20
86.7133654356
 30
0.0
 11
138.5935256079
 21
91.7974884184
 31
0.0
  0
LINE
  5
155
330
1F
100
AcDbEntity
  8
0
  6
HIDDEN
 62
     7
370
     0
100
AcDbLine
 10
146.5935256079
 20
91.7974884184
 30
0.0
 11
138.5935256079
 21
91.7974884184
 31
0.0
  0
LINE
  5
156
330
1F
100
AcDbEntity
  8
0
  6
HIDDEN
 62
     7
370
     0
100
AcDbLine
 10
149.8312004102
 20
91.7974884184
 30
0.0
 11
146.5935256079
 21
91.7974884184
 31
0.0
  0
LINE
  5
157
330
1F
100
AcDbEntity
  8
0
  6
HIDDEN
 62
     7
370
     0
100
AcDbLine
 10
149.7335256079
 20
91.3930927901
 30
0.0
 11
149.7335256079
 21
90.6996512594
 31
0.0
  0
LINE
  5
158
330
1F
100
AcDbEntity
  8
0
  6
HIDDEN
 62
     7
370
     0
100
AcDbLine
 10
152.9435256079
 20
109.6974884184
 30
0.0
 11
152.9435256079
 21
126.6974884184
 31
0.0
  0
LINE
  5
159
330
1F
100
AcDbEntity
  8
0
  6
HIDDEN
 62
     7
370
     0
100
AcDbLine
 10
159.5935256079
 20
144.5974884184
 30
0.0
 11
153.1592280762
 21
144.5974884184
 31
0.0
  0
LINE
  5
15A
330
1F
100
AcDbEntity
  8
0
  6
HIDDEN
 62
     7
370
     0
100
AcDbLine
 10
153.5535256079
 20
146.0027226096
 30
0.0
 11
153.5535256079
 21
145.3171422695
 31
0.0
  0
LINE
  5
15B
330
1F
100
AcDbEntity
  8
0
  6
HIDDEN
 62
     7
370
     0
100
AcDbLine
 10
159.5935256079
 20
144.5974884184
 30
0.0
 11
159.5935256079
 21
148.0439287422
 31
0.0
  0
LINE
  5
15C
330
1F
100
AcDbEntity
  8
0
  6
HIDDEN
 62
     7
370
     0
100
AcDbLine
 10
150.1278231396
 20
144.5974884184
 30
0.0
 11
146.5935256079
 21
144.5974884184
 31
0.0
  0
LINE
  5
15D
330
1F
100
AcDbEntity
  8
0
  6
HIDDEN
 62
     7
370
     0
100
AcDbLine
 10
149.7335256079
 20
145.3171422695
 30
0.0
 11
149.7335256079
 21
146.0027226096
 31
0.0
  0
LINE
  5
15E
330
1F
100
AcDbEntity
  8
0
  6
HIDDEN
 62
     7
370
     0
100
AcDbLine
 10
146.5935256079
 20
144.5974884184
 30
0.0
 11
138.5935256079
 21
144.5974884184
 31
0.0
  0
SPLINE
  5
15F
330
1F
100
AcDbEntity
  8
0
  6
HIDDEN
 62
     7
370
     0
100
AcDbSpline
210
0.0
220
0.0
230
1.0
 70
     8
 71
     3
 72
     8
 73
     4
 74
     0
 42
0.00000001
 43
0.00000001
 12
1.0
 22
0.0
 32
0.0
 13
1.0
 23
0.0
 33
0.0
 40
0.0000002432046719
 40
0.0000002432046719
 40
0.0000002432046719
 40
0.0000002432046719
 40
0.0014006019039539
 40
0.0014006019039539
 40
0.0014006019039539
 40
0.0014006019039539
 10
101.7435256078967
 20
101.9513957406932
 30
0.0
 10
102.1273851353756
 20
102.0977692524964
 30
0.0
 10
102.5107385353317
 20
102.2459264544138
 30
0.0
 10
102.8935256078967
 20
102.3959979823896
 30
0.0
  0
LINE
  5
160
330
1F
100
AcDbEntity
  8
0
  6
HIDDEN
 62
     7
370
     0
100
AcDbLine
 10
101.7435256079
 20
100.2074884184
 30
0.0
 11
101.7435256079
 21
101.9513957407
 31
0.0
  0
SPLINE
  5
161
330
1F
100
AcDbEntity
  8
0
  6
HIDDEN
 62
     7
370
     0
100
AcDbSpline
210
0.0
220
0.0
230
1.0
 70
     8
 71
     3
 72
     8
 73
     4
 74
     0
 42
0.00000001
 43
0.00000001
 12
1.0
 22
0.0
 32
0.0
 13
1.0
 23
0.0
 33
0.0
 40
0.0000002438860713
 40
0.0000002438860713
 40
0.0000002438860713
 40
0.0000002438860713
 40
0.0014006025853533
 40
0.0014006025853533
 40
0.0014006025853533
 40
0.0014006025853533
 10
102.8935256078967
 20
133.9989788544529
 30
0.0
 10
102.5107385353317
 20
134.1490503824287
 30
0.0
 10
102.1273851353756
 20
134.2972075843461
 30
0.0
 10
101.7435256078967
 20
134.4435810961494
 30
0.0
  0
LINE
  5
162
330
1F
100
AcDbEntity
  8
0
  6
HIDDEN
 62
     7
370
     0
100
AcDbLine
 10
101.7435256079
 20
136.1874884184
 30
0.0
 11
101.7435256079
 21
134.4435810961
 31
0.0
  0
LINE
  5
163
330
1F
100
AcDbEntity
  8
0
  6
HIDDEN
 62
     7
370
     0
100
AcDbLine
 10
102.8935256079
 20
100.2074884184
 30
0.0
 11
102.8935256079
 21
102.3959979824
 31
0.0
  0
LINE
  5
164
330
1F
100
AcDbEntity
  8
0
  6
HIDDEN
 62
     7
370
     0
100
AcDbLine
 10
111.8435256079
 20
100.2074884184
 30
0.0
 11
111.8435256079
 21
101.909974796
 31
0.0
  0
LINE
  5
165
330
1F
100
AcDbEntity
  8
0
  6
HIDDEN
 62
     7
370
     0
100
AcDbLine
 10
102.8935256079
 20
136.1874884184
 30
0.0
 11
102.8935256079
 21
133.9989788545
 31
0.0
  0
LINE
  5
166
330
1F
100
AcDbEntity
  8
0
  6
HIDDEN
 62
     7
370
     0
100
AcDbLine
 10
107.8435256079
 20
136.1874884184
 30
0.0
 11
107.8435256079
 21
134.4850020408
 31
0.0
  0
SPLINE
  5
167
330
1F
100
AcDbEntity
  8
0
  6
HIDDEN
 62
     7
370
     0
100
AcDbSpline
210
0.0
220
0.0
230
1.0
 70
    11
 71
     3
 72
    34
 73
    30
 74
     0
 42
0.00000001
 43
0.00000001
 12
1.0
 22
0.0
 32
0.0
 13
1.0
 23
0.0
 33
0.0
 40
0.0
 40
0.0
 40
0.0
 40
0.0
 40
0.0127738756313431
 40
0.0481305018861376
 40
0.0807425016924016
 40
0.1375890913626933
 40
0.1884518731192287
 40
0.2226712138150702
 40
0.2626938372949202
 40
0.2986558359810592
 40
0.3315197765429546
 40
0.3878459718944559
 40
0.3881259547070441
 40
0.4440926113325875
 40
0.4768435653244686
 40
0.5126448960710658
 40
0.5530084671478369
 40
0.5873855940016102
 40
0.638012100639598
 40
0.6949796268749333
 40
0.727553994550806
 40
0.7628079420081071
 40
0.8028703493977761
 40
0.8370831563378195
 40
0.8877749825785642
 40
0.8880089190148229
 40
0.9388397946263417
 40
0.9729712758707768
 40
1.0
 40
1.0
 40
1.0
 40
1.0
 10
121.8035375203852
 20
95.12982656188217
 30
0.0
 10
121.8627311729479
 20
95.1359154656857
 30
0.0
 10
122.0857660833027
 20
95.15885775856988
 30
0.0
 10
122.60911853008
 20
95.19550251037751
 30
0.0
 10
123.4818819885459
 20
95.22318654041146
 30
0.0
 10
124.5967199579876
 20
95.21263094356303
 30
0.0
 10
125.7097851042937
 20
95.09648591975905
 30
0.0
 10
126.6042272612795
 20
94.97489496077495
 30
0.0
 10
127.2880595999774
 20
94.85313705138316
 30
0.0
 10
127.8288188871666
 20
94.73677583580827
 30
0.0
 10
128.2422133596423
 20
94.64330325388629
 30
0.0
 10
128.4703755804239
 20
94.57666515255117
 30
0.0
 10
128.3159984748634
 20
94.61788557836282
 30
0.0
 10
128.2891204005773
 20
94.63036195203024
 30
0.0
 10
127.8331964575732
 20
94.73594341021646
 30
0.0
 10
127.3092632756205
 20
94.84869189130202
 30
0.0
 10
126.623056387376
 20
94.97178998624429
 30
0.0
 10
125.7299428230797
 20
95.09378137341443
 30
0.0
 10
124.6165065426396
 20
95.21153391410941
 30
0.0
 10
123.50575601635
 20
95.22350450186181
 30
0.0
 10
122.6210035012073
 20
95.19644695249548
 30
0.0
 10
121.9538095249554
 20
95.14851487862782
 30
0.0
 10
121.4125297017673
 20
95.09222068564098
 30
0.0
 10
121.0249766196388
 20
95.04714056261356
 30
0.0
 10
120.8309495223348
 20
95.00825792354051
 30
0.0
 10
120.9571768210778
 20
95.02966472383662
 30
0.0
 10
120.9863358565962
 20
95.03958603273932
 30
0.0
 10
121.3579165948121
 20
95.08721586172607
 30
0.0
 10
121.6669606832309
 20
95.11676695376623
 30
0.0
 10
121.8035375203852
 20
95.12982656188217
 30
0.0
  0
SPLINE
  5
168
330
1F
100
AcDbEntity
  8
0
  6
HIDDEN
 62
     7
370
     0
100
AcDbSpline
210
0.0
220
0.0
230
1.0
 70
     8
 71
     3
 72
    38
 73
    34
 74
     0
 42
0.00000001
 43
0.00000001
 12
1.0
 22
0.0
 32
0.0
 13
1.0
 23
0.0
 33
0.0
 40
-0.0939221400677788
 40
-0.065775259775378
 40
-0.0344739496007943
 40
0.0
 40
0.0323124298479835
 40
0.0609695982577461
 40
0.0859698687835549
 40
0.1073131755946561
 40
0.125001929016961
 40
0.1562358721977444
 40
0.1978507372990771
 40
0.2498168793248351
 40
0.2782629480307221
 40
0.3049884159832859
 40
0.330004216891384
 40
0.3533239044418167
 40
0.3749644360933808
 40
0.4060267838322919
 40
0.4476555976010197
 40
0.4998320869201296
 40
0.5286685248934814
 40
0.5555536435543464
 40
0.5805015705746596
 40
0.6035302879119624
 40
0.62466296934292
 40
0.6685312637103242
 40
0.7183269153555463
 40
0.7652375706113131
 40
0.7915712044406463
 40
0.8122937035710441
 40
0.8615656629637487
 40
0.9060778599322212
 40
0.934224740224622
 40
0.9655260503992057
 40
1.0
 40
1.032312429847984
 40
1.060969598257746
 40
1.085969868783555
 10
122.5837907720781
 20
141.2004924444487
 30
0.0
 10
121.9797225535687
 20
141.2450259496646
 30
0.0
 10
121.5044074907226
 20
141.2931013358976
 30
0.0
 10
121.1848086647227
 20
141.3292640751635
 30
0.0
 10
120.9978142590087
 20
141.3556542093519
 30
0.0
 10
120.9095085994563
 20
141.3717238191491
 30
0.0
 10
120.880095103587
 20
141.3795475043991
 30
0.0
 10
120.9522271736559
 20
141.3613800058153
 30
0.0
 10
121.2733391758504
 20
141.3167734258527
 30
0.0
 10
121.845366666065
 20
141.256034897182
 30
0.0
 10
122.4958990138212
 20
141.206690734162
 30
0.0
 10
123.0457751425626
 20
141.1843282736827
 30
0.0
 10
123.6012130083408
 20
141.1758460637782
 30
0.0
 10
124.1419885559773
 20
141.1822971499267
 30
0.0
 10
124.7399184507766
 20
141.2057755265284
 30
0.0
 10
125.4795843079435
 20
141.2726953973656
 30
0.0
 10
126.4116339412164
 20
141.3887968313008
 30
0.0
 10
127.2009706748899
 20
141.5241117158921
 30
0.0
 10
127.7399003627274
 20
141.6392235399593
 30
0.0
 10
128.0540047026233
 20
141.7089976165103
 30
0.0
 10
128.2592850709891
 20
141.7595577020062
 30
0.0
 10
128.37035505708
 20
141.7902358419129
 30
0.0
 10
128.416626558884
 20
141.8049628591691
 30
0.0
 10
128.2906616905377
 20
141.7671032655818
 30
0.0
 10
127.8204161616647
 20
141.6566174811556
 30
0.0
 10
127.167218198076
 20
141.5169132627795
 30
0.0
 10
126.56319924256
 20
141.4137866566342
 30
0.0
 10
125.8888611929217
 20
141.3143506308647
 30
0.0
 10
125.0035117099343
 20
141.2208802965892
 30
0.0
 10
124.034032819322
 20
141.1738717905165
 30
0.0
 10
123.245697242055
 20
141.177556005617
 30
0.0
 10
122.5837907720781
 20
141.2004924444487
 30
0.0
 10
121.9797225535687
 20
141.2450259496646
 30
0.0
 10
121.5044074907226
 20
141.2931013358976
 30
0.0
  0
LINE
  5
169
330
1F
100
AcDbEntity
  8
0
  6
HIDDEN
 62
     7
370
     0
100
AcDbLine
 10
234.6435256079
 20
122.3974884184
 30
0.0
 11
234.6435256079
 21
113.9974884184
 31
0.0
  0
SPLINE
  5
16A
330
1F
100
AcDbEntity
  8
0
  6
HIDDEN
 62
     7
370
     0
100
AcDbSpline
210
0.0
220
0.0
230
1.0
 70
     8
 71
     3
 72
    62
 73
    58
 74
     0
 42
0.00000001
 43
0.00000001
 12
1.0
 22
0.0
 32
0.0
 13
1.0
 23
0.0
 33
0.0
 40
-0.0312500000000022
 40
-0.0312500000000022
 40
0.0
 40
0.0
 40
0.0312499999999972
 40
0.0312499999999972
 40
0.0624999999999944
 40
0.0624999999999944
 40
0.1249999999999917
 40
0.1249999999999917
 40
0.1874999999999889
 40
0.1874999999999889
 40
0.2187499999999881
 40
0.2187499999999881
 40
0.2499999999999873
 40
0.2499999999999873
 40
0.2812499999999865
 40
0.2812499999999865
 40
0.3124999999999856
 40
0.3124999999999856
 40
0.3437499999999848
 40
0.3437499999999848
 40
0.374999999999984
 40
0.374999999999984
 40
0.4374999999999823
 40
0.4374999999999823
 40
0.4687499999999828
 40
0.4687499999999828
 40
0.4999999999999833
 40
0.4999999999999833
 40
0.5312499999999839
 40
0.5312499999999839
 40
0.5624999999999845
 40
0.5624999999999845
 40
0.593749999999985
 40
0.593749999999985
 40
0.6249999999999856
 40
0.6249999999999856
 40
0.6562499999999861
 40
0.6562499999999861
 40
0.6874999999999867
 40
0.6874999999999867
 40
0.7187499999999872
 40
0.7187499999999872
 40
0.7499999999999878
 40
0.7499999999999878
 40
0.7812499999999883
 40
0.7812499999999883
 40
0.8124999999999889
 40
0.8124999999999889
 40
0.8749999999999911
 40
0.8749999999999911
 40
0.9062499999999933
 40
0.9062499999999933
 40
0.9374999999999956
 40
0.9374999999999956
 40
0.9687499999999978
 40
0.9687499999999978
 40
1.0
 40
1.0
 40
1.031249999999997
 40
1.031249999999997
 10
231.7847880251836
 20
117.3242593169866
 30
0.0
 10
231.5022631906097
 20
117.3242593169866
 30
0.0
 10
231.3639401595587
 20
117.3402173415885
 30
0.0
 10
231.0927122138665
 20
117.4017509928948
 30
0.0
 10
230.9585018476981
 20
117.4481437231469
 30
0.0
 10
230.5795223399937
 20
117.6246190401954
 30
0.0
 10
230.3506457795341
 20
117.7946251092238
 30
0.0
 10
229.9697529273829
 20
118.2005435967927
 30
0.0
 10
229.8141548545158
 20
118.4406641151706
 30
0.0
 10
229.6550088089939
 20
118.8232802582731
 30
0.0
 10
229.6132434180437
 20
118.9575325512034
 30
0.0
 10
229.5579250042336
 20
119.2248565593825
 30
0.0
 10
229.543819176763
 20
119.3582304500986
 30
0.0
 10
229.5432410187082
 20
119.6242278268667
 30
0.0
 10
229.5572320676511
 20
119.7564528492903
 30
0.0
 10
229.6117304965277
 20
120.0067407693022
 30
0.0
 10
229.6526208354758
 20
120.1275722022334
 30
0.0
 10
229.7592288351522
 20
120.3546924972444
 30
0.0
 10
229.823976382231
 20
120.4595792109129
 30
0.0
 10
229.9755372578584
 20
120.6541341848622
 30
0.0
 10
230.0628238549979
 20
120.7438131159197
 30
0.0
 10
230.3484378094444
 20
120.9822878247887
 30
0.0
 10
230.5778240044955
 20
121.1065719707291
 30
0.0
 10
230.9540426741489
 20
121.2318041688525
 30
0.0
 10
231.0865137291995
 20
121.2640692563024
 30
0.0
 10
231.3604687056514
 20
121.3075460788391
 30
0.0
 10
231.4985093689537
 20
121.3183879098396
 30
0.0
 10
231.7767269409349
 20
121.3189926210836
 30
0.0
 10
231.9185362996995
 20
121.3083313037593
 30
0.0
 10
232.1909928670306
 20
121.2660449363845
 30
0.0
 10
232.3228585981057
 20
121.2346714575616
 30
0.0
 10
232.5783750182263
 20
121.1506098562601
 30
0.0
 10
232.6983617778665
 20
121.0990951452114
 30
0.0
 10
232.9235077751868
 20
120.9771558402908
 30
0.0
 10
233.0296345395706
 20
120.9058496709894
 30
0.0
 10
233.2209611872625
 20
120.7469630421509
 30
0.0
 10
233.3068975337959
 20
120.6592365393259
 30
0.0
 10
233.4593944950146
 20
120.4650834684373
 30
0.0
 10
233.5255395582429
 20
120.3585119496075
 30
0.0
 10
233.6317599934387
 20
120.1342574475109
 30
0.0
 10
233.6728006052673
 20
120.015508600133
 30
0.0
 10
233.728987193216
 20
119.7629155119286
 30
0.0
 10
233.7432047647801
 20
119.6321620685612
 30
0.0
 10
233.7438356564658
 20
119.3676120929001
 30
0.0
 10
233.730047274666
 20
119.2312084543619
 30
0.0
 10
233.6752037029221
 20
118.9624554257303
 30
0.0
 10
233.6347025208673
 20
118.8307559208937
 30
0.0
 10
233.475113322184
 20
118.4439080642308
 30
0.0
 10
233.320345488505
 20
118.204182061523
 30
0.0
 10
233.0323657746245
 20
117.8966970519038
 30
0.0
 10
232.9284168520715
 20
117.8041181599392
 30
0.0
 10
232.7040056541803
 20
117.6391687395839
 30
0.0
 10
232.5820751001319
 20
117.5662899459398
 30
0.0
 10
232.3298326466731
 20
117.4486524382972
 30
0.0
 10
232.1989554729838
 20
117.4031201835055
 30
0.0
 10
231.9267491246039
 20
117.3407304760347
 30
0.0
 10
231.7847880251836
 20
117.3242593169866
 30
0.0
 10
231.5022631906097
 20
117.3242593169866
 30
0.0
  0
LINE
  5
16B
330
1F
100
AcDbEntity
  8
0
  6
HIDDEN
 62
     7
370
     0
100
AcDbLine
 10
155.4435256079
 20
113.9974884184
 30
0.0
 11
155.4435256079
 21
122.3643701639
 31
0.0
  0
LINE
  5
16C
330
1F
100
AcDbEntity
  8
0
  6
HIDDEN
 62
     7
370
     0
100
AcDbLine
 10
271.7135821528
 20
104.0674234294
 30
0.0
 11
271.7121717106
 21
104.0835055859
 31
0.0
  0
LINE
  5
16D
330
1F
100
AcDbEntity
  8
0
  6
HIDDEN
 62
     7
370
     0
100
AcDbLine
 10
262.715730223
 20
104.8527158652
 30
0.0
 11
271.7135821528
 21
104.0674234294
 31
0.0
  0
LINE
  5
16E
330
1F
100
AcDbEntity
  8
0
  6
HIDDEN
 62
     7
370
     0
100
AcDbLine
 10
259.975931531
 20
102.1195911851
 30
0.0
 11
259.9356309728
 21
102.1365707143
 31
0.0
  0
LINE
  5
16F
330
1F
100
AcDbEntity
  8
0
  6
HIDDEN
 62
     7
370
     0
100
AcDbLine
 10
260.7736311867
 20
93.0240527764
 30
0.0
 11
259.975931531
 21
102.1195911851
 31
0.0
  0
LINE
  5
170
330
1F
100
AcDbEntity
  8
0
  6
HIDDEN
 62
     7
370
     0
100
AcDbLine
 10
260.7736311867
 20
93.0240527764
 30
0.0
 11
260.7345197907
 21
93.0274732296
 31
0.0
  0
ARC
  5
171
330
1F
100
AcDbEntity
  8
0
  6
HIDDEN
 62
     7
370
     0
100
AcDbCircle
 10
260.7698823392
 20
104.3740660163
 30
0.0
 40
2.097249958846592
100
AcDbArc
 50
270.0794373565
 51
184.3566136698
  0
LWPOLYLINE
  5
172
330
1F
100
AcDbEntity
  8
0
  6
HIDDEN
 62
     7
370
     0
100
AcDbPolyline
 90
        3
 70
   128
 43
0.0
 10
259.9069893285
 20
102.4631487357
 10
260.0141825577
 20
102.4182809535
 10
260.7727900567
 20
102.2768180732
  0
ELLIPSE
  5
173
330
1F
100
AcDbEntity
  8
0
  6
HIDDEN
 62
     7
370
     0
100
AcDbEllipse
 10
260.7727900567
 20
104.6049923925
 30
0.0
 11
2.099281448397733
 21
-0.1276543563555634
 31
0.0
210
0.0
220
0.0
230
1.0
 40
0.4303093993
 41
0.2901218680751979
 42
0.4153692678995438
  0
LINE
  5
174
330
1F
100
AcDbEntity
  8
0
  6
HIDDEN
 62
     7
370
     0
100
AcDbLine
 10
262.8000544949
 20
104.9154817479
 30
0.0
 11
262.8000544949
 21
104.7410905636
 31
0.0
  0
ARC
  5
175
330
1F
100
AcDbEntity
  8
0
  6
HIDDEN
 62
     7
370
     0
100
AcDbCircle
 10
260.7745896858
 20
104.3707163434
 30
0.0
 40
2.097445360183266
100
AcDbArc
 50
254.8063337048
 51
15.0539265256
  0
LINE
  5
176
330
1F
100
AcDbEntity
  8
0
  6
HIDDEN
 62
     7
370
     0
100
AcDbLine
 10
260.2248859617
 20
102.1721950114
 30
0.0
 11
260.2248859617
 21
102.3465861958
 31
0.0
  0
ELLIPSE
  5
177
330
1F
100
AcDbEntity
  8
0
  6
HIDDEN
 62
     7
370
     0
100
AcDbEllipse
 10
260.7727900567
 20
104.6049923925
 30
0.0
 11
1.616902374425195
 21
2.318196838028314
 31
0.0
210
0.0
220
0.0
230
1.0
 40
0.57803977
 41
3.631152220478782
 42
3.756399620303073
  0
LINE
  5
178
330
1F
100
AcDbEntity
  8
0
  6
HIDDEN
 62
     7
370
     0
100
AcDbLine
 10
271.7348804254
 20
104.0815236704
 30
0.0
 11
271.7348804254
 21
103.9612987562
 31
0.0
  0
LINE
  5
179
330
1F
100
AcDbEntity
  8
0
  6
HIDDEN
 62
     7
370
     0
100
AcDbLine
 10
271.7348804254
 20
103.9612987562
 30
0.0
 11
271.7135821528
 21
104.0674234294
 31
0.0
  0
LINE
  5
17A
330
1F
100
AcDbEntity
  8
0
  6
HIDDEN
 62
     7
370
     0
100
AcDbLine
 10
271.9142805464
 20
103.2432298513
 30
0.0
 11
271.8419334209
 21
104.0721805619
 31
0.0
  0
SPLINE
  5
17B
330
1F
100
AcDbEntity
  8
0
  6
HIDDEN
 62
     7
370
     0
100
AcDbSpline
210
0.0
220
0.0
230
1.0
 70
     8
 71
     3
 72
    36
 73
    32
 74
     0
 42
0.00000001
 43
0.00000001
 12
1.0
 22
0.0
 32
0.0
 13
1.0
 23
0.0
 33
0.0
 40
0.0
 40
0.0
 40
0.0
 40
0.0
 40
0.0262865516382142
 40
0.0525128653435414
 40
0.0786897709149628
 40
0.1048281595646688
 40
0.1309389707028591
 40
0.1570331784235122
 40
0.1831217777731515
 40
0.2092157708877856
 40
0.2353261530851097
 40
0.2614638989997297
 40
0.2876399488485372
 40
0.3138651949114519
 40
0.3401504683096259
 40
0.3665065261589368
 40
0.3929440391712992
 40
0.4194735797701224
 40
0.4461056107792944
 40
0.4728504747375492
 40
0.4997183838821175
 40
0.550666340788893
 40
0.6012150175472754
 40
0.6514356729552722
 40
0.7014009692691197
 40
0.7511846868923443
 40
0.8008614152828476
 40
0.8505062261427478
 40
0.9001943358429888
 40
0.9500007645885596
 40
1.0
 40
1.0
 40
1.0
 40
1.0
 10
272.6939321912379
 20
93.20041153349078
 30
0.0
 10
272.6922040115448
 20
93.23180601602073
 30
0.0
 10
272.6887516124338
 20
93.29452303787721
 30
0.0
 10
272.6824568925819
 20
93.40117403965417
 30
0.0
 10
272.6753525703921
 20
93.51688750935469
 30
0.0
 10
272.6673585526754
 20
93.64256946391802
 30
0.0
 10
272.658496243486
 20
93.77797775652
 30
0.0
 10
272.6487599209534
 20
93.92317709571867
 30
0.0
 10
272.6381511203966
 20
94.07815009480336
 30
0.0
 10
272.6266694373885
 20
94.2429013101124
 30
0.0
 10
272.6143149892761
 20
94.41742939581182
 30
0.0
 10
272.6010877558468
 20
94.60173456262189
 30
0.0
 10
272.5869877559337
 20
94.79581658012893
 30
0.0
 10
272.5720149998385
 20
94.9996753152132
 30
0.0
 10
272.5561695022462
 20
95.21331058576796
 30
0.0
 10
272.5394512774265
 20
95.43672221627256
 30
0.0
 10
272.5218603446459
 20
95.66990997225453
 30
0.0
 10
272.5033967103116
 20
95.91287377887876
 30
0.0
 10
272.4840604333262
 20
96.16561291980062
 30
0.0
 10
272.4638513791442
 20
96.42812905173926
 30
0.0
 10
272.4365078043767
 20
96.78129942838852
 30
0.0
 10
272.4011770486027
 20
97.2342064303808
 30
0.0
 10
272.3566923234403
 20
97.79930760914796
 30
0.0
 10
272.3098096273048
 20
98.38999786443654
 30
0.0
 10
272.2605290022316
 20
99.00627552645507
 30
0.0
 10
272.2088514996703
 20
99.64812923344887
 30
0.0
 10
272.1547738362406
 20
100.3155925507717
 30
0.0
 10
272.0983095255387
 20
101.0085237887924
 30
0.0
 10
272.039409684636
 20
101.7274323187103
 30
0.0
 10
271.9782591868299
 20
102.4703882860687
 30
0.0
 10
271.9356342078023
 20
102.985284433812
 30
0.0
 10
271.9142805463762
 20
103.243229851248
 30
0.0
  0
LINE
  5
17C
330
1F
100
AcDbEntity
  8
0
  6
HIDDEN
 62
     7
370
     0
100
AcDbLine
 10
272.6939321912
 20
93.2003810059
 30
0.0
 11
271.7396675741
 21
104.0811058694
 31
0.0
  0
LINE
  5
17D
330
1F
100
AcDbEntity
  8
0
  6
HIDDEN
 62
     7
370
     0
100
AcDbLine
 10
271.7348804254
 20
103.9612987562
 30
0.0
 11
262.8000544949
 21
104.7410905636
 31
0.0
  0
LINE
  5
17E
330
1F
100
AcDbEntity
  8
0
  6
HIDDEN
 62
     7
370
     0
100
AcDbLine
 10
260.2248859617
 20
102.1721950114
 30
0.0
 11
261.0212181567
 21
93.0922486753
 31
0.0
  0
ELLIPSE
  5
17F
330
1F
100
AcDbEntity
  8
0
  6
HIDDEN
 62
     7
370
     0
100
AcDbEllipse
 10
258.8206876388
 20
118.0253811876
 30
0.0
 11
-2.000327158689174
 21
25.00025958423008
 31
0.0
210
0.0
220
0.0
230
1.0
 40
0.1282539226
 41
3.126881718194104
 42
3.205342108105757
  0
LINE
  5
180
330
1F
100
AcDbEntity
  8
0
  6
HIDDEN
 62
     7
370
     0
100
AcDbLine
 10
248.1435256079
 20
118.1974884184
 30
0.0
 11
248.1435256079
 21
134.5547834775
 31
0.0
  0
LINE
  5
181
330
1F
100
AcDbEntity
  8
0
  6
HIDDEN
 62
     7
370
     0
100
AcDbLine
 10
252.0547527208
 20
104.9438847892
 30
0.0
 11
252.0547527209
 21
93.7865547189
 31
0.0
  0
SPLINE
  5
182
330
1F
100
AcDbEntity
  8
0
  6
HIDDEN
 62
     7
370
     0
100
AcDbSpline
210
0.0
220
0.0
230
1.0
 70
     8
 71
     3
 72
    16
 73
    12
 74
     0
 42
0.00000001
 43
0.00000001
 12
1.0
 22
0.0
 32
0.0
 13
1.0
 23
0.0
 33
0.0
 40
0.0
 40
0.0
 40
0.0
 40
0.0
 40
0.2499999999999996
 40
0.2499999999999996
 40
0.4999999999999991
 40
0.4999999999999991
 40
0.6249999999999993
 40
0.6249999999999993
 40
0.7499999999999996
 40
0.7499999999999996
 40
1.0
 40
1.0
 40
1.0
 40
1.0
 10
252.0547527208498
 20
104.9438847892124
 30
0.0
 10
251.5029520419301
 20
105.960222086678
 30
0.0
 10
250.9859796678228
 20
106.9939745639987
 30
0.0
 10
250.0476871404487
 20
109.1093084508394
 30
0.0
 10
249.6262524144395
 20
110.1908325706083
 30
0.0
 10
249.0934500007644
 20
111.8627965187865
 30
0.0
 10
248.9326636689325
 20
112.4284561526511
 30
0.0
 10
248.6528003015316
 20
113.5667263802399
 30
0.0
 10
248.5331095355025
 20
114.1416702379865
 30
0.0
 10
248.2430040367096
 20
115.8762195162565
 30
0.0
 10
248.1435256078967
 20
117.0353762171082
 30
0.0
 10
248.1435256078967
 20
118.1974884184213
 30
0.0
  0
LINE
  5
183
330
1F
100
AcDbEntity
  8
0
  6
HIDDEN
 62
     7
370
     0
100
AcDbLine
 10
138.5935256079
 20
91.7974884184
 30
0.0
 11
146.5935256079
 21
91.7974884184
 31
0.0
  0
LINE
  5
184
330
1F
100
AcDbEntity
  8
0
  6
HIDDEN
 62
     7
370
     0
100
AcDbLine
 10
260.2248859617
 20
102.3465861958
 30
0.0
 11
261.0069408849
 21
93.4294323001
 31
0.0
  0
ELLIPSE
  5
185
330
1F
100
AcDbEntity
  8
0
  6
HIDDEN
 62
     7
370
     0
100
AcDbEllipse
 10
258.8338714609
 20
118.0065648875
 30
0.0
 11
-2.182346613249081
 21
25.0043160937237
 31
0.0
210
0.0
220
0.0
230
1.0
 40
0.0060565887
 41
3.225936588108169
 42
3.326176968325334
  0
LWPOLYLINE
  5
186
330
1F
100
AcDbEntity
  8
0
  6
HIDDEN
 62
     7
370
     0
100
AcDbPolyline
 90
       18
 70
   128
 43
0.0
 10
231.6435256079
 20
120.4522371984
 10
232.4021331069
 20
120.5871049236
 10
233.0582864596
 20
120.9734934654
 10
233.5233685197
 20
121.5592189102
 10
233.7345673781
 20
122.2651757912
 10
233.6633594586
 20
122.9960207196
 10
233.3193617852
 20
123.6530490382
 10
232.7490331499
 20
124.1475254318
 10
232.0293995953
 20
124.4126681234
 10
231.2576516205
 20
124.4126681234
 10
230.5380180659
 20
124.1475254318
 10
229.9676894306
 20
123.6530490382
 10
229.6236917572
 20
122.9960207196
 10
229.5524838377
 20
122.2651757912
 10
229.7636826961
 20
121.5592189102
 10
230.2287647562
 20
120.9734934654
 10
230.8849181089
 20
120.5871049236
 10
231.6435256079
 20
120.4522371984
  0
LINE
  5
187
330
1F
100
AcDbEntity
  8
0
  6
HIDDEN
 62
     7
370
     0
100
AcDbLine
 10
271.9603575174
 20
92.4636423254
 30
0.0
 11
272.6939588375
 21
93.2003546068
 31
0.0
  0
CIRCLE
  5
188
330
1F
100
AcDbEntity
  8
0
  6
HIDDEN
 62
     7
370
     0
100
AcDbCircle
 10
266.5769795314
 20
98.5825791863
 30
0.0
 40
2.997791452038941
  0
LINE
  5
189
330
1F
100
AcDbEntity
  8
0
  6
HIDDEN
 62
     7
370
     0
100
AcDbLine
 10
271.7348804254
 20
104.1356899405
 30
0.0
 11
262.8000544949
 21
104.9154817479
 31
0.0
  0
LINE
  5
18A
330
1F
100
AcDbEntity
  8
0
  6
HIDDEN
 62
     7
370
     0
100
AcDbLine
 10
271.9600922539
 20
92.4674303866
 30
0.0
 11
261.0069408849
 21
93.4294323001
 31
0.0
  0
CIRCLE
  5
18B
330
1F
100
AcDbEntity
  8
0
  6
HIDDEN
 62
     7
370
     0
100
AcDbCircle
 10
266.5749355408
 20
98.643270832
 30
0.0
 40
2.097121578791891
  0
SPLINE
  5
18C
330
1F
100
AcDbEntity
  8
0
  6
HIDDEN
 62
     7
370
     0
100
AcDbSpline
210
0.0
220
0.0
230
1.0
 70
     8
 71
     3
 72
    47
 73
    43
 74
     0
 42
0.00000001
 43
0.00000001
 12
1.0
 22
0.0
 32
0.0
 13
1.0
 23
0.0
 33
0.0
 40
0.0
 40
0.0
 40
0.0
 40
0.0
 40
0.0266763578416809
 40
0.0532671589458673
 40
0.0797723615735443
 40
0.106191924953276
 40
0.1325258092865852
 40
0.1587739757534125
 40
0.1849363865176801
 40
0.2110130047329248
 40
0.2370037945480259
 40
0.2629087211130275
 40
0.2887277505850454
 40
0.3144608501342774
 40
0.3401079879501003
 40
0.3656691332472747
 40
0.3911442562722292
 40
0.4165333283094784
 40
0.4418363216881121
 40
0.4670532097884068
 40
0.4921839670485421
 40
0.5172285689714188
 40
0.5421869921316038
 40
0.5670592141823662
 40
0.5918452138628512
 40
0.6165449710053552
 40
0.6411584665427279
 40
0.6656856825158974
 40
0.6901266020815169
 40
0.7144812095197365
 40
0.7387494902421116
 40
0.7629314307996347
 40
0.787027018890904
 40
0.8110362433704339
 40
0.8349590942571005
 40
0.8587955627427216
 40
0.8825456412008027
 40
0.9062093231954058
 40
0.9297866034901872
 40
0.9532774780575772
 40
0.9766819440881255
 40
1.0
 40
1.0
 40
1.0
 40
1.0
 10
271.2391511425849
 20
102.060081315253
 30
0.0
 10
271.2497816214612
 20
101.9280790142045
 30
0.0
 10
271.2710084850133
 20
101.6644977714838
 30
0.0
 10
271.3020355688129
 20
101.277460903985
 30
0.0
 10
271.3324015427202
 20
100.8974527340486
 30
0.0
 10
271.3620522147256
 20
100.525096902369
 30
0.0
 10
271.391002035428
 20
100.1603269193509
 30
0.0
 10
271.4192471516382
 20
99.80325416287
 30
0.0
 10
271.4467885908483
 20
99.45393648322823
 30
0.0
 10
271.4736260791467
 20
99.11243996551435
 30
0.0
 10
271.4997596896274
 20
98.77882252518508
 30
0.0
 10
271.5251894028611
 20
98.45313834871236
 30
0.0
 10
271.5499152240884
 20
98.13543677859386
 30
0.0
 10
271.5739371519722
 20
97.82576268199286
 30
0.0
 10
271.5972551869302
 20
97.52415642601336
 30
0.0
 10
271.619869328912
 20
97.23065395995926
 30
0.0
 10
271.6417795779925
 20
96.94528687106815
 30
0.0
 10
271.6629859342135
 20
96.66808244921155
 30
0.0
 10
271.6834883976259
 20
96.3990637509952
 30
0.0
 10
271.7032869682783
 20
96.13824966570847
 30
0.0
 10
271.7223816462206
 20
95.88565498236906
 30
0.0
 10
271.7407724315024
 20
95.64129045796487
 30
0.0
 10
271.7584593241735
 20
95.40516288676776
 30
0.0
 10
271.7754423242842
 20
95.17727517065714
 30
0.0
 10
271.7917214318846
 20
94.95762639037315
 30
0.0
 10
271.8072966470252
 20
94.746211877633
 30
0.0
 10
271.8221679697572
 20
94.5430232880187
 30
0.0
 10
271.8363354001289
 20
94.34804867463504
 30
0.0
 10
271.8497989382006
 20
94.16127256221121
 30
0.0
 10
271.862558583989
 20
93.98267602253254
 30
0.0
 10
271.874614337673
 20
93.81223674759192
 30
0.0
 10
271.8859661988296
 20
93.64992913354902
 30
0.0
 10
271.8966141692712
 20
93.4957243266064
 30
0.0
 10
271.9065582425125
 20
93.34959041199086
 30
0.0
 10
271.9157984428696
 20
93.2114920731689
 30
0.0
 10
271.9243346803265
 20
93.08139221867482
 30
0.0
 10
271.9321672892499
 20
92.95924630631366
 30
0.0
 10
271.9392950288015
 20
92.84502377373882
 30
0.0
 10
271.9457225047972
 20
92.73862885837784
 30
0.0
 10
271.9514326225986
 20
92.64019484735758
 30
0.0
 10
271.9564888293727
 20
92.54899232001166
 30
0.0
 10
271.9592718537453
 20
92.49455110919192
 30
0.0
 10
271.9606607924248
 20
92.4673808464358
 30
0.0
  0
LINE
  5
18D
330
1F
100
AcDbEntity
  8
0
  6
HIDDEN
 62
     7
370
     0
100
AcDbLine
 10
107.8435256079
 20
136.1874884184
 30
0.0
 11
107.8435256079
 21
140.0415960908
 31
0.0
  0
LINE
  5
18E
330
1F
100
AcDbEntity
  8
0
  6
HIDDEN
 62
     7
370
     0
100
AcDbLine
 10
111.8435256079
 20
100.2074884184
 30
0.0
 11
111.8435256079
 21
96.2523401591
 31
0.0
  0
ARC
  5
18F
330
1F
100
AcDbEntity
  8
0
  6
HIDDEN
 62
     7
370
     0
100
AcDbCircle
 10
266.57773474
 20
99.4138150778
 30
0.0
 40
2.098266495212064
100
AcDbArc
 50
323.6856235966
 51
204.0893012094
  0
SPLINE
  5
190
330
1F
100
AcDbEntity
  8
0
  6
HIDDEN
 62
     7
370
     0
100
AcDbSpline
210
0.0
220
0.0
230
1.0
 70
     8
 71
     3
 72
    28
 73
    24
 74
     0
 42
0.00000001
 43
0.00000001
 12
1.0
 22
0.0
 32
0.0
 13
1.0
 23
0.0
 33
0.0
 40
0.0
 40
0.0
 40
0.0
 40
0.0
 40
0.1249999999999977
 40
0.1249999999999977
 40
0.2499999999999954
 40
0.2499999999999954
 40
0.3124999999999993
 40
0.3124999999999993
 40
0.3750000000000033
 40
0.3750000000000033
 40
0.4375000000000072
 40
0.4375000000000072
 40
0.5000000000000111
 40
0.5000000000000111
 40
0.625000000000004
 40
0.625000000000004
 40
0.6875000000000004
 40
0.6875000000000004
 40
0.7499999999999969
 40
0.7499999999999969
 40
0.8749999999999984
 40
0.8749999999999984
 40
1.0
 40
1.0
 40
1.0
 40
1.0
 10
264.6622054167487
 20
98.55738662399952
 30
0.0
 10
264.722710154035
 20
98.41030893289462
 30
0.0
 10
264.797764050525
 20
98.26853902583422
 30
0.0
 10
264.9824089584351
 20
97.99592657443051
 30
0.0
 10
265.0915054684056
 20
97.86500017859223
 30
0.0
 10
265.2943305851275
 20
97.67869345330962
 30
0.0
 10
265.3674044383721
 20
97.61945722637998
 30
0.0
 10
265.5273437028242
 20
97.50799850682834
 30
0.0
 10
265.615067889073
 20
97.4553795716846
 30
0.0
 10
265.8028626089799
 20
97.36271862755613
 30
0.0
 10
265.9032206457051
 20
97.32225676241416
 30
0.0
 10
266.1215980701887
 20
97.25685391679868
 30
0.0
 10
266.2352946626962
 20
97.23342008162476
 30
0.0
 10
266.5857418795388
 20
97.19528713421042
 30
0.0
 10
266.819469684646
 20
97.21664017414476
 30
0.0
 10
267.1236880956121
 20
97.29330331043167
 30
0.0
 10
267.2200119841085
 20
97.32639100773368
 30
0.0
 10
267.3980251778335
 20
97.40172509042554
 30
0.0
 10
267.4803275778949
 20
97.4440231884245
 30
0.0
 10
267.7121677052928
 20
97.58193569411092
 30
0.0
 10
267.8469584273686
 20
97.68894262245145
 30
0.0
 10
268.0808206566957
 20
97.91774889063201
 30
0.0
 10
268.1812938459488
 20
98.04063168529561
 30
0.0
 10
268.2684753113232
 20
98.17118938776538
 30
0.0
  0
LINE
  5
191
330
1F
100
AcDbEntity
  8
0
  6
HIDDEN
 62
     7
370
     0
100
AcDbLine
 10
102.8935256079
 20
136.1874884184
 30
0.0
 11
102.8935256079
 21
139.0674261838
 31
0.0
  0
LINE
  5
192
330
1F
100
AcDbEntity
  8
0
  6
HIDDEN
 62
     7
370
     0
100
AcDbLine
 10
101.7435256079
 20
136.1874884184
 30
0.0
 11
101.7435256079
 21
138.1735489231
 31
0.0
  0
SPLINE
  5
193
330
1F
100
AcDbEntity
  8
0
  6
HIDDEN
 62
     7
370
     0
100
AcDbSpline
210
0.0
220
0.0
230
1.0
 70
     8
 71
     3
 72
    22
 73
    18
 74
     0
 42
0.00000001
 43
0.00000001
 12
1.0
 22
0.0
 32
0.0
 13
1.0
 23
0.0
 33
0.0
 40
0.0
 40
0.0
 40
0.0
 40
0.0
 40
0.1250000000000032
 40
0.1250000000000032
 40
0.2500000000000064
 40
0.2500000000000064
 40
0.3125000000000056
 40
0.3125000000000056
 40
0.3750000000000047
 40
0.3750000000000047
 40
0.5000000000000042
 40
0.5000000000000042
 40
0.6250000000000038
 40
0.6250000000000038
 40
0.7500000000000032
 40
0.7500000000000032
 40
1.0
 40
1.0
 40
1.0
 40
1.0
 10
102.8834806774658
 20
139.06168029085
 30
0.0
 10
102.8228609565894
 20
139.0268581142027
 30
0.0
 10
102.7606716166229
 20
138.988354310502
 30
0.0
 10
102.6269421503934
 20
138.9024198227033
 30
0.0
 10
102.5546876086811
 20
138.8541132215011
 30
0.0
 10
102.4327896678454
 20
138.7777615033313
 30
0.0
 10
102.3889831146934
 20
138.7513470427243
 30
0.0
 10
102.3025879455185
 20
138.7028381181937
 30
0.0
 10
102.2602479692268
 20
138.6809039954673
 30
0.0
 10
102.1462772228578
 20
138.6245342055227
 30
0.0
 10
102.0878584968676
 20
138.598177380989
 30
0.0
 10
101.9879509256801
 20
138.5460375564849
 30
0.0
 10
101.9465369348847
 20
138.5208769667723
 30
0.0
 10
101.8745119670074
 20
138.4657701234453
 30
0.0
 10
101.8441634256945
 20
138.4359137199503
 30
0.0
 10
101.7706716956624
 20
138.3385070179576
 30
0.0
 10
101.7435256078967
 20
138.2621753341473
 30
0.0
 10
101.7435256078967
 20
138.1735489230772
 30
0.0
  0
SPLINE
  5
194
330
1F
100
AcDbEntity
  8
0
  6
HIDDEN
 62
     7
370
     0
100
AcDbSpline
210
0.0
220
0.0
230
1.0
 70
     8
 71
     3
 72
     8
 73
     4
 74
     0
 42
0.00000001
 43
0.00000001
 12
1.0
 22
0.0
 32
0.0
 13
1.0
 23
0.0
 33
0.0
 40
0.0000002438860713
 40
0.0000002438860713
 40
0.0000002438860713
 40
0.0000002438860713
 40
0.0014006025853533
 40
0.0014006025853533
 40
0.0014006025853533
 40
0.0014006025853533
 10
102.8935256078967
 20
133.9989788544529
 30
0.0
 10
102.5107385353317
 20
134.1490503824287
 30
0.0
 10
102.1273851353756
 20
134.2972075843461
 30
0.0
 10
101.7435256078967
 20
134.4435810961494
 30
0.0
  0
LINE
  5
195
330
1F
100
AcDbEntity
  8
0
  6
HIDDEN
 62
     7
370
     0
100
AcDbLine
 10
102.8935256079
 20
100.2074884184
 30
0.0
 11
102.8935256079
 21
97.3908568599
 31
0.0
  0
SPLINE
  5
196
330
1F
100
AcDbEntity
  8
0
  6
HIDDEN
 62
     7
370
     0
100
AcDbSpline
210
0.0
220
0.0
230
1.0
 70
     8
 71
     3
 72
     8
 73
     4
 74
     0
 42
0.00000001
 43
0.00000001
 12
1.0
 22
0.0
 32
0.0
 13
1.0
 23
0.0
 33
0.0
 40
0.0000002432046719
 40
0.0000002432046719
 40
0.0000002432046719
 40
0.0000002432046719
 40
0.0014006019039539
 40
0.0014006019039539
 40
0.0014006019039539
 40
0.0014006019039539
 10
101.7435256078967
 20
101.9513957406932
 30
0.0
 10
102.1273851353756
 20
102.0977692524964
 30
0.0
 10
102.5107385353317
 20
102.2459264544138
 30
0.0
 10
102.8935256078967
 20
102.3959979823896
 30
0.0
  0
LINE
  5
197
330
1F
100
AcDbEntity
  8
0
  6
HIDDEN
 62
     7
370
     0
100
AcDbLine
 10
101.7435256079
 20
134.4435810961
 30
0.0
 11
101.7435256079
 21
101.9513957407
 31
0.0
  0
SPLINE
  5
198
330
1F
100
AcDbEntity
  8
0
  6
HIDDEN
 62
     7
370
     0
100
AcDbSpline
210
0.0
220
0.0
230
1.0
 70
     8
 71
     3
 72
    22
 73
    18
 74
     0
 42
0.00000001
 43
0.00000001
 12
1.0
 22
0.0
 32
0.0
 13
1.0
 23
0.0
 33
0.0
 40
0.0
 40
0.0
 40
0.0
 40
0.0
 40
0.2500000000000028
 40
0.2500000000000028
 40
0.5000000000000056
 40
0.5000000000000056
 40
0.5625000000000047
 40
0.5625000000000047
 40
0.6250000000000038
 40
0.6250000000000038
 40
0.687500000000003
 40
0.687500000000003
 40
0.7500000000000021
 40
0.7500000000000021
 40
0.875000000000001
 40
0.875000000000001
 40
1.0
 40
1.0
 40
1.0
 40
1.0
 10
101.7435256078966
 20
98.23837065642194
 30
0.0
 10
101.7435256078965
 20
98.14839727140418
 30
0.0
 10
101.7750238262423
 20
98.07334922888906
 30
0.0
 10
101.8815512554188
 20
97.96032201517754
 30
0.0
 10
101.9547114745557
 20
97.92350843238479
 30
0.0
 10
102.0756399508801
 20
97.88786475613098
 30
0.0
 10
102.101490438684
 20
97.88111454234483
 30
0.0
 10
102.1590849964583
 20
97.86604553363038
 30
0.0
 10
102.1910307369819
 20
97.85791251020373
 30
0.0
 10
102.2668877775541
 20
97.83262693561934
 30
0.0
 10
102.3140988282002
 20
97.81325171750221
 30
0.0
 10
102.4103248217992
 20
97.75749323885243
 30
0.0
 10
102.4547457517232
 20
97.72500809574153
 30
0.0
 10
102.5709667616089
 20
97.63609771411996
 30
0.0
 10
102.6361190010208
 20
97.58159963079179
 30
0.0
 10
102.7626734413867
 20
97.48297215173548
 30
0.0
 10
102.8233475183563
 20
97.4382279534873
 30
0.0
 10
102.8834806774788
 20
97.39760126435097
 30
0.0
  0
LINE
  5
199
330
1F
100
AcDbEntity
  8
0
  6
HIDDEN
 62
     7
370
     0
100
AcDbLine
 10
101.7435256079
 20
100.2074884184
 30
0.0
 11
101.7435256079
 21
98.2383706564
 31
0.0
  0
SPLINE
  5
19A
330
1F
100
AcDbEntity
  8
0
  6
HIDDEN
 62
     7
370
     0
100
AcDbSpline
210
0.0
220
0.0
230
1.0
 70
     8
 71
     3
 72
    10
 73
     6
 74
     0
 42
0.00000001
 43
0.00000001
 12
1.0
 22
0.0
 32
0.0
 13
1.0
 23
0.0
 33
0.0
 40
0.0
 40
0.0
 40
0.0
 40
0.0
 40
0.5
 40
0.5
 40
1.0
 40
1.0
 40
1.0
 40
1.0
 10
149.7335256078967
 20
145.3171422694571
 30
0.0
 10
149.7335256078967
 20
145.173529917899
 30
0.0
 10
149.7696928829945
 20
145.0305565041804
 30
0.0
 10
149.9054488267485
 20
144.7805638774667
 30
0.0
 10
150.0057185173713
 20
144.6725615681879
 30
0.0
 10
150.1278231395877
 20
144.5974884184212
 30
0.0
  0
LINE
  5
19B
330
1F
100
AcDbEntity
  8
0
  6
HIDDEN
 62
     7
370
     0
100
AcDbLine
 10
149.7335256079
 20
145.3171422695
 30
0.0
 11
149.7335256079
 21
91.3930927901
 31
0.0
  0
SPLINE
  5
19C
330
1F
100
AcDbEntity
  8
0
  6
HIDDEN
 62
     7
370
     0
100
AcDbSpline
210
0.0
220
0.0
230
1.0
 70
     8
 71
     3
 72
    10
 73
     6
 74
     0
 42
0.00000001
 43
0.00000001
 12
1.0
 22
0.0
 32
0.0
 13
1.0
 23
0.0
 33
0.0
 40
0.0
 40
0.0
 40
0.0
 40
0.0
 40
0.5
 40
0.5
 40
1.0
 40
1.0
 40
1.0
 40
1.0
 10
149.7335256078967
 20
91.39309279009191
 30
0.0
 10
149.7335256078967
 20
91.46332915046243
 30
0.0
 10
149.7418082199871
 20
91.53332325195969
 30
0.0
 10
149.7749081630454
 20
91.67028251651816
 30
0.0
 10
149.7992455550038
 20
91.73559042577322
 30
0.0
 10
149.8312004102283
 20
91.79748841841996
 30
0.0
  0
SPLINE
  5
19D
330
1F
100
AcDbEntity
  8
0
  6
HIDDEN
 62
     7
370
     0
100
AcDbSpline
210
0.0
220
0.0
230
1.0
 70
    24
 71
     3
 72
    12
 73
     8
 74
     0
 42
0.00000001
 43
0.00000001
 12
1.0
 22
0.0
 32
0.0
 13
1.0
 23
0.0
 33
0.0
 40
0.0
 40
0.0
 40
0.0
 40
0.0
 40
0.5000000000000073
 40
0.5000000000000073
 40
0.7500000000000037
 40
0.7500000000000037
 40
1.0
 40
1.0
 40
1.0
 40
1.0
 10
150.1278231395876
 20
144.5974884184213
 30
0.0
 10
150.1709464880212
 20
144.5974884184213
 30
0.0
 10
150.2206860753214
 20
144.5974884184213
 30
0.0
 10
150.3172070521434
 20
144.5974884184213
 30
0.0
 10
150.3527721829951
 20
144.5974884184213
 30
0.0
 10
150.436120513618
 20
144.5974884184213
 30
0.0
 10
150.4845904133083
 20
144.5974884184213
 30
0.0
 10
150.5335256078979
 20
144.5974884184213
 30
0.0
  0
SPLINE
  5
19E
330
1F
100
AcDbEntity
  8
0
  6
HIDDEN
 62
     7
370
     0
100
AcDbSpline
210
0.0
220
0.0
230
1.0
 70
    24
 71
     3
 72
    14
 73
    10
 74
     0
 42
0.00000001
 43
0.00000001
 12
1.0
 22
0.0
 32
0.0
 13
1.0
 23
0.0
 33
0.0
 40
0.0
 40
0.0
 40
0.0
 40
0.0
 40
0.5
 40
0.5
 40
0.75
 40
0.75
 40
0.875
 40
0.875
 40
1.0
 40
1.0
 40
1.0
 40
1.0
 10
149.8312004102289
 20
91.79748841842125
 30
0.0
 10
149.8784068980687
 20
91.79748841842125
 30
0.0
 10
149.941746901498
 20
91.79748841842125
 30
0.0
 10
150.0848100077539
 20
91.79748841842124
 30
0.0
 10
150.1408906580249
 20
91.79748841842125
 30
0.0
 10
150.2523260079342
 20
91.79748841842125
 30
0.0
 10
150.2942707986072
 20
91.79748841842124
 30
0.0
 10
150.3992672416274
 20
91.79748841842124
 30
0.0
 10
150.4648311787081
 20
91.79748841842124
 30
0.0
 10
150.5335256078966
 20
91.79748841842125
 30
0.0
  0
LINE
  5
19F
330
1F
100
AcDbEntity
  8
0
  6
HIDDEN
 62
     7
370
     0
100
AcDbLine
 10
153.5535256079
 20
145.3171422695
 30
0.0
 11
153.5535256079
 21
91.3930927901
 31
0.0
  0
SPLINE
  5
1A0
330
1F
100
AcDbEntity
  8
0
  6
HIDDEN
 62
     7
370
     0
100
AcDbSpline
210
0.0
220
0.0
230
1.0
 70
     8
 71
     3
 72
    10
 73
     6
 74
     0
 42
0.00000001
 43
0.00000001
 12
1.0
 22
0.0
 32
0.0
 13
1.0
 23
0.0
 33
0.0
 40
0.0
 40
0.0
 40
0.0
 40
0.0
 40
0.5
 40
0.5
 40
1.0
 40
1.0
 40
1.0
 40
1.0
 10
153.1592280762057
 20
144.5974884184213
 30
0.0
 10
153.2805405993035
 20
144.6720745647095
 30
0.0
 10
153.3819689615286
 20
144.7808988758609
 30
0.0
 10
153.5179125277888
 20
145.0319193944825
 30
0.0
 10
153.5535256078967
 20
145.1745020876218
 30
0.0
 10
153.5535256078967
 20
145.3171422694571
 30
0.0
  0
SPLINE
  5
1A1
330
1F
100
AcDbEntity
  8
0
  6
HIDDEN
 62
     7
370
     0
100
AcDbSpline
210
0.0
220
0.0
230
1.0
 70
     8
 71
     3
 72
    10
 73
     6
 74
     0
 42
0.00000001
 43
0.00000001
 12
1.0
 22
0.0
 32
0.0
 13
1.0
 23
0.0
 33
0.0
 40
0.0
 40
0.0
 40
0.0
 40
0.0
 40
0.5
 40
0.5
 40
1.0
 40
1.0
 40
1.0
 40
1.0
 10
153.4558508055644
 20
91.79748841842125
 30
0.0
 10
153.4880059931864
 20
91.7352023729051
 30
0.0
 10
153.5126622243806
 20
91.66867194803586
 30
0.0
 10
153.5454749813061
 20
91.53181331767337
 30
0.0
 10
153.5535256078967
 20
91.46275572249502
 30
0.0
 10
153.5535256078967
 20
91.39309279009169
 30
0.0
  0
SPLINE
  5
1A2
330
1F
100
AcDbEntity
  8
0
  6
HIDDEN
 62
     7
370
     0
100
AcDbSpline
210
0.0
220
0.0
230
1.0
 70
    24
 71
     3
 72
    12
 73
     8
 74
     0
 42
0.00000001
 43
0.00000001
 12
1.0
 22
0.0
 32
0.0
 13
1.0
 23
0.0
 33
0.0
 40
0.0
 40
0.0
 40
0.0
 40
0.0
 40
0.2500000000000037
 40
0.2500000000000037
 40
0.5000000000000074
 40
0.5000000000000074
 40
1.0
 40
1.0
 40
1.0
 40
1.0
 10
152.7535256078967
 20
144.5974884184213
 30
0.0
 10
152.8030607141147
 20
144.5974884184213
 30
0.0
 10
152.8514656027162
 20
144.5974884184213
 30
0.0
 10
152.9343521518938
 20
144.5974884184213
 30
0.0
 10
152.9708668733622
 20
144.5974884184213
 30
0.0
 10
153.0671997117168
 20
144.5974884184213
 30
0.0
 10
153.1159522593795
 20
144.5974884184213
 30
0.0
 10
153.1592280762101
 20
144.5974884184213
 30
0.0
  0
SPLINE
  5
1A3
330
1F
100
AcDbEntity
  8
0
  6
HIDDEN
 62
     7
370
     0
100
AcDbSpline
210
0.0
220
0.0
230
1.0
 70
    24
 71
     3
 72
    14
 73
    10
 74
     0
 42
0.00000001
 43
0.00000001
 12
1.0
 22
0.0
 32
0.0
 13
1.0
 23
0.0
 33
0.0
 40
0.0
 40
0.0
 40
0.0
 40
0.0
 40
0.1249999999999987
 40
0.1249999999999987
 40
0.2499999999999973
 40
0.2499999999999973
 40
0.4999999999999982
 40
0.4999999999999982
 40
1.0
 40
1.0
 40
1.0
 40
1.0
 10
152.7535256078967
 20
91.79748841842125
 30
0.0
 10
152.8226222402407
 20
91.79748841842125
 30
0.0
 10
152.8876154058486
 20
91.79748841842124
 30
0.0
 10
152.9919366044938
 20
91.79748841842124
 30
0.0
 10
153.0347169786022
 20
91.79748841842125
 30
0.0
 10
153.1470546382484
 20
91.79748841842125
 30
0.0
 10
153.2021018203909
 20
91.79748841842125
 30
0.0
 10
153.3459785941609
 20
91.79748841842125
 30
0.0
 10
153.409007907436
 20
91.79748841842125
 30
0.0
 10
153.4558508055644
 20
91.79748841842125
 30
0.0
  0
LINE
  5
1A4
330
1F
100
AcDbEntity
  8
0
  6
HIDDEN
 62
     7
370
     0
100
AcDbLine
 10
150.5335256079
 20
144.5974884184
 30
0.0
 11
152.7535256079
 21
144.5974884184
 31
0.0
  0
LINE
  5
1A5
330
1F
100
AcDbEntity
  8
0
  6
HIDDEN
 62
     7
370
     0
100
AcDbLine
 10
150.5335256079
 20
91.7974884184
 30
0.0
 11
152.7535256079
 21
91.7974884184
 31
0.0
  0
SPLINE
  5
1A6
330
1F
100
AcDbEntity
  8
0
  6
HIDDEN
 62
     7
370
     0
100
AcDbSpline
210
0.0
220
0.0
230
1.0
 70
     8
 71
     3
 72
     8
 73
     4
 74
     0
 42
0.00000001
 43
0.00000001
 12
1.0
 22
0.0
 32
0.0
 13
1.0
 23
0.0
 33
0.0
 40
0.0
 40
0.0
 40
0.0
 40
0.0
 40
1.0
 40
1.0
 40
1.0
 40
1.0
 10
153.5535256078967
 20
146.0027226095929
 30
0.0
 10
154.0462357047425
 20
146.8907416077193
 30
0.0
 10
154.5403184100214
 20
147.7780042434053
 30
0.0
 10
155.0354584393857
 20
148.6646838915855
 30
0.0
  0
LINE
  5
1A7
330
1F
100
AcDbEntity
  8
0
  6
HIDDEN
 62
     7
370
     0
100
AcDbLine
 10
155.0354584394
 20
148.6646838916
 30
0.0
 11
158.9935256079
 21
148.6646838916
 31
0.0
  0
SPLINE
  5
1A8
330
1F
100
AcDbEntity
  8
0
  6
HIDDEN
 62
     7
370
     0
100
AcDbSpline
210
0.0
220
0.0
230
1.0
 70
     8
 71
     3
 72
    12
 73
     8
 74
     0
 42
0.00000001
 43
0.00000001
 12
1.0
 22
0.0
 32
0.0
 13
1.0
 23
0.0
 33
0.0
 40
0.0
 40
0.0
 40
0.0
 40
0.0
 40
0.250000000000002
 40
0.250000000000002
 40
0.500000000000004
 40
0.500000000000004
 40
1.0
 40
1.0
 40
1.0
 40
1.0
 10
158.9935256078967
 20
148.6646838915855
 30
0.0
 10
159.073018556945
 20
148.6646838915855
 30
0.0
 10
159.1541020583005
 20
148.6476811416247
 30
0.0
 10
159.3005324554383
 20
148.5836206005131
 30
0.0
 10
159.367081065312
 20
148.5364619848745
 30
0.0
 10
159.5313709392857
 20
148.3632399521822
 30
0.0
 10
159.5935256078969
 20
148.203130861948
 30
0.0
 10
159.5935256078967
 20
148.0439287421846
 30
0.0
  0
SPLINE
  5
1A9
330
1F
100
AcDbEntity
  8
0
  6
HIDDEN
 62
     7
370
     0
100
AcDbSpline
210
0.0
220
0.0
230
1.0
 70
     8
 71
     3
 72
    12
 73
     8
 74
     0
 42
0.00000001
 43
0.00000001
 12
1.0
 22
0.0
 32
0.0
 13
1.0
 23
0.0
 33
0.0
 40
0.0
 40
0.0
 40
0.0
 40
0.0
 40
0.249999999999998
 40
0.249999999999998
 40
0.499999999999996
 40
0.499999999999996
 40
1.0
 40
1.0
 40
1.0
 40
1.0
 10
158.9935256078967
 20
88.01057072217411
 30
0.0
 10
159.0734066126438
 20
88.01057072217412
 30
0.0
 10
159.1540007429144
 20
88.02768780843998
 30
0.0
 10
159.3006161887593
 20
88.09242391991506
 30
0.0
 10
159.3671173815033
 20
88.13988116279539
 30
0.0
 10
159.5328522826405
 20
88.31670560533487
 30
0.0
 10
159.5935256078967
 20
88.47698211254058
 30
0.0
 10
159.5935256078967
 20
88.63721101782836
 30
0.0
  0
LINE
  5
1AA
330
1F
100
AcDbEntity
  8
0
  6
HIDDEN
 62
     7
370
     0
100
AcDbLine
 10
159.5935256079
 20
148.0439287422
 30
0.0
 11
159.5935256079
 21
88.6372110178
 31
0.0
  0
SPLINE
  5
1AB
330
1F
100
AcDbEntity
  8
0
  6
HIDDEN
 62
     7
370
     0
100
AcDbSpline
210
0.0
220
0.0
230
1.0
 70
     8
 71
     3
 72
     8
 73
     4
 74
     0
 42
0.00000001
 43
0.00000001
 12
1.0
 22
0.0
 32
0.0
 13
1.0
 23
0.0
 33
0.0
 40
0.0
 40
0.0
 40
0.0
 40
0.0
 40
1.0
 40
1.0
 40
1.0
 40
1.0
 10
148.2515927764076
 20
148.6646838915855
 30
0.0
 10
148.746732805772
 20
147.7780042434053
 30
0.0
 10
149.2408155110509
 20
146.8907416077193
 30
0.0
 10
149.7335256078967
 20
146.0027226095929
 30
0.0
  0
LINE
  5
1AC
330
1F
100
AcDbEntity
  8
0
  6
HIDDEN
 62
     7
370
     0
100
AcDbLine
 10
153.5535256079
 20
146.0027226096
 30
0.0
 11
153.5535256079
 21
90.6996512594
 31
0.0
  0
LINE
  5
1AD
330
1F
100
AcDbEntity
  8
0
  6
HIDDEN
 62
     7
370
     0
100
AcDbLine
 10
155.0354584394
 20
148.6646838916
 30
0.0
 11
155.0354584394
 21
88.0105707222
 31
0.0
  0
LINE
  5
1AE
330
1F
100
AcDbEntity
  8
0
  6
HIDDEN
 62
     7
370
     0
100
AcDbLine
 10
149.7335256079
 20
146.0027226096
 30
0.0
 11
149.7335256079
 21
90.6996512594
 31
0.0
  0
LINE
  5
1AF
330
1F
100
AcDbEntity
  8
0
  6
HIDDEN
 62
     7
370
     0
100
AcDbLine
 10
101.7435256079
 20
138.1735489231
 30
0.0
 11
101.7435256079
 21
98.2383706564
 31
0.0
  0
SPLINE
  5
1B0
330
1F
100
AcDbEntity
  8
0
  6
HIDDEN
 62
     7
370
     0
100
AcDbSpline
210
0.0
220
0.0
230
1.0
 70
     8
 71
     3
 72
     8
 73
     4
 74
     0
 42
0.00000001
 43
0.00000001
 12
1.0
 22
0.0
 32
0.0
 13
1.0
 23
0.0
 33
0.0
 40
0.0
 40
0.0
 40
0.0
 40
0.0
 40
1.0
 40
1.0
 40
1.0
 40
1.0
 10
153.5535256078967
 20
90.69965125936638
 30
0.0
 10
154.0458647306779
 20
89.80238122515968
 30
0.0
 10
154.53997877872
 20
88.90609681010744
 30
0.0
 10
155.0354584393857
 20
88.0105707221741
 30
0.0
  0
LINE
  5
1B1
330
1F
100
AcDbEntity
  8
0
  6
HIDDEN
 62
     7
370
     0
100
AcDbLine
 10
155.0354584394
 20
88.0105707222
 30
0.0
 11
158.9935256079
 21
88.0105707222
 31
0.0
  0
SPLINE
  5
1B2
330
1F
100
AcDbEntity
  8
0
  6
HIDDEN
 62
     7
370
     0
100
AcDbSpline
210
0.0
220
0.0
230
1.0
 70
     8
 71
     3
 72
     8
 73
     4
 74
     0
 42
0.00000001
 43
0.00000001
 12
1.0
 22
0.0
 32
0.0
 13
1.0
 23
0.0
 33
0.0
 40
0.0
 40
0.0
 40
0.0
 40
0.0
 40
1.0
 40
1.0
 40
1.0
 40
1.0
 10
148.2515927764076
 20
88.01057072217411
 30
0.0
 10
148.7470724370734
 20
88.90609681010744
 30
0.0
 10
149.2411864851155
 20
89.80238122515969
 30
0.0
 10
149.7335256078967
 20
90.69965125936638
 30
0.0
  0
LWPOLYLINE
  5
1B3
330
1F
100
AcDbEntity
  8
0
  6
HIDDEN
 62
     7
370
     0
100
AcDbPolyline
 90
       20
 70
   128
 43
0.0
 10
231.6435256079
 20
120.1460850489
 10
232.4552742809
 20
120.2749122123
 10
233.1790573896
 20
120.6474332803
 10
233.7364418036
 20
121.223279815
 10
234.0670262727
 20
121.9400499092
 10
234.1349868404
 20
122.7200704012
 10
233.9329589245
 20
123.4788139676
 10
233.4828353846
 20
124.1340589698
 10
232.8333940905
 20
124.6147994447
 10
232.0550120836
 20
124.8689397022
 10
231.2320391322
 20
124.8689397022
 10
230.4536571253
 20
124.6147994447
 10
229.8042158312
 20
124.1340589698
 10
229.3540922913
 20
123.4788139676
 10
229.1520643754
 20
122.7200704012
 10
229.220024943
 20
121.9400499092
 10
229.5506094122
 20
121.223279815
 10
230.1079938262
 20
120.6474332803
 10
230.8317769349
 20
120.2749122123
 10
231.6435256079
 20
120.1460850489
  0
SPLINE
  5
1B4
330
1F
100
AcDbEntity
  8
0
  6
HIDDEN
 62
     7
370
     0
100
AcDbSpline
210
0.0
220
0.0
230
1.0
 70
     8
 71
     3
 72
    26
 73
    22
 74
     0
 42
0.00000001
 43
0.00000001
 12
1.0
 22
0.0
 32
0.0
 13
1.0
 23
0.0
 33
0.0
 40
0.0
 40
0.0
 40
0.0
 40
0.0
 40
0.2499999999999695
 40
0.2499999999999695
 40
0.3749999999999608
 40
0.3749999999999608
 40
0.437499999999964
 40
0.437499999999964
 40
0.4687499999999718
 40
0.4687499999999718
 40
0.4999999999999796
 40
0.4999999999999796
 40
0.5312499999999875
 40
0.5312499999999875
 40
0.5624999999999952
 40
0.5624999999999952
 40
0.6249999999999956
 40
0.6249999999999956
 40
0.7499999999999964
 40
0.7499999999999964
 40
1.0
 40
1.0
 40
1.0
 40
1.0
 10
268.2684753113233
 20
98.17118938776542
 30
0.0
 10
267.985754347588
 20
98.35357680826704
 30
0.0
 10
267.7057101200871
 20
98.54043606663673
 30
0.0
 10
267.2889967585201
 20
98.82707421833223
 30
0.0
 10
267.1508054519269
 20
98.92377677017937
 30
0.0
 10
266.9425834495695
 20
99.06928213276731
 30
0.0
 10
266.8731887856396
 20
99.11798817001292
 30
0.0
 10
266.7663016739341
 20
99.18939000351904
 30
0.0
 10
266.7302454152573
 20
99.21303598038591
 30
0.0
 10
266.654358398119
 20
99.2568508338798
 30
0.0
 10
266.6132677019497
 20
99.27913395434373
 30
0.0
 10
266.5173661397122
 20
99.29451906866583
 30
0.0
 10
266.4696736972477
 20
99.28385500648677
 30
0.0
 10
266.3846640633362
 20
99.2588952123841
 30
0.0
 10
266.3440652688345
 20
99.24365389676089
 30
0.0
 10
266.2237969757554
 20
99.19716923371114
 30
0.0
 10
266.1455784094584
 20
99.164321332634
 30
0.0
 10
265.9110227621515
 20
99.06615444385834
 30
0.0
 10
265.7555627122402
 20
99.00040821623375
 30
0.0
 10
265.2882018441315
 20
98.80609024164724
 30
0.0
 10
264.9758851147749
 20
98.67983972265557
 30
0.0
 10
264.6622054167487
 20
98.55738662399959
 30
0.0
  0
SPLINE
  5
1B5
330
1F
100
AcDbEntity
  8
0
  6
HIDDEN
 62
     7
370
     0
100
AcDbSpline
210
0.0
220
0.0
230
1.0
 70
     8
 71
     3
 72
     9
 73
     5
 74
     0
 42
0.00000001
 43
0.00000001
 12
1.0
 22
0.0
 32
0.0
 13
1.0
 23
0.0
 33
0.0
 40
0.0
 40
0.0
 40
0.0
 40
0.0
 40
0.4944396853672309
 40
1.0
 40
1.0
 40
1.0
 40
1.0
 10
271.9159530331034
 20
103.2462743017729
 30
0.0
 10
271.8066313444938
 20
103.0489103869234
 30
0.0
 10
271.5855291719842
 20
102.6497435710498
 30
0.0
 10
271.3569890130407
 20
102.2547878974005
 30
0.0
 10
271.2414481783789
 20
102.0551139827644
 30
0.0
  0
SPLINE
  5
1B6
330
1F
100
AcDbEntity
  8
0
  6
HIDDEN
 62
     7
370
     0
100
AcDbSpline
210
0.0
220
0.0
230
1.0
 70
     8
 71
     3
 72
     8
 73
     4
 74
     0
 42
0.00000001
 43
0.00000001
 12
1.0
 22
0.0
 32
0.0
 13
1.0
 23
0.0
 33
0.0
 40
0.0
 40
0.0
 40
0.0
 40
0.0
 40
1.0
 40
1.0
 40
1.0
 40
1.0
 10
252.0547527208513
 20
104.9438847892224
 30
0.0
 10
258.4397176513401
 20
103.9150019311165
 30
0.0
 10
264.8359447209518
 20
102.9656645846135
 30
0.0
 10
271.2383662823086
 20
102.0600794959711
 30
0.0
  0
CIRCLE
  5
1B7
330
1F
100
AcDbEntity
  8
0
  6
HIDDEN
 62
     7
370
     0
100
AcDbCircle
 10
140.6435256079
 20
118.1974884184
 30
0.0
 40
5.0
  0
LINE
  5
1B8
330
1F
100
AcDbEntity
  8
0
  6
HIDDEN
 62
     7
370
     0
100
AcDbLine
 10
133.6435256079
 20
92.8735644973
 30
0.0
 11
133.7376864491
 21
93.5435536961
 31
0.0
  0
LINE
  5
1B9
330
1F
100
AcDbEntity
  8
0
  6
HIDDEN
 62
     7
370
     0
100
AcDbLine
 10
133.7376864491
 20
142.8514231407
 30
0.0
 11
133.6435256079
 21
143.5214123395
 31
0.0
  0
ARC
  5
1BA
330
1F
100
AcDbEntity
  8
0
  6
HIDDEN
 62
     7
370
     0
100
AcDbCircle
 10
133.1435256079
 20
93.6270575567
 30
0.0
 40
0.6000000000000227
100
AcDbArc
 50
352.0
 51
0.0
  0
ARC
  5
1BB
330
1F
100
AcDbEntity
  8
0
  6
HIDDEN
 62
     7
370
     0
100
AcDbCircle
 10
133.1435256079
 20
93.6270575567
 30
0.0
 40
0.6000000000000227
100
AcDbArc
 50
0.0
 51
33.5573097619
  0
ARC
  5
1BC
330
1F
100
AcDbEntity
  8
0
  6
HIDDEN
 62
     7
370
     0
100
AcDbCircle
 10
133.1435256079
 20
142.7679192801
 30
0.0
 40
0.6000000000000212
100
AcDbArc
 50
348.75
 51
8.0
  0
LWPOLYLINE
  5
1BD
330
1F
100
AcDbEntity
  8
0
  6
HIDDEN
 62
     7
370
     0
100
AcDbPolyline
 90
        3
 70
   128
 43
0.0
 10
133.7319967761
 20
142.6508650869
 10
133.6978533274
 20
142.5383092207
 10
133.6435256079
 20
142.4362568011
  0
LINE
  5
1BE
330
1F
100
AcDbEntity
  8
0
  6
HIDDEN
 62
     7
370
     0
100
AcDbLine
 10
133.7435256079
 20
93.6270575567
 30
0.0
 11
133.7435256079
 21
142.7679192801
 31
0.0
  0
LINE
  5
1BF
330
1F
100
AcDbEntity
  8
0
  6
HIDDEN
 62
     7
370
     0
100
AcDbLine
 10
133.7435256079
 20
93.6270575567
 30
0.0
 11
133.7435256079
 21
142.7679192801
 31
0.0
  0
LINE
  5
1C0
330
1F
100
AcDbEntity
  8
0
  6
HIDDEN
 62
     7
370
     0
100
AcDbLine
 10
116.7259611732
 20
98.1974884184
 30
0.0
 11
120.8966429891
 21
98.1974884184
 31
0.0
  0
LINE
  5
1C1
330
1F
100
AcDbEntity
  8
0
  6
HIDDEN
 62
     7
370
     0
100
AcDbLine
 10
120.9034977496
 20
138.1974884184
 30
0.0
 11
116.7259611732
 21
138.1974884184
 31
0.0
  0
ARC
  5
1C2
330
1F
100
AcDbEntity
  8
0
  6
HIDDEN
 62
     7
370
     0
100
AcDbCircle
 10
116.7259611732
 20
98.7974884184
 30
0.0
 40
0.6000000000000085
100
AcDbArc
 50
210.0
 51
270.0
  0
ARC
  5
1C3
330
1F
100
AcDbEntity
  8
0
  6
HIDDEN
 62
     7
370
     0
100
AcDbCircle
 10
116.7259611732
 20
137.5974884184
 30
0.0
 40
0.6000000000000227
100
AcDbArc
 50
90.0
 51
150.0
  0
ARC
  5
1C4
330
1F
100
AcDbEntity
  8
0
  6
HIDDEN
 62
     7
370
     0
100
AcDbCircle
 10
127.3985276095
 20
106.1974884184
 30
0.0
 40
8.000000000000007
100
AcDbArc
 50
277.1597818233
 51
321.3178125465
  0
ARC
  5
1C5
330
1F
100
AcDbEntity
  8
0
  6
HIDDEN
 62
     7
370
     0
100
AcDbCircle
 10
127.3985276095
 20
130.1974884184
 30
0.0
 40
7.999999999999993
100
AcDbArc
 50
38.6821874535
 51
82.9374994711
  0
LINE
  5
1C6
330
1F
100
AcDbEntity
  8
0
  6
HIDDEN
 62
     7
370
     0
100
AcDbLine
 10
116.2063459309
 20
137.8974884184
 30
0.0
 11
114.6475002041
 21
135.1974884184
 31
0.0
  0
LINE
  5
1C7
330
1F
100
AcDbEntity
  8
0
  6
HIDDEN
 62
     7
370
     0
100
AcDbLine
 10
114.6475002041
 20
101.1974884184
 30
0.0
 11
116.2063459309
 21
98.4974884184
 31
0.0
  0
ARC
  5
1C8
330
1F
100
AcDbEntity
  8
0
  6
HIDDEN
 62
     7
370
     0
100
AcDbCircle
 10
142.0935256079
 20
102.4724884184
 30
0.0
 40
1.500000000000001
100
AcDbArc
 50
238.2116693829
 51
0.0
  0
ARC
  5
1C9
330
1F
100
AcDbEntity
  8
0
  6
HIDDEN
 62
     7
370
     0
100
AcDbCircle
 10
142.0935256079
 20
133.9224884184
 30
0.0
 40
1.500000000000025
100
AcDbArc
 50
0.0
 51
121.7883306171
  0
LINE
  5
1CA
330
1F
100
AcDbEntity
  8
0
  6
HIDDEN
 62
     7
370
     0
100
AcDbLine
 10
133.6435256079
 20
101.1974884184
 30
0.0
 11
141.3033515764
 21
101.1974884184
 31
0.0
  0
LINE
  5
1CB
330
1F
100
AcDbEntity
  8
0
  6
HIDDEN
 62
     7
370
     0
100
AcDbLine
 10
141.3033515764
 20
135.1974884184
 30
0.0
 11
133.6435256079
 21
135.1974884184
 31
0.0
  0
LINE
  5
1CC
330
1F
100
AcDbEntity
  8
0
  6
HIDDEN
 62
     7
370
     0
100
AcDbLine
 10
111.8435256079
 20
101.1974884184
 30
0.0
 11
114.6475002041
 21
101.1974884184
 31
0.0
  0
LINE
  5
1CD
330
1F
100
AcDbEntity
  8
0
  6
HIDDEN
 62
     7
370
     0
100
AcDbLine
 10
114.6475002041
 20
135.1974884184
 30
0.0
 11
107.8435256079
 21
135.1974884184
 31
0.0
  0
LINE
  5
1CE
330
1F
100
AcDbEntity
  8
0
  6
HIDDEN
 62
     7
370
     0
100
AcDbLine
 10
230.2935199187
 20
117.5226762483
 30
0.0
 11
228.4749513293
 21
116.345664403
 31
0.0
  0
LINE
  5
1CF
330
1F
100
AcDbEntity
  8
0
  6
HIDDEN
 62
     7
370
     0
100
AcDbLine
 10
228.4749513293
 20
116.345664403
 30
0.0
 11
228.4323612827
 21
114.1798540036
 31
0.0
  0
LINE
  5
1D0
330
1F
100
AcDbEntity
  8
0
  6
HIDDEN
 62
     7
370
     0
100
AcDbLine
 10
238.2126690888
 20
113.3276124664
 30
0.0
 11
230.5665667708
 21
117.5846768028
 31
0.0
  0
LINE
  5
1D1
330
1F
100
AcDbEntity
  8
0
  6
HIDDEN
 62
     7
370
     0
100
AcDbLine
 10
228.5234824447
 20
113.9150982934
 30
0.0
 11
238.2822968318
 21
108.4817547459
 31
0.0
  0
LINE
  5
1D2
330
1F
100
AcDbEntity
  8
0
  6
HIDDEN
 62
     7
370
     0
100
AcDbLine
 10
233.7435256079
 20
114.9882308813
 30
0.0
 11
233.7435256079
 21
116.9006784344
 31
0.0
  0
LINE
  5
1D3
330
1F
100
AcDbEntity
  8
0
  6
HIDDEN
 62
     7
370
     0
100
AcDbLine
 10
229.5435256079
 20
116.900116334
 30
0.0
 11
229.5435256079
 21
114.8163553577
 31
0.0
  0
LINE
  5
1D4
330
1F
100
AcDbEntity
  8
0
  6
HIDDEN
 62
     7
370
     0
100
AcDbLine
 10
152.9435256079
 20
108.6974884184
 30
0.0
 11
155.4435256079
 21
108.6974884184
 31
0.0
  0
LINE
  5
1D5
330
1F
100
AcDbEntity
  8
0
  6
HIDDEN
 62
     7
370
     0
100
AcDbLine
 10
155.4435256079
 20
127.6974884184
 30
0.0
 11
152.9435256079
 21
127.6974884184
 31
0.0
  0
LINE
  5
1D6
330
1F
100
AcDbEntity
  8
0
  6
HIDDEN
 62
     7
370
     0
100
AcDbLine
 10
143.5935256079
 20
109.1974884184
 30
0.0
 11
144.0935256079
 21
109.6974884184
 31
0.0
  0
LINE
  5
1D7
330
1F
100
AcDbEntity
  8
0
  6
HIDDEN
 62
     7
370
     0
100
AcDbLine
 10
144.0935256079
 20
126.6974884184
 30
0.0
 11
143.5935256079
 21
127.1974884184
 31
0.0
  0
LINE
  5
1D8
330
1F
100
AcDbEntity
  8
0
  6
HIDDEN
 62
     7
370
     0
100
AcDbLine
 10
144.0935256079
 20
109.6974884184
 30
0.0
 11
152.9435256079
 21
109.6974884184
 31
0.0
  0
LINE
  5
1D9
330
1F
100
AcDbEntity
  8
0
  6
HIDDEN
 62
     7
370
     0
100
AcDbLine
 10
152.9435256079
 20
126.6974884184
 30
0.0
 11
144.0935256079
 21
126.6974884184
 31
0.0
  0
LINE
  5
1DA
330
1F
100
AcDbEntity
  8
0
  6
HIDDEN
 62
     7
370
     0
100
AcDbLine
 10
138.5935256079
 20
149.6974884184
 30
0.0
 11
138.5935256079
 21
144.5974884184
 31
0.0
  0
LINE
  5
1DB
330
1F
100
AcDbEntity
  8
0
  6
HIDDEN
 62
     7
370
     0
100
AcDbLine
 10
128.8279634384
 20
94.1181170849
 30
0.0
 11
128.3935312889
 21
94.597183104
 31
0.0
  0
LINE
  5
1DC
330
1F
100
AcDbEntity
  8
0
  6
HIDDEN
 62
     7
370
     0
100
AcDbLine
 10
120.8935279638
 20
95.0188710631
 30
0.0
 11
120.4110942205
 21
94.5398050877
 31
0.0
  0
LINE
  5
1DD
330
1F
100
AcDbEntity
  8
0
  6
HIDDEN
 62
     7
370
     0
100
AcDbLine
 10
120.4109722922
 20
141.8551664587
 30
0.0
 11
120.8935230432
 21
141.3760462008
 31
0.0
  0
LINE
  5
1DE
330
1F
100
AcDbEntity
  8
0
  6
HIDDEN
 62
     7
370
     0
100
AcDbLine
 10
128.3935254899
 20
141.7977439785
 30
0.0
 11
128.8280678802
 21
142.2768642291
 31
0.0
  0
LINE
  5
1DF
330
1F
100
AcDbEntity
  8
0
  6
HIDDEN
 62
     7
370
     0
100
AcDbLine
 10
234.6435256079
 20
113.9974884184
 30
0.0
 11
237.1671402078
 21
118.1974884184
 31
0.0
  0
LINE
  5
1E0
330
1F
100
AcDbEntity
  8
0
  6
HIDDEN
 62
     7
370
     0
100
AcDbLine
 10
237.1671402078
 20
118.1974884184
 30
0.0
 11
234.6435256079
 21
122.3974884184
 31
0.0
  0
LINE
  5
1E1
330
1F
100
AcDbEntity
  8
0
  6
HIDDEN
 62
     7
370
     0
100
AcDbLine
 10
155.4435256079
 20
113.9974884184
 30
0.0
 11
234.6435256079
 21
113.9974884184
 31
0.0
  0
LINE
  5
1E2
330
1F
100
AcDbEntity
  8
0
  6
HIDDEN
 62
     7
370
     0
100
AcDbLine
 10
234.6435256079
 20
122.3974884184
 30
0.0
 11
155.4435256079
 21
122.3974884184
 31
0.0
  0
LINE
  5
1E3
330
1F
100
AcDbEntity
  8
0
  6
HIDDEN
 62
     7
370
     0
100
AcDbLine
 10
128.3935256079
 20
94.4971235585
 30
0.0
 11
128.3935256079
 21
98.2596522278
 31
0.0
  0
LINE
  5
1E4
330
1F
100
AcDbEntity
  8
0
  6
HIDDEN
 62
     7
370
     0
100
AcDbLine
 10
120.8935256079
 20
98.1980726797
 30
0.0
 11
120.8935256079
 21
95.0191943009
 31
0.0
  0
LINE
  5
1E5
330
1F
100
AcDbEntity
  8
0
  6
HIDDEN
 62
     7
370
     0
100
AcDbLine
 10
128.3935256079
 20
138.1345612445
 30
0.0
 11
128.3935256079
 21
141.8977744792
 31
0.0
  0
LINE
  5
1E6
330
1F
100
AcDbEntity
  8
0
  6
HIDDEN
 62
     7
370
     0
100
AcDbLine
 10
120.8935256079
 20
141.3757910096
 30
0.0
 11
120.8935256079
 21
138.1956261728
 31
0.0
  0
LINE
  5
1E7
330
1F
100
AcDbEntity
  8
0
  6
HIDDEN
 62
     7
370
     0
100
AcDbLine
 10
262.8727900567
 20
104.3689123198
 30
0.0
 11
262.8727900567
 21
104.3717025787
 31
0.0
  0
LINE
  5
1E8
330
1F
100
AcDbEntity
  8
0
  6
HIDDEN
 62
     7
370
     0
100
AcDbLine
 10
258.6727900567
 20
104.3717025787
 30
0.0
 11
258.6727900567
 21
104.0577984469
 31
0.0
  0
LINE
  5
1E9
330
1F
100
AcDbEntity
  8
0
  6
HIDDEN
 62
     7
370
     0
100
AcDbLine
 10
233.7435256079
 20
119.4948605028
 30
0.0
 11
233.7435256079
 21
122.4494558827
 31
0.0
  0
LINE
  5
1EA
330
1F
100
AcDbEntity
  8
0
  6
HIDDEN
 62
     7
370
     0
100
AcDbLine
 10
229.5435256079
 20
122.4494558827
 30
0.0
 11
229.5435256079
 21
119.4942984024
 31
0.0
  0
ARC
  5
1EB
330
1F
100
AcDbEntity
  8
0
  6
HIDDEN
 62
     7
370
     0
100
AcDbCircle
 10
106.4435256079
 20
140.4674884184
 30
0.0
 40
1.400000000000034
100
AcDbArc
 50
270.0
 51
301.7485287426
  0
ARC
  5
1EC
330
1F
100
AcDbEntity
  8
0
  6
HIDDEN
 62
     7
370
     0
100
AcDbCircle
 10
110.4435256079
 20
95.9849884184
 30
0.0
 40
1.399999999999999
100
AcDbArc
 50
37.6443616934
 51
90.0
  0
LINE
  5
1ED
330
1F
100
AcDbEntity
  8
0
  6
HIDDEN
 62
     7
370
     0
100
AcDbLine
 10
268.6783642585
 20
98.6402610312
 30
0.0
 11
268.6783642585
 21
99.4145578898
 31
0.0
  0
LINE
  5
1EE
330
1F
100
AcDbEntity
  8
0
  6
HIDDEN
 62
     7
370
     0
100
AcDbLine
 10
264.4783642585
 20
99.4145578898
 30
0.0
 11
264.4783642585
 21
98.6402610312
 31
0.0
  0
LINE
  5
1EF
330
1F
100
AcDbEntity
  8
0
  6
HIDDEN
 62
     7
370
     0
100
AcDbLine
 10
106.4435256079
 20
139.0674884184
 30
0.0
 11
103.0344140093
 21
139.0674884184
 31
0.0
  0
LINE
  5
1F0
330
1F
100
AcDbEntity
  8
0
  6
HIDDEN
 62
     7
370
     0
100
AcDbLine
 10
102.8770657635
 20
139.0579853228
 30
0.0
 11
102.8763942886
 21
139.0575976466
 31
0.0
  0
LINE
  5
1F1
330
1F
100
AcDbEntity
  8
0
  6
HIDDEN
 62
     7
370
     0
100
AcDbLine
 10
102.8935256079
 20
97.3849884184
 30
0.0
 11
110.4435256079
 21
97.3849884184
 31
0.0
  0
LINE
  5
1F2
330
1F
100
AcDbEntity
  8
0
  6
HIDDEN
 62
     7
370
     0
100
AcDbLine
 10
101.9144656729
 20
97.9502489355
 30
0.0
 11
102.8935256079
 21
97.3849884184
 31
0.0
  0
LINE
  5
1F3
330
1F
100
AcDbEntity
  8
0
  6
HIDDEN
 62
     7
370
     0
100
AcDbLine
 10
234.1435256079
 20
122.5237263397
 30
0.0
 11
234.1435256079
 21
124.3775118683
 31
0.0
  0
LINE
  5
1F4
330
1F
100
AcDbEntity
  8
0
  6
HIDDEN
 62
     7
370
     0
100
AcDbLine
 10
229.1435256079
 20
124.3778164094
 30
0.0
 11
229.1435256079
 21
122.5237263397
 31
0.0
  0
LINE
  5
1F5
330
1F
100
AcDbEntity
  8
VERMASSUNG
100
AcDbLine
 10
273.6435256079
 20
118.272800323
 30
0.0
 11
273.6435256079
 21
91.2158991929
 31
0.0
  0
LINE
  5
1F6
330
1F
100
AcDbEntity
  8
VERMASSUNG
100
AcDbLine
 10
273.6435256079
 20
91.1974884184
 30
0.0
 11
286.354545247
 21
91.1974884184
 31
0.0
  0
DIMENSION
  5
1F7
330
1F
100
AcDbEntity
  8
VERMASSUNG
100
AcDbDimension
  2
_D
 10
288.7067254052
 20
91.1974884184
 30
0.0
 11
288.7067254052
 21
104.6974884184
 31
0.0
 70
   160
  1
<>
 71
     2
 42
-1.0
  3
SLDDIMSTYLE0
100
AcDbAlignedDimension
 13
274.5729491294
 23
118.1974884184
 33
0.0
 14
286.354545247
 24
91.1974884184
 34
0.0
 50
90.0
100
AcDbRotatedDimension
  0
DIMENSION
  5
202
330
1F
100
AcDbEntity
  8
VERMASSUNG
100
AcDbDimension
  2
_D_1
 10
273.6019783401
 20
91.6712190606
 30
0.0
 11
280.4973988111
 21
98.6787705333
 31
0.0
 70
   162
  1
<>
 71
     1
 42
-1.0
  3
SLDDIMSTYLE1
100
AcDb2LineAngularDimension
 13
286.354545247
 23
91.1974884184
 33
0.0
 14
273.6435256079
 24
91.1974884184
 34
0.0
 15
272.5488252393
 25
103.6794911082
 35
0.0
 16
280.4973988111
 26
98.6787705333
 36
0.0
  0
DIMENSION
  5
20B
330
1F
100
AcDbEntity
  8
VERMASSUNG
100
AcDbDimension
  2
_D_2
 10
273.6435256079
 20
75.1695977371
 30
0.0
 11
203.6435256079
 21
75.1695977371
 31
0.0
 70
   160
  1
<>
 71
     2
 42
-1.0
  3
SLDDIMSTYLE0
100
AcDbAlignedDimension
 13
133.6435256079
 23
86.9974884184
 33
0.0
 14
273.6435256079
 24
91.2158991929
 34
0.0
100
AcDbRotatedDimension
  0
DIMENSION
  5
215
330
1F
100
AcDbEntity
  8
VERMASSUNG
100
AcDbDimension
  2
_D_3
 10
273.6435256079
 20
62.1269980906
 30
0.0
 11
187.6935256079
 21
62.1269980906
 31
0.0
 70
   160
  1
<>
 71
     2
 42
-1.0
  3
SLDDIMSTYLE0
100
AcDbAlignedDimension
 13
101.7435256079
 23
98.2383706564
 33
0.0
 14
273.6435256079
 24
91.2158991929
 34
0.0
 50
0.0
100
AcDbRotatedDimension
  0
DIMENSION
  5
21F
330
1F
100
AcDbEntity
  8
VERMASSUNG
100
AcDbDimension
  2
_D_4
 10
95.2829666283
 20
86.6974884184
 30
0.0
 11
95.2829666283
 21
118.1974884184
 31
0.0
 70
   160
  1
HSK %%c<>
 71
     2
 42
-1.0
  3
SLDDIMSTYLE0
100
AcDbAlignedDimension
 13
133.9435256079
 23
149.6974884184
 33
0.0
 14
133.9435256079
 24
86.6974884184
 34
0.0
 50
90.0
100
AcDbRotatedDimension
  0
DIMENSION
  5
22B
330
1F
100
AcDbEntity
  8
VERMASSUNG
100
AcDbDimension
  2
_D_5
 10
182.2559615874
 20
138.1974884184
 30
0.0
 11
182.2559615874
 21
107.8842251766
 31
0.0
 70
   160
  1
%%c<>
 71
     2
 42
-1.0
  3
SLDDIMSTYLE0
100
AcDbAlignedDimension
 13
162.5935256079
 23
98.1974884184
 33
0.0
 14
162.5935256079
 24
138.1974884184
 34
0.0
 50
90.0
100
AcDbRotatedDimension
  0
LINE
  5
234
330
1F
100
AcDbEntity
  8
VERMASSUNG
  6
CENTERX2
370
     0
100
AcDbLine
 10
99.924789209
 20
118.1974884184
 30
0.0
 11
274.5729491294
 21
118.1974884184
 31
0.0
  0
LINE
  5
235
330
1F
100
AcDbEntity
  8
0
  6
Continuous
 62
     7
370
    15
100
AcDbLine
 10
49.2408086886
 20
91.2374153795
 30
0.0
 11
52.4627090319
 21
91.8636906954
 31
0.0
  0
LINE
  5
236
330
1F
100
AcDbEntity
  8
0
  6
Continuous
 62
     7
370
    15
100
AcDbLine
 10
48.5736777893
 20
105.078507966
 30
0.0
 11
48.2718390533
 21
105.0943274113
 31
0.0
  0
LINE
  5
237
330
1F
100
AcDbEntity
  8
0
  6
Continuous
 62
     7
370
    15
100
AcDbLine
 10
53.1334878298
 20
103.8069061997
 30
0.0
 11
51.623008808
 21
103.8719618755
 31
0.0
  0
LINE
  5
238
330
1F
100
AcDbEntity
  8
0
  6
Continuous
 62
     7
370
    15
100
AcDbLine
 10
53.9471564236
 20
92.1709004851
 30
0.0
 11
53.1334878298
 21
103.8069061997
 31
0.0
  0
LINE
  5
239
330
1F
100
AcDbEntity
  8
0
  6
Continuous
 62
     7
370
    15
100
AcDbLine
 10
53.9471564236
 20
92.1709004851
 30
0.0
 11
52.4627090319
 21
91.8636906954
 31
0.0
  0
LINE
  5
23A
330
1F
100
AcDbEntity
  8
0
  6
Continuous
 62
     7
370
    15
100
AcDbLine
 10
49.2104742272
 20
91.6712198468
 30
0.0
 11
48.3707740324
 21
103.6794910269
 31
0.0
  0
LWPOLYLINE
  5
23B
330
1F
100
AcDbEntity
  8
0
  6
Continuous
 62
     7
370
    15
100
AcDbPolyline
 90
        9
 70
   128
 43
0.0
 10
49.2408086886
 20
91.2374153795
 10
49.2405699781
 20
91.240829608
 10
49.2391259565
 20
91.2614807548
 10
49.2364389044
 20
91.2999071242
 10
49.2326362093
 20
91.3542870494
 10
49.2278981503
 20
91.422044492
 10
49.2224493475
 20
91.4999663891
 10
49.2165481184
 20
91.5843591156
 10
49.2104742272
 20
91.6712198468
  0
LWPOLYLINE
  5
23C
330
1F
100
AcDbEntity
  8
0
  6
Continuous
 62
     7
370
    15
100
AcDbPolyline
 90
        9
 70
   128
 43
0.0
 10
48.3707740324
 20
103.6794910269
 10
48.3659841822
 20
103.7479888709
 10
48.3614137749
 20
103.8133490892
 10
48.3572016357
 20
103.8735851707
 10
48.3534758216
 20
103.9268670665
 10
48.3503494299
 20
103.971576138
 10
48.347917572
 20
104.0063535856
 10
48.3462541135
 20
104.0301432895
 10
48.3454095203
 20
104.0422206806
  0
LINE
  5
23D
330
1F
100
AcDbEntity
  8
0
  6
Continuous
 62
     7
370
    15
100
AcDbLine
 10
48.3454095203
 20
104.0422206806
 30
0.0
 11
48.2719452822
 21
105.0928084241
 31
0.0
  0
LINE
  5
23E
330
1F
100
AcDbEntity
  8
0
  6
Continuous
 62
     7
370
    15
100
AcDbLine
 10
48.2719452822
 20
105.0928084241
 30
0.0
 11
48.2718390533
 21
105.0943274113
 31
0.0
  0
LINE
  5
23F
330
1F
100
AcDbEntity
  8
0
  6
Continuous
 62
     7
370
    15
100
AcDbLine
 10
53.1104969679
 20
104.1356900768
 30
0.0
 11
50.6165868257
 21
103.9612989934
 31
0.0
  0
LINE
  5
240
330
1F
100
AcDbEntity
  8
0
  6
Continuous
 62
     7
370
    15
100
AcDbLine
 10
50.6165868257
 20
103.9612989934
 30
0.0
 11
48.6443797246
 21
104.0674232008
 31
0.0
  0
LINE
  5
241
330
1F
100
AcDbEntity
  8
0
  6
Continuous
 62
     7
370
    15
100
AcDbLine
 10
48.6443797246
 20
104.0674232008
 30
0.0
 11
48.5338240516
 21
105.6484429227
 31
0.0
  0
LINE
  5
242
330
1F
100
AcDbEntity
  8
0
  6
Continuous
 62
     7
370
    15
100
AcDbLine
 10
69.7436012681
 20
107.1315750541
 30
0.0
 11
48.5338240516
 21
105.6484429227
 31
0.0
  0
LINE
  5
243
330
1F
100
AcDbEntity
  8
0
  6
Continuous
 62
     7
370
    15
100
AcDbLine
 10
69.7436012681
 20
103.2432297306
 30
0.0
 11
69.7436012681
 21
107.1315750541
 31
0.0
  0
SPLINE
  5
244
330
1F
100
AcDbEntity
  8
0
  6
Continuous
 62
     7
370
    15
100
AcDbSpline
210
0.0
220
0.0
230
1.0
 70
     8
 71
     3
 72
    36
 73
    32
 74
     0
 42
0.00000001
 43
0.00000001
 12
1.0
 22
0.0
 32
0.0
 13
1.0
 23
0.0
 33
0.0
 40
0.0
 40
0.0
 40
0.0
 40
0.0
 40
0.0262865516382142
 40
0.0525128653435414
 40
0.0786897709149628
 40
0.1048281595646688
 40
0.1309389707028591
 40
0.1570331784235122
 40
0.1831217777731515
 40
0.2092157708877856
 40
0.2353261530851097
 40
0.2614638989997297
 40
0.2876399488485372
 40
0.3138651949114519
 40
0.3401504683096259
 40
0.3665065261589368
 40
0.3929440391712992
 40
0.4194735797701224
 40
0.4461056107792944
 40
0.4728504747375492
 40
0.4997183838821175
 40
0.550666340788893
 40
0.6012150175472754
 40
0.6514356729552722
 40
0.7014009692691197
 40
0.7511846868923443
 40
0.8008614152828476
 40
0.8505062261427478
 40
0.9001943358429888
 40
0.9500007645885596
 40
1.0
 40
1.0
 40
1.0
 40
1.0
 10
53.87560480770492
 20
93.20041153349078
 30
0.0
 10
54.04139333238105
 20
93.23180601602073
 30
0.0
 10
54.37259046282417
 20
93.29452303787721
 30
0.0
 10
54.86634002195451
 20
93.40117403965417
 30
0.0
 10
55.35703029717803
 20
93.51688750935469
 30
0.0
 10
55.8444941439345
 20
93.64256946391802
 30
0.0
 10
56.32877589494081
 20
93.77797775652
 30
0.0
 10
56.80986335993939
 20
93.92317709571867
 30
0.0
 10
57.28775946944895
 20
94.07815009480336
 30
0.0
 10
57.76246311406779
 20
94.2429013101124
 30
0.0
 10
58.23397427558477
 20
94.41742939581182
 30
0.0
 10
58.70229265544879
 20
94.60173456262189
 30
0.0
 10
59.16741804452488
 20
94.79581658012893
 30
0.0
 10
59.62935022712368
 20
94.9996753152132
 30
0.0
 10
60.08808900523303
 20
95.21331058576796
 30
0.0
 10
60.54363420691648
 20
95.43672221627256
 30
0.0
 10
60.99598563609373
 20
95.66990997225453
 30
0.0
 10
61.44514327237754
 20
95.91287377887876
 30
0.0
 10
61.89110652316852
 20
96.16561291980062
 30
0.0
 10
62.33387703443816
 20
96.42812905173926
 30
0.0
 10
62.90402600400152
 20
96.78129942838852
 30
0.0
 10
63.591723565686
 20
97.2342064303808
 30
0.0
 10
64.38393513332605
 20
97.79930760914796
 30
0.0
 10
65.14916439056898
 20
98.38999786443654
 30
0.0
 10
65.88739434606872
 20
99.00627552645507
 30
0.0
 10
66.59863480603858
 20
99.64812923344887
 30
0.0
 10
67.28282777414549
 20
100.3155925507717
 30
0.0
 10
67.94016128498197
 20
101.0085237887924
 30
0.0
 10
68.56990990000048
 20
101.7274323187103
 30
0.0
 10
69.17476810791204
 20
102.4703882860687
 30
0.0
 10
69.55374579265764
 20
102.985284433812
 30
0.0
 10
69.74360069353249
 20
103.243229851248
 30
0.0
  0
LINE
  5
245
330
1F
100
AcDbEntity
  8
0
  6
Continuous
 62
     7
370
    15
100
AcDbLine
 10
53.1334878298
 20
103.8069061997
 30
0.0
 11
53.1104969679
 21
104.1356900768
 31
0.0
  0
SPLINE
  5
246
330
1F
100
AcDbEntity
  8
0
  6
Continuous
 62
     7
370
    15
100
AcDbSpline
210
0.0
220
0.0
230
1.0
 70
     8
 71
     3
 72
    47
 73
    43
 74
     0
 42
0.00000001
 43
0.00000001
 12
1.0
 22
0.0
 32
0.0
 13
1.0
 23
0.0
 33
0.0
 40
0.0
 40
0.0
 40
0.0
 40
0.0
 40
0.0266763578416809
 40
0.0532671589458673
 40
0.0797723615735443
 40
0.106191924953276
 40
0.1325258092865852
 40
0.1587739757534125
 40
0.1849363865176801
 40
0.2110130047329248
 40
0.2370037945480259
 40
0.2629087211130275
 40
0.2887277505850454
 40
0.3144608501342774
 40
0.3401079879501003
 40
0.3656691332472747
 40
0.3911442562722292
 40
0.4165333283094784
 40
0.4418363216881121
 40
0.4670532097884068
 40
0.4921839670485421
 40
0.5172285689714188
 40
0.5421869921316038
 40
0.5670592141823662
 40
0.5918452138628512
 40
0.6165449710053552
 40
0.6411584665427279
 40
0.6656856825158974
 40
0.6901266020815169
 40
0.7144812095197365
 40
0.7387494902421116
 40
0.7629314307996347
 40
0.787027018890904
 40
0.8110362433704339
 40
0.8349590942571005
 40
0.8587955627427216
 40
0.8825456412008027
 40
0.9062093231954058
 40
0.9297866034901872
 40
0.9532774780575772
 40
0.9766819440881255
 40
1.0
 40
1.0
 40
1.0
 40
1.0
 10
69.74368952295698
 20
102.060081315253
 30
0.0
 10
69.63977071147595
 20
101.9280790142045
 30
0.0
 10
69.43226637818287
 20
101.6644977714838
 30
0.0
 10
69.11184619455962
 20
101.277460903985
 30
0.0
 10
68.7855820566613
 20
100.8974527340486
 30
0.0
 10
68.45296552127556
 20
100.525096902369
 30
0.0
 10
68.11437595733261
 20
100.1603269193509
 30
0.0
 10
67.76995611565576
 20
99.80325416287
 30
0.0
 10
67.41991181834135
 20
99.45393648322823
 30
0.0
 10
67.06443190766586
 20
99.11243996551435
 30
0.0
 10
66.70370945457181
 20
98.77882252518508
 30
0.0
 10
66.33793597021766
 20
98.45313834871236
 30
0.0
 10
65.96730281903
 20
98.13543677859386
 30
0.0
 10
65.59200071474731
 20
97.82576268199286
 30
0.0
 10
65.21221973075075
 20
97.52415642601336
 30
0.0
 10
64.82814917645005
 20
97.23065395995926
 30
0.0
 10
64.4399775125684
 20
96.94528687106815
 30
0.0
 10
64.04789225925231
 20
96.66808244921155
 30
0.0
 10
63.65207990929635
 20
96.3990637509952
 30
0.0
 10
63.25272584320935
 20
96.13824966570847
 30
0.0
 10
62.85001424699585
 20
95.88565498236906
 30
0.0
 10
62.44412803241727
 20
95.64129045796487
 30
0.0
 10
62.03524875979181
 20
95.40516288676776
 30
0.0
 10
61.62355656331
 20
95.17727517065714
 30
0.0
 10
61.20923007886329
 20
94.95762639037315
 30
0.0
 10
60.79244637437383
 20
94.746211877633
 30
0.0
 10
60.37338088261831
 20
94.5430232880187
 30
0.0
 10
59.95220733651987
 20
94.34804867463504
 30
0.0
 10
59.52909770694109
 20
94.16127256221121
 30
0.0
 10
59.10422214278663
 20
93.98267602253254
 30
0.0
 10
58.67774891404884
 20
93.81223674759192
 30
0.0
 10
58.24984435536153
 20
93.64992913354902
 30
0.0
 10
57.82067281900937
 20
93.4957243266064
 30
0.0
 10
57.39039660408224
 20
93.34959041199086
 30
0.0
 10
56.95917598532107
 20
93.2114920731689
 30
0.0
 10
56.52716888294763
 20
93.08139221867482
 30
0.0
 10
56.09453187602887
 20
92.95924630631366
 30
0.0
 10
55.66141623972672
 20
92.84502377373882
 30
0.0
 10
55.22798246311088
 20
92.73862885837784
 30
0.0
 10
54.79434618442625
 20
92.64019484735758
 30
0.0
 10
54.36077868488618
 20
92.54899232001166
 30
0.0
 10
54.07103209580165
 20
92.49455110919192
 30
0.0
 10
53.92642673453981
 20
92.4673808464358
 30
0.0
  0
SPLINE
  5
247
330
1F
100
AcDbEntity
  8
0
  6
Continuous
 62
     7
370
    15
100
AcDbSpline
210
0.0
220
0.0
230
1.0
 70
    24
 71
     3
 72
     9
 73
     5
 74
     0
 42
0.00000001
 43
0.00000001
 12
1.0
 22
0.0
 32
0.0
 13
1.0
 23
0.0
 33
0.0
 40
0.0
 40
0.0
 40
0.0
 40
0.0
 40
0.4944396853672309
 40
1.0
 40
1.0
 40
1.0
 40
1.0
 10
69.74360070180825
 20
103.2462743017729
 30
0.0
 10
69.74360070180825
 20
103.0489103869234
 30
0.0
 10
69.74360070180825
 20
102.6497435710498
 30
0.0
 10
69.74360070180825
 20
102.2547878974005
 30
0.0
 10
69.74360070180825
 20
102.0551139827644
 30
0.0
  0
ELLIPSE
  5
248
330
1F
100
AcDbEntity
  8
0
  6
Continuous
 62
     7
370
    15
100
AcDbEllipse
 10
40.3597734948
 20
136.5292903381
 30
0.0
 11
-0.4987951691474919
 21
7.13310324443998
 31
0.0
210
0.0
220
0.0
230
1.0
 40
0.8390996312
 41
4.712388980384702
 42
4.856279844820107
  0
ARC
  5
249
330
1F
100
AcDbEntity
  8
0
  6
Continuous
 62
     7
370
    15
100
AcDbCircle
 10
49.2436007018
 20
118.1974884184
 30
0.0
 40
20.00000000000001
100
AcDbArc
 50
57.3760522329
 51
98.7191477679
  0
ELLIPSE
  5
24A
330
1F
100
AcDbEntity
  8
0
  6
Continuous
 62
     7
370
    15
100
AcDbEllipse
 10
55.8638525793
 20
23.5234757833
 30
0.0
 11
-7.889708958853368
 21
112.8280946831748
 31
0.0
210
0.0
220
0.0
230
1.0
 40
0.5439777651
 41
6.062504092268809
 42
6.088026971126312
  0
ARC
  5
24B
330
1F
100
AcDbEntity
  8
0
  6
Continuous
 62
     7
370
    15
100
AcDbCircle
 10
49.2436007018
 20
118.1974884184
 30
0.0
 40
20.50000000000003
100
AcDbArc
 50
0.0
 51
52.9316324078
  0
LINE
  5
24C
330
1F
100
AcDbEntity
  8
0
  6
Continuous
 62
     7
370
    15
100
AcDbLine
 10
48.5338240516
 20
105.6484429227
 30
0.0
 11
46.34515791
 21
136.9478300275
 31
0.0
  0
LINE
  5
24D
330
1F
100
AcDbEntity
  8
0
  6
Continuous
 62
     7
370
    15
100
AcDbLine
 10
69.7436012681
 20
107.1315750541
 30
0.0
 11
69.7436012681
 21
118.1974884184
 31
0.0
  0
SPLINE
  5
24E
330
1F
100
AcDbEntity
  8
0
  6
Continuous
 62
     7
370
    15
100
AcDbSpline
210
0.0
220
0.0
230
1.0
 70
     8
 71
     3
 72
    11
 73
     7
 74
     0
 42
0.00000001
 43
0.00000001
 12
1.0
 22
0.0
 32
0.0
 13
1.0
 23
0.0
 33
0.0
 40
0.0
 40
0.0
 40
0.0
 40
0.0
 40
0.0337813798640475
 40
0.3623538950248003
 40
0.6890554681061887
 40
0.9999999999999999
 40
0.9999999999999999
 40
0.9999999999999999
 40
0.9999999999999999
 10
48.7536751435951
 20
98.20374921580266
 30
0.0
 10
48.74311205576971
 20
98.2039109198546
 30
0.0
 10
48.62980774338146
 20
98.20564542842983
 30
0.0
 10
47.79671104489411
 20
98.2376982319593
 30
0.0
 10
46.36358804060401
 20
98.37417313814747
 30
0.0
 10
45.14985007795502
 20
98.62956847052418
 30
0.0
 10
44.55797759619287
 20
98.75411056598138
 30
0.0
  0
SPLINE
  5
24F
330
1F
100
AcDbEntity
  8
0
  6
Continuous
 62
     7
370
    15
100
AcDbSpline
210
0.0
220
0.0
230
1.0
 70
     8
 71
     3
 72
    20
 73
    16
 74
     0
 42
0.00000001
 43
0.00000001
 12
1.0
 22
0.0
 32
0.0
 13
1.0
 23
0.0
 33
0.0
 40
0.0
 40
0.0
 40
0.0
 40
0.0
 40
0.2500000000000021
 40
0.2500000000000021
 40
0.3750000000000018
 40
0.3750000000000018
 40
0.5000000000000016
 40
0.5000000000000016
 40
0.6250000000000012
 40
0.6250000000000012
 40
0.7500000000000009
 40
0.7500000000000009
 40
0.8750000000000004
 40
0.8750000000000004
 40
1.0
 40
1.0
 40
1.0
 40
1.0
 10
41.89758269712726
 20
136.7995318404463
 30
0.0
 10
42.43336926256913
 20
137.0111160017724
 30
0.0
 10
42.94657929793101
 20
137.1871147013809
 30
0.0
 10
43.67616396696297
 20
137.4086373802959
 30
0.0
 10
43.91141473859501
 20
137.4749251341203
 30
0.0
 10
44.35137277629595
 20
137.5912471928029
 30
0.0
 10
44.55815341165989
 20
137.6419176433744
 30
0.0
 10
44.94423192029291
 20
137.7309129075758
 30
0.0
 10
45.12452928216289
 20
137.7694079834479
 30
0.0
 10
45.44537481807775
 20
137.8341954986873
 30
0.0
 10
45.58724780374839
 20
137.8608242949917
 30
0.0
 10
45.83386128871044
 20
137.9050852136863
 30
0.0
 10
45.93918893204482
 20
137.9228051923384
 30
0.0
 10
46.10736476589798
 20
137.9502422297214
 30
0.0
 10
46.17004505099501
 20
137.9599538067528
 30
0.0
 10
46.211777538957
 20
137.9663540487299
 30
0.0
  0
ELLIPSE
  5
250
330
1F
100
AcDbEntity
  8
0
  6
Continuous
 62
     7
370
    15
100
AcDbEllipse
 10
39.2022832155
 20
110.9046836061
 30
0.0
 11
-1.776045722811602
 21
2.04149225382801
 31
0.0
210
0.0
220
0.0
230
1.0
 40
0.7599251483
 41
0.0
 42
6.283185307179586
  0
ARC
  5
251
330
1F
100
AcDbEntity
  8
0
  6
Continuous
 62
     7
370
    15
100
AcDbCircle
 10
49.2436007018
 20
118.1974884184
 30
0.0
 40
20.00000000000002
100
AcDbArc
 50
111.5492528118
 51
256.4507471882
  0
SPLINE
  5
252
330
1F
100
AcDbEntity
  8
0
  6
Continuous
 62
     7
370
    15
100
AcDbSpline
210
0.0
220
0.0
230
1.0
 70
     8
 71
     3
 72
     9
 73
     5
 74
     0
 42
0.00000001
 43
0.00000001
 12
1.0
 22
0.0
 32
0.0
 13
1.0
 23
0.0
 33
0.0
 40
0.0
 40
0.0
 40
0.0
 40
0.0
 40
0.6999883361134822
 40
1.0
 40
1.0
 40
1.0
 40
1.0
 10
38.47812454950741
 20
112.4974003123255
 30
0.0
 10
38.34259989947275
 20
112.6535176258227
 30
0.0
 10
38.14899003050387
 20
112.8765460756452
 30
0.0
 10
38.15341341396802
 20
113.2001396805566
 30
0.0
 10
38.15474048060111
 20
113.2972215363891
 30
0.0
  0
SPLINE
  5
253
330
1F
100
AcDbEntity
  8
0
  6
Continuous
 62
     7
370
    15
100
AcDbSpline
210
0.0
220
0.0
230
1.0
 70
     8
 71
     3
 72
    10
 73
     6
 74
     0
 42
0.00000001
 43
0.00000001
 12
1.0
 22
0.0
 32
0.0
 13
1.0
 23
0.0
 33
0.0
 40
0.0
 40
0.0
 40
0.0
 40
0.0
 40
0.2279598579435693
 40
0.7312155188329522
 40
1.0
 40
1.0
 40
1.0
 40
1.0
 10
39.60142623436383
 20
113.0619741106541
 30
0.0
 10
39.54495762041928
 20
112.9976345960712
 30
0.0
 10
39.36382605095908
 20
112.7912559293988
 30
0.0
 10
38.96462396008373
 20
112.6454107237646
 30
0.0
 10
38.60375905962772
 20
112.5356227954973
 30
0.0
 10
38.47812454950741
 20
112.4974003123255
 30
0.0
  0
LWPOLYLINE
  5
254
330
1F
100
AcDbEntity
  8
0
  6
Continuous
 62
     7
370
    15
100
AcDbPolyline
 90
        9
 70
   128
 43
0.0
 10
38.211260585
 20
113.318725309
 10
38.2115995864
 20
113.317680365
 10
38.2738687451
 20
113.1260355996
 10
38.3292917515
 20
112.9554610761
 10
38.3770117889
 20
112.8085933687
 10
38.4162921811
 20
112.6877021106
 10
38.4465247746
 20
112.5946564661
 10
38.4672420452
 20
112.5308939317
 10
38.4781245495
 20
112.4974003123
  0
SPLINE
  5
255
330
1F
100
AcDbEntity
  8
0
  6
Continuous
 62
     7
370
    15
100
AcDbSpline
210
0.0
220
0.0
230
1.0
 70
    24
 71
     3
 72
    10
 73
     6
 74
     0
 42
0.00000001
 43
0.00000001
 12
1.0
 22
0.0
 32
0.0
 13
1.0
 23
0.0
 33
0.0
 40
0.0
 40
0.0
 40
0.0
 40
0.0
 40
0.5
 40
0.5
 40
1.0
 40
1.0
 40
1.0
 40
1.0
 10
40.24360070180824
 20
88.63721101782842
 30
0.0
 10
40.24360070180824
 20
88.47732374963476
 30
0.0
 10
40.24360070180824
 20
88.31619649412016
 30
0.0
 10
40.24360070180824
 20
88.08209749576534
 30
0.0
 10
40.24360070180824
 20
88.01057072217411
 30
0.0
 10
40.24360070180824
 20
88.01057072217411
 30
0.0
  0
ARC
  5
256
330
1F
100
AcDbEntity
  8
0
  6
Continuous
 62
     7
370
    15
100
AcDbCircle
 10
49.2436007018
 20
118.1974884184
 30
0.0
 40
31.5
100
AcDbArc
 50
140.9381656697
 51
253.398450401
  0
SPLINE
  5
257
330
1F
100
AcDbEntity
  8
0
  6
Continuous
 62
     7
370
    15
100
AcDbSpline
210
0.0
220
0.0
230
1.0
 70
    24
 71
     3
 72
    12
 73
     8
 74
     0
 42
0.00000001
 43
0.00000001
 12
1.0
 22
0.0
 32
0.0
 13
1.0
 23
0.0
 33
0.0
 40
0.0
 40
0.0
 40
0.0
 40
0.0
 40
0.25
 40
0.25
 40
0.5
 40
0.5
 40
1.0
 40
1.0
 40
1.0
 40
1.0
 10
24.78491103944064
 20
138.0474884184213
 30
0.0
 10
24.78491103944064
 20
138.0474884184213
 30
0.0
 10
24.81274075974412
 20
138.0474884184213
 30
0.0
 10
24.90788322100079
 20
138.0474884184213
 30
0.0
 10
24.97430603730115
 20
138.0474884184213
 30
0.0
 10
25.19850546882126
 20
138.0474884184213
 30
0.0
 10
25.38249187136686
 20
138.0474884184213
 30
0.0
 10
25.56264844054985
 20
138.0474884184213
 30
0.0
  0
SPLINE
  5
258
330
1F
100
AcDbEntity
  8
0
  6
Continuous
 62
     7
370
    15
100
AcDbSpline
210
0.0
220
0.0
230
1.0
 70
    24
 71
     3
 72
    10
 73
     6
 74
     0
 42
0.00000001
 43
0.00000001
 12
1.0
 22
0.0
 32
0.0
 13
1.0
 23
0.0
 33
0.0
 40
0.0
 40
0.0
 40
0.0
 40
0.0
 40
0.5
 40
0.5
 40
1.0
 40
1.0
 40
1.0
 40
1.0
 10
41.24360070180825
 20
148.0439287421852
 30
0.0
 10
41.24360070180824
 20
148.204334008536
 30
0.0
 10
41.24360070180825
 20
148.3633958215246
 30
0.0
 10
41.24360070180825
 20
148.5943082871549
 30
0.0
 10
41.24360070180825
 20
148.6646838915855
 30
0.0
 10
41.24360070180825
 20
148.6646838915855
 30
0.0
  0
SPLINE
  5
259
330
1F
100
AcDbEntity
  8
0
  6
Continuous
 62
     7
370
    15
100
AcDbSpline
210
0.0
220
0.0
230
1.0
 70
    24
 71
     3
 72
    12
 73
     8
 74
     0
 42
0.00000001
 43
0.00000001
 12
1.0
 22
0.0
 32
0.0
 13
1.0
 23
0.0
 33
0.0
 40
0.0
 40
0.0
 40
0.0
 40
0.0
 40
0.2499999999999987
 40
0.2499999999999987
 40
0.4999999999999973
 40
0.4999999999999973
 40
1.0
 40
1.0
 40
1.0
 40
1.0
 10
29.39360070180823
 20
142.6561780807887
 30
0.0
 10
29.39360070180823
 20
142.6561780807887
 30
0.0
 10
29.39360070180824
 20
142.6279583822008
 30
0.0
 10
29.39360070180824
 20
142.5335153749527
 30
0.0
 10
29.39360070180823
 20
142.4672283982474
 30
0.0
 10
29.39360070180823
 20
142.2416035749591
 30
0.0
 10
29.39360070180824
 20
142.0591773119265
 30
0.0
 10
29.39360070180823
 20
141.8784406796796
 30
0.0
  0
ARC
  5
25A
330
1F
100
AcDbEntity
  8
0
  6
Continuous
 62
     7
370
    15
100
AcDbCircle
 10
49.2436007018
 20
118.1974884184
 30
0.0
 40
31.50000000000002
100
AcDbArc
 50
104.7124579609
 51
129.0618343303
  0
SPLINE
  5
25B
330
1F
100
AcDbEntity
  8
0
  6
Continuous
 62
     7
370
    15
100
AcDbSpline
210
0.0
220
0.0
230
1.0
 70
    24
 71
     3
 72
    12
 73
     8
 74
     0
 42
0.00000001
 43
0.00000001
 12
1.0
 22
0.0
 32
0.0
 13
1.0
 23
0.0
 33
0.0
 40
0.0
 40
0.0
 40
0.0
 40
0.0
 40
0.250000000000002
 40
0.250000000000002
 40
0.500000000000004
 40
0.500000000000004
 40
1.0
 40
1.0
 40
1.0
 40
1.0
 10
57.24360070180825
 20
148.6646838915855
 30
0.0
 10
57.24360070180825
 20
148.6646838915855
 30
0.0
 10
57.24360070180825
 20
148.6476811416247
 30
0.0
 10
57.24360070180825
 20
148.5836206005131
 30
0.0
 10
57.24360070180825
 20
148.5364619848745
 30
0.0
 10
57.24360070180825
 20
148.3632399521822
 30
0.0
 10
57.24360070180825
 20
148.203130861948
 30
0.0
 10
57.24360070180825
 20
148.0439287421846
 30
0.0
  0
ARC
  5
25C
330
1F
100
AcDbEntity
  8
0
  6
Continuous
 62
     7
370
    15
100
AcDbCircle
 10
49.2436007018
 20
118.1974884184
 30
0.0
 40
31.50000000000002
100
AcDbArc
 50
286.601549599
 51
75.2875420391
  0
SPLINE
  5
25D
330
1F
100
AcDbEntity
  8
0
  6
Continuous
 62
     7
370
    15
100
AcDbSpline
210
0.0
220
0.0
230
1.0
 70
    24
 71
     3
 72
    12
 73
     8
 74
     0
 42
0.00000001
 43
0.00000001
 12
1.0
 22
0.0
 32
0.0
 13
1.0
 23
0.0
 33
0.0
 40
0.0
 40
0.0
 40
0.0
 40
0.0
 40
0.249999999999998
 40
0.249999999999998
 40
0.499999999999996
 40
0.499999999999996
 40
1.0
 40
1.0
 40
1.0
 40
1.0
 10
58.24360070180826
 20
88.01057072217411
 30
0.0
 10
58.24360070180826
 20
88.01057072217412
 30
0.0
 10
58.24360070180826
 20
88.02768780843998
 30
0.0
 10
58.24360070180826
 20
88.09242391991506
 30
0.0
 10
58.24360070180826
 20
88.13988116279539
 30
0.0
 10
58.24360070180826
 20
88.31670560533487
 30
0.0
 10
58.24360070180826
 20
88.47698211254058
 30
0.0
 10
58.24360070180826
 20
88.63721101782836
 30
0.0
  0
LINE
  5
25E
330
1F
100
AcDbEntity
  8
0
  6
Continuous
 62
     7
370
    15
100
AcDbLine
 10
57.2436010818
 20
144.5974882754
 30
0.0
 11
41.2436003218
 21
144.5974882754
 31
0.0
  0
LINE
  5
25F
330
1F
100
AcDbEntity
  8
0
  6
Continuous
 62
     7
370
    15
100
AcDbLine
 10
58.2436003144
 20
91.7974885615
 30
0.0
 11
52.1221311184
 21
91.7974885615
 31
0.0
  0
LINE
  5
260
330
1F
100
AcDbEntity
  8
0
  6
Continuous
 62
     7
370
    15
100
AcDbLine
 10
49.2016446162
 20
91.7974885615
 30
0.0
 11
40.2436010892
 21
91.7974885615
 31
0.0
  0
LINE
  5
261
330
1F
100
AcDbEntity
  8
0
  6
Continuous
 62
     7
370
    15
100
AcDbLine
 10
57.2436010818
 20
148.0439294191
 30
0.0
 11
57.2436010818
 21
144.5974882754
 31
0.0
  0
LINE
  5
262
330
1F
100
AcDbEntity
  8
0
  6
Continuous
 62
     7
370
    15
100
AcDbLine
 10
58.2436003144
 20
88.6372111799
 30
0.0
 11
58.2436003144
 21
91.7974885615
 31
0.0
  0
LINE
  5
263
330
1F
100
AcDbEntity
  8
0
  6
Continuous
 62
     7
370
    15
100
AcDbLine
 10
41.2436003218
 20
144.5974882754
 30
0.0
 11
41.2436003218
 21
148.0439294191
 31
0.0
  0
LINE
  5
264
330
1F
100
AcDbEntity
  8
0
  6
Continuous
 62
     7
370
    15
100
AcDbLine
 10
40.2436010892
 20
91.7974885615
 30
0.0
 11
40.2436010892
 21
88.6372111799
 31
0.0
  0
LINE
  5
265
330
1F
100
AcDbEntity
  8
0
  6
Continuous
 62
     7
370
    15
100
AcDbLine
 10
29.3935999627
 20
141.8784398647
 30
0.0
 11
29.3935999627
 21
138.0474891575
 31
0.0
  0
LINE
  5
266
330
1F
100
AcDbEntity
  8
0
  6
Continuous
 62
     7
370
    15
100
AcDbLine
 10
25.5626492555
 20
138.0474891575
 30
0.0
 11
29.3935999627
 21
138.0474891575
 31
0.0
  0
SPLINE
  5
267
330
1F
100
AcDbEntity
  8
0
  6
Continuous
 62
     7
370
    15
100
AcDbSpline
210
0.0
220
0.0
230
1.0
 70
     8
 71
     3
 72
    30
 73
    26
 74
     0
 42
0.00000001
 43
0.00000001
 12
1.0
 22
0.0
 32
0.0
 13
1.0
 23
0.0
 33
0.0
 40
0.0
 40
0.0
 40
0.0
 40
0.0
 40
0.1250000000000001
 40
0.1250000000000001
 40
0.1875000000000001
 40
0.1875000000000001
 40
0.2500000000000002
 40
0.2500000000000002
 40
0.3749999999999999
 40
0.3749999999999999
 40
0.4374999999999999
 40
0.4374999999999999
 40
0.4999999999999998
 40
0.4999999999999998
 40
0.6249999999999996
 40
0.6249999999999996
 40
0.6874999999999996
 40
0.6874999999999996
 40
0.7499999999999996
 40
0.7499999999999996
 40
0.8124999999999997
 40
0.8124999999999997
 40
0.8749999999999997
 40
0.8749999999999997
 40
1.0
 40
1.0
 40
1.0
 40
1.0
 10
50.24360070180825
 20
86.71336543555891
 30
0.0
 10
50.77501863220884
 20
86.73024435356751
 30
0.0
 10
51.29667782978301
 20
86.76026191839223
 30
0.0
 10
52.06531961694204
 20
86.82307230766534
 30
0.0
 10
52.31920941610706
 20
86.84697621489224
 30
0.0
 10
52.82228219205314
 20
86.90041150733462
 30
0.0
 10
53.07174604026978
 20
86.93001837550221
 30
0.0
 10
53.79665693786664
 20
87.02446807421664
 30
0.0
 10
54.25453427475883
 20
87.09549546804584
 30
0.0
 10
54.90430150024168
 20
87.20950975475161
 30
0.0
 10
55.11568820365184
 20
87.24896500589217
 30
0.0
 10
55.520322014422
 20
87.32848644866284
 30
0.0
 10
55.71306248592322
 20
87.36842259116362
 30
0.0
 10
56.26349336230015
 20
87.48735899399178
 30
0.0
 10
56.59367673958076
 20
87.56552375787564
 30
0.0
 10
57.0323525562312
 20
87.67523319814453
 30
0.0
 10
57.16815111471774
 20
87.71031403485294
 30
0.0
 10
57.4150281475639
 20
87.77555431423255
 30
0.0
 10
57.52680668489192
 20
87.8058891302773
 30
0.0
 10
57.72723687476552
 20
87.86122750949913
 30
0.0
 10
57.81588921796902
 20
87.88623218605922
 30
0.0
 10
57.96955676565013
 20
87.93011199494991
 30
0.0
 10
58.03480446990197
 20
87.9490556797122
 30
0.0
 10
58.19110952326624
 20
87.99477540698238
 30
0.0
 10
58.24360070180825
 20
88.0105707221741
 30
0.0
 10
58.24360070180825
 20
88.0105707221741
 30
0.0
  0
SPLINE
  5
268
330
1F
100
AcDbEntity
  8
0
  6
Continuous
 62
     7
370
    15
100
AcDbSpline
210
0.0
220
0.0
230
1.0
 70
     8
 71
     3
 72
    28
 73
    24
 74
     0
 42
0.00000001
 43
0.00000001
 12
1.0
 22
0.0
 32
0.0
 13
1.0
 23
0.0
 33
0.0
 40
0.0
 40
0.0
 40
0.0
 40
0.0
 40
0.1249999999999998
 40
0.1249999999999998
 40
0.1874999999999997
 40
0.1874999999999997
 40
0.2499999999999995
 40
0.2499999999999995
 40
0.3749999999999996
 40
0.3749999999999996
 40
0.4374999999999999
 40
0.4374999999999999
 40
0.5000000000000001
 40
0.5000000000000001
 40
0.6250000000000002
 40
0.6250000000000002
 40
0.7500000000000003
 40
0.7500000000000003
 40
0.8125000000000003
 40
0.8125000000000003
 40
0.8750000000000002
 40
0.8750000000000002
 40
1.0
 40
1.0
 40
1.0
 40
1.0
 10
40.24360070180824
 20
88.01057072217411
 30
0.0
 10
40.24360070180824
 20
88.0105707221741
 30
0.0
 10
40.29607704412646
 20
87.9947860082239
 30
0.0
 10
40.44987399168335
 20
87.94979059414767
 30
0.0
 10
40.51374896671737
 20
87.93123559907197
 30
0.0
 10
40.6672452353739
 20
87.88738287662548
 30
0.0
 10
40.7570602107676
 20
87.86203826967328
 30
0.0
 10
41.05903900581846
 20
87.7786361919232
 30
0.0
 10
41.30499243987421
 20
87.71277063277208
 30
0.0
 10
41.74035961930259
 20
87.60380029228028
 30
0.0
 10
41.89757480147493
 20
87.56556065651364
 30
0.0
 10
42.22973942201739
 20
87.48780191909428
 30
0.0
 10
42.40454668762028
 20
87.44830095691894
 30
0.0
 10
42.9546058782061
 20
87.32939321455294
 30
0.0
 10
43.35522926260157
 20
87.24957553312832
 30
0.0
 10
44.22781537395027
 20
87.09623237133226
 30
0.0
 10
44.68795082155184
 20
87.024898618063
 30
0.0
 10
45.40791691551803
 20
86.93095511098839
 30
0.0
 10
45.65319062555255
 20
86.90176131762844
 30
0.0
 10
46.15464696198138
 20
86.84829474336503
 30
0.0
 10
46.41207833135391
 20
86.82393540908987
 30
0.0
 10
47.18801812721841
 20
86.76034526364514
 30
0.0
 10
47.71224652712444
 20
86.73024232855585
 30
0.0
 10
48.24360070180825
 20
86.71336543555891
 30
0.0
  0
SPLINE
  5
269
330
1F
100
AcDbEntity
  8
0
  6
Continuous
 62
     7
370
    15
100
AcDbSpline
210
0.0
220
0.0
230
1.0
 70
     8
 71
     3
 72
    50
 73
    46
 74
     0
 42
0.00000001
 43
0.00000001
 12
1.0
 22
0.0
 32
0.0
 13
1.0
 23
0.0
 33
0.0
 40
0.0
 40
0.0
 40
0.0
 40
0.0
 40
0.0625000000000001
 40
0.0625000000000001
 40
0.09375
 40
0.09375
 40
0.125
 40
0.125
 40
0.1874999999999999
 40
0.1874999999999999
 40
0.21875
 40
0.21875
 40
0.2500000000000001
 40
0.2500000000000001
 40
0.3125000000000001
 40
0.3125000000000001
 40
0.3750000000000001
 40
0.3750000000000001
 40
0.4062500000000001
 40
0.4062500000000001
 40
0.4375
 40
0.4375
 40
0.4999999999999999
 40
0.4999999999999999
 40
0.5624999999999999
 40
0.5624999999999999
 40
0.6249999999999997
 40
0.6249999999999997
 40
0.6562499999999998
 40
0.6562499999999998
 40
0.6874999999999998
 40
0.6874999999999998
 40
0.7187499999999999
 40
0.7187499999999999
 40
0.7499999999999999
 40
0.7499999999999999
 40
0.8125
 40
0.8125
 40
0.875
 40
0.875
 40
0.9375000000000001
 40
0.9375000000000001
 40
0.9687500000000001
 40
0.9687500000000001
 40
1.0
 40
1.0
 40
1.0
 40
1.0
 10
41.24360070180825
 20
148.6646838915855
 30
0.0
 10
41.24360070180825
 20
148.6646838915855
 30
0.0
 10
41.29589484376131
 20
148.6785499949667
 30
0.0
 10
41.44924737859407
 20
148.7179871378507
 30
0.0
 10
41.51294487394528
 20
148.7342398401157
 30
0.0
 10
41.6660365242351
 20
148.7725885499661
 30
0.0
 10
41.75569262619592
 20
148.7947419963742
 30
0.0
 10
42.05727401436996
 20
148.8674979422362
 30
0.0
 10
42.30301544480393
 20
148.9247786450809
 30
0.0
 10
42.73817551115461
 20
149.0187710845367
 30
0.0
 10
42.89531633861578
 20
149.0516300517299
 30
0.0
 10
43.22795543134008
 20
149.1182061051781
 30
0.0
 10
43.40302138678013
 20
149.151849543017
 30
0.0
 10
43.95387691748172
 20
149.2524104075941
 30
0.0
 10
44.35506132666838
 20
149.3189732173442
 30
0.0
 10
45.22855053275577
 20
149.4436722726438
 30
0.0
 10
45.69059112573821
 20
149.5001952817144
 30
0.0
 10
46.41170653933212
 20
149.5708642163293
 30
0.0
 10
46.65726717701551
 20
149.5921404264007
 30
0.0
 10
47.15905547617371
 20
149.6294461526426
 30
0.0
 10
47.41681669249036
 20
149.6455373495026
 30
0.0
 10
48.19192915671013
 20
149.6841788211104
 30
0.0
 10
48.71235834042982
 20
149.6973682396667
 30
0.0
 10
49.76049418121519
 20
149.6976069631248
 30
0.0
 10
50.29300251158895
 20
149.6842069604207
 30
0.0
 10
51.32069277375555
 20
149.6331429722255
 30
0.0
 10
51.82045695433728
 20
149.5957038374713
 30
0.0
 10
52.54895195435775
 20
149.5245403545528
 30
0.0
 10
52.78830294680323
 20
149.4982718963603
 30
0.0
 10
53.2495414182901
 20
149.4425904236081
 30
0.0
 10
53.47280807335736
 20
149.4130526516722
 30
0.0
 10
53.90499567937944
 20
149.3514455066444
 30
0.0
 10
54.11391625961942
 20
149.3193745639232
 30
0.0
 10
54.51734118514312
 20
149.2535575869539
 30
0.0
 10
54.71282084511249
 20
149.2196273684906
 30
0.0
 10
55.26867905864873
 20
149.1181987409104
 30
0.0
 10
55.59823644528029
 20
149.0512797122203
 30
0.0
 10
56.17763194306625
 20
148.9262541498785
 30
0.0
 10
56.42915191451061
 20
148.8676773556444
 30
0.0
 10
56.83060641112418
 20
148.7708425039995
 30
0.0
 10
56.98308940667129
 20
148.7320875444403
 30
0.0
 10
57.13840035584653
 20
148.692160014004
 30
0.0
 10
57.17791380325268
 20
148.6818682227535
 30
0.0
 10
57.23042715054846
 20
148.6681520102146
 30
0.0
 10
57.24360070180825
 20
148.6646838915855
 30
0.0
 10
57.24360070180825
 20
148.6646838915855
 30
0.0
  0
SPLINE
  5
26A
330
1F
100
AcDbEntity
  8
0
  6
Continuous
 62
     7
370
    15
100
AcDbSpline
210
0.0
220
0.0
230
1.0
 70
     8
 71
     3
 72
    20
 73
    16
 74
     0
 42
0.00000001
 43
0.00000001
 12
1.0
 22
0.0
 32
0.0
 13
1.0
 23
0.0
 33
0.0
 40
0.0
 40
0.0
 40
0.0
 40
0.0
 40
0.2499999999999997
 40
0.2499999999999997
 40
0.3749999999999997
 40
0.3749999999999997
 40
0.4999999999999998
 40
0.4999999999999998
 40
0.6249999999999998
 40
0.6249999999999998
 40
0.7499999999999999
 40
0.7499999999999999
 40
0.8749999999999999
 40
0.8749999999999999
 40
1.0
 40
1.0
 40
1.0
 40
1.0
 10
24.78491103944082
 20
138.0474884184213
 30
0.0
 10
25.31556780727549
 20
138.7013508467187
 30
0.0
 10
25.84929580353703
 20
139.3051366287158
 30
0.0
 10
26.63226812152578
 20
140.1319753648844
 30
0.0
 10
26.89025172162244
 20
140.3944040028373
 30
0.0
 10
27.39464697803027
 20
140.8910666569423
 30
0.0
 10
27.63742540045826
 20
141.1216535359638
 30
0.0
 10
28.08810547997134
 20
141.5382077605464
 30
0.0
 10
28.29756934596261
 20
141.7257055625139
 30
0.0
 10
28.67585786255065
 20
142.0571025401503
 30
0.0
 10
28.83960554873514
 20
142.1966065276456
 30
0.0
 10
29.10779135093457
 20
142.4220600351166
 30
0.0
 10
29.21301575902132
 20
142.5086861466602
 30
0.0
 10
29.35707498433485
 20
142.6266669355144
 30
0.0
 10
29.39360070180824
 20
142.6561780807887
 30
0.0
 10
29.39360070180824
 20
142.6561780807887
 30
0.0
  0
ARC
  5
26B
330
1F
100
AcDbEntity
  8
0
  6
Continuous
 62
     7
370
    15
100
AcDbCircle
 10
49.2436007018
 20
118.1974884184
 30
0.0
 40
31.50000000000001
100
AcDbArc
 50
268.180780706
 51
271.819219294
  0
SPLINE
  5
26C
330
1F
100
AcDbEntity
  8
0
  6
Continuous
 62
     7
370
    15
100
AcDbSpline
210
0.0
220
0.0
230
1.0
 70
     8
 71
     3
 72
    10
 73
     6
 74
     0
 42
0.00000001
 43
0.00000001
 12
1.0
 22
0.0
 32
0.0
 13
1.0
 23
0.0
 33
0.0
 40
0.0
 40
0.0
 40
0.0
 40
0.0
 40
0.0234969548250641
 40
0.5623231078592714
 40
1.0
 40
1.0
 40
1.0
 40
1.0
 10
46.22026615579358
 20
137.9668086828799
 30
0.0
 10
46.20722156790383
 20
137.965092559777
 30
0.0
 10
45.89504182982616
 20
137.924022740991
 30
0.0
 10
45.5889327077963
 20
137.858593659887
 30
0.0
 10
45.54468541812151
 20
137.8517274281207
 30
0.0
 10
45.52485341009429
 20
137.8486499251933
 30
0.0
  0
SPLINE
  5
26D
330
1F
100
AcDbEntity
  8
0
  6
Continuous
 62
     7
370
    15
100
AcDbSpline
210
0.0
220
0.0
230
1.0
 70
     8
 71
     3
 72
    10
 73
     6
 74
     0
 42
0.00000001
 43
0.00000001
 12
1.0
 22
0.0
 32
0.0
 13
1.0
 23
0.0
 33
0.0
 40
0.0
 40
0.0
 40
0.0
 40
0.0
 40
0.3040468899916152
 40
0.8493723902580733
 40
1.0
 40
1.0
 40
1.0
 40
1.0
 10
45.54545123864642
 20
98.5423725159974
 30
0.0
 10
45.53941205858816
 20
98.54374548124619
 30
0.0
 10
45.52254126342422
 20
98.54758093825458
 30
0.0
 10
45.77950382876313
 20
98.49349343530679
 30
0.0
 10
46.12211312467902
 20
98.44472936577601
 30
0.0
 10
46.19626527455381
 20
98.43417518456887
 30
0.0
  0
LINE
  5
26E
330
1F
100
AcDbEntity
  8
0
  6
Continuous
 62
     7
370
    15
100
AcDbLine
 10
48.0260223969
 20
98.2394021066
 30
0.0
 11
48.7531758965
 21
98.2108887347
 31
0.0
  0
CIRCLE
  5
26F
330
1F
100
AcDbEntity
  8
VERMASSUNG
  6
CENTERX2
100
AcDbCircle
 10
49.2436007018
 20
116.2374159103
 30
0.0
 40
25.0
  0
DIMENSION
  5
270
330
1F
100
AcDbEntity
  8
VERMASSUNG
100
AcDbDimension
  2
_D_6
 10
13.5869220687
 20
141.2374159103
 30
0.0
 11
13.5869220687
 21
116.2374159103
 31
0.0
 70
   160
  1
%%c<>
 71
     2
 42
-1.0
  3
SLDDIMSTYLE0
100
AcDbAlignedDimension
 13
49.2436007018
 23
91.2374159103
 33
0.0
 14
49.2436007018
 24
141.2374159103
 34
0.0
 50
90.0
100
AcDbRotatedDimension
  0
DIMENSION
  5
27B
330
1F
100
AcDbEntity
  8
VERMASSUNG
100
AcDbDimension
  2
_D_7
 10
46.3451577964
 20
136.9478291806
 30
0.0
 11
46.9745428195
 21
160.475480758
 31
0.0
 70
   162
  1
<>
 71
     1
 42
-1.0
  3
SLDDIMSTYLE2
100
AcDb2LineAngularDimension
 13
49.2436007018
 23
152.1974884184
 33
0.0
 14
49.2436007018
 24
84.1974884184
 34
0.0
 15
48.533824074
 25
105.6484431979
 35
0.0
 16
46.9745428195
 26
160.475480758
 36
0.0
  0
INSERT
  5
293
330
1F
100
AcDbEntity
  8
VERMASSUNG
100
AcDbBlockReference
  2
SW_CENTERMARKSYMBOL_0
 10
49.2436007018
 20
118.1974884184
 30
0.0
  0
OLE2FRAME
  5
294
330
1F
100
AcDbEntity
  8
0
100
AcDbOle2Frame
 70
     2
  3
Paintbrush-Bild
 10
13.8511154363
 20
38.264191557
 30
0.0
 11
51.6290888628
 21
31.9806341108
 31
0.0
 71
     2
 72
     0
 73
     1
 90
    12928
310
80552BED0767C5B32B40DDAF6807D121434000000000000000006FFBDDFB85D0
310
4940DDAF6807D121434000000000000000006FFBDDFB85D04940416F4BD60AFB
310
3F4000000000000000002BED0767C5B32B40416F4BD60AFB3F40000000000000
310
0000000000000100000000010000010000000100000000000100000000320000
310
D0CF11E0A1B11AE1000000000000000000000000000000003E000300FEFF0900
310
0600000000000000000000000100000001000000000000000010000002000000
310
01000000FEFFFFFF0000000000000000FFFFFFFFFFFFFFFFFFFFFFFFFFFFFFFF
310
FFFFFFFFFFFFFFFFFFFFFFFFFFFFFFFFFFFFFFFFFFFFFFFFFFFFFFFFFFFFFFFF
310
FFFFFFFFFFFFFFFFFFFFFFFFFFFFFFFFFFFFFFFFFFFFFFFFFFFFFFFFFFFFFFFF
310
FFFFFFFFFFFFFFFFFFFFFFFFFFFFFFFFFFFFFFFFFFFFFFFFFFFFFFFFFFFFFFFF
310
FFFFFFFFFFFFFFFFFFFFFFFFFFFFFFFFFFFFFFFFFFFFFFFFFFFFFFFFFFFFFFFF
310
FFFFFFFFFFFFFFFFFFFFFFFFFFFFFFFFFFFFFFFFFFFFFFFFFFFFFFFFFFFFFFFF
310
FFFFFFFFFFFFFFFFFFFFFFFFFFFFFFFFFFFFFFFFFFFFFFFFFFFFFFFFFFFFFFFF
310
FFFFFFFFFFFFFFFFFFFFFFFFFFFFFFFFFFFFFFFFFFFFFFFFFFFFFFFFFFFFFFFF
310
FFFFFFFFFFFFFFFFFFFFFFFFFFFFFFFFFFFFFFFFFFFFFFFFFFFFFFFFFFFFFFFF
310
FFFFFFFFFFFFFFFFFFFFFFFFFFFFFFFFFFFFFFFFFFFFFFFFFFFFFFFFFFFFFFFF
310
FFFFFFFFFFFFFFFFFFFFFFFFFFFFFFFFFFFFFFFFFFFFFFFFFFFFFFFFFFFFFFFF
310
FFFFFFFFFFFFFFFFFFFFFFFFFFFFFFFFFFFFFFFFFFFFFFFFFFFFFFFFFFFFFFFF
310
FFFFFFFFFFFFFFFFFFFFFFFFFFFFFFFFFFFFFFFFFFFFFFFFFFFFFFFFFFFFFFFF
310
FFFFFFFFFFFFFFFFFFFFFFFFFFFFFFFFFFFFFFFFFFFFFFFFFFFFFFFFFFFFFFFF
310
FDFFFFFFFEFFFFFFFEFFFFFFFEFFFFFF05000000060000000700000008000000
310
090000000A0000000B0000000C0000000D0000000E0000000F00000010000000
310
11000000120000001300000014000000150000001600000017000000FEFFFFFF
310
FFFFFFFFFFFFFFFFFFFFFFFFFFFFFFFFFFFFFFFFFFFFFFFFFFFFFFFFFFFFFFFF
310
FFFFFFFFFFFFFFFFFFFFFFFFFFFFFFFFFFFFFFFFFFFFFFFFFFFFFFFFFFFFFFFF
310
FFFFFFFFFFFFFFFFFFFFFFFFFFFFFFFFFFFFFFFFFFFFFFFFFFFFFFFFFFFFFFFF
310
FFFFFFFFFFFFFFFFFFFFFFFFFFFFFFFFFFFFFFFFFFFFFFFFFFFFFFFFFFFFFFFF
310
FFFFFFFFFFFFFFFFFFFFFFFFFFFFFFFFFFFFFFFFFFFFFFFFFFFFFFFFFFFFFFFF
310
FFFFFFFFFFFFFFFFFFFFFFFFFFFFFFFFFFFFFFFFFFFFFFFFFFFFFFFFFFFFFFFF
310
FFFFFFFFFFFFFFFFFFFFFFFFFFFFFFFFFFFFFFFFFFFFFFFFFFFFFFFFFFFFFFFF
310
FFFFFFFFFFFFFFFFFFFFFFFFFFFFFFFFFFFFFFFFFFFFFFFFFFFFFFFFFFFFFFFF
310
FFFFFFFFFFFFFFFFFFFFFFFFFFFFFFFFFFFFFFFFFFFFFFFFFFFFFFFFFFFFFFFF
310
FFFFFFFFFFFFFFFFFFFFFFFFFFFFFFFFFFFFFFFFFFFFFFFFFFFFFFFFFFFFFFFF
310
FFFFFFFFFFFFFFFFFFFFFFFFFFFFFFFFFFFFFFFFFFFFFFFFFFFFFFFFFFFFFFFF
310
FFFFFFFFFFFFFFFFFFFFFFFFFFFFFFFFFFFFFFFFFFFFFFFFFFFFFFFFFFFFFFFF
310
FFFFFFFFFFFFFFFFFFFFFFFFFFFFFFFFFFFFFFFFFFFFFFFFFFFFFFFFFFFFFFFF
310
52006F006F007400200045006E00740072007900000000000000000000000000
310
0000000000000000000000000000000000000000000000000000000000000000
310
16000500FFFFFFFFFFFFFFFF020000000A00030000000000C000000000000046
310
000000000000000000000000E09D54218B48CD0103000000C000000000000000
310
01004F006C006500000000000000000000000000000000000000000000000000
310
0000000000000000000000000000000000000000000000000000000000000000
310
0A000200FFFFFFFFFFFFFFFFFFFFFFFF00000000000000000000000000000000
310
0000000000000000000000000000000000000000000000001400000000000000
310
010043006F006D0070004F0062006A0000000000000000000000000000000000
310
0000000000000000000000000000000000000000000000000000000000000000
310
120002010100000003000000FFFFFFFF00000000000000000000000000000000
310
0000000000000000000000000000000000000000010000004D00000000000000
310
01004F006C006500310030004E00610074006900760065000000000000000000
310
0000000000000000000000000000000000000000000000000000000000000000
310
1A000200FFFFFFFFFFFFFFFFFFFFFFFF00000000000000000000000000000000
310
0000000000000000000000000000000000000000040000002426000000000000
310
FEFFFFFF02000000FEFFFFFFFFFFFFFFFFFFFFFFFFFFFFFFFFFFFFFFFFFFFFFF
310
FFFFFFFFFFFFFFFFFFFFFFFFFFFFFFFFFFFFFFFFFFFFFFFFFFFFFFFFFFFFFFFF
310
FFFFFFFFFFFFFFFFFFFFFFFFFFFFFFFFFFFFFFFFFFFFFFFFFFFFFFFFFFFFFFFF
310
FFFFFFFFFFFFFFFFFFFFFFFFFFFFFFFFFFFFFFFFFFFFFFFFFFFFFFFFFFFFFFFF
310
FFFFFFFFFFFFFFFFFFFFFFFFFFFFFFFFFFFFFFFFFFFFFFFFFFFFFFFFFFFFFFFF
310
FFFFFFFFFFFFFFFFFFFFFFFFFFFFFFFFFFFFFFFFFFFFFFFFFFFFFFFFFFFFFFFF
310
FFFFFFFFFFFFFFFFFFFFFFFFFFFFFFFFFFFFFFFFFFFFFFFFFFFFFFFFFFFFFFFF
310
FFFFFFFFFFFFFFFFFFFFFFFFFFFFFFFFFFFFFFFFFFFFFFFFFFFFFFFFFFFFFFFF
310
FFFFFFFFFFFFFFFFFFFFFFFFFFFFFFFFFFFFFFFFFFFFFFFFFFFFFFFFFFFFFFFF
310
FFFFFFFFFFFFFFFFFFFFFFFFFFFFFFFFFFFFFFFFFFFFFFFFFFFFFFFFFFFFFFFF
310
FFFFFFFFFFFFFFFFFFFFFFFFFFFFFFFFFFFFFFFFFFFFFFFFFFFFFFFFFFFFFFFF
310
FFFFFFFFFFFFFFFFFFFFFFFFFFFFFFFFFFFFFFFFFFFFFFFFFFFFFFFFFFFFFFFF
310
FFFFFFFFFFFFFFFFFFFFFFFFFFFFFFFFFFFFFFFFFFFFFFFFFFFFFFFFFFFFFFFF
310
FFFFFFFFFFFFFFFFFFFFFFFFFFFFFFFFFFFFFFFFFFFFFFFFFFFFFFFFFFFFFFFF
310
FFFFFFFFFFFFFFFFFFFFFFFFFFFFFFFFFFFFFFFFFFFFFFFFFFFFFFFFFFFFFFFF
310
FFFFFFFFFFFFFFFFFFFFFFFFFFFFFFFFFFFFFFFFFFFFFFFFFFFFFFFFFFFFFFFF
310
0100000200000000000000000000000000000000000000000000000000000000
310
0000000000000000000000000000000000000000000000000000000000000000
310
0100FEFF030A0000FFFFFFFF0A00030000000000C00000000000004607000000
310
5042727573680007000000504272757368000700000050427275736800F439B2
310
7100000000000000000000000000000000000000000000000000000000000000
310
0000000000000000000000000000000000000000000000000000000000000000
310
0000000000000000000000000000000000000000000000000000000000000000
310
0000000000000000000000000000000000000000000000000000000000000000
310
0000000000000000000000000000000000000000000000000000000000000000
310
0000000000000000000000000000000000000000000000000000000000000000
310
0000000000000000000000000000000000000000000000000000000000000000
310
0000000000000000000000000000000000000000000000000000000000000000
310
0000000000000000000000000000000000000000000000000000000000000000
310
0000000000000000000000000000000000000000000000000000000000000000
310
0000000000000000000000000000000000000000000000000000000000000000
310
0000000000000000000000000000000000000000000000000000000000000000
310
20260000424D0E260000000000003E00000028000000B40200006E0000000100
310
01000000000000000000130B0000130B00000200000002000000000000FFFFFF
310
FFFFFFFFFFFFFFFFFFFFFFFFFFFFFFFFFFFFFFFFFFFFFFFFFFFFFFFFFFFFFFFF
310
FFFFFFFFFFFFFFFFFFFFFFFFFFFFFFFFFFFFFFFFFFFFFFFFFFFFFFFFFFFFFFFF
310
FFFFFFFFFFFFFFFFFFFFFFFFFFFFFFFFFFFFFFFFFFFFFFFFF000FFFFFFFFFFFF
310
FFFFFFFFFFFFFFFFFFFFFFFFFFFFFFFFFFFFFFFFFFFFFFFFFFFFFFFFFFFFFFFF
310
FFFFFFFFFFFFFFFFFFFFFFFFFFFFFFFFFFFFFFFFFFFFFFFFFFFFFFFFFFFFFFFF
310
FFFFFFFFFFFFFFFFFFFFFFFFFFFFFFFFF000FFFFFFFFFFFFFFFFFFFFFFFFFFFF
310
FFFFFFFFFFFFFFFFFFFFFFFFFFFFFFFFFFFFFFFFFFFFFFFFFFFFFFFFFFFFFFFF
310
FFFFFFFFFFFFFFFFFFFFFFFFFFFFFFFFFFFFFFFFFFFFFFFFFFFFFFFFFFFFFFFF
310
FFFFFFFFFFFFFFFFF000FFFFFFFFFFFFFFFFFFFFFFFFFFFFFFFFFFFFFFFFFFFF
310
FFFFFFFFFFFFFFFFFFFFFFFFFFFFFFFFFFFFFFFFFFFFFFFFFFFFFFFFFFFFFFFF
310
FFFFFFFFFFFFFFFFFFFFFFFFFFFFFFFFFFFFFFFFFFFFFFFFFFFFFFFFFFFFFFFF
310
F000FFFFFFFFFFFFFFFFFFFFFFFFFFFFFFFFFFFFFFFFFFFFFFFFFFFFFFFFFFFF
310
FFFFFFFFFFFFFFFFFFFFFFFFFFFFFFFFFFFFFFFFFFFFFFFFFFFFFFFFFFFFFFFF
310
FFFFFFFFFFFFFFFFFFFFFFFFFFFFFFFFFFFFFFFFFFFFFFFFF000FFFFFFFFFFFF
310
FFFFFFFFFFFFFFFFFFFFFFFFFFFFFFFFFFFFFFFFFFFFFFFFFFFFFFFFFFFFFFFF
310
FFFFFFFFFFFFFFFFFFFFFFFFFFFFFFFFFFFFFFFFFFFFFFFFFFFFFFFFFFFFFFFF
310
FFFFFFFFFFFFFFFFFFFFFFFFFFFFFFFFF000FFFFFFFFFFFFFFFFFFFFFFFFFFFF
310
FFFFFFFFFFFFFFFFFFFFFFFFFFFFFFFFFFFFFFFFFFFFFFFFFFFFFFFFFFFFFFFF
310
FFFFFFFFFFFFFFFFFFFFFFFFFFFFFFFFFFFFFFFFFFFFFFFFFFFFFFFFFFFFFFFF
310
FFFFFFFFFFFFFFFFF000FFFFFFFFFFFFFFFFFFFFFFFFFFFFFFFFFFFFFFFFFFFF
310
FFFFFFFFFFFFFFFFFFFFFFFFFFFFFFFFFFFFFFFFFFFFFFFFFFFFFFFFFFFFFFFF
310
FFFFFFFFFFFFFFFFFFFFFFFFFFFFFFFFFFFFFFFFFFFFFFFFFFFFFFFFFFFFFFFF
310
F000FFFFFFFFFFFFFFFFFFFFFFFFFFFFFFFFFFFFFFFFFFFFFFFFFFFFFFFFFFFF
310
FFFFFFFFFFFFFFFFFFFFFFFFFFFFFFFFFFFFFFFFFFFFFFFFFFFFFFFFFFFFFFFF
310
FFFFFFFFFFFFFFFFFFFFFFFFFFFFFFFFFFFFFFFFFFFFFFFFF000FFFFFFFFFFFF
310
FFFFFFFFFFFFFFFFFFFFFFFFFFFFFFFFFFFFFFFFFFFFFFFFFFFFFFFFFFFFFFFF
310
FFFFFFFFFFFFFFFFFFFFFFFFFFFFFFFFFFFFFFFFFFFFFFFFFFFFFFFFFFFFFFFF
310
FFFFFFFFFFFFFFFFFFFFFFFFFFFFFFFFF000FFFFFFFFFFFFFFFFFFFFFFFFFFFF
310
FFFFFFFFFFFFFFFFFFFFFFFFFFFFFFFFFFFFFFFFFFFFFFFFFFFFFFFFFFFFFFFF
310
FFFFFFFFFFFFFFFFFFFFFFFFFFFFFFFFFFFFFFFFFFFFFFFFFFFFFFFFFFFFFFFF
310
FFFFFFFFFFFFFFFFF000FFFFFFFFFFFFFFFFFFFFFFFFFFFFFFFFFFFFFFFFFFFF
310
FFFFFFFFFFFFFFFFFFFFFFFFFFFFFFFFFFFFFFFFFFFFFFFFFFFFFFFFFFFFFFFF
310
FFFFFFFFFFFFFFFFFFFFFFFFFFFFFFFFFFFFFFFFFFFFFFFFFFFFFFFFFFFFFFFF
310
F000FFFFFFFFFFFFFFFFFFFFFFFFFFFFFFFFFFFFFFFFFFFFFFFFFFFFFFFFFFFF
310
FFFFFFFFFFFFFFFFFFFFFFFFFFFFFFFFFFFFFFFFFFFFFFFFFFFFFFFFFFFFFFFF
310
FFFFFFFFFFFFFFFFFFFFFFFFFFFFFFFFFFFFFFFFFFFFFFFFF000FFFFFFFFFFFF
310
FFFFFFFFFFFFFFFFFFFFFFFFFFFFFFFFFFFFFFFFFFFFFFFFFFFFFFFFFFFFFFFF
310
FFFFFFFFFFFFFFFFFFFFFFFFFFFFFFFFFFFFFFFFFFFFFFFFFFFFFFFFFFFFFFFF
310
FFFFFFFFFFFFFFFFFFFFFFFFFFFFFFFFF000FFFFFFFFFFFFFFFFFFFFFFFFFFFF
310
FFFFFFFFFFFFFFFFFFFFFFFFFFFFFFFFFFFFFFFFFFFFFFFFFFFFFFFFFFFFFFFF
310
FFFFFFFFFFFFFFFFFFFFFFFFFFFFFFFFFFFFFFFFFFFFFFFFFFFFFFFFFFFFFFFF
310
FFFFFFFFFFFFFFFFF000FFFFFFFFFFFFFFFFFFFFFFFFFFFFFFFFFFFFFFFFFFFF
310
FFFFFFFFFFFFFFFFFFFFFFFFFFFFFFFFFFFFFFFFFFFFFFFFFFFFFFFFFFFFFFFF
310
FFFFFFFFFFFFFFFFFFFFFFFFFFFFFFFFFFFFFFFFFFFFFFFFFFFFFFFFFFFFFFFF
310
F000FFFFFFFFFFFFFFFFFFFFFFFFFFFFFFFFFFFFFFFFFFFFFFFFFFFFFFFFFFFF
310
FFFFFFFFFFFFFFFFFFFFFFFFFFFFFFFFFFFFFFFFFFFFFFFFFFFFFFFFFFFFFFFF
310
FFFFFFFFFFFFFFFFFFFFFFFFFFFFFFFFFFFFFFFFFFFFFFFFF000FFFFFFFFFFFF
310
FFFFFFFFFFFFFFFFFFFFFFFFFFFFFFFFFFFFFFFFFFFFFFFFFFFFFFFFFFFFFFFF
310
FFFFFFFFFFFFFFFFFFFFFFFFFFFFFFFFFFFFFFFFFFFFFFFFFFFFFFFFFFFFFFFF
310
FFFFFFFFFFFFFFFFFFFFFFFFFFFFFFFFF000FFFFFFFFFFFFFFFFFFFFFFFFFFFF
310
FFFFFFFFFFFFFFFFFFFFFFFFFFFFFFFFFFFFFFFFFFFFFFFFFFFFFFFFFFFFFFFF
310
FFFFFFFFFFFFFFFFFFFFFFFFFFFFFFFFFFFFFFFFFFFFFFFFFFFFFFFFFFFFFFFF
310
FFFFFFFFFFFFFFFFF000FFFFF80003FFFFFFFFFFFFFFFFFFFFFFFFFFFFFFFFFF
310
FFFFF00007FFFFFFFFFF00007FFFFFF800000000000000007FFFFFFFFFFFFFFF
310
FFFFFFFC001FFFFFFFFFFFFFFC001FFFFFFFFFFFFFFFFFFFFFFFFFFE0007FFFF
310
F000FFFF8000007FFFFFFFF8000FFFFFC0007FFFFF80007FFFFF0000007FFFFF
310
FFF8000007FFFFF800000000000000007FFFFFF0001FFFFFFFFFFFC00001FFFF
310
FFFFFFFFC00001FFFFFFFF000000000003FFFFE000007FFFF000FFFE0000000F
310
FFFFFFF0000FFFFF80007FFFFF80007FFFFC0000001FFFFFFFC0000001FFFFF8
310
00000000000000007FFFFFF0001FFFFFFFFFFE0000003FFFFFFFFFFE0000003F
310
FFFFFF000000000003FFFF0000000FFFF000FFF800000003FFFFFFF00007FFFF
310
80007FFFFF80007FFFF000000007FFFFFF000000003FFFF80000000000000000
310
7FFFFFF0001FFFFFFFFFF80000000FFFFFFFFFF80000000FFFFFFF0000000000
310
03FFFC00000003FFF000FFE000000000FFFFFFF00007FFFF80003FFFFF80007F
310
FFC000000001FFFFFC000000001FFFF800000000000000007FFFFFF0001FFFFF
310
FFFFE000000003FFFFFFFFE000000003FFFFFF000000000003FFF000000000FF
310
F000FF80000000007FFFFFF00007FFFF80003FFFFF80007FFF8000000000FFFF
310
F80000000007FFF800000000000000007FFFFFF0001FFFFFFFFFC000000001FF
310
FFFFFFC000000001FFFFFF000000000003FFC0000000007FF000FF0000000000
310
3FFFFFE00007FFFF00003FFFFF80007FFE00000000003FFFF00000000003FFF8
310
00000000000000007FFFFFF0001FFFFFFFFF8000000000FFFFFFFF8000000000
310
FFFFFF000000000003FF80000000003FF000FE00000000001FFFFFE00003FFFF
310
00003FFFFF80007FFC00000000001FFFE00000000001FFF8000001FFFE000000
310
7FFFFFF0001FFFFFFFFE00000000003FFFFFFE00000000003FFFFF0000000000
310
03FF00000000001FF000FC00000000000FFFFFE00003FFFF00001FFFFF80007F
310
F800000000001FFFC00000000000FFF8000001FFFE0000007FFFFFF0001FFFFF
310
FFFC00000000001FFFFFFC00000000001FFFFF000000000003FE00000000000F
310
F000F8000000000007FFFFE00003FFFF00001FFFFF80007FF800000000000FFF
310
800000000000FFF8000001FFFE0000007FFFFFF0001FFFFFFFF800000000000F
310
FFFFF800000000000FFFFF000000000003FC000000000007F000F80000000000
310
03FFFFC00003FFFE00001FFFFF80007FF0000000000007FF0000000000007FF8
310
000001FFFE0000007FFFFFF0001FFFFFFFF0000000000007FFFFF00000000000
310
07FFFF000000000003F8000000000003F000F0000000000003FFFFC00001FFFE
310
00001FFFFF80007FE0000000000007FE0000000000003FF8000001FFFE000000
310
7FFFFFF0001FFFFFFFF0000000000007FFFFF0000000000007FFFF0000000000
310
03F800001F800003F000E00001FFF00001FFFFC00001FFFE00000FFFFF80007F
310
E00001FFE00003FE00001FFF00003FF8000001FFFE0000007FFFFFF0001FFFFF
310
FFE000003E000003FFFFE000003E000003FFFF000000000003F00001FFF80001
310
F000E00007FFFC0001FFFFC00001FFFE00000FFFFF80007FC0000FFFFC0003FC
310
0000FFFFC0001FF8000001FFFE0000007FFFFFF0001FFFFFFFC00003FFE00001
310
FFFFC00003FFE00001FFFF0001FFFFFFFFF00007FFFE0001F000E0000FFFFF00
310
00FFFF800001FFFC00000FFFFF80007FC0001FFFFE0001FC0001FFFFE0001FF8
310
000001FFFE0000007FFFFFF0001FFFFFFF80000FFFF80000FFFF80000FFFF800
310
00FFFF0003FFFFFFFFE0000FFFFF8000F000C0003FFFFF8000FFFF800000FFFC
310
000007FFFF80007F80003FFFFF0001FC0003FFFFF0001FF8000001FFFE000000
310
7FFFFFF0001FFFFFFF80003FFFFE0000FFFF80003FFFFE0000FFFF0003FFFFFF
310
FFE0003FFFFF8000F000C0003FFFFF8000FFFF800000FFFC000007FFFF80007F
310
80007FFFFF8001F80007FFFFF8000FF8000001FFFE0000007FFFFFF0001FFFFF
310
FF00007FFFFF00007FFF00007FFFFF00007FFF0003FFFFFFFFE0003FFFFFC000
310
F000C0007FFFFFC000FFFF000000FFFC000007FFFF80007F8000FFFFFF8000F8
310
000FFFFFF8000FF8000001FFFE0000007FFFFFF0001FFFFFFF0000FFFFFF8000
310
7FFF0000FFFFFF80007FFF0003FFFFFFFFC0007FFFFFC00070008000FFFFFFC0
310
00FFFF000000FFF8000007FFFF80007F8000FFFFFF8000F8000FFFFFF8000FF8
310
000001FFFE0000007FFFFFF0001FFFFFFE0001FFFFFFC0003FFE0001FFFFFFC0
310
003FFF0003FFFFFFFFC0007FFFFFE00070008000FFFFFFC0007FFF0000007FF8
310
000003FFFF80007F0001FFFFFF8000F8000FFFFFF8000FF8000001FFFE000000
310
7FFFFFF0001FFFFFFE0001FFFFFFC0003FFE0001FFFFFFC0003FFF0003FFFFFF
310
FFC000FFFFFFE00070008000FFFFFFC0007FFF0000007FF8000003FFFF80007F
310
0001FFFFFF8000F8001FFFFFF8000FF8000001FFFE0000007FFFFFF0001FFFFF
310
FE0003FFFFFFE0003FFE0003FFFFFFE0003FFF0003FFFFFFFFC000FFFFFFE000
310
70008000FFFFFFC0007FFE0000007FF8000003FFFF80007F0001FFFFFF8000F0
310
001FFFFFF8000FF8000001FFFE0000007FFFFFF0001FFFFFFC0003FFFFFFE000
310
1FFC0003FFFFFFE0001FFF0003FFFFFFFFC000FFFFFFC00070008000FFFFFF80
310
007FFE0000007FF0000003FFFF80007F0001FFFFFF0000F0001FFFFFF8000FF8
310
000001FFFE0000007FFFFFF0001FFFFFFC0007FFFFFFF0001FFC0007FFFFFFF0
310
001FFF0003FFFFFFFFC000FFFFFFC00070008001FFFFFF0000FFFE0000003FF0
310
000001FFFF80007F0001FFFFFF0000F8001FFFFFF0000FF8000001FFFE000000
310
7FFFFFF0001FFFFFFC0007FFFFFFF0001FFC0007FFFFFFF0001FFF0003FFFFFF
310
FFC001FFFFFF80007000FFFFFFFFFE0000FFFE0008003FF0008001FFFF80007F
310
FFFFFFFFFC0000FFFFFFFFFFE0000FF8000001FFFE0000007FFFFFF0001FFFFF
310
F8000FFFFFFFF8000FF8000FFFFFFFF8000FFF0003FFFFFFFFFFFFFFFFFF0000
310
7000FFFFFFFFFC0000FFFC0008003FF0008001FFFF80007FFFFFFFFFF80001FF
310
FFFFFFFF80000FF8000001FFFE0000007FFFFFF0001FFFFFF8000FFFFFFFF800
310
0FF8000FFFFFFFF8000FFF0003FFFFFFFFFFFFFFFFFE0000F000FFFFFFFFE000
310
00FFFC000C003FE000C001FFFF80007FFFFFFFFFC00001FFFFFFFFFE00001FF8
310
000001FFFE0000007FFFFFF0001FFFFFF8000FFFFFFFF8000FF8000FFFFFFFF8
310
000FFF0003FFFFFFFFFFFFFFFFF00000F000FFFFFFFE000001FFFC000C001FE0
310
00C000FFFF80007FFFFFFFFE000001FFFFFFFFE000001FF80FFFFFFFFFFFFFC0
310
7FFFFFF0001FFFFFF8000FFFFFFFF8000FF8000FFFFFFFF8000FFF0003FFFFFF
310
FFFFFFFFFF800000F000FFFFFFC0000001FFFC001C001FE001C000FFFF80007F
310
FFFFFF80000003FFFFFFF80000001FF80FFFFFFFFFFFFFC07FFFFFF0001FFFFF
310
F8001FFFFFFFFC000FF8001FFFFFFFFC000FFF0003FFFFFFFFFFFFFFF0000001
310
F000FFFFF800000001FFF8001C001FE001C000FFFF80007FFFFFF800000003FF
310
FFFF800000003FF80FFFFFFFFFFFFFC07FFFFFF0001FFFFFF8001FFFFFFFFC00
310
0FF8001FFFFFFFFC000FFF0003FFFFFFFFFFFFFE00000001F000FFFFC0000000
310
03FFF8001E001FC001E000FFFF80007FFFFF8000000007FFFFFC000000003FF8
310
0FFFFFFFFFFFFFC07FFFFFF0001FFFFFF8001FFFFFFFFC000FF8001FFFFFFFFC
310
000FFF0003FFFFFFFFFFFFE000000003F000FFFE0000000007FFF8001E000FC0
310
01E0007FFF80007FFFFE0000000007FFFFE0000000007FF80FFFFFFFFFFFFFC0
310
7FFFFFF0001FFFFFF0001FFFFFFFFC0007F0001FFFFFFFFC0007FF0003FFFFFF
310
FFFFFF0000000003F000FFF80000000007FFF8001E000FC003E0007FFF80007F
310
FFF0000000000FFFFF8000000000FFF80FFFFFFFFFFFFFC07FFFFFF0001FFFFF
310
F0001FFFFFFFFC0007F0001FFFFFFFFC0007FF0003FFFFFFFFFFFC0000000007
310
F000FFE0000000000FFFF0003E000FC003E0007FFF80007FFFC0000000001FFF
310
FE0000000001FFF80FFFFFFFFFFFFFC07FFFFFF0001FFFFFF0001FFFFFFFFC00
310
07F0001FFFFFFFFC0007FF0003FFFFFFFFFFF0000000000FF000FFC000000000
310
1FFFF0003F000F8003F0003FFF80007FFF80000000003FFFF80000000003FFF8
310
0FFFFFFFFFFFFFC07FFFFFF0001FFFFFF0001FFFFFFFFC0007F0001FFFFFFFFC
310
0007FF0003FFFFFFFFFFE0000000001FF000FF00000000007FFFF0003F000780
310
03F0003FFF80007FFF00000000007FFFF00000000007FFF80FFFFFFFFFFFFFC0
310
7FFFFFF0001FFFFFF0001FFFFFFFFC0007F0001FFFFFFFFC0007FF0003FFFFFF
310
FFFF80000000007FF000FE0000000000FFFFE0003F00078007F0003FFF80007F
310
FE0000000001FFFFE0000000001FFFF80FFFFFFFFFFFFFC07FFFFFF0001FFFFF
310
F0001FFFFFFFFC0007F0001FFFFFFFFC0007FF0003FFFFFFFFFF0000000000FF
310
F000FC0000000003FFFFE0007F00078007F0003FFF80007FFC0000000007FFFF
310
C0000000007FFFF80FFFFFFFFFFFFFC07FFFFFF0001FFFFFF8001FFFFFFFFC00
310
0FF8001FFFFFFFFC000FFF0003FFFFFFFFFE0000000003FFF000FC000000000F
310
FFFFE0007F80070007F8001FFF80007FF8000000001FFFFF8000000001FFFFF8
310
0FFFFFFFFFFFFFC07FFFFFF0001FFFFFF8001FFFFFFFFC000FF8001FFFFFFFFC
310
000FFF0003FFFFFFFFFC000000000FFFF000F8000000007FFFFFE0007F800700
310
07F8001FFF80007FF000000000FFFFFF800000000FFFFFF80FFFFFFFFFFFFFC0
310
7FFFFFF0001FFFFFF8000FFFFFFFF8000FF8000FFFFFFFF8000FFF0003FFFFFF
310
FFFC000000007FFFF000F800000007FFFFFFC0007F8003000FF8001FFF80007F
310
F000000007FFFFFF000000007FFFFFF80FFFFFFFFFFFFFC07FFFFFF0001FFFFF
310
F8000FFFFFFFF8000FF8000FFFFFFFF8000FFF0003FFFFFFFFF80000000FFFFF
310
F000F0000000FFFFFFFFC000FF8003000FF8001FFF80007FE0000000FFFFFFFF
310
0000000FFFFFFFF8000001FFFE0000007FFFFFF0001FFFFFF8000FFFFFFFF800
310
0FF8000FFFFFFFF8000FFF0003FFFFFFFFF8000000FFFFFFF000F000000FFFFF
310
FFFFC000FFC002000FF8000FFF80007FE000001FFFFFFFFE000001FFFFFFFFF8
310
000001FFFE0000007FFFFFF0001FFFFFF8000FFFFFFFF8000FF8000FFFFFFFF8
310
000FFF0003FFFFFFFFF000001FFFFFFFF000E00000FFFFFFFFFFC000FFC00200
310
0FFC000FFF80007FE00001FFFFFFFFFE00001FFFFFFFFFF8000001FFFE000000
310
7FFFFFF0001FFFFFFC000FFFFFFFF8001FFC000FFFFFFFF8001FFF0003FFFFFF
310
FFF00001FFFFFFFFF000E00007FFFFFFFFFF8000FFC000001FFC000FFF80007F
310
C0000FFFFFFFFFFE0000FFFFFFFFFFF8000001FFFE0000007FFFFFF0001FFFFF
310
FC0007FFFFFFF0001FFC0007FFFFFFF0001FFF0003FFFFFFFFF00007FFFFFFFF
310
F000E0001FFFFFFFFFFF8000FFC000001FFC000FFF80007FC0003FFFFFFFFFFE
310
0001FFFFFFFFFFF8000001FFFE0000007FFFFFF0001FFFFFFC0007FFFFFFF000
310
1FFC0007FFFFFFF0001FFF0003FFFFFFFFF0001FFFFFFFFFF000E0003FFFFF00
310
03FF8001FFE000001FFC0007FF80007FC0007FFFFF0007FC0003FFFFF0003FF8
310
000001FFFE0000007FFFFFF0001FFFFFFC0003FFFFFFE0001FFC0003FFFFFFE0
310
001FFF0003FFFFFFFFF0003FFFFFFFFFF000E0003FFFFF0001FF8001FFE00000
310
1FFE0007FF80007FC0007FFFFE0003FC0007FFFFE0003FF8000001FFFE000000
310
7FFFFFF0001FFFFFFE0003FFFFFFE0003FFE0003FFFFFFE0003FFF0003FFFFFF
310
FFF0003FFFFF8001F000E0003FFFFF0001FF0001FFE000001FFE0007FF80007F
310
C0007FFFFE0003FC0007FFFFE0003FF8000001FFFE0000007FFFFFF0001FFFFF
310
FE0001FFFFFFC0003FFE0001FFFFFFC0003FFF0003FFFFFFFFF0003FFFFF0001
310
F000E0003FFFFF0003FF0001FFE000003FFE0007FF80007FC0007FFFFE0003FC
310
0007FFFFE0003FF8000001FFFE0000007FFFFFF0001FFFFFFF0001FFFFFFC000
310
7FFF0001FFFFFFC0007FFF0003FFFFFFFFF0003FFFFF0001F000E0003FFFFE00
310
03FF0003FFF000003FFE0003FF80007FC0007FFFFC0003FE0007FFFFE0003FF8
310
000001FFFE0000007FFFFFF0001FFFFFFF0000FFFFFF80007FFF0000FFFFFF80
310
007FFF0003FFFFFFFFF0003FFFFF0001F000E0003FFFFE0003FF0003FFF00000
310
3FFF0003FF80007FC0007FFFFC0007FE0007FFFFC0003FF8000001FFFE000000
310
7FFFFFF0001FFFFFFF80007FFFFF0000FFFF80007FFFFF0000FFFF0003FFFFFF
310
FFF0003FFFFF0003F000E0003FFFFC0003FE0003FFF000003FFF0003FF80007F
310
E0003FFFF80007FE0003FFFFC0007FF8000001FFFE0000007FFFFFF0001FFFFF
310
FF80003FFFFE0000FFFF80003FFFFE0000FFFF0003FFFFFFFFF0001FFFFE0003
310
F000F0001FFFF80003FE0003FFF000007FFF0001FF80007FE0003FFFF00007FE
310
0001FFFF80007FF8000001FFFE0000007FFFFFF0001FFFFFFFC0000FFFF80001
310
FFFFC0000FFFF80001FFFF0003FFFFFFFFF0001FFFFC0003F000F0000FFFF000
310
07FE0007FFF800007FFF0001FF80007FE0001FFFE00007FF0000FFFE00007FF8
310
000001FFFE0000007FFFFFF0001FFFFFFFC00003FFE00001FFFFC00003FFE000
310
01FFFF0003FFFFFFFFF8000FFFF80003F000F00003FFC00007FC0007FFF80000
310
7FFF8001FF80007FF00007FF80000FFF00007FF80000FFF8000001FFFE000000
310
7F80000000000001FFE000003E000003FFFFE000003E000003FFFF0003FFFFFF
310
FFF80003FFE00007F000F800000000000FFC0007FFF800007FFF8001FF80007F
310
F000000000000FFF000000000000FFF8000001FFFE0000007F80000000000001
310
FFF0000000000007FFFFF0000000000007FFFF0003FFFFFFFFFC00007E000007
310
F000F800000000000FFC0007FFF80000FFFF8000FF80007FF800000000001FFF
310
800000000001FFF8000001FFFE0000007F80000000000001FFF800000000000F
310
FFFFF800000000000FFFFF0003FFFFFFFFFC00000000000FF000FC0000000000
310
1FFC0007FFFC0000FFFF8000FF80007FF800000000003FFFC00000000001FFF8
310
000001FFFE0000007F80000000000001FFF800000000000FFFFFF80000000000
310
0FFFFF0003FFFFFFFFFE00000000001FF000FE00000000003FF8000FFFFC0000
310
FFFF8000FF80007FFC00000000003FFFC00000000003FFF8000001FFFE000000
310
7F80000000000001FFFC00000000001FFFFFFC00000000001FFFFF0003FFFFFF
310
FFFF00000000001FF000FF00000000003FF8000FFFFC0000FFFFC000FF80007F
310
FE00000000007FFFE00000000007FFF8000001FFFE0000007F80000000000001
310
FFFE00000000003FFFFFFE00000000003FFFFF0003FFFFFFFFFF80000000003F
310
F000FF80000000007FF8000FFFFC0001FFFFC0007F80007FFF0000000000FFFF
310
F0000000000FFFF800000000000000007F80000000000001FFFF8000000000FF
310
FFFFFF8000000000FFFFFF0003FFFFFFFFFFC0000000007FF000FFC000000000
310
FFF8000FFFFE0001FFFFC0007F80007FFF8000000001FFFFF8000000001FFFF8
310
00000000000000007F80000000000001FFFFC000000001FFFFFFFFC000000001
310
FFFFFF0003FFFFFFFFFFE000000000FFF000FFE000000003FFF0001FFFFE0001
310
FFFFC0007F80007FFFC000000007FFFFFE000000003FFFF80000000000000000
310
7F80000000000001FFFFE000000003FFFFFFFFE000000003FFFFFF0003FFFFFF
310
FFFFF000000003FFF000FFF80000000FFFF0001FFFFE0001FFFFE0007F80007F
310
FFF00000000FFFFFFF00000000FFFFF800000000000000007F80000000000001
310
FFFFF80000000FFFFFFFFFF80000000FFFFFFF0003FFFFFFFFFFFC0000000FFF
310
F000FFFE0000003FFFF0001FFFFE0003FFFFE0003F80007FFFFC0000003FFFFF
310
FFC0000003FFFFF800000000000000007F80000000000001FFFFFE0000003FFF
310
FFFFFFFE0000003FFFFFFF0003FFFFFFFFFFFF0000003FFFF000FFFF800000FF
310
FFF0001FFFFF0003FFFFE0003F80007FFFFF000001FFFFFFFFF800001FFFFFF8
310
00000000000000007F80000000000001FFFFFFC00001FFFFFFFFFFFFC00001FF
310
FFFFFF0003FFFFFFFFFFFFC00000FFFFF000FFFFF8000FFFFFFFFFFFFFFFFFFF
310
FFFFFFFFFFFFFFFFFFFFF0001FFFFFFFFFFF0000FFFFFFF80000000000000000
310
7FFFFFFFFFFFFFFFFFFFFFFC001FFFFFFFFFFFFFFC001FFFFFFFFFFFFFFFFFFF
310
FFFFFFFC001FFFFFF000FFFFFFFFFFFFFFFFFFFFFFFFFFFFFFFFFFFFFFFFFFFF
310
FFFFFFFFFFFFFFFFFFFFFFFFFFFFFFFFFFFFFFFFFFFFFFFFFFFFFFFFFFFFFFFF
310
FFFFFFFFFFFFFFFFFFFFFFFFFFFFFFFFFFFFFFFFFFFFFFFFFFFFFFFFFFFFFFFF
310
F000FFFFFFFFFFFFFFFFFFFFFFFFFFFFFFFFFFFFFFFFFFFFFFFFFFFFFFFFFFFF
310
FFFFFFFFFFFFFFFFFFFFFFFFFFFFFFFFFFFFFFFFFFFFFFFFFFFFFFFFFFFFFFFF
310
FFFFFFFFFFFFFFFFFFFFFFFFFFFFFFFFFFFFFFFFFFFFFFFFF000FFFFFFFFFFFF
310
FFFFFFFFFFFFFFFFFFFFFFFFFFFFFFFFFFFFFFFFFFFFFFFFFFFFFFFFFFFFFFFF
310
FFFFFFFFFFFFFFFFFFFFFFFFFFFFFFFFFFFFFFFFFFFFFFFFFFFFFFFFFFFFFFFF
310
FFFFFFFFFFFFFFFFFFFFFFFFFFFFFFFFF000FFFFFFFFFFFFFFFFFFFFFFFFFFFF
310
FFFFFFFFFFFFFFFFFFFFFFFFFFFFFFFFFFFFFFFFFFFFFFFFFFFFFFFFFFFFFFFF
310
FFFFFFFFFFFFFFFFFFFFFFFFFFFFFFFFFFFFFFFFFFFFFFFFFFFFFFFFFFFFFFFF
310
FFFFFFFFFFFFFFFFF000FFFFFFFFFFFFFFFFFFFFFFFFFFFFFFFFFFFFFFFFFFFF
310
FFFFFFFFFFFFFFFFFFFFFFFFFFFFFFFFFFFFFFFFFFFFFFFFFFFFFFFFFFFFFFFF
310
FFFFFFFFFFFFFFFFFFFFFFFFFFFFFFFFFFFFFFFFFFFFFFFFFFFFFFFFFFFFFFFF
310
F000FFFFFFFFFFFFFFFFFFFFFFFFFFFFFFFFFFFFFFFFFFFFFFFFFFFFFFFFFFFF
310
FFFFFFFFFFFFFFFFFFFFFFFFFFFFFFFFFFFFFFFFFFFFFFFFFFFFFFFFFFFFFFFF
310
FFFFFFFFFFFFFFFFFFFFFFFFFFFFFFFFFFFFFFFFFFFFFFFFF000FFFFFFFFFFFF
310
FFFFFFFFFFFFFFFFFFFFFFFFFFFFFFFFFFFFFFFFFFFFFFFFFFFFFFFFFFFFFFFF
310
FFFFFFFFFFFFFFFFFFFFFFFFFFFFFFFFFFFFFFFFFFFFFFFFFFFFFFFFFFFFFFFF
310
FFFFFFFFFFFFFFFFFFFFFFFFFFFFFFFFF000FFFFFFFFFFFFFFFFFFFFFFFFFFFF
310
FFFFFFFFFFFFFFFFFFFFFFFFFFFFFFFFFFFFFFFFFFFFFFFFFFFFFFFFFFFFFFFF
310
FFFFFFFFFFFFFFFFFFFFFFFFFFFFFFFFFFFFFFFFFFFFFFFFFFFFFFFFFFFFFFFF
310
FFFFFFFFFFFFFFFFF000FFFFFFFFFFFFFFFFFFFFFFFFFFFFFFFFFFFFFFFFFFFF
310
FFFFFFFFFFFFFFFFFFFFFFFFFFFFFFFFFFFFFFFFFFFFFFFFFFFFFFFFFFFFFFFF
310
FFFFFFFFFFFFFFFFFFFFFFFFFFFFFFFFFFFFFFFFFFFFFFFFFFFFFFFFFFFFFFFF
310
F000FFFFFFFFFFFFFFFFFFFFFFFFFFFFFFFFFFFFFFFFFFFFFFFFFFFFFFFFFFFF
310
FFFFFFFFFFFFFFFFFFFFFFFFFFFFFFFFFFFFFFFFFFFFFFFFFFFFFFFFFFFFFFFF
310
FFFFFFFFFFFFFFFFFFFFFFFFFFFFFFFFFFFFFFFFFFFFFFFFF000FFFFFFFFFFFF
310
FFFFFFFFFFFFFFFFFFFFFFFFFFFFFFFFFFFFFFFFFFFFFFFFFFFFFFFFFFFFFFFF
310
FFFFFFFFFFFFFFFFFFFFFFFFFFFFFFFFFFFFFFFFFFFFFFFFFFFFFFFFFFFFFFFF
310
FFFFFFFFFFFFFFFFFFFFFFFFFFFFFFFFF000FFFFFFFFFFFFFFFFFFFFFFFFFFFF
310
FFFFFFFFFFFFFFFFFFFFFFFFFFFFFFFFFFFFFFFFFFFFFFFFFFFFFFFFFFFFFFFF
310
FFFFFFFFFFFFFFFFFFFFFFFFFFFFFFFFFFFFFFFFFFFFFFFFFFFFFFFFFFFFFFFF
310
FFFFFFFFFFFFFFFFF000FFFFFFFFFFFFFFFFFFFFFFFFFFFFFFFFFFFFFFFFFFFF
310
FFFFFFFFFFFFFFFFFFFFFFFFFFFFFFFFFFFFFFFFFFFFFFFFFFFFFFFFFFFFFFFF
310
FFFFFFFFFFFFFFFFFFFFFFFFFFFFFFFFFFFFFFFFFFFFFFFFFFFFFFFFFFFFFFFF
310
F000FFFFFFFFFFFFFFFFFFFFFFFFFFFFFFFFFFFFFFFFFFFFFFFFFFFFFFFFFFFF
310
FFFFFFFFFFFFFFFFFFFFFFFFFFFFFFFFFFFFFFFFFFFFFFFFFFFFFFFFFFFFFFFF
310
FFFFFFFFFFFFFFFFFFFFFFFFFFFFFFFFFFFFFFFFFFFFFFFFF000FFFFFFFFFFFF
310
FFFFFFFFFFFFFFFFFFFFFFFFFFFFFFFFFFFFFFFFFFFFFFFFFFFFFFFFFFFFFFFF
310
FFFFFFFFFFFFFFFFFFFFFFFFFFFFFFFFFFFFFFFFFFFFFFFFFFFFFFFFFFFFFFFF
310
FFFFFFFFFFFFFFFFFFFFFFFFFFFFFFFFF000FFFFFFFFFFFFFFFFFFFFFFFFFFFF
310
FFFFFFFFFFFFFFFFFFFFFFFFFFFFFFFFFFFFFFFFFFFFFFFFFFFFFFFFFFFFFFFF
310
FFFFFFFFFFFFFFFFFFFFFFFFFFFFFFFFFFFFFFFFFFFFFFFFFFFFFFFFFFFFFFFF
310
FFFFFFFFFFFFFFFFF000FFFFFFFFFFFFFFFFFFFFFFFFFFFFFFFFFFFFFFFFFFFF
310
FFFFFFFFFFFFFFFFFFFFFFFFFFFFFFFFFFFFFFFFFFFFFFFFFFFFFFFFFFFFFFFF
310
FFFFFFFFFFFFFFFFFFFFFFFFFFFFFFFFFFFFFFFFFFFFFFFFFFFFFFFFFFFFFFFF
310
F000FFFFFFFFFFFFFFFFFFFFFFFFFFFFFFFFFFFFFFFFFFFFFFFFFFFFFFFFFFFF
310
FFFFFFFFFFFFFFFFFFFFFFFFFFFFFFFFFFFFFFFFFFFFFFFFFFFFFFFFFFFFFFFF
310
FFFFFFFFFFFFFFFFFFFFFFFFFFFFFFFFFFFFFFFFFFFFFFFFF000FFFFFFFFFFFF
310
FFFFFFFFFFFFFFFFFFFFFFFFFFFFFFFFFFFFFFFFFFFFFFFFFFFFFFFFFFFFFFFF
310
FFFFFFFFFFFFFFFFFFFFFFFFFFFFFFFFFFFFFFFFFFFFFFFFFFFFFFFFFFFFFFFF
310
FFFFFFFFFFFFFFFFFFFFFFFFFFFFFFFFF000FFFFFFFFFFFFFFFFFFFFFFFFFFFF
310
FFFFFFFFFFFFFFFFFFFFFFFFFFFFFFFFFFFFFFFFFFFFFFFFFFFFFFFFFFFFFFFF
310
FFFFFFFFFFFFFFFFFFFFFFFFFFFFFFFFFFFFFFFFFFFFFFFFFFFFFFFFFFFFFFFF
310
FFFFFFFFFFFFFFFFF000FFFFFFFFFFFFFFFFFFFFFFFFFFFFFFFFFFFFFFFFFFFF
310
FFFFFFFFFFFFFFFFFFFFFFFFFFFFFFFFFFFFFFFFFFFFFFFFFFFFFFFFFFFFFFFF
310
FFFFFFFFFFFFFFFFFFFFFFFFFFFFFFFFFFFFFFFFFFFFFFFFFFFFFFFFFFFFFFFF
310
F000FFFFFFFFFFFFFFFFFFFFFFFFFFFFFFFFFFFFFFFFFFFFFFFFFFFFFFFFFFFF
310
FFFFFFFFFFFFFFFFFFFFFFFFFFFFFFFFFFFFFFFFFFFFFFFFFFFFFFFFFFFFFFFF
310
FFFFFFFFFFFFFFFFFFFFFFFFFFFFFFFFFFFFFFFFFFFFFFFFF000FFFFFFFFFFFF
310
FFFFFFFFFFFFFFFFFFFFFFFFFFFFFFFFFFFFFFFFFFFFFFFFFFFFFFFFFFFFFFFF
310
FFFFFFFFFFFFFFFFFFFFFFFFFFFFFFFFFFFFFFFFFFFFFFFFFFFFFFFFFFFFFFFF
310
FFFFFFFFFFFFFFFFFFFFFFFFFFFFFFFFF0000000000000000000000000000000
310
0000000000000000000000000000000000000000000000000000000000000000
310
0000000000000000000000000000000000000000000000000000000000000000
310
0000000000000000000000000000000000000000000000000000000000000000
310
0000000000000000000000000000000000000000000000000000000000000000
310
0000000000000000000000000000000000000000000000000000000000000000
310
0000000000000000000000000000000000000000000000000000000000000000
310
0000000000000000000000000000000000000000000000000000000000000000
310
0000000000000000000000000000000000000000000000000000000000000000
310
0000000000000000000000000000000000000000000000000000000000000000
310
0000000000000000000000000000000000000000000000000000000000000000
310
0000000000000000000000000000000000000000000000000000000000000000
310
0000000000000000000000000000000000000000000000000000000000000000
310
0000000000000000000000000000000000000000000000000000000000000000
310
0000000000000000000000000000000000000000000000000000000000000000
310
0000000000000000000000000000000000000000000000000000000000000000
  1
OLE
  0
ENDSEC
  0
SECTION
  2
OBJECTS
  0
DICTIONARY
  5
C
330
0
100
AcDbDictionary
281
     1
  3
ACAD_GROUP
350
D
  3
ACAD_LAYOUT
350
1A
  3
ACAD_MLINESTYLE
350
17
  3
ACAD_PLOTSETTINGS
350
19
  3
ACAD_PLOTSTYLENAME
350
E
  0
DICTIONARY
  5
D
102
{ACAD_REACTORS
330
C
102
}
330
C
100
AcDbDictionary
281
     1
  0
DICTIONARY
  5
1A
102
{ACAD_REACTORS
330
C
102
}
330
C
100
AcDbDictionary
281
     1
  3
Layout1
350
1E
  3
Layout2
350
26
  3
Model
350
22
  0
DICTIONARY
  5
17
102
{ACAD_REACTORS
330
C
102
}
330
C
100
AcDbDictionary
281
     1
  3
Standard
350
18
  0
DICTIONARY
  5
19
102
{ACAD_REACTORS
330
C
102
}
330
C
100
AcDbDictionary
281
     1
  0
ACDBDICTIONARYWDFLT
  5
E
102
{ACAD_REACTORS
330
C
102
}
330
C
100
AcDbDictionary
281
     1
  3
Normal
350
F
100
AcDbDictionaryWithDefault
340
F
  0
LAYOUT
  5
1E
102
{ACAD_REACTORS
330
1A
102
}
330
1A
100
AcDbPlotSettings
  1

  2
none_device
  4

  6

 40
0.0
 41
0.0
 42
0.0
 43
0.0
 44
0.0
 45
0.0
 46
0.0
 47
0.0
 48
0.0
 49
0.0
140
0.0
141
0.0
142
1.0
143
1.0
 70
   688
 72
     0
 73
     0
 74
     5
  7

 75
    16
147
1.0
148
0.0
149
0.0
100
AcDbLayout
  1
Layout1
 70
     1
 71
     1
 10
0.0
 20
0.0
 11
420.0
 21
297.0
 12
0.0
 22
0.0
 32
0.0
 14
1.0000000000E+20
 24
1.0000000000E+20
 34
1.0000000000E+20
 15
-1.0000000000E+20
 25
-1.0000000000E+20
 35
-1.0000000000E+20
146
0.0
 13
0.0
 23
0.0
 33
0.0
 16
1.0
 26
0.0
 36
0.0
 17
0.0
 27
1.0
 37
0.0
 76
     0
330
1B
  0
LAYOUT
  5
26
102
{ACAD_REACTORS
330
1A
102
}
330
1A
100
AcDbPlotSettings
  1

  2
none_device
  4

  6

 40
0.0
 41
0.0
 42
0.0
 43
0.0
 44
0.0
 45
0.0
 46
0.0
 47
0.0
 48
0.0
 49
0.0
140
0.0
141
0.0
142
1.0
143
1.0
 70
   688
 72
     0
 73
     0
 74
     5
  7

 75
    16
147
1.0
148
0.0
149
0.0
100
AcDbLayout
  1
Layout2
 70
     1
 71
     2
 10
0.0
 20
0.0
 11
0.0
 21
0.0
 12
0.0
 22
0.0
 32
0.0
 14
0.0
 24
0.0
 34
0.0
 15
0.0
 25
0.0
 35
0.0
146
0.0
 13
0.0
 23
0.0
 33
0.0
 16
1.0
 26
0.0
 36
0.0
 17
0.0
 27
1.0
 37
0.0
 76
     0
330
23
  0
LAYOUT
  5
22
102
{ACAD_REACTORS
330
1A
102
}
330
1A
100
AcDbPlotSettings
  1

  2
none_device
  4

  6

 40
0.0
 41
0.0
 42
0.0
 43
0.0
 44
0.0
 45
0.0
 46
0.0
 47
0.0
 48
0.0
 49
0.0
140
0.0
141
0.0
142
1.0
143
1.0
 70
  1712
 72
     0
 73
     0
 74
     0
  7

 75
     0
147
1.0
148
0.0
149
0.0
100
AcDbLayout
  1
Model
 70
     1
 71
     0
 10
0.0
 20
0.0
 11
297.0
 21
210.0
 12
0.0
 22
0.0
 32
0.0
 14
0.0
 24
0.0
 34
0.0
 15
297.0
 25
210.0
 35
0.0
146
0.0
 13
0.0
 23
0.0
 33
0.0
 16
1.0
 26
0.0
 36
0.0
 17
0.0
 27
1.0
 37
0.0
 76
     0
330
1F
331
29
  0
MLINESTYLE
  5
18
102
{ACAD_REACTORS
330
17
102
}
330
17
100
AcDbMlineStyle
  2
Standard
 70
     0
  3

 62
   256
 51
90.0
 52
90.0
 71
     2
 49
0.5
 62
   256
  6
BYLAYER
 49
-0.5
 62
   256
  6
BYLAYER
  0
ACDBPLACEHOLDER
  5
F
102
{ACAD_REACTORS
330
E
102
}
330
E
  0
ENDSEC
  0
EOF
