  0
SECTION
  2
HEADER
  9
$ACADVER
  1
AC1015
  9
$ACADMAINTVER
 70
     6
  9
$DWGCODEPAGE
  3
ANSI_1252
  9
$INSBASE
 10
0.0
 20
0.0
 30
0.0
  9
$EXTMIN
 10
0.0
 20
0.0
 30
0.0
  9
$EXTMAX
 10
297.0
 20
210.0
 30
0.0
  9
$LIMMIN
 10
0.0
 20
0.0
  9
$LIMMAX
 10
297.0
 20
210.0
  9
$ORTHOMODE
 70
     0
  9
$REGENMODE
 70
     1
  9
$FILLMODE
 70
     1
  9
$QTEXTMODE
 70
     0
  9
$MIRRTEXT
 70
     1
  9
$LTSCALE
 40
1.0
  9
$ATTMODE
 70
     1
  9
$TEXTSIZE
 40
2.0
  9
$TRACEWID
 40
1.0
  9
$TEXTSTYLE
  7
STANDARD
  9
$CLAYER
  8
0
  9
$CELTYPE
  6
ByLayer
  9
$CECOLOR
 62
   256
  9
$CELTSCALE
 40
1.0
  9
$DISPSILH
 70
     0
  9
$DIMSCALE
 40
1.0
  9
$DIMASZ
 40
3.0
  9
$DIMEXO
 40
0.0
  9
$DIMDLI
 40
3.75
  9
$DIMRND
 40
0.0
  9
$DIMDLE
 40
0.0
  9
$DIMEXE
 40
1.0
  9
$DIMTP
 40
0.0
  9
$DIMTM
 40
0.0
  9
$DIMTXT
 40
2.0
  9
$DIMCEN
 40
2.5
  9
$DIMTSZ
 40
0.0
  9
$DIMTOL
 70
     0
  9
$DIMLIM
 70
     0
  9
$DIMTIH
 70
     1
  9
$DIMTOH
 70
     1
  9
$DIMSE1
 70
     0
  9
$DIMSE2
 70
     0
  9
$DIMTAD
 70
     1
  9
$DIMZIN
 70
     0
  9
$DIMBLK
  1

  9
$DIMASO
 70
     1
  9
$DIMSHO
 70
     1
  9
$DIMPOST
  1

  9
$DIMAPOST
  1

  9
$DIMALT
 70
     0
  9
$DIMALTD
 70
     3
  9
$DIMALTF
 40
0.0393700787
  9
$DIMLFAC
 40
1.0
  9
$DIMTOFL
 70
     1
  9
$DIMTVP
 40
0.0
  9
$DIMTIX
 70
     0
  9
$DIMSOXD
 70
     0
  9
$DIMSAH
 70
     0
  9
$DIMBLK1
  1

  9
$DIMBLK2
  1

  9
$DIMSTYLE
  2
ISO-25
  9
$DIMCLRD
 70
     0
  9
$DIMCLRE
 70
     0
  9
$DIMCLRT
 70
     0
  9
$DIMTFAC
 40
1.0
  9
$DIMGAP
 40
1.524
  9
$DIMJUST
 70
     0
  9
$DIMSD1
 70
     0
  9
$DIMSD2
 70
     0
  9
$DIMTOLJ
 70
     0
  9
$DIMTZIN
 70
     0
  9
$DIMALTZ
 70
     0
  9
$DIMALTTZ
 70
     0
  9
$DIMUPT
 70
     0
  9
$DIMDEC
 70
     2
  9
$DIMTDEC
 70
     3
  9
$DIMALTU
 70
     2
  9
$DIMALTTD
 70
     3
  9
$DIMTXSTY
  7
STANDARD
  9
$DIMAUNIT
 70
     0
  9
$DIMADEC
 70
     2
  9
$DIMALTRND
 40
0.0
  9
$DIMAZIN
 70
     0
  9
$DIMDSEP
 70
    44
  9
$DIMATFIT
 70
     3
  9
$DIMFRAC
 70
     0
  9
$DIMLDRBLK
  1

  9
$DIMLUNIT
 70
     2
  9
$DIMLWD
 70
    -2
  9
$DIMLWE
 70
    -2
  9
$DIMTMOVE
 70
     0
  9
$LUNITS
 70
     2
  9
$LUPREC
 70
     2
  9
$SKETCHINC
 40
1.0
  9
$FILLETRAD
 40
10.0
  9
$AUNITS
 70
     0
  9
$AUPREC
 70
     2
  9
$MENU
  1
.
  9
$ELEVATION
 40
0.0
  9
$PELEVATION
 40
0.0
  9
$THICKNESS
 40
0.0
  9
$LIMCHECK
 70
     0
  9
$CHAMFERA
 40
10.0
  9
$CHAMFERB
 40
10.0
  9
$CHAMFERC
 40
20.0
  9
$CHAMFERD
 40
0.0
  9
$SKPOLY
 70
     0
  9
$TDCREATE
 40
2457070.584962627
  9
$TDUCREATE
 40
2457070.543295961
  9
$TDUPDATE
 40
2457070.584963171
  9
$TDUUPDATE
 40
2457070.543296505
  9
$TDINDWG
 40
0.0000000116
  9
$TDUSRTIMER
 40
0.0000000116
  9
$USRTIMER
 70
     1
  9
$ANGBASE
 50
0.0
  9
$ANGDIR
 70
     0
  9
$PDMODE
 70
     0
  9
$PDSIZE
 40
-1.0
  9
$PLINEWID
 40
0.0
  9
$SPLFRAME
 70
     0
  9
$SPLINETYPE
 70
     6
  9
$SPLINESEGS
 70
     8
  9
$HANDSEED
  5
256
  9
$SURFTAB1
 70
     6
  9
$SURFTAB2
 70
     6
  9
$SURFTYPE
 70
     6
  9
$SURFU
 70
     6
  9
$SURFV
 70
     6
  9
$UCSBASE
  2

  9
$UCSNAME
  2

  9
$UCSORG
 10
0.0
 20
0.0
 30
0.0
  9
$UCSXDIR
 10
1.0
 20
0.0
 30
0.0
  9
$UCSYDIR
 10
0.0
 20
1.0
 30
0.0
  9
$UCSORTHOREF
  2

  9
$UCSORTHOVIEW
 70
     0
  9
$UCSORGTOP
 10
0.0
 20
0.0
 30
0.0
  9
$UCSORGBOTTOM
 10
0.0
 20
0.0
 30
0.0
  9
$UCSORGLEFT
 10
0.0
 20
0.0
 30
0.0
  9
$UCSORGRIGHT
 10
0.0
 20
0.0
 30
0.0
  9
$UCSORGFRONT
 10
0.0
 20
0.0
 30
0.0
  9
$UCSORGBACK
 10
0.0
 20
0.0
 30
0.0
  9
$PUCSBASE
  2

  9
$PUCSNAME
  2

  9
$PUCSORG
 10
0.0
 20
0.0
 30
0.0
  9
$PUCSXDIR
 10
1.0
 20
0.0
 30
0.0
  9
$PUCSYDIR
 10
0.0
 20
1.0
 30
0.0
  9
$PUCSORTHOREF
  2

  9
$PUCSORTHOVIEW
 70
     0
  9
$PUCSORGTOP
 10
0.0
 20
0.0
 30
0.0
  9
$PUCSORGBOTTOM
 10
0.0
 20
0.0
 30
0.0
  9
$PUCSORGLEFT
 10
0.0
 20
0.0
 30
0.0
  9
$PUCSORGRIGHT
 10
0.0
 20
0.0
 30
0.0
  9
$PUCSORGFRONT
 10
0.0
 20
0.0
 30
0.0
  9
$PUCSORGBACK
 10
0.0
 20
0.0
 30
0.0
  9
$USERI1
 70
     0
  9
$USERI2
 70
     0
  9
$USERI3
 70
     0
  9
$USERI4
 70
     0
  9
$USERI5
 70
     0
  9
$USERR1
 40
0.0
  9
$USERR2
 40
0.0
  9
$USERR3
 40
0.0
  9
$USERR4
 40
0.0
  9
$USERR5
 40
0.0
  9
$WORLDVIEW
 70
     1
  9
$SHADEDGE
 70
     3
  9
$SHADEDIF
 70
    70
  9
$TILEMODE
 70
     1
  9
$MAXACTVP
 70
    64
  9
$PINSBASE
 10
0.0
 20
0.0
 30
0.0
  9
$PLIMCHECK
 70
     0
  9
$PEXTMIN
 10
1.0000000000E+20
 20
1.0000000000E+20
 30
1.0000000000E+20
  9
$PEXTMAX
 10
-1.0000000000E+20
 20
-1.0000000000E+20
 30
-1.0000000000E+20
  9
$PLIMMIN
 10
0.0
 20
0.0
  9
$PLIMMAX
 10
420.0
 20
297.0
  9
$UNITMODE
 70
     0
  9
$VISRETAIN
 70
     1
  9
$PLINEGEN
 70
     0
  9
$PSLTSCALE
 70
     1
  9
$TREEDEPTH
 70
  3020
  9
$CMLSTYLE
  2
Standard
  9
$CMLJUST
 70
     0
  9
$CMLSCALE
 40
20.0
  9
$PROXYGRAPHICS
 70
     1
  9
$MEASUREMENT
 70
     1
  9
$CELWEIGHT
370
    -1
  9
$ENDCAPS
280
     0
  9
$JOINSTYLE
280
     0
  9
$LWDISPLAY
290
     1
  9
$INSUNITS
 70
     4
  9
$HYPERLINKBASE
  1

  9
$STYLESHEET
  1

  9
$XEDIT
290
     1
  9
$CEPSNTYPE
380
     0
  9
$PSTYLEMODE
290
     1
  9
$FINGERPRINTGUID
  2
{0AD82F75-02FD-4E51-BCCF-E2BAE2DDDC5B}
  9
$VERSIONGUID
  2
{FAEB1C32-E019-11D5-929B-00C0DF256EC4}
  9
$EXTNAMES
290
     1
  9
$PSVPSCALE
 40
0.0
  9
$OLESTARTUP
290
     0
  0
ENDSEC
  0
SECTION
  2
CLASSES
  0
CLASS
  1
ACDBDICTIONARYWDFLT
  2
AcDbDictionaryWithDefault
  3
ObjectDBX Classes
 90
        0
280
     0
281
     0
  0
CLASS
  1
VISUALSTYLE
  2
AcDbVisualStyle
  3
ObjectDBX Classes
 90
     4095
280
     0
281
     0
  0
CLASS
  1
MATERIAL
  2
AcDbMaterial
  3
ObjectDBX Classes
 90
     1153
280
     0
281
     0
  0
CLASS
  1
ACDBPLACEHOLDER
  2
AcDbPlaceHolder
  3
ObjectDBX Classes
 90
        0
280
     0
281
     0
  0
CLASS
  1
LAYOUT
  2
AcDbLayout
  3
ObjectDBX Classes
 90
        0
280
     0
281
     0
  0
ENDSEC
  0
SECTION
  2
TABLES
  0
TABLE
  2
VPORT
  5
8
330
0
100
AcDbSymbolTable
 70
     1
  0
VPORT
  5
29
330
8
100
AcDbSymbolTableRecord
100
AcDbViewportTableRecord
  2
*Active
 70
     0
 10
0.0
 20
0.0
 11
1.0
 21
1.0
 12
148.5
 22
105.0
 13
0.0
 23
0.0
 14
10.0
 24
10.0
 15
10.0
 25
10.0
 16
0.0
 26
0.0
 36
1.0
 17
0.0
 27
0.0
 37
0.0
 40
210.0
 41
1.4142857143
 42
50.0
 43
0.0
 44
0.0
 50
0.0
 51
0.0
 71
     0
 72
  2000
 73
     1
 74
     3
 75
     0
 76
     0
 77
     0
 78
     0
281
     0
 65
     1
110
0.0
120
0.0
130
0.0
111
1.0
121
0.0
131
0.0
112
0.0
122
1.0
132
0.0
 79
     0
146
0.0
  0
ENDTAB
  0
TABLE
  2
LTYPE
  5
5
330
0
100
AcDbSymbolTable
 70
     8
  0
LTYPE
  5
14
330
5
100
AcDbSymbolTableRecord
100
AcDbLinetypeTableRecord
  2
ByBlock
 70
     0
  3

 72
    65
 73
     0
 40
0.0
  0
LTYPE
  5
15
330
5
100
AcDbSymbolTableRecord
100
AcDbLinetypeTableRecord
  2
ByLayer
 70
     0
  3

 72
    65
 73
     0
 40
0.0
  0
LTYPE
  5
16
330
5
100
AcDbSymbolTableRecord
100
AcDbLinetypeTableRecord
  2
Continuous
 70
     0
  3
Solid line
 72
    65
 73
     0
 40
0.0
  0
LTYPE
  5
3F
330
5
100
AcDbSymbolTableRecord
100
AcDbLinetypeTableRecord
  2
SLD-Durchgehend
 70
     0
  3
SolidWorks Line Style
 72
    65
 73
     0
 40
0.0
  0
LTYPE
  5
40
330
5
100
AcDbSymbolTableRecord
100
AcDbLinetypeTableRecord
  2
SLD-Gestrichelt
 70
     0
  3
SolidWorks Line Style
 72
    65
 73
     2
 40
1.905
 49
1.27
 74
     0
 49
-0.635
 74
     0
  0
LTYPE
  5
41
330
5
100
AcDbSymbolTableRecord
100
AcDbLinetypeTableRecord
  2
SLD-Phantom
 70
     0
  3
SolidWorks Line Style
 72
    65
 73
     6
 40
12.7
 49
6.35
 74
     0
 49
-1.27
 74
     0
 49
1.27
 74
     0
 49
-1.27
 74
     0
 49
1.27
 74
     0
 49
-1.27
 74
     0
  0
LTYPE
  5
42
330
5
100
AcDbSymbolTableRecord
100
AcDbLinetypeTableRecord
  2
SLD-Kette
 70
     0
  3
SolidWorks Line Style
 72
    65
 73
     4
 40
10.16
 49
6.35
 74
     0
 49
-1.27
 74
     0
 49
1.27
 74
     0
 49
-1.27
 74
     0
  0
LTYPE
  5
43
330
5
100
AcDbSymbolTableRecord
100
AcDbLinetypeTableRecord
  2
SLD-Punktstrich
 70
     0
  3
SolidWorks Line Style
 72
    65
 73
     4
 40
19.05
 49
15.24
 74
     0
 49
-1.27
 74
     0
 49
1.27
 74
     0
 49
-1.27
 74
     0
  0
LTYPE
  5
44
330
5
100
AcDbSymbolTableRecord
100
AcDbLinetypeTableRecord
  2
SLD-Naht
 70
     0
  3
SolidWorks Line Style
 72
    65
 73
     2
 40
0.635
 49
0.0
 74
     0
 49
-0.635
 74
     0
  0
LTYPE
  5
45
330
5
100
AcDbSymbolTableRecord
100
AcDbLinetypeTableRecord
  2
SLD-Dicke-Dünne-Kette
 70
     0
  3
SolidWorks Line Style
 72
    65
 73
     4
 40
10.16
 49
6.35
 74
     0
 49
-1.27
 74
     0
 49
1.27
 74
     0
 49
-1.27
 74
     0
  0
ENDTAB
  0
TABLE
  2
LAYER
  5
2
330
0
100
AcDbSymbolTable
 70
     5
  0
LAYER
  5
10
330
2
100
AcDbSymbolTableRecord
100
AcDbLayerTableRecord
  2
0
 70
     0
 62
     7
  6
Continuous
370
    -3
390
F
  0
LAYER
  5
46
330
2
100
AcDbSymbolTableRecord
100
AcDbLayerTableRecord
  2
FORMAT
 70
     0
 62
     7
  6
SLD-Durchgehend
370
    -3
390
F
  0
LAYER
  5
47
330
2
100
AcDbSymbolTableRecord
100
AcDbLayerTableRecord
  2
VERMASSUNG
 70
     0
 62
     7
  6
SLD-Durchgehend
370
    -3
390
F
  0
LAYER
  5
48
330
2
100
AcDbSymbolTableRecord
100
AcDbLayerTableRecord
  2
KOPF_DÜNN
 70
     0
 62
     7
  6
SLD-Durchgehend
370
    -3
390
F
  0
LAYER
  5
49
330
2
100
AcDbSymbolTableRecord
100
AcDbLayerTableRecord
  2
KOPF_DICK
 70
     0
 62
     7
  6
SLD-Durchgehend
370
    15
390
F
  0
ENDTAB
  0
TABLE
  2
STYLE
  5
3
330
0
100
AcDbSymbolTable
 70
     2
  0
STYLE
  5
11
330
3
100
AcDbSymbolTableRecord
100
AcDbTextStyleTableRecord
  2
STANDARD
 70
     0
 40
0.0
 41
1.0
 50
0.0
 71
     0
 42
2.0
  3
ISOCPEUR.TTF
  4

1001
ACAD
1000
ISOCPEUR
1071
       34
  0
STYLE
  5
4A
330
3
100
AcDbSymbolTableRecord
100
AcDbTextStyleTableRecord
  2
SLDTEXTSTYLE0
 70
     0
 40
0.0
 41
1.0
 50
0.0
 71
     0
 42
0.2
  3
ISOCPEUR.TTF
  4

1001
ACAD
1000
ISOCPEUR
1071
      290
  0
ENDTAB
  0
TABLE
  2
VIEW
  5
6
330
0
100
AcDbSymbolTable
 70
     0
  0
ENDTAB
  0
TABLE
  2
UCS
  5
7
330
0
100
AcDbSymbolTable
 70
     0
  0
ENDTAB
  0
TABLE
  2
APPID
  5
9
330
0
100
AcDbSymbolTable
 70
     1
  0
APPID
  5
12
330
9
100
AcDbSymbolTableRecord
100
AcDbRegAppTableRecord
  2
ACAD
 70
     0
  0
ENDTAB
  0
TABLE
  2
DIMSTYLE
  5
A
330
0
100
AcDbSymbolTable
 70
     3
100
AcDbDimStyleTable
  0
DIMSTYLE
105
27
330
A
100
AcDbSymbolTableRecord
100
AcDbDimStyleTableRecord
  2
ISO-25
 70
     0
 41
2.5
 42
0.625
 43
3.75
 44
1.25
 73
     0
 74
     0
 77
     1
 78
     8
140
2.5
141
2.5
143
0.0393700787
147
0.625
171
     3
172
     1
178
     0
271
     2
272
     2
274
     3
278
    44
283
     0
284
     8
340
11
  0
DIMSTYLE
105
1D4
102
{ACAD_REACTORS
330
1D3
330
1DE
330
1EA
330
1F4
330
23E
102
}
330
A
100
AcDbSymbolTableRecord
100
AcDbDimStyleTableRecord
  2
SLDDIMSTYLE0
 70
     0
 41
3.0
 44
0.0
 45
0.000000001
 73
     0
 74
     0
 77
     1
 78
    12
 79
     3
140
2.0
147
0.5
173
     1
178
     0
271
     2
272
     3
276
     2
284
    12
340
4A
  0
DIMSTYLE
105
1FF
102
{ACAD_REACTORS
330
1FE
102
}
330
A
100
AcDbSymbolTableRecord
100
AcDbDimStyleTableRecord
  2
SLDDIMSTYLE1
 70
     0
 41
3.0
 44
0.0
 73
     0
 74
     0
 77
     1
 78
    12
 79
     3
140
2.0
147
0.5
173
     1
178
     0
272
     3
276
     2
284
    12
340
4A
  0
ENDTAB
  0
TABLE
  2
BLOCK_RECORD
  5
1
330
0
100
AcDbSymbolTable
 70
     8
  0
BLOCK_RECORD
  5
1F
330
1
100
AcDbSymbolTableRecord
100
AcDbBlockTableRecord
  2
*Model_Space
340
22
  0
BLOCK_RECORD
  5
1B
330
1
100
AcDbSymbolTableRecord
100
AcDbBlockTableRecord
  2
*Paper_Space
340
1E
  0
BLOCK_RECORD
  5
23
330
1
100
AcDbSymbolTableRecord
100
AcDbBlockTableRecord
  2
*Paper_Space0
340
26
  0
BLOCK_RECORD
  5
1D5
330
1
100
AcDbSymbolTableRecord
100
AcDbBlockTableRecord
  2
_D
340
0
  0
BLOCK_RECORD
  5
1DF
330
1
100
AcDbSymbolTableRecord
100
AcDbBlockTableRecord
  2
_D_1
340
0
  0
BLOCK_RECORD
  5
1EB
330
1
100
AcDbSymbolTableRecord
100
AcDbBlockTableRecord
  2
_D_2
340
0
  0
BLOCK_RECORD
  5
1F5
330
1
100
AcDbSymbolTableRecord
100
AcDbBlockTableRecord
  2
_D_3
340
0
  0
BLOCK_RECORD
  5
200
330
1
100
AcDbSymbolTableRecord
100
AcDbBlockTableRecord
  2
_D_4
340
0
  0
BLOCK_RECORD
  5
23F
330
1
100
AcDbSymbolTableRecord
100
AcDbBlockTableRecord
  2
_D_5
340
0
  0
BLOCK_RECORD
  5
249
330
1
100
AcDbSymbolTableRecord
100
AcDbBlockTableRecord
  2
SW_CENTERMARKSYMBOL_0
340
0
102
{BLKREFS
331
254
102
}
  0
ENDTAB
  0
ENDSEC
  0
SECTION
  2
BLOCKS
  0
BLOCK
  5
20
330
1F
100
AcDbEntity
  8
0
100
AcDbBlockBegin
  2
*Model_Space
 70
     0
 10
0.0
 20
0.0
 30
0.0
  3
*Model_Space
  1

  0
ENDBLK
  5
21
330
1F
100
AcDbEntity
  8
0
100
AcDbBlockEnd
  0
BLOCK
  5
1C
330
1B
100
AcDbEntity
 67
     1
  8
0
100
AcDbBlockBegin
  2
*Paper_Space
 70
     0
 10
0.0
 20
0.0
 30
0.0
  3
*Paper_Space
  1

  0
ENDBLK
  5
1D
330
1B
100
AcDbEntity
 67
     1
  8
0
100
AcDbBlockEnd
  0
BLOCK
  5
24
330
23
100
AcDbEntity
  8
0
100
AcDbBlockBegin
  2
*Paper_Space0
 70
     0
 10
0.0
 20
0.0
 30
0.0
  3
*Paper_Space0
  1

  0
ENDBLK
  5
25
330
23
100
AcDbEntity
  8
0
100
AcDbBlockEnd
  0
BLOCK
  5
1D6
330
1D5
100
AcDbEntity
  8
0
100
AcDbBlockBegin
  2
_D
 70
     0
 10
0.0
 20
0.0
 30
0.0
  3
_D
  1

  0
SOLID
  5
1D8
330
1D5
100
AcDbEntity
  8
VERMASSUNG
100
AcDbTrace
 10
283.6903762612
 20
129.0035714286
 30
0.0
 11
283.2403762612
 21
126.0035714286
 31
0.0
 12
284.1403762612
 22
126.0035714286
 32
0.0
 13
284.1403762612
 23
126.0035714286
 33
0.0
  0
SOLID
  5
1D9
330
1D5
100
AcDbEntity
  8
VERMASSUNG
100
AcDbTrace
 10
283.6903762612
 20
107.0035714286
 30
0.0
 11
284.1403762612
 21
110.0035714286
 31
0.0
 12
283.2403762612
 22
110.0035714286
 32
0.0
 13
283.2403762612
 23
110.0035714286
 33
0.0
  0
LINE
  5
1DA
330
1D5
100
AcDbEntity
  8
VERMASSUNG
100
AcDbLine
 10
278.4589973107
 20
129.0035714286
 30
0.0
 11
284.6903762612
 21
129.0035714286
 31
0.0
  0
LINE
  5
1DB
330
1D5
100
AcDbEntity
  8
VERMASSUNG
100
AcDbLine
 10
278.1978571429
 20
107.0035714286
 30
0.0
 11
284.6903762612
 21
107.0035714286
 31
0.0
  0
LINE
  5
1DC
330
1D5
100
AcDbEntity
  8
VERMASSUNG
100
AcDbLine
 10
283.6903762612
 20
129.0035714286
 30
0.0
 11
283.6903762612
 21
107.0035714286
 31
0.0
  0
MTEXT
  5
1DD
330
1D5
100
AcDbEntity
  8
VERMASSUNG
100
AcDbMText
 10
281.0903763776
 20
116.6045070968
 30
0.0
 40
2.0
 41
0.0
 71
     1
 72
     1
  1
22
  7
SLDTEXTSTYLE0
 11
-7.044195017643634E-15
 21
1.0
 31
0.0
 73
     1
 44
1.0
  0
ENDBLK
  5
1D7
330
1D5
100
AcDbEntity
  8
0
100
AcDbBlockEnd
  0
BLOCK
  5
1E0
330
1DF
100
AcDbEntity
  8
0
100
AcDbBlockBegin
  2
_D_1
 70
     0
 10
0.0
 20
0.0
 30
0.0
  3
_D_1
  1

  0
SOLID
  5
1E2
330
1DF
100
AcDbEntity
  8
VERMASSUNG
100
AcDbTrace
 10
114.1721428571
 20
138.5035714286
 30
0.0
 11
113.7221428571
 21
135.5035714286
 31
0.0
 12
114.6221428571
 22
135.5035714286
 32
0.0
 13
114.6221428571
 23
135.5035714286
 33
0.0
  0
SOLID
  5
1E3
330
1DF
100
AcDbEntity
  8
VERMASSUNG
100
AcDbTrace
 10
114.1721428571
 20
75.5035714286
 30
0.0
 11
114.6221428571
 21
78.5035714286
 31
0.0
 12
113.7221428571
 22
78.5035714286
 32
0.0
 13
113.7221428571
 23
78.5035714286
 33
0.0
  0
LINE
  5
1E4
330
1DF
100
AcDbEntity
  8
VERMASSUNG
100
AcDbLine
 10
153.7589973107
 20
138.5035714286
 30
0.0
 11
113.1721428571
 21
138.5035714286
 31
0.0
  0
LINE
  5
1E5
330
1DF
100
AcDbEntity
  8
VERMASSUNG
100
AcDbLine
 10
153.7589973107
 20
75.5035714286
 30
0.0
 11
113.1721428571
 21
75.5035714286
 31
0.0
  0
LINE
  5
1E6
330
1DF
100
AcDbEntity
  8
VERMASSUNG
100
AcDbLine
 10
114.1721428571
 20
138.5035714286
 30
0.0
 11
114.1721428571
 21
75.5035714286
 31
0.0
  0
MTEXT
  5
1E7
330
1DF
100
AcDbEntity
  8
VERMASSUNG
100
AcDbMText
 10
111.3721428476
 20
100.8007267688
 30
0.0
 40
2.0
 41
0.0
 71
     1
 72
     1
  1
HSK 
  7
SLDTEXTSTYLE0
 11
-7.044195017643634E-15
 21
1.0
 31
0.0
 73
     1
 44
1.0
  0
MTEXT
  5
1E8
330
1DF
100
AcDbEntity
  8
VERMASSUNG
100
AcDbMText
 10
111.5721428571
 20
106.800726821
 30
0.0
 40
2.0
 41
0.0
 71
     1
 72
     1
  1
%%c
  7
SLDTEXTSTYLE0
 11
-7.044195017643634E-15
 21
1.0
 31
0.0
 73
     1
 44
1.0
  0
MTEXT
  5
1E9
330
1DF
100
AcDbEntity
  8
VERMASSUNG
100
AcDbMText
 10
111.5721429736
 20
110.4082874248
 30
0.0
 40
2.0
 41
0.0
 71
     1
 72
     1
  1
63
  7
SLDTEXTSTYLE0
 11
-7.044195017643634E-15
 21
1.0
 31
0.0
 73
     1
 44
1.0
  0
ENDBLK
  5
1E1
330
1DF
100
AcDbEntity
  8
0
100
AcDbBlockEnd
  0
BLOCK
  5
1EC
330
1EB
100
AcDbEntity
  8
0
100
AcDbBlockBegin
  2
_D_2
 70
     0
 10
0.0
 20
0.0
 30
0.0
  3
_D_2
  1

  0
SOLID
  5
1EE
330
1EB
100
AcDbEntity
  8
VERMASSUNG
100
AcDbTrace
 10
278.4589973107
 20
150.345917018
 30
0.0
 11
275.4589973107
 21
150.795917018
 31
0.0
 12
275.4589973107
 22
149.895917018
 32
0.0
 13
275.4589973107
 23
149.895917018
 33
0.0
  0
SOLID
  5
1EF
330
1EB
100
AcDbEntity
  8
VERMASSUNG
100
AcDbTrace
 10
121.5589973107
 20
150.345917018
 30
0.0
 11
124.5589973107
 21
149.895917018
 31
0.0
 12
124.5589973107
 22
150.795917018
 32
0.0
 13
124.5589973107
 23
150.795917018
 33
0.0
  0
LINE
  5
1F0
330
1EB
100
AcDbEntity
  8
VERMASSUNG
100
AcDbLine
 10
278.4589973107
 20
129.0035714286
 30
0.0
 11
278.4589973107
 21
151.345917018
 31
0.0
  0
LINE
  5
1F1
330
1EB
100
AcDbEntity
  8
VERMASSUNG
100
AcDbLine
 10
121.5589973107
 20
126.694249175
 30
0.0
 11
121.5589973107
 21
151.345917018
 31
0.0
  0
LINE
  5
1F2
330
1EB
100
AcDbEntity
  8
VERMASSUNG
100
AcDbLine
 10
278.4589973107
 20
150.345917018
 30
0.0
 11
121.5589973107
 21
150.345917018
 31
0.0
  0
MTEXT
  5
1F3
330
1EB
100
AcDbEntity
  8
VERMASSUNG
100
AcDbMText
 10
197.1093631056
 20
152.9459169016
 30
0.0
 40
2.0
 41
0.0
 71
     1
 72
     1
  1
156.9
  7
SLDTEXTSTYLE0
 73
     1
 44
1.0
  0
ENDBLK
  5
1ED
330
1EB
100
AcDbEntity
  8
0
100
AcDbBlockEnd
  0
BLOCK
  5
1F6
330
1F5
100
AcDbEntity
  8
0
100
AcDbBlockBegin
  2
_D_3
 70
     0
 10
0.0
 20
0.0
 30
0.0
  3
_D_3
  1

  0
SOLID
  5
1F8
330
1F5
100
AcDbEntity
  8
VERMASSUNG
100
AcDbTrace
 10
153.4589973107
 20
144.345917018
 30
0.0
 11
156.4589973107
 21
143.895917018
 31
0.0
 12
156.4589973107
 22
144.795917018
 32
0.0
 13
156.4589973107
 23
144.795917018
 33
0.0
  0
SOLID
  5
1F9
330
1F5
100
AcDbEntity
  8
VERMASSUNG
100
AcDbTrace
 10
278.4589973107
 20
144.345917018
 30
0.0
 11
275.4589973107
 21
144.795917018
 31
0.0
 12
275.4589973107
 22
143.895917018
 32
0.0
 13
275.4589973107
 23
143.895917018
 33
0.0
  0
LINE
  5
1FA
330
1F5
100
AcDbEntity
  8
VERMASSUNG
100
AcDbLine
 10
153.4589973107
 20
138.2035714286
 30
0.0
 11
153.4589973107
 21
145.345917018
 31
0.0
  0
LINE
  5
1FB
330
1F5
100
AcDbEntity
  8
VERMASSUNG
100
AcDbLine
 10
278.4589973107
 20
129.0035714286
 30
0.0
 11
278.4589973107
 21
145.345917018
 31
0.0
  0
LINE
  5
1FC
330
1F5
100
AcDbEntity
  8
VERMASSUNG
100
AcDbLine
 10
153.4589973107
 20
144.345917018
 30
0.0
 11
278.4589973107
 21
144.345917018
 31
0.0
  0
MTEXT
  5
1FD
330
1F5
100
AcDbEntity
  8
VERMASSUNG
100
AcDbMText
 10
214.0597430212
 20
146.9459169016
 30
0.0
 40
2.0
 41
0.0
 71
     1
 72
     1
  1
125
  7
SLDTEXTSTYLE0
 73
     1
 44
1.0
  0
ENDBLK
  5
1F7
330
1F5
100
AcDbEntity
  8
0
100
AcDbBlockEnd
  0
BLOCK
  5
201
330
200
100
AcDbEntity
  8
0
100
AcDbBlockBegin
  2
_D_4
 70
     0
 10
0.0
 20
0.0
 30
0.0
  3
_D_4
  1

  0
ARC
  5
203
330
200
100
AcDbEntity
  8
VERMASSUNG
100
AcDbCircle
 10
278.4589973107
 20
131.6934061846
 30
0.0
 40
29.6658764570292
100
AcDbArc
 50
264.9878526278
 51
270.0
  0
ARC
  5
204
330
200
100
AcDbEntity
  8
VERMASSUNG
100
AcDbCircle
 10
278.4589973107
 20
131.6934061846
 30
0.0
 40
29.6658764570292
100
AcDbArc
 50
253.4536042347
 51
264.9878526278
  0
ARC
  5
205
330
200
100
AcDbEntity
  8
VERMASSUNG
100
AcDbCircle
 10
278.4589973107
 20
131.6934061846
 30
0.0
 40
29.6658764570292
100
AcDbArc
 50
270.0
 51
285.7138277223
  0
SOLID
  5
206
330
200
100
AcDbEntity
  8
VERMASSUNG
100
AcDbTrace
 10
275.8671802944
 20
102.1409661751
 30
0.0
 11
272.9574927659
 21
102.9989979266
 31
0.0
 12
272.8338022166
 22
102.1075380856
 32
0.0
 13
272.8338022166
 23
102.1075380856
 33
0.0
  0
SOLID
  5
207
330
200
100
AcDbEntity
  8
VERMASSUNG
100
AcDbTrace
 10
278.4589973107
 20
102.0275297276
 30
0.0
 11
281.4778558403
 21
101.7292124829
 31
0.0
 12
281.4325223827
 22
102.6280700231
 32
0.0
 13
281.4325223827
 23
102.6280700231
 33
0.0
  0
LINE
  5
208
330
200
100
AcDbEntity
  8
VERMASSUNG
100
AcDbLine
 10
276.9937976429
 20
114.9868929497
 30
0.0
 11
275.7798133487
 21
101.1447899774
 31
0.0
  0
LINE
  5
209
330
200
100
AcDbEntity
  8
VERMASSUNG
100
AcDbLine
 10
278.4589973107
 20
107.0035714286
 30
0.0
 11
278.4589973107
 21
101.0275297276
 31
0.0
  0
MTEXT
  5
20A
330
200
100
AcDbEntity
  8
VERMASSUNG
100
AcDbMText
 10
281.9534554862
 20
104.8226549711
 30
0.0
 40
2.0
 41
0.0
 71
     1
 72
     1
  1
5°
  7
SLDTEXTSTYLE0
 11
0.9843287234486157
 21
0.1763433134372233
 31
0.0
 73
     1
 44
1.0
  0
ENDBLK
  5
202
330
200
100
AcDbEntity
  8
0
100
AcDbBlockEnd
  0
BLOCK
  5
240
330
23F
100
AcDbEntity
  8
0
100
AcDbBlockBegin
  2
_D_5
 70
     0
 10
0.0
 20
0.0
 30
0.0
  3
_D_5
  1

  0
SOLID
  5
242
330
23F
100
AcDbEntity
  8
VERMASSUNG
100
AcDbTrace
 10
22.0940694679
 20
88.9636437808
 30
0.0
 11
22.5440694679
 21
91.9636437808
 31
0.0
 12
21.6440694679
 22
91.9636437808
 32
0.0
 13
21.6440694679
 23
91.9636437808
 33
0.0
  0
SOLID
  5
243
330
23F
100
AcDbEntity
  8
VERMASSUNG
100
AcDbTrace
 10
22.0940694679
 20
128.9636437808
 30
0.0
 11
21.6440694679
 21
125.9636437808
 31
0.0
 12
22.5440694679
 22
125.9636437808
 32
0.0
 13
22.5440694679
 23
125.9636437808
 33
0.0
  0
LINE
  5
244
330
23F
100
AcDbEntity
  8
VERMASSUNG
100
AcDbLine
 10
57.8022079869
 20
88.9636437808
 30
0.0
 11
21.0940694679
 21
88.9636437808
 31
0.0
  0
LINE
  5
245
330
23F
100
AcDbEntity
  8
VERMASSUNG
100
AcDbLine
 10
57.8022079869
 20
128.9636437808
 30
0.0
 11
21.0940694679
 21
128.9636437808
 31
0.0
  0
LINE
  5
246
330
23F
100
AcDbEntity
  8
VERMASSUNG
100
AcDbLine
 10
22.0940694679
 20
88.9636437808
 30
0.0
 11
22.0940694679
 21
128.9636437808
 31
0.0
  0
MTEXT
  5
247
330
23F
100
AcDbEntity
  8
VERMASSUNG
100
AcDbMText
 10
19.4940694679
 20
105.6604333261
 30
0.0
 40
2.0
 41
0.0
 71
     1
 72
     1
  1
%%c
  7
SLDTEXTSTYLE0
 11
6.123233995736766E-17
 21
1.0
 31
0.0
 73
     1
 44
1.0
  0
MTEXT
  5
248
330
23F
100
AcDbEntity
  8
VERMASSUNG
100
AcDbMText
 10
19.4940695844
 20
109.2681604054
 30
0.0
 40
2.0
 41
0.0
 71
     1
 72
     1
  1
40
  7
SLDTEXTSTYLE0
 11
6.123233995736766E-17
 21
1.0
 31
0.0
 73
     1
 44
1.0
  0
ENDBLK
  5
241
330
23F
100
AcDbEntity
  8
0
100
AcDbBlockEnd
  0
BLOCK
  5
24A
330
249
100
AcDbEntity
  8
0
100
AcDbBlockBegin
  2
SW_CENTERMARKSYMBOL_0
 70
     0
 10
0.0
 20
0.0
 30
0.0
  3
SW_CENTERMARKSYMBOL_0
  1

  0
LINE
  5
24C
330
249
100
AcDbEntity
  8
VERMASSUNG
 62
     0
100
AcDbLine
 10
0.0
 20
0.0
 30
0.0
 11
0.0
 21
2.5
 31
0.0
  0
LINE
  5
24D
330
249
100
AcDbEntity
  8
VERMASSUNG
 62
     0
100
AcDbLine
 10
0.0
 20
0.0
 30
0.0
 11
-2.5
 21
0.0
 31
0.0
  0
LINE
  5
24E
330
249
100
AcDbEntity
  8
VERMASSUNG
 62
     0
100
AcDbLine
 10
0.0
 20
0.0
 30
0.0
 11
0.0
 21
-2.5
 31
0.0
  0
LINE
  5
24F
330
249
100
AcDbEntity
  8
VERMASSUNG
 62
     0
100
AcDbLine
 10
0.0
 20
0.0
 30
0.0
 11
2.5
 21
0.0
 31
0.0
  0
LINE
  5
250
330
249
100
AcDbEntity
  8
VERMASSUNG
 62
     0
100
AcDbLine
 10
0.0
 20
5.0
 30
0.0
 11
0.0
 21
34.0
 31
0.0
  0
LINE
  5
251
330
249
100
AcDbEntity
  8
VERMASSUNG
 62
     0
100
AcDbLine
 10
-5.0
 20
0.0
 30
0.0
 11
-34.0
 21
0.0
 31
0.0
  0
LINE
  5
252
330
249
100
AcDbEntity
  8
VERMASSUNG
 62
     0
100
AcDbLine
 10
0.0
 20
-5.0
 30
0.0
 11
0.0
 21
-34.0
 31
0.0
  0
LINE
  5
253
330
249
100
AcDbEntity
  8
VERMASSUNG
 62
     0
100
AcDbLine
 10
5.0
 20
0.0
 30
0.0
 11
34.0
 21
0.0
 31
0.0
  0
ENDBLK
  5
24B
330
249
100
AcDbEntity
  8
0
100
AcDbBlockEnd
  0
ENDSEC
  0
SECTION
  2
ENTITIES
  0
MTEXT
  5
4B
330
1F
100
AcDbEntity
  8
KOPF_DÜNN
100
AcDbMText
 10
13.8892156294
 20
23.8770940835
 30
0.0
 40
3.0
 41
0.0
 71
     1
 72
     1
  1
HA6.BCC.RLB.125
  7
SLDTEXTSTYLE0
 73
     1
 44
1.0
  0
MTEXT
  5
4C
330
1F
100
AcDbEntity
  8
VERMASSUNG
100
AcDbMText
 10
13.9329988022
 20
28.9162328764
 30
0.0
 40
3.0
 41
0.0
 71
     1
 72
     1
  1
Bohrstange_Boring bar
  7
SLDTEXTSTYLE0
 73
     1
 44
1.0
  0
MTEXT
  5
4D
330
1F
100
AcDbEntity
  8
VERMASSUNG
100
AcDbMText
 10
98.8601118557
 20
13.8584013384
 30
0.0
 40
2.0
 41
0.0
 71
     1
 72
     1
  1
Datum: 06.02.2009
  7
SLDTEXTSTYLE0
 73
     1
 44
1.0
  0
MTEXT
  5
4E
330
1F
100
AcDbEntity
  8
VERMASSUNG
100
AcDbMText
 10
13.933048693
 20
18.0701447943
 30
0.0
 40
2.0
 41
0.0
 71
     1
 72
     1
  1
DIN 69893 HSK 63 A ICTM / CC.. 12 04..
  7
SLDTEXTSTYLE0
 73
     1
 44
1.0
  0
MTEXT
  5
4F
330
1F
100
AcDbEntity
  8
VERMASSUNG
100
AcDbMText
 10
13.9808475933
 20
13.9309618897
 30
0.0
 40
2.0
 41
0.0
 71
     1
 72
     1
  1
Gewicht: 1130g
  7
SLDTEXTSTYLE0
 73
     1
 44
1.0
  0
LINE
  5
50
330
1F
100
AcDbEntity
  8
0
  6
SLD-Durchgehend
 62
     7
370
    15
100
AcDbLine
 10
153.758997325
 20
75.5035709219
 30
0.0
 11
158.4089972839
 21
75.5035709219
 31
0.0
  0
LINE
  5
51
330
1F
100
AcDbEntity
  8
0
  6
SLD-Durchgehend
 62
     7
370
    15
100
AcDbLine
 10
158.4369858556
 20
138.5035719352
 30
0.0
 11
153.758997325
 21
138.5035719352
 31
0.0
  0
ARC
  5
52
330
1F
100
AcDbEntity
  8
0
  6
SLD-Durchgehend
 62
     7
370
    15
100
AcDbCircle
 10
153.7589973107
 20
75.8035714286
 30
0.0
 40
0.3000000000000114
100
AcDbArc
 50
180.0
 51
270.0
  0
ARC
  5
53
330
1F
100
AcDbEntity
  8
0
  6
SLD-Durchgehend
 62
     7
370
    15
100
AcDbCircle
 10
153.7589973107
 20
138.2035714286
 30
0.0
 40
0.3000000000000114
100
AcDbArc
 50
90.0
 51
180.0
  0
ARC
  5
54
330
1F
100
AcDbEntity
  8
0
  6
SLD-Durchgehend
 62
     7
370
    15
100
AcDbCircle
 10
152.9589973107
 20
82.4331405668
 30
0.0
 40
0.5999999999999943
100
AcDbArc
 50
33.5573097619
 51
90.0
  0
ARC
  5
55
330
1F
100
AcDbEntity
  8
0
  6
SLD-Durchgehend
 62
     7
370
    15
100
AcDbCircle
 10
152.9589973107
 20
131.5740022903
 30
0.0
 40
0.6000000000000019
100
AcDbArc
 50
270.0
 51
326.4426902381
  0
LINE
  5
56
330
1F
100
AcDbEntity
  8
0
  6
SLD-Durchgehend
 62
     7
370
    15
100
AcDbLine
 10
140.228574799
 20
130.6613552945
 30
0.0
 11
127.6589964345
 21
130.0316173213
 31
0.0
  0
LINE
  5
57
330
1F
100
AcDbEntity
  8
0
  6
SLD-Durchgehend
 62
     7
370
    15
100
AcDbLine
 10
151.4589972157
 20
131.2240026521
 30
0.0
 11
148.6403878607
 21
131.0827899354
 31
0.0
  0
LINE
  5
58
330
1F
100
AcDbEntity
  8
0
  6
SLD-Durchgehend
 62
     7
370
    15
100
AcDbLine
 10
148.6406095155
 20
82.9243417459
 30
0.0
 11
151.4589972157
 21
82.7831402051
 31
0.0
  0
LINE
  5
59
330
1F
100
AcDbEntity
  8
0
  6
SLD-Durchgehend
 62
     7
370
    15
100
AcDbLine
 10
131.6589970902
 20
83.7751254069
 30
0.0
 11
140.2292742223
 21
83.3457521724
 31
0.0
  0
LINE
  5
5A
330
1F
100
AcDbEntity
  8
0
  6
SLD-Durchgehend
 62
     7
370
    15
100
AcDbLine
 10
151.4589972157
 20
82.7831402051
 30
0.0
 11
152.3157101419
 21
83.0126963185
 31
0.0
  0
LINE
  5
5B
330
1F
100
AcDbEntity
  8
0
  6
SLD-Durchgehend
 62
     7
370
    15
100
AcDbLine
 10
152.3157101419
 20
130.9944465386
 30
0.0
 11
151.4589972157
 21
131.2240026521
 31
0.0
  0
ARC
  5
5C
330
1F
100
AcDbEntity
  8
0
  6
SLD-Durchgehend
 62
     7
370
    15
100
AcDbCircle
 10
152.4710015112
 20
82.4331405668
 30
0.0
 40
0.6000000000000085
100
AcDbArc
 50
90.0
 51
105.0
  0
ARC
  5
5D
330
1F
100
AcDbEntity
  8
0
  6
SLD-Durchgehend
 62
     7
370
    15
100
AcDbCircle
 10
152.4710015112
 20
131.5740022903
 30
0.0
 40
0.6000000000000282
100
AcDbArc
 50
255.0
 51
270.0
  0
LINE
  5
5E
330
1F
100
AcDbEntity
  8
0
  6
SLD-Durchgehend
 62
     7
370
    15
100
AcDbLine
 10
152.4710015456
 20
83.0331407117
 30
0.0
 11
152.958997287
 21
83.0331407117
 31
0.0
  0
LINE
  5
5F
330
1F
100
AcDbEntity
  8
0
  6
SLD-Durchgehend
 62
     7
370
    15
100
AcDbLine
 10
152.958997287
 20
130.9740021454
 30
0.0
 11
152.4710015456
 21
130.9740021454
 31
0.0
  0
ARC
  5
60
330
1F
100
AcDbEntity
  8
0
  6
SLD-Durchgehend
 62
     7
370
    15
100
AcDbCircle
 10
182.4089973107
 20
88.0035714286
 30
0.0
 40
3.0
100
AcDbArc
 50
90.0
 51
180.0
  0
ARC
  5
61
330
1F
100
AcDbEntity
  8
0
  6
SLD-Durchgehend
 62
     7
370
    15
100
AcDbCircle
 10
182.4089973107
 20
126.0035714286
 30
0.0
 40
3.0
100
AcDbArc
 50
180.0
 51
270.0
  0
LINE
  5
62
330
1F
100
AcDbEntity
  8
0
  6
SLD-Durchgehend
 62
     7
370
    15
100
AcDbLine
 10
182.4089974925
 20
91.0035706686
 30
0.0
 11
252.4589967743
 21
91.0035706686
 31
0.0
  0
LINE
  5
63
330
1F
100
AcDbEntity
  8
0
  6
SLD-Durchgehend
 62
     7
370
    15
100
AcDbLine
 10
252.4589967743
 20
123.0035721885
 30
0.0
 11
182.4089974925
 21
123.0035721885
 31
0.0
  0
LINE
  5
64
330
1F
100
AcDbEntity
  8
0
  6
SLD-Durchgehend
 62
     7
370
    15
100
AcDbLine
 10
122.7089964614
 20
86.1910711604
 30
0.0
 11
130.2589976058
 21
86.1910711604
 31
0.0
  0
ARC
  5
65
330
1F
100
AcDbEntity
  8
0
  6
SLD-Durchgehend
 62
     7
370
    15
100
AcDbCircle
 10
130.2589973107
 20
84.7910714286
 30
0.0
 40
1.400000000000005
100
AcDbArc
 50
37.6443616934
 51
90.0
  0
LINE
  5
66
330
1F
100
AcDbEntity
  8
0
  6
SLD-Durchgehend
 62
     7
370
    15
100
AcDbLine
 10
122.7001600728
 20
127.864735164
 30
0.0
 11
121.5688993052
 21
126.7334725337
 31
0.0
  0
LINE
  5
67
330
1F
100
AcDbEntity
  8
0
  6
SLD-Durchgehend
 62
     7
370
    15
100
AcDbLine
 10
121.5564158574
 20
87.3436517643
 30
0.0
 11
122.7089964614
 21
86.1910711604
 31
0.0
  0
ARC
  5
68
330
1F
100
AcDbEntity
  8
0
  6
SLD-Durchgehend
 62
     7
370
    15
100
AcDbCircle
 10
126.2589973107
 20
129.2735714286
 30
0.0
 40
1.400000000000015
100
AcDbArc
 50
270.0
 51
301.7485287426
  0
LINE
  5
69
330
1F
100
AcDbEntity
  8
0
  6
SLD-Durchgehend
 62
     7
370
    15
100
AcDbLine
 10
126.2589969501
 20
127.8735715525
 30
0.0
 11
122.8332628325
 21
127.8735715525
 31
0.0
  0
LINE
  5
6A
330
1F
100
AcDbEntity
  8
0
  6
SLD-Durchgehend
 62
     7
370
    15
100
AcDbLine
 10
252.9589977876
 20
90.503571518
 30
0.0
 11
259.567752184
 21
90.503571518
 31
0.0
  0
LINE
  5
6B
330
1F
100
AcDbEntity
  8
0
  6
SLD-Durchgehend
 62
     7
370
    15
100
AcDbLine
 10
252.8657314197
 20
123.4103049713
 30
0.0
 11
252.4589967743
 21
123.0035721885
 31
0.0
  0
LINE
  5
6C
330
1F
100
AcDbEntity
  8
0
  6
SLD-Durchgehend
 62
     7
370
    15
100
AcDbLine
 10
252.4589967743
 20
91.0035706686
 30
0.0
 11
252.9589977876
 21
90.503571518
 31
0.0
  0
LINE
  5
6D
330
1F
100
AcDbEntity
  8
0
  6
SLD-Durchgehend
 62
     7
370
    15
100
AcDbLine
 10
270.0560089961
 20
121.8583946677
 30
0.0
 11
270.0560089961
 21
121.9700034337
 31
0.0
  0
LINE
  5
6E
330
1F
100
AcDbEntity
  8
0
  6
SLD-Durchgehend
 62
     7
370
    15
100
AcDbLine
 10
272.894262971
 20
122.0814557376
 30
0.0
 11
272.894262971
 21
121.9698115813
 31
0.0
  0
LINE
  5
6F
330
1F
100
AcDbEntity
  8
0
  6
SLD-Durchgehend
 62
     7
370
    15
100
AcDbLine
 10
267.9736015216
 20
122.0003096016
 30
0.0
 11
267.9736015216
 21
121.9863583895
 31
0.0
  0
LINE
  5
70
330
1F
100
AcDbEntity
  8
0
  6
SLD-Durchgehend
 62
     7
370
    15
100
AcDbLine
 10
274.9736008063
 20
121.9863583895
 30
0.0
 11
274.9736008063
 21
122.0003096016
 31
0.0
  0
LINE
  5
71
330
1F
100
AcDbEntity
  8
0
  6
SLD-Durchgehend
 62
     7
370
    15
100
AcDbLine
 10
277.9841122046
 20
128.9621255921
 30
0.0
 11
265.946514608
 21
127.9115378486
 31
0.0
  0
ARC
  5
72
330
1F
100
AcDbEntity
  8
0
  6
SLD-Durchgehend
 62
     7
370
    15
100
AcDbCircle
 10
278.0194106673
 20
128.5641683341
 30
0.0
 40
0.3995196624491946
100
AcDbArc
 50
355.0709886438
 51
95.068820539
  0
LINE
  5
73
330
1F
100
AcDbEntity
  8
0
  6
SLD-Durchgehend
 62
     7
370
    15
100
AcDbLine
 10
277.3642984048
 20
116.5215689319
 30
0.0
 11
278.4174528733
 21
128.5298410433
 31
0.0
  0
ARC
  5
74
330
1F
100
AcDbEntity
  8
0
  6
SLD-Durchgehend
 62
     7
370
    15
100
AcDbCircle
 10
276.9663468323
 20
116.5568760362
 30
0.0
 40
0.3995147627284611
100
AcDbArc
 50
274.9299566701
 51
354.9298729349
  0
LINE
  5
75
330
1F
100
AcDbEntity
  8
0
  6
SLD-Durchgehend
 62
     7
370
    15
100
AcDbLine
 10
264.9630826727
 20
115.1082515346
 30
0.0
 11
277.0006802693
 21
116.1588392781
 31
0.0
  0
ARC
  5
76
330
1F
100
AcDbEntity
  8
0
  6
SLD-Durchgehend
 62
     7
370
    15
100
AcDbCircle
 10
264.9277782725
 20
115.5061959804
 30
0.0
 40
0.3995074249396137
100
AcDbArc
 50
175.0689929785
 51
275.069831092
  0
LINE
  5
77
330
1F
100
AcDbEntity
  8
0
  6
SLD-Durchgehend
 62
     7
370
    15
100
AcDbLine
 10
265.5828964725
 20
127.5488081949
 30
0.0
 11
264.5297494546
 21
115.5405360835
 31
0.0
  0
ARC
  5
78
330
1F
100
AcDbEntity
  8
0
  6
SLD-Durchgehend
 62
     7
370
    15
100
AcDbCircle
 10
265.9808545398
 20
127.5134945799
 30
0.0
 40
0.3995218075188438
100
AcDbArc
 50
94.9308044056
 51
174.9290251993
  0
ARC
  5
79
330
1F
100
AcDbEntity
  8
0
  6
SLD-Durchgehend
 62
     7
370
    15
100
AcDbCircle
 10
264.9277989914
 20
115.5061727872
 30
0.0
 40
0.3795314855260266
100
AcDbArc
 50
175.0687705449
 51
275.0711293394
  0
LINE
  5
7A
330
1F
100
AcDbEntity
  8
0
  6
SLD-Durchgehend
 62
     7
370
    15
100
AcDbLine
 10
264.9613466874
 20
115.1281268897
 30
0.0
 11
276.9989368335
 21
116.1787146332
 31
0.0
  0
ARC
  5
7B
330
1F
100
AcDbEntity
  8
0
  6
SLD-Durchgehend
 62
     7
370
    15
100
AcDbCircle
 10
276.9663158799
 20
116.5568553959
 30
0.0
 40
0.3795452055409803
100
AcDbArc
 50
274.9305108176
 51
354.9290561461
  0
LINE
  5
7C
330
1F
100
AcDbEntity
  8
0
  6
SLD-Durchgehend
 62
     7
370
    15
100
AcDbLine
 10
277.3443755523
 20
116.5233077111
 30
0.0
 11
278.3975225702
 21
128.5315788912
 31
0.0
  0
ARC
  5
7D
330
1F
100
AcDbEntity
  8
0
  6
SLD-Durchgehend
 62
     7
370
    15
100
AcDbCircle
 10
278.0193977106
 20
128.5642046289
 30
0.0
 40
0.37952977247893
100
AcDbArc
 50
355.0685632822
 51
95.0702996432
  0
LINE
  5
7E
330
1F
100
AcDbEntity
  8
0
  6
SLD-Durchgehend
 62
     7
370
    15
100
AcDbLine
 10
277.9858556405
 20
128.9422493058
 30
0.0
 11
265.9482580439
 21
127.8916615622
 31
0.0
  0
ARC
  5
7F
330
1F
100
AcDbEntity
  8
0
  6
SLD-Durchgehend
 62
     7
370
    15
100
AcDbCircle
 10
265.9808687488
 20
127.5135392472
 30
0.0
 40
0.3795259454144026
100
AcDbArc
 50
94.9292087043
 51
174.9315940507
  0
LINE
  5
80
330
1F
100
AcDbEntity
  8
0
  6
SLD-Durchgehend
 62
     7
370
    15
100
AcDbLine
 10
265.6028267756
 20
127.5470684843
 30
0.0
 11
264.5496723071
 21
115.5387973042
 31
0.0
  0
LINE
  5
81
330
1F
100
AcDbEntity
  8
0
  6
SLD-Durchgehend
 62
     7
370
    15
100
AcDbLine
 10
265.8472207204
 20
116.3735705989
 30
0.0
 11
264.9282214061
 21
115.490454212
 31
0.0
  0
LINE
  5
82
330
1F
100
AcDbEntity
  8
0
  6
SLD-Durchgehend
 62
     7
370
    15
100
AcDbLine
 10
276.3921242968
 20
117.0883085208
 30
0.0
 11
276.9658190027
 21
116.5410419556
 31
0.0
  0
LINE
  5
83
330
1F
100
AcDbEntity
  8
0
  6
SLD-Durchgehend
 62
     7
370
    15
100
AcDbLine
 10
266.5550705806
 20
126.9013993072
 30
0.0
 11
265.9813758746
 21
127.4987272548
 31
0.0
  0
LINE
  5
84
330
1F
100
AcDbEntity
  8
0
  6
SLD-Durchgehend
 62
     7
370
    15
100
AcDbLine
 10
267.8975459949
 20
117.3871345448
 30
0.0
 11
274.6345546857
 21
117.9751101511
 31
0.0
  0
LINE
  5
85
330
1F
100
AcDbEntity
  8
0
  6
SLD-Durchgehend
 62
     7
370
    15
100
AcDbLine
 10
277.0999741569
 20
127.5989077615
 30
0.0
 11
278.0189734713
 21
128.5493149983
 31
0.0
  0
ARC
  5
86
330
1F
100
AcDbEntity
  8
0
  6
SLD-Durchgehend
 62
     7
370
    15
100
AcDbCircle
 10
267.8092870225
 20
118.3820148428
 30
0.0
 40
0.9987874917381597
100
AcDbArc
 50
175.0701912282
 51
275.0696179547
  0
LINE
  5
87
330
1F
100
AcDbEntity
  8
0
  6
SLD-Durchgehend
 62
     7
370
    15
100
AcDbLine
 10
275.0496488825
 20
126.683242582
 30
0.0
 11
268.3126476422
 21
126.0952669757
 31
0.0
  0
ARC
  5
88
330
1F
100
AcDbEntity
  8
0
  6
SLD-Durchgehend
 62
     7
370
    15
100
AcDbCircle
 10
275.1379125423
 20
125.688366909
 30
0.0
 40
0.9987832990406242
100
AcDbArc
 50
355.069850556
 51
95.0699092513
  0
LINE
  5
89
330
1F
100
AcDbEntity
  8
0
  6
SLD-Durchgehend
 62
     7
370
    15
100
AcDbLine
 10
275.5435925737
 20
118.8819352167
 30
0.0
 11
276.1330005542
 21
125.6025302785
 31
0.0
  0
ARC
  5
8A
330
1F
100
AcDbEntity
  8
0
  6
SLD-Durchgehend
 62
     7
370
    15
100
AcDbCircle
 10
274.5487092491
 20
118.9702056545
 30
0.0
 40
0.9987915197345819
100
AcDbArc
 50
274.930615806
 51
354.929742242
  0
LINE
  5
8B
330
1F
100
AcDbEntity
  8
0
  6
SLD-Durchgehend
 62
     7
370
    15
100
AcDbLine
 10
267.4036023036
 20
125.1884419101
 30
0.0
 11
266.8141943232
 21
118.467845917
 31
0.0
  0
ARC
  5
8C
330
1F
100
AcDbEntity
  8
0
  6
SLD-Durchgehend
 62
     7
370
    15
100
AcDbCircle
 10
268.3984888835
 20
125.1001675038
 30
0.0
 40
0.9987951129801533
100
AcDbArc
 50
94.9303564653
 51
174.9295319831
  0
CIRCLE
  5
8D
330
1F
100
AcDbEntity
  8
0
  6
SLD-Durchgehend
 62
     7
370
    15
100
AcDbCircle
 10
271.4674896294
 20
122.0327850232
 30
0.0
 40
3.794054741558482
  0
LINE
  5
8E
330
1F
100
AcDbEntity
  8
0
  6
SLD-Durchgehend
 62
     7
370
    15
100
AcDbLine
 10
267.6880580202
 20
122.2853529828
 30
0.0
 11
267.6735964433
 21
121.9549681621
 31
0.0
  0
ARC
  5
8F
330
1F
100
AcDbEntity
  8
0
  6
SLD-Durchgehend
 62
     7
370
    15
100
AcDbCircle
 10
271.4733162683
 20
121.9476881603
 30
0.0
 40
3.800289138667524
100
AcDbArc
 50
0.109758394
 51
174.9024098714
  0
ARC
  5
90
330
1F
100
AcDbEntity
  8
0
  6
SLD-Durchgehend
 62
     7
370
    15
100
AcDbCircle
 10
255.0517677182
 20
127.5689709667
 30
0.0
 40
15.5524530193178
100
AcDbArc
 50
313.9580772669
 51
316.5162275136
  0
ARC
  5
91
330
1F
100
AcDbEntity
  8
0
  6
SLD-Durchgehend
 62
     7
370
    15
100
AcDbCircle
 10
286.5538402133
 20
127.6935169845
 30
0.0
 40
14.6877812117888
100
AcDbArc
 50
223.5100079105
 51
226.2234064547
  0
ARC
  5
92
330
1F
100
AcDbEntity
  8
0
  6
SLD-Durchgehend
 62
     7
370
    15
100
AcDbCircle
 10
276.624993855
 20
136.5776723347
 30
0.0
 40
13.96544358252736
100
AcDbArc
 50
223.8579314102
 51
226.6914996151
  0
ARC
  5
93
330
1F
100
AcDbEntity
  8
0
  6
SLD-Durchgehend
 62
     7
370
    15
100
AcDbCircle
 10
266.2855512132
 20
138.0688955987
 30
0.0
 40
15.05232171189696
100
AcDbArc
 50
313.3122139333
 51
315.9271083767
  0
LINE
  5
94
330
1F
100
AcDbEntity
  8
0
  6
SLD-Durchgehend
 62
     7
370
    15
100
AcDbLine
 10
174.850929232
 20
76.8166537958
 30
0.0
 11
174.850929232
 21
126.8535721677
 31
0.0
  0
LINE
  5
95
330
1F
100
AcDbEntity
  8
0
  6
SLD-Durchgehend
 62
     7
370
    15
100
AcDbLine
 10
174.850929232
 20
76.8166537958
 30
0.0
 11
173.3689975754
 21
79.5057341086
 31
0.0
  0
LINE
  5
96
330
1F
100
AcDbEntity
  8
0
  6
SLD-Durchgehend
 62
     7
370
    15
100
AcDbLine
 10
173.3689975754
 20
79.5057341086
 30
0.0
 11
173.3689975754
 21
126.8535721677
 31
0.0
  0
LINE
  5
97
330
1F
100
AcDbEntity
  8
0
  6
SLD-Durchgehend
 62
     7
370
    15
100
AcDbLine
 10
173.3689975754
 20
126.8535721677
 30
0.0
 11
174.850929232
 21
126.8535721677
 31
0.0
  0
LINE
  5
98
330
1F
100
AcDbEntity
  8
0
  6
SLD-Durchgehend
 62
     7
370
    15
100
AcDbLine
 10
158.4089972839
 20
126.8535721677
 30
0.0
 11
168.0670647711
 21
126.8535721677
 31
0.0
  0
LINE
  5
99
330
1F
100
AcDbEntity
  8
0
  6
SLD-Durchgehend
 62
     7
370
    15
100
AcDbLine
 10
168.0670647711
 20
76.8166537958
 30
0.0
 11
168.0670647711
 21
126.8535721677
 31
0.0
  0
LINE
  5
9A
330
1F
100
AcDbEntity
  8
0
  6
SLD-Durchgehend
 62
     7
370
    15
100
AcDbLine
 10
168.0670647711
 20
76.8166537958
 30
0.0
 11
166.4089976639
 21
76.8166537958
 31
0.0
  0
ARC
  5
9B
330
1F
100
AcDbEntity
  8
0
  6
SLD-Durchgehend
 62
     7
370
    15
100
AcDbCircle
 10
165.7492548881
 20
55.5683412387
 30
0.0
 40
21.25855232734716
100
AcDbArc
 50
88.2215841219
 51
110.1991894934
  0
LINE
  5
9C
330
1F
100
AcDbEntity
  8
0
  6
SLD-Durchgehend
 62
     7
370
    15
100
AcDbLine
 10
158.4089972839
 20
75.5194481092
 30
0.0
 11
158.4089972839
 21
75.5035709219
 31
0.0
  0
LWPOLYLINE
  5
9D
330
1F
100
AcDbEntity
  8
0
  6
SLD-Durchgehend
 62
     7
370
    15
100
AcDbPolyline
 90
       11
 70
   128
 43
0.0
 10
166.4089976639
 20
137.4707668649
 10
165.1093891651
 20
137.4984718489
 10
163.8097815976
 20
137.5814377891
 10
162.6203597352
 20
137.7054247635
 10
161.5044825539
 20
137.8629989552
 10
160.5320644394
 20
138.0324028062
 10
159.6988450565
 20
138.2009461152
 10
159.065548034
 20
138.3432615178
 10
158.6281346917
 20
138.4486313539
 10
158.4283268839
 20
138.4986694532
 10
158.4369858556
 20
138.4964752572
  0
LINE
  5
9E
330
1F
100
AcDbEntity
  8
0
  6
SLD-Durchgehend
 62
     7
370
    15
100
AcDbLine
 10
168.0670647711
 20
137.4707668649
 30
0.0
 11
166.4089976639
 21
137.4707668649
 31
0.0
  0
LINE
  5
9F
330
1F
100
AcDbEntity
  8
0
  6
SLD-Durchgehend
 62
     7
370
    15
100
AcDbLine
 10
168.0670647711
 20
131.4622610437
 30
0.0
 11
168.0670647711
 21
137.4707668649
 31
0.0
  0
LINE
  5
A0
330
1F
100
AcDbEntity
  8
0
  6
SLD-Durchgehend
 62
     7
370
    15
100
AcDbLine
 10
165.6546179965
 20
131.4622610437
 30
0.0
 11
168.0670647711
 21
131.4622610437
 31
0.0
  0
ARC
  5
A1
330
1F
100
AcDbEntity
  8
0
  6
SLD-Durchgehend
 62
     7
370
    15
100
AcDbCircle
 10
165.2848046135
 20
124.0436676552
 30
0.0
 40
7.42780518068091
100
AcDbArc
 50
87.1461947163
 51
157.7718644507
  0
LINE
  5
A2
330
1F
100
AcDbEntity
  8
0
  6
SLD-Durchgehend
 62
     7
370
    15
100
AcDbLine
 10
169.548997359
 20
79.5057341086
 30
0.0
 11
169.548997359
 21
126.8535721677
 31
0.0
  0
LINE
  5
A3
330
1F
100
AcDbEntity
  8
0
  6
SLD-Durchgehend
 62
     7
370
    15
100
AcDbLine
 10
169.548997359
 20
79.5057341086
 30
0.0
 11
168.0670647711
 21
76.8166537958
 31
0.0
  0
LINE
  5
A4
330
1F
100
AcDbEntity
  8
0
  6
SLD-Durchgehend
 62
     7
370
    15
100
AcDbLine
 10
168.0670647711
 20
126.8535721677
 30
0.0
 11
169.548997359
 21
126.8535721677
 31
0.0
  0
LINE
  5
A5
330
1F
100
AcDbEntity
  8
0
  6
SLD-Durchgehend
 62
     7
370
    15
100
AcDbLine
 10
179.4089970008
 20
77.4432941901
 30
0.0
 11
179.4089970008
 21
126.8535721677
 31
0.0
  0
ARC
  5
A6
330
1F
100
AcDbEntity
  8
0
  6
SLD-Durchgehend
 62
     7
370
    15
100
AcDbCircle
 10
178.796579084
 20
77.429110051
 30
0.0
 40
0.6125821533107803
100
AcDbArc
 50
271.1616423437
 51
1.3267835803
  0
LINE
  5
A7
330
1F
100
AcDbEntity
  8
0
  6
SLD-Durchgehend
 62
     7
370
    15
100
AcDbLine
 10
178.80899802
 20
126.8535721677
 30
0.0
 11
179.4089970008
 21
126.8535721677
 31
0.0
  0
LINE
  5
A8
330
1F
100
AcDbEntity
  8
0
  6
SLD-Durchgehend
 62
     7
370
    15
100
AcDbLine
 10
178.80899802
 20
76.8166537958
 30
0.0
 11
174.850929232
 21
76.8166537958
 31
0.0
  0
LINE
  5
A9
330
1F
100
AcDbEntity
  8
0
  6
SLD-Durchgehend
 62
     7
370
    15
100
AcDbLine
 10
174.850929232
 20
126.8535721677
 30
0.0
 11
178.80899802
 21
126.8535721677
 31
0.0
  0
LINE
  5
AA
330
1F
100
AcDbEntity
  8
0
  6
SLD-Durchgehend
 62
     7
370
    15
100
AcDbLine
 10
153.4589973107
 20
75.803572275
 30
0.0
 11
153.4589973107
 21
138.2035705822
 31
0.0
  0
LINE
  5
AB
330
1F
100
AcDbEntity
  8
0
  6
SLD-Durchgehend
 62
     7
370
    15
100
AcDbLine
 10
173.2713223264
 20
80.6035715716
 30
0.0
 11
172.5689970717
 21
80.6035715716
 31
0.0
  0
LINE
  5
AC
330
1F
100
AcDbEntity
  8
0
  6
SLD-Durchgehend
 62
     7
370
    15
100
AcDbLine
 10
172.9746998117
 20
133.4035712855
 30
0.0
 11
172.5689970717
 21
133.4035712855
 31
0.0
  0
ARC
  5
AD
330
1F
100
AcDbEntity
  8
0
  6
SLD-Durchgehend
 62
     7
370
    15
100
AcDbCircle
 10
172.5305540546
 20
134.1147630209
 30
0.0
 40
0.8384862181329417
100
AcDbArc
 50
301.9851556421
 51
0.5782186088
  0
LWPOLYLINE
  5
AE
330
1F
100
AcDbEntity
  8
0
  6
SLD-Durchgehend
 62
     7
370
    15
100
AcDbPolyline
 90
        3
 70
   128
 43
0.0
 10
173.3428497628
 20
126.8535721677
 10
173.3629458413
 20
127.0012855159
 10
173.3689975754
 20
127.1394379067
  0
ARC
  5
AF
330
1F
100
AcDbEntity
  8
0
  6
SLD-Durchgehend
 62
     7
370
    15
100
AcDbCircle
 10
170.3889283657
 20
134.1155780137
 30
0.0
 40
0.8399658136910396
100
AcDbArc
 50
179.4783948307
 51
237.9582309184
  0
LINE
  5
B0
330
1F
100
AcDbEntity
  8
0
  6
SLD-Durchgehend
 62
     7
370
    15
100
AcDbLine
 10
170.3489978627
 20
133.4035712855
 30
0.0
 11
169.9432951227
 21
133.4035712855
 31
0.0
  0
LINE
  5
B1
330
1F
100
AcDbEntity
  8
0
  6
SLD-Durchgehend
 62
     7
370
    15
100
AcDbLine
 10
170.3489978627
 20
80.6035715716
 30
0.0
 11
169.646672608
 21
80.6035715716
 31
0.0
  0
LINE
  5
B2
330
1F
100
AcDbEntity
  8
0
  6
SLD-Durchgehend
 62
     7
370
    15
100
AcDbLine
 10
169.548997359
 20
127.1394379067
 30
0.0
 11
169.5751451716
 21
126.8535721677
 31
0.0
  0
LINE
  5
B3
330
1F
100
AcDbEntity
  8
0
  6
SLD-Durchgehend
 62
     7
370
    15
100
AcDbLine
 10
172.5689970717
 20
133.4035712855
 30
0.0
 11
170.3489978627
 21
133.4035712855
 31
0.0
  0
LINE
  5
B4
330
1F
100
AcDbEntity
  8
0
  6
SLD-Durchgehend
 62
     7
370
    15
100
AcDbLine
 10
172.5689970717
 20
80.6035715716
 30
0.0
 11
170.3489978627
 21
80.6035715716
 31
0.0
  0
LINE
  5
B5
330
1F
100
AcDbEntity
  8
0
  6
SLD-Durchgehend
 62
     7
370
    15
100
AcDbLine
 10
131.6589970902
 20
83.7751254069
 30
0.0
 11
131.6589970902
 21
85.0584227221
 31
0.0
  0
LWPOLYLINE
  5
B6
330
1F
100
AcDbEntity
  8
0
  6
SLD-Durchgehend
 62
     7
370
    15
100
AcDbPolyline
 90
        5
 70
   128
 43
0.0
 10
131.0373932883
 20
86.1392002182
 10
131.0922370121
 20
86.0250591861
 10
131.3827258364
 20
85.6263246017
 10
131.6131555304
 20
85.259521343
 10
131.6589970902
 20
85.0584227221
  0
LWPOLYLINE
  5
B7
330
1F
100
AcDbEntity
  8
0
  6
SLD-Durchgehend
 62
     7
370
    15
100
AcDbPolyline
 90
        7
 70
   128
 43
0.0
 10
130.2589976058
 20
86.8574827539
 10
130.3387542084
 20
86.8589561062
 10
130.4175534115
 20
86.8470798807
 10
130.5123732254
 20
86.8147406357
 10
130.640957208
 20
86.7370441186
 10
130.8766935781
 20
86.4689536022
 10
131.0373932883
 20
86.1392002182
  0
LWPOLYLINE
  5
B8
330
1F
100
AcDbEntity
  8
0
  6
SLD-Durchgehend
 62
     7
370
    15
100
AcDbPolyline
 90
        3
 70
   128
 43
0.0
 10
126.3453957454
 20
86.3612889873
 10
127.0539142952
 20
86.470650472
 10
130.2589976058
 20
86.8574827539
  0
ARC
  5
B9
330
1F
100
AcDbEntity
  8
0
  6
SLD-Durchgehend
 62
     7
370
    15
100
AcDbCircle
 10
123.1953016009
 20
115.7487862683
 30
0.0
 40
29.5558469606
100
AcDbArc
 50
269.0572258187
 51
276.1182671045
  0
LINE
  5
BA
330
1F
100
AcDbEntity
  8
0
  6
SLD-Durchgehend
 62
     7
370
    15
100
AcDbLine
 10
122.6989530787
 20
86.2087551134
 30
0.0
 11
122.7089964614
 21
86.1969403552
 31
0.0
  0
LINE
  5
BB
330
1F
100
AcDbEntity
  8
0
  6
SLD-Durchgehend
 62
     7
370
    15
100
AcDbLine
 10
122.7089964614
 20
127.8735100853
 30
0.0
 11
122.6989530787
 21
127.8635244446
 31
0.0
  0
LINE
  5
BC
330
1F
100
AcDbEntity
  8
0
  6
SLD-Durchgehend
 62
     7
370
    15
100
AcDbLine
 10
126.2589969501
 20
127.8266589718
 30
0.0
 11
122.7089964614
 21
127.8735100853
 31
0.0
  0
ARC
  5
BD
330
1F
100
AcDbEntity
  8
0
  6
SLD-Durchgehend
 62
     7
370
    15
100
AcDbCircle
 10
126.2010725525
 20
129.3764173161
 30
0.0
 40
1.550840469419318
100
AcDbArc
 50
272.1405139456
 51
340.0660547734
  0
LINE
  5
BE
330
1F
100
AcDbEntity
  8
0
  6
SLD-Durchgehend
 62
     7
370
    15
100
AcDbLine
 10
127.6589964345
 20
128.8476790862
 30
0.0
 11
127.6589964345
 21
130.0316173213
 31
0.0
  0
LINE
  5
BF
330
1F
100
AcDbEntity
  8
0
  6
SLD-Durchgehend
 62
     7
370
    15
100
AcDbLine
 10
151.4589972157
 20
82.7831402051
 30
0.0
 11
151.4589972157
 21
131.2240026521
 31
0.0
  0
LWPOLYLINE
  5
C0
330
1F
100
AcDbEntity
  8
0
  6
SLD-Durchgehend
 62
     7
370
    15
100
AcDbPolyline
 90
       12
 70
   128
 43
0.0
 10
140.2292984367
 20
83.3462327348
 10
140.2265836314
 20
83.3458900081
 10
140.5571817249
 20
83.3875182646
 10
141.4728357286
 20
83.4804884719
 10
142.8452447817
 20
83.5487562793
 10
143.640950957
 20
83.5508852827
 10
144.4583001376
 20
83.5233870523
 10
145.271912852
 20
83.4661014008
 10
146.0657549851
 20
83.3818912136
 10
147.4248633549
 20
83.1761210786
 10
148.3256422744
 20
82.9953476416
 10
148.6406337299
 20
82.9248260336
  0
LWPOLYLINE
  5
C1
330
1F
100
AcDbEntity
  8
0
  6
SLD-Durchgehend
 62
     7
370
    15
100
AcDbPolyline
 90
       12
 70
   128
 43
0.0
 10
148.6404148691
 20
131.0822516309
 10
148.3228636735
 20
131.0115381705
 10
147.4193895065
 20
130.8300103622
 10
146.0640413516
 20
130.6246537345
 10
145.2733359129
 20
130.540927835
 10
144.4597679019
 20
130.4838098215
 10
143.6420732007
 20
130.4563693332
 10
142.845106946
 20
130.458516963
 10
141.4705856532
 20
130.5268145727
 10
140.5555435285
 20
130.6197885053
 10
140.2264634908
 20
130.6612472611
 10
140.2285943568
 20
130.6609771775
  0
LWPOLYLINE
  5
C2
330
1F
100
AcDbEntity
  8
0
  6
SLD-Durchgehend
 62
     7
370
    15
100
AcDbPolyline
 90
        3
 70
   128
 43
0.0
 10
121.5589974836
 20
87.3504113036
 10
121.5783205644
 20
87.3573515194
 10
121.5892766431
 20
87.4134841936
  0
LINE
  5
C3
330
1F
100
AcDbEntity
  8
0
  6
SLD-Durchgehend
 62
     7
370
    15
100
AcDbLine
 10
121.5589974836
 20
87.3504113036
 30
0.0
 11
121.5589974836
 21
126.6942489522
 31
0.0
  0
LWPOLYLINE
  5
C4
330
1F
100
AcDbEntity
  8
0
  6
SLD-Durchgehend
 62
     7
370
    15
100
AcDbPolyline
 90
        3
 70
   128
 43
0.0
 10
121.6216605917
 20
126.6781240331
 10
121.5801534072
 20
126.7406493055
 10
121.5589974836
 20
126.6942489522
  0
LWPOLYLINE
  5
C5
330
1F
100
AcDbEntity
  8
0
  6
SLD-Durchgehend
 62
     7
370
    15
100
AcDbPolyline
 90
       12
 70
   128
 43
0.0
 10
122.3831509069
 20
127.3936908322
 10
122.3172914997
 20
127.208886631
 10
122.2028580323
 20
126.9453912603
 10
122.0735234037
 20
126.7122141646
 10
121.9989766196
 20
126.6056280213
 10
121.9602298752
 20
126.5586278962
 10
121.9161783174
 20
126.5128887819
 10
121.877226682
 20
126.4801099526
 10
121.8406070784
 20
126.4569293337
 10
121.794327797
 20
126.440577172
 10
121.7138876036
 20
126.4626383411
 10
121.6216605917
 20
126.6781240331
  0
LINE
  5
C6
330
1F
100
AcDbEntity
  8
0
  6
SLD-Durchgehend
 62
     7
370
    15
100
AcDbLine
 10
122.6989530787
 20
127.8635244446
 30
0.0
 11
122.3831509069
 21
127.3936908322
 31
0.0
  0
LINE
  5
C7
330
1F
100
AcDbEntity
  8
0
  6
SLD-Durchgehend
 62
     7
370
    15
100
AcDbLine
 10
122.4979066119
 20
86.5596495198
 30
0.0
 11
122.6989530787
 21
86.2087551134
 31
0.0
  0
LWPOLYLINE
  5
C8
330
1F
100
AcDbEntity
  8
0
  6
SLD-Durchgehend
 62
     7
370
    15
100
AcDbPolyline
 90
       12
 70
   128
 43
0.0
 10
121.5892766431
 20
87.4134841936
 10
121.6740195468
 20
87.7390335875
 10
121.7250634745
 20
87.7850837635
 10
121.7921112493
 20
87.7907406168
 10
121.8265999869
 20
87.7784732359
 10
121.8713817016
 20
87.7514537053
 10
121.9087389127
 20
87.7210180836
 10
121.9471988097
 20
87.6833069699
 10
121.9971549526
 20
87.62581829
 10
122.0714707688
 20
87.5244699048
 10
122.2317960874
 20
87.2463900226
 10
122.4979066119
 20
86.5596495198
  0
LINE
  5
C9
330
1F
100
AcDbEntity
  8
0
  6
SLD-Durchgehend
 62
     7
370
    15
100
AcDbLine
 10
178.80899802
 20
137.4707668649
 30
0.0
 11
174.850929232
 21
137.4707668649
 31
0.0
  0
LINE
  5
CA
330
1F
100
AcDbEntity
  8
0
  6
SLD-Durchgehend
 62
     7
370
    15
100
AcDbLine
 10
174.850929232
 20
131.4622610437
 30
0.0
 11
178.80899802
 21
131.4622610437
 31
0.0
  0
LINE
  5
CB
330
1F
100
AcDbEntity
  8
0
  6
SLD-Durchgehend
 62
     7
370
    15
100
AcDbLine
 10
174.850929232
 20
131.4622610437
 30
0.0
 11
174.850929232
 21
137.4707668649
 31
0.0
  0
LINE
  5
CC
330
1F
100
AcDbEntity
  8
0
  6
SLD-Durchgehend
 62
     7
370
    15
100
AcDbLine
 10
173.3689975754
 20
127.1394379067
 30
0.0
 11
173.3689975754
 21
128.0537154155
 31
0.0
  0
LWPOLYLINE
  5
CD
330
1F
100
AcDbEntity
  8
0
  6
SLD-Durchgehend
 62
     7
370
    15
100
AcDbPolyline
 90
        3
 70
   128
 43
0.0
 10
173.3689975754
 20
128.0537154155
 10
174.4954452679
 20
130.6640114265
 10
174.850929232
 20
131.4622610437
  0
ARC
  5
CE
330
1F
100
AcDbEntity
  8
0
  6
SLD-Durchgehend
 62
     7
370
    15
100
AcDbCircle
 10
178.7259688382
 20
130.7778981515
 30
0.0
 40
0.6893811813573361
100
AcDbArc
 50
352.2154757984
 51
83.0824936921
  0
LINE
  5
CF
330
1F
100
AcDbEntity
  8
0
  6
SLD-Durchgehend
 62
     7
370
    15
100
AcDbLine
 10
179.4089970008
 20
130.6845228749
 30
0.0
 11
179.4089970008
 21
126.8535721677
 31
0.0
  0
ARC
  5
D0
330
1F
100
AcDbEntity
  8
0
  6
SLD-Durchgehend
 62
     7
370
    15
100
AcDbCircle
 10
178.8008905215
 20
136.8625844786
 30
0.0
 40
0.6082364232876106
100
AcDbArc
 50
358.8156305045
 51
89.2362522385
  0
LINE
  5
D1
330
1F
100
AcDbEntity
  8
0
  6
SLD-Durchgehend
 62
     7
370
    15
100
AcDbLine
 10
179.4089970008
 20
130.6845228749
 30
0.0
 11
179.4089970008
 21
136.8500124293
 31
0.0
  0
LWPOLYLINE
  5
D2
330
1F
100
AcDbEntity
  8
0
  6
SLD-Durchgehend
 62
     7
370
    15
100
AcDbPolyline
 90
        3
 70
   128
 43
0.0
 10
174.850929232
 20
137.4707668649
 10
174.8429254458
 20
137.4564338105
 10
173.3689975754
 20
134.8088048028
  0
LINE
  5
D3
330
1F
100
AcDbEntity
  8
0
  6
SLD-Durchgehend
 62
     7
370
    15
100
AcDbLine
 10
173.3689975754
 20
128.0537154155
 30
0.0
 11
173.3689975754
 21
134.8088048028
 31
0.0
  0
LWPOLYLINE
  5
D4
330
1F
100
AcDbEntity
  8
0
  6
SLD-Durchgehend
 62
     7
370
    15
100
AcDbPolyline
 90
        3
 70
   128
 43
0.0
 10
168.0670647711
 20
131.4622610437
 10
168.4225487352
 20
130.6640114265
 10
169.548997359
 20
128.0537154155
  0
LINE
  5
D5
330
1F
100
AcDbEntity
  8
0
  6
SLD-Durchgehend
 62
     7
370
    15
100
AcDbLine
 10
169.548997359
 20
128.0537154155
 30
0.0
 11
169.548997359
 21
127.1394379067
 31
0.0
  0
LWPOLYLINE
  5
D6
330
1F
100
AcDbEntity
  8
0
  6
SLD-Durchgehend
 62
     7
370
    15
100
AcDbPolyline
 90
        3
 70
   128
 43
0.0
 10
169.548997359
 20
134.8088048028
 10
168.0750685573
 20
137.4564338105
 10
168.0670647711
 20
137.4707668649
  0
LINE
  5
D7
330
1F
100
AcDbEntity
  8
0
  6
SLD-Durchgehend
 62
     7
370
    15
100
AcDbLine
 10
169.548997359
 20
128.0537154155
 30
0.0
 11
169.548997359
 21
134.8088048028
 31
0.0
  0
ELLIPSE
  5
D8
330
1F
100
AcDbEntity
  8
0
  6
SLD-Durchgehend
 62
     7
370
    15
100
AcDbEllipse
 10
248.7898187507
 20
107.0035714286
 30
0.0
 11
-0.3220561513869313
 21
15.99976859320064
 31
0.0
210
0.0
220
0.0
230
1.0
 40
0.2671959542
 41
0.1426643238695651
 42
2.848545425119166
  0
ELLIPSE
  5
D9
330
1F
100
AcDbEntity
  8
0
  6
SLD-Durchgehend
 62
     7
370
    15
100
AcDbEllipse
 10
246.4229930419
 20
114.9135203407
 30
0.0
 11
0.08858572008301734
 21
2.32755199684469
 31
0.0
210
0.0
220
0.0
230
1.0
 40
0.2575917467
 41
0.0
 42
6.283185307179586
  0
ARC
  5
DA
330
1F
100
AcDbEntity
  8
0
  6
SLD-Durchgehend
 62
     7
370
    15
100
AcDbCircle
 10
249.9635328271
 20
112.1024005763
 30
0.0
 40
10.92985999818312
100
AcDbArc
 50
85.8159599856
 51
101.0791223153
  0
ARC
  5
DB
330
1F
100
AcDbEntity
  8
0
  6
SLD-Durchgehend
 62
     7
370
    15
100
AcDbCircle
 10
250.1606955233
 20
96.4911498886
 30
0.0
 40
5.348679590959046
100
AcDbArc
 50
244.561383507
 51
276.4439009438
  0
LINE
  5
DC
330
1F
100
AcDbEntity
  8
0
  6
SLD-Durchgehend
 62
     7
370
    15
100
AcDbLine
 10
250.7609796539
 20
91.1762620883
 30
0.0
 11
252.4589967743
 21
91.1762620883
 31
0.0
  0
LINE
  5
DD
330
1F
100
AcDbEntity
  8
0
  6
SLD-Durchgehend
 62
     7
370
    15
100
AcDbLine
 10
252.4589967743
 20
91.1762620883
 30
0.0
 11
252.4589967743
 21
91.0035706686
 31
0.0
  0
LINE
  5
DE
330
1F
100
AcDbEntity
  8
0
  6
SLD-Durchgehend
 62
     7
370
    15
100
AcDbLine
 10
252.4589967743
 20
123.0035721885
 30
0.0
 11
252.4589967743
 21
123.0031307416
 31
0.0
  0
LINE
  5
DF
330
1F
100
AcDbEntity
  8
0
  6
SLD-Durchgehend
 62
     7
370
    15
100
AcDbLine
 10
252.4589967743
 20
123.0031307416
 30
0.0
 11
250.7609796539
 21
123.0031307416
 31
0.0
  0
LINE
  5
E0
330
1F
100
AcDbEntity
  8
0
  6
SLD-Durchgehend
 62
     7
370
    15
100
AcDbLine
 10
122.7089964614
 20
86.1910711604
 30
0.0
 11
122.7089964614
 21
86.1969403552
 31
0.0
  0
LINE
  5
E1
330
1F
100
AcDbEntity
  8
0
  6
SLD-Durchgehend
 62
     7
370
    15
100
AcDbLine
 10
259.9295821801
 20
90.6760338323
 30
0.0
 11
252.9589977876
 21
90.6760338323
 31
0.0
  0
ELLIPSE
  5
E2
330
1F
100
AcDbEntity
  8
0
  6
SLD-Durchgehend
 62
     7
370
    15
100
AcDbEllipse
 10
271.2655543538
 20
107.0035714286
 30
0.0
 11
11.76369068746788
 21
16.4812471237079
 31
0.0
210
0.0
220
0.0
230
1.0
 40
0.0668534593
 41
3.18927395618936
 42
3.333983942804587
  0
LINE
  5
E3
330
1F
100
AcDbEntity
  8
0
  6
SLD-Durchgehend
 62
     7
370
    15
100
AcDbLine
 10
252.9589977876
 20
90.6760338323
 30
0.0
 11
252.9589977876
 21
90.503571518
 31
0.0
  0
ARC
  5
E4
330
1F
100
AcDbEntity
  8
0
  6
SLD-Durchgehend
 62
     7
370
    15
100
AcDbCircle
 10
265.7548994358
 20
116.3073528638
 30
0.0
 40
2.097261118181984
100
AcDbArc
 50
118.3543253619
 51
333.038162661
  0
LINE
  5
E5
330
1F
100
AcDbEntity
  8
0
  6
SLD-Durchgehend
 62
     7
370
    15
100
AcDbLine
 10
277.0984244362
 20
116.1798853057
 30
0.0
 11
276.9937959329
 21
114.9868927526
 31
0.0
  0
LINE
  5
E6
330
1F
100
AcDbEntity
  8
0
  6
SLD-Durchgehend
 62
     7
370
    15
100
AcDbLine
 10
252.9589977876
 20
90.6760338323
 30
0.0
 11
252.4589967743
 21
91.1762620883
 31
0.0
  0
LINE
  5
E7
330
1F
100
AcDbEntity
  8
0
  6
SLD-Durchgehend
 62
     7
370
    15
100
AcDbLine
 10
252.4589967743
 20
123.0031307416
 30
0.0
 11
256.3959580675
 21
126.9399206715
 31
0.0
  0
ELLIPSE
  5
E8
330
1F
100
AcDbEntity
  8
0
  6
SLD-Durchgehend
 62
     7
370
    15
100
AcDbEllipse
 10
132.0484133974
 20
96.1015628073
 30
0.0
 11
3277.190761553638
 21
285.3218332653863
 31
0.0
210
0.0
220
0.0
230
1.0
 40
0.0060650906
 41
1.52949333546338
 42
1.53231584228068
  0
LINE
  5
E9
330
1F
100
AcDbEntity
  8
0
  6
SLD-Durchgehend
 62
     7
370
    15
100
AcDbLine
 10
265.6386864201
 20
127.7423649656
 30
0.0
 11
265.6363692895
 21
127.7159470694
 31
0.0
  0
LINE
  5
EA
330
1F
100
AcDbEntity
  8
0
  6
SLD-Durchgehend
 62
     7
370
    15
100
AcDbLine
 10
276.9937959329
 20
114.9868927526
 30
0.0
 11
259.9295821801
 21
90.6760338323
 31
0.0
  0
ARC
  5
EB
330
1F
100
AcDbEntity
  8
0
  6
SLD-Durchgehend
 62
     7
370
    15
100
AcDbCircle
 10
265.7475672031
 20
115.9718326703
 30
0.0
 40
2.09437511947469
100
AcDbArc
 50
119.1307384259
 51
175.3820558201
  0
CIRCLE
  5
EC
330
1F
100
AcDbEntity
  8
0
  6
SLD-Durchgehend
 62
     7
370
    15
100
AcDbCircle
 10
271.4795252428
 20
122.0012990643
 30
0.0
 40
3.494041367864961
  0
CIRCLE
  5
ED
330
1F
100
AcDbEntity
  8
0
  6
SLD-Durchgehend
 62
     7
370
    15
100
AcDbCircle
 10
271.4780760038
 20
122.0360928081
 30
0.0
 40
2.629468556070074
  0
CIRCLE
  5
EE
330
1F
100
AcDbEntity
  8
0
  6
SLD-Durchgehend
 62
     7
370
    15
100
AcDbCircle
 10
271.476761173
 20
122.0360300701
 30
0.0
 40
1.996810013308221
  0
ARC
  5
EF
330
1F
100
AcDbEntity
  8
0
  6
SLD-Durchgehend
 62
     7
370
    15
100
AcDbCircle
 10
271.4332659381
 20
123.6058050027
 30
0.0
 40
0.3933741756451598
100
AcDbArc
 50
14.3665632731
 51
168.6613677722
  0
ARC
  5
F0
330
1F
100
AcDbEntity
  8
0
  6
SLD-Durchgehend
 62
     7
370
    15
100
AcDbCircle
 10
270.3773345683
 20
123.8169335772
 30
0.0
 40
0.683457536846742
100
AcDbArc
 50
254.1982184318
 51
348.7113292348
  0
ARC
  5
F1
330
1F
100
AcDbEntity
  8
0
  6
SLD-Durchgehend
 62
     7
370
    15
100
AcDbCircle
 10
270.0855892671
 20
122.7810040174
 30
0.0
 40
0.3927713695954761
100
AcDbArc
 50
74.3986581938
 51
228.517506467
  0
ARC
  5
F2
330
1F
100
AcDbEntity
  8
0
  6
SLD-Durchgehend
 62
     7
370
    15
100
AcDbCircle
 10
269.3697558874
 20
121.9734513005
 30
0.0
 40
0.6863763826492124
100
AcDbArc
 50
314.6369342642
 51
48.4042621112
  0
ARC
  5
F3
330
1F
100
AcDbEntity
  8
0
  6
SLD-Durchgehend
 62
     7
370
    15
100
AcDbCircle
 10
270.1305692333
 20
121.2068943294
 30
0.0
 40
0.3936514114410044
100
AcDbArc
 50
135.0419139975
 51
288.1183758198
  0
ARC
  5
F4
330
1F
100
AcDbEntity
  8
0
  6
SLD-Durchgehend
 62
     7
370
    15
100
AcDbCircle
 10
270.4652588516
 20
120.1703490703
 30
0.0
 40
0.6955930263383625
100
AcDbArc
 50
15.3847757411
 51
107.7681566919
  0
ARC
  5
F5
330
1F
100
AcDbEntity
  8
0
  6
SLD-Durchgehend
 62
     7
370
    15
100
AcDbCircle
 10
271.5168117966
 20
120.4597046184
 30
0.0
 40
0.395044507193634
100
AcDbArc
 50
195.386201984
 51
347.6416996534
  0
ARC
  5
F6
330
1F
100
AcDbEntity
  8
0
  6
SLD-Durchgehend
 62
     7
370
    15
100
AcDbCircle
 10
272.5824378754
 20
120.2258362165
 30
0.0
 40
0.695942867096536
100
AcDbArc
 50
75.2990699189
 51
167.6104777477
  0
ARC
  5
F7
330
1F
100
AcDbEntity
  8
0
  6
SLD-Durchgehend
 62
     7
370
    15
100
AcDbCircle
 10
272.8617445867
 20
121.2788946992
 30
0.0
 40
0.3935338580574432
100
AcDbArc
 50
254.873245227
 51
48.0429194338
  0
ARC
  5
F8
330
1F
100
AcDbEntity
  8
0
  6
SLD-Durchgehend
 62
     7
370
    15
100
AcDbCircle
 10
273.5815601175
 20
122.0848806759
 30
0.0
 40
0.6870933236491282
100
AcDbArc
 50
134.7011609964
 51
228.3408870932
  0
ARC
  5
F9
330
1F
100
AcDbEntity
  8
0
  6
SLD-Durchgehend
 62
     7
370
    15
100
AcDbCircle
 10
272.8229538606
 20
122.8534100028
 30
0.0
 40
0.392778952170334
100
AcDbArc
 50
314.4992126407
 51
108.6610041831
  0
ARC
  5
FA
330
1F
100
AcDbEntity
  8
0
  6
SLD-Durchgehend
 62
     7
370
    15
100
AcDbCircle
 10
272.4768422993
 20
123.8728698402
 30
0.0
 40
0.6838329901692219
100
AcDbArc
 50
194.347816488
 51
288.8052094313
  0
LWPOLYLINE
  5
FB
330
1F
100
AcDbEntity
  8
0
  6
SLD-Durchgehend
 62
     7
370
    15
100
AcDbPolyline
 90
        3
 70
   128
 43
0.0
 10
269.7405216113
 20
121.1537997799
 10
269.7754797355
 20
121.263531931
 10
269.8520120994
 20
121.3700053843
  0
ARC
  5
FC
330
1F
100
AcDbEntity
  8
0
  6
SLD-Durchgehend
 62
     7
370
    15
100
AcDbCircle
 10
272.8639203328
 20
121.162986205
 30
0.0
 40
0.3927063413148221
100
AcDbArc
 50
7.1914380783
 51
48.3604548971
  0
ARC
  5
FD
330
1F
100
AcDbEntity
  8
0
  6
SLD-Durchgehend
 62
     7
370
    15
100
AcDbCircle
 10
269.3690281296
 20
121.8585432211
 30
0.0
 40
0.6869808825384551
100
AcDbArc
 50
314.6724626533
 51
359.9876103102
  0
ARC
  5
FE
330
1F
100
AcDbEntity
  8
0
  6
SLD-Durchgehend
 62
     7
370
    15
100
AcDbCircle
 10
273.5812117523
 20
121.9699237596
 30
0.0
 40
0.6869487904239969
100
AcDbArc
 50
180.0093563639
 51
228.3690465857
  0
ARC
  5
FF
330
1F
100
AcDbEntity
  8
0
  6
SLD-Durchgehend
 62
     7
370
    15
100
AcDbCircle
 10
270.0873929968
 20
122.6644385719
 30
0.0
 40
0.3937876544390375
100
AcDbArc
 50
74.7121899925
 51
174.1209021077
  0
ARC
  5
100
330
1F
100
AcDbEntity
  8
0
  6
SLD-Durchgehend
 62
     7
370
    15
100
AcDbCircle
 10
272.8210080717
 20
122.73655538
 30
0.0
 40
0.393884159593516
100
AcDbArc
 50
6.9291565473
 51
108.3083267416
  0
ARC
  5
101
330
1F
100
AcDbEntity
  8
0
  6
SLD-Durchgehend
 62
     7
370
    15
100
AcDbCircle
 10
270.3726815122
 20
123.7095273956
 30
0.0
 40
0.6895406714111615
100
AcDbArc
 50
254.7423640552
 51
348.1671836113
  0
ARC
  5
102
330
1F
100
AcDbEntity
  8
0
  6
SLD-Durchgehend
 62
     7
370
    15
100
AcDbCircle
 10
272.4809499348
 20
123.7654135879
 30
0.0
 40
0.6897157753376546
100
AcDbArc
 50
194.8720154245
 51
288.2791407847
  0
ARC
  5
103
330
1F
100
AcDbEntity
  8
0
  6
SLD-Durchgehend
 62
     7
370
    15
100
AcDbCircle
 10
271.4333595859
 20
123.4872117907
 30
0.0
 40
0.3941854098299387
100
AcDbArc
 50
14.8730520518
 51
168.1537663014
  0
ARC
  5
104
330
1F
100
AcDbEntity
  8
0
  6
SLD-Durchgehend
 62
     7
370
    15
100
AcDbCircle
 10
271.473601164
 20
121.9925980347
 30
0.0
 40
3.50000520425007
100
AcDbArc
 50
180.1021442842
 51
359.8978557158
  0
LINE
  5
105
330
1F
100
AcDbEntity
  8
0
  6
SLD-Gestrichelt
 62
     7
370
     0
100
AcDbLine
 10
265.1311379686
 20
115.3761352973
 30
0.0
 11
264.9282214061
 21
115.2785103398
 31
0.0
  0
LINE
  5
106
330
1F
100
AcDbEntity
  8
0
  6
SLD-Gestrichelt
 62
     7
370
     0
100
AcDbLine
 10
276.7955583349
 20
116.3941537591
 30
0.0
 11
276.9658190027
 21
116.3290980833
 31
0.0
  0
ARC
  5
107
330
1F
100
AcDbEntity
  8
0
  6
SLD-Gestrichelt
 62
     7
370
     0
100
AcDbCircle
 10
271.4735974387
 20
121.9618454171
 30
0.0
 40
3.800007218632514
100
AcDbArc
 50
180.103693988
 51
359.896306012
  0
LINE
  5
108
330
1F
100
AcDbEntity
  8
0
  6
SLD-Gestrichelt
 62
     7
370
     0
100
AcDbLine
 10
277.8160569087
 20
128.030160405
 30
0.0
 11
278.0189734713
 21
128.3373701947
 31
0.0
  0
LINE
  5
109
330
1F
100
AcDbEntity
  8
0
  6
SLD-Gestrichelt
 62
     7
370
     0
100
AcDbLine
 10
266.1516365424
 20
127.0121410119
 30
0.0
 11
265.9813758746
 21
127.2867824512
 31
0.0
  0
CIRCLE
  5
10A
330
1F
100
AcDbEntity
  8
0
  6
SLD-Gestrichelt
 62
     7
370
     0
100
AcDbCircle
 10
271.4691962262
 20
121.8482543491
 30
0.0
 40
2.745733278979682
  0
CIRCLE
  5
10B
330
1F
100
AcDbEntity
  8
0
  6
SLD-Gestrichelt
 62
     7
370
     0
100
AcDbCircle
 10
271.469196575
 20
121.7012434616
 30
0.0
 40
2.745733523298423
  0
LINE
  5
10C
330
1F
100
AcDbEntity
  8
0
  6
SLD-Gestrichelt
 62
     7
370
     0
100
AcDbLine
 10
277.8160569087
 20
128.030160405
 30
0.0
 11
266.1516365424
 21
127.0121410119
 31
0.0
  0
LINE
  5
10D
330
1F
100
AcDbEntity
  8
0
  6
SLD-Gestrichelt
 62
     7
370
     0
100
AcDbLine
 10
276.7955583349
 20
116.3941537591
 30
0.0
 11
277.8160569087
 21
128.030160405
 31
0.0
  0
LINE
  5
10E
330
1F
100
AcDbEntity
  8
0
  6
SLD-Gestrichelt
 62
     7
370
     0
100
AcDbLine
 10
266.1516365424
 20
127.0121410119
 30
0.0
 11
265.1311379686
 21
115.3761352973
 31
0.0
  0
LINE
  5
10F
330
1F
100
AcDbEntity
  8
0
  6
SLD-Gestrichelt
 62
     7
370
     0
100
AcDbLine
 10
265.1311379686
 20
115.3761352973
 30
0.0
 11
276.7955583349
 21
116.3941537591
 31
0.0
  0
LINE
  5
110
330
1F
100
AcDbEntity
  8
0
  6
SLD-Gestrichelt
 62
     7
370
     0
100
AcDbLine
 10
168.0670647711
 20
131.4622610437
 30
0.0
 11
168.0670647711
 21
126.8535721677
 31
0.0
  0
LINE
  5
111
330
1F
100
AcDbEntity
  8
0
  6
SLD-Gestrichelt
 62
     7
370
     0
100
AcDbLine
 10
141.4541478098
 20
83.4789722787
 30
0.0
 11
140.9200017169
 21
83.4243576603
 31
0.0
  0
LINE
  5
112
330
1F
100
AcDbEntity
  8
0
  6
SLD-Gestrichelt
 62
     7
370
     0
100
AcDbLine
 10
140.682348685
 20
130.6069045889
 30
0.0
 11
141.4540546775
 21
130.5281538146
 31
0.0
  0
LWPOLYLINE
  5
113
330
1F
100
AcDbEntity
  8
0
  6
SLD-Gestrichelt
 62
     7
370
     0
100
AcDbPolyline
 90
        9
 70
   128
 43
0.0
 10
147.2139993511
 20
87.1660429614
 10
146.2175014258
 20
87.2797313707
 10
145.019405225
 20
87.350288369
 10
143.7698758036
 20
87.3461961376
 10
142.6093826831
 20
87.271399759
 10
141.6430395857
 20
87.1574859696
 10
140.9802256912
 20
87.0526469874
 10
140.7126865179
 20
87.004262917
 10
140.733104834
 20
87.0080124216
  0
ARC
  5
114
330
1F
100
AcDbEntity
  8
0
  6
SLD-Gestrichelt
 62
     7
370
     0
100
AcDbCircle
 10
144.4558163283
 20
146.6979609288
 30
0.0
 40
20.04750617089304
100
AcDbArc
 50
259.2983744626
 51
277.9079713491
  0
LWPOLYLINE
  5
115
330
1F
100
AcDbEntity
  8
0
  6
SLD-Gestrichelt
 62
     7
370
     0
100
AcDbPolyline
 90
        4
 70
   128
 43
0.0
 10
147.2139993511
 20
126.8410998957
 10
147.8954401628
 20
126.9179992007
 10
148.1977432795
 20
126.9407439607
 10
148.171273695
 20
126.9389427828
  0
ARC
  5
116
330
1F
100
AcDbEntity
  8
0
  6
SLD-Gestrichelt
 62
     7
370
     0
100
AcDbCircle
 10
149.0205453687
 20
100.1089284392
 30
0.0
 40
13.06835464027554
100
AcDbArc
 50
262.054087858
 51
266.2739366508
  0
LINE
  5
117
330
1F
100
AcDbEntity
  8
0
  6
SLD-Gestrichelt
 62
     7
370
     0
100
AcDbLine
 10
134.4629728064
 20
90.0035705047
 30
0.0
 11
134.4629728064
 21
124.0035723524
 31
0.0
  0
LINE
  5
118
330
1F
100
AcDbEntity
  8
0
  6
SLD-Gestrichelt
 62
     7
370
     0
100
AcDbLine
 10
161.1188232728
 20
90.0035705047
 30
0.0
 11
161.1188232728
 21
124.0035723524
 31
0.0
  0
LINE
  5
119
330
1F
100
AcDbEntity
  8
0
  6
SLD-Gestrichelt
 62
     7
370
     0
100
AcDbLine
 10
163.4089971722
 20
91.2785715984
 30
0.0
 11
163.4089971722
 21
122.7285712587
 31
0.0
  0
LWPOLYLINE
  5
11A
330
1F
100
AcDbEntity
  8
0
  6
SLD-Gestrichelt
 62
     7
370
     0
100
AcDbPolyline
 90
        6
 70
   128
 43
0.0
 10
127.6589964345
 20
123.2910845058
 10
127.5728714481
 20
123.1386400389
 10
127.3240313694
 20
122.9912805932
 10
126.9403693095
 20
122.8741518783
 10
126.4879365281
 20
122.8125262635
 10
126.2589969501
 20
122.8050626444
  0
LINE
  5
11B
330
1F
100
AcDbEntity
  8
0
  6
SLD-Gestrichelt
 62
     7
370
     0
100
AcDbLine
 10
126.2589969501
 20
122.8050626444
 30
0.0
 11
122.7089964614
 21
122.8050626444
 31
0.0
  0
LINE
  5
11C
330
1F
100
AcDbEntity
  8
0
  6
SLD-Gestrichelt
 62
     7
370
     0
100
AcDbLine
 10
122.7089964614
 20
91.2020802127
 30
0.0
 11
130.2589976058
 21
91.2020802127
 31
0.0
  0
LWPOLYLINE
  5
11D
330
1F
100
AcDbEntity
  8
0
  6
SLD-Gestrichelt
 62
     7
370
     0
100
AcDbPolyline
 90
        6
 70
   128
 43
0.0
 10
130.2589976058
 20
91.2020802127
 10
130.6995914147
 20
91.17403809
 10
131.0901284978
 20
91.0963136332
 10
131.4027287826
 20
90.9796133267
 10
131.6054646686
 20
90.8356587963
 10
131.6589970902
 20
90.7160583513
  0
LINE
  5
11E
330
1F
100
AcDbEntity
  8
0
  6
SLD-Gestrichelt
 62
     7
370
     0
100
AcDbLine
 10
122.7089964614
 20
91.2020802127
 30
0.0
 11
122.7089964614
 21
122.8050626444
 31
0.0
  0
LWPOLYLINE
  5
11F
330
1F
100
AcDbEntity
  8
0
  6
SLD-Gestrichelt
 62
     7
370
     0
100
AcDbPolyline
 90
       20
 70
   128
 43
0.0
 10
236.4589941517
 20
99.7423859874
 10
235.6372249142
 20
99.8679105753
 10
234.9081856028
 20
100.2316800507
 10
234.3476486221
 20
100.8034236359
 10
234.0227437035
 20
101.5288396368
 10
233.9741510168
 20
102.3214459049
 10
234.2008125797
 20
103.0905819128
 10
234.677381517
 20
103.7570607944
 10
235.3589382783
 20
104.2432984898
 10
236.1669090405
 20
104.4805508202
 10
236.9999659077
 20
104.4384755289
 10
237.767912151
 20
104.1290198548
 10
238.3956906215
 20
103.5870064145
 10
238.8107475654
 20
102.8728489394
 10
238.9589098111
 20
102.0792717675
 10
238.8275486246
 20
101.3046530636
 10
238.4355288759
 20
100.6261105279
 10
237.8194478169
 20
100.1071994754
 10
237.0450568214
 20
99.8052837888
 10
236.4589941517
 20
99.7423859874
  0
LINE
  5
120
330
1F
100
AcDbEntity
  8
0
  6
SLD-Gestrichelt
 62
     7
370
     0
100
AcDbLine
 10
252.4589967743
 20
91.1762620883
 30
0.0
 11
252.4589967743
 21
123.0031307416
 31
0.0
  0
LWPOLYLINE
  5
121
330
1F
100
AcDbEntity
  8
0
  6
SLD-Gestrichelt
 62
     7
370
     0
100
AcDbPolyline
 90
       21
 70
   128
 43
0.0
 10
236.4589941517
 20
106.1303423114
 10
235.8150255695
 20
106.2440456219
 10
235.2455031887
 20
106.5584546516
 10
234.759881796
 20
107.0704488586
 10
234.4377484933
 20
107.7476432177
 10
234.362661542
 20
108.4187993177
 10
234.4955724493
 20
108.9893553501
 10
234.8065447823
 20
109.4706086071
 10
235.3119847194
 20
109.8551065291
 10
235.9921333209
 20
110.0840195643
 10
236.6832640782
 20
110.1154922137
 10
237.2756671921
 20
109.9955492748
 10
237.8115725533
 20
109.7305419019
 10
238.2671159521
 20
109.2745391282
 10
238.5247048751
 20
108.655639305
 10
238.5375124231
 20
108.0131823758
 10
238.3561801926
 20
107.4149464178
 10
237.99490899
 20
106.8616302139
 10
237.4354597941
 20
106.3991822514
 10
236.7312607184
 20
106.1503432786
 10
236.4589941517
 20
106.1303423114
  0
LINE
  5
122
330
1F
100
AcDbEntity
  8
0
  6
SLD-Gestrichelt
 62
     7
370
     0
100
AcDbLine
 10
237.5581261531
 20
108.5855180493
 30
0.0
 11
237.6190719024
 21
108.9346874135
 31
0.0
  0
ARC
  5
123
330
1F
100
AcDbEntity
  8
0
  6
SLD-Gestrichelt
 62
     7
370
     0
100
AcDbCircle
 10
235.8479294584
 20
110.9845210333
 30
0.0
 40
2.709015213266062
100
AcDbArc
 50
310.8283950081
 51
6.5952051535
  0
LWPOLYLINE
  5
124
330
1F
100
AcDbEntity
  8
0
  6
SLD-Gestrichelt
 62
     7
370
     0
100
AcDbPolyline
 90
       19
 70
   128
 43
0.0
 10
238.0100038663
 20
112.3672583701
 10
237.5110980884
 20
112.6669766011
 10
236.8595969692
 20
112.752508335
 10
236.237071158
 20
112.5954836237
 10
236.0494357363
 20
112.4905873651
 10
235.9646406785
 20
112.4132289181
 10
235.9494861976
 20
112.3597486506
 10
235.9852415338
 20
112.3192072476
 10
236.2145778552
 20
112.2377146596
 10
236.8983399883
 20
111.9804563562
 10
237.5165742651
 20
111.5955127964
 10
237.9549589768
 20
111.1872959512
 10
238.2603359238
 20
110.7765922418
 10
238.4683784858
 20
110.3347991223
 10
238.5535907761
 20
109.9371858502
 10
238.5097068563
 20
109.4605913015
 10
238.2117655889
 20
108.9705288971
 10
237.6715314404
 20
108.6345885044
 10
237.5581261531
 20
108.5855180493
  0
LWPOLYLINE
  5
125
330
1F
100
AcDbEntity
  8
0
  6
SLD-Gestrichelt
 62
     7
370
     0
100
AcDbPolyline
 90
       20
 70
   128
 43
0.0
 10
238.0100038663
 20
112.3672583701
 10
237.5241217032
 20
112.7420514452
 10
236.943699123
 20
112.9640829379
 10
236.3202717916
 20
113.013648391
 10
235.7091453687
 20
112.8863482366
 10
235.1645749823
 20
112.5934812801
 10
234.7348776475
 20
112.1610384064
 10
234.458200337
 20
111.6273994187
 10
234.3590927139
 20
111.0399239326
 10
234.4463539139
 20
110.4507508783
 10
234.7122278825
 20
109.9121686632
 10
235.1331335321
 20
109.4719762543
 10
235.6717062012
 20
109.1692407711
 10
236.280150415
 20
109.0308297055
 10
236.9044718162
 20
109.0690272024
 10
237.489252986
 20
109.2804430148
 10
237.9826006309
 20
109.6463140196
 10
238.3407276884
 20
110.1341696551
 10
238.5318499819
 20
110.7007125022
 10
238.5390174404
 20
111.2956623176
  0
ARC
  5
126
330
1F
100
AcDbEntity
  8
0
  6
SLD-Gestrichelt
 62
     7
370
     0
100
AcDbCircle
 10
237.2054914615
 20
108.8269722225
 30
0.0
 40
0.4273772847061395
100
AcDbArc
 50
325.599982241
 51
14.5981260354
  0
ARC
  5
127
330
1F
100
AcDbEntity
  8
0
  6
SLD-Gestrichelt
 62
     7
370
     0
100
AcDbCircle
 10
240.8799042511
 20
113.1176619643
 30
0.0
 40
2.966383955769528
100
AcDbArc
 50
194.6532803376
 51
217.8949549316
  0
LINE
  5
128
330
1F
100
AcDbEntity
  8
0
  6
SLD-Gestrichelt
 62
     7
370
     0
100
AcDbLine
 10
122.7089964614
 20
89.0135708826
 30
0.0
 11
122.7089964614
 21
86.1969403552
 31
0.0
  0
LINE
  5
129
330
1F
100
AcDbEntity
  8
0
  6
SLD-Gestrichelt
 62
     7
370
     0
100
AcDbLine
 10
131.6589970902
 20
89.0135708826
 30
0.0
 11
131.6589970902
 21
85.0584227221
 31
0.0
  0
LINE
  5
12A
330
1F
100
AcDbEntity
  8
0
  6
SLD-Gestrichelt
 62
     7
370
     0
100
AcDbLine
 10
122.7089964614
 20
124.9935719745
 30
0.0
 11
122.7089964614
 21
127.8735100853
 31
0.0
  0
LINE
  5
12B
330
1F
100
AcDbEntity
  8
0
  6
SLD-Gestrichelt
 62
     7
370
     0
100
AcDbLine
 10
127.6589964345
 20
124.9935719745
 30
0.0
 11
127.6589964345
 21
128.8476790862
 31
0.0
  0
LINE
  5
12C
330
1F
100
AcDbEntity
  8
0
  6
SLD-Gestrichelt
 62
     7
370
     0
100
AcDbLine
 10
172.7589980528
 20
97.503571734
 30
0.0
 11
172.7589980528
 21
116.5035711231
 31
0.0
  0
LINE
  5
12D
330
1F
100
AcDbEntity
  8
0
  6
SLD-Gestrichelt
 62
     7
370
     0
100
AcDbLine
 10
175.2589975313
 20
97.503571734
 30
0.0
 11
175.2589975313
 21
116.5035711231
 31
0.0
  0
LINE
  5
12E
330
1F
100
AcDbEntity
  8
0
  6
SLD-Gestrichelt
 62
     7
370
     0
100
AcDbLine
 10
163.9089972541
 20
98.5035709666
 30
0.0
 11
163.9089972541
 21
115.5035718905
 31
0.0
  0
LINE
  5
12F
330
1F
100
AcDbEntity
  8
0
  6
SLD-Gestrichelt
 62
     7
370
     0
100
AcDbLine
 10
179.4089970008
 20
80.6035715716
 30
0.0
 11
173.2713223264
 21
80.6035715716
 31
0.0
  0
LINE
  5
130
330
1F
100
AcDbEntity
  8
0
  6
SLD-Gestrichelt
 62
     7
370
     0
100
AcDbLine
 10
169.646672608
 20
80.6035715716
 30
0.0
 11
166.4089976639
 21
80.6035715716
 31
0.0
  0
LINE
  5
131
330
1F
100
AcDbEntity
  8
0
  6
SLD-Gestrichelt
 62
     7
370
     0
100
AcDbLine
 10
158.4089972839
 20
75.5194481092
 30
0.0
 11
158.4089972839
 21
80.6035715716
 31
0.0
  0
LINE
  5
132
330
1F
100
AcDbEntity
  8
0
  6
SLD-Gestrichelt
 62
     7
370
     0
100
AcDbLine
 10
166.4089976639
 20
80.6035715716
 30
0.0
 11
158.4089972839
 21
80.6035715716
 31
0.0
  0
LINE
  5
133
330
1F
100
AcDbEntity
  8
0
  6
SLD-Gestrichelt
 62
     7
370
     0
100
AcDbLine
 10
169.9432951227
 20
133.4035712855
 30
0.0
 11
166.4089976639
 21
133.4035712855
 31
0.0
  0
LINE
  5
134
330
1F
100
AcDbEntity
  8
0
  6
SLD-Gestrichelt
 62
     7
370
     0
100
AcDbLine
 10
179.4089970008
 20
133.4035712855
 30
0.0
 11
172.9746998117
 21
133.4035712855
 31
0.0
  0
LINE
  5
135
330
1F
100
AcDbEntity
  8
0
  6
SLD-Gestrichelt
 62
     7
370
     0
100
AcDbLine
 10
166.4089976639
 20
133.4035712855
 30
0.0
 11
158.4089972839
 21
133.4035712855
 31
0.0
  0
ELLIPSE
  5
136
330
1F
100
AcDbEntity
  8
0
  6
SLD-Gestrichelt
 62
     7
370
     0
100
AcDbEllipse
 10
117.3915654464
 20
107.0035714286
 30
0.0
 11
20.07002071827053
 21
-2.842170943040401E-14
 31
0.0
210
0.0
220
0.0
230
1.0
 40
0.8164965809
 41
4.921555463185702
 42
4.980534842098402
  0
ELLIPSE
  5
137
330
1F
100
AcDbEntity
  8
0
  6
SLD-Gestrichelt
 62
     7
370
     0
100
AcDbEllipse
 10
117.3915654464
 20
107.0035714286
 30
0.0
 11
20.07002071827048
 21
-1.421085471520200E-14
 31
0.0
210
0.0
220
0.0
230
1.0
 40
0.8164965809
 41
1.302650465081197
 42
1.361629843993898
  0
LINE
  5
138
330
1F
100
AcDbEntity
  8
0
  6
SLD-Gestrichelt
 62
     7
370
     0
100
AcDbLine
 10
131.6589970902
 20
89.0135708826
 30
0.0
 11
131.6589970902
 21
90.7160583513
 31
0.0
  0
LINE
  5
139
330
1F
100
AcDbEntity
  8
0
  6
SLD-Gestrichelt
 62
     7
370
     0
100
AcDbLine
 10
122.7089964614
 20
89.0135708826
 30
0.0
 11
122.7089964614
 21
91.2020802127
 31
0.0
  0
LINE
  5
13A
330
1F
100
AcDbEntity
  8
0
  6
SLD-Gestrichelt
 62
     7
370
     0
100
AcDbLine
 10
122.7089964614
 20
124.9935719745
 30
0.0
 11
122.7089964614
 21
122.8050626444
 31
0.0
  0
LINE
  5
13B
330
1F
100
AcDbEntity
  8
0
  6
SLD-Gestrichelt
 62
     7
370
     0
100
AcDbLine
 10
127.6589964345
 20
124.9935719745
 30
0.0
 11
127.6589964345
 21
123.2910845058
 31
0.0
  0
LWPOLYLINE
  5
13C
330
1F
100
AcDbEntity
  8
0
  6
SLD-Gestrichelt
 62
     7
370
     0
100
AcDbPolyline
 90
       14
 70
   128
 43
0.0
 10
148.2078378849
 20
83.403577991
 10
147.9789709501
 20
83.4646857905
 10
147.6418596521
 20
83.5423711317
 10
147.1231683918
 20
83.6513712632
 10
146.3813918472
 20
83.7814770269
 10
145.6511827946
 20
83.8820561396
 10
144.4797624663
 20
83.9946344124
 10
143.1581822053
 20
84.0207170325
 10
142.4696395934
 20
83.9995536583
 10
141.8195131064
 20
83.9555840569
 10
141.2388670087
 20
83.8986076044
 10
140.902889596
 20
83.857845478
 10
140.7090171069
 20
83.8249567526
 10
140.7098832369
 20
83.8251039015
  0
LINE
  5
13D
330
1F
100
AcDbEntity
  8
0
  6
SLD-Gestrichelt
 62
     7
370
     0
100
AcDbLine
 10
141.6190096006
 20
83.9359089362
 30
0.0
 11
141.8028545395
 21
83.9540995287
 31
0.0
  0
LINE
  5
13E
330
1F
100
AcDbEntity
  8
0
  6
SLD-Gestrichelt
 62
     7
370
     0
100
AcDbLine
 10
141.8028517455
 20
130.0529744106
 30
0.0
 11
141.6287782431
 21
130.0701833891
 31
0.0
  0
LWPOLYLINE
  5
13F
330
1F
100
AcDbEntity
  8
0
  6
SLD-Gestrichelt
 62
     7
370
     0
100
AcDbPolyline
 90
       14
 70
   128
 43
0.0
 10
140.7099167645
 20
130.181973763
 10
140.7090096563
 20
130.1821264999
 10
140.9019768998
 20
130.1493048298
 10
141.2374048323
 20
130.1085836815
 10
141.8175796807
 20
130.0516593831
 10
142.4682575107
 20
130.0076730179
 10
143.1576252744
 20
129.9864854293
 10
144.4810719058
 20
130.0125084447
 10
145.6494333051
 20
130.1246974247
 10
146.3778034613
 20
130.2249785142
 10
147.1182272598
 20
130.3547210621
 10
147.639504803
 20
130.4641123491
 10
147.9781686157
 20
130.5420919882
 10
148.2079235666
 20
130.6035406517
  0
LWPOLYLINE
  5
140
330
1F
100
AcDbEntity
  8
0
  6
SLD-Gestrichelt
 62
     7
370
     0
100
AcDbPolyline
 90
       21
 70
   128
 43
0.0
 10
236.4589941517
 20
103.8823632619
 10
237.1029701844
 20
103.9611063527
 10
237.6724925652
 20
104.1886694359
 10
238.158113958
 20
104.5892913455
 10
238.4802472607
 20
105.1758897586
 10
238.5553342119
 20
105.824187943
 10
238.4224233047
 20
106.434769775
 10
238.1114509717
 20
107.0015188677
 10
237.6060110346
 20
107.4980022015
 10
236.925862433
 20
107.8175985815
 10
236.2347316757
 20
107.8632440979
 10
235.6423285619
 20
107.6916040249
 10
235.1064232007
 20
107.3321672659
 10
234.6508798018
 20
106.7641263137
 10
234.3932908789
 20
106.0704284676
 10
234.3804833308
 20
105.4240529986
 10
234.5618155614
 20
104.8795529271
 10
234.923086764
 20
104.4214507195
 10
235.4825359598
 20
104.071606612
 10
236.1867350355
 20
103.896075357
 10
236.4589941517
 20
103.8823632619
  0
LINE
  5
141
330
1F
100
AcDbEntity
  8
0
  6
SLD-Gestrichelt
 62
     7
370
     0
100
AcDbLine
 10
239.4590002314
 20
107.0035714286
 30
0.0
 11
239.4590002314
 21
102.8035715783
 31
0.0
  0
LINE
  5
142
330
1F
100
AcDbEntity
  8
0
  6
SLD-Gestrichelt
 62
     7
370
     0
100
AcDbLine
 10
239.4590002314
 20
111.2035712788
 30
0.0
 11
239.4590002314
 21
107.0035714286
 31
0.0
  0
ELLIPSE
  5
143
330
1F
100
AcDbEntity
  8
0
  6
SLD-Gestrichelt
 62
     7
370
     0
100
AcDbEllipse
 10
271.2655543538
 20
107.0035714286
 30
0.0
 11
11.76369068746788
 21
16.4812471237079
 31
0.0
210
0.0
220
0.0
230
1.0
 40
0.0668534593
 41
1.618477629394296
 42
3.18927395618936
  0
LINE
  5
144
330
1F
100
AcDbEntity
  8
0
  6
SLD-Gestrichelt
 62
     7
370
     0
100
AcDbLine
 10
252.9589977876
 20
90.6760338323
 30
0.0
 11
252.9589977876
 21
107.0035714286
 31
0.0
  0
LINE
  5
145
330
1F
100
AcDbEntity
  8
0
  6
SLD-Gestrichelt
 62
     7
370
     0
100
AcDbLine
 10
264.7995424286
 20
118.1742464753
 30
0.0
 11
264.7588622585
 21
118.1530002134
 31
0.0
  0
LINE
  5
146
330
1F
100
AcDbEntity
  8
0
  6
SLD-Gestrichelt
 62
     7
370
     0
100
AcDbLine
 10
267.6242065445
 20
115.3564611079
 30
0.0
 11
277.09872991
 21
116.1833554136
 31
0.0
  0
LINE
  5
147
330
1F
100
AcDbEntity
  8
0
  6
SLD-Gestrichelt
 62
     7
370
     0
100
AcDbLine
 10
277.09872991
 20
116.1833554136
 30
0.0
 11
277.0984244362
 21
116.1798853057
 31
0.0
  0
LINE
  5
148
330
1F
100
AcDbEntity
  8
0
  6
SLD-Gestrichelt
 62
     7
370
     0
100
AcDbLine
 10
265.6363692895
 20
127.7159470694
 30
0.0
 11
264.7995424286
 21
118.1742464753
 31
0.0
  0
ARC
  5
149
330
1F
100
AcDbEntity
  8
0
  6
SLD-Gestrichelt
 62
     7
370
     0
100
AcDbCircle
 10
272.2115509119
 20
106.7559770084
 30
0.0
 40
19.25414513301684
100
AcDbArc
 50
156.4518746994
 51
179.2631972901
  0
LWPOLYLINE
  5
14A
330
1F
100
AcDbEntity
  8
0
  6
SLD-Gestrichelt
 62
     7
370
     0
100
AcDbPolyline
 90
        8
 70
   128
 43
0.0
 10
256.3959580675
 20
126.9399206715
 10
256.0196962968
 20
126.2461915242
 10
255.6598630563
 20
125.0086109715
 10
255.3257641211
 20
123.2636849957
 10
255.0292757169
 20
121.0333611446
 10
254.7850158826
 20
118.3991673963
 10
254.6584603206
 20
116.4837143945
 10
254.5607981101
 20
114.4483778255
  0
ELLIPSE
  5
14B
330
1F
100
AcDbEntity
  8
0
  6
SLD-Gestrichelt
 62
     7
370
     0
100
AcDbEllipse
 10
265.7532711896
 20
115.6754567968
 30
0.0
 11
2.099281448397733
 21
0.127654356355535
 31
0.0
210
0.0
220
0.0
230
1.0
 40
0.4303093993
 41
5.785598212635387
 42
5.923521446741123
  0
ELLIPSE
  5
14C
330
1F
100
AcDbEntity
  8
0
  6
SLD-Gestrichelt
 62
     7
370
     0
100
AcDbEllipse
 10
265.7532711896
 20
115.6754567968
 30
0.0
 11
-1.616902374425194
 21
2.318196838028342
 31
0.0
210
0.0
220
0.0
230
1.0
 40
0.57803977
 41
5.737920332829638
 42
5.875843566935395
  0
LINE
  5
14D
330
1F
100
AcDbEntity
  8
0
  6
SLD-Gestrichelt
 62
     7
370
     0
100
AcDbLine
 10
265.0658261791
 20
118.1422341245
 30
0.0
 11
265.0658261791
 21
117.9762137683
 31
0.0
  0
ARC
  5
14E
330
1F
100
AcDbEntity
  8
0
  6
SLD-Gestrichelt
 62
     7
370
     0
100
AcDbCircle
 10
265.7548464037
 20
115.9951682948
 30
0.0
 40
2.097448458954567
100
AcDbArc
 50
340.9617967491
 51
109.1779999768
  0
LINE
  5
14F
330
1F
100
AcDbEntity
  8
0
  6
SLD-Gestrichelt
 62
     7
370
     0
100
AcDbLine
 10
267.7375671283
 20
115.3109836953
 30
0.0
 11
267.7375671283
 21
115.4770040514
 31
0.0
  0
ARC
  5
150
330
1F
100
AcDbEntity
  8
0
  6
SLD-Gestrichelt
 62
     7
370
     0
100
AcDbCircle
 10
265.7545285242
 20
115.9740190876
 30
0.0
 40
2.095866238593576
100
AcDbArc
 50
269.9655649725
 51
119.3260694311
  0
ARC
  5
151
330
1F
100
AcDbEntity
  8
0
  6
SLD-Gestrichelt
 62
     7
370
     0
100
AcDbCircle
 10
265.75020741
 20
115.9749123672
 30
0.0
 40
2.096761374731384
100
AcDbArc
 50
175.4717465329
 51
270.0836578108
  0
LINE
  5
152
330
1F
100
AcDbEntity
  8
0
  6
SLD-Gestrichelt
 62
     7
370
     0
100
AcDbLine
 10
274.9429416672
 20
114.5338643903
 30
0.0
 11
276.9937959329
 21
114.9868927526
 31
0.0
  0
LINE
  5
153
330
1F
100
AcDbEntity
  8
0
  6
SLD-Gestrichelt
 62
     7
370
     0
100
AcDbLine
 10
267.7375671283
 20
115.4770040514
 30
0.0
 11
276.8629860893
 21
116.273430139
 31
0.0
  0
LINE
  5
154
330
1F
100
AcDbEntity
  8
0
  6
SLD-Gestrichelt
 62
     7
370
     0
100
AcDbLine
 10
277.09872991
 20
116.1833554136
 30
0.0
 11
276.8629860893
 21
116.273430139
 31
0.0
  0
LINE
  5
155
330
1F
100
AcDbEntity
  8
0
  6
SLD-Gestrichelt
 62
     7
370
     0
100
AcDbLine
 10
265.8797350541
 20
127.4226288872
 30
0.0
 11
265.0658261791
 21
118.1422341245
 31
0.0
  0
ELLIPSE
  5
156
330
1F
100
AcDbEntity
  8
0
  6
SLD-Gestrichelt
 62
     7
370
     0
100
AcDbEllipse
 10
263.7704122741
 20
107.625744446
 30
0.0
 11
1.64621627938277
 21
20.21574928180483
 31
0.0
210
0.0
220
0.0
230
1.0
 40
0.1268365588
 41
6.089335603107248
 42
6.193907137693582
  0
LINE
  5
157
330
1F
100
AcDbEntity
  8
0
  6
SLD-Gestrichelt
 62
     7
370
     0
100
AcDbLine
 10
276.8629860893
 20
116.273430139
 30
0.0
 11
276.5673843041
 21
116.081610285
 31
0.0
  0
LINE
  5
158
330
1F
100
AcDbEntity
  8
0
  6
SLD-Gestrichelt
 62
     7
370
     0
100
AcDbLine
 10
265.8355829135
 20
126.7531495171
 30
0.0
 11
265.0658261791
 21
117.9762137683
 31
0.0
  0
ELLIPSE
  5
159
330
1F
100
AcDbEntity
  8
0
  6
SLD-Gestrichelt
 62
     7
370
     0
100
AcDbEllipse
 10
264.1285965351
 20
107.6570815082
 30
0.0
 11
1.76578911284929
 21
20.23087211791448
 31
0.0
210
0.0
220
0.0
230
1.0
 40
0.0059876405
 41
5.947180909872016
 42
6.068814366753363
  0
LWPOLYLINE
  5
15A
330
1F
100
AcDbEntity
  8
0
  6
SLD-Gestrichelt
 62
     7
370
     0
100
AcDbPolyline
 90
       22
 70
   128
 43
0.0
 10
236.4589941517
 20
101.9161827492
 10
237.0779809371
 20
102.0049135762
 10
237.6419675365
 20
102.2632219458
 10
238.1008413449
 20
102.668155879
 10
238.4138327852
 20
103.1837355906
 10
238.5531288401
 20
103.7641490905
 10
238.5063466445
 20
104.357824391
 10
238.2776510731
 20
104.9120109158
 10
237.8873598591
 20
105.3774663808
 10
237.3701554552
 20
105.7128333116
 10
236.771985592
 20
105.8883128783
 10
236.146010162
 20
105.8883128783
 10
235.5478402987
 20
105.7128333116
 10
235.0306358949
 20
105.3774663808
 10
234.6403446809
 20
104.9120109158
 10
234.4116491095
 20
104.357824391
 10
234.3648669139
 20
103.7641490905
 10
234.5041629687
 20
103.1837355906
 10
234.817154409
 20
102.668155879
 10
235.2760282174
 20
102.2632219458
 10
235.8400148169
 20
102.0049135762
 10
236.4589941517
 20
101.9161827492
  0
LINE
  5
15B
330
1F
100
AcDbEntity
  8
0
  6
SLD-Gestrichelt
 62
     7
370
     0
100
AcDbLine
 10
277.5419500485
 20
127.1938103812
 30
0.0
 11
277.0435211078
 21
127.7100406217
 31
0.0
  0
CIRCLE
  5
15C
330
1F
100
AcDbEntity
  8
0
  6
SLD-Gestrichelt
 62
     7
370
     0
100
AcDbCircle
 10
271.472424147
 20
121.7082305628
 30
0.0
 40
2.997775346259559
  0
LINE
  5
15D
330
1F
100
AcDbEntity
  8
0
  6
SLD-Gestrichelt
 62
     7
370
     0
100
AcDbLine
 10
267.7375671283
 20
115.3109836953
 30
0.0
 11
276.5673843041
 21
116.081610285
 31
0.0
  0
ELLIPSE
  5
15E
330
1F
100
AcDbEntity
  8
0
  6
SLD-Gestrichelt
 62
     7
370
     0
100
AcDbEllipse
 10
-598.751618974
 20
32.1648446704
 30
0.0
 11
3277.190761553535
 21
285.3218332653771
 31
0.0
210
0.0
220
0.0
230
1.0
 40
0.0060650906
 41
1.29974101936219
 42
1.30328834399603
  0
LINE
  5
15F
330
1F
100
AcDbEntity
  8
0
  6
SLD-Gestrichelt
 62
     7
370
     0
100
AcDbLine
 10
277.5419500485
 20
127.1938103812
 30
0.0
 11
276.5673843041
 21
116.081610285
 31
0.0
  0
ARC
  5
160
330
1F
100
AcDbEntity
  8
0
  6
SLD-Gestrichelt
 62
     7
370
     0
100
AcDbCircle
 10
271.4725778762
 20
121.644490275
 30
0.0
 40
2.098965444180947
100
AcDbArc
 50
267.1733701256
 51
253.150899474
  0
ARC
  5
161
330
1F
100
AcDbEntity
  8
0
  6
SLD-Gestrichelt
 62
     7
370
     0
100
AcDbCircle
 10
333.6359811356
 20
109.8892477052
 30
0.0
 40
59.3320098372977
100
AcDbArc
 50
162.5209391739
 51
173.8892511962
  0
ARC
  5
162
330
1F
100
AcDbEntity
  8
0
  6
SLD-Gestrichelt
 62
     7
370
     0
100
AcDbCircle
 10
336.1630476391
 20
108.5519788059
 30
0.0
 40
61.51382744720397
100
AcDbArc
 50
162.3590496956
 51
174.0315484647
  0
LWPOLYLINE
  5
163
330
1F
100
AcDbEntity
  8
0
  6
SLD-Gestrichelt
 62
     7
370
     0
100
AcDbPolyline
 90
       19
 70
   128
 43
0.0
 10
271.473601164
 20
118.8458008321
 10
272.0600065604
 20
118.9310038092
 10
272.5849893704
 20
119.1749004277
 10
273.0194699779
 20
119.5515663924
 10
273.3592686072
 20
120.0734218212
 10
273.5696879045
 20
120.9143586086
 10
273.4112662092
 20
121.9139136004
 10
272.839761974
 20
122.7610725539
 10
272.3298889414
 20
123.1135390329
 10
271.835148038
 20
123.2812013107
 10
271.3900578037
 20
123.3167945968
 10
270.9412348286
 20
123.247327246
 10
270.5530968324
 20
123.0938098954
 10
270.0574693099
 20
122.7322686093
 10
269.5768323556
 20
122.035421394
 10
269.3743628279
 20
121.0123160484
 10
269.6551603094
 20
119.9574069681
 10
270.1101896182
 20
119.3791022154
 10
270.4102170483
 20
119.1833205151
  0
LWPOLYLINE
  5
164
330
1F
100
AcDbEntity
  8
0
  6
SLD-Gestrichelt
 62
     7
370
     0
100
AcDbPolyline
 90
        3
 70
   128
 43
0.0
 10
270.7883638159
 20
118.9889590817
 10
271.3288736359
 20
118.8516011091
 10
271.473601164
 20
118.8458008321
  0
LINE
  5
165
330
1F
100
AcDbEntity
  8
0
  6
SLD-Gestrichelt
 62
     7
370
     0
100
AcDbLine
 10
169.548997359
 20
127.155162357
 30
0.0
 11
169.548997359
 21
126.8535721677
 31
0.0
  0
LINE
  5
166
330
1F
100
AcDbEntity
  8
0
  6
SLD-Gestrichelt
 62
     7
370
     0
100
AcDbLine
 10
173.3689975754
 20
127.155162357
 30
0.0
 11
173.3689975754
 21
126.8535721677
 31
0.0
  0
LINE
  5
167
330
1F
100
AcDbEntity
  8
0
  6
SLD-Gestrichelt
 62
     7
370
     0
100
AcDbLine
 10
174.850929232
 20
131.4622610437
 30
0.0
 11
174.850929232
 21
126.8535721677
 31
0.0
  0
LWPOLYLINE
  5
168
330
1F
100
AcDbEntity
  8
0
  6
SLD-Gestrichelt
 62
     7
370
     0
100
AcDbPolyline
 90
       12
 70
   128
 43
0.0
 10
121.5892766431
 20
87.4134841936
 10
121.6740195468
 20
87.7390335875
 10
121.7250634745
 20
87.7850837635
 10
121.7921112493
 20
87.7907406168
 10
121.8265999869
 20
87.7784732359
 10
121.8713817016
 20
87.7514537053
 10
121.9087389127
 20
87.7210180836
 10
121.9471988097
 20
87.6833069699
 10
121.9971549526
 20
87.62581829
 10
122.0714707688
 20
87.5244699048
 10
122.2317960874
 20
87.2463900226
 10
122.4979066119
 20
86.5596495198
  0
LWPOLYLINE
  5
169
330
1F
100
AcDbEntity
  8
0
  6
SLD-Gestrichelt
 62
     7
370
     0
100
AcDbPolyline
 90
       24
 70
   128
 43
0.0
 10
236.4589941517
 20
101.4614896478
 10
237.1334877625
 20
101.549659353
 10
237.7579581753
 20
101.8076282556
 10
238.2860851303
 20
102.2162646616
 10
238.678708376
 20
102.7452614719
 10
238.9067110435
 20
103.3553855589
 10
238.9531728641
 20
104.0013869854
 10
238.8146516696
 20
104.6353545601
 10
238.5014218107
 20
105.2102699971
 10
238.0367141977
 20
105.6834942058
 10
237.455002667
 20
106.0199305278
 10
236.7994111792
 20
106.1946268522
 10
236.1185771242
 20
106.1946268522
 10
235.4629930869
 20
106.0199305278
 10
234.8812741056
 20
105.6834942058
 10
234.4165739432
 20
105.2102699971
 10
234.1033440844
 20
104.6353545601
 10
233.9648228899
 20
104.0013869854
 10
234.0112847105
 20
103.3553855589
 10
234.2392873779
 20
102.7452614719
 10
234.6319106236
 20
102.2162646616
 10
235.1600375787
 20
101.8076282556
 10
235.7845079914
 20
101.549659353
 10
236.4589941517
 20
101.4614896478
  0
LINE
  5
16A
330
1F
100
AcDbEntity
  8
0
  6
SLD-Gestrichelt
 62
     7
370
     0
100
AcDbLine
 10
274.6410962954
 20
116.2051744389
 30
0.0
 11
274.9826681629
 21
114.9482372778
 31
0.0
  0
LINE
  5
16B
330
1F
100
AcDbEntity
  8
0
  6
SLD-Gestrichelt
 62
     7
370
     0
100
AcDbLine
 10
274.6410962954
 20
116.2051763015
 30
0.0
 11
254.5607981101
 21
114.4483778255
 31
0.0
  0
LINE
  5
16C
330
1F
100
AcDbEntity
  8
0
  6
SLD-Gestrichelt
 62
     7
370
     0
100
AcDbLine
 10
274.9429416672
 20
114.5338643903
 30
0.0
 11
274.9826681629
 21
114.9482382091
 31
0.0
  0
LINE
  5
16D
330
1F
100
AcDbEntity
  8
0
  6
SLD-Gestrichelt
 62
     7
370
     0
100
AcDbLine
 10
269.6042802945
 20
107.0035714286
 30
0.0
 11
274.9429416672
 21
114.5338643903
 31
0.0
  0
CIRCLE
  5
16E
330
1F
100
AcDbEntity
  8
0
  6
SLD-Gestrichelt
 62
     7
370
     0
100
AcDbCircle
 10
160.4589973107
 20
107.0035714286
 30
0.0
 40
5.0
  0
ARC
  5
16F
330
1F
100
AcDbEntity
  8
0
  6
SLD-Gestrichelt
 62
     7
370
     0
100
AcDbCircle
 10
270.1290574606
 20
121.0912258204
 30
0.0
 40
0.3935423821979095
100
AcDbArc
 50
170.851036294
 51
288.3553122121
  0
ARC
  5
170
330
1F
100
AcDbEntity
  8
0
  6
SLD-Gestrichelt
 62
     7
370
     0
100
AcDbCircle
 10
272.8628937903
 20
121.163616491
 30
0.0
 40
0.3936466278909382
100
AcDbArc
 50
254.7043428945
 51
7.0817162785
  0
ARC
  5
171
330
1F
100
AcDbEntity
  8
0
  6
SLD-Gestrichelt
 62
     7
370
     0
100
AcDbCircle
 10
269.3688186164
 20
121.8581739655
 30
0.0
 40
0.6871904151737004
100
AcDbArc
 50
0.018401459
 51
48.3600014906
  0
ARC
  5
172
330
1F
100
AcDbEntity
  8
0
  6
SLD-Gestrichelt
 62
     7
370
     0
100
AcDbCircle
 10
273.5812835488
 20
121.9696538096
 30
0.0
 40
0.6870205959282599
100
AcDbArc
 50
134.6747191887
 51
179.9868422374
  0
ARC
  5
173
330
1F
100
AcDbEntity
  8
0
  6
SLD-Gestrichelt
 62
     7
370
     0
100
AcDbCircle
 10
270.0861815084
 20
122.6651136239
 30
0.0
 40
0.3925137745533736
100
AcDbArc
 50
174.2008081805
 51
228.3686923248
  0
ARC
  5
174
330
1F
100
AcDbEntity
  8
0
  6
SLD-Gestrichelt
 62
     7
370
     0
100
AcDbCircle
 10
272.8223852758
 20
122.7373006361
 30
0.0
 40
0.3924275246571043
100
AcDbArc
 50
314.666261257
 51
6.8453995654
  0
ARC
  5
175
330
1F
100
AcDbEntity
  8
0
  6
SLD-Gestrichelt
 62
     7
370
     0
100
AcDbCircle
 10
271.473601164
 20
121.9801361601
 30
0.0
 40
3.500005173245285
100
AcDbArc
 50
0.1018591842
 51
179.8981408158
  0
ARC
  5
176
330
1F
100
AcDbEntity
  8
0
  6
SLD-Gestrichelt
 62
     7
370
     0
100
AcDbCircle
 10
272.5775868152
 20
120.1186836207
 30
0.0
 40
0.6895361314956105
100
AcDbArc
 50
74.7419476701
 51
168.1675093075
  0
ARC
  5
177
330
1F
100
AcDbEntity
  8
0
  6
SLD-Gestrichelt
 62
     7
370
     0
100
AcDbCircle
 10
270.4693187914
 20
120.0628017151
 30
0.0
 40
0.6897093828544858
100
AcDbArc
 50
14.8713782338
 51
108.2796844908
  0
ARC
  5
178
330
1F
100
AcDbEntity
  8
0
  6
SLD-Gestrichelt
 62
     7
370
     0
100
AcDbCircle
 10
271.5169086197
 20
120.3409967151
 30
0.0
 40
0.3941895545340637
100
AcDbArc
 50
194.8732314482
 51
348.1535575078
  0
CIRCLE
  5
179
330
1F
100
AcDbEntity
  8
0
  6
SLD-Gestrichelt
 62
     7
370
     0
100
AcDbCircle
 10
271.4778499453
 20
121.7570118354
 30
0.0
 40
2.49572080599772
  0
CIRCLE
  5
17A
330
1F
100
AcDbEntity
  8
0
  6
SLD-Gestrichelt
 62
     7
370
     0
100
AcDbCircle
 10
271.4778494628
 20
121.3873029043
 30
0.0
 40
2.495721287012972
  0
CIRCLE
  5
17B
330
1F
100
AcDbEntity
  8
0
  6
SLD-Gestrichelt
 62
     7
370
     0
100
AcDbCircle
 10
271.476557068
 20
121.324375186
 30
0.0
 40
1.597022491669255
  0
LWPOLYLINE
  5
17C
330
1F
100
AcDbEntity
  8
0
  6
SLD-Gestrichelt
 62
     7
370
     0
100
AcDbPolyline
 90
       21
 70
   128
 43
0.0
 10
235.8470258132
 20
102.1405611748
 10
236.4589941517
 20
102.0483784007
 10
237.0709699408
 20
102.1405611748
 10
237.6230356112
 20
102.408086844
 10
238.0611595527
 20
102.8247675488
 10
238.3424562231
 20
103.3498155514
 10
238.4393808261
 20
103.9318360484
 10
238.3424562231
 20
104.5138565453
 10
238.0611595527
 20
105.0389047807
 10
237.6230356112
 20
105.4555854855
 10
237.0709699408
 20
105.7231109219
 10
236.4589941517
 20
105.8152939288
 10
235.8470258132
 20
105.7231109219
 10
235.2949526921
 20
105.4555854855
 10
234.8568287507
 20
105.0389047807
 10
234.5755395308
 20
104.5138565453
 10
234.4786149279
 20
103.9318360484
 10
234.5755395308
 20
103.3498155514
 10
234.8568287507
 20
102.8247675488
 10
235.2949526921
 20
102.408086844
 10
235.8470258132
 20
102.1405611748
  0
LWPOLYLINE
  5
17D
330
1F
100
AcDbEntity
  8
0
  6
SLD-Gestrichelt
 62
     7
370
     0
100
AcDbPolyline
 90
       24
 70
   128
 43
0.0
 10
235.6864583508
 20
101.5778598005
 10
236.3565859214
 20
101.4634854721
 10
237.0343056336
 20
101.5253024737
 10
237.6693633214
 20
101.7587249728
 10
238.2146489635
 20
102.1464420112
 10
238.6297282592
 20
102.6596976074
 10
238.8838154093
 20
103.2604269779
 10
238.9580678955
 20
103.9040758835
 10
238.8469722882
 20
104.5429079889
 10
238.5587689296
 20
105.1295444697
 10
238.1148335353
 20
105.6204767294
 10
237.5480976716
 20
105.9792947119
 10
236.9005900637
 20
106.1793866313
 10
236.2203297034
 20
106.2059124445
 10
235.5577644721
 20
106.0569049071
 10
234.9620458499
 20
105.7434152674
 10
234.4773483292
 20
105.2886935279
 10
234.1396209613
 20
104.7264644506
 10
233.9739051476
 20
104.0984256754
 10
233.9925017968
 20
103.451156486
 10
234.1940325514
 20
102.8326614389
 10
234.5635366455
 20
102.2888118962
 10
235.0736257449
 20
101.8599420416
 10
235.6864583508
 20
101.5778598005
  0
LWPOLYLINE
  5
17E
330
1F
100
AcDbEntity
  8
0
  6
SLD-Gestrichelt
 62
     7
370
     0
100
AcDbPolyline
 90
       24
 70
   128
 43
0.0
 10
235.6864583508
 20
101.037079897
 10
236.3565859214
 20
100.9227060342
 10
237.0343056336
 20
100.9845225701
 10
237.6693633214
 20
101.2179450693
 10
238.2146489635
 20
101.6056621077
 10
238.6297282592
 20
102.1189181695
 10
238.8838154093
 20
102.7196473072
 10
238.9580678955
 20
103.36329598
 10
238.8469722882
 20
104.0021283182
 10
238.5587689296
 20
104.5887646826
 10
238.1148335353
 20
105.0796969423
 10
237.5480976716
 20
105.4385150412
 10
236.9005900637
 20
105.6386069024
 10
236.2203297034
 20
105.6651327156
 10
235.5577644721
 20
105.5161251782
 10
234.9620458499
 20
105.2026354803
 10
234.4773483292
 20
104.7479137408
 10
234.1396209613
 20
104.185684547
 10
233.9739051476
 20
103.5576460047
 10
233.9925017968
 20
102.9103765825
 10
234.1940325514
 20
102.2918815354
 10
234.5635366455
 20
101.7480319927
 10
235.0736257449
 20
101.319162138
 10
235.6864583508
 20
101.037079897
  0
LWPOLYLINE
  5
17F
330
1F
100
AcDbEntity
  8
0
  6
SLD-Gestrichelt
 62
     7
370
     0
100
AcDbPolyline
 90
       21
 70
   128
 43
0.0
 10
235.8409610406
 20
100.4232256303
 10
236.4589941517
 20
100.3301296944
 10
237.0770347134
 20
100.4232256303
 10
237.63456911
 20
100.6934009122
 10
238.0770292893
 20
101.114208773
 10
238.3611124769
 20
101.6444572808
 10
238.4589982048
 20
102.2322424317
 10
238.3611124769
 20
102.8200280482
 10
238.0770292893
 20
103.3502765561
 10
237.63456911
 20
103.7710844169
 10
237.0770347134
 20
104.0412596988
 10
236.4589941517
 20
104.1343556347
 10
235.8409610406
 20
104.0412596988
 10
235.2834266439
 20
103.7710844169
 10
234.8409664646
 20
103.3502765561
 10
234.556883277
 20
102.8200280482
 10
234.4589975491
 20
102.2322424317
 10
234.556883277
 20
101.6444572808
 10
234.8409664646
 20
101.114208773
 10
235.2834266439
 20
100.6934009122
 10
235.8409610406
 20
100.4232256303
  0
LWPOLYLINE
  5
180
330
1F
100
AcDbEntity
  8
0
  6
SLD-Gestrichelt
 62
     7
370
     0
100
AcDbPolyline
 90
       21
 70
   128
 43
0.0
 10
235.8409610406
 20
101.7041937078
 10
236.4589941517
 20
101.6110977719
 10
237.0770347134
 20
101.7041937078
 10
237.63456911
 20
101.9743689897
 10
238.0770292893
 20
102.3951768505
 10
238.3611124769
 20
102.9254253583
 10
238.4589982048
 20
103.513210742
 10
238.3611124769
 20
104.1009958929
 10
238.0770292893
 20
104.6312446336
 10
237.63456911
 20
105.0520523779
 10
237.0770347134
 20
105.3222276598
 10
236.4589941517
 20
105.4153237121
 10
235.8409610406
 20
105.3222276598
 10
235.2834266439
 20
105.0520523779
 10
234.8409664646
 20
104.6312446336
 10
234.556883277
 20
104.1009958929
 10
234.4589975491
 20
103.513210742
 10
234.556883277
 20
102.9254253583
 10
234.8409664646
 20
102.3951768505
 10
235.2834266439
 20
101.9743689897
 10
235.8409610406
 20
101.7041937078
  0
LWPOLYLINE
  5
181
330
1F
100
AcDbEntity
  8
0
  6
SLD-Gestrichelt
 62
     7
370
     0
100
AcDbPolyline
 90
       24
 70
   128
 43
0.0
 10
235.6864583508
 20
100.8238582501
 10
236.3565859214
 20
100.7094843874
 10
237.0343056336
 20
100.7713009233
 10
237.6693633214
 20
101.0047234224
 10
238.2146489635
 20
101.3924404608
 10
238.6297282592
 20
101.9056965227
 10
238.8838154093
 20
102.5064256603
 10
238.9580678955
 20
103.1500743332
 10
238.8469722882
 20
103.7889066713
 10
238.5587689296
 20
104.3755430358
 10
238.1148335353
 20
104.8664752955
 10
237.5480976716
 20
105.225293278
 10
236.9005900637
 20
105.4253851392
 10
236.2203297034
 20
105.4519109523
 10
235.5577644721
 20
105.3029034149
 10
234.9620458499
 20
104.9894138335
 10
234.4773483292
 20
104.5346920939
 10
234.1396209613
 20
103.9724629002
 10
233.9739051476
 20
103.3444243579
 10
233.9925017968
 20
102.6971549357
 10
234.1940325514
 20
102.0786598886
 10
234.5635366455
 20
101.5348103458
 10
235.0736257449
 20
101.1059404912
 10
235.6864583508
 20
100.8238582501
  0
LWPOLYLINE
  5
182
330
1F
100
AcDbEntity
  8
0
  6
SLD-Gestrichelt
 62
     7
370
     0
100
AcDbPolyline
 90
       23
 70
   128
 43
0.0
 10
235.7482609168
 20
101.1624396408
 10
236.3933172837
 20
101.0562711956
 10
237.0437008158
 20
101.1272430981
 10
237.6467135564
 20
101.3696058283
 10
238.1535020486
 20
101.7637238467
 10
238.5230135933
 20
102.2776690873
 10
238.7253117577
 20
102.8698039802
 10
238.7440052644
 20
103.4921574967
 10
238.5775816456
 20
104.0943103938
 10
238.2395264522
 20
104.6274795292
 10
237.7572131172
 20
105.0484710934
 10
237.1697348371
 20
105.323178773
 10
236.5246784702
 20
105.4293471018
 10
235.8742949382
 20
105.3583751994
 10
235.2712821976
 20
105.116012702
 10
234.7644937054
 20
104.7218944507
 10
234.3949821607
 20
104.207949443
 10
234.1926839963
 20
103.6158145501
 10
234.1739904896
 20
102.9934608007
 10
234.3404141084
 20
102.3913081365
 10
234.6784693018
 20
101.858139001
 10
235.1607751862
 20
101.437147204
 10
235.7482609168
 20
101.1624396408
  0
LWPOLYLINE
  5
183
330
1F
100
AcDbEntity
  8
0
  6
SLD-Gestrichelt
 62
     7
370
     0
100
AcDbPolyline
 90
       24
 70
   128
 43
0.0
 10
235.6864583508
 20
100.6106366033
 10
236.3565859214
 20
100.4962622749
 10
237.0343056336
 20
100.5580792764
 10
237.6693633214
 20
100.7915017756
 10
238.2146489635
 20
101.179218814
 10
238.6297282592
 20
101.6924744102
 10
238.8838154093
 20
102.2932035478
 10
238.9580678955
 20
102.9368526863
 10
238.8469722882
 20
103.5756847916
 10
238.5587689296
 20
104.1623211561
 10
238.1148335353
 20
104.6532534158
 10
237.5480976716
 20
105.0120715147
 10
236.9005900637
 20
105.2121633759
 10
236.2203297034
 20
105.2386891891
 10
235.5577644721
 20
105.0896816517
 10
234.9620458499
 20
104.7761919538
 10
234.4773483292
 20
104.3214702143
 10
234.1396209613
 20
103.7592412534
 10
233.9739051476
 20
103.1312024782
 10
233.9925017968
 20
102.4839332888
 10
234.1940325514
 20
101.8654382417
 10
234.5635366455
 20
101.321588699
 10
235.0736257449
 20
100.8927188443
 10
235.6864583508
 20
100.6106366033
  0
LWPOLYLINE
  5
184
330
1F
100
AcDbEntity
  8
0
  6
SLD-Gestrichelt
 62
     7
370
     0
100
AcDbPolyline
 90
       23
 70
   128
 43
0.0
 10
235.7482609168
 20
100.949217994
 10
236.3933172837
 20
100.8430495488
 10
237.0437008158
 20
100.9140214512
 10
237.6467135564
 20
101.1563837158
 10
238.1535020486
 20
101.5505021999
 10
238.5230135933
 20
102.0644469748
 10
238.7253117577
 20
102.6565823334
 10
238.7440052644
 20
103.278935617
 10
238.5775816456
 20
103.8810885141
 10
238.2395264522
 20
104.4142578824
 10
237.7572131172
 20
104.8352494465
 10
237.1697348371
 20
105.1099570098
 10
236.5246784702
 20
105.216125455
 10
235.8742949382
 20
105.1451535525
 10
235.2712821976
 20
104.9027910551
 10
234.7644937054
 20
104.5086728039
 10
234.3949821607
 20
103.9947277962
 10
234.1926839963
 20
103.4025929032
 10
234.1739904896
 20
102.7802391539
 10
234.3404141084
 20
102.1780864897
 10
234.6784693018
 20
101.6449168885
 10
235.1607751862
 20
101.2239255572
 10
235.7482609168
 20
100.949217994
  0
LWPOLYLINE
  5
185
330
1F
100
AcDbEntity
  8
0
  6
SLD-Gestrichelt
 62
     7
370
     0
100
AcDbPolyline
 90
       24
 70
   128
 43
0.0
 10
235.6864583508
 20
100.3974149565
 10
236.3565859214
 20
100.2830406281
 10
237.0343056336
 20
100.3448571639
 10
237.6693633214
 20
100.5782801288
 10
238.2146489635
 20
100.9659971671
 10
238.6297282592
 20
101.4792527633
 10
238.8838154093
 20
102.079981901
 10
238.9580678955
 20
102.7236310395
 10
238.8469722882
 20
103.3624631448
 10
238.5587689296
 20
103.9490995093
 10
238.1148335353
 20
104.440031769
 10
237.5480976716
 20
104.7988498679
 10
236.9005900637
 20
104.9989417291
 10
236.2203297034
 20
105.0254674258
 10
235.5577644721
 20
104.8764600048
 10
234.9620458499
 20
104.5629703069
 10
234.4773483292
 20
104.1082485674
 10
234.1396209613
 20
103.5460193737
 10
233.9739051476
 20
102.9179808313
 10
233.9925017968
 20
102.270711642
 10
234.1940325514
 20
101.6522165949
 10
234.5635366455
 20
101.1083665865
 10
235.0736257449
 20
100.6794971975
 10
235.6864583508
 20
100.3974149565
  0
LWPOLYLINE
  5
186
330
1F
100
AcDbEntity
  8
0
  6
SLD-Gestrichelt
 62
     7
370
     0
100
AcDbPolyline
 90
       23
 70
   128
 43
0.0
 10
235.7482609168
 20
100.7359963471
 10
236.3933172837
 20
100.6298279019
 10
237.0437008158
 20
100.7007998044
 10
237.6467135564
 20
100.9431620689
 10
238.1535020486
 20
101.337280553
 10
238.5230135933
 20
101.8512253279
 10
238.7253117577
 20
102.4433602209
 10
238.7440052644
 20
103.065714203
 10
238.5775816456
 20
103.6678668672
 10
238.2395264522
 20
104.2010362355
 10
237.7572131172
 20
104.6220277997
 10
237.1697348371
 20
104.8967353629
 10
236.5246784702
 20
105.0029035753
 10
235.8742949382
 20
104.9319316728
 10
235.2712821976
 20
104.6895694083
 10
234.7644937054
 20
104.2954509242
 10
234.3949821607
 20
103.7815059165
 10
234.1926839963
 20
103.1893710235
 10
234.1739904896
 20
102.567017507
 10
234.3404141084
 20
101.9648648428
 10
234.6784693018
 20
101.4316952417
 10
235.1607751862
 20
101.0107039104
 10
235.7482609168
 20
100.7359963471
  0
LWPOLYLINE
  5
187
330
1F
100
AcDbEntity
  8
0
  6
SLD-Gestrichelt
 62
     7
370
     0
100
AcDbPolyline
 90
       24
 70
   128
 43
0.0
 10
235.6864583508
 20
100.1841933096
 10
236.3565859214
 20
100.0698189812
 10
237.0343056336
 20
100.1316355171
 10
237.6693633214
 20
100.3650584819
 10
238.2146489635
 20
100.7527750546
 10
238.6297282592
 20
101.2660311165
 10
238.8838154093
 20
101.8667602541
 10
238.9580678955
 20
102.5104093926
 10
238.8469722882
 20
103.149241498
 10
238.5587689296
 20
103.7358778624
 10
238.1148335353
 20
104.2268101221
 10
237.5480976716
 20
104.5856279882
 10
236.9005900637
 20
104.7857198494
 10
236.2203297034
 20
104.812245779
 10
235.5577644721
 20
104.663238358
 10
234.9620458499
 20
104.3497486601
 10
234.4773483292
 20
103.8950269206
 10
234.1396209613
 20
103.3327977268
 10
233.9739051476
 20
102.7047591845
 10
233.9925017968
 20
102.0574899951
 10
234.1940325514
 20
101.438994948
 10
234.5635366455
 20
100.8951449396
 10
235.0736257449
 20
100.4662755506
 10
235.6864583508
 20
100.1841933096
  0
LWPOLYLINE
  5
188
330
1F
100
AcDbEntity
  8
0
  6
SLD-Gestrichelt
 62
     7
370
     0
100
AcDbPolyline
 90
       23
 70
   128
 43
0.0
 10
235.7482609168
 20
100.5227747003
 10
236.3933172837
 20
100.4166062551
 10
237.0437008158
 20
100.4875781575
 10
237.6467135564
 20
100.7299404221
 10
238.1535020486
 20
101.1240589062
 10
238.5230135933
 20
101.6380036811
 10
238.7253117577
 20
102.230138574
 10
238.7440052644
 20
102.8524920905
 10
238.5775816456
 20
103.4546452204
 10
238.2395264522
 20
103.9878143559
 10
237.7572131172
 20
104.40880592
 10
237.1697348371
 20
104.6835134832
 10
236.5246784702
 20
104.7896819284
 10
235.8742949382
 20
104.718710026
 10
235.2712821976
 20
104.4763475286
 10
234.7644937054
 20
104.0822292773
 10
234.3949821607
 20
103.5682842696
 10
234.1926839963
 20
102.9761493767
 10
234.1739904896
 20
102.3537958602
 10
234.3404141084
 20
101.7516427303
 10
234.6784693018
 20
101.2184735948
 10
235.1607751862
 20
100.7974822635
 10
235.7482609168
 20
100.5227747003
  0
LWPOLYLINE
  5
189
330
1F
100
AcDbEntity
  8
0
  6
SLD-Gestrichelt
 62
     7
370
     0
100
AcDbPolyline
 90
       24
 70
   128
 43
0.0
 10
235.6864583508
 20
100.0142339247
 10
236.3565859214
 20
99.8998595963
 10
237.0343056336
 20
99.9616761321
 10
237.6693633214
 20
100.195099097
 10
238.2146489635
 20
100.5828156697
 10
238.6297282592
 20
101.0960717315
 10
238.8838154093
 20
101.6968008692
 10
238.9580678955
 20
102.3404500077
 10
238.8469722882
 20
102.9792818802
 10
238.5587689296
 20
103.5659184775
 10
238.1148335353
 20
104.0568507372
 10
237.5480976716
 20
104.4156688361
 10
236.9005900637
 20
104.6157606973
 10
236.2203297034
 20
104.642286394
 10
235.5577644721
 20
104.493278973
 10
234.9620458499
 20
104.1797892751
 10
234.4773483292
 20
103.7250675356
 10
234.1396209613
 20
103.1628383419
 10
233.9739051476
 20
102.5347997995
 10
233.9925017968
 20
101.8875306102
 10
234.1940325514
 20
101.2690355631
 10
234.5635366455
 20
100.7251855547
 10
235.0736257449
 20
100.2963161657
 10
235.6864583508
 20
100.0142339247
  0
LWPOLYLINE
  5
18A
330
1F
100
AcDbEntity
  8
0
  6
SLD-Gestrichelt
 62
     7
370
     0
100
AcDbPolyline
 90
       23
 70
   128
 43
0.0
 10
235.7297164217
 20
100.0976026619
 10
236.3916036502
 20
99.9886644634
 10
237.0589521543
 20
100.0614878351
 10
237.6776930705
 20
100.3101728486
 10
238.1977063433
 20
100.7145726683
 10
238.5768589393
 20
101.2419247629
 10
238.7844321147
 20
101.8495065721
 10
238.8036173597
 20
102.4880958351
 10
238.6328500524
 20
103.1059568843
 10
238.2859733716
 20
103.6530348568
 10
237.7910834566
 20
104.0850088096
 10
237.1882793323
 20
104.3668826672
 10
236.5263921038
 20
104.4758206329
 10
235.8590435997
 20
104.4029972611
 10
235.2403026834
 20
104.1543124805
 10
234.7202894107
 20
103.7499126608
 10
234.3411368147
 20
103.2225605661
 10
234.1335636393
 20
102.614978757
 10
234.1143783942
 20
101.976389494
 10
234.2851457015
 20
101.3585286776
 10
234.6320223824
 20
100.8114502395
 10
235.1269122973
 20
100.3794762867
 10
235.7297164217
 20
100.0976026619
  0
LINE
  5
18B
330
1F
100
AcDbEntity
  8
0
  6
SLD-Gestrichelt
 62
     7
370
     0
100
AcDbLine
 10
267.6735964433
 20
122.0351885634
 30
0.0
 11
267.6735964433
 21
121.9549681621
 31
0.0
  0
LINE
  5
18C
330
1F
100
AcDbEntity
  8
0
  6
SLD-Gestrichelt
 62
     7
370
     0
100
AcDbLine
 10
275.2735984341
 20
121.9549681621
 30
0.0
 11
275.2735984341
 21
122.0351885634
 31
0.0
  0
LINE
  5
18D
330
1F
100
AcDbEntity
  8
0
  6
SLD-Gestrichelt
 62
     7
370
     0
100
AcDbLine
 10
268.7235993162
 20
121.8501589822
 30
0.0
 11
268.7235993162
 21
121.7031478511
 31
0.0
  0
LINE
  5
18E
330
1F
100
AcDbEntity
  8
0
  6
SLD-Gestrichelt
 62
     7
370
     0
100
AcDbLine
 10
274.2235955611
 20
121.7031478511
 30
0.0
 11
274.2235955611
 21
121.8501589822
 31
0.0
  0
LINE
  5
18F
330
1F
100
AcDbEntity
  8
0
  6
SLD-Gestrichelt
 62
     7
370
     0
100
AcDbLine
 10
153.4589973107
 20
81.6796477514
 30
0.0
 11
153.5531581485
 21
82.3496374863
 31
0.0
  0
LINE
  5
190
330
1F
100
AcDbEntity
  8
0
  6
SLD-Gestrichelt
 62
     7
370
     0
100
AcDbLine
 10
153.5531581485
 20
131.6575053709
 30
0.0
 11
153.4589973107
 21
132.3274951058
 31
0.0
  0
ARC
  5
191
330
1F
100
AcDbEntity
  8
0
  6
SLD-Gestrichelt
 62
     7
370
     0
100
AcDbCircle
 10
152.9589973107
 20
82.4331405668
 30
0.0
 40
0.6000000000000227
100
AcDbArc
 50
352.0
 51
0.0
  0
ARC
  5
192
330
1F
100
AcDbEntity
  8
0
  6
SLD-Gestrichelt
 62
     7
370
     0
100
AcDbCircle
 10
152.9589973107
 20
82.4331405668
 30
0.0
 40
0.6000000000000227
100
AcDbArc
 50
0.0
 51
33.5573097619
  0
ARC
  5
193
330
1F
100
AcDbEntity
  8
0
  6
SLD-Gestrichelt
 62
     7
370
     0
100
AcDbCircle
 10
152.9589973107
 20
131.5740022903
 30
0.0
 40
0.599999999999998
100
AcDbArc
 50
348.75
 51
8.0
  0
LWPOLYLINE
  5
194
330
1F
100
AcDbEntity
  8
0
  6
SLD-Gestrichelt
 62
     7
370
     0
100
AcDbPolyline
 90
        3
 70
   128
 43
0.0
 10
153.5474684806
 20
131.4569487797
 10
153.5133250309
 20
131.3443928587
 10
153.4589973107
 20
131.2423403936
  0
LINE
  5
195
330
1F
100
AcDbEntity
  8
0
  6
SLD-Gestrichelt
 62
     7
370
     0
100
AcDbLine
 10
153.5589973082
 20
82.4331398683
 30
0.0
 11
153.5589973082
 21
131.5740029888
 31
0.0
  0
LINE
  5
196
330
1F
100
AcDbEntity
  8
0
  6
SLD-Gestrichelt
 62
     7
370
     0
100
AcDbLine
 10
136.5414333359
 20
87.0035718756
 30
0.0
 11
140.733104834
 21
87.0035718756
 31
0.0
  0
LINE
  5
197
330
1F
100
AcDbEntity
  8
0
  6
SLD-Gestrichelt
 62
     7
370
     0
100
AcDbLine
 10
140.733104834
 20
127.0035709815
 30
0.0
 11
136.5414333359
 21
127.0035709815
 31
0.0
  0
ARC
  5
198
330
1F
100
AcDbEntity
  8
0
  6
SLD-Gestrichelt
 62
     7
370
     0
100
AcDbCircle
 10
147.2139993123
 20
95.0035714286
 30
0.0
 40
7.999999999999993
100
AcDbArc
 50
276.8842310462
 51
321.3178125465
  0
ARC
  5
199
330
1F
100
AcDbEntity
  8
0
  6
SLD-Gestrichelt
 62
     7
370
     0
100
AcDbCircle
 10
147.2139993123
 20
119.0035714286
 30
0.0
 40
7.999999999999993
100
AcDbArc
 50
38.6821874535
 51
83.1287104311
  0
ARC
  5
19A
330
1F
100
AcDbEntity
  8
0
  6
SLD-Gestrichelt
 62
     7
370
     0
100
AcDbCircle
 10
136.541432876
 20
87.6035714286
 30
0.0
 40
0.6000000000000084
100
AcDbArc
 50
210.0
 51
270.0
  0
ARC
  5
19B
330
1F
100
AcDbEntity
  8
0
  6
SLD-Gestrichelt
 62
     7
370
     0
100
AcDbCircle
 10
136.541432876
 20
126.4035714286
 30
0.0
 40
0.6000000000000155
100
AcDbArc
 50
90.0
 51
150.0
  0
LINE
  5
19C
330
1F
100
AcDbEntity
  8
0
  6
SLD-Gestrichelt
 62
     7
370
     0
100
AcDbLine
 10
136.0218168065
 20
126.7035714912
 30
0.0
 11
134.4629728064
 21
124.0035723524
 31
0.0
  0
LINE
  5
19D
330
1F
100
AcDbEntity
  8
0
  6
SLD-Gestrichelt
 62
     7
370
     0
100
AcDbLine
 10
134.4629728064
 20
90.0035705047
 30
0.0
 11
136.0218168065
 21
87.303571366
 31
0.0
  0
ARC
  5
19E
330
1F
100
AcDbEntity
  8
0
  6
SLD-Gestrichelt
 62
     7
370
     0
100
AcDbCircle
 10
161.9089973107
 20
91.2785714286
 30
0.0
 40
1.5
100
AcDbArc
 50
238.2116693829
 51
0.0
  0
ARC
  5
19F
330
1F
100
AcDbEntity
  8
0
  6
SLD-Gestrichelt
 62
     7
370
     0
100
AcDbCircle
 10
161.9089973107
 20
122.7285714286
 30
0.0
 40
1.5
100
AcDbArc
 50
0.0
 51
121.7883306171
  0
LINE
  5
1A0
330
1F
100
AcDbEntity
  8
0
  6
SLD-Gestrichelt
 62
     7
370
     0
100
AcDbLine
 10
153.4589973107
 20
90.0035705047
 30
0.0
 11
161.1188232728
 21
90.0035705047
 31
0.0
  0
LINE
  5
1A1
330
1F
100
AcDbEntity
  8
0
  6
SLD-Gestrichelt
 62
     7
370
     0
100
AcDbLine
 10
161.1188232728
 20
124.0035723524
 30
0.0
 11
153.4589973107
 21
124.0035723524
 31
0.0
  0
LINE
  5
1A2
330
1F
100
AcDbEntity
  8
0
  6
SLD-Gestrichelt
 62
     7
370
     0
100
AcDbLine
 10
131.6589970902
 20
90.0035705047
 30
0.0
 11
134.4629728064
 21
90.0035705047
 31
0.0
  0
LINE
  5
1A3
330
1F
100
AcDbEntity
  8
0
  6
SLD-Gestrichelt
 62
     7
370
     0
100
AcDbLine
 10
134.4629728064
 20
124.0035723524
 30
0.0
 11
127.6589964345
 21
124.0035723524
 31
0.0
  0
LINE
  5
1A4
330
1F
100
AcDbEntity
  8
0
  6
SLD-Gestrichelt
 62
     7
370
     0
100
AcDbLine
 10
234.3589958564
 20
111.0207922386
 30
0.0
 11
234.3589958564
 21
108.2988644114
 31
0.0
  0
LINE
  5
1A5
330
1F
100
AcDbEntity
  8
0
  6
SLD-Gestrichelt
 62
     7
370
     0
100
AcDbLine
 10
238.5589998976
 20
110.989105385
 30
0.0
 11
238.5589998976
 21
111.0207922386
 31
0.0
  0
LINE
  5
1A6
330
1F
100
AcDbEntity
  8
0
  6
SLD-Gestrichelt
 62
     7
370
     0
100
AcDbLine
 10
238.5589998976
 20
108.2972712677
 30
0.0
 11
238.5589998976
 21
109.8179416361
 31
0.0
  0
LINE
  5
1A7
330
1F
100
AcDbEntity
  8
0
  6
SLD-Gestrichelt
 62
     7
370
     0
100
AcDbLine
 10
246.4341592804
 20
117.2248702126
 30
0.0
 11
236.2406846896
 21
112.597128805
 31
0.0
  0
LINE
  5
1A8
330
1F
100
AcDbEntity
  8
0
  6
SLD-Gestrichelt
 62
     7
370
     0
100
AcDbLine
 10
237.7081882969
 20
108.6508017827
 30
0.0
 11
246.4118298903
 21
112.6021705197
 31
0.0
  0
LINE
  5
1A9
330
1F
100
AcDbEntity
  8
0
  6
SLD-Gestrichelt
 62
     7
370
     0
100
AcDbLine
 10
172.7589980528
 20
97.503571734
 30
0.0
 11
175.2589975313
 21
97.503571734
 31
0.0
  0
LINE
  5
1AA
330
1F
100
AcDbEntity
  8
0
  6
SLD-Gestrichelt
 62
     7
370
     0
100
AcDbLine
 10
175.2589975313
 20
116.5035711231
 30
0.0
 11
172.7589980528
 21
116.5035711231
 31
0.0
  0
LINE
  5
1AB
330
1F
100
AcDbEntity
  8
0
  6
SLD-Gestrichelt
 62
     7
370
     0
100
AcDbLine
 10
163.4089971722
 20
98.003571816
 30
0.0
 11
163.9089972541
 21
98.5035709666
 31
0.0
  0
LINE
  5
1AC
330
1F
100
AcDbEntity
  8
0
  6
SLD-Gestrichelt
 62
     7
370
     0
100
AcDbLine
 10
163.9089972541
 20
115.5035718905
 30
0.0
 11
163.4089971722
 21
116.0035710411
 31
0.0
  0
LINE
  5
1AD
330
1F
100
AcDbEntity
  8
0
  6
SLD-Gestrichelt
 62
     7
370
     0
100
AcDbLine
 10
163.9089972541
 20
98.5035709666
 30
0.0
 11
172.7589980528
 21
98.5035709666
 31
0.0
  0
LINE
  5
1AE
330
1F
100
AcDbEntity
  8
0
  6
SLD-Gestrichelt
 62
     7
370
     0
100
AcDbLine
 10
172.7589980528
 20
115.5035718905
 30
0.0
 11
163.9089972541
 21
115.5035718905
 31
0.0
  0
LINE
  5
1AF
330
1F
100
AcDbEntity
  8
0
  6
SLD-Gestrichelt
 62
     7
370
     0
100
AcDbLine
 10
158.4089972839
 20
138.5035719352
 30
0.0
 11
158.4089972839
 21
133.4035712855
 31
0.0
  0
LINE
  5
1B0
330
1F
100
AcDbEntity
  8
0
  6
SLD-Gestrichelt
 62
     7
370
     0
100
AcDbLine
 10
148.6434351482
 20
82.9242001849
 30
0.0
 11
148.2090029694
 21
83.4032669293
 31
0.0
  0
LINE
  5
1B1
330
1F
100
AcDbEntity
  8
0
  6
SLD-Gestrichelt
 62
     7
370
     0
100
AcDbLine
 10
140.7089994118
 20
83.8249548899
 30
0.0
 11
140.2265659362
 21
83.3458881455
 31
0.0
  0
LINE
  5
1B2
330
1F
100
AcDbEntity
  8
0
  6
SLD-Gestrichelt
 62
     7
370
     0
100
AcDbLine
 10
140.226443933
 20
130.6612491237
 30
0.0
 11
140.7089947552
 21
130.1821283626
 31
0.0
  0
LINE
  5
1B3
330
1F
100
AcDbEntity
  8
0
  6
SLD-Gestrichelt
 62
     7
370
     0
100
AcDbLine
 10
148.2089973815
 20
130.6038274991
 30
0.0
 11
148.6435394563
 21
131.0829463976
 31
0.0
  0
LINE
  5
1B4
330
1F
100
AcDbEntity
  8
0
  6
SLD-Gestrichelt
 62
     7
370
     0
100
AcDbLine
 10
175.2589975313
 20
102.8035715783
 30
0.0
 11
239.4590002314
 21
102.8035715783
 31
0.0
  0
LINE
  5
1B5
330
1F
100
AcDbEntity
  8
0
  6
SLD-Gestrichelt
 62
     7
370
     0
100
AcDbLine
 10
239.4590002314
 20
111.2035712788
 30
0.0
 11
175.2589975313
 21
111.2035712788
 31
0.0
  0
LINE
  5
1B6
330
1F
100
AcDbEntity
  8
0
  6
SLD-Gestrichelt
 62
     7
370
     0
100
AcDbLine
 10
239.4590002314
 20
102.8035715783
 30
0.0
 11
241.9826087371
 21
107.0035714286
 31
0.0
  0
LINE
  5
1B7
330
1F
100
AcDbEntity
  8
0
  6
SLD-Gestrichelt
 62
     7
370
     0
100
AcDbLine
 10
241.9826087371
 20
107.0035714286
 30
0.0
 11
239.4590002314
 21
111.2035712788
 31
0.0
  0
LINE
  5
1B8
330
1F
100
AcDbEntity
  8
0
  6
SLD-Gestrichelt
 62
     7
370
     0
100
AcDbLine
 10
148.2089973815
 20
83.4037493544
 30
0.0
 11
148.2089973815
 21
87.068170272
 31
0.0
  0
LINE
  5
1B9
330
1F
100
AcDbEntity
  8
0
  6
SLD-Gestrichelt
 62
     7
370
     0
100
AcDbLine
 10
140.7089975491
 20
87.0079490917
 30
0.0
 11
140.7089975491
 21
83.8252771275
 31
0.0
  0
LINE
  5
1BA
330
1F
100
AcDbEntity
  8
0
  6
SLD-Gestrichelt
 62
     7
370
     0
100
AcDbLine
 10
148.2089973815
 20
126.9389725851
 30
0.0
 11
148.2089973815
 21
130.6032742935
 31
0.0
  0
LINE
  5
1BB
330
1F
100
AcDbEntity
  8
0
  6
SLD-Gestrichelt
 62
     7
370
     0
100
AcDbLine
 10
140.7089975491
 20
130.1818731802
 30
0.0
 11
140.7089975491
 21
126.9991937654
 31
0.0
  0
LINE
  5
1BC
330
1F
100
AcDbEntity
  8
0
  6
SLD-Gestrichelt
 62
     7
370
     0
100
AcDbLine
 10
263.6532706037
 20
116.3078685852
 30
0.0
 11
263.6532706037
 21
115.9730376305
 31
0.0
  0
LINE
  5
1BD
330
1F
100
AcDbEntity
  8
0
  6
SLD-Gestrichelt
 62
     7
370
     0
100
AcDbLine
 10
267.8532746449
 20
115.9730376305
 30
0.0
 11
267.8532746449
 21
115.9967546912
 31
0.0
  0
LINE
  5
1BE
330
1F
100
AcDbEntity
  8
0
  6
SLD-Gestrichelt
 62
     7
370
     0
100
AcDbLine
 10
234.3589958564
 20
105.7098715894
 30
0.0
 11
234.3589958564
 21
103.9134014493
 31
0.0
  0
LINE
  5
1BF
330
1F
100
AcDbEntity
  8
0
  6
SLD-Gestrichelt
 62
     7
370
     0
100
AcDbLine
 10
238.5589998976
 20
103.9134014493
 30
0.0
 11
238.5589998976
 21
105.7082784457
 31
0.0
  0
LINE
  5
1C0
330
1F
100
AcDbEntity
  8
0
  6
SLD-Gestrichelt
 62
     7
370
     0
100
AcDbLine
 10
269.3735954181
 20
121.6403664651
 30
0.0
 11
269.3735954181
 21
121.0726620259
 31
0.0
  0
LINE
  5
1C1
330
1F
100
AcDbEntity
  8
0
  6
SLD-Gestrichelt
 62
     7
370
     0
100
AcDbLine
 10
273.5735994593
 20
121.0506399723
 30
0.0
 11
273.5735994593
 21
121.6403664651
 31
0.0
  0
LINE
  5
1C2
330
1F
100
AcDbEntity
  8
0
  6
SLD-Gestrichelt
 62
     7
370
     0
100
AcDbLine
 10
233.9589965359
 20
103.8391310351
 30
0.0
 11
233.9589965359
 21
102.0607836174
 31
0.0
  0
LINE
  5
1C3
330
1F
100
AcDbEntity
  8
0
  6
SLD-Gestrichelt
 62
     7
370
     0
100
AcDbLine
 10
238.9589992181
 20
102.0594578797
 30
0.0
 11
238.9589992181
 21
103.8391310351
 31
0.0
  0
LINE
  5
1C4
330
1F
100
AcDbEntity
  8
0
  6
SLD-Gestrichelt
 62
     7
370
     0
100
AcDbLine
 10
269.7354477659
 20
121.2091734262
 30
0.0
 11
269.7354477659
 21
121.0909252616
 31
0.0
  0
LINE
  5
1C5
330
1F
100
AcDbEntity
  8
0
  6
SLD-Gestrichelt
 62
     7
370
     0
100
AcDbLine
 10
273.2566070572
 20
121.1631334948
 30
0.0
 11
273.2566070572
 21
121.2814133244
 31
0.0
  0
LINE
  5
1C6
330
1F
100
AcDbEntity
  8
0
  6
SLD-Gestrichelt
 62
     7
370
     0
100
AcDbLine
 10
269.6936574594
 20
122.7832901852
 30
0.0
 11
269.6936574594
 21
122.6650718229
 31
0.0
  0
LINE
  5
1C7
330
1F
100
AcDbEntity
  8
0
  6
SLD-Gestrichelt
 62
     7
370
     0
100
AcDbLine
 10
273.2148167506
 20
122.7372809874
 30
0.0
 11
273.2148167506
 21
122.8555291521
 31
0.0
  0
CIRCLE
  5
1C8
330
1F
100
AcDbEntity
  8
0
  6
SLD-Gestrichelt
 62
     7
370
     0
100
AcDbCircle
 10
271.4798821308
 20
121.8088681156
 30
0.0
 40
2.272894244232212
  0
LINE
  5
1C9
330
1F
100
AcDbEntity
  8
0
  6
SLD-Gestrichelt
 62
     7
370
     0
100
AcDbLine
 10
268.9735960976
 20
121.7561624574
 30
0.0
 11
268.9735960976
 21
121.3864534723
 31
0.0
  0
LINE
  5
1CA
330
1F
100
AcDbEntity
  8
0
  6
SLD-Gestrichelt
 62
     7
370
     0
100
AcDbLine
 10
273.9735987798
 20
121.3864534723
 30
0.0
 11
273.9735987798
 21
121.7561624574
 31
0.0
  0
LINE
  5
1CB
330
1F
100
AcDbEntity
  8
0
  6
SLD-Gestrichelt
 62
     7
370
     0
100
AcDbLine
 10
233.9589965359
 20
103.8391310351
 30
0.0
 11
233.9589965359
 21
103.2983513644
 31
0.0
  0
LINE
  5
1CC
330
1F
100
AcDbEntity
  8
0
  6
SLD-Gestrichelt
 62
     7
370
     0
100
AcDbLine
 10
238.9589992181
 20
103.2983513644
 30
0.0
 11
238.9589992181
 21
103.8391310351
 31
0.0
  0
LINE
  5
1CD
330
1F
100
AcDbEntity
  8
0
  6
SLD-Gestrichelt
 62
     7
370
     0
100
AcDbLine
 10
234.4589975491
 20
103.513210742
 30
0.0
 11
234.4589975491
 21
102.2322424317
 31
0.0
  0
LINE
  5
1CE
330
1F
100
AcDbEntity
  8
0
  6
SLD-Gestrichelt
 62
     7
370
     0
100
AcDbLine
 10
238.4589982048
 20
102.2322424317
 30
0.0
 11
238.4589982048
 21
103.513210742
 31
0.0
  0
LINE
  5
1CF
330
1F
100
AcDbEntity
  8
0
  6
SLD-Gestrichelt
 62
     7
370
     0
100
AcDbLine
 10
233.9589965359
 20
102.4454645442
 30
0.0
 11
233.9589965359
 21
102.2755051593
 31
0.0
  0
LINE
  5
1D0
330
1F
100
AcDbEntity
  8
0
  6
SLD-Gestrichelt
 62
     7
370
     0
100
AcDbLine
 10
238.9589992181
 20
102.2755051593
 30
0.0
 11
238.9589992181
 21
102.4454645442
 31
0.0
  0
CIRCLE
  5
1D1
330
1F
100
AcDbEntity
  8
0
  6
SLD-Gestrichelt
 62
     7
370
     0
100
AcDbCircle
 10
236.4589973107
 20
102.9738834436
 30
0.0
 40
2.000000000000013
  0
LINE
  5
1D2
330
1F
100
AcDbEntity
  8
VERMASSUNG
100
AcDbLine
 10
278.4589973107
 20
129.0035714286
 30
0.0
 11
278.4589973107
 21
100.9312905659
 31
0.0
  0
DIMENSION
  5
1D3
330
1F
100
AcDbEntity
  8
VERMASSUNG
100
AcDbDimension
  2
_D
 10
283.6903762612
 20
107.0035714286
 30
0.0
 11
283.6903762612
 21
118.0035714286
 31
0.0
 70
   160
  1
<>
 71
     2
 42
-1.0
  3
SLDDIMSTYLE0
100
AcDbAlignedDimension
 13
278.4589973107
 23
129.0035714286
 33
0.0
 14
278.1978571429
 24
107.0035714286
 34
0.0
 50
90.0
100
AcDbRotatedDimension
  0
DIMENSION
  5
1DE
330
1F
100
AcDbEntity
  8
VERMASSUNG
100
AcDbDimension
  2
_D_1
 10
114.1721428571
 20
75.5035714286
 30
0.0
 11
114.1721428571
 21
107.0035714286
 31
0.0
 70
   160
  1
HSK %%c<>
 71
     2
 42
-1.0
  3
SLDDIMSTYLE0
100
AcDbAlignedDimension
 13
153.7589973107
 23
138.5035714286
 33
0.0
 14
153.7589973107
 24
75.5035714286
 34
0.0
 50
90.0
100
AcDbRotatedDimension
  0
DIMENSION
  5
1EA
330
1F
100
AcDbEntity
  8
VERMASSUNG
100
AcDbDimension
  2
_D_2
 10
121.5589973107
 20
150.345917018
 30
0.0
 11
200.0089973107
 21
150.345917018
 31
0.0
 70
   160
  1
<>
 71
     2
 42
-1.0
  3
SLDDIMSTYLE0
100
AcDbAlignedDimension
 13
278.4589973107
 23
129.0035714286
 33
0.0
 14
121.5589973107
 24
126.694249175
 34
0.0
100
AcDbRotatedDimension
  0
DIMENSION
  5
1F4
330
1F
100
AcDbEntity
  8
VERMASSUNG
100
AcDbDimension
  2
_D_3
 10
278.4589973107
 20
144.345917018
 30
0.0
 11
215.9589973107
 21
144.345917018
 31
0.0
 70
   160
  1
<>
 71
     2
 42
-1.0
  3
SLDDIMSTYLE0
100
AcDbAlignedDimension
 13
153.4589973107
 23
138.2035714286
 33
0.0
 14
278.4589973107
 24
129.0035714286
 34
0.0
100
AcDbRotatedDimension
  0
DIMENSION
  5
1FE
330
1F
100
AcDbEntity
  8
VERMASSUNG
100
AcDbDimension
  2
_D_4
 10
278.4589973107
 20
129.0035714286
 30
0.0
 11
283.6903762612
 21
102.4924318817
 31
0.0
 70
   162
  1
<>
 71
     1
 42
-1.0
  3
SLDDIMSTYLE1
100
AcDb2LineAngularDimension
 13
276.9937976429
 23
114.9868929497
 33
0.0
 14
277.0987301387
 24
116.183355226
 34
0.0
 15
278.4589973107
 25
107.0035714286
 35
0.0
 16
277.1618481988
 26
102.0559024074
 36
0.0
  0
LINE
  5
20B
330
1F
100
AcDbEntity
  8
VERMASSUNG
  6
SLD-Punktstrich
370
     0
100
AcDbLine
 10
117.3778571429
 20
107.0035714286
 30
0.0
 11
278.1978571429
 21
107.0035714286
 31
0.0
  0
LINE
  5
20C
330
1F
100
AcDbEntity
  8
0
  6
SLD-Durchgehend
 62
     7
370
    15
100
AcDbLine
 10
61.0241083301
 20
128.3373701947
 30
0.0
 11
57.8022079868
 21
128.9636436479
 31
0.0
  0
LINE
  5
20D
330
1F
100
AcDbEntity
  8
0
  6
SLD-Durchgehend
 62
     7
370
    15
100
AcDbLine
 10
56.8332383515
 20
115.1067325475
 30
0.0
 11
57.1350770875
 21
115.1225510614
 31
0.0
  0
LWPOLYLINE
  5
20E
330
1F
100
AcDbEntity
  8
0
  6
SLD-Durchgehend
 62
     7
370
    15
100
AcDbPolyline
 90
        9
 70
   128
 43
0.0
 10
57.7718735254
 20
128.5298410433
 10
57.7779474166
 20
128.6167017745
 10
57.7838486457
 20
128.7010926383
 10
57.7892974485
 20
128.7790145355
 10
57.7940355075
 20
128.8467719781
 10
57.7978382026
 20
128.9011537658
 10
57.8005252547
 20
128.9395801353
 10
57.8019692763
 20
128.9602294194
 10
57.8022079868
 20
128.9636436479
  0
LINE
  5
20F
330
1F
100
AcDbEntity
  8
0
  6
SLD-Durchgehend
 62
     7
370
    15
100
AcDbLine
 10
62.5085557218
 20
128.030160405
 30
0.0
 11
61.0241083301
 21
128.3373701947
 31
0.0
  0
LINE
  5
210
330
1F
100
AcDbEntity
  8
0
  6
SLD-Durchgehend
 62
     7
370
    15
100
AcDbLine
 10
61.694887128
 20
116.3941537591
 30
0.0
 11
62.5085557218
 21
128.030160405
 31
0.0
  0
LINE
  5
211
330
1F
100
AcDbEntity
  8
0
  6
SLD-Durchgehend
 62
     7
370
    15
100
AcDbLine
 10
61.694887128
 20
116.3941537591
 30
0.0
 11
60.1844081062
 21
116.3290980833
 31
0.0
  0
LINE
  5
212
330
1F
100
AcDbEntity
  8
0
  6
SLD-Durchgehend
 62
     7
370
    15
100
AcDbLine
 10
56.9321733306
 20
116.5215689319
 30
0.0
 11
57.7718735254
 21
128.5298410433
 31
0.0
  0
LWPOLYLINE
  5
213
330
1F
100
AcDbEntity
  8
0
  6
SLD-Durchgehend
 62
     7
370
    15
100
AcDbPolyline
 90
        9
 70
   128
 43
0.0
 10
56.9068088185
 20
116.1588392781
 10
56.9076534117
 20
116.1709166693
 10
56.9093168702
 20
116.1947063731
 10
56.9117487281
 20
116.2294838207
 10
56.9148751198
 20
116.2741919609
 10
56.9186009339
 20
116.327474788
 10
56.9228130731
 20
116.3877108695
 10
56.9273834804
 20
116.4530710878
 10
56.9321733306
 20
116.5215689319
  0
LINE
  5
214
330
1F
100
AcDbEntity
  8
0
  6
SLD-Durchgehend
 62
     7
370
    15
100
AcDbLine
 10
56.8333445804
 20
115.1082515346
 30
0.0
 11
56.9068088185
 21
116.1588392781
 31
0.0
  0
LINE
  5
215
330
1F
100
AcDbEntity
  8
0
  6
SLD-Durchgehend
 62
     7
370
    15
100
AcDbLine
 10
56.8332383515
 20
115.1067325475
 30
0.0
 11
56.8333445804
 21
115.1082515346
 31
0.0
  0
ARC
  5
216
330
1F
100
AcDbEntity
  8
0
  6
SLD-Durchgehend
 62
     7
370
    15
100
AcDbCircle
 10
55.3885478088
 20
108.5956218474
 30
0.0
 40
20.38964146592394
100
AcDbArc
 50
21.913530289
 51
69.6288852487
  0
LINE
  5
217
330
1F
100
AcDbEntity
  8
0
  6
SLD-Durchgehend
 62
     7
370
    15
100
AcDbLine
 10
74.3049999106
 20
116.2051744389
 30
0.0
 11
74.3049999106
 21
114.9482372778
 31
0.0
  0
ARC
  5
218
330
1F
100
AcDbEntity
  8
0
  6
SLD-Durchgehend
 62
     7
370
    15
100
AcDbCircle
 10
55.430838412
 20
108.5373426787
 30
0.0
 40
19.93322385251938
100
AcDbArc
 50
18.760839172
 51
69.3818992995
  0
LINE
  5
219
330
1F
100
AcDbEntity
  8
0
  6
SLD-Durchgehend
 62
     7
370
    15
100
AcDbLine
 10
74.3049999106
 20
114.5338643903
 30
0.0
 11
57.1255909268
 21
114.9868927526
 31
0.0
  0
LINE
  5
21A
330
1F
100
AcDbEntity
  8
0
  6
SLD-Durchgehend
 62
     7
370
    15
100
AcDbLine
 10
57.2092557082
 20
116.1833554136
 30
0.0
 11
57.1255909268
 21
114.9868927526
 31
0.0
  0
LINE
  5
21B
330
1F
100
AcDbEntity
  8
0
  6
SLD-Durchgehend
 62
     7
370
    15
100
AcDbLine
 10
57.2092557082
 20
116.1833554136
 30
0.0
 11
59.3006335071
 21
116.273430139
 31
0.0
  0
LINE
  5
21C
330
1F
100
AcDbEntity
  8
0
  6
SLD-Durchgehend
 62
     7
370
    15
100
AcDbLine
 10
59.3006335071
 20
116.273430139
 30
0.0
 11
61.673032014
 21
116.081610285
 31
0.0
  0
LINE
  5
21D
330
1F
100
AcDbEntity
  8
0
  6
SLD-Durchgehend
 62
     7
370
    15
100
AcDbLine
 10
61.694887128
 20
116.3941537591
 30
0.0
 11
61.673032014
 21
116.081610285
 31
0.0
  0
LINE
  5
21E
330
1F
100
AcDbEntity
  8
0
  6
SLD-Durchgehend
 62
     7
370
    15
100
AcDbLine
 10
74.3049999106
 20
114.5338643903
 30
0.0
 11
74.3049999106
 21
114.9482382091
 31
0.0
  0
LINE
  5
21F
330
1F
100
AcDbEntity
  8
0
  6
SLD-Durchgehend
 62
     7
370
    15
100
AcDbLine
 10
74.3049999106
 20
107.0035714286
 30
0.0
 11
74.3049999106
 21
114.5338643903
 31
0.0
  0
ARC
  5
220
330
1F
100
AcDbEntity
  8
0
  6
SLD-Durchgehend
 62
     7
370
    15
100
AcDbCircle
 10
57.805
 20
107.0035714286
 30
0.0
 40
16.50000000000002
100
AcDbArc
 50
261.7087285136
 51
0.0
  0
LINE
  5
221
330
1F
100
AcDbEntity
  8
0
  6
SLD-Durchgehend
 62
     7
370
    15
100
AcDbLine
 10
57.1255909268
 20
114.9868927526
 30
0.0
 11
55.4256100546
 21
90.6760338323
 31
0.0
  0
ARC
  5
222
330
1F
100
AcDbEntity
  8
0
  6
SLD-Durchgehend
 62
     7
370
    15
100
AcDbCircle
 10
57.7340127039
 20
107.6833370186
 30
0.0
 40
15.31722812583435
100
AcDbArc
 50
91.3058175963
 51
98.5946456009
  0
ARC
  5
223
330
1F
100
AcDbEntity
  8
0
  6
SLD-Durchgehend
 62
     7
370
    15
100
AcDbCircle
 10
57.804795713
 20
107.0026564709
 30
0.0
 40
15.99906442725481
100
AcDbArc
 50
253.5175551898
 51
261.5746062464
  0
ELLIPSE
  5
224
330
1F
100
AcDbEntity
  8
0
  6
SLD-Durchgehend
 62
     7
370
    15
100
AcDbEllipse
 10
49.5034341484
 20
114.9135203407
 30
0.0
 11
1.733036295194204
 21
1.855089312013831
 31
0.0
210
0.0
220
0.0
230
1.0
 40
0.8112573031
 41
0.0
 42
6.283185307179586
  0
ARC
  5
225
330
1F
100
AcDbEntity
  8
0
  6
SLD-Durchgehend
 62
     7
370
    15
100
AcDbCircle
 10
57.805
 20
107.0035714286
 30
0.0
 40
16.00000000000001
100
AcDbArc
 50
98.4822165171
 51
253.5177834829
  0
LINE
  5
226
330
1F
100
AcDbEntity
  8
0
  6
SLD-Durchgehend
 62
     7
370
    15
100
AcDbLine
 10
48.8050003874
 20
77.4432941901
 30
0.0
 11
48.8050003874
 21
76.8166537958
 31
0.0
  0
ARC
  5
227
330
1F
100
AcDbEntity
  8
0
  6
SLD-Durchgehend
 62
     7
370
    15
100
AcDbCircle
 10
57.805
 20
107.0035714286
 30
0.0
 40
31.50000000000001
100
AcDbArc
 50
140.9381656697
 51
253.398450401
  0
LINE
  5
228
330
1F
100
AcDbEntity
  8
0
  6
SLD-Durchgehend
 62
     7
370
    15
100
AcDbLine
 10
33.3463103849
 20
126.8535721677
 30
0.0
 11
34.1240485537
 21
126.8535721677
 31
0.0
  0
LINE
  5
229
330
1F
100
AcDbEntity
  8
0
  6
SLD-Durchgehend
 62
     7
370
    15
100
AcDbLine
 10
49.80499962
 20
136.8500124293
 30
0.0
 11
49.80499962
 21
137.4707668649
 31
0.0
  0
LINE
  5
22A
330
1F
100
AcDbEntity
  8
0
  6
SLD-Durchgehend
 62
     7
370
    15
100
AcDbLine
 10
37.9549992609
 20
131.4622610437
 30
0.0
 11
37.9549992609
 21
130.6845228749
 31
0.0
  0
ARC
  5
22B
330
1F
100
AcDbEntity
  8
0
  6
SLD-Durchgehend
 62
     7
370
    15
100
AcDbCircle
 10
57.805
 20
107.0035714286
 30
0.0
 40
31.5
100
AcDbArc
 50
104.7124579609
 51
129.0618343303
  0
LINE
  5
22C
330
1F
100
AcDbEntity
  8
0
  6
SLD-Durchgehend
 62
     7
370
    15
100
AcDbLine
 10
65.80500038
 20
137.4707668649
 30
0.0
 11
65.80500038
 21
136.8500124293
 31
0.0
  0
ARC
  5
22D
330
1F
100
AcDbEntity
  8
0
  6
SLD-Durchgehend
 62
     7
370
    15
100
AcDbCircle
 10
57.805
 20
107.0035714286
 30
0.0
 40
31.5
100
AcDbArc
 50
286.601549599
 51
75.2875420391
  0
LINE
  5
22E
330
1F
100
AcDbEntity
  8
0
  6
SLD-Durchgehend
 62
     7
370
    15
100
AcDbLine
 10
66.8049996126
 20
76.8166537958
 30
0.0
 11
66.8049996126
 21
77.4432941901
 31
0.0
  0
LINE
  5
22F
330
1F
100
AcDbEntity
  8
0
  6
SLD-Durchgehend
 62
     7
370
    15
100
AcDbLine
 10
65.80500038
 20
133.4035712855
 30
0.0
 11
49.80499962
 21
133.4035712855
 31
0.0
  0
LINE
  5
230
330
1F
100
AcDbEntity
  8
0
  6
SLD-Durchgehend
 62
     7
370
    15
100
AcDbLine
 10
66.8049996126
 20
80.6035715716
 30
0.0
 11
48.8050003874
 21
80.6035715716
 31
0.0
  0
LINE
  5
231
330
1F
100
AcDbEntity
  8
0
  6
SLD-Durchgehend
 62
     7
370
    15
100
AcDbLine
 10
65.80500038
 20
136.8500124293
 30
0.0
 11
65.80500038
 21
133.4035712855
 31
0.0
  0
LINE
  5
232
330
1F
100
AcDbEntity
  8
0
  6
SLD-Durchgehend
 62
     7
370
    15
100
AcDbLine
 10
66.8049996126
 20
77.4432941901
 30
0.0
 11
66.8049996126
 21
80.6035715716
 31
0.0
  0
LINE
  5
233
330
1F
100
AcDbEntity
  8
0
  6
SLD-Durchgehend
 62
     7
370
    15
100
AcDbLine
 10
49.80499962
 20
133.4035712855
 30
0.0
 11
49.80499962
 21
136.8500124293
 31
0.0
  0
LINE
  5
234
330
1F
100
AcDbEntity
  8
0
  6
SLD-Durchgehend
 62
     7
370
    15
100
AcDbLine
 10
48.8050003874
 20
80.6035715716
 30
0.0
 11
48.8050003874
 21
77.4432941901
 31
0.0
  0
LINE
  5
235
330
1F
100
AcDbEntity
  8
0
  6
SLD-Durchgehend
 62
     7
370
    15
100
AcDbLine
 10
37.9549992609
 20
130.6845228749
 30
0.0
 11
37.9549992609
 21
126.8535721677
 31
0.0
  0
LINE
  5
236
330
1F
100
AcDbEntity
  8
0
  6
SLD-Durchgehend
 62
     7
370
    15
100
AcDbLine
 10
34.1240485537
 20
126.8535721677
 30
0.0
 11
37.9549992609
 21
126.8535721677
 31
0.0
  0
ARC
  5
237
330
1F
100
AcDbEntity
  8
0
  6
SLD-Durchgehend
 62
     7
370
    15
100
AcDbCircle
 10
57.8064053687
 20
106.9948920085
 30
0.0
 40
31.49128069790735
100
AcDbArc
 50
271.8171650148
 51
286.6036104447
  0
ARC
  5
238
330
1F
100
AcDbEntity
  8
0
  6
SLD-Durchgehend
 62
     7
370
    15
100
AcDbCircle
 10
57.8081468428
 20
107.0229659604
 30
0.0
 40
31.5194850954944
100
AcDbArc
 50
253.4030421033
 51
268.1761824372
  0
ARC
  5
239
330
1F
100
AcDbEntity
  8
0
  6
SLD-Durchgehend
 62
     7
370
    15
100
AcDbCircle
 10
57.805
 20
107.0001446952
 30
0.0
 40
31.50331445242664
100
AcDbArc
 50
75.289124154
 51
104.710875846
  0
ARC
  5
23A
330
1F
100
AcDbEntity
  8
0
  6
SLD-Durchgehend
 62
     7
370
    15
100
AcDbCircle
 10
57.8046491295
 20
107.0039222991
 30
0.0
 40
31.49950688589961
100
AcDbArc
 50
129.0617420529
 51
140.9382579471
  0
ARC
  5
23B
330
1F
100
AcDbEntity
  8
0
  6
SLD-Durchgehend
 62
     7
370
    15
100
AcDbCircle
 10
57.805
 20
107.0035714286
 30
0.0
 40
31.5
100
AcDbArc
 50
268.180780706
 51
271.819219294
  0
CIRCLE
  5
23C
330
1F
100
AcDbEntity
  8
VERMASSUNG
  6
SLD-Punktstrich
100
AcDbCircle
 10
57.8022079869
 20
108.9636437808
 30
0.0
 40
20.00000000000001
  0
POINT
  5
23D
330
1F
100
AcDbEntity
  8
VERMASSUNG
100
AcDbPoint
 10
57.8022079869
 20
128.9636437808
 30
0.0
  0
DIMENSION
  5
23E
330
1F
100
AcDbEntity
  8
VERMASSUNG
100
AcDbDimension
  2
_D_5
 10
22.0940694679
 20
128.9636437808
 30
0.0
 11
22.0940694679
 21
108.9636437808
 31
0.0
 70
   160
  1
%%c<>
 71
     2
 42
-1.0
  3
SLDDIMSTYLE0
100
AcDbAlignedDimension
 13
57.8022079869
 23
88.9636437808
 33
0.0
 14
57.8022079869
 24
128.9636437808
 34
0.0
 50
90.0
100
AcDbRotatedDimension
  0
INSERT
  5
254
330
1F
100
AcDbEntity
  8
VERMASSUNG
100
AcDbBlockReference
  2
SW_CENTERMARKSYMBOL_0
 10
57.805
 20
107.0035714286
 30
0.0
  0
OLE2FRAME
  5
255
330
1F
100
AcDbEntity
  8
0
100
AcDbOle2Frame
 70
     2
  3
Paintbrush-Bild
 10
13.8511154363
 20
38.264191557
 30
0.0
 11
51.6290888628
 21
31.9806341108
 31
0.0
 71
     2
 72
     0
 73
     1
 90
    12928
310
80552BED0767C5B32B40DDAF6807D121434000000000000000006FFBDDFB85D0
310
4940DDAF6807D121434000000000000000006FFBDDFB85D04940416F4BD60AFB
310
3F4000000000000000002BED0767C5B32B40416F4BD60AFB3F40000000000000
310
0000000000000100000000010000010000000100000000000100000000320000
310
D0CF11E0A1B11AE1000000000000000000000000000000003E000300FEFF0900
310
0600000000000000000000000100000001000000000000000010000002000000
310
01000000FEFFFFFF0000000000000000FFFFFFFFFFFFFFFFFFFFFFFFFFFFFFFF
310
FFFFFFFFFFFFFFFFFFFFFFFFFFFFFFFFFFFFFFFFFFFFFFFFFFFFFFFFFFFFFFFF
310
FFFFFFFFFFFFFFFFFFFFFFFFFFFFFFFFFFFFFFFFFFFFFFFFFFFFFFFFFFFFFFFF
310
FFFFFFFFFFFFFFFFFFFFFFFFFFFFFFFFFFFFFFFFFFFFFFFFFFFFFFFFFFFFFFFF
310
FFFFFFFFFFFFFFFFFFFFFFFFFFFFFFFFFFFFFFFFFFFFFFFFFFFFFFFFFFFFFFFF
310
FFFFFFFFFFFFFFFFFFFFFFFFFFFFFFFFFFFFFFFFFFFFFFFFFFFFFFFFFFFFFFFF
310
FFFFFFFFFFFFFFFFFFFFFFFFFFFFFFFFFFFFFFFFFFFFFFFFFFFFFFFFFFFFFFFF
310
FFFFFFFFFFFFFFFFFFFFFFFFFFFFFFFFFFFFFFFFFFFFFFFFFFFFFFFFFFFFFFFF
310
FFFFFFFFFFFFFFFFFFFFFFFFFFFFFFFFFFFFFFFFFFFFFFFFFFFFFFFFFFFFFFFF
310
FFFFFFFFFFFFFFFFFFFFFFFFFFFFFFFFFFFFFFFFFFFFFFFFFFFFFFFFFFFFFFFF
310
FFFFFFFFFFFFFFFFFFFFFFFFFFFFFFFFFFFFFFFFFFFFFFFFFFFFFFFFFFFFFFFF
310
FFFFFFFFFFFFFFFFFFFFFFFFFFFFFFFFFFFFFFFFFFFFFFFFFFFFFFFFFFFFFFFF
310
FFFFFFFFFFFFFFFFFFFFFFFFFFFFFFFFFFFFFFFFFFFFFFFFFFFFFFFFFFFFFFFF
310
FFFFFFFFFFFFFFFFFFFFFFFFFFFFFFFFFFFFFFFFFFFFFFFFFFFFFFFFFFFFFFFF
310
FDFFFFFFFEFFFFFFFEFFFFFFFEFFFFFF05000000060000000700000008000000
310
090000000A0000000B0000000C0000000D0000000E0000000F00000010000000
310
11000000120000001300000014000000150000001600000017000000FEFFFFFF
310
FFFFFFFFFFFFFFFFFFFFFFFFFFFFFFFFFFFFFFFFFFFFFFFFFFFFFFFFFFFFFFFF
310
FFFFFFFFFFFFFFFFFFFFFFFFFFFFFFFFFFFFFFFFFFFFFFFFFFFFFFFFFFFFFFFF
310
FFFFFFFFFFFFFFFFFFFFFFFFFFFFFFFFFFFFFFFFFFFFFFFFFFFFFFFFFFFFFFFF
310
FFFFFFFFFFFFFFFFFFFFFFFFFFFFFFFFFFFFFFFFFFFFFFFFFFFFFFFFFFFFFFFF
310
FFFFFFFFFFFFFFFFFFFFFFFFFFFFFFFFFFFFFFFFFFFFFFFFFFFFFFFFFFFFFFFF
310
FFFFFFFFFFFFFFFFFFFFFFFFFFFFFFFFFFFFFFFFFFFFFFFFFFFFFFFFFFFFFFFF
310
FFFFFFFFFFFFFFFFFFFFFFFFFFFFFFFFFFFFFFFFFFFFFFFFFFFFFFFFFFFFFFFF
310
FFFFFFFFFFFFFFFFFFFFFFFFFFFFFFFFFFFFFFFFFFFFFFFFFFFFFFFFFFFFFFFF
310
FFFFFFFFFFFFFFFFFFFFFFFFFFFFFFFFFFFFFFFFFFFFFFFFFFFFFFFFFFFFFFFF
310
FFFFFFFFFFFFFFFFFFFFFFFFFFFFFFFFFFFFFFFFFFFFFFFFFFFFFFFFFFFFFFFF
310
FFFFFFFFFFFFFFFFFFFFFFFFFFFFFFFFFFFFFFFFFFFFFFFFFFFFFFFFFFFFFFFF
310
FFFFFFFFFFFFFFFFFFFFFFFFFFFFFFFFFFFFFFFFFFFFFFFFFFFFFFFFFFFFFFFF
310
FFFFFFFFFFFFFFFFFFFFFFFFFFFFFFFFFFFFFFFFFFFFFFFFFFFFFFFFFFFFFFFF
310
52006F006F007400200045006E00740072007900000000000000000000000000
310
0000000000000000000000000000000000000000000000000000000000000000
310
16000500FFFFFFFFFFFFFFFF020000000A00030000000000C000000000000046
310
0000000000000000000000002067A2CCE849D00103000000C000000000000000
310
01004F006C006500000000000000000000000000000000000000000000000000
310
0000000000000000000000000000000000000000000000000000000000000000
310
0A000200FFFFFFFFFFFFFFFFFFFFFFFF00000000000000000000000000000000
310
0000000000000000000000000000000000000000000000001400000000000000
310
010043006F006D0070004F0062006A0000000000000000000000000000000000
310
0000000000000000000000000000000000000000000000000000000000000000
310
120002010100000003000000FFFFFFFF00000000000000000000000000000000
310
0000000000000000000000000000000000000000010000004D00000000000000
310
01004F006C006500310030004E00610074006900760065000000000000000000
310
0000000000000000000000000000000000000000000000000000000000000000
310
1A000200FFFFFFFFFFFFFFFFFFFFFFFF00000000000000000000000000000000
310
0000000000000000000000000000000000000000040000002426000000000000
310
FEFFFFFF02000000FEFFFFFFFFFFFFFFFFFFFFFFFFFFFFFFFFFFFFFFFFFFFFFF
310
FFFFFFFFFFFFFFFFFFFFFFFFFFFFFFFFFFFFFFFFFFFFFFFFFFFFFFFFFFFFFFFF
310
FFFFFFFFFFFFFFFFFFFFFFFFFFFFFFFFFFFFFFFFFFFFFFFFFFFFFFFFFFFFFFFF
310
FFFFFFFFFFFFFFFFFFFFFFFFFFFFFFFFFFFFFFFFFFFFFFFFFFFFFFFFFFFFFFFF
310
FFFFFFFFFFFFFFFFFFFFFFFFFFFFFFFFFFFFFFFFFFFFFFFFFFFFFFFFFFFFFFFF
310
FFFFFFFFFFFFFFFFFFFFFFFFFFFFFFFFFFFFFFFFFFFFFFFFFFFFFFFFFFFFFFFF
310
FFFFFFFFFFFFFFFFFFFFFFFFFFFFFFFFFFFFFFFFFFFFFFFFFFFFFFFFFFFFFFFF
310
FFFFFFFFFFFFFFFFFFFFFFFFFFFFFFFFFFFFFFFFFFFFFFFFFFFFFFFFFFFFFFFF
310
FFFFFFFFFFFFFFFFFFFFFFFFFFFFFFFFFFFFFFFFFFFFFFFFFFFFFFFFFFFFFFFF
310
FFFFFFFFFFFFFFFFFFFFFFFFFFFFFFFFFFFFFFFFFFFFFFFFFFFFFFFFFFFFFFFF
310
FFFFFFFFFFFFFFFFFFFFFFFFFFFFFFFFFFFFFFFFFFFFFFFFFFFFFFFFFFFFFFFF
310
FFFFFFFFFFFFFFFFFFFFFFFFFFFFFFFFFFFFFFFFFFFFFFFFFFFFFFFFFFFFFFFF
310
FFFFFFFFFFFFFFFFFFFFFFFFFFFFFFFFFFFFFFFFFFFFFFFFFFFFFFFFFFFFFFFF
310
FFFFFFFFFFFFFFFFFFFFFFFFFFFFFFFFFFFFFFFFFFFFFFFFFFFFFFFFFFFFFFFF
310
FFFFFFFFFFFFFFFFFFFFFFFFFFFFFFFFFFFFFFFFFFFFFFFFFFFFFFFFFFFFFFFF
310
FFFFFFFFFFFFFFFFFFFFFFFFFFFFFFFFFFFFFFFFFFFFFFFFFFFFFFFFFFFFFFFF
310
0100000200000000000000000000000000000000000000000000000000000000
310
0000000000000000000000000000000000000000000000000000000000000000
310
0100FEFF030A0000FFFFFFFF0A00030000000000C00000000000004607000000
310
5042727573680007000000504272757368000700000050427275736800F439B2
310
7100000000000000000000000000000000000000000000000000000000000000
310
0000000000000000000000000000000000000000000000000000000000000000
310
0000000000000000000000000000000000000000000000000000000000000000
310
0000000000000000000000000000000000000000000000000000000000000000
310
0000000000000000000000000000000000000000000000000000000000000000
310
0000000000000000000000000000000000000000000000000000000000000000
310
0000000000000000000000000000000000000000000000000000000000000000
310
0000000000000000000000000000000000000000000000000000000000000000
310
0000000000000000000000000000000000000000000000000000000000000000
310
0000000000000000000000000000000000000000000000000000000000000000
310
0000000000000000000000000000000000000000000000000000000000000000
310
0000000000000000000000000000000000000000000000000000000000000000
310
20260000424D0E260000000000003E00000028000000B40200006E0000000100
310
01000000000000000000130B0000130B00000200000002000000000000FFFFFF
310
FFFFFFFFFFFFFFFFFFFFFFFFFFFFFFFFFFFFFFFFFFFFFFFFFFFFFFFFFFFFFFFF
310
FFFFFFFFFFFFFFFFFFFFFFFFFFFFFFFFFFFFFFFFFFFFFFFFFFFFFFFFFFFFFFFF
310
FFFFFFFFFFFFFFFFFFFFFFFFFFFFFFFFFFFFFFFFFFFFFFFFF000FFFFFFFFFFFF
310
FFFFFFFFFFFFFFFFFFFFFFFFFFFFFFFFFFFFFFFFFFFFFFFFFFFFFFFFFFFFFFFF
310
FFFFFFFFFFFFFFFFFFFFFFFFFFFFFFFFFFFFFFFFFFFFFFFFFFFFFFFFFFFFFFFF
310
FFFFFFFFFFFFFFFFFFFFFFFFFFFFFFFFF000FFFFFFFFFFFFFFFFFFFFFFFFFFFF
310
FFFFFFFFFFFFFFFFFFFFFFFFFFFFFFFFFFFFFFFFFFFFFFFFFFFFFFFFFFFFFFFF
310
FFFFFFFFFFFFFFFFFFFFFFFFFFFFFFFFFFFFFFFFFFFFFFFFFFFFFFFFFFFFFFFF
310
FFFFFFFFFFFFFFFFF000FFFFFFFFFFFFFFFFFFFFFFFFFFFFFFFFFFFFFFFFFFFF
310
FFFFFFFFFFFFFFFFFFFFFFFFFFFFFFFFFFFFFFFFFFFFFFFFFFFFFFFFFFFFFFFF
310
FFFFFFFFFFFFFFFFFFFFFFFFFFFFFFFFFFFFFFFFFFFFFFFFFFFFFFFFFFFFFFFF
310
F000FFFFFFFFFFFFFFFFFFFFFFFFFFFFFFFFFFFFFFFFFFFFFFFFFFFFFFFFFFFF
310
FFFFFFFFFFFFFFFFFFFFFFFFFFFFFFFFFFFFFFFFFFFFFFFFFFFFFFFFFFFFFFFF
310
FFFFFFFFFFFFFFFFFFFFFFFFFFFFFFFFFFFFFFFFFFFFFFFFF000FFFFFFFFFFFF
310
FFFFFFFFFFFFFFFFFFFFFFFFFFFFFFFFFFFFFFFFFFFFFFFFFFFFFFFFFFFFFFFF
310
FFFFFFFFFFFFFFFFFFFFFFFFFFFFFFFFFFFFFFFFFFFFFFFFFFFFFFFFFFFFFFFF
310
FFFFFFFFFFFFFFFFFFFFFFFFFFFFFFFFF000FFFFFFFFFFFFFFFFFFFFFFFFFFFF
310
FFFFFFFFFFFFFFFFFFFFFFFFFFFFFFFFFFFFFFFFFFFFFFFFFFFFFFFFFFFFFFFF
310
FFFFFFFFFFFFFFFFFFFFFFFFFFFFFFFFFFFFFFFFFFFFFFFFFFFFFFFFFFFFFFFF
310
FFFFFFFFFFFFFFFFF000FFFFFFFFFFFFFFFFFFFFFFFFFFFFFFFFFFFFFFFFFFFF
310
FFFFFFFFFFFFFFFFFFFFFFFFFFFFFFFFFFFFFFFFFFFFFFFFFFFFFFFFFFFFFFFF
310
FFFFFFFFFFFFFFFFFFFFFFFFFFFFFFFFFFFFFFFFFFFFFFFFFFFFFFFFFFFFFFFF
310
F000FFFFFFFFFFFFFFFFFFFFFFFFFFFFFFFFFFFFFFFFFFFFFFFFFFFFFFFFFFFF
310
FFFFFFFFFFFFFFFFFFFFFFFFFFFFFFFFFFFFFFFFFFFFFFFFFFFFFFFFFFFFFFFF
310
FFFFFFFFFFFFFFFFFFFFFFFFFFFFFFFFFFFFFFFFFFFFFFFFF000FFFFFFFFFFFF
310
FFFFFFFFFFFFFFFFFFFFFFFFFFFFFFFFFFFFFFFFFFFFFFFFFFFFFFFFFFFFFFFF
310
FFFFFFFFFFFFFFFFFFFFFFFFFFFFFFFFFFFFFFFFFFFFFFFFFFFFFFFFFFFFFFFF
310
FFFFFFFFFFFFFFFFFFFFFFFFFFFFFFFFF000FFFFFFFFFFFFFFFFFFFFFFFFFFFF
310
FFFFFFFFFFFFFFFFFFFFFFFFFFFFFFFFFFFFFFFFFFFFFFFFFFFFFFFFFFFFFFFF
310
FFFFFFFFFFFFFFFFFFFFFFFFFFFFFFFFFFFFFFFFFFFFFFFFFFFFFFFFFFFFFFFF
310
FFFFFFFFFFFFFFFFF000FFFFFFFFFFFFFFFFFFFFFFFFFFFFFFFFFFFFFFFFFFFF
310
FFFFFFFFFFFFFFFFFFFFFFFFFFFFFFFFFFFFFFFFFFFFFFFFFFFFFFFFFFFFFFFF
310
FFFFFFFFFFFFFFFFFFFFFFFFFFFFFFFFFFFFFFFFFFFFFFFFFFFFFFFFFFFFFFFF
310
F000FFFFFFFFFFFFFFFFFFFFFFFFFFFFFFFFFFFFFFFFFFFFFFFFFFFFFFFFFFFF
310
FFFFFFFFFFFFFFFFFFFFFFFFFFFFFFFFFFFFFFFFFFFFFFFFFFFFFFFFFFFFFFFF
310
FFFFFFFFFFFFFFFFFFFFFFFFFFFFFFFFFFFFFFFFFFFFFFFFF000FFFFFFFFFFFF
310
FFFFFFFFFFFFFFFFFFFFFFFFFFFFFFFFFFFFFFFFFFFFFFFFFFFFFFFFFFFFFFFF
310
FFFFFFFFFFFFFFFFFFFFFFFFFFFFFFFFFFFFFFFFFFFFFFFFFFFFFFFFFFFFFFFF
310
FFFFFFFFFFFFFFFFFFFFFFFFFFFFFFFFF000FFFFFFFFFFFFFFFFFFFFFFFFFFFF
310
FFFFFFFFFFFFFFFFFFFFFFFFFFFFFFFFFFFFFFFFFFFFFFFFFFFFFFFFFFFFFFFF
310
FFFFFFFFFFFFFFFFFFFFFFFFFFFFFFFFFFFFFFFFFFFFFFFFFFFFFFFFFFFFFFFF
310
FFFFFFFFFFFFFFFFF000FFFFFFFFFFFFFFFFFFFFFFFFFFFFFFFFFFFFFFFFFFFF
310
FFFFFFFFFFFFFFFFFFFFFFFFFFFFFFFFFFFFFFFFFFFFFFFFFFFFFFFFFFFFFFFF
310
FFFFFFFFFFFFFFFFFFFFFFFFFFFFFFFFFFFFFFFFFFFFFFFFFFFFFFFFFFFFFFFF
310
F000FFFFFFFFFFFFFFFFFFFFFFFFFFFFFFFFFFFFFFFFFFFFFFFFFFFFFFFFFFFF
310
FFFFFFFFFFFFFFFFFFFFFFFFFFFFFFFFFFFFFFFFFFFFFFFFFFFFFFFFFFFFFFFF
310
FFFFFFFFFFFFFFFFFFFFFFFFFFFFFFFFFFFFFFFFFFFFFFFFF000FFFFFFFFFFFF
310
FFFFFFFFFFFFFFFFFFFFFFFFFFFFFFFFFFFFFFFFFFFFFFFFFFFFFFFFFFFFFFFF
310
FFFFFFFFFFFFFFFFFFFFFFFFFFFFFFFFFFFFFFFFFFFFFFFFFFFFFFFFFFFFFFFF
310
FFFFFFFFFFFFFFFFFFFFFFFFFFFFFFFFF000FFFFFFFFFFFFFFFFFFFFFFFFFFFF
310
FFFFFFFFFFFFFFFFFFFFFFFFFFFFFFFFFFFFFFFFFFFFFFFFFFFFFFFFFFFFFFFF
310
FFFFFFFFFFFFFFFFFFFFFFFFFFFFFFFFFFFFFFFFFFFFFFFFFFFFFFFFFFFFFFFF
310
FFFFFFFFFFFFFFFFF000FFFFF80003FFFFFFFFFFFFFFFFFFFFFFFFFFFFFFFFFF
310
FFFFF00007FFFFFFFFFF00007FFFFFF800000000000000007FFFFFFFFFFFFFFF
310
FFFFFFFC001FFFFFFFFFFFFFFC001FFFFFFFFFFFFFFFFFFFFFFFFFFE0007FFFF
310
F000FFFF8000007FFFFFFFF8000FFFFFC0007FFFFF80007FFFFF0000007FFFFF
310
FFF8000007FFFFF800000000000000007FFFFFF0001FFFFFFFFFFFC00001FFFF
310
FFFFFFFFC00001FFFFFFFF000000000003FFFFE000007FFFF000FFFE0000000F
310
FFFFFFF0000FFFFF80007FFFFF80007FFFFC0000001FFFFFFFC0000001FFFFF8
310
00000000000000007FFFFFF0001FFFFFFFFFFE0000003FFFFFFFFFFE0000003F
310
FFFFFF000000000003FFFF0000000FFFF000FFF800000003FFFFFFF00007FFFF
310
80007FFFFF80007FFFF000000007FFFFFF000000003FFFF80000000000000000
310
7FFFFFF0001FFFFFFFFFF80000000FFFFFFFFFF80000000FFFFFFF0000000000
310
03FFFC00000003FFF000FFE000000000FFFFFFF00007FFFF80003FFFFF80007F
310
FFC000000001FFFFFC000000001FFFF800000000000000007FFFFFF0001FFFFF
310
FFFFE000000003FFFFFFFFE000000003FFFFFF000000000003FFF000000000FF
310
F000FF80000000007FFFFFF00007FFFF80003FFFFF80007FFF8000000000FFFF
310
F80000000007FFF800000000000000007FFFFFF0001FFFFFFFFFC000000001FF
310
FFFFFFC000000001FFFFFF000000000003FFC0000000007FF000FF0000000000
310
3FFFFFE00007FFFF00003FFFFF80007FFE00000000003FFFF00000000003FFF8
310
00000000000000007FFFFFF0001FFFFFFFFF8000000000FFFFFFFF8000000000
310
FFFFFF000000000003FF80000000003FF000FE00000000001FFFFFE00003FFFF
310
00003FFFFF80007FFC00000000001FFFE00000000001FFF8000001FFFE000000
310
7FFFFFF0001FFFFFFFFE00000000003FFFFFFE00000000003FFFFF0000000000
310
03FF00000000001FF000FC00000000000FFFFFE00003FFFF00001FFFFF80007F
310
F800000000001FFFC00000000000FFF8000001FFFE0000007FFFFFF0001FFFFF
310
FFFC00000000001FFFFFFC00000000001FFFFF000000000003FE00000000000F
310
F000F8000000000007FFFFE00003FFFF00001FFFFF80007FF800000000000FFF
310
800000000000FFF8000001FFFE0000007FFFFFF0001FFFFFFFF800000000000F
310
FFFFF800000000000FFFFF000000000003FC000000000007F000F80000000000
310
03FFFFC00003FFFE00001FFFFF80007FF0000000000007FF0000000000007FF8
310
000001FFFE0000007FFFFFF0001FFFFFFFF0000000000007FFFFF00000000000
310
07FFFF000000000003F8000000000003F000F0000000000003FFFFC00001FFFE
310
00001FFFFF80007FE0000000000007FE0000000000003FF8000001FFFE000000
310
7FFFFFF0001FFFFFFFF0000000000007FFFFF0000000000007FFFF0000000000
310
03F800001F800003F000E00001FFF00001FFFFC00001FFFE00000FFFFF80007F
310
E00001FFE00003FE00001FFF00003FF8000001FFFE0000007FFFFFF0001FFFFF
310
FFE000003E000003FFFFE000003E000003FFFF000000000003F00001FFF80001
310
F000E00007FFFC0001FFFFC00001FFFE00000FFFFF80007FC0000FFFFC0003FC
310
0000FFFFC0001FF8000001FFFE0000007FFFFFF0001FFFFFFFC00003FFE00001
310
FFFFC00003FFE00001FFFF0001FFFFFFFFF00007FFFE0001F000E0000FFFFF00
310
00FFFF800001FFFC00000FFFFF80007FC0001FFFFE0001FC0001FFFFE0001FF8
310
000001FFFE0000007FFFFFF0001FFFFFFF80000FFFF80000FFFF80000FFFF800
310
00FFFF0003FFFFFFFFE0000FFFFF8000F000C0003FFFFF8000FFFF800000FFFC
310
000007FFFF80007F80003FFFFF0001FC0003FFFFF0001FF8000001FFFE000000
310
7FFFFFF0001FFFFFFF80003FFFFE0000FFFF80003FFFFE0000FFFF0003FFFFFF
310
FFE0003FFFFF8000F000C0003FFFFF8000FFFF800000FFFC000007FFFF80007F
310
80007FFFFF8001F80007FFFFF8000FF8000001FFFE0000007FFFFFF0001FFFFF
310
FF00007FFFFF00007FFF00007FFFFF00007FFF0003FFFFFFFFE0003FFFFFC000
310
F000C0007FFFFFC000FFFF000000FFFC000007FFFF80007F8000FFFFFF8000F8
310
000FFFFFF8000FF8000001FFFE0000007FFFFFF0001FFFFFFF0000FFFFFF8000
310
7FFF0000FFFFFF80007FFF0003FFFFFFFFC0007FFFFFC00070008000FFFFFFC0
310
00FFFF000000FFF8000007FFFF80007F8000FFFFFF8000F8000FFFFFF8000FF8
310
000001FFFE0000007FFFFFF0001FFFFFFE0001FFFFFFC0003FFE0001FFFFFFC0
310
003FFF0003FFFFFFFFC0007FFFFFE00070008000FFFFFFC0007FFF0000007FF8
310
000003FFFF80007F0001FFFFFF8000F8000FFFFFF8000FF8000001FFFE000000
310
7FFFFFF0001FFFFFFE0001FFFFFFC0003FFE0001FFFFFFC0003FFF0003FFFFFF
310
FFC000FFFFFFE00070008000FFFFFFC0007FFF0000007FF8000003FFFF80007F
310
0001FFFFFF8000F8001FFFFFF8000FF8000001FFFE0000007FFFFFF0001FFFFF
310
FE0003FFFFFFE0003FFE0003FFFFFFE0003FFF0003FFFFFFFFC000FFFFFFE000
310
70008000FFFFFFC0007FFE0000007FF8000003FFFF80007F0001FFFFFF8000F0
310
001FFFFFF8000FF8000001FFFE0000007FFFFFF0001FFFFFFC0003FFFFFFE000
310
1FFC0003FFFFFFE0001FFF0003FFFFFFFFC000FFFFFFC00070008000FFFFFF80
310
007FFE0000007FF0000003FFFF80007F0001FFFFFF0000F0001FFFFFF8000FF8
310
000001FFFE0000007FFFFFF0001FFFFFFC0007FFFFFFF0001FFC0007FFFFFFF0
310
001FFF0003FFFFFFFFC000FFFFFFC00070008001FFFFFF0000FFFE0000003FF0
310
000001FFFF80007F0001FFFFFF0000F8001FFFFFF0000FF8000001FFFE000000
310
7FFFFFF0001FFFFFFC0007FFFFFFF0001FFC0007FFFFFFF0001FFF0003FFFFFF
310
FFC001FFFFFF80007000FFFFFFFFFE0000FFFE0008003FF0008001FFFF80007F
310
FFFFFFFFFC0000FFFFFFFFFFE0000FF8000001FFFE0000007FFFFFF0001FFFFF
310
F8000FFFFFFFF8000FF8000FFFFFFFF8000FFF0003FFFFFFFFFFFFFFFFFF0000
310
7000FFFFFFFFFC0000FFFC0008003FF0008001FFFF80007FFFFFFFFFF80001FF
310
FFFFFFFF80000FF8000001FFFE0000007FFFFFF0001FFFFFF8000FFFFFFFF800
310
0FF8000FFFFFFFF8000FFF0003FFFFFFFFFFFFFFFFFE0000F000FFFFFFFFE000
310
00FFFC000C003FE000C001FFFF80007FFFFFFFFFC00001FFFFFFFFFE00001FF8
310
000001FFFE0000007FFFFFF0001FFFFFF8000FFFFFFFF8000FF8000FFFFFFFF8
310
000FFF0003FFFFFFFFFFFFFFFFF00000F000FFFFFFFE000001FFFC000C001FE0
310
00C000FFFF80007FFFFFFFFE000001FFFFFFFFE000001FF80FFFFFFFFFFFFFC0
310
7FFFFFF0001FFFFFF8000FFFFFFFF8000FF8000FFFFFFFF8000FFF0003FFFFFF
310
FFFFFFFFFF800000F000FFFFFFC0000001FFFC001C001FE001C000FFFF80007F
310
FFFFFF80000003FFFFFFF80000001FF80FFFFFFFFFFFFFC07FFFFFF0001FFFFF
310
F8001FFFFFFFFC000FF8001FFFFFFFFC000FFF0003FFFFFFFFFFFFFFF0000001
310
F000FFFFF800000001FFF8001C001FE001C000FFFF80007FFFFFF800000003FF
310
FFFF800000003FF80FFFFFFFFFFFFFC07FFFFFF0001FFFFFF8001FFFFFFFFC00
310
0FF8001FFFFFFFFC000FFF0003FFFFFFFFFFFFFE00000001F000FFFFC0000000
310
03FFF8001E001FC001E000FFFF80007FFFFF8000000007FFFFFC000000003FF8
310
0FFFFFFFFFFFFFC07FFFFFF0001FFFFFF8001FFFFFFFFC000FF8001FFFFFFFFC
310
000FFF0003FFFFFFFFFFFFE000000003F000FFFE0000000007FFF8001E000FC0
310
01E0007FFF80007FFFFE0000000007FFFFE0000000007FF80FFFFFFFFFFFFFC0
310
7FFFFFF0001FFFFFF0001FFFFFFFFC0007F0001FFFFFFFFC0007FF0003FFFFFF
310
FFFFFF0000000003F000FFF80000000007FFF8001E000FC003E0007FFF80007F
310
FFF0000000000FFFFF8000000000FFF80FFFFFFFFFFFFFC07FFFFFF0001FFFFF
310
F0001FFFFFFFFC0007F0001FFFFFFFFC0007FF0003FFFFFFFFFFFC0000000007
310
F000FFE0000000000FFFF0003E000FC003E0007FFF80007FFFC0000000001FFF
310
FE0000000001FFF80FFFFFFFFFFFFFC07FFFFFF0001FFFFFF0001FFFFFFFFC00
310
07F0001FFFFFFFFC0007FF0003FFFFFFFFFFF0000000000FF000FFC000000000
310
1FFFF0003F000F8003F0003FFF80007FFF80000000003FFFF80000000003FFF8
310
0FFFFFFFFFFFFFC07FFFFFF0001FFFFFF0001FFFFFFFFC0007F0001FFFFFFFFC
310
0007FF0003FFFFFFFFFFE0000000001FF000FF00000000007FFFF0003F000780
310
03F0003FFF80007FFF00000000007FFFF00000000007FFF80FFFFFFFFFFFFFC0
310
7FFFFFF0001FFFFFF0001FFFFFFFFC0007F0001FFFFFFFFC0007FF0003FFFFFF
310
FFFF80000000007FF000FE0000000000FFFFE0003F00078007F0003FFF80007F
310
FE0000000001FFFFE0000000001FFFF80FFFFFFFFFFFFFC07FFFFFF0001FFFFF
310
F0001FFFFFFFFC0007F0001FFFFFFFFC0007FF0003FFFFFFFFFF0000000000FF
310
F000FC0000000003FFFFE0007F00078007F0003FFF80007FFC0000000007FFFF
310
C0000000007FFFF80FFFFFFFFFFFFFC07FFFFFF0001FFFFFF8001FFFFFFFFC00
310
0FF8001FFFFFFFFC000FFF0003FFFFFFFFFE0000000003FFF000FC000000000F
310
FFFFE0007F80070007F8001FFF80007FF8000000001FFFFF8000000001FFFFF8
310
0FFFFFFFFFFFFFC07FFFFFF0001FFFFFF8001FFFFFFFFC000FF8001FFFFFFFFC
310
000FFF0003FFFFFFFFFC000000000FFFF000F8000000007FFFFFE0007F800700
310
07F8001FFF80007FF000000000FFFFFF800000000FFFFFF80FFFFFFFFFFFFFC0
310
7FFFFFF0001FFFFFF8000FFFFFFFF8000FF8000FFFFFFFF8000FFF0003FFFFFF
310
FFFC000000007FFFF000F800000007FFFFFFC0007F8003000FF8001FFF80007F
310
F000000007FFFFFF000000007FFFFFF80FFFFFFFFFFFFFC07FFFFFF0001FFFFF
310
F8000FFFFFFFF8000FF8000FFFFFFFF8000FFF0003FFFFFFFFF80000000FFFFF
310
F000F0000000FFFFFFFFC000FF8003000FF8001FFF80007FE0000000FFFFFFFF
310
0000000FFFFFFFF8000001FFFE0000007FFFFFF0001FFFFFF8000FFFFFFFF800
310
0FF8000FFFFFFFF8000FFF0003FFFFFFFFF8000000FFFFFFF000F000000FFFFF
310
FFFFC000FFC002000FF8000FFF80007FE000001FFFFFFFFE000001FFFFFFFFF8
310
000001FFFE0000007FFFFFF0001FFFFFF8000FFFFFFFF8000FF8000FFFFFFFF8
310
000FFF0003FFFFFFFFF000001FFFFFFFF000E00000FFFFFFFFFFC000FFC00200
310
0FFC000FFF80007FE00001FFFFFFFFFE00001FFFFFFFFFF8000001FFFE000000
310
7FFFFFF0001FFFFFFC000FFFFFFFF8001FFC000FFFFFFFF8001FFF0003FFFFFF
310
FFF00001FFFFFFFFF000E00007FFFFFFFFFF8000FFC000001FFC000FFF80007F
310
C0000FFFFFFFFFFE0000FFFFFFFFFFF8000001FFFE0000007FFFFFF0001FFFFF
310
FC0007FFFFFFF0001FFC0007FFFFFFF0001FFF0003FFFFFFFFF00007FFFFFFFF
310
F000E0001FFFFFFFFFFF8000FFC000001FFC000FFF80007FC0003FFFFFFFFFFE
310
0001FFFFFFFFFFF8000001FFFE0000007FFFFFF0001FFFFFFC0007FFFFFFF000
310
1FFC0007FFFFFFF0001FFF0003FFFFFFFFF0001FFFFFFFFFF000E0003FFFFF00
310
03FF8001FFE000001FFC0007FF80007FC0007FFFFF0007FC0003FFFFF0003FF8
310
000001FFFE0000007FFFFFF0001FFFFFFC0003FFFFFFE0001FFC0003FFFFFFE0
310
001FFF0003FFFFFFFFF0003FFFFFFFFFF000E0003FFFFF0001FF8001FFE00000
310
1FFE0007FF80007FC0007FFFFE0003FC0007FFFFE0003FF8000001FFFE000000
310
7FFFFFF0001FFFFFFE0003FFFFFFE0003FFE0003FFFFFFE0003FFF0003FFFFFF
310
FFF0003FFFFF8001F000E0003FFFFF0001FF0001FFE000001FFE0007FF80007F
310
C0007FFFFE0003FC0007FFFFE0003FF8000001FFFE0000007FFFFFF0001FFFFF
310
FE0001FFFFFFC0003FFE0001FFFFFFC0003FFF0003FFFFFFFFF0003FFFFF0001
310
F000E0003FFFFF0003FF0001FFE000003FFE0007FF80007FC0007FFFFE0003FC
310
0007FFFFE0003FF8000001FFFE0000007FFFFFF0001FFFFFFF0001FFFFFFC000
310
7FFF0001FFFFFFC0007FFF0003FFFFFFFFF0003FFFFF0001F000E0003FFFFE00
310
03FF0003FFF000003FFE0003FF80007FC0007FFFFC0003FE0007FFFFE0003FF8
310
000001FFFE0000007FFFFFF0001FFFFFFF0000FFFFFF80007FFF0000FFFFFF80
310
007FFF0003FFFFFFFFF0003FFFFF0001F000E0003FFFFE0003FF0003FFF00000
310
3FFF0003FF80007FC0007FFFFC0007FE0007FFFFC0003FF8000001FFFE000000
310
7FFFFFF0001FFFFFFF80007FFFFF0000FFFF80007FFFFF0000FFFF0003FFFFFF
310
FFF0003FFFFF0003F000E0003FFFFC0003FE0003FFF000003FFF0003FF80007F
310
E0003FFFF80007FE0003FFFFC0007FF8000001FFFE0000007FFFFFF0001FFFFF
310
FF80003FFFFE0000FFFF80003FFFFE0000FFFF0003FFFFFFFFF0001FFFFE0003
310
F000F0001FFFF80003FE0003FFF000007FFF0001FF80007FE0003FFFF00007FE
310
0001FFFF80007FF8000001FFFE0000007FFFFFF0001FFFFFFFC0000FFFF80001
310
FFFFC0000FFFF80001FFFF0003FFFFFFFFF0001FFFFC0003F000F0000FFFF000
310
07FE0007FFF800007FFF0001FF80007FE0001FFFE00007FF0000FFFE00007FF8
310
000001FFFE0000007FFFFFF0001FFFFFFFC00003FFE00001FFFFC00003FFE000
310
01FFFF0003FFFFFFFFF8000FFFF80003F000F00003FFC00007FC0007FFF80000
310
7FFF8001FF80007FF00007FF80000FFF00007FF80000FFF8000001FFFE000000
310
7F80000000000001FFE000003E000003FFFFE000003E000003FFFF0003FFFFFF
310
FFF80003FFE00007F000F800000000000FFC0007FFF800007FFF8001FF80007F
310
F000000000000FFF000000000000FFF8000001FFFE0000007F80000000000001
310
FFF0000000000007FFFFF0000000000007FFFF0003FFFFFFFFFC00007E000007
310
F000F800000000000FFC0007FFF80000FFFF8000FF80007FF800000000001FFF
310
800000000001FFF8000001FFFE0000007F80000000000001FFF800000000000F
310
FFFFF800000000000FFFFF0003FFFFFFFFFC00000000000FF000FC0000000000
310
1FFC0007FFFC0000FFFF8000FF80007FF800000000003FFFC00000000001FFF8
310
000001FFFE0000007F80000000000001FFF800000000000FFFFFF80000000000
310
0FFFFF0003FFFFFFFFFE00000000001FF000FE00000000003FF8000FFFFC0000
310
FFFF8000FF80007FFC00000000003FFFC00000000003FFF8000001FFFE000000
310
7F80000000000001FFFC00000000001FFFFFFC00000000001FFFFF0003FFFFFF
310
FFFF00000000001FF000FF00000000003FF8000FFFFC0000FFFFC000FF80007F
310
FE00000000007FFFE00000000007FFF8000001FFFE0000007F80000000000001
310
FFFE00000000003FFFFFFE00000000003FFFFF0003FFFFFFFFFF80000000003F
310
F000FF80000000007FF8000FFFFC0001FFFFC0007F80007FFF0000000000FFFF
310
F0000000000FFFF800000000000000007F80000000000001FFFF8000000000FF
310
FFFFFF8000000000FFFFFF0003FFFFFFFFFFC0000000007FF000FFC000000000
310
FFF8000FFFFE0001FFFFC0007F80007FFF8000000001FFFFF8000000001FFFF8
310
00000000000000007F80000000000001FFFFC000000001FFFFFFFFC000000001
310
FFFFFF0003FFFFFFFFFFE000000000FFF000FFE000000003FFF0001FFFFE0001
310
FFFFC0007F80007FFFC000000007FFFFFE000000003FFFF80000000000000000
310
7F80000000000001FFFFE000000003FFFFFFFFE000000003FFFFFF0003FFFFFF
310
FFFFF000000003FFF000FFF80000000FFFF0001FFFFE0001FFFFE0007F80007F
310
FFF00000000FFFFFFF00000000FFFFF800000000000000007F80000000000001
310
FFFFF80000000FFFFFFFFFF80000000FFFFFFF0003FFFFFFFFFFFC0000000FFF
310
F000FFFE0000003FFFF0001FFFFE0003FFFFE0003F80007FFFFC0000003FFFFF
310
FFC0000003FFFFF800000000000000007F80000000000001FFFFFE0000003FFF
310
FFFFFFFE0000003FFFFFFF0003FFFFFFFFFFFF0000003FFFF000FFFF800000FF
310
FFF0001FFFFF0003FFFFE0003F80007FFFFF000001FFFFFFFFF800001FFFFFF8
310
00000000000000007F80000000000001FFFFFFC00001FFFFFFFFFFFFC00001FF
310
FFFFFF0003FFFFFFFFFFFFC00000FFFFF000FFFFF8000FFFFFFFFFFFFFFFFFFF
310
FFFFFFFFFFFFFFFFFFFFF0001FFFFFFFFFFF0000FFFFFFF80000000000000000
310
7FFFFFFFFFFFFFFFFFFFFFFC001FFFFFFFFFFFFFFC001FFFFFFFFFFFFFFFFFFF
310
FFFFFFFC001FFFFFF000FFFFFFFFFFFFFFFFFFFFFFFFFFFFFFFFFFFFFFFFFFFF
310
FFFFFFFFFFFFFFFFFFFFFFFFFFFFFFFFFFFFFFFFFFFFFFFFFFFFFFFFFFFFFFFF
310
FFFFFFFFFFFFFFFFFFFFFFFFFFFFFFFFFFFFFFFFFFFFFFFFFFFFFFFFFFFFFFFF
310
F000FFFFFFFFFFFFFFFFFFFFFFFFFFFFFFFFFFFFFFFFFFFFFFFFFFFFFFFFFFFF
310
FFFFFFFFFFFFFFFFFFFFFFFFFFFFFFFFFFFFFFFFFFFFFFFFFFFFFFFFFFFFFFFF
310
FFFFFFFFFFFFFFFFFFFFFFFFFFFFFFFFFFFFFFFFFFFFFFFFF000FFFFFFFFFFFF
310
FFFFFFFFFFFFFFFFFFFFFFFFFFFFFFFFFFFFFFFFFFFFFFFFFFFFFFFFFFFFFFFF
310
FFFFFFFFFFFFFFFFFFFFFFFFFFFFFFFFFFFFFFFFFFFFFFFFFFFFFFFFFFFFFFFF
310
FFFFFFFFFFFFFFFFFFFFFFFFFFFFFFFFF000FFFFFFFFFFFFFFFFFFFFFFFFFFFF
310
FFFFFFFFFFFFFFFFFFFFFFFFFFFFFFFFFFFFFFFFFFFFFFFFFFFFFFFFFFFFFFFF
310
FFFFFFFFFFFFFFFFFFFFFFFFFFFFFFFFFFFFFFFFFFFFFFFFFFFFFFFFFFFFFFFF
310
FFFFFFFFFFFFFFFFF000FFFFFFFFFFFFFFFFFFFFFFFFFFFFFFFFFFFFFFFFFFFF
310
FFFFFFFFFFFFFFFFFFFFFFFFFFFFFFFFFFFFFFFFFFFFFFFFFFFFFFFFFFFFFFFF
310
FFFFFFFFFFFFFFFFFFFFFFFFFFFFFFFFFFFFFFFFFFFFFFFFFFFFFFFFFFFFFFFF
310
F000FFFFFFFFFFFFFFFFFFFFFFFFFFFFFFFFFFFFFFFFFFFFFFFFFFFFFFFFFFFF
310
FFFFFFFFFFFFFFFFFFFFFFFFFFFFFFFFFFFFFFFFFFFFFFFFFFFFFFFFFFFFFFFF
310
FFFFFFFFFFFFFFFFFFFFFFFFFFFFFFFFFFFFFFFFFFFFFFFFF000FFFFFFFFFFFF
310
FFFFFFFFFFFFFFFFFFFFFFFFFFFFFFFFFFFFFFFFFFFFFFFFFFFFFFFFFFFFFFFF
310
FFFFFFFFFFFFFFFFFFFFFFFFFFFFFFFFFFFFFFFFFFFFFFFFFFFFFFFFFFFFFFFF
310
FFFFFFFFFFFFFFFFFFFFFFFFFFFFFFFFF000FFFFFFFFFFFFFFFFFFFFFFFFFFFF
310
FFFFFFFFFFFFFFFFFFFFFFFFFFFFFFFFFFFFFFFFFFFFFFFFFFFFFFFFFFFFFFFF
310
FFFFFFFFFFFFFFFFFFFFFFFFFFFFFFFFFFFFFFFFFFFFFFFFFFFFFFFFFFFFFFFF
310
FFFFFFFFFFFFFFFFF000FFFFFFFFFFFFFFFFFFFFFFFFFFFFFFFFFFFFFFFFFFFF
310
FFFFFFFFFFFFFFFFFFFFFFFFFFFFFFFFFFFFFFFFFFFFFFFFFFFFFFFFFFFFFFFF
310
FFFFFFFFFFFFFFFFFFFFFFFFFFFFFFFFFFFFFFFFFFFFFFFFFFFFFFFFFFFFFFFF
310
F000FFFFFFFFFFFFFFFFFFFFFFFFFFFFFFFFFFFFFFFFFFFFFFFFFFFFFFFFFFFF
310
FFFFFFFFFFFFFFFFFFFFFFFFFFFFFFFFFFFFFFFFFFFFFFFFFFFFFFFFFFFFFFFF
310
FFFFFFFFFFFFFFFFFFFFFFFFFFFFFFFFFFFFFFFFFFFFFFFFF000FFFFFFFFFFFF
310
FFFFFFFFFFFFFFFFFFFFFFFFFFFFFFFFFFFFFFFFFFFFFFFFFFFFFFFFFFFFFFFF
310
FFFFFFFFFFFFFFFFFFFFFFFFFFFFFFFFFFFFFFFFFFFFFFFFFFFFFFFFFFFFFFFF
310
FFFFFFFFFFFFFFFFFFFFFFFFFFFFFFFFF000FFFFFFFFFFFFFFFFFFFFFFFFFFFF
310
FFFFFFFFFFFFFFFFFFFFFFFFFFFFFFFFFFFFFFFFFFFFFFFFFFFFFFFFFFFFFFFF
310
FFFFFFFFFFFFFFFFFFFFFFFFFFFFFFFFFFFFFFFFFFFFFFFFFFFFFFFFFFFFFFFF
310
FFFFFFFFFFFFFFFFF000FFFFFFFFFFFFFFFFFFFFFFFFFFFFFFFFFFFFFFFFFFFF
310
FFFFFFFFFFFFFFFFFFFFFFFFFFFFFFFFFFFFFFFFFFFFFFFFFFFFFFFFFFFFFFFF
310
FFFFFFFFFFFFFFFFFFFFFFFFFFFFFFFFFFFFFFFFFFFFFFFFFFFFFFFFFFFFFFFF
310
F000FFFFFFFFFFFFFFFFFFFFFFFFFFFFFFFFFFFFFFFFFFFFFFFFFFFFFFFFFFFF
310
FFFFFFFFFFFFFFFFFFFFFFFFFFFFFFFFFFFFFFFFFFFFFFFFFFFFFFFFFFFFFFFF
310
FFFFFFFFFFFFFFFFFFFFFFFFFFFFFFFFFFFFFFFFFFFFFFFFF000FFFFFFFFFFFF
310
FFFFFFFFFFFFFFFFFFFFFFFFFFFFFFFFFFFFFFFFFFFFFFFFFFFFFFFFFFFFFFFF
310
FFFFFFFFFFFFFFFFFFFFFFFFFFFFFFFFFFFFFFFFFFFFFFFFFFFFFFFFFFFFFFFF
310
FFFFFFFFFFFFFFFFFFFFFFFFFFFFFFFFF000FFFFFFFFFFFFFFFFFFFFFFFFFFFF
310
FFFFFFFFFFFFFFFFFFFFFFFFFFFFFFFFFFFFFFFFFFFFFFFFFFFFFFFFFFFFFFFF
310
FFFFFFFFFFFFFFFFFFFFFFFFFFFFFFFFFFFFFFFFFFFFFFFFFFFFFFFFFFFFFFFF
310
FFFFFFFFFFFFFFFFF000FFFFFFFFFFFFFFFFFFFFFFFFFFFFFFFFFFFFFFFFFFFF
310
FFFFFFFFFFFFFFFFFFFFFFFFFFFFFFFFFFFFFFFFFFFFFFFFFFFFFFFFFFFFFFFF
310
FFFFFFFFFFFFFFFFFFFFFFFFFFFFFFFFFFFFFFFFFFFFFFFFFFFFFFFFFFFFFFFF
310
F000FFFFFFFFFFFFFFFFFFFFFFFFFFFFFFFFFFFFFFFFFFFFFFFFFFFFFFFFFFFF
310
FFFFFFFFFFFFFFFFFFFFFFFFFFFFFFFFFFFFFFFFFFFFFFFFFFFFFFFFFFFFFFFF
310
FFFFFFFFFFFFFFFFFFFFFFFFFFFFFFFFFFFFFFFFFFFFFFFFF000FFFFFFFFFFFF
310
FFFFFFFFFFFFFFFFFFFFFFFFFFFFFFFFFFFFFFFFFFFFFFFFFFFFFFFFFFFFFFFF
310
FFFFFFFFFFFFFFFFFFFFFFFFFFFFFFFFFFFFFFFFFFFFFFFFFFFFFFFFFFFFFFFF
310
FFFFFFFFFFFFFFFFFFFFFFFFFFFFFFFFF000FFFFFFFFFFFFFFFFFFFFFFFFFFFF
310
FFFFFFFFFFFFFFFFFFFFFFFFFFFFFFFFFFFFFFFFFFFFFFFFFFFFFFFFFFFFFFFF
310
FFFFFFFFFFFFFFFFFFFFFFFFFFFFFFFFFFFFFFFFFFFFFFFFFFFFFFFFFFFFFFFF
310
FFFFFFFFFFFFFFFFF000FFFFFFFFFFFFFFFFFFFFFFFFFFFFFFFFFFFFFFFFFFFF
310
FFFFFFFFFFFFFFFFFFFFFFFFFFFFFFFFFFFFFFFFFFFFFFFFFFFFFFFFFFFFFFFF
310
FFFFFFFFFFFFFFFFFFFFFFFFFFFFFFFFFFFFFFFFFFFFFFFFFFFFFFFFFFFFFFFF
310
F000FFFFFFFFFFFFFFFFFFFFFFFFFFFFFFFFFFFFFFFFFFFFFFFFFFFFFFFFFFFF
310
FFFFFFFFFFFFFFFFFFFFFFFFFFFFFFFFFFFFFFFFFFFFFFFFFFFFFFFFFFFFFFFF
310
FFFFFFFFFFFFFFFFFFFFFFFFFFFFFFFFFFFFFFFFFFFFFFFFF000FFFFFFFFFFFF
310
FFFFFFFFFFFFFFFFFFFFFFFFFFFFFFFFFFFFFFFFFFFFFFFFFFFFFFFFFFFFFFFF
310
FFFFFFFFFFFFFFFFFFFFFFFFFFFFFFFFFFFFFFFFFFFFFFFFFFFFFFFFFFFFFFFF
310
FFFFFFFFFFFFFFFFFFFFFFFFFFFFFFFFF0000000000000000000000000000000
310
0000000000000000000000000000000000000000000000000000000000000000
310
0000000000000000000000000000000000000000000000000000000000000000
310
0000000000000000000000000000000000000000000000000000000000000000
310
0000000000000000000000000000000000000000000000000000000000000000
310
0000000000000000000000000000000000000000000000000000000000000000
310
0000000000000000000000000000000000000000000000000000000000000000
310
0000000000000000000000000000000000000000000000000000000000000000
310
0000000000000000000000000000000000000000000000000000000000000000
310
0000000000000000000000000000000000000000000000000000000000000000
310
0000000000000000000000000000000000000000000000000000000000000000
310
0000000000000000000000000000000000000000000000000000000000000000
310
0000000000000000000000000000000000000000000000000000000000000000
310
0000000000000000000000000000000000000000000000000000000000000000
310
0000000000000000000000000000000000000000000000000000000000000000
310
0000000000000000000000000000000000000000000000000000000000000000
  1
OLE
  0
ENDSEC
  0
SECTION
  2
OBJECTS
  0
DICTIONARY
  5
C
330
0
100
AcDbDictionary
281
     1
  3
ACAD_GROUP
350
D
  3
ACAD_LAYOUT
350
1A
  3
ACAD_MLINESTYLE
350
17
  3
ACAD_PLOTSETTINGS
350
19
  3
ACAD_PLOTSTYLENAME
350
E
  0
DICTIONARY
  5
D
102
{ACAD_REACTORS
330
C
102
}
330
C
100
AcDbDictionary
281
     1
  0
DICTIONARY
  5
1A
102
{ACAD_REACTORS
330
C
102
}
330
C
100
AcDbDictionary
281
     1
  3
Layout1
350
1E
  3
Layout2
350
26
  3
Model
350
22
  0
DICTIONARY
  5
17
102
{ACAD_REACTORS
330
C
102
}
330
C
100
AcDbDictionary
281
     1
  3
Standard
350
18
  0
DICTIONARY
  5
19
102
{ACAD_REACTORS
330
C
102
}
330
C
100
AcDbDictionary
281
     1
  0
ACDBDICTIONARYWDFLT
  5
E
102
{ACAD_REACTORS
330
C
102
}
330
C
100
AcDbDictionary
281
     1
  3
Normal
350
F
100
AcDbDictionaryWithDefault
340
F
  0
LAYOUT
  5
1E
102
{ACAD_REACTORS
330
1A
102
}
330
1A
100
AcDbPlotSettings
  1

  2
none_device
  4

  6

 40
0.0
 41
0.0
 42
0.0
 43
0.0
 44
0.0
 45
0.0
 46
0.0
 47
0.0
 48
0.0
 49
0.0
140
0.0
141
0.0
142
1.0
143
1.0
 70
   688
 72
     0
 73
     0
 74
     5
  7

 75
    16
147
1.0
148
0.0
149
0.0
100
AcDbLayout
  1
Layout1
 70
     1
 71
     1
 10
0.0
 20
0.0
 11
420.0
 21
297.0
 12
0.0
 22
0.0
 32
0.0
 14
1.0000000000E+20
 24
1.0000000000E+20
 34
1.0000000000E+20
 15
-1.0000000000E+20
 25
-1.0000000000E+20
 35
-1.0000000000E+20
146
0.0
 13
0.0
 23
0.0
 33
0.0
 16
1.0
 26
0.0
 36
0.0
 17
0.0
 27
1.0
 37
0.0
 76
     0
330
1B
  0
LAYOUT
  5
26
102
{ACAD_REACTORS
330
1A
102
}
330
1A
100
AcDbPlotSettings
  1

  2
none_device
  4

  6

 40
0.0
 41
0.0
 42
0.0
 43
0.0
 44
0.0
 45
0.0
 46
0.0
 47
0.0
 48
0.0
 49
0.0
140
0.0
141
0.0
142
1.0
143
1.0
 70
   688
 72
     0
 73
     0
 74
     5
  7

 75
    16
147
1.0
148
0.0
149
0.0
100
AcDbLayout
  1
Layout2
 70
     1
 71
     2
 10
0.0
 20
0.0
 11
0.0
 21
0.0
 12
0.0
 22
0.0
 32
0.0
 14
0.0
 24
0.0
 34
0.0
 15
0.0
 25
0.0
 35
0.0
146
0.0
 13
0.0
 23
0.0
 33
0.0
 16
1.0
 26
0.0
 36
0.0
 17
0.0
 27
1.0
 37
0.0
 76
     0
330
23
  0
LAYOUT
  5
22
102
{ACAD_REACTORS
330
1A
102
}
330
1A
100
AcDbPlotSettings
  1

  2
none_device
  4

  6

 40
0.0
 41
0.0
 42
0.0
 43
0.0
 44
0.0
 45
0.0
 46
0.0
 47
0.0
 48
0.0
 49
0.0
140
0.0
141
0.0
142
1.0
143
1.0
 70
  1712
 72
     0
 73
     0
 74
     0
  7

 75
     0
147
1.0
148
0.0
149
0.0
100
AcDbLayout
  1
Model
 70
     1
 71
     0
 10
0.0
 20
0.0
 11
297.0
 21
210.0
 12
0.0
 22
0.0
 32
0.0
 14
0.0
 24
0.0
 34
0.0
 15
297.0
 25
210.0
 35
0.0
146
0.0
 13
0.0
 23
0.0
 33
0.0
 16
1.0
 26
0.0
 36
0.0
 17
0.0
 27
1.0
 37
0.0
 76
     0
330
1F
331
29
  0
MLINESTYLE
  5
18
102
{ACAD_REACTORS
330
17
102
}
330
17
100
AcDbMlineStyle
  2
Standard
 70
     0
  3

 62
   256
 51
90.0
 52
90.0
 71
     2
 49
0.5
 62
   256
  6
BYLAYER
 49
-0.5
 62
   256
  6
BYLAYER
  0
ACDBPLACEHOLDER
  5
F
102
{ACAD_REACTORS
330
E
102
}
330
E
  0
ENDSEC
  0
EOF
