  0
SECTION
  2
HEADER
  9
$ACADVER
  1
AC1015
  9
$ACADMAINTVER
 70
     6
  9
$DWGCODEPAGE
  3
ANSI_1252
  9
$INSBASE
 10
0.0
 20
0.0
 30
0.0
  9
$EXTMIN
 10
0.0
 20
0.0
 30
0.0
  9
$EXTMAX
 10
297.0
 20
210.0
 30
0.0
  9
$LIMMIN
 10
0.0
 20
0.0
  9
$LIMMAX
 10
297.0
 20
210.0
  9
$ORTHOMODE
 70
     0
  9
$REGENMODE
 70
     1
  9
$FILLMODE
 70
     1
  9
$QTEXTMODE
 70
     0
  9
$MIRRTEXT
 70
     1
  9
$LTSCALE
 40
1.0
  9
$ATTMODE
 70
     1
  9
$TEXTSIZE
 40
2.0
  9
$TRACEWID
 40
1.0
  9
$TEXTSTYLE
  7
Standard
  9
$CLAYER
  8
0
  9
$CELTYPE
  6
ByLayer
  9
$CECOLOR
 62
   256
  9
$CELTSCALE
 40
1.0
  9
$DISPSILH
 70
     0
  9
$DIMSCALE
 40
1.0
  9
$DIMASZ
 40
3.0
  9
$DIMEXO
 40
0.0
  9
$DIMDLI
 40
3.75
  9
$DIMRND
 40
0.0
  9
$DIMDLE
 40
0.0
  9
$DIMEXE
 40
1.0
  9
$DIMTP
 40
0.0
  9
$DIMTM
 40
0.0
  9
$DIMTXT
 40
2.0
  9
$DIMCEN
 40
2.5
  9
$DIMTSZ
 40
0.0
  9
$DIMTOL
 70
     0
  9
$DIMLIM
 70
     0
  9
$DIMTIH
 70
     1
  9
$DIMTOH
 70
     1
  9
$DIMSE1
 70
     0
  9
$DIMSE2
 70
     0
  9
$DIMTAD
 70
     1
  9
$DIMZIN
 70
     0
  9
$DIMBLK
  1

  9
$DIMASO
 70
     1
  9
$DIMSHO
 70
     1
  9
$DIMPOST
  1

  9
$DIMAPOST
  1

  9
$DIMALT
 70
     0
  9
$DIMALTD
 70
     3
  9
$DIMALTF
 40
0.0393700787
  9
$DIMLFAC
 40
1.0
  9
$DIMTOFL
 70
     1
  9
$DIMTVP
 40
0.0
  9
$DIMTIX
 70
     0
  9
$DIMSOXD
 70
     0
  9
$DIMSAH
 70
     0
  9
$DIMBLK1
  1

  9
$DIMBLK2
  1

  9
$DIMSTYLE
  2
ISO-25
  9
$DIMCLRD
 70
     0
  9
$DIMCLRE
 70
     0
  9
$DIMCLRT
 70
     0
  9
$DIMTFAC
 40
1.0
  9
$DIMGAP
 40
1.524
  9
$DIMJUST
 70
     0
  9
$DIMSD1
 70
     0
  9
$DIMSD2
 70
     0
  9
$DIMTOLJ
 70
     0
  9
$DIMTZIN
 70
     0
  9
$DIMALTZ
 70
     0
  9
$DIMALTTZ
 70
     0
  9
$DIMUPT
 70
     0
  9
$DIMDEC
 70
     2
  9
$DIMTDEC
 70
     3
  9
$DIMALTU
 70
     2
  9
$DIMALTTD
 70
     3
  9
$DIMTXSTY
  7
Standard
  9
$DIMAUNIT
 70
     0
  9
$DIMADEC
 70
     2
  9
$DIMALTRND
 40
0.0
  9
$DIMAZIN
 70
     0
  9
$DIMDSEP
 70
    44
  9
$DIMATFIT
 70
     3
  9
$DIMFRAC
 70
     0
  9
$DIMLDRBLK
  1

  9
$DIMLUNIT
 70
     2
  9
$DIMLWD
 70
    -2
  9
$DIMLWE
 70
    -2
  9
$DIMTMOVE
 70
     0
  9
$LUNITS
 70
     2
  9
$LUPREC
 70
     2
  9
$SKETCHINC
 40
1.0
  9
$FILLETRAD
 40
10.0
  9
$AUNITS
 70
     0
  9
$AUPREC
 70
     2
  9
$MENU
  1
.
  9
$ELEVATION
 40
0.0
  9
$PELEVATION
 40
0.0
  9
$THICKNESS
 40
0.0
  9
$LIMCHECK
 70
     0
  9
$CHAMFERA
 40
10.0
  9
$CHAMFERB
 40
10.0
  9
$CHAMFERC
 40
20.0
  9
$CHAMFERD
 40
0.0
  9
$SKPOLY
 70
     0
  9
$TDCREATE
 40
2455624.346661019
  9
$TDUCREATE
 40
2455624.304994352
  9
$TDUPDATE
 40
2455624.34666103
  9
$TDUUPDATE
 40
2455624.304994363
  9
$TDINDWG
 40
0.0000000116
  9
$TDUSRTIMER
 40
0.0000000116
  9
$USRTIMER
 70
     1
  9
$ANGBASE
 50
0.0
  9
$ANGDIR
 70
     0
  9
$PDMODE
 70
     0
  9
$PDSIZE
 40
-1.0
  9
$PLINEWID
 40
0.0
  9
$SPLFRAME
 70
     0
  9
$SPLINETYPE
 70
     6
  9
$SPLINESEGS
 70
     8
  9
$HANDSEED
  5
2B6
  9
$SURFTAB1
 70
     6
  9
$SURFTAB2
 70
     6
  9
$SURFTYPE
 70
     6
  9
$SURFU
 70
     6
  9
$SURFV
 70
     6
  9
$UCSBASE
  2

  9
$UCSNAME
  2

  9
$UCSORG
 10
0.0
 20
0.0
 30
0.0
  9
$UCSXDIR
 10
1.0
 20
0.0
 30
0.0
  9
$UCSYDIR
 10
0.0
 20
1.0
 30
0.0
  9
$UCSORTHOREF
  2

  9
$UCSORTHOVIEW
 70
     0
  9
$UCSORGTOP
 10
0.0
 20
0.0
 30
0.0
  9
$UCSORGBOTTOM
 10
0.0
 20
0.0
 30
0.0
  9
$UCSORGLEFT
 10
0.0
 20
0.0
 30
0.0
  9
$UCSORGRIGHT
 10
0.0
 20
0.0
 30
0.0
  9
$UCSORGFRONT
 10
0.0
 20
0.0
 30
0.0
  9
$UCSORGBACK
 10
0.0
 20
0.0
 30
0.0
  9
$PUCSBASE
  2

  9
$PUCSNAME
  2

  9
$PUCSORG
 10
0.0
 20
0.0
 30
0.0
  9
$PUCSXDIR
 10
1.0
 20
0.0
 30
0.0
  9
$PUCSYDIR
 10
0.0
 20
1.0
 30
0.0
  9
$PUCSORTHOREF
  2

  9
$PUCSORTHOVIEW
 70
     0
  9
$PUCSORGTOP
 10
0.0
 20
0.0
 30
0.0
  9
$PUCSORGBOTTOM
 10
0.0
 20
0.0
 30
0.0
  9
$PUCSORGLEFT
 10
0.0
 20
0.0
 30
0.0
  9
$PUCSORGRIGHT
 10
0.0
 20
0.0
 30
0.0
  9
$PUCSORGFRONT
 10
0.0
 20
0.0
 30
0.0
  9
$PUCSORGBACK
 10
0.0
 20
0.0
 30
0.0
  9
$USERI1
 70
     0
  9
$USERI2
 70
     0
  9
$USERI3
 70
     0
  9
$USERI4
 70
     0
  9
$USERI5
 70
     0
  9
$USERR1
 40
0.0
  9
$USERR2
 40
0.0
  9
$USERR3
 40
0.0
  9
$USERR4
 40
0.0
  9
$USERR5
 40
0.0
  9
$WORLDVIEW
 70
     1
  9
$SHADEDGE
 70
     3
  9
$SHADEDIF
 70
    70
  9
$TILEMODE
 70
     1
  9
$MAXACTVP
 70
    64
  9
$PINSBASE
 10
0.0
 20
0.0
 30
0.0
  9
$PLIMCHECK
 70
     0
  9
$PEXTMIN
 10
1.0000000000E+20
 20
1.0000000000E+20
 30
1.0000000000E+20
  9
$PEXTMAX
 10
-1.0000000000E+20
 20
-1.0000000000E+20
 30
-1.0000000000E+20
  9
$PLIMMIN
 10
0.0
 20
0.0
  9
$PLIMMAX
 10
420.0
 20
297.0
  9
$UNITMODE
 70
     0
  9
$VISRETAIN
 70
     1
  9
$PLINEGEN
 70
     0
  9
$PSLTSCALE
 70
     1
  9
$TREEDEPTH
 70
  3020
  9
$CMLSTYLE
  2
Standard
  9
$CMLJUST
 70
     0
  9
$CMLSCALE
 40
20.0
  9
$PROXYGRAPHICS
 70
     1
  9
$MEASUREMENT
 70
     1
  9
$CELWEIGHT
370
    -1
  9
$ENDCAPS
280
     0
  9
$JOINSTYLE
280
     0
  9
$LWDISPLAY
290
     1
  9
$INSUNITS
 70
     4
  9
$HYPERLINKBASE
  1

  9
$STYLESHEET
  1

  9
$XEDIT
290
     1
  9
$CEPSNTYPE
380
     0
  9
$PSTYLEMODE
290
     1
  9
$FINGERPRINTGUID
  2
{5ACF9347-B0BF-481C-B2C0-867739FD79E2}
  9
$VERSIONGUID
  2
{FAEB1C32-E019-11D5-929B-00C0DF256EC4}
  9
$EXTNAMES
290
     1
  9
$PSVPSCALE
 40
0.0
  9
$OLESTARTUP
290
     0
  0
ENDSEC
  0
SECTION
  2
CLASSES
  0
CLASS
  1
ACDBDICTIONARYWDFLT
  2
AcDbDictionaryWithDefault
  3
ObjectDBX Classes
 90
        0
280
     0
281
     0
  0
CLASS
  1
VISUALSTYLE
  2
AcDbVisualStyle
  3
ObjectDBX Classes
 90
     4095
280
     0
281
     0
  0
CLASS
  1
DICTIONARYVAR
  2
AcDbDictionaryVar
  3
ObjectDBX Classes
 90
        0
280
     0
281
     0
  0
CLASS
  1
ACDBPLACEHOLDER
  2
AcDbPlaceHolder
  3
ObjectDBX Classes
 90
        0
280
     0
281
     0
  0
CLASS
  1
LAYOUT
  2
AcDbLayout
  3
ObjectDBX Classes
 90
        0
280
     0
281
     0
  0
ENDSEC
  0
SECTION
  2
TABLES
  0
TABLE
  2
VPORT
  5
8
330
0
100
AcDbSymbolTable
 70
     1
  0
VPORT
  5
29
330
8
100
AcDbSymbolTableRecord
100
AcDbViewportTableRecord
  2
*Active
 70
     0
 10
0.0
 20
0.0
 11
1.0
 21
1.0
 12
148.5
 22
105.0
 13
0.0
 23
0.0
 14
10.0
 24
10.0
 15
10.0
 25
10.0
 16
0.0
 26
0.0
 36
1.0
 17
0.0
 27
0.0
 37
0.0
 40
210.0
 41
1.4142857143
 42
50.0
 43
0.0
 44
0.0
 50
0.0
 51
0.0
 71
     0
 72
  2000
 73
     1
 74
     3
 75
     0
 76
     0
 77
     0
 78
     0
281
     0
 65
     1
110
0.0
120
0.0
130
0.0
111
1.0
121
0.0
131
0.0
112
0.0
122
1.0
132
0.0
 79
     0
146
0.0
  0
ENDTAB
  0
TABLE
  2
LTYPE
  5
5
330
0
100
AcDbSymbolTable
 70
     6
  0
LTYPE
  5
14
330
5
100
AcDbSymbolTableRecord
100
AcDbLinetypeTableRecord
  2
ByBlock
 70
     0
  3

 72
    65
 73
     0
 40
0.0
  0
LTYPE
  5
15
330
5
100
AcDbSymbolTableRecord
100
AcDbLinetypeTableRecord
  2
ByLayer
 70
     0
  3

 72
    65
 73
     0
 40
0.0
  0
LTYPE
  5
16
330
5
100
AcDbSymbolTableRecord
100
AcDbLinetypeTableRecord
  2
Continuous
 70
     0
  3
Solid line
 72
    65
 73
     0
 40
0.0
  0
LTYPE
  5
3B
330
5
100
AcDbSymbolTableRecord
100
AcDbLinetypeTableRecord
  2
HIDDEN
 70
     0
  3
Hidden __ __ __ __ __ __ __ __ __ __ __ __ __ __
 72
    65
 73
     2
 40
1.905
 49
1.27
 74
     0
 49
-0.635
 74
     0
  0
LTYPE
  5
3C
330
5
100
AcDbSymbolTableRecord
100
AcDbLinetypeTableRecord
  2
PHANTOM
 70
     0
  3
Phantom ______  __  __  ______  __  __  ______
 72
    65
 73
     6
 40
12.7
 49
6.35
 74
     0
 49
-1.27
 74
     0
 49
1.27
 74
     0
 49
-1.27
 74
     0
 49
1.27
 74
     0
 49
-1.27
 74
     0
  0
LTYPE
  5
3D
330
5
100
AcDbSymbolTableRecord
100
AcDbLinetypeTableRecord
  2
CENTER
 70
     0
  3
Center ____ _ ____ _ ____ _ ____ _ ____ _ ____
 72
    65
 73
     4
 40
10.16
 49
6.35
 74
     0
 49
-1.27
 74
     0
 49
1.27
 74
     0
 49
-1.27
 74
     0
  0
LTYPE
  5
3E
330
5
100
AcDbSymbolTableRecord
100
AcDbLinetypeTableRecord
  2
CENTERX2
 70
     0
  3
Center (2x) ________  __  ________  __  _____
 72
    65
 73
     4
 40
20.32
 49
12.7
 74
     0
 49
-2.54
 74
     0
 49
2.54
 74
     0
 49
-2.54
 74
     0
  0
LTYPE
  5
3F
330
5
100
AcDbSymbolTableRecord
100
AcDbLinetypeTableRecord
  2
DOT2
 70
     0
  3
Dot (.5x) ........................................
 72
    65
 73
     2
 40
0.635
 49
0.0
 74
     0
 49
-0.635
 74
     0
  0
ENDTAB
  0
TABLE
  2
LAYER
  5
2
330
0
100
AcDbSymbolTable
 70
     5
  0
LAYER
  5
10
330
2
100
AcDbSymbolTableRecord
100
AcDbLayerTableRecord
  2
0
 70
     0
 62
     7
  6
Continuous
370
    -3
390
F
  0
LAYER
  5
40
330
2
100
AcDbSymbolTableRecord
100
AcDbLayerTableRecord
  2
FORMAT
 70
     0
 62
     7
  6
Continuous
370
    -3
390
F
  0
LAYER
  5
41
330
2
100
AcDbSymbolTableRecord
100
AcDbLayerTableRecord
  2
VERMASSUNG
 70
     0
 62
     7
  6
Continuous
370
    -3
390
F
  0
LAYER
  5
42
330
2
100
AcDbSymbolTableRecord
100
AcDbLayerTableRecord
  2
KOPF_DÜNN
 70
     0
 62
     7
  6
Continuous
370
    -3
390
F
  0
LAYER
  5
43
330
2
100
AcDbSymbolTableRecord
100
AcDbLayerTableRecord
  2
KOPF_DICK
 70
     0
 62
     7
  6
Continuous
370
    15
390
F
  0
ENDTAB
  0
TABLE
  2
STYLE
  5
3
330
0
100
AcDbSymbolTable
 70
     3
  0
STYLE
  5
11
330
3
100
AcDbSymbolTableRecord
100
AcDbTextStyleTableRecord
  2
Standard
 70
     0
 40
0.0
 41
1.0
 50
0.0
 71
     0
 42
2.5
  3
txt
  4

  0
STYLE
  5
44
330
3
100
AcDbSymbolTableRecord
100
AcDbTextStyleTableRecord
  2
SLDTEXTSTYLE0
 70
     0
 40
0.0
 41
0.7
 50
0.0
 71
     0
 42
0.2
  3
TXT
  4

  0
STYLE
  5
48
330
3
100
AcDbSymbolTableRecord
100
AcDbTextStyleTableRecord
  2
SLDTEXTSTYLE1
 70
     0
 40
0.0
 41
0.6526315789
 50
0.0
 71
     0
 42
0.2
  3
TXT
  4

  0
ENDTAB
  0
TABLE
  2
VIEW
  5
6
330
0
100
AcDbSymbolTable
 70
     0
  0
ENDTAB
  0
TABLE
  2
UCS
  5
7
330
0
100
AcDbSymbolTable
 70
     0
  0
ENDTAB
  0
TABLE
  2
APPID
  5
9
330
0
100
AcDbSymbolTable
 70
     1
  0
APPID
  5
12
330
9
100
AcDbSymbolTableRecord
100
AcDbRegAppTableRecord
  2
ACAD
 70
     0
  0
ENDTAB
  0
TABLE
  2
DIMSTYLE
  5
A
330
0
100
AcDbSymbolTable
 70
     4
100
AcDbDimStyleTable
  0
DIMSTYLE
105
27
330
A
100
AcDbSymbolTableRecord
100
AcDbDimStyleTableRecord
  2
ISO-25
 70
     0
 41
2.5
 42
0.625
 43
3.75
 44
1.25
 73
     0
 74
     0
 77
     1
 78
     8
140
2.5
141
2.5
143
0.0393700787
147
0.625
171
     3
172
     1
271
     2
272
     2
274
     3
278
    44
283
     0
284
     8
340
11
  0
DIMSTYLE
105
232
102
{ACAD_REACTORS
330
231
330
23C
330
246
330
25B
102
}
330
A
100
AcDbSymbolTableRecord
100
AcDbDimStyleTableRecord
  2
SLDDIMSTYLE0
 70
     0
 41
3.0
 44
0.0
 45
0.000000001
 73
     0
 74
     0
 77
     1
 78
    12
140
2.0
147
0.5
173
     1
271
     2
272
     3
284
    12
340
44
  0
DIMSTYLE
105
251
102
{ACAD_REACTORS
330
250
102
}
330
A
100
AcDbSymbolTableRecord
100
AcDbDimStyleTableRecord
  2
SLDDIMSTYLE1
 70
     0
 41
3.0
 44
0.0
 73
     0
 74
     0
 77
     1
 78
    12
140
2.0
147
0.5
173
     1
179
     1
272
     3
284
    12
340
44
  0
DIMSTYLE
105
299
102
{ACAD_REACTORS
330
298
102
}
330
A
100
AcDbSymbolTableRecord
100
AcDbDimStyleTableRecord
  2
SLDDIMSTYLE2
 70
     0
 41
3.0
 44
0.0
 45
0.000000001
 73
     0
 74
     0
 77
     1
 78
    12
140
2.0
147
0.5
173
     1
271
     2
272
     3
284
    12
340
44
  0
ENDTAB
  0
TABLE
  2
BLOCK_RECORD
  5
1
330
0
100
AcDbSymbolTable
 70
     8
  0
BLOCK_RECORD
  5
1F
330
1
100
AcDbSymbolTableRecord
100
AcDbBlockTableRecord
  2
*Model_Space
340
22
  0
BLOCK_RECORD
  5
1B
330
1
100
AcDbSymbolTableRecord
100
AcDbBlockTableRecord
  2
*Paper_Space
340
1E
  0
BLOCK_RECORD
  5
23
330
1
100
AcDbSymbolTableRecord
100
AcDbBlockTableRecord
  2
*Paper_Space0
340
26
  0
BLOCK_RECORD
  5
233
330
1
100
AcDbSymbolTableRecord
100
AcDbBlockTableRecord
  2
*D1
340
0
  0
BLOCK_RECORD
  5
23D
330
1
100
AcDbSymbolTableRecord
100
AcDbBlockTableRecord
  2
*D2
340
0
  0
BLOCK_RECORD
  5
247
330
1
100
AcDbSymbolTableRecord
100
AcDbBlockTableRecord
  2
*D3
340
0
  0
BLOCK_RECORD
  5
252
330
1
100
AcDbSymbolTableRecord
100
AcDbBlockTableRecord
  2
*D4
340
0
  0
BLOCK_RECORD
  5
25C
330
1
100
AcDbSymbolTableRecord
100
AcDbBlockTableRecord
  2
*D5
340
0
  0
BLOCK_RECORD
  5
29A
330
1
100
AcDbSymbolTableRecord
100
AcDbBlockTableRecord
  2
*D6
340
0
  0
BLOCK_RECORD
  5
2A4
330
1
100
AcDbSymbolTableRecord
100
AcDbBlockTableRecord
  2
SW_CENTERMARKSYMBOL_0
340
0
102
{BLKREFS
331
2AF
102
}
  0
ENDTAB
  0
ENDSEC
  0
SECTION
  2
BLOCKS
  0
BLOCK
  5
20
330
1F
100
AcDbEntity
  8
0
100
AcDbBlockBegin
  2
*Model_Space
 70
     0
 10
0.0
 20
0.0
 30
0.0
  3
*Model_Space
  1

  0
ENDBLK
  5
21
330
1F
100
AcDbEntity
  8
0
100
AcDbBlockEnd
  0
BLOCK
  5
1C
330
1B
100
AcDbEntity
 67
     1
  8
0
100
AcDbBlockBegin
  2
*Paper_Space
 70
     0
 10
0.0
 20
0.0
 30
0.0
  3
*Paper_Space
  1

  0
ENDBLK
  5
1D
330
1B
100
AcDbEntity
 67
     1
  8
0
100
AcDbBlockEnd
  0
BLOCK
  5
24
330
23
100
AcDbEntity
  8
0
100
AcDbBlockBegin
  2
*Paper_Space0
 70
     0
 10
0.0
 20
0.0
 30
0.0
  3
*Paper_Space0
  1

  0
ENDBLK
  5
25
330
23
100
AcDbEntity
  8
0
100
AcDbBlockEnd
  0
BLOCK
  5
234
330
233
100
AcDbEntity
  8
0
100
AcDbBlockBegin
  2
*D1
 70
     1
 10
0.0
 20
0.0
 30
0.0
  3
*D1
  1

  0
SOLID
  5
236
330
233
100
AcDbEntity
  8
VERMASSUNG
100
AcDbTrace
 10
280.3562461908
 20
90.3539284221
 30
0.0
 11
280.8062461908
 21
93.3539284221
 31
0.0
 12
279.9062461908
 22
93.3539284221
 32
0.0
 13
279.9062461908
 23
93.3539284221
 33
0.0
  0
SOLID
  5
237
330
233
100
AcDbEntity
  8
VERMASSUNG
100
AcDbTrace
 10
280.3562461908
 20
112.3539284221
 30
0.0
 11
279.9062461908
 21
109.3539284221
 31
0.0
 12
280.8062461908
 22
109.3539284221
 32
0.0
 13
280.8062461908
 23
109.3539284221
 33
0.0
  0
LINE
  5
238
330
233
100
AcDbEntity
  8
VERMASSUNG
100
AcDbLine
 10
274.5090006661
 20
90.3539284221
 30
0.0
 11
281.3562461908
 21
90.3539284221
 31
0.0
  0
LINE
  5
239
330
233
100
AcDbEntity
  8
VERMASSUNG
100
AcDbLine
 10
274.1139524336
 20
112.3539284221
 30
0.0
 11
281.3562461908
 21
112.3539284221
 31
0.0
  0
LINE
  5
23A
330
233
100
AcDbEntity
  8
VERMASSUNG
100
AcDbLine
 10
280.3562461908
 20
90.3539284221
 30
0.0
 11
280.3562461908
 21
112.3539284221
 31
0.0
  0
MTEXT
  5
23B
330
233
100
AcDbEntity
  8
VERMASSUNG
100
AcDbMText
 10
277.7781108276
 20
99.9540524543
 30
0.0
 40
2.0
 41
0.0
 71
     1
 72
     1
  1
22
  7
SLDTEXTSTYLE0
 11
6.123233995736766E-17
 21
1.0
 31
0.0
 73
     1
 44
1.0
  0
ENDBLK
  5
235
330
233
100
AcDbEntity
  8
0
100
AcDbBlockEnd
  0
BLOCK
  5
23E
330
23D
100
AcDbEntity
  8
0
100
AcDbBlockBegin
  2
*D2
 70
     1
 10
0.0
 20
0.0
 30
0.0
  3
*D2
  1

  0
SOLID
  5
240
330
23D
100
AcDbEntity
  8
VERMASSUNG
100
AcDbTrace
 10
274.5090006661
 20
150.5816199083
 30
0.0
 11
271.5090006661
 21
151.0316199083
 31
0.0
 12
271.5090006661
 22
150.1316199083
 32
0.0
 13
271.5090006661
 23
150.1316199083
 33
0.0
  0
SOLID
  5
241
330
23D
100
AcDbEntity
  8
VERMASSUNG
100
AcDbTrace
 10
149.5090006661
 20
150.5816199083
 30
0.0
 11
152.5090006661
 21
150.1316199083
 31
0.0
 12
152.5090006661
 22
151.0316199083
 32
0.0
 13
152.5090006661
 23
151.0316199083
 33
0.0
  0
LINE
  5
242
330
23D
100
AcDbEntity
  8
VERMASSUNG
100
AcDbLine
 10
274.5090006661
 20
112.3539284221
 30
0.0
 11
274.5090006661
 21
151.5816199083
 31
0.0
  0
LINE
  5
243
330
23D
100
AcDbEntity
  8
VERMASSUNG
100
AcDbLine
 10
149.5090006661
 20
143.5539284221
 30
0.0
 11
149.5090006661
 21
151.5816199083
 31
0.0
  0
LINE
  5
244
330
23D
100
AcDbEntity
  8
VERMASSUNG
100
AcDbLine
 10
274.5090006661
 20
150.5816199083
 30
0.0
 11
149.5090006661
 21
150.5816199083
 31
0.0
  0
MTEXT
  5
245
330
23D
100
AcDbEntity
  8
VERMASSUNG
100
AcDbMText
 10
210.1095180048
 20
153.1597552715
 30
0.0
 40
2.0
 41
0.0
 71
     1
 72
     1
  1
125
  7
SLDTEXTSTYLE0
 73
     1
 44
1.0
  0
ENDBLK
  5
23F
330
23D
100
AcDbEntity
  8
0
100
AcDbBlockEnd
  0
BLOCK
  5
248
330
247
100
AcDbEntity
  8
0
100
AcDbBlockBegin
  2
*D3
 70
     1
 10
0.0
 20
0.0
 30
0.0
  3
*D3
  1

  0
SOLID
  5
24A
330
247
100
AcDbEntity
  8
VERMASSUNG
100
AcDbTrace
 10
274.5090006661
 20
156.5816199083
 30
0.0
 11
271.5090006661
 21
157.0316199083
 31
0.0
 12
271.5090006661
 22
156.1316199083
 32
0.0
 13
271.5090006661
 23
156.1316199083
 33
0.0
  0
SOLID
  5
24B
330
247
100
AcDbEntity
  8
VERMASSUNG
100
AcDbTrace
 10
117.6090006661
 20
156.5816199083
 30
0.0
 11
120.6090006661
 21
156.1316199083
 31
0.0
 12
120.6090006661
 22
157.0316199083
 32
0.0
 13
120.6090006661
 23
157.0316199083
 33
0.0
  0
LINE
  5
24C
330
247
100
AcDbEntity
  8
VERMASSUNG
100
AcDbLine
 10
274.5090006661
 20
112.3539284221
 30
0.0
 11
274.5090006661
 21
157.5816199083
 31
0.0
  0
LINE
  5
24D
330
247
100
AcDbEntity
  8
VERMASSUNG
100
AcDbLine
 10
117.6090006661
 20
132.0446061686
 30
0.0
 11
117.6090006661
 21
157.5816199083
 31
0.0
  0
LINE
  5
24E
330
247
100
AcDbEntity
  8
VERMASSUNG
100
AcDbLine
 10
274.5090006661
 20
156.5816199083
 30
0.0
 11
117.6090006661
 21
156.5816199083
 31
0.0
  0
MTEXT
  5
24F
330
247
100
AcDbEntity
  8
VERMASSUNG
100
AcDbMText
 10
193.1590830854
 20
159.1597552715
 30
0.0
 40
2.0
 41
0.0
 71
     1
 72
     1
  1
156.9
  7
SLDTEXTSTYLE0
 73
     1
 44
1.0
  0
ENDBLK
  5
249
330
247
100
AcDbEntity
  8
0
100
AcDbBlockEnd
  0
BLOCK
  5
253
330
252
100
AcDbEntity
  8
0
100
AcDbBlockBegin
  2
*D4
 70
     1
 10
0.0
 20
0.0
 30
0.0
  3
*D4
  1

  0
ARC
  5
255
330
252
100
AcDbEntity
  8
VERMASSUNG
100
AcDbCircle
 10
274.5090006661
 20
89.9702357572
 30
0.0
 40
31.67108697225899
100
AcDbArc
 50
90.0
 51
107.4599642598
  0
SOLID
  5
256
330
252
100
AcDbEntity
  8
VERMASSUNG
100
AcDbTrace
 10
274.5090006661
 20
121.6413227294
 30
0.0
 11
271.4911032511
 21
121.9492110094
 31
0.0
 12
271.5335862826
 22
121.0502142397
 32
0.0
 13
271.5335862826
 23
121.0502142397
 33
0.0
  0
SOLID
  5
257
330
252
100
AcDbEntity
  8
VERMASSUNG
100
AcDbTrace
 10
265.0064295461
 20
120.1821356
 30
0.0
 11
268.0221129639
 21
120.5110026298
 31
0.0
 12
267.7929042962
 22
121.381326355
 32
0.0
 13
267.7929042962
 23
121.381326355
 33
0.0
  0
LINE
  5
258
330
252
100
AcDbEntity
  8
VERMASSUNG
100
AcDbLine
 10
274.5090006661
 20
112.3539284221
 30
0.0
 11
274.5090006661
 21
122.6413227294
 31
0.0
  0
LINE
  5
259
330
252
100
AcDbEntity
  8
VERMASSUNG
100
AcDbLine
 10
267.4686413182
 20
112.3539284221
 30
0.0
 11
264.7063902349
 21
121.1360624378
 31
0.0
  0
MTEXT
  5
25A
330
252
100
AcDbEntity
  8
VERMASSUNG
100
AcDbMText
 10
266.5434042729
 20
123.3977261742
 30
0.0
 40
2.0
 41
0.0
 71
     1
 72
     1
  1
17.5°
  7
SLDTEXTSTYLE0
 11
0.9884145986698871
 21
0.1517780653989438
 31
0.0
 73
     1
 44
1.0
  0
ENDBLK
  5
254
330
252
100
AcDbEntity
  8
0
100
AcDbBlockEnd
  0
BLOCK
  5
25D
330
25C
100
AcDbEntity
  8
0
100
AcDbBlockBegin
  2
*D5
 70
     1
 10
0.0
 20
0.0
 30
0.0
  3
*D5
  1

  0
SOLID
  5
25F
330
25C
100
AcDbEntity
  8
VERMASSUNG
100
AcDbTrace
 10
113.9473907181
 20
143.8539284221
 30
0.0
 11
113.4973907181
 21
140.8539284221
 31
0.0
 12
114.3973907181
 22
140.8539284221
 32
0.0
 13
114.3973907181
 23
140.8539284221
 33
0.0
  0
SOLID
  5
260
330
25C
100
AcDbEntity
  8
VERMASSUNG
100
AcDbTrace
 10
113.9473907181
 20
80.8539284221
 30
0.0
 11
114.3973907181
 21
83.8539284221
 31
0.0
 12
113.4973907181
 22
83.8539284221
 32
0.0
 13
113.4973907181
 23
83.8539284221
 33
0.0
  0
LINE
  5
261
330
25C
100
AcDbEntity
  8
VERMASSUNG
100
AcDbLine
 10
149.8090006661
 20
143.8539284221
 30
0.0
 11
112.9473907181
 21
143.8539284221
 31
0.0
  0
LINE
  5
262
330
25C
100
AcDbEntity
  8
VERMASSUNG
100
AcDbLine
 10
149.8090006661
 20
80.8539284221
 30
0.0
 11
112.9473907181
 21
80.8539284221
 31
0.0
  0
LINE
  5
263
330
25C
100
AcDbEntity
  8
VERMASSUNG
100
AcDbLine
 10
113.9473907181
 20
143.8539284221
 30
0.0
 11
113.9473907181
 21
80.8539284221
 31
0.0
  0
MTEXT
  5
264
330
25C
100
AcDbEntity
  8
VERMASSUNG
100
AcDbMText
 10
111.169255229
 20
106.1497660834
 30
0.0
 40
2.0
 41
0.0
 71
     1
 72
     1
  1
HSK 
  7
SLDTEXTSTYLE0
 11
-7.044195017643634E-15
 21
1.0
 31
0.0
 73
     1
 44
1.0
  0
MTEXT
  5
265
330
25C
100
AcDbEntity
  8
VERMASSUNG
100
AcDbMText
 10
111.3692552385
 20
112.1497661355
 30
0.0
 40
2.0
 41
0.0
 71
     1
 72
     1
  1
%%c
  7
SLDTEXTSTYLE0
 11
-7.044195017643634E-15
 21
1.0
 31
0.0
 73
     1
 44
1.0
  0
MTEXT
  5
266
330
25C
100
AcDbEntity
  8
VERMASSUNG
100
AcDbMText
 10
111.3692553549
 20
115.7583388253
 30
0.0
 40
2.0
 41
0.0
 71
     1
 72
     1
  1
63
  7
SLDTEXTSTYLE0
 11
-7.044195017643634E-15
 21
1.0
 31
0.0
 73
     1
 44
1.0
  0
ENDBLK
  5
25E
330
25C
100
AcDbEntity
  8
0
100
AcDbBlockEnd
  0
BLOCK
  5
29B
330
29A
100
AcDbEntity
  8
0
100
AcDbBlockBegin
  2
*D6
 70
     1
 10
0.0
 20
0.0
 30
0.0
  3
*D6
  1

  0
SOLID
  5
29D
330
29A
100
AcDbEntity
  8
VERMASSUNG
100
AcDbTrace
 10
23.5187231275
 20
90.3518317926
 30
0.0
 11
23.9687231275
 21
93.3518317926
 31
0.0
 12
23.0687231275
 22
93.3518317926
 32
0.0
 13
23.0687231275
 23
93.3518317926
 33
0.0
  0
SOLID
  5
29E
330
29A
100
AcDbEntity
  8
VERMASSUNG
100
AcDbTrace
 10
23.5187231275
 20
130.3518317926
 30
0.0
 11
23.0687231275
 21
127.3518317926
 31
0.0
 12
23.9687231275
 22
127.3518317926
 32
0.0
 13
23.9687231275
 23
127.3518317926
 33
0.0
  0
LINE
  5
29F
330
29A
100
AcDbEntity
  8
VERMASSUNG
100
AcDbLine
 10
59.8546920416
 20
90.3518317926
 30
0.0
 11
22.5187231275
 21
90.3518317926
 31
0.0
  0
LINE
  5
2A0
330
29A
100
AcDbEntity
  8
VERMASSUNG
100
AcDbLine
 10
59.8546920416
 20
130.3518317926
 30
0.0
 11
22.5187231275
 21
130.3518317926
 31
0.0
  0
LINE
  5
2A1
330
29A
100
AcDbEntity
  8
VERMASSUNG
100
AcDbLine
 10
23.5187231275
 20
90.3518317926
 30
0.0
 11
23.5187231275
 21
130.3518317926
 31
0.0
  0
MTEXT
  5
2A2
330
29A
100
AcDbEntity
  8
VERMASSUNG
100
AcDbMText
 10
20.940587648
 20
107.0488085668
 30
0.0
 40
2.0
 41
0.0
 71
     1
 72
     1
  1
%%c
  7
SLDTEXTSTYLE0
 11
6.123233995736766E-17
 21
1.0
 31
0.0
 73
     1
 44
1.0
  0
MTEXT
  5
2A3
330
29A
100
AcDbEntity
  8
VERMASSUNG
100
AcDbMText
 10
20.9405877644
 20
110.6572148572
 30
0.0
 40
2.0
 41
0.0
 71
     1
 72
     1
  1
40
  7
SLDTEXTSTYLE0
 11
6.123233995736766E-17
 21
1.0
 31
0.0
 73
     1
 44
1.0
  0
ENDBLK
  5
29C
330
29A
100
AcDbEntity
  8
0
100
AcDbBlockEnd
  0
BLOCK
  5
2A5
330
2A4
100
AcDbEntity
  8
0
100
AcDbBlockBegin
  2
SW_CENTERMARKSYMBOL_0
 70
     0
 10
0.0
 20
0.0
 30
0.0
  3
SW_CENTERMARKSYMBOL_0
  1

  0
LINE
  5
2A7
330
2A4
100
AcDbEntity
  8
VERMASSUNG
 62
     0
100
AcDbLine
 10
0.0
 20
0.0
 30
0.0
 11
0.0
 21
2.5
 31
0.0
  0
LINE
  5
2A8
330
2A4
100
AcDbEntity
  8
VERMASSUNG
 62
     0
100
AcDbLine
 10
0.0
 20
0.0
 30
0.0
 11
-2.5
 21
0.0
 31
0.0
  0
LINE
  5
2A9
330
2A4
100
AcDbEntity
  8
VERMASSUNG
 62
     0
100
AcDbLine
 10
0.0
 20
0.0
 30
0.0
 11
0.0
 21
-2.5
 31
0.0
  0
LINE
  5
2AA
330
2A4
100
AcDbEntity
  8
VERMASSUNG
 62
     0
100
AcDbLine
 10
0.0
 20
0.0
 30
0.0
 11
2.5
 21
0.0
 31
0.0
  0
LINE
  5
2AB
330
2A4
100
AcDbEntity
  8
VERMASSUNG
 62
     0
100
AcDbLine
 10
0.0
 20
5.0
 30
0.0
 11
0.0
 21
34.0
 31
0.0
  0
LINE
  5
2AC
330
2A4
100
AcDbEntity
  8
VERMASSUNG
 62
     0
100
AcDbLine
 10
-5.0
 20
0.0
 30
0.0
 11
-34.0
 21
0.0
 31
0.0
  0
LINE
  5
2AD
330
2A4
100
AcDbEntity
  8
VERMASSUNG
 62
     0
100
AcDbLine
 10
0.0
 20
-5.0
 30
0.0
 11
0.0
 21
-34.0
 31
0.0
  0
LINE
  5
2AE
330
2A4
100
AcDbEntity
  8
VERMASSUNG
 62
     0
100
AcDbLine
 10
5.0
 20
0.0
 30
0.0
 11
34.0
 21
0.0
 31
0.0
  0
ENDBLK
  5
2A6
330
2A4
100
AcDbEntity
  8
0
100
AcDbBlockEnd
  0
ENDSEC
  0
SECTION
  2
ENTITIES
  0
MTEXT
  5
45
330
1F
100
AcDbEntity
  8
KOPF_DÜNN
100
AcDbMText
 10
13.8892156294
 20
23.8442973028
 30
0.0
 40
3.0
 41
0.0
 71
     1
 72
     1
  1
HA6.BDB.LQB.125
  7
SLDTEXTSTYLE0
 73
     1
 44
1.0
  0
MTEXT
  5
46
330
1F
100
AcDbEntity
  8
VERMASSUNG
100
AcDbMText
 10
13.9329988022
 20
28.8834360957
 30
0.0
 40
3.0
 41
0.0
 71
     1
 72
     1
  1
Bohrstange_Boring bar
  7
SLDTEXTSTYLE0
 73
     1
 44
1.0
  0
MTEXT
  5
47
330
1F
100
AcDbEntity
  8
VERMASSUNG
100
AcDbMText
 10
98.8601118557
 20
13.8365368179
 30
0.0
 40
2.0
 41
0.0
 71
     1
 72
     1
  1
Datum: 03.03.2011
  7
SLDTEXTSTYLE0
 73
     1
 44
1.0
  0
MTEXT
  5
49
330
1F
100
AcDbEntity
  8
VERMASSUNG
100
AcDbMText
 10
13.933048693
 20
18.0482802738
 30
0.0
 40
2.0
 41
0.0
 71
     1
 72
     1
  1
DIN 69893 HSK 63 A ICTM / DC.. 11 T3..
  7
SLDTEXTSTYLE1
 73
     1
 44
1.0
  0
MTEXT
  5
4A
330
1F
100
AcDbEntity
  8
VERMASSUNG
100
AcDbMText
 10
13.9808475933
 20
13.9090973692
 30
0.0
 40
2.0
 41
0.0
 71
     1
 72
     1
  1
Gewicht: 1116g
  7
SLDTEXTSTYLE0
 73
     1
 44
1.0
  0
LINE
  5
4B
330
1F
100
AcDbEntity
  8
0
  6
Continuous
 62
     7
370
    15
100
AcDbLine
 10
266.5073288716
 20
98.6105413461
 30
0.0
 11
266.5073288716
 21
98.7046468243
 31
0.0
  0
LINE
  5
4C
330
1F
100
AcDbEntity
  8
0
  6
Continuous
 62
     7
370
    15
100
AcDbLine
 10
268.4114288454
 20
98.2762298521
 30
0.0
 11
268.4114288454
 21
98.1834797673
 31
0.0
  0
LINE
  5
4D
330
1F
100
AcDbEntity
  8
0
  6
Continuous
 62
     7
370
    15
100
AcDbLine
 10
266.259378222
 20
96.8398873444
 30
0.0
 11
266.259378222
 21
96.9326979198
 31
0.0
  0
LINE
  5
4E
330
1F
100
AcDbEntity
  8
0
  6
Continuous
 62
     7
370
    15
100
AcDbLine
 10
268.1634781959
 20
96.5042809476
 30
0.0
 11
268.1634781959
 21
96.4101915991
 31
0.0
  0
LINE
  5
4F
330
1F
100
AcDbEntity
  8
0
  6
Continuous
 62
     7
370
    15
100
AcDbLine
 10
269.9627194618
 20
97.5269544782
 30
0.0
 11
269.9627194618
 21
97.5774972195
 31
0.0
  0
LINE
  5
50
330
1F
100
AcDbEntity
  8
0
  6
Continuous
 62
     7
370
    15
100
AcDbLine
 10
264.7127194618
 20
97.5774972195
 30
0.0
 11
264.7127194618
 21
97.5269544782
 31
0.0
  0
LINE
  5
51
330
1F
100
AcDbEntity
  8
0
  6
Continuous
 62
     7
370
    15
100
AcDbLine
 10
149.8090006661
 20
80.8539284221
 30
0.0
 11
154.4590006661
 21
80.8539284221
 31
0.0
  0
LINE
  5
52
330
1F
100
AcDbEntity
  8
0
  6
Continuous
 62
     7
370
    15
100
AcDbLine
 10
154.4632048635
 20
143.8539284221
 30
0.0
 11
149.8090006661
 21
143.8539284221
 31
0.0
  0
ARC
  5
53
330
1F
100
AcDbEntity
  8
0
  6
Continuous
 62
     7
370
    15
100
AcDbCircle
 10
149.8090006661
 20
81.1539284221
 30
0.0
 40
0.3000000000000114
100
AcDbArc
 50
180.0
 51
270.0
  0
ARC
  5
54
330
1F
100
AcDbEntity
  8
0
  6
Continuous
 62
     7
370
    15
100
AcDbCircle
 10
149.8090006661
 20
143.5539284221
 30
0.0
 40
0.2999999999999829
100
AcDbArc
 50
90.0
 51
180.0
  0
ARC
  5
55
330
1F
100
AcDbEntity
  8
0
  6
Continuous
 62
     7
370
    15
100
AcDbCircle
 10
149.0090006661
 20
87.7834975604
 30
0.0
 40
0.5999999999999943
100
AcDbArc
 50
33.5573097619
 51
90.0
  0
ARC
  5
56
330
1F
100
AcDbEntity
  8
0
  6
Continuous
 62
     7
370
    15
100
AcDbCircle
 10
149.0090006661
 20
136.9243592838
 30
0.0
 40
0.5999999999999943
100
AcDbArc
 50
270.0
 51
326.4426902381
  0
LINE
  5
57
330
1F
100
AcDbEntity
  8
0
  6
Continuous
 62
     7
370
    15
100
AcDbLine
 10
147.5090006661
 20
88.1334975604
 30
0.0
 11
148.3657134395
 21
88.3630530561
 31
0.0
  0
LINE
  5
58
330
1F
100
AcDbEntity
  8
0
  6
Continuous
 62
     7
370
    15
100
AcDbLine
 10
148.3657134395
 20
136.344803788
 30
0.0
 11
147.5090006661
 21
136.5743592838
 31
0.0
  0
LINE
  5
59
330
1F
100
AcDbEntity
  8
0
  6
Continuous
 62
     7
370
    15
100
AcDbLine
 10
136.2785784836
 20
136.0117128819
 30
0.0
 11
123.7090006661
 21
135.3819745143
 31
0.0
  0
LINE
  5
5A
330
1F
100
AcDbEntity
  8
0
  6
Continuous
 62
     7
370
    15
100
AcDbLine
 10
147.5090006661
 20
136.5743592838
 30
0.0
 11
144.6903913086
 21
136.4331463901
 31
0.0
  0
LINE
  5
5B
330
1F
100
AcDbEntity
  8
0
  6
Continuous
 62
     7
370
    15
100
AcDbLine
 10
144.6906127837
 20
88.2746993581
 30
0.0
 11
147.5090006661
 21
88.1334975604
 31
0.0
  0
LINE
  5
5C
330
1F
100
AcDbEntity
  8
0
  6
Continuous
 62
     7
370
    15
100
AcDbLine
 10
127.7090006661
 20
89.1254815283
 30
0.0
 11
136.2792774353
 21
88.6961089447
 31
0.0
  0
ARC
  5
5D
330
1F
100
AcDbEntity
  8
0
  6
Continuous
 62
     7
370
    15
100
AcDbCircle
 10
148.5210048665
 20
87.7834975604
 30
0.0
 40
0.6000000000000085
100
AcDbArc
 50
90.0
 51
105.0
  0
ARC
  5
5E
330
1F
100
AcDbEntity
  8
0
  6
Continuous
 62
     7
370
    15
100
AcDbCircle
 10
148.5210048665
 20
136.9243592838
 30
0.0
 40
0.6000000000000227
100
AcDbArc
 50
255.0
 51
270.0
  0
LINE
  5
5F
330
1F
100
AcDbEntity
  8
0
  6
Continuous
 62
     7
370
    15
100
AcDbLine
 10
148.5210048665
 20
88.3834975604
 30
0.0
 11
149.0090006661
 21
88.3834975604
 31
0.0
  0
LINE
  5
60
330
1F
100
AcDbEntity
  8
0
  6
Continuous
 62
     7
370
    15
100
AcDbLine
 10
149.0090006661
 20
136.3243592838
 30
0.0
 11
148.5210048665
 21
136.3243592838
 31
0.0
  0
ARC
  5
61
330
1F
100
AcDbEntity
  8
0
  6
Continuous
 62
     7
370
    15
100
AcDbCircle
 10
178.4590006661
 20
93.3539284221
 30
0.0
 40
3.000000000000014
100
AcDbArc
 50
90.0
 51
180.0
  0
ARC
  5
62
330
1F
100
AcDbEntity
  8
0
  6
Continuous
 62
     7
370
    15
100
AcDbCircle
 10
178.4590006661
 20
131.3539284221
 30
0.0
 40
3.0
100
AcDbArc
 50
180.0
 51
270.0
  0
LINE
  5
63
330
1F
100
AcDbEntity
  8
0
  6
Continuous
 62
     7
370
    15
100
AcDbLine
 10
178.4590006661
 20
96.3539284221
 30
0.0
 11
245.6034602162
 21
96.3539284221
 31
0.0
  0
LINE
  5
64
330
1F
100
AcDbEntity
  8
0
  6
Continuous
 62
     7
370
    15
100
AcDbLine
 10
248.5090006661
 20
128.3539284221
 30
0.0
 11
178.4590006661
 21
128.3539284221
 31
0.0
  0
LINE
  5
65
330
1F
100
AcDbEntity
  8
0
  6
Continuous
 62
     7
370
    15
100
AcDbLine
 10
118.7590006661
 20
91.5414284221
 30
0.0
 11
126.3090006661
 21
91.5414284221
 31
0.0
  0
ARC
  5
66
330
1F
100
AcDbEntity
  8
0
  6
Continuous
 62
     7
370
    15
100
AcDbCircle
 10
126.3090006661
 20
90.1414284221
 30
0.0
 40
1.40000000000002
100
AcDbArc
 50
37.6438857999
 51
90.0
  0
LINE
  5
67
330
1F
100
AcDbEntity
  8
0
  6
Continuous
 62
     7
370
    15
100
AcDbLine
 10
118.7501641243
 20
133.2150918803
 30
0.0
 11
117.6189014395
 21
132.0838291955
 31
0.0
  0
LINE
  5
68
330
1F
100
AcDbEntity
  8
0
  6
Continuous
 62
     7
370
    15
100
AcDbLine
 10
117.6109495099
 20
92.6894795783
 30
0.0
 11
118.7590006661
 21
91.5414284221
 31
0.0
  0
ARC
  5
69
330
1F
100
AcDbEntity
  8
0
  6
Continuous
 62
     7
370
    15
100
AcDbCircle
 10
122.3090006661
 20
134.6239284221
 30
0.0
 40
1.400000000000006
100
AcDbArc
 50
270.0
 51
301.7485287426
  0
LINE
  5
6A
330
1F
100
AcDbEntity
  8
0
  6
Continuous
 62
     7
370
    15
100
AcDbLine
 10
122.3090006661
 20
133.2239284221
 30
0.0
 11
118.8998890675
 21
133.2239284221
 31
0.0
  0
LINE
  5
6B
330
1F
100
AcDbEntity
  8
0
  6
Continuous
 62
     7
370
    15
100
AcDbLine
 10
249.0090006661
 20
128.8539284221
 30
0.0
 11
248.5090006661
 21
128.3539284221
 31
0.0
  0
LINE
  5
6C
330
1F
100
AcDbEntity
  8
0
  6
Continuous
 62
     7
370
    15
100
AcDbLine
 10
261.9159809869
 20
128.8539284221
 30
0.0
 11
249.0090006661
 21
128.8539284221
 31
0.0
  0
CIRCLE
  5
6D
330
1F
100
AcDbEntity
  8
0
  6
Continuous
 62
     7
370
    15
100
AcDbCircle
 10
267.3355120293
 20
97.5313523441
 30
0.0
 40
2.622778036732504
  0
CIRCLE
  5
6E
330
1F
100
AcDbEntity
  8
0
  6
Continuous
 62
     7
370
    15
100
AcDbCircle
 10
267.3360706549
 20
97.5107509642
 30
0.0
 40
1.798452254628289
  0
ARC
  5
6F
330
1F
100
AcDbEntity
  8
0
  6
Continuous
 62
     7
370
    15
100
AcDbCircle
 10
267.3413887069
 20
97.5092564645
 30
0.0
 40
1.67149900902729
100
AcDbArc
 50
293.3149799654
 51
351.9503208343
  0
ARC
  5
70
330
1F
100
AcDbEntity
  8
0
  6
Continuous
 62
     7
370
    15
100
AcDbCircle
 10
267.3436390226
 20
97.5074893676
 30
0.0
 40
1.669024032652497
100
AcDbArc
 50
351.9995680764
 51
52.2046175961
  0
ARC
  5
71
330
1F
100
AcDbEntity
  8
0
  6
Continuous
 62
     7
370
    15
100
AcDbCircle
 10
267.3376813604
 20
97.5004428263
 30
0.0
 40
1.678243399579147
100
AcDbArc
 50
52.1913252363
 51
110.6635337804
  0
LINE
  5
72
330
1F
100
AcDbEntity
  8
0
  6
Continuous
 62
     7
370
    15
100
AcDbLine
 10
266.6667757246
 20
99.038752802
 30
0.0
 11
266.7454638304
 21
99.0707228349
 31
0.0
  0
ARC
  5
73
330
1F
100
AcDbEntity
  8
0
  6
Continuous
 62
     7
370
    15
100
AcDbCircle
 10
267.3341542245
 20
97.5061010859
 30
0.0
 40
1.671650485314637
100
AcDbArc
 50
113.5302556193
 51
170.0044536116
  0
LINE
  5
74
330
1F
100
AcDbEntity
  8
0
  6
Continuous
 62
     7
370
    15
100
AcDbLine
 10
265.6714241134
 20
97.6778680096
 30
0.0
 11
265.6878773078
 21
97.7962521818
 31
0.0
  0
ARC
  5
75
330
1F
100
AcDbEntity
  8
0
  6
Continuous
 62
     7
370
    15
100
AcDbCircle
 10
267.3317225353
 20
97.5080166294
 30
0.0
 40
1.668963852616402
100
AcDbArc
 50
174.1588638666
 51
230.0453218058
  0
LINE
  5
76
330
1F
100
AcDbEntity
  8
0
  6
Continuous
 62
     7
370
    15
100
AcDbLine
 10
266.3543554145
 20
96.1550865076
 30
0.0
 11
266.2599448981
 21
96.2286679523
 31
0.0
  0
ARC
  5
77
330
1F
100
AcDbEntity
  8
0
  6
Continuous
 62
     7
370
    15
100
AcDbCircle
 10
267.3377541629
 20
97.5151308007
 30
0.0
 40
1.678330592437872
100
AcDbArc
 50
234.1306715136
 51
290.4496812146
  0
LINE
  5
78
330
1F
100
AcDbEntity
  8
0
  6
Continuous
 62
     7
370
    15
100
AcDbLine
 10
268.0029439729
 20
95.9742471592
 30
0.0
 11
267.9241370829
 21
95.9425696258
 31
0.0
  0
SPLINE
  5
79
330
1F
100
AcDbEntity
  8
0
  6
Continuous
 62
     7
370
    15
100
AcDbSpline
210
0.0
220
0.0
230
1.0
 70
     8
 71
     3
 72
    11
 73
     7
 74
     0
 42
0.00000001
 43
0.00000001
 40
0.0
 40
0.0
 40
0.0
 40
0.0
 40
0.2431090893443141
 40
0.5182793655622999
 40
0.794779408575219
 40
1.0
 40
1.0
 40
1.0
 40
1.0
 10
266.6667757245917
 20
99.03875280200667
 30
0.0
 10
266.6394108502923
 20
99.02014224383545
 30
0.0
 10
266.5810722265541
 20
98.98046677013043
 30
0.0
 10
266.5213107510321
 20
98.88913618236303
 30
0.0
 10
266.4928826706204
 20
98.7901545397288
 30
0.0
 10
266.4981629682171
 20
98.7264029835114
 30
0.0
 10
266.500412458312
 20
98.6992438146158
 30
0.0
  0
SPLINE
  5
7A
330
1F
100
AcDbEntity
  8
0
  6
Continuous
 62
     7
370
    15
100
AcDbSpline
210
0.0
220
0.0
230
1.0
 70
     8
 71
     3
 72
    12
 73
     8
 74
     0
 42
0.00000001
 43
0.00000001
 40
0.0
 40
0.0
 40
0.0
 40
0.0
 40
0.205817956499897
 40
0.4120215045907481
 40
0.6140779969167917
 40
0.8132130006453573
 40
0.9999999999999999
 40
0.9999999999999999
 40
0.9999999999999999
 40
0.9999999999999999
 10
266.500412458312
 20
98.6992438146158
 30
0.0
 10
266.5041579434522
 20
98.63462610065027
 30
0.0
 10
266.5116559307472
 20
98.5052696140538
 30
0.0
 10
266.4399757984105
 20
98.31861991708887
 30
0.0
 10
266.315934799565
 20
98.16676073182532
 30
0.0
 10
266.1543361320569
 20
98.06181736632237
 30
0.0
 10
266.0336254832056
 20
98.03858183950625
 30
0.0
 10
265.9752012946158
 20
98.02733579937967
 30
0.0
  0
SPLINE
  5
7B
330
1F
100
AcDbEntity
  8
0
  6
Continuous
 62
     7
370
    15
100
AcDbSpline
210
0.0
220
0.0
230
1.0
 70
     8
 71
     3
 72
    11
 73
     7
 74
     0
 42
0.00000001
 43
0.00000001
 40
0.0
 40
0.0
 40
0.0
 40
0.0
 40
0.2908641666076037
 40
0.583956078989174
 40
0.8745988053617763
 40
1.0
 40
1.0
 40
1.0
 40
1.0
 10
265.9752012946157
 20
98.02733579937966
 30
0.0
 10
265.938176510824
 20
98.0198533583101
 30
0.0
 10
265.863843368242
 20
98.00483116771441
 30
0.0
 10
265.7692923839998
 20
97.9371326500645
 30
0.0
 10
265.712772186976
 20
97.86206587607472
 30
0.0
 10
265.6936430770222
 20
97.81149493801456
 30
0.0
 10
265.6878773077862
 20
97.79625218183797
 30
0.0
  0
SPLINE
  5
7C
330
1F
100
AcDbEntity
  8
0
  6
Continuous
 62
     7
370
    15
100
AcDbSpline
210
0.0
220
0.0
230
1.0
 70
     8
 71
     3
 72
    12
 73
     8
 74
     0
 42
0.00000001
 43
0.00000001
 40
0.0
 40
0.0
 40
0.0
 40
0.0
 40
0.0091735205190458
 40
0.2576775215525562
 40
0.5061895192299227
 40
0.7560357430218945
 40
0.9999999999999999
 40
0.9999999999999999
 40
0.9999999999999999
 40
0.9999999999999999
 10
268.3664893375364
 20
98.82635951085268
 30
0.0
 10
268.3654035687379
 20
98.8271955808569
 30
0.0
 10
268.3349051126217
 20
98.85068017939072
 30
0.0
 10
268.2662222249238
 20
98.88662416916904
 30
0.0
 10
268.1544071252372
 20
98.90337600396612
 30
0.0
 10
268.0426135251527
 20
98.88505771695483
 30
0.0
 10
267.9811461679232
 20
98.84536813444518
 30
0.0
 10
267.9507785699906
 20
98.82575972214167
 30
0.0
  0
SPLINE
  5
7D
330
1F
100
AcDbEntity
  8
0
  6
Continuous
 62
     7
370
    15
100
AcDbSpline
210
0.0
220
0.0
230
1.0
 70
     8
 71
     3
 72
    12
 73
     8
 74
     0
 42
0.00000001
 43
0.00000001
 40
0.0
 40
0.0
 40
0.0
 40
0.0
 40
0.2057532787804313
 40
0.4119604088044471
 40
0.6140154573248855
 40
0.8131414684040944
 40
1.0
 40
1.0
 40
1.0
 40
1.0
 10
267.9507785699906
 20
98.82575972214167
 30
0.0
 10
267.895982273427
 20
98.79056530061605
 30
0.0
 10
267.7862688104527
 20
98.72009882559675
 30
0.0
 10
267.5874677832944
 20
98.68922799456747
 30
0.0
 10
267.3936838898039
 20
98.72039736040662
 30
0.0
 10
267.2227580573512
 20
98.80694321009769
 30
0.0
 10
267.1433286747769
 20
98.89898019630932
 30
0.0
 10
267.1048762080264
 20
98.94353611550969
 30
0.0
  0
SPLINE
  5
7E
330
1F
100
AcDbEntity
  8
0
  6
Continuous
 62
     7
370
    15
100
AcDbSpline
210
0.0
220
0.0
230
1.0
 70
     8
 71
     3
 72
    11
 73
     7
 74
     0
 42
0.00000001
 43
0.00000001
 40
0.0
 40
0.0
 40
0.0
 40
0.0
 40
0.2794069064555827
 40
0.5596240257156158
 40
0.8375007392219765
 40
1.0
 40
1.0
 40
1.0
 40
1.0
 10
267.1048762080264
 20
98.94353611550969
 30
0.0
 10
267.0800790631826
 20
98.97171143318964
 30
0.0
 10
267.030412867741
 20
99.02814377019193
 30
0.0
 10
266.9248995374435
 20
99.07538220386644
 30
0.0
 10
266.8259177614996
 20
99.08720763736139
 30
0.0
 10
266.7671494189959
 20
99.07516615593168
 30
0.0
 10
266.7454638303815
 20
99.07072283489407
 30
0.0
  0
LINE
  5
7F
330
1F
100
AcDbEntity
  8
0
  6
Continuous
 62
     7
370
    15
100
AcDbLine
 10
268.4901616941
 20
98.599588381
 30
0.0
 11
268.4650784471
 21
98.5206348324
 31
0.0
  0
SPLINE
  5
80
330
1F
100
AcDbEntity
  8
0
  6
Continuous
 62
     7
370
    15
100
AcDbSpline
210
0.0
220
0.0
230
1.0
 70
     8
 71
     3
 72
    11
 73
     7
 74
     0
 42
0.00000001
 43
0.00000001
 40
0.0
 40
0.0
 40
0.0
 40
0.0
 40
0.253508622748415
 40
0.5075674742604961
 40
0.7595056251925051
 40
1.0
 40
1.0
 40
1.0
 40
1.0
 10
268.4650784471442
 20
98.42570009297793
 30
0.0
 10
268.4774965555717
 20
98.46104557335184
 30
0.0
 10
268.5023597253581
 20
98.53181324983325
 30
0.0
 10
268.4912741701581
 20
98.64605424181109
 30
0.0
 10
268.4471490941467
 20
98.75068089932138
 30
0.0
 10
268.3929561212274
 20
98.80152718398224
 30
0.0
 10
268.3664893375364
 20
98.82635951085268
 30
0.0
  0
SPLINE
  5
81
330
1F
100
AcDbEntity
  8
0
  6
Continuous
 62
     7
370
    15
100
AcDbSpline
210
0.0
220
0.0
230
1.0
 70
     8
 71
     3
 72
    12
 73
     8
 74
     0
 42
0.00000001
 43
0.00000001
 40
0.0
 40
0.0
 40
0.0
 40
0.0
 40
0.0091681771491742
 40
0.2573268097002647
 40
0.5054934687429791
 40
0.7549925359452886
 40
1.0
 40
1.0
 40
1.0
 40
1.0
 10
268.9964184769914
 20
97.27519365791095
 30
0.0
 10
268.9966040512739
 20
97.2765504867554
 30
0.0
 10
269.0018126371591
 20
97.31463313199407
 30
0.0
 10
268.9987015239537
 20
97.3920165002566
 30
0.0
 10
268.9570460080038
 20
97.49734649003398
 30
0.0
 10
268.8845241287584
 20
97.58550362884722
 30
0.0
 10
268.818487870736
 20
97.61928058081004
 30
0.0
 10
268.7857696454122
 20
97.63601565875304
 30
0.0
  0
SPLINE
  5
82
330
1F
100
AcDbEntity
  8
0
  6
Continuous
 62
     7
370
    15
100
AcDbSpline
210
0.0
220
0.0
230
1.0
 70
     8
 71
     3
 72
    12
 73
     8
 74
     0
 42
0.00000001
 43
0.00000001
 40
0.0
 40
0.0
 40
0.0
 40
0.0
 40
0.2058435564094993
 40
0.412069162055311
 40
0.614139721772713
 40
0.8132604579561309
 40
0.9999999999999999
 40
0.9999999999999999
 40
0.9999999999999999
 40
0.9999999999999999
 10
268.7857696454122
 20
97.63601565875304
 30
0.0
 10
268.7272034856913
 20
97.66611381599385
 30
0.0
 10
268.6099624664341
 20
97.72636599318106
 30
0.0
 10
268.4828141626347
 20
97.88327625568567
 30
0.0
 10
268.4130831139141
 20
98.06625744061544
 30
0.0
 10
268.4038003616204
 20
98.25658839171466
 30
0.0
 10
268.4450940859499
 20
98.37054841368959
 30
0.0
 10
268.4650784471442
 20
98.42570009297793
 30
0.0
  0
ARC
  5
83
330
1F
100
AcDbEntity
  8
0
  6
Continuous
 62
     7
370
    15
100
AcDbCircle
 10
266.0052982182
 20
97.7897575038
 30
0.0
 40
0.3341698797443903
100
AcDbArc
 50
180.0328975598
 51
248.907221221
  0
SPLINE
  5
84
330
1F
100
AcDbEntity
  8
0
  6
Continuous
 62
     7
370
    15
100
AcDbSpline
210
0.0
220
0.0
230
1.0
 70
     8
 71
     3
 72
    11
 73
     7
 74
     0
 42
0.00000001
 43
0.00000001
 40
0.0
 40
0.0
 40
0.0
 40
0.0
 40
0.2669010467950014
 40
0.554614341079232
 40
0.8439070439785513
 40
1.0
 40
1.0
 40
1.0
 40
1.0
 10
265.6714241133647
 20
97.67786800964033
 30
0.0
 10
265.6760308720928
 20
97.64347692091307
 30
0.0
 10
265.685603612579
 20
97.57201301605954
 30
0.0
 10
265.7429416090415
 20
97.47707714262235
 30
0.0
 10
265.8145879191043
 20
97.41381187178294
 30
0.0
 10
265.866754691975
 20
97.39098421030484
 30
0.0
 10
265.8850374220549
 20
97.38298386927946
 30
0.0
  0
ARC
  5
85
330
1F
100
AcDbEntity
  8
0
  6
Continuous
 62
     7
370
    15
100
AcDbCircle
 10
268.9950113655
 20
98.2762178528
 30
0.0
 40
0.5835825201539366
100
AcDbArc
 50
155.2397859019
 51
179.9988219145
  0
SPLINE
  5
86
330
1F
100
AcDbEntity
  8
0
  6
Continuous
 62
     7
370
    15
100
AcDbSpline
210
0.0
220
0.0
230
1.0
 70
     8
 71
     3
 72
    12
 73
     8
 74
     0
 42
0.00000001
 43
0.00000001
 40
0.0
 40
0.0
 40
0.0
 40
0.0
 40
0.2058401281337981
 40
0.4120619935509854
 40
0.6141387330969458
 40
0.813277211352456
 40
1.0
 40
1.0
 40
1.0
 40
1.0
 10
265.8850374220549
 20
97.38298386927946
 30
0.0
 10
265.9436029956698
 20
97.35424841927677
 30
0.0
 10
266.0608427546809
 20
97.29672422843483
 30
0.0
 10
266.1879913890322
 20
97.14200564689052
 30
0.0
 10
266.2577253309523
 20
96.95885906044845
 30
0.0
 10
266.2670064187638
 20
96.76621110612199
 30
0.0
 10
266.2257116451664
 20
96.64968687563807
 30
0.0
 10
266.2057286203229
 20
96.59329943505459
 30
0.0
  0
SPLINE
  5
87
330
1F
100
AcDbEntity
  8
0
  6
Continuous
 62
     7
370
    15
100
AcDbSpline
210
0.0
220
0.0
230
1.0
 70
     8
 71
     3
 72
    11
 73
     7
 74
     0
 42
0.00000001
 43
0.00000001
 40
0.0
 40
0.0
 40
0.0
 40
0.0
 40
0.2928993220619633
 40
0.5864344719079674
 40
0.8775178868033217
 40
1.0
 40
1.0
 40
1.0
 40
1.0
 10
266.2057286203229
 20
96.59329943505459
 30
0.0
 10
266.1933182358508
 20
96.55717080756128
 30
0.0
 10
266.1684705263623
 20
96.48483512431135
 30
0.0
 10
266.179442154727
 20
96.36867956508885
 30
0.0
 10
266.2159548820296
 20
96.28255785182273
 30
0.0
 10
266.2498935710997
 20
96.24098131451836
 30
0.0
 10
266.259944898094
 20
96.22866795229997
 30
0.0
  0
ARC
  5
88
330
1F
100
AcDbEntity
  8
0
  6
Continuous
 62
     7
370
    15
100
AcDbCircle
 10
268.6651619712
 20
97.4197707716
 30
0.0
 40
0.3345534763484516
100
AcDbArc
 50
275.2210418381
 51
353.9119844201
  0
SPLINE
  5
89
330
1F
100
AcDbEntity
  8
0
  6
Continuous
 62
     7
370
    15
100
AcDbSpline
210
0.0
220
0.0
230
1.0
 70
     8
 71
     3
 72
    11
 73
     7
 74
     0
 42
0.00000001
 43
0.00000001
 40
0.0
 40
0.0
 40
0.0
 40
0.0
 40
0.2524782265335851
 40
0.506890241793349
 40
0.7591786113117192
 40
1.0
 40
1.0
 40
1.0
 40
1.0
 10
268.6956057728513
 20
96.99166370870893
 30
0.0
 10
268.7326427981153
 20
96.99835289504985
 30
0.0
 10
268.8070005237265
 20
97.01178250174624
 30
0.0
 10
268.9013374465367
 20
97.07774609114766
 30
0.0
 10
268.9707603031389
 20
97.16777197562442
 30
0.0
 10
268.9879993806164
 20
97.23994588458382
 30
0.0
 10
268.9964184769914
 20
97.27519365791093
 30
0.0
  0
SPLINE
  5
8A
330
1F
100
AcDbEntity
  8
0
  6
Continuous
 62
     7
370
    15
100
AcDbSpline
210
0.0
220
0.0
230
1.0
 70
     8
 71
     3
 72
    12
 73
     8
 74
     0
 42
0.00000001
 43
0.00000001
 40
0.0
 40
0.0
 40
0.0
 40
0.0
 40
0.205858574121396
 40
0.4121026961456981
 40
0.6141937841967596
 40
0.8133180967416505
 40
1.0
 40
1.0
 40
1.0
 40
1.0
 10
268.1703946091552
 20
96.31975566785209
 30
0.0
 10
268.1666495777438
 20
96.38574576227776
 30
0.0
 10
268.1591525009358
 20
96.51784954249578
 30
0.0
 10
268.2308570714043
 20
96.70671189076465
 30
0.0
 10
268.3549323283607
 20
96.85841258396437
 30
0.0
 10
268.5165331941889
 20
96.96100611535493
 30
0.0
 10
268.6372122294867
 20
96.98166661412115
 30
0.0
 10
268.6956057728513
 20
96.99166370870893
 30
0.0
  0
SPLINE
  5
8B
330
1F
100
AcDbEntity
  8
0
  6
Continuous
 62
     7
370
    15
100
AcDbSpline
210
0.0
220
0.0
230
1.0
 70
     8
 71
     3
 72
    11
 73
     7
 74
     0
 42
0.00000001
 43
0.00000001
 40
0.0
 40
0.0
 40
0.0
 40
0.0
 40
0.2423611237745128
 40
0.5166847928458546
 40
0.7923341374633197
 40
0.9999999999999999
 40
0.9999999999999999
 40
0.9999999999999999
 40
0.9999999999999999
 10
268.0029439728506
 20
95.9742471591731
 30
0.0
 10
268.0303785771934
 20
95.99289424303385
 30
0.0
 10
268.088865857005
 20
96.03264758511986
 30
0.0
 10
268.1489667006202
 20
96.12501948739941
 30
0.0
 10
268.17789713147
 20
96.22602070155739
 30
0.0
 10
268.1726493999679
 20
96.29158477652194
 30
0.0
 10
268.1703946091552
 20
96.31975566785209
 30
0.0
  0
ARC
  5
8C
330
1F
100
AcDbEntity
  8
0
  6
Continuous
 62
     7
370
    15
100
AcDbCircle
 10
265.6745132387
 20
96.9323156076
 30
0.0
 40
0.5848651082821434
100
AcDbArc
 50
0.0374528729
 51
68.902665908
  0
ARC
  5
8D
330
1F
100
AcDbEntity
  8
0
  6
Continuous
 62
     7
370
    15
100
AcDbCircle
 10
266.5100536687
 20
96.549323722
 30
0.0
 40
0.3350540727109416
100
AcDbArc
 50
187.02992089
 51
308.8062910879
  0
SPLINE
  5
8E
330
1F
100
AcDbEntity
  8
0
  6
Continuous
 62
     7
370
    15
100
AcDbSpline
210
0.0
220
0.0
230
1.0
 70
     8
 71
     3
 72
    11
 73
     7
 74
     0
 42
0.00000001
 43
0.00000001
 40
0.0
 40
0.0
 40
0.0
 40
0.0
 40
0.265759632262572
 40
0.5530029385954516
 40
0.8418208483437375
 40
0.9999999999999999
 40
0.9999999999999999
 40
0.9999999999999999
 40
0.9999999999999999
 10
266.3543554145051
 20
96.15508650760047
 30
0.0
 10
266.3864798644119
 20
96.14188517903158
 30
0.0
 10
266.45332566431
 20
96.11441534311328
 30
0.0
 10
266.5649329521328
 20
96.11653453447649
 30
0.0
 10
266.6567920825026
 20
96.14706297612226
 30
0.0
 10
266.7034999521396
 20
96.18117022926803
 30
0.0
 10
266.7200284974764
 20
96.19323978594693
 30
0.0
  0
ARC
  5
8F
330
1F
100
AcDbEntity
  8
0
  6
Continuous
 62
     7
370
    15
100
AcDbCircle
 10
268.7487812704
 20
96.5037225345
 30
0.0
 40
0.5853033408469894
100
AcDbArc
 50
95.2125765697
 51
179.945336511
  0
SPLINE
  5
90
330
1F
100
AcDbEntity
  8
0
  6
Continuous
 62
     7
370
    15
100
AcDbSpline
210
0.0
220
0.0
230
1.0
 70
     8
 71
     3
 72
    12
 73
     8
 74
     0
 42
0.00000001
 43
0.00000001
 40
0.0
 40
0.0
 40
0.0
 40
0.0
 40
0.2057904614203935
 40
0.4120344203360439
 40
0.6141302471427698
 40
0.8132633242113191
 40
1.0
 40
1.0
 40
1.0
 40
1.0
 10
266.7200284974764
 20
96.19323978594693
 30
0.0
 10
266.7748331455568
 20
96.22980041797413
 30
0.0
 10
266.8845632139364
 20
96.3030022501702
 30
0.0
 10
267.083394805825
 20
96.33605489389477
 30
0.0
 10
267.2772032312756
 20
96.3046972807315
 30
0.0
 10
267.4481008067508
 20
96.21581502508315
 30
0.0
 10
267.5275044792141
 20
96.12123442499829
 30
0.0
 10
267.5659308594406
 20
96.07546336695819
 30
0.0
  0
SPLINE
  5
91
330
1F
100
AcDbEntity
  8
0
  6
Continuous
 62
     7
370
    15
100
AcDbSpline
210
0.0
220
0.0
230
1.0
 70
     8
 71
     3
 72
    11
 73
     7
 74
     0
 42
0.00000001
 43
0.00000001
 40
0.0
 40
0.0
 40
0.0
 40
0.0
 40
0.2802371411013281
 40
0.5612869875924159
 40
0.8399906057824786
 40
1.0
 40
1.0
 40
1.0
 40
1.0
 10
267.5659308594406
 20
96.07546336695819
 30
0.0
 10
267.5907256690184
 20
96.04649430067794
 30
0.0
 10
267.6403871946861
 20
95.98847215599754
 30
0.0
 10
267.7458925151158
 20
95.93949612460423
 30
0.0
 10
267.8444509885936
 20
95.92676048394158
 30
0.0
 10
267.9028408635655
 20
95.93834461071546
 30
0.0
 10
267.9241370828671
 20
95.94256962582831
 30
0.0
  0
ARC
  5
92
330
1F
100
AcDbEntity
  8
0
  6
Continuous
 62
     7
370
    15
100
AcDbCircle
 10
267.8392969364
 20
96.3645657255
 30
0.0
 40
0.3352849315104584
100
AcDbArc
 50
215.380522564
 51
342.4620954344
  0
ARC
  5
93
330
1F
100
AcDbEntity
  8
0
  6
Continuous
 62
     7
370
    15
100
AcDbCircle
 10
267.3377194618
 20
97.5724499677
 30
0.0
 40
2.625004852328926
100
AcDbArc
 50
0.1101660443
 51
179.8898339557
  0
ARC
  5
94
330
1F
100
AcDbEntity
  8
0
  6
Continuous
 62
     7
370
    15
100
AcDbCircle
 10
267.0874087067
 20
95.830257397
 30
0.0
 40
0.5871148448146374
100
AcDbArc
 50
35.4086710857
 51
128.7363927877
  0
LINE
  5
95
330
1F
100
AcDbEntity
  8
0
  6
Continuous
 62
     7
370
    15
100
AcDbLine
 10
263.950715091
 20
93.9633511787
 30
0.0
 11
263.58830265
 21
93.8340572374
 31
0.0
  0
LINE
  5
96
330
1F
100
AcDbEntity
  8
0
  6
Continuous
 62
     7
370
    15
100
AcDbLine
 10
260.3854075108
 20
103.9675977392
 30
0.0
 11
263.58830265
 21
93.8340572374
 31
0.0
  0
LINE
  5
97
330
1F
100
AcDbEntity
  8
0
  6
Continuous
 62
     7
370
    15
100
AcDbLine
 10
260.7478199521
 20
104.0968916806
 30
0.0
 11
260.3854075108
 21
103.9675977392
 31
0.0
  0
LINE
  5
98
330
1F
100
AcDbEntity
  8
0
  6
Continuous
 62
     7
370
    15
100
AcDbLine
 10
262.1673070837
 20
102.718193892
 30
0.0
 11
260.7478199521
 21
104.0968916806
 31
0.0
  0
LINE
  5
99
330
1F
100
AcDbEntity
  8
0
  6
Continuous
 62
     7
370
    15
100
AcDbLine
 10
264.1264756676
 20
94.1475631271
 30
0.0
 11
263.950715091
 21
93.9633511787
 31
0.0
  0
SPLINE
  5
9A
330
1F
100
AcDbEntity
  8
0
  6
Continuous
 62
     7
370
    15
100
AcDbSpline
210
0.0
220
0.0
230
1.0
 70
     8
 71
     3
 72
    10
 73
     6
 74
     0
 42
0.00000001
 43
0.00000001
 40
0.0
 40
0.0
 40
0.0
 40
0.0
 40
0.3518022785809891
 40
0.7034245935031433
 40
1.0
 40
1.0
 40
1.0
 40
1.0
 10
263.5696965208122
 20
93.82657641603046
 30
0.0
 10
263.5873661593223
 20
93.78550265642296
 30
0.0
 10
263.6226963974791
 20
93.70337614839667
 30
0.0
 10
263.7180206237772
 20
93.61353184927445
 30
0.0
 10
263.7941264525699
 20
93.5822632493677
 30
0.0
 10
263.8289477985345
 20
93.56795666139077
 30
0.0
  0
LINE
  5
9B
330
1F
100
AcDbEntity
  8
0
  6
Continuous
 62
     7
370
    15
100
AcDbLine
 10
260.3637196853
 20
103.9698670023
 30
0.0
 11
263.5696965208
 21
93.826576416
 31
0.0
  0
LINE
  5
9C
330
1F
100
AcDbEntity
  8
0
  6
Continuous
 62
     7
370
    15
100
AcDbLine
 10
271.0278728197
 20
101.2665849723
 30
0.0
 11
260.8598133515
 21
104.4647522094
 31
0.0
  0
SPLINE
  5
9D
330
1F
100
AcDbEntity
  8
0
  6
Continuous
 62
     7
370
    15
100
AcDbSpline
210
0.0
220
0.0
230
1.0
 70
     8
 71
     3
 72
    10
 73
     6
 74
     0
 42
0.00000001
 43
0.00000001
 40
0.0
 40
0.0
 40
0.0
 40
0.0
 40
0.3518022785809755
 40
0.7034245935031088
 40
1.0
 40
1.0
 40
1.0
 40
1.0
 10
271.2871240973857
 20
101.0079652176247
 30
0.0
 10
271.2694544588756
 20
101.0490389772322
 30
0.0
 10
271.2341242207189
 20
101.1311654852585
 30
0.0
 10
271.1387999944208
 20
101.2210097843807
 30
0.0
 10
271.0626941656281
 20
101.2522783842875
 30
0.0
 10
271.0278728196635
 20
101.2665849722644
 30
0.0
  0
LINE
  5
9E
330
1F
100
AcDbEntity
  8
0
  6
Continuous
 62
     7
370
    15
100
AcDbLine
 10
274.4931009329
 20
90.8646746313
 30
0.0
 11
271.2871240974
 21
101.0079652176
 31
0.0
  0
SPLINE
  5
9F
330
1F
100
AcDbEntity
  8
0
  6
Continuous
 62
     7
370
    15
100
AcDbSpline
210
0.0
220
0.0
230
1.0
 70
     8
 71
     3
 72
    20
 73
    16
 74
     0
 42
0.00000001
 43
0.00000001
 40
0.0
 40
0.0
 40
0.0
 40
0.0
 40
0.0783075311860523
 40
0.1588910126856529
 40
0.2369785693217641
 40
0.3174398160757111
 40
0.3936615824745009
 40
0.4721830276910015
 40
0.5469240757153093
 40
0.6238523130449605
 40
0.6983189620749697
 40
0.7748908420225445
 40
0.8503894607879824
 40
0.9279814901989342
 40
1.0
 40
1.0
 40
1.0
 40
1.0
 10
273.9970072666634
 20
90.36978942427976
 30
0.0
 10
274.0188927201023
 20
90.36403684780018
 30
0.0
 10
274.0632997114519
 20
90.35236450047233
 30
0.0
 10
274.1320768248497
 20
90.3492992744155
 30
0.0
 10
274.2008327490722
 20
90.35720900382147
 30
0.0
 10
274.2660619566913
 20
90.3766737320098
 30
0.0
 10
274.3270231971533
 20
90.40702894632963
 30
0.0
 10
274.3805622501466
 20
90.44641714775851
 30
0.0
 10
274.4266918797571
 20
90.49445091194671
 30
0.0
 10
274.4633978416679
 20
90.54861273729195
 30
0.0
 10
274.4906819797935
 20
90.60858934135732
 30
0.0
 10
274.5075795139099
 20
90.67188140209598
 30
0.0
 10
274.5136840159383
 20
90.73789649022073
 30
0.0
 10
274.5096457170546
 20
90.8029682474383
 30
0.0
 10
274.4984771717574
 20
90.84462310002084
 30
0.0
 10
274.4931009329363
 20
90.8646746313152
 30
0.0
  0
LINE
  5
A0
330
1F
100
AcDbEntity
  8
0
  6
Continuous
 62
     7
370
    15
100
AcDbLine
 10
263.8289477985
 20
93.5679566614
 30
0.0
 11
273.9970072667
 21
90.3697894243
 31
0.0
  0
ARC
  5
A1
330
1F
100
AcDbEntity
  8
0
  6
Continuous
 62
     7
370
    15
100
AcDbCircle
 10
260.7475180868
 20
104.081284989
 30
0.0
 40
0.3795376924266203
100
AcDbArc
 50
72.43019991
 51
197.4300603205
  0
ARC
  5
A2
330
1F
100
AcDbEntity
  8
0
  6
Continuous
 62
     7
370
    15
100
AcDbCircle
 10
263.9501352145
 20
93.9486283844
 30
0.0
 40
0.3795383412040136
100
AcDbArc
 50
197.5699397499
 51
252.5697999314
  0
LINE
  5
A3
330
1F
100
AcDbEntity
  8
0
  6
Continuous
 62
     7
370
    15
100
AcDbLine
 10
263.8364468872
 20
93.5865174667
 30
0.0
 11
273.9947324623
 21
90.3914244194
 31
0.0
  0
ARC
  5
A4
330
1F
100
AcDbEntity
  8
0
  6
Continuous
 62
     7
370
    15
100
AcDbCircle
 10
274.1093025314
 20
90.7532566446
 30
0.0
 40
0.379537692426616
100
AcDbArc
 50
252.43019991
 51
17.4300603205
  0
LINE
  5
A5
330
1F
100
AcDbEntity
  8
0
  6
Continuous
 62
     7
370
    15
100
AcDbLine
 10
274.4714131074
 20
90.8669438944
 30
0.0
 11
271.2685179685
 21
101.0004843963
 31
0.0
  0
ARC
  5
A6
330
1F
100
AcDbEntity
  8
0
  6
Continuous
 62
     7
370
    15
100
AcDbCircle
 10
270.9066854051
 20
100.8859132502
 30
0.0
 40
0.3795383398846301
100
AcDbArc
 50
17.5699396794
 51
72.5698000902
  0
LINE
  5
A7
330
1F
100
AcDbEntity
  8
0
  6
Continuous
 62
     7
370
    15
100
AcDbLine
 10
271.020373731
 20
101.2480241669
 30
0.0
 11
260.8620881559
 21
104.4431172142
 31
0.0
  0
SPLINE
  5
A8
330
1F
100
AcDbEntity
  8
0
  6
Continuous
 62
     7
370
    15
100
AcDbSpline
210
0.0
220
0.0
230
1.0
 70
     8
 71
     3
 72
    14
 73
    10
 74
     0
 42
0.00000001
 43
0.00000001
 40
0.0
 40
0.0
 40
0.0
 40
0.0
 40
0.1588501103508648
 40
0.3173321153184966
 40
0.4720153553661302
 40
0.6236441635915987
 40
0.7746618341644411
 40
0.927741776110782
 40
0.9999999999999999
 40
0.9999999999999999
 40
0.9999999999999999
 40
0.9999999999999999
 10
260.8598133515346
 20
104.4647522093754
 30
0.0
 10
260.8147169216984
 20
104.4742602356255
 30
0.0
 10
260.7246285645571
 20
104.4932542550555
 30
0.0
 10
260.5882876477664
 20
104.4628312267019
 30
0.0
 10
260.472353320129
 20
104.3924410060808
 30
0.0
 10
260.3881906355605
 20
104.2880964456145
 30
0.0
 10
260.3439855793985
 20
104.1628840045006
 30
0.0
 10
260.3417368943745
 20
104.0524492865226
 30
0.0
 10
260.3583821291605
 20
103.9899184861139
 30
0.0
 10
260.3637196852616
 20
103.96986700234
 30
0.0
  0
LINE
  5
A9
330
1F
100
AcDbEntity
  8
0
  6
Continuous
 62
     7
370
    15
100
AcDbLine
 10
260.7478199521
 20
104.0968916806
 30
0.0
 11
260.8620881559
 21
104.4431172142
 31
0.0
  0
LINE
  5
AA
330
1F
100
AcDbEntity
  8
0
  6
Continuous
 62
     7
370
    15
100
AcDbLine
 10
270.9061055272
 20
100.9017986333
 30
0.0
 11
271.020373731
 21
101.2480241669
 31
0.0
  0
LINE
  5
AB
330
1F
100
AcDbEntity
  8
0
  6
Continuous
 62
     7
370
    15
100
AcDbLine
 10
270.7303449506
 20
100.7353457164
 30
0.0
 11
270.9061055272
 21
100.9017986333
 31
0.0
  0
SPLINE
  5
AC
330
1F
100
AcDbEntity
  8
0
  6
Continuous
 62
     7
370
    15
100
AcDbSpline
210
0.0
220
0.0
230
1.0
 70
     8
 71
     3
 72
    11
 73
     7
 74
     0
 42
0.00000001
 43
0.00000001
 40
0.0
 40
0.0
 40
0.0
 40
0.0
 40
0.0072987238690913
 40
0.1268462096079086
 40
0.5874298328382684
 40
1.0
 40
1.0
 40
1.0
 40
1.0
 10
262.6534777427451
 20
102.2253888563279
 30
0.0
 10
262.6524170736952
 20
102.22650714348
 30
0.0
 10
262.6339834610479
 20
102.2459421144467
 30
0.0
 10
262.5466804930851
 20
102.3374873922576
 30
0.0
 10
262.3828876654877
 20
102.5061529598225
 30
0.0
 10
262.2364837651691
 20
102.6501530327666
 30
0.0
 10
262.1673070837044
 20
102.7181938920282
 30
0.0
  0
ARC
  5
AD
330
1F
100
AcDbEntity
  8
0
  6
Continuous
 62
     7
370
    15
100
AcDbCircle
 10
264.1466612354
 20
100.6894369453
 30
0.0
 40
0.9987834011187948
100
AcDbArc
 50
72.4301998975
 51
197.4300603423
  0
LINE
  5
AE
330
1F
100
AcDbEntity
  8
0
  6
Continuous
 62
     7
370
    15
100
AcDbLine
 10
270.9061055272
 20
100.9017986333
 30
0.0
 11
271.2685179685
 21
101.0004843963
 31
0.0
  0
LINE
  5
AF
330
1F
100
AcDbEntity
  8
0
  6
Continuous
 62
     7
370
    15
100
AcDbLine
 10
274.1090006661
 20
90.7682581314
 30
0.0
 11
274.4714131074
 21
90.8669438944
 31
0.0
  0
LINE
  5
B0
330
1F
100
AcDbEntity
  8
0
  6
Continuous
 62
     7
370
    15
100
AcDbLine
 10
272.6895135345
 20
92.2216190073
 30
0.0
 11
274.1090006661
 21
90.7682581314
 31
0.0
  0
LINE
  5
B1
330
1F
100
AcDbEntity
  8
0
  6
Continuous
 62
     7
370
    15
100
AcDbLine
 10
269.4370730151
 20
100.0724609704
 30
0.0
 11
264.4481614176
 21
101.6416270116
 31
0.0
  0
LINE
  5
B2
330
1F
100
AcDbEntity
  8
0
  6
Continuous
 62
     7
370
    15
100
AcDbLine
 10
271.6630819509
 20
94.4442816618
 30
0.0
 11
270.0900841664
 21
99.4210405215
 31
0.0
  0
ARC
  5
B3
330
1F
100
AcDbEntity
  8
0
  6
Continuous
 62
     7
370
    15
100
AcDbCircle
 10
270.7101593826
 20
94.1451046887
 30
0.0
 40
0.9987834011225739
100
AcDbArc
 50
252.43019991
 51
17.4300603205
  0
LINE
  5
B4
330
1F
100
AcDbEntity
  8
0
  6
Continuous
 62
     7
370
    15
100
AcDbLine
 10
265.4197476031
 20
94.7620806633
 30
0.0
 11
270.4086592007
 21
93.1929146223
 31
0.0
  0
ARC
  5
B5
330
1F
100
AcDbEntity
  8
0
  6
Continuous
 62
     7
370
    15
100
AcDbCircle
 10
265.7189274081
 20
95.7150041283
 30
0.0
 40
0.998785104959945
100
AcDbArc
 50
197.5699396794
 51
252.5698000902
  0
LINE
  5
B6
330
1F
100
AcDbEntity
  8
0
  6
Continuous
 62
     7
370
    15
100
AcDbLine
 10
263.1937386673
 20
100.3902599719
 30
0.0
 11
264.7667364518
 21
95.4135011122
 31
0.0
  0
ARC
  5
B7
330
1F
100
AcDbEntity
  8
0
  6
Continuous
 62
     7
370
    15
100
AcDbCircle
 10
269.1378932101
 20
99.1195375053
 30
0.0
 40
0.9987851049601723
100
AcDbArc
 50
17.5699396794
 51
72.5698000902
  0
CIRCLE
  5
B8
330
1F
100
AcDbEntity
  8
0
  6
Continuous
 62
     7
370
    15
100
AcDbCircle
 10
267.4322372059
 20
97.4122017123
 30
0.0
 40
3.04692741226423
  0
SPLINE
  5
B9
330
1F
100
AcDbEntity
  8
0
  6
Continuous
 62
     7
370
    15
100
AcDbSpline
210
0.0
220
0.0
230
1.0
 70
     8
 71
     3
 72
    11
 73
     7
 74
     0
 42
0.00000001
 43
0.00000001
 40
0.0
 40
0.0
 40
0.0
 40
0.0
 40
0.0092138098389781
 40
0.3448490431109343
 40
0.6722304962507384
 40
1.0
 40
1.0
 40
1.0
 40
1.0
 10
270.2378834449016
 20
100.2423641711465
 30
0.0
 10
270.239246008034
 20
100.2438005175181
 30
0.0
 10
270.2902432177232
 20
100.2975592427874
 30
0.0
 10
270.3995003559974
 20
100.4105052417217
 30
0.0
 10
270.5727289755967
 20
100.5841886212768
 30
0.0
 10
270.6777855503514
 20
100.6849401260899
 30
0.0
 10
270.7303449506099
 20
100.7353457164158
 30
0.0
  0
ARC
  5
BA
330
1F
100
AcDbEntity
  8
0
  6
Continuous
 62
     7
370
    15
100
AcDbCircle
 10
267.4284103091
 20
97.492554298
 30
0.0
 40
3.050005195616833
100
AcDbArc
 50
180.1057562297
 51
359.8942437703
  0
SPLINE
  5
BB
330
1F
100
AcDbEntity
  8
0
  6
Continuous
 62
     7
370
    15
100
AcDbSpline
210
0.0
220
0.0
230
1.0
 70
     8
 71
     3
 72
    11
 73
     7
 74
     0
 42
0.00000001
 43
0.00000001
 40
0.0
 40
0.0
 40
0.0
 40
0.0
 40
0.3277695037502708
 40
0.6551509568910333
 40
0.9907861901610079
 40
1.0
 40
1.0
 40
1.0
 40
1.0
 10
264.1264756675893
 20
94.14756312705939
 30
0.0
 10
264.179035067848
 20
94.2020202731359
 30
0.0
 10
264.2840916426028
 20
94.31087009276025
 30
0.0
 10
264.4573202622015
 20
94.4827999999818
 30
0.0
 10
264.5665774004755
 20
94.58783598779921
 30
0.0
 10
264.617574610164
 20
94.63582322862915
 30
0.0
 10
264.6189371732964
 20
94.63710537025182
 30
0.0
  0
LINE
  5
BC
330
1F
100
AcDbEntity
  8
0
  6
Continuous
 62
     7
370
    15
100
AcDbLine
 10
274.1090006661
 20
90.7682581314
 30
0.0
 11
273.9947324623
 21
90.3914244194
 31
0.0
  0
LINE
  5
BD
330
1F
100
AcDbEntity
  8
0
  6
Continuous
 62
     7
370
    15
100
AcDbLine
 10
263.950715091
 20
93.9633511787
 30
0.0
 11
263.8364468872
 21
93.5865174667
 31
0.0
  0
SPLINE
  5
BE
330
1F
100
AcDbEntity
  8
0
  6
Continuous
 62
     7
370
    15
100
AcDbSpline
210
0.0
220
0.0
230
1.0
 70
     8
 71
     3
 72
    11
 73
     7
 74
     0
 42
0.00000001
 43
0.00000001
 40
0.0
 40
0.0
 40
0.0
 40
0.0
 40
0.4125701671612741
 40
0.8731537903910526
 40
0.9927012761302726
 40
1.0
 40
1.0
 40
1.0
 40
1.0
 10
272.6895135344945
 20
92.22161900730673
 30
0.0
 10
272.6203368530295
 20
92.29159448913686
 30
0.0
 10
272.4739329527098
 20
92.43968895174626
 30
0.0
 10
272.3101401251147
 20
92.59781105718197
 30
0.0
 10
272.2228371571492
 20
92.68044638401484
 30
0.0
 10
272.2044035445027
 20
92.69778883163418
 30
0.0
 10
272.2033428754527
 20
92.69878671510891
 30
0.0
  0
LINE
  5
BF
330
1F
100
AcDbEntity
  8
0
  6
Continuous
 62
     7
370
    15
100
AcDbLine
 10
175.4590006661
 20
82.7936510215
 30
0.0
 11
175.4590006661
 21
132.2039284221
 31
0.0
  0
SPLINE
  5
C0
330
1F
100
AcDbEntity
  8
0
  6
Continuous
 62
     7
370
    15
100
AcDbSpline
210
0.0
220
0.0
230
1.0
 70
     8
 71
     3
 72
    10
 73
     6
 74
     0
 42
0.00000001
 43
0.00000001
 40
0.0
 40
0.0
 40
0.0
 40
0.0
 40
0.5
 40
0.5
 40
1.0
 40
1.0
 40
1.0
 40
1.0
 10
175.4590006660777
 20
82.79365102149627
 30
0.0
 10
175.4590006660777
 20
82.63376375330262
 30
0.0
 10
175.3976910148419
 20
82.47263649778802
 30
0.0
 10
175.1785913773068
 20
82.23853749943319
 30
0.0
 10
175.0205431709933
 20
82.16701072584198
 30
0.0
 10
174.8590006660777
 20
82.16701072584198
 30
0.0
  0
SPLINE
  5
C1
330
1F
100
AcDbEntity
  8
0
  6
Continuous
 62
     7
370
    15
100
AcDbSpline
210
0.0
220
0.0
230
1.0
 70
    24
 71
     3
 72
    12
 73
     8
 74
     0
 42
0.00000001
 43
0.00000001
 40
0.0
 40
0.0
 40
0.0
 40
0.0
 40
0.2499999999999967
 40
0.2499999999999967
 40
0.4999999999999933
 40
0.4999999999999933
 40
1.0
 40
1.0
 40
1.0
 40
1.0
 10
174.8590006660777
 20
132.2039284220891
 30
0.0
 10
174.9492397337648
 20
132.2039284220891
 30
0.0
 10
175.0401378478712
 20
132.2039284220891
 30
0.0
 10
175.1947348843597
 20
132.2039284220891
 30
0.0
 10
175.2597133004679
 20
132.2039284220891
 30
0.0
 10
175.4115483284041
 20
132.2039284220891
 30
0.0
 10
175.4590006660777
 20
132.2039284220891
 30
0.0
 10
175.4590006660777
 20
132.2039284220891
 30
0.0
  0
LINE
  5
C2
330
1F
100
AcDbEntity
  8
0
  6
Continuous
 62
     7
370
    15
100
AcDbLine
 10
174.8590006661
 20
82.1670107258
 30
0.0
 11
170.9009334976
 21
82.1670107258
 31
0.0
  0
LINE
  5
C3
330
1F
100
AcDbEntity
  8
0
  6
Continuous
 62
     7
370
    15
100
AcDbLine
 10
170.9009334976
 20
82.1670107258
 30
0.0
 11
170.9009334976
 21
132.2039284221
 31
0.0
  0
LINE
  5
C4
330
1F
100
AcDbEntity
  8
0
  6
Continuous
 62
     7
370
    15
100
AcDbLine
 10
170.9009334976
 20
132.2039284221
 30
0.0
 11
174.8590006661
 21
132.2039284221
 31
0.0
  0
SPLINE
  5
C5
330
1F
100
AcDbEntity
  8
0
  6
Continuous
 62
     7
370
    15
100
AcDbSpline
210
0.0
220
0.0
230
1.0
 70
     8
 71
     3
 72
     8
 73
     4
 74
     0
 42
0.00000001
 43
0.00000001
 40
0.0
 40
0.0
 40
0.0
 40
0.0
 40
1.0
 40
1.0
 40
1.0
 40
1.0
 10
170.9009334975668
 20
82.16701072584195
 30
0.0
 10
170.405453836901
 20
83.06253681377531
 30
0.0
 10
169.9113397888589
 20
83.95882122882755
 30
0.0
 10
169.4190006660777
 20
84.85609126303424
 30
0.0
  0
LINE
  5
C6
330
1F
100
AcDbEntity
  8
0
  6
Continuous
 62
     7
370
    15
100
AcDbLine
 10
169.4190006661
 20
84.856091263
 30
0.0
 11
169.4190006661
 21
132.2039284221
 31
0.0
  0
SPLINE
  5
C7
330
1F
100
AcDbEntity
  8
0
  6
Continuous
 62
     7
370
    15
100
AcDbSpline
210
0.0
220
0.0
230
1.0
 70
    24
 71
     3
 72
     8
 73
     4
 74
     0
 42
0.00000001
 43
0.00000001
 40
0.0
 40
0.0
 40
0.0
 40
0.0
 40
1.0
 40
1.0
 40
1.0
 40
1.0
 10
169.4190006660777
 20
132.2039284220891
 30
0.0
 10
169.8989526604426
 20
132.2039284220891
 30
0.0
 10
170.3942533894163
 20
132.2039284220891
 30
0.0
 10
170.9009334975668
 20
132.2039284220891
 30
0.0
  0
LINE
  5
C8
330
1F
100
AcDbEntity
  8
0
  6
Continuous
 62
     7
370
    15
100
AcDbLine
 10
154.4590006661
 20
132.2039284221
 30
0.0
 11
164.1170678346
 21
132.2039284221
 31
0.0
  0
LINE
  5
C9
330
1F
100
AcDbEntity
  8
0
  6
Continuous
 62
     7
370
    15
100
AcDbLine
 10
164.1170678346
 20
82.1670107258
 30
0.0
 11
164.1170678346
 21
132.2039284221
 31
0.0
  0
LINE
  5
CA
330
1F
100
AcDbEntity
  8
0
  6
Continuous
 62
     7
370
    15
100
AcDbLine
 10
164.1170678346
 20
82.1670107258
 30
0.0
 11
162.4590006661
 21
82.1670107258
 31
0.0
  0
SPLINE
  5
CB
330
1F
100
AcDbEntity
  8
0
  6
Continuous
 62
     7
370
    15
100
AcDbSpline
210
0.0
220
0.0
230
1.0
 70
     8
 71
     3
 72
    28
 73
    24
 74
     0
 42
0.00000001
 43
0.00000001
 40
0.0
 40
0.0
 40
0.0
 40
0.0
 40
0.1250000000000002
 40
0.1250000000000002
 40
0.1875000000000004
 40
0.1875000000000004
 40
0.2500000000000006
 40
0.2500000000000006
 40
0.3750000000000011
 40
0.3750000000000011
 40
0.4375000000000012
 40
0.4375000000000012
 40
0.5000000000000011
 40
0.5000000000000011
 40
0.6250000000000007
 40
0.6250000000000007
 40
0.7500000000000003
 40
0.7500000000000003
 40
0.8125000000000003
 40
0.8125000000000003
 40
0.8750000000000002
 40
0.8750000000000002
 40
1.0
 40
1.0
 40
1.0
 40
1.0
 10
162.4590006660777
 20
82.16701072584195
 30
0.0
 10
161.9272929085848
 20
82.16701072584195
 30
0.0
 10
161.4050543432745
 20
82.15122601189175
 30
0.0
 10
160.6351838569994
 20
82.10623059781555
 30
0.0
 10
160.3808242848081
 20
82.08767560273984
 30
0.0
 10
159.8767027041096
 20
82.04382288029333
 30
0.0
 10
159.6269798866817
 20
82.01847827334112
 30
0.0
 10
158.9013899352352
 20
81.93507619559101
 30
0.0
 10
158.4430296736537
 20
81.86921063643993
 30
0.0
 10
157.7925317302598
 20
81.76024029594814
 30
0.0
 10
157.5808496794674
 20
81.72200066018148
 30
0.0
 10
157.1767781903294
 20
81.64424192276213
 30
0.0
 10
156.9842716765085
 20
81.60474096058678
 30
0.0
 10
156.4344367054872
 20
81.48583321822079
 30
0.0
 10
156.1045079271784
 20
81.40601553679616
 30
0.0
 10
155.5200366586097
 20
81.25267237500012
 30
0.0
 10
155.2737595205963
 20
81.18133862173086
 30
0.0
 10
154.9739167278982
 20
81.08739511465623
 30
0.0
 10
154.8854598708261
 20
81.05820132129631
 30
0.0
 10
154.7320985175209
 20
81.0047347470329
 30
0.0
 10
154.6670103032947
 20
80.98037541275774
 30
0.0
 10
154.5114162873539
 20
80.91678526731297
 30
0.0
 10
154.4590006660777
 20
80.88668233222374
 30
0.0
 10
154.4590006660777
 20
80.86980543922678
 30
0.0
  0
LINE
  5
CC
330
1F
100
AcDbEntity
  8
0
  6
Continuous
 62
     7
370
    15
100
AcDbLine
 10
154.4590006661
 20
80.8698054392
 30
0.0
 11
154.4590006661
 21
80.8539284221
 31
0.0
  0
SPLINE
  5
CD
330
1F
100
AcDbEntity
  8
0
  6
Continuous
 62
     7
370
    15
100
AcDbSpline
210
0.0
220
0.0
230
1.0
 70
     8
 71
     3
 72
    23
 73
    19
 74
     0
 42
0.00000001
 43
0.00000001
 40
0.0
 40
0.0
 40
0.0
 40
0.0
 40
0.1038035146324092
 40
0.1565103724816389
 40
0.2099973402771709
 40
0.3137613544584526
 40
0.366402915207452
 40
0.4197768754505556
 40
0.4724008945937183
 40
0.5257538543460545
 40
0.5794766981554436
 40
0.6339611138166612
 40
0.6872821437292171
 40
0.7409829035365938
 40
0.7958991837351529
 40
0.8512439231136124
 40
0.9563115427747291
 40
1.0
 40
1.0
 40
1.0
 40
1.0
 10
162.4590006660777
 20
142.8211238952534
 30
0.0
 10
162.0220008232248
 20
142.8263661402658
 30
0.0
 10
161.3631116861707
 20
142.8342701666606
 30
0.0
 10
160.499151587571
 20
142.8820384071457
 30
0.0
 10
159.6544121063989
 20
142.9448468443761
 30
0.0
 10
158.8455731683032
 20
143.0305762492754
 30
0.0
 10
158.0913412526482
 20
143.1309493617298
 30
0.0
 10
157.5512685660642
 20
143.2124199877907
 30
0.0
 10
157.042990485864
 20
143.2975212445829
 30
0.0
 10
156.5709920038985
 20
143.3837897439455
 30
0.0
 10
156.1348641191103
 20
143.4696706644191
 30
0.0
 10
155.7435890537285
 20
143.5517460762019
 30
0.0
 10
155.3997425061535
 20
143.627741115888
 30
0.0
 10
155.1047606503944
 20
143.695782053994
 30
0.0
 10
154.8590568368847
 20
143.7544735272621
 30
0.0
 10
154.6123147567791
 20
143.81503910899
 30
0.0
 10
154.472999924739
 20
143.8503766442971
 30
0.0
 10
154.4654285229487
 20
143.8522975235743
 30
0.0
 10
154.4632048634508
 20
143.8528616702894
 30
0.0
  0
LINE
  5
CE
330
1F
100
AcDbEntity
  8
0
  6
Continuous
 62
     7
370
    15
100
AcDbLine
 10
164.1170678346
 20
142.8211238953
 30
0.0
 11
162.4590006661
 21
142.8211238953
 31
0.0
  0
LINE
  5
CF
330
1F
100
AcDbEntity
  8
0
  6
Continuous
 62
     7
370
    15
100
AcDbLine
 10
164.1170678346
 20
136.8126180845
 30
0.0
 11
164.1170678346
 21
142.8211238953
 31
0.0
  0
LINE
  5
D0
330
1F
100
AcDbEntity
  8
0
  6
Continuous
 62
     7
370
    15
100
AcDbLine
 10
161.7046210118
 20
136.8126180845
 30
0.0
 11
164.1170678346
 21
136.8126180845
 31
0.0
  0
SPLINE
  5
D1
330
1F
100
AcDbEntity
  8
0
  6
Continuous
 62
     7
370
    15
100
AcDbSpline
210
0.0
220
0.0
230
1.0
 70
     8
 71
     3
 72
    20
 73
    16
 74
     0
 42
0.00000001
 43
0.00000001
 40
0.0
 40
0.0
 40
0.0
 40
0.0
 40
0.2500000000000007
 40
0.2500000000000007
 40
0.3750000000000006
 40
0.3750000000000006
 40
0.5000000000000006
 40
0.5000000000000006
 40
0.6250000000000004
 40
0.6250000000000004
 40
0.7500000000000003
 40
0.7500000000000003
 40
0.8750000000000002
 40
0.8750000000000002
 40
1.0
 40
1.0
 40
1.0
 40
1.0
 10
154.4590006660777
 20
132.2039284220891
 30
0.0
 10
154.7073744003658
 20
132.8577908503866
 30
0.0
 10
155.0269444927111
 20
133.4615766323836
 30
0.0
 10
155.6492507259157
 20
134.2884153685523
 30
0.0
 10
155.8806749863465
 20
134.5508440065052
 30
0.0
 10
156.4018893259962
 20
135.0475066606101
 30
0.0
 10
156.6885098086313
 20
135.2780935396317
 30
0.0
 10
157.3079945499389
 20
135.6946477642143
 30
0.0
 10
157.6422949294258
 20
135.8821455661818
 30
0.0
 10
158.3675554020507
 20
136.2135425438182
 30
0.0
 10
158.7494704594411
 20
136.3530465313135
 30
0.0
 10
159.5442586356128
 20
136.5785000387844
 30
0.0
 10
159.9584168298192
 20
136.6651261503281
 30
0.0
 10
160.8239631704006
 20
136.7831069391822
 30
0.0
 10
161.2618507854124
 20
136.8126180844566
 30
0.0
 10
161.704621011767
 20
136.8126180844565
 30
0.0
  0
LINE
  5
D2
330
1F
100
AcDbEntity
  8
0
  6
Continuous
 62
     7
370
    15
100
AcDbLine
 10
165.5990006661
 20
84.856091263
 30
0.0
 11
165.5990006661
 21
132.2039284221
 31
0.0
  0
SPLINE
  5
D3
330
1F
100
AcDbEntity
  8
0
  6
Continuous
 62
     7
370
    15
100
AcDbSpline
210
0.0
220
0.0
230
1.0
 70
     8
 71
     3
 72
     8
 73
     4
 74
     0
 42
0.00000001
 43
0.00000001
 40
0.0
 40
0.0
 40
0.0
 40
0.0
 40
1.0
 40
1.0
 40
1.0
 40
1.0
 10
165.5990006660777
 20
84.85609126303426
 30
0.0
 10
165.1066615432965
 20
83.95882122882756
 30
0.0
 10
164.6125474952544
 20
83.06253681377531
 30
0.0
 10
164.1170678345886
 20
82.16701072584195
 30
0.0
  0
SPLINE
  5
D4
330
1F
100
AcDbEntity
  8
0
  6
Continuous
 62
     7
370
    15
100
AcDbSpline
210
0.0
220
0.0
230
1.0
 70
    24
 71
     3
 72
     8
 73
     4
 74
     0
 42
0.00000001
 43
0.00000001
 40
0.0
 40
0.0
 40
0.0
 40
0.0
 40
1.0
 40
1.0
 40
1.0
 40
1.0
 10
164.1170678345886
 20
132.2039284220891
 30
0.0
 10
164.6237479427392
 20
132.2039284220891
 30
0.0
 10
165.1190486717128
 20
132.2039284220891
 30
0.0
 10
165.5990006660777
 20
132.2039284220891
 30
0.0
  0
LINE
  5
D5
330
1F
100
AcDbEntity
  8
0
  6
Continuous
 62
     7
370
    15
100
AcDbLine
 10
149.5090006661
 20
81.1539284221
 30
0.0
 11
149.5090006661
 21
143.5539284221
 31
0.0
  0
SPLINE
  5
D6
330
1F
100
AcDbEntity
  8
0
  6
Continuous
 62
     7
370
    15
100
AcDbSpline
210
0.0
220
0.0
230
1.0
 70
     8
 71
     3
 72
    10
 73
     6
 74
     0
 42
0.00000001
 43
0.00000001
 40
0.0
 40
0.0
 40
0.0
 40
0.0
 40
0.5
 40
0.5
 40
1.0
 40
1.0
 40
1.0
 40
1.0
 10
165.9932981977687
 20
138.7539284220891
 30
0.0
 10
165.8717579341002
 20
138.8286545893009
 30
0.0
 10
165.7704235737512
 20
138.9375996052177
 30
0.0
 10
165.6347846308628
 20
139.1880300859793
 30
0.0
 10
165.5990006660778
 20
139.3304494480782
 30
0.0
 10
165.5990006660778
 20
139.4735822731249
 30
0.0
  0
SPLINE
  5
D7
330
1F
100
AcDbEntity
  8
0
  6
Continuous
 62
     7
370
    15
100
AcDbSpline
210
0.0
220
0.0
230
1.0
 70
    24
 71
     3
 72
    12
 73
     8
 74
     0
 42
0.00000001
 43
0.00000001
 40
0.0
 40
0.0
 40
0.0
 40
0.0
 40
0.25
 40
0.25
 40
0.5
 40
0.5
 40
1.0
 40
1.0
 40
1.0
 40
1.0
 10
166.3990006660777
 20
138.7539284220891
 30
0.0
 10
166.3496573042681
 20
138.7539284220891
 30
0.0
 10
166.3009666059665
 20
138.7539284220891
 30
0.0
 10
166.218115508396
 20
138.7539284220891
 30
0.0
 10
166.1819155407754
 20
138.7539284220891
 30
0.0
 10
166.0861656242261
 20
138.7539284220891
 30
0.0
 10
166.0362836544139
 20
138.7539284220891
 30
0.0
 10
165.9932981977686
 20
138.7539284220891
 30
0.0
  0
SPLINE
  5
D8
330
1F
100
AcDbEntity
  8
0
  6
Continuous
 62
     7
370
    15
100
AcDbSpline
210
0.0
220
0.0
230
1.0
 70
    24
 71
     3
 72
    14
 73
    10
 74
     0
 42
0.00000001
 43
0.00000001
 40
0.0
 40
0.0
 40
0.0
 40
0.0
 40
0.1249999999999989
 40
0.1249999999999989
 40
0.2499999999999979
 40
0.2499999999999979
 40
0.4999999999999993
 40
0.4999999999999993
 40
1.0
 40
1.0
 40
1.0
 40
1.0
 10
166.3990006660777
 20
85.95392842208909
 30
0.0
 10
166.3296539443466
 20
85.95392842208909
 30
0.0
 10
166.2644558909626
 20
85.95392842208909
 30
0.0
 10
166.1600766983356
 20
85.95392842208909
 30
0.0
 10
166.1171743273266
 20
85.95392842208909
 30
0.0
 10
166.0048486697219
 20
85.95392842208909
 30
0.0
 10
165.9496249753681
 20
85.95392842208909
 30
0.0
 10
165.8055675966006
 20
85.95392842208908
 30
0.0
 10
165.7434868997691
 20
85.95392842208909
 30
0.0
 10
165.69667546841
 20
85.95392842208909
 30
0.0
  0
SPLINE
  5
D9
330
1F
100
AcDbEntity
  8
0
  6
Continuous
 62
     7
370
    15
100
AcDbSpline
210
0.0
220
0.0
230
1.0
 70
     8
 71
     3
 72
     9
 73
     5
 74
     0
 42
0.00000001
 43
0.00000001
 40
0.0
 40
0.0
 40
0.0
 40
0.0
 40
0.5
 40
1.0
 40
1.0
 40
1.0
 40
1.0
 10
165.5990006660778
 20
132.4897950535506
 30
0.0
 10
165.5990006660777
 20
132.4415630014278
 30
0.0
 10
165.6034066407829
 20
132.3456929879883
 30
0.0
 10
165.6164258208767
 20
132.2509843580049
 30
0.0
 10
165.6251482892378
 20
132.2039284220891
 30
0.0
  0
SPLINE
  5
DA
330
1F
100
AcDbEntity
  8
0
  6
Continuous
 62
     7
370
    15
100
AcDbSpline
210
0.0
220
0.0
230
1.0
 70
    24
 71
     3
 72
    14
 73
    10
 74
     0
 42
0.00000001
 43
0.00000001
 40
0.0
 40
0.0
 40
0.0
 40
0.0
 40
0.5000000000000029
 40
0.5000000000000029
 40
0.7500000000000032
 40
0.7500000000000032
 40
0.8750000000000016
 40
0.8750000000000016
 40
1.0
 40
1.0
 40
1.0
 40
1.0
 10
169.3213258637454
 20
85.95392842208909
 30
0.0
 10
169.2745411586972
 20
85.95392842208909
 30
0.0
 10
169.2124899619176
 20
85.95392842208909
 30
0.0
 10
169.069098323367
 20
85.95392842208909
 30
0.0
 10
169.0129546698159
 20
85.95392842208909
 30
0.0
 10
168.9000036476797
 20
85.95392842208909
 30
0.0
 10
168.8570028856415
 20
85.95392842208909
 30
0.0
 10
168.7529401753351
 20
85.95392842208909
 30
0.0
 10
168.6876079369781
 20
85.95392842208909
 30
0.0
 10
168.6190006660777
 20
85.95392842208909
 30
0.0
  0
SPLINE
  5
DB
330
1F
100
AcDbEntity
  8
0
  6
Continuous
 62
     7
370
    15
100
AcDbSpline
210
0.0
220
0.0
230
1.0
 70
    24
 71
     3
 72
    12
 73
     8
 74
     0
 42
0.00000001
 43
0.00000001
 40
0.0
 40
0.0
 40
0.0
 40
0.0
 40
0.4999999999999926
 40
0.4999999999999926
 40
0.7499999999999962
 40
0.7499999999999962
 40
1.0
 40
1.0
 40
1.0
 40
1.0
 10
169.0247031343868
 20
138.7539284220891
 30
0.0
 10
168.981617584776
 20
138.7539284220891
 30
0.0
 10
168.9324653830289
 20
138.7539284220891
 30
0.0
 10
168.8359927887393
 20
138.7539284220891
 30
0.0
 10
168.7998912036051
 20
138.7539284220891
 30
0.0
 10
168.7167854457425
 20
138.7539284220891
 30
0.0
 10
168.6687888487785
 20
138.7539284220891
 30
0.0
 10
168.6190006660777
 20
138.7539284220891
 30
0.0
  0
SPLINE
  5
DC
330
1F
100
AcDbEntity
  8
0
  6
Continuous
 62
     7
370
    15
100
AcDbSpline
210
0.0
220
0.0
230
1.0
 70
     8
 71
     3
 72
    10
 73
     6
 74
     0
 42
0.00000001
 43
0.00000001
 40
0.0
 40
0.0
 40
0.0
 40
0.0
 40
0.5
 40
0.5
 40
1.0
 40
1.0
 40
1.0
 40
1.0
 10
169.4190006660777
 20
139.4735822731249
 30
0.0
 10
169.4190006660777
 20
139.3298122153069
 30
0.0
 10
169.3829516073588
 20
139.1873928528117
 30
0.0
 10
169.2474427465848
 20
138.9374985594545
 30
0.0
 10
169.1475667534886
 20
138.8294682232063
 30
0.0
 10
169.0247031343867
 20
138.7539284220891
 30
0.0
  0
SPLINE
  5
DD
330
1F
100
AcDbEntity
  8
0
  6
Continuous
 62
     7
370
    15
100
AcDbSpline
210
0.0
220
0.0
230
1.0
 70
     8
 71
     3
 72
    10
 73
     6
 74
     0
 42
0.00000001
 43
0.00000001
 40
0.0
 40
0.0
 40
0.0
 40
0.0
 40
0.5
 40
0.5
 40
1.0
 40
1.0
 40
1.0
 40
1.0
 10
169.3928530429176
 20
132.2039284220891
 30
0.0
 10
169.4015426858292
 20
132.2508072714073
 30
0.0
 10
169.4080817505797
 20
132.2982297368085
 30
0.0
 10
169.4168403849728
 20
132.3941665353953
 30
0.0
 10
169.4190006660777
 20
132.4420818234058
 30
0.0
 10
169.4190006660777
 20
132.4897950535503
 30
0.0
  0
LINE
  5
DE
330
1F
100
AcDbEntity
  8
0
  6
Continuous
 62
     7
370
    15
100
AcDbLine
 10
168.6190006661
 20
138.7539284221
 30
0.0
 11
166.3990006661
 21
138.7539284221
 31
0.0
  0
LINE
  5
DF
330
1F
100
AcDbEntity
  8
0
  6
Continuous
 62
     7
370
    15
100
AcDbLine
 10
168.6190006661
 20
85.9539284221
 30
0.0
 11
166.3990006661
 21
85.9539284221
 31
0.0
  0
LINE
  5
E0
330
1F
100
AcDbEntity
  8
0
  6
Continuous
 62
     7
370
    15
100
AcDbLine
 10
147.5090006661
 20
88.1334975604
 30
0.0
 11
147.5090006661
 21
136.5743592838
 31
0.0
  0
LINE
  5
E1
330
1F
100
AcDbEntity
  8
0
  6
Continuous
 62
     7
370
    15
100
AcDbLine
 10
127.7090006661
 20
89.1254815283
 30
0.0
 11
127.7090006661
 21
90.4087801628
 31
0.0
  0
SPLINE
  5
E2
330
1F
100
AcDbEntity
  8
0
  6
Continuous
 62
     7
370
    15
100
AcDbSpline
210
0.0
220
0.0
230
1.0
 70
     8
 71
     3
 72
    14
 73
    10
 74
     0
 42
0.00000001
 43
0.00000001
 40
0.0
 40
0.0
 40
0.0
 40
0.0
 40
0.25
 40
0.25
 40
0.5
 40
0.5
 40
0.75
 40
0.75
 40
1.0
 40
1.0
 40
1.0
 40
1.0
 10
127.0873964293379
 20
91.4895572048059
 30
0.0
 10
127.1258328141589
 20
91.38693280709437
 30
0.0
 10
127.1946342075507
 20
91.28773638365482
 30
0.0
 10
127.3379202197097
 20
91.09684435432828
 30
0.0
 10
127.4131022748166
 20
91.00458708829538
 30
0.0
 10
127.5452895634668
 20
90.82497976648038
 30
0.0
 10
127.6028067589366
 20
90.73767021203602
 30
0.0
 10
127.6848515572289
 20
90.56773637852028
 30
0.0
 10
127.7090006660777
 20
90.48583403664912
 30
0.0
 10
127.7090006660777
 20
90.40878016281322
 30
0.0
  0
SPLINE
  5
E3
330
1F
100
AcDbEntity
  8
0
  6
Continuous
 62
     7
370
    15
100
AcDbSpline
210
0.0
220
0.0
230
1.0
 70
     8
 71
     3
 72
    18
 73
    14
 74
     0
 42
0.00000001
 43
0.00000001
 40
0.0
 40
0.0
 40
0.0
 40
0.0
 40
0.0625000000000014
 40
0.0625000000000014
 40
0.1250000000000028
 40
0.1250000000000028
 40
0.2500000000000038
 40
0.2500000000000038
 40
0.5000000000000026
 40
0.5000000000000026
 40
0.7500000000000013
 40
0.7500000000000013
 40
1.0
 40
1.0
 40
1.0
 40
1.0
 10
126.3090006660777
 20
92.20783965629248
 30
0.0
 10
126.3455728764281
 20
92.21161705981993
 30
0.0
 10
126.3842233498635
 20
92.2110600319368
 30
0.0
 10
126.4583148435774
 20
92.20100082677493
 30
0.0
 10
126.4936651373315
 20
92.19164694535037
 30
0.0
 10
126.5882594347209
 20
92.15726251891657
 30
0.0
 10
126.6383976078599
 20
92.12655078425374
 30
0.0
 10
126.767590879441
 20
92.03062147421572
 30
0.0
 10
126.8258710241822
 20
91.96210598009844
 30
0.0
 10
126.9260661206057
 20
91.82553403016583
 30
0.0
 10
126.9660813720523
 20
91.75676912766292
 30
0.0
 10
127.0344807928701
 20
91.62173369855526
 30
0.0
 10
127.062842516732
 20
91.5551156725021
 30
0.0
 10
127.0873964293379
 20
91.48955720480589
 30
0.0
  0
SPLINE
  5
E4
330
1F
100
AcDbEntity
  8
0
  6
Continuous
 62
     7
370
    15
100
AcDbSpline
210
0.0
220
0.0
230
1.0
 70
     8
 71
     3
 72
    10
 73
     6
 74
     0
 42
0.00000001
 43
0.00000001
 40
0.0
 40
0.0
 40
0.0
 40
0.0
 40
0.5
 40
0.5
 40
1.0
 40
1.0
 40
1.0
 40
1.0
 10
122.3953988049558
 20
91.71164599992088
 30
0.0
 10
123.0230264606631
 20
91.81491955865647
 30
0.0
 10
123.6742272056945
 20
91.90374467040802
 30
0.0
 10
124.9829319097068
 20
92.06585237727835
 30
0.0
 10
125.643976346998
 20
92.13915184156492
 30
0.0
 10
126.3090006660776
 20
92.20783965629262
 30
0.0
  0
SPLINE
  5
E5
330
1F
100
AcDbEntity
  8
0
  6
Continuous
 62
     7
370
    15
100
AcDbSpline
210
0.0
220
0.0
230
1.0
 70
     8
 71
     3
 72
    14
 73
    10
 74
     0
 42
0.00000001
 43
0.00000001
 40
0.0
 40
0.0
 40
0.0
 40
0.0
 40
0.5000000000000012
 40
0.5000000000000012
 40
0.7500000000000004
 40
0.7500000000000004
 40
0.8750000000000002
 40
0.8750000000000002
 40
1.0
 40
1.0
 40
1.0
 40
1.0
 10
118.7590006660777
 20
91.54729686356156
 30
0.0
 10
119.375077569833
 20
91.5530229837907
 30
0.0
 10
119.9892095659489
 20
91.56291334919273
 30
0.0
 10
120.9031061964625
 20
91.59354831686251
 30
0.0
 10
121.2065451240101
 20
91.60634177450049
 30
0.0
 10
121.6576817396476
 20
91.63426760245989
 30
0.0
 10
121.8073879891901
 20
91.64503722261965
 30
0.0
 10
122.1042291254382
 20
91.67216993821918
 30
0.0
 10
122.2516146779414
 20
91.68798691104642
 30
0.0
 10
122.3953988049557
 20
91.71164599992088
 30
0.0
  0
SPLINE
  5
E6
330
1F
100
AcDbEntity
  8
0
  6
Continuous
 62
     7
370
    15
100
AcDbSpline
210
0.0
220
0.0
230
1.0
 70
     8
 71
     3
 72
     8
 73
     4
 74
     0
 42
0.00000001
 43
0.00000001
 40
0.0000005954826279
 40
0.0000005954826279
 40
0.0000005954826279
 40
0.0000005954826279
 40
0.0000302093805348
 40
0.0000302093805348
 40
0.0000302093805348
 40
0.0000302093805348
 10
118.7489557356682
 20
91.55911199321345
 30
0.0
 10
118.7522717629883
 20
91.55516521361766
 30
0.0
 10
118.7556203143806
 20
91.55122682248773
 30
0.0
 10
118.7590006660777
 20
91.54729686356156
 30
0.0
  0
SPLINE
  5
E7
330
1F
100
AcDbEntity
  8
0
  6
Continuous
 62
     7
370
    15
100
AcDbSpline
210
0.0
220
0.0
230
1.0
 70
     8
 71
     3
 72
     8
 73
     4
 74
     0
 42
0.00000001
 43
0.00000001
 40
0.0000005099763573
 40
0.0000005099763573
 40
0.0000005099763573
 40
0.0000005099763573
 40
0.0000262827998699
 40
0.0000262827998699
 40
0.0000262827998699
 40
0.0000262827998699
 10
118.7590006660777
 20
133.2238661874842
 30
0.0
 10
118.7556319268499
 20
133.2205445185283
 30
0.0
 10
118.7522834738708
 20
133.2172165612494
 30
0.0
 10
118.7489557356595
 20
133.2138823143767
 30
0.0
  0
SPLINE
  5
E8
330
1F
100
AcDbEntity
  8
0
  6
Continuous
 62
     7
370
    15
100
AcDbSpline
210
0.0
220
0.0
230
1.0
 70
     8
 71
     3
 72
    10
 73
     6
 74
     0
 42
0.00000001
 43
0.00000001
 40
0.0
 40
0.0
 40
0.0
 40
0.0
 40
0.5
 40
0.5
 40
1.0
 40
1.0
 40
1.0
 40
1.0
 10
122.3090006660777
 20
133.1770158139169
 30
0.0
 10
121.7214151189871
 20
133.1980813341533
 30
0.0
 10
121.1306687255267
 20
133.2088398200255
 30
0.0
 10
119.9466495602278
 20
133.2222046005612
 30
0.0
 10
119.3532355720224
 20
133.2243472432257
 30
0.0
 10
118.7590006660777
 20
133.2238661874842
 30
0.0
  0
SPLINE
  5
E9
330
1F
100
AcDbEntity
  8
0
  6
Continuous
 62
     7
370
    15
100
AcDbSpline
210
0.0
220
0.0
230
1.0
 70
     8
 71
     3
 72
    18
 73
    14
 74
     0
 42
0.00000001
 43
0.00000001
 40
0.0
 40
0.0
 40
0.0
 40
0.0
 40
0.2500000000000005
 40
0.2500000000000005
 40
0.500000000000001
 40
0.500000000000001
 40
0.7500000000000016
 40
0.7500000000000016
 40
0.8750000000000008
 40
0.8750000000000008
 40
0.9375000000000004
 40
0.9375000000000004
 40
1.0
 40
1.0
 40
1.0
 40
1.0
 10
123.7090006660777
 20
134.1980360944521
 30
0.0
 10
123.7090006660777
 20
134.1148291855949
 30
0.0
 10
123.6731515661394
 20
134.0260925302813
 30
0.0
 10
123.5482798301055
 20
133.8439673397211
 30
0.0
 10
123.4578794124576
 20
133.7488372910945
 30
0.0
 10
123.2356367577154
 20
133.5596557819702
 30
0.0
 10
123.1058719712696
 20
133.4647106138754
 30
0.0
 10
122.8652345139581
 20
133.3264319062955
 30
0.0
 10
122.7774672158207
 20
133.2807214729931
 30
0.0
 10
122.6229431286138
 20
133.2228981677717
 30
0.0
 10
122.5663322425591
 20
133.2051834037338
 30
0.0
 10
122.4422882116525
 20
133.1806441005009
 30
0.0
 10
122.3745735366343
 20
133.1746649619626
 30
0.0
 10
122.3090006660777
 20
133.1770158139169
 30
0.0
  0
LINE
  5
EA
330
1F
100
AcDbEntity
  8
0
  6
Continuous
 62
     7
370
    15
100
AcDbLine
 10
123.7090006661
 20
134.1980360945
 30
0.0
 11
123.7090006661
 21
135.3819745143
 31
0.0
  0
SPLINE
  5
EB
330
1F
100
AcDbEntity
  8
0
  6
Continuous
 62
     7
370
    15
100
AcDbSpline
210
0.0
220
0.0
230
1.0
 70
     8
 71
     3
 72
    18
 73
    14
 74
     0
 42
0.00000001
 43
0.00000001
 40
0.0
 40
0.0
 40
0.0
 40
0.0
 40
0.0010671296451821
 40
0.1270947795731582
 40
0.2524053457512664
 40
0.3766468878986943
 40
0.4391415999050648
 40
0.5008278021400229
 40
0.5624255708817563
 40
0.62531624391613
 40
0.749998514470681
 40
0.8752758950341306
 40
1.0
 40
1.0
 40
1.0
 40
1.0
 10
136.2793015061504
 20
88.69658939917277
 30
0.0
 10
136.2783896735119
 20
88.69647462063614
 30
0.0
 10
136.169790714875
 20
88.68280453576988
 30
0.0
 10
136.5574317825248
 20
88.73372403638596
 30
0.0
 10
137.4233964643599
 20
88.83330720943228
 30
0.0
 10
138.6238003891295
 20
88.90243109257591
 30
0.0
 10
139.6813763036182
 20
88.90638332171491
 30
0.0
 10
140.5085103905283
 20
88.87889438325944
 30
0.0
 10
141.3337822581639
 20
88.8203542068523
 30
0.0
 10
142.3881474781614
 20
88.70683304711551
 30
0.0
 10
143.5499837596344
 20
88.5236822228679
 30
0.0
 10
144.5022185410177
 20
88.31907901323282
 30
0.0
 10
144.6279236018256
 20
88.28979366245679
 30
0.0
 10
144.6906370339708
 20
88.2751833926161
 30
0.0
  0
SPLINE
  5
EC
330
1F
100
AcDbEntity
  8
0
  6
Continuous
 62
     7
370
    15
100
AcDbSpline
210
0.0
220
0.0
230
1.0
 70
     8
 71
     3
 72
    18
 73
    14
 74
     0
 42
0.00000001
 43
0.00000001
 40
0.0
 40
0.0
 40
0.0
 40
0.0
 40
0.1248907792210129
 40
0.2505384020341703
 40
0.3748721840485288
 40
0.4374907653352098
 40
0.4990776265894369
 40
0.5607931536355756
 40
0.6233901338664933
 40
0.7478191038417351
 40
0.8731940995934953
 40
0.9991614644710074
 40
1.0
 40
1.0
 40
1.0
 40
1.0
 10
144.6904182684469
 20
136.4326082710078
 30
0.0
 10
144.6266775157353
 20
136.4179469784097
 30
0.0
 10
144.4988097385588
 20
136.3885355451382
 30
0.0
 10
143.5468105174984
 20
136.1835824410758
 30
0.0
 10
142.3862668122941
 20
136.0003186652647
 30
0.0
 10
141.3340023602062
 20
135.8872910730157
 30
0.0
 10
140.5097752451373
 20
135.8290274254745
 30
0.0
 10
139.6821714756182
 20
135.8015810374705
 30
0.0
 10
138.6233542831329
 20
135.8055658433995
 30
0.0
 10
137.421135585099
 20
135.8746553197809
 30
0.0
 10
136.5559516454116
 20
135.9742815363379
 30
0.0
 10
136.1698112238814
 20
136.0250976099375
 30
0.0
 10
136.2778827646617
 20
136.011425429875
 30
0.0
 10
136.278597414582
 20
136.0113350191867
 30
0.0
  0
SPLINE
  5
ED
330
1F
100
AcDbEntity
  8
0
  6
Continuous
 62
     7
370
    15
100
AcDbSpline
210
0.0
220
0.0
230
1.0
 70
     8
 71
     3
 72
    10
 73
     6
 74
     0
 42
0.00000001
 43
0.00000001
 40
0.0
 40
0.0
 40
0.0
 40
0.0
 40
0.5
 40
0.5
 40
1.0
 40
1.0
 40
1.0
 40
1.0
 10
117.6090006660773
 20
92.70076789713627
 30
0.0
 10
117.6090006660772
 20
92.68725137126852
 30
0.0
 10
117.6143202267055
 20
92.68308059891122
 30
0.0
 10
117.6274484589871
 20
92.7012116422988
 30
0.0
 10
117.6351411136411
 20
92.72412006736073
 30
0.0
 10
117.6392782816863
 20
92.76384086186232
 30
0.0
  0
LINE
  5
EE
330
1F
100
AcDbEntity
  8
0
  6
Continuous
 62
     7
370
    15
100
AcDbLine
 10
117.6090006661
 20
92.7007678971
 30
0.0
 11
117.6090006661
 21
132.0446061686
 31
0.0
  0
SPLINE
  5
EF
330
1F
100
AcDbEntity
  8
0
  6
Continuous
 62
     7
370
    15
100
AcDbSpline
210
0.0
220
0.0
230
1.0
 70
     8
 71
     3
 72
    10
 73
     6
 74
     0
 42
0.00000001
 43
0.00000001
 40
0.0
 40
0.0
 40
0.0
 40
0.0
 40
0.5
 40
0.5
 40
1.0
 40
1.0
 40
1.0
 40
1.0
 10
117.6716640408011
 20
132.0284809668699
 30
0.0
 10
117.6627597516924
 20
132.0742224860831
 30
0.0
 10
117.6462443714994
 20
132.0914133255521
 30
0.0
 10
117.6191364254378
 20
132.0910900486163
 30
0.0
 10
117.6090006660777
 20
132.0732125063199
 30
0.0
 10
117.6090006660777
 20
132.0446061685673
 30
0.0
  0
SPLINE
  5
F0
330
1F
100
AcDbEntity
  8
0
  6
Continuous
 62
     7
370
    15
100
AcDbSpline
210
0.0
220
0.0
230
1.0
 70
     8
 71
     3
 72
    26
 73
    22
 74
     0
 42
0.00000001
 43
0.00000001
 40
0.0
 40
0.0
 40
0.0
 40
0.0
 40
0.2500000000000008
 40
0.2500000000000008
 40
0.375000000000001
 40
0.375000000000001
 40
0.4374999999999987
 40
0.4374999999999987
 40
0.4687499999999971
 40
0.4687499999999971
 40
0.4999999999999954
 40
0.4999999999999954
 40
0.5312499999999938
 40
0.5312499999999938
 40
0.5624999999999921
 40
0.5624999999999921
 40
0.624999999999993
 40
0.624999999999993
 40
0.7499999999999948
 40
0.7499999999999948
 40
1.0
 40
1.0
 40
1.0
 40
1.0
 10
118.4331543121822
 20
132.7440477556869
 30
0.0
 10
118.3945537893137
 20
132.6262730593315
 30
0.0
 10
118.3482567867594
 20
132.5018833731696
 30
0.0
 10
118.2543174383255
 20
132.2966640408161
 30
0.0
 10
118.219005971412
 20
132.2250911743697
 30
0.0
 10
118.1528259956664
 20
132.1091379417692
 30
0.0
 10
118.1282876289982
 20
132.068553406959
 30
0.0
 10
118.0849148834443
 20
132.0044117250872
 30
0.0
 10
118.0694064820191
 20
131.9825452998021
 30
0.0
 10
118.0343638374321
 20
131.9369510314589
 30
0.0
 10
118.0148135467123
 20
131.9132807404916
 30
0.0
 10
117.9728862663418
 20
131.8686641811516
 30
0.0
 10
117.9502341561101
 20
131.8477841686338
 30
0.0
 10
117.9092604420235
 20
131.816910754883
 30
0.0
 10
117.8916611421282
 20
131.8070718850506
 30
0.0
 10
117.847034156272
 20
131.7880822693544
 30
0.0
 10
117.8264749336187
 20
131.787757944701
 30
0.0
 10
117.775349494122
 20
131.7969813855772
 30
0.0
 10
117.7544380811335
 20
131.8182282817941
 30
0.0
 10
117.7029881735725
 20
131.8921971606249
 30
0.0
 10
117.685322874268
 20
131.9583152539396
 30
0.0
 10
117.6716640408011
 20
132.0284809668699
 30
0.0
  0
SPLINE
  5
F1
330
1F
100
AcDbEntity
  8
0
  6
Continuous
 62
     7
370
    15
100
AcDbSpline
210
0.0
220
0.0
230
1.0
 70
     8
 71
     3
 72
    10
 73
     6
 74
     0
 42
0.00000001
 43
0.00000001
 40
0.0
 40
0.0
 40
0.0
 40
0.0
 40
0.5
 40
0.5
 40
1.0
 40
1.0
 40
1.0
 40
1.0
 10
118.7489557356595
 20
133.2138823143767
 30
0.0
 10
118.6813964807412
 20
133.146190921567
 30
0.0
 10
118.6177598254047
 20
133.0714837568134
 30
0.0
 10
118.5075390708329
 20
132.9125176243867
 30
0.0
 10
118.4607227776103
 20
132.8281623583787
 30
0.0
 10
118.4331543121822
 20
132.7440477556869
 30
0.0
  0
SPLINE
  5
F2
330
1F
100
AcDbEntity
  8
0
  6
Continuous
 62
     7
370
    15
100
AcDbSpline
210
0.0
220
0.0
230
1.0
 70
     8
 71
     3
 72
     8
 73
     4
 74
     0
 42
0.00000001
 43
0.00000001
 40
0.0
 40
0.0
 40
0.0
 40
0.0
 40
1.0
 40
1.0
 40
1.0
 40
1.0
 10
118.5479102362769
 20
91.91000611912351
 30
0.0
 10
118.5836238946468
 20
91.78677461386371
 30
0.0
 10
118.6592919335951
 20
91.66583103691673
 30
0.0
 10
118.7489557356682
 20
91.55911199321346
 30
0.0
  0
SPLINE
  5
F3
330
1F
100
AcDbEntity
  8
0
  6
Continuous
 62
     7
370
    15
100
AcDbSpline
210
0.0
220
0.0
230
1.0
 70
     8
 71
     3
 72
    26
 73
    22
 74
     0
 42
0.00000001
 43
0.00000001
 40
0.0
 40
0.0
 40
0.0
 40
0.0
 40
0.2499999999999959
 40
0.2499999999999959
 40
0.3749999999999939
 40
0.3749999999999939
 40
0.4374999999999937
 40
0.4374999999999937
 40
0.4687499999999938
 40
0.4687499999999938
 40
0.4999999999999939
 40
0.4999999999999939
 40
0.5312499999999939
 40
0.5312499999999939
 40
0.562499999999994
 40
0.562499999999994
 40
0.6249999999999947
 40
0.6249999999999947
 40
0.749999999999996
 40
0.749999999999996
 40
1.0
 40
1.0
 40
1.0
 40
1.0
 10
117.6392782816864
 20
92.76384086186223
 30
0.0
 10
117.6500023150789
 20
92.8668019023512
 30
0.0
 10
117.6647353056734
 20
92.96580059183225
 30
0.0
 10
117.7170888649204
 20
93.08439627189738
 30
0.0
 10
117.73879414764
 20
93.12010657184616
 30
0.0
 10
117.7976496550054
 20
93.14508600466787
 30
0.0
 10
117.8211118888526
 20
93.14947145243146
 30
0.0
 10
117.8772332655132
 20
93.12971861898733
 30
0.0
 10
117.9000205756438
 20
93.11806222817695
 30
0.0
 10
117.955273128175
 20
93.07628187873975
 30
0.0
 10
117.9866793609157
 20
93.04601029136384
 30
0.0
 10
118.0416131815362
 20
92.98436789244985
 30
0.0
 10
118.0660369997356
 20
92.95292624014303
 30
0.0
 10
118.1094521057229
 20
92.89319140272927
 30
0.0
 10
118.1290266682911
 20
92.86402639285666
 30
0.0
 10
118.1826593522392
 20
92.78019111712356
 30
0.0
 10
118.2124367002913
 20
92.72815849914734
 30
0.0
 10
118.2939707602642
 20
92.57709282517995
 30
0.0
 10
118.3372135549382
 20
92.48390178330921
 30
0.0
 10
118.4502681445929
 20
92.2195152443148
 30
0.0
 10
118.5042791420721
 20
92.06055707526495
 30
0.0
 10
118.5479102362761
 20
91.91000611912408
 30
0.0
  0
LINE
  5
F4
330
1F
100
AcDbEntity
  8
0
  6
Continuous
 62
     7
370
    15
100
AcDbLine
 10
169.4190006661
 20
132.4897950536
 30
0.0
 11
169.4190006661
 21
133.4040720897
 31
0.0
  0
SPLINE
  5
F5
330
1F
100
AcDbEntity
  8
0
  6
Continuous
 62
     7
370
    15
100
AcDbSpline
210
0.0
220
0.0
230
1.0
 70
     8
 71
     3
 72
     8
 73
     4
 74
     0
 42
0.00000001
 43
0.00000001
 40
0.0
 40
0.0
 40
0.0
 40
0.0
 40
1.0
 40
1.0
 40
1.0
 40
1.0
 10
169.4190006660777
 20
133.4040720896724
 30
0.0
 10
169.8982788166676
 20
134.545083319525
 30
0.0
 10
170.3938466558075
 20
135.6814677302929
 30
0.0
 10
170.9009334975668
 20
136.8126180844565
 30
0.0
  0
LINE
  5
F6
330
1F
100
AcDbEntity
  8
0
  6
Continuous
 62
     7
370
    15
100
AcDbLine
 10
170.9009334976
 20
136.8126180845
 30
0.0
 11
174.8590006661
 21
136.8126180845
 31
0.0
  0
SPLINE
  5
F7
330
1F
100
AcDbEntity
  8
0
  6
Continuous
 62
     7
370
    15
100
AcDbSpline
210
0.0
220
0.0
230
1.0
 70
     8
 71
     3
 72
    12
 73
     8
 74
     0
 42
0.00000001
 43
0.00000001
 40
0.0
 40
0.0
 40
0.0
 40
0.0
 40
0.2499999999999987
 40
0.2499999999999987
 40
0.4999999999999973
 40
0.4999999999999973
 40
1.0
 40
1.0
 40
1.0
 40
1.0
 10
174.8590006660777
 20
136.8126180844565
 30
0.0
 10
174.9502003879034
 20
136.8126180844565
 30
0.0
 10
175.0407953970394
 20
136.7843983858687
 30
0.0
 10
175.194208123486
 20
136.6899553786206
 30
0.0
 10
175.2594169908097
 20
136.6236684019152
 30
0.0
 10
175.4122015201496
 20
136.3980435786269
 30
0.0
 10
175.4590006660777
 20
136.2156173155944
 30
0.0
 10
175.4590006660777
 20
136.0348806833475
 30
0.0
  0
LINE
  5
F8
330
1F
100
AcDbEntity
  8
0
  6
Continuous
 62
     7
370
    15
100
AcDbLine
 10
175.4590006661
 20
136.0348806833
 30
0.0
 11
175.4590006661
 21
132.2039284221
 31
0.0
  0
LINE
  5
F9
330
1F
100
AcDbEntity
  8
0
  6
Continuous
 62
     7
370
    15
100
AcDbLine
 10
174.8590006661
 20
142.8211238953
 30
0.0
 11
170.9009334976
 21
142.8211238953
 31
0.0
  0
LINE
  5
FA
330
1F
100
AcDbEntity
  8
0
  6
Continuous
 62
     7
370
    15
100
AcDbLine
 10
170.9009334976
 20
136.8126180845
 30
0.0
 11
170.9009334976
 21
142.8211238953
 31
0.0
  0
SPLINE
  5
FB
330
1F
100
AcDbEntity
  8
0
  6
Continuous
 62
     7
370
    15
100
AcDbSpline
210
0.0
220
0.0
230
1.0
 70
     8
 71
     3
 72
    10
 73
     6
 74
     0
 42
0.00000001
 43
0.00000001
 40
0.0
 40
0.0
 40
0.0
 40
0.0
 40
0.5
 40
0.5
 40
1.0
 40
1.0
 40
1.0
 40
1.0
 10
175.4590006660777
 20
142.200368745853
 30
0.0
 10
175.4590006660777
 20
142.3607740122038
 30
0.0
 10
175.3967628349708
 20
142.5198358251924
 30
0.0
 10
175.1776279112283
 20
142.7507482908227
 30
0.0
 10
175.0200392162364
 20
142.8211238952534
 30
0.0
 10
174.8590006660777
 20
142.8211238952534
 30
0.0
  0
LINE
  5
FC
330
1F
100
AcDbEntity
  8
0
  6
Continuous
 62
     7
370
    15
100
AcDbLine
 10
175.4590006661
 20
136.0348806833
 30
0.0
 11
175.4590006661
 21
142.2003687459
 31
0.0
  0
SPLINE
  5
FD
330
1F
100
AcDbEntity
  8
0
  6
Continuous
 62
     7
370
    15
100
AcDbSpline
210
0.0
220
0.0
230
1.0
 70
     8
 71
     3
 72
     8
 73
     4
 74
     0
 42
0.00000001
 43
0.00000001
 40
0.0
 40
0.0
 40
0.0
 40
0.0
 40
1.0
 40
1.0
 40
1.0
 40
1.0
 10
170.9009334975667
 20
142.8211238952534
 30
0.0
 10
170.4057934682025
 20
141.9344442470731
 30
0.0
 10
169.9117107629235
 20
141.0471816113871
 30
0.0
 10
169.4190006660777
 20
140.1591626132607
 30
0.0
  0
LINE
  5
FE
330
1F
100
AcDbEntity
  8
0
  6
Continuous
 62
     7
370
    15
100
AcDbLine
 10
169.4190006661
 20
133.4040720897
 30
0.0
 11
169.4190006661
 21
140.1591626133
 31
0.0
  0
SPLINE
  5
FF
330
1F
100
AcDbEntity
  8
0
  6
Continuous
 62
     7
370
    15
100
AcDbSpline
210
0.0
220
0.0
230
1.0
 70
     8
 71
     3
 72
     8
 73
     4
 74
     0
 42
0.00000001
 43
0.00000001
 40
0.0
 40
0.0
 40
0.0
 40
0.0
 40
1.0
 40
1.0
 40
1.0
 40
1.0
 10
164.1170678345887
 20
136.8126180844565
 30
0.0
 10
164.6241546763479
 20
135.6814677302929
 30
0.0
 10
165.1197225154878
 20
134.545083319525
 30
0.0
 10
165.5990006660777
 20
133.4040720896725
 30
0.0
  0
LINE
  5
100
330
1F
100
AcDbEntity
  8
0
  6
Continuous
 62
     7
370
    15
100
AcDbLine
 10
165.5990006661
 20
133.4040720897
 30
0.0
 11
165.5990006661
 21
132.4897950536
 31
0.0
  0
SPLINE
  5
101
330
1F
100
AcDbEntity
  8
0
  6
Continuous
 62
     7
370
    15
100
AcDbSpline
210
0.0
220
0.0
230
1.0
 70
     8
 71
     3
 72
     8
 73
     4
 74
     0
 42
0.00000001
 43
0.00000001
 40
0.0
 40
0.0
 40
0.0
 40
0.0
 40
1.0
 40
1.0
 40
1.0
 40
1.0
 10
165.5990006660777
 20
140.1591626132607
 30
0.0
 10
165.1062905692319
 20
141.0471816113871
 30
0.0
 10
164.612207863953
 20
141.9344442470731
 30
0.0
 10
164.1170678345887
 20
142.8211238952534
 30
0.0
  0
LINE
  5
102
330
1F
100
AcDbEntity
  8
0
  6
Continuous
 62
     7
370
    15
100
AcDbLine
 10
165.5990006661
 20
133.4040720897
 30
0.0
 11
165.5990006661
 21
140.1591626133
 31
0.0
  0
LINE
  5
103
330
1F
100
AcDbEntity
  8
0
  6
Continuous
 62
     7
370
    15
100
AcDbLine
 10
248.5090006661
 20
128.1812383281
 30
0.0
 11
246.112962594
 21
128.1812383281
 31
0.0
  0
SPLINE
  5
104
330
1F
100
AcDbEntity
  8
0
  6
Continuous
 62
     7
370
    15
100
AcDbSpline
210
0.0
220
0.0
230
1.0
 70
     8
 71
     3
 72
    14
 73
    10
 74
     0
 42
0.00000001
 43
0.00000001
 40
0.0
 40
0.0
 40
0.0
 40
0.0
 40
0.25
 40
0.25
 40
0.5
 40
0.5
 40
0.75
 40
0.75
 40
1.0
 40
1.0
 40
1.0
 40
1.0
 10
246.1129625939515
 20
128.1812383280808
 30
0.0
 10
245.4433026799244
 20
128.1812383280808
 30
0.0
 10
244.7922007470094
 20
128.1663326864123
 30
0.0
 10
243.5271893779263
 20
128.0933450985504
 30
0.0
 10
242.9473065723396
 20
128.0369223172972
 30
0.0
 10
241.8973854440011
 20
127.8503167897177
 30
0.0
 10
241.4548547771284
 20
127.7243697057528
 30
0.0
 10
240.7371129876507
 20
127.3704293242808
 30
0.0
 10
240.4800972075207
 20
127.1507938810885
 30
0.0
 10
240.3174076362171
 20
126.8783605615079
 30
0.0
  0
ELLIPSE
  5
105
330
1F
100
AcDbEntity
  8
0
  6
Continuous
 62
     7
370
    15
100
AcDbEllipse
 10
241.8398221061
 20
112.3539284221
 30
0.0
 11
0.3220561513869598
 21
15.99976859320063
 31
0.0
210
0.0
220
0.0
230
1.0
 40
0.2671959542
 41
0.4382210567924397
 42
2.853754501398434
  0
SPLINE
  5
106
330
1F
100
AcDbEntity
  8
0
  6
Continuous
 62
     7
370
    15
100
AcDbSpline
210
0.0
220
0.0
230
1.0
 70
     8
 71
     3
 72
    20
 73
    16
 74
     0
 42
0.00000001
 43
0.00000001
 40
0.0
 40
0.0
 40
0.0
 40
0.0
 40
0.2500000000000001
 40
0.2500000000000001
 40
0.3750000000000001
 40
0.3750000000000001
 40
0.5000000000000001
 40
0.5000000000000001
 40
0.625
 40
0.625
 40
0.75
 40
0.75
 40
0.8750000000000001
 40
0.8750000000000001
 40
1.0
 40
1.0
 40
1.0
 40
1.0
 10
240.3174076362171
 20
97.0368216413919
 30
0.0
 10
240.4697811275943
 20
96.86099942403877
 30
0.0
 10
240.7041963399678
 20
96.72897146747589
 30
0.0
 10
241.1904309797216
 20
96.58057329769213
 30
0.0
 10
241.3730196190704
 20
96.54025538653033
 30
0.0
 10
241.7723002481164
 20
96.47493949659551
 30
0.0
 10
241.9898849551047
 20
96.44967236130701
 30
0.0
 10
242.4620805252228
 20
96.4100444755666
 30
0.0
 10
242.7157946621144
 20
96.39586333852323
 30
0.0
 10
243.2427150416519
 20
96.37538076969423
 30
0.0
 10
243.5179047600169
 20
96.36890910253283
 30
0.0
 10
244.0920162461166
 20
96.36015154617384
 30
0.0
 10
244.3913800598217
 20
96.35789219220038
 30
0.0
 10
244.9931883025124
 20
96.35522309770528
 30
0.0
 10
245.2981770922869
 20
96.35477323480852
 30
0.0
 10
245.6072594722767
 20
96.35454332252606
 30
0.0
  0
LINE
  5
107
330
1F
100
AcDbEntity
  8
0
  6
Continuous
 62
     7
370
    15
100
AcDbLine
 10
245.6034602162
 20
96.3576115699
 30
0.0
 11
245.6072594723
 21
96.3545433225
 31
0.0
  0
LINE
  5
108
330
1F
100
AcDbEntity
  8
0
  6
Continuous
 62
     7
370
    15
100
AcDbLine
 10
248.5090006661
 20
128.3539284221
 30
0.0
 11
248.5090006661
 21
128.1812383281
 31
0.0
  0
ELLIPSE
  5
109
330
1F
100
AcDbEntity
  8
0
  6
Continuous
 62
     7
370
    15
100
AcDbEllipse
 10
239.3039421779
 20
105.8827000187
 30
0.0
 11
-0.08858572008304579
 21
2.32755199684469
 31
0.0
210
0.0
220
0.0
230
0.9999999999999999
 40
0.2575917467
 41
0.0
 42
6.283185307179586
  0
LINE
  5
10A
330
1F
100
AcDbEntity
  8
0
  6
Continuous
 62
     7
370
    15
100
AcDbLine
 10
118.7590006661
 20
91.5414284221
 30
0.0
 11
118.7590006661
 21
91.5472968636
 31
0.0
  0
SPLINE
  5
10B
330
1F
100
AcDbEntity
  8
0
  6
Continuous
 62
     7
370
    15
100
AcDbSpline
210
0.0
220
0.0
230
1.0
 70
     8
 71
     3
 72
     8
 73
     4
 74
     0
 42
0.00000001
 43
0.00000001
 40
0.0
 40
0.0
 40
0.0
 40
0.0
 40
1.0
 40
1.0
 40
1.0
 40
1.0
 10
246.1129625939536
 20
96.81979909693905
 30
0.0
 10
245.9351635238676
 20
96.67437502744535
 30
0.0
 10
245.7666237620576
 20
96.51925301417225
 30
0.0
 10
245.6072594722767
 20
96.35454332252603
 30
0.0
  0
LINE
  5
10C
330
1F
100
AcDbEntity
  8
0
  6
Continuous
 62
     7
370
    15
100
AcDbLine
 10
249.0090006661
 20
128.6814666106
 30
0.0
 11
249.0090006661
 21
128.8539284221
 31
0.0
  0
LINE
  5
10D
330
1F
100
AcDbEntity
  8
0
  6
Continuous
 62
     7
370
    15
100
AcDbLine
 10
248.5090006661
 20
128.1812383281
 30
0.0
 11
249.0090006661
 21
128.6814666106
 31
0.0
  0
ELLIPSE
  5
10E
330
1F
100
AcDbEntity
  8
0
  6
Continuous
 62
     7
370
    15
100
AcDbEllipse
 10
267.1057381453
 20
112.3539284221
 30
0.0
 11
-5.191939617998627
 21
16.49967281822018
 31
0.0
210
0.0
220
0.0
230
1.0
 40
0.0200133476
 41
4.706091478611494
 42
6.421597792022335
  0
LINE
  5
10F
330
1F
100
AcDbEntity
  8
0
  6
Continuous
 62
     7
370
    15
100
AcDbLine
 10
261.9178929109
 20
128.6814666106
 30
0.0
 11
249.0090006661
 21
128.6814666106
 31
0.0
  0
SPLINE
  5
110
330
1F
100
AcDbEntity
  8
0
  6
Continuous
 62
     7
370
    15
100
AcDbSpline
210
0.0
220
0.0
230
1.0
 70
     8
 71
     3
 72
    17
 73
    13
 74
     0
 42
0.00000001
 43
0.00000001
 40
0.0
 40
0.0
 40
0.0
 40
0.0
 40
0.2499999999999947
 40
0.2499999999999947
 40
0.3749999999999955
 40
0.3749999999999955
 40
0.4999999999999963
 40
0.6249999999999971
 40
0.6249999999999971
 40
0.749999999999998
 40
0.749999999999998
 40
1.0
 40
1.0
 40
1.0
 40
1.0
 10
251.7223575081093
 20
97.89871243111288
 30
0.0
 10
251.2447921996451
 20
98.04892139949064
 30
0.0
 10
250.7586982107331
 20
98.13732163650683
 30
0.0
 10
250.0171832649889
 20
98.18024587846324
 30
0.0
 10
249.7662004482719
 20
98.17927272820174
 30
0.0
 10
249.2691952936468
 20
98.14626390527128
 30
0.0
 10
248.7783989657132
 20
98.0827993000025
 30
0.0
 10
248.2996952438969
 20
97.96001756476359
 30
0.0
 10
247.8271567678902
 20
97.80699382185222
 30
0.0
 10
247.5931528858397
 20
97.7147682338362
 30
0.0
 10
246.9189538944522
 20
97.39932569038098
 30
0.0
 10
246.5001940490233
 20
97.13652051738589
 30
0.0
 10
246.1129625939543
 20
96.81979909693716
 30
0.0
  0
LINE
  5
111
330
1F
100
AcDbEntity
  8
0
  6
Continuous
 62
     7
370
    15
100
AcDbLine
 10
261.9178929109
 20
128.6814666106
 30
0.0
 11
270.5337577361
 21
101.4219993536
 31
0.0
  0
LINE
  5
112
330
1F
100
AcDbEntity
  8
0
  6
Continuous
 62
     7
370
    15
100
AcDbLine
 10
263.7166112973
 20
103.5662014464
 30
0.0
 11
263.0132746259
 21
105.7914665072
 31
0.0
  0
ARC
  5
113
330
1F
100
AcDbEntity
  8
0
  6
Continuous
 62
     7
370
    15
100
AcDbCircle
 10
261.5677490624
 20
105.3342490417
 30
0.0
 40
1.516110802579486
100
AcDbArc
 50
17.5520811906
 51
197.3678473289
  0
LINE
  5
114
330
1F
100
AcDbEntity
  8
0
  6
Continuous
 62
     7
370
    15
100
AcDbLine
 10
260.1207607972
 20
104.8816820012
 30
0.0
 11
260.3509176023
 21
104.1534960303
 31
0.0
  0
LINE
  5
115
330
1F
100
AcDbEntity
  8
0
  6
Continuous
 62
     7
370
    15
100
AcDbLine
 10
263.4483407116
 20
94.2105302935
 30
0.0
 11
251.7223575081
 21
97.8987124311
 31
0.0
  0
LINE
  5
116
330
1F
100
AcDbEntity
  8
0
  6
Continuous
 62
     7
370
    15
100
AcDbLine
 10
270.8019967173
 20
101.7560598886
 30
0.0
 11
267.4686413182
 21
112.3539284221
 31
0.0
  0
LINE
  5
117
330
1F
100
AcDbEntity
  8
0
  6
Continuous
 62
     7
370
    15
100
AcDbLine
 10
270.9411649513
 20
101.293857262
 30
0.0
 11
270.8019967172
 21
101.7560598886
 31
0.0
  0
ARC
  5
118
330
1F
100
AcDbEntity
  8
0
  6
Continuous
 62
     7
370
    15
100
AcDbCircle
 10
261.5676205623
 20
105.486029135
 30
0.0
 40
1.249726584934471
100
AcDbArc
 50
17.5520811906
 51
197.3678473289
  0
LINE
  5
119
330
1F
100
AcDbEntity
  8
0
  6
Continuous
 62
     7
370
    15
100
AcDbLine
 10
262.7591639
 20
105.8629124214
 30
0.0
 11
263.4595245401
 21
103.6470631336
 31
0.0
  0
LINE
  5
11A
330
1F
100
AcDbEntity
  8
0
  6
Continuous
 62
     7
370
    15
100
AcDbLine
 10
260.3748715231
 20
105.1129791831
 30
0.0
 11
260.5838955692
 21
104.4516544925
 31
0.0
  0
LINE
  5
11B
330
1F
100
AcDbEntity
  8
0
  6
Continuous
 62
     7
370
    15
100
AcDbLine
 10
260.318118392
 20
105.540263155
 30
0.0
 11
260.3748715231
 21
105.2176138938
 31
0.0
  0
LINE
  5
11C
330
1F
100
AcDbEntity
  8
0
  6
Continuous
 62
     7
370
    15
100
AcDbLine
 10
260.3748715231
 20
105.2176138938
 30
0.0
 11
260.6141548475
 21
104.4605528118
 31
0.0
  0
LINE
  5
11D
330
1F
100
AcDbEntity
  8
0
  6
HIDDEN
 62
     7
370
     0
100
AcDbLine
 10
154.4590006661
 20
80.8539284221
 30
0.0
 11
154.4590006661
 21
80.8698054392
 31
0.0
  0
SPLINE
  5
11E
330
1F
100
AcDbEntity
  8
0
  6
HIDDEN
 62
     7
370
     0
100
AcDbSpline
210
0.0
220
0.0
230
1.0
 70
     8
 71
     3
 72
    30
 73
    26
 74
     0
 42
0.00000001
 43
0.00000001
 40
0.0
 40
0.0
 40
0.0
 40
0.0
 40
0.1249999999999997
 40
0.1249999999999997
 40
0.1874999999999996
 40
0.1874999999999996
 40
0.2499999999999994
 40
0.2499999999999994
 40
0.3749999999999992
 40
0.3749999999999992
 40
0.4374999999999993
 40
0.4374999999999993
 40
0.4999999999999993
 40
0.4999999999999993
 40
0.6249999999999996
 40
0.6249999999999996
 40
0.6874999999999997
 40
0.6874999999999997
 40
0.7499999999999997
 40
0.7499999999999997
 40
0.8124999999999998
 40
0.8124999999999998
 40
0.8749999999999999
 40
0.8749999999999999
 40
1.0
 40
1.0
 40
1.0
 40
1.0
 10
154.4590006660777
 20
80.86980543922675
 30
0.0
 10
154.4590006660777
 20
80.88668435723537
 30
0.0
 10
154.5114182320561
 20
80.91670192206008
 30
0.0
 10
154.6647977119584
 20
80.9795123113332
 30
0.0
 10
154.7284788326262
 20
81.00341621856009
 30
0.0
 10
154.8814337000779
 20
81.05685151100249
 30
0.0
 10
154.9710059988471
 20
81.08645837917004
 30
0.0
 10
155.2722300317003
 20
81.18090807788447
 30
0.0
 10
155.5175450277844
 20
81.2519354717137
 30
0.0
 10
155.9516420088546
 20
81.36594975841946
 30
0.0
 10
156.1083116979583
 20
81.40540500956003
 30
0.0
 10
156.4403048618007
 20
81.4849264523307
 30
0.0
 10
156.6150103907932
 20
81.52486259483148
 30
0.0
 10
157.1646800733847
 20
81.64379899765963
 30
0.0
 10
157.564931036096
 20
81.72196376154349
 30
0.0
 10
158.2185179027335
 20
81.83167320181236
 30
0.0
 10
158.4441940224106
 20
81.86675403852078
 30
0.0
 10
158.9039058435418
 20
81.93199431790039
 30
0.0
 10
159.138959177585
 20
81.96232913394513
 30
0.0
 10
159.619466459884
 20
82.01766751316697
 30
0.0
 10
159.8649199877981
 20
82.04267218972707
 30
0.0
 10
160.3665354126055
 20
82.08655199861775
 30
0.0
 10
160.624027795206
 20
82.10549568338006
 30
0.0
 10
161.4021043116421
 20
82.15121541065025
 30
0.0
 10
161.927266588887
 20
82.16701072584195
 30
0.0
 10
162.4590006660777
 20
82.16701072584195
 30
0.0
  0
LINE
  5
11F
330
1F
100
AcDbEntity
  8
0
  6
HIDDEN
 62
     7
370
     0
100
AcDbLine
 10
162.4590006661
 20
82.1670107258
 30
0.0
 11
164.1170678346
 21
82.1670107258
 31
0.0
  0
LINE
  5
120
330
1F
100
AcDbEntity
  8
0
  6
HIDDEN
 62
     7
370
     0
100
AcDbLine
 10
164.1170678346
 20
142.8211238953
 30
0.0
 11
164.1170678346
 21
82.1670107258
 31
0.0
  0
LINE
  5
121
330
1F
100
AcDbEntity
  8
0
  6
HIDDEN
 62
     7
370
     0
100
AcDbLine
 10
162.4590006661
 20
142.8211238953
 30
0.0
 11
164.1170678346
 21
142.8211238953
 31
0.0
  0
SPLINE
  5
122
330
1F
100
AcDbEntity
  8
0
  6
HIDDEN
 62
     7
370
     0
100
AcDbSpline
210
0.0
220
0.0
230
1.0
 70
     8
 71
     3
 72
    24
 73
    20
 74
     0
 42
0.00000001
 43
0.00000001
 40
0.0
 40
0.0
 40
0.0
 40
0.0
 40
0.0096782392558599
 40
0.063858844759561
 40
0.1665790800528671
 40
0.2187074878800868
 40
0.2715780124103794
 40
0.3753009309578749
 40
0.4279095660942201
 40
0.4812402087660103
 40
0.5342053343802436
 40
0.5875322920461719
 40
0.6420047188767988
 40
0.6968768999773415
 40
0.750051841841272
 40
0.8036099529238485
 40
0.8583965562204044
 40
0.9136164911922317
 40
0.9999999999999999
 40
0.9999999999999999
 40
0.9999999999999999
 40
0.9999999999999999
 10
154.4632048634508
 20
143.8528616702894
 30
0.0
 10
154.461886003106
 20
143.8531962635152
 30
0.0
 10
154.4531839142456
 20
143.8554039726137
 30
0.0
 10
154.5080550182417
 20
143.8414734994641
 30
0.0
 10
154.6601615206917
 20
143.8031013151764
 30
0.0
 10
154.9221550182255
 20
143.7392468175779
 30
0.0
 10
155.2513175455675
 20
143.6612713278752
 30
0.0
 10
155.679908831591
 20
143.5645824556963
 30
0.0
 10
156.1969364733086
 20
143.4571249907083
 30
0.0
 10
156.631653082261
 20
143.3723256619172
 30
0.0
 10
157.108479465713
 20
143.2860939343895
 30
0.0
 10
157.6261105198882
 20
143.2005274233929
 30
0.0
 10
158.1848534692255
 20
143.1176820381753
 30
0.0
 10
158.7747497404974
 20
143.0411252578889
 30
0.0
 10
159.3884150798873
 20
142.9734114232145
 30
0.0
 10
160.0243936104934
 20
142.9158944208459
 30
0.0
 10
160.6871770929225
 20
142.870341568609
 30
0.0
 10
161.499604294509
 20
142.8308069306366
 30
0.0
 10
162.0954885265758
 20
142.8247927656112
 30
0.0
 10
162.4590006660777
 20
142.8211238952534
 30
0.0
  0
SPLINE
  5
123
330
1F
100
AcDbEntity
  8
0
  6
HIDDEN
 62
     7
370
     0
100
AcDbSpline
210
0.0
220
0.0
230
1.0
 70
     8
 71
     3
 72
    76
 73
    72
 74
     0
 42
0.00000001
 43
0.00000001
 40
-0.03125
 40
-0.03125
 40
0.0
 40
0.0
 40
0.0312500000000001
 40
0.0312500000000001
 40
0.0468750000000002
 40
0.0468750000000002
 40
0.0625000000000003
 40
0.0625000000000003
 40
0.0937500000000004
 40
0.0937500000000004
 40
0.1250000000000004
 40
0.1250000000000004
 40
0.1562500000000005
 40
0.1562500000000005
 40
0.1875000000000006
 40
0.1875000000000006
 40
0.2187500000000007
 40
0.2187500000000007
 40
0.2500000000000008
 40
0.2500000000000008
 40
0.2812500000000008
 40
0.2812500000000008
 40
0.3125000000000008
 40
0.3125000000000008
 40
0.3281250000000008
 40
0.3281250000000008
 40
0.3437500000000007
 40
0.3437500000000007
 40
0.3750000000000007
 40
0.3750000000000007
 40
0.4062500000000006
 40
0.4062500000000006
 40
0.4375000000000005
 40
0.4375000000000005
 40
0.4687500000000004
 40
0.4687500000000004
 40
0.5000000000000003
 40
0.5000000000000003
 40
0.5312500000000002
 40
0.5312500000000002
 40
0.5625000000000001
 40
0.5625000000000001
 40
0.5937500000000001
 40
0.5937500000000001
 40
0.625
 40
0.625
 40
0.6562499999999999
 40
0.6562499999999999
 40
0.6874999999999998
 40
0.6874999999999998
 40
0.7031249999999998
 40
0.7031249999999998
 40
0.7187499999999998
 40
0.7187499999999998
 40
0.7499999999999998
 40
0.7499999999999998
 40
0.7812499999999998
 40
0.7812499999999998
 40
0.8124999999999998
 40
0.8124999999999998
 40
0.8437499999999999
 40
0.8437499999999999
 40
0.8749999999999999
 40
0.8749999999999999
 40
0.9062499999999999
 40
0.9062499999999999
 40
0.9374999999999999
 40
0.9374999999999999
 40
0.96875
 40
0.96875
 40
1.0
 40
1.0
 40
1.03125
 40
1.03125
 10
151.5090006660777
 20
112.6848124178832
 30
0.0
 10
151.5090006660777
 20
112.0230444262951
 30
0.0
 10
151.5415211438621
 20
111.6977932581992
 30
0.0
 10
151.6370143881441
 20
111.2179965373101
 30
0.0
 10
151.6766892235553
 20
111.0594208535164
 30
0.0
 10
151.7720758368909
 20
110.7450384677234
 30
0.0
 10
151.8280200783015
 20
110.5889188441392
 30
0.0
 10
152.0163831017512
 20
110.1349782842373
 30
0.0
 10
152.1699953781696
 20
109.8479980382303
 30
0.0
 10
152.5328231719537
 20
109.304884881491
 30
0.0
 10
152.7436582735362
 20
109.048145589947
 30
0.0
 10
153.2041578435536
 20
108.5877609557161
 30
0.0
 10
153.4555207844714
 20
108.3809841389622
 30
0.0
 10
154.0018674788249
 20
108.0154599312988
 30
0.0
 10
154.2920821185429
 20
107.860460372584
 30
0.0
 10
154.8934689348445
 20
107.6109293514898
 30
0.0
 10
155.2090986279349
 20
107.5146510778011
 30
0.0
 10
155.8547390292145
 20
107.3860020705581
 30
0.0
 10
156.1794947850278
 20
107.3541158114415
 30
0.0
 10
156.8327948154192
 20
107.3537426639308
 30
0.0
 10
157.1646671562499
 20
107.3863221501768
 30
0.0
 10
157.8063183898536
 20
107.5140960548832
 30
0.0
 10
158.1182433067866
 20
107.6086284991803
 30
0.0
 10
158.5727329073036
 20
107.796748093719
 30
0.0
 10
158.7225962151375
 20
107.8676310749398
 30
0.0
 10
159.0116814490602
 20
108.0222476812742
 30
0.0
 10
159.1515423633682
 20
108.1061702800121
 30
0.0
 10
159.5574188070725
 20
108.3773658034878
 30
0.0
 10
159.810456953562
 20
108.584465808929
 30
0.0
 10
160.2763565097255
 20
109.0500682619863
 30
0.0
 10
160.4828625842212
 20
109.3019871143736
 30
0.0
 10
160.8449681476209
 20
109.8428907303745
 30
0.0
 10
161.0018272614361
 20
110.1354335731259
 30
0.0
 10
161.2527773782987
 20
110.7403012298834
 30
0.0
 10
161.3475884776297
 20
111.0519480613301
 30
0.0
 10
161.4760103404228
 20
111.6937013665517
 30
0.0
 10
161.508873626914
 20
112.025429185431
 30
0.0
 10
161.5091269530226
 20
112.6785489506919
 30
0.0
 10
161.4775709524533
 20
113.0034821570349
 30
0.0
 10
161.3493297310289
 20
113.650009163488
 30
0.0
 10
161.2535236823705
 20
113.9650171173489
 30
0.0
 10
161.0043901712764
 20
114.5669757854946
 30
0.0
 10
160.8489300495817
 20
114.8584519557701
 30
0.0
 10
160.4844757952219
 20
115.4040468922668
 30
0.0
 10
160.2780428877861
 20
115.6555240072719
 30
0.0
 10
159.8175738052682
 20
116.1168470313267
 30
0.0
 10
159.5607767972123
 20
116.327970332273
 30
0.0
 10
159.0187315833778
 20
116.6907011139891
 30
0.0
 10
158.7319620034423
 20
116.8445900173747
 30
0.0
 10
158.2776548275567
 20
117.0335397440667
 30
0.0
 10
158.1215145267832
 20
117.0896125400864
 30
0.0
 10
157.8076685654371
 20
117.1851153056192
 30
0.0
 10
157.6492817777433
 20
117.2248959486467
 30
0.0
 10
157.1698055377999
 20
117.320778485772
 30
0.0
 10
156.843565593373
 20
117.3536539337715
 30
0.0
 10
156.1826909960951
 20
117.3541995029425
 30
0.0
 10
155.8575546487502
 20
117.3220329843291
 30
0.0
 10
155.2174721482637
 20
117.1952504463419
 30
0.0
 10
154.8991512241959
 20
117.0989826925506
 30
0.0
 10
154.2942349453568
 20
116.8485883711254
 30
0.0
 10
154.0070860317053
 20
116.6952742094039
 30
0.0
 10
153.4631344780323
 20
116.332566285384
 30
0.0
 10
153.2064885283056
 20
116.1221272126502
 30
0.0
 10
152.7458979748927
 20
115.6622462243739
 30
0.0
 10
152.5387490889019
 20
115.4109644246811
 30
0.0
 10
152.1722178454886
 20
114.8640442509411
 30
0.0
 10
152.017533657984
 20
114.5749040993248
 30
0.0
 10
151.7674340046458
 20
113.9736674254055
 30
0.0
 10
151.6707472301528
 20
113.6576917317648
 30
0.0
 10
151.5415256551965
 20
113.0117179736682
 30
0.0
 10
151.5090006660777
 20
112.6848124178832
 30
0.0
 10
151.5090006660777
 20
112.0230444262951
 30
0.0
  0
LINE
  5
124
330
1F
100
AcDbEntity
  8
0
  6
HIDDEN
 62
     7
370
     0
100
AcDbLine
 10
149.5090006661
 20
143.5539284221
 30
0.0
 11
149.5090006661
 21
81.1539284221
 31
0.0
  0
SPLINE
  5
125
330
1F
100
AcDbEntity
  8
0
  6
HIDDEN
 62
     7
370
     0
100
AcDbSpline
210
0.0
220
0.0
230
1.0
 70
     8
 71
     3
 72
    10
 73
     6
 74
     0
 42
0.00000001
 43
0.00000001
 40
0.0
 40
0.0
 40
0.0
 40
0.0
 40
0.5
 40
0.5
 40
1.0
 40
1.0
 40
1.0
 40
1.0
 10
165.69667546841
 20
85.95392842208912
 30
0.0
 10
165.6645202807881
 20
85.89164237657305
 30
0.0
 10
165.6398640495938
 20
85.82511195170382
 30
0.0
 10
165.6070512926683
 20
85.68825332134138
 30
0.0
 10
165.5990006660777
 20
85.61919572616306
 30
0.0
 10
165.5990006660777
 20
85.54953279375977
 30
0.0
  0
SPLINE
  5
126
330
1F
100
AcDbEntity
  8
0
  6
HIDDEN
 62
     7
370
     0
100
AcDbSpline
210
0.0
220
0.0
230
1.0
 70
    24
 71
     3
 72
    10
 73
     6
 74
     0
 42
0.00000001
 43
0.00000001
 40
0.0
 40
0.0
 40
0.0
 40
0.0
 40
0.5
 40
0.5
 40
1.0
 40
1.0
 40
1.0
 40
1.0
 10
165.5990006660778
 20
132.2039284220891
 30
0.0
 10
165.5990006660778
 20
132.2039284220891
 30
0.0
 10
165.6012225245624
 20
132.2039284220891
 30
0.0
 10
165.609959196286
 20
132.2039284220891
 30
0.0
 10
165.6164707100803
 20
132.2039284220891
 30
0.0
 10
165.6251482892378
 20
132.2039284220891
 30
0.0
  0
LINE
  5
127
330
1F
100
AcDbEntity
  8
0
  6
HIDDEN
 62
     7
370
     0
100
AcDbLine
 10
165.5990006661
 20
132.4897950536
 30
0.0
 11
165.5990006661
 21
139.4735822731
 31
0.0
  0
LINE
  5
128
330
1F
100
AcDbEntity
  8
0
  6
HIDDEN
 62
     7
370
     0
100
AcDbLine
 10
165.5990006661
 20
85.5495327938
 30
0.0
 11
165.5990006661
 21
132.2039284221
 31
0.0
  0
SPLINE
  5
129
330
1F
100
AcDbEntity
  8
0
  6
HIDDEN
 62
     7
370
     0
100
AcDbSpline
210
0.0
220
0.0
230
1.0
 70
     8
 71
     3
 72
    10
 73
     6
 74
     0
 42
0.00000001
 43
0.00000001
 40
0.0
 40
0.0
 40
0.0
 40
0.0
 40
0.5
 40
0.5
 40
1.0
 40
1.0
 40
1.0
 40
1.0
 10
169.4190006660777
 20
85.54953279375975
 30
0.0
 10
169.4190006660777
 20
85.61976915413051
 30
0.0
 10
169.4107180539872
 20
85.68976325562801
 30
0.0
 10
169.3776181109286
 20
85.82672252018695
 30
0.0
 10
169.3532807189701
 20
85.89203042944222
 30
0.0
 10
169.3213258637455
 20
85.95392842208909
 30
0.0
  0
LINE
  5
12A
330
1F
100
AcDbEntity
  8
0
  6
HIDDEN
 62
     7
370
     0
100
AcDbLine
 10
169.4190006661
 20
132.4897950536
 30
0.0
 11
169.4190006661
 21
139.4735822731
 31
0.0
  0
SPLINE
  5
12B
330
1F
100
AcDbEntity
  8
0
  6
HIDDEN
 62
     7
370
     0
100
AcDbSpline
210
0.0
220
0.0
230
1.0
 70
    24
 71
     3
 72
    10
 73
     6
 74
     0
 42
0.00000001
 43
0.00000001
 40
0.0
 40
0.0
 40
0.0
 40
0.0
 40
0.5
 40
0.5
 40
1.0
 40
1.0
 40
1.0
 40
1.0
 10
169.3928530429176
 20
132.2039284220891
 30
0.0
 10
169.4015308178252
 20
132.2039284220892
 30
0.0
 10
169.4080838418321
 20
132.2039284220891
 30
0.0
 10
169.4168184513291
 20
132.2039284220891
 30
0.0
 10
169.4190006660777
 20
132.2039284220891
 30
0.0
 10
169.4190006660777
 20
132.2039284220891
 30
0.0
  0
LINE
  5
12C
330
1F
100
AcDbEntity
  8
0
  6
HIDDEN
 62
     7
370
     0
100
AcDbLine
 10
169.4190006661
 20
85.5495327938
 30
0.0
 11
169.4190006661
 21
132.2039284221
 31
0.0
  0
LINE
  5
12D
330
1F
100
AcDbEntity
  8
0
  6
HIDDEN
 62
     7
370
     0
100
AcDbLine
 10
149.5090006661
 20
87.030004501
 30
0.0
 11
149.5090006661
 21
137.6544053045
 31
0.0
  0
LINE
  5
12E
330
1F
100
AcDbEntity
  8
0
  6
HIDDEN
 62
     7
370
     0
100
AcDbLine
 10
154.4590006661
 20
132.2039284221
 30
0.0
 11
161.7046210118
 21
132.2039284221
 31
0.0
  0
LWPOLYLINE
  5
12F
330
1F
100
AcDbEntity
  8
0
  6
HIDDEN
 62
     7
370
     0
100
AcDbPolyline
 90
        2
 70
   128
 43
0.0
 10
169.4190006661
 20
132.2039284221
 10
169.4190006661
 20
132.2039284221
  0
LWPOLYLINE
  5
130
330
1F
100
AcDbEntity
  8
0
  6
HIDDEN
 62
     7
370
     0
100
AcDbPolyline
 90
        2
 70
   128
 43
0.0
 10
175.4590006661
 20
132.2039284221
 10
175.4590006661
 20
132.2039284221
  0
LWPOLYLINE
  5
131
330
1F
100
AcDbEntity
  8
0
  6
HIDDEN
 62
     7
370
     0
100
AcDbPolyline
 90
        2
 70
   128
 43
0.0
 10
165.5990006661
 20
132.2039284221
 10
165.5990006661
 20
132.2039284221
  0
LINE
  5
132
330
1F
100
AcDbEntity
  8
0
  6
HIDDEN
 62
     7
370
     0
100
AcDbLine
 10
147.5090006661
 20
136.5743592838
 30
0.0
 11
147.5090006661
 21
88.1334975604
 31
0.0
  0
SPLINE
  5
133
330
1F
100
AcDbEntity
  8
0
  6
HIDDEN
 62
     7
370
     0
100
AcDbSpline
210
0.0
220
0.0
230
1.0
 70
     8
 71
     3
 72
    14
 73
    10
 74
     0
 42
0.00000001
 43
0.00000001
 40
0.0
 40
0.0
 40
0.0
 40
0.0
 40
0.4999999999999983
 40
0.4999999999999983
 40
0.749999999999999
 40
0.749999999999999
 40
0.8749999999999996
 40
0.8749999999999996
 40
1.0
 40
1.0
 40
1.0
 40
1.0
 10
118.7590006660777
 20
91.54729686356154
 30
0.0
 10
119.375077569833
 20
91.5530229837907
 30
0.0
 10
119.9892095659489
 20
91.56291334919271
 30
0.0
 10
120.9031061964625
 20
91.5935483168625
 30
0.0
 10
121.2065451240101
 20
91.60634177450046
 30
0.0
 10
121.6576817396476
 20
91.63426760245984
 30
0.0
 10
121.8073879891901
 20
91.6450372226196
 30
0.0
 10
122.1042291254382
 20
91.67216993821913
 30
0.0
 10
122.2516146779415
 20
91.68798691104635
 30
0.0
 10
122.3953988049558
 20
91.71164599992082
 30
0.0
  0
SPLINE
  5
134
330
1F
100
AcDbEntity
  8
0
  6
HIDDEN
 62
     7
370
     0
100
AcDbSpline
210
0.0
220
0.0
230
1.0
 70
     8
 71
     3
 72
    10
 73
     6
 74
     0
 42
0.00000001
 43
0.00000001
 40
0.0
 40
0.0
 40
0.0
 40
0.0
 40
0.5
 40
0.5
 40
1.0
 40
1.0
 40
1.0
 40
1.0
 10
122.3953988049559
 20
91.71164599992079
 30
0.0
 10
123.0230264606632
 20
91.8149195586564
 30
0.0
 10
123.6742272056945
 20
91.90374467040795
 30
0.0
 10
124.9829319097067
 20
92.06585237727826
 30
0.0
 10
125.6439763469979
 20
92.13915184156485
 30
0.0
 10
126.3090006660775
 20
92.20783965629253
 30
0.0
  0
SPLINE
  5
135
330
1F
100
AcDbEntity
  8
0
  6
HIDDEN
 62
     7
370
     0
100
AcDbSpline
210
0.0
220
0.0
230
1.0
 70
     8
 71
     3
 72
    18
 73
    14
 74
     0
 42
0.00000001
 43
0.00000001
 40
0.0
 40
0.0
 40
0.0
 40
0.0
 40
0.0625000000000023
 40
0.0625000000000023
 40
0.1250000000000047
 40
0.1250000000000047
 40
0.2500000000000028
 40
0.2500000000000028
 40
0.5000000000000019
 40
0.5000000000000019
 40
0.750000000000001
 40
0.750000000000001
 40
1.0
 40
1.0
 40
1.0
 40
1.0
 10
126.3090006660776
 20
92.20783965629244
 30
0.0
 10
126.3455728764281
 20
92.21161705981989
 30
0.0
 10
126.3842233498635
 20
92.21106003193677
 30
0.0
 10
126.4583148435773
 20
92.2010008267749
 30
0.0
 10
126.4936651373314
 20
92.19164694535036
 30
0.0
 10
126.5882594347208
 20
92.15726251891657
 30
0.0
 10
126.6383976078598
 20
92.12655078425377
 30
0.0
 10
126.7675908794409
 20
92.03062147421572
 30
0.0
 10
126.8258710241821
 20
91.96210598009846
 30
0.0
 10
126.9260661206056
 20
91.82553403016585
 30
0.0
 10
126.9660813720522
 20
91.75676912766293
 30
0.0
 10
127.03448079287
 20
91.62173369855527
 30
0.0
 10
127.0628425167319
 20
91.55511567250211
 30
0.0
 10
127.0873964293379
 20
91.4895572048059
 30
0.0
  0
SPLINE
  5
136
330
1F
100
AcDbEntity
  8
0
  6
HIDDEN
 62
     7
370
     0
100
AcDbSpline
210
0.0
220
0.0
230
1.0
 70
     8
 71
     3
 72
    14
 73
    10
 74
     0
 42
0.00000001
 43
0.00000001
 40
0.0
 40
0.0
 40
0.0
 40
0.0
 40
0.25
 40
0.25
 40
0.5
 40
0.5
 40
0.75
 40
0.75
 40
1.0
 40
1.0
 40
1.0
 40
1.0
 10
127.0873964293379
 20
91.4895572048059
 30
0.0
 10
127.1258328141589
 20
91.38693280709438
 30
0.0
 10
127.1946342075507
 20
91.28773638365482
 30
0.0
 10
127.3379202197097
 20
91.0968443543283
 30
0.0
 10
127.4131022748166
 20
91.0045870882954
 30
0.0
 10
127.5452895634668
 20
90.8249797664804
 30
0.0
 10
127.6028067589366
 20
90.73767021203604
 30
0.0
 10
127.6848515572289
 20
90.5677363785203
 30
0.0
 10
127.7090006660777
 20
90.48583403664914
 30
0.0
 10
127.7090006660777
 20
90.40878016281323
 30
0.0
  0
LINE
  5
137
330
1F
100
AcDbEntity
  8
0
  6
HIDDEN
 62
     7
370
     0
100
AcDbLine
 10
127.7090006661
 20
90.4087801628
 30
0.0
 11
127.7090006661
 21
89.1254815283
 31
0.0
  0
LINE
  5
138
330
1F
100
AcDbEntity
  8
0
  6
HIDDEN
 62
     7
370
     0
100
AcDbLine
 10
123.7090006661
 20
135.3819745143
 30
0.0
 11
123.7090006661
 21
134.1980360945
 31
0.0
  0
SPLINE
  5
139
330
1F
100
AcDbEntity
  8
0
  6
HIDDEN
 62
     7
370
     0
100
AcDbSpline
210
0.0
220
0.0
230
1.0
 70
     8
 71
     3
 72
    18
 73
    14
 74
     0
 42
0.00000001
 43
0.00000001
 40
0.0
 40
0.0
 40
0.0
 40
0.0
 40
0.2499999999999998
 40
0.2499999999999998
 40
0.5000000000000003
 40
0.5000000000000003
 40
0.7500000000000009
 40
0.7500000000000009
 40
0.8749999999999997
 40
0.8749999999999997
 40
0.9374999999999998
 40
0.9374999999999998
 40
1.0
 40
1.0
 40
1.0
 40
1.0
 10
123.7090006660777
 20
134.1980360944521
 30
0.0
 10
123.7090006660777
 20
134.1148291855949
 30
0.0
 10
123.6731515661395
 20
134.0260925302813
 30
0.0
 10
123.5482798301055
 20
133.8439673397211
 30
0.0
 10
123.4578794124577
 20
133.7488372910945
 30
0.0
 10
123.2356367577155
 20
133.5596557819702
 30
0.0
 10
123.1058719712697
 20
133.4647106138755
 30
0.0
 10
122.8652345139582
 20
133.3264319062955
 30
0.0
 10
122.7774672158207
 20
133.2807214729931
 30
0.0
 10
122.6229431286139
 20
133.2228981677717
 30
0.0
 10
122.5663322425592
 20
133.2051834037338
 30
0.0
 10
122.4422882116526
 20
133.1806441005009
 30
0.0
 10
122.3745735366343
 20
133.1746649619626
 30
0.0
 10
122.3090006660777
 20
133.1770158139169
 30
0.0
  0
SPLINE
  5
13A
330
1F
100
AcDbEntity
  8
0
  6
HIDDEN
 62
     7
370
     0
100
AcDbSpline
210
0.0
220
0.0
230
1.0
 70
     8
 71
     3
 72
    10
 73
     6
 74
     0
 42
0.00000001
 43
0.00000001
 40
0.0
 40
0.0
 40
0.0
 40
0.0
 40
0.5
 40
0.5
 40
1.0
 40
1.0
 40
1.0
 40
1.0
 10
122.3090006660777
 20
133.1770158139169
 30
0.0
 10
121.7214151189871
 20
133.1980813341533
 30
0.0
 10
121.1306687255267
 20
133.2088398200255
 30
0.0
 10
119.9466495602279
 20
133.2222046005612
 30
0.0
 10
119.3532355720224
 20
133.2243472432257
 30
0.0
 10
118.7590006660777
 20
133.2238661874842
 30
0.0
  0
SPLINE
  5
13B
330
1F
100
AcDbEntity
  8
0
  6
HIDDEN
 62
     7
370
     0
100
AcDbSpline
210
0.0
220
0.0
230
1.0
 70
     8
 71
     3
 72
     8
 73
     4
 74
     0
 42
0.00000001
 43
0.00000001
 40
0.0000005099763571
 40
0.0000005099763571
 40
0.0000005099763571
 40
0.0000005099763571
 40
0.0000262827998697
 40
0.0000262827998697
 40
0.0000262827998697
 40
0.0000262827998697
 10
118.7590006660777
 20
133.2238661874842
 30
0.0
 10
118.75563192685
 20
133.2205445185283
 30
0.0
 10
118.7522834738708
 20
133.2172165612494
 30
0.0
 10
118.7489557356595
 20
133.2138823143768
 30
0.0
  0
SPLINE
  5
13C
330
1F
100
AcDbEntity
  8
0
  6
HIDDEN
 62
     7
370
     0
100
AcDbSpline
210
0.0
220
0.0
230
1.0
 70
     8
 71
     3
 72
     8
 73
     4
 74
     0
 42
0.00000001
 43
0.00000001
 40
0.0000005954826279
 40
0.0000005954826279
 40
0.0000005954826279
 40
0.0000005954826279
 40
0.0000302093805348
 40
0.0000302093805348
 40
0.0000302093805348
 40
0.0000302093805348
 10
118.7489557356681
 20
91.55911199321345
 30
0.0
 10
118.7522717629883
 20
91.55516521361764
 30
0.0
 10
118.7556203143806
 20
91.55122682248773
 30
0.0
 10
118.7590006660776
 20
91.54729686356156
 30
0.0
  0
SPLINE
  5
13D
330
1F
100
AcDbEntity
  8
0
  6
HIDDEN
 62
     7
370
     0
100
AcDbSpline
210
0.0
220
0.0
230
1.0
 70
     8
 71
     3
 72
    10
 73
     6
 74
     0
 42
0.00000001
 43
0.00000001
 40
0.0
 40
0.0
 40
0.0
 40
0.0
 40
0.2949159523317548
 40
0.5007639170797373
 40
0.9999999999999999
 40
0.9999999999999999
 40
0.9999999999999999
 40
0.9999999999999999
 10
137.5041508706493
 20
88.82932879926734
 30
0.0
 10
137.3312186575619
 20
88.81158158650169
 30
0.0
 10
137.0375817358213
 20
88.78144702202152
 30
0.0
 10
136.362832603751
 20
88.71336496326975
 30
0.0
 10
136.3139282942518
 20
88.70354350273362
 30
0.0
 10
136.2793015061504
 20
88.69658939917277
 30
0.0
  0
SPLINE
  5
13E
330
1F
100
AcDbEntity
  8
0
  6
HIDDEN
 62
     7
370
     0
100
AcDbSpline
210
0.0
220
0.0
230
1.0
 70
     8
 71
     3
 72
    16
 73
    12
 74
     0
 42
0.00000001
 43
0.00000001
 40
0.0
 40
0.0
 40
0.0
 40
0.0
 40
0.0014619398999447
 40
0.1695060946944872
 40
0.3368148262131689
 40
0.5027784258718649
 40
0.5863380399920292
 40
0.6685202984823474
 40
0.7507638349534448
 40
0.8341946041745463
 40
1.0
 40
1.0
 40
1.0
 40
1.0
 10
144.6906370339708
 20
88.2751833926161
 30
0.0
 10
144.6915671386855
 20
88.27497513920312
 30
0.0
 10
144.7994090669644
 20
88.25082898740816
 30
0.0
 10
144.4113953341679
 20
88.33937584295404
 30
0.0
 10
143.5496047054889
 20
88.5229792007188
 30
0.0
 10
142.3592990390107
 20
88.7112091211992
 30
0.0
 10
141.3078987684286
 20
88.8226141011973
 30
0.0
 10
140.4818698125755
 20
88.88024971643368
 30
0.0
 10
139.658081868172
 20
88.9067354746866
 30
0.0
 10
138.5879263964539
 20
88.90199588777364
 30
0.0
 10
137.9371095113802
 20
88.85835865195958
 30
0.0
 10
137.5041508706493
 20
88.82932879926734
 30
0.0
  0
SPLINE
  5
13F
330
1F
100
AcDbEntity
  8
0
  6
HIDDEN
 62
     7
370
     0
100
AcDbSpline
210
0.0
220
0.0
230
1.0
 70
     8
 71
     3
 72
    16
 73
    12
 74
     0
 42
0.00000001
 43
0.00000001
 40
0.0
 40
0.0
 40
0.0
 40
0.0
 40
0.1658979086808744
 40
0.2493608198222822
 40
0.3317589050038949
 40
0.4138911421869729
 40
0.4976181669650963
 40
0.6634955966468973
 40
0.8305394509979782
 40
0.9983760749348638
 40
1.0
 40
1.0
 40
1.0
 40
1.0
 10
137.5040581503675
 20
135.8785114520709
 30
0.0
 10
137.9376265625634
 20
135.8495586387838
 30
0.0
 10
138.5893223890743
 20
135.8060397221511
 30
0.0
 10
139.6602882929591
 20
135.8013000929483
 30
0.0
 10
140.4845113321944
 20
135.8277018477125
 30
0.0
 10
141.3115295481706
 20
135.8853954106699
 30
0.0
 10
142.3626467310065
 20
135.9970543076975
 30
0.0
 10
143.5513585831923
 20
136.1852531824706
 30
0.0
 10
144.412096670866
 20
136.3685126835819
 30
0.0
 10
144.8001012639424
 20
136.4570361494694
 30
0.0
 10
144.6914593738223
 20
136.432840139179
 30
0.0
 10
144.6904182684469
 20
136.4326082710078
 30
0.0
  0
SPLINE
  5
140
330
1F
100
AcDbEntity
  8
0
  6
HIDDEN
 62
     7
370
     0
100
AcDbSpline
210
0.0
220
0.0
230
1.0
 70
     8
 71
     3
 72
    10
 73
     6
 74
     0
 42
0.00000001
 43
0.00000001
 40
0.0
 40
0.0
 40
0.0
 40
0.0
 40
0.4995493564858547
 40
0.5744878148481567
 40
1.0
 40
1.0
 40
1.0
 40
1.0
 10
136.278597414582
 20
136.0113350191867
 30
0.0
 10
136.2988921306403
 20
136.0055427688733
 30
0.0
 10
136.3222313000934
 20
135.9988816108068
 30
0.0
 10
136.9544099385914
 20
135.9347350377325
 30
0.0
 10
137.2514756444427
 20
135.9043481488057
 30
0.0
 10
137.5040581503675
 20
135.8785114520709
 30
0.0
  0
SPLINE
  5
141
330
1F
100
AcDbEntity
  8
0
  6
HIDDEN
 62
     7
370
     0
100
AcDbSpline
210
0.0
220
0.0
230
1.0
 70
    11
 71
     3
 72
    22
 73
    18
 74
     0
 42
0.00000001
 43
0.00000001
 40
0.0
 40
0.0
 40
0.0
 40
0.0
 40
0.1249999999999999
 40
0.1249999999999999
 40
0.2499999999999999
 40
0.2499999999999999
 40
0.3749999999999999
 40
0.3749999999999999
 40
0.4999999999999999
 40
0.4999999999999999
 40
0.6249999999999999
 40
0.6249999999999999
 40
0.7499999999999999
 40
0.7499999999999999
 40
0.8749999999999999
 40
0.8749999999999999
 40
1.0
 40
1.0
 40
1.0
 40
1.0
 10
143.2640026676793
 20
132.1914568979056
 30
0.0
 10
143.4229454966484
 20
132.2135306059526
 30
0.0
 10
143.5636370445388
 20
132.2302144239402
 30
0.0
 10
143.8096232820012
 20
132.2564361188225
 30
0.0
 10
143.9156613646825
 20
132.2660154246678
 30
0.0
 10
144.0861534052495
 20
132.280094691747
 30
0.0
 10
144.1502061047132
 20
132.284601267994
 30
0.0
 10
144.2367101558062
 20
132.290465437832
 30
0.0
 10
144.2589436511663
 20
132.2918073703502
 30
0.0
 10
144.2590574571783
 20
132.2918145100998
 30
0.0
 10
144.237599528693
 20
132.2905218746135
 30
0.0
 10
144.1516137358141
 20
132.2847004451033
 30
0.0
 10
144.0862995890645
 20
132.2801009758275
 30
0.0
 10
143.9172937551291
 20
132.2661559550176
 30
0.0
 10
143.8133347172533
 20
132.2568035681593
 30
0.0
 10
143.5658242710143
 20
132.2304750976929
 30
0.0
 10
143.4229401809307
 20
132.2135298677149
 30
0.0
 10
143.2640026676796
 20
132.1914568979057
 30
0.0
  0
SPLINE
  5
142
330
1F
100
AcDbEntity
  8
0
  6
HIDDEN
 62
     7
370
     0
100
AcDbSpline
210
0.0
220
0.0
230
1.0
 70
    11
 71
     3
 72
    22
 73
    18
 74
     0
 42
0.00000001
 43
0.00000001
 40
0.0
 40
0.0
 40
0.0
 40
0.0
 40
0.125
 40
0.125
 40
0.25
 40
0.25
 40
0.375
 40
0.375
 40
0.5
 40
0.5
 40
0.625
 40
0.625
 40
0.75
 40
0.75
 40
0.875
 40
0.875
 40
1.0
 40
1.0
 40
1.0
 40
1.0
 10
143.2640026676793
 20
92.51639994627267
 30
0.0
 10
143.4229454966484
 20
92.49432623822563
 30
0.0
 10
143.5636370445388
 20
92.47764242023801
 30
0.0
 10
143.8096232820012
 20
92.45142072535572
 30
0.0
 10
143.9156613646825
 20
92.44184141951041
 30
0.0
 10
144.0861534052495
 20
92.42776215243126
 30
0.0
 10
144.1502061047132
 20
92.4232555761842
 30
0.0
 10
144.2367101558062
 20
92.41739140634631
 30
0.0
 10
144.2589436511663
 20
92.416049473828
 30
0.0
 10
144.2590574571783
 20
92.4160423340785
 30
0.0
 10
144.237599528693
 20
92.41733496956472
 30
0.0
 10
144.1516137358141
 20
92.42315639907493
 30
0.0
 10
144.0862995890645
 20
92.42775586835077
 30
0.0
 10
143.9172937551291
 20
92.44170088916061
 30
0.0
 10
143.8133347172533
 20
92.45105327601894
 30
0.0
 10
143.5658242710144
 20
92.47738174648536
 30
0.0
 10
143.4229401809307
 20
92.49432697646336
 30
0.0
 10
143.2640026676796
 20
92.51639994627257
 30
0.0
  0
LINE
  5
143
330
1F
100
AcDbEntity
  8
0
  6
HIDDEN
 62
     7
370
     0
100
AcDbLine
 10
149.5090006661
 20
95.3539284221
 30
0.0
 11
149.5090006661
 21
129.3539284221
 31
0.0
  0
SPLINE
  5
144
330
1F
100
AcDbEntity
  8
0
  6
HIDDEN
 62
     7
370
     0
100
AcDbSpline
210
0.0
220
0.0
230
1.0
 70
    11
 71
     3
 72
    56
 73
    52
 74
     0
 42
0.00000001
 43
0.00000001
 40
0.0
 40
0.0
 40
0.0
 40
0.0
 40
0.0625000000000001
 40
0.0625000000000001
 40
0.0937500000000002
 40
0.0937500000000002
 40
0.1250000000000002
 40
0.1250000000000002
 40
0.1562500000000003
 40
0.1562500000000003
 40
0.1875000000000004
 40
0.1875000000000004
 40
0.2187500000000005
 40
0.2187500000000005
 40
0.2500000000000006
 40
0.2500000000000006
 40
0.3125000000000007
 40
0.3125000000000007
 40
0.3437500000000007
 40
0.3437500000000007
 40
0.3750000000000007
 40
0.3750000000000007
 40
0.4062500000000006
 40
0.4062500000000006
 40
0.4375000000000006
 40
0.4375000000000006
 40
0.4687500000000006
 40
0.4687500000000006
 40
0.5000000000000006
 40
0.5000000000000006
 40
0.5625000000000007
 40
0.5625000000000007
 40
0.6250000000000007
 40
0.6250000000000007
 40
0.6875000000000008
 40
0.6875000000000008
 40
0.7187500000000008
 40
0.7187500000000008
 40
0.7500000000000008
 40
0.7500000000000008
 40
0.7812500000000009
 40
0.7812500000000009
 40
0.8125000000000009
 40
0.8125000000000009
 40
0.8750000000000007
 40
0.8750000000000007
 40
0.9375000000000004
 40
0.9375000000000004
 40
0.9687500000000003
 40
0.9687500000000003
 40
1.0
 40
1.0
 40
1.0
 40
1.0
 10
143.2640026676793
 20
92.51639994627264
 30
0.0
 10
143.0082153571316
 20
92.55192325016618
 30
0.0
 10
142.7180255501883
 20
92.58746711913444
 30
0.0
 10
142.2313724518975
 20
92.63393881904332
 30
0.0
 10
142.0610266097363
 20
92.64818473227481
 30
0.0
 10
141.7140531996453
 20
92.67247264647321
 30
0.0
 10
141.5361153024105
 20
92.68264899279527
 30
0.0
 10
141.1711960248507
 20
92.69832432039917
 30
0.0
 10
140.9828614327554
 20
92.70381128161203
 30
0.0
 10
140.6089745802999
 20
92.70927127588777
 30
0.0
 10
140.42228436613
 20
92.70932949914693
 30
0.0
 10
140.0494058752108
 20
92.70414535717015
 30
0.0
 10
139.8617016322884
 20
92.6988298786987
 30
0.0
 10
139.4947827327409
 20
92.6833274976754
 30
0.0
 10
139.3163329906764
 20
92.67322808991473
 30
0.0
 10
138.7955440873156
 20
92.6370962482608
 30
0.0
 10
138.4646603676447
 20
92.60466702724274
 30
0.0
 10
138.0281588093131
 20
92.55314053587564
 30
0.0
 10
137.8913732702605
 20
92.53541592483165
 30
0.0
 10
137.6356486608067
 20
92.50002159832236
 30
0.0
 10
137.5180249327011
 20
92.48252507694177
 30
0.0
 10
137.3079554795125
 20
92.44982268095325
 30
0.0
 10
137.2146206408275
 20
92.43449087200722
 30
0.0
 10
137.0516749301483
 20
92.4068947126584
 30
0.0
 10
136.9819719672985
 20
92.39460802954477
 30
0.0
 10
136.8713489009664
 20
92.37476303775833
 30
0.0
 10
136.8296672293559
 20
92.36707692523164
 30
0.0
 10
136.7734920889807
 20
92.35665954485441
 30
0.0
 10
136.7590538132201
 20
92.35393838717792
 30
0.0
 10
136.7588948181175
 20
92.35390857559733
 30
0.0
 10
136.8145541558543
 20
92.36457070574532
 30
0.0
 10
137.0373789163887
 20
92.4045513774803
 30
0.0
 10
137.1992912019824
 20
92.4328876291126
 30
0.0
 10
137.6230827607182
 20
92.49889853807265
 30
0.0
 10
137.8779291832654
 20
92.53535841086388
 30
0.0
 10
138.3165728433791
 20
92.58720993385023
 30
0.0
 10
138.4732703796586
 20
92.6040975679102
 30
0.0
 10
138.7964703294372
 20
92.63479098853115
 30
0.0
 10
138.9641438108575
 20
92.64875079547501
 30
0.0
 10
139.3117286770462
 20
92.67295022462618
 30
0.0
 10
139.4932921578651
 20
92.68324717345698
 30
0.0
 10
139.859478432674
 20
92.69875312031888
 30
0.0
 10
140.0441358485163
 20
92.70401910221588
 30
0.0
 10
140.6027322550747
 20
92.7119419254714
 30
0.0
 10
140.9850665965452
 20
92.70622780209776
 30
0.0
 10
141.7123637409136
 20
92.6751687159355
 30
0.0
 10
142.0680578150136
 20
92.64948007988552
 30
0.0
 10
142.5513700919646
 20
92.60340806967743
 30
0.0
 10
142.7050676991811
 20
92.58680591126114
 30
0.0
 10
142.9974899240243
 20
92.55218605604684
 30
0.0
 10
143.1361051472294
 20
92.53416213500844
 30
0.0
 10
143.2640026676793
 20
92.51639994627264
 30
0.0
  0
SPLINE
  5
145
330
1F
100
AcDbEntity
  8
0
  6
HIDDEN
 62
     7
370
     0
100
AcDbSpline
210
0.0
220
0.0
230
1.0
 70
    11
 71
     3
 72
    56
 73
    52
 74
     0
 42
0.00000001
 43
0.00000001
 40
0.0
 40
0.0
 40
0.0
 40
0.0
 40
0.0625000000000002
 40
0.0625000000000002
 40
0.0937500000000002
 40
0.0937500000000002
 40
0.1250000000000002
 40
0.1250000000000002
 40
0.1562500000000003
 40
0.1562500000000003
 40
0.1875000000000003
 40
0.1875000000000003
 40
0.2187500000000003
 40
0.2187500000000003
 40
0.2500000000000003
 40
0.2500000000000003
 40
0.3125000000000003
 40
0.3125000000000003
 40
0.3437500000000004
 40
0.3437500000000004
 40
0.3750000000000004
 40
0.3750000000000004
 40
0.4062500000000005
 40
0.4062500000000005
 40
0.4375000000000006
 40
0.4375000000000006
 40
0.4687500000000007
 40
0.4687500000000007
 40
0.5000000000000008
 40
0.5000000000000008
 40
0.562500000000001
 40
0.562500000000001
 40
0.6250000000000012
 40
0.6250000000000012
 40
0.6875000000000014
 40
0.6875000000000014
 40
0.7187500000000014
 40
0.7187500000000014
 40
0.7500000000000013
 40
0.7500000000000013
 40
0.7812500000000013
 40
0.7812500000000013
 40
0.8125000000000013
 40
0.8125000000000013
 40
0.875000000000001
 40
0.875000000000001
 40
0.9375000000000004
 40
0.9375000000000004
 40
0.9687500000000002
 40
0.9687500000000002
 40
1.0
 40
1.0
 40
1.0
 40
1.0
 10
143.2640026676793
 20
132.1914568979056
 30
0.0
 10
143.0082153571316
 20
132.155933594012
 30
0.0
 10
142.7180255501883
 20
132.1203897250438
 30
0.0
 10
142.2313724518975
 20
132.0739180251349
 30
0.0
 10
142.0610266097363
 20
132.0596721119034
 30
0.0
 10
141.7140531996453
 20
132.035384197705
 30
0.0
 10
141.5361153024105
 20
132.025207851383
 30
0.0
 10
141.1711960248507
 20
132.0095325237791
 30
0.0
 10
140.9828614327554
 20
132.0040455625662
 30
0.0
 10
140.6089745802999
 20
131.9985855682905
 30
0.0
 10
140.42228436613
 20
131.9985273450313
 30
0.0
 10
140.0494058752108
 20
132.0037114870081
 30
0.0
 10
139.8617016322884
 20
132.0090269654795
 30
0.0
 10
139.4947827327409
 20
132.0245293465028
 30
0.0
 10
139.3163329906764
 20
132.0346287542635
 30
0.0
 10
138.7955440873156
 20
132.0707605959174
 30
0.0
 10
138.4646603676447
 20
132.1031898169355
 30
0.0
 10
138.0281588093131
 20
132.1547163083026
 30
0.0
 10
137.8913732702605
 20
132.1724409193466
 30
0.0
 10
137.6356486608067
 20
132.2078352458558
 30
0.0
 10
137.5180249327011
 20
132.2253317672364
 30
0.0
 10
137.3079554795125
 20
132.258034163225
 30
0.0
 10
137.2146206408275
 20
132.273365972171
 30
0.0
 10
137.0516749301483
 20
132.3009621315198
 30
0.0
 10
136.9819719672985
 20
132.3132488146334
 30
0.0
 10
136.8713489009664
 20
132.3330938064199
 30
0.0
 10
136.8296672293559
 20
132.3407799189466
 30
0.0
 10
136.7734920889807
 20
132.3511972993238
 30
0.0
 10
136.7590538132201
 20
132.3539184570003
 30
0.0
 10
136.7588948181175
 20
132.3539482685809
 30
0.0
 10
136.8145541558543
 20
132.3432861384329
 30
0.0
 10
137.0373789163887
 20
132.3033054666979
 30
0.0
 10
137.1992912019824
 20
132.2749692150656
 30
0.0
 10
137.6230827607182
 20
132.2089583061056
 30
0.0
 10
137.8779291832655
 20
132.1724984333144
 30
0.0
 10
138.3165728433792
 20
132.120646910328
 30
0.0
 10
138.4732703796586
 20
132.103759276268
 30
0.0
 10
138.7964703294372
 20
132.0730658556471
 30
0.0
 10
138.9641438108575
 20
132.0591060487032
 30
0.0
 10
139.3117286770462
 20
132.0349066195521
 30
0.0
 10
139.4932921578651
 20
132.0246096707212
 30
0.0
 10
139.859478432674
 20
132.0091037238593
 30
0.0
 10
140.0441358485163
 20
132.0038377419623
 30
0.0
 10
140.6027322550747
 20
131.9959149187069
 30
0.0
 10
140.9850665965452
 20
132.0016290420805
 30
0.0
 10
141.7123637409137
 20
132.0326881282427
 30
0.0
 10
142.0680578150137
 20
132.0583767642927
 30
0.0
 10
142.5513700919646
 20
132.1044487745008
 30
0.0
 10
142.7050676991812
 20
132.1210509329171
 30
0.0
 10
142.9974899240243
 20
132.1556707881314
 30
0.0
 10
143.1361051472294
 20
132.1736947091698
 30
0.0
 10
143.2640026676793
 20
132.1914568979056
 30
0.0
  0
LINE
  5
146
330
1F
100
AcDbEntity
  8
0
  6
HIDDEN
 62
     7
370
     0
100
AcDbLine
 10
169.3928530429
 20
132.2039284221
 30
0.0
 11
175.4590006661
 21
132.2039284221
 31
0.0
  0
LINE
  5
147
330
1F
100
AcDbEntity
  8
0
  6
HIDDEN
 62
     7
370
     0
100
AcDbLine
 10
161.7046210118
 20
132.2039284221
 30
0.0
 11
165.6251482892
 21
132.2039284221
 31
0.0
  0
LINE
  5
148
330
1F
100
AcDbEntity
  8
0
  6
HIDDEN
 62
     7
370
     0
100
AcDbLine
 10
130.5129752623
 20
129.3539284221
 30
0.0
 11
130.5129752623
 21
95.3539284221
 31
0.0
  0
LWPOLYLINE
  5
149
330
1F
100
AcDbEntity
  8
0
  6
HIDDEN
 62
     7
370
     0
100
AcDbPolyline
 90
        2
 70
   128
 43
0.0
 10
130.5129752623
 20
95.3539284221
 10
130.5129752623
 20
95.3539284221
  0
LINE
  5
14A
330
1F
100
AcDbEntity
  8
0
  6
HIDDEN
 62
     7
370
     0
100
AcDbLine
 10
175.4590006661
 20
93.3539284221
 30
0.0
 11
175.4590006661
 21
131.3303099252
 31
0.0
  0
LINE
  5
14B
330
1F
100
AcDbEntity
  8
0
  6
HIDDEN
 62
     7
370
     0
100
AcDbLine
 10
117.6090006661
 20
96.3239930243
 30
0.0
 11
117.6090006661
 21
128.3838638199
 31
0.0
  0
SPLINE
  5
14C
330
1F
100
AcDbEntity
  8
0
  6
HIDDEN
 62
     7
370
     0
100
AcDbSpline
210
0.0
220
0.0
230
1.0
 70
     8
 71
     3
 72
    22
 73
    18
 74
     0
 42
0.00000001
 43
0.00000001
 40
0.0
 40
0.0
 40
0.0
 40
0.0
 40
0.1249999999999998
 40
0.1249999999999998
 40
0.2499999999999996
 40
0.2499999999999996
 40
0.3749999999999994
 40
0.3749999999999994
 40
0.4999999999999992
 40
0.4999999999999992
 40
0.624999999999999
 40
0.624999999999999
 40
0.7499999999999989
 40
0.7499999999999989
 40
0.8749999999999987
 40
0.8749999999999987
 40
1.0
 40
1.0
 40
1.0
 40
1.0
 10
157.1688266346138
 20
117.3102001752566
 30
0.0
 10
157.2821519665852
 20
117.2951132307443
 30
0.0
 10
157.4021019631134
 20
117.2751982032668
 30
0.0
 10
157.6538147914855
 20
117.2228016802636
 30
0.0
 10
157.7856315772453
 20
117.1901059419421
 30
0.0
 10
158.0459615869225
 20
117.1137761732967
 30
0.0
 10
158.1781196603788
 20
117.0690607565351
 30
0.0
 10
158.4315248584942
 20
116.9715394795568
 30
0.0
 10
158.5532874297231
 20
116.9187455872125
 30
0.0
 10
158.7861150912654
 20
116.8071760030824
 30
0.0
 10
158.8924320970421
 20
116.7507028981675
 30
0.0
 10
159.0855915554157
 20
116.6403664035119
 30
0.0
 10
159.1719760191793
 20
116.5866036314371
 30
0.0
 10
159.3118716879404
 20
116.4952918683297
 30
0.0
 10
159.3678032020228
 20
116.4562757563164
 30
0.0
 10
159.4408261640942
 20
116.4044104723331
 30
0.0
 10
159.4590006660776
 20
116.3909446469763
 30
0.0
 10
159.459000666078
 20
116.390944646976
 30
0.0
  0
LINE
  5
14D
330
1F
100
AcDbEntity
  8
0
  6
HIDDEN
 62
     7
370
     0
100
AcDbLine
 10
157.1688266346
 20
129.3539284221
 30
0.0
 11
157.1688266346
 21
95.3539284221
 31
0.0
  0
SPLINE
  5
14E
330
1F
100
AcDbEntity
  8
0
  6
HIDDEN
 62
     7
370
     0
100
AcDbSpline
210
0.0
220
0.0
230
1.0
 70
     8
 71
     3
 72
    20
 73
    16
 74
     0
 42
0.00000001
 43
0.00000001
 40
0.0
 40
0.0
 40
0.0
 40
0.0
 40
0.125
 40
0.125
 40
0.2499999999999999
 40
0.2499999999999999
 40
0.5000000000000001
 40
0.5000000000000001
 40
0.6250000000000001
 40
0.6250000000000001
 40
0.75
 40
0.75
 40
0.875
 40
0.875
 40
1.0
 40
1.0
 40
1.0
 40
1.0
 10
159.4590006660777
 20
108.3169121972022
 30
0.0
 10
159.4590006660777
 20
108.3169121972022
 30
0.0
 10
159.441022436174
 20
108.303590952086
 30
0.0
 10
159.3683749979836
 20
108.2519820900087
 30
0.0
 10
159.3129624136823
 20
108.2132955974082
 30
0.0
 10
159.1021765484801
 20
108.0756570975565
 30
0.0
 10
158.8993137593883
 20
107.9549067012625
 30
0.0
 10
158.5544581818243
 20
107.7896814143818
 30
0.0
 10
158.4303733515036
 20
107.7358468983155
 30
0.0
 10
158.1775085406961
 20
107.6385884100798
 30
0.0
 10
158.0473975873946
 20
107.5945094834946
 30
0.0
 10
157.7847179152041
 20
107.5174752567157
 30
0.0
 10
157.6559720789692
 20
107.4855622082969
 30
0.0
 10
157.4042302252353
 20
107.4330446549194
 30
0.0
 10
157.2819699490279
 20
107.4127193815276
 30
0.0
 10
157.1688266346131
 20
107.3976566689213
 30
0.0
  0
LINE
  5
14F
330
1F
100
AcDbEntity
  8
0
  6
HIDDEN
 62
     7
370
     0
100
AcDbLine
 10
159.4590006661
 20
128.0789284221
 30
0.0
 11
159.4590006661
 21
96.6289284221
 31
0.0
  0
LINE
  5
150
330
1F
100
AcDbEntity
  8
0
  6
HIDDEN
 62
     7
370
     0
100
AcDbLine
 10
118.7590006661
 20
96.5524379861
 30
0.0
 11
126.3090006661
 21
96.5524379861
 31
0.0
  0
LINE
  5
151
330
1F
100
AcDbEntity
  8
0
  6
HIDDEN
 62
     7
370
     0
100
AcDbLine
 10
118.7590006661
 20
128.1554188581
 30
0.0
 11
118.7590006661
 21
96.5524379861
 31
0.0
  0
LINE
  5
152
330
1F
100
AcDbEntity
  8
0
  6
HIDDEN
 62
     7
370
     0
100
AcDbLine
 10
122.3090006661
 20
128.1554188581
 30
0.0
 11
118.7590006661
 21
128.1554188581
 31
0.0
  0
SPLINE
  5
153
330
1F
100
AcDbEntity
  8
0
  6
HIDDEN
 62
     7
370
     0
100
AcDbSpline
210
0.0
220
0.0
230
1.0
 70
     8
 71
     3
 72
    18
 73
    14
 74
     0
 42
0.00000001
 43
0.00000001
 40
0.0
 40
0.0
 40
0.0
 40
0.0
 40
0.2500000000000002
 40
0.2500000000000002
 40
0.3750000000000002
 40
0.3750000000000002
 40
0.5000000000000003
 40
0.5000000000000003
 40
0.6250000000000004
 40
0.6250000000000004
 40
0.7500000000000004
 40
0.7500000000000004
 40
1.0
 40
1.0
 40
1.0
 40
1.0
 10
123.7090006660777
 20
128.6414420444933
 30
0.0
 10
123.7090006660777
 20
128.586967523941
 30
0.0
 10
123.6740899746855
 20
128.5305864645886
 30
0.0
 10
123.5720806733525
 20
128.446509623735
 30
0.0
 10
123.5304443186743
 20
128.4191759197442
 30
0.0
 10
123.4320385231856
 20
128.3662220041452
 30
0.0
 10
123.3744953114813
 20
128.340334650428
 30
0.0
 10
123.2471971379084
 20
128.2925571055947
 30
0.0
 10
123.1776098331509
 20
128.2706091874169
 30
0.0
 10
123.026175587996
 20
128.2311766225041
 30
0.0
 10
122.943491684902
 20
128.2136203732783
 30
0.0
 10
122.6873802228639
 20
128.1711816078578
 30
0.0
 10
122.499465218976
 20
128.1554188581208
 30
0.0
 10
122.3090006660777
 20
128.1554188581208
 30
0.0
  0
LINE
  5
154
330
1F
100
AcDbEntity
  8
0
  6
HIDDEN
 62
     7
370
     0
100
AcDbLine
 10
123.7090006661
 20
128.6414420445
 30
0.0
 11
123.7090006661
 21
129.3539284221
 31
0.0
  0
SPLINE
  5
155
330
1F
100
AcDbEntity
  8
0
  6
HIDDEN
 62
     7
370
     0
100
AcDbSpline
210
0.0
220
0.0
230
1.0
 70
     8
 71
     3
 72
    18
 73
    14
 74
     0
 42
0.00000001
 43
0.00000001
 40
0.0
 40
0.0
 40
0.0
 40
0.0
 40
0.249999999999999
 40
0.249999999999999
 40
0.3749999999999993
 40
0.3749999999999993
 40
0.4999999999999996
 40
0.4999999999999996
 40
0.6249999999999998
 40
0.6249999999999998
 40
0.7500000000000001
 40
0.7500000000000001
 40
1.0
 40
1.0
 40
1.0
 40
1.0
 10
123.7090006660777
 20
128.6414420444933
 30
0.0
 10
123.7090006660777
 20
128.586967523941
 30
0.0
 10
123.6740899746855
 20
128.5305864645885
 30
0.0
 10
123.5720806733525
 20
128.446509623735
 30
0.0
 10
123.5304443186744
 20
128.4191759197442
 30
0.0
 10
123.4320385231856
 20
128.3662220041452
 30
0.0
 10
123.3744953114814
 20
128.340334650428
 30
0.0
 10
123.2471971379084
 20
128.2925571055947
 30
0.0
 10
123.1776098331509
 20
128.2706091874169
 30
0.0
 10
123.026175587996
 20
128.2311766225041
 30
0.0
 10
122.943491684902
 20
128.2136203732783
 30
0.0
 10
122.6873802228639
 20
128.1711816078578
 30
0.0
 10
122.499465218976
 20
128.1554188581208
 30
0.0
 10
122.3090006660777
 20
128.1554188581208
 30
0.0
  0
LINE
  5
156
330
1F
100
AcDbEntity
  8
0
  6
HIDDEN
 62
     7
370
     0
100
AcDbLine
 10
122.3090006661
 20
128.1554188581
 30
0.0
 11
118.7590006661
 21
128.1554188581
 31
0.0
  0
LINE
  5
157
330
1F
100
AcDbEntity
  8
0
  6
HIDDEN
 62
     7
370
     0
100
AcDbLine
 10
118.7590006661
 20
96.5524379861
 30
0.0
 11
126.3090006661
 21
96.5524379861
 31
0.0
  0
SPLINE
  5
158
330
1F
100
AcDbEntity
  8
0
  6
HIDDEN
 62
     7
370
     0
100
AcDbSpline
210
0.0
220
0.0
230
1.0
 70
     8
 71
     3
 72
    16
 73
    12
 74
     0
 42
0.00000001
 43
0.00000001
 40
0.0
 40
0.0
 40
0.0
 40
0.0
 40
0.1250000000000015
 40
0.1250000000000015
 40
0.2500000000000029
 40
0.2500000000000029
 40
0.5000000000000019
 40
0.5000000000000019
 40
0.7500000000000009
 40
0.7500000000000009
 40
1.0
 40
1.0
 40
1.0
 40
1.0
 10
126.3090006660777
 20
96.55243798605746
 30
0.0
 10
126.4041224207435
 20
96.55243798605746
 30
0.0
 10
126.4974524894716
 20
96.54862215266466
 30
0.0
 10
126.6807142502096
 20
96.53385159993485
 30
0.0
 10
126.7715919657666
 20
96.52269355195926
 30
0.0
 10
127.0283936632863
 20
96.48022228181755
 30
0.0
 10
127.1834610281583
 20
96.43917608461474
 30
0.0
 10
127.437207489713
 20
96.34402996803284
 30
0.0
 10
127.5380779413808
 20
96.28926723395129
 30
0.0
 10
127.6733243560756
 20
96.17800611004738
 30
0.0
 10
127.7090006660777
 20
96.12083637271873
 30
0.0
 10
127.7090006660777
 20
96.066414799685
 30
0.0
  0
LINE
  5
159
330
1F
100
AcDbEntity
  8
0
  6
HIDDEN
 62
     7
370
     0
100
AcDbLine
 10
127.7090006661
 20
96.0664147997
 30
0.0
 11
127.7090006661
 21
95.3539284221
 31
0.0
  0
SPLINE
  5
15A
330
1F
100
AcDbEntity
  8
0
  6
HIDDEN
 62
     7
370
     0
100
AcDbSpline
210
0.0
220
0.0
230
1.0
 70
     8
 71
     3
 72
    16
 73
    12
 74
     0
 42
0.00000001
 43
0.00000001
 40
0.0
 40
0.0
 40
0.0
 40
0.0
 40
0.1250000000000001
 40
0.1250000000000001
 40
0.2500000000000002
 40
0.2500000000000002
 40
0.5000000000000001
 40
0.5000000000000001
 40
0.75
 40
0.75
 40
1.0
 40
1.0
 40
1.0
 40
1.0
 10
126.3090006660777
 20
96.55243798605746
 30
0.0
 10
126.4041224207435
 20
96.55243798605746
 30
0.0
 10
126.4974524894716
 20
96.54862215266466
 30
0.0
 10
126.6807142502096
 20
96.53385159993485
 30
0.0
 10
126.7715919657666
 20
96.52269355195928
 30
0.0
 10
127.0283936632864
 20
96.48022228181756
 30
0.0
 10
127.1834610281584
 20
96.43917608461474
 30
0.0
 10
127.437207489713
 20
96.34402996803286
 30
0.0
 10
127.5380779413808
 20
96.28926723395129
 30
0.0
 10
127.6733243560757
 20
96.17800611004739
 30
0.0
 10
127.7090006660777
 20
96.1208363727187
 30
0.0
 10
127.7090006660777
 20
96.06641479968498
 30
0.0
  0
LINE
  5
15B
330
1F
100
AcDbEntity
  8
0
  6
HIDDEN
 62
     7
370
     0
100
AcDbLine
 10
118.7590006661
 20
96.5524379861
 30
0.0
 11
118.7590006661
 21
128.1554188581
 31
0.0
  0
SPLINE
  5
15C
330
1F
100
AcDbEntity
  8
0
  6
HIDDEN
 62
     7
370
     0
100
AcDbSpline
210
0.0
220
0.0
230
1.0
 70
     8
 71
     3
 72
    45
 73
    41
 74
     0
 42
0.00000001
 43
0.00000001
 40
0.0
 40
0.0
 40
0.0
 40
0.0
 40
0.0625
 40
0.0625
 40
0.125
 40
0.125
 40
0.1875
 40
0.1875
 40
0.25
 40
0.25
 40
0.3125
 40
0.3125
 40
0.375
 40
0.375
 40
0.40625
 40
0.40625
 40
0.4375
 40
0.46875
 40
0.46875
 40
0.5
 40
0.5
 40
0.5625
 40
0.5625
 40
0.59375
 40
0.59375
 40
0.625
 40
0.625
 40
0.65625
 40
0.65625
 40
0.6875
 40
0.6875
 40
0.75
 40
0.75
 40
0.8125
 40
0.8125
 40
0.875
 40
0.875
 40
0.9375
 40
0.9375
 40
1.0
 40
1.0
 40
1.0
 40
1.0
 10
157.1688266346138
 20
107.3976566689217
 30
0.0
 10
156.8121576707602
 20
107.3501735089495
 30
0.0
 10
156.4567805591095
 20
107.3415920530035
 30
0.0
 10
155.7485178950009
 20
107.3993438006172
 30
0.0
 10
155.3922103903598
 20
107.4673714242745
 30
0.0
 10
154.7139613809252
 20
107.6738115669681
 30
0.0
 10
154.3886807319869
 20
107.8117588316847
 30
0.0
 10
153.7657652165714
 20
108.1584879828182
 30
0.0
 10
153.4773491346243
 20
108.3623561803595
 30
0.0
 10
152.9486966194444
 20
108.8257851335255
 30
0.0
 10
152.7054913803346
 20
109.0893453435045
 30
0.0
 10
152.2851911974345
 20
109.6551103221952
 30
0.0
 10
152.1061355751651
 20
109.9578636287734
 30
0.0
 10
151.8851228116337
 20
110.4430803216848
 30
0.0
 10
151.8194384108868
 20
110.6104942748455
 30
0.0
 10
151.7075356279327
 20
110.9476957747093
 30
0.0
 10
151.6140919584582
 20
111.2892145607567
 30
0.0
 10
151.5571208989358
 20
111.6393150374313
 30
0.0
 10
151.5187995463768
 20
111.9938196847651
 30
0.0
 10
151.5090262572621
 20
112.1743908745106
 30
0.0
 10
151.508949636698
 20
112.7108611647819
 30
0.0
 10
151.5468352298328
 20
113.063592766039
 30
0.0
 10
151.6597721405409
 20
113.5854559416982
 30
0.0
 10
151.7072392793168
 20
113.7592351176323
 30
0.0
 10
151.8195516097057
 20
114.0977365742717
 30
0.0
 10
151.8842848506339
 20
114.2626373798389
 30
0.0
 10
152.0304186284857
 20
114.5840560398656
 30
0.0
 10
152.1118201291664
 20
114.7405732445809
 30
0.0
 10
152.2914113089313
 20
115.0452496956281
 30
0.0
 10
152.3902453477001
 20
115.1942241237095
 30
0.0
 10
152.7074798496582
 20
115.6210586098162
 30
0.0
 10
152.945675189257
 20
115.8790950411879
 30
0.0
 10
153.4751326854409
 20
116.3438824596984
 30
0.0
 10
153.768521694128
 20
116.5508029769192
 30
0.0
 10
154.3837555732358
 20
116.8934564063657
 30
0.0
 10
154.7083987612173
 20
117.0322139459848
 30
0.0
 10
155.3942535198564
 20
117.2412448087036
 30
0.0
 10
155.7433667570785
 20
117.307683300213
 30
0.0
 10
156.4505521386197
 20
117.3661601051604
 30
0.0
 10
156.8121003920451
 20
117.3576909607154
 30
0.0
 10
157.1688266346138
 20
117.3102001752566
 30
0.0
  0
SPLINE
  5
15D
330
1F
100
AcDbEntity
  8
0
  6
HIDDEN
 62
     7
370
     0
100
AcDbSpline
210
0.0
220
0.0
230
1.0
 70
     8
 71
     3
 72
    66
 73
    62
 74
     0
 42
0.00000001
 43
0.00000001
 40
-0.0312500000000006
 40
-0.0312500000000006
 40
0.0
 40
0.0
 40
0.0312499999999993
 40
0.0312499999999993
 40
0.0624999999999987
 40
0.0624999999999987
 40
0.093749999999998
 40
0.093749999999998
 40
0.1249999999999974
 40
0.1249999999999974
 40
0.1562499999999967
 40
0.1562499999999967
 40
0.1874999999999961
 40
0.1874999999999961
 40
0.2187499999999954
 40
0.2187499999999954
 40
0.2499999999999948
 40
0.2499999999999948
 40
0.2812499999999941
 40
0.2812499999999941
 40
0.3124999999999934
 40
0.3124999999999934
 40
0.3437499999999928
 40
0.3437499999999928
 40
0.3749999999999922
 40
0.3749999999999922
 40
0.4062499999999915
 40
0.4062499999999915
 40
0.4374999999999909
 40
0.4374999999999909
 40
0.4687499999999902
 40
0.4687499999999902
 40
0.4999999999999896
 40
0.4999999999999896
 40
0.5624999999999909
 40
0.5624999999999909
 40
0.5937499999999916
 40
0.5937499999999916
 40
0.6249999999999922
 40
0.6249999999999922
 40
0.656249999999993
 40
0.656249999999993
 40
0.6874999999999937
 40
0.6874999999999937
 40
0.7187499999999943
 40
0.7187499999999943
 40
0.749999999999995
 40
0.749999999999995
 40
0.7812499999999957
 40
0.7812499999999957
 40
0.8124999999999963
 40
0.8124999999999963
 40
0.843749999999997
 40
0.843749999999997
 40
0.8749999999999977
 40
0.8749999999999977
 40
0.9374999999999989
 40
0.9374999999999989
 40
0.9687499999999994
 40
0.9687499999999994
 40
1.0
 40
1.0
 40
1.031249999999999
 40
1.031249999999999
 10
232.6744344137991
 20
114.8598312160738
 30
0.0
 10
232.3435669183564
 20
114.8598312160738
 30
0.0
 10
232.180949170629
 20
114.8760963701481
 30
0.0
 10
231.8610993118939
 20
114.9396873759553
 30
0.0
 10
231.7021908200373
 20
114.9878018084451
 30
0.0
 10
231.3995677707117
 20
115.1128828226652
 30
0.0
 10
231.2560777171859
 20
115.1892752094701
 30
0.0
 10
230.9845177418358
 20
115.3691506722643
 30
0.0
 10
230.856140185276
 20
115.4734292850611
 30
0.0
 10
230.625933068778
 20
115.7003270794835
 30
0.0
 10
230.5225384248661
 20
115.823792662437
 30
0.0
 10
230.3397684577504
 20
116.0909672353928
 30
0.0
 10
230.2622602335749
 20
116.2323449527672
 30
0.0
 10
230.1374926597742
 20
116.5239066944836
 30
0.0
 10
230.0893568800462
 20
116.6762497633626
 30
0.0
 10
230.025035245154
 20
116.9863156404501
 30
0.0
 10
230.0090939643148
 20
117.141519307347
 30
0.0
 10
230.0089081766541
 20
117.4521765466975
 30
0.0
 10
230.0251961884411
 20
117.6091880507331
 30
0.0
 10
230.0890800828703
 20
117.9112795256266
 30
0.0
 10
230.1363445156383
 20
118.0573898514678
 30
0.0
 10
230.2617526264632
 20
118.3399444953113
 30
0.0
 10
230.339919429223
 20
118.4754437177157
 30
0.0
 10
230.5207270627389
 20
118.7255124983566
 30
0.0
 10
230.6242635400648
 20
118.8418811466872
 30
0.0
 10
230.8570967465048
 20
119.0554566306051
 30
0.0
 10
230.9830670812973
 20
119.149718980769
 30
0.0
 10
231.2535222967402
 20
119.3145793178798
 30
0.0
 10
231.3997835491251
 20
119.3857450797721
 30
0.0
 10
231.7022256399228
 20
119.4994220993238
 30
0.0
 10
231.8580451205464
 20
119.5422556880935
 30
0.0
 10
232.1788958817467
 20
119.6002401562682
 30
0.0
 10
232.3447566373415
 20
119.615056552399
 30
0.0
 10
232.8345826707814
 20
119.615227779919
 30
0.0
 10
233.164024926808
 20
119.5561800782554
 30
0.0
 10
233.6154828403447
 20
119.3869114730925
 30
0.0
 10
233.7612022186839
 20
119.3163917883733
 30
0.0
 10
234.0340252535661
 20
119.150455223477
 30
0.0
 10
234.1597704751112
 20
119.0562242911963
 30
0.0
 10
234.3904364238396
 20
118.8451769086652
 30
0.0
 10
234.4960071307422
 20
118.7270691585518
 30
0.0
 10
234.6773925183433
 20
118.4765909545389
 30
0.0
 10
234.7543379181924
 20
118.343546578416
 30
0.0
 10
234.8802976844655
 20
118.0611371076054
 30
0.0
 10
234.9285098012507
 20
117.9125823283777
 30
0.0
 10
234.9924287499099
 20
117.6116028707336
 30
0.0
 10
235.0088626372592
 20
117.4573052622746
 30
0.0
 10
235.0091369718663
 20
117.1430430964895
 30
0.0
 10
234.9930533659361
 20
116.9876493906304
 30
0.0
 10
234.9296674795831
 20
116.6802841135949
 30
0.0
 10
234.8815414573893
 20
116.5266687027392
 30
0.0
 10
234.7563356924197
 20
116.2333903635675
 30
0.0
 10
234.6796749816617
 20
116.09351784505
 30
0.0
 10
234.498328582975
 20
115.8275495804589
 30
0.0
 10
234.393091555334
 20
115.7014807932967
 30
0.0
 10
234.0481469995714
 20
115.3610617182992
 30
0.0
 10
233.7697514723125
 20
115.1757319017696
 30
0.0
 10
233.3188351284365
 20
114.9889005204792
 30
0.0
 10
233.1608869471369
 20
114.9406454336379
 30
0.0
 10
232.8378863669199
 20
114.8760988841733
 30
0.0
 10
232.6744344137991
 20
114.8598312160738
 30
0.0
 10
232.3435669183564
 20
114.8598312160738
 30
0.0
  0
SPLINE
  5
15E
330
1F
100
AcDbEntity
  8
0
  6
HIDDEN
 62
     7
370
     0
100
AcDbSpline
210
0.0
220
0.0
230
1.0
 70
     8
 71
     3
 72
    17
 73
    13
 74
     0
 42
0.00000001
 43
0.00000001
 40
0.0
 40
0.0
 40
0.0
 40
0.0
 40
0.072062645568268
 40
0.1446878077602977
 40
0.2933109861699572
 40
0.441928249848989
 40
0.5938357370497686
 40
0.678357673054941
 40
0.7634456409066054
 40
0.8503087538347872
 40
0.9377826106536551
 40
1.0
 40
1.0
 40
1.0
 40
1.0
 10
248.5090006660777
 20
101.3563068129483
 30
0.0
 10
248.3382697222412
 20
101.1584065020097
 30
0.0
 10
247.9954751192155
 20
100.7610610823543
 30
0.0
 10
247.4096042018282
 20
99.96804136842653
 30
0.0
 10
246.8019509656086
 20
99.02400690276171
 30
0.0
 10
246.256992509957
 20
98.03544825672483
 30
0.0
 10
245.9310489595024
 20
97.35978867132914
 30
0.0
 10
245.7440361364591
 20
96.92575935191968
 30
0.0
 10
245.6411024451126
 20
96.65637632539406
 30
0.0
 10
245.5846189563872
 20
96.46826180237265
 30
0.0
 10
245.571571870005
 20
96.36730059526776
 30
0.0
 10
245.594097645146
 20
96.3604563140894
 30
0.0
 10
245.6034602161592
 20
96.35761156987235
 30
0.0
  0
LINE
  5
15F
330
1F
100
AcDbEntity
  8
0
  6
HIDDEN
 62
     7
370
     0
100
AcDbLine
 10
248.5090006661
 20
101.3563068129
 30
0.0
 11
248.5090006661
 21
128.3539284221
 31
0.0
  0
SPLINE
  5
160
330
1F
100
AcDbEntity
  8
0
  6
HIDDEN
 62
     7
370
     0
100
AcDbSpline
210
0.0
220
0.0
230
1.0
 70
     8
 71
     3
 72
    62
 73
    58
 74
     0
 42
0.00000001
 43
0.00000001
 40
-0.0312499999999993
 40
-0.0312499999999993
 40
0.0
 40
0.0
 40
0.0312499999999991
 40
0.0312499999999991
 40
0.0624999999999981
 40
0.0624999999999981
 40
0.1249999999999991
 40
0.1249999999999991
 40
0.1875
 40
0.1875
 40
0.218750000000001
 40
0.218750000000001
 40
0.2500000000000021
 40
0.2500000000000021
 40
0.2812500000000031
 40
0.2812500000000031
 40
0.312500000000004
 40
0.312500000000004
 40
0.343750000000005
 40
0.343750000000005
 40
0.3750000000000059
 40
0.3750000000000059
 40
0.4375000000000057
 40
0.4375000000000057
 40
0.4687500000000057
 40
0.4687500000000057
 40
0.5000000000000056
 40
0.5000000000000056
 40
0.5312500000000054
 40
0.5312500000000054
 40
0.5625000000000052
 40
0.5625000000000052
 40
0.5937500000000051
 40
0.5937500000000051
 40
0.6250000000000049
 40
0.6250000000000049
 40
0.6562500000000048
 40
0.6562500000000048
 40
0.6875000000000047
 40
0.6875000000000047
 40
0.7187500000000046
 40
0.7187500000000046
 40
0.7500000000000046
 40
0.7500000000000046
 40
0.7812500000000044
 40
0.7812500000000044
 40
0.8125000000000042
 40
0.8125000000000042
 40
0.8750000000000028
 40
0.8750000000000028
 40
0.9062500000000021
 40
0.9062500000000021
 40
0.9375000000000014
 40
0.9375000000000014
 40
0.9687500000000007
 40
0.9687500000000007
 40
1.0
 40
1.0
 40
1.031249999999999
 40
1.031249999999999
 10
232.6502630833647
 20
109.2327201550841
 30
0.0
 10
232.3677382487908
 20
109.2327201550841
 30
0.0
 10
232.2294152177397
 20
109.2435853489989
 30
0.0
 10
231.9581872720475
 20
109.286107674747
 30
0.0
 10
231.8239769058791
 20
109.3183544893617
 30
0.0
 10
231.4449973981748
 20
109.4438366269061
 30
0.0
 10
231.2161208377152
 20
109.5677894781462
 30
0.0
 10
230.8352279855639
 20
109.8848154310968
 30
0.0
 10
230.6796299126969
 20
110.0814837376556
 30
0.0
 10
230.5204838671749
 20
110.4178962527513
 30
0.0
 10
230.4787184762247
 20
110.5395463365815
 30
0.0
 10
230.4234000624147
 20
110.79003471912
 30
0.0
 10
230.4092942349441
 20
110.9190184186412
 30
0.0
 10
230.4087160768891
 20
111.1848371350314
 30
0.0
 10
230.4227071258321
 20
111.3214166861995
 30
0.0
 10
230.4772055547087
 20
111.5882974096187
 30
0.0
 10
230.5180958936569
 20
111.7214813649009
 30
0.0
 10
230.6247038933332
 20
111.9795788962128
 30
0.0
 10
230.6894514404119
 20
112.1028092534692
 30
0.0
 10
230.8410123160393
 20
112.3378576841198
 30
0.0
 10
230.9282989131789
 20
112.4497775953346
 30
0.0
 10
231.2139128676254
 20
112.7549923246932
 30
0.0
 10
231.4432990626765
 20
112.9254198723627
 30
0.0
 10
231.8195177323297
 20
113.1014840358976
 30
0.0
 10
231.9519887873805
 20
113.1478791741475
 30
0.0
 10
232.2259437638324
 20
113.2107791549552
 30
0.0
 10
232.3639844271347
 20
113.2267061505283
 30
0.0
 10
232.6422019991158
 20
113.2275901268901
 30
0.0
 10
232.7840113578804
 20
113.2119287379808
 30
0.0
 10
233.0564679252116
 20
113.1507247805002
 30
0.0
 10
233.1883336562865
 20
113.1055605128813
 30
0.0
 10
233.4438500764072
 20
112.9872901611137
 30
0.0
 10
233.5638368360473
 20
112.9158711664473
 30
0.0
 10
233.7889828333677
 20
112.7514082915525
 30
0.0
 10
233.8951095977515
 20
112.6572360685763
 30
0.0
 10
234.0864362454435
 20
112.453737864553
 30
0.0
 10
234.1723725919769
 20
112.3441529316047
 30
0.0
 10
234.3248695531955
 20
112.109335170459
 30
0.0
 10
234.3910146164239
 20
111.9840459415191
 30
0.0
 10
234.4972350516196
 20
111.7289575615174
 30
0.0
 10
234.5382756634482
 20
111.597827092598
 30
0.0
 10
234.594462251397
 20
111.3281377659909
 30
0.0
 10
234.6086798229611
 20
111.1929584652656
 30
0.0
 10
234.6093107146468
 20
110.9282135337278
 30
0.0
 10
234.595522332847
 20
110.7961026642178
 30
0.0
 10
234.5406787611031
 20
110.5440478637176
 30
0.0
 10
234.5001775790483
 20
110.4245836392566
 30
0.0
 10
234.3405883803649
 20
110.0841149192152
 30
0.0
 10
234.185820546686
 20
109.8877035637812
 30
0.0
 10
233.8978408328055
 20
109.6474856167403
 30
0.0
 10
233.7938919102525
 20
109.5773546023516
 30
0.0
 10
233.5694807123613
 20
109.454963539951
 30
0.0
 10
233.4475501583129
 20
109.4023662619093
 30
0.0
 10
233.1953077048541
 20
109.3187119191855
 30
0.0
 10
233.0644305311648
 20
109.2870582677555
 30
0.0
 10
232.7922241827848
 20
109.2439356528287
 30
0.0
 10
232.6502630833647
 20
109.2327201550841
 30
0.0
 10
232.3677382487908
 20
109.2327201550841
 30
0.0
  0
SPLINE
  5
161
330
1F
100
AcDbEntity
  8
0
  6
HIDDEN
 62
     7
370
     0
100
AcDbSpline
210
0.0
220
0.0
230
1.0
 70
     8
 71
     3
 72
     8
 73
     4
 74
     0
 42
0.00000001
 43
0.00000001
 40
0.0
 40
0.0
 40
0.0
 40
0.0
 40
1.0
 40
1.0
 40
1.0
 40
1.0
 10
233.6222226743509
 20
110.4575655610489
 30
0.0
 10
233.5663328487859
 20
110.5899412053315
 30
0.0
 10
233.545284968904
 20
110.7004032704629
 30
0.0
 10
233.5628473092656
 20
110.7915684783422
 30
0.0
  0
SPLINE
  5
162
330
1F
100
AcDbEntity
  8
0
  6
HIDDEN
 62
     7
370
     0
100
AcDbSpline
210
0.0
220
0.0
230
1.0
 70
     8
 71
     3
 72
    48
 73
    44
 74
     0
 42
0.00000001
 43
0.00000001
 40
0.0
 40
0.0
 40
0.0
 40
0.0
 40
0.0312500000000013
 40
0.0312500000000013
 40
0.0625000000000026
 40
0.0625000000000026
 40
0.1250000000000027
 40
0.1250000000000027
 40
0.1875000000000029
 40
0.1875000000000029
 40
0.250000000000003
 40
0.250000000000003
 40
0.3125000000000031
 40
0.3125000000000031
 40
0.3437500000000027
 40
0.3437500000000027
 40
0.3750000000000022
 40
0.3750000000000022
 40
0.4375000000000013
 40
0.4375000000000013
 40
0.5000000000000004
 40
0.5000000000000004
 40
0.5624999999999996
 40
0.5624999999999996
 40
0.6249999999999986
 40
0.6249999999999986
 40
0.656249999999998
 40
0.656249999999998
 40
0.6874999999999974
 40
0.6874999999999974
 40
0.7187499999999969
 40
0.7187499999999969
 40
0.7499999999999962
 40
0.7499999999999962
 40
0.7812499999999957
 40
0.7812499999999957
 40
0.8124999999999951
 40
0.8124999999999951
 40
0.8749999999999968
 40
0.8749999999999968
 40
0.9374999999999983
 40
0.9374999999999983
 40
1.0
 40
1.0
 40
1.0
 40
1.0
 10
233.5628473092646
 20
110.7915684783384
 30
0.0
 10
233.655225043529
 20
110.7513997789711
 30
0.0
 10
233.7309071480305
 20
110.7196315223045
 30
0.0
 10
233.8719602604556
 20
110.6542712972516
 30
0.0
 10
233.9361300034048
 20
110.6214039256607
 30
0.0
 10
234.1140216089594
 20
110.5168969709298
 30
0.0
 10
234.2151840115066
 20
110.4387440705664
 30
0.0
 10
234.3898604761418
 20
110.2524129713116
 30
0.0
 10
234.4629590558048
 20
110.1437024108038
 30
0.0
 10
234.5684976547128
 20
109.8956442671011
 30
0.0
 10
234.6021681395774
 20
109.7530601190438
 30
0.0
 10
234.6139610719293
 20
109.4361857811705
 30
0.0
 10
234.5914614133725
 20
109.2583793565594
 30
0.0
 10
234.5063166671054
 20
108.9808345926967
 30
0.0
 10
234.4689554492712
 20
108.8851028510081
 30
0.0
 10
234.3784988750016
 20
108.695600296751
 30
0.0
 10
234.3259519565682
 20
108.6024733925372
 30
0.0
 10
234.147088810223
 20
108.3277310603919
 30
0.0
 10
234.0017813275137
 20
108.1558064524522
 30
0.0
 10
233.6932170272546
 20
107.8560311545527
 30
0.0
 10
233.5320737537274
 20
107.7286548164321
 30
0.0
 10
233.2052921549431
 20
107.5095799885658
 30
0.0
 10
233.0446278643401
 20
107.421212196289
 30
0.0
 10
232.7296758333746
 20
107.2744419762107
 30
0.0
 10
232.5744823797457
 20
107.2165529223174
 30
0.0
 10
232.3598041278171
 20
107.147707507458
 30
0.0
 10
232.2909040181395
 20
107.127626112484
 30
0.0
 10
232.1629842894506
 20
107.0897100883498
 30
0.0
 10
232.1028618567475
 20
107.0723200620384
 30
0.0
 10
232.0119737967042
 20
107.028430101088
 30
0.0
 10
231.9864052497744
 20
107.0002516411373
 30
0.0
 10
232.0221362051965
 20
106.9233635195114
 30
0.0
 10
232.076137611103
 20
106.8801025979066
 30
0.0
 10
232.199515233504
 20
106.8027473002806
 30
0.0
 10
232.2704267417612
 20
106.7675626760843
 30
0.0
 10
232.4197095816293
 20
106.7061762543043
 30
0.0
 10
232.4985994838844
 20
106.6799604388255
 30
0.0
 10
232.7387833624275
 20
106.6176593951212
 30
0.0
 10
232.9050417924587
 20
106.5968536303486
 30
0.0
 10
233.2449000196112
 20
106.606040981614
 30
0.0
 10
233.4186226279155
 20
106.6368107713044
 30
0.0
 10
233.7522493543079
 20
106.7620206332031
 30
0.0
 10
233.9150716935839
 20
106.8577051714737
 30
0.0
 10
234.0600094761757
 20
106.9902413025683
 30
0.0
  0
SPLINE
  5
163
330
1F
100
AcDbEntity
  8
0
  6
HIDDEN
 62
     7
370
     0
100
AcDbSpline
210
0.0
220
0.0
230
1.0
 70
     8
 71
     3
 72
    16
 73
    12
 74
     0
 42
0.00000001
 43
0.00000001
 40
0.0
 40
0.0
 40
0.0
 40
0.0
 40
0.2499999999999979
 40
0.2499999999999979
 40
0.4999999999999958
 40
0.4999999999999958
 40
0.7499999999999937
 40
0.7499999999999937
 40
0.8749999999999968
 40
0.8749999999999968
 40
1.0
 40
1.0
 40
1.0
 40
1.0
 10
234.5890174951941
 20
108.0618373690445
 30
0.0
 10
234.6203523315186
 20
108.2955522664198
 30
0.0
 10
234.6139721396798
 20
108.526583728917
 30
0.0
 10
234.5431255667866
 20
108.9846769171108
 30
0.0
 10
234.4801643776242
 20
109.2006362162919
 30
0.0
 10
234.3110425565118
 20
109.6105424806811
 30
0.0
 10
234.2049036240986
 20
109.8035354911699
 30
0.0
 10
234.0173409799093
 20
110.0676535039495
 30
0.0
 10
233.94987249308
 20
110.1519981315463
 30
0.0
 10
233.7994360523678
 20
110.3134146032596
 30
0.0
 10
233.7182341119605
 20
110.3896797169951
 30
0.0
 10
233.6222226743488
 20
110.4575655610535
 30
0.0
  0
LWPOLYLINE
  5
164
330
1F
100
AcDbEntity
  8
0
  6
HIDDEN
 62
     7
370
     0
100
AcDbPolyline
 90
       20
 70
   128
 43
0.0
 10
234.5890174952
 20
108.061837369
 10
234.5818568807
 20
108.6567872769
 10
234.3907310818
 20
109.2233302284
 10
234.032602439
 20
109.7111857565
 10
233.5392547303
 20
110.0770568725
 10
232.9544723733
 20
110.2884726568
 10
232.3301545753
 20
110.3266700407
 10
231.7217092984
 20
110.1882590212
 10
231.1831358247
 20
109.8855235225
 10
230.762232341
 20
109.4453312026
 10
230.4963538681
 20
108.9067489591
 10
230.4090970172
 20
108.3175757569
 10
230.5082058
 20
107.7301004891
 10
230.7848843505
 20
107.1964613576
 10
231.2145775546
 20
106.7640186281
 10
231.7591503075
 20
106.4711514252
 10
232.3702719885
 20
106.3438515992
 10
232.9937057859
 20
106.3934169604
 10
233.574122192
 20
106.6154486022
 10
234.0600094762
 20
106.9902413026
  0
ARC
  5
165
330
1F
100
AcDbEntity
  8
0
  6
HIDDEN
 62
     7
370
     0
100
AcDbCircle
 10
233.2109331613
 20
110.5567300433
 30
0.0
 40
0.4230752392880043
100
AcDbArc
 50
346.4443490422
 51
33.7158720492
  0
SPLINE
  5
166
330
1F
100
AcDbEntity
  8
0
  6
HIDDEN
 62
     7
370
     0
100
AcDbSpline
210
0.0
220
0.0
230
1.0
 70
     8
 71
     3
 72
    12
 73
     8
 74
     0
 42
0.00000001
 43
0.00000001
 40
0.0
 40
0.0
 40
0.0
 40
0.0
 40
0.2499999999999969
 40
0.2499999999999969
 40
0.4999999999999938
 40
0.4999999999999938
 40
1.0
 40
1.0
 40
1.0
 40
1.0
 10
234.0600094761757
 20
106.9902413025683
 30
0.0
 10
234.0785955614007
 20
107.0747522480746
 30
0.0
 10
234.1065477273476
 20
107.1632933850533
 30
0.0
 10
234.1746064459426
 20
107.3416448666013
 30
0.0
 10
234.2146098648921
 20
107.4320139957297
 30
0.0
 10
234.3501955882696
 20
107.7079556748723
 30
0.0
 10
234.4570650708311
 20
107.8931117610714
 30
0.0
 10
234.5890174951941
 20
108.0618373690445
 30
0.0
  0
LINE
  5
167
330
1F
100
AcDbEntity
  8
0
  6
HIDDEN
 62
     7
370
     0
100
AcDbLine
 10
118.7590006661
 20
94.3639284221
 30
0.0
 11
118.7590006661
 21
91.5414284221
 31
0.0
  0
LINE
  5
168
330
1F
100
AcDbEntity
  8
0
  6
HIDDEN
 62
     7
370
     0
100
AcDbLine
 10
127.7090006661
 20
94.3639284221
 30
0.0
 11
127.7090006661
 21
90.4087801628
 31
0.0
  0
LINE
  5
169
330
1F
100
AcDbEntity
  8
0
  6
HIDDEN
 62
     7
370
     0
100
AcDbLine
 10
118.7590006661
 20
130.3439284221
 30
0.0
 11
118.7590006661
 21
133.2238661875
 31
0.0
  0
LINE
  5
16A
330
1F
100
AcDbEntity
  8
0
  6
HIDDEN
 62
     7
370
     0
100
AcDbLine
 10
117.6090006661
 20
130.3439284221
 30
0.0
 11
117.6090006661
 21
132.0446061686
 31
0.0
  0
LINE
  5
16B
330
1F
100
AcDbEntity
  8
0
  6
HIDDEN
 62
     7
370
     0
100
AcDbLine
 10
117.6090006661
 20
94.3639284221
 30
0.0
 11
117.6090006661
 21
92.7007678971
 31
0.0
  0
LINE
  5
16C
330
1F
100
AcDbEntity
  8
0
  6
HIDDEN
 62
     7
370
     0
100
AcDbLine
 10
123.7090006661
 20
130.3439284221
 30
0.0
 11
123.7090006661
 21
134.1980360945
 31
0.0
  0
LINE
  5
16D
330
1F
100
AcDbEntity
  8
0
  6
HIDDEN
 62
     7
370
     0
100
AcDbLine
 10
168.8090006661
 20
121.8539284221
 30
0.0
 11
168.8090006661
 21
102.8539284221
 31
0.0
  0
LWPOLYLINE
  5
16E
330
1F
100
AcDbEntity
  8
0
  6
HIDDEN
 62
     7
370
     0
100
AcDbPolyline
 90
        2
 70
   128
 43
0.0
 10
168.8090006661
 20
102.8539284221
 10
168.8090006661
 20
102.8539284221
  0
LINE
  5
16F
330
1F
100
AcDbEntity
  8
0
  6
HIDDEN
 62
     7
370
     0
100
AcDbLine
 10
171.3090006661
 20
121.8539284221
 30
0.0
 11
171.3090006661
 21
102.8539284221
 31
0.0
  0
LWPOLYLINE
  5
170
330
1F
100
AcDbEntity
  8
0
  6
HIDDEN
 62
     7
370
     0
100
AcDbPolyline
 90
        2
 70
   128
 43
0.0
 10
171.3090006661
 20
102.8539284221
 10
171.3090006661
 20
102.8539284221
  0
LWPOLYLINE
  5
171
330
1F
100
AcDbEntity
  8
0
  6
HIDDEN
 62
     7
370
     0
100
AcDbPolyline
 90
        2
 70
   128
 43
0.0
 10
175.4590006661
 20
85.9539284221
 10
175.4590006661
 20
85.9539284221
  0
LINE
  5
172
330
1F
100
AcDbEntity
  8
0
  6
HIDDEN
 62
     7
370
     0
100
AcDbLine
 10
159.9590006661
 20
120.8539284221
 30
0.0
 11
159.9590006661
 21
103.8539284221
 31
0.0
  0
LINE
  5
173
330
1F
100
AcDbEntity
  8
0
  6
HIDDEN
 62
     7
370
     0
100
AcDbLine
 10
159.4590006661
 20
103.3539284221
 30
0.0
 11
159.4590006661
 21
121.3539284221
 31
0.0
  0
LINE
  5
174
330
1F
100
AcDbEntity
  8
0
  6
HIDDEN
 62
     7
370
     0
100
AcDbLine
 10
175.4590006661
 20
85.9539284221
 30
0.0
 11
169.3213258637
 21
85.9539284221
 31
0.0
  0
LINE
  5
175
330
1F
100
AcDbEntity
  8
0
  6
HIDDEN
 62
     7
370
     0
100
AcDbLine
 10
169.4190006661
 20
84.856091263
 30
0.0
 11
169.4190006661
 21
85.5495327938
 31
0.0
  0
LINE
  5
176
330
1F
100
AcDbEntity
  8
0
  6
HIDDEN
 62
     7
370
     0
100
AcDbLine
 10
175.4590006661
 20
85.9539284221
 30
0.0
 11
175.4590006661
 21
82.7936510215
 31
0.0
  0
LINE
  5
177
330
1F
100
AcDbEntity
  8
0
  6
HIDDEN
 62
     7
370
     0
100
AcDbLine
 10
165.6966754684
 20
85.9539284221
 30
0.0
 11
162.4590006661
 21
85.9539284221
 31
0.0
  0
LINE
  5
178
330
1F
100
AcDbEntity
  8
0
  6
HIDDEN
 62
     7
370
     0
100
AcDbLine
 10
165.5990006661
 20
85.5495327938
 30
0.0
 11
165.5990006661
 21
84.856091263
 31
0.0
  0
LINE
  5
179
330
1F
100
AcDbEntity
  8
0
  6
HIDDEN
 62
     7
370
     0
100
AcDbLine
 10
154.4590006661
 20
80.8698054392
 30
0.0
 11
154.4590006661
 21
85.9539284221
 31
0.0
  0
LINE
  5
17A
330
1F
100
AcDbEntity
  8
0
  6
HIDDEN
 62
     7
370
     0
100
AcDbLine
 10
162.4590006661
 20
85.9539284221
 30
0.0
 11
154.4590006661
 21
85.9539284221
 31
0.0
  0
LINE
  5
17B
330
1F
100
AcDbEntity
  8
0
  6
HIDDEN
 62
     7
370
     0
100
AcDbLine
 10
168.8090006661
 20
103.8539284221
 30
0.0
 11
168.8090006661
 21
120.8539284221
 31
0.0
  0
LWPOLYLINE
  5
17C
330
1F
100
AcDbEntity
  8
0
  6
HIDDEN
 62
     7
370
     0
100
AcDbPolyline
 90
        2
 70
   128
 43
0.0
 10
175.4590006661
 20
138.7539284221
 10
175.4590006661
 20
138.7539284221
  0
LINE
  5
17D
330
1F
100
AcDbEntity
  8
0
  6
HIDDEN
 62
     7
370
     0
100
AcDbLine
 10
175.4590006661
 20
138.7539284221
 30
0.0
 11
169.0247031344
 21
138.7539284221
 31
0.0
  0
LINE
  5
17E
330
1F
100
AcDbEntity
  8
0
  6
HIDDEN
 62
     7
370
     0
100
AcDbLine
 10
169.4190006661
 20
140.1591626133
 30
0.0
 11
169.4190006661
 21
139.4735822731
 31
0.0
  0
LINE
  5
17F
330
1F
100
AcDbEntity
  8
0
  6
HIDDEN
 62
     7
370
     0
100
AcDbLine
 10
175.4590006661
 20
138.7539284221
 30
0.0
 11
175.4590006661
 21
142.2003687459
 31
0.0
  0
LINE
  5
180
330
1F
100
AcDbEntity
  8
0
  6
HIDDEN
 62
     7
370
     0
100
AcDbLine
 10
165.9932981978
 20
138.7539284221
 30
0.0
 11
162.4590006661
 21
138.7539284221
 31
0.0
  0
LINE
  5
181
330
1F
100
AcDbEntity
  8
0
  6
HIDDEN
 62
     7
370
     0
100
AcDbLine
 10
165.5990006661
 20
139.4735822731
 30
0.0
 11
165.5990006661
 21
140.1591626133
 31
0.0
  0
LINE
  5
182
330
1F
100
AcDbEntity
  8
0
  6
HIDDEN
 62
     7
370
     0
100
AcDbLine
 10
162.4590006661
 20
138.7539284221
 30
0.0
 11
154.4590006661
 21
138.7539284221
 31
0.0
  0
ELLIPSE
  5
183
330
1F
100
AcDbEntity
  8
0
  6
HIDDEN
 62
     7
370
     0
100
AcDbEllipse
 10
113.4415688017
 20
112.3539284221
 30
0.0
 11
20.07002071827051
 21
-1.421085471520200E-14
 31
0.0
210
0.0
220
0.0
230
1.0
 40
0.8164965809
 41
1.302650465081197
 42
1.361629843993895
  0
LINE
  5
184
330
1F
100
AcDbEntity
  8
0
  6
HIDDEN
 62
     7
370
     0
100
AcDbLine
 10
117.6090006661
 20
130.3439284221
 30
0.0
 11
117.6090006661
 21
128.3838638199
 31
0.0
  0
ELLIPSE
  5
185
330
1F
100
AcDbEntity
  8
0
  6
HIDDEN
 62
     7
370
     0
100
AcDbEllipse
 10
113.4415688017
 20
112.3539284221
 30
0.0
 11
20.07002071827051
 21
-1.421085471520200E-14
 31
0.0
210
0.0
220
0.0
230
1.0
 40
0.8164965809
 41
4.921555463185703
 42
4.980534842098404
  0
LINE
  5
186
330
1F
100
AcDbEntity
  8
0
  6
HIDDEN
 62
     7
370
     0
100
AcDbLine
 10
117.6090006661
 20
94.3639284221
 30
0.0
 11
117.6090006661
 21
96.3239930243
 31
0.0
  0
LINE
  5
187
330
1F
100
AcDbEntity
  8
0
  6
HIDDEN
 62
     7
370
     0
100
AcDbLine
 10
127.7090006661
 20
94.3639284221
 30
0.0
 11
127.7090006661
 21
96.0664147997
 31
0.0
  0
LINE
  5
188
330
1F
100
AcDbEntity
  8
0
  6
HIDDEN
 62
     7
370
     0
100
AcDbLine
 10
118.7590006661
 20
94.3639284221
 30
0.0
 11
118.7590006661
 21
96.5524379861
 31
0.0
  0
LINE
  5
189
330
1F
100
AcDbEntity
  8
0
  6
HIDDEN
 62
     7
370
     0
100
AcDbLine
 10
123.7090006661
 20
130.3439284221
 30
0.0
 11
123.7090006661
 21
128.6414420445
 31
0.0
  0
LINE
  5
18A
330
1F
100
AcDbEntity
  8
0
  6
HIDDEN
 62
     7
370
     0
100
AcDbLine
 10
118.7590006661
 20
130.3439284221
 30
0.0
 11
118.7590006661
 21
128.1554188581
 31
0.0
  0
SPLINE
  5
18B
330
1F
100
AcDbEntity
  8
0
  6
HIDDEN
 62
     7
370
     0
100
AcDbSpline
210
0.0
220
0.0
230
1.0
 70
    11
 71
     3
 72
    34
 73
    30
 74
     0
 42
0.00000001
 43
0.00000001
 40
0.0
 40
0.0
 40
0.0
 40
0.0
 40
0.0127738756313435
 40
0.048130501886138
 40
0.080742501692402
 40
0.1375890913626938
 40
0.1884518731192291
 40
0.2226712138150706
 40
0.2626938372949206
 40
0.2986558359810596
 40
0.3315197765429551
 40
0.3878459718944563
 40
0.3881259547070438
 40
0.444092611332588
 40
0.4768435653244691
 40
0.5126448960710661
 40
0.5530084671478374
 40
0.5873855940016106
 40
0.6380121006395985
 40
0.6949796268749338
 40
0.7275539945508064
 40
0.7628079420081075
 40
0.8028703493977766
 40
0.8370831563378199
 40
0.8877749825785647
 40
0.8880089190148238
 40
0.9388397946263422
 40
0.9729712758707773
 40
1.0
 40
1.0
 40
1.0
 40
1.0
 10
137.6690125785662
 20
89.28626656555005
 30
0.0
 10
137.728206231129
 20
89.29235546935358
 30
0.0
 10
137.9512411414838
 20
89.31529776223775
 30
0.0
 10
138.474593588261
 20
89.3519425140454
 30
0.0
 10
139.3473570467269
 20
89.37962654407933
 30
0.0
 10
140.4621950161686
 20
89.36907094723091
 30
0.0
 10
141.5752601624748
 20
89.25292592342693
 30
0.0
 10
142.4697023194605
 20
89.13133496444281
 30
0.0
 10
143.1535346581584
 20
89.009577055051
 30
0.0
 10
143.6942939453476
 20
88.8932158394762
 30
0.0
 10
144.1076884178233
 20
88.79974325755394
 30
0.0
 10
144.3358506386049
 20
88.73310515621982
 30
0.0
 10
144.1814735330445
 20
88.7743255820299
 30
0.0
 10
144.1545954587583
 20
88.78680195569834
 30
0.0
 10
143.6986715157543
 20
88.89238341388428
 30
0.0
 10
143.1747383338015
 20
89.00513189496992
 30
0.0
 10
142.488531445557
 20
89.12822998991216
 30
0.0
 10
141.5954178812607
 20
89.2502213770823
 30
0.0
 10
140.4819816008207
 20
89.36797391777729
 30
0.0
 10
139.371231074531
 20
89.37994450552969
 30
0.0
 10
138.4864785593883
 20
89.35288695616335
 30
0.0
 10
137.8192845831364
 20
89.3049548822957
 30
0.0
 10
137.2780047599484
 20
89.24866068930884
 30
0.0
 10
136.8904516778198
 20
89.20358056628152
 30
0.0
 10
136.6964245805159
 20
89.16469792720818
 30
0.0
 10
136.8226518792587
 20
89.18610472750468
 30
0.0
 10
136.8518109147773
 20
89.19602603640713
 30
0.0
 10
137.2233916529931
 20
89.24365586539396
 30
0.0
 10
137.5324357414119
 20
89.2732069574341
 30
0.0
 10
137.6690125785662
 20
89.28626656555004
 30
0.0
  0
SPLINE
  5
18C
330
1F
100
AcDbEntity
  8
0
  6
HIDDEN
 62
     7
370
     0
100
AcDbSpline
210
0.0
220
0.0
230
1.0
 70
     8
 71
     3
 72
    38
 73
    34
 74
     0
 42
0.00000001
 43
0.00000001
 40
-0.093922140067779
 40
-0.0657752597753781
 40
-0.0344739496007943
 40
0.0
 40
0.0323124298479835
 40
0.0609695982577461
 40
0.0859698687835549
 40
0.107313175594656
 40
0.125001929016961
 40
0.1562358721977444
 40
0.1978507372990771
 40
0.249816879324835
 40
0.278262948030722
 40
0.3049884159832858
 40
0.330004216891384
 40
0.3533239044418167
 40
0.3749644360933807
 40
0.4060267838322919
 40
0.4476555976010196
 40
0.4998320869201295
 40
0.5286685248934814
 40
0.5555536435543463
 40
0.5805015705746595
 40
0.6035302879119623
 40
0.6246629693429199
 40
0.6685312637103241
 40
0.718326915355546
 40
0.765237570611313
 40
0.7915712044406462
 40
0.8122937035710439
 40
0.8615656629637486
 40
0.906077859932221
 40
0.9342247402246219
 40
0.9655260503992057
 40
1.0
 40
1.032312429847984
 40
1.060969598257746
 40
1.085969868783555
 10
138.4492658302591
 20
135.3569324481166
 30
0.0
 10
137.8451976117498
 20
135.4014659533324
 30
0.0
 10
137.3698825489036
 20
135.4495413395654
 30
0.0
 10
137.0502837229037
 20
135.4857040788313
 30
0.0
 10
136.8632893171897
 20
135.5120942130197
 30
0.0
 10
136.7749836576373
 20
135.528163822817
 30
0.0
 10
136.7455701617681
 20
135.5359875080669
 30
0.0
 10
136.8177022318369
 20
135.5178200094832
 30
0.0
 10
137.1388142340314
 20
135.4732134295205
 30
0.0
 10
137.710841724246
 20
135.4124749008498
 30
0.0
 10
138.3613740720022
 20
135.3631307378299
 30
0.0
 10
138.9112502007437
 20
135.3407682773505
 30
0.0
 10
139.4666880665218
 20
135.332286067446
 30
0.0
 10
140.0074636141583
 20
135.3387371535946
 30
0.0
 10
140.6053935089576
 20
135.3622155301963
 30
0.0
 10
141.3450593661245
 20
135.4291354010334
 30
0.0
 10
142.2771089993974
 20
135.5452368349686
 30
0.0
 10
143.066445733071
 20
135.6805517195599
 30
0.0
 10
143.6053754209084
 20
135.7956635436271
 30
0.0
 10
143.9194797608043
 20
135.8654376201781
 30
0.0
 10
144.1247601291701
 20
135.915997705674
 30
0.0
 10
144.235830115261
 20
135.9466758455808
 30
0.0
 10
144.282101617065
 20
135.961402862837
 30
0.0
 10
144.1561367487188
 20
135.9235432692496
 30
0.0
 10
143.6858912198456
 20
135.8130574848235
 30
0.0
 10
143.0326932562571
 20
135.6733532664474
 30
0.0
 10
142.4286743007411
 20
135.570226660302
 30
0.0
 10
141.7543362511027
 20
135.4707906345326
 30
0.0
 10
140.8689867681153
 20
135.377320300257
 30
0.0
 10
139.899507877503
 20
135.3303117941843
 30
0.0
 10
139.111172300236
 20
135.3339960092848
 30
0.0
 10
138.4492658302591
 20
135.3569324481166
 30
0.0
 10
137.8451976117498
 20
135.4014659533324
 30
0.0
 10
137.3698825489036
 20
135.4495413395654
 30
0.0
  0
LINE
  5
18D
330
1F
100
AcDbEntity
  8
0
  6
HIDDEN
 62
     7
370
     0
100
AcDbLine
 10
235.5090006661
 20
116.5539284221
 30
0.0
 11
235.5090006661
 21
108.1539284221
 31
0.0
  0
SPLINE
  5
18E
330
1F
100
AcDbEntity
  8
0
  6
HIDDEN
 62
     7
370
     0
100
AcDbSpline
210
0.0
220
0.0
230
1.0
 70
     8
 71
     3
 72
    62
 73
    58
 74
     0
 42
0.00000001
 43
0.00000001
 40
-0.0312500000000003
 40
-0.0312500000000003
 40
0.0
 40
0.0
 40
0.0312499999999975
 40
0.0312499999999975
 40
0.062499999999995
 40
0.062499999999995
 40
0.1249999999999928
 40
0.1249999999999928
 40
0.1874999999999905
 40
0.1874999999999905
 40
0.21874999999999
 40
0.21874999999999
 40
0.2499999999999895
 40
0.2499999999999895
 40
0.281249999999989
 40
0.281249999999989
 40
0.3124999999999885
 40
0.3124999999999885
 40
0.3437499999999878
 40
0.3437499999999878
 40
0.3749999999999872
 40
0.3749999999999872
 40
0.437499999999986
 40
0.437499999999986
 40
0.4687499999999867
 40
0.4687499999999867
 40
0.4999999999999876
 40
0.4999999999999876
 40
0.5312499999999883
 40
0.5312499999999883
 40
0.5624999999999892
 40
0.5624999999999892
 40
0.59374999999999
 40
0.59374999999999
 40
0.6249999999999908
 40
0.6249999999999908
 40
0.6562499999999917
 40
0.6562499999999917
 40
0.6874999999999925
 40
0.6874999999999925
 40
0.7187499999999932
 40
0.7187499999999932
 40
0.749999999999994
 40
0.749999999999994
 40
0.7812499999999949
 40
0.7812499999999949
 40
0.8124999999999957
 40
0.8124999999999957
 40
0.8749999999999986
 40
0.8749999999999986
 40
0.9062499999999989
 40
0.9062499999999989
 40
0.9374999999999992
 40
0.9374999999999992
 40
0.9687499999999997
 40
0.9687499999999997
 40
1.0
 40
1.0
 40
1.031249999999998
 40
1.031249999999998
 10
232.3677382487908
 20
111.4806993206545
 30
0.0
 10
232.6502630833646
 20
111.4806993206545
 30
0.0
 10
232.7885861144158
 20
111.4966573452565
 30
0.0
 10
233.059814060108
 20
111.5581909965628
 30
0.0
 10
233.1940244262763
 20
111.6045837268148
 30
0.0
 10
233.5730039339806
 20
111.7810590438634
 30
0.0
 10
233.8018804944402
 20
111.9510651128917
 30
0.0
 10
234.1827733465915
 20
112.3569836004607
 30
0.0
 10
234.3383714194586
 20
112.5971041188385
 30
0.0
 10
234.4975174649805
 20
112.979720261941
 30
0.0
 10
234.5392828559307
 20
113.1139725548713
 30
0.0
 10
234.5946012697407
 20
113.3812965630504
 30
0.0
 10
234.6087070972114
 20
113.5146704537665
 30
0.0
 10
234.6092852552663
 20
113.7806678305346
 30
0.0
 10
234.5952942063232
 20
113.9128928529582
 30
0.0
 10
234.5407957774467
 20
114.1631807729701
 30
0.0
 10
234.4999054384985
 20
114.2840122059013
 30
0.0
 10
234.3932974388221
 20
114.5111325009123
 30
0.0
 10
234.3285498917434
 20
114.6160192145808
 30
0.0
 10
234.176989016116
 20
114.8105741885301
 30
0.0
 10
234.0897024189765
 20
114.9002531195876
 30
0.0
 10
233.80408846453
 20
115.1387278284566
 30
0.0
 10
233.5747022694789
 20
115.263011974397
 30
0.0
 10
233.1984835998255
 20
115.3882441725204
 30
0.0
 10
233.0660125447748
 20
115.4205092599703
 30
0.0
 10
232.7920575683229
 20
115.463986082507
 30
0.0
 10
232.6540169050206
 20
115.4748279135075
 30
0.0
 10
232.3757993330395
 20
115.4754326247514
 30
0.0
 10
232.2339899742749
 20
115.4647713074272
 30
0.0
 10
231.9615334069438
 20
115.4224849400523
 30
0.0
 10
231.8296676758686
 20
115.3911114612294
 30
0.0
 10
231.5741512557481
 20
115.307049859928
 30
0.0
 10
231.454164496108
 20
115.2555351488793
 30
0.0
 10
231.2290184987876
 20
115.1335958439587
 30
0.0
 10
231.1228917344039
 20
115.0622896746573
 30
0.0
 10
230.9315650867118
 20
114.9034030458187
 30
0.0
 10
230.8456287401785
 20
114.8156765429938
 30
0.0
 10
230.6931317789599
 20
114.6215234721052
 30
0.0
 10
230.6269867157315
 20
114.5149519532753
 30
0.0
 10
230.5207662805358
 20
114.2906974511787
 30
0.0
 10
230.4797256687072
 20
114.1719486038008
 30
0.0
 10
230.4235390807584
 20
113.9193555155965
 30
0.0
 10
230.4093215091943
 20
113.788602072229
 30
0.0
 10
230.4086906175086
 20
113.5240520965679
 30
0.0
 10
230.4224789993085
 20
113.3876484580298
 30
0.0
 10
230.4773225710524
 20
113.1188954293982
 30
0.0
 10
230.5178237531071
 20
112.9871959245616
 30
0.0
 10
230.6774129517904
 20
112.6003480678987
 30
0.0
 10
230.8321807854693
 20
112.3606220651909
 30
0.0
 10
231.1201604993499
 20
112.0531370555717
 30
0.0
 10
231.2241094219029
 20
111.960558163607
 30
0.0
 10
231.4485206197941
 20
111.7956087432518
 30
0.0
 10
231.5704511738425
 20
111.7227299496078
 30
0.0
 10
231.8226936273013
 20
111.6050924419652
 30
0.0
 10
231.9535708009907
 20
111.5595601871734
 30
0.0
 10
232.2257771493706
 20
111.4971704797026
 30
0.0
 10
232.3677382487908
 20
111.4806993206545
 30
0.0
 10
232.6502630833646
 20
111.4806993206545
 30
0.0
  0
LINE
  5
18F
330
1F
100
AcDbEntity
  8
0
  6
HIDDEN
 62
     7
370
     0
100
AcDbLine
 10
171.3090006661
 20
108.1539284221
 30
0.0
 11
171.3090006661
 21
116.5539284221
 31
0.0
  0
SPLINE
  5
190
330
1F
100
AcDbEntity
  8
0
  6
HIDDEN
 62
     7
370
     0
100
AcDbSpline
210
0.0
220
0.0
230
1.0
 70
     8
 71
     3
 72
    12
 73
     8
 74
     0
 42
0.00000001
 43
0.00000001
 40
0.0
 40
0.0
 40
0.0
 40
0.0
 40
0.5
 40
0.5
 40
0.7500000000000001
 40
0.7500000000000001
 40
1.0
 40
1.0
 40
1.0
 40
1.0
 10
250.1740592343617
 20
106.0448639731472
 30
0.0
 10
249.8139814049285
 20
107.0530635243731
 30
0.0
 10
249.5176482001621
 20
108.0963499105746
 30
0.0
 10
249.2151502083809
 20
109.6863164768193
 30
0.0
 10
249.1379695750545
 20
110.219906977408
 30
0.0
 10
249.035017241767
 20
111.2859095034378
 30
0.0
 10
249.0090006660777
 20
111.8195780313624
 30
0.0
 10
249.0090006660778
 20
112.3539284220891
 30
0.0
  0
LINE
  5
191
330
1F
100
AcDbEntity
  8
0
  6
HIDDEN
 62
     7
370
     0
100
AcDbLine
 10
249.0090006661
 20
128.8539284221
 30
0.0
 11
249.0090006661
 21
112.3539284221
 31
0.0
  0
SPLINE
  5
192
330
1F
100
AcDbEntity
  8
0
  6
HIDDEN
 62
     7
370
     0
100
AcDbSpline
210
0.0
220
0.0
230
1.0
 70
     8
 71
     3
 72
    12
 73
     8
 74
     0
 42
0.00000001
 43
0.00000001
 40
0.0
 40
0.0
 40
0.0
 40
0.0
 40
0.4999999999999999
 40
0.4999999999999999
 40
0.7500000000000002
 40
0.7500000000000002
 40
1.0
 40
1.0
 40
1.0
 40
1.0
 10
248.5090006660777
 20
101.3563068129483
 30
0.0
 10
248.7456328145855
 20
102.0105980001685
 30
0.0
 10
249.00588823847
 20
102.7300889544417
 30
0.0
 10
249.4244318561522
 20
103.9032697563465
 30
0.0
 10
249.5686760616826
 20
104.3100802728071
 30
0.0
 10
249.8658188510619
 20
105.1556081038282
 30
0.0
 10
250.0191280712496
 20
105.5955480834191
 30
0.0
 10
250.1740592343633
 20
106.044863973146
 30
0.0
  0
LINE
  5
193
330
1F
100
AcDbEntity
  8
0
  6
HIDDEN
 62
     7
370
     0
100
AcDbLine
 10
270.5337577361
 20
101.4219993536
 30
0.0
 11
270.5399352866
 21
101.4024543933
 31
0.0
  0
LINE
  5
194
330
1F
100
AcDbEntity
  8
0
  6
HIDDEN
 62
     7
370
     0
100
AcDbLine
 10
270.5399352866
 20
101.4024543933
 30
0.0
 11
263.7227888478
 21
103.5466564861
 31
0.0
  0
LINE
  5
195
330
1F
100
AcDbEntity
  8
0
  6
HIDDEN
 62
     7
370
     0
100
AcDbLine
 10
263.7227888478
 20
103.5466564861
 30
0.0
 11
263.7166112973
 21
103.5662014464
 31
0.0
  0
LINE
  5
196
330
1F
100
AcDbEntity
  8
0
  6
HIDDEN
 62
     7
370
     0
100
AcDbLine
 10
260.3509176023
 20
104.1534960303
 30
0.0
 11
263.4985716439
 21
94.1947311214
 31
0.0
  0
LINE
  5
197
330
1F
100
AcDbEntity
  8
0
  6
HIDDEN
 62
     7
370
     0
100
AcDbLine
 10
263.4985716439
 20
94.1947311214
 30
0.0
 11
263.4483407116
 21
94.2105302935
 31
0.0
  0
LINE
  5
198
330
1F
100
AcDbEntity
  8
0
  6
HIDDEN
 62
     7
370
     0
100
AcDbLine
 10
270.6377447284
 20
101.3490043956
 30
0.0
 11
270.6377447284
 21
101.244369685
 31
0.0
  0
LINE
  5
199
330
1F
100
AcDbEntity
  8
0
  6
HIDDEN
 62
     7
370
     0
100
AcDbLine
 10
270.6377447284
 20
101.244369685
 30
0.0
 11
270.5399352866
 21
101.4024543933
 31
0.0
  0
SPLINE
  5
19A
330
1F
100
AcDbEntity
  8
0
  6
HIDDEN
 62
     7
370
     0
100
AcDbSpline
210
0.0
220
0.0
230
1.0
 70
     8
 71
     3
 72
    15
 73
    11
 74
     0
 42
0.00000001
 43
0.00000001
 40
0.0
 40
0.0
 40
0.0
 40
0.0
 40
0.1217795682012547
 40
0.2443523730698774
 40
0.3694995600770038
 40
0.4988960090181915
 40
0.6306890403886523
 40
0.7629361490410125
 40
0.897059459258268
 40
1.0
 40
1.0
 40
1.0
 40
1.0
 10
273.6367409550629
 20
91.86062086640597
 30
0.0
 10
273.6001199632424
 20
92.02175131600603
 30
0.0
 10
273.5266394411181
 20
92.34506177206318
 30
0.0
 10
273.32480379851
 20
93.11567748992618
 30
0.0
 10
273.0564241487697
 20
94.09318881967084
 30
0.0
 10
272.7180339119097
 20
95.28718163096698
 30
0.0
 10
272.3202816576949
 20
96.66247670064759
 30
0.0
 10
271.8653451815422
 20
98.20926552394171
 30
0.0
 10
271.4052208085692
 20
99.75545446438849
 30
0.0
 10
271.0816636096773
 20
100.8280867610003
 30
0.0
 10
270.9411649512775
 20
101.2938572620008
 30
0.0
  0
LINE
  5
19B
330
1F
100
AcDbEntity
  8
0
  6
HIDDEN
 62
     7
370
     0
100
AcDbLine
 10
273.6367409551
 20
91.8605733323
 30
0.0
 11
270.6377447284
 21
101.3490043956
 31
0.0
  0
LWPOLYLINE
  5
19C
330
1F
100
AcDbEntity
  8
0
  6
HIDDEN
 62
     7
370
     0
100
AcDbPolyline
 90
        2
 70
   128
 43
0.0
 10
154.4590006661
 20
85.9539284221
 10
154.4590006661
 20
85.9539284221
  0
LINE
  5
19D
330
1F
100
AcDbEntity
  8
0
  6
HIDDEN
 62
     7
370
     0
100
AcDbLine
 10
263.7227888478
 20
103.5466564861
 30
0.0
 11
263.5103863726
 21
103.4861429606
 31
0.0
  0
LINE
  5
19E
330
1F
100
AcDbEntity
  8
0
  6
HIDDEN
 62
     7
370
     0
100
AcDbLine
 10
263.4595245401
 20
103.6470631336
 30
0.0
 11
263.5103863726
 21
103.4861429606
 31
0.0
  0
LINE
  5
19F
330
1F
100
AcDbEntity
  8
0
  6
HIDDEN
 62
     7
370
     0
100
AcDbLine
 10
260.5838955692
 20
104.4516544925
 30
0.0
 11
263.8129248719
 21
94.2354289211
 31
0.0
  0
ELLIPSE
  5
1A0
330
1F
100
AcDbEntity
  8
0
  6
HIDDEN
 62
     7
370
     0
100
AcDbEllipse
 10
256.3396211102
 20
117.4118787949
 30
0.0
 11
-7.387193463641864
 21
23.21767785199212
 31
0.0
210
0.0
220
0.0
230
0.9999999999999998
 40
0.1180088425
 41
3.065930585306678
 42
3.174485344674769
  0
LINE
  5
1A1
330
1F
100
AcDbEntity
  8
0
  6
HIDDEN
 62
     7
370
     0
100
AcDbLine
 10
270.6377447284
 20
101.244369685
 30
0.0
 11
263.5103863726
 21
103.4861429606
 31
0.0
  0
LINE
  5
1A2
330
1F
100
AcDbEntity
  8
0
  6
HIDDEN
 62
     7
370
     0
100
AcDbLine
 10
154.4590006661
 20
80.8698054392
 30
0.0
 11
154.4590006661
 21
85.9539284221
 31
0.0
  0
LINE
  5
1A3
330
1F
100
AcDbEntity
  8
0
  6
HIDDEN
 62
     7
370
     0
100
AcDbLine
 10
154.4590006661
 20
85.9539284221
 30
0.0
 11
162.4590006661
 21
85.9539284221
 31
0.0
  0
ARC
  5
1A4
330
1F
100
AcDbEntity
  8
0
  6
HIDDEN
 62
     7
370
     0
100
AcDbCircle
 10
261.567324021
 20
105.5900417486
 30
0.0
 40
1.250197029164674
100
AcDbArc
 50
17.575165713
 51
182.2819262827
  0
LINE
  5
1A5
330
1F
100
AcDbEntity
  8
0
  6
HIDDEN
 62
     7
370
     0
100
AcDbLine
 10
260.6141548475
 20
104.4605528118
 30
0.0
 11
263.7650482116
 21
94.4915391108
 31
0.0
  0
ELLIPSE
  5
1A6
330
1F
100
AcDbEntity
  8
0
  6
HIDDEN
 62
     7
370
     0
100
AcDbEllipse
 10
256.4798853681
 20
117.3677613745
 30
0.0
 11
-7.330952083636816
 21
23.27026256218416
 31
0.0
210
0.0
220
0.0
230
0.9999999999999999
 40
0.0172077412
 41
3.245238726852165
 42
3.320539474953848
  0
LINE
  5
1A7
330
1F
100
AcDbEntity
  8
0
  6
HIDDEN
 62
     7
370
     0
100
AcDbLine
 10
263.5103863726
 20
103.4861429606
 30
0.0
 11
263.5103863726
 21
103.5907776713
 31
0.0
  0
LWPOLYLINE
  5
1A8
330
1F
100
AcDbEntity
  8
0
  6
HIDDEN
 62
     7
370
     0
100
AcDbPolyline
 90
       22
 70
   128
 43
0.0
 10
232.5090006661
 20
113.3726092246
 10
233.1279865323
 20
113.461340047
 10
233.691972788
 20
113.7196483911
 10
234.1508467793
 20
114.1245824271
 10
234.4638355382
 20
114.6401619888
 10
234.6031286402
 20
115.2205755696
 10
234.5563492817
 20
115.8142508758
 10
234.327654014
 20
116.3684372509
 10
233.9373634154
 20
116.8338928037
 10
233.4201565182
 20
117.1692597657
 10
232.821989425
 20
117.3447393105
 10
232.1960119071
 20
117.3447393105
 10
231.5978448139
 20
117.1692597657
 10
231.0806379168
 20
116.8338928037
 10
230.6903473181
 20
116.3684372509
 10
230.4616520505
 20
115.8142508758
 10
230.414872692
 20
115.2205755696
 10
230.5541657939
 20
114.6401619888
 10
230.8671545529
 20
114.1245824271
 10
231.3260285441
 20
113.7196483911
 10
231.8900147998
 20
113.461340047
 10
232.5090006661
 20
113.3726092246
  0
LINE
  5
1A9
330
1F
100
AcDbEntity
  8
0
  6
HIDDEN
 62
     7
370
     0
100
AcDbLine
 10
273.276710608
 20
91.4959823289
 30
0.0
 11
273.6368058237
 21
91.8605095838
 31
0.0
  0
CIRCLE
  5
1AA
330
1F
100
AcDbEntity
  8
0
  6
HIDDEN
 62
     7
370
     0
100
AcDbCircle
 10
267.3367007809
 20
97.7890412942
 30
0.0
 40
2.398521284627584
  0
LINE
  5
1AB
330
1F
100
AcDbEntity
  8
0
  6
HIDDEN
 62
     7
370
     0
100
AcDbLine
 10
270.6377447284
 20
101.3490043956
 30
0.0
 11
263.5103863726
 21
103.5907776713
 31
0.0
  0
LINE
  5
1AC
330
1F
100
AcDbEntity
  8
0
  6
HIDDEN
 62
     7
370
     0
100
AcDbLine
 10
263.5103863726
 20
103.5907776713
 30
0.0
 11
262.7591639
 21
105.967547132
 31
0.0
  0
LINE
  5
1AD
330
1F
100
AcDbEntity
  8
0
  6
HIDDEN
 62
     7
370
     0
100
AcDbLine
 10
263.7650482116
 20
94.4915391108
 30
0.0
 11
273.2753491413
 21
91.5002571515
 31
0.0
  0
CIRCLE
  5
1AE
330
1F
100
AcDbEntity
  8
0
  6
HIDDEN
 62
     7
370
     0
100
AcDbCircle
 10
267.3368835935
 20
97.8400450399
 30
0.0
 40
1.649034632842479
  0
SPLINE
  5
1AF
330
1F
100
AcDbEntity
  8
0
  6
HIDDEN
 62
     7
370
     0
100
AcDbSpline
210
0.0
220
0.0
230
1.0
 70
     8
 71
     3
 72
    35
 73
    31
 74
     0
 42
0.00000001
 43
0.00000001
 40
0.0
 40
0.0
 40
0.0
 40
0.0
 40
0.0309919762301132
 40
0.0617024282402358
 40
0.0921334282534662
 40
0.1222871061078705
 40
0.1521656509481756
 40
0.1817713129533939
 40
0.2111064050992732
 40
0.240173304954179
 40
0.2689744565066908
 40
0.2975123720229633
 40
0.3257896339315021
 40
0.3538088967326576
 40
0.3815728889297614
 40
0.4090844149783878
 40
0.4363463572497684
 40
0.4633616780039236
 40
0.4901334213675236
 40
0.5166647153109936
 40
0.5677938841325467
 40
0.6182299166732068
 40
0.6679979560175581
 40
0.7171241709322982
 40
0.7656357688825155
 40
0.8135610041339516
 40
0.8609291802516821
 40
0.9077706463081487
 40
0.9541167861352914
 40
1.0
 40
1.0
 40
1.0
 40
1.0
 10
270.6030269962832
 20
101.0897257414064
 30
0.0
 10
270.6451788350371
 20
100.9469019643201
 30
0.0
 10
270.7290996146154
 20
100.6625517895768
 30
0.0
 10
270.8518790855325
 20
100.2444246819695
 30
0.0
 10
270.9716773437926
 20
99.8350714236011
 30
0.0
 10
271.0883380587213
 20
99.43502089289855
 30
0.0
 10
271.2019276725223
 20
99.04423536422756
 30
0.0
 10
271.3124508872797
 20
98.6628176947605
 30
0.0
 10
271.4199259133266
 20
98.29082457233577
 30
0.0
 10
271.524364636633
 20
97.92831602925531
 30
0.0
 10
271.6257779162958
 20
97.57534251805056
 30
0.0
 10
271.7241742408776
 20
97.23194849303421
 30
0.0
 10
271.8195601434477
 20
96.89817163179295
 30
0.0
 10
271.9119401430823
 20
96.57404321793449
 30
0.0
 10
272.0013168476285
 20
96.25958819921838
 30
0.0
 10
272.0876908843672
 20
95.95482541059056
 30
0.0
 10
272.1710613558607
 20
95.65976747487768
 30
0.0
 10
272.2514243936265
 20
95.37442182602473
 30
0.0
 10
272.3287787087677
 20
95.09878762632856
 30
0.0
 10
272.4262960705183
 20
94.74989808892853
 30
0.0
 10
272.5403603454778
 20
94.33937738263361
 30
0.0
 10
272.6661811869997
 20
93.88290895902021
 30
0.0
 10
272.7811966123733
 20
93.46168330565844
 30
0.0
 10
272.8853835377806
 20
93.07573164645976
 30
0.0
 10
272.9787032951456
 20
92.72499746096028
 30
0.0
 10
273.0610740100742
 20
92.40944716919738
 30
0.0
 10
273.1324958367678
 20
92.12870502803926
 30
0.0
 10
273.192590106599
 20
91.88339590714669
 30
0.0
 10
273.242296318167
 20
91.6702296993807
 30
0.0
 10
273.2659725996767
 20
91.55624659297688
 30
0.0
 10
273.2777513213584
 20
91.49954109696348
 30
0.0
  0
ARC
  5
1B0
330
1F
100
AcDbEntity
  8
0
  6
HIDDEN
 62
     7
370
     0
100
AcDbCircle
 10
267.3367964196
 20
98.4462462005
 30
0.0
 40
1.649135216689171
100
AcDbArc
 50
328.8927071814
 51
176.1873642991
  0
SPLINE
  5
1B1
330
1F
100
AcDbEntity
  8
0
  6
HIDDEN
 62
     7
370
     0
100
AcDbSpline
210
0.0
220
0.0
230
1.0
 70
     8
 71
     3
 72
    30
 73
    26
 74
     0
 42
0.00000001
 43
0.00000001
 40
0.0
 40
0.0
 40
0.0
 40
0.0
 40
0.1249999999999965
 40
0.1249999999999965
 40
0.249999999999993
 40
0.249999999999993
 40
0.3124999999999934
 40
0.3124999999999934
 40
0.3749999999999939
 40
0.3749999999999939
 40
0.4374999999999945
 40
0.4374999999999945
 40
0.499999999999995
 40
0.499999999999995
 40
0.5624999999999954
 40
0.5624999999999954
 40
0.6249999999999959
 40
0.6249999999999959
 40
0.6874999999999963
 40
0.6874999999999963
 40
0.7499999999999968
 40
0.7499999999999968
 40
0.8749999999999984
 40
0.8749999999999984
 40
1.0
 40
1.0
 40
1.0
 40
1.0
 10
268.7487881877558
 20
97.59423316684827
 30
0.0
 10
268.6696296964192
 20
97.45010916923984
 30
0.0
 10
268.574153737898
 20
97.31921781568634
 30
0.0
 10
268.3491235412739
 20
97.08346117455378
 30
0.0
 10
268.2196767042829
 20
96.97812343883014
 30
0.0
 10
267.9892464438795
 20
96.84582277769562
 30
0.0
 10
267.907405604289
 20
96.80674412447654
 30
0.0
 10
267.7301062423383
 20
96.74107868275274
 30
0.0
 10
267.634539955368
 20
96.71457172523954
 30
0.0
 10
267.4305196044136
 20
96.68060034799734
 30
0.0
 10
267.3192517873406
 20
96.67281168247399
 30
0.0
 10
267.0854534980235
 20
96.68585965412956
 30
0.0
 10
266.9611424365911
 20
96.7075406051722
 30
0.0
 10
266.7232530869908
 20
96.78224537785272
 30
0.0
 10
266.6079059102865
 20
96.83576452820691
 30
0.0
 10
266.4041941136787
 20
96.96053300795454
 30
0.0
 10
266.3157591068205
 20
97.03074664966105
 30
0.0
 10
266.1614313346871
 20
97.1780866651355
 30
0.0
 10
266.0951179579174
 20
97.25574627409361
 30
0.0
 10
265.9816330211872
 20
97.4120729341824
 30
0.0
 10
265.9336770147834
 20
97.49162414591632
 30
0.0
 10
265.8101889445695
 20
97.73437533121808
 30
0.0
 10
265.7564427696259
 20
97.89838506226383
 30
0.0
 10
265.6920354323491
 20
98.22561355053568
 30
0.0
 10
265.6812399176588
 20
98.39005328929193
 30
0.0
 10
265.6913110222146
 20
98.55590371270797
 30
0.0
  0
LINE
  5
1B2
330
1F
100
AcDbEntity
  8
0
  6
HIDDEN
 62
     7
370
     0
100
AcDbLine
 10
123.7090006661
 20
130.3439284221
 30
0.0
 11
123.7090006661
 21
128.6414420445
 31
0.0
  0
LINE
  5
1B3
330
1F
100
AcDbEntity
  8
0
  6
HIDDEN
 62
     7
370
     0
100
AcDbLine
 10
127.7090006661
 20
94.3639284221
 30
0.0
 11
127.7090006661
 21
96.0664147997
 31
0.0
  0
LINE
  5
1B4
330
1F
100
AcDbEntity
  8
0
  6
HIDDEN
 62
     7
370
     0
100
AcDbLine
 10
123.7090006661
 20
130.3439284221
 30
0.0
 11
123.7090006661
 21
134.1980360945
 31
0.0
  0
LINE
  5
1B5
330
1F
100
AcDbEntity
  8
0
  6
HIDDEN
 62
     7
370
     0
100
AcDbLine
 10
127.7090006661
 20
94.3639284221
 30
0.0
 11
127.7090006661
 21
90.4087801628
 31
0.0
  0
SPLINE
  5
1B6
330
1F
100
AcDbEntity
  8
0
  6
HIDDEN
 62
     7
370
     0
100
AcDbSpline
210
0.0
220
0.0
230
1.0
 70
     8
 71
     3
 72
    10
 73
     6
 74
     0
 42
0.00000001
 43
0.00000001
 40
0.0
 40
0.0
 40
0.0
 40
0.0
 40
0.5
 40
0.5
 40
1.0
 40
1.0
 40
1.0
 40
1.0
 10
118.7489557356595
 20
133.2138823143767
 30
0.0
 10
118.6813964807413
 20
133.146190921567
 30
0.0
 10
118.6177598254048
 20
133.0714837568134
 30
0.0
 10
118.5075390708329
 20
132.9125176243867
 30
0.0
 10
118.4607227776103
 20
132.8281623583787
 30
0.0
 10
118.4331543121822
 20
132.7440477556869
 30
0.0
  0
LINE
  5
1B7
330
1F
100
AcDbEntity
  8
0
  6
HIDDEN
 62
     7
370
     0
100
AcDbLine
 10
118.7590006661
 20
130.3439284221
 30
0.0
 11
118.7590006661
 21
133.2238661875
 31
0.0
  0
LINE
  5
1B8
330
1F
100
AcDbEntity
  8
0
  6
HIDDEN
 62
     7
370
     0
100
AcDbLine
 10
117.6090006661
 20
130.3439284221
 30
0.0
 11
117.6090006661
 21
132.0446061686
 31
0.0
  0
SPLINE
  5
1B9
330
1F
100
AcDbEntity
  8
0
  6
HIDDEN
 62
     7
370
     0
100
AcDbSpline
210
0.0
220
0.0
230
1.0
 70
     8
 71
     3
 72
    10
 73
     6
 74
     0
 42
0.00000001
 43
0.00000001
 40
0.0
 40
0.0
 40
0.0
 40
0.0
 40
0.5
 40
0.5
 40
1.0
 40
1.0
 40
1.0
 40
1.0
 10
117.6716640408011
 20
132.0284809668698
 30
0.0
 10
117.6627597516924
 20
132.074222486083
 30
0.0
 10
117.6462443714994
 20
132.091413325552
 30
0.0
 10
117.6191364254378
 20
132.0910900486163
 30
0.0
 10
117.6090006660777
 20
132.0732125063198
 30
0.0
 10
117.6090006660777
 20
132.0446061685672
 30
0.0
  0
LINE
  5
1BA
330
1F
100
AcDbEntity
  8
0
  6
HIDDEN
 62
     7
370
     0
100
AcDbLine
 10
118.7590006661
 20
94.3639284221
 30
0.0
 11
118.7590006661
 21
91.5472968636
 31
0.0
  0
SPLINE
  5
1BB
330
1F
100
AcDbEntity
  8
0
  6
HIDDEN
 62
     7
370
     0
100
AcDbSpline
210
0.0
220
0.0
230
1.0
 70
     8
 71
     3
 72
     8
 73
     4
 74
     0
 42
0.00000001
 43
0.00000001
 40
0.0
 40
0.0
 40
0.0
 40
0.0
 40
1.0
 40
1.0
 40
1.0
 40
1.0
 10
118.5479102362768
 20
91.91000611912352
 30
0.0
 10
118.5836238946467
 20
91.78677461386373
 30
0.0
 10
118.659291933595
 20
91.66583103691674
 30
0.0
 10
118.7489557356681
 20
91.55911199321346
 30
0.0
  0
SPLINE
  5
1BC
330
1F
100
AcDbEntity
  8
0
  6
HIDDEN
 62
     7
370
     0
100
AcDbSpline
210
0.0
220
0.0
230
1.0
 70
     8
 71
     3
 72
    10
 73
     6
 74
     0
 42
0.00000001
 43
0.00000001
 40
0.0
 40
0.0
 40
0.0
 40
0.0
 40
0.5
 40
0.5
 40
1.0
 40
1.0
 40
1.0
 40
1.0
 10
117.6090006660773
 20
92.70076789713622
 30
0.0
 10
117.6090006660772
 20
92.68725137126846
 30
0.0
 10
117.6143202267055
 20
92.68308059891116
 30
0.0
 10
117.6274484589871
 20
92.70121164229874
 30
0.0
 10
117.6351411136411
 20
92.72412006736067
 30
0.0
 10
117.6392782816863
 20
92.76384086186226
 30
0.0
  0
LINE
  5
1BD
330
1F
100
AcDbEntity
  8
0
  6
HIDDEN
 62
     7
370
     0
100
AcDbLine
 10
117.6090006661
 20
94.3639284221
 30
0.0
 11
117.6090006661
 21
92.7007678971
 31
0.0
  0
LINE
  5
1BE
330
1F
100
AcDbEntity
  8
0
  6
HIDDEN
 62
     7
370
     0
100
AcDbLine
 10
118.7590006661
 20
130.3439284221
 30
0.0
 11
118.7590006661
 21
128.1554188581
 31
0.0
  0
ELLIPSE
  5
1BF
330
1F
100
AcDbEntity
  8
0
  6
HIDDEN
 62
     7
370
     0
100
AcDbEllipse
 10
113.4415688017
 20
112.3539284221
 30
0.0
 11
20.07002071827051
 21
0.0
 31
0.0
210
0.0
220
0.0
230
1.0
 40
0.8164965809
 41
1.302650465081197
 42
1.361629843993896
  0
ELLIPSE
  5
1C0
330
1F
100
AcDbEntity
  8
0
  6
HIDDEN
 62
     7
370
     0
100
AcDbEllipse
 10
113.4415688017
 20
112.3539284221
 30
0.0
 11
20.07002071827054
 21
-2.842170943040401E-14
 31
0.0
210
0.0
220
0.0
230
1.0
 40
0.8164965809
 41
4.921555463185702
 42
4.980534842098402
  0
LINE
  5
1C1
330
1F
100
AcDbEntity
  8
0
  6
HIDDEN
 62
     7
370
     0
100
AcDbLine
 10
117.6090006661
 20
128.3838638199
 30
0.0
 11
117.6090006661
 21
96.3239930243
 31
0.0
  0
LINE
  5
1C2
330
1F
100
AcDbEntity
  8
0
  6
HIDDEN
 62
     7
370
     0
100
AcDbLine
 10
117.6090006661
 20
130.3439284221
 30
0.0
 11
117.6090006661
 21
128.3838638199
 31
0.0
  0
LINE
  5
1C3
330
1F
100
AcDbEntity
  8
0
  6
HIDDEN
 62
     7
370
     0
100
AcDbLine
 10
118.7590006661
 20
94.3639284221
 30
0.0
 11
118.7590006661
 21
96.5524379861
 31
0.0
  0
LINE
  5
1C4
330
1F
100
AcDbEntity
  8
0
  6
HIDDEN
 62
     7
370
     0
100
AcDbLine
 10
117.6090006661
 20
94.3639284221
 30
0.0
 11
117.6090006661
 21
96.3239930243
 31
0.0
  0
SPLINE
  5
1C5
330
1F
100
AcDbEntity
  8
0
  6
HIDDEN
 62
     7
370
     0
100
AcDbSpline
210
0.0
220
0.0
230
1.0
 70
     8
 71
     3
 72
    10
 73
     6
 74
     0
 42
0.00000001
 43
0.00000001
 40
0.0
 40
0.0
 40
0.0
 40
0.0
 40
0.5
 40
0.5
 40
1.0
 40
1.0
 40
1.0
 40
1.0
 10
165.5990006660778
 20
139.4735822731249
 30
0.0
 10
165.5990006660778
 20
139.3299699215669
 30
0.0
 10
165.6351679411756
 20
139.1869965078483
 30
0.0
 10
165.7709238849295
 20
138.9370038811345
 30
0.0
 10
165.8711935755524
 20
138.8290015718557
 30
0.0
 10
165.9932981977687
 20
138.753928422089
 30
0.0
  0
LINE
  5
1C6
330
1F
100
AcDbEntity
  8
0
  6
HIDDEN
 62
     7
370
     0
100
AcDbLine
 10
165.5990006661
 20
139.4735822731
 30
0.0
 11
165.5990006661
 21
85.5495327938
 31
0.0
  0
SPLINE
  5
1C7
330
1F
100
AcDbEntity
  8
0
  6
HIDDEN
 62
     7
370
     0
100
AcDbSpline
210
0.0
220
0.0
230
1.0
 70
     8
 71
     3
 72
    10
 73
     6
 74
     0
 42
0.00000001
 43
0.00000001
 40
0.0
 40
0.0
 40
0.0
 40
0.0
 40
0.5
 40
0.5
 40
1.0
 40
1.0
 40
1.0
 40
1.0
 10
165.5990006660778
 20
85.54953279375977
 30
0.0
 10
165.5990006660777
 20
85.61976915413028
 30
0.0
 10
165.6072832781682
 20
85.68976325562754
 30
0.0
 10
165.6403832212265
 20
85.82672252018601
 30
0.0
 10
165.6647206131848
 20
85.8920304294411
 30
0.0
 10
165.6966754684093
 20
85.95392842208783
 30
0.0
  0
SPLINE
  5
1C8
330
1F
100
AcDbEntity
  8
0
  6
HIDDEN
 62
     7
370
     0
100
AcDbSpline
210
0.0
220
0.0
230
1.0
 70
    24
 71
     3
 72
    12
 73
     8
 74
     0
 42
0.00000001
 43
0.00000001
 40
0.0
 40
0.0
 40
0.0
 40
0.0
 40
0.5
 40
0.5
 40
0.75
 40
0.75
 40
1.0
 40
1.0
 40
1.0
 40
1.0
 10
165.9932981977687
 20
138.7539284220891
 30
0.0
 10
166.0364215462022
 20
138.7539284220891
 30
0.0
 10
166.0861611335024
 20
138.7539284220891
 30
0.0
 10
166.1826821103244
 20
138.7539284220891
 30
0.0
 10
166.2182472411761
 20
138.7539284220891
 30
0.0
 10
166.301595571799
 20
138.7539284220891
 30
0.0
 10
166.3500654714894
 20
138.7539284220891
 30
0.0
 10
166.3990006660789
 20
138.7539284220891
 30
0.0
  0
SPLINE
  5
1C9
330
1F
100
AcDbEntity
  8
0
  6
HIDDEN
 62
     7
370
     0
100
AcDbSpline
210
0.0
220
0.0
230
1.0
 70
    24
 71
     3
 72
    14
 73
    10
 74
     0
 42
0.00000001
 43
0.00000001
 40
0.0
 40
0.0
 40
0.0
 40
0.0
 40
0.5000000000000029
 40
0.5000000000000029
 40
0.7500000000000032
 40
0.7500000000000032
 40
0.8750000000000016
 40
0.8750000000000016
 40
1.0
 40
1.0
 40
1.0
 40
1.0
 10
165.6966754684099
 20
85.95392842208909
 30
0.0
 10
165.7438819562497
 20
85.95392842208909
 30
0.0
 10
165.8072219596791
 20
85.95392842208909
 30
0.0
 10
165.9502850659349
 20
85.95392842208909
 30
0.0
 10
166.0063657162059
 20
85.95392842208909
 30
0.0
 10
166.1178010661152
 20
85.95392842208909
 30
0.0
 10
166.1597458567882
 20
85.95392842208909
 30
0.0
 10
166.2647422998084
 20
85.95392842208909
 30
0.0
 10
166.3303062368891
 20
85.95392842208909
 30
0.0
 10
166.3990006660776
 20
85.95392842208909
 30
0.0
  0
LINE
  5
1CA
330
1F
100
AcDbEntity
  8
0
  6
HIDDEN
 62
     7
370
     0
100
AcDbLine
 10
169.4190006661
 20
139.4735822731
 30
0.0
 11
169.4190006661
 21
85.5495327938
 31
0.0
  0
SPLINE
  5
1CB
330
1F
100
AcDbEntity
  8
0
  6
HIDDEN
 62
     7
370
     0
100
AcDbSpline
210
0.0
220
0.0
230
1.0
 70
     8
 71
     3
 72
    10
 73
     6
 74
     0
 42
0.00000001
 43
0.00000001
 40
0.0
 40
0.0
 40
0.0
 40
0.0
 40
0.5
 40
0.5
 40
1.0
 40
1.0
 40
1.0
 40
1.0
 10
169.0247031343868
 20
138.7539284220891
 30
0.0
 10
169.1460156574845
 20
138.8285145683773
 30
0.0
 10
169.2474440197097
 20
138.9373388795287
 30
0.0
 10
169.3833875859698
 20
139.1883593981504
 30
0.0
 10
169.4190006660777
 20
139.3309420912896
 30
0.0
 10
169.4190006660777
 20
139.4735822731249
 30
0.0
  0
SPLINE
  5
1CC
330
1F
100
AcDbEntity
  8
0
  6
HIDDEN
 62
     7
370
     0
100
AcDbSpline
210
0.0
220
0.0
230
1.0
 70
     8
 71
     3
 72
    10
 73
     6
 74
     0
 42
0.00000001
 43
0.00000001
 40
0.0
 40
0.0
 40
0.0
 40
0.0
 40
0.5
 40
0.5
 40
1.0
 40
1.0
 40
1.0
 40
1.0
 10
169.3213258637454
 20
85.9539284220891
 30
0.0
 10
169.3534810513674
 20
85.89164237657299
 30
0.0
 10
169.3781372825617
 20
85.82511195170375
 30
0.0
 10
169.4109500394871
 20
85.68825332134124
 30
0.0
 10
169.4190006660777
 20
85.61919572616287
 30
0.0
 10
169.4190006660777
 20
85.54953279375954
 30
0.0
  0
SPLINE
  5
1CD
330
1F
100
AcDbEntity
  8
0
  6
HIDDEN
 62
     7
370
     0
100
AcDbSpline
210
0.0
220
0.0
230
1.0
 70
    24
 71
     3
 72
    12
 73
     8
 74
     0
 42
0.00000001
 43
0.00000001
 40
0.0
 40
0.0
 40
0.0
 40
0.0
 40
0.2500000000000008
 40
0.2500000000000008
 40
0.5000000000000017
 40
0.5000000000000017
 40
1.0
 40
1.0
 40
1.0
 40
1.0
 10
168.6190006660777
 20
138.7539284220891
 30
0.0
 10
168.6685357722957
 20
138.7539284220891
 30
0.0
 10
168.7169406608972
 20
138.7539284220891
 30
0.0
 10
168.7998272100748
 20
138.7539284220891
 30
0.0
 10
168.8363419315432
 20
138.7539284220891
 30
0.0
 10
168.9326747698978
 20
138.7539284220891
 30
0.0
 10
168.9814273175605
 20
138.7539284220891
 30
0.0
 10
169.0247031343911
 20
138.7539284220891
 30
0.0
  0
SPLINE
  5
1CE
330
1F
100
AcDbEntity
  8
0
  6
HIDDEN
 62
     7
370
     0
100
AcDbSpline
210
0.0
220
0.0
230
1.0
 70
    24
 71
     3
 72
    14
 73
    10
 74
     0
 42
0.00000001
 43
0.00000001
 40
0.0
 40
0.0
 40
0.0
 40
0.0
 40
0.1250000000000007
 40
0.1250000000000007
 40
0.2500000000000013
 40
0.2500000000000013
 40
0.5000000000000027
 40
0.5000000000000027
 40
1.0
 40
1.0
 40
1.0
 40
1.0
 10
168.6190006660777
 20
85.95392842208909
 30
0.0
 10
168.6880972984217
 20
85.95392842208909
 30
0.0
 10
168.7530904640296
 20
85.95392842208909
 30
0.0
 10
168.8574116626748
 20
85.95392842208909
 30
0.0
 10
168.9001920367832
 20
85.95392842208909
 30
0.0
 10
169.0125296964295
 20
85.95392842208909
 30
0.0
 10
169.0675768785719
 20
85.95392842208909
 30
0.0
 10
169.2114536523419
 20
85.95392842208909
 30
0.0
 10
169.274482965617
 20
85.95392842208909
 30
0.0
 10
169.3213258637454
 20
85.95392842208909
 30
0.0
  0
LINE
  5
1CF
330
1F
100
AcDbEntity
  8
0
  6
HIDDEN
 62
     7
370
     0
100
AcDbLine
 10
166.3990006661
 20
138.7539284221
 30
0.0
 11
168.6190006661
 21
138.7539284221
 31
0.0
  0
LINE
  5
1D0
330
1F
100
AcDbEntity
  8
0
  6
HIDDEN
 62
     7
370
     0
100
AcDbLine
 10
166.3990006661
 20
85.9539284221
 30
0.0
 11
168.6190006661
 21
85.9539284221
 31
0.0
  0
LINE
  5
1D1
330
1F
100
AcDbEntity
  8
0
  6
HIDDEN
 62
     7
370
     0
100
AcDbLine
 10
169.4190006661
 20
139.4735822731
 30
0.0
 11
169.4190006661
 21
140.1591626133
 31
0.0
  0
SPLINE
  5
1D2
330
1F
100
AcDbEntity
  8
0
  6
HIDDEN
 62
     7
370
     0
100
AcDbSpline
210
0.0
220
0.0
230
1.0
 70
     8
 71
     3
 72
     8
 73
     4
 74
     0
 42
0.00000001
 43
0.00000001
 40
0.0
 40
0.0
 40
0.0
 40
0.0
 40
1.0
 40
1.0
 40
1.0
 40
1.0
 10
169.4190006660777
 20
140.1591626132607
 30
0.0
 10
169.9117107629235
 20
141.0471816113871
 30
0.0
 10
170.4057934682025
 20
141.9344442470731
 30
0.0
 10
170.9009334975668
 20
142.8211238952534
 30
0.0
  0
LINE
  5
1D3
330
1F
100
AcDbEntity
  8
0
  6
HIDDEN
 62
     7
370
     0
100
AcDbLine
 10
170.9009334976
 20
142.8211238953
 30
0.0
 11
174.8590006661
 21
142.8211238953
 31
0.0
  0
SPLINE
  5
1D4
330
1F
100
AcDbEntity
  8
0
  6
HIDDEN
 62
     7
370
     0
100
AcDbSpline
210
0.0
220
0.0
230
1.0
 70
     8
 71
     3
 72
    12
 73
     8
 74
     0
 42
0.00000001
 43
0.00000001
 40
0.0
 40
0.0
 40
0.0
 40
0.0
 40
0.25
 40
0.25
 40
0.5
 40
0.5
 40
1.0
 40
1.0
 40
1.0
 40
1.0
 10
174.8590006660777
 20
142.8211238952534
 30
0.0
 10
174.938493615126
 20
142.8211238952534
 30
0.0
 10
175.0195771164815
 20
142.8041211452926
 30
0.0
 10
175.1660075136193
 20
142.7400606041809
 30
0.0
 10
175.232556123493
 20
142.6929019885423
 30
0.0
 10
175.3968459974667
 20
142.5196799558501
 30
0.0
 10
175.4590006660779
 20
142.3595708656158
 30
0.0
 10
175.4590006660777
 20
142.2003687458524
 30
0.0
  0
LINE
  5
1D5
330
1F
100
AcDbEntity
  8
0
  6
HIDDEN
 62
     7
370
     0
100
AcDbLine
 10
169.0247031344
 20
138.7539284221
 30
0.0
 11
175.4590006661
 21
138.7539284221
 31
0.0
  0
LINE
  5
1D6
330
1F
100
AcDbEntity
  8
0
  6
HIDDEN
 62
     7
370
     0
100
AcDbLine
 10
175.4590006661
 20
142.2003687459
 30
0.0
 11
175.4590006661
 21
138.7539284221
 31
0.0
  0
SPLINE
  5
1D7
330
1F
100
AcDbEntity
  8
0
  6
HIDDEN
 62
     7
370
     0
100
AcDbSpline
210
0.0
220
0.0
230
1.0
 70
     8
 71
     3
 72
    12
 73
     8
 74
     0
 42
0.00000001
 43
0.00000001
 40
0.0
 40
0.0
 40
0.0
 40
0.0
 40
0.249999999999998
 40
0.249999999999998
 40
0.499999999999996
 40
0.499999999999996
 40
1.0
 40
1.0
 40
1.0
 40
1.0
 10
174.8590006660777
 20
82.16701072584198
 30
0.0
 10
174.9388816708248
 20
82.16701072584198
 30
0.0
 10
175.0194758010954
 20
82.18412781210782
 30
0.0
 10
175.1660912469403
 20
82.24886392358292
 30
0.0
 10
175.2325924396843
 20
82.29632116646327
 30
0.0
 10
175.3983273408215
 20
82.47314560900273
 30
0.0
 10
175.4590006660777
 20
82.63342211620845
 30
0.0
 10
175.4590006660777
 20
82.79365102149622
 30
0.0
  0
LINE
  5
1D8
330
1F
100
AcDbEntity
  8
0
  6
HIDDEN
 62
     7
370
     0
100
AcDbLine
 10
175.4590006661
 20
142.2003687459
 30
0.0
 11
175.4590006661
 21
82.7936510215
 31
0.0
  0
LINE
  5
1D9
330
1F
100
AcDbEntity
  8
0
  6
HIDDEN
 62
     7
370
     0
100
AcDbLine
 10
165.5990006661
 20
140.1591626133
 30
0.0
 11
165.5990006661
 21
139.4735822731
 31
0.0
  0
SPLINE
  5
1DA
330
1F
100
AcDbEntity
  8
0
  6
HIDDEN
 62
     7
370
     0
100
AcDbSpline
210
0.0
220
0.0
230
1.0
 70
     8
 71
     3
 72
     8
 73
     4
 74
     0
 42
0.00000001
 43
0.00000001
 40
0.0
 40
0.0
 40
0.0
 40
0.0
 40
1.0
 40
1.0
 40
1.0
 40
1.0
 10
164.1170678345887
 20
142.8211238952534
 30
0.0
 10
164.612207863953
 20
141.9344442470731
 30
0.0
 10
165.106290569232
 20
141.0471816113871
 30
0.0
 10
165.5990006660777
 20
140.1591626132607
 30
0.0
  0
LINE
  5
1DB
330
1F
100
AcDbEntity
  8
0
  6
HIDDEN
 62
     7
370
     0
100
AcDbLine
 10
162.4590006661
 20
138.7539284221
 30
0.0
 11
165.9932981978
 21
138.7539284221
 31
0.0
  0
LINE
  5
1DC
330
1F
100
AcDbEntity
  8
0
  6
HIDDEN
 62
     7
370
     0
100
AcDbLine
 10
165.5990006661
 20
140.1591626133
 30
0.0
 11
165.5990006661
 21
84.856091263
 31
0.0
  0
LINE
  5
1DD
330
1F
100
AcDbEntity
  8
0
  6
HIDDEN
 62
     7
370
     0
100
AcDbLine
 10
169.4190006661
 20
140.1591626133
 30
0.0
 11
169.4190006661
 21
84.856091263
 31
0.0
  0
LINE
  5
1DE
330
1F
100
AcDbEntity
  8
0
  6
HIDDEN
 62
     7
370
     0
100
AcDbLine
 10
170.9009334976
 20
142.8211238953
 30
0.0
 11
170.9009334976
 21
82.1670107258
 31
0.0
  0
LWPOLYLINE
  5
1DF
330
1F
100
AcDbEntity
  8
0
  6
HIDDEN
 62
     7
370
     0
100
AcDbPolyline
 90
       24
 70
   128
 43
0.0
 10
232.5090006661
 20
113.0664570751
 10
233.183492594
 20
113.1546264639
 10
233.8079605412
 20
113.41259551
 10
234.3360905768
 20
113.8212318294
 10
234.7287137121
 20
114.3502287357
 10
234.9567108853
 20
114.9603529484
 10
235.0031725891
 20
115.6063543456
 10
234.8646529714
 20
116.2403219592
 10
234.5514253986
 20
116.8152373113
 10
234.0867205269
 20
117.2884615603
 10
233.5050033907
 20
117.6248978286
 10
232.8494172888
 20
117.7995941773
 10
232.1685840433
 20
117.7995941773
 10
231.5129979415
 20
117.6248978286
 10
230.9312808053
 20
117.2884615603
 10
230.4665759336
 20
116.8152373113
 10
230.1533483608
 20
116.2403219592
 10
230.0148287431
 20
115.6063543456
 10
230.0612904469
 20
114.9603529484
 10
230.2892876201
 20
114.3502287357
 10
230.6819107554
 20
113.8212318294
 10
231.210040791
 20
113.41259551
 10
231.8345087382
 20
113.1546264639
 10
232.5090006661
 20
113.0664570751
  0
SPLINE
  5
1E0
330
1F
100
AcDbEntity
  8
0
  6
HIDDEN
 62
     7
370
     0
100
AcDbSpline
210
0.0
220
0.0
230
1.0
 70
     8
 71
     3
 72
    26
 73
    22
 74
     0
 42
0.00000001
 43
0.00000001
 40
0.0
 40
0.0
 40
0.0
 40
0.0
 40
0.2500000000000016
 40
0.2500000000000016
 40
0.3750000000000037
 40
0.3750000000000037
 40
0.4375000000000042
 40
0.4375000000000042
 40
0.4687500000000049
 40
0.4687500000000049
 40
0.5000000000000058
 40
0.5000000000000058
 40
0.5312500000000066
 40
0.5312500000000066
 40
0.5625000000000073
 40
0.5625000000000073
 40
0.625000000000008
 40
0.625000000000008
 40
0.750000000000006
 40
0.750000000000006
 40
1.0
 40
1.0
 40
1.0
 40
1.0
 10
118.4331543121822
 20
132.7440477556869
 30
0.0
 10
118.3945537893137
 20
132.6262730593315
 30
0.0
 10
118.3482567867594
 20
132.5018833731696
 30
0.0
 10
118.2543174383255
 20
132.2966640408161
 30
0.0
 10
118.219005971412
 20
132.2250911743697
 30
0.0
 10
118.1528259956663
 20
132.1091379417692
 30
0.0
 10
118.1282876289981
 20
132.068553406959
 30
0.0
 10
118.0849148834443
 20
132.0044117250872
 30
0.0
 10
118.0694064820191
 20
131.9825452998021
 30
0.0
 10
118.034363837432
 20
131.9369510314589
 30
0.0
 10
118.0148135467123
 20
131.9132807404916
 30
0.0
 10
117.9728862663417
 20
131.8686641811517
 30
0.0
 10
117.9502341561102
 20
131.8477841686339
 30
0.0
 10
117.9092604420236
 20
131.816910754883
 30
0.0
 10
117.8916611421282
 20
131.8070718850507
 30
0.0
 10
117.847034156272
 20
131.7880822693545
 30
0.0
 10
117.8264749336187
 20
131.787757944701
 30
0.0
 10
117.775349494122
 20
131.7969813855772
 30
0.0
 10
117.7544380811335
 20
131.8182282817941
 30
0.0
 10
117.7029881735725
 20
131.8921971606249
 30
0.0
 10
117.6853228742679
 20
131.9583152539396
 30
0.0
 10
117.6716640408011
 20
132.0284809668699
 30
0.0
  0
SPLINE
  5
1E1
330
1F
100
AcDbEntity
  8
0
  6
HIDDEN
 62
     7
370
     0
100
AcDbSpline
210
0.0
220
0.0
230
1.0
 70
     8
 71
     3
 72
    26
 73
    22
 74
     0
 42
0.00000001
 43
0.00000001
 40
0.0
 40
0.0
 40
0.0
 40
0.0
 40
0.2500000000000009
 40
0.2500000000000009
 40
0.375000000000002
 40
0.375000000000002
 40
0.4375000000000031
 40
0.4375000000000031
 40
0.468750000000003
 40
0.468750000000003
 40
0.500000000000003
 40
0.500000000000003
 40
0.531250000000003
 40
0.531250000000003
 40
0.562500000000003
 40
0.562500000000003
 40
0.6250000000000029
 40
0.6250000000000029
 40
0.750000000000002
 40
0.750000000000002
 40
1.0
 40
1.0
 40
1.0
 40
1.0
 10
117.6392782816864
 20
92.76384086186226
 30
0.0
 10
117.6500023150789
 20
92.86680190235123
 30
0.0
 10
117.6647353056734
 20
92.96580059183228
 30
0.0
 10
117.7170888649204
 20
93.08439627189739
 30
0.0
 10
117.73879414764
 20
93.1201065718462
 30
0.0
 10
117.7976496550054
 20
93.14508600466792
 30
0.0
 10
117.8211118888526
 20
93.14947145243148
 30
0.0
 10
117.8772332655132
 20
93.12971861898735
 30
0.0
 10
117.9000205756438
 20
93.11806222817698
 30
0.0
 10
117.955273128175
 20
93.07628187873976
 30
0.0
 10
117.9866793609158
 20
93.0460102913638
 30
0.0
 10
118.0416131815362
 20
92.98436789244982
 30
0.0
 10
118.0660369997357
 20
92.95292624014301
 30
0.0
 10
118.1094521057229
 20
92.89319140272924
 30
0.0
 10
118.1290266682912
 20
92.86402639285663
 30
0.0
 10
118.1826593522392
 20
92.78019111712354
 30
0.0
 10
118.2124367002914
 20
92.7281584991473
 30
0.0
 10
118.2939707602642
 20
92.57709282517992
 30
0.0
 10
118.3372135549382
 20
92.4839017833092
 30
0.0
 10
118.450268144593
 20
92.21951524431479
 30
0.0
 10
118.5042791420721
 20
92.06055707526495
 30
0.0
 10
118.5479102362762
 20
91.91000611912409
 30
0.0
  0
LINE
  5
1E2
330
1F
100
AcDbEntity
  8
0
  6
HIDDEN
 62
     7
370
     0
100
AcDbLine
 10
117.6090006661
 20
132.0446061686
 30
0.0
 11
117.6090006661
 21
92.7007678971
 31
0.0
  0
SPLINE
  5
1E3
330
1F
100
AcDbEntity
  8
0
  6
HIDDEN
 62
     7
370
     0
100
AcDbSpline
210
0.0
220
0.0
230
1.0
 70
     8
 71
     3
 72
     8
 73
     4
 74
     0
 42
0.00000001
 43
0.00000001
 40
0.0
 40
0.0
 40
0.0
 40
0.0
 40
1.0
 40
1.0
 40
1.0
 40
1.0
 10
169.4190006660777
 20
84.85609126303423
 30
0.0
 10
169.9113397888589
 20
83.95882122882753
 30
0.0
 10
170.405453836901
 20
83.06253681377531
 30
0.0
 10
170.9009334975668
 20
82.16701072584195
 30
0.0
  0
LINE
  5
1E4
330
1F
100
AcDbEntity
  8
0
  6
HIDDEN
 62
     7
370
     0
100
AcDbLine
 10
169.4190006661
 20
85.5495327938
 30
0.0
 11
169.4190006661
 21
84.856091263
 31
0.0
  0
LINE
  5
1E5
330
1F
100
AcDbEntity
  8
0
  6
HIDDEN
 62
     7
370
     0
100
AcDbLine
 10
170.9009334976
 20
82.1670107258
 30
0.0
 11
174.8590006661
 21
82.1670107258
 31
0.0
  0
LINE
  5
1E6
330
1F
100
AcDbEntity
  8
0
  6
HIDDEN
 62
     7
370
     0
100
AcDbLine
 10
169.3213258637
 20
85.9539284221
 30
0.0
 11
175.4590006661
 21
85.9539284221
 31
0.0
  0
LINE
  5
1E7
330
1F
100
AcDbEntity
  8
0
  6
HIDDEN
 62
     7
370
     0
100
AcDbLine
 10
175.4590006661
 20
82.7936510215
 30
0.0
 11
175.4590006661
 21
85.9539284221
 31
0.0
  0
LINE
  5
1E8
330
1F
100
AcDbEntity
  8
0
  6
HIDDEN
 62
     7
370
     0
100
AcDbLine
 10
165.5990006661
 20
84.856091263
 30
0.0
 11
165.5990006661
 21
85.5495327938
 31
0.0
  0
SPLINE
  5
1E9
330
1F
100
AcDbEntity
  8
0
  6
HIDDEN
 62
     7
370
     0
100
AcDbSpline
210
0.0
220
0.0
230
1.0
 70
     8
 71
     3
 72
     8
 73
     4
 74
     0
 42
0.00000001
 43
0.00000001
 40
0.0
 40
0.0
 40
0.0
 40
0.0
 40
1.0
 40
1.0
 40
1.0
 40
1.0
 10
164.1170678345887
 20
82.16701072584196
 30
0.0
 10
164.6125474952544
 20
83.06253681377532
 30
0.0
 10
165.1066615432965
 20
83.95882122882756
 30
0.0
 10
165.5990006660777
 20
84.85609126303426
 30
0.0
  0
LINE
  5
1EA
330
1F
100
AcDbEntity
  8
0
  6
HIDDEN
 62
     7
370
     0
100
AcDbLine
 10
162.4590006661
 20
85.9539284221
 30
0.0
 11
165.6966754684
 21
85.9539284221
 31
0.0
  0
ARC
  5
1EB
330
1F
100
AcDbEntity
  8
0
  6
HIDDEN
 62
     7
370
     0
100
AcDbCircle
 10
156.5090006661
 20
112.3539284221
 30
0.0
 40
5.000000000000011
100
AcDbArc
 50
306.157008201
 51
53.842991799
  0
SPLINE
  5
1EC
330
1F
100
AcDbEntity
  8
0
  6
HIDDEN
 62
     7
370
     0
100
AcDbSpline
210
0.0
220
0.0
230
1.0
 70
    24
 71
     3
 72
    10
 73
     6
 74
     0
 42
0.00000001
 43
0.00000001
 40
0.0
 40
0.0
 40
0.0
 40
0.0
 40
0.5
 40
0.5
 40
1.0
 40
1.0
 40
1.0
 40
1.0
 10
159.4590006660777
 20
108.695035146794
 30
0.0
 10
159.4590006660777
 20
108.605317017948
 30
0.0
 10
159.4590006660777
 20
108.5162482933895
 30
0.0
 10
159.4590006660777
 20
108.3700116736293
 30
0.0
 10
159.4590006660777
 20
108.3169121972016
 30
0.0
 10
159.4590006660777
 20
108.3169121972016
 30
0.0
  0
SPLINE
  5
1ED
330
1F
100
AcDbEntity
  8
0
  6
HIDDEN
 62
     7
370
     0
100
AcDbSpline
210
0.0
220
0.0
230
1.0
 70
    24
 71
     3
 72
    10
 73
     6
 74
     0
 42
0.00000001
 43
0.00000001
 40
0.0
 40
0.0
 40
0.0
 40
0.0
 40
0.500000000000001
 40
0.500000000000001
 40
1.0
 40
1.0
 40
1.0
 40
1.0
 10
159.4590006660777
 20
116.390944646976
 30
0.0
 10
159.4590006660777
 20
116.390944646976
 30
0.0
 10
159.4590006660777
 20
116.3383494031756
 30
0.0
 10
159.4590006660777
 20
116.1918253084645
 30
0.0
 10
159.4590006660777
 20
116.1024352784101
 30
0.0
 10
159.4590006660777
 20
116.0128216973843
 30
0.0
  0
LINE
  5
1EE
330
1F
100
AcDbEntity
  8
0
  6
HIDDEN
 62
     7
370
     0
100
AcDbLine
 10
159.4590006661
 20
116.0128216974
 30
0.0
 11
159.4590006661
 21
108.6950351468
 31
0.0
  0
LWPOLYLINE
  5
1EF
330
1F
100
AcDbEntity
  8
0
  6
HIDDEN
 62
     7
370
     0
100
AcDbPolyline
 90
        2
 70
   128
 43
0.0
 10
159.4590006661
 20
108.3169121972
 10
159.4590006661
 20
108.3169121972
  0
LWPOLYLINE
  5
1F0
330
1F
100
AcDbEntity
  8
0
  6
HIDDEN
 62
     7
370
     0
100
AcDbPolyline
 90
        2
 70
   128
 43
0.0
 10
159.4590006661
 20
116.390944647
 10
159.4590006661
 20
116.390944647
  0
SPLINE
  5
1F1
330
1F
100
AcDbEntity
  8
0
  6
HIDDEN
 62
     7
370
     0
100
AcDbSpline
210
0.0
220
0.0
230
1.0
 70
     8
 71
     3
 72
    22
 73
    18
 74
     0
 42
0.00000001
 43
0.00000001
 40
0.0
 40
0.0
 40
0.0
 40
0.0
 40
0.2500000000000056
 40
0.2500000000000056
 40
0.3750000000000087
 40
0.3750000000000087
 40
0.4375000000000057
 40
0.4375000000000057
 40
0.5000000000000028
 40
0.5000000000000028
 40
0.5624999999999998
 40
0.5624999999999998
 40
0.6249999999999969
 40
0.6249999999999969
 40
0.7499999999999982
 40
0.7499999999999982
 40
1.0
 40
1.0
 40
1.0
 40
1.0
 10
265.6913110222145
 20
98.555903712708
 30
0.0
 10
265.9689769747708
 20
98.60904919121043
 30
0.0
 10
266.2465042907793
 20
98.66606025355564
 30
0.0
 10
266.6706138733994
 20
98.7441082436931
 30
0.0
 10
266.8129157807364
 20
98.76942990585096
 30
0.0
 10
267.0355133039405
 20
98.79244498297705
 30
0.0
 10
267.1107620432036
 20
98.797506221466
 30
0.0
 10
267.2669579803724
 20
98.79245723260935
 30
0.0
 10
267.3473692410554
 20
98.78133625880429
 30
0.0
 10
267.5021485829341
 20
98.73094103923562
 30
0.0
 10
267.5740691958239
 20
98.69257781189359
 30
0.0
 10
267.7041164322709
 20
98.60640266572901
 30
0.0
 10
267.7630867634723
 20
98.55906961039076
 30
0.0
 10
267.9335416165122
 20
98.4127582955689
 30
0.0
 10
268.0382548704989
 20
98.30994100597607
 30
0.0
 10
268.3474489286551
 20
98.00281646604886
 30
0.0
 10
268.5469462641117
 20
97.79705133309557
 30
0.0
 10
268.7487881877558
 20
97.59423316684828
 30
0.0
  0
LINE
  5
1F2
330
1F
100
AcDbEntity
  8
0
  6
HIDDEN
 62
     7
370
     0
100
AcDbLine
 10
270.803412521
 20
101.7611959967
 30
0.0
 11
270.6063430104
 21
101.0859239416
 31
0.0
  0
ELLIPSE
  5
1F3
330
1F
100
AcDbEntity
  8
0
  6
HIDDEN
 62
     7
370
     0
100
AcDbEllipse
 10
1024.7091101348
 20
-124.2639427812
 30
0.0
 11
-909.5335854125696
 21
286.0762688334158
 31
1.421085471520200E-14
210
1.421777358071594E-17
220
-4.471926801080742E-18
230
1.0
 40
0.0209761762
 41
0.5667651897351497
 42
0.5999036513365842
  0
SPLINE
  5
1F4
330
1F
100
AcDbEntity
  8
0
  6
HIDDEN
 62
     7
370
     0
100
AcDbSpline
210
0.0
220
0.0
230
1.0
 70
     8
 71
     3
 72
    16
 73
    12
 74
     0
 42
0.00000001
 43
0.00000001
 40
0.0
 40
0.0
 40
0.0
 40
0.0
 40
0.25
 40
0.25
 40
0.375
 40
0.375
 40
0.5
 40
0.5
 40
0.75
 40
0.75
 40
1.0
 40
1.0
 40
1.0
 40
1.0
 10
254.1663611074844
 20
106.8386849490155
 30
0.0
 10
253.8305037909303
 20
106.9566148058154
 30
0.0
 10
253.4850713413093
 20
107.0159556658791
 30
0.0
 10
252.9541257199022
 20
107.0266640980036
 30
0.0
 10
252.7767180594617
 20
107.0169609673792
 30
0.0
 10
252.4283477270067
 20
106.9752636986091
 30
0.0
 10
252.2561847523416
 20
106.9432975087527
 30
0.0
 10
251.7448967070305
 20
106.8188056751498
 30
0.0
 10
251.4095866426327
 20
106.6967917854169
 30
0.0
 10
250.7731056299031
 20
106.4050955790698
 30
0.0
 10
250.4683321364867
 20
106.2345920317422
 30
0.0
 10
250.1740592343631
 20
106.0448639731447
 30
0.0
  0
LINE
  5
1F5
330
1F
100
AcDbEntity
  8
0
  6
HIDDEN
 62
     7
370
     0
100
AcDbLine
 10
149.5090006661
 20
87.030004501
 30
0.0
 11
149.6031615073
 21
87.6999936998
 31
0.0
  0
LINE
  5
1F6
330
1F
100
AcDbEntity
  8
0
  6
HIDDEN
 62
     7
370
     0
100
AcDbLine
 10
149.6031615073
 20
137.0078631444
 30
0.0
 11
149.5090006661
 21
137.6778523432
 31
0.0
  0
ARC
  5
1F7
330
1F
100
AcDbEntity
  8
0
  6
HIDDEN
 62
     7
370
     0
100
AcDbCircle
 10
149.0090006661
 20
87.7834975604
 30
0.0
 40
0.6000000000000093
100
AcDbArc
 50
352.0
 51
0.0
  0
ARC
  5
1F8
330
1F
100
AcDbEntity
  8
0
  6
HIDDEN
 62
     7
370
     0
100
AcDbCircle
 10
149.0090006661
 20
87.7834975604
 30
0.0
 40
0.5999999999999943
100
AcDbArc
 50
0.0
 51
33.5573097619
  0
ARC
  5
1F9
330
1F
100
AcDbEntity
  8
0
  6
HIDDEN
 62
     7
370
     0
100
AcDbCircle
 10
149.0090006661
 20
136.9243592838
 30
0.0
 40
0.6000000000000053
100
AcDbArc
 50
348.75
 51
8.0
  0
LWPOLYLINE
  5
1FA
330
1F
100
AcDbEntity
  8
0
  6
HIDDEN
 62
     7
370
     0
100
AcDbPolyline
 90
        3
 70
   128
 43
0.0
 10
149.5974718343
 20
136.8073050906
 10
149.5633283856
 20
136.6947492244
 10
149.5090006661
 20
136.5926968048
  0
LINE
  5
1FB
330
1F
100
AcDbEntity
  8
0
  6
HIDDEN
 62
     7
370
     0
100
AcDbLine
 10
149.6090006661
 20
87.7834975604
 30
0.0
 11
149.6090006661
 21
136.9243592838
 31
0.0
  0
LINE
  5
1FC
330
1F
100
AcDbEntity
  8
0
  6
HIDDEN
 62
     7
370
     0
100
AcDbLine
 10
149.6090006661
 20
87.7834975604
 30
0.0
 11
149.6090006661
 21
136.9243592838
 31
0.0
  0
ARC
  5
1FD
330
1F
100
AcDbEntity
  8
0
  6
HIDDEN
 62
     7
370
     0
100
AcDbCircle
 10
132.5914362314
 20
92.9539284221
 30
0.0
 40
0.6000000000000085
100
AcDbArc
 50
210.0
 51
270.0
  0
ARC
  5
1FE
330
1F
100
AcDbEntity
  8
0
  6
HIDDEN
 62
     7
370
     0
100
AcDbCircle
 10
132.5914362314
 20
131.7539284221
 30
0.0
 40
0.6000000000000227
100
AcDbArc
 50
90.0
 51
150.0
  0
ARC
  5
1FF
330
1F
100
AcDbEntity
  8
0
  6
HIDDEN
 62
     7
370
     0
100
AcDbCircle
 10
143.2640026677
 20
100.3539284221
 30
0.0
 40
8.000000000000004
100
AcDbArc
 50
277.1456432706
 51
321.3178125465
  0
ARC
  5
200
330
1F
100
AcDbEntity
  8
0
  6
HIDDEN
 62
     7
370
     0
100
AcDbCircle
 10
143.2640026677
 20
124.3539284221
 30
0.0
 40
7.999999999999993
100
AcDbArc
 50
38.6821874535
 51
82.8733519162
  0
LINE
  5
201
330
1F
100
AcDbEntity
  8
0
  6
HIDDEN
 62
     7
370
     0
100
AcDbLine
 10
132.5914362314
 20
92.3539284221
 30
0.0
 11
136.7690231252
 21
92.3539284221
 31
0.0
  0
LINE
  5
202
330
1F
100
AcDbEntity
  8
0
  6
HIDDEN
 62
     7
370
     0
100
AcDbLine
 10
136.7621180473
 20
132.3539284221
 30
0.0
 11
132.5914362314
 21
132.3539284221
 31
0.0
  0
LINE
  5
203
330
1F
100
AcDbEntity
  8
0
  6
HIDDEN
 62
     7
370
     0
100
AcDbLine
 10
132.0718209891
 20
132.0539284221
 30
0.0
 11
130.5129752623
 21
129.3539284221
 31
0.0
  0
LINE
  5
204
330
1F
100
AcDbEntity
  8
0
  6
HIDDEN
 62
     7
370
     0
100
AcDbLine
 10
130.5129752623
 20
95.3539284221
 30
0.0
 11
132.0718209891
 21
92.6539284221
 31
0.0
  0
ARC
  5
205
330
1F
100
AcDbEntity
  8
0
  6
HIDDEN
 62
     7
370
     0
100
AcDbCircle
 10
157.9590006661
 20
96.6289284221
 30
0.0
 40
1.500000000000001
100
AcDbArc
 50
238.2116693829
 51
0.0
  0
ARC
  5
206
330
1F
100
AcDbEntity
  8
0
  6
HIDDEN
 62
     7
370
     0
100
AcDbCircle
 10
157.9590006661
 20
128.0789284221
 30
0.0
 40
1.500000000000001
100
AcDbArc
 50
0.0
 51
121.7883306171
  0
LINE
  5
207
330
1F
100
AcDbEntity
  8
0
  6
HIDDEN
 62
     7
370
     0
100
AcDbLine
 10
127.7090006661
 20
95.3539284221
 30
0.0
 11
130.5129752623
 21
95.3539284221
 31
0.0
  0
LINE
  5
208
330
1F
100
AcDbEntity
  8
0
  6
HIDDEN
 62
     7
370
     0
100
AcDbLine
 10
130.5129752623
 20
129.3539284221
 30
0.0
 11
123.7090006661
 21
129.3539284221
 31
0.0
  0
LINE
  5
209
330
1F
100
AcDbEntity
  8
0
  6
HIDDEN
 62
     7
370
     0
100
AcDbLine
 10
149.5090006661
 20
95.3539284221
 30
0.0
 11
157.1688266346
 21
95.3539284221
 31
0.0
  0
LINE
  5
20A
330
1F
100
AcDbEntity
  8
0
  6
HIDDEN
 62
     7
370
     0
100
AcDbLine
 10
157.1688266346
 20
129.3539284221
 30
0.0
 11
149.5090006661
 21
129.3539284221
 31
0.0
  0
LINE
  5
20B
330
1F
100
AcDbEntity
  8
0
  6
HIDDEN
 62
     7
370
     0
100
AcDbLine
 10
234.6090006661
 20
109.5438228554
 30
0.0
 11
234.6090006661
 21
111.0570523648
 31
0.0
  0
LINE
  5
20C
330
1F
100
AcDbEntity
  8
0
  6
HIDDEN
 62
     7
370
     0
100
AcDbLine
 10
234.6090006661
 20
108.3367074952
 30
0.0
 11
234.6090006661
 21
108.3671853594
 31
0.0
  0
LINE
  5
20D
330
1F
100
AcDbEntity
  8
0
  6
HIDDEN
 62
     7
370
     0
100
AcDbLine
 10
230.4090006661
 20
111.0563097901
 30
0.0
 11
230.4090006661
 21
108.3367074952
 31
0.0
  0
LINE
  5
20E
330
1F
100
AcDbEntity
  8
0
  6
HIDDEN
 62
     7
370
     0
100
AcDbLine
 10
239.2927779067
 20
108.19404981
 30
0.0
 11
233.7707814527
 21
110.7009837398
 31
0.0
  0
LINE
  5
20F
330
1F
100
AcDbEntity
  8
0
  6
HIDDEN
 62
     7
370
     0
100
AcDbLine
 10
232.2922459846
 20
106.7596621594
 30
0.0
 11
239.3151064492
 21
103.5713502274
 31
0.0
  0
LINE
  5
210
330
1F
100
AcDbEntity
  8
0
  6
HIDDEN
 62
     7
370
     0
100
AcDbLine
 10
168.8090006661
 20
102.8539284221
 30
0.0
 11
171.3090006661
 21
102.8539284221
 31
0.0
  0
LINE
  5
211
330
1F
100
AcDbEntity
  8
0
  6
HIDDEN
 62
     7
370
     0
100
AcDbLine
 10
171.3090006661
 20
121.8539284221
 30
0.0
 11
168.8090006661
 21
121.8539284221
 31
0.0
  0
LINE
  5
212
330
1F
100
AcDbEntity
  8
0
  6
HIDDEN
 62
     7
370
     0
100
AcDbLine
 10
159.4590006661
 20
103.3539284221
 30
0.0
 11
159.9590006661
 21
103.8539284221
 31
0.0
  0
LINE
  5
213
330
1F
100
AcDbEntity
  8
0
  6
HIDDEN
 62
     7
370
     0
100
AcDbLine
 10
159.9590006661
 20
120.8539284221
 30
0.0
 11
159.4590006661
 21
121.3539284221
 31
0.0
  0
LINE
  5
214
330
1F
100
AcDbEntity
  8
0
  6
HIDDEN
 62
     7
370
     0
100
AcDbLine
 10
159.9590006661
 20
103.8539284221
 30
0.0
 11
168.8090006661
 21
103.8539284221
 31
0.0
  0
LINE
  5
215
330
1F
100
AcDbEntity
  8
0
  6
HIDDEN
 62
     7
370
     0
100
AcDbLine
 10
168.8090006661
 20
120.8539284221
 30
0.0
 11
159.9590006661
 21
120.8539284221
 31
0.0
  0
LINE
  5
216
330
1F
100
AcDbEntity
  8
0
  6
HIDDEN
 62
     7
370
     0
100
AcDbLine
 10
154.4590006661
 20
143.8539284221
 30
0.0
 11
154.4590006661
 21
138.7539284221
 31
0.0
  0
LINE
  5
217
330
1F
100
AcDbEntity
  8
0
  6
HIDDEN
 62
     7
370
     0
100
AcDbLine
 10
144.6934384966
 20
88.2745570885
 30
0.0
 11
144.2590063471
 21
88.7536231076
 31
0.0
  0
LINE
  5
218
330
1F
100
AcDbEntity
  8
0
  6
HIDDEN
 62
     7
370
     0
100
AcDbLine
 10
136.759003022
 20
89.1753110668
 30
0.0
 11
136.2765692786
 21
88.6962450913
 31
0.0
  0
LINE
  5
219
330
1F
100
AcDbEntity
  8
0
  6
HIDDEN
 62
     7
370
     0
100
AcDbLine
 10
136.2764473504
 20
136.0116064624
 30
0.0
 11
136.7589981014
 21
135.5324862045
 31
0.0
  0
LINE
  5
21A
330
1F
100
AcDbEntity
  8
0
  6
HIDDEN
 62
     7
370
     0
100
AcDbLine
 10
144.2590005481
 20
135.9541839822
 30
0.0
 11
144.6935429384
 21
136.4333042327
 31
0.0
  0
LINE
  5
21B
330
1F
100
AcDbEntity
  8
0
  6
HIDDEN
 62
     7
370
     0
100
AcDbLine
 10
235.5090006661
 20
108.1539284221
 30
0.0
 11
238.032615266
 21
112.3539284221
 31
0.0
  0
LINE
  5
21C
330
1F
100
AcDbEntity
  8
0
  6
HIDDEN
 62
     7
370
     0
100
AcDbLine
 10
238.032615266
 20
112.3539284221
 30
0.0
 11
235.5090006661
 21
116.5539284221
 31
0.0
  0
LINE
  5
21D
330
1F
100
AcDbEntity
  8
0
  6
HIDDEN
 62
     7
370
     0
100
AcDbLine
 10
171.3090006661
 20
108.1539284221
 30
0.0
 11
235.5090006661
 21
108.1539284221
 31
0.0
  0
LINE
  5
21E
330
1F
100
AcDbEntity
  8
0
  6
HIDDEN
 62
     7
370
     0
100
AcDbLine
 10
235.5090006661
 20
116.5539284221
 30
0.0
 11
171.3090006661
 21
116.5539284221
 31
0.0
  0
LINE
  5
21F
330
1F
100
AcDbEntity
  8
0
  6
HIDDEN
 62
     7
370
     0
100
AcDbLine
 10
144.2590006661
 20
132.2917646127
 30
0.0
 11
144.2590006661
 21
135.9536305606
 31
0.0
  0
LINE
  5
220
330
1F
100
AcDbEntity
  8
0
  6
HIDDEN
 62
     7
370
     0
100
AcDbLine
 10
136.7590006661
 20
135.5322310132
 30
0.0
 11
136.7590006661
 21
132.3533441609
 31
0.0
  0
LINE
  5
221
330
1F
100
AcDbEntity
  8
0
  6
HIDDEN
 62
     7
370
     0
100
AcDbLine
 10
144.2590006661
 20
88.7541070094
 30
0.0
 11
144.2590006661
 21
92.4160922315
 31
0.0
  0
LINE
  5
222
330
1F
100
AcDbEntity
  8
0
  6
HIDDEN
 62
     7
370
     0
100
AcDbLine
 10
136.7590006661
 20
92.3557999693
 30
0.0
 11
136.7590006661
 21
89.1756343046
 31
0.0
  0
LINE
  5
223
330
1F
100
AcDbEntity
  8
0
  6
HIDDEN
 62
     7
370
     0
100
AcDbLine
 10
260.3170177116
 20
105.5925805129
 30
0.0
 11
260.3170177116
 21
105.4879458023
 31
0.0
  0
LINE
  5
224
330
1F
100
AcDbEntity
  8
0
  6
HIDDEN
 62
     7
370
     0
100
AcDbLine
 10
234.6090006661
 20
113.6515470541
 30
0.0
 11
234.6090006661
 21
115.3698279088
 31
0.0
  0
LINE
  5
225
330
1F
100
AcDbEntity
  8
0
  6
HIDDEN
 62
     7
370
     0
100
AcDbLine
 10
230.4090006661
 20
115.3698279088
 30
0.0
 11
230.4090006661
 21
113.6508044794
 31
0.0
  0
LINE
  5
226
330
1F
100
AcDbEntity
  8
0
  6
HIDDEN
 62
     7
370
     0
100
AcDbLine
 10
268.9877194618
 20
97.8369913018
 30
0.0
 11
268.9877194618
 21
98.4473604471
 31
0.0
  0
LINE
  5
227
330
1F
100
AcDbEntity
  8
0
  6
HIDDEN
 62
     7
370
     0
100
AcDbLine
 10
265.6877194618
 20
98.4375998988
 30
0.0
 11
265.6877194618
 21
97.8369913018
 31
0.0
  0
ARC
  5
228
330
1F
100
AcDbEntity
  8
0
  6
HIDDEN
 62
     7
370
     0
100
AcDbCircle
 10
122.3090006661
 20
134.6239284221
 30
0.0
 40
1.400000000000024
100
AcDbArc
 50
270.0
 51
302.5610026528
  0
ARC
  5
229
330
1F
100
AcDbEntity
  8
0
  6
HIDDEN
 62
     7
370
     0
100
AcDbCircle
 10
126.3090006661
 20
90.1414284221
 30
0.0
 40
1.399999999999991
100
AcDbArc
 50
37.6438857999
 51
90.0
  0
LINE
  5
22A
330
1F
100
AcDbEntity
  8
0
  6
HIDDEN
 62
     7
370
     0
100
AcDbLine
 10
118.7501641243
 20
133.2150918803
 30
0.0
 11
117.6201682853
 21
132.0850960413
 31
0.0
  0
LINE
  5
22B
330
1F
100
AcDbEntity
  8
0
  6
HIDDEN
 62
     7
370
     0
100
AcDbLine
 10
122.3090006661
 20
133.2239284221
 30
0.0
 11
118.8998890675
 21
133.2239284221
 31
0.0
  0
LINE
  5
22C
330
1F
100
AcDbEntity
  8
0
  6
HIDDEN
 62
     7
370
     0
100
AcDbLine
 10
118.7590006661
 20
91.5414284221
 30
0.0
 11
126.3090006661
 21
91.5414284221
 31
0.0
  0
LINE
  5
22D
330
1F
100
AcDbEntity
  8
0
  6
HIDDEN
 62
     7
370
     0
100
AcDbLine
 10
117.6109495099
 20
92.6894795783
 30
0.0
 11
118.7590006661
 21
91.5414284221
 31
0.0
  0
LINE
  5
22E
330
1F
100
AcDbEntity
  8
0
  6
HIDDEN
 62
     7
370
     0
100
AcDbLine
 10
235.0090006661
 20
115.4440983658
 30
0.0
 11
235.0090006661
 21
117.298121843
 31
0.0
  0
LINE
  5
22F
330
1F
100
AcDbEntity
  8
0
  6
HIDDEN
 62
     7
370
     0
100
AcDbLine
 10
230.0090006661
 20
117.2977990572
 30
0.0
 11
230.0090006661
 21
115.4440983658
 31
0.0
  0
LINE
  5
230
330
1F
100
AcDbEntity
  8
VERMASSUNG
100
AcDbLine
 10
274.5090006661
 20
112.3539284221
 30
0.0
 11
274.5090006661
 21
90.3539284221
 31
0.0
  0
DIMENSION
  5
231
330
1F
100
AcDbEntity
  8
VERMASSUNG
100
AcDbDimension
  2
*D1
 10
280.3562461908
 20
112.3539284221
 30
0.0
 11
280.3562461908
 21
101.3539284221
 31
0.0
 70
   160
 71
     2
 42
-1.0
  3
SLDDIMSTYLE0
100
AcDbAlignedDimension
 13
274.5090006661
 23
90.3539284221
 33
0.0
 14
274.1139524336
 24
112.3539284221
 34
0.0
 50
90.0
100
AcDbRotatedDimension
  0
DIMENSION
  5
23C
330
1F
100
AcDbEntity
  8
VERMASSUNG
100
AcDbDimension
  2
*D2
 10
149.5090006661
 20
150.5816199083
 30
0.0
 11
212.0090006661
 21
150.5816199083
 31
0.0
 70
   160
 71
     2
 42
-1.0
  3
SLDDIMSTYLE0
100
AcDbAlignedDimension
 13
274.5090006661
 23
112.3539284221
 33
0.0
 14
149.5090006661
 24
143.5539284221
 34
0.0
100
AcDbRotatedDimension
  0
DIMENSION
  5
246
330
1F
100
AcDbEntity
  8
VERMASSUNG
100
AcDbDimension
  2
*D3
 10
117.6090006661
 20
156.5816199083
 30
0.0
 11
196.0590006661
 21
156.5816199083
 31
0.0
 70
   160
 71
     2
 42
-1.0
  3
SLDDIMSTYLE0
100
AcDbAlignedDimension
 13
274.5090006661
 23
112.3539284221
 33
0.0
 14
117.6090006661
 24
132.0446061686
 34
0.0
100
AcDbRotatedDimension
  0
DIMENSION
  5
250
330
1F
100
AcDbEntity
  8
VERMASSUNG
100
AcDbDimension
  2
*D4
 10
267.4686413182
 20
112.3539284221
 30
0.0
 11
269.7020243563
 21
121.2744004763
 31
0.0
 70
   162
 71
     1
 42
-1.0
  3
SLDDIMSTYLE1
100
AcDb2LineAngularDimension
 13
274.5090006661
 23
112.3539284221
 33
0.0
 14
274.5090006661
 24
90.3539284221
 34
0.0
 15
270.8019967173
 25
101.7560598886
 35
0.0
 16
269.7020243563
 26
121.2744004763
 36
0.0
  0
DIMENSION
  5
25B
330
1F
100
AcDbEntity
  8
VERMASSUNG
100
AcDbDimension
  2
*D5
 10
113.9473907181
 20
80.8539284221
 30
0.0
 11
113.9473907181
 21
112.3539284221
 31
0.0
 70
   160
  1
HSK %%c<>
 71
     2
 42
-1.0
  3
SLDDIMSTYLE0
100
AcDbAlignedDimension
 13
149.8090006661
 23
143.8539284221
 33
0.0
 14
149.8090006661
 24
80.8539284221
 34
0.0
 50
90.0
100
AcDbRotatedDimension
  0
LINE
  5
267
330
1F
100
AcDbEntity
  8
VERMASSUNG
  6
CENTERX2
370
     0
100
AcDbLine
 10
115.4476910153
 20
112.3539284221
 30
0.0
 11
274.1139524336
 21
112.3539284221
 31
0.0
  0
LINE
  5
268
330
1F
100
AcDbEntity
  8
0
  6
Continuous
 62
     7
370
    15
100
AcDbLine
 10
63.7650919385
 20
91.3448850609
 30
0.0
 11
63.0868131798
 21
101.0447232188
 31
0.0
  0
LINE
  5
269
330
1F
100
AcDbEntity
  8
0
  6
Continuous
 62
     7
370
    15
100
AcDbLine
 10
59.8189771875
 20
90.8646746313
 30
0.0
 11
59.1096892142
 21
101.0079652176
 31
0.0
  0
SPLINE
  5
26A
330
1F
100
AcDbEntity
  8
0
  6
Continuous
 62
     7
370
    15
100
AcDbSpline
210
0.0
220
0.0
230
1.0
 70
     8
 71
     3
 72
    10
 73
     6
 74
     0
 42
0.00000001
 43
0.00000001
 40
0.0
 40
0.0
 40
0.0
 40
0.0
 40
0.2780943328767275
 40
0.5601464184569045
 40
1.0
 40
1.0
 40
1.0
 40
1.0
 10
63.77377712503122
 20
91.22068110696064
 30
0.0
 10
63.41410566030246
 20
91.13307209645119
 30
0.0
 10
62.68964399758219
 20
90.9566072510378
 30
0.0
 10
61.36991090551605
 20
90.70848067492929
 30
0.0
 10
60.42767975192857
 20
90.49802129315151
 30
0.0
 10
59.85358293232822
 20
90.36978942427979
 30
0.0
  0
SPLINE
  5
26B
330
1F
100
AcDbEntity
  8
0
  6
Continuous
 62
     7
370
    15
100
AcDbSpline
210
0.0
220
0.0
230
1.0
 70
    24
 71
     3
 72
    14
 73
    10
 74
     0
 42
0.00000001
 43
0.00000001
 40
0.0
 40
0.0
 40
0.0
 40
0.0
 40
0.1583203796595561
 40
0.316800805773896
 40
0.4713744813488637
 40
0.6221259069006412
 40
0.7721262731746148
 40
0.9245922366699995
 40
1.0
 40
1.0
 40
1.0
 40
1.0
 10
63.76509193850194
 20
91.3448850608933
 30
0.0
 10
63.76587940453295
 20
91.33362377199148
 30
0.0
 10
63.76745513264625
 20
91.31108981012368
 30
0.0
 10
63.76984412996676
 20
91.27692555676997
 30
0.0
 10
63.77187640748529
 20
91.24786263423272
 30
0.0
 10
63.77334833553854
 20
91.22681308239014
 30
0.0
 10
63.77412243656705
 20
91.21574292193222
 30
0.0
 10
63.77416811278383
 20
91.21508972160022
 30
0.0
 10
63.77387434003732
 20
91.21929086760338
 30
0.0
 10
63.77377712503124
 20
91.22068110696063
 30
0.0
  0
SPLINE
  5
26C
330
1F
100
AcDbEntity
  8
0
  6
Continuous
 62
     7
370
    15
100
AcDbSpline
210
0.0
220
0.0
230
1.0
 70
    24
 71
     3
 72
    20
 73
    16
 74
     0
 42
0.00000001
 43
0.00000001
 40
0.0
 40
0.0
 40
0.0
 40
0.0
 40
0.0783075311860687
 40
0.1588910126856519
 40
0.2369785693217625
 40
0.317439816075705
 40
0.3936615824745117
 40
0.4721830276910007
 40
0.5469240757153158
 40
0.6238523130449503
 40
0.6983189620749716
 40
0.774890842022545
 40
0.8503894607879858
 40
0.9279814901989354
 40
0.9999999999999999
 40
0.9999999999999999
 40
0.9999999999999999
 40
0.9999999999999999
 10
59.85358293232811
 20
90.36978942427976
 30
0.0
 10
59.85398519166178
 20
90.3640368478002
 30
0.0
 10
59.8548014016983
 20
90.35236450047235
 30
0.0
 10
59.85501574318437
 20
90.34929927441549
 30
0.0
 10
59.85446264102362
 20
90.35720900382147
 30
0.0
 10
59.85310153463609
 20
90.3766737320098
 30
0.0
 10
59.85097889127294
 20
90.40702894632963
 30
0.0
 10
59.8482245999184
 20
90.44641714775852
 30
0.0
 10
59.84486575192349
 20
90.4944509119467
 30
0.0
 10
59.84107838814803
 20
90.54861273729196
 30
0.0
 10
59.83688441543424
 20
90.60858934135729
 30
0.0
 10
59.83245860340615
 20
90.67188140209599
 30
0.0
 10
59.82784237875147
 20
90.73789649022075
 30
0.0
 10
59.82329211822353
 20
90.80296824743832
 30
0.0
 10
59.82037932718022
 20
90.84462310002084
 30
0.0
 10
59.81897718752211
 20
90.8646746313152
 30
0.0
  0
SPLINE
  5
26D
330
1F
100
AcDbEntity
  8
0
  6
Continuous
 62
     7
370
    15
100
AcDbSpline
210
0.0
220
0.0
230
1.0
 70
    24
 71
     3
 72
    10
 73
     6
 74
     0
 42
0.00000001
 43
0.00000001
 40
0.0
 40
0.0
 40
0.0
 40
0.0
 40
0.26571229572496
 40
0.6165157621681187
 40
1.0
 40
1.0
 40
1.0
 40
1.0
 10
63.08229195781929
 20
101.1093797047254
 30
0.0
 10
63.08251117892159
 20
101.106244696903
 30
0.0
 10
63.08301982405074
 20
101.0989707326639
 30
0.0
 10
63.08453591747699
 20
101.0772895865689
 30
0.0
 10
63.08603189856819
 20
101.0558960602561
 30
0.0
 10
63.08681317975433
 20
101.0447232187598
 30
0.0
  0
SPLINE
  5
26E
330
1F
100
AcDbEntity
  8
0
  6
Continuous
 62
     7
370
    15
100
AcDbSpline
210
0.0
220
0.0
230
1.0
 70
    24
 71
     3
 72
    10
 73
     6
 74
     0
 42
0.00000001
 43
0.00000001
 40
0.0
 40
0.0
 40
0.0
 40
0.0
 40
0.3518022785809745
 40
0.7034245935030755
 40
1.0
 40
1.0
 40
1.0
 40
1.0
 10
59.10968921420488
 20
101.0079652176247
 30
0.0
 10
59.10681705714099
 20
101.0490389772322
 30
0.0
 10
59.10107421225866
 20
101.1311654852585
 30
0.0
 10
59.09479168684974
 20
101.2210097843808
 30
0.0
 10
59.09260517334432
 20
101.2522783842875
 30
0.0
 10
59.09160475925731
 20
101.2665849722644
 30
0.0
  0
LINE
  5
26F
330
1F
100
AcDbEntity
  8
0
  6
Continuous
 62
     7
370
    15
100
AcDbLine
 10
59.1702501585
 20
104.4425794724
 30
0.0
 11
58.8679671203
 21
104.4647522094
 31
0.0
  0
LINE
  5
270
330
1F
100
AcDbEntity
  8
0
  6
Continuous
 62
     7
370
    15
100
AcDbLine
 10
59.0916047593
 20
101.2665849723
 30
0.0
 11
58.8679671203
 21
104.4647522094
 31
0.0
  0
LINE
  5
271
330
1F
100
AcDbEntity
  8
0
  6
Continuous
 62
     7
370
    15
100
AcDbLine
 10
59.1096892141
 20
101.0079652176
 30
0.0
 11
59.0916047592
 21
101.2665849723
 31
0.0
  0
SPLINE
  5
272
330
1F
100
AcDbEntity
  8
0
  6
Continuous
 62
     7
370
    15
100
AcDbSpline
210
0.0
220
0.0
230
1.0
 70
     8
 71
     3
 72
    35
 73
    31
 74
     0
 42
0.00000001
 43
0.00000001
 40
0.0
 40
0.0
 40
0.0
 40
0.0
 40
0.0248118749873158
 40
0.0495962376755334
 40
0.074369495915595
 40
0.0991480796178428
 40
0.1239484081084617
 40
0.1487868575908416
 40
0.1736797290328365
 40
0.1986432167911483
 40
0.2236933782673537
 40
0.2488461048670946
 40
0.2741170945056405
 40
0.299521825870378
 40
0.3250755346151029
 40
0.3507931916234475
 40
0.3766894834406216
 40
0.4027787949350722
 40
0.4290751942156101
 40
0.455592419796001
 40
0.4823438699685422
 40
0.5389999930058955
 40
0.595590141018796
 40
0.6522365277226262
 40
0.7090610039723684
 40
0.7661842809747837
 40
0.8237251894652792
 40
0.8817999966049339
 40
0.9405217983372057
 40
1.0
 40
1.0
 40
1.0
 40
1.0
 10
63.72971127074534
 20
91.86062086640597
 30
0.0
 10
63.86524672023368
 20
91.89096702491332
 30
0.0
 10
64.13616733263078
 20
91.95162569301641
 30
0.0
 10
64.53922443587625
 20
92.05515286401501
 30
0.0
 10
64.93942292158039
 20
92.16777242375315
 30
0.0
 10
65.3365534057682
 20
92.29038767335996
 30
0.0
 10
65.73067131960616
 20
92.42275642719352
 30
0.0
 10
66.12176117671214
 20
92.56494332789002
 30
0.0
 10
66.50982654686973
 20
92.71693067593229
 30
0.0
 10
66.8948659289552
 20
92.87872282428506
 30
0.0
 10
67.27687923501766
 20
93.05031815480972
 30
0.0
 10
67.65586605247672
 20
93.23171661717397
 30
0.0
 10
68.0318261149403
 20
93.42291770787736
 30
0.0
 10
68.40475917869618
 20
93.62392102365116
 30
0.0
 10
68.77466505333395
 20
93.83472611479414
 30
0.0
 10
69.14154360721868
 20
94.0553325523267
 30
0.0
 10
69.50539471227366
 20
94.28573984183426
 30
0.0
 10
69.86621845441144
 20
94.52594773739334
 30
0.0
 10
70.22401432687917
 20
94.77595509113726
 30
0.0
 10
70.57878426482232
 20
95.03576421777146
 30
0.0
 10
71.06048178275549
 20
95.4049769698333
 30
0.0
 10
71.65718678381326
 20
95.89487982309907
 30
0.0
 10
72.35175719132596
 20
96.52066591442437
 30
0.0
 10
73.015961941752
 20
97.1770494303076
 30
0.0
 10
73.64979725055186
 20
97.86400555930257
 30
0.0
 10
74.25320052883627
 20
98.58155439410199
 30
0.0
 10
74.82639391708229
 20
99.32957222641124
 30
0.0
 10
75.36852065681595
 20
100.108468508177
 30
0.0
 10
75.8828266684241
 20
100.9166350890838
 30
0.0
 10
76.19673398118006
 20
101.4750604408023
 30
0.0
 10
76.35469203460855
 20
101.7560598885951
 30
0.0
  0
LINE
  5
273
330
1F
100
AcDbEntity
  8
0
  6
Continuous
 62
     7
370
    15
100
AcDbLine
 10
76.3546920416
 20
101.7611959967
 30
0.0
 11
76.3546920416
 21
101.0859239416
 31
0.0
  0
LINE
  5
274
330
1F
100
AcDbEntity
  8
0
  6
Continuous
 62
     7
370
    15
100
AcDbLine
 10
63.7545261883
 20
91.4959823289
 30
0.0
 11
63.7290359595
 21
91.8605095838
 31
0.0
  0
SPLINE
  5
275
330
1F
100
AcDbEntity
  8
0
  6
Continuous
 62
     7
370
    15
100
AcDbSpline
210
0.0
220
0.0
230
1.0
 70
     8
 71
     3
 72
    35
 73
    31
 74
     0
 42
0.00000001
 43
0.00000001
 40
0.0
 40
0.0
 40
0.0
 40
0.0
 40
0.0309919762301132
 40
0.0617024282402358
 40
0.0921334282534662
 40
0.1222871061078705
 40
0.1521656509481756
 40
0.1817713129533939
 40
0.2111064050992732
 40
0.240173304954179
 40
0.2689744565066908
 40
0.2975123720229633
 40
0.3257896339315021
 40
0.3538088967326576
 40
0.3815728889297614
 40
0.4090844149783878
 40
0.4363463572497684
 40
0.4633616780039236
 40
0.4901334213675236
 40
0.5166647153109936
 40
0.5677938841325467
 40
0.6182299166732068
 40
0.6679979560175581
 40
0.7171241709322982
 40
0.7656357688825155
 40
0.8135610041339516
 40
0.8609291802516821
 40
0.9077706463081487
 40
0.9541167861352914
 40
1.0
 40
1.0
 40
1.0
 40
1.0
 10
76.35520429964606
 20
101.0897257414064
 30
0.0
 10
76.27121363080755
 20
100.9469019643201
 30
0.0
 10
76.10399524568815
 20
100.6625517895768
 30
0.0
 10
75.84235071584779
 20
100.2444246819695
 30
0.0
 10
75.57452152600294
 20
99.8350714236011
 30
0.0
 10
75.29990484181185
 20
99.43502089289855
 30
0.0
 10
75.01897680211299
 20
99.04423536422756
 30
0.0
 10
74.73192736325443
 20
98.6628176947605
 30
0.0
 10
74.43902084848783
 20
98.29082457233577
 30
0.0
 10
74.14050041541182
 20
97.92831602925531
 30
0.0
 10
73.83661306897977
 20
97.57534251805056
 30
0.0
 10
73.52760282522335
 20
97.23194849303421
 30
0.0
 10
73.21371229968949
 20
96.89817163179295
 30
0.0
 10
72.89518208229724
 20
96.57404321793449
 30
0.0
 10
72.57225069010934
 20
96.25958819921838
 30
0.0
 10
72.24515443367895
 20
95.95482541059056
 30
0.0
 10
71.91412710207429
 20
95.65976747487768
 30
0.0
 10
71.57940048706934
 20
95.37442182602473
 30
0.0
 10
71.241201811795
 20
95.09878762632856
 30
0.0
 10
70.79323005863999
 20
94.74989808892853
 30
0.0
 10
70.22920858096793
 20
94.33937738263361
 30
0.0
 10
69.54135786757476
 20
93.88290895902021
 30
0.0
 10
68.8425330392811
 20
93.46168330565844
 30
0.0
 10
68.1341444881246
 20
93.07573164645976
 30
0.0
 10
67.41757083443666
 20
92.72499746096028
 30
0.0
 10
66.69414818397661
 20
92.40944716919738
 30
0.0
 10
65.96524878002573
 20
92.12870502803926
 30
0.0
 10
65.23196950845367
 20
91.88339590714669
 30
0.0
 10
64.49626975381197
 20
91.6702296993807
 30
0.0
 10
64.00091101092208
 20
91.55624659297688
 30
0.0
 10
63.75447481431043
 20
91.49954109696348
 30
0.0
  0
LINE
  5
276
330
1F
100
AcDbEntity
  8
0
  6
Continuous
 62
     7
370
    15
100
AcDbLine
 10
63.0655357671
 20
101.3490043956
 30
0.0
 11
61.5691896917
 21
101.244369685
 31
0.0
  0
LINE
  5
277
330
1F
100
AcDbEntity
  8
0
  6
Continuous
 62
     7
370
    15
100
AcDbLine
 10
61.5691896917
 20
101.244369685
 30
0.0
 11
59.3828364132
 21
101.4024543933
 31
0.0
  0
LINE
  5
278
330
1F
100
AcDbEntity
  8
0
  6
Continuous
 62
     7
370
    15
100
AcDbLine
 10
57.4753020559
 20
128.6814666106
 30
0.0
 11
59.3828364132
 21
101.4024543933
 31
0.0
  0
ARC
  5
279
330
1F
100
AcDbEntity
  8
0
  6
Continuous
 62
     7
370
    15
100
AcDbCircle
 10
59.8546920416
 20
112.3539284221
 30
0.0
 40
16.50000000000002
100
AcDbArc
 50
0.0
 51
98.2912714864
  0
LINE
  5
27A
330
1F
100
AcDbEntity
  8
0
  6
Continuous
 62
     7
370
    15
100
AcDbLine
 10
76.3546920416
 20
101.7560598886
 30
0.0
 11
76.3546920416
 21
112.3539284221
 31
0.0
  0
LINE
  5
27B
330
1F
100
AcDbEntity
  8
0
  6
Continuous
 62
     7
370
    15
100
AcDbLine
 10
63.0804938013
 20
101.135094541
 30
0.0
 11
63.0655357671
 21
101.3490043956
 31
0.0
  0
SPLINE
  5
27C
330
1F
100
AcDbEntity
  8
0
  6
Continuous
 62
     7
370
    15
100
AcDbSpline
210
0.0
220
0.0
230
1.0
 70
     8
 71
     3
 72
    14
 73
    10
 74
     0
 42
0.00000001
 43
0.00000001
 40
0.0
 40
0.0
 40
0.0
 40
0.0
 40
0.25
 40
0.25
 40
0.5
 40
0.5
 40
0.75
 40
0.75
 40
1.0
 40
1.0
 40
1.0
 40
1.0
 10
57.5102814249448
 20
128.1812383280808
 30
0.0
 10
57.51028142494481
 20
128.1812383280808
 30
0.0
 10
57.40198907264135
 20
128.1663326864123
 30
0.0
 10
56.97048623115267
 20
128.0933450985504
 30
0.0
 10
56.65850043120599
 20
128.0369223172972
 30
0.0
 10
55.85045854603066
 20
127.8503167897177
 30
0.0
 10
55.37493579473517
 20
127.7243697057528
 30
0.0
 10
54.30281110445303
 20
127.3704293242808
 30
0.0
 10
53.73304044335038
 20
127.1507938810885
 30
0.0
 10
53.14344245401904
 20
126.8783605615079
 30
0.0
  0
SPLINE
  5
27D
330
1F
100
AcDbEntity
  8
0
  6
Continuous
 62
     7
370
    15
100
AcDbSpline
210
0.0
220
0.0
230
1.0
 70
     8
 71
     3
 72
    14
 73
    10
 74
     0
 42
0.00000001
 43
0.00000001
 40
0.0
 40
0.0
 40
0.0
 40
0.0
 40
0.1604997239699461
 40
0.3255610726103161
 40
0.4861051274426965
 40
0.6514306306974803
 40
0.8101274280151419
 40
0.9732692224136781
 40
1.0
 40
1.0
 40
1.0
 40
1.0
 10
55.23016613419096
 20
97.0368216413919
 30
0.0
 10
55.53050892141037
 20
96.95182408764558
 30
0.0
 10
56.13973065425417
 20
96.77941323183572
 30
0.0
 10
56.99762965835961
 20
96.60437531882663
 30
0.0
 10
57.78548566421436
 20
96.48226938885111
 30
0.0
 10
58.46117516495082
 20
96.41090829839635
 30
0.0
 10
59.00290121141543
 20
96.3742625340263
 30
0.0
 10
59.31810689124193
 20
96.3621411133107
 30
0.0
 10
59.42033739020159
 20
96.35997497514754
 30
0.0
 10
59.43472967815378
 20
96.35967002031991
 30
0.0
  0
ELLIPSE
  5
27E
330
1F
100
AcDbEntity
  8
0
  6
Continuous
 62
     7
370
    15
100
AcDbEllipse
 10
50.8200614761
 20
105.8827000187
 30
0.0
 11
-1.733036295194197
 21
1.855089312013832
 31
0.0
210
0.0
220
0.0
230
1.0
 40
0.8112573031
 41
0.0
 42
6.283185307179586
  0
ARC
  5
27F
330
1F
100
AcDbEntity
  8
0
  6
Continuous
 62
     7
370
    15
100
AcDbCircle
 10
59.8546920416
 20
112.3539284221
 30
0.0
 40
16.00000000000002
100
AcDbArc
 50
114.8000641757
 51
253.1999358243
  0
SPLINE
  5
280
330
1F
100
AcDbEntity
  8
0
  6
Continuous
 62
     7
370
    15
100
AcDbSpline
210
0.0
220
0.0
230
1.0
 70
     8
 71
     3
 72
    31
 73
    27
 74
     0
 42
0.00000001
 43
0.00000001
 40
0.0
 40
0.0
 40
0.0
 40
0.0
 40
0.0188851498713597
 40
0.0589375274787837
 40
0.1136608844150553
 40
0.1688108137798922
 40
0.2251041959270054
 40
0.2817191608093276
 40
0.338860347238785
 40
0.3962785655543387
 40
0.4547179616560903
 40
0.4842333689463907
 40
0.513934929474284
 40
0.5356868825089459
 40
0.5578276957731129
 40
0.5759258038602785
 40
0.5945643502186317
 40
0.6173186910706101
 40
0.6407151869374293
 40
0.6729859222950345
 40
0.705603080191539
 40
0.7720358018980217
 40
0.8313813842062293
 40
0.8911272369197597
 40
0.9522225468983239
 40
1.0
 40
1.0
 40
1.0
 40
1.0
 10
51.60419546257971
 20
107.7825096635454
 30
0.0
 10
51.59455401485854
 20
107.7662347076859
 30
0.0
 10
51.56446460101365
 20
107.7154431775831
 30
0.0
 10
51.4937374922515
 20
107.628072650847
 30
0.0
 10
51.38980616982285
 20
107.5229459127221
 30
0.0
 10
51.25897914998387
 20
107.4222102541395
 30
0.0
 10
51.11378946636285
 20
107.3344795540057
 30
0.0
 10
50.95487477602195
 20
107.2593383035697
 30
0.0
 10
50.78378367988487
 20
107.1961393325048
 30
0.0
 10
50.59974880029522
 20
107.1431950884629
 30
0.0
 10
50.43474226243622
 20
107.1057296666467
 30
0.0
 10
50.29284999995149
 20
107.0765300072347
 30
0.0
 10
50.19025710989646
 20
107.0553649111518
 30
0.0
 10
50.09238827386097
 20
107.0333059989709
 30
0.0
 10
50.00659412220476
 20
107.0111830606737
 30
0.0
 10
49.92382182628456
 20
106.9860759053216
 30
0.0
 10
49.84144724776386
 20
106.9571008576629
 30
0.0
 10
49.75623261082228
 20
106.9226735067763
 30
0.0
 10
49.66059402210567
 20
106.8801307878763
 30
0.0
 10
49.56102252670529
 20
106.8335635746964
 30
0.0
 10
49.42188259076976
 20
106.7693561336124
 30
0.0
 10
49.26344631847779
 20
106.7033085220604
 30
0.0
 10
49.08323296223451
 20
106.6457374084925
 30
0.0
 10
48.91109812369851
 20
106.6107210946132
 30
0.0
 10
48.75169923136868
 20
106.5958677292579
 30
0.0
 10
48.65108110108085
 20
106.6058375796161
 30
0.0
 10
48.6069260905438
 20
106.6102127239998
 30
0.0
  0
SPLINE
  5
281
330
1F
100
AcDbEntity
  8
0
  6
Continuous
 62
     7
370
    15
100
AcDbSpline
210
0.0
220
0.0
230
1.0
 70
    24
 71
     3
 72
    10
 73
     6
 74
     0
 42
0.00000001
 43
0.00000001
 40
0.0
 40
0.0
 40
0.0
 40
0.0
 40
0.5
 40
0.5
 40
1.0
 40
1.0
 40
1.0
 40
1.0
 10
50.85469204164586
 20
82.79365102149627
 30
0.0
 10
50.85469204164586
 20
82.63376375330262
 30
0.0
 10
50.85469204164586
 20
82.47263649778802
 30
0.0
 10
50.85469204164586
 20
82.23853749943319
 30
0.0
 10
50.85469204164586
 20
82.16701072584198
 30
0.0
 10
50.85469204164586
 20
82.16701072584198
 30
0.0
  0
ARC
  5
282
330
1F
100
AcDbEntity
  8
0
  6
Continuous
 62
     7
370
    15
100
AcDbCircle
 10
59.8546920416
 20
112.3539284221
 30
0.0
 40
31.50000000000004
100
AcDbArc
 50
140.9381656697
 51
253.398450401
  0
SPLINE
  5
283
330
1F
100
AcDbEntity
  8
0
  6
Continuous
 62
     7
370
    15
100
AcDbSpline
210
0.0
220
0.0
230
1.0
 70
    24
 71
     3
 72
    12
 73
     8
 74
     0
 42
0.00000001
 43
0.00000001
 40
0.0
 40
0.0
 40
0.0
 40
0.0
 40
0.2499999999999967
 40
0.2499999999999967
 40
0.4999999999999933
 40
0.4999999999999933
 40
1.0
 40
1.0
 40
1.0
 40
1.0
 10
35.39600237927827
 20
132.2039284220891
 30
0.0
 10
35.39600237927827
 20
132.2039284220891
 30
0.0
 10
35.42383209958174
 20
132.2039284220891
 30
0.0
 10
35.51897456083841
 20
132.2039284220891
 30
0.0
 10
35.58539737713875
 20
132.2039284220891
 30
0.0
 10
35.80959680865886
 20
132.2039284220891
 30
0.0
 10
35.99358321120447
 20
132.2039284220891
 30
0.0
 10
36.17373978038744
 20
132.2039284220891
 30
0.0
  0
SPLINE
  5
284
330
1F
100
AcDbEntity
  8
0
  6
Continuous
 62
     7
370
    15
100
AcDbSpline
210
0.0
220
0.0
230
1.0
 70
    24
 71
     3
 72
    10
 73
     6
 74
     0
 42
0.00000001
 43
0.00000001
 40
0.0
 40
0.0
 40
0.0
 40
0.0
 40
0.5
 40
0.5
 40
1.0
 40
1.0
 40
1.0
 40
1.0
 10
51.85469204164586
 20
142.200368745853
 30
0.0
 10
51.85469204164586
 20
142.3607740122038
 30
0.0
 10
51.85469204164586
 20
142.5198358251924
 30
0.0
 10
51.85469204164586
 20
142.7507482908227
 30
0.0
 10
51.85469204164586
 20
142.8211238952534
 30
0.0
 10
51.85469204164586
 20
142.8211238952534
 30
0.0
  0
SPLINE
  5
285
330
1F
100
AcDbEntity
  8
0
  6
Continuous
 62
     7
370
    15
100
AcDbSpline
210
0.0
220
0.0
230
1.0
 70
    24
 71
     3
 72
    12
 73
     8
 74
     0
 42
0.00000001
 43
0.00000001
 40
0.0
 40
0.0
 40
0.0
 40
0.0
 40
0.2499999999999987
 40
0.2499999999999987
 40
0.4999999999999973
 40
0.4999999999999973
 40
1.0
 40
1.0
 40
1.0
 40
1.0
 10
40.00469204164583
 20
136.8126180844565
 30
0.0
 10
40.00469204164583
 20
136.8126180844565
 30
0.0
 10
40.00469204164583
 20
136.7843983858687
 30
0.0
 10
40.00469204164583
 20
136.6899553786206
 30
0.0
 10
40.00469204164582
 20
136.6236684019152
 30
0.0
 10
40.00469204164582
 20
136.3980435786269
 30
0.0
 10
40.00469204164583
 20
136.2156173155944
 30
0.0
 10
40.00469204164583
 20
136.0348806833475
 30
0.0
  0
ARC
  5
286
330
1F
100
AcDbEntity
  8
0
  6
Continuous
 62
     7
370
    15
100
AcDbCircle
 10
59.8546920416
 20
112.3539284221
 30
0.0
 40
31.50000000000001
100
AcDbArc
 50
104.7124579609
 51
129.0618343303
  0
SPLINE
  5
287
330
1F
100
AcDbEntity
  8
0
  6
Continuous
 62
     7
370
    15
100
AcDbSpline
210
0.0
220
0.0
230
1.0
 70
    24
 71
     3
 72
    12
 73
     8
 74
     0
 42
0.00000001
 43
0.00000001
 40
0.0
 40
0.0
 40
0.0
 40
0.0
 40
0.25
 40
0.25
 40
0.5
 40
0.5
 40
1.0
 40
1.0
 40
1.0
 40
1.0
 10
67.85469204164588
 20
142.8211238952534
 30
0.0
 10
67.85469204164588
 20
142.8211238952534
 30
0.0
 10
67.85469204164588
 20
142.8041211452926
 30
0.0
 10
67.85469204164588
 20
142.7400606041809
 30
0.0
 10
67.85469204164588
 20
142.6929019885423
 30
0.0
 10
67.85469204164588
 20
142.5196799558501
 30
0.0
 10
67.85469204164588
 20
142.3595708656158
 30
0.0
 10
67.85469204164588
 20
142.2003687458524
 30
0.0
  0
ARC
  5
288
330
1F
100
AcDbEntity
  8
0
  6
Continuous
 62
     7
370
    15
100
AcDbCircle
 10
59.8546920416
 20
112.3539284221
 30
0.0
 40
31.50000000000003
100
AcDbArc
 50
286.601549599
 51
75.2875420391
  0
SPLINE
  5
289
330
1F
100
AcDbEntity
  8
0
  6
Continuous
 62
     7
370
    15
100
AcDbSpline
210
0.0
220
0.0
230
1.0
 70
    24
 71
     3
 72
    12
 73
     8
 74
     0
 42
0.00000001
 43
0.00000001
 40
0.0
 40
0.0
 40
0.0
 40
0.0
 40
0.249999999999998
 40
0.249999999999998
 40
0.499999999999996
 40
0.499999999999996
 40
1.0
 40
1.0
 40
1.0
 40
1.0
 10
68.85469204164588
 20
82.16701072584198
 30
0.0
 10
68.85469204164588
 20
82.16701072584198
 30
0.0
 10
68.85469204164588
 20
82.18412781210782
 30
0.0
 10
68.85469204164588
 20
82.24886392358292
 30
0.0
 10
68.85469204164588
 20
82.29632116646327
 30
0.0
 10
68.85469204164588
 20
82.47314560900273
 30
0.0
 10
68.85469204164588
 20
82.63342211620845
 30
0.0
 10
68.85469204164588
 20
82.79365102149622
 30
0.0
  0
LINE
  5
28A
330
1F
100
AcDbEntity
  8
0
  6
Continuous
 62
     7
370
    15
100
AcDbLine
 10
67.8546920416
 20
138.7539284221
 30
0.0
 11
51.8546920416
 21
138.7539284221
 31
0.0
  0
LINE
  5
28B
330
1F
100
AcDbEntity
  8
0
  6
Continuous
 62
     7
370
    15
100
AcDbLine
 10
68.8546920416
 20
85.9539284221
 30
0.0
 11
50.8546920416
 21
85.9539284221
 31
0.0
  0
LINE
  5
28C
330
1F
100
AcDbEntity
  8
0
  6
Continuous
 62
     7
370
    15
100
AcDbLine
 10
67.8546920416
 20
142.2003687459
 30
0.0
 11
67.8546920416
 21
138.7539284221
 31
0.0
  0
LINE
  5
28D
330
1F
100
AcDbEntity
  8
0
  6
Continuous
 62
     7
370
    15
100
AcDbLine
 10
68.8546920416
 20
82.7936510215
 30
0.0
 11
68.8546920416
 21
85.9539284221
 31
0.0
  0
LINE
  5
28E
330
1F
100
AcDbEntity
  8
0
  6
Continuous
 62
     7
370
    15
100
AcDbLine
 10
51.8546920416
 20
138.7539284221
 30
0.0
 11
51.8546920416
 21
142.2003687459
 31
0.0
  0
LINE
  5
28F
330
1F
100
AcDbEntity
  8
0
  6
Continuous
 62
     7
370
    15
100
AcDbLine
 10
50.8546920416
 20
85.9539284221
 30
0.0
 11
50.8546920416
 21
82.7936510215
 31
0.0
  0
LINE
  5
290
330
1F
100
AcDbEntity
  8
0
  6
Continuous
 62
     7
370
    15
100
AcDbLine
 10
40.0046920416
 20
136.0348806833
 30
0.0
 11
40.0046920416
 21
132.2039284221
 31
0.0
  0
LINE
  5
291
330
1F
100
AcDbEntity
  8
0
  6
Continuous
 62
     7
370
    15
100
AcDbLine
 10
36.1737397804
 20
132.2039284221
 30
0.0
 11
40.0046920416
 21
132.2039284221
 31
0.0
  0
SPLINE
  5
292
330
1F
100
AcDbEntity
  8
0
  6
Continuous
 62
     7
370
    15
100
AcDbSpline
210
0.0
220
0.0
230
1.0
 70
     8
 71
     3
 72
    30
 73
    26
 74
     0
 42
0.00000001
 43
0.00000001
 40
0.0
 40
0.0
 40
0.0
 40
0.0
 40
0.1249999999999997
 40
0.1249999999999997
 40
0.1874999999999996
 40
0.1874999999999996
 40
0.2499999999999994
 40
0.2499999999999994
 40
0.3749999999999992
 40
0.3749999999999992
 40
0.4374999999999993
 40
0.4374999999999993
 40
0.4999999999999993
 40
0.4999999999999993
 40
0.6249999999999996
 40
0.6249999999999996
 40
0.6874999999999997
 40
0.6874999999999997
 40
0.7499999999999997
 40
0.7499999999999997
 40
0.8124999999999998
 40
0.8124999999999998
 40
0.8749999999999999
 40
0.8749999999999999
 40
1.0
 40
1.0
 40
1.0
 40
1.0
 10
60.85469204164595
 20
80.86980543922675
 30
0.0
 10
61.38610997204653
 20
80.88668435723537
 30
0.0
 10
61.9077691696207
 20
80.91670192206008
 30
0.0
 10
62.67641095677973
 20
80.9795123113332
 30
0.0
 10
62.93030075594476
 20
81.00341621856009
 30
0.0
 10
63.43337353189084
 20
81.05685151100249
 30
0.0
 10
63.68283738010746
 20
81.08645837917004
 30
0.0
 10
64.40774827770433
 20
81.18090807788447
 30
0.0
 10
64.86562561459652
 20
81.2519354717137
 30
0.0
 10
65.51539284007936
 20
81.36594975841946
 30
0.0
 10
65.72677954348953
 20
81.40540500956003
 30
0.0
 10
66.13141335425969
 20
81.4849264523307
 30
0.0
 10
66.3241538257609
 20
81.52486259483148
 30
0.0
 10
66.87458470213784
 20
81.64379899765963
 30
0.0
 10
67.20476807941846
 20
81.72196376154349
 30
0.0
 10
67.64344389606889
 20
81.83167320181236
 30
0.0
 10
67.77924245455542
 20
81.86675403852078
 30
0.0
 10
68.02611948740159
 20
81.93199431790039
 30
0.0
 10
68.1378980247296
 20
81.96232913394513
 30
0.0
 10
68.3383282146032
 20
82.01766751316697
 30
0.0
 10
68.4269805578067
 20
82.04267218972707
 30
0.0
 10
68.58064810548781
 20
82.08655199861775
 30
0.0
 10
68.64589580973964
 20
82.10549568338006
 30
0.0
 10
68.8022008631039
 20
82.15121541065025
 30
0.0
 10
68.85469204164592
 20
82.16701072584195
 30
0.0
 10
68.85469204164592
 20
82.16701072584195
 30
0.0
  0
SPLINE
  5
293
330
1F
100
AcDbEntity
  8
0
  6
Continuous
 62
     7
370
    15
100
AcDbSpline
210
0.0
220
0.0
230
1.0
 70
     8
 71
     3
 72
    28
 73
    24
 74
     0
 42
0.00000001
 43
0.00000001
 40
0.0
 40
0.0
 40
0.0
 40
0.0
 40
0.1250000000000002
 40
0.1250000000000002
 40
0.1875000000000004
 40
0.1875000000000004
 40
0.2500000000000006
 40
0.2500000000000006
 40
0.3750000000000011
 40
0.3750000000000011
 40
0.4375000000000012
 40
0.4375000000000012
 40
0.5000000000000011
 40
0.5000000000000011
 40
0.6250000000000007
 40
0.6250000000000007
 40
0.7500000000000003
 40
0.7500000000000003
 40
0.8125000000000003
 40
0.8125000000000003
 40
0.8750000000000002
 40
0.8750000000000002
 40
1.0
 40
1.0
 40
1.0
 40
1.0
 10
50.85469204164592
 20
82.16701072584195
 30
0.0
 10
50.85469204164592
 20
82.16701072584195
 30
0.0
 10
50.90716838396413
 20
82.15122601189175
 30
0.0
 10
51.06096533152103
 20
82.10623059781555
 30
0.0
 10
51.12484030655504
 20
82.08767560273984
 30
0.0
 10
51.27833657521158
 20
82.04382288029333
 30
0.0
 10
51.36815155060527
 20
82.01847827334112
 30
0.0
 10
51.67013034565614
 20
81.93507619559101
 30
0.0
 10
51.91608377971189
 20
81.86921063643993
 30
0.0
 10
52.35145095914027
 20
81.76024029594814
 30
0.0
 10
52.50866614131262
 20
81.72200066018148
 30
0.0
 10
52.84083076185507
 20
81.64424192276213
 30
0.0
 10
53.01563802745795
 20
81.60474096058678
 30
0.0
 10
53.56569721804378
 20
81.48583321822079
 30
0.0
 10
53.96632060243925
 20
81.40601553679616
 30
0.0
 10
54.83890671378796
 20
81.25267237500012
 30
0.0
 10
55.29904216138954
 20
81.18133862173086
 30
0.0
 10
56.01900825535572
 20
81.08739511465623
 30
0.0
 10
56.26428196539025
 20
81.05820132129631
 30
0.0
 10
56.76573830181908
 20
81.0047347470329
 30
0.0
 10
57.0231696711916
 20
80.98037541275774
 30
0.0
 10
57.7991094670561
 20
80.91678526731297
 30
0.0
 10
58.32333786696212
 20
80.88668233222374
 30
0.0
 10
58.85469204164595
 20
80.86980543922678
 30
0.0
  0
SPLINE
  5
294
330
1F
100
AcDbEntity
  8
0
  6
Continuous
 62
     7
370
    15
100
AcDbSpline
210
0.0
220
0.0
230
1.0
 70
     8
 71
     3
 72
    50
 73
    46
 74
     0
 42
0.00000001
 43
0.00000001
 40
0.0
 40
0.0
 40
0.0
 40
0.0
 40
0.0625
 40
0.0625
 40
0.0937499999999999
 40
0.0937499999999999
 40
0.1249999999999999
 40
0.1249999999999999
 40
0.1874999999999996
 40
0.1874999999999996
 40
0.2187499999999994
 40
0.2187499999999994
 40
0.2499999999999993
 40
0.2499999999999993
 40
0.3124999999999991
 40
0.3124999999999991
 40
0.3749999999999989
 40
0.3749999999999989
 40
0.4062499999999988
 40
0.4062499999999988
 40
0.4374999999999987
 40
0.4374999999999987
 40
0.4999999999999987
 40
0.4999999999999987
 40
0.5624999999999987
 40
0.5624999999999987
 40
0.6249999999999986
 40
0.6249999999999986
 40
0.6562499999999987
 40
0.6562499999999987
 40
0.6874999999999988
 40
0.6874999999999988
 40
0.7187499999999989
 40
0.7187499999999989
 40
0.749999999999999
 40
0.749999999999999
 40
0.8124999999999992
 40
0.8124999999999992
 40
0.8749999999999996
 40
0.8749999999999996
 40
0.9374999999999998
 40
0.9374999999999998
 40
0.9687499999999999
 40
0.9687499999999999
 40
1.0
 40
1.0
 40
1.0
 40
1.0
 10
51.8546920416459
 20
142.8211238952534
 30
0.0
 10
51.85469204164591
 20
142.8211238952534
 30
0.0
 10
51.90698618359898
 20
142.8349899986346
 30
0.0
 10
52.06033871843174
 20
142.8744271415186
 30
0.0
 10
52.12403621378296
 20
142.8906798437836
 30
0.0
 10
52.27712786407277
 20
142.9290285536339
 30
0.0
 10
52.36678396603359
 20
142.951182000042
 30
0.0
 10
52.66836535420764
 20
143.0239379459041
 30
0.0
 10
52.91410678464162
 20
143.0812186487487
 30
0.0
 10
53.34926685099229
 20
143.1752110882045
 30
0.0
 10
53.50640767845346
 20
143.2080700553978
 30
0.0
 10
53.83904677117778
 20
143.274646108846
 30
0.0
 10
54.01411272661781
 20
143.3082895466849
 30
0.0
 10
54.56496825731942
 20
143.408850411262
 30
0.0
 10
54.96615266650608
 20
143.4754132210121
 30
0.0
 10
55.83964187259348
 20
143.6001122763116
 30
0.0
 10
56.30168246557591
 20
143.6566352853823
 30
0.0
 10
57.02279787916983
 20
143.7273042199971
 30
0.0
 10
57.26835851685321
 20
143.7485804300686
 30
0.0
 10
57.7701468160114
 20
143.7858861563105
 30
0.0
 10
58.02790803232806
 20
143.8019773531705
 30
0.0
 10
58.80302049654783
 20
143.8406188247782
 30
0.0
 10
59.32344968026752
 20
143.8538082433346
 30
0.0
 10
60.37158552105289
 20
143.8540469667927
 30
0.0
 10
60.90409385142664
 20
143.8406469640885
 30
0.0
 10
61.93178411359324
 20
143.7895829758933
 30
0.0
 10
62.43154829417497
 20
143.7521438411391
 30
0.0
 10
63.16004329419543
 20
143.6809803582207
 30
0.0
 10
63.39939428664092
 20
143.6547119000282
 30
0.0
 10
63.86063275812779
 20
143.5990304272759
 30
0.0
 10
64.08389941319504
 20
143.56949265534
 30
0.0
 10
64.51608701921712
 20
143.5078855103123
 30
0.0
 10
64.7250075994571
 20
143.4758145675911
 30
0.0
 10
65.12843252498081
 20
143.4099975906217
 30
0.0
 10
65.32391218495016
 20
143.3760673721585
 30
0.0
 10
65.8797703984864
 20
143.2746387445783
 30
0.0
 10
66.20932778511795
 20
143.2077197158882
 30
0.0
 10
66.78872328290392
 20
143.0826941535464
 30
0.0
 10
67.04024325434828
 20
143.0241173593123
 30
0.0
 10
67.44169775096184
 20
142.9272825076673
 30
0.0
 10
67.59418074650895
 20
142.8885275481082
 30
0.0
 10
67.74949169568418
 20
142.8486000176719
 30
0.0
 10
67.78900514309034
 20
142.8383082264214
 30
0.0
 10
67.84151849038611
 20
142.8245920138824
 30
0.0
 10
67.85469204164592
 20
142.8211238952534
 30
0.0
 10
67.85469204164592
 20
142.8211238952534
 30
0.0
  0
SPLINE
  5
295
330
1F
100
AcDbEntity
  8
0
  6
Continuous
 62
     7
370
    15
100
AcDbSpline
210
0.0
220
0.0
230
1.0
 70
     8
 71
     3
 72
    20
 73
    16
 74
     0
 42
0.00000001
 43
0.00000001
 40
0.0
 40
0.0
 40
0.0
 40
0.0
 40
0.2500000000000007
 40
0.2500000000000007
 40
0.3750000000000006
 40
0.3750000000000006
 40
0.5000000000000006
 40
0.5000000000000006
 40
0.6250000000000004
 40
0.6250000000000004
 40
0.7500000000000003
 40
0.7500000000000003
 40
0.8750000000000002
 40
0.8750000000000002
 40
1.0
 40
1.0
 40
1.0
 40
1.0
 10
35.39600237927849
 20
132.2039284220891
 30
0.0
 10
35.92665914711317
 20
132.8577908503866
 30
0.0
 10
36.4603871433747
 20
133.4615766323836
 30
0.0
 10
37.24335946136347
 20
134.2884153685523
 30
0.0
 10
37.50134306146013
 20
134.5508440065052
 30
0.0
 10
38.00573831786795
 20
135.0475066606101
 30
0.0
 10
38.24851674029593
 20
135.2780935396317
 30
0.0
 10
38.69919681980902
 20
135.6946477642143
 30
0.0
 10
38.90866068580029
 20
135.8821455661818
 30
0.0
 10
39.28694920238831
 20
136.2135425438182
 30
0.0
 10
39.45069688857281
 20
136.3530465313135
 30
0.0
 10
39.71888269077224
 20
136.5785000387844
 30
0.0
 10
39.82410709885899
 20
136.6651261503281
 30
0.0
 10
39.96816632417251
 20
136.7831069391822
 30
0.0
 10
40.00469204164589
 20
136.8126180844566
 30
0.0
 10
40.00469204164589
 20
136.8126180844565
 30
0.0
  0
ARC
  5
296
330
1F
100
AcDbEntity
  8
0
  6
Continuous
 62
     7
370
    15
100
AcDbCircle
 10
59.8546920416
 20
112.3539284221
 30
0.0
 40
31.50000000000004
100
AcDbArc
 50
268.180780706
 51
271.819219294
  0
CIRCLE
  5
297
330
1F
100
AcDbEntity
  8
VERMASSUNG
  6
CENTERX2
100
AcDbCircle
 10
59.8546920416
 20
110.3518317926
 30
0.0
 40
20.0
  0
DIMENSION
  5
298
330
1F
100
AcDbEntity
  8
VERMASSUNG
100
AcDbDimension
  2
*D6
 10
23.5187231275
 20
130.3518317926
 30
0.0
 11
23.5187231275
 21
110.3518317926
 31
0.0
 70
   160
  1
%%c<>
 71
     2
 42
-1.0
  3
SLDDIMSTYLE2
100
AcDbAlignedDimension
 13
59.8546920416
 23
90.3518317926
 33
0.0
 14
59.8546920416
 24
130.3518317926
 34
0.0
 50
90.0
100
AcDbRotatedDimension
  0
INSERT
  5
2AF
330
1F
100
AcDbEntity
  8
VERMASSUNG
100
AcDbBlockReference
  2
SW_CENTERMARKSYMBOL_0
 10
59.8546920416
 20
112.3539284221
 30
0.0
  0
OLE2FRAME
  5
2B0
330
1F
100
AcDbEntity
  8
0
100
AcDbOle2Frame
 70
     2
  3
Bitmap Image
 10
13.8511154363
 20
38.264191557
 30
0.0
 11
51.6290888628
 21
31.9806341108
 31
0.0
 71
     2
 72
     0
 73
     1
 90
    12928
310
80552BED0767C5B32B40DDAF6807D121434000000000000000006FFBDDFB85D0
310
4940DDAF6807D121434000000000000000006FFBDDFB85D04940416F4BD60AFB
310
3F4000000000000000002BED0767C5B32B40416F4BD60AFB3F40000000000000
310
0000000000000100000000010000010000000100000000000100000000320000
310
D0CF11E0A1B11AE1000000000000000000000000000000003E000300FEFF0900
310
0600000000000000000000000100000001000000000000000010000002000000
310
01000000FEFFFFFF0000000000000000FFFFFFFFFFFFFFFFFFFFFFFFFFFFFFFF
310
FFFFFFFFFFFFFFFFFFFFFFFFFFFFFFFFFFFFFFFFFFFFFFFFFFFFFFFFFFFFFFFF
310
FFFFFFFFFFFFFFFFFFFFFFFFFFFFFFFFFFFFFFFFFFFFFFFFFFFFFFFFFFFFFFFF
310
FFFFFFFFFFFFFFFFFFFFFFFFFFFFFFFFFFFFFFFFFFFFFFFFFFFFFFFFFFFFFFFF
310
FFFFFFFFFFFFFFFFFFFFFFFFFFFFFFFFFFFFFFFFFFFFFFFFFFFFFFFFFFFFFFFF
310
FFFFFFFFFFFFFFFFFFFFFFFFFFFFFFFFFFFFFFFFFFFFFFFFFFFFFFFFFFFFFFFF
310
FFFFFFFFFFFFFFFFFFFFFFFFFFFFFFFFFFFFFFFFFFFFFFFFFFFFFFFFFFFFFFFF
310
FFFFFFFFFFFFFFFFFFFFFFFFFFFFFFFFFFFFFFFFFFFFFFFFFFFFFFFFFFFFFFFF
310
FFFFFFFFFFFFFFFFFFFFFFFFFFFFFFFFFFFFFFFFFFFFFFFFFFFFFFFFFFFFFFFF
310
FFFFFFFFFFFFFFFFFFFFFFFFFFFFFFFFFFFFFFFFFFFFFFFFFFFFFFFFFFFFFFFF
310
FFFFFFFFFFFFFFFFFFFFFFFFFFFFFFFFFFFFFFFFFFFFFFFFFFFFFFFFFFFFFFFF
310
FFFFFFFFFFFFFFFFFFFFFFFFFFFFFFFFFFFFFFFFFFFFFFFFFFFFFFFFFFFFFFFF
310
FFFFFFFFFFFFFFFFFFFFFFFFFFFFFFFFFFFFFFFFFFFFFFFFFFFFFFFFFFFFFFFF
310
FFFFFFFFFFFFFFFFFFFFFFFFFFFFFFFFFFFFFFFFFFFFFFFFFFFFFFFFFFFFFFFF
310
FDFFFFFFFEFFFFFFFEFFFFFFFEFFFFFF05000000060000000700000008000000
310
090000000A0000000B0000000C0000000D0000000E0000000F00000010000000
310
11000000120000001300000014000000150000001600000017000000FEFFFFFF
310
FFFFFFFFFFFFFFFFFFFFFFFFFFFFFFFFFFFFFFFFFFFFFFFFFFFFFFFFFFFFFFFF
310
FFFFFFFFFFFFFFFFFFFFFFFFFFFFFFFFFFFFFFFFFFFFFFFFFFFFFFFFFFFFFFFF
310
FFFFFFFFFFFFFFFFFFFFFFFFFFFFFFFFFFFFFFFFFFFFFFFFFFFFFFFFFFFFFFFF
310
FFFFFFFFFFFFFFFFFFFFFFFFFFFFFFFFFFFFFFFFFFFFFFFFFFFFFFFFFFFFFFFF
310
FFFFFFFFFFFFFFFFFFFFFFFFFFFFFFFFFFFFFFFFFFFFFFFFFFFFFFFFFFFFFFFF
310
FFFFFFFFFFFFFFFFFFFFFFFFFFFFFFFFFFFFFFFFFFFFFFFFFFFFFFFFFFFFFFFF
310
FFFFFFFFFFFFFFFFFFFFFFFFFFFFFFFFFFFFFFFFFFFFFFFFFFFFFFFFFFFFFFFF
310
FFFFFFFFFFFFFFFFFFFFFFFFFFFFFFFFFFFFFFFFFFFFFFFFFFFFFFFFFFFFFFFF
310
FFFFFFFFFFFFFFFFFFFFFFFFFFFFFFFFFFFFFFFFFFFFFFFFFFFFFFFFFFFFFFFF
310
FFFFFFFFFFFFFFFFFFFFFFFFFFFFFFFFFFFFFFFFFFFFFFFFFFFFFFFFFFFFFFFF
310
FFFFFFFFFFFFFFFFFFFFFFFFFFFFFFFFFFFFFFFFFFFFFFFFFFFFFFFFFFFFFFFF
310
FFFFFFFFFFFFFFFFFFFFFFFFFFFFFFFFFFFFFFFFFFFFFFFFFFFFFFFFFFFFFFFF
310
FFFFFFFFFFFFFFFFFFFFFFFFFFFFFFFFFFFFFFFFFFFFFFFFFFFFFFFFFFFFFFFF
310
52006F006F007400200045006E00740072007900000000000000000000000000
310
0000000000000000000000000000000000000000000000000000000000000000
310
16000500FFFFFFFFFFFFFFFF020000000A00030000000000C000000000000046
310
00000000000000000000000050A5364B73D9CB0103000000C000000000000000
310
01004F006C006500000000000000000000000000000000000000000000000000
310
0000000000000000000000000000000000000000000000000000000000000000
310
0A000200FFFFFFFFFFFFFFFFFFFFFFFF00000000000000000000000000000000
310
0000000000000000000000000000000000000000000000001400000000000000
310
010043006F006D0070004F0062006A0000000000000000000000000000000000
310
0000000000000000000000000000000000000000000000000000000000000000
310
120002010100000003000000FFFFFFFF00000000000000000000000000000000
310
0000000000000000000000000000000000000000010000004D00000000000000
310
01004F006C006500310030004E00610074006900760065000000000000000000
310
0000000000000000000000000000000000000000000000000000000000000000
310
1A000200FFFFFFFFFFFFFFFFFFFFFFFF00000000000000000000000000000000
310
0000000000000000000000000000000000000000040000002426000000000000
310
FEFFFFFF02000000FEFFFFFFFFFFFFFFFFFFFFFFFFFFFFFFFFFFFFFFFFFFFFFF
310
FFFFFFFFFFFFFFFFFFFFFFFFFFFFFFFFFFFFFFFFFFFFFFFFFFFFFFFFFFFFFFFF
310
FFFFFFFFFFFFFFFFFFFFFFFFFFFFFFFFFFFFFFFFFFFFFFFFFFFFFFFFFFFFFFFF
310
FFFFFFFFFFFFFFFFFFFFFFFFFFFFFFFFFFFFFFFFFFFFFFFFFFFFFFFFFFFFFFFF
310
FFFFFFFFFFFFFFFFFFFFFFFFFFFFFFFFFFFFFFFFFFFFFFFFFFFFFFFFFFFFFFFF
310
FFFFFFFFFFFFFFFFFFFFFFFFFFFFFFFFFFFFFFFFFFFFFFFFFFFFFFFFFFFFFFFF
310
FFFFFFFFFFFFFFFFFFFFFFFFFFFFFFFFFFFFFFFFFFFFFFFFFFFFFFFFFFFFFFFF
310
FFFFFFFFFFFFFFFFFFFFFFFFFFFFFFFFFFFFFFFFFFFFFFFFFFFFFFFFFFFFFFFF
310
FFFFFFFFFFFFFFFFFFFFFFFFFFFFFFFFFFFFFFFFFFFFFFFFFFFFFFFFFFFFFFFF
310
FFFFFFFFFFFFFFFFFFFFFFFFFFFFFFFFFFFFFFFFFFFFFFFFFFFFFFFFFFFFFFFF
310
FFFFFFFFFFFFFFFFFFFFFFFFFFFFFFFFFFFFFFFFFFFFFFFFFFFFFFFFFFFFFFFF
310
FFFFFFFFFFFFFFFFFFFFFFFFFFFFFFFFFFFFFFFFFFFFFFFFFFFFFFFFFFFFFFFF
310
FFFFFFFFFFFFFFFFFFFFFFFFFFFFFFFFFFFFFFFFFFFFFFFFFFFFFFFFFFFFFFFF
310
FFFFFFFFFFFFFFFFFFFFFFFFFFFFFFFFFFFFFFFFFFFFFFFFFFFFFFFFFFFFFFFF
310
FFFFFFFFFFFFFFFFFFFFFFFFFFFFFFFFFFFFFFFFFFFFFFFFFFFFFFFFFFFFFFFF
310
FFFFFFFFFFFFFFFFFFFFFFFFFFFFFFFFFFFFFFFFFFFFFFFFFFFFFFFFFFFFFFFF
310
0100000200000000000000000000000000000000045B6F3EF503E23DAA3A6F3E
310
9337E23D1A38703E864FDD3D3A36703E7387DE3D2004703E7BB0DF3D3EA66F3E
310
0100FEFF030A0000FFFFFFFF0A00030000000000C00000000000004607000000
310
5042727573680007000000504272757368000700000050427275736800F439B2
310
71000000000000000000000000526C3ED189DB3D84C36C3E18A7DA3D45526D3E
310
8C0DDA3D79F26D3ECECAD93DE7956E3ECBE4D93D0E2E6F3E3359DA3D6DAD6F3E
310
B31DDB3D192B6F3EB1E6E23DF62F6F3E26DCE23D03346F3E3ECEE23D3D376F3E
310
05BDE23D9F396F3E89A8E23D293B6F3EDD90E23DD93B6F3E1676E23DAF3B6F3E
310
4A58E23DAA3A6F3E9337E23D6DAD6F3EB31DDB3DA2B76F3EF968DB3D4DCC6F3E
310
A1D7DB3D53E76F3EAD4BDC3D5507703E04C0DC3D912D703EBC33DD3D1A38703E
310
864FDD3DEB37F33DE041C13DEB37F33D7D15C03DEB37F33D9CF5BE3DEB37F33D
310
3AEEBD3DEB37F33D4E0ABD3DEB37F33D5553BC3DEB37F33DEFD0BB3DEB37F33D
310
8988BB3DEB37F33D267DBB3DEB37F33D137ABB3D26C6023EE041C13D26C6023E
310
7BF3BF3D26C6023EC3ACBE3D26C6023E3675BD3D26C6023EFB53BC3D26C6023E
310
B64FBB3D26C6023E5E6EBA3D26C6023E21B5B93D26C6023E3D28B93DEB37F33D
310
E178053EEB37F33D8F0B063EEB37F33DA698063EEB37F33DC51A073EEB37F33D
310
20260000424D0E260000000000003E00000028000000B40200006E0000000100
310
01000000000000000000130B0000130B00000200000002000000000000FFFFFF
310
FFFFFFFFFFFFFFFFFFFFFFFFFFFFFFFFFFFFFFFFFFFFFFFFFFFFFFFFFFFFFFFF
310
FFFFFFFFFFFFFFFFFFFFFFFFFFFFFFFFFFFFFFFFFFFFFFFFFFFFFFFFFFFFFFFF
310
FFFFFFFFFFFFFFFFFFFFFFFFFFFFFFFFFFFFFFFFFFFFFFFFF000FFFFFFFFFFFF
310
FFFFFFFFFFFFFFFFFFFFFFFFFFFFFFFFFFFFFFFFFFFFFFFFFFFFFFFFFFFFFFFF
310
FFFFFFFFFFFFFFFFFFFFFFFFFFFFFFFFFFFFFFFFFFFFFFFFFFFFFFFFFFFFFFFF
310
FFFFFFFFFFFFFFFFFFFFFFFFFFFFFFFFF000FFFFFFFFFFFFFFFFFFFFFFFFFFFF
310
FFFFFFFFFFFFFFFFFFFFFFFFFFFFFFFFFFFFFFFFFFFFFFFFFFFFFFFFFFFFFFFF
310
FFFFFFFFFFFFFFFFFFFFFFFFFFFFFFFFFFFFFFFFFFFFFFFFFFFFFFFFFFFFFFFF
310
FFFFFFFFFFFFFFFFF000FFFFFFFFFFFFFFFFFFFFFFFFFFFFFFFFFFFFFFFFFFFF
310
FFFFFFFFFFFFFFFFFFFFFFFFFFFFFFFFFFFFFFFFFFFFFFFFFFFFFFFFFFFFFFFF
310
FFFFFFFFFFFFFFFFFFFFFFFFFFFFFFFFFFFFFFFFFFFFFFFFFFFFFFFFFFFFFFFF
310
F000FFFFFFFFFFFFFFFFFFFFFFFFFFFFFFFFFFFFFFFFFFFFFFFFFFFFFFFFFFFF
310
FFFFFFFFFFFFFFFFFFFFFFFFFFFFFFFFFFFFFFFFFFFFFFFFFFFFFFFFFFFFFFFF
310
FFFFFFFFFFFFFFFFFFFFFFFFFFFFFFFFFFFFFFFFFFFFFFFFF000FFFFFFFFFFFF
310
FFFFFFFFFFFFFFFFFFFFFFFFFFFFFFFFFFFFFFFFFFFFFFFFFFFFFFFFFFFFFFFF
310
FFFFFFFFFFFFFFFFFFFFFFFFFFFFFFFFFFFFFFFFFFFFFFFFFFFFFFFFFFFFFFFF
310
FFFFFFFFFFFFFFFFFFFFFFFFFFFFFFFFF000FFFFFFFFFFFFFFFFFFFFFFFFFFFF
310
FFFFFFFFFFFFFFFFFFFFFFFFFFFFFFFFFFFFFFFFFFFFFFFFFFFFFFFFFFFFFFFF
310
FFFFFFFFFFFFFFFFFFFFFFFFFFFFFFFFFFFFFFFFFFFFFFFFFFFFFFFFFFFFFFFF
310
FFFFFFFFFFFFFFFFF000FFFFFFFFFFFFFFFFFFFFFFFFFFFFFFFFFFFFFFFFFFFF
310
FFFFFFFFFFFFFFFFFFFFFFFFFFFFFFFFFFFFFFFFFFFFFFFFFFFFFFFFFFFFFFFF
310
FFFFFFFFFFFFFFFFFFFFFFFFFFFFFFFFFFFFFFFFFFFFFFFFFFFFFFFFFFFFFFFF
310
F000FFFFFFFFFFFFFFFFFFFFFFFFFFFFFFFFFFFFFFFFFFFFFFFFFFFFFFFFFFFF
310
FFFFFFFFFFFFFFFFFFFFFFFFFFFFFFFFFFFFFFFFFFFFFFFFFFFFFFFFFFFFFFFF
310
FFFFFFFFFFFFFFFFFFFFFFFFFFFFFFFFFFFFFFFFFFFFFFFFF000FFFFFFFFFFFF
310
FFFFFFFFFFFFFFFFFFFFFFFFFFFFFFFFFFFFFFFFFFFFFFFFFFFFFFFFFFFFFFFF
310
FFFFFFFFFFFFFFFFFFFFFFFFFFFFFFFFFFFFFFFFFFFFFFFFFFFFFFFFFFFFFFFF
310
FFFFFFFFFFFFFFFFFFFFFFFFFFFFFFFFF000FFFFFFFFFFFFFFFFFFFFFFFFFFFF
310
FFFFFFFFFFFFFFFFFFFFFFFFFFFFFFFFFFFFFFFFFFFFFFFFFFFFFFFFFFFFFFFF
310
FFFFFFFFFFFFFFFFFFFFFFFFFFFFFFFFFFFFFFFFFFFFFFFFFFFFFFFFFFFFFFFF
310
FFFFFFFFFFFFFFFFF000FFFFFFFFFFFFFFFFFFFFFFFFFFFFFFFFFFFFFFFFFFFF
310
FFFFFFFFFFFFFFFFFFFFFFFFFFFFFFFFFFFFFFFFFFFFFFFFFFFFFFFFFFFFFFFF
310
FFFFFFFFFFFFFFFFFFFFFFFFFFFFFFFFFFFFFFFFFFFFFFFFFFFFFFFFFFFFFFFF
310
F000FFFFFFFFFFFFFFFFFFFFFFFFFFFFFFFFFFFFFFFFFFFFFFFFFFFFFFFFFFFF
310
FFFFFFFFFFFFFFFFFFFFFFFFFFFFFFFFFFFFFFFFFFFFFFFFFFFFFFFFFFFFFFFF
310
FFFFFFFFFFFFFFFFFFFFFFFFFFFFFFFFFFFFFFFFFFFFFFFFF000FFFFFFFFFFFF
310
FFFFFFFFFFFFFFFFFFFFFFFFFFFFFFFFFFFFFFFFFFFFFFFFFFFFFFFFFFFFFFFF
310
FFFFFFFFFFFFFFFFFFFFFFFFFFFFFFFFFFFFFFFFFFFFFFFFFFFFFFFFFFFFFFFF
310
FFFFFFFFFFFFFFFFFFFFFFFFFFFFFFFFF000FFFFFFFFFFFFFFFFFFFFFFFFFFFF
310
FFFFFFFFFFFFFFFFFFFFFFFFFFFFFFFFFFFFFFFFFFFFFFFFFFFFFFFFFFFFFFFF
310
FFFFFFFFFFFFFFFFFFFFFFFFFFFFFFFFFFFFFFFFFFFFFFFFFFFFFFFFFFFFFFFF
310
FFFFFFFFFFFFFFFFF000FFFFFFFFFFFFFFFFFFFFFFFFFFFFFFFFFFFFFFFFFFFF
310
FFFFFFFFFFFFFFFFFFFFFFFFFFFFFFFFFFFFFFFFFFFFFFFFFFFFFFFFFFFFFFFF
310
FFFFFFFFFFFFFFFFFFFFFFFFFFFFFFFFFFFFFFFFFFFFFFFFFFFFFFFFFFFFFFFF
310
F000FFFFFFFFFFFFFFFFFFFFFFFFFFFFFFFFFFFFFFFFFFFFFFFFFFFFFFFFFFFF
310
FFFFFFFFFFFFFFFFFFFFFFFFFFFFFFFFFFFFFFFFFFFFFFFFFFFFFFFFFFFFFFFF
310
FFFFFFFFFFFFFFFFFFFFFFFFFFFFFFFFFFFFFFFFFFFFFFFFF000FFFFFFFFFFFF
310
FFFFFFFFFFFFFFFFFFFFFFFFFFFFFFFFFFFFFFFFFFFFFFFFFFFFFFFFFFFFFFFF
310
FFFFFFFFFFFFFFFFFFFFFFFFFFFFFFFFFFFFFFFFFFFFFFFFFFFFFFFFFFFFFFFF
310
FFFFFFFFFFFFFFFFFFFFFFFFFFFFFFFFF000FFFFFFFFFFFFFFFFFFFFFFFFFFFF
310
FFFFFFFFFFFFFFFFFFFFFFFFFFFFFFFFFFFFFFFFFFFFFFFFFFFFFFFFFFFFFFFF
310
FFFFFFFFFFFFFFFFFFFFFFFFFFFFFFFFFFFFFFFFFFFFFFFFFFFFFFFFFFFFFFFF
310
FFFFFFFFFFFFFFFFF000FFFFF80003FFFFFFFFFFFFFFFFFFFFFFFFFFFFFFFFFF
310
FFFFF00007FFFFFFFFFF00007FFFFFF800000000000000007FFFFFFFFFFFFFFF
310
FFFFFFFC001FFFFFFFFFFFFFFC001FFFFFFFFFFFFFFFFFFFFFFFFFFE0007FFFF
310
F000FFFF8000007FFFFFFFF8000FFFFFC0007FFFFF80007FFFFF0000007FFFFF
310
FFF8000007FFFFF800000000000000007FFFFFF0001FFFFFFFFFFFC00001FFFF
310
FFFFFFFFC00001FFFFFFFF000000000003FFFFE000007FFFF000FFFE0000000F
310
FFFFFFF0000FFFFF80007FFFFF80007FFFFC0000001FFFFFFFC0000001FFFFF8
310
00000000000000007FFFFFF0001FFFFFFFFFFE0000003FFFFFFFFFFE0000003F
310
FFFFFF000000000003FFFF0000000FFFF000FFF800000003FFFFFFF00007FFFF
310
80007FFFFF80007FFFF000000007FFFFFF000000003FFFF80000000000000000
310
7FFFFFF0001FFFFFFFFFF80000000FFFFFFFFFF80000000FFFFFFF0000000000
310
03FFFC00000003FFF000FFE000000000FFFFFFF00007FFFF80003FFFFF80007F
310
FFC000000001FFFFFC000000001FFFF800000000000000007FFFFFF0001FFFFF
310
FFFFE000000003FFFFFFFFE000000003FFFFFF000000000003FFF000000000FF
310
F000FF80000000007FFFFFF00007FFFF80003FFFFF80007FFF8000000000FFFF
310
F80000000007FFF800000000000000007FFFFFF0001FFFFFFFFFC000000001FF
310
FFFFFFC000000001FFFFFF000000000003FFC0000000007FF000FF0000000000
310
3FFFFFE00007FFFF00003FFFFF80007FFE00000000003FFFF00000000003FFF8
310
00000000000000007FFFFFF0001FFFFFFFFF8000000000FFFFFFFF8000000000
310
FFFFFF000000000003FF80000000003FF000FE00000000001FFFFFE00003FFFF
310
00003FFFFF80007FFC00000000001FFFE00000000001FFF8000001FFFE000000
310
7FFFFFF0001FFFFFFFFE00000000003FFFFFFE00000000003FFFFF0000000000
310
03FF00000000001FF000FC00000000000FFFFFE00003FFFF00001FFFFF80007F
310
F800000000001FFFC00000000000FFF8000001FFFE0000007FFFFFF0001FFFFF
310
FFFC00000000001FFFFFFC00000000001FFFFF000000000003FE00000000000F
310
F000F8000000000007FFFFE00003FFFF00001FFFFF80007FF800000000000FFF
310
800000000000FFF8000001FFFE0000007FFFFFF0001FFFFFFFF800000000000F
310
FFFFF800000000000FFFFF000000000003FC000000000007F000F80000000000
310
03FFFFC00003FFFE00001FFFFF80007FF0000000000007FF0000000000007FF8
310
000001FFFE0000007FFFFFF0001FFFFFFFF0000000000007FFFFF00000000000
310
07FFFF000000000003F8000000000003F000F0000000000003FFFFC00001FFFE
310
00001FFFFF80007FE0000000000007FE0000000000003FF8000001FFFE000000
310
7FFFFFF0001FFFFFFFF0000000000007FFFFF0000000000007FFFF0000000000
310
03F800001F800003F000E00001FFF00001FFFFC00001FFFE00000FFFFF80007F
310
E00001FFE00003FE00001FFF00003FF8000001FFFE0000007FFFFFF0001FFFFF
310
FFE000003E000003FFFFE000003E000003FFFF000000000003F00001FFF80001
310
F000E00007FFFC0001FFFFC00001FFFE00000FFFFF80007FC0000FFFFC0003FC
310
0000FFFFC0001FF8000001FFFE0000007FFFFFF0001FFFFFFFC00003FFE00001
310
FFFFC00003FFE00001FFFF0001FFFFFFFFF00007FFFE0001F000E0000FFFFF00
310
00FFFF800001FFFC00000FFFFF80007FC0001FFFFE0001FC0001FFFFE0001FF8
310
000001FFFE0000007FFFFFF0001FFFFFFF80000FFFF80000FFFF80000FFFF800
310
00FFFF0003FFFFFFFFE0000FFFFF8000F000C0003FFFFF8000FFFF800000FFFC
310
000007FFFF80007F80003FFFFF0001FC0003FFFFF0001FF8000001FFFE000000
310
7FFFFFF0001FFFFFFF80003FFFFE0000FFFF80003FFFFE0000FFFF0003FFFFFF
310
FFE0003FFFFF8000F000C0003FFFFF8000FFFF800000FFFC000007FFFF80007F
310
80007FFFFF8001F80007FFFFF8000FF8000001FFFE0000007FFFFFF0001FFFFF
310
FF00007FFFFF00007FFF00007FFFFF00007FFF0003FFFFFFFFE0003FFFFFC000
310
F000C0007FFFFFC000FFFF000000FFFC000007FFFF80007F8000FFFFFF8000F8
310
000FFFFFF8000FF8000001FFFE0000007FFFFFF0001FFFFFFF0000FFFFFF8000
310
7FFF0000FFFFFF80007FFF0003FFFFFFFFC0007FFFFFC00070008000FFFFFFC0
310
00FFFF000000FFF8000007FFFF80007F8000FFFFFF8000F8000FFFFFF8000FF8
310
000001FFFE0000007FFFFFF0001FFFFFFE0001FFFFFFC0003FFE0001FFFFFFC0
310
003FFF0003FFFFFFFFC0007FFFFFE00070008000FFFFFFC0007FFF0000007FF8
310
000003FFFF80007F0001FFFFFF8000F8000FFFFFF8000FF8000001FFFE000000
310
7FFFFFF0001FFFFFFE0001FFFFFFC0003FFE0001FFFFFFC0003FFF0003FFFFFF
310
FFC000FFFFFFE00070008000FFFFFFC0007FFF0000007FF8000003FFFF80007F
310
0001FFFFFF8000F8001FFFFFF8000FF8000001FFFE0000007FFFFFF0001FFFFF
310
FE0003FFFFFFE0003FFE0003FFFFFFE0003FFF0003FFFFFFFFC000FFFFFFE000
310
70008000FFFFFFC0007FFE0000007FF8000003FFFF80007F0001FFFFFF8000F0
310
001FFFFFF8000FF8000001FFFE0000007FFFFFF0001FFFFFFC0003FFFFFFE000
310
1FFC0003FFFFFFE0001FFF0003FFFFFFFFC000FFFFFFC00070008000FFFFFF80
310
007FFE0000007FF0000003FFFF80007F0001FFFFFF0000F0001FFFFFF8000FF8
310
000001FFFE0000007FFFFFF0001FFFFFFC0007FFFFFFF0001FFC0007FFFFFFF0
310
001FFF0003FFFFFFFFC000FFFFFFC00070008001FFFFFF0000FFFE0000003FF0
310
000001FFFF80007F0001FFFFFF0000F8001FFFFFF0000FF8000001FFFE000000
310
7FFFFFF0001FFFFFFC0007FFFFFFF0001FFC0007FFFFFFF0001FFF0003FFFFFF
310
FFC001FFFFFF80007000FFFFFFFFFE0000FFFE0008003FF0008001FFFF80007F
310
FFFFFFFFFC0000FFFFFFFFFFE0000FF8000001FFFE0000007FFFFFF0001FFFFF
310
F8000FFFFFFFF8000FF8000FFFFFFFF8000FFF0003FFFFFFFFFFFFFFFFFF0000
310
7000FFFFFFFFFC0000FFFC0008003FF0008001FFFF80007FFFFFFFFFF80001FF
310
FFFFFFFF80000FF8000001FFFE0000007FFFFFF0001FFFFFF8000FFFFFFFF800
310
0FF8000FFFFFFFF8000FFF0003FFFFFFFFFFFFFFFFFE0000F000FFFFFFFFE000
310
00FFFC000C003FE000C001FFFF80007FFFFFFFFFC00001FFFFFFFFFE00001FF8
310
000001FFFE0000007FFFFFF0001FFFFFF8000FFFFFFFF8000FF8000FFFFFFFF8
310
000FFF0003FFFFFFFFFFFFFFFFF00000F000FFFFFFFE000001FFFC000C001FE0
310
00C000FFFF80007FFFFFFFFE000001FFFFFFFFE000001FF80FFFFFFFFFFFFFC0
310
7FFFFFF0001FFFFFF8000FFFFFFFF8000FF8000FFFFFFFF8000FFF0003FFFFFF
310
FFFFFFFFFF800000F000FFFFFFC0000001FFFC001C001FE001C000FFFF80007F
310
FFFFFF80000003FFFFFFF80000001FF80FFFFFFFFFFFFFC07FFFFFF0001FFFFF
310
F8001FFFFFFFFC000FF8001FFFFFFFFC000FFF0003FFFFFFFFFFFFFFF0000001
310
F000FFFFF800000001FFF8001C001FE001C000FFFF80007FFFFFF800000003FF
310
FFFF800000003FF80FFFFFFFFFFFFFC07FFFFFF0001FFFFFF8001FFFFFFFFC00
310
0FF8001FFFFFFFFC000FFF0003FFFFFFFFFFFFFE00000001F000FFFFC0000000
310
03FFF8001E001FC001E000FFFF80007FFFFF8000000007FFFFFC000000003FF8
310
0FFFFFFFFFFFFFC07FFFFFF0001FFFFFF8001FFFFFFFFC000FF8001FFFFFFFFC
310
000FFF0003FFFFFFFFFFFFE000000003F000FFFE0000000007FFF8001E000FC0
310
01E0007FFF80007FFFFE0000000007FFFFE0000000007FF80FFFFFFFFFFFFFC0
310
7FFFFFF0001FFFFFF0001FFFFFFFFC0007F0001FFFFFFFFC0007FF0003FFFFFF
310
FFFFFF0000000003F000FFF80000000007FFF8001E000FC003E0007FFF80007F
310
FFF0000000000FFFFF8000000000FFF80FFFFFFFFFFFFFC07FFFFFF0001FFFFF
310
F0001FFFFFFFFC0007F0001FFFFFFFFC0007FF0003FFFFFFFFFFFC0000000007
310
F000FFE0000000000FFFF0003E000FC003E0007FFF80007FFFC0000000001FFF
310
FE0000000001FFF80FFFFFFFFFFFFFC07FFFFFF0001FFFFFF0001FFFFFFFFC00
310
07F0001FFFFFFFFC0007FF0003FFFFFFFFFFF0000000000FF000FFC000000000
310
1FFFF0003F000F8003F0003FFF80007FFF80000000003FFFF80000000003FFF8
310
0FFFFFFFFFFFFFC07FFFFFF0001FFFFFF0001FFFFFFFFC0007F0001FFFFFFFFC
310
0007FF0003FFFFFFFFFFE0000000001FF000FF00000000007FFFF0003F000780
310
03F0003FFF80007FFF00000000007FFFF00000000007FFF80FFFFFFFFFFFFFC0
310
7FFFFFF0001FFFFFF0001FFFFFFFFC0007F0001FFFFFFFFC0007FF0003FFFFFF
310
FFFF80000000007FF000FE0000000000FFFFE0003F00078007F0003FFF80007F
310
FE0000000001FFFFE0000000001FFFF80FFFFFFFFFFFFFC07FFFFFF0001FFFFF
310
F0001FFFFFFFFC0007F0001FFFFFFFFC0007FF0003FFFFFFFFFF0000000000FF
310
F000FC0000000003FFFFE0007F00078007F0003FFF80007FFC0000000007FFFF
310
C0000000007FFFF80FFFFFFFFFFFFFC07FFFFFF0001FFFFFF8001FFFFFFFFC00
310
0FF8001FFFFFFFFC000FFF0003FFFFFFFFFE0000000003FFF000FC000000000F
310
FFFFE0007F80070007F8001FFF80007FF8000000001FFFFF8000000001FFFFF8
310
0FFFFFFFFFFFFFC07FFFFFF0001FFFFFF8001FFFFFFFFC000FF8001FFFFFFFFC
310
000FFF0003FFFFFFFFFC000000000FFFF000F8000000007FFFFFE0007F800700
310
07F8001FFF80007FF000000000FFFFFF800000000FFFFFF80FFFFFFFFFFFFFC0
310
7FFFFFF0001FFFFFF8000FFFFFFFF8000FF8000FFFFFFFF8000FFF0003FFFFFF
310
FFFC000000007FFFF000F800000007FFFFFFC0007F8003000FF8001FFF80007F
310
F000000007FFFFFF000000007FFFFFF80FFFFFFFFFFFFFC07FFFFFF0001FFFFF
310
F8000FFFFFFFF8000FF8000FFFFFFFF8000FFF0003FFFFFFFFF80000000FFFFF
310
F000F0000000FFFFFFFFC000FF8003000FF8001FFF80007FE0000000FFFFFFFF
310
0000000FFFFFFFF8000001FFFE0000007FFFFFF0001FFFFFF8000FFFFFFFF800
310
0FF8000FFFFFFFF8000FFF0003FFFFFFFFF8000000FFFFFFF000F000000FFFFF
310
FFFFC000FFC002000FF8000FFF80007FE000001FFFFFFFFE000001FFFFFFFFF8
310
000001FFFE0000007FFFFFF0001FFFFFF8000FFFFFFFF8000FF8000FFFFFFFF8
310
000FFF0003FFFFFFFFF000001FFFFFFFF000E00000FFFFFFFFFFC000FFC00200
310
0FFC000FFF80007FE00001FFFFFFFFFE00001FFFFFFFFFF8000001FFFE000000
310
7FFFFFF0001FFFFFFC000FFFFFFFF8001FFC000FFFFFFFF8001FFF0003FFFFFF
310
FFF00001FFFFFFFFF000E00007FFFFFFFFFF8000FFC000001FFC000FFF80007F
310
C0000FFFFFFFFFFE0000FFFFFFFFFFF8000001FFFE0000007FFFFFF0001FFFFF
310
FC0007FFFFFFF0001FFC0007FFFFFFF0001FFF0003FFFFFFFFF00007FFFFFFFF
310
F000E0001FFFFFFFFFFF8000FFC000001FFC000FFF80007FC0003FFFFFFFFFFE
310
0001FFFFFFFFFFF8000001FFFE0000007FFFFFF0001FFFFFFC0007FFFFFFF000
310
1FFC0007FFFFFFF0001FFF0003FFFFFFFFF0001FFFFFFFFFF000E0003FFFFF00
310
03FF8001FFE000001FFC0007FF80007FC0007FFFFF0007FC0003FFFFF0003FF8
310
000001FFFE0000007FFFFFF0001FFFFFFC0003FFFFFFE0001FFC0003FFFFFFE0
310
001FFF0003FFFFFFFFF0003FFFFFFFFFF000E0003FFFFF0001FF8001FFE00000
310
1FFE0007FF80007FC0007FFFFE0003FC0007FFFFE0003FF8000001FFFE000000
310
7FFFFFF0001FFFFFFE0003FFFFFFE0003FFE0003FFFFFFE0003FFF0003FFFFFF
310
FFF0003FFFFF8001F000E0003FFFFF0001FF0001FFE000001FFE0007FF80007F
310
C0007FFFFE0003FC0007FFFFE0003FF8000001FFFE0000007FFFFFF0001FFFFF
310
FE0001FFFFFFC0003FFE0001FFFFFFC0003FFF0003FFFFFFFFF0003FFFFF0001
310
F000E0003FFFFF0003FF0001FFE000003FFE0007FF80007FC0007FFFFE0003FC
310
0007FFFFE0003FF8000001FFFE0000007FFFFFF0001FFFFFFF0001FFFFFFC000
310
7FFF0001FFFFFFC0007FFF0003FFFFFFFFF0003FFFFF0001F000E0003FFFFE00
310
03FF0003FFF000003FFE0003FF80007FC0007FFFFC0003FE0007FFFFE0003FF8
310
000001FFFE0000007FFFFFF0001FFFFFFF0000FFFFFF80007FFF0000FFFFFF80
310
007FFF0003FFFFFFFFF0003FFFFF0001F000E0003FFFFE0003FF0003FFF00000
310
3FFF0003FF80007FC0007FFFFC0007FE0007FFFFC0003FF8000001FFFE000000
310
7FFFFFF0001FFFFFFF80007FFFFF0000FFFF80007FFFFF0000FFFF0003FFFFFF
310
FFF0003FFFFF0003F000E0003FFFFC0003FE0003FFF000003FFF0003FF80007F
310
E0003FFFF80007FE0003FFFFC0007FF8000001FFFE0000007FFFFFF0001FFFFF
310
FF80003FFFFE0000FFFF80003FFFFE0000FFFF0003FFFFFFFFF0001FFFFE0003
310
F000F0001FFFF80003FE0003FFF000007FFF0001FF80007FE0003FFFF00007FE
310
0001FFFF80007FF8000001FFFE0000007FFFFFF0001FFFFFFFC0000FFFF80001
310
FFFFC0000FFFF80001FFFF0003FFFFFFFFF0001FFFFC0003F000F0000FFFF000
310
07FE0007FFF800007FFF0001FF80007FE0001FFFE00007FF0000FFFE00007FF8
310
000001FFFE0000007FFFFFF0001FFFFFFFC00003FFE00001FFFFC00003FFE000
310
01FFFF0003FFFFFFFFF8000FFFF80003F000F00003FFC00007FC0007FFF80000
310
7FFF8001FF80007FF00007FF80000FFF00007FF80000FFF8000001FFFE000000
310
7F80000000000001FFE000003E000003FFFFE000003E000003FFFF0003FFFFFF
310
FFF80003FFE00007F000F800000000000FFC0007FFF800007FFF8001FF80007F
310
F000000000000FFF000000000000FFF8000001FFFE0000007F80000000000001
310
FFF0000000000007FFFFF0000000000007FFFF0003FFFFFFFFFC00007E000007
310
F000F800000000000FFC0007FFF80000FFFF8000FF80007FF800000000001FFF
310
800000000001FFF8000001FFFE0000007F80000000000001FFF800000000000F
310
FFFFF800000000000FFFFF0003FFFFFFFFFC00000000000FF000FC0000000000
310
1FFC0007FFFC0000FFFF8000FF80007FF800000000003FFFC00000000001FFF8
310
000001FFFE0000007F80000000000001FFF800000000000FFFFFF80000000000
310
0FFFFF0003FFFFFFFFFE00000000001FF000FE00000000003FF8000FFFFC0000
310
FFFF8000FF80007FFC00000000003FFFC00000000003FFF8000001FFFE000000
310
7F80000000000001FFFC00000000001FFFFFFC00000000001FFFFF0003FFFFFF
310
FFFF00000000001FF000FF00000000003FF8000FFFFC0000FFFFC000FF80007F
310
FE00000000007FFFE00000000007FFF8000001FFFE0000007F80000000000001
310
FFFE00000000003FFFFFFE00000000003FFFFF0003FFFFFFFFFF80000000003F
310
F000FF80000000007FF8000FFFFC0001FFFFC0007F80007FFF0000000000FFFF
310
F0000000000FFFF800000000000000007F80000000000001FFFF8000000000FF
310
FFFFFF8000000000FFFFFF0003FFFFFFFFFFC0000000007FF000FFC000000000
310
FFF8000FFFFE0001FFFFC0007F80007FFF8000000001FFFFF8000000001FFFF8
310
00000000000000007F80000000000001FFFFC000000001FFFFFFFFC000000001
310
FFFFFF0003FFFFFFFFFFE000000000FFF000FFE000000003FFF0001FFFFE0001
310
FFFFC0007F80007FFFC000000007FFFFFE000000003FFFF80000000000000000
310
7F80000000000001FFFFE000000003FFFFFFFFE000000003FFFFFF0003FFFFFF
310
FFFFF000000003FFF000FFF80000000FFFF0001FFFFE0001FFFFE0007F80007F
310
FFF00000000FFFFFFF00000000FFFFF800000000000000007F80000000000001
310
FFFFF80000000FFFFFFFFFF80000000FFFFFFF0003FFFFFFFFFFFC0000000FFF
310
F000FFFE0000003FFFF0001FFFFE0003FFFFE0003F80007FFFFC0000003FFFFF
310
FFC0000003FFFFF800000000000000007F80000000000001FFFFFE0000003FFF
310
FFFFFFFE0000003FFFFFFF0003FFFFFFFFFFFF0000003FFFF000FFFF800000FF
310
FFF0001FFFFF0003FFFFE0003F80007FFFFF000001FFFFFFFFF800001FFFFFF8
310
00000000000000007F80000000000001FFFFFFC00001FFFFFFFFFFFFC00001FF
310
FFFFFF0003FFFFFFFFFFFFC00000FFFFF000FFFFF8000FFFFFFFFFFFFFFFFFFF
310
FFFFFFFFFFFFFFFFFFFFF0001FFFFFFFFFFF0000FFFFFFF80000000000000000
310
7FFFFFFFFFFFFFFFFFFFFFFC001FFFFFFFFFFFFFFC001FFFFFFFFFFFFFFFFFFF
310
FFFFFFFC001FFFFFF000FFFFFFFFFFFFFFFFFFFFFFFFFFFFFFFFFFFFFFFFFFFF
310
FFFFFFFFFFFFFFFFFFFFFFFFFFFFFFFFFFFFFFFFFFFFFFFFFFFFFFFFFFFFFFFF
310
FFFFFFFFFFFFFFFFFFFFFFFFFFFFFFFFFFFFFFFFFFFFFFFFFFFFFFFFFFFFFFFF
310
F000FFFFFFFFFFFFFFFFFFFFFFFFFFFFFFFFFFFFFFFFFFFFFFFFFFFFFFFFFFFF
310
FFFFFFFFFFFFFFFFFFFFFFFFFFFFFFFFFFFFFFFFFFFFFFFFFFFFFFFFFFFFFFFF
310
FFFFFFFFFFFFFFFFFFFFFFFFFFFFFFFFFFFFFFFFFFFFFFFFF000FFFFFFFFFFFF
310
FFFFFFFFFFFFFFFFFFFFFFFFFFFFFFFFFFFFFFFFFFFFFFFFFFFFFFFFFFFFFFFF
310
FFFFFFFFFFFFFFFFFFFFFFFFFFFFFFFFFFFFFFFFFFFFFFFFFFFFFFFFFFFFFFFF
310
FFFFFFFFFFFFFFFFFFFFFFFFFFFFFFFFF000FFFFFFFFFFFFFFFFFFFFFFFFFFFF
310
FFFFFFFFFFFFFFFFFFFFFFFFFFFFFFFFFFFFFFFFFFFFFFFFFFFFFFFFFFFFFFFF
310
FFFFFFFFFFFFFFFFFFFFFFFFFFFFFFFFFFFFFFFFFFFFFFFFFFFFFFFFFFFFFFFF
310
FFFFFFFFFFFFFFFFF000FFFFFFFFFFFFFFFFFFFFFFFFFFFFFFFFFFFFFFFFFFFF
310
FFFFFFFFFFFFFFFFFFFFFFFFFFFFFFFFFFFFFFFFFFFFFFFFFFFFFFFFFFFFFFFF
310
FFFFFFFFFFFFFFFFFFFFFFFFFFFFFFFFFFFFFFFFFFFFFFFFFFFFFFFFFFFFFFFF
310
F000FFFFFFFFFFFFFFFFFFFFFFFFFFFFFFFFFFFFFFFFFFFFFFFFFFFFFFFFFFFF
310
FFFFFFFFFFFFFFFFFFFFFFFFFFFFFFFFFFFFFFFFFFFFFFFFFFFFFFFFFFFFFFFF
310
FFFFFFFFFFFFFFFFFFFFFFFFFFFFFFFFFFFFFFFFFFFFFFFFF000FFFFFFFFFFFF
310
FFFFFFFFFFFFFFFFFFFFFFFFFFFFFFFFFFFFFFFFFFFFFFFFFFFFFFFFFFFFFFFF
310
FFFFFFFFFFFFFFFFFFFFFFFFFFFFFFFFFFFFFFFFFFFFFFFFFFFFFFFFFFFFFFFF
310
FFFFFFFFFFFFFFFFFFFFFFFFFFFFFFFFF000FFFFFFFFFFFFFFFFFFFFFFFFFFFF
310
FFFFFFFFFFFFFFFFFFFFFFFFFFFFFFFFFFFFFFFFFFFFFFFFFFFFFFFFFFFFFFFF
310
FFFFFFFFFFFFFFFFFFFFFFFFFFFFFFFFFFFFFFFFFFFFFFFFFFFFFFFFFFFFFFFF
310
FFFFFFFFFFFFFFFFF000FFFFFFFFFFFFFFFFFFFFFFFFFFFFFFFFFFFFFFFFFFFF
310
FFFFFFFFFFFFFFFFFFFFFFFFFFFFFFFFFFFFFFFFFFFFFFFFFFFFFFFFFFFFFFFF
310
FFFFFFFFFFFFFFFFFFFFFFFFFFFFFFFFFFFFFFFFFFFFFFFFFFFFFFFFFFFFFFFF
310
F000FFFFFFFFFFFFFFFFFFFFFFFFFFFFFFFFFFFFFFFFFFFFFFFFFFFFFFFFFFFF
310
FFFFFFFFFFFFFFFFFFFFFFFFFFFFFFFFFFFFFFFFFFFFFFFFFFFFFFFFFFFFFFFF
310
FFFFFFFFFFFFFFFFFFFFFFFFFFFFFFFFFFFFFFFFFFFFFFFFF000FFFFFFFFFFFF
310
FFFFFFFFFFFFFFFFFFFFFFFFFFFFFFFFFFFFFFFFFFFFFFFFFFFFFFFFFFFFFFFF
310
FFFFFFFFFFFFFFFFFFFFFFFFFFFFFFFFFFFFFFFFFFFFFFFFFFFFFFFFFFFFFFFF
310
FFFFFFFFFFFFFFFFFFFFFFFFFFFFFFFFF000FFFFFFFFFFFFFFFFFFFFFFFFFFFF
310
FFFFFFFFFFFFFFFFFFFFFFFFFFFFFFFFFFFFFFFFFFFFFFFFFFFFFFFFFFFFFFFF
310
FFFFFFFFFFFFFFFFFFFFFFFFFFFFFFFFFFFFFFFFFFFFFFFFFFFFFFFFFFFFFFFF
310
FFFFFFFFFFFFFFFFF000FFFFFFFFFFFFFFFFFFFFFFFFFFFFFFFFFFFFFFFFFFFF
310
FFFFFFFFFFFFFFFFFFFFFFFFFFFFFFFFFFFFFFFFFFFFFFFFFFFFFFFFFFFFFFFF
310
FFFFFFFFFFFFFFFFFFFFFFFFFFFFFFFFFFFFFFFFFFFFFFFFFFFFFFFFFFFFFFFF
310
F000FFFFFFFFFFFFFFFFFFFFFFFFFFFFFFFFFFFFFFFFFFFFFFFFFFFFFFFFFFFF
310
FFFFFFFFFFFFFFFFFFFFFFFFFFFFFFFFFFFFFFFFFFFFFFFFFFFFFFFFFFFFFFFF
310
FFFFFFFFFFFFFFFFFFFFFFFFFFFFFFFFFFFFFFFFFFFFFFFFF000FFFFFFFFFFFF
310
FFFFFFFFFFFFFFFFFFFFFFFFFFFFFFFFFFFFFFFFFFFFFFFFFFFFFFFFFFFFFFFF
310
FFFFFFFFFFFFFFFFFFFFFFFFFFFFFFFFFFFFFFFFFFFFFFFFFFFFFFFFFFFFFFFF
310
FFFFFFFFFFFFFFFFFFFFFFFFFFFFFFFFF000FFFFFFFFFFFFFFFFFFFFFFFFFFFF
310
FFFFFFFFFFFFFFFFFFFFFFFFFFFFFFFFFFFFFFFFFFFFFFFFFFFFFFFFFFFFFFFF
310
FFFFFFFFFFFFFFFFFFFFFFFFFFFFFFFFFFFFFFFFFFFFFFFFFFFFFFFFFFFFFFFF
310
FFFFFFFFFFFFFFFFF000FFFFFFFFFFFFFFFFFFFFFFFFFFFFFFFFFFFFFFFFFFFF
310
FFFFFFFFFFFFFFFFFFFFFFFFFFFFFFFFFFFFFFFFFFFFFFFFFFFFFFFFFFFFFFFF
310
FFFFFFFFFFFFFFFFFFFFFFFFFFFFFFFFFFFFFFFFFFFFFFFFFFFFFFFFFFFFFFFF
310
F000FFFFFFFFFFFFFFFFFFFFFFFFFFFFFFFFFFFFFFFFFFFFFFFFFFFFFFFFFFFF
310
FFFFFFFFFFFFFFFFFFFFFFFFFFFFFFFFFFFFFFFFFFFFFFFFFFFFFFFFFFFFFFFF
310
FFFFFFFFFFFFFFFFFFFFFFFFFFFFFFFFFFFFFFFFFFFFFFFFF000FFFFFFFFFFFF
310
FFFFFFFFFFFFFFFFFFFFFFFFFFFFFFFFFFFFFFFFFFFFFFFFFFFFFFFFFFFFFFFF
310
FFFFFFFFFFFFFFFFFFFFFFFFFFFFFFFFFFFFFFFFFFFFFFFFFFFFFFFFFFFFFFFF
310
FFFFFFFFFFFFFFFFFFFFFFFFFFFFFFFFF000FFFFFFFFFFFFFFFFFFFFFFFFFFFF
310
FFFFFFFFFFFFFFFFFFFFFFFFFFFFFFFFFFFFFFFFFFFFFFFFFFFFFFFFFFFFFFFF
310
FFFFFFFFFFFFFFFFFFFFFFFFFFFFFFFFFFFFFFFFFFFFFFFFFFFFFFFFFFFFFFFF
310
FFFFFFFFFFFFFFFFF000FFFFFFFFFFFFFFFFFFFFFFFFFFFFFFFFFFFFFFFFFFFF
310
FFFFFFFFFFFFFFFFFFFFFFFFFFFFFFFFFFFFFFFFFFFFFFFFFFFFFFFFFFFFFFFF
310
FFFFFFFFFFFFFFFFFFFFFFFFFFFFFFFFFFFFFFFFFFFFFFFFFFFFFFFFFFFFFFFF
310
F000FFFFFFFFFFFFFFFFFFFFFFFFFFFFFFFFFFFFFFFFFFFFFFFFFFFFFFFFFFFF
310
FFFFFFFFFFFFFFFFFFFFFFFFFFFFFFFFFFFFFFFFFFFFFFFFFFFFFFFFFFFFFFFF
310
FFFFFFFFFFFFFFFFFFFFFFFFFFFFFFFFFFFFFFFFFFFFFFFFF000FFFFFFFFFFFF
310
FFFFFFFFFFFFFFFFFFFFFFFFFFFFFFFFFFFFFFFFFFFFFFFFFFFFFFFFFFFFFFFF
310
FFFFFFFFFFFFFFFFFFFFFFFFFFFFFFFFFFFFFFFFFFFFFFFFFFFFFFFFFFFFFFFF
310
FFFFFFFFFFFFFFFFFFFFFFFFFFFFFFFFF0000000000000000000000000000000
310
0000000064AC293E9D08B03D3849233E42D5DD3DD113243EE343DF3D02B4243E
310
8EFEE03DD522253E06F2E23D7A5B253E9808E53D7A5B253E0A2BE73DD522253E
310
9C41E93D02B4243E1435EB3DD113243EBFEFEC3D3849233E605EEE3D3849233E
310
819BDE3D3849233EDC4CDE3D3849233EBD11DE3D3849233E8CECDD3D3849233E
310
9BD7DD3D3849233E42D5DD3D3849233E605EEE3D3849233E5E56EE3D3849233E
310
2E40EE3D3849233E2B1DEE3D3849233E86EAED3D3849233E0CA7ED3D3849233E
310
2198ED3D3849233E2198ED3D3849233E819BDE3D3849233E42D5DD3D3849233E
310
42D5DD3D3849233E605EEE3D3849233E605EEE3DB108883EADD7C93DB86A883E
310
E323CA3DFAAE883E994FCA3DE8CE883EB954CA3D10E8883E4E45CA3DF1FF883E
310
A71CCA3D002A893E3C9BC93D7199893E7CDFC73DBFA68A3E2D68D03DEA8C8A3E
310
2306CF3D438C8A3E0508CF3D7649863E8FFBD43D1822823E3ECEDA3D1822823E
310
3ECEDA3D15DA813ECA17DB3DAD8D813E442FDB3DF631813E4B0BDB3D59D6803E
310
E2A9DA3D7A74803E7704DA3DD016803E0D2ED93DE318193EC93CB23D9231193E
310
0E9CB33D9231193ECA4B0C3EE318193E6CFB0C3E9231193E0E9CB33DEE31193E
310
7FA1B33D3E32193EF4A6B33D8132193E6BACB33DB832193EE4B1B33DE332193E
  1
OLE
  0
ENDSEC
  0
SECTION
  2
OBJECTS
  0
DICTIONARY
  5
C
330
0
100
AcDbDictionary
281
     1
  3
ACAD_GROUP
350
D
  3
ACAD_LAYOUT
350
1A
  3
ACAD_MLEADERSTYLE
350
2B2
  3
ACAD_MLINESTYLE
350
17
  3
ACAD_PLOTSETTINGS
350
19
  3
ACAD_PLOTSTYLENAME
350
E
  3
ACAD_TABLESTYLE
350
2B1
  3
ACAD_VISUALSTYLE
350
2A
  3
AcDbVariableDictionary
350
2B3
  0
DICTIONARY
  5
D
102
{ACAD_REACTORS
330
C
102
}
330
C
100
AcDbDictionary
281
     1
  0
DICTIONARY
  5
1A
102
{ACAD_REACTORS
330
C
102
}
330
C
100
AcDbDictionary
281
     1
  3
Layout1
350
1E
  3
Layout2
350
26
  3
Model
350
22
  0
DICTIONARY
  5
2B2
102
{ACAD_REACTORS
330
C
102
}
330
C
100
AcDbDictionary
281
     1
  0
DICTIONARY
  5
17
102
{ACAD_REACTORS
330
C
102
}
330
C
100
AcDbDictionary
281
     1
  3
Standard
350
18
  0
DICTIONARY
  5
19
102
{ACAD_REACTORS
330
C
102
}
330
C
100
AcDbDictionary
281
     1
  0
ACDBDICTIONARYWDFLT
  5
E
102
{ACAD_REACTORS
330
C
102
}
330
C
100
AcDbDictionary
281
     1
  3
Normal
350
F
100
AcDbDictionaryWithDefault
340
F
  0
DICTIONARY
  5
2B1
102
{ACAD_REACTORS
330
C
102
}
330
C
100
AcDbDictionary
281
     1
  0
DICTIONARY
  5
2A
102
{ACAD_REACTORS
330
C
102
}
330
C
100
AcDbDictionary
281
     1
  3
2dWireframe
350
2F
  3
3D Hidden
350
31
  3
3dWireframe
350
30
  3
Basic
350
32
  3
Brighten
350
36
  3
ColorChange
350
3A
  3
Conceptual
350
34
  3
Dim
350
35
  3
Facepattern
350
39
  3
Flat
350
2B
  3
FlatWithEdges
350
2C
  3
Gouraud
350
2D
  3
GouraudWithEdges
350
2E
  3
Linepattern
350
38
  3
Realistic
350
33
  3
Thicken
350
37
  0
DICTIONARY
  5
2B3
102
{ACAD_REACTORS
330
C
102
}
330
C
100
AcDbDictionary
281
     1
  3
PSOLHEIGHT
350
2B5
  3
PSOLWIDTH
350
2B4
  0
LAYOUT
  5
1E
102
{ACAD_REACTORS
330
1A
102
}
330
1A
100
AcDbPlotSettings
  1

  2
none_device
  4

  6

 40
0.0
 41
0.0
 42
0.0
 43
0.0
 44
0.0
 45
0.0
 46
0.0
 47
0.0
 48
0.0
 49
0.0
140
0.0
141
0.0
142
1.0
143
1.0
 70
   688
 72
     0
 73
     0
 74
     5
  7

 75
    16
147
1.0
148
0.0
149
0.0
100
AcDbLayout
  1
Layout1
 70
     1
 71
     1
 10
0.0
 20
0.0
 11
420.0
 21
297.0
 12
0.0
 22
0.0
 32
0.0
 14
1.0000000000E+20
 24
1.0000000000E+20
 34
1.0000000000E+20
 15
-1.0000000000E+20
 25
-1.0000000000E+20
 35
-1.0000000000E+20
146
0.0
 13
0.0
 23
0.0
 33
0.0
 16
1.0
 26
0.0
 36
0.0
 17
0.0
 27
1.0
 37
0.0
 76
     0
330
1B
  0
LAYOUT
  5
26
102
{ACAD_REACTORS
330
1A
102
}
330
1A
100
AcDbPlotSettings
  1

  2
none_device
  4

  6

 40
0.0
 41
0.0
 42
0.0
 43
0.0
 44
0.0
 45
0.0
 46
0.0
 47
0.0
 48
0.0
 49
0.0
140
0.0
141
0.0
142
1.0
143
1.0
 70
   688
 72
     0
 73
     0
 74
     5
  7

 75
    16
147
1.0
148
0.0
149
0.0
100
AcDbLayout
  1
Layout2
 70
     1
 71
     2
 10
0.0
 20
0.0
 11
0.0
 21
0.0
 12
0.0
 22
0.0
 32
0.0
 14
0.0
 24
0.0
 34
0.0
 15
0.0
 25
0.0
 35
0.0
146
0.0
 13
0.0
 23
0.0
 33
0.0
 16
1.0
 26
0.0
 36
0.0
 17
0.0
 27
1.0
 37
0.0
 76
     0
330
23
  0
LAYOUT
  5
22
102
{ACAD_REACTORS
330
1A
102
}
330
1A
100
AcDbPlotSettings
  1

  2
none_device
  4

  6

 40
0.0
 41
0.0
 42
0.0
 43
0.0
 44
0.0
 45
0.0
 46
0.0
 47
0.0
 48
0.0
 49
0.0
140
0.0
141
0.0
142
1.0
143
1.0
 70
  1712
 72
     0
 73
     0
 74
     0
  7

 75
     0
147
1.0
148
0.0
149
0.0
100
AcDbLayout
  1
Model
 70
     1
 71
     0
 10
0.0
 20
0.0
 11
297.0
 21
210.0
 12
0.0
 22
0.0
 32
0.0
 14
0.0
 24
0.0
 34
0.0
 15
297.0
 25
210.0
 35
0.0
146
0.0
 13
0.0
 23
0.0
 33
0.0
 16
1.0
 26
0.0
 36
0.0
 17
0.0
 27
1.0
 37
0.0
 76
     0
330
1F
331
29
  0
MLINESTYLE
  5
18
102
{ACAD_REACTORS
330
17
102
}
330
17
100
AcDbMlineStyle
  2
Standard
 70
     0
  3

 62
   256
 51
90.0
 52
90.0
 71
     2
 49
0.5
 62
   256
  6
BYLAYER
 49
-0.5
 62
   256
  6
BYLAYER
  0
ACDBPLACEHOLDER
  5
F
102
{ACAD_REACTORS
330
E
102
}
330
E
  0
VISUALSTYLE
  5
2F
102
{ACAD_REACTORS
330
2A
102
}
330
2A
100
AcDbVisualStyle
  2
2dWireframe
 70
     4
 71
     0
 72
     2
 73
     0
 90
        0
 40
-0.6
 41
-30.0
 62
     5
 63
     7
 74
     1
 91
        4
 64
     7
 65
   257
 75
     1
175
     1
 42
1.0
 92
        0
 66
   257
 43
1.0
 76
     1
 77
     6
 78
     2
 67
     7
 79
     5
170
     0
171
     0
290
     0
174
     0
 93
        1
 44
0.0
173
     0
291
     0
 45
0.0
1001
ACAD
1000
AcDbSavedByObjectVersion
1070
     0
  0
VISUALSTYLE
  5
31
102
{ACAD_REACTORS
330
2A
102
}
330
2A
100
AcDbVisualStyle
  2
3D Hidden
 70
     6
 71
     1
 72
     2
 73
     2
 90
        0
 40
-0.6
 41
-30.0
 62
     5
 63
     7
 74
     2
 91
        2
 64
     7
 65
   257
 75
     2
175
     1
 42
40.0
 92
        0
 66
   257
 43
1.0
 76
     1
 77
     6
 78
     2
 67
     7
 79
     3
170
     0
171
     0
290
     0
174
     0
 93
        1
 44
0.0
173
     0
291
     0
 45
0.0
1001
ACAD
1000
AcDbSavedByObjectVersion
1070
     0
  0
VISUALSTYLE
  5
30
102
{ACAD_REACTORS
330
2A
102
}
330
2A
100
AcDbVisualStyle
  2
3dWireframe
 70
     5
 71
     0
 72
     2
 73
     0
 90
        0
 40
-0.6
 41
-30.0
 62
     5
 63
     7
 74
     1
 91
        4
 64
     7
 65
   257
 75
     1
175
     1
 42
1.0
 92
        0
 66
   257
 43
1.0
 76
     1
 77
     6
 78
     2
 67
     7
 79
     5
170
     0
171
     0
290
     0
174
     0
 93
        1
 44
0.0
173
     0
291
     0
 45
0.0
1001
ACAD
1000
AcDbSavedByObjectVersion
1070
     0
  0
VISUALSTYLE
  5
32
102
{ACAD_REACTORS
330
2A
102
}
330
2A
100
AcDbVisualStyle
  2
Basic
 70
     7
 71
     1
 72
     0
 73
     1
 90
        0
 40
-0.6
 41
-30.0
 62
     5
 63
     7
 74
     0
 91
        4
 64
     7
 65
   257
 75
     1
175
     1
 42
1.0
 92
        8
 66
     7
 43
1.0
 76
     1
 77
     6
 78
     2
 67
     7
 79
     5
170
     0
171
     0
290
     0
174
     0
 93
        1
 44
0.0
173
     0
291
     1
 45
0.0
1001
ACAD
1000
AcDbSavedByObjectVersion
1070
     0
  0
VISUALSTYLE
  5
36
102
{ACAD_REACTORS
330
2A
102
}
330
2A
100
AcDbVisualStyle
  2
Brighten
 70
    12
 71
     2
 72
     2
 73
     0
 90
        0
 40
-0.6
 41
-30.0
 62
     5
 63
     7
 74
     1
 91
        4
 64
     7
 65
   257
 75
     1
175
     1
 42
1.0
 92
        8
 66
     7
 43
1.0
 76
     1
 77
     6
 78
     2
 67
     7
 79
     5
170
     0
171
     0
290
     0
174
     0
 93
        1
 44
50.0
173
     0
291
     1
 45
0.0
1001
ACAD
1000
AcDbSavedByObjectVersion
1070
     0
  0
VISUALSTYLE
  5
3A
102
{ACAD_REACTORS
330
2A
102
}
330
2A
100
AcDbVisualStyle
  2
ColorChange
 70
    16
 71
     2
 72
     2
 73
     3
 90
        0
 40
-0.6
 41
-30.0
 62
     5
 63
     8
 74
     1
 91
        4
 64
     7
 65
   257
 75
     1
175
     1
 42
1.0
 92
        8
 66
     8
 43
1.0
 76
     1
 77
     6
 78
     2
 67
     7
 79
     5
170
     0
171
     0
290
     0
174
     0
 93
        1
 44
0.0
173
     0
291
     1
 45
0.0
1001
ACAD
1000
AcDbSavedByObjectVersion
1070
     0
  0
VISUALSTYLE
  5
34
102
{ACAD_REACTORS
330
2A
102
}
330
2A
100
AcDbVisualStyle
  2
Conceptual
 70
     9
 71
     3
 72
     2
 73
     0
 90
        0
 40
-0.6
 41
-30.0
 62
     5
 63
     7
 74
     2
 91
        2
 64
     7
 65
   257
 75
     1
175
     1
 42
40.0
 92
        8
 66
     7
 43
1.0
 76
     1
 77
     6
 78
     2
 67
     7
 79
     3
170
     0
171
     0
290
     0
174
     0
 93
        1
 44
0.0
173
     0
291
     0
 45
0.0
1001
ACAD
1000
AcDbSavedByObjectVersion
1070
     0
  0
VISUALSTYLE
  5
35
102
{ACAD_REACTORS
330
2A
102
}
330
2A
100
AcDbVisualStyle
  2
Dim
 70
    11
 71
     2
 72
     2
 73
     0
 90
        0
 40
-0.6
 41
-30.0
 62
     5
 63
     7
 74
     1
 91
        4
 64
     7
 65
   257
 75
     1
175
     1
 42
1.0
 92
        8
 66
     7
 43
1.0
 76
     1
 77
     6
 78
     2
 67
     7
 79
     5
170
     0
171
     0
290
     0
174
     0
 93
        1
 44
-50.0
173
     0
291
     1
 45
0.0
1001
ACAD
1000
AcDbSavedByObjectVersion
1070
     0
  0
VISUALSTYLE
  5
39
102
{ACAD_REACTORS
330
2A
102
}
330
2A
100
AcDbVisualStyle
  2
Facepattern
 70
    15
 71
     2
 72
     2
 73
     0
 90
        0
 40
-0.6
 41
-30.0
 62
     5
 63
     7
 74
     1
 91
        4
 64
     7
 65
   257
 75
     1
175
     1
 42
1.0
 92
        8
 66
     7
 43
1.0
 76
     1
 77
     6
 78
     2
 67
     7
 79
     5
170
     0
171
     0
290
     0
174
     0
 93
        1
 44
0.0
173
     0
291
     1
 45
0.0
1001
ACAD
1000
AcDbSavedByObjectVersion
1070
     0
  0
VISUALSTYLE
  5
2B
102
{ACAD_REACTORS
330
2A
102
}
330
2A
100
AcDbVisualStyle
  2
Flat
 70
     0
 71
     2
 72
     1
 73
     1
 90
        2
 40
-0.6
 41
30.0
 62
     5
 63
     7
 74
     0
 91
        4
 64
     7
 65
   257
 75
     1
175
     1
 42
1.0
 92
        8
 66
     7
 43
1.0
 76
     1
 77
     6
 78
     2
 67
     7
 79
     5
170
     0
171
     0
290
     0
174
     0
 93
       13
 44
0.0
173
     0
291
     1
 45
0.0
1001
ACAD
1000
AcDbSavedByObjectVersion
1070
     0
  0
VISUALSTYLE
  5
2C
102
{ACAD_REACTORS
330
2A
102
}
330
2A
100
AcDbVisualStyle
  2
FlatWithEdges
 70
     1
 71
     2
 72
     1
 73
     1
 90
        2
 40
-0.6
 41
30.0
 62
     5
 63
     7
 74
     1
 91
        4
 64
     7
 65
   257
 75
     1
175
     1
 42
1.0
 92
        0
 66
   257
 43
1.0
 76
     1
 77
     6
 78
     2
 67
     7
 79
     5
170
     0
171
     0
290
     0
174
     0
 93
       13
 44
0.0
173
     0
291
     1
 45
0.0
1001
ACAD
1000
AcDbSavedByObjectVersion
1070
     0
  0
VISUALSTYLE
  5
2D
102
{ACAD_REACTORS
330
2A
102
}
330
2A
100
AcDbVisualStyle
  2
Gouraud
 70
     2
 71
     2
 72
     2
 73
     1
 90
        2
 40
-0.6
 41
30.0
 62
     5
 63
     7
 74
     0
 91
        4
 64
     7
 65
   257
 75
     1
175
     1
 42
1.0
 92
        0
 66
     7
 43
1.0
 76
     1
 77
     6
 78
     2
 67
     7
 79
     5
170
     0
171
     0
290
     0
174
     0
 93
       13
 44
0.0
173
     0
291
     1
 45
0.0
1001
ACAD
1000
AcDbSavedByObjectVersion
1070
     0
  0
VISUALSTYLE
  5
2E
102
{ACAD_REACTORS
330
2A
102
}
330
2A
100
AcDbVisualStyle
  2
GouraudWithEdges
 70
     3
 71
     2
 72
     2
 73
     1
 90
        2
 40
-0.6
 41
30.0
 62
     5
 63
     7
 74
     1
 91
        4
 64
     7
 65
   257
 75
     1
175
     1
 42
1.0
 92
        0
 66
   257
 43
1.0
 76
     1
 77
     6
 78
     2
 67
     7
 79
     5
170
     0
171
     0
290
     0
174
     0
 93
       13
 44
0.0
173
     0
291
     1
 45
0.0
1001
ACAD
1000
AcDbSavedByObjectVersion
1070
     0
  0
VISUALSTYLE
  5
38
102
{ACAD_REACTORS
330
2A
102
}
330
2A
100
AcDbVisualStyle
  2
Linepattern
 70
    14
 71
     2
 72
     2
 73
     0
 90
        0
 40
-0.6
 41
-30.0
 62
     5
 63
     7
 74
     1
 91
        4
 64
     7
 65
   257
 75
     7
175
     7
 42
1.0
 92
        8
 66
     7
 43
1.0
 76
     1
 77
     6
 78
     2
 67
     7
 79
     5
170
     0
171
     0
290
     0
174
     0
 93
        1
 44
0.0
173
     0
291
     1
 45
0.0
1001
ACAD
1000
AcDbSavedByObjectVersion
1070
     0
  0
VISUALSTYLE
  5
33
102
{ACAD_REACTORS
330
2A
102
}
330
2A
100
AcDbVisualStyle
  2
Realistic
 70
     8
 71
     2
 72
     2
 73
     0
 90
        0
 40
-0.6
 41
-30.0
 62
     5
 63
     7
 74
     1
 91
        0
 64
     7
 65
   257
 75
     1
175
     1
 42
1.0
 92
        8
 66
     8
 43
1.0
 76
     1
 77
     6
 78
     2
 67
     7
 79
     5
170
     0
171
     0
290
     0
174
     0
 93
       13
 44
0.0
173
     0
291
     0
 45
0.0
1001
ACAD
1000
AcDbSavedByObjectVersion
1070
     0
  0
VISUALSTYLE
  5
37
102
{ACAD_REACTORS
330
2A
102
}
330
2A
100
AcDbVisualStyle
  2
Thicken
 70
    13
 71
     2
 72
     2
 73
     0
 90
        0
 40
-0.6
 41
-30.0
 62
     5
 63
     7
 74
     1
 91
        4
 64
     7
 65
   257
 75
     1
175
     1
 42
1.0
 92
       12
 66
     7
 43
1.0
 76
     1
 77
     6
 78
     2
 67
     7
 79
     5
170
     0
171
     0
290
     0
174
     0
 93
        1
 44
0.0
173
     0
291
     1
 45
0.0
1001
ACAD
1000
AcDbSavedByObjectVersion
1070
     0
  0
DICTIONARYVAR
  5
2B5
102
{ACAD_REACTORS
330
2B3
102
}
330
2B3
100
DictionaryVariables
280
     0
  1
80.000000
  0
DICTIONARYVAR
  5
2B4
102
{ACAD_REACTORS
330
2B3
102
}
330
2B3
100
DictionaryVariables
280
     0
  1
5.000000
  0
ENDSEC
  0
EOF
