  0
SECTION
  2
HEADER
  9
$ACADVER
  1
AC1015
  9
$ACADMAINTVER
 70
     6
  9
$DWGCODEPAGE
  3
ANSI_1252
  9
$INSBASE
 10
0.0
 20
0.0
 30
0.0
  9
$EXTMIN
 10
0.0
 20
0.0
 30
0.0
  9
$EXTMAX
 10
297.0
 20
210.0
 30
0.0
  9
$LIMMIN
 10
0.0
 20
0.0
  9
$LIMMAX
 10
297.0
 20
210.0
  9
$ORTHOMODE
 70
     0
  9
$REGENMODE
 70
     1
  9
$FILLMODE
 70
     1
  9
$QTEXTMODE
 70
     0
  9
$MIRRTEXT
 70
     1
  9
$LTSCALE
 40
1.0
  9
$ATTMODE
 70
     1
  9
$TEXTSIZE
 40
2.0
  9
$TRACEWID
 40
1.0
  9
$TEXTSTYLE
  7
STANDARD
  9
$CLAYER
  8
0
  9
$CELTYPE
  6
ByLayer
  9
$CECOLOR
 62
   256
  9
$CELTSCALE
 40
1.0
  9
$DISPSILH
 70
     0
  9
$DIMSCALE
 40
1.0
  9
$DIMASZ
 40
3.0
  9
$DIMEXO
 40
0.0
  9
$DIMDLI
 40
3.75
  9
$DIMRND
 40
0.0
  9
$DIMDLE
 40
0.0
  9
$DIMEXE
 40
1.0
  9
$DIMTP
 40
0.0
  9
$DIMTM
 40
0.0
  9
$DIMTXT
 40
2.0
  9
$DIMCEN
 40
2.5
  9
$DIMTSZ
 40
0.0
  9
$DIMTOL
 70
     0
  9
$DIMLIM
 70
     0
  9
$DIMTIH
 70
     1
  9
$DIMTOH
 70
     1
  9
$DIMSE1
 70
     0
  9
$DIMSE2
 70
     0
  9
$DIMTAD
 70
     1
  9
$DIMZIN
 70
     0
  9
$DIMBLK
  1

  9
$DIMASO
 70
     1
  9
$DIMSHO
 70
     1
  9
$DIMPOST
  1

  9
$DIMAPOST
  1

  9
$DIMALT
 70
     0
  9
$DIMALTD
 70
     3
  9
$DIMALTF
 40
0.0393700787
  9
$DIMLFAC
 40
1.0
  9
$DIMTOFL
 70
     1
  9
$DIMTVP
 40
0.0
  9
$DIMTIX
 70
     0
  9
$DIMSOXD
 70
     0
  9
$DIMSAH
 70
     0
  9
$DIMBLK1
  1

  9
$DIMBLK2
  1

  9
$DIMSTYLE
  2
ISO-25
  9
$DIMCLRD
 70
     0
  9
$DIMCLRE
 70
     0
  9
$DIMCLRT
 70
     0
  9
$DIMTFAC
 40
1.0
  9
$DIMGAP
 40
1.524
  9
$DIMJUST
 70
     0
  9
$DIMSD1
 70
     0
  9
$DIMSD2
 70
     0
  9
$DIMTOLJ
 70
     0
  9
$DIMTZIN
 70
     0
  9
$DIMALTZ
 70
     0
  9
$DIMALTTZ
 70
     0
  9
$DIMUPT
 70
     0
  9
$DIMDEC
 70
     2
  9
$DIMTDEC
 70
     3
  9
$DIMALTU
 70
     2
  9
$DIMALTTD
 70
     3
  9
$DIMTXSTY
  7
STANDARD
  9
$DIMAUNIT
 70
     0
  9
$DIMADEC
 70
     2
  9
$DIMALTRND
 40
0.0
  9
$DIMAZIN
 70
     0
  9
$DIMDSEP
 70
    44
  9
$DIMATFIT
 70
     3
  9
$DIMFRAC
 70
     0
  9
$DIMLDRBLK
  1

  9
$DIMLUNIT
 70
     2
  9
$DIMLWD
 70
    -2
  9
$DIMLWE
 70
    -2
  9
$DIMTMOVE
 70
     0
  9
$LUNITS
 70
     2
  9
$LUPREC
 70
     2
  9
$SKETCHINC
 40
1.0
  9
$FILLETRAD
 40
10.0
  9
$AUNITS
 70
     0
  9
$AUPREC
 70
     2
  9
$MENU
  1
.
  9
$ELEVATION
 40
0.0
  9
$PELEVATION
 40
0.0
  9
$THICKNESS
 40
0.0
  9
$LIMCHECK
 70
     0
  9
$CHAMFERA
 40
10.0
  9
$CHAMFERB
 40
10.0
  9
$CHAMFERC
 40
20.0
  9
$CHAMFERD
 40
0.0
  9
$SKPOLY
 70
     0
  9
$TDCREATE
 40
2457070.612367199
  9
$TDUCREATE
 40
2457070.570700532
  9
$TDUPDATE
 40
2457070.612367732
  9
$TDUUPDATE
 40
2457070.570701065
  9
$TDINDWG
 40
0.0000000116
  9
$TDUSRTIMER
 40
0.0000000116
  9
$USRTIMER
 70
     1
  9
$ANGBASE
 50
0.0
  9
$ANGDIR
 70
     0
  9
$PDMODE
 70
     0
  9
$PDSIZE
 40
-1.0
  9
$PLINEWID
 40
0.0
  9
$SPLFRAME
 70
     0
  9
$SPLINETYPE
 70
     6
  9
$SPLINESEGS
 70
     8
  9
$HANDSEED
  5
278
  9
$SURFTAB1
 70
     6
  9
$SURFTAB2
 70
     6
  9
$SURFTYPE
 70
     6
  9
$SURFU
 70
     6
  9
$SURFV
 70
     6
  9
$UCSBASE
  2

  9
$UCSNAME
  2

  9
$UCSORG
 10
0.0
 20
0.0
 30
0.0
  9
$UCSXDIR
 10
1.0
 20
0.0
 30
0.0
  9
$UCSYDIR
 10
0.0
 20
1.0
 30
0.0
  9
$UCSORTHOREF
  2

  9
$UCSORTHOVIEW
 70
     0
  9
$UCSORGTOP
 10
0.0
 20
0.0
 30
0.0
  9
$UCSORGBOTTOM
 10
0.0
 20
0.0
 30
0.0
  9
$UCSORGLEFT
 10
0.0
 20
0.0
 30
0.0
  9
$UCSORGRIGHT
 10
0.0
 20
0.0
 30
0.0
  9
$UCSORGFRONT
 10
0.0
 20
0.0
 30
0.0
  9
$UCSORGBACK
 10
0.0
 20
0.0
 30
0.0
  9
$PUCSBASE
  2

  9
$PUCSNAME
  2

  9
$PUCSORG
 10
0.0
 20
0.0
 30
0.0
  9
$PUCSXDIR
 10
1.0
 20
0.0
 30
0.0
  9
$PUCSYDIR
 10
0.0
 20
1.0
 30
0.0
  9
$PUCSORTHOREF
  2

  9
$PUCSORTHOVIEW
 70
     0
  9
$PUCSORGTOP
 10
0.0
 20
0.0
 30
0.0
  9
$PUCSORGBOTTOM
 10
0.0
 20
0.0
 30
0.0
  9
$PUCSORGLEFT
 10
0.0
 20
0.0
 30
0.0
  9
$PUCSORGRIGHT
 10
0.0
 20
0.0
 30
0.0
  9
$PUCSORGFRONT
 10
0.0
 20
0.0
 30
0.0
  9
$PUCSORGBACK
 10
0.0
 20
0.0
 30
0.0
  9
$USERI1
 70
     0
  9
$USERI2
 70
     0
  9
$USERI3
 70
     0
  9
$USERI4
 70
     0
  9
$USERI5
 70
     0
  9
$USERR1
 40
0.0
  9
$USERR2
 40
0.0
  9
$USERR3
 40
0.0
  9
$USERR4
 40
0.0
  9
$USERR5
 40
0.0
  9
$WORLDVIEW
 70
     1
  9
$SHADEDGE
 70
     3
  9
$SHADEDIF
 70
    70
  9
$TILEMODE
 70
     1
  9
$MAXACTVP
 70
    64
  9
$PINSBASE
 10
0.0
 20
0.0
 30
0.0
  9
$PLIMCHECK
 70
     0
  9
$PEXTMIN
 10
1.0000000000E+20
 20
1.0000000000E+20
 30
1.0000000000E+20
  9
$PEXTMAX
 10
-1.0000000000E+20
 20
-1.0000000000E+20
 30
-1.0000000000E+20
  9
$PLIMMIN
 10
0.0
 20
0.0
  9
$PLIMMAX
 10
420.0
 20
297.0
  9
$UNITMODE
 70
     0
  9
$VISRETAIN
 70
     1
  9
$PLINEGEN
 70
     0
  9
$PSLTSCALE
 70
     1
  9
$TREEDEPTH
 70
  3020
  9
$CMLSTYLE
  2
Standard
  9
$CMLJUST
 70
     0
  9
$CMLSCALE
 40
20.0
  9
$PROXYGRAPHICS
 70
     1
  9
$MEASUREMENT
 70
     1
  9
$CELWEIGHT
370
    -1
  9
$ENDCAPS
280
     0
  9
$JOINSTYLE
280
     0
  9
$LWDISPLAY
290
     1
  9
$INSUNITS
 70
     4
  9
$HYPERLINKBASE
  1

  9
$STYLESHEET
  1

  9
$XEDIT
290
     1
  9
$CEPSNTYPE
380
     0
  9
$PSTYLEMODE
290
     1
  9
$FINGERPRINTGUID
  2
{90918266-15F6-483A-84BD-BB478B228DAC}
  9
$VERSIONGUID
  2
{FAEB1C32-E019-11D5-929B-00C0DF256EC4}
  9
$EXTNAMES
290
     1
  9
$PSVPSCALE
 40
0.0
  9
$OLESTARTUP
290
     0
  0
ENDSEC
  0
SECTION
  2
CLASSES
  0
CLASS
  1
ACDBDICTIONARYWDFLT
  2
AcDbDictionaryWithDefault
  3
ObjectDBX Classes
 90
        0
280
     0
281
     0
  0
CLASS
  1
VISUALSTYLE
  2
AcDbVisualStyle
  3
ObjectDBX Classes
 90
     4095
280
     0
281
     0
  0
CLASS
  1
MATERIAL
  2
AcDbMaterial
  3
ObjectDBX Classes
 90
     1153
280
     0
281
     0
  0
CLASS
  1
ACDBPLACEHOLDER
  2
AcDbPlaceHolder
  3
ObjectDBX Classes
 90
        0
280
     0
281
     0
  0
CLASS
  1
LAYOUT
  2
AcDbLayout
  3
ObjectDBX Classes
 90
        0
280
     0
281
     0
  0
ENDSEC
  0
SECTION
  2
TABLES
  0
TABLE
  2
VPORT
  5
8
330
0
100
AcDbSymbolTable
 70
     1
  0
VPORT
  5
29
330
8
100
AcDbSymbolTableRecord
100
AcDbViewportTableRecord
  2
*Active
 70
     0
 10
0.0
 20
0.0
 11
1.0
 21
1.0
 12
148.5
 22
105.0
 13
0.0
 23
0.0
 14
10.0
 24
10.0
 15
10.0
 25
10.0
 16
0.0
 26
0.0
 36
1.0
 17
0.0
 27
0.0
 37
0.0
 40
210.0
 41
1.4142857143
 42
50.0
 43
0.0
 44
0.0
 50
0.0
 51
0.0
 71
     0
 72
  2000
 73
     1
 74
     3
 75
     0
 76
     0
 77
     0
 78
     0
281
     0
 65
     1
110
0.0
120
0.0
130
0.0
111
1.0
121
0.0
131
0.0
112
0.0
122
1.0
132
0.0
 79
     0
146
0.0
  0
ENDTAB
  0
TABLE
  2
LTYPE
  5
5
330
0
100
AcDbSymbolTable
 70
     8
  0
LTYPE
  5
14
330
5
100
AcDbSymbolTableRecord
100
AcDbLinetypeTableRecord
  2
ByBlock
 70
     0
  3

 72
    65
 73
     0
 40
0.0
  0
LTYPE
  5
15
330
5
100
AcDbSymbolTableRecord
100
AcDbLinetypeTableRecord
  2
ByLayer
 70
     0
  3

 72
    65
 73
     0
 40
0.0
  0
LTYPE
  5
16
330
5
100
AcDbSymbolTableRecord
100
AcDbLinetypeTableRecord
  2
Continuous
 70
     0
  3
Solid line
 72
    65
 73
     0
 40
0.0
  0
LTYPE
  5
3F
330
5
100
AcDbSymbolTableRecord
100
AcDbLinetypeTableRecord
  2
SLD-Durchgehend
 70
     0
  3
SolidWorks Line Style
 72
    65
 73
     0
 40
0.0
  0
LTYPE
  5
40
330
5
100
AcDbSymbolTableRecord
100
AcDbLinetypeTableRecord
  2
SLD-Gestrichelt
 70
     0
  3
SolidWorks Line Style
 72
    65
 73
     2
 40
1.905
 49
1.27
 74
     0
 49
-0.635
 74
     0
  0
LTYPE
  5
41
330
5
100
AcDbSymbolTableRecord
100
AcDbLinetypeTableRecord
  2
SLD-Phantom
 70
     0
  3
SolidWorks Line Style
 72
    65
 73
     6
 40
12.7
 49
6.35
 74
     0
 49
-1.27
 74
     0
 49
1.27
 74
     0
 49
-1.27
 74
     0
 49
1.27
 74
     0
 49
-1.27
 74
     0
  0
LTYPE
  5
42
330
5
100
AcDbSymbolTableRecord
100
AcDbLinetypeTableRecord
  2
SLD-Kette
 70
     0
  3
SolidWorks Line Style
 72
    65
 73
     4
 40
10.16
 49
6.35
 74
     0
 49
-1.27
 74
     0
 49
1.27
 74
     0
 49
-1.27
 74
     0
  0
LTYPE
  5
43
330
5
100
AcDbSymbolTableRecord
100
AcDbLinetypeTableRecord
  2
SLD-Punktstrich
 70
     0
  3
SolidWorks Line Style
 72
    65
 73
     4
 40
19.05
 49
15.24
 74
     0
 49
-1.27
 74
     0
 49
1.27
 74
     0
 49
-1.27
 74
     0
  0
LTYPE
  5
44
330
5
100
AcDbSymbolTableRecord
100
AcDbLinetypeTableRecord
  2
SLD-Naht
 70
     0
  3
SolidWorks Line Style
 72
    65
 73
     2
 40
0.635
 49
0.0
 74
     0
 49
-0.635
 74
     0
  0
LTYPE
  5
45
330
5
100
AcDbSymbolTableRecord
100
AcDbLinetypeTableRecord
  2
SLD-Dicke-Dünne-Kette
 70
     0
  3
SolidWorks Line Style
 72
    65
 73
     4
 40
10.16
 49
6.35
 74
     0
 49
-1.27
 74
     0
 49
1.27
 74
     0
 49
-1.27
 74
     0
  0
ENDTAB
  0
TABLE
  2
LAYER
  5
2
330
0
100
AcDbSymbolTable
 70
     5
  0
LAYER
  5
10
330
2
100
AcDbSymbolTableRecord
100
AcDbLayerTableRecord
  2
0
 70
     0
 62
     7
  6
Continuous
370
    -3
390
F
  0
LAYER
  5
46
330
2
100
AcDbSymbolTableRecord
100
AcDbLayerTableRecord
  2
FORMAT
 70
     0
 62
     7
  6
SLD-Durchgehend
370
    -3
390
F
  0
LAYER
  5
47
330
2
100
AcDbSymbolTableRecord
100
AcDbLayerTableRecord
  2
VERMASSUNG
 70
     0
 62
     7
  6
SLD-Durchgehend
370
    -3
390
F
  0
LAYER
  5
48
330
2
100
AcDbSymbolTableRecord
100
AcDbLayerTableRecord
  2
KOPF_DÜNN
 70
     0
 62
     7
  6
SLD-Durchgehend
370
    -3
390
F
  0
LAYER
  5
49
330
2
100
AcDbSymbolTableRecord
100
AcDbLayerTableRecord
  2
KOPF_DICK
 70
     0
 62
     7
  6
SLD-Durchgehend
370
    15
390
F
  0
ENDTAB
  0
TABLE
  2
STYLE
  5
3
330
0
100
AcDbSymbolTable
 70
     2
  0
STYLE
  5
11
330
3
100
AcDbSymbolTableRecord
100
AcDbTextStyleTableRecord
  2
STANDARD
 70
     0
 40
0.0
 41
1.0
 50
0.0
 71
     0
 42
2.0
  3
ISOCPEUR.TTF
  4

1001
ACAD
1000
ISOCPEUR
1071
       34
  0
STYLE
  5
4A
330
3
100
AcDbSymbolTableRecord
100
AcDbTextStyleTableRecord
  2
SLDTEXTSTYLE0
 70
     0
 40
0.0
 41
1.0
 50
0.0
 71
     0
 42
0.2
  3
ISOCPEUR.TTF
  4

1001
ACAD
1000
ISOCPEUR
1071
      290
  0
ENDTAB
  0
TABLE
  2
VIEW
  5
6
330
0
100
AcDbSymbolTable
 70
     0
  0
ENDTAB
  0
TABLE
  2
UCS
  5
7
330
0
100
AcDbSymbolTable
 70
     0
  0
ENDTAB
  0
TABLE
  2
APPID
  5
9
330
0
100
AcDbSymbolTable
 70
     1
  0
APPID
  5
12
330
9
100
AcDbSymbolTableRecord
100
AcDbRegAppTableRecord
  2
ACAD
 70
     0
  0
ENDTAB
  0
TABLE
  2
DIMSTYLE
  5
A
330
0
100
AcDbSymbolTable
 70
     3
100
AcDbDimStyleTable
  0
DIMSTYLE
105
27
330
A
100
AcDbSymbolTableRecord
100
AcDbDimStyleTableRecord
  2
ISO-25
 70
     0
 41
2.5
 42
0.625
 43
3.75
 44
1.25
 73
     0
 74
     0
 77
     1
 78
     8
140
2.5
141
2.5
143
0.0393700787
147
0.625
171
     3
172
     1
178
     0
271
     2
272
     2
274
     3
278
    44
283
     0
284
     8
340
11
  0
DIMSTYLE
105
1F9
102
{ACAD_REACTORS
330
1F8
330
205
330
20F
330
224
330
260
102
}
330
A
100
AcDbSymbolTableRecord
100
AcDbDimStyleTableRecord
  2
SLDDIMSTYLE0
 70
     0
 41
3.0
 44
0.0
 45
0.000000001
 73
     0
 74
     0
 77
     1
 78
    12
 79
     3
140
2.0
147
0.5
173
     1
178
     0
271
     2
272
     3
276
     2
284
    12
340
4A
  0
DIMSTYLE
105
21A
102
{ACAD_REACTORS
330
219
102
}
330
A
100
AcDbSymbolTableRecord
100
AcDbDimStyleTableRecord
  2
SLDDIMSTYLE1
 70
     0
 41
3.0
 44
0.0
 73
     0
 74
     0
 77
     1
 78
    12
 79
     3
140
2.0
147
0.5
173
     1
178
     0
179
     1
272
     3
276
     2
284
    12
340
4A
  0
ENDTAB
  0
TABLE
  2
BLOCK_RECORD
  5
1
330
0
100
AcDbSymbolTable
 70
     8
  0
BLOCK_RECORD
  5
1F
330
1
100
AcDbSymbolTableRecord
100
AcDbBlockTableRecord
  2
*Model_Space
340
22
  0
BLOCK_RECORD
  5
1B
330
1
100
AcDbSymbolTableRecord
100
AcDbBlockTableRecord
  2
*Paper_Space
340
1E
  0
BLOCK_RECORD
  5
23
330
1
100
AcDbSymbolTableRecord
100
AcDbBlockTableRecord
  2
*Paper_Space0
340
26
  0
BLOCK_RECORD
  5
1FA
330
1
100
AcDbSymbolTableRecord
100
AcDbBlockTableRecord
  2
_D
340
0
  0
BLOCK_RECORD
  5
206
330
1
100
AcDbSymbolTableRecord
100
AcDbBlockTableRecord
  2
_D_1
340
0
  0
BLOCK_RECORD
  5
210
330
1
100
AcDbSymbolTableRecord
100
AcDbBlockTableRecord
  2
_D_2
340
0
  0
BLOCK_RECORD
  5
21B
330
1
100
AcDbSymbolTableRecord
100
AcDbBlockTableRecord
  2
_D_3
340
0
  0
BLOCK_RECORD
  5
225
330
1
100
AcDbSymbolTableRecord
100
AcDbBlockTableRecord
  2
_D_4
340
0
  0
BLOCK_RECORD
  5
261
330
1
100
AcDbSymbolTableRecord
100
AcDbBlockTableRecord
  2
_D_5
340
0
  0
BLOCK_RECORD
  5
26B
330
1
100
AcDbSymbolTableRecord
100
AcDbBlockTableRecord
  2
SW_CENTERMARKSYMBOL_0
340
0
102
{BLKREFS
331
276
102
}
  0
ENDTAB
  0
ENDSEC
  0
SECTION
  2
BLOCKS
  0
BLOCK
  5
20
330
1F
100
AcDbEntity
  8
0
100
AcDbBlockBegin
  2
*Model_Space
 70
     0
 10
0.0
 20
0.0
 30
0.0
  3
*Model_Space
  1

  0
ENDBLK
  5
21
330
1F
100
AcDbEntity
  8
0
100
AcDbBlockEnd
  0
BLOCK
  5
1C
330
1B
100
AcDbEntity
 67
     1
  8
0
100
AcDbBlockBegin
  2
*Paper_Space
 70
     0
 10
0.0
 20
0.0
 30
0.0
  3
*Paper_Space
  1

  0
ENDBLK
  5
1D
330
1B
100
AcDbEntity
 67
     1
  8
0
100
AcDbBlockEnd
  0
BLOCK
  5
24
330
23
100
AcDbEntity
  8
0
100
AcDbBlockBegin
  2
*Paper_Space0
 70
     0
 10
0.0
 20
0.0
 30
0.0
  3
*Paper_Space0
  1

  0
ENDBLK
  5
25
330
23
100
AcDbEntity
  8
0
100
AcDbBlockEnd
  0
BLOCK
  5
1FB
330
1FA
100
AcDbEntity
  8
0
100
AcDbBlockBegin
  2
_D
 70
     0
 10
0.0
 20
0.0
 30
0.0
  3
_D
  1

  0
SOLID
  5
1FD
330
1FA
100
AcDbEntity
  8
VERMASSUNG
100
AcDbTrace
 10
88.6351979773
 20
138.6264850853
 30
0.0
 11
88.1851979773
 21
135.6264850853
 31
0.0
 12
89.0851979773
 22
135.6264850853
 32
0.0
 13
89.0851979773
 23
135.6264850853
 33
0.0
  0
SOLID
  5
1FE
330
1FA
100
AcDbEntity
  8
VERMASSUNG
100
AcDbTrace
 10
88.6351979773
 20
75.6264850853
 30
0.0
 11
89.0851979773
 21
78.6264850853
 31
0.0
 12
88.1851979773
 22
78.6264850853
 32
0.0
 13
88.1851979773
 23
78.6264850853
 33
0.0
  0
LINE
  5
1FF
330
1FA
100
AcDbEntity
  8
VERMASSUNG
100
AcDbLine
 10
127.2474129045
 20
138.6264850853
 30
0.0
 11
87.6351979773
 21
138.6264850853
 31
0.0
  0
LINE
  5
200
330
1FA
100
AcDbEntity
  8
VERMASSUNG
100
AcDbLine
 10
127.2474129045
 20
75.6264850853
 30
0.0
 11
87.6351979773
 21
75.6264850853
 31
0.0
  0
LINE
  5
201
330
1FA
100
AcDbEntity
  8
VERMASSUNG
100
AcDbLine
 10
88.6351979773
 20
138.6264850853
 30
0.0
 11
88.6351979773
 21
75.6264850853
 31
0.0
  0
MTEXT
  5
202
330
1FA
100
AcDbEntity
  8
VERMASSUNG
100
AcDbMText
 10
85.8351979678
 20
100.9236404255
 30
0.0
 40
2.0
 41
0.0
 71
     1
 72
     1
  1
HSK 
  7
SLDTEXTSTYLE0
 11
-7.044195017643634E-15
 21
1.0
 31
0.0
 73
     1
 44
1.0
  0
MTEXT
  5
203
330
1FA
100
AcDbEntity
  8
VERMASSUNG
100
AcDbMText
 10
86.0351979773
 20
106.9236404777
 30
0.0
 40
2.0
 41
0.0
 71
     1
 72
     1
  1
%%c
  7
SLDTEXTSTYLE0
 11
-7.044195017643634E-15
 21
1.0
 31
0.0
 73
     1
 44
1.0
  0
MTEXT
  5
204
330
1FA
100
AcDbEntity
  8
VERMASSUNG
100
AcDbMText
 10
86.0351980937
 20
110.5312010815
 30
0.0
 40
2.0
 41
0.0
 71
     1
 72
     1
  1
63
  7
SLDTEXTSTYLE0
 11
-7.044195017643634E-15
 21
1.0
 31
0.0
 73
     1
 44
1.0
  0
ENDBLK
  5
1FC
330
1FA
100
AcDbEntity
  8
0
100
AcDbBlockEnd
  0
BLOCK
  5
207
330
206
100
AcDbEntity
  8
0
100
AcDbBlockBegin
  2
_D_1
 70
     0
 10
0.0
 20
0.0
 30
0.0
  3
_D_1
  1

  0
SOLID
  5
209
330
206
100
AcDbEntity
  8
VERMASSUNG
100
AcDbTrace
 10
126.9474129045
 20
148.6264850853
 30
0.0
 11
129.9474129045
 21
148.1764850853
 31
0.0
 12
129.9474129045
 22
149.0764850853
 32
0.0
 13
129.9474129045
 23
149.0764850853
 33
0.0
  0
SOLID
  5
20A
330
206
100
AcDbEntity
  8
VERMASSUNG
100
AcDbTrace
 10
286.9474129045
 20
148.6264850853
 30
0.0
 11
283.9474129045
 21
149.0764850853
 31
0.0
 12
283.9474129045
 22
148.1764850853
 32
0.0
 13
283.9474129045
 23
148.1764850853
 33
0.0
  0
LINE
  5
20B
330
206
100
AcDbEntity
  8
VERMASSUNG
100
AcDbLine
 10
126.9474129045
 20
138.3264850853
 30
0.0
 11
126.9474129045
 21
149.6264850853
 31
0.0
  0
LINE
  5
20C
330
206
100
AcDbEntity
  8
VERMASSUNG
100
AcDbLine
 10
286.9474129045
 20
129.1264850853
 30
0.0
 11
286.9474129045
 21
149.6264850853
 31
0.0
  0
LINE
  5
20D
330
206
100
AcDbEntity
  8
VERMASSUNG
100
AcDbLine
 10
126.9474129045
 20
148.6264850853
 30
0.0
 11
286.9474129045
 21
148.6264850853
 31
0.0
  0
MTEXT
  5
20E
330
206
100
AcDbEntity
  8
VERMASSUNG
100
AcDbMText
 10
205.048158615
 20
151.2264849689
 30
0.0
 40
2.0
 41
0.0
 71
     1
 72
     1
  1
160
  7
SLDTEXTSTYLE0
 73
     1
 44
1.0
  0
ENDBLK
  5
208
330
206
100
AcDbEntity
  8
0
100
AcDbBlockEnd
  0
BLOCK
  5
211
330
210
100
AcDbEntity
  8
0
100
AcDbBlockBegin
  2
_D_2
 70
     0
 10
0.0
 20
0.0
 30
0.0
  3
_D_2
  1

  0
SOLID
  5
213
330
210
100
AcDbEntity
  8
VERMASSUNG
100
AcDbTrace
 10
95.0474129045
 20
156.8446738612
 30
0.0
 11
98.0474129045
 21
156.3946738612
 31
0.0
 12
98.0474129045
 22
157.2946738612
 32
0.0
 13
98.0474129045
 23
157.2946738612
 33
0.0
  0
SOLID
  5
214
330
210
100
AcDbEntity
  8
VERMASSUNG
100
AcDbTrace
 10
286.9474129045
 20
156.8446738612
 30
0.0
 11
283.9474129045
 21
157.2946738612
 31
0.0
 12
283.9474129045
 22
156.3946738612
 32
0.0
 13
283.9474129045
 23
156.3946738612
 33
0.0
  0
LINE
  5
215
330
210
100
AcDbEntity
  8
VERMASSUNG
100
AcDbLine
 10
95.0474129045
 20
126.8171628318
 30
0.0
 11
95.0474129045
 21
157.8446738612
 31
0.0
  0
LINE
  5
216
330
210
100
AcDbEntity
  8
VERMASSUNG
100
AcDbLine
 10
286.9474129045
 20
129.1264850853
 30
0.0
 11
286.9474129045
 21
157.8446738612
 31
0.0
  0
LINE
  5
217
330
210
100
AcDbEntity
  8
VERMASSUNG
100
AcDbLine
 10
95.0474129045
 20
156.8446738612
 30
0.0
 11
286.9474129045
 21
156.8446738612
 31
0.0
  0
MTEXT
  5
218
330
210
100
AcDbEntity
  8
VERMASSUNG
100
AcDbMText
 10
188.2983438659
 20
159.4446737448
 30
0.0
 40
2.0
 41
0.0
 71
     1
 72
     1
  1
191.9
  7
SLDTEXTSTYLE0
 73
     1
 44
1.0
  0
ENDBLK
  5
212
330
210
100
AcDbEntity
  8
0
100
AcDbBlockEnd
  0
BLOCK
  5
21C
330
21B
100
AcDbEntity
  8
0
100
AcDbBlockBegin
  2
_D_3
 70
     0
 10
0.0
 20
0.0
 30
0.0
  3
_D_3
  1

  0
ARC
  5
21E
330
21B
100
AcDbEntity
  8
VERMASSUNG
100
AcDbCircle
 10
286.9474129045
 20
129.5101777502
 30
0.0
 40
27.85738573655476
100
AcDbArc
 50
252.5400357402
 51
270.0
  0
SOLID
  5
21F
330
21B
100
AcDbEntity
  8
VERMASSUNG
100
AcDbTrace
 10
278.5891020764
 20
102.9362698671
 30
0.0
 11
281.3832158489
 21
101.7549874173
 31
0.0
 12
281.6068340545
 22
102.6267642799
 32
0.0
 13
281.6068340545
 23
102.6267642799
 33
0.0
  0
SOLID
  5
220
330
21B
100
AcDbEntity
  8
VERMASSUNG
100
AcDbTrace
 10
286.9474129045
 20
101.6527920136
 30
0.0
 11
283.9758535384
 21
102.2629845516
 31
0.0
 12
283.9276016167
 22
101.3642789535
 32
0.0
 13
283.9276016167
 23
101.3642789535
 33
0.0
  0
LINE
  5
221
330
21B
100
AcDbEntity
  8
VERMASSUNG
100
AcDbLine
 10
279.9070535566
 20
107.1264850853
 30
0.0
 11
278.2890627652
 21
101.9823430294
 31
0.0
  0
LINE
  5
222
330
21B
100
AcDbEntity
  8
VERMASSUNG
100
AcDbLine
 10
286.9474129045
 20
107.1264850853
 30
0.0
 11
286.9474129045
 21
100.6527920136
 31
0.0
  0
MTEXT
  5
223
330
21B
100
AcDbEntity
  8
VERMASSUNG
100
AcDbMText
 10
280.3469757329
 20
104.9702890224
 30
0.0
 40
2.0
 41
0.0
 71
     1
 72
     1
  1
17.5°
  7
SLDTEXTSTYLE0
 11
0.9884145986698912
 21
-0.1517780653989164
 31
0.0
 73
     1
 44
1.0
  0
ENDBLK
  5
21D
330
21B
100
AcDbEntity
  8
0
100
AcDbBlockEnd
  0
BLOCK
  5
226
330
225
100
AcDbEntity
  8
0
100
AcDbBlockBegin
  2
_D_4
 70
     0
 10
0.0
 20
0.0
 30
0.0
  3
_D_4
  1

  0
SOLID
  5
228
330
225
100
AcDbEntity
  8
VERMASSUNG
100
AcDbTrace
 10
291.7224268218
 20
129.1264850853
 30
0.0
 11
291.2724268218
 21
126.1264850853
 31
0.0
 12
292.1724268218
 22
126.1264850853
 32
0.0
 13
292.1724268218
 23
126.1264850853
 33
0.0
  0
SOLID
  5
229
330
225
100
AcDbEntity
  8
VERMASSUNG
100
AcDbTrace
 10
291.7224268218
 20
107.1264850853
 30
0.0
 11
292.1724268218
 21
110.1264850853
 31
0.0
 12
291.2724268218
 22
110.1264850853
 32
0.0
 13
291.2724268218
 23
110.1264850853
 33
0.0
  0
LINE
  5
22A
330
225
100
AcDbEntity
  8
VERMASSUNG
100
AcDbLine
 10
286.9474129045
 20
129.1264850853
 30
0.0
 11
292.7224268218
 21
129.1264850853
 31
0.0
  0
LINE
  5
22B
330
225
100
AcDbEntity
  8
VERMASSUNG
100
AcDbLine
 10
282.0420737875
 20
107.1264850853
 30
0.0
 11
292.7224268218
 21
107.1264850853
 31
0.0
  0
LINE
  5
22C
330
225
100
AcDbEntity
  8
VERMASSUNG
100
AcDbLine
 10
291.7224268218
 20
129.1264850853
 30
0.0
 11
291.7224268218
 21
107.1264850853
 31
0.0
  0
MTEXT
  5
22D
330
225
100
AcDbEntity
  8
VERMASSUNG
100
AcDbMText
 10
289.1224269382
 20
116.7274207535
 30
0.0
 40
2.0
 41
0.0
 71
     1
 72
     1
  1
22
  7
SLDTEXTSTYLE0
 11
-7.044195017643634E-15
 21
1.0
 31
0.0
 73
     1
 44
1.0
  0
ENDBLK
  5
227
330
225
100
AcDbEntity
  8
0
100
AcDbBlockEnd
  0
BLOCK
  5
262
330
261
100
AcDbEntity
  8
0
100
AcDbBlockBegin
  2
_D_5
 70
     0
 10
0.0
 20
0.0
 30
0.0
  3
_D_5
  1

  0
SOLID
  5
264
330
261
100
AcDbEntity
  8
VERMASSUNG
100
AcDbTrace
 10
12.4712381705
 20
89.1285817142
 30
0.0
 11
12.9212381705
 21
92.1285817142
 31
0.0
 12
12.0212381705
 22
92.1285817142
 32
0.0
 13
12.0212381705
 23
92.1285817142
 33
0.0
  0
SOLID
  5
265
330
261
100
AcDbEntity
  8
VERMASSUNG
100
AcDbTrace
 10
12.4712381705
 20
129.1285817142
 30
0.0
 11
12.0212381705
 21
126.1285817142
 31
0.0
 12
12.9212381705
 22
126.1285817142
 32
0.0
 13
12.9212381705
 23
126.1285817142
 33
0.0
  0
LINE
  5
266
330
261
100
AcDbEntity
  8
VERMASSUNG
100
AcDbLine
 10
48.4017330737
 20
89.1285817142
 30
0.0
 11
11.4712381705
 21
89.1285817142
 31
0.0
  0
LINE
  5
267
330
261
100
AcDbEntity
  8
VERMASSUNG
100
AcDbLine
 10
48.4017330737
 20
129.1285817142
 30
0.0
 11
11.4712381705
 21
129.1285817142
 31
0.0
  0
LINE
  5
268
330
261
100
AcDbEntity
  8
VERMASSUNG
100
AcDbLine
 10
12.4712381705
 20
89.1285817142
 30
0.0
 11
12.4712381705
 21
129.1285817142
 31
0.0
  0
MTEXT
  5
269
330
261
100
AcDbEntity
  8
VERMASSUNG
100
AcDbMText
 10
9.8712381705
 20
105.8253712595
 30
0.0
 40
2.0
 41
0.0
 71
     1
 72
     1
  1
%%c
  7
SLDTEXTSTYLE0
 11
6.123233995736766E-17
 21
1.0
 31
0.0
 73
     1
 44
1.0
  0
MTEXT
  5
26A
330
261
100
AcDbEntity
  8
VERMASSUNG
100
AcDbMText
 10
9.871238287
 20
109.4330983388
 30
0.0
 40
2.0
 41
0.0
 71
     1
 72
     1
  1
40
  7
SLDTEXTSTYLE0
 11
6.123233995736766E-17
 21
1.0
 31
0.0
 73
     1
 44
1.0
  0
ENDBLK
  5
263
330
261
100
AcDbEntity
  8
0
100
AcDbBlockEnd
  0
BLOCK
  5
26C
330
26B
100
AcDbEntity
  8
0
100
AcDbBlockBegin
  2
SW_CENTERMARKSYMBOL_0
 70
     0
 10
0.0
 20
0.0
 30
0.0
  3
SW_CENTERMARKSYMBOL_0
  1

  0
LINE
  5
26E
330
26B
100
AcDbEntity
  8
VERMASSUNG
 62
     0
100
AcDbLine
 10
0.0
 20
0.0
 30
0.0
 11
0.0
 21
2.5
 31
0.0
  0
LINE
  5
26F
330
26B
100
AcDbEntity
  8
VERMASSUNG
 62
     0
100
AcDbLine
 10
0.0
 20
0.0
 30
0.0
 11
-2.5
 21
0.0
 31
0.0
  0
LINE
  5
270
330
26B
100
AcDbEntity
  8
VERMASSUNG
 62
     0
100
AcDbLine
 10
0.0
 20
0.0
 30
0.0
 11
0.0
 21
-2.5
 31
0.0
  0
LINE
  5
271
330
26B
100
AcDbEntity
  8
VERMASSUNG
 62
     0
100
AcDbLine
 10
0.0
 20
0.0
 30
0.0
 11
2.5
 21
0.0
 31
0.0
  0
LINE
  5
272
330
26B
100
AcDbEntity
  8
VERMASSUNG
 62
     0
100
AcDbLine
 10
0.0
 20
5.0
 30
0.0
 11
0.0
 21
34.0
 31
0.0
  0
LINE
  5
273
330
26B
100
AcDbEntity
  8
VERMASSUNG
 62
     0
100
AcDbLine
 10
-5.0
 20
0.0
 30
0.0
 11
-34.0
 21
0.0
 31
0.0
  0
LINE
  5
274
330
26B
100
AcDbEntity
  8
VERMASSUNG
 62
     0
100
AcDbLine
 10
0.0
 20
-5.0
 30
0.0
 11
0.0
 21
-34.0
 31
0.0
  0
LINE
  5
275
330
26B
100
AcDbEntity
  8
VERMASSUNG
 62
     0
100
AcDbLine
 10
5.0
 20
0.0
 30
0.0
 11
34.0
 21
0.0
 31
0.0
  0
ENDBLK
  5
26D
330
26B
100
AcDbEntity
  8
0
100
AcDbBlockEnd
  0
ENDSEC
  0
SECTION
  2
ENTITIES
  0
MTEXT
  5
4B
330
1F
100
AcDbEntity
  8
KOPF_DÜNN
100
AcDbMText
 10
13.8892156294
 20
23.8770940835
 30
0.0
 40
3.0
 41
0.0
 71
     1
 72
     1
  1
HA6.BDB.RQB.160
  7
SLDTEXTSTYLE0
 73
     1
 44
1.0
  0
MTEXT
  5
4C
330
1F
100
AcDbEntity
  8
VERMASSUNG
100
AcDbMText
 10
13.9329988022
 20
28.9162328764
 30
0.0
 40
3.0
 41
0.0
 71
     1
 72
     1
  1
Bohrstange_Boring bar
  7
SLDTEXTSTYLE0
 73
     1
 44
1.0
  0
MTEXT
  5
4D
330
1F
100
AcDbEntity
  8
VERMASSUNG
100
AcDbMText
 10
98.8601118557
 20
13.8584013384
 30
0.0
 40
2.0
 41
0.0
 71
     1
 72
     1
  1
Datum: 06.02.2009
  7
SLDTEXTSTYLE0
 73
     1
 44
1.0
  0
MTEXT
  5
4E
330
1F
100
AcDbEntity
  8
VERMASSUNG
100
AcDbMText
 10
13.933048693
 20
18.0701447943
 30
0.0
 40
2.0
 41
0.0
 71
     1
 72
     1
  1
DIN 69893 HSK 63 A ICTM / DC.. 11 T3..
  7
SLDTEXTSTYLE0
 73
     1
 44
1.0
  0
MTEXT
  5
4F
330
1F
100
AcDbEntity
  8
VERMASSUNG
100
AcDbMText
 10
13.9808475933
 20
13.9309618897
 30
0.0
 40
2.0
 41
0.0
 71
     1
 72
     1
  1
Gewicht: 1345g
  7
SLDTEXTSTYLE0
 73
     1
 44
1.0
  0
LINE
  5
50
330
1F
100
AcDbEntity
  8
0
  6
SLD-Durchgehend
 62
     7
370
    15
100
AcDbLine
 10
127.2474129188
 20
75.6264845786
 30
0.0
 11
131.8974128777
 21
75.6264845786
 31
0.0
  0
LINE
  5
51
330
1F
100
AcDbEntity
  8
0
  6
SLD-Durchgehend
 62
     7
370
    15
100
AcDbLine
 10
131.9254014494
 20
138.6264855919
 30
0.0
 11
127.2474129188
 21
138.6264855919
 31
0.0
  0
ARC
  5
52
330
1F
100
AcDbEntity
  8
0
  6
SLD-Durchgehend
 62
     7
370
    15
100
AcDbCircle
 10
127.2474129045
 20
75.9264850853
 30
0.0
 40
0.2999999999999972
100
AcDbArc
 50
180.0
 51
270.0
  0
ARC
  5
53
330
1F
100
AcDbEntity
  8
0
  6
SLD-Durchgehend
 62
     7
370
    15
100
AcDbCircle
 10
127.2474129045
 20
138.3264850853
 30
0.0
 40
0.2999999999999972
100
AcDbArc
 50
90.0
 51
180.0
  0
ARC
  5
54
330
1F
100
AcDbEntity
  8
0
  6
SLD-Durchgehend
 62
     7
370
    15
100
AcDbCircle
 10
126.4474129045
 20
82.5560542235
 30
0.0
 40
0.5999999999999943
100
AcDbArc
 50
33.5573097619
 51
90.0
  0
ARC
  5
55
330
1F
100
AcDbEntity
  8
0
  6
SLD-Durchgehend
 62
     7
370
    15
100
AcDbCircle
 10
126.4474129045
 20
131.696915947
 30
0.0
 40
0.6000000000000019
100
AcDbArc
 50
270.0
 51
326.4426902381
  0
LINE
  5
56
330
1F
100
AcDbEntity
  8
0
  6
SLD-Durchgehend
 62
     7
370
    15
100
AcDbLine
 10
113.7169903928
 20
130.7842689512
 30
0.0
 11
101.1474120284
 21
130.154530978
 31
0.0
  0
LINE
  5
57
330
1F
100
AcDbEntity
  8
0
  6
SLD-Durchgehend
 62
     7
370
    15
100
AcDbLine
 10
124.9474128095
 20
131.3469163088
 30
0.0
 11
122.1288034545
 21
131.2057035921
 31
0.0
  0
LINE
  5
58
330
1F
100
AcDbEntity
  8
0
  6
SLD-Durchgehend
 62
     7
370
    15
100
AcDbLine
 10
122.1290251093
 20
83.0472554026
 30
0.0
 11
124.9474128095
 21
82.9060538618
 31
0.0
  0
LINE
  5
59
330
1F
100
AcDbEntity
  8
0
  6
SLD-Durchgehend
 62
     7
370
    15
100
AcDbLine
 10
105.147412684
 20
83.8980390636
 30
0.0
 11
113.7176898161
 21
83.4686658291
 31
0.0
  0
LINE
  5
5A
330
1F
100
AcDbEntity
  8
0
  6
SLD-Durchgehend
 62
     7
370
    15
100
AcDbLine
 10
124.9474128095
 20
82.9060538618
 30
0.0
 11
125.8041257357
 21
83.1356099752
 31
0.0
  0
LINE
  5
5B
330
1F
100
AcDbEntity
  8
0
  6
SLD-Durchgehend
 62
     7
370
    15
100
AcDbLine
 10
125.8041257357
 20
131.1173601953
 30
0.0
 11
124.9474128095
 21
131.3469163088
 31
0.0
  0
ARC
  5
5C
330
1F
100
AcDbEntity
  8
0
  6
SLD-Durchgehend
 62
     7
370
    15
100
AcDbCircle
 10
125.959417105
 20
82.5560542235
 30
0.0
 40
0.6000000000000085
100
AcDbArc
 50
90.0
 51
105.0
  0
ARC
  5
5D
330
1F
100
AcDbEntity
  8
0
  6
SLD-Durchgehend
 62
     7
370
    15
100
AcDbCircle
 10
125.959417105
 20
131.696915947
 30
0.0
 40
0.6000000000000227
100
AcDbArc
 50
255.0
 51
270.0
  0
LINE
  5
5E
330
1F
100
AcDbEntity
  8
0
  6
SLD-Durchgehend
 62
     7
370
    15
100
AcDbLine
 10
125.9594171394
 20
83.1560543684
 30
0.0
 11
126.4474128808
 21
83.1560543684
 31
0.0
  0
LINE
  5
5F
330
1F
100
AcDbEntity
  8
0
  6
SLD-Durchgehend
 62
     7
370
    15
100
AcDbLine
 10
126.4474128808
 20
131.0969158021
 30
0.0
 11
125.9594171394
 21
131.0969158021
 31
0.0
  0
ARC
  5
60
330
1F
100
AcDbEntity
  8
0
  6
SLD-Durchgehend
 62
     7
370
    15
100
AcDbCircle
 10
155.8974129045
 20
88.1264850853
 30
0.0
 40
3.0
100
AcDbArc
 50
90.0
 51
180.0
  0
ARC
  5
61
330
1F
100
AcDbEntity
  8
0
  6
SLD-Durchgehend
 62
     7
370
    15
100
AcDbCircle
 10
155.8974129045
 20
126.1264850853
 30
0.0
 40
3.0
100
AcDbArc
 50
180.0
 51
270.0
  0
LINE
  5
62
330
1F
100
AcDbEntity
  8
0
  6
SLD-Durchgehend
 62
     7
370
    15
100
AcDbLine
 10
155.8974130863
 20
91.1264843253
 30
0.0
 11
259.9474142158
 21
91.1264843253
 31
0.0
  0
LINE
  5
63
330
1F
100
AcDbEntity
  8
0
  6
SLD-Durchgehend
 62
     7
370
    15
100
AcDbLine
 10
259.9474142158
 20
123.1264858452
 30
0.0
 11
155.8974130863
 21
123.1264858452
 31
0.0
  0
LINE
  5
64
330
1F
100
AcDbEntity
  8
0
  6
SLD-Durchgehend
 62
     7
370
    15
100
AcDbLine
 10
96.1974120552
 20
86.3139848171
 30
0.0
 11
103.7474131996
 21
86.3139848171
 31
0.0
  0
ARC
  5
65
330
1F
100
AcDbEntity
  8
0
  6
SLD-Durchgehend
 62
     7
370
    15
100
AcDbCircle
 10
103.7474129045
 20
84.9139850853
 30
0.0
 40
1.400000000000007
100
AcDbArc
 50
37.6443616934
 51
90.0
  0
LINE
  5
66
330
1F
100
AcDbEntity
  8
0
  6
SLD-Durchgehend
 62
     7
370
    15
100
AcDbLine
 10
96.1885756666
 20
127.9876488207
 30
0.0
 11
95.057314899
 21
126.8563861904
 31
0.0
  0
LINE
  5
67
330
1F
100
AcDbEntity
  8
0
  6
SLD-Durchgehend
 62
     7
370
    15
100
AcDbLine
 10
94.9744979704
 20
87.5368989018
 30
0.0
 11
96.1974120552
 21
86.3139848171
 31
0.0
  0
ARC
  5
68
330
1F
100
AcDbEntity
  8
0
  6
SLD-Durchgehend
 62
     7
370
    15
100
AcDbCircle
 10
99.7474129045
 20
129.3964850853
 30
0.0
 40
1.400000000000008
100
AcDbArc
 50
270.0
 51
301.7485287426
  0
LINE
  5
69
330
1F
100
AcDbEntity
  8
0
  6
SLD-Durchgehend
 62
     7
370
    15
100
AcDbLine
 10
99.7474125439
 20
127.9964852093
 30
0.0
 11
96.3216784263
 21
127.9964852093
 31
0.0
  0
LINE
  5
6A
330
1F
100
AcDbEntity
  8
0
  6
SLD-Durchgehend
 62
     7
370
    15
100
AcDbLine
 10
260.7598255241
 20
123.9388915656
 30
0.0
 11
259.9474142158
 21
123.1264858452
 31
0.0
  0
LINE
  5
6B
330
1F
100
AcDbEntity
  8
0
  6
SLD-Durchgehend
 62
     7
370
    15
100
AcDbLine
 10
259.9474142158
 20
91.1264843253
 30
0.0
 11
260.4474077785
 21
90.6264851747
 31
0.0
  0
LINE
  5
6C
330
1F
100
AcDbEntity
  8
0
  6
SLD-Durchgehend
 62
     7
370
    15
100
AcDbLine
 10
260.4474077785
 20
90.6264851747
 30
0.0
 11
274.532909211
 21
90.6264851747
 31
0.0
  0
LINE
  5
6D
330
1F
100
AcDbEntity
  8
0
  6
SLD-Durchgehend
 62
     7
370
    15
100
AcDbLine
 10
280.6018839443
 20
120.8679838983
 30
0.0
 11
280.6018839443
 21
120.7738951726
 31
0.0
  0
LINE
  5
6E
330
1F
100
AcDbEntity
  8
0
  6
SLD-Durchgehend
 62
     7
370
    15
100
AcDbLine
 10
278.6977837646
 20
121.2023119388
 30
0.0
 11
278.6977837646
 21
121.2951219586
 31
0.0
  0
LINE
  5
6F
330
1F
100
AcDbEntity
  8
0
  6
SLD-Durchgehend
 62
     7
370
    15
100
AcDbLine
 10
280.8498392666
 20
122.6385938881
 30
0.0
 11
280.8498392666
 21
122.5458434729
 31
0.0
  0
LINE
  5
70
330
1F
100
AcDbEntity
  8
0
  6
SLD-Durchgehend
 62
     7
370
    15
100
AcDbLine
 10
278.9457390869
 20
122.9742611704
 30
0.0
 11
278.9457390869
 21
123.0683657286
 31
0.0
  0
LINE
  5
71
330
1F
100
AcDbEntity
  8
0
  6
SLD-Durchgehend
 62
     7
370
    15
100
AcDbLine
 10
277.1511326397
 20
121.9534589855
 30
0.0
 11
277.1511326397
 21
121.9029161093
 31
0.0
  0
LINE
  5
72
330
1F
100
AcDbEntity
  8
0
  6
SLD-Durchgehend
 62
     7
370
    15
100
AcDbLine
 10
282.4011246527
 20
121.9029161093
 30
0.0
 11
282.4011246527
 21
121.9534589855
 31
0.0
  0
LINE
  5
73
330
1F
100
AcDbEntity
  8
0
  6
SLD-Durchgehend
 62
     7
370
    15
100
AcDbLine
 10
148.3393448258
 20
76.9395674525
 30
0.0
 11
148.3393448258
 21
126.9764858244
 31
0.0
  0
LINE
  5
74
330
1F
100
AcDbEntity
  8
0
  6
SLD-Durchgehend
 62
     7
370
    15
100
AcDbLine
 10
148.3393448258
 20
76.9395674525
 30
0.0
 11
146.8574131692
 21
79.6286477653
 31
0.0
  0
LINE
  5
75
330
1F
100
AcDbEntity
  8
0
  6
SLD-Durchgehend
 62
     7
370
    15
100
AcDbLine
 10
146.8574131692
 20
79.6286477653
 30
0.0
 11
146.8574131692
 21
126.9764858244
 31
0.0
  0
LINE
  5
76
330
1F
100
AcDbEntity
  8
0
  6
SLD-Durchgehend
 62
     7
370
    15
100
AcDbLine
 10
146.8574131692
 20
126.9764858244
 30
0.0
 11
148.3393448258
 21
126.9764858244
 31
0.0
  0
LINE
  5
77
330
1F
100
AcDbEntity
  8
0
  6
SLD-Durchgehend
 62
     7
370
    15
100
AcDbLine
 10
152.8974125946
 20
77.5662078468
 30
0.0
 11
152.8974125946
 21
126.9764858244
 31
0.0
  0
ARC
  5
78
330
1F
100
AcDbEntity
  8
0
  6
SLD-Durchgehend
 62
     7
370
    15
100
AcDbCircle
 10
152.2849946778
 20
77.5520237077
 30
0.0
 40
0.6125821533107684
100
AcDbArc
 50
271.1616423437
 51
1.3267835803
  0
LINE
  5
79
330
1F
100
AcDbEntity
  8
0
  6
SLD-Durchgehend
 62
     7
370
    15
100
AcDbLine
 10
152.2974136138
 20
126.9764858244
 30
0.0
 11
152.8974125946
 21
126.9764858244
 31
0.0
  0
LINE
  5
7A
330
1F
100
AcDbEntity
  8
0
  6
SLD-Durchgehend
 62
     7
370
    15
100
AcDbLine
 10
152.2974136138
 20
76.9395674525
 30
0.0
 11
148.3393448258
 21
76.9395674525
 31
0.0
  0
LINE
  5
7B
330
1F
100
AcDbEntity
  8
0
  6
SLD-Durchgehend
 62
     7
370
    15
100
AcDbLine
 10
148.3393448258
 20
126.9764858244
 30
0.0
 11
152.2974136138
 21
126.9764858244
 31
0.0
  0
LINE
  5
7C
330
1F
100
AcDbEntity
  8
0
  6
SLD-Durchgehend
 62
     7
370
    15
100
AcDbLine
 10
143.0374129528
 20
79.6286477653
 30
0.0
 11
143.0374129528
 21
126.9764858244
 31
0.0
  0
LINE
  5
7D
330
1F
100
AcDbEntity
  8
0
  6
SLD-Durchgehend
 62
     7
370
    15
100
AcDbLine
 10
143.0374129528
 20
79.6286477653
 30
0.0
 11
141.5554803649
 21
76.9395674525
 31
0.0
  0
LINE
  5
7E
330
1F
100
AcDbEntity
  8
0
  6
SLD-Durchgehend
 62
     7
370
    15
100
AcDbLine
 10
141.5554803649
 20
76.9395674525
 30
0.0
 11
141.5554803649
 21
126.9764858244
 31
0.0
  0
LINE
  5
7F
330
1F
100
AcDbEntity
  8
0
  6
SLD-Durchgehend
 62
     7
370
    15
100
AcDbLine
 10
141.5554803649
 20
126.9764858244
 30
0.0
 11
143.0374129528
 21
126.9764858244
 31
0.0
  0
LINE
  5
80
330
1F
100
AcDbEntity
  8
0
  6
SLD-Durchgehend
 62
     7
370
    15
100
AcDbLine
 10
131.8974128777
 20
126.9764858244
 30
0.0
 11
141.5554803649
 21
126.9764858244
 31
0.0
  0
LINE
  5
81
330
1F
100
AcDbEntity
  8
0
  6
SLD-Durchgehend
 62
     7
370
    15
100
AcDbLine
 10
141.5554803649
 20
76.9395674525
 30
0.0
 11
139.8974132577
 21
76.9395674525
 31
0.0
  0
ARC
  5
82
330
1F
100
AcDbEntity
  8
0
  6
SLD-Durchgehend
 62
     7
370
    15
100
AcDbCircle
 10
139.2376704819
 20
55.6912548954
 30
0.0
 40
21.25855232734716
100
AcDbArc
 50
88.2215841219
 51
110.1991894934
  0
LINE
  5
83
330
1F
100
AcDbEntity
  8
0
  6
SLD-Durchgehend
 62
     7
370
    15
100
AcDbLine
 10
131.8974128777
 20
75.6423617659
 30
0.0
 11
131.8974128777
 21
75.6264845786
 31
0.0
  0
LWPOLYLINE
  5
84
330
1F
100
AcDbEntity
  8
0
  6
SLD-Durchgehend
 62
     7
370
    15
100
AcDbPolyline
 90
       11
 70
   128
 43
0.0
 10
139.8974132577
 20
137.5936805216
 10
138.5978047589
 20
137.6213855056
 10
137.2981971914
 20
137.7043514458
 10
136.108775329
 20
137.8283384202
 10
134.9928981477
 20
137.9859126119
 10
134.0204800332
 20
138.1553164629
 10
133.1872606503
 20
138.3238597719
 10
132.5539636279
 20
138.4661751745
 10
132.1165502856
 20
138.5715450106
 10
131.9167424778
 20
138.6215831099
 10
131.9254014494
 20
138.6193889139
  0
LINE
  5
85
330
1F
100
AcDbEntity
  8
0
  6
SLD-Durchgehend
 62
     7
370
    15
100
AcDbLine
 10
141.5554803649
 20
137.5936805216
 30
0.0
 11
139.8974132577
 21
137.5936805216
 31
0.0
  0
LINE
  5
86
330
1F
100
AcDbEntity
  8
0
  6
SLD-Durchgehend
 62
     7
370
    15
100
AcDbLine
 10
141.5554803649
 20
131.5851747004
 30
0.0
 11
141.5554803649
 21
137.5936805216
 31
0.0
  0
LINE
  5
87
330
1F
100
AcDbEntity
  8
0
  6
SLD-Durchgehend
 62
     7
370
    15
100
AcDbLine
 10
139.1430335904
 20
131.5851747004
 30
0.0
 11
141.5554803649
 21
131.5851747004
 31
0.0
  0
ARC
  5
88
330
1F
100
AcDbEntity
  8
0
  6
SLD-Durchgehend
 62
     7
370
    15
100
AcDbCircle
 10
138.7732202073
 20
124.1665813119
 30
0.0
 40
7.42780518068092
100
AcDbArc
 50
87.1461947163
 51
157.7718644507
  0
LINE
  5
89
330
1F
100
AcDbEntity
  8
0
  6
SLD-Durchgehend
 62
     7
370
    15
100
AcDbLine
 10
126.9474129045
 20
75.9264859317
 30
0.0
 11
126.9474129045
 21
138.3264842389
 31
0.0
  0
ARC
  5
8A
330
1F
100
AcDbEntity
  8
0
  6
SLD-Durchgehend
 62
     7
370
    15
100
AcDbCircle
 10
143.8773439595
 20
134.2384916704
 30
0.0
 40
0.8399658136910594
100
AcDbArc
 50
179.4783948307
 51
237.9582309184
  0
LINE
  5
8B
330
1F
100
AcDbEntity
  8
0
  6
SLD-Durchgehend
 62
     7
370
    15
100
AcDbLine
 10
143.8374134565
 20
133.5264849422
 30
0.0
 11
143.4317107165
 21
133.5264849422
 31
0.0
  0
LINE
  5
8C
330
1F
100
AcDbEntity
  8
0
  6
SLD-Durchgehend
 62
     7
370
    15
100
AcDbLine
 10
143.8374134565
 20
80.7264852283
 30
0.0
 11
143.1350882018
 21
80.7264852283
 31
0.0
  0
LINE
  5
8D
330
1F
100
AcDbEntity
  8
0
  6
SLD-Durchgehend
 62
     7
370
    15
100
AcDbLine
 10
143.0374129528
 20
127.2623515634
 30
0.0
 11
143.0635607654
 21
126.9764858244
 31
0.0
  0
LINE
  5
8E
330
1F
100
AcDbEntity
  8
0
  6
SLD-Durchgehend
 62
     7
370
    15
100
AcDbLine
 10
146.7597379202
 20
80.7264852283
 30
0.0
 11
146.0574126655
 21
80.7264852283
 31
0.0
  0
LINE
  5
8F
330
1F
100
AcDbEntity
  8
0
  6
SLD-Durchgehend
 62
     7
370
    15
100
AcDbLine
 10
146.4631154055
 20
133.5264849422
 30
0.0
 11
146.0574126655
 21
133.5264849422
 31
0.0
  0
ARC
  5
90
330
1F
100
AcDbEntity
  8
0
  6
SLD-Durchgehend
 62
     7
370
    15
100
AcDbCircle
 10
146.0189696484
 20
134.2376766776
 30
0.0
 40
0.8384862181329132
100
AcDbArc
 50
301.9851556421
 51
0.5782186088
  0
LWPOLYLINE
  5
91
330
1F
100
AcDbEntity
  8
0
  6
SLD-Durchgehend
 62
     7
370
    15
100
AcDbPolyline
 90
        3
 70
   128
 43
0.0
 10
146.8312653566
 20
126.9764858244
 10
146.8513614351
 20
127.1241991726
 10
146.8574131692
 20
127.2623515634
  0
LINE
  5
92
330
1F
100
AcDbEntity
  8
0
  6
SLD-Durchgehend
 62
     7
370
    15
100
AcDbLine
 10
146.0574126655
 20
133.5264849422
 30
0.0
 11
143.8374134565
 21
133.5264849422
 31
0.0
  0
LINE
  5
93
330
1F
100
AcDbEntity
  8
0
  6
SLD-Durchgehend
 62
     7
370
    15
100
AcDbLine
 10
146.0574126655
 20
80.7264852283
 30
0.0
 11
143.8374134565
 21
80.7264852283
 31
0.0
  0
LINE
  5
94
330
1F
100
AcDbEntity
  8
0
  6
SLD-Durchgehend
 62
     7
370
    15
100
AcDbLine
 10
105.147412684
 20
83.8980390636
 30
0.0
 11
105.147412684
 21
85.1813363788
 31
0.0
  0
LWPOLYLINE
  5
95
330
1F
100
AcDbEntity
  8
0
  6
SLD-Durchgehend
 62
     7
370
    15
100
AcDbPolyline
 90
        5
 70
   128
 43
0.0
 10
104.5258088822
 20
86.2621138749
 10
104.5806526059
 20
86.1479728428
 10
104.8711414302
 20
85.7492382584
 10
105.1015711242
 20
85.3824349997
 10
105.147412684
 20
85.1813363788
  0
LWPOLYLINE
  5
96
330
1F
100
AcDbEntity
  8
0
  6
SLD-Durchgehend
 62
     7
370
    15
100
AcDbPolyline
 90
        7
 70
   128
 43
0.0
 10
103.7474131996
 20
86.9803964106
 10
103.8271698022
 20
86.9818697629
 10
103.9059690053
 20
86.9699935375
 10
104.0007888192
 20
86.9376542924
 10
104.1293728018
 20
86.8599577753
 10
104.3651091719
 20
86.5918672589
 10
104.5258088822
 20
86.2621138749
  0
LWPOLYLINE
  5
97
330
1F
100
AcDbEntity
  8
0
  6
SLD-Durchgehend
 62
     7
370
    15
100
AcDbPolyline
 90
        3
 70
   128
 43
0.0
 10
99.8338113392
 20
86.484202644
 10
100.542329889
 20
86.5935641287
 10
103.7474131996
 20
86.9803964106
  0
ARC
  5
98
330
1F
100
AcDbEntity
  8
0
  6
SLD-Durchgehend
 62
     7
370
    15
100
AcDbCircle
 10
96.6837171947
 20
115.871699925
 30
0.0
 40
29.55584696060028
100
AcDbArc
 50
269.0572258187
 51
276.1182671045
  0
LINE
  5
99
330
1F
100
AcDbEntity
  8
0
  6
SLD-Durchgehend
 62
     7
370
    15
100
AcDbLine
 10
96.1873686725
 20
86.3316687701
 30
0.0
 11
96.1974120552
 21
86.3198540119
 31
0.0
  0
LINE
  5
9A
330
1F
100
AcDbEntity
  8
0
  6
SLD-Durchgehend
 62
     7
370
    15
100
AcDbLine
 10
96.1974120552
 20
127.996423742
 30
0.0
 11
96.1873686725
 21
127.9864381013
 31
0.0
  0
LINE
  5
9B
330
1F
100
AcDbEntity
  8
0
  6
SLD-Durchgehend
 62
     7
370
    15
100
AcDbLine
 10
99.7474125439
 20
127.9495726285
 30
0.0
 11
96.1974120552
 21
127.996423742
 31
0.0
  0
ARC
  5
9C
330
1F
100
AcDbEntity
  8
0
  6
SLD-Durchgehend
 62
     7
370
    15
100
AcDbCircle
 10
99.6894881463
 20
129.4993309728
 30
0.0
 40
1.550840469419303
100
AcDbArc
 50
272.1405139456
 51
340.0660547734
  0
LINE
  5
9D
330
1F
100
AcDbEntity
  8
0
  6
SLD-Durchgehend
 62
     7
370
    15
100
AcDbLine
 10
101.1474120284
 20
128.9705927429
 30
0.0
 11
101.1474120284
 21
130.154530978
 31
0.0
  0
LINE
  5
9E
330
1F
100
AcDbEntity
  8
0
  6
SLD-Durchgehend
 62
     7
370
    15
100
AcDbLine
 10
124.9474128095
 20
82.9060538618
 30
0.0
 11
124.9474128095
 21
131.3469163088
 31
0.0
  0
LWPOLYLINE
  5
9F
330
1F
100
AcDbEntity
  8
0
  6
SLD-Durchgehend
 62
     7
370
    15
100
AcDbPolyline
 90
       12
 70
   128
 43
0.0
 10
113.7177140305
 20
83.4691463915
 10
113.7149992252
 20
83.4688036648
 10
114.0455973187
 20
83.5104319213
 10
114.9612513224
 20
83.6034021286
 10
116.3336603755
 20
83.671669936
 10
117.1293665508
 20
83.6737989394
 10
117.9467157314
 20
83.646300709
 10
118.7603284458
 20
83.5890150575
 10
119.5541705789
 20
83.5048048703
 10
120.9132789487
 20
83.2990347353
 10
121.8140578682
 20
83.1182612983
 10
122.1290493237
 20
83.0477396903
  0
LWPOLYLINE
  5
A0
330
1F
100
AcDbEntity
  8
0
  6
SLD-Durchgehend
 62
     7
370
    15
100
AcDbPolyline
 90
       12
 70
   128
 43
0.0
 10
122.1288304629
 20
131.2051652876
 10
121.8112792673
 20
131.1344518272
 10
120.9078051003
 20
130.9529240189
 10
119.5524569454
 20
130.7475673912
 10
118.7617515067
 20
130.6638414917
 10
117.9481834957
 20
130.6067234782
 10
117.1304887945
 20
130.5792829899
 10
116.3335225398
 20
130.5814306197
 10
114.959001247
 20
130.6497282294
 10
114.0439591223
 20
130.7427021621
 10
113.7148790846
 20
130.7841609178
 10
113.7170099506
 20
130.7838908342
  0
LWPOLYLINE
  5
A1
330
1F
100
AcDbEntity
  8
0
  6
SLD-Durchgehend
 62
     7
370
    15
100
AcDbPolyline
 90
        3
 70
   128
 43
0.0
 10
95.0474130774
 20
87.4733249603
 10
95.0667361582
 20
87.4802651761
 10
95.0776922369
 20
87.5363978503
  0
LINE
  5
A2
330
1F
100
AcDbEntity
  8
0
  6
SLD-Durchgehend
 62
     7
370
    15
100
AcDbLine
 10
95.0474130774
 20
87.4733249603
 30
0.0
 11
95.0474130774
 21
126.8171626089
 31
0.0
  0
LWPOLYLINE
  5
A3
330
1F
100
AcDbEntity
  8
0
  6
SLD-Durchgehend
 62
     7
370
    15
100
AcDbPolyline
 90
        3
 70
   128
 43
0.0
 10
95.1100761855
 20
126.8010376898
 10
95.068569001
 20
126.8635629622
 10
95.0474130774
 20
126.8171626089
  0
LWPOLYLINE
  5
A4
330
1F
100
AcDbEntity
  8
0
  6
SLD-Durchgehend
 62
     7
370
    15
100
AcDbPolyline
 90
       12
 70
   128
 43
0.0
 10
95.8715665007
 20
127.5166044889
 10
95.8057070935
 20
127.3318002877
 10
95.6912736261
 20
127.068304917
 10
95.5619389975
 20
126.8351278214
 10
95.4873922134
 20
126.728541678
 10
95.448645469
 20
126.6815415529
 10
95.4045939112
 20
126.6358024386
 10
95.3656422758
 20
126.6030236093
 10
95.3290226722
 20
126.5798429904
 10
95.2827433908
 20
126.5634908287
 10
95.2023031974
 20
126.5855519978
 10
95.1100761855
 20
126.8010376898
  0
LINE
  5
A5
330
1F
100
AcDbEntity
  8
0
  6
SLD-Durchgehend
 62
     7
370
    15
100
AcDbLine
 10
96.1873686725
 20
127.9864381013
 30
0.0
 11
95.8715665007
 21
127.5166044889
 31
0.0
  0
LINE
  5
A6
330
1F
100
AcDbEntity
  8
0
  6
SLD-Durchgehend
 62
     7
370
    15
100
AcDbLine
 10
95.9863222057
 20
86.6825631765
 30
0.0
 11
96.1873686725
 21
86.3316687701
 31
0.0
  0
LWPOLYLINE
  5
A7
330
1F
100
AcDbEntity
  8
0
  6
SLD-Durchgehend
 62
     7
370
    15
100
AcDbPolyline
 90
       12
 70
   128
 43
0.0
 10
95.0776922369
 20
87.5363978503
 10
95.1624351406
 20
87.8619472442
 10
95.2134790683
 20
87.9079974202
 10
95.2805268431
 20
87.9136542735
 10
95.3150155807
 20
87.9013868926
 10
95.3597972954
 20
87.874367362
 10
95.3971545065
 20
87.8439317403
 10
95.4356144035
 20
87.8062206266
 10
95.4855705464
 20
87.7487319467
 10
95.5598863626
 20
87.6473835615
 10
95.7202116812
 20
87.3693036793
 10
95.9863222057
 20
86.6825631765
  0
ARC
  5
A8
330
1F
100
AcDbEntity
  8
0
  6
SLD-Durchgehend
 62
     7
370
    15
100
AcDbCircle
 10
152.2893061153
 20
136.9854981353
 30
0.0
 40
0.6082364232875822
100
AcDbArc
 50
358.8156305045
 51
89.2362522385
  0
ARC
  5
A9
330
1F
100
AcDbEntity
  8
0
  6
SLD-Durchgehend
 62
     7
370
    15
100
AcDbCircle
 10
152.214384432
 20
130.9008118082
 30
0.0
 40
0.6893811813572873
100
AcDbArc
 50
352.2154757984
 51
83.0824936921
  0
LINE
  5
AA
330
1F
100
AcDbEntity
  8
0
  6
SLD-Durchgehend
 62
     7
370
    15
100
AcDbLine
 10
152.8974125946
 20
130.8074365316
 30
0.0
 11
152.8974125946
 21
136.972926086
 31
0.0
  0
LINE
  5
AB
330
1F
100
AcDbEntity
  8
0
  6
SLD-Durchgehend
 62
     7
370
    15
100
AcDbLine
 10
146.8574131692
 20
127.2623515634
 30
0.0
 11
146.8574131692
 21
128.1766290722
 31
0.0
  0
LWPOLYLINE
  5
AC
330
1F
100
AcDbEntity
  8
0
  6
SLD-Durchgehend
 62
     7
370
    15
100
AcDbPolyline
 90
        3
 70
   128
 43
0.0
 10
146.8574131692
 20
128.1766290722
 10
147.9838608617
 20
130.7869250832
 10
148.3393448258
 20
131.5851747004
  0
LINE
  5
AD
330
1F
100
AcDbEntity
  8
0
  6
SLD-Durchgehend
 62
     7
370
    15
100
AcDbLine
 10
148.3393448258
 20
131.5851747004
 30
0.0
 11
152.2974136138
 21
131.5851747004
 31
0.0
  0
LINE
  5
AE
330
1F
100
AcDbEntity
  8
0
  6
SLD-Durchgehend
 62
     7
370
    15
100
AcDbLine
 10
152.8974125946
 20
130.8074365316
 30
0.0
 11
152.8974125946
 21
126.9764858244
 31
0.0
  0
LWPOLYLINE
  5
AF
330
1F
100
AcDbEntity
  8
0
  6
SLD-Durchgehend
 62
     7
370
    15
100
AcDbPolyline
 90
        3
 70
   128
 43
0.0
 10
143.0374129528
 20
134.9317184595
 10
141.5634841511
 20
137.5793474672
 10
141.5554803649
 20
137.5936805216
  0
LWPOLYLINE
  5
B0
330
1F
100
AcDbEntity
  8
0
  6
SLD-Durchgehend
 62
     7
370
    15
100
AcDbPolyline
 90
        3
 70
   128
 43
0.0
 10
141.5554803649
 20
131.5851747004
 10
141.910964329
 20
130.7869250832
 10
143.0374129528
 20
128.1766290722
  0
LINE
  5
B1
330
1F
100
AcDbEntity
  8
0
  6
SLD-Durchgehend
 62
     7
370
    15
100
AcDbLine
 10
143.0374129528
 20
128.1766290722
 30
0.0
 11
143.0374129528
 21
134.9317184595
 31
0.0
  0
LINE
  5
B2
330
1F
100
AcDbEntity
  8
0
  6
SLD-Durchgehend
 62
     7
370
    15
100
AcDbLine
 10
152.2974136138
 20
137.5936805216
 30
0.0
 11
148.3393448258
 21
137.5936805216
 31
0.0
  0
LINE
  5
B3
330
1F
100
AcDbEntity
  8
0
  6
SLD-Durchgehend
 62
     7
370
    15
100
AcDbLine
 10
148.3393448258
 20
131.5851747004
 30
0.0
 11
148.3393448258
 21
137.5936805216
 31
0.0
  0
LINE
  5
B4
330
1F
100
AcDbEntity
  8
0
  6
SLD-Durchgehend
 62
     7
370
    15
100
AcDbLine
 10
143.0374129528
 20
128.1766290722
 30
0.0
 11
143.0374129528
 21
127.2623515634
 31
0.0
  0
LWPOLYLINE
  5
B5
330
1F
100
AcDbEntity
  8
0
  6
SLD-Durchgehend
 62
     7
370
    15
100
AcDbPolyline
 90
        3
 70
   128
 43
0.0
 10
148.3393448258
 20
137.5936805216
 10
148.3313410396
 20
137.5793474672
 10
146.8574131692
 20
134.9317184595
  0
LINE
  5
B6
330
1F
100
AcDbEntity
  8
0
  6
SLD-Durchgehend
 62
     7
370
    15
100
AcDbLine
 10
146.8574131692
 20
128.1766290722
 30
0.0
 11
146.8574131692
 21
134.9317184595
 31
0.0
  0
ELLIPSE
  5
B7
330
1F
100
AcDbEntity
  8
0
  6
SLD-Durchgehend
 62
     7
370
    15
100
AcDbEllipse
 10
259.2782343446
 20
107.1264850853
 30
0.0
 11
-0.3220561513869598
 21
15.99976859320064
 31
0.0
210
0.0
220
0.0
230
1.0
 40
0.2671959542
 41
0.1426643238695636
 42
2.848545425119148
  0
ARC
  5
B8
330
1F
100
AcDbEntity
  8
0
  6
SLD-Durchgehend
 62
     7
370
    15
100
AcDbCircle
 10
259.9165708966
 20
94.3574429966
 30
0.0
 40
3.011957769432224
100
AcDbArc
 50
238.695943382
 51
270.5867356181
  0
LINE
  5
B9
330
1F
100
AcDbEntity
  8
0
  6
SLD-Durchgehend
 62
     7
370
    15
100
AcDbLine
 10
259.9474142158
 20
91.3456431536
 30
0.0
 11
259.9474142158
 21
91.1264843253
 31
0.0
  0
LINE
  5
BA
330
1F
100
AcDbEntity
  8
0
  6
SLD-Durchgehend
 62
     7
370
    15
100
AcDbLine
 10
259.9474142158
 20
123.1264858452
 30
0.0
 11
259.9474142158
 21
123.1210450588
 31
0.0
  0
ARC
  5
BB
330
1F
100
AcDbEntity
  8
0
  6
SLD-Durchgehend
 62
     7
370
    15
100
AcDbCircle
 10
259.5812098199
 20
118.9737457299
 30
0.0
 40
4.163435766651054
100
AcDbArc
 50
84.953899483
 51
107.1773738199
  0
ELLIPSE
  5
BC
330
1F
100
AcDbEntity
  8
0
  6
SLD-Durchgehend
 62
     7
370
    15
100
AcDbEllipse
 10
257.0241114486
 20
115.9955810032
 30
0.0
 11
0.08858572008301736
 21
2.327551996844662
 31
0.0
210
0.0
220
0.0
230
1.0
 40
0.2575917467
 41
0.0
 42
6.283185307179586
  0
LINE
  5
BD
330
1F
100
AcDbEntity
  8
0
  6
SLD-Durchgehend
 62
     7
370
    15
100
AcDbLine
 10
96.1974120552
 20
86.3139848171
 30
0.0
 11
96.1974120552
 21
86.3198540119
 31
0.0
  0
LWPOLYLINE
  5
BE
330
1F
100
AcDbEntity
  8
0
  6
SLD-Durchgehend
 62
     7
370
    15
100
AcDbPolyline
 90
        3
 70
   128
 43
0.0
 10
260.4474077785
 20
90.8151003478
 10
259.9876324499
 20
91.3022062687
 10
259.9474142158
 20
91.3456431536
  0
LINE
  5
BF
330
1F
100
AcDbEntity
  8
0
  6
SLD-Durchgehend
 62
     7
370
    15
100
AcDbLine
 10
259.9474142158
 20
123.1210450588
 30
0.0
 11
260.775710162
 21
123.9544874934
 31
0.0
  0
ELLIPSE
  5
C0
330
1F
100
AcDbEntity
  8
0
  6
SLD-Durchgehend
 62
     7
370
    15
100
AcDbEllipse
 10
261.2493938685
 20
124.5239780554
 30
0.0
 11
3.000000000000057
 21
0.0
 31
0.0
210
0.0
220
0.0
230
1.0
 40
0.1922419376
 41
4.553828753296703
 42
4.712388980384692
  0
LINE
  5
C1
330
1F
100
AcDbEntity
  8
0
  6
SLD-Durchgehend
 62
     7
370
    15
100
AcDbLine
 10
261.249388274
 20
90.798947489
 30
0.0
 11
260.4474077785
 21
90.8151003478
 31
0.0
  0
LINE
  5
C2
330
1F
100
AcDbEntity
  8
0
  6
SLD-Durchgehend
 62
     7
370
    15
100
AcDbLine
 10
260.4474077785
 20
90.8151003478
 30
0.0
 11
260.4474077785
 21
90.6264851747
 31
0.0
  0
LINE
  5
C3
330
1F
100
AcDbEntity
  8
0
  6
SLD-Durchgehend
 62
     7
370
    15
100
AcDbLine
 10
274.841944393
 20
90.798947489
 30
0.0
 11
261.249388274
 21
90.798947489
 31
0.0
  0
ELLIPSE
  5
C4
330
1F
100
AcDbEntity
  8
0
  6
SLD-Durchgehend
 62
     7
370
    15
100
AcDbEllipse
 10
279.8708401881
 20
107.1264850853
 30
0.0
 11
5.390524936199256
 21
16.49183944377623
 31
0.0
210
0.0
220
0.0
230
1.0
 40
0.0962569477
 41
3.17304483756963
 42
3.317754824184852
  0
LINE
  5
C5
330
1F
100
AcDbEntity
  8
0
  6
SLD-Durchgehend
 62
     7
370
    15
100
AcDbLine
 10
261.249388274
 20
123.9472529797
 30
0.0
 11
266.6311363542
 21
123.9472529797
 31
0.0
  0
ELLIPSE
  5
C6
330
1F
100
AcDbEntity
  8
0
  6
SLD-Durchgehend
 62
     7
370
    15
100
AcDbEllipse
 10
266.6311358981
 20
150.0786973787
 30
0.0
 11
0.0
 21
26.13144513619375
 31
0.0
210
0.0
220
0.0
230
1.0
 40
0.9949698482
 41
3.141592653589789
 42
3.444886158282745
  0
LINE
  5
C7
330
1F
100
AcDbEntity
  8
0
  6
SLD-Durchgehend
 62
     7
370
    15
100
AcDbLine
 10
274.3964294756
 20
125.1399437843
 30
0.0
 11
276.0056654776
 21
125.6460971145
 31
0.0
  0
LINE
  5
C8
330
1F
100
AcDbEntity
  8
0
  6
SLD-Durchgehend
 62
     7
370
    15
100
AcDbLine
 10
273.6932138765
 20
118.3298216147
 30
0.0
 11
271.4931617344
 21
117.6378349719
 31
0.0
  0
ARC
  5
C9
330
1F
100
AcDbEntity
  8
0
  6
SLD-Durchgehend
 62
     7
370
    15
100
AcDbCircle
 10
271.9468376948
 20
116.1943671735
 30
0.0
 40
1.513083329535985
100
AcDbArc
 50
107.4477177354
 51
287.6321402705
  0
LINE
  5
CA
330
1F
100
AcDbEntity
  8
0
  6
SLD-Durchgehend
 62
     7
370
    15
100
AcDbLine
 10
272.4051575029
 20
114.7523671334
 30
0.0
 11
273.1987039411
 21
115.0019601864
 31
0.0
  0
LINE
  5
CB
330
1F
100
AcDbEntity
  8
0
  6
SLD-Durchgehend
 62
     7
370
    15
100
AcDbLine
 10
283.5175941551
 20
118.2475699989
 30
0.0
 11
274.841944393
 21
90.798947489
 31
0.0
  0
ARC
  5
CC
330
1F
100
AcDbEntity
  8
0
  6
SLD-Durchgehend
 62
     7
370
    15
100
AcDbCircle
 10
271.9472486543
 20
116.0431282946
 30
0.0
 40
1.247232325235622
100
AcDbArc
 50
107.4483852336
 51
287.6318015321
  0
LINE
  5
CD
330
1F
100
AcDbEntity
  8
0
  6
SLD-Durchgehend
 62
     7
370
    15
100
AcDbLine
 10
272.3250339592
 20
114.8544875851
 30
0.0
 11
272.9696283901
 21
115.0572285933
 31
0.0
  0
LINE
  5
CE
330
1F
100
AcDbEntity
  8
0
  6
SLD-Durchgehend
 62
     7
370
    15
100
AcDbLine
 10
271.573270377
 20
117.2329722849
 30
0.0
 11
273.5422800148
 21
117.8522841019
 31
0.0
  0
ARC
  5
CF
330
1F
100
AcDbEntity
  8
0
  6
SLD-Durchgehend
 62
     7
370
    15
100
AcDbCircle
 10
271.9463373819
 20
115.9382243906
 30
0.0
 40
1.247215954690694
100
AcDbArc
 50
107.4047448199
 51
177.5558676056
  0
LINE
  5
D0
330
1F
100
AcDbEntity
  8
0
  6
SLD-Durchgehend
 62
     7
370
    15
100
AcDbLine
 10
273.5055635536
 20
117.7360997481
 30
0.0
 11
271.573270377
 21
117.1283372624
 31
0.0
  0
CIRCLE
  5
D1
330
1F
100
AcDbEntity
  8
0
  6
SLD-Durchgehend
 62
     7
370
    15
100
AcDbCircle
 10
279.7739858371
 20
121.9582050897
 30
0.0
 40
2.623131116215816
  0
CIRCLE
  5
D2
330
1F
100
AcDbEntity
  8
0
  6
SLD-Durchgehend
 62
     7
370
    15
100
AcDbCircle
 10
279.7745263905
 20
121.9759678374
 30
0.0
 40
1.798740554750259
  0
ARC
  5
D3
330
1F
100
AcDbEntity
  8
0
  6
SLD-Durchgehend
 62
     7
370
    15
100
AcDbCircle
 10
279.7798305977
 20
121.9741645199
 30
0.0
 40
1.671464660542712
100
AcDbArc
 50
293.3142881436
 51
351.9509805749
  0
ARC
  5
D4
330
1F
100
AcDbEntity
  8
0
  6
SLD-Durchgehend
 62
     7
370
    15
100
AcDbCircle
 10
279.7821104929
 20
121.9724438218
 30
0.0
 40
1.668966867142501
100
AcDbArc
 50
351.9985111147
 51
52.2058518403
  0
ARC
  5
D5
330
1F
100
AcDbEntity
  8
0
  6
SLD-Durchgehend
 62
     7
370
    15
100
AcDbCircle
 10
279.7760928719
 20
121.9653960045
 30
0.0
 40
1.678223989743283
100
AcDbArc
 50
52.1909616401
 51
110.6638128161
  0
LINE
  5
D6
330
1F
100
AcDbEntity
  8
0
  6
SLD-Durchgehend
 62
     7
370
    15
100
AcDbLine
 10
279.1051815117
 20
123.5036845265
 30
0.0
 11
279.1838745439
 21
123.5356549678
 31
0.0
  0
ARC
  5
D7
330
1F
100
AcDbEntity
  8
0
  6
SLD-Durchgehend
 62
     7
370
    15
100
AcDbCircle
 10
279.772549304
 20
121.9710562912
 30
0.0
 40
1.671624682140247
100
AcDbArc
 50
113.530240438
 51
170.0051187734
  0
LINE
  5
D8
330
1F
100
AcDbEntity
  8
0
  6
SLD-Durchgehend
 62
     7
370
    15
100
AcDbLine
 10
278.1098435486
 20
122.1427996589
 30
0.0
 11
278.1262944305
 21
122.2611837966
 31
0.0
  0
ARC
  5
D9
330
1F
100
AcDbEntity
  8
0
  6
SLD-Durchgehend
 62
     7
370
    15
100
AcDbCircle
 10
279.7701470471
 20
121.9729403323
 30
0.0
 40
1.668969711513002
100
AcDbArc
 50
174.1586102213
 51
230.0446214282
  0
LINE
  5
DA
330
1F
100
AcDbEntity
  8
0
  6
SLD-Durchgehend
 62
     7
370
    15
100
AcDbLine
 10
278.7927637661
 20
120.6200183315
 30
0.0
 11
278.6983500088
 21
120.6936002655
 31
0.0
  0
ARC
  5
DB
330
1F
100
AcDbEntity
  8
0
  6
SLD-Durchgehend
 62
     7
370
    15
100
AcDbCircle
 10
279.7761699269
 20
121.9800889579
 30
0.0
 40
1.67835627508999
100
AcDbArc
 50
234.1309931966
 51
290.4494835358
  0
LINE
  5
DC
330
1F
100
AcDbEntity
  8
0
  6
SLD-Durchgehend
 62
     7
370
    15
100
AcDbLine
 10
280.4413537348
 20
120.4391787706
 30
0.0
 11
280.3625563944
 21
120.4075016958
 31
0.0
  0
ARC
  5
DD
330
1F
100
AcDbEntity
  8
0
  6
SLD-Durchgehend
 62
     7
370
    15
100
AcDbCircle
 10
278.9503048883
 20
120.9183651576
 30
0.0
 40
0.3373870682647204
100
AcDbArc
 50
242.1638439058
 51
308.0899547887
  0
ARC
  5
DE
330
1F
100
AcDbEntity
  8
0
  6
SLD-Durchgehend
 62
     7
370
    15
100
AcDbCircle
 10
279.5246341834
 20
120.1863719346
 30
0.0
 40
0.5930259240872594
100
AcDbArc
 50
36.0090154753
 51
128.1340966359
  0
ARC
  5
DF
330
1F
100
AcDbEntity
  8
0
  6
SLD-Durchgehend
 62
     7
370
    15
100
AcDbCircle
 10
280.2764857837
 20
120.7326014922
 30
0.0
 40
0.3363005019776831
100
AcDbArc
 50
215.9809866026
 51
284.828914583
  0
ARC
  5
E0
330
1F
100
AcDbEntity
  8
0
  6
SLD-Durchgehend
 62
     7
370
    15
100
AcDbCircle
 10
281.191827956
 20
120.8647560042
 30
0.0
 40
0.5892469381246251
100
AcDbArc
 50
95.6301143947
 51
188.3403643401
  0
ARC
  5
E1
330
1F
100
AcDbEntity
  8
0
  6
SLD-Durchgehend
 62
     7
370
    15
100
AcDbCircle
 10
281.0993339689
 20
121.7883199725
 30
0.0
 40
0.3389390073865661
100
AcDbArc
 50
275.8736494003
 51
351.8252961321
  0
ARC
  5
E2
330
1F
100
AcDbEntity
  8
0
  6
SLD-Durchgehend
 62
     7
370
    15
100
AcDbCircle
 10
280.2815842967
 20
120.7291241626
 30
0.0
 40
0.3310507570029307
100
AcDbArc
 50
298.8562084122
 51
8.714818495
  0
LINE
  5
E3
330
1F
100
AcDbEntity
  8
0
  6
SLD-Durchgehend
 62
     7
370
    15
100
AcDbLine
 10
278.6190609301
 20
120.8789641915
 30
0.0
 11
278.6441395843
 21
120.9579068182
 31
0.0
  0
ARC
  5
E4
330
1F
100
AcDbEntity
  8
0
  6
SLD-Durchgehend
 62
     7
370
    15
100
AcDbCircle
 10
278.9434789196
 20
120.9143245765
 30
0.0
 40
0.3298596738594681
100
AcDbArc
 50
155.1586847394
 51
222.0011937994
  0
ARC
  5
E5
330
1F
100
AcDbEntity
  8
0
  6
SLD-Durchgehend
 62
     7
370
    15
100
AcDbCircle
 10
278.448769556
 20
122.157851308
 30
0.0
 40
0.3392600634816101
100
AcDbArc
 50
182.5428254991
 51
248.322254887
  0
ARC
  5
E6
330
1F
100
AcDbEntity
  8
0
  6
SLD-Durchgehend
 62
     7
370
    15
100
AcDbCircle
 10
278.110977157
 20
121.2963426858
 30
0.0
 40
0.5861110226316519
100
AcDbArc
 50
335.4585670115
 51
68.7452162132
  0
ARC
  5
E7
330
1F
100
AcDbEntity
  8
0
  6
SLD-Durchgehend
 62
     7
370
    15
100
AcDbCircle
 10
278.1150595266
 20
121.2021236594
 30
0.0
 40
0.5827242684756354
100
AcDbArc
 50
335.2225342526
 51
0.0185123798
  0
ARC
  5
E8
330
1F
100
AcDbEntity
  8
0
  6
SLD-Durchgehend
 62
     7
370
    15
100
AcDbCircle
 10
278.4441602641
 20
122.0586599513
 30
0.0
 40
0.3346724499454142
100
AcDbArc
 50
95.2360010768
 51
172.485767374
  0
ARC
  5
E9
330
1F
100
AcDbEntity
  8
0
  6
SLD-Durchgehend
 62
     7
370
    15
100
AcDbCircle
 10
278.4399396428
 20
122.1576968883
 30
0.0
 40
0.3302769434589001
100
AcDbArc
 50
94.5709651351
 51
161.7397478353
  0
ARC
  5
EA
330
1F
100
AcDbEntity
  8
0
  6
SLD-Durchgehend
 62
     7
370
    15
100
AcDbCircle
 10
281.1037379594
 20
121.6886103716
 30
0.0
 40
0.3343995700391795
100
AcDbArc
 50
9.3795252701
 51
68.8879701199
  0
ARC
  5
EB
330
1F
100
AcDbEntity
  8
0
  6
SLD-Durchgehend
 62
     7
370
    15
100
AcDbCircle
 10
281.1083865472
 20
121.7867454871
 30
0.0
 40
0.329754643907559
100
AcDbArc
 50
351.8724324202
 51
69.4411516614
  0
ARC
  5
EC
330
1F
100
AcDbEntity
  8
0
  6
SLD-Durchgehend
 62
     7
370
    15
100
AcDbCircle
 10
279.2716381152
 20
123.2108296329
 30
0.0
 40
0.3368557400118162
100
AcDbArc
 50
119.6135867823
 51
188.8854590564
  0
ARC
  5
ED
330
1F
100
AcDbEntity
  8
0
  6
SLD-Durchgehend
 62
     7
370
    15
100
AcDbCircle
 10
278.3650253035
 20
123.0661239903
 30
0.0
 40
0.581235487580917
100
AcDbArc
 50
274.7957250747
 51
9.1746765886
  0
ARC
  5
EE
330
1F
100
AcDbEntity
  8
0
  6
SLD-Durchgehend
 62
     7
370
    15
100
AcDbCircle
 10
281.4318436431
 20
122.6397951032
 30
0.0
 40
0.5825634337657455
100
AcDbArc
 50
155.0882109899
 51
249.1173813111
  0
ARC
  5
EF
330
1F
100
AcDbEntity
  8
0
  6
SLD-Durchgehend
 62
     7
370
    15
100
AcDbCircle
 10
280.5973880817
 20
123.0258963025
 30
0.0
 40
0.3368892327997789
100
AcDbArc
 50
335.3117007549
 51
51.9785091087
  0
ARC
  5
F0
330
1F
100
AcDbEntity
  8
0
  6
SLD-Durchgehend
 62
     7
370
    15
100
AcDbCircle
 10
281.4347155095
 20
122.5462362291
 30
0.0
 40
0.5848763747794881
100
AcDbArc
 50
180.0384752693
 51
248.9025574827
  0
ARC
  5
F1
330
1F
100
AcDbEntity
  8
0
  6
SLD-Durchgehend
 62
     7
370
    15
100
AcDbCircle
 10
278.3604419168
 20
122.9748126601
 30
0.0
 40
0.5852974299299866
100
AcDbArc
 50
275.2127479401
 51
359.9460137088
  0
ARC
  5
F2
330
1F
100
AcDbEntity
  8
0
  6
SLD-Durchgehend
 62
     7
370
    15
100
AcDbCircle
 10
280.6008235429
 20
123.0276419415
 30
0.0
 40
0.3334019475395379
100
AcDbArc
 50
52.2588262562
 51
129.4040886712
  0
ARC
  5
F3
330
1F
100
AcDbEntity
  8
0
  6
SLD-Durchgehend
 62
     7
370
    15
100
AcDbCircle
 10
280.0206483636
 20
123.7348493144
 30
0.0
 40
0.5813361215258902
100
AcDbArc
 50
214.8010162537
 51
309.3419438408
  0
ARC
  5
F4
330
1F
100
AcDbEntity
  8
0
  6
SLD-Durchgehend
 62
     7
370
    15
100
AcDbCircle
 10
279.2686169397
 20
123.2119343848
 30
0.0
 40
0.3346285844520226
100
AcDbArc
 50
34.831904286
 51
104.6695082653
  0
ARC
  5
F5
330
1F
100
AcDbEntity
  8
0
  6
SLD-Durchgehend
 62
     7
370
    15
100
AcDbCircle
 10
279.2699229535
 20
123.1139802682
 30
0.0
 40
0.3352833857184504
100
AcDbArc
 50
35.3797015349
 51
162.4620604237
  0
ARC
  5
F6
330
1F
100
AcDbEntity
  8
0
  6
SLD-Durchgehend
 62
     7
370
    15
100
AcDbCircle
 10
280.5991720667
 20
122.929240082
 30
0.0
 40
0.3350444176042724
100
AcDbArc
 50
7.0180333747
 51
128.8103552368
  0
ARC
  5
F7
330
1F
100
AcDbEntity
  8
0
  6
SLD-Durchgehend
 62
     7
370
    15
100
AcDbCircle
 10
279.7783631112
 20
121.9066759747
 30
0.0
 40
2.622764236488675
100
AcDbArc
 50
261.9439509143
 51
359.9178635702
  0
ARC
  5
F8
330
1F
100
AcDbEntity
  8
0
  6
SLD-Durchgehend
 62
     7
370
    15
100
AcDbCircle
 10
279.7715070604
 20
121.9052254062
 30
0.0
 40
2.620375438284543
100
AcDbArc
 50
180.050493901
 51
262.0879376071
  0
ARC
  5
F9
330
1F
100
AcDbEntity
  8
0
  6
SLD-Durchgehend
 62
     7
370
    15
100
AcDbCircle
 10
280.0218071051
 20
123.6482697687
 30
0.0
 40
0.5871021602693326
100
AcDbArc
 50
215.4078728963
 51
308.7370674248
  0
LINE
  5
FA
330
1F
100
AcDbEntity
  8
0
  6
SLD-Durchgehend
 62
     7
370
    15
100
AcDbLine
 10
273.3004937733
 20
115.0372964276
 30
0.0
 11
283.4587792719
 21
118.2323894409
 31
0.0
  0
LINE
  5
FB
330
1F
100
AcDbEntity
  8
0
  6
SLD-Durchgehend
 62
     7
370
    15
100
AcDbLine
 10
274.6057162846
 20
116.7622194571
 30
0.0
 11
273.1862316692
 21
115.3835221139
 31
0.0
  0
LINE
  5
FC
330
1F
100
AcDbEntity
  8
0
  6
SLD-Durchgehend
 62
     7
370
    15
100
AcDbLine
 10
283.1687579716
 20
118.7450676171
 30
0.0
 11
283.3445171678
 21
118.5786151273
 31
0.0
  0
ARC
  5
FD
330
1F
100
AcDbEntity
  8
0
  6
SLD-Durchgehend
 62
     7
370
    15
100
AcDbCircle
 10
283.3477909848
 20
118.5918667201
 30
0.0
 40
0.3961754967682191
100
AcDbArc
 50
287.4039159715
 51
342.456569252
  0
LINE
  5
FE
330
1F
100
AcDbEntity
  8
0
  6
SLD-Durchgehend
 62
     7
370
    15
100
AcDbLine
 10
273.2982287968
 20
115.0156608728
 30
0.0
 11
283.4662894571
 21
118.213828182
 31
0.0
  0
ARC
  5
FF
330
1F
100
AcDbEntity
  8
0
  6
SLD-Durchgehend
 62
     7
370
    15
100
AcDbCircle
 10
273.1765851164
 20
115.3898121215
 30
0.0
 40
0.3934289540188434
100
AcDbArc
 50
162.1289195622
 51
288.0103282867
  0
LINE
  5
100
330
1F
100
AcDbEntity
  8
0
  6
SLD-Durchgehend
 62
     7
370
    15
100
AcDbLine
 10
276.008109268
 20
125.6538364051
 30
0.0
 11
272.8021393383
 21
115.5105461312
 31
0.0
  0
ARC
  5
101
330
1F
100
AcDbEntity
  8
0
  6
SLD-Durchgehend
 62
     7
370
    15
100
AcDbCircle
 10
276.3858566663
 20
125.5344206055
 30
0.0
 40
0.3961732324453824
100
AcDbArc
 50
107.4037948385
 51
162.4568967132
  0
LINE
  5
102
330
1F
100
AcDbEntity
  8
0
  6
SLD-Durchgehend
 62
     7
370
    15
100
AcDbLine
 10
286.4354203308
 20
129.1106245426
 30
0.0
 11
276.2673596704
 21
125.9124572335
 31
0.0
  0
ARC
  5
103
330
1F
100
AcDbEntity
  8
0
  6
SLD-Durchgehend
 62
     7
370
    15
100
AcDbCircle
 10
286.5570635768
 20
128.7364726314
 30
0.0
 40
0.3934294498452112
100
AcDbArc
 50
342.1289017222
 51
108.0102383025
  0
LINE
  5
104
330
1F
100
AcDbEntity
  8
0
  6
SLD-Durchgehend
 62
     7
370
    15
100
AcDbLine
 10
283.7255398596
 20
118.4724480791
 30
0.0
 11
286.9315097893
 21
128.6157383529
 31
0.0
  0
ARC
  5
105
330
1F
100
AcDbEntity
  8
0
  6
SLD-Durchgehend
 62
     7
370
    15
100
AcDbCircle
 10
273.185924627
 20
115.3991239101
 30
0.0
 40
0.3795328923305191
100
AcDbArc
 50
162.5689836012
 51
287.5698834003
  0
ARC
  5
106
330
1F
100
AcDbEntity
  8
0
  6
SLD-Durchgehend
 62
     7
370
    15
100
AcDbCircle
 10
283.34508263
 20
118.594515626
 30
0.0
 40
0.3795553982095938
100
AcDbArc
 50
287.4307072055
 51
342.4284868418
  0
LINE
  5
107
330
1F
100
AcDbEntity
  8
0
  6
SLD-Durchgehend
 62
     7
370
    15
100
AcDbLine
 10
283.7069283092
 20
118.4799293933
 30
0.0
 11
286.9098285997
 21
128.6134696511
 31
0.0
  0
ARC
  5
108
330
1F
100
AcDbEntity
  8
0
  6
SLD-Durchgehend
 62
     7
370
    15
100
AcDbCircle
 10
286.5477098376
 20
128.7271511055
 30
0.0
 40
0.3795437668563139
100
AcDbArc
 50
342.5711445446
 51
107.5694013168
  0
LINE
  5
109
330
1F
100
AcDbEntity
  8
0
  6
SLD-Durchgehend
 62
     7
370
    15
100
AcDbLine
 10
286.4331404531
 20
129.0889899192
 30
0.0
 11
276.2748549545
 21
125.8938959745
 31
0.0
  0
ARC
  5
10A
330
1F
100
AcDbEntity
  8
0
  6
SLD-Durchgehend
 62
     7
370
    15
100
AcDbCircle
 10
276.3885093903
 20
125.5318338785
 30
0.0
 40
0.3794816097921261
100
AcDbArc
 50
107.4275259609
 51
162.4351087476
  0
LINE
  5
10B
330
1F
100
AcDbEntity
  8
0
  6
SLD-Durchgehend
 62
     7
370
    15
100
AcDbLine
 10
276.0267208183
 20
125.6463560221
 30
0.0
 11
272.8238205278
 21
115.5128157643
 31
0.0
  0
LINE
  5
10C
330
1F
100
AcDbEntity
  8
0
  6
SLD-Durchgehend
 62
     7
370
    15
100
AcDbLine
 10
276.564891156
 20
125.3328504918
 30
0.0
 11
276.3891319597
 21
125.5170623718
 31
0.0
  0
ARC
  5
10D
330
1F
100
AcDbEntity
  8
0
  6
SLD-Durchgehend
 62
     7
370
    15
100
AcDbCircle
 10
262.1436050979
 20
129.5430109484
 30
0.0
 40
17.85085001817929
100
AcDbArc
 50
314.276704951
 51
316.4987982516
  0
LINE
  5
10E
330
1F
100
AcDbEntity
  8
0
  6
SLD-Durchgehend
 62
     7
370
    15
100
AcDbLine
 10
276.8865774238
 20
117.8387864439
 30
0.0
 11
281.8754861916
 21
119.407952292
 31
0.0
  0
LINE
  5
10F
330
1F
100
AcDbEntity
  8
0
  6
SLD-Durchgehend
 62
     7
370
    15
100
AcDbLine
 10
282.8470717037
 20
126.2874989716
 30
0.0
 11
277.858162936
 21
124.7183321921
 31
0.0
  0
ARC
  5
110
330
1F
100
AcDbEntity
  8
0
  6
SLD-Durchgehend
 62
     7
370
    15
100
AcDbCircle
 10
283.148573133
 20
125.3353086648
 30
0.0
 40
0.9987840068311499
100
AcDbArc
 50
342.5699161833
 51
107.5698641424
  0
LINE
  5
111
330
1F
100
AcDbEntity
  8
0
  6
SLD-Durchgehend
 62
     7
370
    15
100
AcDbLine
 10
282.5284997785
 20
120.0593733174
 30
0.0
 11
284.1014961565
 21
125.0361311195
 31
0.0
  0
ARC
  5
112
330
1F
100
AcDbEntity
  8
0
  6
SLD-Durchgehend
 62
     7
370
    15
100
AcDbCircle
 10
281.5762851733
 20
120.3609003157
 30
0.0
 40
0.9988148903436963
100
AcDbArc
 50
287.4309389159
 51
342.4291583059
  0
ARC
  5
113
330
1F
100
AcDbEntity
  8
0
  6
SLD-Durchgehend
 62
     7
370
    15
100
AcDbCircle
 10
276.5850756233
 20
118.7909761559
 30
0.0
 40
0.9987835518457039
100
AcDbArc
 50
162.5699282231
 51
287.5698947446
  0
LINE
  5
114
330
1F
100
AcDbEntity
  8
0
  6
SLD-Durchgehend
 62
     7
370
    15
100
AcDbLine
 10
277.205149349
 20
124.0669130293
 30
0.0
 11
275.6321529711
 21
119.0901533646
 31
0.0
  0
ARC
  5
115
330
1F
100
AcDbEntity
  8
0
  6
SLD-Durchgehend
 62
     7
370
    15
100
AcDbCircle
 10
278.15735938
 20
123.7653878917
 30
0.0
 40
0.9988099677551276
100
AcDbArc
 50
107.4307525459
 51
162.4291808471
  0
CIRCLE
  5
116
330
1F
100
AcDbEntity
  8
0
  6
SLD-Durchgehend
 62
     7
370
    15
100
AcDbCircle
 10
279.8617549889
 20
122.0592195171
 30
0.0
 40
3.045678380011467
  0
ARC
  5
117
330
1F
100
AcDbEntity
  8
0
  6
SLD-Durchgehend
 62
     7
370
    15
100
AcDbCircle
 10
292.6922276798
 20
128.7510928156
 30
0.0
 40
13.81365322997007
100
AcDbArc
 50
223.5248912001
 51
226.4154369262
  0
LWPOLYLINE
  5
118
330
1F
100
AcDbEntity
  8
0
  6
SLD-Durchgehend
 62
     7
370
    15
100
AcDbPolyline
 90
        3
 70
   128
 43
0.0
 10
276.9579837883
 20
122.9084073512
 10
276.8184046114
 20
122.091596475
 10
276.8168250883
 20
121.9934890924
  0
ARC
  5
119
330
1F
100
AcDbEntity
  8
0
  6
SLD-Durchgehend
 62
     7
370
    15
100
AcDbCircle
 10
279.8661321573
 20
121.9867570143
 30
0.0
 40
3.050699309931031
100
AcDbArc
 50
0.1264365765
 51
162.4155509146
  0
LINE
  5
11A
330
1F
100
AcDbEntity
  8
0
  6
SLD-Durchgehend
 62
     7
370
    15
100
AcDbLine
 10
285.127932843
 20
127.2587939111
 30
0.0
 11
286.5474174583
 21
128.7121544538
 31
0.0
  0
ARC
  5
11B
330
1F
100
AcDbEntity
  8
0
  6
SLD-Durchgehend
 62
     7
370
    15
100
AcDbCircle
 10
286.2930320214
 20
134.626382509
 30
0.0
 40
13.45386420526174
100
AcDbArc
 50
223.6911287382
 51
226.6485988479
  0
ARC
  5
11C
330
1F
100
AcDbEntity
  8
0
  6
SLD-Durchgehend
 62
     7
370
    15
100
AcDbCircle
 10
273.5376464839
 20
138.581747162
 30
0.0
 40
16.20320981188327
100
AcDbArc
 50
313.2594307438
 51
315.6684503867
  0
LINE
  5
11D
330
1F
100
AcDbEntity
  8
0
  6
SLD-Gestrichelt
 62
     7
370
     0
100
AcDbLine
 10
141.5554803649
 20
131.5851747004
 30
0.0
 11
141.5554803649
 21
126.9764858244
 31
0.0
  0
LINE
  5
11E
330
1F
100
AcDbEntity
  8
0
  6
SLD-Gestrichelt
 62
     7
370
     0
100
AcDbLine
 10
114.9425634036
 20
83.6018859354
 30
0.0
 11
114.4084173108
 21
83.547271317
 31
0.0
  0
LINE
  5
11F
330
1F
100
AcDbEntity
  8
0
  6
SLD-Gestrichelt
 62
     7
370
     0
100
AcDbLine
 10
114.1707642788
 20
130.7298182456
 30
0.0
 11
114.9424702713
 21
130.6510674713
 31
0.0
  0
LWPOLYLINE
  5
120
330
1F
100
AcDbEntity
  8
0
  6
SLD-Gestrichelt
 62
     7
370
     0
100
AcDbPolyline
 90
        4
 70
   128
 43
0.0
 10
120.702414945
 20
126.9640135525
 10
121.3838557566
 20
127.0409128574
 10
121.6861588733
 20
127.0636576174
 10
121.6596557612
 20
127.0618545769
  0
ARC
  5
121
330
1F
100
AcDbEntity
  8
0
  6
SLD-Gestrichelt
 62
     7
370
     0
100
AcDbCircle
 10
122.5086767357
 20
100.2292142685
 30
0.0
 40
13.06571275194007
100
AcDbArc
 50
262.053729288
 51
266.2742572693
  0
LWPOLYLINE
  5
122
330
1F
100
AcDbEntity
  8
0
  6
SLD-Gestrichelt
 62
     7
370
     0
100
AcDbPolyline
 90
        9
 70
   128
 43
0.0
 10
120.702414945
 20
87.2889566181
 10
119.7059170196
 20
87.4026450274
 10
118.5078208188
 20
87.4732020257
 10
117.2582913974
 20
87.4691097943
 10
116.0977982769
 20
87.3943134157
 10
115.1314551795
 20
87.2803996263
 10
114.468641285
 20
87.1755606441
 10
114.2011021117
 20
87.1271765737
 10
114.2215204278
 20
87.1309260783
  0
ARC
  5
123
330
1F
100
AcDbEntity
  8
0
  6
SLD-Gestrichelt
 62
     7
370
     0
100
AcDbCircle
 10
117.9442319221
 20
146.8208745855
 30
0.0
 40
20.04750617089302
100
AcDbArc
 50
259.2983744626
 51
277.9079713491
  0
LINE
  5
124
330
1F
100
AcDbEntity
  8
0
  6
SLD-Gestrichelt
 62
     7
370
     0
100
AcDbLine
 10
107.9513884002
 20
90.1264841614
 30
0.0
 11
107.9513884002
 21
124.1264860091
 31
0.0
  0
LINE
  5
125
330
1F
100
AcDbEntity
  8
0
  6
SLD-Gestrichelt
 62
     7
370
     0
100
AcDbLine
 10
134.6072388666
 20
90.1264841614
 30
0.0
 11
134.6072388666
 21
124.1264860091
 31
0.0
  0
LINE
  5
126
330
1F
100
AcDbEntity
  8
0
  6
SLD-Gestrichelt
 62
     7
370
     0
100
AcDbLine
 10
136.897412766
 20
91.4014852551
 30
0.0
 11
136.897412766
 21
122.8514849154
 31
0.0
  0
LWPOLYLINE
  5
127
330
1F
100
AcDbEntity
  8
0
  6
SLD-Gestrichelt
 62
     7
370
     0
100
AcDbPolyline
 90
        6
 70
   128
 43
0.0
 10
101.1474120284
 20
123.4139981625
 10
101.0612870419
 20
123.2615536956
 10
100.8124469632
 20
123.1141942499
 10
100.4287849033
 20
122.997065535
 10
99.9763521219
 20
122.9354399202
 10
99.7474125439
 20
122.9279763011
  0
LINE
  5
128
330
1F
100
AcDbEntity
  8
0
  6
SLD-Gestrichelt
 62
     7
370
     0
100
AcDbLine
 10
99.7474125439
 20
122.9279763011
 30
0.0
 11
96.1974120552
 21
122.9279763011
 31
0.0
  0
LINE
  5
129
330
1F
100
AcDbEntity
  8
0
  6
SLD-Gestrichelt
 62
     7
370
     0
100
AcDbLine
 10
96.1974120552
 20
91.3249938694
 30
0.0
 11
103.7474131996
 21
91.3249938694
 31
0.0
  0
LWPOLYLINE
  5
12A
330
1F
100
AcDbEntity
  8
0
  6
SLD-Gestrichelt
 62
     7
370
     0
100
AcDbPolyline
 90
        6
 70
   128
 43
0.0
 10
103.7474131996
 20
91.3249938694
 10
104.1880070085
 20
91.2969517467
 10
104.5785440916
 20
91.2192272899
 10
104.8911443764
 20
91.1025269834
 10
105.0938802624
 20
90.958572453
 10
105.147412684
 20
90.838972008
  0
LINE
  5
12B
330
1F
100
AcDbEntity
  8
0
  6
SLD-Gestrichelt
 62
     7
370
     0
100
AcDbLine
 10
96.1974120552
 20
91.3249938694
 30
0.0
 11
96.1974120552
 21
122.9279763011
 31
0.0
  0
ARC
  5
12C
330
1F
100
AcDbEntity
  8
0
  6
SLD-Gestrichelt
 62
     7
370
     0
100
AcDbCircle
 10
246.7439455901
 20
102.1501529536
 30
0.0
 40
2.29389461453675
100
AcDbArc
 50
141.0434047227
 51
275.0887276664
  0
ARC
  5
12D
330
1F
100
AcDbEntity
  8
0
  6
SLD-Gestrichelt
 62
     7
370
     0
100
AcDbCircle
 10
247.0824945151
 20
102.1880465604
 30
0.0
 40
2.326671657865564
100
AcDbArc
 50
266.6715910683
 51
33.6496460115
  0
LINE
  5
12E
330
1F
100
AcDbEntity
  8
0
  6
SLD-Gestrichelt
 62
     7
370
     0
100
AcDbLine
 10
259.9474142158
 20
91.3456431536
 30
0.0
 11
259.9474142158
 21
123.1210450588
 31
0.0
  0
LWPOLYLINE
  5
12F
330
1F
100
AcDbEntity
  8
0
  6
SLD-Gestrichelt
 62
     7
370
     0
100
AcDbPolyline
 90
       14
 70
   128
 43
0.0
 10
247.0474119151
 20
106.2559463844
 10
247.6176719034
 20
106.0280731126
 10
248.2110286916
 20
106.0009386802
 10
248.440096792
 20
106.0821238152
 10
248.6817414725
 20
106.2747048509
 10
248.827333268
 20
106.4866884208
 10
248.9743555749
 20
106.8599513037
 10
249.044897672
 20
107.492850535
 10
248.9203090632
 20
108.0608883586
 10
248.7857664788
 20
108.3462650368
 10
248.619432267
 20
108.6270234028
 10
248.3904163206
 20
108.9601038202
 10
247.7489213312
 20
109.6924878603
 10
247.0474119151
 20
110.2458522601
  0
LWPOLYLINE
  5
130
330
1F
100
AcDbEntity
  8
0
  6
SLD-Gestrichelt
 62
     7
370
     0
100
AcDbPolyline
 90
       11
 70
   128
 43
0.0
 10
247.0474119151
 20
106.2559463844
 10
246.4074070418
 20
106.3327371903
 10
245.8297262752
 20
106.6115014783
 10
245.3280265296
 20
107.0852710673
 10
244.9664945567
 20
107.7433616684
 10
244.847411927
 20
108.4275054691
 10
244.9468101228
 20
109.0164590805
 10
245.2251414621
 20
109.5128741527
 10
245.6941480601
 20
109.9178844543
 10
246.3504995072
 20
110.1803465226
 10
247.0474119151
 20
110.2458522601
  0
LWPOLYLINE
  5
131
330
1F
100
AcDbEntity
  8
0
  6
SLD-Gestrichelt
 62
     7
370
     0
100
AcDbPolyline
 90
       12
 70
   128
 43
0.0
 10
244.8572466934
 20
110.1141928175
 10
245.0364555085
 20
110.7812751962
 10
245.4178581798
 20
111.3620465567
 10
245.8852554524
 20
111.7296577377
 10
246.4367995823
 20
111.9205965606
 10
246.9991321528
 20
111.9305309785
 10
247.6697738135
 20
111.7442655323
 10
248.1841767991
 20
111.4505017122
 10
248.6110578144
 20
111.0651921427
 10
248.8580967153
 20
110.726209352
 10
248.9935259188
 20
110.4323661366
 10
249.0465815032
 20
110.1476179847
  0
LWPOLYLINE
  5
132
330
1F
100
AcDbEntity
  8
0
  6
SLD-Gestrichelt
 62
     7
370
     0
100
AcDbPolyline
 90
       15
 70
   128
 43
0.0
 10
249.0302796328
 20
110.0843578988
 10
249.0247960055
 20
110.065516079
 10
249.0175018871
 20
110.2019897608
 10
249.037365135
 20
110.5174142813
 10
249.0443090761
 20
110.979899293
 10
248.9485840166
 20
111.6253314485
 10
248.7372631991
 20
112.1421218795
 10
248.3859310711
 20
112.5881434364
 10
247.9547138179
 20
112.8833224011
 10
247.4230478371
 20
113.0487457795
 10
246.7610488499
 20
113.0528738668
 10
246.172430631
 20
112.9035432769
 10
245.6478948558
 20
112.637083972
 10
245.2567319239
 20
112.3006199432
 10
245.1067144835
 20
112.1050836464
  0
LWPOLYLINE
  5
133
330
1F
100
AcDbEntity
  8
0
  6
SLD-Gestrichelt
 62
     7
370
     0
100
AcDbPolyline
 90
       12
 70
   128
 43
0.0
 10
244.9128131235
 20
111.6382521523
 10
244.8825786674
 20
111.4752576632
 10
244.9056382144
 20
110.4789171314
 10
245.1457853282
 20
109.7712467836
 10
245.3525910938
 20
109.3603472637
 10
245.4316492045
 20
109.1936025714
 10
245.4496349061
 20
109.1028512401
 10
245.4112048114
 20
109.0693566894
 10
245.2791432703
 20
109.1158681029
 10
244.9990684951
 20
109.4191390967
 10
244.8485965693
 20
110.0251628032
 10
244.8572466934
 20
110.1141928175
  0
LWPOLYLINE
  5
134
330
1F
100
AcDbEntity
  8
0
  6
SLD-Gestrichelt
 62
     7
370
     0
100
AcDbPolyline
 90
       19
 70
   128
 43
0.0
 10
244.9128131235
 20
111.6382521523
 10
244.8549668157
 20
110.9744522201
 10
245.0298542941
 20
110.3294773439
 10
245.418014642
 20
109.7750635763
 10
245.9762791956
 20
109.3728749493
 10
246.6425622666
 20
109.1676438173
 10
247.3427454794
 20
109.1821968967
 10
247.998962816
 20
109.414915316
 10
248.5382209385
 20
109.8399157582
 10
248.9005426729
 20
110.4099277818
 10
249.0456352795
 20
111.0615534654
 10
248.95735335
 20
111.7223161218
 10
248.6455242002
 20
112.3187239228
 10
248.1448153818
 20
112.7844420207
 10
247.5109348858
 20
113.0676725825
 10
246.8143801058
 20
113.1369131563
 10
246.1326147283
 20
112.9844626357
 10
245.5414782131
 20
112.6272771453
 10
245.1067144835
 20
112.1050836464
  0
LWPOLYLINE
  5
135
330
1F
100
AcDbEntity
  8
0
  6
SLD-Gestrichelt
 62
     7
370
     0
100
AcDbPolyline
 90
       10
 70
   128
 43
0.0
 10
244.8572466934
 20
110.1141928175
 10
244.5728207791
 20
110.743979918
 10
244.3467776144
 20
111.3568283563
 10
244.2035923565
 20
111.8863709217
 10
244.1587771142
 20
112.2752618922
 10
244.2171822155
 20
112.4813877923
 10
244.3724746669
 20
112.4824257513
 10
244.6078534091
 20
112.2782644761
 10
244.8978151048
 20
111.8910121677
 10
245.2109630073
 20
111.3626058159
  0
LINE
  5
136
330
1F
100
AcDbEntity
  8
0
  6
SLD-Gestrichelt
 62
     7
370
     0
100
AcDbLine
 10
245.2109630073
 20
111.3626058159
 30
0.0
 11
244.9128131235
 21
111.6382521523
 31
0.0
  0
ARC
  5
137
330
1F
100
AcDbEntity
  8
0
  6
SLD-Gestrichelt
 62
     7
370
     0
100
AcDbCircle
 10
243.5502252061
 20
111.5079853455
 30
0.0
 40
1.667088855397156
100
AcDbArc
 50
354.9971308966
 51
20.9877446363
  0
LINE
  5
138
330
1F
100
AcDbEntity
  8
0
  6
SLD-Gestrichelt
 62
     7
370
     0
100
AcDbLine
 10
96.1974120552
 20
89.1364845393
 30
0.0
 11
96.1974120552
 21
86.3198540119
 31
0.0
  0
LINE
  5
139
330
1F
100
AcDbEntity
  8
0
  6
SLD-Gestrichelt
 62
     7
370
     0
100
AcDbLine
 10
105.147412684
 20
89.1364845393
 30
0.0
 11
105.147412684
 21
85.1813363788
 31
0.0
  0
LINE
  5
13A
330
1F
100
AcDbEntity
  8
0
  6
SLD-Gestrichelt
 62
     7
370
     0
100
AcDbLine
 10
96.1974120552
 20
125.1164856313
 30
0.0
 11
96.1974120552
 21
127.996423742
 31
0.0
  0
LINE
  5
13B
330
1F
100
AcDbEntity
  8
0
  6
SLD-Gestrichelt
 62
     7
370
     0
100
AcDbLine
 10
101.1474120284
 20
125.1164856313
 30
0.0
 11
101.1474120284
 21
128.9705927429
 31
0.0
  0
LINE
  5
13C
330
1F
100
AcDbEntity
  8
0
  6
SLD-Gestrichelt
 62
     7
370
     0
100
AcDbLine
 10
146.2474136466
 20
97.6264853907
 30
0.0
 11
146.2474136466
 21
116.6264847798
 31
0.0
  0
LINE
  5
13D
330
1F
100
AcDbEntity
  8
0
  6
SLD-Gestrichelt
 62
     7
370
     0
100
AcDbLine
 10
148.7474131251
 20
97.6264853907
 30
0.0
 11
148.7474131251
 21
116.6264847798
 31
0.0
  0
LINE
  5
13E
330
1F
100
AcDbEntity
  8
0
  6
SLD-Gestrichelt
 62
     7
370
     0
100
AcDbLine
 10
137.3974128479
 20
98.6264846233
 30
0.0
 11
137.3974128479
 21
115.6264855472
 31
0.0
  0
LINE
  5
13F
330
1F
100
AcDbEntity
  8
0
  6
SLD-Gestrichelt
 62
     7
370
     0
100
AcDbLine
 10
152.8974125946
 20
80.7264852283
 30
0.0
 11
146.7597379202
 21
80.7264852283
 31
0.0
  0
LINE
  5
140
330
1F
100
AcDbEntity
  8
0
  6
SLD-Gestrichelt
 62
     7
370
     0
100
AcDbLine
 10
131.8974128777
 20
75.6423617659
 30
0.0
 11
131.8974128777
 21
80.7264852283
 31
0.0
  0
LINE
  5
141
330
1F
100
AcDbEntity
  8
0
  6
SLD-Gestrichelt
 62
     7
370
     0
100
AcDbLine
 10
139.8974132577
 20
80.7264852283
 30
0.0
 11
131.8974128777
 21
80.7264852283
 31
0.0
  0
LINE
  5
142
330
1F
100
AcDbEntity
  8
0
  6
SLD-Gestrichelt
 62
     7
370
     0
100
AcDbLine
 10
143.1350882018
 20
80.7264852283
 30
0.0
 11
139.8974132577
 21
80.7264852283
 31
0.0
  0
LINE
  5
143
330
1F
100
AcDbEntity
  8
0
  6
SLD-Gestrichelt
 62
     7
370
     0
100
AcDbLine
 10
143.4317107165
 20
133.5264849422
 30
0.0
 11
139.8974132577
 21
133.5264849422
 31
0.0
  0
LINE
  5
144
330
1F
100
AcDbEntity
  8
0
  6
SLD-Gestrichelt
 62
     7
370
     0
100
AcDbLine
 10
152.8974125946
 20
133.5264849422
 30
0.0
 11
146.4631154055
 21
133.5264849422
 31
0.0
  0
LINE
  5
145
330
1F
100
AcDbEntity
  8
0
  6
SLD-Gestrichelt
 62
     7
370
     0
100
AcDbLine
 10
139.8974132577
 20
133.5264849422
 30
0.0
 11
131.8974128777
 21
133.5264849422
 31
0.0
  0
ELLIPSE
  5
146
330
1F
100
AcDbEntity
  8
0
  6
SLD-Gestrichelt
 62
     7
370
     0
100
AcDbEllipse
 10
90.8799810402
 20
107.1264850853
 30
0.0
 11
20.07002071827054
 21
-2.842170943040401E-14
 31
0.0
210
0.0
220
0.0
230
1.0
 40
0.8164965809
 41
4.921555463185702
 42
4.980534842098404
  0
ELLIPSE
  5
147
330
1F
100
AcDbEntity
  8
0
  6
SLD-Gestrichelt
 62
     7
370
     0
100
AcDbEllipse
 10
90.8799810402
 20
107.1264850853
 30
0.0
 11
20.07002071827051
 21
-1.421085471520200E-14
 31
0.0
210
0.0
220
0.0
230
1.0
 40
0.8164965809
 41
1.302650465081197
 42
1.361629843993898
  0
LINE
  5
148
330
1F
100
AcDbEntity
  8
0
  6
SLD-Gestrichelt
 62
     7
370
     0
100
AcDbLine
 10
105.147412684
 20
89.1364845393
 30
0.0
 11
105.147412684
 21
90.838972008
 31
0.0
  0
LINE
  5
149
330
1F
100
AcDbEntity
  8
0
  6
SLD-Gestrichelt
 62
     7
370
     0
100
AcDbLine
 10
96.1974120552
 20
89.1364845393
 30
0.0
 11
96.1974120552
 21
91.3249938694
 31
0.0
  0
LINE
  5
14A
330
1F
100
AcDbEntity
  8
0
  6
SLD-Gestrichelt
 62
     7
370
     0
100
AcDbLine
 10
96.1974120552
 20
125.1164856313
 30
0.0
 11
96.1974120552
 21
122.9279763011
 31
0.0
  0
LINE
  5
14B
330
1F
100
AcDbEntity
  8
0
  6
SLD-Gestrichelt
 62
     7
370
     0
100
AcDbLine
 10
101.1474120284
 20
125.1164856313
 30
0.0
 11
101.1474120284
 21
123.4139981625
 31
0.0
  0
LWPOLYLINE
  5
14C
330
1F
100
AcDbEntity
  8
0
  6
SLD-Gestrichelt
 62
     7
370
     0
100
AcDbPolyline
 90
       14
 70
   128
 43
0.0
 10
247.0474119151
 20
107.9970237861
 10
247.6176719034
 20
108.2248970579
 10
248.2110286916
 20
108.2520314904
 10
248.440096792
 20
108.1708463553
 10
248.6817414725
 20
107.9782653196
 10
248.827333268
 20
107.7662817497
 10
248.9743555749
 20
107.3930188668
 10
249.044897672
 20
106.7601196355
 10
248.9203090632
 20
106.192081812
 10
248.7857664788
 20
105.9067051338
 10
248.619432267
 20
105.6259467678
 10
248.3904163206
 20
105.2928663503
 10
247.7489213312
 20
104.5604823103
 10
247.0474119151
 20
104.0071179105
  0
LINE
  5
14D
330
1F
100
AcDbEntity
  8
0
  6
SLD-Gestrichelt
 62
     7
370
     0
100
AcDbLine
 10
247.0474119151
 20
107.9970237861
 30
0.0
 11
247.0474119151
 21
110.2458522601
 31
0.0
  0
LINE
  5
14E
330
1F
100
AcDbEntity
  8
0
  6
SLD-Gestrichelt
 62
     7
370
     0
100
AcDbLine
 10
247.0474119151
 20
111.3264849355
 30
0.0
 11
247.0474119151
 21
110.2458522601
 31
0.0
  0
LINE
  5
14F
330
1F
100
AcDbEntity
  8
0
  6
SLD-Gestrichelt
 62
     7
370
     0
100
AcDbLine
 10
247.0474119151
 20
106.2559463844
 30
0.0
 11
247.0474119151
 21
102.926485235
 31
0.0
  0
LWPOLYLINE
  5
150
330
1F
100
AcDbEntity
  8
0
  6
SLD-Gestrichelt
 62
     7
370
     0
100
AcDbPolyline
 90
       14
 70
   128
 43
0.0
 10
121.6962534787
 20
83.5264916477
 10
121.4673865439
 20
83.5875994472
 10
121.1302752459
 20
83.6652847884
 10
120.6115839856
 20
83.7742849199
 10
119.869807441
 20
83.9043906836
 10
119.1395983884
 20
84.0049697963
 10
117.9681780601
 20
84.1175480691
 10
116.6465977991
 20
84.1436306892
 10
115.9580551872
 20
84.122467315
 10
115.3079287002
 20
84.0784977136
 10
114.7272826025
 20
84.0215212611
 10
114.3913051898
 20
83.9807591347
 10
114.1974327007
 20
83.9478704093
 10
114.1982988307
 20
83.9480175582
  0
LINE
  5
151
330
1F
100
AcDbEntity
  8
0
  6
SLD-Gestrichelt
 62
     7
370
     0
100
AcDbLine
 10
115.1074251944
 20
84.0588225929
 30
0.0
 11
115.2912701333
 21
84.0770131854
 31
0.0
  0
LINE
  5
152
330
1F
100
AcDbEntity
  8
0
  6
SLD-Gestrichelt
 62
     7
370
     0
100
AcDbLine
 10
115.2912673393
 20
130.1758880673
 30
0.0
 11
115.1171938369
 21
130.1930970458
 31
0.0
  0
LWPOLYLINE
  5
153
330
1F
100
AcDbEntity
  8
0
  6
SLD-Gestrichelt
 62
     7
370
     0
100
AcDbPolyline
 90
       14
 70
   128
 43
0.0
 10
114.1983323583
 20
130.3048874197
 10
114.1974252502
 20
130.3050401566
 10
114.3903924936
 20
130.2722184865
 10
114.7258204261
 20
130.2314973382
 10
115.3059952745
 20
130.1745730398
 10
115.9566731045
 20
130.1305866746
 10
116.6460408682
 20
130.109399086
 10
117.9694874996
 20
130.1354221014
 10
119.137848899
 20
130.2476110814
 10
119.8662190551
 20
130.3478921709
 10
120.6066428537
 20
130.4776347188
 10
121.1279203968
 20
130.5870260058
 10
121.4665842095
 20
130.6650056449
 10
121.6963391604
 20
130.7264543084
  0
LWPOLYLINE
  5
154
330
1F
100
AcDbEntity
  8
0
  6
SLD-Gestrichelt
 62
     7
370
     0
100
AcDbPolyline
 90
       11
 70
   128
 43
0.0
 10
247.0474119151
 20
107.9970237861
 10
246.4074070418
 20
107.9202329802
 10
245.8297262752
 20
107.6414686923
 10
245.3280265296
 20
107.1676991033
 10
244.9664945567
 20
106.5096085022
 10
244.847411927
 20
105.8254647014
 10
244.9468101228
 20
105.23651109
 10
245.2251414621
 20
104.7400960179
 10
245.6941480601
 20
104.3350857163
 10
246.3504995072
 20
104.0726236479
 10
247.0474119151
 20
104.0071179105
  0
LWPOLYLINE
  5
155
330
1F
100
AcDbEntity
  8
0
  6
SLD-Gestrichelt
 62
     7
370
     0
100
AcDbPolyline
 90
        3
 70
   128
 43
0.0
 10
260.4474077785
 20
107.1264850853
 10
260.4647974337
 20
107.884209423
 10
260.5154613817
 20
108.6264850983
  0
ARC
  5
156
330
1F
100
AcDbEntity
  8
0
  6
SLD-Gestrichelt
 62
     7
370
     0
100
AcDbCircle
 10
324.2048857437
 20
102.8438999189
 30
0.0
 40
63.95139612958356
100
AcDbArc
 50
163.0453782712
 51
174.8121402559
  0
LWPOLYLINE
  5
157
330
1F
100
AcDbEntity
  8
0
  6
SLD-Gestrichelt
 62
     7
370
     0
100
AcDbPolyline
 90
        6
 70
   128
 43
0.0
 10
263.0330721701
 20
121.4930363876
 10
262.0419214332
 20
121.9061831889
 10
261.2377802694
 20
122.3372626064
 10
260.6013218725
 20
122.8923234103
 10
260.4668090904
 20
123.4760093448
 10
260.775710162
 20
123.9544874934
  0
LINE
  5
158
330
1F
100
AcDbEntity
  8
0
  6
SLD-Gestrichelt
 62
     7
370
     0
100
AcDbLine
 10
260.4474077785
 20
90.8151003478
 30
0.0
 11
260.4474077785
 21
107.1264850853
 31
0.0
  0
ELLIPSE
  5
159
330
1F
100
AcDbEntity
  8
0
  6
SLD-Gestrichelt
 62
     7
370
     0
100
AcDbEllipse
 10
279.8708401881
 20
107.1264850853
 30
0.0
 11
5.390524936199256
 21
16.49183944377623
 31
0.0
210
0.0
220
0.0
230
1.0
 40
0.0962569477
 41
1.602248510774583
 42
3.17304483756963
  0
LINE
  5
15A
330
1F
100
AcDbEntity
  8
0
  6
SLD-Gestrichelt
 62
     7
370
     0
100
AcDbLine
 10
276.0056654776
 20
125.6460971145
 30
0.0
 11
276.0558972919
 21
125.6618960706
 31
0.0
  0
LINE
  5
15B
330
1F
100
AcDbEntity
  8
0
  6
SLD-Gestrichelt
 62
     7
370
     0
100
AcDbLine
 10
276.0558972919
 20
125.6618960706
 30
0.0
 11
273.7434456909
 21
118.3456205709
 31
0.0
  0
LINE
  5
15C
330
1F
100
AcDbEntity
  8
0
  6
SLD-Gestrichelt
 62
     7
370
     0
100
AcDbLine
 10
273.7434456909
 20
118.3456205709
 30
0.0
 11
273.6932138765
 21
118.3298216147
 31
0.0
  0
LINE
  5
15D
330
1F
100
AcDbEntity
  8
0
  6
SLD-Gestrichelt
 62
     7
370
     0
100
AcDbLine
 10
273.1987039411
 20
115.0019601864
 30
0.0
 11
283.5175941551
 21
118.2475699989
 31
0.0
  0
LINE
  5
15E
330
1F
100
AcDbEntity
  8
0
  6
SLD-Gestrichelt
 62
     7
370
     0
100
AcDbLine
 10
272.9696283901
 20
115.0572285933
 30
0.0
 11
283.3051930035
 21
118.3080836145
 31
0.0
  0
LINE
  5
15F
330
1F
100
AcDbEntity
  8
0
  6
SLD-Gestrichelt
 62
     7
370
     0
100
AcDbLine
 10
283.5175941551
 20
118.2475699989
 30
0.0
 11
283.3051930035
 21
118.3080836145
 31
0.0
  0
LINE
  5
160
330
1F
100
AcDbEntity
  8
0
  6
SLD-Gestrichelt
 62
     7
370
     0
100
AcDbLine
 10
273.7434456909
 20
118.3456205709
 30
0.0
 11
273.9558468426
 21
117.9823647199
 31
0.0
  0
LINE
  5
161
330
1F
100
AcDbEntity
  8
0
  6
SLD-Gestrichelt
 62
     7
370
     0
100
AcDbLine
 10
273.5422800148
 20
117.8522841019
 30
0.0
 11
273.9558468426
 21
117.9823647199
 31
0.0
  0
LINE
  5
162
330
1F
100
AcDbEntity
  8
0
  6
SLD-Gestrichelt
 62
     7
370
     0
100
AcDbLine
 10
276.2728283966
 20
125.3129630295
 30
0.0
 11
276.0558972919
 21
125.6618960706
 31
0.0
  0
LINE
  5
163
330
1F
100
AcDbEntity
  8
0
  6
SLD-Gestrichelt
 62
     7
370
     0
100
AcDbLine
 10
276.2728283966
 20
125.3129630295
 30
0.0
 11
273.9558468426
 21
117.9823647199
 31
0.0
  0
LWPOLYLINE
  5
164
330
1F
100
AcDbEntity
  8
0
  6
SLD-Gestrichelt
 62
     7
370
     0
100
AcDbPolyline
 90
       20
 70
   128
 43
0.0
 10
246.9474102223
 20
102.1133670529
 10
247.629279908
 20
102.2215816138
 10
248.2372621859
 20
102.5344994796
 10
248.7054641211
 20
103.0182107297
 10
248.9831547106
 20
103.6202975029
 10
249.0402410591
 20
104.2755145991
 10
248.8705391848
 20
104.9128591494
 10
248.4924296701
 20
105.4632649703
 10
247.9469056094
 20
105.8670870207
 10
247.293065008
 20
106.0805647813
 10
246.6017628873
 20
106.0805647813
 10
245.9479222858
 20
105.8670870207
 10
245.4023907745
 20
105.4632649703
 10
245.0242887104
 20
104.9128591494
 10
244.8545868361
 20
104.2755145991
 10
244.9116731847
 20
103.6202975029
 10
245.1893637741
 20
103.0182107297
 10
245.6575657094
 20
102.5344994796
 10
246.2655405367
 20
102.2215816138
 10
246.9474102223
 20
102.1133670529
  0
ARC
  5
165
330
1F
100
AcDbEntity
  8
0
  6
SLD-Gestrichelt
 62
     7
370
     0
100
AcDbCircle
 10
271.9486017839
 20
115.9411510478
 30
0.0
 40
1.249357140149241
100
AcDbArc
 50
177.6943912816
 51
287.5357426648
  0
LINE
  5
166
330
1F
100
AcDbEntity
  8
0
  6
SLD-Gestrichelt
 62
     7
370
     0
100
AcDbLine
 10
283.3051930035
 20
118.3080836145
 30
0.0
 11
283.0907652939
 21
118.1360031424
 31
0.0
  0
LINE
  5
167
330
1F
100
AcDbEntity
  8
0
  6
SLD-Gestrichelt
 62
     7
370
     0
100
AcDbLine
 10
273.9558468426
 20
117.9823647199
 30
0.0
 11
273.9558468426
 21
117.8777296973
 31
0.0
  0
LINE
  5
168
330
1F
100
AcDbEntity
  8
0
  6
SLD-Gestrichelt
 62
     7
370
     0
100
AcDbLine
 10
273.9558468426
 20
117.8777296973
 30
0.0
 11
273.5055635536
 21
117.7360997481
 31
0.0
  0
LINE
  5
169
330
1F
100
AcDbEntity
  8
0
  6
SLD-Gestrichelt
 62
     7
370
     0
100
AcDbLine
 10
276.208336171
 20
125.004319003
 30
0.0
 11
273.9558468426
 21
117.8777296973
 31
0.0
  0
LINE
  5
16A
330
1F
100
AcDbEntity
  8
0
  6
SLD-Gestrichelt
 62
     7
370
     0
100
AcDbLine
 10
276.208336171
 20
125.004319003
 30
0.0
 11
276.2728283966
 21
125.3129630295
 31
0.0
  0
CIRCLE
  5
16B
330
1F
100
AcDbEntity
  8
0
  6
SLD-Gestrichelt
 62
     7
370
     0
100
AcDbCircle
 10
279.7750226671
 20
121.699818952
 30
0.0
 40
2.398233269668191
  0
LINE
  5
16C
330
1F
100
AcDbEntity
  8
0
  6
SLD-Gestrichelt
 62
     7
370
     0
100
AcDbLine
 10
286.106805023
 20
127.6783621816
 30
0.0
 11
285.7716481054
 21
128.0122729895
 31
0.0
  0
LINE
  5
16D
330
1F
100
AcDbEntity
  8
0
  6
SLD-Gestrichelt
 62
     7
370
     0
100
AcDbLine
 10
272.3250339592
 20
114.7498525625
 30
0.0
 11
283.0907652939
 21
118.1360031424
 31
0.0
  0
LINE
  5
16E
330
1F
100
AcDbEntity
  8
0
  6
SLD-Gestrichelt
 62
     7
370
     0
100
AcDbLine
 10
276.208336171
 20
125.004319003
 30
0.0
 11
285.7716481054
 21
128.0122729895
 31
0.0
  0
LINE
  5
16F
330
1F
100
AcDbEntity
  8
0
  6
SLD-Gestrichelt
 62
     7
370
     0
100
AcDbLine
 10
286.106805023
 20
127.6783621816
 30
0.0
 11
283.0907652939
 21
118.1360031424
 31
0.0
  0
ARC
  5
170
330
1F
100
AcDbEntity
  8
0
  6
SLD-Gestrichelt
 62
     7
370
     0
100
AcDbCircle
 10
279.7799008733
 20
121.643036169
 30
0.0
 40
1.645599177958413
100
AcDbArc
 50
269.8689194813
 51
73.2800142381
  0
ARC
  5
171
330
1F
100
AcDbEntity
  8
0
  6
SLD-Gestrichelt
 62
     7
370
     0
100
AcDbCircle
 10
279.7730521207
 20
121.6433216139
 30
0.0
 40
1.645883205644184
100
AcDbArc
 50
94.0172649497
 51
270.1073581134
  0
LINE
  5
172
330
1F
100
AcDbEntity
  8
0
  6
SLD-Gestrichelt
 62
     7
370
     0
100
AcDbLine
 10
285.7716481054
 20
128.0122729895
 30
0.0
 11
285.1770768726
 21
127.2105569897
 31
0.0
  0
LINE
  5
173
330
1F
100
AcDbEntity
  8
0
  6
SLD-Gestrichelt
 62
     7
370
     0
100
AcDbLine
 10
285.3803287113
 20
126.6987766085
 30
0.0
 11
286.106805023
 21
127.6783621816
 31
0.0
  0
ARC
  5
174
330
1F
100
AcDbEntity
  8
0
  6
SLD-Gestrichelt
 62
     7
370
     0
100
AcDbCircle
 10
279.7783379465
 20
121.1230900879
 30
0.0
 40
1.637564453641876
100
AcDbArc
 50
356.9876085669
 51
183.0564436211
  0
ARC
  5
175
330
1F
100
AcDbEntity
  8
0
  6
SLD-Gestrichelt
 62
     7
370
     0
100
AcDbCircle
 10
279.7761360968
 20
121.0365949276
 30
0.0
 40
1.650203925896156
100
AcDbArc
 50
183.565094164
 51
356.434905836
  0
ELLIPSE
  5
176
330
1F
100
AcDbEntity
  8
0
  6
SLD-Gestrichelt
 62
     7
370
     0
100
AcDbEllipse
 10
309.1788944419
 20
108.6264850853
 30
0.0
 11
24.06101560154787
 21
-22.41887999910558
 31
0.0
210
0.0
220
0.0
230
1.0
 40
0.2135193148
 41
3.546364436398382
 42
3.583208668861858
  0
ELLIPSE
  5
177
330
1F
100
AcDbEntity
  8
0
  6
SLD-Gestrichelt
 62
     7
370
     0
100
AcDbEllipse
 10
218.6220611214
 20
108.6264850853
 30
0.0
 11
73.48411303275276
 21
22.64800636057882
 31
0.0
210
0.0
220
0.0
230
1.0
 40
0.054548757
 41
5.557188037262486
 42
5.828319607358803
  0
ARC
  5
178
330
1F
100
AcDbEntity
  8
0
  6
SLD-Gestrichelt
 62
     7
370
     0
100
AcDbCircle
 10
266.6403429942
 20
143.5399783043
 30
0.0
 40
22.04694383900895
100
AcDbArc
 50
269.9760737075
 51
290.5973720028
  0
LINE
  5
179
330
1F
100
AcDbEntity
  8
0
  6
SLD-Gestrichelt
 62
     7
370
     0
100
AcDbLine
 10
266.6311363542
 20
121.4930363876
 30
0.0
 11
263.0330721701
 21
121.4930363876
 31
0.0
  0
ELLIPSE
  5
17A
330
1F
100
AcDbEntity
  8
0
  6
SLD-Gestrichelt
 62
     7
370
     0
100
AcDbEllipse
 10
281.0479376896
 20
108.6264850853
 30
0.0
 11
7.514065062580812
 21
22.98862467920324
 31
0.0
210
0.0
220
0.0
230
1.0
 40
0.0962569477
 41
0.6983378402770699
 42
1.602248510774582
  0
LINE
  5
17B
330
1F
100
AcDbEntity
  8
0
  6
SLD-Gestrichelt
 62
     7
370
     0
100
AcDbLine
 10
143.0374129528
 20
127.307710698
 30
0.0
 11
143.0374129528
 21
126.9764858244
 31
0.0
  0
LINE
  5
17C
330
1F
100
AcDbEntity
  8
0
  6
SLD-Gestrichelt
 62
     7
370
     0
100
AcDbLine
 10
146.8574131692
 20
127.307710698
 30
0.0
 11
146.8574131692
 21
126.9764858244
 31
0.0
  0
LINE
  5
17D
330
1F
100
AcDbEntity
  8
0
  6
SLD-Gestrichelt
 62
     7
370
     0
100
AcDbLine
 10
148.3393448258
 20
131.5851747004
 30
0.0
 11
148.3393448258
 21
126.9764858244
 31
0.0
  0
LWPOLYLINE
  5
17E
330
1F
100
AcDbEntity
  8
0
  6
SLD-Gestrichelt
 62
     7
370
     0
100
AcDbPolyline
 90
       22
 70
   128
 43
0.0
 10
246.9474102223
 20
101.6586739516
 10
247.6843024457
 20
101.764305955
 10
248.3557115162
 20
102.0718156306
 10
248.9019880855
 20
102.5538798367
 10
249.2745990718
 20
103.1676651856
 10
249.4404191935
 20
103.8586338928
 10
249.3847335542
 20
104.5653901474
 10
249.112474438
 20
105.2251357997
 10
248.6478413308
 20
105.7792495649
 10
248.0321253503
 20
106.1784959111
 10
247.3200212086
 20
106.3874001211
 10
246.5748066867
 20
106.3874001211
 10
245.862702545
 20
106.1784959111
 10
245.2469791139
 20
105.7792495649
 10
244.7823460067
 20
105.2251357997
 10
244.5100943411
 20
104.5653901474
 10
244.4544012511
 20
103.8586338928
 10
244.6202288235
 20
103.1676651856
 10
244.9928323591
 20
102.5538798367
 10
245.5391163791
 20
102.0718156306
 10
246.2105254496
 20
101.764305955
 10
246.9474102223
 20
101.6586739516
  0
LWPOLYLINE
  5
17F
330
1F
100
AcDbEntity
  8
0
  6
SLD-Gestrichelt
 62
     7
370
     0
100
AcDbPolyline
 90
       12
 70
   128
 43
0.0
 10
95.0776922369
 20
87.5363978503
 10
95.1624351406
 20
87.8619472442
 10
95.2134790683
 20
87.9079974202
 10
95.2805268431
 20
87.9136542735
 10
95.3150155807
 20
87.9013868926
 10
95.3597972954
 20
87.874367362
 10
95.3971545065
 20
87.8439317403
 10
95.4356144035
 20
87.8062206266
 10
95.4855705464
 20
87.7487319467
 10
95.5598863626
 20
87.6473835615
 10
95.7202116812
 20
87.3693036793
 10
95.9863222057
 20
86.6825631765
  0
ARC
  5
180
330
1F
100
AcDbEntity
  8
0
  6
SLD-Gestrichelt
 62
     7
370
     0
100
AcDbCircle
 10
279.5267217366
 20
122.871455416
 30
0.0
 40
2.711131426026652
100
AcDbArc
 50
287.2199488753
 51
314.3865588518
  0
ARC
  5
181
330
1F
100
AcDbEntity
  8
0
  6
SLD-Gestrichelt
 62
     7
370
     0
100
AcDbCircle
 10
279.9035423083
 20
122.7024230194
 30
0.0
 40
2.505182857518469
100
AcDbArc
 50
224.903374833
 51
265.4071645955
  0
LINE
  5
182
330
1F
100
AcDbEntity
  8
0
  6
SLD-Gestrichelt
 62
     7
370
     0
100
AcDbLine
 10
278.1146566236
 20
107.1264850853
 30
0.0
 11
278.5999278391
 21
108.6264850983
 31
0.0
  0
LWPOLYLINE
  5
183
330
1F
100
AcDbEntity
  8
0
  6
SLD-Gestrichelt
 62
     7
370
     0
100
AcDbPolyline
 90
       20
 70
   128
 43
0.0
 10
246.3354418838
 20
102.3377454785
 10
246.9801555241
 20
102.2458197495
 10
247.6213226879
 20
102.3579682169
 10
248.1894667113
 20
102.662037587
 10
248.6230085457
 20
103.1250776669
 10
248.8749722803
 20
103.6969099605
 10
248.9180589879
 20
104.3155682219
 10
248.7475971544
 20
104.9140111955
 10
248.3820567692
 20
105.4273883292
 10
247.8610451186
 20
105.8000669528
 10
247.2410301531
 20
105.9916618924
 10
246.5892012084
 20
105.981410592
 10
245.976182338
 20
105.7704240029
 10
245.4684178198
 20
105.381565978
 10
245.1209227407
 20
104.8569751383
 10
244.9713597858
 20
104.2534990648
 10
245.0359265173
 20
103.636533715
 10
245.3076342905
 20
103.0729371069
 10
245.7570384109
 20
102.6237835122
 10
246.3354418838
 20
102.3377454785
  0
LWPOLYLINE
  5
184
330
1F
100
AcDbEntity
  8
0
  6
SLD-Gestrichelt
 62
     7
370
     0
100
AcDbPolyline
 90
       22
 70
   128
 43
0.0
 10
246.1748669708
 20
101.7750441042
 10
246.9100157583
 20
101.6589398442
 10
247.6484800542
 20
101.7540763078
 10
248.3246574963
 20
102.0519994145
 10
248.8784517014
 20
102.5262377171
 10
249.2606739366
 20
103.1346530599
 10
249.4373495543
 20
103.8231849616
 10
249.3927801812
 20
104.5306546094
 10
249.1309369767
 20
105.1941998249
 10
248.6750732029
 20
105.7548620684
 10
248.0656976664
 20
106.1628237894
 10
247.3569611872
 20
106.3818359344
 10
246.6118286217
 20
106.392438227
 10
245.8965207303
 20
106.1936886345
 10
245.274583515
 20
105.8032469537
 10
244.8012928331
 20
105.255805649
 10
244.5186848605
 20
104.6000071747
 10
244.4518904055
 20
103.8941224051
 10
244.606825229
 20
103.2008719576
 10
244.9697355593
 20
102.5818539729
 10
245.5083678329
 20
102.0920718966
 10
246.1748669708
 20
101.7750441042
  0
LWPOLYLINE
  5
185
330
1F
100
AcDbEntity
  8
0
  6
SLD-Gestrichelt
 62
     7
370
     0
100
AcDbPolyline
 90
       22
 70
   128
 43
0.0
 10
246.1748669708
 20
101.2342642007
 10
246.9100157583
 20
101.1181599406
 10
247.6484800542
 20
101.2132964043
 10
248.3246574963
 20
101.511219511
 10
248.8784517014
 20
101.9854578135
 10
249.2606739366
 20
102.5938731564
 10
249.4373495543
 20
103.2824052909
 10
249.3927801812
 20
103.9898749387
 10
249.1309369767
 20
104.6534201542
 10
248.6750732029
 20
105.2140822813
 10
248.0656976664
 20
105.6220440605
 10
247.3569611872
 20
105.8410562055
 10
246.6118286217
 20
105.8516584981
 10
245.8965207303
 20
105.6529089056
 10
245.274583515
 20
105.2624671666
 10
244.8012928331
 20
104.7150259783
 10
244.5186848605
 20
104.059227504
 10
244.4518904055
 20
103.3533425016
 10
244.606825229
 20
102.6600920541
 10
244.9697355593
 20
102.041074535
 10
245.5083678329
 20
101.551291993
 10
246.1748669708
 20
101.2342642007
  0
LWPOLYLINE
  5
186
330
1F
100
AcDbEntity
  8
0
  6
SLD-Gestrichelt
 62
     7
370
     0
100
AcDbPolyline
 90
       20
 70
   128
 43
0.0
 10
246.3293771112
 20
100.620409934
 10
246.9804833496
 20
100.5275738371
 10
247.6279984081
 20
100.6408329067
 10
248.2017676199
 20
100.947914174
 10
248.6396009887
 20
101.4155400863
 10
248.8940681184
 20
101.993036451
 10
248.9375795091
 20
102.6178225821
 10
248.7654263938
 20
103.2221929582
 10
248.3962650264
 20
103.7406548803
 10
247.870097574
 20
104.1170249173
 10
247.2439433301
 20
104.3105174267
 10
246.585654732
 20
104.3001646122
 10
245.9665636385
 20
104.0870882516
 10
245.4537699783
 20
103.6943786258
 10
245.102832731
 20
103.1645918211
 10
244.9517871106
 20
102.5551385192
 10
245.016994592
 20
101.9320622964
 10
245.2913920248
 20
101.3628835736
 10
245.7452515924
 20
100.9092810509
 10
246.3293771112
 20
100.620409934
  0
LWPOLYLINE
  5
187
330
1F
100
AcDbEntity
  8
0
  6
SLD-Gestrichelt
 62
     7
370
     0
100
AcDbPolyline
 90
       20
 70
   128
 43
0.0
 10
246.3293771112
 20
101.9013775458
 10
246.9804833496
 20
101.8085419146
 10
247.6279984081
 20
101.9218009842
 10
248.2017676199
 20
102.2288822515
 10
248.6396009887
 20
102.6965081637
 10
248.8940681184
 20
103.2740045285
 10
248.9375795091
 20
103.8987906595
 10
248.7654263938
 20
104.5031610356
 10
248.3962650264
 20
105.0216229578
 10
247.870097574
 20
105.3979928784
 10
247.2439433301
 20
105.5914853878
 10
246.585654732
 20
105.5811325732
 10
245.9665636385
 20
105.3680563291
 10
245.4537699783
 20
104.9753467032
 10
245.102832731
 20
104.4455598985
 10
244.9517871106
 20
103.8361065967
 10
245.016994592
 20
103.2130303738
 10
245.2913920248
 20
102.6438511854
 10
245.7452515924
 20
102.1902486628
 10
246.3293771112
 20
101.9013775458
  0
LWPOLYLINE
  5
188
330
1F
100
AcDbEntity
  8
0
  6
SLD-Gestrichelt
 62
     7
370
     0
100
AcDbPolyline
 90
       22
 70
   128
 43
0.0
 10
246.1748669708
 20
101.0210425539
 10
246.9100157583
 20
100.9049382938
 10
247.6484800542
 20
101.0000747574
 10
248.3246574963
 20
101.2979978641
 10
248.8784517014
 20
101.7722361667
 10
249.2606739366
 20
102.3806515095
 10
249.4373495543
 20
103.0691834112
 10
249.3927801812
 20
103.776653059
 10
249.1309369767
 20
104.4401985073
 10
248.6750732029
 20
105.000860518
 10
248.0656976664
 20
105.4088222973
 10
247.3569611872
 20
105.6278344422
 10
246.6118286217
 20
105.6384367348
 10
245.8965207303
 20
105.4396871423
 10
245.274583515
 20
105.0492455197
 10
244.8012928331
 20
104.5018040986
 10
244.5186848605
 20
103.8460058571
 10
244.4518904055
 20
103.1401208548
 10
244.606825229
 20
102.4468704072
 10
244.9697355593
 20
101.8278528882
 10
245.5083678329
 20
101.3380703462
 10
246.1748669708
 20
101.0210425539
  0
LWPOLYLINE
  5
189
330
1F
100
AcDbEntity
  8
0
  6
SLD-Gestrichelt
 62
     7
370
     0
100
AcDbPolyline
 90
       21
 70
   128
 43
0.0
 10
246.2366769874
 20
101.3596239445
 10
246.9474102223
 20
101.2525632923
 10
247.6581509078
 20
101.3596239445
 10
248.2993180716
 20
101.6703252626
 10
248.8081554735
 20
102.1542544422
 10
249.1348410809
 20
102.7640402263
 10
249.2474119032
 20
103.4399932196
 10
249.1348410809
 20
104.1159464458
 10
248.8081554735
 20
104.7257324626
 10
248.2993180716
 20
105.209661293
 10
247.6581509078
 20
105.5203628439
 10
246.9474102223
 20
105.6274232633
 10
246.2366769874
 20
105.5203628439
 10
245.5955098236
 20
105.209661293
 10
245.0866724217
 20
104.7257324626
 10
244.7599793637
 20
104.1159464458
 10
244.6474159921
 20
103.4399932196
 10
244.7599793637
 20
102.7640402263
 10
245.0866724217
 20
102.1542544422
 10
245.5955098236
 20
101.6703252626
 10
246.2366769874
 20
101.3596239445
  0
LWPOLYLINE
  5
18A
330
1F
100
AcDbEntity
  8
0
  6
SLD-Gestrichelt
 62
     7
370
     0
100
AcDbPolyline
 90
       22
 70
   128
 43
0.0
 10
246.1748669708
 20
100.807820907
 10
246.9100157583
 20
100.6917166469
 10
247.6484800542
 20
100.7868531106
 10
248.3246574963
 20
101.0847762173
 10
248.8784517014
 20
101.5590145198
 10
249.2606739366
 20
102.1674298627
 10
249.4373495543
 20
102.8559617644
 10
249.3927801812
 20
103.5634314121
 10
249.1309369767
 20
104.2269766276
 10
248.6750732029
 20
104.7876388712
 10
248.0656976664
 20
105.1956006504
 10
247.3569611872
 20
105.414612679
 10
246.6118286217
 20
105.4252149716
 10
245.8965207303
 20
105.2264654955
 10
245.274583515
 20
104.8360238729
 10
244.8012928331
 20
104.2885824518
 10
244.5186848605
 20
103.6327839775
 10
244.4518904055
 20
102.9268992079
 10
244.606825229
 20
102.2336487604
 10
244.9697355593
 20
101.6146307757
 10
245.5083678329
 20
101.1248486994
 10
246.1748669708
 20
100.807820907
  0
LWPOLYLINE
  5
18B
330
1F
100
AcDbEntity
  8
0
  6
SLD-Gestrichelt
 62
     7
370
     0
100
AcDbPolyline
 90
       21
 70
   128
 43
0.0
 10
246.2366769874
 20
101.146401832
 10
246.9474102223
 20
101.0393416455
 10
247.6581509078
 20
101.146401832
 10
248.2993180716
 20
101.4571036158
 10
248.8081554735
 20
101.9410323297
 10
249.1348410809
 20
102.5508185794
 10
249.2474119032
 20
103.2267715728
 10
249.1348410809
 20
103.9027245661
 10
248.8081554735
 20
104.512510583
 10
248.2993180716
 20
104.9964395297
 10
247.6581509078
 20
105.3071410807
 10
246.9474102223
 20
105.4142016165
 10
246.2366769874
 20
105.3071410807
 10
245.5955098236
 20
104.9964395297
 10
245.0866724217
 20
104.512510583
 10
244.7599793637
 20
103.9027245661
 10
244.6474159921
 20
103.2267715728
 10
244.7599793637
 20
102.5508185794
 10
245.0866724217
 20
101.9410323297
 10
245.5955098236
 20
101.4571036158
 10
246.2366769874
 20
101.146401832
  0
LWPOLYLINE
  5
18C
330
1F
100
AcDbEntity
  8
0
  6
SLD-Gestrichelt
 62
     7
370
     0
100
AcDbPolyline
 90
       22
 70
   128
 43
0.0
 10
246.1748669708
 20
100.5945987945
 10
246.9100157583
 20
100.4784950001
 10
247.6484800542
 20
100.5736309981
 10
248.3246574963
 20
100.8715545704
 10
248.8784517014
 20
101.345792873
 10
249.2606739366
 20
101.9542082159
 10
249.4373495543
 20
102.6427401175
 10
249.3927801812
 20
103.3502095325
 10
249.1309369767
 20
104.0137549808
 10
248.6750732029
 20
104.5744172243
 10
248.0656976664
 20
104.9823788872
 10
247.3569611872
 20
105.2013910321
 10
246.6118286217
 20
105.2119933247
 10
245.8965207303
 20
105.0132436158
 10
245.274583515
 20
104.6228019932
 10
244.8012928331
 20
104.075360805
 10
244.5186848605
 20
103.4195623306
 10
244.4518904055
 20
102.7136775611
 10
244.606825229
 20
102.0204271136
 10
244.9697355593
 20
101.4014091288
 10
245.5083678329
 20
100.9116270525
 10
246.1748669708
 20
100.5945987945
  0
LWPOLYLINE
  5
18D
330
1F
100
AcDbEntity
  8
0
  6
SLD-Gestrichelt
 62
     7
370
     0
100
AcDbPolyline
 90
       21
 70
   128
 43
0.0
 10
246.2366769874
 20
100.9331801852
 10
246.9474102223
 20
100.8261199986
 10
247.6581509078
 20
100.9331801852
 10
248.2993180716
 20
101.2438819689
 10
248.8081554735
 20
101.7278106829
 10
249.1348410809
 20
102.3375969326
 10
249.2474119032
 20
103.0135499259
 10
249.1348410809
 20
103.6895029193
 10
248.8081554735
 20
104.2992889361
 10
248.2993180716
 20
104.7832178829
 10
247.6581509078
 20
105.0939194338
 10
246.9474102223
 20
105.2009798532
 10
246.2366769874
 20
105.0939194338
 10
245.5955098236
 20
104.7832178829
 10
245.0866724217
 20
104.2992889361
 10
244.7599793637
 20
103.6895029193
 10
244.6474159921
 20
103.0135499259
 10
244.7599793637
 20
102.3375969326
 10
245.0866724217
 20
101.7278106829
 10
245.5955098236
 20
101.2438819689
 10
246.2366769874
 20
100.9331801852
  0
LWPOLYLINE
  5
18E
330
1F
100
AcDbEntity
  8
0
  6
SLD-Gestrichelt
 62
     7
370
     0
100
AcDbPolyline
 90
       22
 70
   128
 43
0.0
 10
246.1748669708
 20
100.3813771477
 10
246.9100157583
 20
100.2652733532
 10
247.6484800542
 20
100.3604093512
 10
248.3246574963
 20
100.6583324579
 10
248.8784517014
 20
101.1325712261
 10
249.2606739366
 20
101.740986569
 10
249.4373495543
 20
102.4295184707
 10
249.3927801812
 20
103.1369878856
 10
249.1309369767
 20
103.800533334
 10
248.6750732029
 20
104.3611953446
 10
248.0656976664
 20
104.7691572403
 10
247.3569611872
 20
104.9881691524
 10
246.6118286217
 20
104.9987715615
 10
245.8965207303
 20
104.8000219689
 10
245.274583515
 20
104.4095803464
 10
244.8012928331
 20
103.8621389253
 10
244.5186848605
 20
103.2063406838
 10
244.4518904055
 20
102.5004554486
 10
244.606825229
 20
101.8072050011
 10
244.9697355593
 20
101.188187482
 10
245.5083678329
 20
100.69840494
 10
246.1748669708
 20
100.3813771477
  0
LWPOLYLINE
  5
18F
330
1F
100
AcDbEntity
  8
0
  6
SLD-Gestrichelt
 62
     7
370
     0
100
AcDbPolyline
 90
       21
 70
   128
 43
0.0
 10
246.2366769874
 20
100.7199585383
 10
246.9474102223
 20
100.6128983518
 10
247.6581509078
 20
100.7199585383
 10
248.2993180716
 20
101.0306603221
 10
248.8081554735
 20
101.514589036
 10
249.1348410809
 20
102.1243752857
 10
249.2474119032
 20
102.8003282791
 10
249.1348410809
 20
103.4762812724
 10
248.8081554735
 20
104.0860672893
 10
248.2993180716
 20
104.5699962361
 10
247.6581509078
 20
104.880697787
 10
246.9474102223
 20
104.9877582064
 10
246.2366769874
 20
104.880697787
 10
245.5955098236
 20
104.5699962361
 10
245.0866724217
 20
104.0860672893
 10
244.7599793637
 20
103.4762812724
 10
244.6474159921
 20
102.8003282791
 10
244.7599793637
 20
102.1243752857
 10
245.0866724217
 20
101.514589036
 10
245.5955098236
 20
101.0306603221
 10
246.2366769874
 20
100.7199585383
  0
LWPOLYLINE
  5
190
330
1F
100
AcDbEntity
  8
0
  6
SLD-Gestrichelt
 62
     7
370
     0
100
AcDbPolyline
 90
       22
 70
   128
 43
0.0
 10
246.1748669708
 20
100.2114177627
 10
246.9100157583
 20
100.0953139683
 10
247.6484800542
 20
100.1904499663
 10
248.3246574963
 20
100.4883735386
 10
248.8784517014
 20
100.9626118412
 10
249.2606739366
 20
101.5710271841
 10
249.4373495543
 20
102.2595590858
 10
249.3927801812
 20
102.9670285007
 10
249.1309369767
 20
103.630573949
 10
248.6750732029
 20
104.1912359597
 10
248.0656976664
 20
104.5991978554
 10
247.3569611872
 20
104.8182100003
 10
246.6118286217
 20
104.8288121765
 10
245.8965207303
 20
104.630062584
 10
245.274583515
 20
104.2396209614
 10
244.8012928331
 20
103.6921795403
 10
244.5186848605
 20
103.0363812988
 10
244.4518904055
 20
102.3304965293
 10
244.606825229
 20
101.6372460818
 10
244.9697355593
 20
101.018228097
 10
245.5083678329
 20
100.5284455551
 10
246.1748669708
 20
100.2114177627
  0
LWPOLYLINE
  5
191
330
1F
100
AcDbEntity
  8
0
  6
SLD-Gestrichelt
 62
     7
370
     0
100
AcDbPolyline
 90
       21
 70
   128
 43
0.0
 10
246.2181324923
 20
100.2947865
 10
246.9474102223
 20
100.184933277
 10
247.6766954029
 20
100.2947865
 10
248.3345891202
 20
100.6135935841
 10
248.8566960061
 20
101.1101468412
 10
249.1919050777
 20
101.7358400805
 10
249.3074114287
 20
102.4294267354
 10
249.1919050777
 20
103.1230133904
 10
248.8566960061
 20
103.7487068625
 10
248.3345891202
 20
104.2452601196
 10
247.6766954029
 20
104.564066738
 10
246.9474102223
 20
104.6739201938
 10
246.2181324923
 20
104.564066738
 10
245.5602387751
 20
104.2452601196
 10
245.0381318891
 20
103.7487068625
 10
244.7029228175
 20
103.1230133904
 10
244.5874164665
 20
102.4294267354
 10
244.7029228175
 20
101.7358400805
 10
245.0381318891
 20
101.1101468412
 10
245.5602387751
 20
100.6135935841
 10
246.2181324923
 20
100.2947865
  0
ARC
  5
192
330
1F
100
AcDbEntity
  8
0
  6
SLD-Gestrichelt
 62
     7
370
     0
100
AcDbCircle
 10
278.9484665712
 20
120.8187062742
 30
0.0
 40
0.3348717560950274
100
AcDbArc
 50
169.6335448158
 51
308.8306924529
  0
ARC
  5
193
330
1F
100
AcDbEntity
  8
0
  6
SLD-Gestrichelt
 62
     7
370
     0
100
AcDbCircle
 10
280.2776448627
 20
120.6337881334
 30
0.0
 40
0.3350022545629208
100
AcDbArc
 50
215.3326773515
 51
8.6768568658
  0
ARC
  5
194
330
1F
100
AcDbEntity
  8
0
  6
SLD-Gestrichelt
 62
     7
370
     0
100
AcDbCircle
 10
281.1870998748
 20
120.7735089608
 30
0.0
 40
0.5851231788622115
100
AcDbArc
 50
95.204851368
 51
188.7669375609
  0
ARC
  5
195
330
1F
100
AcDbEntity
  8
0
  6
SLD-Gestrichelt
 62
     7
370
     0
100
AcDbCircle
 10
278.1129734254
 20
121.2019701786
 30
0.0
 40
0.5848104390989984
100
AcDbArc
 50
0.0334833544
 51
68.9054209946
  0
ARC
  5
196
330
1F
100
AcDbEntity
  8
0
  6
SLD-Gestrichelt
 62
     7
370
     0
100
AcDbCircle
 10
278.4436598527
 20
122.0593081012
 30
0.0
 40
0.3340920742731581
100
AcDbArc
 50
172.5847458505
 51
248.9117497624
  0
ARC
  5
197
330
1F
100
AcDbEntity
  8
0
  6
SLD-Gestrichelt
 62
     7
370
     0
100
AcDbCircle
 10
281.1036466255
 20
121.6892270413
 30
0.0
 40
0.3343897630153056
100
AcDbArc
 50
275.2113691811
 51
9.2727245871
  0
ARC
  5
198
330
1F
100
AcDbEntity
  8
0
  6
SLD-Gestrichelt
 62
     7
370
     0
100
AcDbCircle
 10
281.4344112036
 20
122.5456262031
 30
0.0
 40
0.5845719773509127
100
AcDbArc
 50
155.2623419455
 51
179.9787046868
  0
LWPOLYLINE
  5
199
330
1F
100
AcDbEntity
  8
0
  6
SLD-Gestrichelt
 62
     7
370
     0
100
AcDbPolyline
 90
        3
 70
   128
 43
0.0
 10
278.9388249481
 20
123.0638283251
 10
278.9403597677
 20
123.1752182303
 10
278.9502243364
 20
123.2150136439
  0
LWPOLYLINE
  5
19A
330
1F
100
AcDbEntity
  8
0
  6
SLD-Gestrichelt
 62
     7
370
     0
100
AcDbPolyline
 90
        3
 70
   128
 43
0.0
 10
280.9317062462
 20
122.9701763896
 10
280.9326003158
 20
122.8977977244
 10
280.9034834469
 20
122.7902485935
  0
ARC
  5
19B
330
1F
100
AcDbEntity
  8
0
  6
SLD-Gestrichelt
 62
     7
370
     0
100
AcDbCircle
 10
279.7761286462
 20
121.8980453019
 30
0.0
 40
2.625000525494639
100
AcDbArc
 50
0.1063149762
 51
179.8936850238
  0
ARC
  5
19C
330
1F
100
AcDbEntity
  8
0
  6
SLD-Gestrichelt
 62
     7
370
     0
100
AcDbCircle
 10
279.5258204568
 20
120.0998576447
 30
0.0
 40
0.5871268349305573
100
AcDbArc
 50
35.4095134669
 51
128.735702599
  0
CIRCLE
  5
19D
330
1F
100
AcDbEntity
  8
0
  6
SLD-Gestrichelt
 62
     7
370
     0
100
AcDbCircle
 10
279.774298162
 20
121.7109405847
 30
0.0
 40
1.998277997318666
  0
CIRCLE
  5
19E
330
1F
100
AcDbEntity
  8
0
  6
SLD-Gestrichelt
 62
     7
370
     0
100
AcDbCircle
 10
279.7743009618
 20
121.3551823813
 30
0.0
 40
1.998278880831135
  0
CIRCLE
  5
19F
330
1F
100
AcDbEntity
  8
0
  6
SLD-Gestrichelt
 62
     7
370
     0
100
AcDbCircle
 10
279.7744479155
 20
121.3483397341
 30
0.0
 40
1.898669052568984
  0
ARC
  5
1A0
330
1F
100
AcDbEntity
  8
0
  6
SLD-Gestrichelt
 62
     7
370
     0
100
AcDbCircle
 10
279.8668245638
 20
121.9993525915
 30
0.0
 40
3.050005111642475
100
AcDbArc
 50
180.1101486552
 51
359.8898513448
  0
CIRCLE
  5
1A1
330
1F
100
AcDbEntity
  8
0
  6
SLD-Gestrichelt
 62
     7
370
     0
100
AcDbCircle
 10
279.8632503455
 20
121.9312848257
 30
0.0
 40
2.196979045684727
  0
CIRCLE
  5
1A2
330
1F
100
AcDbEntity
  8
0
  6
SLD-Gestrichelt
 62
     7
370
     0
100
AcDbCircle
 10
279.8632499048
 20
121.7832968843
 30
0.0
 40
2.196979143063025
  0
ARC
  5
1A3
330
1F
100
AcDbEntity
  8
0
  6
SLD-Gestrichelt
 62
     7
370
     0
100
AcDbCircle
 10
286.2624745641
 20
128.166133955
 30
0.0
 40
0.0985448857524873
100
AcDbArc
 50
341.9058492409
 51
108.2297498205
  0
ARC
  5
1A4
330
1F
100
AcDbEntity
  8
0
  6
SLD-Gestrichelt
 62
     7
370
     0
100
AcDbCircle
 10
276.5377125479
 20
125.1069166528
 30
0.0
 40
0.0989955615875023
100
AcDbArc
 50
107.3946049549
 51
162.4734987417
  0
LINE
  5
1A5
330
1F
100
AcDbEntity
  8
0
  6
SLD-Gestrichelt
 62
     7
370
     0
100
AcDbLine
 10
286.2316469515
 20
128.2597328482
 30
0.0
 11
276.5081177318
 21
125.2013849972
 31
0.0
  0
LINE
  5
1A6
330
1F
100
AcDbEntity
  8
0
  6
SLD-Gestrichelt
 62
     7
370
     0
100
AcDbLine
 10
283.2903365457
 20
118.4356906397
 30
0.0
 11
286.3561461533
 21
128.1355279444
 31
0.0
  0
ARC
  5
1A7
330
1F
100
AcDbEntity
  8
0
  6
SLD-Gestrichelt
 62
     7
370
     0
100
AcDbCircle
 10
283.1959040243
 20
118.4655409411
 30
0.0
 40
0.0990380815527573
100
AcDbArc
 50
287.3976015461
 51
342.4581545248
  0
LINE
  5
1A8
330
1F
100
AcDbEntity
  8
0
  6
SLD-Gestrichelt
 62
     7
370
     0
100
AcDbLine
 10
276.4433125818
 20
125.1367288587
 30
0.0
 11
273.3774880731
 21
115.4368906228
 31
0.0
  0
ARC
  5
1A9
330
1F
100
AcDbEntity
  8
0
  6
SLD-Gestrichelt
 62
     7
370
     0
100
AcDbCircle
 10
273.4711914392
 20
115.4063134707
 30
0.0
 40
0.0985661352964373
100
AcDbArc
 50
161.9275318726
 51
288.2153540416
  0
LINE
  5
1AA
330
1F
100
AcDbEntity
  8
0
  6
SLD-Gestrichelt
 62
     7
370
     0
100
AcDbLine
 10
273.5020021761
 20
115.3126866502
 30
0.0
 11
283.2255164946
 21
118.37103357
 31
0.0
  0
LINE
  5
1AB
330
1F
100
AcDbEntity
  8
0
  6
SLD-Gestrichelt
 62
     7
370
     0
100
AcDbLine
 10
126.9474129045
 20
81.8025614081
 30
0.0
 11
127.0415737423
 21
82.472551143
 31
0.0
  0
LINE
  5
1AC
330
1F
100
AcDbEntity
  8
0
  6
SLD-Gestrichelt
 62
     7
370
     0
100
AcDbLine
 10
127.0415737423
 20
131.7804190276
 30
0.0
 11
126.9474129045
 21
132.4504087625
 31
0.0
  0
ARC
  5
1AD
330
1F
100
AcDbEntity
  8
0
  6
SLD-Gestrichelt
 62
     7
370
     0
100
AcDbCircle
 10
126.4474129045
 20
82.5560542235
 30
0.0
 40
0.5999999999999992
100
AcDbArc
 50
352.0
 51
0.0
  0
ARC
  5
1AE
330
1F
100
AcDbEntity
  8
0
  6
SLD-Gestrichelt
 62
     7
370
     0
100
AcDbCircle
 10
126.4474129045
 20
82.5560542235
 30
0.0
 40
0.599999999999994
100
AcDbArc
 50
0.0
 51
33.5573097619
  0
ARC
  5
1AF
330
1F
100
AcDbEntity
  8
0
  6
SLD-Gestrichelt
 62
     7
370
     0
100
AcDbCircle
 10
126.4474129045
 20
131.696915947
 30
0.0
 40
0.6000000000000119
100
AcDbArc
 50
348.75
 51
8.0
  0
LWPOLYLINE
  5
1B0
330
1F
100
AcDbEntity
  8
0
  6
SLD-Gestrichelt
 62
     7
370
     0
100
AcDbPolyline
 90
        3
 70
   128
 43
0.0
 10
127.0358840744
 20
131.5798624364
 10
127.0017406247
 20
131.4673065154
 10
126.9474129045
 20
131.3652540503
  0
LINE
  5
1B1
330
1F
100
AcDbEntity
  8
0
  6
SLD-Gestrichelt
 62
     7
370
     0
100
AcDbLine
 10
127.047412902
 20
82.556053525
 30
0.0
 11
127.047412902
 21
131.6969166456
 31
0.0
  0
ARC
  5
1B2
330
1F
100
AcDbEntity
  8
0
  6
SLD-Gestrichelt
 62
     7
370
     0
100
AcDbCircle
 10
120.7024149061
 20
95.1264850853
 30
0.0
 40
8.000000000000016
100
AcDbArc
 50
276.8677192364
 51
321.3178125465
  0
ARC
  5
1B3
330
1F
100
AcDbEntity
  8
0
  6
SLD-Gestrichelt
 62
     7
370
     0
100
AcDbCircle
 10
120.7024149061
 20
119.1264850853
 30
0.0
 40
8.000000000000016
100
AcDbArc
 50
38.6821874535
 51
83.118559727
  0
LINE
  5
1B4
330
1F
100
AcDbEntity
  8
0
  6
SLD-Gestrichelt
 62
     7
370
     0
100
AcDbLine
 10
110.0298489297
 20
87.1264855323
 30
0.0
 11
114.2215204278
 21
87.1264855323
 31
0.0
  0
LINE
  5
1B5
330
1F
100
AcDbEntity
  8
0
  6
SLD-Gestrichelt
 62
     7
370
     0
100
AcDbLine
 10
114.2215204278
 20
127.1264846382
 30
0.0
 11
110.0298489297
 21
127.1264846382
 31
0.0
  0
ARC
  5
1B6
330
1F
100
AcDbEntity
  8
0
  6
SLD-Gestrichelt
 62
     7
370
     0
100
AcDbCircle
 10
110.0298484698
 20
87.7264850853
 30
0.0
 40
0.5999999999999962
100
AcDbArc
 50
210.0
 51
270.0
  0
ARC
  5
1B7
330
1F
100
AcDbEntity
  8
0
  6
SLD-Gestrichelt
 62
     7
370
     0
100
AcDbCircle
 10
110.0298484698
 20
126.5264850853
 30
0.0
 40
0.599999999999989
100
AcDbArc
 50
90.0
 51
150.0
  0
LINE
  5
1B8
330
1F
100
AcDbEntity
  8
0
  6
SLD-Gestrichelt
 62
     7
370
     0
100
AcDbLine
 10
109.5102324003
 20
126.8264851479
 30
0.0
 11
107.9513884002
 21
124.1264860091
 31
0.0
  0
LINE
  5
1B9
330
1F
100
AcDbEntity
  8
0
  6
SLD-Gestrichelt
 62
     7
370
     0
100
AcDbLine
 10
107.9513884002
 20
90.1264841614
 30
0.0
 11
109.5102324003
 21
87.4264850227
 31
0.0
  0
ARC
  5
1BA
330
1F
100
AcDbEntity
  8
0
  6
SLD-Gestrichelt
 62
     7
370
     0
100
AcDbCircle
 10
135.3974129045
 20
91.4014850853
 30
0.0
 40
1.500000000000004
100
AcDbArc
 50
238.2116693829
 51
0.0
  0
ARC
  5
1BB
330
1F
100
AcDbEntity
  8
0
  6
SLD-Gestrichelt
 62
     7
370
     0
100
AcDbCircle
 10
135.3974129045
 20
122.8514850853
 30
0.0
 40
1.500000000000004
100
AcDbArc
 50
0.0
 51
121.7883306171
  0
LINE
  5
1BC
330
1F
100
AcDbEntity
  8
0
  6
SLD-Gestrichelt
 62
     7
370
     0
100
AcDbLine
 10
105.147412684
 20
90.1264841614
 30
0.0
 11
107.9513884002
 21
90.1264841614
 31
0.0
  0
LINE
  5
1BD
330
1F
100
AcDbEntity
  8
0
  6
SLD-Gestrichelt
 62
     7
370
     0
100
AcDbLine
 10
107.9513884002
 20
124.1264860091
 30
0.0
 11
101.1474120284
 21
124.1264860091
 31
0.0
  0
LINE
  5
1BE
330
1F
100
AcDbEntity
  8
0
  6
SLD-Gestrichelt
 62
     7
370
     0
100
AcDbLine
 10
126.9474129045
 20
90.1264841614
 30
0.0
 11
134.6072388666
 21
90.1264841614
 31
0.0
  0
LINE
  5
1BF
330
1F
100
AcDbEntity
  8
0
  6
SLD-Gestrichelt
 62
     7
370
     0
100
AcDbLine
 10
134.6072388666
 20
124.1264860091
 30
0.0
 11
126.9474129045
 21
124.1264860091
 31
0.0
  0
LINE
  5
1C0
330
1F
100
AcDbEntity
  8
0
  6
SLD-Gestrichelt
 62
     7
370
     0
100
AcDbLine
 10
244.847411927
 20
109.9745230695
 30
0.0
 11
244.847411927
 21
108.4242733141
 31
0.0
  0
LINE
  5
1C1
330
1F
100
AcDbEntity
  8
0
  6
SLD-Gestrichelt
 62
     7
370
     0
100
AcDbLine
 10
244.847411927
 20
111.1437058953
 30
0.0
 11
244.847411927
 21
111.0390960185
 31
0.0
  0
LINE
  5
1C2
330
1F
100
AcDbEntity
  8
0
  6
SLD-Gestrichelt
 62
     7
370
     0
100
AcDbLine
 10
249.0474159682
 20
110.8147241121
 30
0.0
 11
249.0474159682
 21
111.1437058953
 31
0.0
  0
LINE
  5
1C3
330
1F
100
AcDbEntity
  8
0
  6
SLD-Gestrichelt
 62
     7
370
     0
100
AcDbLine
 10
249.0474159682
 20
107.3931763185
 30
0.0
 11
249.0474159682
 21
110.147706926
 31
0.0
  0
LINE
  5
1C4
330
1F
100
AcDbEntity
  8
0
  6
SLD-Gestrichelt
 62
     7
370
     0
100
AcDbLine
 10
244.160751518
 20
112.3156752383
 30
0.0
 11
243.987652179
 21
110.0771513248
 31
0.0
  0
LINE
  5
1C5
330
1F
100
AcDbEntity
  8
0
  6
SLD-Gestrichelt
 62
     7
370
     0
100
AcDbLine
 10
243.987652179
 20
110.0771513248
 30
0.0
 11
245.2293286884
 21
109.1501852443
 31
0.0
  0
LINE
  5
1C6
330
1F
100
AcDbEntity
  8
0
  6
SLD-Gestrichelt
 62
     7
370
     0
100
AcDbLine
 10
257.0352802837
 20
118.3069306371
 30
0.0
 11
244.2438254917
 21
112.4997325187
 31
0.0
  0
LINE
  5
1C7
330
1F
100
AcDbEntity
  8
0
  6
SLD-Gestrichelt
 62
     7
370
     0
100
AcDbLine
 10
249.0390191639
 20
110.0641447065
 30
0.0
 11
257.0129434431
 21
113.68423141
 31
0.0
  0
LINE
  5
1C8
330
1F
100
AcDbEntity
  8
0
  6
SLD-Gestrichelt
 62
     7
370
     0
100
AcDbLine
 10
146.2474136466
 20
97.6264853907
 30
0.0
 11
148.7474131251
 21
97.6264853907
 31
0.0
  0
LINE
  5
1C9
330
1F
100
AcDbEntity
  8
0
  6
SLD-Gestrichelt
 62
     7
370
     0
100
AcDbLine
 10
148.7474131251
 20
116.6264847798
 30
0.0
 11
146.2474136466
 21
116.6264847798
 31
0.0
  0
LINE
  5
1CA
330
1F
100
AcDbEntity
  8
0
  6
SLD-Gestrichelt
 62
     7
370
     0
100
AcDbLine
 10
136.897412766
 20
98.1264854727
 30
0.0
 11
137.3974128479
 21
98.6264846233
 31
0.0
  0
LINE
  5
1CB
330
1F
100
AcDbEntity
  8
0
  6
SLD-Gestrichelt
 62
     7
370
     0
100
AcDbLine
 10
137.3974128479
 20
115.6264855472
 30
0.0
 11
136.897412766
 21
116.1264846978
 31
0.0
  0
LINE
  5
1CC
330
1F
100
AcDbEntity
  8
0
  6
SLD-Gestrichelt
 62
     7
370
     0
100
AcDbLine
 10
137.3974128479
 20
98.6264846233
 30
0.0
 11
146.2474136466
 21
98.6264846233
 31
0.0
  0
LINE
  5
1CD
330
1F
100
AcDbEntity
  8
0
  6
SLD-Gestrichelt
 62
     7
370
     0
100
AcDbLine
 10
146.2474136466
 20
115.6264855472
 30
0.0
 11
137.3974128479
 21
115.6264855472
 31
0.0
  0
LINE
  5
1CE
330
1F
100
AcDbEntity
  8
0
  6
SLD-Gestrichelt
 62
     7
370
     0
100
AcDbLine
 10
131.8974128777
 20
138.6264855919
 30
0.0
 11
131.8974128777
 21
133.5264849422
 31
0.0
  0
LINE
  5
1CF
330
1F
100
AcDbEntity
  8
0
  6
SLD-Gestrichelt
 62
     7
370
     0
100
AcDbLine
 10
247.0474119151
 20
102.926485235
 30
0.0
 11
249.5710278714
 21
107.1264850853
 31
0.0
  0
LINE
  5
1D0
330
1F
100
AcDbEntity
  8
0
  6
SLD-Gestrichelt
 62
     7
370
     0
100
AcDbLine
 10
249.5710278714
 20
107.1264850853
 30
0.0
 11
247.0474119151
 21
111.3264849355
 31
0.0
  0
LINE
  5
1D1
330
1F
100
AcDbEntity
  8
0
  6
SLD-Gestrichelt
 62
     7
370
     0
100
AcDbLine
 10
122.131850742
 20
83.0471138416
 30
0.0
 11
121.6974185633
 21
83.526180586
 31
0.0
  0
LINE
  5
1D2
330
1F
100
AcDbEntity
  8
0
  6
SLD-Gestrichelt
 62
     7
370
     0
100
AcDbLine
 10
114.1974150056
 20
83.9478685466
 30
0.0
 11
113.71498153
 21
83.4688018022
 31
0.0
  0
LINE
  5
1D3
330
1F
100
AcDbEntity
  8
0
  6
SLD-Gestrichelt
 62
     7
370
     0
100
AcDbLine
 10
113.7148595268
 20
130.7841627804
 30
0.0
 11
114.197410349
 21
130.3050420193
 31
0.0
  0
LINE
  5
1D4
330
1F
100
AcDbEntity
  8
0
  6
SLD-Gestrichelt
 62
     7
370
     0
100
AcDbLine
 10
121.6974129753
 20
130.7267411558
 30
0.0
 11
122.1319550501
 21
131.2058600543
 31
0.0
  0
LINE
  5
1D5
330
1F
100
AcDbEntity
  8
0
  6
SLD-Gestrichelt
 62
     7
370
     0
100
AcDbLine
 10
148.7474131251
 20
102.926485235
 30
0.0
 11
247.0474119151
 21
102.926485235
 31
0.0
  0
LINE
  5
1D6
330
1F
100
AcDbEntity
  8
0
  6
SLD-Gestrichelt
 62
     7
370
     0
100
AcDbLine
 10
247.0474119151
 20
111.3264849355
 30
0.0
 11
148.7474131251
 21
111.3264849355
 31
0.0
  0
LINE
  5
1D7
330
1F
100
AcDbEntity
  8
0
  6
SLD-Gestrichelt
 62
     7
370
     0
100
AcDbLine
 10
121.6974129753
 20
127.0618862418
 30
0.0
 11
121.6974129753
 21
130.8267707882
 31
0.0
  0
LINE
  5
1D8
330
1F
100
AcDbEntity
  8
0
  6
SLD-Gestrichelt
 62
     7
370
     0
100
AcDbLine
 10
114.197413143
 20
130.3047868369
 30
0.0
 11
114.197413143
 21
127.1221074221
 31
0.0
  0
LINE
  5
1D9
330
1F
100
AcDbEntity
  8
0
  6
SLD-Gestrichelt
 62
     7
370
     0
100
AcDbLine
 10
121.6974129753
 20
83.4261211512
 30
0.0
 11
121.6974129753
 21
87.1910839287
 31
0.0
  0
LINE
  5
1DA
330
1F
100
AcDbEntity
  8
0
  6
SLD-Gestrichelt
 62
     7
370
     0
100
AcDbLine
 10
114.197413143
 20
87.1308627484
 30
0.0
 11
114.197413143
 21
83.9481907842
 31
0.0
  0
LINE
  5
1DB
330
1F
100
AcDbEntity
  8
0
  6
SLD-Gestrichelt
 62
     7
370
     0
100
AcDbLine
 10
244.847411927
 20
105.8286968564
 30
0.0
 11
244.847411927
 21
104.1105855202
 31
0.0
  0
LINE
  5
1DC
330
1F
100
AcDbEntity
  8
0
  6
SLD-Gestrichelt
 62
     7
370
     0
100
AcDbLine
 10
249.0474159682
 20
104.1105855202
 30
0.0
 11
249.0474159682
 21
106.859793852
 31
0.0
  0
LINE
  5
1DD
330
1F
100
AcDbEntity
  8
0
  6
SLD-Gestrichelt
 62
     7
370
     0
100
AcDbLine
 10
270.6991533602
 20
116.0437292365
 30
0.0
 11
270.6991533602
 21
115.9390951452
 31
0.0
  0
LINE
  5
1DE
330
1F
100
AcDbEntity
  8
0
  6
SLD-Gestrichelt
 62
     7
370
     0
100
AcDbLine
 10
278.1261305178
 20
121.6434226317
 30
0.0
 11
278.1261305178
 21
121.0382166264
 31
0.0
  0
LINE
  5
1DF
330
1F
100
AcDbEntity
  8
0
  6
SLD-Gestrichelt
 62
     7
370
     0
100
AcDbLine
 10
281.4261267746
 20
121.0382389782
 30
0.0
 11
281.4261267746
 21
121.6434226317
 31
0.0
  0
LINE
  5
1E0
330
1F
100
AcDbEntity
  8
0
  6
SLD-Gestrichelt
 62
     7
370
     0
100
AcDbLine
 10
244.4474126065
 20
104.036315106
 30
0.0
 11
244.4474126065
 21
102.1836972741
 31
0.0
  0
LINE
  5
1E1
330
1F
100
AcDbEntity
  8
0
  6
SLD-Gestrichelt
 62
     7
370
     0
100
AcDbLine
 10
249.4474152887
 20
102.1823715364
 30
0.0
 11
249.4474152887
 21
104.036315106
 31
0.0
  0
LINE
  5
1E2
330
1F
100
AcDbEntity
  8
0
  6
SLD-Gestrichelt
 62
     7
370
     0
100
AcDbLine
 10
244.4474126065
 20
104.036315106
 30
0.0
 11
244.4474126065
 21
103.4955354353
 31
0.0
  0
LINE
  5
1E3
330
1F
100
AcDbEntity
  8
0
  6
SLD-Gestrichelt
 62
     7
370
     0
100
AcDbLine
 10
249.4474152887
 20
103.4955354353
 30
0.0
 11
249.4474152887
 21
104.036315106
 31
0.0
  0
LINE
  5
1E4
330
1F
100
AcDbEntity
  8
0
  6
SLD-Gestrichelt
 62
     7
370
     0
100
AcDbLine
 10
244.9474136198
 20
103.7103948129
 30
0.0
 11
244.9474136198
 21
102.4294267354
 31
0.0
  0
LINE
  5
1E5
330
1F
100
AcDbEntity
  8
0
  6
SLD-Gestrichelt
 62
     7
370
     0
100
AcDbLine
 10
248.9474142754
 20
102.4294267354
 30
0.0
 11
248.9474142754
 21
103.7103948129
 31
0.0
  0
LINE
  5
1E6
330
1F
100
AcDbEntity
  8
0
  6
SLD-Gestrichelt
 62
     7
370
     0
100
AcDbLine
 10
244.4474126065
 20
102.6426483823
 30
0.0
 11
244.4474126065
 21
102.4726889973
 31
0.0
  0
LINE
  5
1E7
330
1F
100
AcDbEntity
  8
0
  6
SLD-Gestrichelt
 62
     7
370
     0
100
AcDbLine
 10
249.4474152887
 20
102.4726889973
 30
0.0
 11
249.4474152887
 21
102.6426483823
 31
0.0
  0
CIRCLE
  5
1E8
330
1F
100
AcDbEntity
  8
0
  6
SLD-Gestrichelt
 62
     7
370
     0
100
AcDbCircle
 10
246.9474129045
 20
103.1710675573
 30
0.0
 40
2.000000000000005
  0
LINE
  5
1E9
330
1F
100
AcDbEntity
  8
0
  6
SLD-Gestrichelt
 62
     7
370
     0
100
AcDbLine
 10
278.6134878958
 20
120.9146189449
 30
0.0
 11
278.6134878958
 21
120.8182466162
 31
0.0
  0
LINE
  5
1EA
330
1F
100
AcDbEntity
  8
0
  6
SLD-Gestrichelt
 62
     7
370
     0
100
AcDbLine
 10
280.612761792
 20
120.6331453232
 30
0.0
 11
280.612761792
 21
120.7286366207
 31
0.0
  0
LINE
  5
1EB
330
1F
100
AcDbEntity
  8
0
  6
SLD-Gestrichelt
 62
     7
370
     0
100
AcDbLine
 10
278.1095455254
 20
122.1494502334
 30
0.0
 11
278.1095455254
 21
122.0591799302
 31
0.0
  0
LINE
  5
1EC
330
1F
100
AcDbEntity
  8
0
  6
SLD-Gestrichelt
 62
     7
370
     0
100
AcDbLine
 10
281.438092407
 20
121.6889764128
 30
0.0
 11
281.438092407
 21
121.786634898
 31
0.0
  0
LINE
  5
1ED
330
1F
100
AcDbEntity
  8
0
  6
SLD-Gestrichelt
 62
     7
370
     0
100
AcDbLine
 10
278.9348761404
 20
123.2105153558
 30
0.0
 11
278.9348761404
 21
123.1150100885
 31
0.0
  0
LINE
  5
1EE
330
1F
100
AcDbEntity
  8
0
  6
SLD-Gestrichelt
 62
     7
370
     0
100
AcDbLine
 10
280.9341500366
 20
122.9299078641
 30
0.0
 11
280.9341500366
 21
123.0262233821
 31
0.0
  0
ARC
  5
1EF
330
1F
100
AcDbEntity
  8
0
  6
SLD-Gestrichelt
 62
     7
370
     0
100
AcDbCircle
 10
279.6974263551
 20
121.6940771994
 30
0.0
 40
1.71855293774575
100
AcDbArc
 50
171.8905427128
 51
264.1954847124
  0
ARC
  5
1F0
330
1F
100
AcDbEntity
  8
0
  6
SLD-Gestrichelt
 62
     7
370
     0
100
AcDbCircle
 10
279.8324664128
 20
121.690468602
 30
0.0
 40
1.733861259367079
100
AcDbArc
 50
259.7393890688
 51
2.7980653548
  0
LINE
  5
1F1
330
1F
100
AcDbEntity
  8
0
  6
SLD-Gestrichelt
 62
     7
370
     0
100
AcDbLine
 10
277.7761320436
 20
121.7075982077
 30
0.0
 11
277.7761320436
 21
121.3518404348
 31
0.0
  0
LINE
  5
1F2
330
1F
100
AcDbEntity
  8
0
  6
SLD-Gestrichelt
 62
     7
370
     0
100
AcDbLine
 10
281.7761252487
 20
121.3518404348
 30
0.0
 11
281.7761252487
 21
121.7075982077
 31
0.0
  0
LINE
  5
1F3
330
1F
100
AcDbEntity
  8
0
  6
SLD-Gestrichelt
 62
     7
370
     0
100
AcDbLine
 10
276.8168250883
 20
122.0631427077
 30
0.0
 11
276.8168250883
 21
121.9934890924
 31
0.0
  0
LINE
  5
1F4
330
1F
100
AcDbEntity
  8
0
  6
SLD-Gestrichelt
 62
     7
370
     0
100
AcDbLine
 10
282.9168240393
 20
121.9934890924
 30
0.0
 11
282.9168240393
 21
122.0631427077
 31
0.0
  0
LINE
  5
1F5
330
1F
100
AcDbEntity
  8
0
  6
SLD-Gestrichelt
 62
     7
370
     0
100
AcDbLine
 10
277.6668171251
 20
121.9341955093
 30
0.0
 11
277.6668171251
 21
121.7862092836
 31
0.0
  0
LINE
  5
1F6
330
1F
100
AcDbEntity
  8
0
  6
SLD-Gestrichelt
 62
     7
370
     0
100
AcDbLine
 10
282.0668171013
 20
121.7862092836
 30
0.0
 11
282.0668171013
 21
121.9341955093
 31
0.0
  0
LINE
  5
1F7
330
1F
100
AcDbEntity
  8
VERMASSUNG
100
AcDbLine
 10
286.9474129045
 20
107.1264850853
 30
0.0
 11
286.9474129045
 21
129.1264850853
 31
0.0
  0
DIMENSION
  5
1F8
330
1F
100
AcDbEntity
  8
VERMASSUNG
100
AcDbDimension
  2
_D
 10
88.6351979773
 20
75.6264850853
 30
0.0
 11
88.6351979773
 21
107.1264850853
 31
0.0
 70
   160
  1
HSK %%c<>
 71
     2
 42
-1.0
  3
SLDDIMSTYLE0
100
AcDbAlignedDimension
 13
127.2474129045
 23
138.6264850853
 33
0.0
 14
127.2474129045
 24
75.6264850853
 34
0.0
 50
90.0
100
AcDbRotatedDimension
  0
DIMENSION
  5
205
330
1F
100
AcDbEntity
  8
VERMASSUNG
100
AcDbDimension
  2
_D_1
 10
286.9474129045
 20
148.6264850853
 30
0.0
 11
206.9474129045
 21
148.6264850853
 31
0.0
 70
   160
  1
<>
 71
     2
 42
-1.0
  3
SLDDIMSTYLE0
100
AcDbAlignedDimension
 13
126.9474129045
 23
138.3264850853
 33
0.0
 14
286.9474129045
 24
129.1264850853
 34
0.0
100
AcDbRotatedDimension
  0
DIMENSION
  5
20F
330
1F
100
AcDbEntity
  8
VERMASSUNG
100
AcDbDimension
  2
_D_2
 10
286.9474129045
 20
156.8446738612
 30
0.0
 11
190.9974129045
 21
156.8446738612
 31
0.0
 70
   160
  1
<>
 71
     2
 42
-1.0
  3
SLDDIMSTYLE0
100
AcDbAlignedDimension
 13
95.0474129045
 23
126.8171628318
 33
0.0
 14
286.9474129045
 24
129.1264850853
 34
0.0
100
AcDbRotatedDimension
  0
DIMENSION
  5
219
330
1F
100
AcDbEntity
  8
VERMASSUNG
100
AcDbDimension
  2
_D_3
 10
279.9070535566
 20
107.1264850853
 30
0.0
 11
282.7192727904
 21
101.9755310074
 31
0.0
 70
   162
  1
<>
 71
     1
 42
-1.0
  3
SLDDIMSTYLE1
100
AcDb2LineAngularDimension
 13
286.9474129045
 23
107.1264850853
 33
0.0
 14
286.9474129045
 24
129.1264850853
 34
0.0
 15
283.5005720133
 25
118.5515003076
 35
0.0
 16
282.7192727904
 26
101.9755310074
 36
0.0
  0
DIMENSION
  5
224
330
1F
100
AcDbEntity
  8
VERMASSUNG
100
AcDbDimension
  2
_D_4
 10
291.7224268218
 20
107.1264850853
 30
0.0
 11
291.7224268218
 21
118.1264850853
 31
0.0
 70
   160
  1
<>
 71
     2
 42
-1.0
  3
SLDDIMSTYLE0
100
AcDbAlignedDimension
 13
286.9474129045
 23
129.1264850853
 33
0.0
 14
282.0420737875
 24
107.1264850853
 34
0.0
 50
90.0
100
AcDbRotatedDimension
  0
LINE
  5
22E
330
1F
100
AcDbEntity
  8
VERMASSUNG
  6
SLD-Punktstrich
370
     0
100
AcDbLine
 10
92.8861032538
 20
107.1264850853
 30
0.0
 11
282.0420737875
 21
107.1264850853
 31
0.0
  0
LINE
  5
22F
330
1F
100
AcDbEntity
  8
0
  6
SLD-Durchgehend
 62
     7
370
    15
100
AcDbLine
 10
64.9015863738
 20
107.1264850853
 30
0.0
 11
64.9015863738
 21
108.6264850983
 31
0.0
  0
ARC
  5
230
330
1F
100
AcDbEntity
  8
0
  6
SLD-Durchgehend
 62
     7
370
    15
100
AcDbCircle
 10
48.4015864632
 20
107.1264850853
 30
0.0
 40
16.50000000000001
100
AcDbArc
 50
261.7087285136
 51
0.0
  0
LINE
  5
231
330
1F
100
AcDbEntity
  8
0
  6
SLD-Durchgehend
 62
     7
370
    15
100
AcDbLine
 10
47.9415911678
 20
118.2475699989
 30
0.0
 11
46.0221965177
 21
90.798947489
 31
0.0
  0
LINE
  5
232
330
1F
100
AcDbEntity
  8
0
  6
SLD-Durchgehend
 62
     7
370
    15
100
AcDbLine
 10
47.9415911678
 20
118.2475699989
 30
0.0
 11
50.1211215588
 21
118.3080836145
 31
0.0
  0
LINE
  5
233
330
1F
100
AcDbEntity
  8
0
  6
SLD-Durchgehend
 62
     7
370
    15
100
AcDbLine
 10
50.1211215588
 20
118.3080836145
 30
0.0
 11
51.612751543
 21
118.1360031424
 31
0.0
  0
LINE
  5
234
330
1F
100
AcDbEntity
  8
0
  6
SLD-Durchgehend
 62
     7
370
    15
100
AcDbLine
 10
51.6277095149
 20
118.3499130366
 30
0.0
 11
51.612751543
 21
118.1360031424
 31
0.0
  0
LINE
  5
235
330
1F
100
AcDbEntity
  8
0
  6
SLD-Durchgehend
 62
     7
370
    15
100
AcDbLine
 10
56.1280499524
 20
126.6987766085
 30
0.0
 11
52.2800183235
 21
127.6783621816
 31
0.0
  0
ARC
  5
236
330
1F
100
AcDbEntity
  8
0
  6
SLD-Durchgehend
 62
     7
370
    15
100
AcDbCircle
 10
41.9015864632
 20
108.6264850853
 30
0.0
 40
23.0
100
AcDbArc
 50
0.0
 51
51.7902664763
  0
LINE
  5
237
330
1F
100
AcDbEntity
  8
0
  6
SLD-Durchgehend
 62
     7
370
    15
100
AcDbLine
 10
52.3033675118
 20
128.0122729895
 30
0.0
 11
55.4526855549
 21
127.2105569897
 31
0.0
  0
ARC
  5
238
330
1F
100
AcDbEntity
  8
0
  6
SLD-Durchgehend
 62
     7
370
    15
100
AcDbCircle
 10
41.9015864632
 20
108.6264850853
 30
0.0
 40
23.0
100
AcDbArc
 50
51.7902664763
 51
53.9012854959
  0
ARC
  5
239
330
1F
100
AcDbEntity
  8
0
  6
SLD-Durchgehend
 62
     7
370
    15
100
AcDbCircle
 10
48.4016839075
 20
107.1268660008
 30
0.0
 40
16.00039265666304
100
AcDbArc
 50
253.5178356994
 51
260.5057718518
  0
ARC
  5
23A
330
1F
100
AcDbEntity
  8
0
  6
SLD-Durchgehend
 62
     7
370
    15
100
AcDbCircle
 10
48.4015360142
 20
107.1270873728
 30
0.0
 40
15.99939639994681
100
AcDbArc
 50
91.4939850323
 51
98.4823562097
  0
LWPOLYLINE
  5
23B
330
1F
100
AcDbEntity
  8
0
  6
SLD-Durchgehend
 62
     7
370
    15
100
AcDbPolyline
 90
        3
 70
   128
 43
0.0
 10
45.9138769502
 20
90.8151003478
 10
45.778463812
 20
91.3022062687
 10
45.7624471592
 20
91.3456431536
  0
ELLIPSE
  5
23C
330
1F
100
AcDbEntity
  8
0
  6
SLD-Durchgehend
 62
     7
370
    15
100
AcDbEllipse
 10
40.5887304208
 20
115.9955810032
 30
0.0
 11
1.733036295194175
 21
1.855089312013831
 31
0.0
210
0.0
220
0.0
230
1.0
 40
0.8112573031
 41
0.0
 42
6.283185307179586
  0
ARC
  5
23D
330
1F
100
AcDbEntity
  8
0
  6
SLD-Durchgehend
 62
     7
370
    15
100
AcDbCircle
 10
48.4015864632
 20
107.1264850853
 30
0.0
 40
16.0
100
AcDbArc
 50
98.4822165171
 51
253.5177834829
  0
LINE
  5
23E
330
1F
100
AcDbEntity
  8
0
  6
SLD-Durchgehend
 62
     7
370
    15
100
AcDbLine
 10
39.4015868506
 20
77.5662078468
 30
0.0
 11
39.4015868506
 21
76.9395674525
 31
0.0
  0
ARC
  5
23F
330
1F
100
AcDbEntity
  8
0
  6
SLD-Durchgehend
 62
     7
370
    15
100
AcDbCircle
 10
48.4015864632
 20
107.1264850853
 30
0.0
 40
31.49999999999999
100
AcDbArc
 50
140.9381656697
 51
253.398450401
  0
LINE
  5
240
330
1F
100
AcDbEntity
  8
0
  6
SLD-Durchgehend
 62
     7
370
    15
100
AcDbLine
 10
23.942896848
 20
126.9764858244
 30
0.0
 11
24.7206350169
 21
126.9764858244
 31
0.0
  0
LINE
  5
241
330
1F
100
AcDbEntity
  8
0
  6
SLD-Durchgehend
 62
     7
370
    15
100
AcDbLine
 10
40.4015860832
 20
136.972926086
 30
0.0
 11
40.4015860832
 21
137.5936805216
 31
0.0
  0
LINE
  5
242
330
1F
100
AcDbEntity
  8
0
  6
SLD-Durchgehend
 62
     7
370
    15
100
AcDbLine
 10
28.5515857241
 20
131.5851747004
 30
0.0
 11
28.5515857241
 21
130.8074365316
 31
0.0
  0
ARC
  5
243
330
1F
100
AcDbEntity
  8
0
  6
SLD-Durchgehend
 62
     7
370
    15
100
AcDbCircle
 10
48.4015864632
 20
107.1264850853
 30
0.0
 40
31.49999999999999
100
AcDbArc
 50
104.7124579609
 51
129.0618343303
  0
LINE
  5
244
330
1F
100
AcDbEntity
  8
0
  6
SLD-Durchgehend
 62
     7
370
    15
100
AcDbLine
 10
56.4015868431
 20
137.5936805216
 30
0.0
 11
56.4015868431
 21
136.972926086
 31
0.0
  0
ARC
  5
245
330
1F
100
AcDbEntity
  8
0
  6
SLD-Durchgehend
 62
     7
370
    15
100
AcDbCircle
 10
48.4015864632
 20
107.1264850853
 30
0.0
 40
31.49999999999999
100
AcDbArc
 50
286.601549599
 51
75.2875420391
  0
LINE
  5
246
330
1F
100
AcDbEntity
  8
0
  6
SLD-Durchgehend
 62
     7
370
    15
100
AcDbLine
 10
57.4015860757
 20
76.9395674525
 30
0.0
 11
57.4015860757
 21
77.5662078468
 31
0.0
  0
LINE
  5
247
330
1F
100
AcDbEntity
  8
0
  6
SLD-Durchgehend
 62
     7
370
    15
100
AcDbLine
 10
56.4015868431
 20
133.5264849422
 30
0.0
 11
40.4015860832
 21
133.5264849422
 31
0.0
  0
LINE
  5
248
330
1F
100
AcDbEntity
  8
0
  6
SLD-Durchgehend
 62
     7
370
    15
100
AcDbLine
 10
57.4015860757
 20
80.7264852283
 30
0.0
 11
39.4015868506
 21
80.7264852283
 31
0.0
  0
LINE
  5
249
330
1F
100
AcDbEntity
  8
0
  6
SLD-Durchgehend
 62
     7
370
    15
100
AcDbLine
 10
56.4015868431
 20
136.972926086
 30
0.0
 11
56.4015868431
 21
133.5264849422
 31
0.0
  0
LINE
  5
24A
330
1F
100
AcDbEntity
  8
0
  6
SLD-Durchgehend
 62
     7
370
    15
100
AcDbLine
 10
57.4015860757
 20
77.5662078468
 30
0.0
 11
57.4015860757
 21
80.7264852283
 31
0.0
  0
LINE
  5
24B
330
1F
100
AcDbEntity
  8
0
  6
SLD-Durchgehend
 62
     7
370
    15
100
AcDbLine
 10
40.4015860832
 20
133.5264849422
 30
0.0
 11
40.4015860832
 21
136.972926086
 31
0.0
  0
LINE
  5
24C
330
1F
100
AcDbEntity
  8
0
  6
SLD-Durchgehend
 62
     7
370
    15
100
AcDbLine
 10
39.4015868506
 20
80.7264852283
 30
0.0
 11
39.4015868506
 21
77.5662078468
 31
0.0
  0
LINE
  5
24D
330
1F
100
AcDbEntity
  8
0
  6
SLD-Durchgehend
 62
     7
370
    15
100
AcDbLine
 10
28.5515857241
 20
130.8074365316
 30
0.0
 11
28.5515857241
 21
126.9764858244
 31
0.0
  0
LINE
  5
24E
330
1F
100
AcDbEntity
  8
0
  6
SLD-Durchgehend
 62
     7
370
    15
100
AcDbLine
 10
24.7206350169
 20
126.9764858244
 30
0.0
 11
28.5515857241
 21
126.9764858244
 31
0.0
  0
ARC
  5
24F
330
1F
100
AcDbEntity
  8
0
  6
SLD-Durchgehend
 62
     7
370
    15
100
AcDbCircle
 10
48.4029918318
 20
107.1178056652
 30
0.0
 40
31.49128069790734
100
AcDbArc
 50
271.8171650148
 51
286.6036104447
  0
ARC
  5
250
330
1F
100
AcDbEntity
  8
0
  6
SLD-Durchgehend
 62
     7
370
    15
100
AcDbCircle
 10
48.404733306
 20
107.1458796171
 30
0.0
 40
31.5194850954945
100
AcDbArc
 50
253.4030421033
 51
268.1761824372
  0
ARC
  5
251
330
1F
100
AcDbEntity
  8
0
  6
SLD-Durchgehend
 62
     7
370
    15
100
AcDbCircle
 10
48.4015864632
 20
107.1230583519
 30
0.0
 40
31.50331445242663
100
AcDbArc
 50
75.289124154
 51
104.710875846
  0
ARC
  5
252
330
1F
100
AcDbEntity
  8
0
  6
SLD-Durchgehend
 62
     7
370
    15
100
AcDbCircle
 10
48.4012355927
 20
107.1268359558
 30
0.0
 40
31.49950688590018
100
AcDbArc
 50
129.0617420529
 51
140.9382579471
  0
ARC
  5
253
330
1F
100
AcDbEntity
  8
0
  6
SLD-Durchgehend
 62
     7
370
    15
100
AcDbCircle
 10
48.4015864632
 20
107.1264850853
 30
0.0
 40
31.49999999999999
100
AcDbArc
 50
268.180780706
 51
271.819219294
  0
LWPOLYLINE
  5
254
330
1F
100
AcDbEntity
  8
0
  6
SLD-Durchgehend
 62
     7
370
    15
100
AcDbPolyline
 90
        8
 70
   128
 43
0.0
 10
48.3658716103
 20
128.6157383529
 10
48.3753363997
 20
128.751091188
 10
48.3846683028
 20
128.884544125
 10
48.3925962381
 20
128.9979196099
 10
48.3983169923
 20
129.0797288475
 10
48.4013637874
 20
129.1232998429
 10
48.4014652907
 20
129.1247527061
 10
48.4004773538
 20
129.1106245426
  0
LWPOLYLINE
  5
255
330
1F
100
AcDbEntity
  8
0
  6
SLD-Durchgehend
 62
     7
370
    15
100
AcDbPolyline
 90
        4
 70
   128
 43
0.0
 10
48.4004773538
 20
129.1106245426
 10
49.4912278219
 20
128.8653123138
 10
50.6043874039
 20
128.6429236589
 10
52.3206714852
 20
128.2597328482
  0
LWPOLYLINE
  5
256
330
1F
100
AcDbEntity
  8
0
  6
SLD-Durchgehend
 62
     7
370
    15
100
AcDbPolyline
 90
        8
 70
   128
 43
0.0
 10
52.3206714852
 20
128.2597328482
 10
52.3210035017
 20
128.264478868
 10
52.3205248019
 20
128.2576317845
 10
52.3193075633
 20
128.2402272282
 10
52.3175357221
 20
128.2148859409
 10
52.3154011308
 20
128.1843627749
 10
52.3130970387
 20
128.1514107195
 10
52.3119864366
 20
128.1355279444
  0
LINE
  5
257
330
1F
100
AcDbEntity
  8
0
  6
SLD-Durchgehend
 62
     7
370
    15
100
AcDbLine
 10
51.6337076979
 20
118.4356906397
 30
0.0
 11
52.3119864366
 21
128.1355279444
 31
0.0
  0
LINE
  5
258
330
1F
100
AcDbEntity
  8
0
  6
SLD-Durchgehend
 62
     7
370
    15
100
AcDbLine
 10
47.6565836425
 20
118.4724480791
 30
0.0
 11
48.3658716103
 21
128.6157383529
 31
0.0
  0
LWPOLYLINE
  5
259
330
1F
100
AcDbEntity
  8
0
  6
SLD-Durchgehend
 62
     7
370
    15
100
AcDbPolyline
 90
        4
 70
   128
 43
0.0
 10
51.6337076979
 20
118.4356906397
 10
51.632111411
 20
118.4128629921
 10
51.630379151
 20
118.3880916742
 10
51.6291863597
 20
118.37103357
  0
LINE
  5
25A
330
1F
100
AcDbEntity
  8
0
  6
SLD-Durchgehend
 62
     7
370
    15
100
AcDbLine
 10
47.6384991626
 20
118.213828182
 30
0.0
 11
47.6565836425
 21
118.4724480791
 31
0.0
  0
LINE
  5
25B
330
1F
100
AcDbEntity
  8
0
  6
SLD-Durchgehend
 62
     7
370
    15
100
AcDbLine
 10
47.4148614876
 20
115.0156608728
 30
0.0
 11
47.7173236859
 21
115.0403958691
 31
0.0
  0
LINE
  5
25C
330
1F
100
AcDbEntity
  8
0
  6
SLD-Durchgehend
 62
     7
370
    15
100
AcDbLine
 10
51.6277095149
 20
118.3499130366
 30
0.0
 11
51.6291863597
 21
118.37103357
 31
0.0
  0
LINE
  5
25D
330
1F
100
AcDbEntity
  8
0
  6
SLD-Durchgehend
 62
     7
370
    15
100
AcDbLine
 10
47.4148614876
 20
115.0156608728
 30
0.0
 11
47.6384991626
 21
118.213828182
 31
0.0
  0
CIRCLE
  5
25E
330
1F
100
AcDbEntity
  8
VERMASSUNG
  6
SLD-Punktstrich
100
AcDbCircle
 10
48.4017330737
 20
109.1285817142
 30
0.0
 40
20.0
  0
POINT
  5
25F
330
1F
100
AcDbEntity
  8
VERMASSUNG
100
AcDbPoint
 10
48.4017330737
 20
129.1285817142
 30
0.0
  0
DIMENSION
  5
260
330
1F
100
AcDbEntity
  8
VERMASSUNG
100
AcDbDimension
  2
_D_5
 10
12.4712381705
 20
129.1285817142
 30
0.0
 11
12.4712381705
 21
109.1285817142
 31
0.0
 70
   160
  1
%%c<>
 71
     2
 42
-1.0
  3
SLDDIMSTYLE0
100
AcDbAlignedDimension
 13
48.4017330737
 23
89.1285817142
 33
0.0
 14
48.4017330737
 24
129.1285817142
 34
0.0
 50
90.0
100
AcDbRotatedDimension
  0
INSERT
  5
276
330
1F
100
AcDbEntity
  8
VERMASSUNG
100
AcDbBlockReference
  2
SW_CENTERMARKSYMBOL_0
 10
48.4015864632
 20
107.1264850853
 30
0.0
  0
OLE2FRAME
  5
277
330
1F
100
AcDbEntity
  8
0
100
AcDbOle2Frame
 70
     2
  3
Paintbrush-Bild
 10
13.8511154363
 20
38.264191557
 30
0.0
 11
51.6290888628
 21
31.9806341108
 31
0.0
 71
     2
 72
     0
 73
     1
 90
    12928
310
80552BED0767C5B32B40DDAF6807D121434000000000000000006FFBDDFB85D0
310
4940DDAF6807D121434000000000000000006FFBDDFB85D04940416F4BD60AFB
310
3F4000000000000000002BED0767C5B32B40416F4BD60AFB3F40000000000000
310
0000000000000100000000010000010000000100000000000100000000320000
310
D0CF11E0A1B11AE1000000000000000000000000000000003E000300FEFF0900
310
0600000000000000000000000100000001000000000000000010000002000000
310
01000000FEFFFFFF0000000000000000FFFFFFFFFFFFFFFFFFFFFFFFFFFFFFFF
310
FFFFFFFFFFFFFFFFFFFFFFFFFFFFFFFFFFFFFFFFFFFFFFFFFFFFFFFFFFFFFFFF
310
FFFFFFFFFFFFFFFFFFFFFFFFFFFFFFFFFFFFFFFFFFFFFFFFFFFFFFFFFFFFFFFF
310
FFFFFFFFFFFFFFFFFFFFFFFFFFFFFFFFFFFFFFFFFFFFFFFFFFFFFFFFFFFFFFFF
310
FFFFFFFFFFFFFFFFFFFFFFFFFFFFFFFFFFFFFFFFFFFFFFFFFFFFFFFFFFFFFFFF
310
FFFFFFFFFFFFFFFFFFFFFFFFFFFFFFFFFFFFFFFFFFFFFFFFFFFFFFFFFFFFFFFF
310
FFFFFFFFFFFFFFFFFFFFFFFFFFFFFFFFFFFFFFFFFFFFFFFFFFFFFFFFFFFFFFFF
310
FFFFFFFFFFFFFFFFFFFFFFFFFFFFFFFFFFFFFFFFFFFFFFFFFFFFFFFFFFFFFFFF
310
FFFFFFFFFFFFFFFFFFFFFFFFFFFFFFFFFFFFFFFFFFFFFFFFFFFFFFFFFFFFFFFF
310
FFFFFFFFFFFFFFFFFFFFFFFFFFFFFFFFFFFFFFFFFFFFFFFFFFFFFFFFFFFFFFFF
310
FFFFFFFFFFFFFFFFFFFFFFFFFFFFFFFFFFFFFFFFFFFFFFFFFFFFFFFFFFFFFFFF
310
FFFFFFFFFFFFFFFFFFFFFFFFFFFFFFFFFFFFFFFFFFFFFFFFFFFFFFFFFFFFFFFF
310
FFFFFFFFFFFFFFFFFFFFFFFFFFFFFFFFFFFFFFFFFFFFFFFFFFFFFFFFFFFFFFFF
310
FFFFFFFFFFFFFFFFFFFFFFFFFFFFFFFFFFFFFFFFFFFFFFFFFFFFFFFFFFFFFFFF
310
FDFFFFFFFEFFFFFFFEFFFFFFFEFFFFFF05000000060000000700000008000000
310
090000000A0000000B0000000C0000000D0000000E0000000F00000010000000
310
11000000120000001300000014000000150000001600000017000000FEFFFFFF
310
FFFFFFFFFFFFFFFFFFFFFFFFFFFFFFFFFFFFFFFFFFFFFFFFFFFFFFFFFFFFFFFF
310
FFFFFFFFFFFFFFFFFFFFFFFFFFFFFFFFFFFFFFFFFFFFFFFFFFFFFFFFFFFFFFFF
310
FFFFFFFFFFFFFFFFFFFFFFFFFFFFFFFFFFFFFFFFFFFFFFFFFFFFFFFFFFFFFFFF
310
FFFFFFFFFFFFFFFFFFFFFFFFFFFFFFFFFFFFFFFFFFFFFFFFFFFFFFFFFFFFFFFF
310
FFFFFFFFFFFFFFFFFFFFFFFFFFFFFFFFFFFFFFFFFFFFFFFFFFFFFFFFFFFFFFFF
310
FFFFFFFFFFFFFFFFFFFFFFFFFFFFFFFFFFFFFFFFFFFFFFFFFFFFFFFFFFFFFFFF
310
FFFFFFFFFFFFFFFFFFFFFFFFFFFFFFFFFFFFFFFFFFFFFFFFFFFFFFFFFFFFFFFF
310
FFFFFFFFFFFFFFFFFFFFFFFFFFFFFFFFFFFFFFFFFFFFFFFFFFFFFFFFFFFFFFFF
310
FFFFFFFFFFFFFFFFFFFFFFFFFFFFFFFFFFFFFFFFFFFFFFFFFFFFFFFFFFFFFFFF
310
FFFFFFFFFFFFFFFFFFFFFFFFFFFFFFFFFFFFFFFFFFFFFFFFFFFFFFFFFFFFFFFF
310
FFFFFFFFFFFFFFFFFFFFFFFFFFFFFFFFFFFFFFFFFFFFFFFFFFFFFFFFFFFFFFFF
310
FFFFFFFFFFFFFFFFFFFFFFFFFFFFFFFFFFFFFFFFFFFFFFFFFFFFFFFFFFFFFFFF
310
FFFFFFFFFFFFFFFFFFFFFFFFFFFFFFFFFFFFFFFFFFFFFFFFFFFFFFFFFFFFFFFF
310
52006F006F007400200045006E00740072007900000000000000000000000000
310
0000000000000000000000000000000000000000000000000000000000000000
310
16000500FFFFFFFFFFFFFFFF020000000A00030000000000C000000000000046
310
000000000000000000000000C0FDEC4FEE49D00103000000C000000000000000
310
01004F006C006500000000000000000000000000000000000000000000000000
310
0000000000000000000000000000000000000000000000000000000000000000
310
0A000200FFFFFFFFFFFFFFFFFFFFFFFF00000000000000000000000000000000
310
0000000000000000000000000000000000000000000000001400000000000000
310
010043006F006D0070004F0062006A0000000000000000000000000000000000
310
0000000000000000000000000000000000000000000000000000000000000000
310
120002010100000003000000FFFFFFFF00000000000000000000000000000000
310
0000000000000000000000000000000000000000010000004D00000000000000
310
01004F006C006500310030004E00610074006900760065000000000000000000
310
0000000000000000000000000000000000000000000000000000000000000000
310
1A000200FFFFFFFFFFFFFFFFFFFFFFFF00000000000000000000000000000000
310
0000000000000000000000000000000000000000040000002426000000000000
310
FEFFFFFF02000000FEFFFFFFFFFFFFFFFFFFFFFFFFFFFFFFFFFFFFFFFFFFFFFF
310
FFFFFFFFFFFFFFFFFFFFFFFFFFFFFFFFFFFFFFFFFFFFFFFFFFFFFFFFFFFFFFFF
310
FFFFFFFFFFFFFFFFFFFFFFFFFFFFFFFFFFFFFFFFFFFFFFFFFFFFFFFFFFFFFFFF
310
FFFFFFFFFFFFFFFFFFFFFFFFFFFFFFFFFFFFFFFFFFFFFFFFFFFFFFFFFFFFFFFF
310
FFFFFFFFFFFFFFFFFFFFFFFFFFFFFFFFFFFFFFFFFFFFFFFFFFFFFFFFFFFFFFFF
310
FFFFFFFFFFFFFFFFFFFFFFFFFFFFFFFFFFFFFFFFFFFFFFFFFFFFFFFFFFFFFFFF
310
FFFFFFFFFFFFFFFFFFFFFFFFFFFFFFFFFFFFFFFFFFFFFFFFFFFFFFFFFFFFFFFF
310
FFFFFFFFFFFFFFFFFFFFFFFFFFFFFFFFFFFFFFFFFFFFFFFFFFFFFFFFFFFFFFFF
310
FFFFFFFFFFFFFFFFFFFFFFFFFFFFFFFFFFFFFFFFFFFFFFFFFFFFFFFFFFFFFFFF
310
FFFFFFFFFFFFFFFFFFFFFFFFFFFFFFFFFFFFFFFFFFFFFFFFFFFFFFFFFFFFFFFF
310
FFFFFFFFFFFFFFFFFFFFFFFFFFFFFFFFFFFFFFFFFFFFFFFFFFFFFFFFFFFFFFFF
310
FFFFFFFFFFFFFFFFFFFFFFFFFFFFFFFFFFFFFFFFFFFFFFFFFFFFFFFFFFFFFFFF
310
FFFFFFFFFFFFFFFFFFFFFFFFFFFFFFFFFFFFFFFFFFFFFFFFFFFFFFFFFFFFFFFF
310
FFFFFFFFFFFFFFFFFFFFFFFFFFFFFFFFFFFFFFFFFFFFFFFFFFFFFFFFFFFFFFFF
310
FFFFFFFFFFFFFFFFFFFFFFFFFFFFFFFFFFFFFFFFFFFFFFFFFFFFFFFFFFFFFFFF
310
FFFFFFFFFFFFFFFFFFFFFFFFFFFFFFFFFFFFFFFFFFFFFFFFFFFFFFFFFFFFFFFF
310
0100000200000000000000000000000000000000000000000000000000000000
310
0000000000000000000000000000000000000000000000000000000000000000
310
0100FEFF030A0000FFFFFFFF0A00030000000000C00000000000004607000000
310
5042727573680007000000504272757368000700000050427275736800F439B2
310
7100000000000000000000000000000000000000000000000000000000000000
310
0000000000000000000000000000000000000000000000000000000000000000
310
0000000000000000000000000000000000000000000000000000000000000000
310
0000000000000000000000000000000000000000000000000000000000000000
310
0000000000000000000000000000000000000000000000000000000000000000
310
0000000000000000000000000000000000000000000000000000000000000000
310
0000000000000000000000000000000000000000000000000000000000000000
310
0000000000000000000000000000000000000000000000000000000000000000
310
0000000000000000000000000000000000000000000000000000000000000000
310
0000000000000000000000000000000000000000000000000000000000000000
310
0000000000000000000000000000000000000000000000000000000000000000
310
0000000000000000000000000000000000000000000000000000000000000000
310
20260000424D0E260000000000003E00000028000000B40200006E0000000100
310
01000000000000000000130B0000130B00000200000002000000000000FFFFFF
310
FFFFFFFFFFFFFFFFFFFFFFFFFFFFFFFFFFFFFFFFFFFFFFFFFFFFFFFFFFFFFFFF
310
FFFFFFFFFFFFFFFFFFFFFFFFFFFFFFFFFFFFFFFFFFFFFFFFFFFFFFFFFFFFFFFF
310
FFFFFFFFFFFFFFFFFFFFFFFFFFFFFFFFFFFFFFFFFFFFFFFFF000FFFFFFFFFFFF
310
FFFFFFFFFFFFFFFFFFFFFFFFFFFFFFFFFFFFFFFFFFFFFFFFFFFFFFFFFFFFFFFF
310
FFFFFFFFFFFFFFFFFFFFFFFFFFFFFFFFFFFFFFFFFFFFFFFFFFFFFFFFFFFFFFFF
310
FFFFFFFFFFFFFFFFFFFFFFFFFFFFFFFFF000FFFFFFFFFFFFFFFFFFFFFFFFFFFF
310
FFFFFFFFFFFFFFFFFFFFFFFFFFFFFFFFFFFFFFFFFFFFFFFFFFFFFFFFFFFFFFFF
310
FFFFFFFFFFFFFFFFFFFFFFFFFFFFFFFFFFFFFFFFFFFFFFFFFFFFFFFFFFFFFFFF
310
FFFFFFFFFFFFFFFFF000FFFFFFFFFFFFFFFFFFFFFFFFFFFFFFFFFFFFFFFFFFFF
310
FFFFFFFFFFFFFFFFFFFFFFFFFFFFFFFFFFFFFFFFFFFFFFFFFFFFFFFFFFFFFFFF
310
FFFFFFFFFFFFFFFFFFFFFFFFFFFFFFFFFFFFFFFFFFFFFFFFFFFFFFFFFFFFFFFF
310
F000FFFFFFFFFFFFFFFFFFFFFFFFFFFFFFFFFFFFFFFFFFFFFFFFFFFFFFFFFFFF
310
FFFFFFFFFFFFFFFFFFFFFFFFFFFFFFFFFFFFFFFFFFFFFFFFFFFFFFFFFFFFFFFF
310
FFFFFFFFFFFFFFFFFFFFFFFFFFFFFFFFFFFFFFFFFFFFFFFFF000FFFFFFFFFFFF
310
FFFFFFFFFFFFFFFFFFFFFFFFFFFFFFFFFFFFFFFFFFFFFFFFFFFFFFFFFFFFFFFF
310
FFFFFFFFFFFFFFFFFFFFFFFFFFFFFFFFFFFFFFFFFFFFFFFFFFFFFFFFFFFFFFFF
310
FFFFFFFFFFFFFFFFFFFFFFFFFFFFFFFFF000FFFFFFFFFFFFFFFFFFFFFFFFFFFF
310
FFFFFFFFFFFFFFFFFFFFFFFFFFFFFFFFFFFFFFFFFFFFFFFFFFFFFFFFFFFFFFFF
310
FFFFFFFFFFFFFFFFFFFFFFFFFFFFFFFFFFFFFFFFFFFFFFFFFFFFFFFFFFFFFFFF
310
FFFFFFFFFFFFFFFFF000FFFFFFFFFFFFFFFFFFFFFFFFFFFFFFFFFFFFFFFFFFFF
310
FFFFFFFFFFFFFFFFFFFFFFFFFFFFFFFFFFFFFFFFFFFFFFFFFFFFFFFFFFFFFFFF
310
FFFFFFFFFFFFFFFFFFFFFFFFFFFFFFFFFFFFFFFFFFFFFFFFFFFFFFFFFFFFFFFF
310
F000FFFFFFFFFFFFFFFFFFFFFFFFFFFFFFFFFFFFFFFFFFFFFFFFFFFFFFFFFFFF
310
FFFFFFFFFFFFFFFFFFFFFFFFFFFFFFFFFFFFFFFFFFFFFFFFFFFFFFFFFFFFFFFF
310
FFFFFFFFFFFFFFFFFFFFFFFFFFFFFFFFFFFFFFFFFFFFFFFFF000FFFFFFFFFFFF
310
FFFFFFFFFFFFFFFFFFFFFFFFFFFFFFFFFFFFFFFFFFFFFFFFFFFFFFFFFFFFFFFF
310
FFFFFFFFFFFFFFFFFFFFFFFFFFFFFFFFFFFFFFFFFFFFFFFFFFFFFFFFFFFFFFFF
310
FFFFFFFFFFFFFFFFFFFFFFFFFFFFFFFFF000FFFFFFFFFFFFFFFFFFFFFFFFFFFF
310
FFFFFFFFFFFFFFFFFFFFFFFFFFFFFFFFFFFFFFFFFFFFFFFFFFFFFFFFFFFFFFFF
310
FFFFFFFFFFFFFFFFFFFFFFFFFFFFFFFFFFFFFFFFFFFFFFFFFFFFFFFFFFFFFFFF
310
FFFFFFFFFFFFFFFFF000FFFFFFFFFFFFFFFFFFFFFFFFFFFFFFFFFFFFFFFFFFFF
310
FFFFFFFFFFFFFFFFFFFFFFFFFFFFFFFFFFFFFFFFFFFFFFFFFFFFFFFFFFFFFFFF
310
FFFFFFFFFFFFFFFFFFFFFFFFFFFFFFFFFFFFFFFFFFFFFFFFFFFFFFFFFFFFFFFF
310
F000FFFFFFFFFFFFFFFFFFFFFFFFFFFFFFFFFFFFFFFFFFFFFFFFFFFFFFFFFFFF
310
FFFFFFFFFFFFFFFFFFFFFFFFFFFFFFFFFFFFFFFFFFFFFFFFFFFFFFFFFFFFFFFF
310
FFFFFFFFFFFFFFFFFFFFFFFFFFFFFFFFFFFFFFFFFFFFFFFFF000FFFFFFFFFFFF
310
FFFFFFFFFFFFFFFFFFFFFFFFFFFFFFFFFFFFFFFFFFFFFFFFFFFFFFFFFFFFFFFF
310
FFFFFFFFFFFFFFFFFFFFFFFFFFFFFFFFFFFFFFFFFFFFFFFFFFFFFFFFFFFFFFFF
310
FFFFFFFFFFFFFFFFFFFFFFFFFFFFFFFFF000FFFFFFFFFFFFFFFFFFFFFFFFFFFF
310
FFFFFFFFFFFFFFFFFFFFFFFFFFFFFFFFFFFFFFFFFFFFFFFFFFFFFFFFFFFFFFFF
310
FFFFFFFFFFFFFFFFFFFFFFFFFFFFFFFFFFFFFFFFFFFFFFFFFFFFFFFFFFFFFFFF
310
FFFFFFFFFFFFFFFFF000FFFFFFFFFFFFFFFFFFFFFFFFFFFFFFFFFFFFFFFFFFFF
310
FFFFFFFFFFFFFFFFFFFFFFFFFFFFFFFFFFFFFFFFFFFFFFFFFFFFFFFFFFFFFFFF
310
FFFFFFFFFFFFFFFFFFFFFFFFFFFFFFFFFFFFFFFFFFFFFFFFFFFFFFFFFFFFFFFF
310
F000FFFFFFFFFFFFFFFFFFFFFFFFFFFFFFFFFFFFFFFFFFFFFFFFFFFFFFFFFFFF
310
FFFFFFFFFFFFFFFFFFFFFFFFFFFFFFFFFFFFFFFFFFFFFFFFFFFFFFFFFFFFFFFF
310
FFFFFFFFFFFFFFFFFFFFFFFFFFFFFFFFFFFFFFFFFFFFFFFFF000FFFFFFFFFFFF
310
FFFFFFFFFFFFFFFFFFFFFFFFFFFFFFFFFFFFFFFFFFFFFFFFFFFFFFFFFFFFFFFF
310
FFFFFFFFFFFFFFFFFFFFFFFFFFFFFFFFFFFFFFFFFFFFFFFFFFFFFFFFFFFFFFFF
310
FFFFFFFFFFFFFFFFFFFFFFFFFFFFFFFFF000FFFFFFFFFFFFFFFFFFFFFFFFFFFF
310
FFFFFFFFFFFFFFFFFFFFFFFFFFFFFFFFFFFFFFFFFFFFFFFFFFFFFFFFFFFFFFFF
310
FFFFFFFFFFFFFFFFFFFFFFFFFFFFFFFFFFFFFFFFFFFFFFFFFFFFFFFFFFFFFFFF
310
FFFFFFFFFFFFFFFFF000FFFFF80003FFFFFFFFFFFFFFFFFFFFFFFFFFFFFFFFFF
310
FFFFF00007FFFFFFFFFF00007FFFFFF800000000000000007FFFFFFFFFFFFFFF
310
FFFFFFFC001FFFFFFFFFFFFFFC001FFFFFFFFFFFFFFFFFFFFFFFFFFE0007FFFF
310
F000FFFF8000007FFFFFFFF8000FFFFFC0007FFFFF80007FFFFF0000007FFFFF
310
FFF8000007FFFFF800000000000000007FFFFFF0001FFFFFFFFFFFC00001FFFF
310
FFFFFFFFC00001FFFFFFFF000000000003FFFFE000007FFFF000FFFE0000000F
310
FFFFFFF0000FFFFF80007FFFFF80007FFFFC0000001FFFFFFFC0000001FFFFF8
310
00000000000000007FFFFFF0001FFFFFFFFFFE0000003FFFFFFFFFFE0000003F
310
FFFFFF000000000003FFFF0000000FFFF000FFF800000003FFFFFFF00007FFFF
310
80007FFFFF80007FFFF000000007FFFFFF000000003FFFF80000000000000000
310
7FFFFFF0001FFFFFFFFFF80000000FFFFFFFFFF80000000FFFFFFF0000000000
310
03FFFC00000003FFF000FFE000000000FFFFFFF00007FFFF80003FFFFF80007F
310
FFC000000001FFFFFC000000001FFFF800000000000000007FFFFFF0001FFFFF
310
FFFFE000000003FFFFFFFFE000000003FFFFFF000000000003FFF000000000FF
310
F000FF80000000007FFFFFF00007FFFF80003FFFFF80007FFF8000000000FFFF
310
F80000000007FFF800000000000000007FFFFFF0001FFFFFFFFFC000000001FF
310
FFFFFFC000000001FFFFFF000000000003FFC0000000007FF000FF0000000000
310
3FFFFFE00007FFFF00003FFFFF80007FFE00000000003FFFF00000000003FFF8
310
00000000000000007FFFFFF0001FFFFFFFFF8000000000FFFFFFFF8000000000
310
FFFFFF000000000003FF80000000003FF000FE00000000001FFFFFE00003FFFF
310
00003FFFFF80007FFC00000000001FFFE00000000001FFF8000001FFFE000000
310
7FFFFFF0001FFFFFFFFE00000000003FFFFFFE00000000003FFFFF0000000000
310
03FF00000000001FF000FC00000000000FFFFFE00003FFFF00001FFFFF80007F
310
F800000000001FFFC00000000000FFF8000001FFFE0000007FFFFFF0001FFFFF
310
FFFC00000000001FFFFFFC00000000001FFFFF000000000003FE00000000000F
310
F000F8000000000007FFFFE00003FFFF00001FFFFF80007FF800000000000FFF
310
800000000000FFF8000001FFFE0000007FFFFFF0001FFFFFFFF800000000000F
310
FFFFF800000000000FFFFF000000000003FC000000000007F000F80000000000
310
03FFFFC00003FFFE00001FFFFF80007FF0000000000007FF0000000000007FF8
310
000001FFFE0000007FFFFFF0001FFFFFFFF0000000000007FFFFF00000000000
310
07FFFF000000000003F8000000000003F000F0000000000003FFFFC00001FFFE
310
00001FFFFF80007FE0000000000007FE0000000000003FF8000001FFFE000000
310
7FFFFFF0001FFFFFFFF0000000000007FFFFF0000000000007FFFF0000000000
310
03F800001F800003F000E00001FFF00001FFFFC00001FFFE00000FFFFF80007F
310
E00001FFE00003FE00001FFF00003FF8000001FFFE0000007FFFFFF0001FFFFF
310
FFE000003E000003FFFFE000003E000003FFFF000000000003F00001FFF80001
310
F000E00007FFFC0001FFFFC00001FFFE00000FFFFF80007FC0000FFFFC0003FC
310
0000FFFFC0001FF8000001FFFE0000007FFFFFF0001FFFFFFFC00003FFE00001
310
FFFFC00003FFE00001FFFF0001FFFFFFFFF00007FFFE0001F000E0000FFFFF00
310
00FFFF800001FFFC00000FFFFF80007FC0001FFFFE0001FC0001FFFFE0001FF8
310
000001FFFE0000007FFFFFF0001FFFFFFF80000FFFF80000FFFF80000FFFF800
310
00FFFF0003FFFFFFFFE0000FFFFF8000F000C0003FFFFF8000FFFF800000FFFC
310
000007FFFF80007F80003FFFFF0001FC0003FFFFF0001FF8000001FFFE000000
310
7FFFFFF0001FFFFFFF80003FFFFE0000FFFF80003FFFFE0000FFFF0003FFFFFF
310
FFE0003FFFFF8000F000C0003FFFFF8000FFFF800000FFFC000007FFFF80007F
310
80007FFFFF8001F80007FFFFF8000FF8000001FFFE0000007FFFFFF0001FFFFF
310
FF00007FFFFF00007FFF00007FFFFF00007FFF0003FFFFFFFFE0003FFFFFC000
310
F000C0007FFFFFC000FFFF000000FFFC000007FFFF80007F8000FFFFFF8000F8
310
000FFFFFF8000FF8000001FFFE0000007FFFFFF0001FFFFFFF0000FFFFFF8000
310
7FFF0000FFFFFF80007FFF0003FFFFFFFFC0007FFFFFC00070008000FFFFFFC0
310
00FFFF000000FFF8000007FFFF80007F8000FFFFFF8000F8000FFFFFF8000FF8
310
000001FFFE0000007FFFFFF0001FFFFFFE0001FFFFFFC0003FFE0001FFFFFFC0
310
003FFF0003FFFFFFFFC0007FFFFFE00070008000FFFFFFC0007FFF0000007FF8
310
000003FFFF80007F0001FFFFFF8000F8000FFFFFF8000FF8000001FFFE000000
310
7FFFFFF0001FFFFFFE0001FFFFFFC0003FFE0001FFFFFFC0003FFF0003FFFFFF
310
FFC000FFFFFFE00070008000FFFFFFC0007FFF0000007FF8000003FFFF80007F
310
0001FFFFFF8000F8001FFFFFF8000FF8000001FFFE0000007FFFFFF0001FFFFF
310
FE0003FFFFFFE0003FFE0003FFFFFFE0003FFF0003FFFFFFFFC000FFFFFFE000
310
70008000FFFFFFC0007FFE0000007FF8000003FFFF80007F0001FFFFFF8000F0
310
001FFFFFF8000FF8000001FFFE0000007FFFFFF0001FFFFFFC0003FFFFFFE000
310
1FFC0003FFFFFFE0001FFF0003FFFFFFFFC000FFFFFFC00070008000FFFFFF80
310
007FFE0000007FF0000003FFFF80007F0001FFFFFF0000F0001FFFFFF8000FF8
310
000001FFFE0000007FFFFFF0001FFFFFFC0007FFFFFFF0001FFC0007FFFFFFF0
310
001FFF0003FFFFFFFFC000FFFFFFC00070008001FFFFFF0000FFFE0000003FF0
310
000001FFFF80007F0001FFFFFF0000F8001FFFFFF0000FF8000001FFFE000000
310
7FFFFFF0001FFFFFFC0007FFFFFFF0001FFC0007FFFFFFF0001FFF0003FFFFFF
310
FFC001FFFFFF80007000FFFFFFFFFE0000FFFE0008003FF0008001FFFF80007F
310
FFFFFFFFFC0000FFFFFFFFFFE0000FF8000001FFFE0000007FFFFFF0001FFFFF
310
F8000FFFFFFFF8000FF8000FFFFFFFF8000FFF0003FFFFFFFFFFFFFFFFFF0000
310
7000FFFFFFFFFC0000FFFC0008003FF0008001FFFF80007FFFFFFFFFF80001FF
310
FFFFFFFF80000FF8000001FFFE0000007FFFFFF0001FFFFFF8000FFFFFFFF800
310
0FF8000FFFFFFFF8000FFF0003FFFFFFFFFFFFFFFFFE0000F000FFFFFFFFE000
310
00FFFC000C003FE000C001FFFF80007FFFFFFFFFC00001FFFFFFFFFE00001FF8
310
000001FFFE0000007FFFFFF0001FFFFFF8000FFFFFFFF8000FF8000FFFFFFFF8
310
000FFF0003FFFFFFFFFFFFFFFFF00000F000FFFFFFFE000001FFFC000C001FE0
310
00C000FFFF80007FFFFFFFFE000001FFFFFFFFE000001FF80FFFFFFFFFFFFFC0
310
7FFFFFF0001FFFFFF8000FFFFFFFF8000FF8000FFFFFFFF8000FFF0003FFFFFF
310
FFFFFFFFFF800000F000FFFFFFC0000001FFFC001C001FE001C000FFFF80007F
310
FFFFFF80000003FFFFFFF80000001FF80FFFFFFFFFFFFFC07FFFFFF0001FFFFF
310
F8001FFFFFFFFC000FF8001FFFFFFFFC000FFF0003FFFFFFFFFFFFFFF0000001
310
F000FFFFF800000001FFF8001C001FE001C000FFFF80007FFFFFF800000003FF
310
FFFF800000003FF80FFFFFFFFFFFFFC07FFFFFF0001FFFFFF8001FFFFFFFFC00
310
0FF8001FFFFFFFFC000FFF0003FFFFFFFFFFFFFE00000001F000FFFFC0000000
310
03FFF8001E001FC001E000FFFF80007FFFFF8000000007FFFFFC000000003FF8
310
0FFFFFFFFFFFFFC07FFFFFF0001FFFFFF8001FFFFFFFFC000FF8001FFFFFFFFC
310
000FFF0003FFFFFFFFFFFFE000000003F000FFFE0000000007FFF8001E000FC0
310
01E0007FFF80007FFFFE0000000007FFFFE0000000007FF80FFFFFFFFFFFFFC0
310
7FFFFFF0001FFFFFF0001FFFFFFFFC0007F0001FFFFFFFFC0007FF0003FFFFFF
310
FFFFFF0000000003F000FFF80000000007FFF8001E000FC003E0007FFF80007F
310
FFF0000000000FFFFF8000000000FFF80FFFFFFFFFFFFFC07FFFFFF0001FFFFF
310
F0001FFFFFFFFC0007F0001FFFFFFFFC0007FF0003FFFFFFFFFFFC0000000007
310
F000FFE0000000000FFFF0003E000FC003E0007FFF80007FFFC0000000001FFF
310
FE0000000001FFF80FFFFFFFFFFFFFC07FFFFFF0001FFFFFF0001FFFFFFFFC00
310
07F0001FFFFFFFFC0007FF0003FFFFFFFFFFF0000000000FF000FFC000000000
310
1FFFF0003F000F8003F0003FFF80007FFF80000000003FFFF80000000003FFF8
310
0FFFFFFFFFFFFFC07FFFFFF0001FFFFFF0001FFFFFFFFC0007F0001FFFFFFFFC
310
0007FF0003FFFFFFFFFFE0000000001FF000FF00000000007FFFF0003F000780
310
03F0003FFF80007FFF00000000007FFFF00000000007FFF80FFFFFFFFFFFFFC0
310
7FFFFFF0001FFFFFF0001FFFFFFFFC0007F0001FFFFFFFFC0007FF0003FFFFFF
310
FFFF80000000007FF000FE0000000000FFFFE0003F00078007F0003FFF80007F
310
FE0000000001FFFFE0000000001FFFF80FFFFFFFFFFFFFC07FFFFFF0001FFFFF
310
F0001FFFFFFFFC0007F0001FFFFFFFFC0007FF0003FFFFFFFFFF0000000000FF
310
F000FC0000000003FFFFE0007F00078007F0003FFF80007FFC0000000007FFFF
310
C0000000007FFFF80FFFFFFFFFFFFFC07FFFFFF0001FFFFFF8001FFFFFFFFC00
310
0FF8001FFFFFFFFC000FFF0003FFFFFFFFFE0000000003FFF000FC000000000F
310
FFFFE0007F80070007F8001FFF80007FF8000000001FFFFF8000000001FFFFF8
310
0FFFFFFFFFFFFFC07FFFFFF0001FFFFFF8001FFFFFFFFC000FF8001FFFFFFFFC
310
000FFF0003FFFFFFFFFC000000000FFFF000F8000000007FFFFFE0007F800700
310
07F8001FFF80007FF000000000FFFFFF800000000FFFFFF80FFFFFFFFFFFFFC0
310
7FFFFFF0001FFFFFF8000FFFFFFFF8000FF8000FFFFFFFF8000FFF0003FFFFFF
310
FFFC000000007FFFF000F800000007FFFFFFC0007F8003000FF8001FFF80007F
310
F000000007FFFFFF000000007FFFFFF80FFFFFFFFFFFFFC07FFFFFF0001FFFFF
310
F8000FFFFFFFF8000FF8000FFFFFFFF8000FFF0003FFFFFFFFF80000000FFFFF
310
F000F0000000FFFFFFFFC000FF8003000FF8001FFF80007FE0000000FFFFFFFF
310
0000000FFFFFFFF8000001FFFE0000007FFFFFF0001FFFFFF8000FFFFFFFF800
310
0FF8000FFFFFFFF8000FFF0003FFFFFFFFF8000000FFFFFFF000F000000FFFFF
310
FFFFC000FFC002000FF8000FFF80007FE000001FFFFFFFFE000001FFFFFFFFF8
310
000001FFFE0000007FFFFFF0001FFFFFF8000FFFFFFFF8000FF8000FFFFFFFF8
310
000FFF0003FFFFFFFFF000001FFFFFFFF000E00000FFFFFFFFFFC000FFC00200
310
0FFC000FFF80007FE00001FFFFFFFFFE00001FFFFFFFFFF8000001FFFE000000
310
7FFFFFF0001FFFFFFC000FFFFFFFF8001FFC000FFFFFFFF8001FFF0003FFFFFF
310
FFF00001FFFFFFFFF000E00007FFFFFFFFFF8000FFC000001FFC000FFF80007F
310
C0000FFFFFFFFFFE0000FFFFFFFFFFF8000001FFFE0000007FFFFFF0001FFFFF
310
FC0007FFFFFFF0001FFC0007FFFFFFF0001FFF0003FFFFFFFFF00007FFFFFFFF
310
F000E0001FFFFFFFFFFF8000FFC000001FFC000FFF80007FC0003FFFFFFFFFFE
310
0001FFFFFFFFFFF8000001FFFE0000007FFFFFF0001FFFFFFC0007FFFFFFF000
310
1FFC0007FFFFFFF0001FFF0003FFFFFFFFF0001FFFFFFFFFF000E0003FFFFF00
310
03FF8001FFE000001FFC0007FF80007FC0007FFFFF0007FC0003FFFFF0003FF8
310
000001FFFE0000007FFFFFF0001FFFFFFC0003FFFFFFE0001FFC0003FFFFFFE0
310
001FFF0003FFFFFFFFF0003FFFFFFFFFF000E0003FFFFF0001FF8001FFE00000
310
1FFE0007FF80007FC0007FFFFE0003FC0007FFFFE0003FF8000001FFFE000000
310
7FFFFFF0001FFFFFFE0003FFFFFFE0003FFE0003FFFFFFE0003FFF0003FFFFFF
310
FFF0003FFFFF8001F000E0003FFFFF0001FF0001FFE000001FFE0007FF80007F
310
C0007FFFFE0003FC0007FFFFE0003FF8000001FFFE0000007FFFFFF0001FFFFF
310
FE0001FFFFFFC0003FFE0001FFFFFFC0003FFF0003FFFFFFFFF0003FFFFF0001
310
F000E0003FFFFF0003FF0001FFE000003FFE0007FF80007FC0007FFFFE0003FC
310
0007FFFFE0003FF8000001FFFE0000007FFFFFF0001FFFFFFF0001FFFFFFC000
310
7FFF0001FFFFFFC0007FFF0003FFFFFFFFF0003FFFFF0001F000E0003FFFFE00
310
03FF0003FFF000003FFE0003FF80007FC0007FFFFC0003FE0007FFFFE0003FF8
310
000001FFFE0000007FFFFFF0001FFFFFFF0000FFFFFF80007FFF0000FFFFFF80
310
007FFF0003FFFFFFFFF0003FFFFF0001F000E0003FFFFE0003FF0003FFF00000
310
3FFF0003FF80007FC0007FFFFC0007FE0007FFFFC0003FF8000001FFFE000000
310
7FFFFFF0001FFFFFFF80007FFFFF0000FFFF80007FFFFF0000FFFF0003FFFFFF
310
FFF0003FFFFF0003F000E0003FFFFC0003FE0003FFF000003FFF0003FF80007F
310
E0003FFFF80007FE0003FFFFC0007FF8000001FFFE0000007FFFFFF0001FFFFF
310
FF80003FFFFE0000FFFF80003FFFFE0000FFFF0003FFFFFFFFF0001FFFFE0003
310
F000F0001FFFF80003FE0003FFF000007FFF0001FF80007FE0003FFFF00007FE
310
0001FFFF80007FF8000001FFFE0000007FFFFFF0001FFFFFFFC0000FFFF80001
310
FFFFC0000FFFF80001FFFF0003FFFFFFFFF0001FFFFC0003F000F0000FFFF000
310
07FE0007FFF800007FFF0001FF80007FE0001FFFE00007FF0000FFFE00007FF8
310
000001FFFE0000007FFFFFF0001FFFFFFFC00003FFE00001FFFFC00003FFE000
310
01FFFF0003FFFFFFFFF8000FFFF80003F000F00003FFC00007FC0007FFF80000
310
7FFF8001FF80007FF00007FF80000FFF00007FF80000FFF8000001FFFE000000
310
7F80000000000001FFE000003E000003FFFFE000003E000003FFFF0003FFFFFF
310
FFF80003FFE00007F000F800000000000FFC0007FFF800007FFF8001FF80007F
310
F000000000000FFF000000000000FFF8000001FFFE0000007F80000000000001
310
FFF0000000000007FFFFF0000000000007FFFF0003FFFFFFFFFC00007E000007
310
F000F800000000000FFC0007FFF80000FFFF8000FF80007FF800000000001FFF
310
800000000001FFF8000001FFFE0000007F80000000000001FFF800000000000F
310
FFFFF800000000000FFFFF0003FFFFFFFFFC00000000000FF000FC0000000000
310
1FFC0007FFFC0000FFFF8000FF80007FF800000000003FFFC00000000001FFF8
310
000001FFFE0000007F80000000000001FFF800000000000FFFFFF80000000000
310
0FFFFF0003FFFFFFFFFE00000000001FF000FE00000000003FF8000FFFFC0000
310
FFFF8000FF80007FFC00000000003FFFC00000000003FFF8000001FFFE000000
310
7F80000000000001FFFC00000000001FFFFFFC00000000001FFFFF0003FFFFFF
310
FFFF00000000001FF000FF00000000003FF8000FFFFC0000FFFFC000FF80007F
310
FE00000000007FFFE00000000007FFF8000001FFFE0000007F80000000000001
310
FFFE00000000003FFFFFFE00000000003FFFFF0003FFFFFFFFFF80000000003F
310
F000FF80000000007FF8000FFFFC0001FFFFC0007F80007FFF0000000000FFFF
310
F0000000000FFFF800000000000000007F80000000000001FFFF8000000000FF
310
FFFFFF8000000000FFFFFF0003FFFFFFFFFFC0000000007FF000FFC000000000
310
FFF8000FFFFE0001FFFFC0007F80007FFF8000000001FFFFF8000000001FFFF8
310
00000000000000007F80000000000001FFFFC000000001FFFFFFFFC000000001
310
FFFFFF0003FFFFFFFFFFE000000000FFF000FFE000000003FFF0001FFFFE0001
310
FFFFC0007F80007FFFC000000007FFFFFE000000003FFFF80000000000000000
310
7F80000000000001FFFFE000000003FFFFFFFFE000000003FFFFFF0003FFFFFF
310
FFFFF000000003FFF000FFF80000000FFFF0001FFFFE0001FFFFE0007F80007F
310
FFF00000000FFFFFFF00000000FFFFF800000000000000007F80000000000001
310
FFFFF80000000FFFFFFFFFF80000000FFFFFFF0003FFFFFFFFFFFC0000000FFF
310
F000FFFE0000003FFFF0001FFFFE0003FFFFE0003F80007FFFFC0000003FFFFF
310
FFC0000003FFFFF800000000000000007F80000000000001FFFFFE0000003FFF
310
FFFFFFFE0000003FFFFFFF0003FFFFFFFFFFFF0000003FFFF000FFFF800000FF
310
FFF0001FFFFF0003FFFFE0003F80007FFFFF000001FFFFFFFFF800001FFFFFF8
310
00000000000000007F80000000000001FFFFFFC00001FFFFFFFFFFFFC00001FF
310
FFFFFF0003FFFFFFFFFFFFC00000FFFFF000FFFFF8000FFFFFFFFFFFFFFFFFFF
310
FFFFFFFFFFFFFFFFFFFFF0001FFFFFFFFFFF0000FFFFFFF80000000000000000
310
7FFFFFFFFFFFFFFFFFFFFFFC001FFFFFFFFFFFFFFC001FFFFFFFFFFFFFFFFFFF
310
FFFFFFFC001FFFFFF000FFFFFFFFFFFFFFFFFFFFFFFFFFFFFFFFFFFFFFFFFFFF
310
FFFFFFFFFFFFFFFFFFFFFFFFFFFFFFFFFFFFFFFFFFFFFFFFFFFFFFFFFFFFFFFF
310
FFFFFFFFFFFFFFFFFFFFFFFFFFFFFFFFFFFFFFFFFFFFFFFFFFFFFFFFFFFFFFFF
310
F000FFFFFFFFFFFFFFFFFFFFFFFFFFFFFFFFFFFFFFFFFFFFFFFFFFFFFFFFFFFF
310
FFFFFFFFFFFFFFFFFFFFFFFFFFFFFFFFFFFFFFFFFFFFFFFFFFFFFFFFFFFFFFFF
310
FFFFFFFFFFFFFFFFFFFFFFFFFFFFFFFFFFFFFFFFFFFFFFFFF000FFFFFFFFFFFF
310
FFFFFFFFFFFFFFFFFFFFFFFFFFFFFFFFFFFFFFFFFFFFFFFFFFFFFFFFFFFFFFFF
310
FFFFFFFFFFFFFFFFFFFFFFFFFFFFFFFFFFFFFFFFFFFFFFFFFFFFFFFFFFFFFFFF
310
FFFFFFFFFFFFFFFFFFFFFFFFFFFFFFFFF000FFFFFFFFFFFFFFFFFFFFFFFFFFFF
310
FFFFFFFFFFFFFFFFFFFFFFFFFFFFFFFFFFFFFFFFFFFFFFFFFFFFFFFFFFFFFFFF
310
FFFFFFFFFFFFFFFFFFFFFFFFFFFFFFFFFFFFFFFFFFFFFFFFFFFFFFFFFFFFFFFF
310
FFFFFFFFFFFFFFFFF000FFFFFFFFFFFFFFFFFFFFFFFFFFFFFFFFFFFFFFFFFFFF
310
FFFFFFFFFFFFFFFFFFFFFFFFFFFFFFFFFFFFFFFFFFFFFFFFFFFFFFFFFFFFFFFF
310
FFFFFFFFFFFFFFFFFFFFFFFFFFFFFFFFFFFFFFFFFFFFFFFFFFFFFFFFFFFFFFFF
310
F000FFFFFFFFFFFFFFFFFFFFFFFFFFFFFFFFFFFFFFFFFFFFFFFFFFFFFFFFFFFF
310
FFFFFFFFFFFFFFFFFFFFFFFFFFFFFFFFFFFFFFFFFFFFFFFFFFFFFFFFFFFFFFFF
310
FFFFFFFFFFFFFFFFFFFFFFFFFFFFFFFFFFFFFFFFFFFFFFFFF000FFFFFFFFFFFF
310
FFFFFFFFFFFFFFFFFFFFFFFFFFFFFFFFFFFFFFFFFFFFFFFFFFFFFFFFFFFFFFFF
310
FFFFFFFFFFFFFFFFFFFFFFFFFFFFFFFFFFFFFFFFFFFFFFFFFFFFFFFFFFFFFFFF
310
FFFFFFFFFFFFFFFFFFFFFFFFFFFFFFFFF000FFFFFFFFFFFFFFFFFFFFFFFFFFFF
310
FFFFFFFFFFFFFFFFFFFFFFFFFFFFFFFFFFFFFFFFFFFFFFFFFFFFFFFFFFFFFFFF
310
FFFFFFFFFFFFFFFFFFFFFFFFFFFFFFFFFFFFFFFFFFFFFFFFFFFFFFFFFFFFFFFF
310
FFFFFFFFFFFFFFFFF000FFFFFFFFFFFFFFFFFFFFFFFFFFFFFFFFFFFFFFFFFFFF
310
FFFFFFFFFFFFFFFFFFFFFFFFFFFFFFFFFFFFFFFFFFFFFFFFFFFFFFFFFFFFFFFF
310
FFFFFFFFFFFFFFFFFFFFFFFFFFFFFFFFFFFFFFFFFFFFFFFFFFFFFFFFFFFFFFFF
310
F000FFFFFFFFFFFFFFFFFFFFFFFFFFFFFFFFFFFFFFFFFFFFFFFFFFFFFFFFFFFF
310
FFFFFFFFFFFFFFFFFFFFFFFFFFFFFFFFFFFFFFFFFFFFFFFFFFFFFFFFFFFFFFFF
310
FFFFFFFFFFFFFFFFFFFFFFFFFFFFFFFFFFFFFFFFFFFFFFFFF000FFFFFFFFFFFF
310
FFFFFFFFFFFFFFFFFFFFFFFFFFFFFFFFFFFFFFFFFFFFFFFFFFFFFFFFFFFFFFFF
310
FFFFFFFFFFFFFFFFFFFFFFFFFFFFFFFFFFFFFFFFFFFFFFFFFFFFFFFFFFFFFFFF
310
FFFFFFFFFFFFFFFFFFFFFFFFFFFFFFFFF000FFFFFFFFFFFFFFFFFFFFFFFFFFFF
310
FFFFFFFFFFFFFFFFFFFFFFFFFFFFFFFFFFFFFFFFFFFFFFFFFFFFFFFFFFFFFFFF
310
FFFFFFFFFFFFFFFFFFFFFFFFFFFFFFFFFFFFFFFFFFFFFFFFFFFFFFFFFFFFFFFF
310
FFFFFFFFFFFFFFFFF000FFFFFFFFFFFFFFFFFFFFFFFFFFFFFFFFFFFFFFFFFFFF
310
FFFFFFFFFFFFFFFFFFFFFFFFFFFFFFFFFFFFFFFFFFFFFFFFFFFFFFFFFFFFFFFF
310
FFFFFFFFFFFFFFFFFFFFFFFFFFFFFFFFFFFFFFFFFFFFFFFFFFFFFFFFFFFFFFFF
310
F000FFFFFFFFFFFFFFFFFFFFFFFFFFFFFFFFFFFFFFFFFFFFFFFFFFFFFFFFFFFF
310
FFFFFFFFFFFFFFFFFFFFFFFFFFFFFFFFFFFFFFFFFFFFFFFFFFFFFFFFFFFFFFFF
310
FFFFFFFFFFFFFFFFFFFFFFFFFFFFFFFFFFFFFFFFFFFFFFFFF000FFFFFFFFFFFF
310
FFFFFFFFFFFFFFFFFFFFFFFFFFFFFFFFFFFFFFFFFFFFFFFFFFFFFFFFFFFFFFFF
310
FFFFFFFFFFFFFFFFFFFFFFFFFFFFFFFFFFFFFFFFFFFFFFFFFFFFFFFFFFFFFFFF
310
FFFFFFFFFFFFFFFFFFFFFFFFFFFFFFFFF000FFFFFFFFFFFFFFFFFFFFFFFFFFFF
310
FFFFFFFFFFFFFFFFFFFFFFFFFFFFFFFFFFFFFFFFFFFFFFFFFFFFFFFFFFFFFFFF
310
FFFFFFFFFFFFFFFFFFFFFFFFFFFFFFFFFFFFFFFFFFFFFFFFFFFFFFFFFFFFFFFF
310
FFFFFFFFFFFFFFFFF000FFFFFFFFFFFFFFFFFFFFFFFFFFFFFFFFFFFFFFFFFFFF
310
FFFFFFFFFFFFFFFFFFFFFFFFFFFFFFFFFFFFFFFFFFFFFFFFFFFFFFFFFFFFFFFF
310
FFFFFFFFFFFFFFFFFFFFFFFFFFFFFFFFFFFFFFFFFFFFFFFFFFFFFFFFFFFFFFFF
310
F000FFFFFFFFFFFFFFFFFFFFFFFFFFFFFFFFFFFFFFFFFFFFFFFFFFFFFFFFFFFF
310
FFFFFFFFFFFFFFFFFFFFFFFFFFFFFFFFFFFFFFFFFFFFFFFFFFFFFFFFFFFFFFFF
310
FFFFFFFFFFFFFFFFFFFFFFFFFFFFFFFFFFFFFFFFFFFFFFFFF000FFFFFFFFFFFF
310
FFFFFFFFFFFFFFFFFFFFFFFFFFFFFFFFFFFFFFFFFFFFFFFFFFFFFFFFFFFFFFFF
310
FFFFFFFFFFFFFFFFFFFFFFFFFFFFFFFFFFFFFFFFFFFFFFFFFFFFFFFFFFFFFFFF
310
FFFFFFFFFFFFFFFFFFFFFFFFFFFFFFFFF000FFFFFFFFFFFFFFFFFFFFFFFFFFFF
310
FFFFFFFFFFFFFFFFFFFFFFFFFFFFFFFFFFFFFFFFFFFFFFFFFFFFFFFFFFFFFFFF
310
FFFFFFFFFFFFFFFFFFFFFFFFFFFFFFFFFFFFFFFFFFFFFFFFFFFFFFFFFFFFFFFF
310
FFFFFFFFFFFFFFFFF000FFFFFFFFFFFFFFFFFFFFFFFFFFFFFFFFFFFFFFFFFFFF
310
FFFFFFFFFFFFFFFFFFFFFFFFFFFFFFFFFFFFFFFFFFFFFFFFFFFFFFFFFFFFFFFF
310
FFFFFFFFFFFFFFFFFFFFFFFFFFFFFFFFFFFFFFFFFFFFFFFFFFFFFFFFFFFFFFFF
310
F000FFFFFFFFFFFFFFFFFFFFFFFFFFFFFFFFFFFFFFFFFFFFFFFFFFFFFFFFFFFF
310
FFFFFFFFFFFFFFFFFFFFFFFFFFFFFFFFFFFFFFFFFFFFFFFFFFFFFFFFFFFFFFFF
310
FFFFFFFFFFFFFFFFFFFFFFFFFFFFFFFFFFFFFFFFFFFFFFFFF000FFFFFFFFFFFF
310
FFFFFFFFFFFFFFFFFFFFFFFFFFFFFFFFFFFFFFFFFFFFFFFFFFFFFFFFFFFFFFFF
310
FFFFFFFFFFFFFFFFFFFFFFFFFFFFFFFFFFFFFFFFFFFFFFFFFFFFFFFFFFFFFFFF
310
FFFFFFFFFFFFFFFFFFFFFFFFFFFFFFFFF0000000000000000000000000000000
310
0000000000000000000000000000000000000000000000000000000000000000
310
0000000000000000000000000000000000000000000000000000000000000000
310
0000000000000000000000000000000000000000000000000000000000000000
310
0000000000000000000000000000000000000000000000000000000000000000
310
0000000000000000000000000000000000000000000000000000000000000000
310
0000000000000000000000000000000000000000000000000000000000000000
310
0000000000000000000000000000000000000000000000000000000000000000
310
0000000000000000000000000000000000000000000000000000000000000000
310
0000000000000000000000000000000000000000000000000000000000000000
310
0000000000000000000000000000000000000000000000000000000000000000
310
0000000000000000000000000000000000000000000000000000000000000000
310
0000000000000000000000000000000000000000000000000000000000000000
310
0000000000000000000000000000000000000000000000000000000000000000
310
0000000000000000000000000000000000000000000000000000000000000000
310
0000000000000000000000000000000000000000000000000000000000000000
  1
OLE
  0
ENDSEC
  0
SECTION
  2
OBJECTS
  0
DICTIONARY
  5
C
330
0
100
AcDbDictionary
281
     1
  3
ACAD_GROUP
350
D
  3
ACAD_LAYOUT
350
1A
  3
ACAD_MLINESTYLE
350
17
  3
ACAD_PLOTSETTINGS
350
19
  3
ACAD_PLOTSTYLENAME
350
E
  0
DICTIONARY
  5
D
102
{ACAD_REACTORS
330
C
102
}
330
C
100
AcDbDictionary
281
     1
  0
DICTIONARY
  5
1A
102
{ACAD_REACTORS
330
C
102
}
330
C
100
AcDbDictionary
281
     1
  3
Layout1
350
1E
  3
Layout2
350
26
  3
Model
350
22
  0
DICTIONARY
  5
17
102
{ACAD_REACTORS
330
C
102
}
330
C
100
AcDbDictionary
281
     1
  3
Standard
350
18
  0
DICTIONARY
  5
19
102
{ACAD_REACTORS
330
C
102
}
330
C
100
AcDbDictionary
281
     1
  0
ACDBDICTIONARYWDFLT
  5
E
102
{ACAD_REACTORS
330
C
102
}
330
C
100
AcDbDictionary
281
     1
  3
Normal
350
F
100
AcDbDictionaryWithDefault
340
F
  0
LAYOUT
  5
1E
102
{ACAD_REACTORS
330
1A
102
}
330
1A
100
AcDbPlotSettings
  1

  2
none_device
  4

  6

 40
0.0
 41
0.0
 42
0.0
 43
0.0
 44
0.0
 45
0.0
 46
0.0
 47
0.0
 48
0.0
 49
0.0
140
0.0
141
0.0
142
1.0
143
1.0
 70
   688
 72
     0
 73
     0
 74
     5
  7

 75
    16
147
1.0
148
0.0
149
0.0
100
AcDbLayout
  1
Layout1
 70
     1
 71
     1
 10
0.0
 20
0.0
 11
420.0
 21
297.0
 12
0.0
 22
0.0
 32
0.0
 14
1.0000000000E+20
 24
1.0000000000E+20
 34
1.0000000000E+20
 15
-1.0000000000E+20
 25
-1.0000000000E+20
 35
-1.0000000000E+20
146
0.0
 13
0.0
 23
0.0
 33
0.0
 16
1.0
 26
0.0
 36
0.0
 17
0.0
 27
1.0
 37
0.0
 76
     0
330
1B
  0
LAYOUT
  5
26
102
{ACAD_REACTORS
330
1A
102
}
330
1A
100
AcDbPlotSettings
  1

  2
none_device
  4

  6

 40
0.0
 41
0.0
 42
0.0
 43
0.0
 44
0.0
 45
0.0
 46
0.0
 47
0.0
 48
0.0
 49
0.0
140
0.0
141
0.0
142
1.0
143
1.0
 70
   688
 72
     0
 73
     0
 74
     5
  7

 75
    16
147
1.0
148
0.0
149
0.0
100
AcDbLayout
  1
Layout2
 70
     1
 71
     2
 10
0.0
 20
0.0
 11
0.0
 21
0.0
 12
0.0
 22
0.0
 32
0.0
 14
0.0
 24
0.0
 34
0.0
 15
0.0
 25
0.0
 35
0.0
146
0.0
 13
0.0
 23
0.0
 33
0.0
 16
1.0
 26
0.0
 36
0.0
 17
0.0
 27
1.0
 37
0.0
 76
     0
330
23
  0
LAYOUT
  5
22
102
{ACAD_REACTORS
330
1A
102
}
330
1A
100
AcDbPlotSettings
  1

  2
none_device
  4

  6

 40
0.0
 41
0.0
 42
0.0
 43
0.0
 44
0.0
 45
0.0
 46
0.0
 47
0.0
 48
0.0
 49
0.0
140
0.0
141
0.0
142
1.0
143
1.0
 70
  1712
 72
     0
 73
     0
 74
     0
  7

 75
     0
147
1.0
148
0.0
149
0.0
100
AcDbLayout
  1
Model
 70
     1
 71
     0
 10
0.0
 20
0.0
 11
297.0
 21
210.0
 12
0.0
 22
0.0
 32
0.0
 14
0.0
 24
0.0
 34
0.0
 15
297.0
 25
210.0
 35
0.0
146
0.0
 13
0.0
 23
0.0
 33
0.0
 16
1.0
 26
0.0
 36
0.0
 17
0.0
 27
1.0
 37
0.0
 76
     0
330
1F
331
29
  0
MLINESTYLE
  5
18
102
{ACAD_REACTORS
330
17
102
}
330
17
100
AcDbMlineStyle
  2
Standard
 70
     0
  3

 62
   256
 51
90.0
 52
90.0
 71
     2
 49
0.5
 62
   256
  6
BYLAYER
 49
-0.5
 62
   256
  6
BYLAYER
  0
ACDBPLACEHOLDER
  5
F
102
{ACAD_REACTORS
330
E
102
}
330
E
  0
ENDSEC
  0
EOF
