  0
SECTION
  2
HEADER
  9
$ACADVER
  1
AC1015
  9
$ACADMAINTVER
 70
     6
  9
$DWGCODEPAGE
  3
ANSI_1252
  9
$INSBASE
 10
0.0
 20
0.0
 30
0.0
  9
$EXTMIN
 10
0.0
 20
0.0
 30
0.0
  9
$EXTMAX
 10
297.0
 20
210.0
 30
0.0
  9
$LIMMIN
 10
0.0
 20
0.0
  9
$LIMMAX
 10
297.0
 20
210.0
  9
$ORTHOMODE
 70
     0
  9
$REGENMODE
 70
     1
  9
$FILLMODE
 70
     1
  9
$QTEXTMODE
 70
     0
  9
$MIRRTEXT
 70
     1
  9
$LTSCALE
 40
1.0
  9
$ATTMODE
 70
     1
  9
$TEXTSIZE
 40
2.0
  9
$TRACEWID
 40
1.0
  9
$TEXTSTYLE
  7
STANDARD
  9
$CLAYER
  8
0
  9
$CELTYPE
  6
ByLayer
  9
$CECOLOR
 62
   256
  9
$CELTSCALE
 40
1.0
  9
$DISPSILH
 70
     0
  9
$DIMSCALE
 40
1.0
  9
$DIMASZ
 40
3.0
  9
$DIMEXO
 40
0.0
  9
$DIMDLI
 40
3.75
  9
$DIMRND
 40
0.0
  9
$DIMDLE
 40
0.0
  9
$DIMEXE
 40
1.0
  9
$DIMTP
 40
0.0
  9
$DIMTM
 40
0.0
  9
$DIMTXT
 40
2.0
  9
$DIMCEN
 40
2.5
  9
$DIMTSZ
 40
0.0
  9
$DIMTOL
 70
     0
  9
$DIMLIM
 70
     0
  9
$DIMTIH
 70
     1
  9
$DIMTOH
 70
     1
  9
$DIMSE1
 70
     0
  9
$DIMSE2
 70
     0
  9
$DIMTAD
 70
     1
  9
$DIMZIN
 70
     0
  9
$DIMBLK
  1

  9
$DIMASO
 70
     1
  9
$DIMSHO
 70
     1
  9
$DIMPOST
  1

  9
$DIMAPOST
  1

  9
$DIMALT
 70
     0
  9
$DIMALTD
 70
     3
  9
$DIMALTF
 40
0.0393700787
  9
$DIMLFAC
 40
1.0
  9
$DIMTOFL
 70
     1
  9
$DIMTVP
 40
0.0
  9
$DIMTIX
 70
     0
  9
$DIMSOXD
 70
     0
  9
$DIMSAH
 70
     0
  9
$DIMBLK1
  1

  9
$DIMBLK2
  1

  9
$DIMSTYLE
  2
ISO-25
  9
$DIMCLRD
 70
     0
  9
$DIMCLRE
 70
     0
  9
$DIMCLRT
 70
     0
  9
$DIMTFAC
 40
1.0
  9
$DIMGAP
 40
1.524
  9
$DIMJUST
 70
     0
  9
$DIMSD1
 70
     0
  9
$DIMSD2
 70
     0
  9
$DIMTOLJ
 70
     0
  9
$DIMTZIN
 70
     0
  9
$DIMALTZ
 70
     0
  9
$DIMALTTZ
 70
     0
  9
$DIMUPT
 70
     0
  9
$DIMDEC
 70
     2
  9
$DIMTDEC
 70
     3
  9
$DIMALTU
 70
     2
  9
$DIMALTTD
 70
     3
  9
$DIMTXSTY
  7
STANDARD
  9
$DIMAUNIT
 70
     0
  9
$DIMADEC
 70
     2
  9
$DIMALTRND
 40
0.0
  9
$DIMAZIN
 70
     0
  9
$DIMDSEP
 70
    44
  9
$DIMATFIT
 70
     3
  9
$DIMFRAC
 70
     0
  9
$DIMLDRBLK
  1

  9
$DIMLUNIT
 70
     2
  9
$DIMLWD
 70
    -2
  9
$DIMLWE
 70
    -2
  9
$DIMTMOVE
 70
     0
  9
$LUNITS
 70
     2
  9
$LUPREC
 70
     2
  9
$SKETCHINC
 40
1.0
  9
$FILLETRAD
 40
10.0
  9
$AUNITS
 70
     0
  9
$AUPREC
 70
     2
  9
$MENU
  1
.
  9
$ELEVATION
 40
0.0
  9
$PELEVATION
 40
0.0
  9
$THICKNESS
 40
0.0
  9
$LIMCHECK
 70
     0
  9
$CHAMFERA
 40
10.0
  9
$CHAMFERB
 40
10.0
  9
$CHAMFERC
 40
20.0
  9
$CHAMFERD
 40
0.0
  9
$SKPOLY
 70
     0
  9
$TDCREATE
 40
2457070.608410162
  9
$TDUCREATE
 40
2457070.566743495
  9
$TDUPDATE
 40
2457070.608410706
  9
$TDUUPDATE
 40
2457070.566744039
  9
$TDINDWG
 40
0.0000000116
  9
$TDUSRTIMER
 40
0.0000000116
  9
$USRTIMER
 70
     1
  9
$ANGBASE
 50
0.0
  9
$ANGDIR
 70
     0
  9
$PDMODE
 70
     0
  9
$PDSIZE
 40
-1.0
  9
$PLINEWID
 40
0.0
  9
$SPLFRAME
 70
     0
  9
$SPLINETYPE
 70
     6
  9
$SPLINESEGS
 70
     8
  9
$HANDSEED
  5
26F
  9
$SURFTAB1
 70
     6
  9
$SURFTAB2
 70
     6
  9
$SURFTYPE
 70
     6
  9
$SURFU
 70
     6
  9
$SURFV
 70
     6
  9
$UCSBASE
  2

  9
$UCSNAME
  2

  9
$UCSORG
 10
0.0
 20
0.0
 30
0.0
  9
$UCSXDIR
 10
1.0
 20
0.0
 30
0.0
  9
$UCSYDIR
 10
0.0
 20
1.0
 30
0.0
  9
$UCSORTHOREF
  2

  9
$UCSORTHOVIEW
 70
     0
  9
$UCSORGTOP
 10
0.0
 20
0.0
 30
0.0
  9
$UCSORGBOTTOM
 10
0.0
 20
0.0
 30
0.0
  9
$UCSORGLEFT
 10
0.0
 20
0.0
 30
0.0
  9
$UCSORGRIGHT
 10
0.0
 20
0.0
 30
0.0
  9
$UCSORGFRONT
 10
0.0
 20
0.0
 30
0.0
  9
$UCSORGBACK
 10
0.0
 20
0.0
 30
0.0
  9
$PUCSBASE
  2

  9
$PUCSNAME
  2

  9
$PUCSORG
 10
0.0
 20
0.0
 30
0.0
  9
$PUCSXDIR
 10
1.0
 20
0.0
 30
0.0
  9
$PUCSYDIR
 10
0.0
 20
1.0
 30
0.0
  9
$PUCSORTHOREF
  2

  9
$PUCSORTHOVIEW
 70
     0
  9
$PUCSORGTOP
 10
0.0
 20
0.0
 30
0.0
  9
$PUCSORGBOTTOM
 10
0.0
 20
0.0
 30
0.0
  9
$PUCSORGLEFT
 10
0.0
 20
0.0
 30
0.0
  9
$PUCSORGRIGHT
 10
0.0
 20
0.0
 30
0.0
  9
$PUCSORGFRONT
 10
0.0
 20
0.0
 30
0.0
  9
$PUCSORGBACK
 10
0.0
 20
0.0
 30
0.0
  9
$USERI1
 70
     0
  9
$USERI2
 70
     0
  9
$USERI3
 70
     0
  9
$USERI4
 70
     0
  9
$USERI5
 70
     0
  9
$USERR1
 40
0.0
  9
$USERR2
 40
0.0
  9
$USERR3
 40
0.0
  9
$USERR4
 40
0.0
  9
$USERR5
 40
0.0
  9
$WORLDVIEW
 70
     1
  9
$SHADEDGE
 70
     3
  9
$SHADEDIF
 70
    70
  9
$TILEMODE
 70
     1
  9
$MAXACTVP
 70
    64
  9
$PINSBASE
 10
0.0
 20
0.0
 30
0.0
  9
$PLIMCHECK
 70
     0
  9
$PEXTMIN
 10
1.0000000000E+20
 20
1.0000000000E+20
 30
1.0000000000E+20
  9
$PEXTMAX
 10
-1.0000000000E+20
 20
-1.0000000000E+20
 30
-1.0000000000E+20
  9
$PLIMMIN
 10
0.0
 20
0.0
  9
$PLIMMAX
 10
420.0
 20
297.0
  9
$UNITMODE
 70
     0
  9
$VISRETAIN
 70
     1
  9
$PLINEGEN
 70
     0
  9
$PSLTSCALE
 70
     1
  9
$TREEDEPTH
 70
  3020
  9
$CMLSTYLE
  2
Standard
  9
$CMLJUST
 70
     0
  9
$CMLSCALE
 40
20.0
  9
$PROXYGRAPHICS
 70
     1
  9
$MEASUREMENT
 70
     1
  9
$CELWEIGHT
370
    -1
  9
$ENDCAPS
280
     0
  9
$JOINSTYLE
280
     0
  9
$LWDISPLAY
290
     1
  9
$INSUNITS
 70
     4
  9
$HYPERLINKBASE
  1

  9
$STYLESHEET
  1

  9
$XEDIT
290
     1
  9
$CEPSNTYPE
380
     0
  9
$PSTYLEMODE
290
     1
  9
$FINGERPRINTGUID
  2
{A7DD9D29-0FB0-47BB-A7B1-B97A21EF55BC}
  9
$VERSIONGUID
  2
{FAEB1C32-E019-11D5-929B-00C0DF256EC4}
  9
$EXTNAMES
290
     1
  9
$PSVPSCALE
 40
0.0
  9
$OLESTARTUP
290
     0
  0
ENDSEC
  0
SECTION
  2
CLASSES
  0
CLASS
  1
ACDBDICTIONARYWDFLT
  2
AcDbDictionaryWithDefault
  3
ObjectDBX Classes
 90
        0
280
     0
281
     0
  0
CLASS
  1
VISUALSTYLE
  2
AcDbVisualStyle
  3
ObjectDBX Classes
 90
     4095
280
     0
281
     0
  0
CLASS
  1
MATERIAL
  2
AcDbMaterial
  3
ObjectDBX Classes
 90
     1153
280
     0
281
     0
  0
CLASS
  1
ACDBPLACEHOLDER
  2
AcDbPlaceHolder
  3
ObjectDBX Classes
 90
        0
280
     0
281
     0
  0
CLASS
  1
LAYOUT
  2
AcDbLayout
  3
ObjectDBX Classes
 90
        0
280
     0
281
     0
  0
ENDSEC
  0
SECTION
  2
TABLES
  0
TABLE
  2
VPORT
  5
8
330
0
100
AcDbSymbolTable
 70
     1
  0
VPORT
  5
29
330
8
100
AcDbSymbolTableRecord
100
AcDbViewportTableRecord
  2
*Active
 70
     0
 10
0.0
 20
0.0
 11
1.0
 21
1.0
 12
148.5
 22
105.0
 13
0.0
 23
0.0
 14
10.0
 24
10.0
 15
10.0
 25
10.0
 16
0.0
 26
0.0
 36
1.0
 17
0.0
 27
0.0
 37
0.0
 40
210.0
 41
1.4142857143
 42
50.0
 43
0.0
 44
0.0
 50
0.0
 51
0.0
 71
     0
 72
  2000
 73
     1
 74
     3
 75
     0
 76
     0
 77
     0
 78
     0
281
     0
 65
     1
110
0.0
120
0.0
130
0.0
111
1.0
121
0.0
131
0.0
112
0.0
122
1.0
132
0.0
 79
     0
146
0.0
  0
ENDTAB
  0
TABLE
  2
LTYPE
  5
5
330
0
100
AcDbSymbolTable
 70
     8
  0
LTYPE
  5
14
330
5
100
AcDbSymbolTableRecord
100
AcDbLinetypeTableRecord
  2
ByBlock
 70
     0
  3

 72
    65
 73
     0
 40
0.0
  0
LTYPE
  5
15
330
5
100
AcDbSymbolTableRecord
100
AcDbLinetypeTableRecord
  2
ByLayer
 70
     0
  3

 72
    65
 73
     0
 40
0.0
  0
LTYPE
  5
16
330
5
100
AcDbSymbolTableRecord
100
AcDbLinetypeTableRecord
  2
Continuous
 70
     0
  3
Solid line
 72
    65
 73
     0
 40
0.0
  0
LTYPE
  5
3F
330
5
100
AcDbSymbolTableRecord
100
AcDbLinetypeTableRecord
  2
SLD-Durchgehend
 70
     0
  3
SolidWorks Line Style
 72
    65
 73
     0
 40
0.0
  0
LTYPE
  5
40
330
5
100
AcDbSymbolTableRecord
100
AcDbLinetypeTableRecord
  2
SLD-Gestrichelt
 70
     0
  3
SolidWorks Line Style
 72
    65
 73
     2
 40
1.905
 49
1.27
 74
     0
 49
-0.635
 74
     0
  0
LTYPE
  5
41
330
5
100
AcDbSymbolTableRecord
100
AcDbLinetypeTableRecord
  2
SLD-Phantom
 70
     0
  3
SolidWorks Line Style
 72
    65
 73
     6
 40
12.7
 49
6.35
 74
     0
 49
-1.27
 74
     0
 49
1.27
 74
     0
 49
-1.27
 74
     0
 49
1.27
 74
     0
 49
-1.27
 74
     0
  0
LTYPE
  5
42
330
5
100
AcDbSymbolTableRecord
100
AcDbLinetypeTableRecord
  2
SLD-Kette
 70
     0
  3
SolidWorks Line Style
 72
    65
 73
     4
 40
10.16
 49
6.35
 74
     0
 49
-1.27
 74
     0
 49
1.27
 74
     0
 49
-1.27
 74
     0
  0
LTYPE
  5
43
330
5
100
AcDbSymbolTableRecord
100
AcDbLinetypeTableRecord
  2
SLD-Punktstrich
 70
     0
  3
SolidWorks Line Style
 72
    65
 73
     4
 40
19.05
 49
15.24
 74
     0
 49
-1.27
 74
     0
 49
1.27
 74
     0
 49
-1.27
 74
     0
  0
LTYPE
  5
44
330
5
100
AcDbSymbolTableRecord
100
AcDbLinetypeTableRecord
  2
SLD-Naht
 70
     0
  3
SolidWorks Line Style
 72
    65
 73
     2
 40
0.635
 49
0.0
 74
     0
 49
-0.635
 74
     0
  0
LTYPE
  5
45
330
5
100
AcDbSymbolTableRecord
100
AcDbLinetypeTableRecord
  2
SLD-Dicke-Dünne-Kette
 70
     0
  3
SolidWorks Line Style
 72
    65
 73
     4
 40
10.16
 49
6.35
 74
     0
 49
-1.27
 74
     0
 49
1.27
 74
     0
 49
-1.27
 74
     0
  0
ENDTAB
  0
TABLE
  2
LAYER
  5
2
330
0
100
AcDbSymbolTable
 70
     5
  0
LAYER
  5
10
330
2
100
AcDbSymbolTableRecord
100
AcDbLayerTableRecord
  2
0
 70
     0
 62
     7
  6
Continuous
370
    -3
390
F
  0
LAYER
  5
46
330
2
100
AcDbSymbolTableRecord
100
AcDbLayerTableRecord
  2
FORMAT
 70
     0
 62
     7
  6
SLD-Durchgehend
370
    -3
390
F
  0
LAYER
  5
47
330
2
100
AcDbSymbolTableRecord
100
AcDbLayerTableRecord
  2
VERMASSUNG
 70
     0
 62
     7
  6
SLD-Durchgehend
370
    -3
390
F
  0
LAYER
  5
48
330
2
100
AcDbSymbolTableRecord
100
AcDbLayerTableRecord
  2
KOPF_DÜNN
 70
     0
 62
     7
  6
SLD-Durchgehend
370
    -3
390
F
  0
LAYER
  5
49
330
2
100
AcDbSymbolTableRecord
100
AcDbLayerTableRecord
  2
KOPF_DICK
 70
     0
 62
     7
  6
SLD-Durchgehend
370
    15
390
F
  0
ENDTAB
  0
TABLE
  2
STYLE
  5
3
330
0
100
AcDbSymbolTable
 70
     2
  0
STYLE
  5
11
330
3
100
AcDbSymbolTableRecord
100
AcDbTextStyleTableRecord
  2
STANDARD
 70
     0
 40
0.0
 41
1.0
 50
0.0
 71
     0
 42
2.0
  3
ISOCPEUR.TTF
  4

1001
ACAD
1000
ISOCPEUR
1071
       34
  0
STYLE
  5
4A
330
3
100
AcDbSymbolTableRecord
100
AcDbTextStyleTableRecord
  2
SLDTEXTSTYLE0
 70
     0
 40
0.0
 41
1.0
 50
0.0
 71
     0
 42
0.2
  3
ISOCPEUR.TTF
  4

1001
ACAD
1000
ISOCPEUR
1071
      290
  0
ENDTAB
  0
TABLE
  2
VIEW
  5
6
330
0
100
AcDbSymbolTable
 70
     0
  0
ENDTAB
  0
TABLE
  2
UCS
  5
7
330
0
100
AcDbSymbolTable
 70
     0
  0
ENDTAB
  0
TABLE
  2
APPID
  5
9
330
0
100
AcDbSymbolTable
 70
     1
  0
APPID
  5
12
330
9
100
AcDbSymbolTableRecord
100
AcDbRegAppTableRecord
  2
ACAD
 70
     0
  0
ENDTAB
  0
TABLE
  2
DIMSTYLE
  5
A
330
0
100
AcDbSymbolTable
 70
     3
100
AcDbDimStyleTable
  0
DIMSTYLE
105
27
330
A
100
AcDbSymbolTableRecord
100
AcDbDimStyleTableRecord
  2
ISO-25
 70
     0
 41
2.5
 42
0.625
 43
3.75
 44
1.25
 73
     0
 74
     0
 77
     1
 78
     8
140
2.5
141
2.5
143
0.0393700787
147
0.625
171
     3
172
     1
178
     0
271
     2
272
     2
274
     3
278
    44
283
     0
284
     8
340
11
  0
DIMSTYLE
105
1FA
102
{ACAD_REACTORS
330
1F9
330
204
330
20E
330
218
330
263
102
}
330
A
100
AcDbSymbolTableRecord
100
AcDbDimStyleTableRecord
  2
SLDDIMSTYLE0
 70
     0
 41
3.0
 44
0.0
 45
0.000000001
 73
     0
 74
     0
 77
     1
 78
    12
 79
     3
140
2.0
147
0.5
173
     1
178
     0
271
     2
272
     3
276
     2
284
    12
340
4A
  0
DIMSTYLE
105
225
102
{ACAD_REACTORS
330
224
102
}
330
A
100
AcDbSymbolTableRecord
100
AcDbDimStyleTableRecord
  2
SLDDIMSTYLE1
 70
     0
 41
3.0
 44
0.0
 73
     0
 74
     0
 77
     1
 78
    12
 79
     3
140
2.0
147
0.5
173
     1
178
     0
179
     1
272
     3
276
     2
284
    12
340
4A
  0
ENDTAB
  0
TABLE
  2
BLOCK_RECORD
  5
1
330
0
100
AcDbSymbolTable
 70
     7
  0
BLOCK_RECORD
  5
1F
330
1
100
AcDbSymbolTableRecord
100
AcDbBlockTableRecord
  2
*Model_Space
340
22
  0
BLOCK_RECORD
  5
1B
330
1
100
AcDbSymbolTableRecord
100
AcDbBlockTableRecord
  2
*Paper_Space
340
1E
  0
BLOCK_RECORD
  5
23
330
1
100
AcDbSymbolTableRecord
100
AcDbBlockTableRecord
  2
*Paper_Space0
340
26
  0
BLOCK_RECORD
  5
1FB
330
1
100
AcDbSymbolTableRecord
100
AcDbBlockTableRecord
  2
_D
340
0
  0
BLOCK_RECORD
  5
205
330
1
100
AcDbSymbolTableRecord
100
AcDbBlockTableRecord
  2
_D_1
340
0
  0
BLOCK_RECORD
  5
20F
330
1
100
AcDbSymbolTableRecord
100
AcDbBlockTableRecord
  2
_D_2
340
0
  0
BLOCK_RECORD
  5
219
330
1
100
AcDbSymbolTableRecord
100
AcDbBlockTableRecord
  2
_D_3
340
0
  0
BLOCK_RECORD
  5
226
330
1
100
AcDbSymbolTableRecord
100
AcDbBlockTableRecord
  2
_D_4
340
0
  0
BLOCK_RECORD
  5
264
330
1
100
AcDbSymbolTableRecord
100
AcDbBlockTableRecord
  2
_D_5
340
0
  0
ENDTAB
  0
ENDSEC
  0
SECTION
  2
BLOCKS
  0
BLOCK
  5
20
330
1F
100
AcDbEntity
  8
0
100
AcDbBlockBegin
  2
*Model_Space
 70
     0
 10
0.0
 20
0.0
 30
0.0
  3
*Model_Space
  1

  0
ENDBLK
  5
21
330
1F
100
AcDbEntity
  8
0
100
AcDbBlockEnd
  0
BLOCK
  5
1C
330
1B
100
AcDbEntity
 67
     1
  8
0
100
AcDbBlockBegin
  2
*Paper_Space
 70
     0
 10
0.0
 20
0.0
 30
0.0
  3
*Paper_Space
  1

  0
ENDBLK
  5
1D
330
1B
100
AcDbEntity
 67
     1
  8
0
100
AcDbBlockEnd
  0
BLOCK
  5
24
330
23
100
AcDbEntity
  8
0
100
AcDbBlockBegin
  2
*Paper_Space0
 70
     0
 10
0.0
 20
0.0
 30
0.0
  3
*Paper_Space0
  1

  0
ENDBLK
  5
25
330
23
100
AcDbEntity
  8
0
100
AcDbBlockEnd
  0
BLOCK
  5
1FC
330
1FB
100
AcDbEntity
  8
0
100
AcDbBlockBegin
  2
_D
 70
     0
 10
0.0
 20
0.0
 30
0.0
  3
_D
  1

  0
SOLID
  5
1FE
330
1FB
100
AcDbEntity
  8
VERMASSUNG
100
AcDbTrace
 10
278.9477725388
 20
153.7098483008
 30
0.0
 11
275.9477725388
 21
154.1598483008
 31
0.0
 12
275.9477725388
 22
153.2598483008
 32
0.0
 13
275.9477725388
 23
153.2598483008
 33
0.0
  0
SOLID
  5
1FF
330
1FB
100
AcDbEntity
  8
VERMASSUNG
100
AcDbTrace
 10
138.9477725388
 20
153.7098483008
 30
0.0
 11
141.9477725388
 21
153.2598483008
 31
0.0
 12
141.9477725388
 22
154.1598483008
 32
0.0
 13
141.9477725388
 23
154.1598483008
 33
0.0
  0
LINE
  5
200
330
1FB
100
AcDbEntity
  8
VERMASSUNG
100
AcDbLine
 10
278.9477725388
 20
143.3868602146
 30
0.0
 11
278.9477725388
 21
154.7098483008
 31
0.0
  0
LINE
  5
201
330
1FB
100
AcDbEntity
  8
VERMASSUNG
100
AcDbLine
 10
138.9477725388
 20
147.5868602146
 30
0.0
 11
138.9477725388
 21
154.7098483008
 31
0.0
  0
LINE
  5
202
330
1FB
100
AcDbEntity
  8
VERMASSUNG
100
AcDbLine
 10
278.9477725388
 20
153.7098483008
 30
0.0
 11
138.9477725388
 21
153.7098483008
 31
0.0
  0
MTEXT
  5
203
330
1FB
100
AcDbEntity
  8
VERMASSUNG
100
AcDbMText
 10
202.2281972547
 20
156.3098481844
 30
0.0
 40
2.0
 41
0.0
 71
     1
 72
     1
  1
140
  7
SLDTEXTSTYLE0
 73
     1
 44
1.0
  0
ENDBLK
  5
1FD
330
1FB
100
AcDbEntity
  8
0
100
AcDbBlockEnd
  0
BLOCK
  5
206
330
205
100
AcDbEntity
  8
0
100
AcDbBlockBegin
  2
_D_1
 70
     0
 10
0.0
 20
0.0
 30
0.0
  3
_D_1
  1

  0
SOLID
  5
208
330
205
100
AcDbEntity
  8
VERMASSUNG
100
AcDbTrace
 10
278.9477725388
 20
159.7098483008
 30
0.0
 11
275.9477725388
 21
160.1598483008
 31
0.0
 12
275.9477725388
 22
159.2598483008
 32
0.0
 13
275.9477725388
 23
159.2598483008
 33
0.0
  0
SOLID
  5
209
330
205
100
AcDbEntity
  8
VERMASSUNG
100
AcDbTrace
 10
107.0477725388
 20
159.7098483008
 30
0.0
 11
110.0477725388
 21
159.2598483008
 31
0.0
 12
110.0477725388
 22
160.1598483008
 32
0.0
 13
110.0477725388
 23
160.1598483008
 33
0.0
  0
LINE
  5
20A
330
205
100
AcDbEntity
  8
VERMASSUNG
100
AcDbLine
 10
278.9477725388
 20
143.3868602146
 30
0.0
 11
278.9477725388
 21
160.7098483008
 31
0.0
  0
LINE
  5
20B
330
205
100
AcDbEntity
  8
VERMASSUNG
100
AcDbLine
 10
107.0477725388
 20
136.0775379611
 30
0.0
 11
107.0477725388
 21
160.7098483008
 31
0.0
  0
LINE
  5
20C
330
205
100
AcDbEntity
  8
VERMASSUNG
100
AcDbLine
 10
278.9477725388
 20
159.7098483008
 30
0.0
 11
107.0477725388
 21
159.7098483008
 31
0.0
  0
MTEXT
  5
20D
330
205
100
AcDbEntity
  8
VERMASSUNG
100
AcDbMText
 10
186.7651988419
 20
162.3098481844
 30
0.0
 40
2.0
 41
0.0
 71
     1
 72
     1
  1
171.9
  7
SLDTEXTSTYLE0
 73
     1
 44
1.0
  0
ENDBLK
  5
207
330
205
100
AcDbEntity
  8
0
100
AcDbBlockEnd
  0
BLOCK
  5
210
330
20F
100
AcDbEntity
  8
0
100
AcDbBlockBegin
  2
_D_2
 70
     0
 10
0.0
 20
0.0
 30
0.0
  3
_D_2
  1

  0
SOLID
  5
212
330
20F
100
AcDbEntity
  8
VERMASSUNG
100
AcDbTrace
 10
284.4927221095
 20
143.3868602146
 30
0.0
 11
284.0427221095
 21
140.3868602146
 31
0.0
 12
284.9427221095
 22
140.3868602146
 32
0.0
 13
284.9427221095
 23
140.3868602146
 33
0.0
  0
SOLID
  5
213
330
20F
100
AcDbEntity
  8
VERMASSUNG
100
AcDbTrace
 10
284.4927221095
 20
116.3868602146
 30
0.0
 11
284.9427221095
 21
119.3868602146
 31
0.0
 12
284.0427221095
 22
119.3868602146
 32
0.0
 13
284.0427221095
 23
119.3868602146
 33
0.0
  0
LINE
  5
214
330
20F
100
AcDbEntity
  8
VERMASSUNG
100
AcDbLine
 10
278.9477725388
 20
143.3868602146
 30
0.0
 11
285.4927221095
 21
143.3868602146
 31
0.0
  0
LINE
  5
215
330
20F
100
AcDbEntity
  8
VERMASSUNG
100
AcDbLine
 10
271.5918184689
 20
116.3868602146
 30
0.0
 11
285.4927221095
 21
116.3868602146
 31
0.0
  0
LINE
  5
216
330
20F
100
AcDbEntity
  8
VERMASSUNG
100
AcDbLine
 10
284.4927221095
 20
143.3868602146
 30
0.0
 11
284.4927221095
 21
116.3868602146
 31
0.0
  0
MTEXT
  5
217
330
20F
100
AcDbEntity
  8
VERMASSUNG
100
AcDbMText
 10
281.8927222259
 20
128.4311693242
 30
0.0
 40
2.0
 41
0.0
 71
     1
 72
     1
  1
27
  7
SLDTEXTSTYLE0
 11
-7.044195017643634E-15
 21
1.0
 31
0.0
 73
     1
 44
1.0
  0
ENDBLK
  5
211
330
20F
100
AcDbEntity
  8
0
100
AcDbBlockEnd
  0
BLOCK
  5
21A
330
219
100
AcDbEntity
  8
0
100
AcDbBlockBegin
  2
_D_3
 70
     0
 10
0.0
 20
0.0
 30
0.0
  3
_D_3
  1

  0
SOLID
  5
21C
330
219
100
AcDbEntity
  8
VERMASSUNG
100
AcDbTrace
 10
101.9495976437
 20
147.8868602146
 30
0.0
 11
101.4995976437
 21
144.8868602146
 31
0.0
 12
102.3995976437
 22
144.8868602146
 32
0.0
 13
102.3995976437
 23
144.8868602146
 33
0.0
  0
SOLID
  5
21D
330
219
100
AcDbEntity
  8
VERMASSUNG
100
AcDbTrace
 10
101.9495976437
 20
84.8868602146
 30
0.0
 11
102.3995976437
 21
87.8868602146
 31
0.0
 12
101.4995976437
 22
87.8868602146
 32
0.0
 13
101.4995976437
 23
87.8868602146
 33
0.0
  0
LINE
  5
21E
330
219
100
AcDbEntity
  8
VERMASSUNG
100
AcDbLine
 10
139.2477725388
 20
147.8868602146
 30
0.0
 11
100.9495976437
 21
147.8868602146
 31
0.0
  0
LINE
  5
21F
330
219
100
AcDbEntity
  8
VERMASSUNG
100
AcDbLine
 10
139.2477725388
 20
84.8868602146
 30
0.0
 11
100.9495976437
 21
84.8868602146
 31
0.0
  0
LINE
  5
220
330
219
100
AcDbEntity
  8
VERMASSUNG
100
AcDbLine
 10
101.9495976437
 20
147.8868602146
 30
0.0
 11
101.9495976437
 21
84.8868602146
 31
0.0
  0
MTEXT
  5
221
330
219
100
AcDbEntity
  8
VERMASSUNG
100
AcDbMText
 10
99.1495976342
 20
109.5133164135
 30
0.0
 40
2.0
 41
0.0
 71
     1
 72
     1
  1
HSK 
  7
SLDTEXTSTYLE0
 11
-7.044195017643634E-15
 21
1.0
 31
0.0
 73
     1
 44
1.0
  0
MTEXT
  5
222
330
219
100
AcDbEntity
  8
VERMASSUNG
100
AcDbMText
 10
99.3495976437
 20
115.5133164657
 30
0.0
 40
2.0
 41
0.0
 71
     1
 72
     1
  1
%%c
  7
SLDTEXTSTYLE0
 11
-7.044195017643634E-15
 21
1.0
 31
0.0
 73
     1
 44
1.0
  0
MTEXT
  5
223
330
219
100
AcDbEntity
  8
VERMASSUNG
100
AcDbMText
 10
99.3495977601
 20
119.1225793486
 30
0.0
 40
2.0
 41
0.0
 71
     1
 72
     1
  1
63
  7
SLDTEXTSTYLE0
 11
-7.044195017643634E-15
 21
1.0
 31
0.0
 73
     1
 44
1.0
  0
ENDBLK
  5
21B
330
219
100
AcDbEntity
  8
0
100
AcDbBlockEnd
  0
BLOCK
  5
227
330
226
100
AcDbEntity
  8
0
100
AcDbBlockBegin
  2
_D_4
 70
     0
 10
0.0
 20
0.0
 30
0.0
  3
_D_4
  1

  0
ARC
  5
229
330
226
100
AcDbEntity
  8
VERMASSUNG
100
AcDbCircle
 10
278.9477725388
 20
143.8483453866
 30
0.0
 40
33.41194882582072
100
AcDbArc
 50
252.5225219383
 51
270.0
  0
SOLID
  5
22A
330
226
100
AcDbEntity
  8
VERMASSUNG
100
AcDbTrace
 10
268.9131323003
 20
111.9788565357
 30
0.0
 11
271.6962956853
 21
110.7720004662
 31
0.0
 12
271.9278990775
 22
111.6416899906
 32
0.0
 13
271.9278990775
 23
111.6416899906
 33
0.0
  0
SOLID
  5
22B
330
226
100
AcDbEntity
  8
VERMASSUNG
100
AcDbTrace
 10
278.9477725388
 20
110.4363965608
 30
0.0
 11
275.9709207038
 21
111.0202228639
 31
0.0
 12
275.9306375171
 22
110.1211248354
 32
0.0
 13
275.9306375171
 23
110.1211248354
 33
0.0
  0
LINE
  5
22C
330
226
100
AcDbEntity
  8
VERMASSUNG
100
AcDbLine
 10
270.3010657966
 20
116.3868602146
 30
0.0
 11
268.6128014129
 21
111.0250214566
 31
0.0
  0
LINE
  5
22D
330
226
100
AcDbEntity
  8
VERMASSUNG
100
AcDbLine
 10
278.9477725388
 20
116.3868602146
 30
0.0
 11
278.9477725388
 21
109.4363965608
 31
0.0
  0
MTEXT
  5
22E
330
226
100
AcDbEntity
  8
VERMASSUNG
100
AcDbMText
 10
272.0902838316
 20
113.6790323536
 30
0.0
 40
2.0
 41
0.0
 71
     1
 72
     1
  1
17.5°
  7
SLDTEXTSTYLE0
 11
0.9911819957855119
 21
-0.1325075515985768
 31
0.0
 73
     1
 44
1.0
  0
ENDBLK
  5
228
330
226
100
AcDbEntity
  8
0
100
AcDbBlockEnd
  0
BLOCK
  5
265
330
264
100
AcDbEntity
  8
0
100
AcDbBlockBegin
  2
_D_5
 70
     0
 10
0.0
 20
0.0
 30
0.0
  3
_D_5
  1

  0
SOLID
  5
267
330
264
100
AcDbEntity
  8
VERMASSUNG
100
AcDbTrace
 10
22.3003643294
 20
93.388956844
 30
0.0
 11
22.7503643294
 21
96.388956844
 31
0.0
 12
21.8503643294
 22
96.388956844
 32
0.0
 13
21.8503643294
 23
96.388956844
 33
0.0
  0
SOLID
  5
268
330
264
100
AcDbEntity
  8
VERMASSUNG
100
AcDbTrace
 10
22.3003643294
 20
143.388956844
 30
0.0
 11
21.8503643294
 21
140.388956844
 31
0.0
 12
22.7503643294
 22
140.388956844
 32
0.0
 13
22.7503643294
 23
140.388956844
 33
0.0
  0
LINE
  5
269
330
264
100
AcDbEntity
  8
VERMASSUNG
100
AcDbLine
 10
57.5814108469
 20
93.388956844
 30
0.0
 11
21.3003643294
 21
93.388956844
 31
0.0
  0
LINE
  5
26A
330
264
100
AcDbEntity
  8
VERMASSUNG
100
AcDbLine
 10
57.5814108469
 20
143.388956844
 30
0.0
 11
21.3003643294
 21
143.388956844
 31
0.0
  0
LINE
  5
26B
330
264
100
AcDbEntity
  8
VERMASSUNG
100
AcDbLine
 10
22.3003643294
 20
93.388956844
 30
0.0
 11
22.3003643294
 21
143.388956844
 31
0.0
  0
MTEXT
  5
26C
330
264
100
AcDbEntity
  8
VERMASSUNG
100
AcDbMText
 10
19.7003643294
 20
115.7318239879
 30
0.0
 40
2.0
 41
0.0
 71
     1
 72
     1
  1
%%c
  7
SLDTEXTSTYLE0
 11
6.123233995736766E-17
 21
1.0
 31
0.0
 73
     1
 44
1.0
  0
MTEXT
  5
26D
330
264
100
AcDbEntity
  8
VERMASSUNG
100
AcDbMText
 10
19.7003644458
 20
119.3410738476
 30
0.0
 40
2.0
 41
0.0
 71
     1
 72
     1
  1
50
  7
SLDTEXTSTYLE0
 11
6.123233995736766E-17
 21
1.0
 31
0.0
 73
     1
 44
1.0
  0
ENDBLK
  5
266
330
264
100
AcDbEntity
  8
0
100
AcDbBlockEnd
  0
ENDSEC
  0
SECTION
  2
ENTITIES
  0
MTEXT
  5
4B
330
1F
100
AcDbEntity
  8
KOPF_DÜNN
100
AcDbMText
 10
13.8892156294
 20
23.8770940835
 30
0.0
 40
3.0
 41
0.0
 71
     1
 72
     1
  1
HA6.BDB.RQC.140
  7
SLDTEXTSTYLE0
 73
     1
 44
1.0
  0
MTEXT
  5
4C
330
1F
100
AcDbEntity
  8
VERMASSUNG
100
AcDbMText
 10
13.9329988022
 20
28.9162328764
 30
0.0
 40
3.0
 41
0.0
 71
     1
 72
     1
  1
Bohrstange_Boring bar
  7
SLDTEXTSTYLE0
 73
     1
 44
1.0
  0
MTEXT
  5
4D
330
1F
100
AcDbEntity
  8
VERMASSUNG
100
AcDbMText
 10
98.8601118557
 20
13.8584013384
 30
0.0
 40
2.0
 41
0.0
 71
     1
 72
     1
  1
Datum: 10.06.2007
  7
SLDTEXTSTYLE0
 73
     1
 44
1.0
  0
MTEXT
  5
4E
330
1F
100
AcDbEntity
  8
VERMASSUNG
100
AcDbMText
 10
13.933048693
 20
18.0701447943
 30
0.0
 40
2.0
 41
0.0
 71
     1
 72
     1
  1
DIN 69893 HSK 63 A ICTM / DC.. 11 T3 ..
  7
SLDTEXTSTYLE0
 73
     1
 44
1.0
  0
MTEXT
  5
4F
330
1F
100
AcDbEntity
  8
VERMASSUNG
100
AcDbMText
 10
13.9808475933
 20
13.9309618897
 30
0.0
 40
2.0
 41
0.0
 71
     1
 72
     1
  1
Gewicht: 1550g
  7
SLDTEXTSTYLE0
 73
     1
 44
1.0
  0
LINE
  5
50
330
1F
100
AcDbEntity
  8
0
  6
SLD-Durchgehend
 62
     7
370
    15
100
AcDbLine
 10
272.6022477509
 20
135.1283598472
 30
0.0
 11
272.6022477509
 21
135.0342701901
 31
0.0
  0
LINE
  5
51
330
1F
100
AcDbEntity
  8
0
  6
SLD-Durchgehend
 62
     7
370
    15
100
AcDbLine
 10
270.6981475712
 20
135.462686025
 30
0.0
 11
270.6981475712
 21
135.5554979075
 31
0.0
  0
LINE
  5
52
330
1F
100
AcDbEntity
  8
0
  6
SLD-Durchgehend
 62
     7
370
    15
100
AcDbLine
 10
272.8502030732
 20
136.898969837
 30
0.0
 11
272.8502030732
 21
136.8062194218
 31
0.0
  0
LINE
  5
53
330
1F
100
AcDbEntity
  8
0
  6
SLD-Durchgehend
 62
     7
370
    15
100
AcDbLine
 10
270.9461028935
 20
137.2346352567
 30
0.0
 11
270.9461028935
 21
137.3287416775
 31
0.0
  0
LINE
  5
54
330
1F
100
AcDbEntity
  8
0
  6
SLD-Durchgehend
 62
     7
370
    15
100
AcDbLine
 10
269.1514964463
 20
136.2138349344
 30
0.0
 11
269.1514964463
 21
136.1632920582
 31
0.0
  0
LINE
  5
55
330
1F
100
AcDbEntity
  8
0
  6
SLD-Durchgehend
 62
     7
370
    15
100
AcDbLine
 10
274.4014884592
 20
136.1632920582
 30
0.0
 11
274.4014884592
 21
136.2138349344
 31
0.0
  0
LINE
  5
56
330
1F
100
AcDbEntity
  8
0
  6
SLD-Durchgehend
 62
     7
370
    15
100
AcDbLine
 10
139.247772553
 20
84.886859708
 30
0.0
 11
143.897772512
 21
84.886859708
 31
0.0
  0
LINE
  5
57
330
1F
100
AcDbEntity
  8
0
  6
SLD-Durchgehend
 62
     7
370
    15
100
AcDbLine
 10
143.9257610837
 20
147.8868607213
 30
0.0
 11
139.247772553
 21
147.8868607213
 31
0.0
  0
ARC
  5
58
330
1F
100
AcDbEntity
  8
0
  6
SLD-Durchgehend
 62
     7
370
    15
100
AcDbCircle
 10
139.2477725388
 20
85.1868602146
 30
0.0
 40
0.3000000000000114
100
AcDbArc
 50
180.0
 51
270.0
  0
ARC
  5
59
330
1F
100
AcDbEntity
  8
0
  6
SLD-Durchgehend
 62
     7
370
    15
100
AcDbCircle
 10
139.2477725388
 20
147.5868602146
 30
0.0
 40
0.3000000000000114
100
AcDbArc
 50
90.0
 51
180.0
  0
ARC
  5
5A
330
1F
100
AcDbEntity
  8
0
  6
SLD-Durchgehend
 62
     7
370
    15
100
AcDbCircle
 10
138.4477725388
 20
91.8164293529
 30
0.0
 40
0.6000000000000019
100
AcDbArc
 50
33.5573097619
 51
90.0
  0
ARC
  5
5B
330
1F
100
AcDbEntity
  8
0
  6
SLD-Durchgehend
 62
     7
370
    15
100
AcDbCircle
 10
138.4477725388
 20
140.9572910763
 30
0.0
 40
0.6000000000000019
100
AcDbArc
 50
270.0
 51
326.4426902381
  0
LINE
  5
5C
330
1F
100
AcDbEntity
  8
0
  6
SLD-Durchgehend
 62
     7
370
    15
100
AcDbLine
 10
136.9477724438
 20
92.1664289911
 30
0.0
 11
137.80448537
 21
92.3959851046
 31
0.0
  0
LINE
  5
5D
330
1F
100
AcDbEntity
  8
0
  6
SLD-Durchgehend
 62
     7
370
    15
100
AcDbLine
 10
137.80448537
 20
140.3777353246
 30
0.0
 11
136.9477724438
 21
140.6072914381
 31
0.0
  0
LINE
  5
5E
330
1F
100
AcDbEntity
  8
0
  6
SLD-Durchgehend
 62
     7
370
    15
100
AcDbLine
 10
125.7173500271
 20
140.0446440805
 30
0.0
 11
113.1477716626
 21
139.4149061073
 31
0.0
  0
LINE
  5
5F
330
1F
100
AcDbEntity
  8
0
  6
SLD-Durchgehend
 62
     7
370
    15
100
AcDbLine
 10
136.9477724438
 20
140.6072914381
 30
0.0
 11
134.1291630888
 21
140.4660787214
 31
0.0
  0
LINE
  5
60
330
1F
100
AcDbEntity
  8
0
  6
SLD-Durchgehend
 62
     7
370
    15
100
AcDbLine
 10
134.1293847436
 20
92.3076305319
 30
0.0
 11
136.9477724438
 21
92.1664289911
 31
0.0
  0
LINE
  5
61
330
1F
100
AcDbEntity
  8
0
  6
SLD-Durchgehend
 62
     7
370
    15
100
AcDbLine
 10
117.1477723183
 20
93.1584141929
 30
0.0
 11
125.7180494504
 21
92.7290409584
 31
0.0
  0
ARC
  5
62
330
1F
100
AcDbEntity
  8
0
  6
SLD-Durchgehend
 62
     7
370
    15
100
AcDbCircle
 10
137.9597767392
 20
91.8164293529
 30
0.0
 40
0.5999999999999943
100
AcDbArc
 50
90.0
 51
105.0
  0
ARC
  5
63
330
1F
100
AcDbEntity
  8
0
  6
SLD-Durchgehend
 62
     7
370
    15
100
AcDbCircle
 10
137.9597767392
 20
140.9572910763
 30
0.0
 40
0.6000000000000227
100
AcDbArc
 50
255.0
 51
270.0
  0
LINE
  5
64
330
1F
100
AcDbEntity
  8
0
  6
SLD-Durchgehend
 62
     7
370
    15
100
AcDbLine
 10
137.9597767736
 20
92.4164294977
 30
0.0
 11
138.4477725151
 21
92.4164294977
 31
0.0
  0
LINE
  5
65
330
1F
100
AcDbEntity
  8
0
  6
SLD-Durchgehend
 62
     7
370
    15
100
AcDbLine
 10
138.4477725151
 20
140.3572909315
 30
0.0
 11
137.9597767736
 21
140.3572909315
 31
0.0
  0
ARC
  5
66
330
1F
100
AcDbEntity
  8
0
  6
SLD-Durchgehend
 62
     7
370
    15
100
AcDbCircle
 10
167.8977725388
 20
93.3868602146
 30
0.0
 40
3.0
100
AcDbArc
 50
90.0
 51
180.0
  0
ARC
  5
67
330
1F
100
AcDbEntity
  8
0
  6
SLD-Durchgehend
 62
     7
370
    15
100
AcDbCircle
 10
167.8977725388
 20
139.3868602146
 30
0.0
 40
3.0
100
AcDbArc
 50
180.0
 51
270.0
  0
LINE
  5
68
330
1F
100
AcDbEntity
  8
0
  6
SLD-Durchgehend
 62
     7
370
    15
100
AcDbLine
 10
167.8977727206
 20
96.3868606616
 30
0.0
 11
252.9477725984
 21
96.3868606616
 31
0.0
  0
LINE
  5
69
330
1F
100
AcDbEntity
  8
0
  6
SLD-Durchgehend
 62
     7
370
    15
100
AcDbLine
 10
252.9477725984
 20
136.3868597676
 30
0.0
 11
167.8977727206
 21
136.3868597676
 31
0.0
  0
LINE
  5
6A
330
1F
100
AcDbEntity
  8
0
  6
SLD-Durchgehend
 62
     7
370
    15
100
AcDbLine
 10
108.1977716894
 20
95.5743599464
 30
0.0
 11
115.7477728338
 21
95.5743599464
 31
0.0
  0
ARC
  5
6B
330
1F
100
AcDbEntity
  8
0
  6
SLD-Durchgehend
 62
     7
370
    15
100
AcDbCircle
 10
115.7477725388
 20
94.1743602146
 30
0.0
 40
1.400000000000005
100
AcDbArc
 50
37.6443616934
 51
90.0
  0
LINE
  5
6C
330
1F
100
AcDbEntity
  8
0
  6
SLD-Durchgehend
 62
     7
370
    15
100
AcDbLine
 10
108.1889353008
 20
137.24802395
 30
0.0
 11
107.0576745333
 21
136.1167613198
 31
0.0
  0
LINE
  5
6D
330
1F
100
AcDbEntity
  8
0
  6
SLD-Durchgehend
 62
     7
370
    15
100
AcDbLine
 10
107.0451910855
 20
96.7269405503
 30
0.0
 11
108.1977716894
 21
95.5743599464
 31
0.0
  0
ARC
  5
6E
330
1F
100
AcDbEntity
  8
0
  6
SLD-Durchgehend
 62
     7
370
    15
100
AcDbCircle
 10
111.7477725388
 20
138.6568602146
 30
0.0
 40
1.399999999999984
100
AcDbArc
 50
270.0
 51
301.7485287426
  0
LINE
  5
6F
330
1F
100
AcDbEntity
  8
0
  6
SLD-Durchgehend
 62
     7
370
    15
100
AcDbLine
 10
111.7477721782
 20
137.2568603386
 30
0.0
 11
108.3220380606
 21
137.2568603386
 31
0.0
  0
LINE
  5
70
330
1F
100
AcDbEntity
  8
0
  6
SLD-Durchgehend
 62
     7
370
    15
100
AcDbLine
 10
253.4477736117
 20
95.8868596484
 30
0.0
 11
263.5152290822
 21
95.8868596484
 31
0.0
  0
LINE
  5
71
330
1F
100
AcDbEntity
  8
0
  6
SLD-Durchgehend
 62
     7
370
    15
100
AcDbLine
 10
253.8100804449
 20
137.2491657515
 30
0.0
 11
252.9477725984
 21
136.3868597676
 31
0.0
  0
LINE
  5
72
330
1F
100
AcDbEntity
  8
0
  6
SLD-Durchgehend
 62
     7
370
    15
100
AcDbLine
 10
252.9477725984
 20
96.3868606616
 30
0.0
 11
253.4477736117
 21
95.8868596484
 31
0.0
  0
CIRCLE
  5
73
330
1F
100
AcDbEntity
  8
0
  6
SLD-Durchgehend
 62
     7
370
    15
100
AcDbCircle
 10
271.7742868684
 20
136.2182294799
 30
0.0
 40
2.622775174355358
  0
CIRCLE
  5
74
330
1F
100
AcDbEntity
  8
0
  6
SLD-Durchgehend
 62
     7
370
    15
100
AcDbCircle
 10
271.774842155
 20
136.236063323
 30
0.0
 40
1.798457064020176
  0
ARC
  5
75
330
1F
100
AcDbEntity
  8
0
  6
SLD-Durchgehend
 62
     7
370
    15
100
AcDbCircle
 10
271.7801622491
 20
136.2345651919
 30
0.0
 40
1.67150009129232
100
AcDbArc
 50
293.3149649614
 51
351.9502641873
  0
ARC
  5
76
330
1F
100
AcDbEntity
  8
0
  6
SLD-Durchgehend
 62
     7
370
    15
100
AcDbCircle
 10
271.7824010865
 20
136.2327898993
 30
0.0
 40
1.669035339344376
100
AcDbArc
 50
351.9998447665
 51
52.2044942038
  0
ARC
  5
77
330
1F
100
AcDbEntity
  8
0
  6
SLD-Durchgehend
 62
     7
370
    15
100
AcDbCircle
 10
271.7764547606
 20
136.2257472614
 30
0.0
 40
1.678244673693753
100
AcDbArc
 50
52.1914266907
 51
110.6634765118
  0
LINE
  5
78
330
1F
100
AcDbEntity
  8
0
  6
SLD-Durchgehend
 62
     7
370
    15
100
AcDbLine
 10
271.1055453183
 20
137.7640604754
 30
0.0
 11
271.1842383505
 21
137.7960290541
 31
0.0
  0
ARC
  5
79
330
1F
100
AcDbEntity
  8
0
  6
SLD-Durchgehend
 62
     7
370
    15
100
AcDbCircle
 10
271.7729704048
 20
136.231367575
 30
0.0
 40
1.671706844214286
100
AcDbArc
 50
113.53115602
 51
170.0033969863
  0
LINE
  5
7A
330
1F
100
AcDbEntity
  8
0
  6
SLD-Durchgehend
 62
     7
370
    15
100
AcDbLine
 10
270.110192454
 20
136.4031746764
 30
0.0
 11
270.126643336
 21
136.5215588142
 31
0.0
  0
ARC
  5
7B
330
1F
100
AcDbEntity
  8
0
  6
SLD-Durchgehend
 62
     7
370
    15
100
AcDbCircle
 10
271.770499765
 20
136.2333279186
 30
0.0
 40
1.668972225074689
100
AcDbArc
 50
174.1590527868
 51
230.0451903276
  0
LINE
  5
7C
330
1F
100
AcDbEntity
  8
0
  6
SLD-Durchgehend
 62
     7
370
    15
100
AcDbLine
 10
270.7931275727
 20
134.8803933491
 30
0.0
 11
270.6987138153
 21
134.953975283
 31
0.0
  0
ARC
  5
7D
330
1F
100
AcDbEntity
  8
0
  6
SLD-Durchgehend
 62
     7
370
    15
100
AcDbCircle
 10
271.7765235903
 20
136.2404301672
 30
0.0
 40
1.678322935038995
100
AcDbArc
 50
234.1305975353
 51
290.4497345872
  0
LINE
  5
7E
330
1F
100
AcDbEntity
  8
0
  6
SLD-Durchgehend
 62
     7
370
    15
100
AcDbLine
 10
272.4417175414
 20
134.6995547195
 30
0.0
 11
272.3629052998
 21
134.6678767134
 31
0.0
  0
ARC
  5
7F
330
1F
100
AcDbEntity
  8
0
  6
SLD-Durchgehend
 62
     7
370
    15
100
AcDbCircle
 10
270.9506681847
 20
135.178745862
 30
0.0
 40
0.3373918588296804
100
AcDbArc
 50
242.1643714727
 51
308.0894272218
  0
ARC
  5
80
330
1F
100
AcDbEntity
  8
0
  6
SLD-Durchgehend
 62
     7
370
    15
100
AcDbCircle
 10
271.5249920355
 20
134.4467621177
 30
0.0
 40
0.5930103184810509
100
AcDbArc
 50
36.0084111723
 51
128.1345489222
  0
ARC
  5
81
330
1F
100
AcDbEntity
  8
0
  6
SLD-Durchgehend
 62
     7
370
    15
100
AcDbCircle
 10
272.2768439039
 20
134.9930009517
 30
0.0
 40
0.3363217718084726
100
AcDbArc
 50
215.9833054109
 51
284.8263313528
  0
ARC
  5
82
330
1F
100
AcDbEntity
  8
0
  6
SLD-Durchgehend
 62
     7
370
    15
100
AcDbCircle
 10
273.192201476
 20
135.125110498
 30
0.0
 40
0.5892683158360595
100
AcDbArc
 50
95.6308585185
 51
188.3380427213
  0
ARC
  5
83
330
1F
100
AcDbEntity
  8
0
  6
SLD-Durchgehend
 62
     7
370
    15
100
AcDbCircle
 10
273.0996983982
 20
136.0486943419
 30
0.0
 40
0.3389382988873112
100
AcDbArc
 50
275.8735559084
 51
351.8253896239
  0
ARC
  5
84
330
1F
100
AcDbEntity
  8
0
  6
SLD-Durchgehend
 62
     7
370
    15
100
AcDbCircle
 10
272.2819717295
 20
134.9894740055
 30
0.0
 40
0.3310164902509781
100
AcDbArc
 50
298.8548075019
 51
8.7201361063
  0
LINE
  5
85
330
1F
100
AcDbEntity
  8
0
  6
SLD-Durchgehend
 62
     7
370
    15
100
AcDbLine
 10
270.6194247366
 20
135.1393401404
 30
0.0
 11
270.6445033909
 21
135.2182827671
 31
0.0
  0
ARC
  5
86
330
1F
100
AcDbEntity
  8
0
  6
SLD-Durchgehend
 62
     7
370
    15
100
AcDbCircle
 10
270.9438407593
 20
135.1746992974
 30
0.0
 40
0.329858013634888
100
AcDbArc
 50
155.1584944353
 51
222.0013841035
  0
ARC
  5
87
330
1F
100
AcDbEntity
  8
0
  6
SLD-Durchgehend
 62
     7
370
    15
100
AcDbCircle
 10
270.4491511028
 20
136.4182547938
 30
0.0
 40
0.3392939367756251
100
AcDbArc
 50
182.5473835759
 51
248.3213048791
  0
ARC
  5
88
330
1F
100
AcDbEntity
  8
0
  6
SLD-Durchgehend
 62
     7
370
    15
100
AcDbCircle
 10
270.1113185116
 20
135.5567079415
 30
0.0
 40
0.5861273919482192
100
AcDbArc
 50
335.4603466485
 51
68.7434836886
  0
ARC
  5
89
330
1F
100
AcDbEntity
  8
0
  6
SLD-Durchgehend
 62
     7
370
    15
100
AcDbCircle
 10
270.1154278673
 20
135.4624986117
 30
0.0
 40
0.5827197340608787
100
AcDbArc
 50
335.2224363847
 51
0.0184273728
  0
ARC
  5
8A
330
1F
100
AcDbEntity
  8
0
  6
SLD-Durchgehend
 62
     7
370
    15
100
AcDbCircle
 10
270.4445277877
 20
136.3190154543
 30
0.0
 40
0.3346935825463272
100
AcDbArc
 50
95.2388701495
 51
172.4827141323
  0
ARC
  5
8B
330
1F
100
AcDbEntity
  8
0
  6
SLD-Durchgehend
 62
     7
370
    15
100
AcDbCircle
 10
270.4403500631
 20
136.4179936091
 30
0.0
 40
0.3303598982392501
100
AcDbArc
 50
94.5805178005
 51
161.7301951699
  0
ARC
  5
8C
330
1F
100
AcDbEntity
  8
0
  6
SLD-Durchgehend
 62
     7
370
    15
100
AcDbCircle
 10
273.1040966391
 20
135.9489744436
 30
0.0
 40
0.3344062606171582
100
AcDbArc
 50
9.3810749783
 51
68.8902078844
  0
ARC
  5
8D
330
1F
100
AcDbEntity
  8
0
  6
SLD-Durchgehend
 62
     7
370
    15
100
AcDbCircle
 10
273.108744414
 20
136.0471129376
 30
0.0
 40
0.3297594542430056
100
AcDbArc
 50
351.873879896
 51
69.4431280858
  0
ARC
  5
8E
330
1F
100
AcDbEntity
  8
0
  6
SLD-Durchgehend
 62
     7
370
    15
100
AcDbCircle
 10
271.271964013
 20
137.4712238672
 30
0.0
 40
0.3368211113927914
100
AcDbArc
 50
119.6095175842
 51
188.8895282545
  0
ARC
  5
8F
330
1F
100
AcDbEntity
  8
0
  6
SLD-Durchgehend
 62
     7
370
    15
100
AcDbCircle
 10
270.3653770104
 20
137.3265096725
 30
0.0
 40
0.581245880642196
100
AcDbArc
 50
274.7953619977
 51
9.1735392421
  0
ARC
  5
90
330
1F
100
AcDbEntity
  8
0
  6
SLD-Durchgehend
 62
     7
370
    15
100
AcDbCircle
 10
273.4322004571
 20
136.9001637151
 30
0.0
 40
0.5825593977565995
100
AcDbArc
 50
155.0874329746
 51
249.1163973624
  0
ARC
  5
91
330
1F
100
AcDbEntity
  8
0
  6
SLD-Durchgehend
 62
     7
370
    15
100
AcDbCircle
 10
272.5977495625
 20
137.2862710414
 30
0.0
 40
0.3368916185962007
100
AcDbArc
 50
335.3117651176
 51
51.9783242569
  0
ARC
  5
92
330
1F
100
AcDbEntity
  8
0
  6
SLD-Durchgehend
 62
     7
370
    15
100
AcDbCircle
 10
273.4350572862
 20
136.8065903692
 30
0.0
 40
0.5848543306956692
100
AcDbArc
 50
180.0363401978
 51
248.9024728289
  0
ARC
  5
93
330
1F
100
AcDbEntity
  8
0
  6
SLD-Durchgehend
 62
     7
370
    15
100
AcDbCircle
 10
270.3607974778
 20
137.2351965741
 30
0.0
 40
0.5853056848840004
100
AcDbArc
 50
275.2120199988
 51
359.9450524321
  0
ARC
  5
94
330
1F
100
AcDbEntity
  8
0
  6
SLD-Durchgehend
 62
     7
370
    15
100
AcDbCircle
 10
272.6011883318
 20
137.2880297335
 30
0.0
 40
0.3333919809661643
100
AcDbArc
 50
52.2577139456
 51
129.4057143135
  0
ARC
  5
95
330
1F
100
AcDbEntity
  8
0
  6
SLD-Durchgehend
 62
     7
370
    15
100
AcDbCircle
 10
272.0210110825
 20
137.9952103448
 30
0.0
 40
0.5813267140623793
100
AcDbArc
 50
214.7998700582
 51
309.3428425086
  0
ARC
  5
96
330
1F
100
AcDbEntity
  8
0
  6
SLD-Durchgehend
 62
     7
370
    15
100
AcDbCircle
 10
271.2689822357
 20
137.4723098234
 30
0.0
 40
0.3346276533744522
100
AcDbArc
 50
34.8321216653
 51
104.6698136104
  0
ARC
  5
97
330
1F
100
AcDbEntity
  8
0
  6
SLD-Durchgehend
 62
     7
370
    15
100
AcDbCircle
 10
271.2702888135
 20
137.3743451568
 30
0.0
 40
0.3352881154356819
100
AcDbArc
 50
35.3814457208
 51
162.4606674814
  0
ARC
  5
98
330
1F
100
AcDbEntity
  8
0
  6
SLD-Durchgehend
 62
     7
370
    15
100
AcDbCircle
 10
272.5995178098
 20
137.1895718609
 30
0.0
 40
0.3350675173643997
100
AcDbArc
 50
7.0248362423
 51
128.8032145609
  0
ARC
  5
99
330
1F
100
AcDbEntity
  8
0
  6
SLD-Durchgehend
 62
     7
370
    15
100
AcDbCircle
 10
271.7796043965
 20
136.1660391056
 30
0.0
 40
2.621885501824014
100
AcDbArc
 50
261.9218657934
 51
359.9399690617
  0
ARC
  5
9A
330
1F
100
AcDbEntity
  8
0
  6
SLD-Durchgehend
 62
     7
370
    15
100
AcDbCircle
 10
271.771809515
 20
136.1655469602
 30
0.0
 40
2.620314038981018
100
AcDbArc
 50
180.0493056865
 51
262.0891054371
  0
ARC
  5
9B
330
1F
100
AcDbEntity
  8
0
  6
SLD-Durchgehend
 62
     7
370
    15
100
AcDbCircle
 10
272.0221713403
 20
137.9086487951
 30
0.0
 40
0.5871042926608926
100
AcDbArc
 50
215.4080934541
 51
308.7368468669
  0
LINE
  5
9C
330
1F
100
AcDbEntity
  8
0
  6
SLD-Durchgehend
 62
     7
370
    15
100
AcDbLine
 10
265.3008575798
 20
129.2976714452
 30
0.0
 11
275.4591430785
 21
132.4927653898
 31
0.0
  0
LINE
  5
9D
330
1F
100
AcDbEntity
  8
0
  6
SLD-Durchgehend
 62
     7
370
    15
100
AcDbLine
 10
266.6060800911
 20
131.0225944747
 30
0.0
 11
265.1865954758
 21
129.6438971315
 31
0.0
  0
LINE
  5
9E
330
1F
100
AcDbEntity
  8
0
  6
SLD-Durchgehend
 62
     7
370
    15
100
AcDbLine
 10
275.1691217781
 20
133.005443566
 30
0.0
 11
275.3448809744
 21
132.8389901449
 31
0.0
  0
ARC
  5
9F
330
1F
100
AcDbEntity
  8
0
  6
SLD-Durchgehend
 62
     7
370
    15
100
AcDbCircle
 10
275.3481435241
 20
132.8522394563
 30
0.0
 40
0.3961713442298067
100
AcDbArc
 50
287.4035534604
 51
342.4567254341
  0
LINE
  5
A0
330
1F
100
AcDbEntity
  8
0
  6
SLD-Durchgehend
 62
     7
370
    15
100
AcDbLine
 10
265.2985926033
 20
129.2760368217
 30
0.0
 11
275.4666383625
 21
132.4742041309
 31
0.0
  0
ARC
  5
A1
330
1F
100
AcDbEntity
  8
0
  6
SLD-Durchgehend
 62
     7
370
    15
100
AcDbCircle
 10
265.1769443731
 20
129.6501947842
 30
0.0
 40
0.3934367456047098
100
AcDbArc
 50
162.1303127007
 51
288.0106561247
  0
LINE
  5
A2
330
1F
100
AcDbEntity
  8
0
  6
SLD-Durchgehend
 62
     7
370
    15
100
AcDbLine
 10
268.0084730746
 20
139.914212354
 30
0.0
 11
264.8024882437
 21
129.7709220801
 31
0.0
  0
ARC
  5
A3
330
1F
100
AcDbEntity
  8
0
  6
SLD-Durchgehend
 62
     7
370
    15
100
AcDbCircle
 10
268.3862183155
 20
139.7947959943
 30
0.0
 40
0.3961713442298557
100
AcDbArc
 50
107.4035534604
 51
162.4567254341
  0
LINE
  5
A4
330
1F
100
AcDbEntity
  8
0
  6
SLD-Durchgehend
 62
     7
370
    15
100
AcDbLine
 10
278.4357841374
 20
143.3709986289
 30
0.0
 11
268.267723477
 21
140.1728313197
 31
0.0
  0
ARC
  5
A5
330
1F
100
AcDbEntity
  8
0
  6
SLD-Durchgehend
 62
     7
370
    15
100
AcDbCircle
 10
278.557429147
 20
142.9968489399
 30
0.0
 40
0.3934278817013843
100
AcDbArc
 50
342.1287730497
 51
108.0105826237
  0
LINE
  5
A6
330
1F
100
AcDbEntity
  8
0
  6
SLD-Durchgehend
 62
     7
370
    15
100
AcDbLine
 10
275.725888765
 20
132.7328230967
 30
0.0
 11
278.9318735959
 21
142.8761143018
 31
0.0
  0
ARC
  5
A7
330
1F
100
AcDbEntity
  8
0
  6
SLD-Durchgehend
 62
     7
370
    15
100
AcDbCircle
 10
265.1862863094
 20
129.6594967983
 30
0.0
 40
0.3795315035630475
100
AcDbArc
 50
162.568580848
 51
287.5702861535
  0
ARC
  5
A8
330
1F
100
AcDbEntity
  8
0
  6
SLD-Durchgehend
 62
     7
370
    15
100
AcDbCircle
 10
275.3454460852
 20
132.8548927894
 30
0.0
 40
0.3795566621489361
100
AcDbArc
 50
287.4307028928
 51
342.4280600249
  0
LINE
  5
A9
330
1F
100
AcDbEntity
  8
0
  6
SLD-Durchgehend
 62
     7
370
    15
100
AcDbLine
 10
275.7072921158
 20
132.7403034796
 30
0.0
 11
278.9101924063
 21
142.8738456
 31
0.0
  0
ARC
  5
AA
330
1F
100
AcDbEntity
  8
0
  6
SLD-Durchgehend
 62
     7
370
    15
100
AcDbCircle
 10
278.5480741434
 20
142.9875261375
 30
0.0
 40
0.3795430159131232
100
AcDbArc
 50
342.5712540292
 51
107.5695162635
  0
LINE
  5
AB
330
1F
100
AcDbEntity
  8
0
  6
SLD-Durchgehend
 62
     7
370
    15
100
AcDbLine
 10
278.4335042597
 20
143.3493640055
 30
0.0
 11
268.2752187611
 21
140.1542719234
 31
0.0
  0
ARC
  5
AC
330
1F
100
AcDbEntity
  8
0
  6
SLD-Durchgehend
 62
     7
370
    15
100
AcDbCircle
 10
268.3889239274
 20
139.7921371929
 30
0.0
 40
0.3795661047558019
100
AcDbArc
 50
107.4315484826
 51
162.4276455646
  0
LINE
  5
AD
330
1F
100
AcDbEntity
  8
0
  6
SLD-Durchgehend
 62
     7
370
    15
100
AcDbLine
 10
268.0270697237
 20
139.906731971
 30
0.0
 11
264.8241843344
 21
129.7731907819
 31
0.0
  0
LINE
  5
AE
330
1F
100
AcDbEntity
  8
0
  6
SLD-Durchgehend
 62
     7
370
    15
100
AcDbLine
 10
268.5652549626
 20
139.5932264407
 30
0.0
 11
268.3894808651
 21
139.7774383207
 31
0.0
  0
ARC
  5
AF
330
1F
100
AcDbEntity
  8
0
  6
SLD-Durchgehend
 62
     7
370
    15
100
AcDbCircle
 10
254.6532348753
 20
143.3005905985
 30
0.0
 40
17.13533476680327
100
AcDbArc
 50
314.2312005848
 51
316.5460585683
  0
LINE
  5
B0
330
1F
100
AcDbEntity
  8
0
  6
SLD-Durchgehend
 62
     7
370
    15
100
AcDbLine
 10
268.8869263293
 20
132.0991623928
 30
0.0
 11
273.8758499981
 21
133.6683273096
 31
0.0
  0
LINE
  5
B1
330
1F
100
AcDbEntity
  8
0
  6
SLD-Durchgehend
 62
     7
370
    15
100
AcDbLine
 10
274.8474355103
 20
140.5478749205
 30
0.0
 11
269.8585267426
 21
138.978708141
 31
0.0
  0
ARC
  5
B2
330
1F
100
AcDbEntity
  8
0
  6
SLD-Durchgehend
 62
     7
370
    15
100
AcDbCircle
 10
275.1489277013
 20
139.5956753528
 30
0.0
 40
0.9987900469907575
100
AcDbArc
 50
342.5705817857
 51
107.5691985401
  0
LINE
  5
B3
330
1F
100
AcDbEntity
  8
0
  6
SLD-Durchgehend
 62
     7
370
    15
100
AcDbLine
 10
274.528848684
 20
134.319748335
 30
0.0
 11
276.1018599631
 21
139.2965070684
 31
0.0
  0
ARC
  5
B4
330
1F
100
AcDbEntity
  8
0
  6
SLD-Durchgehend
 62
     7
370
    15
100
AcDbCircle
 10
273.5766889644
 20
134.6212134704
 30
0.0
 40
0.9987438908136234
100
AcDbArc
 50
287.4298135338
 51
342.4315911354
  0
ARC
  5
B5
330
1F
100
AcDbEntity
  8
0
  6
SLD-Durchgehend
 62
     7
370
    15
100
AcDbCircle
 10
268.585428146
 20
133.0513441609
 30
0.0
 40
0.9987748866325851
100
AcDbArc
 50
162.5693505145
 51
287.5698344832
  0
LINE
  5
B6
330
1F
100
AcDbEntity
  8
0
  6
SLD-Durchgehend
 62
     7
370
    15
100
AcDbLine
 10
269.2055131556
 20
138.3272871156
 30
0.0
 11
267.6325167777
 21
133.3505283822
 31
0.0
  0
ARC
  5
B7
330
1F
100
AcDbEntity
  8
0
  6
SLD-Durchgehend
 62
     7
370
    15
100
AcDbCircle
 10
270.1576451498
 20
138.0258429303
 30
0.0
 40
0.998711135022994
100
AcDbArc
 50
107.4278403593
 51
162.4322568625
  0
CIRCLE
  5
B8
330
1F
100
AcDbEntity
  8
0
  6
SLD-Durchgehend
 62
     7
370
    15
100
AcDbCircle
 10
271.8621640808
 20
136.3196114181
 30
0.0
 40
3.045716742978927
  0
ARC
  5
B9
330
1F
100
AcDbEntity
  8
0
  6
SLD-Durchgehend
 62
     7
370
    15
100
AcDbCircle
 10
284.6835192316
 20
143.0024239079
 30
0.0
 40
13.80084688919855
100
AcDbArc
 50
223.5236052792
 51
226.4168310882
  0
LWPOLYLINE
  5
BA
330
1F
100
AcDbEntity
  8
0
  6
SLD-Durchgehend
 62
     7
370
    15
100
AcDbPolyline
 90
        3
 70
   128
 43
0.0
 10
268.9583475949
 20
137.1687833001
 10
268.8200797202
 20
136.3865785082
 10
268.8171888949
 20
136.2538631786
  0
ARC
  5
BB
330
1F
100
AcDbEntity
  8
0
  6
SLD-Durchgehend
 62
     7
370
    15
100
AcDbCircle
 10
271.8664667262
 20
136.2469425532
 30
0.0
 40
3.050728969392219
100
AcDbArc
 50
0.1299764649
 51
162.4119760316
  0
LINE
  5
BC
330
1F
100
AcDbEntity
  8
0
  6
SLD-Durchgehend
 62
     7
370
    15
100
AcDbLine
 10
277.1282817484
 20
141.51916986
 30
0.0
 11
278.5477663638
 21
142.9725304027
 31
0.0
  0
ARC
  5
BD
330
1F
100
AcDbEntity
  8
0
  6
SLD-Durchgehend
 62
     7
370
    15
100
AcDbCircle
 10
278.0943576145
 20
148.6865365615
 30
0.0
 40
13.17163946916903
100
AcDbArc
 50
223.6594370646
 51
226.6802905214
  0
ARC
  5
BE
330
1F
100
AcDbEntity
  8
0
  6
SLD-Durchgehend
 62
     7
370
    15
100
AcDbCircle
 10
265.4991985806
 20
152.8812585731
 30
0.0
 40
16.25830972916058
100
AcDbArc
 50
313.2645196182
 51
315.6653409347
  0
LINE
  5
BF
330
1F
100
AcDbEntity
  8
0
  6
SLD-Durchgehend
 62
     7
370
    15
100
AcDbLine
 10
164.2977732481
 20
86.1999425818
 30
0.0
 11
160.33970446
 21
86.1999425818
 31
0.0
  0
LINE
  5
C0
330
1F
100
AcDbEntity
  8
0
  6
SLD-Durchgehend
 62
     7
370
    15
100
AcDbLine
 10
160.33970446
 20
86.1999425818
 30
0.0
 11
160.33970446
 21
136.2368609537
 31
0.0
  0
LINE
  5
C1
330
1F
100
AcDbEntity
  8
0
  6
SLD-Durchgehend
 62
     7
370
    15
100
AcDbLine
 10
160.33970446
 20
136.2368609537
 30
0.0
 11
164.2977732481
 21
136.2368609537
 31
0.0
  0
LINE
  5
C2
330
1F
100
AcDbEntity
  8
0
  6
SLD-Durchgehend
 62
     7
370
    15
100
AcDbLine
 10
160.33970446
 20
86.1999425818
 30
0.0
 11
158.8577728034
 21
88.8890228946
 31
0.0
  0
LINE
  5
C3
330
1F
100
AcDbEntity
  8
0
  6
SLD-Durchgehend
 62
     7
370
    15
100
AcDbLine
 10
158.8577728034
 20
88.8890228946
 30
0.0
 11
158.8577728034
 21
136.2368609537
 31
0.0
  0
LINE
  5
C4
330
1F
100
AcDbEntity
  8
0
  6
SLD-Durchgehend
 62
     7
370
    15
100
AcDbLine
 10
158.8577728034
 20
136.2368609537
 30
0.0
 11
160.33970446
 21
136.2368609537
 31
0.0
  0
LINE
  5
C5
330
1F
100
AcDbEntity
  8
0
  6
SLD-Durchgehend
 62
     7
370
    15
100
AcDbLine
 10
143.897772512
 20
136.2368609537
 30
0.0
 11
153.5558399992
 21
136.2368609537
 31
0.0
  0
LINE
  5
C6
330
1F
100
AcDbEntity
  8
0
  6
SLD-Durchgehend
 62
     7
370
    15
100
AcDbLine
 10
153.5558399992
 20
86.1999425818
 30
0.0
 11
153.5558399992
 21
136.2368609537
 31
0.0
  0
LINE
  5
C7
330
1F
100
AcDbEntity
  8
0
  6
SLD-Durchgehend
 62
     7
370
    15
100
AcDbLine
 10
153.5558399992
 20
86.1999425818
 30
0.0
 11
151.897772892
 21
86.1999425818
 31
0.0
  0
ARC
  5
C8
330
1F
100
AcDbEntity
  8
0
  6
SLD-Durchgehend
 62
     7
370
    15
100
AcDbCircle
 10
151.2380301161
 20
64.9516300247
 30
0.0
 40
21.25855232734716
100
AcDbArc
 50
88.2215841219
 51
110.1991894934
  0
LINE
  5
C9
330
1F
100
AcDbEntity
  8
0
  6
SLD-Durchgehend
 62
     7
370
    15
100
AcDbLine
 10
143.897772512
 20
84.9027368952
 30
0.0
 11
143.897772512
 21
84.886859708
 31
0.0
  0
LWPOLYLINE
  5
CA
330
1F
100
AcDbEntity
  8
0
  6
SLD-Durchgehend
 62
     7
370
    15
100
AcDbPolyline
 90
       11
 70
   128
 43
0.0
 10
151.897772892
 20
146.854055651
 10
150.5981643931
 20
146.8817606349
 10
149.2985568257
 20
146.9647265752
 10
148.1091349633
 20
147.0887135495
 10
146.993257782
 20
147.2462877412
 10
146.0208396675
 20
147.4156915922
 10
145.1876202845
 20
147.5842349012
 10
144.5543232621
 20
147.7265503038
 10
144.1169099198
 20
147.8319201399
 10
143.917102112
 20
147.8819582392
 10
143.9257610837
 20
147.8797640432
  0
LINE
  5
CB
330
1F
100
AcDbEntity
  8
0
  6
SLD-Durchgehend
 62
     7
370
    15
100
AcDbLine
 10
153.5558399992
 20
146.854055651
 30
0.0
 11
151.897772892
 21
146.854055651
 31
0.0
  0
LINE
  5
CC
330
1F
100
AcDbEntity
  8
0
  6
SLD-Durchgehend
 62
     7
370
    15
100
AcDbLine
 10
153.5558399992
 20
140.8455498297
 30
0.0
 11
153.5558399992
 21
146.854055651
 31
0.0
  0
LINE
  5
CD
330
1F
100
AcDbEntity
  8
0
  6
SLD-Durchgehend
 62
     7
370
    15
100
AcDbLine
 10
151.1433932246
 20
140.8455498297
 30
0.0
 11
153.5558399992
 21
140.8455498297
 31
0.0
  0
ARC
  5
CE
330
1F
100
AcDbEntity
  8
0
  6
SLD-Durchgehend
 62
     7
370
    15
100
AcDbCircle
 10
150.7735798415
 20
133.4269564412
 30
0.0
 40
7.427805180680897
100
AcDbArc
 50
87.1461947163
 51
157.7718644507
  0
LINE
  5
CF
330
1F
100
AcDbEntity
  8
0
  6
SLD-Durchgehend
 62
     7
370
    15
100
AcDbLine
 10
164.8977722289
 20
86.8265829761
 30
0.0
 11
164.8977722289
 21
136.2368609537
 31
0.0
  0
ARC
  5
D0
330
1F
100
AcDbEntity
  8
0
  6
SLD-Durchgehend
 62
     7
370
    15
100
AcDbCircle
 10
164.2853543121
 20
86.812398837
 30
0.0
 40
0.6125821533107654
100
AcDbArc
 50
271.1616423437
 51
1.3267835803
  0
LINE
  5
D1
330
1F
100
AcDbEntity
  8
0
  6
SLD-Durchgehend
 62
     7
370
    15
100
AcDbLine
 10
164.2977732481
 20
136.2368609537
 30
0.0
 11
164.8977722289
 21
136.2368609537
 31
0.0
  0
LINE
  5
D2
330
1F
100
AcDbEntity
  8
0
  6
SLD-Durchgehend
 62
     7
370
    15
100
AcDbLine
 10
155.0377725871
 20
88.8890228946
 30
0.0
 11
155.0377725871
 21
136.2368609537
 31
0.0
  0
LINE
  5
D3
330
1F
100
AcDbEntity
  8
0
  6
SLD-Durchgehend
 62
     7
370
    15
100
AcDbLine
 10
155.0377725871
 20
88.8890228946
 30
0.0
 11
153.5558399992
 21
86.1999425818
 31
0.0
  0
LINE
  5
D4
330
1F
100
AcDbEntity
  8
0
  6
SLD-Durchgehend
 62
     7
370
    15
100
AcDbLine
 10
153.5558399992
 20
136.2368609537
 30
0.0
 11
155.0377725871
 21
136.2368609537
 31
0.0
  0
LINE
  5
D5
330
1F
100
AcDbEntity
  8
0
  6
SLD-Durchgehend
 62
     7
370
    15
100
AcDbLine
 10
138.9477725388
 20
85.186861061
 30
0.0
 11
138.9477725388
 21
147.5868593682
 31
0.0
  0
LINE
  5
D6
330
1F
100
AcDbEntity
  8
0
  6
SLD-Durchgehend
 62
     7
370
    15
100
AcDbLine
 10
158.7600975545
 20
89.9868603577
 30
0.0
 11
158.0577722998
 21
89.9868603577
 31
0.0
  0
LINE
  5
D7
330
1F
100
AcDbEntity
  8
0
  6
SLD-Durchgehend
 62
     7
370
    15
100
AcDbLine
 10
158.4634750397
 20
142.7868600716
 30
0.0
 11
158.0577722998
 21
142.7868600716
 31
0.0
  0
ARC
  5
D8
330
1F
100
AcDbEntity
  8
0
  6
SLD-Durchgehend
 62
     7
370
    15
100
AcDbCircle
 10
158.0193292827
 20
143.4980518069
 30
0.0
 40
0.8384862181329132
100
AcDbArc
 50
301.9851556421
 51
0.5782186088
  0
LWPOLYLINE
  5
D9
330
1F
100
AcDbEntity
  8
0
  6
SLD-Durchgehend
 62
     7
370
    15
100
AcDbPolyline
 90
        3
 70
   128
 43
0.0
 10
158.8316249908
 20
136.2368609537
 10
158.8517210694
 20
136.384574302
 10
158.8577728034
 20
136.5227266927
  0
ARC
  5
DA
330
1F
100
AcDbEntity
  8
0
  6
SLD-Durchgehend
 62
     7
370
    15
100
AcDbCircle
 10
155.8777035937
 20
143.4988667997
 30
0.0
 40
0.8399658136910594
100
AcDbArc
 50
179.4783948307
 51
237.9582309184
  0
LINE
  5
DB
330
1F
100
AcDbEntity
  8
0
  6
SLD-Durchgehend
 62
     7
370
    15
100
AcDbLine
 10
155.8377730907
 20
142.7868600716
 30
0.0
 11
155.4320703508
 21
142.7868600716
 31
0.0
  0
LINE
  5
DC
330
1F
100
AcDbEntity
  8
0
  6
SLD-Durchgehend
 62
     7
370
    15
100
AcDbLine
 10
155.8377730907
 20
89.9868603577
 30
0.0
 11
155.1354478361
 21
89.9868603577
 31
0.0
  0
LINE
  5
DD
330
1F
100
AcDbEntity
  8
0
  6
SLD-Durchgehend
 62
     7
370
    15
100
AcDbLine
 10
155.0377725871
 20
136.5227266927
 30
0.0
 11
155.0639203997
 21
136.2368609537
 31
0.0
  0
LINE
  5
DE
330
1F
100
AcDbEntity
  8
0
  6
SLD-Durchgehend
 62
     7
370
    15
100
AcDbLine
 10
158.0577722998
 20
142.7868600716
 30
0.0
 11
155.8377730907
 21
142.7868600716
 31
0.0
  0
LINE
  5
DF
330
1F
100
AcDbEntity
  8
0
  6
SLD-Durchgehend
 62
     7
370
    15
100
AcDbLine
 10
158.0577722998
 20
89.9868603577
 30
0.0
 11
155.8377730907
 21
89.9868603577
 31
0.0
  0
LINE
  5
E0
330
1F
100
AcDbEntity
  8
0
  6
SLD-Durchgehend
 62
     7
370
    15
100
AcDbLine
 10
136.9477724438
 20
92.1664289911
 30
0.0
 11
136.9477724438
 21
140.6072914381
 31
0.0
  0
LINE
  5
E1
330
1F
100
AcDbEntity
  8
0
  6
SLD-Durchgehend
 62
     7
370
    15
100
AcDbLine
 10
117.1477723183
 20
93.1584141929
 30
0.0
 11
117.1477723183
 21
94.4417115082
 31
0.0
  0
LWPOLYLINE
  5
E2
330
1F
100
AcDbEntity
  8
0
  6
SLD-Durchgehend
 62
     7
370
    15
100
AcDbPolyline
 90
        5
 70
   128
 43
0.0
 10
116.5261685164
 20
95.5224890043
 10
116.5810122402
 20
95.4083479722
 10
116.8715010644
 20
95.0096133877
 10
117.1019307585
 20
94.6428101291
 10
117.1477723183
 20
94.4417115082
  0
LWPOLYLINE
  5
E3
330
1F
100
AcDbEntity
  8
0
  6
SLD-Durchgehend
 62
     7
370
    15
100
AcDbPolyline
 90
        7
 70
   128
 43
0.0
 10
115.7477728338
 20
96.2407715399
 10
115.8275294365
 20
96.2422448923
 10
115.9063286395
 20
96.2303686668
 10
116.0011484535
 20
96.1980294217
 10
116.1297324361
 20
96.1203329046
 10
116.3654688062
 20
95.8522423883
 10
116.5261685164
 20
95.5224890043
  0
LWPOLYLINE
  5
E4
330
1F
100
AcDbEntity
  8
0
  6
SLD-Durchgehend
 62
     7
370
    15
100
AcDbPolyline
 90
        3
 70
   128
 43
0.0
 10
111.8341709734
 20
95.7445777734
 10
112.5426895232
 20
95.853939258
 10
115.7477728338
 20
96.2407715399
  0
ARC
  5
E5
330
1F
100
AcDbEntity
  8
0
  6
SLD-Durchgehend
 62
     7
370
    15
100
AcDbCircle
 10
108.6840768289
 20
125.1320750543
 30
0.0
 40
29.55584696060028
100
AcDbArc
 50
269.0572258187
 51
276.1182671045
  0
LINE
  5
E6
330
1F
100
AcDbEntity
  8
0
  6
SLD-Durchgehend
 62
     7
370
    15
100
AcDbLine
 10
108.1877283068
 20
95.5920438994
 30
0.0
 11
108.1977716894
 21
95.5802291413
 31
0.0
  0
LINE
  5
E7
330
1F
100
AcDbEntity
  8
0
  6
SLD-Durchgehend
 62
     7
370
    15
100
AcDbLine
 10
108.1977716894
 20
137.2567988713
 30
0.0
 11
108.1877283068
 21
137.2468132307
 31
0.0
  0
LINE
  5
E8
330
1F
100
AcDbEntity
  8
0
  6
SLD-Durchgehend
 62
     7
370
    15
100
AcDbLine
 10
111.7477721782
 20
137.2099477579
 30
0.0
 11
108.1977716894
 21
137.2567988713
 31
0.0
  0
ARC
  5
E9
330
1F
100
AcDbEntity
  8
0
  6
SLD-Durchgehend
 62
     7
370
    15
100
AcDbCircle
 10
111.6898477806
 20
138.7597061022
 30
0.0
 40
1.550840469419331
100
AcDbArc
 50
272.1405139456
 51
340.0660547734
  0
LINE
  5
EA
330
1F
100
AcDbEntity
  8
0
  6
SLD-Durchgehend
 62
     7
370
    15
100
AcDbLine
 10
113.1477716626
 20
138.2309678723
 30
0.0
 11
113.1477716626
 21
139.4149061073
 31
0.0
  0
LWPOLYLINE
  5
EB
330
1F
100
AcDbEntity
  8
0
  6
SLD-Durchgehend
 62
     7
370
    15
100
AcDbPolyline
 90
       12
 70
   128
 43
0.0
 10
125.7180736647
 20
92.7295215209
 10
125.7153588594
 20
92.7291787942
 10
126.045956953
 20
92.7708070506
 10
126.9616109566
 20
92.8637772579
 10
128.3340200098
 20
92.9320450653
 10
129.129726185
 20
92.9341740687
 10
129.9470753656
 20
92.9066758384
 10
130.76068808
 20
92.8493901868
 10
131.5545302132
 20
92.7651799996
 10
132.913638583
 20
92.5594098647
 10
133.8144175024
 20
92.3786364277
 10
134.1294089579
 20
92.3081148197
  0
LWPOLYLINE
  5
EC
330
1F
100
AcDbEntity
  8
0
  6
SLD-Durchgehend
 62
     7
370
    15
100
AcDbPolyline
 90
       12
 70
   128
 43
0.0
 10
134.1291900971
 20
140.465540417
 10
133.8116389015
 20
140.3948269565
 10
132.9081647345
 20
140.2132991482
 10
131.5528165796
 20
140.0079425205
 10
130.7621111409
 20
139.9242166211
 10
129.94854313
 20
139.8670986076
 10
129.1308484287
 20
139.8396581192
 10
128.333882174
 20
139.8418057491
 10
126.9593608813
 20
139.9101033588
 10
126.0443187566
 20
140.0030772914
 10
125.7152387188
 20
140.0445360471
 10
125.7173695849
 20
140.0442659636
  0
LWPOLYLINE
  5
ED
330
1F
100
AcDbEntity
  8
0
  6
SLD-Durchgehend
 62
     7
370
    15
100
AcDbPolyline
 90
        3
 70
   128
 43
0.0
 10
107.0477727117
 20
96.7337000896
 10
107.0670957924
 20
96.7406403054
 10
107.0780518712
 20
96.7967729796
  0
LINE
  5
EE
330
1F
100
AcDbEntity
  8
0
  6
SLD-Durchgehend
 62
     7
370
    15
100
AcDbLine
 10
107.0477727117
 20
96.7337000896
 30
0.0
 11
107.0477727117
 21
136.0775377382
 31
0.0
  0
LWPOLYLINE
  5
EF
330
1F
100
AcDbEntity
  8
0
  6
SLD-Durchgehend
 62
     7
370
    15
100
AcDbPolyline
 90
        3
 70
   128
 43
0.0
 10
107.1104358198
 20
136.0614128192
 10
107.0689286353
 20
136.1239380915
 10
107.0477727117
 20
136.0775377382
  0
LWPOLYLINE
  5
F0
330
1F
100
AcDbEntity
  8
0
  6
SLD-Durchgehend
 62
     7
370
    15
100
AcDbPolyline
 90
       12
 70
   128
 43
0.0
 10
107.871926135
 20
136.7769796182
 10
107.8060667278
 20
136.5921754171
 10
107.6916332604
 20
136.3286800463
 10
107.5622986318
 20
136.0955029507
 10
107.4877518476
 20
135.9889168073
 10
107.4490051032
 20
135.9419166823
 10
107.4049535455
 20
135.896177568
 10
107.3660019101
 20
135.8633987386
 10
107.3293823065
 20
135.8402181198
 10
107.2831030251
 20
135.823865958
 10
107.2026628317
 20
135.8459271271
 10
107.1104358198
 20
136.0614128192
  0
LINE
  5
F1
330
1F
100
AcDbEntity
  8
0
  6
SLD-Durchgehend
 62
     7
370
    15
100
AcDbLine
 10
108.1877283068
 20
137.2468132307
 30
0.0
 11
107.871926135
 21
136.7769796182
 31
0.0
  0
LINE
  5
F2
330
1F
100
AcDbEntity
  8
0
  6
SLD-Durchgehend
 62
     7
370
    15
100
AcDbLine
 10
107.98668184
 20
95.9429383059
 30
0.0
 11
108.1877283068
 21
95.5920438994
 31
0.0
  0
LWPOLYLINE
  5
F3
330
1F
100
AcDbEntity
  8
0
  6
SLD-Durchgehend
 62
     7
370
    15
100
AcDbPolyline
 90
       12
 70
   128
 43
0.0
 10
107.0780518712
 20
96.7967729796
 10
107.1627947749
 20
97.1223223735
 10
107.2138387026
 20
97.1683725496
 10
107.2808864774
 20
97.1740294029
 10
107.315375215
 20
97.1617620219
 10
107.3601569296
 20
97.1347424914
 10
107.3975141407
 20
97.1043068696
 10
107.4359740378
 20
97.066595756
 10
107.4859301807
 20
97.0091070761
 10
107.5602459969
 20
96.9077586909
 10
107.7205713154
 20
96.6296788086
 10
107.98668184
 20
95.9429383059
  0
ELLIPSE
  5
F4
330
1F
100
AcDbEntity
  8
0
  6
SLD-Durchgehend
 62
     7
370
    15
100
AcDbEllipse
 10
249.3720499328
 20
116.3868602146
 30
0.0
 11
-0.4025701892337281
 21
19.99971074150082
 31
0.0
210
0.0
220
0.0
230
1.0
 40
0.2671959542
 41
0.1163255530663778
 42
2.874884195922326
  0
ELLIPSE
  5
F5
330
1F
100
AcDbEntity
  8
0
  6
SLD-Durchgehend
 62
     7
370
    15
100
AcDbEllipse
 10
246.8480156976
 20
126.1736073279
 30
0.0
 11
0.1123957365936974
 21
2.430730670485588
 31
0.0
210
0.0
220
0.0
230
1.0
 40
0.2457894175
 41
0.0
 42
6.283185307179586
  0
ARC
  5
F6
330
1F
100
AcDbEntity
  8
0
  6
SLD-Durchgehend
 62
     7
370
    15
100
AcDbCircle
 10
250.4621857975
 20
123.2799862649
 30
0.0
 40
13.1296253011318
100
AcDbArc
 50
86.5610958417
 51
99.2487502038
  0
ARC
  5
F7
330
1F
100
AcDbEntity
  8
0
  6
SLD-Durchgehend
 62
     7
370
    15
100
AcDbCircle
 10
250.6686214709
 20
102.3365118904
 30
0.0
 40
5.757255922438579
100
AcDbArc
 50
246.272538386
 51
275.7932683481
  0
LINE
  5
F8
330
1F
100
AcDbEntity
  8
0
  6
SLD-Durchgehend
 62
     7
370
    15
100
AcDbLine
 10
251.249755478
 20
96.6086607207
 30
0.0
 11
252.9477725984
 21
96.6086607207
 31
0.0
  0
LINE
  5
F9
330
1F
100
AcDbEntity
  8
0
  6
SLD-Durchgehend
 62
     7
370
    15
100
AcDbLine
 10
252.9477725984
 20
96.6086607207
 30
0.0
 11
252.9477725984
 21
96.3868606616
 31
0.0
  0
LINE
  5
FA
330
1F
100
AcDbEntity
  8
0
  6
SLD-Durchgehend
 62
     7
370
    15
100
AcDbLine
 10
252.9477725984
 20
136.3868597676
 30
0.0
 11
252.9477725984
 21
136.3859694232
 31
0.0
  0
LINE
  5
FB
330
1F
100
AcDbEntity
  8
0
  6
SLD-Durchgehend
 62
     7
370
    15
100
AcDbLine
 10
252.9477725984
 20
136.3859694232
 30
0.0
 11
251.249755478
 21
136.3859694232
 31
0.0
  0
LWPOLYLINE
  5
FC
330
1F
100
AcDbEntity
  8
0
  6
SLD-Durchgehend
 62
     7
370
    15
100
AcDbPolyline
 90
        3
 70
   128
 43
0.0
 10
160.33970446
 20
146.854055651
 10
160.3317006738
 20
146.8397225965
 10
158.8577728034
 20
144.1920935888
  0
LINE
  5
FD
330
1F
100
AcDbEntity
  8
0
  6
SLD-Durchgehend
 62
     7
370
    15
100
AcDbLine
 10
160.33970446
 20
140.8455498297
 30
0.0
 11
160.33970446
 21
146.854055651
 31
0.0
  0
LWPOLYLINE
  5
FE
330
1F
100
AcDbEntity
  8
0
  6
SLD-Durchgehend
 62
     7
370
    15
100
AcDbPolyline
 90
        3
 70
   128
 43
0.0
 10
158.8577728034
 20
137.4370042016
 10
159.984220496
 20
140.0473002125
 10
160.33970446
 20
140.8455498297
  0
LINE
  5
FF
330
1F
100
AcDbEntity
  8
0
  6
SLD-Durchgehend
 62
     7
370
    15
100
AcDbLine
 10
158.8577728034
 20
137.4370042016
 30
0.0
 11
158.8577728034
 21
144.1920935888
 31
0.0
  0
LINE
  5
100
330
1F
100
AcDbEntity
  8
0
  6
SLD-Durchgehend
 62
     7
370
    15
100
AcDbLine
 10
160.33970446
 20
140.8455498297
 30
0.0
 11
164.2977732481
 21
140.8455498297
 31
0.0
  0
ARC
  5
101
330
1F
100
AcDbEntity
  8
0
  6
SLD-Durchgehend
 62
     7
370
    15
100
AcDbCircle
 10
164.2147440662
 20
140.1611869376
 30
0.0
 40
0.6893811813573116
100
AcDbArc
 50
352.2154757984
 51
83.0824936921
  0
LINE
  5
102
330
1F
100
AcDbEntity
  8
0
  6
SLD-Durchgehend
 62
     7
370
    15
100
AcDbLine
 10
158.8577728034
 20
136.5227266927
 30
0.0
 11
158.8577728034
 21
137.4370042016
 31
0.0
  0
LINE
  5
103
330
1F
100
AcDbEntity
  8
0
  6
SLD-Durchgehend
 62
     7
370
    15
100
AcDbLine
 10
164.8977722289
 20
140.0678116609
 30
0.0
 11
164.8977722289
 21
136.2368609537
 31
0.0
  0
ARC
  5
104
330
1F
100
AcDbEntity
  8
0
  6
SLD-Durchgehend
 62
     7
370
    15
100
AcDbCircle
 10
164.2896657495
 20
146.2458732646
 30
0.0
 40
0.6082364232875822
100
AcDbArc
 50
358.8156305045
 51
89.2362522385
  0
LINE
  5
105
330
1F
100
AcDbEntity
  8
0
  6
SLD-Durchgehend
 62
     7
370
    15
100
AcDbLine
 10
164.8977722289
 20
140.0678116609
 30
0.0
 11
164.8977722289
 21
146.2333012153
 31
0.0
  0
LWPOLYLINE
  5
106
330
1F
100
AcDbEntity
  8
0
  6
SLD-Durchgehend
 62
     7
370
    15
100
AcDbPolyline
 90
        3
 70
   128
 43
0.0
 10
153.5558399992
 20
140.8455498297
 10
153.9113239632
 20
140.0473002125
 10
155.0377725871
 20
137.4370042016
  0
LINE
  5
107
330
1F
100
AcDbEntity
  8
0
  6
SLD-Durchgehend
 62
     7
370
    15
100
AcDbLine
 10
155.0377725871
 20
137.4370042016
 30
0.0
 11
155.0377725871
 21
136.5227266927
 31
0.0
  0
LWPOLYLINE
  5
108
330
1F
100
AcDbEntity
  8
0
  6
SLD-Durchgehend
 62
     7
370
    15
100
AcDbPolyline
 90
        3
 70
   128
 43
0.0
 10
155.0377725871
 20
144.1920935888
 10
153.5638437854
 20
146.8397225965
 10
153.5558399992
 20
146.854055651
  0
LINE
  5
109
330
1F
100
AcDbEntity
  8
0
  6
SLD-Durchgehend
 62
     7
370
    15
100
AcDbLine
 10
155.0377725871
 20
137.4370042016
 30
0.0
 11
155.0377725871
 21
144.1920935888
 31
0.0
  0
LINE
  5
10A
330
1F
100
AcDbEntity
  8
0
  6
SLD-Durchgehend
 62
     7
370
    15
100
AcDbLine
 10
164.2977732481
 20
146.854055651
 30
0.0
 11
160.33970446
 21
146.854055651
 31
0.0
  0
LINE
  5
10B
330
1F
100
AcDbEntity
  8
0
  6
SLD-Durchgehend
 62
     7
370
    15
100
AcDbLine
 10
108.1977716894
 20
95.5743599464
 30
0.0
 11
108.1977716894
 21
95.5802291413
 31
0.0
  0
LINE
  5
10C
330
1F
100
AcDbEntity
  8
0
  6
SLD-Durchgehend
 62
     7
370
    15
100
AcDbLine
 10
263.9067570926
 20
96.1083449204
 30
0.0
 11
253.4477736117
 21
96.1083449204
 31
0.0
  0
ELLIPSE
  5
10D
330
1F
100
AcDbEntity
  8
0
  6
SLD-Durchgehend
 62
     7
370
    15
100
AcDbEllipse
 10
270.1472150172
 20
116.3868602146
 30
0.0
 11
6.697318860126359
 21
20.48986112711591
 31
0.0
210
0.0
220
0.0
230
1.0
 40
0.0962569477
 41
3.173044837569613
 42
3.320175251522294
  0
LINE
  5
10E
330
1F
100
AcDbEntity
  8
0
  6
SLD-Durchgehend
 62
     7
370
    15
100
AcDbLine
 10
253.4477736117
 20
96.1083449204
 30
0.0
 11
253.4477736117
 21
95.8868596484
 31
0.0
  0
LINE
  5
10F
330
1F
100
AcDbEntity
  8
0
  6
SLD-Durchgehend
 62
     7
370
    15
100
AcDbLine
 10
253.4477736117
 20
96.1083449204
 30
0.0
 11
252.9477725984
 21
96.6086607207
 31
0.0
  0
LINE
  5
110
330
1F
100
AcDbEntity
  8
0
  6
SLD-Durchgehend
 62
     7
370
    15
100
AcDbLine
 10
252.9477725984
 20
136.3859694232
 30
0.0
 11
253.8333784105
 21
137.2720837374
 31
0.0
  0
LINE
  5
111
330
1F
100
AcDbEntity
  8
0
  6
SLD-Durchgehend
 62
     7
370
    15
100
AcDbLine
 10
253.8333784105
 20
137.2720837374
 30
0.0
 11
255.9283922674
 21
137.2720837374
 31
0.0
  0
ELLIPSE
  5
112
330
1F
100
AcDbEntity
  8
0
  6
SLD-Durchgehend
 62
     7
370
    15
100
AcDbEllipse
 10
255.8167414282
 20
163.3859760959
 30
0.0
 11
-10.90434208636216
 21
23.75645148867068
 31
0.0
210
0.0
220
0.0
230
1.0
 40
0.9943564485
 41
2.713416762456069
 42
3.016710267149003
  0
LINE
  5
113
330
1F
100
AcDbEntity
  8
0
  6
SLD-Durchgehend
 62
     7
370
    15
100
AcDbLine
 10
263.693804598
 20
138.4639736046
 30
0.0
 11
267.9757799269
 21
139.8107852568
 31
0.0
  0
LINE
  5
114
330
1F
100
AcDbEntity
  8
0
  6
SLD-Durchgehend
 62
     7
370
    15
100
AcDbLine
 10
265.6935776831
 20
132.5901966323
 30
0.0
 11
263.4935180904
 21
131.8982099895
 31
0.0
  0
ARC
  5
115
330
1F
100
AcDbEntity
  8
0
  6
SLD-Durchgehend
 62
     7
370
    15
100
AcDbCircle
 10
263.9471985699
 20
130.4547426687
 30
0.0
 40
1.513084228888861
100
AcDbArc
 50
107.447886411
 51
287.6322459226
  0
LINE
  5
116
330
1F
100
AcDbEntity
  8
0
  6
SLD-Durchgehend
 62
     7
370
    15
100
AcDbLine
 10
264.4055213095
 20
129.0127426167
 30
0.0
 11
265.1990677477
 21
129.262335204
 31
0.0
  0
LINE
  5
117
330
1F
100
AcDbEntity
  8
0
  6
SLD-Durchgehend
 62
     7
370
    15
100
AcDbLine
 10
275.3936077715
 20
132.4512302656
 30
0.0
 11
263.9067570926
 21
96.1083449204
 31
0.0
  0
LINE
  5
118
330
1F
100
AcDbEntity
  8
0
  6
SLD-Durchgehend
 62
     7
370
    15
100
AcDbLine
 10
253.8110788227
 20
137.248165511
 30
0.0
 11
253.8333784105
 21
137.2720837374
 31
0.0
  0
ARC
  5
119
330
1F
100
AcDbEntity
  8
0
  6
SLD-Durchgehend
 62
     7
370
    15
100
AcDbCircle
 10
263.9476070919
 20
130.303501848
 30
0.0
 40
1.247232112255758
100
AcDbArc
 50
107.4481297742
 51
287.6320634383
  0
LINE
  5
11A
330
1F
100
AcDbEntity
  8
0
  6
SLD-Durchgehend
 62
     7
370
    15
100
AcDbLine
 10
264.3253977658
 20
129.1148630683
 30
0.0
 11
264.9699772955
 21
129.3176036109
 31
0.0
  0
LINE
  5
11B
330
1F
100
AcDbEntity
  8
0
  6
SLD-Durchgehend
 62
     7
370
    15
100
AcDbLine
 10
263.5736341835
 20
131.4933473025
 30
0.0
 11
265.5426438214
 21
132.1126591195
 31
0.0
  0
ARC
  5
11C
330
1F
100
AcDbEntity
  8
0
  6
SLD-Durchgehend
 62
     7
370
    15
100
AcDbCircle
 10
263.9465968028
 20
130.1986795632
 30
0.0
 40
1.247108247956807
100
AcDbArc
 50
107.4012701322
 51
177.5593422934
  0
LINE
  5
11D
330
1F
100
AcDbEntity
  8
0
  6
SLD-Durchgehend
 62
     7
370
    15
100
AcDbLine
 10
265.505912459
 20
131.9964747657
 30
0.0
 11
263.5736341835
 21
131.3887122799
 31
0.0
  0
LWPOLYLINE
  5
11E
330
1F
100
AcDbEntity
  8
0
  6
SLD-Gestrichelt
 62
     7
370
     0
100
AcDbPolyline
 90
       20
 70
   128
 43
0.0
 10
236.3358016373
 20
109.5084381071
 10
236.9805152775
 20
109.4188201953
 10
237.6216824414
 20
109.5281532746
 10
238.1898264648
 20
109.8245904562
 10
238.6233682991
 20
110.2760071647
 10
238.8753320338
 20
110.8334861477
 10
238.9184187414
 20
111.4366153036
 10
238.7479569079
 20
112.0200367425
 10
238.3824165226
 20
112.5205273987
 10
237.8614048721
 20
112.883851469
 10
237.2413899065
 20
113.0706370589
 10
236.5895609619
 20
113.0606430364
 10
235.9765420915
 20
112.8549525295
 10
235.4687775732
 20
112.4758553472
 10
235.1212824942
 20
111.9644321282
 10
234.9717195393
 20
111.3761040163
 10
235.0362862708
 20
110.7746256296
 10
235.307994044
 20
110.2251755786
 10
235.7573981644
 20
109.7872961093
 10
236.3358016373
 20
109.5084381071
  0
LWPOLYLINE
  5
11F
330
1F
100
AcDbEntity
  8
0
  6
SLD-Gestrichelt
 62
     7
370
     0
100
AcDbPolyline
 90
       23
 70
   128
 43
0.0
 10
236.1752267243
 20
108.9378572781
 10
236.8763859631
 20
108.8253535111
 10
237.5833194019
 20
108.900560603
 10
238.2387693287
 20
109.1573853758
 10
238.7896280052
 20
109.5750216176
 10
239.1912664534
 20
110.1196353105
 10
239.4111554386
 20
110.7471041162
 10
239.4314731718
 20
111.4065955174
 10
239.2505805255
 20
112.0446804692
 10
238.8831253411
 20
112.6096652136
 10
238.3588801385
 20
113.0557785057
 10
237.7203132273
 20
113.3468785104
 10
237.0191614391
 20
113.4593822774
 10
236.3122280003
 20
113.3841751856
 10
235.6567780734
 20
113.1273504127
 10
235.105919397
 20
112.7097139382
 10
234.7042734982
 20
112.1651004781
 10
234.484384513
 20
111.5376316723
 10
234.4640667798
 20
110.8781402711
 10
234.6449668766
 20
110.2400553194
 10
235.0124220611
 20
109.6750708078
 10
235.5366672636
 20
109.2289575156
 10
236.1752267243
 20
108.9378572781
  0
LWPOLYLINE
  5
120
330
1F
100
AcDbEntity
  8
0
  6
SLD-Gestrichelt
 62
     7
370
     0
100
AcDbPolyline
 90
       23
 70
   128
 43
0.0
 10
236.1752267243
 20
108.2822955926
 10
236.8763859631
 20
108.1697918256
 10
237.5833194019
 20
108.2449989174
 10
238.2387693287
 20
108.5018241559
 10
238.7896280052
 20
108.9194603977
 10
239.1912664534
 20
109.4640736249
 10
239.4111554386
 20
110.0915428963
 10
239.4314731718
 20
110.7510338318
 10
239.2505805255
 20
111.3891187836
 10
238.8831253411
 20
111.9541037609
 10
238.3588801385
 20
112.400217053
 10
237.7203132273
 20
112.6913170577
 10
237.0191614391
 20
112.8038208247
 10
236.3122280003
 20
112.7286137328
 10
235.6567780734
 20
112.4717887272
 10
235.105919397
 20
112.0541524854
 10
234.7042734982
 20
111.5095392582
 10
234.484384513
 20
110.8820699868
 10
234.4640667798
 20
110.2225790512
 10
234.6449668766
 20
109.5844940995
 10
235.0124220611
 20
109.0195091222
 10
235.5366672636
 20
108.5733962957
 10
236.1752267243
 20
108.2822955926
  0
LWPOLYLINE
  5
121
330
1F
100
AcDbEntity
  8
0
  6
SLD-Gestrichelt
 62
     7
370
     0
100
AcDbPolyline
 90
       21
 70
   128
 43
0.0
 10
236.3297368647
 20
107.4308050577
 10
236.9477699758
 20
107.3400458102
 10
237.5658030869
 20
107.4308050577
 10
238.1233449341
 20
107.6941989143
 10
238.5658051135
 20
108.1044437145
 10
238.849888301
 20
108.6213826914
 10
238.9477740289
 20
109.19441383
 10
238.849888301
 20
109.7674449687
 10
238.5658051135
 20
110.2843834799
 10
238.1233449341
 20
110.6946287458
 10
237.5658030869
 20
110.9580221367
 10
236.9477699758
 20
111.0487813842
 10
236.3297368647
 20
110.9580221367
 10
235.7722024681
 20
110.6946287458
 10
235.3297348381
 20
110.2843834799
 10
235.0456591011
 20
109.7674449687
 10
234.9477733733
 20
109.19441383
 10
235.0456591011
 20
108.6213826914
 10
235.3297348381
 20
108.1044437145
 10
235.7722024681
 20
107.6941989143
 10
236.3297368647
 20
107.4308050577
  0
LWPOLYLINE
  5
122
330
1F
100
AcDbEntity
  8
0
  6
SLD-Gestrichelt
 62
     7
370
     0
100
AcDbPolyline
 90
       21
 70
   128
 43
0.0
 10
236.3297368647
 20
108.983661585
 10
236.9477699758
 20
108.8929023375
 10
237.5658030869
 20
108.983661585
 10
238.1233449341
 20
109.2470549759
 10
238.5658051135
 20
109.6573002417
 10
238.849888301
 20
110.1742392187
 10
238.9477740289
 20
110.7472703573
 10
238.849888301
 20
111.3203014959
 10
238.5658051135
 20
111.8372400072
 10
238.1233449341
 20
112.247485273
 10
237.5658030869
 20
112.5108786639
 10
236.9477699758
 20
112.6016379115
 10
236.3297368647
 20
112.5108786639
 10
235.7722024681
 20
112.247485273
 10
235.3297348381
 20
111.8372400072
 10
235.0456591011
 20
111.3203014959
 10
234.9477733733
 20
110.7472703573
 10
235.0456591011
 20
110.1742392187
 10
235.3297348381
 20
109.6573002417
 10
235.7722024681
 20
109.2470549759
 10
236.3297368647
 20
108.983661585
  0
LWPOLYLINE
  5
123
330
1F
100
AcDbEntity
  8
0
  6
SLD-Gestrichelt
 62
     7
370
     0
100
AcDbPolyline
 90
       23
 70
   128
 43
0.0
 10
236.1752267243
 20
108.0238172565
 10
236.8763859631
 20
107.9113134895
 10
237.5833194019
 20
107.9865205814
 10
238.2387693287
 20
108.2433448885
 10
238.7896280052
 20
108.660981596
 10
239.1912664534
 20
109.2055952889
 10
239.4111554386
 20
109.8330640946
 10
239.4314731718
 20
110.4925554958
 10
239.2505805255
 20
111.1306399819
 10
238.8831253411
 20
111.6956249592
 10
238.3588801385
 20
112.1417382513
 10
237.7203132273
 20
112.4328384888
 10
237.0191614391
 20
112.5453422558
 10
236.3122280003
 20
112.470135164
 10
235.6567780734
 20
112.2133103911
 10
235.105919397
 20
111.7956741494
 10
234.7042734982
 20
111.2510604565
 10
234.484384513
 20
110.6235911851
 10
234.4640667798
 20
109.9641002495
 10
234.6449668766
 20
109.3260152978
 10
235.0124220611
 20
108.7610303205
 10
235.5366672636
 20
108.3149170284
 10
236.1752267243
 20
108.0238172565
  0
LWPOLYLINE
  5
124
330
1F
100
AcDbEntity
  8
0
  6
SLD-Gestrichelt
 62
     7
370
     0
100
AcDbPolyline
 90
       22
 70
   128
 43
0.0
 10
236.2370367409
 20
108.3913255264
 10
236.9133631946
 20
108.2871915553
 10
237.5927518369
 20
108.3725193296
 10
238.2148380639
 20
108.6397288148
 10
238.7243311168
 20
109.0650764075
 10
239.0759687187
 20
109.6107685719
 10
239.238510585
 20
110.2283173953
 10
239.1975100399
 20
110.8628516798
 10
238.9566104175
 20
111.457990088
 10
238.5372172357
 20
111.9608521242
 10
237.9765908481
 20
112.3267557253
 10
237.3245532872
 20
112.5231891186
 10
236.639032817
 20
112.5326983877
 10
235.9809528352
 20
112.3544383575
 10
235.4087705971
 20
112.0042484966
 10
234.9733437659
 20
111.5132449907
 10
234.7133483054
 20
110.9250547145
 10
234.651888466
 20
110.2919416283
 10
234.794432974
 20
109.6701604095
 10
235.1283083917
 20
109.1149594416
 10
235.6238539578
 20
108.6756699499
 10
236.2370367409
 20
108.3913255264
  0
LWPOLYLINE
  5
125
330
1F
100
AcDbEntity
  8
0
  6
SLD-Gestrichelt
 62
     7
370
     0
100
AcDbPolyline
 90
       23
 70
   128
 43
0.0
 10
236.1752267243
 20
107.7653389205
 10
236.8763859631
 20
107.6528351535
 10
237.5833194019
 20
107.7280422453
 10
238.2387693287
 20
107.9848665525
 10
238.7896280052
 20
108.4025032599
 10
239.1912664534
 20
108.9471164872
 10
239.4111554386
 20
109.5745857586
 10
239.4314731718
 20
110.2340766941
 10
239.2505805255
 20
110.8721616459
 10
238.8831253411
 20
111.4371466231
 10
238.3588801385
 20
111.8832599153
 10
237.7203132273
 20
112.1743596871
 10
237.0191614391
 20
112.2868634541
 10
236.3122280003
 20
112.2116568279
 10
235.6567780734
 20
111.9548315895
 10
235.105919397
 20
111.5371953477
 10
234.7042734982
 20
110.9925821204
 10
234.484384513
 20
110.365112849
 10
234.4640667798
 20
109.7056219135
 10
234.6449668766
 20
109.0675369617
 10
235.0124220611
 20
108.5025515188
 10
235.5366672636
 20
108.0564386924
 10
236.1752267243
 20
107.7653389205
  0
LWPOLYLINE
  5
126
330
1F
100
AcDbEntity
  8
0
  6
SLD-Gestrichelt
 62
     7
370
     0
100
AcDbPolyline
 90
       22
 70
   128
 43
0.0
 10
236.2370367409
 20
108.1328471903
 10
236.9133631946
 20
108.028712288
 10
237.5927518369
 20
108.1140409936
 10
238.2148380639
 20
108.3812504788
 10
238.7243311168
 20
108.8065980714
 10
239.0759687187
 20
109.3522897702
 10
239.238510585
 20
109.9698390593
 10
239.1975100399
 20
110.6043733437
 10
238.9566104175
 20
111.199511752
 10
238.5372172357
 20
111.7023733225
 10
237.9765908481
 20
112.0682769236
 10
237.3245532872
 20
112.2647105497
 10
236.639032817
 20
112.2742198189
 10
235.9809528352
 20
112.0959600215
 10
235.4087705971
 20
111.7457701605
 10
234.9733437659
 20
111.254766189
 10
234.7133483054
 20
110.6665759128
 10
234.651888466
 20
110.0334632923
 10
234.794432974
 20
109.4116820735
 10
235.1283083917
 20
108.8564806399
 10
235.6238539578
 20
108.4171911482
 10
236.2370367409
 20
108.1328471903
  0
LWPOLYLINE
  5
127
330
1F
100
AcDbEntity
  8
0
  6
SLD-Gestrichelt
 62
     7
370
     0
100
AcDbPolyline
 90
       23
 70
   128
 43
0.0
 10
236.1752267243
 20
107.5068596531
 10
236.8763859631
 20
107.3943568174
 10
237.5833194019
 20
107.469562978
 10
238.2387693287
 20
107.7263882165
 10
238.7896280052
 20
108.1440249239
 10
239.1912664534
 20
108.6886381511
 10
239.4111554386
 20
109.3161069569
 10
239.4314731718
 20
109.9755983581
 10
239.2505805255
 20
110.6136833098
 10
238.8831253411
 20
111.1786678214
 10
238.3588801385
 20
111.6247811136
 10
237.7203132273
 20
111.9158813511
 10
237.0191614391
 20
112.0283851181
 10
236.3122280003
 20
111.9531780262
 10
235.6567780734
 20
111.6963532534
 10
235.105919397
 20
111.2787170117
 10
234.7042734982
 20
110.7341033187
 10
234.484384513
 20
110.1066340473
 10
234.4640667798
 20
109.4471431118
 10
234.6449668766
 20
108.80905816
 10
235.0124220611
 20
108.2440731828
 10
235.5366672636
 20
107.7979603563
 10
236.1752267243
 20
107.5068596531
  0
LWPOLYLINE
  5
128
330
1F
100
AcDbEntity
  8
0
  6
SLD-Gestrichelt
 62
     7
370
     0
100
AcDbPolyline
 90
       22
 70
   128
 43
0.0
 10
236.2370367409
 20
107.8743688543
 10
236.9133631946
 20
107.7702339519
 10
237.5927518369
 20
107.8555626576
 10
238.2148380639
 20
108.1227721427
 10
238.7243311168
 20
108.5481192697
 10
239.0759687187
 20
109.0938114342
 10
239.238510585
 20
109.7113602576
 10
239.1975100399
 20
110.345894542
 10
238.9566104175
 20
110.9410329503
 10
238.5372172357
 20
111.4438949865
 10
237.9765908481
 20
111.8097985876
 10
237.3245532872
 20
112.0062322137
 10
236.639032817
 20
112.0157414828
 10
235.9809528352
 20
111.8374812198
 10
235.4087705971
 20
111.4872913588
 10
234.9733437659
 20
110.996287853
 10
234.7133483054
 20
110.4080975768
 10
234.651888466
 20
109.7749844906
 10
234.794432974
 20
109.1532032718
 10
235.1283083917
 20
108.5980023038
 10
235.6238539578
 20
108.1587128122
 10
236.2370367409
 20
107.8743688543
  0
LWPOLYLINE
  5
129
330
1F
100
AcDbEntity
  8
0
  6
SLD-Gestrichelt
 62
     7
370
     0
100
AcDbPolyline
 90
       23
 70
   128
 43
0.0
 10
236.1752267243
 20
107.2483813171
 10
236.8763859631
 20
107.1358775501
 10
237.5833194019
 20
107.211084642
 10
238.2387693287
 20
107.4679098804
 10
238.7896280052
 20
107.8855456565
 10
239.1912664534
 20
108.4301598151
 10
239.4111554386
 20
109.0576286209
 10
239.4314731718
 20
109.7171195564
 10
239.2505805255
 20
110.3552045081
 10
238.8831253411
 20
110.9201894854
 10
238.3588801385
 20
111.3663027775
 10
237.7203132273
 20
111.657403015
 10
237.0191614391
 20
111.7699063164
 10
236.3122280003
 20
111.6946996902
 10
235.6567780734
 20
111.4378744517
 10
235.105919397
 20
111.02023821
 10
234.7042734982
 20
110.4756249827
 10
234.484384513
 20
109.8481557113
 10
234.4640667798
 20
109.1886647758
 10
234.6449668766
 20
108.550579824
 10
235.0124220611
 20
107.9855948467
 10
235.5366672636
 20
107.5394820203
 10
236.1752267243
 20
107.2483813171
  0
LWPOLYLINE
  5
12A
330
1F
100
AcDbEntity
  8
0
  6
SLD-Gestrichelt
 62
     7
370
     0
100
AcDbPolyline
 90
       22
 70
   128
 43
0.0
 10
236.2370367409
 20
107.6158895869
 10
236.9133631946
 20
107.5117556159
 10
237.5927518369
 20
107.5970833902
 10
238.2148380639
 20
107.8642928754
 10
238.7243311168
 20
108.2896409337
 10
239.0759687187
 20
108.8353326325
 10
239.238510585
 20
109.4528819215
 10
239.1975100399
 20
110.087416206
 10
238.9566104175
 20
110.6825546142
 10
238.5372172357
 20
111.1854161848
 10
237.9765908481
 20
111.5513197859
 10
237.3245532872
 20
111.747753412
 10
236.639032817
 20
111.7572626811
 10
235.9809528352
 20
111.5790028837
 10
235.4087705971
 20
111.2288130228
 10
234.9733437659
 20
110.7378090513
 10
234.7133483054
 20
110.1496192408
 10
234.651888466
 20
109.5165061545
 10
234.794432974
 20
108.8947249357
 10
235.1283083917
 20
108.3395235021
 10
235.6238539578
 20
107.9002344762
 10
236.2370367409
 20
107.6158895869
  0
LWPOLYLINE
  5
12B
330
1F
100
AcDbEntity
  8
0
  6
SLD-Gestrichelt
 62
     7
370
     0
100
AcDbPolyline
 90
       23
 70
   128
 43
0.0
 10
236.1752267243
 20
107.0423476179
 10
236.8763859631
 20
106.9298438509
 10
237.5833194019
 20
107.0050509427
 10
238.2387693287
 20
107.2618761812
 10
238.7896280052
 20
107.6795119573
 10
239.1912664534
 20
108.2241261159
 10
239.4111554386
 20
108.8515949216
 10
239.4314731718
 20
109.5110858571
 10
239.2505805255
 20
110.1491708089
 10
238.8831253411
 20
110.7141557862
 10
238.3588801385
 20
111.1602690783
 10
237.7203132273
 20
111.4513693158
 10
237.0191614391
 20
111.5638730828
 10
236.3122280003
 20
111.488665991
 10
235.6567780734
 20
111.2318412182
 10
235.105919397
 20
110.8142045107
 10
234.7042734982
 20
110.2695912835
 10
234.484384513
 20
109.6421220121
 10
234.4640667798
 20
108.9826310766
 10
234.6449668766
 20
108.3445461248
 10
235.0124220611
 20
107.7795611475
 10
235.5366672636
 20
107.3334483211
 10
236.1752267243
 20
107.0423476179
  0
LWPOLYLINE
  5
12C
330
1F
100
AcDbEntity
  8
0
  6
SLD-Gestrichelt
 62
     7
370
     0
100
AcDbPolyline
 90
       22
 70
   128
 43
0.0
 10
236.2184922458
 20
107.1133553763
 10
236.9124691249
 20
107.0065047373
 10
237.6095826985
 20
107.0940593038
 10
238.2478888394
 20
107.3682388072
 10
238.7706737281
 20
107.8046826427
 10
239.1314904453
 20
108.364609607
 10
239.2982716919
 20
108.9982689139
 10
239.2561982633
 20
109.6493565258
 10
239.0090178014
 20
110.2600200814
 10
238.5786797167
 20
110.7759997961
 10
238.00343529
 20
111.1514489879
 10
237.334380603
 20
111.3530067508
 10
236.6309787394
 20
111.3627642174
 10
235.9557326199
 20
111.1798538607
 10
235.3686268689
 20
110.8205286567
 10
234.9218304516
 20
110.3167162058
 10
234.6550549628
 20
109.7131819245
 10
234.5919932486
 20
109.0635527638
 10
234.7382555963
 20
108.425551631
 10
235.0808481933
 20
107.8558662687
 10
235.5893130661
 20
107.4051173185
 10
236.2184922458
 20
107.1133553763
  0
ARC
  5
12D
330
1F
100
AcDbEntity
  8
0
  6
SLD-Gestrichelt
 62
     7
370
     0
100
AcDbCircle
 10
270.9488286765
 20
135.0790778524
 30
0.0
 40
0.3348708690616078
100
AcDbArc
 50
169.6327568172
 51
308.8311882884
  0
ARC
  5
12E
330
1F
100
AcDbEntity
  8
0
  6
SLD-Gestrichelt
 62
     7
370
     0
100
AcDbCircle
 10
272.2779959692
 20
134.894156773
 30
0.0
 40
0.3350009003911578
100
AcDbArc
 50
215.33169968
 51
8.6778345373
  0
ARC
  5
12F
330
1F
100
AcDbEntity
  8
0
  6
SLD-Gestrichelt
 62
     7
370
     0
100
AcDbCircle
 10
273.1874715638
 20
135.0338648677
 30
0.0
 40
0.5851429258375261
100
AcDbArc
 50
95.205450258
 51
188.7648382545
  0
ARC
  5
130
330
1F
100
AcDbEntity
  8
0
  6
SLD-Gestrichelt
 62
     7
370
     0
100
AcDbCircle
 10
270.1132944017
 20
135.462315794
 30
0.0
 40
0.5848532867574955
100
AcDbArc
 50
0.036270085
 51
68.9025429417
  0
ARC
  5
131
330
1F
100
AcDbEntity
  8
0
  6
SLD-Gestrichelt
 62
     7
370
     0
100
AcDbCircle
 10
270.4440388335
 20
136.3197061727
 30
0.0
 40
0.3341190440050389
100
AcDbArc
 50
172.5891733856
 51
248.9107443475
  0
ARC
  5
132
330
1F
100
AcDbEntity
  8
0
  6
SLD-Gestrichelt
 62
     7
370
     0
100
AcDbCircle
 10
273.1040102378
 20
135.9496020796
 30
0.0
 40
0.3343898013543169
100
AcDbArc
 50
275.211402011
 51
9.2725582177
  0
ARC
  5
133
330
1F
100
AcDbEntity
  8
0
  6
SLD-Gestrichelt
 62
     7
370
     0
100
AcDbCircle
 10
273.4329317364
 20
136.8064067298
 30
0.0
 40
0.5827286933640571
100
AcDbArc
 50
155.2226298928
 51
180.0184167396
  0
LWPOLYLINE
  5
134
330
1F
100
AcDbEntity
  8
0
  6
SLD-Gestrichelt
 62
     7
370
     0
100
AcDbPolyline
 90
        3
 70
   128
 43
0.0
 10
270.9391887547
 20
137.324204274
 10
270.9407086731
 20
137.4355941792
 10
270.950588143
 20
137.4753877301
  0
LWPOLYLINE
  5
135
330
1F
100
AcDbEntity
  8
0
  6
SLD-Gestrichelt
 62
     7
370
     0
100
AcDbPolyline
 90
        3
 70
   128
 43
0.0
 10
272.9320700528
 20
137.2305504759
 10
272.9329641224
 20
137.1581736733
 10
272.9038472535
 20
137.0506245424
  0
ARC
  5
136
330
1F
100
AcDbEntity
  8
0
  6
SLD-Gestrichelt
 62
     7
370
     0
100
AcDbCircle
 10
271.7764924528
 20
136.1582484916
 30
0.0
 40
2.625000851741997
100
AcDbArc
 50
0.1100857768
 51
179.8899142232
  0
ARC
  5
137
330
1F
100
AcDbEntity
  8
0
  6
SLD-Gestrichelt
 62
     7
370
     0
100
AcDbCircle
 10
271.5261796196
 20
134.3602589173
 30
0.0
 40
0.5871027228635756
100
AcDbArc
 50
35.4079310868
 51
128.7370092342
  0
CIRCLE
  5
138
330
1F
100
AcDbEntity
  8
0
  6
SLD-Gestrichelt
 62
     7
370
     0
100
AcDbCircle
 10
271.7746492465
 20
135.9711714116
 30
0.0
 40
1.998133433454365
  0
CIRCLE
  5
139
330
1F
100
AcDbEntity
  8
0
  6
SLD-Gestrichelt
 62
     7
370
     0
100
AcDbCircle
 10
271.7746492465
 20
135.6154136387
 30
0.0
 40
1.998133433454365
  0
CIRCLE
  5
13A
330
1F
100
AcDbEntity
  8
0
  6
SLD-Gestrichelt
 62
     7
370
     0
100
AcDbCircle
 10
271.7747492844
 20
135.6084182071
 30
0.0
 40
1.898366720945646
  0
ARC
  5
13B
330
1F
100
AcDbEntity
  8
0
  6
SLD-Gestrichelt
 62
     7
370
     0
100
AcDbCircle
 10
271.8671883704
 20
136.2592896834
 30
0.0
 40
3.050004302845575
100
AcDbArc
 50
180.1019395226
 51
359.8980604774
  0
CIRCLE
  5
13C
330
1F
100
AcDbEntity
  8
0
  6
SLD-Gestrichelt
 62
     7
370
     0
100
AcDbCircle
 10
271.8635607249
 20
136.1916646178
 30
0.0
 40
2.196940874434957
  0
CIRCLE
  5
13D
330
1F
100
AcDbEntity
  8
0
  6
SLD-Gestrichelt
 62
     7
370
     0
100
AcDbCircle
 10
271.8635614329
 20
136.0436771134
 30
0.0
 40
2.196941654282225
  0
ARC
  5
13E
330
1F
100
AcDbEntity
  8
0
  6
SLD-Gestrichelt
 62
     7
370
     0
100
AcDbCircle
 10
278.2628393058
 20
142.4265094376
 30
0.0
 40
0.0985438520289893
100
AcDbArc
 50
341.9059380771
 51
108.2305202274
  0
ARC
  5
13F
330
1F
100
AcDbEntity
  8
0
  6
SLD-Gestrichelt
 62
     7
370
     0
100
AcDbCircle
 10
268.5381237013
 20
139.3672242378
 30
0.0
 40
0.0990749565922277
100
AcDbArc
 50
107.4089146553
 51
162.4476666974
  0
LINE
  5
140
330
1F
100
AcDbEntity
  8
0
  6
SLD-Gestrichelt
 62
     7
370
     0
100
AcDbLine
 10
278.2320107581
 20
142.5201069344
 30
0.0
 11
268.5084815384
 21
139.4617609461
 31
0.0
  0
LINE
  5
141
330
1F
100
AcDbEntity
  8
0
  6
SLD-Gestrichelt
 62
     7
370
     0
100
AcDbLine
 10
275.2907003523
 20
132.6960656573
 30
0.0
 11
278.3565099598
 21
142.3959038933
 31
0.0
  0
ARC
  5
142
330
1F
100
AcDbEntity
  8
0
  6
SLD-Gestrichelt
 62
     7
370
     0
100
AcDbCircle
 10
275.1962668568
 20
132.7259182966
 30
0.0
 40
0.0990397150644976
100
AcDbArc
 50
287.3978960128
 51
342.4570347645
  0
LINE
  5
143
330
1F
100
AcDbEntity
  8
0
  6
SLD-Gestrichelt
 62
     7
370
     0
100
AcDbLine
 10
268.4436614872
 20
139.397102945
 30
0.0
 11
265.3778518797
 21
129.6972656403
 31
0.0
  0
ARC
  5
144
330
1F
100
AcDbEntity
  8
0
  6
SLD-Gestrichelt
 62
     7
370
     0
100
AcDbCircle
 10
265.4715304508
 20
129.6666636315
 30
0.0
 40
0.0985502796801459
100
AcDbArc
 50
161.9093214527
 51
288.2335644616
  0
LINE
  5
145
330
1F
100
AcDbEntity
  8
0
  6
SLD-Gestrichelt
 62
     7
370
     0
100
AcDbLine
 10
265.5023659827
 20
129.5730616678
 30
0.0
 11
275.2258803011
 21
132.6314095189
 31
0.0
  0
LINE
  5
146
330
1F
100
AcDbEntity
  8
0
  6
SLD-Gestrichelt
 62
     7
370
     0
100
AcDbLine
 10
153.5558399992
 20
140.8455498297
 30
0.0
 11
153.5558399992
 21
136.2368609537
 31
0.0
  0
LINE
  5
147
330
1F
100
AcDbEntity
  8
0
  6
SLD-Gestrichelt
 62
     7
370
     0
100
AcDbLine
 10
126.9429230378
 20
92.8622610648
 30
0.0
 11
126.408776945
 21
92.8076464464
 31
0.0
  0
LINE
  5
148
330
1F
100
AcDbEntity
  8
0
  6
SLD-Gestrichelt
 62
     7
370
     0
100
AcDbLine
 10
126.1711239131
 20
139.9901933749
 30
0.0
 11
126.9428299056
 21
139.9114426006
 31
0.0
  0
LWPOLYLINE
  5
149
330
1F
100
AcDbEntity
  8
0
  6
SLD-Gestrichelt
 62
     7
370
     0
100
AcDbPolyline
 90
        8
 70
   128
 43
0.0
 10
236.9477699758
 20
106.6355310161
 10
236.1239294769
 20
106.7586034317
 10
235.3930200697
 20
107.1155272205
 10
234.8333324553
 20
107.6746886377
 10
234.5105136992
 20
108.3815913428
 10
234.4635154368
 20
109.155171622
 10
234.6934105517
 20
109.9076616359
 10
234.879064119
 20
110.1585482959
  0
ARC
  5
14A
330
1F
100
AcDbEntity
  8
0
  6
SLD-Gestrichelt
 62
     7
370
     0
100
AcDbCircle
 10
237.122464361
 20
108.9017438339
 30
0.0
 40
2.272936132755221
100
AcDbArc
 50
265.5919871214
 51
30.9980581279
  0
LINE
  5
14B
330
1F
100
AcDbEntity
  8
0
  6
SLD-Gestrichelt
 62
     7
370
     0
100
AcDbLine
 10
252.9477725984
 20
96.6086607207
 30
0.0
 11
252.9477725984
 21
136.3859694232
 31
0.0
  0
LWPOLYLINE
  5
14C
330
1F
100
AcDbEntity
  8
0
  6
SLD-Gestrichelt
 62
     7
370
     0
100
AcDbPolyline
 90
        4
 70
   128
 43
0.0
 10
132.7027745792
 20
136.2243886818
 10
133.3842153908
 20
136.3012879868
 10
133.6865185076
 20
136.3240327467
 10
133.6599986316
 20
136.3222297062
  0
ARC
  5
14D
330
1F
100
AcDbEntity
  8
0
  6
SLD-Gestrichelt
 62
     7
370
     0
100
AcDbCircle
 10
134.5092795243
 20
109.4918349511
 30
0.0
 40
13.06797035865804
100
AcDbArc
 50
262.0540345137
 51
266.2737659607
  0
LWPOLYLINE
  5
14E
330
1F
100
AcDbEntity
  8
0
  6
SLD-Gestrichelt
 62
     7
370
     0
100
AcDbPolyline
 90
        9
 70
   128
 43
0.0
 10
132.7027745792
 20
96.5493317474
 10
131.7062766538
 20
96.6630201568
 10
130.508180453
 20
96.733577155
 10
129.2586510317
 20
96.7294849236
 10
128.0981579111
 20
96.654688545
 10
127.1318148138
 20
96.5407747556
 10
126.4690009193
 20
96.4359357734
 10
126.2014617459
 20
96.387551703
 10
126.2218800621
 20
96.3913012077
  0
ARC
  5
14F
330
1F
100
AcDbEntity
  8
0
  6
SLD-Gestrichelt
 62
     7
370
     0
100
AcDbCircle
 10
129.9445915564
 20
156.0812497148
 30
0.0
 40
20.04750617089302
100
AcDbArc
 50
259.2983744626
 51
277.9079713491
  0
LINE
  5
150
330
1F
100
AcDbEntity
  8
0
  6
SLD-Gestrichelt
 62
     7
370
     0
100
AcDbLine
 10
119.9517480345
 20
99.3868592907
 30
0.0
 11
119.9517480345
 21
133.3868611385
 31
0.0
  0
LINE
  5
151
330
1F
100
AcDbEntity
  8
0
  6
SLD-Gestrichelt
 62
     7
370
     0
100
AcDbLine
 10
146.6075985008
 20
99.3868592907
 30
0.0
 11
146.6075985008
 21
133.3868611385
 31
0.0
  0
LINE
  5
152
330
1F
100
AcDbEntity
  8
0
  6
SLD-Gestrichelt
 62
     7
370
     0
100
AcDbLine
 10
148.8977724002
 20
100.6618603845
 30
0.0
 11
148.8977724002
 21
132.1118600447
 31
0.0
  0
LWPOLYLINE
  5
153
330
1F
100
AcDbEntity
  8
0
  6
SLD-Gestrichelt
 62
     7
370
     0
100
AcDbPolyline
 90
        6
 70
   128
 43
0.0
 10
113.1477716626
 20
132.6743732919
 10
113.0616466762
 20
132.5219288249
 10
112.8128065975
 20
132.3745693792
 10
112.4291445376
 20
132.2574406643
 10
111.9767117561
 20
132.1958150495
 10
111.7477721782
 20
132.1883514304
  0
LINE
  5
154
330
1F
100
AcDbEntity
  8
0
  6
SLD-Gestrichelt
 62
     7
370
     0
100
AcDbLine
 10
111.7477721782
 20
132.1883514304
 30
0.0
 11
108.1977716894
 21
132.1883514304
 31
0.0
  0
LINE
  5
155
330
1F
100
AcDbEntity
  8
0
  6
SLD-Gestrichelt
 62
     7
370
     0
100
AcDbLine
 10
108.1977716894
 20
100.5853689988
 30
0.0
 11
115.7477728338
 21
100.5853689988
 31
0.0
  0
LWPOLYLINE
  5
156
330
1F
100
AcDbEntity
  8
0
  6
SLD-Gestrichelt
 62
     7
370
     0
100
AcDbPolyline
 90
        6
 70
   128
 43
0.0
 10
115.7477728338
 20
100.5853689988
 10
116.1883666427
 20
100.5573268761
 10
116.5789037259
 20
100.4796024193
 10
116.8915040107
 20
100.3629021127
 10
117.0942398967
 20
100.2189475824
 10
117.1477723183
 20
100.0993471374
  0
LINE
  5
157
330
1F
100
AcDbEntity
  8
0
  6
SLD-Gestrichelt
 62
     7
370
     0
100
AcDbLine
 10
108.1977716894
 20
100.5853689988
 30
0.0
 11
108.1977716894
 21
132.1883514304
 31
0.0
  0
LWPOLYLINE
  5
158
330
1F
100
AcDbEntity
  8
0
  6
SLD-Gestrichelt
 62
     7
370
     0
100
AcDbPolyline
 90
       21
 70
   128
 43
0.0
 10
236.9477699758
 20
115.8023331794
 10
236.3038013936
 20
115.9173313193
 10
235.7342790128
 20
116.2341549337
 10
235.2486576201
 20
116.7465147867
 10
234.9265243174
 20
117.4174623578
 10
234.8514373661
 20
118.0744843571
 10
234.9843482734
 20
118.6259685331
 10
235.2953206064
 20
119.084995544
 10
235.8007605435
 20
119.4465519641
 10
236.480909145
 20
119.6589570739
 10
237.1720399023
 20
119.6879577604
 10
237.7644430162
 20
119.577160642
 10
238.3003483774
 20
119.3300120779
 10
238.7558917762
 20
118.898751751
 10
239.0134806992
 20
118.3042637552
 10
239.0262882472
 20
117.6783983377
 10
238.8449560167
 20
117.0888015898
 10
238.4836848141
 20
116.5380745936
 10
237.9242356183
 20
116.0738711899
 10
237.2200365426
 20
115.8225784441
 10
236.9477699758
 20
115.8023331794
  0
LWPOLYLINE
  5
159
330
1F
100
AcDbEntity
  8
0
  6
SLD-Gestrichelt
 62
     7
370
     0
100
AcDbPolyline
 90
        3
 70
   128
 43
0.0
 10
237.9876996638
 20
118.9149723635
 10
237.956198609
 20
119.3185183932
 10
238.0103792311
 20
119.4731523995
  0
ARC
  5
15A
330
1F
100
AcDbEntity
  8
0
  6
SLD-Gestrichelt
 62
     7
370
     0
100
AcDbCircle
 10
236.5844252108
 20
121.497409942
 30
0.0
 40
2.476078243256346
100
AcDbArc
 50
305.1621338954
 51
14.0487751109
  0
LWPOLYLINE
  5
15B
330
1F
100
AcDbEntity
  8
0
  6
SLD-Gestrichelt
 62
     7
370
     0
100
AcDbPolyline
 90
       20
 70
   128
 43
0.0
 10
238.5411883952
 20
122.8996031698
 10
238.0850489499
 20
123.1833045152
 10
237.5978182317
 20
123.2680921224
 10
236.9074623348
 20
123.1103218873
 10
236.6696994068
 20
122.9606811669
 10
236.5688334466
 20
122.8376101483
 10
236.5687961937
 20
122.7418562178
 10
236.6792808534
 20
122.6412463714
 10
237.0865593912
 20
122.4456383628
 10
237.6737843515
 20
122.1249197391
 10
238.1897594096
 20
121.733476479
 10
238.5710577728
 20
121.3312219609
 10
238.863887942
 20
120.8767663468
 10
239.0113498331
 20
120.4731455785
 10
239.045354283
 20
120.0899747912
 10
238.89273659
 20
119.6059573688
 10
238.5239104988
 20
119.2312136539
 10
238.2830257775
 20
119.0795668647
 10
238.0624513389
 20
118.9559938633
 10
237.9876996638
 20
118.9149723635
  0
LWPOLYLINE
  5
15C
330
1F
100
AcDbEntity
  8
0
  6
SLD-Gestrichelt
 62
     7
370
     0
100
AcDbPolyline
 90
       20
 70
   128
 43
0.0
 10
238.5411883952
 20
122.8996031698
 10
238.0549113513
 20
123.2858598944
 10
237.4657045366
 20
123.5182914664
 10
236.8283371688
 20
123.575287011
 10
236.2020711662
 20
123.4515477684
 10
235.6451402666
 20
123.1585783665
 10
235.2093260051
 20
122.7236171965
 10
234.935129738
 20
122.1871041474
 10
234.8480622531
 20
121.5989208561
 10
234.9562148811
 20
121.0137527217
 10
235.249529338
 20
120.4860052806
 10
235.7007290484
 20
120.064744797
 10
236.267874694
 20
119.789137809
 10
236.898238516
 20
119.6848082603
 10
237.5331993462
 20
119.7614561082
 10
238.1137336852
 20
120.0119548724
 10
238.585869527
 20
120.4130152021
 10
238.9057006003
 20
120.9273488042
 10
239.0434916378
 20
121.5071362224
 10
238.9864425422
 20
122.0984725062
  0
LWPOLYLINE
  5
15D
330
1F
100
AcDbEntity
  8
0
  6
SLD-Gestrichelt
 62
     7
370
     0
100
AcDbPolyline
 90
        9
 70
   128
 43
0.0
 10
237.9876996638
 20
118.9149723635
 10
238.0196850063
 20
118.9376645037
 10
238.0435566665
 20
118.9746564035
 10
238.0591134788
 20
119.0256581888
 10
238.066251135
 20
119.0902691581
 10
238.0649025799
 20
119.167982439
 10
238.0550752641
 20
119.2581880153
 10
238.0368585946
 20
119.3601783146
 10
238.0103792311
 20
119.4731523995
  0
LWPOLYLINE
  5
15E
330
1F
100
AcDbEntity
  8
0
  6
SLD-Gestrichelt
 62
     7
370
     0
100
AcDbPolyline
 90
        3
 70
   128
 43
0.0
 10
238.9864425422
 20
122.0984725062
 10
238.7313421132
 20
122.5007833694
 10
238.5411883952
 20
122.8996031698
  0
LINE
  5
15F
330
1F
100
AcDbEntity
  8
0
  6
SLD-Gestrichelt
 62
     7
370
     0
100
AcDbLine
 10
108.1977716894
 20
98.3968596686
 30
0.0
 11
108.1977716894
 21
95.5802291413
 31
0.0
  0
LINE
  5
160
330
1F
100
AcDbEntity
  8
0
  6
SLD-Gestrichelt
 62
     7
370
     0
100
AcDbLine
 10
117.1477723183
 20
98.3968596686
 30
0.0
 11
117.1477723183
 21
94.4417115082
 31
0.0
  0
LINE
  5
161
330
1F
100
AcDbEntity
  8
0
  6
SLD-Gestrichelt
 62
     7
370
     0
100
AcDbLine
 10
108.1977716894
 20
134.3768607606
 30
0.0
 11
108.1977716894
 21
137.2567988713
 31
0.0
  0
LINE
  5
162
330
1F
100
AcDbEntity
  8
0
  6
SLD-Gestrichelt
 62
     7
370
     0
100
AcDbLine
 10
113.1477716626
 20
134.3768607606
 30
0.0
 11
113.1477716626
 21
138.2309678723
 31
0.0
  0
LINE
  5
163
330
1F
100
AcDbEntity
  8
0
  6
SLD-Gestrichelt
 62
     7
370
     0
100
AcDbLine
 10
158.2477732809
 20
106.8868605201
 30
0.0
 11
158.2477732809
 21
125.8868599091
 31
0.0
  0
LINE
  5
164
330
1F
100
AcDbEntity
  8
0
  6
SLD-Gestrichelt
 62
     7
370
     0
100
AcDbLine
 10
160.7477727593
 20
106.8868605201
 30
0.0
 11
160.7477727593
 21
125.8868599091
 31
0.0
  0
LINE
  5
165
330
1F
100
AcDbEntity
  8
0
  6
SLD-Gestrichelt
 62
     7
370
     0
100
AcDbLine
 10
149.3977724822
 20
107.8868597527
 30
0.0
 11
149.3977724822
 21
124.8868606765
 31
0.0
  0
LINE
  5
166
330
1F
100
AcDbEntity
  8
0
  6
SLD-Gestrichelt
 62
     7
370
     0
100
AcDbLine
 10
164.8977722289
 20
89.9868603577
 30
0.0
 11
158.7600975545
 21
89.9868603577
 31
0.0
  0
LINE
  5
167
330
1F
100
AcDbEntity
  8
0
  6
SLD-Gestrichelt
 62
     7
370
     0
100
AcDbLine
 10
143.897772512
 20
84.9027368952
 30
0.0
 11
143.897772512
 21
89.9868603577
 31
0.0
  0
LINE
  5
168
330
1F
100
AcDbEntity
  8
0
  6
SLD-Gestrichelt
 62
     7
370
     0
100
AcDbLine
 10
151.897772892
 20
89.9868603577
 30
0.0
 11
143.897772512
 21
89.9868603577
 31
0.0
  0
LINE
  5
169
330
1F
100
AcDbEntity
  8
0
  6
SLD-Gestrichelt
 62
     7
370
     0
100
AcDbLine
 10
155.1354478361
 20
89.9868603577
 30
0.0
 11
151.897772892
 21
89.9868603577
 31
0.0
  0
LINE
  5
16A
330
1F
100
AcDbEntity
  8
0
  6
SLD-Gestrichelt
 62
     7
370
     0
100
AcDbLine
 10
164.8977722289
 20
142.7868600716
 30
0.0
 11
158.4634750397
 21
142.7868600716
 31
0.0
  0
LINE
  5
16B
330
1F
100
AcDbEntity
  8
0
  6
SLD-Gestrichelt
 62
     7
370
     0
100
AcDbLine
 10
155.4320703508
 20
142.7868600716
 30
0.0
 11
151.897772892
 21
142.7868600716
 31
0.0
  0
LINE
  5
16C
330
1F
100
AcDbEntity
  8
0
  6
SLD-Gestrichelt
 62
     7
370
     0
100
AcDbLine
 10
151.897772892
 20
142.7868600716
 30
0.0
 11
143.897772512
 21
142.7868600716
 31
0.0
  0
ELLIPSE
  5
16D
330
1F
100
AcDbEntity
  8
0
  6
SLD-Gestrichelt
 62
     7
370
     0
100
AcDbEllipse
 10
102.8803406745
 20
116.3868602146
 30
0.0
 11
20.07002071827053
 21
-1.421085471520200E-14
 31
0.0
210
0.0
220
0.0
230
1.0
 40
0.8164965809
 41
4.921555463185701
 42
4.980534842098401
  0
ELLIPSE
  5
16E
330
1F
100
AcDbEntity
  8
0
  6
SLD-Gestrichelt
 62
     7
370
     0
100
AcDbEllipse
 10
102.8803406745
 20
116.3868602146
 30
0.0
 11
20.07002071827051
 21
-1.421085471520200E-14
 31
0.0
210
0.0
220
0.0
230
1.0
 40
0.8164965809
 41
1.302650465081197
 42
1.361629843993897
  0
LINE
  5
16F
330
1F
100
AcDbEntity
  8
0
  6
SLD-Gestrichelt
 62
     7
370
     0
100
AcDbLine
 10
108.1977716894
 20
98.3968596686
 30
0.0
 11
108.1977716894
 21
100.5853689988
 31
0.0
  0
LINE
  5
170
330
1F
100
AcDbEntity
  8
0
  6
SLD-Gestrichelt
 62
     7
370
     0
100
AcDbLine
 10
117.1477723183
 20
98.3968596686
 30
0.0
 11
117.1477723183
 21
100.0993471374
 31
0.0
  0
LINE
  5
171
330
1F
100
AcDbEntity
  8
0
  6
SLD-Gestrichelt
 62
     7
370
     0
100
AcDbLine
 10
113.1477716626
 20
134.3768607606
 30
0.0
 11
113.1477716626
 21
132.6743732919
 31
0.0
  0
LINE
  5
172
330
1F
100
AcDbEntity
  8
0
  6
SLD-Gestrichelt
 62
     7
370
     0
100
AcDbLine
 10
108.1977716894
 20
134.3768607606
 30
0.0
 11
108.1977716894
 21
132.1883514304
 31
0.0
  0
LWPOLYLINE
  5
173
330
1F
100
AcDbEntity
  8
0
  6
SLD-Gestrichelt
 62
     7
370
     0
100
AcDbPolyline
 90
       14
 70
   128
 43
0.0
 10
133.696613113
 20
92.7868667771
 10
133.4677461782
 20
92.8479745765
 10
133.1306348802
 20
92.9256599177
 10
132.6119436198
 20
93.0346600492
 10
131.8701670752
 20
93.1647658129
 10
131.1399580227
 20
93.2653449257
 10
129.9685376944
 20
93.3779231985
 10
128.6469574334
 20
93.4040058185
 10
127.9584148215
 20
93.3828424443
 10
127.3082883344
 20
93.3388728429
 10
126.7276422368
 20
93.2818963905
 10
126.391664824
 20
93.241134264
 10
126.197792335
 20
93.2082455386
 10
126.198658465
 20
93.2083926876
  0
LINE
  5
174
330
1F
100
AcDbEntity
  8
0
  6
SLD-Gestrichelt
 62
     7
370
     0
100
AcDbLine
 10
127.1077848287
 20
93.3191977222
 30
0.0
 11
127.2916297676
 21
93.3373883147
 31
0.0
  0
LINE
  5
175
330
1F
100
AcDbEntity
  8
0
  6
SLD-Gestrichelt
 62
     7
370
     0
100
AcDbLine
 10
127.2916269736
 20
139.4362631966
 30
0.0
 11
127.1175534712
 21
139.4534721751
 31
0.0
  0
LWPOLYLINE
  5
176
330
1F
100
AcDbEntity
  8
0
  6
SLD-Gestrichelt
 62
     7
370
     0
100
AcDbPolyline
 90
       14
 70
   128
 43
0.0
 10
126.1986919926
 20
139.5652625491
 10
126.1977848844
 20
139.565415286
 10
126.3907521279
 20
139.5325936158
 10
126.7261800603
 20
139.4918724675
 10
127.3063549088
 20
139.4349481691
 10
127.9570327388
 20
139.3909618039
 10
128.6464005025
 20
139.3697742154
 10
129.9698471339
 20
139.3957972307
 10
131.1382085332
 20
139.5079862107
 10
131.8665786894
 20
139.6082673003
 10
132.6070024879
 20
139.7380098481
 10
133.1282800311
 20
139.8474011351
 10
133.4669438438
 20
139.9253807743
 10
133.6966987947
 20
139.9868294378
  0
LINE
  5
177
330
1F
100
AcDbEntity
  8
0
  6
SLD-Gestrichelt
 62
     7
370
     0
100
AcDbLine
 10
240.0477702977
 20
116.3868602146
 30
0.0
 11
240.0477702977
 21
112.1868603644
 31
0.0
  0
LINE
  5
178
330
1F
100
AcDbEntity
  8
0
  6
SLD-Gestrichelt
 62
     7
370
     0
100
AcDbLine
 10
240.0477702977
 20
120.5868600649
 30
0.0
 11
240.0477702977
 21
116.3868602146
 31
0.0
  0
LWPOLYLINE
  5
179
330
1F
100
AcDbEntity
  8
0
  6
SLD-Gestrichelt
 62
     7
370
     0
100
AcDbPolyline
 90
       21
 70
   128
 43
0.0
 10
236.9477699758
 20
113.0772149902
 10
237.5917460085
 20
113.1498327725
 10
238.1612683894
 20
113.3613771074
 10
238.6468897821
 20
113.7387254988
 10
238.9690230848
 20
114.2998480485
 10
239.044110036
 20
114.9291605237
 10
238.9111991288
 20
115.5291660819
 10
238.6002267958
 20
116.0918355002
 10
238.0947868587
 20
116.5891465774
 10
237.4146382572
 20
116.911482661
 10
236.7235000493
 20
116.9576644445
 10
236.131104386
 20
116.7841975533
 10
235.5951990248
 20
116.4225764535
 10
235.1396481754
 20
115.8554977285
 10
234.882066703
 20
115.1703357012
 10
234.8692591549
 20
114.5397199564
 10
235.0505913855
 20
114.0152647407
 10
235.4118625881
 20
113.5799610768
 10
235.9713117839
 20
113.2522621904
 10
236.6755108596
 20
113.0898367394
 10
236.9477699758
 20
113.0772149902
  0
ELLIPSE
  5
17A
330
1F
100
AcDbEntity
  8
0
  6
SLD-Gestrichelt
 62
     7
370
     0
100
AcDbEllipse
 10
270.1472150172
 20
116.3868602146
 30
0.0
 11
6.697318860126359
 21
20.48986112711591
 31
0.0
210
0.0
220
0.0
230
1.0
 40
0.0962569477
 41
1.602248510774581
 42
3.173044837569613
  0
LINE
  5
17B
330
1F
100
AcDbEntity
  8
0
  6
SLD-Gestrichelt
 62
     7
370
     0
100
AcDbLine
 10
253.4477736117
 20
96.1083449204
 30
0.0
 11
253.4477736117
 21
116.3868602146
 31
0.0
  0
LINE
  5
17C
330
1F
100
AcDbEntity
  8
0
  6
SLD-Gestrichelt
 62
     7
370
     0
100
AcDbLine
 10
267.9757799269
 20
139.8107852568
 30
0.0
 11
268.0260117413
 21
139.8265842129
 31
0.0
  0
LINE
  5
17D
330
1F
100
AcDbEntity
  8
0
  6
SLD-Gestrichelt
 62
     7
370
     0
100
AcDbLine
 10
268.0260117413
 20
139.8265842129
 30
0.0
 11
265.7438094975
 21
132.6059955884
 31
0.0
  0
LINE
  5
17E
330
1F
100
AcDbEntity
  8
0
  6
SLD-Gestrichelt
 62
     7
370
     0
100
AcDbLine
 10
265.7438094975
 20
132.6059955884
 30
0.0
 11
265.6935776831
 21
132.5901966323
 31
0.0
  0
LINE
  5
17F
330
1F
100
AcDbEntity
  8
0
  6
SLD-Gestrichelt
 62
     7
370
     0
100
AcDbLine
 10
265.1990677477
 20
129.262335204
 30
0.0
 11
275.3997768523
 21
132.4707750012
 31
0.0
  0
LINE
  5
180
330
1F
100
AcDbEntity
  8
0
  6
SLD-Gestrichelt
 62
     7
370
     0
100
AcDbLine
 10
275.3997768523
 20
132.4707750012
 30
0.0
 11
275.3936077715
 21
132.4512302656
 31
0.0
  0
LWPOLYLINE
  5
181
330
1F
100
AcDbEntity
  8
0
  6
SLD-Gestrichelt
 62
     7
370
     0
100
AcDbPolyline
 90
        3
 70
   128
 43
0.0
 10
253.4477736117
 20
116.3868602146
 10
253.7870730521
 20
120.1320379753
 10
254.0487225415
 20
121.3868601029
  0
LWPOLYLINE
  5
182
330
1F
100
AcDbEntity
  8
0
  6
SLD-Gestrichelt
 62
     7
370
     0
100
AcDbPolyline
 90
        5
 70
   128
 43
0.0
 10
254.0487225415
 20
121.3868601029
 10
254.9383591176
 20
125.1244922881
 10
255.8367724778
 20
128.8600429673
 10
256.4991961481
 20
131.5779831041
 10
257.1396555067
 20
134.1601960142
  0
LINE
  5
183
330
1F
100
AcDbEntity
  8
0
  6
SLD-Gestrichelt
 62
     7
370
     0
100
AcDbLine
 10
257.1396555067
 20
134.1601960142
 30
0.0
 11
256.5001274706
 21
134.3830298413
 31
0.0
  0
LWPOLYLINE
  5
184
330
1F
100
AcDbEntity
  8
0
  6
SLD-Gestrichelt
 62
     7
370
     0
100
AcDbPolyline
 90
        6
 70
   128
 43
0.0
 10
256.5001274706
 20
134.3830298413
 10
254.9454371692
 20
135.0534517099
 10
253.8595075966
 20
135.7666380484
 10
253.4546057941
 20
136.4337462713
 10
253.6957736374
 20
137.1244951863
 10
253.8110788227
 20
137.248165511
  0
LINE
  5
185
330
1F
100
AcDbEntity
  8
0
  6
SLD-Gestrichelt
 62
     7
370
     0
100
AcDbLine
 10
264.9699772955
 20
129.3176036109
 30
0.0
 11
275.1873757006
 21
132.5312886168
 31
0.0
  0
LINE
  5
186
330
1F
100
AcDbEntity
  8
0
  6
SLD-Gestrichelt
 62
     7
370
     0
100
AcDbLine
 10
275.3997768523
 20
132.4707750012
 30
0.0
 11
275.1873757006
 21
132.5312886168
 31
0.0
  0
LINE
  5
187
330
1F
100
AcDbEntity
  8
0
  6
SLD-Gestrichelt
 62
     7
370
     0
100
AcDbLine
 10
265.7438094975
 20
132.6059955884
 30
0.0
 11
265.9562106492
 21
132.2427388061
 31
0.0
  0
LINE
  5
188
330
1F
100
AcDbEntity
  8
0
  6
SLD-Gestrichelt
 62
     7
370
     0
100
AcDbLine
 10
265.5426438214
 20
132.1126591195
 30
0.0
 11
265.9562106492
 21
132.2427388061
 31
0.0
  0
LINE
  5
189
330
1F
100
AcDbEntity
  8
0
  6
SLD-Gestrichelt
 62
     7
370
     0
100
AcDbLine
 10
268.238412893
 20
139.4633274306
 30
0.0
 11
268.0260117413
 21
139.8265842129
 31
0.0
  0
LINE
  5
18A
330
1F
100
AcDbEntity
  8
0
  6
SLD-Gestrichelt
 62
     7
370
     0
100
AcDbLine
 10
268.238412893
 20
139.4633274306
 30
0.0
 11
265.9562106492
 21
132.2427388061
 31
0.0
  0
ARC
  5
18B
330
1F
100
AcDbEntity
  8
0
  6
SLD-Gestrichelt
 62
     7
370
     0
100
AcDbCircle
 10
263.9489592587
 20
130.201518226
 30
0.0
 40
1.249351128889346
100
AcDbArc
 50
177.6940203754
 51
287.5361343057
  0
LINE
  5
18C
330
1F
100
AcDbEntity
  8
0
  6
SLD-Gestrichelt
 62
     7
370
     0
100
AcDbLine
 10
275.1873757006
 20
132.5312886168
 30
0.0
 11
274.972947991
 21
132.3592081447
 31
0.0
  0
LINE
  5
18D
330
1F
100
AcDbEntity
  8
0
  6
SLD-Gestrichelt
 62
     7
370
     0
100
AcDbLine
 10
265.9562106492
 20
132.2427388061
 30
0.0
 11
265.9562106492
 21
132.1381047149
 31
0.0
  0
LINE
  5
18E
330
1F
100
AcDbEntity
  8
0
  6
SLD-Gestrichelt
 62
     7
370
     0
100
AcDbLine
 10
265.9562106492
 20
132.1381047149
 30
0.0
 11
265.505912459
 21
131.9964747657
 31
0.0
  0
LINE
  5
18F
330
1F
100
AcDbEntity
  8
0
  6
SLD-Gestrichelt
 62
     7
370
     0
100
AcDbLine
 10
268.1708063246
 20
139.1447834451
 30
0.0
 11
265.9562106492
 21
132.1381047149
 31
0.0
  0
LINE
  5
190
330
1F
100
AcDbEntity
  8
0
  6
SLD-Gestrichelt
 62
     7
370
     0
100
AcDbLine
 10
268.1708063246
 20
139.1447834451
 30
0.0
 11
268.238412893
 21
139.4633274306
 31
0.0
  0
LWPOLYLINE
  5
191
330
1F
100
AcDbEntity
  8
0
  6
SLD-Gestrichelt
 62
     7
370
     0
100
AcDbPolyline
 90
       21
 70
   128
 43
0.0
 10
236.9477699758
 20
109.2853165012
 10
237.5967080952
 20
109.380613618
 10
238.1821225645
 20
109.6571768415
 10
238.6467109682
 20
110.0879340213
 10
238.9449875118
 20
110.630719528
 10
239.0477757217
 20
111.23240234
 10
238.9449875118
 20
111.834085152
 10
238.6467109682
 20
112.3768711243
 10
238.1821225645
 20
112.8076280714
 10
237.5967080952
 20
113.0841912948
 10
236.9477699758
 20
113.1794886444
 10
236.298839307
 20
113.0841912948
 10
235.7134248377
 20
112.8076280714
 10
235.248836434
 20
112.3768711243
 10
234.9505524398
 20
111.834085152
 10
234.8477716805
 20
111.23240234
 10
234.9505524398
 20
110.630719528
 10
235.248836434
 20
110.0879340213
 10
235.7134248377
 20
109.6571768415
 10
236.298839307
 20
109.380613618
 10
236.9477699758
 20
109.2853165012
  0
CIRCLE
  5
192
330
1F
100
AcDbEntity
  8
0
  6
SLD-Gestrichelt
 62
     7
370
     0
100
AcDbCircle
 10
271.7754701026
 20
135.9604768754
 30
0.0
 40
2.398516131723474
  0
LINE
  5
193
330
1F
100
AcDbEntity
  8
0
  6
SLD-Gestrichelt
 62
     7
370
     0
100
AcDbLine
 10
277.9508556487
 20
141.7809217949
 30
0.0
 11
277.6155199171
 21
142.1154379626
 31
0.0
  0
LINE
  5
194
330
1F
100
AcDbEntity
  8
0
  6
SLD-Gestrichelt
 62
     7
370
     0
100
AcDbLine
 10
264.3253977658
 20
129.0102280457
 30
0.0
 11
274.972947991
 21
132.3592081447
 31
0.0
  0
LINE
  5
195
330
1F
100
AcDbEntity
  8
0
  6
SLD-Gestrichelt
 62
     7
370
     0
100
AcDbLine
 10
268.1708063246
 20
139.1447834451
 30
0.0
 11
277.6155199171
 21
142.1154379626
 31
0.0
  0
LINE
  5
196
330
1F
100
AcDbEntity
  8
0
  6
SLD-Gestrichelt
 62
     7
370
     0
100
AcDbLine
 10
277.9508556487
 20
141.7809217949
 30
0.0
 11
274.972947991
 21
132.3592081447
 31
0.0
  0
ARC
  5
197
330
1F
100
AcDbEntity
  8
0
  6
SLD-Gestrichelt
 62
     7
370
     0
100
AcDbCircle
 10
271.7800781106
 20
135.9034388252
 30
0.0
 40
1.645625501434268
100
AcDbArc
 50
269.8748985634
 51
73.2735069051
  0
ARC
  5
198
330
1F
100
AcDbEntity
  8
0
  6
SLD-Gestrichelt
 62
     7
370
     0
100
AcDbCircle
 10
271.7733229809
 20
135.9036938222
 30
0.0
 40
1.645879613174634
100
AcDbArc
 50
94.0145501611
 51
270.1100752367
  0
LINE
  5
199
330
1F
100
AcDbEntity
  8
0
  6
SLD-Gestrichelt
 62
     7
370
     0
100
AcDbLine
 10
277.6155199171
 20
142.1154379626
 30
0.0
 11
276.6817535521
 21
140.8375218291
 31
0.0
  0
LINE
  5
19A
330
1F
100
AcDbEntity
  8
0
  6
SLD-Gestrichelt
 62
     7
370
     0
100
AcDbLine
 10
276.7993237139
 20
140.2049861629
 30
0.0
 11
277.9508556487
 21
141.7809217949
 31
0.0
  0
CIRCLE
  5
19B
330
1F
100
AcDbEntity
  8
0
  6
SLD-Gestrichelt
 62
     7
370
     0
100
AcDbCircle
 10
271.775664165
 20
135.2964842233
 30
0.0
 40
1.649037370103106
  0
LINE
  5
19C
330
1F
100
AcDbEntity
  8
0
  6
SLD-Gestrichelt
 62
     7
370
     0
100
AcDbLine
 10
155.0377725871
 20
136.5227266927
 30
0.0
 11
155.0377725871
 21
136.2368609537
 31
0.0
  0
LINE
  5
19D
330
1F
100
AcDbEntity
  8
0
  6
SLD-Gestrichelt
 62
     7
370
     0
100
AcDbLine
 10
158.8577728034
 20
136.5227266927
 30
0.0
 11
158.8577728034
 21
136.2368609537
 31
0.0
  0
LINE
  5
19E
330
1F
100
AcDbEntity
  8
0
  6
SLD-Gestrichelt
 62
     7
370
     0
100
AcDbLine
 10
160.33970446
 20
140.8455498297
 30
0.0
 11
160.33970446
 21
136.2368609537
 31
0.0
  0
ELLIPSE
  5
19F
330
1F
100
AcDbEntity
  8
0
  6
SLD-Gestrichelt
 62
     7
370
     0
100
AcDbEllipse
 10
300.1481917259
 20
121.3868602146
 30
0.0
 11
23.03736361018668
 21
-21.42129099443037
 31
0.0
210
0.0
220
0.0
230
1.0
 40
0.2175948985
 41
3.397905170343551
 42
3.456251188658853
  0
ELLIPSE
  5
1A0
330
1F
100
AcDbEntity
  8
0
  6
SLD-Gestrichelt
 62
     7
370
     0
100
AcDbEllipse
 10
209.2349646111
 20
121.3868602146
 30
0.0
 11
70.340459715197
 21
21.64230698730178
 31
0.0
210
0.0
220
0.0
230
1.0
 40
0.0561699291
 41
5.593381313086461
 42
5.977569939794333
  0
ARC
  5
1A1
330
1F
100
AcDbEntity
  8
0
  6
SLD-Gestrichelt
 62
     7
370
     0
100
AcDbCircle
 10
256.5893440467
 20
155.7111962784
 30
0.0
 40
21.55802530591014
100
AcDbArc
 50
271.4627475843
 51
290.8637405126
  0
ELLIPSE
  5
1A2
330
1F
100
AcDbEntity
  8
0
  6
SLD-Gestrichelt
 62
     7
370
     0
100
AcDbEllipse
 10
271.9244252226
 20
121.3868602146
 30
0.0
 11
7.187366581599008
 21
21.98911925836826
 31
0.0
210
0.0
220
0.0
230
1.0
 40
0.0962569477
 41
0.5759850141614767
 42
1.60224851077458
  0
LWPOLYLINE
  5
1A3
330
1F
100
AcDbEntity
  8
0
  6
SLD-Gestrichelt
 62
     7
370
     0
100
AcDbPolyline
 90
       12
 70
   128
 43
0.0
 10
107.0780518712
 20
96.7967729796
 10
107.1627947749
 20
97.1223223735
 10
107.2138387026
 20
97.1683725496
 10
107.2808864774
 20
97.1740294029
 10
107.315375215
 20
97.1617620219
 10
107.3601569296
 20
97.1347424914
 10
107.3975141407
 20
97.1043068696
 10
107.4359740378
 20
97.066595756
 10
107.4859301807
 20
97.0091070761
 10
107.5602459969
 20
96.9077586909
 10
107.7205713154
 20
96.6296788086
 10
107.98668184
 20
95.9429383059
  0
LWPOLYLINE
  5
1A4
330
1F
100
AcDbEntity
  8
0
  6
SLD-Gestrichelt
 62
     7
370
     0
100
AcDbPolyline
 90
       23
 70
   128
 43
0.0
 10
236.9477699758
 20
108.8244082187
 10
237.6521031619
 20
108.9183018324
 10
238.2993723513
 20
109.1923760962
 10
238.8371478082
 20
109.6244273488
 10
239.2218510868
 20
110.1794527624
 10
239.4223238589
 20
110.8124880832
 10
239.4223238589
 20
111.472248171
 10
239.2218510868
 20
112.1052830261
 10
238.8371478082
 20
112.6603086726
 10
238.2993723513
 20
113.0923596923
 10
237.6521031619
 20
113.3664339562
 10
236.9477699758
 20
113.4603275698
 10
236.2434442402
 20
113.3664339562
 10
235.5961676003
 20
113.0923596923
 10
235.058399594
 20
112.6603086726
 10
234.6736888648
 20
112.1052830261
 10
234.4732160927
 20
111.472248171
 10
234.4732160927
 20
110.8124880832
 10
234.6736888648
 20
110.1794527624
 10
235.058399594
 20
109.6244273488
 10
235.5961676003
 20
109.1923760962
 10
236.2434442402
 20
108.9183018324
 10
236.9477699758
 20
108.8244082187
  0
LINE
  5
1A5
330
1F
100
AcDbEntity
  8
0
  6
SLD-Gestrichelt
 62
     7
370
     0
100
AcDbLine
 10
267.9652895094
 20
116.3868602146
 30
0.0
 11
269.5828403593
 21
121.3868601029
 31
0.0
  0
CIRCLE
  5
1A6
330
1F
100
AcDbEntity
  8
0
  6
SLD-Gestrichelt
 62
     7
370
     0
100
AcDbCircle
 10
145.9477725388
 20
116.3868602146
 30
0.0
 40
5.0
  0
LINE
  5
1A7
330
1F
100
AcDbEntity
  8
0
  6
SLD-Gestrichelt
 62
     7
370
     0
100
AcDbLine
 10
234.44777236
 20
111.1423681271
 30
0.0
 11
234.44777236
 21
110.4868064415
 31
0.0
  0
LINE
  5
1A8
330
1F
100
AcDbEntity
  8
0
  6
SLD-Gestrichelt
 62
     7
370
     0
100
AcDbLine
 10
239.4477750422
 20
110.4868064415
 30
0.0
 11
239.4477750422
 21
111.1423681271
 31
0.0
  0
LINE
  5
1A9
330
1F
100
AcDbEntity
  8
0
  6
SLD-Gestrichelt
 62
     7
370
     0
100
AcDbLine
 10
234.9477733733
 20
110.7472703573
 30
0.0
 11
234.9477733733
 21
109.19441383
 31
0.0
  0
LINE
  5
1AA
330
1F
100
AcDbEntity
  8
0
  6
SLD-Gestrichelt
 62
     7
370
     0
100
AcDbLine
 10
238.9477740289
 20
109.19441383
 30
0.0
 11
238.9477740289
 21
110.7472703573
 31
0.0
  0
LINE
  5
1AB
330
1F
100
AcDbEntity
  8
0
  6
SLD-Gestrichelt
 62
     7
370
     0
100
AcDbLine
 10
237.5542993905
 20
112.4770357986
 30
0.0
 11
237.505773759
 21
112.4882866409
 31
0.0
  0
LINE
  5
1AC
330
1F
100
AcDbEntity
  8
0
  6
SLD-Gestrichelt
 62
     7
370
     0
100
AcDbLine
 10
236.3897661926
 20
112.4882866409
 30
0.0
 11
236.3412480117
 21
112.4770357986
 31
0.0
  0
LINE
  5
1AD
330
1F
100
AcDbEntity
  8
0
  6
SLD-Gestrichelt
 62
     7
370
     0
100
AcDbLine
 10
237.5542993905
 20
112.2185574625
 30
0.0
 11
237.505773759
 21
112.2298083049
 31
0.0
  0
LINE
  5
1AE
330
1F
100
AcDbEntity
  8
0
  6
SLD-Gestrichelt
 62
     7
370
     0
100
AcDbLine
 10
236.3897661926
 20
112.2298083049
 30
0.0
 11
236.3412480117
 21
112.2185574625
 31
0.0
  0
LINE
  5
1AF
330
1F
100
AcDbEntity
  8
0
  6
SLD-Gestrichelt
 62
     7
370
     0
100
AcDbLine
 10
237.5542993905
 20
111.9600786608
 30
0.0
 11
237.505773759
 21
111.9713295032
 31
0.0
  0
LINE
  5
1B0
330
1F
100
AcDbEntity
  8
0
  6
SLD-Gestrichelt
 62
     7
370
     0
100
AcDbLine
 10
236.3897661926
 20
111.9713295032
 30
0.0
 11
236.3412480117
 21
111.9600786608
 31
0.0
  0
LINE
  5
1B1
330
1F
100
AcDbEntity
  8
0
  6
SLD-Gestrichelt
 62
     7
370
     0
100
AcDbLine
 10
237.5542993905
 20
111.7016003248
 30
0.0
 11
237.505773759
 21
111.7128511672
 31
0.0
  0
LINE
  5
1B2
330
1F
100
AcDbEntity
  8
0
  6
SLD-Gestrichelt
 62
     7
370
     0
100
AcDbLine
 10
236.3897661926
 20
111.7128511672
 30
0.0
 11
236.3412480117
 21
111.7016003248
 31
0.0
  0
LINE
  5
1B3
330
1F
100
AcDbEntity
  8
0
  6
SLD-Gestrichelt
 62
     7
370
     0
100
AcDbLine
 10
234.44777236
 20
109.4528921661
 30
0.0
 11
234.44777236
 21
109.2468584669
 31
0.0
  0
LINE
  5
1B4
330
1F
100
AcDbEntity
  8
0
  6
SLD-Gestrichelt
 62
     7
370
     0
100
AcDbLine
 10
239.4477750422
 20
109.2468584669
 30
0.0
 11
239.4477750422
 21
109.4528921661
 31
0.0
  0
CIRCLE
  5
1B5
330
1F
100
AcDbEntity
  8
0
  6
SLD-Gestrichelt
 62
     7
370
     0
100
AcDbCircle
 10
236.9477725388
 20
110.0934694452
 30
0.0
 40
2.000000000000007
  0
LINE
  5
1B6
330
1F
100
AcDbEntity
  8
0
  6
SLD-Gestrichelt
 62
     7
370
     0
100
AcDbLine
 10
270.6138368012
 20
135.1749930312
 30
0.0
 11
270.6138368012
 21
135.0786216338
 31
0.0
  0
LINE
  5
1B7
330
1F
100
AcDbEntity
  8
0
  6
SLD-Gestrichelt
 62
     7
370
     0
100
AcDbLine
 10
272.6131255986
 20
134.8935194094
 30
0.0
 11
272.6131255986
 21
134.9890116383
 31
0.0
  0
LINE
  5
1B8
330
1F
100
AcDbEntity
  8
0
  6
SLD-Gestrichelt
 62
     7
370
     0
100
AcDbLine
 10
270.1098944308
 20
136.4172599991
 30
0.0
 11
270.1098944308
 21
136.3195549478
 31
0.0
  0
LINE
  5
1B9
330
1F
100
AcDbEntity
  8
0
  6
SLD-Gestrichelt
 62
     7
370
     0
100
AcDbLine
 10
273.4384562136
 20
135.9493504991
 30
0.0
 11
273.4384562136
 21
136.0470108469
 31
0.0
  0
LINE
  5
1BA
330
1F
100
AcDbEntity
  8
0
  6
SLD-Gestrichelt
 62
     7
370
     0
100
AcDbLine
 10
270.9352250458
 20
137.4708894421
 30
0.0
 11
270.9352250458
 21
137.3753860374
 31
0.0
  0
LINE
  5
1BB
330
1F
100
AcDbEntity
  8
0
  6
SLD-Gestrichelt
 62
     7
370
     0
100
AcDbLine
 10
272.9345138432
 20
137.190283813
 30
0.0
 11
272.9345138432
 21
137.2865974684
 31
0.0
  0
CIRCLE
  5
1BC
330
1F
100
AcDbEntity
  8
0
  6
SLD-Gestrichelt
 62
     7
370
     0
100
AcDbCircle
 10
271.7763222003
 20
136.0344879977
 30
0.0
 40
1.807478935608935
  0
LINE
  5
1BD
330
1F
100
AcDbEntity
  8
0
  6
SLD-Gestrichelt
 62
     7
370
     0
100
AcDbLine
 10
269.7764958502
 20
135.9679732253
 30
0.0
 11
269.7764958502
 21
135.6122154523
 31
0.0
  0
LINE
  5
1BE
330
1F
100
AcDbEntity
  8
0
  6
SLD-Gestrichelt
 62
     7
370
     0
100
AcDbLine
 10
273.7764890553
 20
135.6122154523
 30
0.0
 11
273.7764890553
 21
135.9679732253
 31
0.0
  0
LINE
  5
1BF
330
1F
100
AcDbEntity
  8
0
  6
SLD-Gestrichelt
 62
     7
370
     0
100
AcDbLine
 10
268.8171888949
 20
136.3235186566
 30
0.0
 11
268.8171888949
 21
136.2538631786
 31
0.0
  0
LINE
  5
1C0
330
1F
100
AcDbEntity
  8
0
  6
SLD-Gestrichelt
 62
     7
370
     0
100
AcDbLine
 10
274.9171878458
 20
136.2538631786
 30
0.0
 11
274.9171878458
 21
136.3235186566
 31
0.0
  0
LINE
  5
1C1
330
1F
100
AcDbEntity
  8
0
  6
SLD-Gestrichelt
 62
     7
370
     0
100
AcDbLine
 10
269.6671809317
 20
136.1945714582
 30
0.0
 11
269.6671809317
 21
136.0465843011
 31
0.0
  0
LINE
  5
1C2
330
1F
100
AcDbEntity
  8
0
  6
SLD-Gestrichelt
 62
     7
370
     0
100
AcDbLine
 10
274.0671809079
 20
136.0465843011
 30
0.0
 11
274.0671809079
 21
136.1945714582
 31
0.0
  0
LINE
  5
1C3
330
1F
100
AcDbEntity
  8
0
  6
SLD-Gestrichelt
 62
     7
370
     0
100
AcDbLine
 10
138.9477725388
 20
91.0629365374
 30
0.0
 11
139.0419333766
 21
91.7329262723
 31
0.0
  0
LINE
  5
1C4
330
1F
100
AcDbEntity
  8
0
  6
SLD-Gestrichelt
 62
     7
370
     0
100
AcDbLine
 10
139.0419333766
 20
141.0407941569
 30
0.0
 11
138.9477725388
 21
141.7107838918
 31
0.0
  0
ARC
  5
1C5
330
1F
100
AcDbEntity
  8
0
  6
SLD-Gestrichelt
 62
     7
370
     0
100
AcDbCircle
 10
138.4477725388
 20
91.8164293529
 30
0.0
 40
0.5999999999999943
100
AcDbArc
 50
352.0
 51
0.0
  0
ARC
  5
1C6
330
1F
100
AcDbEntity
  8
0
  6
SLD-Gestrichelt
 62
     7
370
     0
100
AcDbCircle
 10
138.4477725388
 20
91.8164293529
 30
0.0
 40
0.6000000000000019
100
AcDbArc
 50
0.0
 51
33.5573097619
  0
ARC
  5
1C7
330
1F
100
AcDbEntity
  8
0
  6
SLD-Gestrichelt
 62
     7
370
     0
100
AcDbCircle
 10
138.4477725388
 20
140.9572910763
 30
0.0
 40
0.599999999999998
100
AcDbArc
 50
348.75
 51
8.0
  0
LWPOLYLINE
  5
1C8
330
1F
100
AcDbEntity
  8
0
  6
SLD-Gestrichelt
 62
     7
370
     0
100
AcDbPolyline
 90
        3
 70
   128
 43
0.0
 10
139.0362437087
 20
140.8402375658
 10
139.0021002589
 20
140.7276816447
 10
138.9477725388
 20
140.6256291796
  0
LINE
  5
1C9
330
1F
100
AcDbEntity
  8
0
  6
SLD-Gestrichelt
 62
     7
370
     0
100
AcDbLine
 10
139.0477725363
 20
91.8164286543
 30
0.0
 11
139.0477725363
 21
140.9572917749
 31
0.0
  0
ARC
  5
1CA
330
1F
100
AcDbEntity
  8
0
  6
SLD-Gestrichelt
 62
     7
370
     0
100
AcDbCircle
 10
132.7027745404
 20
104.3868602146
 30
0.0
 40
8.000000000000002
100
AcDbArc
 50
276.8741217427
 51
321.3178125465
  0
ARC
  5
1CB
330
1F
100
AcDbEntity
  8
0
  6
SLD-Gestrichelt
 62
     7
370
     0
100
AcDbCircle
 10
132.7027745404
 20
128.3868602146
 30
0.0
 40
7.999999999999993
100
AcDbArc
 50
38.6821874535
 51
83.1294601384
  0
ARC
  5
1CC
330
1F
100
AcDbEntity
  8
0
  6
SLD-Gestrichelt
 62
     7
370
     0
100
AcDbCircle
 10
122.0302081041
 20
96.9868602146
 30
0.0
 40
0.6000000000000032
100
AcDbArc
 50
210.0
 51
270.0
  0
ARC
  5
1CD
330
1F
100
AcDbEntity
  8
0
  6
SLD-Gestrichelt
 62
     7
370
     0
100
AcDbCircle
 10
122.0302081041
 20
135.7868602146
 30
0.0
 40
0.6000000000000032
100
AcDbArc
 50
90.0
 51
150.0
  0
LINE
  5
1CE
330
1F
100
AcDbEntity
  8
0
  6
SLD-Gestrichelt
 62
     7
370
     0
100
AcDbLine
 10
122.0302085639
 20
96.3868606616
 30
0.0
 11
126.2218800621
 21
96.3868606616
 31
0.0
  0
LINE
  5
1CF
330
1F
100
AcDbEntity
  8
0
  6
SLD-Gestrichelt
 62
     7
370
     0
100
AcDbLine
 10
126.2218800621
 20
136.3868597676
 30
0.0
 11
122.0302085639
 21
136.3868597676
 31
0.0
  0
LINE
  5
1D0
330
1F
100
AcDbEntity
  8
0
  6
SLD-Gestrichelt
 62
     7
370
     0
100
AcDbLine
 10
121.5105920346
 20
136.0868602772
 30
0.0
 11
119.9517480345
 21
133.3868611385
 31
0.0
  0
LINE
  5
1D1
330
1F
100
AcDbEntity
  8
0
  6
SLD-Gestrichelt
 62
     7
370
     0
100
AcDbLine
 10
119.9517480345
 20
99.3868592907
 30
0.0
 11
121.5105920346
 21
96.686860152
 31
0.0
  0
ARC
  5
1D2
330
1F
100
AcDbEntity
  8
0
  6
SLD-Gestrichelt
 62
     7
370
     0
100
AcDbCircle
 10
147.3977725388
 20
100.6618602146
 30
0.0
 40
1.500000000000004
100
AcDbArc
 50
238.2116693829
 51
0.0
  0
ARC
  5
1D3
330
1F
100
AcDbEntity
  8
0
  6
SLD-Gestrichelt
 62
     7
370
     0
100
AcDbCircle
 10
147.3977725388
 20
132.1118602146
 30
0.0
 40
1.500000000000016
100
AcDbArc
 50
0.0
 51
121.7883306171
  0
LINE
  5
1D4
330
1F
100
AcDbEntity
  8
0
  6
SLD-Gestrichelt
 62
     7
370
     0
100
AcDbLine
 10
117.1477723183
 20
99.3868592907
 30
0.0
 11
119.9517480345
 21
99.3868592907
 31
0.0
  0
LINE
  5
1D5
330
1F
100
AcDbEntity
  8
0
  6
SLD-Gestrichelt
 62
     7
370
     0
100
AcDbLine
 10
119.9517480345
 20
133.3868611385
 30
0.0
 11
113.1477716626
 21
133.3868611385
 31
0.0
  0
LINE
  5
1D6
330
1F
100
AcDbEntity
  8
0
  6
SLD-Gestrichelt
 62
     7
370
     0
100
AcDbLine
 10
138.9477725388
 20
99.3868592907
 30
0.0
 11
146.6075985008
 21
99.3868592907
 31
0.0
  0
LINE
  5
1D7
330
1F
100
AcDbEntity
  8
0
  6
SLD-Gestrichelt
 62
     7
370
     0
100
AcDbLine
 10
146.6075985008
 20
133.3868611385
 30
0.0
 11
138.9477725388
 21
133.3868611385
 31
0.0
  0
LINE
  5
1D8
330
1F
100
AcDbEntity
  8
0
  6
SLD-Gestrichelt
 62
     7
370
     0
100
AcDbLine
 10
234.8477716805
 20
121.6313523021
 30
0.0
 11
234.8477716805
 21
117.9570821826
 31
0.0
  0
LINE
  5
1D9
330
1F
100
AcDbEntity
  8
0
  6
SLD-Gestrichelt
 62
     7
370
     0
100
AcDbLine
 10
239.0477757217
 20
121.5679487926
 30
0.0
 11
239.0477757217
 21
121.6313523021
 31
0.0
  0
LINE
  5
1DA
330
1F
100
AcDbEntity
  8
0
  6
SLD-Gestrichelt
 62
     7
370
     0
100
AcDbLine
 10
239.0477757217
 20
117.9551508524
 30
0.0
 11
239.0477757217
 21
120.1688354616
 31
0.0
  0
LINE
  5
1DB
330
1F
100
AcDbEntity
  8
0
  6
SLD-Gestrichelt
 62
     7
370
     0
100
AcDbLine
 10
238.032783127
 20
118.9392358777
 30
0.0
 11
246.8255411149
 21
123.7657014993
 31
0.0
  0
LINE
  5
1DC
330
1F
100
AcDbEntity
  8
0
  6
SLD-Gestrichelt
 62
     7
370
     0
100
AcDbLine
 10
246.8704904677
 20
128.5815132563
 30
0.0
 11
236.8453840972
 21
123.0785996434
 31
0.0
  0
LINE
  5
1DD
330
1F
100
AcDbEntity
  8
0
  6
SLD-Gestrichelt
 62
     7
370
     0
100
AcDbLine
 10
158.2477732809
 20
106.8868605201
 30
0.0
 11
160.7477727593
 21
106.8868605201
 31
0.0
  0
LINE
  5
1DE
330
1F
100
AcDbEntity
  8
0
  6
SLD-Gestrichelt
 62
     7
370
     0
100
AcDbLine
 10
160.7477727593
 20
125.8868599091
 30
0.0
 11
158.2477732809
 21
125.8868599091
 31
0.0
  0
LINE
  5
1DF
330
1F
100
AcDbEntity
  8
0
  6
SLD-Gestrichelt
 62
     7
370
     0
100
AcDbLine
 10
148.8977724002
 20
107.386860602
 30
0.0
 11
149.3977724822
 21
107.8868597527
 31
0.0
  0
LINE
  5
1E0
330
1F
100
AcDbEntity
  8
0
  6
SLD-Gestrichelt
 62
     7
370
     0
100
AcDbLine
 10
149.3977724822
 20
124.8868606765
 30
0.0
 11
148.8977724002
 21
125.3868598272
 31
0.0
  0
LINE
  5
1E1
330
1F
100
AcDbEntity
  8
0
  6
SLD-Gestrichelt
 62
     7
370
     0
100
AcDbLine
 10
149.3977724822
 20
107.8868597527
 30
0.0
 11
158.2477732809
 21
107.8868597527
 31
0.0
  0
LINE
  5
1E2
330
1F
100
AcDbEntity
  8
0
  6
SLD-Gestrichelt
 62
     7
370
     0
100
AcDbLine
 10
158.2477732809
 20
124.8868606765
 30
0.0
 11
149.3977724822
 21
124.8868606765
 31
0.0
  0
LINE
  5
1E3
330
1F
100
AcDbEntity
  8
0
  6
SLD-Gestrichelt
 62
     7
370
     0
100
AcDbLine
 10
143.897772512
 20
147.8868607213
 30
0.0
 11
143.897772512
 21
142.7868600716
 31
0.0
  0
LINE
  5
1E4
330
1F
100
AcDbEntity
  8
0
  6
SLD-Gestrichelt
 62
     7
370
     0
100
AcDbLine
 10
134.1322103763
 20
92.3074889709
 30
0.0
 11
133.6977781975
 21
92.7865557153
 31
0.0
  0
LINE
  5
1E5
330
1F
100
AcDbEntity
  8
0
  6
SLD-Gestrichelt
 62
     7
370
     0
100
AcDbLine
 10
126.1977746399
 20
93.208243676
 30
0.0
 11
125.7153411643
 21
92.7291769315
 31
0.0
  0
LINE
  5
1E6
330
1F
100
AcDbEntity
  8
0
  6
SLD-Gestrichelt
 62
     7
370
     0
100
AcDbLine
 10
125.7152191611
 20
140.0445379098
 30
0.0
 11
126.1977699832
 21
139.5654171486
 31
0.0
  0
LINE
  5
1E7
330
1F
100
AcDbEntity
  8
0
  6
SLD-Gestrichelt
 62
     7
370
     0
100
AcDbLine
 10
133.6977726096
 20
139.9871162851
 30
0.0
 11
134.1323146844
 21
140.4662351836
 31
0.0
  0
LINE
  5
1E8
330
1F
100
AcDbEntity
  8
0
  6
SLD-Gestrichelt
 62
     7
370
     0
100
AcDbLine
 10
240.0477702977
 20
112.1868603644
 30
0.0
 11
242.571386254
 21
116.3868602146
 31
0.0
  0
LINE
  5
1E9
330
1F
100
AcDbEntity
  8
0
  6
SLD-Gestrichelt
 62
     7
370
     0
100
AcDbLine
 10
242.571386254
 20
116.3868602146
 30
0.0
 11
240.0477702977
 21
120.5868600649
 31
0.0
  0
LINE
  5
1EA
330
1F
100
AcDbEntity
  8
0
  6
SLD-Gestrichelt
 62
     7
370
     0
100
AcDbLine
 10
160.7477727593
 20
112.1868603644
 30
0.0
 11
240.0477702977
 21
112.1868603644
 31
0.0
  0
LINE
  5
1EB
330
1F
100
AcDbEntity
  8
0
  6
SLD-Gestrichelt
 62
     7
370
     0
100
AcDbLine
 10
240.0477702977
 20
120.5868600649
 30
0.0
 11
160.7477727593
 21
120.5868600649
 31
0.0
  0
LINE
  5
1EC
330
1F
100
AcDbEntity
  8
0
  6
SLD-Gestrichelt
 62
     7
370
     0
100
AcDbLine
 10
133.6977726096
 20
92.7870381404
 30
0.0
 11
133.6977726096
 21
96.4514590581
 31
0.0
  0
LINE
  5
1ED
330
1F
100
AcDbEntity
  8
0
  6
SLD-Gestrichelt
 62
     7
370
     0
100
AcDbLine
 10
126.1977727772
 20
96.3912378777
 30
0.0
 11
126.1977727772
 21
93.2085659136
 31
0.0
  0
LINE
  5
1EE
330
1F
100
AcDbEntity
  8
0
  6
SLD-Gestrichelt
 62
     7
370
     0
100
AcDbLine
 10
133.6977726096
 20
136.3222613712
 30
0.0
 11
133.6977726096
 21
139.9865630795
 31
0.0
  0
LINE
  5
1EF
330
1F
100
AcDbEntity
  8
0
  6
SLD-Gestrichelt
 62
     7
370
     0
100
AcDbLine
 10
126.1977727772
 20
139.5651619662
 30
0.0
 11
126.1977727772
 21
136.3824825515
 31
0.0
  0
LINE
  5
1F0
330
1F
100
AcDbEntity
  8
0
  6
SLD-Gestrichelt
 62
     7
370
     0
100
AcDbLine
 10
262.6995171668
 20
130.3041051854
 30
0.0
 11
262.6995171668
 21
130.1994701628
 31
0.0
  0
LINE
  5
1F1
330
1F
100
AcDbEntity
  8
0
  6
SLD-Gestrichelt
 62
     7
370
     0
100
AcDbLine
 10
234.8477716805
 20
114.8185695768
 30
0.0
 11
234.8477716805
 21
111.23240234
 31
0.0
  0
LINE
  5
1F2
330
1F
100
AcDbEntity
  8
0
  6
SLD-Gestrichelt
 62
     7
370
     0
100
AcDbLine
 10
239.0477757217
 20
111.23240234
 30
0.0
 11
239.0477757217
 21
114.8166382466
 31
0.0
  0
LINE
  5
1F3
330
1F
100
AcDbEntity
  8
0
  6
SLD-Gestrichelt
 62
     7
370
     0
100
AcDbLine
 10
270.1264943243
 20
135.9037976493
 30
0.0
 11
270.1264943243
 21
135.2934274603
 31
0.0
  0
LINE
  5
1F4
330
1F
100
AcDbEntity
  8
0
  6
SLD-Gestrichelt
 62
     7
370
     0
100
AcDbLine
 10
273.4264905812
 20
135.2934274603
 30
0.0
 11
273.4264905812
 21
135.9037976493
 31
0.0
  0
LINE
  5
1F5
330
1F
100
AcDbEntity
  8
0
  6
SLD-Gestrichelt
 62
     7
370
     0
100
AcDbLine
 10
234.44777236
 20
111.1423681271
 30
0.0
 11
234.44777236
 21
108.8961838525
 31
0.0
  0
LINE
  5
1F6
330
1F
100
AcDbEntity
  8
0
  6
SLD-Gestrichelt
 62
     7
370
     0
100
AcDbLine
 10
239.4477750422
 20
108.8947566007
 30
0.0
 11
239.4477750422
 21
111.1423681271
 31
0.0
  0
LINE
  5
1F7
330
1F
100
AcDbEntity
  8
VERMASSUNG
100
AcDbLine
 10
278.9477725388
 20
116.3868602146
 30
0.0
 11
278.9477725388
 21
143.3868602146
 31
0.0
  0
POINT
  5
1F8
330
1F
100
AcDbEntity
  8
VERMASSUNG
100
AcDbPoint
 10
278.9477725388
 20
143.3868602146
 30
0.0
  0
DIMENSION
  5
1F9
330
1F
100
AcDbEntity
  8
VERMASSUNG
100
AcDbDimension
  2
_D
 10
138.9477725388
 20
153.7098483008
 30
0.0
 11
204.2273909101
 21
153.7098483008
 31
0.0
 70
   160
  1
<>
 71
     2
 42
-1.0
  3
SLDDIMSTYLE0
100
AcDbAlignedDimension
 13
278.9477725388
 23
143.3868602146
 33
0.0
 14
138.9477725388
 24
147.5868602146
 34
0.0
100
AcDbRotatedDimension
  0
DIMENSION
  5
204
330
1F
100
AcDbEntity
  8
VERMASSUNG
100
AcDbDimension
  2
_D_1
 10
107.0477725388
 20
159.7098483008
 30
0.0
 11
189.4648399095
 21
159.7098483008
 31
0.0
 70
   160
  1
<>
 71
     2
 42
-1.0
  3
SLDDIMSTYLE0
100
AcDbAlignedDimension
 13
278.9477725388
 23
143.3868602146
 33
0.0
 14
107.0477725388
 24
136.0775379611
 34
0.0
100
AcDbRotatedDimension
  0
DIMENSION
  5
20E
330
1F
100
AcDbEntity
  8
VERMASSUNG
100
AcDbDimension
  2
_D_2
 10
284.4927221095
 20
116.3868602146
 30
0.0
 11
284.4927221095
 21
129.8308480939
 31
0.0
 70
   160
  1
<>
 71
     2
 42
-1.0
  3
SLDDIMSTYLE0
100
AcDbAlignedDimension
 13
278.9477725388
 23
143.3868602146
 33
0.0
 14
271.5918184689
 24
116.3868602146
 34
0.0
 50
90.0
100
AcDbRotatedDimension
  0
DIMENSION
  5
218
330
1F
100
AcDbEntity
  8
VERMASSUNG
100
AcDbDimension
  2
_D_3
 10
101.9495976437
 20
84.8868602146
 30
0.0
 11
101.9495976437
 21
115.7176266507
 31
0.0
 70
   160
  1
HSK %%c<>
 71
     2
 42
-1.0
  3
SLDDIMSTYLE0
100
AcDbAlignedDimension
 13
139.2477725388
 23
147.8868602146
 33
0.0
 14
139.2477725388
 24
84.8868602146
 34
0.0
 50
90.0
100
AcDbRotatedDimension
  0
DIMENSION
  5
224
330
1F
100
AcDbEntity
  8
VERMASSUNG
100
AcDbDimension
  2
_D_4
 10
270.3010657966
 20
116.3868602146
 30
0.0
 11
274.5204370058
 21
110.7310232664
 31
0.0
 70
   162
  1
<>
 71
     1
 42
-1.0
  3
SLDDIMSTYLE1
100
AcDb2LineAngularDimension
 13
278.9477725388
 23
116.3868602146
 33
0.0
 14
278.9477725388
 24
143.3868602146
 34
0.0
 15
274.7390279079
 25
130.4815941229
 35
0.0
 16
273.871524232
 26
110.8242628488
 36
0.0
  0
LINE
  5
22F
330
1F
100
AcDbEntity
  8
VERMASSUNG
  6
SLD-Punktstrich
 62
     7
370
     0
100
AcDbLine
 10
104.8864628881
 20
116.3868602146
 30
0.0
 11
271.5918184689
 21
116.3868602146
 31
0.0
  0
LWPOLYLINE
  5
230
330
1F
100
AcDbEntity
  8
0
  6
SLD-Durchgehend
 62
     7
370
    15
100
AcDbPolyline
 90
        8
 70
   128
 43
0.0
 10
57.545695994
 20
142.8761143018
 10
57.5551607834
 20
143.0114671369
 10
57.5644926866
 20
143.1449200739
 10
57.5724206218
 20
143.2582936962
 10
57.578141376
 20
143.3401047964
 10
57.5811881712
 20
143.3836757918
 10
57.5812896744
 20
143.3851267923
 10
57.5803017375
 20
143.3709986289
  0
LWPOLYLINE
  5
231
330
1F
100
AcDbEntity
  8
0
  6
SLD-Durchgehend
 62
     7
370
    15
100
AcDbPolyline
 90
        4
 70
   128
 43
0.0
 10
57.5803017375
 20
143.3709986289
 10
58.6710522056
 20
143.1256882627
 10
59.7842117876
 20
142.9032977451
 10
61.500495869
 20
142.5201069344
  0
LWPOLYLINE
  5
232
330
1F
100
AcDbEntity
  8
0
  6
SLD-Durchgehend
 62
     7
370
    15
100
AcDbPolyline
 90
        8
 70
   128
 43
0.0
 10
61.500495869
 20
142.5201069344
 10
61.5008278855
 20
142.5248529543
 10
61.5003491857
 20
142.5180058707
 10
61.499131947
 20
142.5006031771
 10
61.4973601058
 20
142.4752600272
 10
61.4952255145
 20
142.4447368611
 10
61.4929214225
 20
142.4117848058
 10
61.4918108203
 20
142.3959038933
  0
LINE
  5
233
330
1F
100
AcDbEntity
  8
0
  6
SLD-Durchgehend
 62
     7
370
    15
100
AcDbLine
 10
60.8135320817
 20
132.6960656573
 30
0.0
 11
61.4918108203
 21
142.3959038933
 31
0.0
  0
LINE
  5
234
330
1F
100
AcDbEntity
  8
0
  6
SLD-Durchgehend
 62
     7
370
    15
100
AcDbLine
 10
56.8364080263
 20
132.7328230967
 30
0.0
 11
57.545695994
 21
142.8761143018
 31
0.0
  0
LWPOLYLINE
  5
235
330
1F
100
AcDbEntity
  8
0
  6
SLD-Durchgehend
 62
     7
370
    15
100
AcDbPolyline
 90
        4
 70
   128
 43
0.0
 10
60.8135320817
 20
132.6960656573
 10
60.8119357948
 20
132.673238941
 10
60.8102035348
 20
132.6484676231
 10
60.8090107434
 20
132.6314095189
  0
LWPOLYLINE
  5
236
330
1F
100
AcDbEntity
  8
0
  6
SLD-Durchgehend
 62
     7
370
    15
100
AcDbPolyline
 90
        4
 70
   128
 43
0.0
 10
56.8183235463
 20
132.4742041309
 10
56.822574801
 20
132.5349990059
 10
56.8293300329
 20
132.631603234
 10
56.8364080263
 20
132.7328230967
  0
LINE
  5
237
330
1F
100
AcDbEntity
  8
0
  6
SLD-Durchgehend
 62
     7
370
    15
100
AcDbLine
 10
56.5946858714
 20
129.2760368217
 30
0.0
 11
56.8971480697
 21
129.3007708867
 31
0.0
  0
LINE
  5
238
330
1F
100
AcDbEntity
  8
0
  6
SLD-Durchgehend
 62
     7
370
    15
100
AcDbLine
 10
60.8049345773
 20
132.5731180389
 30
0.0
 11
60.8090107434
 21
132.6314095189
 31
0.0
  0
LINE
  5
239
330
1F
100
AcDbEntity
  8
0
  6
SLD-Durchgehend
 62
     7
370
    15
100
AcDbLine
 10
56.5946858714
 20
129.2760368217
 30
0.0
 11
56.8183235463
 21
132.4742041309
 31
0.0
  0
LINE
  5
23A
330
1F
100
AcDbEntity
  8
0
  6
SLD-Durchgehend
 62
     7
370
    15
100
AcDbLine
 10
78.0814114131
 20
116.3868602146
 30
0.0
 11
78.0814114131
 21
121.3868601029
 31
0.0
  0
ARC
  5
23B
330
1F
100
AcDbEntity
  8
0
  6
SLD-Durchgehend
 62
     7
370
    15
100
AcDbCircle
 10
57.5814108469
 20
116.3868602146
 30
0.0
 40
20.50000000000001
100
AcDbArc
 50
261.5700482425
 51
0.0
  0
LINE
  5
23C
330
1F
100
AcDbEntity
  8
0
  6
SLD-Durchgehend
 62
     7
370
    15
100
AcDbLine
 10
57.1188163757
 20
132.4707750012
 30
0.0
 11
54.5761076372
 21
96.1083449204
 31
0.0
  0
LINE
  5
23D
330
1F
100
AcDbEntity
  8
0
  6
SLD-Durchgehend
 62
     7
370
    15
100
AcDbLine
 10
57.1188163757
 20
132.4707750012
 30
0.0
 11
59.298346854
 21
132.5312886168
 31
0.0
  0
LINE
  5
23E
330
1F
100
AcDbEntity
  8
0
  6
SLD-Durchgehend
 62
     7
370
    15
100
AcDbLine
 10
59.298346854
 20
132.5312886168
 30
0.0
 11
60.7899766054
 21
132.3592081447
 31
0.0
  0
LINE
  5
23F
330
1F
100
AcDbEntity
  8
0
  6
SLD-Durchgehend
 62
     7
370
    15
100
AcDbLine
 10
60.8049345773
 20
132.5731180389
 30
0.0
 11
60.7899766054
 21
132.3592081447
 31
0.0
  0
LINE
  5
240
330
1F
100
AcDbEntity
  8
0
  6
SLD-Durchgehend
 62
     7
370
    15
100
AcDbLine
 10
67.4778186821
 20
140.2049861629
 30
0.0
 11
61.4488070004
 21
141.7809217949
 31
0.0
  0
ARC
  5
241
330
1F
100
AcDbEntity
  8
0
  6
SLD-Durchgehend
 62
     7
370
    15
100
AcDbCircle
 10
56.0814108469
 20
121.3868602146
 30
0.0
 40
21.99999999999999
100
AcDbArc
 50
0.0
 51
58.8005670243
  0
LINE
  5
242
330
1F
100
AcDbEntity
  8
0
  6
SLD-Durchgehend
 62
     7
370
    15
100
AcDbLine
 10
61.4721987967
 20
142.1154379626
 30
0.0
 11
66.3610865467
 21
140.8375218291
 31
0.0
  0
ARC
  5
243
330
1F
100
AcDbEntity
  8
0
  6
SLD-Durchgehend
 62
     7
370
    15
100
AcDbCircle
 10
56.0814108469
 20
121.3868602146
 30
0.0
 40
22.0
100
AcDbArc
 50
58.8005670243
 51
62.1435476251
  0
ARC
  5
244
330
1F
100
AcDbEntity
  8
0
  6
SLD-Durchgehend
 62
     7
370
    15
100
AcDbCircle
 10
57.5074375736
 20
117.2386162433
 30
0.0
 40
19.14558711553564
100
AcDbArc
 50
91.2450835238
 51
97.0628357322
  0
ARC
  5
245
330
1F
100
AcDbEntity
  8
0
  6
SLD-Durchgehend
 62
     7
370
    15
100
AcDbCircle
 10
57.5812843911
 20
116.3862591597
 30
0.0
 40
19.99938591306252
100
AcDbArc
 50
255.0267887777
 51
261.4591720002
  0
ELLIPSE
  5
246
330
1F
100
AcDbEntity
  8
0
  6
SLD-Durchgehend
 62
     7
370
    15
100
AcDbEllipse
 10
48.8229406157
 20
126.1736073279
 30
0.0
 11
1.671891056518923
 21
2.056818332087829
 31
0.0
210
0.0
220
0.0
230
1.0
 40
0.7749617504
 41
0.0
 42
6.283185307179586
  0
ARC
  5
247
330
1F
100
AcDbEntity
  8
0
  6
SLD-Durchgehend
 62
     7
370
    15
100
AcDbCircle
 10
57.5814108469
 20
116.3868602146
 30
0.0
 40
20.00000000000002
100
AcDbArc
 50
96.9731161125
 51
255.0268838875
  0
LINE
  5
248
330
1F
100
AcDbEntity
  8
0
  6
SLD-Durchgehend
 62
     7
370
    15
100
AcDbLine
 10
48.5814112343
 20
86.8265829761
 30
0.0
 11
48.5814112343
 21
86.1999425818
 31
0.0
  0
ARC
  5
249
330
1F
100
AcDbEntity
  8
0
  6
SLD-Durchgehend
 62
     7
370
    15
100
AcDbCircle
 10
57.5814108469
 20
116.3868602146
 30
0.0
 40
31.50000000000001
100
AcDbArc
 50
140.9381656697
 51
253.398450401
  0
LINE
  5
24A
330
1F
100
AcDbEntity
  8
0
  6
SLD-Durchgehend
 62
     7
370
    15
100
AcDbLine
 10
33.1227212318
 20
136.2368609537
 30
0.0
 11
33.9004594006
 21
136.2368609537
 31
0.0
  0
LINE
  5
24B
330
1F
100
AcDbEntity
  8
0
  6
SLD-Durchgehend
 62
     7
370
    15
100
AcDbLine
 10
49.5814104669
 20
146.2333012153
 30
0.0
 11
49.5814104669
 21
146.854055651
 31
0.0
  0
LINE
  5
24C
330
1F
100
AcDbEntity
  8
0
  6
SLD-Durchgehend
 62
     7
370
    15
100
AcDbLine
 10
37.7314101078
 20
140.8455498297
 30
0.0
 11
37.7314101078
 21
140.0678116609
 31
0.0
  0
ARC
  5
24D
330
1F
100
AcDbEntity
  8
0
  6
SLD-Durchgehend
 62
     7
370
    15
100
AcDbCircle
 10
57.5814108469
 20
116.3868602146
 30
0.0
 40
31.49999999999999
100
AcDbArc
 50
104.7124579609
 51
129.0618343303
  0
LINE
  5
24E
330
1F
100
AcDbEntity
  8
0
  6
SLD-Durchgehend
 62
     7
370
    15
100
AcDbLine
 10
65.5814112269
 20
146.854055651
 30
0.0
 11
65.5814112269
 21
146.2333012153
 31
0.0
  0
ARC
  5
24F
330
1F
100
AcDbEntity
  8
0
  6
SLD-Durchgehend
 62
     7
370
    15
100
AcDbCircle
 10
57.5814108469
 20
116.3868602146
 30
0.0
 40
31.49999999999999
100
AcDbArc
 50
286.601549599
 51
75.2875420391
  0
LINE
  5
250
330
1F
100
AcDbEntity
  8
0
  6
SLD-Durchgehend
 62
     7
370
    15
100
AcDbLine
 10
66.5814104595
 20
86.1999425818
 30
0.0
 11
66.5814104595
 21
86.8265829761
 31
0.0
  0
LINE
  5
251
330
1F
100
AcDbEntity
  8
0
  6
SLD-Durchgehend
 62
     7
370
    15
100
AcDbLine
 10
65.5814112269
 20
142.7868600716
 30
0.0
 11
60.3057291463
 21
142.7868600716
 31
0.0
  0
LINE
  5
252
330
1F
100
AcDbEntity
  8
0
  6
SLD-Durchgehend
 62
     7
370
    15
100
AcDbLine
 10
57.5394547613
 20
142.7868600716
 30
0.0
 11
49.5814104669
 21
142.7868600716
 31
0.0
  0
LINE
  5
253
330
1F
100
AcDbEntity
  8
0
  6
SLD-Durchgehend
 62
     7
370
    15
100
AcDbLine
 10
66.5814104595
 20
89.9868603577
 30
0.0
 11
48.5814112343
 21
89.9868603577
 31
0.0
  0
LINE
  5
254
330
1F
100
AcDbEntity
  8
0
  6
SLD-Durchgehend
 62
     7
370
    15
100
AcDbLine
 10
65.5814112269
 20
146.2333012153
 30
0.0
 11
65.5814112269
 21
142.7868600716
 31
0.0
  0
LINE
  5
255
330
1F
100
AcDbEntity
  8
0
  6
SLD-Durchgehend
 62
     7
370
    15
100
AcDbLine
 10
66.5814104595
 20
86.8265829761
 30
0.0
 11
66.5814104595
 21
89.9868603577
 31
0.0
  0
LINE
  5
256
330
1F
100
AcDbEntity
  8
0
  6
SLD-Durchgehend
 62
     7
370
    15
100
AcDbLine
 10
49.5814104669
 20
142.7868600716
 30
0.0
 11
49.5814104669
 21
146.2333012153
 31
0.0
  0
LINE
  5
257
330
1F
100
AcDbEntity
  8
0
  6
SLD-Durchgehend
 62
     7
370
    15
100
AcDbLine
 10
48.5814112343
 20
89.9868603577
 30
0.0
 11
48.5814112343
 21
86.8265829761
 31
0.0
  0
LINE
  5
258
330
1F
100
AcDbEntity
  8
0
  6
SLD-Durchgehend
 62
     7
370
    15
100
AcDbLine
 10
37.7314101078
 20
140.0678116609
 30
0.0
 11
37.7314101078
 21
136.2368609537
 31
0.0
  0
LINE
  5
259
330
1F
100
AcDbEntity
  8
0
  6
SLD-Durchgehend
 62
     7
370
    15
100
AcDbLine
 10
33.9004594006
 20
136.2368609537
 30
0.0
 11
37.7314101078
 21
136.2368609537
 31
0.0
  0
ARC
  5
25A
330
1F
100
AcDbEntity
  8
0
  6
SLD-Durchgehend
 62
     7
370
    15
100
AcDbCircle
 10
57.5828162156
 20
116.3781807946
 30
0.0
 40
31.49128069790734
100
AcDbArc
 50
271.8171650148
 51
286.6036104447
  0
ARC
  5
25B
330
1F
100
AcDbEntity
  8
0
  6
SLD-Durchgehend
 62
     7
370
    15
100
AcDbCircle
 10
57.5845576897
 20
116.4062547464
 30
0.0
 40
31.5194850954945
100
AcDbArc
 50
253.4030421033
 51
268.1761824372
  0
ARC
  5
25C
330
1F
100
AcDbEntity
  8
0
  6
SLD-Durchgehend
 62
     7
370
    15
100
AcDbCircle
 10
57.5814108469
 20
116.3834334813
 30
0.0
 40
31.50331445242655
100
AcDbArc
 50
75.289124154
 51
104.710875846
  0
ARC
  5
25D
330
1F
100
AcDbEntity
  8
0
  6
SLD-Durchgehend
 62
     7
370
    15
100
AcDbCircle
 10
57.5810599764
 20
116.3872110851
 30
0.0
 40
31.49950688590019
100
AcDbArc
 50
129.0617420529
 51
140.9382579471
  0
ARC
  5
25E
330
1F
100
AcDbEntity
  8
0
  6
SLD-Durchgehend
 62
     7
370
    15
100
AcDbCircle
 10
57.5814108469
 20
116.3868602146
 30
0.0
 40
31.49999999999999
100
AcDbArc
 50
268.180780706
 51
271.819219294
  0
ARC
  5
25F
330
1F
100
AcDbEntity
  8
0
  6
SLD-Durchgehend
 62
     7
370
    15
100
AcDbCircle
 10
56.46742516
 20
110.2099767718
 30
0.0
 40
13.72372590287704
100
AcDbArc
 50
259.1464679712
 51
262.227173372
  0
LINE
  5
260
330
1F
100
AcDbEntity
  8
0
  6
SLD-Durchgehend
 62
     7
370
    15
100
AcDbLine
 10
57.0908384269
 20
136.3713476588
 30
0.0
 11
56.5900439268
 21
136.3600469907
 31
0.0
  0
LINE
  5
261
330
1F
100
AcDbEntity
  8
0
  6
SLD-Durchgehend
 62
     7
370
    15
100
AcDbLine
 10
55.2828531817
 20
136.2520061214
 30
0.0
 11
55.108341492
 21
136.228933536
 31
0.0
  0
CIRCLE
  5
262
330
1F
100
AcDbEntity
  8
VERMASSUNG
  6
SLD-Punktstrich
100
AcDbCircle
 10
57.5814108469
 20
118.388956844
 30
0.0
 40
25.0
  0
DIMENSION
  5
263
330
1F
100
AcDbEntity
  8
VERMASSUNG
100
AcDbDimension
  2
_D_5
 10
22.3003643294
 20
143.388956844
 30
0.0
 11
22.3003643294
 21
118.9361276875
 31
0.0
 70
   160
  1
%%c<>
 71
     2
 42
-1.0
  3
SLDDIMSTYLE0
100
AcDbAlignedDimension
 13
57.5814108469
 23
93.388956844
 33
0.0
 14
57.5814108469
 24
143.388956844
 34
0.0
 50
90.0
100
AcDbRotatedDimension
  0
OLE2FRAME
  5
26E
330
1F
100
AcDbEntity
  8
0
100
AcDbOle2Frame
 70
     2
  3
Paintbrush-Bild
 10
13.8511154363
 20
38.264191557
 30
0.0
 11
51.6290888628
 21
31.9806341108
 31
0.0
 71
     2
 72
     0
 73
     1
 90
    12928
310
80552BED0767C5B32B40DDAF6807D121434000000000000000006FFBDDFB85D0
310
4940DDAF6807D121434000000000000000006FFBDDFB85D04940416F4BD60AFB
310
3F4000000000000000002BED0767C5B32B40416F4BD60AFB3F40000000000000
310
0000000000000100000000010000010000000100000000000100000000320000
310
D0CF11E0A1B11AE1000000000000000000000000000000003E000300FEFF0900
310
0600000000000000000000000100000001000000000000000010000002000000
310
01000000FEFFFFFF0000000000000000FFFFFFFFFFFFFFFFFFFFFFFFFFFFFFFF
310
FFFFFFFFFFFFFFFFFFFFFFFFFFFFFFFFFFFFFFFFFFFFFFFFFFFFFFFFFFFFFFFF
310
FFFFFFFFFFFFFFFFFFFFFFFFFFFFFFFFFFFFFFFFFFFFFFFFFFFFFFFFFFFFFFFF
310
FFFFFFFFFFFFFFFFFFFFFFFFFFFFFFFFFFFFFFFFFFFFFFFFFFFFFFFFFFFFFFFF
310
FFFFFFFFFFFFFFFFFFFFFFFFFFFFFFFFFFFFFFFFFFFFFFFFFFFFFFFFFFFFFFFF
310
FFFFFFFFFFFFFFFFFFFFFFFFFFFFFFFFFFFFFFFFFFFFFFFFFFFFFFFFFFFFFFFF
310
FFFFFFFFFFFFFFFFFFFFFFFFFFFFFFFFFFFFFFFFFFFFFFFFFFFFFFFFFFFFFFFF
310
FFFFFFFFFFFFFFFFFFFFFFFFFFFFFFFFFFFFFFFFFFFFFFFFFFFFFFFFFFFFFFFF
310
FFFFFFFFFFFFFFFFFFFFFFFFFFFFFFFFFFFFFFFFFFFFFFFFFFFFFFFFFFFFFFFF
310
FFFFFFFFFFFFFFFFFFFFFFFFFFFFFFFFFFFFFFFFFFFFFFFFFFFFFFFFFFFFFFFF
310
FFFFFFFFFFFFFFFFFFFFFFFFFFFFFFFFFFFFFFFFFFFFFFFFFFFFFFFFFFFFFFFF
310
FFFFFFFFFFFFFFFFFFFFFFFFFFFFFFFFFFFFFFFFFFFFFFFFFFFFFFFFFFFFFFFF
310
FFFFFFFFFFFFFFFFFFFFFFFFFFFFFFFFFFFFFFFFFFFFFFFFFFFFFFFFFFFFFFFF
310
FFFFFFFFFFFFFFFFFFFFFFFFFFFFFFFFFFFFFFFFFFFFFFFFFFFFFFFFFFFFFFFF
310
FDFFFFFFFEFFFFFFFEFFFFFFFEFFFFFF05000000060000000700000008000000
310
090000000A0000000B0000000C0000000D0000000E0000000F00000010000000
310
11000000120000001300000014000000150000001600000017000000FEFFFFFF
310
FFFFFFFFFFFFFFFFFFFFFFFFFFFFFFFFFFFFFFFFFFFFFFFFFFFFFFFFFFFFFFFF
310
FFFFFFFFFFFFFFFFFFFFFFFFFFFFFFFFFFFFFFFFFFFFFFFFFFFFFFFFFFFFFFFF
310
FFFFFFFFFFFFFFFFFFFFFFFFFFFFFFFFFFFFFFFFFFFFFFFFFFFFFFFFFFFFFFFF
310
FFFFFFFFFFFFFFFFFFFFFFFFFFFFFFFFFFFFFFFFFFFFFFFFFFFFFFFFFFFFFFFF
310
FFFFFFFFFFFFFFFFFFFFFFFFFFFFFFFFFFFFFFFFFFFFFFFFFFFFFFFFFFFFFFFF
310
FFFFFFFFFFFFFFFFFFFFFFFFFFFFFFFFFFFFFFFFFFFFFFFFFFFFFFFFFFFFFFFF
310
FFFFFFFFFFFFFFFFFFFFFFFFFFFFFFFFFFFFFFFFFFFFFFFFFFFFFFFFFFFFFFFF
310
FFFFFFFFFFFFFFFFFFFFFFFFFFFFFFFFFFFFFFFFFFFFFFFFFFFFFFFFFFFFFFFF
310
FFFFFFFFFFFFFFFFFFFFFFFFFFFFFFFFFFFFFFFFFFFFFFFFFFFFFFFFFFFFFFFF
310
FFFFFFFFFFFFFFFFFFFFFFFFFFFFFFFFFFFFFFFFFFFFFFFFFFFFFFFFFFFFFFFF
310
FFFFFFFFFFFFFFFFFFFFFFFFFFFFFFFFFFFFFFFFFFFFFFFFFFFFFFFFFFFFFFFF
310
FFFFFFFFFFFFFFFFFFFFFFFFFFFFFFFFFFFFFFFFFFFFFFFFFFFFFFFFFFFFFFFF
310
FFFFFFFFFFFFFFFFFFFFFFFFFFFFFFFFFFFFFFFFFFFFFFFFFFFFFFFFFFFFFFFF
310
52006F006F007400200045006E00740072007900000000000000000000000000
310
0000000000000000000000000000000000000000000000000000000000000000
310
16000500FFFFFFFFFFFFFFFF020000000A00030000000000C000000000000046
310
000000000000000000000000D02C2584ED49D00103000000C000000000000000
310
01004F006C006500000000000000000000000000000000000000000000000000
310
0000000000000000000000000000000000000000000000000000000000000000
310
0A000200FFFFFFFFFFFFFFFFFFFFFFFF00000000000000000000000000000000
310
0000000000000000000000000000000000000000000000001400000000000000
310
010043006F006D0070004F0062006A0000000000000000000000000000000000
310
0000000000000000000000000000000000000000000000000000000000000000
310
120002010100000003000000FFFFFFFF00000000000000000000000000000000
310
0000000000000000000000000000000000000000010000004D00000000000000
310
01004F006C006500310030004E00610074006900760065000000000000000000
310
0000000000000000000000000000000000000000000000000000000000000000
310
1A000200FFFFFFFFFFFFFFFFFFFFFFFF00000000000000000000000000000000
310
0000000000000000000000000000000000000000040000002426000000000000
310
FEFFFFFF02000000FEFFFFFFFFFFFFFFFFFFFFFFFFFFFFFFFFFFFFFFFFFFFFFF
310
FFFFFFFFFFFFFFFFFFFFFFFFFFFFFFFFFFFFFFFFFFFFFFFFFFFFFFFFFFFFFFFF
310
FFFFFFFFFFFFFFFFFFFFFFFFFFFFFFFFFFFFFFFFFFFFFFFFFFFFFFFFFFFFFFFF
310
FFFFFFFFFFFFFFFFFFFFFFFFFFFFFFFFFFFFFFFFFFFFFFFFFFFFFFFFFFFFFFFF
310
FFFFFFFFFFFFFFFFFFFFFFFFFFFFFFFFFFFFFFFFFFFFFFFFFFFFFFFFFFFFFFFF
310
FFFFFFFFFFFFFFFFFFFFFFFFFFFFFFFFFFFFFFFFFFFFFFFFFFFFFFFFFFFFFFFF
310
FFFFFFFFFFFFFFFFFFFFFFFFFFFFFFFFFFFFFFFFFFFFFFFFFFFFFFFFFFFFFFFF
310
FFFFFFFFFFFFFFFFFFFFFFFFFFFFFFFFFFFFFFFFFFFFFFFFFFFFFFFFFFFFFFFF
310
FFFFFFFFFFFFFFFFFFFFFFFFFFFFFFFFFFFFFFFFFFFFFFFFFFFFFFFFFFFFFFFF
310
FFFFFFFFFFFFFFFFFFFFFFFFFFFFFFFFFFFFFFFFFFFFFFFFFFFFFFFFFFFFFFFF
310
FFFFFFFFFFFFFFFFFFFFFFFFFFFFFFFFFFFFFFFFFFFFFFFFFFFFFFFFFFFFFFFF
310
FFFFFFFFFFFFFFFFFFFFFFFFFFFFFFFFFFFFFFFFFFFFFFFFFFFFFFFFFFFFFFFF
310
FFFFFFFFFFFFFFFFFFFFFFFFFFFFFFFFFFFFFFFFFFFFFFFFFFFFFFFFFFFFFFFF
310
FFFFFFFFFFFFFFFFFFFFFFFFFFFFFFFFFFFFFFFFFFFFFFFFFFFFFFFFFFFFFFFF
310
FFFFFFFFFFFFFFFFFFFFFFFFFFFFFFFFFFFFFFFFFFFFFFFFFFFFFFFFFFFFFFFF
310
FFFFFFFFFFFFFFFFFFFFFFFFFFFFFFFFFFFFFFFFFFFFFFFFFFFFFFFFFFFFFFFF
310
0100000200000000000000000000000000000000000000000000000000000000
310
0000000000000000000000000000000000000000000000000000000000000000
310
0100FEFF030A0000FFFFFFFF0A00030000000000C00000000000004607000000
310
5042727573680007000000504272757368000700000050427275736800F439B2
310
7100000000000000000000000000000000000000000000000000000000000000
310
0000000000000000000000000000000000000000000000000000000000000000
310
0000000000000000000000000000000000000000000000000000000000000000
310
0000000000000000000000000000000000000000000000000000000000000000
310
0000000000000000000000000000000000000000000000000000000000000000
310
0000000000000000000000000000000000000000000000000000000000000000
310
0000000000000000000000000000000000000000000000000000000000000000
310
0000000000000000000000000000000000000000000000000000000000000000
310
0000000000000000000000000000000000000000000000000000000000000000
310
0000000000000000000000000000000000000000000000000000000000000000
310
0000000000000000000000000000000000000000000000000000000000000000
310
0000000000000000000000000000000000000000000000000000000000000000
310
20260000424D0E260000000000003E00000028000000B40200006E0000000100
310
01000000000000000000130B0000130B00000200000002000000000000FFFFFF
310
FFFFFFFFFFFFFFFFFFFFFFFFFFFFFFFFFFFFFFFFFFFFFFFFFFFFFFFFFFFFFFFF
310
FFFFFFFFFFFFFFFFFFFFFFFFFFFFFFFFFFFFFFFFFFFFFFFFFFFFFFFFFFFFFFFF
310
FFFFFFFFFFFFFFFFFFFFFFFFFFFFFFFFFFFFFFFFFFFFFFFFF000FFFFFFFFFFFF
310
FFFFFFFFFFFFFFFFFFFFFFFFFFFFFFFFFFFFFFFFFFFFFFFFFFFFFFFFFFFFFFFF
310
FFFFFFFFFFFFFFFFFFFFFFFFFFFFFFFFFFFFFFFFFFFFFFFFFFFFFFFFFFFFFFFF
310
FFFFFFFFFFFFFFFFFFFFFFFFFFFFFFFFF000FFFFFFFFFFFFFFFFFFFFFFFFFFFF
310
FFFFFFFFFFFFFFFFFFFFFFFFFFFFFFFFFFFFFFFFFFFFFFFFFFFFFFFFFFFFFFFF
310
FFFFFFFFFFFFFFFFFFFFFFFFFFFFFFFFFFFFFFFFFFFFFFFFFFFFFFFFFFFFFFFF
310
FFFFFFFFFFFFFFFFF000FFFFFFFFFFFFFFFFFFFFFFFFFFFFFFFFFFFFFFFFFFFF
310
FFFFFFFFFFFFFFFFFFFFFFFFFFFFFFFFFFFFFFFFFFFFFFFFFFFFFFFFFFFFFFFF
310
FFFFFFFFFFFFFFFFFFFFFFFFFFFFFFFFFFFFFFFFFFFFFFFFFFFFFFFFFFFFFFFF
310
F000FFFFFFFFFFFFFFFFFFFFFFFFFFFFFFFFFFFFFFFFFFFFFFFFFFFFFFFFFFFF
310
FFFFFFFFFFFFFFFFFFFFFFFFFFFFFFFFFFFFFFFFFFFFFFFFFFFFFFFFFFFFFFFF
310
FFFFFFFFFFFFFFFFFFFFFFFFFFFFFFFFFFFFFFFFFFFFFFFFF000FFFFFFFFFFFF
310
FFFFFFFFFFFFFFFFFFFFFFFFFFFFFFFFFFFFFFFFFFFFFFFFFFFFFFFFFFFFFFFF
310
FFFFFFFFFFFFFFFFFFFFFFFFFFFFFFFFFFFFFFFFFFFFFFFFFFFFFFFFFFFFFFFF
310
FFFFFFFFFFFFFFFFFFFFFFFFFFFFFFFFF000FFFFFFFFFFFFFFFFFFFFFFFFFFFF
310
FFFFFFFFFFFFFFFFFFFFFFFFFFFFFFFFFFFFFFFFFFFFFFFFFFFFFFFFFFFFFFFF
310
FFFFFFFFFFFFFFFFFFFFFFFFFFFFFFFFFFFFFFFFFFFFFFFFFFFFFFFFFFFFFFFF
310
FFFFFFFFFFFFFFFFF000FFFFFFFFFFFFFFFFFFFFFFFFFFFFFFFFFFFFFFFFFFFF
310
FFFFFFFFFFFFFFFFFFFFFFFFFFFFFFFFFFFFFFFFFFFFFFFFFFFFFFFFFFFFFFFF
310
FFFFFFFFFFFFFFFFFFFFFFFFFFFFFFFFFFFFFFFFFFFFFFFFFFFFFFFFFFFFFFFF
310
F000FFFFFFFFFFFFFFFFFFFFFFFFFFFFFFFFFFFFFFFFFFFFFFFFFFFFFFFFFFFF
310
FFFFFFFFFFFFFFFFFFFFFFFFFFFFFFFFFFFFFFFFFFFFFFFFFFFFFFFFFFFFFFFF
310
FFFFFFFFFFFFFFFFFFFFFFFFFFFFFFFFFFFFFFFFFFFFFFFFF000FFFFFFFFFFFF
310
FFFFFFFFFFFFFFFFFFFFFFFFFFFFFFFFFFFFFFFFFFFFFFFFFFFFFFFFFFFFFFFF
310
FFFFFFFFFFFFFFFFFFFFFFFFFFFFFFFFFFFFFFFFFFFFFFFFFFFFFFFFFFFFFFFF
310
FFFFFFFFFFFFFFFFFFFFFFFFFFFFFFFFF000FFFFFFFFFFFFFFFFFFFFFFFFFFFF
310
FFFFFFFFFFFFFFFFFFFFFFFFFFFFFFFFFFFFFFFFFFFFFFFFFFFFFFFFFFFFFFFF
310
FFFFFFFFFFFFFFFFFFFFFFFFFFFFFFFFFFFFFFFFFFFFFFFFFFFFFFFFFFFFFFFF
310
FFFFFFFFFFFFFFFFF000FFFFFFFFFFFFFFFFFFFFFFFFFFFFFFFFFFFFFFFFFFFF
310
FFFFFFFFFFFFFFFFFFFFFFFFFFFFFFFFFFFFFFFFFFFFFFFFFFFFFFFFFFFFFFFF
310
FFFFFFFFFFFFFFFFFFFFFFFFFFFFFFFFFFFFFFFFFFFFFFFFFFFFFFFFFFFFFFFF
310
F000FFFFFFFFFFFFFFFFFFFFFFFFFFFFFFFFFFFFFFFFFFFFFFFFFFFFFFFFFFFF
310
FFFFFFFFFFFFFFFFFFFFFFFFFFFFFFFFFFFFFFFFFFFFFFFFFFFFFFFFFFFFFFFF
310
FFFFFFFFFFFFFFFFFFFFFFFFFFFFFFFFFFFFFFFFFFFFFFFFF000FFFFFFFFFFFF
310
FFFFFFFFFFFFFFFFFFFFFFFFFFFFFFFFFFFFFFFFFFFFFFFFFFFFFFFFFFFFFFFF
310
FFFFFFFFFFFFFFFFFFFFFFFFFFFFFFFFFFFFFFFFFFFFFFFFFFFFFFFFFFFFFFFF
310
FFFFFFFFFFFFFFFFFFFFFFFFFFFFFFFFF000FFFFFFFFFFFFFFFFFFFFFFFFFFFF
310
FFFFFFFFFFFFFFFFFFFFFFFFFFFFFFFFFFFFFFFFFFFFFFFFFFFFFFFFFFFFFFFF
310
FFFFFFFFFFFFFFFFFFFFFFFFFFFFFFFFFFFFFFFFFFFFFFFFFFFFFFFFFFFFFFFF
310
FFFFFFFFFFFFFFFFF000FFFFFFFFFFFFFFFFFFFFFFFFFFFFFFFFFFFFFFFFFFFF
310
FFFFFFFFFFFFFFFFFFFFFFFFFFFFFFFFFFFFFFFFFFFFFFFFFFFFFFFFFFFFFFFF
310
FFFFFFFFFFFFFFFFFFFFFFFFFFFFFFFFFFFFFFFFFFFFFFFFFFFFFFFFFFFFFFFF
310
F000FFFFFFFFFFFFFFFFFFFFFFFFFFFFFFFFFFFFFFFFFFFFFFFFFFFFFFFFFFFF
310
FFFFFFFFFFFFFFFFFFFFFFFFFFFFFFFFFFFFFFFFFFFFFFFFFFFFFFFFFFFFFFFF
310
FFFFFFFFFFFFFFFFFFFFFFFFFFFFFFFFFFFFFFFFFFFFFFFFF000FFFFFFFFFFFF
310
FFFFFFFFFFFFFFFFFFFFFFFFFFFFFFFFFFFFFFFFFFFFFFFFFFFFFFFFFFFFFFFF
310
FFFFFFFFFFFFFFFFFFFFFFFFFFFFFFFFFFFFFFFFFFFFFFFFFFFFFFFFFFFFFFFF
310
FFFFFFFFFFFFFFFFFFFFFFFFFFFFFFFFF000FFFFFFFFFFFFFFFFFFFFFFFFFFFF
310
FFFFFFFFFFFFFFFFFFFFFFFFFFFFFFFFFFFFFFFFFFFFFFFFFFFFFFFFFFFFFFFF
310
FFFFFFFFFFFFFFFFFFFFFFFFFFFFFFFFFFFFFFFFFFFFFFFFFFFFFFFFFFFFFFFF
310
FFFFFFFFFFFFFFFFF000FFFFF80003FFFFFFFFFFFFFFFFFFFFFFFFFFFFFFFFFF
310
FFFFF00007FFFFFFFFFF00007FFFFFF800000000000000007FFFFFFFFFFFFFFF
310
FFFFFFFC001FFFFFFFFFFFFFFC001FFFFFFFFFFFFFFFFFFFFFFFFFFE0007FFFF
310
F000FFFF8000007FFFFFFFF8000FFFFFC0007FFFFF80007FFFFF0000007FFFFF
310
FFF8000007FFFFF800000000000000007FFFFFF0001FFFFFFFFFFFC00001FFFF
310
FFFFFFFFC00001FFFFFFFF000000000003FFFFE000007FFFF000FFFE0000000F
310
FFFFFFF0000FFFFF80007FFFFF80007FFFFC0000001FFFFFFFC0000001FFFFF8
310
00000000000000007FFFFFF0001FFFFFFFFFFE0000003FFFFFFFFFFE0000003F
310
FFFFFF000000000003FFFF0000000FFFF000FFF800000003FFFFFFF00007FFFF
310
80007FFFFF80007FFFF000000007FFFFFF000000003FFFF80000000000000000
310
7FFFFFF0001FFFFFFFFFF80000000FFFFFFFFFF80000000FFFFFFF0000000000
310
03FFFC00000003FFF000FFE000000000FFFFFFF00007FFFF80003FFFFF80007F
310
FFC000000001FFFFFC000000001FFFF800000000000000007FFFFFF0001FFFFF
310
FFFFE000000003FFFFFFFFE000000003FFFFFF000000000003FFF000000000FF
310
F000FF80000000007FFFFFF00007FFFF80003FFFFF80007FFF8000000000FFFF
310
F80000000007FFF800000000000000007FFFFFF0001FFFFFFFFFC000000001FF
310
FFFFFFC000000001FFFFFF000000000003FFC0000000007FF000FF0000000000
310
3FFFFFE00007FFFF00003FFFFF80007FFE00000000003FFFF00000000003FFF8
310
00000000000000007FFFFFF0001FFFFFFFFF8000000000FFFFFFFF8000000000
310
FFFFFF000000000003FF80000000003FF000FE00000000001FFFFFE00003FFFF
310
00003FFFFF80007FFC00000000001FFFE00000000001FFF8000001FFFE000000
310
7FFFFFF0001FFFFFFFFE00000000003FFFFFFE00000000003FFFFF0000000000
310
03FF00000000001FF000FC00000000000FFFFFE00003FFFF00001FFFFF80007F
310
F800000000001FFFC00000000000FFF8000001FFFE0000007FFFFFF0001FFFFF
310
FFFC00000000001FFFFFFC00000000001FFFFF000000000003FE00000000000F
310
F000F8000000000007FFFFE00003FFFF00001FFFFF80007FF800000000000FFF
310
800000000000FFF8000001FFFE0000007FFFFFF0001FFFFFFFF800000000000F
310
FFFFF800000000000FFFFF000000000003FC000000000007F000F80000000000
310
03FFFFC00003FFFE00001FFFFF80007FF0000000000007FF0000000000007FF8
310
000001FFFE0000007FFFFFF0001FFFFFFFF0000000000007FFFFF00000000000
310
07FFFF000000000003F8000000000003F000F0000000000003FFFFC00001FFFE
310
00001FFFFF80007FE0000000000007FE0000000000003FF8000001FFFE000000
310
7FFFFFF0001FFFFFFFF0000000000007FFFFF0000000000007FFFF0000000000
310
03F800001F800003F000E00001FFF00001FFFFC00001FFFE00000FFFFF80007F
310
E00001FFE00003FE00001FFF00003FF8000001FFFE0000007FFFFFF0001FFFFF
310
FFE000003E000003FFFFE000003E000003FFFF000000000003F00001FFF80001
310
F000E00007FFFC0001FFFFC00001FFFE00000FFFFF80007FC0000FFFFC0003FC
310
0000FFFFC0001FF8000001FFFE0000007FFFFFF0001FFFFFFFC00003FFE00001
310
FFFFC00003FFE00001FFFF0001FFFFFFFFF00007FFFE0001F000E0000FFFFF00
310
00FFFF800001FFFC00000FFFFF80007FC0001FFFFE0001FC0001FFFFE0001FF8
310
000001FFFE0000007FFFFFF0001FFFFFFF80000FFFF80000FFFF80000FFFF800
310
00FFFF0003FFFFFFFFE0000FFFFF8000F000C0003FFFFF8000FFFF800000FFFC
310
000007FFFF80007F80003FFFFF0001FC0003FFFFF0001FF8000001FFFE000000
310
7FFFFFF0001FFFFFFF80003FFFFE0000FFFF80003FFFFE0000FFFF0003FFFFFF
310
FFE0003FFFFF8000F000C0003FFFFF8000FFFF800000FFFC000007FFFF80007F
310
80007FFFFF8001F80007FFFFF8000FF8000001FFFE0000007FFFFFF0001FFFFF
310
FF00007FFFFF00007FFF00007FFFFF00007FFF0003FFFFFFFFE0003FFFFFC000
310
F000C0007FFFFFC000FFFF000000FFFC000007FFFF80007F8000FFFFFF8000F8
310
000FFFFFF8000FF8000001FFFE0000007FFFFFF0001FFFFFFF0000FFFFFF8000
310
7FFF0000FFFFFF80007FFF0003FFFFFFFFC0007FFFFFC00070008000FFFFFFC0
310
00FFFF000000FFF8000007FFFF80007F8000FFFFFF8000F8000FFFFFF8000FF8
310
000001FFFE0000007FFFFFF0001FFFFFFE0001FFFFFFC0003FFE0001FFFFFFC0
310
003FFF0003FFFFFFFFC0007FFFFFE00070008000FFFFFFC0007FFF0000007FF8
310
000003FFFF80007F0001FFFFFF8000F8000FFFFFF8000FF8000001FFFE000000
310
7FFFFFF0001FFFFFFE0001FFFFFFC0003FFE0001FFFFFFC0003FFF0003FFFFFF
310
FFC000FFFFFFE00070008000FFFFFFC0007FFF0000007FF8000003FFFF80007F
310
0001FFFFFF8000F8001FFFFFF8000FF8000001FFFE0000007FFFFFF0001FFFFF
310
FE0003FFFFFFE0003FFE0003FFFFFFE0003FFF0003FFFFFFFFC000FFFFFFE000
310
70008000FFFFFFC0007FFE0000007FF8000003FFFF80007F0001FFFFFF8000F0
310
001FFFFFF8000FF8000001FFFE0000007FFFFFF0001FFFFFFC0003FFFFFFE000
310
1FFC0003FFFFFFE0001FFF0003FFFFFFFFC000FFFFFFC00070008000FFFFFF80
310
007FFE0000007FF0000003FFFF80007F0001FFFFFF0000F0001FFFFFF8000FF8
310
000001FFFE0000007FFFFFF0001FFFFFFC0007FFFFFFF0001FFC0007FFFFFFF0
310
001FFF0003FFFFFFFFC000FFFFFFC00070008001FFFFFF0000FFFE0000003FF0
310
000001FFFF80007F0001FFFFFF0000F8001FFFFFF0000FF8000001FFFE000000
310
7FFFFFF0001FFFFFFC0007FFFFFFF0001FFC0007FFFFFFF0001FFF0003FFFFFF
310
FFC001FFFFFF80007000FFFFFFFFFE0000FFFE0008003FF0008001FFFF80007F
310
FFFFFFFFFC0000FFFFFFFFFFE0000FF8000001FFFE0000007FFFFFF0001FFFFF
310
F8000FFFFFFFF8000FF8000FFFFFFFF8000FFF0003FFFFFFFFFFFFFFFFFF0000
310
7000FFFFFFFFFC0000FFFC0008003FF0008001FFFF80007FFFFFFFFFF80001FF
310
FFFFFFFF80000FF8000001FFFE0000007FFFFFF0001FFFFFF8000FFFFFFFF800
310
0FF8000FFFFFFFF8000FFF0003FFFFFFFFFFFFFFFFFE0000F000FFFFFFFFE000
310
00FFFC000C003FE000C001FFFF80007FFFFFFFFFC00001FFFFFFFFFE00001FF8
310
000001FFFE0000007FFFFFF0001FFFFFF8000FFFFFFFF8000FF8000FFFFFFFF8
310
000FFF0003FFFFFFFFFFFFFFFFF00000F000FFFFFFFE000001FFFC000C001FE0
310
00C000FFFF80007FFFFFFFFE000001FFFFFFFFE000001FF80FFFFFFFFFFFFFC0
310
7FFFFFF0001FFFFFF8000FFFFFFFF8000FF8000FFFFFFFF8000FFF0003FFFFFF
310
FFFFFFFFFF800000F000FFFFFFC0000001FFFC001C001FE001C000FFFF80007F
310
FFFFFF80000003FFFFFFF80000001FF80FFFFFFFFFFFFFC07FFFFFF0001FFFFF
310
F8001FFFFFFFFC000FF8001FFFFFFFFC000FFF0003FFFFFFFFFFFFFFF0000001
310
F000FFFFF800000001FFF8001C001FE001C000FFFF80007FFFFFF800000003FF
310
FFFF800000003FF80FFFFFFFFFFFFFC07FFFFFF0001FFFFFF8001FFFFFFFFC00
310
0FF8001FFFFFFFFC000FFF0003FFFFFFFFFFFFFE00000001F000FFFFC0000000
310
03FFF8001E001FC001E000FFFF80007FFFFF8000000007FFFFFC000000003FF8
310
0FFFFFFFFFFFFFC07FFFFFF0001FFFFFF8001FFFFFFFFC000FF8001FFFFFFFFC
310
000FFF0003FFFFFFFFFFFFE000000003F000FFFE0000000007FFF8001E000FC0
310
01E0007FFF80007FFFFE0000000007FFFFE0000000007FF80FFFFFFFFFFFFFC0
310
7FFFFFF0001FFFFFF0001FFFFFFFFC0007F0001FFFFFFFFC0007FF0003FFFFFF
310
FFFFFF0000000003F000FFF80000000007FFF8001E000FC003E0007FFF80007F
310
FFF0000000000FFFFF8000000000FFF80FFFFFFFFFFFFFC07FFFFFF0001FFFFF
310
F0001FFFFFFFFC0007F0001FFFFFFFFC0007FF0003FFFFFFFFFFFC0000000007
310
F000FFE0000000000FFFF0003E000FC003E0007FFF80007FFFC0000000001FFF
310
FE0000000001FFF80FFFFFFFFFFFFFC07FFFFFF0001FFFFFF0001FFFFFFFFC00
310
07F0001FFFFFFFFC0007FF0003FFFFFFFFFFF0000000000FF000FFC000000000
310
1FFFF0003F000F8003F0003FFF80007FFF80000000003FFFF80000000003FFF8
310
0FFFFFFFFFFFFFC07FFFFFF0001FFFFFF0001FFFFFFFFC0007F0001FFFFFFFFC
310
0007FF0003FFFFFFFFFFE0000000001FF000FF00000000007FFFF0003F000780
310
03F0003FFF80007FFF00000000007FFFF00000000007FFF80FFFFFFFFFFFFFC0
310
7FFFFFF0001FFFFFF0001FFFFFFFFC0007F0001FFFFFFFFC0007FF0003FFFFFF
310
FFFF80000000007FF000FE0000000000FFFFE0003F00078007F0003FFF80007F
310
FE0000000001FFFFE0000000001FFFF80FFFFFFFFFFFFFC07FFFFFF0001FFFFF
310
F0001FFFFFFFFC0007F0001FFFFFFFFC0007FF0003FFFFFFFFFF0000000000FF
310
F000FC0000000003FFFFE0007F00078007F0003FFF80007FFC0000000007FFFF
310
C0000000007FFFF80FFFFFFFFFFFFFC07FFFFFF0001FFFFFF8001FFFFFFFFC00
310
0FF8001FFFFFFFFC000FFF0003FFFFFFFFFE0000000003FFF000FC000000000F
310
FFFFE0007F80070007F8001FFF80007FF8000000001FFFFF8000000001FFFFF8
310
0FFFFFFFFFFFFFC07FFFFFF0001FFFFFF8001FFFFFFFFC000FF8001FFFFFFFFC
310
000FFF0003FFFFFFFFFC000000000FFFF000F8000000007FFFFFE0007F800700
310
07F8001FFF80007FF000000000FFFFFF800000000FFFFFF80FFFFFFFFFFFFFC0
310
7FFFFFF0001FFFFFF8000FFFFFFFF8000FF8000FFFFFFFF8000FFF0003FFFFFF
310
FFFC000000007FFFF000F800000007FFFFFFC0007F8003000FF8001FFF80007F
310
F000000007FFFFFF000000007FFFFFF80FFFFFFFFFFFFFC07FFFFFF0001FFFFF
310
F8000FFFFFFFF8000FF8000FFFFFFFF8000FFF0003FFFFFFFFF80000000FFFFF
310
F000F0000000FFFFFFFFC000FF8003000FF8001FFF80007FE0000000FFFFFFFF
310
0000000FFFFFFFF8000001FFFE0000007FFFFFF0001FFFFFF8000FFFFFFFF800
310
0FF8000FFFFFFFF8000FFF0003FFFFFFFFF8000000FFFFFFF000F000000FFFFF
310
FFFFC000FFC002000FF8000FFF80007FE000001FFFFFFFFE000001FFFFFFFFF8
310
000001FFFE0000007FFFFFF0001FFFFFF8000FFFFFFFF8000FF8000FFFFFFFF8
310
000FFF0003FFFFFFFFF000001FFFFFFFF000E00000FFFFFFFFFFC000FFC00200
310
0FFC000FFF80007FE00001FFFFFFFFFE00001FFFFFFFFFF8000001FFFE000000
310
7FFFFFF0001FFFFFFC000FFFFFFFF8001FFC000FFFFFFFF8001FFF0003FFFFFF
310
FFF00001FFFFFFFFF000E00007FFFFFFFFFF8000FFC000001FFC000FFF80007F
310
C0000FFFFFFFFFFE0000FFFFFFFFFFF8000001FFFE0000007FFFFFF0001FFFFF
310
FC0007FFFFFFF0001FFC0007FFFFFFF0001FFF0003FFFFFFFFF00007FFFFFFFF
310
F000E0001FFFFFFFFFFF8000FFC000001FFC000FFF80007FC0003FFFFFFFFFFE
310
0001FFFFFFFFFFF8000001FFFE0000007FFFFFF0001FFFFFFC0007FFFFFFF000
310
1FFC0007FFFFFFF0001FFF0003FFFFFFFFF0001FFFFFFFFFF000E0003FFFFF00
310
03FF8001FFE000001FFC0007FF80007FC0007FFFFF0007FC0003FFFFF0003FF8
310
000001FFFE0000007FFFFFF0001FFFFFFC0003FFFFFFE0001FFC0003FFFFFFE0
310
001FFF0003FFFFFFFFF0003FFFFFFFFFF000E0003FFFFF0001FF8001FFE00000
310
1FFE0007FF80007FC0007FFFFE0003FC0007FFFFE0003FF8000001FFFE000000
310
7FFFFFF0001FFFFFFE0003FFFFFFE0003FFE0003FFFFFFE0003FFF0003FFFFFF
310
FFF0003FFFFF8001F000E0003FFFFF0001FF0001FFE000001FFE0007FF80007F
310
C0007FFFFE0003FC0007FFFFE0003FF8000001FFFE0000007FFFFFF0001FFFFF
310
FE0001FFFFFFC0003FFE0001FFFFFFC0003FFF0003FFFFFFFFF0003FFFFF0001
310
F000E0003FFFFF0003FF0001FFE000003FFE0007FF80007FC0007FFFFE0003FC
310
0007FFFFE0003FF8000001FFFE0000007FFFFFF0001FFFFFFF0001FFFFFFC000
310
7FFF0001FFFFFFC0007FFF0003FFFFFFFFF0003FFFFF0001F000E0003FFFFE00
310
03FF0003FFF000003FFE0003FF80007FC0007FFFFC0003FE0007FFFFE0003FF8
310
000001FFFE0000007FFFFFF0001FFFFFFF0000FFFFFF80007FFF0000FFFFFF80
310
007FFF0003FFFFFFFFF0003FFFFF0001F000E0003FFFFE0003FF0003FFF00000
310
3FFF0003FF80007FC0007FFFFC0007FE0007FFFFC0003FF8000001FFFE000000
310
7FFFFFF0001FFFFFFF80007FFFFF0000FFFF80007FFFFF0000FFFF0003FFFFFF
310
FFF0003FFFFF0003F000E0003FFFFC0003FE0003FFF000003FFF0003FF80007F
310
E0003FFFF80007FE0003FFFFC0007FF8000001FFFE0000007FFFFFF0001FFFFF
310
FF80003FFFFE0000FFFF80003FFFFE0000FFFF0003FFFFFFFFF0001FFFFE0003
310
F000F0001FFFF80003FE0003FFF000007FFF0001FF80007FE0003FFFF00007FE
310
0001FFFF80007FF8000001FFFE0000007FFFFFF0001FFFFFFFC0000FFFF80001
310
FFFFC0000FFFF80001FFFF0003FFFFFFFFF0001FFFFC0003F000F0000FFFF000
310
07FE0007FFF800007FFF0001FF80007FE0001FFFE00007FF0000FFFE00007FF8
310
000001FFFE0000007FFFFFF0001FFFFFFFC00003FFE00001FFFFC00003FFE000
310
01FFFF0003FFFFFFFFF8000FFFF80003F000F00003FFC00007FC0007FFF80000
310
7FFF8001FF80007FF00007FF80000FFF00007FF80000FFF8000001FFFE000000
310
7F80000000000001FFE000003E000003FFFFE000003E000003FFFF0003FFFFFF
310
FFF80003FFE00007F000F800000000000FFC0007FFF800007FFF8001FF80007F
310
F000000000000FFF000000000000FFF8000001FFFE0000007F80000000000001
310
FFF0000000000007FFFFF0000000000007FFFF0003FFFFFFFFFC00007E000007
310
F000F800000000000FFC0007FFF80000FFFF8000FF80007FF800000000001FFF
310
800000000001FFF8000001FFFE0000007F80000000000001FFF800000000000F
310
FFFFF800000000000FFFFF0003FFFFFFFFFC00000000000FF000FC0000000000
310
1FFC0007FFFC0000FFFF8000FF80007FF800000000003FFFC00000000001FFF8
310
000001FFFE0000007F80000000000001FFF800000000000FFFFFF80000000000
310
0FFFFF0003FFFFFFFFFE00000000001FF000FE00000000003FF8000FFFFC0000
310
FFFF8000FF80007FFC00000000003FFFC00000000003FFF8000001FFFE000000
310
7F80000000000001FFFC00000000001FFFFFFC00000000001FFFFF0003FFFFFF
310
FFFF00000000001FF000FF00000000003FF8000FFFFC0000FFFFC000FF80007F
310
FE00000000007FFFE00000000007FFF8000001FFFE0000007F80000000000001
310
FFFE00000000003FFFFFFE00000000003FFFFF0003FFFFFFFFFF80000000003F
310
F000FF80000000007FF8000FFFFC0001FFFFC0007F80007FFF0000000000FFFF
310
F0000000000FFFF800000000000000007F80000000000001FFFF8000000000FF
310
FFFFFF8000000000FFFFFF0003FFFFFFFFFFC0000000007FF000FFC000000000
310
FFF8000FFFFE0001FFFFC0007F80007FFF8000000001FFFFF8000000001FFFF8
310
00000000000000007F80000000000001FFFFC000000001FFFFFFFFC000000001
310
FFFFFF0003FFFFFFFFFFE000000000FFF000FFE000000003FFF0001FFFFE0001
310
FFFFC0007F80007FFFC000000007FFFFFE000000003FFFF80000000000000000
310
7F80000000000001FFFFE000000003FFFFFFFFE000000003FFFFFF0003FFFFFF
310
FFFFF000000003FFF000FFF80000000FFFF0001FFFFE0001FFFFE0007F80007F
310
FFF00000000FFFFFFF00000000FFFFF800000000000000007F80000000000001
310
FFFFF80000000FFFFFFFFFF80000000FFFFFFF0003FFFFFFFFFFFC0000000FFF
310
F000FFFE0000003FFFF0001FFFFE0003FFFFE0003F80007FFFFC0000003FFFFF
310
FFC0000003FFFFF800000000000000007F80000000000001FFFFFE0000003FFF
310
FFFFFFFE0000003FFFFFFF0003FFFFFFFFFFFF0000003FFFF000FFFF800000FF
310
FFF0001FFFFF0003FFFFE0003F80007FFFFF000001FFFFFFFFF800001FFFFFF8
310
00000000000000007F80000000000001FFFFFFC00001FFFFFFFFFFFFC00001FF
310
FFFFFF0003FFFFFFFFFFFFC00000FFFFF000FFFFF8000FFFFFFFFFFFFFFFFFFF
310
FFFFFFFFFFFFFFFFFFFFF0001FFFFFFFFFFF0000FFFFFFF80000000000000000
310
7FFFFFFFFFFFFFFFFFFFFFFC001FFFFFFFFFFFFFFC001FFFFFFFFFFFFFFFFFFF
310
FFFFFFFC001FFFFFF000FFFFFFFFFFFFFFFFFFFFFFFFFFFFFFFFFFFFFFFFFFFF
310
FFFFFFFFFFFFFFFFFFFFFFFFFFFFFFFFFFFFFFFFFFFFFFFFFFFFFFFFFFFFFFFF
310
FFFFFFFFFFFFFFFFFFFFFFFFFFFFFFFFFFFFFFFFFFFFFFFFFFFFFFFFFFFFFFFF
310
F000FFFFFFFFFFFFFFFFFFFFFFFFFFFFFFFFFFFFFFFFFFFFFFFFFFFFFFFFFFFF
310
FFFFFFFFFFFFFFFFFFFFFFFFFFFFFFFFFFFFFFFFFFFFFFFFFFFFFFFFFFFFFFFF
310
FFFFFFFFFFFFFFFFFFFFFFFFFFFFFFFFFFFFFFFFFFFFFFFFF000FFFFFFFFFFFF
310
FFFFFFFFFFFFFFFFFFFFFFFFFFFFFFFFFFFFFFFFFFFFFFFFFFFFFFFFFFFFFFFF
310
FFFFFFFFFFFFFFFFFFFFFFFFFFFFFFFFFFFFFFFFFFFFFFFFFFFFFFFFFFFFFFFF
310
FFFFFFFFFFFFFFFFFFFFFFFFFFFFFFFFF000FFFFFFFFFFFFFFFFFFFFFFFFFFFF
310
FFFFFFFFFFFFFFFFFFFFFFFFFFFFFFFFFFFFFFFFFFFFFFFFFFFFFFFFFFFFFFFF
310
FFFFFFFFFFFFFFFFFFFFFFFFFFFFFFFFFFFFFFFFFFFFFFFFFFFFFFFFFFFFFFFF
310
FFFFFFFFFFFFFFFFF000FFFFFFFFFFFFFFFFFFFFFFFFFFFFFFFFFFFFFFFFFFFF
310
FFFFFFFFFFFFFFFFFFFFFFFFFFFFFFFFFFFFFFFFFFFFFFFFFFFFFFFFFFFFFFFF
310
FFFFFFFFFFFFFFFFFFFFFFFFFFFFFFFFFFFFFFFFFFFFFFFFFFFFFFFFFFFFFFFF
310
F000FFFFFFFFFFFFFFFFFFFFFFFFFFFFFFFFFFFFFFFFFFFFFFFFFFFFFFFFFFFF
310
FFFFFFFFFFFFFFFFFFFFFFFFFFFFFFFFFFFFFFFFFFFFFFFFFFFFFFFFFFFFFFFF
310
FFFFFFFFFFFFFFFFFFFFFFFFFFFFFFFFFFFFFFFFFFFFFFFFF000FFFFFFFFFFFF
310
FFFFFFFFFFFFFFFFFFFFFFFFFFFFFFFFFFFFFFFFFFFFFFFFFFFFFFFFFFFFFFFF
310
FFFFFFFFFFFFFFFFFFFFFFFFFFFFFFFFFFFFFFFFFFFFFFFFFFFFFFFFFFFFFFFF
310
FFFFFFFFFFFFFFFFFFFFFFFFFFFFFFFFF000FFFFFFFFFFFFFFFFFFFFFFFFFFFF
310
FFFFFFFFFFFFFFFFFFFFFFFFFFFFFFFFFFFFFFFFFFFFFFFFFFFFFFFFFFFFFFFF
310
FFFFFFFFFFFFFFFFFFFFFFFFFFFFFFFFFFFFFFFFFFFFFFFFFFFFFFFFFFFFFFFF
310
FFFFFFFFFFFFFFFFF000FFFFFFFFFFFFFFFFFFFFFFFFFFFFFFFFFFFFFFFFFFFF
310
FFFFFFFFFFFFFFFFFFFFFFFFFFFFFFFFFFFFFFFFFFFFFFFFFFFFFFFFFFFFFFFF
310
FFFFFFFFFFFFFFFFFFFFFFFFFFFFFFFFFFFFFFFFFFFFFFFFFFFFFFFFFFFFFFFF
310
F000FFFFFFFFFFFFFFFFFFFFFFFFFFFFFFFFFFFFFFFFFFFFFFFFFFFFFFFFFFFF
310
FFFFFFFFFFFFFFFFFFFFFFFFFFFFFFFFFFFFFFFFFFFFFFFFFFFFFFFFFFFFFFFF
310
FFFFFFFFFFFFFFFFFFFFFFFFFFFFFFFFFFFFFFFFFFFFFFFFF000FFFFFFFFFFFF
310
FFFFFFFFFFFFFFFFFFFFFFFFFFFFFFFFFFFFFFFFFFFFFFFFFFFFFFFFFFFFFFFF
310
FFFFFFFFFFFFFFFFFFFFFFFFFFFFFFFFFFFFFFFFFFFFFFFFFFFFFFFFFFFFFFFF
310
FFFFFFFFFFFFFFFFFFFFFFFFFFFFFFFFF000FFFFFFFFFFFFFFFFFFFFFFFFFFFF
310
FFFFFFFFFFFFFFFFFFFFFFFFFFFFFFFFFFFFFFFFFFFFFFFFFFFFFFFFFFFFFFFF
310
FFFFFFFFFFFFFFFFFFFFFFFFFFFFFFFFFFFFFFFFFFFFFFFFFFFFFFFFFFFFFFFF
310
FFFFFFFFFFFFFFFFF000FFFFFFFFFFFFFFFFFFFFFFFFFFFFFFFFFFFFFFFFFFFF
310
FFFFFFFFFFFFFFFFFFFFFFFFFFFFFFFFFFFFFFFFFFFFFFFFFFFFFFFFFFFFFFFF
310
FFFFFFFFFFFFFFFFFFFFFFFFFFFFFFFFFFFFFFFFFFFFFFFFFFFFFFFFFFFFFFFF
310
F000FFFFFFFFFFFFFFFFFFFFFFFFFFFFFFFFFFFFFFFFFFFFFFFFFFFFFFFFFFFF
310
FFFFFFFFFFFFFFFFFFFFFFFFFFFFFFFFFFFFFFFFFFFFFFFFFFFFFFFFFFFFFFFF
310
FFFFFFFFFFFFFFFFFFFFFFFFFFFFFFFFFFFFFFFFFFFFFFFFF000FFFFFFFFFFFF
310
FFFFFFFFFFFFFFFFFFFFFFFFFFFFFFFFFFFFFFFFFFFFFFFFFFFFFFFFFFFFFFFF
310
FFFFFFFFFFFFFFFFFFFFFFFFFFFFFFFFFFFFFFFFFFFFFFFFFFFFFFFFFFFFFFFF
310
FFFFFFFFFFFFFFFFFFFFFFFFFFFFFFFFF000FFFFFFFFFFFFFFFFFFFFFFFFFFFF
310
FFFFFFFFFFFFFFFFFFFFFFFFFFFFFFFFFFFFFFFFFFFFFFFFFFFFFFFFFFFFFFFF
310
FFFFFFFFFFFFFFFFFFFFFFFFFFFFFFFFFFFFFFFFFFFFFFFFFFFFFFFFFFFFFFFF
310
FFFFFFFFFFFFFFFFF000FFFFFFFFFFFFFFFFFFFFFFFFFFFFFFFFFFFFFFFFFFFF
310
FFFFFFFFFFFFFFFFFFFFFFFFFFFFFFFFFFFFFFFFFFFFFFFFFFFFFFFFFFFFFFFF
310
FFFFFFFFFFFFFFFFFFFFFFFFFFFFFFFFFFFFFFFFFFFFFFFFFFFFFFFFFFFFFFFF
310
F000FFFFFFFFFFFFFFFFFFFFFFFFFFFFFFFFFFFFFFFFFFFFFFFFFFFFFFFFFFFF
310
FFFFFFFFFFFFFFFFFFFFFFFFFFFFFFFFFFFFFFFFFFFFFFFFFFFFFFFFFFFFFFFF
310
FFFFFFFFFFFFFFFFFFFFFFFFFFFFFFFFFFFFFFFFFFFFFFFFF000FFFFFFFFFFFF
310
FFFFFFFFFFFFFFFFFFFFFFFFFFFFFFFFFFFFFFFFFFFFFFFFFFFFFFFFFFFFFFFF
310
FFFFFFFFFFFFFFFFFFFFFFFFFFFFFFFFFFFFFFFFFFFFFFFFFFFFFFFFFFFFFFFF
310
FFFFFFFFFFFFFFFFFFFFFFFFFFFFFFFFF000FFFFFFFFFFFFFFFFFFFFFFFFFFFF
310
FFFFFFFFFFFFFFFFFFFFFFFFFFFFFFFFFFFFFFFFFFFFFFFFFFFFFFFFFFFFFFFF
310
FFFFFFFFFFFFFFFFFFFFFFFFFFFFFFFFFFFFFFFFFFFFFFFFFFFFFFFFFFFFFFFF
310
FFFFFFFFFFFFFFFFF000FFFFFFFFFFFFFFFFFFFFFFFFFFFFFFFFFFFFFFFFFFFF
310
FFFFFFFFFFFFFFFFFFFFFFFFFFFFFFFFFFFFFFFFFFFFFFFFFFFFFFFFFFFFFFFF
310
FFFFFFFFFFFFFFFFFFFFFFFFFFFFFFFFFFFFFFFFFFFFFFFFFFFFFFFFFFFFFFFF
310
F000FFFFFFFFFFFFFFFFFFFFFFFFFFFFFFFFFFFFFFFFFFFFFFFFFFFFFFFFFFFF
310
FFFFFFFFFFFFFFFFFFFFFFFFFFFFFFFFFFFFFFFFFFFFFFFFFFFFFFFFFFFFFFFF
310
FFFFFFFFFFFFFFFFFFFFFFFFFFFFFFFFFFFFFFFFFFFFFFFFF000FFFFFFFFFFFF
310
FFFFFFFFFFFFFFFFFFFFFFFFFFFFFFFFFFFFFFFFFFFFFFFFFFFFFFFFFFFFFFFF
310
FFFFFFFFFFFFFFFFFFFFFFFFFFFFFFFFFFFFFFFFFFFFFFFFFFFFFFFFFFFFFFFF
310
FFFFFFFFFFFFFFFFFFFFFFFFFFFFFFFFF0000000000000000000000000000000
310
0000000000000000000000000000000000000000000000000000000000000000
310
0000000000000000000000000000000000000000000000000000000000000000
310
0000000000000000000000000000000000000000000000000000000000000000
310
0000000000000000000000000000000000000000000000000000000000000000
310
0000000000000000000000000000000000000000000000000000000000000000
310
0000000000000000000000000000000000000000000000000000000000000000
310
0000000000000000000000000000000000000000000000000000000000000000
310
0000000000000000000000000000000000000000000000000000000000000000
310
0000000000000000000000000000000000000000000000000000000000000000
310
0000000000000000000000000000000000000000000000000000000000000000
310
0000000000000000000000000000000000000000000000000000000000000000
310
0000000000000000000000000000000000000000000000000000000000000000
310
0000000000000000000000000000000000000000000000000000000000000000
310
0000000000000000000000000000000000000000000000000000000000000000
310
0000000000000000000000000000000000000000000000000000000000000000
  1
OLE
  0
ENDSEC
  0
SECTION
  2
OBJECTS
  0
DICTIONARY
  5
C
330
0
100
AcDbDictionary
281
     1
  3
ACAD_GROUP
350
D
  3
ACAD_LAYOUT
350
1A
  3
ACAD_MLINESTYLE
350
17
  3
ACAD_PLOTSETTINGS
350
19
  3
ACAD_PLOTSTYLENAME
350
E
  0
DICTIONARY
  5
D
102
{ACAD_REACTORS
330
C
102
}
330
C
100
AcDbDictionary
281
     1
  0
DICTIONARY
  5
1A
102
{ACAD_REACTORS
330
C
102
}
330
C
100
AcDbDictionary
281
     1
  3
Layout1
350
1E
  3
Layout2
350
26
  3
Model
350
22
  0
DICTIONARY
  5
17
102
{ACAD_REACTORS
330
C
102
}
330
C
100
AcDbDictionary
281
     1
  3
Standard
350
18
  0
DICTIONARY
  5
19
102
{ACAD_REACTORS
330
C
102
}
330
C
100
AcDbDictionary
281
     1
  0
ACDBDICTIONARYWDFLT
  5
E
102
{ACAD_REACTORS
330
C
102
}
330
C
100
AcDbDictionary
281
     1
  3
Normal
350
F
100
AcDbDictionaryWithDefault
340
F
  0
LAYOUT
  5
1E
102
{ACAD_REACTORS
330
1A
102
}
330
1A
100
AcDbPlotSettings
  1

  2
none_device
  4

  6

 40
0.0
 41
0.0
 42
0.0
 43
0.0
 44
0.0
 45
0.0
 46
0.0
 47
0.0
 48
0.0
 49
0.0
140
0.0
141
0.0
142
1.0
143
1.0
 70
   688
 72
     0
 73
     0
 74
     5
  7

 75
    16
147
1.0
148
0.0
149
0.0
100
AcDbLayout
  1
Layout1
 70
     1
 71
     1
 10
0.0
 20
0.0
 11
420.0
 21
297.0
 12
0.0
 22
0.0
 32
0.0
 14
1.0000000000E+20
 24
1.0000000000E+20
 34
1.0000000000E+20
 15
-1.0000000000E+20
 25
-1.0000000000E+20
 35
-1.0000000000E+20
146
0.0
 13
0.0
 23
0.0
 33
0.0
 16
1.0
 26
0.0
 36
0.0
 17
0.0
 27
1.0
 37
0.0
 76
     0
330
1B
  0
LAYOUT
  5
26
102
{ACAD_REACTORS
330
1A
102
}
330
1A
100
AcDbPlotSettings
  1

  2
none_device
  4

  6

 40
0.0
 41
0.0
 42
0.0
 43
0.0
 44
0.0
 45
0.0
 46
0.0
 47
0.0
 48
0.0
 49
0.0
140
0.0
141
0.0
142
1.0
143
1.0
 70
   688
 72
     0
 73
     0
 74
     5
  7

 75
    16
147
1.0
148
0.0
149
0.0
100
AcDbLayout
  1
Layout2
 70
     1
 71
     2
 10
0.0
 20
0.0
 11
0.0
 21
0.0
 12
0.0
 22
0.0
 32
0.0
 14
0.0
 24
0.0
 34
0.0
 15
0.0
 25
0.0
 35
0.0
146
0.0
 13
0.0
 23
0.0
 33
0.0
 16
1.0
 26
0.0
 36
0.0
 17
0.0
 27
1.0
 37
0.0
 76
     0
330
23
  0
LAYOUT
  5
22
102
{ACAD_REACTORS
330
1A
102
}
330
1A
100
AcDbPlotSettings
  1

  2
none_device
  4

  6

 40
0.0
 41
0.0
 42
0.0
 43
0.0
 44
0.0
 45
0.0
 46
0.0
 47
0.0
 48
0.0
 49
0.0
140
0.0
141
0.0
142
1.0
143
1.0
 70
  1712
 72
     0
 73
     0
 74
     0
  7

 75
     0
147
1.0
148
0.0
149
0.0
100
AcDbLayout
  1
Model
 70
     1
 71
     0
 10
0.0
 20
0.0
 11
297.0
 21
210.0
 12
0.0
 22
0.0
 32
0.0
 14
0.0
 24
0.0
 34
0.0
 15
297.0
 25
210.0
 35
0.0
146
0.0
 13
0.0
 23
0.0
 33
0.0
 16
1.0
 26
0.0
 36
0.0
 17
0.0
 27
1.0
 37
0.0
 76
     0
330
1F
331
29
  0
MLINESTYLE
  5
18
102
{ACAD_REACTORS
330
17
102
}
330
17
100
AcDbMlineStyle
  2
Standard
 70
     0
  3

 62
   256
 51
90.0
 52
90.0
 71
     2
 49
0.5
 62
   256
  6
BYLAYER
 49
-0.5
 62
   256
  6
BYLAYER
  0
ACDBPLACEHOLDER
  5
F
102
{ACAD_REACTORS
330
E
102
}
330
E
  0
ENDSEC
  0
EOF
