  0
SECTION
  2
HEADER
  9
$ACADVER
  1
AC1015
  9
$ACADMAINTVER
 70
     6
  9
$DWGCODEPAGE
  3
ANSI_1252
  9
$INSBASE
 10
0.0
 20
0.0
 30
0.0
  9
$EXTMIN
 10
0.0
 20
0.0
 30
0.0
  9
$EXTMAX
 10
297.0
 20
210.0
 30
0.0
  9
$LIMMIN
 10
0.0
 20
0.0
  9
$LIMMAX
 10
297.0
 20
210.0
  9
$ORTHOMODE
 70
     0
  9
$REGENMODE
 70
     1
  9
$FILLMODE
 70
     1
  9
$QTEXTMODE
 70
     0
  9
$MIRRTEXT
 70
     1
  9
$LTSCALE
 40
1.0
  9
$ATTMODE
 70
     1
  9
$TEXTSIZE
 40
2.0
  9
$TRACEWID
 40
1.0
  9
$TEXTSTYLE
  7
Standard
  9
$CLAYER
  8
0
  9
$CELTYPE
  6
ByLayer
  9
$CECOLOR
 62
   256
  9
$CELTSCALE
 40
1.0
  9
$DISPSILH
 70
     0
  9
$DIMSCALE
 40
1.0
  9
$DIMASZ
 40
3.0
  9
$DIMEXO
 40
0.0
  9
$DIMDLI
 40
3.75
  9
$DIMRND
 40
0.0
  9
$DIMDLE
 40
0.0
  9
$DIMEXE
 40
1.0
  9
$DIMTP
 40
0.0
  9
$DIMTM
 40
0.0
  9
$DIMTXT
 40
2.0
  9
$DIMCEN
 40
2.5
  9
$DIMTSZ
 40
0.0
  9
$DIMTOL
 70
     0
  9
$DIMLIM
 70
     0
  9
$DIMTIH
 70
     1
  9
$DIMTOH
 70
     1
  9
$DIMSE1
 70
     0
  9
$DIMSE2
 70
     0
  9
$DIMTAD
 70
     1
  9
$DIMZIN
 70
     0
  9
$DIMBLK
  1

  9
$DIMASO
 70
     1
  9
$DIMSHO
 70
     1
  9
$DIMPOST
  1

  9
$DIMAPOST
  1

  9
$DIMALT
 70
     0
  9
$DIMALTD
 70
     3
  9
$DIMALTF
 40
0.0393700787
  9
$DIMLFAC
 40
2.0
  9
$DIMTOFL
 70
     1
  9
$DIMTVP
 40
0.0
  9
$DIMTIX
 70
     0
  9
$DIMSOXD
 70
     0
  9
$DIMSAH
 70
     0
  9
$DIMBLK1
  1

  9
$DIMBLK2
  1

  9
$DIMSTYLE
  2
ISO-25
  9
$DIMCLRD
 70
     0
  9
$DIMCLRE
 70
     0
  9
$DIMCLRT
 70
     0
  9
$DIMTFAC
 40
1.0
  9
$DIMGAP
 40
1.524
  9
$DIMJUST
 70
     0
  9
$DIMSD1
 70
     0
  9
$DIMSD2
 70
     0
  9
$DIMTOLJ
 70
     0
  9
$DIMTZIN
 70
     0
  9
$DIMALTZ
 70
     0
  9
$DIMALTTZ
 70
     0
  9
$DIMUPT
 70
     0
  9
$DIMDEC
 70
     2
  9
$DIMTDEC
 70
     3
  9
$DIMALTU
 70
     2
  9
$DIMALTTD
 70
     3
  9
$DIMTXSTY
  7
Standard
  9
$DIMAUNIT
 70
     0
  9
$DIMADEC
 70
     2
  9
$DIMALTRND
 40
0.0
  9
$DIMAZIN
 70
     0
  9
$DIMDSEP
 70
    44
  9
$DIMATFIT
 70
     3
  9
$DIMFRAC
 70
     0
  9
$DIMLDRBLK
  1

  9
$DIMLUNIT
 70
     2
  9
$DIMLWD
 70
    -2
  9
$DIMLWE
 70
    -2
  9
$DIMTMOVE
 70
     0
  9
$LUNITS
 70
     2
  9
$LUPREC
 70
     2
  9
$SKETCHINC
 40
1.0
  9
$FILLETRAD
 40
10.0
  9
$AUNITS
 70
     0
  9
$AUPREC
 70
     2
  9
$MENU
  1
.
  9
$ELEVATION
 40
0.0
  9
$PELEVATION
 40
0.0
  9
$THICKNESS
 40
0.0
  9
$LIMCHECK
 70
     0
  9
$CHAMFERA
 40
0.0
  9
$CHAMFERB
 40
0.0
  9
$CHAMFERC
 40
0.0
  9
$CHAMFERD
 40
0.0
  9
$SKPOLY
 70
     0
  9
$TDCREATE
 40
2458166.665752222
  9
$TDUCREATE
 40
2458166.624085556
  9
$TDUPDATE
 40
2458166.665754734
  9
$TDUUPDATE
 40
2458166.624088067
  9
$TDINDWG
 40
0.0000000116
  9
$TDUSRTIMER
 40
0.0000000116
  9
$USRTIMER
 70
     1
  9
$ANGBASE
 50
0.0
  9
$ANGDIR
 70
     0
  9
$PDMODE
 70
     0
  9
$PDSIZE
 40
-1.0
  9
$PLINEWID
 40
0.0
  9
$SPLFRAME
 70
     0
  9
$SPLINETYPE
 70
     6
  9
$SPLINESEGS
 70
     8
  9
$HANDSEED
  5
28C
  9
$SURFTAB1
 70
     6
  9
$SURFTAB2
 70
     6
  9
$SURFTYPE
 70
     6
  9
$SURFU
 70
     6
  9
$SURFV
 70
     6
  9
$UCSBASE
  2

  9
$UCSNAME
  2

  9
$UCSORG
 10
0.0
 20
0.0
 30
0.0
  9
$UCSXDIR
 10
1.0
 20
0.0
 30
0.0
  9
$UCSYDIR
 10
0.0
 20
1.0
 30
0.0
  9
$UCSORTHOREF
  2

  9
$UCSORTHOVIEW
 70
     0
  9
$UCSORGTOP
 10
0.0
 20
0.0
 30
0.0
  9
$UCSORGBOTTOM
 10
0.0
 20
0.0
 30
0.0
  9
$UCSORGLEFT
 10
0.0
 20
0.0
 30
0.0
  9
$UCSORGRIGHT
 10
0.0
 20
0.0
 30
0.0
  9
$UCSORGFRONT
 10
0.0
 20
0.0
 30
0.0
  9
$UCSORGBACK
 10
0.0
 20
0.0
 30
0.0
  9
$PUCSBASE
  2

  9
$PUCSNAME
  2

  9
$PUCSORG
 10
0.0
 20
0.0
 30
0.0
  9
$PUCSXDIR
 10
1.0
 20
0.0
 30
0.0
  9
$PUCSYDIR
 10
0.0
 20
1.0
 30
0.0
  9
$PUCSORTHOREF
  2

  9
$PUCSORTHOVIEW
 70
     0
  9
$PUCSORGTOP
 10
0.0
 20
0.0
 30
0.0
  9
$PUCSORGBOTTOM
 10
0.0
 20
0.0
 30
0.0
  9
$PUCSORGLEFT
 10
0.0
 20
0.0
 30
0.0
  9
$PUCSORGRIGHT
 10
0.0
 20
0.0
 30
0.0
  9
$PUCSORGFRONT
 10
0.0
 20
0.0
 30
0.0
  9
$PUCSORGBACK
 10
0.0
 20
0.0
 30
0.0
  9
$USERI1
 70
     0
  9
$USERI2
 70
     0
  9
$USERI3
 70
     0
  9
$USERI4
 70
     0
  9
$USERI5
 70
     0
  9
$USERR1
 40
0.0
  9
$USERR2
 40
0.0
  9
$USERR3
 40
0.0
  9
$USERR4
 40
0.0
  9
$USERR5
 40
0.0
  9
$WORLDVIEW
 70
     1
  9
$SHADEDGE
 70
     3
  9
$SHADEDIF
 70
    70
  9
$TILEMODE
 70
     1
  9
$MAXACTVP
 70
    64
  9
$PINSBASE
 10
0.0
 20
0.0
 30
0.0
  9
$PLIMCHECK
 70
     0
  9
$PEXTMIN
 10
1.0000000000E+20
 20
1.0000000000E+20
 30
1.0000000000E+20
  9
$PEXTMAX
 10
-1.0000000000E+20
 20
-1.0000000000E+20
 30
-1.0000000000E+20
  9
$PLIMMIN
 10
0.0
 20
0.0
  9
$PLIMMAX
 10
420.0
 20
297.0
  9
$UNITMODE
 70
     0
  9
$VISRETAIN
 70
     1
  9
$PLINEGEN
 70
     0
  9
$PSLTSCALE
 70
     1
  9
$TREEDEPTH
 70
  3020
  9
$CMLSTYLE
  2
Standard
  9
$CMLJUST
 70
     0
  9
$CMLSCALE
 40
20.0
  9
$PROXYGRAPHICS
 70
     1
  9
$MEASUREMENT
 70
     1
  9
$CELWEIGHT
370
    -1
  9
$ENDCAPS
280
     0
  9
$JOINSTYLE
280
     0
  9
$LWDISPLAY
290
     1
  9
$INSUNITS
 70
     4
  9
$HYPERLINKBASE
  1

  9
$STYLESHEET
  1

  9
$XEDIT
290
     1
  9
$CEPSNTYPE
380
     0
  9
$PSTYLEMODE
290
     1
  9
$FINGERPRINTGUID
  2
{B889563D-9EFD-4D39-9FE5-0F76D4E69FBF}
  9
$VERSIONGUID
  2
{FAEB1C32-E019-11D5-929B-00C0DF256EC4}
  9
$EXTNAMES
290
     1
  9
$PSVPSCALE
 40
0.0
  9
$OLESTARTUP
290
     0
  0
ENDSEC
  0
SECTION
  2
CLASSES
  0
CLASS
  1
ACDBDICTIONARYWDFLT
  2
AcDbDictionaryWithDefault
  3
ObjectDBX Classes
 90
        0
280
     0
281
     0
  0
CLASS
  1
VISUALSTYLE
  2
AcDbVisualStyle
  3
ObjectDBX Classes
 90
     4095
280
     0
281
     0
  0
CLASS
  1
MATERIAL
  2
AcDbMaterial
  3
ObjectDBX Classes
 90
     1153
280
     0
281
     0
  0
CLASS
  1
SCALE
  2
AcDbScale
  3
ObjectDBX Classes
 90
     1153
280
     0
281
     0
  0
CLASS
  1
TABLESTYLE
  2
AcDbTableStyle
  3
ObjectDBX Classes
 90
     4095
280
     0
281
     0
  0
CLASS
  1
MLEADERSTYLE
  2
AcDbMLeaderStyle
  3
ACDB_MLEADERSTYLE_CLASS
 90
     4095
280
     0
281
     0
  0
CLASS
  1
SUN
  2
AcDbSun
  3
SCENEOE
 90
     1153
280
     0
281
     0
  0
CLASS
  1
ACDBPLACEHOLDER
  2
AcDbPlaceHolder
  3
ObjectDBX Classes
 90
        0
280
     0
281
     0
  0
CLASS
  1
LAYOUT
  2
AcDbLayout
  3
ObjectDBX Classes
 90
        0
280
     0
281
     0
  0
ENDSEC
  0
SECTION
  2
TABLES
  0
TABLE
  2
VPORT
  5
8
330
0
100
AcDbSymbolTable
 70
     1
  0
VPORT
  5
29
330
8
100
AcDbSymbolTableRecord
100
AcDbViewportTableRecord
  2
*Active
 70
     0
 10
0.0
 20
0.0
 11
1.0
 21
1.0
 12
148.5
 22
105.0
 13
0.0
 23
0.0
 14
10.0
 24
10.0
 15
10.0
 25
10.0
 16
0.0
 26
0.0
 36
1.0
 17
0.0
 27
0.0
 37
0.0
 40
210.0
 41
1.4142857143
 42
50.0
 43
0.0
 44
0.0
 50
0.0
 51
0.0
 71
     0
 72
  2000
 73
     1
 74
     3
 75
     0
 76
     0
 77
     0
 78
     0
281
     0
 65
     1
110
0.0
120
0.0
130
0.0
111
1.0
121
0.0
131
0.0
112
0.0
122
1.0
132
0.0
 79
     0
146
0.0
  0
ENDTAB
  0
TABLE
  2
LTYPE
  5
5
330
0
100
AcDbSymbolTable
 70
     6
  0
LTYPE
  5
14
330
5
100
AcDbSymbolTableRecord
100
AcDbLinetypeTableRecord
  2
ByBlock
 70
     0
  3

 72
    65
 73
     0
 40
0.0
  0
LTYPE
  5
15
330
5
100
AcDbSymbolTableRecord
100
AcDbLinetypeTableRecord
  2
ByLayer
 70
     0
  3

 72
    65
 73
     0
 40
0.0
  0
LTYPE
  5
16
330
5
100
AcDbSymbolTableRecord
100
AcDbLinetypeTableRecord
  2
Continuous
 70
     0
  3
Solid line
 72
    65
 73
     0
 40
0.0
  0
LTYPE
  5
6E
330
5
100
AcDbSymbolTableRecord
100
AcDbLinetypeTableRecord
  2
HIDDEN
 70
     0
  3
Hidden __ __ __ __ __ __ __ __ __ __ __ __ __ __
 72
    65
 73
     2
 40
1.905
 49
1.27
 74
     0
 49
-0.635
 74
     0
  0
LTYPE
  5
6F
330
5
100
AcDbSymbolTableRecord
100
AcDbLinetypeTableRecord
  2
PHANTOM
 70
     0
  3
Phantom ______  __  __  ______  __  __  ______
 72
    65
 73
     6
 40
12.7
 49
6.35
 74
     0
 49
-1.27
 74
     0
 49
1.27
 74
     0
 49
-1.27
 74
     0
 49
1.27
 74
     0
 49
-1.27
 74
     0
  0
LTYPE
  5
70
330
5
100
AcDbSymbolTableRecord
100
AcDbLinetypeTableRecord
  2
CENTER
 70
     0
  3
Center ____ _ ____ _ ____ _ ____ _ ____ _ ____
 72
    65
 73
     4
 40
10.16
 49
6.35
 74
     0
 49
-1.27
 74
     0
 49
1.27
 74
     0
 49
-1.27
 74
     0
  0
LTYPE
  5
71
330
5
100
AcDbSymbolTableRecord
100
AcDbLinetypeTableRecord
  2
CENTERX2
 70
     0
  3
Center (2x) ________  __  ________  __  _____
 72
    65
 73
     4
 40
20.32
 49
12.7
 74
     0
 49
-2.54
 74
     0
 49
2.54
 74
     0
 49
-2.54
 74
     0
  0
LTYPE
  5
72
330
5
100
AcDbSymbolTableRecord
100
AcDbLinetypeTableRecord
  2
DOT2
 70
     0
  3
Dot (.5x) ........................................
 72
    65
 73
     2
 40
0.635
 49
0.0
 74
     0
 49
-0.635
 74
     0
  0
ENDTAB
  0
TABLE
  2
LAYER
  5
2
330
0
100
AcDbSymbolTable
 70
     5
  0
LAYER
  5
10
330
2
100
AcDbSymbolTableRecord
100
AcDbLayerTableRecord
  2
0
 70
     0
 62
     7
  6
Continuous
370
    -3
390
F
  0
LAYER
  5
73
330
2
100
AcDbSymbolTableRecord
100
AcDbLayerTableRecord
  2
FORMAT
 70
     0
 62
     7
  6
Continuous
370
    -3
390
F
  0
LAYER
  5
74
330
2
100
AcDbSymbolTableRecord
100
AcDbLayerTableRecord
  2
VERMASSUNG
 70
     0
 62
     7
  6
Continuous
370
    -3
390
F
  0
LAYER
  5
75
330
2
100
AcDbSymbolTableRecord
100
AcDbLayerTableRecord
  2
KOPF_DÜNN
 70
     0
 62
     7
  6
Continuous
370
    -3
390
F
  0
LAYER
  5
76
330
2
100
AcDbSymbolTableRecord
100
AcDbLayerTableRecord
  2
KOPF_DICK
 70
     0
 62
     7
  6
Continuous
370
    25
390
F
  0
ENDTAB
  0
TABLE
  2
STYLE
  5
3
330
0
100
AcDbSymbolTable
 70
     3
  0
STYLE
  5
11
330
3
100
AcDbSymbolTableRecord
100
AcDbTextStyleTableRecord
  2
Standard
 70
     0
 40
0.0
 41
1.0
 50
0.0
 71
     0
 42
2.0
  3
txt
  4

  0
STYLE
  5
77
330
3
100
AcDbSymbolTableRecord
100
AcDbTextStyleTableRecord
  2
SLDTEXTSTYLE0
 70
     0
 40
0.0
 41
0.7
 50
0.0
 71
     0
 42
2.0
  3
TXT
  4

  0
STYLE
  5
7B
330
3
100
AcDbSymbolTableRecord
100
AcDbTextStyleTableRecord
  2
SLDTEXTSTYLE1
 70
     0
 40
0.0
 41
0.6428571429
 50
0.0
 71
     0
 42
2.0
  3
TXT
  4

  0
ENDTAB
  0
TABLE
  2
VIEW
  5
6
330
0
100
AcDbSymbolTable
 70
     0
  0
ENDTAB
  0
TABLE
  2
UCS
  5
7
330
0
100
AcDbSymbolTable
 70
     0
  0
ENDTAB
  0
TABLE
  2
APPID
  5
9
330
0
100
AcDbSymbolTable
 70
     1
  0
APPID
  5
12
330
9
100
AcDbSymbolTableRecord
100
AcDbRegAppTableRecord
  2
ACAD
 70
     0
  0
ENDTAB
  0
TABLE
  2
DIMSTYLE
  5
A
330
0
100
AcDbSymbolTable
 70
     3
100
AcDbDimStyleTable
  0
DIMSTYLE
105
27
330
A
100
AcDbSymbolTableRecord
100
AcDbDimStyleTableRecord
  2
ISO-25
 70
     0
 41
2.5
 42
0.625
 43
3.75
 44
1.25
 73
     0
 74
     0
 77
     1
 78
     8
140
2.5
141
2.5
143
0.0393700787
147
0.625
171
     3
172
     1
178
     0
271
     2
272
     2
274
     3
278
    44
283
     0
284
     8
340
11
  0
DIMSTYLE
105
12C
102
{ACAD_REACTORS
330
12B
330
137
330
142
330
14D
330
157
330
161
330
16B
330
175
102
}
330
A
100
AcDbSymbolTableRecord
100
AcDbDimStyleTableRecord
  2
SLDDIMSTYLE0
 70
     0
 41
3.0
 44
0.0
 45
0.000000001
 73
     0
 74
     0
 77
     1
 78
    12
 79
     3
140
2.0
147
0.5
173
     1
178
     0
271
     2
272
     3
276
     2
284
    12
340
77
  0
DIMSTYLE
105
181
102
{ACAD_REACTORS
330
180
102
}
330
A
100
AcDbSymbolTableRecord
100
AcDbDimStyleTableRecord
  2
SLDDIMSTYLE1
 70
     0
 41
3.0
 44
0.0
 45
0.000000001
 73
     0
 74
     0
 77
     1
 78
    12
 79
     3
140
2.0
147
0.5
173
     1
178
     0
271
     0
272
     3
276
     2
284
    12
340
77
  0
ENDTAB
  0
TABLE
  2
BLOCK_RECORD
  5
1
330
0
100
AcDbSymbolTable
 70
    10
  0
BLOCK_RECORD
  5
1F
330
1
100
AcDbSymbolTableRecord
100
AcDbBlockTableRecord
  2
*Model_Space
340
22
  0
BLOCK_RECORD
  5
1B
330
1
100
AcDbSymbolTableRecord
100
AcDbBlockTableRecord
  2
*Paper_Space
340
1E
  0
BLOCK_RECORD
  5
23
330
1
100
AcDbSymbolTableRecord
100
AcDbBlockTableRecord
  2
*Paper_Space0
340
26
  0
BLOCK_RECORD
  5
12D
330
1
100
AcDbSymbolTableRecord
100
AcDbBlockTableRecord
  2
_D
340
0
  0
BLOCK_RECORD
  5
138
330
1
100
AcDbSymbolTableRecord
100
AcDbBlockTableRecord
  2
_D_1
340
0
  0
BLOCK_RECORD
  5
143
330
1
100
AcDbSymbolTableRecord
100
AcDbBlockTableRecord
  2
_D_2
340
0
  0
BLOCK_RECORD
  5
14E
330
1
100
AcDbSymbolTableRecord
100
AcDbBlockTableRecord
  2
_D_3
340
0
  0
BLOCK_RECORD
  5
158
330
1
100
AcDbSymbolTableRecord
100
AcDbBlockTableRecord
  2
_D_4
340
0
  0
BLOCK_RECORD
  5
162
330
1
100
AcDbSymbolTableRecord
100
AcDbBlockTableRecord
  2
_D_5
340
0
  0
BLOCK_RECORD
  5
16C
330
1
100
AcDbSymbolTableRecord
100
AcDbBlockTableRecord
  2
_D_6
340
0
  0
BLOCK_RECORD
  5
176
330
1
100
AcDbSymbolTableRecord
100
AcDbBlockTableRecord
  2
_D_7
340
0
  0
BLOCK_RECORD
  5
182
330
1
100
AcDbSymbolTableRecord
100
AcDbBlockTableRecord
  2
_D_8
340
0
  0
ENDTAB
  0
ENDSEC
  0
SECTION
  2
BLOCKS
  0
BLOCK
  5
20
330
1F
100
AcDbEntity
  8
0
100
AcDbBlockBegin
  2
*Model_Space
 70
     0
 10
0.0
 20
0.0
 30
0.0
  3
*Model_Space
  1

  0
ENDBLK
  5
21
330
1F
100
AcDbEntity
  8
0
100
AcDbBlockEnd
  0
BLOCK
  5
1C
330
1B
100
AcDbEntity
 67
     1
  8
0
100
AcDbBlockBegin
  2
*Paper_Space
 70
     0
 10
0.0
 20
0.0
 30
0.0
  3
*Paper_Space
  1

  0
ENDBLK
  5
1D
330
1B
100
AcDbEntity
 67
     1
  8
0
100
AcDbBlockEnd
  0
BLOCK
  5
24
330
23
100
AcDbEntity
  8
0
100
AcDbBlockBegin
  2
*Paper_Space0
 70
     0
 10
0.0
 20
0.0
 30
0.0
  3
*Paper_Space0
  1

  0
ENDBLK
  5
25
330
23
100
AcDbEntity
  8
0
100
AcDbBlockEnd
  0
BLOCK
  5
12E
330
12D
100
AcDbEntity
  8
0
100
AcDbBlockBegin
  2
_D
 70
     0
 10
0.0
 20
0.0
 30
0.0
  3
_D
  1

  0
SOLID
  5
130
330
12D
100
AcDbEntity
  8
VERMASSUNG
100
AcDbTrace
 10
251.1775386939
 20
145.0389395068
 30
0.0
 11
250.7275386939
 21
142.0389395068
 31
0.0
 12
251.6275386939
 22
142.0389395068
 32
0.0
 13
251.6275386939
 23
142.0389395068
 33
0.0
  0
SOLID
  5
131
330
12D
100
AcDbEntity
  8
VERMASSUNG
100
AcDbTrace
 10
251.1775386939
 20
93.0389395068
 30
0.0
 11
251.6275386939
 21
96.0389395068
 31
0.0
 12
250.7275386939
 22
96.0389395068
 32
0.0
 13
250.7275386939
 23
96.0389395068
 33
0.0
  0
LINE
  5
132
330
12D
100
AcDbEntity
  8
VERMASSUNG
100
AcDbLine
 10
120.1775386939
 20
145.0389395068
 30
0.0
 11
252.1775386939
 21
145.0389395068
 31
0.0
  0
LINE
  5
133
330
12D
100
AcDbEntity
  8
VERMASSUNG
100
AcDbLine
 10
120.1775386939
 20
93.0389395068
 30
0.0
 11
252.1775386939
 21
93.0389395068
 31
0.0
  0
LINE
  5
134
330
12D
100
AcDbEntity
  8
VERMASSUNG
100
AcDbLine
 10
251.1775386939
 20
145.0389395068
 30
0.0
 11
251.1775386939
 21
93.0389395068
 31
0.0
  0
MTEXT
  5
135
330
12D
100
AcDbEntity
  8
VERMASSUNG
100
AcDbMText
 10
248.599403389
 20
115.8339395496
 30
0.0
 40
2.0
 41
0.0
 71
     1
 72
     1
  1
%%c
  7
SLDTEXTSTYLE0
 11
-7.044195017643634E-15
 21
1.0
 31
0.0
 73
     1
 44
1.0
  0
MTEXT
  5
136
330
12D
100
AcDbEntity
  8
VERMASSUNG
100
AcDbMText
 10
248.3994034377
 20
119.4439395639
 30
0.0
 40
2.0
 41
0.0
 71
     1
 72
     1
  1
52
  7
SLDTEXTSTYLE0
 11
-7.044195017643634E-15
 21
1.0
 31
0.0
 73
     1
 44
1.0
  0
ENDBLK
  5
12F
330
12D
100
AcDbEntity
  8
0
100
AcDbBlockEnd
  0
BLOCK
  5
139
330
138
100
AcDbEntity
  8
0
100
AcDbBlockBegin
  2
_D_1
 70
     0
 10
0.0
 20
0.0
 30
0.0
  3
_D_1
  1

  0
SOLID
  5
13B
330
138
100
AcDbEntity
  8
VERMASSUNG
100
AcDbTrace
 10
263.1775386939
 20
148.0389395068
 30
0.0
 11
262.7275386939
 21
145.0389395068
 31
0.0
 12
263.6275386939
 22
145.0389395068
 32
0.0
 13
263.6275386939
 23
145.0389395068
 33
0.0
  0
SOLID
  5
13C
330
138
100
AcDbEntity
  8
VERMASSUNG
100
AcDbTrace
 10
263.1775386939
 20
90.0389395068
 30
0.0
 11
263.6275386939
 21
93.0389395068
 31
0.0
 12
262.7275386939
 22
93.0389395068
 32
0.0
 13
262.7275386939
 23
93.0389395068
 33
0.0
  0
LINE
  5
13D
330
138
100
AcDbEntity
  8
VERMASSUNG
100
AcDbLine
 10
178.3775386939
 20
148.0389395068
 30
0.0
 11
264.1775386939
 21
148.0389395068
 31
0.0
  0
LINE
  5
13E
330
138
100
AcDbEntity
  8
VERMASSUNG
100
AcDbLine
 10
178.3775386939
 20
90.0389395068
 30
0.0
 11
264.1775386939
 21
90.0389395068
 31
0.0
  0
LINE
  5
13F
330
138
100
AcDbEntity
  8
VERMASSUNG
100
AcDbLine
 10
263.1775386939
 20
148.0389395068
 30
0.0
 11
263.1775386939
 21
90.0389395068
 31
0.0
  0
MTEXT
  5
140
330
138
100
AcDbEntity
  8
VERMASSUNG
100
AcDbMText
 10
260.599403389
 20
115.8339395496
 30
0.0
 40
2.0
 41
0.0
 71
     1
 72
     1
  1
%%c
  7
SLDTEXTSTYLE0
 11
-7.044195017643634E-15
 21
1.0
 31
0.0
 73
     1
 44
1.0
  0
MTEXT
  5
141
330
138
100
AcDbEntity
  8
VERMASSUNG
100
AcDbMText
 10
260.3994034377
 20
119.4439395639
 30
0.0
 40
2.0
 41
0.0
 71
     1
 72
     1
  1
58
  7
SLDTEXTSTYLE0
 11
-7.044195017643634E-15
 21
1.0
 31
0.0
 73
     1
 44
1.0
  0
ENDBLK
  5
13A
330
138
100
AcDbEntity
  8
0
100
AcDbBlockEnd
  0
BLOCK
  5
144
330
143
100
AcDbEntity
  8
0
100
AcDbBlockBegin
  2
_D_2
 70
     0
 10
0.0
 20
0.0
 30
0.0
  3
_D_2
  1

  0
SOLID
  5
146
330
143
100
AcDbEntity
  8
VERMASSUNG
100
AcDbTrace
 10
239.1775386939
 20
105.5389395068
 30
0.0
 11
239.6275386939
 21
108.5389395068
 31
0.0
 12
238.7275386939
 22
108.5389395068
 32
0.0
 13
238.7275386939
 23
108.5389395068
 33
0.0
  0
SOLID
  5
147
330
143
100
AcDbEntity
  8
VERMASSUNG
100
AcDbTrace
 10
239.1775386939
 20
132.5389395068
 30
0.0
 11
238.7275386939
 21
129.5389395068
 31
0.0
 12
239.6275386939
 22
129.5389395068
 32
0.0
 13
239.6275386939
 23
129.5389395068
 33
0.0
  0
LINE
  5
148
330
143
100
AcDbEntity
  8
VERMASSUNG
100
AcDbLine
 10
199.3775386939
 20
105.5389395068
 30
0.0
 11
240.1775386939
 21
105.5389395068
 31
0.0
  0
LINE
  5
149
330
143
100
AcDbEntity
  8
VERMASSUNG
100
AcDbLine
 10
199.3775386939
 20
132.5389395068
 30
0.0
 11
240.1775386939
 21
132.5389395068
 31
0.0
  0
LINE
  5
14A
330
143
100
AcDbEntity
  8
VERMASSUNG
100
AcDbLine
 10
239.1775386939
 20
105.5389395068
 30
0.0
 11
239.1775386939
 21
132.5389395068
 31
0.0
  0
MTEXT
  5
14B
330
143
100
AcDbEntity
  8
VERMASSUNG
100
AcDbMText
 10
236.599403389
 20
115.8339395496
 30
0.0
 40
2.0
 41
0.0
 71
     1
 72
     1
  1
%%c
  7
SLDTEXTSTYLE0
 11
6.123233995736766E-17
 21
1.0
 31
0.0
 73
     1
 44
1.0
  0
MTEXT
  5
14C
330
143
100
AcDbEntity
  8
VERMASSUNG
100
AcDbMText
 10
236.3994034377
 20
119.4439395639
 30
0.0
 40
2.0
 41
0.0
 71
     1
 72
     1
  1
27
  7
SLDTEXTSTYLE0
 11
6.123233995736766E-17
 21
1.0
 31
0.0
 73
     1
 44
1.0
  0
ENDBLK
  5
145
330
143
100
AcDbEntity
  8
0
100
AcDbBlockEnd
  0
BLOCK
  5
14F
330
14E
100
AcDbEntity
  8
0
100
AcDbBlockBegin
  2
_D_3
 70
     0
 10
0.0
 20
0.0
 30
0.0
  3
_D_3
  1

  0
SOLID
  5
151
330
14E
100
AcDbEntity
  8
VERMASSUNG
100
AcDbTrace
 10
105.1275386939
 20
163.4596852222
 30
0.0
 11
108.1275386939
 21
163.0096852222
 31
0.0
 12
108.1275386939
 22
163.9096852222
 32
0.0
 13
108.1275386939
 23
163.9096852222
 33
0.0
  0
SOLID
  5
152
330
14E
100
AcDbEntity
  8
VERMASSUNG
100
AcDbTrace
 10
179.1775386939
 20
163.4596852222
 30
0.0
 11
176.1775386939
 21
163.9096852222
 31
0.0
 12
176.1775386939
 22
163.0096852222
 32
0.0
 13
176.1775386939
 23
163.0096852222
 33
0.0
  0
LINE
  5
153
330
14E
100
AcDbEntity
  8
VERMASSUNG
100
AcDbLine
 10
105.1275386939
 20
148.8853798306
 30
0.0
 11
105.1275386939
 21
164.4596852222
 31
0.0
  0
LINE
  5
154
330
14E
100
AcDbEntity
  8
VERMASSUNG
100
AcDbLine
 10
179.1775386939
 20
147.2389395068
 30
0.0
 11
179.1775386939
 21
164.4596852222
 31
0.0
  0
LINE
  5
155
330
14E
100
AcDbEntity
  8
VERMASSUNG
100
AcDbLine
 10
105.1275386939
 20
163.4596852222
 30
0.0
 11
179.1775386939
 21
163.4596852222
 31
0.0
  0
MTEXT
  5
156
330
14E
100
AcDbEntity
  8
VERMASSUNG
100
AcDbMText
 10
138.9525387748
 20
166.0378208182
 30
0.0
 40
2.0
 41
0.0
 71
     1
 72
     1
  1
74.05
  7
SLDTEXTSTYLE0
 73
     1
 44
1.0
  0
ENDBLK
  5
150
330
14E
100
AcDbEntity
  8
0
100
AcDbBlockEnd
  0
BLOCK
  5
159
330
158
100
AcDbEntity
  8
0
100
AcDbBlockBegin
  2
_D_4
 70
     0
 10
0.0
 20
0.0
 30
0.0
  3
_D_4
  1

  0
SOLID
  5
15B
330
158
100
AcDbEntity
  8
VERMASSUNG
100
AcDbTrace
 10
179.1775386939
 20
163.4596852222
 30
0.0
 11
182.1775386939
 21
163.0096852222
 31
0.0
 12
182.1775386939
 22
163.9096852222
 32
0.0
 13
182.1775386939
 23
163.9096852222
 33
0.0
  0
SOLID
  5
15C
330
158
100
AcDbEntity
  8
VERMASSUNG
100
AcDbTrace
 10
200.1775386939
 20
163.4596852222
 30
0.0
 11
197.1775386939
 21
163.9096852222
 31
0.0
 12
197.1775386939
 22
163.0096852222
 32
0.0
 13
197.1775386939
 23
163.0096852222
 33
0.0
  0
LINE
  5
15D
330
158
100
AcDbEntity
  8
VERMASSUNG
100
AcDbLine
 10
179.1775386939
 20
147.2389395068
 30
0.0
 11
179.1775386939
 21
164.4596852222
 31
0.0
  0
LINE
  5
15E
330
158
100
AcDbEntity
  8
VERMASSUNG
100
AcDbLine
 10
200.1775386939
 20
131.7389395068
 30
0.0
 11
200.1775386939
 21
164.4596852222
 31
0.0
  0
LINE
  5
15F
330
158
100
AcDbEntity
  8
VERMASSUNG
100
AcDbLine
 10
179.1775386939
 20
163.4596852222
 30
0.0
 11
200.1775386939
 21
163.4596852222
 31
0.0
  0
MTEXT
  5
160
330
158
100
AcDbEntity
  8
VERMASSUNG
100
AcDbMText
 10
188.4775386369
 20
166.0378208182
 30
0.0
 40
2.0
 41
0.0
 71
     1
 72
     1
  1
21
  7
SLDTEXTSTYLE0
 73
     1
 44
1.0
  0
ENDBLK
  5
15A
330
158
100
AcDbEntity
  8
0
100
AcDbBlockEnd
  0
BLOCK
  5
163
330
162
100
AcDbEntity
  8
0
100
AcDbBlockBegin
  2
_D_5
 70
     0
 10
0.0
 20
0.0
 30
0.0
  3
_D_5
  1

  0
SOLID
  5
165
330
162
100
AcDbEntity
  8
VERMASSUNG
100
AcDbTrace
 10
79.1775386939
 20
172.5389395068
 30
0.0
 11
82.1775386939
 21
172.0889395068
 31
0.0
 12
82.1775386939
 22
172.9889395068
 32
0.0
 13
82.1775386939
 23
172.9889395068
 33
0.0
  0
SOLID
  5
166
330
162
100
AcDbEntity
  8
VERMASSUNG
100
AcDbTrace
 10
179.1775386939
 20
172.5389395068
 30
0.0
 11
176.1775386939
 21
172.9889395068
 31
0.0
 12
176.1775386939
 22
172.0889395068
 32
0.0
 13
176.1775386939
 23
172.0889395068
 33
0.0
  0
LINE
  5
167
330
162
100
AcDbEntity
  8
VERMASSUNG
100
AcDbLine
 10
79.1775386939
 20
150.2389395068
 30
0.0
 11
79.1775386939
 21
173.5389395068
 31
0.0
  0
LINE
  5
168
330
162
100
AcDbEntity
  8
VERMASSUNG
100
AcDbLine
 10
179.1775386939
 20
147.2389395068
 30
0.0
 11
179.1775386939
 21
173.5389395068
 31
0.0
  0
LINE
  5
169
330
162
100
AcDbEntity
  8
VERMASSUNG
100
AcDbLine
 10
79.1775386939
 20
172.5389395068
 30
0.0
 11
179.1775386939
 21
172.5389395068
 31
0.0
  0
MTEXT
  5
16A
330
162
100
AcDbEntity
  8
VERMASSUNG
100
AcDbMText
 10
127.2775386619
 20
175.1170751028
 30
0.0
 40
2.0
 41
0.0
 71
     1
 72
     1
  1
100
  7
SLDTEXTSTYLE0
 73
     1
 44
1.0
  0
ENDBLK
  5
164
330
162
100
AcDbEntity
  8
0
100
AcDbBlockEnd
  0
BLOCK
  5
16D
330
16C
100
AcDbEntity
  8
0
100
AcDbBlockBegin
  2
_D_6
 70
     0
 10
0.0
 20
0.0
 30
0.0
  3
_D_6
  1

  0
SOLID
  5
16F
330
16C
100
AcDbEntity
  8
VERMASSUNG
100
AcDbTrace
 10
47.2775386939
 20
181.6607503483
 30
0.0
 11
50.2775386939
 21
181.2107503483
 31
0.0
 12
50.2775386939
 22
182.1107503483
 32
0.0
 13
50.2775386939
 23
182.1107503483
 33
0.0
  0
SOLID
  5
170
330
16C
100
AcDbEntity
  8
VERMASSUNG
100
AcDbTrace
 10
217.1775386939
 20
181.6607503483
 30
0.0
 11
214.1775386939
 21
182.1107503483
 31
0.0
 12
214.1775386939
 22
181.2107503483
 32
0.0
 13
214.1775386939
 23
181.2107503483
 33
0.0
  0
LINE
  5
171
330
16C
100
AcDbEntity
  8
VERMASSUNG
100
AcDbLine
 10
47.2775386939
 20
138.7296172533
 30
0.0
 11
47.2775386939
 21
182.6607503483
 31
0.0
  0
LINE
  5
172
330
16C
100
AcDbEntity
  8
VERMASSUNG
100
AcDbLine
 10
217.1775386939
 20
127.4389395068
 30
0.0
 11
217.1775386939
 21
182.6607503483
 31
0.0
  0
LINE
  5
173
330
16C
100
AcDbEntity
  8
VERMASSUNG
100
AcDbLine
 10
47.2775386939
 20
181.6607503483
 30
0.0
 11
217.1775386939
 21
181.6607503483
 31
0.0
  0
MTEXT
  5
174
330
16C
100
AcDbEntity
  8
VERMASSUNG
100
AcDbMText
 10
129.3275387308
 20
184.2388859443
 30
0.0
 40
2.0
 41
0.0
 71
     1
 72
     1
  1
169.9
  7
SLDTEXTSTYLE0
 73
     1
 44
1.0
  0
ENDBLK
  5
16E
330
16C
100
AcDbEntity
  8
0
100
AcDbBlockEnd
  0
BLOCK
  5
177
330
176
100
AcDbEntity
  8
0
100
AcDbBlockBegin
  2
_D_7
 70
     0
 10
0.0
 20
0.0
 30
0.0
  3
_D_7
  1

  0
SOLID
  5
179
330
176
100
AcDbEntity
  8
VERMASSUNG
100
AcDbTrace
 10
37.1322348516
 20
150.5389395068
 30
0.0
 11
36.6822348516
 21
147.5389395068
 31
0.0
 12
37.5822348516
 22
147.5389395068
 32
0.0
 13
37.5822348516
 23
147.5389395068
 33
0.0
  0
SOLID
  5
17A
330
176
100
AcDbEntity
  8
VERMASSUNG
100
AcDbTrace
 10
37.1322348516
 20
87.5389395068
 30
0.0
 11
37.5822348516
 21
90.5389395068
 31
0.0
 12
36.6822348516
 22
90.5389395068
 32
0.0
 13
36.6822348516
 23
90.5389395068
 33
0.0
  0
LINE
  5
17B
330
176
100
AcDbEntity
  8
VERMASSUNG
100
AcDbLine
 10
79.4775386939
 20
150.5389395068
 30
0.0
 11
36.1322348516
 21
150.5389395068
 31
0.0
  0
LINE
  5
17C
330
176
100
AcDbEntity
  8
VERMASSUNG
100
AcDbLine
 10
79.4775386939
 20
87.5389395068
 30
0.0
 11
36.1322348516
 21
87.5389395068
 31
0.0
  0
LINE
  5
17D
330
176
100
AcDbEntity
  8
VERMASSUNG
100
AcDbLine
 10
37.1322348516
 20
150.5389395068
 30
0.0
 11
37.1322348516
 21
87.5389395068
 31
0.0
  0
MTEXT
  5
17E
330
176
100
AcDbEntity
  8
VERMASSUNG
100
AcDbMText
 10
34.5540995467
 20
115.8339395496
 30
0.0
 40
2.0
 41
0.0
 71
     1
 72
     1
  1
%%c
  7
SLDTEXTSTYLE0
 11
-7.044195017643634E-15
 21
1.0
 31
0.0
 73
     1
 44
1.0
  0
MTEXT
  5
17F
330
176
100
AcDbEntity
  8
VERMASSUNG
100
AcDbMText
 10
34.3540995954
 20
119.4439395639
 30
0.0
 40
2.0
 41
0.0
 71
     1
 72
     1
  1
63
  7
SLDTEXTSTYLE0
 11
-7.044195017643634E-15
 21
1.0
 31
0.0
 73
     1
 44
1.0
  0
ENDBLK
  5
178
330
176
100
AcDbEntity
  8
0
100
AcDbBlockEnd
  0
BLOCK
  5
183
330
182
100
AcDbEntity
  8
0
100
AcDbBlockBegin
  2
_D_8
 70
     0
 10
0.0
 20
0.0
 30
0.0
  3
_D_8
  1

  0
SOLID
  5
185
330
182
100
AcDbEntity
  8
VERMASSUNG
100
AcDbTrace
 10
229.8935088655
 20
124.0964395068
 30
0.0
 11
229.4435088655
 21
121.0964395068
 31
0.0
 12
230.3435088655
 22
121.0964395068
 32
0.0
 13
230.3435088655
 23
121.0964395068
 33
0.0
  0
SOLID
  5
186
330
182
100
AcDbEntity
  8
VERMASSUNG
100
AcDbTrace
 10
229.8935088655
 20
113.9814395068
 30
0.0
 11
230.3435088655
 21
116.9814395068
 31
0.0
 12
229.4435088655
 22
116.9814395068
 32
0.0
 13
229.4435088655
 23
116.9814395068
 33
0.0
  0
LINE
  5
187
330
182
100
AcDbEntity
  8
VERMASSUNG
100
AcDbLine
 10
217.1775386939
 20
124.0964395068
 30
0.0
 11
230.8935088655
 21
124.0964395068
 31
0.0
  0
LINE
  5
188
330
182
100
AcDbEntity
  8
VERMASSUNG
100
AcDbLine
 10
217.1775386939
 20
113.9814395068
 30
0.0
 11
230.8935088655
 21
113.9814395068
 31
0.0
  0
LINE
  5
189
330
182
100
AcDbEntity
  8
VERMASSUNG
100
AcDbLine
 10
229.8935088655
 20
124.0964395068
 30
0.0
 11
229.8935088655
 21
113.9814395068
 31
0.0
  0
MTEXT
  5
18A
330
182
100
AcDbEntity
  8
VERMASSUNG
100
AcDbMText
 10
227.3153732695
 20
115.9389394178
 30
0.0
 40
2.0
 41
0.0
 71
     1
 72
     1
  1
SW
  7
SLDTEXTSTYLE0
 11
-7.044195017643634E-15
 21
1.0
 31
0.0
 73
     1
 44
1.0
  0
MTEXT
  5
18B
330
182
100
AcDbEntity
  8
VERMASSUNG
100
AcDbMText
 10
227.3153732695
 20
119.7389394818
 30
0.0
 40
2.0
 41
0.0
 71
     1
 72
     1
  1
10
  7
SLDTEXTSTYLE0
 11
-7.044195017643634E-15
 21
1.0
 31
0.0
 73
     1
 44
1.0
  0
ENDBLK
  5
184
330
182
100
AcDbEntity
  8
0
100
AcDbBlockEnd
  0
ENDSEC
  0
SECTION
  2
ENTITIES
  0
MTEXT
  5
78
330
1F
100
AcDbEntity
  8
KOPF_DÜNN
100
AcDbMText
 10
13.8892156294
 20
23.8442973028
 30
0.0
 40
3.0
 41
0.0
 71
     1
 72
     1
  1
HA6.D27.K01.100
  7
SLDTEXTSTYLE0
 73
     1
 44
1.0
  0
MTEXT
  5
79
330
1F
100
AcDbEntity
  8
VERMASSUNG
100
AcDbMText
 10
13.9329988022
 20
28.8834360957
 30
0.0
 40
3.0
 41
0.0
 71
     1
 72
     1
  1
Fräsdorn Typ S_Milling arbor type S
  7
SLDTEXTSTYLE0
 73
     1
 44
1.0
  0
MTEXT
  5
7A
330
1F
100
AcDbEntity
  8
VERMASSUNG
100
AcDbMText
 10
98.8601118557
 20
13.8365368761
 30
0.0
 40
2.0
 41
0.0
 71
     1
 72
     1
  1
Datum: 16.02.2018
  7
SLDTEXTSTYLE0
 73
     1
 44
1.0
  0
MTEXT
  5
7C
330
1F
100
AcDbEntity
  8
VERMASSUNG
100
AcDbMText
 10
13.933048693
 20
18.0482802738
 30
0.0
 40
2.0
 41
0.0
 71
     1
 72
     1
  1
HSK A 63 / Ø27
  7
SLDTEXTSTYLE1
 73
     1
 44
1.0
  0
MTEXT
  5
7D
330
1F
100
AcDbEntity
  8
VERMASSUNG
100
AcDbMText
 10
13.9808475933
 20
13.9090974274
 30
0.0
 40
2.0
 41
0.0
 71
     1
 72
     1
  1
Gewicht: 2175g
  7
SLDTEXTSTYLE0
 73
     1
 44
1.0
  0
ARC
  5
7E
330
1F
100
AcDbEntity
  8
0
  6
Continuous
 62
     7
370
    25
100
AcDbCircle
 10
184.9775386939
 20
91.5389395068
 30
0.0
 40
0.5
100
AcDbArc
 50
270.0
 51
0.0
  0
ARC
  5
7F
330
1F
100
AcDbEntity
  8
0
  6
Continuous
 62
     7
370
    25
100
AcDbCircle
 10
184.9775386939
 20
102.5389395068
 30
0.0
 40
0.5
100
AcDbArc
 50
0.0
 51
90.0
  0
LINE
  5
80
330
1F
100
AcDbEntity
  8
0
  6
Continuous
 62
     7
370
    25
100
AcDbLine
 10
179.177540184
 20
91.0389386425
 30
0.0
 11
184.9775415073
 21
91.0389386425
 31
0.0
  0
LINE
  5
81
330
1F
100
AcDbEntity
  8
0
  6
Continuous
 62
     7
370
    25
100
AcDbLine
 10
184.9775415073
 20
103.0389387468
 30
0.0
 11
179.177540184
 21
103.0389387468
 31
0.0
  0
ARC
  5
82
330
1F
100
AcDbEntity
  8
0
  6
Continuous
 62
     7
370
    25
100
AcDbCircle
 10
184.9775386939
 20
135.5389395068
 30
0.0
 40
0.5
100
AcDbArc
 50
270.0
 51
0.0
  0
ARC
  5
83
330
1F
100
AcDbEntity
  8
0
  6
Continuous
 62
     7
370
    25
100
AcDbCircle
 10
184.9775386939
 20
146.5389395068
 30
0.0
 40
0.5
100
AcDbArc
 50
0.0
 51
90.0
  0
LINE
  5
84
330
1F
100
AcDbEntity
  8
0
  6
Continuous
 62
     7
370
    25
100
AcDbLine
 10
179.177540184
 20
135.0389402668
 30
0.0
 11
184.9775415073
 21
135.0389402668
 31
0.0
  0
LINE
  5
85
330
1F
100
AcDbEntity
  8
0
  6
Continuous
 62
     7
370
    25
100
AcDbLine
 10
184.9775415073
 20
147.0389403711
 30
0.0
 11
179.177540184
 21
147.0389403711
 31
0.0
  0
LINE
  5
86
330
1F
100
AcDbEntity
  8
0
  6
Continuous
 62
     7
370
    25
100
AcDbLine
 10
216.5775399814
 20
128.0389391194
 30
0.0
 11
205.1775407205
 21
128.0389391194
 31
0.0
  0
LINE
  5
87
330
1F
100
AcDbEntity
  8
0
  6
Continuous
 62
     7
370
    25
100
AcDbLine
 10
205.1775407205
 20
110.0389398942
 30
0.0
 11
216.5775399814
 21
110.0389398942
 31
0.0
  0
ARC
  5
88
330
1F
100
AcDbEntity
  8
0
  6
Continuous
 62
     7
370
    25
100
AcDbCircle
 10
216.5775386939
 20
127.4389395068
 30
0.0
 40
0.5999999999999943
100
AcDbArc
 50
0.0
 51
90.0
  0
ARC
  5
89
330
1F
100
AcDbEntity
  8
0
  6
Continuous
 62
     7
370
    25
100
AcDbCircle
 10
216.5775386939
 20
110.6389395068
 30
0.0
 40
0.5999999999999943
100
AcDbArc
 50
270.0
 51
0.0
  0
ARC
  5
8A
330
1F
100
AcDbEntity
  8
0
  6
Continuous
 62
     7
370
    25
100
AcDbCircle
 10
204.5775386939
 20
112.4389395068
 30
0.0
 40
0.5999999999999943
100
AcDbArc
 50
0.0
 51
90.0
  0
ARC
  5
8B
330
1F
100
AcDbEntity
  8
0
  6
Continuous
 62
     7
370
    25
100
AcDbCircle
 10
204.5775386939
 20
125.6389395068
 30
0.0
 40
0.6000000000000227
100
AcDbArc
 50
270.0
 51
0.0
  0
LINE
  5
8C
330
1F
100
AcDbEntity
  8
0
  6
Continuous
 62
     7
370
    25
100
AcDbLine
 10
204.577545465
 20
125.038939559
 30
0.0
 11
200.1775380383
 21
125.038939559
 31
0.0
  0
LINE
  5
8D
330
1F
100
AcDbEntity
  8
0
  6
Continuous
 62
     7
370
    25
100
AcDbLine
 10
200.1775380383
 20
113.0389394546
 30
0.0
 11
204.577545465
 21
113.0389394546
 31
0.0
  0
LINE
  5
8E
330
1F
100
AcDbEntity
  8
0
  6
Continuous
 62
     7
370
    25
100
AcDbLine
 10
79.4775387082
 20
87.5389390002
 30
0.0
 11
84.1275386671
 21
87.5389390002
 31
0.0
  0
LINE
  5
8F
330
1F
100
AcDbEntity
  8
0
  6
Continuous
 62
     7
370
    25
100
AcDbLine
 10
84.1555272388
 20
150.5389400134
 30
0.0
 11
79.4775387082
 21
150.5389400134
 31
0.0
  0
ARC
  5
90
330
1F
100
AcDbEntity
  8
0
  6
Continuous
 62
     7
370
    25
100
AcDbCircle
 10
79.4775386939
 20
87.8389395068
 30
0.0
 40
0.3000000000000114
100
AcDbArc
 50
180.0
 51
270.0
  0
ARC
  5
91
330
1F
100
AcDbEntity
  8
0
  6
Continuous
 62
     7
370
    25
100
AcDbCircle
 10
79.4775386939
 20
150.2389395068
 30
0.0
 40
0.3000000000000398
100
AcDbArc
 50
90.0
 51
180.0
  0
LINE
  5
92
330
1F
100
AcDbEntity
  8
0
  6
Continuous
 62
     7
370
    25
100
AcDbLine
 10
122.1775401542
 20
90.0389403413
 30
0.0
 11
178.377541543
 21
90.0389403413
 31
0.0
  0
LINE
  5
93
330
1F
100
AcDbEntity
  8
0
  6
Continuous
 62
     7
370
    25
100
AcDbLine
 10
178.377541543
 20
148.0389386723
 30
0.0
 11
122.1775401542
 21
148.0389386723
 31
0.0
  0
ARC
  5
94
330
1F
100
AcDbEntity
  8
0
  6
Continuous
 62
     7
370
    25
100
AcDbCircle
 10
178.3775386939
 20
90.8389395068
 30
0.0
 40
0.8000000000000398
100
AcDbArc
 50
270.0
 51
0.0
  0
ARC
  5
95
330
1F
100
AcDbEntity
  8
0
  6
Continuous
 62
     7
370
    25
100
AcDbCircle
 10
178.3775386939
 20
147.2389395068
 30
0.0
 40
0.8000000000000398
100
AcDbArc
 50
360.0
 51
90.0
  0
ARC
  5
96
330
1F
100
AcDbEntity
  8
0
  6
Continuous
 62
     7
370
    25
100
AcDbCircle
 10
122.1775386939
 20
91.0389395068
 30
0.0
 40
1.0
100
AcDbArc
 50
180.0
 51
270.0
  0
ARC
  5
97
330
1F
100
AcDbEntity
  8
0
  6
Continuous
 62
     7
370
    25
100
AcDbCircle
 10
122.1775386939
 20
147.0389395068
 30
0.0
 40
1.0
100
AcDbArc
 50
90.0
 51
180.0
  0
ARC
  5
98
330
1F
100
AcDbEntity
  8
0
  6
Continuous
 62
     7
370
    25
100
AcDbCircle
 10
120.1775386939
 20
92.0389395068
 30
0.0
 40
1.0
100
AcDbArc
 50
0.0
 51
90.0
  0
ARC
  5
99
330
1F
100
AcDbEntity
  8
0
  6
Continuous
 62
     7
370
    25
100
AcDbCircle
 10
120.1775386939
 20
146.0389395068
 30
0.0
 40
1.0
100
AcDbArc
 50
270.0
 51
0.0
  0
ARC
  5
9A
330
1F
100
AcDbEntity
  8
0
  6
Continuous
 62
     7
370
    25
100
AcDbCircle
 10
106.1275386939
 20
92.0389395068
 30
0.0
 40
1.0
100
AcDbArc
 50
90.0
 51
143.1139143113
  0
ARC
  5
9B
330
1F
100
AcDbEntity
  8
0
  6
Continuous
 62
     7
370
    25
100
AcDbCircle
 10
106.1275386939
 20
146.0389395068
 30
0.0
 40
1.000000000000022
100
AcDbArc
 50
216.9097456694
 51
270.0
  0
LINE
  5
9C
330
1F
100
AcDbEntity
  8
0
  6
Continuous
 62
     7
370
    25
100
AcDbLine
 10
106.1275385479
 20
93.0389389704
 30
0.0
 11
120.1775398264
 21
93.0389389704
 31
0.0
  0
LINE
  5
9D
330
1F
100
AcDbEntity
  8
0
  6
Continuous
 62
     7
370
    25
100
AcDbLine
 10
120.1775398264
 20
145.0389400432
 30
0.0
 11
106.1275385479
 21
145.0389400432
 31
0.0
  0
ARC
  5
9E
330
1F
100
AcDbEntity
  8
0
  6
Continuous
 62
     7
370
    25
100
AcDbCircle
 10
78.6775319412
 20
94.4685018924
 30
0.0
 40
0.6000067526677242
100
AcDbArc
 50
33.5571153394
 51
90.0
  0
ARC
  5
9F
330
1F
100
AcDbEntity
  8
0
  6
Continuous
 62
     7
370
    25
100
AcDbCircle
 10
78.6775319412
 20
143.6093771212
 30
0.0
 40
0.6000067526677242
100
AcDbArc
 50
270.0
 51
326.4428846606
  0
LINE
  5
A0
330
1F
100
AcDbEntity
  8
0
  6
Continuous
 62
     7
370
    25
100
AcDbLine
 10
65.9471161822
 20
142.6967233727
 30
0.0
 11
53.3775378177
 21
142.0669853995
 31
0.0
  0
LINE
  5
A1
330
1F
100
AcDbEntity
  8
0
  6
Continuous
 62
     7
370
    25
100
AcDbLine
 10
77.1775385989
 20
143.2593707303
 30
0.0
 11
74.3589292439
 21
143.1181580136
 31
0.0
  0
LINE
  5
A2
330
1F
100
AcDbEntity
  8
0
  6
Continuous
 62
     7
370
    25
100
AcDbLine
 10
74.3591508987
 20
94.9597098241
 30
0.0
 11
77.1775385989
 21
94.8185082833
 31
0.0
  0
LINE
  5
A3
330
1F
100
AcDbEntity
  8
0
  6
Continuous
 62
     7
370
    25
100
AcDbLine
 10
57.3775384734
 20
95.8104934851
 30
0.0
 11
65.9478156055
 21
95.3811202506
 31
0.0
  0
LINE
  5
A4
330
1F
100
AcDbEntity
  8
0
  6
Continuous
 62
     7
370
    25
100
AcDbLine
 10
77.1775385989
 20
94.8185082833
 30
0.0
 11
78.0342515251
 21
95.0480643968
 31
0.0
  0
LINE
  5
A5
330
1F
100
AcDbEntity
  8
0
  6
Continuous
 62
     7
370
    25
100
AcDbLine
 10
78.0342515251
 20
143.0298146168
 30
0.0
 11
77.1775385989
 21
143.2593707303
 31
0.0
  0
ARC
  5
A6
330
1F
100
AcDbEntity
  8
0
  6
Continuous
 62
     7
370
    25
100
AcDbCircle
 10
78.1895428944
 20
94.4685086451
 30
0.0
 40
0.6000000000000085
100
AcDbArc
 50
90.0
 51
105.0
  0
ARC
  5
A7
330
1F
100
AcDbEntity
  8
0
  6
Continuous
 62
     7
370
    25
100
AcDbCircle
 10
78.1895428944
 20
143.6093703685
 30
0.0
 40
0.5999999999999943
100
AcDbArc
 50
255.0
 51
270.0
  0
LINE
  5
A8
330
1F
100
AcDbEntity
  8
0
  6
Continuous
 62
     7
370
    25
100
AcDbLine
 10
78.1895429287
 20
95.0685087899
 30
0.0
 11
78.6775319181
 21
95.0685087899
 31
0.0
  0
LINE
  5
A9
330
1F
100
AcDbEntity
  8
0
  6
Continuous
 62
     7
370
    25
100
AcDbLine
 10
78.6775319181
 20
143.0093702237
 30
0.0
 11
78.1895429287
 21
143.0093702237
 31
0.0
  0
ARC
  5
AA
330
1F
100
AcDbEntity
  8
0
  6
Continuous
 62
     7
370
    25
100
AcDbCircle
 10
179.5775386939
 20
105.2889395068
 30
0.0
 40
0.5999999999999801
100
AcDbArc
 50
90.0
 51
131.8103148958
  0
ARC
  5
AB
330
1F
100
AcDbEntity
  8
0
  6
Continuous
 62
     7
370
    25
100
AcDbCircle
 10
179.5775386939
 20
132.7889395068
 30
0.0
 40
0.5999999999999943
100
AcDbArc
 50
228.1896851042
 51
270.0
  0
LINE
  5
AC
330
1F
100
AcDbEntity
  8
0
  6
Continuous
 62
     7
370
    25
100
AcDbLine
 10
181.6775377998
 20
105.5389391566
 30
0.0
 11
199.3775393972
 21
105.5389391566
 31
0.0
  0
LINE
  5
AD
330
1F
100
AcDbEntity
  8
0
  6
Continuous
 62
     7
370
    25
100
AcDbLine
 10
199.3775393972
 20
132.538939857
 30
0.0
 11
181.6775377998
 21
132.538939857
 31
0.0
  0
ARC
  5
AE
330
1F
100
AcDbEntity
  8
0
  6
Continuous
 62
     7
370
    25
100
AcDbCircle
 10
199.3775386939
 20
106.3389395068
 30
0.0
 40
0.7999999999999972
100
AcDbArc
 50
270.0
 51
0.0
  0
ARC
  5
AF
330
1F
100
AcDbEntity
  8
0
  6
Continuous
 62
     7
370
    25
100
AcDbCircle
 10
199.3775386939
 20
131.7389395068
 30
0.0
 40
0.799999999999983
100
AcDbArc
 50
0.0
 51
90.0
  0
LINE
  5
B0
330
1F
100
AcDbEntity
  8
0
  6
Continuous
 62
     7
370
    25
100
AcDbLine
 10
181.6775377998
 20
132.538939857
 30
0.0
 11
180.4476183066
 21
132.2093839134
 31
0.0
  0
LINE
  5
B1
330
1F
100
AcDbEntity
  8
0
  6
Continuous
 62
     7
370
    25
100
AcDbLine
 10
180.4476183066
 20
105.8684951002
 30
0.0
 11
181.6775377998
 21
105.5389391566
 31
0.0
  0
ARC
  5
B2
330
1F
100
AcDbEntity
  8
0
  6
Continuous
 62
     7
370
    25
100
AcDbCircle
 10
180.2923294127
 20
105.2889395068
 30
0.0
 40
0.5999999999999998
100
AcDbArc
 50
75.0
 51
90.0
  0
ARC
  5
B3
330
1F
100
AcDbEntity
  8
0
  6
Continuous
 62
     7
370
    25
100
AcDbCircle
 10
180.2923294127
 20
132.7889395068
 30
0.0
 40
0.5999999999999943
100
AcDbArc
 50
270.0
 51
285.0
  0
LINE
  5
B4
330
1F
100
AcDbEntity
  8
0
  6
Continuous
 62
     7
370
    25
100
AcDbLine
 10
179.5775395045
 20
105.8889394934
 30
0.0
 11
180.2923258553
 21
105.8889394934
 31
0.0
  0
LINE
  5
B5
330
1F
100
AcDbEntity
  8
0
  6
Continuous
 62
     7
370
    25
100
AcDbLine
 10
180.2923258553
 20
132.1889395202
 30
0.0
 11
179.5775395045
 21
132.1889395202
 31
0.0
  0
LINE
  5
B6
330
1F
100
AcDbEntity
  8
0
  6
Continuous
 62
     7
370
    25
100
AcDbLine
 10
48.5608752976
 20
98.1689393828
 30
0.0
 11
55.977538989
 21
98.1689393828
 31
0.0
  0
ARC
  5
B7
330
1F
100
AcDbEntity
  8
0
  6
Continuous
 62
     7
370
    25
100
AcDbCircle
 10
55.9775386939
 20
96.7689395068
 30
0.0
 40
1.400000000000006
100
AcDbArc
 50
42.2465410162
 51
90.0
  0
LINE
  5
B8
330
1F
100
AcDbEntity
  8
0
  6
Continuous
 62
     7
370
    25
100
AcDbLine
 10
47.2785707722
 20
99.3179064552
 30
0.0
 11
48.418701456
 21
98.1777757714
 31
0.0
  0
LINE
  5
B9
330
1F
100
AcDbEntity
  8
0
  6
Continuous
 62
     7
370
    25
100
AcDbLine
 10
48.418701456
 20
139.9001032422
 30
0.0
 11
47.2874406884
 21
138.768840612
 31
0.0
  0
ARC
  5
BA
330
1F
100
AcDbEntity
  8
0
  6
Continuous
 62
     7
370
    25
100
AcDbCircle
 10
51.9775386939
 20
141.3089395068
 30
0.0
 40
1.400000000000012
100
AcDbArc
 50
270.0
 51
301.7485287426
  0
LINE
  5
BB
330
1F
100
AcDbEntity
  8
0
  6
Continuous
 62
     7
370
    25
100
AcDbLine
 10
51.9775383333
 20
139.9089396308
 30
0.0
 11
48.5518042157
 21
139.9089396308
 31
0.0
  0
LINE
  5
BC
330
1F
100
AcDbEntity
  8
0
  6
Continuous
 62
     7
370
    25
100
AcDbLine
 10
185.47753507
 20
91.5389396558
 30
0.0
 11
185.47753507
 21
102.5389395962
 31
0.0
  0
LINE
  5
BD
330
1F
100
AcDbEntity
  8
0
  6
Continuous
 62
     7
370
    25
100
AcDbLine
 10
185.47753507
 20
135.5389394174
 30
0.0
 11
185.47753507
 21
146.5389393578
 31
0.0
  0
LINE
  5
BE
330
1F
100
AcDbEntity
  8
0
  6
Continuous
 62
     7
370
    25
100
AcDbLine
 10
205.1775407205
 20
128.0389391194
 30
0.0
 11
205.1775407205
 21
110.0389398942
 31
0.0
  0
LINE
  5
BF
330
1F
100
AcDbEntity
  8
0
  6
Continuous
 62
     7
370
    25
100
AcDbLine
 10
217.1775352368
 20
127.4389392073
 30
0.0
 11
217.1775352368
 21
110.6389398063
 31
0.0
  0
LINE
  5
C0
330
1F
100
AcDbEntity
  8
0
  6
Continuous
 62
     7
370
    25
100
AcDbLine
 10
105.127538384
 20
89.4786622683
 30
0.0
 11
105.127538384
 21
138.8889402459
 31
0.0
  0
SPLINE
  5
C1
330
1F
100
AcDbEntity
  8
0
  6
Continuous
 62
     7
370
    25
100
AcDbSpline
210
0.0
220
0.0
230
1.0
 70
     8
 71
     3
 72
    10
 73
     6
 74
     0
 42
0.000000001
 43
0.00000001
 40
0.0
 40
0.0
 40
0.0
 40
0.0
 40
0.5
 40
0.5
 40
1.0
 40
1.0
 40
1.0
 40
1.0
 10
105.1275386939139
 20
89.47866210620955
 30
0.0
 10
105.1275386939139
 20
89.3187748380159
 30
0.0
 10
105.0662290426781
 20
89.15764758250128
 30
0.0
 10
104.847129405143
 20
88.92354858414646
 30
0.0
 10
104.6890811988295
 20
88.85202181055524
 30
0.0
 10
104.5275386939139
 20
88.85202181055524
 30
0.0
  0
SPLINE
  5
C2
330
1F
100
AcDbEntity
  8
0
  6
Continuous
 62
     7
370
    25
100
AcDbSpline
210
0.0
220
0.0
230
1.0
 70
    24
 71
     3
 72
    12
 73
     8
 74
     0
 42
0.000000001
 43
0.00000001
 40
0.0
 40
0.0
 40
0.0
 40
0.0
 40
0.2500000000000033
 40
0.2500000000000033
 40
0.5000000000000067
 40
0.5000000000000067
 40
1.0
 40
1.0
 40
1.0
 40
1.0
 10
104.5275386939139
 20
138.8889395068024
 30
0.0
 10
104.617777761601
 20
138.8889395068024
 30
0.0
 10
104.7086758757075
 20
138.8889395068024
 30
0.0
 10
104.863272912196
 20
138.8889395068024
 30
0.0
 10
104.9282513283041
 20
138.8889395068024
 30
0.0
 10
105.0800863562403
 20
138.8889395068024
 30
0.0
 10
105.1275386939139
 20
138.8889395068024
 30
0.0
 10
105.1275386939139
 20
138.8889395068024
 30
0.0
  0
LINE
  5
C3
330
1F
100
AcDbEntity
  8
0
  6
Continuous
 62
     7
370
    25
100
AcDbLine
 10
84.1275386671
 20
138.8889402459
 30
0.0
 11
93.7856061543
 21
138.8889402459
 31
0.0
  0
LINE
  5
C4
330
1F
100
AcDbEntity
  8
0
  6
Continuous
 62
     7
370
    25
100
AcDbLine
 10
93.7856061543
 20
88.852021874
 30
0.0
 11
93.7856061543
 21
138.8889402459
 31
0.0
  0
LINE
  5
C5
330
1F
100
AcDbEntity
  8
0
  6
Continuous
 62
     7
370
    25
100
AcDbLine
 10
93.7856061543
 20
88.852021874
 30
0.0
 11
92.1275390471
 21
88.852021874
 31
0.0
  0
SPLINE
  5
C6
330
1F
100
AcDbEntity
  8
0
  6
Continuous
 62
     7
370
    25
100
AcDbSpline
210
0.0
220
0.0
230
1.0
 70
     8
 71
     3
 72
    28
 73
    24
 74
     0
 42
0.000000001
 43
0.00000001
 40
0.0
 40
0.0
 40
0.0
 40
0.0
 40
0.1249999999999999
 40
0.1249999999999999
 40
0.1874999999999998
 40
0.1874999999999998
 40
0.2499999999999997
 40
0.2499999999999997
 40
0.3749999999999993
 40
0.3749999999999993
 40
0.4374999999999993
 40
0.4374999999999993
 40
0.4999999999999992
 40
0.4999999999999992
 40
0.6249999999999992
 40
0.6249999999999992
 40
0.7499999999999992
 40
0.7499999999999992
 40
0.8124999999999993
 40
0.8124999999999993
 40
0.8749999999999996
 40
0.8749999999999996
 40
1.0
 40
1.0
 40
1.0
 40
1.0
 10
92.12753869391392
 20
88.85202181055524
 30
0.0
 10
91.59583093642098
 20
88.85202181055524
 30
0.0
 10
91.07359237111066
 20
88.83623709660502
 30
0.0
 10
90.30372188483565
 20
88.79124168252882
 30
0.0
 10
90.04936231264432
 20
88.77268668745309
 30
0.0
 10
89.54524073194581
 20
88.7288339650066
 30
0.0
 10
89.29551791451789
 20
88.70348935805438
 30
0.0
 10
88.56992796307148
 20
88.62008728030428
 30
0.0
 10
88.11156770148993
 20
88.5542217211532
 30
0.0
 10
87.46106975809606
 20
88.44525138066142
 30
0.0
 10
87.2493877073036
 20
88.40701174489476
 30
0.0
 10
86.8453162181656
 20
88.3292530074754
 30
0.0
 10
86.65280970434473
 20
88.28975204530006
 30
0.0
 10
86.10297473332345
 20
88.17084430293406
 30
0.0
 10
85.77304595501464
 20
88.09102662150943
 30
0.0
 10
85.18857468644596
 20
87.93768345971338
 30
0.0
 10
84.94229754843252
 20
87.86634970644413
 30
0.0
 10
84.64245475573445
 20
87.7724061993695
 30
0.0
 10
84.55399789866227
 20
87.74321240600958
 30
0.0
 10
84.40063654535714
 20
87.68974583174617
 30
0.0
 10
84.33554833113091
 20
87.66538649747099
 30
0.0
 10
84.17995431519013
 20
87.60179635202626
 30
0.0
 10
84.12753869391393
 20
87.571693416937
 30
0.0
 10
84.12753869391393
 20
87.55481652394006
 30
0.0
  0
LINE
  5
C7
330
1F
100
AcDbEntity
  8
0
  6
Continuous
 62
     7
370
    25
100
AcDbLine
 10
84.1275386671
 20
87.5548161874
 30
0.0
 11
84.1275386671
 21
87.5389390002
 31
0.0
  0
SPLINE
  5
C8
330
1F
100
AcDbEntity
  8
0
  6
Continuous
 62
     7
370
    25
100
AcDbSpline
210
0.0
220
0.0
230
1.0
 70
     8
 71
     3
 72
    17
 73
    13
 74
     0
 42
0.000000001
 43
0.00000001
 40
0.0
 40
0.0
 40
0.0
 40
0.0
 40
0.1034797280380778
 40
0.2100239090909901
 40
0.3134862262879433
 40
0.4198361712144981
 40
0.5254127947779869
 40
0.6339610881168427
 40
0.7409508662120068
 40
0.8511696072047016
 40
0.9558996557845765
 40
1.0
 40
1.0
 40
1.0
 40
1.0
 10
92.12753904707145
 20
149.5061349431609
 30
0.0
 10
91.69229055534555
 20
149.5115829347985
 30
0.0
 10
90.80890410476854
 20
149.5226402551271
 30
0.0
 10
89.5280762425458
 20
149.6089990155021
 30
0.0
 10
88.31066004710387
 20
149.7368701586352
 30
0.0
 10
87.20285343077805
 20
149.8958145659537
 30
0.0
 10
86.2146149514492
 20
150.0703091389382
 30
0.0
 10
85.38989185163338
 20
150.2394755721251
 30
0.0
 10
84.74093819413476
 20
150.3873563805928
 30
0.0
 10
84.3239028906551
 20
150.4891471321154
 30
0.0
 10
84.12530614777715
 20
150.5395040317499
 30
0.0
 10
84.14861926476505
 20
150.5335944267744
 30
0.0
 10
84.15552723876547
 20
150.5318433354233
 30
0.0
  0
LINE
  5
C9
330
1F
100
AcDbEntity
  8
0
  6
Continuous
 62
     7
370
    25
100
AcDbLine
 10
93.7856061543
 20
149.5061349432
 30
0.0
 11
92.1275390471
 21
149.5061349432
 31
0.0
  0
LINE
  5
CA
330
1F
100
AcDbEntity
  8
0
  6
Continuous
 62
     7
370
    25
100
AcDbLine
 10
93.7856061543
 20
143.4976291219
 30
0.0
 11
93.7856061543
 21
149.5061349432
 31
0.0
  0
LINE
  5
CB
330
1F
100
AcDbEntity
  8
0
  6
Continuous
 62
     7
370
    25
100
AcDbLine
 10
91.3731593797
 20
143.4976291219
 30
0.0
 11
93.7856061543
 21
143.4976291219
 31
0.0
  0
SPLINE
  5
CC
330
1F
100
AcDbEntity
  8
0
  6
Continuous
 62
     7
370
    25
100
AcDbSpline
210
0.0
220
0.0
230
1.0
 70
     8
 71
     3
 72
    20
 73
    16
 74
     0
 42
0.000000001
 43
0.00000001
 40
0.0
 40
0.0
 40
0.0
 40
0.0
 40
0.2499999999999995
 40
0.2499999999999995
 40
0.3749999999999996
 40
0.3749999999999996
 40
0.4999999999999997
 40
0.4999999999999997
 40
0.6249999999999998
 40
0.6249999999999998
 40
0.7499999999999998
 40
0.7499999999999998
 40
0.8749999999999999
 40
0.8749999999999999
 40
1.0
 40
1.0
 40
1.0
 40
1.0
 10
84.12753869391393
 20
138.8889395068024
 30
0.0
 10
84.37591242820199
 20
139.5428019350998
 30
0.0
 10
84.69548252054726
 20
140.146587717097
 30
0.0
 10
85.31778875375193
 20
140.9734264532655
 30
0.0
 10
85.5492130141827
 20
141.2358550912185
 30
0.0
 10
86.0704273538324
 20
141.7325177453234
 30
0.0
 10
86.35704783646747
 20
141.963104624345
 30
0.0
 10
86.97653257777509
 20
142.3796588489276
 30
0.0
 10
87.31083295726205
 20
142.5671566508951
 30
0.0
 10
88.03609342988685
 20
142.8985536285315
 30
0.0
 10
88.41800848727732
 20
143.0380576160268
 30
0.0
 10
89.212796663449
 20
143.2635111234978
 30
0.0
 10
89.62695485765538
 20
143.3501372350414
 30
0.0
 10
90.49250119823677
 20
143.4681180238955
 30
0.0
 10
90.93038881324858
 20
143.4976291691698
 30
0.0
 10
91.37315903960321
 20
143.4976291691698
 30
0.0
  0
SPLINE
  5
CD
330
1F
100
AcDbEntity
  8
0
  6
Continuous
 62
     7
370
    25
100
AcDbSpline
210
0.0
220
0.0
230
1.0
 70
    11
 71
     3
 72
    70
 73
    66
 74
     0
 42
0.000000001
 43
0.00000001
 40
0.0
 40
0.0
 40
0.0
 40
0.0
 40
0.0312500000000001
 40
0.0312500000000001
 40
0.0625000000000002
 40
0.0625000000000002
 40
0.0937500000000003
 40
0.0937500000000003
 40
0.1250000000000004
 40
0.1250000000000004
 40
0.1562500000000005
 40
0.1562500000000005
 40
0.1875000000000006
 40
0.1875000000000006
 40
0.2187500000000007
 40
0.2187500000000007
 40
0.2500000000000008
 40
0.2500000000000008
 40
0.2812500000000009
 40
0.2812500000000009
 40
0.3125000000000011
 40
0.3125000000000011
 40
0.3437500000000012
 40
0.3437500000000012
 40
0.3750000000000012
 40
0.3750000000000012
 40
0.4062500000000013
 40
0.4062500000000013
 40
0.4375000000000014
 40
0.4375000000000014
 40
0.4687500000000016
 40
0.4687500000000016
 40
0.5000000000000017
 40
0.5000000000000017
 40
0.5312500000000018
 40
0.5312500000000018
 40
0.5625000000000019
 40
0.5625000000000019
 40
0.593750000000002
 40
0.593750000000002
 40
0.6250000000000021
 40
0.6250000000000021
 40
0.6562500000000022
 40
0.6562500000000022
 40
0.6875000000000023
 40
0.6875000000000023
 40
0.7187500000000021
 40
0.7187500000000021
 40
0.7500000000000018
 40
0.7500000000000018
 40
0.7812500000000016
 40
0.7812500000000016
 40
0.8125000000000013
 40
0.8125000000000013
 40
0.8437500000000011
 40
0.8437500000000011
 40
0.8750000000000009
 40
0.8750000000000009
 40
0.9062500000000007
 40
0.9062500000000007
 40
0.9375000000000004
 40
0.9375000000000004
 40
0.9687500000000002
 40
0.9687500000000002
 40
1.0
 40
1.0
 40
1.0
 40
1.0
 10
87.17753869391395
 20
129.6598463927858
 30
0.0
 10
86.91299335525379
 20
129.6598463927857
 30
0.0
 10
86.6529226878767
 20
129.6845236875709
 30
0.0
 10
86.14134800804126
 20
129.7809953606128
 30
0.0
 10
85.88717272430108
 20
129.8539762765929
 30
0.0
 10
85.40290209423937
 20
130.0437168795315
 30
0.0
 10
85.17326100235822
 20
130.1595775379253
 30
0.0
 10
84.73865665412472
 20
130.432195383883
 30
0.0
 10
84.5330908774781
 20
130.5902344659367
 30
0.0
 10
84.16453373688287
 20
130.9337773169074
 30
0.0
 10
83.99905275414739
 20
131.1205397610091
 30
0.0
 10
83.70662824471228
 20
131.5240829354059
 30
0.0
 10
83.5825272680858
 20
131.7375799318351
 30
0.0
 10
83.38294807133606
 20
132.1769632457575
 30
0.0
 10
83.3060144854778
 20
132.4061032329032
 30
0.0
 10
83.20315742695743
 20
132.8720773556632
 30
0.0
 10
83.17768451749829
 20
133.1049598013393
 30
0.0
 10
83.17739410693054
 20
133.5703573364191
 30
0.0
 10
83.20341874070627
 20
133.8052330938135
 30
0.0
 10
83.30556702519826
 20
134.2567262410597
 30
0.0
 10
83.38114347278143
 20
134.4747727164711
 30
0.0
 10
83.58164100392636
 20
134.8958672415089
 30
0.0
 10
83.70676984543474
 20
135.0977886260273
 30
0.0
 10
83.99612864645631
 20
135.4698181085461
 30
0.0
 10
84.1615396335118
 20
135.6424464121265
 30
0.0
 10
84.53453019165961
 20
135.9597644166725
 30
0.0
 10
84.73626322474871
 20
136.0995513501742
 30
0.0
 10
85.16912247557659
 20
136.343727603726
 30
0.0
 10
85.40304100846596
 20
136.4489571147675
 30
0.0
 10
85.88722474360857
 20
136.6171142611426
 30
0.0
 10
86.13654036956409
 20
136.6803651517365
 30
0.0
 10
86.6495728939918
 20
136.765944360839
 30
0.0
 10
86.91486671689644
 20
136.7878165257614
 30
0.0
 10
87.4372013367662
 20
136.7879801754054
 30
0.0
 10
87.69695499924792
 20
136.7669784833094
 30
0.0
 10
88.21356681489317
 20
136.6815761282317
 30
0.0
 10
88.46593285539345
 20
136.6175699449448
 30
0.0
 10
88.94745797692627
 20
136.4507554249036
 30
0.0
 10
89.18030870903983
 20
136.3466222615045
 30
0.0
 10
89.6173985574786
 20
136.1006356090095
 30
0.0
 10
89.81871954613578
 20
135.9608857780607
 30
0.0
 10
90.18780557143567
 20
135.6477477083361
 30
0.0
 10
90.35679032248737
 20
135.4722915490659
 30
0.0
 10
90.6472463791466
 20
135.0994512849657
 30
0.0
 10
90.77031819050872
 20
134.9013294748548
 30
0.0
 10
90.97165443193073
 20
134.4806181321211
 30
0.0
 10
91.04886697787298
 20
134.2586281114536
 30
0.0
 10
91.15107052077303
 20
133.8087631717452
 30
0.0
 10
91.17729887222536
 20
133.5785077586285
 30
0.0
 10
91.17777527154246
 20
133.1071918160794
 30
0.0
 10
91.1520328590445
 20
132.8739544003652
 30
0.0
 10
91.05072208268064
 20
132.4122778608672
 30
0.0
 10
90.97388944328968
 20
132.181380473755
 30
0.0
 10
90.77348560407451
 20
131.7391044599634
 30
0.0
 10
90.65081410578247
 20
131.5280420286775
 30
0.0
 10
90.36086681661823
 20
131.1265435179448
 30
0.0
 10
90.192295837253
 20
130.9356369958689
 30
0.0
 10
89.82402624313984
 20
130.5919116638718
 30
0.0
 10
89.62296438586954
 20
130.4367744776577
 30
0.0
 10
89.18593346728461
 20
130.161697117578
 30
0.0
 10
88.953785254155
 20
130.044580888156
 30
0.0
 10
88.47277497265614
 20
129.8556544030915
 30
0.0
 10
88.2206748898257
 20
129.7825794326972
 30
0.0
 10
87.7036054035667
 20
129.6845273735626
 30
0.0
 10
87.44208403257407
 20
129.6598463927857
 30
0.0
 10
87.17753869391393
 20
129.6598463927857
 30
0.0
  0
SPLINE
  5
CE
330
1F
100
AcDbEntity
  8
0
  6
Continuous
 62
     7
370
    25
100
AcDbSpline
210
0.0
220
0.0
230
1.0
 70
    11
 71
     3
 72
    70
 73
    66
 74
     0
 42
0.000000001
 43
0.00000001
 40
0.0
 40
0.0
 40
0.0
 40
0.0
 40
0.0312499999999997
 40
0.0312499999999997
 40
0.0624999999999994
 40
0.0624999999999994
 40
0.0937499999999991
 40
0.0937499999999991
 40
0.1249999999999988
 40
0.1249999999999988
 40
0.1562499999999986
 40
0.1562499999999986
 40
0.1874999999999983
 40
0.1874999999999983
 40
0.2187499999999979
 40
0.2187499999999979
 40
0.2499999999999977
 40
0.2499999999999977
 40
0.2812499999999976
 40
0.2812499999999976
 40
0.3124999999999974
 40
0.3124999999999974
 40
0.3437499999999973
 40
0.3437499999999973
 40
0.3749999999999972
 40
0.3749999999999972
 40
0.4062499999999971
 40
0.4062499999999971
 40
0.4374999999999969
 40
0.4374999999999969
 40
0.4687499999999968
 40
0.4687499999999968
 40
0.4999999999999967
 40
0.4999999999999967
 40
0.5312499999999968
 40
0.5312499999999968
 40
0.562499999999997
 40
0.562499999999997
 40
0.5937499999999971
 40
0.5937499999999971
 40
0.6249999999999972
 40
0.6249999999999972
 40
0.6562499999999974
 40
0.6562499999999974
 40
0.6874999999999976
 40
0.6874999999999976
 40
0.7187499999999978
 40
0.7187499999999978
 40
0.7499999999999979
 40
0.7499999999999979
 40
0.7812499999999981
 40
0.7812499999999981
 40
0.8124999999999984
 40
0.8124999999999984
 40
0.8437499999999987
 40
0.8437499999999987
 40
0.8749999999999989
 40
0.8749999999999989
 40
0.9062499999999992
 40
0.9062499999999992
 40
0.9374999999999994
 40
0.9374999999999994
 40
0.9687499999999998
 40
0.9687499999999998
 40
1.0
 40
1.0
 40
1.0
 40
1.0
 10
87.17753869391393
 20
144.0979029015816
 30
0.0
 10
86.91299335525379
 20
144.0979029015816
 30
0.0
 10
86.6529226878767
 20
144.1138033419964
 30
0.0
 10
86.14134800804126
 20
144.1757476921706
 30
0.0
 10
85.88717272430108
 20
144.2225499262619
 30
0.0
 10
85.40290209423937
 20
144.343526909717
 30
0.0
 10
85.17326100235822
 20
144.4171292375239
 30
0.0
 10
84.73865665412472
 20
144.588953508502
 30
0.0
 10
84.53309087747812
 20
144.6879569314294
 30
0.0
 10
84.16453373688287
 20
144.9010533453422
 30
0.0
 10
83.99905275414739
 20
145.0159530614719
 30
0.0
 10
83.70662824471228
 20
145.2613199601622
 30
0.0
 10
83.5825272680858
 20
145.3897598606324
 30
0.0
 10
83.38294807133607
 20
145.6506520087184
 30
0.0
 10
83.3060144854778
 20
145.7850331800579
 30
0.0
 10
83.20315742695745
 20
146.0543531311642
 30
0.0
 10
83.1776845174983
 20
146.1870343953823
 30
0.0
 10
83.17739410693054
 20
146.4482208695133
 30
0.0
 10
83.20341874070627
 20
146.5779859076781
 30
0.0
 10
83.30556702519827
 20
146.8235685419507
 30
0.0
 10
83.38114347278145
 20
146.9402300792596
 30
0.0
 10
83.58164100392636
 20
147.1621352694142
 30
0.0
 10
83.70676984543474
 20
147.2667465233372
 30
0.0
 10
83.99612864645633
 20
147.4567929349452
 30
0.0
 10
84.1615396335118
 20
147.5435526063949
 30
0.0
 10
84.53453019165961
 20
147.7010569821464
 30
0.0
 10
84.73626322474873
 20
147.7693822469337
 30
0.0
 10
85.16912247557659
 20
147.8876119705529
 30
0.0
 10
85.40304100846596
 20
147.9379068866567
 30
0.0
 10
85.88722474360857
 20
148.0177724235463
 30
0.0
 10
86.13654036956409
 20
148.0475135513459
 30
0.0
 10
86.6495728939918
 20
148.0876662928542
 30
0.0
 10
86.91486671689646
 20
148.097864562264
 30
0.0
 10
87.4372013367662
 20
148.0979410206487
 30
0.0
 10
87.69695499924792
 20
148.0881500090397
 30
0.0
 10
88.21356681489317
 20
148.0480831703009
 30
0.0
 10
88.46593285539345
 20
148.0179860034441
 30
0.0
 10
88.94745797692627
 20
147.9387637936139
 30
0.0
 10
89.18030870903983
 20
147.8890063141506
 30
0.0
 10
89.61739855747861
 20
147.7699143717002
 30
0.0
 10
89.81871954613578
 20
147.7015991101529
 30
0.0
 10
90.18780557143569
 20
147.5461981432193
 30
0.0
 10
90.35679032248737
 20
147.4580458011524
 30
0.0
 10
90.64724637914658
 20
147.2676064120361
 30
0.0
 10
90.77031819050872
 20
147.1649818343371
 30
0.0
 10
90.97165443193073
 20
146.9433414877289
 30
0.0
 10
91.04886697787298
 20
146.8245874121814
 30
0.0
 10
91.15107052077303
 20
146.5799214732637
 30
0.0
 10
91.17729887222535
 20
146.4527647478152
 30
0.0
 10
91.17777527154246
 20
146.1883166019596
 30
0.0
 10
91.1520328590445
 20
146.0554159217025
 30
0.0
 10
91.05072208268062
 20
145.7886236482204
 30
0.0
 10
90.97388944328968
 20
145.6532597467519
 30
0.0
 10
90.77348560407451
 20
145.3906799514493
 30
0.0
 10
90.65081410578246
 20
145.2637047916955
 30
0.0
 10
90.36086681661823
 20
145.0196254056131
 30
0.0
 10
90.192295837253
 20
144.9022002808593
 30
0.0
 10
89.82402624313984
 20
144.6890038199108
 30
0.0
 10
89.62296438586954
 20
144.5918297014859
 30
0.0
 10
89.1859334672846
 20
144.4184748142718
 30
0.0
 10
88.95378525415498
 20
144.3440752626151
 30
0.0
 10
88.47277497265613
 20
144.2236223831104
 30
0.0
 10
88.2206748898257
 20
144.1767640078444
 30
0.0
 10
87.7036054035667
 20
144.1138065108607
 30
0.0
 10
87.44208403257409
 20
144.0979029015816
 30
0.0
 10
87.17753869391393
 20
144.0979029015816
 30
0.0
  0
LINE
  5
CF
330
1F
100
AcDbEntity
  8
0
  6
Continuous
 62
     7
370
    25
100
AcDbLine
 10
100.5694706152
 20
88.852021874
 30
0.0
 11
100.5694706152
 21
138.8889402459
 31
0.0
  0
SPLINE
  5
D0
330
1F
100
AcDbEntity
  8
0
  6
Continuous
 62
     7
370
    25
100
AcDbSpline
210
0.0
220
0.0
230
1.0
 70
     8
 71
     3
 72
     8
 73
     4
 74
     0
 42
0.000000001
 43
0.00000001
 40
0.0
 40
0.0
 40
0.0
 40
0.0
 40
1.0
 40
1.0
 40
1.0
 40
1.0
 10
100.569471525403
 20
88.85202181055524
 30
0.0
 10
100.0739918647372
 20
89.7475478984886
 30
0.0
 10
99.57987781669512
 20
90.64383231354086
 30
0.0
 10
99.08753869391393
 20
91.54110234774755
 30
0.0
  0
LINE
  5
D1
330
1F
100
AcDbEntity
  8
0
  6
Continuous
 62
     7
370
    25
100
AcDbLine
 10
99.0875389586
 20
91.5411021868
 30
0.0
 11
99.0875389586
 21
138.8889402459
 31
0.0
  0
SPLINE
  5
D2
330
1F
100
AcDbEntity
  8
0
  6
Continuous
 62
     7
370
    25
100
AcDbSpline
210
0.0
220
0.0
230
1.0
 70
    24
 71
     3
 72
     8
 73
     4
 74
     0
 42
0.000000001
 43
0.00000001
 40
0.0
 40
0.0
 40
0.0
 40
0.0
 40
1.0
 40
1.0
 40
1.0
 40
1.0
 10
99.08753869391393
 20
138.8889395068024
 30
0.0
 10
99.56749068827882
 20
138.8889395068024
 30
0.0
 10
100.0627914172524
 20
138.8889395068024
 30
0.0
 10
100.569471525403
 20
138.8889395068024
 30
0.0
  0
LINE
  5
D3
330
1F
100
AcDbEntity
  8
0
  6
Continuous
 62
     7
370
    25
100
AcDbLine
 10
104.5275394032
 20
88.852021874
 30
0.0
 11
100.5694706152
 21
88.852021874
 31
0.0
  0
LINE
  5
D4
330
1F
100
AcDbEntity
  8
0
  6
Continuous
 62
     7
370
    25
100
AcDbLine
 10
100.5694706152
 20
138.8889402459
 30
0.0
 11
104.5275394032
 21
138.8889402459
 31
0.0
  0
LINE
  5
D5
330
1F
100
AcDbEntity
  8
0
  6
Continuous
 62
     7
370
    25
100
AcDbLine
 10
79.1775386939
 20
87.8389403532
 30
0.0
 11
79.1775386939
 21
150.2389386604
 31
0.0
  0
LINE
  5
D6
330
1F
100
AcDbEntity
  8
0
  6
Continuous
 62
     7
370
    25
100
AcDbLine
 10
95.2675387422
 20
91.5411021868
 30
0.0
 11
95.2675387422
 21
138.8889402459
 31
0.0
  0
SPLINE
  5
D7
330
1F
100
AcDbEntity
  8
0
  6
Continuous
 62
     7
370
    25
100
AcDbSpline
210
0.0
220
0.0
230
1.0
 70
     8
 71
     3
 72
     8
 73
     4
 74
     0
 42
0.000000001
 43
0.00000001
 40
0.0
 40
0.0
 40
0.0
 40
0.0
 40
1.0
 40
1.0
 40
1.0
 40
1.0
 10
95.26753869391393
 20
91.54110234774754
 30
0.0
 10
94.77519957113276
 20
90.64383231354084
 30
0.0
 10
94.28108552309061
 20
89.7475478984886
 30
0.0
 10
93.78560586242487
 20
88.85202181055524
 30
0.0
  0
SPLINE
  5
D8
330
1F
100
AcDbEntity
  8
0
  6
Continuous
 62
     7
370
    25
100
AcDbSpline
210
0.0
220
0.0
230
1.0
 70
    24
 71
     3
 72
     8
 73
     4
 74
     0
 42
0.000000001
 43
0.00000001
 40
0.0
 40
0.0
 40
0.0
 40
0.0
 40
1.0
 40
1.0
 40
1.0
 40
1.0
 10
93.78560586242484
 20
138.8889395068024
 30
0.0
 10
94.2922859705754
 20
138.8889395068024
 30
0.0
 10
94.78758669954904
 20
138.8889395068024
 30
0.0
 10
95.26753869391393
 20
138.8889395068024
 30
0.0
  0
ARC
  5
D9
330
1F
100
AcDbEntity
  8
0
  6
Continuous
 62
     7
370
    25
100
AcDbCircle
 10
87.1743259586
 20
130.9192646982
 30
0.0
 40
4.12117040489355
100
AcDbArc
 50
19.5689031514
 51
159.1018120252
  0
SPLINE
  5
DA
330
1F
100
AcDbEntity
  8
0
  6
Continuous
 62
     7
370
    25
100
AcDbSpline
210
0.0
220
0.0
230
1.0
 70
    11
 71
     3
 72
    84
 73
    80
 74
     0
 42
0.000000001
 43
0.00000001
 40
0.0
 40
0.0
 40
0.0
 40
0.0
 40
0.0312500000000013
 40
0.0312500000000013
 40
0.0468750000000014
 40
0.0468750000000014
 40
0.0625000000000015
 40
0.0625000000000015
 40
0.0937500000000016
 40
0.0937500000000016
 40
0.1250000000000018
 40
0.1250000000000018
 40
0.156250000000002
 40
0.156250000000002
 40
0.1718750000000024
 40
0.1718750000000024
 40
0.1875000000000028
 40
0.1875000000000028
 40
0.2187500000000037
 40
0.2187500000000037
 40
0.2500000000000046
 40
0.2500000000000046
 40
0.265625000000005
 40
0.265625000000005
 40
0.2812500000000054
 40
0.2812500000000054
 40
0.3125000000000066
 40
0.3125000000000066
 40
0.3281250000000071
 40
0.3281250000000071
 40
0.3437500000000077
 40
0.3437500000000077
 40
0.3750000000000081
 40
0.3750000000000081
 40
0.4062500000000086
 40
0.4062500000000086
 40
0.4375000000000091
 40
0.4375000000000091
 40
0.4687500000000096
 40
0.4687500000000096
 40
0.5000000000000101
 40
0.5000000000000101
 40
0.5312500000000105
 40
0.5312500000000105
 40
0.562500000000011
 40
0.562500000000011
 40
0.5937500000000114
 40
0.5937500000000114
 40
0.6250000000000119
 40
0.6250000000000119
 40
0.6406250000000117
 40
0.6406250000000117
 40
0.6562500000000114
 40
0.6562500000000114
 40
0.6875000000000104
 40
0.6875000000000104
 40
0.7187500000000094
 40
0.7187500000000094
 40
0.7500000000000082
 40
0.7500000000000082
 40
0.7812500000000072
 40
0.7812500000000072
 40
0.7968750000000067
 40
0.7968750000000067
 40
0.8125000000000061
 40
0.8125000000000061
 40
0.8437500000000051
 40
0.8437500000000051
 40
0.8593750000000046
 40
0.8593750000000046
 40
0.875000000000004
 40
0.875000000000004
 40
0.906250000000003
 40
0.906250000000003
 40
0.937500000000002
 40
0.937500000000002
 40
0.968750000000001
 40
0.968750000000001
 40
1.0
 40
1.0
 40
1.0
 40
1.0
 10
153.1775386939139
 20
124.5192697882069
 30
0.0
 10
153.547186433363
 20
124.5192697882069
 30
0.0
 10
153.9109504355682
 20
124.485161056483
 30
0.0
 10
154.4481107258875
 20
124.384706717149
 30
0.0
 10
154.6257397847173
 20
124.3429462908157
 30
0.0
 10
154.9780853412842
 20
124.2424624528724
 30
0.0
 10
155.153635617056
 20
124.1833581584926
 30
0.0
 10
155.6658854714268
 20
123.9833682370817
 30
0.0
 10
155.9904380931303
 20
123.8197814110671
 30
0.0
 10
156.6058934783471
 20
123.4320147838646
 30
0.0
 10
156.8993531450127
 20
123.2048555898642
 30
0.0
 10
157.4282704936613
 20
122.7044686650937
 30
0.0
 10
157.666057690293
 20
122.4306650140048
 30
0.0
 10
157.9818186364119
 20
121.9833797621158
 30
0.0
 10
158.080718085289
 20
121.8271556307644
 30
0.0
 10
158.2607717388157
 20
121.5076748545587
 30
0.0
 10
158.3420851683863
 20
121.3444406783798
 30
0.0
 10
158.560397529424
 20
120.8444230134097
 30
0.0
 10
158.6720408351317
 20
120.4974321853642
 30
0.0
 10
158.82393966806
 20
119.774555449202
 30
0.0
 10
158.8615993640673
 20
119.4101415478282
 30
0.0
 10
158.8622604053678
 20
118.8630005856755
 30
0.0
 10
158.8531477014571
 20
118.6803200728501
 30
0.0
 10
158.8157818778691
 20
118.3143436947969
 30
0.0
 10
158.7873635086991
 20
118.1309582795012
 30
0.0
 10
158.6753326779831
 20
117.5928501139754
 30
0.0
 10
158.5649190325503
 20
117.2456336975863
 30
0.0
 10
158.3461426866856
 20
116.7418595185678
 30
0.0
 10
158.263765612185
 20
116.5759816628863
 30
0.0
 10
158.0842166528441
 20
116.2564823422584
 30
0.0
 10
157.9869256942868
 20
116.1023294682027
 30
0.0
 10
157.6731461008632
 20
115.6561110407901
 30
0.0
 10
157.4336356205776
 20
115.3788969150349
 30
0.0
 10
156.900496813999
 20
114.8736995443383
 30
0.0
 10
156.6129255688179
 20
114.6509365638589
 30
0.0
 10
155.9975744198411
 20
114.2619666572929
 30
0.0
 10
155.6661499599531
 20
114.0947208250959
 30
0.0
 10
154.9855633615811
 20
113.8287966323863
 30
0.0
 10
154.6353826429236
 20
113.7286011129448
 30
0.0
 10
153.9153179144234
 20
113.5931346749096
 30
0.0
 10
153.545208359111
 20
113.558783247254
 30
0.0
 10
152.8155234294677
 20
113.5584365526183
 30
0.0
 10
152.4521013597528
 20
113.5914939926382
 30
0.0
 10
151.7281892281697
 20
113.726341162502
 30
0.0
 10
151.3744316514317
 20
113.8273387734891
 30
0.0
 10
150.696752702091
 20
114.0912083155564
 30
0.0
 10
150.3689318702073
 20
114.2554965035097
 30
0.0
 10
149.7471769995096
 20
114.6470256286096
 30
0.0
 10
149.4599799962182
 20
114.869591876657
 30
0.0
 10
149.0640440995465
 20
115.2432865269475
 30
0.0
 10
148.9379161448305
 20
115.3745387328846
 30
0.0
 10
148.6977665788914
 20
115.6509500772734
 30
0.0
 10
148.5836866240931
 20
115.7964092192012
 30
0.0
 10
148.2677956533013
 20
116.2439157927015
 30
0.0
 10
148.0891508168228
 20
116.5600785753322
 30
0.0
 10
147.7963134145839
 20
117.2286606339703
 30
0.0
 10
147.6825228796543
 20
117.5834131969392
 30
0.0
 10
147.5322967853982
 20
118.2972880526738
 30
0.0
 10
147.4937141777815
 20
118.6601700270576
 30
0.0
 10
147.4923703700931
 20
119.3982962404703
 30
0.0
 10
147.5300238435507
 20
119.7641522791638
 30
0.0
 10
147.6410053648505
 20
120.2998048268097
 30
0.0
 10
147.6871519523137
 20
120.4766277789806
 30
0.0
 10
147.7981005298824
 20
120.8267599117098
 30
0.0
 10
147.8631527916542
 20
121.0003421296818
 30
0.0
 10
148.0819072083698
 20
121.5040261062072
 30
0.0
 10
148.2600559330516
 20
121.8212722919436
 30
0.0
 10
148.5750020063803
 20
122.2699794615075
 30
0.0
 10
148.6886838841638
 20
122.4157173850667
 30
0.0
 10
148.9282261101319
 20
122.6928874498365
 30
0.0
 10
149.054144107496
 20
122.8246050245667
 30
0.0
 10
149.449781322837
 20
123.1998781014498
 30
0.0
 10
149.7377810404386
 20
123.4240965824389
 30
0.0
 10
150.3600454865761
 20
123.8176023176942
 30
0.0
 10
150.6855284585227
 20
123.9815006265612
 30
0.0
 10
151.3638520745206
 20
124.2471952169472
 30
0.0
 10
151.7200834396241
 20
124.3494477944638
 30
0.0
 10
152.4423848079077
 20
124.4851410723231
 30
0.0
 10
152.8078909544649
 20
124.5192697882069
 30
0.0
 10
153.1775386939139
 20
124.5192697882069
 30
0.0
  0
SPLINE
  5
DB
330
1F
100
AcDbEntity
  8
0
  6
Continuous
 62
     7
370
    25
100
AcDbSpline
210
0.0
220
0.0
230
1.0
 70
    11
 71
     3
 72
    70
 73
    66
 74
     0
 42
0.000000001
 43
0.00000001
 40
0.0
 40
0.0
 40
0.0
 40
0.0
 40
0.0312500000000003
 40
0.0312500000000003
 40
0.0625000000000006
 40
0.0625000000000006
 40
0.0937500000000009
 40
0.0937500000000009
 40
0.1250000000000012
 40
0.1250000000000012
 40
0.1562500000000015
 40
0.1562500000000015
 40
0.1875000000000018
 40
0.1875000000000018
 40
0.2187500000000021
 40
0.2187500000000021
 40
0.2500000000000024
 40
0.2500000000000024
 40
0.2812500000000028
 40
0.2812500000000028
 40
0.3125000000000031
 40
0.3125000000000031
 40
0.3437500000000033
 40
0.3437500000000033
 40
0.3750000000000037
 40
0.3750000000000037
 40
0.406250000000004
 40
0.406250000000004
 40
0.4375000000000043
 40
0.4375000000000043
 40
0.4687500000000046
 40
0.4687500000000046
 40
0.5000000000000049
 40
0.5000000000000049
 40
0.5312500000000052
 40
0.5312500000000052
 40
0.5625000000000056
 40
0.5625000000000056
 40
0.5937500000000058
 40
0.5937500000000058
 40
0.6250000000000061
 40
0.6250000000000061
 40
0.6562500000000064
 40
0.6562500000000064
 40
0.6875000000000058
 40
0.6875000000000058
 40
0.7187500000000052
 40
0.7187500000000052
 40
0.7500000000000047
 40
0.7500000000000047
 40
0.7812500000000041
 40
0.7812500000000041
 40
0.8125000000000034
 40
0.8125000000000034
 40
0.8437500000000029
 40
0.8437500000000029
 40
0.8750000000000023
 40
0.8750000000000023
 40
0.9062500000000018
 40
0.9062500000000018
 40
0.9375000000000011
 40
0.9375000000000011
 40
0.9687500000000006
 40
0.9687500000000006
 40
1.0
 40
1.0
 40
1.0
 40
1.0
 10
136.638656534496
 20
98.7128861740111
 30
0.0
 10
136.65803762805
 20
98.8702583680121
 30
0.0
 10
136.7020422197955
 20
99.02487476477121
 30
0.0
 10
136.8363846112706
 20
99.32856921175339
 30
0.0
 10
136.9279400660427
 20
99.47848560498328
 30
0.0
 10
137.1484092054915
 20
99.7591755996706
 30
0.0
 10
137.2781907812952
 20
99.8919915968129
 30
0.0
 10
137.5736965858007
 20
100.1399289666626
 30
0.0
 10
137.7355405806857
 20
100.2519327157121
 30
0.0
 10
138.0852344175494
 20
100.4530366660617
 30
0.0
 10
138.274952848604
 20
100.5426523796096
 30
0.0
 10
138.6675030915729
 20
100.6927053980397
 30
0.0
 10
138.8710922123133
 20
100.7538980590099
 30
0.0
 10
139.2925948137294
 20
100.8486423478366
 30
0.0
 10
139.5105269533013
 20
100.8818105666965
 30
0.0
 10
139.9446150888147
 20
100.9178347286259
 30
0.0
 10
140.162785354166
 20
100.9212234652965
 30
0.0
 10
140.6014235955819
 20
100.8981345041534
 30
0.0
 10
140.8199471142304
 20
100.871475201778
 30
0.0
 10
141.2430496975427
 20
100.7901441530017
 30
0.0
 10
141.4494997238019
 20
100.7354132585653
 30
0.0
 10
141.8516363707801
 20
100.5967870317371
 30
0.0
 10
142.0441725655081
 20
100.5137174376296
 30
0.0
 10
142.4028975886853
 20
100.3246776715315
 30
0.0
 10
142.5706088587386
 20
100.2182238599098
 30
0.0
 10
142.8804969761372
 20
99.98003380680854
 30
0.0
 10
143.018288761985
 20
99.85145745207325
 30
0.0
 10
143.255469834485
 20
99.57944673560128
 30
0.0
 10
143.3562397444843
 20
99.43417638670759
 30
0.0
 10
143.5129935605013
 20
99.13246493923948
 30
0.0
 10
143.5676531783023
 20
98.97940038364233
 30
0.0
 10
143.6293050671578
 20
98.66927966798372
 30
0.0
 10
143.6356221833751
 20
98.51060375323523
 30
0.0
 10
143.5980720837958
 20
98.2049951064168
 30
0.0
 10
143.5550180383703
 20
98.05638964389308
 30
0.0
 10
143.4197789561641
 20
97.76730075940198
 30
0.0
 10
143.3300761908625
 20
97.63208987682643
 30
0.0
 10
143.1100849445573
 20
97.37831366167335
 30
0.0
 10
142.9783140806288
 20
97.2590624017839
 30
0.0
 10
142.6857441973286
 20
97.04513907217924
 30
0.0
 10
142.5241962211917
 20
96.94919603759655
 30
0.0
 10
142.1713437003383
 20
96.7778033722199
 30
0.0
 10
141.9839815839026
 20
96.70437002875869
 30
0.0
 10
141.5924374972744
 20
96.58084670133765
 30
0.0
 10
141.3858373334336
 20
96.53020136060566
 30
0.0
 10
140.9633715083836
 20
96.45328006735151
 30
0.0
 10
140.7490365675045
 20
96.42702479016361
 30
0.0
 10
140.3143536857077
 20
96.39779856109139
 30
0.0
 10
140.0918952071893
 20
96.39501291816876
 30
0.0
 10
139.6545536582485
 20
96.4134330206922
 30
0.0
 10
139.4390785392121
 20
96.4343409823773
 30
0.0
 10
139.0145370281204
 20
96.49991979513081
 30
0.0
 10
138.8036726170097
 20
96.54524803278274
 30
0.0
 10
138.4040097720213
 20
96.65812561278109
 30
0.0
 10
138.2137805946674
 20
96.72565543199872
 30
0.0
 10
137.8532098995319
 20
96.8845496237871
 30
0.0
 10
137.6817726158239
 20
96.97697092145232
 30
0.0
 10
137.3753081266923
 20
97.1803021321667
 30
0.0
 10
137.2383427850921
 20
97.2917770337619
 30
0.0
 10
136.9991833759455
 20
97.5366919577815
 30
0.0
 10
136.8976776202138
 20
97.67047137499002
 30
0.0
 10
136.7427216674292
 20
97.94821965835865
 30
0.0
 10
136.6874641271969
 20
98.09375635003819
 30
0.0
 10
136.6251859658526
 20
98.39978564091673
 30
0.0
 10
136.619275440942
 20
98.55551398001012
 30
0.0
 10
136.638656534496
 20
98.7128861740111
 30
0.0
  0
SPLINE
  5
DC
330
1F
100
AcDbEntity
  8
0
  6
Continuous
 62
     7
370
    25
100
AcDbSpline
210
0.0
220
0.0
230
1.0
 70
    11
 71
     3
 72
    68
 73
    64
 74
     0
 42
0.000000001
 43
0.00000001
 40
0.0
 40
0.0
 40
0.0
 40
0.0
 40
0.031249999999999
 40
0.031249999999999
 40
0.0624999999999979
 40
0.0624999999999979
 40
0.0937499999999969
 40
0.0937499999999969
 40
0.1249999999999958
 40
0.1249999999999958
 40
0.1562499999999948
 40
0.1562499999999948
 40
0.1874999999999938
 40
0.1874999999999938
 40
0.2187499999999927
 40
0.2187499999999927
 40
0.2499999999999926
 40
0.2499999999999926
 40
0.2812499999999924
 40
0.2812499999999924
 40
0.3124999999999922
 40
0.3124999999999922
 40
0.3437499999999921
 40
0.3437499999999921
 40
0.374999999999992
 40
0.374999999999992
 40
0.4062499999999918
 40
0.4062499999999918
 40
0.4374999999999916
 40
0.4374999999999916
 40
0.4687499999999915
 40
0.4687499999999915
 40
0.4999999999999913
 40
0.4999999999999913
 40
0.5312499999999912
 40
0.5312499999999912
 40
0.562499999999991
 40
0.562499999999991
 40
0.6249999999999923
 40
0.6249999999999923
 40
0.656249999999993
 40
0.656249999999993
 40
0.6874999999999937
 40
0.6874999999999937
 40
0.7187499999999942
 40
0.7187499999999942
 40
0.7499999999999949
 40
0.7499999999999949
 40
0.7812499999999956
 40
0.7812499999999956
 40
0.8124999999999961
 40
0.8124999999999961
 40
0.8437499999999968
 40
0.8437499999999968
 40
0.8749999999999973
 40
0.8749999999999973
 40
0.906249999999998
 40
0.906249999999998
 40
0.9374999999999987
 40
0.9374999999999987
 40
0.9687499999999992
 40
0.9687499999999992
 40
1.0
 40
1.0
 40
1.0
 40
1.0
 10
137.4441139550108
 20
140.9410281972027
 30
0.0
 10
137.5934241374906
 20
141.0480448585643
 30
0.0
 10
137.7563512735794
 20
141.1425407674606
 30
0.0
 10
138.1070175675495
 20
141.3096763835497
 30
0.0
 10
138.296631019669
 20
141.3828162328718
 30
0.0
 10
138.6919014805676
 20
141.5048252994061
 30
0.0
 10
138.8961111179939
 20
141.5535617441164
 30
0.0
 10
139.3171654271921
 20
141.628111476808
 30
0.0
 10
139.5358294013424
 20
141.6538863645847
 30
0.0
 10
139.9712075223853
 20
141.6809475961767
 30
0.0
 10
140.1891909860468
 20
141.6826482703405
 30
0.0
 10
140.6257471684151
 20
141.6623966227204
 30
0.0
 10
140.8453539674987
 20
141.640052837722
 30
0.0
 10
141.2685076079147
 20
141.5724375790986
 30
0.0
 10
141.474105151411
 20
141.5272021107625
 30
0.0
 10
141.8729410655172
 20
141.4124771270846
 30
0.0
 10
142.0664415087785
 20
141.3424860836111
 30
0.0
 10
142.423890880393
 20
141.1820920450689
 30
0.0
 10
142.5900960451306
 20
141.0911842765839
 30
0.0
 10
142.8957067340715
 20
140.8854264006632
 30
0.0
 10
143.0340281327203
 20
140.7706544771256
 30
0.0
 10
143.2683366476522
 20
140.5258785851096
 30
0.0
 10
143.3663165292016
 20
140.3946932479258
 30
0.0
 10
143.520097341525
 20
140.1121446484562
 30
0.0
 10
143.5732346175181
 20
139.9651442438333
 30
0.0
 10
143.6308906317365
 20
139.6635197572285
 30
0.0
 10
143.6352936755025
 20
139.5060603427856
 30
0.0
 10
143.5937365814397
 20
139.194191344278
 30
0.0
 10
143.5486617808309
 20
139.0398490552078
 30
0.0
 10
143.4106344064088
 20
138.7346734358606
 30
0.0
 10
143.3183258672483
 20
138.5863038866054
 30
0.0
 10
143.0954659379215
 20
138.3064894931605
 30
0.0
 10
142.9625716180539
 20
138.1724008017071
 30
0.0
 10
142.6667813790714
 20
137.9273289854348
 30
0.0
 10
142.5042081204574
 20
137.8159420911808
 30
0.0
 10
142.151003316379
 20
137.6153179920956
 30
0.0
 10
141.9611816978607
 20
137.5269537055831
 30
0.0
 10
141.3718477579398
 20
137.304934315122
 30
0.0
 10
140.9400875254165
 20
137.2103617775374
 30
0.0
 10
140.288548493432
 20
137.1592672794702
 30
0.0
 10
140.0676158233362
 20
137.1568808066141
 30
0.0
 10
139.6284581764992
 20
137.1822736279877
 30
0.0
 10
139.4129860126937
 20
137.2096601403962
 30
0.0
 10
138.9901146123678
 20
137.2930573303777
 30
0.0
 10
138.7808203238078
 20
137.3497682492598
 30
0.0
 10
138.3805655896254
 20
137.490365261914
 30
0.0
 10
138.191007099043
 20
137.5733967117693
 30
0.0
 10
137.833306075945
 20
137.7645407971702
 30
0.0
 10
137.6633702575776
 20
137.8741456938066
 30
0.0
 10
137.3579506973457
 20
138.1125798461406
 30
0.0
 10
137.2224384660358
 20
138.2407679197392
 30
0.0
 10
136.9872468675916
 20
138.514971704965
 30
0.0
 10
136.8869905363085
 20
138.6628617036469
 30
0.0
 10
136.7351486159453
 20
138.9628804370005
 30
0.0
 10
136.6820304521706
 20
139.1161031271623
 30
0.0
 10
136.6238738281868
 20
139.4288829052393
 30
0.0
 10
136.6198836513525
 20
139.5861834101038
 30
0.0
 10
136.6613583606855
 20
139.8909032529695
 30
0.0
 10
136.7074565365545
 20
140.0418758449948
 30
0.0
 10
136.8456864171702
 20
140.327570452295
 30
0.0
 10
136.9368865928643
 20
140.4620928031076
 30
0.0
 10
137.1616933096521
 20
140.7158828761737
 30
0.0
 10
137.2948037725311
 20
140.8340115358411
 30
0.0
 10
137.4441139550108
 20
140.9410281972027
 30
0.0
  0
LINE
  5
DD
330
1F
100
AcDbEntity
  8
0
  6
Continuous
 62
     7
370
    25
100
AcDbLine
 10
179.177540184
 20
90.8389389823
 30
0.0
 11
179.177540184
 21
147.2389400313
 31
0.0
  0
LINE
  5
DE
330
1F
100
AcDbEntity
  8
0
  6
Continuous
 62
     7
370
    25
100
AcDbLine
 10
121.1775381277
 20
91.0389386425
 30
0.0
 11
121.1775381277
 21
147.0389403711
 31
0.0
  0
SPLINE
  5
DF
330
1F
100
AcDbEntity
  8
0
  6
Continuous
 62
     7
370
    25
100
AcDbSpline
210
0.0
220
0.0
230
1.0
 70
     8
 71
     3
 72
    10
 73
     6
 74
     0
 42
0.000000001
 43
0.00000001
 40
0.0
 40
0.0
 40
0.0
 40
0.0
 40
0.5
 40
0.5
 40
1.0
 40
1.0
 40
1.0
 40
1.0
 10
95.66183622560487
 20
145.4389395068024
 30
0.0
 10
95.54029596193637
 20
145.5136656740142
 30
0.0
 10
95.43896160158744
 20
145.6226106899309
 30
0.0
 10
95.303322658699
 20
145.8730411706925
 30
0.0
 10
95.26753869391393
 20
146.0154605327915
 30
0.0
 10
95.26753869391393
 20
146.1585933578382
 30
0.0
  0
SPLINE
  5
E0
330
1F
100
AcDbEntity
  8
0
  6
Continuous
 62
     7
370
    25
100
AcDbSpline
210
0.0
220
0.0
230
1.0
 70
    24
 71
     3
 72
    12
 73
     8
 74
     0
 42
0.000000001
 43
0.00000001
 40
0.0
 40
0.0
 40
0.0
 40
0.0
 40
0.2499999999999971
 40
0.2499999999999971
 40
0.4999999999999942
 40
0.4999999999999942
 40
1.0
 40
1.0
 40
1.0
 40
1.0
 10
96.06753869391393
 20
145.4389395068024
 30
0.0
 10
96.01766201159647
 20
145.4389395068024
 30
0.0
 10
95.96965881819288
 20
145.4389395068024
 30
0.0
 10
95.88661071548091
 20
145.4389395068024
 30
0.0
 10
95.85048113601306
 20
145.4389395068024
 30
0.0
 10
95.75456910506884
 20
145.4389395068024
 30
0.0
 10
95.70481043710005
 20
145.4389395068024
 30
0.0
 10
95.66183622560489
 20
145.4389395068024
 30
0.0
  0
SPLINE
  5
E1
330
1F
100
AcDbEntity
  8
0
  6
Continuous
 62
     7
370
    25
100
AcDbSpline
210
0.0
220
0.0
230
1.0
 70
    24
 71
     3
 72
    14
 73
    10
 74
     0
 42
0.000000001
 43
0.00000001
 40
0.0
 40
0.0
 40
0.0
 40
0.0
 40
0.1250000000000017
 40
0.1250000000000017
 40
0.2500000000000034
 40
0.2500000000000034
 40
0.5000000000000032
 40
0.5000000000000032
 40
1.0
 40
1.0
 40
1.0
 40
1.0
 10
96.06753869391392
 20
92.63893950680242
 30
0.0
 10
95.99910084602747
 20
92.63893950680242
 30
0.0
 10
95.93355080726242
 20
92.63893950680242
 30
0.0
 10
95.82912416785447
 20
92.63893950680242
 30
0.0
 10
95.78657955809305
 20
92.63893950680242
 30
0.0
 10
95.6739700975528
 20
92.63893950680242
 30
0.0
 10
95.6184310505333
 20
92.6389395068024
 30
0.0
 10
95.4758193550695
 20
92.63893950680242
 30
0.0
 10
95.41241400007375
 20
92.63893950680242
 30
0.0
 10
95.36521349624621
 20
92.63893950680242
 30
0.0
  0
SPLINE
  5
E2
330
1F
100
AcDbEntity
  8
0
  6
Continuous
 62
     7
370
    25
100
AcDbSpline
210
0.0
220
0.0
230
1.0
 70
     8
 71
     3
 72
    10
 73
     6
 74
     0
 42
0.000000001
 43
0.00000001
 40
0.0
 40
0.0
 40
0.0
 40
0.0
 40
0.5
 40
0.5
 40
1.0
 40
1.0
 40
1.0
 40
1.0
 10
95.26753869391393
 20
139.1748061382638
 30
0.0
 10
95.26753869391393
 20
139.1270346302705
 30
0.0
 10
95.26969993751108
 20
139.0793249082088
 30
0.0
 10
95.27837131137125
 20
138.9840297906605
 30
0.0
 10
95.28490049432723
 20
138.9363372266939
 30
0.0
 10
95.29368631707406
 20
138.8889395068024
 30
0.0
  0
SPLINE
  5
E3
330
1F
100
AcDbEntity
  8
0
  6
Continuous
 62
     7
370
    25
100
AcDbSpline
210
0.0
220
0.0
230
1.0
 70
    24
 71
     3
 72
    14
 73
    10
 74
     0
 42
0.000000001
 43
0.00000001
 40
0.0
 40
0.0
 40
0.0
 40
0.0
 40
0.5
 40
0.5
 40
0.75
 40
0.75
 40
0.875
 40
0.875
 40
1.0
 40
1.0
 40
1.0
 40
1.0
 10
98.98986389158163
 20
92.63893950680242
 30
0.0
 10
98.94307918653342
 20
92.63893950680242
 30
0.0
 10
98.88102798975382
 20
92.63893950680242
 30
0.0
 10
98.73763635120322
 20
92.6389395068024
 30
0.0
 10
98.68149269765206
 20
92.63893950680242
 30
0.0
 10
98.56854167551587
 20
92.6389395068024
 30
0.0
 10
98.52554091347773
 20
92.63893950680242
 30
0.0
 10
98.42147820317126
 20
92.6389395068024
 30
0.0
 10
98.35614596481435
 20
92.6389395068024
 30
0.0
 10
98.28753869391393
 20
92.63893950680242
 30
0.0
  0
SPLINE
  5
E4
330
1F
100
AcDbEntity
  8
0
  6
Continuous
 62
     7
370
    25
100
AcDbSpline
210
0.0
220
0.0
230
1.0
 70
    24
 71
     3
 72
    12
 73
     8
 74
     0
 42
0.000000001
 43
0.00000001
 40
0.0
 40
0.0
 40
0.0
 40
0.0
 40
0.5000000000000074
 40
0.5000000000000074
 40
0.7500000000000037
 40
0.7500000000000037
 40
1.0
 40
1.0
 40
1.0
 40
1.0
 10
98.69324116222296
 20
145.4389395068024
 30
0.0
 10
98.65015561261202
 20
145.4389395068024
 30
0.0
 10
98.6010034108627
 20
145.4389395068024
 30
0.0
 10
98.50453081657477
 20
145.4389395068024
 30
0.0
 10
98.4684292314402
 20
145.4389395068024
 30
0.0
 10
98.38532347357894
 20
145.4389395068024
 30
0.0
 10
98.33732687661266
 20
145.4389395068024
 30
0.0
 10
98.28753869391393
 20
145.4389395068024
 30
0.0
  0
SPLINE
  5
E5
330
1F
100
AcDbEntity
  8
0
  6
Continuous
 62
     7
370
    25
100
AcDbSpline
210
0.0
220
0.0
230
1.0
 70
     8
 71
     3
 72
    10
 73
     6
 74
     0
 42
0.000000001
 43
0.00000001
 40
0.0
 40
0.0
 40
0.0
 40
0.0
 40
0.5
 40
0.5
 40
1.0
 40
1.0
 40
1.0
 40
1.0
 10
99.08753869391393
 20
146.1585933578382
 30
0.0
 10
99.08753869391393
 20
146.0148233000202
 30
0.0
 10
99.05148963519504
 20
145.872403937525
 30
0.0
 10
98.91598077442103
 20
145.6225096441678
 30
0.0
 10
98.81610478132485
 20
145.5144793079196
 30
0.0
 10
98.69324116222293
 20
145.4389395068024
 30
0.0
  0
SPLINE
  5
E6
330
1F
100
AcDbEntity
  8
0
  6
Continuous
 62
     7
370
    25
100
AcDbSpline
210
0.0
220
0.0
230
1.0
 70
     8
 71
     3
 72
    10
 73
     6
 74
     0
 42
0.000000001
 43
0.00000001
 40
0.0
 40
0.0
 40
0.0
 40
0.0
 40
0.5
 40
0.5
 40
1.0
 40
1.0
 40
1.0
 40
1.0
 10
99.06139107075379
 20
138.8889395068024
 30
0.0
 10
99.07008071366546
 20
138.9358183561206
 30
0.0
 10
99.07661977841597
 20
138.9832408215219
 30
0.0
 10
99.08537841280899
 20
139.0791776201087
 30
0.0
 10
99.08753869391393
 20
139.1270929081192
 30
0.0
 10
99.08753869391393
 20
139.1748061382638
 30
0.0
  0
LINE
  5
E7
330
1F
100
AcDbEntity
  8
0
  6
Continuous
 62
     7
370
    25
100
AcDbLine
 10
98.2875384549
 20
145.4389393638
 30
0.0
 11
96.0675392459
 21
145.4389393638
 31
0.0
  0
LINE
  5
E8
330
1F
100
AcDbEntity
  8
0
  6
Continuous
 62
     7
370
    25
100
AcDbLine
 10
98.2875384549
 20
92.6389396499
 30
0.0
 11
96.0675392459
 21
92.6389396499
 31
0.0
  0
LINE
  5
E9
330
1F
100
AcDbEntity
  8
0
  6
Continuous
 62
     7
370
    25
100
AcDbLine
 10
57.3775384734
 20
95.8104934851
 30
0.0
 11
57.3775384734
 21
97.0752016018
 31
0.0
  0
SPLINE
  5
EA
330
1F
100
AcDbEntity
  8
0
  6
Continuous
 62
     7
370
    25
100
AcDbSpline
210
0.0
220
0.0
230
1.0
 70
     8
 71
     3
 72
    14
 73
    10
 74
     0
 42
0.000000001
 43
0.00000001
 40
0.0
 40
0.0
 40
0.0
 40
0.0
 40
0.25
 40
0.25
 40
0.5
 40
0.5
 40
0.75
 40
0.75
 40
1.0
 40
1.0
 40
1.0
 40
1.0
 10
56.59925157599821
 20
98.20578818324245
 30
0.0
 10
56.65587825120029
 20
98.09809072940558
 30
0.0
 10
56.75040091149001
 20
97.99530114768628
 30
0.0
 10
56.93344588705225
 20
97.79694383546612
 30
0.0
 10
57.02507246400698
 20
97.70088432678787
 30
0.0
 10
57.18392578170018
 20
97.51335528407863
 30
0.0
 10
57.25181638932186
 20
97.42194631129509
 30
0.0
 10
57.34873341502946
 20
97.24357009038492
 30
0.0
 10
57.37753869391452
 20
97.15634818413875
 30
0.0
 10
57.3775386939145
 20
97.07520197560449
 30
0.0
  0
SPLINE
  5
EB
330
1F
100
AcDbEntity
  8
0
  6
Continuous
 62
     7
370
    25
100
AcDbSpline
210
0.0
220
0.0
230
1.0
 70
     8
 71
     3
 72
    14
 73
    10
 74
     0
 42
0.000000001
 43
0.00000001
 40
0.0
 40
0.0
 40
0.0
 40
0.0
 40
0.125
 40
0.125
 40
0.25
 40
0.25
 40
0.5
 40
0.5
 40
1.0
 40
1.0
 40
1.0
 40
1.0
 10
55.97753869391394
 20
98.65247004552177
 30
0.0
 10
56.02608310257109
 20
98.65821835880206
 30
0.0
 10
56.07899845735601
 20
98.65511747014583
 30
0.0
 10
56.17429380233904
 20
98.6329226259835
 30
0.0
 10
56.21454479962399
 20
98.61569039888764
 30
0.0
 10
56.31881481313695
 20
98.55936248243557
 30
0.0
 10
56.36913678829029
 20
98.51517613648977
 30
0.0
 10
56.49681973581566
 20
98.38416823763916
 30
0.0
 10
56.55290518287794
 20
98.29393371740885
 30
0.0
 10
56.59925157599968
 20
98.20578818324297
 30
0.0
  0
SPLINE
  5
EC
330
1F
100
AcDbEntity
  8
0
  6
Continuous
 62
     7
370
    25
100
AcDbSpline
210
0.0
220
0.0
230
1.0
 70
     8
 71
     3
 72
     8
 73
     4
 74
     0
 42
0.000000001
 43
0.00000001
 40
0.0
 40
0.0
 40
0.0
 40
0.0
 40
1.0
 40
1.0
 40
1.0
 40
1.0
 10
53.70901360096767
 20
98.34262475893897
 30
0.0
 10
54.44359062745063
 20
98.46124977000794
 30
0.0
 10
55.2070656968463
 20
98.56123564214423
 30
0.0
 10
55.97753869391394
 20
98.65247004552177
 30
0.0
  0
SPLINE
  5
ED
330
1F
100
AcDbEntity
  8
0
  6
Continuous
 62
     7
370
    25
100
AcDbSpline
210
0.0
220
0.0
230
1.0
 70
     8
 71
     3
 72
    14
 73
    10
 74
     0
 42
0.000000001
 43
0.00000001
 40
0.0
 40
0.0
 40
0.0
 40
0.0
 40
0.5000000000000002
 40
0.5000000000000002
 40
0.7500000000000002
 40
0.7500000000000002
 40
0.8750000000000001
 40
0.8750000000000001
 40
1.0
 40
1.0
 40
1.0
 40
1.0
 10
48.42753869391393
 20
98.16900174140733
 30
0.0
 10
49.31968482446749
 20
98.16827951520668
 30
0.0
 10
50.20966126026108
 20
98.17286572166414
 30
0.0
 10
51.53625642733667
 20
98.20059072605568
 30
0.0
 10
51.9771033558354
 20
98.21319726367986
 30
0.0
 10
52.63354359325782
 20
98.2442134116873
 30
0.0
 10
52.85155724984971
 20
98.25655658431408
 30
0.0
 10
53.28426610353246
 20
98.28958063947735
 30
0.0
 10
53.49954256869727
 20
98.30879780461579
 30
0.0
 10
53.70901360096767
 20
98.34262475893897
 30
0.0
  0
SPLINE
  5
EE
330
1F
100
AcDbEntity
  8
0
  6
Continuous
 62
     7
370
    25
100
AcDbSpline
210
0.0
220
0.0
230
1.0
 70
     8
 71
     3
 72
     8
 73
     4
 74
     0
 42
0.000000001
 43
0.00000001
 40
0.0000005163856712
 40
0.0000005163856712
 40
0.0000005163856712
 40
0.0000005163856712
 40
0.000026289209185
 40
0.000026289209185
 40
0.000026289209185
 40
0.000026289209185
 10
48.41749376349524
 20
98.1789856145152
 30
0.0
 10
48.42082150170672
 20
98.17565136764237
 30
0.0
 10
48.42416995468601
 20
98.17232341036336
 30
0.0
 10
48.4275386939139
 20
98.16900174140731
 30
0.0
  0
SPLINE
  5
EF
330
1F
100
AcDbEntity
  8
0
  6
Continuous
 62
     7
370
    25
100
AcDbSpline
210
0.0
220
0.0
230
1.0
 70
     8
 71
     3
 72
     8
 73
     4
 74
     0
 42
0.000000001
 43
0.00000001
 40
0.0000005099763573
 40
0.0000005099763573
 40
0.0000005099763573
 40
0.0000005099763573
 40
0.0000262827998699
 40
0.0000262827998699
 40
0.0000262827998699
 40
0.0000262827998699
 10
48.42753869391392
 20
139.9088772721975
 30
0.0
 10
48.42416995468618
 20
139.9055556032416
 30
0.0
 10
48.42082150170704
 20
139.9022276459627
 30
0.0
 10
48.41749376349572
 20
139.8988933990901
 30
0.0
  0
SPLINE
  5
F0
330
1F
100
AcDbEntity
  8
0
  6
Continuous
 62
     7
370
    25
100
AcDbSpline
210
0.0
220
0.0
230
1.0
 70
     8
 71
     3
 72
    10
 73
     6
 74
     0
 42
0.000000001
 43
0.00000001
 40
0.0
 40
0.0
 40
0.0
 40
0.0
 40
0.5
 40
0.5
 40
1.0
 40
1.0
 40
1.0
 40
1.0
 10
51.97753869391394
 20
139.8620268986301
 30
0.0
 10
51.38995314682334
 20
139.8830924188666
 30
0.0
 10
50.79920675336295
 20
139.8938509047388
 30
0.0
 10
49.6151875880641
 20
139.9072156852745
 30
0.0
 10
49.02177359985864
 20
139.909358327939
 30
0.0
 10
48.42753869391393
 20
139.9088772721975
 30
0.0
  0
SPLINE
  5
F1
330
1F
100
AcDbEntity
  8
0
  6
Continuous
 62
     7
370
    25
100
AcDbSpline
210
0.0
220
0.0
230
1.0
 70
     8
 71
     3
 72
    18
 73
    14
 74
     0
 42
0.000000001
 43
0.00000001
 40
0.0
 40
0.0
 40
0.0
 40
0.0
 40
0.2500000000000008
 40
0.2500000000000008
 40
0.5000000000000009
 40
0.5000000000000009
 40
0.7500000000000009
 40
0.7500000000000009
 40
0.875000000000001
 40
0.875000000000001
 40
0.9375000000000006
 40
0.9375000000000006
 40
1.0
 40
1.0
 40
1.0
 40
1.0
 10
53.37753869391394
 20
140.8830471791654
 30
0.0
 10
53.37753869391396
 20
140.7998402703082
 30
0.0
 10
53.34168959397569
 20
140.7111036149946
 30
0.0
 10
53.21681785794176
 20
140.5289784244344
 30
0.0
 10
53.12641744029389
 20
140.4338483758078
 30
0.0
 10
52.9041747855517
 20
140.2446668666834
 30
0.0
 10
52.77440999910593
 20
140.1497216985887
 30
0.0
 10
52.53377254179443
 20
140.0114429910088
 30
0.0
 10
52.446005243657
 20
139.9657325577064
 30
0.0
 10
52.29148115645016
 20
139.907909252485
 30
0.0
 10
52.23487027039542
 20
139.8901944884471
 30
0.0
 10
52.11082623948882
 20
139.8656551852142
 30
0.0
 10
52.04311156447053
 20
139.8596760466759
 30
0.0
 10
51.97753869391393
 20
139.8620268986301
 30
0.0
  0
LINE
  5
F2
330
1F
100
AcDbEntity
  8
0
  6
Continuous
 62
     7
370
    25
100
AcDbLine
 10
53.3775378177
 20
140.8830471645
 30
0.0
 11
53.3775378177
 21
142.0669853995
 31
0.0
  0
LINE
  5
F3
330
1F
100
AcDbEntity
  8
0
  6
Continuous
 62
     7
370
    25
100
AcDbLine
 10
77.1775385989
 20
94.8185082833
 30
0.0
 11
77.1775385989
 21
143.2593707303
 31
0.0
  0
SPLINE
  5
F4
330
1F
100
AcDbEntity
  8
0
  6
Continuous
 62
     7
370
    25
100
AcDbSpline
210
0.0
220
0.0
230
1.0
 70
     8
 71
     3
 72
    18
 73
    14
 74
     0
 42
0.000000001
 43
0.00000001
 40
0.0
 40
0.0
 40
0.0
 40
0.0
 40
0.001067142096085
 40
0.1270947925777493
 40
0.2524053537361832
 40
0.3766468838452861
 40
0.4391416358858051
 40
0.5008278334298175
 40
0.5624255844801763
 40
0.6253162510714301
 40
0.7499985254815132
 40
0.8752758926324193
 40
1.0
 40
1.0
 40
1.0
 40
1.0
 10
65.94783981985759
 20
95.38160081306442
 30
0.0
 10
65.94692774457486
 20
95.38148564517238
 30
0.0
 10
65.83830114339435
 20
95.36776934684264
 30
0.0
 10
66.22598261543708
 20
95.41875560822427
 30
0.0
 10
67.09193107554663
 20
95.51831264409878
 30
0.0
 10
68.29233886926944
 20
95.58744327371787
 30
0.0
 10
69.34991441912717
 20
95.5913939739846
 30
0.0
 10
70.17704878325043
 20
95.56390710606034
 30
0.0
 10
71.00232041929827
 20
95.50536461724803
 30
0.0
 10
72.05668562640706
 20
95.39184601528832
 30
0.0
 10
73.21852183266047
 20
95.2086918594548
 30
0.0
 10
74.17075655333362
 20
95.00409171078864
 30
0.0
 10
74.29646165604225
 20
94.97480504077954
 30
0.0
 10
74.35917511306118
 20
94.96019411185726
 30
0.0
  0
SPLINE
  5
F5
330
1F
100
AcDbEntity
  8
0
  6
Continuous
 62
     7
370
    25
100
AcDbSpline
210
0.0
220
0.0
230
1.0
 70
     8
 71
     3
 72
    18
 73
    14
 74
     0
 42
0.000000001
 43
0.00000001
 40
0.0
 40
0.0
 40
0.0
 40
0.0
 40
0.1248907819469273
 40
0.2505384063477967
 40
0.3748721756041158
 40
0.4374907331267689
 40
0.4990776026247599
 40
0.5607931145009658
 40
0.6233901196104445
 40
0.7478191009174896
 40
0.8731941046696081
 40
0.9991614615322162
 40
0.9999999999999999
 40
0.9999999999999999
 40
0.9999999999999999
 40
0.9999999999999999
 10
74.35895625225615
 20
143.1176197091673
 30
0.0
 10
74.29521542028844
 20
143.1029582429403
 30
0.0
 10
74.16734748470888
 20
143.0735464614943
 30
0.0
 10
73.21534864812035
 20
142.8685925021367
 30
0.0
 10
72.05480457726772
 20
142.6853312402731
 30
0.0
 10
71.00254080560434
 20
142.5723006858981
 30
0.0
 10
70.17831350658606
 20
142.5140398784253
 30
0.0
 10
69.3507097612614
 20
142.4865927423032
 30
0.0
 10
68.29189243156716
 20
142.4905775361779
 30
0.0
 10
67.08967269194133
 20
142.5596703206738
 30
0.0
 10
66.22449192094243
 20
142.6592790578609
 30
0.0
 10
65.83834317330475
 20
142.7101366635042
 30
0.0
 10
65.94642104566836
 20
142.6964358560808
 30
0.0
 10
65.94713573999118
 20
142.6963452557657
 30
0.0
  0
LWPOLYLINE
  5
F6
330
1F
100
AcDbEntity
  8
0
  6
Continuous
 62
     7
370
    25
100
AcDbPolyline
 90
       23
 70
   128
 43
0.0
 10
140.127538533
 20
137.3690218041
 10
140.8318717191
 20
137.4406274716
 10
141.4791409085
 20
137.6496479223
 10
142.0169126401
 20
137.9791461239
 10
142.4016159186
 20
138.4024303714
 10
142.6020886908
 20
138.885207505
 10
142.6020886908
 20
139.3883675645
 10
142.4016159186
 20
139.8711446981
 10
142.0169126401
 20
140.2944289456
 10
141.4791409085
 20
140.6239271472
 10
140.8318717191
 20
140.8329475979
 10
140.127538533
 20
140.904555128
 10
139.4232090721
 20
140.8329475979
 10
138.7759361575
 20
140.6239271472
 10
138.2381644259
 20
140.2944289456
 10
137.853457422
 20
139.8711446981
 10
137.6529846499
 20
139.3883675645
 10
137.6529846499
 20
138.885207505
 10
137.853457422
 20
138.4024303714
 10
138.2381644259
 20
137.9791461239
 10
138.7759361575
 20
137.6496479223
 10
139.4232090721
 20
137.4406274716
 10
140.127538533
 20
137.3690218041
  0
LWPOLYLINE
  5
F7
330
1F
100
AcDbEntity
  8
0
  6
Continuous
 62
     7
370
    25
100
AcDbPolyline
 90
       23
 70
   128
 43
0.0
 10
140.127538533
 20
97.1733238856
 10
140.8318717191
 20
97.2449314157
 10
141.4791409085
 20
97.4539518664
 10
142.0169126401
 20
97.783450068
 10
142.4016159186
 20
98.2067343155
 10
142.6020886908
 20
98.6895114491
 10
142.6020886908
 20
99.1926715086
 10
142.4016159186
 20
99.6754486422
 10
142.0169126401
 20
100.0987328897
 10
141.4791409085
 20
100.4282310913
 10
140.8318717191
 20
100.637251542
 10
140.127538533
 20
100.7088572095
 10
139.4232090721
 20
100.637251542
 10
138.7759361575
 20
100.4282310913
 10
138.2381644259
 20
100.0987328897
 10
137.853457422
 20
99.6754486422
 10
137.6529846499
 20
99.1926715086
 10
137.6529846499
 20
98.6895114491
 10
137.853457422
 20
98.2067343155
 10
138.2381644259
 20
97.783450068
 10
138.7759361575
 20
97.4539518664
 10
139.4232090721
 20
97.2449314157
 10
140.127538533
 20
97.1733238856
  0
SPLINE
  5
F8
330
1F
100
AcDbEntity
  8
0
  6
Continuous
 62
     7
370
    25
100
AcDbSpline
210
0.0
220
0.0
230
1.0
 70
     8
 71
     3
 72
     9
 73
     5
 74
     0
 42
0.000000001
 43
0.00000001
 40
0.0
 40
0.0
 40
0.0
 40
0.0
 40
0.7009339503679092
 40
0.9999999999999999
 40
0.9999999999999999
 40
0.9999999999999999
 40
0.9999999999999999
 10
47.29832226134252
 20
99.33765980700001
 30
0.0
 10
47.30746293229235
 20
99.3198305232391
 30
0.0
 10
47.32050363455116
 20
99.2943940555783
 30
0.0
 10
47.33566709781945
 20
99.34827341505185
 30
0.0
 10
47.34020197487783
 20
99.36438690224632
 30
0.0
  0
LINE
  5
F9
330
1F
100
AcDbEntity
  8
0
  6
Continuous
 62
     7
370
    25
100
AcDbLine
 10
47.2775388668
 20
99.3482619832
 30
0.0
 11
47.2775388668
 21
138.7296170304
 31
0.0
  0
SPLINE
  5
FA
330
1F
100
AcDbEntity
  8
0
  6
Continuous
 62
     7
370
    25
100
AcDbSpline
210
0.0
220
0.0
230
1.0
 70
     8
 71
     3
 72
    10
 73
     6
 74
     0
 42
0.000000001
 43
0.00000001
 40
0.0
 40
0.0
 40
0.0
 40
0.0
 40
0.5
 40
0.5
 40
1.0
 40
1.0
 40
1.0
 40
1.0
 10
47.34020206863735
 20
138.7134920515831
 30
0.0
 10
47.33129777952858
 20
138.7592335707963
 30
0.0
 10
47.31478239933559
 20
138.7764244102653
 30
0.0
 10
47.28767445327398
 20
138.7761011333296
 30
0.0
 10
47.27753869391393
 20
138.7582235910332
 30
0.0
 10
47.27753869391393
 20
138.7296172532805
 30
0.0
  0
SPLINE
  5
FB
330
1F
100
AcDbEntity
  8
0
  6
Continuous
 62
     7
370
    25
100
AcDbSpline
210
0.0
220
0.0
230
1.0
 70
     8
 71
     3
 72
    26
 73
    22
 74
     0
 42
0.000000001
 43
0.00000001
 40
0.0
 40
0.0
 40
0.0
 40
0.0
 40
0.2500000000000165
 40
0.2500000000000165
 40
0.3750000000000256
 40
0.3750000000000256
 40
0.4375000000000291
 40
0.4375000000000291
 40
0.4687500000000291
 40
0.4687500000000291
 40
0.5000000000000292
 40
0.5000000000000292
 40
0.5312500000000293
 40
0.5312500000000293
 40
0.5625000000000293
 40
0.5625000000000293
 40
0.625000000000026
 40
0.625000000000026
 40
0.7500000000000173
 40
0.7500000000000173
 40
1.0
 40
1.0
 40
1.0
 40
1.0
 10
48.10169234001845
 20
139.4290588404002
 30
0.0
 10
48.06309181714997
 20
139.3112841440448
 30
0.0
 10
48.01679481459571
 20
139.1868944578829
 30
0.0
 10
47.92285546616179
 20
138.9816751255294
 30
0.0
 10
47.88754399924833
 20
138.9101022590829
 30
0.0
 10
47.82136402350265
 20
138.7941490264825
 30
0.0
 10
47.79682565683444
 20
138.7535644916723
 30
0.0
 10
47.75345291128063
 20
138.6894228098005
 30
0.0
 10
47.73794450985544
 20
138.6675563845154
 30
0.0
 10
47.7029018652684
 20
138.6219621161723
 30
0.0
 10
47.68335157454865
 20
138.5982918252048
 30
0.0
 10
47.64142429417803
 20
138.5536752658649
 30
0.0
 10
47.61877218394639
 20
138.532795253347
 30
0.0
 10
47.57779846985976
 20
138.5019218395962
 30
0.0
 10
47.56019916996435
 20
138.4920829697638
 30
0.0
 10
47.51557218410819
 20
138.4730933540676
 30
0.0
 10
47.49501296145486
 20
138.4727690294141
 30
0.0
 10
47.44388752195819
 20
138.4819924702904
 30
0.0
 10
47.42297610896964
 20
138.5032393665073
 30
0.0
 10
47.37152620140872
 20
138.5772082453381
 30
0.0
 10
47.35386090210417
 20
138.6433263386528
 30
0.0
 10
47.34020206863735
 20
138.7134920515831
 30
0.0
  0
SPLINE
  5
FC
330
1F
100
AcDbEntity
  8
0
  6
Continuous
 62
     7
370
    25
100
AcDbSpline
210
0.0
220
0.0
230
1.0
 70
     8
 71
     3
 72
    10
 73
     6
 74
     0
 42
0.000000001
 43
0.00000001
 40
0.0
 40
0.0
 40
0.0
 40
0.0
 40
0.5
 40
0.5
 40
1.0
 40
1.0
 40
1.0
 40
1.0
 10
48.41749376349574
 20
139.8988933990901
 30
0.0
 10
48.3499345085775
 20
139.8312020062803
 30
0.0
 10
48.286297853241
 20
139.7564948415267
 30
0.0
 10
48.17607709866913
 20
139.5975287091
 30
0.0
 10
48.12926080544651
 20
139.513173443092
 30
0.0
 10
48.10169234001843
 20
139.4290588404002
 30
0.0
  0
SPLINE
  5
FD
330
1F
100
AcDbEntity
  8
0
  6
Continuous
 62
     7
370
    25
100
AcDbSpline
210
0.0
220
0.0
230
1.0
 70
     8
 71
     3
 72
    10
 73
     6
 74
     0
 42
0.000000001
 43
0.00000001
 40
0.0
 40
0.0
 40
0.0
 40
0.0
 40
0.5
 40
0.5
 40
1.0
 40
1.0
 40
1.0
 40
1.0
 10
48.10169234001849
 20
98.64882017320444
 30
0.0
 10
48.12916975477169
 20
98.56498337673884
 30
0.0
 10
48.17587838505935
 20
98.480672889152
 30
0.0
 10
48.2861568478013
 20
98.32155165866915
 30
0.0
 10
48.35004438641294
 20
98.24656691458107
 30
0.0
 10
48.41749376349527
 20
98.1789856145152
 30
0.0
  0
SPLINE
  5
FE
330
1F
100
AcDbEntity
  8
0
  6
Continuous
 62
     7
370
    25
100
AcDbSpline
210
0.0
220
0.0
230
1.0
 70
     8
 71
     3
 72
    24
 73
    20
 74
     0
 42
0.000000001
 43
0.00000001
 40
0.0
 40
0.0
 40
0.0
 40
0.0
 40
0.2499999999999952
 40
0.2499999999999952
 40
0.3749999999999937
 40
0.3749999999999937
 40
0.4374999999999931
 40
0.4374999999999931
 40
0.468749999999992
 40
0.468749999999992
 40
0.4999999999999909
 40
0.4999999999999909
 40
0.5624999999999933
 40
0.5624999999999933
 40
0.6249999999999958
 40
0.6249999999999958
 40
0.7499999999999981
 40
0.7499999999999981
 40
1.0
 40
1.0
 40
1.0
 40
1.0
 10
47.34020206863735
 20
99.36438696202165
 30
0.0
 10
47.35395518730756
 20
99.43503702001195
 30
0.0
 10
47.37172775471342
 20
99.50163513277688
 30
0.0
 10
47.42397884626878
 20
99.57573315301006
 30
0.0
 10
47.44501392185033
 20
99.59699096017164
 30
0.0
 10
47.49791432947878
 20
99.60513688631788
 30
0.0
 10
47.51902000235668
 20
99.6041970829221
 30
0.0
 10
47.56507217103464
 20
99.58318109134477
 30
0.0
 10
47.58344264301803
 20
99.57227228523716
 30
0.0
 10
47.62499427808374
 20
99.5396373742898
 30
0.0
 10
47.64756095084066
 20
99.51814539391843
 30
0.0
 10
47.71034196730069
 20
99.4496794503321
 30
0.0
 10
47.74347172826857
 20
99.40360499212703
 30
0.0
 10
47.80038941475359
 20
99.31859710379234
 30
0.0
 10
47.82457544025736
 20
99.27831680261096
 30
0.0
 10
47.88978339063713
 20
99.16338057614502
 30
0.0
 10
47.92449945082837
 20
99.09279759099802
 30
0.0
 10
48.01771472115926
 20
98.88859183191941
 30
0.0
 10
48.06338725651993
 20
98.76569344959204
 30
0.0
 10
48.10169234001847
 20
98.64882017320446
 30
0.0
  0
SPLINE
  5
FF
330
1F
100
AcDbEntity
  8
0
  6
Continuous
 62
     7
370
    25
100
AcDbSpline
210
0.0
220
0.0
230
1.0
 70
     8
 71
     3
 72
    10
 73
     6
 74
     0
 42
0.000000001
 43
0.00000001
 40
0.0
 40
0.0
 40
0.0
 40
0.0
 40
0.5
 40
0.5
 40
1.0
 40
1.0
 40
1.0
 40
1.0
 10
105.1275386939139
 20
148.8853798305663
 30
0.0
 10
105.1275386939139
 20
149.0457850969171
 30
0.0
 10
105.0653008628071
 20
149.2048469099057
 30
0.0
 10
104.8461659390645
 20
149.435759375536
 30
0.0
 10
104.6885772440726
 20
149.5061349799666
 30
0.0
 10
104.5275386939139
 20
149.5061349799666
 30
0.0
  0
SPLINE
  5
100
330
1F
100
AcDbEntity
  8
0
  6
Continuous
 62
     7
370
    25
100
AcDbSpline
210
0.0
220
0.0
230
1.0
 70
     8
 71
     3
 72
    12
 73
     8
 74
     0
 42
0.000000001
 43
0.00000001
 40
0.0
 40
0.0
 40
0.0
 40
0.0
 40
0.25
 40
0.25
 40
0.5
 40
0.5
 40
1.0
 40
1.0
 40
1.0
 40
1.0
 10
104.5275386939139
 20
143.4976291691699
 30
0.0
 10
104.6187384157396
 20
143.4976291691699
 30
0.0
 10
104.7093334248756
 20
143.469409470582
 30
0.0
 10
104.8627461513223
 20
143.3749664633339
 30
0.0
 10
104.9279550186459
 20
143.3086794866285
 30
0.0
 10
105.0807395479859
 20
143.0830546633402
 30
0.0
 10
105.1275386939139
 20
142.9006284003077
 30
0.0
 10
105.1275386939139
 20
142.7198917680608
 30
0.0
  0
LINE
  5
101
330
1F
100
AcDbEntity
  8
0
  6
Continuous
 62
     7
370
    25
100
AcDbLine
 10
105.127538384
 20
142.7198909531
 30
0.0
 11
105.127538384
 21
148.8853805075
 31
0.0
  0
LINE
  5
102
330
1F
100
AcDbEntity
  8
0
  6
Continuous
 62
     7
370
    25
100
AcDbLine
 10
104.5275394032
 20
149.5061349432
 30
0.0
 11
100.5694706152
 21
149.5061349432
 31
0.0
  0
LINE
  5
103
330
1F
100
AcDbEntity
  8
0
  6
Continuous
 62
     7
370
    25
100
AcDbLine
 10
100.5694706152
 20
143.4976291219
 30
0.0
 11
104.5275394032
 21
143.4976291219
 31
0.0
  0
LINE
  5
104
330
1F
100
AcDbEntity
  8
0
  6
Continuous
 62
     7
370
    25
100
AcDbLine
 10
100.5694706152
 20
143.4976291219
 30
0.0
 11
100.5694706152
 21
149.5061349432
 31
0.0
  0
SPLINE
  5
105
330
1F
100
AcDbEntity
  8
0
  6
Continuous
 62
     7
370
    25
100
AcDbSpline
210
0.0
220
0.0
230
1.0
 70
     8
 71
     3
 72
     8
 73
     4
 74
     0
 42
0.000000001
 43
0.00000001
 40
0.0
 40
0.0
 40
0.0
 40
0.0
 40
1.0
 40
1.0
 40
1.0
 40
1.0
 10
95.26753869391393
 20
146.844173697974
 30
0.0
 10
94.77482859706818
 20
147.7321926961004
 30
0.0
 10
94.2807458917892
 20
148.6194553317864
 30
0.0
 10
93.78560586242487
 20
149.5061349799666
 30
0.0
  0
SPLINE
  5
106
330
1F
100
AcDbEntity
  8
0
  6
Continuous
 62
     7
370
    25
100
AcDbSpline
210
0.0
220
0.0
230
1.0
 70
     8
 71
     3
 72
     8
 73
     4
 74
     0
 42
0.000000001
 43
0.00000001
 40
0.0
 40
0.0
 40
0.0
 40
0.0
 40
1.0
 40
1.0
 40
1.0
 40
1.0
 10
93.78560586242487
 20
143.4976291691698
 30
0.0
 10
94.29269270418415
 20
142.3664788150062
 30
0.0
 10
94.7882605433241
 20
141.2300944042383
 30
0.0
 10
95.26753869391393
 20
140.0890831743857
 30
0.0
  0
LINE
  5
107
330
1F
100
AcDbEntity
  8
0
  6
Continuous
 62
     7
370
    25
100
AcDbLine
 10
95.2675387422
 20
140.0890834937
 30
0.0
 11
95.2675387422
 21
146.844172881
 31
0.0
  0
SPLINE
  5
108
330
1F
100
AcDbEntity
  8
0
  6
Continuous
 62
     7
370
    25
100
AcDbSpline
210
0.0
220
0.0
230
1.0
 70
     8
 71
     3
 72
     8
 73
     4
 74
     0
 42
0.000000001
 43
0.00000001
 40
0.0
 40
0.0
 40
0.0
 40
0.0
 40
1.0
 40
1.0
 40
1.0
 40
1.0
 10
99.08753869391393
 20
140.0890831743857
 30
0.0
 10
99.56681684450378
 20
141.2300944042383
 30
0.0
 10
100.0623846836437
 20
142.3664788150062
 30
0.0
 10
100.569471525403
 20
143.4976291691698
 30
0.0
  0
LINE
  5
109
330
1F
100
AcDbEntity
  8
0
  6
Continuous
 62
     7
370
    25
100
AcDbLine
 10
99.0875389586
 20
139.1748059849
 30
0.0
 11
99.0875389586
 21
140.0890834937
 31
0.0
  0
LINE
  5
10A
330
1F
100
AcDbEntity
  8
0
  6
Continuous
 62
     7
370
    25
100
AcDbLine
 10
105.127538384
 20
142.7198909531
 30
0.0
 11
105.127538384
 21
138.8889402459
 31
0.0
  0
LINE
  5
10B
330
1F
100
AcDbEntity
  8
0
  6
Continuous
 62
     7
370
    25
100
AcDbLine
 10
95.2675387422
 20
140.0890834937
 30
0.0
 11
95.2675387422
 21
139.1748059849
 31
0.0
  0
SPLINE
  5
10C
330
1F
100
AcDbEntity
  8
0
  6
Continuous
 62
     7
370
    25
100
AcDbSpline
210
0.0
220
0.0
230
1.0
 70
     8
 71
     3
 72
     8
 73
     4
 74
     0
 42
0.000000001
 43
0.00000001
 40
0.0
 40
0.0
 40
0.0
 40
0.0
 40
1.0
 40
1.0
 40
1.0
 40
1.0
 10
100.569471525403
 20
149.5061349799666
 30
0.0
 10
100.0743314960387
 20
148.6194553317864
 30
0.0
 10
99.5802487907597
 20
147.7321926961004
 30
0.0
 10
99.08753869391393
 20
146.844173697974
 30
0.0
  0
LINE
  5
10D
330
1F
100
AcDbEntity
  8
0
  6
Continuous
 62
     7
370
    25
100
AcDbLine
 10
99.0875389586
 20
140.0890834937
 30
0.0
 11
99.0875389586
 21
146.844172881
 31
0.0
  0
ARC
  5
10E
330
1F
100
AcDbEntity
  8
0
  6
Continuous
 62
     7
370
    25
100
AcDbCircle
 10
87.1777507461
 20
137.7651837172
 30
0.0
 40
7.230004954940334
100
AcDbArc
 50
70.9071289338
 51
109.1560830453
  0
LINE
  5
10F
330
1F
100
AcDbEntity
  8
0
  6
Continuous
 62
     7
370
    25
100
AcDbLine
 10
181.6775377998
 20
105.5389391566
 30
0.0
 11
181.6775377998
 21
132.538939857
 31
0.0
  0
LINE
  5
110
330
1F
100
AcDbEntity
  8
0
  6
Continuous
 62
     7
370
    25
100
AcDbLine
 10
200.1775380383
 20
106.3389396603
 30
0.0
 11
200.1775380383
 21
131.7389393533
 31
0.0
  0
LINE
  5
111
330
1F
100
AcDbEntity
  8
0
  6
HIDDEN
 62
     7
370
    18
100
AcDbLine
 10
205.1775407205
 20
110.0389398942
 30
0.0
 11
205.1775407205
 21
128.0389391194
 31
0.0
  0
LINE
  5
112
330
1F
100
AcDbEntity
  8
0
  6
HIDDEN
 62
     7
370
    18
100
AcDbLine
 10
217.1775352368
 20
110.6389398063
 30
0.0
 11
217.1775352368
 21
127.4389392073
 31
0.0
  0
LINE
  5
113
330
1F
100
AcDbEntity
  8
0
  6
HIDDEN
 62
     7
370
    18
100
AcDbLine
 10
205.1775407205
 20
112.4389395426
 30
0.0
 11
205.1775407205
 21
125.638939471
 31
0.0
  0
LINE
  5
114
330
1F
100
AcDbEntity
  8
0
  6
HIDDEN
 62
     7
370
    18
100
AcDbLine
 10
176.1415403495
 20
113.0389394546
 30
0.0
 11
176.1415403495
 21
125.038939559
 31
0.0
  0
LINE
  5
115
330
1F
100
AcDbEntity
  8
0
  6
HIDDEN
 62
     7
370
    18
100
AcDbLine
 10
175.1775395284
 20
114.0029393444
 30
0.0
 11
175.1775395284
 21
124.0749396692
 31
0.0
  0
LINE
  5
116
330
1F
100
AcDbEntity
  8
0
  6
HIDDEN
 62
     7
370
    18
100
AcDbLine
 10
217.1775352368
 20
119.0389395068
 30
0.0
 11
217.1775352368
 21
113.9814392971
 31
0.0
  0
LINE
  5
117
330
1F
100
AcDbEntity
  8
0
  6
HIDDEN
 62
     7
370
    18
100
AcDbLine
 10
211.1775379787
 20
119.0389395068
 30
0.0
 11
211.1775379787
 21
116.510189402
 31
0.0
  0
LINE
  5
118
330
1F
100
AcDbEntity
  8
0
  6
HIDDEN
 62
     7
370
    18
100
AcDbLine
 10
211.1775379787
 20
119.0389395068
 30
0.0
 11
211.1775379787
 21
121.5676896116
 31
0.0
  0
LINE
  5
119
330
1F
100
AcDbEntity
  8
0
  6
HIDDEN
 62
     7
370
    18
100
AcDbLine
 10
211.1775379787
 20
119.0389395068
 30
0.0
 11
217.1775352368
 21
119.0389395068
 31
0.0
  0
LINE
  5
11A
330
1F
100
AcDbEntity
  8
0
  6
HIDDEN
 62
     7
370
    18
100
AcDbLine
 10
217.1775352368
 20
119.0389395068
 30
0.0
 11
217.1775352368
 21
124.0964397165
 31
0.0
  0
LINE
  5
11B
330
1F
100
AcDbEntity
  8
0
  6
HIDDEN
 62
     7
370
    18
100
AcDbLine
 10
211.1775379787
 20
121.5676896116
 30
0.0
 11
211.1775379787
 21
124.0964397165
 31
0.0
  0
LINE
  5
11C
330
1F
100
AcDbEntity
  8
0
  6
HIDDEN
 62
     7
370
    18
100
AcDbLine
 10
211.1775379787
 20
116.510189402
 30
0.0
 11
211.1775379787
 21
121.5676896116
 31
0.0
  0
LINE
  5
11D
330
1F
100
AcDbEntity
  8
0
  6
HIDDEN
 62
     7
370
    18
100
AcDbLine
 10
211.1775379787
 20
113.9814392971
 30
0.0
 11
211.1775379787
 21
116.510189402
 31
0.0
  0
LINE
  5
11E
330
1F
100
AcDbEntity
  8
0
  6
HIDDEN
 62
     7
370
    18
100
AcDbLine
 10
211.1775379787
 20
116.510189402
 30
0.0
 11
211.1775379787
 21
113.9814392971
 31
0.0
  0
LINE
  5
11F
330
1F
100
AcDbEntity
  8
0
  6
HIDDEN
 62
     7
370
    18
100
AcDbLine
 10
211.1775379787
 20
124.0964397165
 30
0.0
 11
211.1775379787
 21
121.5676896116
 31
0.0
  0
LINE
  5
120
330
1F
100
AcDbEntity
  8
0
  6
HIDDEN
 62
     7
370
    18
100
AcDbLine
 10
211.1775379787
 20
121.5676896116
 30
0.0
 11
211.1775379787
 21
116.510189402
 31
0.0
  0
LINE
  5
121
330
1F
100
AcDbEntity
  8
0
  6
HIDDEN
 62
     7
370
    18
100
AcDbLine
 10
211.1775379787
 20
116.510189402
 30
0.0
 11
211.1775379787
 21
113.9814392971
 31
0.0
  0
LINE
  5
122
330
1F
100
AcDbEntity
  8
0
  6
HIDDEN
 62
     7
370
    18
100
AcDbLine
 10
211.1775379787
 20
121.5676896116
 30
0.0
 11
211.1775379787
 21
124.0964397165
 31
0.0
  0
LINE
  5
123
330
1F
100
AcDbEntity
  8
0
  6
HIDDEN
 62
     7
370
    18
100
AcDbLine
 10
211.1775379787
 20
113.9814392971
 30
0.0
 11
217.1775352368
 21
113.9814392971
 31
0.0
  0
LINE
  5
124
330
1F
100
AcDbEntity
  8
0
  6
HIDDEN
 62
     7
370
    18
100
AcDbLine
 10
211.1775379787
 20
124.0964397165
 30
0.0
 11
217.1775352368
 21
124.0964397165
 31
0.0
  0
LINE
  5
125
330
1F
100
AcDbEntity
  8
0
  6
HIDDEN
 62
     7
370
    18
100
AcDbLine
 10
200.1775380383
 20
125.038939559
 30
0.0
 11
176.1415403495
 21
125.038939559
 31
0.0
  0
LINE
  5
126
330
1F
100
AcDbEntity
  8
0
  6
HIDDEN
 62
     7
370
    18
100
AcDbLine
 10
176.1415403495
 20
113.0389394546
 30
0.0
 11
200.1775380383
 21
113.0389394546
 31
0.0
  0
LINE
  5
127
330
1F
100
AcDbEntity
  8
0
  6
HIDDEN
 62
     7
370
    18
100
AcDbLine
 10
176.1415403495
 20
125.038939559
 30
0.0
 11
175.1775395284
 21
124.0749396692
 31
0.0
  0
LINE
  5
128
330
1F
100
AcDbEntity
  8
0
  6
HIDDEN
 62
     7
370
    18
100
AcDbLine
 10
175.1775395284
 20
114.0029393444
 30
0.0
 11
176.1415403495
 21
113.0389394546
 31
0.0
  0
LINE
  5
129
330
1F
100
AcDbEntity
  8
0
  6
HIDDEN
 62
     7
370
    18
100
AcDbLine
 10
211.1775379787
 20
124.0964397165
 30
0.0
 11
208.2575958381
 21
119.0389395068
 31
0.0
  0
LINE
  5
12A
330
1F
100
AcDbEntity
  8
0
  6
HIDDEN
 62
     7
370
    18
100
AcDbLine
 10
208.2575958381
 20
119.0389395068
 30
0.0
 11
211.1775379787
 21
113.9814392971
 31
0.0
  0
DIMENSION
  5
12B
330
1F
100
AcDbEntity
  8
VERMASSUNG
100
AcDbDimension
  2
_D
 10
251.1775386939
 20
93.0389395068
 30
0.0
 11
251.1775386939
 21
119.0389395068
 31
0.0
 70
   160
  1
%%c<>
 71
     2
 42
-1.0
  3
SLDDIMSTYLE0
100
AcDbAlignedDimension
 13
120.1775386939
 23
145.0389395068
 33
0.0
 14
120.1775386939
 24
93.0389395068
 34
0.0
 50
90.0
100
AcDbRotatedDimension
  0
DIMENSION
  5
137
330
1F
100
AcDbEntity
  8
VERMASSUNG
100
AcDbDimension
  2
_D_1
 10
263.1775386939
 20
90.0389395068
 30
0.0
 11
263.1775386939
 21
119.0389395068
 31
0.0
 70
   160
  1
%%c<>
 71
     2
 42
-1.0
  3
SLDDIMSTYLE0
100
AcDbAlignedDimension
 13
178.3775386939
 23
148.0389395068
 33
0.0
 14
178.3775386939
 24
90.0389395068
 34
0.0
 50
90.0
100
AcDbRotatedDimension
  0
DIMENSION
  5
142
330
1F
100
AcDbEntity
  8
VERMASSUNG
100
AcDbDimension
  2
_D_2
 10
239.1775386939
 20
132.5389395068
 30
0.0
 11
239.1775386939
 21
119.0389395068
 31
0.0
 70
   160
  1
%%c<>
 71
     2
 42
-1.0
  3
SLDDIMSTYLE0
100
AcDbAlignedDimension
 13
199.3775386939
 23
105.5389395068
 33
0.0
 14
199.3775386939
 24
132.5389395068
 34
0.0
 50
90.0
100
AcDbRotatedDimension
  0
DIMENSION
  5
14D
330
1F
100
AcDbEntity
  8
VERMASSUNG
100
AcDbDimension
  2
_D_3
 10
179.1775386939
 20
163.4596852222
 30
0.0
 11
142.1525386939
 21
163.4596852222
 31
0.0
 70
   160
  1
<>
 71
     2
 42
-1.0
  3
SLDDIMSTYLE0
100
AcDbAlignedDimension
 13
105.1275386939
 23
148.8853798306
 33
0.0
 14
179.1775386939
 24
147.2389395068
 34
0.0
100
AcDbRotatedDimension
  0
DIMENSION
  5
157
330
1F
100
AcDbEntity
  8
VERMASSUNG
100
AcDbDimension
  2
_D_4
 10
200.1775386939
 20
163.4596852222
 30
0.0
 11
189.6775386939
 21
163.4596852222
 31
0.0
 70
   160
  1
<>
 71
     2
 42
-1.0
  3
SLDDIMSTYLE0
100
AcDbAlignedDimension
 13
179.1775386939
 23
147.2389395068
 33
0.0
 14
200.1775386939
 24
131.7389395068
 34
0.0
100
AcDbRotatedDimension
  0
DIMENSION
  5
161
330
1F
100
AcDbEntity
  8
VERMASSUNG
100
AcDbDimension
  2
_D_5
 10
179.1775386939
 20
172.5389395068
 30
0.0
 11
129.1775386939
 21
172.5389395068
 31
0.0
 70
   160
  1
<>
 71
     2
 42
-1.0
  3
SLDDIMSTYLE0
100
AcDbAlignedDimension
 13
79.1775386939
 23
150.2389395068
 33
0.0
 14
179.1775386939
 24
147.2389395068
 34
0.0
100
AcDbRotatedDimension
  0
DIMENSION
  5
16B
330
1F
100
AcDbEntity
  8
VERMASSUNG
100
AcDbDimension
  2
_D_6
 10
217.1775386939
 20
181.6607503483
 30
0.0
 11
132.2275386939
 21
181.6607503483
 31
0.0
 70
   160
  1
<>
 71
     2
 42
-1.0
  3
SLDDIMSTYLE0
100
AcDbAlignedDimension
 13
47.2775386939
 23
138.7296172533
 33
0.0
 14
217.1775386939
 24
127.4389395068
 34
0.0
100
AcDbRotatedDimension
  0
DIMENSION
  5
175
330
1F
100
AcDbEntity
  8
VERMASSUNG
100
AcDbDimension
  2
_D_7
 10
37.1322348516
 20
87.5389395068
 30
0.0
 11
37.1322348516
 21
119.0389395068
 31
0.0
 70
   160
  1
%%c<>
 71
     2
 42
-1.0
  3
SLDDIMSTYLE0
100
AcDbAlignedDimension
 13
79.4775386939
 23
150.5389395068
 33
0.0
 14
79.4775386939
 24
87.5389395068
 34
0.0
 50
90.0
100
AcDbRotatedDimension
  0
DIMENSION
  5
180
330
1F
100
AcDbEntity
  8
VERMASSUNG
100
AcDbDimension
  2
_D_8
 10
229.8935088655
 20
113.9814395068
 30
0.0
 11
229.8935088655
 21
119.0389395068
 31
0.0
 70
   160
  1
SW<>
 71
     2
 42
-1.0
  3
SLDDIMSTYLE1
100
AcDbAlignedDimension
 13
217.1775386939
 23
124.0964395068
 33
0.0
 14
217.1775386939
 24
113.9814395068
 34
0.0
 50
90.0
100
AcDbRotatedDimension
  0
LINE
  5
18C
330
1F
100
AcDbEntity
  8
VERMASSUNG
  6
CENTERX2
370
    18
100
AcDbLine
 10
218.5775386939
 20
119.0389395068
 30
0.0
 11
42.9855860769
 21
119.0389395068
 31
0.0
  0
SPLINE
  5
18D
330
1F
100
AcDbEntity
  8
0
  6
Continuous
 62
     7
370
    25
100
AcDbSpline
210
0.0
220
0.0
230
1.0
 70
     8
 71
     3
 72
    23
 73
    19
 74
     0
 42
0.000000001
 43
0.00000001
 40
0.0
 40
0.0
 40
0.0
 40
0.0
 40
0.0549116200465488
 40
0.1164291877290667
 40
0.17890459500335
 40
0.2435100546483209
 40
0.3095817899495696
 40
0.3760161896754638
 40
0.4423183776501293
 40
0.5084968548495834
 40
0.5746664241286368
 40
0.6409461197949426
 40
0.7074688462749806
 40
0.7743810117389823
 40
0.8417239173232693
 40
0.9088942882866666
 40
0.9743838137204676
 40
1.0
 40
1.0
 40
1.0
 40
1.0
 10
253.2431680379968
 20
23.82175017569622
 30
0.0
 10
253.3425606287926
 20
23.7655906774077
 30
0.0
 10
253.5533028833977
 20
23.64651561162998
 30
0.0
 10
253.9380838621117
 20
23.60512554588721
 30
0.0
 10
254.358767957143
 20
23.66503623482313
 30
0.0
 10
254.7990654225704
 20
23.83892752164333
 30
0.0
 10
255.2428071975476
 20
24.1200288405451
 30
0.0
 10
255.6703724654273
 20
24.49803607105095
 30
0.0
 10
256.061881955715
 20
24.9547706465954
 30
0.0
 10
256.4010243234966
 20
25.47005633556009
 30
0.0
 10
256.6742121373426
 20
26.02262684873261
 30
0.0
 10
256.8701026959336
 20
26.59035781928764
 30
0.0
 10
256.979910249617
 20
27.15133359777589
 30
0.0
 10
256.9965203005373
 20
27.68354989867765
 30
0.0
 10
256.9165275530185
 20
28.16821631892742
 30
0.0
 10
256.7325414920235
 20
28.57276306186698
 30
0.0
 10
256.5207451015489
 20
28.84355196635186
 30
0.0
 10
256.3524706986989
 20
28.92969052170821
 30
0.0
 10
256.305156997193
 20
28.95391009299921
 30
0.0
  0
LINE
  5
18E
330
1F
100
AcDbEntity
  8
0
  6
Continuous
 62
     7
370
    25
100
AcDbLine
 10
251.2406579956
 20
24.9681013247
 30
0.0
 11
253.2912681289
 21
23.7843092925
 31
0.0
  0
LINE
  5
18F
330
1F
100
AcDbEntity
  8
0
  6
Continuous
 62
     7
370
    25
100
AcDbLine
 10
256.2910239735
 20
28.9806023134
 30
0.0
 11
254.2404138402
 21
30.1643943457
 31
0.0
  0
SPLINE
  5
190
330
1F
100
AcDbEntity
  8
0
  6
Continuous
 62
     7
370
    25
100
AcDbSpline
210
0.0
220
0.0
230
1.0
 70
     8
 71
     3
 72
    17
 73
    13
 74
     0
 42
0.000000001
 43
0.00000001
 40
0.0
 40
0.0
 40
0.0
 40
0.0
 40
0.0866494015339214
 40
0.1950340914099585
 40
0.3034041922197172
 40
0.4119547288351978
 40
0.520903174003117
 40
0.6304894716885786
 40
0.7407812197913047
 40
0.8507903970013574
 40
0.95804674686989
 40
1.0
 40
1.0
 40
1.0
 40
1.0
 10
271.29950553298
 20
33.583527369053
 30
0.0
 10
271.4053889437102
 20
33.70097322186993
 30
0.0
 10
271.6437157462223
 20
33.96532525187269
 30
0.0
 10
271.9566077185304
 20
34.45191547832444
 30
0.0
 10
272.2307665734343
 20
35.00274845702608
 30
0.0
 10
272.4263974956986
 20
35.57094620400864
 30
0.0
 10
272.5362740212624
 20
36.13179606508299
 30
0.0
 10
272.5528654331464
 20
36.6640463282429
 30
0.0
 10
272.4728777210406
 20
37.14870355330127
 30
0.0
 10
272.2888903093009
 20
37.55325276284199
 30
0.0
 10
272.0770942268506
 20
37.82404110484218
 30
0.0
 10
271.9088198056648
 20
37.91017969368179
 30
0.0
 10
271.8615060990035
 20
37.93439927438727
 30
0.0
  0
LINE
  5
191
330
1F
100
AcDbEntity
  8
0
  6
Continuous
 62
     7
370
    25
100
AcDbLine
 10
271.8473730753
 20
37.9610914948
 30
0.0
 11
269.796762942
 21
39.144883527
 31
0.0
  0
SPLINE
  5
192
330
1F
100
AcDbEntity
  8
0
  6
Continuous
 62
     7
370
    25
100
AcDbSpline
210
0.0
220
0.0
230
1.0
 70
     8
 71
     3
 72
    22
 73
    18
 74
     0
 42
0.000000001
 43
0.00000001
 40
0.0
 40
0.0
 40
0.0
 40
0.0
 40
0.0387690041971167
 40
0.1054437441744358
 40
0.1720995662704197
 40
0.239976551789035
 40
0.3094472067195687
 40
0.3799757404029685
 40
0.4508757893842467
 40
0.5217072209996114
 40
0.5924099367283684
 40
0.6630196325395379
 40
0.7336052215729931
 40
0.8042383287656453
 40
0.874984607145129
 40
0.945929135525085
 40
1.0
 40
1.0
 40
1.0
 40
1.0
 10
271.3565012430568
 20
20.63232962804976
 30
0.0
 10
271.4283886824931
 20
20.57793165305568
 30
0.0
 10
271.6239077815838
 20
20.42998031208963
 30
0.0
 10
272.0139412653767
 20
20.31154780885399
 30
0.0
 10
272.496835701914
 20
20.27100296892061
 30
0.0
 10
273.0129610812622
 20
20.34935517572243
 30
0.0
 10
273.5495754371696
 20
20.53959821103191
 30
0.0
 10
274.0946417593943
 20
20.84053600823727
 30
0.0
 10
274.6311597606004
 20
21.24328507320627
 30
0.0
 10
275.1429170667301
 20
21.73517942420054
 30
0.0
 10
275.6154195450394
 20
22.30119623793476
 30
0.0
 10
276.0361839210239
 20
22.92530602800668
 30
0.0
 10
276.3938437437166
 20
23.5902958870474
 30
0.0
 10
276.6791821054159
 20
24.27845524169643
 30
0.0
 10
276.8820640837727
 20
24.97047673692265
 30
0.0
 10
276.9937579377166
 20
25.59716801703231
 30
0.0
 10
277.0061126205678
 20
25.97438270978459
 30
0.0
 10
277.0114561896021
 20
26.1375332152062
 30
0.0
  0
SPLINE
  5
193
330
1F
100
AcDbEntity
  8
0
  6
Continuous
 62
     7
370
    25
100
AcDbSpline
210
0.0
220
0.0
230
1.0
 70
     8
 71
     3
 72
    13
 73
     9
 74
     0
 42
0.000000001
 43
0.00000001
 40
0.0
 40
0.0
 40
0.0
 40
0.0
 40
0.108360704167324
 40
0.3140042920686683
 40
0.5195173480646617
 40
0.7221498113562661
 40
0.9195323258045147
 40
1.0
 40
1.0
 40
1.0
 40
1.0
 10
277.0114561896021
 20
26.1375332152062
 30
0.0
 10
277.0088101963496
 20
26.24797667733585
 30
0.0
 10
277.001142719062
 20
26.5680163209144
 30
0.0
 10
276.9148235906657
 20
27.05710880652622
 30
0.0
 10
276.7216420248606
 20
27.56977377710773
 30
0.0
 10
276.4309083629968
 20
27.98403966857041
 30
0.0
 10
276.1412552042125
 20
28.25414932248144
 30
0.0
 10
275.9340364448344
 20
28.340110651285
 30
0.0
 10
275.874024206951
 20
28.36500575117081
 30
0.0
  0
LINE
  5
194
330
1F
100
AcDbEntity
  8
0
  6
Continuous
 62
     7
370
    25
100
AcDbLine
 10
275.9914244181
 20
28.3202965775
 30
0.0
 11
271.9609160267
 21
30.6470595453
 31
0.0
  0
LINE
  5
195
330
1F
100
AcDbEntity
  8
0
  6
Continuous
 62
     7
370
    25
100
AcDbLine
 10
267.4612816011
 20
22.8526196337
 30
0.0
 11
271.4917899926
 21
20.5258566659
 31
0.0
  0
LINE
  5
196
330
1F
100
AcDbEntity
  8
0
  6
Continuous
 62
     7
370
    25
100
AcDbLine
 10
269.5337878454
 20
30.3162068276
 30
0.0
 11
268.6208054471
 21
30.8432603475
 31
0.0
  0
LINE
  5
197
330
1F
100
AcDbEntity
  8
0
  6
Continuous
 62
     7
370
    25
100
AcDbLine
 10
265.624123359
 20
25.6451925045
 30
0.0
 11
266.5340316715
 21
25.1199136166
 31
0.0
  0
SPLINE
  5
198
330
1F
100
AcDbEntity
  8
0
  6
Continuous
 62
     7
370
    25
100
AcDbSpline
210
0.0
220
0.0
230
1.0
 70
     8
 71
     3
 72
    17
 73
    13
 74
     0
 42
0.000000001
 43
0.00000001
 40
0.0
 40
0.0
 40
0.0
 40
0.0
 40
0.0236941997971435
 40
0.1363293093152181
 40
0.2496955710524328
 40
0.3637010795617878
 40
0.4781634379892222
 40
0.5928940050807308
 40
0.7077440841398908
 40
0.8226037542591925
 40
0.937419406641535
 40
0.9999999999999999
 40
0.9999999999999999
 40
0.9999999999999999
 40
0.9999999999999999
 10
255.2199895762374
 20
18.98223676909192
 30
0.0
 10
255.2783975887757
 20
18.97397004819253
 30
0.0
 10
255.6144597506547
 20
18.92640581896489
 30
0.0
 10
256.2682616571587
 20
18.95309117312975
 30
0.0
 10
257.1752418800741
 20
19.06779561850278
 30
0.0
 10
258.1131178482756
 20
19.30780125807529
 30
0.0
 10
259.0690506214981
 20
19.65852045267616
 30
0.0
 10
260.0353098021296
 20
20.12060833420065
 30
0.0
 10
261.0031345164621
 20
20.68735977650429
 30
0.0
 10
261.9622576426648
 20
21.35876067608355
 30
0.0
 10
262.766933197975
 20
21.9955309663748
 30
0.0
 10
263.238695837074
 20
22.43954841318395
 30
0.0
 10
263.4051209254736
 20
22.59618574880957
 30
0.0
  0
SPLINE
  5
199
330
1F
100
AcDbEntity
  8
0
  6
Continuous
 62
     7
370
    25
100
AcDbSpline
210
0.0
220
0.0
230
1.0
 70
     8
 71
     3
 72
    13
 73
     9
 74
     0
 42
0.000000001
 43
0.00000001
 40
0.0
 40
0.0
 40
0.0
 40
0.0
 40
0.05495815377743
 40
0.2593048773756705
 40
0.4635926045488841
 40
0.6675844346127229
 40
0.8709462401564728
 40
1.0
 40
1.0
 40
1.0
 40
1.0
 10
270.5773173081123
 20
38.69427901129157
 30
0.0
 10
270.5745891819852
 20
38.79310225911198
 30
0.0
 10
270.5617172719552
 20
39.25937247375047
 30
0.0
 10
270.4468377314897
 20
40.03697463802119
 30
0.0
 10
270.2312526169389
 20
41.01496718210912
 30
0.0
 10
269.9151420948954
 20
41.90881415951833
 30
0.0
 10
269.5731826495892
 20
42.63424840045298
 30
0.0
 10
269.3012681884832
 20
43.01952905937247
 30
0.0
 10
269.1957027841657
 20
43.16910664479818
 30
0.0
  0
LINE
  5
19A
330
1F
100
AcDbEntity
  8
0
  6
Continuous
 62
     7
370
    25
100
AcDbLine
 10
240.6849830788
 20
26.7635556669
 30
0.0
 11
252.9864575106
 21
19.6620656369
 31
0.0
  0
LINE
  5
19B
330
1F
100
AcDbEntity
  8
0
  6
Continuous
 62
     7
370
    25
100
AcDbLine
 10
233.1167564683
 20
31.1325998914
 30
0.0
 11
238.2373325104
 21
28.1765542635
 31
0.0
  0
LINE
  5
19C
330
1F
100
AcDbEntity
  8
0
  6
Continuous
 62
     7
370
    25
100
AcDbLine
 10
252.7360327906
 20
53.2920404827
 30
0.0
 11
247.6155779207
 21
56.2480161594
 31
0.0
  0
LINE
  5
19D
330
1F
100
AcDbEntity
  8
0
  6
Continuous
 62
     7
370
    25
100
AcDbLine
 10
267.485278963
 20
44.7774819048
 30
0.0
 11
255.1959507261
 21
51.8719600858
 31
0.0
  0
SPLINE
  5
19E
330
1F
100
AcDbEntity
  8
0
  6
Continuous
 62
     7
370
    25
100
AcDbSpline
210
0.0
220
0.0
230
1.0
 70
     8
 71
     3
 72
    14
 73
    10
 74
     0
 42
0.000000001
 43
0.00000001
 40
0.0
 40
0.0
 40
0.0
 40
0.0
 40
0.1122856056013892
 40
0.2730206912198512
 40
0.4348575743068235
 40
0.5993843521703914
 40
0.7667351860928954
 40
0.9360129941639358
 40
0.9999999999999999
 40
0.9999999999999999
 40
0.9999999999999999
 40
0.9999999999999999
 10
264.3356825108347
 20
22.0750455420522
 30
0.0
 10
264.4508304955602
 20
22.01227530592837
 30
0.0
 10
264.7308110167851
 20
21.85965046000288
 30
0.0
 10
265.2394596143079
 20
21.74743307406393
 30
0.0
 10
265.8365225015621
 20
21.72280609506443
 30
0.0
 10
266.4680778184493
 20
21.81540653005375
 30
0.0
 10
267.1220230575991
 20
22.02784681500828
 30
0.0
 10
267.6505577948105
 20
22.26555641640619
 30
0.0
 10
267.9537001015514
 20
22.46550109145581
 30
0.0
 10
268.0368552428077
 20
22.52034803075625
 30
0.0
  0
SPLINE
  5
19F
330
1F
100
AcDbEntity
  8
0
  6
Continuous
 62
     7
370
    25
100
AcDbSpline
210
0.0
220
0.0
230
1.0
 70
     8
 71
     3
 72
    14
 73
    10
 74
     0
 42
0.000000001
 43
0.00000001
 40
0.0
 40
0.0
 40
0.0
 40
0.0
 40
0.1544363037795015
 40
0.3173234327425261
 40
0.4799447866766238
 40
0.6412455032148782
 40
0.7999380386988745
 40
0.9554263231495344
 40
1.0
 40
1.0
 40
1.0
 40
1.0
 10
272.5448425028059
 20
30.30996600643898
 30
0.0
 10
272.5457683419062
 20
30.55618930237674
 30
0.0
 10
272.5476706824458
 20
31.06210934563099
 30
0.0
 10
272.4320087554999
 20
31.76153982137926
 30
0.0
 10
272.2261347035764
 20
32.40614490842307
 30
0.0
 10
271.9266822200402
 20
32.96747451888894
 30
0.0
 10
271.5375418727895
 20
33.42125700327507
 30
0.0
 10
271.1948744399036
 20
33.70986025418608
 30
0.0
 10
270.9684478598231
 20
33.80683592297519
 30
0.0
 10
270.9180001627934
 20
33.82844203987444
 30
0.0
  0
LINE
  5
1A0
330
1F
100
AcDbEntity
  8
0
  6
Continuous
 62
     7
370
    25
100
AcDbLine
 10
258.0278672832
 20
25.7004078138
 30
0.0
 11
264.2857628615
 21
22.0878015929
 31
0.0
  0
LINE
  5
1A1
330
1F
100
AcDbEntity
  8
0
  6
Continuous
 62
     7
370
    25
100
AcDbLine
 10
271.0352144998
 20
33.7794616505
 30
0.0
 11
264.7773189215
 21
37.3920678714
 31
0.0
  0
SPLINE
  5
1A2
330
1F
100
AcDbEntity
  8
0
  6
Continuous
 62
     7
370
    25
100
AcDbSpline
210
0.0
220
0.0
230
1.0
 70
     8
 71
     3
 72
    12
 73
     8
 74
     0
 42
0.000000001
 43
0.00000001
 40
0.0
 40
0.0
 40
0.0
 40
0.0
 40
0.1212601277873464
 40
0.3755779752015304
 40
0.6171434313163463
 40
0.8744907634461111
 40
1.0
 40
1.0
 40
1.0
 40
1.0
 10
266.0041702177152
 20
25.1539124754032
 30
0.0
 10
265.9661422987002
 20
25.17499400950056
 30
0.0
 10
265.8483587445724
 20
25.24028966797385
 30
0.0
 10
265.6996509491793
 20
25.44222693231541
 30
0.0
 10
265.5550888453392
 20
25.76913280855028
 30
0.0
 10
265.4877111237212
 20
26.11818954794705
 30
0.0
 10
265.4815641028312
 20
26.36332560834638
 30
0.0
 10
265.4795489672371
 20
26.44368687757661
 30
0.0
  0
SPLINE
  5
1A3
330
1F
100
AcDbEntity
  8
0
  6
Continuous
 62
     7
370
    25
100
AcDbSpline
210
0.0
220
0.0
230
1.0
 70
     8
 71
     3
 72
    21
 73
    17
 74
     0
 42
0.000000001
 43
0.00000001
 40
0.0
 40
0.0
 40
0.0
 40
0.0
 40
0.040909134616784
 40
0.1197016188737056
 40
0.1989215097456277
 40
0.2784995216046444
 40
0.358302162663498
 40
0.4381473111729646
 40
0.5177875963904633
 40
0.5970172942359665
 40
0.6756727163493295
 40
0.7537272491393534
 40
0.8315567375174883
 40
0.9100706708129145
 40
0.992062759855895
 40
1.0
 40
1.0
 40
1.0
 40
1.0
 10
265.4795489672371
 20
26.44368687757661
 30
0.0
 10
265.4817273463651
 20
26.53088906832645
 30
0.0
 10
265.4881013630873
 20
26.78604585665425
 30
0.0
 10
265.5609498290974
 20
27.24986903203934
 30
0.0
 10
265.7254840139371
 20
27.82644474397238
 30
0.0
 10
265.9684477639042
 20
28.40915483238575
 30
0.0
 10
266.2798392700154
 20
28.97307454580259
 30
0.0
 10
266.6476999656628
 20
29.49541053709442
 30
0.0
 10
267.0563508103445
 20
29.95486762126301
 30
0.0
 10
267.4875721562583
 20
30.33329813746631
 30
0.0
 10
267.9214006584808
 20
30.61729559565023
 30
0.0
 10
268.3364997798282
 20
30.79810892991448
 30
0.0
 10
268.7141570121931
 20
30.87829645948578
 30
0.0
 10
269.0337725345792
 20
30.85280778914117
 30
0.0
 10
269.2272446819423
 20
30.80383894506294
 30
0.0
 10
269.3066814037326
 20
30.73177010756767
 30
0.0
 10
269.3136925572996
 20
30.72540924982218
 30
0.0
  0
LINE
  5
1A4
330
1F
100
AcDbEntity
  8
0
  6
Continuous
 62
     7
370
    25
100
AcDbLine
 10
264.0766208149
 20
37.6553738385
 30
0.0
 11
263.576501536
 21
37.7572696108
 31
0.0
  0
LINE
  5
1A5
330
1F
100
AcDbEntity
  8
0
  6
Continuous
 62
     7
370
    25
100
AcDbLine
 10
257.1111041809
 20
26.5576592347
 30
0.0
 11
257.4494439343
 21
26.175522877
 31
0.0
  0
SPLINE
  5
1A6
330
1F
100
AcDbEntity
  8
0
  6
Continuous
 62
     7
370
    25
100
AcDbSpline
210
0.0
220
0.0
230
1.0
 70
     8
 71
     3
 72
    31
 73
    27
 74
     0
 42
0.000000001
 43
0.00000001
 40
0.0
 40
0.0
 40
0.0
 40
0.0
 40
0.0099572970259485
 40
0.0526662506464042
 40
0.0957008381840156
 40
0.1390682488138563
 40
0.1827069051450927
 40
0.226527718196197
 40
0.2704474679314095
 40
0.3144045150582585
 40
0.3583521637982554
 40
0.4022746941780276
 40
0.4461670565123879
 40
0.4900302813834004
 40
0.5338689059154499
 40
0.5776891704221544
 40
0.6214982585924819
 40
0.6653037452193515
 40
0.709112923778656
 40
0.7529316118683924
 40
0.7967677673934807
 40
0.840629316660977
 40
0.8845238260341437
 40
0.928457914140309
 40
0.9724360368698434
 40
1.0
 40
1.0
 40
1.0
 40
1.0
 10
245.8720398474759
 20
56.86677935288726
 30
0.0
 10
245.809203541428
 20
56.88134824195789
 30
0.0
 10
245.4768490243952
 20
56.95840617860826
 30
0.0
 10
244.8307848040687
 20
56.98398200809817
 30
0.0
 10
243.940126040581
 20
56.93824864783362
 30
0.0
 10
243.0139007007501
 20
56.76700191140031
 30
0.0
 10
242.0647209144799
 20
56.48331776679022
 30
0.0
 10
241.1000509556438
 20
56.08613774531162
 30
0.0
 10
240.1292565164991
 20
55.5800708391435
 30
0.0
 10
239.1612143155396
 20
54.96983894603921
 30
0.0
 10
238.2045798512148
 20
54.26141936592099
 30
0.0
 10
237.2676104565546
 20
53.46146456462414
 30
0.0
 10
236.3581632332767
 20
52.57722988207736
 30
0.0
 10
235.4838224541133
 20
51.61655596866776
 30
0.0
 10
234.6518717282356
 20
50.58783929065059
 30
0.0
 10
233.8692565244844
 20
49.49998620464561
 30
0.0
 10
233.142555093439
 20
48.36234139668618
 30
0.0
 10
232.4779101577804
 20
47.18464004512821
 30
0.0
 10
231.8810000973373
 20
45.9769322525771
 30
0.0
 10
231.3569816750582
 20
44.7494951629601
 30
0.0
 10
230.9104034814175
 20
43.51270763253756
 30
0.0
 10
230.5453740453213
 20
42.27705344093875
 30
0.0
 10
230.2648048820477
 20
41.05264437122385
 30
0.0
 10
230.0732046768912
 20
39.85070088681688
 30
0.0
 10
229.9795431162514
 20
38.82400410293447
 30
0.0
 10
229.9702513409109
 20
38.21145595247296
 30
0.0
 10
229.9666713760577
 20
37.97545144642766
 30
0.0
  0
SPLINE
  5
1A7
330
1F
100
AcDbEntity
  8
0
  6
Continuous
 62
     7
370
    25
100
AcDbSpline
210
0.0
220
0.0
230
1.0
 70
     8
 71
     3
 72
    14
 73
    10
 74
     0
 42
0.000000001
 43
0.00000001
 40
0.0
 40
0.0
 40
0.0
 40
0.0
 40
0.0857451985232709
 40
0.2483880764892117
 40
0.4111170805441958
 40
0.5736503659605452
 40
0.7356926344787379
 40
0.8968728044811164
 40
1.0
 40
1.0
 40
1.0
 40
1.0
 10
229.9666713760577
 20
37.97545144642767
 30
0.0
 10
229.9692424919775
 20
37.77960533939166
 30
0.0
 10
229.9766905421161
 20
37.21227517219437
 30
0.0
 10
230.0595138509216
 20
36.31313897061612
 30
0.0
 10
230.2457574759118
 20
35.3063537982047
 30
0.0
 10
230.5239309650962
 20
34.37092879812227
 30
0.0
 10
230.8946947107412
 20
33.52070625932916
 30
0.0
 10
231.2868616042968
 20
32.83700631570415
 30
0.0
 10
231.5890234554096
 20
32.48016368613966
 30
0.0
 10
231.7069206779731
 20
32.3409311696489
 30
0.0
  0
LINE
  5
1A8
330
1F
100
AcDbEntity
  8
0
  6
Continuous
 62
     7
370
    25
100
AcDbLine
 10
228.1921632717
 20
35.707510643
 30
0.0
 11
230.558025905
 21
34.3417272163
 31
0.0
  0
LINE
  5
1A9
330
1F
100
AcDbEntity
  8
0
  6
Continuous
 62
     7
370
    25
100
AcDbLine
 10
243.5711116784
 20
56.8508332109
 30
0.0
 11
241.1911061433
 21
58.224781161
 31
0.0
  0
LINE
  5
1AA
330
1F
100
AcDbEntity
  8
0
  6
Continuous
 62
     7
370
    25
100
AcDbLine
 10
217.3950766602
 20
38.7651953541
 30
0.0
 11
222.4537424186
 21
35.8448897722
 31
0.0
  0
LINE
  5
1AB
330
1F
100
AcDbEntity
  8
0
  6
Continuous
 62
     7
370
    25
100
AcDbLine
 10
235.3370977228
 20
64.7795690046
 30
0.0
 11
233.1437971495
 21
66.0457344745
 31
0.0
  0
SPLINE
  5
1AC
330
1F
100
AcDbEntity
  8
0
  6
Continuous
 62
     7
370
    25
100
AcDbSpline
210
0.0
220
0.0
230
1.0
 70
     8
 71
     3
 72
     9
 73
     5
 74
     0
 42
0.000000001
 43
0.00000001
 40
0.0
 40
0.0
 40
0.0
 40
0.0
 40
0.3461931843936397
 40
1.0
 40
1.0
 40
1.0
 40
1.0
 10
229.8352087701072
 20
32.92693689270058
 30
0.0
 10
229.9828580157453
 20
32.93532751441005
 30
0.0
 10
230.4093518125444
 20
32.95956433387305
 30
0.0
 10
230.8550044404939
 20
33.06329872118087
 30
0.0
 10
231.1463751660401
 20
33.13112097061546
 30
0.0
  0
LINE
  5
1AD
330
1F
100
AcDbEntity
  8
0
  6
Continuous
 62
     7
370
    25
100
AcDbLine
 10
224.8522007001
 20
34.4602892783
 30
0.0
 11
226.2515893403
 21
33.6524394119
 31
0.0
  0
LINE
  5
1AE
330
1F
100
AcDbEntity
  8
0
  6
Continuous
 62
     7
370
    25
100
AcDbLine
 10
225.9675031177
 20
65.6350570306
 30
0.0
 11
219.7771208639
 21
68.7192763502
 31
0.0
  0
LINE
  5
1AF
330
1F
100
AcDbEntity
  8
0
  6
Continuous
 62
     7
370
    25
100
AcDbLine
 10
208.395423034
 20
49.0034609698
 30
0.0
 11
214.1619851403
 21
45.1850833947
 31
0.0
  0
SPLINE
  5
1B0
330
1F
100
AcDbEntity
  8
0
  6
Continuous
 62
     7
370
    25
100
AcDbSpline
210
0.0
220
0.0
230
1.0
 70
     8
 71
     3
 72
    10
 73
     6
 74
     0
 42
0.000000001
 43
0.00000001
 40
0.0
 40
0.0
 40
0.0
 40
0.0
 40
0.169526337152335
 40
0.8259743690712966
 40
1.0
 40
1.0
 40
1.0
 40
1.0
 10
243.6878788636195
 20
59.4133046895958
 30
0.0
 10
243.6446296172436
 20
59.47603055614681
 30
0.0
 10
243.4339085600428
 20
59.78164653841374
 30
0.0
 10
243.1273847116248
 20
60.09059805977977
 30
0.0
 10
242.8553076090347
 20
60.31954251065538
 30
0.0
 10
242.7982938931787
 20
60.36751778584308
 30
0.0
  0
SPLINE
  5
1B1
330
1F
100
AcDbEntity
  8
0
  6
Continuous
 62
     7
370
    25
100
AcDbSpline
210
0.0
220
0.0
230
1.0
 70
     8
 71
     3
 72
    11
 73
     7
 74
     0
 42
0.000000001
 43
0.00000001
 40
0.0
 40
0.0
 40
0.0
 40
0.0
 40
0.0663782958816904
 40
0.4074440247031805
 40
0.7479453746802628
 40
1.0
 40
1.0
 40
1.0
 40
1.0
 10
244.8975125136729
 20
56.96572037470713
 30
0.0
 10
244.8797944963339
 20
57.02852393886528
 30
0.0
 10
244.7710375570591
 20
57.41402550389355
 30
0.0
 10
244.5090114725527
 20
58.0672072318248
 30
0.0
 10
244.1252874901546
 20
58.82705614187876
 30
0.0
 10
243.8184134169301
 20
59.23835228202337
 30
0.0
 10
243.6878788636195
 20
59.4133046895958
 30
0.0
  0
SPLINE
  5
1B2
330
1F
100
AcDbEntity
  8
0
  6
Continuous
 62
     7
370
    25
100
AcDbSpline
210
0.0
220
0.0
230
1.0
 70
     8
 71
     3
 72
    25
 73
    21
 74
     0
 42
0.000000001
 43
0.00000001
 40
0.0
 40
0.0
 40
0.0
 40
0.0
 40
0.0352605200632773
 40
0.0908242248456457
 40
0.1466044843219384
 40
0.2029586938905865
 40
0.2600321817009327
 40
0.3177578787518057
 40
0.3759444796769891
 40
0.4343833731235681
 40
0.4929131179856006
 40
0.5514176519267241
 40
0.6098631059099848
 40
0.6682424813866327
 40
0.7265633815848175
 40
0.7848407355256122
 40
0.8430928606540191
 40
0.9013395275876904
 40
0.9595988639326132
 40
1.0
 40
1.0
 40
1.0
 40
1.0
 10
219.8974692141744
 20
68.64019778735819
 30
0.0
 10
219.7626372707626
 20
68.71423066266053
 30
0.0
 10
219.4153364730764
 20
68.90492491505276
 30
0.0
 10
218.7907989165051
 20
69.08554411093154
 30
0.0
 10
218.0433390332173
 20
69.19364618691041
 30
0.0
 10
217.2541632689432
 20
69.18188562282023
 30
0.0
 10
216.4327290009145
 20
69.05556084531632
 30
0.0
 10
215.586125509945
 20
68.81322802067724
 30
0.0
 10
214.7242355871835
 20
68.45728688893753
 30
0.0
 10
213.8574916375117
 20
67.99172195541209
 30
0.0
 10
212.9964497350657
 20
67.42256072567885
 30
0.0
 10
212.1510585134476
 20
66.75708948322881
 30
0.0
 10
211.3305873160246
 20
66.00348349025742
 30
0.0
 10
210.5436600113515
 20
65.17049359273175
 30
0.0
 10
209.7984028543945
 20
64.26750434848009
 30
0.0
 10
209.1028386300916
 20
63.30446094453814
 30
0.0
 10
208.4632907691653
 20
62.29194299375688
 30
0.0
 10
207.8902436130326
 20
61.24052731652506
 30
0.0
 10
207.428719810243
 20
60.27316056039432
 30
0.0
 10
207.194089164564
 20
59.65569398859111
 30
0.0
 10
207.0980086937344
 20
59.40284347637957
 30
0.0
  0
LINE
  5
1B3
330
1F
100
AcDbEntity
  8
0
  6
Continuous
 62
     7
370
    25
100
AcDbLine
 10
207.2112368608
 20
57.5596013879
 30
0.0
 11
209.7647971912
 21
56.0854623871
 31
0.0
  0
LINE
  5
1B4
330
1F
100
AcDbEntity
  8
0
  6
Continuous
 62
     7
370
    25
100
AcDbLine
 10
206.9129445161
 20
58.6879110613
 30
0.0
 11
206.9129445161
 21
58.2225050919
 31
0.0
  0
LINE
  5
1B5
330
1F
100
AcDbEntity
  8
0
  6
Continuous
 62
     7
370
    25
100
AcDbLine
 10
206.9129445161
 20
51.2165623965
 30
0.0
 11
206.9129445161
 21
50.7511564271
 31
0.0
  0
SPLINE
  5
1B6
330
1F
100
AcDbEntity
  8
0
  6
Continuous
 62
     7
370
    25
100
AcDbSpline
210
0.0
220
0.0
230
1.0
 70
     8
 71
     3
 72
    10
 73
     6
 74
     0
 42
0.000000001
 43
0.00000001
 40
0.0
 40
0.0
 40
0.0
 40
0.0
 40
0.3080287134491951
 40
0.6928953647706865
 40
1.0
 40
1.0
 40
1.0
 40
1.0
 10
207.0285783462577
 20
50.46498841752818
 30
0.0
 10
207.1403621111488
 20
50.2876665452355
 30
0.0
 10
207.3918141647002
 20
49.88878975869098
 30
0.0
 10
207.8436024568176
 20
49.40573156810844
 30
0.0
 10
208.2087149179603
 20
49.14679282195565
 30
0.0
 10
208.3707559323438
 20
49.03187289575413
 30
0.0
  0
LINE
  5
1B7
330
1F
100
AcDbEntity
  8
0
  6
Continuous
 62
     7
370
    25
100
AcDbLine
 10
253.2912681289
 20
23.7843092925
 30
0.0
 11
253.246704422
 21
23.8116108598
 31
0.0
  0
LWPOLYLINE
  5
1B8
330
1F
100
AcDbEntity
  8
0
  6
Continuous
 62
     7
370
    25
100
AcDbPolyline
 90
       12
 70
   128
 43
0.0
 10
250.6192152266
 20
26.3416354667
 10
250.6688108721
 20
26.8968628308
 10
250.8152777561
 20
27.4833897427
 10
251.0517676744
 20
28.0737910359
 10
251.3672223475
 20
28.6404599983
 10
251.7468916956
 20
29.1569001599
 10
252.1730226758
 20
29.5989630712
 10
252.625689707
 20
29.945978369
 10
253.0837271686
 20
30.1817203314
 10
253.5257172177
 20
30.2951655871
 10
253.9309934104
 20
30.2810099454
 10
254.2404138402
 20
30.1643943457
  0
ARC
  5
1B9
330
1F
100
AcDbEntity
  8
0
  6
Continuous
 62
     7
370
    25
100
AcDbCircle
 10
252.0944783758
 20
26.1817545041
 30
0.0
 40
1.4839013718983
100
AcDbArc
 50
173.8147363605
 51
234.873128249
  0
LWPOLYLINE
  5
1BA
330
1F
100
AcDbEntity
  8
0
  6
Continuous
 62
     7
370
    25
100
AcDbPolyline
 90
       21
 70
   128
 43
0.0
 10
253.9426154039
 20
25.6885100867
 10
253.9927978125
 20
26.0833509954
 10
254.1384316377
 20
26.4974808341
 10
254.3652613666
 20
26.8903616857
 10
254.6510835125
 20
27.2235358645
 10
254.9679204706
 20
27.464390265
 10
255.2847567701
 20
27.5893476495
 10
255.5705795745
 20
27.5861770763
 10
255.7974093034
 20
27.4551882551
 10
255.9430431286
 20
27.2092036519
 10
255.9932255372
 20
26.8723021189
 10
255.9430431286
 20
26.4774612103
 10
255.7974093034
 20
26.0633313715
 10
255.5705795745
 20
25.67045052
 10
255.2847567701
 20
25.3372759611
 10
254.9679204706
 20
25.0964219407
 10
254.6510835125
 20
24.971464176
 10
254.3652613666
 20
24.9746351294
 10
254.1384316377
 20
25.1056239505
 10
253.9927978125
 20
25.3516085537
 10
253.9426154039
 20
25.6885100867
  0
SPLINE
  5
1BB
330
1F
100
AcDbEntity
  8
0
  6
Continuous
 62
     7
370
    25
100
AcDbSpline
210
0.0
220
0.0
230
1.0
 70
     8
 71
     3
 72
    10
 73
     6
 74
     0
 42
0.000000001
 43
0.00000001
 40
0.0
 40
0.0
 40
0.0
 40
0.0
 40
0.2693778725034243
 40
0.9660840045951541
 40
1.0
 40
1.0
 40
1.0
 40
1.0
 10
254.0793536099189
 20
25.18356731609007
 30
0.0
 10
254.0596745261927
 20
25.24460177210818
 30
0.0
 10
253.9890983952122
 20
25.4634928456039
 30
0.0
 10
253.9218669038973
 20
25.70944399853907
 30
0.0
 10
253.9447717680368
 20
25.84339773601625
 30
0.0
 10
253.9458350280144
 20
25.84961596315961
 30
0.0
  0
SPLINE
  5
1BC
330
1F
100
AcDbEntity
  8
0
  6
Continuous
 62
     7
370
    25
100
AcDbSpline
210
0.0
220
0.0
230
1.0
 70
     8
 71
     3
 72
    10
 73
     6
 74
     0
 42
0.000000001
 43
0.00000001
 40
0.0
 40
0.0
 40
0.0
 40
0.0
 40
0.4391256875653314
 40
0.7513746723278711
 40
0.9999999999999999
 40
0.9999999999999999
 40
0.9999999999999999
 40
0.9999999999999999
 10
254.9632369020096
 20
25.10453468965788
 30
0.0
 10
254.776160911464
 20
25.15079726569636
 30
0.0
 10
254.4560608465465
 20
25.22995575925814
 30
0.0
 10
254.1873729542871
 20
25.23151390610681
 30
0.0
 10
254.1125300853092
 20
25.19829337162247
 30
0.0
 10
254.0793536099189
 20
25.18356731609007
 30
0.0
  0
SPLINE
  5
1BD
330
1F
100
AcDbEntity
  8
0
  6
Continuous
 62
     7
370
    25
100
AcDbSpline
210
0.0
220
0.0
230
1.0
 70
     8
 71
     3
 72
    10
 73
     6
 74
     0
 42
0.000000001
 43
0.00000001
 40
0.0
 40
0.0
 40
0.0
 40
0.0
 40
0.4391256697965852
 40
0.7513746358542056
 40
1.0
 40
1.0
 40
1.0
 40
1.0
 10
255.8471201941003
 20
26.20407724297345
 30
0.0
 10
255.6600442051292
 20
26.08161379606526
 30
0.0
 10
255.3399441454917
 20
25.87207030053536
 30
0.0
 10
255.0712562262696
 20
25.45395621551629
 30
0.0
 10
254.996413373868
 20
25.21185412994102
 30
0.0
 10
254.9632369020096
 20
25.10453468965788
 30
0.0
  0
SPLINE
  5
1BE
330
1F
100
AcDbEntity
  8
0
  6
Continuous
 62
     7
370
    25
100
AcDbSpline
210
0.0
220
0.0
230
1.0
 70
     8
 71
     3
 72
    11
 73
     7
 74
     0
 42
0.000000001
 43
0.00000001
 40
0.0
 40
0.0
 40
0.0
 40
0.0
 40
0.1842411239404378
 40
0.5169667979290526
 40
0.8653135175580143
 40
1.0
 40
1.0
 40
1.0
 40
1.0
 10
255.8471201941003
 20
27.3826524227212
 30
0.0
 10
255.8196390180176
 20
27.33017094174536
 30
0.0
 10
255.7425288957007
 20
27.18291183590413
 30
0.0
 10
255.6850625038597
 20
26.85893094633946
 30
0.0
 10
255.7536777667902
 20
26.48621956994701
 30
0.0
 10
255.8267461763043
 20
26.26559504549908
 30
0.0
 10
255.8471201941003
 20
26.20407724297345
 30
0.0
  0
SPLINE
  5
1BF
330
1F
100
AcDbEntity
  8
0
  6
Continuous
 62
     7
370
    25
100
AcDbSpline
210
0.0
220
0.0
230
1.0
 70
     8
 71
     3
 72
    10
 73
     6
 74
     0
 42
0.000000001
 43
0.00000001
 40
0.0
 40
0.0
 40
0.0
 40
0.0
 40
0.4391256875653314
 40
0.7513746723278711
 40
0.9999999999999999
 40
0.9999999999999999
 40
0.9999999999999999
 40
0.9999999999999999
 10
254.9632369020096
 20
27.4616850491534
 30
0.0
 10
255.0292359531689
 20
27.48531870243954
 30
0.0
 10
255.1421649319171
 20
27.52575753122277
 30
0.0
 10
255.5029521005214
 20
27.47103160384817
 30
0.0
 10
255.7414142730588
 20
27.40979672492768
 30
0.0
 10
255.8471201941003
 20
27.3826524227212
 30
0.0
  0
SPLINE
  5
1C0
330
1F
100
AcDbEntity
  8
0
  6
Continuous
 62
     7
370
    25
100
AcDbSpline
210
0.0
220
0.0
230
1.0
 70
     8
 71
     3
 72
     9
 73
     5
 74
     0
 42
0.000000001
 43
0.00000001
 40
0.0
 40
0.0
 40
0.0
 40
0.0
 40
0.3723147224654108
 40
1.0
 40
1.0
 40
1.0
 40
1.0
 10
254.0052930360067
 20
26.08111421966755
 30
0.0
 10
254.0668752062365
 20
26.19324161680527
 30
0.0
 10
254.2322787385549
 20
26.49440455872504
 30
0.0
 10
254.5174986779828
 20
26.72411479931671
 30
0.0
 10
254.6965270348211
 20
26.86830053543502
 30
0.0
  0
SPLINE
  5
1C1
330
1F
100
AcDbEntity
  8
0
  6
Continuous
 62
     7
370
    25
100
AcDbSpline
210
0.0
220
0.0
230
1.0
 70
     8
 71
     3
 72
     9
 73
     5
 74
     0
 42
0.000000001
 43
0.00000001
 40
0.0
 40
0.0
 40
0.0
 40
0.0
 40
0.4011294918046385
 40
1.0
 40
1.0
 40
1.0
 40
1.0
 10
254.6965270348211
 20
26.86830053543502
 30
0.0
 10
254.6852453508866
 20
26.91630826122842
 30
0.0
 10
254.6571205578583
 20
27.03598962790485
 30
0.0
 10
254.6537557963542
 20
27.14654263342481
 30
0.0
 10
254.6517407399222
 20
27.21274956802308
 30
0.0
  0
LINE
  5
1C2
330
1F
100
AcDbEntity
  8
0
  6
Continuous
 62
     7
370
    25
100
AcDbLine
 10
253.9684105923
 20
25.6788356939
 30
0.0
 11
254.963236902
 21
25.1045346897
 31
0.0
  0
LINE
  5
1C3
330
1F
100
AcDbEntity
  8
0
  6
Continuous
 62
     7
370
    25
100
AcDbLine
 10
254.6965270348
 20
26.8683005354
 30
0.0
 11
255.8471201941
 21
26.204077243
 31
0.0
  0
LWPOLYLINE
  5
1C4
330
1F
100
AcDbEntity
  8
0
  6
Continuous
 62
     7
370
    25
100
AcDbPolyline
 90
       10
 70
   128
 43
0.0
 10
266.3737717374
 20
36.4704546356
 10
266.6081167762
 20
37.0542802173
 10
266.9235714493
 20
37.6209491797
 10
267.3032407974
 20
38.1373893413
 10
267.7293717776
 20
38.5794522526
 10
268.1820388088
 20
38.9264675503
 10
268.6400762704
 20
39.1622095128
 10
269.082066978
 20
39.2756551486
 10
269.4873425122
 20
39.2614991268
 10
269.796762942
 20
39.144883527
  0
LWPOLYLINE
  5
1C5
330
1F
100
AcDbEntity
  8
0
  6
Continuous
 62
     7
370
    25
100
AcDbPolyline
 90
       17
 70
   128
 43
0.0
 10
269.4989645057
 20
34.6689992681
 10
269.5491469143
 20
35.0638401768
 10
269.6947807395
 20
35.4779700155
 10
269.9216104684
 20
35.8708508671
 10
270.2074332729
 20
36.204025426
 10
270.5242695724
 20
36.4448794464
 10
270.8411065304
 20
36.5698372111
 10
271.1269286763
 20
36.5666662577
 10
271.3537584052
 20
36.4356774365
 10
271.4993922304
 20
36.1896928333
 10
271.549574639
 20
35.8527913003
 10
271.4993922304
 20
35.4579503917
 10
271.3537584052
 20
35.0438205529
 10
271.1269286763
 20
34.6509397014
 10
270.8411065304
 20
34.3177655226
 10
270.5242695724
 20
34.076911122
 10
270.5221128391
 20
34.075668633
  0
SPLINE
  5
1C6
330
1F
100
AcDbEntity
  8
0
  6
Continuous
 62
     7
370
    25
100
AcDbSpline
210
0.0
220
0.0
230
1.0
 70
     8
 71
     3
 72
     9
 73
     5
 74
     0
 42
0.000000001
 43
0.00000001
 40
0.0
 40
0.0
 40
0.0
 40
0.0
 40
0.8709494691822718
 40
1.0
 40
1.0
 40
1.0
 40
1.0
 10
269.5247616697365
 20
34.65932398339898
 30
0.0
 10
269.5095336429378
 20
34.71369626581562
 30
0.0
 10
269.4920492453492
 20
34.7761250109272
 30
0.0
 10
269.5010257120342
 20
34.82393521263835
 30
0.0
 10
269.5021841298248
 20
34.83010514454767
 30
0.0
  0
SPLINE
  5
1C7
330
1F
100
AcDbEntity
  8
0
  6
Continuous
 62
     7
370
    25
100
AcDbSpline
210
0.0
220
0.0
230
1.0
 70
     8
 71
     3
 72
    10
 73
     6
 74
     0
 42
0.000000001
 43
0.00000001
 40
0.0
 40
0.0
 40
0.0
 40
0.0
 40
0.4391256697965852
 40
0.7513746358542056
 40
1.0
 40
1.0
 40
1.0
 40
1.0
 10
271.4034692959107
 20
35.18456642436151
 30
0.0
 10
271.2163933069396
 20
35.06210297745332
 30
0.0
 10
270.896293247302
 20
34.85255948192342
 30
0.0
 10
270.6276053280799
 20
34.43444539690437
 30
0.0
 10
270.5527624756783
 20
34.19234331132908
 30
0.0
 10
270.51958600382
 20
34.08502387104594
 30
0.0
  0
SPLINE
  5
1C8
330
1F
100
AcDbEntity
  8
0
  6
Continuous
 62
     7
370
    25
100
AcDbSpline
210
0.0
220
0.0
230
1.0
 70
     8
 71
     3
 72
    11
 73
     7
 74
     0
 42
0.000000001
 43
0.00000001
 40
0.0
 40
0.0
 40
0.0
 40
0.0
 40
0.1842411239404378
 40
0.5169667979290526
 40
0.8653135175580143
 40
1.0
 40
1.0
 40
1.0
 40
1.0
 10
271.4034692959107
 20
36.36314160410927
 30
0.0
 10
271.3759881198279
 20
36.31066012313343
 30
0.0
 10
271.2988779975111
 20
36.16340101729219
 30
0.0
 10
271.2414116056701
 20
35.83942012772752
 30
0.0
 10
271.3100268686007
 20
35.46670875133508
 30
0.0
 10
271.3830952781146
 20
35.24608422688714
 30
0.0
 10
271.4034692959107
 20
35.18456642436151
 30
0.0
  0
SPLINE
  5
1C9
330
1F
100
AcDbEntity
  8
0
  6
Continuous
 62
     7
370
    25
100
AcDbSpline
210
0.0
220
0.0
230
1.0
 70
     8
 71
     3
 72
    10
 73
     6
 74
     0
 42
0.000000001
 43
0.00000001
 40
0.0
 40
0.0
 40
0.0
 40
0.0
 40
0.4391256875653314
 40
0.7513746723278711
 40
0.9999999999999999
 40
0.9999999999999999
 40
0.9999999999999999
 40
0.9999999999999999
 10
270.51958600382
 20
36.44217423054146
 30
0.0
 10
270.5855850549793
 20
36.46580788382759
 30
0.0
 10
270.6985140337275
 20
36.50624671261084
 30
0.0
 10
271.0593012023318
 20
36.45152078523624
 30
0.0
 10
271.2977633748691
 20
36.39028590631575
 30
0.0
 10
271.4034692959107
 20
36.36314160410927
 30
0.0
  0
SPLINE
  5
1CA
330
1F
100
AcDbEntity
  8
0
  6
Continuous
 62
     7
370
    25
100
AcDbSpline
210
0.0
220
0.0
230
1.0
 70
     8
 71
     3
 72
     9
 73
     5
 74
     0
 42
0.000000001
 43
0.00000001
 40
0.0
 40
0.0
 40
0.0
 40
0.0
 40
0.3723147224654108
 40
1.0
 40
1.0
 40
1.0
 40
1.0
 10
269.561642137817
 20
35.06160340105561
 30
0.0
 10
269.6232243080469
 20
35.17373079819333
 30
0.0
 10
269.7886278403652
 20
35.4748937401131
 30
0.0
 10
270.0738477797933
 20
35.70460398070477
 30
0.0
 10
270.2528761366315
 20
35.84878971682309
 30
0.0
  0
SPLINE
  5
1CB
330
1F
100
AcDbEntity
  8
0
  6
Continuous
 62
     7
370
    25
100
AcDbSpline
210
0.0
220
0.0
230
1.0
 70
     8
 71
     3
 72
     9
 73
     5
 74
     0
 42
0.000000001
 43
0.00000001
 40
0.0
 40
0.0
 40
0.0
 40
0.0
 40
0.4011294918046385
 40
1.0
 40
1.0
 40
1.0
 40
1.0
 10
270.2528761366315
 20
35.84878971682309
 30
0.0
 10
270.241594452697
 20
35.8967974426165
 30
0.0
 10
270.2134696596687
 20
36.01647880929291
 30
0.0
 10
270.2101048981646
 20
36.12703181481287
 30
0.0
 10
270.2080898417326
 20
36.19323874941114
 30
0.0
  0
LINE
  5
1CC
330
1F
100
AcDbEntity
  8
0
  6
Continuous
 62
     7
370
    25
100
AcDbLine
 10
269.5247596941
 20
34.6593248753
 30
0.0
 11
270.5195860038
 21
34.085023871
 31
0.0
  0
LINE
  5
1CD
330
1F
100
AcDbEntity
  8
0
  6
Continuous
 62
     7
370
    25
100
AcDbLine
 10
270.2528761366
 20
35.8487897168
 30
0.0
 11
271.4034692959
 21
35.1845664244
 31
0.0
  0
LINE
  5
1CE
330
1F
100
AcDbEntity
  8
0
  6
Continuous
 62
     7
370
    25
100
AcDbLine
 10
271.4917899926
 20
20.5258566659
 30
0.0
 11
271.3649049295
 21
20.6078761296
 31
0.0
  0
LINE
  5
1CF
330
1F
100
AcDbEntity
  8
0
  6
Continuous
 62
     7
370
    25
100
AcDbLine
 10
275.894010045
 20
28.371861395
 30
0.0
 11
275.9914244181
 21
28.3202965775
 31
0.0
  0
LWPOLYLINE
  5
1D0
330
1F
100
AcDbEntity
  8
0
  6
Continuous
 62
     7
370
    25
100
AcDbPolyline
 90
       19
 70
   128
 43
0.0
 10
271.9609160267
 20
30.6470595453
 10
271.6950311511
 20
30.7679272757
 10
271.2189396918
 20
30.8559873536
 10
270.694384872
 20
30.8120724559
 10
270.1382264601
 20
30.6375943447
 10
269.568339803
 20
30.3381604101
 10
269.0030415548
 20
29.9233948132
 10
268.4605008143
 20
29.4066285816
 10
267.9581554081
 20
28.8044710008
 10
267.5121508717
 20
28.136275667
 10
267.1368224843
 20
27.4235194165
 10
266.8442332997
 20
26.689110347
 10
266.6437878273
 20
25.9566533899
 10
266.541928114
 20
25.2496899706
 10
266.541928114
 20
24.5909426033
 10
266.6437878273
 20
24.0015839057
 10
266.8442332997
 20
23.5005563649
 10
267.1368224843
 20
23.1039635774
 10
267.4612816011
 20
22.8526196337
  0
LINE
  5
1D1
330
1F
100
AcDbEntity
  8
0
  6
Continuous
 62
     7
370
    25
100
AcDbLine
 10
273.9537375623
 20
26.6848738128
 30
0.0
 11
272.1656412152
 21
24.4604990438
 31
0.0
  0
LINE
  5
1D2
330
1F
100
AcDbEntity
  8
0
  6
Continuous
 62
     7
370
    25
100
AcDbLine
 10
272.1656412152
 20
24.4604990438
 30
0.0
 11
272.1656412152
 21
22.0762416044
 31
0.0
  0
LINE
  5
1D3
330
1F
100
AcDbEntity
  8
0
  6
Continuous
 62
     7
370
    25
100
AcDbLine
 10
273.9537375623
 20
21.9163589338
 30
0.0
 11
272.1656412152
 21
22.0762416044
 31
0.0
  0
LINE
  5
1D4
330
1F
100
AcDbEntity
  8
0
  6
Continuous
 62
     7
370
    25
100
AcDbLine
 10
275.7418339093
 20
24.1407337027
 30
0.0
 11
273.9537375623
 21
21.9163589338
 31
0.0
  0
LINE
  5
1D5
330
1F
100
AcDbEntity
  8
0
  6
Continuous
 62
     7
370
    25
100
AcDbLine
 10
275.7418339093
 20
24.1407337027
 30
0.0
 11
275.7418339093
 21
26.5249911422
 31
0.0
  0
LINE
  5
1D6
330
1F
100
AcDbEntity
  8
0
  6
Continuous
 62
     7
370
    25
100
AcDbLine
 10
273.9537375623
 20
26.6848738128
 30
0.0
 11
275.7418339093
 21
26.5249911422
 31
0.0
  0
ARC
  5
1D7
330
1F
100
AcDbEntity
  8
0
  6
Continuous
 62
     7
370
    25
100
AcDbCircle
 10
269.6238213474
 20
26.8039473204
 30
0.0
 40
4.01658223607025
100
AcDbArc
 50
320.5752194831
 51
352.0264209578
  0
ARC
  5
1D8
330
1F
100
AcDbEntity
  8
0
  6
Continuous
 62
     7
370
    25
100
AcDbCircle
 10
269.9133968247
 20
26.488462022
 30
0.0
 40
3.593041167564654
100
AcDbArc
 50
308.8170289619
 51
321.5288581364
  0
LINE
  5
1D9
330
1F
100
AcDbEntity
  8
0
  6
Continuous
 62
     7
370
    25
100
AcDbLine
 10
272.1656417091
 20
22.9486046978
 30
0.0
 11
273.9537375623
 21
21.9163589338
 31
0.0
  0
LINE
  5
1DA
330
1F
100
AcDbEntity
  8
0
  6
Continuous
 62
     7
370
    25
100
AcDbLine
 10
273.6205145351
 20
25.3653453108
 30
0.0
 11
275.7418339093
 21
24.1407337027
 31
0.0
  0
LINE
  5
1DB
330
1F
100
AcDbEntity
  8
0
  6
Continuous
 62
     7
370
    25
100
AcDbLine
 10
273.6205145351
 20
25.3653453108
 30
0.0
 11
273.6205145351
 21
26.2703457953
 31
0.0
  0
LINE
  5
1DC
330
1F
100
AcDbEntity
  8
0
  6
Continuous
 62
     7
370
    25
100
AcDbLine
 10
272.7264663616
 20
24.2531578788
 30
0.0
 11
272.1656422648
 21
23.5554979556
 31
0.0
  0
LINE
  5
1DD
330
1F
100
AcDbEntity
  8
0
  6
Continuous
 62
     7
370
    25
100
AcDbLine
 10
273.6205145351
 20
25.3653453108
 30
0.0
 11
272.7264663616
 21
24.2531578788
 31
0.0
  0
ARC
  5
1DE
330
1F
100
AcDbEntity
  8
0
  6
Continuous
 62
     7
370
    25
100
AcDbCircle
 10
264.9541248435
 20
40.3929939525
 30
0.0
 40
5.056528932042181
100
AcDbArc
 50
34.4704163533
 51
85.5753931598
  0
ARC
  5
1DF
330
1F
100
AcDbEntity
  8
0
  6
Continuous
 62
     7
370
    25
100
AcDbCircle
 10
255.5157200183
 20
24.0427303807
 30
0.0
 40
5.052424600444895
100
AcDbArc
 50
214.9516949586
 51
265.4070093662
  0
ARC
  5
1E0
330
1F
100
AcDbEntity
  8
0
  6
Continuous
 62
     7
370
    25
100
AcDbCircle
 10
245.1030573679
 20
51.8493070934
 30
0.0
 40
5.065708338939811
100
AcDbArc
 50
60.2652088909
 51
80.0284084066
  0
ARC
  5
1E1
330
1F
100
AcDbEntity
  8
0
  6
Continuous
 62
     7
370
    25
100
AcDbCircle
 10
235.6364324351
 20
35.4690365335
 30
0.0
 40
5.01532149799813
100
AcDbArc
 50
219.8040509119
 51
239.8413746262
  0
SPLINE
  5
1E2
330
1F
100
AcDbEntity
  8
0
  6
Continuous
 62
     7
370
    25
100
AcDbSpline
210
0.0
220
0.0
230
1.0
 70
    11
 71
     3
 72
    70
 73
    66
 74
     0
 42
0.000000001
 43
0.00000001
 40
0.0
 40
0.0
 40
0.0
 40
0.0
 40
0.0312500000000003
 40
0.0312500000000003
 40
0.0625000000000006
 40
0.0625000000000006
 40
0.0937500000000009
 40
0.0937500000000009
 40
0.1250000000000012
 40
0.1250000000000012
 40
0.1562500000000015
 40
0.1562500000000015
 40
0.1875000000000018
 40
0.1875000000000018
 40
0.2187500000000021
 40
0.2187500000000021
 40
0.2500000000000024
 40
0.2500000000000024
 40
0.2812500000000028
 40
0.2812500000000028
 40
0.3125000000000031
 40
0.3125000000000031
 40
0.3437500000000033
 40
0.3437500000000033
 40
0.3750000000000037
 40
0.3750000000000037
 40
0.406250000000004
 40
0.406250000000004
 40
0.4375000000000043
 40
0.4375000000000043
 40
0.4687500000000046
 40
0.4687500000000046
 40
0.5000000000000049
 40
0.5000000000000049
 40
0.5312500000000052
 40
0.5312500000000052
 40
0.5625000000000056
 40
0.5625000000000056
 40
0.5937500000000058
 40
0.5937500000000058
 40
0.6250000000000061
 40
0.6250000000000061
 40
0.6562500000000064
 40
0.6562500000000064
 40
0.6875000000000058
 40
0.6875000000000058
 40
0.7187500000000052
 40
0.7187500000000052
 40
0.7500000000000047
 40
0.7500000000000047
 40
0.7812500000000041
 40
0.7812500000000041
 40
0.8125000000000034
 40
0.8125000000000034
 40
0.8437500000000029
 40
0.8437500000000029
 40
0.8750000000000023
 40
0.8750000000000023
 40
0.9062500000000018
 40
0.9062500000000018
 40
0.9375000000000011
 40
0.9375000000000011
 40
0.9687500000000006
 40
0.9687500000000006
 40
1.0
 40
1.0
 40
1.0
 40
1.0
 10
238.2925988492842
 20
45.03507555494487
 30
0.0
 10
238.3550905733977
 20
45.1263765913318
 30
0.0
 10
238.4253136973265
 20
45.20954500969188
 30
0.0
 10
238.5801831067678
 20
45.36065828632194
 30
0.0
 10
238.6655562973618
 20
45.42880823463614
 30
0.0
 10
238.8427428084624
 20
45.54443107444344
 30
0.0
 10
238.935585070739
 20
45.59292952364999
 30
0.0
 10
239.1277212476271
 20
45.67119250117236
 30
0.0
 10
239.2245410460014
 20
45.7000172292575
 30
0.0
 10
239.419277471202
 20
45.73887185924959
 30
0.0
 10
239.5180370051347
 20
45.74879063954267
 30
0.0
 10
239.7098762279492
 20
45.7496823012068
 30
0.0
 10
239.8034907246404
 20
45.74091814507299
 30
0.0
 10
239.9860115630689
 20
45.70551375618447
 30
0.0
 10
240.0747889461717
 20
45.67866422898374
 30
0.0
 10
240.2409987428922
 20
45.6092091301871
 30
0.0
 10
240.3193316792735
 20
45.56647609466581
 30
0.0
 10
240.4662505362725
 20
45.46468645241598
 30
0.0
 10
240.5340847804694
 20
45.40592945767651
 30
0.0
 10
240.6549192653129
 20
45.27618722225071
 30
0.0
 10
240.7085600787867
 20
45.20479059785588
 30
0.0
 10
240.8017250812874
 20
45.04807550679251
 30
0.0
 10
240.8404273690935
 20
44.96383689216227
 30
0.0
 10
240.9004201670675
 20
44.78740059139569
 30
0.0
 10
240.9220779491951
 20
44.69463734522145
 30
0.0
 10
240.9474270429264
 20
44.49890554973472
 30
0.0
 10
240.950685189842
 20
44.39857508224297
 30
0.0
 10
240.9383710511225
 20
44.19540935355373
 30
0.0
 10
240.9226377700685
 20
44.09123899218835
 30
0.0
 10
240.8713875079767
 20
43.88304037596049
 30
0.0
 10
240.8365961085677
 20
43.78126789502539
 30
0.0
 10
240.7487491123947
 20
43.58230025508889
 30
0.0
 10
240.6948821425873
 20
43.48421147620932
 30
0.0
 10
240.5735572042866
 20
43.30257133691894
 30
0.0
 10
240.5057953354118
 20
43.217876655954
 30
0.0
 10
240.3557727440624
 20
43.06095492178975
 30
0.0
 10
240.2762537612647
 20
42.99159327700963
 30
0.0
 10
240.1087516689134
 20
42.86983582055058
 30
0.0
 10
240.0200019459236
 20
42.81726049238645
 30
0.0
 10
239.8409295531886
 20
42.73283810487349
 30
0.0
 10
239.7498927333014
 20
42.70031917500376
 30
0.0
 10
239.5645440702076
 20
42.65432373850093
 30
0.0
 10
239.4723389511097
 20
42.64143321913315
 30
0.0
 10
239.2902351204885
 20
42.63482909451161
 30
0.0
 10
239.1992851001319
 20
42.64121548186962
 30
0.0
 10
239.0227250912369
 20
42.6729169172434
 30
0.0
 10
238.9376636038957
 20
42.69793947752532
 30
0.0
 10
238.7736469648208
 20
42.76581019342512
 30
0.0
 10
238.6940111419742
 20
42.8092209703827
 30
0.0
 10
238.5459000442011
 20
42.91163219128041
 30
0.0
 10
238.4771101660214
 20
42.97054051286782
 30
0.0
 10
238.3501976869274
 20
43.10376659351531
 30
0.0
 10
238.2916718115353
 20
43.17891395452013
 30
0.0
 10
238.1902779087258
 20
43.33980312841948
 30
0.0
 10
238.1468971346331
 20
43.42582817753508
 30
0.0
 10
238.0755937230718
 20
43.60931971587976
 30
0.0
 10
238.0476573532953
 20
43.70771872802154
 30
0.0
 10
238.0111942330279
 20
43.9080183000458
 30
0.0
 10
238.0021820015364
 20
44.01071971640534
 30
0.0
 10
238.0042168833343
 20
44.22142344010514
 30
0.0
 10
238.0156273457764
 20
44.32946327629369
 30
0.0
 10
238.0590409905932
 20
44.5396329461147
 30
0.0
 10
238.0909594906872
 20
44.64318202425454
 30
0.0
 10
238.177138528995
 20
44.84685811513922
 30
0.0
 10
238.2301071251706
 20
44.94377451855794
 30
0.0
 10
238.2925988492842
 20
45.03507555494487
 30
0.0
  0
SPLINE
  5
1E3
330
1F
100
AcDbEntity
  8
0
  6
Continuous
 62
     7
370
    25
100
AcDbSpline
210
0.0
220
0.0
230
1.0
 70
     8
 71
     3
 72
    20
 73
    16
 74
     0
 42
0.000000001
 43
0.00000001
 40
0.0
 40
0.0
 40
0.0
 40
0.0
 40
0.0725820245981874
 40
0.1391797203569634
 40
0.2172382846112604
 40
0.2896917850116872
 40
0.3604923853042087
 40
0.4346607598881322
 40
0.5152401293900635
 40
0.602493915935742
 40
0.6940829733789052
 40
0.7864237135125993
 40
0.8754117220598552
 40
0.9571595982656275
 40
1.0
 40
1.0
 40
1.0
 40
1.0
 10
239.4860231180901
 20
27.52668302308673
 30
0.0
 10
239.3370996256184
 20
27.60287607731365
 30
0.0
 10
239.0515312613915
 20
27.74898013047492
 30
0.0
 10
238.6297501572245
 20
27.96320022977696
 30
0.0
 10
238.2802700251943
 20
28.14893751556842
 30
0.0
 10
238.0553508675396
 20
28.28387657513758
 30
0.0
 10
237.9796278306008
 20
28.35039209560547
 30
0.0
 10
238.047695244022
 20
28.34368129002359
 30
0.0
 10
238.263326481435
 20
28.25088358764799
 30
0.0
 10
238.6230581536734
 20
28.05994845318446
 30
0.0
 10
239.0966248059714
 20
27.77756392849691
 30
0.0
 10
239.6268527571398
 20
27.43851938739824
 30
0.0
 10
240.1273286711216
 20
27.11136576660185
 30
0.0
 10
240.5001994956367
 20
26.8716131536671
 30
0.0
 10
240.6385125616756
 20
26.79260339321709
 30
0.0
 10
240.6860723113743
 20
26.7654354289866
 30
0.0
  0
LINE
  5
1E4
330
1F
100
AcDbEntity
  8
0
  6
Continuous
 62
     7
370
    25
100
AcDbLine
 10
253.5072740202
 20
52.8049740527
 30
0.0
 11
253.9258679585
 21
52.5340398455
 31
0.0
  0
LWPOLYLINE
  5
1E5
330
1F
100
AcDbEntity
  8
0
  6
Continuous
 62
     7
370
    25
100
AcDbPolyline
 90
       15
 70
   128
 43
0.0
 10
255.1957162842
 20
51.8715623857
 10
255.1854713073
 20
51.8779803439
 10
254.8759382664
 20
52.0464268379
 10
254.4821609193
 20
52.2492849198
 10
254.0216888186
 20
52.4839040463
 10
253.5269994038
 20
52.7427406556
 10
253.0595118285
 20
53.0038227346
 10
252.6966709268
 20
53.2296862416
 10
252.5018240705
 20
53.3766712395
 10
252.5002290757
 20
53.4113175359
 10
252.6641552917
 20
53.3328811529
 10
252.9388513281
 20
53.169587927
 10
253.2904679973
 20
52.9457622844
 10
253.5072740202
 20
52.8049740527
 10
253.5072740202
 20
52.8049740527
  0
SPLINE
  5
1E6
330
1F
100
AcDbEntity
  8
0
  6
Continuous
 62
     7
370
    25
100
AcDbSpline
210
0.0
220
0.0
230
1.0
 70
    11
 71
     3
 72
    84
 73
    80
 74
     0
 42
0.000000001
 43
0.00000001
 40
0.0
 40
0.0
 40
0.0
 40
0.0
 40
0.0312500000000013
 40
0.0312500000000013
 40
0.0468750000000014
 40
0.0468750000000014
 40
0.0625000000000015
 40
0.0625000000000015
 40
0.0937500000000016
 40
0.0937500000000016
 40
0.1250000000000018
 40
0.1250000000000018
 40
0.156250000000002
 40
0.156250000000002
 40
0.1718750000000024
 40
0.1718750000000024
 40
0.1875000000000028
 40
0.1875000000000028
 40
0.2187500000000037
 40
0.2187500000000037
 40
0.2500000000000046
 40
0.2500000000000046
 40
0.265625000000005
 40
0.265625000000005
 40
0.2812500000000054
 40
0.2812500000000054
 40
0.3125000000000066
 40
0.3125000000000066
 40
0.3281250000000071
 40
0.3281250000000071
 40
0.3437500000000077
 40
0.3437500000000077
 40
0.3750000000000081
 40
0.3750000000000081
 40
0.4062500000000086
 40
0.4062500000000086
 40
0.4375000000000091
 40
0.4375000000000091
 40
0.4687500000000096
 40
0.4687500000000096
 40
0.5000000000000101
 40
0.5000000000000101
 40
0.5312500000000105
 40
0.5312500000000105
 40
0.562500000000011
 40
0.562500000000011
 40
0.5937500000000114
 40
0.5937500000000114
 40
0.6250000000000119
 40
0.6250000000000119
 40
0.6406250000000117
 40
0.6406250000000117
 40
0.6562500000000114
 40
0.6562500000000114
 40
0.6875000000000104
 40
0.6875000000000104
 40
0.7187500000000094
 40
0.7187500000000094
 40
0.7500000000000082
 40
0.7500000000000082
 40
0.7812500000000072
 40
0.7812500000000072
 40
0.7968750000000067
 40
0.7968750000000067
 40
0.8125000000000061
 40
0.8125000000000061
 40
0.8437500000000051
 40
0.8437500000000051
 40
0.8593750000000046
 40
0.8593750000000046
 40
0.875000000000004
 40
0.875000000000004
 40
0.906250000000003
 40
0.906250000000003
 40
0.937500000000002
 40
0.937500000000002
 40
0.968750000000001
 40
0.968750000000001
 40
1.0
 40
1.0
 40
1.0
 40
1.0
 10
253.2639111391186
 20
50.10819793961863
 30
0.0
 10
253.3946013507259
 20
50.03275208636786
 30
0.0
 10
253.5111520893315
 20
49.9542499990462
 30
0.0
 10
253.6655509589947
 20
49.83185338697994
 30
0.0
 10
253.7135877746891
 20
49.79027064959222
 30
0.0
 10
253.8026343392691
 20
49.70540449175435
 30
0.0
 10
253.8438042108112
 20
49.6619005331759
 30
0.0
 10
253.9542047688556
 20
49.531051776774
 30
0.0
 10
254.011114771691
 20
49.44292531798915
 30
0.0
 10
254.0916149040869
 20
49.26352553160021
 30
0.0
 10
254.1150556609956
 20
49.17128259789047
 30
0.0
 10
254.1251426890928
 20
48.98903912678286
 30
0.0
 10
254.1124089495023
 20
48.89851116372934
 30
0.0
 10
254.0659080852518
 20
48.76236370382522
 30
0.0
 10
254.0456407493984
 20
48.71665046904656
 30
0.0
 10
253.9963458174346
 20
48.62656554864095
 30
0.0
 10
253.9673824597112
 20
48.58217279825981
 30
0.0
 10
253.8677845943578
 20
48.45065735597399
 30
0.0
 10
253.7845766798676
 20
48.36516838357266
 30
0.0
 10
253.5827055062254
 20
48.19779749028722
 30
0.0
 10
253.4671804490275
 20
48.11858863875882
 30
0.0
 10
253.273970620119
 20
48.00683075580817
 30
0.0
 10
253.2061614780492
 20
47.97071944430091
 30
0.0
 10
253.0635584750896
 20
47.90085834031538
 30
0.0
 10
252.9886745289513
 20
47.86711199460088
 30
0.0
 10
252.7588156824731
 20
47.77190557028324
 30
0.0
 10
252.5970190224785
 20
47.71553521956469
 30
0.0
 10
252.3415588345311
 20
47.64222515678333
 30
0.0
 10
252.2537874622337
 20
47.61958721722111
 30
0.0
 10
252.077347250781
 20
47.57917757371602
 30
0.0
 10
251.9884484312169
 20
47.56131211067196
 30
0.0
 10
251.7197485541061
 20
47.5147882994701
 30
0.0
 10
251.5370588176374
 20
47.49307396215055
 30
0.0
 10
251.1699515415861
 20
47.47069214083134
 30
0.0
 10
250.989521145768
 20
47.47017326433129
 30
0.0
 10
250.6344400313367
 20
47.49096500895755
 30
0.0
 10
250.4581334587819
 20
47.51271892539338
 30
0.0
 10
250.1234913593619
 20
47.57804644923037
 30
0.0
 10
249.9642593133393
 20
47.62142728063719
 30
0.0
 10
249.6617833686525
 20
47.73030720629836
 30
0.0
 10
249.5187848167615
 20
47.79611195977136
 30
0.0
 10
249.2606796607573
 20
47.9449441330236
 30
0.0
 10
249.1438781257966
 20
48.02848941101173
 30
0.0
 10
248.935612211301
 20
48.21415788408758
 30
0.0
 10
248.8462480684035
 20
48.31467748062294
 30
0.0
 10
248.6999443494026
 20
48.52601585857848
 30
0.0
 10
248.6421268286684
 20
48.63802401673299
 30
0.0
 10
248.5607297357104
 20
48.87044738420595
 30
0.0
 10
248.5378793130573
 20
48.98822224447468
 30
0.0
 10
248.5300158449882
 20
49.16612065578823
 30
0.0
 10
248.5318275413816
 20
49.22562793734291
 30
0.0
 10
248.5446480161015
 20
49.34488347529341
 30
0.0
 10
248.5557422341052
 20
49.40471181822846
 30
0.0
 10
248.6022753766977
 20
49.58012320131
 30
0.0
 10
248.6508953128273
 20
49.69305770823249
 30
0.0
 10
248.7837411100946
 20
49.90952653935509
 30
0.0
 10
248.8689340521121
 20
50.0134322022958
 30
0.0
 10
249.0682139828365
 20
50.20084585831773
 30
0.0
 10
249.1828711235242
 20
50.28570862518907
 30
0.0
 10
249.4433630411975
 20
50.4367368204211
 30
0.0
 10
249.5860251973552
 20
50.50087030130794
 30
0.0
 10
249.8146448649041
 20
50.5793790177118
 30
0.0
 10
249.8934765016407
 20
50.60267956546718
 30
0.0
 10
250.0564931501037
 20
50.64353540434781
 30
0.0
 10
250.1408631795296
 20
50.66107904107926
 30
0.0
 10
250.3962837229547
 20
50.70409401085135
 30
0.0
 10
250.5714322732157
 20
50.72055656639894
 30
0.0
 10
250.8414244664779
 20
50.72828090439334
 30
0.0
 10
250.9331432168297
 20
50.72797827662133
 30
0.0
 10
251.1158285991813
 20
50.72183905978953
 30
0.0
 10
251.2069165292327
 20
50.71604228221051
 30
0.0
 10
251.4794744768917
 20
50.6910341287637
 30
0.0
 10
251.660570957727
 20
50.6642082243252
 30
0.0
 10
252.019699949422
 20
50.59181196126489
 30
0.0
 10
252.1927223605466
 20
50.54730252325114
 30
0.0
 10
252.5264831981953
 20
50.44380180359894
 30
0.0
 10
252.6885817506412
 20
50.38416930061432
 30
0.0
 10
252.991928666896
 20
50.25398558024068
 30
0.0
 10
253.1332209275113
 20
50.18364379286943
 30
0.0
 10
253.2639111391186
 20
50.10819793961864
 30
0.0
  0
LWPOLYLINE
  5
1E7
330
1F
100
AcDbEntity
  8
0
  6
Continuous
 62
     7
370
    25
100
AcDbPolyline
 90
       22
 70
   128
 43
0.0
 10
255.1697673257
 20
29.6278901638
 10
255.1894884288
 20
29.825844361
 10
255.3388650917
 20
30.7421674058
 10
255.5847323545
 20
31.6829738151
 10
255.9225103694
 20
32.6307382006
 10
256.3459070728
 20
33.5678058661
 10
256.8470350772
 20
34.4767199853
 10
257.416559185
 20
35.3405502982
 10
258.0438709026
 20
36.1432045043
 10
258.7172840285
 20
36.8697312887
 10
259.4242543599
 20
37.5065965871
 10
260.1516123238
 20
38.041936513
 10
260.8858086138
 20
38.4657790096
 10
261.6131665777
 20
38.7702287133
 10
262.3201369092
 20
38.9496139852
 10
262.993550035
 20
39.0005934462
 10
263.6208617527
 20
38.9222179325
 10
264.1903858604
 20
38.7159461579
 10
264.6915138648
 20
38.385622117
 10
265.1149105683
 20
37.93739788
 10
265.4526885831
 20
37.3796236892
 10
265.6479865424
 20
36.889441973
  0
ARC
  5
1E8
330
1F
100
AcDbEntity
  8
0
  6
Continuous
 62
     7
370
    25
100
AcDbCircle
 10
258.1586013213
 20
28.0810865937
 30
0.0
 40
2.976733828525874
100
AcDbArc
 50
235.2329082001
 51
284.3930445017
  0
LWPOLYLINE
  5
1E9
330
1F
100
AcDbEntity
  8
0
  6
Continuous
 62
     7
370
    25
100
AcDbPolyline
 90
        3
 70
   128
 43
0.0
 10
270.936236248
 20
33.8333430798
 10
270.973284645
 20
33.8139242253
 10
271.0352144998
 20
33.7794616505
  0
LINE
  5
1EA
330
1F
100
AcDbEntity
  8
0
  6
Continuous
 62
     7
370
    25
100
AcDbLine
 10
264.3240746761
 20
22.06618127
 30
0.0
 11
264.2857628615
 21
22.0878015929
 31
0.0
  0
ARC
  5
1EB
330
1F
100
AcDbEntity
  8
0
  6
Continuous
 62
     7
370
    25
100
AcDbCircle
 10
259.3608649901
 20
27.9154882844
 30
0.0
 40
2.585239713824915
100
AcDbArc
 50
198.8444000246
 51
238.9611873148
  0
LWPOLYLINE
  5
1EC
330
1F
100
AcDbEntity
  8
0
  6
Continuous
 62
     7
370
    25
100
AcDbPolyline
 90
       19
 70
   128
 43
0.0
 10
256.6333890801
 20
28.5741055163
 10
256.632776963
 20
28.5923230564
 10
256.6583363925
 20
29.4111008818
 10
256.7849899771
 20
30.2753757484
 10
257.0100390017
 20
31.1667311143
 10
257.3286876157
 20
32.0661733001
 10
257.7341465545
 20
32.9545365215
 10
258.2177750557
 20
33.8128902458
 10
258.7692683795
 20
34.6229446914
 10
259.3768744698
 20
35.3674382632
 10
260.0276460946
 20
36.0305068766
 10
260.7077161176
 20
36.5980211964
 10
261.4025931024
 20
37.0578884658
 10
262.0974700871
 20
37.4003090858
 10
262.7775401101
 20
37.6179869013
 10
263.428311735
 20
37.7062832127
 10
264.0359178252
 20
37.6633167003
 10
264.587411149
 20
37.4900028929
 10
264.7773189215
 20
37.3920678714
  0
LWPOLYLINE
  5
1ED
330
1F
100
AcDbEntity
  8
0
  6
Continuous
 62
     7
370
    25
100
AcDbPolyline
 90
       18
 70
   128
 43
0.0
 10
266.1857930064
 20
29.6426528709
 10
266.135656202
 20
29.9234266536
 10
265.9920171081
 20
30.1083934522
 10
265.7742747995
 20
30.1725727119
 10
265.5118367459
 20
30.107296674
 10
265.2401464713
 20
29.9213811008
 10
264.995897417
 20
29.6399353154
 10
264.8120769006
 20
29.300969576
 10
264.7135105685
 20
28.9502634155
 10
264.7135105685
 20
28.6351813962
 10
264.8120769006
 20
28.3982775004
 10
264.995897417
 20
28.2715466018
 10
265.2401464713
 20
28.2721043916
 10
265.5118367459
 20
28.3998757326
 10
265.7742747995
 20
28.6376044118
 10
265.9920171081
 20
28.9531835898
 10
266.135656202
 20
29.3039925561
 10
266.1857930064
 20
29.6426528709
  0
LINE
  5
1EE
330
1F
100
AcDbEntity
  8
0
  6
Continuous
 62
     7
370
    25
100
AcDbLine
 10
269.2853565396
 20
30.7482904365
 30
0.0
 11
269.3256986469
 21
30.7238153355
 31
0.0
  0
LINE
  5
1EF
330
1F
100
AcDbEntity
  8
0
  6
Continuous
 62
     7
370
    25
100
AcDbLine
 10
266.0356208217
 20
25.118972807
 30
0.0
 11
265.9852550084
 21
25.149909171
 31
0.0
  0
ARC
  5
1F0
330
1F
100
AcDbEntity
  8
0
  6
Continuous
 62
     7
370
    25
100
AcDbCircle
 10
266.9139042746
 20
28.3749844597
 30
0.0
 40
11.45620251545519
100
AcDbArc
 50
138.0402305673
 51
166.9077837782
  0
LWPOLYLINE
  5
1F1
330
1F
100
AcDbEntity
  8
0
  6
Continuous
 62
     7
370
    25
100
AcDbPolyline
 90
        3
 70
   128
 43
0.0
 10
257.1111041809
 20
26.5576592347
 10
257.0399128855
 20
26.6417894605
 10
256.8816603596
 20
26.8597919482
  0
LINE
  5
1F2
330
1F
100
AcDbEntity
  8
0
  6
Continuous
 62
     7
370
    25
100
AcDbLine
 10
256.3142676312
 20
28.9187823303
 30
0.0
 11
256.3113591694
 21
29.1373239981
 31
0.0
  0
LWPOLYLINE
  5
1F3
330
1F
100
AcDbEntity
  8
0
  6
Continuous
 62
     7
370
    25
100
AcDbPolyline
 90
        3
 70
   128
 43
0.0
 10
263.1760504989
 20
37.8060547588
 10
263.2653321767
 20
37.8005935771
 10
263.576501536
 20
37.7572696108
  0
LINE
  5
1F4
330
1F
100
AcDbEntity
  8
0
  6
Continuous
 62
     7
370
    25
100
AcDbLine
 10
257.3728986719
 20
26.2805806132
 30
0.0
 11
257.3009698066
 21
26.3239622647
 31
0.0
  0
LWPOLYLINE
  5
1F5
330
1F
100
AcDbEntity
  8
0
  6
Continuous
 62
     7
370
    25
100
AcDbPolyline
 90
       19
 70
   128
 43
0.0
 10
238.9817874421
 20
43.0474906042
 10
239.3217860691
 20
42.9382574488
 10
239.6961587437
 20
42.9727694683
 10
240.0597517033
 20
43.146862869
 10
240.368712469
 20
43.4395393983
 10
240.5857726901
 20
43.8154987284
 10
240.6847519296
 20
44.2293950127
 10
240.6537140684
 20
44.6313039369
 10
240.4964016149
 20
44.9727512476
 10
240.2317872363
 20
45.2125537509
 10
239.891789268
 20
45.321786526
 10
239.5174165933
 20
45.2872745066
 10
239.1538216581
 20
45.1131822465
 10
238.844862868
 20
44.8205045765
 10
238.6278026469
 20
44.4445452464
 10
238.5288214317
 20
44.0306501028
 10
238.5598612686
 20
43.6287400379
 10
238.7171737221
 20
43.2872927273
 10
238.9817874421
 20
43.0474906042
  0
LINE
  5
1F6
330
1F
100
AcDbEntity
  8
0
  6
Continuous
 62
     7
370
    25
100
AcDbLine
 10
240.9539254118
 20
58.3520573754
 30
0.0
 11
241.1911061433
 21
58.224781161
 31
0.0
  0
ARC
  5
1F7
330
1F
100
AcDbEntity
  8
0
  6
Continuous
 62
     7
370
    25
100
AcDbCircle
 10
249.0563187172
 20
38.6760814757
 30
0.0
 40
25.9187528642388
100
AcDbArc
 50
137.301699221
 51
163.2321192627
  0
SPLINE
  5
1F8
330
1F
100
AcDbEntity
  8
0
  6
Continuous
 62
     7
370
    25
100
AcDbSpline
210
0.0
220
0.0
230
1.0
 70
     8
 71
     3
 72
    10
 73
     6
 74
     0
 42
0.000000001
 43
0.00000001
 40
0.0
 40
0.0
 40
0.0
 40
0.0
 40
0.5
 40
0.5
 40
1.0
 40
1.0
 40
1.0
 40
1.0
 10
223.8869450666929
 20
44.8113689892055
 30
0.0
 10
223.8304163809103
 20
44.77873567352288
 30
0.0
 10
223.7517730583357
 20
44.75836269806391
 30
0.0
 10
223.5915431440045
 20
44.75530129810256
 30
0.0
 10
223.5103761314639
 20
44.7729604979828
 30
0.0
 10
223.453262231126
 20
44.80593165083712
 30
0.0
  0
SPLINE
  5
1F9
330
1F
100
AcDbEntity
  8
0
  6
Continuous
 62
     7
370
    25
100
AcDbSpline
210
0.0
220
0.0
230
1.0
 70
     8
 71
     3
 72
    12
 73
     8
 74
     0
 42
0.000000001
 43
0.00000001
 40
0.0
 40
0.0
 40
0.0
 40
0.0
 40
0.2500000000000033
 40
0.2500000000000033
 40
0.5000000000000067
 40
0.5000000000000067
 40
1.0
 40
1.0
 40
1.0
 40
1.0
 10
241.1439841374708
 20
61.32989352909222
 30
0.0
 10
241.1758884658155
 20
61.31147555237646
 30
0.0
 10
241.2080258022564
 20
61.28156101174439
 30
0.0
 10
241.2626841086826
 20
61.21116359180149
 30
0.0
 10
241.285657448013
 20
61.17078289512566
 30
0.0
 10
241.3393392369507
 20
61.04825906509028
 30
0.0
 10
241.3561161718268
 20
60.9634577434846
 30
0.0
 10
241.3561161718268
 20
60.88990514785099
 30
0.0
  0
LINE
  5
1FA
330
1F
100
AcDbEntity
  8
0
  6
Continuous
 62
     7
370
    25
100
AcDbLine
 10
223.4532625043
 20
44.8059313608
 30
0.0
 11
222.0538738641
 21
45.6137812273
 31
0.0
  0
LWPOLYLINE
  5
1FB
330
1F
100
AcDbEntity
  8
0
  6
Continuous
 62
     7
370
    25
100
AcDbPolyline
 90
       21
 70
   128
 43
0.0
 10
222.0538738641
 20
45.6137812273
 10
222.4170084767
 20
47.0133133244
 10
222.8793594049
 20
48.4233088265
 10
223.4364775219
 20
49.8301976907
 10
224.083001617
 20
51.2204422795
 10
224.8127084445
 20
52.5806601706
 10
225.6185766029
 20
53.897763696
 10
226.4928504135
 20
55.1590762868
 10
227.4271153239
 20
56.3524588932
 10
228.4123812138
 20
57.4664280381
 10
229.4391657006
 20
58.4902617045
 10
230.4975873242
 20
59.414107882
 10
231.5774598827
 20
60.229075529
 10
232.6683911733
 20
60.9273212319
 10
233.759882309
 20
61.5021247909
 10
234.8414288877
 20
61.9479544678
 10
235.9026226543
 20
62.2605211116
 10
236.9332507362
 20
62.4368156733
 10
237.9233947945
 20
62.4751413503
 10
238.8635253608
 20
62.375130022
 10
239.7445960093
 20
62.1377433823
  0
LINE
  5
1FC
330
1F
100
AcDbEntity
  8
0
  6
Continuous
 62
     7
370
    25
100
AcDbLine
 10
239.7445960093
 20
62.1377433823
 30
0.0
 11
241.1439846496
 21
61.3298935159
 31
0.0
  0
LINE
  5
1FD
330
1F
100
AcDbEntity
  8
0
  6
Continuous
 62
     7
370
    25
100
AcDbLine
 10
225.0042717979
 20
44.0929236137
 30
0.0
 11
225.0042717979
 21
45.4563879498
 31
0.0
  0
LINE
  5
1FE
330
1F
100
AcDbEntity
  8
0
  6
Continuous
 62
     7
370
    25
100
AcDbLine
 10
225.0042717979
 20
45.4563879498
 30
0.0
 11
223.8869450144
 21
44.8113689274
 31
0.0
  0
LINE
  5
1FF
330
1F
100
AcDbEntity
  8
0
  6
Continuous
 62
     7
370
    25
100
AcDbLine
 10
241.3561163236
 20
60.8899050292
 30
0.0
 11
241.3561163236
 21
59.3258412289
 31
0.0
  0
LINE
  5
200
330
1F
100
AcDbEntity
  8
0
  6
Continuous
 62
     7
370
    25
100
AcDbLine
 10
242.7105619353
 20
60.1077460372
 30
0.0
 11
241.3561163236
 21
59.3258412289
 31
0.0
  0
SPLINE
  5
201
330
1F
100
AcDbEntity
  8
0
  6
Continuous
 62
     7
370
    25
100
AcDbSpline
210
0.0
220
0.0
230
1.0
 70
     8
 71
     3
 72
    20
 73
    16
 74
     0
 42
0.000000001
 43
0.00000001
 40
0.0
 40
0.0
 40
0.0
 40
0.0
 40
0.2499999999999999
 40
0.2499999999999999
 40
0.3749999999999998
 40
0.3749999999999998
 40
0.4374999999999998
 40
0.4374999999999998
 40
0.4687499999999998
 40
0.4687499999999998
 40
0.4999999999999999
 40
0.4999999999999999
 40
0.7499999999999999
 40
0.7499999999999999
 40
1.0
 40
1.0
 40
1.0
 40
1.0
 10
225.0042718568878
 20
39.47098517821782
 30
0.0
 10
225.0042718568878
 20
39.86336735473839
 30
0.0
 10
225.0247176361979
 20
40.24354398920443
 30
0.0
 10
225.0518912119173
 20
40.81589541102264
 30
0.0
 10
225.0604715917112
 20
41.00696425939025
 30
0.0
 10
225.0693279694551
 20
41.29596388905197
 30
0.0
 10
225.0716197763776
 20
41.39269129038113
 30
0.0
 10
225.0738140100651
 20
41.53852471218961
 30
0.0
 10
225.0743397518936
 20
41.58725863150782
 30
0.0
 10
225.0749594843921
 20
41.68498421316509
 30
0.0
 10
225.0750485924403
 20
41.7342292661755
 30
0.0
 10
225.0740099865233
 20
42.16089195805819
 30
0.0
 10
225.0584967462513
 20
42.54814830444085
 30
0.0
 10
225.023359267329
 20
43.32483056714241
 30
0.0
 10
225.0042718568878
 20
43.71398442376017
 30
0.0
 10
225.0042718568878
 20
44.09292354594842
 30
0.0
  0
LWPOLYLINE
  5
202
330
1F
100
AcDbEntity
  8
0
  6
Continuous
 62
     7
370
    25
100
AcDbPolyline
 90
       20
 70
   128
 43
0.0
 10
221.1300913359
 20
47.2447630198
 10
221.4985120853
 20
48.5655745443
 10
221.9613779952
 20
49.892617185
 10
222.5140153754
 20
51.212491644
 10
223.1508443783
 20
52.5118709526
 10
223.8654336581
 20
53.7776339269
 10
224.6505695183
 20
54.9970009046
 10
225.498323083
 20
56.1576592145
 10
226.4001345908
 20
57.2478894056
 10
227.3468983467
 20
58.256682731
 10
228.3290545894
 20
59.1738542576
 10
229.3366859678
 20
59.9901419075
 10
230.3596185043
 20
60.6973042871
 10
231.3875231342
 20
61.2881998367
 10
232.4100208256
 20
61.7568627244
 10
233.4167873705
 20
62.0985610595
 10
234.3976568172
 20
62.309844435
 10
235.3427254795
 20
62.3885796361
 10
236.242450389
 20
62.3339709734
 10
236.2451573362
 20
62.3335944804
  0
SPLINE
  5
203
330
1F
100
AcDbEntity
  8
0
  6
Continuous
 62
     7
370
    25
100
AcDbSpline
210
0.0
220
0.0
230
1.0
 70
     8
 71
     3
 72
     8
 73
     4
 74
     0
 42
0.000000001
 43
0.00000001
 40
0.0
 40
0.0
 40
0.0
 40
0.0
 40
1.0
 40
1.0
 40
1.0
 40
1.0
 10
221.130091375735
 20
47.24476322068378
 30
0.0
 10
220.6387903466825
 20
47.16211600047989
 30
0.0
 10
220.1472102557798
 20
47.08003221298944
 30
0.0
 10
219.6554154570279
 20
46.9983819259077
 30
0.0
  0
LWPOLYLINE
  5
204
330
1F
100
AcDbEntity
  8
0
  6
Continuous
 62
     7
370
    25
100
AcDbPolyline
 90
       21
 70
   128
 43
0.0
 10
219.6554155826
 20
46.9983817211
 10
220.0185501952
 20
48.3979138183
 10
220.4809011234
 20
49.8079093204
 10
221.0380192404
 20
51.2147981846
 10
221.6845433355
 20
52.6050427734
 10
222.414250163
 20
53.9652606644
 10
223.2201183214
 20
55.2823641898
 10
224.0943921321
 20
56.5436767806
 10
225.0286570425
 20
57.737059387
 10
226.0139229323
 20
58.851028532
 10
227.0407074192
 20
59.8748621984
 10
228.0991290427
 20
60.7987083759
 10
229.1790016012
 20
61.6136760228
 10
230.2699328918
 20
62.3119217257
 10
231.3614240276
 20
62.8867252848
 10
232.4429706062
 20
63.3325549617
 10
233.5041643729
 20
63.6451216054
 10
234.5347924548
 20
63.8214161672
 10
235.524936513
 20
63.8597418441
 10
236.4650670794
 20
63.7597305159
 10
237.3461377279
 20
63.5223438762
  0
LINE
  5
205
330
1F
100
AcDbEntity
  8
0
  6
Continuous
 62
     7
370
    25
100
AcDbLine
 10
237.3461377279
 20
63.5223438762
 30
0.0
 11
237.684467603
 21
62.4292451979
 31
0.0
  0
LINE
  5
206
330
1F
100
AcDbEntity
  8
0
  6
Continuous
 62
     7
370
    25
100
AcDbLine
 10
233.9314952212
 20
65.4935750364
 30
0.0
 11
237.3461377279
 21
63.5223438762
 31
0.0
  0
LINE
  5
207
330
1F
100
AcDbEntity
  8
0
  6
Continuous
 62
     7
370
    25
100
AcDbLine
 10
219.6554155826
 20
46.9983817211
 30
0.0
 11
219.0692003351
 21
47.3367965802
 31
0.0
  0
SPLINE
  5
208
330
1F
100
AcDbEntity
  8
0
  6
Continuous
 62
     7
370
    25
100
AcDbSpline
210
0.0
220
0.0
230
1.0
 70
     8
 71
     3
 72
    28
 73
    24
 74
     0
 42
0.000000001
 43
0.00000001
 40
0.0
 40
0.0
 40
0.0
 40
0.0
 40
0.1249999999999999
 40
0.1249999999999999
 40
0.1874999999999998
 40
0.1874999999999998
 40
0.2499999999999997
 40
0.2499999999999997
 40
0.3749999999999993
 40
0.3749999999999993
 40
0.4374999999999993
 40
0.4374999999999993
 40
0.4999999999999992
 40
0.4999999999999992
 40
0.6249999999999992
 40
0.6249999999999992
 40
0.7499999999999992
 40
0.7499999999999992
 40
0.8124999999999993
 40
0.8124999999999993
 40
0.8749999999999996
 40
0.8749999999999996
 40
1.0
 40
1.0
 40
1.0
 40
1.0
 10
219.0692001877694
 20
47.33679679748752
 30
0.0
 10
218.881213107303
 20
47.44531942907159
 30
0.0
 10
218.6909931527024
 20
47.52726314961951
 30
0.0
 10
218.4028945507544
 20
47.61242087965797
 30
0.0
 10
218.3064046801548
 20
47.63447081006176
 30
0.0
 10
218.1126665073199
 20
47.66574463352072
 30
0.0
 10
218.0154154867886
 20
47.67487188484416
 30
0.0
 10
217.7293936119032
 20
47.68265472695256
 30
0.0
 10
217.5440517955466
 20
47.66234818331549
 30
0.0
 10
217.2755392087308
 20
47.59512753018236
 30
0.0
 10
217.187178549065
 20
47.56634117257676
 30
0.0
 10
217.0168258387754
 20
47.49732928248162
 30
0.0
 10
216.9347988089939
 20
47.45718939257149
 30
0.0
 10
216.6983625552413
 20
47.32056962480826
 30
0.0
 10
216.5534953051189
 20
47.2080551351192
 30
0.0
 10
216.2926385116348
 20
46.93979817011974
 30
0.0
 10
216.1803461041325
 20
46.78764478374245
 30
0.0
 10
216.0411216226787
 20
46.53572839604414
 30
0.0
 10
215.9995258363129
 20
46.44768611036777
 30
0.0
 10
215.9264011212517
 20
46.26334505531594
 30
0.0
 10
215.8947766371987
 20
46.16655629263416
 30
0.0
 10
215.8172833337765
 20
45.86854121373735
 30
0.0
 10
215.7881086183866
 20
45.65906833660082
 30
0.0
 10
215.7821417356449
 20
45.43868754391696
 30
0.0
  0
ARC
  5
209
330
1F
100
AcDbEntity
  8
0
  6
Continuous
 62
     7
370
    25
100
AcDbCircle
 10
230.6266915734
 20
45.0304170748
 30
0.0
 40
14.8501632462346
100
AcDbArc
 50
178.4245883564
 51
181.5754116436
  0
SPLINE
  5
20A
330
1F
100
AcDbEntity
  8
0
  6
Continuous
 62
     7
370
    25
100
AcDbSpline
210
0.0
220
0.0
230
1.0
 70
     8
 71
     3
 72
    30
 73
    26
 74
     0
 42
0.000000001
 43
0.00000001
 40
0.0
 40
0.0
 40
0.0
 40
0.0
 40
0.125
 40
0.125
 40
0.1875000000000001
 40
0.1875000000000001
 40
0.2500000000000001
 40
0.2500000000000001
 40
0.3750000000000001
 40
0.3750000000000001
 40
0.4375000000000001
 40
0.4375000000000001
 40
0.5000000000000001
 40
0.5000000000000001
 40
0.6250000000000002
 40
0.6250000000000002
 40
0.6875000000000001
 40
0.6875000000000001
 40
0.75
 40
0.75
 40
0.8124999999999999
 40
0.8124999999999999
 40
0.8749999999999998
 40
0.8749999999999998
 40
1.0
 40
1.0
 40
1.0
 40
1.0
 10
215.7821417356449
 20
44.62214673203121
 30
0.0
 10
215.7881093343364
 20
44.4086295392565
 30
0.0
 10
215.8172545543358
 20
44.19107964123737
 30
0.0
 10
215.8936892155947
 20
43.85878061170177
 30
0.0
 10
215.9246551991721
 20
43.74700631040221
 30
0.0
 10
215.9976251399877
 20
43.5213044368672
 30
0.0
 10
216.0397613385463
 20
43.4072166642947
 30
0.0
 10
216.1796531279107
 20
43.06905393693351
 30
0.0
 10
216.291497052453
 20
42.84654371766074
 30
0.0
 10
216.4852836495976
 20
42.51593346171117
 30
0.0
 10
216.5546242872008
 20
42.40570682200502
 30
0.0
 10
216.7001166716475
 20
42.18897682155148
 30
0.0
 10
216.7760039623666
 20
42.08277988592076
 30
0.0
 10
217.012391910838
 20
41.77014171267115
 30
0.0
 10
217.1815374130888
 20
41.56959916483599
 30
0.0
 10
217.4514034104229
 20
41.27949432541364
 30
0.0
 10
217.5435949164738
 20
41.18515090904119
 30
0.0
 10
217.7291935115085
 20
41.0038458809808
 30
0.0
 10
217.8230223917953
 20
40.91642654748664
 30
0.0
 10
218.0124724422607
 20
40.747818997162
 30
0.0
 10
218.1080938574663
 20
40.66663081139266
 30
0.0
 10
218.3009555468928
 20
40.51046813184452
 30
0.0
 10
218.3986904557912
 20
40.43514115214781
 30
0.0
 10
218.6899464109115
 20
40.22185091870397
 30
0.0
 10
218.8812038018847
 20
40.09645749400354
 30
0.0
 10
219.0692001877694
 20
39.98792949051577
 30
0.0
  0
LINE
  5
20B
330
1F
100
AcDbEntity
  8
0
  6
Continuous
 62
     7
370
    25
100
AcDbLine
 10
219.0692003351
 20
39.9879295896
 30
0.0
 11
219.6554155826
 21
39.6495147305
 31
0.0
  0
ARC
  5
20C
330
1F
100
AcDbEntity
  8
0
  6
Continuous
 62
     7
370
    25
100
AcDbCircle
 10
225.5439634685
 20
41.1042559018
 30
0.0
 40
6.065580605344276
100
AcDbArc
 50
193.8768278913
 51
252.745350142
  0
LINE
  5
20D
330
1F
100
AcDbEntity
  8
0
  6
Continuous
 62
     7
370
    25
100
AcDbLine
 10
238.9755553062
 20
62.5813953437
 30
0.0
 11
239.3098674013
 21
62.2740666233
 31
0.0
  0
LINE
  5
20E
330
1F
100
AcDbEntity
  8
0
  6
Continuous
 62
     7
370
    25
100
AcDbLine
 10
238.1226265694
 20
63.0737806227
 30
0.0
 11
238.9755553062
 21
62.5813953437
 31
0.0
  0
SPLINE
  5
20F
330
1F
100
AcDbEntity
  8
0
  6
Continuous
 62
     7
370
    25
100
AcDbSpline
210
0.0
220
0.0
230
1.0
 70
     8
 71
     3
 72
    20
 73
    16
 74
     0
 42
0.000000001
 43
0.00000001
 40
0.0
 40
0.0
 40
0.0
 40
0.0
 40
0.2499999999999995
 40
0.2499999999999995
 40
0.3749999999999996
 40
0.3749999999999996
 40
0.4999999999999997
 40
0.4999999999999997
 40
0.6249999999999998
 40
0.6249999999999998
 40
0.7499999999999998
 40
0.7499999999999998
 40
0.8749999999999999
 40
0.8749999999999999
 40
1.0
 40
1.0
 40
1.0
 40
1.0
 10
233.9314949693681
 20
65.49357489938797
 30
0.0
 10
234.250483623766
 20
65.35968451012816
 30
0.0
 10
234.576939223864
 20
65.19978816306617
 30
0.0
 10
235.0892893412471
 20
64.92186923559666
 30
0.0
 10
235.263892707925
 20
64.82287022278636
 30
0.0
 10
235.6237665702738
 20
64.61192951788766
 30
0.0
 10
235.8066269866273
 20
64.50137370067762
 30
0.0
 10
236.1729220758045
 20
64.27595583166679
 30
0.0
 10
236.3574055920632
 20
64.16047523028733
 30
0.0
 10
236.7309904162987
 20
63.92564288599156
 30
0.0
 10
236.9153398875379
 20
63.80931296071629
 30
0.0
 10
237.2760497940144
 20
63.58361827391691
 30
0.0
 10
237.4531037832682
 20
63.47380829982022
 30
0.0
 10
237.8008331346206
 20
63.26241353628433
 30
0.0
 10
237.9660835510788
 20
63.1641507011413
 30
0.0
 10
238.1226264658603
 20
63.07378040002393
 30
0.0
  0
SPLINE
  5
210
330
1F
100
AcDbEntity
  8
0
  6
Continuous
 62
     7
370
    25
100
AcDbSpline
210
0.0
220
0.0
230
1.0
 70
    11
 71
     3
 72
    70
 73
    66
 74
     0
 42
0.000000001
 43
0.00000001
 40
0.0
 40
0.0
 40
0.0
 40
0.0
 40
0.0312500000000001
 40
0.0312500000000001
 40
0.0625000000000002
 40
0.0625000000000002
 40
0.0937500000000003
 40
0.0937500000000003
 40
0.1250000000000004
 40
0.1250000000000004
 40
0.1562500000000005
 40
0.1562500000000005
 40
0.1875000000000006
 40
0.1875000000000006
 40
0.2187500000000007
 40
0.2187500000000007
 40
0.2500000000000008
 40
0.2500000000000008
 40
0.2812500000000009
 40
0.2812500000000009
 40
0.3125000000000011
 40
0.3125000000000011
 40
0.3437500000000012
 40
0.3437500000000012
 40
0.3750000000000012
 40
0.3750000000000012
 40
0.4062500000000013
 40
0.4062500000000013
 40
0.4375000000000014
 40
0.4375000000000014
 40
0.4687500000000016
 40
0.4687500000000016
 40
0.5000000000000017
 40
0.5000000000000017
 40
0.5312500000000018
 40
0.5312500000000018
 40
0.5625000000000019
 40
0.5625000000000019
 40
0.593750000000002
 40
0.593750000000002
 40
0.6250000000000021
 40
0.6250000000000021
 40
0.6562500000000022
 40
0.6562500000000022
 40
0.6875000000000023
 40
0.6875000000000023
 40
0.7187500000000021
 40
0.7187500000000021
 40
0.7500000000000018
 40
0.7500000000000018
 40
0.7812500000000016
 40
0.7812500000000016
 40
0.8125000000000013
 40
0.8125000000000013
 40
0.8437500000000011
 40
0.8437500000000011
 40
0.8750000000000009
 40
0.8750000000000009
 40
0.9062500000000007
 40
0.9062500000000007
 40
0.9375000000000004
 40
0.9375000000000004
 40
0.9687500000000002
 40
0.9687500000000002
 40
1.0
 40
1.0
 40
1.0
 40
1.0
 10
231.7468556481159
 20
65.10907482906218
 30
0.0
 10
231.653324746667
 20
65.16306906916893
 30
0.0
 10
231.5701006216639
 20
65.21759178454339
 30
0.0
 10
231.4233395461666
 20
65.32747984885695
 30
0.0
 10
231.3592776630886
 20
65.3834550827961
 30
0.0
 10
231.2551455733677
 20
65.49242211720139
 30
0.0
 10
231.214918115325
 20
65.54527381566037
 30
0.0
 10
231.1576472382151
 20
65.64703186781207
 30
0.0
 10
231.1408440141981
 20
65.69610274141512
 30
0.0
 10
231.1320001272881
 20
65.78520541722303
 30
0.0
 10
231.1395242601109
 20
65.82581568276241
 30
0.0
 10
231.1788106408663
 20
65.89809512866
 30
0.0
 10
231.210416906773
 20
65.9290586599976
 30
0.0
 10
231.2952004654777
 20
65.97880919223773
 30
0.0
 10
231.3490135547228
 20
65.9979577486119
 30
0.0
 10
231.477394823967
 20
66.02299481037828
 30
0.0
 10
231.550725168738
 20
66.02877688962103
 30
0.0
 10
231.7151653695983
 20
66.02702770918933
 30
0.0
 10
231.8074075875036
 20
66.01926666543639
 30
0.0
 10
232.0031493928675
 20
65.9908161585958
 30
0.0
 10
232.1069607728482
 20
65.97026425292688
 30
0.0
 10
232.3267267518774
 20
65.91689808736423
 30
0.0
 10
232.4423564681834
 20
65.88404572563124
 30
0.0
 10
232.6761925383279
 20
65.8094929284197
 30
0.0
 10
232.7957074756859
 20
65.76747429315904
 30
0.0
 10
233.0397684085819
 20
65.67468739692453
 30
0.0
 10
233.1605139507253
 20
65.62538038784909
 30
0.0
 10
233.3998821488508
 20
65.52198771379247
 30
0.0
 10
233.5197890896956
 20
65.46726809716469
 30
0.0
 10
233.7504264201789
 20
65.35691770120283
 30
0.0
 10
233.8609353718908
 20
65.30147129970628
 30
0.0
 10
234.0725765799293
 20
65.19052432074747
 30
0.0
 10
234.1741050885886
 20
65.13473563675942
 30
0.0
 10
234.3588361233543
 20
65.02811391379343
 30
0.0
 10
234.4432476919951
 20
64.97667504369376
 30
0.0
 10
234.5957032588346
 20
64.87745883035169
 30
0.0
 10
234.662298525004
 20
64.8305647752025
 30
0.0
 10
234.7735655252171
 20
64.74372423237604
 30
0.0
 10
234.819074058065
 20
64.70311268032435
 30
0.0
 10
234.8866392409441
 20
64.62906930339625
 30
0.0
 10
234.9084079325146
 20
64.59610391487666
 30
0.0
 10
234.9281885219051
 20
64.53723351182441
 30
0.0
 10
234.9259005335875
 20
64.51115797881995
 30
0.0
 10
234.8967733177154
 20
64.46741904636521
 30
0.0
 10
234.8702391361938
 20
64.44948917626776
 30
0.0
 10
234.7926783253133
 20
64.42087609377874
 30
0.0
 10
234.7414917582426
 20
64.41034920238404
 30
0.0
 10
234.6185748926227
 20
64.39708695363773
 30
0.0
 10
234.5464404331984
 20
64.39417658900044
 30
0.0
 10
234.3799735162634
 20
64.39595563891515
 30
0.0
 10
234.2884103199037
 20
64.40061294578166
 30
0.0
 10
234.0893642455197
 20
64.41731707725988
 30
0.0
 10
233.9805652512622
 20
64.42956200416033
 30
0.0
 10
233.7533436101656
 20
64.46141191289959
 30
0.0
 10
233.6353508478073
 20
64.48087947206113
 30
0.0
 10
233.3908878408423
 20
64.52756031017613
 30
0.0
 10
233.2637933513658
 20
64.55499712916016
 30
0.0
 10
233.0120651311543
 20
64.61628476491
 30
0.0
 10
232.8861297516043
 20
64.65034660804126
 30
0.0
 10
232.6343614552129
 20
64.72638796500314
 30
0.0
 10
232.5108778273351
 20
64.76772387746036
 30
0.0
 10
232.2740194120335
 20
64.85581985404991
 30
0.0
 10
232.1590526694296
 20
64.90317429833523
 30
0.0
 10
231.9415743614287
 20
65.00314612197037
 30
0.0
 10
231.8403865495648
 20
65.05508058895542
 30
0.0
 10
231.7468556481159
 20
65.10907482906217
 30
0.0
  0
LINE
  5
211
330
1F
100
AcDbEntity
  8
0
  6
Continuous
 62
     7
370
    25
100
AcDbLine
 10
222.2647062298
 20
46.4705043536
 30
0.0
 11
221.8010783838
 21
46.7381510121
 31
0.0
  0
LINE
  5
212
330
1F
100
AcDbEntity
  8
0
  6
Continuous
 62
     7
370
    25
100
AcDbLine
 10
221.3752602122
 20
47.3862959995
 30
0.0
 11
221.1300913359
 21
47.2447630198
 31
0.0
  0
SPLINE
  5
213
330
1F
100
AcDbEntity
  8
0
  6
Continuous
 62
     7
370
    25
100
AcDbSpline
210
0.0
220
0.0
230
1.0
 70
     8
 71
     3
 72
    14
 73
    10
 74
     0
 42
0.000000001
 43
0.00000001
 40
0.0
 40
0.0
 40
0.0
 40
0.0
 40
0.1250000000000017
 40
0.1250000000000017
 40
0.2500000000000034
 40
0.2500000000000034
 40
0.5000000000000032
 40
0.5000000000000032
 40
1.0
 40
1.0
 40
1.0
 40
1.0
 10
221.8010781381128
 20
46.73815107986179
 30
0.0
 10
221.7768817049476
 20
46.75211938340434
 30
0.0
 10
221.7537062664887
 20
46.77948455940189
 30
0.0
 10
221.7167858740578
 20
46.83728632852741
 30
0.0
 10
221.7017440830251
 20
46.86825680764377
 30
0.0
 10
221.6619306264383
 20
46.96128328057298
 30
0.0
 10
221.6422946080542
 20
47.02389433485775
 30
0.0
 10
221.5918737595847
 20
47.20822508577275
 30
0.0
 10
221.5694565813442
 20
47.32976932067342
 30
0.0
 10
221.5527686831783
 20
47.44889838597579
 30
0.0
  0
SPLINE
  5
214
330
1F
100
AcDbEntity
  8
0
  6
Continuous
 62
     7
370
    25
100
AcDbSpline
210
0.0
220
0.0
230
1.0
 70
     8
 71
     3
 72
    10
 73
     6
 74
     0
 42
0.000000001
 43
0.00000001
 40
0.0
 40
0.0
 40
0.0
 40
0.0
 40
0.5
 40
0.5
 40
1.0
 40
1.0
 40
1.0
 40
1.0
 10
221.5527686831783
 20
47.44889838597579
 30
0.0
 10
221.5193786649905
 20
47.44274861677555
 30
0.0
 10
221.4871393135624
 20
47.43420200892748
 30
0.0
 10
221.4271514193
 20
47.41296603515855
 30
0.0
 10
221.399889546051
 20
47.40051438915037
 30
0.0
 10
221.3752599801012
 20
47.38629604337351
 30
0.0
  0
LWPOLYLINE
  5
215
330
1F
100
AcDbEntity
  8
0
  6
Continuous
 62
     7
370
    25
100
AcDbPolyline
 90
       21
 70
   128
 43
0.0
 10
214.1325053954
 20
46.0987124261
 10
214.1824540207
 20
47.3383745153
 10
214.3318474765
 20
48.6244793884
 10
214.5793324539
 20
49.9453800181
 10
214.9226685844
 20
51.2891138677
 10
215.3587462208
 20
52.6435124919
 10
215.8836160719
 20
53.9963096148
 10
216.4925247632
 20
55.3352542449
 10
217.1799576431
 20
56.6482205583
 10
217.9396901489
 20
57.923319302
 10
218.7648411491
 20
59.1490015913
 10
219.647938139
 20
60.3141672704
 10
220.5809837543
 20
61.4082656672
 10
221.5555282102
 20
62.4213876022
 10
222.5627456934
 20
63.3443581584
 10
223.5935150331
 20
64.1688189936
 10
224.6385011551
 20
64.8873034993
 10
225.6882406102
 20
65.4933051876
 10
226.7332267322
 20
65.9813359769
 10
227.7639960719
 20
66.3469760894
 10
228.7067924264
 20
66.5752145157
  0
ARC
  5
216
330
1F
100
AcDbEntity
  8
0
  6
Continuous
 62
     7
370
    25
100
AcDbCircle
 10
224.5242656072
 20
45.8248133895
 30
0.0
 40
10.39536920850944
100
AcDbArc
 50
178.4901858856
 51
204.7179302455
  0
LINE
  5
217
330
1F
100
AcDbEntity
  8
0
  6
Continuous
 62
     7
370
    25
100
AcDbLine
 10
220.4080779546
 20
40.7608471873
 30
0.0
 11
221.5527689087
 21
40.1000311654
 31
0.0
  0
ARC
  5
218
330
1F
100
AcDbEntity
  8
0
  6
Continuous
 62
     7
370
    25
100
AcDbCircle
 10
223.7205139848
 20
45.9392695197
 30
0.0
 40
6.147218094902091
100
AcDbArc
 50
182.6054747885
 51
237.394528727
  0
LINE
  5
219
330
1F
100
AcDbEntity
  8
0
  6
Continuous
 62
     7
370
    25
100
AcDbLine
 10
217.5796506955
 20
46.4763674092
 30
0.0
 11
217.5796506955
 21
45.6598265585
 31
0.0
  0
ARC
  5
21A
330
1F
100
AcDbEntity
  8
0
  6
Continuous
 62
     7
370
    25
100
AcDbCircle
 10
220.1439312189
 20
46.5676967335
 30
0.0
 40
2.565906398939325
100
AcDbArc
 50
155.0697715935
 51
182.0397822601
  0
LINE
  5
21B
330
1F
100
AcDbEntity
  8
0
  6
Continuous
 62
     7
370
    25
100
AcDbLine
 10
225.0042717979
 20
38.1075209592
 30
0.0
 11
225.0042717979
 21
39.4709852954
 31
0.0
  0
LINE
  5
21C
330
1F
100
AcDbEntity
  8
0
  6
Continuous
 62
     7
370
    25
100
AcDbLine
 10
222.8342761064
 20
39.3602328072
 30
0.0
 11
225.0042717979
 21
38.1075209592
 31
0.0
  0
SPLINE
  5
21D
330
1F
100
AcDbEntity
  8
0
  6
Continuous
 62
     7
370
    25
100
AcDbSpline
210
0.0
220
0.0
230
1.0
 70
     8
 71
     3
 72
    14
 73
    10
 74
     0
 42
0.000000001
 43
0.00000001
 40
0.0
 40
0.0
 40
0.0
 40
0.0
 40
0.1249999999999983
 40
0.1249999999999983
 40
0.2499999999999966
 40
0.2499999999999966
 40
0.4999999999999968
 40
0.4999999999999968
 40
1.0
 40
1.0
 40
1.0
 40
1.0
 10
222.5859666652298
 20
40.0709798887999
 30
0.0
 10
222.6103960138736
 20
40.05687712601359
 30
0.0
 10
222.6333745679397
 20
40.02959499615391
 30
0.0
 10
222.6702576814315
 20
39.9718415926474
 30
0.0
 10
222.6853828277484
 20
39.94069401097681
 30
0.0
 10
222.7251001882076
 20
39.84785690942083
 30
0.0
 10
222.7445623060966
 20
39.78590643960406
 30
0.0
 10
222.7954304272907
 20
39.59999173410655
 30
0.0
 10
222.8177146547058
 20
39.47845908913327
 30
0.0
 10
222.8342761201644
 20
39.36023258268573
 30
0.0
  0
LINE
  5
21E
330
1F
100
AcDbEntity
  8
0
  6
Continuous
 62
     7
370
    25
100
AcDbLine
 10
221.8010783838
 20
40.5240862918
 30
0.0
 11
222.5859666313
 21
40.0709799511
 31
0.0
  0
SPLINE
  5
21F
330
1F
100
AcDbEntity
  8
0
  6
Continuous
 62
     7
370
    25
100
AcDbSpline
210
0.0
220
0.0
230
1.0
 70
     8
 71
     3
 72
    14
 73
    10
 74
     0
 42
0.000000001
 43
0.00000001
 40
0.0
 40
0.0
 40
0.0
 40
0.0
 40
0.4999999999999982
 40
0.4999999999999982
 40
0.7499999999999973
 40
0.7499999999999973
 40
0.8749999999999987
 40
0.8749999999999987
 40
1.0
 40
1.0
 40
1.0
 40
1.0
 10
221.5527686831782
 20
40.1000310790038
 30
0.0
 10
221.569392764632
 20
40.19951082323391
 30
0.0
 10
221.5918101662363
 20
40.29534595662989
 30
0.0
 10
221.642241224085
 20
40.42156190620354
 30
0.0
 10
221.6617759180162
 20
40.46139545489778
 30
0.0
 10
221.7017190753516
 20
40.50865578636964
 30
0.0
 10
221.7167360425173
 20
40.5222583999749
 30
0.0
 10
221.7537974100389
 20
40.53747880155061
 30
0.0
 10
221.7767810723874
 20
40.5381127883445
 30
0.0
 10
221.8010781381128
 20
40.52408639086148
 30
0.0
  0
LINE
  5
220
330
1F
100
AcDbEntity
  8
0
  6
Continuous
 62
     7
370
    25
100
AcDbLine
 10
223.8869450144
 20
37.4625019368
 30
0.0
 11
225.0042717979
 21
38.1075209592
 31
0.0
  0
ARC
  5
221
330
1F
100
AcDbEntity
  8
0
  6
Continuous
 62
     7
370
    25
100
AcDbCircle
 10
229.1142746576
 20
38.6118641221
 30
0.0
 40
5.706245366078177
100
AcDbArc
 50
203.7742071019
 51
276.1101504128
  0
SPLINE
  5
222
330
1F
100
AcDbEntity
  8
0
  6
Continuous
 62
     7
370
    25
100
AcDbSpline
210
0.0
220
0.0
230
1.0
 70
     8
 71
     3
 72
    12
 73
     8
 74
     0
 42
0.000000001
 43
0.00000001
 40
0.0
 40
0.0
 40
0.0
 40
0.0
 40
0.2499999999999962
 40
0.2499999999999962
 40
0.4999999999999925
 40
0.4999999999999925
 40
1.0
 40
1.0
 40
1.0
 40
1.0
 10
223.453262231126
 20
37.45706434386537
 30
0.0
 10
223.4815044311983
 20
37.44076046880135
 30
0.0
 10
223.5160505631038
 20
37.42780467539135
 30
0.0
 10
223.5907746228015
 20
37.4110929371988
 30
0.0
 10
223.6310650141031
 20
37.40720602841135
 30
0.0
 10
223.7521780315395
 20
37.40946942630065
 30
0.0
 10
223.8302955939574
 20
37.42979863772739
 30
0.0
 10
223.8869450666929
 20
37.46250168223375
 30
0.0
  0
ARC
  5
223
330
1F
100
AcDbEntity
  8
0
  6
Continuous
 62
     7
370
    25
100
AcDbCircle
 10
228.1616899817
 20
39.8258469801
 30
0.0
 40
6.304119982696622
100
AcDbArc
 50
194.335844021
 51
238.333611709
  0
LINE
  5
224
330
1F
100
AcDbEntity
  8
0
  6
Continuous
 62
     7
370
    25
100
AcDbLine
 10
222.0538738641
 20
38.2649142366
 30
0.0
 11
223.4532625043
 21
37.4570643702
 31
0.0
  0
SPLINE
  5
225
330
1F
100
AcDbEntity
  8
0
  6
Continuous
 62
     7
370
    25
100
AcDbSpline
210
0.0
220
0.0
230
1.0
 70
     8
 71
     3
 72
     8
 73
     4
 74
     0
 42
0.000000001
 43
0.00000001
 40
0.0
 40
0.0
 40
0.0
 40
0.0
 40
1.0
 40
1.0
 40
1.0
 40
1.0
 10
222.4806653278013
 20
39.11622616692135
 30
0.0
 10
222.3375006311108
 20
38.83260411991434
 30
0.0
 10
222.1953119342582
 20
38.54882097393033
 30
0.0
 10
222.0538741635031
 20
38.26491387974323
 30
0.0
  0
LINE
  5
226
330
1F
100
AcDbEntity
  8
0
  6
Continuous
 62
     7
370
    25
100
AcDbLine
 10
222.7258342408
 20
39.2577592179
 30
0.0
 11
222.4806653645
 21
39.1162262382
 31
0.0
  0
SPLINE
  5
227
330
1F
100
AcDbEntity
  8
0
  6
Continuous
 62
     7
370
    25
100
AcDbSpline
210
0.0
220
0.0
230
1.0
 70
     8
 71
     3
 72
    10
 73
     6
 74
     0
 42
0.000000001
 43
0.00000001
 40
0.0
 40
0.0
 40
0.0
 40
0.0
 40
0.5
 40
0.5
 40
1.0
 40
1.0
 40
1.0
 40
1.0
 10
222.8342761201644
 20
39.36023258268573
 30
0.0
 10
222.8236232531944
 20
39.34095693547961
 30
0.0
 10
222.8088184900423
 20
39.32234555405456
 30
0.0
 10
222.7720327187114
 20
39.28771527982305
 30
0.0
 10
222.7504634981174
 20
39.27197733538797
 30
0.0
 10
222.7258339321675
 20
39.25775898961111
 30
0.0
  0
SPLINE
  5
228
330
1F
100
AcDbEntity
  8
0
  6
Continuous
 62
     7
370
    25
100
AcDbSpline
210
0.0
220
0.0
230
1.0
 70
     8
 71
     3
 72
    14
 73
    10
 74
     0
 42
0.000000001
 43
0.00000001
 40
0.0
 40
0.0
 40
0.0
 40
0.0
 40
0.5000000000000002
 40
0.5000000000000002
 40
0.7500000000000002
 40
0.7500000000000002
 40
0.8750000000000001
 40
0.8750000000000001
 40
1.0
 40
1.0
 40
1.0
 40
1.0
 10
206.9129668634857
 20
50.75529192982253
 30
0.0
 10
207.2281328073255
 20
50.52820393892668
 30
0.0
 10
207.5444084625915
 20
50.29835756387854
 30
0.0
 10
208.0232329511625
 20
49.94304896188943
 30
0.0
 10
208.1835529615865
 20
49.82291064769388
 30
0.0
 10
208.4266054975402
 20
49.63664181345008
 30
0.0
 10
208.5080489355568
 20
49.57354857222307
 30
0.0
 10
208.6727103845902
 20
49.44320332981093
 30
0.0
 10
208.7556164026564
 20
49.37667888783368
 30
0.0
 10
208.8416352307411
 20
49.30288541651012
 30
0.0
  0
SPLINE
  5
229
330
1F
100
AcDbEntity
  8
0
  6
Continuous
 62
     7
370
    25
100
AcDbSpline
210
0.0
220
0.0
230
1.0
 70
     8
 71
     3
 72
     8
 73
     4
 74
     0
 42
0.000000001
 43
0.00000001
 40
0.0
 40
0.0
 40
0.0
 40
0.0
 40
1.0
 40
1.0
 40
1.0
 40
1.0
 10
208.8416352307411
 20
49.30288541651012
 30
0.0
 10
209.1432877039787
 20
49.04410505842829
 30
0.0
 10
209.4485672475021
 20
48.79653004302362
 30
0.0
 10
209.7532268206288
 20
48.5555571864571
 30
0.0
  0
SPLINE
  5
22A
330
1F
100
AcDbEntity
  8
0
  6
Continuous
 62
     7
370
    25
100
AcDbSpline
210
0.0
220
0.0
230
1.0
 70
     8
 71
     3
 72
    14
 73
    10
 74
     0
 42
0.000000001
 43
0.00000001
 40
0.0
 40
0.0
 40
0.0
 40
0.0
 40
0.1250000000000022
 40
0.1250000000000022
 40
0.2500000000000044
 40
0.2500000000000044
 40
0.500000000000003
 40
0.500000000000003
 40
1.0
 40
1.0
 40
1.0
 40
1.0
 10
209.7532268206288
 20
48.55555718645704
 30
0.0
 10
209.7724221965543
 20
48.54037445472085
 30
0.0
 10
209.7900342699547
 20
48.52900663622407
 30
0.0
 10
209.815879199874
 20
48.51773816701161
 30
0.0
 10
209.8240175641216
 20
48.51735469677456
 30
0.0
 10
209.8409676550897
 20
48.52313048946895
 30
0.0
 10
209.8431369275995
 20
48.53579591508699
 30
0.0
 10
209.8419613797848
 20
48.58023274213076
 30
0.0
 10
209.8298878591807
 20
48.6207160129042
 30
0.0
 10
209.8151096311406
 20
48.6647196827867
 30
0.0
  0
SPLINE
  5
22B
330
1F
100
AcDbEntity
  8
0
  6
Continuous
 62
     7
370
    25
100
AcDbSpline
210
0.0
220
0.0
230
1.0
 70
     8
 71
     3
 72
    14
 73
    10
 74
     0
 42
0.000000001
 43
0.00000001
 40
0.0
 40
0.0
 40
0.0
 40
0.0
 40
0.25
 40
0.25
 40
0.5
 40
0.5
 40
0.75
 40
0.75
 40
1.0
 40
1.0
 40
1.0
 40
1.0
 10
209.8151096311399
 20
48.6647196827874
 30
0.0
 10
209.7970533841934
 20
48.71848398577416
 30
0.0
 10
209.7941305860922
 20
48.76303459487122
 30
0.0
 10
209.7887168575488
 20
48.85529594471593
 30
0.0
 10
209.7871495795077
 20
48.90259034763618
 30
0.0
 10
209.7770111797006
 20
49.00735140246397
 30
0.0
 10
209.7686961819564
 20
49.06461260949898
 30
0.0
 10
209.7398960072975
 20
49.19423396687339
 30
0.0
 10
209.719242610627
 20
49.26702816648645
 30
0.0
 10
209.6905530934659
 20
49.34671486544621
 30
0.0
  0
ARC
  5
22C
330
1F
100
AcDbEntity
  8
0
  6
Continuous
 62
     7
370
    25
100
AcDbCircle
 10
220.0455234218
 20
52.4332763321
 30
0.0
 40
10.80519673566312
100
AcDbArc
 50
163.4019784234
 51
196.5980215766
  0
SPLINE
  5
22D
330
1F
100
AcDbEntity
  8
0
  6
Continuous
 62
     7
370
    25
100
AcDbSpline
210
0.0
220
0.0
230
1.0
 70
     8
 71
     3
 72
    14
 73
    10
 74
     0
 42
0.000000001
 43
0.00000001
 40
0.0
 40
0.0
 40
0.0
 40
0.0
 40
0.25
 40
0.25
 40
0.5
 40
0.5
 40
0.75
 40
0.75
 40
1.0
 40
1.0
 40
1.0
 40
1.0
 10
209.8151096311399
 20
56.98104287771039
 30
0.0
 10
209.7970533841934
 20
56.86020079876582
 30
0.0
 10
209.7941305860922
 20
56.73510653219972
 30
0.0
 10
209.7887168575488
 20
56.48715522154836
 30
0.0
 10
209.7871495795077
 20
56.3632465972346
 30
0.0
 10
209.7770111797006
 20
56.1170908579944
 30
0.0
 10
209.7686961819564
 20
55.99480291613298
 30
0.0
 10
209.7398960072975
 20
55.75280573892421
 30
0.0
 10
209.719242610627
 20
55.63264877174461
 30
0.0
 10
209.6905530934659
 20
55.51983786133933
 30
0.0
  0
SPLINE
  5
22E
330
1F
100
AcDbEntity
  8
0
  6
Continuous
 62
     7
370
    25
100
AcDbSpline
210
0.0
220
0.0
230
1.0
 70
     8
 71
     3
 72
    14
 73
    10
 74
     0
 42
0.000000001
 43
0.00000001
 40
0.0
 40
0.0
 40
0.0
 40
0.0
 40
0.125
 40
0.125
 40
0.25
 40
0.25
 40
0.5
 40
0.5
 40
1.0
 40
1.0
 40
1.0
 40
1.0
 10
209.7532268206289
 20
57.52632844200441
 30
0.0
 10
209.7724221965544
 20
57.52404163403057
 30
0.0
 10
209.7900342699548
 20
57.51254339475776
 30
0.0
 10
209.815879199874
 20
57.47585189223124
 30
0.0
 10
209.8240175641217
 20
57.45277047712917
 30
0.0
 10
209.8409676550897
 20
57.38143795805208
 30
0.0
 10
209.8431369275995
 20
57.330193852444
 30
0.0
 10
209.8419613797848
 20
57.18015837268241
 30
0.0
 10
209.8298878591807
 20
57.07994669779934
 30
0.0
 10
209.8151096311406
 20
56.98104287771071
 30
0.0
  0
SPLINE
  5
22F
330
1F
100
AcDbEntity
  8
0
  6
Continuous
 62
     7
370
    25
100
AcDbSpline
210
0.0
220
0.0
230
1.0
 70
     8
 71
     3
 72
     8
 73
     4
 74
     0
 42
0.000000001
 43
0.00000001
 40
0.0
 40
0.0
 40
0.0
 40
0.0
 40
1.0
 40
1.0
 40
1.0
 40
1.0
 10
208.8416352307411
 20
57.57854125314049
 30
0.0
 10
209.1432877039787
 20
57.5858875002836
 30
0.0
 10
209.4485672475022
 20
57.56262353431366
 30
0.0
 10
209.7532268206289
 20
57.52632844200441
 30
0.0
  0
SPLINE
  5
230
330
1F
100
AcDbEntity
  8
0
  6
Continuous
 62
     7
370
    25
100
AcDbSpline
210
0.0
220
0.0
230
1.0
 70
     8
 71
     3
 72
    14
 73
    10
 74
     0
 42
0.000000001
 43
0.00000001
 40
0.0
 40
0.0
 40
0.0
 40
0.0
 40
0.5000000000000002
 40
0.5000000000000002
 40
0.7500000000000002
 40
0.7500000000000002
 40
0.8750000000000001
 40
0.8750000000000001
 40
1.0
 40
1.0
 40
1.0
 40
1.0
 10
206.9129668634857
 20
58.21118059812548
 30
0.0
 10
207.2281328073255
 20
58.07379610439936
 30
0.0
 10
207.5444084625915
 20
57.9422225967682
 30
0.0
 10
208.0232329511625
 20
57.76732713024744
 30
0.0
 10
208.1835529615865
 20
57.71265597998293
 30
0.0
 10
208.4266054975402
 20
57.64362416426288
 30
0.0
 10
208.5080489355568
 20
57.62276187975409
 30
0.0
 10
208.6727103845902
 20
57.58995416632445
 30
0.0
 10
208.7556164026564
 20
57.5764464068318
 30
0.0
 10
208.8416352307411
 20
57.57854125314049
 30
0.0
  0
SPLINE
  5
231
330
1F
100
AcDbEntity
  8
0
  6
Continuous
 62
     7
370
    25
100
AcDbSpline
210
0.0
220
0.0
230
1.0
 70
     8
 71
     3
 72
     8
 73
     4
 74
     0
 42
0.000000001
 43
0.00000001
 40
0.0000005163856712
 40
0.0000005163856712
 40
0.0000005163856712
 40
0.0000005163856712
 40
0.000026289209185
 40
0.000026289209185
 40
0.000026289209185
 40
0.000026289209185
 10
206.9129452764664
 20
58.22405970933094
 30
0.0
 10
206.9129429753071
 20
58.21976687429965
 30
0.0
 10
206.9129502216314
 20
58.21547380661936
 30
0.0
 10
206.9129668634856
 20
58.21118059812548
 30
0.0
  0
SPLINE
  5
232
330
1F
100
AcDbEntity
  8
0
  6
Continuous
 62
     7
370
    25
100
AcDbSpline
210
0.0
220
0.0
230
1.0
 70
     8
 71
     3
 72
     8
 73
     4
 74
     0
 42
0.000000001
 43
0.00000001
 40
0.0000005163856716
 40
0.0000005163856716
 40
0.0000005163856716
 40
0.0000005163856716
 40
0.0000262892091854
 40
0.0000262892091854
 40
0.0000262892091854
 40
0.0000262892091854
 10
206.9129452764664
 20
50.75058865745167
 30
0.0
 10
206.9129429753071
 20
50.75216204315112
 30
0.0
 10
206.9129502216314
 20
50.75372977308504
 30
0.0
 10
206.9129668634856
 20
50.75529192982255
 30
0.0
  0
SPLINE
  5
233
330
1F
100
AcDbEntity
  8
0
  6
Continuous
 62
     7
370
    25
100
AcDbSpline
210
0.0
220
0.0
230
1.0
 70
     8
 71
     3
 72
    18
 73
    14
 74
     0
 42
0.000000001
 43
0.00000001
 40
0.0
 40
0.0
 40
0.0
 40
0.0
 40
0.1236721305952537
 40
0.2480196409558441
 40
0.3723444433639593
 40
0.4959618455461809
 40
0.6185246611081785
 40
0.6801750026743897
 40
0.7410277146916076
 40
0.8017931752778487
 40
0.8638340819153159
 40
0.9868316865725831
 40
1.0
 40
1.0
 40
1.0
 40
1.0
 10
212.6018138462629
 20
48.87761756112965
 30
0.0
 10
212.4687669707258
 20
49.12255231432341
 30
0.0
 10
212.2019466439297
 20
49.61375942179649
 30
0.0
 10
212.0772512545397
 20
50.36578048269904
 30
0.0
 10
212.2130777721562
 20
50.99046749457648
 30
0.0
 10
212.5801537680806
 20
51.40733278466592
 30
0.0
 10
213.022793338418
 20
51.5013159310986
 30
0.0
 10
213.3990191654448
 20
51.41937255876897
 30
0.0
 10
213.6812413138614
 20
51.27709685837854
 30
0.0
 10
213.953626212087
 20
51.06041088404152
 30
0.0
 10
214.2798570338685
 20
50.68260684773568
 30
0.0
 10
214.5332408027451
 20
50.30372852040003
 30
0.0
 10
214.6240489389201
 20
50.01285128844727
 30
0.0
 10
214.6328307986963
 20
49.9847211762053
 30
0.0
  0
SPLINE
  5
234
330
1F
100
AcDbEntity
  8
0
  6
Continuous
 62
     7
370
    25
100
AcDbSpline
210
0.0
220
0.0
230
1.0
 70
     8
 71
     3
 72
    13
 73
     9
 74
     0
 42
0.000000001
 43
0.00000001
 40
0.0
 40
0.0
 40
0.0
 40
0.0
 40
0.0440494629308293
 40
0.2046999237573804
 40
0.3627021945076124
 40
0.5208224235470107
 40
0.6812251607957349
 40
0.9999999999999999
 40
0.9999999999999999
 40
0.9999999999999999
 40
0.9999999999999999
 10
214.2462890447488
 20
47.549148247388
 30
0.0
 10
214.2278938487883
 20
47.545578576902
 30
0.0
 10
214.1424105089228
 20
47.52899015044444
 30
0.0
 10
213.9408022313556
 20
47.61488169188199
 30
0.0
 10
213.6735199532804
 20
47.75122322063834
 30
0.0
 10
213.3904660521848
 20
47.96234853579767
 30
0.0
 10
213.0108132900562
 20
48.31032468006588
 30
0.0
 10
212.7652054588097
 20
48.65098913893999
 30
0.0
 10
212.6018138462629
 20
48.87761756112965
 30
0.0
  0
ARC
  5
235
330
1F
100
AcDbEntity
  8
0
  6
Continuous
 62
     7
370
    25
100
AcDbCircle
 10
227.3389941377
 20
41.9094733493
 30
0.0
 40
6.527248089809716
100
AcDbArc
 50
197.9681303703
 51
217.5008983932
  0
SPLINE
  5
236
330
1F
100
AcDbEntity
  8
0
  6
Continuous
 62
     7
370
    25
100
AcDbSpline
210
0.0
220
0.0
230
1.0
 70
     8
 71
     3
 72
     8
 73
     4
 74
     0
 42
0.000000001
 43
0.00000001
 40
0.0
 40
0.0
 40
0.0
 40
0.0
 40
1.0
 40
1.0
 40
1.0
 40
1.0
 10
219.6554154570279
 20
39.64951461893595
 30
0.0
 10
220.1472102557798
 20
39.7311649060177
 30
0.0
 10
220.6387903466825
 20
39.81324869350814
 30
0.0
 10
221.130091375735
 20
39.89589591371203
 30
0.0
  0
SPLINE
  5
237
330
1F
100
AcDbEntity
  8
0
  6
Continuous
 62
     7
370
    25
100
AcDbSpline
210
0.0
220
0.0
230
1.0
 70
     8
 71
     3
 72
    10
 73
     6
 74
     0
 42
0.000000001
 43
0.00000001
 40
0.0
 40
0.0
 40
0.0
 40
0.0
 40
0.5
 40
0.5
 40
1.0
 40
1.0
 40
1.0
 40
1.0
 10
221.3752599801012
 20
40.0374287364018
 30
0.0
 10
221.4000922834531
 20
40.05176411998965
 30
0.0
 10
221.4277672809466
 20
40.06435956012574
 30
0.0
 10
221.487892290401
 20
40.08555745826601
 30
0.0
 10
221.5195866905958
 20
40.09391962393266
 30
0.0
 10
221.5527686831775
 20
40.10003107900391
 30
0.0
  0
LINE
  5
238
330
1F
100
AcDbEntity
  8
0
  6
Continuous
 62
     7
370
    25
100
AcDbLine
 10
221.1300913359
 20
39.8958960292
 30
0.0
 11
221.3752602122
 21
40.0374290089
 31
0.0
  0
SPLINE
  5
239
330
1F
100
AcDbEntity
  8
0
  6
Continuous
 62
     7
370
    25
100
AcDbSpline
210
0.0
220
0.0
230
1.0
 70
     8
 71
     3
 72
    12
 73
     8
 74
     0
 42
0.000000001
 43
0.00000001
 40
0.0
 40
0.0
 40
0.0
 40
0.0
 40
0.082103799163821
 40
0.3398977872714904
 40
0.5968485977949805
 40
0.8573328536671763
 40
1.0
 40
1.0
 40
1.0
 40
1.0
 10
213.6210721572261
 20
51.19818738800161
 30
0.0
 10
213.607433317645
 20
51.15122810634078
 30
0.0
 10
213.5509705054268
 20
50.95682351007444
 30
0.0
 10
213.6290953412012
 20
50.52301586000169
 30
0.0
 10
213.85252050497
 20
49.97494324449777
 30
0.0
 10
214.1564706139736
 20
49.51625366704756
 30
0.0
 10
214.3844857746378
 20
49.30053294745544
 30
0.0
 10
214.4651757390399
 20
49.22419373766789
 30
0.0
  0
LINE
  5
23A
330
1F
100
AcDbEntity
  8
0
  6
Continuous
 62
     7
370
    25
100
AcDbLine
 10
241.3740135876
 20
61.1967948499
 30
0.0
 11
242.7734022279
 21
60.3889449834
 31
0.0
  0
SPLINE
  5
23B
330
1F
100
AcDbEntity
  8
0
  6
Continuous
 62
     7
370
    25
100
AcDbSpline
210
0.0
220
0.0
230
1.0
 70
     8
 71
     3
 72
    12
 73
     8
 74
     0
 42
0.000000001
 43
0.00000001
 40
0.0
 40
0.0
 40
0.0
 40
0.0
 40
0.25
 40
0.25
 40
0.5
 40
0.5
 40
1.0
 40
1.0
 40
1.0
 40
1.0
 10
242.773401993793
 20
60.38894483608021
 30
0.0
 10
242.8056459646656
 20
60.3703307879066
 30
0.0
 10
242.8276989671992
 20
60.34608046510919
 30
0.0
 10
242.8485479113642
 20
60.29549260722165
 30
0.0
 10
242.8481667421369
 20
60.26865403878759
 30
0.0
 10
242.8224138092396
 20
60.19141992251878
 30
0.0
 10
242.774462382131
 20
60.14463455169094
 30
0.0
 10
242.7105623329956
 20
60.10774583852348
 30
0.0
  0
SPLINE
  5
23C
330
1F
100
AcDbEntity
  8
0
  6
Continuous
 62
     7
370
    25
100
AcDbSpline
210
0.0
220
0.0
230
1.0
 70
     8
 71
     3
 72
    12
 73
     8
 74
     0
 42
0.000000001
 43
0.00000001
 40
0.0
 40
0.0
 40
0.0
 40
0.0
 40
0.1929159592469479
 40
0.3708564119875694
 40
0.6810279389771821
 40
0.9585499886579762
 40
1.0
 40
1.0
 40
1.0
 40
1.0
 10
212.8930831430598
 20
49.06054071939094
 30
0.0
 10
212.9726383018193
 20
48.94613640583205
 30
0.0
 10
213.1255729830546
 20
48.72620865383077
 30
0.0
 10
213.4504058788215
 20
48.37233735052934
 30
0.0
 10
213.835086835736
 20
48.06839162790805
 30
0.0
 10
214.130652557465
 20
47.90221611602182
 30
0.0
 10
214.256206726223
 20
47.88569537402776
 30
0.0
 10
214.2725223298604
 20
47.88354852473683
 30
0.0
  0
SPLINE
  5
23D
330
1F
100
AcDbEntity
  8
0
  6
Continuous
 62
     7
370
    25
100
AcDbSpline
210
0.0
220
0.0
230
1.0
 70
     8
 71
     3
 72
    17
 73
    13
 74
     0
 42
0.000000001
 43
0.00000001
 40
0.0
 40
0.0
 40
0.0
 40
0.0
 40
0.0289354634270494
 40
0.1765469727681419
 40
0.2609520617652654
 40
0.3523003830620302
 40
0.4561081617616352
 40
0.5447587294861321
 40
0.6761089149952726
 40
0.8084255635886467
 40
0.896865409158924
 40
1.0
 40
1.0
 40
1.0
 40
1.0
 10
213.9364184997794
 20
51.05887407179544
 30
0.0
 10
213.9091472309502
 20
51.08492912403757
 30
0.0
 10
213.7427541829358
 20
51.24390154244247
 30
0.0
 10
213.4549678082469
 20
51.3223934867985
 30
0.0
 10
213.1346941137876
 20
51.32603817519821
 30
0.0
 10
212.8807491063101
 20
51.23498713530913
 30
0.0
 10
212.6722694054763
 20
51.05418681962859
 30
0.0
 10
212.5091749741004
 20
50.76206120272026
 30
0.0
 10
212.4321709432467
 20
50.35227357687225
 30
0.0
 10
212.5075626267504
 20
49.8876770603611
 30
0.0
 10
212.6663075279254
 20
49.44573793820257
 30
0.0
 10
212.8137221187381
 20
49.19534201111124
 30
0.0
 10
212.8930831430598
 20
49.06054071939094
 30
0.0
  0
LINE
  5
23E
330
1F
100
AcDbEntity
  8
0
  6
Continuous
 62
     7
370
    25
100
AcDbLine
 10
238.9755553062
 20
62.5813953437
 30
0.0
 11
238.8248701153
 21
62.3547243208
 31
0.0
  0
LINE
  5
23F
330
1F
100
AcDbEntity
  8
0
  6
Continuous
 62
     7
370
    25
100
AcDbLine
 10
208.7527222837
 20
52.93027315
 30
0.0
 11
209.2531054743
 21
52.6414080827
 31
0.0
  0
SPLINE
  5
240
330
1F
100
AcDbEntity
  8
0
  6
Continuous
 62
     7
370
    25
100
AcDbSpline
210
0.0
220
0.0
230
1.0
 70
     8
 71
     3
 72
     9
 73
     5
 74
     0
 42
0.000000001
 43
0.00000001
 40
0.0
 40
0.0
 40
0.0
 40
0.0
 40
0.7009339503679092
 40
0.9999999999999999
 40
0.9999999999999999
 40
0.9999999999999999
 40
0.9999999999999999
 10
206.9269115865708
 20
58.68765174336073
 30
0.0
 10
206.9238396980519
 20
58.74165572771474
 30
0.0
 10
206.9194571331651
 20
58.81870148120642
 30
0.0
 10
206.9438674572416
 20
58.9083342216207
 30
0.0
 10
206.9511677564334
 20
58.93514033121409
 30
0.0
  0
SPLINE
  5
241
330
1F
100
AcDbEntity
  8
0
  6
Continuous
 62
     7
370
    25
100
AcDbSpline
210
0.0
220
0.0
230
1.0
 70
     8
 71
     3
 72
    10
 73
     6
 74
     0
 42
0.000000001
 43
0.00000001
 40
0.0
 40
0.0
 40
0.0
 40
0.0
 40
0.5
 40
0.5
 40
1.0
 40
1.0
 40
1.0
 40
1.0
 10
206.9674042136845
 20
58.74000188843832
 30
0.0
 10
206.9474781631883
 20
58.6560414144226
 30
0.0
 10
206.9341838990476
 20
58.57059555191121
 30
0.0
 10
206.9169153729068
 20
58.39818208097873
 30
0.0
 10
206.9129919182845
 20
58.31107047471485
 30
0.0
 10
206.9129452764664
 20
58.22405970933094
 30
0.0
  0
SPLINE
  5
242
330
1F
100
AcDbEntity
  8
0
  6
Continuous
 62
     7
370
    25
100
AcDbSpline
210
0.0
220
0.0
230
1.0
 70
     8
 71
     3
 72
    24
 73
    20
 74
     0
 42
0.000000001
 43
0.00000001
 40
0.0
 40
0.0
 40
0.0
 40
0.0
 40
0.2499999999999952
 40
0.2499999999999952
 40
0.3749999999999937
 40
0.3749999999999937
 40
0.4374999999999931
 40
0.4374999999999931
 40
0.468749999999992
 40
0.468749999999992
 40
0.4999999999999909
 40
0.4999999999999909
 40
0.5624999999999933
 40
0.5624999999999933
 40
0.6249999999999958
 40
0.6249999999999958
 40
0.7499999999999981
 40
0.7499999999999981
 40
1.0
 40
1.0
 40
1.0
 40
1.0
 10
206.9511678107162
 20
58.93514023915457
 30
0.0
 10
206.9810088400013
 20
59.04241929571081
 30
0.0
 10
207.0108383800424
 20
59.14830386908149
 30
0.0
 10
207.0555095369137
 20
59.29825191233178
 30
0.0
 10
207.0704623290054
 20
59.34725217509471
 30
0.0
 10
207.0920454672948
 20
59.41040245699745
 30
0.0
 10
207.0991751788244
 20
59.43004264122598
 30
0.0
 10
207.1080268041258
 20
59.44775257071397
 30
0.0
 10
207.1106649013957
 20
59.45146893719965
 30
0.0
 10
207.1138174394407
 20
59.44932058881745
 30
0.0
 10
207.1141974005775
 20
59.44315817975087
 30
0.0
 10
207.1121874753167
 20
59.41451309639814
 30
0.0
 10
207.1076108337183
 20
59.38621209140995
 30
0.0
 10
207.0976794476119
 20
59.32983308126066
 30
0.0
 10
207.0919892618769
 20
59.30036333330462
 30
0.0
 10
207.0744076612583
 20
59.21250891273829
 30
0.0
 10
207.06172678833
 20
59.15328391968895
 30
0.0
 10
207.0224857247097
 20
58.97479061255916
 30
0.0
 10
206.9951822646732
 20
58.85704757838545
 30
0.0
 10
206.9674042136845
 20
58.74000188843834
 30
0.0
  0
ARC
  5
243
330
1F
100
AcDbEntity
  8
0
  6
Continuous
 62
     7
370
    25
100
AcDbCircle
 10
207.6300822411
 20
58.1453930575
 30
0.0
 40
0.7201273031244312
100
AcDbArc
 50
174.7584203609
 51
234.4349513408
  0
ARC
  5
244
330
1F
100
AcDbEntity
  8
0
  6
Continuous
 62
     7
370
    25
100
AcDbCircle
 10
209.1254170085
 20
50.6454953212
 30
0.0
 40
2.215173511102309
100
AcDbArc
 50
122.6235856257
 51
177.1589283586
  0
LINE
  5
245
330
1F
100
AcDbEntity
  8
0
  6
Continuous
 62
     7
370
    25
100
AcDbLine
 10
207.9311781318
 20
52.5111821089
 30
0.0
 11
208.6752649372
 21
52.9407342783
 31
0.0
  0
SPLINE
  5
246
330
1F
100
AcDbEntity
  8
0
  6
Continuous
 62
     7
370
    25
100
AcDbSpline
210
0.0
220
0.0
230
1.0
 70
     8
 71
     3
 72
     8
 73
     4
 74
     0
 42
0.000000001
 43
0.00000001
 40
0.0
 40
0.0
 40
0.0
 40
0.0
 40
0.0001590976915385
 40
0.0001590976915385
 40
0.0001590976915385
 40
0.0001590976915385
 10
208.752722708644
 20
52.93027313308392
 30
0.0
 10
208.7269025796963
 20
52.93375768246382
 30
0.0
 10
208.7010834357618
 20
52.93724466511926
 30
0.0
 10
208.6752652567234
 20
52.94073402615644
 30
0.0
  0
ARC
  5
247
330
1F
100
AcDbEntity
  8
0
  6
Continuous
 62
     7
370
    25
100
AcDbCircle
 10
208.2600369585
 20
51.1401540782
 30
0.0
 40
1.353479563765867
100
AcDbArc
 50
122.9135810547
 51
170.975405912
  0
LINE
  5
248
330
1F
100
AcDbEntity
  8
0
  6
Continuous
 62
     7
370
    25
100
AcDbLine
 10
207.9311781318
 20
52.5111821089
 30
0.0
 11
207.524592094
 21
52.2763881125
 31
0.0
  0
SPLINE
  5
249
330
1F
100
AcDbEntity
  8
0
  6
Continuous
 62
     7
370
    25
100
AcDbSpline
210
0.0
220
0.0
230
1.0
 70
     8
 71
     3
 72
    10
 73
     6
 74
     0
 42
0.000000001
 43
0.00000001
 40
0.0
 40
0.0
 40
0.0
 40
0.0
 40
0.5
 40
0.5
 40
1.0
 40
1.0
 40
1.0
 40
1.0
 10
206.9674042136845
 20
50.55534627273435
 30
0.0
 10
206.9474781631883
 20
50.59386783424998
 30
0.0
 10
206.9341838990476
 20
50.62583116144307
 30
0.0
 10
206.9169153729068
 20
50.6882745849399
 30
0.0
 10
206.9129919182845
 20
50.7186979621521
 30
0.0
 10
206.9129452764664
 20
50.75058865745166
 30
0.0
  0
LINE
  5
24A
330
1F
100
AcDbEntity
  8
0
  6
Continuous
 62
     7
370
    25
100
AcDbLine
 10
206.9233119823
 20
51.3524587355
 30
0.0
 11
206.9269115866
 21
51.2168224747
 31
0.0
  0
LINE
  5
24B
330
1F
100
AcDbEntity
  8
0
  6
Continuous
 62
     7
370
    25
100
AcDbLine
 10
207.0223432469
 20
50.4600050401
 30
0.0
 11
206.9674041713
 21
50.5553464504
 31
0.0
  0
LWPOLYLINE
  5
24C
330
1F
100
AcDbEntity
  8
0
  6
Continuous
 62
     7
370
    18
100
AcDbPolyline
 90
       28
 70
   128
 43
0.0
 10
253.0233768328
 20
25.1578449552
 10
253.0757923658
 20
25.7059487988
 10
253.2302124919
 20
26.2850214775
 10
253.4783138669
 20
26.863845915
 10
253.8067194763
 20
27.411216346
 10
254.1977263267
 20
27.8976249542
 10
254.6302537497
 20
28.2968484896
 10
255.0809853186
 20
28.5873651883
 10
255.525622058
 20
28.753513506
 10
255.9401922894
 20
28.786335728
 10
256.3023469878
 20
28.6840624532
 10
256.5925629426
 20
28.4522076337
 10
256.795193795
 20
28.1032704223
 10
256.8993156086
 20
27.6560619414
 10
256.8993156086
 20
27.1346916251
 10
256.795193795
 20
26.567266657
 10
256.5925629426
 20
25.9843768434
 10
256.3023469878
 20
25.4174458146
 10
255.9401922894
 20
24.8970376253
 10
255.525622058
 20
24.4512072466
 10
255.0809853186
 20
24.1039889122
 10
254.6302537497
 20
23.8741020187
 10
254.1977263267
 20
23.7739400211
 10
253.8067194763
 20
23.8089017292
 10
253.4783138669
 20
23.9771031144
 10
253.2302124919
 20
24.2694758016
 10
253.0757923658
 20
24.6702587978
 10
253.0233768328
 20
25.1578449552
  0
LWPOLYLINE
  5
24D
330
1F
100
AcDbEntity
  8
0
  6
Continuous
 62
     7
370
    18
100
AcDbPolyline
 90
       12
 70
   128
 43
0.0
 10
252.6698253599
 20
25.1578434345
 10
252.7194210054
 20
25.7130707986
 10
252.8658878894
 20
26.2995977105
 10
253.1023778076
 20
26.8899990037
 10
253.4178324808
 20
27.4566679661
 10
253.7975018289
 20
27.9731081276
 10
254.2236328091
 20
28.415171039
 10
254.6762998403
 20
28.7621863367
 10
255.1343373019
 20
28.9979282992
 10
255.576327351
 20
29.1113735548
 10
255.9816035437
 20
29.0972179132
 10
256.3092366804
 20
28.9698303587
  0
ARC
  5
24E
330
1F
100
AcDbEntity
  8
0
  6
Continuous
 62
     7
370
    18
100
AcDbCircle
 10
254.1655666346
 20
25.0020724489
 30
0.0
 40
1.50383062904365
100
AcDbArc
 50
174.0544783178
 51
232.3371110404
  0
LWPOLYLINE
  5
24F
330
1F
100
AcDbEntity
  8
0
  6
Continuous
 62
     7
370
    18
100
AcDbPolyline
 90
       19
 70
   128
 43
0.0
 10
268.7350291689
 20
35.1073302775
 10
268.7865622522
 20
35.2655110391
 10
269.0346629687
 20
35.8443350964
 10
269.3630685781
 20
36.3917055274
 10
269.7540754285
 20
36.8781141356
 10
270.1866028515
 20
37.277337671
 10
270.6373350789
 20
37.5678547499
 10
271.0819711598
 20
37.7340026874
 10
271.4965413912
 20
37.7668249094
 10
271.8586967481
 20
37.6645520148
 10
272.1489120444
 20
37.432696815
 10
272.3515428968
 20
37.0837596037
 10
272.4556647104
 20
36.6365511228
 10
272.4556647104
 20
36.1151808064
 10
272.3515428968
 20
35.5477558384
 10
272.1489120444
 20
34.9648660247
 10
271.8586967481
 20
34.3979353762
 10
271.4965413912
 20
33.8775268067
 10
271.2576523953
 20
33.6046042617
  0
LWPOLYLINE
  5
250
330
1F
100
AcDbEntity
  8
0
  6
Continuous
 62
     7
370
    18
100
AcDbPolyline
 90
       10
 70
   128
 43
0.0
 10
268.4243818706
 20
35.2866626034
 10
268.6587269094
 20
35.8704881851
 10
268.9741815826
 20
36.4371571475
 10
269.3538509307
 20
36.953597309
 10
269.7799819109
 20
37.3956602204
 10
270.2326489421
 20
37.7426755181
 10
270.6906864037
 20
37.9784174805
 10
271.1326771113
 20
38.0918631164
 10
271.5379526455
 20
38.0777070946
 10
271.8655857822
 20
37.9503195401
  0
LWPOLYLINE
  5
251
330
1F
100
AcDbEntity
  8
0
  6
Continuous
 62
     7
370
    18
100
AcDbPolyline
 90
       35
 70
   128
 43
0.0
 10
276.9235859374
 20
26.015073347
 10
276.8730186095
 20
26.616045156
 10
276.7230387198
 20
27.1381679074
 10
276.4787536102
 20
27.5636610717
 10
276.1484820149
 20
27.8780352918
 10
275.743471051
 20
28.0705847613
 10
275.2775129453
 20
28.1347526158
 10
274.7664751631
 20
28.0683532217
 10
274.2277606074
 20
27.8736483928
 10
273.6797145172
 20
27.5572681193
 10
273.1409999615
 20
27.1299863615
 10
272.6299621793
 20
26.6063540914
 10
272.1640040736
 20
26.0042024594
 10
271.7589931096
 20
25.3440372844
 10
271.4287215143
 20
24.6483395971
 10
271.1844364047
 20
23.9408008488
 10
271.034456515
 20
23.2455150026
 10
270.9838891872
 20
22.5861593996
 10
271.034456515
 20
21.9851875906
 10
271.1844364047
 20
21.4630648392
 10
271.4287215143
 20
21.0375716748
 10
271.7589931096
 20
20.7231974548
 10
272.1640040736
 20
20.5306479852
 10
272.6299621793
 20
20.4664801308
 10
273.1409999615
 20
20.5328795248
 10
273.6797145172
 20
20.7275843537
 10
274.2277606074
 20
21.0439646273
 10
274.7664751631
 20
21.471246385
 10
275.2775129453
 20
21.9948786551
 10
275.743471051
 20
22.5970302871
 10
276.1484820149
 20
23.2571954621
 10
276.4787536102
 20
23.9528931494
 10
276.7230387198
 20
24.6604318978
 10
276.8730186095
 20
25.3557177439
 10
276.9235859374
 20
26.015073347
  0
LWPOLYLINE
  5
252
330
1F
100
AcDbEntity
  8
0
  6
Continuous
 62
     7
370
    18
100
AcDbPolyline
 90
       19
 70
   128
 43
0.0
 10
271.3649049295
 20
20.6078761296
 10
271.1673308758
 20
20.7772006095
 10
270.8747416912
 20
21.1737933971
 10
270.6742962187
 20
21.6748209378
 10
270.5724365055
 20
22.2641796355
 10
270.5724365055
 20
22.9229270028
 10
270.6742962187
 20
23.6298904221
 10
270.8747416912
 20
24.3623473792
 10
271.1673308758
 20
25.0967564487
 10
271.5426592631
 20
25.8095126992
 10
271.9886637995
 20
26.4777080329
 10
272.4910092058
 20
27.0798656138
 10
273.0335499462
 20
27.5966318453
 10
273.5988481944
 20
28.0113974422
 10
274.1687348515
 20
28.3108313769
 10
274.7248932634
 20
28.485309488
 10
275.2494480832
 20
28.5292243857
 10
275.7255395426
 20
28.4411643079
 10
275.894010045
 20
28.371861395
  0
LWPOLYLINE
  5
253
330
1F
100
AcDbEntity
  8
0
  6
Continuous
 62
     7
370
    18
100
AcDbPolyline
 90
       32
 70
   128
 43
0.0
 10
250.5485046686
 20
26.3008151305
 10
250.5980489476
 20
27.4757634815
 10
250.7461891932
 20
28.6962371977
 10
250.9914529
 20
29.9501064639
 10
251.3314034532
 20
31.2249103736
 10
251.7626605438
 20
32.5079784112
 10
252.2809396814
 20
33.7865591568
 10
252.8810897308
 20
35.0479465194
 10
253.5571455958
 20
36.2796029267
 10
254.3023888053
 20
37.4692885985
 10
255.1094127094
 20
38.6051794119
 10
255.970196565
 20
39.6759857172
 10
256.8761852206
 20
40.6710667797
 10
257.8183753849
 20
41.5805322935
 10
258.7874023903
 20
42.3953434198
 10
259.7736360936
 20
43.1074023702
 10
260.7672745948
 20
43.7096323648
 10
261.758442731
 20
44.1960481805
 10
262.7372899521
 20
44.5618156946
 10
263.6940879507
 20
44.8032998805
 10
264.6193275086
 20
44.9181009442
 10
265.5038133689
 20
44.9050771532
 10
266.3387549503
 20
44.7643576602
 10
267.1158545918
 20
44.4973424957
 10
267.8273882251
 20
44.1066844987
 10
268.4662857162
 20
43.5962664957
 10
269.026196062
 20
42.9711602295
 10
269.5015552198
 20
42.2375795841
 10
269.8876387914
 20
41.4028148002
 10
270.1806100965
 20
40.4751619374
 10
270.3775570512
 20
39.4638405506
 10
270.4531414971
 20
38.7659646478
  0
LWPOLYLINE
  5
254
330
1F
100
AcDbEntity
  8
0
  6
Continuous
 62
     7
370
    18
100
AcDbPolyline
 90
       20
 70
   128
 43
0.0
 10
263.3341462911
 20
22.6371584486
 10
262.7372899521
 20
22.1126865051
 10
261.758442731
 20
21.3483010737
 10
260.7672745948
 20
20.6903385181
 10
259.7736360936
 20
20.1453379188
 10
258.7874023903
 20
19.7187156728
 10
257.8183753849
 20
19.4147120333
 10
256.8761852206
 20
19.2363479385
 10
255.970196565
 20
19.1853967647
 10
255.1094127094
 20
19.2623631847
 10
254.3023888053
 20
19.4664840319
 10
253.5571455958
 20
19.7957302088
 10
252.8810897308
 20
20.246829129
 10
252.2809396814
 20
20.8152979938
 10
251.7626605438
 20
21.4954863843
 10
251.3314034532
 20
22.2806355836
 10
250.9914529
 20
23.1629409391
 10
250.7461891932
 20
24.133634757
 10
250.5980489476
 20
25.1830693863
 10
250.5485046686
 20
26.3008151305
  0
LWPOLYLINE
  5
255
330
1F
100
AcDbEntity
  8
0
  6
Continuous
 62
     7
370
    18
100
AcDbPolyline
 90
       23
 70
   128
 43
0.0
 10
249.9828202046
 20
26.3008151305
 10
250.0321912864
 20
27.4898238863
 10
250.1798290626
 20
28.7243844643
 10
250.4243130526
 20
29.992608111
 10
250.7632869843
 20
31.2822803025
 10
251.193487111
 20
32.5809808947
 10
251.7107698708
 20
33.8762025631
 10
252.3101546914
 20
35.1554730428
 10
252.9858681133
 20
36.406470335
 10
253.731403058
 20
37.6171474168
 10
254.5395800735
 20
38.7758455448
 10
255.4026148343
 20
39.8714039456
 10
256.3121965087
 20
40.8932734972
 10
257.259565467
 20
41.8316125405
 10
258.2355977396
 20
42.677385066
 10
259.2308937562
 20
43.422443881
 10
260.2358682368
 20
44.0596152025
 10
261.2408427174
 20
44.5827627182
 10
262.236138734
 20
44.9868482238
 10
263.2121710066
 20
45.2679785735
 10
264.1595399649
 20
45.423448447
 10
265.0691216393
 20
45.4517595429
 10
265.3442220221
 20
45.4344529707
  0
ARC
  5
256
330
1F
100
AcDbEntity
  8
0
  6
Continuous
 62
     7
370
    18
100
AcDbCircle
 10
258.7192645354
 20
25.8963795118
 30
0.0
 40
8.745800575928245
100
AcDbArc
 50
177.3495026948
 51
212.8813936052
  0
LWPOLYLINE
  5
257
330
1F
100
AcDbEntity
  8
0
  6
Continuous
 62
     7
370
    18
100
AcDbPolyline
 90
       23
 70
   128
 43
0.0
 10
230.1131191623
 20
37.771349385
 10
230.1624902441
 20
38.9603581408
 10
230.3101280202
 20
40.1949187188
 10
230.5546120103
 20
41.4631423656
 10
230.8935859419
 20
42.7528145571
 10
231.3237860687
 20
44.0515151493
 10
231.8410688284
 20
45.3467368177
 10
232.4404536491
 20
46.6260072974
 10
233.1161670709
 20
47.8770045895
 10
233.8617020157
 20
49.0876816713
 10
234.6698790311
 20
50.2463797994
 10
235.5329137919
 20
51.3419382001
 10
236.4424954664
 20
52.3638077518
 10
237.3898644247
 20
53.3021467951
 10
238.3658966973
 20
54.1479193206
 10
239.3611927139
 20
54.8929781355
 10
240.3661671945
 20
55.5301494571
 10
241.371141675
 20
56.0532969727
 10
242.3664376916
 20
56.4573824783
 10
243.3424699643
 20
56.738512828
 10
244.2898389226
 20
56.8939827015
 10
245.199420597
 20
56.9222937975
 10
245.9802347589
 20
56.8384914757
  0
ARC
  5
258
330
1F
100
AcDbEntity
  8
0
  6
Continuous
 62
     7
370
    18
100
AcDbCircle
 10
238.6025528087
 20
37.334022032
 30
0.0
 40
8.500690492580636
100
AcDbArc
 50
177.0510539268
 51
216.6612343358
  0
LWPOLYLINE
  5
259
330
1F
100
AcDbEntity
  8
0
  6
Continuous
 62
     7
370
    18
100
AcDbPolyline
 90
       22
 70
   128
 43
0.0
 10
263.4532029064
 20
25.178254553
 10
263.5033540341
 20
25.979995417
 10
263.6526865745
 20
26.821729699
 10
263.897865329
 20
27.6846547918
 10
264.2334128537
 20
28.5494939501
 10
264.6518342533
 20
29.3969286029
 10
265.143781818
 20
30.2080280935
 10
265.6982669095
 20
30.9646738089
 10
266.3029029641
 20
31.6499637222
 10
266.9441833985
 20
32.2485891768
 10
267.6077832234
 20
32.7471785867
 10
268.2788786019
 20
33.1345937024
 10
268.9424784268
 20
33.4021803417
 10
269.5837588612
 20
33.5439615167
 10
270.1883949158
 20
33.5567695326
 10
270.7428800072
 20
33.4403186769
 10
271.2348275719
 20
33.1972097545
 10
271.6532489716
 20
32.8328741667
 10
271.9887964962
 20
32.3554499339
 10
272.2339752507
 20
31.7756022057
 10
272.3833077912
 20
31.1062836049
 10
272.4334473944
 20
30.3742730138
  0
LWPOLYLINE
  5
25A
330
1F
100
AcDbEntity
  8
0
  6
Continuous
 62
     7
370
    18
100
AcDbPolyline
 90
       12
 70
   128
 43
0.0
 10
267.9338129824
 20
22.5798330067
 10
267.6077832234
 20
22.4061068511
 10
266.9441833985
 20
22.1385202118
 10
266.3029029641
 20
21.9967390368
 10
265.6982669095
 20
21.9839310209
 10
265.143781818
 20
22.1003818766
 10
264.6518342533
 20
22.343490799
 10
264.2334128537
 20
22.7078263868
 10
263.897865329
 20
23.1852506196
 10
263.6526865745
 20
23.7650983478
 10
263.5033540341
 20
24.4344169486
 10
263.4532029064
 20
25.178254553
  0
LWPOLYLINE
  5
25B
330
1F
100
AcDbEntity
  8
0
  6
Continuous
 62
     7
370
    18
100
AcDbPolyline
 90
       17
 70
   128
 43
0.0
 10
262.8875177838
 20
25.1782541729
 10
262.938381786
 20
26.010120042
 10
263.0898891697
 20
26.8829822425
 10
263.3388107619
 20
27.7782371133
 10
263.6798413281
 20
28.6768038073
 10
264.1057128417
 20
29.5595314141
 10
264.6073479254
 20
30.4076054126
 10
265.174055603
 20
31.2029510782
 10
265.7937573449
 20
31.9286172106
 10
266.4532450532
 20
32.5691366635
 10
267.1384630833
 20
33.1108587359
 10
267.8348072229
 20
33.5422369791
 10
268.5274361013
 20
33.854077791
 10
269.2015873733
 20
34.0397343529
 10
269.842892997
 20
34.0952498509
 10
270.4376841405
 20
34.0194410992
 10
270.936236248
 20
33.8333430798
  0
ARC
  5
25C
330
1F
100
AcDbEntity
  8
0
  6
Continuous
 62
     7
370
    18
100
AcDbCircle
 10
266.2208719219
 20
24.8248602349
 30
0.0
 40
3.352034767882717
100
AcDbArc
 50
173.9482493235
 51
234.7395692266
  0
LWPOLYLINE
  5
25D
330
1F
100
AcDbEntity
  8
0
  6
Continuous
 62
     7
370
    18
100
AcDbPolyline
 90
       15
 70
   128
 43
0.0
 10
265.3623911005
 20
26.2804054375
 10
265.4119831239
 20
26.8904764352
 10
265.5588535311
 20
27.5343605573
 10
265.797357937
 20
28.1873134416
 10
266.1183308838
 20
28.8242428588
 10
266.5094376683
 20
29.4206717116
 10
266.9556479998
 20
29.9536795379
 10
267.4398145319
 20
30.4027834527
 10
267.9433309126
 20
30.7507243104
 10
268.4468472934
 20
30.9841310916
 10
268.9310138254
 20
31.0940339559
 10
269.377224157
 20
31.0762096124
 10
269.7683309415
 20
30.9313430412
 10
270.0893038883
 20
30.6650011002
 10
270.119120808
 20
30.6294863964
  0
ARC
  5
25E
330
1F
100
AcDbEntity
  8
0
  6
Continuous
 62
     7
370
    18
100
AcDbCircle
 10
266.9577313046
 20
26.0216807022
 30
0.0
 40
1.616183422640822
100
AcDbArc
 50
170.7882414353
 51
255.58717025
  0
LWPOLYLINE
  5
25F
330
1F
100
AcDbEntity
  8
0
  6
Continuous
 62
     7
370
    18
100
AcDbPolyline
 90
        3
 70
   128
 43
0.0
 10
269.3256986469
 20
30.7238153355
 10
269.5196882428
 20
30.5667643024
 10
269.6608372153
 20
30.3947999419
  0
ARC
  5
260
330
1F
100
AcDbEntity
  8
0
  6
Continuous
 62
     7
370
    18
100
AcDbCircle
 10
266.6092676423
 20
26.1321902403
 30
0.0
 40
1.164336824927536
100
AcDbArc
 50
240.4830405286
 51
266.0719698146
  0
LWPOLYLINE
  5
261
330
1F
100
AcDbEntity
  8
0
  6
Continuous
 62
     7
370
    18
100
AcDbPolyline
 90
        3
 70
   128
 43
0.0
 10
255.5604564283
 20
29.4023502088
 10
255.608963829
 20
30.1051809557
 10
255.7554857014
 20
30.9700318623
  0
LWPOLYLINE
  5
262
330
1F
100
AcDbEntity
  8
0
  6
Continuous
 62
     7
370
    18
100
AcDbPolyline
 90
       13
 70
   128
 43
0.0
 10
258.3949062416
 20
36.0347004197
 10
258.4183178281
 20
36.0606480685
 10
259.0721430415
 20
36.7196988224
 10
259.7540187113
 20
37.284626591
 10
260.4500637893
 20
37.7439316736
 10
261.1461088673
 20
38.0882631322
 10
261.8279845371
 20
38.3106122543
 10
262.4818097505
 20
38.4064520235
 10
263.0942744175
 20
38.3738318182
 10
263.6529104797
 20
38.2134156468
 10
264.1463460257
 20
37.9284687681
 10
264.5645356177
 20
37.5247921754
 10
264.5955181612
 20
37.4862767658
  0
ARC
  5
263
330
1F
100
AcDbEntity
  8
0
  6
Continuous
 62
     7
370
    18
100
AcDbCircle
 10
258.1827487951
 20
28.1719840341
 30
0.0
 40
2.383839741333929
100
AcDbArc
 50
232.5563061317
 51
262.106460925
  0
LWPOLYLINE
  5
264
330
1F
100
AcDbEntity
  8
0
  6
Continuous
 62
     7
370
    18
100
AcDbPolyline
 90
       16
 70
   128
 43
0.0
 10
256.3113591694
 20
29.1373239981
 10
256.312500427
 20
29.2321632055
 10
256.3785633071
 20
30.0586629036
 10
256.5441984462
 20
30.9228853953
 10
256.8058121667
 20
31.8060793694
 10
257.157727815
 20
32.689082169
 10
257.5923105555
 20
33.5527350282
 10
258.1001303599
 20
34.3782993151
 10
258.6701696141
 20
35.1478626947
 10
259.2900598644
 20
35.8447275132
 10
259.9463512446
 20
36.4537737507
 10
260.6248040058
 20
36.9617873956
 10
261.3106977849
 20
37.357745446
 10
261.9891505461
 20
37.6330566857
 10
262.6454419264
 20
37.7817483469
 10
263.1760504989
 20
37.8060547588
  0
LWPOLYLINE
  5
265
330
1F
100
AcDbEntity
  8
0
  6
Continuous
 62
     7
370
    18
100
AcDbPolyline
 90
       18
 70
   128
 43
0.0
 10
256.0109044938
 20
29.290910083
 10
256.0604497606
 20
30.1012090631
 10
256.2080289263
 20
30.9514413022
 10
256.4504971116
 20
31.8234859302
 10
256.7826863884
 20
32.698756483
 10
257.1975164156
 20
33.5585984248
 10
257.6861465624
 20
34.3846856195
 10
258.2381616181
 20
35.1594112867
 10
258.8417968496
 20
35.8662635538
 10
259.4841868492
 20
36.4901769095
 10
260.1516399827
 20
37.017854519
 10
260.8299307625
 20
37.4380487956
 10
261.5046025521
 20
37.7418045895
 10
262.1612758882
 20
37.9226478255
 10
262.7859549095
 20
37.9767243768
 10
263.3653257394
 20
37.9028810626
 10
263.8870401744
 20
37.7026925342
 10
263.9226796154
 20
37.6831610733
  0
LWPOLYLINE
  5
266
330
1F
100
AcDbEntity
  8
0
  6
Continuous
 62
     7
370
    18
100
AcDbPolyline
 90
        3
 70
   128
 43
0.0
 10
257.3009698066
 20
26.3239622647
 10
257.1975164156
 20
26.3932547042
 10
256.8479191732
 20
26.7009738356
  0
LINE
  5
267
330
1F
100
AcDbEntity
  8
0
  6
Continuous
 62
     7
370
    18
100
AcDbLine
 10
256.0127368939
 20
29.1412542718
 30
0.0
 11
256.0109044938
 21
29.290910083
 31
0.0
  0
LWPOLYLINE
  5
268
330
1F
100
AcDbEntity
  8
0
  6
Continuous
 62
     7
370
    18
100
AcDbPolyline
 90
        3
 70
   128
 43
0.0
 10
257.2161440056
 20
26.4390220731
 10
257.040017594
 20
26.622878032
 10
256.875884595
 20
26.8354365374
  0
LWPOLYLINE
  5
269
330
1F
100
AcDbEntity
  8
0
  6
Continuous
 62
     7
370
    18
100
AcDbPolyline
 90
       17
 70
   128
 43
0.0
 10
256.2654520317
 20
28.9953649281
 10
256.2637987557
 20
29.192239616
 10
256.3211945316
 20
30.0205566059
 10
256.4800193326
 20
30.8888209315
 10
256.7367650921
 20
31.7778532459
 10
257.0857600956
 20
32.6680143666
 10
257.5192947624
 20
33.5396407775
 10
258.0277928677
 20
34.373478837
 10
258.6000214531
 20
35.1511084312
 10
259.2233400861
 20
35.8553524599
 10
259.8839798357
 20
36.4706538571
 10
260.5673470677
 20
36.9834205518
 10
261.2583463777
 20
37.3823259625
 10
261.9417136096
 20
37.6585582795
 10
262.6023533592
 20
37.8060153014
 10
263.2256719922
 20
37.8214396479
 10
263.7317675625
 20
37.7256355276
  0
LWPOLYLINE
  5
26A
330
1F
100
AcDbEntity
  8
0
  6
Continuous
 62
     7
370
    18
100
AcDbPolyline
 90
       24
 70
   128
 43
0.0
 10
225.4992463624
 20
41.6594930656
 10
225.5496032853
 20
42.7981363667
 10
225.7001221937
 20
43.9824451914
 10
225.9491540921
 20
45.1994440113
 10
226.2939699721
 20
46.4357992211
 10
226.730793081
 20
47.6779652399
 10
227.2548364587
 20
48.9123321322
 10
227.8603589141
 20
50.1253763646
 10
228.54072627
 20
51.3038071894
 10
229.288484461
 20
52.4347137867
 10
230.095440535
 20
53.5057055626
 10
230.9527535318
 20
54.5050490243
 10
231.8510306312
 20
55.421794007
 10
232.7804297209
 20
56.2458975257
 10
233.7307684679
 20
56.9683300865
 10
234.6916347075
 20
57.5811766755
 10
235.6525009471
 20
58.0777226327
 10
236.6028396942
 20
58.4525278339
 10
237.5322387838
 20
58.7014856633
 10
238.4305158832
 20
58.8218693436
 10
239.2878288801
 20
58.812358399
 10
240.094784954
 20
58.6730582743
 10
240.842543145
 20
58.4054949076
 10
240.9539254118
 20
58.3520573754
  0
LWPOLYLINE
  5
26B
330
1F
100
AcDbEntity
  8
0
  6
Continuous
 62
     7
370
    18
100
AcDbPolyline
 90
        9
 70
   128
 43
0.0
 10
228.1921632717
 20
35.707510643
 10
227.8603589141
 20
35.9196922925
 10
227.2548364587
 20
36.4336151791
 10
226.730793081
 20
37.0629344663
 10
226.2939699721
 20
37.8007552589
 10
225.9491540921
 20
38.6389945278
 10
225.7001221937
 20
39.5684672379
 10
225.5496032853
 20
40.5789906302
 10
225.4992463624
 20
41.6594930656
  0
LINE
  5
26C
330
1F
100
AcDbEntity
  8
0
  6
Continuous
 62
     7
370
    18
100
AcDbLine
 10
223.8869450144
 20
44.8113689274
 30
0.0
 11
224.2395955984
 21
46.1535144367
 31
0.0
  0
LWPOLYLINE
  5
26D
330
1F
100
AcDbEntity
  8
0
  6
Continuous
 62
     7
370
    18
100
AcDbPolyline
 90
       13
 70
   128
 43
0.0
 10
230.0077276749
 20
56.2525694451
 10
230.2102860874
 20
56.4677131473
 10
231.226510813
 20
57.4670194542
 10
232.2729882502
 20
58.3662135912
 10
233.339543804
 20
59.1565534235
 10
234.4158077752
 20
59.8303545378
 10
235.4913160049
 20
60.3810665935
 10
236.5556118455
 20
60.8033337107
 10
237.5983474328
 20
61.0930514123
 10
238.6093844741
 20
61.2474027544
 10
239.5788930402
 20
61.2648864601
 10
240.4974473836
 20
61.1453334502
 10
241.3561163236
 20
60.8899050292
  0
LWPOLYLINE
  5
26E
330
1F
100
AcDbEntity
  8
0
  6
Continuous
 62
     7
370
    18
100
AcDbPolyline
 90
       21
 70
   128
 43
0.0
 10
223.4532625043
 20
44.8059313608
 10
223.8163971169
 20
46.205463458
 10
224.2787480451
 20
47.6154589601
 10
224.8358661621
 20
49.0223478243
 10
225.4823902572
 20
50.4125924131
 10
226.2120970847
 20
51.7728103042
 10
227.0179652431
 20
53.0899138295
 10
227.8922390538
 20
54.3512264204
 10
228.8265039642
 20
55.5446090267
 10
229.811769854
 20
56.6585781717
 10
230.8385543409
 20
57.6824118381
 10
231.8969759644
 20
58.6062580156
 10
232.9768485229
 20
59.4212256625
 10
234.0677798135
 20
60.1194713654
 10
235.1592709493
 20
60.6942749245
 10
236.2408175279
 20
61.1401046014
 10
237.3020112946
 20
61.4526712452
 10
238.3326393765
 20
61.6289658069
 10
239.3227834347
 20
61.6672914839
 10
240.2629140011
 20
61.5672801556
 10
241.1439846496
 20
61.3298935159
  0
LWPOLYLINE
  5
26F
330
1F
100
AcDbEntity
  8
0
  6
Continuous
 62
     7
370
    18
100
AcDbPolyline
 90
       25
 70
   128
 43
0.0
 10
225.0042717979
 20
44.0929236137
 10
225.2641868028
 20
45.3555250411
 10
225.6232588544
 20
46.637957261
 10
226.0775643443
 20
47.926206451
 10
226.6221391641
 20
49.2061950077
 10
227.2510313885
 20
50.4639343944
 10
227.9573691056
 20
51.6856817904
 10
228.7334335152
 20
52.8580860928
 10
229.5707438811
 20
53.9683342975
 10
230.4601507153
 20
55.0042950283
 10
231.3919345593
 20
55.9546478059
 10
232.3559131625
 20
56.8090065181
 10
233.3415522824
 20
57.558035095
 10
234.338081259
 20
58.1935492098
 10
235.3346102355
 20
58.7086029608
 10
236.3202493554
 20
59.0975690888
 10
237.2842279587
 20
59.3561963813
 10
238.2160118026
 20
59.4816583306
 10
239.1054186368
 20
59.4725848726
 10
239.9427290027
 20
59.3290746388
 10
240.7187934123
 20
59.0526952314
 10
241.4251311294
 20
58.6464680047
 10
242.0540233539
 20
58.1148321248
 10
242.5985981737
 20
57.4635962716
 10
242.6577282265
 20
57.3781181164
  0
ARC
  5
270
330
1F
100
AcDbEntity
  8
0
  6
Continuous
 62
     7
370
    18
100
AcDbCircle
 10
238.4747855004
 20
55.1027875274
 30
0.0
 40
6.556783639137233
100
AcDbArc
 50
16.5367277424
 51
49.758228079
  0
LWPOLYLINE
  5
271
330
1F
100
AcDbEntity
  8
0
  6
Continuous
 62
     7
370
    18
100
AcDbPolyline
 90
       10
 70
   128
 43
0.0
 10
229.6587850257
 20
34.8608481688
 10
229.5707438811
 20
34.8679110541
 10
228.7334335152
 20
35.0114212879
 10
227.9573691056
 20
35.2878006953
 10
227.2510313885
 20
35.694027922
 10
226.6221391641
 20
36.225663802
 10
226.0775643443
 20
36.8768996551
 10
225.6232588544
 20
37.6406188914
 10
225.2641868028
 20
38.508475345
 10
225.0042717979
 20
39.4709852954
  0
LWPOLYLINE
  5
272
330
1F
100
AcDbEntity
  8
0
  6
Continuous
 62
     7
370
    18
100
AcDbPolyline
 90
       26
 70
   128
 43
0.0
 10
214.1325049221
 20
45.9762509303
 10
214.1829336263
 20
47.2278327549
 10
214.3337640262
 20
48.526304426
 10
214.5836289835
 20
49.8599058934
 10
214.9302663976
 20
51.2165604582
 10
215.3705369869
 20
52.5839819962
 10
215.9004539231
 20
53.9497867435
 10
216.5152170751
 20
55.3016062214
 10
217.2092604248
 20
56.6271971196
 10
217.9762975063
 20
57.914556121
 10
218.8093826506
 20
59.1520233197
 10
219.7009709135
 20
60.3283928623
 10
220.6429882098
 20
61.4330112312
 10
221.6269034249
 20
62.4558751474
 10
222.6438057928
 20
63.3877203474
 10
223.6844862274
 20
64.2201088386
 10
224.7395203392
 20
64.9455011594
 10
225.7993534706
 20
65.557329803
 10
226.8543875824
 20
66.0500539394
 10
227.8950680169
 20
66.4192095023
 10
228.9119703849
 20
66.6614547851
 10
229.8958855999
 20
66.7745951957
 10
230.8379028963
 20
66.7576068463
 10
231.7294911591
 20
66.6106432005
 10
232.5625763035
 20
66.3350356357
 10
233.1437971495
 20
66.0457344745
  0
LWPOLYLINE
  5
273
330
1F
100
AcDbEntity
  8
0
  6
Continuous
 62
     7
370
    18
100
AcDbPolyline
 90
       10
 70
   128
 43
0.0
 10
217.3950766602
 20
38.7651953541
 10
217.2092604248
 20
38.8776510306
 10
216.5152170751
 20
39.4019165338
 10
215.9004539231
 20
40.0439455848
 10
215.3705369869
 20
40.7979212607
 10
214.9302663976
 20
41.6570171963
 10
214.5836289835
 20
42.6134527217
 10
214.3337640262
 20
43.6585662501
 10
214.1829336263
 20
44.7828928482
 10
214.1325049221
 20
45.9762509303
  0
LWPOLYLINE
  5
274
330
1F
100
AcDbEntity
  8
0
  6
Continuous
 62
     7
370
    18
100
AcDbPolyline
 90
       16
 70
   128
 43
0.0
 10
221.8010783838
 20
46.7381510121
 10
222.1279581456
 20
48.0207908171
 10
222.5506989387
 20
49.3140586019
 10
223.0648022456
 20
50.6041907905
 10
223.6647962199
 20
51.8774558376
 10
224.3442949556
 20
53.1203028938
 10
225.0960663168
 20
54.3195032449
 10
225.9121096465
 20
55.4622951732
 10
226.7837390716
 20
56.5365137985
 10
227.7016783344
 20
57.5307287131
 10
228.6561574331
 20
58.4343560458
 10
229.6370178248
 20
59.2377792707
 10
230.6338202208
 20
59.9324479383
 10
231.635955469
 20
60.5109683029
 10
232.632757865
 20
60.9671831845
 10
232.9471414155
 20
61.0858914102
  0
LWPOLYLINE
  5
275
330
1F
100
AcDbEntity
  8
0
  6
Continuous
 62
     7
370
    18
100
AcDbPolyline
 90
       18
 70
   128
 43
0.0
 10
221.3752602122
 20
47.3862959995
 10
221.7454419096
 20
48.6873668828
 10
222.2089110464
 20
49.9935119466
 10
222.760918858
 20
51.2913509118
 10
223.39581174
 20
52.5675887557
 10
224.1070859067
 20
53.809152591
 10
224.8874539047
 20
55.0033228386
 10
225.7289229792
 20
56.1378678228
 10
226.6228727826
 20
57.2011646769
 10
227.5601455951
 20
58.18232139
 10
228.5311403315
 20
59.0712865892
 10
229.525910171
 20
59.858953809
 10
230.5342647548
 20
60.5372547103
 10
231.5458746887
 20
61.0992414613
 10
232.5503770752
 20
61.5391552646
 10
233.5374819505
 20
61.8524916046
 10
234.4970776108
 20
62.0360397577
 10
235.2665374775
 20
62.0884375952
  0
LINE
  5
276
330
1F
100
AcDbEntity
  8
0
  6
Continuous
 62
     7
370
    18
100
AcDbLine
 10
215.7821416072
 20
45.4386875001
 30
0.0
 11
217.5796506955
 21
46.4763674092
 31
0.0
  0
ARC
  5
277
330
1F
100
AcDbEntity
  8
0
  6
Continuous
 62
     7
370
    18
100
AcDbCircle
 10
229.5509395093
 20
38.8872711036
 30
0.0
 40
5.840445258451628
100
AcDbArc
 50
194.1197150887
 51
284.6763968096
  0
LWPOLYLINE
  5
278
330
1F
100
AcDbEntity
  8
0
  6
Continuous
 62
     7
370
    18
100
AcDbPolyline
 90
        3
 70
   128
 43
0.0
 10
223.8922542002
 20
36.3114862138
 10
223.8078808193
 20
36.4960208316
 10
223.4532625043
 20
37.4570643702
  0
LWPOLYLINE
  5
279
330
1F
100
AcDbEntity
  8
0
  6
Continuous
 62
     7
370
    18
100
AcDbPolyline
 90
       18
 70
   128
 43
0.0
 10
206.9129458332
 20
58.2240597781
 10
207.335948727
 20
59.4266948104
 10
207.8519651057
 20
60.620208108
 10
208.4540894715
 20
61.788630598
 10
209.1342678251
 20
62.9163313413
 10
209.8833984229
 20
63.9882213266
 10
210.6914595345
 20
64.9899606853
 10
211.5476398348
 20
65.908146893
 10
212.4404841066
 20
66.730494701
 10
213.3580472582
 20
67.4460026153
 10
214.2880529496
 20
68.0450977028
 10
215.2180586411
 20
68.519764331
 10
216.1356217927
 20
68.8636522816
 10
217.0284660645
 20
69.0721605275
 10
217.8846463648
 20
69.1424990531
 10
218.6927074764
 20
69.0737271952
 10
219.4418380742
 20
68.8667649875
 10
219.7771208639
 20
68.7192763502
  0
ARC
  5
27A
330
1F
100
AcDbEntity
  8
0
  6
Continuous
 62
     7
370
    18
100
AcDbCircle
 10
210.8252769951
 20
52.5677682837
 30
0.0
 40
4.313754385716103
100
AcDbArc
 50
204.9136854455
 51
235.7170250766
  0
LINE
  5
27B
330
1F
100
AcDbEntity
  8
0
  6
Continuous
 62
     7
370
    18
100
AcDbLine
 10
215.7821416072
 20
44.6221466494
 30
0.0
 11
217.5796506955
 21
45.6598265585
 31
0.0
  0
LINE
  5
27C
330
1F
100
AcDbEntity
  8
0
  6
Continuous
 62
     7
370
    18
100
AcDbLine
 10
219.0692003351
 20
39.9879295896
 30
0.0
 11
220.4080779546
 21
40.7608471873
 31
0.0
  0
LINE
  5
27D
330
1F
100
AcDbEntity
  8
0
  6
Continuous
 62
     7
370
    18
100
AcDbLine
 10
222.7753613976
 20
39.5031173144
 30
0.0
 11
222.5859666313
 21
40.0709799511
 31
0.0
  0
LWPOLYLINE
  5
27E
330
1F
100
AcDbEntity
  8
0
  6
Continuous
 62
     7
370
    18
100
AcDbPolyline
 90
        3
 70
   128
 43
0.0
 10
222.4273818698
 20
39.0206467609
 10
222.1279581456
 20
39.6188538263
 10
221.8010783838
 20
40.5240862918
  0
LWPOLYLINE
  5
27F
330
1F
100
AcDbEntity
  8
0
  6
Continuous
 62
     7
370
    18
100
AcDbPolyline
 90
        3
 70
   128
 43
0.0
 10
222.1499706543
 20
38.4774298134
 10
221.7453457621
 20
39.1639505603
 10
221.3752602122
 20
40.0374290089
  0
LINE
  5
280
330
1F
100
AcDbEntity
  8
0
  6
Continuous
 62
     7
370
    18
100
AcDbLine
 10
238.1226265694
 20
63.0737806227
 30
0.0
 11
237.5816375245
 21
62.7614742947
 31
0.0
  0
ARC
  5
281
330
1F
100
AcDbEntity
  8
0
  6
Continuous
 62
     7
370
    18
100
AcDbCircle
 10
210.6753849062
 20
56.7279688095
 30
0.0
 40
1.102097410650235
100
AcDbArc
 50
159.4112025223
 51
213.191486534
  0
ARC
  5
282
330
1F
100
AcDbEntity
  8
0
  6
Continuous
 62
     7
370
    18
100
AcDbCircle
 10
209.3435602489
 20
56.5564710244
 30
0.0
 40
0.6345234148782641
100
AcDbArc
 50
41.9991509505
 51
61.7717641965
  0
LINE
  5
283
330
1F
100
AcDbEntity
  8
0
  6
Continuous
 62
     7
370
    18
100
AcDbLine
 10
209.6436803194
 20
57.1155308667
 30
0.0
 11
209.7532272227
 21
57.5263287252
 31
0.0
  0
LINE
  5
284
330
1F
100
AcDbEntity
  8
0
  6
Continuous
 62
     7
370
    18
100
AcDbLine
 10
209.6436803194
 20
57.1155308667
 30
0.0
 11
208.8416356704
 21
57.5785413872
 31
0.0
  0
LINE
  5
285
330
1F
100
AcDbEntity
  8
0
  6
Continuous
 62
     7
370
    18
100
AcDbLine
 10
206.9674041713
 20
58.7400017026
 30
0.0
 11
206.9511677564
 21
58.9351403312
 31
0.0
  0
ARC
  5
286
330
1F
100
AcDbEntity
  8
0
  6
Continuous
 62
     7
370
    18
100
AcDbCircle
 10
209.4337166683
 20
48.4629090581
 30
0.0
 40
0.4314949854781404
100
AcDbArc
 50
27.885175929
 51
60.8829215863
  0
ARC
  5
287
330
1F
100
AcDbEntity
  8
0
  6
Continuous
 62
     7
370
    18
100
AcDbCircle
 10
210.8834153585
 20
49.2349697908
 30
0.0
 40
1.301169858630673
100
AcDbArc
 50
165.9701496118
 51
197.6767200265
  0
LINE
  5
288
330
1F
100
AcDbEntity
  8
0
  6
Continuous
 62
     7
370
    18
100
AcDbLine
 10
209.2519088989
 20
51.748740466
 30
0.0
 11
207.9311781318
 21
52.5111821089
 31
0.0
  0
LINE
  5
289
330
1F
100
AcDbEntity
  8
0
  6
Continuous
 62
     7
370
    18
100
AcDbLine
 10
209.6436803194
 20
48.8398748227
 30
0.0
 11
208.8416356704
 21
49.3028853432
 31
0.0
  0
LINE
  5
28A
330
1F
100
AcDbEntity
  8
0
  6
Continuous
 62
     7
370
    18
100
AcDbLine
 10
209.6436803194
 20
48.8398748227
 30
0.0
 11
209.7532272227
 21
48.5555571267
 31
0.0
  0
OLE2FRAME
  5
28B
330
1F
100
AcDbEntity
  8
0
100
AcDbOle2Frame
 70
     2
  3
Paintbrush-Bild
 10
13.8511154363
 20
38.264191557
 30
0.0
 11
51.6290888628
 21
31.9806341108
 31
0.0
 71
     2
 72
     0
 73
     1
 90
    12928
310
80552BED0767C5B32B40DDAF6807D121434000000000000000006FFBDDFB85D0
310
4940DDAF6807D121434000000000000000006FFBDDFB85D04940416F4BD60AFB
310
3F4000000000000000002BED0767C5B32B40416F4BD60AFB3F40000000000000
310
0000000000000100000000010000010000000100000000000100000000320000
310
D0CF11E0A1B11AE1000000000000000000000000000000003E000300FEFF0900
310
0600000000000000000000000100000001000000000000000010000002000000
310
01000000FEFFFFFF0000000000000000FFFFFFFFFFFFFFFFFFFFFFFFFFFFFFFF
310
FFFFFFFFFFFFFFFFFFFFFFFFFFFFFFFFFFFFFFFFFFFFFFFFFFFFFFFFFFFFFFFF
310
FFFFFFFFFFFFFFFFFFFFFFFFFFFFFFFFFFFFFFFFFFFFFFFFFFFFFFFFFFFFFFFF
310
FFFFFFFFFFFFFFFFFFFFFFFFFFFFFFFFFFFFFFFFFFFFFFFFFFFFFFFFFFFFFFFF
310
FFFFFFFFFFFFFFFFFFFFFFFFFFFFFFFFFFFFFFFFFFFFFFFFFFFFFFFFFFFFFFFF
310
FFFFFFFFFFFFFFFFFFFFFFFFFFFFFFFFFFFFFFFFFFFFFFFFFFFFFFFFFFFFFFFF
310
FFFFFFFFFFFFFFFFFFFFFFFFFFFFFFFFFFFFFFFFFFFFFFFFFFFFFFFFFFFFFFFF
310
FFFFFFFFFFFFFFFFFFFFFFFFFFFFFFFFFFFFFFFFFFFFFFFFFFFFFFFFFFFFFFFF
310
FFFFFFFFFFFFFFFFFFFFFFFFFFFFFFFFFFFFFFFFFFFFFFFFFFFFFFFFFFFFFFFF
310
FFFFFFFFFFFFFFFFFFFFFFFFFFFFFFFFFFFFFFFFFFFFFFFFFFFFFFFFFFFFFFFF
310
FFFFFFFFFFFFFFFFFFFFFFFFFFFFFFFFFFFFFFFFFFFFFFFFFFFFFFFFFFFFFFFF
310
FFFFFFFFFFFFFFFFFFFFFFFFFFFFFFFFFFFFFFFFFFFFFFFFFFFFFFFFFFFFFFFF
310
FFFFFFFFFFFFFFFFFFFFFFFFFFFFFFFFFFFFFFFFFFFFFFFFFFFFFFFFFFFFFFFF
310
FFFFFFFFFFFFFFFFFFFFFFFFFFFFFFFFFFFFFFFFFFFFFFFFFFFFFFFFFFFFFFFF
310
FDFFFFFFFEFFFFFFFEFFFFFFFEFFFFFF05000000060000000700000008000000
310
090000000A0000000B0000000C0000000D0000000E0000000F00000010000000
310
11000000120000001300000014000000150000001600000017000000FEFFFFFF
310
FFFFFFFFFFFFFFFFFFFFFFFFFFFFFFFFFFFFFFFFFFFFFFFFFFFFFFFFFFFFFFFF
310
FFFFFFFFFFFFFFFFFFFFFFFFFFFFFFFFFFFFFFFFFFFFFFFFFFFFFFFFFFFFFFFF
310
FFFFFFFFFFFFFFFFFFFFFFFFFFFFFFFFFFFFFFFFFFFFFFFFFFFFFFFFFFFFFFFF
310
FFFFFFFFFFFFFFFFFFFFFFFFFFFFFFFFFFFFFFFFFFFFFFFFFFFFFFFFFFFFFFFF
310
FFFFFFFFFFFFFFFFFFFFFFFFFFFFFFFFFFFFFFFFFFFFFFFFFFFFFFFFFFFFFFFF
310
FFFFFFFFFFFFFFFFFFFFFFFFFFFFFFFFFFFFFFFFFFFFFFFFFFFFFFFFFFFFFFFF
310
FFFFFFFFFFFFFFFFFFFFFFFFFFFFFFFFFFFFFFFFFFFFFFFFFFFFFFFFFFFFFFFF
310
FFFFFFFFFFFFFFFFFFFFFFFFFFFFFFFFFFFFFFFFFFFFFFFFFFFFFFFFFFFFFFFF
310
FFFFFFFFFFFFFFFFFFFFFFFFFFFFFFFFFFFFFFFFFFFFFFFFFFFFFFFFFFFFFFFF
310
FFFFFFFFFFFFFFFFFFFFFFFFFFFFFFFFFFFFFFFFFFFFFFFFFFFFFFFFFFFFFFFF
310
FFFFFFFFFFFFFFFFFFFFFFFFFFFFFFFFFFFFFFFFFFFFFFFFFFFFFFFFFFFFFFFF
310
FFFFFFFFFFFFFFFFFFFFFFFFFFFFFFFFFFFFFFFFFFFFFFFFFFFFFFFFFFFFFFFF
310
FFFFFFFFFFFFFFFFFFFFFFFFFFFFFFFFFFFFFFFFFFFFFFFFFFFFFFFFFFFFFFFF
310
52006F006F007400200045006E00740072007900000000000000000000000000
310
0000000000000000000000000000000000000000000000000000000000000000
310
16000500FFFFFFFFFFFFFFFF020000000A00030000000000C000000000000046
310
000000000000000000000000806303A236A7D30103000000C000000000000000
310
01004F006C006500000000000000000000000000000000000000000000000000
310
0000000000000000000000000000000000000000000000000000000000000000
310
0A000200FFFFFFFFFFFFFFFFFFFFFFFF00000000000000000000000000000000
310
0000000000000000000000000000000000000000000000001400000000000000
310
010043006F006D0070004F0062006A0000000000000000000000000000000000
310
0000000000000000000000000000000000000000000000000000000000000000
310
120002010100000003000000FFFFFFFF00000000000000000000000000000000
310
0000000000000000000000000000000000000000010000004D00000000000000
310
01004F006C006500310030004E00610074006900760065000000000000000000
310
0000000000000000000000000000000000000000000000000000000000000000
310
1A000200FFFFFFFFFFFFFFFFFFFFFFFF00000000000000000000000000000000
310
0000000000000000000000000000000000000000040000002426000000000000
310
FEFFFFFF02000000FEFFFFFFFFFFFFFFFFFFFFFFFFFFFFFFFFFFFFFFFFFFFFFF
310
FFFFFFFFFFFFFFFFFFFFFFFFFFFFFFFFFFFFFFFFFFFFFFFFFFFFFFFFFFFFFFFF
310
FFFFFFFFFFFFFFFFFFFFFFFFFFFFFFFFFFFFFFFFFFFFFFFFFFFFFFFFFFFFFFFF
310
FFFFFFFFFFFFFFFFFFFFFFFFFFFFFFFFFFFFFFFFFFFFFFFFFFFFFFFFFFFFFFFF
310
FFFFFFFFFFFFFFFFFFFFFFFFFFFFFFFFFFFFFFFFFFFFFFFFFFFFFFFFFFFFFFFF
310
FFFFFFFFFFFFFFFFFFFFFFFFFFFFFFFFFFFFFFFFFFFFFFFFFFFFFFFFFFFFFFFF
310
FFFFFFFFFFFFFFFFFFFFFFFFFFFFFFFFFFFFFFFFFFFFFFFFFFFFFFFFFFFFFFFF
310
FFFFFFFFFFFFFFFFFFFFFFFFFFFFFFFFFFFFFFFFFFFFFFFFFFFFFFFFFFFFFFFF
310
FFFFFFFFFFFFFFFFFFFFFFFFFFFFFFFFFFFFFFFFFFFFFFFFFFFFFFFFFFFFFFFF
310
FFFFFFFFFFFFFFFFFFFFFFFFFFFFFFFFFFFFFFFFFFFFFFFFFFFFFFFFFFFFFFFF
310
FFFFFFFFFFFFFFFFFFFFFFFFFFFFFFFFFFFFFFFFFFFFFFFFFFFFFFFFFFFFFFFF
310
FFFFFFFFFFFFFFFFFFFFFFFFFFFFFFFFFFFFFFFFFFFFFFFFFFFFFFFFFFFFFFFF
310
FFFFFFFFFFFFFFFFFFFFFFFFFFFFFFFFFFFFFFFFFFFFFFFFFFFFFFFFFFFFFFFF
310
FFFFFFFFFFFFFFFFFFFFFFFFFFFFFFFFFFFFFFFFFFFFFFFFFFFFFFFFFFFFFFFF
310
FFFFFFFFFFFFFFFFFFFFFFFFFFFFFFFFFFFFFFFFFFFFFFFFFFFFFFFFFFFFFFFF
310
FFFFFFFFFFFFFFFFFFFFFFFFFFFFFFFFFFFFFFFFFFFFFFFFFFFFFFFFFFFFFFFF
310
0100000200000000000000000000000000000000000000000000000000000000
310
0000000000000000000000000000000000000000000000000000000000000000
310
0100FEFF030A0000FFFFFFFF0A00030000000000C00000000000004607000000
310
5042727573680007000000504272757368000700000050427275736800F439B2
310
7100000000000000000000000000000000000000000000000000000000000000
310
0000000000000000000000000000000000000000000000000000000000000000
310
0000000000000000000000000000000000000000000000000000000000000000
310
0000000000000000000000000000000000000000000000000000000000000000
310
0000000000000000000000000000000000000000000000000000000000000000
310
0000000000000000000000000000000000000000000000000000000000000000
310
0000000000000000000000000000000000000000000000000000000000000000
310
0000000000000000000000000000000000000000000000000000000000000000
310
0000000000000000000000000000000000000000000000000000000000000000
310
0000000000000000000000000000000000000000000000000000000000000000
310
0000000000000000000000000000000000000000000000000000000000000000
310
0000000000000000000000000000000000000000000000000000000000000000
310
20260000424D0E260000000000003E00000028000000B40200006E0000000100
310
01000000000000000000130B0000130B00000200000002000000000000FFFFFF
310
FFFFFFFFFFFFFFFFFFFFFFFFFFFFFFFFFFFFFFFFFFFFFFFFFFFFFFFFFFFFFFFF
310
FFFFFFFFFFFFFFFFFFFFFFFFFFFFFFFFFFFFFFFFFFFFFFFFFFFFFFFFFFFFFFFF
310
FFFFFFFFFFFFFFFFFFFFFFFFFFFFFFFFFFFFFFFFFFFFFFFFF000FFFFFFFFFFFF
310
FFFFFFFFFFFFFFFFFFFFFFFFFFFFFFFFFFFFFFFFFFFFFFFFFFFFFFFFFFFFFFFF
310
FFFFFFFFFFFFFFFFFFFFFFFFFFFFFFFFFFFFFFFFFFFFFFFFFFFFFFFFFFFFFFFF
310
FFFFFFFFFFFFFFFFFFFFFFFFFFFFFFFFF000FFFFFFFFFFFFFFFFFFFFFFFFFFFF
310
FFFFFFFFFFFFFFFFFFFFFFFFFFFFFFFFFFFFFFFFFFFFFFFFFFFFFFFFFFFFFFFF
310
FFFFFFFFFFFFFFFFFFFFFFFFFFFFFFFFFFFFFFFFFFFFFFFFFFFFFFFFFFFFFFFF
310
FFFFFFFFFFFFFFFFF000FFFFFFFFFFFFFFFFFFFFFFFFFFFFFFFFFFFFFFFFFFFF
310
FFFFFFFFFFFFFFFFFFFFFFFFFFFFFFFFFFFFFFFFFFFFFFFFFFFFFFFFFFFFFFFF
310
FFFFFFFFFFFFFFFFFFFFFFFFFFFFFFFFFFFFFFFFFFFFFFFFFFFFFFFFFFFFFFFF
310
F000FFFFFFFFFFFFFFFFFFFFFFFFFFFFFFFFFFFFFFFFFFFFFFFFFFFFFFFFFFFF
310
FFFFFFFFFFFFFFFFFFFFFFFFFFFFFFFFFFFFFFFFFFFFFFFFFFFFFFFFFFFFFFFF
310
FFFFFFFFFFFFFFFFFFFFFFFFFFFFFFFFFFFFFFFFFFFFFFFFF000FFFFFFFFFFFF
310
FFFFFFFFFFFFFFFFFFFFFFFFFFFFFFFFFFFFFFFFFFFFFFFFFFFFFFFFFFFFFFFF
310
FFFFFFFFFFFFFFFFFFFFFFFFFFFFFFFFFFFFFFFFFFFFFFFFFFFFFFFFFFFFFFFF
310
FFFFFFFFFFFFFFFFFFFFFFFFFFFFFFFFF000FFFFFFFFFFFFFFFFFFFFFFFFFFFF
310
FFFFFFFFFFFFFFFFFFFFFFFFFFFFFFFFFFFFFFFFFFFFFFFFFFFFFFFFFFFFFFFF
310
FFFFFFFFFFFFFFFFFFFFFFFFFFFFFFFFFFFFFFFFFFFFFFFFFFFFFFFFFFFFFFFF
310
FFFFFFFFFFFFFFFFF000FFFFFFFFFFFFFFFFFFFFFFFFFFFFFFFFFFFFFFFFFFFF
310
FFFFFFFFFFFFFFFFFFFFFFFFFFFFFFFFFFFFFFFFFFFFFFFFFFFFFFFFFFFFFFFF
310
FFFFFFFFFFFFFFFFFFFFFFFFFFFFFFFFFFFFFFFFFFFFFFFFFFFFFFFFFFFFFFFF
310
F000FFFFFFFFFFFFFFFFFFFFFFFFFFFFFFFFFFFFFFFFFFFFFFFFFFFFFFFFFFFF
310
FFFFFFFFFFFFFFFFFFFFFFFFFFFFFFFFFFFFFFFFFFFFFFFFFFFFFFFFFFFFFFFF
310
FFFFFFFFFFFFFFFFFFFFFFFFFFFFFFFFFFFFFFFFFFFFFFFFF000FFFFFFFFFFFF
310
FFFFFFFFFFFFFFFFFFFFFFFFFFFFFFFFFFFFFFFFFFFFFFFFFFFFFFFFFFFFFFFF
310
FFFFFFFFFFFFFFFFFFFFFFFFFFFFFFFFFFFFFFFFFFFFFFFFFFFFFFFFFFFFFFFF
310
FFFFFFFFFFFFFFFFFFFFFFFFFFFFFFFFF000FFFFFFFFFFFFFFFFFFFFFFFFFFFF
310
FFFFFFFFFFFFFFFFFFFFFFFFFFFFFFFFFFFFFFFFFFFFFFFFFFFFFFFFFFFFFFFF
310
FFFFFFFFFFFFFFFFFFFFFFFFFFFFFFFFFFFFFFFFFFFFFFFFFFFFFFFFFFFFFFFF
310
FFFFFFFFFFFFFFFFF000FFFFFFFFFFFFFFFFFFFFFFFFFFFFFFFFFFFFFFFFFFFF
310
FFFFFFFFFFFFFFFFFFFFFFFFFFFFFFFFFFFFFFFFFFFFFFFFFFFFFFFFFFFFFFFF
310
FFFFFFFFFFFFFFFFFFFFFFFFFFFFFFFFFFFFFFFFFFFFFFFFFFFFFFFFFFFFFFFF
310
F000FFFFFFFFFFFFFFFFFFFFFFFFFFFFFFFFFFFFFFFFFFFFFFFFFFFFFFFFFFFF
310
FFFFFFFFFFFFFFFFFFFFFFFFFFFFFFFFFFFFFFFFFFFFFFFFFFFFFFFFFFFFFFFF
310
FFFFFFFFFFFFFFFFFFFFFFFFFFFFFFFFFFFFFFFFFFFFFFFFF000FFFFFFFFFFFF
310
FFFFFFFFFFFFFFFFFFFFFFFFFFFFFFFFFFFFFFFFFFFFFFFFFFFFFFFFFFFFFFFF
310
FFFFFFFFFFFFFFFFFFFFFFFFFFFFFFFFFFFFFFFFFFFFFFFFFFFFFFFFFFFFFFFF
310
FFFFFFFFFFFFFFFFFFFFFFFFFFFFFFFFF000FFFFFFFFFFFFFFFFFFFFFFFFFFFF
310
FFFFFFFFFFFFFFFFFFFFFFFFFFFFFFFFFFFFFFFFFFFFFFFFFFFFFFFFFFFFFFFF
310
FFFFFFFFFFFFFFFFFFFFFFFFFFFFFFFFFFFFFFFFFFFFFFFFFFFFFFFFFFFFFFFF
310
FFFFFFFFFFFFFFFFF000FFFFFFFFFFFFFFFFFFFFFFFFFFFFFFFFFFFFFFFFFFFF
310
FFFFFFFFFFFFFFFFFFFFFFFFFFFFFFFFFFFFFFFFFFFFFFFFFFFFFFFFFFFFFFFF
310
FFFFFFFFFFFFFFFFFFFFFFFFFFFFFFFFFFFFFFFFFFFFFFFFFFFFFFFFFFFFFFFF
310
F000FFFFFFFFFFFFFFFFFFFFFFFFFFFFFFFFFFFFFFFFFFFFFFFFFFFFFFFFFFFF
310
FFFFFFFFFFFFFFFFFFFFFFFFFFFFFFFFFFFFFFFFFFFFFFFFFFFFFFFFFFFFFFFF
310
FFFFFFFFFFFFFFFFFFFFFFFFFFFFFFFFFFFFFFFFFFFFFFFFF000FFFFFFFFFFFF
310
FFFFFFFFFFFFFFFFFFFFFFFFFFFFFFFFFFFFFFFFFFFFFFFFFFFFFFFFFFFFFFFF
310
FFFFFFFFFFFFFFFFFFFFFFFFFFFFFFFFFFFFFFFFFFFFFFFFFFFFFFFFFFFFFFFF
310
FFFFFFFFFFFFFFFFFFFFFFFFFFFFFFFFF000FFFFFFFFFFFFFFFFFFFFFFFFFFFF
310
FFFFFFFFFFFFFFFFFFFFFFFFFFFFFFFFFFFFFFFFFFFFFFFFFFFFFFFFFFFFFFFF
310
FFFFFFFFFFFFFFFFFFFFFFFFFFFFFFFFFFFFFFFFFFFFFFFFFFFFFFFFFFFFFFFF
310
FFFFFFFFFFFFFFFFF000FFFFF80003FFFFFFFFFFFFFFFFFFFFFFFFFFFFFFFFFF
310
FFFFF00007FFFFFFFFFF00007FFFFFF800000000000000007FFFFFFFFFFFFFFF
310
FFFFFFFC001FFFFFFFFFFFFFFC001FFFFFFFFFFFFFFFFFFFFFFFFFFE0007FFFF
310
F000FFFF8000007FFFFFFFF8000FFFFFC0007FFFFF80007FFFFF0000007FFFFF
310
FFF8000007FFFFF800000000000000007FFFFFF0001FFFFFFFFFFFC00001FFFF
310
FFFFFFFFC00001FFFFFFFF000000000003FFFFE000007FFFF000FFFE0000000F
310
FFFFFFF0000FFFFF80007FFFFF80007FFFFC0000001FFFFFFFC0000001FFFFF8
310
00000000000000007FFFFFF0001FFFFFFFFFFE0000003FFFFFFFFFFE0000003F
310
FFFFFF000000000003FFFF0000000FFFF000FFF800000003FFFFFFF00007FFFF
310
80007FFFFF80007FFFF000000007FFFFFF000000003FFFF80000000000000000
310
7FFFFFF0001FFFFFFFFFF80000000FFFFFFFFFF80000000FFFFFFF0000000000
310
03FFFC00000003FFF000FFE000000000FFFFFFF00007FFFF80003FFFFF80007F
310
FFC000000001FFFFFC000000001FFFF800000000000000007FFFFFF0001FFFFF
310
FFFFE000000003FFFFFFFFE000000003FFFFFF000000000003FFF000000000FF
310
F000FF80000000007FFFFFF00007FFFF80003FFFFF80007FFF8000000000FFFF
310
F80000000007FFF800000000000000007FFFFFF0001FFFFFFFFFC000000001FF
310
FFFFFFC000000001FFFFFF000000000003FFC0000000007FF000FF0000000000
310
3FFFFFE00007FFFF00003FFFFF80007FFE00000000003FFFF00000000003FFF8
310
00000000000000007FFFFFF0001FFFFFFFFF8000000000FFFFFFFF8000000000
310
FFFFFF000000000003FF80000000003FF000FE00000000001FFFFFE00003FFFF
310
00003FFFFF80007FFC00000000001FFFE00000000001FFF8000001FFFE000000
310
7FFFFFF0001FFFFFFFFE00000000003FFFFFFE00000000003FFFFF0000000000
310
03FF00000000001FF000FC00000000000FFFFFE00003FFFF00001FFFFF80007F
310
F800000000001FFFC00000000000FFF8000001FFFE0000007FFFFFF0001FFFFF
310
FFFC00000000001FFFFFFC00000000001FFFFF000000000003FE00000000000F
310
F000F8000000000007FFFFE00003FFFF00001FFFFF80007FF800000000000FFF
310
800000000000FFF8000001FFFE0000007FFFFFF0001FFFFFFFF800000000000F
310
FFFFF800000000000FFFFF000000000003FC000000000007F000F80000000000
310
03FFFFC00003FFFE00001FFFFF80007FF0000000000007FF0000000000007FF8
310
000001FFFE0000007FFFFFF0001FFFFFFFF0000000000007FFFFF00000000000
310
07FFFF000000000003F8000000000003F000F0000000000003FFFFC00001FFFE
310
00001FFFFF80007FE0000000000007FE0000000000003FF8000001FFFE000000
310
7FFFFFF0001FFFFFFFF0000000000007FFFFF0000000000007FFFF0000000000
310
03F800001F800003F000E00001FFF00001FFFFC00001FFFE00000FFFFF80007F
310
E00001FFE00003FE00001FFF00003FF8000001FFFE0000007FFFFFF0001FFFFF
310
FFE000003E000003FFFFE000003E000003FFFF000000000003F00001FFF80001
310
F000E00007FFFC0001FFFFC00001FFFE00000FFFFF80007FC0000FFFFC0003FC
310
0000FFFFC0001FF8000001FFFE0000007FFFFFF0001FFFFFFFC00003FFE00001
310
FFFFC00003FFE00001FFFF0001FFFFFFFFF00007FFFE0001F000E0000FFFFF00
310
00FFFF800001FFFC00000FFFFF80007FC0001FFFFE0001FC0001FFFFE0001FF8
310
000001FFFE0000007FFFFFF0001FFFFFFF80000FFFF80000FFFF80000FFFF800
310
00FFFF0003FFFFFFFFE0000FFFFF8000F000C0003FFFFF8000FFFF800000FFFC
310
000007FFFF80007F80003FFFFF0001FC0003FFFFF0001FF8000001FFFE000000
310
7FFFFFF0001FFFFFFF80003FFFFE0000FFFF80003FFFFE0000FFFF0003FFFFFF
310
FFE0003FFFFF8000F000C0003FFFFF8000FFFF800000FFFC000007FFFF80007F
310
80007FFFFF8001F80007FFFFF8000FF8000001FFFE0000007FFFFFF0001FFFFF
310
FF00007FFFFF00007FFF00007FFFFF00007FFF0003FFFFFFFFE0003FFFFFC000
310
F000C0007FFFFFC000FFFF000000FFFC000007FFFF80007F8000FFFFFF8000F8
310
000FFFFFF8000FF8000001FFFE0000007FFFFFF0001FFFFFFF0000FFFFFF8000
310
7FFF0000FFFFFF80007FFF0003FFFFFFFFC0007FFFFFC00070008000FFFFFFC0
310
00FFFF000000FFF8000007FFFF80007F8000FFFFFF8000F8000FFFFFF8000FF8
310
000001FFFE0000007FFFFFF0001FFFFFFE0001FFFFFFC0003FFE0001FFFFFFC0
310
003FFF0003FFFFFFFFC0007FFFFFE00070008000FFFFFFC0007FFF0000007FF8
310
000003FFFF80007F0001FFFFFF8000F8000FFFFFF8000FF8000001FFFE000000
310
7FFFFFF0001FFFFFFE0001FFFFFFC0003FFE0001FFFFFFC0003FFF0003FFFFFF
310
FFC000FFFFFFE00070008000FFFFFFC0007FFF0000007FF8000003FFFF80007F
310
0001FFFFFF8000F8001FFFFFF8000FF8000001FFFE0000007FFFFFF0001FFFFF
310
FE0003FFFFFFE0003FFE0003FFFFFFE0003FFF0003FFFFFFFFC000FFFFFFE000
310
70008000FFFFFFC0007FFE0000007FF8000003FFFF80007F0001FFFFFF8000F0
310
001FFFFFF8000FF8000001FFFE0000007FFFFFF0001FFFFFFC0003FFFFFFE000
310
1FFC0003FFFFFFE0001FFF0003FFFFFFFFC000FFFFFFC00070008000FFFFFF80
310
007FFE0000007FF0000003FFFF80007F0001FFFFFF0000F0001FFFFFF8000FF8
310
000001FFFE0000007FFFFFF0001FFFFFFC0007FFFFFFF0001FFC0007FFFFFFF0
310
001FFF0003FFFFFFFFC000FFFFFFC00070008001FFFFFF0000FFFE0000003FF0
310
000001FFFF80007F0001FFFFFF0000F8001FFFFFF0000FF8000001FFFE000000
310
7FFFFFF0001FFFFFFC0007FFFFFFF0001FFC0007FFFFFFF0001FFF0003FFFFFF
310
FFC001FFFFFF80007000FFFFFFFFFE0000FFFE0008003FF0008001FFFF80007F
310
FFFFFFFFFC0000FFFFFFFFFFE0000FF8000001FFFE0000007FFFFFF0001FFFFF
310
F8000FFFFFFFF8000FF8000FFFFFFFF8000FFF0003FFFFFFFFFFFFFFFFFF0000
310
7000FFFFFFFFFC0000FFFC0008003FF0008001FFFF80007FFFFFFFFFF80001FF
310
FFFFFFFF80000FF8000001FFFE0000007FFFFFF0001FFFFFF8000FFFFFFFF800
310
0FF8000FFFFFFFF8000FFF0003FFFFFFFFFFFFFFFFFE0000F000FFFFFFFFE000
310
00FFFC000C003FE000C001FFFF80007FFFFFFFFFC00001FFFFFFFFFE00001FF8
310
000001FFFE0000007FFFFFF0001FFFFFF8000FFFFFFFF8000FF8000FFFFFFFF8
310
000FFF0003FFFFFFFFFFFFFFFFF00000F000FFFFFFFE000001FFFC000C001FE0
310
00C000FFFF80007FFFFFFFFE000001FFFFFFFFE000001FF80FFFFFFFFFFFFFC0
310
7FFFFFF0001FFFFFF8000FFFFFFFF8000FF8000FFFFFFFF8000FFF0003FFFFFF
310
FFFFFFFFFF800000F000FFFFFFC0000001FFFC001C001FE001C000FFFF80007F
310
FFFFFF80000003FFFFFFF80000001FF80FFFFFFFFFFFFFC07FFFFFF0001FFFFF
310
F8001FFFFFFFFC000FF8001FFFFFFFFC000FFF0003FFFFFFFFFFFFFFF0000001
310
F000FFFFF800000001FFF8001C001FE001C000FFFF80007FFFFFF800000003FF
310
FFFF800000003FF80FFFFFFFFFFFFFC07FFFFFF0001FFFFFF8001FFFFFFFFC00
310
0FF8001FFFFFFFFC000FFF0003FFFFFFFFFFFFFE00000001F000FFFFC0000000
310
03FFF8001E001FC001E000FFFF80007FFFFF8000000007FFFFFC000000003FF8
310
0FFFFFFFFFFFFFC07FFFFFF0001FFFFFF8001FFFFFFFFC000FF8001FFFFFFFFC
310
000FFF0003FFFFFFFFFFFFE000000003F000FFFE0000000007FFF8001E000FC0
310
01E0007FFF80007FFFFE0000000007FFFFE0000000007FF80FFFFFFFFFFFFFC0
310
7FFFFFF0001FFFFFF0001FFFFFFFFC0007F0001FFFFFFFFC0007FF0003FFFFFF
310
FFFFFF0000000003F000FFF80000000007FFF8001E000FC003E0007FFF80007F
310
FFF0000000000FFFFF8000000000FFF80FFFFFFFFFFFFFC07FFFFFF0001FFFFF
310
F0001FFFFFFFFC0007F0001FFFFFFFFC0007FF0003FFFFFFFFFFFC0000000007
310
F000FFE0000000000FFFF0003E000FC003E0007FFF80007FFFC0000000001FFF
310
FE0000000001FFF80FFFFFFFFFFFFFC07FFFFFF0001FFFFFF0001FFFFFFFFC00
310
07F0001FFFFFFFFC0007FF0003FFFFFFFFFFF0000000000FF000FFC000000000
310
1FFFF0003F000F8003F0003FFF80007FFF80000000003FFFF80000000003FFF8
310
0FFFFFFFFFFFFFC07FFFFFF0001FFFFFF0001FFFFFFFFC0007F0001FFFFFFFFC
310
0007FF0003FFFFFFFFFFE0000000001FF000FF00000000007FFFF0003F000780
310
03F0003FFF80007FFF00000000007FFFF00000000007FFF80FFFFFFFFFFFFFC0
310
7FFFFFF0001FFFFFF0001FFFFFFFFC0007F0001FFFFFFFFC0007FF0003FFFFFF
310
FFFF80000000007FF000FE0000000000FFFFE0003F00078007F0003FFF80007F
310
FE0000000001FFFFE0000000001FFFF80FFFFFFFFFFFFFC07FFFFFF0001FFFFF
310
F0001FFFFFFFFC0007F0001FFFFFFFFC0007FF0003FFFFFFFFFF0000000000FF
310
F000FC0000000003FFFFE0007F00078007F0003FFF80007FFC0000000007FFFF
310
C0000000007FFFF80FFFFFFFFFFFFFC07FFFFFF0001FFFFFF8001FFFFFFFFC00
310
0FF8001FFFFFFFFC000FFF0003FFFFFFFFFE0000000003FFF000FC000000000F
310
FFFFE0007F80070007F8001FFF80007FF8000000001FFFFF8000000001FFFFF8
310
0FFFFFFFFFFFFFC07FFFFFF0001FFFFFF8001FFFFFFFFC000FF8001FFFFFFFFC
310
000FFF0003FFFFFFFFFC000000000FFFF000F8000000007FFFFFE0007F800700
310
07F8001FFF80007FF000000000FFFFFF800000000FFFFFF80FFFFFFFFFFFFFC0
310
7FFFFFF0001FFFFFF8000FFFFFFFF8000FF8000FFFFFFFF8000FFF0003FFFFFF
310
FFFC000000007FFFF000F800000007FFFFFFC0007F8003000FF8001FFF80007F
310
F000000007FFFFFF000000007FFFFFF80FFFFFFFFFFFFFC07FFFFFF0001FFFFF
310
F8000FFFFFFFF8000FF8000FFFFFFFF8000FFF0003FFFFFFFFF80000000FFFFF
310
F000F0000000FFFFFFFFC000FF8003000FF8001FFF80007FE0000000FFFFFFFF
310
0000000FFFFFFFF8000001FFFE0000007FFFFFF0001FFFFFF8000FFFFFFFF800
310
0FF8000FFFFFFFF8000FFF0003FFFFFFFFF8000000FFFFFFF000F000000FFFFF
310
FFFFC000FFC002000FF8000FFF80007FE000001FFFFFFFFE000001FFFFFFFFF8
310
000001FFFE0000007FFFFFF0001FFFFFF8000FFFFFFFF8000FF8000FFFFFFFF8
310
000FFF0003FFFFFFFFF000001FFFFFFFF000E00000FFFFFFFFFFC000FFC00200
310
0FFC000FFF80007FE00001FFFFFFFFFE00001FFFFFFFFFF8000001FFFE000000
310
7FFFFFF0001FFFFFFC000FFFFFFFF8001FFC000FFFFFFFF8001FFF0003FFFFFF
310
FFF00001FFFFFFFFF000E00007FFFFFFFFFF8000FFC000001FFC000FFF80007F
310
C0000FFFFFFFFFFE0000FFFFFFFFFFF8000001FFFE0000007FFFFFF0001FFFFF
310
FC0007FFFFFFF0001FFC0007FFFFFFF0001FFF0003FFFFFFFFF00007FFFFFFFF
310
F000E0001FFFFFFFFFFF8000FFC000001FFC000FFF80007FC0003FFFFFFFFFFE
310
0001FFFFFFFFFFF8000001FFFE0000007FFFFFF0001FFFFFFC0007FFFFFFF000
310
1FFC0007FFFFFFF0001FFF0003FFFFFFFFF0001FFFFFFFFFF000E0003FFFFF00
310
03FF8001FFE000001FFC0007FF80007FC0007FFFFF0007FC0003FFFFF0003FF8
310
000001FFFE0000007FFFFFF0001FFFFFFC0003FFFFFFE0001FFC0003FFFFFFE0
310
001FFF0003FFFFFFFFF0003FFFFFFFFFF000E0003FFFFF0001FF8001FFE00000
310
1FFE0007FF80007FC0007FFFFE0003FC0007FFFFE0003FF8000001FFFE000000
310
7FFFFFF0001FFFFFFE0003FFFFFFE0003FFE0003FFFFFFE0003FFF0003FFFFFF
310
FFF0003FFFFF8001F000E0003FFFFF0001FF0001FFE000001FFE0007FF80007F
310
C0007FFFFE0003FC0007FFFFE0003FF8000001FFFE0000007FFFFFF0001FFFFF
310
FE0001FFFFFFC0003FFE0001FFFFFFC0003FFF0003FFFFFFFFF0003FFFFF0001
310
F000E0003FFFFF0003FF0001FFE000003FFE0007FF80007FC0007FFFFE0003FC
310
0007FFFFE0003FF8000001FFFE0000007FFFFFF0001FFFFFFF0001FFFFFFC000
310
7FFF0001FFFFFFC0007FFF0003FFFFFFFFF0003FFFFF0001F000E0003FFFFE00
310
03FF0003FFF000003FFE0003FF80007FC0007FFFFC0003FE0007FFFFE0003FF8
310
000001FFFE0000007FFFFFF0001FFFFFFF0000FFFFFF80007FFF0000FFFFFF80
310
007FFF0003FFFFFFFFF0003FFFFF0001F000E0003FFFFE0003FF0003FFF00000
310
3FFF0003FF80007FC0007FFFFC0007FE0007FFFFC0003FF8000001FFFE000000
310
7FFFFFF0001FFFFFFF80007FFFFF0000FFFF80007FFFFF0000FFFF0003FFFFFF
310
FFF0003FFFFF0003F000E0003FFFFC0003FE0003FFF000003FFF0003FF80007F
310
E0003FFFF80007FE0003FFFFC0007FF8000001FFFE0000007FFFFFF0001FFFFF
310
FF80003FFFFE0000FFFF80003FFFFE0000FFFF0003FFFFFFFFF0001FFFFE0003
310
F000F0001FFFF80003FE0003FFF000007FFF0001FF80007FE0003FFFF00007FE
310
0001FFFF80007FF8000001FFFE0000007FFFFFF0001FFFFFFFC0000FFFF80001
310
FFFFC0000FFFF80001FFFF0003FFFFFFFFF0001FFFFC0003F000F0000FFFF000
310
07FE0007FFF800007FFF0001FF80007FE0001FFFE00007FF0000FFFE00007FF8
310
000001FFFE0000007FFFFFF0001FFFFFFFC00003FFE00001FFFFC00003FFE000
310
01FFFF0003FFFFFFFFF8000FFFF80003F000F00003FFC00007FC0007FFF80000
310
7FFF8001FF80007FF00007FF80000FFF00007FF80000FFF8000001FFFE000000
310
7F80000000000001FFE000003E000003FFFFE000003E000003FFFF0003FFFFFF
310
FFF80003FFE00007F000F800000000000FFC0007FFF800007FFF8001FF80007F
310
F000000000000FFF000000000000FFF8000001FFFE0000007F80000000000001
310
FFF0000000000007FFFFF0000000000007FFFF0003FFFFFFFFFC00007E000007
310
F000F800000000000FFC0007FFF80000FFFF8000FF80007FF800000000001FFF
310
800000000001FFF8000001FFFE0000007F80000000000001FFF800000000000F
310
FFFFF800000000000FFFFF0003FFFFFFFFFC00000000000FF000FC0000000000
310
1FFC0007FFFC0000FFFF8000FF80007FF800000000003FFFC00000000001FFF8
310
000001FFFE0000007F80000000000001FFF800000000000FFFFFF80000000000
310
0FFFFF0003FFFFFFFFFE00000000001FF000FE00000000003FF8000FFFFC0000
310
FFFF8000FF80007FFC00000000003FFFC00000000003FFF8000001FFFE000000
310
7F80000000000001FFFC00000000001FFFFFFC00000000001FFFFF0003FFFFFF
310
FFFF00000000001FF000FF00000000003FF8000FFFFC0000FFFFC000FF80007F
310
FE00000000007FFFE00000000007FFF8000001FFFE0000007F80000000000001
310
FFFE00000000003FFFFFFE00000000003FFFFF0003FFFFFFFFFF80000000003F
310
F000FF80000000007FF8000FFFFC0001FFFFC0007F80007FFF0000000000FFFF
310
F0000000000FFFF800000000000000007F80000000000001FFFF8000000000FF
310
FFFFFF8000000000FFFFFF0003FFFFFFFFFFC0000000007FF000FFC000000000
310
FFF8000FFFFE0001FFFFC0007F80007FFF8000000001FFFFF8000000001FFFF8
310
00000000000000007F80000000000001FFFFC000000001FFFFFFFFC000000001
310
FFFFFF0003FFFFFFFFFFE000000000FFF000FFE000000003FFF0001FFFFE0001
310
FFFFC0007F80007FFFC000000007FFFFFE000000003FFFF80000000000000000
310
7F80000000000001FFFFE000000003FFFFFFFFE000000003FFFFFF0003FFFFFF
310
FFFFF000000003FFF000FFF80000000FFFF0001FFFFE0001FFFFE0007F80007F
310
FFF00000000FFFFFFF00000000FFFFF800000000000000007F80000000000001
310
FFFFF80000000FFFFFFFFFF80000000FFFFFFF0003FFFFFFFFFFFC0000000FFF
310
F000FFFE0000003FFFF0001FFFFE0003FFFFE0003F80007FFFFC0000003FFFFF
310
FFC0000003FFFFF800000000000000007F80000000000001FFFFFE0000003FFF
310
FFFFFFFE0000003FFFFFFF0003FFFFFFFFFFFF0000003FFFF000FFFF800000FF
310
FFF0001FFFFF0003FFFFE0003F80007FFFFF000001FFFFFFFFF800001FFFFFF8
310
00000000000000007F80000000000001FFFFFFC00001FFFFFFFFFFFFC00001FF
310
FFFFFF0003FFFFFFFFFFFFC00000FFFFF000FFFFF8000FFFFFFFFFFFFFFFFFFF
310
FFFFFFFFFFFFFFFFFFFFF0001FFFFFFFFFFF0000FFFFFFF80000000000000000
310
7FFFFFFFFFFFFFFFFFFFFFFC001FFFFFFFFFFFFFFC001FFFFFFFFFFFFFFFFFFF
310
FFFFFFFC001FFFFFF000FFFFFFFFFFFFFFFFFFFFFFFFFFFFFFFFFFFFFFFFFFFF
310
FFFFFFFFFFFFFFFFFFFFFFFFFFFFFFFFFFFFFFFFFFFFFFFFFFFFFFFFFFFFFFFF
310
FFFFFFFFFFFFFFFFFFFFFFFFFFFFFFFFFFFFFFFFFFFFFFFFFFFFFFFFFFFFFFFF
310
F000FFFFFFFFFFFFFFFFFFFFFFFFFFFFFFFFFFFFFFFFFFFFFFFFFFFFFFFFFFFF
310
FFFFFFFFFFFFFFFFFFFFFFFFFFFFFFFFFFFFFFFFFFFFFFFFFFFFFFFFFFFFFFFF
310
FFFFFFFFFFFFFFFFFFFFFFFFFFFFFFFFFFFFFFFFFFFFFFFFF000FFFFFFFFFFFF
310
FFFFFFFFFFFFFFFFFFFFFFFFFFFFFFFFFFFFFFFFFFFFFFFFFFFFFFFFFFFFFFFF
310
FFFFFFFFFFFFFFFFFFFFFFFFFFFFFFFFFFFFFFFFFFFFFFFFFFFFFFFFFFFFFFFF
310
FFFFFFFFFFFFFFFFFFFFFFFFFFFFFFFFF000FFFFFFFFFFFFFFFFFFFFFFFFFFFF
310
FFFFFFFFFFFFFFFFFFFFFFFFFFFFFFFFFFFFFFFFFFFFFFFFFFFFFFFFFFFFFFFF
310
FFFFFFFFFFFFFFFFFFFFFFFFFFFFFFFFFFFFFFFFFFFFFFFFFFFFFFFFFFFFFFFF
310
FFFFFFFFFFFFFFFFF000FFFFFFFFFFFFFFFFFFFFFFFFFFFFFFFFFFFFFFFFFFFF
310
FFFFFFFFFFFFFFFFFFFFFFFFFFFFFFFFFFFFFFFFFFFFFFFFFFFFFFFFFFFFFFFF
310
FFFFFFFFFFFFFFFFFFFFFFFFFFFFFFFFFFFFFFFFFFFFFFFFFFFFFFFFFFFFFFFF
310
F000FFFFFFFFFFFFFFFFFFFFFFFFFFFFFFFFFFFFFFFFFFFFFFFFFFFFFFFFFFFF
310
FFFFFFFFFFFFFFFFFFFFFFFFFFFFFFFFFFFFFFFFFFFFFFFFFFFFFFFFFFFFFFFF
310
FFFFFFFFFFFFFFFFFFFFFFFFFFFFFFFFFFFFFFFFFFFFFFFFF000FFFFFFFFFFFF
310
FFFFFFFFFFFFFFFFFFFFFFFFFFFFFFFFFFFFFFFFFFFFFFFFFFFFFFFFFFFFFFFF
310
FFFFFFFFFFFFFFFFFFFFFFFFFFFFFFFFFFFFFFFFFFFFFFFFFFFFFFFFFFFFFFFF
310
FFFFFFFFFFFFFFFFFFFFFFFFFFFFFFFFF000FFFFFFFFFFFFFFFFFFFFFFFFFFFF
310
FFFFFFFFFFFFFFFFFFFFFFFFFFFFFFFFFFFFFFFFFFFFFFFFFFFFFFFFFFFFFFFF
310
FFFFFFFFFFFFFFFFFFFFFFFFFFFFFFFFFFFFFFFFFFFFFFFFFFFFFFFFFFFFFFFF
310
FFFFFFFFFFFFFFFFF000FFFFFFFFFFFFFFFFFFFFFFFFFFFFFFFFFFFFFFFFFFFF
310
FFFFFFFFFFFFFFFFFFFFFFFFFFFFFFFFFFFFFFFFFFFFFFFFFFFFFFFFFFFFFFFF
310
FFFFFFFFFFFFFFFFFFFFFFFFFFFFFFFFFFFFFFFFFFFFFFFFFFFFFFFFFFFFFFFF
310
F000FFFFFFFFFFFFFFFFFFFFFFFFFFFFFFFFFFFFFFFFFFFFFFFFFFFFFFFFFFFF
310
FFFFFFFFFFFFFFFFFFFFFFFFFFFFFFFFFFFFFFFFFFFFFFFFFFFFFFFFFFFFFFFF
310
FFFFFFFFFFFFFFFFFFFFFFFFFFFFFFFFFFFFFFFFFFFFFFFFF000FFFFFFFFFFFF
310
FFFFFFFFFFFFFFFFFFFFFFFFFFFFFFFFFFFFFFFFFFFFFFFFFFFFFFFFFFFFFFFF
310
FFFFFFFFFFFFFFFFFFFFFFFFFFFFFFFFFFFFFFFFFFFFFFFFFFFFFFFFFFFFFFFF
310
FFFFFFFFFFFFFFFFFFFFFFFFFFFFFFFFF000FFFFFFFFFFFFFFFFFFFFFFFFFFFF
310
FFFFFFFFFFFFFFFFFFFFFFFFFFFFFFFFFFFFFFFFFFFFFFFFFFFFFFFFFFFFFFFF
310
FFFFFFFFFFFFFFFFFFFFFFFFFFFFFFFFFFFFFFFFFFFFFFFFFFFFFFFFFFFFFFFF
310
FFFFFFFFFFFFFFFFF000FFFFFFFFFFFFFFFFFFFFFFFFFFFFFFFFFFFFFFFFFFFF
310
FFFFFFFFFFFFFFFFFFFFFFFFFFFFFFFFFFFFFFFFFFFFFFFFFFFFFFFFFFFFFFFF
310
FFFFFFFFFFFFFFFFFFFFFFFFFFFFFFFFFFFFFFFFFFFFFFFFFFFFFFFFFFFFFFFF
310
F000FFFFFFFFFFFFFFFFFFFFFFFFFFFFFFFFFFFFFFFFFFFFFFFFFFFFFFFFFFFF
310
FFFFFFFFFFFFFFFFFFFFFFFFFFFFFFFFFFFFFFFFFFFFFFFFFFFFFFFFFFFFFFFF
310
FFFFFFFFFFFFFFFFFFFFFFFFFFFFFFFFFFFFFFFFFFFFFFFFF000FFFFFFFFFFFF
310
FFFFFFFFFFFFFFFFFFFFFFFFFFFFFFFFFFFFFFFFFFFFFFFFFFFFFFFFFFFFFFFF
310
FFFFFFFFFFFFFFFFFFFFFFFFFFFFFFFFFFFFFFFFFFFFFFFFFFFFFFFFFFFFFFFF
310
FFFFFFFFFFFFFFFFFFFFFFFFFFFFFFFFF000FFFFFFFFFFFFFFFFFFFFFFFFFFFF
310
FFFFFFFFFFFFFFFFFFFFFFFFFFFFFFFFFFFFFFFFFFFFFFFFFFFFFFFFFFFFFFFF
310
FFFFFFFFFFFFFFFFFFFFFFFFFFFFFFFFFFFFFFFFFFFFFFFFFFFFFFFFFFFFFFFF
310
FFFFFFFFFFFFFFFFF000FFFFFFFFFFFFFFFFFFFFFFFFFFFFFFFFFFFFFFFFFFFF
310
FFFFFFFFFFFFFFFFFFFFFFFFFFFFFFFFFFFFFFFFFFFFFFFFFFFFFFFFFFFFFFFF
310
FFFFFFFFFFFFFFFFFFFFFFFFFFFFFFFFFFFFFFFFFFFFFFFFFFFFFFFFFFFFFFFF
310
F000FFFFFFFFFFFFFFFFFFFFFFFFFFFFFFFFFFFFFFFFFFFFFFFFFFFFFFFFFFFF
310
FFFFFFFFFFFFFFFFFFFFFFFFFFFFFFFFFFFFFFFFFFFFFFFFFFFFFFFFFFFFFFFF
310
FFFFFFFFFFFFFFFFFFFFFFFFFFFFFFFFFFFFFFFFFFFFFFFFF000FFFFFFFFFFFF
310
FFFFFFFFFFFFFFFFFFFFFFFFFFFFFFFFFFFFFFFFFFFFFFFFFFFFFFFFFFFFFFFF
310
FFFFFFFFFFFFFFFFFFFFFFFFFFFFFFFFFFFFFFFFFFFFFFFFFFFFFFFFFFFFFFFF
310
FFFFFFFFFFFFFFFFFFFFFFFFFFFFFFFFF000FFFFFFFFFFFFFFFFFFFFFFFFFFFF
310
FFFFFFFFFFFFFFFFFFFFFFFFFFFFFFFFFFFFFFFFFFFFFFFFFFFFFFFFFFFFFFFF
310
FFFFFFFFFFFFFFFFFFFFFFFFFFFFFFFFFFFFFFFFFFFFFFFFFFFFFFFFFFFFFFFF
310
FFFFFFFFFFFFFFFFF000FFFFFFFFFFFFFFFFFFFFFFFFFFFFFFFFFFFFFFFFFFFF
310
FFFFFFFFFFFFFFFFFFFFFFFFFFFFFFFFFFFFFFFFFFFFFFFFFFFFFFFFFFFFFFFF
310
FFFFFFFFFFFFFFFFFFFFFFFFFFFFFFFFFFFFFFFFFFFFFFFFFFFFFFFFFFFFFFFF
310
F000FFFFFFFFFFFFFFFFFFFFFFFFFFFFFFFFFFFFFFFFFFFFFFFFFFFFFFFFFFFF
310
FFFFFFFFFFFFFFFFFFFFFFFFFFFFFFFFFFFFFFFFFFFFFFFFFFFFFFFFFFFFFFFF
310
FFFFFFFFFFFFFFFFFFFFFFFFFFFFFFFFFFFFFFFFFFFFFFFFF000FFFFFFFFFFFF
310
FFFFFFFFFFFFFFFFFFFFFFFFFFFFFFFFFFFFFFFFFFFFFFFFFFFFFFFFFFFFFFFF
310
FFFFFFFFFFFFFFFFFFFFFFFFFFFFFFFFFFFFFFFFFFFFFFFFFFFFFFFFFFFFFFFF
310
FFFFFFFFFFFFFFFFFFFFFFFFFFFFFFFFF0000000000000000000000000000000
310
0000000000000000000000000000000000000000000000000000000000000000
310
0000000000000000000000000000000000000000000000000000000000000000
310
0000000000000000000000000000000000000000000000000000000000000000
310
0000000000000000000000000000000000000000000000000000000000000000
310
0000000000000000000000000000000000000000000000000000000000000000
310
0000000000000000000000000000000000000000000000000000000000000000
310
0000000000000000000000000000000000000000000000000000000000000000
310
0000000000000000000000000000000000000000000000000000000000000000
310
0000000000000000000000000000000000000000000000000000000000000000
310
0000000000000000000000000000000000000000000000000000000000000000
310
0000000000000000000000000000000000000000000000000000000000000000
310
0000000000000000000000000000000000000000000000000000000000000000
310
0000000000000000000000000000000000000000000000000000000000000000
310
0000000000000000000000000000000000000000000000000000000000000000
310
0000000000000000000000000000000000000000000000000000000000000000
  1
OLE
  0
ENDSEC
  0
SECTION
  2
OBJECTS
  0
DICTIONARY
  5
C
330
0
100
AcDbDictionary
281
     1
  3
ACAD_GROUP
350
D
  3
ACAD_LAYOUT
350
1A
  3
ACAD_MLINESTYLE
350
17
  3
ACAD_PLOTSETTINGS
350
19
  3
ACAD_PLOTSTYLENAME
350
E
  3
ACAD_SCALELIST
350
47
  0
DICTIONARY
  5
D
102
{ACAD_REACTORS
330
C
102
}
330
C
100
AcDbDictionary
281
     1
  0
DICTIONARY
  5
1A
102
{ACAD_REACTORS
330
C
102
}
330
C
100
AcDbDictionary
281
     1
  3
Layout1
350
1E
  3
Layout2
350
26
  3
Model
350
22
  0
DICTIONARY
  5
17
102
{ACAD_REACTORS
330
C
102
}
330
C
100
AcDbDictionary
281
     1
  3
Standard
350
18
  0
DICTIONARY
  5
19
102
{ACAD_REACTORS
330
C
102
}
330
C
100
AcDbDictionary
281
     1
  0
ACDBDICTIONARYWDFLT
  5
E
102
{ACAD_REACTORS
330
C
102
}
330
C
100
AcDbDictionary
281
     1
  3
Normal
350
F
100
AcDbDictionaryWithDefault
340
F
  0
DICTIONARY
  5
47
102
{ACAD_REACTORS
330
C
102
}
330
C
100
AcDbDictionary
281
     1
  3
A0
350
48
  3
A1
350
49
  3
A2
350
4A
  3
A3
350
4B
  3
A4
350
4C
  3
A5
350
4D
  3
A6
350
4E
  3
A7
350
4F
  3
A8
350
50
  3
A9
350
51
  3
B0
350
52
  3
B1
350
53
  3
B2
350
54
  3
B3
350
55
  3
B4
350
56
  3
B5
350
57
  3
B6
350
58
  3
B7
350
59
  3
B8
350
5A
  3
B9
350
5B
  3
C0
350
5C
  3
C1
350
5D
  3
C2
350
5E
  3
C3
350
5F
  3
C4
350
60
  3
C5
350
61
  3
C6
350
62
  3
C7
350
63
  3
C8
350
64
  3
C9
350
65
  3
D0
350
66
  3
D1
350
67
  3
D2
350
68
  0
LAYOUT
  5
1E
102
{ACAD_REACTORS
330
1A
102
}
330
1A
100
AcDbPlotSettings
  1

  2
none_device
  4

  6

 40
0.0
 41
0.0
 42
0.0
 43
0.0
 44
0.0
 45
0.0
 46
0.0
 47
0.0
 48
0.0
 49
0.0
140
0.0
141
0.0
142
1.0
143
1.0
 70
   688
 72
     1
 73
     0
 74
     5
  7

 75
    16
147
1.0
148
0.0
149
0.0
100
AcDbLayout
  1
Layout1
 70
     1
 71
     1
 10
0.0
 20
0.0
 11
420.0
 21
297.0
 12
0.0
 22
0.0
 32
0.0
 14
1.0000000000E+20
 24
1.0000000000E+20
 34
1.0000000000E+20
 15
-1.0000000000E+20
 25
-1.0000000000E+20
 35
-1.0000000000E+20
146
0.0
 13
0.0
 23
0.0
 33
0.0
 16
1.0
 26
0.0
 36
0.0
 17
0.0
 27
1.0
 37
0.0
 76
     0
330
1B
  0
LAYOUT
  5
26
102
{ACAD_REACTORS
330
1A
102
}
330
1A
100
AcDbPlotSettings
  1

  2
none_device
  4

  6

 40
0.0
 41
0.0
 42
0.0
 43
0.0
 44
0.0
 45
0.0
 46
0.0
 47
0.0
 48
0.0
 49
0.0
140
0.0
141
0.0
142
1.0
143
1.0
 70
   688
 72
     1
 73
     0
 74
     5
  7

 75
    16
147
1.0
148
0.0
149
0.0
100
AcDbLayout
  1
Layout2
 70
     1
 71
     2
 10
0.0
 20
0.0
 11
0.0
 21
0.0
 12
0.0
 22
0.0
 32
0.0
 14
0.0
 24
0.0
 34
0.0
 15
0.0
 25
0.0
 35
0.0
146
0.0
 13
0.0
 23
0.0
 33
0.0
 16
1.0
 26
0.0
 36
0.0
 17
0.0
 27
1.0
 37
0.0
 76
     0
330
23
  0
LAYOUT
  5
22
102
{ACAD_REACTORS
330
1A
102
}
330
1A
100
AcDbPlotSettings
  1

  2
none_device
  4
Letter_(8.50_x_11.00_Inches)
  6

 40
6.35
 41
6.35
 42
6.35000508
 43
6.35000508
 44
215.9
 45
279.4
 46
0.0
 47
0.0
 48
0.0
 49
0.0
140
0.0
141
0.0
142
1.0
143
1.0
 70
  1712
 72
     1
 73
     0
 74
     0
  7

 75
     0
147
1.0
148
0.0
149
0.0
100
AcDbLayout
  1
Model
 70
     1
 71
     0
 10
0.0
 20
0.0
 11
297.0
 21
210.0
 12
0.0
 22
0.0
 32
0.0
 14
0.0
 24
0.0
 34
0.0
 15
297.0
 25
210.0
 35
0.0
146
0.0
 13
0.0
 23
0.0
 33
0.0
 16
1.0
 26
0.0
 36
0.0
 17
0.0
 27
1.0
 37
0.0
 76
     0
330
1F
331
29
  0
MLINESTYLE
  5
18
102
{ACAD_REACTORS
330
17
102
}
330
17
100
AcDbMlineStyle
  2
Standard
 70
     0
  3

 62
   256
 51
90.0
 52
90.0
 71
     2
 49
0.5
 62
   256
  6
BYLAYER
 49
-0.5
 62
   256
  6
BYLAYER
  0
ACDBPLACEHOLDER
  5
F
102
{ACAD_REACTORS
330
E
102
}
330
E
  0
SCALE
  5
48
102
{ACAD_REACTORS
330
47
102
}
330
47
100
AcDbScale
 70
     0
300
1:1
140
1.0
141
1.0
290
     1
  0
SCALE
  5
49
102
{ACAD_REACTORS
330
47
102
}
330
47
100
AcDbScale
 70
     0
300
1:2
140
1.0
141
2.0
290
     0
  0
SCALE
  5
4A
102
{ACAD_REACTORS
330
47
102
}
330
47
100
AcDbScale
 70
     0
300
1:4
140
1.0
141
4.0
290
     0
  0
SCALE
  5
4B
102
{ACAD_REACTORS
330
47
102
}
330
47
100
AcDbScale
 70
     0
300
1:5
140
1.0
141
5.0
290
     0
  0
SCALE
  5
4C
102
{ACAD_REACTORS
330
47
102
}
330
47
100
AcDbScale
 70
     0
300
1:8
140
1.0
141
8.0
290
     0
  0
SCALE
  5
4D
102
{ACAD_REACTORS
330
47
102
}
330
47
100
AcDbScale
 70
     0
300
1:10
140
1.0
141
10.0
290
     0
  0
SCALE
  5
4E
102
{ACAD_REACTORS
330
47
102
}
330
47
100
AcDbScale
 70
     0
300
1:16
140
1.0
141
16.0
290
     0
  0
SCALE
  5
4F
102
{ACAD_REACTORS
330
47
102
}
330
47
100
AcDbScale
 70
     0
300
1:20
140
1.0
141
20.0
290
     0
  0
SCALE
  5
50
102
{ACAD_REACTORS
330
47
102
}
330
47
100
AcDbScale
 70
     0
300
1:30
140
1.0
141
30.0
290
     0
  0
SCALE
  5
51
102
{ACAD_REACTORS
330
47
102
}
330
47
100
AcDbScale
 70
     0
300
1:40
140
1.0
141
40.0
290
     0
  0
SCALE
  5
52
102
{ACAD_REACTORS
330
47
102
}
330
47
100
AcDbScale
 70
     0
300
1:50
140
1.0
141
50.0
290
     0
  0
SCALE
  5
53
102
{ACAD_REACTORS
330
47
102
}
330
47
100
AcDbScale
 70
     0
300
1:100
140
1.0
141
100.0
290
     0
  0
SCALE
  5
54
102
{ACAD_REACTORS
330
47
102
}
330
47
100
AcDbScale
 70
     0
300
2:1
140
2.0
141
1.0
290
     0
  0
SCALE
  5
55
102
{ACAD_REACTORS
330
47
102
}
330
47
100
AcDbScale
 70
     0
300
4:1
140
4.0
141
1.0
290
     0
  0
SCALE
  5
56
102
{ACAD_REACTORS
330
47
102
}
330
47
100
AcDbScale
 70
     0
300
8:1
140
8.0
141
1.0
290
     0
  0
SCALE
  5
57
102
{ACAD_REACTORS
330
47
102
}
330
47
100
AcDbScale
 70
     0
300
10:1
140
10.0
141
1.0
290
     0
  0
SCALE
  5
58
102
{ACAD_REACTORS
330
47
102
}
330
47
100
AcDbScale
 70
     0
300
100:1
140
100.0
141
1.0
290
     0
  0
SCALE
  5
59
102
{ACAD_REACTORS
330
47
102
}
330
47
100
AcDbScale
 70
     0
300
1/128" = 1'-0"
140
0.0078125
141
12.0
290
     0
  0
SCALE
  5
5A
102
{ACAD_REACTORS
330
47
102
}
330
47
100
AcDbScale
 70
     0
300
1/64" = 1'-0"
140
0.015625
141
12.0
290
     0
  0
SCALE
  5
5B
102
{ACAD_REACTORS
330
47
102
}
330
47
100
AcDbScale
 70
     0
300
1/32" = 1'-0"
140
0.03125
141
12.0
290
     0
  0
SCALE
  5
5C
102
{ACAD_REACTORS
330
47
102
}
330
47
100
AcDbScale
 70
     0
300
1/16" = 1'-0"
140
0.0625
141
12.0
290
     0
  0
SCALE
  5
5D
102
{ACAD_REACTORS
330
47
102
}
330
47
100
AcDbScale
 70
     0
300
3/32" = 1'-0"
140
0.09375
141
12.0
290
     0
  0
SCALE
  5
5E
102
{ACAD_REACTORS
330
47
102
}
330
47
100
AcDbScale
 70
     0
300
1/8" = 1'-0"
140
0.125
141
12.0
290
     0
  0
SCALE
  5
5F
102
{ACAD_REACTORS
330
47
102
}
330
47
100
AcDbScale
 70
     0
300
3/16" = 1'-0"
140
0.1875
141
12.0
290
     0
  0
SCALE
  5
60
102
{ACAD_REACTORS
330
47
102
}
330
47
100
AcDbScale
 70
     0
300
1/4" = 1'-0"
140
0.25
141
12.0
290
     0
  0
SCALE
  5
61
102
{ACAD_REACTORS
330
47
102
}
330
47
100
AcDbScale
 70
     0
300
3/8" = 1'-0"
140
0.375
141
12.0
290
     0
  0
SCALE
  5
62
102
{ACAD_REACTORS
330
47
102
}
330
47
100
AcDbScale
 70
     0
300
1/2" = 1'-0"
140
0.5
141
12.0
290
     0
  0
SCALE
  5
63
102
{ACAD_REACTORS
330
47
102
}
330
47
100
AcDbScale
 70
     0
300
3/4" = 1'-0"
140
0.75
141
12.0
290
     0
  0
SCALE
  5
64
102
{ACAD_REACTORS
330
47
102
}
330
47
100
AcDbScale
 70
     0
300
1" = 1'-0"
140
1.0
141
12.0
290
     0
  0
SCALE
  5
65
102
{ACAD_REACTORS
330
47
102
}
330
47
100
AcDbScale
 70
     0
300
1-1/2" = 1'-0"
140
1.5
141
12.0
290
     0
  0
SCALE
  5
66
102
{ACAD_REACTORS
330
47
102
}
330
47
100
AcDbScale
 70
     0
300
3" = 1'-0"
140
3.0
141
12.0
290
     0
  0
SCALE
  5
67
102
{ACAD_REACTORS
330
47
102
}
330
47
100
AcDbScale
 70
     0
300
6" = 1'-0"
140
6.0
141
12.0
290
     0
  0
SCALE
  5
68
102
{ACAD_REACTORS
330
47
102
}
330
47
100
AcDbScale
 70
     0
300
1'-0" = 1'-0"
140
12.0
141
12.0
290
     0
  0
ENDSEC
  0
EOF
