  0
SECTION
  2
HEADER
  9
$ACADVER
  1
AC1015
  9
$ACADMAINTVER
 70
     6
  9
$DWGCODEPAGE
  3
ANSI_1252
  9
$INSBASE
 10
0.0
 20
0.0
 30
0.0
  9
$EXTMIN
 10
0.0
 20
0.0
 30
0.0
  9
$EXTMAX
 10
297.0
 20
210.0
 30
0.0
  9
$LIMMIN
 10
0.0
 20
0.0
  9
$LIMMAX
 10
297.0
 20
210.0
  9
$ORTHOMODE
 70
     0
  9
$REGENMODE
 70
     1
  9
$FILLMODE
 70
     1
  9
$QTEXTMODE
 70
     0
  9
$MIRRTEXT
 70
     1
  9
$LTSCALE
 40
1.0
  9
$ATTMODE
 70
     1
  9
$TEXTSIZE
 40
2.0
  9
$TRACEWID
 40
1.0
  9
$TEXTSTYLE
  7
Standard
  9
$CLAYER
  8
0
  9
$CELTYPE
  6
ByLayer
  9
$CECOLOR
 62
   256
  9
$CELTSCALE
 40
1.0
  9
$DISPSILH
 70
     0
  9
$DIMSCALE
 40
1.0
  9
$DIMASZ
 40
3.0
  9
$DIMEXO
 40
0.0
  9
$DIMDLI
 40
3.75
  9
$DIMRND
 40
0.0
  9
$DIMDLE
 40
0.0
  9
$DIMEXE
 40
1.0
  9
$DIMTP
 40
0.0
  9
$DIMTM
 40
0.0
  9
$DIMTXT
 40
2.0
  9
$DIMCEN
 40
2.5
  9
$DIMTSZ
 40
0.0
  9
$DIMTOL
 70
     0
  9
$DIMLIM
 70
     0
  9
$DIMTIH
 70
     1
  9
$DIMTOH
 70
     1
  9
$DIMSE1
 70
     0
  9
$DIMSE2
 70
     0
  9
$DIMTAD
 70
     1
  9
$DIMZIN
 70
     0
  9
$DIMBLK
  1

  9
$DIMASO
 70
     1
  9
$DIMSHO
 70
     1
  9
$DIMPOST
  1

  9
$DIMAPOST
  1

  9
$DIMALT
 70
     0
  9
$DIMALTD
 70
     3
  9
$DIMALTF
 40
0.0393700787
  9
$DIMLFAC
 40
2.0
  9
$DIMTOFL
 70
     1
  9
$DIMTVP
 40
0.0
  9
$DIMTIX
 70
     0
  9
$DIMSOXD
 70
     0
  9
$DIMSAH
 70
     0
  9
$DIMBLK1
  1

  9
$DIMBLK2
  1

  9
$DIMSTYLE
  2
ISO-25
  9
$DIMCLRD
 70
     0
  9
$DIMCLRE
 70
     0
  9
$DIMCLRT
 70
     0
  9
$DIMTFAC
 40
1.0
  9
$DIMGAP
 40
1.524
  9
$DIMJUST
 70
     0
  9
$DIMSD1
 70
     0
  9
$DIMSD2
 70
     0
  9
$DIMTOLJ
 70
     0
  9
$DIMTZIN
 70
     0
  9
$DIMALTZ
 70
     0
  9
$DIMALTTZ
 70
     0
  9
$DIMUPT
 70
     0
  9
$DIMDEC
 70
     2
  9
$DIMTDEC
 70
     3
  9
$DIMALTU
 70
     2
  9
$DIMALTTD
 70
     3
  9
$DIMTXSTY
  7
Standard
  9
$DIMAUNIT
 70
     0
  9
$DIMADEC
 70
     2
  9
$DIMALTRND
 40
0.0
  9
$DIMAZIN
 70
     0
  9
$DIMDSEP
 70
    44
  9
$DIMATFIT
 70
     3
  9
$DIMFRAC
 70
     0
  9
$DIMLDRBLK
  1

  9
$DIMLUNIT
 70
     2
  9
$DIMLWD
 70
    -2
  9
$DIMLWE
 70
    -2
  9
$DIMTMOVE
 70
     0
  9
$LUNITS
 70
     2
  9
$LUPREC
 70
     2
  9
$SKETCHINC
 40
1.0
  9
$FILLETRAD
 40
10.0
  9
$AUNITS
 70
     0
  9
$AUPREC
 70
     2
  9
$MENU
  1
.
  9
$ELEVATION
 40
0.0
  9
$PELEVATION
 40
0.0
  9
$THICKNESS
 40
0.0
  9
$LIMCHECK
 70
     0
  9
$CHAMFERA
 40
0.0
  9
$CHAMFERB
 40
0.0
  9
$CHAMFERC
 40
0.0
  9
$CHAMFERD
 40
0.0
  9
$SKPOLY
 70
     0
  9
$TDCREATE
 40
2458169.329461852
  9
$TDUCREATE
 40
2458169.287795185
  9
$TDUPDATE
 40
2458169.329464248
  9
$TDUUPDATE
 40
2458169.287797581
  9
$TDINDWG
 40
0.0000000116
  9
$TDUSRTIMER
 40
0.0000000116
  9
$USRTIMER
 70
     1
  9
$ANGBASE
 50
0.0
  9
$ANGDIR
 70
     0
  9
$PDMODE
 70
     0
  9
$PDSIZE
 40
-1.0
  9
$PLINEWID
 40
0.0
  9
$SPLFRAME
 70
     0
  9
$SPLINETYPE
 70
     6
  9
$SPLINESEGS
 70
     8
  9
$HANDSEED
  5
281
  9
$SURFTAB1
 70
     6
  9
$SURFTAB2
 70
     6
  9
$SURFTYPE
 70
     6
  9
$SURFU
 70
     6
  9
$SURFV
 70
     6
  9
$UCSBASE
  2

  9
$UCSNAME
  2

  9
$UCSORG
 10
0.0
 20
0.0
 30
0.0
  9
$UCSXDIR
 10
1.0
 20
0.0
 30
0.0
  9
$UCSYDIR
 10
0.0
 20
1.0
 30
0.0
  9
$UCSORTHOREF
  2

  9
$UCSORTHOVIEW
 70
     0
  9
$UCSORGTOP
 10
0.0
 20
0.0
 30
0.0
  9
$UCSORGBOTTOM
 10
0.0
 20
0.0
 30
0.0
  9
$UCSORGLEFT
 10
0.0
 20
0.0
 30
0.0
  9
$UCSORGRIGHT
 10
0.0
 20
0.0
 30
0.0
  9
$UCSORGFRONT
 10
0.0
 20
0.0
 30
0.0
  9
$UCSORGBACK
 10
0.0
 20
0.0
 30
0.0
  9
$PUCSBASE
  2

  9
$PUCSNAME
  2

  9
$PUCSORG
 10
0.0
 20
0.0
 30
0.0
  9
$PUCSXDIR
 10
1.0
 20
0.0
 30
0.0
  9
$PUCSYDIR
 10
0.0
 20
1.0
 30
0.0
  9
$PUCSORTHOREF
  2

  9
$PUCSORTHOVIEW
 70
     0
  9
$PUCSORGTOP
 10
0.0
 20
0.0
 30
0.0
  9
$PUCSORGBOTTOM
 10
0.0
 20
0.0
 30
0.0
  9
$PUCSORGLEFT
 10
0.0
 20
0.0
 30
0.0
  9
$PUCSORGRIGHT
 10
0.0
 20
0.0
 30
0.0
  9
$PUCSORGFRONT
 10
0.0
 20
0.0
 30
0.0
  9
$PUCSORGBACK
 10
0.0
 20
0.0
 30
0.0
  9
$USERI1
 70
     0
  9
$USERI2
 70
     0
  9
$USERI3
 70
     0
  9
$USERI4
 70
     0
  9
$USERI5
 70
     0
  9
$USERR1
 40
0.0
  9
$USERR2
 40
0.0
  9
$USERR3
 40
0.0
  9
$USERR4
 40
0.0
  9
$USERR5
 40
0.0
  9
$WORLDVIEW
 70
     1
  9
$SHADEDGE
 70
     3
  9
$SHADEDIF
 70
    70
  9
$TILEMODE
 70
     1
  9
$MAXACTVP
 70
    64
  9
$PINSBASE
 10
0.0
 20
0.0
 30
0.0
  9
$PLIMCHECK
 70
     0
  9
$PEXTMIN
 10
1.0000000000E+20
 20
1.0000000000E+20
 30
1.0000000000E+20
  9
$PEXTMAX
 10
-1.0000000000E+20
 20
-1.0000000000E+20
 30
-1.0000000000E+20
  9
$PLIMMIN
 10
0.0
 20
0.0
  9
$PLIMMAX
 10
420.0
 20
297.0
  9
$UNITMODE
 70
     0
  9
$VISRETAIN
 70
     1
  9
$PLINEGEN
 70
     0
  9
$PSLTSCALE
 70
     1
  9
$TREEDEPTH
 70
  3020
  9
$CMLSTYLE
  2
Standard
  9
$CMLJUST
 70
     0
  9
$CMLSCALE
 40
20.0
  9
$PROXYGRAPHICS
 70
     1
  9
$MEASUREMENT
 70
     1
  9
$CELWEIGHT
370
    -1
  9
$ENDCAPS
280
     0
  9
$JOINSTYLE
280
     0
  9
$LWDISPLAY
290
     1
  9
$INSUNITS
 70
     4
  9
$HYPERLINKBASE
  1

  9
$STYLESHEET
  1

  9
$XEDIT
290
     1
  9
$CEPSNTYPE
380
     0
  9
$PSTYLEMODE
290
     1
  9
$FINGERPRINTGUID
  2
{D1CD7A20-D8F6-4626-8768-FBC16DF3F308}
  9
$VERSIONGUID
  2
{FAEB1C32-E019-11D5-929B-00C0DF256EC4}
  9
$EXTNAMES
290
     1
  9
$PSVPSCALE
 40
0.0
  9
$OLESTARTUP
290
     0
  0
ENDSEC
  0
SECTION
  2
CLASSES
  0
CLASS
  1
ACDBDICTIONARYWDFLT
  2
AcDbDictionaryWithDefault
  3
ObjectDBX Classes
 90
        0
280
     0
281
     0
  0
CLASS
  1
VISUALSTYLE
  2
AcDbVisualStyle
  3
ObjectDBX Classes
 90
     4095
280
     0
281
     0
  0
CLASS
  1
MATERIAL
  2
AcDbMaterial
  3
ObjectDBX Classes
 90
     1153
280
     0
281
     0
  0
CLASS
  1
SCALE
  2
AcDbScale
  3
ObjectDBX Classes
 90
     1153
280
     0
281
     0
  0
CLASS
  1
TABLESTYLE
  2
AcDbTableStyle
  3
ObjectDBX Classes
 90
     4095
280
     0
281
     0
  0
CLASS
  1
MLEADERSTYLE
  2
AcDbMLeaderStyle
  3
ACDB_MLEADERSTYLE_CLASS
 90
     4095
280
     0
281
     0
  0
CLASS
  1
SUN
  2
AcDbSun
  3
SCENEOE
 90
     1153
280
     0
281
     0
  0
CLASS
  1
ACDBPLACEHOLDER
  2
AcDbPlaceHolder
  3
ObjectDBX Classes
 90
        0
280
     0
281
     0
  0
CLASS
  1
LAYOUT
  2
AcDbLayout
  3
ObjectDBX Classes
 90
        0
280
     0
281
     0
  0
ENDSEC
  0
SECTION
  2
TABLES
  0
TABLE
  2
VPORT
  5
8
330
0
100
AcDbSymbolTable
 70
     1
  0
VPORT
  5
29
330
8
100
AcDbSymbolTableRecord
100
AcDbViewportTableRecord
  2
*Active
 70
     0
 10
0.0
 20
0.0
 11
1.0
 21
1.0
 12
148.5
 22
105.0
 13
0.0
 23
0.0
 14
10.0
 24
10.0
 15
10.0
 25
10.0
 16
0.0
 26
0.0
 36
1.0
 17
0.0
 27
0.0
 37
0.0
 40
210.0
 41
1.4142857143
 42
50.0
 43
0.0
 44
0.0
 50
0.0
 51
0.0
 71
     0
 72
  2000
 73
     1
 74
     3
 75
     0
 76
     0
 77
     0
 78
     0
281
     0
 65
     1
110
0.0
120
0.0
130
0.0
111
1.0
121
0.0
131
0.0
112
0.0
122
1.0
132
0.0
 79
     0
146
0.0
  0
ENDTAB
  0
TABLE
  2
LTYPE
  5
5
330
0
100
AcDbSymbolTable
 70
     6
  0
LTYPE
  5
14
330
5
100
AcDbSymbolTableRecord
100
AcDbLinetypeTableRecord
  2
ByBlock
 70
     0
  3

 72
    65
 73
     0
 40
0.0
  0
LTYPE
  5
15
330
5
100
AcDbSymbolTableRecord
100
AcDbLinetypeTableRecord
  2
ByLayer
 70
     0
  3

 72
    65
 73
     0
 40
0.0
  0
LTYPE
  5
16
330
5
100
AcDbSymbolTableRecord
100
AcDbLinetypeTableRecord
  2
Continuous
 70
     0
  3
Solid line
 72
    65
 73
     0
 40
0.0
  0
LTYPE
  5
6E
330
5
100
AcDbSymbolTableRecord
100
AcDbLinetypeTableRecord
  2
HIDDEN
 70
     0
  3
Hidden __ __ __ __ __ __ __ __ __ __ __ __ __ __
 72
    65
 73
     2
 40
1.905
 49
1.27
 74
     0
 49
-0.635
 74
     0
  0
LTYPE
  5
6F
330
5
100
AcDbSymbolTableRecord
100
AcDbLinetypeTableRecord
  2
PHANTOM
 70
     0
  3
Phantom ______  __  __  ______  __  __  ______
 72
    65
 73
     6
 40
12.7
 49
6.35
 74
     0
 49
-1.27
 74
     0
 49
1.27
 74
     0
 49
-1.27
 74
     0
 49
1.27
 74
     0
 49
-1.27
 74
     0
  0
LTYPE
  5
70
330
5
100
AcDbSymbolTableRecord
100
AcDbLinetypeTableRecord
  2
CENTER
 70
     0
  3
Center ____ _ ____ _ ____ _ ____ _ ____ _ ____
 72
    65
 73
     4
 40
10.16
 49
6.35
 74
     0
 49
-1.27
 74
     0
 49
1.27
 74
     0
 49
-1.27
 74
     0
  0
LTYPE
  5
71
330
5
100
AcDbSymbolTableRecord
100
AcDbLinetypeTableRecord
  2
CENTERX2
 70
     0
  3
Center (2x) ________  __  ________  __  _____
 72
    65
 73
     4
 40
20.32
 49
12.7
 74
     0
 49
-2.54
 74
     0
 49
2.54
 74
     0
 49
-2.54
 74
     0
  0
LTYPE
  5
72
330
5
100
AcDbSymbolTableRecord
100
AcDbLinetypeTableRecord
  2
DOT2
 70
     0
  3
Dot (.5x) ........................................
 72
    65
 73
     2
 40
0.635
 49
0.0
 74
     0
 49
-0.635
 74
     0
  0
ENDTAB
  0
TABLE
  2
LAYER
  5
2
330
0
100
AcDbSymbolTable
 70
     5
  0
LAYER
  5
10
330
2
100
AcDbSymbolTableRecord
100
AcDbLayerTableRecord
  2
0
 70
     0
 62
     7
  6
Continuous
370
    -3
390
F
  0
LAYER
  5
73
330
2
100
AcDbSymbolTableRecord
100
AcDbLayerTableRecord
  2
FORMAT
 70
     0
 62
     7
  6
Continuous
370
    -3
390
F
  0
LAYER
  5
74
330
2
100
AcDbSymbolTableRecord
100
AcDbLayerTableRecord
  2
VERMASSUNG
 70
     0
 62
     7
  6
Continuous
370
    -3
390
F
  0
LAYER
  5
75
330
2
100
AcDbSymbolTableRecord
100
AcDbLayerTableRecord
  2
KOPF_DÜNN
 70
     0
 62
     7
  6
Continuous
370
    -3
390
F
  0
LAYER
  5
76
330
2
100
AcDbSymbolTableRecord
100
AcDbLayerTableRecord
  2
KOPF_DICK
 70
     0
 62
     7
  6
Continuous
370
    25
390
F
  0
ENDTAB
  0
TABLE
  2
STYLE
  5
3
330
0
100
AcDbSymbolTable
 70
     3
  0
STYLE
  5
11
330
3
100
AcDbSymbolTableRecord
100
AcDbTextStyleTableRecord
  2
Standard
 70
     0
 40
0.0
 41
1.0
 50
0.0
 71
     0
 42
2.0
  3
txt
  4

  0
STYLE
  5
77
330
3
100
AcDbSymbolTableRecord
100
AcDbTextStyleTableRecord
  2
SLDTEXTSTYLE0
 70
     0
 40
0.0
 41
0.7
 50
0.0
 71
     0
 42
2.0
  3
TXT
  4

  0
STYLE
  5
7B
330
3
100
AcDbSymbolTableRecord
100
AcDbTextStyleTableRecord
  2
SLDTEXTSTYLE1
 70
     0
 40
0.0
 41
0.6428571429
 50
0.0
 71
     0
 42
2.0
  3
TXT
  4

  0
ENDTAB
  0
TABLE
  2
VIEW
  5
6
330
0
100
AcDbSymbolTable
 70
     0
  0
ENDTAB
  0
TABLE
  2
UCS
  5
7
330
0
100
AcDbSymbolTable
 70
     0
  0
ENDTAB
  0
TABLE
  2
APPID
  5
9
330
0
100
AcDbSymbolTable
 70
     1
  0
APPID
  5
12
330
9
100
AcDbSymbolTableRecord
100
AcDbRegAppTableRecord
  2
ACAD
 70
     0
  0
ENDTAB
  0
TABLE
  2
DIMSTYLE
  5
A
330
0
100
AcDbSymbolTable
 70
     3
100
AcDbDimStyleTable
  0
DIMSTYLE
105
27
330
A
100
AcDbSymbolTableRecord
100
AcDbDimStyleTableRecord
  2
ISO-25
 70
     0
 41
2.5
 42
0.625
 43
3.75
 44
1.25
 73
     0
 74
     0
 77
     1
 78
     8
140
2.5
141
2.5
143
0.0393700787
147
0.625
171
     3
172
     1
178
     0
271
     2
272
     2
274
     3
278
    44
283
     0
284
     8
340
11
  0
DIMSTYLE
105
12D
102
{ACAD_REACTORS
330
12C
330
138
330
143
330
14D
330
157
330
161
330
16D
102
}
330
A
100
AcDbSymbolTableRecord
100
AcDbDimStyleTableRecord
  2
SLDDIMSTYLE0
 70
     0
 41
3.0
 44
0.0
 45
0.000000001
 73
     0
 74
     0
 77
     1
 78
    12
 79
     3
140
2.0
147
0.5
173
     1
178
     0
271
     2
272
     3
276
     2
284
    12
340
77
  0
DIMSTYLE
105
17A
102
{ACAD_REACTORS
330
179
102
}
330
A
100
AcDbSymbolTableRecord
100
AcDbDimStyleTableRecord
  2
SLDDIMSTYLE1
 70
     0
 41
3.0
 44
0.0
 45
0.000000001
 73
     0
 74
     0
 77
     1
 78
    12
 79
     3
140
2.0
147
0.5
173
     1
178
     0
271
     0
272
     3
276
     2
284
    12
340
77
  0
ENDTAB
  0
TABLE
  2
BLOCK_RECORD
  5
1
330
0
100
AcDbSymbolTable
 70
     9
  0
BLOCK_RECORD
  5
1F
330
1
100
AcDbSymbolTableRecord
100
AcDbBlockTableRecord
  2
*Model_Space
340
22
  0
BLOCK_RECORD
  5
1B
330
1
100
AcDbSymbolTableRecord
100
AcDbBlockTableRecord
  2
*Paper_Space
340
1E
  0
BLOCK_RECORD
  5
23
330
1
100
AcDbSymbolTableRecord
100
AcDbBlockTableRecord
  2
*Paper_Space0
340
26
  0
BLOCK_RECORD
  5
12E
330
1
100
AcDbSymbolTableRecord
100
AcDbBlockTableRecord
  2
_D
340
0
  0
BLOCK_RECORD
  5
139
330
1
100
AcDbSymbolTableRecord
100
AcDbBlockTableRecord
  2
_D_1
340
0
  0
BLOCK_RECORD
  5
144
330
1
100
AcDbSymbolTableRecord
100
AcDbBlockTableRecord
  2
_D_2
340
0
  0
BLOCK_RECORD
  5
14E
330
1
100
AcDbSymbolTableRecord
100
AcDbBlockTableRecord
  2
_D_3
340
0
  0
BLOCK_RECORD
  5
158
330
1
100
AcDbSymbolTableRecord
100
AcDbBlockTableRecord
  2
_D_4
340
0
  0
BLOCK_RECORD
  5
162
330
1
100
AcDbSymbolTableRecord
100
AcDbBlockTableRecord
  2
_D_5
340
0
  0
BLOCK_RECORD
  5
16E
330
1
100
AcDbSymbolTableRecord
100
AcDbBlockTableRecord
  2
_D_6
340
0
  0
BLOCK_RECORD
  5
17B
330
1
100
AcDbSymbolTableRecord
100
AcDbBlockTableRecord
  2
_D_7
340
0
  0
ENDTAB
  0
ENDSEC
  0
SECTION
  2
BLOCKS
  0
BLOCK
  5
20
330
1F
100
AcDbEntity
  8
0
100
AcDbBlockBegin
  2
*Model_Space
 70
     0
 10
0.0
 20
0.0
 30
0.0
  3
*Model_Space
  1

  0
ENDBLK
  5
21
330
1F
100
AcDbEntity
  8
0
100
AcDbBlockEnd
  0
BLOCK
  5
1C
330
1B
100
AcDbEntity
 67
     1
  8
0
100
AcDbBlockBegin
  2
*Paper_Space
 70
     0
 10
0.0
 20
0.0
 30
0.0
  3
*Paper_Space
  1

  0
ENDBLK
  5
1D
330
1B
100
AcDbEntity
 67
     1
  8
0
100
AcDbBlockEnd
  0
BLOCK
  5
24
330
23
100
AcDbEntity
  8
0
100
AcDbBlockBegin
  2
*Paper_Space0
 70
     0
 10
0.0
 20
0.0
 30
0.0
  3
*Paper_Space0
  1

  0
ENDBLK
  5
25
330
23
100
AcDbEntity
  8
0
100
AcDbBlockEnd
  0
BLOCK
  5
12F
330
12E
100
AcDbEntity
  8
0
100
AcDbBlockBegin
  2
_D
 70
     0
 10
0.0
 20
0.0
 30
0.0
  3
_D
  1

  0
SOLID
  5
131
330
12E
100
AcDbEntity
  8
VERMASSUNG
100
AcDbTrace
 10
267.0193132994
 20
108.3489480582
 30
0.0
 11
267.4693132994
 21
111.3489480582
 31
0.0
 12
266.5693132994
 22
111.3489480582
 32
0.0
 13
266.5693132994
 23
111.3489480582
 33
0.0
  0
SOLID
  5
132
330
12E
100
AcDbEntity
  8
VERMASSUNG
100
AcDbTrace
 10
267.0193132994
 20
140.3489480582
 30
0.0
 11
266.5693132994
 21
137.3489480582
 31
0.0
 12
267.4693132994
 22
137.3489480582
 32
0.0
 13
267.4693132994
 23
137.3489480582
 33
0.0
  0
LINE
  5
133
330
12E
100
AcDbEntity
  8
VERMASSUNG
100
AcDbLine
 10
223.0193132994
 20
108.3489480582
 30
0.0
 11
268.0193132994
 21
108.3489480582
 31
0.0
  0
LINE
  5
134
330
12E
100
AcDbEntity
  8
VERMASSUNG
100
AcDbLine
 10
223.0193132994
 20
140.3489480582
 30
0.0
 11
268.0193132994
 21
140.3489480582
 31
0.0
  0
LINE
  5
135
330
12E
100
AcDbEntity
  8
VERMASSUNG
100
AcDbLine
 10
267.0193132994
 20
108.3489480582
 30
0.0
 11
267.0193132994
 21
140.3489480582
 31
0.0
  0
MTEXT
  5
136
330
12E
100
AcDbEntity
  8
VERMASSUNG
100
AcDbMText
 10
264.4411779945
 20
121.143948101
 30
0.0
 40
2.0
 41
0.0
 71
     1
 72
     1
  1
%%c
  7
SLDTEXTSTYLE0
 11
6.123233995736766E-17
 21
1.0
 31
0.0
 73
     1
 44
1.0
  0
MTEXT
  5
137
330
12E
100
AcDbEntity
  8
VERMASSUNG
100
AcDbMText
 10
264.2411780432
 20
124.7539481153
 30
0.0
 40
2.0
 41
0.0
 71
     1
 72
     1
  1
32
  7
SLDTEXTSTYLE0
 11
6.123233995736766E-17
 21
1.0
 31
0.0
 73
     1
 44
1.0
  0
ENDBLK
  5
130
330
12E
100
AcDbEntity
  8
0
100
AcDbBlockEnd
  0
BLOCK
  5
13A
330
139
100
AcDbEntity
  8
0
100
AcDbBlockBegin
  2
_D_1
 70
     0
 10
0.0
 20
0.0
 30
0.0
  3
_D_1
  1

  0
SOLID
  5
13C
330
139
100
AcDbEntity
  8
VERMASSUNG
100
AcDbTrace
 10
276.4122630495
 20
160.3489480582
 30
0.0
 11
275.9622630495
 21
157.3489480582
 31
0.0
 12
276.8622630495
 22
157.3489480582
 32
0.0
 13
276.8622630495
 23
157.3489480582
 33
0.0
  0
SOLID
  5
13D
330
139
100
AcDbEntity
  8
VERMASSUNG
100
AcDbTrace
 10
276.4122630495
 20
88.3489480582
 30
0.0
 11
276.8622630495
 21
91.3489480582
 31
0.0
 12
275.9622630495
 22
91.3489480582
 32
0.0
 13
275.9622630495
 23
91.3489480582
 33
0.0
  0
LINE
  5
13E
330
139
100
AcDbEntity
  8
VERMASSUNG
100
AcDbLine
 10
199.0193132994
 20
160.3489480582
 30
0.0
 11
277.4122630495
 21
160.3489480582
 31
0.0
  0
LINE
  5
13F
330
139
100
AcDbEntity
  8
VERMASSUNG
100
AcDbLine
 10
199.0193132994
 20
88.3489480582
 30
0.0
 11
277.4122630495
 21
88.3489480582
 31
0.0
  0
LINE
  5
140
330
139
100
AcDbEntity
  8
VERMASSUNG
100
AcDbLine
 10
276.4122630495
 20
160.3489480582
 30
0.0
 11
276.4122630495
 21
88.3489480582
 31
0.0
  0
MTEXT
  5
141
330
139
100
AcDbEntity
  8
VERMASSUNG
100
AcDbMText
 10
273.8341277446
 20
121.143948101
 30
0.0
 40
2.0
 41
0.0
 71
     1
 72
     1
  1
%%c
  7
SLDTEXTSTYLE0
 11
-7.044195017643634E-15
 21
1.0
 31
0.0
 73
     1
 44
1.0
  0
MTEXT
  5
142
330
139
100
AcDbEntity
  8
VERMASSUNG
100
AcDbMText
 10
273.6341277933
 20
124.7539481153
 30
0.0
 40
2.0
 41
0.0
 71
     1
 72
     1
  1
72
  7
SLDTEXTSTYLE0
 11
-7.044195017643634E-15
 21
1.0
 31
0.0
 73
     1
 44
1.0
  0
ENDBLK
  5
13B
330
139
100
AcDbEntity
  8
0
100
AcDbBlockEnd
  0
BLOCK
  5
145
330
144
100
AcDbEntity
  8
0
100
AcDbBlockBegin
  2
_D_2
 70
     0
 10
0.0
 20
0.0
 30
0.0
  3
_D_2
  1

  0
SOLID
  5
147
330
144
100
AcDbEntity
  8
VERMASSUNG
100
AcDbTrace
 10
224.0193132994
 20
170.3489480582
 30
0.0
 11
221.0193132994
 21
170.7989480582
 31
0.0
 12
221.0193132994
 22
169.8989480582
 32
0.0
 13
221.0193132994
 23
169.8989480582
 33
0.0
  0
SOLID
  5
148
330
144
100
AcDbEntity
  8
VERMASSUNG
100
AcDbTrace
 10
200.0193132994
 20
170.3489480582
 30
0.0
 11
203.0193132994
 21
169.8989480582
 31
0.0
 12
203.0193132994
 22
170.7989480582
 32
0.0
 13
203.0193132994
 23
170.7989480582
 33
0.0
  0
LINE
  5
149
330
144
100
AcDbEntity
  8
VERMASSUNG
100
AcDbLine
 10
224.0193132994
 20
139.3489480582
 30
0.0
 11
224.0193132994
 21
171.3489480582
 31
0.0
  0
LINE
  5
14A
330
144
100
AcDbEntity
  8
VERMASSUNG
100
AcDbLine
 10
200.0193132994
 20
159.3489480582
 30
0.0
 11
200.0193132994
 21
171.3489480582
 31
0.0
  0
LINE
  5
14B
330
144
100
AcDbEntity
  8
VERMASSUNG
100
AcDbLine
 10
224.0193132994
 20
170.3489480582
 30
0.0
 11
200.0193132994
 21
170.3489480582
 31
0.0
  0
MTEXT
  5
14C
330
144
100
AcDbEntity
  8
VERMASSUNG
100
AcDbMText
 10
210.5193132863
 20
172.9270836542
 30
0.0
 40
2.0
 41
0.0
 71
     1
 72
     1
  1
24
  7
SLDTEXTSTYLE0
 73
     1
 44
1.0
  0
ENDBLK
  5
146
330
144
100
AcDbEntity
  8
0
100
AcDbBlockEnd
  0
BLOCK
  5
14F
330
14E
100
AcDbEntity
  8
0
100
AcDbBlockBegin
  2
_D_3
 70
     0
 10
0.0
 20
0.0
 30
0.0
  3
_D_3
  1

  0
SOLID
  5
151
330
14E
100
AcDbEntity
  8
VERMASSUNG
100
AcDbTrace
 10
95.9693132994
 20
170.3489480582
 30
0.0
 11
98.9693132994
 21
169.8989480582
 31
0.0
 12
98.9693132994
 22
170.7989480582
 32
0.0
 13
98.9693132994
 23
170.7989480582
 33
0.0
  0
SOLID
  5
152
330
14E
100
AcDbEntity
  8
VERMASSUNG
100
AcDbTrace
 10
200.0193132994
 20
170.3489480582
 30
0.0
 11
197.0193132994
 21
170.7989480582
 31
0.0
 12
197.0193132994
 22
169.8989480582
 32
0.0
 13
197.0193132994
 23
169.8989480582
 33
0.0
  0
LINE
  5
153
330
14E
100
AcDbEntity
  8
VERMASSUNG
100
AcDbLine
 10
95.9693132994
 20
154.195388382
 30
0.0
 11
95.9693132994
 21
171.3489480582
 31
0.0
  0
LINE
  5
154
330
14E
100
AcDbEntity
  8
VERMASSUNG
100
AcDbLine
 10
200.0193132994
 20
159.3489480582
 30
0.0
 11
200.0193132994
 21
171.3489480582
 31
0.0
  0
LINE
  5
155
330
14E
100
AcDbEntity
  8
VERMASSUNG
100
AcDbLine
 10
95.9693132994
 20
170.3489480582
 30
0.0
 11
200.0193132994
 21
170.3489480582
 31
0.0
  0
MTEXT
  5
156
330
14E
100
AcDbEntity
  8
VERMASSUNG
100
AcDbMText
 10
144.2943132983
 20
172.9270836542
 30
0.0
 40
2.0
 41
0.0
 71
     1
 72
     1
  1
104.05
  7
SLDTEXTSTYLE0
 73
     1
 44
1.0
  0
ENDBLK
  5
150
330
14E
100
AcDbEntity
  8
0
100
AcDbBlockEnd
  0
BLOCK
  5
159
330
158
100
AcDbEntity
  8
0
100
AcDbBlockBegin
  2
_D_4
 70
     0
 10
0.0
 20
0.0
 30
0.0
  3
_D_4
  1

  0
SOLID
  5
15B
330
158
100
AcDbEntity
  8
VERMASSUNG
100
AcDbTrace
 10
38.1193132994
 20
178.8970674222
 30
0.0
 11
41.1193132994
 21
178.4470674222
 31
0.0
 12
41.1193132994
 22
179.3470674222
 32
0.0
 13
41.1193132994
 23
179.3470674222
 33
0.0
  0
SOLID
  5
15C
330
158
100
AcDbEntity
  8
VERMASSUNG
100
AcDbTrace
 10
200.0193132994
 20
178.8970674222
 30
0.0
 11
197.0193132994
 21
179.3470674222
 31
0.0
 12
197.0193132994
 22
178.4470674222
 32
0.0
 13
197.0193132994
 23
178.4470674222
 33
0.0
  0
LINE
  5
15D
330
158
100
AcDbEntity
  8
VERMASSUNG
100
AcDbLine
 10
38.1193132994
 20
144.0396258047
 30
0.0
 11
38.1193132994
 21
179.8970674222
 31
0.0
  0
LINE
  5
15E
330
158
100
AcDbEntity
  8
VERMASSUNG
100
AcDbLine
 10
200.0193132994
 20
159.3489480582
 30
0.0
 11
200.0193132994
 21
179.8970674222
 31
0.0
  0
LINE
  5
15F
330
158
100
AcDbEntity
  8
VERMASSUNG
100
AcDbLine
 10
38.1193132994
 20
178.8970674222
 30
0.0
 11
200.0193132994
 21
178.8970674222
 31
0.0
  0
MTEXT
  5
160
330
158
100
AcDbEntity
  8
VERMASSUNG
100
AcDbMText
 10
116.3693132294
 20
181.4752030181
 30
0.0
 40
2.0
 41
0.0
 71
     1
 72
     1
  1
161.9
  7
SLDTEXTSTYLE0
 73
     1
 44
1.0
  0
ENDBLK
  5
15A
330
158
100
AcDbEntity
  8
0
100
AcDbBlockEnd
  0
BLOCK
  5
163
330
162
100
AcDbEntity
  8
0
100
AcDbBlockBegin
  2
_D_5
 70
     0
 10
0.0
 20
0.0
 30
0.0
  3
_D_5
  1

  0
ARC
  5
165
330
162
100
AcDbEntity
  8
VERMASSUNG
100
AcDbCircle
 10
142.2693135364
 20
188.4037032103
 30
0.0
 40
4.24852922888762
100
AcDbArc
 50
153.4349488229
 51
206.5650511771
  0
ARC
  5
166
330
162
100
AcDbEntity
  8
VERMASSUNG
100
AcDbCircle
 10
140.8693131206
 20
188.4037032103
 30
0.0
 40
4.24852922888762
100
AcDbArc
 50
333.4349488229
 51
26.5650511771
  0
SOLID
  5
167
330
162
100
AcDbEntity
  8
VERMASSUNG
100
AcDbTrace
 10
38.1193132994
 20
186.5037029455
 30
0.0
 11
41.1193132994
 21
186.0537029455
 31
0.0
 12
41.1193132994
 22
186.9537029455
 32
0.0
 13
41.1193132994
 23
186.9537029455
 33
0.0
  0
SOLID
  5
168
330
162
100
AcDbEntity
  8
VERMASSUNG
100
AcDbTrace
 10
245.0193132994
 20
186.5037029455
 30
0.0
 11
242.0193132994
 21
186.9537029455
 31
0.0
 12
242.0193132994
 22
186.0537029455
 32
0.0
 13
242.0193132994
 23
186.0537029455
 33
0.0
  0
LINE
  5
169
330
162
100
AcDbEntity
  8
VERMASSUNG
100
AcDbLine
 10
38.1193132994
 20
144.0396258047
 30
0.0
 11
38.1193132994
 21
187.5037029455
 31
0.0
  0
LINE
  5
16A
330
162
100
AcDbEntity
  8
VERMASSUNG
100
AcDbLine
 10
245.0193132994
 20
135.5489480582
 30
0.0
 11
245.0193132994
 21
187.5037029455
 31
0.0
  0
LINE
  5
16B
330
162
100
AcDbEntity
  8
VERMASSUNG
100
AcDbLine
 10
38.1193132994
 20
186.5037029455
 30
0.0
 11
245.0193132994
 21
186.5037029455
 31
0.0
  0
MTEXT
  5
16C
330
162
100
AcDbEntity
  8
VERMASSUNG
100
AcDbMText
 10
138.4693134723
 20
189.0818387743
 30
0.0
 40
2.0
 41
0.0
 71
     1
 72
     1
  1
206.9
  7
SLDTEXTSTYLE0
 73
     1
 44
1.0
  0
ENDBLK
  5
164
330
162
100
AcDbEntity
  8
0
100
AcDbBlockEnd
  0
BLOCK
  5
16F
330
16E
100
AcDbEntity
  8
0
100
AcDbBlockBegin
  2
_D_6
 70
     0
 10
0.0
 20
0.0
 30
0.0
  3
_D_6
  1

  0
SOLID
  5
171
330
16E
100
AcDbEntity
  8
VERMASSUNG
100
AcDbTrace
 10
27.974009457
 20
155.8489480582
 30
0.0
 11
27.524009457
 21
152.8489480582
 31
0.0
 12
28.424009457
 22
152.8489480582
 32
0.0
 13
28.424009457
 23
152.8489480582
 33
0.0
  0
SOLID
  5
172
330
16E
100
AcDbEntity
  8
VERMASSUNG
100
AcDbTrace
 10
27.974009457
 20
92.8489480582
 30
0.0
 11
28.424009457
 21
95.8489480582
 31
0.0
 12
27.524009457
 22
95.8489480582
 32
0.0
 13
27.524009457
 23
95.8489480582
 33
0.0
  0
LINE
  5
173
330
16E
100
AcDbEntity
  8
VERMASSUNG
100
AcDbLine
 10
70.3193132994
 20
155.8489480582
 30
0.0
 11
26.974009457
 21
155.8489480582
 31
0.0
  0
LINE
  5
174
330
16E
100
AcDbEntity
  8
VERMASSUNG
100
AcDbLine
 10
70.3193132994
 20
92.8489480582
 30
0.0
 11
26.974009457
 21
92.8489480582
 31
0.0
  0
LINE
  5
175
330
16E
100
AcDbEntity
  8
VERMASSUNG
100
AcDbLine
 10
27.974009457
 20
155.8489480582
 30
0.0
 11
27.974009457
 21
92.8489480582
 31
0.0
  0
MTEXT
  5
176
330
16E
100
AcDbEntity
  8
VERMASSUNG
100
AcDbMText
 10
25.1958742008
 20
116.6439487604
 30
0.0
 40
2.0
 41
0.0
 71
     1
 72
     1
  1
HSK A
  7
SLDTEXTSTYLE0
 11
-7.044195017643634E-15
 21
1.0
 31
0.0
 73
     1
 44
1.0
  0
MTEXT
  5
177
330
16E
100
AcDbEntity
  8
VERMASSUNG
100
AcDbMText
 10
25.3958741521
 20
125.6439483729
 30
0.0
 40
2.0
 41
0.0
 71
     1
 72
     1
  1
%%c
  7
SLDTEXTSTYLE0
 11
-7.044195017643634E-15
 21
1.0
 31
0.0
 73
     1
 44
1.0
  0
MTEXT
  5
178
330
16E
100
AcDbEntity
  8
VERMASSUNG
100
AcDbMText
 10
25.1958742008
 20
129.2539483872
 30
0.0
 40
2.0
 41
0.0
 71
     1
 72
     1
  1
63
  7
SLDTEXTSTYLE0
 11
-7.044195017643634E-15
 21
1.0
 31
0.0
 73
     1
 44
1.0
  0
ENDBLK
  5
170
330
16E
100
AcDbEntity
  8
0
100
AcDbBlockEnd
  0
BLOCK
  5
17C
330
17B
100
AcDbEntity
  8
0
100
AcDbBlockBegin
  2
_D_7
 70
     0
 10
0.0
 20
0.0
 30
0.0
  3
_D_7
  1

  0
SOLID
  5
17E
330
17B
100
AcDbEntity
  8
VERMASSUNG
100
AcDbTrace
 10
257.1692469677
 20
117.2779480582
 30
0.0
 11
257.6192469677
 21
120.2779480582
 31
0.0
 12
256.7192469677
 22
120.2779480582
 32
0.0
 13
256.7192469677
 23
120.2779480582
 33
0.0
  0
SOLID
  5
17F
330
17B
100
AcDbEntity
  8
VERMASSUNG
100
AcDbTrace
 10
257.1692469677
 20
131.4199480582
 30
0.0
 11
256.7192469677
 21
128.4199480582
 31
0.0
 12
257.6192469677
 22
128.4199480582
 32
0.0
 13
257.6192469677
 23
128.4199480582
 33
0.0
  0
LINE
  5
180
330
17B
100
AcDbEntity
  8
VERMASSUNG
100
AcDbLine
 10
245.0193132994
 20
117.2779480582
 30
0.0
 11
258.1692469677
 21
117.2779480582
 31
0.0
  0
LINE
  5
181
330
17B
100
AcDbEntity
  8
VERMASSUNG
100
AcDbLine
 10
245.0193132994
 20
131.4199480582
 30
0.0
 11
258.1692469677
 21
131.4199480582
 31
0.0
  0
LINE
  5
182
330
17B
100
AcDbEntity
  8
VERMASSUNG
100
AcDbLine
 10
257.1692469677
 20
117.2779480582
 30
0.0
 11
257.1692469677
 21
131.4199480582
 31
0.0
  0
MTEXT
  5
183
330
17B
100
AcDbEntity
  8
VERMASSUNG
100
AcDbMText
 10
254.5911113717
 20
121.1489479062
 30
0.0
 40
2.0
 41
0.0
 71
     1
 72
     1
  1
SW
  7
SLDTEXTSTYLE0
 11
6.123233995736766E-17
 21
1.0
 31
0.0
 73
     1
 44
1.0
  0
MTEXT
  5
184
330
17B
100
AcDbEntity
  8
VERMASSUNG
100
AcDbMText
 10
254.5911113717
 20
124.9489479703
 30
0.0
 40
2.0
 41
0.0
 71
     1
 72
     1
  1
14
  7
SLDTEXTSTYLE0
 11
6.123233995736766E-17
 21
1.0
 31
0.0
 73
     1
 44
1.0
  0
ENDBLK
  5
17D
330
17B
100
AcDbEntity
  8
0
100
AcDbBlockEnd
  0
ENDSEC
  0
SECTION
  2
ENTITIES
  0
MTEXT
  5
78
330
1F
100
AcDbEntity
  8
KOPF_DÜNN
100
AcDbMText
 10
13.8892156294
 20
23.8442973028
 30
0.0
 40
3.0
 41
0.0
 71
     1
 72
     1
  1
HA6.D32.K01.160
  7
SLDTEXTSTYLE0
 73
     1
 44
1.0
  0
MTEXT
  5
79
330
1F
100
AcDbEntity
  8
VERMASSUNG
100
AcDbMText
 10
13.9329988022
 20
28.8834360957
 30
0.0
 40
3.0
 41
0.0
 71
     1
 72
     1
  1
Fräsdorn Typ S_Milling arbor type S
  7
SLDTEXTSTYLE0
 73
     1
 44
1.0
  0
MTEXT
  5
7A
330
1F
100
AcDbEntity
  8
VERMASSUNG
100
AcDbMText
 10
98.8601118557
 20
13.8365368761
 30
0.0
 40
2.0
 41
0.0
 71
     1
 72
     1
  1
Datum: 19.02.2018
  7
SLDTEXTSTYLE0
 73
     1
 44
1.0
  0
MTEXT
  5
7C
330
1F
100
AcDbEntity
  8
VERMASSUNG
100
AcDbMText
 10
13.933048693
 20
18.0482802738
 30
0.0
 40
2.0
 41
0.0
 71
     1
 72
     1
  1
HSK A 63 / Ø32
  7
SLDTEXTSTYLE1
 73
     1
 44
1.0
  0
MTEXT
  5
7D
330
1F
100
AcDbEntity
  8
VERMASSUNG
100
AcDbMText
 10
13.9808475933
 20
13.9090974274
 30
0.0
 40
2.0
 41
0.0
 71
     1
 72
     1
  1
Gewicht: 3806g
  7
SLDTEXTSTYLE0
 73
     1
 44
1.0
  0
LINE
  5
7E
330
1F
100
AcDbEntity
  8
0
  6
Continuous
 62
     7
370
    25
100
AcDbLine
 10
118.3701652822
 20
88.3489496079
 30
0.0
 11
199.0193065045
 21
88.3489496079
 31
0.0
  0
LINE
  5
7F
330
1F
100
AcDbEntity
  8
0
  6
Continuous
 62
     7
370
    25
100
AcDbLine
 10
199.0193065045
 20
160.3489465085
 30
0.0
 11
118.3701652822
 21
160.3489465085
 31
0.0
  0
ARC
  5
80
330
1F
100
AcDbEntity
  8
0
  6
Continuous
 62
     7
370
    25
100
AcDbCircle
 10
199.0193132994
 20
89.3489480582
 30
0.0
 40
1.0
100
AcDbArc
 50
270.0
 51
0.0
  0
ARC
  5
81
330
1F
100
AcDbEntity
  8
0
  6
Continuous
 62
     7
370
    25
100
AcDbCircle
 10
199.0193132994
 20
159.3489480582
 30
0.0
 40
1.0
100
AcDbArc
 50
0.0
 51
90.0
  0
ARC
  5
82
330
1F
100
AcDbEntity
  8
0
  6
Continuous
 62
     7
370
    25
100
AcDbCircle
 10
118.3701662605
 20
89.3489480582
 30
0.0
 40
1.000000000000014
100
AcDbArc
 50
210.0
 51
270.0
  0
ARC
  5
83
330
1F
100
AcDbEntity
  8
0
  6
Continuous
 62
     7
370
    25
100
AcDbCircle
 10
118.3701662605
 20
159.3489480582
 30
0.0
 40
1.0
100
AcDbArc
 50
90.0
 51
150.0
  0
LINE
  5
84
330
1F
100
AcDbEntity
  8
0
  6
Continuous
 62
     7
370
    25
100
AcDbLine
 10
117.504139596
 20
159.8489492205
 30
0.0
 11
112.3079892037
 21
150.8489477453
 31
0.0
  0
LINE
  5
85
330
1F
100
AcDbEntity
  8
0
  6
Continuous
 62
     7
370
    25
100
AcDbLine
 10
112.3079892037
 20
97.8489483711
 30
0.0
 11
117.504139596
 21
88.8489468959
 31
0.0
  0
ARC
  5
86
330
1F
100
AcDbEntity
  8
0
  6
Continuous
 62
     7
370
    25
100
AcDbCircle
 10
70.3193132994
 20
93.1489480582
 30
0.0
 40
0.3000000000000114
100
AcDbArc
 50
180.0
 51
270.0
  0
ARC
  5
87
330
1F
100
AcDbEntity
  8
0
  6
Continuous
 62
     7
370
    25
100
AcDbCircle
 10
70.3193132994
 20
155.5489480582
 30
0.0
 40
0.3000000000000114
100
AcDbArc
 50
90.0
 51
180.0
  0
LINE
  5
88
330
1F
100
AcDbEntity
  8
0
  6
Continuous
 62
     7
370
    25
100
AcDbLine
 10
70.3193133136
 20
92.8489475516
 30
0.0
 11
74.9693132726
 21
92.8489475516
 31
0.0
  0
LINE
  5
89
330
1F
100
AcDbEntity
  8
0
  6
Continuous
 62
     7
370
    25
100
AcDbLine
 10
74.9973018442
 20
155.8489485649
 30
0.0
 11
70.3193133136
 21
155.8489485649
 31
0.0
  0
ARC
  5
8A
330
1F
100
AcDbEntity
  8
0
  6
Continuous
 62
     7
370
    25
100
AcDbCircle
 10
96.9693132994
 20
97.3489480582
 30
0.0
 40
1.0
100
AcDbArc
 50
90.0
 51
143.1139143113
  0
ARC
  5
8B
330
1F
100
AcDbEntity
  8
0
  6
Continuous
 62
     7
370
    25
100
AcDbCircle
 10
96.9693132994
 20
151.3489480582
 30
0.0
 40
1.000000000000027
100
AcDbArc
 50
216.9158433303
 51
270.0
  0
ARC
  5
8C
330
1F
100
AcDbEntity
  8
0
  6
Continuous
 62
     7
370
    25
100
AcDbCircle
 10
111.4419630302
 20
97.3489480582
 30
0.0
 40
0.9999999999999888
100
AcDbArc
 50
30.0
 51
90.0
  0
ARC
  5
8D
330
1F
100
AcDbEntity
  8
0
  6
Continuous
 62
     7
370
    25
100
AcDbCircle
 10
111.4419630302
 20
151.3489480582
 30
0.0
 40
1.0
100
AcDbArc
 50
270.0
 51
330.0
  0
LINE
  5
8E
330
1F
100
AcDbEntity
  8
0
  6
Continuous
 62
     7
370
    25
100
AcDbLine
 10
96.9693131534
 20
98.3489475218
 30
0.0
 11
111.4419635174
 21
98.3489475218
 31
0.0
  0
LINE
  5
8F
330
1F
100
AcDbEntity
  8
0
  6
Continuous
 62
     7
370
    25
100
AcDbLine
 10
111.4419635174
 20
150.3489485947
 30
0.0
 11
96.9693131534
 21
150.3489485947
 31
0.0
  0
ARC
  5
90
330
1F
100
AcDbEntity
  8
0
  6
Continuous
 62
     7
370
    25
100
AcDbCircle
 10
69.5193065467
 20
99.7785104438
 30
0.0
 40
0.6000067526677164
100
AcDbArc
 50
33.5571153394
 51
90.0
  0
ARC
  5
91
330
1F
100
AcDbEntity
  8
0
  6
Continuous
 62
     7
370
    25
100
AcDbCircle
 10
69.5193065467
 20
148.9193856726
 30
0.0
 40
0.6000067526677321
100
AcDbArc
 50
270.0
 51
326.4428846606
  0
LINE
  5
92
330
1F
100
AcDbEntity
  8
0
  6
Continuous
 62
     7
370
    25
100
AcDbLine
 10
68.0193132044
 20
100.1285168347
 30
0.0
 11
68.8760261306
 21
100.3580729482
 31
0.0
  0
LINE
  5
93
330
1F
100
AcDbEntity
  8
0
  6
Continuous
 62
     7
370
    25
100
AcDbLine
 10
68.8760261306
 20
148.3398231682
 30
0.0
 11
68.0193132044
 21
148.5693792817
 31
0.0
  0
LINE
  5
94
330
1F
100
AcDbEntity
  8
0
  6
Continuous
 62
     7
370
    25
100
AcDbLine
 10
56.7888907877
 20
148.0067319241
 30
0.0
 11
44.2193124232
 21
147.3769939509
 31
0.0
  0
LINE
  5
95
330
1F
100
AcDbEntity
  8
0
  6
Continuous
 62
     7
370
    25
100
AcDbLine
 10
68.0193132044
 20
148.5693792817
 30
0.0
 11
65.2007038494
 21
148.428166565
 31
0.0
  0
LINE
  5
96
330
1F
100
AcDbEntity
  8
0
  6
Continuous
 62
     7
370
    25
100
AcDbLine
 10
65.2009255041
 20
100.2697183755
 30
0.0
 11
68.0193132044
 21
100.1285168347
 31
0.0
  0
LINE
  5
97
330
1F
100
AcDbEntity
  8
0
  6
Continuous
 62
     7
370
    25
100
AcDbLine
 10
48.2193130788
 20
101.1205020365
 30
0.0
 11
56.7895902109
 21
100.691128802
 31
0.0
  0
ARC
  5
98
330
1F
100
AcDbEntity
  8
0
  6
Continuous
 62
     7
370
    25
100
AcDbCircle
 10
69.0313174998
 20
99.7785171965
 30
0.0
 40
0.6000000000000109
100
AcDbArc
 50
90.0
 51
105.0
  0
ARC
  5
99
330
1F
100
AcDbEntity
  8
0
  6
Continuous
 62
     7
370
    25
100
AcDbCircle
 10
69.0313174998
 20
148.9193789199
 30
0.0
 40
0.6000000000000245
100
AcDbArc
 50
255.0
 51
270.0
  0
LINE
  5
9A
330
1F
100
AcDbEntity
  8
0
  6
Continuous
 62
     7
370
    25
100
AcDbLine
 10
69.0313175342
 20
100.3785173413
 30
0.0
 11
69.5193065235
 21
100.3785173413
 31
0.0
  0
LINE
  5
9B
330
1F
100
AcDbEntity
  8
0
  6
Continuous
 62
     7
370
    25
100
AcDbLine
 10
69.5193065235
 20
148.3193787751
 30
0.0
 11
69.0313175342
 21
148.3193787751
 31
0.0
  0
ARC
  5
9C
330
1F
100
AcDbEntity
  8
0
  6
Continuous
 62
     7
370
    25
100
AcDbCircle
 10
200.4193132994
 20
108.0989480582
 30
0.0
 40
0.6000000000000227
100
AcDbArc
 50
90.0
 51
131.8103148958
  0
ARC
  5
9D
330
1F
100
AcDbEntity
  8
0
  6
Continuous
 62
     7
370
    25
100
AcDbCircle
 10
200.4193132994
 20
140.5989480582
 30
0.0
 40
0.6000000000000227
100
AcDbArc
 50
228.1896851042
 51
270.0
  0
LINE
  5
9E
330
1F
100
AcDbEntity
  8
0
  6
Continuous
 62
     7
370
    25
100
AcDbLine
 10
202.5193061468
 20
108.3489472983
 30
0.0
 11
223.0193104384
 21
108.3489472983
 31
0.0
  0
LINE
  5
9F
330
1F
100
AcDbEntity
  8
0
  6
Continuous
 62
     7
370
    25
100
AcDbLine
 10
223.0193104384
 20
140.3489488182
 30
0.0
 11
202.5193061468
 21
140.3489488182
 31
0.0
  0
LINE
  5
A0
330
1F
100
AcDbEntity
  8
0
  6
Continuous
 62
     7
370
    25
100
AcDbLine
 10
202.5193061468
 20
140.3489488182
 30
0.0
 11
201.2893941042
 21
140.0193928746
 31
0.0
  0
LINE
  5
A1
330
1F
100
AcDbEntity
  8
0
  6
Continuous
 62
     7
370
    25
100
AcDbLine
 10
201.2893941042
 20
108.6785032419
 30
0.0
 11
202.5193061468
 21
108.3489472983
 31
0.0
  0
ARC
  5
A2
330
1F
100
AcDbEntity
  8
0
  6
Continuous
 62
     7
370
    25
100
AcDbCircle
 10
223.0193132994
 20
109.3489480582
 30
0.0
 40
1.0
100
AcDbArc
 50
270.0
 51
0.0
  0
ARC
  5
A3
330
1F
100
AcDbEntity
  8
0
  6
Continuous
 62
     7
370
    25
100
AcDbCircle
 10
223.0193132994
 20
139.3489480582
 30
0.0
 40
1.0
100
AcDbArc
 50
0.0
 51
90.0
  0
ARC
  5
A4
330
1F
100
AcDbEntity
  8
0
  6
Continuous
 62
     7
370
    25
100
AcDbCircle
 10
201.1341040182
 20
108.0989480582
 30
0.0
 40
0.5999999999999943
100
AcDbArc
 50
75.0
 51
90.0
  0
ARC
  5
A5
330
1F
100
AcDbEntity
  8
0
  6
Continuous
 62
     7
370
    25
100
AcDbCircle
 10
201.1341040182
 20
140.5989480582
 30
0.0
 40
0.5999999999999943
100
AcDbArc
 50
270.0
 51
285.0
  0
LINE
  5
A6
330
1F
100
AcDbEntity
  8
0
  6
Continuous
 62
     7
370
    25
100
AcDbLine
 10
200.4193153021
 20
108.698947635
 30
0.0
 11
201.1341091034
 21
108.698947635
 31
0.0
  0
LINE
  5
A7
330
1F
100
AcDbEntity
  8
0
  6
Continuous
 62
     7
370
    25
100
AcDbLine
 10
201.1341091034
 20
139.9989484814
 30
0.0
 11
200.4193153021
 21
139.9989484814
 31
0.0
  0
LINE
  5
A8
330
1F
100
AcDbEntity
  8
0
  6
Continuous
 62
     7
370
    25
100
AcDbLine
 10
39.402649903
 20
103.4789479342
 30
0.0
 11
46.8193135944
 21
103.4789479342
 31
0.0
  0
ARC
  5
A9
330
1F
100
AcDbEntity
  8
0
  6
Continuous
 62
     7
370
    25
100
AcDbCircle
 10
46.8193132994
 20
102.0789480582
 30
0.0
 40
1.400000000000006
100
AcDbArc
 50
42.2465410162
 51
90.0
  0
LINE
  5
AA
330
1F
100
AcDbEntity
  8
0
  6
Continuous
 62
     7
370
    25
100
AcDbLine
 10
38.1203453777
 20
104.6279150066
 30
0.0
 11
39.2604760614
 21
103.4877843228
 31
0.0
  0
LINE
  5
AB
330
1F
100
AcDbEntity
  8
0
  6
Continuous
 62
     7
370
    25
100
AcDbLine
 10
39.2604760614
 20
145.2101117936
 30
0.0
 11
38.1292152939
 21
144.0788491634
 31
0.0
  0
ARC
  5
AC
330
1F
100
AcDbEntity
  8
0
  6
Continuous
 62
     7
370
    25
100
AcDbCircle
 10
42.8193132994
 20
146.6189480582
 30
0.0
 40
1.39999999999998
100
AcDbArc
 50
270.0
 51
301.7485287426
  0
LINE
  5
AD
330
1F
100
AcDbEntity
  8
0
  6
Continuous
 62
     7
370
    25
100
AcDbLine
 10
42.8193129388
 20
145.2189481822
 30
0.0
 11
39.3935788212
 21
145.2189481822
 31
0.0
  0
LINE
  5
AE
330
1F
100
AcDbEntity
  8
0
  6
Continuous
 62
     7
370
    25
100
AcDbLine
 10
200.019308531
 20
144.3489476112
 30
0.0
 11
206.5193142531
 21
144.3489476112
 31
0.0
  0
LINE
  5
AF
330
1F
100
AcDbEntity
  8
0
  6
Continuous
 62
     7
370
    25
100
AcDbLine
 10
206.5193142531
 20
158.348949906
 30
0.0
 11
200.019308531
 21
158.348949906
 31
0.0
  0
ARC
  5
B0
330
1F
100
AcDbEntity
  8
0
  6
Continuous
 62
     7
370
    25
100
AcDbCircle
 10
206.5193132994
 20
144.8489480582
 30
0.0
 40
0.5
100
AcDbArc
 50
270.0
 51
0.0
  0
ARC
  5
B1
330
1F
100
AcDbEntity
  8
0
  6
Continuous
 62
     7
370
    25
100
AcDbCircle
 10
206.5193132994
 20
157.8489480582
 30
0.0
 40
0.5
100
AcDbArc
 50
0.0
 51
90.0
  0
ARC
  5
B2
330
1F
100
AcDbEntity
  8
0
  6
Continuous
 62
     7
370
    25
100
AcDbCircle
 10
206.5193132994
 20
90.8489480582
 30
0.0
 40
0.5
100
AcDbArc
 50
270.0
 51
0.0
  0
ARC
  5
B3
330
1F
100
AcDbEntity
  8
0
  6
Continuous
 62
     7
370
    25
100
AcDbCircle
 10
206.5193132994
 20
103.8489480582
 30
0.0
 40
0.5
100
AcDbArc
 50
0.0
 51
90.0
  0
LINE
  5
B4
330
1F
100
AcDbEntity
  8
0
  6
Continuous
 62
     7
370
    25
100
AcDbLine
 10
200.019308531
 20
90.3489462105
 30
0.0
 11
206.5193142531
 21
90.3489462105
 31
0.0
  0
LINE
  5
B5
330
1F
100
AcDbEntity
  8
0
  6
Continuous
 62
     7
370
    25
100
AcDbLine
 10
206.5193142531
 20
104.3489485053
 30
0.0
 11
200.019308531
 21
104.3489485053
 31
0.0
  0
LINE
  5
B6
330
1F
100
AcDbEntity
  8
0
  6
Continuous
 62
     7
370
    25
100
AcDbLine
 10
244.2193116781
 20
136.3489481625
 30
0.0
 11
229.0193076966
 21
136.3489481625
 31
0.0
  0
LINE
  5
B7
330
1F
100
AcDbEntity
  8
0
  6
Continuous
 62
     7
370
    25
100
AcDbLine
 10
229.0193076966
 20
112.3489479539
 30
0.0
 11
244.2193116781
 21
112.3489479539
 31
0.0
  0
ARC
  5
B8
330
1F
100
AcDbEntity
  8
0
  6
Continuous
 62
     7
370
    25
100
AcDbCircle
 10
244.2193132994
 20
135.5489480582
 30
0.0
 40
0.799999999999983
100
AcDbArc
 50
0.0
 51
90.0
  0
ARC
  5
B9
330
1F
100
AcDbEntity
  8
0
  6
Continuous
 62
     7
370
    25
100
AcDbCircle
 10
244.2193132994
 20
113.1489480582
 30
0.0
 40
0.7999999999999972
100
AcDbArc
 50
270.0
 51
0.0
  0
ARC
  5
BA
330
1F
100
AcDbEntity
  8
0
  6
Continuous
 62
     7
370
    25
100
AcDbCircle
 10
228.4193132994
 20
115.7489480582
 30
0.0
 40
0.6000000000000085
100
AcDbArc
 50
0.0
 51
90.0
  0
ARC
  5
BB
330
1F
100
AcDbEntity
  8
0
  6
Continuous
 62
     7
370
    25
100
AcDbCircle
 10
228.4193132994
 20
132.9489480582
 30
0.0
 40
0.6000000000000227
100
AcDbArc
 50
270.0
 51
0.0
  0
LINE
  5
BC
330
1F
100
AcDbEntity
  8
0
  6
Continuous
 62
     7
370
    25
100
AcDbLine
 10
228.4193124411
 20
132.3489484382
 30
0.0
 11
224.0193124649
 21
132.3489484382
 31
0.0
  0
LINE
  5
BD
330
1F
100
AcDbEntity
  8
0
  6
Continuous
 62
     7
370
    25
100
AcDbLine
 10
224.0193124649
 20
116.3489476782
 30
0.0
 11
228.4193124411
 21
116.3489476782
 31
0.0
  0
SPLINE
  5
BE
330
1F
100
AcDbEntity
  8
0
  6
Continuous
 62
     7
370
    25
100
AcDbSpline
210
0.0
220
0.0
230
1.0
 70
    11
 71
     3
 72
    66
 73
    62
 74
     0
 42
0.000000001
 43
0.00000001
 40
0.0
 40
0.0
 40
0.0
 40
0.0
 40
0.0312499999999996
 40
0.0312499999999996
 40
0.0624999999999993
 40
0.0624999999999993
 40
0.1249999999999991
 40
0.1249999999999991
 40
0.1562499999999992
 40
0.1562499999999992
 40
0.1874999999999992
 40
0.1874999999999992
 40
0.2187499999999993
 40
0.2187499999999993
 40
0.2499999999999993
 40
0.2499999999999993
 40
0.2812499999999994
 40
0.2812499999999994
 40
0.3124999999999995
 40
0.3124999999999995
 40
0.3437499999999996
 40
0.3437499999999996
 40
0.3749999999999996
 40
0.3749999999999996
 40
0.4062499999999997
 40
0.4062499999999997
 40
0.4374999999999998
 40
0.4374999999999998
 40
0.4687499999999999
 40
0.4687499999999999
 40
0.4999999999999999
 40
0.4999999999999999
 40
0.53125
 40
0.53125
 40
0.5625
 40
0.5625
 40
0.5937500000000001
 40
0.5937500000000001
 40
0.6250000000000002
 40
0.6250000000000002
 40
0.6562500000000002
 40
0.6562500000000002
 40
0.6875000000000003
 40
0.6875000000000003
 40
0.7187500000000004
 40
0.7187500000000004
 40
0.7500000000000004
 40
0.7500000000000004
 40
0.7812500000000006
 40
0.7812500000000006
 40
0.8125000000000007
 40
0.8125000000000007
 40
0.8437500000000008
 40
0.8437500000000008
 40
0.8750000000000008
 40
0.8750000000000008
 40
0.9062500000000009
 40
0.9062500000000009
 40
0.937500000000001
 40
0.937500000000001
 40
1.0
 40
1.0
 40
1.0
 40
1.0
 10
137.4799876598016
 20
99.07241378231467
 30
0.0
 10
137.4987973143829
 20
99.23071477640308
 30
0.0
 10
137.5418046563746
 20
99.38618961199217
 30
0.0
 10
137.6737429184392
 20
99.69148711404743
 30
0.0
 10
137.7638066470364
 20
99.84204691199068
 30
0.0
 10
138.0902567095482
 20
100.2651790939775
 30
0.0
 10
138.3901622299143
 20
100.5189541945829
 30
0.0
 10
138.913798012987
 20
100.8231827239099
 30
0.0
 10
139.1036641319657
 20
100.9136922036016
 30
0.0
 10
139.4975812467045
 20
101.065435297226
 30
0.0
 10
139.7020633849239
 20
101.1273091679776
 30
0.0
 10
140.1257571880578
 20
101.2231787317415
 30
0.0
 10
140.3453502547958
 20
101.2568423844361
 30
0.0
 10
140.7826830429211
 20
101.2934640649249
 30
0.0
 10
141.0024921696693
 20
101.296991459388
 30
0.0
 10
141.4444408070149
 20
101.2738701004628
 30
0.0
 10
141.6645763411983
 20
101.2470331726473
 30
0.0
 10
142.0904844393784
 20
101.1650584687744
 30
0.0
 10
142.2981809527821
 20
101.1098598378839
 30
0.0
 10
142.7024747122933
 20
100.9699051757779
 30
0.0
 10
142.8951115607514
 20
100.886311366434
 30
0.0
 10
143.2541859812187
 20
100.695775161439
 30
0.0
 10
143.4219314740062
 20
100.5883803310453
 30
0.0
 10
143.7311620769838
 20
100.3481246904544
 30
0.0
 10
143.8672363523404
 20
100.2194770657407
 30
0.0
 10
144.1024061557363
 20
99.9459104364253
 30
0.0
 10
144.2023740993494
 20
99.79919565779032
 30
0.0
 10
144.3564356517793
 20
99.49703877359592
 30
0.0
 10
144.4102605362573
 20
99.34336762735418
 30
0.0
 10
144.4710230264675
 20
99.03115362441773
 30
0.0
 10
144.4772399767871
 20
98.87154292604129
 30
0.0
 10
144.4406140161226
 20
98.56336541238205
 30
0.0
 10
144.3983625023799
 20
98.41258695444466
 30
0.0
 10
144.2656212924151
 20
98.11913690846715
 30
0.0
 10
144.1773997922786
 20
97.98123166762305
 30
0.0
 10
143.9602157620638
 20
97.72128757438915
 30
0.0
 10
143.8297344699092
 20
97.59849677642107
 30
0.0
 10
143.5391150534748
 20
97.37743711315214
 30
0.0
 10
143.3782986892193
 20
97.27790128727138
 30
0.0
 10
143.0262491534845
 20
97.09957872016815
 30
0.0
 10
142.8383599939543
 20
97.02265654561884
 30
0.0
 10
142.44584088683
 20
96.89329645521369
 30
0.0
 10
142.2385937083185
 20
96.84013035679689
 30
0.0
 10
141.8134802671502
 20
96.75910594496092
 30
0.0
 10
141.5977334463711
 20
96.73140214160875
 30
0.0
 10
141.160065513711
 20
96.70047089212002
 30
0.0
 10
140.9359561498013
 20
96.69743744878882
 30
0.0
 10
140.4953648933312
 20
96.71663184058129
 30
0.0
 10
140.2783675876501
 20
96.73853813587085
 30
0.0
 10
139.8509855675606
 20
96.80728078160821
 30
0.0
 10
139.6389174402109
 20
96.85479588792217
 30
0.0
 10
139.2377488810435
 20
96.97277972045714
 30
0.0
 10
139.0469739882977
 20
97.04328869350672
 30
0.0
 10
138.6857371092862
 20
97.20887242967265
 30
0.0
 10
138.5147074672438
 20
97.30478631063276
 30
0.0
 10
138.2096340476016
 20
97.51488584008753
 30
0.0
 10
138.0734313069745
 20
97.62983555241689
 30
0.0
 10
137.8359001364903
 20
97.88169205115008
 30
0.0
 10
137.7360380381355
 20
98.01790591389539
 30
0.0
 10
137.5067017102359
 20
98.4416755048947
 30
0.0
 10
137.4423683506392
 20
98.75581179413795
 30
0.0
 10
137.4799876598017
 20
99.0724137823147
 30
0.0
  0
SPLINE
  5
BF
330
1F
100
AcDbEntity
  8
0
  6
Continuous
 62
     7
370
    25
100
AcDbSpline
210
0.0
220
0.0
230
1.0
 70
    11
 71
     3
 72
    68
 73
    64
 74
     0
 42
0.000000001
 43
0.00000001
 40
0.0
 40
0.0
 40
0.0
 40
0.0
 40
0.0312500000000008
 40
0.0312500000000008
 40
0.0625000000000015
 40
0.0625000000000015
 40
0.0937500000000023
 40
0.0937500000000023
 40
0.1250000000000031
 40
0.1250000000000031
 40
0.1562500000000038
 40
0.1562500000000038
 40
0.1875000000000046
 40
0.1875000000000046
 40
0.2187500000000053
 40
0.2187500000000053
 40
0.2500000000000061
 40
0.2500000000000061
 40
0.2812500000000069
 40
0.2812500000000069
 40
0.3125000000000077
 40
0.3125000000000077
 40
0.3437500000000084
 40
0.3437500000000084
 40
0.3750000000000092
 40
0.3750000000000092
 40
0.4062500000000099
 40
0.4062500000000099
 40
0.4375000000000107
 40
0.4375000000000107
 40
0.4687500000000114
 40
0.4687500000000114
 40
0.5000000000000122
 40
0.5000000000000122
 40
0.531250000000013
 40
0.531250000000013
 40
0.5625000000000138
 40
0.5625000000000138
 40
0.6250000000000134
 40
0.6250000000000134
 40
0.6562500000000123
 40
0.6562500000000123
 40
0.6875000000000112
 40
0.6875000000000112
 40
0.7187500000000101
 40
0.7187500000000101
 40
0.750000000000009
 40
0.750000000000009
 40
0.7812500000000079
 40
0.7812500000000079
 40
0.8125000000000068
 40
0.8125000000000068
 40
0.8437500000000057
 40
0.8437500000000057
 40
0.8750000000000044
 40
0.8750000000000044
 40
0.9062500000000033
 40
0.9062500000000033
 40
0.9375000000000022
 40
0.9375000000000022
 40
0.9687500000000011
 40
0.9687500000000011
 40
1.0
 40
1.0
 40
1.0
 40
1.0
 10
138.2932436827244
 20
151.2390844551334
 30
0.0
 10
138.4429969389583
 20
151.3488815612903
 30
0.0
 10
138.606547397356
 20
151.4461340130473
 30
0.0
 10
138.9590071202999
 20
151.6183743146927
 30
0.0
 10
139.1498744093638
 20
151.693901891308
 30
0.0
 10
139.5478265425266
 20
151.819721441533
 30
0.0
 10
139.7535582828914
 20
151.8699262941736
 30
0.0
 10
140.1780601752209
 20
151.9463531410867
 30
0.0
 10
140.3986032150197
 20
151.9725074438272
 30
0.0
 10
140.8373599314946
 20
151.9990526242606
 30
0.0
 10
141.0570384062015
 20
151.9998953945135
 30
0.0
 10
141.4969984443369
 20
151.9766126370782
 30
0.0
 10
141.7177922722633
 20
151.9521057163736
 30
0.0
 10
142.1426240291362
 20
151.8791604914297
 30
0.0
 10
142.3489069744761
 20
151.8307120581241
 30
0.0
 10
142.7487286183389
 20
151.7083902913853
 30
0.0
 10
142.941354798041
 20
151.6344024773069
 30
0.0
 10
143.296755354962
 20
151.4655634766925
 30
0.0
 10
143.4617465605389
 20
151.3701285878213
 30
0.0
 10
143.7643954329198
 20
151.1547226390364
 30
0.0
 10
143.8993068163979
 20
151.0362589443423
 30
0.0
 10
144.1281274243597
 20
150.7836206646215
 30
0.0
 10
144.2238089420902
 20
150.6477815638972
 30
0.0
 10
144.3713498166668
 20
150.3591931296074
 30
0.0
 10
144.4212887355951
 20
150.2106724253728
 30
0.0
 10
144.4740390020864
 20
149.904921340524
 30
0.0
 10
144.4762368617813
 20
149.7457703043096
 30
0.0
 10
144.4315727861232
 20
149.4327846046413
 30
0.0
 10
144.3854813918439
 20
149.2778497538494
 30
0.0
 10
144.2456421879334
 20
148.9714244562018
 30
0.0
 10
144.1532685348547
 20
148.8235697460825
 30
0.0
 10
143.929763633821
 20
148.5436475895724
 30
0.0
 10
143.7964580873846
 20
148.409446394112
 30
0.0
 10
143.4999275441854
 20
148.1646025446439
 30
0.0
 10
143.3367838683979
 20
148.053318672489
 30
0.0
 10
142.981737247895
 20
147.852992561135
 30
0.0
 10
142.7908336463689
 20
147.7649243738047
 30
0.0
 10
142.1975811088003
 20
147.5441155599451
 30
0.0
 10
141.7622622836053
 20
147.4508828474656
 30
0.0
 10
141.1055213143355
 20
147.4027648434127
 30
0.0
 10
140.8824727006726
 20
147.4015603862207
 30
0.0
 10
140.4408189599678
 20
147.4295626293074
 30
0.0
 10
140.2241960584074
 20
147.4583532480961
 30
0.0
 10
139.7992506530657
 20
147.5449053023367
 30
0.0
 10
139.5888149892923
 20
147.6035072460826
 30
0.0
 10
139.1891400641095
 20
147.7473406149886
 30
0.0
 10
139.0000442837194
 20
147.8320690822361
 30
0.0
 10
138.6437286378781
 20
148.0269942148509
 30
0.0
 10
138.4749229334008
 20
148.1386921979546
 30
0.0
 10
138.1742217150853
 20
148.3798024995549
 30
0.0
 10
138.0410600382144
 20
148.50944564074
 30
0.0
 10
137.810736195433
 20
148.7870418605908
 30
0.0
 10
137.7137750164515
 20
148.9359056296585
 30
0.0
 10
137.5680549731647
 20
149.2373825967476
 30
0.0
 10
137.5175684912329
 20
149.3916911351014
 30
0.0
 10
137.4642296055737
 20
149.707557544446
 30
0.0
 10
137.4624148940689
 20
149.8644464044967
 30
0.0
 10
137.5068912731089
 20
150.1716010388574
 30
0.0
 10
137.5541540941309
 20
150.3243741597023
 30
0.0
 10
137.6934347993883
 20
150.6131374324546
 30
0.0
 10
137.7848833184558
 20
150.7498103428257
 30
0.0
 10
138.010412377214
 20
151.0086938888894
 30
0.0
 10
138.1434904264904
 20
151.1292873489764
 30
0.0
 10
138.2932436827244
 20
151.2390844551334
 30
0.0
  0
SPLINE
  5
C0
330
1F
100
AcDbEntity
  8
0
  6
Continuous
 62
     7
370
    25
100
AcDbSpline
210
0.0
220
0.0
230
1.0
 70
    11
 71
     3
 72
    90
 73
    86
 74
     0
 42
0.000000001
 43
0.00000001
 40
0.0
 40
0.0
 40
0.0
 40
0.0
 40
0.0312499999999988
 40
0.0312499999999988
 40
0.0468749999999982
 40
0.0468749999999982
 40
0.0624999999999976
 40
0.0624999999999976
 40
0.0937499999999964
 40
0.0937499999999964
 40
0.1093749999999958
 40
0.1093749999999958
 40
0.1249999999999952
 40
0.1249999999999952
 40
0.1562499999999947
 40
0.1562499999999947
 40
0.1874999999999943
 40
0.1874999999999943
 40
0.2187499999999938
 40
0.2187499999999938
 40
0.2343749999999937
 40
0.2343749999999937
 40
0.2499999999999936
 40
0.2656249999999934
 40
0.2656249999999934
 40
0.2812499999999933
 40
0.2812499999999933
 40
0.3124999999999928
 40
0.3124999999999928
 40
0.3281249999999928
 40
0.3281249999999928
 40
0.3437499999999927
 40
0.3437499999999927
 40
0.3749999999999933
 40
0.3749999999999933
 40
0.4062499999999939
 40
0.4062499999999939
 40
0.4374999999999944
 40
0.4374999999999944
 40
0.4687499999999951
 40
0.4687499999999951
 40
0.4843749999999954
 40
0.4843749999999954
 40
0.4999999999999957
 40
0.4999999999999957
 40
0.5312499999999972
 40
0.5312499999999972
 40
0.5468749999999976
 40
0.5468749999999976
 40
0.5624999999999979
 40
0.5624999999999979
 40
0.5937499999999983
 40
0.5937499999999983
 40
0.6249999999999988
 40
0.6249999999999988
 40
0.6406249999999987
 40
0.6406249999999987
 40
0.6562499999999986
 40
0.6562499999999986
 40
0.6874999999999989
 40
0.6874999999999989
 40
0.7187499999999993
 40
0.7187499999999993
 40
0.7499999999999997
 40
0.7499999999999997
 40
0.7656249999999999
 40
0.7656249999999999
 40
0.78125
 40
0.7968750000000002
 40
0.7968750000000002
 40
0.8125000000000004
 40
0.8125000000000004
 40
0.8437500000000008
 40
0.8437500000000008
 40
0.859375000000001
 40
0.859375000000001
 40
0.8750000000000011
 40
0.8750000000000011
 40
0.9062500000000009
 40
0.9062500000000009
 40
0.9375000000000006
 40
0.9375000000000006
 40
0.9687500000000003
 40
0.9687500000000003
 40
1.0
 40
1.0
 40
1.0
 40
1.0
 10
175.0193132993871
 20
130.75326648274
 30
0.0
 10
175.4560560869392
 20
130.75326648274
 30
0.0
 10
175.8861485285528
 20
130.7142895247619
 30
0.0
 10
176.5216684307522
 20
130.5993521858246
 30
0.0
 10
176.7318941386839
 20
130.5515605573419
 30
0.0
 10
177.1490429084359
 20
130.4365431748566
 30
0.0
 10
177.357037229671
 20
130.368876253567
 30
0.0
 10
177.9659373186744
 20
130.1390880997433
 30
0.0
 10
178.35234237513
 20
129.9508626723112
 30
0.0
 10
178.9027507221641
 20
129.6157588814086
 30
0.0
 10
179.0813211599701
 20
129.4952039466772
 30
0.0
 10
179.4282563803877
 20
129.2355723736892
 30
0.0
 10
179.5964418374923
 20
129.0964310947404
 30
0.0
 10
180.0739525780437
 20
128.6601640175301
 30
0.0
 10
180.3605615421872
 20
128.3415150138078
 30
0.0
 10
180.8688094637851
 20
127.6468035246006
 30
0.0
 10
181.091088302154
 20
127.2671554770635
 30
0.0
 10
181.446138672439
 20
126.4828884829019
 30
0.0
 10
181.5822977488333
 20
126.0747984050982
 30
0.0
 10
181.7215637158345
 20
125.4374809438906
 30
0.0
 10
181.7568271985254
 20
125.2210466650307
 30
0.0
 10
181.8035590772446
 20
124.7906024444918
 30
0.0
 10
181.8271657353291
 20
124.3598646252682
 30
0.0
 10
181.8050854832799
 20
123.9285465133483
 30
0.0
 10
181.7597167022596
 20
123.4969327209261
 30
0.0
 10
181.7250688164521
 20
123.27999680308
 30
0.0
 10
181.5882233208193
 20
122.6436078788155
 30
0.0
 10
181.4534462976483
 20
122.2343020545805
 30
0.0
 10
181.1874672888721
 20
121.6421526111369
 30
0.0
 10
181.0874241796828
 20
121.4474009589747
 30
0.0
 10
180.8694770866433
 20
121.0724543501992
 30
0.0
 10
180.7515522989696
 20
120.8918574537533
 30
0.0
 10
180.3718768744002
 20
120.3698881538876
 30
0.0
 10
180.0826230677997
 20
120.0464988538459
 30
0.0
 10
179.442418936192
 20
119.4599183001196
 30
0.0
 10
179.0979655449027
 20
119.20196862039
 30
0.0
 10
178.3628861928181
 20
118.7525028271631
 30
0.0
 10
177.9683297322095
 20
118.5600197025086
 30
0.0
 10
177.1604567772384
 20
118.2545283735302
 30
0.0
 10
176.7453068628533
 20
118.1395675720782
 30
0.0
 10
176.1058974572655
 20
118.023069979975
 30
0.0
 10
175.8888647323246
 20
117.993565949684
 30
0.0
 10
175.4559905511435
 20
117.9544981824023
 30
0.0
 10
175.2399708115223
 20
117.9447809782164
 30
0.0
 10
174.5931324165301
 20
117.9443321949247
 30
0.0
 10
174.1635235133809
 20
117.9820346301912
 30
0.0
 10
173.5216119007099
 20
118.0974944644287
 30
0.0
 10
173.3082922449798
 20
118.145958914548
 30
0.0
 10
172.8912909378035
 20
118.2608292081019
 30
0.0
 10
172.6864861951915
 20
118.3274098160436
 30
0.0
 10
172.0830645577865
 20
118.5544284472998
 30
0.0
 10
171.6953292218272
 20
118.741859633849
 30
0.0
 10
170.9509417196251
 20
119.1944005939983
 30
0.0
 10
170.6062886362161
 20
119.4523030029982
 30
0.0
 10
170.1309326896311
 20
119.8854611084541
 30
0.0
 10
169.9794055511783
 20
120.0376553142107
 30
0.0
 10
169.6906773000108
 20
120.3582672875571
 30
0.0
 10
169.5527154122919
 20
120.5277935603499
 30
0.0
 10
169.1686969977564
 20
121.0524740836663
 30
0.0
 10
168.951628245349
 20
121.423175418607
 30
0.0
 10
168.5955517153185
 20
122.206800303952
 30
0.0
 10
168.4559767102602
 20
122.6249986094812
 30
0.0
 10
168.2713661551374
 20
123.4692465111102
 30
0.0
 10
168.2240761052661
 20
123.8976279708474
 30
0.0
 10
168.2223051682666
 20
124.5498309104089
 30
0.0
 10
168.2335411588665
 20
124.769266550918
 30
0.0
 10
168.2788586474632
 20
125.2005592105936
 30
0.0
 10
168.3468866682116
 20
125.6269864197121
 30
0.0
 10
168.4594052126001
 20
126.0438936859827
 30
0.0
 10
168.5944044734966
 20
126.456000178115
 30
0.0
 10
168.6736538273739
 20
126.6605600793622
 30
0.0
 10
168.9401520368712
 20
127.2538735768642
 30
0.0
 10
169.1566002741538
 20
127.6260615962138
 30
0.0
 10
169.5375563059167
 20
128.1506924502911
 30
0.0
 10
169.6748176248067
 20
128.3207746368866
 30
0.0
 10
169.9637903444266
 20
128.6440162472153
 30
0.0
 10
170.1154468595106
 20
128.7973586492749
 30
0.0
 10
170.5911289721375
 20
129.2335759126275
 30
0.0
 10
170.9365603158564
 20
129.4933948696744
 30
0.0
 10
171.679265690253
 20
129.9475740337465
 30
0.0
 10
172.0668879070422
 20
130.1362821001539
 30
0.0
 10
172.8728890988418
 20
130.4416728432914
 30
0.0
 10
173.295064893836
 20
130.5588307875873
 30
0.0
 10
174.1500621342589
 20
130.7142376872162
 30
0.0
 10
174.5825705118349
 20
130.75326648274
 30
0.0
 10
175.0193132993871
 20
130.75326648274
 30
0.0
  0
LINE
  5
C1
330
1F
100
AcDbEntity
  8
0
  6
Continuous
 62
     7
370
    25
100
AcDbLine
 10
200.019308531
 20
89.3489479092
 30
0.0
 11
200.019308531
 21
159.3489482072
 31
0.0
  0
LINE
  5
C2
330
1F
100
AcDbEntity
  8
0
  6
Continuous
 62
     7
370
    25
100
AcDbLine
 10
95.9693129894
 20
94.7886708197
 30
0.0
 11
95.9693129894
 21
144.1989487973
 31
0.0
  0
SPLINE
  5
C3
330
1F
100
AcDbEntity
  8
0
  6
Continuous
 62
     7
370
    25
100
AcDbSpline
210
0.0
220
0.0
230
1.0
 70
     8
 71
     3
 72
    10
 73
     6
 74
     0
 42
0.000000001
 43
0.00000001
 40
0.0
 40
0.0
 40
0.0
 40
0.0
 40
0.5
 40
0.5
 40
1.0
 40
1.0
 40
1.0
 40
1.0
 10
95.96931329938707
 20
94.78867065762614
 30
0.0
 10
95.96931329938707
 20
94.62878338943248
 30
0.0
 10
95.90800364815122
 20
94.46765613391787
 30
0.0
 10
95.68890401061614
 20
94.23355713556305
 30
0.0
 10
95.53085580430266
 20
94.16203036197182
 30
0.0
 10
95.36931329938706
 20
94.16203036197182
 30
0.0
  0
SPLINE
  5
C4
330
1F
100
AcDbEntity
  8
0
  6
Continuous
 62
     7
370
    25
100
AcDbSpline
210
0.0
220
0.0
230
1.0
 70
    24
 71
     3
 72
    12
 73
     8
 74
     0
 42
0.000000001
 43
0.00000001
 40
0.0
 40
0.0
 40
0.0
 40
0.0
 40
0.2500000000000033
 40
0.2500000000000033
 40
0.5000000000000067
 40
0.5000000000000067
 40
1.0
 40
1.0
 40
1.0
 40
1.0
 10
95.36931329938706
 20
144.198948058219
 30
0.0
 10
95.45955236707411
 20
144.198948058219
 30
0.0
 10
95.5504504811806
 20
144.198948058219
 30
0.0
 10
95.70504751766914
 20
144.198948058219
 30
0.0
 10
95.77002593377723
 20
144.198948058219
 30
0.0
 10
95.92186096171348
 20
144.198948058219
 30
0.0
 10
95.96931329938707
 20
144.198948058219
 30
0.0
 10
95.96931329938707
 20
144.198948058219
 30
0.0
  0
LINE
  5
C5
330
1F
100
AcDbEntity
  8
0
  6
Continuous
 62
     7
370
    25
100
AcDbLine
 10
91.4112452206
 20
94.1620304254
 30
0.0
 11
91.4112452206
 21
144.1989487973
 31
0.0
  0
SPLINE
  5
C6
330
1F
100
AcDbEntity
  8
0
  6
Continuous
 62
     7
370
    25
100
AcDbSpline
210
0.0
220
0.0
230
1.0
 70
     8
 71
     3
 72
     8
 73
     4
 74
     0
 42
0.000000001
 43
0.00000001
 40
0.0
 40
0.0
 40
0.0
 40
0.0
 40
1.0
 40
1.0
 40
1.0
 40
1.0
 10
91.41124613087612
 20
94.16203036197182
 30
0.0
 10
90.91576647021039
 20
95.05755644990518
 30
0.0
 10
90.42165242216825
 20
95.95384086495744
 30
0.0
 10
89.92931329938705
 20
96.85111089916414
 30
0.0
  0
LINE
  5
C7
330
1F
100
AcDbEntity
  8
0
  6
Continuous
 62
     7
370
    25
100
AcDbLine
 10
89.929313564
 20
96.8511107382
 30
0.0
 11
89.929313564
 21
144.1989487973
 31
0.0
  0
SPLINE
  5
C8
330
1F
100
AcDbEntity
  8
0
  6
Continuous
 62
     7
370
    25
100
AcDbSpline
210
0.0
220
0.0
230
1.0
 70
    24
 71
     3
 72
     8
 73
     4
 74
     0
 42
0.000000001
 43
0.00000001
 40
0.0
 40
0.0
 40
0.0
 40
0.0
 40
1.0
 40
1.0
 40
1.0
 40
1.0
 10
89.92931329938705
 20
144.198948058219
 30
0.0
 10
90.40926529375196
 20
144.198948058219
 30
0.0
 10
90.90456602272559
 20
144.198948058219
 30
0.0
 10
91.41124613087612
 20
144.198948058219
 30
0.0
  0
LINE
  5
C9
330
1F
100
AcDbEntity
  8
0
  6
Continuous
 62
     7
370
    25
100
AcDbLine
 10
70.0193132994
 20
93.1489489046
 30
0.0
 11
70.0193132994
 21
155.5489472118
 31
0.0
  0
LINE
  5
CA
330
1F
100
AcDbEntity
  8
0
  6
Continuous
 62
     7
370
    25
100
AcDbLine
 10
95.3693140087
 20
94.1620304254
 30
0.0
 11
91.4112452206
 21
94.1620304254
 31
0.0
  0
LINE
  5
CB
330
1F
100
AcDbEntity
  8
0
  6
Continuous
 62
     7
370
    25
100
AcDbLine
 10
91.4112452206
 20
144.1989487973
 30
0.0
 11
95.3693140087
 21
144.1989487973
 31
0.0
  0
LINE
  5
CC
330
1F
100
AcDbEntity
  8
0
  6
Continuous
 62
     7
370
    25
100
AcDbLine
 10
86.1093133477
 20
96.8511107382
 30
0.0
 11
86.1093133477
 21
144.1989487973
 31
0.0
  0
SPLINE
  5
CD
330
1F
100
AcDbEntity
  8
0
  6
Continuous
 62
     7
370
    25
100
AcDbSpline
210
0.0
220
0.0
230
1.0
 70
     8
 71
     3
 72
     8
 73
     4
 74
     0
 42
0.000000001
 43
0.00000001
 40
0.0
 40
0.0
 40
0.0
 40
0.0
 40
1.0
 40
1.0
 40
1.0
 40
1.0
 10
86.10931329938707
 20
96.85111089916413
 30
0.0
 10
85.61697417660588
 20
95.95384086495743
 30
0.0
 10
85.12286012856376
 20
95.05755644990518
 30
0.0
 10
84.627380467898
 20
94.16203036197182
 30
0.0
  0
LINE
  5
CE
330
1F
100
AcDbEntity
  8
0
  6
Continuous
 62
     7
370
    25
100
AcDbLine
 10
84.6273807597
 20
94.1620304254
 30
0.0
 11
84.6273807597
 21
144.1989487973
 31
0.0
  0
SPLINE
  5
CF
330
1F
100
AcDbEntity
  8
0
  6
Continuous
 62
     7
370
    25
100
AcDbSpline
210
0.0
220
0.0
230
1.0
 70
    24
 71
     3
 72
     8
 73
     4
 74
     0
 42
0.000000001
 43
0.00000001
 40
0.0
 40
0.0
 40
0.0
 40
0.0
 40
1.0
 40
1.0
 40
1.0
 40
1.0
 10
84.62738046789799
 20
144.198948058219
 30
0.0
 10
85.13406057604853
 20
144.198948058219
 30
0.0
 10
85.62936130502216
 20
144.198948058219
 30
0.0
 10
86.10931329938707
 20
144.198948058219
 30
0.0
  0
LINE
  5
D0
330
1F
100
AcDbEntity
  8
0
  6
Continuous
 62
     7
370
    25
100
AcDbLine
 10
74.9693132726
 20
144.1989487973
 30
0.0
 11
84.6273807597
 21
144.1989487973
 31
0.0
  0
LINE
  5
D1
330
1F
100
AcDbEntity
  8
0
  6
Continuous
 62
     7
370
    25
100
AcDbLine
 10
84.6273807597
 20
94.1620304254
 30
0.0
 11
82.9693136525
 21
94.1620304254
 31
0.0
  0
SPLINE
  5
D2
330
1F
100
AcDbEntity
  8
0
  6
Continuous
 62
     7
370
    25
100
AcDbSpline
210
0.0
220
0.0
230
1.0
 70
     8
 71
     3
 72
    28
 73
    24
 74
     0
 42
0.000000001
 43
0.00000001
 40
0.0
 40
0.0
 40
0.0
 40
0.0
 40
0.1250000000000001
 40
0.1250000000000001
 40
0.1875000000000001
 40
0.1875000000000001
 40
0.2500000000000001
 40
0.2500000000000001
 40
0.3749999999999999
 40
0.3749999999999999
 40
0.4375
 40
0.4375
 40
0.4999999999999999
 40
0.4999999999999999
 40
0.6249999999999999
 40
0.6249999999999999
 40
0.7499999999999997
 40
0.7499999999999997
 40
0.8124999999999998
 40
0.8124999999999998
 40
0.8749999999999998
 40
0.8749999999999998
 40
1.0
 40
1.0
 40
1.0
 40
1.0
 10
82.96931329938705
 20
94.16203036197182
 30
0.0
 10
82.43760554189414
 20
94.16203036197182
 30
0.0
 10
81.9153669765838
 20
94.14624564802162
 30
0.0
 10
81.1454964903088
 20
94.10125023394542
 30
0.0
 10
80.89113691811745
 20
94.08269523886966
 30
0.0
 10
80.38701533741896
 20
94.03884251642316
 30
0.0
 10
80.13729251999102
 20
94.01349790947097
 30
0.0
 10
79.41170256854461
 20
93.93009583172088
 30
0.0
 10
78.95334230696308
 20
93.8642302725698
 30
0.0
 10
78.30284436356919
 20
93.75525993207799
 30
0.0
 10
78.09116231277675
 20
93.71702029631135
 30
0.0
 10
77.68709082363874
 20
93.63926155889199
 30
0.0
 10
77.49458430981787
 20
93.59976059671662
 30
0.0
 10
76.9447493387966
 20
93.48085285435063
 30
0.0
 10
76.61482056048779
 20
93.40103517292603
 30
0.0
 10
76.0303492919191
 20
93.24769201112997
 30
0.0
 10
75.78407215390567
 20
93.17635825786071
 30
0.0
 10
75.4842293612076
 20
93.08241475078609
 30
0.0
 10
75.39577250413541
 20
93.05322095742616
 30
0.0
 10
75.24241115083028
 20
92.99975438316274
 30
0.0
 10
75.17732293660404
 20
92.97539504888756
 30
0.0
 10
75.02172892066326
 20
92.91180490344283
 30
0.0
 10
74.96931329938707
 20
92.88170196835358
 30
0.0
 10
74.96931329938707
 20
92.86482507535665
 30
0.0
  0
LINE
  5
D3
330
1F
100
AcDbEntity
  8
0
  6
Continuous
 62
     7
370
    25
100
AcDbLine
 10
74.9693132726
 20
92.8648247388
 30
0.0
 11
74.9693132726
 21
92.8489475516
 31
0.0
  0
SPLINE
  5
D4
330
1F
100
AcDbEntity
  8
0
  6
Continuous
 62
     7
370
    25
100
AcDbSpline
210
0.0
220
0.0
230
1.0
 70
     8
 71
     3
 72
    15
 73
    11
 74
     0
 42
0.000000001
 43
0.00000001
 40
0.0
 40
0.0
 40
0.0
 40
0.0
 40
0.1036304054615013
 40
0.2103297261053865
 40
0.4197318694502766
 40
0.6334280967651934
 40
0.7405736632877304
 40
0.850952894419128
 40
0.9558354410213136
 40
1.0
 40
1.0
 40
1.0
 40
1.0
 10
82.96931365254459
 20
154.8161434945775
 30
0.0
 10
82.53401106103578
 20
154.8216272718917
 30
0.0
 10
81.65051480877969
 20
154.8327572233319
 30
0.0
 10
79.93920183601594
 20
154.9474786822891
 30
0.0
 10
77.9580093332124
 20
155.2012340117182
 30
0.0
 10
76.43935571910508
 20
155.5022641881931
 30
0.0
 10
75.5829401542849
 20
155.6972920947507
 30
0.0
 10
75.1656178275221
 20
155.7991747994691
 30
0.0
 10
74.96708605645178
 20
155.8495108841882
 30
0.0
 10
74.99039508245049
 20
155.8436025898364
 30
0.0
 10
74.9973018442386
 20
155.8418518868399
 30
0.0
  0
LINE
  5
D5
330
1F
100
AcDbEntity
  8
0
  6
Continuous
 62
     7
370
    25
100
AcDbLine
 10
84.6273807597
 20
154.8161434946
 30
0.0
 11
82.9693136525
 21
154.8161434946
 31
0.0
  0
LINE
  5
D6
330
1F
100
AcDbEntity
  8
0
  6
Continuous
 62
     7
370
    25
100
AcDbLine
 10
84.6273807597
 20
148.8076376733
 30
0.0
 11
84.6273807597
 21
154.8161434946
 31
0.0
  0
LINE
  5
D7
330
1F
100
AcDbEntity
  8
0
  6
Continuous
 62
     7
370
    25
100
AcDbLine
 10
82.2149339852
 20
148.8076376733
 30
0.0
 11
84.6273807597
 21
148.8076376733
 31
0.0
  0
SPLINE
  5
D8
330
1F
100
AcDbEntity
  8
0
  6
Continuous
 62
     7
370
    25
100
AcDbSpline
210
0.0
220
0.0
230
1.0
 70
     8
 71
     3
 72
    20
 73
    16
 74
     0
 42
0.000000001
 43
0.00000001
 40
0.0
 40
0.0
 40
0.0
 40
0.0
 40
0.2499999999999989
 40
0.2499999999999989
 40
0.374999999999999
 40
0.374999999999999
 40
0.4999999999999991
 40
0.4999999999999991
 40
0.6249999999999993
 40
0.6249999999999993
 40
0.7499999999999996
 40
0.7499999999999996
 40
0.8749999999999998
 40
0.8749999999999998
 40
1.0
 40
1.0
 40
1.0
 40
1.0
 10
74.96931329938707
 20
144.198948058219
 30
0.0
 10
75.21768703367512
 20
144.8528104865164
 30
0.0
 10
75.53725712602039
 20
145.4565962685136
 30
0.0
 10
76.15956335922507
 20
146.2834350046821
 30
0.0
 10
76.39098761965583
 20
146.5458636426351
 30
0.0
 10
76.91220195930553
 20
147.04252629674
 30
0.0
 10
77.19882244194062
 20
147.2731131757616
 30
0.0
 10
77.81830718324822
 20
147.6896674003442
 30
0.0
 10
78.1526075627352
 20
147.8771652023117
 30
0.0
 10
78.87786803535998
 20
148.2085621799481
 30
0.0
 10
79.25978309275047
 20
148.3480661674434
 30
0.0
 10
80.05457126892215
 20
148.5735196749143
 30
0.0
 10
80.46872946312853
 20
148.660145786458
 30
0.0
 10
81.33427580370991
 20
148.7781265753121
 30
0.0
 10
81.77216341872173
 20
148.8076377205865
 30
0.0
 10
82.21493364507634
 20
148.8076377205864
 30
0.0
  0
SPLINE
  5
D9
330
1F
100
AcDbEntity
  8
0
  6
Continuous
 62
     7
370
    25
100
AcDbSpline
210
0.0
220
0.0
230
1.0
 70
    11
 71
     3
 72
    70
 73
    66
 74
     0
 42
0.000000001
 43
0.00000001
 40
0.0
 40
0.0
 40
0.0
 40
0.0
 40
0.0312500000000001
 40
0.0312500000000001
 40
0.0625000000000002
 40
0.0625000000000002
 40
0.0937500000000003
 40
0.0937500000000003
 40
0.1250000000000004
 40
0.1250000000000004
 40
0.1562500000000005
 40
0.1562500000000005
 40
0.1875000000000006
 40
0.1875000000000006
 40
0.2187500000000007
 40
0.2187500000000007
 40
0.2500000000000008
 40
0.2500000000000008
 40
0.2812500000000009
 40
0.2812500000000009
 40
0.3125000000000011
 40
0.3125000000000011
 40
0.3437500000000012
 40
0.3437500000000012
 40
0.3750000000000012
 40
0.3750000000000012
 40
0.4062500000000013
 40
0.4062500000000013
 40
0.4375000000000014
 40
0.4375000000000014
 40
0.4687500000000016
 40
0.4687500000000016
 40
0.5000000000000017
 40
0.5000000000000017
 40
0.5312500000000018
 40
0.5312500000000018
 40
0.5625000000000019
 40
0.5625000000000019
 40
0.593750000000002
 40
0.593750000000002
 40
0.6250000000000021
 40
0.6250000000000021
 40
0.6562500000000022
 40
0.6562500000000022
 40
0.6875000000000023
 40
0.6875000000000023
 40
0.7187500000000021
 40
0.7187500000000021
 40
0.7500000000000018
 40
0.7500000000000018
 40
0.7812500000000016
 40
0.7812500000000016
 40
0.8125000000000013
 40
0.8125000000000013
 40
0.8437500000000011
 40
0.8437500000000011
 40
0.8750000000000009
 40
0.8750000000000009
 40
0.9062500000000007
 40
0.9062500000000007
 40
0.9375000000000004
 40
0.9375000000000004
 40
0.9687500000000002
 40
0.9687500000000002
 40
1.0
 40
1.0
 40
1.0
 40
1.0
 10
78.01931329938708
 20
134.9698549442023
 30
0.0
 10
77.75476796072694
 20
134.9698549442023
 30
0.0
 10
77.49469729334983
 20
134.9945322389875
 30
0.0
 10
76.98312261351441
 20
135.0910039120294
 30
0.0
 10
76.72894732977421
 20
135.1639848280095
 30
0.0
 10
76.24467669971251
 20
135.3537254309481
 30
0.0
 10
76.01503560783135
 20
135.4695860893419
 30
0.0
 10
75.58043125959786
 20
135.7422039352996
 30
0.0
 10
75.37486548295125
 20
135.9002430173533
 30
0.0
 10
75.00630834235601
 20
136.243785868324
 30
0.0
 10
74.84082735962053
 20
136.4305483124257
 30
0.0
 10
74.54840285018543
 20
136.8340914868225
 30
0.0
 10
74.42430187355893
 20
137.0475884832516
 30
0.0
 10
74.22472267680921
 20
137.4869717971741
 30
0.0
 10
74.14778909095094
 20
137.7161117843198
 30
0.0
 10
74.04493203243057
 20
138.1820859070798
 30
0.0
 10
74.01945912297144
 20
138.4149683527559
 30
0.0
 10
74.01916871240365
 20
138.8803658878357
 30
0.0
 10
74.04519334617942
 20
139.1152416452301
 30
0.0
 10
74.14734163067139
 20
139.5667347924763
 30
0.0
 10
74.22291807825457
 20
139.7847812678877
 30
0.0
 10
74.4234156093995
 20
140.2058757929255
 30
0.0
 10
74.54854445090787
 20
140.4077971774438
 30
0.0
 10
74.83790325192946
 20
140.7798266599627
 30
0.0
 10
75.00331423898493
 20
140.9524549635431
 30
0.0
 10
75.37630479713275
 20
141.2697729680891
 30
0.0
 10
75.57803783022185
 20
141.4095599015907
 30
0.0
 10
76.01089708104973
 20
141.6537361551426
 30
0.0
 10
76.2448156139391
 20
141.758965666184
 30
0.0
 10
76.72899934908172
 20
141.9271228125592
 30
0.0
 10
76.97831497503722
 20
141.990373703153
 30
0.0
 10
77.49134749946495
 20
142.0759529122556
 30
0.0
 10
77.75664132236959
 20
142.097825077178
 30
0.0
 10
78.27897594223933
 20
142.097988726822
 30
0.0
 10
78.53872960472107
 20
142.076987034726
 30
0.0
 10
79.0553414203663
 20
141.9915846796483
 30
0.0
 10
79.30770746086658
 20
141.9275784963614
 30
0.0
 10
79.7892325823994
 20
141.7607639763202
 30
0.0
 10
80.02208331451297
 20
141.656630812921
 30
0.0
 10
80.45917316295173
 20
141.4106441604261
 30
0.0
 10
80.66049415160892
 20
141.2708943294772
 30
0.0
 10
81.02958017690881
 20
140.9577562597526
 30
0.0
 10
81.19856492796052
 20
140.7823001004825
 30
0.0
 10
81.48902098461971
 20
140.4094598363823
 30
0.0
 10
81.61209279598187
 20
140.2113380262714
 30
0.0
 10
81.81342903740388
 20
139.7906266835377
 30
0.0
 10
81.89064158334611
 20
139.5686366628702
 30
0.0
 10
81.99284512624617
 20
139.1187717231618
 30
0.0
 10
82.0190734776985
 20
138.888516310045
 30
0.0
 10
82.01954987701559
 20
138.417200367496
 30
0.0
 10
81.99380746451763
 20
138.1839629517818
 30
0.0
 10
81.89249668815377
 20
137.7222864122838
 30
0.0
 10
81.81566404876284
 20
137.4913890251716
 30
0.0
 10
81.61526020954766
 20
137.0491130113799
 30
0.0
 10
81.49258871125562
 20
136.8380505800941
 30
0.0
 10
81.20264142209138
 20
136.4365520693614
 30
0.0
 10
81.03407044272615
 20
136.2456455472855
 30
0.0
 10
80.66580084861297
 20
135.9019202152884
 30
0.0
 10
80.46473899134267
 20
135.7467830290743
 30
0.0
 10
80.02770807275775
 20
135.4717056689946
 30
0.0
 10
79.79555985962813
 20
135.3545894395726
 30
0.0
 10
79.31454957812927
 20
135.165662954508
 30
0.0
 10
79.06244949529884
 20
135.0925879841137
 30
0.0
 10
78.54538000903983
 20
134.9945359249792
 30
0.0
 10
78.2838586380472
 20
134.9698549442023
 30
0.0
 10
78.01931329938708
 20
134.9698549442023
 30
0.0
  0
SPLINE
  5
DA
330
1F
100
AcDbEntity
  8
0
  6
Continuous
 62
     7
370
    25
100
AcDbSpline
210
0.0
220
0.0
230
1.0
 70
    11
 71
     3
 72
    70
 73
    66
 74
     0
 42
0.000000001
 43
0.00000001
 40
0.0
 40
0.0
 40
0.0
 40
0.0
 40
0.0312499999999997
 40
0.0312499999999997
 40
0.0624999999999994
 40
0.0624999999999994
 40
0.0937499999999991
 40
0.0937499999999991
 40
0.1249999999999988
 40
0.1249999999999988
 40
0.1562499999999986
 40
0.1562499999999986
 40
0.1874999999999983
 40
0.1874999999999983
 40
0.2187499999999979
 40
0.2187499999999979
 40
0.2499999999999977
 40
0.2499999999999977
 40
0.2812499999999976
 40
0.2812499999999976
 40
0.3124999999999974
 40
0.3124999999999974
 40
0.3437499999999973
 40
0.3437499999999973
 40
0.3749999999999972
 40
0.3749999999999972
 40
0.4062499999999971
 40
0.4062499999999971
 40
0.4374999999999969
 40
0.4374999999999969
 40
0.4687499999999968
 40
0.4687499999999968
 40
0.4999999999999967
 40
0.4999999999999967
 40
0.5312499999999968
 40
0.5312499999999968
 40
0.562499999999997
 40
0.562499999999997
 40
0.5937499999999971
 40
0.5937499999999971
 40
0.6249999999999972
 40
0.6249999999999972
 40
0.6562499999999974
 40
0.6562499999999974
 40
0.6874999999999976
 40
0.6874999999999976
 40
0.7187499999999978
 40
0.7187499999999978
 40
0.7499999999999979
 40
0.7499999999999979
 40
0.7812499999999981
 40
0.7812499999999981
 40
0.8124999999999984
 40
0.8124999999999984
 40
0.8437499999999987
 40
0.8437499999999987
 40
0.8749999999999989
 40
0.8749999999999989
 40
0.9062499999999992
 40
0.9062499999999992
 40
0.9374999999999994
 40
0.9374999999999994
 40
0.9687499999999998
 40
0.9687499999999998
 40
1.0
 40
1.0
 40
1.0
 40
1.0
 10
78.01931329938708
 20
149.4079114529982
 30
0.0
 10
77.75476796072694
 20
149.4079114529982
 30
0.0
 10
77.49469729334982
 20
149.4238118934129
 30
0.0
 10
76.98312261351441
 20
149.4857562435872
 30
0.0
 10
76.72894732977421
 20
149.5325584776785
 30
0.0
 10
76.24467669971251
 20
149.6535354611336
 30
0.0
 10
76.01503560783135
 20
149.7271377889404
 30
0.0
 10
75.58043125959786
 20
149.8989620599185
 30
0.0
 10
75.37486548295125
 20
149.997965482846
 30
0.0
 10
75.00630834235602
 20
150.2110618967588
 30
0.0
 10
74.84082735962053
 20
150.3259616128885
 30
0.0
 10
74.54840285018543
 20
150.5713285115788
 30
0.0
 10
74.42430187355893
 20
150.699768412049
 30
0.0
 10
74.22472267680921
 20
150.960660560135
 30
0.0
 10
74.14778909095095
 20
151.0950417314745
 30
0.0
 10
74.04493203243057
 20
151.3643616825808
 30
0.0
 10
74.01945912297145
 20
151.4970429467989
 30
0.0
 10
74.01916871240367
 20
151.7582294209299
 30
0.0
 10
74.04519334617942
 20
151.8879944590946
 30
0.0
 10
74.1473416306714
 20
152.1335770933673
 30
0.0
 10
74.22291807825458
 20
152.2502386306762
 30
0.0
 10
74.4234156093995
 20
152.4721438208308
 30
0.0
 10
74.54854445090787
 20
152.5767550747537
 30
0.0
 10
74.83790325192946
 20
152.7668014863618
 30
0.0
 10
75.00331423898493
 20
152.8535611578115
 30
0.0
 10
75.37630479713275
 20
153.011065533563
 30
0.0
 10
75.57803783022185
 20
153.0793907983503
 30
0.0
 10
76.01089708104973
 20
153.1976205219694
 30
0.0
 10
76.2448156139391
 20
153.2479154380733
 30
0.0
 10
76.72899934908172
 20
153.3277809749629
 30
0.0
 10
76.97831497503722
 20
153.3575221027625
 30
0.0
 10
77.49134749946495
 20
153.3976748442707
 30
0.0
 10
77.75664132236959
 20
153.4078731136806
 30
0.0
 10
78.27897594223934
 20
153.4079495720653
 30
0.0
 10
78.53872960472107
 20
153.3981585604563
 30
0.0
 10
79.05534142036632
 20
153.3580917217175
 30
0.0
 10
79.30770746086658
 20
153.3279945548607
 30
0.0
 10
79.78923258239942
 20
153.2487723450305
 30
0.0
 10
80.02208331451298
 20
153.1990148655671
 30
0.0
 10
80.45917316295173
 20
153.0799229231168
 30
0.0
 10
80.66049415160892
 20
153.0116076615695
 30
0.0
 10
81.02958017690881
 20
152.8562066946359
 30
0.0
 10
81.19856492796052
 20
152.768054352569
 30
0.0
 10
81.48902098461971
 20
152.5776149634527
 30
0.0
 10
81.61209279598187
 20
152.4749903857536
 30
0.0
 10
81.81342903740386
 20
152.2533500391455
 30
0.0
 10
81.89064158334611
 20
152.134595963598
 30
0.0
 10
81.99284512624617
 20
151.8899300246803
 30
0.0
 10
82.01907347769848
 20
151.7627732992318
 30
0.0
 10
82.01954987701559
 20
151.4983251533762
 30
0.0
 10
81.99380746451762
 20
151.365424473119
 30
0.0
 10
81.89249668815377
 20
151.098632199637
 30
0.0
 10
81.81566404876284
 20
150.9632682981685
 30
0.0
 10
81.61526020954766
 20
150.7006885028659
 30
0.0
 10
81.49258871125562
 20
150.5737133431121
 30
0.0
 10
81.20264142209136
 20
150.3296339570297
 30
0.0
 10
81.03407044272615
 20
150.2122088322758
 30
0.0
 10
80.66580084861297
 20
149.9990123713274
 30
0.0
 10
80.46473899134267
 20
149.9018382529025
 30
0.0
 10
80.02770807275773
 20
149.7284833656883
 30
0.0
 10
79.79555985962813
 20
149.6540838140317
 30
0.0
 10
79.31454957812926
 20
149.533630934527
 30
0.0
 10
79.06244949529884
 20
149.486772559261
 30
0.0
 10
78.54538000903983
 20
149.4238150622773
 30
0.0
 10
78.2838586380472
 20
149.4079114529982
 30
0.0
 10
78.01931329938708
 20
149.4079114529982
 30
0.0
  0
ARC
  5
DB
330
1F
100
AcDbEntity
  8
0
  6
Continuous
 62
     7
370
    25
100
AcDbCircle
 10
78.0162197692
 20
136.2395489188
 30
0.0
 40
4.117627639703874
100
AcDbArc
 50
19.4347339901
 51
159.2359811865
  0
SPLINE
  5
DC
330
1F
100
AcDbEntity
  8
0
  6
Continuous
 62
     7
370
    25
100
AcDbSpline
210
0.0
220
0.0
230
1.0
 70
     8
 71
     3
 72
    10
 73
     6
 74
     0
 42
0.000000001
 43
0.00000001
 40
0.0
 40
0.0
 40
0.0
 40
0.0
 40
0.5
 40
0.5
 40
1.0
 40
1.0
 40
1.0
 40
1.0
 10
86.50361083107802
 20
150.748948058219
 30
0.0
 10
86.38207056740951
 20
150.8236742254308
 30
0.0
 10
86.28073620706057
 20
150.9326192413475
 30
0.0
 10
86.14509726417215
 20
151.1830497221091
 30
0.0
 10
86.10931329938707
 20
151.3254690842081
 30
0.0
 10
86.10931329938707
 20
151.4686019092548
 30
0.0
  0
SPLINE
  5
DD
330
1F
100
AcDbEntity
  8
0
  6
Continuous
 62
     7
370
    25
100
AcDbSpline
210
0.0
220
0.0
230
1.0
 70
    24
 71
     3
 72
    12
 73
     8
 74
     0
 42
0.000000001
 43
0.00000001
 40
0.0
 40
0.0
 40
0.0
 40
0.0
 40
0.2500000000000037
 40
0.2500000000000037
 40
0.5000000000000074
 40
0.5000000000000074
 40
1.0
 40
1.0
 40
1.0
 40
1.0
 10
86.90931329938708
 20
150.748948058219
 30
0.0
 10
86.85943661706962
 20
150.748948058219
 30
0.0
 10
86.81143342366602
 20
150.748948058219
 30
0.0
 10
86.72838532095406
 20
150.748948058219
 30
0.0
 10
86.6922557414862
 20
150.748948058219
 30
0.0
 10
86.59634371054199
 20
150.748948058219
 30
0.0
 10
86.54658504257318
 20
150.748948058219
 30
0.0
 10
86.50361083107802
 20
150.748948058219
 30
0.0
  0
SPLINE
  5
DE
330
1F
100
AcDbEntity
  8
0
  6
Continuous
 62
     7
370
    25
100
AcDbSpline
210
0.0
220
0.0
230
1.0
 70
    24
 71
     3
 72
    14
 73
    10
 74
     0
 42
0.000000001
 43
0.00000001
 40
0.0
 40
0.0
 40
0.0
 40
0.0
 40
0.1249999999999991
 40
0.1249999999999991
 40
0.2499999999999982
 40
0.2499999999999982
 40
0.4999999999999998
 40
0.4999999999999998
 40
1.0
 40
1.0
 40
1.0
 40
1.0
 10
86.90931329938707
 20
97.94894805821899
 30
0.0
 10
86.84087545150061
 20
97.94894805821899
 30
0.0
 10
86.77532541273555
 20
97.94894805821899
 30
0.0
 10
86.67089877332762
 20
97.94894805821899
 30
0.0
 10
86.62835416356619
 20
97.94894805821899
 30
0.0
 10
86.51574470302593
 20
97.94894805821897
 30
0.0
 10
86.46020565600645
 20
97.94894805821899
 30
0.0
 10
86.31759396054264
 20
97.94894805821897
 30
0.0
 10
86.2541886055469
 20
97.94894805821897
 30
0.0
 10
86.20698810171933
 20
97.94894805821899
 30
0.0
  0
SPLINE
  5
DF
330
1F
100
AcDbEntity
  8
0
  6
Continuous
 62
     7
370
    25
100
AcDbSpline
210
0.0
220
0.0
230
1.0
 70
     8
 71
     3
 72
    10
 73
     6
 74
     0
 42
0.000000001
 43
0.00000001
 40
0.0
 40
0.0
 40
0.0
 40
0.0
 40
0.5
 40
0.5
 40
1.0
 40
1.0
 40
1.0
 40
1.0
 10
86.10931329938707
 20
144.4848146896803
 30
0.0
 10
86.10931329938707
 20
144.4370431816871
 30
0.0
 10
86.11147454298423
 20
144.3893334596254
 30
0.0
 10
86.1201459168444
 20
144.2940383420771
 30
0.0
 10
86.12667509980038
 20
144.2463457781105
 30
0.0
 10
86.1354609225472
 20
144.198948058219
 30
0.0
  0
SPLINE
  5
E0
330
1F
100
AcDbEntity
  8
0
  6
Continuous
 62
     7
370
    25
100
AcDbSpline
210
0.0
220
0.0
230
1.0
 70
    24
 71
     3
 72
    14
 73
    10
 74
     0
 42
0.000000001
 43
0.00000001
 40
0.0
 40
0.0
 40
0.0
 40
0.0
 40
0.4999999999999984
 40
0.4999999999999984
 40
0.7499999999999992
 40
0.7499999999999992
 40
0.8749999999999996
 40
0.8749999999999996
 40
1.0
 40
1.0
 40
1.0
 40
1.0
 10
89.83163849705478
 20
97.94894805821899
 30
0.0
 10
89.78485379200657
 20
97.94894805821899
 30
0.0
 10
89.72280259522694
 20
97.94894805821899
 30
0.0
 10
89.57941095667634
 20
97.94894805821897
 30
0.0
 10
89.52326730312518
 20
97.94894805821899
 30
0.0
 10
89.410316280989
 20
97.94894805821899
 30
0.0
 10
89.36731551895086
 20
97.94894805821899
 30
0.0
 10
89.26325280864441
 20
97.94894805821899
 30
0.0
 10
89.19792057028747
 20
97.94894805821899
 30
0.0
 10
89.12931329938708
 20
97.94894805821899
 30
0.0
  0
SPLINE
  5
E1
330
1F
100
AcDbEntity
  8
0
  6
Continuous
 62
     7
370
    25
100
AcDbSpline
210
0.0
220
0.0
230
1.0
 70
    24
 71
     3
 72
    12
 73
     8
 74
     0
 42
0.000000001
 43
0.00000001
 40
0.0
 40
0.0
 40
0.0
 40
0.0
 40
0.5000000000000017
 40
0.5000000000000017
 40
0.7500000000000008
 40
0.7500000000000008
 40
1.0
 40
1.0
 40
1.0
 40
1.0
 10
89.5350157676961
 20
150.748948058219
 30
0.0
 10
89.49193021808514
 20
150.748948058219
 30
0.0
 10
89.44277801633582
 20
150.748948058219
 30
0.0
 10
89.3463054220479
 20
150.748948058219
 30
0.0
 10
89.31020383691333
 20
150.748948058219
 30
0.0
 10
89.22709807905207
 20
150.748948058219
 30
0.0
 10
89.17910148208577
 20
150.748948058219
 30
0.0
 10
89.12931329938706
 20
150.748948058219
 30
0.0
  0
SPLINE
  5
E2
330
1F
100
AcDbEntity
  8
0
  6
Continuous
 62
     7
370
    25
100
AcDbSpline
210
0.0
220
0.0
230
1.0
 70
     8
 71
     3
 72
    10
 73
     6
 74
     0
 42
0.000000001
 43
0.00000001
 40
0.0
 40
0.0
 40
0.0
 40
0.0
 40
0.5
 40
0.5
 40
1.0
 40
1.0
 40
1.0
 40
1.0
 10
89.92931329938705
 20
151.4686019092548
 30
0.0
 10
89.92931329938706
 20
151.3248318514368
 30
0.0
 10
89.89326424066817
 20
151.1824124889416
 30
0.0
 10
89.75775537989416
 20
150.9325181955844
 30
0.0
 10
89.657879386798
 20
150.8244878593362
 30
0.0
 10
89.53501576769607
 20
150.748948058219
 30
0.0
  0
SPLINE
  5
E3
330
1F
100
AcDbEntity
  8
0
  6
Continuous
 62
     7
370
    25
100
AcDbSpline
210
0.0
220
0.0
230
1.0
 70
     8
 71
     3
 72
    10
 73
     6
 74
     0
 42
0.000000001
 43
0.00000001
 40
0.0
 40
0.0
 40
0.0
 40
0.0
 40
0.5
 40
0.5
 40
1.0
 40
1.0
 40
1.0
 40
1.0
 10
89.90316567622693
 20
144.198948058219
 30
0.0
 10
89.91185531913861
 20
144.2458269075372
 30
0.0
 10
89.9183943838891
 20
144.2932493729385
 30
0.0
 10
89.92715301828214
 20
144.3891861715253
 30
0.0
 10
89.92931329938706
 20
144.4371014595358
 30
0.0
 10
89.92931329938706
 20
144.4848146896803
 30
0.0
  0
LWPOLYLINE
  5
E4
330
1F
100
AcDbEntity
  8
0
  6
Continuous
 62
     7
370
    25
100
AcDbPolyline
 90
       21
 70
   128
 43
0.0
 10
140.9693147776
 20
147.628777009
 10
141.7418580291
 20
147.7152968762
 10
142.4387778876
 20
147.9663907555
 10
142.991856837
 20
148.357477319
 10
143.3469515083
 20
148.8502736208
 10
143.4693123934
 20
149.3965446022
 10
143.3469515083
 20
149.942813721
 10
142.991856837
 20
150.4356118855
 10
142.4387778876
 20
150.8266965863
 10
141.7418580291
 20
151.0777904657
 10
140.9693147776
 20
151.1643103329
 10
140.1967715261
 20
151.0777904657
 10
139.4998516676
 20
150.8266965863
 10
138.9467727182
 20
150.4356118855
 10
138.5916705963
 20
149.942813721
 10
138.4693097112
 20
149.3965446022
 10
138.5916705963
 20
148.8502736208
 10
138.9467727182
 20
148.357477319
 10
139.4998516676
 20
147.9663907555
 10
140.1967715261
 20
147.7152968762
 10
140.9693147776
 20
147.628777009
  0
LWPOLYLINE
  5
E5
330
1F
100
AcDbEntity
  8
0
  6
Continuous
 62
     7
370
    25
100
AcDbPolyline
 90
       21
 70
   128
 43
0.0
 10
140.9693147776
 20
97.5335857836
 10
141.7418580291
 20
97.6201056508
 10
142.4387778876
 20
97.8711995301
 10
142.991856837
 20
98.2622842309
 10
143.3469515083
 20
98.7550823954
 10
143.4693123934
 20
99.3013515142
 10
143.3469515083
 20
99.8476224956
 10
142.991856837
 20
100.3404187975
 10
142.4387778876
 20
100.7315053609
 10
141.7418580291
 20
100.9825992403
 10
140.9693147776
 20
101.0691191075
 10
140.1967715261
 20
100.9825992403
 10
139.4998516676
 20
100.7315053609
 10
138.9467727182
 20
100.3404187975
 10
138.5916705963
 20
99.8476224956
 10
138.4693097112
 20
99.3013515142
 10
138.5916705963
 20
98.7550823954
 10
138.9467727182
 20
98.2622842309
 10
139.4998516676
 20
97.8711995301
 10
140.1967715261
 20
97.6201056508
 10
140.9693147776
 20
97.5335857836
  0
LINE
  5
E6
330
1F
100
AcDbEntity
  8
0
  6
Continuous
 62
     7
370
    25
100
AcDbLine
 10
89.1293130604
 20
150.7489479152
 30
0.0
 11
86.9093138513
 21
150.7489479152
 31
0.0
  0
LINE
  5
E7
330
1F
100
AcDbEntity
  8
0
  6
Continuous
 62
     7
370
    25
100
AcDbLine
 10
89.1293130604
 20
97.9489482013
 30
0.0
 11
86.9093138513
 21
97.9489482013
 31
0.0
  0
LINE
  5
E8
330
1F
100
AcDbEntity
  8
0
  6
Continuous
 62
     7
370
    25
100
AcDbLine
 10
68.0193132044
 20
100.1285168347
 30
0.0
 11
68.0193132044
 21
148.5693792817
 31
0.0
  0
LINE
  5
E9
330
1F
100
AcDbEntity
  8
0
  6
Continuous
 62
     7
370
    25
100
AcDbLine
 10
48.2193130788
 20
101.1205020365
 30
0.0
 11
48.2193130788
 21
102.3852101532
 31
0.0
  0
SPLINE
  5
EA
330
1F
100
AcDbEntity
  8
0
  6
Continuous
 62
     7
370
    25
100
AcDbSpline
210
0.0
220
0.0
230
1.0
 70
     8
 71
     3
 72
    14
 73
    10
 74
     0
 42
0.000000001
 43
0.00000001
 40
0.0
 40
0.0
 40
0.0
 40
0.0
 40
0.25
 40
0.25
 40
0.5
 40
0.5
 40
0.75
 40
0.75
 40
1.0
 40
1.0
 40
1.0
 40
1.0
 10
47.44102618147136
 20
103.515796734659
 30
0.0
 10
47.49765285667343
 20
103.4080992808222
 30
0.0
 10
47.59217551696315
 20
103.3053096991029
 30
0.0
 10
47.77522049252539
 20
103.1069523868827
 30
0.0
 10
47.86684706948011
 20
103.0108928782045
 30
0.0
 10
48.02570038717331
 20
102.8233638354952
 30
0.0
 10
48.09359099479502
 20
102.7319548627117
 30
0.0
 10
48.19050802050259
 20
102.5535786418015
 30
0.0
 10
48.21931329938764
 20
102.4663567355553
 30
0.0
 10
48.21931329938764
 20
102.3852105270211
 30
0.0
  0
SPLINE
  5
EB
330
1F
100
AcDbEntity
  8
0
  6
Continuous
 62
     7
370
    25
100
AcDbSpline
210
0.0
220
0.0
230
1.0
 70
     8
 71
     3
 72
    14
 73
    10
 74
     0
 42
0.000000001
 43
0.00000001
 40
0.0
 40
0.0
 40
0.0
 40
0.0
 40
0.1249999999999975
 40
0.1249999999999975
 40
0.249999999999995
 40
0.249999999999995
 40
0.4999999999999953
 40
0.4999999999999953
 40
1.0
 40
1.0
 40
1.0
 40
1.0
 10
46.81931329938707
 20
103.9624785969384
 30
0.0
 10
46.86785770804423
 20
103.9682269102186
 30
0.0
 10
46.92077306282914
 20
103.9651260215624
 30
0.0
 10
47.01606840781219
 20
103.9429311774001
 30
0.0
 10
47.05631940509713
 20
103.9256989503042
 30
0.0
 10
47.16058941861011
 20
103.8693710338522
 30
0.0
 10
47.21091139376343
 20
103.8251846879064
 30
0.0
 10
47.33859434128881
 20
103.6941767890557
 30
0.0
 10
47.39467978835108
 20
103.6039422688254
 30
0.0
 10
47.44102618147281
 20
103.5157967346596
 30
0.0
  0
SPLINE
  5
EC
330
1F
100
AcDbEntity
  8
0
  6
Continuous
 62
     7
370
    25
100
AcDbSpline
210
0.0
220
0.0
230
1.0
 70
     8
 71
     3
 72
     8
 73
     4
 74
     0
 42
0.000000001
 43
0.00000001
 40
0.0
 40
0.0
 40
0.0
 40
0.0
 40
1.0
 40
1.0
 40
1.0
 40
1.0
 10
44.55078820644084
 20
103.6526333103556
 30
0.0
 10
45.2853652329238
 20
103.7712583214245
 30
0.0
 10
46.04884030231946
 20
103.8712441935608
 30
0.0
 10
46.81931329938707
 20
103.9624785969384
 30
0.0
  0
SPLINE
  5
ED
330
1F
100
AcDbEntity
  8
0
  6
Continuous
 62
     7
370
    25
100
AcDbSpline
210
0.0
220
0.0
230
1.0
 70
     8
 71
     3
 72
    14
 73
    10
 74
     0
 42
0.000000001
 43
0.00000001
 40
0.0
 40
0.0
 40
0.0
 40
0.0
 40
0.500000000000001
 40
0.500000000000001
 40
0.7500000000000004
 40
0.7500000000000004
 40
0.8750000000000003
 40
0.8750000000000003
 40
1.0
 40
1.0
 40
1.0
 40
1.0
 10
39.26931329938707
 20
103.4790102928239
 30
0.0
 10
40.16145942994065
 20
103.4782880666233
 30
0.0
 10
41.05143586573425
 20
103.4828742730807
 30
0.0
 10
42.37803103280985
 20
103.5105992774723
 30
0.0
 10
42.81887796130859
 20
103.5232058150964
 30
0.0
 10
43.475318198731
 20
103.5542219631039
 30
0.0
 10
43.69333185532288
 20
103.5665651357307
 30
0.0
 10
44.12604070900566
 20
103.599589190894
 30
0.0
 10
44.34131717417045
 20
103.6188063560324
 30
0.0
 10
44.55078820644086
 20
103.6526333103556
 30
0.0
  0
SPLINE
  5
EE
330
1F
100
AcDbEntity
  8
0
  6
Continuous
 62
     7
370
    25
100
AcDbSpline
210
0.0
220
0.0
230
1.0
 70
     8
 71
     3
 72
     8
 73
     4
 74
     0
 42
0.000000001
 43
0.00000001
 40
0.0000005163856712
 40
0.0000005163856712
 40
0.0000005163856712
 40
0.0000005163856712
 40
0.000026289209185
 40
0.000026289209185
 40
0.000026289209185
 40
0.000026289209185
 10
39.25926836896839
 20
103.4889941659318
 30
0.0
 10
39.26259610717986
 20
103.485659919059
 30
0.0
 10
39.26594456015916
 20
103.4823319617799
 30
0.0
 10
39.26931329938704
 20
103.4790102928239
 30
0.0
  0
SPLINE
  5
EF
330
1F
100
AcDbEntity
  8
0
  6
Continuous
 62
     7
370
    25
100
AcDbSpline
210
0.0
220
0.0
230
1.0
 70
     8
 71
     3
 72
     8
 73
     4
 74
     0
 42
0.000000001
 43
0.00000001
 40
0.0000005099763573
 40
0.0000005099763573
 40
0.0000005099763573
 40
0.0000005099763573
 40
0.0000262827998699
 40
0.0000262827998699
 40
0.0000262827998699
 40
0.0000262827998699
 10
39.26931329938704
 20
145.218885823614
 30
0.0
 10
39.26594456015932
 20
145.2155641546582
 30
0.0
 10
39.26259610718018
 20
145.2122361973793
 30
0.0
 10
39.25926836896885
 20
145.2089019505067
 30
0.0
  0
SPLINE
  5
F0
330
1F
100
AcDbEntity
  8
0
  6
Continuous
 62
     7
370
    25
100
AcDbSpline
210
0.0
220
0.0
230
1.0
 70
     8
 71
     3
 72
    10
 73
     6
 74
     0
 42
0.000000001
 43
0.00000001
 40
0.0
 40
0.0
 40
0.0
 40
0.0
 40
0.5
 40
0.5
 40
1.0
 40
1.0
 40
1.0
 40
1.0
 10
42.81931329938707
 20
145.1720354500467
 30
0.0
 10
42.23172775229649
 20
145.1931009702832
 30
0.0
 10
41.64098135883609
 20
145.2038594561554
 30
0.0
 10
40.45696219353724
 20
145.217224236691
 30
0.0
 10
39.86354820533178
 20
145.2193668793556
 30
0.0
 10
39.26931329938707
 20
145.218885823614
 30
0.0
  0
SPLINE
  5
F1
330
1F
100
AcDbEntity
  8
0
  6
Continuous
 62
     7
370
    25
100
AcDbSpline
210
0.0
220
0.0
230
1.0
 70
     8
 71
     3
 72
    18
 73
    14
 74
     0
 42
0.000000001
 43
0.00000001
 40
0.0
 40
0.0
 40
0.0
 40
0.0
 40
0.2500000000000009
 40
0.2500000000000009
 40
0.500000000000001
 40
0.500000000000001
 40
0.7500000000000011
 40
0.7500000000000011
 40
0.875000000000001
 40
0.875000000000001
 40
0.9375000000000006
 40
0.9375000000000006
 40
1.0
 40
1.0
 40
1.0
 40
1.0
 10
44.21931329938708
 20
146.193055730582
 30
0.0
 10
44.21931329938708
 20
146.1098488217248
 30
0.0
 10
44.18346419944881
 20
146.0211121664112
 30
0.0
 10
44.0585924634149
 20
145.838986975851
 30
0.0
 10
43.96819204576702
 20
145.7438569272244
 30
0.0
 10
43.74594939102484
 20
145.5546754181
 30
0.0
 10
43.61618460457908
 20
145.4597302500053
 30
0.0
 10
43.37554714726756
 20
145.3214515424254
 30
0.0
 10
43.28777984913011
 20
145.275741109123
 30
0.0
 10
43.13325576192331
 20
145.2179178039015
 30
0.0
 10
43.07664487586855
 20
145.2002030398637
 30
0.0
 10
42.95260084496196
 20
145.1756637366308
 30
0.0
 10
42.88488616994367
 20
145.1696845980925
 30
0.0
 10
42.81931329938707
 20
145.1720354500467
 30
0.0
  0
LINE
  5
F2
330
1F
100
AcDbEntity
  8
0
  6
Continuous
 62
     7
370
    25
100
AcDbLine
 10
44.2193124232
 20
146.1930557159
 30
0.0
 11
44.2193124232
 21
147.3769939509
 31
0.0
  0
SPLINE
  5
F3
330
1F
100
AcDbEntity
  8
0
  6
Continuous
 62
     7
370
    25
100
AcDbSpline
210
0.0
220
0.0
230
1.0
 70
     8
 71
     3
 72
    18
 73
    14
 74
     0
 42
0.000000001
 43
0.00000001
 40
0.0
 40
0.0
 40
0.0
 40
0.0
 40
0.001067142096085
 40
0.1270947925777493
 40
0.2524053537361832
 40
0.3766468838452861
 40
0.4391416358858051
 40
0.5008278334298175
 40
0.5624255844801763
 40
0.6253162510714301
 40
0.7499985254815132
 40
0.8752758926324193
 40
1.0
 40
1.0
 40
1.0
 40
1.0
 10
56.78961442533073
 20
100.691609364481
 30
0.0
 10
56.788702350048
 20
100.691494196589
 30
0.0
 10
56.68007574886749
 20
100.6777778982592
 30
0.0
 10
57.06775722091023
 20
100.7287641596409
 30
0.0
 10
57.93370568101977
 20
100.8283211955154
 30
0.0
 10
59.13411347474258
 20
100.8974518251344
 30
0.0
 10
60.19168902460031
 20
100.9014025254012
 30
0.0
 10
61.01882338872357
 20
100.8739156574769
 30
0.0
 10
61.84409502477141
 20
100.8153731686646
 30
0.0
 10
62.8984602318802
 20
100.7018545667049
 30
0.0
 10
64.06029643813362
 20
100.5187004108714
 30
0.0
 10
65.01253115880675
 20
100.3141002622052
 30
0.0
 10
65.13823626151539
 20
100.2848135921961
 30
0.0
 10
65.20094971853432
 20
100.2702026632738
 30
0.0
  0
SPLINE
  5
F4
330
1F
100
AcDbEntity
  8
0
  6
Continuous
 62
     7
370
    25
100
AcDbSpline
210
0.0
220
0.0
230
1.0
 70
     8
 71
     3
 72
    18
 73
    14
 74
     0
 42
0.000000001
 43
0.00000001
 40
0.0
 40
0.0
 40
0.0
 40
0.0
 40
0.1248907819469273
 40
0.2505384063477967
 40
0.3748721756041158
 40
0.4374907331267689
 40
0.4990776026247599
 40
0.5607931145009658
 40
0.6233901196104445
 40
0.7478191009174896
 40
0.8731941046696081
 40
0.9991614615322162
 40
0.9999999999999999
 40
0.9999999999999999
 40
0.9999999999999999
 40
0.9999999999999999
 10
65.20073085772928
 20
148.4276282605839
 30
0.0
 10
65.13699002576158
 20
148.4129667943569
 30
0.0
 10
65.00912209018202
 20
148.3835550129109
 30
0.0
 10
64.0571232535935
 20
148.1786010535533
 30
0.0
 10
62.89657918274086
 20
147.9953397916896
 30
0.0
 10
61.84431541107749
 20
147.8823092373146
 30
0.0
 10
61.02008811205921
 20
147.8240484298419
 30
0.0
 10
60.19248436673453
 20
147.7966012937198
 30
0.0
 10
59.1336670370403
 20
147.8005860875944
 30
0.0
 10
57.93144729741446
 20
147.8696788720904
 30
0.0
 10
57.06626652641558
 20
147.9692876092775
 30
0.0
 10
56.68011777877789
 20
148.0201452149208
 30
0.0
 10
56.7881956511415
 20
148.0064444074974
 30
0.0
 10
56.78891034546432
 20
148.0063538071824
 30
0.0
  0
SPLINE
  5
F5
330
1F
100
AcDbEntity
  8
0
  6
Continuous
 62
     7
370
    25
100
AcDbSpline
210
0.0
220
0.0
230
1.0
 70
     8
 71
     3
 72
     9
 73
     5
 74
     0
 42
0.000000001
 43
0.00000001
 40
0.0
 40
0.0
 40
0.0
 40
0.0
 40
0.7009339503679092
 40
0.9999999999999999
 40
0.9999999999999999
 40
0.9999999999999999
 40
0.9999999999999999
 10
38.14009686681566
 20
104.6476683584166
 30
0.0
 10
38.1492375377655
 20
104.6298390746557
 30
0.0
 10
38.1622782400243
 20
104.6044026069949
 30
0.0
 10
38.17744170329257
 20
104.6582819664684
 30
0.0
 10
38.18197658035097
 20
104.6743954536629
 30
0.0
  0
LINE
  5
F6
330
1F
100
AcDbEntity
  8
0
  6
Continuous
 62
     7
370
    25
100
AcDbLine
 10
38.1193134722
 20
104.6582705346
 30
0.0
 11
38.1193134722
 21
144.0396255818
 31
0.0
  0
SPLINE
  5
F7
330
1F
100
AcDbEntity
  8
0
  6
Continuous
 62
     7
370
    25
100
AcDbSpline
210
0.0
220
0.0
230
1.0
 70
     8
 71
     3
 72
    10
 73
     6
 74
     0
 42
0.000000001
 43
0.00000001
 40
0.0
 40
0.0
 40
0.0
 40
0.0
 40
0.5
 40
0.5
 40
1.0
 40
1.0
 40
1.0
 40
1.0
 10
38.18197667411047
 20
144.0235006029997
 30
0.0
 10
38.17307238500172
 20
144.0692421222129
 30
0.0
 10
38.15655700480875
 20
144.0864329616819
 30
0.0
 10
38.12944905874713
 20
144.0861096847462
 30
0.0
 10
38.11931329938709
 20
144.0682321424497
 30
0.0
 10
38.11931329938707
 20
144.0396258046971
 30
0.0
  0
SPLINE
  5
F8
330
1F
100
AcDbEntity
  8
0
  6
Continuous
 62
     7
370
    25
100
AcDbSpline
210
0.0
220
0.0
230
1.0
 70
     8
 71
     3
 72
    26
 73
    22
 74
     0
 42
0.000000001
 43
0.00000001
 40
0.0
 40
0.0
 40
0.0
 40
0.0
 40
0.2500000000000165
 40
0.2500000000000165
 40
0.3750000000000256
 40
0.3750000000000256
 40
0.4375000000000291
 40
0.4375000000000291
 40
0.4687500000000291
 40
0.4687500000000291
 40
0.5000000000000292
 40
0.5000000000000292
 40
0.5312500000000293
 40
0.5312500000000293
 40
0.5625000000000293
 40
0.5625000000000293
 40
0.625000000000026
 40
0.625000000000026
 40
0.7500000000000173
 40
0.7500000000000173
 40
1.0
 40
1.0
 40
1.0
 40
1.0
 10
38.94346694549159
 20
144.7390673918168
 30
0.0
 10
38.90486642262312
 20
144.6212926954614
 30
0.0
 10
38.85856942006885
 20
144.4969030092995
 30
0.0
 10
38.76463007163491
 20
144.291683676946
 30
0.0
 10
38.72931860472146
 20
144.2201108104995
 30
0.0
 10
38.6631386289758
 20
144.1041575778991
 30
0.0
 10
38.63860026230756
 20
144.0635730430888
 30
0.0
 10
38.59522751675377
 20
143.9994313612171
 30
0.0
 10
38.57971911532857
 20
143.9775649359321
 30
0.0
 10
38.54467647074156
 20
143.9319706675888
 30
0.0
 10
38.52512618002178
 20
143.9083003766214
 30
0.0
 10
38.48319889965119
 20
143.8636838172815
 30
0.0
 10
38.46054678941954
 20
143.8428038047636
 30
0.0
 10
38.41957307533289
 20
143.8119303910128
 30
0.0
 10
38.40197377543747
 20
143.8020915211803
 30
0.0
 10
38.35734678958133
 20
143.7831019054842
 30
0.0
 10
38.33678756692799
 20
143.7827775808308
 30
0.0
 10
38.28566212743133
 20
143.7920010217069
 30
0.0
 10
38.2647507144428
 20
143.8132479179239
 30
0.0
 10
38.21330080688186
 20
143.8872167967547
 30
0.0
 10
38.19563550757731
 20
143.9533348900694
 30
0.0
 10
38.18197667411047
 20
144.0235006029997
 30
0.0
  0
SPLINE
  5
F9
330
1F
100
AcDbEntity
  8
0
  6
Continuous
 62
     7
370
    25
100
AcDbSpline
210
0.0
220
0.0
230
1.0
 70
     8
 71
     3
 72
    10
 73
     6
 74
     0
 42
0.000000001
 43
0.00000001
 40
0.0
 40
0.0
 40
0.0
 40
0.0
 40
0.5
 40
0.5
 40
1.0
 40
1.0
 40
1.0
 40
1.0
 10
39.25926836896887
 20
145.2089019505067
 30
0.0
 10
39.19170911405064
 20
145.1412105576969
 30
0.0
 10
39.12807245871414
 20
145.0665033929432
 30
0.0
 10
39.01785170414227
 20
144.9075372605166
 30
0.0
 10
38.97103541091965
 20
144.8231819945086
 30
0.0
 10
38.94346694549159
 20
144.7390673918168
 30
0.0
  0
SPLINE
  5
FA
330
1F
100
AcDbEntity
  8
0
  6
Continuous
 62
     7
370
    25
100
AcDbSpline
210
0.0
220
0.0
230
1.0
 70
     8
 71
     3
 72
    10
 73
     6
 74
     0
 42
0.000000001
 43
0.00000001
 40
0.0
 40
0.0
 40
0.0
 40
0.0
 40
0.5
 40
0.5
 40
1.0
 40
1.0
 40
1.0
 40
1.0
 10
38.94346694549161
 20
103.958828724621
 30
0.0
 10
38.97094436024483
 20
103.8749919281554
 30
0.0
 10
39.01765299053249
 20
103.7906814405686
 30
0.0
 10
39.12793145327444
 20
103.6315602100857
 30
0.0
 10
39.19181899188607
 20
103.5565754659977
 30
0.0
 10
39.25926836896841
 20
103.4889941659318
 30
0.0
  0
SPLINE
  5
FB
330
1F
100
AcDbEntity
  8
0
  6
Continuous
 62
     7
370
    25
100
AcDbSpline
210
0.0
220
0.0
230
1.0
 70
     8
 71
     3
 72
    24
 73
    20
 74
     0
 42
0.000000001
 43
0.00000001
 40
0.0
 40
0.0
 40
0.0
 40
0.0
 40
0.25
 40
0.25
 40
0.374999999999999
 40
0.374999999999999
 40
0.4374999999999993
 40
0.4374999999999993
 40
0.4687499999999994
 40
0.4687499999999994
 40
0.4999999999999995
 40
0.4999999999999995
 40
0.5624999999999971
 40
0.5624999999999971
 40
0.6249999999999947
 40
0.6249999999999947
 40
0.7499999999999947
 40
0.7499999999999947
 40
1.0
 40
1.0
 40
1.0
 40
1.0
 10
38.18197667411047
 20
104.6743955134382
 30
0.0
 10
38.19572979278071
 20
104.7450455714285
 30
0.0
 10
38.21350236018657
 20
104.8116436841935
 30
0.0
 10
38.26575345174194
 20
104.8857417044267
 30
0.0
 10
38.28678852732348
 20
104.9069995115882
 30
0.0
 10
38.33968893495193
 20
104.9151454377345
 30
0.0
 10
38.36079460782985
 20
104.9142056343387
 30
0.0
 10
38.4068467765078
 20
104.8931896427613
 30
0.0
 10
38.4252172484912
 20
104.8822808366537
 30
0.0
 10
38.46676888355691
 20
104.8496459257064
 30
0.0
 10
38.48933555631381
 20
104.828153945335
 30
0.0
 10
38.55211657277383
 20
104.7596880017487
 30
0.0
 10
38.58524633374172
 20
104.7136135435436
 30
0.0
 10
38.64216402022674
 20
104.6286056552089
 30
0.0
 10
38.66635004573052
 20
104.5883253540275
 30
0.0
 10
38.73155799611028
 20
104.4733891275616
 30
0.0
 10
38.76627405630151
 20
104.4028061424146
 30
0.0
 10
38.85948932663239
 20
104.198600383336
 30
0.0
 10
38.90516186199307
 20
104.0757020010086
 30
0.0
 10
38.94346694549161
 20
103.958828724621
 30
0.0
  0
LINE
  5
FC
330
1F
100
AcDbEntity
  8
0
  6
Continuous
 62
     7
370
    25
100
AcDbLine
 10
95.3693140087
 20
154.8161434946
 30
0.0
 11
91.4112452206
 21
154.8161434946
 31
0.0
  0
LINE
  5
FD
330
1F
100
AcDbEntity
  8
0
  6
Continuous
 62
     7
370
    25
100
AcDbLine
 10
91.4112452206
 20
148.8076376733
 30
0.0
 11
95.3693140087
 21
148.8076376733
 31
0.0
  0
LINE
  5
FE
330
1F
100
AcDbEntity
  8
0
  6
Continuous
 62
     7
370
    25
100
AcDbLine
 10
91.4112452206
 20
148.8076376733
 30
0.0
 11
91.4112452206
 21
154.8161434946
 31
0.0
  0
SPLINE
  5
FF
330
1F
100
AcDbEntity
  8
0
  6
Continuous
 62
     7
370
    25
100
AcDbSpline
210
0.0
220
0.0
230
1.0
 70
     8
 71
     3
 72
     8
 73
     4
 74
     0
 42
0.000000001
 43
0.00000001
 40
0.0
 40
0.0
 40
0.0
 40
0.0
 40
1.0
 40
1.0
 40
1.0
 40
1.0
 10
89.92931329938706
 20
145.3990917258023
 30
0.0
 10
90.40859144997691
 20
146.5401029556549
 30
0.0
 10
90.90415928911685
 20
147.6764873664227
 30
0.0
 10
91.41124613087612
 20
148.8076377205864
 30
0.0
  0
SPLINE
  5
100
330
1F
100
AcDbEntity
  8
0
  6
Continuous
 62
     7
370
    25
100
AcDbSpline
210
0.0
220
0.0
230
1.0
 70
     8
 71
     3
 72
    12
 73
     8
 74
     0
 42
0.000000001
 43
0.00000001
 40
0.0
 40
0.0
 40
0.0
 40
0.0
 40
0.25
 40
0.25
 40
0.5
 40
0.5
 40
1.0
 40
1.0
 40
1.0
 40
1.0
 10
95.36931329938706
 20
148.8076377205865
 30
0.0
 10
95.46051302121272
 20
148.8076377205865
 30
0.0
 10
95.55110803034874
 20
148.7794180219985
 30
0.0
 10
95.70452075679539
 20
148.6849750147504
 30
0.0
 10
95.7697296241191
 20
148.6186880380451
 30
0.0
 10
95.922514153459
 20
148.3930632147568
 30
0.0
 10
95.96931329938707
 20
148.2106369517243
 30
0.0
 10
95.96931329938707
 20
148.0299003194774
 30
0.0
  0
LINE
  5
101
330
1F
100
AcDbEntity
  8
0
  6
Continuous
 62
     7
370
    25
100
AcDbLine
 10
89.929313564
 20
144.4848145363
 30
0.0
 11
89.929313564
 21
145.3990920452
 31
0.0
  0
LINE
  5
102
330
1F
100
AcDbEntity
  8
0
  6
Continuous
 62
     7
370
    25
100
AcDbLine
 10
95.9693129894
 20
148.0298995045
 30
0.0
 11
95.9693129894
 21
144.1989487973
 31
0.0
  0
SPLINE
  5
103
330
1F
100
AcDbEntity
  8
0
  6
Continuous
 62
     7
370
    25
100
AcDbSpline
210
0.0
220
0.0
230
1.0
 70
     8
 71
     3
 72
    10
 73
     6
 74
     0
 42
0.000000001
 43
0.00000001
 40
0.0
 40
0.0
 40
0.0
 40
0.0
 40
0.5
 40
0.5
 40
1.0
 40
1.0
 40
1.0
 40
1.0
 10
95.96931329938707
 20
154.1953883819829
 30
0.0
 10
95.96931329938705
 20
154.3557936483337
 30
0.0
 10
95.9070754682802
 20
154.5148554613223
 30
0.0
 10
95.68794054453764
 20
154.7457679269526
 30
0.0
 10
95.53035184954578
 20
154.8161435313832
 30
0.0
 10
95.36931329938707
 20
154.8161435313832
 30
0.0
  0
LINE
  5
104
330
1F
100
AcDbEntity
  8
0
  6
Continuous
 62
     7
370
    25
100
AcDbLine
 10
95.9693129894
 20
148.0298995045
 30
0.0
 11
95.9693129894
 21
154.1953890589
 31
0.0
  0
SPLINE
  5
105
330
1F
100
AcDbEntity
  8
0
  6
Continuous
 62
     7
370
    25
100
AcDbSpline
210
0.0
220
0.0
230
1.0
 70
     8
 71
     3
 72
     8
 73
     4
 74
     0
 42
0.000000001
 43
0.00000001
 40
0.0
 40
0.0
 40
0.0
 40
0.0
 40
1.0
 40
1.0
 40
1.0
 40
1.0
 10
86.10931329938707
 20
152.1541822493906
 30
0.0
 10
85.6166032025413
 20
153.042201247517
 30
0.0
 10
85.12252049726233
 20
153.929463883203
 30
0.0
 10
84.627380467898
 20
154.8161435313832
 30
0.0
  0
SPLINE
  5
106
330
1F
100
AcDbEntity
  8
0
  6
Continuous
 62
     7
370
    25
100
AcDbSpline
210
0.0
220
0.0
230
1.0
 70
     8
 71
     3
 72
     8
 73
     4
 74
     0
 42
0.000000001
 43
0.00000001
 40
0.0
 40
0.0
 40
0.0
 40
0.0
 40
1.0
 40
1.0
 40
1.0
 40
1.0
 10
84.627380467898
 20
148.8076377205864
 30
0.0
 10
85.1344673096573
 20
147.6764873664227
 30
0.0
 10
85.63003514879723
 20
146.5401029556549
 30
0.0
 10
86.10931329938708
 20
145.3990917258023
 30
0.0
  0
LINE
  5
107
330
1F
100
AcDbEntity
  8
0
  6
Continuous
 62
     7
370
    25
100
AcDbLine
 10
86.1093133477
 20
145.3990920452
 30
0.0
 11
86.1093133477
 21
152.1541814325
 31
0.0
  0
LINE
  5
108
330
1F
100
AcDbEntity
  8
0
  6
Continuous
 62
     7
370
    25
100
AcDbLine
 10
86.1093133477
 20
145.3990920452
 30
0.0
 11
86.1093133477
 21
144.4848145363
 31
0.0
  0
SPLINE
  5
109
330
1F
100
AcDbEntity
  8
0
  6
Continuous
 62
     7
370
    25
100
AcDbSpline
210
0.0
220
0.0
230
1.0
 70
     8
 71
     3
 72
     8
 73
     4
 74
     0
 42
0.000000001
 43
0.00000001
 40
0.0
 40
0.0
 40
0.0
 40
0.0
 40
1.0
 40
1.0
 40
1.0
 40
1.0
 10
91.41124613087612
 20
154.8161435313832
 30
0.0
 10
90.9161061015118
 20
153.929463883203
 30
0.0
 10
90.42202339623282
 20
153.042201247517
 30
0.0
 10
89.92931329938705
 20
152.1541822493906
 30
0.0
  0
LINE
  5
10A
330
1F
100
AcDbEntity
  8
0
  6
Continuous
 62
     7
370
    25
100
AcDbLine
 10
89.929313564
 20
145.3990920452
 30
0.0
 11
89.929313564
 21
152.1541814325
 31
0.0
  0
ARC
  5
10B
330
1F
100
AcDbEntity
  8
0
  6
Continuous
 62
     7
370
    25
100
AcDbCircle
 10
78.0195082153
 20
143.1062571305
 30
0.0
 40
7.200661780763427
100
AcDbArc
 50
70.8261462199
 51
109.2370657592
  0
LINE
  5
10C
330
1F
100
AcDbEntity
  8
0
  6
Continuous
 62
     7
370
    25
100
AcDbLine
 10
202.5193061468
 20
108.3489472983
 30
0.0
 11
202.5193061468
 21
140.3489488182
 31
0.0
  0
LINE
  5
10D
330
1F
100
AcDbEntity
  8
0
  6
Continuous
 62
     7
370
    25
100
AcDbLine
 10
224.0193124649
 20
109.3489483935
 30
0.0
 11
224.0193124649
 21
139.3489477229
 31
0.0
  0
LINE
  5
10E
330
1F
100
AcDbEntity
  8
0
  6
Continuous
 62
     7
370
    25
100
AcDbLine
 10
207.0193078158
 20
144.8489486245
 30
0.0
 11
207.0193078158
 21
157.8489488927
 31
0.0
  0
LINE
  5
10F
330
1F
100
AcDbEntity
  8
0
  6
Continuous
 62
     7
370
    25
100
AcDbLine
 10
207.0193078158
 20
90.8489472238
 30
0.0
 11
207.0193078158
 21
103.848947492
 31
0.0
  0
LINE
  5
110
330
1F
100
AcDbEntity
  8
0
  6
Continuous
 62
     7
370
    25
100
AcDbLine
 10
229.0193076966
 20
136.3489481625
 30
0.0
 11
229.0193076966
 21
112.3489479539
 31
0.0
  0
LINE
  5
111
330
1F
100
AcDbEntity
  8
0
  6
Continuous
 62
     7
370
    25
100
AcDbLine
 10
245.0193103192
 20
135.5489476589
 30
0.0
 11
245.0193103192
 21
113.1489484576
 31
0.0
  0
LINE
  5
112
330
1F
100
AcDbEntity
  8
0
  6
HIDDEN
 62
     7
370
    18
100
AcDbLine
 10
229.0193076966
 20
112.3489479539
 30
0.0
 11
229.0193076966
 21
136.3489481625
 31
0.0
  0
LINE
  5
113
330
1F
100
AcDbEntity
  8
0
  6
HIDDEN
 62
     7
370
    18
100
AcDbLine
 10
245.0193103192
 20
113.1489484576
 30
0.0
 11
245.0193103192
 21
135.5489476589
 31
0.0
  0
LINE
  5
114
330
1F
100
AcDbEntity
  8
0
  6
HIDDEN
 62
     7
370
    18
100
AcDbLine
 10
229.0193076966
 20
115.7489477662
 30
0.0
 11
229.0193076966
 21
132.9489483503
 31
0.0
  0
LINE
  5
115
330
1F
100
AcDbEntity
  8
0
  6
HIDDEN
 62
     7
370
    18
100
AcDbLine
 10
245.0193103192
 20
124.3489480582
 30
0.0
 11
245.0193103192
 21
117.277948
 31
0.0
  0
LINE
  5
116
330
1F
100
AcDbEntity
  8
0
  6
HIDDEN
 62
     7
370
    18
100
AcDbLine
 10
237.0193090079
 20
124.3489480582
 30
0.0
 11
237.0193090079
 21
120.8134480291
 31
0.0
  0
LINE
  5
117
330
1F
100
AcDbEntity
  8
0
  6
HIDDEN
 62
     7
370
    18
100
AcDbLine
 10
237.0193090079
 20
124.3489480582
 30
0.0
 11
237.0193090079
 21
127.8844480873
 31
0.0
  0
LINE
  5
118
330
1F
100
AcDbEntity
  8
0
  6
HIDDEN
 62
     7
370
    18
100
AcDbLine
 10
237.0193090079
 20
124.3489480582
 30
0.0
 11
245.0193103192
 21
124.3489480582
 31
0.0
  0
LINE
  5
119
330
1F
100
AcDbEntity
  8
0
  6
HIDDEN
 62
     7
370
    18
100
AcDbLine
 10
245.0193103192
 20
124.3489480582
 30
0.0
 11
245.0193103192
 21
131.4199481164
 31
0.0
  0
LINE
  5
11A
330
1F
100
AcDbEntity
  8
0
  6
HIDDEN
 62
     7
370
    18
100
AcDbLine
 10
195.1208200094
 20
116.3489476782
 30
0.0
 11
195.1208200094
 21
132.3489484382
 31
0.0
  0
LINE
  5
11B
330
1F
100
AcDbEntity
  8
0
  6
HIDDEN
 62
     7
370
    18
100
AcDbLine
 10
194.0193112728
 20
117.4504480329
 30
0.0
 11
194.0193112728
 21
131.2474480835
 31
0.0
  0
LINE
  5
11C
330
1F
100
AcDbEntity
  8
0
  6
HIDDEN
 62
     7
370
    18
100
AcDbLine
 10
237.0193090079
 20
127.8844480873
 30
0.0
 11
237.0193090079
 21
131.4199481164
 31
0.0
  0
LINE
  5
11D
330
1F
100
AcDbEntity
  8
0
  6
HIDDEN
 62
     7
370
    18
100
AcDbLine
 10
237.0193090079
 20
120.8134480291
 30
0.0
 11
237.0193090079
 21
127.8844480873
 31
0.0
  0
LINE
  5
11E
330
1F
100
AcDbEntity
  8
0
  6
HIDDEN
 62
     7
370
    18
100
AcDbLine
 10
237.0193090079
 20
117.277948
 30
0.0
 11
237.0193090079
 21
120.8134480291
 31
0.0
  0
LINE
  5
11F
330
1F
100
AcDbEntity
  8
0
  6
HIDDEN
 62
     7
370
    18
100
AcDbLine
 10
237.0193090079
 20
120.8134480291
 30
0.0
 11
237.0193090079
 21
117.277948
 31
0.0
  0
LINE
  5
120
330
1F
100
AcDbEntity
  8
0
  6
HIDDEN
 62
     7
370
    18
100
AcDbLine
 10
237.0193090079
 20
131.4199481164
 30
0.0
 11
237.0193090079
 21
127.8844480873
 31
0.0
  0
LINE
  5
121
330
1F
100
AcDbEntity
  8
0
  6
HIDDEN
 62
     7
370
    18
100
AcDbLine
 10
237.0193090079
 20
127.8844480873
 30
0.0
 11
237.0193090079
 21
120.8134480291
 31
0.0
  0
LINE
  5
122
330
1F
100
AcDbEntity
  8
0
  6
HIDDEN
 62
     7
370
    18
100
AcDbLine
 10
237.0193090079
 20
120.8134480291
 30
0.0
 11
237.0193090079
 21
117.277948
 31
0.0
  0
LINE
  5
123
330
1F
100
AcDbEntity
  8
0
  6
HIDDEN
 62
     7
370
    18
100
AcDbLine
 10
237.0193090079
 20
127.8844480873
 30
0.0
 11
237.0193090079
 21
131.4199481164
 31
0.0
  0
LINE
  5
124
330
1F
100
AcDbEntity
  8
0
  6
HIDDEN
 62
     7
370
    18
100
AcDbLine
 10
237.0193090079
 20
131.4199481164
 30
0.0
 11
245.0193103192
 21
131.4199481164
 31
0.0
  0
LINE
  5
125
330
1F
100
AcDbEntity
  8
0
  6
HIDDEN
 62
     7
370
    18
100
AcDbLine
 10
237.0193090079
 20
117.277948
 30
0.0
 11
245.0193103192
 21
117.277948
 31
0.0
  0
LINE
  5
126
330
1F
100
AcDbEntity
  8
0
  6
HIDDEN
 62
     7
370
    18
100
AcDbLine
 10
224.0193124649
 20
132.3489484382
 30
0.0
 11
195.1208200094
 21
132.3489484382
 31
0.0
  0
LINE
  5
127
330
1F
100
AcDbEntity
  8
0
  6
HIDDEN
 62
     7
370
    18
100
AcDbLine
 10
195.1208200094
 20
116.3489476782
 30
0.0
 11
224.0193124649
 21
116.3489476782
 31
0.0
  0
LINE
  5
128
330
1F
100
AcDbEntity
  8
0
  6
HIDDEN
 62
     7
370
    18
100
AcDbLine
 10
195.1208200094
 20
132.3489484382
 30
0.0
 11
194.0193112728
 21
131.2474480835
 31
0.0
  0
LINE
  5
129
330
1F
100
AcDbEntity
  8
0
  6
HIDDEN
 62
     7
370
    18
100
AcDbLine
 10
194.0193112728
 20
117.4504480329
 30
0.0
 11
195.1208200094
 21
116.3489476782
 31
0.0
  0
LINE
  5
12A
330
1F
100
AcDbEntity
  8
0
  6
HIDDEN
 62
     7
370
    18
100
AcDbLine
 10
237.0193090079
 20
131.4199481164
 30
0.0
 11
232.9368676779
 21
124.3489480582
 31
0.0
  0
LINE
  5
12B
330
1F
100
AcDbEntity
  8
0
  6
HIDDEN
 62
     7
370
    18
100
AcDbLine
 10
232.9368676779
 20
124.3489480582
 30
0.0
 11
237.0193090079
 21
117.277948
 31
0.0
  0
DIMENSION
  5
12C
330
1F
100
AcDbEntity
  8
VERMASSUNG
100
AcDbDimension
  2
_D
 10
267.0193132994
 20
140.3489480582
 30
0.0
 11
267.0193132994
 21
124.3489480582
 31
0.0
 70
   160
  1
%%c<>
 71
     2
 42
-1.0
  3
SLDDIMSTYLE0
100
AcDbAlignedDimension
 13
223.0193132994
 23
108.3489480582
 33
0.0
 14
223.0193132994
 24
140.3489480582
 34
0.0
 50
90.0
100
AcDbRotatedDimension
  0
DIMENSION
  5
138
330
1F
100
AcDbEntity
  8
VERMASSUNG
100
AcDbDimension
  2
_D_1
 10
276.4122630495
 20
88.3489480582
 30
0.0
 11
276.4122630495
 21
124.3489480582
 31
0.0
 70
   160
  1
%%c<>
 71
     2
 42
-1.0
  3
SLDDIMSTYLE0
100
AcDbAlignedDimension
 13
199.0193132994
 23
160.3489480582
 33
0.0
 14
199.0193132994
 24
88.3489480582
 34
0.0
 50
90.0
100
AcDbRotatedDimension
  0
DIMENSION
  5
143
330
1F
100
AcDbEntity
  8
VERMASSUNG
100
AcDbDimension
  2
_D_2
 10
200.0193132994
 20
170.3489480582
 30
0.0
 11
212.0193132994
 21
170.3489480582
 31
0.0
 70
   160
  1
<>
 71
     2
 42
-1.0
  3
SLDDIMSTYLE0
100
AcDbAlignedDimension
 13
224.0193132994
 23
139.3489480582
 33
0.0
 14
200.0193132994
 24
159.3489480582
 34
0.0
100
AcDbRotatedDimension
  0
DIMENSION
  5
14D
330
1F
100
AcDbEntity
  8
VERMASSUNG
100
AcDbDimension
  2
_D_3
 10
200.0193132994
 20
170.3489480582
 30
0.0
 11
147.9943132994
 21
170.3489480582
 31
0.0
 70
   160
  1
<>
 71
     2
 42
-1.0
  3
SLDDIMSTYLE0
100
AcDbAlignedDimension
 13
95.9693132994
 23
154.195388382
 33
0.0
 14
200.0193132994
 24
159.3489480582
 34
0.0
100
AcDbRotatedDimension
  0
DIMENSION
  5
157
330
1F
100
AcDbEntity
  8
VERMASSUNG
100
AcDbDimension
  2
_D_4
 10
200.0193132994
 20
178.8970674222
 30
0.0
 11
119.0693132994
 21
178.8970674222
 31
0.0
 70
   160
  1
<>
 71
     2
 42
-1.0
  3
SLDDIMSTYLE0
100
AcDbAlignedDimension
 13
38.1193132994
 23
144.0396258047
 33
0.0
 14
200.0193132994
 24
159.3489480582
 34
0.0
100
AcDbRotatedDimension
  0
DIMENSION
  5
161
330
1F
100
AcDbEntity
  8
VERMASSUNG
100
AcDbDimension
  2
_D_5
 10
245.0193132994
 20
186.5037029455
 30
0.0
 11
141.5693132994
 21
186.5037029455
 31
0.0
 70
   160
  1
(<>)
 71
     2
 42
-1.0
  3
SLDDIMSTYLE0
100
AcDbAlignedDimension
 13
38.1193132994
 23
144.0396258047
 33
0.0
 14
245.0193132994
 24
135.5489480582
 34
0.0
100
AcDbRotatedDimension
  0
DIMENSION
  5
16D
330
1F
100
AcDbEntity
  8
VERMASSUNG
100
AcDbDimension
  2
_D_6
 10
27.974009457
 20
92.8489480582
 30
0.0
 11
27.974009457
 21
124.3489480582
 31
0.0
 70
   160
  1
HSK A %%c<>
 71
     2
 42
-1.0
  3
SLDDIMSTYLE0
100
AcDbAlignedDimension
 13
70.3193132994
 23
155.8489480582
 33
0.0
 14
70.3193132994
 24
92.8489480582
 34
0.0
 50
90.0
100
AcDbRotatedDimension
  0
DIMENSION
  5
179
330
1F
100
AcDbEntity
  8
VERMASSUNG
100
AcDbDimension
  2
_D_7
 10
257.1692469677
 20
131.4199480582
 30
0.0
 11
257.1692469677
 21
124.3489480582
 31
0.0
 70
   160
  1
SW<>
 71
     2
 42
-1.0
  3
SLDDIMSTYLE1
100
AcDbAlignedDimension
 13
245.0193132994
 23
117.2779480582
 33
0.0
 14
245.0193132994
 24
131.4199480582
 34
0.0
 50
90.0
100
AcDbRotatedDimension
  0
LINE
  5
185
330
1F
100
AcDbEntity
  8
VERMASSUNG
  6
CENTERX2
370
    18
100
AcDbLine
 10
248.2193132994
 20
124.3489480582
 30
0.0
 11
34.6127819549
 21
124.3489480582
 31
0.0
  0
SPLINE
  5
186
330
1F
100
AcDbEntity
  8
0
  6
Continuous
 62
     7
370
    25
100
AcDbSpline
210
0.0
220
0.0
230
1.0
 70
     8
 71
     3
 72
    18
 73
    14
 74
     0
 42
0.000000001
 43
0.00000001
 40
0.0
 40
0.0
 40
0.0
 40
0.0
 40
0.0174005383120891
 40
0.1219391228521927
 40
0.2271453758562902
 40
0.3329717956790841
 40
0.439268793799485
 40
0.5458627591616768
 40
0.6526063521516221
 40
0.7593914876406269
 40
0.8661479250273417
 40
0.9728520654918601
 40
1.0
 40
1.0
 40
1.0
 40
1.0
 10
258.5685345809559
 20
12.54016174636589
 30
0.0
 10
258.6239237914452
 20
12.53046134431388
 30
0.0
 10
259.012079124424
 20
12.46248307281914
 30
0.0
 10
259.7820799114731
 20
12.4688145605046
 30
0.0
 10
260.8721118383216
 20
12.56748517564316
 30
0.0
 10
262.0021555495377
 20
12.81623415596977
 30
0.0
 10
263.1566800923629
 20
13.1972473625639
 30
0.0
 10
264.3272010003087
 20
13.71158060254118
 30
0.0
 10
265.5026826617184
 20
14.35410635154554
 30
0.0
 10
266.6740296928609
 20
15.11664004285544
 30
0.0
 10
267.8276962779075
 20
16.0018661937676
 30
0.0
 10
268.6847516196
 20
16.72648299855958
 30
0.0
 10
269.1423257366055
 20
17.18359537265415
 30
0.0
 10
269.2351311127166
 20
17.27630709787257
 30
0.0
  0
SPLINE
  5
187
330
1F
100
AcDbEntity
  8
0
  6
Continuous
 62
     7
370
    25
100
AcDbSpline
210
0.0
220
0.0
230
1.0
 70
     8
 71
     3
 72
    13
 73
     9
 74
     0
 42
0.000000001
 43
0.00000001
 40
0.0
 40
0.0
 40
0.0
 40
0.0
 40
0.145788420709353
 40
0.3270231642720464
 40
0.5081651674872713
 40
0.6889969668767885
 40
0.8692196008989578
 40
1.0
 40
1.0
 40
1.0
 40
1.0
 10
277.867057581022
 20
36.59340860693656
 30
0.0
 10
277.8528678008755
 20
36.95000844534561
 30
0.0
 10
277.8210382030154
 20
37.74991015885628
 30
0.0
 10
277.6413059419684
 20
38.91058645567303
 30
0.0
 10
277.3538901339004
 20
40.07863832342309
 30
0.0
 10
276.9534110007278
 20
41.14857215060487
 30
0.0
 10
276.5074036860124
 20
42.04300276021829
 30
0.0
 10
276.1511387950025
 20
42.52770254214985
 30
0.0
 10
276.0013252572886
 20
42.73152444796414
 30
0.0
  0
LINE
  5
188
330
1F
100
AcDbEntity
  8
0
  6
Continuous
 62
     7
370
    25
100
AcDbLine
 10
236.707506899
 20
24.5074119351
 30
0.0
 11
256.0094859407
 21
13.3646166155
 31
0.0
  0
LINE
  5
189
330
1F
100
AcDbEntity
  8
0
  6
Continuous
 62
     7
370
    25
100
AcDbLine
 10
227.4957086131
 20
29.8252698918
 30
0.0
 11
234.2606479011
 21
25.9199535678
 31
0.0
  0
LINE
  5
18A
330
1F
100
AcDbEntity
  8
0
  6
Continuous
 62
     7
370
    25
100
AcDbLine
 10
252.2600364427
 20
57.0972220352
 30
0.0
 11
245.4942463152
 21
61.0030295384
 31
0.0
  0
LINE
  5
18B
330
1F
100
AcDbEntity
  8
0
  6
Continuous
 62
     7
370
    25
100
AcDbLine
 10
274.0080236427
 20
44.5423762621
 30
0.0
 11
254.7211753197
 21
55.6764368038
 31
0.0
  0
SPLINE
  5
18C
330
1F
100
AcDbEntity
  8
0
  6
Continuous
 62
     7
370
    25
100
AcDbSpline
210
0.0
220
0.0
230
1.0
 70
     8
 71
     3
 72
    13
 73
     9
 74
     0
 42
0.000000001
 43
0.00000001
 40
0.0
 40
0.0
 40
0.0
 40
0.0
 40
0.1375019058360832
 40
0.3249354142729089
 40
0.5137069242068405
 40
0.7057466011187599
 40
0.9012397069927736
 40
1.0
 40
1.0
 40
1.0
 40
1.0
 10
269.5364267496475
 20
17.11979973073155
 30
0.0
 10
269.6803346582589
 20
17.04138756532441
 30
0.0
 10
270.0204083148199
 20
16.85608911949067
 30
0.0
 10
270.632973462635
 20
16.72096628383468
 30
0.0
 10
271.3430038321589
 20
16.69055760482752
 30
0.0
 10
272.0932725856679
 20
16.8074275407277
 30
0.0
 10
272.7392746327083
 20
16.99618466773335
 30
0.0
 10
273.1318610422428
 20
17.19374016199581
 30
0.0
 10
273.2636248518834
 20
17.2600457291455
 30
0.0
  0
SPLINE
  5
18D
330
1F
100
AcDbEntity
  8
0
  6
Continuous
 62
     7
370
    25
100
AcDbSpline
210
0.0
220
0.0
230
1.0
 70
     8
 71
     3
 72
    14
 73
    10
 74
     0
 42
0.000000001
 43
0.00000001
 40
0.0
 40
0.0
 40
0.0
 40
0.0
 40
0.0221357926167185
 40
0.2123454084502924
 40
0.402180467875103
 40
0.5903261231693443
 40
0.775217747233285
 40
0.9562091840788034
 40
1.0
 40
1.0
 40
1.0
 40
1.0
 10
279.2719108235663
 20
27.64756764899665
 30
0.0
 10
279.2712077963159
 20
27.68303310385063
 30
0.0
 10
279.2644637591253
 20
28.02324800499478
 30
0.0
 10
279.1443319485687
 20
28.60814762836972
 30
0.0
 10
278.9022519113967
 20
29.37583306809358
 30
0.0
 10
278.5398049811787
 20
30.03925333061722
 30
0.0
 10
278.0728230100103
 20
30.57452793960601
 30
0.0
 10
277.6710046149165
 20
30.90942914879589
 30
0.0
 10
277.4103496732371
 20
31.01938546098932
 30
0.0
 10
277.3595703415526
 20
31.04080653212536
 30
0.0
  0
LINE
  5
18E
330
1F
100
AcDbEntity
  8
0
  6
Continuous
 62
     7
370
    25
100
AcDbLine
 10
262.246516524
 20
21.3107485292
 30
0.0
 11
269.4943625485
 21
17.1266560802
 31
0.0
  0
LINE
  5
18F
330
1F
100
AcDbEntity
  8
0
  6
Continuous
 62
     7
370
    25
100
AcDbLine
 10
277.4937125651
 20
30.9834378496
 30
0.0
 11
270.2458665407
 21
35.1675302986
 31
0.0
  0
SPLINE
  5
190
330
1F
100
AcDbEntity
  8
0
  6
Continuous
 62
     7
370
    25
100
AcDbSpline
210
0.0
220
0.0
230
1.0
 70
     8
 71
     3
 72
    12
 73
     8
 74
     0
 42
0.000000001
 43
0.00000001
 40
0.0
 40
0.0
 40
0.0
 40
0.0
 40
0.0096121189725825
 40
0.2789430188706008
 40
0.508827024524096
 40
0.7540279394177013
 40
1.0
 40
1.0
 40
1.0
 40
1.0
 10
271.3460324774186
 20
20.39077329685896
 30
0.0
 10
271.3416461583599
 20
20.39257770769193
 30
0.0
 10
271.2143554867139
 20
20.44494158359369
 30
0.0
 10
271.0404627976062
 20
20.64069294168456
 30
0.0
 10
270.8145904155976
 20
21.01126195410138
 30
0.0
 10
270.6658973402456
 20
21.49548589316504
 30
0.0
 10
270.6454962655652
 20
21.90899765331138
 30
0.0
 10
270.6352797132958
 20
22.11607814184936
 30
0.0
  0
SPLINE
  5
191
330
1F
100
AcDbEntity
  8
0
  6
Continuous
 62
     7
370
    25
100
AcDbSpline
210
0.0
220
0.0
230
1.0
 70
     8
 71
     3
 72
    21
 73
    17
 74
     0
 42
0.000000001
 43
0.00000001
 40
0.0
 40
0.0
 40
0.0
 40
0.0
 40
0.039525633214402
 40
0.1155992026775821
 40
0.1920512364264249
 40
0.2688274512067471
 40
0.3458216626431165
 40
0.4228829948128195
 40
0.4998146871368918
 40
0.5764314880802879
 40
0.652582478840459
 40
0.7281886814718412
 40
0.8034079051766208
 40
0.8787617584530465
 40
0.9557812728750118
 40
0.9999999999999999
 40
0.9999999999999999
 40
0.9999999999999999
 40
0.9999999999999999
 10
270.6352797132958
 20
22.11607814184936
 30
0.0
 10
270.6378830631278
 20
22.22497629503476
 30
0.0
 10
270.6454969870651
 20
22.54346682023418
 30
0.0
 10
270.7323014176167
 20
23.11991359121176
 30
0.0
 10
270.9284097456256
 20
23.83665303307471
 30
0.0
 10
271.2186508696421
 20
24.56354852988505
 30
0.0
 10
271.59214028812
 20
25.27233493797873
 30
0.0
 10
272.0360952349567
 20
25.93704911570948
 30
0.0
 10
272.5335664395598
 20
26.53301375786072
 30
0.0
 10
273.0647502188563
 20
27.03868040666454
 30
0.0
 10
273.6076824509895
 20
27.43694981734736
 30
0.0
 10
274.1387792398527
 20
27.71584060723326
 30
0.0
 10
274.6355284709822
 20
27.87247317332555
 30
0.0
 10
275.074179896533
 20
27.90465235494435
 30
0.0
 10
275.3975717480977
 20
27.85605565957749
 30
0.0
 10
275.5522580576446
 20
27.75881800144597
 30
0.0
 10
275.608676161574
 20
27.72335290877943
 30
0.0
  0
LINE
  5
192
330
1F
100
AcDbEntity
  8
0
  6
Continuous
 62
     7
370
    25
100
AcDbLine
 10
269.4154096474
 20
35.4795972497
 30
0.0
 11
268.9152928381
 21
35.5814914062
 31
0.0
  0
LINE
  5
193
330
1F
100
AcDbEntity
  8
0
  6
Continuous
 62
     7
370
    25
100
AcDbLine
 10
261.222640499
 20
22.25598263
 30
0.0
 11
261.5609776181
 21
21.8738474127
 31
0.0
  0
SPLINE
  5
194
330
1F
100
AcDbEntity
  8
0
  6
Continuous
 62
     7
370
    25
100
AcDbSpline
210
0.0
220
0.0
230
1.0
 70
     8
 71
     3
 72
    12
 73
     8
 74
     0
 42
0.000000001
 43
0.00000001
 40
0.0
 40
0.0
 40
0.0
 40
0.0
 40
0.1984830060137607
 40
0.4466353152084809
 40
0.6963302534862296
 40
0.9472763996014183
 40
1.0
 40
1.0
 40
1.0
 40
1.0
 10
242.921678414691
 20
61.82779320568901
 30
0.0
 10
242.6473433001195
 20
61.85520283435555
 30
0.0
 10
242.0300221861853
 20
61.91688120362806
 30
0.0
 10
241.0167944704534
 20
61.85091750777435
 30
0.0
 10
239.8993999352793
 20
61.64725374713162
 30
0.0
 10
239.0578516516763
 20
61.42481957945265
 30
0.0
 10
238.588994851935
 20
61.23267048401205
 30
0.0
 10
238.5075912256682
 20
61.19930926762068
 30
0.0
  0
SPLINE
  5
195
330
1F
100
AcDbEntity
  8
0
  6
Continuous
 62
     7
370
    25
100
AcDbSpline
210
0.0
220
0.0
230
1.0
 70
     8
 71
     3
 72
    14
 73
    10
 74
     0
 42
0.000000001
 43
0.00000001
 40
0.0
 40
0.0
 40
0.0
 40
0.0
 40
0.0903565158853307
 40
0.2618381309779733
 40
0.4334030238306283
 40
0.604817730404906
 40
0.7758474293438153
 40
0.9461899158719637
 40
1.0
 40
1.0
 40
1.0
 40
1.0
 10
223.6206101401015
 20
38.27057870624584
 30
0.0
 10
223.6236418680206
 20
38.03367371346712
 30
0.0
 10
223.6324273104889
 20
37.34716250925857
 30
0.0
 10
223.7300559573823
 20
36.2585636697363
 30
0.0
 10
223.9497127737183
 20
35.03860547438583
 30
0.0
 10
224.2766984367427
 20
33.90235725222173
 30
0.0
 10
224.7157565520821
 20
32.87005134224538
 30
0.0
 10
225.1140011815215
 20
32.12964987983575
 30
0.0
 10
225.3968994327606
 20
31.77456965844118
 30
0.0
 10
225.464812009691
 20
31.68932907195354
 30
0.0
  0
LINE
  5
196
330
1F
100
AcDbEntity
  8
0
  6
Continuous
 62
     7
370
    25
100
AcDbLine
 10
222.4291621966
 20
38.5234717756
 30
0.0
 11
223.6299943993
 21
37.8302461007
 31
0.0
  0
LINE
  5
197
330
1F
100
AcDbEntity
  8
0
  6
Continuous
 62
     7
370
    25
100
AcDbLine
 10
236.6449557075
 20
60.3382693721
 30
0.0
 11
235.4281050682
 21
61.0407422936
 31
0.0
  0
LINE
  5
198
330
1F
100
AcDbEntity
  8
0
  6
Continuous
 62
     7
370
    25
100
AcDbLine
 10
211.6320755851
 20
41.5811564867
 30
0.0
 11
216.6907413435
 21
38.6608509048
 31
0.0
  0
LINE
  5
199
330
1F
100
AcDbEntity
  8
0
  6
Continuous
 62
     7
370
    25
100
AcDbLine
 10
229.5740966476
 20
67.5955301373
 30
0.0
 11
227.3807960744
 21
68.8616956071
 31
0.0
  0
LINE
  5
19A
330
1F
100
AcDbEntity
  8
0
  6
Continuous
 62
     7
370
    25
100
AcDbLine
 10
219.089199625
 20
37.276250411
 30
0.0
 11
220.4885882652
 21
36.4684005445
 31
0.0
  0
LINE
  5
19B
330
1F
100
AcDbEntity
  8
0
  6
Continuous
 62
     7
370
    25
100
AcDbLine
 10
220.2045020426
 20
68.4510181632
 30
0.0
 11
214.0141197888
 21
71.5352374828
 31
0.0
  0
LINE
  5
19C
330
1F
100
AcDbEntity
  8
0
  6
Continuous
 62
     7
370
    25
100
AcDbLine
 10
202.6324219589
 20
51.8194221024
 30
0.0
 11
208.3989840652
 21
48.0010445273
 31
0.0
  0
SPLINE
  5
19D
330
1F
100
AcDbEntity
  8
0
  6
Continuous
 62
     7
370
    25
100
AcDbSpline
210
0.0
220
0.0
230
1.0
 70
     8
 71
     3
 72
    11
 73
     7
 74
     0
 42
0.000000001
 43
0.00000001
 40
0.0
 40
0.0
 40
0.0
 40
0.0
 40
0.1670075270095186
 40
0.2848791293473616
 40
0.6682771667921442
 40
1.0
 40
1.0
 40
1.0
 40
1.0
 10
238.5550041253373
 20
61.21834699673546
 30
0.0
 10
238.4843408670796
 20
61.34422023501719
 30
0.0
 10
238.3638044586328
 20
61.55893306366585
 30
0.0
 10
238.0896661827925
 20
62.0719330257193
 30
0.0
 10
237.6565956252572
 20
62.6125544618681
 30
0.0
 10
237.2316326191016
 20
63.00186573785205
 30
0.0
 10
237.0345051988351
 20
63.18245540425531
 30
0.0
  0
SPLINE
  5
19E
330
1F
100
AcDbEntity
  8
0
  6
Continuous
 62
     7
370
    25
100
AcDbSpline
210
0.0
220
0.0
230
1.0
 70
     8
 71
     3
 72
    23
 73
    19
 74
     0
 42
0.000000001
 43
0.00000001
 40
0.0
 40
0.0
 40
0.0
 40
0.0
 40
0.0527801606559528
 40
0.1137354637824965
 40
0.1751368812198487
 40
0.2373376732683006
 40
0.3003745159705312
 40
0.3640472843843016
 40
0.4280823607074456
 40
0.4922559135075089
 40
0.5564072223983701
 40
0.6204893784561215
 40
0.6844951484682592
 40
0.7484363806924135
 40
0.8123339090178804
 40
0.8762123934186099
 40
0.940098135232179
 40
1.0
 40
1.0
 40
1.0
 40
1.0
 10
214.0720368026166
 20
71.49601417429479
 30
0.0
 10
213.8653700890566
 20
71.59505624003157
 30
0.0
 10
213.4200259631006
 20
71.80848104095206
 30
0.0
 10
212.6591857431754
 20
71.97247964747278
 30
0.0
 10
211.8202325555513
 20
72.02060146598313
 30
0.0
 10
210.9376624702003
 20
71.92820151906312
 30
0.0
 10
210.0228226634891
 20
71.6995326298277
 30
0.0
 10
209.0865949040685
 20
71.33502078377884
 30
0.0
 10
208.1424261135313
 20
70.83957343111474
 30
0.0
 10
207.203972740567
 20
70.22049203598009
 30
0.0
 10
206.2842483224439
 20
69.48718968726658
 30
0.0
 10
205.3953303637266
 20
68.6503389864875
 30
0.0
 10
204.5482906789261
 20
67.72144710956141
 30
0.0
 10
203.7538101683956
 20
66.71287021705226
 30
0.0
 10
203.0210506860652
 20
65.6378390043246
 30
0.0
 10
202.3618504863873
 20
64.50994572564436
 30
0.0
 10
201.7870021263483
 20
63.36898094288368
 30
0.0
 10
201.4809110204014
 20
62.60031255942787
 30
0.0
 10
201.3327909578085
 20
62.22834745865023
 30
0.0
  0
LINE
  5
19F
330
1F
100
AcDbEntity
  8
0
  6
Continuous
 62
     7
370
    25
100
AcDbLine
 10
201.4482357857
 20
60.3755625205
 30
0.0
 11
204.001796116
 21
58.9014235197
 31
0.0
  0
LINE
  5
1A0
330
1F
100
AcDbEntity
  8
0
  6
Continuous
 62
     7
370
    25
100
AcDbLine
 10
201.149943441
 20
61.5038721939
 30
0.0
 11
201.149943441
 21
61.0384662245
 31
0.0
  0
LINE
  5
1A1
330
1F
100
AcDbEntity
  8
0
  6
Continuous
 62
     7
370
    25
100
AcDbLine
 10
201.149943441
 20
54.0325235291
 30
0.0
 11
201.149943441
 21
53.5671175597
 31
0.0
  0
SPLINE
  5
1A2
330
1F
100
AcDbEntity
  8
0
  6
Continuous
 62
     7
370
    25
100
AcDbSpline
210
0.0
220
0.0
230
1.0
 70
     8
 71
     3
 72
    10
 73
     6
 74
     0
 42
0.000000001
 43
0.00000001
 40
0.0
 40
0.0
 40
0.0
 40
0.0
 40
0.3447034638768506
 40
0.743198959494468
 40
1.0
 40
1.0
 40
1.0
 40
1.0
 10
201.2642443770616
 20
53.28110212220395
 30
0.0
 10
201.3978015748525
 20
53.07463588069577
 30
0.0
 10
201.685757980381
 20
52.62948370806071
 30
0.0
 10
202.1720136295875
 20
52.13402426621597
 30
0.0
 10
202.5467483832339
 20
51.89411205271705
 30
0.0
 10
202.6936014022034
 20
51.80009399728675
 30
0.0
  0
SPLINE
  5
1A3
330
1F
100
AcDbEntity
  8
0
  6
Continuous
 62
     7
370
    25
100
AcDbSpline
210
0.0
220
0.0
230
1.0
 70
     8
 71
     3
 72
    15
 73
    11
 74
     0
 42
0.000000001
 43
0.00000001
 40
0.0
 40
0.0
 40
0.0
 40
0.0
 40
0.0834017982120063
 40
0.2303940849207888
 40
0.3778801702644651
 40
0.526130958333269
 40
0.6751783217188345
 40
0.8236291716535507
 40
0.9684379880087348
 40
1.0
 40
1.0
 40
1.0
 40
1.0
 10
279.2283836657667
 20
32.23270199525889
 30
0.0
 10
279.2897413038953
 20
32.35502498565106
 30
0.0
 10
279.4592392906606
 20
32.69293728538997
 30
0.0
 10
279.6370220956641
 20
33.26848930093325
 30
0.0
 10
279.7567234263892
 20
33.92360731589979
 30
0.0
 10
279.7615718841604
 20
34.54120874047901
 30
0.0
 10
279.6541962892946
 20
35.09801955871728
 30
0.0
 10
279.4240189424918
 20
35.55225669186148
 30
0.0
 10
279.1894761383755
 20
35.8366973345054
 30
0.0
 10
279.0166496174635
 20
35.91702372835139
 30
0.0
 10
278.9857218683762
 20
35.93139834250697
 30
0.0
  0
SPLINE
  5
1A4
330
1F
100
AcDbEntity
  8
0
  6
Continuous
 62
     7
370
    25
100
AcDbSpline
210
0.0
220
0.0
230
1.0
 70
     8
 71
     3
 72
    11
 73
     7
 74
     0
 42
0.000000001
 43
0.00000001
 40
0.0
 40
0.0
 40
0.0
 40
0.0
 40
0.16202527985574
 40
0.5069303208707814
 40
0.8513134768437293
 40
1.0
 40
1.0
 40
1.0
 40
1.0
 10
278.0206736242211
 20
30.59136293260328
 30
0.0
 10
278.0993224025783
 20
30.65990028460021
 30
0.0
 10
278.345391722651
 20
30.87433387095393
 30
0.0
 10
278.7116275874166
 20
31.33789612534277
 30
0.0
 10
279.0427757465976
 20
31.82653036661003
 30
0.0
 10
279.1853807371261
 20
32.13859733829813
 30
0.0
 10
279.2283836657667
 20
32.23270199525889
 30
0.0
  0
LINE
  5
1A5
330
1F
100
AcDbEntity
  8
0
  6
Continuous
 62
     7
370
    25
100
AcDbLine
 10
278.9562072206
 20
35.9646554743
 30
0.0
 11
276.6581081587
 21
37.2913198239
 31
0.0
  0
SPLINE
  5
1A6
330
1F
100
AcDbEntity
  8
0
  6
Continuous
 62
     7
370
    25
100
AcDbSpline
210
0.0
220
0.0
230
1.0
 70
     8
 71
     3
 72
    15
 73
    11
 74
     0
 42
0.000000001
 43
0.00000001
 40
0.0
 40
0.0
 40
0.0
 40
0.0
 40
0.0834019077761294
 40
0.230394102841513
 40
0.3778802235876647
 40
0.5261309881349026
 40
0.6751782776816045
 40
0.8236292578766167
 40
0.968437851794849
 40
1.0
 40
1.0
 40
1.0
 40
1.0
 10
260.1365007370489
 20
21.21119257993441
 30
0.0
 10
260.1978586684372
 20
21.33351569366312
 30
0.0
 10
260.3673572558359
 20
21.67142791648605
 30
0.0
 10
260.5451385359252
 20
22.24697991677611
 30
0.0
 10
260.6648420915337
 20
22.90209865918612
 30
0.0
 10
260.669687127367
 20
23.51969805803874
 30
0.0
 10
260.5623151085892
 20
24.07651187981521
 30
0.0
 10
260.332134485771
 20
24.53074511926936
 30
0.0
 10
260.0975939873629
 20
24.81518941624437
 30
0.0
 10
259.9247669328346
 20
24.89551448168492
 30
0.0
 10
259.8938389396584
 20
24.9098889271825
 30
0.0
  0
SPLINE
  5
1A7
330
1F
100
AcDbEntity
  8
0
  6
Continuous
 62
     7
370
    25
100
AcDbSpline
210
0.0
220
0.0
230
1.0
 70
     8
 71
     3
 72
    16
 73
    12
 74
     0
 42
0.000000001
 43
0.00000001
 40
0.0
 40
0.0
 40
0.0
 40
0.0
 40
0.1080923777241699
 40
0.2225535114253444
 40
0.3388262559730916
 40
0.4586402077038891
 40
0.5806565009665743
 40
0.7030932466444826
 40
0.8252981693969234
 40
0.9473181806123596
 40
1.0
 40
1.0
 40
1.0
 40
1.0
 10
256.2990505950117
 20
18.9269212958347
 30
0.0
 10
256.4222727267293
 20
18.85875655780357
 30
0.0
 10
256.6759771846793
 20
18.71841084496406
 30
0.0
 10
257.1354319311778
 20
18.67542806011069
 30
0.0
 10
257.6306705956604
 20
18.75532131211481
 30
0.0
 10
258.1488779665815
 20
18.97032843558185
 30
0.0
 10
258.6692085181722
 20
19.31189470719268
 30
0.0
 10
259.1698150370233
 20
19.76596902443683
 30
0.0
 10
259.6210390568958
 20
20.31281175480373
 30
0.0
 10
259.9507716709981
 20
20.80535554281822
 30
0.0
 10
260.0934697402594
 20
21.11716544345805
 30
0.0
 10
260.1365007370489
 20
21.21119257993441
 30
0.0
  0
LINE
  5
1A8
330
1F
100
AcDbEntity
  8
0
  6
Continuous
 62
     7
370
    25
100
AcDbLine
 10
254.0665096389
 20
20.2074681705
 30
0.0
 11
256.3646087008
 21
18.8808038209
 31
0.0
  0
LINE
  5
1A9
330
1F
100
AcDbEntity
  8
0
  6
Continuous
 62
     7
370
    25
100
AcDbLine
 10
259.8643242919
 20
24.9431460589
 30
0.0
 11
257.56622523
 21
26.2698104085
 31
0.0
  0
SPLINE
  5
1AA
330
1F
100
AcDbEntity
  8
0
  6
Continuous
 62
     7
370
    25
100
AcDbSpline
210
0.0
220
0.0
230
1.0
 70
     8
 71
     3
 72
    22
 73
    18
 74
     0
 42
0.000000001
 43
0.00000001
 40
0.0
 40
0.0
 40
0.0
 40
0.0
 40
0.0489483601223355
 40
0.1135972954530053
 40
0.1789080332561925
 40
0.24565948744559
 40
0.3137127030871079
 40
0.382460040709904
 40
0.4513569498961099
 40
0.5201563096373919
 40
0.5888361194613283
 40
0.6574363589569198
 40
0.7260188651573646
 40
0.7946449151536163
 40
0.8633723283126715
 40
0.9322745076453605
 40
1.0
 40
1.0
 40
1.0
 40
1.0
 10
278.0285722070498
 20
14.525852306058
 30
0.0
 10
278.1583851631066
 20
14.45677322705142
 30
0.0
 10
278.4596496117206
 20
14.29645740588971
 30
0.0
 10
279.0065607800952
 20
14.20366438632999
 30
0.0
 10
279.6349996893688
 20
14.22259851678685
 30
0.0
 10
280.2979166014824
 20
14.38128607831583
 30
0.0
 10
280.9801948585651
 20
14.67295004413501
 30
0.0
 10
281.6654684537988
 20
15.09339336632095
 30
0.0
 10
282.3344840367962
 20
15.63067605165947
 30
0.0
 10
282.9696970398767
 20
16.26969362162802
 30
0.0
 10
283.5555566773477
 20
16.99345474973015
 30
0.0
 10
284.078342946807
 20
17.78385771770521
 30
0.0
 10
284.5254660276138
 20
18.62151678977869
 30
0.0
 10
284.8867431941117
 20
19.48664556301918
 30
0.0
 10
285.150361997961
 20
20.35742006877086
 30
0.0
 10
285.3178641531864
 20
21.21254070100312
 30
0.0
 10
285.3387952108416
 20
21.7484019241001
 30
0.0
 10
285.3491706067456
 20
22.01402502021094
 30
0.0
  0
SPLINE
  5
1AB
330
1F
100
AcDbEntity
  8
0
  6
Continuous
 62
     7
370
    25
100
AcDbSpline
210
0.0
220
0.0
230
1.0
 70
     8
 71
     3
 72
    13
 73
     9
 74
     0
 42
0.000000001
 43
0.00000001
 40
0.0
 40
0.0
 40
0.0
 40
0.0
 40
0.1071753862260762
 40
0.3104538727212096
 40
0.5136631819570718
 40
0.7144430203547439
 40
0.9105566129596773
 40
1.0
 40
1.0
 40
1.0
 40
1.0
 10
285.3491706067456
 20
22.01402502021094
 30
0.0
 10
285.3460243745554
 20
22.15315753372578
 30
0.0
 10
285.3369107151386
 20
22.55618129844546
 30
0.0
 10
285.2344160158848
 20
23.17536191740044
 30
0.0
 10
285.0050080959059
 20
23.83120454555477
 30
0.0
 10
284.6587944131082
 20
24.37400577153617
 30
0.0
 10
284.3047473248687
 20
24.7436426043106
 30
0.0
 10
284.0438668355662
 20
24.87638725104382
 30
0.0
 10
283.962152725111
 20
24.91796610101638
 30
0.0
  0
LINE
  5
1AC
330
1F
100
AcDbEntity
  8
0
  6
Continuous
 62
     7
370
    25
100
AcDbLine
 10
283.9891260496
 20
24.9243769303
 30
0.0
 11
278.6151131049
 21
28.0267285679
 31
0.0
  0
LINE
  5
1AD
330
1F
100
AcDbEntity
  8
0
  6
Continuous
 62
     7
370
    25
100
AcDbLine
 10
272.6156007571
 20
17.6341421457
 30
0.0
 11
277.9896137018
 21
14.5317905081
 31
0.0
  0
LINE
  5
1AE
330
1F
100
AcDbEntity
  8
0
  6
Continuous
 62
     7
370
    25
100
AcDbLine
 10
275.3789458734
 20
27.585589615
 30
0.0
 11
274.8793213261
 21
27.8740167268
 31
0.0
  0
LINE
  5
1AF
330
1F
100
AcDbEntity
  8
0
  6
Continuous
 62
     7
370
    25
100
AcDbLine
 10
270.8722442775
 20
20.949898949
 30
0.0
 11
271.3792708651
 21
20.6571987303
 31
0.0
  0
ARC
  5
1B0
330
1F
100
AcDbEntity
  8
0
  6
Continuous
 62
     7
370
    25
100
AcDbCircle
 10
270.8797905406
 20
39.123685666
 30
0.0
 40
6.250149001465608
100
AcDbArc
 50
36.3622795786
 51
83.7323012649
  0
ARC
  5
1B1
330
1F
100
AcDbEntity
  8
0
  6
Continuous
 62
     7
370
    25
100
AcDbCircle
 10
259.1370878872
 20
18.7834450525
 30
0.0
 40
6.25012657774089
100
AcDbArc
 50
215.8135213694
 51
263.6080739685
  0
ARC
  5
1B2
330
1F
100
AcDbEntity
  8
0
  6
Continuous
 62
     7
370
    25
100
AcDbCircle
 10
242.3525350794
 20
55.4901319627
 30
0.0
 40
6.345265098420151
100
AcDbArc
 50
60.321883486
 51
83.7041952358
  0
ARC
  5
1B3
330
1F
100
AcDbEntity
  8
0
  6
Continuous
 62
     7
370
    25
100
AcDbCircle
 10
230.6799818076
 20
35.2833985156
 30
0.0
 40
6.31907935151556
100
AcDbArc
 50
215.8018103447
 51
239.7407054918
  0
SPLINE
  5
1B4
330
1F
100
AcDbEntity
  8
0
  6
Continuous
 62
     7
370
    25
100
AcDbSpline
210
0.0
220
0.0
230
1.0
 70
    11
 71
     3
 72
    66
 73
    62
 74
     0
 42
0.000000001
 43
0.00000001
 40
0.0
 40
0.0
 40
0.0
 40
0.0
 40
0.0312499999999996
 40
0.0312499999999996
 40
0.0624999999999993
 40
0.0624999999999993
 40
0.1249999999999991
 40
0.1249999999999991
 40
0.1562499999999992
 40
0.1562499999999992
 40
0.1874999999999992
 40
0.1874999999999992
 40
0.2187499999999993
 40
0.2187499999999993
 40
0.2499999999999993
 40
0.2499999999999993
 40
0.2812499999999994
 40
0.2812499999999994
 40
0.3124999999999995
 40
0.3124999999999995
 40
0.3437499999999996
 40
0.3437499999999996
 40
0.3749999999999996
 40
0.3749999999999996
 40
0.4062499999999997
 40
0.4062499999999997
 40
0.4374999999999998
 40
0.4374999999999998
 40
0.4687499999999999
 40
0.4687499999999999
 40
0.4999999999999999
 40
0.4999999999999999
 40
0.53125
 40
0.53125
 40
0.5625
 40
0.5625
 40
0.5937500000000001
 40
0.5937500000000001
 40
0.6250000000000002
 40
0.6250000000000002
 40
0.6562500000000002
 40
0.6562500000000002
 40
0.6875000000000003
 40
0.6875000000000003
 40
0.7187500000000004
 40
0.7187500000000004
 40
0.7500000000000004
 40
0.7500000000000004
 40
0.7812500000000006
 40
0.7812500000000006
 40
0.8125000000000007
 40
0.8125000000000007
 40
0.8437500000000008
 40
0.8437500000000008
 40
0.8750000000000008
 40
0.8750000000000008
 40
0.9062500000000009
 40
0.9062500000000009
 40
0.937500000000001
 40
0.937500000000001
 40
1.0
 40
1.0
 40
1.0
 40
1.0
 10
234.314715563683
 20
46.82036718348608
 30
0.0
 10
234.3773336340304
 20
46.9125662488789
 30
0.0
 10
234.4475076808864
 20
46.99693291268293
 30
0.0
 10
234.6020938677796
 20
47.15086519443035
 30
0.0
 10
234.6871671314445
 20
47.22060487094034
 30
0.0
 10
234.9521844755155
 20
47.3991716296964
 30
0.0
 10
235.1479401363657
 20
47.48155615837471
 30
0.0
 10
235.4406343709658
 20
47.54481929628365
 30
0.0
 10
235.5397621145154
 20
47.5562751528443
 30
0.0
 10
235.732682131294
 20
47.55967801545587
 30
0.0
 10
235.8268532013706
 20
47.55189939537026
 30
0.0
 10
236.0105465913654
 20
47.51791353880721
 30
0.0
 10
236.1000863632113
 20
47.4914459843332
 30
0.0
 10
236.2676545725766
 20
47.42214456583794
 30
0.0
 10
236.3466159568942
 20
47.37919923179233
 30
0.0
 10
236.4946937612527
 20
47.2764012606856
 30
0.0
 10
236.563035138931
 20
47.21685441781817
 30
0.0
 10
236.6846339566266
 20
47.0851063804034
 30
0.0
 10
236.7385501000474
 20
47.01248100549758
 30
0.0
 10
236.8320080842014
 20
46.85285287258239
 30
0.0
 10
236.8705606204008
 20
46.76729261679033
 30
0.0
 10
236.9301478779256
 20
46.58779574090065
 30
0.0
 10
236.9514850592395
 20
46.49334665206769
 30
0.0
 10
236.9758713910573
 20
46.29424206931746
 30
0.0
 10
236.9784971085729
 20
46.19306918002247
 30
0.0
 10
236.964921780581
 20
45.98731529727073
 30
0.0
 10
236.9483942785595
 20
45.88149939126925
 30
0.0
 10
236.8960346718832
 20
45.67203294496657
 30
0.0
 10
236.8607336874985
 20
45.56950092919129
 30
0.0
 10
236.7718321526043
 20
45.36880394626152
 30
0.0
 10
236.717599272883
 20
45.27009687329987
 30
0.0
 10
236.5956928354476
 20
45.08709831207647
 30
0.0
 10
236.5274464344739
 20
45.00136030653879
 30
0.0
 10
236.3767650708943
 20
44.84261859686313
 30
0.0
 10
236.2968171949168
 20
44.77217969250022
 30
0.0
 10
236.1281269291241
 20
44.64805668136483
 30
0.0
 10
236.0385817229186
 20
44.59416868103656
 30
0.0
 10
235.8576758493938
 20
44.50722225036669
 30
0.0
 10
235.7656274498228
 20
44.47349052562139
 30
0.0
 10
235.5781125945883
 20
44.42526415296275
 30
0.0
 10
235.484487649557
 20
44.41134304685554
 30
0.0
 10
235.2999754897903
 20
44.40312949876269
 30
0.0
 10
235.2079054927768
 20
44.40887198802962
 30
0.0
 10
235.0289587387396
 20
44.43977580082005
 30
0.0
 10
234.9428859451359
 20
44.46461550993714
 30
0.0
 10
234.777211115458
 20
44.5325079503077
 30
0.0
 10
234.696904005809
 20
44.57614145080188
 30
0.0
 10
234.5479177155169
 20
44.67937679033068
 30
0.0
 10
234.4789426273187
 20
44.73886053312972
 30
0.0
 10
234.3521444605163
 20
44.87356326606705
 30
0.0
 10
234.2939661819967
 20
44.94959079172406
 30
0.0
 10
234.1938452617316
 20
45.11224695738802
 30
0.0
 10
234.1513248380502
 20
45.19924921984418
 30
0.0
 10
234.0821510060169
 20
45.38489865532762
 30
0.0
 10
234.0555935739992
 20
45.4842103289966
 30
0.0
 10
234.0220152331057
 20
45.6861214498959
 30
0.0
 10
234.0145011528906
 20
45.78968805681857
 30
0.0
 10
234.0195659212644
 20
46.00226337990994
 30
0.0
 10
234.0324182108187
 20
46.11048909863516
 30
0.0
 10
234.1011607502317
 20
46.42723644266889
 30
0.0
 10
234.1894794229884
 20
46.63596905270047
 30
0.0
 10
234.314715563683
 20
46.8203671834861
 30
0.0
  0
SPLINE
  5
1B5
330
1F
100
AcDbEntity
  8
0
  6
Continuous
 62
     7
370
    25
100
AcDbSpline
210
0.0
220
0.0
230
1.0
 70
     8
 71
     3
 72
    20
 73
    16
 74
     0
 42
0.000000001
 43
0.00000001
 40
0.0
 40
0.0
 40
0.0
 40
0.0
 40
0.0700822291377237
 40
0.1366153222529491
 40
0.2153826971877117
 40
0.2895861421951268
 40
0.3623979295341515
 40
0.4379787288438685
 40
0.518889740620047
 40
0.6053542807356915
 40
0.695439656172706
 40
0.7860708561253441
 40
0.8737431511914572
 40
0.9554434636591497
 40
1.0
 40
1.0
 40
1.0
 40
1.0
 10
235.5043664978251
 20
25.26046992125095
 30
0.0
 10
235.3603008915725
 20
25.33577551156803
 30
0.0
 10
235.0794655148167
 20
25.48257303235465
 30
0.0
 10
234.6613411695303
 20
25.69985883606358
 30
0.0
 10
234.3070100224687
 20
25.89084866738527
 30
0.0
 10
234.0738348163208
 20
26.02960352417334
 30
0.0
 10
233.9922746223585
 20
26.09612812085609
 30
0.0
 10
234.0595579531682
 20
26.08491281184455
 30
0.0
 10
234.2773004977126
 20
25.9854123633008
 30
0.0
 10
234.6386809812856
 20
25.78994316070524
 30
0.0
 10
235.1118328168316
 20
25.50875162511702
 30
0.0
 10
235.6402743447738
 20
25.17647942550032
 30
0.0
 10
236.1403505667232
 20
24.85645479936655
 30
0.0
 10
236.5167278654162
 20
24.61882633545071
 30
0.0
 10
236.6584199141495
 20
24.53764395305008
 30
0.0
 10
236.7084235929849
 20
24.50899437240708
 30
0.0
  0
LINE
  5
1B6
330
1F
100
AcDbEntity
  8
0
  6
Continuous
 62
     7
370
    25
100
AcDbLine
 10
253.0459487269
 20
56.6084023075
 30
0.0
 11
253.4547053273
 21
56.348953379
 31
0.0
  0
LWPOLYLINE
  5
1B7
330
1F
100
AcDbEntity
  8
0
  6
Continuous
 62
     7
370
    25
100
AcDbPolyline
 90
       15
 70
   128
 43
0.0
 10
254.7211450267
 20
55.6763858556
 10
254.7196619844
 20
55.6773100521
 10
254.4050357603
 20
55.8508215426
 10
254.0027302618
 20
56.0624680289
 10
253.5361165751
 20
56.3055982257
 10
253.0410214969
 20
56.5692575644
 10
252.5771868679
 20
56.8298314933
 10
252.2173225874
 20
57.0508629091
 10
252.0214859387
 20
57.191965377
 10
252.0145376356
 20
57.2239263605
 10
252.1744421203
 20
57.1458561025
 10
252.453352183
 20
56.9815490214
 10
252.8159178131
 20
56.7548060188
 10
253.0459487269
 20
56.6084023075
 10
253.0459487269
 20
56.6084023075
  0
SPLINE
  5
1B8
330
1F
100
AcDbEntity
  8
0
  6
Continuous
 62
     7
370
    25
100
AcDbSpline
210
0.0
220
0.0
230
1.0
 70
    11
 71
     3
 72
    90
 73
    86
 74
     0
 42
0.000000001
 43
0.00000001
 40
0.0
 40
0.0
 40
0.0
 40
0.0
 40
0.0312499999999988
 40
0.0312499999999988
 40
0.0468749999999982
 40
0.0468749999999982
 40
0.0624999999999976
 40
0.0624999999999976
 40
0.0937499999999964
 40
0.0937499999999964
 40
0.1093749999999958
 40
0.1093749999999958
 40
0.1249999999999952
 40
0.1249999999999952
 40
0.1562499999999947
 40
0.1562499999999947
 40
0.1874999999999943
 40
0.1874999999999943
 40
0.2187499999999938
 40
0.2187499999999938
 40
0.2343749999999937
 40
0.2343749999999937
 40
0.2499999999999936
 40
0.2656249999999934
 40
0.2656249999999934
 40
0.2812499999999933
 40
0.2812499999999933
 40
0.3124999999999928
 40
0.3124999999999928
 40
0.3281249999999928
 40
0.3281249999999928
 40
0.3437499999999927
 40
0.3437499999999927
 40
0.3749999999999933
 40
0.3749999999999933
 40
0.4062499999999939
 40
0.4062499999999939
 40
0.4374999999999944
 40
0.4374999999999944
 40
0.4687499999999951
 40
0.4687499999999951
 40
0.4843749999999954
 40
0.4843749999999954
 40
0.4999999999999957
 40
0.4999999999999957
 40
0.5312499999999972
 40
0.5312499999999972
 40
0.5468749999999976
 40
0.5468749999999976
 40
0.5624999999999979
 40
0.5624999999999979
 40
0.5937499999999983
 40
0.5937499999999983
 40
0.6249999999999988
 40
0.6249999999999988
 40
0.6406249999999987
 40
0.6406249999999987
 40
0.6562499999999986
 40
0.6562499999999986
 40
0.6874999999999989
 40
0.6874999999999989
 40
0.7187499999999993
 40
0.7187499999999993
 40
0.7499999999999997
 40
0.7499999999999997
 40
0.7656249999999999
 40
0.7656249999999999
 40
0.78125
 40
0.7968750000000002
 40
0.7968750000000002
 40
0.8125000000000004
 40
0.8125000000000004
 40
0.8437500000000008
 40
0.8437500000000008
 40
0.859375000000001
 40
0.859375000000001
 40
0.8750000000000011
 40
0.8750000000000011
 40
0.9062500000000009
 40
0.9062500000000009
 40
0.9375000000000006
 40
0.9375000000000006
 40
0.9687500000000003
 40
0.9687500000000003
 40
1.0
 40
1.0
 40
1.0
 40
1.0
 10
258.7877443132649
 20
49.62236886498753
 30
0.0
 10
258.9421562066211
 20
49.53322877635312
 30
0.0
 10
259.080436411974
 20
49.44039341217307
 30
0.0
 10
259.264490142299
 20
49.29554883304663
 30
0.0
 10
259.3219192618361
 20
49.24632425443473
 30
0.0
 10
259.4287388382089
 20
49.14584309540288
 30
0.0
 10
259.4783520662528
 20
49.0943079372047
 30
0.0
 10
259.6123883763499
 20
48.9388337263067
 30
0.0
 10
259.6824554561377
 20
48.83401900601889
 30
0.0
 10
259.7585771119682
 20
48.67395648344704
 30
0.0
 10
259.7790886897872
 20
48.62012368745898
 30
0.0
 10
259.8099551903471
 20
48.51123831296124
 30
0.0
 10
259.820223858011
 20
48.4562071261076
 30
0.0
 10
259.8348056950258
 20
48.29266090423004
 30
0.0
 10
259.823477830398
 20
48.18443573308922
 30
0.0
 10
259.7575530038476
 20
47.96777686103265
 30
0.0
 10
259.7019145863712
 20
47.85853937930895
 30
0.0
 10
259.5501635937006
 20
47.64852544422282
 30
0.0
 10
259.4540214661449
 20
47.54653616790299
 30
0.0
 10
259.2779336716782
 20
47.39744312078374
 30
0.0
 10
259.2138801224161
 20
47.34848469370086
 30
0.0
 10
259.0782173229533
 20
47.25429923872444
 30
0.0
 10
258.9342747205164
 20
47.16319930533638
 30
0.0
 10
258.7739741916457
 20
47.07814563929326
 30
0.0
 10
258.6053353855512
 20
46.99619760836483
 30
0.0
 10
258.5163870787511
 20
46.95661973974477
 30
0.0
 10
258.243007427873
 20
46.84541025166174
 30
0.0
 10
258.050645092409
 20
46.78036621561299
 30
0.0
 10
257.747250868562
 20
46.69690118257854
 30
0.0
 10
257.6430251811571
 20
46.67133744972683
 30
0.0
 10
257.433405602619
 20
46.62610973918336
 30
0.0
 10
257.3278622490329
 20
46.60636487703577
 30
0.0
 10
257.0090826995984
 20
46.55571778689342
 30
0.0
 10
256.7924806520214
 20
46.53326426169331
 30
0.0
 10
256.3587467669936
 20
46.51338441366799
 30
0.0
 10
256.1457651187312
 20
46.51601114163839
 30
0.0
 10
255.7269651662955
 20
46.54661409455266
 30
0.0
 10
255.5194153305132
 20
46.57511388486155
 30
0.0
 10
255.1257816129574
 20
46.65677965346033
 30
0.0
 10
254.9383591719834
 20
46.70980637833029
 30
0.0
 10
254.6711056899766
 20
46.80809777302629
 30
0.0
 10
254.5839417842585
 20
46.84421079808888
 30
0.0
 10
254.4170851082162
 20
46.92171765204002
 30
0.0
 10
254.3372750463511
 20
46.96310552319729
 30
0.0
 10
254.1084244697813
 20
47.09500183014706
 30
0.0
 10
253.9698646092659
 20
47.19319063684187
 30
0.0
 10
253.7837357980168
 20
47.35613647519303
 30
0.0
 10
253.7254506811162
 20
47.41305294322424
 30
0.0
 10
253.6186312368466
 20
47.52973425705716
 30
0.0
 10
253.5697616253721
 20
47.58977682071537
 30
0.0
 10
253.4366830663187
 20
47.77479265243478
 30
0.0
 10
253.3658648551448
 20
47.90462331863843
 30
0.0
 10
253.2626815206692
 20
48.17684799810841
 30
0.0
 10
253.2320105255956
 20
48.31486046321037
 30
0.0
 10
253.2170913357887
 20
48.5231133717003
 30
0.0
 10
253.2173271796957
 20
48.59276072165332
 30
0.0
 10
253.2285997777768
 20
48.73232267368784
 30
0.0
 10
253.2397594731416
 20
48.80266329080025
 30
0.0
 10
253.2894910386291
 20
49.00993915925207
 30
0.0
 10
253.3438083590894
 20
49.14320669232997
 30
0.0
 10
253.4949695297534
 20
49.39839727901775
 30
0.0
 10
253.5934777423332
 20
49.52155774368763
 30
0.0
 10
253.8266947627524
 20
49.7440223065817
 30
0.0
 10
253.9614309228364
 20
49.84440168503938
 30
0.0
 10
254.1913933626927
 20
49.97800125635142
 30
0.0
 10
254.2729480999849
 20
50.01971802592196
 30
0.0
 10
254.4414552338977
 20
50.095385209797
 30
0.0
 10
254.6162715569137
 20
50.1638770153605
 30
0.0
 10
254.8034518473399
 20
50.21845315657924
 30
0.0
 10
254.9968829413363
 20
50.26611431530708
 30
0.0
 10
255.0972246657673
 20
50.28653685369252
 30
0.0
 10
255.4012140100487
 20
50.33631451978287
 30
0.0
 10
255.6093283544072
 20
50.35481510916944
 30
0.0
 10
255.9295016683728
 20
50.36245009970836
 30
0.0
 10
256.0381640068139
 20
50.36158252012171
 30
0.0
 10
256.2546144589371
 20
50.35332346522397
 30
0.0
 10
256.3624478602205
 20
50.34597989608265
 30
0.0
 10
256.6848529764779
 20
50.31501178185573
 30
0.0
 10
256.8988412724713
 20
50.28242703282074
 30
0.0
 10
257.3220038591955
 20
50.19555744355134
 30
0.0
 10
257.5257673849213
 20
50.1424547007957
 30
0.0
 10
257.9187037717963
 20
50.01942056178166
 30
0.0
 10
258.1093870439837
 20
49.9487686974309
 30
0.0
 10
258.4666188535685
 20
49.79472637648932
 30
0.0
 10
258.6333324199087
 20
49.71150895362194
 30
0.0
 10
258.7877443132649
 20
49.62236886498754
 30
0.0
  0
LWPOLYLINE
  5
1B9
330
1F
100
AcDbEntity
  8
0
  6
Continuous
 62
     7
370
    25
100
AcDbPolyline
 90
       22
 70
   128
 43
0.0
 10
259.1027524713
 20
25.3827920453
 10
259.1600530875
 20
26.1754804724
 10
259.3417257609
 20
27.2673388014
 10
259.6405831368
 20
28.3880438951
 10
260.0508066451
 20
29.5157821365
 10
260.5644124216
 20
30.628603133
 10
261.1714040899
 20
31.7048479383
 10
261.8599670322
 20
32.7235678591
 10
262.6166988799
 20
33.6649348927
 10
263.426870956
 20
34.5106268779
 10
264.2747140828
 20
35.2441833639
 10
265.1437260611
 20
35.8513257013
 10
266.0169924838
 20
36.3202369215
 10
266.8775162555
 20
36.641789987
 10
267.7085482228
 20
36.809727254
 10
268.4939132565
 20
36.8207787526
 10
269.2183253861
 20
36.674730421
 10
269.8676845153
 20
36.3744242914
 10
270.4293515286
 20
35.9257055169
 10
270.8923942577
 20
35.3373080891
 10
271.247800192
 20
34.6206840939
 10
271.2631627183
 20
34.580257966
  0
ARC
  5
1BA
330
1F
100
AcDbEntity
  8
0
  6
Continuous
 62
     7
370
    25
100
AcDbCircle
 10
262.570442438
 20
23.9111862288
 30
0.0
 40
3.262247690761071
100
AcDbArc
 50
225.6591138999
 51
282.2714625969
  0
LWPOLYLINE
  5
1BB
330
1F
100
AcDbEntity
  8
0
  6
Continuous
 62
     7
370
    25
100
AcDbPolyline
 90
        3
 70
   128
 43
0.0
 10
277.3806075459
 20
31.045139874
 10
277.4203141577
 20
31.0242829249
 10
277.4937125651
 20
30.9834378496
  0
LWPOLYLINE
  5
1BC
330
1F
100
AcDbEntity
  8
0
  6
Continuous
 62
     7
370
    25
100
AcDbPolyline
 90
       23
 70
   128
 43
0.0
 10
262.246516524
 20
21.3107485292
 10
261.9367273093
 20
21.5197159177
 10
261.4470448084
 20
22.0104893303
 10
261.0606072691
 20
22.6352606851
 10
260.7857278281
 20
23.3805891612
 10
260.6283208734
 20
24.230440889
 10
260.5917716532
 20
25.1665321458
 10
260.6768674574
 20
26.1687252537
 10
260.8817768738
 20
27.2154593366
 10
261.2020919347
 20
28.2842161474
 10
261.6309216303
 20
29.3520032619
 10
262.1590404107
 20
30.3958489124
 10
262.7750870659
 20
31.3932971254
 10
263.4658080586
 20
32.3228890718
 10
264.216344155
 20
33.1646268275
 10
265.0105485023
 20
33.9004014838
 10
265.831335575
 20
34.5143847056
 10
266.6610474897
 20
34.9933671986
 10
267.4818345624
 20
35.3270445593
 10
268.2760389097
 20
35.5082387242
 10
269.0265750061
 20
35.5330515004
 10
269.7172959988
 20
35.4009490371
 10
270.2458665407
 20
35.1675302986
  0
LWPOLYLINE
  5
1BD
330
1F
100
AcDbEntity
  8
0
  6
Continuous
 62
     7
370
    25
100
AcDbPolyline
 90
       18
 70
   128
 43
0.0
 10
271.6689751309
 20
26.129717922
 10
271.6092884433
 20
26.4639723437
 10
271.4382894593
 20
26.6841709134
 10
271.1790725115
 20
26.7605749887
 10
270.8666461553
 20
26.6828654152
 10
270.5432053129
 20
26.4615371844
 10
270.2524328879
 20
26.1264824652
 10
270.0335988772
 20
25.7229521491
 10
269.9162580997
 20
25.3054446974
 10
269.9162580997
 20
24.9303471368
 10
270.0335988772
 20
24.6483186533
 10
270.2524328879
 20
24.4974485177
 10
270.5432053129
 20
24.4981124944
 10
270.8666461553
 20
24.6502213016
 10
271.1790725115
 20
24.9332315208
 10
271.4382894593
 20
25.3089209234
 10
271.6092884433
 20
25.7265509077
 10
271.6689751309
 20
26.129717922
  0
ARC
  5
1BE
330
1F
100
AcDbEntity
  8
0
  6
Continuous
 62
     7
370
    25
100
AcDbCircle
 10
272.5802692407
 20
24.5604206296
 30
0.0
 40
13.1521537581785
100
AcDbArc
 50
128.135734994
 51
167.9090907523
  0
ARC
  5
1BF
330
1F
100
AcDbEntity
  8
0
  6
Continuous
 62
     7
370
    25
100
AcDbCircle
 10
268.3987814394
 20
30.4400266342
 30
0.0
 40
5.167344001181768
100
AcDbArc
 50
84.2633146252
 51
128.6289089272
  0
ARC
  5
1C0
330
1F
100
AcDbEntity
  8
0
  6
Continuous
 62
     7
370
    25
100
AcDbCircle
 10
263.7500598455
 20
24.4604630164
 30
0.0
 40
3.35374154150456
100
AcDbArc
 50
199.8977142265
 51
221.095776871
  0
LINE
  5
1C1
330
1F
100
AcDbEntity
  8
0
  6
Continuous
 62
     7
370
    25
100
AcDbLine
 10
260.3192883263
 20
24.4769337732
 30
0.0
 11
260.2710130626
 21
25.29179739
 31
0.0
  0
LWPOLYLINE
  5
1C2
330
1F
100
AcDbEntity
  8
0
  6
Continuous
 62
     7
370
    25
100
AcDbPolyline
 90
       17
 70
   128
 43
0.0
 10
260.2233397086
 20
25.3276641157
 10
260.2823041375
 20
26.2920123168
 10
260.4579402627
 20
27.3038857253
 10
260.7465052464
 20
28.34171825
 10
261.1418482831
 20
29.3833902185
 10
261.6355436249
 20
30.406700137
 10
262.2170687185
 20
31.3898377765
 10
262.8740297562
 20
32.3118497449
 10
263.5924247647
 20
33.1530847136
 10
264.3569420903
 20
33.8956132598
 10
265.1512874485
 20
34.523609446
 10
265.9585308125
 20
35.0236883373
 10
266.7614672131
 20
35.385192615
 10
267.5429833834
 20
35.6004167838
 10
268.2864226749
 20
35.6647737259
 10
268.9759401774
 20
35.5768921025
 10
269.0904357134
 20
35.5458063738
  0
ARC
  5
1C3
330
1F
100
AcDbEntity
  8
0
  6
Continuous
 62
     7
370
    25
100
AcDbCircle
 10
263.595777269
 20
24.4341616367
 30
0.0
 40
3.229365845589647
100
AcDbArc
 50
202.0818311572
 51
225.719564372
  0
LINE
  5
1C4
330
1F
100
AcDbEntity
  8
0
  6
Continuous
 62
     7
370
    25
100
AcDbLine
 10
260.2673538601
 20
24.5487636642
 30
0.0
 11
260.2233397086
 21
25.3276641157
 31
0.0
  0
LWPOLYLINE
  5
1C5
330
1F
100
AcDbEntity
  8
0
  6
Continuous
 62
     7
370
    25
100
AcDbPolyline
 90
       18
 70
   128
 43
0.0
 10
235.0043211406
 20
44.8330128684
 10
235.3658199286
 20
44.7217892313
 10
235.7629097546
 20
44.7717871245
 10
236.1419548025
 20
44.9762569928
 10
236.4517664077
 20
45.3075824687
 10
236.6505019693
 20
45.7210173072
 10
236.7113211888
 20
46.1607236164
 10
236.6260106991
 20
46.5673174869
 10
236.4060917363
 20
46.8858851933
 10
236.0812659748
 20
47.073403114
 10
235.6954003814
 20
47.104547388
 10
235.3006134856
 20
46.9751078388
 10
234.9502190751
 20
46.7025697291
 10
234.6915401581
 20
46.3237394531
 10
234.5595144966
 20
45.8897803365
 10
234.5719715246
 20
45.4593011306
 10
234.7272293192
 20
45.0904397431
 10
235.0043211406
 20
44.8330128684
  0
LWPOLYLINE
  5
1C6
330
1F
100
AcDbEntity
  8
0
  6
Continuous
 62
     7
370
    25
100
AcDbPolyline
 90
       19
 70
   128
 43
0.0
 10
223.6376453694
 20
38.3452850843
 10
223.6962387085
 20
39.7779444296
 10
223.8714721337
 20
41.2648780934
 10
224.1617085034
 20
42.7922023633
 10
224.5642385656
 20
44.3456575786
 10
225.0753033481
 20
45.910739213
 10
225.6901330131
 20
47.4728346589
 10
226.4029850525
 20
49.0173591574
 10
227.207204874
 20
50.5298915342
 10
228.0952830946
 20
51.996310318
 10
229.0589279804
 20
53.4029237721
 10
230.0891424963
 20
54.7365980258
 10
231.1763082706
 20
55.9848808312
 10
232.3102738396
 20
57.1361194276
 10
233.4804522772
 20
58.1795625282
 10
234.6759176714
 20
59.1054684881
 10
235.8855084749
 20
59.9051931034
 10
237.0979308552
 20
60.5712690468
 10
238.3006620533
 20
61.0970207002
  0
LINE
  5
1C7
330
1F
100
AcDbEntity
  8
0
  6
Continuous
 62
     7
370
    25
100
AcDbLine
 10
235.144794611
 20
61.1906215123
 30
0.0
 11
235.4281050682
 21
61.0407422936
 31
0.0
  0
ARC
  5
1C8
330
1F
100
AcDbEntity
  8
0
  6
Continuous
 62
     7
370
    25
100
AcDbCircle
 10
242.2137632224
 20
42.0483494323
 30
0.0
 40
24.72791928385734
100
AcDbArc
 50
126.6602227493
 51
166.0830769683
  0
SPLINE
  5
1C9
330
1F
100
AcDbEntity
  8
0
  6
Continuous
 62
     7
370
    25
100
AcDbSpline
210
0.0
220
0.0
230
1.0
 70
     8
 71
     3
 72
    10
 73
     6
 74
     0
 42
0.000000001
 43
0.00000001
 40
0.0
 40
0.0
 40
0.0
 40
0.0
 40
0.5
 40
0.5
 40
1.0
 40
1.0
 40
1.0
 40
1.0
 10
218.1239439915809
 20
47.62733012183157
 30
0.0
 10
218.0674153057984
 20
47.59469680614895
 30
0.0
 10
217.9887719832237
 20
47.57432383068998
 30
0.0
 10
217.8285420688925
 20
47.57126243072863
 30
0.0
 10
217.7473750563519
 20
47.58892163060887
 30
0.0
 10
217.690261156014
 20
47.62189278346319
 30
0.0
  0
SPLINE
  5
1CA
330
1F
100
AcDbEntity
  8
0
  6
Continuous
 62
     7
370
    25
100
AcDbSpline
210
0.0
220
0.0
230
1.0
 70
     8
 71
     3
 72
    12
 73
     8
 74
     0
 42
0.000000001
 43
0.00000001
 40
0.0
 40
0.0
 40
0.0
 40
0.0
 40
0.2500000000000033
 40
0.2500000000000033
 40
0.5000000000000067
 40
0.5000000000000067
 40
1.0
 40
1.0
 40
1.0
 40
1.0
 10
235.3809830623588
 20
64.14585466171829
 30
0.0
 10
235.4128873907035
 20
64.12743668500254
 30
0.0
 10
235.4450247271444
 20
64.09752214437047
 30
0.0
 10
235.4996830335706
 20
64.02712472442757
 30
0.0
 10
235.5226563729011
 20
63.98674402775173
 30
0.0
 10
235.5763381618387
 20
63.86422019771634
 30
0.0
 10
235.5931150967148
 20
63.77941887611068
 30
0.0
 10
235.5931150967148
 20
63.70586628047706
 30
0.0
  0
LINE
  5
1CB
330
1F
100
AcDbEntity
  8
0
  6
Continuous
 62
     7
370
    25
100
AcDbLine
 10
217.6902614292
 20
47.6218924935
 30
0.0
 11
216.290872789
 21
48.4297423599
 31
0.0
  0
LWPOLYLINE
  5
1CC
330
1F
100
AcDbEntity
  8
0
  6
Continuous
 62
     7
370
    25
100
AcDbPolyline
 90
       20
 70
   128
 43
0.0
 10
216.290872789
 20
48.4297423599
 10
216.6759026894
 20
49.9033422486
 10
217.1706256899
 20
51.3877456268
 10
217.769765532
 20
52.8671239545
 10
218.4669336754
 20
54.3257039296
 10
219.2546977867
 20
55.7479336427
 10
220.1246581308
 20
57.1186483507
 10
221.0675377912
 20
58.4232324472
 10
222.073284086
 20
59.6477768684
 10
223.1311732763
 20
60.7792239518
 10
224.2299249888
 20
61.8055087764
 10
225.3578242104
 20
62.715690426
 10
226.5028446014
 20
63.5000627204
 10
227.652777364
 20
64.1502635906
 10
228.7953613461
 20
64.6593593122
 10
229.9184138448
 20
65.0219222977
 10
231.0099599279
 20
65.2340852198
 10
232.0583614675
 20
65.2935873636
 10
233.0524393414
 20
65.199793461
 10
233.9815949342
 20
64.9537045149
  0
LINE
  5
1CD
330
1F
100
AcDbEntity
  8
0
  6
Continuous
 62
     7
370
    25
100
AcDbLine
 10
233.9815949342
 20
64.9537045149
 30
0.0
 11
235.3809835744
 21
64.1458546485
 31
0.0
  0
LINE
  5
1CE
330
1F
100
AcDbEntity
  8
0
  6
Continuous
 62
     7
370
    25
100
AcDbLine
 10
219.2412707228
 20
46.9088847463
 30
0.0
 11
219.2412707228
 21
48.2723490825
 31
0.0
  0
LINE
  5
1CF
330
1F
100
AcDbEntity
  8
0
  6
Continuous
 62
     7
370
    25
100
AcDbLine
 10
219.2412707228
 20
48.2723490825
 30
0.0
 11
218.1239439393
 21
47.62733006
 31
0.0
  0
LINE
  5
1D0
330
1F
100
AcDbEntity
  8
0
  6
Continuous
 62
     7
370
    25
100
AcDbLine
 10
235.5931152484
 20
63.7058661619
 30
0.0
 11
235.5931152484
 21
62.1418023615
 31
0.0
  0
LINE
  5
1D1
330
1F
100
AcDbEntity
  8
0
  6
Continuous
 62
     7
370
    25
100
AcDbLine
 10
236.9475608602
 20
62.9237071698
 30
0.0
 11
235.5931152484
 21
62.1418023615
 31
0.0
  0
SPLINE
  5
1D2
330
1F
100
AcDbEntity
  8
0
  6
Continuous
 62
     7
370
    25
100
AcDbSpline
210
0.0
220
0.0
230
1.0
 70
     8
 71
     3
 72
    20
 73
    16
 74
     0
 42
0.000000001
 43
0.00000001
 40
0.0
 40
0.0
 40
0.0
 40
0.0
 40
0.2499999999999999
 40
0.2499999999999999
 40
0.3749999999999999
 40
0.3749999999999999
 40
0.4374999999999999
 40
0.4374999999999999
 40
0.4687499999999999
 40
0.4687499999999999
 40
0.4999999999999999
 40
0.4999999999999999
 40
0.7499999999999999
 40
0.7499999999999999
 40
1.0
 40
1.0
 40
1.0
 40
1.0
 10
219.2412707817759
 20
42.28694631084388
 30
0.0
 10
219.2412707817758
 20
42.67932848736444
 30
0.0
 10
219.2617165610858
 20
43.05950512183049
 30
0.0
 10
219.2888901368053
 20
43.63185654364871
 30
0.0
 10
219.2974705165992
 20
43.82292539201631
 30
0.0
 10
219.306326894343
 20
44.11192502167802
 30
0.0
 10
219.3086187012655
 20
44.20865242300718
 30
0.0
 10
219.3108129349531
 20
44.35448584481566
 30
0.0
 10
219.3113386767816
 20
44.40321976413387
 30
0.0
 10
219.3119584092802
 20
44.50094534579114
 30
0.0
 10
219.3120475173283
 20
44.55019039880155
 30
0.0
 10
219.3110089114113
 20
44.97685309068424
 30
0.0
 10
219.2954956711393
 20
45.3641094370669
 30
0.0
 10
219.260358192217
 20
46.14079169976847
 30
0.0
 10
219.2412707817758
 20
46.52994555638622
 30
0.0
 10
219.2412707817759
 20
46.90888467857449
 30
0.0
  0
LWPOLYLINE
  5
1D3
330
1F
100
AcDbEntity
  8
0
  6
Continuous
 62
     7
370
    25
100
AcDbPolyline
 90
       18
 70
   128
 43
0.0
 10
215.3670902608
 20
50.0607241524
 10
215.7823539396
 20
51.5289222979
 10
216.3136096967
 20
53.0029746296
 10
216.9542365257
 20
54.4645101259
 10
217.696250233
 20
55.8953122673
 10
218.5304022195
 20
57.277549447
 10
219.446296043
 20
58.5939939735
 10
220.4325178102
 20
59.8282391704
 10
221.4767754585
 20
60.9649022171
 10
222.5660535142
 20
61.9898153902
 10
223.6867764117
 20
62.8902062782
 10
224.8249763602
 20
63.6548517238
 10
225.9664673436
 20
64.2742231393
 10
227.0970228045
 20
64.7405997272
 10
228.2025520924
 20
65.0481695818
 10
229.2692769744
 20
65.1930996471
 10
230.2839020955
 20
65.17358317
 10
230.4821562611
 20
65.149555613
  0
SPLINE
  5
1D4
330
1F
100
AcDbEntity
  8
0
  6
Continuous
 62
     7
370
    25
100
AcDbSpline
210
0.0
220
0.0
230
1.0
 70
     8
 71
     3
 72
     8
 73
     4
 74
     0
 42
0.000000001
 43
0.00000001
 40
0.0
 40
0.0
 40
0.0
 40
0.0
 40
1.0
 40
1.0
 40
1.0
 40
1.0
 10
215.367090300623
 20
50.06072435330984
 30
0.0
 10
214.8757892715705
 20
49.97807713310596
 30
0.0
 10
214.3842091806678
 20
49.89599334561552
 30
0.0
 10
213.8924143819159
 20
49.81434305853377
 30
0.0
  0
LWPOLYLINE
  5
1D5
330
1F
100
AcDbEntity
  8
0
  6
Continuous
 62
     7
370
    25
100
AcDbPolyline
 90
       20
 70
   128
 43
0.0
 10
213.8924145075
 20
49.8143428537
 10
214.2774444079
 20
51.2879427425
 10
214.7721674085
 20
52.7723461207
 10
215.3713072506
 20
54.2517244483
 10
216.0684753939
 20
55.7103044234
 10
216.8562395053
 20
57.1325341365
 10
217.7261998494
 20
58.5032488445
 10
218.6690795098
 20
59.807832941
 10
219.6748258045
 20
61.0323773622
 10
220.7327149949
 20
62.1638244456
 10
221.8314667073
 20
63.1901092702
 10
222.9593659289
 20
64.1002909199
 10
224.1043863199
 20
64.8846632142
 10
225.2543190825
 20
65.5348640844
 10
226.3969030647
 20
66.0439598061
 10
227.5199555634
 20
66.4065227916
 10
228.6115016464
 20
66.6186857136
 10
229.659903186
 20
66.6781878575
 10
230.6539810599
 20
66.5843939548
 10
231.5831366528
 20
66.3383050088
  0
LINE
  5
1D6
330
1F
100
AcDbEntity
  8
0
  6
Continuous
 62
     7
370
    25
100
AcDbLine
 10
231.5831366528
 20
66.3383050088
 30
0.0
 11
231.9296041624
 21
65.2189144699
 31
0.0
  0
LINE
  5
1D7
330
1F
100
AcDbEntity
  8
0
  6
Continuous
 62
     7
370
    25
100
AcDbLine
 10
228.1684941461
 20
68.3095361691
 30
0.0
 11
231.5831366528
 21
66.3383050088
 31
0.0
  0
LINE
  5
1D8
330
1F
100
AcDbEntity
  8
0
  6
Continuous
 62
     7
370
    25
100
AcDbLine
 10
213.8924145075
 20
49.8143428537
 30
0.0
 11
213.3061992599
 21
50.1527577128
 31
0.0
  0
SPLINE
  5
1D9
330
1F
100
AcDbEntity
  8
0
  6
Continuous
 62
     7
370
    25
100
AcDbSpline
210
0.0
220
0.0
230
1.0
 70
     8
 71
     3
 72
    28
 73
    24
 74
     0
 42
0.000000001
 43
0.00000001
 40
0.0
 40
0.0
 40
0.0
 40
0.0
 40
0.1250000000000001
 40
0.1250000000000001
 40
0.1875000000000001
 40
0.1875000000000001
 40
0.2500000000000001
 40
0.2500000000000001
 40
0.3749999999999999
 40
0.3749999999999999
 40
0.4375
 40
0.4375
 40
0.4999999999999999
 40
0.4999999999999999
 40
0.6249999999999999
 40
0.6249999999999999
 40
0.7499999999999997
 40
0.7499999999999997
 40
0.8124999999999998
 40
0.8124999999999998
 40
0.8749999999999998
 40
0.8749999999999998
 40
1.0
 40
1.0
 40
1.0
 40
1.0
 10
213.3061991126575
 20
50.15275793011359
 30
0.0
 10
213.1182120321911
 20
50.26128056169767
 30
0.0
 10
212.9279920775904
 20
50.34322428224557
 30
0.0
 10
212.6398934756424
 20
50.42838201228403
 30
0.0
 10
212.5434036050428
 20
50.45043194268784
 30
0.0
 10
212.3496654322079
 20
50.4817057661468
 30
0.0
 10
212.2524144116766
 20
50.49083301747022
 30
0.0
 10
211.9663925367912
 20
50.49861585957863
 30
0.0
 10
211.7810507204346
 20
50.47830931594157
 30
0.0
 10
211.5125381336188
 20
50.41108866280842
 30
0.0
 10
211.424177473953
 20
50.38230230520284
 30
0.0
 10
211.2538247636633
 20
50.31329041510768
 30
0.0
 10
211.1717977338819
 20
50.27315052519756
 30
0.0
 10
210.9353614801293
 20
50.13653075743434
 30
0.0
 10
210.7904942300069
 20
50.02401626774527
 30
0.0
 10
210.5296374365228
 20
49.75575930274579
 30
0.0
 10
210.4173450290205
 20
49.60360591636852
 30
0.0
 10
210.2781205475667
 20
49.35168952867021
 30
0.0
 10
210.2365247612009
 20
49.26364724299384
 30
0.0
 10
210.1634000461397
 20
49.07930618794201
 30
0.0
 10
210.1317755620867
 20
48.98251742526023
 30
0.0
 10
210.0542822586646
 20
48.68450234636342
 30
0.0
 10
210.0251075432747
 20
48.4750294692269
 30
0.0
 10
210.0191406605329
 20
48.25464867654303
 30
0.0
  0
ARC
  5
1DA
330
1F
100
AcDbEntity
  8
0
  6
Continuous
 62
     7
370
    25
100
AcDbCircle
 10
224.8636904983
 20
47.8463782074
 30
0.0
 40
14.85016324623409
100
AcDbArc
 50
178.4245883564
 51
181.5754116436
  0
SPLINE
  5
1DB
330
1F
100
AcDbEntity
  8
0
  6
Continuous
 62
     7
370
    25
100
AcDbSpline
210
0.0
220
0.0
230
1.0
 70
     8
 71
     3
 72
    30
 73
    26
 74
     0
 42
0.000000001
 43
0.00000001
 40
0.0
 40
0.0
 40
0.0
 40
0.0
 40
0.1250000000000003
 40
0.1250000000000003
 40
0.1875000000000005
 40
0.1875000000000005
 40
0.2500000000000007
 40
0.2500000000000007
 40
0.3750000000000011
 40
0.3750000000000011
 40
0.4375000000000012
 40
0.4375000000000012
 40
0.5000000000000012
 40
0.5000000000000012
 40
0.6250000000000014
 40
0.6250000000000014
 40
0.6875000000000012
 40
0.6875000000000012
 40
0.7500000000000011
 40
0.7500000000000011
 40
0.8125000000000009
 40
0.8125000000000009
 40
0.8750000000000008
 40
0.8750000000000008
 40
1.0
 40
1.0
 40
1.0
 40
1.0
 10
210.0191406605329
 20
47.43810786465728
 30
0.0
 10
210.0251082592244
 20
47.22459067188257
 30
0.0
 10
210.0542534792239
 20
47.00704077386344
 30
0.0
 10
210.1306881404827
 20
46.67474174432784
 30
0.0
 10
210.1616541240601
 20
46.56296744302828
 30
0.0
 10
210.2346240648757
 20
46.33726556949328
 30
0.0
 10
210.2767602634343
 20
46.22317779692077
 30
0.0
 10
210.4166520527988
 20
45.88501506955957
 30
0.0
 10
210.528495977341
 20
45.6625048502868
 30
0.0
 10
210.7222825744855
 20
45.33189459433724
 30
0.0
 10
210.7916232120888
 20
45.22166795463109
 30
0.0
 10
210.9371155965355
 20
45.00493795417755
 30
0.0
 10
211.0130028872546
 20
44.89874101854683
 30
0.0
 10
211.249390835726
 20
44.58610284529722
 30
0.0
 10
211.4185363379769
 20
44.38556029746205
 30
0.0
 10
211.6884023353109
 20
44.09545545803972
 30
0.0
 10
211.7805938413618
 20
44.00111204166726
 30
0.0
 10
211.9661924363965
 20
43.81980701360687
 30
0.0
 10
212.0600213166833
 20
43.73238768011272
 30
0.0
 10
212.2494713671487
 20
43.56378012978806
 30
0.0
 10
212.3450927823544
 20
43.48259194401872
 30
0.0
 10
212.5379544717808
 20
43.32642926447058
 30
0.0
 10
212.6356893806792
 20
43.25110228477388
 30
0.0
 10
212.9269453357995
 20
43.03781205133004
 30
0.0
 10
213.1182027267727
 20
42.91241862662961
 30
0.0
 10
213.3061991126575
 20
42.80389062314184
 30
0.0
  0
LINE
  5
1DC
330
1F
100
AcDbEntity
  8
0
  6
Continuous
 62
     7
370
    25
100
AcDbLine
 10
213.3061992599
 20
42.8038907222
 30
0.0
 11
213.8924145075
 21
42.4654758631
 31
0.0
  0
ARC
  5
1DD
330
1F
100
AcDbEntity
  8
0
  6
Continuous
 62
     7
370
    25
100
AcDbCircle
 10
219.7563136004
 20
43.8969801784
 30
0.0
 40
6.036101156838172
100
AcDbArc
 50
193.7188113049
 51
252.9033667284
  0
LINE
  5
1DE
330
1F
100
AcDbEntity
  8
0
  6
Continuous
 62
     7
370
    25
100
AcDbLine
 10
233.2125542311
 20
65.3973564763
 30
0.0
 11
233.5468663262
 21
65.0900277559
 31
0.0
  0
LINE
  5
1DF
330
1F
100
AcDbEntity
  8
0
  6
Continuous
 62
     7
370
    25
100
AcDbLine
 10
232.3596254943
 20
65.8897417553
 30
0.0
 11
233.2125542311
 21
65.3973564763
 31
0.0
  0
SPLINE
  5
1E0
330
1F
100
AcDbEntity
  8
0
  6
Continuous
 62
     7
370
    25
100
AcDbSpline
210
0.0
220
0.0
230
1.0
 70
     8
 71
     3
 72
    20
 73
    16
 74
     0
 42
0.000000001
 43
0.00000001
 40
0.0
 40
0.0
 40
0.0
 40
0.0
 40
0.2499999999999989
 40
0.2499999999999989
 40
0.374999999999999
 40
0.374999999999999
 40
0.4999999999999991
 40
0.4999999999999991
 40
0.6249999999999993
 40
0.6249999999999993
 40
0.7499999999999996
 40
0.7499999999999996
 40
0.8749999999999998
 40
0.8749999999999998
 40
1.0
 40
1.0
 40
1.0
 40
1.0
 10
228.168493894256
 20
68.30953603201404
 30
0.0
 10
228.487482548654
 20
68.17564564275423
 30
0.0
 10
228.813938148752
 20
68.01574929569223
 30
0.0
 10
229.3262882661351
 20
67.73783036822273
 30
0.0
 10
229.500891632813
 20
67.63883135541244
 30
0.0
 10
229.8607654951618
 20
67.42789065051372
 30
0.0
 10
230.0436259115153
 20
67.31733483330368
 30
0.0
 10
230.4099210006925
 20
67.09191696429285
 30
0.0
 10
230.5944045169512
 20
66.97643636291339
 30
0.0
 10
230.9679893411867
 20
66.74160401861762
 30
0.0
 10
231.1523388124259
 20
66.62527409334236
 30
0.0
 10
231.5130487189024
 20
66.39957940654298
 30
0.0
 10
231.6901027081562
 20
66.2897694324463
 30
0.0
 10
232.0378320595086
 20
66.0783746689104
 30
0.0
 10
232.2030824759669
 20
65.98011183376738
 30
0.0
 10
232.3596253907483
 20
65.88974153265
 30
0.0
  0
SPLINE
  5
1E1
330
1F
100
AcDbEntity
  8
0
  6
Continuous
 62
     7
370
    25
100
AcDbSpline
210
0.0
220
0.0
230
1.0
 70
    11
 71
     3
 72
    70
 73
    66
 74
     0
 42
0.000000001
 43
0.00000001
 40
0.0
 40
0.0
 40
0.0
 40
0.0
 40
0.0312500000000001
 40
0.0312500000000001
 40
0.0625000000000002
 40
0.0625000000000002
 40
0.0937500000000003
 40
0.0937500000000003
 40
0.1250000000000004
 40
0.1250000000000004
 40
0.1562500000000005
 40
0.1562500000000005
 40
0.1875000000000006
 40
0.1875000000000006
 40
0.2187500000000007
 40
0.2187500000000007
 40
0.2500000000000008
 40
0.2500000000000008
 40
0.2812500000000009
 40
0.2812500000000009
 40
0.3125000000000011
 40
0.3125000000000011
 40
0.3437500000000012
 40
0.3437500000000012
 40
0.3750000000000012
 40
0.3750000000000012
 40
0.4062500000000013
 40
0.4062500000000013
 40
0.4375000000000014
 40
0.4375000000000014
 40
0.4687500000000016
 40
0.4687500000000016
 40
0.5000000000000017
 40
0.5000000000000017
 40
0.5312500000000018
 40
0.5312500000000018
 40
0.5625000000000019
 40
0.5625000000000019
 40
0.593750000000002
 40
0.593750000000002
 40
0.6250000000000021
 40
0.6250000000000021
 40
0.6562500000000022
 40
0.6562500000000022
 40
0.6875000000000023
 40
0.6875000000000023
 40
0.7187500000000021
 40
0.7187500000000021
 40
0.7500000000000018
 40
0.7500000000000018
 40
0.7812500000000016
 40
0.7812500000000016
 40
0.8125000000000013
 40
0.8125000000000013
 40
0.8437500000000011
 40
0.8437500000000011
 40
0.8750000000000009
 40
0.8750000000000009
 40
0.9062500000000007
 40
0.9062500000000007
 40
0.9375000000000004
 40
0.9375000000000004
 40
0.9687500000000002
 40
0.9687500000000002
 40
1.0
 40
1.0
 40
1.0
 40
1.0
 10
225.9838545730039
 20
67.92503596168825
 30
0.0
 10
225.890323671555
 20
67.979030201795
 30
0.0
 10
225.8070995465519
 20
68.03355291716946
 30
0.0
 10
225.6603384710546
 20
68.14344098148304
 30
0.0
 10
225.5962765879766
 20
68.19941621542219
 30
0.0
 10
225.4921444982557
 20
68.30838324982744
 30
0.0
 10
225.4519170402131
 20
68.36123494828642
 30
0.0
 10
225.3946461631031
 20
68.46299300043815
 30
0.0
 10
225.3778429390861
 20
68.51206387404119
 30
0.0
 10
225.3689990521761
 20
68.60116654984908
 30
0.0
 10
225.3765231849988
 20
68.64177681538847
 30
0.0
 10
225.4158095657543
 20
68.71405626128607
 30
0.0
 10
225.447415831661
 20
68.74501979262367
 30
0.0
 10
225.5321993903657
 20
68.7947703248638
 30
0.0
 10
225.5860124796108
 20
68.81391888123797
 30
0.0
 10
225.7143937488551
 20
68.83895594300435
 30
0.0
 10
225.787724093626
 20
68.84473802224711
 30
0.0
 10
225.9521642944863
 20
68.84298884181538
 30
0.0
 10
226.0444065123916
 20
68.83522779806246
 30
0.0
 10
226.2401483177555
 20
68.80677729122186
 30
0.0
 10
226.3439596977362
 20
68.78622538555294
 30
0.0
 10
226.5637256767654
 20
68.7328592199903
 30
0.0
 10
226.6793553930715
 20
68.70000685825731
 30
0.0
 10
226.9131914632159
 20
68.62545406104579
 30
0.0
 10
227.0327064005739
 20
68.58343542578513
 30
0.0
 10
227.2767673334699
 20
68.49064852955061
 30
0.0
 10
227.3975128756133
 20
68.44134152047516
 30
0.0
 10
227.6368810737388
 20
68.33794884641853
 30
0.0
 10
227.7567880145836
 20
68.28322922979076
 30
0.0
 10
227.9874253450668
 20
68.1728788338289
 30
0.0
 10
228.0979342967788
 20
68.11743243233234
 30
0.0
 10
228.3095755048174
 20
68.00648545337354
 30
0.0
 10
228.4111040134767
 20
67.9506967693855
 30
0.0
 10
228.5958350482423
 20
67.84407504641949
 30
0.0
 10
228.6802466168831
 20
67.79263617631983
 30
0.0
 10
228.8327021837226
 20
67.69341996297776
 30
0.0
 10
228.8992974498921
 20
67.64652590782858
 30
0.0
 10
229.0105644501051
 20
67.5596853650021
 30
0.0
 10
229.056072982953
 20
67.51907381295041
 30
0.0
 10
229.1236381658321
 20
67.44503043602232
 30
0.0
 10
229.1454068574027
 20
67.41206504750274
 30
0.0
 10
229.1651874467931
 20
67.35319464445048
 30
0.0
 10
229.1628994584756
 20
67.32711911144604
 30
0.0
 10
229.1337722426034
 20
67.28338017899127
 30
0.0
 10
229.1072380610818
 20
67.26545030889383
 30
0.0
 10
229.0296772502013
 20
67.23683722640482
 30
0.0
 10
228.9784906831306
 20
67.22631033501011
 30
0.0
 10
228.8555738175107
 20
67.2130480862638
 30
0.0
 10
228.7834393580864
 20
67.21013772162651
 30
0.0
 10
228.6169724411514
 20
67.21191677154121
 30
0.0
 10
228.5254092447917
 20
67.21657407840773
 30
0.0
 10
228.3263631704077
 20
67.23327820988595
 30
0.0
 10
228.2175641761502
 20
67.24552313678639
 30
0.0
 10
227.9903425350537
 20
67.27737304552565
 30
0.0
 10
227.8723497726953
 20
67.29684060468722
 30
0.0
 10
227.6278867657303
 20
67.3435214428022
 30
0.0
 10
227.5007922762538
 20
67.37095826178623
 30
0.0
 10
227.2490640560423
 20
67.43224589753608
 30
0.0
 10
227.1231286764923
 20
67.46630774066733
 30
0.0
 10
226.8713603801009
 20
67.54234909762921
 30
0.0
 10
226.7478767522231
 20
67.58368501008644
 30
0.0
 10
226.5110183369215
 20
67.67178098667598
 30
0.0
 10
226.3960515943176
 20
67.71913543096127
 30
0.0
 10
226.1785732863167
 20
67.81910725459645
 30
0.0
 10
226.0773854744528
 20
67.87104172158148
 30
0.0
 10
225.9838545730039
 20
67.92503596168824
 30
0.0
  0
LINE
  5
1E2
330
1F
100
AcDbEntity
  8
0
  6
Continuous
 62
     7
370
    25
100
AcDbLine
 10
216.5017051547
 20
49.2864654862
 30
0.0
 11
216.0380773087
 21
49.5541121447
 31
0.0
  0
LINE
  5
1E3
330
1F
100
AcDbEntity
  8
0
  6
Continuous
 62
     7
370
    25
100
AcDbLine
 10
215.6122591371
 20
50.2022571321
 30
0.0
 11
215.3670902608
 21
50.0607241524
 31
0.0
  0
SPLINE
  5
1E4
330
1F
100
AcDbEntity
  8
0
  6
Continuous
 62
     7
370
    25
100
AcDbSpline
210
0.0
220
0.0
230
1.0
 70
     8
 71
     3
 72
    14
 73
    10
 74
     0
 42
0.000000001
 43
0.00000001
 40
0.0
 40
0.0
 40
0.0
 40
0.0
 40
0.1249999999999991
 40
0.1249999999999991
 40
0.2499999999999982
 40
0.2499999999999982
 40
0.4999999999999998
 40
0.4999999999999998
 40
1.0
 40
1.0
 40
1.0
 40
1.0
 10
216.0380770630008
 20
49.55411221248787
 30
0.0
 10
216.0138806298356
 20
49.56808051603041
 30
0.0
 10
215.9907051913767
 20
49.59544569202797
 30
0.0
 10
215.9537847989458
 20
49.65324746115349
 30
0.0
 10
215.9387430079132
 20
49.68421794026985
 30
0.0
 10
215.8989295513263
 20
49.77724441319906
 30
0.0
 10
215.8792935329422
 20
49.83985546748382
 30
0.0
 10
215.8288726844727
 20
50.02418621839881
 30
0.0
 10
215.8064555062322
 20
50.14573045329949
 30
0.0
 10
215.7897676080663
 20
50.26485951860186
 30
0.0
  0
SPLINE
  5
1E5
330
1F
100
AcDbEntity
  8
0
  6
Continuous
 62
     7
370
    25
100
AcDbSpline
210
0.0
220
0.0
230
1.0
 70
     8
 71
     3
 72
    10
 73
     6
 74
     0
 42
0.000000001
 43
0.00000001
 40
0.0
 40
0.0
 40
0.0
 40
0.0
 40
0.5
 40
0.5
 40
1.0
 40
1.0
 40
1.0
 40
1.0
 10
215.7897676080663
 20
50.26485951860186
 30
0.0
 10
215.7563775898785
 20
50.25870974940162
 30
0.0
 10
215.7241382384504
 20
50.25016314155355
 30
0.0
 10
215.664150344188
 20
50.22892716778463
 30
0.0
 10
215.636888470939
 20
50.21647552177644
 30
0.0
 10
215.6122589049891
 20
50.20225717599958
 30
0.0
  0
LWPOLYLINE
  5
1E6
330
1F
100
AcDbEntity
  8
0
  6
Continuous
 62
     7
370
    25
100
AcDbPolyline
 90
       21
 70
   128
 43
0.0
 10
208.3695043203
 20
48.9146735587
 10
208.4299323643
 20
50.2810453679
 10
208.6105546593
 20
51.7022156915
 10
208.9093929374
 20
53.1626146176
 10
209.3231722568
 20
54.6462407933
 10
209.8473598557
 20
56.1368395595
 10
210.4762119089
 20
57.6180801344
 10
211.2028387238
 20
59.0737329853
 10
212.0192798142
 20
60.4878504312
 10
212.9165895118
 20
61.8449381198
 10
213.8849370639
 20
63.1301284031
 10
214.9137123308
 20
64.3293402148
 10
215.9916446525
 20
65.4294343843
 10
217.1069238565
 20
66.4183587778
 10
218.2473303201
 20
67.2852773755
 10
219.4003698075
 20
68.0206929781
 10
220.553409295
 20
68.6165484308
 10
221.6938157586
 20
69.0663151095
 10
222.8090949625
 20
69.365064676
 10
223.8870272843
 20
69.5095246741
 10
224.6819754576
 20
69.5146740815
  0
ARC
  5
1E7
330
1F
100
AcDbEntity
  8
0
  6
Continuous
 62
     7
370
    25
100
AcDbCircle
 10
218.0908902979
 20
48.5550163075
 30
0.0
 40
9.728036732268441
100
AcDbArc
 50
177.8812230562
 51
211.4781301973
  0
LINE
  5
1E8
330
1F
100
AcDbEntity
  8
0
  6
Continuous
 62
     7
370
    25
100
AcDbLine
 10
214.6450768795
 20
43.5768083199
 30
0.0
 11
215.7897678336
 21
42.915992298
 31
0.0
  0
ARC
  5
1E9
330
1F
100
AcDbEntity
  8
0
  6
Continuous
 62
     7
370
    25
100
AcDbCircle
 10
217.9575129097
 20
48.7552306523
 30
0.0
 40
6.147218094902104
100
AcDbArc
 50
182.6054747885
 51
237.394528727
  0
LINE
  5
1EA
330
1F
100
AcDbEntity
  8
0
  6
Continuous
 62
     7
370
    25
100
AcDbLine
 10
211.8166496204
 20
49.2923285418
 30
0.0
 11
211.8166496204
 21
48.4757876911
 31
0.0
  0
ARC
  5
1EB
330
1F
100
AcDbEntity
  8
0
  6
Continuous
 62
     7
370
    25
100
AcDbCircle
 10
214.3736037732
 20
49.3846636388
 30
0.0
 40
2.55862078267351
100
AcDbArc
 50
154.7300572726
 51
182.0681299793
  0
LINE
  5
1EC
330
1F
100
AcDbEntity
  8
0
  6
Continuous
 62
     7
370
    25
100
AcDbLine
 10
219.2412707228
 20
40.9234820919
 30
0.0
 11
219.2412707228
 21
42.286946428
 31
0.0
  0
LINE
  5
1ED
330
1F
100
AcDbEntity
  8
0
  6
Continuous
 62
     7
370
    25
100
AcDbLine
 10
217.0712750313
 20
42.1761939398
 30
0.0
 11
219.2412707228
 21
40.9234820919
 31
0.0
  0
SPLINE
  5
1EE
330
1F
100
AcDbEntity
  8
0
  6
Continuous
 62
     7
370
    25
100
AcDbSpline
210
0.0
220
0.0
230
1.0
 70
     8
 71
     3
 72
    14
 73
    10
 74
     0
 42
0.000000001
 43
0.00000001
 40
0.0
 40
0.0
 40
0.0
 40
0.0
 40
0.1249999999999997
 40
0.1249999999999997
 40
0.2499999999999993
 40
0.2499999999999993
 40
0.4999999999999996
 40
0.4999999999999996
 40
1.0
 40
1.0
 40
1.0
 40
1.0
 10
216.8229655901179
 20
42.88694102142596
 30
0.0
 10
216.8473949387617
 20
42.87283825863965
 30
0.0
 10
216.8703734928277
 20
42.84555612877998
 30
0.0
 10
216.9072566063195
 20
42.78780272527348
 30
0.0
 10
216.9223817526363
 20
42.75665514360288
 30
0.0
 10
216.9620991130956
 20
42.6638180420469
 30
0.0
 10
216.9815612309846
 20
42.60186757223014
 30
0.0
 10
217.0324293521787
 20
42.41595286673264
 30
0.0
 10
217.0547135795938
 20
42.29442022175935
 30
0.0
 10
217.0712750450523
 20
42.1761937153118
 30
0.0
  0
LINE
  5
1EF
330
1F
100
AcDbEntity
  8
0
  6
Continuous
 62
     7
370
    25
100
AcDbLine
 10
216.0380773087
 20
43.3400474244
 30
0.0
 11
216.8229655562
 21
42.8869410838
 31
0.0
  0
SPLINE
  5
1F0
330
1F
100
AcDbEntity
  8
0
  6
Continuous
 62
     7
370
    25
100
AcDbSpline
210
0.0
220
0.0
230
1.0
 70
     8
 71
     3
 72
    14
 73
    10
 74
     0
 42
0.000000001
 43
0.00000001
 40
0.0
 40
0.0
 40
0.0
 40
0.0
 40
0.4999999999999968
 40
0.4999999999999968
 40
0.7499999999999967
 40
0.7499999999999967
 40
0.8749999999999983
 40
0.8749999999999983
 40
1.0
 40
1.0
 40
1.0
 40
1.0
 10
215.7897676080662
 20
42.91599221162986
 30
0.0
 10
215.80639168952
 20
43.01547195585997
 30
0.0
 10
215.8288090911243
 20
43.11130708925597
 30
0.0
 10
215.879240148973
 20
43.23752303882961
 30
0.0
 10
215.8987748429042
 20
43.27735658752386
 30
0.0
 10
215.9387180002396
 20
43.32461691899572
 30
0.0
 10
215.9537349674053
 20
43.33821953260097
 30
0.0
 10
215.990796334927
 20
43.35343993417668
 30
0.0
 10
216.0137799972753
 20
43.35407392097057
 30
0.0
 10
216.0380770630008
 20
43.34004752348754
 30
0.0
  0
LINE
  5
1F1
330
1F
100
AcDbEntity
  8
0
  6
Continuous
 62
     7
370
    25
100
AcDbLine
 10
218.1239439393
 20
40.2784630694
 30
0.0
 11
219.2412707228
 21
40.9234820919
 31
0.0
  0
ARC
  5
1F2
330
1F
100
AcDbEntity
  8
0
  6
Continuous
 62
     7
370
    25
100
AcDbCircle
 10
223.3947734453
 20
41.5611267196
 30
0.0
 40
5.832289460145066
100
AcDbArc
 50
195.107577651
 51
274.0326702989
  0
SPLINE
  5
1F3
330
1F
100
AcDbEntity
  8
0
  6
Continuous
 62
     7
370
    25
100
AcDbSpline
210
0.0
220
0.0
230
1.0
 70
     8
 71
     3
 72
    12
 73
     8
 74
     0
 42
0.000000001
 43
0.00000001
 40
0.0
 40
0.0
 40
0.0
 40
0.0
 40
0.2499999999999962
 40
0.2499999999999962
 40
0.4999999999999925
 40
0.4999999999999925
 40
1.0
 40
1.0
 40
1.0
 40
1.0
 10
217.690261156014
 20
40.27302547649144
 30
0.0
 10
217.7185033560864
 20
40.25672160142742
 30
0.0
 10
217.7530494879918
 20
40.24376580801741
 30
0.0
 10
217.8277735476895
 20
40.22705406982487
 30
0.0
 10
217.8680639389912
 20
40.22316716103742
 30
0.0
 10
217.9891769564275
 20
40.22543055892672
 30
0.0
 10
218.0672945188454
 20
40.24575977035347
 30
0.0
 10
218.1239439915809
 20
40.27846281485982
 30
0.0
  0
ARC
  5
1F4
330
1F
100
AcDbEntity
  8
0
  6
Continuous
 62
     7
370
    25
100
AcDbCircle
 10
222.4774972509
 20
42.6997721715
 30
0.0
 40
6.394931515601654
100
AcDbArc
 50
194.6641757708
 51
238.0052799592
  0
LINE
  5
1F5
330
1F
100
AcDbEntity
  8
0
  6
Continuous
 62
     7
370
    25
100
AcDbLine
 10
216.290872789
 20
41.0808753693
 30
0.0
 11
217.6902614292
 21
40.2730255028
 31
0.0
  0
SPLINE
  5
1F6
330
1F
100
AcDbEntity
  8
0
  6
Continuous
 62
     7
370
    25
100
AcDbSpline
210
0.0
220
0.0
230
1.0
 70
     8
 71
     3
 72
     8
 73
     4
 74
     0
 42
0.000000001
 43
0.00000001
 40
0.0
 40
0.0
 40
0.0
 40
0.0
 40
1.0
 40
1.0
 40
1.0
 40
1.0
 10
216.7176642526894
 20
41.93218729954742
 30
0.0
 10
216.5744995559988
 20
41.64856525254041
 30
0.0
 10
216.4323108591462
 20
41.36478210655639
 30
0.0
 10
216.2908730883911
 20
41.08087501236931
 30
0.0
  0
LINE
  5
1F7
330
1F
100
AcDbEntity
  8
0
  6
Continuous
 62
     7
370
    25
100
AcDbLine
 10
216.9628331657
 20
42.0737203506
 30
0.0
 11
216.7176642894
 21
41.9321873709
 31
0.0
  0
SPLINE
  5
1F8
330
1F
100
AcDbEntity
  8
0
  6
Continuous
 62
     7
370
    25
100
AcDbSpline
210
0.0
220
0.0
230
1.0
 70
     8
 71
     3
 72
    10
 73
     6
 74
     0
 42
0.000000001
 43
0.00000001
 40
0.0
 40
0.0
 40
0.0
 40
0.0
 40
0.5
 40
0.5
 40
1.0
 40
1.0
 40
1.0
 40
1.0
 10
217.0712750450523
 20
42.1761937153118
 30
0.0
 10
217.0606221780824
 20
42.15691806810568
 30
0.0
 10
217.0458174149303
 20
42.13830668668064
 30
0.0
 10
217.0090316435994
 20
42.10367641244913
 30
0.0
 10
216.9874624230054
 20
42.08793846801404
 30
0.0
 10
216.9628328570555
 20
42.07372012223718
 30
0.0
  0
SPLINE
  5
1F9
330
1F
100
AcDbEntity
  8
0
  6
Continuous
 62
     7
370
    25
100
AcDbSpline
210
0.0
220
0.0
230
1.0
 70
     8
 71
     3
 72
    14
 73
    10
 74
     0
 42
0.000000001
 43
0.00000001
 40
0.0
 40
0.0
 40
0.0
 40
0.0
 40
0.500000000000001
 40
0.500000000000001
 40
0.7500000000000004
 40
0.7500000000000004
 40
0.8750000000000003
 40
0.8750000000000003
 40
1.0
 40
1.0
 40
1.0
 40
1.0
 10
201.1499657883736
 20
53.5712530624486
 30
0.0
 10
201.4651317322135
 20
53.34416507155275
 30
0.0
 10
201.7814073874794
 20
53.11431869650461
 30
0.0
 10
202.2602318760505
 20
52.7590100945155
 30
0.0
 10
202.4205518864746
 20
52.63887178031995
 30
0.0
 10
202.6636044224283
 20
52.45260294607614
 30
0.0
 10
202.7450478604448
 20
52.38950970484913
 30
0.0
 10
202.9097093094782
 20
52.25916446243698
 30
0.0
 10
202.9926153275445
 20
52.19264002045973
 30
0.0
 10
203.0786341556291
 20
52.11884654913618
 30
0.0
  0
SPLINE
  5
1FA
330
1F
100
AcDbEntity
  8
0
  6
Continuous
 62
     7
370
    25
100
AcDbSpline
210
0.0
220
0.0
230
1.0
 70
     8
 71
     3
 72
     8
 73
     4
 74
     0
 42
0.000000001
 43
0.00000001
 40
0.0
 40
0.0
 40
0.0
 40
0.0
 40
1.0
 40
1.0
 40
1.0
 40
1.0
 10
203.0786341556291
 20
52.11884654913618
 30
0.0
 10
203.3802866288667
 20
51.86006619105435
 30
0.0
 10
203.6855661723901
 20
51.61249117564969
 30
0.0
 10
203.9902257455167
 20
51.37151831908317
 30
0.0
  0
SPLINE
  5
1FB
330
1F
100
AcDbEntity
  8
0
  6
Continuous
 62
     7
370
    25
100
AcDbSpline
210
0.0
220
0.0
230
1.0
 70
     8
 71
     3
 72
    14
 73
    10
 74
     0
 42
0.000000001
 43
0.00000001
 40
0.0
 40
0.0
 40
0.0
 40
0.0
 40
0.1249999999999988
 40
0.1249999999999988
 40
0.2499999999999976
 40
0.2499999999999976
 40
0.4999999999999982
 40
0.4999999999999982
 40
1.0
 40
1.0
 40
1.0
 40
1.0
 10
203.9902257455168
 20
51.37151831908312
 30
0.0
 10
204.0094211214423
 20
51.35633558734692
 30
0.0
 10
204.0270331948427
 20
51.34496776885013
 30
0.0
 10
204.052878124762
 20
51.33369929963769
 30
0.0
 10
204.0610164890097
 20
51.33331582940063
 30
0.0
 10
204.0779665799777
 20
51.33909162209502
 30
0.0
 10
204.0801358524875
 20
51.35175704771305
 30
0.0
 10
204.0789603046729
 20
51.39619387475683
 30
0.0
 10
204.0668867840687
 20
51.43667714553027
 30
0.0
 10
204.0521085560287
 20
51.48068081541277
 30
0.0
  0
SPLINE
  5
1FC
330
1F
100
AcDbEntity
  8
0
  6
Continuous
 62
     7
370
    25
100
AcDbSpline
210
0.0
220
0.0
230
1.0
 70
     8
 71
     3
 72
    14
 73
    10
 74
     0
 42
0.000000001
 43
0.00000001
 40
0.0
 40
0.0
 40
0.0
 40
0.0
 40
0.25
 40
0.25
 40
0.5
 40
0.5
 40
0.75
 40
0.75
 40
1.0
 40
1.0
 40
1.0
 40
1.0
 10
204.0521085560279
 20
51.48068081541347
 30
0.0
 10
204.0340523090814
 20
51.53444511840024
 30
0.0
 10
204.0311295109802
 20
51.57899572749729
 30
0.0
 10
204.0257157824369
 20
51.67125707734201
 30
0.0
 10
204.0241485043957
 20
51.71855148026226
 30
0.0
 10
204.0140101045886
 20
51.82331253509004
 30
0.0
 10
204.0056951068444
 20
51.88057374212505
 30
0.0
 10
203.9768949321855
 20
52.01019509949947
 30
0.0
 10
203.956241535515
 20
52.08298929911252
 30
0.0
 10
203.9275520183539
 20
52.16267599807228
 30
0.0
  0
ARC
  5
1FD
330
1F
100
AcDbEntity
  8
0
  6
Continuous
 62
     7
370
    25
100
AcDbCircle
 10
214.2825223467
 20
55.2492374647
 30
0.0
 40
10.80519673566328
100
AcDbArc
 50
163.4019784234
 51
196.5980215766
  0
SPLINE
  5
1FE
330
1F
100
AcDbEntity
  8
0
  6
Continuous
 62
     7
370
    25
100
AcDbSpline
210
0.0
220
0.0
230
1.0
 70
     8
 71
     3
 72
    14
 73
    10
 74
     0
 42
0.000000001
 43
0.00000001
 40
0.0
 40
0.0
 40
0.0
 40
0.0
 40
0.25
 40
0.25
 40
0.5
 40
0.5
 40
0.75
 40
0.75
 40
1.0
 40
1.0
 40
1.0
 40
1.0
 10
204.0521085560279
 20
59.79700401033646
 30
0.0
 10
204.0340523090814
 20
59.6761619313919
 30
0.0
 10
204.0311295109802
 20
59.55106766482579
 30
0.0
 10
204.0257157824369
 20
59.30311635417443
 30
0.0
 10
204.0241485043957
 20
59.17920772986067
 30
0.0
 10
204.0140101045886
 20
58.93305199062048
 30
0.0
 10
204.0056951068444
 20
58.81076404875905
 30
0.0
 10
203.9768949321855
 20
58.56876687155028
 30
0.0
 10
203.956241535515
 20
58.44860990437068
 30
0.0
 10
203.9275520183539
 20
58.3357989939654
 30
0.0
  0
SPLINE
  5
1FF
330
1F
100
AcDbEntity
  8
0
  6
Continuous
 62
     7
370
    25
100
AcDbSpline
210
0.0
220
0.0
230
1.0
 70
     8
 71
     3
 72
    14
 73
    10
 74
     0
 42
0.000000001
 43
0.00000001
 40
0.0
 40
0.0
 40
0.0
 40
0.0
 40
0.1249999999999975
 40
0.1249999999999975
 40
0.249999999999995
 40
0.249999999999995
 40
0.4999999999999953
 40
0.4999999999999953
 40
1.0
 40
1.0
 40
1.0
 40
1.0
 10
203.9902257455169
 20
60.34228957463048
 30
0.0
 10
204.0094211214424
 20
60.34000276665665
 30
0.0
 10
204.0270331948428
 20
60.32850452738383
 30
0.0
 10
204.052878124762
 20
60.29181302485731
 30
0.0
 10
204.0610164890097
 20
60.26873160975524
 30
0.0
 10
204.0779665799777
 20
60.19739909067815
 30
0.0
 10
204.0801358524875
 20
60.14615498507008
 30
0.0
 10
204.0789603046729
 20
59.99611950530848
 30
0.0
 10
204.0668867840687
 20
59.89590783042541
 30
0.0
 10
204.0521085560287
 20
59.79700401033678
 30
0.0
  0
SPLINE
  5
200
330
1F
100
AcDbEntity
  8
0
  6
Continuous
 62
     7
370
    25
100
AcDbSpline
210
0.0
220
0.0
230
1.0
 70
     8
 71
     3
 72
     8
 73
     4
 74
     0
 42
0.000000001
 43
0.00000001
 40
0.0
 40
0.0
 40
0.0
 40
0.0
 40
1.0
 40
1.0
 40
1.0
 40
1.0
 10
203.0786341556291
 20
60.39450238576657
 30
0.0
 10
203.3802866288667
 20
60.40184863290967
 30
0.0
 10
203.6855661723902
 20
60.37858466693972
 30
0.0
 10
203.9902257455169
 20
60.34228957463048
 30
0.0
  0
SPLINE
  5
201
330
1F
100
AcDbEntity
  8
0
  6
Continuous
 62
     7
370
    25
100
AcDbSpline
210
0.0
220
0.0
230
1.0
 70
     8
 71
     3
 72
    14
 73
    10
 74
     0
 42
0.000000001
 43
0.00000001
 40
0.0
 40
0.0
 40
0.0
 40
0.0
 40
0.500000000000001
 40
0.500000000000001
 40
0.7500000000000004
 40
0.7500000000000004
 40
0.8750000000000003
 40
0.8750000000000003
 40
1.0
 40
1.0
 40
1.0
 40
1.0
 10
201.1499657883736
 20
61.02714173075155
 30
0.0
 10
201.4651317322135
 20
60.88975723702543
 30
0.0
 10
201.7814073874794
 20
60.75818372939427
 30
0.0
 10
202.2602318760505
 20
60.5832882628735
 30
0.0
 10
202.4205518864746
 20
60.52861711260899
 30
0.0
 10
202.6636044224283
 20
60.45958529688894
 30
0.0
 10
202.7450478604448
 20
60.43872301238015
 30
0.0
 10
202.9097093094782
 20
60.40591529895053
 30
0.0
 10
202.9926153275445
 20
60.39240753945787
 30
0.0
 10
203.0786341556291
 20
60.39450238576656
 30
0.0
  0
SPLINE
  5
202
330
1F
100
AcDbEntity
  8
0
  6
Continuous
 62
     7
370
    25
100
AcDbSpline
210
0.0
220
0.0
230
1.0
 70
     8
 71
     3
 72
     8
 73
     4
 74
     0
 42
0.000000001
 43
0.00000001
 40
0.0000005163856712
 40
0.0000005163856712
 40
0.0000005163856712
 40
0.0000005163856712
 40
0.000026289209185
 40
0.000026289209185
 40
0.000026289209185
 40
0.000026289209185
 10
201.1499442013544
 20
61.04002084195702
 30
0.0
 10
201.1499419001951
 20
61.03572800692572
 30
0.0
 10
201.1499491465194
 20
61.03143493924544
 30
0.0
 10
201.1499657883736
 20
61.02714173075155
 30
0.0
  0
LINE
  5
203
330
1F
100
AcDbEntity
  8
0
  6
Continuous
 62
     7
370
    25
100
AcDbLine
 10
214.0141197888
 20
71.5352374828
 30
0.0
 11
214.0701322919
 21
71.5067517511
 31
0.0
  0
SPLINE
  5
204
330
1F
100
AcDbEntity
  8
0
  6
Continuous
 62
     7
370
    25
100
AcDbSpline
210
0.0
220
0.0
230
1.0
 70
     8
 71
     3
 72
     8
 73
     4
 74
     0
 42
0.000000001
 43
0.00000001
 40
0.0000005163856716
 40
0.0000005163856716
 40
0.0000005163856716
 40
0.0000005163856716
 40
0.0000262892091854
 40
0.0000262892091854
 40
0.0000262892091854
 40
0.0000262892091854
 10
201.1499442013544
 20
53.56654979007773
 30
0.0
 10
201.1499419001951
 20
53.5681231757772
 30
0.0
 10
201.1499491465194
 20
53.56969090571111
 30
0.0
 10
201.1499657883736
 20
53.57125306244861
 30
0.0
  0
SPLINE
  5
205
330
1F
100
AcDbEntity
  8
0
  6
Continuous
 62
     7
370
    25
100
AcDbSpline
210
0.0
220
0.0
230
1.0
 70
     8
 71
     3
 72
    18
 73
    14
 74
     0
 42
0.000000001
 43
0.00000001
 40
0.0
 40
0.0
 40
0.0
 40
0.0
 40
0.1234616019554569
 40
0.2475974339686916
 40
0.3717105966854874
 40
0.4951175633927853
 40
0.6174717387160665
 40
0.6790171321222479
 40
0.7397662537943551
 40
0.8004282725647054
 40
0.8623635661782577
 40
0.9851517904498057
 40
0.9999999999999999
 40
0.9999999999999999
 40
0.9999999999999999
 40
0.9999999999999999
 10
206.8388127711509
 20
51.69357869375572
 30
0.0
 10
206.7057658975369
 20
51.93851344765604
 30
0.0
 10
206.4389455745974
 20
52.42972055654607
 30
0.0
 10
206.3142501561634
 20
53.18174160677759
 30
0.0
 10
206.450076784042
 20
53.80642865916642
 30
0.0
 10
206.8171523713992
 20
54.22329379914406
 30
0.0
 10
207.2597932027548
 20
54.31727740888783
 30
0.0
 10
207.6360164604752
 20
54.23533309256852
 30
0.0
 10
207.9182463643734
 20
54.09306024162204
 30
0.0
 10
208.1906020634524
 20
53.87636353921739
 30
0.0
 10
208.5169807779159
 20
53.49861384020831
 30
0.0
 10
208.7718176424702
 20
53.11620890120339
 30
0.0
 10
208.8634562665355
 20
52.82157630471053
 30
0.0
 10
208.8733422353537
 20
52.78979135931802
 30
0.0
  0
SPLINE
  5
206
330
1F
100
AcDbEntity
  8
0
  6
Continuous
 62
     7
370
    25
100
AcDbSpline
210
0.0
220
0.0
230
1.0
 70
     8
 71
     3
 72
    13
 73
     9
 74
     0
 42
0.000000001
 43
0.00000001
 40
0.0
 40
0.0
 40
0.0
 40
0.0
 40
0.0513795400998153
 40
0.2107981586610729
 40
0.3675888930476924
 40
0.5244966812380171
 40
0.6836694757265704
 40
1.0
 40
1.0
 40
1.0
 40
1.0
 10
208.4931987352097
 20
50.36645970049926
 30
0.0
 10
208.4716421811512
 20
50.36211287295349
 30
0.0
 10
208.3832007141043
 20
50.34427886274462
 30
0.0
 10
208.1779869606378
 20
50.4304159811463
 30
0.0
 10
207.9104695175334
 20
50.56729774810373
 30
0.0
 10
207.627478071003
 20
50.7782795880956
 30
0.0
 10
207.2478049524971
 20
51.12630249651355
 30
0.0
 10
207.0022014824151
 20
51.46695693660328
 30
0.0
 10
206.8388127711509
 20
51.69357869375572
 30
0.0
  0
ARC
  5
207
330
1F
100
AcDbEntity
  8
0
  6
Continuous
 62
     7
370
    25
100
AcDbCircle
 10
221.5383396214
 20
44.7056370401
 30
0.0
 40
6.485327815413509
100
AcDbArc
 50
197.9043770853
 51
217.5646516782
  0
SPLINE
  5
208
330
1F
100
AcDbEntity
  8
0
  6
Continuous
 62
     7
370
    25
100
AcDbSpline
210
0.0
220
0.0
230
1.0
 70
     8
 71
     3
 72
     8
 73
     4
 74
     0
 42
0.000000001
 43
0.00000001
 40
0.0
 40
0.0
 40
0.0
 40
0.0
 40
1.0
 40
1.0
 40
1.0
 40
1.0
 10
213.8924143819159
 20
42.46547575156203
 30
0.0
 10
214.3842091806678
 20
42.54712603864377
 30
0.0
 10
214.8757892715705
 20
42.62920982613421
 30
0.0
 10
215.367090300623
 20
42.7118570463381
 30
0.0
  0
SPLINE
  5
209
330
1F
100
AcDbEntity
  8
0
  6
Continuous
 62
     7
370
    25
100
AcDbSpline
210
0.0
220
0.0
230
1.0
 70
     8
 71
     3
 72
    10
 73
     6
 74
     0
 42
0.000000001
 43
0.00000001
 40
0.0
 40
0.0
 40
0.0
 40
0.0
 40
0.5
 40
0.5
 40
1.0
 40
1.0
 40
1.0
 40
1.0
 10
215.6122589049893
 20
42.85338986902787
 30
0.0
 10
215.6370912083412
 20
42.86772525261571
 30
0.0
 10
215.6647662058346
 20
42.88032069275181
 30
0.0
 10
215.7248912152891
 20
42.90151859089208
 30
0.0
 10
215.7565856154838
 20
42.90988075655874
 30
0.0
 10
215.7897676080655
 20
42.91599221162998
 30
0.0
  0
LINE
  5
20A
330
1F
100
AcDbEntity
  8
0
  6
Continuous
 62
     7
370
    25
100
AcDbLine
 10
215.3670902608
 20
42.7118571618
 30
0.0
 11
215.6122591371
 21
42.8533901415
 31
0.0
  0
SPLINE
  5
20B
330
1F
100
AcDbEntity
  8
0
  6
Continuous
 62
     7
370
    25
100
AcDbSpline
210
0.0
220
0.0
230
1.0
 70
     8
 71
     3
 72
    12
 73
     8
 74
     0
 42
0.000000001
 43
0.00000001
 40
0.0
 40
0.0
 40
0.0
 40
0.0
 40
0.0817252548808676
 40
0.3406848380658126
 40
0.5987974313059852
 40
0.8604594460878481
 40
1.0
 40
1.0
 40
1.0
 40
1.0
 10
207.8577526758445
 20
54.012839933376
 30
0.0
 10
207.844250951343
 20
53.96630103345697
 30
0.0
 10
207.787966846361
 20
53.77229616181984
 30
0.0
 10
207.8661190196086
 20
53.33893698488269
 30
0.0
 10
208.0895570996723
 20
52.79098310905464
 30
0.0
 10
208.3915958044695
 20
52.33460089503316
 30
0.0
 10
208.6174053364815
 20
52.12076679298489
 30
0.0
 10
208.6959431865211
 20
52.04639406615451
 30
0.0
  0
LINE
  5
20C
330
1F
100
AcDbEntity
  8
0
  6
Continuous
 62
     7
370
    25
100
AcDbLine
 10
235.6110125125
 20
64.0127559825
 30
0.0
 11
237.0104011528
 21
63.204906116
 31
0.0
  0
SPLINE
  5
20D
330
1F
100
AcDbEntity
  8
0
  6
Continuous
 62
     7
370
    25
100
AcDbSpline
210
0.0
220
0.0
230
1.0
 70
     8
 71
     3
 72
    12
 73
     8
 74
     0
 42
0.000000001
 43
0.00000001
 40
0.0
 40
0.0
 40
0.0
 40
0.0
 40
0.25
 40
0.25
 40
0.5
 40
0.5
 40
1.0
 40
1.0
 40
1.0
 40
1.0
 10
237.010400918681
 20
63.20490596870629
 30
0.0
 10
237.0426448895536
 20
63.18629192053268
 30
0.0
 10
237.0646978920872
 20
63.16204159773527
 30
0.0
 10
237.0855468362522
 20
63.11145373984773
 30
0.0
 10
237.0851656670249
 20
63.08461517141366
 30
0.0
 10
237.0594127341276
 20
63.00738105514483
 30
0.0
 10
237.011461307019
 20
62.96059568431701
 30
0.0
 10
236.9475612578836
 20
62.92370697114954
 30
0.0
  0
SPLINE
  5
20E
330
1F
100
AcDbEntity
  8
0
  6
Continuous
 62
     7
370
    25
100
AcDbSpline
210
0.0
220
0.0
230
1.0
 70
     8
 71
     3
 72
    12
 73
     8
 74
     0
 42
0.000000001
 43
0.00000001
 40
0.0
 40
0.0
 40
0.0
 40
0.0
 40
0.1910074178758762
 40
0.36718748377775
 40
0.6742904456071812
 40
0.9490669354324405
 40
1.0
 40
1.0
 40
1.0
 40
1.0
 10
207.1300820679478
 20
51.87650185201701
 30
0.0
 10
207.2096393119934
 20
51.7620917296306
 30
0.0
 10
207.362578001926
 20
51.54215281089674
 30
0.0
 10
207.6873758048642
 20
51.18837926309923
 30
0.0
 10
208.0722791591411
 20
50.88381402455529
 30
0.0
 10
208.3719325613172
 20
50.71668869270169
 30
0.0
 10
208.5012045136279
 20
50.70025170495523
 30
0.0
 10
208.5214195076464
 20
50.69768135923803
 30
0.0
  0
SPLINE
  5
20F
330
1F
100
AcDbEntity
  8
0
  6
Continuous
 62
     7
370
    25
100
AcDbSpline
210
0.0
220
0.0
230
1.0
 70
     8
 71
     3
 72
    17
 73
    13
 74
     0
 42
0.000000001
 43
0.00000001
 40
0.0
 40
0.0
 40
0.0
 40
0.0
 40
0.02892452795704
 40
0.1765376995988062
 40
0.2609437391087789
 40
0.3522930891083644
 40
0.4561020368207467
 40
0.5447536028677941
 40
0.6761052675536114
 40
0.8084234062073141
 40
0.8968642477271317
 40
1.0
 40
1.0
 40
1.0
 40
1.0
 10
208.1733851559865
 20
53.87486447859702
 30
0.0
 10
208.1461244690958
 20
53.90090910654588
 30
0.0
 10
207.9797418418553
 20
54.05986965075348
 30
0.0
 10
207.6919664758576
 20
54.13835381888143
 30
0.0
 10
207.3716930957606
 20
54.14199948545001
 30
0.0
 10
207.1177480129133
 20
54.05094821104028
 30
0.0
 10
206.9092683346343
 20
53.87014796554121
 30
0.0
 10
206.7461738973319
 20
53.57802233019174
 30
0.0
 10
206.6691698686601
 20
53.16823471113327
 30
0.0
 10
206.7445615515494
 20
52.70363819271005
 30
0.0
 10
206.9033064528355
 20
52.26169907089749
 30
0.0
 10
207.0507210436338
 20
52.0113031437614
 30
0.0
 10
207.1300820679478
 20
51.87650185201701
 30
0.0
  0
LINE
  5
210
330
1F
100
AcDbEntity
  8
0
  6
Continuous
 62
     7
370
    25
100
AcDbLine
 10
233.2125542311
 20
65.3973564763
 30
0.0
 11
233.0713036781
 21
65.1848777568
 31
0.0
  0
LINE
  5
211
330
1F
100
AcDbEntity
  8
0
  6
Continuous
 62
     7
370
    25
100
AcDbLine
 10
202.9897212086
 20
55.7462342826
 30
0.0
 11
203.4901043992
 21
55.4573692154
 31
0.0
  0
SPLINE
  5
212
330
1F
100
AcDbEntity
  8
0
  6
Continuous
 62
     7
370
    25
100
AcDbSpline
210
0.0
220
0.0
230
1.0
 70
     8
 71
     3
 72
     9
 73
     5
 74
     0
 42
0.000000001
 43
0.00000001
 40
0.0
 40
0.0
 40
0.0
 40
0.0
 40
0.7009339503679092
 40
0.9999999999999999
 40
0.9999999999999999
 40
0.9999999999999999
 40
0.9999999999999999
 10
201.1639105114589
 20
61.5036128759868
 30
0.0
 10
201.1608386229399
 20
61.55761686034081
 30
0.0
 10
201.1564560580531
 20
61.6346626138325
 30
0.0
 10
201.1808663821296
 20
61.72429535424677
 30
0.0
 10
201.1881666813214
 20
61.75110146384016
 30
0.0
  0
SPLINE
  5
213
330
1F
100
AcDbEntity
  8
0
  6
Continuous
 62
     7
370
    25
100
AcDbSpline
210
0.0
220
0.0
230
1.0
 70
     8
 71
     3
 72
    10
 73
     6
 74
     0
 42
0.000000001
 43
0.00000001
 40
0.0
 40
0.0
 40
0.0
 40
0.0
 40
0.5
 40
0.5
 40
1.0
 40
1.0
 40
1.0
 40
1.0
 10
201.2044031385725
 20
61.55596302106439
 30
0.0
 10
201.1844770880763
 20
61.47200254704867
 30
0.0
 10
201.1711828239356
 20
61.38655668453728
 30
0.0
 10
201.1539142977948
 20
61.2141432136048
 30
0.0
 10
201.1499908431725
 20
61.12703160734091
 30
0.0
 10
201.1499442013544
 20
61.04002084195701
 30
0.0
  0
SPLINE
  5
214
330
1F
100
AcDbEntity
  8
0
  6
Continuous
 62
     7
370
    25
100
AcDbSpline
210
0.0
220
0.0
230
1.0
 70
     8
 71
     3
 72
    24
 73
    20
 74
     0
 42
0.000000001
 43
0.00000001
 40
0.0
 40
0.0
 40
0.0
 40
0.0
 40
0.25
 40
0.25
 40
0.374999999999999
 40
0.374999999999999
 40
0.4374999999999993
 40
0.4374999999999993
 40
0.4687499999999994
 40
0.4687499999999994
 40
0.4999999999999995
 40
0.4999999999999995
 40
0.5624999999999971
 40
0.5624999999999971
 40
0.6249999999999947
 40
0.6249999999999947
 40
0.7499999999999947
 40
0.7499999999999947
 40
1.0
 40
1.0
 40
1.0
 40
1.0
 10
201.1881667356041
 20
61.75110137178063
 30
0.0
 10
201.2180077648893
 20
61.85838042833689
 30
0.0
 10
201.2478373049304
 20
61.96426500170756
 30
0.0
 10
201.2925084618016
 20
62.11421304495786
 30
0.0
 10
201.3074612538934
 20
62.16321330772079
 30
0.0
 10
201.3290443921828
 20
62.22636358962354
 30
0.0
 10
201.3361741037124
 20
62.24600377385205
 30
0.0
 10
201.3450257290139
 20
62.26371370334005
 30
0.0
 10
201.3476638262837
 20
62.26743006982572
 30
0.0
 10
201.3508163643287
 20
62.26528172144352
 30
0.0
 10
201.3511963254655
 20
62.25911931237695
 30
0.0
 10
201.3491864002047
 20
62.2304742290242
 30
0.0
 10
201.3446097586063
 20
62.20217322403601
 30
0.0
 10
201.3346783724999
 20
62.14579421388672
 30
0.0
 10
201.3289881867649
 20
62.11632446593067
 30
0.0
 10
201.3114065861463
 20
62.02847004536434
 30
0.0
 10
201.2987257132181
 20
61.96924505231501
 30
0.0
 10
201.2594846495977
 20
61.79075174518523
 30
0.0
 10
201.2321811895612
 20
61.67300871101151
 30
0.0
 10
201.2044031385725
 20
61.55596302106441
 30
0.0
  0
ARC
  5
215
330
1F
100
AcDbEntity
  8
0
  6
Continuous
 62
     7
370
    25
100
AcDbCircle
 10
201.867081166
 20
60.9613541901
 30
0.0
 40
0.7201273031244646
100
AcDbArc
 50
174.7584203609
 51
234.4349513408
  0
ARC
  5
216
330
1F
100
AcDbEntity
  8
0
  6
Continuous
 62
     7
370
    25
100
AcDbCircle
 10
203.3624159334
 20
53.4614564538
 30
0.0
 40
2.215173511102297
100
AcDbArc
 50
122.6235856257
 51
177.1589283586
  0
LINE
  5
217
330
1F
100
AcDbEntity
  8
0
  6
Continuous
 62
     7
370
    25
100
AcDbLine
 10
202.1681770567
 20
55.3271432415
 30
0.0
 11
202.9122638621
 21
55.756695411
 31
0.0
  0
SPLINE
  5
218
330
1F
100
AcDbEntity
  8
0
  6
Continuous
 62
     7
370
    25
100
AcDbSpline
210
0.0
220
0.0
230
1.0
 70
     8
 71
     3
 72
     8
 73
     4
 74
     0
 42
0.000000001
 43
0.00000001
 40
0.0
 40
0.0
 40
0.0
 40
0.0
 40
0.000159097695343
 40
0.000159097695343
 40
0.000159097695343
 40
0.000159097695343
 10
202.9897216346723
 20
55.74623426505173
 30
0.0
 10
202.9639015051066
 20
55.74971881451363
 30
0.0
 10
202.9380823605541
 20
55.75320579725117
 30
0.0
 10
202.9122641808979
 20
55.75669515837058
 30
0.0
  0
ARC
  5
219
330
1F
100
AcDbEntity
  8
0
  6
Continuous
 62
     7
370
    25
100
AcDbCircle
 10
202.4970358834
 20
53.9561152108
 30
0.0
 40
1.353479563765507
100
AcDbArc
 50
122.9135810547
 51
170.975405912
  0
LINE
  5
21A
330
1F
100
AcDbEntity
  8
0
  6
Continuous
 62
     7
370
    25
100
AcDbLine
 10
202.1681770567
 20
55.3271432415
 30
0.0
 11
201.7615910189
 21
55.0923492452
 31
0.0
  0
SPLINE
  5
21B
330
1F
100
AcDbEntity
  8
0
  6
Continuous
 62
     7
370
    25
100
AcDbSpline
210
0.0
220
0.0
230
1.0
 70
     8
 71
     3
 72
    10
 73
     6
 74
     0
 42
0.000000001
 43
0.00000001
 40
0.0
 40
0.0
 40
0.0
 40
0.0
 40
0.5
 40
0.5
 40
1.0
 40
1.0
 40
1.0
 40
1.0
 10
201.2044031385725
 20
53.37130740536042
 30
0.0
 10
201.1844770880763
 20
53.40982896687604
 30
0.0
 10
201.1711828239356
 20
53.44179229406914
 30
0.0
 10
201.1539142977948
 20
53.50423571756598
 30
0.0
 10
201.1499908431725
 20
53.53465909477818
 30
0.0
 10
201.1499442013544
 20
53.56654979007772
 30
0.0
  0
LINE
  5
21C
330
1F
100
AcDbEntity
  8
0
  6
Continuous
 62
     7
370
    25
100
AcDbLine
 10
201.1603109072
 20
54.1684198681
 30
0.0
 11
201.1639105115
 21
54.0327836073
 31
0.0
  0
LINE
  5
21D
330
1F
100
AcDbEntity
  8
0
  6
Continuous
 62
     7
370
    25
100
AcDbLine
 10
201.2589819479
 20
53.2765909696
 30
0.0
 11
201.2044030962
 21
53.3713075831
 31
0.0
  0
LWPOLYLINE
  5
21E
330
1F
100
AcDbEntity
  8
0
  6
Continuous
 62
     7
370
    25
100
AcDbPolyline
 90
       11
 70
   128
 43
0.0
 10
272.5653745552
 20
33.8285064212
 10
272.6784664036
 20
34.2129150291
 10
272.9733165362
 20
34.9250022093
 10
273.3651920067
 20
35.6037506227
 10
273.8344431642
 20
36.2151254099
 10
274.3575395549
 20
36.7284695769
 10
274.9082506924
 20
37.1180418247
 10
275.4589618299
 20
37.3643071221
 10
275.9820582206
 20
37.4549171923
 10
276.4513093781
 20
37.3853282592
 10
276.6581081587
 20
37.2913198239
  0
LWPOLYLINE
  5
21F
330
1F
100
AcDbEntity
  8
0
  6
Continuous
 62
     7
370
    25
100
AcDbPolyline
 90
       19
 70
   128
 43
0.0
 10
276.3578191071
 20
32.2395388291
 10
276.4196524851
 20
32.6801809205
 10
276.5976946026
 20
33.1390663539
 10
276.8704716404
 20
33.5608471856
 10
277.2050813976
 20
33.8946497767
 10
277.5611662912
 20
34.1002132103
 10
277.8957760485
 20
34.1527428215
 10
278.1685530862
 20
34.0459036539
 10
278.3465952038
 20
33.7925812739
 10
278.4084285818
 20
33.4233304812
 10
278.3465952038
 20
32.9826883898
 10
278.1685530862
 20
32.5238029564
 10
277.8957760485
 20
32.1020221247
 10
277.5611662912
 20
31.7682195336
 10
277.2050813976
 20
31.5626561
 10
276.8704716404
 20
31.5101264888
 10
276.5976946026
 20
31.6169656564
 10
276.4196524851
 20
31.8702880364
 10
276.3578191071
 20
32.2395388291
  0
SPLINE
  5
220
330
1F
100
AcDbEntity
  8
0
  6
Continuous
 62
     7
370
    25
100
AcDbSpline
210
0.0
220
0.0
230
1.0
 70
     8
 71
     3
 72
    10
 73
     6
 74
     0
 42
0.000000001
 43
0.00000001
 40
0.0
 40
0.0
 40
0.0
 40
0.0
 40
0.2693781539236057
 40
0.9660839691629729
 40
1.0
 40
1.0
 40
1.0
 40
1.0
 10
276.4945566545214
 20
31.73459567830966
 30
0.0
 10
276.4748774898854
 20
31.79563016040302
 30
0.0
 10
276.4043011450541
 20
32.01452109070946
 30
0.0
 10
276.3370726488811
 20
32.26047102109094
 30
0.0
 10
276.3599774483013
 20
32.39442457709023
 30
0.0
 10
276.3610407067949
 20
32.40064280470059
 30
0.0
  0
SPLINE
  5
221
330
1F
100
AcDbEntity
  8
0
  6
Continuous
 62
     7
370
    25
100
AcDbSpline
210
0.0
220
0.0
230
1.0
 70
     8
 71
     3
 72
    10
 73
     6
 74
     0
 42
0.000000001
 43
0.00000001
 40
0.0
 40
0.0
 40
0.0
 40
0.0
 40
0.4391262750442266
 40
0.7513750518811297
 40
1.0
 40
1.0
 40
1.0
 40
1.0
 10
277.3784406051566
 20
31.65556343204712
 30
0.0
 10
277.1913636146336
 20
31.70182611109797
 30
0.0
 10
276.8712621052309
 20
31.78098471500637
 30
0.0
 10
276.6025812875112
 20
31.78254049526886
 30
0.0
 10
276.527734743215
 20
31.74932118438588
 30
0.0
 10
276.4945566545214
 20
31.73459567830966
 30
0.0
  0
SPLINE
  5
222
330
1F
100
AcDbEntity
  8
0
  6
Continuous
 62
     7
370
    25
100
AcDbSpline
210
0.0
220
0.0
230
1.0
 70
     8
 71
     3
 72
    10
 73
     6
 74
     0
 42
0.000000001
 43
0.00000001
 40
0.0
 40
0.0
 40
0.0
 40
0.0
 40
0.4391259533105643
 40
0.7513753952999597
 40
1.0
 40
1.0
 40
1.0
 40
1.0
 10
278.2623238972473
 20
32.7551059853627
 30
0.0
 10
278.0752472340955
 20
32.63264277205713
 30
0.0
 10
277.7551459040161
 20
32.42309959973159
 30
0.0
 10
277.4864645613411
 20
32.00498353507341
 30
0.0
 10
277.4116184410411
 20
31.76288224578455
 30
0.0
 10
277.3784406051566
 20
31.65556343204712
 30
0.0
  0
SPLINE
  5
223
330
1F
100
AcDbEntity
  8
0
  6
Continuous
 62
     7
370
    25
100
AcDbSpline
210
0.0
220
0.0
230
1.0
 70
     8
 71
     3
 72
    11
 73
     7
 74
     0
 42
0.000000001
 43
0.00000001
 40
0.0
 40
0.0
 40
0.0
 40
0.0
 40
0.184242170012749
 40
0.5169671357221616
 40
0.8653134660992956
 40
1.0
 40
1.0
 40
1.0
 40
1.0
 10
278.2623238972473
 20
33.93368116511046
 30
0.0
 10
278.2348414141461
 20
33.8812005577135
 30
0.0
 10
278.1577280118756
 20
33.73394464292981
 30
0.0
 10
278.1002724102373
 20
33.40995560745087
 30
0.0
 10
278.1688810384052
 20
33.03724834481254
 30
0.0
 10
278.2419497681325
 20
32.81662384698873
 30
0.0
 10
278.2623238972473
 20
32.7551059853627
 30
0.0
  0
SPLINE
  5
224
330
1F
100
AcDbEntity
  8
0
  6
Continuous
 62
     7
370
    25
100
AcDbSpline
210
0.0
220
0.0
230
1.0
 70
     8
 71
     3
 72
    10
 73
     6
 74
     0
 42
0.000000001
 43
0.00000001
 40
0.0
 40
0.0
 40
0.0
 40
0.0
 40
0.4391259710793874
 40
0.7513754317737434
 40
1.0
 40
1.0
 40
1.0
 40
1.0
 10
277.3784406051566
 20
34.01271379154264
 30
0.0
 10
277.4444391529972
 20
34.03634777706794
 30
0.0
 10
277.557367311763
 20
34.07678718910032
 30
0.0
 10
277.9181590616996
 20
34.02205813027353
 30
0.0
 10
278.1566191635537
 20
33.96082473877724
 30
0.0
 10
278.2623238972473
 20
33.93368116511046
 30
0.0
  0
SPLINE
  5
225
330
1F
100
AcDbEntity
  8
0
  6
Continuous
 62
     7
370
    25
100
AcDbSpline
210
0.0
220
0.0
230
1.0
 70
     8
 71
     3
 72
     9
 73
     5
 74
     0
 42
0.000000001
 43
0.00000001
 40
0.0
 40
0.0
 40
0.0
 40
0.0
 40
0.3723144479594982
 40
1.0
 40
1.0
 40
1.0
 40
1.0
 10
276.4204960806092
 20
32.63214258188714
 30
0.0
 10
276.4820782518615
 20
32.74426998251619
 30
0.0
 10
276.6474819088775
 20
33.04543315585953
 30
0.0
 10
276.9327021275546
 20
33.27514344695108
 30
0.0
 10
277.1117307379681
 20
33.41932927782427
 30
0.0
  0
SPLINE
  5
226
330
1F
100
AcDbEntity
  8
0
  6
Continuous
 62
     7
370
    25
100
AcDbSpline
210
0.0
220
0.0
230
1.0
 70
     8
 71
     3
 72
     9
 73
     5
 74
     0
 42
0.000000001
 43
0.00000001
 40
0.0
 40
0.0
 40
0.0
 40
0.0
 40
0.4011294918046385
 40
1.0
 40
1.0
 40
1.0
 40
1.0
 10
277.1117307379681
 20
33.41932927782427
 30
0.0
 10
277.1004490540335
 20
33.46733700361766
 30
0.0
 10
277.0723242610052
 20
33.5870183702941
 30
0.0
 10
277.0689594995011
 20
33.69757137581406
 30
0.0
 10
277.0669444430692
 20
33.76377831041232
 30
0.0
  0
LINE
  5
227
330
1F
100
AcDbEntity
  8
0
  6
Continuous
 62
     7
370
    25
100
AcDbLine
 10
276.3836169296
 20
32.2298629156
 30
0.0
 11
277.3784406052
 21
31.655563432
 31
0.0
  0
LINE
  5
228
330
1F
100
AcDbEntity
  8
0
  6
Continuous
 62
     7
370
    25
100
AcDbLine
 10
277.111730738
 20
33.4193292778
 30
0.0
 11
278.2623238972
 21
32.7551059854
 31
0.0
  0
LINE
  5
229
330
1F
100
AcDbEntity
  8
0
  6
Continuous
 62
     7
370
    25
100
AcDbLine
 10
256.3646087008
 20
18.8808038209
 30
0.0
 11
256.3045257341
 21
18.9179575006
 31
0.0
  0
LWPOLYLINE
  5
22A
330
1F
100
AcDbEntity
  8
0
  6
Continuous
 62
     7
370
    25
100
AcDbPolyline
 90
       12
 70
   128
 43
0.0
 10
253.3414929653
 20
21.8099246696
 10
253.4035436631
 20
22.481686765
 10
253.5865834749
 20
23.1914056138
 10
253.8814336074
 20
23.903492794
 10
254.2733084195
 20
24.5822408272
 10
254.742559577
 20
25.1936156144
 10
255.2656559676
 20
25.7069597814
 10
255.8163671052
 20
26.0965320293
 10
256.3670782427
 20
26.3427973266
 10
256.8901746334
 20
26.4334073968
 10
257.3594257909
 20
26.3638184637
 10
257.56622523
 20
26.2698104085
  0
ARC
  5
22B
330
1F
100
AcDbEntity
  8
0
  6
Continuous
 62
     7
370
    25
100
AcDbCircle
 10
255.0512774048
 20
21.6182590752
 30
0.0
 40
1.720493687750631
100
AcDbArc
 50
173.6038872318
 51
235.0839838925
  0
LWPOLYLINE
  5
22C
330
1F
100
AcDbEntity
  8
0
  6
Continuous
 62
     7
370
    25
100
AcDbPolyline
 90
       19
 70
   128
 43
0.0
 10
257.2659361783
 20
21.2180294138
 10
257.3277695564
 20
21.6586715052
 10
257.5058116739
 20
22.1175569386
 10
257.7785887117
 20
22.5393377702
 10
258.1131984689
 20
22.8731403614
 10
258.4692833625
 20
23.0787037949
 10
258.8038931198
 20
23.1312334062
 10
259.0766701575
 20
23.0243942386
 10
259.254712275
 20
22.7710718585
 10
259.3165456531
 20
22.4018210658
 10
259.254712275
 20
21.9611789745
 10
259.0766701575
 20
21.502293541
 10
258.8038931198
 20
21.0805127094
 10
258.4692833625
 20
20.7467101182
 10
258.1131984689
 20
20.5411466847
 10
257.7785887117
 20
20.4886170735
 10
257.5058116739
 20
20.595456241
 10
257.3277695564
 20
20.8487786211
 10
257.2659361783
 20
21.2180294138
  0
SPLINE
  5
22D
330
1F
100
AcDbEntity
  8
0
  6
Continuous
 62
     7
370
    25
100
AcDbSpline
210
0.0
220
0.0
230
1.0
 70
     8
 71
     3
 72
    10
 73
     6
 74
     0
 42
0.000000001
 43
0.00000001
 40
0.0
 40
0.0
 40
0.0
 40
0.0
 40
0.2693781539236057
 40
0.9660839691629729
 40
1.0
 40
1.0
 40
1.0
 40
1.0
 10
257.4026737258036
 20
20.71308626298518
 30
0.0
 10
257.3829945611677
 20
20.77412074507855
 30
0.0
 10
257.3124182163364
 20
20.99301167538498
 30
0.0
 10
257.2451897201633
 20
21.23896160576645
 30
0.0
 10
257.2680945195835
 20
21.37291516176575
 30
0.0
 10
257.2691577780771
 20
21.37913338937611
 30
0.0
  0
SPLINE
  5
22E
330
1F
100
AcDbEntity
  8
0
  6
Continuous
 62
     7
370
    25
100
AcDbSpline
210
0.0
220
0.0
230
1.0
 70
     8
 71
     3
 72
    10
 73
     6
 74
     0
 42
0.000000001
 43
0.00000001
 40
0.0
 40
0.0
 40
0.0
 40
0.0
 40
0.4391259710793874
 40
0.7513754317737434
 40
1.0
 40
1.0
 40
1.0
 40
1.0
 10
258.2865570178943
 20
20.63405363655299
 30
0.0
 10
258.099480353168
 20
20.68031656010827
 30
0.0
 10
257.7793790178085
 20
20.7594756771972
 30
0.0
 10
257.5106977020964
 20
20.76103051419133
 30
0.0
 10
257.4358515652199
 20
20.72781157418038
 30
0.0
 10
257.4026737258036
 20
20.71308626298518
 30
0.0
  0
SPLINE
  5
22F
330
1F
100
AcDbEntity
  8
0
  6
Continuous
 62
     7
370
    25
100
AcDbSpline
210
0.0
220
0.0
230
1.0
 70
     8
 71
     3
 72
    10
 73
     6
 74
     0
 42
0.000000001
 43
0.00000001
 40
0.0
 40
0.0
 40
0.0
 40
0.0
 40
0.4391262572754708
 40
0.7513750154074144
 40
1.0
 40
1.0
 40
1.0
 40
1.0
 10
259.1704409685295
 20
21.73359657003821
 30
0.0
 10
258.983363979581
 20
21.61113332934105
 30
0.0
 10
258.6632624754586
 20
21.40159036113736
 30
0.0
 10
258.3945816307758
 20
20.98347352915507
 30
0.0
 10
258.3197351030561
 20
20.74137253957642
 30
0.0
 10
258.2865570178943
 20
20.63405363655299
 30
0.0
  0
SPLINE
  5
230
330
1F
100
AcDbEntity
  8
0
  6
Continuous
 62
     7
370
    25
100
AcDbSpline
210
0.0
220
0.0
230
1.0
 70
     8
 71
     3
 72
    11
 73
     7
 74
     0
 42
0.000000001
 43
0.00000001
 40
0.0
 40
0.0
 40
0.0
 40
0.0
 40
0.184242170012749
 40
0.5169671357221616
 40
0.8653134660992956
 40
1.0
 40
1.0
 40
1.0
 40
1.0
 10
259.1704409685295
 20
22.91217174978597
 30
0.0
 10
259.1429584854283
 20
22.85969114238902
 30
0.0
 10
259.0658450831578
 20
22.71243522760533
 30
0.0
 10
259.0083894815195
 20
22.38844619212639
 30
0.0
 10
259.0769981096875
 20
22.01573892948806
 30
0.0
 10
259.1500668394147
 20
21.79511443166426
 30
0.0
 10
259.1704409685295
 20
21.73359657003821
 30
0.0
  0
SPLINE
  5
231
330
1F
100
AcDbEntity
  8
0
  6
Continuous
 62
     7
370
    25
100
AcDbSpline
210
0.0
220
0.0
230
1.0
 70
     8
 71
     3
 72
    10
 73
     6
 74
     0
 42
0.000000001
 43
0.00000001
 40
0.0
 40
0.0
 40
0.0
 40
0.0
 40
0.4391262750442266
 40
0.7513750518811297
 40
1.0
 40
1.0
 40
1.0
 40
1.0
 10
258.2865570178943
 20
22.99120399604851
 30
0.0
 10
258.3525558012294
 20
23.01483827820865
 30
0.0
 10
258.4654842276767
 20
23.0552781493652
 30
0.0
 10
258.8262758252246
 20
23.00054794775732
 30
0.0
 10
259.0647359887134
 20
22.93931512675052
 30
0.0
 10
259.1704409685295
 20
22.91217174978597
 30
0.0
  0
SPLINE
  5
232
330
1F
100
AcDbEntity
  8
0
  6
Continuous
 62
     7
370
    25
100
AcDbSpline
210
0.0
220
0.0
230
1.0
 70
     8
 71
     3
 72
     9
 73
     5
 74
     0
 42
0.000000001
 43
0.00000001
 40
0.0
 40
0.0
 40
0.0
 40
0.0
 40
0.3723144479594982
 40
1.0
 40
1.0
 40
1.0
 40
1.0
 10
257.3286131518914
 20
21.61063316656266
 30
0.0
 10
257.3901953231437
 20
21.72276056719172
 30
0.0
 10
257.5555989801597
 20
22.02392374053505
 30
0.0
 10
257.8408191988368
 20
22.25363403162661
 30
0.0
 10
258.0198478092503
 20
22.39781986249979
 30
0.0
  0
SPLINE
  5
233
330
1F
100
AcDbEntity
  8
0
  6
Continuous
 62
     7
370
    25
100
AcDbSpline
210
0.0
220
0.0
230
1.0
 70
     8
 71
     3
 72
     9
 73
     5
 74
     0
 42
0.000000001
 43
0.00000001
 40
0.0
 40
0.0
 40
0.0
 40
0.0
 40
0.4011294918046385
 40
1.0
 40
1.0
 40
1.0
 40
1.0
 10
258.0198478092503
 20
22.39781986249979
 30
0.0
 10
258.0085661253158
 20
22.4458275882932
 30
0.0
 10
257.9804413322875
 20
22.56550895496962
 30
0.0
 10
257.9770765707834
 20
22.67606196048958
 30
0.0
 10
257.9750615143515
 20
22.74226889508785
 30
0.0
  0
LINE
  5
234
330
1F
100
AcDbEntity
  8
0
  6
Continuous
 62
     7
370
    25
100
AcDbLine
 10
257.2917333424
 20
21.2083531201
 30
0.0
 11
258.2865570179
 21
20.6340536366
 31
0.0
  0
LINE
  5
235
330
1F
100
AcDbEntity
  8
0
  6
Continuous
 62
     7
370
    25
100
AcDbLine
 10
258.0198478093
 20
22.3978198625
 30
0.0
 11
259.1704409685
 21
21.73359657
 31
0.0
  0
LWPOLYLINE
  5
236
330
1F
100
AcDbEntity
  8
0
  6
Continuous
 62
     7
370
    25
100
AcDbPolyline
 90
       21
 70
   128
 43
0.0
 10
278.6151131049
 20
28.0267285679
 10
278.4183623964
 20
28.1263034092
 10
277.8398043751
 20
28.2864311433
 10
277.1972529498
 20
28.2896000181
 10
276.5091933824
 20
28.1357185169
 10
275.79541971
 20
27.8292138134
 10
275.0764659677
 20
27.3789034253
 10
274.3730151039
 20
26.7977418222
 10
273.7053042326
 20
26.1024478069
 10
273.0925420681
 20
25.3130240997
 10
272.5523567767
 20
24.4521807937
 10
272.1002880332
 20
23.5446828059
 10
271.7493417624
 20
22.6166373181
 10
271.5096137807
 20
21.6947424745
 10
271.3880003665
 20
20.8055193418
 10
271.3880003665
 20
19.9745493732
 10
271.5096137807
 20
19.2257380999
 10
271.7493417624
 20
18.5806272923
 10
272.1002880332
 20
18.057775744
 10
272.5523567767
 20
17.6722252175
 10
272.6156007571
 20
17.6341421457
  0
LINE
  5
237
330
1F
100
AcDbEntity
  8
0
  6
Continuous
 62
     7
370
    25
100
AcDbLine
 10
281.2722121077
 20
22.8982842334
 30
0.0
 11
278.7722360622
 21
19.7883378523
 31
0.0
  0
LINE
  5
238
330
1F
100
AcDbEntity
  8
0
  6
Continuous
 62
     7
370
    25
100
AcDbLine
 10
278.7722360622
 20
19.7883378523
 30
0.0
 11
278.7722360622
 21
16.4548559931
 31
0.0
  0
LINE
  5
239
330
1F
100
AcDbEntity
  8
0
  6
Continuous
 62
     7
370
    25
100
AcDbLine
 10
281.2722121077
 20
16.231320515
 30
0.0
 11
278.7722360622
 21
16.4548559931
 31
0.0
  0
LINE
  5
23A
330
1F
100
AcDbEntity
  8
0
  6
Continuous
 62
     7
370
    25
100
AcDbLine
 10
283.7721881532
 20
19.3412668962
 30
0.0
 11
281.2722121077
 21
16.231320515
 31
0.0
  0
LINE
  5
23B
330
1F
100
AcDbEntity
  8
0
  6
Continuous
 62
     7
370
    25
100
AcDbLine
 10
283.7721881532
 20
19.3412668962
 30
0.0
 11
283.7721881532
 21
22.6747487554
 31
0.0
  0
LINE
  5
23C
330
1F
100
AcDbEntity
  8
0
  6
Continuous
 62
     7
370
    25
100
AcDbLine
 10
281.2722121077
 20
22.8982842334
 30
0.0
 11
283.7721881532
 21
22.6747487554
 31
0.0
  0
ARC
  5
23D
330
1F
100
AcDbEntity
  8
0
  6
Continuous
 62
     7
370
    25
100
AcDbCircle
 10
275.4587002148
 20
22.9271767235
 30
0.0
 40
5.49930623254259
100
AcDbArc
 50
320.36379399
 51
355.3911953877
  0
ARC
  5
23E
330
1F
100
AcDbEntity
  8
0
  6
Continuous
 62
     7
370
    25
100
AcDbCircle
 10
275.8278238121
 20
22.4833429607
 30
0.0
 40
4.933060165462979
100
AcDbArc
 50
306.6462894478
 51
321.5989108827
  0
LINE
  5
23F
330
1F
100
AcDbEntity
  8
0
  6
Continuous
 62
     7
370
    25
100
AcDbLine
 10
278.7722349098
 20
17.6745266319
 30
0.0
 11
281.2722121077
 21
16.231320515
 31
0.0
  0
LINE
  5
240
330
1F
100
AcDbEntity
  8
0
  6
Continuous
 62
     7
370
    25
100
AcDbLine
 10
280.9437605648
 20
20.9740833875
 30
0.0
 11
283.7721881532
 21
19.3412668962
 31
0.0
  0
LINE
  5
241
330
1F
100
AcDbEntity
  8
0
  6
Continuous
 62
     7
370
    25
100
AcDbLine
 10
280.9437605648
 20
20.9740833875
 30
0.0
 11
280.9437605648
 21
22.4896945442
 31
0.0
  0
LINE
  5
242
330
1F
100
AcDbEntity
  8
0
  6
Continuous
 62
     7
370
    25
100
AcDbLine
 10
279.6937725421
 20
19.4191101018
 30
0.0
 11
278.7722356095
 21
18.2727268765
 31
0.0
  0
LINE
  5
243
330
1F
100
AcDbEntity
  8
0
  6
Continuous
 62
     7
370
    25
100
AcDbLine
 10
280.9437605648
 20
20.9740833875
 30
0.0
 11
279.6937725421
 21
19.4191101018
 31
0.0
  0
LWPOLYLINE
  5
244
330
1F
100
AcDbEntity
  8
0
  6
Continuous
 62
     7
370
    18
100
AcDbPolyline
 90
       33
 70
   128
 43
0.0
 10
252.9879401753
 20
21.6058229883
 10
253.0475265995
 20
23.0408338768
 10
253.2257103041
 20
24.5308209976
 10
253.5207764393
 20
26.0614353373
 10
253.9298827269
 20
27.6179359697
 10
254.4490897537
 20
29.1853335902
 10
255.0733971913
 20
30.7485323389
 10
255.7967925282
 20
32.2924794172
 10
256.6123090222
 20
33.8023034862
 10
257.5120922129
 20
35.2634656126
 10
258.4874782887
 20
36.6618942436
 10
259.5290717952
 20
37.9841205618
 10
260.6268430995
 20
39.2174115573
 10
261.7702192695
 20
40.3498894115
 10
262.9481892765
 20
41.3706485038
 10
264.1494087033
 20
42.2698576839
 10
265.3623088988
 20
43.038858266
 10
266.5752090942
 20
43.6702424415
 10
267.7764285211
 20
44.1579316908
 10
268.954398528
 20
44.4972278189
 10
270.0977746981
 20
44.6848639911
 10
271.1955460024
 20
44.719032765
 10
272.2371395089
 20
44.5994047113
 10
273.2125255847
 20
44.3271328725
 10
274.1123087754
 20
43.9048383052
 10
274.9278252694
 20
43.3365895382
 10
275.6512206063
 20
42.6278569379
 10
276.2755280439
 20
41.7854682137
 10
276.7947350707
 20
40.8175342664
 10
277.2038413583
 20
39.7333776996
 10
277.4989074935
 20
38.5434394681
 10
277.6770911981
 20
37.2591788736
 10
277.7173664631
 20
36.679823285
  0
LWPOLYLINE
  5
245
330
1F
100
AcDbEntity
  8
0
  6
Continuous
 62
     7
370
    18
100
AcDbPolyline
 90
       21
 70
   128
 43
0.0
 10
269.1454574363
 20
17.3280742297
 10
268.954398528
 20
17.1488985829
 10
267.7764285211
 20
16.1281394905
 10
266.5752090942
 20
15.2289303105
 10
265.3623088988
 20
14.4599297283
 10
264.1494087033
 20
13.8285455529
 10
262.9481892765
 20
13.3408563036
 10
261.7702192695
 20
13.0015601755
 10
260.6268430995
 20
12.8139240032
 10
259.5290717952
 20
12.7797552294
 10
258.4874782887
 20
12.8993832831
 10
257.5120922129
 20
13.1716551218
 10
256.6123090222
 20
13.5939496892
 10
255.7967925282
 20
14.1621984562
 10
255.0733971913
 20
14.8709310564
 10
254.4490897537
 20
15.7133197807
 10
253.9298827269
 20
16.681253728
 10
253.5207764393
 20
17.7654102948
 10
253.2257103041
 20
18.9553485263
 10
253.0475265995
 20
20.2396091208
 10
252.9879401753
 20
21.6058229883
  0
LWPOLYLINE
  5
246
330
1F
100
AcDbEntity
  8
0
  6
Continuous
 62
     7
370
    18
100
AcDbPolyline
 90
       23
 70
   128
 43
0.0
 10
252.2808332783
 20
21.6058237487
 10
252.340251115
 20
23.0586609488
 10
252.5179527651
 20
24.5665373389
 10
252.812276062
 20
26.1153728194
 10
253.2204761924
 20
27.6907079212
 10
253.7387388664
 20
29.2778327982
 10
254.3622283916
 20
30.8619299044
 10
255.0851206006
 20
32.4282080227
 10
255.9006667291
 20
33.9620440849
 10
256.8012533441
 20
35.4491166276
 10
257.7784708322
 20
36.8755411478
 10
258.8231957178
 20
38.2279989943
 10
259.9256736397
 20
39.4938643563
 10
261.0756105594
 20
40.6613162338
 10
262.2622703904
 20
41.7194571554
 10
263.474573286
 20
42.6584033789
 10
264.701200533
 20
43.469392594
 10
265.9306993222
 20
44.1448489677
 10
267.1515901321
 20
44.6784694704
 10
268.3524737012
 20
45.0652688999
 10
269.5221383095
 20
45.30163725
 10
270.6496619961
 20
45.3853683022
 10
271.5621439005
 20
45.3364754124
  0
ARC
  5
247
330
1F
100
AcDbEntity
  8
0
  6
Continuous
 62
     7
370
    18
100
AcDbCircle
 10
263.0950881041
 20
21.1032298446
 30
0.0
 40
10.8259275847323
100
AcDbArc
 50
177.3390858718
 51
213.5114926343
  0
LWPOLYLINE
  5
248
330
1F
100
AcDbEntity
  8
0
  6
Continuous
 62
     7
370
    18
100
AcDbPolyline
 90
       23
 70
   128
 43
0.0
 10
223.7670559507
 20
38.066477025
 10
223.8264737875
 20
39.5193142252
 10
224.0041754375
 20
41.0271906153
 10
224.2984987345
 20
42.5760260958
 10
224.7066988648
 20
44.1513611976
 10
225.2249615388
 20
45.7384860746
 10
225.8484510641
 20
47.3225831808
 10
226.571343273
 20
48.8888612991
 10
227.3868894015
 20
50.4226973613
 10
228.2874760165
 20
51.9097699039
 10
229.2646935046
 20
53.3361944242
 10
230.3094183903
 20
54.6886522706
 10
231.4118963122
 20
55.9545176326
 10
232.5618332318
 20
57.1219695102
 10
233.7484930628
 20
58.1801104318
 10
234.9607959584
 20
59.1190566553
 10
236.1874232054
 20
59.9300458704
 10
237.4169219946
 20
60.605502244
 10
238.6378128045
 20
61.1391227468
 10
239.8386963737
 20
61.5259221762
 10
241.0083609819
 20
61.7622905264
 10
242.1358846685
 20
61.8460215785
 10
243.048366573
 20
61.7971286887
  0
ARC
  5
249
330
1F
100
AcDbEntity
  8
0
  6
Continuous
 62
     7
370
    18
100
AcDbCircle
 10
234.5813107765
 20
37.5638831209
 30
0.0
 40
10.82592758473126
100
AcDbArc
 50
177.3390858718
 51
213.5114926343
  0
LWPOLYLINE
  5
24A
330
1F
100
AcDbEntity
  8
0
  6
Continuous
 62
     7
370
    18
100
AcDbPolyline
 90
       22
 70
   128
 43
0.0
 10
268.5442909235
 20
20.7894141724
 10
268.6035243678
 20
21.7363521207
 10
268.7799016849
 20
22.7305266364
 10
269.0694828028
 20
23.749729436
 10
269.465798839
 20
24.7711931526
 10
269.9599969796
 20
25.7720999773
 10
270.5410377137
 20
26.7300912457
 10
271.1959412937
 20
27.623767324
 10
271.910078318
 20
28.4331648677
 10
272.6674962046
 20
29.1402030869
 10
273.4512755042
 20
29.7290879231
 10
274.2439078235
 20
30.1866648213
 10
275.0276871232
 20
30.5027123024
 10
275.7851050097
 20
30.6701701608
 10
276.4992420341
 20
30.6852976749
 10
277.1541456141
 20
30.5477571753
 10
277.7351863482
 20
30.2606212589
 10
278.2293844888
 20
29.830303462
 10
278.6257005249
 20
29.266416501
 10
278.9152816429
 20
28.5815569435
 10
279.0916589599
 20
27.7910233434
 10
279.0975305428
 20
27.7482346825
  0
LWPOLYLINE
  5
24B
330
1F
100
AcDbEntity
  8
0
  6
Continuous
 62
     7
370
    18
100
AcDbPolyline
 90
       11
 70
   128
 43
0.0
 10
273.0980182772
 20
17.3556483079
 10
272.6674962046
 20
17.1991767443
 10
271.910078318
 20
17.0317188859
 10
271.1959412937
 20
17.0165913717
 10
270.5410377137
 20
17.1541318714
 10
269.9599969796
 20
17.4412677877
 10
269.465798839
 20
17.8715855847
 10
269.0694828028
 20
18.4354725457
 10
268.7799016849
 20
19.1203321031
 10
268.6035243678
 20
19.9108657033
 10
268.5442909235
 20
20.7894141724
  0
LWPOLYLINE
  5
24C
330
1F
100
AcDbEntity
  8
0
  6
Continuous
 62
     7
370
    18
100
AcDbPolyline
 90
       17
 70
   128
 43
0.0
 10
267.8371830386
 20
20.7894143625
 10
267.8974662029
 20
21.7753294526
 10
268.077030546
 20
22.8098328225
 10
268.3720489367
 20
23.87087559
 10
268.776233592
 20
24.9358438898
 10
269.2809697617
 20
25.9820390932
 10
269.8755004508
 20
26.9871639166
 10
270.5471539458
 20
27.9297961687
 10
271.2816151354
 20
28.7898444323
 10
272.063230252
 20
29.5489787431
 10
272.8753405892
 20
30.1910194396
 10
273.7006373129
 20
30.7022830579
 10
274.5215307199
 20
31.071871926
 10
275.3205249084
 20
31.2919090879
 10
276.0805908024
 20
31.3577057371
 10
276.7855286185
 20
31.267858296
 10
277.3806075459
 20
31.045139874
  0
LWPOLYLINE
  5
24D
330
1F
100
AcDbEntity
  8
0
  6
Continuous
 62
     7
370
    18
100
AcDbPolyline
 90
        7
 70
   128
 43
0.0
 10
269.5247547068
 20
17.1093757016
 10
269.2809697617
 20
17.2637503001
 10
268.776233592
 20
17.7271895261
 10
268.3720489367
 20
18.3254961562
 10
268.077030546
 20
19.0459179402
 10
267.8974662029
 20
19.8731007324
 10
267.8371830386
 20
20.7894143625
  0
LWPOLYLINE
  5
24E
330
1F
100
AcDbEntity
  8
0
  6
Continuous
 62
     7
370
    18
100
AcDbPolyline
 90
       14
 70
   128
 43
0.0
 10
270.4888345612
 20
21.9119753201
 10
270.5495316207
 20
22.6810389596
 10
270.7294291874
 20
23.4923860788
 10
271.0220254514
 20
24.3166924128
 10
271.4167446818
 20
25.1241653487
 10
271.8993213228
 20
25.885620895
 10
272.4523134938
 20
26.5735378253
 10
273.0557346161
 20
27.1630533025
 10
273.6877755579
 20
27.632860567
 10
274.3255926553
 20
27.9659790635
 10
274.9461335476
 20
28.1503701599
 10
275.5269702152
 20
28.1793682399
 10
276.0471099057
 20
28.0519262147
 10
276.1550234539
 20
28.00142487
  0
ARC
  5
24F
330
1F
100
AcDbEntity
  8
0
  6
Continuous
 62
     7
370
    18
100
AcDbCircle
 10
272.911531674
 20
21.6893086962
 30
0.0
 40
2.432908079953708
100
AcDbArc
 50
174.748779766
 51
231.8080158814
  0
LWPOLYLINE
  5
250
330
1F
100
AcDbEntity
  8
0
  6
Continuous
 62
     7
370
    18
100
AcDbPolyline
 90
        3
 70
   128
 43
0.0
 10
259.518896624
 20
25.4553216634
 10
259.5776750141
 20
26.4382782188
 10
259.7198765053
 20
27.3153157585
  0
LWPOLYLINE
  5
251
330
1F
100
AcDbEntity
  8
0
  6
Continuous
 62
     7
370
    18
100
AcDbPolyline
 90
       10
 70
   128
 43
0.0
 10
264.458464958
 20
34.9052475336
 10
264.4718274023
 20
34.9151987903
 10
265.2936622193
 20
35.4575090468
 10
266.1154970362
 20
35.8640690727
 10
266.9206016946
 20
36.126600993
 10
267.6925865856
 20
36.2397608143
 10
268.4157361208
 20
36.201245381
 10
269.075329361
 20
36.0118386858
 10
269.6579390774
 20
35.6753959194
 10
270.1215590208
 20
35.2349637935
  0
ARC
  5
252
330
1F
100
AcDbEntity
  8
0
  6
Continuous
 62
     7
370
    18
100
AcDbCircle
 10
262.6019026067
 20
24.1247785201
 30
0.0
 40
2.781132613258579
100
AcDbArc
 50
221.7522568886
 51
260.1462521833
  0
LINE
  5
253
330
1F
100
AcDbEntity
  8
0
  6
Continuous
 62
     7
370
    18
100
AcDbLine
 10
259.525568997
 20
25.1387053782
 30
0.0
 11
259.518896624
 21
25.4553216634
 31
0.0
  0
ARC
  5
254
330
1F
100
AcDbEntity
  8
0
  6
Continuous
 62
     7
370
    18
100
AcDbCircle
 10
272.3866999492
 20
24.7263312074
 30
0.0
 40
12.12887549355719
100
AcDbArc
 50
126.4954438059
 51
177.327817072
  0
LWPOLYLINE
  5
255
330
1F
100
AcDbEntity
  8
0
  6
Continuous
 62
     7
370
    18
100
AcDbPolyline
 90
       17
 70
   128
 43
0.0
 10
259.9706219366
 20
25.4735549801
 10
260.0295863655
 20
26.4379031812
 10
260.2052224906
 20
27.4497765897
 10
260.4937874744
 20
28.4876091144
 10
260.8891305111
 20
29.5292810829
 10
261.3828258529
 20
30.5525910014
 10
261.9643509465
 20
31.5357286409
 10
262.6213119842
 20
32.4577406093
 10
263.3397069927
 20
33.298975578
 10
264.1042243183
 20
34.0415041243
 10
264.8985696765
 20
34.6695003104
 10
265.7058130405
 20
35.1695792017
 10
266.508749441
 20
35.5310834795
 10
267.2902656114
 20
35.7463076482
 10
268.0337049029
 20
35.8106645903
 10
268.7232224054
 20
35.7227829669
 10
269.3145476291
 20
35.5001455061
  0
ARC
  5
256
330
1F
100
AcDbEntity
  8
0
  6
Continuous
 62
     7
370
    18
100
AcDbCircle
 10
263.0158001142
 20
24.3110089075
 30
0.0
 40
2.808684373166778
100
AcDbArc
 50
211.5121895322
 51
237.8238908428
  0
LINE
  5
257
330
1F
100
AcDbEntity
  8
0
  6
Continuous
 62
     7
370
    18
100
AcDbLine
 10
259.992183013
 20
24.922489559
 30
0.0
 11
259.9706219366
 21
25.4735549801
 31
0.0
  0
LWPOLYLINE
  5
258
330
1F
100
AcDbEntity
  8
0
  6
Continuous
 62
     7
370
    18
100
AcDbPolyline
 90
       22
 70
   128
 43
0.0
 10
219.7362452873
 20
44.4754541983
 10
219.7961636179
 20
45.7200666308
 10
219.9751382345
 20
47.0176343223
 10
220.2708345967
 20
48.3512404246
 10
220.6793989022
 20
49.7035005473
 10
221.1955048429
 20
51.056785569
 10
221.8124234111
 20
52.3934526216
 10
222.5221131198
 20
53.6960772129
 10
223.3153214185
 20
54.9476771737
 10
224.1817078416
 20
56.131936222
 10
225.1099776921
 20
57.2334153592
 10
226.0880295561
 20
58.2377551396
 10
227.1031130241
 20
59.1318625393
 10
228.1419949736
 20
59.9040822347
 10
229.1911319428
 20
60.5443455419
 10
230.2368468678
 20
61.0443074266
 10
231.265507301
 20
61.3974486263
 10
232.2637028891
 20
61.5991666996
 10
233.2184208748
 20
61.646830953
 10
234.1172149317
 20
61.5398205909
 10
234.9483679064
 20
61.279530451
 10
235.144794611
 20
61.1906215123
  0
LWPOLYLINE
  5
259
330
1F
100
AcDbEntity
  8
0
  6
Continuous
 62
     7
370
    18
100
AcDbPolyline
 90
        8
 70
   128
 43
0.0
 10
222.4291621966
 20
38.5234717756
 10
221.8124234111
 20
38.9545600129
 10
221.1955048429
 20
39.5789480479
 10
220.6793989022
 20
40.3363498342
 10
220.2708345967
 20
41.2168916505
 10
219.9751382345
 20
42.209094
 10
219.7961636179
 20
43.3000219977
 10
219.7362452873
 20
44.4754541983
  0
LINE
  5
25A
330
1F
100
AcDbEntity
  8
0
  6
Continuous
 62
     7
370
    18
100
AcDbLine
 10
218.1239439393
 20
47.62733006
 30
0.0
 11
218.2117200197
 21
47.9957786421
 31
0.0
  0
LWPOLYLINE
  5
25B
330
1F
100
AcDbEntity
  8
0
  6
Continuous
 62
     7
370
    18
100
AcDbPolyline
 90
        9
 70
   128
 43
0.0
 10
227.4495046365
 20
61.8848476242
 10
228.2558201113
 20
62.4120717057
 10
229.3893978799
 20
63.0367654998
 10
230.514203671
 20
63.5208778101
 10
231.6181211712
 20
63.8591935207
 10
232.68925896
 20
64.0480691817
 10
233.7160783497
 20
64.0854687857
 10
234.6875184268
 20
63.9709903253
 10
235.5931152484
 20
63.7058661619
  0
LWPOLYLINE
  5
25C
330
1F
100
AcDbEntity
  8
0
  6
Continuous
 62
     7
370
    18
100
AcDbPolyline
 90
       20
 70
   128
 43
0.0
 10
217.6902614292
 20
47.6218924935
 10
218.0752913296
 20
49.0954923822
 10
218.5700143301
 20
50.5798957604
 10
219.1691541722
 20
52.0592740881
 10
219.8663223156
 20
53.5178540632
 10
220.654086427
 20
54.9400837762
 10
221.5240467711
 20
56.3107984843
 10
222.4669264314
 20
57.6153825807
 10
223.4726727262
 20
58.8399270019
 10
224.5305619165
 20
59.9713740854
 10
225.629313629
 20
60.9976589099
 10
226.7572128506
 20
61.9078405596
 10
227.9022332416
 20
62.6922128539
 10
229.0521660042
 20
63.3424137242
 10
230.1947499864
 20
63.8515094458
 10
231.317802485
 20
64.2140724313
 10
232.4093485681
 20
64.4262353533
 10
233.4577501077
 20
64.4857374972
 10
234.4518279816
 20
64.3919435945
 10
235.3809835744
 20
64.1458546485
  0
LWPOLYLINE
  5
25D
330
1F
100
AcDbEntity
  8
0
  6
Continuous
 62
     7
370
    18
100
AcDbPolyline
 90
       23
 70
   128
 43
0.0
 10
219.2412707228
 20
46.9088847463
 10
219.5273681403
 20
48.2777903455
 10
219.9294833194
 20
49.6686027396
 10
220.4424605151
 20
51.0634884168
 10
221.0597208679
 20
52.444559626
 10
221.7733506484
 20
53.7941078301
 10
222.5741974049
 20
55.0948280339
 10
223.4519931116
 20
56.3300404474
 10
224.3954815963
 20
57.4839070155
 10
225.3925647381
 20
58.5416314063
 10
226.4304567305
 20
59.4896507282
 10
227.4958489654
 20
60.3158075213
 10
228.5750801839
 20
61.0095103424
 10
229.6543114023
 20
61.5618613631
 10
230.7197036372
 20
61.9657802615
 10
231.7575956296
 20
62.2160855271
 10
232.7546787714
 20
62.3095688276
 10
233.6981672562
 20
62.245030877
 10
234.5759629628
 20
62.0232998139
 10
235.3768097194
 20
61.6472175937
 10
236.0904394998
 20
61.121608796
 10
236.7076998526
 20
60.4532112205
 10
236.7518256273
 20
60.3949487784
  0
ARC
  5
25E
330
1F
100
AcDbEntity
  8
0
  6
Continuous
 62
     7
370
    18
100
AcDbCircle
 10
232.6009341007
 20
57.8232826649
 30
0.0
 40
6.70130541878495
100
AcDbArc
 50
13.117112618
 51
49.5620710787
  0
LWPOLYLINE
  5
25F
330
1F
100
AcDbEntity
  8
0
  6
Continuous
 62
     7
370
    18
100
AcDbPolyline
 90
        9
 70
   128
 43
0.0
 10
223.6026476801
 20
37.705965768
 10
223.4519931116
 20
37.727387315
 10
222.5741974049
 20
37.9491183781
 10
221.7733506484
 20
38.3252005983
 10
221.0597208679
 20
38.850809396
 10
220.4424605151
 20
39.5192069715
 10
219.9294833194
 20
40.3218217854
 10
219.5273681403
 20
41.248361876
 10
219.2412707228
 20
42.286946428
  0
LWPOLYLINE
  5
260
330
1F
100
AcDbEntity
  8
0
  6
Continuous
 62
     7
370
    18
100
AcDbPolyline
 90
       24
 70
   128
 43
0.0
 10
208.3695038469
 20
48.7922120629
 10
208.4285305083
 20
50.1486187078
 10
208.6049868507
 20
51.5587990224
 10
208.897000632
 20
53.0078038129
 10
209.3014766932
 20
54.4802729697
 10
209.814128568
 20
55.960599345
 10
210.42952063
 20
57.4330901562
 10
211.1411306544
 20
58.8821363738
 10
211.9414150139
 20
60.292378496
 10
212.8218903382
 20
61.6488666183
 10
213.7732237344
 20
62.9372235446
 10
214.785330252
 20
64.1437900262
 10
215.8474818717
 20
65.2557774149
 10
216.9484191287
 20
66.2613982614
 10
218.0764721205
 20
67.1499924464
 10
219.2196830782
 20
67.9121420461
 10
220.3659337126
 20
68.53976538
 10
221.5030734662
 20
69.0262115817
 10
222.6190484224
 20
69.3663236101
 10
223.702028817
 20
69.5564958898
 10
224.7405347376
 20
69.5947134157
 10
225.7235582834
 20
69.4805705633
 10
226.6406783168
 20
69.2152764959
 10
227.3807960744
 20
68.8616956071
  0
LWPOLYLINE
  5
261
330
1F
100
AcDbEntity
  8
0
  6
Continuous
 62
     7
370
    18
100
AcDbPolyline
 90
        9
 70
   128
 43
0.0
 10
211.6320755851
 20
41.5811564867
 10
211.1411306544
 20
41.9023399488
 10
210.42952063
 20
42.5297787206
 10
209.814128568
 20
43.2917529808
 10
209.3014766932
 20
44.1801841003
 10
208.897000632
 20
45.1856551373
 10
208.6049868507
 20
46.2975079923
 10
208.4285305083
 20
47.5039561506
 10
208.3695038469
 20
48.7922120629
  0
LWPOLYLINE
  5
262
330
1F
100
AcDbEntity
  8
0
  6
Continuous
 62
     7
370
    18
100
AcDbPolyline
 90
       15
 70
   128
 43
0.0
 10
216.0380773087
 20
49.5541121447
 10
216.3979692482
 20
50.9489855702
 10
216.8706863254
 20
52.3550032589
 10
217.4502838592
 20
53.7544876681
 10
218.1294763717
 20
55.129844271
 10
218.8997238577
 20
56.4637809431
 10
219.7513430787
 20
57.7395265837
 10
220.6736261011
 20
58.9410425144
 10
221.6549779316
 20
60.0532228476
 10
222.6830609036
 20
61.0620843037
 10
223.7449491055
 20
61.9549420535
 10
224.8272919056
 20
62.7205725612
 10
225.916481634
 20
63.3493484076
 10
226.9988244341
 20
63.8333642974
 10
227.1841403404
 20
63.9018525428
  0
LWPOLYLINE
  5
263
330
1F
100
AcDbEntity
  8
0
  6
Continuous
 62
     7
370
    18
100
AcDbPolyline
 90
       17
 70
   128
 43
0.0
 10
215.6122591371
 20
50.2022571321
 10
216.0294095459
 20
51.6484495859
 10
216.5611117962
 20
53.0990697326
 10
217.2006441242
 20
54.5357765985
 10
217.9399189449
 20
55.9404027234
 10
218.7695888775
 20
57.2951883738
 10
219.6791636372
 20
58.5830037764
 10
220.6571420735
 20
59.787565268
 10
221.6911590254
 20
60.8936417471
 10
222.7681392564
 20
61.8872477218
 10
223.8744657124
 20
62.7558195317
 10
224.9961496321
 20
63.488375908
 10
226.119008066
 20
64.0756523928
 10
227.2288434941
 20
64.5102255626
 10
228.3116225387
 20
64.7865987063
 10
229.3536546359
 20
64.9012775934
 10
229.5035364024
 20
64.9043987279
  0
LINE
  5
264
330
1F
100
AcDbEntity
  8
0
  6
Continuous
 62
     7
370
    18
100
AcDbLine
 10
210.0191405321
 20
48.2546486327
 30
0.0
 11
211.8166496204
 21
49.2923285418
 31
0.0
  0
ARC
  5
265
330
1F
100
AcDbEntity
  8
0
  6
Continuous
 62
     7
370
    18
100
AcDbCircle
 10
223.6832615097
 20
41.5948838439
 30
0.0
 40
5.713053080821177
100
AcDbArc
 50
193.3219968363
 51
270.9523416452
  0
LINE
  5
266
330
1F
100
AcDbEntity
  8
0
  6
Continuous
 62
     7
370
    18
100
AcDbLine
 10
217.7640585853
 20
40.0410443163
 30
0.0
 11
217.6902614292
 21
40.2730255028
 31
0.0
  0
LWPOLYLINE
  5
267
330
1F
100
AcDbEntity
  8
0
  6
Continuous
 62
     7
370
    18
100
AcDbPolyline
 90
       17
 70
   128
 43
0.0
 10
201.1499447581
 20
61.0400209107
 10
201.5978426099
 20
62.3058400885
 10
202.1484207215
 20
63.5606168359
 10
202.7935177506
 20
64.7857513765
 10
203.5235713018
 20
65.963084944
 10
204.3277601717
 20
67.0751647896
 10
205.1941640462
 20
68.1055078581
 10
206.1099406488
 20
69.0388418375
 10
207.0615155662
 20
69.8613310941
 10
208.0347840922
 20
70.5607852102
 10
209.0153196568
 20
71.1268363429
 10
209.9885881828
 20
71.551094148
 10
210.9401631002
 20
71.8272699054
 10
211.8559397028
 20
71.9512690854
 10
212.7223435773
 20
71.9212546378
 10
213.5265324472
 20
71.7376714977
 10
214.0141197888
 20
71.5352374828
  0
ARC
  5
268
330
1F
100
AcDbEntity
  8
0
  6
Continuous
 62
     7
370
    18
100
AcDbCircle
 10
205.052140346
 20
55.3751291536
 30
0.0
 40
4.300940560710046
100
AcDbArc
 50
204.8666556743
 51
235.7640548478
  0
LINE
  5
269
330
1F
100
AcDbEntity
  8
0
  6
Continuous
 62
     7
370
    18
100
AcDbLine
 10
210.0191405321
 20
47.4381077821
 30
0.0
 11
211.8166496204
 21
48.4757876911
 31
0.0
  0
LINE
  5
26A
330
1F
100
AcDbEntity
  8
0
  6
Continuous
 62
     7
370
    18
100
AcDbLine
 10
213.3061992599
 20
42.8038907222
 30
0.0
 11
214.6450768795
 21
43.5768083199
 31
0.0
  0
LINE
  5
26B
330
1F
100
AcDbEntity
  8
0
  6
Continuous
 62
     7
370
    18
100
AcDbLine
 10
217.0111064538
 20
42.3223987456
 30
0.0
 11
216.8229655562
 21
42.8869410838
 31
0.0
  0
LWPOLYLINE
  5
26C
330
1F
100
AcDbEntity
  8
0
  6
Continuous
 62
     7
370
    18
100
AcDbPolyline
 90
        3
 70
   128
 43
0.0
 10
216.6646554077
 20
41.8361261146
 10
216.3979692482
 20
42.3606963875
 10
216.0380773087
 20
43.3400474244
  0
LWPOLYLINE
  5
26D
330
1F
100
AcDbEntity
  8
0
  6
Continuous
 62
     7
370
    18
100
AcDbPolyline
 90
        3
 70
   128
 43
0.0
 10
216.3866528193
 20
41.2938540976
 10
216.0189946645
 20
41.9086840601
 10
215.6122591371
 20
42.8533901415
  0
LINE
  5
26E
330
1F
100
AcDbEntity
  8
0
  6
Continuous
 62
     7
370
    18
100
AcDbLine
 10
232.3596254943
 20
65.8897417553
 30
0.0
 11
231.8186364493
 21
65.5774354273
 31
0.0
  0
ARC
  5
26F
330
1F
100
AcDbEntity
  8
0
  6
Continuous
 62
     7
370
    18
100
AcDbCircle
 10
204.9123838311
 20
59.5439299421
 30
0.0
 40
1.102097410650403
100
AcDbArc
 50
159.4112025223
 51
213.191486534
  0
ARC
  5
270
330
1F
100
AcDbEntity
  8
0
  6
Continuous
 62
     7
370
    18
100
AcDbCircle
 10
203.5805591738
 20
59.372432157
 30
0.0
 40
0.634523414876392
100
AcDbArc
 50
41.9991509505
 51
61.7717641965
  0
LINE
  5
271
330
1F
100
AcDbEntity
  8
0
  6
Continuous
 62
     7
370
    18
100
AcDbLine
 10
203.8806792443
 20
59.9314919994
 30
0.0
 11
203.9902261476
 21
60.3422898578
 31
0.0
  0
LINE
  5
272
330
1F
100
AcDbEntity
  8
0
  6
Continuous
 62
     7
370
    18
100
AcDbLine
 10
203.8806792443
 20
59.9314919994
 30
0.0
 11
203.0786345953
 21
60.3945025198
 31
0.0
  0
LINE
  5
273
330
1F
100
AcDbEntity
  8
0
  6
Continuous
 62
     7
370
    18
100
AcDbLine
 10
201.2044030962
 20
61.5559628352
 30
0.0
 11
201.1881666813
 21
61.7511014638
 31
0.0
  0
ARC
  5
274
330
1F
100
AcDbEntity
  8
0
  6
Continuous
 62
     7
370
    18
100
AcDbCircle
 10
203.6707155932
 20
51.2788701908
 30
0.0
 40
0.4314949854774635
100
AcDbArc
 50
27.885175929
 51
60.8829215863
  0
ARC
  5
275
330
1F
100
AcDbEntity
  8
0
  6
Continuous
 62
     7
370
    18
100
AcDbCircle
 10
205.1204142834
 20
52.0509309234
 30
0.0
 40
1.301169858631523
100
AcDbArc
 50
165.9701496118
 51
197.6767200264
  0
LINE
  5
276
330
1F
100
AcDbEntity
  8
0
  6
Continuous
 62
     7
370
    18
100
AcDbLine
 10
203.4889078238
 20
54.5647015987
 30
0.0
 11
202.1681770567
 21
55.3271432415
 31
0.0
  0
LINE
  5
277
330
1F
100
AcDbEntity
  8
0
  6
Continuous
 62
     7
370
    18
100
AcDbLine
 10
203.8806792443
 20
51.6558359554
 30
0.0
 11
203.0786345953
 21
52.1188464758
 31
0.0
  0
LINE
  5
278
330
1F
100
AcDbEntity
  8
0
  6
Continuous
 62
     7
370
    18
100
AcDbLine
 10
203.8806792443
 20
51.6558359554
 30
0.0
 11
203.9902261476
 21
51.3715182593
 31
0.0
  0
LWPOLYLINE
  5
279
330
1F
100
AcDbEntity
  8
0
  6
Continuous
 62
     7
370
    18
100
AcDbPolyline
 90
       20
 70
   128
 43
0.0
 10
275.1808933871
 20
32.3186002834
 10
275.3294695892
 20
32.836889569
 10
275.6226792874
 20
33.5209541308
 10
276.0107957859
 20
34.1678471063
 10
276.4728944915
 20
34.7426933495
 10
276.984063324
 20
35.2145031032
 10
277.5167461471
 20
35.557841089
 10
278.0422258103
 20
35.7541980534
 10
278.5321723876
 20
35.7929877794
 10
278.9601742927
 20
35.6721199512
 10
279.3031561263
 20
35.3981093384
 10
279.5426292512
 20
34.9857291922
 10
279.6656822438
 20
34.4572100287
 10
279.6656822438
 20
33.8410451137
 10
279.5426292512
 20
33.1704519891
 10
279.3031561263
 20
32.4815820581
 10
278.9601742927
 20
31.8115730493
 10
278.5321723876
 20
31.19654474
 10
278.0422258103
 20
30.6696541887
 10
277.9748356337
 20
30.6087392596
  0
LWPOLYLINE
  5
27A
330
1F
100
AcDbEntity
  8
0
  6
Continuous
 62
     7
370
    18
100
AcDbPolyline
 90
       11
 70
   128
 43
0.0
 10
274.8634736171
 20
32.5018420716
 10
274.9765654655
 20
32.8862506795
 10
275.2714155981
 20
33.5983378597
 10
275.6632910686
 20
34.2770862731
 10
276.1325422261
 20
34.8884610603
 10
276.6556386168
 20
35.4018052273
 10
277.2063497543
 20
35.7913774752
 10
277.7570608919
 20
36.0376427725
 10
278.2801572825
 20
36.1282528427
 10
278.74940844
 20
36.0586639096
 10
278.9873471562
 20
35.9460274853
  0
LWPOLYLINE
  5
27B
330
1F
100
AcDbEntity
  8
0
  6
Continuous
 62
     7
370
    18
100
AcDbPolyline
 90
       28
 70
   128
 43
0.0
 10
255.9931435002
 20
20.4832618406
 10
256.0550888308
 20
21.1310207428
 10
256.2375860019
 20
21.8153797735
 10
256.5307963586
 20
22.4994447155
 10
256.9189121986
 20
23.1463373108
 10
257.3810109042
 20
23.7211835541
 10
257.8921803953
 20
24.1929936879
 10
258.4248632184
 20
24.5363316737
 10
258.9503422231
 20
24.732688258
 10
259.4402894588
 20
24.7714783641
 10
259.8682907055
 20
24.6506101558
 10
260.2112731976
 20
24.3765999231
 10
260.4507456639
 20
23.9642193967
 10
260.5737986565
 20
23.4357002332
 10
260.5737986565
 20
22.8195353182
 10
260.4507456639
 20
22.1489421936
 10
260.2112731976
 20
21.4600726428
 10
259.8682907055
 20
20.7900632538
 10
259.4402894588
 20
20.1750353247
 10
258.9503422231
 20
19.6481443932
 10
258.4248632184
 20
19.2377958327
 10
257.8921803953
 20
18.9661113222
 10
257.3810109042
 20
18.847737724
 10
256.9189121986
 20
18.8890561581
 10
256.5307963586
 20
19.087839743
 10
256.2375860019
 20
19.4333712129
 10
256.0550888308
 20
19.9070234948
 10
255.9931435002
 20
20.4832618406
  0
LWPOLYLINE
  5
27C
330
1F
100
AcDbEntity
  8
0
  6
Continuous
 62
     7
370
    18
100
AcDbPolyline
 90
       12
 70
   128
 43
0.0
 10
255.6395920273
 20
20.48326032
 10
255.701642725
 20
21.1550224154
 10
255.8846825368
 20
21.8647412642
 10
256.1795326693
 20
22.5768284444
 10
256.5714074814
 20
23.2555764776
 10
257.0406586389
 20
23.8669512648
 10
257.5637550295
 20
24.3802954318
 10
258.1144661671
 20
24.7698676797
 10
258.6651773046
 20
25.016132977
 10
259.1882736953
 20
25.1067430472
 10
259.6575248528
 20
25.0371541141
 10
259.8954642275
 20
24.92451807
  0
ARC
  5
27D
330
1F
100
AcDbEntity
  8
0
  6
Continuous
 62
     7
370
    18
100
AcDbCircle
 10
257.3766598259
 20
20.2972771725
 30
0.0
 40
1.746995783688278
100
AcDbArc
 50
173.8887768209
 51
232.1423639554
  0
LWPOLYLINE
  5
27E
330
1F
100
AcDbEntity
  8
0
  6
Continuous
 62
     7
370
    18
100
AcDbPolyline
 90
       37
 70
   128
 43
0.0
 10
285.2320099411
 20
21.8507450058
 10
285.1718519003
 20
22.6100451381
 10
284.9932049097
 20
23.2768168952
 10
284.7014976808
 20
23.8308009885
 10
284.3055932349
 20
24.2551650238
 10
283.8175212046
 20
24.5370146042
 10
283.2521110244
 20
24.6677860962
 10
282.6265428034
 20
24.6435059903
 10
281.9598238236
 20
24.4649122669
 10
281.2722121077
 20
24.1374307577
 10
280.5846003918
 20
23.6710126783
 10
279.917881412
 20
23.0798290528
 10
279.292313191
 20
22.3818434647
 10
278.7269030108
 20
21.5982632739
 10
278.2388309805
 20
20.7528977222
 10
277.8429265346
 20
19.8714321434
 10
277.5512193057
 20
18.9806500525
 10
277.372572315
 20
18.1076168704
 10
277.3124142742
 20
17.2788597426
 10
277.372572315
 20
16.5195596103
 10
277.5512193057
 20
15.8527878533
 10
277.8429265346
 20
15.2988037599
 10
278.2388309805
 20
14.8744397246
 10
278.7269030108
 20
14.5925901443
 10
279.292313191
 20
14.4618186522
 10
279.917881412
 20
14.4860987581
 10
280.5846003918
 20
14.6646924815
 10
281.2722121077
 20
14.9921739907
 10
281.9598238236
 20
15.4585920701
 10
282.6265428034
 20
16.0497756956
 10
283.2521110244
 20
16.7477612838
 10
283.8175212046
 20
17.5313414745
 10
284.3055932349
 20
18.3767070262
 10
284.7014976808
 20
19.258172605
 10
284.9932049097
 20
20.148954696
 10
285.1718519003
 20
21.021987878
 10
285.2320099411
 20
21.8507450058
  0
LWPOLYLINE
  5
27F
330
1F
100
AcDbEntity
  8
0
  6
Continuous
 62
     7
370
    18
100
AcDbPolyline
 90
       21
 70
   128
 43
0.0
 10
278.0173555477
 20
14.5160691371
 10
277.9263697214
 20
14.5698735799
 10
277.4743009779
 20
14.9554241065
 10
277.1233547071
 20
15.4782756548
 10
276.8836267255
 20
16.1233864623
 10
276.7620133112
 20
16.8721977356
 10
276.7620133112
 20
17.7031677042
 10
276.8836267255
 20
18.5923908369
 10
277.1233547071
 20
19.5142856805
 10
277.4743009779
 20
20.4423311683
 10
277.9263697214
 20
21.3498291561
 10
278.4665550128
 20
22.2106724621
 10
279.0793171773
 20
23.0000961693
 10
279.7470280486
 20
23.6953901847
 10
280.4504789124
 20
24.2765517877
 10
281.1694326547
 20
24.7268621758
 10
281.8832063272
 20
25.0333668793
 10
282.5712658945
 20
25.1872483805
 10
283.2138173198
 20
25.1840795057
 10
283.7923753411
 20
25.0239517716
 10
283.9735978994
 20
24.9332486166
  0
OLE2FRAME
  5
280
330
1F
100
AcDbEntity
  8
0
100
AcDbOle2Frame
 70
     2
  3
Paintbrush-Bild
 10
13.8511154363
 20
38.264191557
 30
0.0
 11
51.6290888628
 21
31.9806341108
 31
0.0
 71
     2
 72
     0
 73
     1
 90
    12928
310
80552BED0767C5B32B40DDAF6807D121434000000000000000006FFBDDFB85D0
310
4940DDAF6807D121434000000000000000006FFBDDFB85D04940416F4BD60AFB
310
3F4000000000000000002BED0767C5B32B40416F4BD60AFB3F40000000000000
310
0000000000000100000000010000010000000100000000000100000000320000
310
D0CF11E0A1B11AE1000000000000000000000000000000003E000300FEFF0900
310
0600000000000000000000000100000001000000000000000010000002000000
310
01000000FEFFFFFF0000000000000000FFFFFFFFFFFFFFFFFFFFFFFFFFFFFFFF
310
FFFFFFFFFFFFFFFFFFFFFFFFFFFFFFFFFFFFFFFFFFFFFFFFFFFFFFFFFFFFFFFF
310
FFFFFFFFFFFFFFFFFFFFFFFFFFFFFFFFFFFFFFFFFFFFFFFFFFFFFFFFFFFFFFFF
310
FFFFFFFFFFFFFFFFFFFFFFFFFFFFFFFFFFFFFFFFFFFFFFFFFFFFFFFFFFFFFFFF
310
FFFFFFFFFFFFFFFFFFFFFFFFFFFFFFFFFFFFFFFFFFFFFFFFFFFFFFFFFFFFFFFF
310
FFFFFFFFFFFFFFFFFFFFFFFFFFFFFFFFFFFFFFFFFFFFFFFFFFFFFFFFFFFFFFFF
310
FFFFFFFFFFFFFFFFFFFFFFFFFFFFFFFFFFFFFFFFFFFFFFFFFFFFFFFFFFFFFFFF
310
FFFFFFFFFFFFFFFFFFFFFFFFFFFFFFFFFFFFFFFFFFFFFFFFFFFFFFFFFFFFFFFF
310
FFFFFFFFFFFFFFFFFFFFFFFFFFFFFFFFFFFFFFFFFFFFFFFFFFFFFFFFFFFFFFFF
310
FFFFFFFFFFFFFFFFFFFFFFFFFFFFFFFFFFFFFFFFFFFFFFFFFFFFFFFFFFFFFFFF
310
FFFFFFFFFFFFFFFFFFFFFFFFFFFFFFFFFFFFFFFFFFFFFFFFFFFFFFFFFFFFFFFF
310
FFFFFFFFFFFFFFFFFFFFFFFFFFFFFFFFFFFFFFFFFFFFFFFFFFFFFFFFFFFFFFFF
310
FFFFFFFFFFFFFFFFFFFFFFFFFFFFFFFFFFFFFFFFFFFFFFFFFFFFFFFFFFFFFFFF
310
FFFFFFFFFFFFFFFFFFFFFFFFFFFFFFFFFFFFFFFFFFFFFFFFFFFFFFFFFFFFFFFF
310
FDFFFFFFFEFFFFFFFEFFFFFFFEFFFFFF05000000060000000700000008000000
310
090000000A0000000B0000000C0000000D0000000E0000000F00000010000000
310
11000000120000001300000014000000150000001600000017000000FEFFFFFF
310
FFFFFFFFFFFFFFFFFFFFFFFFFFFFFFFFFFFFFFFFFFFFFFFFFFFFFFFFFFFFFFFF
310
FFFFFFFFFFFFFFFFFFFFFFFFFFFFFFFFFFFFFFFFFFFFFFFFFFFFFFFFFFFFFFFF
310
FFFFFFFFFFFFFFFFFFFFFFFFFFFFFFFFFFFFFFFFFFFFFFFFFFFFFFFFFFFFFFFF
310
FFFFFFFFFFFFFFFFFFFFFFFFFFFFFFFFFFFFFFFFFFFFFFFFFFFFFFFFFFFFFFFF
310
FFFFFFFFFFFFFFFFFFFFFFFFFFFFFFFFFFFFFFFFFFFFFFFFFFFFFFFFFFFFFFFF
310
FFFFFFFFFFFFFFFFFFFFFFFFFFFFFFFFFFFFFFFFFFFFFFFFFFFFFFFFFFFFFFFF
310
FFFFFFFFFFFFFFFFFFFFFFFFFFFFFFFFFFFFFFFFFFFFFFFFFFFFFFFFFFFFFFFF
310
FFFFFFFFFFFFFFFFFFFFFFFFFFFFFFFFFFFFFFFFFFFFFFFFFFFFFFFFFFFFFFFF
310
FFFFFFFFFFFFFFFFFFFFFFFFFFFFFFFFFFFFFFFFFFFFFFFFFFFFFFFFFFFFFFFF
310
FFFFFFFFFFFFFFFFFFFFFFFFFFFFFFFFFFFFFFFFFFFFFFFFFFFFFFFFFFFFFFFF
310
FFFFFFFFFFFFFFFFFFFFFFFFFFFFFFFFFFFFFFFFFFFFFFFFFFFFFFFFFFFFFFFF
310
FFFFFFFFFFFFFFFFFFFFFFFFFFFFFFFFFFFFFFFFFFFFFFFFFFFFFFFFFFFFFFFF
310
FFFFFFFFFFFFFFFFFFFFFFFFFFFFFFFFFFFFFFFFFFFFFFFFFFFFFFFFFFFFFFFF
310
52006F006F007400200045006E00740072007900000000000000000000000000
310
0000000000000000000000000000000000000000000000000000000000000000
310
16000500FFFFFFFFFFFFFFFF020000000A00030000000000C000000000000046
310
000000000000000000000000E07CD37A4EA9D30103000000C000000000000000
310
01004F006C006500000000000000000000000000000000000000000000000000
310
0000000000000000000000000000000000000000000000000000000000000000
310
0A000200FFFFFFFFFFFFFFFFFFFFFFFF00000000000000000000000000000000
310
0000000000000000000000000000000000000000000000001400000000000000
310
010043006F006D0070004F0062006A0000000000000000000000000000000000
310
0000000000000000000000000000000000000000000000000000000000000000
310
120002010100000003000000FFFFFFFF00000000000000000000000000000000
310
0000000000000000000000000000000000000000010000004D00000000000000
310
01004F006C006500310030004E00610074006900760065000000000000000000
310
0000000000000000000000000000000000000000000000000000000000000000
310
1A000200FFFFFFFFFFFFFFFFFFFFFFFF00000000000000000000000000000000
310
0000000000000000000000000000000000000000040000002426000000000000
310
FEFFFFFF02000000FEFFFFFFFFFFFFFFFFFFFFFFFFFFFFFFFFFFFFFFFFFFFFFF
310
FFFFFFFFFFFFFFFFFFFFFFFFFFFFFFFFFFFFFFFFFFFFFFFFFFFFFFFFFFFFFFFF
310
FFFFFFFFFFFFFFFFFFFFFFFFFFFFFFFFFFFFFFFFFFFFFFFFFFFFFFFFFFFFFFFF
310
FFFFFFFFFFFFFFFFFFFFFFFFFFFFFFFFFFFFFFFFFFFFFFFFFFFFFFFFFFFFFFFF
310
FFFFFFFFFFFFFFFFFFFFFFFFFFFFFFFFFFFFFFFFFFFFFFFFFFFFFFFFFFFFFFFF
310
FFFFFFFFFFFFFFFFFFFFFFFFFFFFFFFFFFFFFFFFFFFFFFFFFFFFFFFFFFFFFFFF
310
FFFFFFFFFFFFFFFFFFFFFFFFFFFFFFFFFFFFFFFFFFFFFFFFFFFFFFFFFFFFFFFF
310
FFFFFFFFFFFFFFFFFFFFFFFFFFFFFFFFFFFFFFFFFFFFFFFFFFFFFFFFFFFFFFFF
310
FFFFFFFFFFFFFFFFFFFFFFFFFFFFFFFFFFFFFFFFFFFFFFFFFFFFFFFFFFFFFFFF
310
FFFFFFFFFFFFFFFFFFFFFFFFFFFFFFFFFFFFFFFFFFFFFFFFFFFFFFFFFFFFFFFF
310
FFFFFFFFFFFFFFFFFFFFFFFFFFFFFFFFFFFFFFFFFFFFFFFFFFFFFFFFFFFFFFFF
310
FFFFFFFFFFFFFFFFFFFFFFFFFFFFFFFFFFFFFFFFFFFFFFFFFFFFFFFFFFFFFFFF
310
FFFFFFFFFFFFFFFFFFFFFFFFFFFFFFFFFFFFFFFFFFFFFFFFFFFFFFFFFFFFFFFF
310
FFFFFFFFFFFFFFFFFFFFFFFFFFFFFFFFFFFFFFFFFFFFFFFFFFFFFFFFFFFFFFFF
310
FFFFFFFFFFFFFFFFFFFFFFFFFFFFFFFFFFFFFFFFFFFFFFFFFFFFFFFFFFFFFFFF
310
FFFFFFFFFFFFFFFFFFFFFFFFFFFFFFFFFFFFFFFFFFFFFFFFFFFFFFFFFFFFFFFF
310
0100000200000000000000000000000000000000000000000000000000000000
310
0000000000000000000000000000000000000000000000000000000000000000
310
0100FEFF030A0000FFFFFFFF0A00030000000000C00000000000004607000000
310
5042727573680007000000504272757368000700000050427275736800F439B2
310
7100000000000000000000000000000000000000000000000000000000000000
310
0000000000000000000000000000000000000000000000000000000000000000
310
0000000000000000000000000000000000000000000000000000000000000000
310
0000000000000000000000000000000000000000000000000000000000000000
310
0000000000000000000000000000000000000000000000000000000000000000
310
0000000000000000000000000000000000000000000000000000000000000000
310
0000000000000000000000000000000000000000000000000000000000000000
310
0000000000000000000000000000000000000000000000000000000000000000
310
0000000000000000000000000000000000000000000000000000000000000000
310
0000000000000000000000000000000000000000000000000000000000000000
310
0000000000000000000000000000000000000000000000000000000000000000
310
0000000000000000000000000000000000000000000000000000000000000000
310
20260000424D0E260000000000003E00000028000000B40200006E0000000100
310
01000000000000000000130B0000130B00000200000002000000000000FFFFFF
310
FFFFFFFFFFFFFFFFFFFFFFFFFFFFFFFFFFFFFFFFFFFFFFFFFFFFFFFFFFFFFFFF
310
FFFFFFFFFFFFFFFFFFFFFFFFFFFFFFFFFFFFFFFFFFFFFFFFFFFFFFFFFFFFFFFF
310
FFFFFFFFFFFFFFFFFFFFFFFFFFFFFFFFFFFFFFFFFFFFFFFFF000FFFFFFFFFFFF
310
FFFFFFFFFFFFFFFFFFFFFFFFFFFFFFFFFFFFFFFFFFFFFFFFFFFFFFFFFFFFFFFF
310
FFFFFFFFFFFFFFFFFFFFFFFFFFFFFFFFFFFFFFFFFFFFFFFFFFFFFFFFFFFFFFFF
310
FFFFFFFFFFFFFFFFFFFFFFFFFFFFFFFFF000FFFFFFFFFFFFFFFFFFFFFFFFFFFF
310
FFFFFFFFFFFFFFFFFFFFFFFFFFFFFFFFFFFFFFFFFFFFFFFFFFFFFFFFFFFFFFFF
310
FFFFFFFFFFFFFFFFFFFFFFFFFFFFFFFFFFFFFFFFFFFFFFFFFFFFFFFFFFFFFFFF
310
FFFFFFFFFFFFFFFFF000FFFFFFFFFFFFFFFFFFFFFFFFFFFFFFFFFFFFFFFFFFFF
310
FFFFFFFFFFFFFFFFFFFFFFFFFFFFFFFFFFFFFFFFFFFFFFFFFFFFFFFFFFFFFFFF
310
FFFFFFFFFFFFFFFFFFFFFFFFFFFFFFFFFFFFFFFFFFFFFFFFFFFFFFFFFFFFFFFF
310
F000FFFFFFFFFFFFFFFFFFFFFFFFFFFFFFFFFFFFFFFFFFFFFFFFFFFFFFFFFFFF
310
FFFFFFFFFFFFFFFFFFFFFFFFFFFFFFFFFFFFFFFFFFFFFFFFFFFFFFFFFFFFFFFF
310
FFFFFFFFFFFFFFFFFFFFFFFFFFFFFFFFFFFFFFFFFFFFFFFFF000FFFFFFFFFFFF
310
FFFFFFFFFFFFFFFFFFFFFFFFFFFFFFFFFFFFFFFFFFFFFFFFFFFFFFFFFFFFFFFF
310
FFFFFFFFFFFFFFFFFFFFFFFFFFFFFFFFFFFFFFFFFFFFFFFFFFFFFFFFFFFFFFFF
310
FFFFFFFFFFFFFFFFFFFFFFFFFFFFFFFFF000FFFFFFFFFFFFFFFFFFFFFFFFFFFF
310
FFFFFFFFFFFFFFFFFFFFFFFFFFFFFFFFFFFFFFFFFFFFFFFFFFFFFFFFFFFFFFFF
310
FFFFFFFFFFFFFFFFFFFFFFFFFFFFFFFFFFFFFFFFFFFFFFFFFFFFFFFFFFFFFFFF
310
FFFFFFFFFFFFFFFFF000FFFFFFFFFFFFFFFFFFFFFFFFFFFFFFFFFFFFFFFFFFFF
310
FFFFFFFFFFFFFFFFFFFFFFFFFFFFFFFFFFFFFFFFFFFFFFFFFFFFFFFFFFFFFFFF
310
FFFFFFFFFFFFFFFFFFFFFFFFFFFFFFFFFFFFFFFFFFFFFFFFFFFFFFFFFFFFFFFF
310
F000FFFFFFFFFFFFFFFFFFFFFFFFFFFFFFFFFFFFFFFFFFFFFFFFFFFFFFFFFFFF
310
FFFFFFFFFFFFFFFFFFFFFFFFFFFFFFFFFFFFFFFFFFFFFFFFFFFFFFFFFFFFFFFF
310
FFFFFFFFFFFFFFFFFFFFFFFFFFFFFFFFFFFFFFFFFFFFFFFFF000FFFFFFFFFFFF
310
FFFFFFFFFFFFFFFFFFFFFFFFFFFFFFFFFFFFFFFFFFFFFFFFFFFFFFFFFFFFFFFF
310
FFFFFFFFFFFFFFFFFFFFFFFFFFFFFFFFFFFFFFFFFFFFFFFFFFFFFFFFFFFFFFFF
310
FFFFFFFFFFFFFFFFFFFFFFFFFFFFFFFFF000FFFFFFFFFFFFFFFFFFFFFFFFFFFF
310
FFFFFFFFFFFFFFFFFFFFFFFFFFFFFFFFFFFFFFFFFFFFFFFFFFFFFFFFFFFFFFFF
310
FFFFFFFFFFFFFFFFFFFFFFFFFFFFFFFFFFFFFFFFFFFFFFFFFFFFFFFFFFFFFFFF
310
FFFFFFFFFFFFFFFFF000FFFFFFFFFFFFFFFFFFFFFFFFFFFFFFFFFFFFFFFFFFFF
310
FFFFFFFFFFFFFFFFFFFFFFFFFFFFFFFFFFFFFFFFFFFFFFFFFFFFFFFFFFFFFFFF
310
FFFFFFFFFFFFFFFFFFFFFFFFFFFFFFFFFFFFFFFFFFFFFFFFFFFFFFFFFFFFFFFF
310
F000FFFFFFFFFFFFFFFFFFFFFFFFFFFFFFFFFFFFFFFFFFFFFFFFFFFFFFFFFFFF
310
FFFFFFFFFFFFFFFFFFFFFFFFFFFFFFFFFFFFFFFFFFFFFFFFFFFFFFFFFFFFFFFF
310
FFFFFFFFFFFFFFFFFFFFFFFFFFFFFFFFFFFFFFFFFFFFFFFFF000FFFFFFFFFFFF
310
FFFFFFFFFFFFFFFFFFFFFFFFFFFFFFFFFFFFFFFFFFFFFFFFFFFFFFFFFFFFFFFF
310
FFFFFFFFFFFFFFFFFFFFFFFFFFFFFFFFFFFFFFFFFFFFFFFFFFFFFFFFFFFFFFFF
310
FFFFFFFFFFFFFFFFFFFFFFFFFFFFFFFFF000FFFFFFFFFFFFFFFFFFFFFFFFFFFF
310
FFFFFFFFFFFFFFFFFFFFFFFFFFFFFFFFFFFFFFFFFFFFFFFFFFFFFFFFFFFFFFFF
310
FFFFFFFFFFFFFFFFFFFFFFFFFFFFFFFFFFFFFFFFFFFFFFFFFFFFFFFFFFFFFFFF
310
FFFFFFFFFFFFFFFFF000FFFFFFFFFFFFFFFFFFFFFFFFFFFFFFFFFFFFFFFFFFFF
310
FFFFFFFFFFFFFFFFFFFFFFFFFFFFFFFFFFFFFFFFFFFFFFFFFFFFFFFFFFFFFFFF
310
FFFFFFFFFFFFFFFFFFFFFFFFFFFFFFFFFFFFFFFFFFFFFFFFFFFFFFFFFFFFFFFF
310
F000FFFFFFFFFFFFFFFFFFFFFFFFFFFFFFFFFFFFFFFFFFFFFFFFFFFFFFFFFFFF
310
FFFFFFFFFFFFFFFFFFFFFFFFFFFFFFFFFFFFFFFFFFFFFFFFFFFFFFFFFFFFFFFF
310
FFFFFFFFFFFFFFFFFFFFFFFFFFFFFFFFFFFFFFFFFFFFFFFFF000FFFFFFFFFFFF
310
FFFFFFFFFFFFFFFFFFFFFFFFFFFFFFFFFFFFFFFFFFFFFFFFFFFFFFFFFFFFFFFF
310
FFFFFFFFFFFFFFFFFFFFFFFFFFFFFFFFFFFFFFFFFFFFFFFFFFFFFFFFFFFFFFFF
310
FFFFFFFFFFFFFFFFFFFFFFFFFFFFFFFFF000FFFFFFFFFFFFFFFFFFFFFFFFFFFF
310
FFFFFFFFFFFFFFFFFFFFFFFFFFFFFFFFFFFFFFFFFFFFFFFFFFFFFFFFFFFFFFFF
310
FFFFFFFFFFFFFFFFFFFFFFFFFFFFFFFFFFFFFFFFFFFFFFFFFFFFFFFFFFFFFFFF
310
FFFFFFFFFFFFFFFFF000FFFFF80003FFFFFFFFFFFFFFFFFFFFFFFFFFFFFFFFFF
310
FFFFF00007FFFFFFFFFF00007FFFFFF800000000000000007FFFFFFFFFFFFFFF
310
FFFFFFFC001FFFFFFFFFFFFFFC001FFFFFFFFFFFFFFFFFFFFFFFFFFE0007FFFF
310
F000FFFF8000007FFFFFFFF8000FFFFFC0007FFFFF80007FFFFF0000007FFFFF
310
FFF8000007FFFFF800000000000000007FFFFFF0001FFFFFFFFFFFC00001FFFF
310
FFFFFFFFC00001FFFFFFFF000000000003FFFFE000007FFFF000FFFE0000000F
310
FFFFFFF0000FFFFF80007FFFFF80007FFFFC0000001FFFFFFFC0000001FFFFF8
310
00000000000000007FFFFFF0001FFFFFFFFFFE0000003FFFFFFFFFFE0000003F
310
FFFFFF000000000003FFFF0000000FFFF000FFF800000003FFFFFFF00007FFFF
310
80007FFFFF80007FFFF000000007FFFFFF000000003FFFF80000000000000000
310
7FFFFFF0001FFFFFFFFFF80000000FFFFFFFFFF80000000FFFFFFF0000000000
310
03FFFC00000003FFF000FFE000000000FFFFFFF00007FFFF80003FFFFF80007F
310
FFC000000001FFFFFC000000001FFFF800000000000000007FFFFFF0001FFFFF
310
FFFFE000000003FFFFFFFFE000000003FFFFFF000000000003FFF000000000FF
310
F000FF80000000007FFFFFF00007FFFF80003FFFFF80007FFF8000000000FFFF
310
F80000000007FFF800000000000000007FFFFFF0001FFFFFFFFFC000000001FF
310
FFFFFFC000000001FFFFFF000000000003FFC0000000007FF000FF0000000000
310
3FFFFFE00007FFFF00003FFFFF80007FFE00000000003FFFF00000000003FFF8
310
00000000000000007FFFFFF0001FFFFFFFFF8000000000FFFFFFFF8000000000
310
FFFFFF000000000003FF80000000003FF000FE00000000001FFFFFE00003FFFF
310
00003FFFFF80007FFC00000000001FFFE00000000001FFF8000001FFFE000000
310
7FFFFFF0001FFFFFFFFE00000000003FFFFFFE00000000003FFFFF0000000000
310
03FF00000000001FF000FC00000000000FFFFFE00003FFFF00001FFFFF80007F
310
F800000000001FFFC00000000000FFF8000001FFFE0000007FFFFFF0001FFFFF
310
FFFC00000000001FFFFFFC00000000001FFFFF000000000003FE00000000000F
310
F000F8000000000007FFFFE00003FFFF00001FFFFF80007FF800000000000FFF
310
800000000000FFF8000001FFFE0000007FFFFFF0001FFFFFFFF800000000000F
310
FFFFF800000000000FFFFF000000000003FC000000000007F000F80000000000
310
03FFFFC00003FFFE00001FFFFF80007FF0000000000007FF0000000000007FF8
310
000001FFFE0000007FFFFFF0001FFFFFFFF0000000000007FFFFF00000000000
310
07FFFF000000000003F8000000000003F000F0000000000003FFFFC00001FFFE
310
00001FFFFF80007FE0000000000007FE0000000000003FF8000001FFFE000000
310
7FFFFFF0001FFFFFFFF0000000000007FFFFF0000000000007FFFF0000000000
310
03F800001F800003F000E00001FFF00001FFFFC00001FFFE00000FFFFF80007F
310
E00001FFE00003FE00001FFF00003FF8000001FFFE0000007FFFFFF0001FFFFF
310
FFE000003E000003FFFFE000003E000003FFFF000000000003F00001FFF80001
310
F000E00007FFFC0001FFFFC00001FFFE00000FFFFF80007FC0000FFFFC0003FC
310
0000FFFFC0001FF8000001FFFE0000007FFFFFF0001FFFFFFFC00003FFE00001
310
FFFFC00003FFE00001FFFF0001FFFFFFFFF00007FFFE0001F000E0000FFFFF00
310
00FFFF800001FFFC00000FFFFF80007FC0001FFFFE0001FC0001FFFFE0001FF8
310
000001FFFE0000007FFFFFF0001FFFFFFF80000FFFF80000FFFF80000FFFF800
310
00FFFF0003FFFFFFFFE0000FFFFF8000F000C0003FFFFF8000FFFF800000FFFC
310
000007FFFF80007F80003FFFFF0001FC0003FFFFF0001FF8000001FFFE000000
310
7FFFFFF0001FFFFFFF80003FFFFE0000FFFF80003FFFFE0000FFFF0003FFFFFF
310
FFE0003FFFFF8000F000C0003FFFFF8000FFFF800000FFFC000007FFFF80007F
310
80007FFFFF8001F80007FFFFF8000FF8000001FFFE0000007FFFFFF0001FFFFF
310
FF00007FFFFF00007FFF00007FFFFF00007FFF0003FFFFFFFFE0003FFFFFC000
310
F000C0007FFFFFC000FFFF000000FFFC000007FFFF80007F8000FFFFFF8000F8
310
000FFFFFF8000FF8000001FFFE0000007FFFFFF0001FFFFFFF0000FFFFFF8000
310
7FFF0000FFFFFF80007FFF0003FFFFFFFFC0007FFFFFC00070008000FFFFFFC0
310
00FFFF000000FFF8000007FFFF80007F8000FFFFFF8000F8000FFFFFF8000FF8
310
000001FFFE0000007FFFFFF0001FFFFFFE0001FFFFFFC0003FFE0001FFFFFFC0
310
003FFF0003FFFFFFFFC0007FFFFFE00070008000FFFFFFC0007FFF0000007FF8
310
000003FFFF80007F0001FFFFFF8000F8000FFFFFF8000FF8000001FFFE000000
310
7FFFFFF0001FFFFFFE0001FFFFFFC0003FFE0001FFFFFFC0003FFF0003FFFFFF
310
FFC000FFFFFFE00070008000FFFFFFC0007FFF0000007FF8000003FFFF80007F
310
0001FFFFFF8000F8001FFFFFF8000FF8000001FFFE0000007FFFFFF0001FFFFF
310
FE0003FFFFFFE0003FFE0003FFFFFFE0003FFF0003FFFFFFFFC000FFFFFFE000
310
70008000FFFFFFC0007FFE0000007FF8000003FFFF80007F0001FFFFFF8000F0
310
001FFFFFF8000FF8000001FFFE0000007FFFFFF0001FFFFFFC0003FFFFFFE000
310
1FFC0003FFFFFFE0001FFF0003FFFFFFFFC000FFFFFFC00070008000FFFFFF80
310
007FFE0000007FF0000003FFFF80007F0001FFFFFF0000F0001FFFFFF8000FF8
310
000001FFFE0000007FFFFFF0001FFFFFFC0007FFFFFFF0001FFC0007FFFFFFF0
310
001FFF0003FFFFFFFFC000FFFFFFC00070008001FFFFFF0000FFFE0000003FF0
310
000001FFFF80007F0001FFFFFF0000F8001FFFFFF0000FF8000001FFFE000000
310
7FFFFFF0001FFFFFFC0007FFFFFFF0001FFC0007FFFFFFF0001FFF0003FFFFFF
310
FFC001FFFFFF80007000FFFFFFFFFE0000FFFE0008003FF0008001FFFF80007F
310
FFFFFFFFFC0000FFFFFFFFFFE0000FF8000001FFFE0000007FFFFFF0001FFFFF
310
F8000FFFFFFFF8000FF8000FFFFFFFF8000FFF0003FFFFFFFFFFFFFFFFFF0000
310
7000FFFFFFFFFC0000FFFC0008003FF0008001FFFF80007FFFFFFFFFF80001FF
310
FFFFFFFF80000FF8000001FFFE0000007FFFFFF0001FFFFFF8000FFFFFFFF800
310
0FF8000FFFFFFFF8000FFF0003FFFFFFFFFFFFFFFFFE0000F000FFFFFFFFE000
310
00FFFC000C003FE000C001FFFF80007FFFFFFFFFC00001FFFFFFFFFE00001FF8
310
000001FFFE0000007FFFFFF0001FFFFFF8000FFFFFFFF8000FF8000FFFFFFFF8
310
000FFF0003FFFFFFFFFFFFFFFFF00000F000FFFFFFFE000001FFFC000C001FE0
310
00C000FFFF80007FFFFFFFFE000001FFFFFFFFE000001FF80FFFFFFFFFFFFFC0
310
7FFFFFF0001FFFFFF8000FFFFFFFF8000FF8000FFFFFFFF8000FFF0003FFFFFF
310
FFFFFFFFFF800000F000FFFFFFC0000001FFFC001C001FE001C000FFFF80007F
310
FFFFFF80000003FFFFFFF80000001FF80FFFFFFFFFFFFFC07FFFFFF0001FFFFF
310
F8001FFFFFFFFC000FF8001FFFFFFFFC000FFF0003FFFFFFFFFFFFFFF0000001
310
F000FFFFF800000001FFF8001C001FE001C000FFFF80007FFFFFF800000003FF
310
FFFF800000003FF80FFFFFFFFFFFFFC07FFFFFF0001FFFFFF8001FFFFFFFFC00
310
0FF8001FFFFFFFFC000FFF0003FFFFFFFFFFFFFE00000001F000FFFFC0000000
310
03FFF8001E001FC001E000FFFF80007FFFFF8000000007FFFFFC000000003FF8
310
0FFFFFFFFFFFFFC07FFFFFF0001FFFFFF8001FFFFFFFFC000FF8001FFFFFFFFC
310
000FFF0003FFFFFFFFFFFFE000000003F000FFFE0000000007FFF8001E000FC0
310
01E0007FFF80007FFFFE0000000007FFFFE0000000007FF80FFFFFFFFFFFFFC0
310
7FFFFFF0001FFFFFF0001FFFFFFFFC0007F0001FFFFFFFFC0007FF0003FFFFFF
310
FFFFFF0000000003F000FFF80000000007FFF8001E000FC003E0007FFF80007F
310
FFF0000000000FFFFF8000000000FFF80FFFFFFFFFFFFFC07FFFFFF0001FFFFF
310
F0001FFFFFFFFC0007F0001FFFFFFFFC0007FF0003FFFFFFFFFFFC0000000007
310
F000FFE0000000000FFFF0003E000FC003E0007FFF80007FFFC0000000001FFF
310
FE0000000001FFF80FFFFFFFFFFFFFC07FFFFFF0001FFFFFF0001FFFFFFFFC00
310
07F0001FFFFFFFFC0007FF0003FFFFFFFFFFF0000000000FF000FFC000000000
310
1FFFF0003F000F8003F0003FFF80007FFF80000000003FFFF80000000003FFF8
310
0FFFFFFFFFFFFFC07FFFFFF0001FFFFFF0001FFFFFFFFC0007F0001FFFFFFFFC
310
0007FF0003FFFFFFFFFFE0000000001FF000FF00000000007FFFF0003F000780
310
03F0003FFF80007FFF00000000007FFFF00000000007FFF80FFFFFFFFFFFFFC0
310
7FFFFFF0001FFFFFF0001FFFFFFFFC0007F0001FFFFFFFFC0007FF0003FFFFFF
310
FFFF80000000007FF000FE0000000000FFFFE0003F00078007F0003FFF80007F
310
FE0000000001FFFFE0000000001FFFF80FFFFFFFFFFFFFC07FFFFFF0001FFFFF
310
F0001FFFFFFFFC0007F0001FFFFFFFFC0007FF0003FFFFFFFFFF0000000000FF
310
F000FC0000000003FFFFE0007F00078007F0003FFF80007FFC0000000007FFFF
310
C0000000007FFFF80FFFFFFFFFFFFFC07FFFFFF0001FFFFFF8001FFFFFFFFC00
310
0FF8001FFFFFFFFC000FFF0003FFFFFFFFFE0000000003FFF000FC000000000F
310
FFFFE0007F80070007F8001FFF80007FF8000000001FFFFF8000000001FFFFF8
310
0FFFFFFFFFFFFFC07FFFFFF0001FFFFFF8001FFFFFFFFC000FF8001FFFFFFFFC
310
000FFF0003FFFFFFFFFC000000000FFFF000F8000000007FFFFFE0007F800700
310
07F8001FFF80007FF000000000FFFFFF800000000FFFFFF80FFFFFFFFFFFFFC0
310
7FFFFFF0001FFFFFF8000FFFFFFFF8000FF8000FFFFFFFF8000FFF0003FFFFFF
310
FFFC000000007FFFF000F800000007FFFFFFC0007F8003000FF8001FFF80007F
310
F000000007FFFFFF000000007FFFFFF80FFFFFFFFFFFFFC07FFFFFF0001FFFFF
310
F8000FFFFFFFF8000FF8000FFFFFFFF8000FFF0003FFFFFFFFF80000000FFFFF
310
F000F0000000FFFFFFFFC000FF8003000FF8001FFF80007FE0000000FFFFFFFF
310
0000000FFFFFFFF8000001FFFE0000007FFFFFF0001FFFFFF8000FFFFFFFF800
310
0FF8000FFFFFFFF8000FFF0003FFFFFFFFF8000000FFFFFFF000F000000FFFFF
310
FFFFC000FFC002000FF8000FFF80007FE000001FFFFFFFFE000001FFFFFFFFF8
310
000001FFFE0000007FFFFFF0001FFFFFF8000FFFFFFFF8000FF8000FFFFFFFF8
310
000FFF0003FFFFFFFFF000001FFFFFFFF000E00000FFFFFFFFFFC000FFC00200
310
0FFC000FFF80007FE00001FFFFFFFFFE00001FFFFFFFFFF8000001FFFE000000
310
7FFFFFF0001FFFFFFC000FFFFFFFF8001FFC000FFFFFFFF8001FFF0003FFFFFF
310
FFF00001FFFFFFFFF000E00007FFFFFFFFFF8000FFC000001FFC000FFF80007F
310
C0000FFFFFFFFFFE0000FFFFFFFFFFF8000001FFFE0000007FFFFFF0001FFFFF
310
FC0007FFFFFFF0001FFC0007FFFFFFF0001FFF0003FFFFFFFFF00007FFFFFFFF
310
F000E0001FFFFFFFFFFF8000FFC000001FFC000FFF80007FC0003FFFFFFFFFFE
310
0001FFFFFFFFFFF8000001FFFE0000007FFFFFF0001FFFFFFC0007FFFFFFF000
310
1FFC0007FFFFFFF0001FFF0003FFFFFFFFF0001FFFFFFFFFF000E0003FFFFF00
310
03FF8001FFE000001FFC0007FF80007FC0007FFFFF0007FC0003FFFFF0003FF8
310
000001FFFE0000007FFFFFF0001FFFFFFC0003FFFFFFE0001FFC0003FFFFFFE0
310
001FFF0003FFFFFFFFF0003FFFFFFFFFF000E0003FFFFF0001FF8001FFE00000
310
1FFE0007FF80007FC0007FFFFE0003FC0007FFFFE0003FF8000001FFFE000000
310
7FFFFFF0001FFFFFFE0003FFFFFFE0003FFE0003FFFFFFE0003FFF0003FFFFFF
310
FFF0003FFFFF8001F000E0003FFFFF0001FF0001FFE000001FFE0007FF80007F
310
C0007FFFFE0003FC0007FFFFE0003FF8000001FFFE0000007FFFFFF0001FFFFF
310
FE0001FFFFFFC0003FFE0001FFFFFFC0003FFF0003FFFFFFFFF0003FFFFF0001
310
F000E0003FFFFF0003FF0001FFE000003FFE0007FF80007FC0007FFFFE0003FC
310
0007FFFFE0003FF8000001FFFE0000007FFFFFF0001FFFFFFF0001FFFFFFC000
310
7FFF0001FFFFFFC0007FFF0003FFFFFFFFF0003FFFFF0001F000E0003FFFFE00
310
03FF0003FFF000003FFE0003FF80007FC0007FFFFC0003FE0007FFFFE0003FF8
310
000001FFFE0000007FFFFFF0001FFFFFFF0000FFFFFF80007FFF0000FFFFFF80
310
007FFF0003FFFFFFFFF0003FFFFF0001F000E0003FFFFE0003FF0003FFF00000
310
3FFF0003FF80007FC0007FFFFC0007FE0007FFFFC0003FF8000001FFFE000000
310
7FFFFFF0001FFFFFFF80007FFFFF0000FFFF80007FFFFF0000FFFF0003FFFFFF
310
FFF0003FFFFF0003F000E0003FFFFC0003FE0003FFF000003FFF0003FF80007F
310
E0003FFFF80007FE0003FFFFC0007FF8000001FFFE0000007FFFFFF0001FFFFF
310
FF80003FFFFE0000FFFF80003FFFFE0000FFFF0003FFFFFFFFF0001FFFFE0003
310
F000F0001FFFF80003FE0003FFF000007FFF0001FF80007FE0003FFFF00007FE
310
0001FFFF80007FF8000001FFFE0000007FFFFFF0001FFFFFFFC0000FFFF80001
310
FFFFC0000FFFF80001FFFF0003FFFFFFFFF0001FFFFC0003F000F0000FFFF000
310
07FE0007FFF800007FFF0001FF80007FE0001FFFE00007FF0000FFFE00007FF8
310
000001FFFE0000007FFFFFF0001FFFFFFFC00003FFE00001FFFFC00003FFE000
310
01FFFF0003FFFFFFFFF8000FFFF80003F000F00003FFC00007FC0007FFF80000
310
7FFF8001FF80007FF00007FF80000FFF00007FF80000FFF8000001FFFE000000
310
7F80000000000001FFE000003E000003FFFFE000003E000003FFFF0003FFFFFF
310
FFF80003FFE00007F000F800000000000FFC0007FFF800007FFF8001FF80007F
310
F000000000000FFF000000000000FFF8000001FFFE0000007F80000000000001
310
FFF0000000000007FFFFF0000000000007FFFF0003FFFFFFFFFC00007E000007
310
F000F800000000000FFC0007FFF80000FFFF8000FF80007FF800000000001FFF
310
800000000001FFF8000001FFFE0000007F80000000000001FFF800000000000F
310
FFFFF800000000000FFFFF0003FFFFFFFFFC00000000000FF000FC0000000000
310
1FFC0007FFFC0000FFFF8000FF80007FF800000000003FFFC00000000001FFF8
310
000001FFFE0000007F80000000000001FFF800000000000FFFFFF80000000000
310
0FFFFF0003FFFFFFFFFE00000000001FF000FE00000000003FF8000FFFFC0000
310
FFFF8000FF80007FFC00000000003FFFC00000000003FFF8000001FFFE000000
310
7F80000000000001FFFC00000000001FFFFFFC00000000001FFFFF0003FFFFFF
310
FFFF00000000001FF000FF00000000003FF8000FFFFC0000FFFFC000FF80007F
310
FE00000000007FFFE00000000007FFF8000001FFFE0000007F80000000000001
310
FFFE00000000003FFFFFFE00000000003FFFFF0003FFFFFFFFFF80000000003F
310
F000FF80000000007FF8000FFFFC0001FFFFC0007F80007FFF0000000000FFFF
310
F0000000000FFFF800000000000000007F80000000000001FFFF8000000000FF
310
FFFFFF8000000000FFFFFF0003FFFFFFFFFFC0000000007FF000FFC000000000
310
FFF8000FFFFE0001FFFFC0007F80007FFF8000000001FFFFF8000000001FFFF8
310
00000000000000007F80000000000001FFFFC000000001FFFFFFFFC000000001
310
FFFFFF0003FFFFFFFFFFE000000000FFF000FFE000000003FFF0001FFFFE0001
310
FFFFC0007F80007FFFC000000007FFFFFE000000003FFFF80000000000000000
310
7F80000000000001FFFFE000000003FFFFFFFFE000000003FFFFFF0003FFFFFF
310
FFFFF000000003FFF000FFF80000000FFFF0001FFFFE0001FFFFE0007F80007F
310
FFF00000000FFFFFFF00000000FFFFF800000000000000007F80000000000001
310
FFFFF80000000FFFFFFFFFF80000000FFFFFFF0003FFFFFFFFFFFC0000000FFF
310
F000FFFE0000003FFFF0001FFFFE0003FFFFE0003F80007FFFFC0000003FFFFF
310
FFC0000003FFFFF800000000000000007F80000000000001FFFFFE0000003FFF
310
FFFFFFFE0000003FFFFFFF0003FFFFFFFFFFFF0000003FFFF000FFFF800000FF
310
FFF0001FFFFF0003FFFFE0003F80007FFFFF000001FFFFFFFFF800001FFFFFF8
310
00000000000000007F80000000000001FFFFFFC00001FFFFFFFFFFFFC00001FF
310
FFFFFF0003FFFFFFFFFFFFC00000FFFFF000FFFFF8000FFFFFFFFFFFFFFFFFFF
310
FFFFFFFFFFFFFFFFFFFFF0001FFFFFFFFFFF0000FFFFFFF80000000000000000
310
7FFFFFFFFFFFFFFFFFFFFFFC001FFFFFFFFFFFFFFC001FFFFFFFFFFFFFFFFFFF
310
FFFFFFFC001FFFFFF000FFFFFFFFFFFFFFFFFFFFFFFFFFFFFFFFFFFFFFFFFFFF
310
FFFFFFFFFFFFFFFFFFFFFFFFFFFFFFFFFFFFFFFFFFFFFFFFFFFFFFFFFFFFFFFF
310
FFFFFFFFFFFFFFFFFFFFFFFFFFFFFFFFFFFFFFFFFFFFFFFFFFFFFFFFFFFFFFFF
310
F000FFFFFFFFFFFFFFFFFFFFFFFFFFFFFFFFFFFFFFFFFFFFFFFFFFFFFFFFFFFF
310
FFFFFFFFFFFFFFFFFFFFFFFFFFFFFFFFFFFFFFFFFFFFFFFFFFFFFFFFFFFFFFFF
310
FFFFFFFFFFFFFFFFFFFFFFFFFFFFFFFFFFFFFFFFFFFFFFFFF000FFFFFFFFFFFF
310
FFFFFFFFFFFFFFFFFFFFFFFFFFFFFFFFFFFFFFFFFFFFFFFFFFFFFFFFFFFFFFFF
310
FFFFFFFFFFFFFFFFFFFFFFFFFFFFFFFFFFFFFFFFFFFFFFFFFFFFFFFFFFFFFFFF
310
FFFFFFFFFFFFFFFFFFFFFFFFFFFFFFFFF000FFFFFFFFFFFFFFFFFFFFFFFFFFFF
310
FFFFFFFFFFFFFFFFFFFFFFFFFFFFFFFFFFFFFFFFFFFFFFFFFFFFFFFFFFFFFFFF
310
FFFFFFFFFFFFFFFFFFFFFFFFFFFFFFFFFFFFFFFFFFFFFFFFFFFFFFFFFFFFFFFF
310
FFFFFFFFFFFFFFFFF000FFFFFFFFFFFFFFFFFFFFFFFFFFFFFFFFFFFFFFFFFFFF
310
FFFFFFFFFFFFFFFFFFFFFFFFFFFFFFFFFFFFFFFFFFFFFFFFFFFFFFFFFFFFFFFF
310
FFFFFFFFFFFFFFFFFFFFFFFFFFFFFFFFFFFFFFFFFFFFFFFFFFFFFFFFFFFFFFFF
310
F000FFFFFFFFFFFFFFFFFFFFFFFFFFFFFFFFFFFFFFFFFFFFFFFFFFFFFFFFFFFF
310
FFFFFFFFFFFFFFFFFFFFFFFFFFFFFFFFFFFFFFFFFFFFFFFFFFFFFFFFFFFFFFFF
310
FFFFFFFFFFFFFFFFFFFFFFFFFFFFFFFFFFFFFFFFFFFFFFFFF000FFFFFFFFFFFF
310
FFFFFFFFFFFFFFFFFFFFFFFFFFFFFFFFFFFFFFFFFFFFFFFFFFFFFFFFFFFFFFFF
310
FFFFFFFFFFFFFFFFFFFFFFFFFFFFFFFFFFFFFFFFFFFFFFFFFFFFFFFFFFFFFFFF
310
FFFFFFFFFFFFFFFFFFFFFFFFFFFFFFFFF000FFFFFFFFFFFFFFFFFFFFFFFFFFFF
310
FFFFFFFFFFFFFFFFFFFFFFFFFFFFFFFFFFFFFFFFFFFFFFFFFFFFFFFFFFFFFFFF
310
FFFFFFFFFFFFFFFFFFFFFFFFFFFFFFFFFFFFFFFFFFFFFFFFFFFFFFFFFFFFFFFF
310
FFFFFFFFFFFFFFFFF000FFFFFFFFFFFFFFFFFFFFFFFFFFFFFFFFFFFFFFFFFFFF
310
FFFFFFFFFFFFFFFFFFFFFFFFFFFFFFFFFFFFFFFFFFFFFFFFFFFFFFFFFFFFFFFF
310
FFFFFFFFFFFFFFFFFFFFFFFFFFFFFFFFFFFFFFFFFFFFFFFFFFFFFFFFFFFFFFFF
310
F000FFFFFFFFFFFFFFFFFFFFFFFFFFFFFFFFFFFFFFFFFFFFFFFFFFFFFFFFFFFF
310
FFFFFFFFFFFFFFFFFFFFFFFFFFFFFFFFFFFFFFFFFFFFFFFFFFFFFFFFFFFFFFFF
310
FFFFFFFFFFFFFFFFFFFFFFFFFFFFFFFFFFFFFFFFFFFFFFFFF000FFFFFFFFFFFF
310
FFFFFFFFFFFFFFFFFFFFFFFFFFFFFFFFFFFFFFFFFFFFFFFFFFFFFFFFFFFFFFFF
310
FFFFFFFFFFFFFFFFFFFFFFFFFFFFFFFFFFFFFFFFFFFFFFFFFFFFFFFFFFFFFFFF
310
FFFFFFFFFFFFFFFFFFFFFFFFFFFFFFFFF000FFFFFFFFFFFFFFFFFFFFFFFFFFFF
310
FFFFFFFFFFFFFFFFFFFFFFFFFFFFFFFFFFFFFFFFFFFFFFFFFFFFFFFFFFFFFFFF
310
FFFFFFFFFFFFFFFFFFFFFFFFFFFFFFFFFFFFFFFFFFFFFFFFFFFFFFFFFFFFFFFF
310
FFFFFFFFFFFFFFFFF000FFFFFFFFFFFFFFFFFFFFFFFFFFFFFFFFFFFFFFFFFFFF
310
FFFFFFFFFFFFFFFFFFFFFFFFFFFFFFFFFFFFFFFFFFFFFFFFFFFFFFFFFFFFFFFF
310
FFFFFFFFFFFFFFFFFFFFFFFFFFFFFFFFFFFFFFFFFFFFFFFFFFFFFFFFFFFFFFFF
310
F000FFFFFFFFFFFFFFFFFFFFFFFFFFFFFFFFFFFFFFFFFFFFFFFFFFFFFFFFFFFF
310
FFFFFFFFFFFFFFFFFFFFFFFFFFFFFFFFFFFFFFFFFFFFFFFFFFFFFFFFFFFFFFFF
310
FFFFFFFFFFFFFFFFFFFFFFFFFFFFFFFFFFFFFFFFFFFFFFFFF000FFFFFFFFFFFF
310
FFFFFFFFFFFFFFFFFFFFFFFFFFFFFFFFFFFFFFFFFFFFFFFFFFFFFFFFFFFFFFFF
310
FFFFFFFFFFFFFFFFFFFFFFFFFFFFFFFFFFFFFFFFFFFFFFFFFFFFFFFFFFFFFFFF
310
FFFFFFFFFFFFFFFFFFFFFFFFFFFFFFFFF000FFFFFFFFFFFFFFFFFFFFFFFFFFFF
310
FFFFFFFFFFFFFFFFFFFFFFFFFFFFFFFFFFFFFFFFFFFFFFFFFFFFFFFFFFFFFFFF
310
FFFFFFFFFFFFFFFFFFFFFFFFFFFFFFFFFFFFFFFFFFFFFFFFFFFFFFFFFFFFFFFF
310
FFFFFFFFFFFFFFFFF000FFFFFFFFFFFFFFFFFFFFFFFFFFFFFFFFFFFFFFFFFFFF
310
FFFFFFFFFFFFFFFFFFFFFFFFFFFFFFFFFFFFFFFFFFFFFFFFFFFFFFFFFFFFFFFF
310
FFFFFFFFFFFFFFFFFFFFFFFFFFFFFFFFFFFFFFFFFFFFFFFFFFFFFFFFFFFFFFFF
310
F000FFFFFFFFFFFFFFFFFFFFFFFFFFFFFFFFFFFFFFFFFFFFFFFFFFFFFFFFFFFF
310
FFFFFFFFFFFFFFFFFFFFFFFFFFFFFFFFFFFFFFFFFFFFFFFFFFFFFFFFFFFFFFFF
310
FFFFFFFFFFFFFFFFFFFFFFFFFFFFFFFFFFFFFFFFFFFFFFFFF000FFFFFFFFFFFF
310
FFFFFFFFFFFFFFFFFFFFFFFFFFFFFFFFFFFFFFFFFFFFFFFFFFFFFFFFFFFFFFFF
310
FFFFFFFFFFFFFFFFFFFFFFFFFFFFFFFFFFFFFFFFFFFFFFFFFFFFFFFFFFFFFFFF
310
FFFFFFFFFFFFFFFFFFFFFFFFFFFFFFFFF000FFFFFFFFFFFFFFFFFFFFFFFFFFFF
310
FFFFFFFFFFFFFFFFFFFFFFFFFFFFFFFFFFFFFFFFFFFFFFFFFFFFFFFFFFFFFFFF
310
FFFFFFFFFFFFFFFFFFFFFFFFFFFFFFFFFFFFFFFFFFFFFFFFFFFFFFFFFFFFFFFF
310
FFFFFFFFFFFFFFFFF000FFFFFFFFFFFFFFFFFFFFFFFFFFFFFFFFFFFFFFFFFFFF
310
FFFFFFFFFFFFFFFFFFFFFFFFFFFFFFFFFFFFFFFFFFFFFFFFFFFFFFFFFFFFFFFF
310
FFFFFFFFFFFFFFFFFFFFFFFFFFFFFFFFFFFFFFFFFFFFFFFFFFFFFFFFFFFFFFFF
310
F000FFFFFFFFFFFFFFFFFFFFFFFFFFFFFFFFFFFFFFFFFFFFFFFFFFFFFFFFFFFF
310
FFFFFFFFFFFFFFFFFFFFFFFFFFFFFFFFFFFFFFFFFFFFFFFFFFFFFFFFFFFFFFFF
310
FFFFFFFFFFFFFFFFFFFFFFFFFFFFFFFFFFFFFFFFFFFFFFFFF000FFFFFFFFFFFF
310
FFFFFFFFFFFFFFFFFFFFFFFFFFFFFFFFFFFFFFFFFFFFFFFFFFFFFFFFFFFFFFFF
310
FFFFFFFFFFFFFFFFFFFFFFFFFFFFFFFFFFFFFFFFFFFFFFFFFFFFFFFFFFFFFFFF
310
FFFFFFFFFFFFFFFFFFFFFFFFFFFFFFFFF0000000000000000000000000000000
310
0000000000000000000000000000000000000000000000000000000000000000
310
0000000000000000000000000000000000000000000000000000000000000000
310
0000000000000000000000000000000000000000000000000000000000000000
310
0000000000000000000000000000000000000000000000000000000000000000
310
0000000000000000000000000000000000000000000000000000000000000000
310
0000000000000000000000000000000000000000000000000000000000000000
310
0000000000000000000000000000000000000000000000000000000000000000
310
0000000000000000000000000000000000000000000000000000000000000000
310
0000000000000000000000000000000000000000000000000000000000000000
310
0000000000000000000000000000000000000000000000000000000000000000
310
0000000000000000000000000000000000000000000000000000000000000000
310
0000000000000000000000000000000000000000000000000000000000000000
310
0000000000000000000000000000000000000000000000000000000000000000
310
0000000000000000000000000000000000000000000000000000000000000000
310
0000000000000000000000000000000000000000000000000000000000000000
  1
OLE
  0
ENDSEC
  0
SECTION
  2
OBJECTS
  0
DICTIONARY
  5
C
330
0
100
AcDbDictionary
281
     1
  3
ACAD_GROUP
350
D
  3
ACAD_LAYOUT
350
1A
  3
ACAD_MLINESTYLE
350
17
  3
ACAD_PLOTSETTINGS
350
19
  3
ACAD_PLOTSTYLENAME
350
E
  3
ACAD_SCALELIST
350
47
  0
DICTIONARY
  5
D
102
{ACAD_REACTORS
330
C
102
}
330
C
100
AcDbDictionary
281
     1
  0
DICTIONARY
  5
1A
102
{ACAD_REACTORS
330
C
102
}
330
C
100
AcDbDictionary
281
     1
  3
Layout1
350
1E
  3
Layout2
350
26
  3
Model
350
22
  0
DICTIONARY
  5
17
102
{ACAD_REACTORS
330
C
102
}
330
C
100
AcDbDictionary
281
     1
  3
Standard
350
18
  0
DICTIONARY
  5
19
102
{ACAD_REACTORS
330
C
102
}
330
C
100
AcDbDictionary
281
     1
  0
ACDBDICTIONARYWDFLT
  5
E
102
{ACAD_REACTORS
330
C
102
}
330
C
100
AcDbDictionary
281
     1
  3
Normal
350
F
100
AcDbDictionaryWithDefault
340
F
  0
DICTIONARY
  5
47
102
{ACAD_REACTORS
330
C
102
}
330
C
100
AcDbDictionary
281
     1
  3
A0
350
48
  3
A1
350
49
  3
A2
350
4A
  3
A3
350
4B
  3
A4
350
4C
  3
A5
350
4D
  3
A6
350
4E
  3
A7
350
4F
  3
A8
350
50
  3
A9
350
51
  3
B0
350
52
  3
B1
350
53
  3
B2
350
54
  3
B3
350
55
  3
B4
350
56
  3
B5
350
57
  3
B6
350
58
  3
B7
350
59
  3
B8
350
5A
  3
B9
350
5B
  3
C0
350
5C
  3
C1
350
5D
  3
C2
350
5E
  3
C3
350
5F
  3
C4
350
60
  3
C5
350
61
  3
C6
350
62
  3
C7
350
63
  3
C8
350
64
  3
C9
350
65
  3
D0
350
66
  3
D1
350
67
  3
D2
350
68
  0
LAYOUT
  5
1E
102
{ACAD_REACTORS
330
1A
102
}
330
1A
100
AcDbPlotSettings
  1

  2
none_device
  4

  6

 40
0.0
 41
0.0
 42
0.0
 43
0.0
 44
0.0
 45
0.0
 46
0.0
 47
0.0
 48
0.0
 49
0.0
140
0.0
141
0.0
142
1.0
143
1.0
 70
   688
 72
     1
 73
     0
 74
     5
  7

 75
    16
147
1.0
148
0.0
149
0.0
100
AcDbLayout
  1
Layout1
 70
     1
 71
     1
 10
0.0
 20
0.0
 11
420.0
 21
297.0
 12
0.0
 22
0.0
 32
0.0
 14
1.0000000000E+20
 24
1.0000000000E+20
 34
1.0000000000E+20
 15
-1.0000000000E+20
 25
-1.0000000000E+20
 35
-1.0000000000E+20
146
0.0
 13
0.0
 23
0.0
 33
0.0
 16
1.0
 26
0.0
 36
0.0
 17
0.0
 27
1.0
 37
0.0
 76
     0
330
1B
  0
LAYOUT
  5
26
102
{ACAD_REACTORS
330
1A
102
}
330
1A
100
AcDbPlotSettings
  1

  2
none_device
  4

  6

 40
0.0
 41
0.0
 42
0.0
 43
0.0
 44
0.0
 45
0.0
 46
0.0
 47
0.0
 48
0.0
 49
0.0
140
0.0
141
0.0
142
1.0
143
1.0
 70
   688
 72
     1
 73
     0
 74
     5
  7

 75
    16
147
1.0
148
0.0
149
0.0
100
AcDbLayout
  1
Layout2
 70
     1
 71
     2
 10
0.0
 20
0.0
 11
0.0
 21
0.0
 12
0.0
 22
0.0
 32
0.0
 14
0.0
 24
0.0
 34
0.0
 15
0.0
 25
0.0
 35
0.0
146
0.0
 13
0.0
 23
0.0
 33
0.0
 16
1.0
 26
0.0
 36
0.0
 17
0.0
 27
1.0
 37
0.0
 76
     0
330
23
  0
LAYOUT
  5
22
102
{ACAD_REACTORS
330
1A
102
}
330
1A
100
AcDbPlotSettings
  1

  2
none_device
  4
Letter_(8.50_x_11.00_Inches)
  6

 40
6.35
 41
6.35
 42
6.35000508
 43
6.35000508
 44
215.9
 45
279.4
 46
0.0
 47
0.0
 48
0.0
 49
0.0
140
0.0
141
0.0
142
1.0
143
1.0
 70
  1712
 72
     1
 73
     0
 74
     0
  7

 75
     0
147
1.0
148
0.0
149
0.0
100
AcDbLayout
  1
Model
 70
     1
 71
     0
 10
0.0
 20
0.0
 11
297.0
 21
210.0
 12
0.0
 22
0.0
 32
0.0
 14
0.0
 24
0.0
 34
0.0
 15
297.0
 25
210.0
 35
0.0
146
0.0
 13
0.0
 23
0.0
 33
0.0
 16
1.0
 26
0.0
 36
0.0
 17
0.0
 27
1.0
 37
0.0
 76
     0
330
1F
331
29
  0
MLINESTYLE
  5
18
102
{ACAD_REACTORS
330
17
102
}
330
17
100
AcDbMlineStyle
  2
Standard
 70
     0
  3

 62
   256
 51
90.0
 52
90.0
 71
     2
 49
0.5
 62
   256
  6
BYLAYER
 49
-0.5
 62
   256
  6
BYLAYER
  0
ACDBPLACEHOLDER
  5
F
102
{ACAD_REACTORS
330
E
102
}
330
E
  0
SCALE
  5
48
102
{ACAD_REACTORS
330
47
102
}
330
47
100
AcDbScale
 70
     0
300
1:1
140
1.0
141
1.0
290
     1
  0
SCALE
  5
49
102
{ACAD_REACTORS
330
47
102
}
330
47
100
AcDbScale
 70
     0
300
1:2
140
1.0
141
2.0
290
     0
  0
SCALE
  5
4A
102
{ACAD_REACTORS
330
47
102
}
330
47
100
AcDbScale
 70
     0
300
1:4
140
1.0
141
4.0
290
     0
  0
SCALE
  5
4B
102
{ACAD_REACTORS
330
47
102
}
330
47
100
AcDbScale
 70
     0
300
1:5
140
1.0
141
5.0
290
     0
  0
SCALE
  5
4C
102
{ACAD_REACTORS
330
47
102
}
330
47
100
AcDbScale
 70
     0
300
1:8
140
1.0
141
8.0
290
     0
  0
SCALE
  5
4D
102
{ACAD_REACTORS
330
47
102
}
330
47
100
AcDbScale
 70
     0
300
1:10
140
1.0
141
10.0
290
     0
  0
SCALE
  5
4E
102
{ACAD_REACTORS
330
47
102
}
330
47
100
AcDbScale
 70
     0
300
1:16
140
1.0
141
16.0
290
     0
  0
SCALE
  5
4F
102
{ACAD_REACTORS
330
47
102
}
330
47
100
AcDbScale
 70
     0
300
1:20
140
1.0
141
20.0
290
     0
  0
SCALE
  5
50
102
{ACAD_REACTORS
330
47
102
}
330
47
100
AcDbScale
 70
     0
300
1:30
140
1.0
141
30.0
290
     0
  0
SCALE
  5
51
102
{ACAD_REACTORS
330
47
102
}
330
47
100
AcDbScale
 70
     0
300
1:40
140
1.0
141
40.0
290
     0
  0
SCALE
  5
52
102
{ACAD_REACTORS
330
47
102
}
330
47
100
AcDbScale
 70
     0
300
1:50
140
1.0
141
50.0
290
     0
  0
SCALE
  5
53
102
{ACAD_REACTORS
330
47
102
}
330
47
100
AcDbScale
 70
     0
300
1:100
140
1.0
141
100.0
290
     0
  0
SCALE
  5
54
102
{ACAD_REACTORS
330
47
102
}
330
47
100
AcDbScale
 70
     0
300
2:1
140
2.0
141
1.0
290
     0
  0
SCALE
  5
55
102
{ACAD_REACTORS
330
47
102
}
330
47
100
AcDbScale
 70
     0
300
4:1
140
4.0
141
1.0
290
     0
  0
SCALE
  5
56
102
{ACAD_REACTORS
330
47
102
}
330
47
100
AcDbScale
 70
     0
300
8:1
140
8.0
141
1.0
290
     0
  0
SCALE
  5
57
102
{ACAD_REACTORS
330
47
102
}
330
47
100
AcDbScale
 70
     0
300
10:1
140
10.0
141
1.0
290
     0
  0
SCALE
  5
58
102
{ACAD_REACTORS
330
47
102
}
330
47
100
AcDbScale
 70
     0
300
100:1
140
100.0
141
1.0
290
     0
  0
SCALE
  5
59
102
{ACAD_REACTORS
330
47
102
}
330
47
100
AcDbScale
 70
     0
300
1/128" = 1'-0"
140
0.0078125
141
12.0
290
     0
  0
SCALE
  5
5A
102
{ACAD_REACTORS
330
47
102
}
330
47
100
AcDbScale
 70
     0
300
1/64" = 1'-0"
140
0.015625
141
12.0
290
     0
  0
SCALE
  5
5B
102
{ACAD_REACTORS
330
47
102
}
330
47
100
AcDbScale
 70
     0
300
1/32" = 1'-0"
140
0.03125
141
12.0
290
     0
  0
SCALE
  5
5C
102
{ACAD_REACTORS
330
47
102
}
330
47
100
AcDbScale
 70
     0
300
1/16" = 1'-0"
140
0.0625
141
12.0
290
     0
  0
SCALE
  5
5D
102
{ACAD_REACTORS
330
47
102
}
330
47
100
AcDbScale
 70
     0
300
3/32" = 1'-0"
140
0.09375
141
12.0
290
     0
  0
SCALE
  5
5E
102
{ACAD_REACTORS
330
47
102
}
330
47
100
AcDbScale
 70
     0
300
1/8" = 1'-0"
140
0.125
141
12.0
290
     0
  0
SCALE
  5
5F
102
{ACAD_REACTORS
330
47
102
}
330
47
100
AcDbScale
 70
     0
300
3/16" = 1'-0"
140
0.1875
141
12.0
290
     0
  0
SCALE
  5
60
102
{ACAD_REACTORS
330
47
102
}
330
47
100
AcDbScale
 70
     0
300
1/4" = 1'-0"
140
0.25
141
12.0
290
     0
  0
SCALE
  5
61
102
{ACAD_REACTORS
330
47
102
}
330
47
100
AcDbScale
 70
     0
300
3/8" = 1'-0"
140
0.375
141
12.0
290
     0
  0
SCALE
  5
62
102
{ACAD_REACTORS
330
47
102
}
330
47
100
AcDbScale
 70
     0
300
1/2" = 1'-0"
140
0.5
141
12.0
290
     0
  0
SCALE
  5
63
102
{ACAD_REACTORS
330
47
102
}
330
47
100
AcDbScale
 70
     0
300
3/4" = 1'-0"
140
0.75
141
12.0
290
     0
  0
SCALE
  5
64
102
{ACAD_REACTORS
330
47
102
}
330
47
100
AcDbScale
 70
     0
300
1" = 1'-0"
140
1.0
141
12.0
290
     0
  0
SCALE
  5
65
102
{ACAD_REACTORS
330
47
102
}
330
47
100
AcDbScale
 70
     0
300
1-1/2" = 1'-0"
140
1.5
141
12.0
290
     0
  0
SCALE
  5
66
102
{ACAD_REACTORS
330
47
102
}
330
47
100
AcDbScale
 70
     0
300
3" = 1'-0"
140
3.0
141
12.0
290
     0
  0
SCALE
  5
67
102
{ACAD_REACTORS
330
47
102
}
330
47
100
AcDbScale
 70
     0
300
6" = 1'-0"
140
6.0
141
12.0
290
     0
  0
SCALE
  5
68
102
{ACAD_REACTORS
330
47
102
}
330
47
100
AcDbScale
 70
     0
300
1'-0" = 1'-0"
140
12.0
141
12.0
290
     0
  0
ENDSEC
  0
EOF
