  0
SECTION
  2
HEADER
  9
$ACADVER
  1
AC1015
  9
$ACADMAINTVER
 70
     6
  9
$DWGCODEPAGE
  3
ANSI_1252
  9
$INSBASE
 10
0.0
 20
0.0
 30
0.0
  9
$EXTMIN
 10
0.0
 20
0.0
 30
0.0
  9
$EXTMAX
 10
297.0
 20
210.0
 30
0.0
  9
$LIMMIN
 10
0.0
 20
0.0
  9
$LIMMAX
 10
297.0
 20
210.0
  9
$ORTHOMODE
 70
     0
  9
$REGENMODE
 70
     1
  9
$FILLMODE
 70
     1
  9
$QTEXTMODE
 70
     0
  9
$MIRRTEXT
 70
     1
  9
$LTSCALE
 40
1.0
  9
$ATTMODE
 70
     1
  9
$TEXTSIZE
 40
2.0
  9
$TRACEWID
 40
1.0
  9
$TEXTSTYLE
  7
Standard
  9
$CLAYER
  8
0
  9
$CELTYPE
  6
ByLayer
  9
$CECOLOR
 62
   256
  9
$CELTSCALE
 40
1.0
  9
$DISPSILH
 70
     0
  9
$DIMSCALE
 40
1.0
  9
$DIMASZ
 40
3.0
  9
$DIMEXO
 40
0.0
  9
$DIMDLI
 40
3.75
  9
$DIMRND
 40
0.0
  9
$DIMDLE
 40
0.0
  9
$DIMEXE
 40
1.0
  9
$DIMTP
 40
0.0
  9
$DIMTM
 40
0.0
  9
$DIMTXT
 40
2.0
  9
$DIMCEN
 40
2.5
  9
$DIMTSZ
 40
0.0
  9
$DIMTOL
 70
     0
  9
$DIMLIM
 70
     0
  9
$DIMTIH
 70
     1
  9
$DIMTOH
 70
     1
  9
$DIMSE1
 70
     0
  9
$DIMSE2
 70
     0
  9
$DIMTAD
 70
     1
  9
$DIMZIN
 70
     0
  9
$DIMBLK
  1

  9
$DIMASO
 70
     1
  9
$DIMSHO
 70
     1
  9
$DIMPOST
  1

  9
$DIMAPOST
  1

  9
$DIMALT
 70
     0
  9
$DIMALTD
 70
     3
  9
$DIMALTF
 40
0.0393700787
  9
$DIMLFAC
 40
1.0
  9
$DIMTOFL
 70
     1
  9
$DIMTVP
 40
0.0
  9
$DIMTIX
 70
     0
  9
$DIMSOXD
 70
     0
  9
$DIMSAH
 70
     0
  9
$DIMBLK1
  1

  9
$DIMBLK2
  1

  9
$DIMSTYLE
  2
ISO-25
  9
$DIMCLRD
 70
     0
  9
$DIMCLRE
 70
     0
  9
$DIMCLRT
 70
     0
  9
$DIMTFAC
 40
1.0
  9
$DIMGAP
 40
1.524
  9
$DIMJUST
 70
     0
  9
$DIMSD1
 70
     0
  9
$DIMSD2
 70
     0
  9
$DIMTOLJ
 70
     0
  9
$DIMTZIN
 70
     0
  9
$DIMALTZ
 70
     0
  9
$DIMALTTZ
 70
     0
  9
$DIMUPT
 70
     0
  9
$DIMDEC
 70
     2
  9
$DIMTDEC
 70
     3
  9
$DIMALTU
 70
     2
  9
$DIMALTTD
 70
     3
  9
$DIMTXSTY
  7
Standard
  9
$DIMAUNIT
 70
     0
  9
$DIMADEC
 70
     2
  9
$DIMALTRND
 40
0.0
  9
$DIMAZIN
 70
     0
  9
$DIMDSEP
 70
    44
  9
$DIMATFIT
 70
     3
  9
$DIMFRAC
 70
     0
  9
$DIMLDRBLK
  1

  9
$DIMLUNIT
 70
     2
  9
$DIMLWD
 70
    -2
  9
$DIMLWE
 70
    -2
  9
$DIMTMOVE
 70
     0
  9
$LUNITS
 70
     2
  9
$LUPREC
 70
     2
  9
$SKETCHINC
 40
1.0
  9
$FILLETRAD
 40
10.0
  9
$AUNITS
 70
     0
  9
$AUPREC
 70
     2
  9
$MENU
  1
.
  9
$ELEVATION
 40
0.0
  9
$PELEVATION
 40
0.0
  9
$THICKNESS
 40
0.0
  9
$LIMCHECK
 70
     0
  9
$CHAMFERA
 40
10.0
  9
$CHAMFERB
 40
10.0
  9
$CHAMFERC
 40
20.0
  9
$CHAMFERD
 40
0.0
  9
$SKPOLY
 70
     0
  9
$TDCREATE
 40
2455629.492840047
  9
$TDUCREATE
 40
2455629.45117338
  9
$TDUPDATE
 40
2455629.492840058
  9
$TDUUPDATE
 40
2455629.451173391
  9
$TDINDWG
 40
0.0000000116
  9
$TDUSRTIMER
 40
0.0000000116
  9
$USRTIMER
 70
     1
  9
$ANGBASE
 50
0.0
  9
$ANGDIR
 70
     0
  9
$PDMODE
 70
     0
  9
$PDSIZE
 40
-1.0
  9
$PLINEWID
 40
0.0
  9
$SPLFRAME
 70
     0
  9
$SPLINETYPE
 70
     6
  9
$SPLINESEGS
 70
     8
  9
$HANDSEED
  5
2F5
  9
$SURFTAB1
 70
     6
  9
$SURFTAB2
 70
     6
  9
$SURFTYPE
 70
     6
  9
$SURFU
 70
     6
  9
$SURFV
 70
     6
  9
$UCSBASE
  2

  9
$UCSNAME
  2

  9
$UCSORG
 10
0.0
 20
0.0
 30
0.0
  9
$UCSXDIR
 10
1.0
 20
0.0
 30
0.0
  9
$UCSYDIR
 10
0.0
 20
1.0
 30
0.0
  9
$UCSORTHOREF
  2

  9
$UCSORTHOVIEW
 70
     0
  9
$UCSORGTOP
 10
0.0
 20
0.0
 30
0.0
  9
$UCSORGBOTTOM
 10
0.0
 20
0.0
 30
0.0
  9
$UCSORGLEFT
 10
0.0
 20
0.0
 30
0.0
  9
$UCSORGRIGHT
 10
0.0
 20
0.0
 30
0.0
  9
$UCSORGFRONT
 10
0.0
 20
0.0
 30
0.0
  9
$UCSORGBACK
 10
0.0
 20
0.0
 30
0.0
  9
$PUCSBASE
  2

  9
$PUCSNAME
  2

  9
$PUCSORG
 10
0.0
 20
0.0
 30
0.0
  9
$PUCSXDIR
 10
1.0
 20
0.0
 30
0.0
  9
$PUCSYDIR
 10
0.0
 20
1.0
 30
0.0
  9
$PUCSORTHOREF
  2

  9
$PUCSORTHOVIEW
 70
     0
  9
$PUCSORGTOP
 10
0.0
 20
0.0
 30
0.0
  9
$PUCSORGBOTTOM
 10
0.0
 20
0.0
 30
0.0
  9
$PUCSORGLEFT
 10
0.0
 20
0.0
 30
0.0
  9
$PUCSORGRIGHT
 10
0.0
 20
0.0
 30
0.0
  9
$PUCSORGFRONT
 10
0.0
 20
0.0
 30
0.0
  9
$PUCSORGBACK
 10
0.0
 20
0.0
 30
0.0
  9
$USERI1
 70
     0
  9
$USERI2
 70
     0
  9
$USERI3
 70
     0
  9
$USERI4
 70
     0
  9
$USERI5
 70
     0
  9
$USERR1
 40
0.0
  9
$USERR2
 40
0.0
  9
$USERR3
 40
0.0
  9
$USERR4
 40
0.0
  9
$USERR5
 40
0.0
  9
$WORLDVIEW
 70
     1
  9
$SHADEDGE
 70
     3
  9
$SHADEDIF
 70
    70
  9
$TILEMODE
 70
     1
  9
$MAXACTVP
 70
    64
  9
$PINSBASE
 10
0.0
 20
0.0
 30
0.0
  9
$PLIMCHECK
 70
     0
  9
$PEXTMIN
 10
1.0000000000E+20
 20
1.0000000000E+20
 30
1.0000000000E+20
  9
$PEXTMAX
 10
-1.0000000000E+20
 20
-1.0000000000E+20
 30
-1.0000000000E+20
  9
$PLIMMIN
 10
0.0
 20
0.0
  9
$PLIMMAX
 10
420.0
 20
297.0
  9
$UNITMODE
 70
     0
  9
$VISRETAIN
 70
     1
  9
$PLINEGEN
 70
     0
  9
$PSLTSCALE
 70
     1
  9
$TREEDEPTH
 70
  3020
  9
$CMLSTYLE
  2
Standard
  9
$CMLJUST
 70
     0
  9
$CMLSCALE
 40
20.0
  9
$PROXYGRAPHICS
 70
     1
  9
$MEASUREMENT
 70
     1
  9
$CELWEIGHT
370
    -1
  9
$ENDCAPS
280
     0
  9
$JOINSTYLE
280
     0
  9
$LWDISPLAY
290
     1
  9
$INSUNITS
 70
     4
  9
$HYPERLINKBASE
  1

  9
$STYLESHEET
  1

  9
$XEDIT
290
     1
  9
$CEPSNTYPE
380
     0
  9
$PSTYLEMODE
290
     1
  9
$FINGERPRINTGUID
  2
{3C51501D-8C2B-4FC2-AC17-F1DB4B123A68}
  9
$VERSIONGUID
  2
{FAEB1C32-E019-11D5-929B-00C0DF256EC4}
  9
$EXTNAMES
290
     1
  9
$PSVPSCALE
 40
0.0
  9
$OLESTARTUP
290
     0
  0
ENDSEC
  0
SECTION
  2
CLASSES
  0
CLASS
  1
ACDBDICTIONARYWDFLT
  2
AcDbDictionaryWithDefault
  3
ObjectDBX Classes
 90
        0
280
     0
281
     0
  0
CLASS
  1
VISUALSTYLE
  2
AcDbVisualStyle
  3
ObjectDBX Classes
 90
     4095
280
     0
281
     0
  0
CLASS
  1
DICTIONARYVAR
  2
AcDbDictionaryVar
  3
ObjectDBX Classes
 90
        0
280
     0
281
     0
  0
CLASS
  1
ACDBPLACEHOLDER
  2
AcDbPlaceHolder
  3
ObjectDBX Classes
 90
        0
280
     0
281
     0
  0
CLASS
  1
LAYOUT
  2
AcDbLayout
  3
ObjectDBX Classes
 90
        0
280
     0
281
     0
  0
ENDSEC
  0
SECTION
  2
TABLES
  0
TABLE
  2
VPORT
  5
8
330
0
100
AcDbSymbolTable
 70
     1
  0
VPORT
  5
29
330
8
100
AcDbSymbolTableRecord
100
AcDbViewportTableRecord
  2
*Active
 70
     0
 10
0.0
 20
0.0
 11
1.0
 21
1.0
 12
148.5
 22
105.0
 13
0.0
 23
0.0
 14
10.0
 24
10.0
 15
10.0
 25
10.0
 16
0.0
 26
0.0
 36
1.0
 17
0.0
 27
0.0
 37
0.0
 40
210.0
 41
1.4142857143
 42
50.0
 43
0.0
 44
0.0
 50
0.0
 51
0.0
 71
     0
 72
  2000
 73
     1
 74
     3
 75
     0
 76
     0
 77
     0
 78
     0
281
     0
 65
     1
110
0.0
120
0.0
130
0.0
111
1.0
121
0.0
131
0.0
112
0.0
122
1.0
132
0.0
 79
     0
146
0.0
  0
ENDTAB
  0
TABLE
  2
LTYPE
  5
5
330
0
100
AcDbSymbolTable
 70
     6
  0
LTYPE
  5
14
330
5
100
AcDbSymbolTableRecord
100
AcDbLinetypeTableRecord
  2
ByBlock
 70
     0
  3

 72
    65
 73
     0
 40
0.0
  0
LTYPE
  5
15
330
5
100
AcDbSymbolTableRecord
100
AcDbLinetypeTableRecord
  2
ByLayer
 70
     0
  3

 72
    65
 73
     0
 40
0.0
  0
LTYPE
  5
16
330
5
100
AcDbSymbolTableRecord
100
AcDbLinetypeTableRecord
  2
Continuous
 70
     0
  3
Solid line
 72
    65
 73
     0
 40
0.0
  0
LTYPE
  5
3B
330
5
100
AcDbSymbolTableRecord
100
AcDbLinetypeTableRecord
  2
HIDDEN
 70
     0
  3
Hidden __ __ __ __ __ __ __ __ __ __ __ __ __ __
 72
    65
 73
     2
 40
1.905
 49
1.27
 74
     0
 49
-0.635
 74
     0
  0
LTYPE
  5
3C
330
5
100
AcDbSymbolTableRecord
100
AcDbLinetypeTableRecord
  2
PHANTOM
 70
     0
  3
Phantom ______  __  __  ______  __  __  ______
 72
    65
 73
     6
 40
12.7
 49
6.35
 74
     0
 49
-1.27
 74
     0
 49
1.27
 74
     0
 49
-1.27
 74
     0
 49
1.27
 74
     0
 49
-1.27
 74
     0
  0
LTYPE
  5
3D
330
5
100
AcDbSymbolTableRecord
100
AcDbLinetypeTableRecord
  2
CENTER
 70
     0
  3
Center ____ _ ____ _ ____ _ ____ _ ____ _ ____
 72
    65
 73
     4
 40
10.16
 49
6.35
 74
     0
 49
-1.27
 74
     0
 49
1.27
 74
     0
 49
-1.27
 74
     0
  0
LTYPE
  5
3E
330
5
100
AcDbSymbolTableRecord
100
AcDbLinetypeTableRecord
  2
CENTERX2
 70
     0
  3
Center (2x) ________  __  ________  __  _____
 72
    65
 73
     4
 40
20.32
 49
12.7
 74
     0
 49
-2.54
 74
     0
 49
2.54
 74
     0
 49
-2.54
 74
     0
  0
LTYPE
  5
3F
330
5
100
AcDbSymbolTableRecord
100
AcDbLinetypeTableRecord
  2
DOT2
 70
     0
  3
Dot (.5x) ........................................
 72
    65
 73
     2
 40
0.635
 49
0.0
 74
     0
 49
-0.635
 74
     0
  0
ENDTAB
  0
TABLE
  2
LAYER
  5
2
330
0
100
AcDbSymbolTable
 70
     5
  0
LAYER
  5
10
330
2
100
AcDbSymbolTableRecord
100
AcDbLayerTableRecord
  2
0
 70
     0
 62
     7
  6
Continuous
370
    -3
390
F
  0
LAYER
  5
40
330
2
100
AcDbSymbolTableRecord
100
AcDbLayerTableRecord
  2
FORMAT
 70
     0
 62
     7
  6
Continuous
370
    -3
390
F
  0
LAYER
  5
41
330
2
100
AcDbSymbolTableRecord
100
AcDbLayerTableRecord
  2
VERMASSUNG
 70
     0
 62
     7
  6
Continuous
370
    -3
390
F
  0
LAYER
  5
42
330
2
100
AcDbSymbolTableRecord
100
AcDbLayerTableRecord
  2
KOPF_DÜNN
 70
     0
 62
     7
  6
Continuous
370
    -3
390
F
  0
LAYER
  5
43
330
2
100
AcDbSymbolTableRecord
100
AcDbLayerTableRecord
  2
KOPF_DICK
 70
     0
 62
     7
  6
Continuous
370
    15
390
F
  0
ENDTAB
  0
TABLE
  2
STYLE
  5
3
330
0
100
AcDbSymbolTable
 70
     3
  0
STYLE
  5
11
330
3
100
AcDbSymbolTableRecord
100
AcDbTextStyleTableRecord
  2
Standard
 70
     0
 40
0.0
 41
1.0
 50
0.0
 71
     0
 42
2.5
  3
txt
  4

  0
STYLE
  5
44
330
3
100
AcDbSymbolTableRecord
100
AcDbTextStyleTableRecord
  2
SLDTEXTSTYLE0
 70
     0
 40
0.0
 41
0.7
 50
0.0
 71
     0
 42
0.2
  3
TXT
  4

  0
STYLE
  5
48
330
3
100
AcDbSymbolTableRecord
100
AcDbTextStyleTableRecord
  2
SLDTEXTSTYLE1
 70
     0
 40
0.0
 41
0.6473684211
 50
0.0
 71
     0
 42
0.2
  3
TXT
  4

  0
ENDTAB
  0
TABLE
  2
VIEW
  5
6
330
0
100
AcDbSymbolTable
 70
     0
  0
ENDTAB
  0
TABLE
  2
UCS
  5
7
330
0
100
AcDbSymbolTable
 70
     0
  0
ENDTAB
  0
TABLE
  2
APPID
  5
9
330
0
100
AcDbSymbolTable
 70
     1
  0
APPID
  5
12
330
9
100
AcDbSymbolTableRecord
100
AcDbRegAppTableRecord
  2
ACAD
 70
     0
  0
ENDTAB
  0
TABLE
  2
DIMSTYLE
  5
A
330
0
100
AcDbSymbolTable
 70
     3
100
AcDbDimStyleTable
  0
DIMSTYLE
105
27
330
A
100
AcDbSymbolTableRecord
100
AcDbDimStyleTableRecord
  2
ISO-25
 70
     0
 41
2.5
 42
0.625
 43
3.75
 44
1.25
 73
     0
 74
     0
 77
     1
 78
     8
140
2.5
141
2.5
143
0.0393700787
147
0.625
171
     3
172
     1
271
     2
272
     2
274
     3
278
    44
283
     0
284
     8
340
11
  0
DIMSTYLE
105
2A3
102
{ACAD_REACTORS
330
2A2
330
2AE
330
2B9
330
2C5
330
2CF
330
2D9
102
}
330
A
100
AcDbSymbolTableRecord
100
AcDbDimStyleTableRecord
  2
SLDDIMSTYLE0
 70
     0
 41
3.0
 44
0.0
 45
0.000000001
 73
     0
 74
     0
 77
     1
 78
    12
140
2.0
147
0.5
173
     1
271
     2
272
     3
284
    12
340
44
  0
DIMSTYLE
105
2E4
102
{ACAD_REACTORS
330
2E3
102
}
330
A
100
AcDbSymbolTableRecord
100
AcDbDimStyleTableRecord
  2
SLDDIMSTYLE1
 70
     0
 41
3.0
 44
0.0
 45
0.000000001
 73
     0
 74
     0
 77
     1
 78
    12
140
2.0
147
0.5
173
     1
271
     0
272
     3
284
    12
340
44
  0
ENDTAB
  0
TABLE
  2
BLOCK_RECORD
  5
1
330
0
100
AcDbSymbolTable
 70
     8
  0
BLOCK_RECORD
  5
1F
330
1
100
AcDbSymbolTableRecord
100
AcDbBlockTableRecord
  2
*Model_Space
340
22
  0
BLOCK_RECORD
  5
1B
330
1
100
AcDbSymbolTableRecord
100
AcDbBlockTableRecord
  2
*Paper_Space
340
1E
  0
BLOCK_RECORD
  5
23
330
1
100
AcDbSymbolTableRecord
100
AcDbBlockTableRecord
  2
*Paper_Space0
340
26
  0
BLOCK_RECORD
  5
2A4
330
1
100
AcDbSymbolTableRecord
100
AcDbBlockTableRecord
  2
*D1
340
0
  0
BLOCK_RECORD
  5
2AF
330
1
100
AcDbSymbolTableRecord
100
AcDbBlockTableRecord
  2
*D2
340
0
  0
BLOCK_RECORD
  5
2BA
330
1
100
AcDbSymbolTableRecord
100
AcDbBlockTableRecord
  2
*D3
340
0
  0
BLOCK_RECORD
  5
2C6
330
1
100
AcDbSymbolTableRecord
100
AcDbBlockTableRecord
  2
*D4
340
0
  0
BLOCK_RECORD
  5
2D0
330
1
100
AcDbSymbolTableRecord
100
AcDbBlockTableRecord
  2
*D5
340
0
  0
BLOCK_RECORD
  5
2DA
330
1
100
AcDbSymbolTableRecord
100
AcDbBlockTableRecord
  2
*D6
340
0
  0
BLOCK_RECORD
  5
2E5
330
1
100
AcDbSymbolTableRecord
100
AcDbBlockTableRecord
  2
*D7
340
0
  0
ENDTAB
  0
ENDSEC
  0
SECTION
  2
BLOCKS
  0
BLOCK
  5
20
330
1F
100
AcDbEntity
  8
0
100
AcDbBlockBegin
  2
*Model_Space
 70
     0
 10
0.0
 20
0.0
 30
0.0
  3
*Model_Space
  1

  0
ENDBLK
  5
21
330
1F
100
AcDbEntity
  8
0
100
AcDbBlockEnd
  0
BLOCK
  5
1C
330
1B
100
AcDbEntity
 67
     1
  8
0
100
AcDbBlockBegin
  2
*Paper_Space
 70
     0
 10
0.0
 20
0.0
 30
0.0
  3
*Paper_Space
  1

  0
ENDBLK
  5
1D
330
1B
100
AcDbEntity
 67
     1
  8
0
100
AcDbBlockEnd
  0
BLOCK
  5
24
330
23
100
AcDbEntity
  8
0
100
AcDbBlockBegin
  2
*Paper_Space0
 70
     0
 10
0.0
 20
0.0
 30
0.0
  3
*Paper_Space0
  1

  0
ENDBLK
  5
25
330
23
100
AcDbEntity
  8
0
100
AcDbBlockEnd
  0
BLOCK
  5
2A5
330
2A4
100
AcDbEntity
  8
0
100
AcDbBlockBegin
  2
*D1
 70
     1
 10
0.0
 20
0.0
 30
0.0
  3
*D1
  1

  0
SOLID
  5
2A7
330
2A4
100
AcDbEntity
  8
VERMASSUNG
100
AcDbTrace
 10
252.6592274146
 20
126.2227207901
 30
0.0
 11
252.2092274146
 21
123.2227207901
 31
0.0
 12
253.1092274146
 22
123.2227207901
 32
0.0
 13
253.1092274146
 23
123.2227207901
 33
0.0
  0
SOLID
  5
2A8
330
2A4
100
AcDbEntity
  8
VERMASSUNG
100
AcDbTrace
 10
252.6592274146
 20
94.2227207901
 30
0.0
 11
253.1092274146
 21
97.2227207901
 31
0.0
 12
252.2092274146
 22
97.2227207901
 32
0.0
 13
252.2092274146
 23
97.2227207901
 33
0.0
  0
LINE
  5
2A9
330
2A4
100
AcDbEntity
  8
VERMASSUNG
100
AcDbLine
 10
238.713528203
 20
126.2227207901
 30
0.0
 11
253.6592274146
 21
126.2227207901
 31
0.0
  0
LINE
  5
2AA
330
2A4
100
AcDbEntity
  8
VERMASSUNG
100
AcDbLine
 10
238.713528203
 20
94.2227207901
 30
0.0
 11
253.6592274146
 21
94.2227207901
 31
0.0
  0
LINE
  5
2AB
330
2A4
100
AcDbEntity
  8
VERMASSUNG
100
AcDbLine
 10
252.6592274146
 20
126.2227207901
 30
0.0
 11
252.6592274146
 21
94.2227207901
 31
0.0
  0
MTEXT
  5
2AC
330
2A4
100
AcDbEntity
  8
VERMASSUNG
100
AcDbMText
 10
250.0810919351
 20
107.0196222336
 30
0.0
 40
2.0
 41
0.0
 71
     1
 72
     1
  1
%%c
  7
SLDTEXTSTYLE0
 11
-7.044195017643634E-15
 21
1.0
 31
0.0
 73
     1
 44
1.0
  0
MTEXT
  5
2AD
330
2A4
100
AcDbEntity
  8
VERMASSUNG
100
AcDbMText
 10
250.0810920515
 20
110.6272076385
 30
0.0
 40
2.0
 41
0.0
 71
     1
 72
     1
  1
32
  7
SLDTEXTSTYLE0
 11
-7.044195017643634E-15
 21
1.0
 31
0.0
 73
     1
 44
1.0
  0
ENDBLK
  5
2A6
330
2A4
100
AcDbEntity
  8
0
100
AcDbBlockEnd
  0
BLOCK
  5
2B0
330
2AF
100
AcDbEntity
  8
0
100
AcDbBlockBegin
  2
*D2
 70
     1
 10
0.0
 20
0.0
 30
0.0
  3
*D2
  1

  0
SOLID
  5
2B2
330
2AF
100
AcDbEntity
  8
VERMASSUNG
100
AcDbTrace
 10
246.6592274146
 20
119.7227207901
 30
0.0
 11
246.2092274146
 21
116.7227207901
 31
0.0
 12
247.1092274146
 22
116.7227207901
 32
0.0
 13
247.1092274146
 23
116.7227207901
 33
0.0
  0
SOLID
  5
2B3
330
2AF
100
AcDbEntity
  8
VERMASSUNG
100
AcDbTrace
 10
246.6592274146
 20
100.7227207901
 30
0.0
 11
247.1092274146
 21
103.7227207901
 31
0.0
 12
246.2092274146
 22
103.7227207901
 32
0.0
 13
246.2092274146
 23
103.7227207901
 33
0.0
  0
LINE
  5
2B4
330
2AF
100
AcDbEntity
  8
VERMASSUNG
100
AcDbLine
 10
239.563528203
 20
119.7227207901
 30
0.0
 11
247.6592274146
 21
119.7227207901
 31
0.0
  0
LINE
  5
2B5
330
2AF
100
AcDbEntity
  8
VERMASSUNG
100
AcDbLine
 10
239.563528203
 20
100.7227207901
 30
0.0
 11
247.6592274146
 21
100.7227207901
 31
0.0
  0
LINE
  5
2B6
330
2AF
100
AcDbEntity
  8
VERMASSUNG
100
AcDbLine
 10
246.6592274146
 20
119.7227207901
 30
0.0
 11
246.6592274146
 21
100.7227207901
 31
0.0
  0
MTEXT
  5
2B7
330
2AF
100
AcDbEntity
  8
VERMASSUNG
100
AcDbMText
 10
244.0810919351
 20
107.2200436449
 30
0.0
 40
2.0
 41
0.0
 71
     1
 72
     1
  1
%%c
  7
SLDTEXTSTYLE0
 11
-7.044195017643634E-15
 21
1.0
 31
0.0
 73
     1
 44
1.0
  0
MTEXT
  5
2B8
330
2AF
100
AcDbEntity
  8
VERMASSUNG
100
AcDbMText
 10
244.0810920515
 20
110.8276290499
 30
0.0
 40
2.0
 41
0.0
 71
     1
 72
     1
  1
19
  7
SLDTEXTSTYLE0
 11
-7.044195017643634E-15
 21
1.0
 31
0.0
 73
     1
 44
1.0
  0
ENDBLK
  5
2B1
330
2AF
100
AcDbEntity
  8
0
100
AcDbBlockEnd
  0
BLOCK
  5
2BB
330
2BA
100
AcDbEntity
  8
0
100
AcDbBlockBegin
  2
*D3
 70
     1
 10
0.0
 20
0.0
 30
0.0
  3
*D3
  1

  0
SOLID
  5
2BD
330
2BA
100
AcDbEntity
  8
VERMASSUNG
100
AcDbTrace
 10
43.1817657942
 20
141.7227207901
 30
0.0
 11
42.7317657942
 21
138.7227207901
 31
0.0
 12
43.6317657942
 22
138.7227207901
 32
0.0
 13
43.6317657942
 23
138.7227207901
 33
0.0
  0
SOLID
  5
2BE
330
2BA
100
AcDbEntity
  8
VERMASSUNG
100
AcDbTrace
 10
43.1817657942
 20
78.7227207901
 30
0.0
 11
43.6317657942
 21
81.7227207901
 31
0.0
 12
42.7317657942
 22
81.7227207901
 32
0.0
 13
42.7317657942
 23
81.7227207901
 33
0.0
  0
LINE
  5
2BF
330
2BA
100
AcDbEntity
  8
VERMASSUNG
100
AcDbLine
 10
80.563528203
 20
141.7227207901
 30
0.0
 11
42.1817657942
 21
141.7227207901
 31
0.0
  0
LINE
  5
2C0
330
2BA
100
AcDbEntity
  8
VERMASSUNG
100
AcDbLine
 10
80.563528203
 20
78.7227207901
 30
0.0
 11
42.1817657942
 21
78.7227207901
 31
0.0
  0
LINE
  5
2C1
330
2BA
100
AcDbEntity
  8
VERMASSUNG
100
AcDbLine
 10
43.1817657942
 20
141.7227207901
 30
0.0
 11
43.1817657942
 21
78.7227207901
 31
0.0
  0
MTEXT
  5
2C2
330
2BA
100
AcDbEntity
  8
VERMASSUNG
100
AcDbMText
 10
40.4036303052
 20
102.3132678816
 30
0.0
 40
2.0
 41
0.0
 71
     1
 72
     1
  1
HSK A 
  7
SLDTEXTSTYLE0
 11
-7.044195017643634E-15
 21
1.0
 31
0.0
 73
     1
 44
1.0
  0
MTEXT
  5
2C3
330
2BA
100
AcDbEntity
  8
VERMASSUNG
100
AcDbMText
 10
40.6036303147
 20
111.3132684255
 30
0.0
 40
2.0
 41
0.0
 71
     1
 72
     1
  1
%%c
  7
SLDTEXTSTYLE0
 11
-7.044195017643634E-15
 21
1.0
 31
0.0
 73
     1
 44
1.0
  0
MTEXT
  5
2C4
330
2BA
100
AcDbEntity
  8
VERMASSUNG
100
AcDbMText
 10
40.6036304311
 20
114.9215966707
 30
0.0
 40
2.0
 41
0.0
 71
     1
 72
     1
  1
63
  7
SLDTEXTSTYLE0
 11
-7.044195017643634E-15
 21
1.0
 31
0.0
 73
     1
 44
1.0
  0
ENDBLK
  5
2BC
330
2BA
100
AcDbEntity
  8
0
100
AcDbBlockEnd
  0
BLOCK
  5
2C7
330
2C6
100
AcDbEntity
  8
0
100
AcDbBlockBegin
  2
*D4
 70
     1
 10
0.0
 20
0.0
 30
0.0
  3
*D4
  1

  0
SOLID
  5
2C9
330
2C6
100
AcDbEntity
  8
VERMASSUNG
100
AcDbTrace
 10
48.363528203
 20
159.8180361164
 30
0.0
 11
51.363528203
 21
159.3680361164
 31
0.0
 12
51.363528203
 22
160.2680361164
 32
0.0
 13
51.363528203
 23
160.2680361164
 33
0.0
  0
SOLID
  5
2CA
330
2C6
100
AcDbEntity
  8
VERMASSUNG
100
AcDbTrace
 10
240.263528203
 20
159.8180361164
 30
0.0
 11
237.263528203
 21
160.2680361164
 31
0.0
 12
237.263528203
 22
159.3680361164
 32
0.0
 13
237.263528203
 23
159.3680361164
 33
0.0
  0
LINE
  5
2CB
330
2C6
100
AcDbEntity
  8
VERMASSUNG
100
AcDbLine
 10
48.363528203
 20
129.9133985366
 30
0.0
 11
48.363528203
 21
160.8180361164
 31
0.0
  0
LINE
  5
2CC
330
2C6
100
AcDbEntity
  8
VERMASSUNG
100
AcDbLine
 10
240.263528203
 20
122.0227207901
 30
0.0
 11
240.263528203
 21
160.8180361164
 31
0.0
  0
LINE
  5
2CD
330
2C6
100
AcDbEntity
  8
VERMASSUNG
100
AcDbLine
 10
48.363528203
 20
159.8180361164
 30
0.0
 11
240.263528203
 21
159.8180361164
 31
0.0
  0
MTEXT
  5
2CE
330
2C6
100
AcDbEntity
  8
VERMASSUNG
100
AcDbMText
 10
136.4252272359
 20
162.3961714796
 30
0.0
 40
2.0
 41
0.0
 71
     1
 72
     1
  1
191.9
  7
SLDTEXTSTYLE0
 73
     1
 44
1.0
  0
ENDBLK
  5
2C8
330
2C6
100
AcDbEntity
  8
0
100
AcDbBlockEnd
  0
BLOCK
  5
2D1
330
2D0
100
AcDbEntity
  8
0
100
AcDbBlockBegin
  2
*D5
 70
     1
 10
0.0
 20
0.0
 30
0.0
  3
*D5
  1

  0
SOLID
  5
2D3
330
2D0
100
AcDbEntity
  8
VERMASSUNG
100
AcDbTrace
 10
80.263528203
 20
153.8180361164
 30
0.0
 11
83.263528203
 21
153.3680361164
 31
0.0
 12
83.263528203
 22
154.2680361164
 32
0.0
 13
83.263528203
 23
154.2680361164
 33
0.0
  0
SOLID
  5
2D4
330
2D0
100
AcDbEntity
  8
VERMASSUNG
100
AcDbTrace
 10
240.263528203
 20
153.8180361164
 30
0.0
 11
237.263528203
 21
154.2680361164
 31
0.0
 12
237.263528203
 22
153.3680361164
 32
0.0
 13
237.263528203
 23
153.3680361164
 33
0.0
  0
LINE
  5
2D5
330
2D0
100
AcDbEntity
  8
VERMASSUNG
100
AcDbLine
 10
80.263528203
 20
141.4227207901
 30
0.0
 11
80.263528203
 21
154.8180361164
 31
0.0
  0
LINE
  5
2D6
330
2D0
100
AcDbEntity
  8
VERMASSUNG
100
AcDbLine
 10
240.263528203
 20
122.0227207901
 30
0.0
 11
240.263528203
 21
154.8180361164
 31
0.0
  0
LINE
  5
2D7
330
2D0
100
AcDbEntity
  8
VERMASSUNG
100
AcDbLine
 10
80.263528203
 20
153.8180361164
 30
0.0
 11
240.263528203
 21
153.8180361164
 31
0.0
  0
MTEXT
  5
2D8
330
2D0
100
AcDbEntity
  8
VERMASSUNG
100
AcDbMText
 10
158.0345613152
 20
156.3961714796
 30
0.0
 40
2.0
 41
0.0
 71
     1
 72
     1
  1
160
  7
SLDTEXTSTYLE0
 73
     1
 44
1.0
  0
ENDBLK
  5
2D2
330
2D0
100
AcDbEntity
  8
0
100
AcDbBlockEnd
  0
BLOCK
  5
2DB
330
2DA
100
AcDbEntity
  8
0
100
AcDbBlockBegin
  2
*D6
 70
     1
 10
0.0
 20
0.0
 30
0.0
  3
*D6
  1

  0
SOLID
  5
2DD
330
2DA
100
AcDbEntity
  8
VERMASSUNG
100
AcDbTrace
 10
106.213528203
 20
147.8180361164
 30
0.0
 11
109.213528203
 21
147.3680361164
 31
0.0
 12
109.213528203
 22
148.2680361164
 32
0.0
 13
109.213528203
 23
148.2680361164
 33
0.0
  0
SOLID
  5
2DE
330
2DA
100
AcDbEntity
  8
VERMASSUNG
100
AcDbTrace
 10
240.263528203
 20
147.8180361164
 30
0.0
 11
237.263528203
 21
148.2680361164
 31
0.0
 12
237.263528203
 22
147.3680361164
 32
0.0
 13
237.263528203
 23
147.3680361164
 33
0.0
  0
LINE
  5
2DF
330
2DA
100
AcDbEntity
  8
VERMASSUNG
100
AcDbLine
 10
106.213528203
 20
140.0691611139
 30
0.0
 11
106.213528203
 21
148.8180361164
 31
0.0
  0
LINE
  5
2E0
330
2DA
100
AcDbEntity
  8
VERMASSUNG
100
AcDbLine
 10
240.263528203
 20
122.0227207901
 30
0.0
 11
240.263528203
 21
148.8180361164
 31
0.0
  0
LINE
  5
2E1
330
2DA
100
AcDbEntity
  8
VERMASSUNG
100
AcDbLine
 10
106.213528203
 20
147.8180361164
 30
0.0
 11
240.263528203
 21
147.8180361164
 31
0.0
  0
MTEXT
  5
2E2
330
2DA
100
AcDbEntity
  8
VERMASSUNG
100
AcDbMText
 10
172.0438386492
 20
150.3961714796
 30
0.0
 40
2.0
 41
0.0
 71
     1
 72
     1
  1
134.05
  7
SLDTEXTSTYLE0
 73
     1
 44
1.0
  0
ENDBLK
  5
2DC
330
2DA
100
AcDbEntity
  8
0
100
AcDbBlockEnd
  0
BLOCK
  5
2E6
330
2E5
100
AcDbEntity
  8
0
100
AcDbBlockBegin
  2
*D7
 70
     1
 10
0.0
 20
0.0
 30
0.0
  3
*D7
  1

  0
SOLID
  5
2E8
330
2E5
100
AcDbEntity
  8
VERMASSUNG
100
AcDbTrace
 10
258.6592274146
 20
130.0948046921
 30
0.0
 11
258.2092274146
 21
127.0948046921
 31
0.0
 12
259.1092274146
 22
127.0948046921
 32
0.0
 13
259.1092274146
 23
127.0948046921
 33
0.0
  0
SOLID
  5
2E9
330
2E5
100
AcDbEntity
  8
VERMASSUNG
100
AcDbTrace
 10
258.6592274146
 20
90.3506368881
 30
0.0
 11
259.1092274146
 21
93.3506368881
 31
0.0
 12
258.2092274146
 22
93.3506368881
 32
0.0
 13
258.2092274146
 23
93.3506368881
 33
0.0
  0
LINE
  5
2EA
330
2E5
100
AcDbEntity
  8
VERMASSUNG
100
AcDbLine
 10
108.848409006
 20
130.0948046921
 30
0.0
 11
259.6592274146
 21
130.0948046921
 31
0.0
  0
LINE
  5
2EB
330
2E5
100
AcDbEntity
  8
VERMASSUNG
100
AcDbLine
 10
108.848409006
 20
90.3506368881
 30
0.0
 11
259.6592274146
 21
90.3506368881
 31
0.0
  0
LINE
  5
2EC
330
2E5
100
AcDbEntity
  8
VERMASSUNG
100
AcDbLine
 10
258.6592274146
 20
130.0948046921
 30
0.0
 11
258.6592274146
 21
90.3506368881
 31
0.0
  0
MTEXT
  5
2ED
330
2E5
100
AcDbEntity
  8
VERMASSUNG
100
AcDbMText
 10
256.0810919351
 20
106.9200188655
 30
0.0
 40
2.0
 41
0.0
 71
     1
 72
     1
  1
%%c
  7
SLDTEXTSTYLE0
 11
-7.044195017643634E-15
 21
1.0
 31
0.0
 73
     1
 44
1.0
  0
MTEXT
  5
2EE
330
2E5
100
AcDbEntity
  8
VERMASSUNG
100
AcDbMText
 10
256.0810920515
 20
110.5276042704
 30
0.0
 40
2.0
 41
0.0
 71
     1
 72
     1
  1
40
  7
SLDTEXTSTYLE0
 11
-7.044195017643634E-15
 21
1.0
 31
0.0
 73
     1
 44
1.0
  0
ENDBLK
  5
2E7
330
2E5
100
AcDbEntity
  8
0
100
AcDbBlockEnd
  0
ENDSEC
  0
SECTION
  2
ENTITIES
  0
MTEXT
  5
45
330
1F
100
AcDbEntity
  8
KOPF_DÜNN
100
AcDbMText
 10
13.8892156294
 20
23.8442973028
 30
0.0
 40
3.0
 41
0.0
 71
     1
 72
     1
  1
HA6.Go1.K01.160
  7
SLDTEXTSTYLE0
 73
     1
 44
1.0
  0
MTEXT
  5
46
330
1F
100
AcDbEntity
  8
VERMASSUNG
100
AcDbMText
 10
13.9329988022
 20
28.8834360957
 30
0.0
 40
3.0
 41
0.0
 71
     1
 72
     1
  1
Gewindeschneidfutter_Tapping chuck
  7
SLDTEXTSTYLE0
 73
     1
 44
1.0
  0
MTEXT
  5
47
330
1F
100
AcDbEntity
  8
VERMASSUNG
100
AcDbMText
 10
98.8601118557
 20
13.8365368179
 30
0.0
 40
2.0
 41
0.0
 71
     1
 72
     1
  1
Datum: 12.10.2006
  7
SLDTEXTSTYLE0
 73
     1
 44
1.0
  0
MTEXT
  5
49
330
1F
100
AcDbEntity
  8
VERMASSUNG
100
AcDbMText
 10
13.933048693
 20
18.0482802738
 30
0.0
 40
2.0
 41
0.0
 71
     1
 72
     1
  1
DIN 69 893 HSK A 63
  7
SLDTEXTSTYLE1
 73
     1
 44
1.0
  0
MTEXT
  5
4A
330
1F
100
AcDbEntity
  8
VERMASSUNG
100
AcDbMText
 10
13.9808475933
 20
13.9090973692
 30
0.0
 40
2.0
 41
0.0
 71
     1
 72
     1
  1
Gewicht: 1395g
  7
SLDTEXTSTYLE0
 73
     1
 44
1.0
  0
LINE
  5
4B
330
1F
100
AcDbEntity
  8
0
  6
Continuous
 62
     7
370
    15
100
AcDbLine
 10
80.5635282173
 20
78.7227202835
 30
0.0
 11
85.2135281762
 21
78.7227202835
 31
0.0
  0
LINE
  5
4C
330
1F
100
AcDbEntity
  8
0
  6
Continuous
 62
     7
370
    15
100
AcDbLine
 10
85.2415167479
 20
141.7227212967
 30
0.0
 11
80.5635282173
 21
141.7227212967
 31
0.0
  0
ARC
  5
4D
330
1F
100
AcDbEntity
  8
0
  6
Continuous
 62
     7
370
    15
100
AcDbCircle
 10
80.563528203
 20
79.0227207901
 30
0.0
 40
0.2999999999999972
100
AcDbArc
 50
180.0
 51
270.0
  0
ARC
  5
4E
330
1F
100
AcDbEntity
  8
0
  6
Continuous
 62
     7
370
    15
100
AcDbCircle
 10
80.563528203
 20
141.4227207901
 30
0.0
 40
0.2999999999999972
100
AcDbArc
 50
90.0
 51
180.0
  0
ARC
  5
4F
330
1F
100
AcDbEntity
  8
0
  6
Continuous
 62
     7
370
    15
100
AcDbCircle
 10
79.7635214503
 20
85.6522831757
 30
0.0
 40
0.6000067526677242
100
AcDbArc
 50
33.5571153394
 51
90.0
  0
ARC
  5
50
330
1F
100
AcDbEntity
  8
0
  6
Continuous
 62
     7
370
    15
100
AcDbCircle
 10
79.7635214503
 20
134.7931584045
 30
0.0
 40
0.6000067526677242
100
AcDbArc
 50
270.0
 51
326.4428846606
  0
LINE
  5
51
330
1F
100
AcDbEntity
  8
0
  6
Continuous
 62
     7
370
    15
100
AcDbLine
 10
67.0331056913
 20
133.880504656
 30
0.0
 11
54.4635273268
 21
133.2507666828
 31
0.0
  0
LINE
  5
52
330
1F
100
AcDbEntity
  8
0
  6
Continuous
 62
     7
370
    15
100
AcDbLine
 10
78.263528108
 20
134.4431520136
 30
0.0
 11
75.444918753
 21
134.3019392969
 31
0.0
  0
LINE
  5
53
330
1F
100
AcDbEntity
  8
0
  6
Continuous
 62
     7
370
    15
100
AcDbLine
 10
75.4451404078
 20
86.1434911074
 30
0.0
 11
78.263528108
 21
86.0022895666
 31
0.0
  0
LINE
  5
54
330
1F
100
AcDbEntity
  8
0
  6
Continuous
 62
     7
370
    15
100
AcDbLine
 10
58.4635279825
 20
86.9942747684
 30
0.0
 11
67.0338051146
 21
86.5649015339
 31
0.0
  0
LINE
  5
55
330
1F
100
AcDbEntity
  8
0
  6
Continuous
 62
     7
370
    15
100
AcDbLine
 10
78.263528108
 20
86.0022895666
 30
0.0
 11
79.1202410342
 21
86.2318456801
 31
0.0
  0
LINE
  5
56
330
1F
100
AcDbEntity
  8
0
  6
Continuous
 62
     7
370
    15
100
AcDbLine
 10
79.1202410342
 20
134.2135959001
 30
0.0
 11
78.263528108
 21
134.4431520136
 31
0.0
  0
ARC
  5
57
330
1F
100
AcDbEntity
  8
0
  6
Continuous
 62
     7
370
    15
100
AcDbCircle
 10
79.2755324035
 20
85.6522899284
 30
0.0
 40
0.6000000000000085
100
AcDbArc
 50
90.0
 51
105.0
  0
ARC
  5
58
330
1F
100
AcDbEntity
  8
0
  6
Continuous
 62
     7
370
    15
100
AcDbCircle
 10
79.2755324035
 20
134.7931516518
 30
0.0
 40
0.6000000000000227
100
AcDbArc
 50
255.0
 51
270.0
  0
LINE
  5
59
330
1F
100
AcDbEntity
  8
0
  6
Continuous
 62
     7
370
    15
100
AcDbLine
 10
79.2755324378
 20
86.2522900732
 30
0.0
 11
79.7635214272
 21
86.2522900732
 31
0.0
  0
LINE
  5
5A
330
1F
100
AcDbEntity
  8
0
  6
Continuous
 62
     7
370
    15
100
AcDbLine
 10
79.7635214272
 20
134.193151507
 30
0.0
 11
79.2755324378
 21
134.193151507
 31
0.0
  0
ARC
  5
5B
330
1F
100
AcDbEntity
  8
0
  6
Continuous
 62
     7
370
    15
100
AcDbCircle
 10
109.213528203
 20
87.3729384527
 30
0.0
 40
3.000000000000028
100
AcDbArc
 50
96.9905939559
 51
180.0
  0
ARC
  5
5C
330
1F
100
AcDbEntity
  8
0
  6
Continuous
 62
     7
370
    15
100
AcDbCircle
 10
109.213528203
 20
133.0725031275
 30
0.0
 40
3.000000000000028
100
AcDbArc
 50
180.0
 51
263.0094060441
  0
ARC
  5
5D
330
1F
100
AcDbEntity
  8
0
  6
Continuous
 62
     7
370
    15
100
AcDbCircle
 10
206.213528203
 20
-703.7022792099
 30
0.0
 40
800.0000000000001
100
AcDbArc
 50
90.0
 51
96.9905939559
  0
ARC
  5
5E
330
1F
100
AcDbEntity
  8
0
  6
Continuous
 62
     7
370
    15
100
AcDbCircle
 10
206.213528203
 20
924.1477207901
 30
0.0
 40
800.0
100
AcDbArc
 50
263.0094060441
 51
270.0
  0
LINE
  5
5F
330
1F
100
AcDbEntity
  8
0
  6
Continuous
 62
     7
370
    15
100
AcDbLine
 10
206.2135219326
 20
96.2977206962
 30
0.0
 11
210.2135300388
 21
96.2977206962
 31
0.0
  0
LINE
  5
60
330
1F
100
AcDbEntity
  8
0
  6
Continuous
 62
     7
370
    15
100
AcDbLine
 10
210.2135300388
 20
124.147720884
 30
0.0
 11
206.2135219326
 21
124.147720884
 31
0.0
  0
LINE
  5
61
330
1F
100
AcDbEntity
  8
0
  6
Continuous
 62
     7
370
    15
100
AcDbLine
 10
49.6468648067
 20
89.3527206661
 30
0.0
 11
57.0635284981
 21
89.3527206661
 31
0.0
  0
LINE
  5
62
330
1F
100
AcDbEntity
  8
0
  6
Continuous
 62
     7
370
    15
100
AcDbLine
 10
240.2635246267
 20
122.0227212342
 30
0.0
 11
239.7135227671
 21
122.5727212312
 31
0.0
  0
LINE
  5
63
330
1F
100
AcDbEntity
  8
0
  6
Continuous
 62
     7
370
    15
100
AcDbLine
 10
239.7135227671
 20
97.872720349
 30
0.0
 11
240.2635246267
 21
98.422720346
 31
0.0
  0
ARC
  5
64
330
1F
100
AcDbEntity
  8
0
  6
Continuous
 62
     7
370
    15
100
AcDbCircle
 10
57.063528203
 20
87.9527207901
 30
0.0
 40
1.400000000000006
100
AcDbArc
 50
42.2465410162
 51
90.0
  0
LINE
  5
65
330
1F
100
AcDbEntity
  8
0
  6
Continuous
 62
     7
370
    15
100
AcDbLine
 10
48.3645602813
 20
90.5016877385
 30
0.0
 11
49.5046909651
 21
89.3615570547
 31
0.0
  0
LINE
  5
66
330
1F
100
AcDbEntity
  8
0
  6
Continuous
 62
     7
370
    15
100
AcDbLine
 10
49.5046909651
 20
131.0838845255
 30
0.0
 11
48.3734301975
 21
129.9526218953
 31
0.0
  0
ARC
  5
67
330
1F
100
AcDbEntity
  8
0
  6
Continuous
 62
     7
370
    15
100
AcDbCircle
 10
53.063528203
 20
132.4927207901
 30
0.0
 40
1.399999999999984
100
AcDbArc
 50
270.0
 51
301.7485287426
  0
LINE
  5
68
330
1F
100
AcDbEntity
  8
0
  6
Continuous
 62
     7
370
    15
100
AcDbLine
 10
53.0635278424
 20
131.0927209141
 30
0.0
 11
49.6544159701
 21
131.0927209141
 31
0.0
  0
LINE
  5
69
330
1F
100
AcDbEntity
  8
0
  6
Continuous
 62
     7
370
    15
100
AcDbLine
 10
230.7135343304
 20
126.2227215501
 30
0.0
 11
219.2135333767
 21
126.2227215501
 31
0.0
  0
LINE
  5
6A
330
1F
100
AcDbEntity
  8
0
  6
Continuous
 62
     7
370
    15
100
AcDbLine
 10
219.2135333767
 20
94.2227200301
 30
0.0
 11
230.7135343304
 21
94.2227200301
 31
0.0
  0
ARC
  5
6B
330
1F
100
AcDbEntity
  8
0
  6
Continuous
 62
     7
370
    15
100
AcDbCircle
 10
231.0599383645
 20
126.4227207901
 30
0.0
 40
0.4000000000000199
100
AcDbArc
 50
210.0
 51
270.0
  0
ARC
  5
6C
330
1F
100
AcDbEntity
  8
0
  6
Continuous
 62
     7
370
    15
100
AcDbCircle
 10
231.0599383645
 20
94.0227207901
 30
0.0
 40
0.4000000000000173
100
AcDbArc
 50
90.0
 51
150.0
  0
LINE
  5
6D
330
1F
100
AcDbEntity
  8
0
  6
Continuous
 62
     7
370
    15
100
AcDbLine
 10
238.7135356417
 20
126.2227215501
 30
0.0
 11
235.2135210981
 21
126.2227215501
 31
0.0
  0
LINE
  5
6E
330
1F
100
AcDbEntity
  8
0
  6
Continuous
 62
     7
370
    15
100
AcDbLine
 10
235.2135210981
 20
94.2227200301
 30
0.0
 11
238.7135356417
 21
94.2227200301
 31
0.0
  0
ARC
  5
6F
330
1F
100
AcDbEntity
  8
0
  6
Continuous
 62
     7
370
    15
100
AcDbCircle
 10
238.713528203
 20
125.2227207901
 30
0.0
 40
1.0
100
AcDbArc
 50
0.0
 51
90.0
  0
ARC
  5
70
330
1F
100
AcDbEntity
  8
0
  6
Continuous
 62
     7
370
    15
100
AcDbCircle
 10
238.713528203
 20
95.2227207901
 30
0.0
 40
1.0
100
AcDbArc
 50
270.0
 51
0.0
  0
ARC
  5
71
330
1F
100
AcDbEntity
  8
0
  6
Continuous
 62
     7
370
    15
100
AcDbCircle
 10
211.213528203
 20
125.2227207901
 30
0.0
 40
1.0
100
AcDbArc
 50
90.0
 51
180.0
  0
ARC
  5
72
330
1F
100
AcDbEntity
  8
0
  6
Continuous
 62
     7
370
    15
100
AcDbCircle
 10
211.213528203
 20
95.2227207901
 30
0.0
 40
1.0
100
AcDbArc
 50
180.0
 51
270.0
  0
ARC
  5
73
330
1F
100
AcDbEntity
  8
0
  6
Continuous
 62
     7
370
    15
100
AcDbCircle
 10
215.0599383645
 20
126.4227207901
 30
0.0
 40
0.4000000000000199
100
AcDbArc
 50
210.0
 51
270.0
  0
ARC
  5
74
330
1F
100
AcDbEntity
  8
0
  6
Continuous
 62
     7
370
    15
100
AcDbCircle
 10
215.0599383645
 20
94.0227207901
 30
0.0
 40
0.400000000000014
100
AcDbArc
 50
90.0
 51
150.0
  0
LINE
  5
75
330
1F
100
AcDbEntity
  8
0
  6
Continuous
 62
     7
370
    15
100
AcDbLine
 10
214.7135317078
 20
126.2227215501
 30
0.0
 11
211.2135320654
 21
126.2227215501
 31
0.0
  0
LINE
  5
76
330
1F
100
AcDbEntity
  8
0
  6
Continuous
 62
     7
370
    15
100
AcDbLine
 10
211.2135320654
 20
94.2227200301
 30
0.0
 11
214.7135317078
 21
94.2227200301
 31
0.0
  0
ARC
  5
77
330
1F
100
AcDbEntity
  8
0
  6
Continuous
 62
     7
370
    15
100
AcDbCircle
 10
234.8671180415
 20
126.4227207901
 30
0.0
 40
0.4000000000000199
100
AcDbArc
 50
270.0
 51
330.0
  0
ARC
  5
78
330
1F
100
AcDbEntity
  8
0
  6
Continuous
 62
     7
370
    15
100
AcDbCircle
 10
234.8671180415
 20
94.0227207901
 30
0.0
 40
0.4000000000000069
100
AcDbArc
 50
30.0
 51
90.0
  0
ARC
  5
79
330
1F
100
AcDbEntity
  8
0
  6
Continuous
 62
     7
370
    15
100
AcDbCircle
 10
218.8671180415
 20
126.4227207901
 30
0.0
 40
0.4000000000000199
100
AcDbArc
 50
270.0
 51
330.0
  0
ARC
  5
7A
330
1F
100
AcDbEntity
  8
0
  6
Continuous
 62
     7
370
    15
100
AcDbCircle
 10
218.8671180415
 20
94.0227207901
 30
0.0
 40
0.4000000000000057
100
AcDbArc
 50
30.0
 51
90.0
  0
LINE
  5
7B
330
1F
100
AcDbEntity
  8
0
  6
Continuous
 62
     7
370
    15
100
AcDbLine
 10
218.8671111813
 20
126.0227200272
 30
0.0
 11
215.059939002
 21
126.0227200272
 31
0.0
  0
LINE
  5
7C
330
1F
100
AcDbEntity
  8
0
  6
Continuous
 62
     7
370
    15
100
AcDbLine
 10
215.059939002
 20
94.422721553
 30
0.0
 11
218.8671111813
 21
94.422721553
 31
0.0
  0
LINE
  5
7D
330
1F
100
AcDbEntity
  8
0
  6
Continuous
 62
     7
370
    15
100
AcDbLine
 10
234.8671138039
 20
126.0227200272
 30
0.0
 11
231.0599416246
 21
126.0227200272
 31
0.0
  0
LINE
  5
7E
330
1F
100
AcDbEntity
  8
0
  6
Continuous
 62
     7
370
    15
100
AcDbLine
 10
231.0599416246
 20
94.422721553
 30
0.0
 11
234.8671138039
 21
94.422721553
 31
0.0
  0
LINE
  5
7F
330
1F
100
AcDbEntity
  8
0
  6
Continuous
 62
     7
370
    15
100
AcDbLine
 10
105.6135289123
 20
80.0358031573
 30
0.0
 11
101.6554601243
 21
80.0358031573
 31
0.0
  0
LINE
  5
80
330
1F
100
AcDbEntity
  8
0
  6
Continuous
 62
     7
370
    15
100
AcDbLine
 10
101.6554601243
 20
80.0358031573
 30
0.0
 11
101.6554601243
 21
130.0727215292
 31
0.0
  0
LINE
  5
81
330
1F
100
AcDbEntity
  8
0
  6
Continuous
 62
     7
370
    15
100
AcDbLine
 10
101.6554601243
 20
130.0727215292
 30
0.0
 11
105.6135289123
 21
130.0727215292
 31
0.0
  0
LINE
  5
82
330
1F
100
AcDbEntity
  8
0
  6
Continuous
 62
     7
370
    15
100
AcDbLine
 10
106.2135278931
 20
80.6624435516
 30
0.0
 11
106.2135278931
 21
130.0727215292
 31
0.0
  0
SPLINE
  5
83
330
1F
100
AcDbEntity
  8
0
  6
Continuous
 62
     7
370
    15
100
AcDbSpline
210
0.0
220
0.0
230
1.0
 70
     8
 71
     3
 72
    10
 73
     6
 74
     0
 42
0.00000001
 43
0.00000001
 40
0.0
 40
0.0
 40
0.0
 40
0.0
 40
0.5
 40
0.5
 40
1.0
 40
1.0
 40
1.0
 40
1.0
 10
106.213528203012
 20
80.66244338950368
 30
0.0
 10
106.2135282030119
 20
80.50255612131002
 30
0.0
 10
106.1522185517761
 20
80.34142886579541
 30
0.0
 10
105.933118914241
 20
80.10732986744058
 30
0.0
 10
105.7750707079276
 20
80.03580309384937
 30
0.0
 10
105.613528203012
 20
80.03580309384937
 30
0.0
  0
SPLINE
  5
84
330
1F
100
AcDbEntity
  8
0
  6
Continuous
 62
     7
370
    15
100
AcDbSpline
210
0.0
220
0.0
230
1.0
 70
    24
 71
     3
 72
    12
 73
     8
 74
     0
 42
0.00000001
 43
0.00000001
 40
0.0
 40
0.0
 40
0.0
 40
0.0
 40
0.2500000000000033
 40
0.2500000000000033
 40
0.5000000000000067
 40
0.5000000000000067
 40
1.0
 40
1.0
 40
1.0
 40
1.0
 10
105.6135282030119
 20
130.0727207900965
 30
0.0
 10
105.703767270699
 20
130.0727207900965
 30
0.0
 10
105.7946653848055
 20
130.0727207900965
 30
0.0
 10
105.949262421294
 20
130.0727207900965
 30
0.0
 10
106.0142408374021
 20
130.0727207900965
 30
0.0
 10
106.1660758653384
 20
130.0727207900965
 30
0.0
 10
106.213528203012
 20
130.0727207900965
 30
0.0
 10
106.2135282030119
 20
130.0727207900965
 30
0.0
  0
LINE
  5
85
330
1F
100
AcDbEntity
  8
0
  6
Continuous
 62
     7
370
    15
100
AcDbLine
 10
85.2135281762
 20
130.0727215292
 30
0.0
 11
94.8715956634
 21
130.0727215292
 31
0.0
  0
LINE
  5
86
330
1F
100
AcDbEntity
  8
0
  6
Continuous
 62
     7
370
    15
100
AcDbLine
 10
94.8715956634
 20
80.0358031573
 30
0.0
 11
94.8715956634
 21
130.0727215292
 31
0.0
  0
LINE
  5
87
330
1F
100
AcDbEntity
  8
0
  6
Continuous
 62
     7
370
    15
100
AcDbLine
 10
94.8715956634
 20
80.0358031573
 30
0.0
 11
93.2135285562
 21
80.0358031573
 31
0.0
  0
SPLINE
  5
88
330
1F
100
AcDbEntity
  8
0
  6
Continuous
 62
     7
370
    15
100
AcDbSpline
210
0.0
220
0.0
230
1.0
 70
     8
 71
     3
 72
    28
 73
    24
 74
     0
 42
0.00000001
 43
0.00000001
 40
0.0
 40
0.0
 40
0.0
 40
0.0
 40
0.1249999999999998
 40
0.1249999999999998
 40
0.2499999999999997
 40
0.2499999999999997
 40
0.3749999999999995
 40
0.3749999999999995
 40
0.4374999999999994
 40
0.4374999999999994
 40
0.4999999999999994
 40
0.4999999999999994
 40
0.5624999999999994
 40
0.5624999999999994
 40
0.6249999999999994
 40
0.6249999999999994
 40
0.7499999999999997
 40
0.7499999999999997
 40
0.8124999999999998
 40
0.8124999999999998
 40
0.8749999999999999
 40
0.8749999999999999
 40
1.0
 40
1.0
 40
1.0
 40
1.0
 10
93.21352820301195
 20
80.03580309384937
 30
0.0
 10
92.68346204231445
 20
80.03580309384937
 30
0.0
 10
92.16130165620301
 20
80.02011043636398
 30
0.0
 10
91.13224787505122
 20
79.95998384829092
 30
0.0
 10
90.62093628162503
 20
79.91482434799269
 30
0.0
 10
89.65474190850694
 20
79.80370047681082
 30
0.0
 10
89.19554654183959
 20
79.73773142524443
 30
0.0
 10
88.5422676933478
 20
79.62819692893295
 30
0.0
 10
88.33049126776014
 20
79.58988682709447
 30
0.0
 10
87.92770197814964
 20
79.51230602570833
 30
0.0
 10
87.73547984103989
 20
79.47284091823308
 30
0.0
 10
87.36896359291002
 20
79.39352648519919
 30
0.0
 10
87.1946698812228
 20
79.35367548144684
 30
0.0
 10
86.86415184131019
 20
79.27451617888237
 30
0.0
 10
86.70718793756232
 20
79.23500893607333
 30
0.0
 10
86.27029285117821
 20
79.1202617385148
 30
0.0
 10
86.02524036990697
 20
79.04923597437606
 30
0.0
 10
85.72544436460794
 20
78.95521713805006
 30
0.0
 10
85.63689446044857
 20
78.92596047601056
 30
0.0
 10
85.48336096292091
 20
78.87234181387645
 30
0.0
 10
85.418826041546
 20
78.84811817454859
 30
0.0
 10
85.26505718639456
 20
78.78509422422262
 30
0.0
 10
85.21352820301192
 20
78.75532980962905
 30
0.0
 10
85.21352820301192
 20
78.73859780723419
 30
0.0
  0
LINE
  5
89
330
1F
100
AcDbEntity
  8
0
  6
Continuous
 62
     7
370
    15
100
AcDbLine
 10
85.2135281762
 20
78.7385974707
 30
0.0
 11
85.2135281762
 21
78.7227202835
 31
0.0
  0
SPLINE
  5
8A
330
1F
100
AcDbEntity
  8
0
  6
Continuous
 62
     7
370
    15
100
AcDbSpline
210
0.0
220
0.0
230
1.0
 70
     8
 71
     3
 72
    17
 73
    13
 74
     0
 42
0.00000001
 43
0.00000001
 40
0.0
 40
0.0
 40
0.0
 40
0.0
 40
0.1034797280380778
 40
0.2100239090909901
 40
0.3134862262879433
 40
0.4198361712144981
 40
0.5254127947779869
 40
0.6339610881168427
 40
0.7409508662120068
 40
0.8511696072047016
 40
0.9558996557845765
 40
1.0
 40
1.0
 40
1.0
 40
1.0
 10
93.21352855616948
 20
140.689916226455
 30
0.0
 10
92.77828006444358
 20
140.6953642180926
 30
0.0
 10
91.89489361386657
 20
140.7064215384212
 30
0.0
 10
90.6140657516438
 20
140.7927802987963
 30
0.0
 10
89.39664955620188
 20
140.9206514419293
 30
0.0
 10
88.28884293987608
 20
141.0795958492478
 30
0.0
 10
87.30060446054723
 20
141.2540904222324
 30
0.0
 10
86.4758813607314
 20
141.4232568554193
 30
0.0
 10
85.82692770323277
 20
141.5711376638869
 30
0.0
 10
85.40989239975313
 20
141.6729284154095
 30
0.0
 10
85.21129565687517
 20
141.723285315044
 30
0.0
 10
85.23460877386307
 20
141.7173757100685
 30
0.0
 10
85.2415167478635
 20
141.7156246187174
 30
0.0
  0
LINE
  5
8B
330
1F
100
AcDbEntity
  8
0
  6
Continuous
 62
     7
370
    15
100
AcDbLine
 10
94.8715956634
 20
140.6899162265
 30
0.0
 11
93.2135285562
 21
140.6899162265
 31
0.0
  0
LINE
  5
8C
330
1F
100
AcDbEntity
  8
0
  6
Continuous
 62
     7
370
    15
100
AcDbLine
 10
94.8715956634
 20
134.6814104052
 30
0.0
 11
94.8715956634
 21
140.6899162265
 31
0.0
  0
LINE
  5
8D
330
1F
100
AcDbEntity
  8
0
  6
Continuous
 62
     7
370
    15
100
AcDbLine
 10
92.4591488888
 20
134.6814104052
 30
0.0
 11
94.8715956634
 21
134.6814104052
 31
0.0
  0
SPLINE
  5
8E
330
1F
100
AcDbEntity
  8
0
  6
Continuous
 62
     7
370
    15
100
AcDbSpline
210
0.0
220
0.0
230
1.0
 70
     8
 71
     3
 72
    20
 73
    16
 74
     0
 42
0.00000001
 43
0.00000001
 40
0.0
 40
0.0
 40
0.0
 40
0.0
 40
0.2499999999999997
 40
0.2499999999999997
 40
0.3749999999999997
 40
0.3749999999999997
 40
0.4999999999999998
 40
0.4999999999999998
 40
0.6249999999999998
 40
0.6249999999999998
 40
0.7499999999999999
 40
0.7499999999999999
 40
0.8749999999999999
 40
0.8749999999999999
 40
1.0
 40
1.0
 40
1.0
 40
1.0
 10
85.21352820301195
 20
130.0727207900965
 30
0.0
 10
85.46190193730001
 20
130.7265832183939
 30
0.0
 10
85.78147202964527
 20
131.3303690003911
 30
0.0
 10
86.40377826284995
 20
132.1572077365597
 30
0.0
 10
86.63520252328073
 20
132.4196363745126
 30
0.0
 10
87.15641686293044
 20
132.9162990286176
 30
0.0
 10
87.4430373455655
 20
133.1468859076391
 30
0.0
 10
88.06252208687313
 20
133.5634401322217
 30
0.0
 10
88.39682246636008
 20
133.7509379341892
 30
0.0
 10
89.12208293898486
 20
134.0823349118256
 30
0.0
 10
89.50399799637533
 20
134.2218388993209
 30
0.0
 10
90.29878617254703
 20
134.4472924067919
 30
0.0
 10
90.71294436675339
 20
134.5339185183355
 30
0.0
 10
91.57849070733478
 20
134.6518993071896
 30
0.0
 10
92.0163783223466
 20
134.681410452464
 30
0.0
 10
92.45914854870122
 20
134.681410452464
 30
0.0
  0
SPLINE
  5
8F
330
1F
100
AcDbEntity
  8
0
  6
Continuous
 62
     7
370
    15
100
AcDbSpline
210
0.0
220
0.0
230
1.0
 70
     8
 71
     3
 72
    70
 73
    66
 74
     0
 42
0.00000001
 43
0.00000001
 40
-0.0312499999999999
 40
-0.0312499999999999
 40
0.0
 40
0.0
 40
0.0312499999999999
 40
0.0312499999999999
 40
0.0624999999999998
 40
0.0624999999999998
 40
0.0937499999999997
 40
0.0937499999999997
 40
0.1249999999999996
 40
0.1249999999999996
 40
0.1562499999999995
 40
0.1562499999999995
 40
0.1874999999999994
 40
0.1874999999999994
 40
0.2187499999999993
 40
0.2187499999999993
 40
0.2499999999999992
 40
0.2499999999999992
 40
0.2812499999999993
 40
0.2812499999999993
 40
0.3124999999999993
 40
0.3124999999999993
 40
0.3437499999999994
 40
0.3437499999999994
 40
0.3749999999999995
 40
0.3749999999999995
 40
0.4062499999999996
 40
0.4062499999999996
 40
0.4374999999999996
 40
0.4374999999999996
 40
0.4687499999999997
 40
0.4687499999999997
 40
0.4999999999999998
 40
0.4999999999999998
 40
0.5312499999999999
 40
0.5312499999999999
 40
0.5625
 40
0.5625
 40
0.5937500000000001
 40
0.5937500000000001
 40
0.6250000000000002
 40
0.6250000000000002
 40
0.6562500000000004
 40
0.6562500000000004
 40
0.6875000000000006
 40
0.6875000000000006
 40
0.7187500000000007
 40
0.7187500000000007
 40
0.7500000000000008
 40
0.7500000000000008
 40
0.7812500000000007
 40
0.7812500000000007
 40
0.8125000000000006
 40
0.8125000000000006
 40
0.8437500000000004
 40
0.8437500000000004
 40
0.8750000000000003
 40
0.8750000000000003
 40
0.9062500000000003
 40
0.9062500000000003
 40
0.9375000000000002
 40
0.9375000000000002
 40
0.9687500000000001
 40
0.9687500000000001
 40
1.0
 40
1.0
 40
1.03125
 40
1.03125
 10
88.52807354167211
 20
135.2816841848757
 30
0.0
 10
87.99898286435182
 20
135.2816841848757
 30
0.0
 10
87.73891219697472
 20
135.2975846252905
 30
0.0
 10
87.22733751713929
 20
135.3595289754647
 30
0.0
 10
86.9731622333991
 20
135.406331209556
 30
0.0
 10
86.4888916033374
 20
135.5273081930111
 30
0.0
 10
86.25925051145623
 20
135.600910520818
 30
0.0
 10
85.82464616322275
 20
135.7727347917961
 30
0.0
 10
85.61908038657613
 20
135.8717382147235
 30
0.0
 10
85.2505232459809
 20
136.0848346286363
 30
0.0
 10
85.08504226324541
 20
136.199734344766
 30
0.0
 10
84.7926177538103
 20
136.4451012434563
 30
0.0
 10
84.66851677718381
 20
136.5735411439266
 30
0.0
 10
84.46893758043409
 20
136.8344332920125
 30
0.0
 10
84.39200399457582
 20
136.968814463352
 30
0.0
 10
84.28914693605545
 20
137.2381344144583
 30
0.0
 10
84.26367402659632
 20
137.3708156786764
 30
0.0
 10
84.26338361602856
 20
137.6320021528075
 30
0.0
 10
84.2894082498043
 20
137.7617671909722
 30
0.0
 10
84.39155653429629
 20
138.0073498252449
 30
0.0
 10
84.46713298187946
 20
138.1240113625537
 30
0.0
 10
84.66763051302438
 20
138.3459165527083
 30
0.0
 10
84.79275935453276
 20
138.4505278066313
 30
0.0
 10
85.08211815555433
 20
138.6405742182393
 30
0.0
 10
85.24752914260982
 20
138.727333889689
 30
0.0
 10
85.62051970075764
 20
138.8848382654406
 30
0.0
 10
85.82225273384674
 20
138.9531635302278
 30
0.0
 10
86.25511198467461
 20
139.071393253847
 30
0.0
 10
86.48903051756399
 20
139.1216881699509
 30
0.0
 10
86.9732142527066
 20
139.2015537068405
 30
0.0
 10
87.22252987866212
 20
139.2312948346401
 30
0.0
 10
87.73556240308983
 20
139.2714475761483
 30
0.0
 10
88.00085622599448
 20
139.2816458455581
 30
0.0
 10
88.5231908458642
 20
139.2817223039428
 30
0.0
 10
88.78294450834595
 20
139.2719312923338
 30
0.0
 10
89.2995563239912
 20
139.2318644535951
 30
0.0
 10
89.55192236449147
 20
139.2017672867383
 30
0.0
 10
90.03344748602429
 20
139.122545076908
 30
0.0
 10
90.26629821813786
 20
139.0727875974447
 30
0.0
 10
90.70338806657662
 20
138.9536956549943
 30
0.0
 10
90.90470905523381
 20
138.885380393447
 30
0.0
 10
91.27379508053372
 20
138.7299794265135
 30
0.0
 10
91.44277983158541
 20
138.6418270844466
 30
0.0
 10
91.73323588824461
 20
138.4513876953302
 30
0.0
 10
91.85630769960675
 20
138.3487631176311
 30
0.0
 10
92.05764394102874
 20
138.127122771023
 30
0.0
 10
92.134856486971
 20
138.0083686954755
 30
0.0
 10
92.23706002987106
 20
137.7637027565578
 30
0.0
 10
92.26328838132339
 20
137.6365460311093
 30
0.0
 10
92.2637647806405
 20
137.3720978852537
 30
0.0
 10
92.23802236814252
 20
137.2391972049966
 30
0.0
 10
92.13671159177866
 20
136.9724049315145
 30
0.0
 10
92.0598789523877
 20
136.837041030046
 30
0.0
 10
91.85947511317254
 20
136.5744612347434
 30
0.0
 10
91.7368036148805
 20
136.4474860749896
 30
0.0
 10
91.44685632571625
 20
136.2034066889072
 30
0.0
 10
91.27828534635101
 20
136.0859815641534
 30
0.0
 10
90.91001575223787
 20
135.8727851032049
 30
0.0
 10
90.70895389496755
 20
135.77561098478
 30
0.0
 10
90.27192297638261
 20
135.6022560975659
 30
0.0
 10
90.03977476325302
 20
135.5278565459092
 30
0.0
 10
89.55876448175415
 20
135.4074036664045
 30
0.0
 10
89.30666439892373
 20
135.3605452911385
 30
0.0
 10
88.78959491266473
 20
135.2975877941548
 30
0.0
 10
88.52807354167211
 20
135.2816841848757
 30
0.0
 10
87.99898286435182
 20
135.2816841848757
 30
0.0
  0
SPLINE
  5
90
330
1F
100
AcDbEntity
  8
0
  6
Continuous
 62
     7
370
    15
100
AcDbSpline
210
0.0
220
0.0
230
1.0
 70
     8
 71
     3
 72
    70
 73
    66
 74
     0
 42
0.00000001
 43
0.00000001
 40
-0.0312500000000001
 40
-0.0312500000000001
 40
0.0
 40
0.0
 40
0.0312499999999999
 40
0.0312499999999999
 40
0.0624999999999998
 40
0.0624999999999998
 40
0.0937499999999997
 40
0.0937499999999997
 40
0.1249999999999996
 40
0.1249999999999996
 40
0.1562499999999994
 40
0.1562499999999994
 40
0.1874999999999993
 40
0.1874999999999993
 40
0.2187499999999992
 40
0.2187499999999992
 40
0.2499999999999991
 40
0.2499999999999991
 40
0.281249999999999
 40
0.281249999999999
 40
0.3124999999999989
 40
0.3124999999999989
 40
0.3437499999999988
 40
0.3437499999999988
 40
0.3749999999999987
 40
0.3749999999999987
 40
0.4062499999999986
 40
0.4062499999999986
 40
0.4374999999999984
 40
0.4374999999999984
 40
0.4687499999999983
 40
0.4687499999999983
 40
0.4999999999999982
 40
0.4999999999999982
 40
0.5312499999999983
 40
0.5312499999999983
 40
0.5624999999999984
 40
0.5624999999999984
 40
0.5937499999999986
 40
0.5937499999999986
 40
0.6249999999999987
 40
0.6249999999999987
 40
0.6562499999999988
 40
0.6562499999999988
 40
0.6874999999999989
 40
0.6874999999999989
 40
0.718749999999999
 40
0.718749999999999
 40
0.7499999999999991
 40
0.7499999999999991
 40
0.7812499999999992
 40
0.7812499999999992
 40
0.8124999999999993
 40
0.8124999999999993
 40
0.8437499999999994
 40
0.8437499999999994
 40
0.8749999999999996
 40
0.8749999999999996
 40
0.9062499999999997
 40
0.9062499999999997
 40
0.9374999999999998
 40
0.9374999999999998
 40
0.9687499999999999
 40
0.9687499999999999
 40
1.0
 40
1.0
 40
1.03125
 40
1.03125
 10
88.5280735416721
 20
120.8436276760799
 30
0.0
 10
87.99898286435182
 20
120.8436276760799
 30
0.0
 10
87.73891219697471
 20
120.8683049708651
 30
0.0
 10
87.22733751713929
 20
120.964776643907
 30
0.0
 10
86.9731622333991
 20
121.037757559887
 30
0.0
 10
86.4888916033374
 20
121.2274981628257
 30
0.0
 10
86.25925051145623
 20
121.3433588212194
 30
0.0
 10
85.82464616322275
 20
121.6159766671771
 30
0.0
 10
85.61908038657613
 20
121.7740157492309
 30
0.0
 10
85.2505232459809
 20
122.1175586002015
 30
0.0
 10
85.08504226324541
 20
122.3043210443032
 30
0.0
 10
84.7926177538103
 20
122.7078642187
 30
0.0
 10
84.66851677718381
 20
122.9213612151292
 30
0.0
 10
84.46893758043409
 20
123.3607445290517
 30
0.0
 10
84.39200399457583
 20
123.5898845161973
 30
0.0
 10
84.28914693605545
 20
124.0558586389573
 30
0.0
 10
84.26367402659632
 20
124.2887410846335
 30
0.0
 10
84.26338361602856
 20
124.7541386197133
 30
0.0
 10
84.2894082498043
 20
124.9890143771076
 30
0.0
 10
84.39155653429629
 20
125.4405075243539
 30
0.0
 10
84.46713298187946
 20
125.6585539997652
 30
0.0
 10
84.66763051302439
 20
126.079648524803
 30
0.0
 10
84.79275935453276
 20
126.2815699093214
 30
0.0
 10
85.08211815555434
 20
126.6535993918403
 30
0.0
 10
85.24752914260982
 20
126.8262276954207
 30
0.0
 10
85.62051970075764
 20
127.1435456999667
 30
0.0
 10
85.82225273384675
 20
127.2833326334683
 30
0.0
 10
86.25511198467461
 20
127.5275088870201
 30
0.0
 10
86.48903051756399
 20
127.6327383980616
 30
0.0
 10
86.9732142527066
 20
127.8008955444367
 30
0.0
 10
87.22252987866212
 20
127.8641464350306
 30
0.0
 10
87.73556240308984
 20
127.9497256441332
 30
0.0
 10
88.00085622599448
 20
127.9715978090556
 30
0.0
 10
88.5231908458642
 20
127.9717614586995
 30
0.0
 10
88.78294450834596
 20
127.9507597666035
 30
0.0
 10
89.2995563239912
 20
127.8653574115258
 30
0.0
 10
89.55192236449147
 20
127.8013512282389
 30
0.0
 10
90.0334474860243
 20
127.6345367081977
 30
0.0
 10
90.26629821813786
 20
127.5304035447986
 30
0.0
 10
90.70338806657662
 20
127.2844168923036
 30
0.0
 10
90.90470905523381
 20
127.1446670613547
 30
0.0
 10
91.27379508053372
 20
126.8315289916302
 30
0.0
 10
91.4427798315854
 20
126.6560728323601
 30
0.0
 10
91.73323588824461
 20
126.2832325682598
 30
0.0
 10
91.85630769960675
 20
126.0851107581489
 30
0.0
 10
92.05764394102874
 20
125.6643994154152
 30
0.0
 10
92.134856486971
 20
125.4424093947477
 30
0.0
 10
92.23706002987106
 20
124.9925444550394
 30
0.0
 10
92.26328838132339
 20
124.7622890419226
 30
0.0
 10
92.26376478064049
 20
124.2909730993735
 30
0.0
 10
92.23802236814252
 20
124.0577356836594
 30
0.0
 10
92.13671159177866
 20
123.5960591441613
 30
0.0
 10
92.0598789523877
 20
123.3651617570492
 30
0.0
 10
91.85947511317254
 20
122.9228857432575
 30
0.0
 10
91.7368036148805
 20
122.7118233119716
 30
0.0
 10
91.44685632571625
 20
122.3103248012389
 30
0.0
 10
91.27828534635103
 20
122.119418279163
 30
0.0
 10
90.91001575223787
 20
121.7756929471659
 30
0.0
 10
90.70895389496755
 20
121.6205557609518
 30
0.0
 10
90.27192297638261
 20
121.3454784008721
 30
0.0
 10
90.039774763253
 20
121.2283621714501
 30
0.0
 10
89.55876448175415
 20
121.0394356863856
 30
0.0
 10
89.30666439892373
 20
120.9663607159913
 30
0.0
 10
88.78959491266473
 20
120.8683086568568
 30
0.0
 10
88.5280735416721
 20
120.8436276760799
 30
0.0
 10
87.99898286435182
 20
120.8436276760799
 30
0.0
  0
LINE
  5
91
330
1F
100
AcDbEntity
  8
0
  6
Continuous
 62
     7
370
    15
100
AcDbLine
 10
80.263528203
 20
79.0227216365
 30
0.0
 11
80.263528203
 21
141.4227199437
 31
0.0
  0
SPLINE
  5
92
330
1F
100
AcDbEntity
  8
0
  6
Continuous
 62
     7
370
    15
100
AcDbSpline
210
0.0
220
0.0
230
1.0
 70
     8
 71
     3
 72
     8
 73
     4
 74
     0
 42
0.00000001
 43
0.00000001
 40
0.0
 40
0.0
 40
0.0
 40
0.0
 40
1.0
 40
1.0
 40
1.0
 40
1.0
 10
101.655461034501
 20
80.03580309384937
 30
0.0
 10
101.1599813738353
 20
80.93132918178273
 30
0.0
 10
100.6658673257931
 20
81.82761359683498
 30
0.0
 10
100.173528203012
 20
82.72488363104168
 30
0.0
  0
LINE
  5
93
330
1F
100
AcDbEntity
  8
0
  6
Continuous
 62
     7
370
    15
100
AcDbLine
 10
100.1735284677
 20
82.7248834701
 30
0.0
 11
100.1735284677
 21
130.0727215292
 31
0.0
  0
SPLINE
  5
94
330
1F
100
AcDbEntity
  8
0
  6
Continuous
 62
     7
370
    15
100
AcDbSpline
210
0.0
220
0.0
230
1.0
 70
    24
 71
     3
 72
     8
 73
     4
 74
     0
 42
0.00000001
 43
0.00000001
 40
0.0
 40
0.0
 40
0.0
 40
0.0
 40
1.0
 40
1.0
 40
1.0
 40
1.0
 10
100.173528203012
 20
130.0727207900965
 30
0.0
 10
100.6534801973768
 20
130.0727207900965
 30
0.0
 10
101.1487809263505
 20
130.0727207900965
 30
0.0
 10
101.655461034501
 20
130.0727207900965
 30
0.0
  0
LINE
  5
95
330
1F
100
AcDbEntity
  8
0
  6
Continuous
 62
     7
370
    15
100
AcDbLine
 10
96.3535282513
 20
82.7248834701
 30
0.0
 11
96.3535282513
 21
130.0727215292
 31
0.0
  0
SPLINE
  5
96
330
1F
100
AcDbEntity
  8
0
  6
Continuous
 62
     7
370
    15
100
AcDbSpline
210
0.0
220
0.0
230
1.0
 70
     8
 71
     3
 72
     8
 73
     4
 74
     0
 42
0.00000001
 43
0.00000001
 40
0.0
 40
0.0
 40
0.0
 40
0.0
 40
1.0
 40
1.0
 40
1.0
 40
1.0
 10
96.35352820301196
 20
82.72488363104166
 30
0.0
 10
95.86118908023079
 20
81.82761359683496
 30
0.0
 10
95.36707503218864
 20
80.93132918178273
 30
0.0
 10
94.8715953715229
 20
80.03580309384937
 30
0.0
  0
SPLINE
  5
97
330
1F
100
AcDbEntity
  8
0
  6
Continuous
 62
     7
370
    15
100
AcDbSpline
210
0.0
220
0.0
230
1.0
 70
    24
 71
     3
 72
     8
 73
     4
 74
     0
 42
0.00000001
 43
0.00000001
 40
0.0
 40
0.0
 40
0.0
 40
0.0
 40
1.0
 40
1.0
 40
1.0
 40
1.0
 10
94.87159537152287
 20
130.0727207900965
 30
0.0
 10
95.37827547967342
 20
130.0727207900965
 30
0.0
 10
95.87357620864707
 20
130.0727207900965
 30
0.0
 10
96.35352820301196
 20
130.0727207900965
 30
0.0
  0
ARC
  5
98
330
1F
100
AcDbEntity
  8
0
  6
Continuous
 62
     7
370
    15
100
AcDbCircle
 10
88.2606668253
 20
122.1333335545
 30
0.0
 40
4.110793060673534
100
AcDbArc
 50
19.1727787623
 51
159.4979364143
  0
SPLINE
  5
99
330
1F
100
AcDbEntity
  8
0
  6
Continuous
 62
     7
370
    15
100
AcDbSpline
210
0.0
220
0.0
230
1.0
 70
     8
 71
     3
 72
    10
 73
     6
 74
     0
 42
0.00000001
 43
0.00000001
 40
0.0
 40
0.0
 40
0.0
 40
0.0
 40
0.5
 40
0.5
 40
1.0
 40
1.0
 40
1.0
 40
1.0
 10
96.7478257347029
 20
136.6227207900965
 30
0.0
 10
96.6262854710344
 20
136.6974469573083
 30
0.0
 10
96.52495111068546
 20
136.8063919732251
 30
0.0
 10
96.38931216779703
 20
137.0568224539867
 30
0.0
 10
96.35352820301196
 20
137.1992418160856
 30
0.0
 10
96.35352820301196
 20
137.3423746411323
 30
0.0
  0
SPLINE
  5
9A
330
1F
100
AcDbEntity
  8
0
  6
Continuous
 62
     7
370
    15
100
AcDbSpline
210
0.0
220
0.0
230
1.0
 70
    24
 71
     3
 72
    12
 73
     8
 74
     0
 42
0.00000001
 43
0.00000001
 40
0.0
 40
0.0
 40
0.0
 40
0.0
 40
0.2500000000000037
 40
0.2500000000000037
 40
0.5000000000000074
 40
0.5000000000000074
 40
1.0
 40
1.0
 40
1.0
 40
1.0
 10
97.15352820301196
 20
136.6227207900965
 30
0.0
 10
97.1036515206945
 20
136.6227207900965
 30
0.0
 10
97.05564832729091
 20
136.6227207900965
 30
0.0
 10
96.97260022457893
 20
136.6227207900965
 30
0.0
 10
96.93647064511109
 20
136.6227207900965
 30
0.0
 10
96.84055861416688
 20
136.6227207900965
 30
0.0
 10
96.79079994619808
 20
136.6227207900965
 30
0.0
 10
96.7478257347029
 20
136.6227207900965
 30
0.0
  0
SPLINE
  5
9B
330
1F
100
AcDbEntity
  8
0
  6
Continuous
 62
     7
370
    15
100
AcDbSpline
210
0.0
220
0.0
230
1.0
 70
    24
 71
     3
 72
    14
 73
    10
 74
     0
 42
0.00000001
 43
0.00000001
 40
0.0
 40
0.0
 40
0.0
 40
0.0
 40
0.1249999999999991
 40
0.1249999999999991
 40
0.2499999999999982
 40
0.2499999999999982
 40
0.4999999999999998
 40
0.4999999999999998
 40
1.0
 40
1.0
 40
1.0
 40
1.0
 10
97.15352820301194
 20
83.82272079009654
 30
0.0
 10
97.0850903551255
 20
83.82272079009654
 30
0.0
 10
97.01954031636043
 20
83.82272079009654
 30
0.0
 10
96.91511367695249
 20
83.82272079009654
 30
0.0
 10
96.87256906719108
 20
83.82272079009654
 30
0.0
 10
96.75995960665082
 20
83.82272079009653
 30
0.0
 10
96.70442055963133
 20
83.82272079009654
 30
0.0
 10
96.56180886416753
 20
83.82272079009653
 30
0.0
 10
96.49840350917177
 20
83.82272079009653
 30
0.0
 10
96.45120300534424
 20
83.82272079009654
 30
0.0
  0
SPLINE
  5
9C
330
1F
100
AcDbEntity
  8
0
  6
Continuous
 62
     7
370
    15
100
AcDbSpline
210
0.0
220
0.0
230
1.0
 70
     8
 71
     3
 72
    10
 73
     6
 74
     0
 42
0.00000001
 43
0.00000001
 40
0.0
 40
0.0
 40
0.0
 40
0.0
 40
0.5
 40
0.5
 40
1.0
 40
1.0
 40
1.0
 40
1.0
 10
96.35352820301196
 20
130.3585874215579
 30
0.0
 10
96.35352820301196
 20
130.3108159135646
 30
0.0
 10
96.3556894466091
 20
130.2631061915029
 30
0.0
 10
96.36436082046927
 20
130.1678110739547
 30
0.0
 10
96.37089000342526
 20
130.120118509988
 30
0.0
 10
96.37967582617209
 20
130.0727207900965
 30
0.0
  0
SPLINE
  5
9D
330
1F
100
AcDbEntity
  8
0
  6
Continuous
 62
     7
370
    15
100
AcDbSpline
210
0.0
220
0.0
230
1.0
 70
    24
 71
     3
 72
    14
 73
    10
 74
     0
 42
0.00000001
 43
0.00000001
 40
0.0
 40
0.0
 40
0.0
 40
0.0
 40
0.4999999999999984
 40
0.4999999999999984
 40
0.7499999999999992
 40
0.7499999999999992
 40
0.8749999999999996
 40
0.8749999999999996
 40
1.0
 40
1.0
 40
1.0
 40
1.0
 10
100.0758534006797
 20
83.82272079009654
 30
0.0
 10
100.0290686956315
 20
83.82272079009654
 30
0.0
 10
99.96701749885185
 20
83.82272079009654
 30
0.0
 10
99.82362586030123
 20
83.82272079009653
 30
0.0
 10
99.76748220675007
 20
83.82272079009654
 30
0.0
 10
99.6545311846139
 20
83.82272079009654
 30
0.0
 10
99.61153042257574
 20
83.82272079009654
 30
0.0
 10
99.50746771226929
 20
83.82272079009654
 30
0.0
 10
99.44213547391237
 20
83.82272079009654
 30
0.0
 10
99.37352820301196
 20
83.82272079009654
 30
0.0
  0
SPLINE
  5
9E
330
1F
100
AcDbEntity
  8
0
  6
Continuous
 62
     7
370
    15
100
AcDbSpline
210
0.0
220
0.0
230
1.0
 70
    24
 71
     3
 72
    12
 73
     8
 74
     0
 42
0.00000001
 43
0.00000001
 40
0.0
 40
0.0
 40
0.0
 40
0.0
 40
0.5000000000000017
 40
0.5000000000000017
 40
0.7500000000000008
 40
0.7500000000000008
 40
1.0
 40
1.0
 40
1.0
 40
1.0
 10
99.77923067132099
 20
136.6227207900965
 30
0.0
 10
99.73614512171002
 20
136.6227207900965
 30
0.0
 10
99.6869929199607
 20
136.6227207900965
 30
0.0
 10
99.5905203256728
 20
136.6227207900965
 30
0.0
 10
99.55441874053822
 20
136.6227207900965
 30
0.0
 10
99.47131298267695
 20
136.6227207900965
 30
0.0
 10
99.42331638571065
 20
136.6227207900965
 30
0.0
 10
99.37352820301196
 20
136.6227207900965
 30
0.0
  0
SPLINE
  5
9F
330
1F
100
AcDbEntity
  8
0
  6
Continuous
 62
     7
370
    15
100
AcDbSpline
210
0.0
220
0.0
230
1.0
 70
     8
 71
     3
 72
    10
 73
     6
 74
     0
 42
0.00000001
 43
0.00000001
 40
0.0
 40
0.0
 40
0.0
 40
0.0
 40
0.5
 40
0.5
 40
1.0
 40
1.0
 40
1.0
 40
1.0
 10
100.173528203012
 20
137.3423746411323
 30
0.0
 10
100.173528203012
 20
137.1986045833143
 30
0.0
 10
100.1374791442931
 20
137.0561852208191
 30
0.0
 10
100.0019702835191
 20
136.8062909274619
 30
0.0
 10
99.90209429042288
 20
136.6982605912137
 30
0.0
 10
99.77923067132096
 20
136.6227207900965
 30
0.0
  0
SPLINE
  5
A0
330
1F
100
AcDbEntity
  8
0
  6
Continuous
 62
     7
370
    15
100
AcDbSpline
210
0.0
220
0.0
230
1.0
 70
     8
 71
     3
 72
    10
 73
     6
 74
     0
 42
0.00000001
 43
0.00000001
 40
0.0
 40
0.0
 40
0.0
 40
0.0
 40
0.5
 40
0.5
 40
1.0
 40
1.0
 40
1.0
 40
1.0
 10
100.1473805798518
 20
130.0727207900965
 30
0.0
 10
100.1560702227635
 20
130.1195996394147
 30
0.0
 10
100.162609287514
 20
130.167022104816
 30
0.0
 10
100.171367921907
 20
130.2629589034028
 30
0.0
 10
100.173528203012
 20
130.3108741914133
 30
0.0
 10
100.173528203012
 20
130.3585874215579
 30
0.0
  0
LINE
  5
A1
330
1F
100
AcDbEntity
  8
0
  6
Continuous
 62
     7
370
    15
100
AcDbLine
 10
99.373527964
 20
136.622720647
 30
0.0
 11
97.153528755
 21
136.622720647
 31
0.0
  0
LINE
  5
A2
330
1F
100
AcDbEntity
  8
0
  6
Continuous
 62
     7
370
    15
100
AcDbLine
 10
99.373527964
 20
83.8227209331
 30
0.0
 11
97.153528755
 21
83.8227209331
 31
0.0
  0
LINE
  5
A3
330
1F
100
AcDbEntity
  8
0
  6
Continuous
 62
     7
370
    15
100
AcDbLine
 10
58.4635279825
 20
86.9942747684
 30
0.0
 11
58.4635279825
 21
88.2589828851
 31
0.0
  0
SPLINE
  5
A4
330
1F
100
AcDbEntity
  8
0
  6
Continuous
 62
     7
370
    15
100
AcDbSpline
210
0.0
220
0.0
230
1.0
 70
     8
 71
     3
 72
    14
 73
    10
 74
     0
 42
0.00000001
 43
0.00000001
 40
0.0
 40
0.0
 40
0.0
 40
0.0
 40
0.25
 40
0.25
 40
0.5
 40
0.5
 40
0.75
 40
0.75
 40
1.0
 40
1.0
 40
1.0
 40
1.0
 10
57.68524108509624
 20
89.38956946653657
 30
0.0
 10
57.74186776029831
 20
89.28187201269971
 30
0.0
 10
57.83639042058804
 20
89.1790824309804
 30
0.0
 10
58.01943539615027
 20
88.98072511876025
 30
0.0
 10
58.111061973105
 20
88.884665610082
 30
0.0
 10
58.2699152907982
 20
88.69713656737275
 30
0.0
 10
58.33780589841989
 20
88.60572759458921
 30
0.0
 10
58.43472292412748
 20
88.42735137367904
 30
0.0
 10
58.46352820301254
 20
88.34012946743287
 30
0.0
 10
58.46352820301252
 20
88.25898325889861
 30
0.0
  0
SPLINE
  5
A5
330
1F
100
AcDbEntity
  8
0
  6
Continuous
 62
     7
370
    15
100
AcDbSpline
210
0.0
220
0.0
230
1.0
 70
     8
 71
     3
 72
    14
 73
    10
 74
     0
 42
0.00000001
 43
0.00000001
 40
0.0
 40
0.0
 40
0.0
 40
0.0
 40
0.1249999999999975
 40
0.1249999999999975
 40
0.249999999999995
 40
0.249999999999995
 40
0.4999999999999953
 40
0.4999999999999953
 40
1.0
 40
1.0
 40
1.0
 40
1.0
 10
57.06352820301196
 20
89.83625132881589
 30
0.0
 10
57.11207261166912
 20
89.84199964209618
 30
0.0
 10
57.16498796645403
 20
89.83889875343995
 30
0.0
 10
57.26028331143706
 20
89.81670390927762
 30
0.0
 10
57.30053430872202
 20
89.79947168218176
 30
0.0
 10
57.40480432223499
 20
89.7431437657297
 30
0.0
 10
57.45512629738832
 20
89.6989574197839
 30
0.0
 10
57.5828092449137
 20
89.56794952093328
 30
0.0
 10
57.63889469197596
 20
89.47771500070297
 30
0.0
 10
57.68524108509771
 20
89.3895694665371
 30
0.0
  0
SPLINE
  5
A6
330
1F
100
AcDbEntity
  8
0
  6
Continuous
 62
     7
370
    15
100
AcDbSpline
210
0.0
220
0.0
230
1.0
 70
     8
 71
     3
 72
     8
 73
     4
 74
     0
 42
0.00000001
 43
0.00000001
 40
0.0
 40
0.0
 40
0.0
 40
0.0
 40
1.0
 40
1.0
 40
1.0
 40
1.0
 10
54.79500311006573
 20
89.5264060422331
 30
0.0
 10
55.52958013654868
 20
89.64503105330208
 30
0.0
 10
56.29305520594436
 20
89.74501692543835
 30
0.0
 10
57.06352820301197
 20
89.83625132881589
 30
0.0
  0
SPLINE
  5
A7
330
1F
100
AcDbEntity
  8
0
  6
Continuous
 62
     7
370
    15
100
AcDbSpline
210
0.0
220
0.0
230
1.0
 70
     8
 71
     3
 72
    14
 73
    10
 74
     0
 42
0.00000001
 43
0.00000001
 40
0.0
 40
0.0
 40
0.0
 40
0.0
 40
0.500000000000001
 40
0.500000000000001
 40
0.7500000000000004
 40
0.7500000000000004
 40
0.8750000000000003
 40
0.8750000000000003
 40
1.0
 40
1.0
 40
1.0
 40
1.0
 10
49.51352820301196
 20
89.35278302470145
 30
0.0
 10
50.40567433356554
 20
89.3520607985008
 30
0.0
 10
51.29565076935913
 20
89.35664700495826
 30
0.0
 10
52.62224593643474
 20
89.3843720093498
 30
0.0
 10
53.06309286493347
 20
89.39697854697398
 30
0.0
 10
53.71953310235589
 20
89.42799469498144
 30
0.0
 10
53.93754675894777
 20
89.4403378676082
 30
0.0
 10
54.37025561263055
 20
89.47336192277149
 30
0.0
 10
54.58553207779534
 20
89.49257908790992
 30
0.0
 10
54.79500311006574
 20
89.5264060422331
 30
0.0
  0
SPLINE
  5
A8
330
1F
100
AcDbEntity
  8
0
  6
Continuous
 62
     7
370
    15
100
AcDbSpline
210
0.0
220
0.0
230
1.0
 70
     8
 71
     3
 72
     8
 73
     4
 74
     0
 42
0.00000001
 43
0.00000001
 40
0.0000005163856712
 40
0.0000005163856712
 40
0.0000005163856712
 40
0.0000005163856712
 40
0.000026289209185
 40
0.000026289209185
 40
0.000026289209185
 40
0.000026289209185
 10
49.50348327259327
 20
89.36276689780932
 30
0.0
 10
49.50681101080475
 20
89.3594326509365
 30
0.0
 10
49.51015946378403
 20
89.35610469365749
 30
0.0
 10
49.51352820301193
 20
89.35278302470144
 30
0.0
  0
SPLINE
  5
A9
330
1F
100
AcDbEntity
  8
0
  6
Continuous
 62
     7
370
    15
100
AcDbSpline
210
0.0
220
0.0
230
1.0
 70
     8
 71
     3
 72
     8
 73
     4
 74
     0
 42
0.00000001
 43
0.00000001
 40
0.0000005099763573
 40
0.0000005099763573
 40
0.0000005099763573
 40
0.0000005099763573
 40
0.0000262827998699
 40
0.0000262827998699
 40
0.0000262827998699
 40
0.0000262827998699
 10
49.51352820301194
 20
131.0926585554916
 30
0.0
 10
49.51015946378421
 20
131.0893368865357
 30
0.0
 10
49.50681101080507
 20
131.0860089292569
 30
0.0
 10
49.50348327259374
 20
131.0826746823842
 30
0.0
  0
SPLINE
  5
AA
330
1F
100
AcDbEntity
  8
0
  6
Continuous
 62
     7
370
    15
100
AcDbSpline
210
0.0
220
0.0
230
1.0
 70
     8
 71
     3
 72
    10
 73
     6
 74
     0
 42
0.00000001
 43
0.00000001
 40
0.0
 40
0.0
 40
0.0
 40
0.0
 40
0.5
 40
0.5
 40
1.0
 40
1.0
 40
1.0
 40
1.0
 10
53.06352820301197
 20
131.0458081819243
 30
0.0
 10
52.47594265592137
 20
131.0668737021607
 30
0.0
 10
51.88519626246098
 20
131.0776321880329
 30
0.0
 10
50.70117709716212
 20
131.0909969685686
 30
0.0
 10
50.10776310895666
 20
131.0931396112331
 30
0.0
 10
49.51352820301196
 20
131.0926585554916
 30
0.0
  0
SPLINE
  5
AB
330
1F
100
AcDbEntity
  8
0
  6
Continuous
 62
     7
370
    15
100
AcDbSpline
210
0.0
220
0.0
230
1.0
 70
     8
 71
     3
 72
    18
 73
    14
 74
     0
 42
0.00000001
 43
0.00000001
 40
0.0
 40
0.0
 40
0.0
 40
0.0
 40
0.2500000000000009
 40
0.2500000000000009
 40
0.500000000000001
 40
0.500000000000001
 40
0.7500000000000011
 40
0.7500000000000011
 40
0.875000000000001
 40
0.875000000000001
 40
0.9375000000000006
 40
0.9375000000000006
 40
1.0
 40
1.0
 40
1.0
 40
1.0
 10
54.46352820301197
 20
132.0668284624595
 30
0.0
 10
54.46352820301198
 20
131.9836215536023
 30
0.0
 10
54.42767910307369
 20
131.8948848982888
 30
0.0
 10
54.30280736703977
 20
131.7127597077285
 30
0.0
 10
54.21240694939191
 20
131.6176296591019
 30
0.0
 10
53.99016429464973
 20
131.4284481499776
 30
0.0
 10
53.86039950820395
 20
131.3335029818828
 30
0.0
 10
53.61976205089245
 20
131.1952242743029
 30
0.0
 10
53.531994752755
 20
131.1495138410006
 30
0.0
 10
53.37747066554819
 20
131.0916905357791
 30
0.0
 10
53.32085977949344
 20
131.0739757717412
 30
0.0
 10
53.19681574858684
 20
131.0494364685083
 30
0.0
 10
53.12910107356855
 20
131.04345732997
 30
0.0
 10
53.06352820301196
 20
131.0458081819243
 30
0.0
  0
LINE
  5
AC
330
1F
100
AcDbEntity
  8
0
  6
Continuous
 62
     7
370
    15
100
AcDbLine
 10
54.4635273268
 20
132.0668284478
 30
0.0
 11
54.4635273268
 21
133.2507666828
 31
0.0
  0
LINE
  5
AD
330
1F
100
AcDbEntity
  8
0
  6
Continuous
 62
     7
370
    15
100
AcDbLine
 10
78.263528108
 20
86.0022895666
 30
0.0
 11
78.263528108
 21
134.4431520136
 31
0.0
  0
SPLINE
  5
AE
330
1F
100
AcDbEntity
  8
0
  6
Continuous
 62
     7
370
    15
100
AcDbSpline
210
0.0
220
0.0
230
1.0
 70
     8
 71
     3
 72
    18
 73
    14
 74
     0
 42
0.00000001
 43
0.00000001
 40
0.0
 40
0.0
 40
0.0
 40
0.0
 40
0.001067142096085
 40
0.1270947925777493
 40
0.2524053537361832
 40
0.3766468838452861
 40
0.4391416358858051
 40
0.5008278334298175
 40
0.5624255844801763
 40
0.6253162510714301
 40
0.7499985254815132
 40
0.8752758926324193
 40
1.0
 40
1.0
 40
1.0
 40
1.0
 10
67.03382932895562
 20
86.56538209635855
 30
0.0
 10
67.03291725367289
 20
86.5652669284665
 30
0.0
 10
66.92429065249236
 20
86.55155063013676
 30
0.0
 10
67.3119721245351
 20
86.6025368915184
 30
0.0
 10
68.17792058464465
 20
86.70209392739291
 30
0.0
 10
69.37832837836747
 20
86.77122455701199
 30
0.0
 10
70.4359039282252
 20
86.77517525727872
 30
0.0
 10
71.26303829234845
 20
86.74768838935447
 30
0.0
 10
72.0883099283963
 20
86.68914590054216
 30
0.0
 10
73.14267513550509
 20
86.57562729858245
 30
0.0
 10
74.3045113417585
 20
86.39247314274893
 30
0.0
 10
75.25674606243165
 20
86.18787299408277
 30
0.0
 10
75.38245116514028
 20
86.15858632407367
 30
0.0
 10
75.44516462215921
 20
86.14397539515139
 30
0.0
  0
SPLINE
  5
AF
330
1F
100
AcDbEntity
  8
0
  6
Continuous
 62
     7
370
    15
100
AcDbSpline
210
0.0
220
0.0
230
1.0
 70
     8
 71
     3
 72
    18
 73
    14
 74
     0
 42
0.00000001
 43
0.00000001
 40
0.0
 40
0.0
 40
0.0
 40
0.0
 40
0.1248907819469273
 40
0.2505384063477967
 40
0.3748721756041158
 40
0.4374907331267689
 40
0.4990776026247599
 40
0.5607931145009658
 40
0.6233901196104445
 40
0.7478191009174896
 40
0.8731941046696081
 40
0.9991614615322162
 40
0.9999999999999999
 40
0.9999999999999999
 40
0.9999999999999999
 40
0.9999999999999999
 10
75.44494576135418
 20
134.3014009924615
 30
0.0
 10
75.38120492938647
 20
134.2867395262344
 30
0.0
 10
75.2533369938069
 20
134.2573277447884
 30
0.0
 10
74.30133815721837
 20
134.0523737854308
 30
0.0
 10
73.14079408636574
 20
133.8691125235672
 30
0.0
 10
72.08853031470237
 20
133.7560819691922
 30
0.0
 10
71.26430301568409
 20
133.6978211617194
 30
0.0
 10
70.43669927035943
 20
133.6703740255973
 30
0.0
 10
69.37788194066519
 20
133.674358819472
 30
0.0
 10
68.17566220103934
 20
133.7434516039679
 30
0.0
 10
67.31048143004045
 20
133.8430603411551
 30
0.0
 10
66.92433268240278
 20
133.8939179467983
 30
0.0
 10
67.03241055476639
 20
133.8802171393749
 30
0.0
 10
67.03312524908921
 20
133.8801265390599
 30
0.0
  0
SPLINE
  5
B0
330
1F
100
AcDbEntity
  8
0
  6
Continuous
 62
     7
370
    15
100
AcDbSpline
210
0.0
220
0.0
230
1.0
 70
     8
 71
     3
 72
     9
 73
     5
 74
     0
 42
0.00000001
 43
0.00000001
 40
0.0
 40
0.0
 40
0.0
 40
0.0
 40
0.7009339503679092
 40
0.9999999999999999
 40
0.9999999999999999
 40
0.9999999999999999
 40
0.9999999999999999
 10
48.38431177044055
 20
90.52144109029413
 30
0.0
 10
48.39345244139037
 20
90.50361180653323
 30
0.0
 10
48.40649314364919
 20
90.47817533887242
 30
0.0
 10
48.42165660691747
 20
90.53205469834597
 30
0.0
 10
48.42619148397586
 20
90.54816818554045
 30
0.0
  0
LINE
  5
B1
330
1F
100
AcDbEntity
  8
0
  6
Continuous
 62
     7
370
    15
100
AcDbLine
 10
48.3635283759
 20
90.5320432665
 30
0.0
 11
48.3635283759
 21
129.9133983137
 31
0.0
  0
SPLINE
  5
B2
330
1F
100
AcDbEntity
  8
0
  6
Continuous
 62
     7
370
    15
100
AcDbSpline
210
0.0
220
0.0
230
1.0
 70
     8
 71
     3
 72
    10
 73
     6
 74
     0
 42
0.00000001
 43
0.00000001
 40
0.0
 40
0.0
 40
0.0
 40
0.0
 40
0.5
 40
0.5
 40
1.0
 40
1.0
 40
1.0
 40
1.0
 10
48.42619157773537
 20
129.8972733348773
 30
0.0
 10
48.4172872886266
 20
129.9430148540904
 30
0.0
 10
48.40077190843361
 20
129.9602056935594
 30
0.0
 10
48.373663962372
 20
129.9598824166237
 30
0.0
 10
48.36352820301196
 20
129.9420048743273
 30
0.0
 10
48.36352820301196
 20
129.9133985365746
 30
0.0
  0
SPLINE
  5
B3
330
1F
100
AcDbEntity
  8
0
  6
Continuous
 62
     7
370
    15
100
AcDbSpline
210
0.0
220
0.0
230
1.0
 70
     8
 71
     3
 72
    26
 73
    22
 74
     0
 42
0.00000001
 43
0.00000001
 40
0.0
 40
0.0
 40
0.0
 40
0.0
 40
0.2500000000000165
 40
0.2500000000000165
 40
0.3750000000000256
 40
0.3750000000000256
 40
0.4375000000000291
 40
0.4375000000000291
 40
0.4687500000000291
 40
0.4687500000000291
 40
0.5000000000000292
 40
0.5000000000000292
 40
0.5312500000000293
 40
0.5312500000000293
 40
0.5625000000000293
 40
0.5625000000000293
 40
0.625000000000026
 40
0.625000000000026
 40
0.7500000000000173
 40
0.7500000000000173
 40
1.0
 40
1.0
 40
1.0
 40
1.0
 10
49.18768184911647
 20
130.6128401236944
 30
0.0
 10
49.14908132624799
 20
130.4950654273389
 30
0.0
 10
49.10278432369373
 20
130.370675741177
 30
0.0
 10
49.00884497525981
 20
130.1654564088235
 30
0.0
 10
48.97353350834635
 20
130.0938835423771
 30
0.0
 10
48.90735353260067
 20
129.9779303097766
 30
0.0
 10
48.88281516593246
 20
129.9373457749664
 30
0.0
 10
48.83944242037866
 20
129.8732040930946
 30
0.0
 10
48.82393401895347
 20
129.8513376678096
 30
0.0
 10
48.78889137436643
 20
129.8057433994664
 30
0.0
 10
48.76934108364667
 20
129.782073108499
 30
0.0
 10
48.72741380327605
 20
129.737456549159
 30
0.0
 10
48.70476169304441
 20
129.7165765366411
 30
0.0
 10
48.66378797895779
 20
129.6857031228903
 30
0.0
 10
48.64618867906237
 20
129.6758642530579
 30
0.0
 10
48.60156169320621
 20
129.6568746373617
 30
0.0
 10
48.58100247055289
 20
129.6565503127083
 30
0.0
 10
48.52987703105621
 20
129.6657737535845
 30
0.0
 10
48.50896561806767
 20
129.6870206498014
 30
0.0
 10
48.45751571050674
 20
129.7609895286322
 30
0.0
 10
48.43985041120219
 20
129.827107621947
 30
0.0
 10
48.42619157773537
 20
129.8972733348773
 30
0.0
  0
SPLINE
  5
B4
330
1F
100
AcDbEntity
  8
0
  6
Continuous
 62
     7
370
    15
100
AcDbSpline
210
0.0
220
0.0
230
1.0
 70
     8
 71
     3
 72
    10
 73
     6
 74
     0
 42
0.00000001
 43
0.00000001
 40
0.0
 40
0.0
 40
0.0
 40
0.0
 40
0.5
 40
0.5
 40
1.0
 40
1.0
 40
1.0
 40
1.0
 10
49.50348327259377
 20
131.0826746823842
 30
0.0
 10
49.43592401767552
 20
131.0149832895744
 30
0.0
 10
49.37228736233902
 20
130.9402761248208
 30
0.0
 10
49.26206660776715
 20
130.7813099923941
 30
0.0
 10
49.21525031454453
 20
130.6969547263861
 30
0.0
 10
49.18768184911645
 20
130.6128401236944
 30
0.0
  0
SPLINE
  5
B5
330
1F
100
AcDbEntity
  8
0
  6
Continuous
 62
     7
370
    15
100
AcDbSpline
210
0.0
220
0.0
230
1.0
 70
     8
 71
     3
 72
    10
 73
     6
 74
     0
 42
0.00000001
 43
0.00000001
 40
0.0
 40
0.0
 40
0.0
 40
0.0
 40
0.5
 40
0.5
 40
1.0
 40
1.0
 40
1.0
 40
1.0
 10
49.18768184911651
 20
89.83260145649857
 30
0.0
 10
49.21515926386972
 20
89.74876466003296
 30
0.0
 10
49.26186789415738
 20
89.66445417244613
 30
0.0
 10
49.37214635689932
 20
89.50533294196327
 30
0.0
 10
49.43603389551096
 20
89.43034819787519
 30
0.0
 10
49.50348327259329
 20
89.36276689780932
 30
0.0
  0
SPLINE
  5
B6
330
1F
100
AcDbEntity
  8
0
  6
Continuous
 62
     7
370
    15
100
AcDbSpline
210
0.0
220
0.0
230
1.0
 70
     8
 71
     3
 72
    24
 73
    20
 74
     0
 42
0.00000001
 43
0.00000001
 40
0.0
 40
0.0
 40
0.0
 40
0.0
 40
0.25
 40
0.25
 40
0.374999999999999
 40
0.374999999999999
 40
0.4374999999999993
 40
0.4374999999999993
 40
0.4687499999999994
 40
0.4687499999999994
 40
0.4999999999999995
 40
0.4999999999999995
 40
0.5624999999999971
 40
0.5624999999999971
 40
0.6249999999999947
 40
0.6249999999999947
 40
0.7499999999999947
 40
0.7499999999999947
 40
1.0
 40
1.0
 40
1.0
 40
1.0
 10
48.42619157773537
 20
90.54816824531578
 30
0.0
 10
48.43994469640558
 20
90.61881830330607
 30
0.0
 10
48.45771726381145
 20
90.685416416071
 30
0.0
 10
48.50996835536681
 20
90.7595144363042
 30
0.0
 10
48.53100343094837
 20
90.78077224346576
 30
0.0
 10
48.5839038385768
 20
90.788918169612
 30
0.0
 10
48.60500951145472
 20
90.78797836621622
 30
0.0
 10
48.6510616801327
 20
90.76696237463888
 30
0.0
 10
48.66943215211608
 20
90.75605356853127
 30
0.0
 10
48.71098378718177
 20
90.7234186575839
 30
0.0
 10
48.7335504599387
 20
90.70192667721253
 30
0.0
 10
48.79633147639871
 20
90.63346073362621
 30
0.0
 10
48.82946123736662
 20
90.58738627542112
 30
0.0
 10
48.88637892385162
 20
90.50237838708645
 30
0.0
 10
48.91056494935539
 20
90.46209808590508
 30
0.0
 10
48.97577289973515
 20
90.34716185943913
 30
0.0
 10
49.01048895992639
 20
90.27657887429213
 30
0.0
 10
49.10370423025729
 20
90.07237311521352
 30
0.0
 10
49.14937676561795
 20
89.94947473288616
 30
0.0
 10
49.18768184911649
 20
89.83260145649858
 30
0.0
  0
SPLINE
  5
B7
330
1F
100
AcDbEntity
  8
0
  6
Continuous
 62
     7
370
    15
100
AcDbSpline
210
0.0
220
0.0
230
1.0
 70
     8
 71
     3
 72
    10
 73
     6
 74
     0
 42
0.00000001
 43
0.00000001
 40
0.0
 40
0.0
 40
0.0
 40
0.0
 40
0.5
 40
0.5
 40
1.0
 40
1.0
 40
1.0
 40
1.0
 10
106.2135282030119
 20
140.0691611138604
 30
0.0
 10
106.2135282030119
 20
140.2295663802113
 30
0.0
 10
106.1512903719051
 20
140.3886281931998
 30
0.0
 10
105.9321554481625
 20
140.6195406588301
 30
0.0
 10
105.7745667531707
 20
140.6899162632608
 30
0.0
 10
105.613528203012
 20
140.6899162632608
 30
0.0
  0
SPLINE
  5
B8
330
1F
100
AcDbEntity
  8
0
  6
Continuous
 62
     7
370
    15
100
AcDbSpline
210
0.0
220
0.0
230
1.0
 70
     8
 71
     3
 72
    12
 73
     8
 74
     0
 42
0.00000001
 43
0.00000001
 40
0.0
 40
0.0
 40
0.0
 40
0.0
 40
0.25
 40
0.25
 40
0.5
 40
0.5
 40
1.0
 40
1.0
 40
1.0
 40
1.0
 10
105.613528203012
 20
134.681410452464
 30
0.0
 10
105.7047279248376
 20
134.681410452464
 30
0.0
 10
105.7953229339736
 20
134.6531907538761
 30
0.0
 10
105.9487356604203
 20
134.558747746628
 30
0.0
 10
106.013944527744
 20
134.4924607699227
 30
0.0
 10
106.1667290570839
 20
134.2668359466344
 30
0.0
 10
106.213528203012
 20
134.0844096836018
 30
0.0
 10
106.213528203012
 20
133.9036730513549
 30
0.0
  0
LINE
  5
B9
330
1F
100
AcDbEntity
  8
0
  6
Continuous
 62
     7
370
    15
100
AcDbLine
 10
106.2135278931
 20
133.9036722364
 30
0.0
 11
106.2135278931
 21
140.0691617908
 31
0.0
  0
LINE
  5
BA
330
1F
100
AcDbEntity
  8
0
  6
Continuous
 62
     7
370
    15
100
AcDbLine
 10
105.6135289123
 20
140.6899162265
 30
0.0
 11
101.6554601243
 21
140.6899162265
 31
0.0
  0
LINE
  5
BB
330
1F
100
AcDbEntity
  8
0
  6
Continuous
 62
     7
370
    15
100
AcDbLine
 10
101.6554601243
 20
134.6814104052
 30
0.0
 11
105.6135289123
 21
134.6814104052
 31
0.0
  0
LINE
  5
BC
330
1F
100
AcDbEntity
  8
0
  6
Continuous
 62
     7
370
    15
100
AcDbLine
 10
101.6554601243
 20
134.6814104052
 30
0.0
 11
101.6554601243
 21
140.6899162265
 31
0.0
  0
SPLINE
  5
BD
330
1F
100
AcDbEntity
  8
0
  6
Continuous
 62
     7
370
    15
100
AcDbSpline
210
0.0
220
0.0
230
1.0
 70
     8
 71
     3
 72
     8
 73
     4
 74
     0
 42
0.00000001
 43
0.00000001
 40
0.0
 40
0.0
 40
0.0
 40
0.0
 40
1.0
 40
1.0
 40
1.0
 40
1.0
 10
100.173528203012
 20
131.2728644576798
 30
0.0
 10
100.6528063536018
 20
132.4138756875325
 30
0.0
 10
101.1483741927417
 20
133.5502600983003
 30
0.0
 10
101.655461034501
 20
134.681410452464
 30
0.0
  0
LINE
  5
BE
330
1F
100
AcDbEntity
  8
0
  6
Continuous
 62
     7
370
    15
100
AcDbLine
 10
100.1735284677
 20
130.3585872682
 30
0.0
 11
100.1735284677
 21
131.272864777
 31
0.0
  0
LINE
  5
BF
330
1F
100
AcDbEntity
  8
0
  6
Continuous
 62
     7
370
    15
100
AcDbLine
 10
106.2135278931
 20
133.9036722364
 30
0.0
 11
106.2135278931
 21
130.0727215292
 31
0.0
  0
SPLINE
  5
C0
330
1F
100
AcDbEntity
  8
0
  6
Continuous
 62
     7
370
    15
100
AcDbSpline
210
0.0
220
0.0
230
1.0
 70
     8
 71
     3
 72
     8
 73
     4
 74
     0
 42
0.00000001
 43
0.00000001
 40
0.0
 40
0.0
 40
0.0
 40
0.0
 40
1.0
 40
1.0
 40
1.0
 40
1.0
 10
94.8715953715229
 20
134.681410452464
 30
0.0
 10
95.37868221328218
 20
133.5502600983003
 30
0.0
 10
95.87425005242211
 20
132.4138756875325
 30
0.0
 10
96.35352820301196
 20
131.2728644576798
 30
0.0
  0
LINE
  5
C1
330
1F
100
AcDbEntity
  8
0
  6
Continuous
 62
     7
370
    15
100
AcDbLine
 10
96.3535282513
 20
131.272864777
 30
0.0
 11
96.3535282513
 21
130.3585872682
 31
0.0
  0
SPLINE
  5
C2
330
1F
100
AcDbEntity
  8
0
  6
Continuous
 62
     7
370
    15
100
AcDbSpline
210
0.0
220
0.0
230
1.0
 70
     8
 71
     3
 72
     8
 73
     4
 74
     0
 42
0.00000001
 43
0.00000001
 40
0.0
 40
0.0
 40
0.0
 40
0.0
 40
1.0
 40
1.0
 40
1.0
 40
1.0
 10
96.35352820301196
 20
138.0279549812681
 30
0.0
 10
95.8608181061662
 20
138.9159739793945
 30
0.0
 10
95.36673540088722
 20
139.8032366150805
 30
0.0
 10
94.8715953715229
 20
140.6899162632608
 30
0.0
  0
LINE
  5
C3
330
1F
100
AcDbEntity
  8
0
  6
Continuous
 62
     7
370
    15
100
AcDbLine
 10
96.3535282513
 20
131.272864777
 30
0.0
 11
96.3535282513
 21
138.0279541643
 31
0.0
  0
SPLINE
  5
C4
330
1F
100
AcDbEntity
  8
0
  6
Continuous
 62
     7
370
    15
100
AcDbSpline
210
0.0
220
0.0
230
1.0
 70
     8
 71
     3
 72
     8
 73
     4
 74
     0
 42
0.00000001
 43
0.00000001
 40
0.0
 40
0.0
 40
0.0
 40
0.0
 40
1.0
 40
1.0
 40
1.0
 40
1.0
 10
101.655461034501
 20
140.6899162632608
 30
0.0
 10
101.1603210051367
 20
139.8032366150805
 30
0.0
 10
100.6662382998577
 20
138.9159739793945
 30
0.0
 10
100.173528203012
 20
138.0279549812681
 30
0.0
  0
LINE
  5
C5
330
1F
100
AcDbEntity
  8
0
  6
Continuous
 62
     7
370
    15
100
AcDbLine
 10
100.1735284677
 20
131.272864777
 30
0.0
 11
100.1735284677
 21
138.0279541643
 31
0.0
  0
ARC
  5
C6
330
1F
100
AcDbEntity
  8
0
  6
Continuous
 62
     7
370
    15
100
AcDbCircle
 10
88.2637215335
 20
128.9829040803
 30
0.0
 40
7.197947589070898
100
AcDbArc
 50
70.8186200787
 51
109.2445919003
  0
LINE
  5
C7
330
1F
100
AcDbEntity
  8
0
  6
Continuous
 62
     7
370
    15
100
AcDbLine
 10
240.2635246267
 20
122.0227212342
 30
0.0
 11
240.2635246267
 21
116.1977208847
 31
0.0
  0
LINE
  5
C8
330
1F
100
AcDbEntity
  8
0
  6
Continuous
 62
     7
370
    15
100
AcDbLine
 10
240.2635246267
 20
116.1977208847
 30
0.0
 11
239.7135227671
 21
115.6477208877
 31
0.0
  0
LINE
  5
C9
330
1F
100
AcDbEntity
  8
0
  6
Continuous
 62
     7
370
    15
100
AcDbLine
 10
239.7135227671
 20
104.7977206925
 30
0.0
 11
240.2635246267
 21
104.2477206955
 31
0.0
  0
LINE
  5
CA
330
1F
100
AcDbEntity
  8
0
  6
Continuous
 62
     7
370
    15
100
AcDbLine
 10
240.2635246267
 20
104.2477206955
 30
0.0
 11
240.2635246267
 21
98.422720346
 31
0.0
  0
LINE
  5
CB
330
1F
100
AcDbEntity
  8
0
  6
Continuous
 62
     7
370
    15
100
AcDbLine
 10
230.7135343304
 20
126.0014448943
 30
0.0
 11
230.7135343304
 21
94.2227200301
 31
0.0
  0
LINE
  5
CC
330
1F
100
AcDbEntity
  8
0
  6
Continuous
 62
     7
370
    15
100
AcDbLine
 10
230.7135343304
 20
126.2227215501
 30
0.0
 11
230.7135343304
 21
126.0014448943
 31
0.0
  0
LINE
  5
CD
330
1F
100
AcDbEntity
  8
0
  6
Continuous
 62
     7
370
    15
100
AcDbLine
 10
219.2135333767
 20
126.0014448943
 30
0.0
 11
219.2135333767
 21
94.2227200301
 31
0.0
  0
LINE
  5
CE
330
1F
100
AcDbEntity
  8
0
  6
Continuous
 62
     7
370
    15
100
AcDbLine
 10
219.2135333767
 20
126.2227215501
 30
0.0
 11
219.2135333767
 21
126.0014448943
 31
0.0
  0
LINE
  5
CF
330
1F
100
AcDbEntity
  8
0
  6
Continuous
 62
     7
370
    15
100
AcDbLine
 10
235.2135210981
 20
126.0014448943
 30
0.0
 11
235.2135210981
 21
94.2227200301
 31
0.0
  0
LINE
  5
D0
330
1F
100
AcDbEntity
  8
0
  6
Continuous
 62
     7
370
    15
100
AcDbLine
 10
235.2135210981
 20
126.2227215501
 30
0.0
 11
235.2135210981
 21
126.0014448943
 31
0.0
  0
LINE
  5
D1
330
1F
100
AcDbEntity
  8
0
  6
Continuous
 62
     7
370
    15
100
AcDbLine
 10
239.7135227671
 20
125.0152739393
 30
0.0
 11
239.7135227671
 21
95.2227211254
 31
0.0
  0
LINE
  5
D2
330
1F
100
AcDbEntity
  8
0
  6
Continuous
 62
     7
370
    15
100
AcDbLine
 10
239.7135227671
 20
125.2227204548
 30
0.0
 11
239.7135227671
 21
125.0152739393
 31
0.0
  0
LINE
  5
D3
330
1F
100
AcDbEntity
  8
0
  6
Continuous
 62
     7
370
    15
100
AcDbLine
 10
210.2135300388
 20
125.0152739393
 30
0.0
 11
210.2135300388
 21
95.2227211254
 31
0.0
  0
LINE
  5
D4
330
1F
100
AcDbEntity
  8
0
  6
Continuous
 62
     7
370
    15
100
AcDbLine
 10
210.2135300388
 20
125.2227204548
 30
0.0
 11
210.2135300388
 21
125.0152739393
 31
0.0
  0
LINE
  5
D5
330
1F
100
AcDbEntity
  8
0
  6
Continuous
 62
     7
370
    15
100
AcDbLine
 10
214.7135317078
 20
126.0014448943
 30
0.0
 11
214.7135317078
 21
94.2227200301
 31
0.0
  0
LINE
  5
D6
330
1F
100
AcDbEntity
  8
0
  6
Continuous
 62
     7
370
    15
100
AcDbLine
 10
214.7135317078
 20
126.2227215501
 30
0.0
 11
214.7135317078
 21
126.0014448943
 31
0.0
  0
LINE
  5
D7
330
1F
100
AcDbEntity
  8
0
  6
HIDDEN
 62
     7
370
     0
100
AcDbLine
 10
85.2135281762
 20
78.7227202835
 30
0.0
 11
85.2135281762
 21
78.7385974707
 31
0.0
  0
SPLINE
  5
D8
330
1F
100
AcDbEntity
  8
0
  6
HIDDEN
 62
     7
370
     0
100
AcDbSpline
210
0.0
220
0.0
230
1.0
 70
     8
 71
     3
 72
    28
 73
    24
 74
     0
 42
0.00000001
 43
0.00000001
 40
0.0
 40
0.0
 40
0.0
 40
0.0
 40
0.125
 40
0.125
 40
0.1874999999999999
 40
0.1874999999999999
 40
0.2499999999999998
 40
0.2499999999999998
 40
0.3749999999999998
 40
0.3749999999999998
 40
0.4374999999999998
 40
0.4374999999999998
 40
0.4999999999999999
 40
0.4999999999999999
 40
0.625
 40
0.625
 40
0.75
 40
0.75
 40
0.8124999999999999
 40
0.8124999999999999
 40
0.8749999999999998
 40
0.8749999999999998
 40
1.0
 40
1.0
 40
1.0
 40
1.0
 10
85.21352820301195
 20
78.73859780723419
 30
0.0
 10
85.21352820301195
 20
78.75547559149953
 30
0.0
 10
85.26594151822856
 20
78.78550648673585
 30
0.0
 10
85.41969385060466
 20
78.84844863167517
 30
0.0
 10
85.48356192532428
 20
78.87241485518537
 30
0.0
 10
85.63708678899951
 20
78.9260247767741
 30
0.0
 10
85.72670519463962
 20
78.95563066956817
 30
0.0
 10
86.02819830543983
 20
79.05012686499437
 30
0.0
 10
86.27392438097974
 20
79.12125782456974
 30
0.0
 10
86.7094769308005
 20
79.23558867639413
 30
0.0
 10
86.86682465817563
 20
79.27518218683905
 30
0.0
 10
87.19879527432226
 20
79.35463711429875
 30
0.0
 10
87.3735837321773
 20
79.39456315358842
 30
0.0
 10
87.92388747392499
 20
79.51353729508357
 30
0.0
 10
88.32506450372237
 20
79.59182164415651
 30
0.0
 10
89.20004357481554
 20
79.73844227026535
 30
0.0
 10
89.66056458959525
 20
79.80444269674616
 30
0.0
 10
90.38249357406674
 20
79.88736386760615
 30
0.0
 10
90.62851940987449
 20
79.91234928796666
 30
0.0
 10
91.13170836333329
 20
79.95618080335026
 30
0.0
 10
91.39022885303119
 20
79.97507766816499
 30
0.0
 10
92.1661804399918
 20
80.02035475442874
 30
0.0
 10
92.68773741894069
 20
80.03580309384937
 30
0.0
 10
93.21352820301195
 20
80.03580309384937
 30
0.0
  0
LINE
  5
D9
330
1F
100
AcDbEntity
  8
0
  6
HIDDEN
 62
     7
370
     0
100
AcDbLine
 10
93.2135285562
 20
80.0358031573
 30
0.0
 11
94.8715956634
 21
80.0358031573
 31
0.0
  0
LINE
  5
DA
330
1F
100
AcDbEntity
  8
0
  6
HIDDEN
 62
     7
370
     0
100
AcDbLine
 10
94.8715956634
 20
140.6899162265
 30
0.0
 11
94.8715956634
 21
80.0358031573
 31
0.0
  0
LINE
  5
DB
330
1F
100
AcDbEntity
  8
0
  6
HIDDEN
 62
     7
370
     0
100
AcDbLine
 10
93.2135285562
 20
140.6899162265
 30
0.0
 11
94.8715956634
 21
140.6899162265
 31
0.0
  0
SPLINE
  5
DC
330
1F
100
AcDbEntity
  8
0
  6
HIDDEN
 62
     7
370
     0
100
AcDbSpline
210
0.0
220
0.0
230
1.0
 70
     8
 71
     3
 72
    17
 73
    13
 74
     0
 42
0.00000001
 43
0.00000001
 40
0.0
 40
0.0
 40
0.0
 40
0.0
 40
0.0638118530465205
 40
0.1662333895307372
 40
0.2715772228763146
 40
0.3750121495313972
 40
0.481289232822485
 40
0.5875618040019402
 40
0.6968792013763269
 40
0.8035874989287674
 40
0.9135588298793159
 40
1.0
 40
1.0
 40
1.0
 40
1.0
 10
85.2415167478635
 20
141.7156246187174
 30
0.0
 10
85.2383195988405
 20
141.7164289320505
 30
0.0
 10
85.22999084965748
 20
141.7185242125543
 30
0.0
 10
85.46162632269147
 20
141.6600475116332
 30
0.0
 10
85.89672736648713
 20
141.554739135224
 30
0.0
 10
86.54272947014948
 20
141.4089274257097
 30
0.0
 10
87.36700097531144
 20
141.2414767675654
 30
0.0
 10
88.36953320841812
 20
141.0665028510745
 30
0.0
 10
89.51228096127143
 20
140.9059165397776
 30
0.0
 10
90.77761501470246
 20
140.7785648328518
 30
0.0
 10
92.0243551539302
 20
140.702478995856
 30
0.0
 10
92.85011258941609
 20
140.6937554571159
 30
0.0
 10
93.21352855616948
 20
140.689916226455
 30
0.0
  0
SPLINE
  5
DD
330
1F
100
AcDbEntity
  8
0
  6
HIDDEN
 62
     7
370
     0
100
AcDbSpline
210
0.0
220
0.0
230
1.0
 70
     8
 71
     3
 72
    76
 73
    72
 74
     0
 42
0.00000001
 43
0.00000001
 40
-0.03125
 40
-0.03125
 40
0.0
 40
0.0
 40
0.0312499999999998
 40
0.0312499999999998
 40
0.0468749999999997
 40
0.0468749999999997
 40
0.0624999999999997
 40
0.0624999999999997
 40
0.0937499999999994
 40
0.0937499999999994
 40
0.1249999999999992
 40
0.1249999999999992
 40
0.156249999999999
 40
0.156249999999999
 40
0.1874999999999988
 40
0.1874999999999988
 40
0.2187499999999985
 40
0.2187499999999985
 40
0.2499999999999983
 40
0.2499999999999983
 40
0.2812499999999982
 40
0.2812499999999982
 40
0.3124999999999981
 40
0.3124999999999981
 40
0.3281249999999981
 40
0.3281249999999981
 40
0.3437499999999981
 40
0.3437499999999981
 40
0.3749999999999981
 40
0.3749999999999981
 40
0.4062499999999982
 40
0.4062499999999982
 40
0.4374999999999982
 40
0.4374999999999982
 40
0.4687499999999983
 40
0.4687499999999983
 40
0.4999999999999983
 40
0.4999999999999983
 40
0.5312499999999983
 40
0.5312499999999983
 40
0.5624999999999984
 40
0.5624999999999984
 40
0.5937499999999984
 40
0.5937499999999984
 40
0.6249999999999986
 40
0.6249999999999986
 40
0.6562499999999986
 40
0.6562499999999986
 40
0.6874999999999987
 40
0.6874999999999987
 40
0.7031249999999987
 40
0.7031249999999987
 40
0.7187499999999987
 40
0.7187499999999987
 40
0.7499999999999988
 40
0.7499999999999988
 40
0.781249999999999
 40
0.781249999999999
 40
0.8124999999999991
 40
0.8124999999999991
 40
0.8437499999999993
 40
0.8437499999999993
 40
0.8749999999999994
 40
0.8749999999999994
 40
0.9062499999999997
 40
0.9062499999999997
 40
0.9374999999999998
 40
0.9374999999999998
 40
0.96875
 40
0.96875
 40
1.0
 40
1.0
 40
1.03125
 40
1.03125
 10
82.26352820301196
 20
110.5536047858906
 30
0.0
 10
82.26352820301194
 20
109.8918367943025
 30
0.0
 10
82.29604868079635
 20
109.5665856262066
 30
0.0
 10
82.39154192507834
 20
109.0867889053175
 30
0.0
 10
82.43121676048952
 20
108.9282132215238
 30
0.0
 10
82.52660337382517
 20
108.6138308357308
 30
0.0
 10
82.58254761523581
 20
108.4577112121466
 30
0.0
 10
82.77091063868545
 20
108.0037706522447
 30
0.0
 10
82.92452291510385
 20
107.7167904062377
 30
0.0
 10
83.28735070888796
 20
107.1736772494984
 30
0.0
 10
83.49818581047047
 20
106.9169379579544
 30
0.0
 10
83.95868538048789
 20
106.4565533237235
 30
0.0
 10
84.21004832140572
 20
106.2497765069696
 30
0.0
 10
84.75639501575915
 20
105.8842522993062
 30
0.0
 10
85.04660965547711
 20
105.7292527405914
 30
0.0
 10
85.64799647177878
 20
105.4797217194972
 30
0.0
 10
85.96362616486918
 20
105.3834434458085
 30
0.0
 10
86.60926656614876
 20
105.2547944385655
 30
0.0
 10
86.93402232196208
 20
105.2229081794489
 30
0.0
 10
87.58732235235348
 20
105.2225350319382
 30
0.0
 10
87.91919469318418
 20
105.2551145181842
 30
0.0
 10
88.56084592678782
 20
105.3828884228906
 30
0.0
 10
88.87277084372091
 20
105.4774208671877
 30
0.0
 10
89.32726044423784
 20
105.6655404617264
 30
0.0
 10
89.47712375207182
 20
105.7364234429472
 30
0.0
 10
89.76620898599444
 20
105.8910400492816
 30
0.0
 10
89.9060699003025
 20
105.9749626480195
 30
0.0
 10
90.31194634400671
 20
106.2461581714952
 30
0.0
 10
90.56498449049631
 20
106.4532581769364
 30
0.0
 10
91.03088404665972
 20
106.9188606299937
 30
0.0
 10
91.2373901211555
 20
107.170779482381
 30
0.0
 10
91.5994956845552
 20
107.7116830983819
 30
0.0
 10
91.75635479837035
 20
108.0042259411333
 30
0.0
 10
92.00730491523298
 20
108.6090935978908
 30
0.0
 10
92.10211601456395
 20
108.9207404293375
 30
0.0
 10
92.23053787735708
 20
109.5624937345591
 30
0.0
 10
92.26340116384827
 20
109.8942215534384
 30
0.0
 10
92.26365448995679
 20
110.5473413186993
 30
0.0
 10
92.23209848938754
 20
110.8722745250423
 30
0.0
 10
92.10385726796314
 20
111.5188015314954
 30
0.0
 10
92.00805121930478
 20
111.8338094853564
 30
0.0
 10
91.75891770821063
 20
112.435768153502
 30
0.0
 10
91.6034575865159
 20
112.7272443237775
 30
0.0
 10
91.23900333215612
 20
113.2728392602742
 30
0.0
 10
91.03257042472038
 20
113.5243163752793
 30
0.0
 10
90.57210134220244
 20
113.9856393993341
 30
0.0
 10
90.31530433414656
 20
114.1967627002805
 30
0.0
 10
89.77325912031206
 20
114.5594934819965
 30
0.0
 10
89.48648954037657
 20
114.7133823853821
 30
0.0
 10
89.0321823644909
 20
114.9023321120741
 30
0.0
 10
88.87604206371742
 20
114.9584049080939
 30
0.0
 10
88.56219610237133
 20
115.0539076736266
 30
0.0
 10
88.40380931467755
 20
115.0936883166541
 30
0.0
 10
87.92433307473418
 20
115.1895708537794
 30
0.0
 10
87.59809313030729
 20
115.2224463017789
 30
0.0
 10
86.93721853302932
 20
115.22299187095
 30
0.0
 10
86.6120821856844
 20
115.1908253523365
 30
0.0
 10
85.97199968519794
 20
115.0640428143493
 30
0.0
 10
85.65367876113015
 20
114.967775060558
 30
0.0
 10
85.04876248229101
 20
114.7173807391328
 30
0.0
 10
84.7616135686395
 20
114.5640665774113
 30
0.0
 10
84.21766201496652
 20
114.2013586533915
 30
0.0
 10
83.96101606523992
 20
113.9909195806576
 30
0.0
 10
83.50042551182702
 20
113.5310385923813
 30
0.0
 10
83.29327662583613
 20
113.2797567926885
 30
0.0
 10
82.92674538242281
 20
112.7328366189485
 30
0.0
 10
82.77206119491831
 20
112.4436964673322
 30
0.0
 10
82.52196154158013
 20
111.842459793413
 30
0.0
 10
82.42527476708702
 20
111.5264840997722
 30
0.0
 10
82.29605319213074
 20
110.8805103416756
 30
0.0
 10
82.26352820301196
 20
110.5536047858906
 30
0.0
 10
82.26352820301194
 20
109.8918367943025
 30
0.0
  0
LINE
  5
DE
330
1F
100
AcDbEntity
  8
0
  6
HIDDEN
 62
     7
370
     0
100
AcDbLine
 10
80.263528203
 20
79.0227216365
 30
0.0
 11
80.263528203
 21
141.4227199437
 31
0.0
  0
ARC
  5
DF
330
1F
100
AcDbEntity
  8
0
  6
HIDDEN
 62
     7
370
     0
100
AcDbCircle
 10
88.5434840524
 20
122.7216415512
 30
0.0
 40
3.679670990502844
100
AcDbArc
 50
265.6366256752
 51
11.9475298484
  0
ARC
  5
E0
330
1F
100
AcDbEntity
  8
0
  6
HIDDEN
 62
     7
370
     0
100
AcDbCircle
 10
87.9803169362
 20
122.7137362321
 30
0.0
 40
3.672038336051044
100
AcDbArc
 50
166.4655654762
 51
274.4234186471
  0
SPLINE
  5
E1
330
1F
100
AcDbEntity
  8
0
  6
HIDDEN
 62
     7
370
     0
100
AcDbSpline
210
0.0
220
0.0
230
1.0
 70
     8
 71
     3
 72
    10
 73
     6
 74
     0
 42
0.00000001
 43
0.00000001
 40
0.0
 40
0.0
 40
0.0
 40
0.0
 40
0.5
 40
0.5
 40
1.0
 40
1.0
 40
1.0
 40
1.0
 10
96.45120300534424
 20
83.82272079009654
 30
0.0
 10
96.41904781772223
 20
83.7604347445804
 30
0.0
 10
96.394391586528
 20
83.69390431971117
 30
0.0
 10
96.36157882960252
 20
83.55704568934866
 30
0.0
 10
96.35352820301192
 20
83.48798809417029
 30
0.0
 10
96.35352820301193
 20
83.41832516176697
 30
0.0
  0
SPLINE
  5
E2
330
1F
100
AcDbEntity
  8
0
  6
HIDDEN
 62
     7
370
     0
100
AcDbSpline
210
0.0
220
0.0
230
1.0
 70
    24
 71
     3
 72
    10
 73
     6
 74
     0
 42
0.00000001
 43
0.00000001
 40
0.0
 40
0.0
 40
0.0
 40
0.0
 40
0.5
 40
0.5
 40
1.0
 40
1.0
 40
1.0
 40
1.0
 10
96.35352820301196
 20
130.0727207900965
 30
0.0
 10
96.35352820301195
 20
130.0727207900965
 30
0.0
 10
96.35574465842998
 20
130.0727207900965
 30
0.0
 10
96.36448465345707
 20
130.0727207900965
 30
0.0
 10
96.37099904451715
 20
130.0727207900965
 30
0.0
 10
96.37967582617209
 20
130.0727207900965
 30
0.0
  0
LINE
  5
E3
330
1F
100
AcDbEntity
  8
0
  6
HIDDEN
 62
     7
370
     0
100
AcDbLine
 10
96.3535282513
 20
130.3585872682
 30
0.0
 11
96.3535282513
 21
137.3423740895
 31
0.0
  0
LINE
  5
E4
330
1F
100
AcDbEntity
  8
0
  6
HIDDEN
 62
     7
370
     0
100
AcDbLine
 10
96.3535282513
 20
83.4183257701
 30
0.0
 11
96.3535282513
 21
130.0727215292
 31
0.0
  0
SPLINE
  5
E5
330
1F
100
AcDbEntity
  8
0
  6
HIDDEN
 62
     7
370
     0
100
AcDbSpline
210
0.0
220
0.0
230
1.0
 70
     8
 71
     3
 72
    10
 73
     6
 74
     0
 42
0.00000001
 43
0.00000001
 40
0.0
 40
0.0
 40
0.0
 40
0.0
 40
0.5
 40
0.5
 40
1.0
 40
1.0
 40
1.0
 40
1.0
 10
100.173528203012
 20
83.4183251617672
 30
0.0
 10
100.173528203012
 20
83.48856152213796
 30
0.0
 10
100.1652455909215
 20
83.55855562363546
 30
0.0
 10
100.1321456478629
 20
83.6955148881944
 30
0.0
 10
100.1078082559044
 20
83.76082279744965
 30
0.0
 10
100.0758534006797
 20
83.82272079009655
 30
0.0
  0
LINE
  5
E6
330
1F
100
AcDbEntity
  8
0
  6
HIDDEN
 62
     7
370
     0
100
AcDbLine
 10
100.1735284677
 20
130.3585872682
 30
0.0
 11
100.1735284677
 21
137.3423740895
 31
0.0
  0
SPLINE
  5
E7
330
1F
100
AcDbEntity
  8
0
  6
HIDDEN
 62
     7
370
     0
100
AcDbSpline
210
0.0
220
0.0
230
1.0
 70
    24
 71
     3
 72
    10
 73
     6
 74
     0
 42
0.00000001
 43
0.00000001
 40
0.0
 40
0.0
 40
0.0
 40
0.0
 40
0.5
 40
0.5
 40
1.0
 40
1.0
 40
1.0
 40
1.0
 10
100.1473805798518
 20
130.0727207900965
 30
0.0
 10
100.1560583547595
 20
130.0727207900965
 30
0.0
 10
100.1626113787664
 20
130.0727207900965
 30
0.0
 10
100.1713459882634
 20
130.0727207900965
 30
0.0
 10
100.173528203012
 20
130.0727207900965
 30
0.0
 10
100.173528203012
 20
130.0727207900965
 30
0.0
  0
LINE
  5
E8
330
1F
100
AcDbEntity
  8
0
  6
HIDDEN
 62
     7
370
     0
100
AcDbLine
 10
100.1735284677
 20
83.4183257701
 30
0.0
 11
100.1735284677
 21
130.0727215292
 31
0.0
  0
LINE
  5
E9
330
1F
100
AcDbEntity
  8
0
  6
HIDDEN
 62
     7
370
     0
100
AcDbLine
 10
80.263528203
 20
84.8987896623
 30
0.0
 11
80.263528203
 21
135.5466519179
 31
0.0
  0
LINE
  5
EA
330
1F
100
AcDbEntity
  8
0
  6
HIDDEN
 62
     7
370
     0
100
AcDbLine
 10
85.2135281762
 20
130.0727215292
 30
0.0
 11
92.4591488888
 21
130.0727215292
 31
0.0
  0
LWPOLYLINE
  5
EB
330
1F
100
AcDbEntity
  8
0
  6
HIDDEN
 62
     7
370
     0
100
AcDbPolyline
 90
        2
 70
   128
 43
0.0
 10
100.1735284677
 20
130.0727215292
 10
100.1735284677
 20
130.0727215292
  0
LWPOLYLINE
  5
EC
330
1F
100
AcDbEntity
  8
0
  6
HIDDEN
 62
     7
370
     0
100
AcDbPolyline
 90
        2
 70
   128
 43
0.0
 10
106.2135278931
 20
130.0727215292
 10
106.2135278931
 20
130.0727215292
  0
LWPOLYLINE
  5
ED
330
1F
100
AcDbEntity
  8
0
  6
HIDDEN
 62
     7
370
     0
100
AcDbPolyline
 90
        2
 70
   128
 43
0.0
 10
96.3535282513
 20
130.0727215292
 10
96.3535282513
 20
130.0727215292
  0
SPLINE
  5
EE
330
1F
100
AcDbEntity
  8
0
  6
HIDDEN
 62
     7
370
     0
100
AcDbSpline
210
0.0
220
0.0
230
1.0
 70
     8
 71
     3
 72
    14
 73
    10
 74
     0
 42
0.00000001
 43
0.00000001
 40
0.0
 40
0.0
 40
0.0
 40
0.0
 40
0.500000000000001
 40
0.500000000000001
 40
0.7500000000000004
 40
0.7500000000000004
 40
0.8750000000000003
 40
0.8750000000000003
 40
1.0
 40
1.0
 40
1.0
 40
1.0
 10
49.51352820301196
 20
89.35278302470145
 30
0.0
 10
50.40567433356554
 20
89.3520607985008
 30
0.0
 10
51.29565076935913
 20
89.35664700495826
 30
0.0
 10
52.62224593643474
 20
89.3843720093498
 30
0.0
 10
53.06309286493347
 20
89.39697854697398
 30
0.0
 10
53.71953310235589
 20
89.42799469498144
 30
0.0
 10
53.93754675894777
 20
89.4403378676082
 30
0.0
 10
54.37025561263055
 20
89.47336192277149
 30
0.0
 10
54.58553207779534
 20
89.49257908790992
 30
0.0
 10
54.79500311006574
 20
89.5264060422331
 30
0.0
  0
SPLINE
  5
EF
330
1F
100
AcDbEntity
  8
0
  6
HIDDEN
 62
     7
370
     0
100
AcDbSpline
210
0.0
220
0.0
230
1.0
 70
     8
 71
     3
 72
     8
 73
     4
 74
     0
 42
0.00000001
 43
0.00000001
 40
0.0
 40
0.0
 40
0.0
 40
0.0
 40
1.0
 40
1.0
 40
1.0
 40
1.0
 10
54.79500311006573
 20
89.5264060422331
 30
0.0
 10
55.52958013654856
 20
89.64503105330205
 30
0.0
 10
56.29305520594408
 20
89.74501692543832
 30
0.0
 10
57.06352820301156
 20
89.83625132881585
 30
0.0
  0
SPLINE
  5
F0
330
1F
100
AcDbEntity
  8
0
  6
HIDDEN
 62
     7
370
     0
100
AcDbSpline
210
0.0
220
0.0
230
1.0
 70
     8
 71
     3
 72
    14
 73
    10
 74
     0
 42
0.00000001
 43
0.00000001
 40
0.0
 40
0.0
 40
0.0
 40
0.0
 40
0.1249999999999988
 40
0.1249999999999988
 40
0.2499999999999976
 40
0.2499999999999976
 40
0.4999999999999982
 40
0.4999999999999982
 40
1.0
 40
1.0
 40
1.0
 40
1.0
 10
57.06352820301172
 20
89.83625132881586
 30
0.0
 10
57.11207261166888
 20
89.84199964209618
 30
0.0
 10
57.16498796645378
 20
89.83889875343998
 30
0.0
 10
57.2602833114369
 20
89.81670390927768
 30
0.0
 10
57.30053430872188
 20
89.79947168218183
 30
0.0
 10
57.4048043222349
 20
89.74314376572977
 30
0.0
 10
57.45512629738826
 20
89.69895741978395
 30
0.0
 10
57.58280924491368
 20
89.56794952093331
 30
0.0
 10
57.63889469197596
 20
89.47771500070299
 30
0.0
 10
57.68524108509771
 20
89.3895694665371
 30
0.0
  0
SPLINE
  5
F1
330
1F
100
AcDbEntity
  8
0
  6
HIDDEN
 62
     7
370
     0
100
AcDbSpline
210
0.0
220
0.0
230
1.0
 70
     8
 71
     3
 72
    14
 73
    10
 74
     0
 42
0.00000001
 43
0.00000001
 40
0.0
 40
0.0
 40
0.0
 40
0.0
 40
0.25
 40
0.25
 40
0.5
 40
0.5
 40
0.75
 40
0.75
 40
1.0
 40
1.0
 40
1.0
 40
1.0
 10
57.68524108509624
 20
89.38956946653657
 30
0.0
 10
57.74186776029831
 20
89.28187201269971
 30
0.0
 10
57.83639042058804
 20
89.1790824309804
 30
0.0
 10
58.01943539615027
 20
88.98072511876025
 30
0.0
 10
58.111061973105
 20
88.884665610082
 30
0.0
 10
58.2699152907982
 20
88.69713656737275
 30
0.0
 10
58.33780589841989
 20
88.60572759458921
 30
0.0
 10
58.43472292412748
 20
88.42735137367904
 30
0.0
 10
58.46352820301254
 20
88.34012946743287
 30
0.0
 10
58.46352820301252
 20
88.25898325889861
 30
0.0
  0
LINE
  5
F2
330
1F
100
AcDbEntity
  8
0
  6
HIDDEN
 62
     7
370
     0
100
AcDbLine
 10
58.4635279825
 20
88.2589828851
 30
0.0
 11
58.4635279825
 21
86.9942747684
 31
0.0
  0
LINE
  5
F3
330
1F
100
AcDbEntity
  8
0
  6
HIDDEN
 62
     7
370
     0
100
AcDbLine
 10
54.4635273268
 20
133.2507666828
 30
0.0
 11
54.4635273268
 21
132.0668284478
 31
0.0
  0
SPLINE
  5
F4
330
1F
100
AcDbEntity
  8
0
  6
HIDDEN
 62
     7
370
     0
100
AcDbSpline
210
0.0
220
0.0
230
1.0
 70
     8
 71
     3
 72
    18
 73
    14
 74
     0
 42
0.00000001
 43
0.00000001
 40
0.0
 40
0.0
 40
0.0
 40
0.0
 40
0.2500000000000007
 40
0.2500000000000007
 40
0.5000000000000006
 40
0.5000000000000006
 40
0.7500000000000004
 40
0.7500000000000004
 40
0.8750000000000002
 40
0.8750000000000002
 40
0.9375000000000001
 40
0.9375000000000001
 40
1.0
 40
1.0
 40
1.0
 40
1.0
 10
54.46352820301197
 20
132.0668284624595
 30
0.0
 10
54.46352820301198
 20
131.9836215536023
 30
0.0
 10
54.42767910307369
 20
131.8948848982888
 30
0.0
 10
54.30280736703978
 20
131.7127597077285
 30
0.0
 10
54.21240694939192
 20
131.6176296591019
 30
0.0
 10
53.99016429464974
 20
131.4284481499776
 30
0.0
 10
53.86039950820397
 20
131.3335029818828
 30
0.0
 10
53.61976205089245
 20
131.1952242743029
 30
0.0
 10
53.53199475275501
 20
131.1495138410006
 30
0.0
 10
53.37747066554818
 20
131.0916905357791
 30
0.0
 10
53.32085977949344
 20
131.0739757717412
 30
0.0
 10
53.19681574858684
 20
131.0494364685083
 30
0.0
 10
53.12910107356855
 20
131.04345732997
 30
0.0
 10
53.06352820301196
 20
131.0458081819243
 30
0.0
  0
SPLINE
  5
F5
330
1F
100
AcDbEntity
  8
0
  6
HIDDEN
 62
     7
370
     0
100
AcDbSpline
210
0.0
220
0.0
230
1.0
 70
     8
 71
     3
 72
    10
 73
     6
 74
     0
 42
0.00000001
 43
0.00000001
 40
0.0
 40
0.0
 40
0.0
 40
0.0
 40
0.5
 40
0.5
 40
1.0
 40
1.0
 40
1.0
 40
1.0
 10
53.06352820301197
 20
131.0458081819243
 30
0.0
 10
52.47594265592137
 20
131.0668737021607
 30
0.0
 10
51.88519626246098
 20
131.0776321880329
 30
0.0
 10
50.70117709716212
 20
131.0909969685686
 30
0.0
 10
50.10776310895666
 20
131.0931396112331
 30
0.0
 10
49.51352820301196
 20
131.0926585554916
 30
0.0
  0
SPLINE
  5
F6
330
1F
100
AcDbEntity
  8
0
  6
HIDDEN
 62
     7
370
     0
100
AcDbSpline
210
0.0
220
0.0
230
1.0
 70
     8
 71
     3
 72
     8
 73
     4
 74
     0
 42
0.00000001
 43
0.00000001
 40
0.0000005099763571
 40
0.0000005099763571
 40
0.0000005099763571
 40
0.0000005099763571
 40
0.0000262827998697
 40
0.0000262827998697
 40
0.0000262827998697
 40
0.0000262827998697
 10
49.51352820301193
 20
131.0926585554916
 30
0.0
 10
49.51015946378421
 20
131.0893368865357
 30
0.0
 10
49.50681101080507
 20
131.0860089292569
 30
0.0
 10
49.50348327259374
 20
131.0826746823842
 30
0.0
  0
SPLINE
  5
F7
330
1F
100
AcDbEntity
  8
0
  6
HIDDEN
 62
     7
370
     0
100
AcDbSpline
210
0.0
220
0.0
230
1.0
 70
     8
 71
     3
 72
     8
 73
     4
 74
     0
 42
0.00000001
 43
0.00000001
 40
0.0000005163856716
 40
0.0000005163856716
 40
0.0000005163856716
 40
0.0000005163856716
 40
0.0000262892091854
 40
0.0000262892091854
 40
0.0000262892091854
 40
0.0000262892091854
 10
49.50348327259327
 20
89.36276689780932
 30
0.0
 10
49.50681101080475
 20
89.3594326509365
 30
0.0
 10
49.51015946378403
 20
89.35610469365749
 30
0.0
 10
49.51352820301194
 20
89.35278302470144
 30
0.0
  0
LINE
  5
F8
330
1F
100
AcDbEntity
  8
0
  6
HIDDEN
 62
     7
370
     0
100
AcDbLine
 10
78.263528108
 20
134.4431520136
 30
0.0
 11
78.263528108
 21
86.0022895666
 31
0.0
  0
SPLINE
  5
F9
330
1F
100
AcDbEntity
  8
0
  6
HIDDEN
 62
     7
370
     0
100
AcDbSpline
210
0.0
220
0.0
230
1.0
 70
     8
 71
     3
 72
    10
 73
     6
 74
     0
 42
0.00000001
 43
0.00000001
 40
0.0
 40
0.0
 40
0.0
 40
0.0
 40
0.2949160548786157
 40
0.5007639553978313
 40
0.9999999999999999
 40
0.9999999999999999
 40
0.9999999999999999
 40
0.9999999999999999
 10
68.25867870205781
 20
86.69812164027334
 30
0.0
 10
68.08574618472508
 20
86.68037451481229
 30
0.0
 10
67.7921088260127
 20
86.65024010674665
 30
0.0
 10
67.11736035463377
 20
86.58215675291018
 30
0.0
 10
67.0684560886349
 20
86.5723358239873
 30
0.0
 10
67.03382932895562
 20
86.56538209635855
 30
0.0
  0
SPLINE
  5
FA
330
1F
100
AcDbEntity
  8
0
  6
HIDDEN
 62
     7
370
     0
100
AcDbSpline
210
0.0
220
0.0
230
1.0
 70
     8
 71
     3
 72
    16
 73
    12
 74
     0
 42
0.00000001
 43
0.00000001
 40
0.0
 40
0.0
 40
0.0
 40
0.0
 40
0.001461936992627
 40
0.169506096951987
 40
0.3368148517120961
 40
0.5027784303362756
 40
0.5863380615116264
 40
0.6685202812253421
 40
0.7507638549562583
 40
0.8341946368853005
 40
1.0
 40
1.0
 40
1.0
 40
1.0
 10
75.44516462215921
 20
86.14397539515139
 30
0.0
 10
75.44609476834907
 20
86.1437675608897
 30
0.0
 10
75.55394172142114
 20
86.11966995977194
 30
0.0
 10
75.16592086554229
 20
86.2081451246253
 30
0.0
 10
74.30413261250742
 20
86.39177810289316
 30
0.0
 10
73.11382648617874
 20
86.58000131184762
 30
0.0
 10
72.06242650191501
 20
86.69140743725205
 30
0.0
 10
71.23639743615313
 20
86.7490413976981
 30
0.0
 10
70.412609455481
 20
86.77552697780398
 30
0.0
 10
69.34245406842773
 20
86.7707882479995
 30
0.0
 10
68.69163724866932
 20
86.7271512988581
 30
0.0
 10
68.25867870205781
 20
86.69812164027334
 30
0.0
  0
SPLINE
  5
FB
330
1F
100
AcDbEntity
  8
0
  6
HIDDEN
 62
     7
370
     0
100
AcDbSpline
210
0.0
220
0.0
230
1.0
 70
     8
 71
     3
 72
    16
 73
    12
 74
     0
 42
0.00000001
 43
0.00000001
 40
0.0
 40
0.0
 40
0.0
 40
0.0
 40
0.1658978911914715
 40
0.2493608304160354
 40
0.331758878671613
 40
0.4138911522900457
 40
0.4976181608422304
 40
0.6634956017064854
 40
0.8305394519957011
 40
0.9983760782772074
 40
1.0
 40
1.0
 40
1.0
 40
1.0
 10
68.25858556980035
 20
133.7473031761134
 30
0.0
 10
68.69215395268526
 20
133.7183504088156
 30
0.0
 10
69.34384983152881
 20
133.6748315548726
 30
0.0
 10
70.41481577736484
 20
133.6700918812102
 30
0.0
 10
71.23903881718758
 20
133.6964937154321
 30
0.0
 10
72.06605702723257
 20
133.7541871730172
 30
0.0
 10
73.11717423985058
 20
133.865846459101
 30
0.0
 10
74.30588558553934
 20
134.0540448453295
 30
0.0
 10
75.16662624166898
 20
134.2373067717971
 30
0.0
 10
75.55462385199368
 20
134.3258250362117
 30
0.0
 10
75.44598681805667
 20
134.3016328237625
 30
0.0
 10
75.44494576135418
 20
134.3014009924615
 30
0.0
  0
SPLINE
  5
FC
330
1F
100
AcDbEntity
  8
0
  6
HIDDEN
 62
     7
370
     0
100
AcDbSpline
210
0.0
220
0.0
230
1.0
 70
     8
 71
     3
 72
    10
 73
     6
 74
     0
 42
0.00000001
 43
0.00000001
 40
0.0
 40
0.0
 40
0.0
 40
0.0
 40
0.4995493716480917
 40
0.5744878351640255
 40
0.9999999999999999
 40
0.9999999999999999
 40
0.9999999999999999
 40
0.9999999999999999
 10
67.03312524908921
 20
133.8801265390599
 30
0.0
 10
67.05342001685803
 20
133.8743351147903
 30
0.0
 10
67.07675924589601
 20
133.8676749066507
 30
0.0
 10
67.7089376481555
 20
133.8035268523639
 30
0.0
 10
68.00600319958275
 20
133.7731399142333
 30
0.0
 10
68.25858556980035
 20
133.7473031761134
 30
0.0
  0
LINE
  5
FD
330
1F
100
AcDbEntity
  8
0
  6
HIDDEN
 62
     7
370
     0
100
AcDbLine
 10
106.2135278931
 20
87.3729393514
 30
0.0
 11
106.2135278931
 21
133.045819837
 31
0.0
  0
LINE
  5
FE
330
1F
100
AcDbEntity
  8
0
  6
HIDDEN
 62
     7
370
     0
100
AcDbLine
 10
48.3635283759
 20
90.5320432665
 30
0.0
 11
48.3843117704
 21
90.5214410903
 31
0.0
  0
SPLINE
  5
FF
330
1F
100
AcDbEntity
  8
0
  6
HIDDEN
 62
     7
370
     0
100
AcDbSpline
210
0.0
220
0.0
230
1.0
 70
    11
 71
     3
 72
    22
 73
    18
 74
     0
 42
0.00000001
 43
0.00000001
 40
0.0
 40
0.0
 40
0.0
 40
0.0
 40
0.1249999999999999
 40
0.1249999999999999
 40
0.2499999999999999
 40
0.2499999999999999
 40
0.3749999999999999
 40
0.3749999999999999
 40
0.5
 40
0.5
 40
0.625
 40
0.625
 40
0.75
 40
0.75
 40
0.8750000000000001
 40
0.8750000000000001
 40
1.0
 40
1.0
 40
1.0
 40
1.0
 10
74.01853020461354
 20
130.060249265913
 30
0.0
 10
74.17747303358264
 20
130.08232297396
 30
0.0
 10
74.31816458147298
 20
130.0990067919476
 30
0.0
 10
74.5641508189354
 20
130.1252284868299
 30
0.0
 10
74.67018890161673
 20
130.1348077926752
 30
0.0
 10
74.84068094218374
 20
130.1488870597544
 30
0.0
 10
74.90473364164744
 20
130.1533936360015
 30
0.0
 10
74.99123769274046
 20
130.1592578058394
 30
0.0
 10
75.0134711881006
 20
130.1605997383576
 30
0.0
 10
75.0135849941125
 20
130.1606068781072
 30
0.0
 10
74.99212706562724
 20
130.1593142426209
 30
0.0
 10
74.9061412727483
 20
130.1534928131107
 30
0.0
 10
74.84082712599877
 20
130.1488933438349
 30
0.0
 10
74.67182129206333
 20
130.134948323025
 30
0.0
 10
74.56786225418756
 20
130.1255959361667
 30
0.0
 10
74.32035180794863
 20
130.0992674657003
 30
0.0
 10
74.17746771786491
 20
130.0823222357223
 30
0.0
 10
74.0185302046139
 20
130.0602492659131
 30
0.0
  0
SPLINE
  5
100
330
1F
100
AcDbEntity
  8
0
  6
HIDDEN
 62
     7
370
     0
100
AcDbSpline
210
0.0
220
0.0
230
1.0
 70
    11
 71
     3
 72
    22
 73
    18
 74
     0
 42
0.00000001
 43
0.00000001
 40
0.0
 40
0.0
 40
0.0
 40
0.0
 40
0.1249999999999999
 40
0.1249999999999999
 40
0.2499999999999999
 40
0.2499999999999999
 40
0.3749999999999999
 40
0.3749999999999999
 40
0.5
 40
0.5
 40
0.625
 40
0.625
 40
0.75
 40
0.75
 40
0.8750000000000001
 40
0.8750000000000001
 40
1.0
 40
1.0
 40
1.0
 40
1.0
 10
74.01853020461354
 20
90.38519231428006
 30
0.0
 10
74.17747303358264
 20
90.36311860623302
 30
0.0
 10
74.31816458147298
 20
90.34643478824542
 30
0.0
 10
74.5641508189354
 20
90.32021309336312
 30
0.0
 10
74.67018890161673
 20
90.3106337875178
 30
0.0
 10
74.84068094218374
 20
90.29655452043863
 30
0.0
 10
74.90473364164744
 20
90.2920479441916
 30
0.0
 10
74.99123769274046
 20
90.2861837743537
 30
0.0
 10
75.0134711881006
 20
90.2848418418354
 30
0.0
 10
75.0135849941125
 20
90.2848347020859
 30
0.0
 10
74.99212706562724
 20
90.28612733757211
 30
0.0
 10
74.9061412727483
 20
90.29194876708233
 30
0.0
 10
74.84082712599877
 20
90.29654823635816
 30
0.0
 10
74.67182129206333
 20
90.31049325716802
 30
0.0
 10
74.56786225418756
 20
90.31984564402634
 30
0.0
 10
74.32035180794863
 20
90.34617411449275
 30
0.0
 10
74.17746771786491
 20
90.36311934447075
 30
0.0
 10
74.0185302046139
 20
90.38519231427996
 30
0.0
  0
LINE
  5
101
330
1F
100
AcDbEntity
  8
0
  6
HIDDEN
 62
     7
370
     0
100
AcDbLine
 10
80.263528203
 20
93.2227198662
 30
0.0
 11
80.263528203
 21
127.222721714
 31
0.0
  0
SPLINE
  5
102
330
1F
100
AcDbEntity
  8
0
  6
HIDDEN
 62
     7
370
     0
100
AcDbSpline
210
0.0
220
0.0
230
1.0
 70
    11
 71
     3
 72
    58
 73
    54
 74
     0
 42
0.00000001
 43
0.00000001
 40
0.0
 40
0.0
 40
0.0
 40
0.0
 40
0.0312499999999998
 40
0.0312499999999998
 40
0.0624999999999997
 40
0.0624999999999997
 40
0.1249999999999994
 40
0.1249999999999994
 40
0.1874999999999994
 40
0.1874999999999994
 40
0.2187499999999994
 40
0.2187499999999994
 40
0.2499999999999994
 40
0.2499999999999994
 40
0.2812499999999994
 40
0.2812499999999994
 40
0.3124999999999994
 40
0.3124999999999994
 40
0.3437499999999994
 40
0.3437499999999994
 40
0.3749999999999994
 40
0.3749999999999994
 40
0.4374999999999994
 40
0.4374999999999994
 40
0.4687499999999994
 40
0.4687499999999994
 40
0.4999999999999993
 40
0.4999999999999993
 40
0.5312499999999992
 40
0.5312499999999992
 40
0.5624999999999992
 40
0.5624999999999992
 40
0.5937499999999991
 40
0.5937499999999991
 40
0.6249999999999991
 40
0.6249999999999991
 40
0.6874999999999991
 40
0.6874999999999991
 40
0.7499999999999991
 40
0.7499999999999991
 40
0.8124999999999991
 40
0.8124999999999991
 40
0.8437499999999992
 40
0.8437499999999992
 40
0.8749999999999994
 40
0.8749999999999994
 40
0.9062499999999996
 40
0.9062499999999996
 40
0.9374999999999998
 40
0.9374999999999998
 40
0.9687499999999999
 40
0.9687499999999999
 40
1.0
 40
1.0
 40
1.0
 40
1.0
 10
74.01853020461368
 20
130.060249265913
 30
0.0
 10
73.89188908815606
 20
130.0426615644132
 30
0.0
 10
73.75591548305736
 20
130.0249601239395
 30
0.0
 10
73.46533822707126
 20
129.9904888902921
 30
0.0
 10
73.30934777973681
 20
129.9735893097347
 30
0.0
 10
72.82273583249943
 20
129.927145333583
 30
0.0
 10
72.47629754223182
 20
129.9019633798959
 30
0.0
 10
71.73881240683177
 20
129.870307779659
 30
0.0
 10
71.36652933341836
 20
129.8646891661874
 30
0.0
 10
70.80285103271927
 20
129.8725153582047
 30
0.0
 10
70.6152534668033
 20
129.8778629924421
 30
0.0
 10
70.25081211877381
 20
129.8932558292888
 30
0.0
 10
70.07245882496848
 20
129.9033166135947
 30
0.0
 10
69.72351375164403
 20
129.9275133597991
 30
0.0
 10
69.5522530824532
 20
129.9417473432882
 30
0.0
 10
69.22858484313635
 20
129.9724686402626
 30
0.0
 10
69.07476710787596
 20
129.9890352579725
 30
0.0
 10
68.78298708836263
 20
130.0234681682347
 30
0.0
 10
68.64399048758602
 20
130.0414883876918
 30
0.0
 10
68.38911644105552
 20
130.0767837048308
 30
0.0
 10
68.2729954829749
 20
130.0940574513902
 30
0.0
 10
67.95788784097236
 20
130.1431047530273
 30
0.0
 10
67.79149728146744
 20
130.1721753014112
 30
0.0
 10
67.62612567265091
 20
130.2018412990827
 30
0.0
 10
67.5842033113834
 20
130.2095704656
 30
0.0
 10
67.5276632894606
 20
130.2200559862
 30
0.0
 10
67.51353678116757
 20
130.2227191816924
 30
0.0
 10
67.51351963274777
 20
130.2227223970211
 30
0.0
 10
67.52740678194236
 20
130.220104327143
 30
0.0
 10
67.58332969153632
 20
130.2097317256674
 30
0.0
 10
67.62581612948563
 20
130.2018971541113
 30
0.0
 10
67.7364399222334
 20
130.1820517106192
 30
0.0
 10
67.80469456591274
 20
130.1700172375745
 30
0.0
 10
67.96697330516771
 20
130.1425194745446
 30
0.0
 10
68.0619644901023
 20
130.1269068052942
 30
0.0
 10
68.37888314944823
 20
130.0775720855389
 30
0.0
 10
68.63368497673552
 20
130.041103293892
 30
0.0
 10
69.22188905208881
 20
129.9716574727267
 30
0.0
 10
69.54414118868502
 20
129.9400036746165
 30
0.0
 10
70.24597308436661
 20
129.8912329621605
 30
0.0
 10
70.61213076674392
 20
129.875238590616
 30
0.0
 10
71.17416170649159
 20
129.8673229924991
 30
0.0
 10
71.36465344052522
 20
129.8673862508296
 30
0.0
 10
71.73803115097338
 20
129.8728558481078
 30
0.0
 10
71.92256157763042
 20
129.878219343516
 30
0.0
 10
72.28732183601714
 20
129.8938278203985
 30
0.0
 10
72.46896785212628
 20
129.904193059723
 30
0.0
 10
72.817583297553
 20
129.9286171967381
 30
0.0
 10
72.98524852344305
 20
129.9426620007919
 30
0.0
 10
73.30758968048691
 20
129.97341565927
 30
0.0
 10
73.46326321946776
 20
129.9902491867489
 30
0.0
 10
73.75622719755276
 20
130.0249906864296
 30
0.0
 10
73.892376391511
 20
130.0427292402691
 30
0.0
 10
74.01853020461354
 20
130.060249265913
 30
0.0
  0
SPLINE
  5
103
330
1F
100
AcDbEntity
  8
0
  6
HIDDEN
 62
     7
370
     0
100
AcDbSpline
210
0.0
220
0.0
230
1.0
 70
    11
 71
     3
 72
    58
 73
    54
 74
     0
 42
0.00000001
 43
0.00000001
 40
0.0
 40
0.0
 40
0.0
 40
0.0
 40
0.0312499999999999
 40
0.0312499999999999
 40
0.0624999999999997
 40
0.0624999999999997
 40
0.1249999999999996
 40
0.1249999999999996
 40
0.1874999999999996
 40
0.1874999999999996
 40
0.2187499999999997
 40
0.2187499999999997
 40
0.2499999999999998
 40
0.2499999999999998
 40
0.2812499999999998
 40
0.2812499999999998
 40
0.3124999999999998
 40
0.3124999999999998
 40
0.3437499999999999
 40
0.3437499999999999
 40
0.3749999999999999
 40
0.3749999999999999
 40
0.4375000000000001
 40
0.4375000000000001
 40
0.4687500000000001
 40
0.4687500000000001
 40
0.5000000000000002
 40
0.5000000000000002
 40
0.5312500000000003
 40
0.5312500000000003
 40
0.5625000000000004
 40
0.5625000000000004
 40
0.5937500000000004
 40
0.5937500000000004
 40
0.6250000000000006
 40
0.6250000000000006
 40
0.6875000000000007
 40
0.6875000000000007
 40
0.7500000000000007
 40
0.7500000000000007
 40
0.8125000000000008
 40
0.8125000000000008
 40
0.8437500000000007
 40
0.8437500000000007
 40
0.8750000000000006
 40
0.8750000000000006
 40
0.9062500000000004
 40
0.9062500000000004
 40
0.9375000000000002
 40
0.9375000000000002
 40
0.9687500000000001
 40
0.9687500000000001
 40
1.0
 40
1.0
 40
1.0
 40
1.0
 10
74.01853020461368
 20
90.38519231428005
 30
0.0
 10
73.89188908815606
 20
90.40278001577981
 30
0.0
 10
73.75591548305736
 20
90.42048145625361
 30
0.0
 10
73.46533822707126
 20
90.45495268990092
 30
0.0
 10
73.30934777973681
 20
90.4718522704583
 30
0.0
 10
72.82273583249943
 20
90.51829624661002
 30
0.0
 10
72.47629754223182
 20
90.54347820029712
 30
0.0
 10
71.73881240683177
 20
90.57513380053409
 30
0.0
 10
71.36652933341836
 20
90.58075241400562
 30
0.0
 10
70.80285103271929
 20
90.5729262219884
 30
0.0
 10
70.61525346680331
 20
90.56757858775099
 30
0.0
 10
70.25081211877381
 20
90.55218575090419
 30
0.0
 10
70.07245882496848
 20
90.54212496659831
 30
0.0
 10
69.72351375164403
 20
90.51792822039398
 30
0.0
 10
69.5522530824532
 20
90.5036942369048
 30
0.0
 10
69.22858484313635
 20
90.47297293993049
 30
0.0
 10
69.07476710787596
 20
90.45640632222059
 30
0.0
 10
68.78298708836263
 20
90.42197341195833
 30
0.0
 10
68.64399048758602
 20
90.40395319250123
 30
0.0
 10
68.38911644105552
 20
90.36865787536223
 30
0.0
 10
68.2729954829749
 20
90.35138412880286
 30
0.0
 10
67.95788784097236
 20
90.30233682716575
 30
0.0
 10
67.79149728146743
 20
90.27326627878186
 30
0.0
 10
67.62612567265091
 20
90.24360028111039
 30
0.0
 10
67.5842033113834
 20
90.23587111459305
 30
0.0
 10
67.5276632894606
 20
90.22538559399302
 30
0.0
 10
67.51353678116757
 20
90.22272239850071
 30
0.0
 10
67.51351963274779
 20
90.222719183172
 30
0.0
 10
67.52740678194237
 20
90.22533725305009
 30
0.0
 10
67.58332969153632
 20
90.23570985452568
 30
0.0
 10
67.62581612948563
 20
90.24354442608177
 30
0.0
 10
67.7364399222334
 20
90.26338986957386
 30
0.0
 10
67.80469456591274
 20
90.27542434261852
 30
0.0
 10
67.96697330516773
 20
90.30292210564843
 30
0.0
 10
68.0619644901023
 20
90.31853477489886
 30
0.0
 10
68.37888314944824
 20
90.36786949465414
 30
0.0
 10
68.63368497673554
 20
90.40433828630107
 30
0.0
 10
69.22188905208881
 20
90.47378410746634
 30
0.0
 10
69.54414118868502
 20
90.50543790557653
 30
0.0
 10
70.24597308436661
 20
90.5542086180325
 30
0.0
 10
70.61213076674393
 20
90.57020298957701
 30
0.0
 10
71.17416170649159
 20
90.57811858769394
 30
0.0
 10
71.36465344052522
 20
90.5780553293634
 30
0.0
 10
71.73803115097338
 20
90.57258573208526
 30
0.0
 10
71.92256157763042
 20
90.56722223667707
 30
0.0
 10
72.28732183601714
 20
90.55161375979456
 30
0.0
 10
72.46896785212628
 20
90.54124852047003
 30
0.0
 10
72.81758329755301
 20
90.51682438345497
 30
0.0
 10
72.98524852344305
 20
90.50277957940116
 30
0.0
 10
73.30758968048691
 20
90.4720259209231
 30
0.0
 10
73.46326321946776
 20
90.45519239344414
 30
0.0
 10
73.75622719755275
 20
90.42045089376342
 30
0.0
 10
73.892376391511
 20
90.40271233992394
 30
0.0
 10
74.01853020461354
 20
90.38519231428006
 30
0.0
  0
LINE
  5
104
330
1F
100
AcDbEntity
  8
0
  6
HIDDEN
 62
     7
370
     0
100
AcDbLine
 10
100.1473806551
 20
130.0727215292
 30
0.0
 11
106.2135278931
 21
130.0727215292
 31
0.0
  0
LINE
  5
105
330
1F
100
AcDbEntity
  8
0
  6
HIDDEN
 62
     7
370
     0
100
AcDbLine
 10
92.4591488888
 20
130.0727215292
 30
0.0
 11
96.3796760639
 21
130.0727215292
 31
0.0
  0
LINE
  5
106
330
1F
100
AcDbEntity
  8
0
  6
HIDDEN
 62
     7
370
     0
100
AcDbLine
 10
61.2675036987
 20
127.222721714
 30
0.0
 11
61.2675036987
 21
93.2227198662
 31
0.0
  0
LWPOLYLINE
  5
107
330
1F
100
AcDbEntity
  8
0
  6
HIDDEN
 62
     7
370
     0
100
AcDbPolyline
 90
        2
 70
   128
 43
0.0
 10
61.2675036987
 20
93.2227198662
 10
61.2675036987
 20
93.2227198662
  0
LWPOLYLINE
  5
108
330
1F
100
AcDbEntity
  8
0
  6
HIDDEN
 62
     7
370
     0
100
AcDbPolyline
 90
       12
 70
   128
 43
0.0
 10
88.263528583
 20
132.1683239819
 10
89.185991486
 20
132.2222326579
 10
90.0587245574
 20
132.3810585471
 10
90.8346783122
 20
132.636233482
 10
91.4720205342
 20
132.9740055533
 10
91.9363928711
 20
133.3761636795
 10
92.2027595093
 20
133.8210266711
 10
92.2567603862
 20
134.2846129717
 10
92.0954860499
 20
134.7419296088
 10
91.7276294654
 20
135.168322611
 10
91.1730231469
 20
135.5408069374
 10
90.6286772093
 20
135.7812446238
  0
LWPOLYLINE
  5
109
330
1F
100
AcDbEntity
  8
0
  6
HIDDEN
 62
     7
370
     0
100
AcDbPolyline
 90
       12
 70
   128
 43
0.0
 10
85.8912669806
 20
135.7786313327
 10
85.3540335534
 20
135.5408069374
 10
84.7994267693
 20
135.168322611
 10
84.4315701848
 20
134.7419296088
 10
84.2702953828
 20
134.2846129717
 10
84.324297191
 20
133.8210266711
 10
84.5906638292
 20
133.3761636795
 10
85.0550352348
 20
132.9740055533
 10
85.6923779225
 20
132.636233482
 10
86.4683316773
 20
132.3810585471
 10
87.3410647487
 20
132.2222326579
 10
88.263528583
 20
132.1683239819
  0
LINE
  5
10A
330
1F
100
AcDbEntity
  8
0
  6
HIDDEN
 62
     7
370
     0
100
AcDbLine
 10
48.3635283759
 20
108.2229693582
 30
0.0
 11
48.3635283759
 21
112.2224596491
 31
0.0
  0
SPLINE
  5
10B
330
1F
100
AcDbEntity
  8
0
  6
HIDDEN
 62
     7
370
     0
100
AcDbSpline
210
0.0
220
0.0
230
1.0
 70
     8
 71
     3
 72
     8
 73
     4
 74
     0
 42
0.00000001
 43
0.00000001
 40
0.0
 40
0.0
 40
0.0
 40
0.0
 40
0.0011559732291308
 40
0.0011559732291308
 40
0.0011559732291308
 40
0.0011559732291308
 10
48.36352820301196
 20
112.2225614087292
 30
0.0
 10
48.69686277807928
 20
112.2185941289299
 30
0.0
 10
49.03019396910602
 20
112.2144142463533
 30
0.0
 10
49.36352820301196
 20
112.2098490929455
 30
0.0
  0
SPLINE
  5
10C
330
1F
100
AcDbEntity
  8
0
  6
HIDDEN
 62
     7
370
     0
100
AcDbSpline
210
0.0
220
0.0
230
1.0
 70
    24
 71
     3
 72
    12
 73
     8
 74
     0
 42
0.00000001
 43
0.00000001
 40
0.5334361297238829
 40
0.5334361297238829
 40
0.5334361297238829
 40
0.5334361297238829
 40
0.7534361297238831
 40
0.8720147928386963
 40
0.8720147928386963
 40
0.973436129723871
 40
1.0
 40
1.0
 40
1.0
 40
1.0
 10
48.36352820301196
 20
113.9865001204421
 30
0.0
 10
48.36352820301196
 20
113.7223542589251
 30
0.0
 10
48.36352820301195
 20
113.3027960653991
 30
0.0
 10
48.36352820301196
 20
112.8680556071271
 30
0.0
 10
48.36352820301196
 20
112.5827479047975
 30
0.0
 10
48.36352820301196
 20
112.4181882057232
 30
0.0
 10
48.36352820301196
 20
112.2560153113691
 30
0.0
 10
48.36352820301196
 20
112.2224613746646
 30
0.0
  0
SPLINE
  5
10D
330
1F
100
AcDbEntity
  8
0
  6
HIDDEN
 62
     7
370
     0
100
AcDbSpline
210
0.0
220
0.0
230
1.0
 70
     8
 71
     3
 72
    11
 73
     7
 74
     0
 42
0.00000001
 43
0.00000001
 40
0.0
 40
0.0
 40
0.0
 40
0.0
 40
0.0005782382535738
 40
0.0005782382535738
 40
0.0005782382535738
 40
0.0011564766069467
 40
0.0011564766069467
 40
0.0011564766069467
 40
0.0011564766069467
 10
49.36352820301195
 20
108.2260204878783
 30
0.0
 10
49.19687424904333
 20
108.2255829101166
 30
0.0
 10
49.03021357684137
 20
108.2251028454443
 30
0.0
 10
48.86354668817597
 20
108.2245833060749
 30
0.0
 10
48.6968797697799
 20
108.2240637666129
 30
0.0
 10
48.53020663994667
 20
108.223504937591
 30
0.0
 10
48.36352820301195
 20
108.2229193940079
 30
0.0
  0
SPLINE
  5
10E
330
1F
100
AcDbEntity
  8
0
  6
HIDDEN
 62
     7
370
     0
100
AcDbSpline
210
0.0
220
0.0
230
1.0
 70
    24
 71
     3
 72
    11
 73
     7
 74
     0
 42
0.00000001
 43
0.00000001
 40
0.0
 40
0.0
 40
0.0
 40
0.0
 40
0.1279896617686776
 40
0.1279896617686776
 40
0.1865683249110809
 40
0.466568324911081
 40
0.466568324911081
 40
0.466568324911081
 40
0.466568324911081
 10
48.36352820301195
 20
108.2229684453007
 30
0.0
 10
48.36352820301195
 20
108.0612309197515
 30
0.0
 10
48.36352820301195
 20
107.8971488923266
 30
0.0
 10
48.36352820301196
 20
107.6551971645797
 30
0.0
 10
48.36352820301196
 20
107.2182122625166
 30
0.0
 10
48.36352820301195
 20
106.7955019625431
 30
0.0
 10
48.36352820301195
 20
106.4589414597331
 30
0.0
  0
LINE
  5
10F
330
1F
100
AcDbEntity
  8
0
  6
HIDDEN
 62
     7
370
     0
100
AcDbLine
 10
48.3635283759
 20
113.9865000894
 30
0.0
 11
48.3635283759
 21
126.3480365904
 31
0.0
  0
SPLINE
  5
110
330
1F
100
AcDbEntity
  8
0
  6
HIDDEN
 62
     7
370
     0
100
AcDbSpline
210
0.0
220
0.0
230
1.0
 70
    24
 71
     3
 72
    13
 73
     9
 74
     0
 42
0.00000001
 43
0.00000001
 40
0.4289648948077152
 40
0.4289648948077152
 40
0.4289648948077152
 40
0.4289648948077152
 40
0.4480000000000362
 40
0.56
 40
0.67
 40
0.7800000000003353
 40
0.89
 40
1.0
 40
1.0
 40
1.0
 40
1.0
 10
48.36352820301196
 20
94.1523657951597
 30
0.0
 10
48.36352820301196
 20
94.21357032846234
 30
0.0
 10
48.36352820301196
 20
94.64985181822789
 30
0.0
 10
48.36352820301196
 20
95.64855762164754
 30
0.0
 10
48.36352820301195
 20
97.56101213141689
 30
0.0
 10
48.36352820301195
 20
100.0257213004519
 30
0.0
 10
48.36352820301195
 20
103.0144065040603
 30
0.0
 10
48.36352820301196
 20
105.2840755352225
 30
0.0
 10
48.36352820301196
 20
106.4589414597481
 30
0.0
  0
LINE
  5
111
330
1F
100
AcDbEntity
  8
0
  6
HIDDEN
 62
     7
370
     0
100
AcDbLine
 10
87.923354165
 20
127.222721714
 30
0.0
 11
87.923354165
 21
93.2227198662
 31
0.0
  0
LWPOLYLINE
  5
112
330
1F
100
AcDbEntity
  8
0
  6
HIDDEN
 62
     7
370
     0
100
AcDbPolyline
 90
        2
 70
   128
 43
0.0
 10
87.923354165
 20
93.2227198662
 10
87.923354165
 20
93.2227198662
  0
LINE
  5
113
330
1F
100
AcDbEntity
  8
0
  6
HIDDEN
 62
     7
370
     0
100
AcDbLine
 10
90.2135280644
 20
125.9477206202
 30
0.0
 11
90.2135280644
 21
94.49772096
 31
0.0
  0
SPLINE
  5
114
330
1F
100
AcDbEntity
  8
0
  6
HIDDEN
 62
     7
370
     0
100
AcDbSpline
210
0.0
220
0.0
230
1.0
 70
     8
 71
     3
 72
    18
 73
    14
 74
     0
 42
0.00000001
 43
0.00000001
 40
0.0
 40
0.0
 40
0.0
 40
0.0
 40
0.1249999999999997
 40
0.1249999999999997
 40
0.2499999999999993
 40
0.2499999999999993
 40
0.4999999999999987
 40
0.4999999999999987
 40
0.749999999999998
 40
0.749999999999998
 40
0.874999999999999
 40
0.874999999999999
 40
1.0
 40
1.0
 40
1.0
 40
1.0
 10
57.06352820301196
 20
94.42123035406487
 30
0.0
 10
57.15873106180668
 20
94.42123035406487
 30
0.0
 10
57.25213920793186
 20
94.41740806064958
 30
0.0
 10
57.43555136425547
 20
94.40261263060138
 30
0.0
 10
57.52650064920026
 20
94.39143572455072
 30
0.0
 10
57.7834725311229
 20
94.3488976876393
 30
0.0
 10
57.93861955586929
 20
94.30778875222093
 30
0.0
 10
58.19240169264953
 20
94.21251516858814
 30
0.0
 10
58.2932268078111
 20
94.15769006572106
 30
0.0
 10
58.39450708237209
 20
94.07415813029831
 30
0.0
 10
58.42055056391064
 20
94.0455740920707
 30
0.0
 10
58.45488769945373
 20
93.989667412931
 30
0.0
 10
58.46352820301195
 20
93.96218412158133
 30
0.0
 10
58.46352820301195
 20
93.93520716769241
 30
0.0
  0
LINE
  5
115
330
1F
100
AcDbEntity
  8
0
  6
HIDDEN
 62
     7
370
     0
100
AcDbLine
 10
58.4635279825
 20
93.9352077128
 30
0.0
 11
58.4635279825
 21
93.2227198662
 31
0.0
  0
SPLINE
  5
116
330
1F
100
AcDbEntity
  8
0
  6
HIDDEN
 62
     7
370
     0
100
AcDbSpline
210
0.0
220
0.0
230
1.0
 70
     8
 71
     3
 72
    14
 73
    10
 74
     0
 42
0.00000001
 43
0.00000001
 40
0.0
 40
0.0
 40
0.0
 40
0.0
 40
0.25
 40
0.25
 40
0.5
 40
0.5
 40
0.75
 40
0.75
 40
1.0
 40
1.0
 40
1.0
 40
1.0
 10
57.06352820301196
 20
94.42123035406487
 30
0.0
 10
57.25163094378279
 20
94.42123035406487
 30
0.0
 10
57.44047401237551
 20
94.40562752571938
 30
0.0
 10
57.78218528111621
 20
94.34915922200165
 30
0.0
 10
57.93738694718886
 20
94.30819910973634
 30
0.0
 10
58.1924515474975
 20
94.21254859202357
 30
0.0
 10
58.2923583121752
 20
94.1583676441513
 30
0.0
 10
58.42885732000169
 20
94.04586606608648
 30
0.0
 10
58.46352820301195
 20
93.98940805479832
 30
0.0
 10
58.46352820301195
 20
93.9352071676924
 30
0.0
  0
LINE
  5
117
330
1F
100
AcDbEntity
  8
0
  6
HIDDEN
 62
     7
370
     0
100
AcDbLine
 10
49.6486957868
 20
94.4212295743
 30
0.0
 11
57.0635284981
 21
94.4212295743
 31
0.0
  0
SPLINE
  5
118
330
1F
100
AcDbEntity
  8
0
  6
HIDDEN
 62
     7
370
     0
100
AcDbSpline
210
0.0
220
0.0
230
1.0
 70
     8
 71
     3
 72
     8
 73
     4
 74
     0
 42
0.00000001
 43
0.00000001
 40
0.0
 40
0.0
 40
0.0
 40
0.0
 40
1.0
 40
1.0
 40
1.0
 40
1.0
 10
49.66352820301301
 20
96.56603330014711
 30
0.0
 10
49.66352820301492
 20
95.68213615783017
 30
0.0
 10
49.65004757710541
 20
94.96755291276823
 30
0.0
 10
49.64869620891432
 20
94.42123035406489
 30
0.0
  0
SPLINE
  5
119
330
1F
100
AcDbEntity
  8
0
  6
HIDDEN
 62
     7
370
     0
100
AcDbSpline
210
0.0
220
0.0
230
1.0
 70
     8
 71
     3
 72
    10
 73
     6
 74
     0
 42
0.00000001
 43
0.00000001
 40
0.0
 40
0.0
 40
0.0
 40
0.0
 40
0.5
 40
0.5
 40
1.0
 40
1.0
 40
1.0
 40
1.0
 10
49.36352820301196
 20
97.59094355944244
 30
0.0
 10
49.45491931765111
 20
97.416304772896
 30
0.0
 10
49.52757115069144
 20
97.24270294674955
 30
0.0
 10
49.63507004251172
 20
96.89908952990832
 30
0.0
 10
49.66352820300744
 20
96.73076370442377
 30
0.0
 10
49.66352820301305
 20
96.5660333002066
 30
0.0
  0
LINE
  5
11A
330
1F
100
AcDbEntity
  8
0
  6
HIDDEN
 62
     7
370
     0
100
AcDbLine
 10
49.3635285398
 20
100.621894251
 30
0.0
 11
49.3635285398
 21
97.5909431161
 31
0.0
  0
SPLINE
  5
11B
330
1F
100
AcDbEntity
  8
0
  6
HIDDEN
 62
     7
370
     0
100
AcDbSpline
210
0.0
220
0.0
230
1.0
 70
     8
 71
     3
 72
    10
 73
     6
 74
     0
 42
0.00000001
 43
0.00000001
 40
0.0
 40
0.0
 40
0.0
 40
0.0
 40
0.5
 40
0.5
 40
1.0
 40
1.0
 40
1.0
 40
1.0
 10
49.6635282029754
 20
101.9897344144537
 30
0.0
 10
49.6635282029754
 20
101.7477504482817
 30
0.0
 10
49.63537817422922
 20
101.5134080206625
 30
0.0
 10
49.53178826125852
 20
101.0580330009277
 30
0.0
 10
49.45515955249684
 20
100.8364284390456
 30
0.0
 10
49.36352820301196
 20
100.6218940053362
 30
0.0
  0
LINE
  5
11C
330
1F
100
AcDbEntity
  8
0
  6
HIDDEN
 62
     7
370
     0
100
AcDbLine
 10
49.6635280302
 20
118.4557073446
 30
0.0
 11
49.6635280302
 21
101.9897342356
 31
0.0
  0
SPLINE
  5
11D
330
1F
100
AcDbEntity
  8
0
  6
HIDDEN
 62
     7
370
     0
100
AcDbSpline
210
0.0
220
0.0
230
1.0
 70
     8
 71
     3
 72
     8
 73
     4
 74
     0
 42
0.00000001
 43
0.00000001
 40
0.0
 40
0.0
 40
0.0
 40
0.0
 40
1.0
 40
1.0
 40
1.0
 40
1.0
 10
49.36352820301196
 20
119.8296601033757
 30
0.0
 10
49.54455966767893
 20
119.3975526199643
 30
0.0
 10
49.66352820298114
 20
118.9434072163879
 30
0.0
 10
49.66352820297543
 20
118.4557071657085
 30
0.0
  0
LINE
  5
11E
330
1F
100
AcDbEntity
  8
0
  6
HIDDEN
 62
     7
370
     0
100
AcDbLine
 10
49.3635285398
 20
122.8628626721
 30
0.0
 11
49.3635285398
 21
119.8296605306
 31
0.0
  0
SPLINE
  5
11F
330
1F
100
AcDbEntity
  8
0
  6
HIDDEN
 62
     7
370
     0
100
AcDbSpline
210
0.0
220
0.0
230
1.0
 70
     8
 71
     3
 72
    10
 73
     6
 74
     0
 42
0.00000001
 43
0.00000001
 40
0.0
 40
0.0
 40
0.0
 40
0.0
 40
0.5
 40
0.5
 40
1.0
 40
1.0
 40
1.0
 40
1.0
 10
49.66352820311709
 20
123.8794082800163
 30
0.0
 10
49.6635282031153
 20
123.7147719344238
 30
0.0
 10
49.63636953269066
 20
123.547616711638
 30
0.0
 10
49.53060453863192
 20
123.2089937059771
 30
0.0
 10
49.45418975110977
 20
123.0367219298172
 30
0.0
 10
49.36352820301196
 20
122.8628631035674
 30
0.0
  0
LINE
  5
120
330
1F
100
AcDbEntity
  8
0
  6
HIDDEN
 62
     7
370
     0
100
AcDbLine
 10
49.6635280302
 20
126.0242120059
 30
0.0
 11
49.6635280302
 21
123.8794087129
 31
0.0
  0
LINE
  5
121
330
1F
100
AcDbEntity
  8
0
  6
HIDDEN
 62
     7
370
     0
100
AcDbLine
 10
53.0635278424
 20
126.0242120059
 30
0.0
 11
49.6635280302
 21
126.0242120059
 31
0.0
  0
SPLINE
  5
122
330
1F
100
AcDbEntity
  8
0
  6
HIDDEN
 62
     7
370
     0
100
AcDbSpline
210
0.0
220
0.0
230
1.0
 70
     8
 71
     3
 72
    20
 73
    16
 74
     0
 42
0.00000001
 43
0.00000001
 40
0.0
 40
0.0
 40
0.0
 40
0.0
 40
0.1249999999999994
 40
0.1249999999999994
 40
0.2499999999999989
 40
0.2499999999999989
 40
0.3749999999999983
 40
0.3749999999999983
 40
0.4999999999999978
 40
0.4999999999999978
 40
0.6249999999999972
 40
0.6249999999999972
 40
0.7499999999999967
 40
0.7499999999999967
 40
1.0
 40
1.0
 40
1.0
 40
1.0
 10
54.46352820301195
 20
126.5102344125006
 30
0.0
 10
54.46352820301195
 20
126.4831146552317
 30
0.0
 10
54.45479747963605
 20
126.4555811917093
 30
0.0
 10
54.42046467928375
 20
126.3997739729576
 30
0.0
 10
54.39444474171777
 20
126.3712102949155
 30
0.0
 10
54.32673312206232
 20
126.3154080282211
 30
0.0
 10
54.28519230374825
 20
126.2880938222803
 30
0.0
 10
54.18654957295502
 20
126.2349986069326
 30
0.0
 10
54.1288789849049
 20
126.2090768573543
 30
0.0
 10
54.00204280064906
 20
126.161465044064
 30
0.0
 10
53.93248916996046
 20
126.1394942768828
 30
0.0
 10
53.78041654590485
 20
126.0998932526473
 30
0.0
 10
53.69808435724671
 20
126.0824309680478
 30
0.0
 10
53.44253860986701
 20
126.0400636764897
 30
0.0
 10
53.25392694781533
 20
126.0242112261282
 30
0.0
 10
53.06352820301196
 20
126.0242112261282
 30
0.0
  0
LINE
  5
123
330
1F
100
AcDbEntity
  8
0
  6
HIDDEN
 62
     7
370
     0
100
AcDbLine
 10
54.4635273268
 20
126.5102338674
 30
0.0
 11
54.4635273268
 21
127.222721714
 31
0.0
  0
SPLINE
  5
124
330
1F
100
AcDbEntity
  8
0
  6
HIDDEN
 62
     7
370
     0
100
AcDbSpline
210
0.0
220
0.0
230
1.0
 70
     8
 71
     3
 72
    18
 73
    14
 74
     0
 42
0.00000001
 43
0.00000001
 40
0.0
 40
0.0
 40
0.0
 40
0.0
 40
0.1249999999999993
 40
0.1249999999999993
 40
0.2499999999999987
 40
0.2499999999999987
 40
0.4999999999999989
 40
0.4999999999999989
 40
0.7499999999999991
 40
0.7499999999999991
 40
0.8749999999999996
 40
0.8749999999999996
 40
1.0
 40
1.0
 40
1.0
 40
1.0
 10
54.46352820301195
 20
126.5102344125006
 30
0.0
 10
54.46352820301195
 20
126.4832630304047
 30
0.0
 10
54.45463067155102
 20
126.4551699745262
 30
0.0
 10
54.42009106893572
 20
126.3993089663981
 30
0.0
 10
54.39454811393904
 20
126.3712946462109
 30
0.0
 10
54.29265233645359
 20
126.2873231677606
 30
0.0
 10
54.19345147142771
 20
126.2332903471645
 30
0.0
 10
53.93689037020263
 20
126.1370339129805
 30
0.0
 10
53.78420099260831
 20
126.0966387261035
 30
0.0
 10
53.52548306991271
 20
126.0538503351571
 30
0.0
 10
53.43653279813798
 20
126.0429361357818
 30
0.0
 10
53.2532059843908
 20
126.0280918689485
 30
0.0
 10
53.15766991698811
 20
126.0242112261282
 30
0.0
 10
53.06352820301196
 20
126.0242112261282
 30
0.0
  0
LINE
  5
125
330
1F
100
AcDbEntity
  8
0
  6
HIDDEN
 62
     7
370
     0
100
AcDbLine
 10
53.0635278424
 20
126.0242120059
 30
0.0
 11
49.6635280302
 21
126.0242120059
 31
0.0
  0
LINE
  5
126
330
1F
100
AcDbEntity
  8
0
  6
HIDDEN
 62
     7
370
     0
100
AcDbLine
 10
49.5945598682
 20
94.4212295743
 30
0.0
 11
57.0635284981
 21
94.4212295743
 31
0.0
  0
SPLINE
  5
127
330
1F
100
AcDbEntity
  8
0
  6
HIDDEN
 62
     7
370
     0
100
AcDbSpline
210
0.0
220
0.0
230
1.0
 70
     8
 71
     3
 72
    22
 73
    18
 74
     0
 42
0.00000001
 43
0.00000001
 40
0.0
 40
0.0
 40
0.0
 40
0.0
 40
0.125
 40
0.125
 40
0.2499999999999999
 40
0.2499999999999999
 40
0.5000000000000003
 40
0.5000000000000003
 40
0.5625000000000004
 40
0.5625000000000004
 40
0.6250000000000006
 40
0.6250000000000006
 40
0.7500000000000004
 40
0.7500000000000004
 40
0.8750000000000002
 40
0.8750000000000002
 40
1.0
 40
1.0
 40
1.0
 40
1.0
 10
49.59455921636985
 20
94.42123035406487
 30
0.0
 10
49.58147682364145
 20
94.67633606421253
 30
0.0
 10
49.56825726020164
 20
94.96949432331644
 30
0.0
 10
49.54581008240753
 20
95.63179478894125
 30
0.0
 10
49.53633161538308
 20
96.00206870955263
 30
0.0
 10
49.51713365444657
 20
97.22462551266642
 30
0.0
 10
49.51824742744344
 20
98.16176443879829
 30
0.0
 10
49.53715822039649
 20
99.48163566831327
 30
0.0
 10
49.54178774825549
 20
99.75313757728958
 30
0.0
 10
49.55226896800144
 20
100.3115224120919
 30
0.0
 10
49.55806422928585
 20
100.5986452680315
 30
0.0
 10
49.57637345019078
 20
101.4712345224032
 30
0.0
 10
49.59040838447118
 20
102.071690198759
 30
0.0
 10
49.61986555660801
 20
103.3091646912551
 30
0.0
 10
49.63542124758956
 20
103.9461808478986
 30
0.0
 10
49.65921579758646
 20
105.2576694455831
 30
0.0
 10
49.66723484973183
 20
105.9337920572436
 30
0.0
 10
49.66352820301195
 20
106.6180871685284
 30
0.0
  0
LINE
  5
128
330
1F
100
AcDbEntity
  8
0
  6
HIDDEN
 62
     7
370
     0
100
AcDbLine
 10
49.6635280302
 20
113.8273545237
 30
0.0
 11
49.6635280302
 21
126.0242120059
 31
0.0
  0
SPLINE
  5
129
330
1F
100
AcDbEntity
  8
0
  6
HIDDEN
 62
     7
370
     0
100
AcDbSpline
210
0.0
220
0.0
230
1.0
 70
     8
 71
     3
 72
    10
 73
     6
 74
     0
 42
0.00000001
 43
0.00000001
 40
0.0
 40
0.0
 40
0.0
 40
0.0
 40
0.5
 40
0.5
 40
1.0
 40
1.0
 40
1.0
 40
1.0
 10
49.66352820301194
 20
106.6180871685134
 30
0.0
 10
49.66352820301176
 20
106.8920023165874
 30
0.0
 10
49.63776897314295
 20
107.162943895317
 30
0.0
 10
49.53456304040954
 20
107.6986349769192
 30
0.0
 10
49.45722487653513
 20
107.9643817804409
 30
0.0
 10
49.36352820301196
 20
108.2260204878783
 30
0.0
  0
SPLINE
  5
12A
330
1F
100
AcDbEntity
  8
0
  6
HIDDEN
 62
     7
370
     0
100
AcDbSpline
210
0.0
220
0.0
230
1.0
 70
     8
 71
     3
 72
    10
 73
     6
 74
     0
 42
0.00000001
 43
0.00000001
 40
0.0
 40
0.0
 40
0.0
 40
0.0
 40
0.5
 40
0.5
 40
1.0
 40
1.0
 40
1.0
 40
1.0
 10
49.36352820301196
 20
112.2098490929456
 30
0.0
 10
49.45675878336307
 20
112.4737428995438
 30
0.0
 10
49.53178839489178
 20
112.7399232086422
 30
0.0
 10
49.63685549287129
 20
113.2782457804608
 30
0.0
 10
49.6635282031159
 20
113.5509938950765
 30
0.0
 10
49.66352820311707
 20
113.8273544116636
 30
0.0
  0
LINE
  5
12B
330
1F
100
AcDbEntity
  8
0
  6
HIDDEN
 62
     7
370
     0
100
AcDbLine
 10
49.3635285398
 20
108.2260206038
 30
0.0
 11
49.3635285398
 21
112.2098490758
 31
0.0
  0
LINE
  5
12C
330
1F
100
AcDbEntity
  8
0
  6
HIDDEN
 62
     7
370
     0
100
AcDbLine
 10
211.2135320654
 20
96.5977211179
 30
0.0
 11
211.2135320654
 21
123.8477204623
 31
0.0
  0
LINE
  5
12D
330
1F
100
AcDbEntity
  8
0
  6
HIDDEN
 62
     7
370
     0
100
AcDbLine
 10
211.2135320654
 20
122.7727208914
 30
0.0
 11
211.2135320654
 21
97.6727206888
 31
0.0
  0
LINE
  5
12E
330
1F
100
AcDbEntity
  8
0
  6
HIDDEN
 62
     7
370
     0
100
AcDbLine
 10
239.5635276785
 20
104.9477209033
 30
0.0
 11
239.5635276785
 21
97.7227206038
 31
0.0
  0
LINE
  5
12F
330
1F
100
AcDbEntity
  8
0
  6
HIDDEN
 62
     7
370
     0
100
AcDbLine
 10
239.5635276785
 20
104.9477209033
 30
0.0
 11
236.7135315886
 21
104.9477209033
 31
0.0
  0
SPLINE
  5
130
330
1F
100
AcDbEntity
  8
0
  6
HIDDEN
 62
     7
370
     0
100
AcDbSpline
210
0.0
220
0.0
230
1.0
 70
     8
 71
     3
 72
    10
 73
     6
 74
     0
 42
0.00000001
 43
0.00000001
 40
0.0
 40
0.0
 40
0.0
 40
0.0
 40
0.5
 40
0.5
 40
1.0
 40
1.0
 40
1.0
 40
1.0
 10
236.7135282030119
 20
104.9477207900965
 30
0.0
 10
236.5753033054929
 20
104.9477207900965
 30
0.0
 10
236.442801705444
 20
105.0077707838238
 30
0.0
 10
236.2629844872818
 20
105.1950170015994
 30
0.0
 10
236.213528203012
 20
105.3202581774326
 30
0.0
 10
236.2135282030119
 20
105.4477207900965
 30
0.0
  0
LINE
  5
131
330
1F
100
AcDbEntity
  8
0
  6
HIDDEN
 62
     7
370
     0
100
AcDbLine
 10
236.2135231247
 20
105.4477209853
 30
0.0
 11
236.2135231247
 21
114.9977205949
 31
0.0
  0
SPLINE
  5
132
330
1F
100
AcDbEntity
  8
0
  6
HIDDEN
 62
     7
370
     0
100
AcDbSpline
210
0.0
220
0.0
230
1.0
 70
     8
 71
     3
 72
    10
 73
     6
 74
     0
 42
0.00000001
 43
0.00000001
 40
0.0
 40
0.0
 40
0.0
 40
0.0
 40
0.5
 40
0.5
 40
1.0
 40
1.0
 40
1.0
 40
1.0
 10
236.2135282030119
 20
114.9977207900966
 30
0.0
 10
236.213528203012
 20
115.1253604467698
 30
0.0
 10
236.2621607399563
 20
115.2494572208308
 30
0.0
 10
236.4432240344714
 20
115.4382199089762
 30
0.0
 10
236.5750253795491
 20
115.4977207900966
 30
0.0
 10
236.7135282030119
 20
115.4977207900966
 30
0.0
  0
LINE
  5
133
330
1F
100
AcDbEntity
  8
0
  6
HIDDEN
 62
     7
370
     0
100
AcDbLine
 10
236.7135315886
 20
115.4977206768
 30
0.0
 11
239.5635276785
 21
115.4977206768
 31
0.0
  0
LINE
  5
134
330
1F
100
AcDbEntity
  8
0
  6
HIDDEN
 62
     7
370
     0
100
AcDbLine
 10
239.5635276785
 20
115.4977206768
 30
0.0
 11
239.5635276785
 21
122.7227209764
 31
0.0
  0
LINE
  5
135
330
1F
100
AcDbEntity
  8
0
  6
HIDDEN
 62
     7
370
     0
100
AcDbLine
 10
239.5635276785
 20
115.4977206768
 30
0.0
 11
236.7135315886
 21
115.4977206768
 31
0.0
  0
SPLINE
  5
136
330
1F
100
AcDbEntity
  8
0
  6
HIDDEN
 62
     7
370
     0
100
AcDbSpline
210
0.0
220
0.0
230
1.0
 70
     8
 71
     3
 72
    10
 73
     6
 74
     0
 42
0.00000001
 43
0.00000001
 40
0.0
 40
0.0
 40
0.0
 40
0.0
 40
0.5
 40
0.5
 40
1.0
 40
1.0
 40
1.0
 40
1.0
 10
236.7135282030119
 20
115.4977207900966
 30
0.0
 10
236.5753033054929
 20
115.4977207900966
 30
0.0
 10
236.442801705444
 20
115.4376707963693
 30
0.0
 10
236.2629844872818
 20
115.2504245785937
 30
0.0
 10
236.213528203012
 20
115.1251834027605
 30
0.0
 10
236.2135282030119
 20
114.9977207900965
 30
0.0
  0
SPLINE
  5
137
330
1F
100
AcDbEntity
  8
0
  6
HIDDEN
 62
     7
370
     0
100
AcDbSpline
210
0.0
220
0.0
230
1.0
 70
     8
 71
     3
 72
    10
 73
     6
 74
     0
 42
0.00000001
 43
0.00000001
 40
0.0
 40
0.0
 40
0.0
 40
0.0
 40
0.5
 40
0.5
 40
1.0
 40
1.0
 40
1.0
 40
1.0
 10
236.2135282030119
 20
105.4477207900965
 30
0.0
 10
236.213528203012
 20
105.3200811334233
 30
0.0
 10
236.2621607399563
 20
105.1959843593623
 30
0.0
 10
236.4432240344714
 20
105.0072216712169
 30
0.0
 10
236.5750253795491
 20
104.9477207900965
 30
0.0
 10
236.7135282030119
 20
104.9477207900965
 30
0.0
  0
LINE
  5
138
330
1F
100
AcDbEntity
  8
0
  6
HIDDEN
 62
     7
370
     0
100
AcDbLine
 10
236.7135315886
 20
104.9477209033
 30
0.0
 11
239.5635276785
 21
104.9477209033
 31
0.0
  0
LINE
  5
139
330
1F
100
AcDbEntity
  8
0
  6
HIDDEN
 62
     7
370
     0
100
AcDbLine
 10
236.2135231247
 20
114.9977205949
 30
0.0
 11
236.2135231247
 21
105.4477209853
 31
0.0
  0
LINE
  5
13A
330
1F
100
AcDbEntity
  8
0
  6
HIDDEN
 62
     7
370
     0
100
AcDbLine
 10
235.713529562
 20
97.7227206038
 30
0.0
 11
235.713529562
 21
122.7227209764
 31
0.0
  0
SPLINE
  5
13B
330
1F
100
AcDbEntity
  8
0
  6
HIDDEN
 62
     7
370
     0
100
AcDbSpline
210
0.0
220
0.0
230
1.0
 70
     8
 71
     3
 72
    58
 73
    54
 74
     0
 42
0.00000001
 43
0.00000001
 40
-0.0624999999999937
 40
-0.0624999999999937
 40
0.0
 40
0.0
 40
0.0312499999999984
 40
0.0312499999999984
 40
0.0624999999999968
 40
0.0624999999999968
 40
0.0937499999999951
 40
0.0937499999999951
 40
0.1249999999999935
 40
0.1249999999999935
 40
0.1874999999999901
 40
0.1874999999999901
 40
0.2499999999999867
 40
0.2499999999999867
 40
0.281249999999989
 40
0.281249999999989
 40
0.3124999999999913
 40
0.3124999999999913
 40
0.3437499999999936
 40
0.3437499999999936
 40
0.3749999999999959
 40
0.3749999999999959
 40
0.4062499999999983
 40
0.4062499999999983
 40
0.4375000000000006
 40
0.4375000000000006
 40
0.4687500000000029
 40
0.4687500000000029
 40
0.5000000000000052
 40
0.5000000000000052
 40
0.5625000000000101
 40
0.5625000000000101
 40
0.6250000000000149
 40
0.6250000000000149
 40
0.6562500000000147
 40
0.6562500000000147
 40
0.6875000000000143
 40
0.6875000000000143
 40
0.7187500000000141
 40
0.7187500000000141
 40
0.7500000000000138
 40
0.7500000000000138
 40
0.7812500000000134
 40
0.7812500000000134
 40
0.8125000000000132
 40
0.8125000000000132
 40
0.8437500000000129
 40
0.8437500000000129
 40
0.8750000000000125
 40
0.8750000000000125
 40
0.9375000000000063
 40
0.9375000000000063
 40
1.0
 40
1.0
 40
1.031249999999998
 40
1.031249999999998
 10
215.3135282030118
 20
116.6617470443755
 30
0.0
 10
215.313528203012
 20
116.3782076629569
 30
0.0
 10
215.3242488897766
 20
116.2845804071075
 30
0.0
 10
215.3662324732794
 20
116.0990978674176
 30
0.0
 10
215.3980135896335
 20
116.0062552883653
 30
0.0
 10
215.4808740973457
 20
115.8282005249901
 30
0.0
 10
215.531562318523
 20
115.7431693118426
 30
0.0
 10
215.6512963185338
 20
115.5813292298444
 30
0.0
 10
215.7209092494667
 20
115.5042888968196
 30
0.0
 10
215.948982818108
 20
115.2961265462973
 30
0.0
 10
216.1328748735128
 20
115.1825404578812
 30
0.0
 10
216.529843039099
 20
115.0298307532967
 30
0.0
 10
216.7471353273859
 20
114.9892020865709
 30
0.0
 10
217.0703421650006
 20
114.9890337175869
 30
0.0
 10
217.1797924133375
 20
114.9990542499143
 30
0.0
 10
217.391496583479
 20
115.0382995535707
 30
0.0
 10
217.4944061378529
 20
115.0673147696754
 30
0.0
 10
217.6943156505859
 20
115.1440293833652
 30
0.0
 10
217.7907722567781
 20
115.1917923943044
 30
0.0
 10
217.9694310312301
 20
115.3017458373082
 30
0.0
 10
218.0528446557943
 20
115.3644059933997
 30
0.0
 10
218.2067873582108
 20
115.5048373278601
 30
0.0
 10
218.2749757402072
 20
115.5804365645162
 30
0.0
 10
218.3944811611244
 20
115.7416351700931
 30
0.0
 10
218.4462152396841
 20
115.8282638534152
 30
0.0
 10
218.5290482055766
 20
116.0062743077071
 30
0.0
 10
218.5603130802459
 20
116.0973432724927
 30
0.0
 10
218.6026470776765
 20
116.2833771763755
 30
0.0
 10
218.6134873977789
 20
116.3788762218762
 30
0.0
 10
218.6136094604772
 20
116.6587909430916
 30
0.0
 10
218.5703673830257
 20
116.8440514627786
 30
0.0
 10
218.4060038972993
 20
117.1780560154318
 30
0.0
 10
218.2833160057723
 20
117.3302263318651
 30
0.0
 10
218.0553804910363
 20
117.5173043831681
 30
0.0
 10
217.9706106502045
 20
117.5740450968785
 30
0.0
 10
217.7915708981214
 20
117.6711796611108
 30
0.0
 10
217.6969126484156
 20
117.7121303089518
 30
0.0
 10
217.4971531865119
 20
117.7789643420386
 30
0.0
 10
217.3923973862775
 20
117.8044869833749
 30
0.0
 10
217.1814507994692
 20
117.8382490988965
 30
0.0
 10
217.0740950263395
 20
117.8468952557123
 30
0.0
 10
216.855899550399
 20
117.8470505646334
 30
0.0
 10
216.7486124776551
 20
117.8385686312383
 30
0.0
 10
216.5375092039281
 20
117.8051004495592
 30
0.0
 10
216.4325835478764
 20
117.7796919215506
 30
0.0
 10
216.2328050827205
 20
117.7131854344086
 30
0.0
 10
216.1380302589577
 20
117.6723740168256
 30
0.0
 10
215.9585973875648
 20
117.5753938583928
 30
0.0
 10
215.8737751162002
 20
117.5188028464976
 30
0.0
 10
215.6455879751868
 20
117.332182828778
 30
0.0
 10
215.5225063000107
 20
117.1801392648599
 30
0.0
 10
215.3574917337604
 20
116.8465418167116
 30
0.0
 10
215.3135282030118
 20
116.6617470443755
 30
0.0
 10
215.313528203012
 20
116.3782076629569
 30
0.0
  0
SPLINE
  5
13C
330
1F
100
AcDbEntity
  8
0
  6
HIDDEN
 62
     7
370
     0
100
AcDbSpline
210
0.0
220
0.0
230
1.0
 70
     8
 71
     3
 72
    58
 73
    54
 74
     0
 42
0.00000001
 43
0.00000001
 40
-0.0624999999999937
 40
-0.0624999999999937
 40
0.0
 40
0.0
 40
0.0312499999999983
 40
0.0312499999999983
 40
0.0624999999999966
 40
0.0624999999999966
 40
0.0937499999999949
 40
0.0937499999999949
 40
0.1249999999999932
 40
0.1249999999999932
 40
0.1874999999999898
 40
0.1874999999999898
 40
0.2499999999999865
 40
0.2499999999999865
 40
0.2812499999999888
 40
0.2812499999999888
 40
0.3124999999999911
 40
0.3124999999999911
 40
0.3437499999999935
 40
0.3437499999999935
 40
0.3749999999999958
 40
0.3749999999999958
 40
0.4062499999999982
 40
0.4062499999999982
 40
0.4375000000000005
 40
0.4375000000000005
 40
0.4687500000000029
 40
0.4687500000000029
 40
0.5000000000000052
 40
0.5000000000000052
 40
0.5625000000000103
 40
0.5625000000000103
 40
0.6250000000000154
 40
0.6250000000000154
 40
0.6562500000000151
 40
0.6562500000000151
 40
0.6875000000000148
 40
0.6875000000000148
 40
0.7187500000000143
 40
0.7187500000000143
 40
0.750000000000014
 40
0.750000000000014
 40
0.7812500000000137
 40
0.7812500000000137
 40
0.8125000000000132
 40
0.8125000000000132
 40
0.8437500000000129
 40
0.8437500000000129
 40
0.8750000000000124
 40
0.8750000000000124
 40
0.9375000000000063
 40
0.9375000000000063
 40
1.0
 40
1.0
 40
1.031249999999998
 40
1.031249999999998
 10
215.3135282030119
 20
116.2836945358175
 30
0.0
 10
215.3135282030119
 20
116.5672339172361
 30
0.0
 10
215.3242488897766
 20
116.6594332276068
 30
0.0
 10
215.3662324732794
 20
116.8394786429473
 30
0.0
 10
215.3980135896335
 20
116.9282473102315
 30
0.0
 10
215.4808740973458
 20
117.0961862155024
 30
0.0
 10
215.5315623185231
 20
117.1752224267657
 30
0.0
 10
215.6512963185338
 20
117.3238840929855
 30
0.0
 10
215.7209092494667
 20
117.3936975204652
 30
0.0
 10
215.948982818108
 20
117.5804809712611
 30
0.0
 10
216.1328748735129
 20
117.6797522249689
 30
0.0
 10
216.5298430390991
 20
117.8122349307862
 30
0.0
 10
216.7471353273858
 20
117.8468770086188
 30
0.0
 10
217.0703421650007
 20
117.8470213365358
 30
0.0
 10
217.1797924133375
 20
117.8384441858665
 30
0.0
 10
217.391496583479
 20
117.8047006507277
 30
0.0
 10
217.4944061378529
 20
117.7797140580601
 30
0.0
 10
217.6943156505859
 20
117.7131640945351
 30
0.0
 10
217.7907722567781
 20
117.6715353350202
 30
0.0
 10
217.9694310312301
 20
117.5747618350637
 30
0.0
 10
218.0528446557942
 20
117.5192122126198
 30
0.0
 10
218.2067873582108
 20
117.3932072239185
 30
0.0
 10
218.2749757402071
 20
117.3246947169696
 30
0.0
 10
218.3944811611244
 20
117.176640858533
 30
0.0
 10
218.4462152396841
 20
117.0961268447897
 30
0.0
 10
218.5290482055766
 20
116.9282290114496
 30
0.0
 10
218.5603130802459
 20
116.8411676428849
 30
0.0
 10
218.6026470776765
 20
116.6606151259952
 30
0.0
 10
218.6134873977789
 20
116.5665599720264
 30
0.0
 10
218.6136094604774
 20
116.2866613630861
 30
0.0
 10
218.5703673830256
 20
116.0954998915075
 30
0.0
 10
218.4060038972993
 20
115.7414219213409
 30
0.0
 10
218.2833160057724
 20
115.5750086747345
 30
0.0
 10
218.0553804910363
 20
115.3665422199757
 30
0.0
 10
217.9706106502044
 20
115.3025567249831
 30
0.0
 10
217.7915708981214
 20
115.1921999364634
 30
0.0
 10
217.6969126484156
 20
115.1452169586751
 30
0.0
 10
217.497153186512
 20
115.0681829947029
 30
0.0
 10
217.3923973862775
 20
115.0385475782724
 30
0.0
 10
217.1814507994691
 20
114.9992816197549
 30
0.0
 10
217.0740950263395
 20
114.9891808000093
 30
0.0
 10
216.855899550399
 20
114.9889996208946
 30
0.0
 10
216.7486124776551
 20
114.9989089022854
 30
0.0
 10
216.5375092039281
 20
115.0378351712541
 30
0.0
 10
216.4325835478763
 20
115.0673402890536
 30
0.0
 10
216.2328050827205
 20
115.1440047822988
 30
0.0
 10
216.1380302589577
 20
115.1908347335381
 30
0.0
 10
215.9585973875647
 20
115.3010324205586
 30
0.0
 10
215.8737751162002
 20
115.3648591478859
 30
0.0
 10
215.6455879751867
 20
115.572854554297
 30
0.0
 10
215.5225063000107
 20
115.7391685187344
 30
0.0
 10
215.3574917337604
 20
116.0929042086541
 30
0.0
 10
215.3135282030119
 20
116.2836945358175
 30
0.0
 10
215.3135282030119
 20
116.5672339172361
 30
0.0
  0
SPLINE
  5
13D
330
1F
100
AcDbEntity
  8
0
  6
HIDDEN
 62
     7
370
     0
100
AcDbSpline
210
0.0
220
0.0
230
1.0
 70
    11
 71
     3
 72
    58
 73
    54
 74
     0
 42
0.00000001
 43
0.00000001
 40
-0.0624999999999934
 40
-0.0624999999999934
 40
0.0
 40
0.0
 40
0.0312499999999984
 40
0.0312499999999984
 40
0.0624999999999967
 40
0.0624999999999967
 40
0.0937499999999951
 40
0.0937499999999951
 40
0.1249999999999935
 40
0.1249999999999935
 40
0.1874999999999903
 40
0.1874999999999903
 40
0.2499999999999871
 40
0.2499999999999871
 40
0.2812499999999895
 40
0.2812499999999895
 40
0.312499999999992
 40
0.312499999999992
 40
0.3437499999999943
 40
0.3437499999999943
 40
0.3749999999999968
 40
0.3749999999999968
 40
0.4062499999999992
 40
0.4062499999999992
 40
0.4375000000000017
 40
0.4375000000000017
 40
0.4687500000000041
 40
0.4687500000000041
 40
0.5000000000000066
 40
0.5000000000000066
 40
0.5625000000000114
 40
0.5625000000000114
 40
0.6250000000000164
 40
0.6250000000000164
 40
0.656250000000016
 40
0.656250000000016
 40
0.6875000000000155
 40
0.6875000000000155
 40
0.7187500000000152
 40
0.7187500000000152
 40
0.7500000000000148
 40
0.7500000000000148
 40
0.7812500000000143
 40
0.7812500000000143
 40
0.8125000000000139
 40
0.8125000000000139
 40
0.8437500000000135
 40
0.8437500000000135
 40
0.8750000000000131
 40
0.8750000000000131
 40
0.9375000000000066
 40
0.9375000000000066
 40
1.0
 40
1.0
 40
1.031249999999998
 40
1.031249999999998
 10
215.313528203012
 20
97.72272079009653
 30
0.0
 10
215.3135282030119
 20
97.72272079009655
 30
0.0
 10
215.3242488897766
 20
97.72414873557526
 30
0.0
 10
215.3662324732794
 20
97.72958585992464
 30
0.0
 10
215.3980135896335
 20
97.73365977169274
 30
0.0
 10
215.4808740973458
 20
97.74377562979713
 30
0.0
 10
215.531562318523
 20
97.74977063168129
 30
0.0
 10
215.6512963185338
 20
97.76294904745966
 30
0.0
 10
215.7209092494667
 20
97.77017595300477
 30
0.0
 10
215.948982818108
 20
97.79155485273111
 30
0.0
 10
216.1328748735128
 20
97.8058696874395
 30
0.0
 10
216.529843039099
 20
97.82609668620658
 30
0.0
 10
216.747135327386
 20
97.83208327509988
 30
0.0
 10
217.0703421650007
 20
97.83210731616673
 30
0.0
 10
217.1797924133374
 20
97.83066393450885
 30
0.0
 10
217.391496583479
 20
97.82516216599116
 30
0.0
 10
217.4944061378529
 20
97.82113354255404
 30
0.0
 10
217.6943156505859
 20
97.81096889238928
 30
0.0
 10
217.7907722567781
 20
97.80483464096497
 30
0.0
 10
217.9694310312301
 20
97.79165469791766
 30
0.0
 10
218.0528446557943
 20
97.78454416426997
 30
0.0
 10
218.2067873582108
 20
97.77011781851097
 30
0.0
 10
218.2749757402072
 20
97.76303108880371
 30
0.0
 10
218.3944811611244
 20
97.74988634166351
 30
0.0
 10
218.4462152396841
 20
97.74377167208459
 30
0.0
 10
218.5290482055765
 20
97.73365905113289
 30
0.0
 10
218.5603130802459
 20
97.72965145491197
 30
0.0
 10
218.6026470776765
 20
97.72417006791888
 30
0.0
 10
218.6134873977789
 20
97.72272617638694
 30
0.0
 10
218.6136094604773
 20
97.72271006411188
 30
0.0
 10
218.5703673830256
 20
97.72861101600343
 30
0.0
 10
218.4060038972992
 20
97.74868443351686
 30
0.0
 10
218.2833160057723
 20
97.76292736368991
 30
0.0
 10
218.0553804910363
 20
97.78431576714578
 30
0.0
 10
217.9706106502045
 20
97.79156054842801
 30
0.0
 10
217.7915708981214
 20
97.80478277271534
 30
0.0
 10
217.6969126484157
 20
97.8108151026627
 30
0.0
 10
217.4971531865119
 20
97.82101503354806
 30
0.0
 10
217.3923973862776
 20
97.82512780864222
 30
0.0
 10
217.1814507994692
 20
97.8306316516382
 30
0.0
 10
217.0740950263395
 20
97.83208631456795
 30
0.0
 10
216.8558995503991
 20
97.8321121847616
 30
0.0
 10
216.7486124776551
 20
97.83068483676587
 30
0.0
 10
216.5375092039281
 20
97.82522674947627
 30
0.0
 10
216.4325835478763
 20
97.82113015968528
 30
0.0
 10
216.2328050827205
 20
97.81097215358221
 30
0.0
 10
216.1380302589576
 20
97.80495361992584
 30
0.0
 10
215.9585973875648
 20
97.7917360913381
 30
0.0
 10
215.8737751162002
 20
97.78450037590608
 30
0.0
 10
215.6455879751868
 20
97.76312498721455
 30
0.0
 10
215.5225063000107
 20
97.74885458669529
 30
0.0
 10
215.3574917337604
 20
97.72871634492392
 30
0.0
 10
215.313528203012
 20
97.72272079009653
 30
0.0
 10
215.3135282030119
 20
97.72272079009655
 30
0.0
  0
SPLINE
  5
13E
330
1F
100
AcDbEntity
  8
0
  6
HIDDEN
 62
     7
370
     0
100
AcDbSpline
210
0.0
220
0.0
230
1.0
 70
    11
 71
     3
 72
    58
 73
    54
 74
     0
 42
0.00000001
 43
0.00000001
 40
-0.0624999999999934
 40
-0.0624999999999934
 40
0.0
 40
0.0
 40
0.0312499999999984
 40
0.0312499999999984
 40
0.0624999999999967
 40
0.0624999999999967
 40
0.0937499999999951
 40
0.0937499999999951
 40
0.1249999999999935
 40
0.1249999999999935
 40
0.1874999999999903
 40
0.1874999999999903
 40
0.2499999999999871
 40
0.2499999999999871
 40
0.2812499999999895
 40
0.2812499999999895
 40
0.312499999999992
 40
0.312499999999992
 40
0.3437499999999943
 40
0.3437499999999943
 40
0.3749999999999968
 40
0.3749999999999968
 40
0.4062499999999992
 40
0.4062499999999992
 40
0.4375000000000017
 40
0.4375000000000017
 40
0.4687500000000041
 40
0.4687500000000041
 40
0.5000000000000066
 40
0.5000000000000066
 40
0.5625000000000114
 40
0.5625000000000114
 40
0.6250000000000164
 40
0.6250000000000164
 40
0.656250000000016
 40
0.656250000000016
 40
0.6875000000000155
 40
0.6875000000000155
 40
0.7187500000000152
 40
0.7187500000000152
 40
0.7500000000000148
 40
0.7500000000000148
 40
0.7812500000000143
 40
0.7812500000000143
 40
0.8125000000000139
 40
0.8125000000000139
 40
0.8437500000000135
 40
0.8437500000000135
 40
0.8750000000000131
 40
0.8750000000000131
 40
0.9375000000000066
 40
0.9375000000000066
 40
1.0
 40
1.0
 40
1.031249999999998
 40
1.031249999999998
 10
215.313528203012
 20
97.72272079009653
 30
0.0
 10
215.3135282030119
 20
97.72272079009655
 30
0.0
 10
215.3242488897766
 20
97.72414873557526
 30
0.0
 10
215.3662324732794
 20
97.72958585992464
 30
0.0
 10
215.3980135896335
 20
97.73365977169274
 30
0.0
 10
215.4808740973458
 20
97.74377562979713
 30
0.0
 10
215.531562318523
 20
97.74977063168129
 30
0.0
 10
215.6512963185338
 20
97.76294904745966
 30
0.0
 10
215.7209092494667
 20
97.77017595300477
 30
0.0
 10
215.948982818108
 20
97.79155485273111
 30
0.0
 10
216.1328748735128
 20
97.8058696874395
 30
0.0
 10
216.529843039099
 20
97.82609668620658
 30
0.0
 10
216.747135327386
 20
97.83208327509988
 30
0.0
 10
217.0703421650007
 20
97.83210731616673
 30
0.0
 10
217.1797924133374
 20
97.83066393450885
 30
0.0
 10
217.391496583479
 20
97.82516216599116
 30
0.0
 10
217.4944061378529
 20
97.82113354255404
 30
0.0
 10
217.6943156505859
 20
97.81096889238928
 30
0.0
 10
217.7907722567781
 20
97.80483464096497
 30
0.0
 10
217.9694310312301
 20
97.79165469791766
 30
0.0
 10
218.0528446557943
 20
97.78454416426997
 30
0.0
 10
218.2067873582108
 20
97.77011781851097
 30
0.0
 10
218.2749757402072
 20
97.76303108880371
 30
0.0
 10
218.3944811611244
 20
97.74988634166351
 30
0.0
 10
218.4462152396841
 20
97.74377167208459
 30
0.0
 10
218.5290482055765
 20
97.73365905113289
 30
0.0
 10
218.5603130802459
 20
97.72965145491197
 30
0.0
 10
218.6026470776765
 20
97.72417006791888
 30
0.0
 10
218.6134873977789
 20
97.72272617638694
 30
0.0
 10
218.6136094604773
 20
97.72271006411188
 30
0.0
 10
218.5703673830256
 20
97.72861101600343
 30
0.0
 10
218.4060038972992
 20
97.74868443351686
 30
0.0
 10
218.2833160057723
 20
97.76292736368991
 30
0.0
 10
218.0553804910363
 20
97.78431576714578
 30
0.0
 10
217.9706106502045
 20
97.79156054842801
 30
0.0
 10
217.7915708981214
 20
97.80478277271534
 30
0.0
 10
217.6969126484157
 20
97.8108151026627
 30
0.0
 10
217.4971531865119
 20
97.82101503354806
 30
0.0
 10
217.3923973862776
 20
97.82512780864222
 30
0.0
 10
217.1814507994692
 20
97.8306316516382
 30
0.0
 10
217.0740950263395
 20
97.83208631456795
 30
0.0
 10
216.8558995503991
 20
97.8321121847616
 30
0.0
 10
216.7486124776551
 20
97.83068483676587
 30
0.0
 10
216.5375092039281
 20
97.82522674947627
 30
0.0
 10
216.4325835478763
 20
97.82113015968528
 30
0.0
 10
216.2328050827205
 20
97.81097215358221
 30
0.0
 10
216.1380302589576
 20
97.80495361992584
 30
0.0
 10
215.9585973875648
 20
97.7917360913381
 30
0.0
 10
215.8737751162002
 20
97.78450037590608
 30
0.0
 10
215.6455879751868
 20
97.76312498721455
 30
0.0
 10
215.5225063000107
 20
97.74885458669529
 30
0.0
 10
215.3574917337604
 20
97.72871634492392
 30
0.0
 10
215.313528203012
 20
97.72272079009653
 30
0.0
 10
215.3135282030119
 20
97.72272079009655
 30
0.0
  0
LINE
  5
13F
330
1F
100
AcDbEntity
  8
0
  6
HIDDEN
 62
     7
370
     0
100
AcDbLine
 10
234.6135258427
 20
97.7227206038
 30
0.0
 11
234.6135258427
 21
122.7227209764
 31
0.0
  0
LINE
  5
140
330
1F
100
AcDbEntity
  8
0
  6
HIDDEN
 62
     7
370
     0
100
AcDbLine
 10
213.2135212173
 20
97.7227206038
 30
0.0
 11
213.2135212173
 21
122.7227209764
 31
0.0
  0
SPLINE
  5
141
330
1F
100
AcDbEntity
  8
0
  6
HIDDEN
 62
     7
370
     0
100
AcDbSpline
210
0.0
220
0.0
230
1.0
 70
    11
 71
     3
 72
    64
 73
    60
 74
     0
 42
0.00000001
 43
0.00000001
 40
-0.031249999999998
 40
-0.031249999999998
 40
0.0
 40
0.0
 40
0.0312499999999986
 40
0.0312499999999986
 40
0.0624999999999971
 40
0.0624999999999971
 40
0.0937499999999957
 40
0.0937499999999957
 40
0.1249999999999943
 40
0.1249999999999943
 40
0.1874999999999915
 40
0.1874999999999915
 40
0.2187499999999927
 40
0.2187499999999927
 40
0.249999999999994
 40
0.249999999999994
 40
0.2812499999999952
 40
0.2812499999999952
 40
0.3124999999999964
 40
0.3124999999999964
 40
0.3437499999999977
 40
0.3437499999999977
 40
0.3749999999999989
 40
0.3749999999999989
 40
0.4062500000000002
 40
0.4062500000000002
 40
0.4375000000000014
 40
0.4375000000000014
 40
0.4687500000000027
 40
0.4687500000000027
 40
0.5000000000000039
 40
0.5000000000000039
 40
0.5625000000000064
 40
0.5625000000000064
 40
0.5937500000000066
 40
0.5937500000000066
 40
0.6250000000000067
 40
0.6250000000000067
 40
0.6562500000000069
 40
0.6562500000000069
 40
0.687500000000007
 40
0.687500000000007
 40
0.7187500000000071
 40
0.7187500000000071
 40
0.7500000000000072
 40
0.7500000000000072
 40
0.7812500000000073
 40
0.7812500000000073
 40
0.8125000000000074
 40
0.8125000000000074
 40
0.8437500000000075
 40
0.8437500000000075
 40
0.8750000000000077
 40
0.8750000000000077
 40
0.9375000000000039
 40
0.9375000000000039
 40
0.968750000000002
 40
0.968750000000002
 40
1.0
 40
1.0
 40
1.031249999999999
 40
1.031249999999999
 10
220.4635282030121
 20
122.7227207900965
 30
0.0
 10
220.4635282030119
 20
122.7227207900965
 30
0.0
 10
220.4785049492858
 20
122.7199404872523
 30
0.0
 10
220.5371265977152
 20
122.7093549641635
 30
0.0
 10
220.5815060371148
 20
122.7014218082113
 30
0.0
 10
220.6970660629944
 20
122.6817345609837
 30
0.0
 10
220.767734117869
 20
122.6700656809447
 30
0.0
 10
220.9346342265707
 20
122.6443975681525
 30
0.0
 10
221.0315591582752
 20
122.6303275462191
 30
0.0
 10
221.3491093460915
 20
122.588663345091
 30
0.0
 10
221.6051794062013
 20
122.5606970501731
 30
0.0
 10
222.020074493386
 20
122.5309982887208
 30
0.0
 10
222.1653557003872
 20
122.5229558628073
 30
0.0
 10
222.4623876978357
 20
122.5120925439701
 30
0.0
 10
222.6118304851099
 20
122.5093153795741
 30
0.0
 10
222.9125336058692
 20
122.5092824335607
 30
0.0
 10
223.0652984916042
 20
122.5121188595261
 30
0.0
 10
223.3605238828634
 20
122.5229095465174
 30
0.0
 10
223.5040501323417
 20
122.5308088453211
 30
0.0
 10
223.782907504182
 20
122.550729267016
 30
0.0
 10
223.917091433961
 20
122.5627124852595
 30
0.0
 10
224.1659187821096
 20
122.5884551494152
 30
0.0
 10
224.2824415900201
 20
122.6023752358671
 30
0.0
 10
224.4964579978759
 20
122.6304519281162
 30
0.0
 10
224.5913889796342
 20
122.6442466067409
 30
0.0
 10
224.7579451342198
 20
122.6698460602276
 30
0.0
 10
224.8301406939283
 20
122.6817598380489
 30
0.0
 10
224.9455502355336
 20
122.7014221232162
 30
0.0
 10
224.9891998178609
 20
122.7092242276502
 30
0.0
 10
225.0483452597842
 20
122.7199021899888
 30
0.0
 10
225.0634681498999
 20
122.7227097403248
 30
0.0
 10
225.0636477615533
 20
122.7227427888665
 30
0.0
 10
225.0032490808442
 20
122.7112589457542
 30
0.0
 10
224.8312638620624
 20
122.6819478796631
 30
0.0
 10
224.7596234975091
 20
122.6701120535073
 30
0.0
 10
224.5921357492273
 20
122.6443534685247
 30
0.0
 10
224.4972399826253
 20
122.6305704329433
 30
0.0
 10
224.2854167480721
 20
122.60274990833
 30
0.0
 10
224.1673565862147
 20
122.5886169620497
 30
0.0
 10
223.9182593376181
 20
122.5628203844786
 30
0.0
 10
223.7863767496506
 20
122.5510165848804
 30
0.0
 10
223.5075080487704
 20
122.5310173442595
 30
0.0
 10
223.3618356499338
 20
122.5229798633333
 30
0.0
 10
223.0677087025392
 20
122.5121848648231
 30
0.0
 10
222.9171905571096
 20
122.5093204305241
 30
0.0
 10
222.6133393081539
 20
122.5092774806111
 30
0.0
 10
222.4637569112442
 20
122.5120733950794
 30
0.0
 10
222.1691108240595
 20
122.5227881331085
 30
0.0
 10
222.0225328546011
 20
122.5308419353359
 30
0.0
 10
221.7444924233729
 20
122.5507054566877
 30
0.0
 10
221.6124197665957
 20
122.5624756513262
 30
0.0
 10
221.3620771866759
 20
122.588341047651
 30
0.0
 10
221.2442601579932
 20
122.6024285768107
 30
0.0
 10
220.9267255956867
 20
122.6440653946689
 30
0.0
 10
220.7551399622421
 20
122.6718477002946
 30
0.0
 10
220.582498481829
 20
122.7012493499798
 30
0.0
 10
220.5379182568194
 20
122.7092129308452
 30
0.0
 10
220.4785073299086
 20
122.7199391501519
 30
0.0
 10
220.4635282030121
 20
122.7227207900965
 30
0.0
 10
220.4635282030119
 20
122.7227207900965
 30
0.0
  0
SPLINE
  5
142
330
1F
100
AcDbEntity
  8
0
  6
HIDDEN
 62
     7
370
     0
100
AcDbSpline
210
0.0
220
0.0
230
1.0
 70
     8
 71
     3
 72
    64
 73
    60
 74
     0
 42
0.00000001
 43
0.00000001
 40
-0.0312500000000018
 40
-0.0312500000000018
 40
0.0
 40
0.0
 40
0.0312499999999979
 40
0.0312499999999979
 40
0.0624999999999959
 40
0.0624999999999959
 40
0.0937499999999938
 40
0.0937499999999938
 40
0.1249999999999918
 40
0.1249999999999918
 40
0.1874999999999878
 40
0.1874999999999878
 40
0.2187499999999885
 40
0.2187499999999885
 40
0.2499999999999892
 40
0.2499999999999892
 40
0.2812499999999899
 40
0.2812499999999899
 40
0.3124999999999906
 40
0.3124999999999906
 40
0.3437499999999913
 40
0.3437499999999913
 40
0.374999999999992
 40
0.374999999999992
 40
0.4062499999999927
 40
0.4062499999999927
 40
0.4374999999999934
 40
0.4374999999999934
 40
0.4687499999999942
 40
0.4687499999999942
 40
0.4999999999999949
 40
0.4999999999999949
 40
0.5624999999999963
 40
0.5624999999999963
 40
0.5937499999999959
 40
0.5937499999999959
 40
0.6249999999999956
 40
0.6249999999999956
 40
0.6562499999999952
 40
0.6562499999999952
 40
0.687499999999995
 40
0.687499999999995
 40
0.7187499999999947
 40
0.7187499999999947
 40
0.7499999999999943
 40
0.7499999999999943
 40
0.7812499999999941
 40
0.7812499999999941
 40
0.8124999999999938
 40
0.8124999999999938
 40
0.8437499999999936
 40
0.8437499999999936
 40
0.8749999999999931
 40
0.8749999999999931
 40
0.9374999999999964
 40
0.9374999999999964
 40
0.9687499999999982
 40
0.9687499999999982
 40
1.0
 40
1.0
 40
1.031249999999998
 40
1.031249999999998
 10
220.4635282030119
 20
103.840828278061
 30
0.0
 10
220.4635282030119
 20
104.104613302132
 30
0.0
 10
220.4785049492858
 20
104.2356365402751
 30
0.0
 10
220.5371265977152
 20
104.4958783009922
 30
0.0
 10
220.5815060371148
 20
104.6265020926336
 30
0.0
 10
220.6970660629945
 20
104.8774281006145
 30
0.0
 10
220.7677341178689
 20
104.9975594654859
 30
0.0
 10
220.9346342265707
 20
105.2266993001565
 30
0.0
 10
221.0315591582752
 20
105.3359269384738
 30
0.0
 10
221.3491093460915
 20
105.6316889459919
 30
0.0
 10
221.6051794062012
 20
105.7939730369693
 30
0.0
 10
222.0200744933861
 20
105.957966548082
 30
0.0
 10
222.1653557003872
 20
106.0003849861633
 30
0.0
 10
222.4623876978358
 20
106.0570968025759
 30
0.0
 10
222.6118304851098
 20
106.0712053738214
 30
0.0
 10
222.9125336058692
 20
106.0713742649788
 30
0.0
 10
223.0652984916042
 20
106.0569587857937
 30
0.0
 10
223.3605238828634
 20
106.0006274153409
 30
0.0
 10
223.5040501323417
 20
105.9589944152387
 30
0.0
 10
223.7829075041821
 20
105.8490320976896
 30
0.0
 10
223.917091433961
 20
105.7808056507317
 30
0.0
 10
224.1659187821096
 20
105.6239210104245
 30
0.0
 10
224.2824415900201
 20
105.5343407942109
 30
0.0
 10
224.4964579978761
 20
105.3350554064475
 30
0.0
 10
224.5913889796341
 20
105.2278923513753
 30
0.0
 10
224.7579451342198
 20
104.9996723862054
 30
0.0
 10
224.8301406939284
 20
104.8771307460351
 30
0.0
 10
224.9455502355337
 20
104.6264732283059
 30
0.0
 10
224.9891998178609
 20
104.4984186101291
 30
0.0
 10
225.0483452597842
 20
104.2372412634228
 30
0.0
 10
225.0634681499
 20
104.1036533788619
 30
0.0
 10
225.0636477615533
 20
103.7132365273293
 30
0.0
 10
225.0032490808443
 20
103.4563254965206
 30
0.0
 10
224.8312638620624
 20
103.1112362618365
 30
0.0
 10
224.7596234975093
 20
103.0009057694556
 30
0.0
 10
224.5921357492274
 20
102.7967149740734
 30
0.0
 10
224.4972399826252
 20
102.7034866249174
 30
0.0
 10
224.285416748072
 20
102.5336240073644
 30
0.0
 10
224.1673565862147
 20
102.4566443979918
 30
0.0
 10
223.9182593376181
 20
102.3251604036885
 30
0.0
 10
223.7863767496507
 20
102.269735131828
 30
0.0
 10
223.5075080487705
 20
102.1792669822479
 30
0.0
 10
223.3618356499338
 20
102.1449265374469
 30
0.0
 10
223.0677087025392
 20
102.0993589803924
 30
0.0
 10
222.9171905571096
 20
102.087662458642
 30
0.0
 10
222.6133393081539
 20
102.0874852343811
 30
0.0
 10
222.4637569112442
 20
102.0988981580538
 30
0.0
 10
222.1691108240595
 20
102.1441077712465
 30
0.0
 10
222.022532854601
 20
102.1785080295547
 30
0.0
 10
221.7444924233729
 20
102.2682940309859
 30
0.0
 10
221.6124197665957
 20
102.3234818922698
 30
0.0
 10
221.3620771866759
 20
102.4551613609008
 30
0.0
 10
221.2442601579932
 20
102.5318180204525
 30
0.0
 10
220.9267255956867
 20
102.7855762173745
 30
0.0
 10
220.755139962242
 20
102.9933730543279
 30
0.0
 10
220.582498481829
 20
103.3379650286313
 30
0.0
 10
220.5379182568194
 20
103.4601533564776
 30
0.0
 10
220.4785073299085
 20
103.7119873840282
 30
0.0
 10
220.4635282030119
 20
103.840828278061
 30
0.0
 10
220.4635282030119
 20
104.104613302132
 30
0.0
  0
SPLINE
  5
143
330
1F
100
AcDbEntity
  8
0
  6
HIDDEN
 62
     7
370
     0
100
AcDbSpline
210
0.0
220
0.0
230
1.0
 70
     8
 71
     3
 72
    64
 73
    60
 74
     0
 42
0.00000001
 43
0.00000001
 40
-0.0312499999999973
 40
-0.0312499999999973
 40
0.0
 40
0.0
 40
0.0312500000000028
 40
0.0312500000000028
 40
0.0625000000000055
 40
0.0625000000000055
 40
0.0937500000000083
 40
0.0937500000000083
 40
0.125000000000011
 40
0.125000000000011
 40
0.1875000000000168
 40
0.1875000000000168
 40
0.218750000000017
 40
0.218750000000017
 40
0.2500000000000172
 40
0.2500000000000172
 40
0.2812500000000175
 40
0.2812500000000175
 40
0.3125000000000177
 40
0.3125000000000177
 40
0.3437500000000179
 40
0.3437500000000179
 40
0.375000000000018
 40
0.375000000000018
 40
0.4062500000000182
 40
0.4062500000000182
 40
0.4375000000000183
 40
0.4375000000000183
 40
0.4687500000000184
 40
0.4687500000000184
 40
0.5000000000000185
 40
0.5000000000000185
 40
0.5625000000000191
 40
0.5625000000000191
 40
0.5937500000000182
 40
0.5937500000000182
 40
0.6250000000000174
 40
0.6250000000000174
 40
0.6562500000000167
 40
0.6562500000000167
 40
0.6875000000000159
 40
0.6875000000000159
 40
0.7187500000000151
 40
0.7187500000000151
 40
0.7500000000000142
 40
0.7500000000000142
 40
0.7812500000000134
 40
0.7812500000000134
 40
0.8125000000000127
 40
0.8125000000000127
 40
0.8437500000000119
 40
0.8437500000000119
 40
0.8750000000000111
 40
0.8750000000000111
 40
0.9375000000000053
 40
0.9375000000000053
 40
0.9687500000000027
 40
0.9687500000000027
 40
1.0
 40
1.0
 40
1.031250000000003
 40
1.031250000000003
 10
220.463528203012
 20
104.1046133021321
 30
0.0
 10
220.4635282030119
 20
103.8408282780611
 30
0.0
 10
220.4785049492858
 20
103.7125853427623
 30
0.0
 10
220.5371265977152
 20
103.462929105134
 30
0.0
 10
220.5815060371148
 20
103.3402384694448
 30
0.0
 10
220.6970660629944
 20
103.1089997086914
 30
0.0
 10
220.7677341178689
 20
103.000537223859
 30
0.0
 10
220.9346342265707
 20
102.7970655019806
 30
0.0
 10
221.0315591582752
 20
102.7019078855967
 30
0.0
 10
221.3491093460914
 20
102.4478100792067
 30
0.0
 10
221.6051794062012
 20
102.3134922831473
 30
0.0
 10
222.0200744933859
 20
102.1791975334868
 30
0.0
 10
222.1653557003871
 20
102.144821521319
 30
0.0
 10
222.4623876978357
 20
102.0989730237436
 30
0.0
 10
222.6118304851098
 20
102.0876416168941
 30
0.0
 10
222.912533605869
 20
102.0875056717502
 30
0.0
 10
223.0652984916041
 20
102.0990847249699
 30
0.0
 10
223.3605238828634
 20
102.1446254084314
 30
0.0
 10
223.5040501323417
 20
102.1783591097298
 30
0.0
 10
223.7829075041821
 20
102.2684010055841
 30
0.0
 10
223.917091433961
 20
102.3246442342984
 30
0.0
 10
224.1659187821095
 20
102.4557862104499
 30
0.0
 10
224.2824415900201
 20
102.5314463402116
 30
0.0
 10
224.496457997876
 20
102.7026550357259
 30
0.0
 10
224.591388979634
 20
102.7960234121735
 30
0.0
 10
224.7579451342198
 20
102.9986439238566
 30
0.0
 10
224.8301406939283
 20
103.1092717862055
 30
0.0
 10
224.9455502355336
 20
103.3402670187676
 30
0.0
 10
224.9891998178609
 20
103.4605195325103
 30
0.0
 10
225.0483452597841
 20
103.711018916878
 30
0.0
 10
225.0634681498999
 20
103.8417992511029
 30
0.0
 10
225.0636477615532
 20
104.2321830540939
 30
0.0
 10
225.0032490808442
 20
104.5005779280148
 30
0.0
 10
224.8312638620623
 20
104.8749782287901
 30
0.0
 10
224.7596234975092
 20
104.9971445473268
 30
0.0
 10
224.5921357492274
 20
105.2270939276915
 30
0.0
 10
224.4972399826252
 20
105.3341053124289
 30
0.0
 10
224.2854167480721
 20
105.5317884545952
 30
0.0
 10
224.1673565862147
 20
105.6229010102482
 30
0.0
 10
223.9182593376182
 20
105.7801815821226
 30
0.0
 10
223.7863767496506
 20
105.8474106535813
 30
0.0
 10
223.5075080487705
 20
105.9578780437824
 30
0.0
 10
223.3618356499338
 20
106.0002559695094
 30
0.0
 10
223.0677087025392
 20
106.0566185250742
 30
0.0
 10
222.9171905571097
 20
106.0711794811236
 30
0.0
 10
222.613339308154
 20
106.0713996552975
 30
0.0
 10
222.4637569112442
 20
106.0571908171565
 30
0.0
 10
222.1691108240597
 20
106.0012664659346
 30
0.0
 10
222.022532854601
 20
105.9588124053991
 30
0.0
 10
221.744492423373
 20
105.8491628826161
 30
0.0
 10
221.6124197665957
 20
105.7822048266937
 30
0.0
 10
221.3620771866759
 20
105.6246599617379
 30
0.0
 10
221.2442601579931
 20
105.5339157730265
 30
0.0
 10
220.9267255956868
 20
105.2385207582463
 30
0.0
 10
220.7551399622421
 20
105.0029416156672
 30
0.0
 10
220.582498481829
 20
104.6289479916786
 30
0.0
 10
220.5379182568194
 20
104.4987960829669
 30
0.0
 10
220.4785073299086
 20
104.2362358361096
 30
0.0
 10
220.463528203012
 20
104.1046133021321
 30
0.0
 10
220.4635282030119
 20
103.8408282780611
 30
0.0
  0
LINE
  5
144
330
1F
100
AcDbEntity
  8
0
  6
HIDDEN
 62
     7
370
     0
100
AcDbLine
 10
234.6135258427
 20
122.2977212327
 30
0.0
 11
234.6135258427
 21
98.1746858614
 31
0.0
  0
LINE
  5
145
330
1F
100
AcDbEntity
  8
0
  6
HIDDEN
 62
     7
370
     0
100
AcDbLine
 10
235.713529562
 20
122.2977212327
 30
0.0
 11
235.713529562
 21
98.1746858614
 31
0.0
  0
LWPOLYLINE
  5
146
330
1F
100
AcDbEntity
  8
0
  6
HIDDEN
 62
     7
370
     0
100
AcDbPolyline
 90
       11
 70
   128
 43
0.0
 10
225.0635355463
 20
105.4727209428
 10
224.9509572735
 20
106.0882390173
 10
224.6242642155
 20
106.6435058763
 10
224.1154342642
 20
107.0841681374
 10
223.4742671003
 20
107.3670906642
 10
222.7635264149
 20
107.4645791831
 10
222.0527857294
 20
107.3670906642
 10
221.4116185656
 20
107.0841681374
 10
220.9027886143
 20
106.6435058763
 10
220.5760955563
 20
106.0882390173
 10
220.4635321846
 20
105.4727209428
  0
LWPOLYLINE
  5
147
330
1F
100
AcDbEntity
  8
0
  6
HIDDEN
 62
     7
370
     0
100
AcDbPolyline
 90
       11
 70
   128
 43
0.0
 10
220.4635321846
 20
105.4727209428
 10
220.5760955563
 20
104.8572028684
 10
220.9027886143
 20
104.3019357765
 10
221.4116185656
 20
103.8612735154
 10
222.0527857294
 20
103.5783507558
 10
222.7635264149
 20
103.480862237
 10
223.4742671003
 20
103.5783507558
 10
224.1154342642
 20
103.8612735154
 10
224.6242642155
 20
104.3019357765
 10
224.9509572735
 20
104.8572028684
 10
225.0635355463
 20
105.4727209428
  0
SPLINE
  5
148
330
1F
100
AcDbEntity
  8
0
  6
HIDDEN
 62
     7
370
     0
100
AcDbSpline
210
0.0
220
0.0
230
1.0
 70
     8
 71
     3
 72
    18
 73
    14
 74
     0
 42
0.00000001
 43
0.00000001
 40
0.0
 40
0.0
 40
0.0
 40
0.0
 40
0.1249999999999987
 40
0.1249999999999987
 40
0.2499999999999974
 40
0.2499999999999974
 40
0.4999999999999948
 40
0.4999999999999948
 40
0.6249999999999932
 40
0.6249999999999932
 40
0.7499999999999916
 40
0.7499999999999916
 40
1.0
 40
1.0
 40
1.0
 40
1.0
 10
216.513528203012
 20
116.2807082064523
 30
0.0
 10
216.3404916551434
 20
116.2423852544065
 30
0.0
 10
216.1802240910801
 20
116.1834950876628
 30
0.0
 10
215.8846407082615
 20
116.0231598562393
 30
0.0
 10
215.7560981437726
 20
115.9251201391619
 30
0.0
 10
215.4325386986074
 20
115.5777021411733
 30
0.0
 10
215.3138806180688
 20
115.2834206008094
 30
0.0
 10
215.3133531947504
 20
114.8194808225878
 30
0.0
 10
215.3423324542869
 20
114.6627753080885
 30
0.0
 10
215.4554971229884
 20
114.3607647115847
 30
0.0
 10
215.5395533011059
 20
114.2160178093007
 30
0.0
 10
215.8606791850113
 20
113.825211298268
 30
0.0
 10
216.1674715470599
 20
113.6244309714275
 30
0.0
 10
216.513528203012
 20
113.5311627894788
 30
0.0
  0
LINE
  5
149
330
1F
100
AcDbEntity
  8
0
  6
HIDDEN
 62
     7
370
     0
100
AcDbLine
 10
216.5135323753
 20
113.5311627457
 30
0.0
 11
216.5135323753
 21
113.7465606606
 31
0.0
  0
SPLINE
  5
14A
330
1F
100
AcDbEntity
  8
0
  6
HIDDEN
 62
     7
370
     0
100
AcDbSpline
210
0.0
220
0.0
230
1.0
 70
     8
 71
     3
 72
    23
 73
    19
 74
     0
 42
0.00000001
 43
0.00000001
 40
0.0001620647303176
 40
0.0001620647303176
 40
0.0001620647303176
 40
0.0001620647303176
 40
0.0001791833705586
 40
0.0001791833705586
 40
0.0001791833705586
 40
0.0002124145184225
 40
0.0002124145184225
 40
0.0002124145184225
 40
0.0002445804891103
 40
0.0002445804891103
 40
0.0002445804891103
 40
0.0002768532148399
 40
0.0002768532148399
 40
0.0002768532148399
 40
0.00031002209323
 40
0.00031002209323
 40
0.00031002209323
 40
0.0003194655452153
 40
0.0003194655452153
 40
0.0003194655452153
 40
0.0003194655452153
 10
216.513528203012
 20
113.7465607678691
 30
0.0
 10
216.5135282030117
 20
113.7494235542815
 30
0.0
 10
216.5140113291556
 20
113.752178744275
 30
0.0
 10
216.5149762503689
 20
113.7547612302722
 30
0.0
 10
216.5168435433665
 20
113.7597587968636
 30
0.0
 10
216.5206018488615
 20
113.7642035086065
 30
0.0
 10
216.5259501320546
 20
113.7677253439462
 30
0.0
 10
216.5311323989126
 20
113.7711378578131
 30
0.0
 10
216.5379454094776
 20
113.773782141721
 30
0.0
 10
216.5458171079132
 20
113.7755002350538
 30
0.0
 10
216.5537182806651
 20
113.7772247615124
 30
0.0
 10
216.5628926126615
 20
113.7780674351501
 30
0.0
 10
216.5726030293952
 20
113.7780308297282
 30
0.0
 10
216.5825815854239
 20
113.7779932134998
 30
0.0
 10
216.5933884751343
 20
113.7770296591659
 30
0.0
 10
216.6041787237396
 20
113.775261820932
 30
0.0
 10
216.6072882939669
 20
113.7747523593487
 30
0.0
 10
216.610411393967
 20
113.7741750438957
 30
0.0
 10
216.613528203012
 20
113.7735340197731
 30
0.0
  0
SPLINE
  5
14B
330
1F
100
AcDbEntity
  8
0
  6
HIDDEN
 62
     7
370
     0
100
AcDbSpline
210
0.0
220
0.0
230
1.0
 70
     8
 71
     3
 72
    10
 73
     6
 74
     0
 42
0.00000001
 43
0.00000001
 40
0.0
 40
0.0
 40
0.0
 40
0.0
 40
0.5
 40
0.5
 40
1.0
 40
1.0
 40
1.0
 40
1.0
 10
216.613528203012
 20
113.7735340197726
 30
0.0
 10
216.7633710373374
 20
113.7427163244875
 30
0.0
 10
216.9142388617904
 20
113.7319697201619
 30
0.0
 10
217.2179814717325
 20
113.7499308385468
 30
0.0
 10
217.3690775902707
 20
113.7790447110986
 30
0.0
 10
217.513528203012
 20
113.8272845699918
 30
0.0
  0
SPLINE
  5
14C
330
1F
100
AcDbEntity
  8
0
  6
HIDDEN
 62
     7
370
     0
100
AcDbSpline
210
0.0
220
0.0
230
1.0
 70
     8
 71
     3
 72
    20
 73
    16
 74
     0
 42
0.00000001
 43
0.00000001
 40
0.0000002095638251
 40
0.0000002095638251
 40
0.0000002095638251
 40
0.0000002095638251
 40
0.0000365247662458
 40
0.0000365247662458
 40
0.0000365247662458
 40
0.0000731650534721
 40
0.0000731650534721
 40
0.0000731650534721
 40
0.0001079711865407
 40
0.0001079711865407
 40
0.0001079711865407
 40
0.0001401117176298
 40
0.0001401117176298
 40
0.0001401117176298
 40
0.0001602202130873
 40
0.0001602202130873
 40
0.0001602202130873
 40
0.0001602202130873
 10
217.513528203012
 20
113.8272845699918
 30
0.0
 10
217.5249253632911
 20
113.8310906971741
 30
0.0
 10
217.5365335252081
 20
113.8340957157745
 30
0.0
 10
217.5474193810505
 20
113.835999277115
 30
0.0
 10
217.5583877522687
 20
113.8379172675533
 30
0.0
 10
217.5689406166588
 20
113.8387639873527
 30
0.0
 10
217.5780587202179
 20
113.8383193622426
 30
0.0
 10
217.5867199743371
 20
113.8378970144328
 30
0.0
 10
217.5943433994922
 20
113.836283830174
 30
0.0
 10
217.6001207485412
 20
113.8335024230821
 30
0.0
 10
217.6054643233974
 20
113.8309298492468
 30
0.0
 10
217.6093821452146
 20
113.8272786704765
 30
0.0
 10
217.6115163219162
 20
113.8228371491638
 30
0.0
 10
217.6128560759007
 20
113.8200489330468
 30
0.0
 10
217.613528203012
 20
113.8169150422658
 30
0.0
 10
217.613528203012
 20
113.8135515439579
 30
0.0
  0
LINE
  5
14D
330
1F
100
AcDbEntity
  8
0
  6
HIDDEN
 62
     7
370
     0
100
AcDbLine
 10
217.6135211935
 20
113.8135516247
 30
0.0
 11
217.6135211935
 21
113.5984112205
 31
0.0
  0
SPLINE
  5
14E
330
1F
100
AcDbEntity
  8
0
  6
HIDDEN
 62
     7
370
     0
100
AcDbSpline
210
0.0
220
0.0
230
1.0
 70
     8
 71
     3
 72
    22
 73
    18
 74
     0
 42
0.00000001
 43
0.00000001
 40
0.0
 40
0.0
 40
0.0
 40
0.0
 40
0.1249999999999998
 40
0.1249999999999998
 40
0.2499999999999997
 40
0.2499999999999997
 40
0.3749999999999997
 40
0.3749999999999997
 40
0.4999999999999998
 40
0.4999999999999998
 40
0.6249999999999998
 40
0.6249999999999998
 40
0.7499999999999999
 40
0.7499999999999999
 40
0.8749999999999999
 40
0.8749999999999999
 40
1.0
 40
1.0
 40
1.0
 40
1.0
 10
217.613528203012
 20
113.5984113024564
 30
0.0
 10
217.7623088215949
 20
113.6587911074461
 30
0.0
 10
217.8980628627244
 20
113.7375872369452
 30
0.0
 10
218.1443979588981
 20
113.9296000980704
 30
0.0
 10
218.2519997518776
 20
114.0412015215402
 30
0.0
 10
218.428225290287
 20
114.2849763162214
 30
0.0
 10
218.4974627798934
 20
114.4186046450223
 30
0.0
 10
218.5895383867134
 20
114.6911762268801
 30
0.0
 10
218.6134927411374
 20
114.8339248378322
 30
0.0
 10
218.6135635839164
 20
115.1108836456293
 30
0.0
 10
218.5897723878138
 20
115.249150060333
 30
0.0
 10
218.4976553245725
 20
115.506935433296
 30
0.0
 10
218.4287864882563
 20
115.6288347351682
 30
0.0
 10
218.2522373673321
 20
115.84757387172
 30
0.0
 10
218.1453767838441
 20
115.9441537381748
 30
0.0
 10
217.8983105973873
 20
116.1091491857215
 30
0.0
 10
217.7623078145385
 20
116.1751289173296
 30
0.0
 10
217.613528203012
 20
116.2251964097692
 30
0.0
  0
LINE
  5
14F
330
1F
100
AcDbEntity
  8
0
  6
HIDDEN
 62
     7
370
     0
100
AcDbLine
 10
217.6135211935
 20
116.2251962977
 30
0.0
 11
217.6135211935
 21
116.440336469
 31
0.0
  0
SPLINE
  5
150
330
1F
100
AcDbEntity
  8
0
  6
HIDDEN
 62
     7
370
     0
100
AcDbSpline
210
0.0
220
0.0
230
1.0
 70
     8
 71
     3
 72
    23
 73
    19
 74
     0
 42
0.00000001
 43
0.00000001
 40
0.0001662950200273
 40
0.0001662950200273
 40
0.0001662950200273
 40
0.0001662950200273
 40
0.0001888869641777
 40
0.0001888869641777
 40
0.0001888869641777
 40
0.0002202292132408
 40
0.0002202292132408
 40
0.0002202292132408
 40
0.0002508744951465
 40
0.0002508744951465
 40
0.0002508744951465
 40
0.0002827639243138
 40
0.0002827639243138
 40
0.0002827639243138
 40
0.0003169268929599
 40
0.0003169268929599
 40
0.0003169268929599
 40
0.0003258677376186
 40
0.0003258677376186
 40
0.0003258677376186
 40
0.0003258677376186
 10
217.613528203012
 20
116.4403366512708
 30
0.0
 10
217.613528203012
 20
116.4441080000845
 30
0.0
 10
217.6126801168627
 20
116.448223556346
 30
0.0
 10
217.6109958782427
 20
116.4525043546711
 30
0.0
 10
217.6086582049129
 20
116.4584459759805
 30
0.0
 10
217.6046256744043
 20
116.4648555538687
 30
0.0
 10
217.5992548806401
 20
116.4711486168415
 30
0.0
 10
217.5939961167274
 20
116.4773104122695
 30
0.0
 10
217.5873257958387
 20
116.4835200519348
 30
0.0
 10
217.5798022411027
 20
116.4892777953277
 30
0.0
 10
217.5719719309299
 20
116.495270297309
 30
0.0
 10
217.5630255985459
 20
116.5009249339757
 30
0.0
 10
217.5536463582878
 20
116.5058347919255
 30
0.0
 10
217.5436049192725
 20
116.511091298617
 30
0.0
 10
217.532814636091
 20
116.5156282489771
 30
0.0
 10
217.5220715025061
 20
116.5191385744192
 30
0.0
 10
217.5192274995504
 20
116.5200678541172
 30
0.0
 10
217.5163750529863
 20
116.5209306715168
 30
0.0
 10
217.513528203012
 20
116.5217232870536
 30
0.0
  0
SPLINE
  5
151
330
1F
100
AcDbEntity
  8
0
  6
HIDDEN
 62
     7
370
     0
100
AcDbSpline
210
0.0
220
0.0
230
1.0
 70
     8
 71
     3
 72
    10
 73
     6
 74
     0
 42
0.00000001
 43
0.00000001
 40
0.0
 40
0.0
 40
0.0
 40
0.0
 40
0.5
 40
0.5
 40
1.0
 40
1.0
 40
1.0
 40
1.0
 10
217.513528203012
 20
116.5217232870533
 30
0.0
 10
217.3690849108166
 20
116.5619389635472
 30
0.0
 10
217.2209059822308
 20
116.5855425783492
 30
0.0
 10
216.9171963695669
 20
116.6007776712905
 30
0.0
 10
216.7633725718632
 20
116.5918995528362
 30
0.0
 10
216.6135282030119
 20
116.5663820285264
 30
0.0
  0
SPLINE
  5
152
330
1F
100
AcDbEntity
  8
0
  6
HIDDEN
 62
     7
370
     0
100
AcDbSpline
210
0.0
220
0.0
230
1.0
 70
     8
 71
     3
 72
    20
 73
    16
 74
     0
 42
0.00000001
 43
0.00000001
 40
0.0000002019816324
 40
0.0000002019816324
 40
0.0000002019816324
 40
0.0000002019816324
 40
0.000034327889285
 40
0.000034327889285
 40
0.000034327889285
 40
0.0000687102723355
 40
0.0000687102723355
 40
0.0000687102723355
 40
0.0001022735979614
 40
0.0001022735979614
 40
0.0001022735979614
 40
0.0001347629901449
 40
0.0001347629901449
 40
0.0001347629901449
 40
0.0001578678762431
 40
0.0001578678762431
 40
0.0001578678762431
 40
0.0001578678762431
 10
216.613528203012
 20
116.5663820285264
 30
0.0
 10
216.6024183945949
 20
116.5644901001975
 30
0.0
 10
216.5911171941376
 20
116.5615023322037
 30
0.0
 10
216.5805388815928
 20
116.5576485151755
 30
0.0
 10
216.5698881588496
 20
116.5537683181691
 30
0.0
 10
216.5596725712919
 20
116.548898352626
 30
0.0
 10
216.5507993286376
 20
116.5434784729079
 30
0.0
 10
216.5421367603588
 20
116.5381872755465
 30
0.0
 10
216.5345080896968
 20
116.5322208567787
 30
0.0
 10
216.5286044961734
 20
116.5261449810726
 30
0.0
 10
216.5228854908077
 20
116.5202590802858
 30
0.0
 10
216.5186253462002
 20
116.5141086722989
 30
0.0
 10
216.5161649049201
 20
116.5082456176279
 30
0.0
 10
216.5144119582537
 20
116.5040684717542
 30
0.0
 10
216.513528203012
 20
116.4999646974667
 30
0.0
 10
216.513528203012
 20
116.4961061848446
 30
0.0
  0
LINE
  5
153
330
1F
100
AcDbEntity
  8
0
  6
HIDDEN
 62
     7
370
     0
100
AcDbLine
 10
216.5135323753
 20
116.4961063931
 30
0.0
 11
216.5135323753
 21
116.2807082454
 31
0.0
  0
LWPOLYLINE
  5
154
330
1F
100
AcDbEntity
  8
0
  6
HIDDEN
 62
     7
370
     0
100
AcDbPolyline
 90
        2
 70
   128
 43
0.0
 10
236.2135231247
 20
105.4477209853
 10
236.2135231247
 20
105.4477209853
  0
LWPOLYLINE
  5
155
330
1F
100
AcDbEntity
  8
0
  6
HIDDEN
 62
     7
370
     0
100
AcDbPolyline
 90
        2
 70
   128
 43
0.0
 10
236.2135231247
 20
114.9977205949
 10
236.2135231247
 20
114.9977205949
  0
LINE
  5
156
330
1F
100
AcDbEntity
  8
0
  6
HIDDEN
 62
     7
370
     0
100
AcDbLine
 10
49.5135273536
 20
92.2327202441
 30
0.0
 11
49.5135273536
 21
89.3527821334
 31
0.0
  0
LWPOLYLINE
  5
157
330
1F
100
AcDbEntity
  8
0
  6
HIDDEN
 62
     7
370
     0
100
AcDbPolyline
 90
        2
 70
   128
 43
0.0
 10
236.7135315886
 20
115.4977206768
 10
236.7135315886
 20
115.4977206768
  0
LWPOLYLINE
  5
158
330
1F
100
AcDbEntity
  8
0
  6
HIDDEN
 62
     7
370
     0
100
AcDbPolyline
 90
        2
 70
   128
 43
0.0
 10
239.5635276785
 20
115.4977206768
 10
239.5635276785
 20
115.4977206768
  0
SPLINE
  5
159
330
1F
100
AcDbEntity
  8
0
  6
HIDDEN
 62
     7
370
     0
100
AcDbSpline
210
0.0
220
0.0
230
1.0
 70
    24
 71
     3
 72
     8
 73
     4
 74
     0
 42
0.00000001
 43
0.00000001
 40
0.0
 40
0.0
 40
0.0
 40
0.0
 40
1.0
 40
1.0
 40
1.0
 40
1.0
 10
239.563528203012
 20
115.4977207900966
 30
0.0
 10
239.8039474068248
 20
115.7381399939094
 30
0.0
 10
240.0376104538454
 20
115.97180304093
 30
0.0
 10
240.263528203012
 20
116.1977207900965
 30
0.0
  0
LINE
  5
15A
330
1F
100
AcDbEntity
  8
0
  6
HIDDEN
 62
     7
370
     0
100
AcDbLine
 10
240.2635246267
 20
116.1977208847
 30
0.0
 11
240.2635246267
 21
122.0227212342
 31
0.0
  0
LINE
  5
15B
330
1F
100
AcDbEntity
  8
0
  6
HIDDEN
 62
     7
370
     0
100
AcDbLine
 10
239.7135227671
 20
115.6477208877
 30
0.0
 11
239.5635276785
 21
115.4977206768
 31
0.0
  0
LWPOLYLINE
  5
15C
330
1F
100
AcDbEntity
  8
0
  6
HIDDEN
 62
     7
370
     0
100
AcDbPolyline
 90
        2
 70
   128
 43
0.0
 10
236.7135315886
 20
104.9477209033
 10
236.7135315886
 20
104.9477209033
  0
LINE
  5
15D
330
1F
100
AcDbEntity
  8
0
  6
HIDDEN
 62
     7
370
     0
100
AcDbLine
 10
239.5635276785
 20
104.9477209033
 30
0.0
 11
239.7135227671
 21
104.7977206925
 31
0.0
  0
LINE
  5
15E
330
1F
100
AcDbEntity
  8
0
  6
HIDDEN
 62
     7
370
     0
100
AcDbLine
 10
240.2635246267
 20
98.422720346
 30
0.0
 11
240.2635246267
 21
104.2477206955
 31
0.0
  0
SPLINE
  5
15F
330
1F
100
AcDbEntity
  8
0
  6
HIDDEN
 62
     7
370
     0
100
AcDbSpline
210
0.0
220
0.0
230
1.0
 70
    24
 71
     3
 72
     8
 73
     4
 74
     0
 42
0.00000001
 43
0.00000001
 40
0.0
 40
0.0
 40
0.0
 40
0.0
 40
1.0
 40
1.0
 40
1.0
 40
1.0
 10
240.263528203012
 20
104.2477207900966
 30
0.0
 10
240.0376104538454
 20
104.4736385392631
 30
0.0
 10
239.8039474068248
 20
104.7073015862837
 30
0.0
 10
239.563528203012
 20
104.9477207900965
 30
0.0
  0
LWPOLYLINE
  5
160
330
1F
100
AcDbEntity
  8
0
  6
HIDDEN
 62
     7
370
     0
100
AcDbPolyline
 90
        2
 70
   128
 43
0.0
 10
239.5635276785
 20
104.9477209033
 10
239.5635276785
 20
104.9477209033
  0
LINE
  5
161
330
1F
100
AcDbEntity
  8
0
  6
HIDDEN
 62
     7
370
     0
100
AcDbLine
 10
58.4635279825
 20
92.2327202441
 30
0.0
 11
58.4635279825
 21
88.2589828851
 31
0.0
  0
LWPOLYLINE
  5
162
330
1F
100
AcDbEntity
  8
0
  6
HIDDEN
 62
     7
370
     0
100
AcDbPolyline
 90
        2
 70
   128
 43
0.0
 10
240.2635246267
 20
104.2477206955
 10
240.2635246267
 20
104.2477206955
  0
LWPOLYLINE
  5
163
330
1F
100
AcDbEntity
  8
0
  6
HIDDEN
 62
     7
370
     0
100
AcDbPolyline
 90
        2
 70
   128
 43
0.0
 10
240.2635246267
 20
116.1977208847
 10
240.2635246267
 20
116.1977208847
  0
SPLINE
  5
164
330
1F
100
AcDbEntity
  8
0
  6
HIDDEN
 62
     7
370
     0
100
AcDbSpline
210
0.0
220
0.0
230
1.0
 70
     8
 71
     3
 72
    23
 73
    19
 74
     0
 42
0.00000001
 43
0.00000001
 40
0.0001662950200273
 40
0.0001662950200273
 40
0.0001662950200273
 40
0.0001662950200273
 40
0.0001888869641777
 40
0.0001888869641777
 40
0.0001888869641777
 40
0.0002202292132408
 40
0.0002202292132408
 40
0.0002202292132408
 40
0.0002508744951465
 40
0.0002508744951465
 40
0.0002508744951465
 40
0.0002827639243138
 40
0.0002827639243138
 40
0.0002827639243138
 40
0.0003169268929599
 40
0.0003169268929599
 40
0.0003169268929599
 40
0.0003258677376186
 40
0.0003258677376186
 40
0.0003258677376186
 40
0.0003258677376186
 10
217.613528203012
 20
100.4142741750611
 30
0.0
 10
217.613528203012
 20
100.4067314774337
 30
0.0
 10
217.6126801168627
 20
100.3991313717844
 30
0.0
 10
217.6109958782427
 20
100.3918143139406
 30
0.0
 10
217.6086582049129
 20
100.3816584543309
 30
0.0
 10
217.6046256744043
 20
100.3718110401563
 30
0.0
 10
217.5992548806401
 20
100.3631089201914
 30
0.0
 10
217.5939961167274
 20
100.3545883184993
 30
0.0
 10
217.5873257958387
 20
100.3469353797398
 30
0.0
 10
217.5798022411027
 20
100.3406667431067
 30
0.0
 10
217.5719719309299
 20
100.3341425174021
 30
0.0
 10
217.5630255985459
 20
100.3289448910038
 30
0.0
 10
217.5536463582878
 20
100.3253467892723
 30
0.0
 10
217.5436049192725
 20
100.3214946522001
 30
0.0
 10
217.532814636091
 20
100.3193730067245
 30
0.0
 10
217.522071502506
 20
100.3190464564408
 30
0.0
 10
217.5192274995504
 20
100.3189600095988
 30
0.0
 10
217.5163750529863
 20
100.3189964118649
 30
0.0
 10
217.513528203012
 20
100.319154513244
 30
0.0
  0
LINE
  5
165
330
1F
100
AcDbEntity
  8
0
  6
HIDDEN
 62
     7
370
     0
100
AcDbLine
 10
217.6135211935
 20
113.8135516247
 30
0.0
 11
217.6135211935
 21
100.4142745094
 31
0.0
  0
SPLINE
  5
166
330
1F
100
AcDbEntity
  8
0
  6
HIDDEN
 62
     7
370
     0
100
AcDbSpline
210
0.0
220
0.0
230
1.0
 70
     8
 71
     3
 72
    20
 73
    16
 74
     0
 42
0.00000001
 43
0.00000001
 40
0.0000002019816303
 40
0.0000002019816303
 40
0.0000002019816303
 40
0.0000002019816303
 40
0.000034327889285
 40
0.000034327889285
 40
0.000034327889285
 40
0.0000687102723353
 40
0.0000687102723353
 40
0.0000687102723353
 40
0.0001022735979612
 40
0.0001022735979612
 40
0.0001022735979612
 40
0.0001347629901447
 40
0.0001347629901447
 40
0.0001347629901447
 40
0.000157867876241
 40
0.000157867876241
 40
0.000157867876241
 40
0.000157867876241
 10
216.613528203012
 20
100.3282463219906
 30
0.0
 10
216.6024183945943
 20
100.3278533316445
 30
0.0
 10
216.5911171941362
 20
100.3293604535566
 30
0.0
 10
216.5805388815909
 20
100.3326958274037
 30
0.0
 10
216.5698881588478
 20
100.3360540324045
 30
0.0
 10
216.5596725712903
 20
100.3413679846016
 30
0.0
 10
216.550799328636
 20
100.348237160609
 30
0.0
 10
216.5421367603574
 20
100.3549432441121
 30
0.0
 10
216.5345080896957
 20
100.3633288882417
 30
0.0
 10
216.5286044961724
 20
100.3726865309497
 30
0.0
 10
216.5228854908068
 20
100.3817515874522
 30
0.0
 10
216.5186253461996
 20
100.3919813529072
 30
0.0
 10
216.5161649049197
 20
100.402507051364
 30
0.0
 10
216.5144119582536
 20
100.4100061078013
 30
0.0
 10
216.513528203012
 20
100.4177783923305
 30
0.0
 10
216.513528203012
 20
100.425495417574
 30
0.0
  0
LINE
  5
167
330
1F
100
AcDbEntity
  8
0
  6
HIDDEN
 62
     7
370
     0
100
AcDbLine
 10
216.5135323753
 20
113.7465606606
 30
0.0
 11
216.5135323753
 21
100.4254950838
 31
0.0
  0
LINE
  5
168
330
1F
100
AcDbEntity
  8
0
  6
HIDDEN
 62
     7
370
     0
100
AcDbLine
 10
48.3635283759
 20
92.2327202441
 30
0.0
 11
48.3635283759
 21
90.5320432665
 31
0.0
  0
LINE
  5
169
330
1F
100
AcDbEntity
  8
0
  6
HIDDEN
 62
     7
370
     0
100
AcDbLine
 10
49.5135273536
 20
128.2127213361
 30
0.0
 11
49.5135273536
 21
131.0926594468
 31
0.0
  0
LINE
  5
16A
330
1F
100
AcDbEntity
  8
0
  6
HIDDEN
 62
     7
370
     0
100
AcDbLine
 10
48.3635283759
 20
128.2127213361
 30
0.0
 11
48.3635283759
 21
129.9133983137
 31
0.0
  0
LINE
  5
16B
330
1F
100
AcDbEntity
  8
0
  6
HIDDEN
 62
     7
370
     0
100
AcDbLine
 10
54.4635273268
 20
128.2127213361
 30
0.0
 11
54.4635273268
 21
132.0668284478
 31
0.0
  0
LINE
  5
16C
330
1F
100
AcDbEntity
  8
0
  6
HIDDEN
 62
     7
370
     0
100
AcDbLine
 10
210.2635234346
 20
100.7727210106
 30
0.0
 11
210.2635234346
 21
119.6727205696
 31
0.0
  0
LWPOLYLINE
  5
16D
330
1F
100
AcDbEntity
  8
0
  6
HIDDEN
 62
     7
370
     0
100
AcDbPolyline
 90
        2
 70
   128
 43
0.0
 10
210.2635234346
 20
119.6727205696
 10
210.2635234346
 20
119.6727205696
  0
LINE
  5
16E
330
1F
100
AcDbEntity
  8
0
  6
HIDDEN
 62
     7
370
     0
100
AcDbLine
 10
212.2635274878
 20
100.7227210956
 30
0.0
 11
212.2635274878
 21
119.7227204846
 31
0.0
  0
LINE
  5
16F
330
1F
100
AcDbEntity
  8
0
  6
HIDDEN
 62
     7
370
     0
100
AcDbLine
 10
102.0635284235
 20
119.7227204846
 30
0.0
 11
102.0635284235
 21
100.7227210956
 31
0.0
  0
LINE
  5
170
330
1F
100
AcDbEntity
  8
0
  6
HIDDEN
 62
     7
370
     0
100
AcDbLine
 10
99.0635279318
 20
119.7227204846
 30
0.0
 11
99.0635279318
 21
100.7227210956
 31
0.0
  0
SPLINE
  5
171
330
1F
100
AcDbEntity
  8
0
  6
HIDDEN
 62
     7
370
     0
100
AcDbSpline
210
0.0
220
0.0
230
1.0
 70
    11
 71
     3
 72
    22
 73
    18
 74
     0
 42
0.00000001
 43
0.00000001
 40
0.0
 40
0.0
 40
0.0
 40
0.0
 40
0.125
 40
0.125
 40
0.25
 40
0.25
 40
0.375
 40
0.375
 40
0.5
 40
0.5
 40
0.625
 40
0.625
 40
0.75
 40
0.75
 40
0.875
 40
0.875
 40
1.0
 40
1.0
 40
1.0
 40
1.0
 10
217.613528203012
 20
100.8445546580641
 30
0.0
 10
217.7623088215949
 20
100.8342426844099
 30
0.0
 10
217.8980628627244
 20
100.8213444952684
 30
0.0
 10
218.1443979588981
 20
100.793671284069
 30
0.0
 10
218.2519997518776
 20
100.7792013402875
 30
0.0
 10
218.428225290287
 20
100.7535477415058
 30
0.0
 10
218.4974627798933
 20
100.7422991444707
 30
0.0
 10
218.5895383867134
 20
100.7269665593785
 30
0.0
 10
218.6134927411374
 20
100.7227269492641
 30
0.0
 10
218.6135635839164
 20
100.7227146449923
 30
0.0
 10
218.5897723878138
 20
100.7269265842028
 30
0.0
 10
218.4976553245725
 20
100.742268085864
 30
0.0
 10
218.4287864882563
 20
100.7534623888384
 30
0.0
 10
218.2522373673321
 20
100.7791703911458
 30
0.0
 10
218.1453767838441
 20
100.7935533584927
 30
0.0
 10
217.8983105973873
 20
100.8213245900613
 30
0.0
 10
217.7623078145385
 20
100.8342427542089
 30
0.0
 10
217.613528203012
 20
100.8445546580641
 30
0.0
  0
LINE
  5
172
330
1F
100
AcDbEntity
  8
0
  6
HIDDEN
 62
     7
370
     0
100
AcDbLine
 10
217.6135211935
 20
100.8445548521
 30
0.0
 11
217.6135211935
 21
113.5984112205
 31
0.0
  0
SPLINE
  5
173
330
1F
100
AcDbEntity
  8
0
  6
HIDDEN
 62
     7
370
     0
100
AcDbSpline
210
0.0
220
0.0
230
1.0
 70
     8
 71
     3
 72
    22
 73
    18
 74
     0
 42
0.00000001
 43
0.00000001
 40
0.0
 40
0.0
 40
0.0
 40
0.0
 40
0.1249999999999999
 40
0.1249999999999999
 40
0.2499999999999999
 40
0.2499999999999999
 40
0.3749999999999998
 40
0.3749999999999998
 40
0.4999999999999998
 40
0.4999999999999998
 40
0.6249999999999998
 40
0.6249999999999998
 40
0.7499999999999997
 40
0.7499999999999997
 40
0.8749999999999998
 40
0.8749999999999998
 40
1.0
 40
1.0
 40
1.0
 40
1.0
 10
217.613528203012
 20
116.2251964097691
 30
0.0
 10
217.7623088215949
 20
116.1751285784337
 30
0.0
 10
217.8980628627244
 20
116.109230638076
 30
0.0
 10
218.1443979588981
 20
115.9448909881502
 30
0.0
 10
218.2519997518776
 20
115.8477595084618
 30
0.0
 10
218.428225290287
 20
115.6296383125623
 30
0.0
 10
218.4974627798933
 20
115.5072585807966
 30
0.0
 10
218.5895383867133
 20
115.250019584031
 30
0.0
 10
218.6134927411374
 20
115.1115105831933
 30
0.0
 10
218.6135635839164
 20
114.8345640796681
 30
0.0
 10
218.5897723878138
 20
114.6920857257537
 30
0.0
 10
218.4976553245725
 20
114.4189588511296
 30
0.0
 10
218.4287864882563
 20
114.285865246283
 30
0.0
 10
218.2522373673321
 20
114.0414181074238
 30
0.0
 10
218.1453767838441
 20
113.930455273622
 30
0.0
 10
217.8983105973873
 20
113.7376885945067
 30
0.0
 10
217.7623078145385
 20
113.6587906987511
 30
0.0
 10
217.613528203012
 20
113.5984113024563
 30
0.0
  0
LINE
  5
174
330
1F
100
AcDbEntity
  8
0
  6
HIDDEN
 62
     7
370
     0
100
AcDbLine
 10
217.6135211935
 20
116.2251962977
 30
0.0
 11
217.6135211935
 21
119.6918611111
 31
0.0
  0
SPLINE
  5
175
330
1F
100
AcDbEntity
  8
0
  6
HIDDEN
 62
     7
370
     0
100
AcDbSpline
210
0.0
220
0.0
230
1.0
 70
     8
 71
     3
 72
    20
 73
    16
 74
     0
 42
0.00000001
 43
0.00000001
 40
0.0
 40
0.0
 40
0.0
 40
0.0
 40
0.1250000000000052
 40
0.1250000000000052
 40
0.2500000000000104
 40
0.2500000000000104
 40
0.500000000000021
 40
0.500000000000021
 40
0.6250000000000158
 40
0.6250000000000158
 40
0.7500000000000104
 40
0.7500000000000104
 40
0.8750000000000052
 40
0.8750000000000052
 40
1.0
 40
1.0
 40
1.0
 40
1.0
 10
224.471793548077
 20
119.6325916972424
 30
0.0
 10
224.3712479352253
 20
119.6143386746741
 30
0.0
 10
224.257726427833
 20
119.5952637598939
 30
0.0
 10
224.0054815723513
 20
119.5583718952554
 30
0.0
 10
223.8651760554094
 20
119.5404374474574
 30
0.0
 10
223.4251774409039
 20
119.4952685833773
 30
0.0
 10
223.0950625122377
 20
119.4763151312273
 30
0.0
 10
222.6011847512385
 20
119.4761933114983
 30
0.0
 10
222.4341649270779
 20
119.4807171314395
 30
0.0
 10
222.1144454136627
 20
119.4975967761254
 30
0.0
 10
221.9582018418438
 20
119.5100453104253
 30
0.0
 10
221.66233972891
 20
119.5403633166911
 30
0.0
 10
221.5251332750065
 20
119.5578903594567
 30
0.0
 10
221.2715706521288
 20
119.5948980304519
 30
0.0
 10
221.1558084609426
 20
119.6143386764634
 30
0.0
 10
221.0552628579468
 20
119.6325916972424
 30
0.0
  0
SPLINE
  5
176
330
1F
100
AcDbEntity
  8
0
  6
HIDDEN
 62
     7
370
     0
100
AcDbSpline
210
0.0
220
0.0
230
1.0
 70
     8
 71
     3
 72
    14
 73
    10
 74
     0
 42
0.00000001
 43
0.00000001
 40
0.0
 40
0.0
 40
0.0
 40
0.0
 40
0.25
 40
0.25
 40
0.5
 40
0.5
 40
0.75
 40
0.75
 40
1.0
 40
1.0
 40
1.0
 40
1.0
 10
221.0552628579464
 20
119.6325916972427
 30
0.0
 10
220.9659609947166
 20
119.6443371880763
 30
0.0
 10
220.8845843867695
 20
119.6558962430973
 30
0.0
 10
220.7391006893645
 20
119.6775432904316
 30
0.0
 10
220.6753533510548
 20
119.6875850810369
 30
0.0
 10
220.5724373979486
 20
119.7042333170725
 30
0.0
 10
220.5323836104314
 20
119.710971546638
 30
0.0
 10
220.4775520019408
 20
119.7202820924981
 30
0.0
 10
220.4635282030119
 20
119.7227207900965
 30
0.0
 10
220.4635282030119
 20
119.7227207900965
 30
0.0
  0
SPLINE
  5
177
330
1F
100
AcDbEntity
  8
0
  6
HIDDEN
 62
     7
370
     0
100
AcDbSpline
210
0.0
220
0.0
230
1.0
 70
     8
 71
     3
 72
    14
 73
    10
 74
     0
 42
0.00000001
 43
0.00000001
 40
0.0
 40
0.0
 40
0.0
 40
0.0
 40
0.25
 40
0.25
 40
0.5
 40
0.5
 40
0.75
 40
0.75
 40
1.0
 40
1.0
 40
1.0
 40
1.0
 10
220.4635282030119
 20
119.7227207900965
 30
0.0
 10
220.4635282030119
 20
119.7227207900965
 30
0.0
 10
220.4773802255904
 20
119.7203117505721
 30
0.0
 10
220.5320226691457
 20
119.7110323501204
 30
0.0
 10
220.5720978190597
 20
119.7042880426931
 30
0.0
 10
220.6758098561747
 20
119.6875114410356
 30
0.0
 10
220.7396043559064
 20
119.6774681249675
 30
0.0
 10
220.88416908661
 20
119.655958260343
 30
0.0
 10
220.96573929311
 20
119.644366347537
 30
0.0
 10
221.0552628579468
 20
119.6325916972424
 30
0.0
  0
SPLINE
  5
178
330
1F
100
AcDbEntity
  8
0
  6
HIDDEN
 62
     7
370
     0
100
AcDbSpline
210
0.0
220
0.0
230
1.0
 70
     8
 71
     3
 72
    20
 73
    16
 74
     0
 42
0.00000001
 43
0.00000001
 40
0.0
 40
0.0
 40
0.0
 40
0.0
 40
0.1250000000000052
 40
0.1250000000000052
 40
0.2500000000000104
 40
0.2500000000000104
 40
0.500000000000021
 40
0.500000000000021
 40
0.6250000000000158
 40
0.6250000000000158
 40
0.7500000000000104
 40
0.7500000000000104
 40
0.8750000000000052
 40
0.8750000000000052
 40
1.0
 40
1.0
 40
1.0
 40
1.0
 10
221.0552628579468
 20
119.6325916972424
 30
0.0
 10
221.1558084707986
 20
119.6143386746741
 30
0.0
 10
221.2693299781908
 20
119.5952637598939
 30
0.0
 10
221.5215748336725
 20
119.5583718952554
 30
0.0
 10
221.6618803506145
 20
119.5404374474574
 30
0.0
 10
222.10187896512
 20
119.4952685833773
 30
0.0
 10
222.4319938937861
 20
119.4763151312273
 30
0.0
 10
222.9258716547853
 20
119.4761933114983
 30
0.0
 10
223.0928914789459
 20
119.4807171314395
 30
0.0
 10
223.412610992361
 20
119.4975967761254
 30
0.0
 10
223.56885456418
 20
119.5100453104253
 30
0.0
 10
223.8647166771138
 20
119.5403633166911
 30
0.0
 10
224.0019231310174
 20
119.5578903594567
 30
0.0
 10
224.2554857538951
 20
119.5948980304519
 30
0.0
 10
224.3712479450813
 20
119.6143386764634
 30
0.0
 10
224.471793548077
 20
119.6325916972424
 30
0.0
  0
SPLINE
  5
179
330
1F
100
AcDbEntity
  8
0
  6
HIDDEN
 62
     7
370
     0
100
AcDbSpline
210
0.0
220
0.0
230
1.0
 70
     8
 71
     3
 72
    14
 73
    10
 74
     0
 42
0.00000001
 43
0.00000001
 40
0.0
 40
0.0
 40
0.0
 40
0.0
 40
0.25
 40
0.25
 40
0.5
 40
0.5
 40
0.75
 40
0.75
 40
1.0
 40
1.0
 40
1.0
 40
1.0
 10
224.4717935480774
 20
119.6325916972427
 30
0.0
 10
224.5610954113072
 20
119.6443371880763
 30
0.0
 10
224.6424720192543
 20
119.6558962430973
 30
0.0
 10
224.7879557166592
 20
119.6775432904316
 30
0.0
 10
224.8517030549691
 20
119.6875850810369
 30
0.0
 10
224.9546190080751
 20
119.7042333170725
 30
0.0
 10
224.9946727955925
 20
119.710971546638
 30
0.0
 10
225.0495044040831
 20
119.7202820924981
 30
0.0
 10
225.0635282030119
 20
119.7227207900965
 30
0.0
 10
225.0635282030119
 20
119.7227207900965
 30
0.0
  0
SPLINE
  5
17A
330
1F
100
AcDbEntity
  8
0
  6
HIDDEN
 62
     7
370
     0
100
AcDbSpline
210
0.0
220
0.0
230
1.0
 70
     8
 71
     3
 72
    14
 73
    10
 74
     0
 42
0.00000001
 43
0.00000001
 40
0.0
 40
0.0
 40
0.0
 40
0.0
 40
0.25
 40
0.25
 40
0.5
 40
0.5
 40
0.75
 40
0.75
 40
1.0
 40
1.0
 40
1.0
 40
1.0
 10
225.0635282030119
 20
119.7227207900965
 30
0.0
 10
225.0635282030119
 20
119.7227207900965
 30
0.0
 10
225.0496761804335
 20
119.7203117505721
 30
0.0
 10
224.995033736878
 20
119.7110323501204
 30
0.0
 10
224.9549585869641
 20
119.7042880426931
 30
0.0
 10
224.8512465498491
 20
119.6875114410356
 30
0.0
 10
224.7874520501174
 20
119.6774681249675
 30
0.0
 10
224.6428873194138
 20
119.655958260343
 30
0.0
 10
224.5613171129139
 20
119.644366347537
 30
0.0
 10
224.471793548077
 20
119.6325916972424
 30
0.0
  0
SPLINE
  5
17B
330
1F
100
AcDbEntity
  8
0
  6
HIDDEN
 62
     7
370
     0
100
AcDbSpline
210
0.0
220
0.0
230
1.0
 70
     8
 71
     3
 72
    14
 73
    10
 74
     0
 42
0.00000001
 43
0.00000001
 40
0.0
 40
0.0
 40
0.0
 40
0.0
 40
0.2499999999999996
 40
0.2499999999999996
 40
0.4999999999999991
 40
0.4999999999999991
 40
0.7499999999999996
 40
0.7499999999999996
 40
1.0
 40
1.0
 40
1.0
 40
1.0
 10
224.4717935480772
 20
104.3871894170471
 30
0.0
 10
224.5599060633267
 20
104.4537360957588
 30
0.0
 10
224.6408752867686
 20
104.5266473719574
 30
0.0
 10
224.7866195245497
 20
104.6875543548607
 30
0.0
 10
224.8505235428901
 20
104.7750286049738
 30
0.0
 10
224.9541976740736
 20
104.959023541974
 30
0.0
 10
224.9950466556572
 20
105.0574042432803
 30
0.0
 10
225.0498007692196
 20
105.2618571585951
 30
0.0
 10
225.0635282030119
 20
105.3661971696805
 30
0.0
 10
225.0635282030119
 20
105.4727207900965
 30
0.0
  0
SPLINE
  5
17C
330
1F
100
AcDbEntity
  8
0
  6
HIDDEN
 62
     7
370
     0
100
AcDbSpline
210
0.0
220
0.0
230
1.0
 70
     8
 71
     3
 72
    14
 73
    10
 74
     0
 42
0.00000001
 43
0.00000001
 40
0.0
 40
0.0
 40
0.0
 40
0.0
 40
0.25
 40
0.25
 40
0.5
 40
0.5
 40
0.75
 40
0.75
 40
1.0
 40
1.0
 40
1.0
 40
1.0
 10
225.0635282030119
 20
105.4727207900965
 30
0.0
 10
225.0635282030118
 20
105.5787984411885
 30
0.0
 10
225.0493785870969
 20
105.6878793531846
 30
0.0
 10
224.9950656977929
 20
105.8993883963802
 30
0.0
 10
224.9549088445573
 20
106.0034836242434
 30
0.0
 10
224.850500680576
 20
106.2058958522274
 30
0.0
 10
224.7876516509391
 20
106.3017302266595
 30
0.0
 10
224.6429691324037
 20
106.4834682216828
 30
0.0
 10
224.5604921714535
 20
106.5697257718261
 30
0.0
 10
224.4717935480772
 20
106.648381256
 30
0.0
  0
SPLINE
  5
17D
330
1F
100
AcDbEntity
  8
0
  6
HIDDEN
 62
     7
370
     0
100
AcDbSpline
210
0.0
220
0.0
230
1.0
 70
     8
 71
     3
 72
    20
 73
    16
 74
     0
 42
0.00000001
 43
0.00000001
 40
0.0
 40
0.0
 40
0.0
 40
0.0
 40
0.1249999999999948
 40
0.1249999999999948
 40
0.2499999999999896
 40
0.2499999999999896
 40
0.499999999999979
 40
0.499999999999979
 40
0.6249999999999843
 40
0.6249999999999843
 40
0.7499999999999896
 40
0.7499999999999896
 40
0.8749999999999948
 40
0.8749999999999948
 40
1.0
 40
1.0
 40
1.0
 40
1.0
 10
224.4717935480772
 20
106.648381256
 30
0.0
 10
224.3712479352256
 20
106.771446741683
 30
0.0
 10
224.2577264278332
 20
106.882722276906
 30
0.0
 10
224.0054815723516
 20
107.0813571718396
 30
0.0
 10
223.8651760554095
 20
107.1690890979958
 30
0.0
 10
223.425177440904
 20
107.3805857971406
 30
0.0
 10
223.0950625122378
 20
107.457574479366
 30
0.0
 10
222.6011847512385
 20
107.4580894528336
 30
0.0
 10
222.4341649270779
 20
107.4391840238106
 30
0.0
 10
222.1144454136627
 20
107.3660429073034
 30
0.0
 10
221.9582018418437
 20
107.3113664347876
 30
0.0
 10
221.6623397289099
 20
107.1694653294364
 30
0.0
 10
221.5251332750063
 20
107.083814349818
 30
0.0
 10
221.2715706521286
 20
106.8848239139585
 30
0.0
 10
221.1558084609424
 20
106.7714467296195
 30
0.0
 10
221.0552628579466
 20
106.648381256
 30
0.0
  0
SPLINE
  5
17E
330
1F
100
AcDbEntity
  8
0
  6
HIDDEN
 62
     7
370
     0
100
AcDbSpline
210
0.0
220
0.0
230
1.0
 70
     8
 71
     3
 72
    12
 73
     8
 74
     0
 42
0.00000001
 43
0.00000001
 40
0.0
 40
0.0
 40
0.0
 40
0.0
 40
0.4999999999999882
 40
0.4999999999999882
 40
0.7499999999999941
 40
0.7499999999999941
 40
1.0
 40
1.0
 40
1.0
 40
1.0
 10
221.0552628579466
 20
106.648381256
 30
0.0
 10
220.8756073132836
 20
106.4890676915713
 30
0.0
 10
220.7278339749079
 20
106.3057869641432
 30
0.0
 10
220.5715356613964
 20
106.0020549379536
 30
0.0
 10
220.5318151926288
 20
105.898753561102
 30
0.0
 10
220.4777772111594
 20
105.6882176749304
 30
0.0
 10
220.4635282030119
 20
105.5794405011003
 30
0.0
 10
220.463528203012
 20
105.4727207900965
 30
0.0
  0
SPLINE
  5
17F
330
1F
100
AcDbEntity
  8
0
  6
HIDDEN
 62
     7
370
     0
100
AcDbSpline
210
0.0
220
0.0
230
1.0
 70
     8
 71
     3
 72
    14
 73
    10
 74
     0
 42
0.00000001
 43
0.00000001
 40
0.0
 40
0.0
 40
0.0
 40
0.0
 40
0.25
 40
0.25
 40
0.5
 40
0.5
 40
0.75
 40
0.75
 40
1.0
 40
1.0
 40
1.0
 40
1.0
 10
220.463528203012
 20
105.4727207900965
 30
0.0
 10
220.463528203012
 20
105.3660360083326
 30
0.0
 10
220.4772964143447
 20
105.2618929148614
 30
0.0
 10
220.5316800045158
 20
105.0584484957895
 30
0.0
 10
220.5724802639316
 20
104.9598550190585
 30
0.0
 10
220.6759436841687
 20
104.7759159390276
 30
0.0
 10
220.7395889920739
 20
104.6886426128954
 30
0.0
 10
220.8850455822553
 20
104.5277509487869
 30
0.0
 10
220.9662820210465
 20
104.4543918927446
 30
0.0
 10
221.0552628579466
 20
104.3871894170471
 30
0.0
  0
SPLINE
  5
180
330
1F
100
AcDbEntity
  8
0
  6
HIDDEN
 62
     7
370
     0
100
AcDbSpline
210
0.0
220
0.0
230
1.0
 70
     8
 71
     3
 72
    20
 73
    16
 74
     0
 42
0.00000001
 43
0.00000001
 40
0.0
 40
0.0
 40
0.0
 40
0.0
 40
0.1250000000000052
 40
0.1250000000000052
 40
0.2500000000000104
 40
0.2500000000000104
 40
0.500000000000021
 40
0.500000000000021
 40
0.6250000000000158
 40
0.6250000000000158
 40
0.7500000000000104
 40
0.7500000000000104
 40
0.8750000000000052
 40
0.8750000000000052
 40
1.0
 40
1.0
 40
1.0
 40
1.0
 10
221.0552628579466
 20
104.3871894170471
 30
0.0
 10
221.1558084707983
 20
104.2823769539324
 30
0.0
 10
221.2693299781907
 20
104.1901763334896
 30
0.0
 10
221.5215748336723
 20
104.0284333031945
 30
0.0
 10
221.6618803506143
 20
103.9586358248364
 30
0.0
 10
222.1018789651199
 20
103.7923079897715
 30
0.0
 10
222.4319938937861
 20
103.7342727596963
 30
0.0
 10
222.9258716547853
 20
103.7338796059576
 30
0.0
 10
223.0928914789459
 20
103.7482612150393
 30
0.0
 10
223.4126109923612
 20
103.8045226868607
 30
0.0
 10
223.5688545641802
 20
103.8467506250766
 30
0.0
 10
223.864716677114
 20
103.9583337241621
 30
0.0
 10
224.0019231310177
 20
104.0264576610148
 30
0.0
 10
224.2554857538952
 20
104.1884404258791
 30
0.0
 10
224.3712479450814
 20
104.2823769642066
 30
0.0
 10
224.4717935480772
 20
104.3871894170471
 30
0.0
  0
SPLINE
  5
181
330
1F
100
AcDbEntity
  8
0
  6
HIDDEN
 62
     7
370
     0
100
AcDbSpline
210
0.0
220
0.0
230
1.0
 70
     8
 71
     3
 72
    20
 73
    16
 74
     0
 42
0.00000001
 43
0.00000001
 40
0.0
 40
0.0
 40
0.0
 40
0.0
 40
0.125
 40
0.125
 40
0.25
 40
0.25
 40
0.5
 40
0.5
 40
0.625
 40
0.625
 40
0.75
 40
0.75
 40
0.875
 40
0.875
 40
1.0
 40
1.0
 40
1.0
 40
1.0
 10
224.4717935480772
 20
104.3871894170472
 30
0.0
 10
224.3712479352255
 20
104.2823769539325
 30
0.0
 10
224.2577264278331
 20
104.1901763334897
 30
0.0
 10
224.0054815723515
 20
104.0284333031946
 30
0.0
 10
223.8651760554096
 20
103.9586358248365
 30
0.0
 10
223.425177440904
 20
103.7923079897716
 30
0.0
 10
223.0950625122377
 20
103.7342727596964
 30
0.0
 10
222.6011847512385
 20
103.7338796059577
 30
0.0
 10
222.4341649270779
 20
103.7482612150394
 30
0.0
 10
222.1144454136627
 20
103.8045226868608
 30
0.0
 10
221.9582018418437
 20
103.8467506250767
 30
0.0
 10
221.6623397289099
 20
103.9583337241622
 30
0.0
 10
221.5251332750062
 20
104.0264576610149
 30
0.0
 10
221.2715706521286
 20
104.1884404258792
 30
0.0
 10
221.1558084609424
 20
104.2823769642067
 30
0.0
 10
221.0552628579466
 20
104.3871894170472
 30
0.0
  0
SPLINE
  5
182
330
1F
100
AcDbEntity
  8
0
  6
HIDDEN
 62
     7
370
     0
100
AcDbSpline
210
0.0
220
0.0
230
1.0
 70
     8
 71
     3
 72
    14
 73
    10
 74
     0
 42
0.00000001
 43
0.00000001
 40
0.0
 40
0.0
 40
0.0
 40
0.0
 40
0.25
 40
0.25
 40
0.5
 40
0.5
 40
0.75
 40
0.75
 40
1.0
 40
1.0
 40
1.0
 40
1.0
 10
221.0552628579466
 20
104.3871894170472
 30
0.0
 10
220.9662384394755
 20
104.4544248075785
 30
0.0
 10
220.8838856112116
 20
104.5289404541866
 30
0.0
 10
220.7395106051968
 20
104.6888236789049
 30
0.0
 10
220.6765501624071
 20
104.7748216531109
 30
0.0
 10
220.5717773772515
 20
104.9611207163915
 30
0.0
 10
220.5319349751758
 20
105.0579780727291
 30
0.0
 10
220.4777875460435
 20
105.2595788620144
 30
0.0
 10
220.463528203012
 20
105.3657806281124
 30
0.0
 10
220.463528203012
 20
105.4727207900966
 30
0.0
  0
SPLINE
  5
183
330
1F
100
AcDbEntity
  8
0
  6
HIDDEN
 62
     7
370
     0
100
AcDbSpline
210
0.0
220
0.0
230
1.0
 70
     8
 71
     3
 72
    12
 73
     8
 74
     0
 42
0.00000001
 43
0.00000001
 40
0.0
 40
0.0
 40
0.0
 40
0.0
 40
0.2500000000000003
 40
0.2500000000000003
 40
0.5000000000000007
 40
0.5000000000000007
 40
1.0
 40
1.0
 40
1.0
 40
1.0
 10
220.463528203012
 20
105.4727207900966
 30
0.0
 10
220.463528203012
 20
105.5794907351138
 30
0.0
 10
220.4773178339147
 20
105.6860132942577
 30
0.0
 10
220.5316377654296
 20
105.8984720825153
 30
0.0
 10
220.5724559816243
 20
106.0040210141676
 30
0.0
 10
220.7275981286499
 20
106.3049706100389
 30
0.0
 10
220.8771733675075
 20
106.4904564251113
 30
0.0
 10
221.0552628579467
 20
106.6483812560001
 30
0.0
  0
SPLINE
  5
184
330
1F
100
AcDbEntity
  8
0
  6
HIDDEN
 62
     7
370
     0
100
AcDbSpline
210
0.0
220
0.0
230
1.0
 70
     8
 71
     3
 72
    20
 73
    16
 74
     0
 42
0.00000001
 43
0.00000001
 40
0.0
 40
0.0
 40
0.0
 40
0.0
 40
0.1249999999999876
 40
0.1249999999999876
 40
0.2499999999999753
 40
0.2499999999999753
 40
0.4999999999999695
 40
0.4999999999999695
 40
0.6249999999999771
 40
0.6249999999999771
 40
0.7499999999999847
 40
0.7499999999999847
 40
0.8749999999999923
 40
0.8749999999999923
 40
1.0
 40
1.0
 40
1.0
 40
1.0
 10
221.0552628579467
 20
106.6483812560001
 30
0.0
 10
221.1558084707984
 20
106.7714467416831
 30
0.0
 10
221.2693299781907
 20
106.8827222769062
 30
0.0
 10
221.5215748336723
 20
107.0813571718398
 30
0.0
 10
221.6618803506144
 20
107.1690890979959
 30
0.0
 10
222.1018789651199
 20
107.3805857971408
 30
0.0
 10
222.4319938937861
 20
107.4575744793661
 30
0.0
 10
222.9258716547853
 20
107.4580894528337
 30
0.0
 10
223.0928914789459
 20
107.4391840238108
 30
0.0
 10
223.4126109923612
 20
107.3660429073035
 30
0.0
 10
223.5688545641801
 20
107.3113664347878
 30
0.0
 10
223.864716677114
 20
107.1694653294365
 30
0.0
 10
224.0019231310176
 20
107.0838143498181
 30
0.0
 10
224.2554857538952
 20
106.8848239139586
 30
0.0
 10
224.3712479450814
 20
106.7714467296196
 30
0.0
 10
224.4717935480772
 20
106.6483812560001
 30
0.0
  0
SPLINE
  5
185
330
1F
100
AcDbEntity
  8
0
  6
HIDDEN
 62
     7
370
     0
100
AcDbSpline
210
0.0
220
0.0
230
1.0
 70
     8
 71
     3
 72
    12
 73
     8
 74
     0
 42
0.00000001
 43
0.00000001
 40
0.0
 40
0.0
 40
0.0
 40
0.0
 40
0.2500000000000005
 40
0.2500000000000005
 40
0.5000000000000003
 40
0.5000000000000003
 40
1.0
 40
1.0
 40
1.0
 40
1.0
 10
224.4717935480772
 20
106.6483812560001
 30
0.0
 10
224.5600346430206
 20
106.5701314953769
 30
0.0
 10
224.6408207301068
 20
106.4858516932117
 30
0.0
 10
224.785840477121
 20
106.304311941046
 30
0.0
 10
224.8502391012012
 20
106.2062289751188
 30
0.0
 10
225.0060771934901
 20
105.9046308303591
 30
0.0
 10
225.0635282030118
 20
105.6854080589693
 30
0.0
 10
225.0635282030119
 20
105.4727207900966
 30
0.0
  0
SPLINE
  5
186
330
1F
100
AcDbEntity
  8
0
  6
HIDDEN
 62
     7
370
     0
100
AcDbSpline
210
0.0
220
0.0
230
1.0
 70
     8
 71
     3
 72
    12
 73
     8
 74
     0
 42
0.00000001
 43
0.00000001
 40
0.0
 40
0.0
 40
0.0
 40
0.0
 40
0.2499999999999996
 40
0.2499999999999996
 40
0.4999999999999991
 40
0.4999999999999991
 40
1.0
 40
1.0
 40
1.0
 40
1.0
 10
225.0635282030119
 20
105.4727207900966
 30
0.0
 10
225.0635282030119
 20
105.3668420933317
 30
0.0
 10
225.0494592807236
 20
105.2603494961748
 30
0.0
 10
224.9950268167605
 20
105.0575642526883
 30
0.0
 10
224.9550482471822
 20
104.960724835439
 30
0.0
 10
224.7987121449102
 20
104.6826963569795
 30
0.0
 10
224.6495795486042
 20
104.5214616917973
 30
0.0
 10
224.4717935480772
 20
104.3871894170472
 30
0.0
  0
LINE
  5
187
330
1F
100
AcDbEntity
  8
0
  6
HIDDEN
 62
     7
370
     0
100
AcDbLine
 10
239.5635276785
 20
115.4977206768
 30
0.0
 11
239.5635276785
 21
119.6956236543
 31
0.0
  0
LINE
  5
188
330
1F
100
AcDbEntity
  8
0
  6
HIDDEN
 62
     7
370
     0
100
AcDbLine
 10
239.5635276785
 20
115.4977206768
 30
0.0
 11
236.7135315886
 21
115.4977206768
 31
0.0
  0
SPLINE
  5
189
330
1F
100
AcDbEntity
  8
0
  6
HIDDEN
 62
     7
370
     0
100
AcDbSpline
210
0.0
220
0.0
230
1.0
 70
     8
 71
     3
 72
    10
 73
     6
 74
     0
 42
0.00000001
 43
0.00000001
 40
0.0
 40
0.0
 40
0.0
 40
0.0
 40
0.5
 40
0.5
 40
1.0
 40
1.0
 40
1.0
 40
1.0
 10
236.7135282030119
 20
115.4977207900966
 30
0.0
 10
236.5693679291733
 20
115.4977207900966
 30
0.0
 10
236.4349320647574
 20
115.4326283887435
 30
0.0
 10
236.258874252676
 20
115.242772239909
 30
0.0
 10
236.2135282030119
 20
115.1218771926287
 30
0.0
 10
236.2135282030119
 20
114.9977207900965
 30
0.0
  0
LINE
  5
18A
330
1F
100
AcDbEntity
  8
0
  6
HIDDEN
 62
     7
370
     0
100
AcDbLine
 10
236.2135231247
 20
114.9977205949
 30
0.0
 11
236.2135231247
 21
105.4477209853
 31
0.0
  0
SPLINE
  5
18B
330
1F
100
AcDbEntity
  8
0
  6
HIDDEN
 62
     7
370
     0
100
AcDbSpline
210
0.0
220
0.0
230
1.0
 70
     8
 71
     3
 72
    12
 73
     8
 74
     0
 42
0.00000001
 43
0.00000001
 40
0.0
 40
0.0
 40
0.0
 40
0.0
 40
0.2499999999999839
 40
0.2499999999999839
 40
0.4999999999999678
 40
0.4999999999999678
 40
1.0
 40
1.0
 40
1.0
 40
1.0
 10
236.2135282030119
 20
105.4477207900965
 30
0.0
 10
236.2135282030119
 20
105.3855126412857
 30
0.0
 10
236.2247408080136
 20
105.325598253216
 30
0.0
 10
236.2692438568556
 20
105.2101530075927
 30
0.0
 10
236.3025304870744
 20
105.1557878396099
 30
0.0
 10
236.4335533958705
 20
105.0139120906582
 30
0.0
 10
236.5688498362413
 20
104.9477207900965
 30
0.0
 10
236.713528203012
 20
104.9477207900965
 30
0.0
  0
LINE
  5
18C
330
1F
100
AcDbEntity
  8
0
  6
HIDDEN
 62
     7
370
     0
100
AcDbLine
 10
236.7135315886
 20
104.9477209033
 30
0.0
 11
239.5635276785
 21
104.9477209033
 31
0.0
  0
LINE
  5
18D
330
1F
100
AcDbEntity
  8
0
  6
HIDDEN
 62
     7
370
     0
100
AcDbLine
 10
239.5635276785
 20
104.9477209033
 30
0.0
 11
239.5635276785
 21
100.7498179259
 31
0.0
  0
LINE
  5
18E
330
1F
100
AcDbEntity
  8
0
  6
HIDDEN
 62
     7
370
     0
100
AcDbLine
 10
217.6135211935
 20
113.5984112205
 30
0.0
 11
217.6135211935
 21
100.8445548521
 31
0.0
  0
LINE
  5
18F
330
1F
100
AcDbEntity
  8
0
  6
HIDDEN
 62
     7
370
     0
100
AcDbLine
 10
239.5635276785
 20
104.9477209033
 30
0.0
 11
236.7135315886
 21
104.9477209033
 31
0.0
  0
LINE
  5
190
330
1F
100
AcDbEntity
  8
0
  6
HIDDEN
 62
     7
370
     0
100
AcDbLine
 10
236.7135315886
 20
115.4977206768
 30
0.0
 11
239.5635276785
 21
115.4977206768
 31
0.0
  0
SPLINE
  5
191
330
1F
100
AcDbEntity
  8
0
  6
HIDDEN
 62
     7
370
     0
100
AcDbSpline
210
0.0
220
0.0
230
1.0
 70
     8
 71
     3
 72
    12
 73
     8
 74
     0
 42
0.00000001
 43
0.00000001
 40
0.0
 40
0.0
 40
0.0
 40
0.0
 40
0.2499999999999839
 40
0.2499999999999839
 40
0.4999999999999678
 40
0.4999999999999678
 40
1.0
 40
1.0
 40
1.0
 40
1.0
 10
236.2135282030119
 20
114.9977207900966
 30
0.0
 10
236.2135282030119
 20
115.0599289389074
 30
0.0
 10
236.2247408080136
 20
115.1198433269771
 30
0.0
 10
236.2692438568556
 20
115.2352885726004
 30
0.0
 10
236.3025304870744
 20
115.2896537405832
 30
0.0
 10
236.4335533958705
 20
115.4315294895349
 30
0.0
 10
236.5688498362413
 20
115.4977207900966
 30
0.0
 10
236.713528203012
 20
115.4977207900966
 30
0.0
  0
SPLINE
  5
192
330
1F
100
AcDbEntity
  8
0
  6
HIDDEN
 62
     7
370
     0
100
AcDbSpline
210
0.0
220
0.0
230
1.0
 70
     8
 71
     3
 72
    10
 73
     6
 74
     0
 42
0.00000001
 43
0.00000001
 40
0.0
 40
0.0
 40
0.0
 40
0.0
 40
0.5
 40
0.5
 40
1.0
 40
1.0
 40
1.0
 40
1.0
 10
236.7135282030119
 20
104.9477207900965
 30
0.0
 10
236.5693679291733
 20
104.9477207900965
 30
0.0
 10
236.4349320647574
 20
105.0128131914496
 30
0.0
 10
236.258874252676
 20
105.2026693402841
 30
0.0
 10
236.2135282030119
 20
105.3235643875643
 30
0.0
 10
236.2135282030119
 20
105.4477207900966
 30
0.0
  0
LINE
  5
193
330
1F
100
AcDbEntity
  8
0
  6
HIDDEN
 62
     7
370
     0
100
AcDbLine
 10
236.2135231247
 20
105.4477209853
 30
0.0
 11
236.2135231247
 21
114.9977205949
 31
0.0
  0
SPLINE
  5
194
330
1F
100
AcDbEntity
  8
0
  6
HIDDEN
 62
     7
370
     0
100
AcDbSpline
210
0.0
220
0.0
230
1.0
 70
    11
 71
     3
 72
    18
 73
    14
 74
     0
 42
0.00000001
 43
0.00000001
 40
0.0
 40
0.0
 40
0.0
 40
0.0
 40
0.1249999999999986
 40
0.1249999999999986
 40
0.2499999999999971
 40
0.2499999999999971
 40
0.4999999999999942
 40
0.4999999999999942
 40
0.6249999999999928
 40
0.6249999999999928
 40
0.7499999999999913
 40
0.7499999999999913
 40
1.0
 40
1.0
 40
1.0
 40
1.0
 10
216.513528203012
 20
100.8562913743587
 30
0.0
 10
216.3404916551435
 20
100.8479780200286
 30
0.0
 10
216.1802240910801
 20
100.8355254065114
 30
0.0
 10
215.8846407082615
 20
100.8062527651861
 30
0.0
 10
215.7560981437726
 20
100.7901187895235
 30
0.0
 10
215.4325386986074
 20
100.7450733248427
 30
0.0
 10
215.3138806180688
 20
100.7227819989987
 30
0.0
 10
215.3133531947504
 20
100.7226903939391
 30
0.0
 10
215.3423324542868
 20
100.7278452668573
 30
0.0
 10
215.4554971229884
 20
100.7465114591225
 30
0.0
 10
215.5395533011059
 20
100.7599532687723
 30
0.0
 10
215.8606791850113
 20
100.8047149225052
 30
0.0
 10
216.1674715470599
 20
100.8396654555302
 30
0.0
 10
216.513528203012
 20
100.8562913743587
 30
0.0
  0
LINE
  5
195
330
1F
100
AcDbEntity
  8
0
  6
HIDDEN
 62
     7
370
     0
100
AcDbLine
 10
216.5135323753
 20
116.2807082454
 30
0.0
 11
216.5135323753
 21
119.6923845144
 31
0.0
  0
SPLINE
  5
196
330
1F
100
AcDbEntity
  8
0
  6
HIDDEN
 62
     7
370
     0
100
AcDbSpline
210
0.0
220
0.0
230
1.0
 70
     8
 71
     3
 72
    18
 73
    14
 74
     0
 42
0.00000001
 43
0.00000001
 40
0.0
 40
0.0
 40
0.0
 40
0.0
 40
0.1249999999999987
 40
0.1249999999999987
 40
0.2499999999999973
 40
0.2499999999999973
 40
0.4999999999999943
 40
0.4999999999999943
 40
0.6249999999999928
 40
0.6249999999999928
 40
0.7499999999999912
 40
0.7499999999999912
 40
1.0
 40
1.0
 40
1.0
 40
1.0
 10
216.513528203012
 20
113.5311627894786
 30
0.0
 10
216.3404916551434
 20
113.5777990958545
 30
0.0
 10
216.1802240910801
 20
113.6491418761153
 30
0.0
 10
215.8846407082615
 20
113.8387497488642
 30
0.0
 10
215.7560981437727
 20
113.9529234416041
 30
0.0
 10
215.4325386986075
 20
114.3453869042736
 30
0.0
 10
215.3138806180688
 20
114.6619597704814
 30
0.0
 10
215.3133531947505
 20
115.1259911537627
 30
0.0
 10
215.3423324542868
 20
115.2775417953437
 30
0.0
 10
215.4554971229883
 20
115.5608861995824
 30
0.0
 10
215.5395533011059
 20
115.6921912922166
 30
0.0
 10
215.8606791850113
 20
116.0382361495164
 30
0.0
 10
216.16747154706
 20
116.2040659433319
 30
0.0
 10
216.513528203012
 20
116.2807082064522
 30
0.0
  0
LINE
  5
197
330
1F
100
AcDbEntity
  8
0
  6
HIDDEN
 62
     7
370
     0
100
AcDbLine
 10
216.5135323753
 20
100.8562913792
 30
0.0
 11
216.5135323753
 21
113.5311627457
 31
0.0
  0
LINE
  5
198
330
1F
100
AcDbEntity
  8
0
  6
HIDDEN
 62
     7
370
     0
100
AcDbLine
 10
216.5135323753
 20
113.5311627457
 30
0.0
 11
216.5135323753
 21
100.8562913792
 31
0.0
  0
ARC
  5
199
330
1F
100
AcDbEntity
  8
0
  6
HIDDEN
 62
     7
370
     0
100
AcDbCircle
 10
222.7635264149
 20
105.0404462315
 30
0.0
 40
2.345983531331149
100
AcDbArc
 50
43.2670061318
 51
136.7329938682
  0
LWPOLYLINE
  5
19A
330
1F
100
AcDbEntity
  8
0
  6
HIDDEN
 62
     7
370
     0
100
AcDbPolyline
 90
        2
 70
   128
 43
0.0
 10
106.2135278931
 20
83.8227209331
 10
106.2135278931
 20
83.8227209331
  0
LINE
  5
19B
330
1F
100
AcDbEntity
  8
0
  6
HIDDEN
 62
     7
370
     0
100
AcDbLine
 10
90.7135281464
 20
118.722721252
 30
0.0
 11
90.7135281464
 21
101.7227203282
 31
0.0
  0
LWPOLYLINE
  5
19C
330
1F
100
AcDbEntity
  8
0
  6
HIDDEN
 62
     7
370
     0
100
AcDbPolyline
 90
        2
 70
   128
 43
0.0
 10
90.7135281464
 20
101.7227203282
 10
90.7135281464
 20
101.7227203282
  0
LINE
  5
19D
330
1F
100
AcDbEntity
  8
0
  6
HIDDEN
 62
     7
370
     0
100
AcDbLine
 10
90.2135280644
 20
101.2227211775
 30
0.0
 11
90.2135280644
 21
119.2227204027
 31
0.0
  0
LINE
  5
19E
330
1F
100
AcDbEntity
  8
0
  6
HIDDEN
 62
     7
370
     0
100
AcDbLine
 10
96.4512035003
 20
83.8227209331
 30
0.0
 11
93.2135285562
 21
83.8227209331
 31
0.0
  0
LINE
  5
19F
330
1F
100
AcDbEntity
  8
0
  6
HIDDEN
 62
     7
370
     0
100
AcDbLine
 10
96.3535282513
 20
83.4183257701
 30
0.0
 11
96.3535282513
 21
82.7248834701
 31
0.0
  0
LINE
  5
1A0
330
1F
100
AcDbEntity
  8
0
  6
HIDDEN
 62
     7
370
     0
100
AcDbLine
 10
106.2135278931
 20
83.8227209331
 30
0.0
 11
100.0758532187
 21
83.8227209331
 31
0.0
  0
LINE
  5
1A1
330
1F
100
AcDbEntity
  8
0
  6
HIDDEN
 62
     7
370
     0
100
AcDbLine
 10
100.1735284677
 20
82.7248834701
 30
0.0
 11
100.1735284677
 21
83.4183257701
 31
0.0
  0
LINE
  5
1A2
330
1F
100
AcDbEntity
  8
0
  6
HIDDEN
 62
     7
370
     0
100
AcDbLine
 10
106.2135278931
 20
83.8227209331
 30
0.0
 11
106.2135278931
 21
80.6624435516
 31
0.0
  0
LINE
  5
1A3
330
1F
100
AcDbEntity
  8
0
  6
HIDDEN
 62
     7
370
     0
100
AcDbLine
 10
85.2135281762
 20
78.7385974707
 30
0.0
 11
85.2135281762
 21
83.8227209331
 31
0.0
  0
LINE
  5
1A4
330
1F
100
AcDbEntity
  8
0
  6
HIDDEN
 62
     7
370
     0
100
AcDbLine
 10
93.2135285562
 20
83.8227209331
 30
0.0
 11
85.2135281762
 21
83.8227209331
 31
0.0
  0
LINE
  5
1A5
330
1F
100
AcDbEntity
  8
0
  6
HIDDEN
 62
     7
370
     0
100
AcDbLine
 10
99.0635279318
 20
101.7227203282
 30
0.0
 11
99.0635279318
 21
118.6951578291
 31
0.0
  0
ARC
  5
1A6
330
1F
100
AcDbEntity
  8
0
  6
HIDDEN
 62
     7
370
     0
100
AcDbCircle
 10
222.7635264149
 20
105.9951243787
 30
0.0
 40
2.345983359628543
100
AcDbArc
 50
223.2670016767
 51
316.7329983233
  0
LWPOLYLINE
  5
1A7
330
1F
100
AcDbEntity
  8
0
  6
HIDDEN
 62
     7
370
     0
100
AcDbPolyline
 90
        2
 70
   128
 43
0.0
 10
106.2135278931
 20
136.622720647
 10
106.2135278931
 20
136.622720647
  0
LINE
  5
1A8
330
1F
100
AcDbEntity
  8
0
  6
HIDDEN
 62
     7
370
     0
100
AcDbLine
 10
93.2135285562
 20
136.622720647
 30
0.0
 11
85.2135281762
 21
136.622720647
 31
0.0
  0
LINE
  5
1A9
330
1F
100
AcDbEntity
  8
0
  6
HIDDEN
 62
     7
370
     0
100
AcDbLine
 10
96.747826015
 20
136.622720647
 30
0.0
 11
93.2135285562
 21
136.622720647
 31
0.0
  0
LINE
  5
1AA
330
1F
100
AcDbEntity
  8
0
  6
HIDDEN
 62
     7
370
     0
100
AcDbLine
 10
96.3535282513
 20
137.3423740895
 30
0.0
 11
96.3535282513
 21
138.0279541643
 31
0.0
  0
LINE
  5
1AB
330
1F
100
AcDbEntity
  8
0
  6
HIDDEN
 62
     7
370
     0
100
AcDbLine
 10
106.2135278931
 20
136.622720647
 30
0.0
 11
99.779230704
 21
136.622720647
 31
0.0
  0
LINE
  5
1AC
330
1F
100
AcDbEntity
  8
0
  6
HIDDEN
 62
     7
370
     0
100
AcDbLine
 10
100.1735284677
 20
138.0279541643
 30
0.0
 11
100.1735284677
 21
137.3423740895
 31
0.0
  0
LINE
  5
1AD
330
1F
100
AcDbEntity
  8
0
  6
HIDDEN
 62
     7
370
     0
100
AcDbLine
 10
106.2135278931
 20
136.622720647
 30
0.0
 11
106.2135278931
 21
140.0691617908
 31
0.0
  0
LWPOLYLINE
  5
1AE
330
1F
100
AcDbEntity
  8
0
  6
HIDDEN
 62
     7
370
     0
100
AcDbPolyline
 90
        4
 70
   128
 43
0.0
 10
240.2635246267
 20
116.1977208847
 10
240.0302320471
 20
115.9644306334
 10
239.7968649616
 20
115.7310519064
 10
239.5635276785
 20
115.4977206768
  0
LINE
  5
1AF
330
1F
100
AcDbEntity
  8
0
  6
HIDDEN
 62
     7
370
     0
100
AcDbLine
 10
240.2635246267
 20
116.1977208847
 30
0.0
 11
240.2635246267
 21
120.1268660532
 31
0.0
  0
LWPOLYLINE
  5
1B0
330
1F
100
AcDbEntity
  8
0
  6
HIDDEN
 62
     7
370
     0
100
AcDbPolyline
 90
        4
 70
   128
 43
0.0
 10
239.5635276785
 20
115.4977206768
 10
239.7968649616
 20
115.7310519064
 10
240.0302320471
 20
115.9644306334
 10
240.2635246267
 20
116.1977208847
  0
LWPOLYLINE
  5
1B1
330
1F
100
AcDbEntity
  8
0
  6
HIDDEN
 62
     7
370
     0
100
AcDbPolyline
 90
        4
 70
   128
 43
0.0
 10
239.5635276785
 20
104.9477209033
 10
239.7968649616
 20
104.7143896738
 10
240.0302320471
 20
104.4810109468
 10
240.2635246267
 20
104.2477206955
  0
LINE
  5
1B2
330
1F
100
AcDbEntity
  8
0
  6
HIDDEN
 62
     7
370
     0
100
AcDbLine
 10
240.2635246267
 20
104.2477206955
 30
0.0
 11
240.2635246267
 21
100.318575527
 31
0.0
  0
LWPOLYLINE
  5
1B3
330
1F
100
AcDbEntity
  8
0
  6
HIDDEN
 62
     7
370
     0
100
AcDbPolyline
 90
        4
 70
   128
 43
0.0
 10
240.2635246267
 20
104.2477206955
 10
240.0302320471
 20
104.4810109468
 10
239.7968649616
 20
104.7143896738
 10
239.5635276785
 20
104.9477209033
  0
SPLINE
  5
1B4
330
1F
100
AcDbEntity
  8
0
  6
HIDDEN
 62
     7
370
     0
100
AcDbSpline
210
0.0
220
0.0
230
1.0
 70
     8
 71
     3
 72
    10
 73
     6
 74
     0
 42
0.00000001
 43
0.00000001
 40
0.0
 40
0.0
 40
0.0
 40
0.0
 40
0.5
 40
0.5
 40
1.0
 40
1.0
 40
1.0
 40
1.0
 10
216.6135282030119
 20
116.5663820285263
 30
0.0
 10
216.7633710373374
 20
116.5918992915163
 30
0.0
 10
216.9142388617904
 20
116.6007107075509
 30
0.0
 10
217.2179814717325
 20
116.5859004738412
 30
0.0
 10
217.3690775902707
 20
116.5619410017221
 30
0.0
 10
217.513528203012
 20
116.5217232870532
 30
0.0
  0
LINE
  5
1B5
330
1F
100
AcDbEntity
  8
0
  6
HIDDEN
 62
     7
370
     0
100
AcDbLine
 10
217.6135211935
 20
116.440336469
 30
0.0
 11
217.6135211935
 21
120.1477211596
 31
0.0
  0
SPLINE
  5
1B6
330
1F
100
AcDbEntity
  8
0
  6
HIDDEN
 62
     7
370
     0
100
AcDbSpline
210
0.0
220
0.0
230
1.0
 70
     8
 71
     3
 72
    20
 73
    16
 74
     0
 42
0.00000001
 43
0.00000001
 40
0.000000209563825
 40
0.000000209563825
 40
0.000000209563825
 40
0.000000209563825
 40
0.0000365247662458
 40
0.0000365247662458
 40
0.0000365247662458
 40
0.0000731650534721
 40
0.0000731650534721
 40
0.0000731650534721
 40
0.0001079711865407
 40
0.0001079711865407
 40
0.0001079711865407
 40
0.0001401117176298
 40
0.0001401117176298
 40
0.0001401117176298
 40
0.0001602202130872
 40
0.0001602202130872
 40
0.0001602202130872
 40
0.0001602202130872
 10
217.513528203012
 20
116.5217232870532
 30
0.0
 10
217.5249253632912
 20
116.5185501074353
 30
0.0
 10
217.5365335252083
 20
116.5141892028463
 30
0.0
 10
217.5474193810506
 20
116.5089589245143
 30
0.0
 10
217.5583877522688
 20
116.5036890003899
 30
0.0
 10
217.568940616659
 20
116.4973758465066
 30
0.0
 10
217.578058720218
 20
116.4905932414389
 30
0.0
 10
217.5867199743373
 20
116.4841504690244
 30
0.0
 10
217.5943433994923
 20
116.4770856418723
 30
0.0
 10
217.6001207485412
 20
116.4701195346342
 30
0.0
 10
217.6054643233975
 20
116.4636764557812
 30
0.0
 10
217.6093821452146
 20
116.4571330793463
 30
0.0
 10
217.6115163219162
 20
116.4511130466441
 30
0.0
 10
217.6128560759007
 20
116.4473339018369
 30
0.0
 10
217.613528203012
 20
116.4437001495785
 30
0.0
 10
217.613528203012
 20
116.4403366512706
 30
0.0
  0
SPLINE
  5
1B7
330
1F
100
AcDbEntity
  8
0
  6
HIDDEN
 62
     7
370
     0
100
AcDbSpline
210
0.0
220
0.0
230
1.0
 70
     8
 71
     3
 72
    23
 73
    19
 74
     0
 42
0.00000001
 43
0.00000001
 40
0.0001620647303176
 40
0.0001620647303176
 40
0.0001620647303176
 40
0.0001620647303176
 40
0.0001791833705586
 40
0.0001791833705586
 40
0.0001791833705586
 40
0.0002124145184225
 40
0.0002124145184225
 40
0.0002124145184225
 40
0.0002445804891103
 40
0.0002445804891103
 40
0.0002445804891103
 40
0.0002768532148399
 40
0.0002768532148399
 40
0.0002768532148399
 40
0.00031002209323
 40
0.00031002209323
 40
0.00031002209323
 40
0.0003194655452152
 40
0.0003194655452152
 40
0.0003194655452152
 40
0.0003194655452152
 10
216.513528203012
 20
116.496106184843
 30
0.0
 10
216.5135282030117
 20
116.4989689712553
 30
0.0
 10
216.5140113291556
 20
116.5019617823475
 30
0.0
 10
216.5149762503689
 20
116.5050163888602
 30
0.0
 10
216.5168435433665
 20
116.5109275920474
 30
0.0
 10
216.5206018488615
 20
116.5172093274504
 30
0.0
 10
216.5259501320546
 20
116.5232790624302
 30
0.0
 10
216.5311323989126
 20
116.5291603864528
 30
0.0
 10
216.5379454094776
 20
116.5350022484575
 30
0.0
 10
216.5458171079132
 20
116.5402881696147
 30
0.0
 10
216.5537182806651
 20
116.5455938830586
 30
0.0
 10
216.5628926126615
 20
116.5504802959805
 30
0.0
 10
216.5726030293952
 20
116.5545452860021
 30
0.0
 10
216.5825815854239
 20
116.5587225249197
 30
0.0
 10
216.5933884751343
 20
116.5621430188186
 30
0.0
 10
216.6041787237396
 20
116.5645455740198
 30
0.0
 10
216.6072882939669
 20
116.565237950479
 30
0.0
 10
216.6104113939669
 20
116.5658512561583
 30
0.0
 10
216.6135282030119
 20
116.5663820285268
 30
0.0
  0
LINE
  5
1B8
330
1F
100
AcDbEntity
  8
0
  6
HIDDEN
 62
     7
370
     0
100
AcDbLine
 10
216.5135323753
 20
116.4961063931
 30
0.0
 11
216.5135323753
 21
120.1477211596
 31
0.0
  0
SPLINE
  5
1B9
330
1F
100
AcDbEntity
  8
0
  6
HIDDEN
 62
     7
370
     0
100
AcDbSpline
210
0.0
220
0.0
230
1.0
 70
     8
 71
     3
 72
    11
 73
     7
 74
     0
 42
0.00000001
 43
0.00000001
 40
0.0
 40
0.0
 40
0.0
 40
0.0
 40
0.0008203708524183
 40
0.0008203708524183
 40
0.0008203708524183
 40
0.0016409967870154
 40
0.0016409967870154
 40
0.0016409967870154
 40
0.0016409967870154
 10
49.51352820301196
 20
94.37068803945381
 30
0.0
 10
49.3223699027133
 20
94.32950901083467
 30
0.0
 10
49.13094283264109
 20
94.29075503860466
 30
0.0
 10
48.93929720912046
 20
94.25438727932611
 30
0.0
 10
48.74759180404001
 20
94.21800817556009
 30
0.0
 10
48.55565285198106
 20
94.18401392479255
 30
0.0
 10
48.36352820491025
 20
94.15236579940132
 30
0.0
  0
LINE
  5
1BA
330
1F
100
AcDbEntity
  8
0
  6
HIDDEN
 62
     7
370
     0
100
AcDbLine
 10
48.3635283759
 20
92.2327202441
 30
0.0
 11
48.3635283759
 21
94.1523660602
 31
0.0
  0
ELLIPSE
  5
1BB
330
1F
100
AcDbEntity
  8
0
  6
HIDDEN
 62
     7
370
     0
100
AcDbEllipse
 10
44.1210963403
 20
110.2227207901
 30
0.0
 11
20.19992452772428
 21
-1.421085471520200E-14
 31
0.0
210
0.0
220
0.0
230
1.0
 40
0.816496581
 41
1.300566354937165
 42
1.359198697442763
  0
LINE
  5
1BC
330
1F
100
AcDbEntity
  8
0
  6
HIDDEN
 62
     7
370
     0
100
AcDbLine
 10
48.3635283759
 20
128.2127213361
 30
0.0
 11
48.3635283759
 21
126.3480365904
 31
0.0
  0
LINE
  5
1BD
330
1F
100
AcDbEntity
  8
0
  6
HIDDEN
 62
     7
370
     0
100
AcDbLine
 10
49.5135273536
 20
92.2327202441
 30
0.0
 11
49.5135273536
 21
94.3706885608
 31
0.0
  0
LINE
  5
1BE
330
1F
100
AcDbEntity
  8
0
  6
HIDDEN
 62
     7
370
     0
100
AcDbLine
 10
49.5945598682
 20
94.4212295743
 30
0.0
 11
49.5135273536
 21
94.3706885608
 31
0.0
  0
LINE
  5
1BF
330
1F
100
AcDbEntity
  8
0
  6
HIDDEN
 62
     7
370
     0
100
AcDbLine
 10
58.4635279825
 20
92.2327202441
 30
0.0
 11
58.4635279825
 21
93.9352077128
 31
0.0
  0
LINE
  5
1C0
330
1F
100
AcDbEntity
  8
0
  6
HIDDEN
 62
     7
370
     0
100
AcDbLine
 10
54.4635273268
 20
128.2127213361
 30
0.0
 11
54.4635273268
 21
126.5102338674
 31
0.0
  0
LINE
  5
1C1
330
1F
100
AcDbEntity
  8
0
  6
HIDDEN
 62
     7
370
     0
100
AcDbLine
 10
49.5135273536
 20
128.2127213361
 30
0.0
 11
49.5135273536
 21
126.117346126
 31
0.0
  0
SPLINE
  5
1C2
330
1F
100
AcDbEntity
  8
0
  6
HIDDEN
 62
     7
370
     0
100
AcDbSpline
210
0.0
220
0.0
230
1.0
 70
     8
 71
     3
 72
     8
 73
     4
 74
     0
 42
0.00000001
 43
0.00000001
 40
0.0
 40
0.0
 40
0.0
 40
0.0
 40
1.0
 40
1.0
 40
1.0
 40
1.0
 10
49.51352820301196
 20
126.1173452390951
 30
0.0
 10
49.5635337008594
 20
126.0863094655623
 30
0.0
 10
49.61353377042778
 20
126.0552648212214
 30
0.0
 10
49.6635282031171
 20
126.0242112261282
 30
0.0
  0
LINE
  5
1C3
330
1F
100
AcDbEntity
  8
0
  6
HIDDEN
 62
     7
370
     0
100
AcDbLine
 10
209.2635214081
 20
106.172720685
 30
0.0
 11
209.2635214081
 21
114.2727208951
 31
0.0
  0
LINE
  5
1C4
330
1F
100
AcDbEntity
  8
0
  6
HIDDEN
 62
     7
370
     0
100
AcDbLine
 10
210.2635234346
 20
115.2727205934
 30
0.0
 11
210.2635234346
 21
105.1727209868
 31
0.0
  0
SPLINE
  5
1C5
330
1F
100
AcDbEntity
  8
0
  6
HIDDEN
 62
     7
370
     0
100
AcDbSpline
210
0.0
220
0.0
230
1.0
 70
    11
 71
     3
 72
    34
 73
    30
 74
     0
 42
0.00000001
 43
0.00000001
 40
0.0
 40
0.0
 40
0.0
 40
0.0
 40
0.0127738749552126
 40
0.0481304964038708
 40
0.0807424858551922
 40
0.1375890904944997
 40
0.1884518708083829
 40
0.2226712072712077
 40
0.262693833248409
 40
0.2986558257969797
 40
0.3315197710941648
 40
0.3878459600247215
 40
0.3881259398132744
 40
0.4440925970956044
 40
0.4768435525191149
 40
0.5126448808415757
 40
0.5530084569624955
 40
0.587385576589988
 40
0.6380120863298642
 40
0.6949796216261735
 40
0.7275539778406399
 40
0.7628079274883411
 40
0.8028703408021718
 40
0.837083149602964
 40
0.8877749714166558
 40
0.8880089101832553
 40
0.938839779186652
 40
0.972971264235578
 40
0.9999999999999999
 40
0.9999999999999999
 40
0.9999999999999999
 40
0.9999999999999999
 10
68.42354049289366
 20
87.15505829770208
 30
0.0
 10
68.48273399896686
 20
87.16114771151285
 30
0.0
 10
68.70576834376654
 20
87.18409192464705
 30
0.0
 10
69.22912133666011
 20
87.2207332261831
 30
0.0
 10
70.10188432648283
 20
87.24842000555249
 30
0.0
 10
71.21672247509429
 20
87.23786137569141
 30
0.0
 10
72.3297880397791
 20
87.12171962831336
 30
0.0
 10
73.22422989015686
 20
87.00012805754949
 30
0.0
 10
73.9080627146304
 20
86.87836969198509
 30
0.0
 10
74.44882013370595
 20
86.76201037764437
 30
0.0
 10
74.86222171541327
 20
86.6685299081516
 30
0.0
 10
75.0903553115119
 20
86.60191356355293
 30
0.0
 10
74.93602367819686
 20
86.64310289507407
 30
0.0
 10
74.90911669419178
 20
86.65559599188691
 30
0.0
 10
74.45320068866855
 20
86.7611768890531
 30
0.0
 10
73.92926529498425
 20
86.87392352206697
 30
0.0
 10
73.24305896384884
 20
86.99702306319806
 30
0.0
 10
72.34994548016212
 20
87.11901476680156
 30
0.0
 10
71.23650898854808
 20
87.23676660349788
 30
0.0
 10
70.12575839848202
 20
87.24873557144575
 30
0.0
 10
69.24100591014668
 20
87.22168077154151
 30
0.0
 10
68.5738122593196
 20
87.17374769790726
 30
0.0
 10
68.03253044274304
 20
87.11744990104862
 30
0.0
 10
67.6449849245135
 20
87.07238101985745
 30
0.0
 10
67.45093156746199
 20
87.03346704671458
 30
0.0
 10
67.57720028361683
 20
87.05492103044324
 30
0.0
 10
67.60633166000703
 20
87.06480907371326
 30
0.0
 10
67.9779196338768
 20
87.11245124910045
 30
0.0
 10
68.2869636592755
 20
87.14199980712634
 30
0.0
 10
68.42354049289366
 20
87.15505829770208
 30
0.0
  0
SPLINE
  5
1C6
330
1F
100
AcDbEntity
  8
0
  6
HIDDEN
 62
     7
370
     0
100
AcDbSpline
210
0.0
220
0.0
230
1.0
 70
     8
 71
     3
 72
    38
 73
    34
 74
     0
 42
0.00000001
 43
0.00000001
 40
-0.0939221400677877
 40
-0.0657752597750423
 40
-0.034473949600457
 40
0.0
 40
0.0323124298456333
 40
0.0609695982542196
 40
0.0859698687800294
 40
0.1073131755923115
 40
0.1250019290169791
 40
0.1562358721968102
 40
0.1978507372981445
 40
0.2498168793248508
 40
0.2782629480316769
 40
0.3049884159847109
 40
0.3300042168928101
 40
0.3533239044427756
 40
0.3749644360934065
 40
0.4060267838303385
 40
0.4476555975990678
 40
0.4998320869201315
 40
0.5286685248938784
 40
0.5555536435549433
 40
0.5805015705752576
 40
0.6035302879123582
 40
0.6246629693429052
 40
0.6685312637098664
 40
0.7183269153555409
 40
0.7652375706113097
 40
0.791571204445378
 40
0.8122937035710365
 40
0.861565662963908
 40
0.9060778599322123
 40
0.9342247402249577
 40
0.965526050399543
 40
1.0
 40
1.032312429845633
 40
1.06096959825422
 40
1.085969868780029
 10
69.20379336718885
 20
133.2257248161219
 30
0.0
 10
68.59972514869678
 20
133.2702583213388
 30
0.0
 10
68.12441008586613
 20
133.3183337075724
 30
0.0
 10
67.80481125986836
 20
133.3544964468376
 30
0.0
 10
67.61781685414184
 20
133.380886581026
 30
0.0
 10
67.5295111945753
 20
133.3969561908233
 30
0.0
 10
67.50009769870081
 20
133.4047798760746
 30
0.0
 10
67.5722297687686
 20
133.3866123774924
 30
0.0
 10
67.89334177095739
 20
133.3420057975289
 30
0.0
 10
68.46536926117884
 20
133.2812672688573
 30
0.0
 10
69.11590160895116
 20
133.2319231058359
 30
0.0
 10
69.66577773770467
 20
133.2095606453557
 30
0.0
 10
70.22121560348462
 20
133.2010784354511
 30
0.0
 10
70.76199115111103
 20
133.2075295216001
 30
0.0
 10
71.35992104588362
 20
133.2310078982037
 30
0.0
 10
72.099586903027
 20
133.2979277690441
 30
0.0
 10
73.03163653630375
 20
133.4140292029788
 30
0.0
 10
73.82097326999799
 20
133.549344087567
 30
0.0
 10
74.35990295784775
 20
133.6644559116311
 30
0.0
 10
74.67400729774425
 20
133.7342299881808
 30
0.0
 10
74.87928766610793
 20
133.7847900736767
 30
0.0
 10
74.99035765219607
 20
133.8154682135847
 30
0.0
 10
75.03662915399858
 20
133.8301952308457
 30
0.0
 10
74.91066428565404
 20
133.7923356372616
 30
0.0
 10
74.44041875678224
 20
133.6818498528304
 30
0.0
 10
73.78722079316645
 20
133.5421456344491
 30
0.0
 10
73.18320183764293
 20
133.4390190283051
 30
0.0
 10
72.50886378799952
 20
133.339583002535
 30
0.0
 10
71.6235143050478
 20
133.2461126682679
 30
0.0
 10
70.65403541443331
 20
133.199104162192
 30
0.0
 10
69.86569983716504
 20
133.2027883772901
 30
0.0
 10
69.20379336718885
 20
133.2257248161219
 30
0.0
 10
68.59972514869678
 20
133.2702583213388
 30
0.0
 10
68.12441008586613
 20
133.3183337075724
 30
0.0
  0
LINE
  5
1C7
330
1F
100
AcDbEntity
  8
0
  6
HIDDEN
 62
     7
370
     0
100
AcDbLine
 10
208.2135259857
 20
114.2727208951
 30
0.0
 11
208.2135259857
 21
106.172720685
 31
0.0
  0
LINE
  5
1C8
330
1F
100
AcDbEntity
  8
0
  6
HIDDEN
 62
     7
370
     0
100
AcDbLine
 10
208.2135259857
 20
107.722720846
 30
0.0
 11
208.2135259857
 21
112.6947978208
 31
0.0
  0
LINE
  5
1C9
330
1F
100
AcDbEntity
  8
0
  6
HIDDEN
 62
     7
370
     0
100
AcDbLine
 10
102.0635284235
 20
107.722720846
 30
0.0
 11
102.0635284235
 21
112.6947978208
 31
0.0
  0
LINE
  5
1CA
330
1F
100
AcDbEntity
  8
0
  6
HIDDEN
 62
     7
370
     0
100
AcDbLine
 10
225.0635355463
 20
119.7227204846
 30
0.0
 11
220.4635321846
 21
119.7227204846
 31
0.0
  0
LINE
  5
1CB
330
1F
100
AcDbEntity
  8
0
  6
HIDDEN
 62
     7
370
     0
100
AcDbLine
 10
220.4635321846
 20
119.7227204846
 30
0.0
 11
225.0635355463
 21
119.7227204846
 31
0.0
  0
LINE
  5
1CC
330
1F
100
AcDbEntity
  8
0
  6
HIDDEN
 62
     7
370
     0
100
AcDbLine
 10
221.0552572956
 20
119.6325917425
 30
0.0
 11
224.4717955341
 21
119.6325917425
 31
0.0
  0
LINE
  5
1CD
330
1F
100
AcDbEntity
  8
0
  6
HIDDEN
 62
     7
370
     0
100
AcDbLine
 10
216.5135323753
 20
100.8562913792
 30
0.0
 11
216.5135323753
 21
100.4254950838
 31
0.0
  0
SPLINE
  5
1CE
330
1F
100
AcDbEntity
  8
0
  6
HIDDEN
 62
     7
370
     0
100
AcDbSpline
210
0.0
220
0.0
230
1.0
 70
     8
 71
     3
 72
    23
 73
    19
 74
     0
 42
0.00000001
 43
0.00000001
 40
0.0001620647303176
 40
0.0001620647303176
 40
0.0001620647303176
 40
0.0001620647303176
 40
0.0001791833705585
 40
0.0001791833705585
 40
0.0001791833705585
 40
0.0002124145184225
 40
0.0002124145184225
 40
0.0002124145184225
 40
0.0002445804891103
 40
0.0002445804891103
 40
0.0002445804891103
 40
0.0002768532148399
 40
0.0002768532148399
 40
0.0002768532148399
 40
0.00031002209323
 40
0.00031002209323
 40
0.00031002209323
 40
0.0003194655452153
 40
0.0003194655452153
 40
0.0003194655452153
 40
0.0003194655452153
 10
216.513528203012
 20
100.4254954175775
 30
0.0
 10
216.5135282030117
 20
100.4197698447527
 30
0.0
 10
216.5140113291556
 20
100.414021843667
 30
0.0
 10
216.5149762503689
 20
100.4083847511572
 30
0.0
 10
216.5168435433665
 20
100.3974759813785
 30
0.0
 10
216.5206018488615
 20
100.3867495342326
 30
0.0
 10
216.5259501320546
 20
100.3771579639131
 30
0.0
 10
216.5311323989126
 20
100.3678641260236
 30
0.0
 10
216.5379454094776
 20
100.3593779801111
 30
0.0
 10
216.5458171079132
 20
100.3523739656211
 30
0.0
 10
216.5537182806651
 20
100.3453437257185
 30
0.0
 10
216.5628926126615
 20
100.339614639159
 30
0.0
 10
216.5726030293952
 20
100.3355862545593
 30
0.0
 10
216.5825815854239
 20
100.3314466318701
 30
0.0
 10
216.5933884751343
 20
100.328989692305
 30
0.0
 10
216.6041787237396
 20
100.3283549753377
 30
0.0
 10
216.6072882939669
 20
100.3281720604619
 30
0.0
 10
216.610411393967
 20
100.3281360702356
 30
0.0
 10
216.613528203012
 20
100.3282463219897
 30
0.0
  0
SPLINE
  5
1CF
330
1F
100
AcDbEntity
  8
0
  6
HIDDEN
 62
     7
370
     0
100
AcDbSpline
210
0.0
220
0.0
230
1.0
 70
     8
 71
     3
 72
    10
 73
     6
 74
     0
 42
0.00000001
 43
0.00000001
 40
0.0
 40
0.0
 40
0.0
 40
0.0
 40
0.5
 40
0.5
 40
1.0
 40
1.0
 40
1.0
 40
1.0
 10
216.613528203012
 20
100.3282463219906
 30
0.0
 10
216.7633710373374
 20
100.3335467542857
 30
0.0
 10
216.9142388617904
 20
100.3354819425768
 30
0.0
 10
217.2179814717326
 20
100.3323310579016
 30
0.0
 10
217.3690775902707
 20
100.3271766574689
 30
0.0
 10
217.513528203012
 20
100.3191545132446
 30
0.0
  0
SPLINE
  5
1D0
330
1F
100
AcDbEntity
  8
0
  6
HIDDEN
 62
     7
370
     0
100
AcDbSpline
210
0.0
220
0.0
230
1.0
 70
     8
 71
     3
 72
    20
 73
    16
 74
     0
 42
0.00000001
 43
0.00000001
 40
0.0000002095638254
 40
0.0000002095638254
 40
0.0000002095638254
 40
0.0000002095638254
 40
0.0000365247662458
 40
0.0000365247662458
 40
0.0000365247662458
 40
0.0000731650534721
 40
0.0000731650534721
 40
0.0000731650534721
 40
0.0001079711865408
 40
0.0001079711865408
 40
0.0001079711865408
 40
0.0001401117176298
 40
0.0001401117176298
 40
0.0001401117176298
 40
0.0001602202130876
 40
0.0001602202130876
 40
0.0001602202130876
 40
0.0001602202130876
 10
217.513528203012
 20
100.3191545132446
 30
0.0
 10
217.524925363291
 20
100.3185215656802
 30
0.0
 10
217.536533525208
 20
100.3198774516687
 30
0.0
 10
217.5474193810502
 20
100.3232041686601
 30
0.0
 10
217.5583877522684
 20
100.3265561023463
 30
0.0
 10
217.5689406166586
 20
100.3320225364301
 30
0.0
 10
217.5780587202176
 20
100.3392497666079
 30
0.0
 10
217.5867199743369
 20
100.346114886832
 30
0.0
 10
217.5943433994921
 20
100.354792898243
 30
0.0
 10
217.600120748541
 20
100.3645404125729
 30
0.0
 10
217.6054643233972
 20
100.3735560652612
 30
0.0
 10
217.6093821452145
 20
100.3837506204665
 30
0.0
 10
217.6115163219161
 20
100.3942121744814
 30
0.0
 10
217.6128560759007
 20
100.4007795354057
 30
0.0
 10
217.613528203012
 20
100.4075471784451
 30
0.0
 10
217.613528203012
 20
100.4142741750611
 30
0.0
  0
LINE
  5
1D1
330
1F
100
AcDbEntity
  8
0
  6
HIDDEN
 62
     7
370
     0
100
AcDbLine
 10
217.6135211935
 20
100.4142745094
 30
0.0
 11
217.6135211935
 21
100.8445548521
 31
0.0
  0
LINE
  5
1D2
330
1F
100
AcDbEntity
  8
0
  6
HIDDEN
 62
     7
370
     0
100
AcDbLine
 10
217.6135211935
 20
100.8445548521
 30
0.0
 11
217.6135211935
 21
100.4142745094
 31
0.0
  0
LINE
  5
1D3
330
1F
100
AcDbEntity
  8
0
  6
HIDDEN
 62
     7
370
     0
100
AcDbLine
 10
216.5135323753
 20
100.4254950838
 30
0.0
 11
216.5135323753
 21
100.8562913792
 31
0.0
  0
SPLINE
  5
1D4
330
1F
100
AcDbEntity
  8
0
  6
HIDDEN
 62
     7
370
     0
100
AcDbSpline
210
0.0
220
0.0
230
1.0
 70
     8
 71
     3
 72
    10
 73
     6
 74
     0
 42
0.00000001
 43
0.00000001
 40
0.0
 40
0.0
 40
0.0
 40
0.0
 40
0.5
 40
0.5
 40
1.0
 40
1.0
 40
1.0
 40
1.0
 10
217.513528203012
 20
100.3191545132446
 30
0.0
 10
217.3690849108166
 20
100.3271762509183
 30
0.0
 10
217.2209059822308
 20
100.3322551253859
 30
0.0
 10
216.9171963695669
 20
100.3354959831867
 30
0.0
 10
216.7633725718632
 20
100.333546808567
 30
0.0
 10
216.613528203012
 20
100.3282463219906
 30
0.0
  0
LWPOLYLINE
  5
1D5
330
1F
100
AcDbEntity
  8
0
  6
HIDDEN
 62
     7
370
     0
100
AcDbPolyline
 90
        2
 70
   128
 43
0.0
 10
85.2135281762
 20
83.8227209331
 10
85.2135281762
 20
83.8227209331
  0
LINE
  5
1D6
330
1F
100
AcDbEntity
  8
0
  6
HIDDEN
 62
     7
370
     0
100
AcDbLine
 10
224.4717955341
 20
119.6325917425
 30
0.0
 11
221.0552572956
 21
119.6325917425
 31
0.0
  0
LINE
  5
1D7
330
1F
100
AcDbEntity
  8
0
  6
HIDDEN
 62
     7
370
     0
100
AcDbLine
 10
85.2135281762
 20
78.7385974707
 30
0.0
 11
85.2135281762
 21
83.8227209331
 31
0.0
  0
LINE
  5
1D8
330
1F
100
AcDbEntity
  8
0
  6
HIDDEN
 62
     7
370
     0
100
AcDbLine
 10
85.2135281762
 20
83.8227209331
 30
0.0
 11
93.2135285562
 21
83.8227209331
 31
0.0
  0
SPLINE
  5
1D9
330
1F
100
AcDbEntity
  8
0
  6
HIDDEN
 62
     7
370
     0
100
AcDbSpline
210
0.0
220
0.0
230
1.0
 70
     8
 71
     3
 72
    10
 73
     6
 74
     0
 42
0.00000001
 43
0.00000001
 40
0.0
 40
0.0
 40
0.0
 40
0.0
 40
0.5
 40
0.5
 40
1.0
 40
1.0
 40
1.0
 40
1.0
 10
217.513528203012
 20
113.8272845699917
 30
0.0
 10
217.3690849108166
 20
113.779047155824
 30
0.0
 10
217.2209059822308
 20
113.7503646665544
 30
0.0
 10
216.9171963695669
 20
113.7318887158124
 30
0.0
 10
216.7633725718632
 20
113.7427160088864
 30
0.0
 10
216.6135282030119
 20
113.7735340197725
 30
0.0
  0
SPLINE
  5
1DA
330
1F
100
AcDbEntity
  8
0
  6
HIDDEN
 62
     7
370
     0
100
AcDbSpline
210
0.0
220
0.0
230
1.0
 70
     8
 71
     3
 72
    23
 73
    19
 74
     0
 42
0.00000001
 43
0.00000001
 40
0.0001662950200273
 40
0.0001662950200273
 40
0.0001662950200273
 40
0.0001662950200273
 40
0.0001888869641777
 40
0.0001888869641777
 40
0.0001888869641777
 40
0.0002202292132408
 40
0.0002202292132408
 40
0.0002202292132408
 40
0.0002508744951465
 40
0.0002508744951465
 40
0.0002508744951465
 40
0.0002827639243137
 40
0.0002827639243137
 40
0.0002827639243137
 40
0.0003169268929599
 40
0.0003169268929599
 40
0.0003169268929599
 40
0.0003258677376186
 40
0.0003258677376186
 40
0.0003258677376186
 40
0.0003258677376186
 10
217.613528203012
 20
113.8135515439576
 30
0.0
 10
217.613528203012
 20
113.8173228927713
 30
0.0
 10
217.6126801168627
 20
113.8208074421592
 30
0.0
 10
217.6109958782427
 20
113.8238437016779
 30
0.0
 10
217.6086582049129
 20
113.8280579399781
 30
0.0
 10
217.6046256744043
 20
113.8314957762645
 30
0.0
 10
217.5992548806401
 20
113.8339048332567
 30
0.0
 10
217.5939961167274
 20
113.8362636395207
 30
0.0
 10
217.5873257958387
 20
113.8377069386149
 30
0.0
 10
217.5798022411027
 20
113.8382178318552
 30
0.0
 10
217.5719719309299
 20
113.8387495555785
 30
0.0
 10
217.5630255985459
 20
113.8382925453101
 30
0.0
 10
217.5536463582878
 20
113.8369807890917
 30
0.0
 10
217.5436049192726
 20
113.8355764194725
 30
0.0
 10
217.5328146360911
 20
113.833161114588
 30
0.0
 10
217.5220715025061
 20
113.8299773394295
 30
0.0
 10
217.5192274995504
 20
113.8291345065736
 30
0.0
 10
217.5163750529863
 20
113.8282352869079
 30
0.0
 10
217.513528203012
 20
113.8272845699919
 30
0.0
  0
LINE
  5
1DB
330
1F
100
AcDbEntity
  8
0
  6
HIDDEN
 62
     7
370
     0
100
AcDbLine
 10
217.6135211935
 20
100.4142745094
 30
0.0
 11
217.6135211935
 21
113.8135516247
 31
0.0
  0
LINE
  5
1DC
330
1F
100
AcDbEntity
  8
0
  6
HIDDEN
 62
     7
370
     0
100
AcDbLine
 10
216.5135323753
 20
100.4254950838
 30
0.0
 11
216.5135323753
 21
113.7465606606
 31
0.0
  0
SPLINE
  5
1DD
330
1F
100
AcDbEntity
  8
0
  6
HIDDEN
 62
     7
370
     0
100
AcDbSpline
210
0.0
220
0.0
230
1.0
 70
     8
 71
     3
 72
    20
 73
    16
 74
     0
 42
0.00000001
 43
0.00000001
 40
0.0000002019816331
 40
0.0000002019816331
 40
0.0000002019816331
 40
0.0000002019816331
 40
0.000034327889285
 40
0.000034327889285
 40
0.000034327889285
 40
0.0000687102723355
 40
0.0000687102723355
 40
0.0000687102723355
 40
0.0001022735979615
 40
0.0001022735979615
 40
0.0001022735979615
 40
0.000134762990145
 40
0.000134762990145
 40
0.000134762990145
 40
0.0001578678762437
 40
0.0001578678762437
 40
0.0001578678762437
 40
0.0001578678762437
 10
216.6135282030119
 20
113.7735340197725
 30
0.0
 10
216.6024183945951
 20
113.7758189384475
 30
0.0
 10
216.591117194138
 20
113.7772995845294
 30
0.0
 10
216.5805388815934
 20
113.7778180277109
 30
0.0
 10
216.5698881588502
 20
113.7783400197169
 30
0.0
 10
216.5596725712925
 20
113.7778960330631
 30
0.0
 10
216.550799328638
 20
113.7764467367738
 30
0.0
 10
216.5421367603593
 20
113.7750318506324
 30
0.0
 10
216.5345080896972
 20
113.7726126252708
 30
0.0
 10
216.5286044961737
 20
113.769330858269
 30
0.0
 10
216.5228854908079
 20
113.7661517025535
 30
0.0
 10
216.5186253462004
 20
113.7620723450855
 30
0.0
 10
216.5161649049203
 20
113.7574097012998
 30
0.0
 10
216.5144119582538
 20
113.7540877907355
 30
0.0
 10
216.513528203012
 20
113.7504192804931
 30
0.0
 10
216.513528203012
 20
113.7465607678709
 30
0.0
  0
LINE
  5
1DE
330
1F
100
AcDbEntity
  8
0
  6
HIDDEN
 62
     7
370
     0
100
AcDbLine
 10
54.4635273268
 20
128.2127213361
 30
0.0
 11
54.4635273268
 21
126.5102338674
 31
0.0
  0
LINE
  5
1DF
330
1F
100
AcDbEntity
  8
0
  6
HIDDEN
 62
     7
370
     0
100
AcDbLine
 10
58.4635279825
 20
92.2327202441
 30
0.0
 11
58.4635279825
 21
93.9352077128
 31
0.0
  0
LINE
  5
1E0
330
1F
100
AcDbEntity
  8
0
  6
HIDDEN
 62
     7
370
     0
100
AcDbLine
 10
54.4635273268
 20
128.2127213361
 30
0.0
 11
54.4635273268
 21
132.0668284478
 31
0.0
  0
LINE
  5
1E1
330
1F
100
AcDbEntity
  8
0
  6
HIDDEN
 62
     7
370
     0
100
AcDbLine
 10
58.4635279825
 20
92.2327202441
 30
0.0
 11
58.4635279825
 21
88.2589828851
 31
0.0
  0
SPLINE
  5
1E2
330
1F
100
AcDbEntity
  8
0
  6
HIDDEN
 62
     7
370
     0
100
AcDbSpline
210
0.0
220
0.0
230
1.0
 70
     8
 71
     3
 72
     8
 73
     4
 74
     0
 42
0.00000001
 43
0.00000001
 40
0.0
 40
0.0
 40
0.0
 40
0.0
 40
0.000159097691435
 40
0.000159097691435
 40
0.000159097691435
 40
0.000159097691435
 10
49.64869620891432
 20
94.42123035406487
 30
0.0
 10
49.60364473951496
 20
94.39325147043097
 30
0.0
 10
49.55858870220538
 20
94.36527994074542
 30
0.0
 10
49.51352820301196
 20
94.33731560208207
 30
0.0
  0
SPLINE
  5
1E3
330
1F
100
AcDbEntity
  8
0
  6
HIDDEN
 62
     7
370
     0
100
AcDbSpline
210
0.0
220
0.0
230
1.0
 70
     8
 71
     3
 72
    11
 73
     7
 74
     0
 42
0.00000001
 43
0.00000001
 40
0.0
 40
0.0
 40
0.0
 40
0.0
 40
0.0008212909311356
 40
0.0008212909311356
 40
0.0008212909311356
 40
0.0016428257242859
 40
0.0016428257242859
 40
0.0016428257242859
 40
0.0016428257242859
 10
49.51352820301196
 20
94.33731560208207
 30
0.0
 10
49.3223831815296
 20
94.29402941325226
 30
0.0
 10
49.13096484585304
 20
94.25309290363825
 30
0.0
 10
48.93931877119191
 20
94.21449113227541
 30
0.0
 10
48.7476156896503
 20
94.17587787846207
 30
0.0
 10
48.5556705663649
 20
94.13959766920033
 30
0.0
 10
48.36352820301193
 20
94.1056307628736
 30
0.0
  0
SPLINE
  5
1E4
330
1F
100
AcDbEntity
  8
0
  6
HIDDEN
 62
     7
370
     0
100
AcDbSpline
210
0.0
220
0.0
230
1.0
 70
    24
 71
     3
 72
     9
 73
     5
 74
     0
 42
0.00000001
 43
0.00000001
 40
0.0
 40
0.0
 40
0.0
 40
0.0
 40
0.1866666666666668
 40
0.2671975397465357
 40
0.2671975397465357
 40
0.2671975397465357
 40
0.2671975397465357
 10
48.36352820301193
 20
95.96308624967679
 30
0.0
 10
48.36352820301193
 20
95.42883721101917
 30
0.0
 10
48.36352820301193
 20
94.76987526682234
 30
0.0
 10
48.36352820301193
 20
94.25028614012406
 30
0.0
 10
48.36352820301193
 20
94.10563076287359
 30
0.0
  0
LINE
  5
1E5
330
1F
100
AcDbEntity
  8
0
  6
HIDDEN
 62
     7
370
     0
100
AcDbLine
 10
49.5135273536
 20
128.2127213361
 30
0.0
 11
49.5135273536
 21
131.0926594468
 31
0.0
  0
SPLINE
  5
1E6
330
1F
100
AcDbEntity
  8
0
  6
HIDDEN
 62
     7
370
     0
100
AcDbSpline
210
0.0
220
0.0
230
1.0
 70
     8
 71
     3
 72
     8
 73
     4
 74
     0
 42
0.00000001
 43
0.00000001
 40
0.0
 40
0.0
 40
0.0
 40
0.0
 40
1.0
 40
1.0
 40
1.0
 40
1.0
 10
49.51352820301196
 20
126.1173452390951
 30
0.0
 10
49.5635337008594
 20
126.0863094655623
 30
0.0
 10
49.61353377042778
 20
126.0552648212214
 30
0.0
 10
49.6635282031171
 20
126.0242112261282
 30
0.0
  0
LINE
  5
1E7
330
1F
100
AcDbEntity
  8
0
  6
HIDDEN
 62
     7
370
     0
100
AcDbLine
 10
49.5135273536
 20
128.2127213361
 30
0.0
 11
49.5135273536
 21
126.117346126
 31
0.0
  0
SPLINE
  5
1E8
330
1F
100
AcDbEntity
  8
0
  6
HIDDEN
 62
     7
370
     0
100
AcDbSpline
210
0.0
220
0.0
230
1.0
 70
     8
 71
     3
 72
    10
 73
     6
 74
     0
 42
0.00000001
 43
0.00000001
 40
0.0
 40
0.0
 40
0.0
 40
0.0
 40
0.5
 40
0.5
 40
1.0
 40
1.0
 40
1.0
 40
1.0
 10
49.50348327259377
 20
131.0826746823842
 30
0.0
 10
49.43592401767552
 20
131.0149832895744
 30
0.0
 10
49.37228736233901
 20
130.9402761248208
 30
0.0
 10
49.26206660776715
 20
130.7813099923941
 30
0.0
 10
49.21525031454453
 20
130.6969547263861
 30
0.0
 10
49.18768184911647
 20
130.6128401236944
 30
0.0
  0
LINE
  5
1E9
330
1F
100
AcDbEntity
  8
0
  6
HIDDEN
 62
     7
370
     0
100
AcDbLine
 10
48.3635283759
 20
128.2127213361
 30
0.0
 11
48.3635283759
 21
129.9133983137
 31
0.0
  0
SPLINE
  5
1EA
330
1F
100
AcDbEntity
  8
0
  6
HIDDEN
 62
     7
370
     0
100
AcDbSpline
210
0.0
220
0.0
230
1.0
 70
     8
 71
     3
 72
    10
 73
     6
 74
     0
 42
0.00000001
 43
0.00000001
 40
0.0
 40
0.0
 40
0.0
 40
0.0
 40
0.5
 40
0.5
 40
1.0
 40
1.0
 40
1.0
 40
1.0
 10
48.42619157773537
 20
129.8972733348773
 30
0.0
 10
48.4172872886266
 20
129.9430148540904
 30
0.0
 10
48.40077190843361
 20
129.9602056935594
 30
0.0
 10
48.373663962372
 20
129.9598824166237
 30
0.0
 10
48.36352820301196
 20
129.9420048743273
 30
0.0
 10
48.36352820301196
 20
129.9133985365746
 30
0.0
  0
ELLIPSE
  5
1EB
330
1F
100
AcDbEntity
  8
0
  6
HIDDEN
 62
     7
370
     0
100
AcDbEllipse
 10
44.1210963403
 20
110.2227207901
 30
0.0
 11
20.19992452772428
 21
-1.421085471520200E-14
 31
0.0
210
0.0
220
0.0
230
1.0
 40
0.816496581
 41
1.300566354937165
 42
1.359198697442763
  0
LINE
  5
1EC
330
1F
100
AcDbEntity
  8
0
  6
HIDDEN
 62
     7
370
     0
100
AcDbLine
 10
48.3635283759
 20
128.2127213361
 30
0.0
 11
48.3635283759
 21
126.3480365904
 31
0.0
  0
LINE
  5
1ED
330
1F
100
AcDbEntity
  8
0
  6
HIDDEN
 62
     7
370
     0
100
AcDbLine
 10
48.3635283759
 20
126.3480365904
 30
0.0
 11
48.3635283759
 21
124.4823553296
 31
0.0
  0
LINE
  5
1EE
330
1F
100
AcDbEntity
  8
0
  6
HIDDEN
 62
     7
370
     0
100
AcDbLine
 10
49.5135273536
 20
92.2327202441
 30
0.0
 11
49.5135273536
 21
94.3373155477
 31
0.0
  0
LINE
  5
1EF
330
1F
100
AcDbEntity
  8
0
  6
HIDDEN
 62
     7
370
     0
100
AcDbLine
 10
48.3635283759
 20
92.2327202441
 30
0.0
 11
48.3635283759
 21
90.5320432665
 31
0.0
  0
LINE
  5
1F0
330
1F
100
AcDbEntity
  8
0
  6
HIDDEN
 62
     7
370
     0
100
AcDbLine
 10
49.5135273536
 20
92.2327202441
 30
0.0
 11
49.5135273536
 21
89.3527821334
 31
0.0
  0
SPLINE
  5
1F1
330
1F
100
AcDbEntity
  8
0
  6
HIDDEN
 62
     7
370
     0
100
AcDbSpline
210
0.0
220
0.0
230
1.0
 70
     8
 71
     3
 72
    10
 73
     6
 74
     0
 42
0.00000001
 43
0.00000001
 40
0.0
 40
0.0
 40
0.0
 40
0.0
 40
0.5
 40
0.5
 40
1.0
 40
1.0
 40
1.0
 40
1.0
 10
49.18768184911651
 20
89.83260145649857
 30
0.0
 10
49.21515926386972
 20
89.74876466003296
 30
0.0
 10
49.26186789415738
 20
89.66445417244613
 30
0.0
 10
49.37214635689932
 20
89.50533294196327
 30
0.0
 10
49.43603389551096
 20
89.43034819787519
 30
0.0
 10
49.50348327259329
 20
89.36276689780932
 30
0.0
  0
SPLINE
  5
1F2
330
1F
100
AcDbEntity
  8
0
  6
HIDDEN
 62
     7
370
     0
100
AcDbSpline
210
0.0
220
0.0
230
1.0
 70
     8
 71
     3
 72
    10
 73
     6
 74
     0
 42
0.00000001
 43
0.00000001
 40
0.0
 40
0.0
 40
0.0
 40
0.0
 40
0.5
 40
0.5
 40
1.0
 40
1.0
 40
1.0
 40
1.0
 10
48.36352820301129
 20
90.53204304361903
 30
0.0
 10
48.36352820301125
 20
90.50316877875963
 30
0.0
 10
48.37372211277236
 20
90.4856652223811
 30
0.0
 10
48.40047271758049
 20
90.48513365955337
 30
0.0
 10
48.41736016951184
 20
90.50280111673293
 30
0.0
 10
48.42619157773537
 20
90.54816824531578
 30
0.0
  0
LINE
  5
1F3
330
1F
100
AcDbEntity
  8
0
  6
HIDDEN
 62
     7
370
     0
100
AcDbLine
 10
48.3635283759
 20
92.2327202441
 30
0.0
 11
48.3635283759
 21
94.1056304308
 31
0.0
  0
ARC
  5
1F4
330
1F
100
AcDbEntity
  8
0
  6
HIDDEN
 62
     7
370
     0
100
AcDbCircle
 10
222.7635264149
 20
105.9951243787
 30
0.0
 40
2.345983359628543
100
AcDbArc
 50
223.2670016767
 51
316.7329983233
  0
LWPOLYLINE
  5
1F5
330
1F
100
AcDbEntity
  8
0
  6
HIDDEN
 62
     7
370
     0
100
AcDbPolyline
 90
       11
 70
   128
 43
0.0
 10
220.4635321846
 20
105.4727209428
 10
220.5760955563
 20
106.0882390173
 10
220.9027886143
 20
106.6435058763
 10
221.4116185656
 20
107.0841681374
 10
222.0527857294
 20
107.3670906642
 10
222.7635264149
 20
107.4645791831
 10
223.4742671003
 20
107.3670906642
 10
224.1154342642
 20
107.0841681374
 10
224.6242642155
 20
106.6435058763
 10
224.9509572735
 20
106.0882390173
 10
225.0635355463
 20
105.4727209428
  0
LWPOLYLINE
  5
1F6
330
1F
100
AcDbEntity
  8
0
  6
HIDDEN
 62
     7
370
     0
100
AcDbPolyline
 90
       11
 70
   128
 43
0.0
 10
225.0635355463
 20
105.4727209428
 10
224.9509572735
 20
104.8572028684
 10
224.6242642155
 20
104.3019357765
 10
224.1154342642
 20
103.8612735154
 10
223.4742671003
 20
103.5783507558
 10
222.7635264149
 20
103.480862237
 10
222.0527857294
 20
103.5783507558
 10
221.4116185656
 20
103.8612735154
 10
220.9027886143
 20
104.3019357765
 10
220.5760955563
 20
104.8572028684
 10
220.4635321846
 20
105.4727209428
  0
LINE
  5
1F7
330
1F
100
AcDbEntity
  8
0
  6
HIDDEN
 62
     7
370
     0
100
AcDbLine
 10
216.5135323753
 20
113.7465606606
 30
0.0
 11
216.5135323753
 21
113.5311627457
 31
0.0
  0
LINE
  5
1F8
330
1F
100
AcDbEntity
  8
0
  6
HIDDEN
 62
     7
370
     0
100
AcDbLine
 10
217.6135211935
 20
113.5984112205
 30
0.0
 11
217.6135211935
 21
113.8135516247
 31
0.0
  0
LINE
  5
1F9
330
1F
100
AcDbEntity
  8
0
  6
HIDDEN
 62
     7
370
     0
100
AcDbLine
 10
216.5135323753
 20
116.2807082454
 30
0.0
 11
216.5135323753
 21
116.4961063931
 31
0.0
  0
LINE
  5
1FA
330
1F
100
AcDbEntity
  8
0
  6
HIDDEN
 62
     7
370
     0
100
AcDbLine
 10
217.6135211935
 20
116.440336469
 30
0.0
 11
217.6135211935
 21
116.2251962977
 31
0.0
  0
SPLINE
  5
1FB
330
1F
100
AcDbEntity
  8
0
  6
HIDDEN
 62
     7
370
     0
100
AcDbSpline
210
0.0
220
0.0
230
1.0
 70
     8
 71
     3
 72
    10
 73
     6
 74
     0
 42
0.00000001
 43
0.00000001
 40
0.0
 40
0.0
 40
0.0
 40
0.0
 40
0.5
 40
0.5
 40
1.0
 40
1.0
 40
1.0
 40
1.0
 10
96.35352820301196
 20
137.3423746411323
 30
0.0
 10
96.35352820301196
 20
137.1987622895742
 30
0.0
 10
96.38969547810981
 20
137.0557888758555
 30
0.0
 10
96.52545142186392
 20
136.8057962491417
 30
0.0
 10
96.62572111248691
 20
136.6977939398629
 30
0.0
 10
96.74782573470341
 20
136.6227207900962
 30
0.0
  0
LINE
  5
1FC
330
1F
100
AcDbEntity
  8
0
  6
HIDDEN
 62
     7
370
     0
100
AcDbLine
 10
96.3535282513
 20
137.3423740895
 30
0.0
 11
96.3535282513
 21
83.4183257701
 31
0.0
  0
SPLINE
  5
1FD
330
1F
100
AcDbEntity
  8
0
  6
HIDDEN
 62
     7
370
     0
100
AcDbSpline
210
0.0
220
0.0
230
1.0
 70
     8
 71
     3
 72
    10
 73
     6
 74
     0
 42
0.00000001
 43
0.00000001
 40
0.0
 40
0.0
 40
0.0
 40
0.0
 40
0.5
 40
0.5
 40
1.0
 40
1.0
 40
1.0
 40
1.0
 10
96.35352820301196
 20
83.4183251617672
 30
0.0
 10
96.35352820301196
 20
83.4885615221377
 30
0.0
 10
96.36181081510239
 20
83.55855562363493
 30
0.0
 10
96.3949107581607
 20
83.69551488819334
 30
0.0
 10
96.41924815011903
 20
83.7608227974484
 30
0.0
 10
96.45120300534346
 20
83.82272079009512
 30
0.0
  0
SPLINE
  5
1FE
330
1F
100
AcDbEntity
  8
0
  6
HIDDEN
 62
     7
370
     0
100
AcDbSpline
210
0.0
220
0.0
230
1.0
 70
    24
 71
     3
 72
    12
 73
     8
 74
     0
 42
0.00000001
 43
0.00000001
 40
0.0
 40
0.0
 40
0.0
 40
0.0
 40
0.4999999999999909
 40
0.4999999999999909
 40
0.7499999999999954
 40
0.7499999999999954
 40
1.0
 40
1.0
 40
1.0
 40
1.0
 10
96.74782573470304
 20
136.6227207900965
 30
0.0
 10
96.7906323818241
 20
136.6227207900965
 30
0.0
 10
96.84035957266661
 20
136.6227207900965
 30
0.0
 10
96.93626776315422
 20
136.6227207900965
 30
0.0
 10
96.97193987065457
 20
136.6227207900965
 30
0.0
 10
97.05576148786487
 20
136.6227207900965
 30
0.0
 10
97.10385779827772
 20
136.6227207900965
 30
0.0
 10
97.15352820301196
 20
136.6227207900965
 30
0.0
  0
SPLINE
  5
1FF
330
1F
100
AcDbEntity
  8
0
  6
HIDDEN
 62
     7
370
     0
100
AcDbSpline
210
0.0
220
0.0
230
1.0
 70
    24
 71
     3
 72
    14
 73
    10
 74
     0
 42
0.00000001
 43
0.00000001
 40
0.0
 40
0.0
 40
0.0
 40
0.0
 40
0.4999999999999968
 40
0.4999999999999968
 40
0.7499999999999967
 40
0.7499999999999967
 40
0.8749999999999983
 40
0.8749999999999983
 40
1.0
 40
1.0
 40
1.0
 40
1.0
 10
96.45120300534413
 20
83.82272079009654
 30
0.0
 10
96.49822300825195
 20
83.82272079009654
 30
0.0
 10
96.5616289950159
 20
83.82272079009654
 30
0.0
 10
96.7042695669648
 20
83.82272079009654
 30
0.0
 10
96.75952202515343
 20
83.82272079009653
 30
0.0
 10
96.872498334809
 20
83.82272079009654
 30
0.0
 10
96.9149727320717
 20
83.82272079009653
 30
0.0
 10
97.01979810925022
 20
83.82272079009653
 30
0.0
 10
97.08480572326238
 20
83.82272079009653
 30
0.0
 10
97.15352820301194
 20
83.82272079009654
 30
0.0
  0
LINE
  5
200
330
1F
100
AcDbEntity
  8
0
  6
HIDDEN
 62
     7
370
     0
100
AcDbLine
 10
100.1735284677
 20
137.3423740895
 30
0.0
 11
100.1735284677
 21
83.4183257701
 31
0.0
  0
SPLINE
  5
201
330
1F
100
AcDbEntity
  8
0
  6
HIDDEN
 62
     7
370
     0
100
AcDbSpline
210
0.0
220
0.0
230
1.0
 70
     8
 71
     3
 72
    10
 73
     6
 74
     0
 42
0.00000001
 43
0.00000001
 40
0.0
 40
0.0
 40
0.0
 40
0.0
 40
0.5
 40
0.5
 40
1.0
 40
1.0
 40
1.0
 40
1.0
 10
99.77923067132099
 20
136.6227207900965
 30
0.0
 10
99.90054319441874
 20
136.6973069363847
 30
0.0
 10
100.0019715566439
 20
136.8061312475361
 30
0.0
 10
100.137915122904
 20
137.0571517661577
 30
0.0
 10
100.173528203012
 20
137.199734459297
 30
0.0
 10
100.173528203012
 20
137.3423746411323
 30
0.0
  0
SPLINE
  5
202
330
1F
100
AcDbEntity
  8
0
  6
HIDDEN
 62
     7
370
     0
100
AcDbSpline
210
0.0
220
0.0
230
1.0
 70
     8
 71
     3
 72
    10
 73
     6
 74
     0
 42
0.00000001
 43
0.00000001
 40
0.0
 40
0.0
 40
0.0
 40
0.0
 40
0.5
 40
0.5
 40
1.0
 40
1.0
 40
1.0
 40
1.0
 10
100.0758534006797
 20
83.82272079009654
 30
0.0
 10
100.1080085883016
 20
83.76043474458044
 30
0.0
 10
100.1326648194959
 20
83.69390431971122
 30
0.0
 10
100.1654775764214
 20
83.55704568934881
 30
0.0
 10
100.173528203012
 20
83.48798809417049
 30
0.0
 10
100.173528203012
 20
83.4183251617672
 30
0.0
  0
SPLINE
  5
203
330
1F
100
AcDbEntity
  8
0
  6
HIDDEN
 62
     7
370
     0
100
AcDbSpline
210
0.0
220
0.0
230
1.0
 70
    24
 71
     3
 72
    12
 73
     8
 74
     0
 42
0.00000001
 43
0.00000001
 40
0.0
 40
0.0
 40
0.0
 40
0.0
 40
0.25
 40
0.25
 40
0.5
 40
0.5
 40
1.0
 40
1.0
 40
1.0
 40
1.0
 10
99.3735282030114
 20
136.6227207900965
 30
0.0
 10
99.42306330922942
 20
136.6227207900965
 30
0.0
 10
99.47146819783099
 20
136.6227207900965
 30
0.0
 10
99.55435474700874
 20
136.6227207900965
 30
0.0
 10
99.59086946847714
 20
136.6227207900965
 30
0.0
 10
99.68720230683195
 20
136.6227207900965
 30
0.0
 10
99.73595485449464
 20
136.6227207900965
 30
0.0
 10
99.77923067132537
 20
136.6227207900965
 30
0.0
  0
SPLINE
  5
204
330
1F
100
AcDbEntity
  8
0
  6
HIDDEN
 62
     7
370
     0
100
AcDbSpline
210
0.0
220
0.0
230
1.0
 70
    24
 71
     3
 72
    14
 73
    10
 74
     0
 42
0.00000001
 43
0.00000001
 40
0.0
 40
0.0
 40
0.0
 40
0.0
 40
0.1249999999999997
 40
0.1249999999999997
 40
0.2499999999999993
 40
0.2499999999999993
 40
0.4999999999999996
 40
0.4999999999999996
 40
1.0
 40
1.0
 40
1.0
 40
1.0
 10
99.37352820301196
 20
83.82272079009654
 30
0.0
 10
99.44262483535591
 20
83.82272079009654
 30
0.0
 10
99.50761800096386
 20
83.82272079009654
 30
0.0
 10
99.611939199609
 20
83.82272079009654
 30
0.0
 10
99.65471957371747
 20
83.82272079009654
 30
0.0
 10
99.76705723336372
 20
83.82272079009653
 30
0.0
 10
99.82210441550609
 20
83.82272079009654
 30
0.0
 10
99.96598118927615
 20
83.82272079009653
 30
0.0
 10
100.0290105025512
 20
83.82272079009654
 30
0.0
 10
100.0758534006797
 20
83.82272079009654
 30
0.0
  0
LINE
  5
205
330
1F
100
AcDbEntity
  8
0
  6
HIDDEN
 62
     7
370
     0
100
AcDbLine
 10
97.153528755
 20
136.622720647
 30
0.0
 11
99.373527964
 21
136.622720647
 31
0.0
  0
LINE
  5
206
330
1F
100
AcDbEntity
  8
0
  6
HIDDEN
 62
     7
370
     0
100
AcDbLine
 10
97.153528755
 20
83.8227209331
 30
0.0
 11
99.373527964
 21
83.8227209331
 31
0.0
  0
LWPOLYLINE
  5
207
330
1F
100
AcDbEntity
  8
0
  6
HIDDEN
 62
     7
370
     0
100
AcDbPolyline
 90
        2
 70
   128
 43
0.0
 10
240.2635246267
 20
116.1977208847
 10
240.2635246267
 20
116.1977208847
  0
LWPOLYLINE
  5
208
330
1F
100
AcDbEntity
  8
0
  6
HIDDEN
 62
     7
370
     0
100
AcDbPolyline
 90
        2
 70
   128
 43
0.0
 10
240.2635246267
 20
104.2477206955
 10
240.2635246267
 20
104.2477206955
  0
LWPOLYLINE
  5
209
330
1F
100
AcDbEntity
  8
0
  6
HIDDEN
 62
     7
370
     0
100
AcDbPolyline
 90
        2
 70
   128
 43
0.0
 10
239.5635276785
 20
104.9477209033
 10
239.5635276785
 20
104.9477209033
  0
LWPOLYLINE
  5
20A
330
1F
100
AcDbEntity
  8
0
  6
HIDDEN
 62
     7
370
     0
100
AcDbPolyline
 90
        2
 70
   128
 43
0.0
 10
236.7135315886
 20
104.9477209033
 10
236.7135315886
 20
104.9477209033
  0
LWPOLYLINE
  5
20B
330
1F
100
AcDbEntity
  8
0
  6
HIDDEN
 62
     7
370
     0
100
AcDbPolyline
 90
        2
 70
   128
 43
0.0
 10
239.5635276785
 20
115.4977206768
 10
239.5635276785
 20
115.4977206768
  0
LWPOLYLINE
  5
20C
330
1F
100
AcDbEntity
  8
0
  6
HIDDEN
 62
     7
370
     0
100
AcDbPolyline
 90
        2
 70
   128
 43
0.0
 10
236.7135315886
 20
115.4977206768
 10
236.7135315886
 20
115.4977206768
  0
SPLINE
  5
20D
330
1F
100
AcDbEntity
  8
0
  6
HIDDEN
 62
     7
370
     0
100
AcDbSpline
210
0.0
220
0.0
230
1.0
 70
     8
 71
     3
 72
     8
 73
     4
 74
     0
 42
0.00000001
 43
0.00000001
 40
0.0
 40
0.0
 40
0.0
 40
0.0
 40
1.0
 40
1.0
 40
1.0
 40
1.0
 10
94.8715953715229
 20
140.6899162632608
 30
0.0
 10
95.36673540088722
 20
139.8032366150805
 30
0.0
 10
95.8608181061662
 20
138.9159739793945
 30
0.0
 10
96.35352820301195
 20
138.0279549812681
 30
0.0
  0
LINE
  5
20E
330
1F
100
AcDbEntity
  8
0
  6
HIDDEN
 62
     7
370
     0
100
AcDbLine
 10
96.3535282513
 20
138.0279541643
 30
0.0
 11
96.3535282513
 21
137.3423740895
 31
0.0
  0
LINE
  5
20F
330
1F
100
AcDbEntity
  8
0
  6
HIDDEN
 62
     7
370
     0
100
AcDbLine
 10
93.2135285562
 20
136.622720647
 30
0.0
 11
96.747826015
 21
136.622720647
 31
0.0
  0
LINE
  5
210
330
1F
100
AcDbEntity
  8
0
  6
HIDDEN
 62
     7
370
     0
100
AcDbLine
 10
96.3535282513
 20
138.0279541643
 30
0.0
 11
96.3535282513
 21
82.7248834701
 31
0.0
  0
SPLINE
  5
211
330
1F
100
AcDbEntity
  8
0
  6
HIDDEN
 62
     7
370
     0
100
AcDbSpline
210
0.0
220
0.0
230
1.0
 70
     8
 71
     3
 72
     8
 73
     4
 74
     0
 42
0.00000001
 43
0.00000001
 40
0.0
 40
0.0
 40
0.0
 40
0.0
 40
1.0
 40
1.0
 40
1.0
 40
1.0
 10
100.173528203012
 20
138.0279549812681
 30
0.0
 10
100.6662382998577
 20
138.9159739793945
 30
0.0
 10
101.1603210051367
 20
139.8032366150805
 30
0.0
 10
101.655461034501
 20
140.6899162632608
 30
0.0
  0
LINE
  5
212
330
1F
100
AcDbEntity
  8
0
  6
HIDDEN
 62
     7
370
     0
100
AcDbLine
 10
101.6554601243
 20
140.6899162265
 30
0.0
 11
105.6135289123
 21
140.6899162265
 31
0.0
  0
SPLINE
  5
213
330
1F
100
AcDbEntity
  8
0
  6
HIDDEN
 62
     7
370
     0
100
AcDbSpline
210
0.0
220
0.0
230
1.0
 70
     8
 71
     3
 72
    12
 73
     8
 74
     0
 42
0.00000001
 43
0.00000001
 40
0.0
 40
0.0
 40
0.0
 40
0.0
 40
0.25
 40
0.25
 40
0.5
 40
0.5
 40
1.0
 40
1.0
 40
1.0
 40
1.0
 10
105.613528203012
 20
140.6899162632608
 30
0.0
 10
105.6930211520601
 20
140.6899162632608
 30
0.0
 10
105.7741046534157
 20
140.6729135133
 30
0.0
 10
105.9205350505534
 20
140.6088529721884
 30
0.0
 10
105.9870836604271
 20
140.5616943565499
 30
0.0
 10
106.1513735344007
 20
140.3884723238578
 30
0.0
 10
106.213528203012
 20
140.2283632336237
 30
0.0
 10
106.213528203012
 20
140.0691611138604
 30
0.0
  0
LINE
  5
214
330
1F
100
AcDbEntity
  8
0
  6
HIDDEN
 62
     7
370
     0
100
AcDbLine
 10
100.1735284677
 20
137.3423740895
 30
0.0
 11
100.1735284677
 21
138.0279541643
 31
0.0
  0
LINE
  5
215
330
1F
100
AcDbEntity
  8
0
  6
HIDDEN
 62
     7
370
     0
100
AcDbLine
 10
99.779230704
 20
136.622720647
 30
0.0
 11
106.2135278931
 21
136.622720647
 31
0.0
  0
LINE
  5
216
330
1F
100
AcDbEntity
  8
0
  6
HIDDEN
 62
     7
370
     0
100
AcDbLine
 10
106.2135278931
 20
140.0691617908
 30
0.0
 11
106.2135278931
 21
136.622720647
 31
0.0
  0
SPLINE
  5
217
330
1F
100
AcDbEntity
  8
0
  6
HIDDEN
 62
     7
370
     0
100
AcDbSpline
210
0.0
220
0.0
230
1.0
 70
     8
 71
     3
 72
    12
 73
     8
 74
     0
 42
0.00000001
 43
0.00000001
 40
0.0
 40
0.0
 40
0.0
 40
0.0
 40
0.2499999999999962
 40
0.2499999999999962
 40
0.4999999999999925
 40
0.4999999999999925
 40
1.0
 40
1.0
 40
1.0
 40
1.0
 10
105.613528203012
 20
80.03580309384937
 30
0.0
 10
105.6934092077591
 20
80.03580309384938
 30
0.0
 10
105.7740033380297
 20
80.05292018011521
 30
0.0
 10
105.9206187838746
 20
80.11765629159032
 30
0.0
 10
105.9871199766186
 20
80.16511353447068
 30
0.0
 10
106.1528548777558
 20
80.34193797701018
 30
0.0
 10
106.213528203012
 20
80.50221448421591
 30
0.0
 10
106.213528203012
 20
80.66244338950368
 30
0.0
  0
LINE
  5
218
330
1F
100
AcDbEntity
  8
0
  6
HIDDEN
 62
     7
370
     0
100
AcDbLine
 10
106.2135278931
 20
140.0691617908
 30
0.0
 11
106.2135278931
 21
80.6624435516
 31
0.0
  0
LINE
  5
219
330
1F
100
AcDbEntity
  8
0
  6
HIDDEN
 62
     7
370
     0
100
AcDbLine
 10
101.6554601243
 20
140.6899162265
 30
0.0
 11
101.6554601243
 21
80.0358031573
 31
0.0
  0
LINE
  5
21A
330
1F
100
AcDbEntity
  8
0
  6
HIDDEN
 62
     7
370
     0
100
AcDbLine
 10
100.1735284677
 20
138.0279541643
 30
0.0
 11
100.1735284677
 21
82.7248834701
 31
0.0
  0
LWPOLYLINE
  5
21B
330
1F
100
AcDbEntity
  8
0
  6
HIDDEN
 62
     7
370
     0
100
AcDbPolyline
 90
        2
 70
   128
 43
0.0
 10
236.2135231247
 20
114.9977205949
 10
236.2135231247
 20
114.9977205949
  0
LWPOLYLINE
  5
21C
330
1F
100
AcDbEntity
  8
0
  6
HIDDEN
 62
     7
370
     0
100
AcDbPolyline
 90
        2
 70
   128
 43
0.0
 10
236.2135231247
 20
105.4477209853
 10
236.2135231247
 20
105.4477209853
  0
ARC
  5
21D
330
1F
100
AcDbEntity
  8
0
  6
HIDDEN
 62
     7
370
     0
100
AcDbCircle
 10
222.7635264149
 20
105.0404462315
 30
0.0
 40
2.345983531331149
100
AcDbArc
 50
43.2670061318
 51
136.7329938682
  0
SPLINE
  5
21E
330
1F
100
AcDbEntity
  8
0
  6
HIDDEN
 62
     7
370
     0
100
AcDbSpline
210
0.0
220
0.0
230
1.0
 70
     8
 71
     3
 72
    26
 73
    22
 74
     0
 42
0.00000001
 43
0.00000001
 40
0.0
 40
0.0
 40
0.0
 40
0.0
 40
0.2500000000000016
 40
0.2500000000000016
 40
0.3750000000000032
 40
0.3750000000000032
 40
0.4375000000000029
 40
0.4375000000000029
 40
0.468750000000004
 40
0.468750000000004
 40
0.500000000000005
 40
0.500000000000005
 40
0.5312500000000061
 40
0.5312500000000061
 40
0.5625000000000072
 40
0.5625000000000072
 40
0.625000000000007
 40
0.625000000000007
 40
0.7500000000000047
 40
0.7500000000000047
 40
1.0
 40
1.0
 40
1.0
 40
1.0
 10
49.18768184911647
 20
130.6128401236944
 30
0.0
 10
49.14908132624799
 20
130.4950654273389
 30
0.0
 10
49.10278432369375
 20
130.370675741177
 30
0.0
 10
49.00884497525981
 20
130.1654564088235
 30
0.0
 10
48.97353350834635
 20
130.0938835423771
 30
0.0
 10
48.90735353260067
 20
129.9779303097766
 30
0.0
 10
48.88281516593246
 20
129.9373457749664
 30
0.0
 10
48.83944242037866
 20
129.8732040930946
 30
0.0
 10
48.82393401895347
 20
129.8513376678096
 30
0.0
 10
48.78889137436646
 20
129.8057433994664
 30
0.0
 10
48.76934108364667
 20
129.782073108499
 30
0.0
 10
48.72741380327606
 20
129.737456549159
 30
0.0
 10
48.70476169304442
 20
129.7165765366411
 30
0.0
 10
48.66378797895779
 20
129.6857031228903
 30
0.0
 10
48.64618867906238
 20
129.6758642530579
 30
0.0
 10
48.60156169320621
 20
129.6568746373617
 30
0.0
 10
48.58100247055287
 20
129.6565503127083
 30
0.0
 10
48.52987703105621
 20
129.6657737535845
 30
0.0
 10
48.50896561806767
 20
129.6870206498014
 30
0.0
 10
48.45751571050673
 20
129.7609895286322
 30
0.0
 10
48.43985041120219
 20
129.827107621947
 30
0.0
 10
48.42619157773537
 20
129.8972733348773
 30
0.0
  0
SPLINE
  5
21F
330
1F
100
AcDbEntity
  8
0
  6
HIDDEN
 62
     7
370
     0
100
AcDbSpline
210
0.0
220
0.0
230
1.0
 70
     8
 71
     3
 72
    24
 73
    20
 74
     0
 42
0.00000001
 43
0.00000001
 40
0.0
 40
0.0
 40
0.0
 40
0.0
 40
0.25
 40
0.25
 40
0.374999999999999
 40
0.374999999999999
 40
0.4374999999999993
 40
0.4374999999999993
 40
0.4687499999999994
 40
0.4687499999999994
 40
0.4999999999999995
 40
0.4999999999999995
 40
0.5624999999999971
 40
0.5624999999999971
 40
0.6249999999999947
 40
0.6249999999999947
 40
0.7499999999999947
 40
0.7499999999999947
 40
1.0
 40
1.0
 40
1.0
 40
1.0
 10
48.42619157773537
 20
90.54816824531578
 30
0.0
 10
48.43994469640558
 20
90.61881830330607
 30
0.0
 10
48.45771726381145
 20
90.685416416071
 30
0.0
 10
48.50996835536681
 20
90.7595144363042
 30
0.0
 10
48.53100343094837
 20
90.78077224346576
 30
0.0
 10
48.5839038385768
 20
90.788918169612
 30
0.0
 10
48.60500951145472
 20
90.78797836621622
 30
0.0
 10
48.6510616801327
 20
90.76696237463888
 30
0.0
 10
48.66943215211608
 20
90.75605356853127
 30
0.0
 10
48.71098378718177
 20
90.7234186575839
 30
0.0
 10
48.7335504599387
 20
90.70192667721253
 30
0.0
 10
48.79633147639871
 20
90.63346073362621
 30
0.0
 10
48.82946123736662
 20
90.58738627542112
 30
0.0
 10
48.88637892385162
 20
90.50237838708645
 30
0.0
 10
48.91056494935539
 20
90.46209808590508
 30
0.0
 10
48.97577289973515
 20
90.34716185943913
 30
0.0
 10
49.01048895992639
 20
90.27657887429213
 30
0.0
 10
49.10370423025729
 20
90.07237311521352
 30
0.0
 10
49.14937676561795
 20
89.94947473288616
 30
0.0
 10
49.18768184911649
 20
89.83260145649858
 30
0.0
  0
LINE
  5
220
330
1F
100
AcDbEntity
  8
0
  6
HIDDEN
 62
     7
370
     0
100
AcDbLine
 10
48.3635283759
 20
129.9133983137
 30
0.0
 11
48.3635283759
 21
90.5320432665
 31
0.0
  0
SPLINE
  5
221
330
1F
100
AcDbEntity
  8
0
  6
HIDDEN
 62
     7
370
     0
100
AcDbSpline
210
0.0
220
0.0
230
1.0
 70
     8
 71
     3
 72
     8
 73
     4
 74
     0
 42
0.00000001
 43
0.00000001
 40
0.0
 40
0.0
 40
0.0
 40
0.0
 40
1.0
 40
1.0
 40
1.0
 40
1.0
 10
100.173528203012
 20
82.72488363104168
 30
0.0
 10
100.6658673257931
 20
81.82761359683496
 30
0.0
 10
101.1599813738353
 20
80.93132918178273
 30
0.0
 10
101.655461034501
 20
80.03580309384937
 30
0.0
  0
LINE
  5
222
330
1F
100
AcDbEntity
  8
0
  6
HIDDEN
 62
     7
370
     0
100
AcDbLine
 10
101.6554601243
 20
80.0358031573
 30
0.0
 11
105.6135289123
 21
80.0358031573
 31
0.0
  0
LINE
  5
223
330
1F
100
AcDbEntity
  8
0
  6
HIDDEN
 62
     7
370
     0
100
AcDbLine
 10
100.1735284677
 20
83.4183257701
 30
0.0
 11
100.1735284677
 21
82.7248834701
 31
0.0
  0
LINE
  5
224
330
1F
100
AcDbEntity
  8
0
  6
HIDDEN
 62
     7
370
     0
100
AcDbLine
 10
100.0758532187
 20
83.8227209331
 30
0.0
 11
106.2135278931
 21
83.8227209331
 31
0.0
  0
LINE
  5
225
330
1F
100
AcDbEntity
  8
0
  6
HIDDEN
 62
     7
370
     0
100
AcDbLine
 10
106.2135278931
 20
80.6624435516
 30
0.0
 11
106.2135278931
 21
83.8227209331
 31
0.0
  0
SPLINE
  5
226
330
1F
100
AcDbEntity
  8
0
  6
HIDDEN
 62
     7
370
     0
100
AcDbSpline
210
0.0
220
0.0
230
1.0
 70
     8
 71
     3
 72
     8
 73
     4
 74
     0
 42
0.00000001
 43
0.00000001
 40
0.0
 40
0.0
 40
0.0
 40
0.0
 40
1.0
 40
1.0
 40
1.0
 40
1.0
 10
94.8715953715229
 20
80.03580309384937
 30
0.0
 10
95.36707503218864
 20
80.93132918178273
 30
0.0
 10
95.86118908023079
 20
81.82761359683496
 30
0.0
 10
96.35352820301196
 20
82.72488363104166
 30
0.0
  0
LINE
  5
227
330
1F
100
AcDbEntity
  8
0
  6
HIDDEN
 62
     7
370
     0
100
AcDbLine
 10
96.3535282513
 20
82.7248834701
 30
0.0
 11
96.3535282513
 21
83.4183257701
 31
0.0
  0
LINE
  5
228
330
1F
100
AcDbEntity
  8
0
  6
HIDDEN
 62
     7
370
     0
100
AcDbLine
 10
93.2135285562
 20
83.8227209331
 30
0.0
 11
96.4512035003
 21
83.8227209331
 31
0.0
  0
SPLINE
  5
229
330
1F
100
AcDbEntity
  8
0
  6
HIDDEN
 62
     7
370
     0
100
AcDbSpline
210
0.0
220
0.0
230
1.0
 70
     8
 71
     3
 72
     8
 73
     4
 74
     0
 42
0.00000001
 43
0.00000001
 40
0.0
 40
0.0
 40
0.0
 40
0.0
 40
0.001156372467817
 40
0.001156372467817
 40
0.001156372467817
 40
0.001156372467817
 10
49.36352820301225
 20
122.8628631035722
 30
0.0
 10
49.030207087815
 20
122.991922129199
 30
0.0
 10
48.69687440700693
 20
123.1208824653676
 30
0.0
 10
48.36352820301195
 20
123.2497939951405
 30
0.0
  0
SPLINE
  5
22A
330
1F
100
AcDbEntity
  8
0
  6
HIDDEN
 62
     7
370
     0
100
AcDbSpline
210
0.0
220
0.0
230
1.0
 70
    24
 71
     3
 72
     9
 73
     5
 74
     0
 42
0.00000001
 43
0.00000001
 40
0.0
 40
0.0
 40
0.0
 40
0.0
 40
0.2800000000000028
 40
0.5035680872885745
 40
0.5035680872885745
 40
0.5035680872885745
 40
0.5035680872885745
 10
48.36352820301196
 20
124.4823553304958
 30
0.0
 10
48.36352820301196
 20
124.3116571091642
 30
0.0
 10
48.36352820301195
 20
123.9480823300267
 30
0.0
 10
48.36352820301195
 20
123.4776234070088
 30
0.0
 10
48.36352820301195
 20
123.2497939951405
 30
0.0
  0
SPLINE
  5
22B
330
1F
100
AcDbEntity
  8
0
  6
HIDDEN
 62
     7
370
     0
100
AcDbSpline
210
0.0
220
0.0
230
1.0
 70
     8
 71
     3
 72
    11
 73
     7
 74
     0
 42
0.00000001
 43
0.00000001
 40
0.0
 40
0.0
 40
0.0
 40
0.0
 40
0.000577874610501
 40
0.000577874610501
 40
0.000577874610501
 40
0.001155749485703
 40
0.001155749485703
 40
0.001155749485703
 40
0.001155749485703
 10
48.36352820301196
 20
97.19549892764584
 30
0.0
 10
48.53019507942506
 20
97.26131105442884
 30
0.0
 10
48.69686179898635
 20
97.32716953465636
 30
0.0
 10
48.86352844703498
 20
97.3930771076787
 30
0.0
 10
49.0301951715536
 20
97.45898471094078
 30
0.0
 10
49.1968618659743
 20
97.52494181942276
 30
0.0
 10
49.36352820301196
 20
97.5909435594424
 30
0.0
  0
SPLINE
  5
22C
330
1F
100
AcDbEntity
  8
0
  6
HIDDEN
 62
     7
370
     0
100
AcDbSpline
210
0.0
220
0.0
230
1.0
 70
    24
 71
     3
 72
    10
 73
     6
 74
     0
 42
0.00000001
 43
0.00000001
 40
0.496475489364915
 40
0.496475489364915
 40
0.496475489364915
 40
0.496475489364915
 40
0.5599999999992117
 40
0.78
 40
1.0
 40
1.0
 40
1.0
 40
1.0
 10
48.36352820301196
 20
97.19549892764584
 30
0.0
 10
48.36352820301196
 20
97.13067553256406
 30
0.0
 10
48.36352820301196
 20
96.84798304977429
 30
0.0
 10
48.36352820301193
 20
96.40263828226072
 30
0.0
 10
48.36352820301195
 20
96.09661592027672
 30
0.0
 10
48.36352820301196
 20
95.96308624973628
 30
0.0
  0
SPLINE
  5
22D
330
1F
100
AcDbEntity
  8
0
  6
HIDDEN
 62
     7
370
     0
100
AcDbSpline
210
0.0
220
0.0
230
1.0
 70
     8
 71
     3
 72
    11
 73
     7
 74
     0
 42
0.00000001
 43
0.00000001
 40
0.0000000000000006
 40
0.0000000000000006
 40
0.0000000000000006
 40
0.0000000000000006
 40
0.000578048606266
 40
0.000578048606266
 40
0.000578048606266
 40
0.001156097351391
 40
0.001156097351391
 40
0.001156097351391
 40
0.001156097351391
 10
48.36352820301196
 20
120.2035352833838
 30
0.0
 10
48.53019805905716
 20
120.1411634219786
 30
0.0
 10
48.69686576314158
 20
120.0788095617872
 30
0.0
 10
48.86353206759524
 20
120.0164900017036
 30
0.0
 10
49.03019840828898
 20
119.9541704280693
 30
0.0
 10
49.1968633649176
 20
119.8918852238487
 30
0.0
 10
49.36352820301196
 20
119.8296601033757
 30
0.0
  0
LINE
  5
22E
330
1F
100
AcDbEntity
  8
0
  6
HIDDEN
 62
     7
370
     0
100
AcDbLine
 10
48.3635283759
 20
123.2497936742
 30
0.0
 11
48.3635283759
 21
120.2035353215
 31
0.0
  0
SPLINE
  5
22F
330
1F
100
AcDbEntity
  8
0
  6
HIDDEN
 62
     7
370
     0
100
AcDbSpline
210
0.0
220
0.0
230
1.0
 70
     8
 71
     3
 72
    11
 73
     7
 74
     0
 42
0.00000001
 43
0.00000001
 40
0.0
 40
0.0
 40
0.0
 40
0.0
 40
0.0005782401583357
 40
0.0005782401583357
 40
0.0005782401583357
 40
0.001156480596064
 40
0.001156480596064
 40
0.001156480596064
 40
0.001156480596064
 10
49.36352820301196
 20
100.6218940053362
 30
0.0
 10
49.19687725266322
 20
100.5584685473971
 30
0.0
 10
49.03021766008064
 20
100.4951130238673
 30
0.0
 10
48.8635506076521
 20
100.431815439646
 30
0.0
 10
48.69688347108828
 20
100.3685178234714
 30
0.0
 10
48.53020886364215
 20
100.3052780286625
 30
0.0
 10
48.36352820301195
 20
100.2420780221582
 30
0.0
  0
LINE
  5
230
330
1F
100
AcDbEntity
  8
0
  6
HIDDEN
 62
     7
370
     0
100
AcDbLine
 10
48.3635283759
 20
100.242077622
 30
0.0
 11
48.3635283759
 21
97.1954988943
 31
0.0
  0
SPLINE
  5
231
330
1F
100
AcDbEntity
  8
0
  6
HIDDEN
 62
     7
370
     0
100
AcDbSpline
210
0.0
220
0.0
230
1.0
 70
    24
 71
     3
 72
     9
 73
     5
 74
     0
 42
0.00000001
 43
0.00000001
 40
0.5653008539630588
 40
0.5653008539630588
 40
0.5653008539630588
 40
0.5653008539630588
 40
0.7800000000000004
 40
1.0
 40
1.0
 40
1.0
 40
1.0
 10
48.36352820301196
 20
120.2035352833749
 30
0.0
 10
48.36352820301196
 20
120.0099324343475
 30
0.0
 10
48.36352820301196
 20
119.5772595540619
 30
0.0
 10
48.36352820301196
 20
119.0802704170564
 30
0.0
 10
48.36352820301196
 20
118.8191961051312
 30
0.0
  0
SPLINE
  5
232
330
1F
100
AcDbEntity
  8
0
  6
HIDDEN
 62
     7
370
     0
100
AcDbSpline
210
0.0
220
0.0
230
1.0
 70
    24
 71
     3
 72
     9
 73
     5
 74
     0
 42
0.00000001
 43
0.00000001
 40
0.0
 40
0.0
 40
0.0
 40
0.0
 40
0.2800000000000002
 40
0.4346860848337685
 40
0.4346860848337685
 40
0.4346860848337685
 40
0.4346860848337685
 10
48.36352820301193
 20
101.6262454750197
 30
0.0
 10
48.36352820301195
 20
101.2924171517957
 30
0.0
 10
48.36352820301193
 20
100.8010909580827
 30
0.0
 10
48.36352820301195
 20
100.3814843353069
 30
0.0
 10
48.36352820301195
 20
100.242078022168
 30
0.0
  0
LINE
  5
233
330
1F
100
AcDbEntity
  8
0
  6
HIDDEN
 62
     7
370
     0
100
AcDbLine
 10
48.3635283759
 20
118.8191960262
 30
0.0
 11
48.3635283759
 21
101.626245554
 31
0.0
  0
CIRCLE
  5
234
330
1F
100
AcDbEntity
  8
0
  6
HIDDEN
 62
     7
370
     0
100
AcDbCircle
 10
87.263528203
 20
110.2227207901
 30
0.0
 40
5.000000000000014
  0
LINE
  5
235
330
1F
100
AcDbEntity
  8
0
  6
HIDDEN
 62
     7
370
     0
100
AcDbLine
 10
84.263528393
 20
124.5205563189
 30
0.0
 11
84.263528393
 21
122.6166610302
 31
0.0
  0
LINE
  5
236
330
1F
100
AcDbEntity
  8
0
  6
HIDDEN
 62
     7
370
     0
100
AcDbLine
 10
92.2635283073
 20
122.6166610302
 30
0.0
 11
92.2635283073
 21
124.523351218
 31
0.0
  0
LINE
  5
237
330
1F
100
AcDbEntity
  8
0
  6
HIDDEN
 62
     7
370
     0
100
AcDbLine
 10
80.263528203
 20
84.8987896623
 30
0.0
 11
80.3576889753
 21
85.5687775346
 31
0.0
  0
LINE
  5
238
330
1F
100
AcDbEntity
  8
0
  6
HIDDEN
 62
     7
370
     0
100
AcDbLine
 10
80.3576889753
 20
134.8766640456
 30
0.0
 11
80.263528203
 21
135.5466519179
 31
0.0
  0
ARC
  5
239
330
1F
100
AcDbEntity
  8
0
  6
HIDDEN
 62
     7
370
     0
100
AcDbCircle
 10
79.7635214503
 20
85.6522831757
 30
0.0
 40
0.60000675266771
100
AcDbArc
 50
352.0
 51
0.0
  0
ARC
  5
23A
330
1F
100
AcDbEntity
  8
0
  6
HIDDEN
 62
     7
370
     0
100
AcDbCircle
 10
79.7635214503
 20
85.6522831757
 30
0.0
 40
0.6000067526677164
100
AcDbArc
 50
0.0
 51
33.5571153394
  0
ARC
  5
23B
330
1F
100
AcDbEntity
  8
0
  6
HIDDEN
 62
     7
370
     0
100
AcDbCircle
 10
79.7635214503
 20
134.7931584045
 30
0.0
 40
0.6000067526677113
100
AcDbArc
 50
348.75
 51
8.0
  0
LWPOLYLINE
  5
23C
330
1F
100
AcDbEntity
  8
0
  6
HIDDEN
 62
     7
370
     0
100
AcDbPolyline
 90
        3
 70
   128
 43
0.0
 10
80.3519992419
 20
134.6761037292
 10
80.3178554102
 20
134.5635459455
 10
80.263528203
 20
134.4614934804
  0
LINE
  5
23D
330
1F
100
AcDbEntity
  8
0
  6
HIDDEN
 62
     7
370
     0
100
AcDbLine
 10
80.3635282005
 20
85.6522836419
 30
0.0
 11
80.3635282005
 21
134.7931579383
 31
0.0
  0
LINE
  5
23E
330
1F
100
AcDbEntity
  8
0
  6
HIDDEN
 62
     7
370
     0
100
AcDbLine
 10
80.3635282005
 20
85.6522836419
 30
0.0
 11
80.3635282005
 21
134.7931579383
 31
0.0
  0
ARC
  5
23F
330
1F
100
AcDbEntity
  8
0
  6
HIDDEN
 62
     7
370
     0
100
AcDbCircle
 10
74.0185302046
 20
98.2227207901
 30
0.0
 40
8.000000000000016
100
AcDbArc
 50
276.8676760514
 51
321.3178125465
  0
ARC
  5
240
330
1F
100
AcDbEntity
  8
0
  6
HIDDEN
 62
     7
370
     0
100
AcDbCircle
 10
74.0185302046
 20
122.2227207901
 30
0.0
 40
8.00000000000002
100
AcDbArc
 50
38.6821874535
 51
83.1186663825
  0
LINE
  5
241
330
1F
100
AcDbEntity
  8
0
  6
HIDDEN
 62
     7
370
     0
100
AcDbLine
 10
63.3459642282
 20
90.2227212371
 30
0.0
 11
67.562103433
 21
90.2227212371
 31
0.0
  0
LINE
  5
242
330
1F
100
AcDbEntity
  8
0
  6
HIDDEN
 62
     7
370
     0
100
AcDbLine
 10
67.562103433
 20
130.2227203431
 30
0.0
 11
63.3459642282
 21
130.2227203431
 31
0.0
  0
ARC
  5
243
330
1F
100
AcDbEntity
  8
0
  6
HIDDEN
 62
     7
370
     0
100
AcDbCircle
 10
63.3459637683
 20
90.8227207901
 30
0.0
 40
0.6000000000000085
100
AcDbArc
 50
210.0
 51
270.0
  0
ARC
  5
244
330
1F
100
AcDbEntity
  8
0
  6
HIDDEN
 62
     7
370
     0
100
AcDbCircle
 10
63.3459637683
 20
129.6227207901
 30
0.0
 40
0.6000000000000032
100
AcDbArc
 50
90.0
 51
150.0
  0
LINE
  5
245
330
1F
100
AcDbEntity
  8
0
  6
HIDDEN
 62
     7
370
     0
100
AcDbLine
 10
62.8263476988
 20
129.9227208527
 30
0.0
 11
61.2675036987
 21
127.222721714
 31
0.0
  0
LINE
  5
246
330
1F
100
AcDbEntity
  8
0
  6
HIDDEN
 62
     7
370
     0
100
AcDbLine
 10
61.2675036987
 20
93.2227198662
 30
0.0
 11
62.8263476988
 21
90.5227207275
 31
0.0
  0
LINE
  5
247
330
1F
100
AcDbEntity
  8
0
  6
HIDDEN
 62
     7
370
     0
100
AcDbLine
 10
84.263528393
 20
137.4970537307
 30
0.0
 11
84.263528393
 21
134.1683224471
 31
0.0
  0
LINE
  5
248
330
1F
100
AcDbEntity
  8
0
  6
HIDDEN
 62
     7
370
     0
100
AcDbLine
 10
92.2635283073
 20
134.1683224471
 30
0.0
 11
92.2635283073
 21
137.5023864837
 31
0.0
  0
ARC
  5
249
330
1F
100
AcDbEntity
  8
0
  6
HIDDEN
 62
     7
370
     0
100
AcDbCircle
 10
88.713528203
 20
94.4977207901
 30
0.0
 40
1.5
100
AcDbArc
 50
238.2116693829
 51
0.0
  0
ARC
  5
24A
330
1F
100
AcDbEntity
  8
0
  6
HIDDEN
 62
     7
370
     0
100
AcDbCircle
 10
88.713528203
 20
125.9477207901
 30
0.0
 40
1.500000000000001
100
AcDbArc
 50
0.0
 51
121.7883306171
  0
LINE
  5
24B
330
1F
100
AcDbEntity
  8
0
  6
HIDDEN
 62
     7
370
     0
100
AcDbLine
 10
58.4635279825
 20
93.2227198662
 30
0.0
 11
61.2675036987
 21
93.2227198662
 31
0.0
  0
LINE
  5
24C
330
1F
100
AcDbEntity
  8
0
  6
HIDDEN
 62
     7
370
     0
100
AcDbLine
 10
61.2675036987
 20
127.222721714
 30
0.0
 11
54.4635273268
 21
127.222721714
 31
0.0
  0
LINE
  5
24D
330
1F
100
AcDbEntity
  8
0
  6
HIDDEN
 62
     7
370
     0
100
AcDbLine
 10
80.263528203
 20
93.2227198662
 30
0.0
 11
87.923354165
 21
93.2227198662
 31
0.0
  0
LINE
  5
24E
330
1F
100
AcDbEntity
  8
0
  6
HIDDEN
 62
     7
370
     0
100
AcDbLine
 10
87.923354165
 20
127.222721714
 30
0.0
 11
80.263528203
 21
127.222721714
 31
0.0
  0
ARC
  5
24F
330
1F
100
AcDbEntity
  8
0
  6
HIDDEN
 62
     7
370
     0
100
AcDbCircle
 10
210.913528203
 20
123.8477207901
 30
0.0
 40
0.3000000000000114
100
AcDbArc
 50
0.0
 51
90.0
  0
ARC
  5
250
330
1F
100
AcDbEntity
  8
0
  6
HIDDEN
 62
     7
370
     0
100
AcDbCircle
 10
210.913528203
 20
96.5977207901
 30
0.0
 40
0.3000000000000114
100
AcDbArc
 50
270.0
 51
0.0
  0
LINE
  5
251
330
1F
100
AcDbEntity
  8
0
  6
HIDDEN
 62
     7
370
     0
100
AcDbLine
 10
210.2135300388
 20
96.2977206962
 30
0.0
 11
210.9135269871
 21
96.2977206962
 31
0.0
  0
LINE
  5
252
330
1F
100
AcDbEntity
  8
0
  6
HIDDEN
 62
     7
370
     0
100
AcDbLine
 10
210.9135269871
 20
124.147720884
 30
0.0
 11
210.2135300388
 21
124.147720884
 31
0.0
  0
ARC
  5
253
330
1F
100
AcDbEntity
  8
0
  6
HIDDEN
 62
     7
370
     0
100
AcDbCircle
 10
211.413528203
 20
122.7727207901
 30
0.0
 40
0.2000000000000028
100
AcDbArc
 50
180.0
 51
270.0
  0
ARC
  5
254
330
1F
100
AcDbEntity
  8
0
  6
HIDDEN
 62
     7
370
     0
100
AcDbCircle
 10
211.413528203
 20
97.6727207901
 30
0.0
 40
0.1999999999999886
100
AcDbArc
 50
90.0
 51
180.0
  0
LINE
  5
255
330
1F
100
AcDbEntity
  8
0
  6
HIDDEN
 62
     7
370
     0
100
AcDbLine
 10
239.5635276785
 20
122.7227209764
 30
0.0
 11
235.713529562
 21
122.7227209764
 31
0.0
  0
LINE
  5
256
330
1F
100
AcDbEntity
  8
0
  6
HIDDEN
 62
     7
370
     0
100
AcDbLine
 10
235.713529562
 20
97.7227206038
 30
0.0
 11
239.5635276785
 21
97.7227206038
 31
0.0
  0
LINE
  5
257
330
1F
100
AcDbEntity
  8
0
  6
HIDDEN
 62
     7
370
     0
100
AcDbLine
 10
220.4635321846
 20
122.7227209764
 30
0.0
 11
213.2135212173
 21
122.7227209764
 31
0.0
  0
LINE
  5
258
330
1F
100
AcDbEntity
  8
0
  6
HIDDEN
 62
     7
370
     0
100
AcDbLine
 10
234.6135258427
 20
122.7227209764
 30
0.0
 11
225.057500576
 21
122.7227209764
 31
0.0
  0
LINE
  5
259
330
1F
100
AcDbEntity
  8
0
  6
HIDDEN
 62
     7
370
     0
100
AcDbLine
 10
218.6099916449
 20
97.7227206038
 30
0.0
 11
234.6135258427
 21
97.7227206038
 31
0.0
  0
LINE
  5
25A
330
1F
100
AcDbEntity
  8
0
  6
HIDDEN
 62
     7
370
     0
100
AcDbLine
 10
213.2135212173
 20
97.7227206038
 30
0.0
 11
215.3135269632
 21
97.7227206038
 31
0.0
  0
LINE
  5
25B
330
1F
100
AcDbEntity
  8
0
  6
HIDDEN
 62
     7
370
     0
100
AcDbLine
 10
213.2135212173
 20
122.7227209764
 30
0.0
 11
212.6791506758
 21
122.5795357184
 31
0.0
  0
LINE
  5
25C
330
1F
100
AcDbEntity
  8
0
  6
HIDDEN
 62
     7
370
     0
100
AcDbLine
 10
212.6791506758
 20
97.8659058617
 30
0.0
 11
213.2135212173
 21
97.7227206038
 31
0.0
  0
ARC
  5
25D
330
1F
100
AcDbEntity
  8
0
  6
HIDDEN
 62
     7
370
     0
100
AcDbCircle
 10
212.6273900824
 20
122.7727207901
 30
0.0
 40
0.2000000000000028
100
AcDbArc
 50
270.0
 51
285.0
  0
ARC
  5
25E
330
1F
100
AcDbEntity
  8
0
  6
HIDDEN
 62
     7
370
     0
100
AcDbCircle
 10
212.6273900824
 20
97.6727207901
 30
0.0
 40
0.1999999999999911
100
AcDbArc
 50
75.0
 51
90.0
  0
LINE
  5
25F
330
1F
100
AcDbEntity
  8
0
  6
HIDDEN
 62
     7
370
     0
100
AcDbLine
 10
212.6273840418
 20
122.5727212312
 30
0.0
 11
211.4135354509
 21
122.5727212312
 31
0.0
  0
LINE
  5
260
330
1F
100
AcDbEntity
  8
0
  6
HIDDEN
 62
     7
370
     0
100
AcDbLine
 10
211.4135354509
 20
97.872720349
 30
0.0
 11
212.6273840418
 21
97.872720349
 31
0.0
  0
ARC
  5
261
330
1F
100
AcDbEntity
  8
0
  6
HIDDEN
 62
     7
370
     0
100
AcDbCircle
 10
234.713528203
 20
122.2977207901
 30
0.0
 40
0.0999999999999943
100
AcDbArc
 50
180.0
 51
270.0
  0
ARC
  5
262
330
1F
100
AcDbEntity
  8
0
  6
HIDDEN
 62
     7
370
     0
100
AcDbCircle
 10
234.713528203
 20
98.1477207901
 30
0.0
 40
0.0999999999999943
100
AcDbArc
 50
90.0
 51
180.0
  0
ARC
  5
263
330
1F
100
AcDbEntity
  8
0
  6
HIDDEN
 62
     7
370
     0
100
AcDbCircle
 10
235.613528203
 20
122.2977207901
 30
0.0
 40
0.0999999999999943
100
AcDbArc
 50
270.0
 51
0.0
  0
ARC
  5
264
330
1F
100
AcDbEntity
  8
0
  6
HIDDEN
 62
     7
370
     0
100
AcDbCircle
 10
235.613528203
 20
98.1477207901
 30
0.0
 40
0.0999999999999943
100
AcDbArc
 50
0.0
 51
90.0
  0
LINE
  5
265
330
1F
100
AcDbEntity
  8
0
  6
HIDDEN
 62
     7
370
     0
100
AcDbLine
 10
235.6135278692
 20
122.1977204712
 30
0.0
 11
234.7135275354
 21
122.1977204712
 31
0.0
  0
LINE
  5
266
330
1F
100
AcDbEntity
  8
0
  6
HIDDEN
 62
     7
370
     0
100
AcDbLine
 10
234.7135275354
 20
98.247721109
 30
0.0
 11
235.6135278692
 21
98.247721109
 31
0.0
  0
LINE
  5
267
330
1F
100
AcDbEntity
  8
0
  6
HIDDEN
 62
     7
370
     0
100
AcDbLine
 10
225.0635355463
 20
103.9732734369
 30
0.0
 11
225.0635355463
 21
105.4727209428
 31
0.0
  0
LINE
  5
268
330
1F
100
AcDbEntity
  8
0
  6
HIDDEN
 62
     7
370
     0
100
AcDbLine
 10
220.4635321846
 20
105.4727209428
 30
0.0
 11
220.4635321846
 21
103.972720697
 31
0.0
  0
LINE
  5
269
330
1F
100
AcDbEntity
  8
0
  6
HIDDEN
 62
     7
370
     0
100
AcDbLine
 10
218.6135232201
 20
114.9707466992
 30
0.0
 11
218.6135232201
 21
116.4713634806
 31
0.0
  0
LINE
  5
26A
330
1F
100
AcDbEntity
  8
0
  6
HIDDEN
 62
     7
370
     0
100
AcDbLine
 10
215.3135269632
 20
116.4727208832
 30
0.0
 11
215.3135269632
 21
114.9716333183
 31
0.0
  0
LINE
  5
26B
330
1F
100
AcDbEntity
  8
0
  6
HIDDEN
 62
     7
370
     0
100
AcDbLine
 10
239.7135227671
 20
122.5727212312
 30
0.0
 11
239.5635276785
 21
122.7227209764
 31
0.0
  0
LINE
  5
26C
330
1F
100
AcDbEntity
  8
0
  6
HIDDEN
 62
     7
370
     0
100
AcDbLine
 10
239.5635276785
 20
97.7227206038
 30
0.0
 11
239.7135227671
 21
97.872720349
 31
0.0
  0
ARC
  5
26D
330
1F
100
AcDbEntity
  8
0
  6
HIDDEN
 62
     7
370
     0
100
AcDbCircle
 10
211.6773900824
 20
119.6727207901
 30
0.0
 40
0.2000000000000171
100
AcDbArc
 50
75.0
 51
90.0
  0
ARC
  5
26E
330
1F
100
AcDbEntity
  8
0
  6
HIDDEN
 62
     7
370
     0
100
AcDbCircle
 10
211.6773900824
 20
100.7727207901
 30
0.0
 40
0.2000000000000028
100
AcDbArc
 50
270.0
 51
285.0
  0
LINE
  5
26F
330
1F
100
AcDbEntity
  8
0
  6
HIDDEN
 62
     7
370
     0
100
AcDbLine
 10
211.6773903122
 20
119.8727211611
 30
0.0
 11
210.4635268202
 21
119.8727211611
 31
0.0
  0
LINE
  5
270
330
1F
100
AcDbEntity
  8
0
  6
HIDDEN
 62
     7
370
     0
100
AcDbLine
 10
210.4635268202
 20
100.5727204191
 30
0.0
 11
211.6773903122
 21
100.5727204191
 31
0.0
  0
ARC
  5
271
330
1F
100
AcDbEntity
  8
0
  6
HIDDEN
 62
     7
370
     0
100
AcDbCircle
 10
210.463528203
 20
119.6727207901
 30
0.0
 40
0.2000000000000028
100
AcDbArc
 50
90.0
 51
180.0
  0
ARC
  5
272
330
1F
100
AcDbEntity
  8
0
  6
HIDDEN
 62
     7
370
     0
100
AcDbCircle
 10
210.463528203
 20
100.7727207901
 30
0.0
 40
0.1999999999999886
100
AcDbArc
 50
180.0
 51
270.0
  0
LINE
  5
273
330
1F
100
AcDbEntity
  8
0
  6
HIDDEN
 62
     7
370
     0
100
AcDbLine
 10
211.7291569462
 20
100.5795358377
 30
0.0
 11
212.2635274878
 21
100.7227210956
 31
0.0
  0
LINE
  5
274
330
1F
100
AcDbEntity
  8
0
  6
HIDDEN
 62
     7
370
     0
100
AcDbLine
 10
212.2635274878
 20
119.7227204846
 30
0.0
 11
211.7291569462
 21
119.8659057425
 31
0.0
  0
LINE
  5
275
330
1F
100
AcDbEntity
  8
0
  6
HIDDEN
 62
     7
370
     0
100
AcDbLine
 10
99.0635279318
 20
100.7227210956
 30
0.0
 11
102.0635284235
 21
100.7227210956
 31
0.0
  0
LINE
  5
276
330
1F
100
AcDbEntity
  8
0
  6
HIDDEN
 62
     7
370
     0
100
AcDbLine
 10
102.0635284235
 20
119.7227204846
 30
0.0
 11
99.0635279318
 21
119.7227204846
 31
0.0
  0
LINE
  5
277
330
1F
100
AcDbEntity
  8
0
  6
HIDDEN
 62
     7
370
     0
100
AcDbLine
 10
220.4635321846
 20
119.7227204846
 30
0.0
 11
217.6135211935
 21
119.7227204846
 31
0.0
  0
LINE
  5
278
330
1F
100
AcDbEntity
  8
0
  6
HIDDEN
 62
     7
370
     0
100
AcDbLine
 10
239.5635276785
 20
119.7227204846
 30
0.0
 11
225.0635355463
 21
119.7227204846
 31
0.0
  0
LINE
  5
279
330
1F
100
AcDbEntity
  8
0
  6
HIDDEN
 62
     7
370
     0
100
AcDbLine
 10
218.611764883
 20
100.7227210956
 30
0.0
 11
239.5635276785
 21
100.7227210956
 31
0.0
  0
LINE
  5
27A
330
1F
100
AcDbEntity
  8
0
  6
HIDDEN
 62
     7
370
     0
100
AcDbLine
 10
216.5135323753
 20
119.7227204846
 30
0.0
 11
212.2635274878
 21
119.7227204846
 31
0.0
  0
LINE
  5
27B
330
1F
100
AcDbEntity
  8
0
  6
HIDDEN
 62
     7
370
     0
100
AcDbLine
 10
212.2635274878
 20
100.7227210956
 30
0.0
 11
215.3188019743
 21
100.7227210956
 31
0.0
  0
LINE
  5
27C
330
1F
100
AcDbEntity
  8
0
  6
HIDDEN
 62
     7
370
     0
100
AcDbLine
 10
90.2135280644
 20
101.2227211775
 30
0.0
 11
90.7135281464
 21
101.7227203282
 31
0.0
  0
LINE
  5
27D
330
1F
100
AcDbEntity
  8
0
  6
HIDDEN
 62
     7
370
     0
100
AcDbLine
 10
90.7135281464
 20
118.722721252
 30
0.0
 11
90.2135280644
 21
119.2227204027
 31
0.0
  0
LINE
  5
27E
330
1F
100
AcDbEntity
  8
0
  6
HIDDEN
 62
     7
370
     0
100
AcDbLine
 10
90.7135281464
 20
101.7227203282
 30
0.0
 11
99.0635279318
 21
101.7227203282
 31
0.0
  0
LINE
  5
27F
330
1F
100
AcDbEntity
  8
0
  6
HIDDEN
 62
     7
370
     0
100
AcDbLine
 10
99.0635279318
 20
118.722721252
 30
0.0
 11
90.7135281464
 21
118.722721252
 31
0.0
  0
LINE
  5
280
330
1F
100
AcDbEntity
  8
0
  6
HIDDEN
 62
     7
370
     0
100
AcDbLine
 10
85.2135281762
 20
141.7227212967
 30
0.0
 11
85.2135281762
 21
136.622720647
 31
0.0
  0
LINE
  5
281
330
1F
100
AcDbEntity
  8
0
  6
HIDDEN
 62
     7
370
     0
100
AcDbLine
 10
240.2635246267
 20
120.1268660532
 30
0.0
 11
239.5635276785
 21
119.7227204846
 31
0.0
  0
LINE
  5
282
330
1F
100
AcDbEntity
  8
0
  6
HIDDEN
 62
     7
370
     0
100
AcDbLine
 10
239.5635276785
 20
100.7227210956
 30
0.0
 11
240.2635246267
 21
100.318575527
 31
0.0
  0
LINE
  5
283
330
1F
100
AcDbEntity
  8
0
  6
HIDDEN
 62
     7
370
     0
100
AcDbLine
 10
217.5135344019
 20
120.2477209898
 30
0.0
 11
216.6135340681
 21
120.2477209898
 31
0.0
  0
ARC
  5
284
330
1F
100
AcDbEntity
  8
0
  6
HIDDEN
 62
     7
370
     0
100
AcDbCircle
 10
217.513528203
 20
120.1477207901
 30
0.0
 40
0.1000000000000085
100
AcDbArc
 50
0.0
 51
90.0
  0
ARC
  5
285
330
1F
100
AcDbEntity
  8
0
  6
HIDDEN
 62
     7
370
     0
100
AcDbCircle
 10
216.613528203
 20
120.1477207901
 30
0.0
 40
0.0999999999999943
100
AcDbArc
 50
90.0
 51
180.0
  0
LINE
  5
286
330
1F
100
AcDbEntity
  8
0
  6
HIDDEN
 62
     7
370
     0
100
AcDbLine
 10
210.2635234346
 20
115.2727205934
 30
0.0
 11
209.2635214081
 21
114.2727208951
 31
0.0
  0
LINE
  5
287
330
1F
100
AcDbEntity
  8
0
  6
HIDDEN
 62
     7
370
     0
100
AcDbLine
 10
209.2635214081
 20
106.172720685
 30
0.0
 11
210.2635234346
 21
105.1727209868
 31
0.0
  0
LINE
  5
288
330
1F
100
AcDbEntity
  8
0
  6
HIDDEN
 62
     7
370
     0
100
AcDbLine
 10
75.4479660405
 20
86.1433495464
 30
0.0
 11
75.0135338617
 21
86.6224162908
 31
0.0
  0
LINE
  5
289
330
1F
100
AcDbEntity
  8
0
  6
HIDDEN
 62
     7
370
     0
100
AcDbLine
 10
67.5135303041
 20
87.0441042515
 30
0.0
 11
67.0310968285
 21
86.565037507
 31
0.0
  0
LINE
  5
28A
330
1F
100
AcDbEntity
  8
0
  6
HIDDEN
 62
     7
370
     0
100
AcDbLine
 10
67.0309748253
 20
133.8803984853
 30
0.0
 11
67.5135256475
 21
133.4012777241
 31
0.0
  0
LINE
  5
28B
330
1F
100
AcDbEntity
  8
0
  6
HIDDEN
 62
     7
370
     0
100
AcDbLine
 10
75.0135282738
 20
133.8229768606
 30
0.0
 11
75.4480703486
 21
134.3020957591
 31
0.0
  0
LINE
  5
28C
330
1F
100
AcDbEntity
  8
0
  6
HIDDEN
 62
     7
370
     0
100
AcDbLine
 10
209.2635214081
 20
114.2727208951
 30
0.0
 11
208.2135259857
 21
114.2727208951
 31
0.0
  0
LINE
  5
28D
330
1F
100
AcDbEntity
  8
0
  6
HIDDEN
 62
     7
370
     0
100
AcDbLine
 10
208.2135259857
 20
106.172720685
 30
0.0
 11
209.2635214081
 21
106.172720685
 31
0.0
  0
LINE
  5
28E
330
1F
100
AcDbEntity
  8
0
  6
HIDDEN
 62
     7
370
     0
100
AcDbLine
 10
75.0135282738
 20
86.5223568561
 30
0.0
 11
75.0135282738
 21
90.2873196336
 31
0.0
  0
LINE
  5
28F
330
1F
100
AcDbEntity
  8
0
  6
HIDDEN
 62
     7
370
     0
100
AcDbLine
 10
67.5135284414
 20
90.2317364397
 30
0.0
 11
67.5135284414
 21
87.0444264891
 31
0.0
  0
LINE
  5
290
330
1F
100
AcDbEntity
  8
0
  6
HIDDEN
 62
     7
370
     0
100
AcDbLine
 10
75.0135282738
 20
130.1581219466
 30
0.0
 11
75.0135282738
 21
133.923006493
 31
0.0
  0
LINE
  5
291
330
1F
100
AcDbEntity
  8
0
  6
HIDDEN
 62
     7
370
     0
100
AcDbLine
 10
67.5135284414
 20
133.4010225417
 30
0.0
 11
67.5135284414
 21
130.2137051405
 31
0.0
  0
LINE
  5
292
330
1F
100
AcDbEntity
  8
0
  6
HIDDEN
 62
     7
370
     0
100
AcDbLine
 10
102.0635284235
 20
107.722720846
 30
0.0
 11
208.2135259857
 21
107.722720846
 31
0.0
  0
LINE
  5
293
330
1F
100
AcDbEntity
  8
0
  6
HIDDEN
 62
     7
370
     0
100
AcDbLine
 10
208.2135259857
 20
112.7227207342
 30
0.0
 11
102.0635284235
 21
112.7227207342
 31
0.0
  0
LINE
  5
294
330
1F
100
AcDbEntity
  8
0
  6
HIDDEN
 62
     7
370
     0
100
AcDbLine
 10
220.4635321846
 20
122.7227209764
 30
0.0
 11
220.4635321846
 21
119.7227204846
 31
0.0
  0
LINE
  5
295
330
1F
100
AcDbEntity
  8
0
  6
HIDDEN
 62
     7
370
     0
100
AcDbLine
 10
225.0635355463
 20
119.7227204846
 30
0.0
 11
225.0635355463
 21
122.7227209764
 31
0.0
  0
LINE
  5
296
330
1F
100
AcDbEntity
  8
0
  6
HIDDEN
 62
     7
370
     0
100
AcDbLine
 10
215.3135269632
 20
100.723634723
 30
0.0
 11
215.3135269632
 21
97.7227206038
 31
0.0
  0
LINE
  5
297
330
1F
100
AcDbEntity
  8
0
  6
HIDDEN
 62
     7
370
     0
100
AcDbLine
 10
218.6135232201
 20
97.7227206038
 30
0.0
 11
218.6135232201
 21
100.7230247067
 31
0.0
  0
ARC
  5
298
330
1F
100
AcDbEntity
  8
0
  6
HIDDEN
 62
     7
370
     0
100
AcDbCircle
 10
53.063528203
 20
132.4927207901
 30
0.0
 40
1.399999999999984
100
AcDbArc
 50
270.0
 51
301.7485287426
  0
ARC
  5
299
330
1F
100
AcDbEntity
  8
0
  6
HIDDEN
 62
     7
370
     0
100
AcDbCircle
 10
57.063528203
 20
87.9527207901
 30
0.0
 40
1.400000000000006
100
AcDbArc
 50
42.2465410162
 51
90.0
  0
LINE
  5
29A
330
1F
100
AcDbEntity
  8
0
  6
HIDDEN
 62
     7
370
     0
100
AcDbLine
 10
53.0635278424
 20
131.0927209141
 30
0.0
 11
49.6544159701
 21
131.0927209141
 31
0.0
  0
LINE
  5
29B
330
1F
100
AcDbEntity
  8
0
  6
HIDDEN
 62
     7
370
     0
100
AcDbLine
 10
49.5046909651
 20
131.0838845255
 30
0.0
 11
48.3734301975
 21
129.9526218953
 31
0.0
  0
LINE
  5
29C
330
1F
100
AcDbEntity
  8
0
  6
HIDDEN
 62
     7
370
     0
100
AcDbLine
 10
48.3645602813
 20
90.5016877385
 30
0.0
 11
49.5046909651
 21
89.3615570547
 31
0.0
  0
LINE
  5
29D
330
1F
100
AcDbEntity
  8
0
  6
HIDDEN
 62
     7
370
     0
100
AcDbLine
 10
49.6468648067
 20
89.3527206661
 30
0.0
 11
57.0635284981
 21
89.3527206661
 31
0.0
  0
LINE
  5
29E
330
1F
100
AcDbEntity
  8
0
  6
HIDDEN
 62
     7
370
     0
100
AcDbLine
 10
225.0635355463
 20
103.9732734369
 30
0.0
 11
225.0635355463
 21
105.4727209428
 31
0.0
  0
LINE
  5
29F
330
1F
100
AcDbEntity
  8
0
  6
HIDDEN
 62
     7
370
     0
100
AcDbLine
 10
220.4635321846
 20
105.4727209428
 30
0.0
 11
220.4635321846
 21
103.972720697
 31
0.0
  0
LINE
  5
2A0
330
1F
100
AcDbEntity
  8
0
  6
HIDDEN
 62
     7
370
     0
100
AcDbLine
 10
218.6135232201
 20
114.9707466992
 30
0.0
 11
218.6135232201
 21
116.4713634806
 31
0.0
  0
LINE
  5
2A1
330
1F
100
AcDbEntity
  8
0
  6
HIDDEN
 62
     7
370
     0
100
AcDbLine
 10
215.3135269632
 20
116.4727208832
 30
0.0
 11
215.3135269632
 21
114.9716333183
 31
0.0
  0
DIMENSION
  5
2A2
330
1F
100
AcDbEntity
  8
VERMASSUNG
100
AcDbDimension
  2
*D1
 10
252.6592274146
 20
94.2227207901
 30
0.0
 11
252.6592274146
 21
110.2227207901
 31
0.0
 70
   160
  1
%%c<>
 71
     2
 42
-1.0
  3
SLDDIMSTYLE0
100
AcDbAlignedDimension
 13
238.713528203
 23
126.2227207901
 33
0.0
 14
238.713528203
 24
94.2227207901
 34
0.0
 50
90.0
100
AcDbRotatedDimension
  0
DIMENSION
  5
2AE
330
1F
100
AcDbEntity
  8
VERMASSUNG
100
AcDbDimension
  2
*D2
 10
246.6592274146
 20
100.7227207901
 30
0.0
 11
246.6592274146
 21
110.2227207901
 31
0.0
 70
   160
  1
%%c<>
 71
     2
 42
-1.0
  3
SLDDIMSTYLE0
100
AcDbAlignedDimension
 13
239.563528203
 23
119.7227207901
 33
0.0
 14
239.563528203
 24
100.7227207901
 34
0.0
 50
90.0
100
AcDbRotatedDimension
  0
DIMENSION
  5
2B9
330
1F
100
AcDbEntity
  8
VERMASSUNG
100
AcDbDimension
  2
*D3
 10
43.1817657942
 20
78.7227207901
 30
0.0
 11
43.1817657942
 21
110.0167381302
 31
0.0
 70
   160
  1
HSK A %%c<>
 71
     2
 42
-1.0
  3
SLDDIMSTYLE0
100
AcDbAlignedDimension
 13
80.563528203
 23
141.7227207901
 33
0.0
 14
80.563528203
 24
78.7227207901
 34
0.0
 50
90.0
100
AcDbRotatedDimension
  0
DIMENSION
  5
2C5
330
1F
100
AcDbEntity
  8
VERMASSUNG
100
AcDbDimension
  2
*D4
 10
240.263528203
 20
159.8180361164
 30
0.0
 11
139.1242355759
 21
159.8180361164
 31
0.0
 70
   160
 71
     2
 42
-1.0
  3
SLDDIMSTYLE0
100
AcDbAlignedDimension
 13
48.363528203
 23
129.9133985366
 33
0.0
 14
240.263528203
 24
122.0227207901
 34
0.0
100
AcDbRotatedDimension
  0
DIMENSION
  5
2CF
330
1F
100
AcDbEntity
  8
VERMASSUNG
100
AcDbDimension
  2
*D5
 10
240.263528203
 20
153.8180361164
 30
0.0
 11
159.9343133601
 21
153.8180361164
 31
0.0
 70
   160
 71
     2
 42
-1.0
  3
SLDDIMSTYLE0
100
AcDbAlignedDimension
 13
80.263528203
 23
141.4227207901
 33
0.0
 14
240.263528203
 24
122.0227207901
 34
0.0
100
AcDbRotatedDimension
  0
DIMENSION
  5
2D9
330
1F
100
AcDbEntity
  8
VERMASSUNG
100
AcDbDimension
  2
*D6
 10
240.263528203
 20
147.8180361164
 30
0.0
 11
175.7437393709
 21
147.8180361164
 31
0.0
 70
   160
 71
     2
 42
-1.0
  3
SLDDIMSTYLE0
100
AcDbAlignedDimension
 13
106.213528203
 23
140.0691611139
 33
0.0
 14
240.263528203
 24
122.0227207901
 34
0.0
100
AcDbRotatedDimension
  0
DIMENSION
  5
2E3
330
1F
100
AcDbEntity
  8
VERMASSUNG
100
AcDbDimension
  2
*D7
 10
258.6592274146
 20
90.3506368881
 30
0.0
 11
258.6592274146
 21
110.2227207901
 31
0.0
 70
   160
  1
%%c<>
 71
     2
 42
-1.0
  3
SLDDIMSTYLE1
100
AcDbAlignedDimension
 13
108.848409006
 23
130.0948046921
 33
0.0
 14
108.848409006
 24
90.3506368881
 34
0.0
 50
90.0
100
AcDbRotatedDimension
  0
OLE2FRAME
  5
2EF
330
1F
100
AcDbEntity
  8
0
100
AcDbOle2Frame
 70
     2
  3
Bitmap Image
 10
13.8511154363
 20
38.264191557
 30
0.0
 11
51.6290888628
 21
31.9806341108
 31
0.0
 71
     2
 72
     0
 73
     1
 90
    12928
310
80552BED0767C5B32B40DDAF6807D121434000000000000000006FFBDDFB85D0
310
4940DDAF6807D121434000000000000000006FFBDDFB85D04940416F4BD60AFB
310
3F4000000000000000002BED0767C5B32B40416F4BD60AFB3F40000000000000
310
0000000000000100000000010000010000000100000000000100000000320000
310
D0CF11E0A1B11AE1000000000000000000000000000000003E000300FEFF0900
310
0600000000000000000000000100000001000000000000000010000002000000
310
01000000FEFFFFFF0000000000000000FFFFFFFFFFFFFFFFFFFFFFFFFFFFFFFF
310
FFFFFFFFFFFFFFFFFFFFFFFFFFFFFFFFFFFFFFFFFFFFFFFFFFFFFFFFFFFFFFFF
310
FFFFFFFFFFFFFFFFFFFFFFFFFFFFFFFFFFFFFFFFFFFFFFFFFFFFFFFFFFFFFFFF
310
FFFFFFFFFFFFFFFFFFFFFFFFFFFFFFFFFFFFFFFFFFFFFFFFFFFFFFFFFFFFFFFF
310
FFFFFFFFFFFFFFFFFFFFFFFFFFFFFFFFFFFFFFFFFFFFFFFFFFFFFFFFFFFFFFFF
310
FFFFFFFFFFFFFFFFFFFFFFFFFFFFFFFFFFFFFFFFFFFFFFFFFFFFFFFFFFFFFFFF
310
FFFFFFFFFFFFFFFFFFFFFFFFFFFFFFFFFFFFFFFFFFFFFFFFFFFFFFFFFFFFFFFF
310
FFFFFFFFFFFFFFFFFFFFFFFFFFFFFFFFFFFFFFFFFFFFFFFFFFFFFFFFFFFFFFFF
310
FFFFFFFFFFFFFFFFFFFFFFFFFFFFFFFFFFFFFFFFFFFFFFFFFFFFFFFFFFFFFFFF
310
FFFFFFFFFFFFFFFFFFFFFFFFFFFFFFFFFFFFFFFFFFFFFFFFFFFFFFFFFFFFFFFF
310
FFFFFFFFFFFFFFFFFFFFFFFFFFFFFFFFFFFFFFFFFFFFFFFFFFFFFFFFFFFFFFFF
310
FFFFFFFFFFFFFFFFFFFFFFFFFFFFFFFFFFFFFFFFFFFFFFFFFFFFFFFFFFFFFFFF
310
FFFFFFFFFFFFFFFFFFFFFFFFFFFFFFFFFFFFFFFFFFFFFFFFFFFFFFFFFFFFFFFF
310
FFFFFFFFFFFFFFFFFFFFFFFFFFFFFFFFFFFFFFFFFFFFFFFFFFFFFFFFFFFFFFFF
310
FDFFFFFFFEFFFFFFFEFFFFFFFEFFFFFF05000000060000000700000008000000
310
090000000A0000000B0000000C0000000D0000000E0000000F00000010000000
310
11000000120000001300000014000000150000001600000017000000FEFFFFFF
310
FFFFFFFFFFFFFFFFFFFFFFFFFFFFFFFFFFFFFFFFFFFFFFFFFFFFFFFFFFFFFFFF
310
FFFFFFFFFFFFFFFFFFFFFFFFFFFFFFFFFFFFFFFFFFFFFFFFFFFFFFFFFFFFFFFF
310
FFFFFFFFFFFFFFFFFFFFFFFFFFFFFFFFFFFFFFFFFFFFFFFFFFFFFFFFFFFFFFFF
310
FFFFFFFFFFFFFFFFFFFFFFFFFFFFFFFFFFFFFFFFFFFFFFFFFFFFFFFFFFFFFFFF
310
FFFFFFFFFFFFFFFFFFFFFFFFFFFFFFFFFFFFFFFFFFFFFFFFFFFFFFFFFFFFFFFF
310
FFFFFFFFFFFFFFFFFFFFFFFFFFFFFFFFFFFFFFFFFFFFFFFFFFFFFFFFFFFFFFFF
310
FFFFFFFFFFFFFFFFFFFFFFFFFFFFFFFFFFFFFFFFFFFFFFFFFFFFFFFFFFFFFFFF
310
FFFFFFFFFFFFFFFFFFFFFFFFFFFFFFFFFFFFFFFFFFFFFFFFFFFFFFFFFFFFFFFF
310
FFFFFFFFFFFFFFFFFFFFFFFFFFFFFFFFFFFFFFFFFFFFFFFFFFFFFFFFFFFFFFFF
310
FFFFFFFFFFFFFFFFFFFFFFFFFFFFFFFFFFFFFFFFFFFFFFFFFFFFFFFFFFFFFFFF
310
FFFFFFFFFFFFFFFFFFFFFFFFFFFFFFFFFFFFFFFFFFFFFFFFFFFFFFFFFFFFFFFF
310
FFFFFFFFFFFFFFFFFFFFFFFFFFFFFFFFFFFFFFFFFFFFFFFFFFFFFFFFFFFFFFFF
310
FFFFFFFFFFFFFFFFFFFFFFFFFFFFFFFFFFFFFFFFFFFFFFFFFFFFFFFFFFFFFFFF
310
52006F006F007400200045006E00740072007900000000000000000000000000
310
0000000000000000000000000000000000000000000000000000000000000000
310
16000500FFFFFFFFFFFFFFFF020000000A00030000000000C000000000000046
310
000000000000000000000000F0544B877EDDCB0103000000C000000000000000
310
01004F006C006500000000000000000000000000000000000000000000000000
310
0000000000000000000000000000000000000000000000000000000000000000
310
0A000200FFFFFFFFFFFFFFFFFFFFFFFF00000000000000000000000000000000
310
0000000000000000000000000000000000000000000000001400000000000000
310
010043006F006D0070004F0062006A0000000000000000000000000000000000
310
0000000000000000000000000000000000000000000000000000000000000000
310
120002010100000003000000FFFFFFFF00000000000000000000000000000000
310
0000000000000000000000000000000000000000010000004D00000000000000
310
01004F006C006500310030004E00610074006900760065000000000000000000
310
0000000000000000000000000000000000000000000000000000000000000000
310
1A000200FFFFFFFFFFFFFFFFFFFFFFFF00000000000000000000000000000000
310
0000000000000000000000000000000000000000040000002426000000000000
310
FEFFFFFF02000000FEFFFFFFFFFFFFFFFFFFFFFFFFFFFFFFFFFFFFFFFFFFFFFF
310
FFFFFFFFFFFFFFFFFFFFFFFFFFFFFFFFFFFFFFFFFFFFFFFFFFFFFFFFFFFFFFFF
310
FFFFFFFFFFFFFFFFFFFFFFFFFFFFFFFFFFFFFFFFFFFFFFFFFFFFFFFFFFFFFFFF
310
FFFFFFFFFFFFFFFFFFFFFFFFFFFFFFFFFFFFFFFFFFFFFFFFFFFFFFFFFFFFFFFF
310
FFFFFFFFFFFFFFFFFFFFFFFFFFFFFFFFFFFFFFFFFFFFFFFFFFFFFFFFFFFFFFFF
310
FFFFFFFFFFFFFFFFFFFFFFFFFFFFFFFFFFFFFFFFFFFFFFFFFFFFFFFFFFFFFFFF
310
FFFFFFFFFFFFFFFFFFFFFFFFFFFFFFFFFFFFFFFFFFFFFFFFFFFFFFFFFFFFFFFF
310
FFFFFFFFFFFFFFFFFFFFFFFFFFFFFFFFFFFFFFFFFFFFFFFFFFFFFFFFFFFFFFFF
310
FFFFFFFFFFFFFFFFFFFFFFFFFFFFFFFFFFFFFFFFFFFFFFFFFFFFFFFFFFFFFFFF
310
FFFFFFFFFFFFFFFFFFFFFFFFFFFFFFFFFFFFFFFFFFFFFFFFFFFFFFFFFFFFFFFF
310
FFFFFFFFFFFFFFFFFFFFFFFFFFFFFFFFFFFFFFFFFFFFFFFFFFFFFFFFFFFFFFFF
310
FFFFFFFFFFFFFFFFFFFFFFFFFFFFFFFFFFFFFFFFFFFFFFFFFFFFFFFFFFFFFFFF
310
FFFFFFFFFFFFFFFFFFFFFFFFFFFFFFFFFFFFFFFFFFFFFFFFFFFFFFFFFFFFFFFF
310
FFFFFFFFFFFFFFFFFFFFFFFFFFFFFFFFFFFFFFFFFFFFFFFFFFFFFFFFFFFFFFFF
310
FFFFFFFFFFFFFFFFFFFFFFFFFFFFFFFFFFFFFFFFFFFFFFFFFFFFFFFFFFFFFFFF
310
FFFFFFFFFFFFFFFFFFFFFFFFFFFFFFFFFFFFFFFFFFFFFFFFFFFFFFFFFFFFFFFF
310
0100000200000000000000000000000000000000000000000000000000000000
310
00000000000000003800000041000000180D7F0100000000260D3F0100000000
310
0100FEFF030A0000FFFFFFFF0A00030000000000C00000000000004607000000
310
5042727573680007000000504272757368000700000050427275736800F439B2
310
7100000000000000000000000000000000000000000000000000C70600000000
310
425D000000000000000000000000000000000000000000003800000041000000
310
180D7F0100000000460DA1010000000000000000000000000000000000000000
310
0000C70600000000435D00000000000000000000000000000000000000000000
310
3800000041000000180D7F0100000000C40C9301000000000000000000000000
310
00000000000000000000C706000000003D5D0000000000000000000000000000
310
00000000000000003800000041000000180D7F0100000000B80C790100000000
310
000000000000000000000000000000000000C706000000003E5D000000000000
310
000000000000000000000000000000003800000041000000180D7F0100000000
310
520DA00100000000000000000000000000000000000000000000C70600000000
310
3F5D000000000000000000000000000000000000000000003800000041000000
310
180D7F01000000003E0D0C020000000000000000000000000000000000000000
310
20260000424D0E260000000000003E00000028000000B40200006E0000000100
310
01000000000000000000130B0000130B00000200000002000000000000FFFFFF
310
FFFFFFFFFFFFFFFFFFFFFFFFFFFFFFFFFFFFFFFFFFFFFFFFFFFFFFFFFFFFFFFF
310
FFFFFFFFFFFFFFFFFFFFFFFFFFFFFFFFFFFFFFFFFFFFFFFFFFFFFFFFFFFFFFFF
310
FFFFFFFFFFFFFFFFFFFFFFFFFFFFFFFFFFFFFFFFFFFFFFFFF000FFFFFFFFFFFF
310
FFFFFFFFFFFFFFFFFFFFFFFFFFFFFFFFFFFFFFFFFFFFFFFFFFFFFFFFFFFFFFFF
310
FFFFFFFFFFFFFFFFFFFFFFFFFFFFFFFFFFFFFFFFFFFFFFFFFFFFFFFFFFFFFFFF
310
FFFFFFFFFFFFFFFFFFFFFFFFFFFFFFFFF000FFFFFFFFFFFFFFFFFFFFFFFFFFFF
310
FFFFFFFFFFFFFFFFFFFFFFFFFFFFFFFFFFFFFFFFFFFFFFFFFFFFFFFFFFFFFFFF
310
FFFFFFFFFFFFFFFFFFFFFFFFFFFFFFFFFFFFFFFFFFFFFFFFFFFFFFFFFFFFFFFF
310
FFFFFFFFFFFFFFFFF000FFFFFFFFFFFFFFFFFFFFFFFFFFFFFFFFFFFFFFFFFFFF
310
FFFFFFFFFFFFFFFFFFFFFFFFFFFFFFFFFFFFFFFFFFFFFFFFFFFFFFFFFFFFFFFF
310
FFFFFFFFFFFFFFFFFFFFFFFFFFFFFFFFFFFFFFFFFFFFFFFFFFFFFFFFFFFFFFFF
310
F000FFFFFFFFFFFFFFFFFFFFFFFFFFFFFFFFFFFFFFFFFFFFFFFFFFFFFFFFFFFF
310
FFFFFFFFFFFFFFFFFFFFFFFFFFFFFFFFFFFFFFFFFFFFFFFFFFFFFFFFFFFFFFFF
310
FFFFFFFFFFFFFFFFFFFFFFFFFFFFFFFFFFFFFFFFFFFFFFFFF000FFFFFFFFFFFF
310
FFFFFFFFFFFFFFFFFFFFFFFFFFFFFFFFFFFFFFFFFFFFFFFFFFFFFFFFFFFFFFFF
310
FFFFFFFFFFFFFFFFFFFFFFFFFFFFFFFFFFFFFFFFFFFFFFFFFFFFFFFFFFFFFFFF
310
FFFFFFFFFFFFFFFFFFFFFFFFFFFFFFFFF000FFFFFFFFFFFFFFFFFFFFFFFFFFFF
310
FFFFFFFFFFFFFFFFFFFFFFFFFFFFFFFFFFFFFFFFFFFFFFFFFFFFFFFFFFFFFFFF
310
FFFFFFFFFFFFFFFFFFFFFFFFFFFFFFFFFFFFFFFFFFFFFFFFFFFFFFFFFFFFFFFF
310
FFFFFFFFFFFFFFFFF000FFFFFFFFFFFFFFFFFFFFFFFFFFFFFFFFFFFFFFFFFFFF
310
FFFFFFFFFFFFFFFFFFFFFFFFFFFFFFFFFFFFFFFFFFFFFFFFFFFFFFFFFFFFFFFF
310
FFFFFFFFFFFFFFFFFFFFFFFFFFFFFFFFFFFFFFFFFFFFFFFFFFFFFFFFFFFFFFFF
310
F000FFFFFFFFFFFFFFFFFFFFFFFFFFFFFFFFFFFFFFFFFFFFFFFFFFFFFFFFFFFF
310
FFFFFFFFFFFFFFFFFFFFFFFFFFFFFFFFFFFFFFFFFFFFFFFFFFFFFFFFFFFFFFFF
310
FFFFFFFFFFFFFFFFFFFFFFFFFFFFFFFFFFFFFFFFFFFFFFFFF000FFFFFFFFFFFF
310
FFFFFFFFFFFFFFFFFFFFFFFFFFFFFFFFFFFFFFFFFFFFFFFFFFFFFFFFFFFFFFFF
310
FFFFFFFFFFFFFFFFFFFFFFFFFFFFFFFFFFFFFFFFFFFFFFFFFFFFFFFFFFFFFFFF
310
FFFFFFFFFFFFFFFFFFFFFFFFFFFFFFFFF000FFFFFFFFFFFFFFFFFFFFFFFFFFFF
310
FFFFFFFFFFFFFFFFFFFFFFFFFFFFFFFFFFFFFFFFFFFFFFFFFFFFFFFFFFFFFFFF
310
FFFFFFFFFFFFFFFFFFFFFFFFFFFFFFFFFFFFFFFFFFFFFFFFFFFFFFFFFFFFFFFF
310
FFFFFFFFFFFFFFFFF000FFFFFFFFFFFFFFFFFFFFFFFFFFFFFFFFFFFFFFFFFFFF
310
FFFFFFFFFFFFFFFFFFFFFFFFFFFFFFFFFFFFFFFFFFFFFFFFFFFFFFFFFFFFFFFF
310
FFFFFFFFFFFFFFFFFFFFFFFFFFFFFFFFFFFFFFFFFFFFFFFFFFFFFFFFFFFFFFFF
310
F000FFFFFFFFFFFFFFFFFFFFFFFFFFFFFFFFFFFFFFFFFFFFFFFFFFFFFFFFFFFF
310
FFFFFFFFFFFFFFFFFFFFFFFFFFFFFFFFFFFFFFFFFFFFFFFFFFFFFFFFFFFFFFFF
310
FFFFFFFFFFFFFFFFFFFFFFFFFFFFFFFFFFFFFFFFFFFFFFFFF000FFFFFFFFFFFF
310
FFFFFFFFFFFFFFFFFFFFFFFFFFFFFFFFFFFFFFFFFFFFFFFFFFFFFFFFFFFFFFFF
310
FFFFFFFFFFFFFFFFFFFFFFFFFFFFFFFFFFFFFFFFFFFFFFFFFFFFFFFFFFFFFFFF
310
FFFFFFFFFFFFFFFFFFFFFFFFFFFFFFFFF000FFFFFFFFFFFFFFFFFFFFFFFFFFFF
310
FFFFFFFFFFFFFFFFFFFFFFFFFFFFFFFFFFFFFFFFFFFFFFFFFFFFFFFFFFFFFFFF
310
FFFFFFFFFFFFFFFFFFFFFFFFFFFFFFFFFFFFFFFFFFFFFFFFFFFFFFFFFFFFFFFF
310
FFFFFFFFFFFFFFFFF000FFFFFFFFFFFFFFFFFFFFFFFFFFFFFFFFFFFFFFFFFFFF
310
FFFFFFFFFFFFFFFFFFFFFFFFFFFFFFFFFFFFFFFFFFFFFFFFFFFFFFFFFFFFFFFF
310
FFFFFFFFFFFFFFFFFFFFFFFFFFFFFFFFFFFFFFFFFFFFFFFFFFFFFFFFFFFFFFFF
310
F000FFFFFFFFFFFFFFFFFFFFFFFFFFFFFFFFFFFFFFFFFFFFFFFFFFFFFFFFFFFF
310
FFFFFFFFFFFFFFFFFFFFFFFFFFFFFFFFFFFFFFFFFFFFFFFFFFFFFFFFFFFFFFFF
310
FFFFFFFFFFFFFFFFFFFFFFFFFFFFFFFFFFFFFFFFFFFFFFFFF000FFFFFFFFFFFF
310
FFFFFFFFFFFFFFFFFFFFFFFFFFFFFFFFFFFFFFFFFFFFFFFFFFFFFFFFFFFFFFFF
310
FFFFFFFFFFFFFFFFFFFFFFFFFFFFFFFFFFFFFFFFFFFFFFFFFFFFFFFFFFFFFFFF
310
FFFFFFFFFFFFFFFFFFFFFFFFFFFFFFFFF000FFFFFFFFFFFFFFFFFFFFFFFFFFFF
310
FFFFFFFFFFFFFFFFFFFFFFFFFFFFFFFFFFFFFFFFFFFFFFFFFFFFFFFFFFFFFFFF
310
FFFFFFFFFFFFFFFFFFFFFFFFFFFFFFFFFFFFFFFFFFFFFFFFFFFFFFFFFFFFFFFF
310
FFFFFFFFFFFFFFFFF000FFFFF80003FFFFFFFFFFFFFFFFFFFFFFFFFFFFFFFFFF
310
FFFFF00007FFFFFFFFFF00007FFFFFF800000000000000007FFFFFFFFFFFFFFF
310
FFFFFFFC001FFFFFFFFFFFFFFC001FFFFFFFFFFFFFFFFFFFFFFFFFFE0007FFFF
310
F000FFFF8000007FFFFFFFF8000FFFFFC0007FFFFF80007FFFFF0000007FFFFF
310
FFF8000007FFFFF800000000000000007FFFFFF0001FFFFFFFFFFFC00001FFFF
310
FFFFFFFFC00001FFFFFFFF000000000003FFFFE000007FFFF000FFFE0000000F
310
FFFFFFF0000FFFFF80007FFFFF80007FFFFC0000001FFFFFFFC0000001FFFFF8
310
00000000000000007FFFFFF0001FFFFFFFFFFE0000003FFFFFFFFFFE0000003F
310
FFFFFF000000000003FFFF0000000FFFF000FFF800000003FFFFFFF00007FFFF
310
80007FFFFF80007FFFF000000007FFFFFF000000003FFFF80000000000000000
310
7FFFFFF0001FFFFFFFFFF80000000FFFFFFFFFF80000000FFFFFFF0000000000
310
03FFFC00000003FFF000FFE000000000FFFFFFF00007FFFF80003FFFFF80007F
310
FFC000000001FFFFFC000000001FFFF800000000000000007FFFFFF0001FFFFF
310
FFFFE000000003FFFFFFFFE000000003FFFFFF000000000003FFF000000000FF
310
F000FF80000000007FFFFFF00007FFFF80003FFFFF80007FFF8000000000FFFF
310
F80000000007FFF800000000000000007FFFFFF0001FFFFFFFFFC000000001FF
310
FFFFFFC000000001FFFFFF000000000003FFC0000000007FF000FF0000000000
310
3FFFFFE00007FFFF00003FFFFF80007FFE00000000003FFFF00000000003FFF8
310
00000000000000007FFFFFF0001FFFFFFFFF8000000000FFFFFFFF8000000000
310
FFFFFF000000000003FF80000000003FF000FE00000000001FFFFFE00003FFFF
310
00003FFFFF80007FFC00000000001FFFE00000000001FFF8000001FFFE000000
310
7FFFFFF0001FFFFFFFFE00000000003FFFFFFE00000000003FFFFF0000000000
310
03FF00000000001FF000FC00000000000FFFFFE00003FFFF00001FFFFF80007F
310
F800000000001FFFC00000000000FFF8000001FFFE0000007FFFFFF0001FFFFF
310
FFFC00000000001FFFFFFC00000000001FFFFF000000000003FE00000000000F
310
F000F8000000000007FFFFE00003FFFF00001FFFFF80007FF800000000000FFF
310
800000000000FFF8000001FFFE0000007FFFFFF0001FFFFFFFF800000000000F
310
FFFFF800000000000FFFFF000000000003FC000000000007F000F80000000000
310
03FFFFC00003FFFE00001FFFFF80007FF0000000000007FF0000000000007FF8
310
000001FFFE0000007FFFFFF0001FFFFFFFF0000000000007FFFFF00000000000
310
07FFFF000000000003F8000000000003F000F0000000000003FFFFC00001FFFE
310
00001FFFFF80007FE0000000000007FE0000000000003FF8000001FFFE000000
310
7FFFFFF0001FFFFFFFF0000000000007FFFFF0000000000007FFFF0000000000
310
03F800001F800003F000E00001FFF00001FFFFC00001FFFE00000FFFFF80007F
310
E00001FFE00003FE00001FFF00003FF8000001FFFE0000007FFFFFF0001FFFFF
310
FFE000003E000003FFFFE000003E000003FFFF000000000003F00001FFF80001
310
F000E00007FFFC0001FFFFC00001FFFE00000FFFFF80007FC0000FFFFC0003FC
310
0000FFFFC0001FF8000001FFFE0000007FFFFFF0001FFFFFFFC00003FFE00001
310
FFFFC00003FFE00001FFFF0001FFFFFFFFF00007FFFE0001F000E0000FFFFF00
310
00FFFF800001FFFC00000FFFFF80007FC0001FFFFE0001FC0001FFFFE0001FF8
310
000001FFFE0000007FFFFFF0001FFFFFFF80000FFFF80000FFFF80000FFFF800
310
00FFFF0003FFFFFFFFE0000FFFFF8000F000C0003FFFFF8000FFFF800000FFFC
310
000007FFFF80007F80003FFFFF0001FC0003FFFFF0001FF8000001FFFE000000
310
7FFFFFF0001FFFFFFF80003FFFFE0000FFFF80003FFFFE0000FFFF0003FFFFFF
310
FFE0003FFFFF8000F000C0003FFFFF8000FFFF800000FFFC000007FFFF80007F
310
80007FFFFF8001F80007FFFFF8000FF8000001FFFE0000007FFFFFF0001FFFFF
310
FF00007FFFFF00007FFF00007FFFFF00007FFF0003FFFFFFFFE0003FFFFFC000
310
F000C0007FFFFFC000FFFF000000FFFC000007FFFF80007F8000FFFFFF8000F8
310
000FFFFFF8000FF8000001FFFE0000007FFFFFF0001FFFFFFF0000FFFFFF8000
310
7FFF0000FFFFFF80007FFF0003FFFFFFFFC0007FFFFFC00070008000FFFFFFC0
310
00FFFF000000FFF8000007FFFF80007F8000FFFFFF8000F8000FFFFFF8000FF8
310
000001FFFE0000007FFFFFF0001FFFFFFE0001FFFFFFC0003FFE0001FFFFFFC0
310
003FFF0003FFFFFFFFC0007FFFFFE00070008000FFFFFFC0007FFF0000007FF8
310
000003FFFF80007F0001FFFFFF8000F8000FFFFFF8000FF8000001FFFE000000
310
7FFFFFF0001FFFFFFE0001FFFFFFC0003FFE0001FFFFFFC0003FFF0003FFFFFF
310
FFC000FFFFFFE00070008000FFFFFFC0007FFF0000007FF8000003FFFF80007F
310
0001FFFFFF8000F8001FFFFFF8000FF8000001FFFE0000007FFFFFF0001FFFFF
310
FE0003FFFFFFE0003FFE0003FFFFFFE0003FFF0003FFFFFFFFC000FFFFFFE000
310
70008000FFFFFFC0007FFE0000007FF8000003FFFF80007F0001FFFFFF8000F0
310
001FFFFFF8000FF8000001FFFE0000007FFFFFF0001FFFFFFC0003FFFFFFE000
310
1FFC0003FFFFFFE0001FFF0003FFFFFFFFC000FFFFFFC00070008000FFFFFF80
310
007FFE0000007FF0000003FFFF80007F0001FFFFFF0000F0001FFFFFF8000FF8
310
000001FFFE0000007FFFFFF0001FFFFFFC0007FFFFFFF0001FFC0007FFFFFFF0
310
001FFF0003FFFFFFFFC000FFFFFFC00070008001FFFFFF0000FFFE0000003FF0
310
000001FFFF80007F0001FFFFFF0000F8001FFFFFF0000FF8000001FFFE000000
310
7FFFFFF0001FFFFFFC0007FFFFFFF0001FFC0007FFFFFFF0001FFF0003FFFFFF
310
FFC001FFFFFF80007000FFFFFFFFFE0000FFFE0008003FF0008001FFFF80007F
310
FFFFFFFFFC0000FFFFFFFFFFE0000FF8000001FFFE0000007FFFFFF0001FFFFF
310
F8000FFFFFFFF8000FF8000FFFFFFFF8000FFF0003FFFFFFFFFFFFFFFFFF0000
310
7000FFFFFFFFFC0000FFFC0008003FF0008001FFFF80007FFFFFFFFFF80001FF
310
FFFFFFFF80000FF8000001FFFE0000007FFFFFF0001FFFFFF8000FFFFFFFF800
310
0FF8000FFFFFFFF8000FFF0003FFFFFFFFFFFFFFFFFE0000F000FFFFFFFFE000
310
00FFFC000C003FE000C001FFFF80007FFFFFFFFFC00001FFFFFFFFFE00001FF8
310
000001FFFE0000007FFFFFF0001FFFFFF8000FFFFFFFF8000FF8000FFFFFFFF8
310
000FFF0003FFFFFFFFFFFFFFFFF00000F000FFFFFFFE000001FFFC000C001FE0
310
00C000FFFF80007FFFFFFFFE000001FFFFFFFFE000001FF80FFFFFFFFFFFFFC0
310
7FFFFFF0001FFFFFF8000FFFFFFFF8000FF8000FFFFFFFF8000FFF0003FFFFFF
310
FFFFFFFFFF800000F000FFFFFFC0000001FFFC001C001FE001C000FFFF80007F
310
FFFFFF80000003FFFFFFF80000001FF80FFFFFFFFFFFFFC07FFFFFF0001FFFFF
310
F8001FFFFFFFFC000FF8001FFFFFFFFC000FFF0003FFFFFFFFFFFFFFF0000001
310
F000FFFFF800000001FFF8001C001FE001C000FFFF80007FFFFFF800000003FF
310
FFFF800000003FF80FFFFFFFFFFFFFC07FFFFFF0001FFFFFF8001FFFFFFFFC00
310
0FF8001FFFFFFFFC000FFF0003FFFFFFFFFFFFFE00000001F000FFFFC0000000
310
03FFF8001E001FC001E000FFFF80007FFFFF8000000007FFFFFC000000003FF8
310
0FFFFFFFFFFFFFC07FFFFFF0001FFFFFF8001FFFFFFFFC000FF8001FFFFFFFFC
310
000FFF0003FFFFFFFFFFFFE000000003F000FFFE0000000007FFF8001E000FC0
310
01E0007FFF80007FFFFE0000000007FFFFE0000000007FF80FFFFFFFFFFFFFC0
310
7FFFFFF0001FFFFFF0001FFFFFFFFC0007F0001FFFFFFFFC0007FF0003FFFFFF
310
FFFFFF0000000003F000FFF80000000007FFF8001E000FC003E0007FFF80007F
310
FFF0000000000FFFFF8000000000FFF80FFFFFFFFFFFFFC07FFFFFF0001FFFFF
310
F0001FFFFFFFFC0007F0001FFFFFFFFC0007FF0003FFFFFFFFFFFC0000000007
310
F000FFE0000000000FFFF0003E000FC003E0007FFF80007FFFC0000000001FFF
310
FE0000000001FFF80FFFFFFFFFFFFFC07FFFFFF0001FFFFFF0001FFFFFFFFC00
310
07F0001FFFFFFFFC0007FF0003FFFFFFFFFFF0000000000FF000FFC000000000
310
1FFFF0003F000F8003F0003FFF80007FFF80000000003FFFF80000000003FFF8
310
0FFFFFFFFFFFFFC07FFFFFF0001FFFFFF0001FFFFFFFFC0007F0001FFFFFFFFC
310
0007FF0003FFFFFFFFFFE0000000001FF000FF00000000007FFFF0003F000780
310
03F0003FFF80007FFF00000000007FFFF00000000007FFF80FFFFFFFFFFFFFC0
310
7FFFFFF0001FFFFFF0001FFFFFFFFC0007F0001FFFFFFFFC0007FF0003FFFFFF
310
FFFF80000000007FF000FE0000000000FFFFE0003F00078007F0003FFF80007F
310
FE0000000001FFFFE0000000001FFFF80FFFFFFFFFFFFFC07FFFFFF0001FFFFF
310
F0001FFFFFFFFC0007F0001FFFFFFFFC0007FF0003FFFFFFFFFF0000000000FF
310
F000FC0000000003FFFFE0007F00078007F0003FFF80007FFC0000000007FFFF
310
C0000000007FFFF80FFFFFFFFFFFFFC07FFFFFF0001FFFFFF8001FFFFFFFFC00
310
0FF8001FFFFFFFFC000FFF0003FFFFFFFFFE0000000003FFF000FC000000000F
310
FFFFE0007F80070007F8001FFF80007FF8000000001FFFFF8000000001FFFFF8
310
0FFFFFFFFFFFFFC07FFFFFF0001FFFFFF8001FFFFFFFFC000FF8001FFFFFFFFC
310
000FFF0003FFFFFFFFFC000000000FFFF000F8000000007FFFFFE0007F800700
310
07F8001FFF80007FF000000000FFFFFF800000000FFFFFF80FFFFFFFFFFFFFC0
310
7FFFFFF0001FFFFFF8000FFFFFFFF8000FF8000FFFFFFFF8000FFF0003FFFFFF
310
FFFC000000007FFFF000F800000007FFFFFFC0007F8003000FF8001FFF80007F
310
F000000007FFFFFF000000007FFFFFF80FFFFFFFFFFFFFC07FFFFFF0001FFFFF
310
F8000FFFFFFFF8000FF8000FFFFFFFF8000FFF0003FFFFFFFFF80000000FFFFF
310
F000F0000000FFFFFFFFC000FF8003000FF8001FFF80007FE0000000FFFFFFFF
310
0000000FFFFFFFF8000001FFFE0000007FFFFFF0001FFFFFF8000FFFFFFFF800
310
0FF8000FFFFFFFF8000FFF0003FFFFFFFFF8000000FFFFFFF000F000000FFFFF
310
FFFFC000FFC002000FF8000FFF80007FE000001FFFFFFFFE000001FFFFFFFFF8
310
000001FFFE0000007FFFFFF0001FFFFFF8000FFFFFFFF8000FF8000FFFFFFFF8
310
000FFF0003FFFFFFFFF000001FFFFFFFF000E00000FFFFFFFFFFC000FFC00200
310
0FFC000FFF80007FE00001FFFFFFFFFE00001FFFFFFFFFF8000001FFFE000000
310
7FFFFFF0001FFFFFFC000FFFFFFFF8001FFC000FFFFFFFF8001FFF0003FFFFFF
310
FFF00001FFFFFFFFF000E00007FFFFFFFFFF8000FFC000001FFC000FFF80007F
310
C0000FFFFFFFFFFE0000FFFFFFFFFFF8000001FFFE0000007FFFFFF0001FFFFF
310
FC0007FFFFFFF0001FFC0007FFFFFFF0001FFF0003FFFFFFFFF00007FFFFFFFF
310
F000E0001FFFFFFFFFFF8000FFC000001FFC000FFF80007FC0003FFFFFFFFFFE
310
0001FFFFFFFFFFF8000001FFFE0000007FFFFFF0001FFFFFFC0007FFFFFFF000
310
1FFC0007FFFFFFF0001FFF0003FFFFFFFFF0001FFFFFFFFFF000E0003FFFFF00
310
03FF8001FFE000001FFC0007FF80007FC0007FFFFF0007FC0003FFFFF0003FF8
310
000001FFFE0000007FFFFFF0001FFFFFFC0003FFFFFFE0001FFC0003FFFFFFE0
310
001FFF0003FFFFFFFFF0003FFFFFFFFFF000E0003FFFFF0001FF8001FFE00000
310
1FFE0007FF80007FC0007FFFFE0003FC0007FFFFE0003FF8000001FFFE000000
310
7FFFFFF0001FFFFFFE0003FFFFFFE0003FFE0003FFFFFFE0003FFF0003FFFFFF
310
FFF0003FFFFF8001F000E0003FFFFF0001FF0001FFE000001FFE0007FF80007F
310
C0007FFFFE0003FC0007FFFFE0003FF8000001FFFE0000007FFFFFF0001FFFFF
310
FE0001FFFFFFC0003FFE0001FFFFFFC0003FFF0003FFFFFFFFF0003FFFFF0001
310
F000E0003FFFFF0003FF0001FFE000003FFE0007FF80007FC0007FFFFE0003FC
310
0007FFFFE0003FF8000001FFFE0000007FFFFFF0001FFFFFFF0001FFFFFFC000
310
7FFF0001FFFFFFC0007FFF0003FFFFFFFFF0003FFFFF0001F000E0003FFFFE00
310
03FF0003FFF000003FFE0003FF80007FC0007FFFFC0003FE0007FFFFE0003FF8
310
000001FFFE0000007FFFFFF0001FFFFFFF0000FFFFFF80007FFF0000FFFFFF80
310
007FFF0003FFFFFFFFF0003FFFFF0001F000E0003FFFFE0003FF0003FFF00000
310
3FFF0003FF80007FC0007FFFFC0007FE0007FFFFC0003FF8000001FFFE000000
310
7FFFFFF0001FFFFFFF80007FFFFF0000FFFF80007FFFFF0000FFFF0003FFFFFF
310
FFF0003FFFFF0003F000E0003FFFFC0003FE0003FFF000003FFF0003FF80007F
310
E0003FFFF80007FE0003FFFFC0007FF8000001FFFE0000007FFFFFF0001FFFFF
310
FF80003FFFFE0000FFFF80003FFFFE0000FFFF0003FFFFFFFFF0001FFFFE0003
310
F000F0001FFFF80003FE0003FFF000007FFF0001FF80007FE0003FFFF00007FE
310
0001FFFF80007FF8000001FFFE0000007FFFFFF0001FFFFFFFC0000FFFF80001
310
FFFFC0000FFFF80001FFFF0003FFFFFFFFF0001FFFFC0003F000F0000FFFF000
310
07FE0007FFF800007FFF0001FF80007FE0001FFFE00007FF0000FFFE00007FF8
310
000001FFFE0000007FFFFFF0001FFFFFFFC00003FFE00001FFFFC00003FFE000
310
01FFFF0003FFFFFFFFF8000FFFF80003F000F00003FFC00007FC0007FFF80000
310
7FFF8001FF80007FF00007FF80000FFF00007FF80000FFF8000001FFFE000000
310
7F80000000000001FFE000003E000003FFFFE000003E000003FFFF0003FFFFFF
310
FFF80003FFE00007F000F800000000000FFC0007FFF800007FFF8001FF80007F
310
F000000000000FFF000000000000FFF8000001FFFE0000007F80000000000001
310
FFF0000000000007FFFFF0000000000007FFFF0003FFFFFFFFFC00007E000007
310
F000F800000000000FFC0007FFF80000FFFF8000FF80007FF800000000001FFF
310
800000000001FFF8000001FFFE0000007F80000000000001FFF800000000000F
310
FFFFF800000000000FFFFF0003FFFFFFFFFC00000000000FF000FC0000000000
310
1FFC0007FFFC0000FFFF8000FF80007FF800000000003FFFC00000000001FFF8
310
000001FFFE0000007F80000000000001FFF800000000000FFFFFF80000000000
310
0FFFFF0003FFFFFFFFFE00000000001FF000FE00000000003FF8000FFFFC0000
310
FFFF8000FF80007FFC00000000003FFFC00000000003FFF8000001FFFE000000
310
7F80000000000001FFFC00000000001FFFFFFC00000000001FFFFF0003FFFFFF
310
FFFF00000000001FF000FF00000000003FF8000FFFFC0000FFFFC000FF80007F
310
FE00000000007FFFE00000000007FFF8000001FFFE0000007F80000000000001
310
FFFE00000000003FFFFFFE00000000003FFFFF0003FFFFFFFFFF80000000003F
310
F000FF80000000007FF8000FFFFC0001FFFFC0007F80007FFF0000000000FFFF
310
F0000000000FFFF800000000000000007F80000000000001FFFF8000000000FF
310
FFFFFF8000000000FFFFFF0003FFFFFFFFFFC0000000007FF000FFC000000000
310
FFF8000FFFFE0001FFFFC0007F80007FFF8000000001FFFFF8000000001FFFF8
310
00000000000000007F80000000000001FFFFC000000001FFFFFFFFC000000001
310
FFFFFF0003FFFFFFFFFFE000000000FFF000FFE000000003FFF0001FFFFE0001
310
FFFFC0007F80007FFFC000000007FFFFFE000000003FFFF80000000000000000
310
7F80000000000001FFFFE000000003FFFFFFFFE000000003FFFFFF0003FFFFFF
310
FFFFF000000003FFF000FFF80000000FFFF0001FFFFE0001FFFFE0007F80007F
310
FFF00000000FFFFFFF00000000FFFFF800000000000000007F80000000000001
310
FFFFF80000000FFFFFFFFFF80000000FFFFFFF0003FFFFFFFFFFFC0000000FFF
310
F000FFFE0000003FFFF0001FFFFE0003FFFFE0003F80007FFFFC0000003FFFFF
310
FFC0000003FFFFF800000000000000007F80000000000001FFFFFE0000003FFF
310
FFFFFFFE0000003FFFFFFF0003FFFFFFFFFFFF0000003FFFF000FFFF800000FF
310
FFF0001FFFFF0003FFFFE0003F80007FFFFF000001FFFFFFFFF800001FFFFFF8
310
00000000000000007F80000000000001FFFFFFC00001FFFFFFFFFFFFC00001FF
310
FFFFFF0003FFFFFFFFFFFFC00000FFFFF000FFFFF8000FFFFFFFFFFFFFFFFFFF
310
FFFFFFFFFFFFFFFFFFFFF0001FFFFFFFFFFF0000FFFFFFF80000000000000000
310
7FFFFFFFFFFFFFFFFFFFFFFC001FFFFFFFFFFFFFFC001FFFFFFFFFFFFFFFFFFF
310
FFFFFFFC001FFFFFF000FFFFFFFFFFFFFFFFFFFFFFFFFFFFFFFFFFFFFFFFFFFF
310
FFFFFFFFFFFFFFFFFFFFFFFFFFFFFFFFFFFFFFFFFFFFFFFFFFFFFFFFFFFFFFFF
310
FFFFFFFFFFFFFFFFFFFFFFFFFFFFFFFFFFFFFFFFFFFFFFFFFFFFFFFFFFFFFFFF
310
F000FFFFFFFFFFFFFFFFFFFFFFFFFFFFFFFFFFFFFFFFFFFFFFFFFFFFFFFFFFFF
310
FFFFFFFFFFFFFFFFFFFFFFFFFFFFFFFFFFFFFFFFFFFFFFFFFFFFFFFFFFFFFFFF
310
FFFFFFFFFFFFFFFFFFFFFFFFFFFFFFFFFFFFFFFFFFFFFFFFF000FFFFFFFFFFFF
310
FFFFFFFFFFFFFFFFFFFFFFFFFFFFFFFFFFFFFFFFFFFFFFFFFFFFFFFFFFFFFFFF
310
FFFFFFFFFFFFFFFFFFFFFFFFFFFFFFFFFFFFFFFFFFFFFFFFFFFFFFFFFFFFFFFF
310
FFFFFFFFFFFFFFFFFFFFFFFFFFFFFFFFF000FFFFFFFFFFFFFFFFFFFFFFFFFFFF
310
FFFFFFFFFFFFFFFFFFFFFFFFFFFFFFFFFFFFFFFFFFFFFFFFFFFFFFFFFFFFFFFF
310
FFFFFFFFFFFFFFFFFFFFFFFFFFFFFFFFFFFFFFFFFFFFFFFFFFFFFFFFFFFFFFFF
310
FFFFFFFFFFFFFFFFF000FFFFFFFFFFFFFFFFFFFFFFFFFFFFFFFFFFFFFFFFFFFF
310
FFFFFFFFFFFFFFFFFFFFFFFFFFFFFFFFFFFFFFFFFFFFFFFFFFFFFFFFFFFFFFFF
310
FFFFFFFFFFFFFFFFFFFFFFFFFFFFFFFFFFFFFFFFFFFFFFFFFFFFFFFFFFFFFFFF
310
F000FFFFFFFFFFFFFFFFFFFFFFFFFFFFFFFFFFFFFFFFFFFFFFFFFFFFFFFFFFFF
310
FFFFFFFFFFFFFFFFFFFFFFFFFFFFFFFFFFFFFFFFFFFFFFFFFFFFFFFFFFFFFFFF
310
FFFFFFFFFFFFFFFFFFFFFFFFFFFFFFFFFFFFFFFFFFFFFFFFF000FFFFFFFFFFFF
310
FFFFFFFFFFFFFFFFFFFFFFFFFFFFFFFFFFFFFFFFFFFFFFFFFFFFFFFFFFFFFFFF
310
FFFFFFFFFFFFFFFFFFFFFFFFFFFFFFFFFFFFFFFFFFFFFFFFFFFFFFFFFFFFFFFF
310
FFFFFFFFFFFFFFFFFFFFFFFFFFFFFFFFF000FFFFFFFFFFFFFFFFFFFFFFFFFFFF
310
FFFFFFFFFFFFFFFFFFFFFFFFFFFFFFFFFFFFFFFFFFFFFFFFFFFFFFFFFFFFFFFF
310
FFFFFFFFFFFFFFFFFFFFFFFFFFFFFFFFFFFFFFFFFFFFFFFFFFFFFFFFFFFFFFFF
310
FFFFFFFFFFFFFFFFF000FFFFFFFFFFFFFFFFFFFFFFFFFFFFFFFFFFFFFFFFFFFF
310
FFFFFFFFFFFFFFFFFFFFFFFFFFFFFFFFFFFFFFFFFFFFFFFFFFFFFFFFFFFFFFFF
310
FFFFFFFFFFFFFFFFFFFFFFFFFFFFFFFFFFFFFFFFFFFFFFFFFFFFFFFFFFFFFFFF
310
F000FFFFFFFFFFFFFFFFFFFFFFFFFFFFFFFFFFFFFFFFFFFFFFFFFFFFFFFFFFFF
310
FFFFFFFFFFFFFFFFFFFFFFFFFFFFFFFFFFFFFFFFFFFFFFFFFFFFFFFFFFFFFFFF
310
FFFFFFFFFFFFFFFFFFFFFFFFFFFFFFFFFFFFFFFFFFFFFFFFF000FFFFFFFFFFFF
310
FFFFFFFFFFFFFFFFFFFFFFFFFFFFFFFFFFFFFFFFFFFFFFFFFFFFFFFFFFFFFFFF
310
FFFFFFFFFFFFFFFFFFFFFFFFFFFFFFFFFFFFFFFFFFFFFFFFFFFFFFFFFFFFFFFF
310
FFFFFFFFFFFFFFFFFFFFFFFFFFFFFFFFF000FFFFFFFFFFFFFFFFFFFFFFFFFFFF
310
FFFFFFFFFFFFFFFFFFFFFFFFFFFFFFFFFFFFFFFFFFFFFFFFFFFFFFFFFFFFFFFF
310
FFFFFFFFFFFFFFFFFFFFFFFFFFFFFFFFFFFFFFFFFFFFFFFFFFFFFFFFFFFFFFFF
310
FFFFFFFFFFFFFFFFF000FFFFFFFFFFFFFFFFFFFFFFFFFFFFFFFFFFFFFFFFFFFF
310
FFFFFFFFFFFFFFFFFFFFFFFFFFFFFFFFFFFFFFFFFFFFFFFFFFFFFFFFFFFFFFFF
310
FFFFFFFFFFFFFFFFFFFFFFFFFFFFFFFFFFFFFFFFFFFFFFFFFFFFFFFFFFFFFFFF
310
F000FFFFFFFFFFFFFFFFFFFFFFFFFFFFFFFFFFFFFFFFFFFFFFFFFFFFFFFFFFFF
310
FFFFFFFFFFFFFFFFFFFFFFFFFFFFFFFFFFFFFFFFFFFFFFFFFFFFFFFFFFFFFFFF
310
FFFFFFFFFFFFFFFFFFFFFFFFFFFFFFFFFFFFFFFFFFFFFFFFF000FFFFFFFFFFFF
310
FFFFFFFFFFFFFFFFFFFFFFFFFFFFFFFFFFFFFFFFFFFFFFFFFFFFFFFFFFFFFFFF
310
FFFFFFFFFFFFFFFFFFFFFFFFFFFFFFFFFFFFFFFFFFFFFFFFFFFFFFFFFFFFFFFF
310
FFFFFFFFFFFFFFFFFFFFFFFFFFFFFFFFF000FFFFFFFFFFFFFFFFFFFFFFFFFFFF
310
FFFFFFFFFFFFFFFFFFFFFFFFFFFFFFFFFFFFFFFFFFFFFFFFFFFFFFFFFFFFFFFF
310
FFFFFFFFFFFFFFFFFFFFFFFFFFFFFFFFFFFFFFFFFFFFFFFFFFFFFFFFFFFFFFFF
310
FFFFFFFFFFFFFFFFF000FFFFFFFFFFFFFFFFFFFFFFFFFFFFFFFFFFFFFFFFFFFF
310
FFFFFFFFFFFFFFFFFFFFFFFFFFFFFFFFFFFFFFFFFFFFFFFFFFFFFFFFFFFFFFFF
310
FFFFFFFFFFFFFFFFFFFFFFFFFFFFFFFFFFFFFFFFFFFFFFFFFFFFFFFFFFFFFFFF
310
F000FFFFFFFFFFFFFFFFFFFFFFFFFFFFFFFFFFFFFFFFFFFFFFFFFFFFFFFFFFFF
310
FFFFFFFFFFFFFFFFFFFFFFFFFFFFFFFFFFFFFFFFFFFFFFFFFFFFFFFFFFFFFFFF
310
FFFFFFFFFFFFFFFFFFFFFFFFFFFFFFFFFFFFFFFFFFFFFFFFF000FFFFFFFFFFFF
310
FFFFFFFFFFFFFFFFFFFFFFFFFFFFFFFFFFFFFFFFFFFFFFFFFFFFFFFFFFFFFFFF
310
FFFFFFFFFFFFFFFFFFFFFFFFFFFFFFFFFFFFFFFFFFFFFFFFFFFFFFFFFFFFFFFF
310
FFFFFFFFFFFFFFFFFFFFFFFFFFFFFFFFF000FFFFFFFFFFFFFFFFFFFFFFFFFFFF
310
FFFFFFFFFFFFFFFFFFFFFFFFFFFFFFFFFFFFFFFFFFFFFFFFFFFFFFFFFFFFFFFF
310
FFFFFFFFFFFFFFFFFFFFFFFFFFFFFFFFFFFFFFFFFFFFFFFFFFFFFFFFFFFFFFFF
310
FFFFFFFFFFFFFFFFF000FFFFFFFFFFFFFFFFFFFFFFFFFFFFFFFFFFFFFFFFFFFF
310
FFFFFFFFFFFFFFFFFFFFFFFFFFFFFFFFFFFFFFFFFFFFFFFFFFFFFFFFFFFFFFFF
310
FFFFFFFFFFFFFFFFFFFFFFFFFFFFFFFFFFFFFFFFFFFFFFFFFFFFFFFFFFFFFFFF
310
F000FFFFFFFFFFFFFFFFFFFFFFFFFFFFFFFFFFFFFFFFFFFFFFFFFFFFFFFFFFFF
310
FFFFFFFFFFFFFFFFFFFFFFFFFFFFFFFFFFFFFFFFFFFFFFFFFFFFFFFFFFFFFFFF
310
FFFFFFFFFFFFFFFFFFFFFFFFFFFFFFFFFFFFFFFFFFFFFFFFF000FFFFFFFFFFFF
310
FFFFFFFFFFFFFFFFFFFFFFFFFFFFFFFFFFFFFFFFFFFFFFFFFFFFFFFFFFFFFFFF
310
FFFFFFFFFFFFFFFFFFFFFFFFFFFFFFFFFFFFFFFFFFFFFFFFFFFFFFFFFFFFFFFF
310
FFFFFFFFFFFFFFFFFFFFFFFFFFFFFFFFF0000000000000000000000000000000
310
0000000001000000010000000100000001000000010000000100000001000000
310
0100000001000000010000000100000001000000010000000100000001000000
310
0100000001000000010000000100000001000000010000000100000001000000
310
0100000001000000000000000100000001000000000000000100000001000000
310
0100000001000000010000000100000001000000010000000100000001000000
310
0100000001000000010000000100000001000000010000000100000001000000
310
0100000001000000010000000100000001000000010000000100000000000000
310
0100000001000000000000000100000001000000010000000100000001000000
310
0100000001000000010000000100000001000000010000000100000001000000
310
0100000001000000010000000100000001000000010000000100000001000000
310
0100000001000000010000000100000001000000000000000100000001000000
310
0000000000000000000000000000000000000000000000000000000000000000
310
000000000000000000000000000000000000000000000000E4001C0300000004
310
B075953100000000E0CC82310000000000000000000000000000000000000000
310
0000000000000000000000000000000000000000000000000000000000000000
  1
OLE
  0
ENDSEC
  0
SECTION
  2
OBJECTS
  0
DICTIONARY
  5
C
330
0
100
AcDbDictionary
281
     1
  3
ACAD_GROUP
350
D
  3
ACAD_LAYOUT
350
1A
  3
ACAD_MLEADERSTYLE
350
2F1
  3
ACAD_MLINESTYLE
350
17
  3
ACAD_PLOTSETTINGS
350
19
  3
ACAD_PLOTSTYLENAME
350
E
  3
ACAD_TABLESTYLE
350
2F0
  3
ACAD_VISUALSTYLE
350
2A
  3
AcDbVariableDictionary
350
2F2
  0
DICTIONARY
  5
D
102
{ACAD_REACTORS
330
C
102
}
330
C
100
AcDbDictionary
281
     1
  0
DICTIONARY
  5
1A
102
{ACAD_REACTORS
330
C
102
}
330
C
100
AcDbDictionary
281
     1
  3
Layout1
350
1E
  3
Layout2
350
26
  3
Model
350
22
  0
DICTIONARY
  5
2F1
102
{ACAD_REACTORS
330
C
102
}
330
C
100
AcDbDictionary
281
     1
  0
DICTIONARY
  5
17
102
{ACAD_REACTORS
330
C
102
}
330
C
100
AcDbDictionary
281
     1
  3
Standard
350
18
  0
DICTIONARY
  5
19
102
{ACAD_REACTORS
330
C
102
}
330
C
100
AcDbDictionary
281
     1
  0
ACDBDICTIONARYWDFLT
  5
E
102
{ACAD_REACTORS
330
C
102
}
330
C
100
AcDbDictionary
281
     1
  3
Normal
350
F
100
AcDbDictionaryWithDefault
340
F
  0
DICTIONARY
  5
2F0
102
{ACAD_REACTORS
330
C
102
}
330
C
100
AcDbDictionary
281
     1
  0
DICTIONARY
  5
2A
102
{ACAD_REACTORS
330
C
102
}
330
C
100
AcDbDictionary
281
     1
  3
2dWireframe
350
2F
  3
3D Hidden
350
31
  3
3dWireframe
350
30
  3
Basic
350
32
  3
Brighten
350
36
  3
ColorChange
350
3A
  3
Conceptual
350
34
  3
Dim
350
35
  3
Facepattern
350
39
  3
Flat
350
2B
  3
FlatWithEdges
350
2C
  3
Gouraud
350
2D
  3
GouraudWithEdges
350
2E
  3
Linepattern
350
38
  3
Realistic
350
33
  3
Thicken
350
37
  0
DICTIONARY
  5
2F2
102
{ACAD_REACTORS
330
C
102
}
330
C
100
AcDbDictionary
281
     1
  3
PSOLHEIGHT
350
2F4
  3
PSOLWIDTH
350
2F3
  0
LAYOUT
  5
1E
102
{ACAD_REACTORS
330
1A
102
}
330
1A
100
AcDbPlotSettings
  1

  2
none_device
  4

  6

 40
0.0
 41
0.0
 42
0.0
 43
0.0
 44
0.0
 45
0.0
 46
0.0
 47
0.0
 48
0.0
 49
0.0
140
0.0
141
0.0
142
1.0
143
1.0
 70
   688
 72
     0
 73
     0
 74
     5
  7

 75
    16
147
1.0
148
0.0
149
0.0
100
AcDbLayout
  1
Layout1
 70
     1
 71
     1
 10
0.0
 20
0.0
 11
420.0
 21
297.0
 12
0.0
 22
0.0
 32
0.0
 14
1.0000000000E+20
 24
1.0000000000E+20
 34
1.0000000000E+20
 15
-1.0000000000E+20
 25
-1.0000000000E+20
 35
-1.0000000000E+20
146
0.0
 13
0.0
 23
0.0
 33
0.0
 16
1.0
 26
0.0
 36
0.0
 17
0.0
 27
1.0
 37
0.0
 76
     0
330
1B
  0
LAYOUT
  5
26
102
{ACAD_REACTORS
330
1A
102
}
330
1A
100
AcDbPlotSettings
  1

  2
none_device
  4

  6

 40
0.0
 41
0.0
 42
0.0
 43
0.0
 44
0.0
 45
0.0
 46
0.0
 47
0.0
 48
0.0
 49
0.0
140
0.0
141
0.0
142
1.0
143
1.0
 70
   688
 72
     0
 73
     0
 74
     5
  7

 75
    16
147
1.0
148
0.0
149
0.0
100
AcDbLayout
  1
Layout2
 70
     1
 71
     2
 10
0.0
 20
0.0
 11
0.0
 21
0.0
 12
0.0
 22
0.0
 32
0.0
 14
0.0
 24
0.0
 34
0.0
 15
0.0
 25
0.0
 35
0.0
146
0.0
 13
0.0
 23
0.0
 33
0.0
 16
1.0
 26
0.0
 36
0.0
 17
0.0
 27
1.0
 37
0.0
 76
     0
330
23
  0
LAYOUT
  5
22
102
{ACAD_REACTORS
330
1A
102
}
330
1A
100
AcDbPlotSettings
  1

  2
none_device
  4

  6

 40
0.0
 41
0.0
 42
0.0
 43
0.0
 44
0.0
 45
0.0
 46
0.0
 47
0.0
 48
0.0
 49
0.0
140
0.0
141
0.0
142
1.0
143
1.0
 70
  1712
 72
     0
 73
     0
 74
     0
  7

 75
     0
147
1.0
148
0.0
149
0.0
100
AcDbLayout
  1
Model
 70
     1
 71
     0
 10
0.0
 20
0.0
 11
297.0
 21
210.0
 12
0.0
 22
0.0
 32
0.0
 14
0.0
 24
0.0
 34
0.0
 15
297.0
 25
210.0
 35
0.0
146
0.0
 13
0.0
 23
0.0
 33
0.0
 16
1.0
 26
0.0
 36
0.0
 17
0.0
 27
1.0
 37
0.0
 76
     0
330
1F
331
29
  0
MLINESTYLE
  5
18
102
{ACAD_REACTORS
330
17
102
}
330
17
100
AcDbMlineStyle
  2
Standard
 70
     0
  3

 62
   256
 51
90.0
 52
90.0
 71
     2
 49
0.5
 62
   256
  6
BYLAYER
 49
-0.5
 62
   256
  6
BYLAYER
  0
ACDBPLACEHOLDER
  5
F
102
{ACAD_REACTORS
330
E
102
}
330
E
  0
VISUALSTYLE
  5
2F
102
{ACAD_REACTORS
330
2A
102
}
330
2A
100
AcDbVisualStyle
  2
2dWireframe
 70
     4
 71
     0
 72
     2
 73
     0
 90
        0
 40
-0.6
 41
-30.0
 62
     5
 63
     7
 74
     1
 91
        4
 64
     7
 65
   257
 75
     1
175
     1
 42
1.0
 92
        0
 66
   257
 43
1.0
 76
     1
 77
     6
 78
     2
 67
     7
 79
     5
170
     0
171
     0
290
     0
174
     0
 93
        1
 44
0.0
173
     0
291
     0
 45
0.0
1001
ACAD
1000
AcDbSavedByObjectVersion
1070
     0
  0
VISUALSTYLE
  5
31
102
{ACAD_REACTORS
330
2A
102
}
330
2A
100
AcDbVisualStyle
  2
3D Hidden
 70
     6
 71
     1
 72
     2
 73
     2
 90
        0
 40
-0.6
 41
-30.0
 62
     5
 63
     7
 74
     2
 91
        2
 64
     7
 65
   257
 75
     2
175
     1
 42
40.0
 92
        0
 66
   257
 43
1.0
 76
     1
 77
     6
 78
     2
 67
     7
 79
     3
170
     0
171
     0
290
     0
174
     0
 93
        1
 44
0.0
173
     0
291
     0
 45
0.0
1001
ACAD
1000
AcDbSavedByObjectVersion
1070
     0
  0
VISUALSTYLE
  5
30
102
{ACAD_REACTORS
330
2A
102
}
330
2A
100
AcDbVisualStyle
  2
3dWireframe
 70
     5
 71
     0
 72
     2
 73
     0
 90
        0
 40
-0.6
 41
-30.0
 62
     5
 63
     7
 74
     1
 91
        4
 64
     7
 65
   257
 75
     1
175
     1
 42
1.0
 92
        0
 66
   257
 43
1.0
 76
     1
 77
     6
 78
     2
 67
     7
 79
     5
170
     0
171
     0
290
     0
174
     0
 93
        1
 44
0.0
173
     0
291
     0
 45
0.0
1001
ACAD
1000
AcDbSavedByObjectVersion
1070
     0
  0
VISUALSTYLE
  5
32
102
{ACAD_REACTORS
330
2A
102
}
330
2A
100
AcDbVisualStyle
  2
Basic
 70
     7
 71
     1
 72
     0
 73
     1
 90
        0
 40
-0.6
 41
-30.0
 62
     5
 63
     7
 74
     0
 91
        4
 64
     7
 65
   257
 75
     1
175
     1
 42
1.0
 92
        8
 66
     7
 43
1.0
 76
     1
 77
     6
 78
     2
 67
     7
 79
     5
170
     0
171
     0
290
     0
174
     0
 93
        1
 44
0.0
173
     0
291
     1
 45
0.0
1001
ACAD
1000
AcDbSavedByObjectVersion
1070
     0
  0
VISUALSTYLE
  5
36
102
{ACAD_REACTORS
330
2A
102
}
330
2A
100
AcDbVisualStyle
  2
Brighten
 70
    12
 71
     2
 72
     2
 73
     0
 90
        0
 40
-0.6
 41
-30.0
 62
     5
 63
     7
 74
     1
 91
        4
 64
     7
 65
   257
 75
     1
175
     1
 42
1.0
 92
        8
 66
     7
 43
1.0
 76
     1
 77
     6
 78
     2
 67
     7
 79
     5
170
     0
171
     0
290
     0
174
     0
 93
        1
 44
50.0
173
     0
291
     1
 45
0.0
1001
ACAD
1000
AcDbSavedByObjectVersion
1070
     0
  0
VISUALSTYLE
  5
3A
102
{ACAD_REACTORS
330
2A
102
}
330
2A
100
AcDbVisualStyle
  2
ColorChange
 70
    16
 71
     2
 72
     2
 73
     3
 90
        0
 40
-0.6
 41
-30.0
 62
     5
 63
     8
 74
     1
 91
        4
 64
     7
 65
   257
 75
     1
175
     1
 42
1.0
 92
        8
 66
     8
 43
1.0
 76
     1
 77
     6
 78
     2
 67
     7
 79
     5
170
     0
171
     0
290
     0
174
     0
 93
        1
 44
0.0
173
     0
291
     1
 45
0.0
1001
ACAD
1000
AcDbSavedByObjectVersion
1070
     0
  0
VISUALSTYLE
  5
34
102
{ACAD_REACTORS
330
2A
102
}
330
2A
100
AcDbVisualStyle
  2
Conceptual
 70
     9
 71
     3
 72
     2
 73
     0
 90
        0
 40
-0.6
 41
-30.0
 62
     5
 63
     7
 74
     2
 91
        2
 64
     7
 65
   257
 75
     1
175
     1
 42
40.0
 92
        8
 66
     7
 43
1.0
 76
     1
 77
     6
 78
     2
 67
     7
 79
     3
170
     0
171
     0
290
     0
174
     0
 93
        1
 44
0.0
173
     0
291
     0
 45
0.0
1001
ACAD
1000
AcDbSavedByObjectVersion
1070
     0
  0
VISUALSTYLE
  5
35
102
{ACAD_REACTORS
330
2A
102
}
330
2A
100
AcDbVisualStyle
  2
Dim
 70
    11
 71
     2
 72
     2
 73
     0
 90
        0
 40
-0.6
 41
-30.0
 62
     5
 63
     7
 74
     1
 91
        4
 64
     7
 65
   257
 75
     1
175
     1
 42
1.0
 92
        8
 66
     7
 43
1.0
 76
     1
 77
     6
 78
     2
 67
     7
 79
     5
170
     0
171
     0
290
     0
174
     0
 93
        1
 44
-50.0
173
     0
291
     1
 45
0.0
1001
ACAD
1000
AcDbSavedByObjectVersion
1070
     0
  0
VISUALSTYLE
  5
39
102
{ACAD_REACTORS
330
2A
102
}
330
2A
100
AcDbVisualStyle
  2
Facepattern
 70
    15
 71
     2
 72
     2
 73
     0
 90
        0
 40
-0.6
 41
-30.0
 62
     5
 63
     7
 74
     1
 91
        4
 64
     7
 65
   257
 75
     1
175
     1
 42
1.0
 92
        8
 66
     7
 43
1.0
 76
     1
 77
     6
 78
     2
 67
     7
 79
     5
170
     0
171
     0
290
     0
174
     0
 93
        1
 44
0.0
173
     0
291
     1
 45
0.0
1001
ACAD
1000
AcDbSavedByObjectVersion
1070
     0
  0
VISUALSTYLE
  5
2B
102
{ACAD_REACTORS
330
2A
102
}
330
2A
100
AcDbVisualStyle
  2
Flat
 70
     0
 71
     2
 72
     1
 73
     1
 90
        2
 40
-0.6
 41
30.0
 62
     5
 63
     7
 74
     0
 91
        4
 64
     7
 65
   257
 75
     1
175
     1
 42
1.0
 92
        8
 66
     7
 43
1.0
 76
     1
 77
     6
 78
     2
 67
     7
 79
     5
170
     0
171
     0
290
     0
174
     0
 93
       13
 44
0.0
173
     0
291
     1
 45
0.0
1001
ACAD
1000
AcDbSavedByObjectVersion
1070
     0
  0
VISUALSTYLE
  5
2C
102
{ACAD_REACTORS
330
2A
102
}
330
2A
100
AcDbVisualStyle
  2
FlatWithEdges
 70
     1
 71
     2
 72
     1
 73
     1
 90
        2
 40
-0.6
 41
30.0
 62
     5
 63
     7
 74
     1
 91
        4
 64
     7
 65
   257
 75
     1
175
     1
 42
1.0
 92
        0
 66
   257
 43
1.0
 76
     1
 77
     6
 78
     2
 67
     7
 79
     5
170
     0
171
     0
290
     0
174
     0
 93
       13
 44
0.0
173
     0
291
     1
 45
0.0
1001
ACAD
1000
AcDbSavedByObjectVersion
1070
     0
  0
VISUALSTYLE
  5
2D
102
{ACAD_REACTORS
330
2A
102
}
330
2A
100
AcDbVisualStyle
  2
Gouraud
 70
     2
 71
     2
 72
     2
 73
     1
 90
        2
 40
-0.6
 41
30.0
 62
     5
 63
     7
 74
     0
 91
        4
 64
     7
 65
   257
 75
     1
175
     1
 42
1.0
 92
        0
 66
     7
 43
1.0
 76
     1
 77
     6
 78
     2
 67
     7
 79
     5
170
     0
171
     0
290
     0
174
     0
 93
       13
 44
0.0
173
     0
291
     1
 45
0.0
1001
ACAD
1000
AcDbSavedByObjectVersion
1070
     0
  0
VISUALSTYLE
  5
2E
102
{ACAD_REACTORS
330
2A
102
}
330
2A
100
AcDbVisualStyle
  2
GouraudWithEdges
 70
     3
 71
     2
 72
     2
 73
     1
 90
        2
 40
-0.6
 41
30.0
 62
     5
 63
     7
 74
     1
 91
        4
 64
     7
 65
   257
 75
     1
175
     1
 42
1.0
 92
        0
 66
   257
 43
1.0
 76
     1
 77
     6
 78
     2
 67
     7
 79
     5
170
     0
171
     0
290
     0
174
     0
 93
       13
 44
0.0
173
     0
291
     1
 45
0.0
1001
ACAD
1000
AcDbSavedByObjectVersion
1070
     0
  0
VISUALSTYLE
  5
38
102
{ACAD_REACTORS
330
2A
102
}
330
2A
100
AcDbVisualStyle
  2
Linepattern
 70
    14
 71
     2
 72
     2
 73
     0
 90
        0
 40
-0.6
 41
-30.0
 62
     5
 63
     7
 74
     1
 91
        4
 64
     7
 65
   257
 75
     7
175
     7
 42
1.0
 92
        8
 66
     7
 43
1.0
 76
     1
 77
     6
 78
     2
 67
     7
 79
     5
170
     0
171
     0
290
     0
174
     0
 93
        1
 44
0.0
173
     0
291
     1
 45
0.0
1001
ACAD
1000
AcDbSavedByObjectVersion
1070
     0
  0
VISUALSTYLE
  5
33
102
{ACAD_REACTORS
330
2A
102
}
330
2A
100
AcDbVisualStyle
  2
Realistic
 70
     8
 71
     2
 72
     2
 73
     0
 90
        0
 40
-0.6
 41
-30.0
 62
     5
 63
     7
 74
     1
 91
        0
 64
     7
 65
   257
 75
     1
175
     1
 42
1.0
 92
        8
 66
     8
 43
1.0
 76
     1
 77
     6
 78
     2
 67
     7
 79
     5
170
     0
171
     0
290
     0
174
     0
 93
       13
 44
0.0
173
     0
291
     0
 45
0.0
1001
ACAD
1000
AcDbSavedByObjectVersion
1070
     0
  0
VISUALSTYLE
  5
37
102
{ACAD_REACTORS
330
2A
102
}
330
2A
100
AcDbVisualStyle
  2
Thicken
 70
    13
 71
     2
 72
     2
 73
     0
 90
        0
 40
-0.6
 41
-30.0
 62
     5
 63
     7
 74
     1
 91
        4
 64
     7
 65
   257
 75
     1
175
     1
 42
1.0
 92
       12
 66
     7
 43
1.0
 76
     1
 77
     6
 78
     2
 67
     7
 79
     5
170
     0
171
     0
290
     0
174
     0
 93
        1
 44
0.0
173
     0
291
     1
 45
0.0
1001
ACAD
1000
AcDbSavedByObjectVersion
1070
     0
  0
DICTIONARYVAR
  5
2F4
102
{ACAD_REACTORS
330
2F2
102
}
330
2F2
100
DictionaryVariables
280
     0
  1
80.000000
  0
DICTIONARYVAR
  5
2F3
102
{ACAD_REACTORS
330
2F2
102
}
330
2F2
100
DictionaryVariables
280
     0
  1
5.000000
  0
ENDSEC
  0
EOF
