  0
SECTION
  2
HEADER
  9
$ACADVER
  1
AC1015
  9
$ACADMAINTVER
 70
     6
  9
$DWGCODEPAGE
  3
ANSI_1252
  9
$INSBASE
 10
0.0
 20
0.0
 30
0.0
  9
$EXTMIN
 10
0.0
 20
0.0
 30
0.0
  9
$EXTMAX
 10
297.0
 20
210.0
 30
0.0
  9
$LIMMIN
 10
0.0
 20
0.0
  9
$LIMMAX
 10
297.0
 20
210.0
  9
$ORTHOMODE
 70
     0
  9
$REGENMODE
 70
     1
  9
$FILLMODE
 70
     1
  9
$QTEXTMODE
 70
     0
  9
$MIRRTEXT
 70
     1
  9
$LTSCALE
 40
1.0
  9
$ATTMODE
 70
     1
  9
$TEXTSIZE
 40
2.0
  9
$TRACEWID
 40
1.0
  9
$TEXTSTYLE
  7
Standard
  9
$CLAYER
  8
0
  9
$CELTYPE
  6
ByLayer
  9
$CECOLOR
 62
   256
  9
$CELTSCALE
 40
1.0
  9
$DISPSILH
 70
     0
  9
$DIMSCALE
 40
1.0
  9
$DIMASZ
 40
3.0
  9
$DIMEXO
 40
0.0
  9
$DIMDLI
 40
3.75
  9
$DIMRND
 40
0.0
  9
$DIMDLE
 40
0.0
  9
$DIMEXE
 40
1.0
  9
$DIMTP
 40
0.0
  9
$DIMTM
 40
0.0
  9
$DIMTXT
 40
2.0
  9
$DIMCEN
 40
2.5
  9
$DIMTSZ
 40
0.0
  9
$DIMTOL
 70
     0
  9
$DIMLIM
 70
     0
  9
$DIMTIH
 70
     1
  9
$DIMTOH
 70
     1
  9
$DIMSE1
 70
     0
  9
$DIMSE2
 70
     0
  9
$DIMTAD
 70
     1
  9
$DIMZIN
 70
     0
  9
$DIMBLK
  1

  9
$DIMASO
 70
     1
  9
$DIMSHO
 70
     1
  9
$DIMPOST
  1

  9
$DIMAPOST
  1

  9
$DIMALT
 70
     0
  9
$DIMALTD
 70
     3
  9
$DIMALTF
 40
0.0393700787
  9
$DIMLFAC
 40
1.0
  9
$DIMTOFL
 70
     1
  9
$DIMTVP
 40
0.0
  9
$DIMTIX
 70
     0
  9
$DIMSOXD
 70
     0
  9
$DIMSAH
 70
     0
  9
$DIMBLK1
  1

  9
$DIMBLK2
  1

  9
$DIMSTYLE
  2
ISO-25
  9
$DIMCLRD
 70
     0
  9
$DIMCLRE
 70
     0
  9
$DIMCLRT
 70
     0
  9
$DIMTFAC
 40
1.0
  9
$DIMGAP
 40
1.524
  9
$DIMJUST
 70
     0
  9
$DIMSD1
 70
     0
  9
$DIMSD2
 70
     0
  9
$DIMTOLJ
 70
     0
  9
$DIMTZIN
 70
     0
  9
$DIMALTZ
 70
     0
  9
$DIMALTTZ
 70
     0
  9
$DIMUPT
 70
     0
  9
$DIMDEC
 70
     2
  9
$DIMTDEC
 70
     3
  9
$DIMALTU
 70
     2
  9
$DIMALTTD
 70
     3
  9
$DIMTXSTY
  7
Standard
  9
$DIMAUNIT
 70
     0
  9
$DIMADEC
 70
     2
  9
$DIMALTRND
 40
0.0
  9
$DIMAZIN
 70
     0
  9
$DIMDSEP
 70
    44
  9
$DIMATFIT
 70
     3
  9
$DIMFRAC
 70
     0
  9
$DIMLDRBLK
  1

  9
$DIMLUNIT
 70
     2
  9
$DIMLWD
 70
    -2
  9
$DIMLWE
 70
    -2
  9
$DIMTMOVE
 70
     0
  9
$LUNITS
 70
     2
  9
$LUPREC
 70
     2
  9
$SKETCHINC
 40
1.0
  9
$FILLETRAD
 40
10.0
  9
$AUNITS
 70
     0
  9
$AUPREC
 70
     2
  9
$MENU
  1
.
  9
$ELEVATION
 40
0.0
  9
$PELEVATION
 40
0.0
  9
$THICKNESS
 40
0.0
  9
$LIMCHECK
 70
     0
  9
$CHAMFERA
 40
10.0
  9
$CHAMFERB
 40
10.0
  9
$CHAMFERC
 40
20.0
  9
$CHAMFERD
 40
0.0
  9
$SKPOLY
 70
     0
  9
$TDCREATE
 40
2455642.392956933
  9
$TDUCREATE
 40
2455642.351290266
  9
$TDUPDATE
 40
2455642.392956945
  9
$TDUUPDATE
 40
2455642.351290278
  9
$TDINDWG
 40
0.0000000116
  9
$TDUSRTIMER
 40
0.0000000116
  9
$USRTIMER
 70
     1
  9
$ANGBASE
 50
0.0
  9
$ANGDIR
 70
     0
  9
$PDMODE
 70
     0
  9
$PDSIZE
 40
-1.0
  9
$PLINEWID
 40
0.0
  9
$SPLFRAME
 70
     0
  9
$SPLINETYPE
 70
     6
  9
$SPLINESEGS
 70
     8
  9
$HANDSEED
  5
2F3
  9
$SURFTAB1
 70
     6
  9
$SURFTAB2
 70
     6
  9
$SURFTYPE
 70
     6
  9
$SURFU
 70
     6
  9
$SURFV
 70
     6
  9
$UCSBASE
  2

  9
$UCSNAME
  2

  9
$UCSORG
 10
0.0
 20
0.0
 30
0.0
  9
$UCSXDIR
 10
1.0
 20
0.0
 30
0.0
  9
$UCSYDIR
 10
0.0
 20
1.0
 30
0.0
  9
$UCSORTHOREF
  2

  9
$UCSORTHOVIEW
 70
     0
  9
$UCSORGTOP
 10
0.0
 20
0.0
 30
0.0
  9
$UCSORGBOTTOM
 10
0.0
 20
0.0
 30
0.0
  9
$UCSORGLEFT
 10
0.0
 20
0.0
 30
0.0
  9
$UCSORGRIGHT
 10
0.0
 20
0.0
 30
0.0
  9
$UCSORGFRONT
 10
0.0
 20
0.0
 30
0.0
  9
$UCSORGBACK
 10
0.0
 20
0.0
 30
0.0
  9
$PUCSBASE
  2

  9
$PUCSNAME
  2

  9
$PUCSORG
 10
0.0
 20
0.0
 30
0.0
  9
$PUCSXDIR
 10
1.0
 20
0.0
 30
0.0
  9
$PUCSYDIR
 10
0.0
 20
1.0
 30
0.0
  9
$PUCSORTHOREF
  2

  9
$PUCSORTHOVIEW
 70
     0
  9
$PUCSORGTOP
 10
0.0
 20
0.0
 30
0.0
  9
$PUCSORGBOTTOM
 10
0.0
 20
0.0
 30
0.0
  9
$PUCSORGLEFT
 10
0.0
 20
0.0
 30
0.0
  9
$PUCSORGRIGHT
 10
0.0
 20
0.0
 30
0.0
  9
$PUCSORGFRONT
 10
0.0
 20
0.0
 30
0.0
  9
$PUCSORGBACK
 10
0.0
 20
0.0
 30
0.0
  9
$USERI1
 70
     0
  9
$USERI2
 70
     0
  9
$USERI3
 70
     0
  9
$USERI4
 70
     0
  9
$USERI5
 70
     0
  9
$USERR1
 40
0.0
  9
$USERR2
 40
0.0
  9
$USERR3
 40
0.0
  9
$USERR4
 40
0.0
  9
$USERR5
 40
0.0
  9
$WORLDVIEW
 70
     1
  9
$SHADEDGE
 70
     3
  9
$SHADEDIF
 70
    70
  9
$TILEMODE
 70
     1
  9
$MAXACTVP
 70
    64
  9
$PINSBASE
 10
0.0
 20
0.0
 30
0.0
  9
$PLIMCHECK
 70
     0
  9
$PEXTMIN
 10
1.0000000000E+20
 20
1.0000000000E+20
 30
1.0000000000E+20
  9
$PEXTMAX
 10
-1.0000000000E+20
 20
-1.0000000000E+20
 30
-1.0000000000E+20
  9
$PLIMMIN
 10
0.0
 20
0.0
  9
$PLIMMAX
 10
420.0
 20
297.0
  9
$UNITMODE
 70
     0
  9
$VISRETAIN
 70
     1
  9
$PLINEGEN
 70
     0
  9
$PSLTSCALE
 70
     1
  9
$TREEDEPTH
 70
  3020
  9
$CMLSTYLE
  2
Standard
  9
$CMLJUST
 70
     0
  9
$CMLSCALE
 40
20.0
  9
$PROXYGRAPHICS
 70
     1
  9
$MEASUREMENT
 70
     1
  9
$CELWEIGHT
370
    -1
  9
$ENDCAPS
280
     0
  9
$JOINSTYLE
280
     0
  9
$LWDISPLAY
290
     1
  9
$INSUNITS
 70
     4
  9
$HYPERLINKBASE
  1

  9
$STYLESHEET
  1

  9
$XEDIT
290
     1
  9
$CEPSNTYPE
380
     0
  9
$PSTYLEMODE
290
     1
  9
$FINGERPRINTGUID
  2
{AC3FF6EF-83E0-4C34-86C9-14FBA20D5D73}
  9
$VERSIONGUID
  2
{FAEB1C32-E019-11D5-929B-00C0DF256EC4}
  9
$EXTNAMES
290
     1
  9
$PSVPSCALE
 40
0.0
  9
$OLESTARTUP
290
     0
  0
ENDSEC
  0
SECTION
  2
CLASSES
  0
CLASS
  1
ACDBDICTIONARYWDFLT
  2
AcDbDictionaryWithDefault
  3
ObjectDBX Classes
 90
        0
280
     0
281
     0
  0
CLASS
  1
VISUALSTYLE
  2
AcDbVisualStyle
  3
ObjectDBX Classes
 90
     4095
280
     0
281
     0
  0
CLASS
  1
DICTIONARYVAR
  2
AcDbDictionaryVar
  3
ObjectDBX Classes
 90
        0
280
     0
281
     0
  0
CLASS
  1
ACDBPLACEHOLDER
  2
AcDbPlaceHolder
  3
ObjectDBX Classes
 90
        0
280
     0
281
     0
  0
CLASS
  1
LAYOUT
  2
AcDbLayout
  3
ObjectDBX Classes
 90
        0
280
     0
281
     0
  0
ENDSEC
  0
SECTION
  2
TABLES
  0
TABLE
  2
VPORT
  5
8
330
0
100
AcDbSymbolTable
 70
     1
  0
VPORT
  5
29
330
8
100
AcDbSymbolTableRecord
100
AcDbViewportTableRecord
  2
*Active
 70
     0
 10
0.0
 20
0.0
 11
1.0
 21
1.0
 12
148.5
 22
105.0
 13
0.0
 23
0.0
 14
10.0
 24
10.0
 15
10.0
 25
10.0
 16
0.0
 26
0.0
 36
1.0
 17
0.0
 27
0.0
 37
0.0
 40
210.0
 41
1.4142857143
 42
50.0
 43
0.0
 44
0.0
 50
0.0
 51
0.0
 71
     0
 72
  2000
 73
     1
 74
     3
 75
     0
 76
     0
 77
     0
 78
     0
281
     0
 65
     1
110
0.0
120
0.0
130
0.0
111
1.0
121
0.0
131
0.0
112
0.0
122
1.0
132
0.0
 79
     0
146
0.0
  0
ENDTAB
  0
TABLE
  2
LTYPE
  5
5
330
0
100
AcDbSymbolTable
 70
     6
  0
LTYPE
  5
14
330
5
100
AcDbSymbolTableRecord
100
AcDbLinetypeTableRecord
  2
ByBlock
 70
     0
  3

 72
    65
 73
     0
 40
0.0
  0
LTYPE
  5
15
330
5
100
AcDbSymbolTableRecord
100
AcDbLinetypeTableRecord
  2
ByLayer
 70
     0
  3

 72
    65
 73
     0
 40
0.0
  0
LTYPE
  5
16
330
5
100
AcDbSymbolTableRecord
100
AcDbLinetypeTableRecord
  2
Continuous
 70
     0
  3
Solid line
 72
    65
 73
     0
 40
0.0
  0
LTYPE
  5
3B
330
5
100
AcDbSymbolTableRecord
100
AcDbLinetypeTableRecord
  2
HIDDEN
 70
     0
  3
Hidden __ __ __ __ __ __ __ __ __ __ __ __ __ __
 72
    65
 73
     2
 40
1.905
 49
1.27
 74
     0
 49
-0.635
 74
     0
  0
LTYPE
  5
3C
330
5
100
AcDbSymbolTableRecord
100
AcDbLinetypeTableRecord
  2
PHANTOM
 70
     0
  3
Phantom ______  __  __  ______  __  __  ______
 72
    65
 73
     6
 40
12.7
 49
6.35
 74
     0
 49
-1.27
 74
     0
 49
1.27
 74
     0
 49
-1.27
 74
     0
 49
1.27
 74
     0
 49
-1.27
 74
     0
  0
LTYPE
  5
3D
330
5
100
AcDbSymbolTableRecord
100
AcDbLinetypeTableRecord
  2
CENTER
 70
     0
  3
Center ____ _ ____ _ ____ _ ____ _ ____ _ ____
 72
    65
 73
     4
 40
10.16
 49
6.35
 74
     0
 49
-1.27
 74
     0
 49
1.27
 74
     0
 49
-1.27
 74
     0
  0
LTYPE
  5
3E
330
5
100
AcDbSymbolTableRecord
100
AcDbLinetypeTableRecord
  2
CENTERX2
 70
     0
  3
Center (2x) ________  __  ________  __  _____
 72
    65
 73
     4
 40
20.32
 49
12.7
 74
     0
 49
-2.54
 74
     0
 49
2.54
 74
     0
 49
-2.54
 74
     0
  0
LTYPE
  5
3F
330
5
100
AcDbSymbolTableRecord
100
AcDbLinetypeTableRecord
  2
DOT2
 70
     0
  3
Dot (.5x) ........................................
 72
    65
 73
     2
 40
0.635
 49
0.0
 74
     0
 49
-0.635
 74
     0
  0
ENDTAB
  0
TABLE
  2
LAYER
  5
2
330
0
100
AcDbSymbolTable
 70
     5
  0
LAYER
  5
10
330
2
100
AcDbSymbolTableRecord
100
AcDbLayerTableRecord
  2
0
 70
     0
 62
     7
  6
Continuous
370
    -3
390
F
  0
LAYER
  5
40
330
2
100
AcDbSymbolTableRecord
100
AcDbLayerTableRecord
  2
FORMAT
 70
     0
 62
     7
  6
Continuous
370
    -3
390
F
  0
LAYER
  5
41
330
2
100
AcDbSymbolTableRecord
100
AcDbLayerTableRecord
  2
VERMASSUNG
 70
     0
 62
     7
  6
Continuous
370
    -3
390
F
  0
LAYER
  5
42
330
2
100
AcDbSymbolTableRecord
100
AcDbLayerTableRecord
  2
KOPF_DÜNN
 70
     0
 62
     7
  6
Continuous
370
    -3
390
F
  0
LAYER
  5
43
330
2
100
AcDbSymbolTableRecord
100
AcDbLayerTableRecord
  2
KOPF_DICK
 70
     0
 62
     7
  6
Continuous
370
    15
390
F
  0
ENDTAB
  0
TABLE
  2
STYLE
  5
3
330
0
100
AcDbSymbolTable
 70
     3
  0
STYLE
  5
11
330
3
100
AcDbSymbolTableRecord
100
AcDbTextStyleTableRecord
  2
Standard
 70
     0
 40
0.0
 41
1.0
 50
0.0
 71
     0
 42
2.5
  3
txt
  4

  0
STYLE
  5
44
330
3
100
AcDbSymbolTableRecord
100
AcDbTextStyleTableRecord
  2
SLDTEXTSTYLE0
 70
     0
 40
0.0
 41
0.7
 50
0.0
 71
     0
 42
0.2
  3
TXT
  4

  0
STYLE
  5
48
330
3
100
AcDbSymbolTableRecord
100
AcDbTextStyleTableRecord
  2
SLDTEXTSTYLE1
 70
     0
 40
0.0
 41
0.6473684211
 50
0.0
 71
     0
 42
0.2
  3
TXT
  4

  0
ENDTAB
  0
TABLE
  2
VIEW
  5
6
330
0
100
AcDbSymbolTable
 70
     0
  0
ENDTAB
  0
TABLE
  2
UCS
  5
7
330
0
100
AcDbSymbolTable
 70
     0
  0
ENDTAB
  0
TABLE
  2
APPID
  5
9
330
0
100
AcDbSymbolTable
 70
     1
  0
APPID
  5
12
330
9
100
AcDbSymbolTableRecord
100
AcDbRegAppTableRecord
  2
ACAD
 70
     0
  0
ENDTAB
  0
TABLE
  2
DIMSTYLE
  5
A
330
0
100
AcDbSymbolTable
 70
     2
100
AcDbDimStyleTable
  0
DIMSTYLE
105
27
330
A
100
AcDbSymbolTableRecord
100
AcDbDimStyleTableRecord
  2
ISO-25
 70
     0
 41
2.5
 42
0.625
 43
3.75
 44
1.25
 73
     0
 74
     0
 77
     1
 78
     8
140
2.5
141
2.5
143
0.0393700787
147
0.625
171
     3
172
     1
271
     2
272
     2
274
     3
278
    44
283
     0
284
     8
340
11
  0
DIMSTYLE
105
2AA
102
{ACAD_REACTORS
330
2A9
330
2B4
330
2BE
330
2C8
330
2D3
330
2DE
102
}
330
A
100
AcDbSymbolTableRecord
100
AcDbDimStyleTableRecord
  2
SLDDIMSTYLE0
 70
     0
 41
3.0
 44
0.0
 45
0.000000001
 73
     0
 74
     0
 77
     1
 78
    12
140
2.0
147
0.5
173
     1
271
     2
272
     3
284
    12
340
44
  0
ENDTAB
  0
TABLE
  2
BLOCK_RECORD
  5
1
330
0
100
AcDbSymbolTable
 70
     7
  0
BLOCK_RECORD
  5
1F
330
1
100
AcDbSymbolTableRecord
100
AcDbBlockTableRecord
  2
*Model_Space
340
22
  0
BLOCK_RECORD
  5
1B
330
1
100
AcDbSymbolTableRecord
100
AcDbBlockTableRecord
  2
*Paper_Space
340
1E
  0
BLOCK_RECORD
  5
23
330
1
100
AcDbSymbolTableRecord
100
AcDbBlockTableRecord
  2
*Paper_Space0
340
26
  0
BLOCK_RECORD
  5
2AB
330
1
100
AcDbSymbolTableRecord
100
AcDbBlockTableRecord
  2
*D1
340
0
  0
BLOCK_RECORD
  5
2B5
330
1
100
AcDbSymbolTableRecord
100
AcDbBlockTableRecord
  2
*D2
340
0
  0
BLOCK_RECORD
  5
2BF
330
1
100
AcDbSymbolTableRecord
100
AcDbBlockTableRecord
  2
*D3
340
0
  0
BLOCK_RECORD
  5
2C9
330
1
100
AcDbSymbolTableRecord
100
AcDbBlockTableRecord
  2
*D4
340
0
  0
BLOCK_RECORD
  5
2D4
330
1
100
AcDbSymbolTableRecord
100
AcDbBlockTableRecord
  2
*D5
340
0
  0
BLOCK_RECORD
  5
2DF
330
1
100
AcDbSymbolTableRecord
100
AcDbBlockTableRecord
  2
*D6
340
0
  0
ENDTAB
  0
ENDSEC
  0
SECTION
  2
BLOCKS
  0
BLOCK
  5
20
330
1F
100
AcDbEntity
  8
0
100
AcDbBlockBegin
  2
*Model_Space
 70
     0
 10
0.0
 20
0.0
 30
0.0
  3
*Model_Space
  1

  0
ENDBLK
  5
21
330
1F
100
AcDbEntity
  8
0
100
AcDbBlockEnd
  0
BLOCK
  5
1C
330
1B
100
AcDbEntity
 67
     1
  8
0
100
AcDbBlockBegin
  2
*Paper_Space
 70
     0
 10
0.0
 20
0.0
 30
0.0
  3
*Paper_Space
  1

  0
ENDBLK
  5
1D
330
1B
100
AcDbEntity
 67
     1
  8
0
100
AcDbBlockEnd
  0
BLOCK
  5
24
330
23
100
AcDbEntity
  8
0
100
AcDbBlockBegin
  2
*Paper_Space0
 70
     0
 10
0.0
 20
0.0
 30
0.0
  3
*Paper_Space0
  1

  0
ENDBLK
  5
25
330
23
100
AcDbEntity
  8
0
100
AcDbBlockEnd
  0
BLOCK
  5
2AC
330
2AB
100
AcDbEntity
  8
0
100
AcDbBlockBegin
  2
*D1
 70
     1
 10
0.0
 20
0.0
 30
0.0
  3
*D1
  1

  0
SOLID
  5
2AE
330
2AB
100
AcDbEntity
  8
VERMASSUNG
100
AcDbTrace
 10
101.7132128105
 20
164.0442695698
 30
0.0
 11
104.7132128105
 21
163.5942695698
 31
0.0
 12
104.7132128105
 22
164.4942695698
 32
0.0
 13
104.7132128105
 23
164.4942695698
 33
0.0
  0
SOLID
  5
2AF
330
2AB
100
AcDbEntity
  8
VERMASSUNG
100
AcDbTrace
 10
221.7132128105
 20
164.0442695698
 30
0.0
 11
218.7132128105
 21
164.4942695698
 31
0.0
 12
218.7132128105
 22
163.5942695698
 32
0.0
 13
218.7132128105
 23
163.5942695698
 33
0.0
  0
LINE
  5
2B0
330
2AB
100
AcDbEntity
  8
VERMASSUNG
100
AcDbLine
 10
101.7132128105
 20
147.4505675868
 30
0.0
 11
101.7132128105
 21
165.0442695698
 31
0.0
  0
LINE
  5
2B1
330
2AB
100
AcDbEntity
  8
VERMASSUNG
100
AcDbLine
 10
221.7132128105
 20
145.0505675868
 30
0.0
 11
221.7132128105
 21
165.0442695698
 31
0.0
  0
LINE
  5
2B2
330
2AB
100
AcDbEntity
  8
VERMASSUNG
100
AcDbLine
 10
101.7132128105
 20
164.0442695698
 30
0.0
 11
221.7132128105
 21
164.0442695698
 31
0.0
  0
MTEXT
  5
2B3
330
2AB
100
AcDbEntity
  8
VERMASSUNG
100
AcDbMText
 10
159.8134607656
 20
166.6224049329
 30
0.0
 40
2.0
 41
0.0
 71
     1
 72
     1
  1
120
  7
SLDTEXTSTYLE0
 73
     1
 44
1.0
  0
ENDBLK
  5
2AD
330
2AB
100
AcDbEntity
  8
0
100
AcDbBlockEnd
  0
BLOCK
  5
2B6
330
2B5
100
AcDbEntity
  8
0
100
AcDbBlockBegin
  2
*D2
 70
     1
 10
0.0
 20
0.0
 30
0.0
  3
*D2
  1

  0
SOLID
  5
2B8
330
2B5
100
AcDbEntity
  8
VERMASSUNG
100
AcDbTrace
 10
127.6632128105
 20
158.0442695698
 30
0.0
 11
130.6632128105
 21
157.5942695698
 31
0.0
 12
130.6632128105
 22
158.4942695698
 32
0.0
 13
130.6632128105
 23
158.4942695698
 33
0.0
  0
SOLID
  5
2B9
330
2B5
100
AcDbEntity
  8
VERMASSUNG
100
AcDbTrace
 10
221.7132128105
 20
158.0442695698
 30
0.0
 11
218.7132128105
 21
158.4942695698
 31
0.0
 12
218.7132128105
 22
157.5942695698
 32
0.0
 13
218.7132128105
 23
157.5942695698
 33
0.0
  0
LINE
  5
2BA
330
2B5
100
AcDbEntity
  8
VERMASSUNG
100
AcDbLine
 10
127.6632128105
 20
146.0970079105
 30
0.0
 11
127.6632128105
 21
159.0442695698
 31
0.0
  0
LINE
  5
2BB
330
2B5
100
AcDbEntity
  8
VERMASSUNG
100
AcDbLine
 10
221.7132128105
 20
145.0505675868
 30
0.0
 11
221.7132128105
 21
159.0442695698
 31
0.0
  0
LINE
  5
2BC
330
2B5
100
AcDbEntity
  8
VERMASSUNG
100
AcDbLine
 10
127.6632128105
 20
158.0442695698
 30
0.0
 11
221.7132128105
 21
158.0442695698
 31
0.0
  0
MTEXT
  5
2BD
330
2B5
100
AcDbEntity
  8
VERMASSUNG
100
AcDbMText
 10
171.4887582797
 20
160.6224049329
 30
0.0
 40
2.0
 41
0.0
 71
     1
 72
     1
  1
94.05
  7
SLDTEXTSTYLE0
 73
     1
 44
1.0
  0
ENDBLK
  5
2B7
330
2B5
100
AcDbEntity
  8
0
100
AcDbBlockEnd
  0
BLOCK
  5
2C0
330
2BF
100
AcDbEntity
  8
0
100
AcDbBlockBegin
  2
*D3
 70
     1
 10
0.0
 20
0.0
 30
0.0
  3
*D3
  1

  0
SOLID
  5
2C2
330
2BF
100
AcDbEntity
  8
VERMASSUNG
100
AcDbTrace
 10
69.8132128105
 20
170.0442695698
 30
0.0
 11
72.8132128105
 21
169.5942695698
 31
0.0
 12
72.8132128105
 22
170.4942695698
 32
0.0
 13
72.8132128105
 23
170.4942695698
 33
0.0
  0
SOLID
  5
2C3
330
2BF
100
AcDbEntity
  8
VERMASSUNG
100
AcDbTrace
 10
221.7132128105
 20
170.0442695698
 30
0.0
 11
218.7132128105
 21
170.4942695698
 31
0.0
 12
218.7132128105
 22
169.5942695698
 32
0.0
 13
218.7132128105
 23
169.5942695698
 33
0.0
  0
LINE
  5
2C4
330
2BF
100
AcDbEntity
  8
VERMASSUNG
100
AcDbLine
 10
69.8132128105
 20
135.9412453332
 30
0.0
 11
69.8132128105
 21
171.0442695698
 31
0.0
  0
LINE
  5
2C5
330
2BF
100
AcDbEntity
  8
VERMASSUNG
100
AcDbLine
 10
221.7132128105
 20
145.0505675868
 30
0.0
 11
221.7132128105
 21
171.0442695698
 31
0.0
  0
LINE
  5
2C6
330
2BF
100
AcDbEntity
  8
VERMASSUNG
100
AcDbLine
 10
69.8132128105
 20
170.0442695698
 30
0.0
 11
221.7132128105
 21
170.0442695698
 31
0.0
  0
MTEXT
  5
2C7
330
2BF
100
AcDbEntity
  8
VERMASSUNG
100
AcDbMText
 10
143.0642044705
 20
172.6224049329
 30
0.0
 40
2.0
 41
0.0
 71
     1
 72
     1
  1
151.9
  7
SLDTEXTSTYLE0
 73
     1
 44
1.0
  0
ENDBLK
  5
2C1
330
2BF
100
AcDbEntity
  8
0
100
AcDbBlockEnd
  0
BLOCK
  5
2CA
330
2C9
100
AcDbEntity
  8
0
100
AcDbBlockBegin
  2
*D4
 70
     1
 10
0.0
 20
0.0
 30
0.0
  3
*D4
  1

  0
SOLID
  5
2CC
330
2C9
100
AcDbEntity
  8
VERMASSUNG
100
AcDbTrace
 10
234.8816742308
 20
152.2505675868
 30
0.0
 11
234.4316742308
 21
149.2505675868
 31
0.0
 12
235.3316742308
 22
149.2505675868
 32
0.0
 13
235.3316742308
 23
149.2505675868
 33
0.0
  0
SOLID
  5
2CD
330
2C9
100
AcDbEntity
  8
VERMASSUNG
100
AcDbTrace
 10
234.8816742308
 20
80.2505675868
 30
0.0
 11
235.3316742308
 21
83.2505675868
 31
0.0
 12
234.4316742308
 22
83.2505675868
 32
0.0
 13
234.4316742308
 23
83.2505675868
 33
0.0
  0
LINE
  5
2CE
330
2C9
100
AcDbEntity
  8
VERMASSUNG
100
AcDbLine
 10
219.2632128105
 20
152.2505675868
 30
0.0
 11
235.8816742308
 21
152.2505675868
 31
0.0
  0
LINE
  5
2CF
330
2C9
100
AcDbEntity
  8
VERMASSUNG
100
AcDbLine
 10
219.2632128105
 20
80.2505675868
 30
0.0
 11
235.8816742308
 21
80.2505675868
 31
0.0
  0
LINE
  5
2D0
330
2C9
100
AcDbEntity
  8
VERMASSUNG
100
AcDbLine
 10
234.8816742308
 20
152.2505675868
 30
0.0
 11
234.8816742308
 21
80.2505675868
 31
0.0
  0
MTEXT
  5
2D1
330
2C9
100
AcDbEntity
  8
VERMASSUNG
100
AcDbMText
 10
232.3035387512
 20
113.0474690302
 30
0.0
 40
2.0
 41
0.0
 71
     1
 72
     1
  1
%%c
  7
SLDTEXTSTYLE0
 11
-7.044195017643634E-15
 21
1.0
 31
0.0
 73
     1
 44
1.0
  0
MTEXT
  5
2D2
330
2C9
100
AcDbEntity
  8
VERMASSUNG
100
AcDbMText
 10
232.3035388676
 20
116.6550544352
 30
0.0
 40
2.0
 41
0.0
 71
     1
 72
     1
  1
72
  7
SLDTEXTSTYLE0
 11
-7.044195017643634E-15
 21
1.0
 31
0.0
 73
     1
 44
1.0
  0
ENDBLK
  5
2CB
330
2C9
100
AcDbEntity
  8
0
100
AcDbBlockEnd
  0
BLOCK
  5
2D5
330
2D4
100
AcDbEntity
  8
0
100
AcDbBlockBegin
  2
*D5
 70
     1
 10
0.0
 20
0.0
 30
0.0
  3
*D5
  1

  0
SOLID
  5
2D7
330
2D4
100
AcDbEntity
  8
VERMASSUNG
100
AcDbTrace
 10
228.8816742308
 20
140.2505675868
 30
0.0
 11
228.4316742308
 21
137.2505675868
 31
0.0
 12
229.3316742308
 22
137.2505675868
 32
0.0
 13
229.3316742308
 23
137.2505675868
 33
0.0
  0
SOLID
  5
2D8
330
2D4
100
AcDbEntity
  8
VERMASSUNG
100
AcDbTrace
 10
228.8816742308
 20
92.2505675868
 30
0.0
 11
229.3316742308
 21
95.2505675868
 31
0.0
 12
228.4316742308
 22
95.2505675868
 32
0.0
 13
228.4316742308
 23
95.2505675868
 33
0.0
  0
LINE
  5
2D9
330
2D4
100
AcDbEntity
  8
VERMASSUNG
100
AcDbLine
 10
220.5132128105
 20
140.2505675868
 30
0.0
 11
229.8816742308
 21
140.2505675868
 31
0.0
  0
LINE
  5
2DA
330
2D4
100
AcDbEntity
  8
VERMASSUNG
100
AcDbLine
 10
220.5132128105
 20
92.2505675868
 30
0.0
 11
229.8816742308
 21
92.2505675868
 31
0.0
  0
LINE
  5
2DB
330
2D4
100
AcDbEntity
  8
VERMASSUNG
100
AcDbLine
 10
228.8816742308
 20
140.2505675868
 30
0.0
 11
228.8816742308
 21
92.2505675868
 31
0.0
  0
MTEXT
  5
2DC
330
2D4
100
AcDbEntity
  8
VERMASSUNG
100
AcDbMText
 10
226.3035387512
 20
112.9478656621
 30
0.0
 40
2.0
 41
0.0
 71
     1
 72
     1
  1
%%c
  7
SLDTEXTSTYLE0
 11
-7.044195017643634E-15
 21
1.0
 31
0.0
 73
     1
 44
1.0
  0
MTEXT
  5
2DD
330
2D4
100
AcDbEntity
  8
VERMASSUNG
100
AcDbMText
 10
226.3035388676
 20
116.5554510671
 30
0.0
 40
2.0
 41
0.0
 71
     1
 72
     1
  1
48
  7
SLDTEXTSTYLE0
 11
-7.044195017643634E-15
 21
1.0
 31
0.0
 73
     1
 44
1.0
  0
ENDBLK
  5
2D6
330
2D4
100
AcDbEntity
  8
0
100
AcDbBlockEnd
  0
BLOCK
  5
2E0
330
2DF
100
AcDbEntity
  8
0
100
AcDbBlockBegin
  2
*D6
 70
     1
 10
0.0
 20
0.0
 30
0.0
  3
*D6
  1

  0
SOLID
  5
2E2
330
2DF
100
AcDbEntity
  8
VERMASSUNG
100
AcDbTrace
 10
64.6369312014
 20
147.7505675868
 30
0.0
 11
64.1869312014
 21
144.7505675868
 31
0.0
 12
65.0869312014
 22
144.7505675868
 32
0.0
 13
65.0869312014
 23
144.7505675868
 33
0.0
  0
SOLID
  5
2E3
330
2DF
100
AcDbEntity
  8
VERMASSUNG
100
AcDbTrace
 10
64.6369312014
 20
84.7505675868
 30
0.0
 11
65.0869312014
 21
87.7505675868
 31
0.0
 12
64.1869312014
 22
87.7505675868
 32
0.0
 13
64.1869312014
 23
87.7505675868
 33
0.0
  0
LINE
  5
2E4
330
2DF
100
AcDbEntity
  8
VERMASSUNG
100
AcDbLine
 10
102.0132128105
 20
147.7505675868
 30
0.0
 11
63.6369312014
 21
147.7505675868
 31
0.0
  0
LINE
  5
2E5
330
2DF
100
AcDbEntity
  8
VERMASSUNG
100
AcDbLine
 10
102.0132128105
 20
84.7505675868
 30
0.0
 11
63.6369312014
 21
84.7505675868
 31
0.0
  0
LINE
  5
2E6
330
2DF
100
AcDbEntity
  8
VERMASSUNG
100
AcDbLine
 10
64.6369312014
 20
147.7505675868
 30
0.0
 11
64.6369312014
 21
84.7505675868
 31
0.0
  0
MTEXT
  5
2E7
330
2DF
100
AcDbEntity
  8
VERMASSUNG
100
AcDbMText
 10
61.8587957124
 20
108.5470973382
 30
0.0
 40
2.0
 41
0.0
 71
     1
 72
     1
  1
HSK A 
  7
SLDTEXTSTYLE0
 11
-7.044195017643634E-15
 21
1.0
 31
0.0
 73
     1
 44
1.0
  0
MTEXT
  5
2E8
330
2DF
100
AcDbEntity
  8
VERMASSUNG
100
AcDbMText
 10
62.0587957219
 20
117.5470978821
 30
0.0
 40
2.0
 41
0.0
 71
     1
 72
     1
  1
%%c
  7
SLDTEXTSTYLE0
 11
-7.044195017643634E-15
 21
1.0
 31
0.0
 73
     1
 44
1.0
  0
MTEXT
  5
2E9
330
2DF
100
AcDbEntity
  8
VERMASSUNG
100
AcDbMText
 10
62.0587958383
 20
121.1554261273
 30
0.0
 40
2.0
 41
0.0
 71
     1
 72
     1
  1
63
  7
SLDTEXTSTYLE0
 11
-7.044195017643634E-15
 21
1.0
 31
0.0
 73
     1
 44
1.0
  0
ENDBLK
  5
2E1
330
2DF
100
AcDbEntity
  8
0
100
AcDbBlockEnd
  0
ENDSEC
  0
SECTION
  2
ENTITIES
  0
MTEXT
  5
45
330
1F
100
AcDbEntity
  8
KOPF_DÜNN
100
AcDbMText
 10
13.8892156294
 20
23.8442973028
 30
0.0
 40
3.0
 41
0.0
 71
     1
 72
     1
  1
HA6.Go3.K01.120
  7
SLDTEXTSTYLE0
 73
     1
 44
1.0
  0
MTEXT
  5
46
330
1F
100
AcDbEntity
  8
VERMASSUNG
100
AcDbMText
 10
13.9329988022
 20
28.8834360957
 30
0.0
 40
3.0
 41
0.0
 71
     1
 72
     1
  1
Gewindeschneidfutter_Tapping chuck
  7
SLDTEXTSTYLE0
 73
     1
 44
1.0
  0
MTEXT
  5
47
330
1F
100
AcDbEntity
  8
VERMASSUNG
100
AcDbMText
 10
98.8601118557
 20
13.8365368179
 30
0.0
 40
2.0
 41
0.0
 71
     1
 72
     1
  1
Datum: 01.10.2007
  7
SLDTEXTSTYLE0
 73
     1
 44
1.0
  0
MTEXT
  5
49
330
1F
100
AcDbEntity
  8
VERMASSUNG
100
AcDbMText
 10
13.933048693
 20
18.0482802738
 30
0.0
 40
2.0
 41
0.0
 71
     1
 72
     1
  1
DIN 69 893 HSK A 63
  7
SLDTEXTSTYLE1
 73
     1
 44
1.0
  0
MTEXT
  5
4A
330
1F
100
AcDbEntity
  8
VERMASSUNG
100
AcDbMText
 10
13.9808475933
 20
13.9090973692
 30
0.0
 40
2.0
 41
0.0
 71
     1
 72
     1
  1
Gewicht: 2310g
  7
SLDTEXTSTYLE0
 73
     1
 44
1.0
  0
LINE
  5
4B
330
1F
100
AcDbEntity
  8
0
  6
Continuous
 62
     7
370
    15
100
AcDbLine
 10
219.2632133589
 20
152.250566037
 30
0.0
 11
204.2632127628
 21
152.250566037
 31
0.0
  0
LINE
  5
4C
330
1F
100
AcDbEntity
  8
0
  6
Continuous
 62
     7
370
    15
100
AcDbLine
 10
204.2632127628
 20
80.2505691365
 30
0.0
 11
219.2632133589
 21
80.2505691365
 31
0.0
  0
ARC
  5
4D
330
1F
100
AcDbEntity
  8
0
  6
Continuous
 62
     7
370
    15
100
AcDbCircle
 10
203.8924028862
 20
152.4005675868
 30
0.0
 40
0.4000000000000057
100
AcDbArc
 50
270.0
 51
337.975687163
  0
ARC
  5
4E
330
1F
100
AcDbEntity
  8
0
  6
Continuous
 62
     7
370
    15
100
AcDbCircle
 10
203.8924028862
 20
80.1005675868
 30
0.0
 40
0.4000000000000199
100
AcDbArc
 50
22.024312837
 51
90.0
  0
LINE
  5
4F
330
1F
100
AcDbEntity
  8
0
  6
Continuous
 62
     7
370
    15
100
AcDbLine
 10
161.163213335
 20
152.250566037
 30
0.0
 11
146.163212739
 21
152.250566037
 31
0.0
  0
LINE
  5
50
330
1F
100
AcDbEntity
  8
0
  6
Continuous
 62
     7
370
    15
100
AcDbLine
 10
146.163212739
 20
80.2505691365
 30
0.0
 11
161.163213335
 21
80.2505691365
 31
0.0
  0
ARC
  5
51
330
1F
100
AcDbEntity
  8
0
  6
Continuous
 62
     7
370
    15
100
AcDbCircle
 10
219.2632128105
 20
151.2505675868
 30
0.0
 40
1.0
100
AcDbArc
 50
0.0
 51
90.0
  0
ARC
  5
52
330
1F
100
AcDbEntity
  8
0
  6
Continuous
 62
     7
370
    15
100
AcDbCircle
 10
219.2632128105
 20
81.2505675868
 30
0.0
 40
1.0
100
AcDbArc
 50
270.0
 51
0.0
  0
ARC
  5
53
330
1F
100
AcDbEntity
  8
0
  6
Continuous
 62
     7
370
    15
100
AcDbCircle
 10
146.1632128105
 20
151.2505675868
 30
0.0
 40
1.0
100
AcDbArc
 50
90.0
 51
180.0
  0
ARC
  5
54
330
1F
100
AcDbEntity
  8
0
  6
Continuous
 62
     7
370
    15
100
AcDbCircle
 10
146.1632128105
 20
81.2505675868
 30
0.0
 40
1.000000000000028
100
AcDbArc
 50
180.0
 51
270.0
  0
LINE
  5
55
330
1F
100
AcDbEntity
  8
0
  6
Continuous
 62
     7
370
    15
100
AcDbLine
 10
194.263214849
 20
152.250566037
 30
0.0
 11
171.1632112489
 21
152.250566037
 31
0.0
  0
LINE
  5
56
330
1F
100
AcDbEntity
  8
0
  6
Continuous
 62
     7
370
    15
100
AcDbLine
 10
171.1632112489
 20
80.2505691365
 30
0.0
 11
194.263214849
 21
80.2505691365
 31
0.0
  0
ARC
  5
57
330
1F
100
AcDbEntity
  8
0
  6
Continuous
 62
     7
370
    15
100
AcDbCircle
 10
194.6340227349
 20
152.4005675868
 30
0.0
 40
0.4000000000000196
100
AcDbArc
 50
202.024312837
 51
270.0
  0
ARC
  5
58
330
1F
100
AcDbEntity
  8
0
  6
Continuous
 62
     7
370
    15
100
AcDbCircle
 10
194.6340227349
 20
80.1005675868
 30
0.0
 40
0.4000000000000143
100
AcDbArc
 50
90.0
 51
157.975687163
  0
ARC
  5
59
330
1F
100
AcDbEntity
  8
0
  6
Continuous
 62
     7
370
    15
100
AcDbCircle
 10
170.7924028862
 20
152.4005675868
 30
0.0
 40
0.3999999999999982
100
AcDbArc
 50
270.0
 51
337.975687163
  0
ARC
  5
5A
330
1F
100
AcDbEntity
  8
0
  6
Continuous
 62
     7
370
    15
100
AcDbCircle
 10
170.7924028862
 20
80.1005675868
 30
0.0
 40
0.4000000000000143
100
AcDbArc
 50
22.024312837
 51
90.0
  0
ARC
  5
5B
330
1F
100
AcDbEntity
  8
0
  6
Continuous
 62
     7
370
    15
100
AcDbCircle
 10
161.5340227349
 20
152.4005675868
 30
0.0
 40
0.4000000000000196
100
AcDbArc
 50
202.024312837
 51
270.0
  0
ARC
  5
5C
330
1F
100
AcDbEntity
  8
0
  6
Continuous
 62
     7
370
    15
100
AcDbCircle
 10
161.5340227349
 20
80.1005675868
 30
0.0
 40
0.4000000000000143
100
AcDbArc
 50
90.0
 51
157.975687163
  0
LINE
  5
5D
330
1F
100
AcDbEntity
  8
0
  6
Continuous
 62
     7
370
    15
100
AcDbLine
 10
203.8924048171
 20
152.0005692557
 30
0.0
 11
194.6340227947
 21
152.0005692557
 31
0.0
  0
LINE
  5
5E
330
1F
100
AcDbEntity
  8
0
  6
Continuous
 62
     7
370
    15
100
AcDbLine
 10
194.6340227947
 20
80.5005659178
 30
0.0
 11
203.8924048171
 21
80.5005659178
 31
0.0
  0
LINE
  5
5F
330
1F
100
AcDbEntity
  8
0
  6
Continuous
 62
     7
370
    15
100
AcDbLine
 10
170.7924033032
 20
152.0005692557
 30
0.0
 11
161.5340212808
 21
152.0005692557
 31
0.0
  0
LINE
  5
60
330
1F
100
AcDbEntity
  8
0
  6
Continuous
 62
     7
370
    15
100
AcDbLine
 10
161.5340212808
 20
80.5005659178
 30
0.0
 11
170.7924033032
 21
80.5005659178
 31
0.0
  0
SPLINE
  5
61
330
1F
100
AcDbEntity
  8
0
  6
Continuous
 62
     7
370
    15
100
AcDbSpline
210
0.0
220
0.0
230
1.0
 70
     8
 71
     3
 72
    10
 73
     6
 74
     0
 42
0.00000001
 43
0.00000001
 40
0.0
 40
0.0
 40
0.0
 40
0.0
 40
0.4692184420022086
 40
0.7515474369257082
 40
1.0
 40
1.0
 40
1.0
 40
1.0
 10
143.7132122442817
 20
120.2545580283227
 30
0.0
 10
143.6798124849897
 20
120.5838271180525
 30
0.0
 10
143.6263160721404
 20
121.1112176003818
 30
0.0
 10
143.5554146434472
 20
121.4191743143378
 30
0.0
 10
143.5177185705592
 20
121.4345004288871
 30
0.0
 10
143.5000734851455
 20
121.441674401653
 30
0.0
  0
LINE
  5
62
330
1F
100
AcDbEntity
  8
0
  6
Continuous
 62
     7
370
    15
100
AcDbLine
 10
145.1632144377
 20
149.5755691842
 30
0.0
 11
144.7132142708
 21
149.5755691842
 31
0.0
  0
LINE
  5
63
330
1F
100
AcDbEntity
  8
0
  6
Continuous
 62
     7
370
    15
100
AcDbLine
 10
144.7132142708
 20
82.9255659894
 30
0.0
 11
145.1632144377
 21
82.9255659894
 31
0.0
  0
ARC
  5
64
330
1F
100
AcDbEntity
  8
0
  6
Continuous
 62
     7
370
    15
100
AcDbCircle
 10
144.7132128105
 20
83.9255675868
 30
0.0
 40
1.0
100
AcDbArc
 50
180.0
 51
270.0
  0
ARC
  5
65
330
1F
100
AcDbEntity
  8
0
  6
Continuous
 62
     7
370
    15
100
AcDbCircle
 10
144.7132128105
 20
148.5755675868
 30
0.0
 40
1.0
100
AcDbArc
 50
90.0
 51
180.0
  0
ARC
  5
66
330
1F
100
AcDbEntity
  8
0
  6
Continuous
 62
     7
370
    15
100
AcDbCircle
 10
102.0132128105
 20
85.0505675868
 30
0.0
 40
0.3000000000000114
100
AcDbArc
 50
180.0
 51
270.0
  0
ARC
  5
67
330
1F
100
AcDbEntity
  8
0
  6
Continuous
 62
     7
370
    15
100
AcDbCircle
 10
102.0132128105
 20
147.4505675868
 30
0.0
 40
0.3000000000000114
100
AcDbArc
 50
90.0
 51
180.0
  0
LINE
  5
68
330
1F
100
AcDbEntity
  8
0
  6
Continuous
 62
     7
370
    15
100
AcDbLine
 10
102.0132128248
 20
84.7505670801
 30
0.0
 11
106.6632127837
 21
84.7505670801
 31
0.0
  0
LINE
  5
69
330
1F
100
AcDbEntity
  8
0
  6
Continuous
 62
     7
370
    15
100
AcDbLine
 10
106.6912013554
 20
147.7505680934
 30
0.0
 11
102.0132128248
 21
147.7505680934
 31
0.0
  0
LINE
  5
6A
330
1F
100
AcDbEntity
  8
0
  6
Continuous
 62
     7
370
    15
100
AcDbLine
 10
220.5132121668
 20
146.2505669162
 30
0.0
 11
220.2632153854
 21
146.2505669162
 31
0.0
  0
LINE
  5
6B
330
1F
100
AcDbEntity
  8
0
  6
Continuous
 62
     7
370
    15
100
AcDbLine
 10
220.2632153854
 20
86.2505682573
 30
0.0
 11
220.5132121668
 21
86.2505682573
 31
0.0
  0
LINE
  5
6C
330
1F
100
AcDbEntity
  8
0
  6
Continuous
 62
     7
370
    15
100
AcDbLine
 10
220.5132121668
 20
86.2505682573
 30
0.0
 11
221.7132101283
 21
87.4505680815
 31
0.0
  0
LINE
  5
6D
330
1F
100
AcDbEntity
  8
0
  6
Continuous
 62
     7
370
    15
100
AcDbLine
 10
221.7132101283
 20
145.050567092
 30
0.0
 11
220.5132121668
 21
146.2505669162
 31
0.0
  0
ARC
  5
6E
330
1F
100
AcDbEntity
  8
0
  6
Continuous
 62
     7
370
    15
100
AcDbCircle
 10
128.6632128105
 20
89.2505675868
 30
0.0
 40
1.000000000000014
100
AcDbArc
 50
90.0
 51
143.1139143113
  0
ARC
  5
6F
330
1F
100
AcDbEntity
  8
0
  6
Continuous
 62
     7
370
    15
100
AcDbCircle
 10
128.6632128105
 20
143.2505675868
 30
0.0
 40
1.000000000000004
100
AcDbArc
 50
216.9126456259
 51
270.0
  0
ARC
  5
70
330
1F
100
AcDbEntity
  8
0
  6
Continuous
 62
     7
370
    15
100
AcDbCircle
 10
142.7132128105
 20
89.2505675868
 30
0.0
 40
1.0
100
AcDbArc
 50
0.0
 51
90.0
  0
ARC
  5
71
330
1F
100
AcDbEntity
  8
0
  6
Continuous
 62
     7
370
    15
100
AcDbCircle
 10
142.7132128105
 20
143.2505675868
 30
0.0
 40
1.0
100
AcDbArc
 50
270.0
 51
0.0
  0
LINE
  5
72
330
1F
100
AcDbEntity
  8
0
  6
Continuous
 62
     7
370
    15
100
AcDbLine
 10
128.6632126645
 20
90.2505670503
 30
0.0
 11
142.713213943
 21
90.2505670503
 31
0.0
  0
LINE
  5
73
330
1F
100
AcDbEntity
  8
0
  6
Continuous
 62
     7
370
    15
100
AcDbLine
 10
142.713213943
 20
142.2505681232
 30
0.0
 11
128.6632126645
 21
142.2505681232
 31
0.0
  0
ARC
  5
74
330
1F
100
AcDbEntity
  8
0
  6
Continuous
 62
     7
370
    15
100
AcDbCircle
 10
101.2132060579
 20
91.6801299724
 30
0.0
 40
0.6000067526677242
100
AcDbArc
 50
33.5571153394
 51
90.0
  0
ARC
  5
75
330
1F
100
AcDbEntity
  8
0
  6
Continuous
 62
     7
370
    15
100
AcDbCircle
 10
101.2132060579
 20
140.8210052012
 30
0.0
 40
0.6000067526677242
100
AcDbArc
 50
270.0
 51
326.4428846606
  0
LINE
  5
76
330
1F
100
AcDbEntity
  8
0
  6
Continuous
 62
     7
370
    15
100
AcDbLine
 10
88.4827902988
 20
139.9083514527
 30
0.0
 11
75.9132119343
 21
139.2786134795
 31
0.0
  0
LINE
  5
77
330
1F
100
AcDbEntity
  8
0
  6
Continuous
 62
     7
370
    15
100
AcDbLine
 10
99.7132127155
 20
140.4709988103
 30
0.0
 11
96.8946033605
 21
140.3297860936
 31
0.0
  0
LINE
  5
78
330
1F
100
AcDbEntity
  8
0
  6
Continuous
 62
     7
370
    15
100
AcDbLine
 10
96.8948250153
 20
92.1713379041
 30
0.0
 11
99.7132127155
 21
92.0301363633
 31
0.0
  0
LINE
  5
79
330
1F
100
AcDbEntity
  8
0
  6
Continuous
 62
     7
370
    15
100
AcDbLine
 10
79.91321259
 20
93.0221215651
 30
0.0
 11
88.4834897221
 21
92.5927483306
 31
0.0
  0
LINE
  5
7A
330
1F
100
AcDbEntity
  8
0
  6
Continuous
 62
     7
370
    15
100
AcDbLine
 10
99.7132127155
 20
92.0301363633
 30
0.0
 11
100.5699256417
 21
92.2596924767
 31
0.0
  0
LINE
  5
7B
330
1F
100
AcDbEntity
  8
0
  6
Continuous
 62
     7
370
    15
100
AcDbLine
 10
100.5699256417
 20
140.2414426968
 30
0.0
 11
99.7132127155
 21
140.4709988103
 31
0.0
  0
ARC
  5
7C
330
1F
100
AcDbEntity
  8
0
  6
Continuous
 62
     7
370
    15
100
AcDbCircle
 10
100.725217011
 20
91.680136725
 30
0.0
 40
0.5999999999999943
100
AcDbArc
 50
90.0
 51
105.0
  0
ARC
  5
7D
330
1F
100
AcDbEntity
  8
0
  6
Continuous
 62
     7
370
    15
100
AcDbCircle
 10
100.725217011
 20
140.8209984485
 30
0.0
 40
0.6000000000000227
100
AcDbArc
 50
255.0
 51
270.0
  0
LINE
  5
7E
330
1F
100
AcDbEntity
  8
0
  6
Continuous
 62
     7
370
    15
100
AcDbLine
 10
100.7252170454
 20
92.2801368699
 30
0.0
 11
101.2132060347
 21
92.2801368699
 31
0.0
  0
LINE
  5
7F
330
1F
100
AcDbEntity
  8
0
  6
Continuous
 62
     7
370
    15
100
AcDbLine
 10
101.2132060347
 20
140.2209983036
 30
0.0
 11
100.7252170454
 21
140.2209983036
 31
0.0
  0
ARC
  5
80
330
1F
100
AcDbEntity
  8
0
  6
Continuous
 62
     7
370
    15
100
AcDbCircle
 10
78.5132128105
 20
93.9805675868
 30
0.0
 40
1.400000000000006
100
AcDbArc
 50
42.2465410162
 51
90.0
  0
LINE
  5
81
330
1F
100
AcDbEntity
  8
0
  6
Continuous
 62
     7
370
    15
100
AcDbLine
 10
71.0965494142
 20
95.3805674628
 30
0.0
 11
78.5132131056
 21
95.3805674628
 31
0.0
  0
LINE
  5
82
330
1F
100
AcDbEntity
  8
0
  6
Continuous
 62
     7
370
    15
100
AcDbLine
 10
69.8132129834
 20
96.5305683032
 30
0.0
 11
70.9543755726
 21
95.3894038514
 31
0.0
  0
LINE
  5
83
330
1F
100
AcDbEntity
  8
0
  6
Continuous
 62
     7
370
    15
100
AcDbLine
 10
70.9543755726
 20
137.1117313222
 30
0.0
 11
69.8132129834
 21
135.9705668703
 31
0.0
  0
ARC
  5
84
330
1F
100
AcDbEntity
  8
0
  6
Continuous
 62
     7
370
    15
100
AcDbCircle
 10
74.5132128105
 20
138.5205675868
 30
0.0
 40
1.399999999999984
100
AcDbArc
 50
270.0
 51
301.7485287426
  0
LINE
  5
85
330
1F
100
AcDbEntity
  8
0
  6
Continuous
 62
     7
370
    15
100
AcDbLine
 10
74.5132124499
 20
137.1205677107
 30
0.0
 11
71.0874783323
 21
137.1205677107
 31
0.0
  0
LINE
  5
86
330
1F
100
AcDbEntity
  8
0
  6
Continuous
 62
     7
370
    15
100
AcDbLine
 10
204.2632127628
 20
152.250566037
 30
0.0
 11
204.2632127628
 21
80.2505691365
 31
0.0
  0
LINE
  5
87
330
1F
100
AcDbEntity
  8
0
  6
Continuous
 62
     7
370
    15
100
AcDbLine
 10
161.163213335
 20
152.250566037
 30
0.0
 11
161.163213335
 21
80.2505691365
 31
0.0
  0
LINE
  5
88
330
1F
100
AcDbEntity
  8
0
  6
Continuous
 62
     7
370
    15
100
AcDbLine
 10
220.2632153854
 20
151.2505677358
 30
0.0
 11
220.2632153854
 21
81.2505674378
 31
0.0
  0
LINE
  5
89
330
1F
100
AcDbEntity
  8
0
  6
Continuous
 62
     7
370
    15
100
AcDbLine
 10
145.1632144377
 20
151.2505677358
 30
0.0
 11
145.1632144377
 21
81.2505674378
 31
0.0
  0
LINE
  5
8A
330
1F
100
AcDbEntity
  8
0
  6
Continuous
 62
     7
370
    15
100
AcDbLine
 10
194.263214849
 20
152.250566037
 30
0.0
 11
194.263214849
 21
80.2505691365
 31
0.0
  0
LINE
  5
8B
330
1F
100
AcDbEntity
  8
0
  6
Continuous
 62
     7
370
    15
100
AcDbLine
 10
171.1632112489
 20
152.250566037
 30
0.0
 11
171.1632112489
 21
80.2505691365
 31
0.0
  0
LINE
  5
8C
330
1F
100
AcDbEntity
  8
0
  6
Continuous
 62
     7
370
    15
100
AcDbLine
 10
143.7132122443
 20
83.9255680159
 30
0.0
 11
143.7132122443
 21
148.5755671576
 31
0.0
  0
LINE
  5
8D
330
1F
100
AcDbEntity
  8
0
  6
Continuous
 62
     7
370
    15
100
AcDbLine
 10
127.6632125006
 20
86.6902903483
 30
0.0
 11
127.6632125006
 21
136.1005683259
 31
0.0
  0
SPLINE
  5
8E
330
1F
100
AcDbEntity
  8
0
  6
Continuous
 62
     7
370
    15
100
AcDbSpline
210
0.0
220
0.0
230
1.0
 70
     8
 71
     3
 72
    10
 73
     6
 74
     0
 42
0.00000001
 43
0.00000001
 40
0.0
 40
0.0
 40
0.0
 40
0.0
 40
0.5
 40
0.5
 40
1.0
 40
1.0
 40
1.0
 40
1.0
 10
127.6632128105258
 20
86.6902901861691
 30
0.0
 10
127.6632128105258
 20
86.53040291797544
 30
0.0
 10
127.60190315929
 20
86.36927566246084
 30
0.0
 10
127.3828035217549
 20
86.135176664106
 30
0.0
 10
127.2247553154414
 20
86.06364989051477
 30
0.0
 10
127.0632128105258
 20
86.06364989051478
 30
0.0
  0
SPLINE
  5
8F
330
1F
100
AcDbEntity
  8
0
  6
Continuous
 62
     7
370
    15
100
AcDbSpline
210
0.0
220
0.0
230
1.0
 70
    24
 71
     3
 72
    12
 73
     8
 74
     0
 42
0.00000001
 43
0.00000001
 40
0.0
 40
0.0
 40
0.0
 40
0.0
 40
0.2500000000000033
 40
0.2500000000000033
 40
0.5000000000000067
 40
0.5000000000000067
 40
1.0
 40
1.0
 40
1.0
 40
1.0
 10
127.0632128105258
 20
136.1005675867619
 30
0.0
 10
127.1534518782129
 20
136.1005675867619
 30
0.0
 10
127.2443499923193
 20
136.1005675867619
 30
0.0
 10
127.3989470288079
 20
136.1005675867619
 30
0.0
 10
127.463925444916
 20
136.1005675867619
 30
0.0
 10
127.6157604728522
 20
136.1005675867619
 30
0.0
 10
127.6632128105258
 20
136.1005675867619
 30
0.0
 10
127.6632128105258
 20
136.1005675867619
 30
0.0
  0
LINE
  5
90
330
1F
100
AcDbEntity
  8
0
  6
Continuous
 62
     7
370
    15
100
AcDbLine
 10
101.7132128105
 20
85.0505684331
 30
0.0
 11
101.7132128105
 21
147.4505667404
 31
0.0
  0
LINE
  5
91
330
1F
100
AcDbEntity
  8
0
  6
Continuous
 62
     7
370
    15
100
AcDbLine
 10
106.6632127837
 20
136.1005683259
 30
0.0
 11
116.3212802709
 21
136.1005683259
 31
0.0
  0
LINE
  5
92
330
1F
100
AcDbEntity
  8
0
  6
Continuous
 62
     7
370
    15
100
AcDbLine
 10
116.3212802709
 20
86.0636499539
 30
0.0
 11
116.3212802709
 21
136.1005683259
 31
0.0
  0
LINE
  5
93
330
1F
100
AcDbEntity
  8
0
  6
Continuous
 62
     7
370
    15
100
AcDbLine
 10
116.3212802709
 20
86.0636499539
 30
0.0
 11
114.6632131637
 21
86.0636499539
 31
0.0
  0
SPLINE
  5
94
330
1F
100
AcDbEntity
  8
0
  6
Continuous
 62
     7
370
    15
100
AcDbSpline
210
0.0
220
0.0
230
1.0
 70
     8
 71
     3
 72
    28
 73
    24
 74
     0
 42
0.00000001
 43
0.00000001
 40
0.0
 40
0.0
 40
0.0
 40
0.0
 40
0.1249999999999999
 40
0.1249999999999999
 40
0.1874999999999998
 40
0.1874999999999998
 40
0.2499999999999997
 40
0.2499999999999997
 40
0.3749999999999993
 40
0.3749999999999993
 40
0.4374999999999993
 40
0.4374999999999993
 40
0.4999999999999992
 40
0.4999999999999992
 40
0.6249999999999992
 40
0.6249999999999992
 40
0.7499999999999992
 40
0.7499999999999992
 40
0.8124999999999993
 40
0.8124999999999993
 40
0.8749999999999996
 40
0.8749999999999996
 40
1.0
 40
1.0
 40
1.0
 40
1.0
 10
114.6632128105258
 20
86.06364989051478
 30
0.0
 10
114.1315050530329
 20
86.06364989051478
 30
0.0
 10
113.6092664877226
 20
86.04786517656456
 30
0.0
 10
112.8393960014475
 20
86.00286976248834
 30
0.0
 10
112.5850364292562
 20
85.98431476741263
 30
0.0
 10
112.0809148485577
 20
85.94046204496614
 30
0.0
 10
111.8311920311298
 20
85.91511743801394
 30
0.0
 10
111.1056020796834
 20
85.83171536026383
 30
0.0
 10
110.6472418181018
 20
85.76584980111274
 30
0.0
 10
109.996743874708
 20
85.65687946062096
 30
0.0
 10
109.7850618239155
 20
85.6186398248543
 30
0.0
 10
109.3809903347775
 20
85.54088108743495
 30
0.0
 10
109.1884838209566
 20
85.5013801252596
 30
0.0
 10
108.6386488499354
 20
85.3824723828936
 30
0.0
 10
108.3087200716265
 20
85.30265470146897
 30
0.0
 10
107.7242488030578
 20
85.14931153967292
 30
0.0
 10
107.4779716650444
 20
85.07797778640366
 30
0.0
 10
107.1781288723463
 20
84.98403427932905
 30
0.0
 10
107.0896720152742
 20
84.95484048596911
 30
0.0
 10
106.936310661969
 20
84.90137391170572
 30
0.0
 10
106.8712224477428
 20
84.87701457743051
 30
0.0
 10
106.715628431802
 20
84.81342443198578
 30
0.0
 10
106.6632128105258
 20
84.78332149689653
 30
0.0
 10
106.6632128105258
 20
84.7664446038996
 30
0.0
  0
LINE
  5
95
330
1F
100
AcDbEntity
  8
0
  6
Continuous
 62
     7
370
    15
100
AcDbLine
 10
106.6632127837
 20
84.7664442674
 30
0.0
 11
106.6632127837
 21
84.7505670801
 31
0.0
  0
SPLINE
  5
96
330
1F
100
AcDbEntity
  8
0
  6
Continuous
 62
     7
370
    15
100
AcDbSpline
210
0.0
220
0.0
230
1.0
 70
     8
 71
     3
 72
    17
 73
    13
 74
     0
 42
0.00000001
 43
0.00000001
 40
0.0
 40
0.0
 40
0.0
 40
0.0
 40
0.1034797280380778
 40
0.2100239090909901
 40
0.3134862262879433
 40
0.4198361712144981
 40
0.5254127947779869
 40
0.6339610881168427
 40
0.7409508662120068
 40
0.8511696072047016
 40
0.9558996557845765
 40
1.0
 40
1.0
 40
1.0
 40
1.0
 10
114.6632131636833
 20
146.7177630231204
 30
0.0
 10
114.2279646719575
 20
146.723211014758
 30
0.0
 10
113.3445782213804
 20
146.7342683350867
 30
0.0
 10
112.0637503591577
 20
146.8206270954617
 30
0.0
 10
110.8463341637158
 20
146.9484982385947
 30
0.0
 10
109.7385275473899
 20
147.1074426459132
 30
0.0
 10
108.7502890680611
 20
147.2819372188978
 30
0.0
 10
107.9255659682453
 20
147.4511036520847
 30
0.0
 10
107.2766123107466
 20
147.5989844605524
 30
0.0
 10
106.859577007267
 20
147.7007752120749
 30
0.0
 10
106.660980264389
 20
147.7511321117094
 30
0.0
 10
106.6842933813769
 20
147.7452225067339
 30
0.0
 10
106.6912013553774
 20
147.7434714153829
 30
0.0
  0
LINE
  5
97
330
1F
100
AcDbEntity
  8
0
  6
Continuous
 62
     7
370
    15
100
AcDbLine
 10
116.3212802709
 20
146.7177630231
 30
0.0
 11
114.6632131637
 21
146.7177630231
 31
0.0
  0
LINE
  5
98
330
1F
100
AcDbEntity
  8
0
  6
Continuous
 62
     7
370
    15
100
AcDbLine
 10
116.3212802709
 20
140.7092572019
 30
0.0
 11
116.3212802709
 21
146.7177630231
 31
0.0
  0
LINE
  5
99
330
1F
100
AcDbEntity
  8
0
  6
Continuous
 62
     7
370
    15
100
AcDbLine
 10
113.9088334963
 20
140.7092572019
 30
0.0
 11
116.3212802709
 21
140.7092572019
 31
0.0
  0
SPLINE
  5
9A
330
1F
100
AcDbEntity
  8
0
  6
Continuous
 62
     7
370
    15
100
AcDbSpline
210
0.0
220
0.0
230
1.0
 70
     8
 71
     3
 72
    20
 73
    16
 74
     0
 42
0.00000001
 43
0.00000001
 40
0.0
 40
0.0
 40
0.0
 40
0.0
 40
0.2499999999999995
 40
0.2499999999999995
 40
0.3749999999999996
 40
0.3749999999999996
 40
0.4999999999999997
 40
0.4999999999999997
 40
0.6249999999999998
 40
0.6249999999999998
 40
0.7499999999999998
 40
0.7499999999999998
 40
0.8749999999999999
 40
0.8749999999999999
 40
1.0
 40
1.0
 40
1.0
 40
1.0
 10
106.6632128105258
 20
136.1005675867619
 30
0.0
 10
106.9115865448139
 20
136.7544300150593
 30
0.0
 10
107.2311566371592
 20
137.3582157970565
 30
0.0
 10
107.8534628703638
 20
138.1850545332251
 30
0.0
 10
108.0848871307946
 20
138.447483171178
 30
0.0
 10
108.6061014704443
 20
138.944145825283
 30
0.0
 10
108.8927219530794
 20
139.1747327043045
 30
0.0
 10
109.512206694387
 20
139.5912869288871
 30
0.0
 10
109.846507073874
 20
139.7787847308547
 30
0.0
 10
110.5717675464987
 20
140.1101817084911
 30
0.0
 10
110.9536826038892
 20
140.2496856959863
 30
0.0
 10
111.7484707800609
 20
140.4751392034573
 30
0.0
 10
112.1626289742673
 20
140.5617653150009
 30
0.0
 10
113.0281753148487
 20
140.6797461038551
 30
0.0
 10
113.4660629298605
 20
140.7092572491294
 30
0.0
 10
113.9088331562151
 20
140.7092572491294
 30
0.0
  0
SPLINE
  5
9B
330
1F
100
AcDbEntity
  8
0
  6
Continuous
 62
     7
370
    15
100
AcDbSpline
210
0.0
220
0.0
230
1.0
 70
     8
 71
     3
 72
    70
 73
    66
 74
     0
 42
0.00000001
 43
0.00000001
 40
-0.0312500000000001
 40
-0.0312500000000001
 40
0.0
 40
0.0
 40
0.0312500000000001
 40
0.0312500000000001
 40
0.0625000000000002
 40
0.0625000000000002
 40
0.0937500000000003
 40
0.0937500000000003
 40
0.1250000000000004
 40
0.1250000000000004
 40
0.1562500000000005
 40
0.1562500000000005
 40
0.1875000000000006
 40
0.1875000000000006
 40
0.2187500000000007
 40
0.2187500000000007
 40
0.2500000000000008
 40
0.2500000000000008
 40
0.2812500000000007
 40
0.2812500000000007
 40
0.3125000000000006
 40
0.3125000000000006
 40
0.3437500000000006
 40
0.3437500000000006
 40
0.3750000000000005
 40
0.3750000000000005
 40
0.4062500000000004
 40
0.4062500000000004
 40
0.4375000000000003
 40
0.4375000000000003
 40
0.4687500000000003
 40
0.4687500000000003
 40
0.5000000000000002
 40
0.5000000000000002
 40
0.5312500000000001
 40
0.5312500000000001
 40
0.5625
 40
0.5625
 40
0.5937499999999999
 40
0.5937499999999999
 40
0.6249999999999997
 40
0.6249999999999997
 40
0.6562499999999996
 40
0.6562499999999996
 40
0.6874999999999994
 40
0.6874999999999994
 40
0.7187499999999993
 40
0.7187499999999993
 40
0.7499999999999992
 40
0.7499999999999992
 40
0.7812499999999993
 40
0.7812499999999993
 40
0.8124999999999994
 40
0.8124999999999994
 40
0.8437499999999996
 40
0.8437499999999996
 40
0.8749999999999996
 40
0.8749999999999996
 40
0.9062499999999997
 40
0.9062499999999997
 40
0.9374999999999998
 40
0.9374999999999998
 40
0.9687499999999999
 40
0.9687499999999999
 40
1.0
 40
1.0
 40
1.03125
 40
1.03125
 10
109.977758149186
 20
141.3095309815411
 30
0.0
 10
109.4486674718657
 20
141.3095309815411
 30
0.0
 10
109.1885968044886
 20
141.3254314219559
 30
0.0
 10
108.6770221246532
 20
141.3873757721302
 30
0.0
 10
108.422846840913
 20
141.4341780062215
 30
0.0
 10
107.9385762108513
 20
141.5551549896765
 30
0.0
 10
107.7089351189701
 20
141.6287573174834
 30
0.0
 10
107.2743307707366
 20
141.8005815884615
 30
0.0
 10
107.06876499409
 20
141.8995850113889
 30
0.0
 10
106.7002078534948
 20
142.1126814253018
 30
0.0
 10
106.5347268707593
 20
142.2275811414314
 30
0.0
 10
106.2423023613242
 20
142.4729480401217
 30
0.0
 10
106.1182013846977
 20
142.601387940592
 30
0.0
 10
105.9186221879479
 20
142.8622800886779
 30
0.0
 10
105.8416886020897
 20
142.9966612600174
 30
0.0
 10
105.7388315435693
 20
143.2659812111237
 30
0.0
 10
105.7133586341102
 20
143.3986624753418
 30
0.0
 10
105.7130682235424
 20
143.6598489494729
 30
0.0
 10
105.7390928573182
 20
143.7896139876376
 30
0.0
 10
105.8412411418101
 20
144.0351966219102
 30
0.0
 10
105.9168175893933
 20
144.1518581592191
 30
0.0
 10
106.1173151205383
 20
144.3737633493737
 30
0.0
 10
106.2424439620466
 20
144.4783746032967
 30
0.0
 10
106.5318027630682
 20
144.6684210149048
 30
0.0
 10
106.6972137501237
 20
144.7551806863544
 30
0.0
 10
107.0702043082715
 20
144.912685062106
 30
0.0
 10
107.2719373413606
 20
144.9810103268932
 30
0.0
 10
107.7047965921885
 20
145.0992400505124
 30
0.0
 10
107.9387151250778
 20
145.1495349666162
 30
0.0
 10
108.4228988602205
 20
145.2294005035059
 30
0.0
 10
108.672214486176
 20
145.2591416313055
 30
0.0
 10
109.1852470106037
 20
145.2992943728137
 30
0.0
 10
109.4505408335083
 20
145.3094926422236
 30
0.0
 10
109.9728754533781
 20
145.3095691006083
 30
0.0
 10
110.2326291158598
 20
145.2997780889992
 30
0.0
 10
110.7492409315051
 20
145.2597112502605
 30
0.0
 10
111.0016069720053
 20
145.2296140834037
 30
0.0
 10
111.4831320935382
 20
145.1503918735735
 30
0.0
 10
111.7159828256517
 20
145.1006343941101
 30
0.0
 10
112.1530726740905
 20
144.9815424516597
 30
0.0
 10
112.3543936627477
 20
144.9132271901124
 30
0.0
 10
112.7234796880476
 20
144.7578262231789
 30
0.0
 10
112.8924644390993
 20
144.6696738811119
 30
0.0
 10
113.1829204957585
 20
144.4792344919956
 30
0.0
 10
113.3059923071206
 20
144.3766099142966
 30
0.0
 10
113.5073285485426
 20
144.1549695676884
 30
0.0
 10
113.5845410944849
 20
144.0362154921409
 30
0.0
 10
113.6867446373849
 20
143.7915495532233
 30
0.0
 10
113.7129729888373
 20
143.6643928277747
 30
0.0
 10
113.7134493881544
 20
143.3999446819192
 30
0.0
 10
113.6877069756564
 20
143.267044001662
 30
0.0
 10
113.5863961992925
 20
143.0002517281799
 30
0.0
 10
113.5095635599016
 20
142.8648878267114
 30
0.0
 10
113.3091597206864
 20
142.6023080314088
 30
0.0
 10
113.1864882223944
 20
142.4753328716551
 30
0.0
 10
112.8965409332301
 20
142.2312534855726
 30
0.0
 10
112.7279699538649
 20
142.1138283608188
 30
0.0
 10
112.3597003597517
 20
141.9006318998703
 30
0.0
 10
112.1586385024814
 20
141.8034577814454
 30
0.0
 10
111.7216075838965
 20
141.6301028942313
 30
0.0
 10
111.4894593707669
 20
141.5557033425746
 30
0.0
 10
111.008449089268
 20
141.4352504630699
 30
0.0
 10
110.7563490064376
 20
141.3883920878039
 30
0.0
 10
110.2392795201786
 20
141.3254345908202
 30
0.0
 10
109.977758149186
 20
141.3095309815411
 30
0.0
 10
109.4486674718657
 20
141.3095309815411
 30
0.0
  0
SPLINE
  5
9C
330
1F
100
AcDbEntity
  8
0
  6
Continuous
 62
     7
370
    15
100
AcDbSpline
210
0.0
220
0.0
230
1.0
 70
     8
 71
     3
 72
    70
 73
    66
 74
     0
 42
0.00000001
 43
0.00000001
 40
-0.0312500000000001
 40
-0.0312500000000001
 40
0.0
 40
0.0
 40
0.0312499999999999
 40
0.0312499999999999
 40
0.0624999999999998
 40
0.0624999999999998
 40
0.0937499999999997
 40
0.0937499999999997
 40
0.1249999999999996
 40
0.1249999999999996
 40
0.1562499999999994
 40
0.1562499999999994
 40
0.1874999999999993
 40
0.1874999999999993
 40
0.2187499999999992
 40
0.2187499999999992
 40
0.2499999999999991
 40
0.2499999999999991
 40
0.281249999999999
 40
0.281249999999999
 40
0.3124999999999989
 40
0.3124999999999989
 40
0.3437499999999988
 40
0.3437499999999988
 40
0.3749999999999987
 40
0.3749999999999987
 40
0.4062499999999986
 40
0.4062499999999986
 40
0.4374999999999984
 40
0.4374999999999984
 40
0.4687499999999983
 40
0.4687499999999983
 40
0.4999999999999982
 40
0.4999999999999982
 40
0.5312499999999983
 40
0.5312499999999983
 40
0.5624999999999984
 40
0.5624999999999984
 40
0.5937499999999986
 40
0.5937499999999986
 40
0.6249999999999987
 40
0.6249999999999987
 40
0.6562499999999988
 40
0.6562499999999988
 40
0.6874999999999989
 40
0.6874999999999989
 40
0.718749999999999
 40
0.718749999999999
 40
0.7499999999999991
 40
0.7499999999999991
 40
0.7812499999999992
 40
0.7812499999999992
 40
0.8124999999999993
 40
0.8124999999999993
 40
0.8437499999999994
 40
0.8437499999999994
 40
0.8749999999999996
 40
0.8749999999999996
 40
0.9062499999999997
 40
0.9062499999999997
 40
0.9374999999999998
 40
0.9374999999999998
 40
0.9687499999999999
 40
0.9687499999999999
 40
1.0
 40
1.0
 40
1.03125
 40
1.03125
 10
109.977758149186
 20
126.8714744727453
 30
0.0
 10
109.4486674718657
 20
126.8714744727453
 30
0.0
 10
109.1885968044886
 20
126.8961517675305
 30
0.0
 10
108.6770221246532
 20
126.9926234405724
 30
0.0
 10
108.422846840913
 20
127.0656043565524
 30
0.0
 10
107.9385762108513
 20
127.2553449594911
 30
0.0
 10
107.7089351189701
 20
127.3712056178848
 30
0.0
 10
107.2743307707366
 20
127.6438234638425
 30
0.0
 10
107.06876499409
 20
127.8018625458963
 30
0.0
 10
106.7002078534948
 20
128.1454053968669
 30
0.0
 10
106.5347268707593
 20
128.3321678409686
 30
0.0
 10
106.2423023613242
 20
128.7357110153654
 30
0.0
 10
106.1182013846977
 20
128.9492080117946
 30
0.0
 10
105.9186221879479
 20
129.3885913257171
 30
0.0
 10
105.8416886020897
 20
129.6177313128627
 30
0.0
 10
105.7388315435693
 20
130.0837054356227
 30
0.0
 10
105.7133586341102
 20
130.3165878812989
 30
0.0
 10
105.7130682235424
 20
130.7819854163787
 30
0.0
 10
105.7390928573182
 20
131.016861173773
 30
0.0
 10
105.8412411418101
 20
131.4683543210193
 30
0.0
 10
105.9168175893933
 20
131.6864007964307
 30
0.0
 10
106.1173151205383
 20
132.1074953214685
 30
0.0
 10
106.2424439620466
 20
132.3094167059868
 30
0.0
 10
106.5318027630682
 20
132.6814461885057
 30
0.0
 10
106.6972137501237
 20
132.8540744920861
 30
0.0
 10
107.0702043082715
 20
133.1713924966321
 30
0.0
 10
107.2719373413606
 20
133.3111794301337
 30
0.0
 10
107.7047965921885
 20
133.5553556836855
 30
0.0
 10
107.9387151250778
 20
133.660585194727
 30
0.0
 10
108.4228988602205
 20
133.8287423411021
 30
0.0
 10
108.672214486176
 20
133.891993231696
 30
0.0
 10
109.1852470106037
 20
133.9775724407986
 30
0.0
 10
109.4505408335084
 20
133.999444605721
 30
0.0
 10
109.9728754533781
 20
133.9996082553649
 30
0.0
 10
110.2326291158598
 20
133.9786065632689
 30
0.0
 10
110.7492409315051
 20
133.8932042081913
 30
0.0
 10
111.0016069720053
 20
133.8291980249043
 30
0.0
 10
111.4831320935382
 20
133.6623835048632
 30
0.0
 10
111.7159828256517
 20
133.558250341464
 30
0.0
 10
112.1530726740905
 20
133.312263688969
 30
0.0
 10
112.3543936627477
 20
133.1725138580202
 30
0.0
 10
112.7234796880476
 20
132.8593757882956
 30
0.0
 10
112.8924644390993
 20
132.6839196290255
 30
0.0
 10
113.1829204957585
 20
132.3110793649253
 30
0.0
 10
113.3059923071206
 20
132.1129575548143
 30
0.0
 10
113.5073285485426
 20
131.6922462120806
 30
0.0
 10
113.5845410944849
 20
131.4702561914131
 30
0.0
 10
113.6867446373849
 20
131.0203912517048
 30
0.0
 10
113.7129729888373
 20
130.790135838588
 30
0.0
 10
113.7134493881544
 20
130.3188198960389
 30
0.0
 10
113.6877069756564
 20
130.0855824803248
 30
0.0
 10
113.5863961992925
 20
129.6239059408267
 30
0.0
 10
113.5095635599016
 20
129.3930085537146
 30
0.0
 10
113.3091597206864
 20
128.9507325399229
 30
0.0
 10
113.1864882223944
 20
128.739670108637
 30
0.0
 10
112.8965409332301
 20
128.3381715979043
 30
0.0
 10
112.7279699538649
 20
128.1472650758284
 30
0.0
 10
112.3597003597517
 20
127.8035397438314
 30
0.0
 10
112.1586385024814
 20
127.6484025576172
 30
0.0
 10
111.7216075838965
 20
127.3733251975375
 30
0.0
 10
111.4894593707669
 20
127.2562089681155
 30
0.0
 10
111.008449089268
 20
127.067282483051
 30
0.0
 10
110.7563490064376
 20
126.9942075126567
 30
0.0
 10
110.2392795201786
 20
126.8961554535222
 30
0.0
 10
109.977758149186
 20
126.8714744727453
 30
0.0
 10
109.4486674718657
 20
126.8714744727453
 30
0.0
  0
LINE
  5
9D
330
1F
100
AcDbEntity
  8
0
  6
Continuous
 62
     7
370
    15
100
AcDbLine
 10
123.1051447318
 20
86.0636499539
 30
0.0
 11
123.1051447318
 21
136.1005683259
 31
0.0
  0
SPLINE
  5
9E
330
1F
100
AcDbEntity
  8
0
  6
Continuous
 62
     7
370
    15
100
AcDbSpline
210
0.0
220
0.0
230
1.0
 70
     8
 71
     3
 72
     8
 73
     4
 74
     0
 42
0.00000001
 43
0.00000001
 40
0.0
 40
0.0
 40
0.0
 40
0.0
 40
1.0
 40
1.0
 40
1.0
 40
1.0
 10
123.1051456420149
 20
86.06364989051478
 30
0.0
 10
122.6096659813491
 20
86.95917597844813
 30
0.0
 10
122.115551933307
 20
87.85546039350038
 30
0.0
 10
121.6232128105258
 20
88.75273042770708
 30
0.0
  0
LINE
  5
9F
330
1F
100
AcDbEntity
  8
0
  6
Continuous
 62
     7
370
    15
100
AcDbLine
 10
121.6232130752
 20
88.7527302668
 30
0.0
 11
121.6232130752
 21
136.1005683259
 31
0.0
  0
SPLINE
  5
A0
330
1F
100
AcDbEntity
  8
0
  6
Continuous
 62
     7
370
    15
100
AcDbSpline
210
0.0
220
0.0
230
1.0
 70
    24
 71
     3
 72
     8
 73
     4
 74
     0
 42
0.00000001
 43
0.00000001
 40
0.0
 40
0.0
 40
0.0
 40
0.0
 40
1.0
 40
1.0
 40
1.0
 40
1.0
 10
121.6232128105258
 20
136.1005675867619
 30
0.0
 10
122.1031648048907
 20
136.1005675867619
 30
0.0
 10
122.5984655338644
 20
136.1005675867619
 30
0.0
 10
123.1051456420149
 20
136.1005675867619
 30
0.0
  0
LINE
  5
A1
330
1F
100
AcDbEntity
  8
0
  6
Continuous
 62
     7
370
    15
100
AcDbLine
 10
117.8032128588
 20
88.7527302668
 30
0.0
 11
117.8032128588
 21
136.1005683259
 31
0.0
  0
SPLINE
  5
A2
330
1F
100
AcDbEntity
  8
0
  6
Continuous
 62
     7
370
    15
100
AcDbSpline
210
0.0
220
0.0
230
1.0
 70
     8
 71
     3
 72
     8
 73
     4
 74
     0
 42
0.00000001
 43
0.00000001
 40
0.0
 40
0.0
 40
0.0
 40
0.0
 40
1.0
 40
1.0
 40
1.0
 40
1.0
 10
117.8032128105258
 20
88.75273042770706
 30
0.0
 10
117.3108736877446
 20
87.85546039350037
 30
0.0
 10
116.8167596397025
 20
86.95917597844813
 30
0.0
 10
116.3212799790368
 20
86.06364989051477
 30
0.0
  0
SPLINE
  5
A3
330
1F
100
AcDbEntity
  8
0
  6
Continuous
 62
     7
370
    15
100
AcDbSpline
210
0.0
220
0.0
230
1.0
 70
    24
 71
     3
 72
     8
 73
     4
 74
     0
 42
0.00000001
 43
0.00000001
 40
0.0
 40
0.0
 40
0.0
 40
0.0
 40
1.0
 40
1.0
 40
1.0
 40
1.0
 10
116.3212799790368
 20
136.1005675867619
 30
0.0
 10
116.8279600871873
 20
136.1005675867619
 30
0.0
 10
117.3232608161609
 20
136.1005675867619
 30
0.0
 10
117.8032128105258
 20
136.1005675867619
 30
0.0
  0
LINE
  5
A4
330
1F
100
AcDbEntity
  8
0
  6
Continuous
 62
     7
370
    15
100
AcDbLine
 10
127.0632135198
 20
86.0636499539
 30
0.0
 11
123.1051447318
 21
86.0636499539
 31
0.0
  0
LINE
  5
A5
330
1F
100
AcDbEntity
  8
0
  6
Continuous
 62
     7
370
    15
100
AcDbLine
 10
123.1051447318
 20
136.1005683259
 30
0.0
 11
127.0632135198
 21
136.1005683259
 31
0.0
  0
LINE
  5
A6
330
1F
100
AcDbEntity
  8
0
  6
Continuous
 62
     7
370
    15
100
AcDbLine
 10
220.5132121668
 20
103.7255679086
 30
0.0
 11
220.5132121668
 21
86.2505682573
 31
0.0
  0
LINE
  5
A7
330
1F
100
AcDbEntity
  8
0
  6
Continuous
 62
     7
370
    15
100
AcDbLine
 10
220.5132121668
 20
146.2505669162
 30
0.0
 11
220.5132121668
 21
128.7755672649
 31
0.0
  0
LINE
  5
A8
330
1F
100
AcDbEntity
  8
0
  6
Continuous
 62
     7
370
    15
100
AcDbLine
 10
220.5132121668
 20
128.7755672649
 30
0.0
 11
220.2632153854
 21
128.7755672649
 31
0.0
  0
LINE
  5
A9
330
1F
100
AcDbEntity
  8
0
  6
Continuous
 62
     7
370
    15
100
AcDbLine
 10
220.2632153854
 20
103.7255679086
 30
0.0
 11
220.5132121668
 21
103.7255679086
 31
0.0
  0
ARC
  5
AA
330
1F
100
AcDbEntity
  8
0
  6
Continuous
 62
     7
370
    15
100
AcDbCircle
 10
109.7103514328
 20
128.1611803512
 30
0.0
 40
4.110793060673539
100
AcDbArc
 50
19.1727787623
 51
159.4979364143
  0
SPLINE
  5
AB
330
1F
100
AcDbEntity
  8
0
  6
Continuous
 62
     7
370
    15
100
AcDbSpline
210
0.0
220
0.0
230
1.0
 70
    24
 71
     3
 72
    14
 73
    10
 74
     0
 42
0.00000001
 43
0.00000001
 40
0.0
 40
0.0
 40
0.0
 40
0.0
 40
0.4999999999999984
 40
0.4999999999999984
 40
0.7499999999999992
 40
0.7499999999999992
 40
0.8749999999999996
 40
0.8749999999999996
 40
1.0
 40
1.0
 40
1.0
 40
1.0
 10
121.5255380081935
 20
89.85056758676194
 30
0.0
 10
121.4787533031453
 20
89.85056758676194
 30
0.0
 10
121.4167021063657
 20
89.85056758676194
 30
0.0
 10
121.2733104678151
 20
89.85056758676194
 30
0.0
 10
121.2171668142639
 20
89.85056758676194
 30
0.0
 10
121.1042157921277
 20
89.85056758676194
 30
0.0
 10
121.0612150300896
 20
89.85056758676194
 30
0.0
 10
120.9571523197831
 20
89.85056758676194
 30
0.0
 10
120.8918200814262
 20
89.85056758676195
 30
0.0
 10
120.8232128105258
 20
89.85056758676194
 30
0.0
  0
SPLINE
  5
AC
330
1F
100
AcDbEntity
  8
0
  6
Continuous
 62
     7
370
    15
100
AcDbSpline
210
0.0
220
0.0
230
1.0
 70
    24
 71
     3
 72
    12
 73
     8
 74
     0
 42
0.00000001
 43
0.00000001
 40
0.0
 40
0.0
 40
0.0
 40
0.0
 40
0.5000000000000074
 40
0.5000000000000074
 40
0.7500000000000037
 40
0.7500000000000037
 40
1.0
 40
1.0
 40
1.0
 40
1.0
 10
121.2289152788348
 20
142.6505675867619
 30
0.0
 10
121.1858297292239
 20
142.6505675867619
 30
0.0
 10
121.1366775274746
 20
142.6505675867619
 30
0.0
 10
121.0402049331867
 20
142.6505675867619
 30
0.0
 10
121.0041033480521
 20
142.6505675867619
 30
0.0
 10
120.9209975901908
 20
142.6505675867619
 30
0.0
 10
120.8730009932246
 20
142.6505675867619
 30
0.0
 10
120.8232128105258
 20
142.6505675867619
 30
0.0
  0
SPLINE
  5
AD
330
1F
100
AcDbEntity
  8
0
  6
Continuous
 62
     7
370
    15
100
AcDbSpline
210
0.0
220
0.0
230
1.0
 70
     8
 71
     3
 72
    10
 73
     6
 74
     0
 42
0.00000001
 43
0.00000001
 40
0.0
 40
0.0
 40
0.0
 40
0.0
 40
0.5
 40
0.5
 40
1.0
 40
1.0
 40
1.0
 40
1.0
 10
121.6232128105258
 20
143.3702214377977
 30
0.0
 10
121.6232128105258
 20
143.2264513799797
 30
0.0
 10
121.5871637518069
 20
143.0840320174845
 30
0.0
 10
121.4516548910329
 20
142.8341377241273
 30
0.0
 10
121.3517788979367
 20
142.7261073878791
 30
0.0
 10
121.2289152788348
 20
142.6505675867619
 30
0.0
  0
SPLINE
  5
AE
330
1F
100
AcDbEntity
  8
0
  6
Continuous
 62
     7
370
    15
100
AcDbSpline
210
0.0
220
0.0
230
1.0
 70
     8
 71
     3
 72
    10
 73
     6
 74
     0
 42
0.00000001
 43
0.00000001
 40
0.0
 40
0.0
 40
0.0
 40
0.0
 40
0.5
 40
0.5
 40
1.0
 40
1.0
 40
1.0
 40
1.0
 10
121.5970651873657
 20
136.1005675867619
 30
0.0
 10
121.6057548302774
 20
136.1474464360801
 30
0.0
 10
121.6122938950278
 20
136.1948689014814
 30
0.0
 10
121.6210525294209
 20
136.2908057000681
 30
0.0
 10
121.6232128105258
 20
136.3387209880786
 30
0.0
 10
121.6232128105258
 20
136.3864342182231
 30
0.0
  0
SPLINE
  5
AF
330
1F
100
AcDbEntity
  8
0
  6
Continuous
 62
     7
370
    15
100
AcDbSpline
210
0.0
220
0.0
230
1.0
 70
     8
 71
     3
 72
    10
 73
     6
 74
     0
 42
0.00000001
 43
0.00000001
 40
0.0
 40
0.0
 40
0.0
 40
0.0
 40
0.5
 40
0.5
 40
1.0
 40
1.0
 40
1.0
 40
1.0
 10
118.1975103422168
 20
142.6505675867619
 30
0.0
 10
118.0759700785483
 20
142.7252937539737
 30
0.0
 10
117.9746357181993
 20
142.8342387698905
 30
0.0
 10
117.8389967753109
 20
143.0846692506521
 30
0.0
 10
117.8032128105258
 20
143.227088612751
 30
0.0
 10
117.8032128105258
 20
143.3702214377977
 30
0.0
  0
SPLINE
  5
B0
330
1F
100
AcDbEntity
  8
0
  6
Continuous
 62
     7
370
    15
100
AcDbSpline
210
0.0
220
0.0
230
1.0
 70
    24
 71
     3
 72
    12
 73
     8
 74
     0
 42
0.00000001
 43
0.00000001
 40
0.0
 40
0.0
 40
0.0
 40
0.0
 40
0.2499999999999971
 40
0.2499999999999971
 40
0.4999999999999942
 40
0.4999999999999942
 40
1.0
 40
1.0
 40
1.0
 40
1.0
 10
118.6032128105258
 20
142.6505675867619
 30
0.0
 10
118.5533361282084
 20
142.650567586762
 30
0.0
 10
118.5053329348048
 20
142.650567586762
 30
0.0
 10
118.4222848320928
 20
142.650567586762
 30
0.0
 10
118.386155252625
 20
142.6505675867619
 30
0.0
 10
118.2902432216807
 20
142.6505675867619
 30
0.0
 10
118.240484553712
 20
142.6505675867619
 30
0.0
 10
118.1975103422168
 20
142.6505675867619
 30
0.0
  0
SPLINE
  5
B1
330
1F
100
AcDbEntity
  8
0
  6
Continuous
 62
     7
370
    15
100
AcDbSpline
210
0.0
220
0.0
230
1.0
 70
    24
 71
     3
 72
    14
 73
    10
 74
     0
 42
0.00000001
 43
0.00000001
 40
0.0
 40
0.0
 40
0.0
 40
0.0
 40
0.1250000000000017
 40
0.1250000000000017
 40
0.2500000000000034
 40
0.2500000000000034
 40
0.5000000000000032
 40
0.5000000000000032
 40
1.0
 40
1.0
 40
1.0
 40
1.0
 10
118.6032128105258
 20
89.85056758676194
 30
0.0
 10
118.5347749626394
 20
89.85056758676194
 30
0.0
 10
118.4692249238743
 20
89.85056758676194
 30
0.0
 10
118.3647982844664
 20
89.85056758676194
 30
0.0
 10
118.322253674705
 20
89.85056758676194
 30
0.0
 10
118.2096442141647
 20
89.85056758676194
 30
0.0
 10
118.1541051671452
 20
89.85056758676194
 30
0.0
 10
118.0114934716814
 20
89.85056758676194
 30
0.0
 10
117.9480881166856
 20
89.85056758676194
 30
0.0
 10
117.9008876128581
 20
89.85056758676194
 30
0.0
  0
SPLINE
  5
B2
330
1F
100
AcDbEntity
  8
0
  6
Continuous
 62
     7
370
    15
100
AcDbSpline
210
0.0
220
0.0
230
1.0
 70
     8
 71
     3
 72
    10
 73
     6
 74
     0
 42
0.00000001
 43
0.00000001
 40
0.0
 40
0.0
 40
0.0
 40
0.0
 40
0.5
 40
0.5
 40
1.0
 40
1.0
 40
1.0
 40
1.0
 10
117.8032128105258
 20
136.3864342182233
 30
0.0
 10
117.8032128105258
 20
136.33866271023
 30
0.0
 10
117.805374054123
 20
136.2909529881684
 30
0.0
 10
117.8140454279831
 20
136.1956578706201
 30
0.0
 10
117.8205746109391
 20
136.1479653066534
 30
0.0
 10
117.829360433686
 20
136.1005675867619
 30
0.0
  0
LINE
  5
B3
330
1F
100
AcDbEntity
  8
0
  6
Continuous
 62
     7
370
    15
100
AcDbLine
 10
120.8232125715
 20
142.6505674437
 30
0.0
 11
118.6032133625
 21
142.6505674437
 31
0.0
  0
LINE
  5
B4
330
1F
100
AcDbEntity
  8
0
  6
Continuous
 62
     7
370
    15
100
AcDbLine
 10
120.8232125715
 20
89.8505677298
 30
0.0
 11
118.6032133625
 21
89.8505677298
 31
0.0
  0
LINE
  5
B5
330
1F
100
AcDbEntity
  8
0
  6
Continuous
 62
     7
370
    15
100
AcDbLine
 10
221.7132101283
 20
102.5255671531
 30
0.0
 11
221.7132101283
 21
87.4505680815
 31
0.0
  0
SPLINE
  5
B6
330
1F
100
AcDbEntity
  8
0
  6
Continuous
 62
     7
370
    15
100
AcDbSpline
210
0.0
220
0.0
230
1.0
 70
    24
 71
     3
 72
     8
 73
     4
 74
     0
 42
0.00000001
 43
0.00000001
 40
0.0
 40
0.0
 40
0.0
 40
0.0
 40
1.0
 40
1.0
 40
1.0
 40
1.0
 10
220.5132128105258
 20
103.725567586762
 30
0.0
 10
220.9214503254593
 20
103.3173300718285
 30
0.0
 10
221.3217181006617
 20
102.9170622966261
 30
0.0
 10
221.7132128105258
 20
102.525567586762
 30
0.0
  0
LINE
  5
B7
330
1F
100
AcDbEntity
  8
0
  6
Continuous
 62
     7
370
    15
100
AcDbLine
 10
221.7132101283
 20
145.050567092
 30
0.0
 11
221.7132101283
 21
129.9755680204
 31
0.0
  0
SPLINE
  5
B8
330
1F
100
AcDbEntity
  8
0
  6
Continuous
 62
     7
370
    15
100
AcDbSpline
210
0.0
220
0.0
230
1.0
 70
    24
 71
     3
 72
     8
 73
     4
 74
     0
 42
0.00000001
 43
0.00000001
 40
0.0
 40
0.0
 40
0.0
 40
0.0
 40
1.0
 40
1.0
 40
1.0
 40
1.0
 10
221.7132128105258
 20
129.975567586762
 30
0.0
 10
221.3217181006617
 20
129.5840728768979
 30
0.0
 10
220.9214503254593
 20
129.1838051016954
 30
0.0
 10
220.5132128105258
 20
128.775567586762
 30
0.0
  0
LINE
  5
B9
330
1F
100
AcDbEntity
  8
0
  6
Continuous
 62
     7
370
    15
100
AcDbLine
 10
79.91321259
 20
93.0221215651
 30
0.0
 11
79.91321259
 21
94.2868296817
 31
0.0
  0
SPLINE
  5
BA
330
1F
100
AcDbEntity
  8
0
  6
Continuous
 62
     7
370
    15
100
AcDbSpline
210
0.0
220
0.0
230
1.0
 70
     8
 71
     3
 72
    14
 73
    10
 74
     0
 42
0.00000001
 43
0.00000001
 40
0.0
 40
0.0
 40
0.0
 40
0.0
 40
0.25
 40
0.25
 40
0.5
 40
0.5
 40
0.75
 40
0.75
 40
1.0
 40
1.0
 40
1.0
 40
1.0
 10
79.1349256926101
 20
95.417416263202
 30
0.0
 10
79.19155236781218
 20
95.30971880936514
 30
0.0
 10
79.2860750281019
 20
95.20692922764582
 30
0.0
 10
79.46912000366414
 20
95.00857191542565
 30
0.0
 10
79.56074658061887
 20
94.91251240674741
 30
0.0
 10
79.71959989831207
 20
94.72498336403815
 30
0.0
 10
79.78749050593376
 20
94.63357439125461
 30
0.0
 10
79.88440753164134
 20
94.45519817034446
 30
0.0
 10
79.9132128105264
 20
94.36797626409827
 30
0.0
 10
79.91321281052639
 20
94.28683005556402
 30
0.0
  0
SPLINE
  5
BB
330
1F
100
AcDbEntity
  8
0
  6
Continuous
 62
     7
370
    15
100
AcDbSpline
210
0.0
220
0.0
230
1.0
 70
     8
 71
     3
 72
    14
 73
    10
 74
     0
 42
0.00000001
 43
0.00000001
 40
0.0
 40
0.0
 40
0.0
 40
0.0
 40
0.125
 40
0.125
 40
0.25
 40
0.25
 40
0.5
 40
0.5
 40
1.0
 40
1.0
 40
1.0
 40
1.0
 10
78.51321281052583
 20
95.8640981254813
 30
0.0
 10
78.561757219183
 20
95.8698464387616
 30
0.0
 10
78.6146725739679
 20
95.86674555010535
 30
0.0
 10
78.70996791895094
 20
95.84455070594302
 30
0.0
 10
78.7502189162359
 20
95.82731847884718
 30
0.0
 10
78.85448892974885
 20
95.7709905623951
 30
0.0
 10
78.90481090490219
 20
95.7268042164493
 30
0.0
 10
79.03249385242755
 20
95.59579631759868
 30
0.0
 10
79.08857929948982
 20
95.5055617973684
 30
0.0
 10
79.13492569261157
 20
95.41741626320253
 30
0.0
  0
SPLINE
  5
BC
330
1F
100
AcDbEntity
  8
0
  6
Continuous
 62
     7
370
    15
100
AcDbSpline
210
0.0
220
0.0
230
1.0
 70
     8
 71
     3
 72
     8
 73
     4
 74
     0
 42
0.00000001
 43
0.00000001
 40
0.0
 40
0.0
 40
0.0
 40
0.0
 40
1.0
 40
1.0
 40
1.0
 40
1.0
 10
76.24468771757955
 20
95.5542528388985
 30
0.0
 10
76.97926474406252
 20
95.67287784996748
 30
0.0
 10
77.7427398134582
 20
95.77286372210375
 30
0.0
 10
78.51321281052583
 20
95.8640981254813
 30
0.0
  0
SPLINE
  5
BD
330
1F
100
AcDbEntity
  8
0
  6
Continuous
 62
     7
370
    15
100
AcDbSpline
210
0.0
220
0.0
230
1.0
 70
     8
 71
     3
 72
    14
 73
    10
 74
     0
 42
0.00000001
 43
0.00000001
 40
0.0
 40
0.0
 40
0.0
 40
0.0
 40
0.5000000000000002
 40
0.5000000000000002
 40
0.7500000000000002
 40
0.7500000000000002
 40
0.8750000000000001
 40
0.8750000000000001
 40
1.0
 40
1.0
 40
1.0
 40
1.0
 10
70.96321281052583
 20
95.38062982136685
 30
0.0
 10
71.85535894107939
 20
95.37990759516622
 30
0.0
 10
72.74533537687297
 20
95.38449380162369
 30
0.0
 10
74.07193054394855
 20
95.41221880601522
 30
0.0
 10
74.5127774724473
 20
95.42482534363938
 30
0.0
 10
75.16921770986971
 20
95.45584149164684
 30
0.0
 10
75.38723136646159
 20
95.46818466427362
 30
0.0
 10
75.81994022014435
 20
95.50120871943687
 30
0.0
 10
76.03521668530917
 20
95.52042588457532
 30
0.0
 10
76.24468771757955
 20
95.5542528388985
 30
0.0
  0
SPLINE
  5
BE
330
1F
100
AcDbEntity
  8
0
  6
Continuous
 62
     7
370
    15
100
AcDbSpline
210
0.0
220
0.0
230
1.0
 70
     8
 71
     3
 72
     8
 73
     4
 74
     0
 42
0.00000001
 43
0.00000001
 40
0.0000005163856998
 40
0.0000005163856998
 40
0.0000005163856998
 40
0.0000005163856998
 40
0.000026289209185
 40
0.000026289209185
 40
0.000026289209185
 40
0.000026289209185
 10
70.95316788011822
 20
95.39061369446364
 30
0.0
 10
70.95649561832603
 20
95.38727944759454
 30
0.0
 10
70.95984407130165
 20
95.3839514903192
 30
0.0
 10
70.9632128105258
 20
95.38062982136685
 30
0.0
  0
SPLINE
  5
BF
330
1F
100
AcDbEntity
  8
0
  6
Continuous
 62
     7
370
    15
100
AcDbSpline
210
0.0
220
0.0
230
1.0
 70
     8
 71
     3
 72
     8
 73
     4
 74
     0
 42
0.00000001
 43
0.00000001
 40
0.0000005099763573
 40
0.0000005099763573
 40
0.0000005099763573
 40
0.0000005099763573
 40
0.0000262827998699
 40
0.0000262827998699
 40
0.0000262827998699
 40
0.0000262827998699
 10
70.96321281052582
 20
137.120505352157
 30
0.0
 10
70.95984407129806
 20
137.1171836832011
 30
0.0
 10
70.95649561831893
 20
137.1138557259222
 30
0.0
 10
70.95316788010759
 20
137.1105214790496
 30
0.0
  0
SPLINE
  5
C0
330
1F
100
AcDbEntity
  8
0
  6
Continuous
 62
     7
370
    15
100
AcDbSpline
210
0.0
220
0.0
230
1.0
 70
     8
 71
     3
 72
    10
 73
     6
 74
     0
 42
0.00000001
 43
0.00000001
 40
0.0
 40
0.0
 40
0.0
 40
0.0
 40
0.5
 40
0.5
 40
1.0
 40
1.0
 40
1.0
 40
1.0
 10
74.51321281052584
 20
137.0736549785897
 30
0.0
 10
73.92562726343525
 20
137.0947204988261
 30
0.0
 10
73.33488086997485
 20
137.1054789846983
 30
0.0
 10
72.15086170467599
 20
137.118843765234
 30
0.0
 10
71.55744771647053
 20
137.1209864078986
 30
0.0
 10
70.96321281052583
 20
137.120505352157
 30
0.0
  0
SPLINE
  5
C1
330
1F
100
AcDbEntity
  8
0
  6
Continuous
 62
     7
370
    15
100
AcDbSpline
210
0.0
220
0.0
230
1.0
 70
     8
 71
     3
 72
    18
 73
    14
 74
     0
 42
0.00000001
 43
0.00000001
 40
0.0
 40
0.0
 40
0.0
 40
0.0
 40
0.2500000000000008
 40
0.2500000000000008
 40
0.5000000000000009
 40
0.5000000000000009
 40
0.7500000000000009
 40
0.7500000000000009
 40
0.875000000000001
 40
0.875000000000001
 40
0.9375000000000006
 40
0.9375000000000006
 40
1.0
 40
1.0
 40
1.0
 40
1.0
 10
75.91321281052583
 20
138.094675259125
 30
0.0
 10
75.91321281052585
 20
138.0114683502677
 30
0.0
 10
75.87736371058757
 20
137.9227316949542
 30
0.0
 10
75.75249197455365
 20
137.7406065043939
 30
0.0
 10
75.66209155690579
 20
137.6454764557673
 30
0.0
 10
75.4398489021636
 20
137.456294946643
 30
0.0
 10
75.31008411571783
 20
137.3613497785483
 30
0.0
 10
75.06944665840632
 20
137.2230710709683
 30
0.0
 10
74.9816793602689
 20
137.1773606376659
 30
0.0
 10
74.82715527306205
 20
137.1195373324445
 30
0.0
 10
74.7705443870073
 20
137.1018225684066
 30
0.0
 10
74.6465003561007
 20
137.0772832651737
 30
0.0
 10
74.57878568108242
 20
137.0713041266354
 30
0.0
 10
74.51321281052583
 20
137.0736549785897
 30
0.0
  0
LINE
  5
C2
330
1F
100
AcDbEntity
  8
0
  6
Continuous
 62
     7
370
    15
100
AcDbLine
 10
75.9132119343
 20
138.0946752444
 30
0.0
 11
75.9132119343
 21
139.2786134795
 31
0.0
  0
LINE
  5
C3
330
1F
100
AcDbEntity
  8
0
  6
Continuous
 62
     7
370
    15
100
AcDbLine
 10
99.7132127155
 20
92.0301363633
 30
0.0
 11
99.7132127155
 21
140.4709988103
 31
0.0
  0
SPLINE
  5
C4
330
1F
100
AcDbEntity
  8
0
  6
Continuous
 62
     7
370
    15
100
AcDbSpline
210
0.0
220
0.0
230
1.0
 70
     8
 71
     3
 72
    18
 73
    14
 74
     0
 42
0.00000001
 43
0.00000001
 40
0.0
 40
0.0
 40
0.0
 40
0.0
 40
0.001067142096085
 40
0.1270947925777493
 40
0.2524053537361832
 40
0.3766468838452861
 40
0.4391416358858051
 40
0.5008278334298175
 40
0.5624255844801763
 40
0.6253162510714301
 40
0.7499985254815132
 40
0.8752758926324193
 40
1.0
 40
1.0
 40
1.0
 40
1.0
 10
88.48351393646948
 20
92.59322889302396
 30
0.0
 10
88.48260186118675
 20
92.59311372513191
 30
0.0
 10
88.37397526000623
 20
92.57939742680217
 30
0.0
 10
88.76165673204898
 20
92.63038368818381
 30
0.0
 10
89.62760519215853
 20
92.72994072405831
 30
0.0
 10
90.82801298588133
 20
92.7990713536774
 30
0.0
 10
91.88558853573907
 20
92.80302205394413
 30
0.0
 10
92.71272289986231
 20
92.77553518601987
 30
0.0
 10
93.53799453591016
 20
92.71699269720757
 30
0.0
 10
94.59235974301895
 20
92.60347409524786
 30
0.0
 10
95.75419594927237
 20
92.42031993941433
 30
0.0
 10
96.70643066994552
 20
92.2157197907482
 30
0.0
 10
96.83213577265415
 20
92.18643312073908
 30
0.0
 10
96.89484922967307
 20
92.1718221918168
 30
0.0
  0
SPLINE
  5
C5
330
1F
100
AcDbEntity
  8
0
  6
Continuous
 62
     7
370
    15
100
AcDbSpline
210
0.0
220
0.0
230
1.0
 70
     8
 71
     3
 72
    18
 73
    14
 74
     0
 42
0.00000001
 43
0.00000001
 40
0.0
 40
0.0
 40
0.0
 40
0.0
 40
0.1248907819469273
 40
0.2505384063477967
 40
0.3748721756041158
 40
0.4374907331267689
 40
0.4990776026247599
 40
0.5607931145009658
 40
0.6233901196104445
 40
0.7478191009174896
 40
0.8731941046696081
 40
0.9991614615322162
 40
0.9999999999999999
 40
0.9999999999999999
 40
0.9999999999999999
 40
0.9999999999999999
 10
96.89463036886804
 20
140.3292477891269
 30
0.0
 10
96.83088953690033
 20
140.3145863228998
 30
0.0
 10
96.70302160132077
 20
140.2851745414538
 30
0.0
 10
95.75102276473224
 20
140.0802205820962
 30
0.0
 10
94.59047869387962
 20
139.8969593202326
 30
0.0
 10
93.53821492221623
 20
139.7839287658576
 30
0.0
 10
92.71398762319797
 20
139.7256679583849
 30
0.0
 10
91.88638387787329
 20
139.6982208222628
 30
0.0
 10
90.82756654817905
 20
139.7022056161374
 30
0.0
 10
89.62534680855322
 20
139.7712984006333
 30
0.0
 10
88.76016603755433
 20
139.8709071378205
 30
0.0
 10
88.37401728991665
 20
139.9217647434637
 30
0.0
 10
88.48209516228026
 20
139.9080639360403
 30
0.0
 10
88.48280985660307
 20
139.9079733357253
 30
0.0
  0
SPLINE
  5
C6
330
1F
100
AcDbEntity
  8
0
  6
Continuous
 62
     7
370
    15
100
AcDbSpline
210
0.0
220
0.0
230
1.0
 70
     8
 71
     3
 72
     9
 73
     5
 74
     0
 42
0.00000001
 43
0.00000001
 40
0.0
 40
0.0
 40
0.0
 40
0.0
 40
0.7009339503679092
 40
0.9999999999999999
 40
0.9999999999999999
 40
0.9999999999999999
 40
0.9999999999999999
 10
69.8339963779544
 20
96.54928788695955
 30
0.0
 10
69.84313704890424
 20
96.53145860319864
 30
0.0
 10
69.85617775116306
 20
96.50602213553785
 30
0.0
 10
69.87134121443134
 20
96.5599014950114
 30
0.0
 10
69.87587609148972
 20
96.57601498220586
 30
0.0
  0
LINE
  5
C7
330
1F
100
AcDbEntity
  8
0
  6
Continuous
 62
     7
370
    15
100
AcDbLine
 10
69.8132129834
 20
96.5598900631
 30
0.0
 11
69.8132129834
 21
135.9412451104
 31
0.0
  0
SPLINE
  5
C8
330
1F
100
AcDbEntity
  8
0
  6
Continuous
 62
     7
370
    15
100
AcDbSpline
210
0.0
220
0.0
230
1.0
 70
     8
 71
     3
 72
    10
 73
     6
 74
     0
 42
0.00000001
 43
0.00000001
 40
0.0
 40
0.0
 40
0.0
 40
0.0
 40
0.5
 40
0.5
 40
1.0
 40
1.0
 40
1.0
 40
1.0
 10
69.87587618524924
 20
135.9251201315427
 30
0.0
 10
69.86697189614048
 20
135.9708616507559
 30
0.0
 10
69.8504565159475
 20
135.9880524902248
 30
0.0
 10
69.8233485698859
 20
135.9877292132891
 30
0.0
 10
69.81321281052583
 20
135.9698516709927
 30
0.0
 10
69.81321281052583
 20
135.9412453332401
 30
0.0
  0
SPLINE
  5
C9
330
1F
100
AcDbEntity
  8
0
  6
Continuous
 62
     7
370
    15
100
AcDbSpline
210
0.0
220
0.0
230
1.0
 70
     8
 71
     3
 72
    26
 73
    22
 74
     0
 42
0.00000001
 43
0.00000001
 40
0.0
 40
0.0
 40
0.0
 40
0.0
 40
0.2500000000000165
 40
0.2500000000000165
 40
0.3750000000000256
 40
0.3750000000000256
 40
0.4375000000000291
 40
0.4375000000000291
 40
0.4687500000000291
 40
0.4687500000000291
 40
0.5000000000000292
 40
0.5000000000000292
 40
0.5312500000000293
 40
0.5312500000000293
 40
0.5625000000000293
 40
0.5625000000000293
 40
0.625000000000026
 40
0.625000000000026
 40
0.7500000000000173
 40
0.7500000000000173
 40
1.0
 40
1.0
 40
1.0
 40
1.0
 10
70.63736645663033
 20
136.6406869203598
 30
0.0
 10
70.59876593376187
 20
136.5229122240043
 30
0.0
 10
70.5524689312076
 20
136.3985225378424
 30
0.0
 10
70.45852958277368
 20
136.1933032054889
 30
0.0
 10
70.42321811586022
 20
136.1217303390425
 30
0.0
 10
70.35703814011454
 20
136.005777106442
 30
0.0
 10
70.33249977344633
 20
135.9651925716318
 30
0.0
 10
70.28912702789253
 20
135.90105088976
 30
0.0
 10
70.27361862646734
 20
135.879184464475
 30
0.0
 10
70.2385759818803
 20
135.8335901961318
 30
0.0
 10
70.21902569116054
 20
135.8099199051644
 30
0.0
 10
70.17709841078992
 20
135.7653033458244
 30
0.0
 10
70.15444630055828
 20
135.7444233333065
 30
0.0
 10
70.11347258647166
 20
135.7135499195557
 30
0.0
 10
70.09587328657624
 20
135.7037110497233
 30
0.0
 10
70.05124630072008
 20
135.6847214340271
 30
0.0
 10
70.03068707806676
 20
135.6843971093737
 30
0.0
 10
69.97956163857008
 20
135.6936205502499
 30
0.0
 10
69.95865022558154
 20
135.7148674464669
 30
0.0
 10
69.90720031802061
 20
135.7888363252976
 30
0.0
 10
69.88953501871606
 20
135.8549544186124
 30
0.0
 10
69.87587618524924
 20
135.9251201315427
 30
0.0
  0
SPLINE
  5
CA
330
1F
100
AcDbEntity
  8
0
  6
Continuous
 62
     7
370
    15
100
AcDbSpline
210
0.0
220
0.0
230
1.0
 70
     8
 71
     3
 72
    10
 73
     6
 74
     0
 42
0.00000001
 43
0.00000001
 40
0.0
 40
0.0
 40
0.0
 40
0.0
 40
0.5
 40
0.5
 40
1.0
 40
1.0
 40
1.0
 40
1.0
 10
70.95316788010761
 20
137.1105214790496
 30
0.0
 10
70.88560862518936
 20
137.0428300862398
 30
0.0
 10
70.82197196985288
 20
136.9681229214862
 30
0.0
 10
70.71175121528103
 20
136.8091567890596
 30
0.0
 10
70.6649349220584
 20
136.7248015230516
 30
0.0
 10
70.63736645663032
 20
136.6406869203598
 30
0.0
  0
SPLINE
  5
CB
330
1F
100
AcDbEntity
  8
0
  6
Continuous
 62
     7
370
    15
100
AcDbSpline
210
0.0
220
0.0
230
1.0
 70
     8
 71
     3
 72
    10
 73
     6
 74
     0
 42
0.00000001
 43
0.00000001
 40
0.0
 40
0.0
 40
0.0
 40
0.0
 40
0.5
 40
0.5
 40
1.0
 40
1.0
 40
1.0
 40
1.0
 10
70.63736645663037
 20
95.86044825316398
 30
0.0
 10
70.66484387138435
 20
95.77661145669609
 30
0.0
 10
70.71155250167376
 20
95.69230096910694
 30
0.0
 10
70.82183096441972
 20
95.53317973862023
 30
0.0
 10
70.88571850303362
 20
95.45819499453059
 30
0.0
 10
70.95316788011823
 20
95.39061369446365
 30
0.0
  0
SPLINE
  5
CC
330
1F
100
AcDbEntity
  8
0
  6
Continuous
 62
     7
370
    15
100
AcDbSpline
210
0.0
220
0.0
230
1.0
 70
     8
 71
     3
 72
    24
 73
    20
 74
     0
 42
0.00000001
 43
0.00000001
 40
0.0
 40
0.0
 40
0.0
 40
0.0
 40
0.2499999999999952
 40
0.2499999999999952
 40
0.3749999999999937
 40
0.3749999999999937
 40
0.4374999999999931
 40
0.4374999999999931
 40
0.468749999999992
 40
0.468749999999992
 40
0.4999999999999909
 40
0.4999999999999909
 40
0.5624999999999933
 40
0.5624999999999933
 40
0.6249999999999958
 40
0.6249999999999958
 40
0.7499999999999981
 40
0.7499999999999981
 40
1.0
 40
1.0
 40
1.0
 40
1.0
 10
69.87587618524924
 20
96.5760150419812
 30
0.0
 10
69.88962930391945
 20
96.64666509997149
 30
0.0
 10
69.9074018713253
 20
96.71326321273641
 30
0.0
 10
69.95965296288068
 20
96.7873612329696
 30
0.0
 10
69.98068803846222
 20
96.80861904013116
 30
0.0
 10
70.03358844609068
 20
96.8167649662774
 30
0.0
 10
70.05469411896857
 20
96.81582516288165
 30
0.0
 10
70.10074628764654
 20
96.79480917130431
 30
0.0
 10
70.11911675962992
 20
96.78390036519669
 30
0.0
 10
70.16066839469563
 20
96.75126545424934
 30
0.0
 10
70.18323506745256
 20
96.72977347387797
 30
0.0
 10
70.24601608391258
 20
96.66130753029165
 30
0.0
 10
70.27914584488046
 20
96.61523307208655
 30
0.0
 10
70.33606353136548
 20
96.53022518375187
 30
0.0
 10
70.36024955686925
 20
96.4899448825705
 30
0.0
 10
70.42545750724902
 20
96.37500865610454
 30
0.0
 10
70.46017356744026
 20
96.30442567095754
 30
0.0
 10
70.55338883777115
 20
96.10021991187894
 30
0.0
 10
70.59906137313182
 20
95.97732152955157
 30
0.0
 10
70.63736645663036
 20
95.860448253164
 30
0.0
  0
SPLINE
  5
CD
330
1F
100
AcDbEntity
  8
0
  6
Continuous
 62
     7
370
    15
100
AcDbSpline
210
0.0
220
0.0
230
1.0
 70
     8
 71
     3
 72
     8
 73
     4
 74
     0
 42
0.00000001
 43
0.00000001
 40
0.0
 40
0.0
 40
0.0
 40
0.0
 40
1.0
 40
1.0
 40
1.0
 40
1.0
 10
123.1051456420149
 20
146.7177630599262
 30
0.0
 10
122.6100056126506
 20
145.8310834117459
 30
0.0
 10
122.1159229073716
 20
144.9438207760599
 30
0.0
 10
121.6232128105258
 20
144.0558017779335
 30
0.0
  0
LINE
  5
CE
330
1F
100
AcDbEntity
  8
0
  6
Continuous
 62
     7
370
    15
100
AcDbLine
 10
123.1051447318
 20
140.7092572019
 30
0.0
 11
123.1051447318
 21
146.7177630231
 31
0.0
  0
SPLINE
  5
CF
330
1F
100
AcDbEntity
  8
0
  6
Continuous
 62
     7
370
    15
100
AcDbSpline
210
0.0
220
0.0
230
1.0
 70
     8
 71
     3
 72
     8
 73
     4
 74
     0
 42
0.00000001
 43
0.00000001
 40
0.0
 40
0.0
 40
0.0
 40
0.0
 40
1.0
 40
1.0
 40
1.0
 40
1.0
 10
121.6232128105258
 20
137.3007112543452
 30
0.0
 10
122.1024909611157
 20
138.4417224841979
 30
0.0
 10
122.5980588002556
 20
139.5781068949657
 30
0.0
 10
123.1051456420149
 20
140.7092572491294
 30
0.0
  0
LINE
  5
D0
330
1F
100
AcDbEntity
  8
0
  6
Continuous
 62
     7
370
    15
100
AcDbLine
 10
121.6232130752
 20
137.3007115737
 30
0.0
 11
121.6232130752
 21
144.055800961
 31
0.0
  0
LINE
  5
D1
330
1F
100
AcDbEntity
  8
0
  6
Continuous
 62
     7
370
    15
100
AcDbLine
 10
121.6232130752
 20
136.3864340648
 30
0.0
 11
121.6232130752
 21
137.3007115737
 31
0.0
  0
LINE
  5
D2
330
1F
100
AcDbEntity
  8
0
  6
Continuous
 62
     7
370
    15
100
AcDbLine
 10
123.1051447318
 20
140.7092572019
 30
0.0
 11
127.0632135198
 21
140.7092572019
 31
0.0
  0
SPLINE
  5
D3
330
1F
100
AcDbEntity
  8
0
  6
Continuous
 62
     7
370
    15
100
AcDbSpline
210
0.0
220
0.0
230
1.0
 70
     8
 71
     3
 72
    12
 73
     8
 74
     0
 42
0.00000001
 43
0.00000001
 40
0.0
 40
0.0
 40
0.0
 40
0.0
 40
0.250000000000002
 40
0.250000000000002
 40
0.500000000000004
 40
0.500000000000004
 40
1.0
 40
1.0
 40
1.0
 40
1.0
 10
127.0632128105258
 20
140.7092572491294
 30
0.0
 10
127.1544125323515
 20
140.7092572491294
 30
0.0
 10
127.2450075414875
 20
140.6810375505415
 30
0.0
 10
127.3984202679342
 20
140.5865945432934
 30
0.0
 10
127.4636291352578
 20
140.5203075665881
 30
0.0
 10
127.6164136645978
 20
140.2946827432997
 30
0.0
 10
127.6632128105258
 20
140.1122564802672
 30
0.0
 10
127.6632128105258
 20
139.9315198480203
 30
0.0
  0
LINE
  5
D4
330
1F
100
AcDbEntity
  8
0
  6
Continuous
 62
     7
370
    15
100
AcDbLine
 10
127.6632125006
 20
139.9315190331
 30
0.0
 11
127.6632125006
 21
136.1005683259
 31
0.0
  0
LINE
  5
D5
330
1F
100
AcDbEntity
  8
0
  6
Continuous
 62
     7
370
    15
100
AcDbLine
 10
127.0632135198
 20
146.7177630231
 30
0.0
 11
123.1051447318
 21
146.7177630231
 31
0.0
  0
SPLINE
  5
D6
330
1F
100
AcDbEntity
  8
0
  6
Continuous
 62
     7
370
    15
100
AcDbSpline
210
0.0
220
0.0
230
1.0
 70
     8
 71
     3
 72
    10
 73
     6
 74
     0
 42
0.00000001
 43
0.00000001
 40
0.0
 40
0.0
 40
0.0
 40
0.0
 40
0.5
 40
0.5
 40
1.0
 40
1.0
 40
1.0
 40
1.0
 10
127.6632128105258
 20
146.0970079105259
 30
0.0
 10
127.6632128105258
 20
146.2574131768767
 30
0.0
 10
127.600974979419
 20
146.4164749898652
 30
0.0
 10
127.3818400556764
 20
146.6473874554956
 30
0.0
 10
127.2242513606845
 20
146.7177630599262
 30
0.0
 10
127.0632128105258
 20
146.7177630599262
 30
0.0
  0
LINE
  5
D7
330
1F
100
AcDbEntity
  8
0
  6
Continuous
 62
     7
370
    15
100
AcDbLine
 10
127.6632125006
 20
139.9315190331
 30
0.0
 11
127.6632125006
 21
146.0970085875
 31
0.0
  0
SPLINE
  5
D8
330
1F
100
AcDbEntity
  8
0
  6
Continuous
 62
     7
370
    15
100
AcDbSpline
210
0.0
220
0.0
230
1.0
 70
     8
 71
     3
 72
     8
 73
     4
 74
     0
 42
0.00000001
 43
0.00000001
 40
0.0
 40
0.0
 40
0.0
 40
0.0
 40
1.0
 40
1.0
 40
1.0
 40
1.0
 10
116.3212799790368
 20
140.7092572491294
 30
0.0
 10
116.828366820796
 20
139.5781068949657
 30
0.0
 10
117.323934659936
 20
138.4417224841979
 30
0.0
 10
117.8032128105258
 20
137.3007112543453
 30
0.0
  0
LINE
  5
D9
330
1F
100
AcDbEntity
  8
0
  6
Continuous
 62
     7
370
    15
100
AcDbLine
 10
117.8032128588
 20
137.3007115737
 30
0.0
 11
117.8032128588
 21
136.3864340648
 31
0.0
  0
SPLINE
  5
DA
330
1F
100
AcDbEntity
  8
0
  6
Continuous
 62
     7
370
    15
100
AcDbSpline
210
0.0
220
0.0
230
1.0
 70
     8
 71
     3
 72
     8
 73
     4
 74
     0
 42
0.00000001
 43
0.00000001
 40
0.0
 40
0.0
 40
0.0
 40
0.0
 40
1.0
 40
1.0
 40
1.0
 40
1.0
 10
117.8032128105258
 20
144.0558017779335
 30
0.0
 10
117.3105027136801
 20
144.9438207760599
 30
0.0
 10
116.8164200084011
 20
145.8310834117459
 30
0.0
 10
116.3212799790368
 20
146.7177630599262
 30
0.0
  0
LINE
  5
DB
330
1F
100
AcDbEntity
  8
0
  6
Continuous
 62
     7
370
    15
100
AcDbLine
 10
117.8032128588
 20
137.3007115737
 30
0.0
 11
117.8032128588
 21
144.055800961
 31
0.0
  0
ARC
  5
DC
330
1F
100
AcDbEntity
  8
0
  6
Continuous
 62
     7
370
    15
100
AcDbCircle
 10
109.713406141
 20
135.0107508769
 30
0.0
 40
7.197947589070902
100
AcDbArc
 50
70.8186200787
 51
109.2445919003
  0
LINE
  5
DD
330
1F
100
AcDbEntity
  8
0
  6
HIDDEN
 62
     7
370
     0
100
AcDbLine
 10
143.7132122443
 20
116.2505675868
 30
0.0
 11
143.7132122443
 21
83.9255680159
 31
0.0
  0
LINE
  5
DE
330
1F
100
AcDbEntity
  8
0
  6
HIDDEN
 62
     7
370
     0
100
AcDbLine
 10
143.7132122443
 20
148.5755671576
 30
0.0
 11
143.7132122443
 21
116.2505675868
 31
0.0
  0
LINE
  5
DF
330
1F
100
AcDbEntity
  8
0
  6
HIDDEN
 62
     7
370
     0
100
AcDbLine
 10
146.6632137523
 20
149.2755678311
 30
0.0
 11
146.6632137523
 21
83.2255673424
 31
0.0
  0
LINE
  5
E0
330
1F
100
AcDbEntity
  8
0
  6
HIDDEN
 62
     7
370
     0
100
AcDbLine
 10
101.7132128105
 20
85.0505684331
 30
0.0
 11
101.7132128105
 21
147.4505667404
 31
0.0
  0
LINE
  5
E1
330
1F
100
AcDbEntity
  8
0
  6
HIDDEN
 62
     7
370
     0
100
AcDbLine
 10
106.6632127837
 20
84.7505670801
 30
0.0
 11
106.6632127837
 21
84.7664442674
 31
0.0
  0
SPLINE
  5
E2
330
1F
100
AcDbEntity
  8
0
  6
HIDDEN
 62
     7
370
     0
100
AcDbSpline
210
0.0
220
0.0
230
1.0
 70
     8
 71
     3
 72
    30
 73
    26
 74
     0
 42
0.00000001
 43
0.00000001
 40
0.0
 40
0.0
 40
0.0
 40
0.0
 40
0.1250000000000001
 40
0.1250000000000001
 40
0.1875000000000002
 40
0.1875000000000002
 40
0.2500000000000003
 40
0.2500000000000003
 40
0.3750000000000004
 40
0.3750000000000004
 40
0.4375000000000004
 40
0.4375000000000004
 40
0.5000000000000004
 40
0.5000000000000004
 40
0.6250000000000007
 40
0.6250000000000007
 40
0.6875000000000006
 40
0.6875000000000006
 40
0.7500000000000004
 40
0.7500000000000004
 40
0.8125000000000004
 40
0.8125000000000004
 40
0.8750000000000003
 40
0.8750000000000003
 40
1.0
 40
1.0
 40
1.0
 40
1.0
 10
106.6632128105258
 20
84.7664446038996
 30
0.0
 10
106.6632128105258
 20
84.78332352190822
 30
0.0
 10
106.7156303765042
 20
84.8133410867329
 30
0.0
 10
106.8690098564065
 20
84.876151476006
 30
0.0
 10
106.9326909770743
 20
84.9000553832329
 30
0.0
 10
107.085645844526
 20
84.95349067567528
 30
0.0
 10
107.1752181432952
 20
84.98309754384285
 30
0.0
 10
107.4764421761484
 20
85.07754724255729
 30
0.0
 10
107.7217571722325
 20
85.1485746363865
 30
0.0
 10
108.1558541533028
 20
85.26258892309227
 30
0.0
 10
108.3125238424064
 20
85.30204417423285
 30
0.0
 10
108.6445170062488
 20
85.3815656170035
 30
0.0
 10
108.8192225352413
 20
85.4215017595043
 30
0.0
 10
109.3688922178328
 20
85.54043816233244
 30
0.0
 10
109.7691431805441
 20
85.61860292621628
 30
0.0
 10
110.4227300471816
 20
85.72831236648517
 30
0.0
 10
110.6484061668587
 20
85.7633932031936
 30
0.0
 10
111.10811798799
 20
85.82863348257321
 30
0.0
 10
111.3431713220331
 20
85.85896829861795
 30
0.0
 10
111.8236786043321
 20
85.91430667783978
 30
0.0
 10
112.0691321322462
 20
85.93931135439986
 30
0.0
 10
112.5707475570536
 20
85.98319116329056
 30
0.0
 10
112.8282399396541
 20
86.00213484805288
 30
0.0
 10
113.6063164560902
 20
86.04785457532304
 30
0.0
 10
114.1314787333351
 20
86.06364989051478
 30
0.0
 10
114.6632128105258
 20
86.06364989051478
 30
0.0
  0
LINE
  5
E3
330
1F
100
AcDbEntity
  8
0
  6
HIDDEN
 62
     7
370
     0
100
AcDbLine
 10
114.6632131637
 20
86.0636499539
 30
0.0
 11
116.3212802709
 21
86.0636499539
 31
0.0
  0
LINE
  5
E4
330
1F
100
AcDbEntity
  8
0
  6
HIDDEN
 62
     7
370
     0
100
AcDbLine
 10
116.3212802709
 20
146.7177630231
 30
0.0
 11
116.3212802709
 21
86.0636499539
 31
0.0
  0
LINE
  5
E5
330
1F
100
AcDbEntity
  8
0
  6
HIDDEN
 62
     7
370
     0
100
AcDbLine
 10
114.6632131637
 20
146.7177630231
 30
0.0
 11
116.3212802709
 21
146.7177630231
 31
0.0
  0
SPLINE
  5
E6
330
1F
100
AcDbEntity
  8
0
  6
HIDDEN
 62
     7
370
     0
100
AcDbSpline
210
0.0
220
0.0
230
1.0
 70
     8
 71
     3
 72
    17
 73
    13
 74
     0
 42
0.00000001
 43
0.00000001
 40
0.0
 40
0.0
 40
0.0
 40
0.0
 40
0.0638118530465205
 40
0.1662333895307372
 40
0.2715772228763146
 40
0.3750121495313972
 40
0.481289232822485
 40
0.5875618040019402
 40
0.6968792013763269
 40
0.8035874989287674
 40
0.9135588298793159
 40
1.0
 40
1.0
 40
1.0
 40
1.0
 10
106.6912013553774
 20
147.7434714153829
 30
0.0
 10
106.6880042063544
 20
147.7442757287159
 30
0.0
 10
106.6796754571714
 20
147.7463710092198
 30
0.0
 10
106.9113109302053
 20
147.6878943082986
 30
0.0
 10
107.346411974001
 20
147.5825859318894
 30
0.0
 10
107.9924140776634
 20
147.4367742223751
 30
0.0
 10
108.8166855828253
 20
147.2693235642308
 30
0.0
 10
109.819217815932
 20
147.09434964774
 30
0.0
 10
110.9619655687853
 20
146.933763336443
 30
0.0
 10
112.2272996222163
 20
146.8064116295172
 30
0.0
 10
113.4740397614441
 20
146.7303257925214
 30
0.0
 10
114.29979719693
 20
146.7216022537813
 30
0.0
 10
114.6632131636833
 20
146.7177630231204
 30
0.0
  0
SPLINE
  5
E7
330
1F
100
AcDbEntity
  8
0
  6
HIDDEN
 62
     7
370
     0
100
AcDbSpline
210
0.0
220
0.0
230
1.0
 70
     8
 71
     3
 72
    76
 73
    72
 74
     0
 42
0.00000001
 43
0.00000001
 40
-0.03125
 40
-0.03125
 40
0.0
 40
0.0
 40
0.03125
 40
0.03125
 40
0.046875
 40
0.046875
 40
0.0625
 40
0.0625
 40
0.09375
 40
0.09375
 40
0.1249999999999999
 40
0.1249999999999999
 40
0.1562499999999999
 40
0.1562499999999999
 40
0.1874999999999999
 40
0.1874999999999999
 40
0.2187499999999998
 40
0.2187499999999998
 40
0.2499999999999998
 40
0.2499999999999998
 40
0.2812499999999997
 40
0.2812499999999997
 40
0.3124999999999997
 40
0.3124999999999997
 40
0.3281249999999997
 40
0.3281249999999997
 40
0.3437499999999997
 40
0.3437499999999997
 40
0.3749999999999997
 40
0.3749999999999997
 40
0.4062499999999997
 40
0.4062499999999997
 40
0.4374999999999997
 40
0.4374999999999997
 40
0.4687499999999998
 40
0.4687499999999998
 40
0.4999999999999998
 40
0.4999999999999998
 40
0.5312499999999998
 40
0.5312499999999998
 40
0.5624999999999998
 40
0.5624999999999998
 40
0.5937499999999998
 40
0.5937499999999998
 40
0.6249999999999998
 40
0.6249999999999998
 40
0.6562499999999999
 40
0.6562499999999999
 40
0.6874999999999999
 40
0.6874999999999999
 40
0.7031249999999999
 40
0.7031249999999999
 40
0.7187499999999999
 40
0.7187499999999999
 40
0.7499999999999999
 40
0.7499999999999999
 40
0.7812499999999999
 40
0.7812499999999999
 40
0.8124999999999999
 40
0.8124999999999999
 40
0.8437499999999999
 40
0.8437499999999999
 40
0.8749999999999999
 40
0.8749999999999999
 40
0.90625
 40
0.90625
 40
0.9375
 40
0.9375
 40
0.96875
 40
0.96875
 40
1.0
 40
1.0
 40
1.03125
 40
1.03125
 10
103.7132128105258
 20
116.581451582556
 30
0.0
 10
103.7132128105258
 20
115.9196835909679
 30
0.0
 10
103.7457332883102
 20
115.594432422872
 30
0.0
 10
103.8412265325922
 20
115.1146357019829
 30
0.0
 10
103.8809013680034
 20
114.9560600181892
 30
0.0
 10
103.976287981339
 20
114.6416776323962
 30
0.0
 10
104.0322322227497
 20
114.485558008812
 30
0.0
 10
104.2205952461993
 20
114.0316174489101
 30
0.0
 10
104.3742075226177
 20
113.7446372029031
 30
0.0
 10
104.7370353164018
 20
113.2015240461638
 30
0.0
 10
104.9478704179843
 20
112.9447847546198
 30
0.0
 10
105.4083699880018
 20
112.4844001203889
 30
0.0
 10
105.6597329289196
 20
112.277623303635
 30
0.0
 10
106.206079623273
 20
111.9120990959716
 30
0.0
 10
106.496294262991
 20
111.7570995372568
 30
0.0
 10
107.0976810792927
 20
111.5075685161626
 30
0.0
 10
107.4133107723831
 20
111.4112902424739
 30
0.0
 10
108.0589511736626
 20
111.2826412352309
 30
0.0
 10
108.3837069294759
 20
111.2507549761144
 30
0.0
 10
109.0370069598673
 20
111.2503818286036
 30
0.0
 10
109.368879300698
 20
111.2829613148496
 30
0.0
 10
110.0105305343017
 20
111.410735219556
 30
0.0
 10
110.3224554512348
 20
111.5052676638531
 30
0.0
 10
110.7769450517517
 20
111.6933872583918
 30
0.0
 10
110.9268083595857
 20
111.7642702396126
 30
0.0
 10
111.2158935935083
 20
111.918886845947
 30
0.0
 10
111.3557545078164
 20
112.0028094446849
 30
0.0
 10
111.7616309515206
 20
112.2740049681606
 30
0.0
 10
112.0146690980102
 20
112.4811049736019
 30
0.0
 10
112.4805686541736
 20
112.9467074266591
 30
0.0
 10
112.6870747286694
 20
113.1986262790464
 30
0.0
 10
113.0491802920691
 20
113.7395298950473
 30
0.0
 10
113.2060394058842
 20
114.0320727377987
 30
0.0
 10
113.4569895227469
 20
114.6369403945562
 30
0.0
 10
113.5518006220778
 20
114.9485872260029
 30
0.0
 10
113.680222484871
 20
115.5903405312245
 30
0.0
 10
113.7130857713621
 20
115.9220683501038
 30
0.0
 10
113.7133390974707
 20
116.5751881153647
 30
0.0
 10
113.6817830969014
 20
116.9001213217078
 30
0.0
 10
113.553541875477
 20
117.5466483281609
 30
0.0
 10
113.4577358268186
 20
117.8616562820218
 30
0.0
 10
113.2086023157245
 20
118.4636149501674
 30
0.0
 10
113.0531421940298
 20
118.7550911204429
 30
0.0
 10
112.68868793967
 20
119.3006860569396
 30
0.0
 10
112.4822550322342
 20
119.5521631719448
 30
0.0
 10
112.0217859497163
 20
120.0134861959995
 30
0.0
 10
111.7649889416604
 20
120.2246094969459
 30
0.0
 10
111.2229437278259
 20
120.5873402786619
 30
0.0
 10
110.9361741478904
 20
120.7412291820475
 30
0.0
 10
110.4818669720048
 20
120.9301789087395
 30
0.0
 10
110.3257266712313
 20
120.9862517047593
 30
0.0
 10
110.0118807098852
 20
121.081754470292
 30
0.0
 10
109.8534939221914
 20
121.1215351133195
 30
0.0
 10
109.3740176822481
 20
121.2174176504448
 30
0.0
 10
109.0477777378212
 20
121.2502930984443
 30
0.0
 10
108.3869031405432
 20
121.2508386676154
 30
0.0
 10
108.0617667931983
 20
121.2186721490019
 30
0.0
 10
107.4216842927118
 20
121.0918896110147
 30
0.0
 10
107.103363368644
 20
120.9956218572234
 30
0.0
 10
106.4984470898049
 20
120.7452275357983
 30
0.0
 10
106.2112981761534
 20
120.5919133740767
 30
0.0
 10
105.6673466224804
 20
120.2292054500569
 30
0.0
 10
105.4107006727538
 20
120.018766377323
 30
0.0
 10
104.9501101193409
 20
119.5588853890467
 30
0.0
 10
104.74296123335
 20
119.3076035893539
 30
0.0
 10
104.3764299899367
 20
118.7606834156139
 30
0.0
 10
104.2217458024322
 20
118.4715432639977
 30
0.0
 10
103.971646149094
 20
117.8703065900784
 30
0.0
 10
103.8749593746009
 20
117.5543308964376
 30
0.0
 10
103.7457377996446
 20
116.908357138341
 30
0.0
 10
103.7132128105258
 20
116.581451582556
 30
0.0
 10
103.7132128105258
 20
115.9196835909679
 30
0.0
  0
LINE
  5
E8
330
1F
100
AcDbEntity
  8
0
  6
HIDDEN
 62
     7
370
     0
100
AcDbLine
 10
146.6632137523
 20
146.2939777241
 30
0.0
 11
146.6632137523
 21
86.2071574495
 31
0.0
  0
LINE
  5
E9
330
1F
100
AcDbEntity
  8
0
  6
HIDDEN
 62
     7
370
     0
100
AcDbLine
 10
220.5132121668
 20
86.2505682573
 30
0.0
 11
220.5132121668
 21
103.7255679086
 31
0.0
  0
LINE
  5
EA
330
1F
100
AcDbEntity
  8
0
  6
HIDDEN
 62
     7
370
     0
100
AcDbLine
 10
220.5132121668
 20
103.7255679086
 30
0.0
 11
215.1132101641
 21
103.7255679086
 31
0.0
  0
SPLINE
  5
EB
330
1F
100
AcDbEntity
  8
0
  6
HIDDEN
 62
     7
370
     0
100
AcDbSpline
210
0.0
220
0.0
230
1.0
 70
     8
 71
     3
 72
    14
 73
    10
 74
     0
 42
0.00000001
 43
0.00000001
 40
0.0
 40
0.0
 40
0.0
 40
0.0
 40
0.25
 40
0.25
 40
0.5
 40
0.5
 40
0.75
 40
0.75
 40
1.0
 40
1.0
 40
1.0
 40
1.0
 10
215.1132128105258
 20
103.725567586762
 30
0.0
 10
214.975017792725
 20
103.725567586762
 30
0.0
 10
214.8393545918752
 20
103.754453992681
 30
0.0
 10
214.5926904580901
 20
103.8612086236303
 30
0.0
 10
214.4817952294631
 20
103.9393266568104
 30
0.0
 10
214.3019250045676
 20
104.1266727232762
 30
0.0
 10
214.2315550992471
 20
104.2369099575434
 30
0.0
 10
214.1374391864371
 20
104.4726398639168
 30
0.0
 10
214.1132128105258
 20
104.598255874825
 30
0.0
 10
214.1132128105258
 20
104.725567586762
 30
0.0
  0
LINE
  5
EC
330
1F
100
AcDbEntity
  8
0
  6
HIDDEN
 62
     7
370
     0
100
AcDbLine
 10
214.1132155881
 20
104.7255671412
 30
0.0
 11
214.1132155881
 21
127.7755680323
 31
0.0
  0
SPLINE
  5
ED
330
1F
100
AcDbEntity
  8
0
  6
HIDDEN
 62
     7
370
     0
100
AcDbSpline
210
0.0
220
0.0
230
1.0
 70
     8
 71
     3
 72
    14
 73
    10
 74
     0
 42
0.00000001
 43
0.00000001
 40
0.0
 40
0.0
 40
0.0
 40
0.0
 40
0.25
 40
0.25
 40
0.5
 40
0.5
 40
0.75
 40
0.75
 40
1.0
 40
1.0
 40
1.0
 40
1.0
 10
214.1132128105258
 20
127.775567586762
 30
0.0
 10
214.1132128105258
 20
127.9030542335494
 30
0.0
 10
214.1369552139548
 20
128.0270919318244
 30
0.0
 10
214.231629026895
 20
128.2646007384612
 30
0.0
 10
214.3008744895764
 20
128.3732535160645
 30
0.0
 10
214.4820066404016
 20
128.5621429414268
 30
0.0
 10
214.5917066299551
 20
128.639392158864
 30
0.0
 10
214.8389849484358
 20
128.7466292055042
 30
0.0
 10
214.9747425923454
 20
128.775567586762
 30
0.0
 10
215.1132128105258
 20
128.775567586762
 30
0.0
  0
LINE
  5
EE
330
1F
100
AcDbEntity
  8
0
  6
HIDDEN
 62
     7
370
     0
100
AcDbLine
 10
215.1132101641
 20
128.7755672649
 30
0.0
 11
220.5132121668
 21
128.7755672649
 31
0.0
  0
LINE
  5
EF
330
1F
100
AcDbEntity
  8
0
  6
HIDDEN
 62
     7
370
     0
100
AcDbLine
 10
220.5132121668
 20
128.7755672649
 30
0.0
 11
220.5132121668
 21
146.2505669162
 31
0.0
  0
LINE
  5
F0
330
1F
100
AcDbEntity
  8
0
  6
HIDDEN
 62
     7
370
     0
100
AcDbLine
 10
220.2632153854
 20
128.7755672649
 30
0.0
 11
215.1132101641
 21
128.7755672649
 31
0.0
  0
SPLINE
  5
F1
330
1F
100
AcDbEntity
  8
0
  6
HIDDEN
 62
     7
370
     0
100
AcDbSpline
210
0.0
220
0.0
230
1.0
 70
     8
 71
     3
 72
    14
 73
    10
 74
     0
 42
0.00000001
 43
0.00000001
 40
0.0
 40
0.0
 40
0.0
 40
0.0
 40
0.25
 40
0.25
 40
0.5
 40
0.5
 40
0.75
 40
0.75
 40
1.0
 40
1.0
 40
1.0
 40
1.0
 10
215.1132128105258
 20
128.775567586762
 30
0.0
 10
214.975017792725
 20
128.775567586762
 30
0.0
 10
214.8393545918752
 20
128.7466811808429
 30
0.0
 10
214.5926904580901
 20
128.6399265498937
 30
0.0
 10
214.4817952294631
 20
128.5618085167135
 30
0.0
 10
214.3019250045676
 20
128.3744624502478
 30
0.0
 10
214.2315550992471
 20
128.2642252159805
 30
0.0
 10
214.1374391864371
 20
128.0284953096071
 30
0.0
 10
214.1132128105258
 20
127.9028792986989
 30
0.0
 10
214.1132128105258
 20
127.775567586762
 30
0.0
  0
LINE
  5
F2
330
1F
100
AcDbEntity
  8
0
  6
HIDDEN
 62
     7
370
     0
100
AcDbLine
 10
214.1132155881
 20
127.7755680323
 30
0.0
 11
214.1132155881
 21
104.7255671412
 31
0.0
  0
SPLINE
  5
F3
330
1F
100
AcDbEntity
  8
0
  6
HIDDEN
 62
     7
370
     0
100
AcDbSpline
210
0.0
220
0.0
230
1.0
 70
     8
 71
     3
 72
    14
 73
    10
 74
     0
 42
0.00000001
 43
0.00000001
 40
0.0
 40
0.0
 40
0.0
 40
0.0
 40
0.25
 40
0.25
 40
0.5
 40
0.5
 40
0.75
 40
0.75
 40
1.0
 40
1.0
 40
1.0
 40
1.0
 10
214.1132128105258
 20
104.725567586762
 30
0.0
 10
214.1132128105258
 20
104.5980809399745
 30
0.0
 10
214.1369552139548
 20
104.4740432416995
 30
0.0
 10
214.231629026895
 20
104.2365344350627
 30
0.0
 10
214.3008744895764
 20
104.1278816574595
 30
0.0
 10
214.4820066404016
 20
103.9389922320971
 30
0.0
 10
214.5917066299551
 20
103.8617430146599
 30
0.0
 10
214.8389849484358
 20
103.7545059680197
 30
0.0
 10
214.9747425923454
 20
103.725567586762
 30
0.0
 10
215.1132128105258
 20
103.725567586762
 30
0.0
  0
LINE
  5
F4
330
1F
100
AcDbEntity
  8
0
  6
HIDDEN
 62
     7
370
     0
100
AcDbLine
 10
215.1132101641
 20
103.7255679086
 30
0.0
 11
220.2632153854
 21
103.7255679086
 31
0.0
  0
SPLINE
  5
F5
330
1F
100
AcDbEntity
  8
0
  6
HIDDEN
 62
     7
370
     0
100
AcDbSpline
210
0.0
220
0.0
230
1.0
 70
     8
 71
     3
 72
    66
 73
    62
 74
     0
 42
0.00000001
 43
0.00000001
 40
-0.0625000000000002
 40
-0.0625000000000002
 40
0.0
 40
0.0
 40
0.0312499999999997
 40
0.0312499999999997
 40
0.0624999999999994
 40
0.0624999999999994
 40
0.0937499999999991
 40
0.0937499999999991
 40
0.1249999999999988
 40
0.1249999999999988
 40
0.1562499999999985
 40
0.1562499999999985
 40
0.1874999999999982
 40
0.1874999999999982
 40
0.2187499999999979
 40
0.2187499999999979
 40
0.2499999999999976
 40
0.2499999999999976
 40
0.2812499999999972
 40
0.2812499999999972
 40
0.3124999999999969
 40
0.3124999999999969
 40
0.3437499999999967
 40
0.3437499999999967
 40
0.3749999999999963
 40
0.3749999999999963
 40
0.406249999999996
 40
0.406249999999996
 40
0.4374999999999957
 40
0.4374999999999957
 40
0.4687499999999954
 40
0.4687499999999954
 40
0.4999999999999951
 40
0.4999999999999951
 40
0.5312499999999951
 40
0.5312499999999951
 40
0.5624999999999951
 40
0.5624999999999951
 40
0.6249999999999951
 40
0.6249999999999951
 40
0.6562499999999956
 40
0.6562499999999956
 40
0.687499999999996
 40
0.687499999999996
 40
0.7187499999999966
 40
0.7187499999999966
 40
0.749999999999997
 40
0.749999999999997
 40
0.7812499999999974
 40
0.7812499999999974
 40
0.8124999999999979
 40
0.8124999999999979
 40
0.8437499999999984
 40
0.8437499999999984
 40
0.8749999999999989
 40
0.8749999999999989
 40
0.9062499999999993
 40
0.9062499999999993
 40
0.9374999999999998
 40
0.9374999999999998
 40
1.0
 40
1.0
 40
1.03125
 40
1.03125
 10
164.2132128105258
 20
142.3965684498769
 30
0.0
 10
164.2132128105258
 20
142.1487103255044
 30
0.0
 10
164.1969917852309
 20
142.0662973604301
 30
0.0
 10
164.1334479162456
 20
141.9019955326694
 30
0.0
 10
164.0853487748398
 20
141.8192230903829
 30
0.0
 10
163.9598406316922
 20
141.6594917422542
 30
0.0
 10
163.8830474756236
 20
141.5827485752283
 30
0.0
 10
163.7016297989815
 20
141.4359973207401
 30
0.0
 10
163.5960812053148
 20
141.365724286456
 30
0.0
 10
163.365530250306
 20
141.2386869261805
 30
0.0
 10
163.2397193543144
 20
141.1810943792225
 30
0.0
 10
162.9664706004901
 20
141.0787240998112
 30
0.0
 10
162.8210623513605
 20
141.0348867207832
 30
0.0
 10
162.5202751363575
 20
140.9641963127607
 30
0.0
 10
162.3626738344764
 20
140.9368098128364
 30
0.0
 10
162.039937990768
 20
140.9001239843231
 30
0.0
 10
161.8776843681844
 20
140.8910123602562
 30
0.0
 10
161.551450425103
 20
140.8909111764226
 30
0.0
 10
161.3857571273688
 20
140.9002184379648
 30
0.0
 10
161.065072728979
 20
140.936648264124
 30
0.0
 10
160.9092002589818
 20
140.963568392736
 30
0.0
 10
160.6064397175254
 20
141.0345461070233
 30
0.0
 10
160.4601192606547
 20
141.0787325273519
 30
0.0
 10
160.1892695583024
 20
141.18006480668
 30
0.0
 10
160.0630034781784
 20
141.2375695960238
 30
0.0
 10
159.829509573097
 20
141.3661402676157
 30
0.0
 10
159.7260254422446
 20
141.4351541439124
 30
0.0
 10
159.5449290171539
 20
141.581344883629
 30
0.0
 10
159.4666117848637
 20
141.6594591756344
 30
0.0
 10
159.3410636809179
 20
141.819238310312
 30
0.0
 10
159.2937376300565
 20
141.9004682021908
 30
0.0
 10
159.229685847286
 20
142.0652150591951
 30
0.0
 10
159.2132722467269
 20
142.149280120066
 30
0.0
 10
159.2131537041481
 20
142.3124712047746
 30
0.0
 10
159.2289179835402
 20
142.3924374576077
 30
0.0
 10
159.2928013158067
 20
142.5491710351811
 30
0.0
 10
159.3407548040701
 20
142.6247817317018
 30
0.0
 10
159.5274436117136
 20
142.8380318895619
 30
0.0
 10
159.7134826201028
 20
142.9657329296811
 30
0.0
 10
160.0588703038174
 20
143.1210871970275
 30
0.0
 10
160.1873274575073
 20
143.1679229723525
 30
0.0
 10
160.4589546283797
 20
143.247853019054
 30
0.0
 10
160.6024349338729
 20
143.2813254206959
 30
0.0
 10
160.9048467724428
 20
143.3357748891603
 30
0.0
 10
161.0637473835328
 20
143.3565299248745
 30
0.0
 10
161.3833343845089
 20
143.3839139880485
 30
0.0
 10
161.5457118616967
 20
143.390892264553
 30
0.0
 10
161.8758407201497
 20
143.391029836639
 30
0.0
 10
162.0387301773076
 20
143.3841589134308
 30
0.0
 10
162.3583530842961
 20
143.3570258315293
 30
0.0
 10
162.5170303401588
 20
143.3364477072877
 30
0.0
 10
162.8200763977212
 20
143.2821723087124
 30
0.0
 10
162.963719519111
 20
143.2487947927671
 30
0.0
 10
163.2354637462112
 20
143.1691502482164
 30
0.0
 10
163.3641866373241
 20
143.1224074642481
 30
0.0
 10
163.5949739763671
 20
143.0189847913709
 30
0.0
 10
163.6985132658106
 20
142.9619929293946
 30
0.0
 10
163.8813861832613
 20
142.8365355610497
 30
0.0
 10
163.9592735072238
 20
142.7687862006663
 30
0.0
 10
164.1467310641882
 20
142.5557713628154
 30
0.0
 10
164.2132128105258
 20
142.3965684498769
 30
0.0
 10
164.2132128105258
 20
142.1487103255044
 30
0.0
  0
SPLINE
  5
F6
330
1F
100
AcDbEntity
  8
0
  6
HIDDEN
 62
     7
370
     0
100
AcDbSpline
210
0.0
220
0.0
230
1.0
 70
     8
 71
     3
 72
    66
 73
    62
 74
     0
 42
0.00000001
 43
0.00000001
 40
-0.0625000000000001
 40
-0.0625000000000001
 40
0.0
 40
0.0
 40
0.0312500000000001
 40
0.0312500000000001
 40
0.0625000000000002
 40
0.0625000000000002
 40
0.0937500000000002
 40
0.0937500000000002
 40
0.1250000000000003
 40
0.1250000000000003
 40
0.1562500000000004
 40
0.1562500000000004
 40
0.1875000000000004
 40
0.1875000000000004
 40
0.2187500000000005
 40
0.2187500000000005
 40
0.2500000000000006
 40
0.2500000000000006
 40
0.2812500000000007
 40
0.2812500000000007
 40
0.3125000000000008
 40
0.3125000000000008
 40
0.3437500000000008
 40
0.3437500000000008
 40
0.3750000000000009
 40
0.3750000000000009
 40
0.406250000000001
 40
0.406250000000001
 40
0.4375000000000011
 40
0.4375000000000011
 40
0.4687500000000012
 40
0.4687500000000012
 40
0.5000000000000012
 40
0.5000000000000012
 40
0.5312500000000013
 40
0.5312500000000013
 40
0.5625000000000013
 40
0.5625000000000013
 40
0.6250000000000013
 40
0.6250000000000013
 40
0.6562500000000011
 40
0.6562500000000011
 40
0.687500000000001
 40
0.687500000000001
 40
0.7187500000000009
 40
0.7187500000000009
 40
0.7500000000000007
 40
0.7500000000000007
 40
0.7812500000000006
 40
0.7812500000000006
 40
0.8125000000000004
 40
0.8125000000000004
 40
0.8437500000000003
 40
0.8437500000000003
 40
0.8750000000000001
 40
0.8750000000000001
 40
0.90625
 40
0.90625
 40
0.9374999999999999
 40
0.9374999999999999
 40
1.0
 40
1.0
 40
1.03125
 40
1.03125
 10
164.2132128105258
 20
90.43504422281055
 30
0.0
 10
164.2132128105258
 20
90.187186098438
 30
0.0
 10
164.1969917852309
 20
90.10713584050102
 30
0.0
 10
164.1334479162456
 20
89.95183089607374
 30
0.0
 10
164.0853487748398
 20
89.8757986464795
 30
0.0
 10
163.9598406316922
 20
89.73281010785313
 30
0.0
 10
163.8830474756236
 20
89.66598844946235
 30
0.0
 10
163.7016297989815
 20
89.54103763393928
 30
0.0
 10
163.5960812053149
 20
89.48272269879328
 30
0.0
 10
163.3655302503061
 20
89.37925449258627
 30
0.0
 10
163.2397193543145
 20
89.33338672691265
 30
0.0
 10
162.9664706004902
 20
89.25299605495869
 30
0.0
 10
162.8210623513605
 20
89.21921142236296
 30
0.0
 10
162.5202751363575
 20
89.16519763895174
 30
0.0
 10
162.3626738344765
 20
89.14455845354689
 30
0.0
 10
162.039937990768
 20
89.1169978713783
 30
0.0
 10
161.8776843681844
 20
89.11021156265565
 30
0.0
 10
161.551450425103
 20
89.11013598167516
 30
0.0
 10
161.3857571273688
 20
89.11706892637515
 30
0.0
 10
161.0650727289791
 20
89.14443699290801
 30
0.0
 10
160.9092002589818
 20
89.16472061858359
 30
0.0
 10
160.6064397175254
 20
89.21894843393977
 30
0.0
 10
160.4601192606547
 20
89.25300697434757
 30
0.0
 10
160.1892695583024
 20
89.33257395254954
 30
0.0
 10
160.0630034781784
 20
89.3783483782784
 30
0.0
 10
159.829509573097
 20
89.48305760621778
 30
0.0
 10
159.7260254422446
 20
89.54033492069473
 30
0.0
 10
159.5449290171539
 20
89.6647783068005
 30
0.0
 10
159.4666117848637
 20
89.73278109119148
 30
0.0
 10
159.3410636809179
 20
89.87581213472026
 30
0.0
 10
159.2937376300565
 20
89.950410223148
 30
0.0
 10
159.229685847286
 20
90.10609014248188
 30
0.0
 10
159.2132722467269
 20
90.1877644718757
 30
0.0
 10
159.2131537041481
 20
90.350938446438
 30
0.0
 10
159.2289179835402
 20
90.43320226298066
 30
0.0
 10
159.2928013158067
 20
90.59898205516194
 30
0.0
 10
159.3407548040701
 20
90.68131128188449
 30
0.0
 10
159.5274436117136
 20
90.91947483577997
 30
0.0
 10
159.7134826201029
 20
91.070759561301
 30
0.0
 10
160.0588703038174
 20
91.2614601063044
 30
0.0
 10
160.1873274575073
 20
91.32026379934102
 30
0.0
 10
160.4589546283797
 20
91.4220459905905
 30
0.0
 10
160.6024349338729
 20
91.46546912771424
 30
0.0
 10
160.9048467724427
 20
91.53672231234458
 30
0.0
 10
161.0637473835328
 20
91.56426375819947
 30
0.0
 10
161.3833343845089
 20
91.60071325668201
 30
0.0
 10
161.5457118616966
 20
91.61008084848179
 30
0.0
 10
161.8758407201497
 20
91.6102650227226
 30
0.0
 10
162.0387301773076
 20
91.60104114563359
 30
0.0
 10
162.3583530842961
 20
91.56492200281967
 30
0.0
 10
162.5170303401587
 20
91.53761026432443
 30
0.0
 10
162.8200763977211
 20
91.46657008716451
 30
0.0
 10
162.963719519111
 20
91.42326019600434
 30
0.0
 10
163.2354637462112
 20
91.32181204374163
 30
0.0
 10
163.3641866373242
 20
91.26310419470555
 30
0.0
 10
163.5949739763671
 20
91.13610450193552
 30
0.0
 10
163.6985132658106
 20
91.06739501913088
 30
0.0
 10
163.8813861832613
 20
90.91998746800526
 30
0.0
 10
163.9592735072238
 20
90.84217720347482
 30
0.0
 10
164.1467310641882
 20
90.60416448465871
 30
0.0
 10
164.2132128105258
 20
90.43504422281055
 30
0.0
 10
164.2132128105258
 20
90.187186098438
 30
0.0
  0
SPLINE
  5
F7
330
1F
100
AcDbEntity
  8
0
  6
HIDDEN
 62
     7
370
     0
100
AcDbSpline
210
0.0
220
0.0
230
1.0
 70
     8
 71
     3
 72
    66
 73
    62
 74
     0
 42
0.00000001
 43
0.00000001
 40
-0.0624999999999994
 40
-0.0624999999999994
 40
0.0
 40
0.0
 40
0.03125
 40
0.03125
 40
0.0625
 40
0.0625
 40
0.09375
 40
0.09375
 40
0.1250000000000001
 40
0.1250000000000001
 40
0.1562500000000001
 40
0.1562500000000001
 40
0.1875000000000001
 40
0.1875000000000001
 40
0.2187500000000001
 40
0.2187500000000001
 40
0.2500000000000001
 40
0.2500000000000001
 40
0.2812500000000001
 40
0.2812500000000001
 40
0.3125000000000001
 40
0.3125000000000001
 40
0.3437500000000002
 40
0.3437500000000002
 40
0.3750000000000002
 40
0.3750000000000002
 40
0.4062500000000002
 40
0.4062500000000002
 40
0.4375000000000002
 40
0.4375000000000002
 40
0.4687500000000002
 40
0.4687500000000002
 40
0.5000000000000002
 40
0.5000000000000002
 40
0.5312500000000002
 40
0.5312500000000002
 40
0.5625000000000002
 40
0.5625000000000002
 40
0.6250000000000004
 40
0.6250000000000004
 40
0.6562500000000004
 40
0.6562500000000004
 40
0.6875000000000004
 40
0.6875000000000004
 40
0.7187500000000004
 40
0.7187500000000004
 40
0.7500000000000004
 40
0.7500000000000004
 40
0.7812500000000004
 40
0.7812500000000004
 40
0.8125000000000004
 40
0.8125000000000004
 40
0.8437500000000004
 40
0.8437500000000004
 40
0.8750000000000006
 40
0.8750000000000006
 40
0.9062500000000006
 40
0.9062500000000006
 40
0.9375000000000006
 40
0.9375000000000006
 40
1.0
 40
1.0
 40
1.03125
 40
1.03125
 10
164.2132128105258
 20
115.9200900875986
 30
0.0
 10
164.2132128105258
 20
116.4158063363436
 30
0.0
 10
164.1969917852309
 20
116.5782695593549
 30
0.0
 10
164.1334479162456
 20
116.8978763315429
 30
0.0
 10
164.0853487748398
 20
117.0566810234236
 30
0.0
 10
163.9598406316922
 20
117.3594009101787
 30
0.0
 10
163.8830474756236
 20
117.5029657355953
 30
0.0
 10
163.7016297989815
 20
117.7746678056067
 30
0.0
 10
163.5960812053149
 20
117.9032557750368
 30
0.0
 10
163.3655302503061
 20
118.1337613415192
 30
0.0
 10
163.2397193543144
 20
118.2372216541509
 30
0.0
 10
162.9664706004901
 20
118.4199826055161
 30
0.0
 10
162.8210623513605
 20
118.4976046171399
 30
0.0
 10
162.5202751363575
 20
118.6223088085736
 30
0.0
 10
162.3626738344764
 20
118.6703344939028
 30
0.0
 10
162.039937990768
 20
118.7345809045846
 30
0.0
 10
161.8776843681844
 20
118.7504788373741
 30
0.0
 10
161.551450425103
 20
118.7506556021883
 30
0.0
 10
161.3857571273688
 20
118.734415395946
 30
0.0
 10
161.0650727289791
 20
118.670617503254
 30
0.0
 10
160.9092002589818
 20
118.6234137489665
 30
0.0
 10
160.6064397175253
 20
118.4982082193229
 30
0.0
 10
160.4601192606547
 20
118.4199632585865
 30
0.0
 10
160.1892695583024
 20
118.2390640010565
 30
0.0
 10
160.0630034781784
 20
118.1357847859839
 30
0.0
 10
159.829509573097
 20
117.9025048864525
 30
0.0
 10
159.7260254422446
 20
117.7762136956789
 30
0.0
 10
159.5449290171539
 20
117.5055795698565
 30
0.0
 10
159.4666117848637
 20
117.3594624934602
 30
0.0
 10
159.3410636809179
 20
117.0566523152538
 30
0.0
 10
159.2937376300565
 20
116.9008243349472
 30
0.0
 10
159.229685847286
 20
116.5803975586091
 30
0.0
 10
159.2132722467269
 20
116.4146581683443
 30
0.0
 10
159.2131537041481
 20
116.0882931090735
 30
0.0
 10
159.2289179835402
 20
115.9260630396977
 30
0.0
 10
159.2928013158067
 20
115.6035496699429
 30
0.0
 10
159.3407548040701
 20
115.4456097466998
 30
0.0
 10
159.5274436117136
 20
114.9941960349441
 30
0.0
 10
159.7134826201029
 20
114.7152102693039
 30
0.0
 10
160.0588703038174
 20
114.3691554569541
 30
0.0
 10
160.1873274575073
 20
114.2635159885925
 30
0.0
 10
160.4589546283797
 20
114.0818037506415
 30
0.0
 10
160.6024349338729
 20
114.0049082118758
 30
0.0
 10
160.9048467724428
 20
113.8792055587811
 30
0.0
 10
161.0637473835328
 20
113.830909077212
 30
0.0
 10
161.3833343845089
 20
113.7670755155555
 30
0.0
 10
161.5457118616967
 20
113.7507296472512
 30
0.0
 10
161.8758407201497
 20
113.7504079009244
 30
0.0
 10
162.0387301773076
 20
113.7665027012217
 30
0.0
 10
162.3583530842961
 20
113.829754925937
 30
0.0
 10
162.5170303401588
 20
113.8776447886738
 30
0.0
 10
162.8200763977211
 20
114.0029603644091
 30
0.0
 10
162.963719519111
 20
114.0796477715145
 30
0.0
 10
163.2354637462112
 20
114.260740468328
 30
0.0
 10
163.3641866373241
 20
114.3661911013323
 30
0.0
 10
163.5949739763671
 20
114.5966134669796
 30
0.0
 10
163.6985132658106
 20
114.7223148117605
 30
0.0
 10
163.8813861832613
 20
114.995179731231
 30
0.0
 10
163.9592735072238
 20
115.1407393561448
 30
0.0
 10
164.1467310641882
 20
115.5917669128119
 30
0.0
 10
164.2132128105258
 20
115.9200900875986
 30
0.0
 10
164.2132128105258
 20
116.4158063363436
 30
0.0
  0
LINE
  5
F8
330
1F
100
AcDbEntity
  8
0
  6
HIDDEN
 62
     7
370
     0
100
AcDbLine
 10
148.6632140801
 20
146.2505669162
 30
0.0
 11
148.6632140801
 21
86.2505682573
 31
0.0
  0
SPLINE
  5
F9
330
1F
100
AcDbEntity
  8
0
  6
HIDDEN
 62
     7
370
     0
100
AcDbSpline
210
0.0
220
0.0
230
1.0
 70
     8
 71
     3
 72
    70
 73
    66
 74
     0
 42
0.00000001
 43
0.00000001
 40
-0.03125
 40
-0.03125
 40
0.0
 40
0.0
 40
0.03125
 40
0.03125
 40
0.0625
 40
0.0625
 40
0.09375
 40
0.09375
 40
0.125
 40
0.125
 40
0.15625
 40
0.15625
 40
0.1875
 40
0.1875
 40
0.2187499999999999
 40
0.2187499999999999
 40
0.2499999999999999
 40
0.2499999999999999
 40
0.2812499999999999
 40
0.2812499999999999
 40
0.3124999999999999
 40
0.3124999999999999
 40
0.3437499999999999
 40
0.3437499999999999
 40
0.3749999999999999
 40
0.3749999999999999
 40
0.4062499999999999
 40
0.4062499999999999
 40
0.4374999999999999
 40
0.4374999999999999
 40
0.4687499999999999
 40
0.4687499999999999
 40
0.5
 40
0.5
 40
0.53125
 40
0.53125
 40
0.5625
 40
0.5625
 40
0.59375
 40
0.59375
 40
0.625
 40
0.625
 40
0.65625
 40
0.65625
 40
0.6875
 40
0.6875
 40
0.71875
 40
0.71875
 40
0.75
 40
0.75
 40
0.78125
 40
0.78125
 40
0.8125
 40
0.8125
 40
0.84375
 40
0.84375
 40
0.875
 40
0.875
 40
0.90625
 40
0.90625
 40
0.9375
 40
0.9375
 40
0.96875
 40
0.96875
 40
1.0
 40
1.0
 40
1.03125
 40
1.03125
 10
170.1632128105259
 20
116.5516272957124
 30
0.0
 10
170.1632128105258
 20
115.9495078778114
 30
0.0
 10
170.1927978108338
 20
115.6535651002662
 30
0.0
 10
170.3086368437465
 20
115.0714686548681
 30
0.0
 10
170.3963282533555
 20
114.7822658849429
 30
0.0
 10
170.6248602919636
 20
114.2314648525094
 30
0.0
 10
170.7646444070001
 20
113.970296619781
 30
0.0
 10
171.0948182425919
 20
113.4760317929896
 30
0.0
 10
171.2867074490814
 20
113.242350432155
 30
0.0
 10
171.7058273672013
 20
112.8233322233007
 30
0.0
 10
171.9345958346741
 20
112.6351495075657
 30
0.0
 10
172.4317879149555
 20
112.3025224208928
 30
0.0
 10
172.6959507936844
 20
112.1614451198252
 30
0.0
 10
173.2432333881378
 20
111.9343853510409
 30
0.0
 10
173.5304102252472
 20
111.8467968579101
 30
0.0
 10
174.1179243679009
 20
111.729743518286
 30
0.0
 10
174.4134246725689
 20
111.7007370162933
 30
0.0
 10
175.0078357060208
 20
111.7003996231499
 30
0.0
 10
175.3097871771862
 20
111.7300362030279
 30
0.0
 10
175.8936576739042
 20
111.8462907005065
 30
0.0
 10
176.1774892229446
 20
111.9323013354151
 30
0.0
 10
176.7288850945361
 20
112.1605071870906
 30
0.0
 10
176.9946948892988
 20
112.3027763670192
 30
0.0
 10
177.4872146206332
 20
112.6318482072077
 30
0.0
 10
177.717412334237
 20
112.8202375898035
 30
0.0
 10
178.1415321245993
 20
113.2440737239626
 30
0.0
 10
178.3294844219099
 20
113.4733737018575
 30
0.0
 10
178.6590080292049
 20
113.9656329413285
 30
0.0
 10
178.8017278272728
 20
114.2318181114977
 30
0.0
 10
179.0301070933332
 20
114.7823277435787
 30
0.0
 10
179.1163672811499
 20
115.0659259888957
 30
0.0
 10
179.2331957999216
 20
115.6498190677091
 30
0.0
 10
179.263098057173
 20
115.9516689260115
 30
0.0
 10
179.2633268892832
 20
116.5459623012543
 30
0.0
 10
179.2346142454607
 20
116.8415979186825
 30
0.0
 10
179.1179684700983
 20
117.4297687437087
 30
0.0
 10
179.0307723405794
 20
117.7165277703673
 30
0.0
 10
178.8040868628528
 20
118.2642977185002
 30
0.0
 10
178.6626870972108
 20
118.5294560475168
 30
0.0
 10
178.3309497455955
 20
119.0261142403746
 30
0.0
 10
178.1430622907101
 20
119.2549957124125
 30
0.0
 10
177.7240355622339
 20
119.6748050459223
 30
0.0
 10
177.4903251687915
 20
119.8669546745749
 30
0.0
 10
176.9969379038064
 20
120.1971114314002
 30
0.0
 10
176.735959757294
 20
120.3371383480595
 30
0.0
 10
176.1848420177023
 20
120.5663378858322
 30
0.0
 10
175.8961804343675
 20
120.6540976145515
 30
0.0
 10
175.3144358996946
 20
120.7704149184483
 30
0.0
 10
175.0177895553798
 20
120.8003122557366
 30
0.0
 10
174.416313098651
 20
120.800819679499
 30
0.0
 10
174.1204464432836
 20
120.7715458280975
 30
0.0
 10
173.5380704464626
 20
120.656206774093
 30
0.0
 10
173.2484856659534
 20
120.5686510190764
 30
0.0
 10
172.6978941114838
 20
120.3407705985656
 30
0.0
 10
172.4365778669186
 20
120.2012509770988
 30
0.0
 10
171.9416397685994
 20
119.8712510568271
 30
0.0
 10
171.7079847064511
 20
119.6796851516784
 30
0.0
 10
171.2887496736414
 20
119.2610983465549
 30
0.0
 10
171.1002554227399
 20
119.0324242461779
 30
0.0
 10
170.7668032447526
 20
118.534870346614
 30
0.0
 10
170.6259070510927
 20
118.2715118080316
 30
0.0
 10
170.3983377778082
 20
117.7243848646526
 30
0.0
 10
170.3104088383585
 20
117.4370272636461
 30
0.0
 10
170.1928017944648
 20
116.8491105075946
 30
0.0
 10
170.1632128105259
 20
116.5516272957124
 30
0.0
 10
170.1632128105258
 20
115.9495078778114
 30
0.0
  0
SPLINE
  5
FA
330
1F
100
AcDbEntity
  8
0
  6
HIDDEN
 62
     7
370
     0
100
AcDbSpline
210
0.0
220
0.0
230
1.0
 70
     8
 71
     3
 72
    70
 73
    66
 74
     0
 42
0.00000001
 43
0.00000001
 40
-0.0312500000000001
 40
-0.0312500000000001
 40
0.0
 40
0.0
 40
0.0312499999999999
 40
0.0312499999999999
 40
0.0624999999999998
 40
0.0624999999999998
 40
0.0937499999999998
 40
0.0937499999999998
 40
0.1249999999999997
 40
0.1249999999999997
 40
0.1562499999999996
 40
0.1562499999999996
 40
0.1874999999999995
 40
0.1874999999999995
 40
0.2187499999999994
 40
0.2187499999999994
 40
0.2499999999999993
 40
0.2499999999999993
 40
0.2812499999999992
 40
0.2812499999999992
 40
0.3124999999999992
 40
0.3124999999999992
 40
0.3437499999999991
 40
0.3437499999999991
 40
0.374999999999999
 40
0.374999999999999
 40
0.4062499999999989
 40
0.4062499999999989
 40
0.4374999999999988
 40
0.4374999999999988
 40
0.4687499999999988
 40
0.4687499999999988
 40
0.4999999999999987
 40
0.4999999999999987
 40
0.5312499999999986
 40
0.5312499999999986
 40
0.5624999999999984
 40
0.5624999999999984
 40
0.5937499999999984
 40
0.5937499999999984
 40
0.6249999999999983
 40
0.6249999999999983
 40
0.6562499999999982
 40
0.6562499999999982
 40
0.6874999999999982
 40
0.6874999999999982
 40
0.7187499999999981
 40
0.7187499999999981
 40
0.7499999999999981
 40
0.7499999999999981
 40
0.7812499999999983
 40
0.7812499999999983
 40
0.8124999999999986
 40
0.8124999999999986
 40
0.8437499999999989
 40
0.8437499999999989
 40
0.8749999999999991
 40
0.8749999999999991
 40
0.9062499999999993
 40
0.9062499999999993
 40
0.9374999999999996
 40
0.9374999999999996
 40
0.9687499999999999
 40
0.9687499999999999
 40
1.0
 40
1.0
 40
1.03125
 40
1.03125
 10
174.4121522763389
 20
144.2057764060063
 30
0.0
 10
175.0142733447128
 20
144.2057764060063
 30
0.0
 10
175.3102147905926
 20
144.1949522527818
 30
0.0
 10
175.8923056358173
 20
144.1521237165433
 30
0.0
 10
176.1815040223026
 20
144.1195802111871
 30
0.0
 10
176.732292359313
 20
144.0333186337489
 30
0.0
 10
176.9934553608107
 20
143.9800006742811
 30
0.0
 10
177.4877156064065
 20
143.8512691507903
 30
0.0
 10
177.7213943667142
 20
143.7752180926187
 30
0.0
 10
178.1404149088167
 20
143.6048086384293
 30
0.0
 10
178.3286026860621
 20
143.5098773030647
 30
0.0
 10
178.6612424304737
 20
143.2977200869741
 30
0.0
 10
178.8023245884654
 20
143.1822551835466
 30
0.0
 10
179.0293919403946
 20
142.9362022471867
 30
0.0
 10
179.1169828332079
 20
142.8037789938719
 30
0.0
 10
179.2340369939155
 20
142.525105378256
 30
0.0
 10
179.2630436734306
 20
142.381200505757
 30
0.0
 10
179.2633804867591
 20
142.0840368654158
 30
0.0
 10
179.2337433032781
 20
141.9291327676447
 30
0.0
 10
179.117487494021
 20
141.6222144112761
 30
0.0
 10
179.0314753547525
 20
141.4693211237062
 30
0.0
 10
178.8032629797441
 20
141.1658750671041
 30
0.0
 10
178.6609870672093
 20
141.0162168227099
 30
0.0
 10
178.3319047675798
 20
140.7338856359632
 30
0.0
 10
178.1435147806084
 20
140.5992749353846
 30
0.0
 10
177.7196705327031
 20
140.3476090002454
 30
0.0
 10
177.4903699168496
 20
140.2341311061022
 30
0.0
 10
176.9981167550719
 20
140.0331191489179
 30
0.0
 10
176.7319390348055
 20
139.9448542973211
 30
0.0
 10
176.181441287312
 20
139.8026860433781
 30
0.0
 10
175.8978492298958
 20
139.748440839119
 30
0.0
 10
175.3139654565701
 20
139.6748117292294
 30
0.0
 10
175.0121137582512
 20
139.6558491328427
 30
0.0
 10
174.4178206803315
 20
139.6557041072988
 30
0.0
 10
174.1221872592617
 20
139.6739143413614
 30
0.0
 10
173.5340246354236
 20
139.7474329684887
 30
0.0
 10
173.2472663806117
 20
139.8022661807573
 30
0.0
 10
172.6995042994105
 20
139.9433912116252
 30
0.0
 10
172.4343495610091
 20
140.0308642253031
 30
0.0
 10
171.9377026587456
 20
140.23325002633
 30
0.0
 10
171.7088221634588
 20
140.3466751068636
 30
0.0
 10
171.2890072991993
 20
140.5953672235423
 30
0.0
 10
171.0968519668145
 20
140.7320841584022
 30
0.0
 10
170.7666854942293
 20
141.0149507034204
 30
0.0
 10
170.6266532303431
 20
141.161922195068
 30
0.0
 10
170.3974457114895
 20
141.4653323577514
 30
0.0
 10
170.3096841522978
 20
141.6208591749058
 30
0.0
 10
170.1933648821737
 20
141.926724003568
 30
0.0
 10
170.1634676538933
 20
142.079013200708
 30
0.0
 10
170.1629611932396
 20
142.3798145013444
 30
0.0
 10
170.1922348843586
 20
142.5238677036589
 30
0.0
 10
170.3075757627952
 20
142.8001906829749
 30
0.0
 10
170.3951338234715
 20
142.9338137321413
 30
0.0
 10
170.623021450254
 20
143.1814108623113
 30
0.0
 10
170.7625458409987
 20
143.2956334283379
 30
0.0
 10
171.0925540727192
 20
143.5069118236242
 30
0.0
 10
171.2841267419331
 20
143.6039178043699
 30
0.0
 10
171.7027202069098
 20
143.774401632498
 30
0.0
 10
171.931393947939
 20
143.8491316248534
 30
0.0
 10
172.4289374845178
 20
143.979177131173
 30
0.0
 10
172.6922918001065
 20
144.0329183251957
 30
0.0
 10
173.2394066095651
 20
144.1188268967188
 30
0.0
 10
173.526756685499
 20
144.1514667649035
 30
0.0
 10
174.1146701040807
 20
144.1949523412079
 30
0.0
 10
174.4121522763389
 20
144.2057764060063
 30
0.0
 10
175.0142733447128
 20
144.2057764060063
 30
0.0
  0
SPLINE
  5
FB
330
1F
100
AcDbEntity
  8
0
  6
HIDDEN
 62
     7
370
     0
100
AcDbSpline
210
0.0
220
0.0
230
1.0
 70
     8
 71
     3
 72
    70
 73
    66
 74
     0
 42
0.00000001
 43
0.00000001
 40
-0.0312499999999998
 40
-0.0312499999999998
 40
0.0
 40
0.0
 40
0.03125
 40
0.03125
 40
0.0625000000000001
 40
0.0625000000000001
 40
0.0937500000000001
 40
0.0937500000000001
 40
0.1250000000000001
 40
0.1250000000000001
 40
0.1562500000000001
 40
0.1562500000000001
 40
0.1875000000000002
 40
0.1875000000000002
 40
0.2187500000000002
 40
0.2187500000000002
 40
0.2500000000000002
 40
0.2500000000000002
 40
0.2812500000000002
 40
0.2812500000000002
 40
0.3125000000000003
 40
0.3125000000000003
 40
0.3437500000000003
 40
0.3437500000000003
 40
0.3750000000000003
 40
0.3750000000000003
 40
0.4062500000000003
 40
0.4062500000000003
 40
0.4375000000000004
 40
0.4375000000000004
 40
0.4687500000000004
 40
0.4687500000000004
 40
0.5000000000000004
 40
0.5000000000000004
 40
0.5312500000000004
 40
0.5312500000000004
 40
0.5625000000000004
 40
0.5625000000000004
 40
0.5937500000000006
 40
0.5937500000000006
 40
0.6250000000000006
 40
0.6250000000000006
 40
0.6562500000000006
 40
0.6562500000000006
 40
0.6875000000000007
 40
0.6875000000000007
 40
0.7187500000000007
 40
0.7187500000000007
 40
0.7500000000000007
 40
0.7500000000000007
 40
0.7812500000000007
 40
0.7812500000000007
 40
0.8125000000000006
 40
0.8125000000000006
 40
0.8437500000000006
 40
0.8437500000000006
 40
0.8750000000000004
 40
0.8750000000000004
 40
0.9062500000000003
 40
0.9062500000000003
 40
0.9375000000000002
 40
0.9375000000000002
 40
0.9687500000000002
 40
0.9687500000000002
 40
1.0
 40
1.0
 40
1.03125
 40
1.03125
 10
174.4121522763389
 20
92.84535876751733
 30
0.0
 10
175.0142733447128
 20
92.84535876751733
 30
0.0
 10
175.3102147905926
 20
92.8265977970213
 30
0.0
 10
175.8923056358173
 20
92.75358886318388
 30
0.0
 10
176.1815040223026
 20
92.69844257857099
 30
0.0
 10
176.732292359313
 20
92.55617997144861
 30
0.0
 10
176.9934553608107
 20
92.46971898446553
 30
0.0
 10
177.4877156064065
 20
92.26828553416709
 30
0.0
 10
177.7213943667141
 20
92.15245356313889
 30
0.0
 10
178.1404149088168
 20
91.90374973719656
 30
0.0
 10
178.328602686062
 20
91.7699123524085
 30
0.0
 10
178.6612424304737
 20
91.48486786980024
 30
0.0
 10
178.8023245884654
 20
91.33616471219167
 30
0.0
 10
179.0293919403946
 20
91.03492289291816
 30
0.0
 10
179.1169828332078
 20
90.88016179959271
 30
0.0
 10
179.2340369939155
 20
90.57131817085995
 30
0.0
 10
179.2630436734306
 20
90.41972071004675
 30
0.0
 10
179.2633804867591
 20
90.12246859075347
 30
0.0
 10
179.2337433032781
 20
89.97542091062569
 30
0.0
 10
179.1174874940211
 20
89.69846748968462
 30
0.0
 10
179.0314753547525
 20
89.56752555524015
 30
0.0
 10
178.8032629797441
 20
89.31956622849549
 30
0.0
 10
178.6609870672093
 20
89.20340620324575
 30
0.0
 10
178.3319047675798
 20
88.99321136529487
 30
0.0
 10
178.1435147806084
 20
88.89762843829561
 30
0.0
 10
177.7196705327031
 20
88.72517492553499
 30
0.0
 10
177.4903699168497
 20
88.65070465583736
 30
0.0
 10
176.998116755072
 20
88.5222034350843
 30
0.0
 10
176.7319390348055
 20
88.46775488511824
 30
0.0
 10
176.181441287312
 20
88.38155146071671
 30
0.0
 10
175.8978492298958
 20
88.34953879185908
 30
0.0
 10
175.3139654565701
 20
88.30634131642935
 30
0.0
 10
175.0121137582512
 20
88.29540095397911
 30
0.0
 10
174.4178206803315
 20
88.29531682939933
 30
0.0
 10
174.1221872592617
 20
88.30581905735873
 30
0.0
 10
173.5340246354235
 20
88.34894336269834
 30
0.0
 10
173.2472663806117
 20
88.38130512056199
 30
0.0
 10
172.6995042994105
 20
88.46685961273826
 30
0.0
 10
172.434349561009
 20
88.52078275079356
 30
0.0
 10
171.9377026587456
 20
88.65012090266663
 30
0.0
 10
171.7088221634588
 20
88.72457769497365
 30
0.0
 10
171.2890072991993
 20
88.89490879352935
 30
0.0
 10
171.0968519668145
 20
88.99190394889928
 30
0.0
 10
170.7666854942293
 20
89.202430166094
 30
0.0
 10
170.626653230343
 20
89.31644234503311
 30
0.0
 10
170.3974457114895
 20
89.56416271551124
 30
0.0
 10
170.3096841522977
 20
89.6973021805011
 30
0.0
 10
170.1933648821737
 20
89.97319040953832
 30
0.0
 10
170.1634676538932
 20
90.11755591953698
 30
0.0
 10
170.1629611932396
 20
90.41822417585591
 30
0.0
 10
170.1922348843586
 20
90.570037550044
 30
0.0
 10
170.3075757627952
 20
90.8760955363766
 30
0.0
 10
170.3951338234716
 20
91.03206292992643
 30
0.0
 10
170.6230214502541
 20
91.33506755817064
 30
0.0
 10
170.7625458409987
 20
91.48216568745221
 30
0.0
 10
171.0925540727192
 20
91.76582911451932
 30
0.0
 10
171.2841267419331
 20
91.90248155950428
 30
0.0
 10
171.7027202069098
 20
92.15123035124363
 30
0.0
 10
171.9313939479389
 20
92.26498937787134
 30
0.0
 10
172.4289374845179
 20
92.46838288279078
 30
0.0
 10
172.6922918001065
 20
92.55553357138996
 30
0.0
 10
173.2394066095651
 20
92.69718660730113
 30
0.0
 10
173.526756685499
 20
92.75247322033763
 30
0.0
 10
174.1146701040808
 20
92.82659376222664
 30
0.0
 10
174.4121522763389
 20
92.84535876751733
 30
0.0
 10
175.0142733447128
 20
92.84535876751733
 30
0.0
  0
ARC
  5
FC
330
1F
100
AcDbEntity
  8
0
  6
HIDDEN
 62
     7
370
     0
100
AcDbCircle
 10
109.9931686599
 20
128.7494883478
 30
0.0
 40
3.679670990502847
100
AcDbArc
 50
265.6366256752
 51
11.9475298484
  0
ARC
  5
FD
330
1F
100
AcDbEntity
  8
0
  6
HIDDEN
 62
     7
370
     0
100
AcDbCircle
 10
109.4300015438
 20
128.7415830288
 30
0.0
 40
3.672038336051066
100
AcDbArc
 50
166.4655654762
 51
274.4234186471
  0
LINE
  5
FE
330
1F
100
AcDbEntity
  8
0
  6
HIDDEN
 62
     7
370
     0
100
AcDbLine
 10
210.7132101879
 20
145.5990993247
 30
0.0
 11
210.7132101879
 21
86.9020358488
 31
0.0
  0
LINE
  5
FF
330
1F
100
AcDbEntity
  8
0
  6
HIDDEN
 62
     7
370
     0
100
AcDbLine
 10
212.6132125483
 20
145.5990993247
 30
0.0
 11
212.6132125483
 21
86.9020358488
 31
0.0
  0
SPLINE
  5
100
330
1F
100
AcDbEntity
  8
0
  6
HIDDEN
 62
     7
370
     0
100
AcDbSpline
210
0.0
220
0.0
230
1.0
 70
     8
 71
     3
 72
    10
 73
     6
 74
     0
 42
0.00000001
 43
0.00000001
 40
0.0
 40
0.0
 40
0.0
 40
0.0
 40
0.5
 40
0.5
 40
1.0
 40
1.0
 40
1.0
 40
1.0
 10
121.6232128105258
 20
89.44617195843261
 30
0.0
 10
121.6232128105258
 20
89.51640831880337
 30
0.0
 10
121.6149301984353
 20
89.58640242030086
 30
0.0
 10
121.5818302553767
 20
89.7233616848598
 30
0.0
 10
121.5574928634182
 20
89.78866959411505
 30
0.0
 10
121.5255380081936
 20
89.85056758676195
 30
0.0
  0
LINE
  5
101
330
1F
100
AcDbEntity
  8
0
  6
HIDDEN
 62
     7
370
     0
100
AcDbLine
 10
121.6232130752
 20
136.3864340648
 30
0.0
 11
121.6232130752
 21
143.3702208862
 31
0.0
  0
SPLINE
  5
102
330
1F
100
AcDbEntity
  8
0
  6
HIDDEN
 62
     7
370
     0
100
AcDbSpline
210
0.0
220
0.0
230
1.0
 70
    24
 71
     3
 72
    10
 73
     6
 74
     0
 42
0.00000001
 43
0.00000001
 40
0.0
 40
0.0
 40
0.0
 40
0.0
 40
0.5
 40
0.5
 40
1.0
 40
1.0
 40
1.0
 40
1.0
 10
121.5970651873657
 20
136.1005675867619
 30
0.0
 10
121.6057429622734
 20
136.1005675867619
 30
0.0
 10
121.6122959862802
 20
136.1005675867619
 30
0.0
 10
121.6210305957773
 20
136.1005675867619
 30
0.0
 10
121.6232128105258
 20
136.1005675867619
 30
0.0
 10
121.6232128105258
 20
136.1005675867619
 30
0.0
  0
LINE
  5
103
330
1F
100
AcDbEntity
  8
0
  6
HIDDEN
 62
     7
370
     0
100
AcDbLine
 10
121.6232130752
 20
89.4461725668
 30
0.0
 11
121.6232130752
 21
136.1005683259
 31
0.0
  0
SPLINE
  5
104
330
1F
100
AcDbEntity
  8
0
  6
HIDDEN
 62
     7
370
     0
100
AcDbSpline
210
0.0
220
0.0
230
1.0
 70
     8
 71
     3
 72
    10
 73
     6
 74
     0
 42
0.00000001
 43
0.00000001
 40
0.0
 40
0.0
 40
0.0
 40
0.0
 40
0.5
 40
0.5
 40
1.0
 40
1.0
 40
1.0
 40
1.0
 10
117.9008876128581
 20
89.85056758676194
 30
0.0
 10
117.8687324252361
 20
89.78828154124585
 30
0.0
 10
117.8440761940419
 20
89.72175111637664
 30
0.0
 10
117.8112634371164
 20
89.58489248601423
 30
0.0
 10
117.8032128105258
 20
89.5158348908359
 30
0.0
 10
117.8032128105258
 20
89.44617195843261
 30
0.0
  0
SPLINE
  5
105
330
1F
100
AcDbEntity
  8
0
  6
HIDDEN
 62
     7
370
     0
100
AcDbSpline
210
0.0
220
0.0
230
1.0
 70
    24
 71
     3
 72
    10
 73
     6
 74
     0
 42
0.00000001
 43
0.00000001
 40
0.0
 40
0.0
 40
0.0
 40
0.0
 40
0.5
 40
0.5
 40
1.0
 40
1.0
 40
1.0
 40
1.0
 10
117.8032128105258
 20
136.1005675867619
 30
0.0
 10
117.8032128105258
 20
136.1005675867619
 30
0.0
 10
117.8054292659439
 20
136.1005675867619
 30
0.0
 10
117.8141692609709
 20
136.1005675867619
 30
0.0
 10
117.820683652031
 20
136.1005675867619
 30
0.0
 10
117.829360433686
 20
136.1005675867619
 30
0.0
  0
LINE
  5
106
330
1F
100
AcDbEntity
  8
0
  6
HIDDEN
 62
     7
370
     0
100
AcDbLine
 10
117.8032128588
 20
136.3864340648
 30
0.0
 11
117.8032128588
 21
143.3702208862
 31
0.0
  0
LINE
  5
107
330
1F
100
AcDbEntity
  8
0
  6
HIDDEN
 62
     7
370
     0
100
AcDbLine
 10
117.8032128588
 20
89.4461725668
 30
0.0
 11
117.8032128588
 21
136.1005683259
 31
0.0
  0
LWPOLYLINE
  5
108
330
1F
100
AcDbEntity
  8
0
  6
HIDDEN
 62
     7
370
     0
100
AcDbPolyline
 90
        2
 70
   128
 43
0.0
 10
214.1132155881
 20
104.7255671412
 10
214.1132155881
 20
104.7255671412
  0
LWPOLYLINE
  5
109
330
1F
100
AcDbEntity
  8
0
  6
HIDDEN
 62
     7
370
     0
100
AcDbPolyline
 90
        2
 70
   128
 43
0.0
 10
214.1132155881
 20
127.7755680323
 10
214.1132155881
 20
127.7755680323
  0
LINE
  5
10A
330
1F
100
AcDbEntity
  8
0
  6
HIDDEN
 62
     7
370
     0
100
AcDbLine
 10
221.7132101283
 20
87.4505680815
 30
0.0
 11
221.7132101283
 21
102.5255671531
 31
0.0
  0
SPLINE
  5
10B
330
1F
100
AcDbEntity
  8
0
  6
HIDDEN
 62
     7
370
     0
100
AcDbSpline
210
0.0
220
0.0
230
1.0
 70
    24
 71
     3
 72
     8
 73
     4
 74
     0
 42
0.00000001
 43
0.00000001
 40
0.0
 40
0.0
 40
0.0
 40
0.0
 40
1.0
 40
1.0
 40
1.0
 40
1.0
 10
221.7132128105258
 20
102.525567586762
 30
0.0
 10
221.3217181006617
 20
102.9170622966261
 30
0.0
 10
220.9214503254593
 20
103.3173300718285
 30
0.0
 10
220.5132128105258
 20
103.725567586762
 30
0.0
  0
LWPOLYLINE
  5
10C
330
1F
100
AcDbEntity
  8
0
  6
HIDDEN
 62
     7
370
     0
100
AcDbPolyline
 90
        2
 70
   128
 43
0.0
 10
220.5132121668
 20
103.7255679086
 10
220.5132121668
 20
103.7255679086
  0
LWPOLYLINE
  5
10D
330
1F
100
AcDbEntity
  8
0
  6
HIDDEN
 62
     7
370
     0
100
AcDbPolyline
 90
        2
 70
   128
 43
0.0
 10
215.1132101641
 20
103.7255679086
 10
215.1132101641
 20
103.7255679086
  0
SPLINE
  5
10E
330
1F
100
AcDbEntity
  8
0
  6
HIDDEN
 62
     7
370
     0
100
AcDbSpline
210
0.0
220
0.0
230
1.0
 70
    24
 71
     3
 72
     8
 73
     4
 74
     0
 42
0.00000001
 43
0.00000001
 40
0.0
 40
0.0
 40
0.0
 40
0.0
 40
1.0
 40
1.0
 40
1.0
 40
1.0
 10
220.5132128105258
 20
128.775567586762
 30
0.0
 10
220.9214503254593
 20
129.1838051016954
 30
0.0
 10
221.3217181006617
 20
129.5840728768979
 30
0.0
 10
221.7132128105258
 20
129.975567586762
 30
0.0
  0
LINE
  5
10F
330
1F
100
AcDbEntity
  8
0
  6
HIDDEN
 62
     7
370
     0
100
AcDbLine
 10
221.7132101283
 20
129.9755680204
 30
0.0
 11
221.7132101283
 21
145.050567092
 31
0.0
  0
LWPOLYLINE
  5
110
330
1F
100
AcDbEntity
  8
0
  6
HIDDEN
 62
     7
370
     0
100
AcDbPolyline
 90
        2
 70
   128
 43
0.0
 10
215.1132101641
 20
128.7755672649
 10
215.1132101641
 20
128.7755672649
  0
LWPOLYLINE
  5
111
330
1F
100
AcDbEntity
  8
0
  6
HIDDEN
 62
     7
370
     0
100
AcDbPolyline
 90
        2
 70
   128
 43
0.0
 10
220.5132121668
 20
128.7755672649
 10
220.5132121668
 20
128.7755672649
  0
SPLINE
  5
112
330
1F
100
AcDbEntity
  8
0
  6
HIDDEN
 62
     7
370
     0
100
AcDbSpline
210
0.0
220
0.0
230
1.0
 70
    27
 71
     3
 72
    20
 73
    16
 74
     0
 42
0.00000001
 43
0.00000001
 40
0.0
 40
0.0
 40
0.0
 40
0.0
 40
0.2500000000000001
 40
0.2500000000000001
 40
0.3750000000000001
 40
0.3750000000000001
 40
0.4375000000000001
 40
0.4375000000000001
 40
0.4687500000000001
 40
0.4687500000000001
 40
0.5000000000000001
 40
0.5000000000000001
 40
0.7500000000000001
 40
0.7500000000000001
 40
1.0
 40
1.0
 40
1.0
 40
1.0
 10
127.6632128105258
 20
142.6505675867619
 30
0.0
 10
127.6632128105258
 20
142.650567586762
 30
0.0
 10
127.7210422073128
 20
142.6505675867619
 30
0.0
 10
127.7979006859541
 20
142.650567586762
 30
0.0
 10
127.8221696649039
 20
142.650567586762
 30
0.0
 10
127.8472192839415
 20
142.6505675867619
 30
0.0
 10
127.8537014928057
 20
142.6505675867619
 30
0.0
 10
127.8599077228856
 20
142.650567586762
 30
0.0
 10
127.8613947453341
 20
142.6505675867619
 30
0.0
 10
127.8631476135429
 20
142.650567586762
 30
0.0
 10
127.8633996491633
 20
142.6505675867619
 30
0.0
 10
127.8604620280159
 20
142.6505675867619
 30
0.0
 10
127.8165839584379
 20
142.650567586762
 30
0.0
 10
127.7172001599588
 20
142.6505675867619
 30
0.0
 10
127.6632128105258
 20
142.6505675867619
 30
0.0
 10
127.6632128105258
 20
142.6505675867619
 30
0.0
  0
LINE
  5
113
330
1F
100
AcDbEntity
  8
0
  6
HIDDEN
 62
     7
370
     0
100
AcDbLine
 10
127.6632125006
 20
142.6505674437
 30
0.0
 11
127.6632125006
 21
89.8505677298
 31
0.0
  0
SPLINE
  5
114
330
1F
100
AcDbEntity
  8
0
  6
HIDDEN
 62
     7
370
     0
100
AcDbSpline
210
0.0
220
0.0
230
1.0
 70
    27
 71
     3
 72
    20
 73
    16
 74
     0
 42
0.00000001
 43
0.00000001
 40
0.0
 40
0.0
 40
0.0
 40
0.0
 40
0.2500000000000001
 40
0.2500000000000001
 40
0.3750000000000001
 40
0.3750000000000001
 40
0.4375000000000001
 40
0.4375000000000001
 40
0.4687500000000001
 40
0.4687500000000001
 40
0.5000000000000001
 40
0.5000000000000001
 40
0.7500000000000001
 40
0.7500000000000001
 40
1.0
 40
1.0
 40
1.0
 40
1.0
 10
127.6632128105258
 20
89.85056758676194
 30
0.0
 10
127.6632128105258
 20
89.85056758676194
 30
0.0
 10
127.7210422073128
 20
89.85056758676194
 30
0.0
 10
127.7979006859541
 20
89.85056758676194
 30
0.0
 10
127.8221696649039
 20
89.85056758676194
 30
0.0
 10
127.8472192839415
 20
89.85056758676194
 30
0.0
 10
127.8537014928057
 20
89.85056758676194
 30
0.0
 10
127.8599077228856
 20
89.85056758676194
 30
0.0
 10
127.8613947453341
 20
89.85056758676194
 30
0.0
 10
127.8631476135429
 20
89.85056758676194
 30
0.0
 10
127.8633996491633
 20
89.85056758676194
 30
0.0
 10
127.8604620280159
 20
89.85056758676194
 30
0.0
 10
127.8165839584379
 20
89.85056758676194
 30
0.0
 10
127.7172001599588
 20
89.85056758676194
 30
0.0
 10
127.6632128105258
 20
89.85056758676194
 30
0.0
 10
127.6632128105258
 20
89.85056758676194
 30
0.0
  0
LINE
  5
115
330
1F
100
AcDbEntity
  8
0
  6
HIDDEN
 62
     7
370
     0
100
AcDbLine
 10
127.6632125006
 20
89.8505677298
 30
0.0
 11
127.6632125006
 21
142.6505674437
 31
0.0
  0
LINE
  5
116
330
1F
100
AcDbEntity
  8
0
  6
HIDDEN
 62
     7
370
     0
100
AcDbLine
 10
143.7132122443
 20
89.2571755514
 30
0.0
 11
143.7132122443
 21
143.2439596221
 31
0.0
  0
LINE
  5
117
330
1F
100
AcDbEntity
  8
0
  6
HIDDEN
 62
     7
370
     0
100
AcDbLine
 10
101.7132128105
 20
90.926636459
 30
0.0
 11
101.7132128105
 21
141.5482540444
 31
0.0
  0
LWPOLYLINE
  5
118
330
1F
100
AcDbEntity
  8
0
  6
HIDDEN
 62
     7
370
     0
100
AcDbPolyline
 90
        2
 70
   128
 43
0.0
 10
221.7132101283
 20
102.5255671531
 10
221.7132101283
 20
102.5255671531
  0
LWPOLYLINE
  5
119
330
1F
100
AcDbEntity
  8
0
  6
HIDDEN
 62
     7
370
     0
100
AcDbPolyline
 90
        2
 70
   128
 43
0.0
 10
221.7132101283
 20
129.9755680204
 10
221.7132101283
 20
129.9755680204
  0
LINE
  5
11A
330
1F
100
AcDbEntity
  8
0
  6
HIDDEN
 62
     7
370
     0
100
AcDbLine
 10
106.6632127837
 20
136.1005683259
 30
0.0
 11
113.9088334963
 21
136.1005683259
 31
0.0
  0
SPLINE
  5
11B
330
1F
100
AcDbEntity
  8
0
  6
HIDDEN
 62
     7
370
     0
100
AcDbSpline
210
0.0
220
0.0
230
1.0
 70
     8
 71
     3
 72
    10
 73
     6
 74
     0
 42
0.00000001
 43
0.00000001
 40
0.0
 40
0.0
 40
0.0
 40
0.0
 40
0.5
 40
0.5
 40
1.0
 40
1.0
 40
1.0
 40
1.0
 10
162.7132128105258
 20
96.16285405695719
 30
0.0
 10
162.7132128105258
 20
96.09385038993813
 30
0.0
 10
162.6794363988469
 20
96.03318022266615
 30
0.0
 10
162.5664939438665
 20
95.96276523289734
 30
0.0
 10
162.4908289448443
 20
95.95196816019788
 30
0.0
 10
162.4132128105258
 20
95.9651837468113
 30
0.0
  0
LINE
  5
11C
330
1F
100
AcDbEntity
  8
0
  6
HIDDEN
 62
     7
370
     0
100
AcDbLine
 10
162.713213496
 20
136.3382809624
 30
0.0
 11
162.713213496
 21
96.1628542111
 31
0.0
  0
SPLINE
  5
11D
330
1F
100
AcDbEntity
  8
0
  6
HIDDEN
 62
     7
370
     0
100
AcDbSpline
210
0.0
220
0.0
230
1.0
 70
     8
 71
     3
 72
    10
 73
     6
 74
     0
 42
0.00000001
 43
0.00000001
 40
0.0
 40
0.0
 40
0.0
 40
0.0
 40
0.5
 40
0.5
 40
1.0
 40
1.0
 40
1.0
 40
1.0
 10
162.4132128105258
 20
136.5359514267124
 30
0.0
 10
162.4909458470508
 20
136.549186918095
 30
0.0
 10
162.566826408644
 20
136.5381398836677
 30
0.0
 10
162.6789977547767
 20
136.4682511846977
 30
0.0
 10
162.7132128105258
 20
136.4075779802822
 30
0.0
 10
162.7132128105258
 20
136.3382811165675
 30
0.0
  0
SPLINE
  5
11E
330
1F
100
AcDbEntity
  8
0
  6
HIDDEN
 62
     7
370
     0
100
AcDbSpline
210
0.0
220
0.0
230
1.0
 70
     8
 71
     3
 72
    10
 73
     6
 74
     0
 42
0.00000001
 43
0.00000001
 40
0.0
 40
0.0
 40
0.0
 40
0.0
 40
0.5
 40
0.5
 40
1.0
 40
1.0
 40
1.0
 40
1.0
 10
161.1132128105258
 20
95.98091896094915
 30
0.0
 10
161.0350746920444
 20
95.96962335128333
 30
0.0
 10
160.9587296125711
 20
95.98303750777515
 30
0.0
 10
160.8469322687454
 20
96.05638625319379
 30
0.0
 10
160.8132128105258
 20
96.11787855249135
 30
0.0
 10
160.8132128105258
 20
96.1867563465604
 30
0.0
  0
SPLINE
  5
11F
330
1F
100
AcDbEntity
  8
0
  6
HIDDEN
 62
     7
370
     0
100
AcDbSpline
210
0.0
220
0.0
230
1.0
 70
     8
 71
     3
 72
    10
 73
     6
 74
     0
 42
0.00000001
 43
0.00000001
 40
0.0
 40
0.0
 40
0.0
 40
0.0
 40
0.5
 40
0.5
 40
1.0
 40
1.0
 40
1.0
 40
1.0
 10
160.8132128105257
 20
136.3143788269626
 30
0.0
 10
160.8132128105258
 20
136.3829566656063
 30
0.0
 10
160.8464375268508
 20
136.4444037685661
 30
0.0
 10
160.959130037498
 20
136.5183809202124
 30
0.0
 10
161.0351805022268
 20
136.5314965263709
 30
0.0
 10
161.1132128105258
 20
136.5202162125753
 30
0.0
  0
LINE
  5
120
330
1F
100
AcDbEntity
  8
0
  6
HIDDEN
 62
     7
370
     0
100
AcDbLine
 10
160.8132111356
 20
136.3143794999
 30
0.0
 11
160.8132111356
 21
96.1867556736
 31
0.0
  0
LWPOLYLINE
  5
121
330
1F
100
AcDbEntity
  8
0
  6
HIDDEN
 62
     7
370
     0
100
AcDbPolyline
 90
        2
 70
   128
 43
0.0
 10
121.6232130752
 20
136.1005683259
 10
121.6232130752
 20
136.1005683259
  0
LWPOLYLINE
  5
122
330
1F
100
AcDbEntity
  8
0
  6
HIDDEN
 62
     7
370
     0
100
AcDbPolyline
 90
        2
 70
   128
 43
0.0
 10
127.6632125006
 20
136.1005683259
 10
127.6632125006
 20
136.1005683259
  0
LWPOLYLINE
  5
123
330
1F
100
AcDbEntity
  8
0
  6
HIDDEN
 62
     7
370
     0
100
AcDbPolyline
 90
        2
 70
   128
 43
0.0
 10
117.8032128588
 20
136.1005683259
 10
117.8032128588
 20
136.1005683259
  0
SPLINE
  5
124
330
1F
100
AcDbEntity
  8
0
  6
HIDDEN
 62
     7
370
     0
100
AcDbSpline
210
0.0
220
0.0
230
1.0
 70
     8
 71
     3
 72
    14
 73
    10
 74
     0
 42
0.00000001
 43
0.00000001
 40
0.0
 40
0.0
 40
0.0
 40
0.0
 40
0.5000000000000002
 40
0.5000000000000002
 40
0.7500000000000002
 40
0.7500000000000002
 40
0.8750000000000001
 40
0.8750000000000001
 40
1.0
 40
1.0
 40
1.0
 40
1.0
 10
70.96321281052583
 20
95.38062982136685
 30
0.0
 10
71.85535894107939
 20
95.37990759516622
 30
0.0
 10
72.74533537687297
 20
95.38449380162369
 30
0.0
 10
74.07193054394855
 20
95.41221880601522
 30
0.0
 10
74.5127774724473
 20
95.42482534363938
 30
0.0
 10
75.16921770986971
 20
95.45584149164684
 30
0.0
 10
75.38723136646159
 20
95.46818466427362
 30
0.0
 10
75.81994022014435
 20
95.50120871943687
 30
0.0
 10
76.03521668530917
 20
95.52042588457532
 30
0.0
 10
76.24468771757955
 20
95.5542528388985
 30
0.0
  0
SPLINE
  5
125
330
1F
100
AcDbEntity
  8
0
  6
HIDDEN
 62
     7
370
     0
100
AcDbSpline
210
0.0
220
0.0
230
1.0
 70
     8
 71
     3
 72
     8
 73
     4
 74
     0
 42
0.00000001
 43
0.00000001
 40
0.0
 40
0.0
 40
0.0
 40
0.0
 40
1.0
 40
1.0
 40
1.0
 40
1.0
 10
76.24468771757955
 20
95.5542528388985
 30
0.0
 10
76.9792647440624
 20
95.67287784996745
 30
0.0
 10
77.74273981345793
 20
95.77286372210372
 30
0.0
 10
78.51321281052542
 20
95.86409812548126
 30
0.0
  0
SPLINE
  5
126
330
1F
100
AcDbEntity
  8
0
  6
HIDDEN
 62
     7
370
     0
100
AcDbSpline
210
0.0
220
0.0
230
1.0
 70
     8
 71
     3
 72
    14
 73
    10
 74
     0
 42
0.00000001
 43
0.00000001
 40
0.0
 40
0.0
 40
0.0
 40
0.0
 40
0.1250000000000022
 40
0.1250000000000022
 40
0.2500000000000044
 40
0.2500000000000044
 40
0.500000000000003
 40
0.500000000000003
 40
1.0
 40
1.0
 40
1.0
 40
1.0
 10
78.51321281052559
 20
95.86409812548128
 30
0.0
 10
78.56175721918275
 20
95.8698464387616
 30
0.0
 10
78.61467257396767
 20
95.86674555010539
 30
0.0
 10
78.70996791895075
 20
95.84455070594308
 30
0.0
 10
78.75021891623575
 20
95.82731847884723
 30
0.0
 10
78.85448892974878
 20
95.77099056239518
 30
0.0
 10
78.90481090490212
 20
95.72680421644937
 30
0.0
 10
79.03249385242752
 20
95.59579631759873
 30
0.0
 10
79.08857929948981
 20
95.50556179736842
 30
0.0
 10
79.13492569261157
 20
95.41741626320253
 30
0.0
  0
SPLINE
  5
127
330
1F
100
AcDbEntity
  8
0
  6
HIDDEN
 62
     7
370
     0
100
AcDbSpline
210
0.0
220
0.0
230
1.0
 70
     8
 71
     3
 72
    14
 73
    10
 74
     0
 42
0.00000001
 43
0.00000001
 40
0.0
 40
0.0
 40
0.0
 40
0.0
 40
0.25
 40
0.25
 40
0.5
 40
0.5
 40
0.75
 40
0.75
 40
1.0
 40
1.0
 40
1.0
 40
1.0
 10
79.1349256926101
 20
95.417416263202
 30
0.0
 10
79.19155236781218
 20
95.30971880936514
 30
0.0
 10
79.2860750281019
 20
95.20692922764582
 30
0.0
 10
79.46912000366414
 20
95.00857191542565
 30
0.0
 10
79.56074658061887
 20
94.91251240674741
 30
0.0
 10
79.71959989831207
 20
94.72498336403815
 30
0.0
 10
79.78749050593376
 20
94.63357439125461
 30
0.0
 10
79.88440753164134
 20
94.45519817034446
 30
0.0
 10
79.9132128105264
 20
94.36797626409827
 30
0.0
 10
79.91321281052639
 20
94.28683005556402
 30
0.0
  0
LINE
  5
128
330
1F
100
AcDbEntity
  8
0
  6
HIDDEN
 62
     7
370
     0
100
AcDbLine
 10
79.91321259
 20
94.2868296817
 30
0.0
 11
79.91321259
 21
93.0221215651
 31
0.0
  0
LINE
  5
129
330
1F
100
AcDbEntity
  8
0
  6
HIDDEN
 62
     7
370
     0
100
AcDbLine
 10
75.9132119343
 20
139.2786134795
 30
0.0
 11
75.9132119343
 21
138.0946752444
 31
0.0
  0
SPLINE
  5
12A
330
1F
100
AcDbEntity
  8
0
  6
HIDDEN
 62
     7
370
     0
100
AcDbSpline
210
0.0
220
0.0
230
1.0
 70
     8
 71
     3
 72
    18
 73
    14
 74
     0
 42
0.00000001
 43
0.00000001
 40
0.0
 40
0.0
 40
0.0
 40
0.0
 40
0.2500000000000006
 40
0.2500000000000006
 40
0.5000000000000004
 40
0.5000000000000004
 40
0.7500000000000002
 40
0.7500000000000002
 40
0.8750000000000002
 40
0.8750000000000002
 40
0.9375000000000002
 40
0.9375000000000002
 40
1.0
 40
1.0
 40
1.0
 40
1.0
 10
75.91321281052583
 20
138.094675259125
 30
0.0
 10
75.91321281052585
 20
138.0114683502677
 30
0.0
 10
75.87736371058756
 20
137.9227316949542
 30
0.0
 10
75.75249197455364
 20
137.7406065043939
 30
0.0
 10
75.66209155690578
 20
137.6454764557673
 30
0.0
 10
75.4398489021636
 20
137.456294946643
 30
0.0
 10
75.31008411571783
 20
137.3613497785483
 30
0.0
 10
75.06944665840632
 20
137.2230710709683
 30
0.0
 10
74.98167936026888
 20
137.1773606376659
 30
0.0
 10
74.82715527306205
 20
137.1195373324445
 30
0.0
 10
74.7705443870073
 20
137.1018225684066
 30
0.0
 10
74.6465003561007
 20
137.0772832651737
 30
0.0
 10
74.57878568108241
 20
137.0713041266354
 30
0.0
 10
74.51321281052583
 20
137.0736549785897
 30
0.0
  0
SPLINE
  5
12B
330
1F
100
AcDbEntity
  8
0
  6
HIDDEN
 62
     7
370
     0
100
AcDbSpline
210
0.0
220
0.0
230
1.0
 70
     8
 71
     3
 72
    10
 73
     6
 74
     0
 42
0.00000001
 43
0.00000001
 40
0.0
 40
0.0
 40
0.0
 40
0.0
 40
0.5
 40
0.5
 40
1.0
 40
1.0
 40
1.0
 40
1.0
 10
74.51321281052584
 20
137.0736549785897
 30
0.0
 10
73.92562726343525
 20
137.0947204988261
 30
0.0
 10
73.33488086997485
 20
137.1054789846983
 30
0.0
 10
72.15086170467598
 20
137.118843765234
 30
0.0
 10
71.55744771647053
 20
137.1209864078986
 30
0.0
 10
70.96321281052583
 20
137.120505352157
 30
0.0
  0
SPLINE
  5
12C
330
1F
100
AcDbEntity
  8
0
  6
HIDDEN
 62
     7
370
     0
100
AcDbSpline
210
0.0
220
0.0
230
1.0
 70
     8
 71
     3
 72
     8
 73
     4
 74
     0
 42
0.00000001
 43
0.00000001
 40
0.0000005099763571
 40
0.0000005099763571
 40
0.0000005099763571
 40
0.0000005099763571
 40
0.0000262827998698
 40
0.0000262827998698
 40
0.0000262827998698
 40
0.0000262827998698
 10
70.96321281052582
 20
137.120505352157
 30
0.0
 10
70.95984407129806
 20
137.1171836832011
 30
0.0
 10
70.95649561831893
 20
137.1138557259222
 30
0.0
 10
70.95316788010759
 20
137.1105214790496
 30
0.0
  0
SPLINE
  5
12D
330
1F
100
AcDbEntity
  8
0
  6
HIDDEN
 62
     7
370
     0
100
AcDbSpline
210
0.0
220
0.0
230
1.0
 70
     8
 71
     3
 72
     8
 73
     4
 74
     0
 42
0.00000001
 43
0.00000001
 40
0.000000516385691
 40
0.000000516385691
 40
0.000000516385691
 40
0.000000516385691
 40
0.0000262892091854
 40
0.0000262892091854
 40
0.0000262892091854
 40
0.0000262892091854
 10
70.95316788011468
 20
95.39061369446719
 30
0.0
 10
70.95649561832366
 20
95.3872794475969
 30
0.0
 10
70.95984407130047
 20
95.38395149032038
 30
0.0
 10
70.96321281052582
 20
95.38062982136685
 30
0.0
  0
LINE
  5
12E
330
1F
100
AcDbEntity
  8
0
  6
HIDDEN
 62
     7
370
     0
100
AcDbLine
 10
99.7132127155
 20
140.4709988103
 30
0.0
 11
99.7132127155
 21
92.0301363633
 31
0.0
  0
SPLINE
  5
12F
330
1F
100
AcDbEntity
  8
0
  6
HIDDEN
 62
     7
370
     0
100
AcDbSpline
210
0.0
220
0.0
230
1.0
 70
     8
 71
     3
 72
    10
 73
     6
 74
     0
 42
0.00000001
 43
0.00000001
 40
0.0
 40
0.0
 40
0.0
 40
0.0
 40
0.2949160548786157
 40
0.5007639553978313
 40
0.9999999999999999
 40
0.9999999999999999
 40
0.9999999999999999
 40
0.9999999999999999
 10
89.70836330957167
 20
92.72596843693876
 30
0.0
 10
89.53543079223896
 20
92.7082213114777
 30
0.0
 10
89.24179343352657
 20
92.67808690341208
 30
0.0
 10
88.56704496214765
 20
92.61000354957561
 30
0.0
 10
88.51814069614878
 20
92.6001826206527
 30
0.0
 10
88.48351393646948
 20
92.59322889302396
 30
0.0
  0
SPLINE
  5
130
330
1F
100
AcDbEntity
  8
0
  6
HIDDEN
 62
     7
370
     0
100
AcDbSpline
210
0.0
220
0.0
230
1.0
 70
     8
 71
     3
 72
    16
 73
    12
 74
     0
 42
0.00000001
 43
0.00000001
 40
0.0
 40
0.0
 40
0.0
 40
0.0
 40
0.001461936992627
 40
0.169506096951987
 40
0.3368148517120961
 40
0.5027784303362756
 40
0.5863380615116264
 40
0.6685202812253421
 40
0.7507638549562583
 40
0.8341946368853005
 40
1.0
 40
1.0
 40
1.0
 40
1.0
 10
96.89484922967307
 20
92.17182219181679
 30
0.0
 10
96.89577937586294
 20
92.17161435755513
 30
0.0
 10
97.003626328935
 20
92.14751675643735
 30
0.0
 10
96.61560547305616
 20
92.23599192129073
 30
0.0
 10
95.7538172200213
 20
92.41962489955857
 30
0.0
 10
94.56351109369261
 20
92.60784810851302
 30
0.0
 10
93.51211110942886
 20
92.71925423391747
 30
0.0
 10
92.68608204366699
 20
92.7768881943635
 30
0.0
 10
91.86229406299488
 20
92.8033737744694
 30
0.0
 10
90.7921386759416
 20
92.79863504466493
 30
0.0
 10
90.1413218561832
 20
92.75499809552352
 30
0.0
 10
89.70836330957167
 20
92.72596843693876
 30
0.0
  0
SPLINE
  5
131
330
1F
100
AcDbEntity
  8
0
  6
HIDDEN
 62
     7
370
     0
100
AcDbSpline
210
0.0
220
0.0
230
1.0
 70
     8
 71
     3
 72
    16
 73
    12
 74
     0
 42
0.00000001
 43
0.00000001
 40
0.0
 40
0.0
 40
0.0
 40
0.0
 40
0.1658978911914715
 40
0.2493608304160354
 40
0.331758878671613
 40
0.4138911522900457
 40
0.4976181608422304
 40
0.6634956017064854
 40
0.8305394519957011
 40
0.9983760782772074
 40
1.0
 40
1.0
 40
1.0
 40
1.0
 10
89.7082701773142
 20
139.7751499727788
 30
0.0
 10
90.14183856019912
 20
139.746197205481
 30
0.0
 10
90.79353443904269
 20
139.702678351538
 30
0.0
 10
91.8645003848787
 20
139.6979386778756
 30
0.0
 10
92.68872342470144
 20
139.7243405120975
 30
0.0
 10
93.51574163474645
 20
139.7820339696825
 30
0.0
 10
94.56685884736446
 20
139.8936932557665
 30
0.0
 10
95.75557019305323
 20
140.0818916419949
 30
0.0
 10
96.61631084918285
 20
140.2651535684625
 30
0.0
 10
97.00430845950756
 20
140.3536718328771
 30
0.0
 10
96.89567142557054
 20
140.3294796204279
 30
0.0
 10
96.89463036886804
 20
140.3292477891269
 30
0.0
  0
SPLINE
  5
132
330
1F
100
AcDbEntity
  8
0
  6
HIDDEN
 62
     7
370
     0
100
AcDbSpline
210
0.0
220
0.0
230
1.0
 70
     8
 71
     3
 72
    10
 73
     6
 74
     0
 42
0.00000001
 43
0.00000001
 40
0.0
 40
0.0
 40
0.0
 40
0.0
 40
0.4995493716480917
 40
0.5744878351640255
 40
0.9999999999999999
 40
0.9999999999999999
 40
0.9999999999999999
 40
0.9999999999999999
 10
88.48280985660307
 20
139.9079733357253
 30
0.0
 10
88.5031046243719
 20
139.9021819114557
 30
0.0
 10
88.52644385340989
 20
139.8955217033161
 30
0.0
 10
89.15862225566937
 20
139.8313736490292
 30
0.0
 10
89.45568780709662
 20
139.8009867108987
 30
0.0
 10
89.7082701773142
 20
139.7751499727788
 30
0.0
  0
LINE
  5
133
330
1F
100
AcDbEntity
  8
0
  6
HIDDEN
 62
     7
370
     0
100
AcDbLine
 10
145.7132125721
 20
140.200566949
 30
0.0
 11
145.7132125721
 21
92.3005682245
 31
0.0
  0
LINE
  5
134
330
1F
100
AcDbEntity
  8
0
  6
HIDDEN
 62
     7
370
     0
100
AcDbLine
 10
147.7132128999
 20
140.2505677954
 30
0.0
 11
147.7132128999
 21
92.2505673781
 31
0.0
  0
SPLINE
  5
135
330
1F
100
AcDbEntity
  8
0
  6
HIDDEN
 62
     7
370
     0
100
AcDbSpline
210
0.0
220
0.0
230
1.0
 70
     8
 71
     3
 72
    26
 73
    22
 74
     0
 42
0.00000001
 43
0.00000001
 40
0.0
 40
0.0
 40
0.0
 40
0.0
 40
0.1250000000000009
 40
0.1250000000000009
 40
0.2500000000000017
 40
0.2500000000000017
 40
0.3125000000000023
 40
0.3125000000000023
 40
0.3750000000000028
 40
0.3750000000000028
 40
0.5000000000000028
 40
0.5000000000000028
 40
0.6250000000000028
 40
0.6250000000000028
 40
0.7500000000000027
 40
0.7500000000000027
 40
0.8125000000000027
 40
0.8125000000000027
 40
0.8750000000000027
 40
0.8750000000000027
 40
1.0
 40
1.0
 40
1.0
 40
1.0
 10
160.8132128105258
 20
113.9181868288238
 30
0.0
 10
160.5772316422116
 20
114.0092453109177
 30
0.0
 10
160.3608389611648
 20
114.1329611836913
 30
0.0
 10
159.966372554184
 20
114.4445440471631
 30
0.0
 10
159.7942739124283
 20
114.6287376267141
 30
0.0
 10
159.5816789626293
 20
114.9382306697484
 30
0.0
 10
159.5177613691898
 20
115.0482113866252
 30
0.0
 10
159.4086431074584
 20
115.2735179733976
 30
0.0
 10
159.3628650997106
 20
115.3894852798663
 30
0.0
 10
159.2516916876284
 20
115.7472762541701
 30
0.0
 10
159.2133004234418
 20
116.0001501430165
 30
0.0
 10
159.2131255047015
 20
116.4992326274971
 30
0.0
 10
159.2514587637215
 20
116.7525521083448
 30
0.0
 10
159.399176742562
 20
117.2290656823291
 30
0.0
 10
159.510599733189
 20
117.4591885926717
 30
0.0
 10
159.7223650049221
 20
117.7678323266864
 30
0.0
 10
159.800342727383
 20
117.8650672647997
 30
0.0
 10
159.9712525274837
 20
118.0481369283092
 30
0.0
 10
160.0647748842916
 20
118.1342577069712
 30
0.0
 10
160.3590642324957
 20
118.3668912602828
 30
0.0
 10
160.5772331623448
 20
118.4918904491827
 30
0.0
 10
160.8132128105258
 20
118.5829483447
 30
0.0
  0
LINE
  5
136
330
1F
100
AcDbEntity
  8
0
  6
HIDDEN
 62
     7
370
     0
100
AcDbLine
 10
160.8132111356
 20
113.9181868468
 30
0.0
 11
160.8132111356
 21
92.2763072715
 31
0.0
  0
SPLINE
  5
137
330
1F
100
AcDbEntity
  8
0
  6
HIDDEN
 62
     7
370
     0
100
AcDbSpline
210
0.0
220
0.0
230
1.0
 70
     8
 71
     3
 72
    26
 73
    22
 74
     0
 42
0.00000001
 43
0.00000001
 40
0.0
 40
0.0
 40
0.0
 40
0.0
 40
0.1250000000000006
 40
0.1250000000000006
 40
0.2500000000000012
 40
0.2500000000000012
 40
0.3125000000000016
 40
0.3125000000000016
 40
0.3750000000000018
 40
0.3750000000000018
 40
0.5000000000000021
 40
0.5000000000000021
 40
0.6250000000000023
 40
0.6250000000000023
 40
0.7500000000000027
 40
0.7500000000000027
 40
0.8125000000000029
 40
0.8125000000000029
 40
0.875000000000003
 40
0.875000000000003
 40
1.0
 40
1.0
 40
1.0
 40
1.0
 10
160.8132128105258
 20
96.73053066348957
 30
0.0
 10
160.5772316422116
 20
96.67730126106063
 30
0.0
 10
160.3608389611648
 20
96.6053824522919
 30
0.0
 10
159.966372554184
 20
96.42745972680426
 30
0.0
 10
159.7942739124283
 20
96.32361163492666
 30
0.0
 10
159.5816789626293
 20
96.15302941518902
 30
0.0
 10
159.5177613691898
 20
96.09300554172782
 30
0.0
 10
159.4086431074584
 20
95.97148376183551
 30
0.0
 10
159.3628650997106
 20
95.9096239350205
 30
0.0
 10
159.2516916876284
 20
95.7211464940466
 30
0.0
 10
159.2133004234418
 20
95.59117452145466
 30
0.0
 10
159.2131255047015
 20
95.34161749962442
 30
0.0
 10
159.2514587637216
 20
95.21848719473927
 30
0.0
 10
159.399176742562
 20
94.99296469543414
 30
0.0
 10
159.510599733189
 20
94.88725203139298
 30
0.0
 10
159.7223650049221
 20
94.74870989234111
 30
0.0
 10
159.8003427273829
 20
94.70563805652108
 30
0.0
 10
159.9712525274837
 20
94.62540179843052
 30
0.0
 10
160.0647748842916
 20
94.58812109158544
 30
0.0
 10
160.3590642324957
 20
94.4883230291223
 30
0.0
 10
160.5772331623448
 20
94.43597874153068
 30
0.0
 10
160.8132128105258
 20
94.39814990555145
 30
0.0
  0
SPLINE
  5
138
330
1F
100
AcDbEntity
  8
0
  6
HIDDEN
 62
     7
370
     0
100
AcDbSpline
210
0.0
220
0.0
230
1.0
 70
     8
 71
     3
 72
    26
 73
    22
 74
     0
 42
0.00000001
 43
0.00000001
 40
0.0
 40
0.0
 40
0.0
 40
0.0
 40
0.1250000000000015
 40
0.1250000000000015
 40
0.250000000000003
 40
0.250000000000003
 40
0.3125000000000034
 40
0.3125000000000034
 40
0.3750000000000038
 40
0.3750000000000038
 40
0.5000000000000036
 40
0.5000000000000036
 40
0.6250000000000033
 40
0.6250000000000033
 40
0.7500000000000031
 40
0.7500000000000031
 40
0.8125000000000033
 40
0.8125000000000033
 40
0.8750000000000034
 40
0.8750000000000034
 40
1.0
 40
1.0
 40
1.0
 40
1.0
 10
160.8132128105258
 20
138.1029852679725
 30
0.0
 10
160.5772316422116
 20
138.0651561883076
 30
0.0
 10
160.3608389611648
 20
138.0133591243028
 30
0.0
 10
159.966372554184
 20
137.8796989863186
 30
0.0
 10
159.7942739124283
 20
137.7993534986452
 30
0.0
 10
159.5816789626293
 20
137.6604426753486
 30
0.0
 10
159.5177613691898
 20
137.6104858319329
 30
0.0
 10
159.4086431074584
 20
137.5067010250528
 30
0.0
 10
159.3628650997106
 20
137.4525935453991
 30
0.0
 10
159.2516916876284
 20
137.2832800120693
 30
0.0
 10
159.2133004234418
 20
137.1603780958148
 30
0.0
 10
159.2131255047014
 20
136.9108526331645
 30
0.0
 10
159.2514587637215
 20
136.7806634572019
 30
0.0
 10
159.399176742562
 20
136.5296723825228
 30
0.0
 10
159.510599733189
 20
136.4052621362213
 30
0.0
 10
159.7223650049221
 20
136.2351605412584
 30
0.0
 10
159.8003427273829
 20
136.1809974389652
 30
0.0
 10
159.9712525274837
 20
136.0781640335462
 30
0.0
 10
160.0647748842916
 20
136.0293239617294
 30
0.0
 10
160.3590642324957
 20
135.8964884708809
 30
0.0
 10
160.5772331623448
 20
135.8238335695726
 30
0.0
 10
160.8132128105258
 20
135.7706045100345
 30
0.0
  0
LINE
  5
139
330
1F
100
AcDbEntity
  8
0
  6
HIDDEN
 62
     7
370
     0
100
AcDbLine
 10
160.8132111356
 20
118.5829483267
 30
0.0
 11
160.8132111356
 21
140.2248279021
 31
0.0
  0
LINE
  5
13A
330
1F
100
AcDbEntity
  8
0
  6
HIDDEN
 62
     7
370
     0
100
AcDbLine
 10
160.8132111356
 20
135.770604463
 30
0.0
 11
160.8132111356
 21
96.7305307106
 31
0.0
  0
SPLINE
  5
13B
330
1F
100
AcDbEntity
  8
0
  6
HIDDEN
 62
     7
370
     0
100
AcDbSpline
210
0.0
220
0.0
230
1.0
 70
     8
 71
     3
 72
    28
 73
    24
 74
     0
 42
0.00000001
 43
0.00000001
 40
0.0
 40
0.0
 40
0.0
 40
0.0
 40
0.1249999999999983
 40
0.1249999999999983
 40
0.1874999999999976
 40
0.1874999999999976
 40
0.249999999999997
 40
0.249999999999997
 40
0.3124999999999963
 40
0.3124999999999963
 40
0.3749999999999957
 40
0.3749999999999957
 40
0.499999999999995
 40
0.499999999999995
 40
0.6249999999999942
 40
0.6249999999999942
 40
0.6874999999999948
 40
0.6874999999999948
 40
0.7499999999999952
 40
0.7499999999999952
 40
0.8749999999999976
 40
0.8749999999999976
 40
1.0
 40
1.0
 40
1.0
 40
1.0
 10
162.7132128105258
 20
94.41525232682244
 30
0.0
 10
162.9366502648842
 20
94.45591077531955
 30
0.0
 10
163.1405703500322
 20
94.50937715621649
 30
0.0
 10
163.4179227922173
 20
94.61020836526407
 30
0.0
 10
163.505410277188
 20
94.64738385605214
 30
0.0
 10
163.6650098705922
 20
94.72673140197624
 30
0.0
 10
163.7379242224687
 20
94.7691679674591
 30
0.0
 10
163.869982527722
 20
94.8599040197423
 30
0.0
 10
163.9295151513434
 20
94.90864189659418
 30
0.0
 10
164.0314856154653
 20
95.01004152734485
 30
0.0
 10
164.0741091148927
 20
95.06266354210385
 30
0.0
 10
164.1773855211376
 20
95.22652204033763
 30
0.0
 10
164.2131517092738
 20
95.3453678278269
 30
0.0
 10
164.2132737509133
 20
95.58591381681687
 30
0.0
 10
164.1778063105293
 20
95.7110090539256
 30
0.0
 10
164.074485716698
 20
95.89315322090592
 30
0.0
 10
164.0319170752988
 20
95.95297655481342
 30
0.0
 10
163.9305106924452
 20
96.07062063671981
 30
0.0
 10
163.8710789226679
 20
96.12888964709653
 30
0.0
 10
163.6723919760148
 20
96.29565663624923
 30
0.0
 10
163.5129918300752
 20
96.39704831069257
 30
0.0
 10
163.1412320626364
 20
96.57589038289682
 30
0.0
 10
162.9366486133451
 20
96.64968294328152
 30
0.0
 10
162.7132128105258
 20
96.70654017430036
 30
0.0
  0
LINE
  5
13C
330
1F
100
AcDbEntity
  8
0
  6
HIDDEN
 62
     7
370
     0
100
AcDbLine
 10
162.713213496
 20
113.9592798256
 30
0.0
 11
162.713213496
 21
92.2774676994
 31
0.0
  0
SPLINE
  5
13D
330
1F
100
AcDbEntity
  8
0
  6
HIDDEN
 62
     7
370
     0
100
AcDbSpline
210
0.0
220
0.0
230
1.0
 70
     8
 71
     3
 72
    28
 73
    24
 74
     0
 42
0.00000001
 43
0.00000001
 40
0.0
 40
0.0
 40
0.0
 40
0.0
 40
0.1250000000000006
 40
0.1250000000000006
 40
0.187500000000001
 40
0.187500000000001
 40
0.2500000000000013
 40
0.2500000000000013
 40
0.3125000000000017
 40
0.3125000000000017
 40
0.3750000000000021
 40
0.3750000000000021
 40
0.5000000000000017
 40
0.5000000000000017
 40
0.6250000000000013
 40
0.6250000000000013
 40
0.6875000000000012
 40
0.6875000000000012
 40
0.7500000000000009
 40
0.7500000000000009
 40
0.8750000000000004
 40
0.8750000000000004
 40
1.0
 40
1.0
 40
1.0
 40
1.0
 10
162.7132128105258
 20
118.5418554342398
 30
0.0
 10
162.9366502648842
 20
118.4443393344603
 30
0.0
 10
163.1405703500322
 20
118.3172515611278
 30
0.0
 10
163.4179227922173
 20
118.0832151052971
 30
0.0
 10
163.505410277188
 20
117.9977149874872
 30
0.0
 10
163.6650098705922
 20
117.8174064539361
 30
0.0
 10
163.7379242224687
 20
117.7219774904475
 30
0.0
 10
163.869982527722
 20
117.5205470327773
 30
0.0
 10
163.9295151513434
 20
117.4136017852425
 30
0.0
 10
164.0314856154653
 20
117.1941012717073
 30
0.0
 10
164.0741091148927
 20
117.0816049559542
 30
0.0
 10
164.1773855211376
 20
116.7360268828368
 30
0.0
 10
164.2131517092738
 20
116.4917587469863
 30
0.0
 10
164.2132737509133
 20
116.0106447500154
 30
0.0
 10
164.1778063105293
 20
115.7669781502465
 30
0.0
 10
164.074485716698
 20
115.4205614250865
 30
0.0
 10
164.0319170752988
 20
115.3081579418445
 30
0.0
 10
163.9305106924452
 20
115.0894838218485
 30
0.0
 10
163.8710789226679
 20
114.982405788315
 30
0.0
 10
163.6723919760148
 20
114.6789127208962
 30
0.0
 10
163.5129918300752
 20
114.4984161893553
 30
0.0
 10
163.1412320626364
 20
114.1841697416592
 30
0.0
 10
162.9366486133452
 20
114.0567951182729
 30
0.0
 10
162.7132128105258
 20
113.959279739284
 30
0.0
  0
LINE
  5
13E
330
1F
100
AcDbEntity
  8
0
  6
HIDDEN
 62
     7
370
     0
100
AcDbLine
 10
162.713213496
 20
118.5418553479
 30
0.0
 11
162.713213496
 21
140.2236674741
 31
0.0
  0
SPLINE
  5
13F
330
1F
100
AcDbEntity
  8
0
  6
HIDDEN
 62
     7
370
     0
100
AcDbSpline
210
0.0
220
0.0
230
1.0
 70
     8
 71
     3
 72
    28
 73
    24
 74
     0
 42
0.00000001
 43
0.00000001
 40
0.0
 40
0.0
 40
0.0
 40
0.0
 40
0.1250000000000009
 40
0.1250000000000009
 40
0.1875000000000013
 40
0.1875000000000013
 40
0.2500000000000018
 40
0.2500000000000018
 40
0.3125000000000022
 40
0.3125000000000022
 40
0.3750000000000027
 40
0.3750000000000027
 40
0.5000000000000023
 40
0.5000000000000023
 40
0.625000000000002
 40
0.625000000000002
 40
0.6875000000000014
 40
0.6875000000000014
 40
0.7500000000000009
 40
0.7500000000000009
 40
0.8750000000000004
 40
0.8750000000000004
 40
1.0
 40
1.0
 40
1.0
 40
1.0
 10
162.7132128105258
 20
135.7945949992237
 30
0.0
 10
162.9366502648842
 20
135.8514526505062
 30
0.0
 10
163.1405703500322
 20
135.9250740429417
 30
0.0
 10
163.4179227922173
 20
136.0582792897248
 30
0.0
 10
163.505410277188
 20
136.1066039167466
 30
0.0
 10
163.6650098705922
 20
136.2075649043736
 30
0.0
 10
163.7379242224687
 20
136.2605573023794
 30
0.0
 10
163.869982527722
 20
136.3712517077664
 30
0.0
 10
163.9295151513434
 20
136.4294590784493
 30
0.0
 10
164.0314856154653
 20
136.5475599612338
 30
0.0
 10
164.0741091148927
 20
136.607434262228
 30
0.0
 10
164.1773855211376
 20
136.7891538371115
 30
0.0
 10
164.2131517092738
 20
136.9145761854728
 30
0.0
 10
164.2132737509133
 20
137.1551441934537
 30
0.0
 10
164.1778063105293
 20
137.2737155561138
 30
0.0
 10
164.074485716698
 20
137.4379881142935
 30
0.0
 10
164.0319170752988
 20
137.490568263628
 30
0.0
 10
163.9305106924452
 20
137.5915983017177
 30
0.0
 10
163.8710789226679
 20
137.6404073248744
 30
0.0
 10
163.6723919760148
 20
137.7771334031405
 30
0.0
 10
163.5129918300752
 20
137.8562382602381
 30
0.0
 10
163.1412320626364
 20
137.99164263573
 30
0.0
 10
162.9366486133451
 20
138.0452246987316
 30
0.0
 10
162.7132128105258
 20
138.0858828467016
 30
0.0
  0
SPLINE
  5
140
330
1F
100
AcDbEntity
  8
0
  6
HIDDEN
 62
     7
370
     0
100
AcDbSpline
210
0.0
220
0.0
230
1.0
 70
     8
 71
     3
 72
    22
 73
    18
 74
     0
 42
0.00000001
 43
0.00000001
 40
0.0
 40
0.0
 40
0.0
 40
0.0
 40
0.125
 40
0.125
 40
0.2499999999999999
 40
0.2499999999999999
 40
0.3749999999999999
 40
0.3749999999999999
 40
0.4999999999999999
 40
0.4999999999999999
 40
0.6249999999999999
 40
0.6249999999999999
 40
0.7499999999999998
 40
0.7499999999999998
 40
0.8749999999999999
 40
0.8749999999999999
 40
1.0
 40
1.0
 40
1.0
 40
1.0
 10
177.786094210697
 20
113.3146009826463
 30
0.0
 10
177.5869735269839
 20
113.1061945775756
 30
0.0
 10
177.3702751224927
 20
112.9213871889365
 30
0.0
 10
176.9028921717765
 20
112.5969766756373
 30
0.0
 10
176.6490094865985
 20
112.4562200205249
 30
0.0
 10
176.1228998654821
 20
112.2309700159109
 30
0.0
 10
175.8511106422632
 20
112.1457212328712
 30
0.0
 10
175.2899139443858
 20
112.030142150064
 30
0.0
 10
175.0001171706134
 20
112.0006657119755
 30
0.0
 10
174.4292229682568
 20
112.0004699612198
 30
0.0
 10
174.1447451990801
 20
112.0288372544227
 30
0.0
 10
173.5779951572845
 20
112.1447858945594
 30
0.0
 10
173.3055330406102
 20
112.2303489846769
 30
0.0
 10
172.7813840189531
 20
112.4542855288491
 30
0.0
 10
172.5273397790853
 20
112.5945576968115
 30
0.0
 10
172.0567925955955
 20
112.9207206132954
 30
0.0
 10
171.8394568838661
 20
113.1061895644115
 30
0.0
 10
171.6403314103547
 20
113.3146009826463
 30
0.0
  0
SPLINE
  5
141
330
1F
100
AcDbEntity
  8
0
  6
HIDDEN
 62
     7
370
     0
100
AcDbSpline
210
0.0
220
0.0
230
1.0
 70
     8
 71
     3
 72
    18
 73
    14
 74
     0
 42
0.00000001
 43
0.00000001
 40
0.0
 40
0.0
 40
0.0
 40
0.0
 40
0.2499999999999971
 40
0.2499999999999971
 40
0.4999999999999941
 40
0.4999999999999941
 40
0.6249999999999957
 40
0.6249999999999957
 40
0.7499999999999971
 40
0.7499999999999971
 40
0.8749999999999986
 40
0.8749999999999986
 40
1.0
 40
1.0
 40
1.0
 40
1.0
 10
171.6403314103547
 20
113.3146009826463
 30
0.0
 10
171.4202127026611
 20
113.4922364147288
 30
0.0
 10
171.214805978021
 20
113.693529470488
 30
0.0
 10
170.8558411450674
 20
114.1261433279637
 30
0.0
 10
170.6993222124602
 20
114.3594713287437
 30
0.0
 10
170.503177315647
 20
114.7382651519662
 30
0.0
 10
170.444300726497
 20
114.8697504916453
 30
0.0
 10
170.3437254554471
 20
115.1349729991865
 30
0.0
 10
170.3014897018125
 20
115.2696290904061
 30
0.0
 10
170.2332615513746
 20
115.5430727932647
 30
0.0
 10
170.2072671844805
 20
115.681859898689
 30
0.0
 10
170.1722102588902
 20
115.9637448380996
 30
0.0
 10
170.1632128105258
 20
116.1079222277873
 30
0.0
 10
170.1632128105258
 20
116.2505675867619
 30
0.0
  0
SPLINE
  5
142
330
1F
100
AcDbEntity
  8
0
  6
HIDDEN
 62
     7
370
     0
100
AcDbSpline
210
0.0
220
0.0
230
1.0
 70
     8
 71
     3
 72
    16
 73
    12
 74
     0
 42
0.00000001
 43
0.00000001
 40
0.0
 40
0.0
 40
0.0
 40
0.0
 40
0.2500000000000049
 40
0.2500000000000049
 40
0.3750000000000058
 40
0.3750000000000058
 40
0.5000000000000068
 40
0.5000000000000068
 40
0.7500000000000033
 40
0.7500000000000033
 40
1.0
 40
1.0
 40
1.0
 40
1.0
 10
170.1632128105258
 20
116.2505675867619
 30
0.0
 10
170.1632128105259
 20
116.5349135288544
 30
0.0
 10
170.1978954764412
 20
116.8149480700141
 30
0.0
 10
170.3006229663147
 20
117.2287049124797
 30
0.0
 10
170.3436192123501
 20
117.3658398850824
 30
0.0
 10
170.4441350612285
 20
117.6309898200851
 30
0.0
 10
170.5018316071547
 20
117.7599235561681
 30
0.0
 10
170.6962069968521
 20
118.1363277110003
 30
0.0
 10
170.8560588075201
 20
118.3754705430927
 30
0.0
 10
171.2171582481774
 20
118.8102226667296
 30
0.0
 10
171.4187644362074
 20
119.0077300101686
 30
0.0
 10
171.6403314103547
 20
119.1865341908776
 30
0.0
  0
SPLINE
  5
143
330
1F
100
AcDbEntity
  8
0
  6
HIDDEN
 62
     7
370
     0
100
AcDbSpline
210
0.0
220
0.0
230
1.0
 70
     8
 71
     3
 72
    22
 73
    18
 74
     0
 42
0.00000001
 43
0.00000001
 40
0.0
 40
0.0
 40
0.0
 40
0.0
 40
0.125
 40
0.125
 40
0.2499999999999999
 40
0.2499999999999999
 40
0.3749999999999999
 40
0.3749999999999999
 40
0.4999999999999999
 40
0.4999999999999999
 40
0.6249999999999999
 40
0.6249999999999999
 40
0.7499999999999998
 40
0.7499999999999998
 40
0.8749999999999999
 40
0.8749999999999999
 40
1.0
 40
1.0
 40
1.0
 40
1.0
 10
171.6403314103547
 20
119.1865341908776
 30
0.0
 10
171.8394520940678
 20
119.3949405959483
 30
0.0
 10
172.056150498559
 20
119.5797479845874
 30
0.0
 10
172.5235334492752
 20
119.9041584978866
 30
0.0
 10
172.7774161344532
 20
120.0449151529989
 30
0.0
 10
173.3035257555696
 20
120.270165157613
 30
0.0
 10
173.5753149787884
 20
120.3554139406527
 30
0.0
 10
174.1365116766659
 20
120.4709930234599
 30
0.0
 10
174.4263084504383
 20
120.5004694615484
 30
0.0
 10
174.997202652795
 20
120.500665212304
 30
0.0
 10
175.2816804219716
 20
120.4722979191012
 30
0.0
 10
175.8484304637672
 20
120.3563492789645
 30
0.0
 10
176.1208925804415
 20
120.2707861888469
 30
0.0
 10
176.6450416020986
 20
120.0468496446747
 30
0.0
 10
176.8990858419664
 20
119.9065774767124
 30
0.0
 10
177.3696330254562
 20
119.5804145602285
 30
0.0
 10
177.5869687371855
 20
119.3949456091123
 30
0.0
 10
177.786094210697
 20
119.1865341908776
 30
0.0
  0
SPLINE
  5
144
330
1F
100
AcDbEntity
  8
0
  6
HIDDEN
 62
     7
370
     0
100
AcDbSpline
210
0.0
220
0.0
230
1.0
 70
     8
 71
     3
 72
    16
 73
    12
 74
     0
 42
0.00000001
 43
0.00000001
 40
0.0
 40
0.0
 40
0.0
 40
0.0
 40
0.2500000000000001
 40
0.2500000000000001
 40
0.5000000000000002
 40
0.5000000000000002
 40
0.6250000000000001
 40
0.6250000000000001
 40
0.7500000000000001
 40
0.7500000000000001
 40
1.0
 40
1.0
 40
1.0
 40
1.0
 10
177.786094210697
 20
119.1865341908776
 30
0.0
 10
178.0048127795656
 20
119.0100286685049
 30
0.0
 10
178.207963445115
 20
118.8118840769511
 30
0.0
 10
178.572745164064
 20
118.3725152924446
 30
0.0
 10
178.7290980418942
 20
118.1380108558588
 30
0.0
 10
178.9231000372664
 20
117.7630561842111
 30
0.0
 10
178.9809612052681
 20
117.6341757723515
 30
0.0
 10
179.0820899093073
 20
117.3680442436631
 30
0.0
 10
179.1253760337411
 20
117.2301867410757
 30
0.0
 10
179.2283613019032
 20
116.816097570734
 30
0.0
 10
179.2632128105259
 20
116.5356153145878
 30
0.0
 10
179.2632128105259
 20
116.2505675867619
 30
0.0
  0
SPLINE
  5
145
330
1F
100
AcDbEntity
  8
0
  6
HIDDEN
 62
     7
370
     0
100
AcDbSpline
210
0.0
220
0.0
230
1.0
 70
     8
 71
     3
 72
    16
 73
    12
 74
     0
 42
0.00000001
 43
0.00000001
 40
0.0
 40
0.0
 40
0.0
 40
0.0
 40
0.1250000000000011
 40
0.1250000000000011
 40
0.2500000000000023
 40
0.2500000000000023
 40
0.5000000000000016
 40
0.5000000000000016
 40
0.7500000000000008
 40
0.7500000000000008
 40
1.0
 40
1.0
 40
1.0
 40
1.0
 10
179.2632128105259
 20
116.2505675867619
 30
0.0
 10
179.2632128105259
 20
116.108756550819
 30
0.0
 10
179.2543200785185
 20
115.965069815967
 30
0.0
 10
179.2194121688998
 20
115.6834220527318
 30
0.0
 10
179.193485554526
 20
115.5445848988868
 30
0.0
 10
179.0911612307654
 20
115.133823303384
 30
0.0
 10
178.9885490727875
 20
114.8646317611783
 30
0.0
 10
178.7286379803894
 20
114.3621781564633
 30
0.0
 10
178.5718435927731
 20
114.1274210778625
 30
0.0
 10
178.2075374678786
 20
113.6888513190655
 30
0.0
 10
178.0056190177774
 20
113.4917571379189
 30
0.0
 10
177.786094210697
 20
113.3146009826463
 30
0.0
  0
SPLINE
  5
146
330
1F
100
AcDbEntity
  8
0
  6
HIDDEN
 62
     7
370
     0
100
AcDbSpline
210
0.0
220
0.0
230
1.0
 70
     8
 71
     3
 72
    22
 73
    18
 74
     0
 42
0.00000001
 43
0.00000001
 40
0.0
 40
0.0
 40
0.0
 40
0.0
 40
0.125
 40
0.125
 40
0.25
 40
0.25
 40
0.375
 40
0.375
 40
0.5
 40
0.5
 40
0.625
 40
0.625
 40
0.75
 40
0.75
 40
0.875
 40
0.875
 40
1.0
 40
1.0
 40
1.0
 40
1.0
 10
171.6403314103544
 20
135.4110858074673
 30
0.0
 10
171.8394520940675
 20
135.2846364091275
 30
0.0
 10
172.0561504985588
 20
135.1701358100532
 30
0.0
 10
172.523533449275
 20
134.9666203911647
 30
0.0
 10
172.777416134453
 20
134.8768430063413
 30
0.0
 10
173.3035257555695
 20
134.7320327641104
 30
0.0
 10
173.5753149787883
 20
134.6765540091219
 30
0.0
 10
174.1365116766658
 20
134.6011366046678
 30
0.0
 10
174.4263084504383
 20
134.5817587721745
 30
0.0
 10
174.997202652795
 20
134.581630394664
 30
0.0
 10
175.2816804219717
 20
134.6002826602495
 30
0.0
 10
175.8484304637673
 20
134.675946113698
 30
0.0
 10
176.1208925804416
 20
134.7316281058416
 30
0.0
 10
176.6450416020988
 20
134.8756046914689
 30
0.0
 10
176.8990858419667
 20
134.9650934517529
 30
0.0
 10
177.3696330254565
 20
135.1697269716299
 30
0.0
 10
177.5869687371858
 20
135.2846333674188
 30
0.0
 10
177.7860942106973
 20
135.4110858074673
 30
0.0
  0
SPLINE
  5
147
330
1F
100
AcDbEntity
  8
0
  6
HIDDEN
 62
     7
370
     0
100
AcDbSpline
210
0.0
220
0.0
230
1.0
 70
     8
 71
     3
 72
    18
 73
    14
 74
     0
 42
0.00000001
 43
0.00000001
 40
0.0
 40
0.0
 40
0.0
 40
0.0
 40
0.25
 40
0.25
 40
0.5
 40
0.5
 40
0.625
 40
0.625
 40
0.75
 40
0.75
 40
0.875
 40
0.875
 40
1.0
 40
1.0
 40
1.0
 40
1.0
 10
177.7860942106972
 20
135.4110858074673
 30
0.0
 10
178.0059698360547
 20
135.5187460701094
 30
0.0
 10
178.2116844737502
 20
135.6392413817583
 30
0.0
 10
178.5708595406686
 20
135.8924419798691
 30
0.0
 10
178.7272609547814
 20
136.0263419224031
 30
0.0
 10
178.9231126702834
 20
136.2378610975422
 30
0.0
 10
178.9820590497375
 20
136.3105634090983
 30
0.0
 10
179.0827733026963
 20
136.455337592733
 30
0.0
 10
179.1250257620595
 20
136.5278407025009
 30
0.0
 10
179.1932397080413
 20
136.6729237293231
 30
0.0
 10
179.2192028330393
 20
136.7455037849921
 30
0.0
 10
179.2542099615715
 20
136.8906438424975
 30
0.0
 10
179.2632128105259
 20
136.9637633197773
 30
0.0
 10
179.2632128105258
 20
137.0351772775884
 30
0.0
  0
SPLINE
  5
148
330
1F
100
AcDbEntity
  8
0
  6
HIDDEN
 62
     7
370
     0
100
AcDbSpline
210
0.0
220
0.0
230
1.0
 70
     8
 71
     3
 72
    16
 73
    12
 74
     0
 42
0.00000001
 43
0.00000001
 40
0.0
 40
0.0
 40
0.0
 40
0.0
 40
0.2500000000000013
 40
0.2500000000000013
 40
0.3750000000000011
 40
0.3750000000000011
 40
0.5000000000000009
 40
0.5000000000000009
 40
0.7500000000000004
 40
0.7500000000000004
 40
1.0
 40
1.0
 40
1.0
 40
1.0
 10
179.2632128105258
 20
137.0351772775884
 30
0.0
 10
179.2632128105259
 20
137.1775312521912
 30
0.0
 10
179.2284437940513
 20
137.3131775226845
 30
0.0
 10
179.1258031851817
 20
137.5073099543285
 30
0.0
 10
179.0827984483879
 20
137.5706958346581
 30
0.0
 10
178.9821925074979
 20
137.6914073393394
 30
0.0
 10
178.9244640085738
 20
137.7491197788208
 30
0.0
 10
178.7300903010804
 20
137.9150302079741
 30
0.0
 10
178.5703173815476
 20
138.0169051078671
 30
0.0
 10
178.2090113565193
 20
138.1974386861091
 30
0.0
 10
178.0074278104712
 20
138.2768107112381
 30
0.0
 10
177.7860942106973
 20
138.3470524115827
 30
0.0
  0
SPLINE
  5
149
330
1F
100
AcDbEntity
  8
0
  6
HIDDEN
 62
     7
370
     0
100
AcDbSpline
210
0.0
220
0.0
230
1.0
 70
     8
 71
     3
 72
    22
 73
    18
 74
     0
 42
0.00000001
 43
0.00000001
 40
0.0
 40
0.0
 40
0.0
 40
0.0
 40
0.125
 40
0.125
 40
0.25
 40
0.25
 40
0.375
 40
0.375
 40
0.5
 40
0.5
 40
0.625
 40
0.625
 40
0.75
 40
0.75
 40
0.875
 40
0.875
 40
1.0
 40
1.0
 40
1.0
 40
1.0
 10
177.7860942106973
 20
138.3470524115827
 30
0.0
 10
177.5869735269842
 20
138.4290094183135
 30
0.0
 10
177.370275122493
 20
138.4993162078785
 30
0.0
 10
176.9028921717767
 20
138.6202113022892
 30
0.0
 10
176.6490094865987
 20
138.6711905725782
 30
0.0
 10
176.1228998654823
 20
138.7516303349614
 30
0.0
 10
175.8511106422634
 20
138.7814003630126
 30
0.0
 10
175.2899139443859
 20
138.8215620413659
 30
0.0
 10
175.0001171706134
 20
138.831660646961
 30
0.0
 10
174.4292229682567
 20
138.8317280202061
 30
0.0
 10
174.1447451990801
 20
138.8220129925888
 30
0.0
 10
173.5779951572844
 20
138.7817278059005
 30
0.0
 10
173.3055330406101
 20
138.7518467079266
 30
0.0
 10
172.781384018953
 20
138.6718867493816
 30
0.0
 10
172.5273397790851
 20
138.6211033417033
 30
0.0
 10
172.0567925955953
 20
138.4995739450963
 30
0.0
 10
171.8394568838659
 20
138.4290113897689
 30
0.0
 10
171.6403314103544
 20
138.3470524115827
 30
0.0
  0
SPLINE
  5
14A
330
1F
100
AcDbEntity
  8
0
  6
HIDDEN
 62
     7
370
     0
100
AcDbSpline
210
0.0
220
0.0
230
1.0
 70
     8
 71
     3
 72
    16
 73
    12
 74
     0
 42
0.00000001
 43
0.00000001
 40
0.0
 40
0.0
 40
0.0
 40
0.0
 40
0.2500000000000081
 40
0.2500000000000081
 40
0.3750000000000072
 40
0.3750000000000072
 40
0.5000000000000062
 40
0.5000000000000062
 40
0.7500000000000031
 40
0.7500000000000031
 40
1.0
 40
1.0
 40
1.0
 40
1.0
 10
171.6403314103545
 20
138.3470524115827
 30
0.0
 10
171.4195285655136
 20
138.2769791498711
 30
0.0
 10
171.2187740599353
 20
138.197937604288
 30
0.0
 10
170.9491552983201
 20
138.0634864464299
 30
0.0
 10
170.8645732854898
 20
138.0160028531915
 30
0.0
 10
170.7068030898836
 20
137.915000168685
 30
0.0
 10
170.6335506073656
 20
137.8612939262221
 30
0.0
 10
170.438094938598
 20
137.6948910286559
 30
0.0
 10
170.3375278328534
 20
137.5756095695114
 30
0.0
 10
170.1996234478213
 20
137.3177382594012
 30
0.0
 10
170.1632128105259
 20
137.1784139810887
 30
0.0
 10
170.1632128105259
 20
137.0351772775884
 30
0.0
  0
SPLINE
  5
14B
330
1F
100
AcDbEntity
  8
0
  6
HIDDEN
 62
     7
370
     0
100
AcDbSpline
210
0.0
220
0.0
230
1.0
 70
     8
 71
     3
 72
    14
 73
    10
 74
     0
 42
0.00000001
 43
0.00000001
 40
0.0
 40
0.0
 40
0.0
 40
0.0
 40
0.25
 40
0.25
 40
0.5
 40
0.5
 40
0.75
 40
0.75
 40
1.0
 40
1.0
 40
1.0
 40
1.0
 10
170.1632128105259
 20
137.0351772775884
 30
0.0
 10
170.1632128105259
 20
136.8920246520929
 30
0.0
 10
170.1989374142577
 20
136.7459428453757
 30
0.0
 10
170.3351305495856
 20
136.4559235731284
 30
0.0
 10
170.4375766027205
 20
136.3090345195059
 30
0.0
 10
170.6976491887275
 20
136.0278015834213
 30
0.0
 10
170.8544542485003
 20
135.8931122179041
 30
0.0
 10
171.2183857362932
 20
135.6367864688844
 30
0.0
 10
171.4208288880758
 20
135.5185633833046
 30
0.0
 10
171.6403314103545
 20
135.4110858074673
 30
0.0
  0
SPLINE
  5
14C
330
1F
100
AcDbEntity
  8
0
  6
HIDDEN
 62
     7
370
     0
100
AcDbSpline
210
0.0
220
0.0
230
1.0
 70
     8
 71
     3
 72
    16
 73
    12
 74
     0
 42
0.00000001
 43
0.00000001
 40
0.0
 40
0.0
 40
0.0
 40
0.0
 40
0.2500000000000003
 40
0.2500000000000003
 40
0.5000000000000007
 40
0.5000000000000007
 40
0.750000000000001
 40
0.750000000000001
 40
0.8750000000000004
 40
0.8750000000000004
 40
1.0
 40
1.0
 40
1.0
 40
1.0
 10
171.6403314103546
 20
97.09004936605646
 30
0.0
 10
171.4209410025653
 20
96.98262668614201
 30
0.0
 10
171.2157946827408
 20
96.8626559603456
 30
0.0
 10
170.854077137881
 20
96.60762406124269
 30
0.0
 10
170.6971024057621
 20
96.47295610526477
 30
0.0
 10
170.4357657750083
 20
96.18992676926808
 30
0.0
 10
170.3349875124623
 20
96.04491916813504
 30
0.0
 10
170.2330304218075
 20
95.82778630111187
 30
0.0
 10
170.2070828795141
 20
95.75522535238817
 30
0.0
 10
170.1720955650864
 20
95.60981809496897
 30
0.0
 10
170.1632128105259
 20
95.53684957364682
 30
0.0
 10
170.1632128105259
 20
95.4659578959353
 30
0.0
  0
SPLINE
  5
14D
330
1F
100
AcDbEntity
  8
0
  6
HIDDEN
 62
     7
370
     0
100
AcDbSpline
210
0.0
220
0.0
230
1.0
 70
     8
 71
     3
 72
    14
 73
    10
 74
     0
 42
0.00000001
 43
0.00000001
 40
0.0
 40
0.0
 40
0.0
 40
0.0
 40
0.25
 40
0.25
 40
0.5
 40
0.5
 40
0.75
 40
0.75
 40
1.0
 40
1.0
 40
1.0
 40
1.0
 10
170.1632128105259
 20
95.4659578959353
 30
0.0
 10
170.1632128105259
 20
95.32423548254195
 30
0.0
 10
170.1976790174998
 20
95.18854966917984
 30
0.0
 10
170.3350829542083
 20
94.9286279890888
 30
0.0
 10
170.4366817700103
 20
94.80781321480295
 30
0.0
 10
170.6959388795391
 20
94.58636632960597
 30
0.0
 10
170.8558349991641
 20
94.48441678178955
 30
0.0
 10
171.21642819067
 20
94.30413918703296
 30
0.0
 10
171.4189717409165
 20
94.22433273566799
 30
0.0
 10
171.6403314103545
 20
94.1540827619409
 30
0.0
  0
SPLINE
  5
14E
330
1F
100
AcDbEntity
  8
0
  6
HIDDEN
 62
     7
370
     0
100
AcDbSpline
210
0.0
220
0.0
230
1.0
 70
     8
 71
     3
 72
    22
 73
    18
 74
     0
 42
0.00000001
 43
0.00000001
 40
0.0
 40
0.0
 40
0.0
 40
0.0
 40
0.125
 40
0.125
 40
0.25
 40
0.25
 40
0.375
 40
0.375
 40
0.5
 40
0.5
 40
0.625
 40
0.625
 40
0.75
 40
0.75
 40
0.875
 40
0.875
 40
1.0
 40
1.0
 40
1.0
 40
1.0
 10
171.6403314103546
 20
94.15408276194103
 30
0.0
 10
171.8394520940676
 20
94.07212575521017
 30
0.0
 10
172.0561504985588
 20
94.0018189656452
 30
0.0
 10
172.5235334492751
 20
93.88092387123447
 30
0.0
 10
172.7774161344531
 20
93.82994460094552
 30
0.0
 10
173.3035257555696
 20
93.74950483856232
 30
0.0
 10
173.5753149787884
 20
93.71973481051111
 30
0.0
 10
174.1365116766658
 20
93.67957313215791
 30
0.0
 10
174.4263084504383
 20
93.66947452656277
 30
0.0
 10
174.997202652795
 20
93.66940715331768
 30
0.0
 10
175.2816804219716
 20
93.67912218093491
 30
0.0
 10
175.8484304637673
 20
93.71940736762322
 30
0.0
 10
176.1208925804416
 20
93.74928846559717
 30
0.0
 10
176.6450416020986
 20
93.82924842414215
 30
0.0
 10
176.8990858419666
 20
93.88003183182042
 30
0.0
 10
177.3696330254564
 20
94.00156122842745
 30
0.0
 10
177.5869687371857
 20
94.07212378375482
 30
0.0
 10
177.7860942106971
 20
94.15408276194103
 30
0.0
  0
SPLINE
  5
14F
330
1F
100
AcDbEntity
  8
0
  6
HIDDEN
 62
     7
370
     0
100
AcDbSpline
210
0.0
220
0.0
230
1.0
 70
     8
 71
     3
 72
    16
 73
    12
 74
     0
 42
0.00000001
 43
0.00000001
 40
0.0
 40
0.0
 40
0.0
 40
0.0
 40
0.2499999999999996
 40
0.2499999999999996
 40
0.4999999999999991
 40
0.4999999999999991
 40
0.7499999999999987
 40
0.7499999999999987
 40
0.8749999999999993
 40
0.8749999999999993
 40
1.0
 40
1.0
 40
1.0
 40
1.0
 10
177.7860942106971
 20
94.15408276194103
 30
0.0
 10
178.0061046454561
 20
94.22390454700576
 30
0.0
 10
178.2070212531881
 20
94.30287721659198
 30
0.0
 10
178.5679258078939
 20
94.4828620609594
 30
0.0
 10
178.7290665757704
 20
94.58537739881065
 30
0.0
 10
178.9886046873206
 20
94.80661827128043
 30
0.0
 10
179.0894166362902
 20
94.92601372036329
 30
0.0
 10
179.1931394788553
 20
95.12069488881296
 30
0.0
 10
179.2196704454072
 20
95.18851706103982
 30
0.0
 10
179.2545435205042
 20
95.32552396347995
 30
0.0
 10
179.2632128105259
 20
95.39516828421208
 30
0.0
 10
179.2632128105258
 20
95.4659578959353
 30
0.0
  0
SPLINE
  5
150
330
1F
100
AcDbEntity
  8
0
  6
HIDDEN
 62
     7
370
     0
100
AcDbSpline
210
0.0
220
0.0
230
1.0
 70
     8
 71
     3
 72
    16
 73
    12
 74
     0
 42
0.00000001
 43
0.00000001
 40
0.0
 40
0.0
 40
0.0
 40
0.0
 40
0.125
 40
0.125
 40
0.25
 40
0.25
 40
0.5
 40
0.5
 40
0.75
 40
0.75
 40
1.0
 40
1.0
 40
1.0
 40
1.0
 10
179.2632128105258
 20
95.4659578959353
 30
0.0
 10
179.2632128105258
 20
95.53637595339022
 30
0.0
 10
179.2546345160583
 20
95.60792728926194
 30
0.0
 10
179.2199499338718
 20
95.7533111741061
 30
0.0
 10
179.1936632665509
 20
95.82721050280114
 30
0.0
 10
179.0909448925775
 20
96.04597936010215
 30
0.0
 10
178.9905855047678
 20
96.19005730541893
 30
0.0
 10
178.7288495095928
 20
96.47341900281442
 30
0.0
 10
178.5712960422939
 20
96.60841057120764
 30
0.0
 10
178.2106851113148
 20
96.86257316395707
 30
0.0
 10
178.0055568608216
 20
96.98259131328626
 30
0.0
 10
177.7860942106971
 20
97.09004936605646
 30
0.0
  0
SPLINE
  5
151
330
1F
100
AcDbEntity
  8
0
  6
HIDDEN
 62
     7
370
     0
100
AcDbSpline
210
0.0
220
0.0
230
1.0
 70
     8
 71
     3
 72
    22
 73
    18
 74
     0
 42
0.00000001
 43
0.00000001
 40
0.0
 40
0.0
 40
0.0
 40
0.0
 40
0.125
 40
0.125
 40
0.25
 40
0.25
 40
0.375
 40
0.375
 40
0.5
 40
0.5
 40
0.625
 40
0.625
 40
0.75
 40
0.75
 40
0.875
 40
0.875
 40
1.0
 40
1.0
 40
1.0
 40
1.0
 10
177.7860942106971
 20
97.09004936605645
 30
0.0
 10
177.5869735269841
 20
97.21649876439629
 30
0.0
 10
177.3702751224929
 20
97.33099936347047
 30
0.0
 10
176.9028921717766
 20
97.53451478235901
 30
0.0
 10
176.6490094865986
 20
97.6242921671824
 30
0.0
 10
176.1228998654822
 20
97.76910240941325
 30
0.0
 10
175.8511106422633
 20
97.82458116440176
 30
0.0
 10
175.2899139443859
 20
97.8999985688558
 30
0.0
 10
175.0001171706134
 20
97.91937640134918
 30
0.0
 10
174.4292229682567
 20
97.91950477885973
 30
0.0
 10
174.1447451990801
 20
97.90085251327412
 30
0.0
 10
173.5779951572844
 20
97.82518905982566
 30
0.0
 10
173.3055330406101
 20
97.76950706768208
 30
0.0
 10
172.781384018953
 20
97.62553048205484
 30
0.0
 10
172.5273397790851
 20
97.53604172177076
 30
0.0
 10
172.0567925955953
 20
97.33140820189381
 30
0.0
 10
171.839456883866
 20
97.216501806105
 30
0.0
 10
171.6403314103546
 20
97.09004936605646
 30
0.0
  0
LINE
  5
152
330
1F
100
AcDbEntity
  8
0
  6
HIDDEN
 62
     7
370
     0
100
AcDbLine
 10
220.5132121668
 20
128.7755672649
 30
0.0
 11
220.5132121668
 21
140.2221661821
 31
0.0
  0
LINE
  5
153
330
1F
100
AcDbEntity
  8
0
  6
HIDDEN
 62
     7
370
     0
100
AcDbLine
 10
220.5132121668
 20
128.7755672649
 30
0.0
 11
215.1132101641
 21
128.7755672649
 31
0.0
  0
SPLINE
  5
154
330
1F
100
AcDbEntity
  8
0
  6
HIDDEN
 62
     7
370
     0
100
AcDbSpline
210
0.0
220
0.0
230
1.0
 70
     8
 71
     3
 72
    14
 73
    10
 74
     0
 42
0.00000001
 43
0.00000001
 40
0.0
 40
0.0
 40
0.0
 40
0.0
 40
0.25
 40
0.25
 40
0.5
 40
0.5
 40
0.75
 40
0.75
 40
1.0
 40
1.0
 40
1.0
 40
1.0
 10
215.1132128105258
 20
128.775567586762
 30
0.0
 10
214.9706198266317
 20
128.775567586762
 30
0.0
 10
214.8309383778625
 20
128.7445811003163
 30
0.0
 10
214.5813545259216
 20
128.6333512482315
 30
0.0
 10
214.4712164624488
 20
128.5531562357498
 30
0.0
 10
214.2941723542033
 20
128.3637649591515
 30
0.0
 10
214.2267782177113
 20
128.2550779749394
 30
0.0
 10
214.135881259633
 20
128.0215747804324
 30
0.0
 10
214.1132128105258
 20
127.9002178343191
 30
0.0
 10
214.1132128105258
 20
127.775567586762
 30
0.0
  0
LINE
  5
155
330
1F
100
AcDbEntity
  8
0
  6
HIDDEN
 62
     7
370
     0
100
AcDbLine
 10
214.1132155881
 20
127.7755680323
 30
0.0
 11
214.1132155881
 21
104.7255671412
 31
0.0
  0
SPLINE
  5
156
330
1F
100
AcDbEntity
  8
0
  6
HIDDEN
 62
     7
370
     0
100
AcDbSpline
210
0.0
220
0.0
230
1.0
 70
     8
 71
     3
 72
    14
 73
    10
 74
     0
 42
0.00000001
 43
0.00000001
 40
0.0
 40
0.0
 40
0.0
 40
0.0
 40
0.25
 40
0.25
 40
0.5
 40
0.5
 40
0.75
 40
0.75
 40
1.0
 40
1.0
 40
1.0
 40
1.0
 10
214.1132128105258
 20
104.725567586762
 30
0.0
 10
214.1132128105258
 20
104.6006212873459
 30
0.0
 10
214.1358261394526
 20
104.4802653634016
 30
0.0
 10
214.2256510252223
 20
104.2483967967444
 30
0.0
 10
214.2930439031937
 20
104.1390325117485
 30
0.0
 10
214.4690941635226
 20
103.9498024165215
 30
0.0
 10
214.5785030750167
 20
103.8692691221459
 30
0.0
 10
214.8312191199307
 20
103.7562167110639
 30
0.0
 10
214.9700977054966
 20
103.725567586762
 30
0.0
 10
215.1132128105258
 20
103.725567586762
 30
0.0
  0
LINE
  5
157
330
1F
100
AcDbEntity
  8
0
  6
HIDDEN
 62
     7
370
     0
100
AcDbLine
 10
215.1132101641
 20
103.7255679086
 30
0.0
 11
220.5132121668
 21
103.7255679086
 31
0.0
  0
LINE
  5
158
330
1F
100
AcDbEntity
  8
0
  6
HIDDEN
 62
     7
370
     0
100
AcDbLine
 10
220.5132121668
 20
103.7255679086
 30
0.0
 11
220.5132121668
 21
92.2789689914
 31
0.0
  0
LINE
  5
159
330
1F
100
AcDbEntity
  8
0
  6
HIDDEN
 62
     7
370
     0
100
AcDbLine
 10
162.713213496
 20
135.7945953325
 30
0.0
 11
162.713213496
 21
96.706539841
 31
0.0
  0
LINE
  5
15A
330
1F
100
AcDbEntity
  8
0
  6
HIDDEN
 62
     7
370
     0
100
AcDbLine
 10
215.1132101641
 20
128.7755672649
 30
0.0
 11
220.5132121668
 21
128.7755672649
 31
0.0
  0
LINE
  5
15B
330
1F
100
AcDbEntity
  8
0
  6
HIDDEN
 62
     7
370
     0
100
AcDbLine
 10
220.5132121668
 20
103.7255679086
 30
0.0
 11
215.1132101641
 21
103.7255679086
 31
0.0
  0
SPLINE
  5
15C
330
1F
100
AcDbEntity
  8
0
  6
HIDDEN
 62
     7
370
     0
100
AcDbSpline
210
0.0
220
0.0
230
1.0
 70
     8
 71
     3
 72
    14
 73
    10
 74
     0
 42
0.00000001
 43
0.00000001
 40
0.0
 40
0.0
 40
0.0
 40
0.0
 40
0.25
 40
0.25
 40
0.5
 40
0.5
 40
0.75
 40
0.75
 40
1.0
 40
1.0
 40
1.0
 40
1.0
 10
214.1132128105258
 20
127.775567586762
 30
0.0
 10
214.1132128105258
 20
127.9005138861781
 30
0.0
 10
214.1358261394526
 20
128.0208698101223
 30
0.0
 10
214.2256510252223
 20
128.2527383767795
 30
0.0
 10
214.2930439031937
 20
128.3621026617754
 30
0.0
 10
214.4690941635226
 20
128.5513327570024
 30
0.0
 10
214.5785030750167
 20
128.631866051378
 30
0.0
 10
214.8312191199307
 20
128.74491846246
 30
0.0
 10
214.9700977054966
 20
128.775567586762
 30
0.0
 10
215.1132128105258
 20
128.775567586762
 30
0.0
  0
SPLINE
  5
15D
330
1F
100
AcDbEntity
  8
0
  6
HIDDEN
 62
     7
370
     0
100
AcDbSpline
210
0.0
220
0.0
230
1.0
 70
     8
 71
     3
 72
    14
 73
    10
 74
     0
 42
0.00000001
 43
0.00000001
 40
0.0
 40
0.0
 40
0.0
 40
0.0
 40
0.25
 40
0.25
 40
0.5
 40
0.5
 40
0.75
 40
0.75
 40
1.0
 40
1.0
 40
1.0
 40
1.0
 10
215.1132128105258
 20
103.725567586762
 30
0.0
 10
214.9706198266317
 20
103.725567586762
 30
0.0
 10
214.8309383778625
 20
103.7565540732077
 30
0.0
 10
214.5813545259216
 20
103.8677839252924
 30
0.0
 10
214.4712164624488
 20
103.9479789377741
 30
0.0
 10
214.2941723542033
 20
104.1373702143724
 30
0.0
 10
214.2267782177113
 20
104.2460571985845
 30
0.0
 10
214.135881259633
 20
104.4795603930916
 30
0.0
 10
214.1132128105258
 20
104.6009173392048
 30
0.0
 10
214.1132128105258
 20
104.725567586762
 30
0.0
  0
LINE
  5
15E
330
1F
100
AcDbEntity
  8
0
  6
HIDDEN
 62
     7
370
     0
100
AcDbLine
 10
214.1132155881
 20
104.7255671412
 30
0.0
 11
214.1132155881
 21
127.7755680323
 31
0.0
  0
ARC
  5
15F
330
1F
100
AcDbEntity
  8
0
  6
HIDDEN
 62
     7
370
     0
100
AcDbCircle
 10
174.7132128105
 20
116.2505675868
 30
0.0
 40
4.250000000000024
100
AcDbArc
 50
223.6947110678
 51
316.3052889322
  0
ARC
  5
160
330
1F
100
AcDbEntity
  8
0
  6
HIDDEN
 62
     7
370
     0
100
AcDbCircle
 10
174.7132128105
 20
116.2505675868
 30
0.0
 40
4.550000000000011
100
AcDbArc
 50
180.0
 51
0.0
  0
ARC
  5
161
330
1F
100
AcDbEntity
  8
0
  6
HIDDEN
 62
     7
370
     0
100
AcDbCircle
 10
174.7132128105
 20
116.2505675868
 30
0.0
 40
4.250000000000014
100
AcDbArc
 50
43.6947110678
 51
136.3052889322
  0
ARC
  5
162
330
1F
100
AcDbEntity
  8
0
  6
HIDDEN
 62
     7
370
     0
100
AcDbCircle
 10
174.7132128105
 20
116.2505675868
 30
0.0
 40
4.550000000000011
100
AcDbArc
 50
0.0
 51
180.0
  0
LINE
  5
163
330
1F
100
AcDbEntity
  8
0
  6
HIDDEN
 62
     7
370
     0
100
AcDbLine
 10
69.8132129834
 20
96.5598900631
 30
0.0
 11
69.833996378
 21
96.549287887
 31
0.0
  0
LWPOLYLINE
  5
164
330
1F
100
AcDbEntity
  8
0
  6
HIDDEN
 62
     7
370
     0
100
AcDbPolyline
 90
        3
 70
   128
 43
0.0
 10
220.5132121668
 20
103.7255679086
 10
221.1128125415
 20
103.1259666026
 10
221.7132101283
 20
102.5255671531
  0
LINE
  5
165
330
1F
100
AcDbEntity
  8
0
  6
HIDDEN
 62
     7
370
     0
100
AcDbLine
 10
221.7132101283
 20
102.5255671531
 30
0.0
 11
221.7132101283
 21
91.5847089902
 31
0.0
  0
LWPOLYLINE
  5
166
330
1F
100
AcDbEntity
  8
0
  6
HIDDEN
 62
     7
370
     0
100
AcDbPolyline
 90
        3
 70
   128
 43
0.0
 10
221.7132101283
 20
102.5255671531
 10
221.1128125415
 20
103.1259666026
 10
220.5132121668
 20
103.7255679086
  0
LWPOLYLINE
  5
167
330
1F
100
AcDbEntity
  8
0
  6
HIDDEN
 62
     7
370
     0
100
AcDbPolyline
 90
        3
 70
   128
 43
0.0
 10
221.7132101283
 20
129.9755680204
 10
221.1128125415
 20
129.3751685709
 10
220.5132121668
 20
128.7755672649
  0
LINE
  5
168
330
1F
100
AcDbEntity
  8
0
  6
HIDDEN
 62
     7
370
     0
100
AcDbLine
 10
221.7132101283
 20
129.9755680204
 30
0.0
 11
221.7132101283
 21
140.9164261833
 31
0.0
  0
LWPOLYLINE
  5
169
330
1F
100
AcDbEntity
  8
0
  6
HIDDEN
 62
     7
370
     0
100
AcDbPolyline
 90
        3
 70
   128
 43
0.0
 10
220.5132121668
 20
128.7755672649
 10
221.1128125415
 20
129.3751685709
 10
221.7132101283
 20
129.9755680204
  0
SPLINE
  5
16A
330
1F
100
AcDbEntity
  8
0
  6
HIDDEN
 62
     7
370
     0
100
AcDbSpline
210
0.0
220
0.0
230
1.0
 70
    11
 71
     3
 72
    22
 73
    18
 74
     0
 42
0.00000001
 43
0.00000001
 40
0.0
 40
0.0
 40
0.0
 40
0.0
 40
0.125
 40
0.125
 40
0.2500000000000001
 40
0.2500000000000001
 40
0.3750000000000001
 40
0.3750000000000001
 40
0.5000000000000001
 40
0.5000000000000001
 40
0.6250000000000001
 40
0.6250000000000001
 40
0.7500000000000002
 40
0.7500000000000002
 40
0.8750000000000002
 40
0.8750000000000002
 40
1.0
 40
1.0
 40
1.0
 40
1.0
 10
95.46821481212741
 20
136.0880960625784
 30
0.0
 10
95.62715764109652
 20
136.1101697706254
 30
0.0
 10
95.76784918898687
 20
136.1268535886131
 30
0.0
 10
96.01383542644929
 20
136.1530752834954
 30
0.0
 10
96.1198735091306
 20
136.1626545893407
 30
0.0
 10
96.29036554969761
 20
136.1767338564198
 30
0.0
 10
96.35441824916133
 20
136.1812404326669
 30
0.0
 10
96.44092230025431
 20
136.1871046025048
 30
0.0
 10
96.46315579561445
 20
136.1884465350231
 30
0.0
 10
96.46326960162638
 20
136.1884536747725
 30
0.0
 10
96.44181167314112
 20
136.1871610392864
 30
0.0
 10
96.35582588026217
 20
136.1813396097761
 30
0.0
 10
96.29051173351263
 20
136.1767401405003
 30
0.0
 10
96.12150589957719
 20
136.1627951196905
 30
0.0
 10
96.01754686170142
 20
136.1534427328321
 30
0.0
 10
95.77003641546247
 20
136.1271142623657
 30
0.0
 10
95.62715232537876
 20
136.1101690323877
 30
0.0
 10
95.46821481212774
 20
136.0880960625785
 30
0.0
  0
SPLINE
  5
16B
330
1F
100
AcDbEntity
  8
0
  6
HIDDEN
 62
     7
370
     0
100
AcDbSpline
210
0.0
220
0.0
230
1.0
 70
    11
 71
     3
 72
    22
 73
    18
 74
     0
 42
0.00000001
 43
0.00000001
 40
0.0
 40
0.0
 40
0.0
 40
0.0
 40
0.125
 40
0.125
 40
0.2500000000000001
 40
0.2500000000000001
 40
0.3750000000000001
 40
0.3750000000000001
 40
0.5000000000000001
 40
0.5000000000000001
 40
0.6250000000000001
 40
0.6250000000000001
 40
0.7500000000000002
 40
0.7500000000000002
 40
0.8750000000000002
 40
0.8750000000000002
 40
1.0
 40
1.0
 40
1.0
 40
1.0
 10
95.46821481212741
 20
96.41303911094548
 30
0.0
 10
95.62715764109652
 20
96.39096540289843
 30
0.0
 10
95.76784918898687
 20
96.37428158491082
 30
0.0
 10
96.01383542644929
 20
96.34805989002852
 30
0.0
 10
96.1198735091306
 20
96.3384805841832
 30
0.0
 10
96.29036554969761
 20
96.32440131710406
 30
0.0
 10
96.35441824916133
 20
96.31989474085702
 30
0.0
 10
96.44092230025431
 20
96.31403057101912
 30
0.0
 10
96.46315579561445
 20
96.31268863850082
 30
0.0
 10
96.46326960162638
 20
96.3126814987513
 30
0.0
 10
96.44181167314112
 20
96.31397413423754
 30
0.0
 10
96.35582588026217
 20
96.31979556374773
 30
0.0
 10
96.29051173351263
 20
96.32439503302358
 30
0.0
 10
96.12150589957719
 20
96.33834005383343
 30
0.0
 10
96.01754686170142
 20
96.34769244069176
 30
0.0
 10
95.77003641546247
 20
96.37402091115817
 30
0.0
 10
95.62715232537876
 20
96.39096614113616
 30
0.0
 10
95.46821481212774
 20
96.41303911094538
 30
0.0
  0
LINE
  5
16C
330
1F
100
AcDbEntity
  8
0
  6
HIDDEN
 62
     7
370
     0
100
AcDbLine
 10
101.7132128105
 20
99.2505666629
 30
0.0
 11
101.7132128105
 21
133.2505685106
 31
0.0
  0
SPLINE
  5
16D
330
1F
100
AcDbEntity
  8
0
  6
HIDDEN
 62
     7
370
     0
100
AcDbSpline
210
0.0
220
0.0
230
1.0
 70
    11
 71
     3
 72
    56
 73
    52
 74
     0
 42
0.00000001
 43
0.00000001
 40
0.0
 40
0.0
 40
0.0
 40
0.0
 40
0.0625000000000001
 40
0.0625000000000001
 40
0.09375
 40
0.09375
 40
0.125
 40
0.125
 40
0.15625
 40
0.15625
 40
0.1875
 40
0.1875
 40
0.21875
 40
0.21875
 40
0.2499999999999999
 40
0.2499999999999999
 40
0.3124999999999998
 40
0.3124999999999998
 40
0.3437499999999998
 40
0.3437499999999998
 40
0.3749999999999998
 40
0.3749999999999998
 40
0.4062499999999997
 40
0.4062499999999997
 40
0.4374999999999997
 40
0.4374999999999997
 40
0.4687499999999996
 40
0.4687499999999996
 40
0.4999999999999995
 40
0.4999999999999995
 40
0.5624999999999993
 40
0.5624999999999993
 40
0.6249999999999991
 40
0.6249999999999991
 40
0.687499999999999
 40
0.687499999999999
 40
0.718749999999999
 40
0.718749999999999
 40
0.749999999999999
 40
0.749999999999999
 40
0.7812499999999991
 40
0.7812499999999991
 40
0.8124999999999991
 40
0.8124999999999991
 40
0.8749999999999994
 40
0.8749999999999994
 40
0.9374999999999997
 40
0.9374999999999997
 40
0.9687499999999999
 40
0.9687499999999999
 40
1.0
 40
1.0
 40
1.0
 40
1.0
 10
95.46821481212741
 20
96.41303911094548
 30
0.0
 10
95.21242750157968
 20
96.44856241483903
 30
0.0
 10
94.92223769463637
 20
96.48410628380726
 30
0.0
 10
94.4355845963456
 20
96.53057798371614
 30
0.0
 10
94.26523875418438
 20
96.54482389694763
 30
0.0
 10
93.91826534409336
 20
96.56911181114604
 30
0.0
 10
93.74032744685861
 20
96.5792881574681
 30
0.0
 10
93.37540816929885
 20
96.59496348507199
 30
0.0
 10
93.18707357720352
 20
96.60045044628485
 30
0.0
 10
92.81318672474804
 20
96.60591044056058
 30
0.0
 10
92.62649651057811
 20
96.60596866381975
 30
0.0
 10
92.25361801965887
 20
96.60078452184295
 30
0.0
 10
92.06591377673651
 20
96.59546904337154
 30
0.0
 10
91.69899487718898
 20
96.57996666234824
 30
0.0
 10
91.52054513512446
 20
96.56986725458754
 30
0.0
 10
90.99975623176377
 20
96.53373541293364
 30
0.0
 10
90.66887251209278
 20
96.50130619191556
 30
0.0
 10
90.23237095376125
 20
96.44977970054846
 30
0.0
 10
90.09558541470865
 20
96.43205508950447
 30
0.0
 10
89.83986080525483
 20
96.3966607629952
 30
0.0
 10
89.72223707714922
 20
96.37916424161459
 30
0.0
 10
89.51216762396062
 20
96.34646184562608
 30
0.0
 10
89.41883278527557
 20
96.33113003668002
 30
0.0
 10
89.25588707459642
 20
96.30353387733122
 30
0.0
 10
89.18618411174658
 20
96.29124719421759
 30
0.0
 10
89.07556104541445
 20
96.27140220243113
 30
0.0
 10
89.03387937380403
 20
96.26371608990448
 30
0.0
 10
88.9777042334288
 20
96.25329870952723
 30
0.0
 10
88.96326595766824
 20
96.25057755185077
 30
0.0
 10
88.96310696256562
 20
96.25054774027015
 30
0.0
 10
89.01876630030242
 20
96.26120987041814
 30
0.0
 10
89.24159106083678
 20
96.30119054215311
 30
0.0
 10
89.40350334643047
 20
96.32952679378542
 30
0.0
 10
89.82729490516627
 20
96.39553770274547
 30
0.0
 10
90.08214132771354
 20
96.4319975755367
 30
0.0
 10
90.52078498782727
 20
96.48384909852305
 30
0.0
 10
90.67748252410672
 20
96.50073673258302
 30
0.0
 10
91.00068247388532
 20
96.53143015320397
 30
0.0
 10
91.16835595530557
 20
96.54538996014783
 30
0.0
 10
91.51594082149428
 20
96.569589389299
 30
0.0
 10
91.69750430231325
 20
96.57988633812981
 30
0.0
 10
92.0636905771221
 20
96.59539228499172
 30
0.0
 10
92.24834799296441
 20
96.6006582668887
 30
0.0
 10
92.80694439952283
 20
96.60858109014421
 30
0.0
 10
93.18927874099337
 20
96.60286696677058
 30
0.0
 10
93.91657588536177
 20
96.57180788060832
 30
0.0
 10
94.27226995946177
 20
96.54611924455834
 30
0.0
 10
94.7555822364127
 20
96.50004723435023
 30
0.0
 10
94.90927984362926
 20
96.48344507593396
 30
0.0
 10
95.20170206847237
 20
96.44882522071966
 30
0.0
 10
95.34031729167756
 20
96.43080129968129
 30
0.0
 10
95.46821481212744
 20
96.41303911094548
 30
0.0
  0
SPLINE
  5
16E
330
1F
100
AcDbEntity
  8
0
  6
HIDDEN
 62
     7
370
     0
100
AcDbSpline
210
0.0
220
0.0
230
1.0
 70
    11
 71
     3
 72
    56
 73
    52
 74
     0
 42
0.00000001
 43
0.00000001
 40
0.0
 40
0.0
 40
0.0
 40
0.0
 40
0.0625000000000001
 40
0.0625000000000001
 40
0.09375
 40
0.09375
 40
0.125
 40
0.125
 40
0.15625
 40
0.15625
 40
0.1875
 40
0.1875
 40
0.21875
 40
0.21875
 40
0.2499999999999999
 40
0.2499999999999999
 40
0.3124999999999998
 40
0.3124999999999998
 40
0.3437499999999998
 40
0.3437499999999998
 40
0.3749999999999998
 40
0.3749999999999998
 40
0.4062499999999997
 40
0.4062499999999997
 40
0.4374999999999997
 40
0.4374999999999997
 40
0.4687499999999996
 40
0.4687499999999996
 40
0.4999999999999995
 40
0.4999999999999995
 40
0.5624999999999993
 40
0.5624999999999993
 40
0.6249999999999991
 40
0.6249999999999991
 40
0.687499999999999
 40
0.687499999999999
 40
0.718749999999999
 40
0.718749999999999
 40
0.749999999999999
 40
0.749999999999999
 40
0.7812499999999991
 40
0.7812499999999991
 40
0.8124999999999991
 40
0.8124999999999991
 40
0.8749999999999994
 40
0.8749999999999994
 40
0.9374999999999997
 40
0.9374999999999997
 40
0.9687499999999999
 40
0.9687499999999999
 40
1.0
 40
1.0
 40
1.0
 40
1.0
 10
95.46821481212741
 20
136.0880960625784
 30
0.0
 10
95.21242750157968
 20
136.0525727586848
 30
0.0
 10
94.92223769463637
 20
136.0170288897166
 30
0.0
 10
94.4355845963456
 20
135.9705571898077
 30
0.0
 10
94.26523875418438
 20
135.9563112765762
 30
0.0
 10
93.91826534409336
 20
135.9320233623778
 30
0.0
 10
93.74032744685861
 20
135.9218470160558
 30
0.0
 10
93.37540816929885
 20
135.9061716884519
 30
0.0
 10
93.18707357720352
 20
135.900684727239
 30
0.0
 10
92.81318672474804
 20
135.8952247329633
 30
0.0
 10
92.62649651057811
 20
135.8951665097041
 30
0.0
 10
92.25361801965887
 20
135.9003506516809
 30
0.0
 10
92.06591377673651
 20
135.9056661301524
 30
0.0
 10
91.69899487718898
 20
135.9211685111756
 30
0.0
 10
91.52054513512446
 20
135.9312679189363
 30
0.0
 10
90.99975623176377
 20
135.9673997605902
 30
0.0
 10
90.66887251209278
 20
135.9998289816083
 30
0.0
 10
90.23237095376125
 20
136.0513554729754
 30
0.0
 10
90.09558541470865
 20
136.0690800840194
 30
0.0
 10
89.83986080525483
 20
136.1044744105287
 30
0.0
 10
89.72223707714922
 20
136.1219709319093
 30
0.0
 10
89.51216762396062
 20
136.1546733278978
 30
0.0
 10
89.41883278527557
 20
136.1700051368439
 30
0.0
 10
89.25588707459642
 20
136.1976012961927
 30
0.0
 10
89.18618411174658
 20
136.2098879793063
 30
0.0
 10
89.07556104541445
 20
136.2297329710927
 30
0.0
 10
89.03387937380403
 20
136.2374190836194
 30
0.0
 10
88.9777042334288
 20
136.2478364639967
 30
0.0
 10
88.96326595766824
 20
136.2505576216731
 30
0.0
 10
88.96310696256562
 20
136.2505874332537
 30
0.0
 10
89.01876630030242
 20
136.2399253031057
 30
0.0
 10
89.24159106083678
 20
136.1999446313708
 30
0.0
 10
89.40350334643047
 20
136.1716083797384
 30
0.0
 10
89.82729490516627
 20
136.1055974707784
 30
0.0
 10
90.08214132771354
 20
136.0691375979872
 30
0.0
 10
90.52078498782727
 20
136.0172860750008
 30
0.0
 10
90.67748252410672
 20
136.0003984409409
 30
0.0
 10
91.00068247388532
 20
135.9697050203199
 30
0.0
 10
91.16835595530557
 20
135.955745213376
 30
0.0
 10
91.51594082149428
 20
135.9315457842249
 30
0.0
 10
91.69750430231325
 20
135.9212488353941
 30
0.0
 10
92.0636905771221
 20
135.9057428885322
 30
0.0
 10
92.24834799296441
 20
135.9004769066352
 30
0.0
 10
92.80694439952283
 20
135.8925540833797
 30
0.0
 10
93.18927874099337
 20
135.8982682067533
 30
0.0
 10
93.91657588536177
 20
135.9293272929156
 30
0.0
 10
94.27226995946177
 20
135.9550159289655
 30
0.0
 10
94.7555822364127
 20
136.0010879391736
 30
0.0
 10
94.90927984362926
 20
136.0176900975899
 30
0.0
 10
95.20170206847237
 20
136.0523099528042
 30
0.0
 10
95.34031729167756
 20
136.0703338738426
 30
0.0
 10
95.46821481212744
 20
136.0880960625784
 30
0.0
  0
LINE
  5
16F
330
1F
100
AcDbEntity
  8
0
  6
HIDDEN
 62
     7
370
     0
100
AcDbLine
 10
121.5970652626
 20
136.1005683259
 30
0.0
 11
127.6632125006
 21
136.1005683259
 31
0.0
  0
LINE
  5
170
330
1F
100
AcDbEntity
  8
0
  6
HIDDEN
 62
     7
370
     0
100
AcDbLine
 10
113.9088334963
 20
136.1005683259
 30
0.0
 11
117.8293606714
 21
136.1005683259
 31
0.0
  0
LINE
  5
171
330
1F
100
AcDbEntity
  8
0
  6
HIDDEN
 62
     7
370
     0
100
AcDbLine
 10
82.7171883062
 20
133.2505685106
 30
0.0
 11
82.7171883062
 21
99.2505666629
 31
0.0
  0
LWPOLYLINE
  5
172
330
1F
100
AcDbEntity
  8
0
  6
HIDDEN
 62
     7
370
     0
100
AcDbPolyline
 90
        2
 70
   128
 43
0.0
 10
82.7171883062
 20
99.2505666629
 10
82.7171883062
 20
99.2505666629
  0
LWPOLYLINE
  5
173
330
1F
100
AcDbEntity
  8
0
  6
HIDDEN
 62
     7
370
     0
100
AcDbPolyline
 90
       12
 70
   128
 43
0.0
 10
109.7132131905
 20
138.1961707786
 10
110.6356760935
 20
138.2500794545
 10
111.5084091649
 20
138.4089053438
 10
112.2843629197
 20
138.6640802786
 10
112.9217051417
 20
139.00185235
 10
113.3860774786
 20
139.4040104762
 10
113.6524441168
 20
139.8488734678
 10
113.7064449937
 20
140.3124597684
 10
113.5451706574
 20
140.7697764054
 10
113.1773140729
 20
141.1961694077
 10
112.6227077544
 20
141.5686537341
 10
112.0783618168
 20
141.8090914205
  0
LWPOLYLINE
  5
174
330
1F
100
AcDbEntity
  8
0
  6
HIDDEN
 62
     7
370
     0
100
AcDbPolyline
 90
       12
 70
   128
 43
0.0
 10
107.3409515881
 20
141.8064781294
 10
106.8037181609
 20
141.5686537341
 10
106.2491113768
 20
141.1961694077
 10
105.8812547923
 20
140.7697764054
 10
105.7199799903
 20
140.3124597684
 10
105.7739817985
 20
139.8488734678
 10
106.0403484368
 20
139.4040104762
 10
106.5047198423
 20
139.00185235
 10
107.14206253
 20
138.6640802786
 10
107.9180162848
 20
138.4089053438
 10
108.7907493562
 20
138.2500794545
 10
109.7132131905
 20
138.1961707786
  0
LINE
  5
175
330
1F
100
AcDbEntity
  8
0
  6
HIDDEN
 62
     7
370
     0
100
AcDbLine
 10
69.8132129834
 20
114.2508161549
 30
0.0
 11
69.8132129834
 21
118.2503064458
 31
0.0
  0
SPLINE
  5
176
330
1F
100
AcDbEntity
  8
0
  6
HIDDEN
 62
     7
370
     0
100
AcDbSpline
210
0.0
220
0.0
230
1.0
 70
     8
 71
     3
 72
     8
 73
     4
 74
     0
 42
0.00000001
 43
0.00000001
 40
0.0
 40
0.0
 40
0.0
 40
0.0
 40
0.0011559732291307
 40
0.0011559732291307
 40
0.0011559732291307
 40
0.0011559732291307
 10
69.81321281052581
 20
118.2504082053886
 30
0.0
 10
70.14654738559312
 20
118.2464409255891
 30
0.0
 10
70.47987857661988
 20
118.2422610430182
 30
0.0
 10
70.81321281052583
 20
118.2376958896101
 30
0.0
  0
SPLINE
  5
177
330
1F
100
AcDbEntity
  8
0
  6
HIDDEN
 62
     7
370
     0
100
AcDbSpline
210
0.0
220
0.0
230
1.0
 70
    24
 71
     3
 72
    12
 73
     8
 74
     0
 42
0.00000001
 43
0.00000001
 40
0.5334361297240865
 40
0.5334361297240865
 40
0.5334361297240865
 40
0.5334361297240865
 40
0.7534361297240867
 40
0.8720147928388999
 40
0.8720147928388999
 40
0.9734361297240746
 40
1.0
 40
1.0
 40
1.0
 40
1.0
 10
69.8132128105258
 20
120.0143469171075
 30
0.0
 10
69.81321281052581
 20
119.7502010555905
 30
0.0
 10
69.8132128105258
 20
119.3306428620645
 30
0.0
 10
69.8132128105258
 20
118.8959024037925
 30
0.0
 10
69.8132128105258
 20
118.6105947014629
 30
0.0
 10
69.8132128105258
 20
118.4460350023889
 30
0.0
 10
69.8132128105258
 20
118.283862108035
 30
0.0
 10
69.8132128105258
 20
118.2503081713308
 30
0.0
  0
SPLINE
  5
178
330
1F
100
AcDbEntity
  8
0
  6
HIDDEN
 62
     7
370
     0
100
AcDbSpline
210
0.0
220
0.0
230
1.0
 70
     8
 71
     3
 72
     8
 73
     4
 74
     0
 42
0.00000001
 43
0.00000001
 40
0.0
 40
0.0
 40
0.0
 40
0.0
 40
0.0011564765856723
 40
0.0011564765856723
 40
0.0011564765856723
 40
0.0011564765856723
 10
70.81321281052583
 20
114.2538672845448
 30
0.0
 10
70.47990487995698
 20
114.2529921289618
 30
0.0
 10
70.14656964756477
 20
114.2519372777106
 30
0.0
 10
69.81321281052583
 20
114.2507661906733
 30
0.0
  0
SPLINE
  5
179
330
1F
100
AcDbEntity
  8
0
  6
HIDDEN
 62
     7
370
     0
100
AcDbSpline
210
0.0
220
0.0
230
1.0
 70
    24
 71
     3
 72
    11
 73
     7
 74
     0
 42
0.00000001
 43
0.00000001
 40
0.0
 40
0.0
 40
0.0
 40
0.0
 40
0.1279896617691176
 40
0.1279896617691176
 40
0.186568324911521
 40
0.4665683249115211
 40
0.4665683249115211
 40
0.4665683249115211
 40
0.4665683249115211
 10
69.81321281052583
 20
114.2508152419678
 30
0.0
 10
69.81321281052583
 20
114.089077716418
 30
0.0
 10
69.81321281052583
 20
113.9249956889926
 30
0.0
 10
69.81321281052583
 20
113.6830439612451
 30
0.0
 10
69.81321281052583
 20
113.246059059182
 30
0.0
 10
69.81321281052581
 20
112.8233487592085
 30
0.0
 10
69.81321281052581
 20
112.4867882563985
 30
0.0
  0
LINE
  5
17A
330
1F
100
AcDbEntity
  8
0
  6
HIDDEN
 62
     7
370
     0
100
AcDbLine
 10
69.8132129834
 20
120.0143468861
 30
0.0
 11
69.8132129834
 21
132.3758833871
 31
0.0
  0
SPLINE
  5
17B
330
1F
100
AcDbEntity
  8
0
  6
HIDDEN
 62
     7
370
     0
100
AcDbSpline
210
0.0
220
0.0
230
1.0
 70
    24
 71
     3
 72
    13
 73
     9
 74
     0
 42
0.00000001
 43
0.00000001
 40
0.4289648948077148
 40
0.4289648948077148
 40
0.4289648948077148
 40
0.4289648948077148
 40
0.4480000000000361
 40
0.56
 40
0.67
 40
0.7800000000003353
 40
0.8899999999999999
 40
1.0
 40
1.0
 40
1.0
 40
1.0
 10
69.81321281052583
 20
100.1802125918251
 30
0.0
 10
69.81321281052583
 20
100.2414171251277
 30
0.0
 10
69.81321281052583
 20
100.6776986148933
 30
0.0
 10
69.81321281052583
 20
101.676404418313
 30
0.0
 10
69.81321281052583
 20
103.5888589280823
 30
0.0
 10
69.81321281052583
 20
106.0535680971173
 30
0.0
 10
69.81321281052583
 20
109.0422533007258
 30
0.0
 10
69.81321281052583
 20
111.3119223318879
 30
0.0
 10
69.81321281052583
 20
112.4867882564135
 30
0.0
  0
LINE
  5
17C
330
1F
100
AcDbEntity
  8
0
  6
HIDDEN
 62
     7
370
     0
100
AcDbLine
 10
109.3730387726
 20
133.2505685106
 30
0.0
 11
109.3730387726
 21
99.2505666629
 31
0.0
  0
LWPOLYLINE
  5
17D
330
1F
100
AcDbEntity
  8
0
  6
HIDDEN
 62
     7
370
     0
100
AcDbPolyline
 90
        2
 70
   128
 43
0.0
 10
109.3730387726
 20
99.2505666629
 10
109.3730387726
 20
99.2505666629
  0
LINE
  5
17E
330
1F
100
AcDbEntity
  8
0
  6
HIDDEN
 62
     7
370
     0
100
AcDbLine
 10
111.6632126719
 20
131.9755674169
 30
0.0
 11
111.6632126719
 21
100.5255677566
 31
0.0
  0
LINE
  5
17F
330
1F
100
AcDbEntity
  8
0
  6
HIDDEN
 62
     7
370
     0
100
AcDbLine
 10
160.8132111356
 20
94.3981506691
 30
0.0
 11
160.8132111356
 21
93.8543756321
 31
0.0
  0
SPLINE
  5
180
330
1F
100
AcDbEntity
  8
0
  6
HIDDEN
 62
     7
370
     0
100
AcDbSpline
210
0.0
220
0.0
230
1.0
 70
     8
 71
     3
 72
    10
 73
     6
 74
     0
 42
0.00000001
 43
0.00000001
 40
0.0
 40
0.0
 40
0.0
 40
0.0
 40
0.5
 40
0.5
 40
1.0
 40
1.0
 40
1.0
 40
1.0
 10
160.8132128105257
 20
93.8543755886206
 30
0.0
 10
160.8132128105258
 20
93.78579774997678
 30
0.0
 10
160.8464375268508
 20
93.71104422883108
 30
0.0
 10
160.959130037498
 20
93.59844997489856
 30
0.0
 10
161.0351805022268
 20
93.56199801874867
 30
0.0
 10
161.1132128105258
 20
93.5539867410464
 30
0.0
  0
SPLINE
  5
181
330
1F
100
AcDbEntity
  8
0
  6
HIDDEN
 62
     7
370
     0
100
AcDbSpline
210
0.0
220
0.0
230
1.0
 70
     8
 71
     3
 72
    10
 73
     6
 74
     0
 42
0.00000001
 43
0.00000001
 40
0.0
 40
0.0
 40
0.0
 40
0.0
 40
0.5
 40
0.5
 40
1.0
 40
1.0
 40
1.0
 40
1.0
 10
161.1132128105258
 20
93.55398674104684
 30
0.0
 10
161.3275407376083
 20
93.53198251509689
 30
0.0
 10
161.5440563712048
 20
93.52215335605163
 30
0.0
 10
161.9813433593126
 20
93.5257265150615
 30
0.0
 10
162.2012809765249
 20
93.53945562121051
 30
0.0
 10
162.4132128105258
 20
93.56518374681164
 30
0.0
  0
SPLINE
  5
182
330
1F
100
AcDbEntity
  8
0
  6
HIDDEN
 62
     7
370
     0
100
AcDbSpline
210
0.0
220
0.0
230
1.0
 70
     8
 71
     3
 72
    10
 73
     6
 74
     0
 42
0.00000001
 43
0.00000001
 40
0.0
 40
0.0
 40
0.0
 40
0.0
 40
0.5
 40
0.5
 40
1.0
 40
1.0
 40
1.0
 40
1.0
 10
162.4132128105258
 20
93.56518374681164
 30
0.0
 10
162.4909458470508
 20
93.57462039108218
 30
0.0
 10
162.566826408644
 20
93.61246992359048
 30
0.0
 10
162.6789977547767
 20
93.72617960512001
 30
0.0
 10
162.7132128105258
 20
93.80226934576332
 30
0.0
 10
162.7132128105258
 20
93.87156620947809
 30
0.0
  0
LINE
  5
183
330
1F
100
AcDbEntity
  8
0
  6
HIDDEN
 62
     7
370
     0
100
AcDbLine
 10
162.713213496
 20
93.8715659842
 30
0.0
 11
162.713213496
 21
94.4152516142
 31
0.0
  0
LINE
  5
184
330
1F
100
AcDbEntity
  8
0
  6
HIDDEN
 62
     7
370
     0
100
AcDbLine
 10
160.8132111356
 20
96.1867556736
 30
0.0
 11
160.8132111356
 21
96.7305307106
 31
0.0
  0
LINE
  5
185
330
1F
100
AcDbEntity
  8
0
  6
HIDDEN
 62
     7
370
     0
100
AcDbLine
 10
162.713213496
 20
96.706539841
 30
0.0
 11
162.713213496
 21
96.1628542111
 31
0.0
  0
SPLINE
  5
186
330
1F
100
AcDbEntity
  8
0
  6
HIDDEN
 62
     7
370
     0
100
AcDbSpline
210
0.0
220
0.0
230
1.0
 70
     8
 71
     3
 72
    10
 73
     6
 74
     0
 42
0.00000001
 43
0.00000001
 40
0.0
 40
0.0
 40
0.0
 40
0.0
 40
0.5
 40
0.5
 40
1.0
 40
1.0
 40
1.0
 40
1.0
 10
162.4132128105258
 20
95.96518374681163
 30
0.0
 10
162.2012841076946
 20
96.00126853965439
 30
0.0
 10
161.9859566501111
 20
96.02061416101141
 30
0.0
 10
161.5486862366674
 20
96.02617353152098
 30
0.0
 10
161.3275427348946
 20
96.01190239403445
 30
0.0
 10
161.1132128105258
 20
95.98091896094915
 30
0.0
  0
LINE
  5
187
330
1F
100
AcDbEntity
  8
0
  6
HIDDEN
 62
     7
370
     0
100
AcDbLine
 10
162.713213496
 20
138.0858835593
 30
0.0
 11
162.713213496
 21
138.6295691893
 31
0.0
  0
SPLINE
  5
188
330
1F
100
AcDbEntity
  8
0
  6
HIDDEN
 62
     7
370
     0
100
AcDbSpline
210
0.0
220
0.0
230
1.0
 70
     8
 71
     3
 72
    10
 73
     6
 74
     0
 42
0.00000001
 43
0.00000001
 40
0.0
 40
0.0
 40
0.0
 40
0.0
 40
0.5
 40
0.5
 40
1.0
 40
1.0
 40
1.0
 40
1.0
 10
162.7132128105258
 20
138.6295689640465
 30
0.0
 10
162.7132128105258
 20
138.6985726310656
 30
0.0
 10
162.6794363988469
 20
138.7744864887011
 30
0.0
 10
162.5664939438665
 20
138.8890266712401
 30
0.0
 10
162.4908289448443
 20
138.92652897415
 30
0.0
 10
162.4132128105258
 20
138.9359514267128
 30
0.0
  0
SPLINE
  5
189
330
1F
100
AcDbEntity
  8
0
  6
HIDDEN
 62
     7
370
     0
100
AcDbSpline
210
0.0
220
0.0
230
1.0
 70
     8
 71
     3
 72
    10
 73
     6
 74
     0
 42
0.00000001
 43
0.00000001
 40
0.0
 40
0.0
 40
0.0
 40
0.0
 40
0.5
 40
0.5
 40
1.0
 40
1.0
 40
1.0
 40
1.0
 10
162.4132128105258
 20
138.9359514267124
 30
0.0
 10
162.2012841076946
 20
138.9616791721954
 30
0.0
 10
161.9859566501111
 20
138.9752022655191
 30
0.0
 10
161.5486862366674
 20
138.9791091541573
 30
0.0
 10
161.3275427348946
 20
138.9691528634808
 30
0.0
 10
161.1132128105258
 20
138.9471484324772
 30
0.0
  0
SPLINE
  5
18A
330
1F
100
AcDbEntity
  8
0
  6
HIDDEN
 62
     7
370
     0
100
AcDbSpline
210
0.0
220
0.0
230
1.0
 70
     8
 71
     3
 72
    10
 73
     6
 74
     0
 42
0.00000001
 43
0.00000001
 40
0.0
 40
0.0
 40
0.0
 40
0.0
 40
0.5
 40
0.5
 40
1.0
 40
1.0
 40
1.0
 40
1.0
 10
161.1132128105258
 20
138.9471484324772
 30
0.0
 10
161.0350746920444
 20
138.9391262916494
 30
0.0
 10
160.9587296125711
 20
138.9022634818217
 30
0.0
 10
160.8469322687454
 20
138.7906068779779
 30
0.0
 10
160.8132128105258
 20
138.7156373789712
 30
0.0
 10
160.8132128105258
 20
138.6467595849021
 30
0.0
  0
LINE
  5
18B
330
1F
100
AcDbEntity
  8
0
  6
HIDDEN
 62
     7
370
     0
100
AcDbLine
 10
160.8132111356
 20
138.6467595414
 30
0.0
 11
160.8132111356
 21
138.1029845044
 31
0.0
  0
LINE
  5
18C
330
1F
100
AcDbEntity
  8
0
  6
HIDDEN
 62
     7
370
     0
100
AcDbLine
 10
160.8132111356
 20
135.770604463
 30
0.0
 11
160.8132111356
 21
136.3143794999
 31
0.0
  0
LINE
  5
18D
330
1F
100
AcDbEntity
  8
0
  6
HIDDEN
 62
     7
370
     0
100
AcDbLine
 10
162.713213496
 20
136.3382809624
 30
0.0
 11
162.713213496
 21
135.7945953325
 31
0.0
  0
SPLINE
  5
18E
330
1F
100
AcDbEntity
  8
0
  6
HIDDEN
 62
     7
370
     0
100
AcDbSpline
210
0.0
220
0.0
230
1.0
 70
     8
 71
     3
 72
    10
 73
     6
 74
     0
 42
0.00000001
 43
0.00000001
 40
0.0
 40
0.0
 40
0.0
 40
0.0
 40
0.5
 40
0.5
 40
1.0
 40
1.0
 40
1.0
 40
1.0
 10
161.1132128105258
 20
136.5202162125749
 30
0.0
 10
161.3275407376083
 20
136.4892330682164
 30
0.0
 10
161.5440563712048
 20
136.4751428019738
 30
0.0
 10
161.9813433593126
 20
136.4802273573736
 30
0.0
 10
162.2012809765249
 20
136.4998661007299
 30
0.0
 10
162.4132128105258
 20
136.5359514267124
 30
0.0
  0
SPLINE
  5
18F
330
1F
100
AcDbEntity
  8
0
  6
HIDDEN
 62
     7
370
     0
100
AcDbSpline
210
0.0
220
0.0
230
1.0
 70
     8
 71
     3
 72
    16
 73
    12
 74
     0
 42
0.00000001
 43
0.00000001
 40
0.0
 40
0.0
 40
0.0
 40
0.0
 40
0.124999999999998
 40
0.124999999999998
 40
0.249999999999996
 40
0.249999999999996
 40
0.4999999999999973
 40
0.4999999999999973
 40
0.7499999999999987
 40
0.7499999999999987
 40
1.0
 40
1.0
 40
1.0
 40
1.0
 10
78.51321281052583
 20
100.4490771507303
 30
0.0
 10
78.60833456519164
 20
100.4490771507303
 30
0.0
 10
78.70166463391973
 20
100.4452613173375
 30
0.0
 10
78.88492639465773
 20
100.4304907646077
 30
0.0
 10
78.97580411021474
 20
100.4193327166321
 30
0.0
 10
79.23260580773447
 20
100.3768614464904
 30
0.0
 10
79.38767317260648
 20
100.3358152492876
 30
0.0
 10
79.6414196341611
 20
100.2406691327057
 30
0.0
 10
79.74229008582896
 20
100.1859063986241
 30
0.0
 10
79.87753650052379
 20
100.0746452747202
 30
0.0
 10
79.91321281052582
 20
100.0174755373915
 30
0.0
 10
79.91321281052582
 20
99.96305396435781
 30
0.0
  0
LINE
  5
190
330
1F
100
AcDbEntity
  8
0
  6
HIDDEN
 62
     7
370
     0
100
AcDbLine
 10
79.91321259
 20
99.9630545095
 30
0.0
 11
79.91321259
 21
99.2505666629
 31
0.0
  0
SPLINE
  5
191
330
1F
100
AcDbEntity
  8
0
  6
HIDDEN
 62
     7
370
     0
100
AcDbSpline
210
0.0
220
0.0
230
1.0
 70
     8
 71
     3
 72
    16
 73
    12
 74
     0
 42
0.00000001
 43
0.00000001
 40
0.0
 40
0.0
 40
0.0
 40
0.0
 40
0.124999999999998
 40
0.124999999999998
 40
0.249999999999996
 40
0.249999999999996
 40
0.4999999999999973
 40
0.4999999999999973
 40
0.7499999999999987
 40
0.7499999999999987
 40
1.0
 40
1.0
 40
1.0
 40
1.0
 10
78.51321281052583
 20
100.4490771507303
 30
0.0
 10
78.60833456519164
 20
100.4490771507303
 30
0.0
 10
78.70166463391973
 20
100.4452613173375
 30
0.0
 10
78.88492639465773
 20
100.4304907646077
 30
0.0
 10
78.97580411021474
 20
100.4193327166321
 30
0.0
 10
79.23260580773447
 20
100.3768614464904
 30
0.0
 10
79.38767317260648
 20
100.3358152492876
 30
0.0
 10
79.6414196341611
 20
100.2406691327057
 30
0.0
 10
79.74229008582896
 20
100.1859063986241
 30
0.0
 10
79.87753650052379
 20
100.0746452747202
 30
0.0
 10
79.91321281052582
 20
100.0174755373915
 30
0.0
 10
79.91321281052582
 20
99.96305396435781
 30
0.0
  0
LINE
  5
192
330
1F
100
AcDbEntity
  8
0
  6
HIDDEN
 62
     7
370
     0
100
AcDbLine
 10
71.0983803943
 20
100.4490763709
 30
0.0
 11
78.5132131056
 21
100.4490763709
 31
0.0
  0
SPLINE
  5
193
330
1F
100
AcDbEntity
  8
0
  6
HIDDEN
 62
     7
370
     0
100
AcDbSpline
210
0.0
220
0.0
230
1.0
 70
     8
 71
     3
 72
     8
 73
     4
 74
     0
 42
0.00000001
 43
0.00000001
 40
0.0
 40
0.0
 40
0.0
 40
0.0
 40
1.0
 40
1.0
 40
1.0
 40
1.0
 10
71.11321281061845
 20
102.5938800968125
 30
0.0
 10
71.11321281062037
 20
101.7099829544956
 30
0.0
 10
71.09973218470985
 20
100.9953997094336
 30
0.0
 10
71.09838081651873
 20
100.4490771507303
 30
0.0
  0
SPLINE
  5
194
330
1F
100
AcDbEntity
  8
0
  6
HIDDEN
 62
     7
370
     0
100
AcDbSpline
210
0.0
220
0.0
230
1.0
 70
     8
 71
     3
 72
    10
 73
     6
 74
     0
 42
0.00000001
 43
0.00000001
 40
0.0
 40
0.0
 40
0.0
 40
0.0
 40
0.5
 40
0.5
 40
1.0
 40
1.0
 40
1.0
 40
1.0
 10
70.81321281052581
 20
103.6187903562423
 30
0.0
 10
70.9046039251933
 20
103.4441515696742
 30
0.0
 10
70.97725575825339
 20
103.2705497435048
 30
0.0
 10
71.0847546501068
 20
102.9269363266179
 30
0.0
 10
71.1132128106128
 20
102.7586105011111
 30
0.0
 10
71.11321281061842
 20
102.593880096872
 30
0.0
  0
LINE
  5
195
330
1F
100
AcDbEntity
  8
0
  6
HIDDEN
 62
     7
370
     0
100
AcDbLine
 10
70.8132131473
 20
106.6497410477
 30
0.0
 11
70.8132131473
 21
103.6187899128
 31
0.0
  0
SPLINE
  5
196
330
1F
100
AcDbEntity
  8
0
  6
HIDDEN
 62
     7
370
     0
100
AcDbSpline
210
0.0
220
0.0
230
1.0
 70
     8
 71
     3
 72
    10
 73
     6
 74
     0
 42
0.00000001
 43
0.00000001
 40
0.0
 40
0.0
 40
0.0
 40
0.0
 40
0.5
 40
0.5
 40
1.0
 40
1.0
 40
1.0
 40
1.0
 10
71.11321281061237
 20
108.0175812111191
 30
0.0
 10
71.11321281061237
 20
107.7755972449047
 30
0.0
 10
71.0850627818539
 20
107.5412548172461
 30
0.0
 10
70.98147286883867
 20
107.0858797974377
 30
0.0
 10
70.9048441600451
 20
106.8642752355202
 30
0.0
 10
70.81321281052583
 20
106.6497408017808
 30
0.0
  0
LINE
  5
197
330
1F
100
AcDbEntity
  8
0
  6
HIDDEN
 62
     7
370
     0
100
AcDbLine
 10
71.1132126377
 20
124.4835541413
 30
0.0
 11
71.1132126377
 21
108.0175810323
 31
0.0
  0
SPLINE
  5
198
330
1F
100
AcDbEntity
  8
0
  6
HIDDEN
 62
     7
370
     0
100
AcDbSpline
210
0.0
220
0.0
230
1.0
 70
     8
 71
     3
 72
     8
 73
     4
 74
     0
 42
0.00000001
 43
0.00000001
 40
0.0
 40
0.0
 40
0.0
 40
0.0
 40
1.0
 40
1.0
 40
1.0
 40
1.0
 10
70.81321281052583
 20
125.8575069002675
 30
0.0
 10
70.99424427526465
 20
125.425399416793
 30
0.0
 10
71.11321281061802
 20
124.9712540131441
 30
0.0
 10
71.11321281061231
 20
124.4835539623739
 30
0.0
  0
LINE
  5
199
330
1F
100
AcDbEntity
  8
0
  6
HIDDEN
 62
     7
370
     0
100
AcDbLine
 10
70.8132131473
 20
128.8907094688
 30
0.0
 11
70.8132131473
 21
125.8575073272
 31
0.0
  0
SPLINE
  5
19A
330
1F
100
AcDbEntity
  8
0
  6
HIDDEN
 62
     7
370
     0
100
AcDbSpline
210
0.0
220
0.0
230
1.0
 70
     8
 71
     3
 72
    10
 73
     6
 74
     0
 42
0.00000001
 43
0.00000001
 40
0.0
 40
0.0
 40
0.0
 40
0.0
 40
0.5
 40
0.5
 40
1.0
 40
1.0
 40
1.0
 40
1.0
 10
71.11321281063138
 20
129.9072550766818
 30
0.0
 10
71.11321281062958
 20
129.7426187310884
 30
0.0
 10
71.08605414020458
 20
129.575463508302
 30
0.0
 10
70.98028914614493
 20
129.2368405026396
 30
0.0
 10
70.9038743586241
 20
129.0645687264828
 30
0.0
 10
70.81321281052585
 20
128.8907099002323
 30
0.0
  0
LINE
  5
19B
330
1F
100
AcDbEntity
  8
0
  6
HIDDEN
 62
     7
370
     0
100
AcDbLine
 10
71.1132126377
 20
132.0520588026
 30
0.0
 11
71.1132126377
 21
129.9072555095
 31
0.0
  0
LINE
  5
19C
330
1F
100
AcDbEntity
  8
0
  6
HIDDEN
 62
     7
370
     0
100
AcDbLine
 10
74.5132124499
 20
132.0520588026
 30
0.0
 11
71.1132126377
 21
132.0520588026
 31
0.0
  0
SPLINE
  5
19D
330
1F
100
AcDbEntity
  8
0
  6
HIDDEN
 62
     7
370
     0
100
AcDbSpline
210
0.0
220
0.0
230
1.0
 70
     8
 71
     3
 72
    18
 73
    14
 74
     0
 42
0.00000001
 43
0.00000001
 40
0.0
 40
0.0
 40
0.0
 40
0.0
 40
0.2499999999999998
 40
0.2499999999999998
 40
0.3749999999999993
 40
0.3749999999999993
 40
0.4999999999999989
 40
0.4999999999999989
 40
0.6249999999999984
 40
0.6249999999999984
 40
0.749999999999998
 40
0.749999999999998
 40
1.0
 40
1.0
 40
1.0
 40
1.0
 10
75.91321281052582
 20
132.5380812091661
 30
0.0
 10
75.91321281052582
 20
132.4836066886139
 30
0.0
 10
75.87830211913365
 20
132.4272256292614
 30
0.0
 10
75.7762928178006
 20
132.3431487884079
 30
0.0
 10
75.73465646312248
 20
132.315815084417
 30
0.0
 10
75.63625066763375
 20
132.262861168818
 30
0.0
 10
75.57870745592946
 20
132.2369738151008
 30
0.0
 10
75.4514092823565
 20
132.1891962702676
 30
0.0
 10
75.38182197759905
 20
132.1672483520897
 30
0.0
 10
75.23038773244409
 20
132.127815787177
 30
0.0
 10
75.14770382935014
 20
132.1102595379511
 30
0.0
 10
74.89159236731207
 20
132.0678207725306
 30
0.0
 10
74.70367736342409
 20
132.0520580227936
 30
0.0
 10
74.51321281052583
 20
132.0520580227936
 30
0.0
  0
LINE
  5
19E
330
1F
100
AcDbEntity
  8
0
  6
HIDDEN
 62
     7
370
     0
100
AcDbLine
 10
75.9132119343
 20
132.538080664
 30
0.0
 11
75.9132119343
 21
133.2505685106
 31
0.0
  0
SPLINE
  5
19F
330
1F
100
AcDbEntity
  8
0
  6
HIDDEN
 62
     7
370
     0
100
AcDbSpline
210
0.0
220
0.0
230
1.0
 70
     8
 71
     3
 72
    18
 73
    14
 74
     0
 42
0.00000001
 43
0.00000001
 40
0.0
 40
0.0
 40
0.0
 40
0.0
 40
0.2500000000000033
 40
0.2500000000000033
 40
0.3750000000000029
 40
0.3750000000000029
 40
0.5000000000000026
 40
0.5000000000000026
 40
0.6250000000000022
 40
0.6250000000000022
 40
0.7500000000000018
 40
0.7500000000000018
 40
1.0
 40
1.0
 40
1.0
 40
1.0
 10
75.91321281052582
 20
132.5380812091661
 30
0.0
 10
75.91321281052582
 20
132.4836066886139
 30
0.0
 10
75.87830211913365
 20
132.4272256292614
 30
0.0
 10
75.7762928178006
 20
132.3431487884079
 30
0.0
 10
75.73465646312249
 20
132.315815084417
 30
0.0
 10
75.63625066763375
 20
132.262861168818
 30
0.0
 10
75.57870745592946
 20
132.2369738151008
 30
0.0
 10
75.45140928235651
 20
132.1891962702676
 30
0.0
 10
75.38182197759905
 20
132.1672483520897
 30
0.0
 10
75.23038773244409
 20
132.127815787177
 30
0.0
 10
75.14770382935014
 20
132.1102595379511
 30
0.0
 10
74.89159236731209
 20
132.0678207725306
 30
0.0
 10
74.7036773634241
 20
132.0520580227936
 30
0.0
 10
74.51321281052583
 20
132.0520580227936
 30
0.0
  0
LINE
  5
1A0
330
1F
100
AcDbEntity
  8
0
  6
HIDDEN
 62
     7
370
     0
100
AcDbLine
 10
74.5132124499
 20
132.0520588026
 30
0.0
 11
71.1132126377
 21
132.0520588026
 31
0.0
  0
LINE
  5
1A1
330
1F
100
AcDbEntity
  8
0
  6
HIDDEN
 62
     7
370
     0
100
AcDbLine
 10
71.0442444757
 20
100.4490763709
 30
0.0
 11
78.5132131056
 21
100.4490763709
 31
0.0
  0
SPLINE
  5
1A2
330
1F
100
AcDbEntity
  8
0
  6
HIDDEN
 62
     7
370
     0
100
AcDbSpline
210
0.0
220
0.0
230
1.0
 70
     8
 71
     3
 72
    22
 73
    18
 74
     0
 42
0.00000001
 43
0.00000001
 40
0.0
 40
0.0
 40
0.0
 40
0.0
 40
0.1249999999999998
 40
0.1249999999999998
 40
0.2499999999999996
 40
0.2499999999999996
 40
0.4999999999999992
 40
0.4999999999999992
 40
0.5624999999999992
 40
0.5624999999999992
 40
0.6249999999999992
 40
0.6249999999999992
 40
0.7499999999999994
 40
0.7499999999999994
 40
0.8749999999999998
 40
0.8749999999999998
 40
1.0
 40
1.0
 40
1.0
 40
1.0
 10
71.04424382388375
 20
100.4490771507303
 30
0.0
 10
71.03116143115537
 20
100.7041828608779
 30
0.0
 10
71.01794186771555
 20
100.9973411199819
 30
0.0
 10
70.99549468992141
 20
101.6596415856066
 30
0.0
 10
70.98601622289696
 20
102.029915506218
 30
0.0
 10
70.96681826196041
 20
103.2524723093318
 30
0.0
 10
70.9679320349573
 20
104.1896112354637
 30
0.0
 10
70.98684282791038
 20
105.5094824649787
 30
0.0
 10
70.99147235576937
 20
105.780984373955
 30
0.0
 10
71.00195357551533
 20
106.3393692087573
 30
0.0
 10
71.00774883679975
 20
106.6264920646969
 30
0.0
 10
71.02605805770467
 20
107.4990813190686
 30
0.0
 10
71.04009299198505
 20
108.0995369954245
 30
0.0
 10
71.06955016412188
 20
109.3370114879205
 30
0.0
 10
71.08510585510344
 20
109.974027644564
 30
0.0
 10
71.10890040510033
 20
111.2855162422485
 30
0.0
 10
71.1169194572457
 20
111.9616388539091
 30
0.0
 10
71.11321281052582
 20
112.6459339651938
 30
0.0
  0
LINE
  5
1A3
330
1F
100
AcDbEntity
  8
0
  6
HIDDEN
 62
     7
370
     0
100
AcDbLine
 10
71.1132126377
 20
119.8552013204
 30
0.0
 11
71.1132126377
 21
132.0520588026
 31
0.0
  0
SPLINE
  5
1A4
330
1F
100
AcDbEntity
  8
0
  6
HIDDEN
 62
     7
370
     0
100
AcDbSpline
210
0.0
220
0.0
230
1.0
 70
     8
 71
     3
 72
    10
 73
     6
 74
     0
 42
0.00000001
 43
0.00000001
 40
0.0
 40
0.0
 40
0.0
 40
0.0
 40
0.5
 40
0.5
 40
1.0
 40
1.0
 40
1.0
 40
1.0
 10
71.11321281052582
 20
112.6459339651788
 30
0.0
 10
71.11321281052562
 20
112.919849113253
 30
0.0
 10
71.08745358065781
 20
113.1907906919829
 30
0.0
 10
70.98424764792466
 20
113.7264817735855
 30
0.0
 10
70.90690948404952
 20
113.9922285771073
 30
0.0
 10
70.81321281052583
 20
114.2538672845448
 30
0.0
  0
SPLINE
  5
1A5
330
1F
100
AcDbEntity
  8
0
  6
HIDDEN
 62
     7
370
     0
100
AcDbSpline
210
0.0
220
0.0
230
1.0
 70
     8
 71
     3
 72
    10
 73
     6
 74
     0
 42
0.00000001
 43
0.00000001
 40
0.0
 40
0.0
 40
0.0
 40
0.0
 40
0.5
 40
0.5
 40
1.0
 40
1.0
 40
1.0
 40
1.0
 10
70.81321281052583
 20
118.2376958896101
 30
0.0
 10
70.90644339087707
 20
118.5015896962085
 30
0.0
 10
70.98147300240588
 20
118.767770005307
 30
0.0
 10
71.08654010038558
 20
119.3060925771259
 30
0.0
 10
71.11321281063017
 20
119.5788406917418
 30
0.0
 10
71.11321281063135
 20
119.855201208329
 30
0.0
  0
LINE
  5
1A6
330
1F
100
AcDbEntity
  8
0
  6
HIDDEN
 62
     7
370
     0
100
AcDbLine
 10
70.8132131473
 20
114.2538674005
 30
0.0
 11
70.8132131473
 21
118.2376958725
 31
0.0
  0
SPLINE
  5
1A7
330
1F
100
AcDbEntity
  8
0
  6
HIDDEN
 62
     7
370
     0
100
AcDbSpline
210
0.0
220
0.0
230
1.0
 70
     8
 71
     3
 72
    10
 73
     6
 74
     0
 42
0.00000001
 43
0.00000001
 40
0.0
 40
0.0
 40
0.0
 40
0.0
 40
0.5
 40
0.5
 40
1.0
 40
1.0
 40
1.0
 40
1.0
 10
162.4132128105258
 20
113.8505675867619
 30
0.0
 10
162.2012841076946
 20
113.7887550484362
 30
0.0
 10
161.9859566501111
 20
113.7558863337554
 30
0.0
 10
161.5486862366674
 20
113.7464200746077
 30
0.0
 10
161.3275427348946
 20
113.7706475027707
 30
0.0
 10
161.1132128105258
 20
113.8236353668596
 30
0.0
  0
SPLINE
  5
1A8
330
1F
100
AcDbEntity
  8
0
  6
HIDDEN
 62
     7
370
     0
100
AcDbSpline
210
0.0
220
0.0
230
1.0
 70
     8
 71
     3
 72
    10
 73
     6
 74
     0
 42
0.00000001
 43
0.00000001
 40
0.0
 40
0.0
 40
0.0
 40
0.0
 40
0.5
 40
0.5
 40
1.0
 40
1.0
 40
1.0
 40
1.0
 10
161.1132128105258
 20
118.6774998066642
 30
0.0
 10
161.3275407376083
 20
118.7304871769727
 30
0.0
 10
161.5440563712048
 20
118.7544066022605
 30
0.0
 10
161.9813433593126
 20
118.7457488878509
 30
0.0
 10
162.2012809765249
 20
118.7123810383455
 30
0.0
 10
162.4132128105258
 20
118.6505675867619
 30
0.0
  0
SPLINE
  5
1A9
330
1F
100
AcDbEntity
  8
0
  6
HIDDEN
 62
     7
370
     0
100
AcDbSpline
210
0.0
220
0.0
230
1.0
 70
     8
 71
     3
 72
    10
 73
     6
 74
     0
 42
0.00000001
 43
0.00000001
 40
0.0
 40
0.0
 40
0.0
 40
0.0
 40
0.5
 40
0.5
 40
1.0
 40
1.0
 40
1.0
 40
1.0
 10
162.7132128105258
 20
113.9592797392823
 30
0.0
 10
162.7132128105258
 20
113.9592797392823
 30
0.0
 10
162.6794363988469
 20
113.9440360489187
 30
0.0
 10
162.5664939438665
 20
113.8999108561485
 30
0.0
 10
162.4908289448443
 20
113.8732056259381
 30
0.0
 10
162.4132128105258
 20
113.8505675867619
 30
0.0
  0
LINE
  5
1AA
330
1F
100
AcDbEntity
  8
0
  6
HIDDEN
 62
     7
370
     0
100
AcDbLine
 10
162.713213496
 20
113.9592798256
 30
0.0
 11
162.713213496
 21
91.6255679742
 31
0.0
  0
SPLINE
  5
1AB
330
1F
100
AcDbEntity
  8
0
  6
HIDDEN
 62
     7
370
     0
100
AcDbSpline
210
0.0
220
0.0
230
1.0
 70
     8
 71
     3
 72
    10
 73
     6
 74
     0
 42
0.00000001
 43
0.00000001
 40
0.0
 40
0.0
 40
0.0
 40
0.0
 40
0.5
 40
0.5
 40
1.0
 40
1.0
 40
1.0
 40
1.0
 10
162.4132128105258
 20
118.6505675867619
 30
0.0
 10
162.4909458470508
 20
118.6278954511088
 30
0.0
 10
162.566826408644
 20
118.6010929530278
 30
0.0
 10
162.6789977547767
 20
118.5572719704682
 30
0.0
 10
162.7132128105258
 20
118.5418554342404
 30
0.0
 10
162.7132128105258
 20
118.5418554342404
 30
0.0
  0
LINE
  5
1AC
330
1F
100
AcDbEntity
  8
0
  6
HIDDEN
 62
     7
370
     0
100
AcDbLine
 10
162.713213496
 20
118.5418553479
 30
0.0
 11
162.713213496
 21
140.8755671993
 31
0.0
  0
SPLINE
  5
1AD
330
1F
100
AcDbEntity
  8
0
  6
HIDDEN
 62
     7
370
     0
100
AcDbSpline
210
0.0
220
0.0
230
1.0
 70
     8
 71
     3
 72
    10
 73
     6
 74
     0
 42
0.00000001
 43
0.00000001
 40
0.0
 40
0.0
 40
0.0
 40
0.0
 40
0.5
 40
0.5
 40
1.0
 40
1.0
 40
1.0
 40
1.0
 10
160.8132128105257
 20
118.5829483447028
 30
0.0
 10
160.8132128105258
 20
118.5829483447029
 30
0.0
 10
160.8464375268508
 20
118.5962547628888
 30
0.0
 10
160.959130037498
 20
118.634871865175
 30
0.0
 10
161.0351805022268
 20
118.6582082151664
 30
0.0
 10
161.1132128105258
 20
118.6774998066643
 30
0.0
  0
LINE
  5
1AE
330
1F
100
AcDbEntity
  8
0
  6
HIDDEN
 62
     7
370
     0
100
AcDbLine
 10
160.8132111356
 20
118.5829483267
 30
0.0
 11
160.8132111356
 21
140.8755671993
 31
0.0
  0
SPLINE
  5
1AF
330
1F
100
AcDbEntity
  8
0
  6
HIDDEN
 62
     7
370
     0
100
AcDbSpline
210
0.0
220
0.0
230
1.0
 70
     8
 71
     3
 72
    10
 73
     6
 74
     0
 42
0.00000001
 43
0.00000001
 40
0.0
 40
0.0
 40
0.0
 40
0.0
 40
0.5
 40
0.5
 40
1.0
 40
1.0
 40
1.0
 40
1.0
 10
161.1132128105258
 20
113.8236353668596
 30
0.0
 10
161.0350746920444
 20
113.8429531173532
 30
0.0
 10
160.9587296125711
 20
113.8664017706891
 30
0.0
 10
160.8469322687454
 20
113.9047096291143
 30
0.0
 10
160.8132128105258
 20
113.9181868288234
 30
0.0
 10
160.8132128105258
 20
113.9181868288234
 30
0.0
  0
LINE
  5
1B0
330
1F
100
AcDbEntity
  8
0
  6
HIDDEN
 62
     7
370
     0
100
AcDbLine
 10
160.8132111356
 20
113.9181868468
 30
0.0
 11
160.8132111356
 21
91.6255679742
 31
0.0
  0
LINE
  5
1B1
330
1F
100
AcDbEntity
  8
0
  6
HIDDEN
 62
     7
370
     0
100
AcDbLine
 10
79.91321259
 20
98.2605670408
 30
0.0
 11
79.91321259
 21
94.2868296817
 31
0.0
  0
LINE
  5
1B2
330
1F
100
AcDbEntity
  8
0
  6
HIDDEN
 62
     7
370
     0
100
AcDbLine
 10
70.9632119612
 20
98.2605670408
 30
0.0
 11
70.9632119612
 21
95.3806289301
 31
0.0
  0
LINE
  5
1B3
330
1F
100
AcDbEntity
  8
0
  6
HIDDEN
 62
     7
370
     0
100
AcDbLine
 10
69.8132129834
 20
98.2605670408
 30
0.0
 11
69.8132129834
 21
96.5598900631
 31
0.0
  0
LINE
  5
1B4
330
1F
100
AcDbEntity
  8
0
  6
HIDDEN
 62
     7
370
     0
100
AcDbLine
 10
70.9632119612
 20
134.2405681327
 30
0.0
 11
70.9632119612
 21
137.1205062434
 31
0.0
  0
LINE
  5
1B5
330
1F
100
AcDbEntity
  8
0
  6
HIDDEN
 62
     7
370
     0
100
AcDbLine
 10
69.8132129834
 20
134.2405681327
 30
0.0
 11
69.8132129834
 21
135.9412451104
 31
0.0
  0
LINE
  5
1B6
330
1F
100
AcDbEntity
  8
0
  6
HIDDEN
 62
     7
370
     0
100
AcDbLine
 10
75.9132119343
 20
134.2405681327
 30
0.0
 11
75.9132119343
 21
138.0946752444
 31
0.0
  0
LINE
  5
1B7
330
1F
100
AcDbEntity
  8
0
  6
HIDDEN
 62
     7
370
     0
100
AcDbLine
 10
120.5132125393
 20
125.7505672813
 30
0.0
 11
120.5132125393
 21
106.7505678922
 31
0.0
  0
LINE
  5
1B8
330
1F
100
AcDbEntity
  8
0
  6
HIDDEN
 62
     7
370
     0
100
AcDbLine
 10
123.5132130311
 20
125.7505672813
 30
0.0
 11
123.5132130311
 21
106.7505678922
 31
0.0
  0
LINE
  5
1B9
330
1F
100
AcDbEntity
  8
0
  6
HIDDEN
 62
     7
370
     0
100
AcDbLine
 10
112.1632127539
 20
124.7505680487
 30
0.0
 11
112.1632127539
 21
107.7505671248
 31
0.0
  0
LINE
  5
1BA
330
1F
100
AcDbEntity
  8
0
  6
HIDDEN
 62
     7
370
     0
100
AcDbLine
 10
111.6632126719
 20
107.2505679742
 30
0.0
 11
111.6632126719
 21
125.2241595477
 31
0.0
  0
LWPOLYLINE
  5
1BB
330
1F
100
AcDbEntity
  8
0
  6
HIDDEN
 62
     7
370
     0
100
AcDbPolyline
 90
        2
 70
   128
 43
0.0
 10
127.6632125006
 20
89.8505677298
 10
127.6632125006
 20
89.8505677298
  0
LINE
  5
1BC
330
1F
100
AcDbEntity
  8
0
  6
HIDDEN
 62
     7
370
     0
100
AcDbLine
 10
106.6632127837
 20
84.7664442674
 30
0.0
 11
106.6632127837
 21
89.8505677298
 31
0.0
  0
LINE
  5
1BD
330
1F
100
AcDbEntity
  8
0
  6
HIDDEN
 62
     7
370
     0
100
AcDbLine
 10
114.6632131637
 20
89.8505677298
 30
0.0
 11
106.6632127837
 21
89.8505677298
 31
0.0
  0
LINE
  5
1BE
330
1F
100
AcDbEntity
  8
0
  6
HIDDEN
 62
     7
370
     0
100
AcDbLine
 10
127.6632125006
 20
89.8505677298
 30
0.0
 11
121.5255378262
 21
89.8505677298
 31
0.0
  0
LINE
  5
1BF
330
1F
100
AcDbEntity
  8
0
  6
HIDDEN
 62
     7
370
     0
100
AcDbLine
 10
121.6232130752
 20
88.7527302668
 30
0.0
 11
121.6232130752
 21
89.4461725668
 31
0.0
  0
LINE
  5
1C0
330
1F
100
AcDbEntity
  8
0
  6
HIDDEN
 62
     7
370
     0
100
AcDbLine
 10
127.6632125006
 20
89.8505677298
 30
0.0
 11
127.6632125006
 21
86.6902903483
 31
0.0
  0
LINE
  5
1C1
330
1F
100
AcDbEntity
  8
0
  6
HIDDEN
 62
     7
370
     0
100
AcDbLine
 10
117.9008881078
 20
89.8505677298
 30
0.0
 11
114.6632131637
 21
89.8505677298
 31
0.0
  0
LINE
  5
1C2
330
1F
100
AcDbEntity
  8
0
  6
HIDDEN
 62
     7
370
     0
100
AcDbLine
 10
117.8032128588
 20
89.4461725668
 30
0.0
 11
117.8032128588
 21
88.7527302668
 31
0.0
  0
LINE
  5
1C3
330
1F
100
AcDbEntity
  8
0
  6
HIDDEN
 62
     7
370
     0
100
AcDbLine
 10
120.5132125393
 20
107.7505671248
 30
0.0
 11
120.5132125393
 21
124.7505680487
 31
0.0
  0
LWPOLYLINE
  5
1C4
330
1F
100
AcDbEntity
  8
0
  6
HIDDEN
 62
     7
370
     0
100
AcDbPolyline
 90
        2
 70
   128
 43
0.0
 10
127.6632125006
 20
142.6505674437
 10
127.6632125006
 20
142.6505674437
  0
LINE
  5
1C5
330
1F
100
AcDbEntity
  8
0
  6
HIDDEN
 62
     7
370
     0
100
AcDbLine
 10
114.6632131637
 20
142.6505674437
 30
0.0
 11
106.6632127837
 21
142.6505674437
 31
0.0
  0
LINE
  5
1C6
330
1F
100
AcDbEntity
  8
0
  6
HIDDEN
 62
     7
370
     0
100
AcDbLine
 10
118.1975106225
 20
142.6505674437
 30
0.0
 11
114.6632131637
 21
142.6505674437
 31
0.0
  0
LINE
  5
1C7
330
1F
100
AcDbEntity
  8
0
  6
HIDDEN
 62
     7
370
     0
100
AcDbLine
 10
117.8032128588
 20
143.3702208862
 30
0.0
 11
117.8032128588
 21
144.055800961
 31
0.0
  0
LINE
  5
1C8
330
1F
100
AcDbEntity
  8
0
  6
HIDDEN
 62
     7
370
     0
100
AcDbLine
 10
127.6632125006
 20
142.6505674437
 30
0.0
 11
121.2289153115
 21
142.6505674437
 31
0.0
  0
LINE
  5
1C9
330
1F
100
AcDbEntity
  8
0
  6
HIDDEN
 62
     7
370
     0
100
AcDbLine
 10
121.6232130752
 20
144.055800961
 30
0.0
 11
121.6232130752
 21
143.3702208862
 31
0.0
  0
LINE
  5
1CA
330
1F
100
AcDbEntity
  8
0
  6
HIDDEN
 62
     7
370
     0
100
AcDbLine
 10
127.6632125006
 20
142.6505674437
 30
0.0
 11
127.6632125006
 21
146.0970085875
 31
0.0
  0
SPLINE
  5
1CB
330
1F
100
AcDbEntity
  8
0
  6
HIDDEN
 62
     7
370
     0
100
AcDbSpline
210
0.0
220
0.0
230
1.0
 70
     8
 71
     3
 72
    11
 73
     7
 74
     0
 42
0.00000001
 43
0.00000001
 40
0.0
 40
0.0
 40
0.0
 40
0.0
 40
0.0008203708524183
 40
0.0008203708524183
 40
0.0008203708524183
 40
0.0016409967870154
 40
0.0016409967870154
 40
0.0016409967870154
 40
0.0016409967870154
 10
70.96321281052583
 20
100.3985348361192
 30
0.0
 10
70.77205451022716
 20
100.3573558075001
 30
0.0
 10
70.58062744015498
 20
100.3186018352701
 30
0.0
 10
70.38898181663436
 20
100.2822340759915
 30
0.0
 10
70.1972764115539
 20
100.2458549722255
 30
0.0
 10
70.00533745949494
 20
100.2118607214579
 30
0.0
 10
69.81321281242411
 20
100.1802125960667
 30
0.0
  0
LINE
  5
1CC
330
1F
100
AcDbEntity
  8
0
  6
HIDDEN
 62
     7
370
     0
100
AcDbLine
 10
69.8132129834
 20
98.2605670408
 30
0.0
 11
69.8132129834
 21
100.1802128569
 31
0.0
  0
ELLIPSE
  5
1CD
330
1F
100
AcDbEntity
  8
0
  6
HIDDEN
 62
     7
370
     0
100
AcDbEllipse
 10
65.5707809478
 20
116.2505675868
 30
0.0
 11
20.19992452771986
 21
-1.421085471520200E-14
 31
0.0
210
0.0
220
0.0
230
1.0
 40
0.816496581
 41
1.300566354937426
 42
1.359198697443033
  0
LINE
  5
1CE
330
1F
100
AcDbEntity
  8
0
  6
HIDDEN
 62
     7
370
     0
100
AcDbLine
 10
69.8132129834
 20
134.2405681327
 30
0.0
 11
69.8132129834
 21
132.3758833871
 31
0.0
  0
LINE
  5
1CF
330
1F
100
AcDbEntity
  8
0
  6
HIDDEN
 62
     7
370
     0
100
AcDbLine
 10
144.7132142708
 20
122.300567554
 30
0.0
 11
144.7132142708
 21
110.2005676195
 31
0.0
  0
LINE
  5
1D0
330
1F
100
AcDbEntity
  8
0
  6
HIDDEN
 62
     7
370
     0
100
AcDbLine
 10
145.7132125721
 20
123.3005677179
 30
0.0
 11
145.7132125721
 21
109.2005674556
 31
0.0
  0
LINE
  5
1D1
330
1F
100
AcDbEntity
  8
0
  6
HIDDEN
 62
     7
370
     0
100
AcDbLine
 10
79.91321259
 20
98.2605670408
 30
0.0
 11
79.91321259
 21
99.9630545095
 31
0.0
  0
LINE
  5
1D2
330
1F
100
AcDbEntity
  8
0
  6
HIDDEN
 62
     7
370
     0
100
AcDbLine
 10
70.9632119612
 20
98.2605670408
 30
0.0
 11
70.9632119612
 21
100.3985353575
 31
0.0
  0
LINE
  5
1D3
330
1F
100
AcDbEntity
  8
0
  6
HIDDEN
 62
     7
370
     0
100
AcDbLine
 10
71.0442444757
 20
100.4490763709
 30
0.0
 11
70.9632119612
 21
100.3985353575
 31
0.0
  0
LINE
  5
1D4
330
1F
100
AcDbEntity
  8
0
  6
HIDDEN
 62
     7
370
     0
100
AcDbLine
 10
70.9632119612
 20
134.2405681327
 30
0.0
 11
70.9632119612
 21
132.1451929227
 31
0.0
  0
SPLINE
  5
1D5
330
1F
100
AcDbEntity
  8
0
  6
HIDDEN
 62
     7
370
     0
100
AcDbSpline
210
0.0
220
0.0
230
1.0
 70
     8
 71
     3
 72
     8
 73
     4
 74
     0
 42
0.00000001
 43
0.00000001
 40
0.0
 40
0.0
 40
0.0
 40
0.0
 40
1.0
 40
1.0
 40
1.0
 40
1.0
 10
70.96321281052583
 20
132.1451920357607
 30
0.0
 10
71.01321830837341
 20
132.1141562622278
 30
0.0
 10
71.06321837794191
 20
132.0831116178869
 30
0.0
 10
71.11321281063137
 20
132.0520580227936
 30
0.0
  0
LINE
  5
1D6
330
1F
100
AcDbEntity
  8
0
  6
HIDDEN
 62
     7
370
     0
100
AcDbLine
 10
75.9132119343
 20
134.2405681327
 30
0.0
 11
75.9132119343
 21
132.538080664
 31
0.0
  0
LINE
  5
1D7
330
1F
100
AcDbEntity
  8
0
  6
HIDDEN
 62
     7
370
     0
100
AcDbLine
 10
140.101621531
 20
120.450567437
 30
0.0
 11
140.101621531
 21
112.0505677365
 31
0.0
  0
LINE
  5
1D8
330
1F
100
AcDbEntity
  8
0
  6
HIDDEN
 62
     7
370
     0
100
AcDbLine
 10
141.2132146285
 20
122.300567554
 30
0.0
 11
141.2132146285
 21
110.2005676195
 31
0.0
  0
SPLINE
  5
1D9
330
1F
100
AcDbEntity
  8
0
  6
HIDDEN
 62
     7
370
     0
100
AcDbSpline
210
0.0
220
0.0
230
1.0
 70
    11
 71
     3
 72
    34
 73
    30
 74
     0
 42
0.00000001
 43
0.00000001
 40
0.0
 40
0.0
 40
0.0
 40
0.0
 40
0.0127738749552126
 40
0.0481304964038708
 40
0.0807424858551922
 40
0.1375890904944997
 40
0.1884518708083829
 40
0.2226712072712077
 40
0.262693833248409
 40
0.2986558257969797
 40
0.3315197710941648
 40
0.3878459600247215
 40
0.3881259398132744
 40
0.4440925970956044
 40
0.4768435525191149
 40
0.5126448808415757
 40
0.5530084569624955
 40
0.587385576589988
 40
0.6380120863298642
 40
0.6949796216261735
 40
0.7275539778406399
 40
0.7628079274883411
 40
0.8028703408021718
 40
0.837083149602964
 40
0.8877749714166558
 40
0.8880089101832553
 40
0.938839779186652
 40
0.972971264235578
 40
0.9999999999999999
 40
0.9999999999999999
 40
0.9999999999999999
 40
0.9999999999999999
 10
89.87322510040752
 20
93.18290509436748
 30
0.0
 10
89.93241860648072
 20
93.18899450817827
 30
0.0
 10
90.1554529512804
 20
93.21193872131245
 30
0.0
 10
90.67880594417399
 20
93.2485800228485
 30
0.0
 10
91.5515689339967
 20
93.27626680221792
 30
0.0
 10
92.66640708260815
 20
93.26570817235682
 30
0.0
 10
93.77947264729298
 20
93.14956642497877
 30
0.0
 10
94.67391449767074
 20
93.0279748542149
 30
0.0
 10
95.35774732214428
 20
92.9062164886505
 30
0.0
 10
95.89850474121982
 20
92.78985717430979
 30
0.0
 10
96.31190632292713
 20
92.69637670481701
 30
0.0
 10
96.54003991902577
 20
92.62976036021834
 30
0.0
 10
96.38570828571075
 20
92.67094969173948
 30
0.0
 10
96.35880130170565
 20
92.68344278855231
 30
0.0
 10
95.90288529618242
 20
92.78902368571852
 30
0.0
 10
95.37894990249812
 20
92.9017703187324
 30
0.0
 10
94.6927435713627
 20
93.02486985986347
 30
0.0
 10
93.799630087676
 20
93.14686156346698
 30
0.0
 10
92.68619359606195
 20
93.26461340016328
 30
0.0
 10
91.57544300599591
 20
93.27658236811116
 30
0.0
 10
90.69069051766056
 20
93.24952756820693
 30
0.0
 10
90.02349686683345
 20
93.20159449457266
 30
0.0
 10
89.48221505025691
 20
93.14529669771402
 30
0.0
 10
89.09466953202737
 20
93.10022781652286
 30
0.0
 10
88.90061617497585
 20
93.06131384337998
 30
0.0
 10
89.02688489113069
 20
93.08276782710864
 30
0.0
 10
89.0560162675209
 20
93.09265587037868
 30
0.0
 10
89.42760424139068
 20
93.14029804576585
 30
0.0
 10
89.73664826678937
 20
93.16984660379174
 30
0.0
 10
89.87322510040752
 20
93.18290509436748
 30
0.0
  0
SPLINE
  5
1DA
330
1F
100
AcDbEntity
  8
0
  6
HIDDEN
 62
     7
370
     0
100
AcDbSpline
210
0.0
220
0.0
230
1.0
 70
     8
 71
     3
 72
    38
 73
    34
 74
     0
 42
0.00000001
 43
0.00000001
 40
-0.0939221400677829
 40
-0.0657752597751218
 40
-0.0344739496005383
 40
0.0
 40
0.0323124298449962
 40
0.060969598253263
 40
0.0859698687790719
 40
0.1073131755916715
 40
0.1250019290169752
 40
0.1562358721956468
 40
0.1978507372969794
 40
0.2498168793248327
 40
0.2782629480312354
 40
0.3049884159840571
 40
0.3300042168921551
 40
0.35332390444233
 40
0.3749644360933798
 40
0.4060267838329811
 40
0.4476555976017088
 40
0.4998320869201326
 40
0.5286685248926513
 40
0.5555536435530997
 40
0.5805015705734129
 40
0.6035302879111313
 40
0.6246629693429171
 40
0.6685312637089799
 40
0.7183269153555429
 40
0.7652375706113097
 40
0.7915712044408377
 40
0.81229370357104
 40
0.8615656629629155
 40
0.9060778599322171
 40
0.9342247402248782
 40
0.9655260503994617
 40
1.0
 40
1.032312429844996
 40
1.060969598253263
 40
1.085969868779072
 10
90.6534779747038
 20
139.2535716127873
 30
0.0
 10
90.04940975621494
 20
139.2981051180039
 30
0.0
 10
89.57409469338764
 20
139.3461805042368
 30
0.0
 10
89.25449586739042
 20
139.3823432435014
 30
0.0
 10
89.06750146166054
 20
139.4087333776899
 30
0.0
 10
88.97919580209017
 20
139.4248029874875
 30
0.0
 10
88.94978230621466
 20
139.4326266727404
 30
0.0
 10
89.0219143762794
 20
139.4144591741594
 30
0.0
 10
89.34302637846123
 20
139.3698525941953
 30
0.0
 10
89.91505386868378
 20
139.3091140655234
 30
0.0
 10
90.5655862164584
 20
139.2597699025021
 30
0.0
 10
91.1154623452065
 20
139.2374074420222
 30
0.0
 10
91.67090021098562
 20
139.2289252321177
 30
0.0
 10
92.21167575861658
 20
139.2353763182664
 30
0.0
 10
92.80960565341512
 20
139.25885469487
 30
0.0
 10
93.54927151058338
 20
139.3257745657085
 30
0.0
 10
94.48132114385497
 20
139.4418759996431
 30
0.0
 10
95.27065787751715
 20
139.5771908842327
 30
0.0
 10
95.80958756534648
 20
139.6923027082974
 30
0.0
 10
96.12369190524106
 20
139.7620767848469
 30
0.0
 10
96.32897227361121
 20
139.8126368703427
 30
0.0
 10
96.4400422597076
 20
139.8433150102503
 30
0.0
 10
96.48631376151332
 20
139.8580420275111
 30
0.0
 10
96.36034889317014
 20
139.8201824339253
 30
0.0
 10
95.8901033643009
 20
139.7096966494974
 30
0.0
 10
95.23690540070417
 20
139.5699924311199
 30
0.0
 10
94.63288644518784
 20
139.4668658249749
 30
0.0
 10
93.95854839555517
 20
139.3674297992058
 30
0.0
 10
93.07319891257039
 20
139.2739594649314
 30
0.0
 10
92.10372002195534
 20
139.2269509588578
 30
0.0
 10
91.31538444468016
 20
139.2306351739554
 30
0.0
 10
90.6534779747038
 20
139.2535716127873
 30
0.0
 10
90.04940975621494
 20
139.2981051180039
 30
0.0
 10
89.57409469338764
 20
139.3461805042368
 30
0.0
  0
LINE
  5
1DB
330
1F
100
AcDbEntity
  8
0
  6
HIDDEN
 62
     7
370
     0
100
AcDbLine
 10
123.5132130311
 20
112.0505677365
 30
0.0
 11
123.5132130311
 21
120.450567437
 31
0.0
  0
LWPOLYLINE
  5
1DC
330
1F
100
AcDbEntity
  8
0
  6
HIDDEN
 62
     7
370
     0
100
AcDbPolyline
 90
        2
 70
   128
 43
0.0
 10
106.6632127837
 20
89.8505677298
 10
106.6632127837
 20
89.8505677298
  0
LINE
  5
1DD
330
1F
100
AcDbEntity
  8
0
  6
HIDDEN
 62
     7
370
     0
100
AcDbLine
 10
106.6632127837
 20
84.7664442674
 30
0.0
 11
106.6632127837
 21
89.8505677298
 31
0.0
  0
LINE
  5
1DE
330
1F
100
AcDbEntity
  8
0
  6
HIDDEN
 62
     7
370
     0
100
AcDbLine
 10
106.6632127837
 20
89.8505677298
 30
0.0
 11
114.6632131637
 21
89.8505677298
 31
0.0
  0
LINE
  5
1DF
330
1F
100
AcDbEntity
  8
0
  6
HIDDEN
 62
     7
370
     0
100
AcDbLine
 10
75.9132119343
 20
134.2405681327
 30
0.0
 11
75.9132119343
 21
132.538080664
 31
0.0
  0
LINE
  5
1E0
330
1F
100
AcDbEntity
  8
0
  6
HIDDEN
 62
     7
370
     0
100
AcDbLine
 10
75.9132119343
 20
134.2405681327
 30
0.0
 11
75.9132119343
 21
138.0946752444
 31
0.0
  0
LINE
  5
1E1
330
1F
100
AcDbEntity
  8
0
  6
HIDDEN
 62
     7
370
     0
100
AcDbLine
 10
79.91321259
 20
98.2605670408
 30
0.0
 11
79.91321259
 21
99.9630545095
 31
0.0
  0
LINE
  5
1E2
330
1F
100
AcDbEntity
  8
0
  6
HIDDEN
 62
     7
370
     0
100
AcDbLine
 10
79.91321259
 20
98.2605670408
 30
0.0
 11
79.91321259
 21
94.2868296817
 31
0.0
  0
LWPOLYLINE
  5
1E3
330
1F
100
AcDbEntity
  8
0
  6
HIDDEN
 62
     7
370
     0
100
AcDbPolyline
 90
        2
 70
   128
 43
0.0
 10
127.6632125006
 20
142.6505674437
 10
127.6632125006
 20
142.6505674437
  0
LWPOLYLINE
  5
1E4
330
1F
100
AcDbEntity
  8
0
  6
HIDDEN
 62
     7
370
     0
100
AcDbPolyline
 90
        2
 70
   128
 43
0.0
 10
127.6632125006
 20
89.8505677298
 10
127.6632125006
 20
89.8505677298
  0
SPLINE
  5
1E5
330
1F
100
AcDbEntity
  8
0
  6
HIDDEN
 62
     7
370
     0
100
AcDbSpline
210
0.0
220
0.0
230
1.0
 70
     8
 71
     3
 72
     8
 73
     4
 74
     0
 42
0.00000001
 43
0.00000001
 40
0.0
 40
0.0
 40
0.0
 40
0.0
 40
0.0001590976915385
 40
0.0001590976915385
 40
0.0001590976915385
 40
0.0001590976915385
 10
71.09838081651873
 20
100.4490771507303
 30
0.0
 10
71.0533293470892
 20
100.4210982670796
 30
0.0
 10
71.00827330974944
 20
100.3931267373773
 30
0.0
 10
70.96321281052583
 20
100.3651623986972
 30
0.0
  0
SPLINE
  5
1E6
330
1F
100
AcDbEntity
  8
0
  6
HIDDEN
 62
     7
370
     0
100
AcDbSpline
210
0.0
220
0.0
230
1.0
 70
     8
 71
     3
 72
    11
 73
     7
 74
     0
 42
0.00000001
 43
0.00000001
 40
0.0
 40
0.0
 40
0.0
 40
0.0
 40
0.000821290931132
 40
0.000821290931132
 40
0.000821290931132
 40
0.0016428257242788
 40
0.0016428257242788
 40
0.0016428257242788
 40
0.0016428257242788
 10
70.96321281052583
 20
100.3651623986972
 30
0.0
 10
70.77206778904339
 20
100.3218762098756
 30
0.0
 10
70.5806494533668
 20
100.2809397002698
 30
0.0
 10
70.38900337870567
 20
100.2423379289153
 30
0.0
 10
70.19730029716406
 20
100.2037246751104
 30
0.0
 10
70.00535517387873
 20
100.1674444658571
 30
0.0
 10
69.81321281052583
 20
100.133477559539
 30
0.0
  0
SPLINE
  5
1E7
330
1F
100
AcDbEntity
  8
0
  6
HIDDEN
 62
     7
370
     0
100
AcDbSpline
210
0.0
220
0.0
230
1.0
 70
    24
 71
     3
 72
     9
 73
     5
 74
     0
 42
0.00000001
 43
0.00000001
 40
0.0
 40
0.0
 40
0.0
 40
0.0
 40
0.1866666666666665
 40
0.2671975397465361
 40
0.2671975397465361
 40
0.2671975397465361
 40
0.2671975397465361
 10
69.81321281052583
 20
101.9909330463422
 30
0.0
 10
69.81321281052583
 20
101.4566840076846
 30
0.0
 10
69.81321281052583
 20
100.7977220634878
 30
0.0
 10
69.81321281052583
 20
100.2781329367895
 30
0.0
 10
69.81321281052583
 20
100.133477559539
 30
0.0
  0
LINE
  5
1E8
330
1F
100
AcDbEntity
  8
0
  6
HIDDEN
 62
     7
370
     0
100
AcDbLine
 10
70.9632119612
 20
134.2405681327
 30
0.0
 11
70.9632119612
 21
132.1451929227
 31
0.0
  0
ELLIPSE
  5
1E9
330
1F
100
AcDbEntity
  8
0
  6
HIDDEN
 62
     7
370
     0
100
AcDbEllipse
 10
65.5707809478
 20
116.2505675868
 30
0.0
 11
20.19992452771986
 21
-1.421085471520200E-14
 31
0.0
210
0.0
220
0.0
230
1.0
 40
0.816496581
 41
1.300566354937426
 42
1.359198697443035
  0
LINE
  5
1EA
330
1F
100
AcDbEntity
  8
0
  6
HIDDEN
 62
     7
370
     0
100
AcDbLine
 10
69.8132129834
 20
134.2405681327
 30
0.0
 11
69.8132129834
 21
132.3758833871
 31
0.0
  0
LINE
  5
1EB
330
1F
100
AcDbEntity
  8
0
  6
HIDDEN
 62
     7
370
     0
100
AcDbLine
 10
69.8132129834
 20
132.3758833871
 30
0.0
 11
69.8132129834
 21
130.5102021262
 31
0.0
  0
SPLINE
  5
1EC
330
1F
100
AcDbEntity
  8
0
  6
HIDDEN
 62
     7
370
     0
100
AcDbSpline
210
0.0
220
0.0
230
1.0
 70
     8
 71
     3
 72
     8
 73
     4
 74
     0
 42
0.00000001
 43
0.00000001
 40
0.0
 40
0.0
 40
0.0
 40
0.0
 40
1.0
 40
1.0
 40
1.0
 40
1.0
 10
70.96321281052583
 20
132.1451920357607
 30
0.0
 10
71.01321830837341
 20
132.1141562622278
 30
0.0
 10
71.06321837794191
 20
132.0831116178869
 30
0.0
 10
71.11321281063137
 20
132.0520580227936
 30
0.0
  0
SPLINE
  5
1ED
330
1F
100
AcDbEntity
  8
0
  6
HIDDEN
 62
     7
370
     0
100
AcDbSpline
210
0.0
220
0.0
230
1.0
 70
     8
 71
     3
 72
    10
 73
     6
 74
     0
 42
0.00000001
 43
0.00000001
 40
0.0
 40
0.0
 40
0.0
 40
0.0
 40
0.5
 40
0.5
 40
1.0
 40
1.0
 40
1.0
 40
1.0
 10
70.95316788010761
 20
137.1105214790496
 30
0.0
 10
70.88560862518936
 20
137.0428300862398
 30
0.0
 10
70.82197196985288
 20
136.9681229214862
 30
0.0
 10
70.71175121528101
 20
136.8091567890596
 30
0.0
 10
70.66493492205842
 20
136.7248015230516
 30
0.0
 10
70.63736645663033
 20
136.6406869203598
 30
0.0
  0
LINE
  5
1EE
330
1F
100
AcDbEntity
  8
0
  6
HIDDEN
 62
     7
370
     0
100
AcDbLine
 10
70.9632119612
 20
134.2405681327
 30
0.0
 11
70.9632119612
 21
137.1205062434
 31
0.0
  0
LINE
  5
1EF
330
1F
100
AcDbEntity
  8
0
  6
HIDDEN
 62
     7
370
     0
100
AcDbLine
 10
69.8132129834
 20
134.2405681327
 30
0.0
 11
69.8132129834
 21
135.9412451104
 31
0.0
  0
SPLINE
  5
1F0
330
1F
100
AcDbEntity
  8
0
  6
HIDDEN
 62
     7
370
     0
100
AcDbSpline
210
0.0
220
0.0
230
1.0
 70
     8
 71
     3
 72
    10
 73
     6
 74
     0
 42
0.00000001
 43
0.00000001
 40
0.0
 40
0.0
 40
0.0
 40
0.0
 40
0.5
 40
0.5
 40
1.0
 40
1.0
 40
1.0
 40
1.0
 10
69.87587618524924
 20
135.9251201315427
 30
0.0
 10
69.86697189614048
 20
135.9708616507559
 30
0.0
 10
69.8504565159475
 20
135.9880524902248
 30
0.0
 10
69.8233485698859
 20
135.9877292132891
 30
0.0
 10
69.81321281052583
 20
135.9698516709927
 30
0.0
 10
69.81321281052583
 20
135.9412453332401
 30
0.0
  0
LINE
  5
1F1
330
1F
100
AcDbEntity
  8
0
  6
HIDDEN
 62
     7
370
     0
100
AcDbLine
 10
69.8132129834
 20
98.2605670408
 30
0.0
 11
69.8132129834
 21
100.1334772274
 31
0.0
  0
LINE
  5
1F2
330
1F
100
AcDbEntity
  8
0
  6
HIDDEN
 62
     7
370
     0
100
AcDbLine
 10
70.9632119612
 20
98.2605670408
 30
0.0
 11
70.9632119612
 21
100.3651623443
 31
0.0
  0
SPLINE
  5
1F3
330
1F
100
AcDbEntity
  8
0
  6
HIDDEN
 62
     7
370
     0
100
AcDbSpline
210
0.0
220
0.0
230
1.0
 70
     8
 71
     3
 72
    10
 73
     6
 74
     0
 42
0.00000001
 43
0.00000001
 40
0.0
 40
0.0
 40
0.0
 40
0.0
 40
0.5
 40
0.5
 40
1.0
 40
1.0
 40
1.0
 40
1.0
 10
70.63736645663037
 20
95.86044825316398
 30
0.0
 10
70.6648438713841
 20
95.77661145669681
 30
0.0
 10
70.71155250167295
 20
95.69230096910842
 30
0.0
 10
70.82183096441763
 20
95.53317973862293
 30
0.0
 10
70.88571850303082
 20
95.45819499453378
 30
0.0
 10
70.95316788011469
 20
95.39061369446719
 30
0.0
  0
SPLINE
  5
1F4
330
1F
100
AcDbEntity
  8
0
  6
HIDDEN
 62
     7
370
     0
100
AcDbSpline
210
0.0
220
0.0
230
1.0
 70
     8
 71
     3
 72
    10
 73
     6
 74
     0
 42
0.00000001
 43
0.00000001
 40
0.0
 40
0.0
 40
0.0
 40
0.0
 40
0.5
 40
0.5
 40
1.0
 40
1.0
 40
1.0
 40
1.0
 10
69.81321281052516
 20
96.55988984028444
 30
0.0
 10
69.8132128105251
 20
96.53101557542504
 30
0.0
 10
69.82340672028623
 20
96.51351201904652
 30
0.0
 10
69.85015732509436
 20
96.51298045621878
 30
0.0
 10
69.86704477702571
 20
96.53064791339833
 30
0.0
 10
69.87587618524924
 20
96.5760150419812
 30
0.0
  0
LINE
  5
1F5
330
1F
100
AcDbEntity
  8
0
  6
HIDDEN
 62
     7
370
     0
100
AcDbLine
 10
69.8132129834
 20
98.2605670408
 30
0.0
 11
69.8132129834
 21
96.5598900631
 31
0.0
  0
LINE
  5
1F6
330
1F
100
AcDbEntity
  8
0
  6
HIDDEN
 62
     7
370
     0
100
AcDbLine
 10
70.9632119612
 20
98.2605670408
 30
0.0
 11
70.9632119612
 21
95.3806289301
 31
0.0
  0
SPLINE
  5
1F7
330
1F
100
AcDbEntity
  8
0
  6
HIDDEN
 62
     7
370
     0
100
AcDbSpline
210
0.0
220
0.0
230
1.0
 70
     8
 71
     3
 72
    10
 73
     6
 74
     0
 42
0.00000001
 43
0.00000001
 40
0.0
 40
0.0
 40
0.0
 40
0.0
 40
0.5
 40
0.5
 40
1.0
 40
1.0
 40
1.0
 40
1.0
 10
117.8032128105258
 20
143.3702214377977
 30
0.0
 10
117.8032128105258
 20
143.2266090862396
 30
0.0
 10
117.8393800856237
 20
143.0836356725209
 30
0.0
 10
117.9751360293778
 20
142.8336430458071
 30
0.0
 10
118.0754057200008
 20
142.7256407365283
 30
0.0
 10
118.1975103422173
 20
142.6505675867616
 30
0.0
  0
LINE
  5
1F8
330
1F
100
AcDbEntity
  8
0
  6
HIDDEN
 62
     7
370
     0
100
AcDbLine
 10
117.8032128588
 20
143.3702208862
 30
0.0
 11
117.8032128588
 21
89.4461725668
 31
0.0
  0
SPLINE
  5
1F9
330
1F
100
AcDbEntity
  8
0
  6
HIDDEN
 62
     7
370
     0
100
AcDbSpline
210
0.0
220
0.0
230
1.0
 70
     8
 71
     3
 72
    10
 73
     6
 74
     0
 42
0.00000001
 43
0.00000001
 40
0.0
 40
0.0
 40
0.0
 40
0.0
 40
0.5
 40
0.5
 40
1.0
 40
1.0
 40
1.0
 40
1.0
 10
117.8032128105258
 20
89.44617195843261
 30
0.0
 10
117.8032128105258
 20
89.51640831880312
 30
0.0
 10
117.8114954226162
 20
89.58640242030033
 30
0.0
 10
117.8445953656746
 20
89.72336168485876
 30
0.0
 10
117.8689327576329
 20
89.78866959411381
 30
0.0
 10
117.9008876128573
 20
89.85056758676052
 30
0.0
  0
SPLINE
  5
1FA
330
1F
100
AcDbEntity
  8
0
  6
HIDDEN
 62
     7
370
     0
100
AcDbSpline
210
0.0
220
0.0
230
1.0
 70
    24
 71
     3
 72
    12
 73
     8
 74
     0
 42
0.00000001
 43
0.00000001
 40
0.0
 40
0.0
 40
0.0
 40
0.0
 40
0.4999999999999959
 40
0.4999999999999959
 40
0.7499999999999979
 40
0.7499999999999979
 40
1.0
 40
1.0
 40
1.0
 40
1.0
 10
118.1975103422169
 20
142.6505675867619
 30
0.0
 10
118.240316989338
 20
142.650567586762
 30
0.0
 10
118.2900441801805
 20
142.6505675867619
 30
0.0
 10
118.3859523706681
 20
142.650567586762
 30
0.0
 10
118.4216244781685
 20
142.6505675867619
 30
0.0
 10
118.5054460953787
 20
142.650567586762
 30
0.0
 10
118.5535424057916
 20
142.650567586762
 30
0.0
 10
118.6032128105258
 20
142.6505675867619
 30
0.0
  0
SPLINE
  5
1FB
330
1F
100
AcDbEntity
  8
0
  6
HIDDEN
 62
     7
370
     0
100
AcDbSpline
210
0.0
220
0.0
230
1.0
 70
    24
 71
     3
 72
    14
 73
    10
 74
     0
 42
0.00000001
 43
0.00000001
 40
0.0
 40
0.0
 40
0.0
 40
0.0
 40
0.4999999999999998
 40
0.4999999999999998
 40
0.7499999999999981
 40
0.7499999999999981
 40
0.8749999999999991
 40
0.8749999999999991
 40
1.0
 40
1.0
 40
1.0
 40
1.0
 10
117.900887612858
 20
89.85056758676194
 30
0.0
 10
117.9479076157658
 20
89.85056758676194
 30
0.0
 10
118.0113136025298
 20
89.85056758676194
 30
0.0
 10
118.1539541744787
 20
89.85056758676194
 30
0.0
 10
118.2092066326673
 20
89.85056758676194
 30
0.0
 10
118.3221829423229
 20
89.85056758676194
 30
0.0
 10
118.3646573395856
 20
89.85056758676194
 30
0.0
 10
118.4694827167641
 20
89.85056758676194
 30
0.0
 10
118.5344903307763
 20
89.85056758676194
 30
0.0
 10
118.6032128105259
 20
89.85056758676194
 30
0.0
  0
LINE
  5
1FC
330
1F
100
AcDbEntity
  8
0
  6
HIDDEN
 62
     7
370
     0
100
AcDbLine
 10
121.6232130752
 20
143.3702208862
 30
0.0
 11
121.6232130752
 21
89.4461725668
 31
0.0
  0
SPLINE
  5
1FD
330
1F
100
AcDbEntity
  8
0
  6
HIDDEN
 62
     7
370
     0
100
AcDbSpline
210
0.0
220
0.0
230
1.0
 70
     8
 71
     3
 72
    10
 73
     6
 74
     0
 42
0.00000001
 43
0.00000001
 40
0.0
 40
0.0
 40
0.0
 40
0.0
 40
0.5
 40
0.5
 40
1.0
 40
1.0
 40
1.0
 40
1.0
 10
121.2289152788349
 20
142.650567586762
 30
0.0
 10
121.3502278019326
 20
142.7251537330501
 30
0.0
 10
121.4516561641578
 20
142.8339780442015
 30
0.0
 10
121.5875997304179
 20
143.0849985628232
 30
0.0
 10
121.6232128105258
 20
143.2275812559625
 30
0.0
 10
121.6232128105258
 20
143.3702214377978
 30
0.0
  0
SPLINE
  5
1FE
330
1F
100
AcDbEntity
  8
0
  6
HIDDEN
 62
     7
370
     0
100
AcDbSpline
210
0.0
220
0.0
230
1.0
 70
     8
 71
     3
 72
    10
 73
     6
 74
     0
 42
0.00000001
 43
0.00000001
 40
0.0
 40
0.0
 40
0.0
 40
0.0
 40
0.5
 40
0.5
 40
1.0
 40
1.0
 40
1.0
 40
1.0
 10
121.5255380081935
 20
89.85056758676194
 30
0.0
 10
121.5576931958155
 20
89.78828154124581
 30
0.0
 10
121.5823494270098
 20
89.72175111637657
 30
0.0
 10
121.6151621839353
 20
89.58489248601406
 30
0.0
 10
121.6232128105258
 20
89.51583489083572
 30
0.0
 10
121.6232128105258
 20
89.44617195843237
 30
0.0
  0
SPLINE
  5
1FF
330
1F
100
AcDbEntity
  8
0
  6
HIDDEN
 62
     7
370
     0
100
AcDbSpline
210
0.0
220
0.0
230
1.0
 70
    24
 71
     3
 72
    12
 73
     8
 74
     0
 42
0.00000001
 43
0.00000001
 40
0.0
 40
0.0
 40
0.0
 40
0.0
 40
0.25
 40
0.25
 40
0.5
 40
0.5
 40
1.0
 40
1.0
 40
1.0
 40
1.0
 10
120.8232128105258
 20
142.6505675867619
 30
0.0
 10
120.8727479167438
 20
142.6505675867619
 30
0.0
 10
120.9211528053452
 20
142.650567586762
 30
0.0
 10
121.0040393545229
 20
142.650567586762
 30
0.0
 10
121.0405540759912
 20
142.6505675867619
 30
0.0
 10
121.1368869143459
 20
142.650567586762
 30
0.0
 10
121.1856394620086
 20
142.6505675867619
 30
0.0
 10
121.2289152788392
 20
142.6505675867619
 30
0.0
  0
SPLINE
  5
200
330
1F
100
AcDbEntity
  8
0
  6
HIDDEN
 62
     7
370
     0
100
AcDbSpline
210
0.0
220
0.0
230
1.0
 70
    24
 71
     3
 72
    14
 73
    10
 74
     0
 42
0.00000001
 43
0.00000001
 40
0.0
 40
0.0
 40
0.0
 40
0.0
 40
0.1249999999999983
 40
0.1249999999999983
 40
0.2499999999999966
 40
0.2499999999999966
 40
0.4999999999999968
 40
0.4999999999999968
 40
1.0
 40
1.0
 40
1.0
 40
1.0
 10
120.8232128105258
 20
89.85056758676194
 30
0.0
 10
120.8923094428698
 20
89.85056758676194
 30
0.0
 10
120.9573026084777
 20
89.85056758676194
 30
0.0
 10
121.0616238071229
 20
89.85056758676194
 30
0.0
 10
121.1044041812313
 20
89.85056758676194
 30
0.0
 10
121.2167418408776
 20
89.85056758676193
 30
0.0
 10
121.27178902302
 20
89.85056758676194
 30
0.0
 10
121.41566579679
 20
89.85056758676194
 30
0.0
 10
121.4786951100651
 20
89.85056758676194
 30
0.0
 10
121.5255380081935
 20
89.85056758676194
 30
0.0
  0
LINE
  5
201
330
1F
100
AcDbEntity
  8
0
  6
HIDDEN
 62
     7
370
     0
100
AcDbLine
 10
118.6032133625
 20
142.6505674437
 30
0.0
 11
120.8232125715
 21
142.6505674437
 31
0.0
  0
LINE
  5
202
330
1F
100
AcDbEntity
  8
0
  6
HIDDEN
 62
     7
370
     0
100
AcDbLine
 10
118.6032133625
 20
89.8505677298
 30
0.0
 11
120.8232125715
 21
89.8505677298
 31
0.0
  0
LINE
  5
203
330
1F
100
AcDbEntity
  8
0
  6
HIDDEN
 62
     7
370
     0
100
AcDbLine
 10
121.6232130752
 20
144.055800961
 30
0.0
 11
121.6232130752
 21
88.7527302668
 31
0.0
  0
LINE
  5
204
330
1F
100
AcDbEntity
  8
0
  6
HIDDEN
 62
     7
370
     0
100
AcDbLine
 10
123.1051447318
 20
146.7177630231
 30
0.0
 11
123.1051447318
 21
86.0636499539
 31
0.0
  0
SPLINE
  5
205
330
1F
100
AcDbEntity
  8
0
  6
HIDDEN
 62
     7
370
     0
100
AcDbSpline
210
0.0
220
0.0
230
1.0
 70
     8
 71
     3
 72
    12
 73
     8
 74
     0
 42
0.00000001
 43
0.00000001
 40
0.0
 40
0.0
 40
0.0
 40
0.0
 40
0.2499999999999999
 40
0.2499999999999999
 40
0.4999999999999998
 40
0.4999999999999998
 40
1.0
 40
1.0
 40
1.0
 40
1.0
 10
127.0632128105258
 20
146.7177630599262
 30
0.0
 10
127.1427057595741
 20
146.7177630599262
 30
0.0
 10
127.2237892609296
 20
146.7007603099654
 30
0.0
 10
127.3702196580674
 20
146.6366997688537
 30
0.0
 10
127.4367682679411
 20
146.5895411532152
 30
0.0
 10
127.6010581419148
 20
146.4163191205229
 30
0.0
 10
127.663212810526
 20
146.2562100302886
 30
0.0
 10
127.6632128105258
 20
146.0970079105253
 30
0.0
  0
LINE
  5
206
330
1F
100
AcDbEntity
  8
0
  6
HIDDEN
 62
     7
370
     0
100
AcDbLine
 10
123.1051447318
 20
146.7177630231
 30
0.0
 11
127.0632135198
 21
146.7177630231
 31
0.0
  0
SPLINE
  5
207
330
1F
100
AcDbEntity
  8
0
  6
HIDDEN
 62
     7
370
     0
100
AcDbSpline
210
0.0
220
0.0
230
1.0
 70
     8
 71
     3
 72
     8
 73
     4
 74
     0
 42
0.00000001
 43
0.00000001
 40
0.0
 40
0.0
 40
0.0
 40
0.0
 40
1.0
 40
1.0
 40
1.0
 40
1.0
 10
121.6232128105258
 20
144.0558017779335
 30
0.0
 10
122.1159229073716
 20
144.9438207760599
 30
0.0
 10
122.6100056126506
 20
145.8310834117459
 30
0.0
 10
123.1051456420149
 20
146.7177630599262
 30
0.0
  0
LINE
  5
208
330
1F
100
AcDbEntity
  8
0
  6
HIDDEN
 62
     7
370
     0
100
AcDbLine
 10
121.6232130752
 20
143.3702208862
 30
0.0
 11
121.6232130752
 21
144.055800961
 31
0.0
  0
LINE
  5
209
330
1F
100
AcDbEntity
  8
0
  6
HIDDEN
 62
     7
370
     0
100
AcDbLine
 10
127.6632125006
 20
146.0970085875
 30
0.0
 11
127.6632125006
 21
142.6505674437
 31
0.0
  0
LINE
  5
20A
330
1F
100
AcDbEntity
  8
0
  6
HIDDEN
 62
     7
370
     0
100
AcDbLine
 10
121.2289153115
 20
142.6505674437
 30
0.0
 11
127.6632125006
 21
142.6505674437
 31
0.0
  0
SPLINE
  5
20B
330
1F
100
AcDbEntity
  8
0
  6
HIDDEN
 62
     7
370
     0
100
AcDbSpline
210
0.0
220
0.0
230
1.0
 70
     8
 71
     3
 72
    12
 73
     8
 74
     0
 42
0.00000001
 43
0.00000001
 40
0.0
 40
0.0
 40
0.0
 40
0.0
 40
0.2499999999999962
 40
0.2499999999999962
 40
0.4999999999999925
 40
0.4999999999999925
 40
1.0
 40
1.0
 40
1.0
 40
1.0
 10
127.0632128105258
 20
86.06364989051478
 30
0.0
 10
127.1430938152729
 20
86.06364989051478
 30
0.0
 10
127.2236879455435
 20
86.08076697678064
 30
0.0
 10
127.3703033913884
 20
86.14550308825571
 30
0.0
 10
127.4368045841324
 20
86.19296033113606
 30
0.0
 10
127.6025394852696
 20
86.36978477367553
 30
0.0
 10
127.6632128105258
 20
86.53006128088126
 30
0.0
 10
127.6632128105258
 20
86.69029018616902
 30
0.0
  0
LINE
  5
20C
330
1F
100
AcDbEntity
  8
0
  6
HIDDEN
 62
     7
370
     0
100
AcDbLine
 10
127.6632125006
 20
146.0970085875
 30
0.0
 11
127.6632125006
 21
86.6902903483
 31
0.0
  0
LINE
  5
20D
330
1F
100
AcDbEntity
  8
0
  6
HIDDEN
 62
     7
370
     0
100
AcDbLine
 10
117.8032128588
 20
144.055800961
 30
0.0
 11
117.8032128588
 21
88.7527302668
 31
0.0
  0
SPLINE
  5
20E
330
1F
100
AcDbEntity
  8
0
  6
HIDDEN
 62
     7
370
     0
100
AcDbSpline
210
0.0
220
0.0
230
1.0
 70
     8
 71
     3
 72
     8
 73
     4
 74
     0
 42
0.00000001
 43
0.00000001
 40
0.0
 40
0.0
 40
0.0
 40
0.0
 40
1.0
 40
1.0
 40
1.0
 40
1.0
 10
116.3212799790368
 20
146.7177630599262
 30
0.0
 10
116.8164200084011
 20
145.8310834117459
 30
0.0
 10
117.3105027136801
 20
144.9438207760599
 30
0.0
 10
117.8032128105258
 20
144.0558017779335
 30
0.0
  0
LINE
  5
20F
330
1F
100
AcDbEntity
  8
0
  6
HIDDEN
 62
     7
370
     0
100
AcDbLine
 10
117.8032128588
 20
144.055800961
 30
0.0
 11
117.8032128588
 21
143.3702208862
 31
0.0
  0
LINE
  5
210
330
1F
100
AcDbEntity
  8
0
  6
HIDDEN
 62
     7
370
     0
100
AcDbLine
 10
114.6632131637
 20
142.6505674437
 30
0.0
 11
118.1975106225
 21
142.6505674437
 31
0.0
  0
ARC
  5
211
330
1F
100
AcDbEntity
  8
0
  6
HIDDEN
 62
     7
370
     0
100
AcDbCircle
 10
174.7132117376
 20
100.8403850307
 30
0.0
 40
7.358616160905476
100
AcDbArc
 50
245.3175096195
 51
294.6824903805
  0
LWPOLYLINE
  5
212
330
1F
100
AcDbEntity
  8
0
  6
HIDDEN
 62
     7
370
     0
100
AcDbPolyline
 90
       15
 70
   128
 43
0.0
 10
170.1632092223
 20
95.465958567
 10
170.2772925124
 20
95.9721938536
 10
170.6138054357
 20
96.4530431495
 10
171.1558798776
 20
96.8843963758
 10
171.8763361201
 20
97.244624497
 10
172.7390388475
 20
97.515661718
 10
173.7007448897
 20
97.6839181796
 10
174.7132117376
 20
97.740957962
 10
175.7256860361
 20
97.6839181796
 10
176.6873846278
 20
97.515661718
 10
177.5500948057
 20
97.244624497
 10
178.2705435977
 20
96.8843963758
 10
178.8126180396
 20
96.4530431495
 10
179.1491384134
 20
95.9721938536
 10
179.263214253
 20
95.465958567
  0
LWPOLYLINE
  5
213
330
1F
100
AcDbEntity
  8
0
  6
HIDDEN
 62
     7
370
     0
100
AcDbPolyline
 90
       15
 70
   128
 43
0.0
 10
179.263214253
 20
95.465958567
 10
179.1491384134
 20
94.9597232804
 10
178.8126180396
 20
94.4788721219
 10
178.2705435977
 20
94.0475188956
 10
177.5500948057
 20
93.6872907743
 10
176.6873846278
 20
93.4162535534
 10
175.7256860361
 20
93.2479970918
 10
174.7132117376
 20
93.1909573093
 10
173.7007448897
 20
93.2479970918
 10
172.7390388475
 20
93.4162535534
 10
171.8763361201
 20
93.6872907743
 10
171.1558798776
 20
94.0475188956
 10
170.6138054357
 20
94.4788721219
 10
170.2772925124
 20
94.9597232804
 10
170.1632092223
 20
95.465958567
  0
LWPOLYLINE
  5
214
330
1F
100
AcDbEntity
  8
0
  6
HIDDEN
 62
     7
370
     0
100
AcDbPolyline
 90
       15
 70
   128
 43
0.0
 10
170.1632092223
 20
137.0351766065
 10
170.2772925124
 20
137.5414118931
 10
170.6138054357
 20
138.0222630516
 10
171.1558798776
 20
138.4536162779
 10
171.8763361201
 20
138.8138443992
 10
172.7390388475
 20
139.0848816202
 10
173.7007448897
 20
139.2531380818
 10
174.7132117376
 20
139.3101778642
 10
175.7256860361
 20
139.2531380818
 10
176.6873846278
 20
139.0848816202
 10
177.5500948057
 20
138.8138443992
 10
178.2705435977
 20
138.4536162779
 10
178.8126180396
 20
138.0222630516
 10
179.1491384134
 20
137.5414118931
 10
179.263214253
 20
137.0351766065
  0
LWPOLYLINE
  5
215
330
1F
100
AcDbEntity
  8
0
  6
HIDDEN
 62
     7
370
     0
100
AcDbPolyline
 90
       15
 70
   128
 43
0.0
 10
179.263214253
 20
137.0351766065
 10
179.1491384134
 20
136.5289413199
 10
178.8126180396
 20
136.0480920241
 10
178.2705435977
 20
135.6167387978
 10
177.5500948057
 20
135.2565106765
 10
176.6873846278
 20
134.9854734555
 10
175.7256860361
 20
134.8172169939
 10
174.7132117376
 20
134.7601772115
 10
173.7007448897
 20
134.8172169939
 10
172.7390388475
 20
134.9854734555
 10
171.8763361201
 20
135.2565106765
 10
171.1558798776
 20
135.6167387978
 10
170.6138054357
 20
136.0480920241
 10
170.2772925124
 20
136.5289413199
 10
170.1632092223
 20
137.0351766065
  0
ARC
  5
216
330
1F
100
AcDbEntity
  8
0
  6
HIDDEN
 62
     7
370
     0
100
AcDbCircle
 10
174.7132117376
 20
131.6607501428
 30
0.0
 40
7.358616160905464
100
AcDbArc
 50
65.3175096195
 51
114.6824903805
  0
SPLINE
  5
217
330
1F
100
AcDbEntity
  8
0
  6
HIDDEN
 62
     7
370
     0
100
AcDbSpline
210
0.0
220
0.0
230
1.0
 70
     8
 71
     3
 72
    26
 73
    22
 74
     0
 42
0.00000001
 43
0.00000001
 40
0.0
 40
0.0
 40
0.0
 40
0.0
 40
0.2500000000000016
 40
0.2500000000000016
 40
0.3750000000000032
 40
0.3750000000000032
 40
0.4375000000000029
 40
0.4375000000000029
 40
0.468750000000004
 40
0.468750000000004
 40
0.500000000000005
 40
0.500000000000005
 40
0.5312500000000061
 40
0.5312500000000061
 40
0.5625000000000072
 40
0.5625000000000072
 40
0.625000000000007
 40
0.625000000000007
 40
0.7500000000000047
 40
0.7500000000000047
 40
1.0
 40
1.0
 40
1.0
 40
1.0
 10
70.63736645663033
 20
136.6406869203598
 30
0.0
 10
70.59876593376187
 20
136.5229122240043
 30
0.0
 10
70.55246893120761
 20
136.3985225378424
 30
0.0
 10
70.45852958277368
 20
136.1933032054889
 30
0.0
 10
70.42321811586022
 20
136.1217303390425
 30
0.0
 10
70.35703814011454
 20
136.005777106442
 30
0.0
 10
70.33249977344633
 20
135.9651925716318
 30
0.0
 10
70.28912702789253
 20
135.90105088976
 30
0.0
 10
70.27361862646734
 20
135.879184464475
 30
0.0
 10
70.23857598188033
 20
135.8335901961318
 30
0.0
 10
70.21902569116054
 20
135.8099199051644
 30
0.0
 10
70.17709841078994
 20
135.7653033458244
 30
0.0
 10
70.15444630055829
 20
135.7444233333065
 30
0.0
 10
70.11347258647166
 20
135.7135499195557
 30
0.0
 10
70.09587328657625
 20
135.7037110497233
 30
0.0
 10
70.05124630072008
 20
135.6847214340271
 30
0.0
 10
70.03068707806675
 20
135.6843971093737
 30
0.0
 10
69.97956163857008
 20
135.6936205502499
 30
0.0
 10
69.95865022558154
 20
135.7148674464669
 30
0.0
 10
69.9072003180206
 20
135.7888363252976
 30
0.0
 10
69.88953501871606
 20
135.8549544186124
 30
0.0
 10
69.87587618524924
 20
135.9251201315427
 30
0.0
  0
SPLINE
  5
218
330
1F
100
AcDbEntity
  8
0
  6
HIDDEN
 62
     7
370
     0
100
AcDbSpline
210
0.0
220
0.0
230
1.0
 70
     8
 71
     3
 72
    24
 73
    20
 74
     0
 42
0.00000001
 43
0.00000001
 40
0.0
 40
0.0
 40
0.0
 40
0.0
 40
0.2499999999999952
 40
0.2499999999999952
 40
0.3749999999999937
 40
0.3749999999999937
 40
0.4374999999999931
 40
0.4374999999999931
 40
0.468749999999992
 40
0.468749999999992
 40
0.4999999999999909
 40
0.4999999999999909
 40
0.5624999999999933
 40
0.5624999999999933
 40
0.6249999999999958
 40
0.6249999999999958
 40
0.7499999999999981
 40
0.7499999999999981
 40
1.0
 40
1.0
 40
1.0
 40
1.0
 10
69.87587618524924
 20
96.5760150419812
 30
0.0
 10
69.88962930391945
 20
96.64666509997149
 30
0.0
 10
69.9074018713253
 20
96.71326321273641
 30
0.0
 10
69.95965296288068
 20
96.7873612329696
 30
0.0
 10
69.98068803846222
 20
96.80861904013116
 30
0.0
 10
70.03358844609068
 20
96.8167649662774
 30
0.0
 10
70.05469411896857
 20
96.81582516288165
 30
0.0
 10
70.10074628764654
 20
96.79480917130431
 30
0.0
 10
70.11911675962992
 20
96.78390036519669
 30
0.0
 10
70.16066839469563
 20
96.75126545424934
 30
0.0
 10
70.18323506745256
 20
96.72977347387797
 30
0.0
 10
70.24601608391258
 20
96.66130753029165
 30
0.0
 10
70.27914584488046
 20
96.61523307208655
 30
0.0
 10
70.33606353136548
 20
96.53022518375187
 30
0.0
 10
70.36024955686925
 20
96.4899448825705
 30
0.0
 10
70.42545750724902
 20
96.37500865610454
 30
0.0
 10
70.46017356744026
 20
96.30442567095754
 30
0.0
 10
70.55338883777115
 20
96.10021991187894
 30
0.0
 10
70.59906137313182
 20
95.97732152955157
 30
0.0
 10
70.63736645663036
 20
95.860448253164
 30
0.0
  0
LINE
  5
219
330
1F
100
AcDbEntity
  8
0
  6
HIDDEN
 62
     7
370
     0
100
AcDbLine
 10
69.8132129834
 20
135.9412451104
 30
0.0
 11
69.8132129834
 21
96.5598900631
 31
0.0
  0
LINE
  5
21A
330
1F
100
AcDbEntity
  8
0
  6
HIDDEN
 62
     7
370
     0
100
AcDbLine
 10
123.1051447318
 20
86.0636499539
 30
0.0
 11
127.0632135198
 21
86.0636499539
 31
0.0
  0
SPLINE
  5
21B
330
1F
100
AcDbEntity
  8
0
  6
HIDDEN
 62
     7
370
     0
100
AcDbSpline
210
0.0
220
0.0
230
1.0
 70
     8
 71
     3
 72
     8
 73
     4
 74
     0
 42
0.00000001
 43
0.00000001
 40
0.0
 40
0.0
 40
0.0
 40
0.0
 40
1.0
 40
1.0
 40
1.0
 40
1.0
 10
121.6232128105258
 20
88.75273042770708
 30
0.0
 10
122.115551933307
 20
87.85546039350038
 30
0.0
 10
122.6096659813491
 20
86.95917597844813
 30
0.0
 10
123.1051456420149
 20
86.06364989051478
 30
0.0
  0
LINE
  5
21C
330
1F
100
AcDbEntity
  8
0
  6
HIDDEN
 62
     7
370
     0
100
AcDbLine
 10
121.6232130752
 20
89.4461725668
 30
0.0
 11
121.6232130752
 21
88.7527302668
 31
0.0
  0
LINE
  5
21D
330
1F
100
AcDbEntity
  8
0
  6
HIDDEN
 62
     7
370
     0
100
AcDbLine
 10
127.6632125006
 20
86.6902903483
 30
0.0
 11
127.6632125006
 21
89.8505677298
 31
0.0
  0
LINE
  5
21E
330
1F
100
AcDbEntity
  8
0
  6
HIDDEN
 62
     7
370
     0
100
AcDbLine
 10
121.5255378262
 20
89.8505677298
 30
0.0
 11
127.6632125006
 21
89.8505677298
 31
0.0
  0
SPLINE
  5
21F
330
1F
100
AcDbEntity
  8
0
  6
HIDDEN
 62
     7
370
     0
100
AcDbSpline
210
0.0
220
0.0
230
1.0
 70
     8
 71
     3
 72
     8
 73
     4
 74
     0
 42
0.00000001
 43
0.00000001
 40
0.0
 40
0.0
 40
0.0
 40
0.0
 40
1.0
 40
1.0
 40
1.0
 40
1.0
 10
116.3212799790368
 20
86.06364989051478
 30
0.0
 10
116.8167596397025
 20
86.95917597844813
 30
0.0
 10
117.3108736877446
 20
87.85546039350037
 30
0.0
 10
117.8032128105258
 20
88.75273042770706
 30
0.0
  0
LINE
  5
220
330
1F
100
AcDbEntity
  8
0
  6
HIDDEN
 62
     7
370
     0
100
AcDbLine
 10
117.8032128588
 20
88.7527302668
 30
0.0
 11
117.8032128588
 21
89.4461725668
 31
0.0
  0
LINE
  5
221
330
1F
100
AcDbEntity
  8
0
  6
HIDDEN
 62
     7
370
     0
100
AcDbLine
 10
114.6632131637
 20
89.8505677298
 30
0.0
 11
117.9008881078
 21
89.8505677298
 31
0.0
  0
SPLINE
  5
222
330
1F
100
AcDbEntity
  8
0
  6
HIDDEN
 62
     7
370
     0
100
AcDbSpline
210
0.0
220
0.0
230
1.0
 70
     8
 71
     3
 72
     8
 73
     4
 74
     0
 42
0.00000001
 43
0.00000001
 40
0.0
 40
0.0
 40
0.0
 40
0.0
 40
0.0011563724678166
 40
0.0011563724678166
 40
0.0011563724678166
 40
0.0011563724678166
 10
70.81321281052583
 20
128.8907099002323
 30
0.0
 10
70.47989169532867
 20
129.0197689258592
 30
0.0
 10
70.14655901452069
 20
129.1487292620328
 30
0.0
 10
69.8132128105258
 20
129.2776407918059
 30
0.0
  0
SPLINE
  5
223
330
1F
100
AcDbEntity
  8
0
  6
HIDDEN
 62
     7
370
     0
100
AcDbSpline
210
0.0
220
0.0
230
1.0
 70
    24
 71
     3
 72
     9
 73
     5
 74
     0
 42
0.00000001
 43
0.00000001
 40
0.0
 40
0.0
 40
0.0
 40
0.0
 40
0.2800000000000027
 40
0.503568087288566
 40
0.503568087288566
 40
0.503568087288566
 40
0.503568087288566
 10
69.81321281052583
 20
130.5102021271612
 30
0.0
 10
69.81321281052583
 20
130.3395039058296
 30
0.0
 10
69.81321281052583
 20
129.9759291266921
 30
0.0
 10
69.81321281052581
 20
129.5054702036742
 30
0.0
 10
69.81321281052581
 20
129.2776407918059
 30
0.0
  0
SPLINE
  5
224
330
1F
100
AcDbEntity
  8
0
  6
HIDDEN
 62
     7
370
     0
100
AcDbSpline
210
0.0
220
0.0
230
1.0
 70
     8
 71
     3
 72
     8
 73
     4
 74
     0
 42
0.00000001
 43
0.00000001
 40
0.0
 40
0.0
 40
0.0
 40
0.0
 40
0.0011557494192775
 40
0.0011557494192775
 40
0.0011557494192775
 40
0.0011557494192775
 10
69.8132128105258
 20
103.2233457243111
 30
0.0
 10
70.14654662053995
 20
103.354970000506
 30
0.0
 10
70.47988023220263
 20
103.4867869140794
 30
0.0
 10
70.81321281052584
 20
103.6187903562423
 30
0.0
  0
SPLINE
  5
225
330
1F
100
AcDbEntity
  8
0
  6
HIDDEN
 62
     7
370
     0
100
AcDbSpline
210
0.0
220
0.0
230
1.0
 70
    24
 71
     3
 72
    10
 73
     6
 74
     0
 42
0.00000001
 43
0.00000001
 40
0.4964754893649743
 40
0.4964754893649743
 40
0.4964754893649743
 40
0.4964754893649743
 40
0.5599999999992111
 40
0.7799999999999999
 40
1.0
 40
1.0
 40
1.0
 40
1.0
 10
69.81321281052574
 20
103.2233457243111
 30
0.0
 10
69.81321281052574
 20
103.1585223292294
 30
0.0
 10
69.81321281052574
 20
102.8758298464396
 30
0.0
 10
69.81321281052574
 20
102.4304850789261
 30
0.0
 10
69.81321281052574
 20
102.1244627169421
 30
0.0
 10
69.81321281052574
 20
101.9909330464017
 30
0.0
  0
SPLINE
  5
226
330
1F
100
AcDbEntity
  8
0
  6
HIDDEN
 62
     7
370
     0
100
AcDbSpline
210
0.0
220
0.0
230
1.0
 70
     8
 71
     3
 72
     8
 73
     4
 74
     0
 42
0.00000001
 43
0.00000001
 40
0.0000000000000006
 40
0.0000000000000006
 40
0.0000000000000006
 40
0.0000000000000006
 40
0.0011560973009451
 40
0.0011560973009451
 40
0.0011560973009451
 40
0.0011560973009451
 10
69.8132128105258
 20
126.2313820800491
 30
0.0
 10
70.14655254811254
 20
126.1066383477758
 30
0.0
 10
70.47988318132116
 20
125.9819571235988
 30
0.0
 10
70.81321281052581
 20
125.8575069002675
 30
0.0
  0
LINE
  5
227
330
1F
100
AcDbEntity
  8
0
  6
HIDDEN
 62
     7
370
     0
100
AcDbLine
 10
69.8132129834
 20
129.2776404709
 30
0.0
 11
69.8132129834
 21
126.2313821182
 31
0.0
  0
SPLINE
  5
228
330
1F
100
AcDbEntity
  8
0
  6
HIDDEN
 62
     7
370
     0
100
AcDbSpline
210
0.0
220
0.0
230
1.0
 70
     8
 71
     3
 72
     8
 73
     4
 74
     0
 42
0.00000001
 43
0.00000001
 40
0.0
 40
0.0
 40
0.0
 40
0.0
 40
0.0011564805411644
 40
0.0011564805411644
 40
0.0011564805411644
 40
0.0011564805411644
 10
70.81321281052581
 20
106.6497408017808
 30
0.0
 10
70.47991084512435
 20
106.5228898613465
 30
0.0
 10
70.1465740282177
 20
106.3963247924843
 30
0.0
 10
69.81321281052583
 20
106.2699248188236
 30
0.0
  0
LINE
  5
229
330
1F
100
AcDbEntity
  8
0
  6
HIDDEN
 62
     7
370
     0
100
AcDbLine
 10
69.8132129834
 20
106.2699244187
 30
0.0
 11
69.8132129834
 21
103.223345691
 31
0.0
  0
ARC
  5
22A
330
1F
100
AcDbEntity
  8
0
  6
HIDDEN
 62
     7
370
     0
100
AcDbCircle
 10
174.7132117376
 20
90.4037468206
 30
0.0
 40
7.358616160905476
100
AcDbArc
 50
65.3175096195
 51
114.6824903805
  0
ARC
  5
22B
330
1F
100
AcDbEntity
  8
0
  6
HIDDEN
 62
     7
370
     0
100
AcDbCircle
 10
174.7132117376
 20
142.0973883529
 30
0.0
 40
7.358616160905489
100
AcDbArc
 50
245.3175096195
 51
294.6824903805
  0
SPLINE
  5
22C
330
1F
100
AcDbEntity
  8
0
  6
HIDDEN
 62
     7
370
     0
100
AcDbSpline
210
0.0
220
0.0
230
1.0
 70
    24
 71
     3
 72
     9
 73
     5
 74
     0
 42
0.00000001
 43
0.00000001
 40
0.5653008539631034
 40
0.5653008539631034
 40
0.5653008539631034
 40
0.5653008539631034
 40
0.78
 40
1.0
 40
1.0
 40
1.0
 40
1.0
 10
69.81321281052577
 20
126.2313820800402
 30
0.0
 10
69.81321281052577
 20
126.0377792310128
 30
0.0
 10
69.81321281052577
 20
125.6051063507273
 30
0.0
 10
69.81321281052577
 20
125.1081172137218
 30
0.0
 10
69.81321281052577
 20
124.8470429017966
 30
0.0
  0
SPLINE
  5
22D
330
1F
100
AcDbEntity
  8
0
  6
HIDDEN
 62
     7
370
     0
100
AcDbSpline
210
0.0
220
0.0
230
1.0
 70
    24
 71
     3
 72
     9
 73
     5
 74
     0
 42
0.00000001
 43
0.00000001
 40
0.0
 40
0.0
 40
0.0
 40
0.0
 40
0.2800000000000001
 40
0.4346860848337866
 40
0.4346860848337866
 40
0.4346860848337866
 40
0.4346860848337866
 10
69.81321281052583
 20
107.6540922716852
 30
0.0
 10
69.81321281052583
 20
107.3202639484611
 30
0.0
 10
69.81321281052584
 20
106.8289377547481
 30
0.0
 10
69.81321281052583
 20
106.4093311319723
 30
0.0
 10
69.81321281052583
 20
106.2699248188333
 30
0.0
  0
LINE
  5
22E
330
1F
100
AcDbEntity
  8
0
  6
HIDDEN
 62
     7
370
     0
100
AcDbLine
 10
69.8132129834
 20
124.8470428229
 30
0.0
 11
69.8132129834
 21
107.6540923506
 31
0.0
  0
LWPOLYLINE
  5
22F
330
1F
100
AcDbEntity
  8
0
  6
HIDDEN
 62
     7
370
     0
100
AcDbPolyline
 90
        2
 70
   128
 43
0.0
 10
215.1132101641
 20
128.7755672649
 10
215.1132101641
 20
128.7755672649
  0
LWPOLYLINE
  5
230
330
1F
100
AcDbEntity
  8
0
  6
HIDDEN
 62
     7
370
     0
100
AcDbPolyline
 90
        2
 70
   128
 43
0.0
 10
220.5132121668
 20
128.7755672649
 10
220.5132121668
 20
128.7755672649
  0
LWPOLYLINE
  5
231
330
1F
100
AcDbEntity
  8
0
  6
HIDDEN
 62
     7
370
     0
100
AcDbPolyline
 90
        2
 70
   128
 43
0.0
 10
221.7132101283
 20
129.9755680204
 10
221.7132101283
 20
129.9755680204
  0
LWPOLYLINE
  5
232
330
1F
100
AcDbEntity
  8
0
  6
HIDDEN
 62
     7
370
     0
100
AcDbPolyline
 90
        2
 70
   128
 43
0.0
 10
215.1132101641
 20
103.7255679086
 10
215.1132101641
 20
103.7255679086
  0
LWPOLYLINE
  5
233
330
1F
100
AcDbEntity
  8
0
  6
HIDDEN
 62
     7
370
     0
100
AcDbPolyline
 90
        2
 70
   128
 43
0.0
 10
220.5132121668
 20
103.7255679086
 10
220.5132121668
 20
103.7255679086
  0
LWPOLYLINE
  5
234
330
1F
100
AcDbEntity
  8
0
  6
HIDDEN
 62
     7
370
     0
100
AcDbPolyline
 90
        2
 70
   128
 43
0.0
 10
221.7132101283
 20
102.5255671531
 10
221.7132101283
 20
102.5255671531
  0
LWPOLYLINE
  5
235
330
1F
100
AcDbEntity
  8
0
  6
HIDDEN
 62
     7
370
     0
100
AcDbPolyline
 90
        2
 70
   128
 43
0.0
 10
214.1132155881
 20
127.7755680323
 10
214.1132155881
 20
127.7755680323
  0
LWPOLYLINE
  5
236
330
1F
100
AcDbEntity
  8
0
  6
HIDDEN
 62
     7
370
     0
100
AcDbPolyline
 90
        2
 70
   128
 43
0.0
 10
214.1132155881
 20
104.7255671412
 10
214.1132155881
 20
104.7255671412
  0
LWPOLYLINE
  5
237
330
1F
100
AcDbEntity
  8
0
  6
HIDDEN
 62
     7
370
     0
100
AcDbPolyline
 90
        2
 70
   128
 43
0.0
 10
160.8132111356
 20
118.5829483267
 10
160.8132111356
 20
118.5829483267
  0
LWPOLYLINE
  5
238
330
1F
100
AcDbEntity
  8
0
  6
HIDDEN
 62
     7
370
     0
100
AcDbPolyline
 90
        2
 70
   128
 43
0.0
 10
160.8132111356
 20
113.9181868468
 10
160.8132111356
 20
113.9181868468
  0
LWPOLYLINE
  5
239
330
1F
100
AcDbEntity
  8
0
  6
HIDDEN
 62
     7
370
     0
100
AcDbPolyline
 90
        2
 70
   128
 43
0.0
 10
162.713213496
 20
118.5418553479
 10
162.713213496
 20
118.5418553479
  0
LWPOLYLINE
  5
23A
330
1F
100
AcDbEntity
  8
0
  6
HIDDEN
 62
     7
370
     0
100
AcDbPolyline
 90
        2
 70
   128
 43
0.0
 10
162.713213496
 20
113.9592798256
 10
162.713213496
 20
113.9592798256
  0
CIRCLE
  5
23B
330
1F
100
AcDbEntity
  8
0
  6
HIDDEN
 62
     7
370
     0
100
AcDbCircle
 10
108.7132128105
 20
116.2505675868
 30
0.0
 40
5.0
  0
LINE
  5
23C
330
1F
100
AcDbEntity
  8
0
  6
HIDDEN
 62
     7
370
     0
100
AcDbLine
 10
146.3632123993
 20
149.5755691842
 30
0.0
 11
145.1632144377
 21
149.5755691842
 31
0.0
  0
LINE
  5
23D
330
1F
100
AcDbEntity
  8
0
  6
HIDDEN
 62
     7
370
     0
100
AcDbLine
 10
145.1632144377
 20
82.9255659894
 30
0.0
 11
146.3632123993
 21
82.9255659894
 31
0.0
  0
ARC
  5
23E
330
1F
100
AcDbEntity
  8
0
  6
HIDDEN
 62
     7
370
     0
100
AcDbCircle
 10
146.3632128105
 20
149.2755675868
 30
0.0
 40
0.3000000000000114
100
AcDbArc
 50
0.0
 51
90.0
  0
ARC
  5
23F
330
1F
100
AcDbEntity
  8
0
  6
HIDDEN
 62
     7
370
     0
100
AcDbCircle
 10
146.3632128105
 20
83.2255675868
 30
0.0
 40
0.2999999999999829
100
AcDbArc
 50
270.0
 51
0.0
  0
ARC
  5
240
330
1F
100
AcDbEntity
  8
0
  6
HIDDEN
 62
     7
370
     0
100
AcDbCircle
 10
146.8632128105
 20
146.3005675868
 30
0.0
 40
0.2000000000000171
100
AcDbArc
 50
180.0
 51
270.0
  0
ARC
  5
241
330
1F
100
AcDbEntity
  8
0
  6
HIDDEN
 62
     7
370
     0
100
AcDbCircle
 10
146.8632128105
 20
86.2005675868
 30
0.0
 40
0.2000000000000171
100
AcDbArc
 50
90.0
 51
180.0
  0
LINE
  5
242
330
1F
100
AcDbEntity
  8
0
  6
HIDDEN
 62
     7
370
     0
100
AcDbLine
 10
220.2632153854
 20
146.2505669162
 30
0.0
 11
212.6132125483
 21
146.2505669162
 31
0.0
  0
LINE
  5
243
330
1F
100
AcDbEntity
  8
0
  6
HIDDEN
 62
     7
370
     0
100
AcDbLine
 10
212.6132125483
 20
86.2505682573
 30
0.0
 11
220.2632153854
 21
86.2505682573
 31
0.0
  0
LINE
  5
244
330
1F
100
AcDbEntity
  8
0
  6
HIDDEN
 62
     7
370
     0
100
AcDbLine
 10
210.7132101879
 20
146.2505669162
 30
0.0
 11
148.6632140801
 21
146.2505669162
 31
0.0
  0
LINE
  5
245
330
1F
100
AcDbEntity
  8
0
  6
HIDDEN
 62
     7
370
     0
100
AcDbLine
 10
148.6632140801
 20
86.2505682573
 30
0.0
 11
210.7132101879
 21
86.2505682573
 31
0.0
  0
LINE
  5
246
330
1F
100
AcDbEntity
  8
0
  6
HIDDEN
 62
     7
370
     0
100
AcDbLine
 10
148.6632140801
 20
146.2505669162
 30
0.0
 11
148.1288398132
 21
146.1073816583
 31
0.0
  0
LINE
  5
247
330
1F
100
AcDbEntity
  8
0
  6
HIDDEN
 62
     7
370
     0
100
AcDbLine
 10
148.1288398132
 20
86.3937535152
 30
0.0
 11
148.6632140801
 21
86.2505682573
 31
0.0
  0
LINE
  5
248
330
1F
100
AcDbEntity
  8
0
  6
HIDDEN
 62
     7
370
     0
100
AcDbLine
 10
105.7132130005
 20
130.5484031156
 30
0.0
 11
105.7132130005
 21
128.6445078269
 31
0.0
  0
LINE
  5
249
330
1F
100
AcDbEntity
  8
0
  6
HIDDEN
 62
     7
370
     0
100
AcDbLine
 10
113.7132129148
 20
128.6445078269
 30
0.0
 11
113.7132129148
 21
130.5511980147
 31
0.0
  0
ARC
  5
24A
330
1F
100
AcDbEntity
  8
0
  6
HIDDEN
 62
     7
370
     0
100
AcDbCircle
 10
148.0770746899
 20
146.3005675868
 30
0.0
 40
0.1999999999999637
100
AcDbArc
 50
270.0
 51
285.0
  0
ARC
  5
24B
330
1F
100
AcDbEntity
  8
0
  6
HIDDEN
 62
     7
370
     0
100
AcDbCircle
 10
148.0770746899
 20
86.2005675868
 30
0.0
 40
0.1999999999999886
100
AcDbArc
 50
75.0
 51
90.0
  0
LINE
  5
24C
330
1F
100
AcDbEntity
  8
0
  6
HIDDEN
 62
     7
370
     0
100
AcDbLine
 10
148.0770731793
 20
146.1005681023
 30
0.0
 11
146.8632134125
 21
146.1005681023
 31
0.0
  0
LINE
  5
24D
330
1F
100
AcDbEntity
  8
0
  6
HIDDEN
 62
     7
370
     0
100
AcDbLine
 10
146.8632134125
 20
86.4005670712
 30
0.0
 11
148.0770731793
 21
86.4005670712
 31
0.0
  0
ARC
  5
24E
330
1F
100
AcDbEntity
  8
0
  6
HIDDEN
 62
     7
370
     0
100
AcDbCircle
 10
211.0132128105
 20
145.6255675868
 30
0.0
 40
0.2999999999999829
100
AcDbArc
 50
180.0
 51
270.0
  0
ARC
  5
24F
330
1F
100
AcDbEntity
  8
0
  6
HIDDEN
 62
     7
370
     0
100
AcDbCircle
 10
211.0132128105
 20
86.8755675868
 30
0.0
 40
0.2999999999999972
100
AcDbArc
 50
90.0
 51
180.0
  0
ARC
  5
250
330
1F
100
AcDbEntity
  8
0
  6
HIDDEN
 62
     7
370
     0
100
AcDbCircle
 10
212.3132128105
 20
145.6255675868
 30
0.0
 40
0.2999999999999829
100
AcDbArc
 50
270.0
 51
0.0
  0
ARC
  5
251
330
1F
100
AcDbEntity
  8
0
  6
HIDDEN
 62
     7
370
     0
100
AcDbCircle
 10
212.3132128105
 20
86.8755675868
 30
0.0
 40
0.2999999999999972
100
AcDbArc
 50
0.0
 51
90.0
  0
LINE
  5
252
330
1F
100
AcDbEntity
  8
0
  6
HIDDEN
 62
     7
370
     0
100
AcDbLine
 10
212.3132149205
 20
145.3255680219
 30
0.0
 11
211.0132152662
 21
145.3255680219
 31
0.0
  0
LINE
  5
253
330
1F
100
AcDbEntity
  8
0
  6
HIDDEN
 62
     7
370
     0
100
AcDbLine
 10
211.0132152662
 20
87.1755671516
 30
0.0
 11
212.3132149205
 21
87.1755671516
 31
0.0
  0
LINE
  5
254
330
1F
100
AcDbEntity
  8
0
  6
HIDDEN
 62
     7
370
     0
100
AcDbLine
 10
101.7132128105
 20
90.926636459
 30
0.0
 11
101.8073735828
 21
91.5966243312
 31
0.0
  0
LINE
  5
255
330
1F
100
AcDbEntity
  8
0
  6
HIDDEN
 62
     7
370
     0
100
AcDbLine
 10
101.8073735828
 20
140.9045108423
 30
0.0
 11
101.7132128105
 21
141.5744987145
 31
0.0
  0
ARC
  5
256
330
1F
100
AcDbEntity
  8
0
  6
HIDDEN
 62
     7
370
     0
100
AcDbCircle
 10
101.2132060579
 20
91.6801299724
 30
0.0
 40
0.6000067526677242
100
AcDbArc
 50
352.0
 51
0.0
  0
ARC
  5
257
330
1F
100
AcDbEntity
  8
0
  6
HIDDEN
 62
     7
370
     0
100
AcDbCircle
 10
101.2132060579
 20
91.6801299724
 30
0.0
 40
0.6000067526677242
100
AcDbArc
 50
0.0
 51
33.5571153394
  0
ARC
  5
258
330
1F
100
AcDbEntity
  8
0
  6
HIDDEN
 62
     7
370
     0
100
AcDbCircle
 10
101.2132060579
 20
140.8210052012
 30
0.0
 40
0.6000067526677308
100
AcDbArc
 50
348.75
 51
8.0
  0
LWPOLYLINE
  5
259
330
1F
100
AcDbEntity
  8
0
  6
HIDDEN
 62
     7
370
     0
100
AcDbPolyline
 90
        3
 70
   128
 43
0.0
 10
101.8016838494
 20
140.7039505259
 10
101.7675400177
 20
140.5913927421
 10
101.7132128105
 20
140.4893402771
  0
LINE
  5
25A
330
1F
100
AcDbEntity
  8
0
  6
HIDDEN
 62
     7
370
     0
100
AcDbLine
 10
101.813212808
 20
91.6801304385
 30
0.0
 11
101.813212808
 21
140.821004735
 31
0.0
  0
LINE
  5
25B
330
1F
100
AcDbEntity
  8
0
  6
HIDDEN
 62
     7
370
     0
100
AcDbLine
 10
101.813212808
 20
91.6801304385
 30
0.0
 11
101.813212808
 21
140.821004735
 31
0.0
  0
LINE
  5
25C
330
1F
100
AcDbEntity
  8
0
  6
HIDDEN
 62
     7
370
     0
100
AcDbLine
 10
147.1270757244
 20
140.4005684719
 30
0.0
 11
145.9132122324
 21
140.4005684719
 31
0.0
  0
LINE
  5
25D
330
1F
100
AcDbEntity
  8
0
  6
HIDDEN
 62
     7
370
     0
100
AcDbLine
 10
145.9132122324
 20
92.1005667016
 30
0.0
 11
147.1270757244
 21
92.1005667016
 31
0.0
  0
ARC
  5
25E
330
1F
100
AcDbEntity
  8
0
  6
HIDDEN
 62
     7
370
     0
100
AcDbCircle
 10
145.9132128105
 20
140.2005675868
 30
0.0
 40
0.2000000000000455
100
AcDbArc
 50
90.0
 51
180.0
  0
ARC
  5
25F
330
1F
100
AcDbEntity
  8
0
  6
HIDDEN
 62
     7
370
     0
100
AcDbCircle
 10
145.9132128105
 20
92.3005675868
 30
0.0
 40
0.2000000000000455
100
AcDbArc
 50
180.0
 51
270.0
  0
ARC
  5
260
330
1F
100
AcDbEntity
  8
0
  6
HIDDEN
 62
     7
370
     0
100
AcDbCircle
 10
147.1270746899
 20
140.2005675868
 30
0.0
 40
0.2000000000000171
100
AcDbArc
 50
75.0
 51
90.0
  0
ARC
  5
261
330
1F
100
AcDbEntity
  8
0
  6
HIDDEN
 62
     7
370
     0
100
AcDbCircle
 10
147.1270746899
 20
92.3005675868
 30
0.0
 40
0.1999999999999911
100
AcDbArc
 50
270.0
 51
285.0
  0
LINE
  5
262
330
1F
100
AcDbEntity
  8
0
  6
HIDDEN
 62
     7
370
     0
100
AcDbLine
 10
147.1788386331
 20
92.1073821202
 30
0.0
 11
147.7132128999
 21
92.2505673781
 31
0.0
  0
LINE
  5
263
330
1F
100
AcDbEntity
  8
0
  6
HIDDEN
 62
     7
370
     0
100
AcDbLine
 10
147.7132128999
 20
140.2505677954
 30
0.0
 11
147.1788386331
 21
140.3937530533
 31
0.0
  0
LINE
  5
264
330
1F
100
AcDbEntity
  8
0
  6
HIDDEN
 62
     7
370
     0
100
AcDbLine
 10
160.8132111356
 20
140.2505677954
 30
0.0
 11
147.7132128999
 21
140.2505677954
 31
0.0
  0
LINE
  5
265
330
1F
100
AcDbEntity
  8
0
  6
HIDDEN
 62
     7
370
     0
100
AcDbLine
 10
147.7132128999
 20
92.2505673781
 30
0.0
 11
160.8132111356
 21
92.2505673781
 31
0.0
  0
LINE
  5
266
330
1F
100
AcDbEntity
  8
0
  6
HIDDEN
 62
     7
370
     0
100
AcDbLine
 10
220.5132121668
 20
140.2505677954
 30
0.0
 11
162.713213496
 21
140.2505677954
 31
0.0
  0
LINE
  5
267
330
1F
100
AcDbEntity
  8
0
  6
HIDDEN
 62
     7
370
     0
100
AcDbLine
 10
162.713213496
 20
92.2505673781
 30
0.0
 11
220.5132121668
 21
92.2505673781
 31
0.0
  0
LINE
  5
268
330
1F
100
AcDbEntity
  8
0
  6
HIDDEN
 62
     7
370
     0
100
AcDbLine
 10
220.5132121668
 20
92.2505673781
 30
0.0
 11
221.7132101283
 21
91.5577472017
 31
0.0
  0
LINE
  5
269
330
1F
100
AcDbEntity
  8
0
  6
HIDDEN
 62
     7
370
     0
100
AcDbLine
 10
221.7132101283
 20
140.9433879719
 30
0.0
 11
220.5132121668
 21
140.2505677954
 31
0.0
  0
ARC
  5
26A
330
1F
100
AcDbEntity
  8
0
  6
HIDDEN
 62
     7
370
     0
100
AcDbCircle
 10
95.4682148121
 20
104.2505675868
 30
0.0
 40
8.000000000000004
100
AcDbArc
 50
276.8672447941
 51
321.3178125465
  0
ARC
  5
26B
330
1F
100
AcDbEntity
  8
0
  6
HIDDEN
 62
     7
370
     0
100
AcDbCircle
 10
95.4682148121
 20
128.2505675868
 30
0.0
 40
7.999999999999987
100
AcDbArc
 50
38.6821874535
 51
83.120687103
  0
LINE
  5
26C
330
1F
100
AcDbEntity
  8
0
  6
HIDDEN
 62
     7
370
     0
100
AcDbLine
 10
84.7956488357
 20
96.2505680338
 30
0.0
 11
88.9873203338
 21
96.2505680338
 31
0.0
  0
LINE
  5
26D
330
1F
100
AcDbEntity
  8
0
  6
HIDDEN
 62
     7
370
     0
100
AcDbLine
 10
88.9873203338
 20
136.2505671397
 30
0.0
 11
84.7956488357
 21
136.2505671397
 31
0.0
  0
ARC
  5
26E
330
1F
100
AcDbEntity
  8
0
  6
HIDDEN
 62
     7
370
     0
100
AcDbCircle
 10
84.7956483758
 20
96.8505675868
 30
0.0
 40
0.5999999999999962
100
AcDbArc
 50
210.0
 51
270.0
  0
ARC
  5
26F
330
1F
100
AcDbEntity
  8
0
  6
HIDDEN
 62
     7
370
     0
100
AcDbCircle
 10
84.7956483758
 20
135.6505675868
 30
0.0
 40
0.5999999999999943
100
AcDbArc
 50
90.0
 51
150.0
  0
LINE
  5
270
330
1F
100
AcDbEntity
  8
0
  6
HIDDEN
 62
     7
370
     0
100
AcDbLine
 10
84.2760323063
 20
135.9505676493
 30
0.0
 11
82.7171883062
 21
133.2505685106
 31
0.0
  0
LINE
  5
271
330
1F
100
AcDbEntity
  8
0
  6
HIDDEN
 62
     7
370
     0
100
AcDbLine
 10
82.7171883062
 20
99.2505666629
 30
0.0
 11
84.2760323063
 21
96.5505675242
 31
0.0
  0
LINE
  5
272
330
1F
100
AcDbEntity
  8
0
  6
HIDDEN
 62
     7
370
     0
100
AcDbLine
 10
105.7132130005
 20
143.5249005273
 30
0.0
 11
105.7132130005
 21
140.1961692438
 31
0.0
  0
LINE
  5
273
330
1F
100
AcDbEntity
  8
0
  6
HIDDEN
 62
     7
370
     0
100
AcDbLine
 10
113.7132129148
 20
140.1961692438
 30
0.0
 11
113.7132129148
 21
143.5302332804
 31
0.0
  0
ARC
  5
274
330
1F
100
AcDbEntity
  8
0
  6
HIDDEN
 62
     7
370
     0
100
AcDbCircle
 10
110.1632128105
 20
100.5255675868
 30
0.0
 40
1.500000000000001
100
AcDbArc
 50
238.2116693829
 51
0.0
  0
ARC
  5
275
330
1F
100
AcDbEntity
  8
0
  6
HIDDEN
 62
     7
370
     0
100
AcDbCircle
 10
110.1632128105
 20
131.9755675868
 30
0.0
 40
1.5
100
AcDbArc
 50
0.0
 51
121.7883306171
  0
LINE
  5
276
330
1F
100
AcDbEntity
  8
0
  6
HIDDEN
 62
     7
370
     0
100
AcDbLine
 10
159.2132138536
 20
95.4690729097
 30
0.0
 11
159.2132138536
 21
90.2720098213
 31
0.0
  0
LINE
  5
277
330
1F
100
AcDbEntity
  8
0
  6
HIDDEN
 62
     7
370
     0
100
AcDbLine
 10
164.2132128105
 20
90.2698063121
 30
0.0
 11
164.2132128105
 21
95.4690654591
 31
0.0
  0
LINE
  5
278
330
1F
100
AcDbEntity
  8
0
  6
HIDDEN
 62
     7
370
     0
100
AcDbLine
 10
164.2132128105
 20
137.0320697144
 30
0.0
 11
164.2132128105
 21
142.2313288615
 31
0.0
  0
LINE
  5
279
330
1F
100
AcDbEntity
  8
0
  6
HIDDEN
 62
     7
370
     0
100
AcDbLine
 10
159.2132138536
 20
142.2291253522
 30
0.0
 11
159.2132138536
 21
137.0320622638
 31
0.0
  0
LINE
  5
27A
330
1F
100
AcDbEntity
  8
0
  6
HIDDEN
 62
     7
370
     0
100
AcDbLine
 10
101.7132128105
 20
99.2505666629
 30
0.0
 11
109.3730387726
 21
99.2505666629
 31
0.0
  0
LINE
  5
27B
330
1F
100
AcDbEntity
  8
0
  6
HIDDEN
 62
     7
370
     0
100
AcDbLine
 10
109.3730387726
 20
133.2505685106
 30
0.0
 11
101.7132128105
 21
133.2505685106
 31
0.0
  0
LINE
  5
27C
330
1F
100
AcDbEntity
  8
0
  6
HIDDEN
 62
     7
370
     0
100
AcDbLine
 10
79.91321259
 20
99.2505666629
 30
0.0
 11
82.7171883062
 21
99.2505666629
 31
0.0
  0
LINE
  5
27D
330
1F
100
AcDbEntity
  8
0
  6
HIDDEN
 62
     7
370
     0
100
AcDbLine
 10
82.7171883062
 20
133.2505685106
 30
0.0
 11
75.9132119343
 21
133.2505685106
 31
0.0
  0
LINE
  5
27E
330
1F
100
AcDbEntity
  8
0
  6
HIDDEN
 62
     7
370
     0
100
AcDbLine
 10
161.1132124887
 20
91.3255684838
 30
0.0
 11
162.413212143
 21
91.3255684838
 31
0.0
  0
LINE
  5
27F
330
1F
100
AcDbEntity
  8
0
  6
HIDDEN
 62
     7
370
     0
100
AcDbLine
 10
162.413212143
 20
141.1755666897
 30
0.0
 11
161.1132124887
 21
141.1755666897
 31
0.0
  0
ARC
  5
280
330
1F
100
AcDbEntity
  8
0
  6
HIDDEN
 62
     7
370
     0
100
AcDbCircle
 10
162.4132128105
 20
91.6255675868
 30
0.0
 40
0.3000000000000114
100
AcDbArc
 50
270.0
 51
0.0
  0
ARC
  5
281
330
1F
100
AcDbEntity
  8
0
  6
HIDDEN
 62
     7
370
     0
100
AcDbCircle
 10
162.4132128105
 20
140.8755675868
 30
0.0
 40
0.3000000000000114
100
AcDbArc
 50
0.0
 51
90.0
  0
ARC
  5
282
330
1F
100
AcDbEntity
  8
0
  6
HIDDEN
 62
     7
370
     0
100
AcDbCircle
 10
161.1132128105
 20
140.8755675868
 30
0.0
 40
0.3000000000000114
100
AcDbArc
 50
90.0
 51
180.0
  0
ARC
  5
283
330
1F
100
AcDbEntity
  8
0
  6
HIDDEN
 62
     7
370
     0
100
AcDbCircle
 10
161.1132128105
 20
91.6255675868
 30
0.0
 40
0.3000000000000114
100
AcDbArc
 50
180.0
 51
270.0
  0
LINE
  5
284
330
1F
100
AcDbEntity
  8
0
  6
HIDDEN
 62
     7
370
     0
100
AcDbLine
 10
120.5132125393
 20
106.7505678922
 30
0.0
 11
123.5132130311
 21
106.7505678922
 31
0.0
  0
LINE
  5
285
330
1F
100
AcDbEntity
  8
0
  6
HIDDEN
 62
     7
370
     0
100
AcDbLine
 10
123.5132130311
 20
125.7505672813
 30
0.0
 11
120.5132125393
 21
125.7505672813
 31
0.0
  0
LINE
  5
286
330
1F
100
AcDbEntity
  8
0
  6
HIDDEN
 62
     7
370
     0
100
AcDbLine
 10
111.6632126719
 20
107.2505679742
 30
0.0
 11
112.1632127539
 21
107.7505671248
 31
0.0
  0
LINE
  5
287
330
1F
100
AcDbEntity
  8
0
  6
HIDDEN
 62
     7
370
     0
100
AcDbLine
 10
112.1632127539
 20
124.7505680487
 30
0.0
 11
111.6632126719
 21
125.2505671993
 31
0.0
  0
LINE
  5
288
330
1F
100
AcDbEntity
  8
0
  6
HIDDEN
 62
     7
370
     0
100
AcDbLine
 10
112.1632127539
 20
107.7505671248
 30
0.0
 11
120.5132125393
 21
107.7505671248
 31
0.0
  0
LINE
  5
289
330
1F
100
AcDbEntity
  8
0
  6
HIDDEN
 62
     7
370
     0
100
AcDbLine
 10
120.5132125393
 20
124.7505680487
 30
0.0
 11
112.1632127539
 21
124.7505680487
 31
0.0
  0
LINE
  5
28A
330
1F
100
AcDbEntity
  8
0
  6
HIDDEN
 62
     7
370
     0
100
AcDbLine
 10
106.6632127837
 20
147.7505680934
 30
0.0
 11
106.6632127837
 21
142.6505674437
 31
0.0
  0
LINE
  5
28B
330
1F
100
AcDbEntity
  8
0
  6
HIDDEN
 62
     7
370
     0
100
AcDbLine
 10
145.7132125721
 20
123.3005677179
 30
0.0
 11
144.7132142708
 21
122.300567554
 31
0.0
  0
LINE
  5
28C
330
1F
100
AcDbEntity
  8
0
  6
HIDDEN
 62
     7
370
     0
100
AcDbLine
 10
144.7132142708
 20
110.2005676195
 30
0.0
 11
145.7132125721
 21
109.2005674556
 31
0.0
  0
LINE
  5
28D
330
1F
100
AcDbEntity
  8
0
  6
HIDDEN
 62
     7
370
     0
100
AcDbLine
 10
141.2132146285
 20
122.300567554
 30
0.0
 11
140.101621531
 21
120.450567437
 31
0.0
  0
LINE
  5
28E
330
1F
100
AcDbEntity
  8
0
  6
HIDDEN
 62
     7
370
     0
100
AcDbLine
 10
140.101621531
 20
112.0505677365
 30
0.0
 11
141.2132146285
 21
110.2005676195
 31
0.0
  0
LINE
  5
28F
330
1F
100
AcDbEntity
  8
0
  6
HIDDEN
 62
     7
370
     0
100
AcDbLine
 10
144.7132142708
 20
122.300567554
 30
0.0
 11
141.2132146285
 21
122.300567554
 31
0.0
  0
LINE
  5
290
330
1F
100
AcDbEntity
  8
0
  6
HIDDEN
 62
     7
370
     0
100
AcDbLine
 10
141.2132146285
 20
110.2005676195
 30
0.0
 11
144.7132142708
 21
110.2005676195
 31
0.0
  0
LINE
  5
291
330
1F
100
AcDbEntity
  8
0
  6
HIDDEN
 62
     7
370
     0
100
AcDbLine
 10
96.897650648
 20
92.171196343
 30
0.0
 11
96.4632184692
 21
92.6502630875
 31
0.0
  0
LINE
  5
292
330
1F
100
AcDbEntity
  8
0
  6
HIDDEN
 62
     7
370
     0
100
AcDbLine
 10
88.9632149116
 20
93.0719510481
 30
0.0
 11
88.480781436
 21
92.5928843037
 31
0.0
  0
LINE
  5
293
330
1F
100
AcDbEntity
  8
0
  6
HIDDEN
 62
     7
370
     0
100
AcDbLine
 10
88.4806594328
 20
139.9082452819
 30
0.0
 11
88.963210255
 21
139.4291245208
 31
0.0
  0
LINE
  5
294
330
1F
100
AcDbEntity
  8
0
  6
HIDDEN
 62
     7
370
     0
100
AcDbLine
 10
96.4632128813
 20
139.8508236573
 30
0.0
 11
96.8977549561
 21
140.3299425558
 31
0.0
  0
LINE
  5
295
330
1F
100
AcDbEntity
  8
0
  6
HIDDEN
 62
     7
370
     0
100
AcDbLine
 10
123.5132130311
 20
112.0505677365
 30
0.0
 11
140.101621531
 21
112.0505677365
 31
0.0
  0
LINE
  5
296
330
1F
100
AcDbEntity
  8
0
  6
HIDDEN
 62
     7
370
     0
100
AcDbLine
 10
140.101621531
 20
120.450567437
 30
0.0
 11
123.5132130311
 21
120.450567437
 31
0.0
  0
LINE
  5
297
330
1F
100
AcDbEntity
  8
0
  6
HIDDEN
 62
     7
370
     0
100
AcDbLine
 10
96.4632128813
 20
136.1859687433
 30
0.0
 11
96.4632128813
 21
139.9508532897
 31
0.0
  0
LINE
  5
298
330
1F
100
AcDbEntity
  8
0
  6
HIDDEN
 62
     7
370
     0
100
AcDbLine
 10
88.9632130489
 20
139.4288693384
 30
0.0
 11
88.9632130489
 21
136.2461899236
 31
0.0
  0
LINE
  5
299
330
1F
100
AcDbEntity
  8
0
  6
HIDDEN
 62
     7
370
     0
100
AcDbLine
 10
96.4632128813
 20
92.5502036527
 30
0.0
 11
96.4632128813
 21
96.3151664302
 31
0.0
  0
LINE
  5
29A
330
1F
100
AcDbEntity
  8
0
  6
HIDDEN
 62
     7
370
     0
100
AcDbLine
 10
88.9632130489
 20
96.2549452499
 30
0.0
 11
88.9632130489
 21
93.0722732857
 31
0.0
  0
ARC
  5
29B
330
1F
100
AcDbEntity
  8
0
  6
HIDDEN
 62
     7
370
     0
100
AcDbCircle
 10
74.5132128105
 20
138.5205675868
 30
0.0
 40
1.399999999999984
100
AcDbArc
 50
270.0
 51
301.7485287426
  0
ARC
  5
29C
330
1F
100
AcDbEntity
  8
0
  6
HIDDEN
 62
     7
370
     0
100
AcDbCircle
 10
78.5132128105
 20
93.9805675868
 30
0.0
 40
1.400000000000006
100
AcDbArc
 50
42.2465410162
 51
90.0
  0
LINE
  5
29D
330
1F
100
AcDbEntity
  8
0
  6
HIDDEN
 62
     7
370
     0
100
AcDbLine
 10
70.9543755726
 20
137.1117313222
 30
0.0
 11
69.8132129834
 21
135.9705668703
 31
0.0
  0
LINE
  5
29E
330
1F
100
AcDbEntity
  8
0
  6
HIDDEN
 62
     7
370
     0
100
AcDbLine
 10
74.5132124499
 20
137.1205677107
 30
0.0
 11
71.0874783323
 21
137.1205677107
 31
0.0
  0
LINE
  5
29F
330
1F
100
AcDbEntity
  8
0
  6
HIDDEN
 62
     7
370
     0
100
AcDbLine
 10
69.8132129834
 20
96.5305683032
 30
0.0
 11
70.9543755726
 21
95.3894038514
 31
0.0
  0
LINE
  5
2A0
330
1F
100
AcDbEntity
  8
0
  6
HIDDEN
 62
     7
370
     0
100
AcDbLine
 10
71.0965494142
 20
95.3805674628
 30
0.0
 11
78.5132131056
 21
95.3805674628
 31
0.0
  0
LINE
  5
2A1
330
1F
100
AcDbEntity
  8
0
  6
HIDDEN
 62
     7
370
     0
100
AcDbLine
 10
179.263214253
 20
90.2771674857
 30
0.0
 11
179.263214253
 21
95.465958567
 31
0.0
  0
LINE
  5
2A2
330
1F
100
AcDbEntity
  8
0
  6
HIDDEN
 62
     7
370
     0
100
AcDbLine
 10
170.1632092223
 20
95.465958567
 30
0.0
 11
170.1632092223
 21
90.2704880402
 31
0.0
  0
LINE
  5
2A3
330
1F
100
AcDbEntity
  8
0
  6
HIDDEN
 62
     7
370
     0
100
AcDbLine
 10
170.1632092223
 20
142.2306471333
 30
0.0
 11
170.1632092223
 21
137.0351766065
 31
0.0
  0
LINE
  5
2A4
330
1F
100
AcDbEntity
  8
0
  6
HIDDEN
 62
     7
370
     0
100
AcDbLine
 10
179.263214253
 20
137.0351766065
 30
0.0
 11
179.263214253
 21
142.2239676878
 31
0.0
  0
LINE
  5
2A5
330
1F
100
AcDbEntity
  8
0
  6
HIDDEN
 62
     7
370
     0
100
AcDbLine
 10
175.9735295997
 20
97.6519421503
 30
0.0
 11
175.8904258237
 21
97.6639189586
 31
0.0
  0
LINE
  5
2A6
330
1F
100
AcDbEntity
  8
0
  6
HIDDEN
 62
     7
370
     0
100
AcDbLine
 10
173.5359976516
 20
97.6639189586
 30
0.0
 11
173.4529013262
 21
97.6519421503
 31
0.0
  0
LINE
  5
2A7
330
1F
100
AcDbEntity
  8
0
  6
HIDDEN
 62
     7
370
     0
100
AcDbLine
 10
173.4529013262
 20
134.8491930232
 30
0.0
 11
173.5359976516
 21
134.8372162149
 31
0.0
  0
LINE
  5
2A8
330
1F
100
AcDbEntity
  8
0
  6
HIDDEN
 62
     7
370
     0
100
AcDbLine
 10
175.8904258237
 20
134.8372162149
 30
0.0
 11
175.9735295997
 21
134.8491930232
 31
0.0
  0
DIMENSION
  5
2A9
330
1F
100
AcDbEntity
  8
VERMASSUNG
100
AcDbDimension
  2
*D1
 10
221.7132128105
 20
164.0442695698
 30
0.0
 11
161.7132128105
 21
164.0442695698
 31
0.0
 70
   160
 71
     2
 42
-1.0
  3
SLDDIMSTYLE0
100
AcDbAlignedDimension
 13
101.7132128105
 23
147.4505675868
 33
0.0
 14
221.7132128105
 24
145.0505675868
 34
0.0
100
AcDbRotatedDimension
  0
DIMENSION
  5
2B4
330
1F
100
AcDbEntity
  8
VERMASSUNG
100
AcDbDimension
  2
*D2
 10
221.7132128105
 20
158.0442695698
 30
0.0
 11
174.6882128105
 21
158.0442695698
 31
0.0
 70
   160
 71
     2
 42
-1.0
  3
SLDDIMSTYLE0
100
AcDbAlignedDimension
 13
127.6632128105
 23
146.0970079105
 33
0.0
 14
221.7132128105
 24
145.0505675868
 34
0.0
100
AcDbRotatedDimension
  0
DIMENSION
  5
2BE
330
1F
100
AcDbEntity
  8
VERMASSUNG
100
AcDbDimension
  2
*D3
 10
221.7132128105
 20
170.0442695698
 30
0.0
 11
145.7632128105
 21
170.0442695698
 31
0.0
 70
   160
 71
     2
 42
-1.0
  3
SLDDIMSTYLE0
100
AcDbAlignedDimension
 13
69.8132128105
 23
135.9412453332
 33
0.0
 14
221.7132128105
 24
145.0505675868
 34
0.0
100
AcDbRotatedDimension
  0
DIMENSION
  5
2C8
330
1F
100
AcDbEntity
  8
VERMASSUNG
100
AcDbDimension
  2
*D4
 10
234.8816742308
 20
80.2505675868
 30
0.0
 11
234.8816742308
 21
116.2505675868
 31
0.0
 70
   160
  1
%%c<>
 71
     2
 42
-1.0
  3
SLDDIMSTYLE0
100
AcDbAlignedDimension
 13
219.2632128105
 23
152.2505675868
 33
0.0
 14
219.2632128105
 24
80.2505675868
 34
0.0
 50
90.0
100
AcDbRotatedDimension
  0
DIMENSION
  5
2D3
330
1F
100
AcDbEntity
  8
VERMASSUNG
100
AcDbDimension
  2
*D5
 10
228.8816742308
 20
92.2505675868
 30
0.0
 11
228.8816742308
 21
116.2505675868
 31
0.0
 70
   160
  1
%%c<>
 71
     2
 42
-1.0
  3
SLDDIMSTYLE0
100
AcDbAlignedDimension
 13
220.5132128105
 23
140.2505675868
 33
0.0
 14
220.5132128105
 24
92.2505675868
 34
0.0
 50
90.0
100
AcDbRotatedDimension
  0
DIMENSION
  5
2DE
330
1F
100
AcDbEntity
  8
VERMASSUNG
100
AcDbDimension
  2
*D6
 10
64.6369312014
 20
84.7505675868
 30
0.0
 11
64.6369312014
 21
116.2505675868
 31
0.0
 70
   160
  1
HSK A %%c<>
 71
     2
 42
-1.0
  3
SLDDIMSTYLE0
100
AcDbAlignedDimension
 13
102.0132128105
 23
147.7505675868
 33
0.0
 14
102.0132128105
 24
84.7505675868
 34
0.0
 50
90.0
100
AcDbRotatedDimension
  0
LINE
  5
2EA
330
1F
100
AcDbEntity
  8
VERMASSUNG
  6
CENTERX2
370
     0
100
AcDbLine
 10
67.9237442708
 20
116.2505675868
 30
0.0
 11
222.5175445447
 21
116.2505675868
 31
0.0
  0
LINE
  5
2EB
330
1F
100
AcDbEntity
  8
VERMASSUNG
  6
CENTERX2
370
     0
100
AcDbLine
 10
92.7132128105
 20
134.2195088493
 30
0.0
 11
92.7132128105
 21
141.6399735319
 31
0.0
  0
LINE
  5
2EC
330
1F
100
AcDbEntity
  8
VERMASSUNG
  6
CENTERX2
370
     0
100
AcDbLine
 10
92.7132128105
 20
98.2816263242
 30
0.0
 11
92.7132128105
 21
90.8611071681
 31
0.0
  0
OLE2FRAME
  5
2ED
330
1F
100
AcDbEntity
  8
0
100
AcDbOle2Frame
 70
     2
  3
Bitmap Image
 10
13.8511154363
 20
38.264191557
 30
0.0
 11
51.6290888628
 21
31.9806341108
 31
0.0
 71
     2
 72
     0
 73
     1
 90
    12928
310
80552BED0767C5B32B40DDAF6807D121434000000000000000006FFBDDFB85D0
310
4940DDAF6807D121434000000000000000006FFBDDFB85D04940416F4BD60AFB
310
3F4000000000000000002BED0767C5B32B40416F4BD60AFB3F40000000000000
310
0000000000000100000000010000010000000100000000000100000000320000
310
D0CF11E0A1B11AE1000000000000000000000000000000003E000300FEFF0900
310
0600000000000000000000000100000001000000000000000010000002000000
310
01000000FEFFFFFF0000000000000000FFFFFFFFFFFFFFFFFFFFFFFFFFFFFFFF
310
FFFFFFFFFFFFFFFFFFFFFFFFFFFFFFFFFFFFFFFFFFFFFFFFFFFFFFFFFFFFFFFF
310
FFFFFFFFFFFFFFFFFFFFFFFFFFFFFFFFFFFFFFFFFFFFFFFFFFFFFFFFFFFFFFFF
310
FFFFFFFFFFFFFFFFFFFFFFFFFFFFFFFFFFFFFFFFFFFFFFFFFFFFFFFFFFFFFFFF
310
FFFFFFFFFFFFFFFFFFFFFFFFFFFFFFFFFFFFFFFFFFFFFFFFFFFFFFFFFFFFFFFF
310
FFFFFFFFFFFFFFFFFFFFFFFFFFFFFFFFFFFFFFFFFFFFFFFFFFFFFFFFFFFFFFFF
310
FFFFFFFFFFFFFFFFFFFFFFFFFFFFFFFFFFFFFFFFFFFFFFFFFFFFFFFFFFFFFFFF
310
FFFFFFFFFFFFFFFFFFFFFFFFFFFFFFFFFFFFFFFFFFFFFFFFFFFFFFFFFFFFFFFF
310
FFFFFFFFFFFFFFFFFFFFFFFFFFFFFFFFFFFFFFFFFFFFFFFFFFFFFFFFFFFFFFFF
310
FFFFFFFFFFFFFFFFFFFFFFFFFFFFFFFFFFFFFFFFFFFFFFFFFFFFFFFFFFFFFFFF
310
FFFFFFFFFFFFFFFFFFFFFFFFFFFFFFFFFFFFFFFFFFFFFFFFFFFFFFFFFFFFFFFF
310
FFFFFFFFFFFFFFFFFFFFFFFFFFFFFFFFFFFFFFFFFFFFFFFFFFFFFFFFFFFFFFFF
310
FFFFFFFFFFFFFFFFFFFFFFFFFFFFFFFFFFFFFFFFFFFFFFFFFFFFFFFFFFFFFFFF
310
FFFFFFFFFFFFFFFFFFFFFFFFFFFFFFFFFFFFFFFFFFFFFFFFFFFFFFFFFFFFFFFF
310
FDFFFFFFFEFFFFFFFEFFFFFFFEFFFFFF05000000060000000700000008000000
310
090000000A0000000B0000000C0000000D0000000E0000000F00000010000000
310
11000000120000001300000014000000150000001600000017000000FEFFFFFF
310
FFFFFFFFFFFFFFFFFFFFFFFFFFFFFFFFFFFFFFFFFFFFFFFFFFFFFFFFFFFFFFFF
310
FFFFFFFFFFFFFFFFFFFFFFFFFFFFFFFFFFFFFFFFFFFFFFFFFFFFFFFFFFFFFFFF
310
FFFFFFFFFFFFFFFFFFFFFFFFFFFFFFFFFFFFFFFFFFFFFFFFFFFFFFFFFFFFFFFF
310
FFFFFFFFFFFFFFFFFFFFFFFFFFFFFFFFFFFFFFFFFFFFFFFFFFFFFFFFFFFFFFFF
310
FFFFFFFFFFFFFFFFFFFFFFFFFFFFFFFFFFFFFFFFFFFFFFFFFFFFFFFFFFFFFFFF
310
FFFFFFFFFFFFFFFFFFFFFFFFFFFFFFFFFFFFFFFFFFFFFFFFFFFFFFFFFFFFFFFF
310
FFFFFFFFFFFFFFFFFFFFFFFFFFFFFFFFFFFFFFFFFFFFFFFFFFFFFFFFFFFFFFFF
310
FFFFFFFFFFFFFFFFFFFFFFFFFFFFFFFFFFFFFFFFFFFFFFFFFFFFFFFFFFFFFFFF
310
FFFFFFFFFFFFFFFFFFFFFFFFFFFFFFFFFFFFFFFFFFFFFFFFFFFFFFFFFFFFFFFF
310
FFFFFFFFFFFFFFFFFFFFFFFFFFFFFFFFFFFFFFFFFFFFFFFFFFFFFFFFFFFFFFFF
310
FFFFFFFFFFFFFFFFFFFFFFFFFFFFFFFFFFFFFFFFFFFFFFFFFFFFFFFFFFFFFFFF
310
FFFFFFFFFFFFFFFFFFFFFFFFFFFFFFFFFFFFFFFFFFFFFFFFFFFFFFFFFFFFFFFF
310
FFFFFFFFFFFFFFFFFFFFFFFFFFFFFFFFFFFFFFFFFFFFFFFFFFFFFFFFFFFFFFFF
310
52006F006F007400200045006E00740072007900000000000000000000000000
310
0000000000000000000000000000000000000000000000000000000000000000
310
16000500FFFFFFFFFFFFFFFF020000000A00030000000000C000000000000046
310
00000000000000000000000030D8D796A1E7CB0103000000C000000000000000
310
01004F006C006500000000000000000000000000000000000000000000000000
310
0000000000000000000000000000000000000000000000000000000000000000
310
0A000200FFFFFFFFFFFFFFFFFFFFFFFF00000000000000000000000000000000
310
0000000000000000000000000000000000000000000000001400000000000000
310
010043006F006D0070004F0062006A0000000000000000000000000000000000
310
0000000000000000000000000000000000000000000000000000000000000000
310
120002010100000003000000FFFFFFFF00000000000000000000000000000000
310
0000000000000000000000000000000000000000010000004D00000000000000
310
01004F006C006500310030004E00610074006900760065000000000000000000
310
0000000000000000000000000000000000000000000000000000000000000000
310
1A000200FFFFFFFFFFFFFFFFFFFFFFFF00000000000000000000000000000000
310
0000000000000000000000000000000000000000040000002426000000000000
310
FEFFFFFF02000000FEFFFFFFFFFFFFFFFFFFFFFFFFFFFFFFFFFFFFFFFFFFFFFF
310
FFFFFFFFFFFFFFFFFFFFFFFFFFFFFFFFFFFFFFFFFFFFFFFFFFFFFFFFFFFFFFFF
310
FFFFFFFFFFFFFFFFFFFFFFFFFFFFFFFFFFFFFFFFFFFFFFFFFFFFFFFFFFFFFFFF
310
FFFFFFFFFFFFFFFFFFFFFFFFFFFFFFFFFFFFFFFFFFFFFFFFFFFFFFFFFFFFFFFF
310
FFFFFFFFFFFFFFFFFFFFFFFFFFFFFFFFFFFFFFFFFFFFFFFFFFFFFFFFFFFFFFFF
310
FFFFFFFFFFFFFFFFFFFFFFFFFFFFFFFFFFFFFFFFFFFFFFFFFFFFFFFFFFFFFFFF
310
FFFFFFFFFFFFFFFFFFFFFFFFFFFFFFFFFFFFFFFFFFFFFFFFFFFFFFFFFFFFFFFF
310
FFFFFFFFFFFFFFFFFFFFFFFFFFFFFFFFFFFFFFFFFFFFFFFFFFFFFFFFFFFFFFFF
310
FFFFFFFFFFFFFFFFFFFFFFFFFFFFFFFFFFFFFFFFFFFFFFFFFFFFFFFFFFFFFFFF
310
FFFFFFFFFFFFFFFFFFFFFFFFFFFFFFFFFFFFFFFFFFFFFFFFFFFFFFFFFFFFFFFF
310
FFFFFFFFFFFFFFFFFFFFFFFFFFFFFFFFFFFFFFFFFFFFFFFFFFFFFFFFFFFFFFFF
310
FFFFFFFFFFFFFFFFFFFFFFFFFFFFFFFFFFFFFFFFFFFFFFFFFFFFFFFFFFFFFFFF
310
FFFFFFFFFFFFFFFFFFFFFFFFFFFFFFFFFFFFFFFFFFFFFFFFFFFFFFFFFFFFFFFF
310
FFFFFFFFFFFFFFFFFFFFFFFFFFFFFFFFFFFFFFFFFFFFFFFFFFFFFFFFFFFFFFFF
310
FFFFFFFFFFFFFFFFFFFFFFFFFFFFFFFFFFFFFFFFFFFFFFFFFFFFFFFFFFFFFFFF
310
FFFFFFFFFFFFFFFFFFFFFFFFFFFFFFFFFFFFFFFFFFFFFFFFFFFFFFFFFFFFFFFF
310
010000020000000000000000000000000000000061007200410082005C003104
310
D806250000000000D806250000000000680061007200650064005C003B004300
310
0100FEFF030A0000FFFFFFFF0A00030000000000C00000000000004607000000
310
5042727573680007000000504272757368000700000050427275736800F439B2
310
71000000000000000000000000004100540049002E004100430045005C004300
310
6F00720065002D005300740061007400690063003B0043003A005C0050007200
310
6F006700720061006D002000460069006C006500730020002800780038003600
310
29005C0043006F006D006D006F006E002000460069006C00650073005C004100
310
750074006F006400650073006B0020005300680061007200650064005C003B00
310
43003A005C00500072006F006700720061006D002000460069006C0065007300
310
5C004E006F0072006D0061006E005C004E0070006D005C00420069006E000000
310
43003A005C00500072006F006700720061006D002000460069006C0065007300
310
5C0053006F006C006900640057006F0072006B007300200043006F0072007000
310
5C0053006F006C006900640057006F0072006B00730020002800320029005C00
310
730065007400750070005C0069003300380036005C0073007700610063007400
310
770069007A002E006500780065000000220043003A005C00500072006F006700
310
20260000424D0E260000000000003E00000028000000B40200006E0000000100
310
01000000000000000000130B0000130B00000200000002000000000000FFFFFF
310
FFFFFFFFFFFFFFFFFFFFFFFFFFFFFFFFFFFFFFFFFFFFFFFFFFFFFFFFFFFFFFFF
310
FFFFFFFFFFFFFFFFFFFFFFFFFFFFFFFFFFFFFFFFFFFFFFFFFFFFFFFFFFFFFFFF
310
FFFFFFFFFFFFFFFFFFFFFFFFFFFFFFFFFFFFFFFFFFFFFFFFF000FFFFFFFFFFFF
310
FFFFFFFFFFFFFFFFFFFFFFFFFFFFFFFFFFFFFFFFFFFFFFFFFFFFFFFFFFFFFFFF
310
FFFFFFFFFFFFFFFFFFFFFFFFFFFFFFFFFFFFFFFFFFFFFFFFFFFFFFFFFFFFFFFF
310
FFFFFFFFFFFFFFFFFFFFFFFFFFFFFFFFF000FFFFFFFFFFFFFFFFFFFFFFFFFFFF
310
FFFFFFFFFFFFFFFFFFFFFFFFFFFFFFFFFFFFFFFFFFFFFFFFFFFFFFFFFFFFFFFF
310
FFFFFFFFFFFFFFFFFFFFFFFFFFFFFFFFFFFFFFFFFFFFFFFFFFFFFFFFFFFFFFFF
310
FFFFFFFFFFFFFFFFF000FFFFFFFFFFFFFFFFFFFFFFFFFFFFFFFFFFFFFFFFFFFF
310
FFFFFFFFFFFFFFFFFFFFFFFFFFFFFFFFFFFFFFFFFFFFFFFFFFFFFFFFFFFFFFFF
310
FFFFFFFFFFFFFFFFFFFFFFFFFFFFFFFFFFFFFFFFFFFFFFFFFFFFFFFFFFFFFFFF
310
F000FFFFFFFFFFFFFFFFFFFFFFFFFFFFFFFFFFFFFFFFFFFFFFFFFFFFFFFFFFFF
310
FFFFFFFFFFFFFFFFFFFFFFFFFFFFFFFFFFFFFFFFFFFFFFFFFFFFFFFFFFFFFFFF
310
FFFFFFFFFFFFFFFFFFFFFFFFFFFFFFFFFFFFFFFFFFFFFFFFF000FFFFFFFFFFFF
310
FFFFFFFFFFFFFFFFFFFFFFFFFFFFFFFFFFFFFFFFFFFFFFFFFFFFFFFFFFFFFFFF
310
FFFFFFFFFFFFFFFFFFFFFFFFFFFFFFFFFFFFFFFFFFFFFFFFFFFFFFFFFFFFFFFF
310
FFFFFFFFFFFFFFFFFFFFFFFFFFFFFFFFF000FFFFFFFFFFFFFFFFFFFFFFFFFFFF
310
FFFFFFFFFFFFFFFFFFFFFFFFFFFFFFFFFFFFFFFFFFFFFFFFFFFFFFFFFFFFFFFF
310
FFFFFFFFFFFFFFFFFFFFFFFFFFFFFFFFFFFFFFFFFFFFFFFFFFFFFFFFFFFFFFFF
310
FFFFFFFFFFFFFFFFF000FFFFFFFFFFFFFFFFFFFFFFFFFFFFFFFFFFFFFFFFFFFF
310
FFFFFFFFFFFFFFFFFFFFFFFFFFFFFFFFFFFFFFFFFFFFFFFFFFFFFFFFFFFFFFFF
310
FFFFFFFFFFFFFFFFFFFFFFFFFFFFFFFFFFFFFFFFFFFFFFFFFFFFFFFFFFFFFFFF
310
F000FFFFFFFFFFFFFFFFFFFFFFFFFFFFFFFFFFFFFFFFFFFFFFFFFFFFFFFFFFFF
310
FFFFFFFFFFFFFFFFFFFFFFFFFFFFFFFFFFFFFFFFFFFFFFFFFFFFFFFFFFFFFFFF
310
FFFFFFFFFFFFFFFFFFFFFFFFFFFFFFFFFFFFFFFFFFFFFFFFF000FFFFFFFFFFFF
310
FFFFFFFFFFFFFFFFFFFFFFFFFFFFFFFFFFFFFFFFFFFFFFFFFFFFFFFFFFFFFFFF
310
FFFFFFFFFFFFFFFFFFFFFFFFFFFFFFFFFFFFFFFFFFFFFFFFFFFFFFFFFFFFFFFF
310
FFFFFFFFFFFFFFFFFFFFFFFFFFFFFFFFF000FFFFFFFFFFFFFFFFFFFFFFFFFFFF
310
FFFFFFFFFFFFFFFFFFFFFFFFFFFFFFFFFFFFFFFFFFFFFFFFFFFFFFFFFFFFFFFF
310
FFFFFFFFFFFFFFFFFFFFFFFFFFFFFFFFFFFFFFFFFFFFFFFFFFFFFFFFFFFFFFFF
310
FFFFFFFFFFFFFFFFF000FFFFFFFFFFFFFFFFFFFFFFFFFFFFFFFFFFFFFFFFFFFF
310
FFFFFFFFFFFFFFFFFFFFFFFFFFFFFFFFFFFFFFFFFFFFFFFFFFFFFFFFFFFFFFFF
310
FFFFFFFFFFFFFFFFFFFFFFFFFFFFFFFFFFFFFFFFFFFFFFFFFFFFFFFFFFFFFFFF
310
F000FFFFFFFFFFFFFFFFFFFFFFFFFFFFFFFFFFFFFFFFFFFFFFFFFFFFFFFFFFFF
310
FFFFFFFFFFFFFFFFFFFFFFFFFFFFFFFFFFFFFFFFFFFFFFFFFFFFFFFFFFFFFFFF
310
FFFFFFFFFFFFFFFFFFFFFFFFFFFFFFFFFFFFFFFFFFFFFFFFF000FFFFFFFFFFFF
310
FFFFFFFFFFFFFFFFFFFFFFFFFFFFFFFFFFFFFFFFFFFFFFFFFFFFFFFFFFFFFFFF
310
FFFFFFFFFFFFFFFFFFFFFFFFFFFFFFFFFFFFFFFFFFFFFFFFFFFFFFFFFFFFFFFF
310
FFFFFFFFFFFFFFFFFFFFFFFFFFFFFFFFF000FFFFFFFFFFFFFFFFFFFFFFFFFFFF
310
FFFFFFFFFFFFFFFFFFFFFFFFFFFFFFFFFFFFFFFFFFFFFFFFFFFFFFFFFFFFFFFF
310
FFFFFFFFFFFFFFFFFFFFFFFFFFFFFFFFFFFFFFFFFFFFFFFFFFFFFFFFFFFFFFFF
310
FFFFFFFFFFFFFFFFF000FFFFFFFFFFFFFFFFFFFFFFFFFFFFFFFFFFFFFFFFFFFF
310
FFFFFFFFFFFFFFFFFFFFFFFFFFFFFFFFFFFFFFFFFFFFFFFFFFFFFFFFFFFFFFFF
310
FFFFFFFFFFFFFFFFFFFFFFFFFFFFFFFFFFFFFFFFFFFFFFFFFFFFFFFFFFFFFFFF
310
F000FFFFFFFFFFFFFFFFFFFFFFFFFFFFFFFFFFFFFFFFFFFFFFFFFFFFFFFFFFFF
310
FFFFFFFFFFFFFFFFFFFFFFFFFFFFFFFFFFFFFFFFFFFFFFFFFFFFFFFFFFFFFFFF
310
FFFFFFFFFFFFFFFFFFFFFFFFFFFFFFFFFFFFFFFFFFFFFFFFF000FFFFFFFFFFFF
310
FFFFFFFFFFFFFFFFFFFFFFFFFFFFFFFFFFFFFFFFFFFFFFFFFFFFFFFFFFFFFFFF
310
FFFFFFFFFFFFFFFFFFFFFFFFFFFFFFFFFFFFFFFFFFFFFFFFFFFFFFFFFFFFFFFF
310
FFFFFFFFFFFFFFFFFFFFFFFFFFFFFFFFF000FFFFFFFFFFFFFFFFFFFFFFFFFFFF
310
FFFFFFFFFFFFFFFFFFFFFFFFFFFFFFFFFFFFFFFFFFFFFFFFFFFFFFFFFFFFFFFF
310
FFFFFFFFFFFFFFFFFFFFFFFFFFFFFFFFFFFFFFFFFFFFFFFFFFFFFFFFFFFFFFFF
310
FFFFFFFFFFFFFFFFF000FFFFF80003FFFFFFFFFFFFFFFFFFFFFFFFFFFFFFFFFF
310
FFFFF00007FFFFFFFFFF00007FFFFFF800000000000000007FFFFFFFFFFFFFFF
310
FFFFFFFC001FFFFFFFFFFFFFFC001FFFFFFFFFFFFFFFFFFFFFFFFFFE0007FFFF
310
F000FFFF8000007FFFFFFFF8000FFFFFC0007FFFFF80007FFFFF0000007FFFFF
310
FFF8000007FFFFF800000000000000007FFFFFF0001FFFFFFFFFFFC00001FFFF
310
FFFFFFFFC00001FFFFFFFF000000000003FFFFE000007FFFF000FFFE0000000F
310
FFFFFFF0000FFFFF80007FFFFF80007FFFFC0000001FFFFFFFC0000001FFFFF8
310
00000000000000007FFFFFF0001FFFFFFFFFFE0000003FFFFFFFFFFE0000003F
310
FFFFFF000000000003FFFF0000000FFFF000FFF800000003FFFFFFF00007FFFF
310
80007FFFFF80007FFFF000000007FFFFFF000000003FFFF80000000000000000
310
7FFFFFF0001FFFFFFFFFF80000000FFFFFFFFFF80000000FFFFFFF0000000000
310
03FFFC00000003FFF000FFE000000000FFFFFFF00007FFFF80003FFFFF80007F
310
FFC000000001FFFFFC000000001FFFF800000000000000007FFFFFF0001FFFFF
310
FFFFE000000003FFFFFFFFE000000003FFFFFF000000000003FFF000000000FF
310
F000FF80000000007FFFFFF00007FFFF80003FFFFF80007FFF8000000000FFFF
310
F80000000007FFF800000000000000007FFFFFF0001FFFFFFFFFC000000001FF
310
FFFFFFC000000001FFFFFF000000000003FFC0000000007FF000FF0000000000
310
3FFFFFE00007FFFF00003FFFFF80007FFE00000000003FFFF00000000003FFF8
310
00000000000000007FFFFFF0001FFFFFFFFF8000000000FFFFFFFF8000000000
310
FFFFFF000000000003FF80000000003FF000FE00000000001FFFFFE00003FFFF
310
00003FFFFF80007FFC00000000001FFFE00000000001FFF8000001FFFE000000
310
7FFFFFF0001FFFFFFFFE00000000003FFFFFFE00000000003FFFFF0000000000
310
03FF00000000001FF000FC00000000000FFFFFE00003FFFF00001FFFFF80007F
310
F800000000001FFFC00000000000FFF8000001FFFE0000007FFFFFF0001FFFFF
310
FFFC00000000001FFFFFFC00000000001FFFFF000000000003FE00000000000F
310
F000F8000000000007FFFFE00003FFFF00001FFFFF80007FF800000000000FFF
310
800000000000FFF8000001FFFE0000007FFFFFF0001FFFFFFFF800000000000F
310
FFFFF800000000000FFFFF000000000003FC000000000007F000F80000000000
310
03FFFFC00003FFFE00001FFFFF80007FF0000000000007FF0000000000007FF8
310
000001FFFE0000007FFFFFF0001FFFFFFFF0000000000007FFFFF00000000000
310
07FFFF000000000003F8000000000003F000F0000000000003FFFFC00001FFFE
310
00001FFFFF80007FE0000000000007FE0000000000003FF8000001FFFE000000
310
7FFFFFF0001FFFFFFFF0000000000007FFFFF0000000000007FFFF0000000000
310
03F800001F800003F000E00001FFF00001FFFFC00001FFFE00000FFFFF80007F
310
E00001FFE00003FE00001FFF00003FF8000001FFFE0000007FFFFFF0001FFFFF
310
FFE000003E000003FFFFE000003E000003FFFF000000000003F00001FFF80001
310
F000E00007FFFC0001FFFFC00001FFFE00000FFFFF80007FC0000FFFFC0003FC
310
0000FFFFC0001FF8000001FFFE0000007FFFFFF0001FFFFFFFC00003FFE00001
310
FFFFC00003FFE00001FFFF0001FFFFFFFFF00007FFFE0001F000E0000FFFFF00
310
00FFFF800001FFFC00000FFFFF80007FC0001FFFFE0001FC0001FFFFE0001FF8
310
000001FFFE0000007FFFFFF0001FFFFFFF80000FFFF80000FFFF80000FFFF800
310
00FFFF0003FFFFFFFFE0000FFFFF8000F000C0003FFFFF8000FFFF800000FFFC
310
000007FFFF80007F80003FFFFF0001FC0003FFFFF0001FF8000001FFFE000000
310
7FFFFFF0001FFFFFFF80003FFFFE0000FFFF80003FFFFE0000FFFF0003FFFFFF
310
FFE0003FFFFF8000F000C0003FFFFF8000FFFF800000FFFC000007FFFF80007F
310
80007FFFFF8001F80007FFFFF8000FF8000001FFFE0000007FFFFFF0001FFFFF
310
FF00007FFFFF00007FFF00007FFFFF00007FFF0003FFFFFFFFE0003FFFFFC000
310
F000C0007FFFFFC000FFFF000000FFFC000007FFFF80007F8000FFFFFF8000F8
310
000FFFFFF8000FF8000001FFFE0000007FFFFFF0001FFFFFFF0000FFFFFF8000
310
7FFF0000FFFFFF80007FFF0003FFFFFFFFC0007FFFFFC00070008000FFFFFFC0
310
00FFFF000000FFF8000007FFFF80007F8000FFFFFF8000F8000FFFFFF8000FF8
310
000001FFFE0000007FFFFFF0001FFFFFFE0001FFFFFFC0003FFE0001FFFFFFC0
310
003FFF0003FFFFFFFFC0007FFFFFE00070008000FFFFFFC0007FFF0000007FF8
310
000003FFFF80007F0001FFFFFF8000F8000FFFFFF8000FF8000001FFFE000000
310
7FFFFFF0001FFFFFFE0001FFFFFFC0003FFE0001FFFFFFC0003FFF0003FFFFFF
310
FFC000FFFFFFE00070008000FFFFFFC0007FFF0000007FF8000003FFFF80007F
310
0001FFFFFF8000F8001FFFFFF8000FF8000001FFFE0000007FFFFFF0001FFFFF
310
FE0003FFFFFFE0003FFE0003FFFFFFE0003FFF0003FFFFFFFFC000FFFFFFE000
310
70008000FFFFFFC0007FFE0000007FF8000003FFFF80007F0001FFFFFF8000F0
310
001FFFFFF8000FF8000001FFFE0000007FFFFFF0001FFFFFFC0003FFFFFFE000
310
1FFC0003FFFFFFE0001FFF0003FFFFFFFFC000FFFFFFC00070008000FFFFFF80
310
007FFE0000007FF0000003FFFF80007F0001FFFFFF0000F0001FFFFFF8000FF8
310
000001FFFE0000007FFFFFF0001FFFFFFC0007FFFFFFF0001FFC0007FFFFFFF0
310
001FFF0003FFFFFFFFC000FFFFFFC00070008001FFFFFF0000FFFE0000003FF0
310
000001FFFF80007F0001FFFFFF0000F8001FFFFFF0000FF8000001FFFE000000
310
7FFFFFF0001FFFFFFC0007FFFFFFF0001FFC0007FFFFFFF0001FFF0003FFFFFF
310
FFC001FFFFFF80007000FFFFFFFFFE0000FFFE0008003FF0008001FFFF80007F
310
FFFFFFFFFC0000FFFFFFFFFFE0000FF8000001FFFE0000007FFFFFF0001FFFFF
310
F8000FFFFFFFF8000FF8000FFFFFFFF8000FFF0003FFFFFFFFFFFFFFFFFF0000
310
7000FFFFFFFFFC0000FFFC0008003FF0008001FFFF80007FFFFFFFFFF80001FF
310
FFFFFFFF80000FF8000001FFFE0000007FFFFFF0001FFFFFF8000FFFFFFFF800
310
0FF8000FFFFFFFF8000FFF0003FFFFFFFFFFFFFFFFFE0000F000FFFFFFFFE000
310
00FFFC000C003FE000C001FFFF80007FFFFFFFFFC00001FFFFFFFFFE00001FF8
310
000001FFFE0000007FFFFFF0001FFFFFF8000FFFFFFFF8000FF8000FFFFFFFF8
310
000FFF0003FFFFFFFFFFFFFFFFF00000F000FFFFFFFE000001FFFC000C001FE0
310
00C000FFFF80007FFFFFFFFE000001FFFFFFFFE000001FF80FFFFFFFFFFFFFC0
310
7FFFFFF0001FFFFFF8000FFFFFFFF8000FF8000FFFFFFFF8000FFF0003FFFFFF
310
FFFFFFFFFF800000F000FFFFFFC0000001FFFC001C001FE001C000FFFF80007F
310
FFFFFF80000003FFFFFFF80000001FF80FFFFFFFFFFFFFC07FFFFFF0001FFFFF
310
F8001FFFFFFFFC000FF8001FFFFFFFFC000FFF0003FFFFFFFFFFFFFFF0000001
310
F000FFFFF800000001FFF8001C001FE001C000FFFF80007FFFFFF800000003FF
310
FFFF800000003FF80FFFFFFFFFFFFFC07FFFFFF0001FFFFFF8001FFFFFFFFC00
310
0FF8001FFFFFFFFC000FFF0003FFFFFFFFFFFFFE00000001F000FFFFC0000000
310
03FFF8001E001FC001E000FFFF80007FFFFF8000000007FFFFFC000000003FF8
310
0FFFFFFFFFFFFFC07FFFFFF0001FFFFFF8001FFFFFFFFC000FF8001FFFFFFFFC
310
000FFF0003FFFFFFFFFFFFE000000003F000FFFE0000000007FFF8001E000FC0
310
01E0007FFF80007FFFFE0000000007FFFFE0000000007FF80FFFFFFFFFFFFFC0
310
7FFFFFF0001FFFFFF0001FFFFFFFFC0007F0001FFFFFFFFC0007FF0003FFFFFF
310
FFFFFF0000000003F000FFF80000000007FFF8001E000FC003E0007FFF80007F
310
FFF0000000000FFFFF8000000000FFF80FFFFFFFFFFFFFC07FFFFFF0001FFFFF
310
F0001FFFFFFFFC0007F0001FFFFFFFFC0007FF0003FFFFFFFFFFFC0000000007
310
F000FFE0000000000FFFF0003E000FC003E0007FFF80007FFFC0000000001FFF
310
FE0000000001FFF80FFFFFFFFFFFFFC07FFFFFF0001FFFFFF0001FFFFFFFFC00
310
07F0001FFFFFFFFC0007FF0003FFFFFFFFFFF0000000000FF000FFC000000000
310
1FFFF0003F000F8003F0003FFF80007FFF80000000003FFFF80000000003FFF8
310
0FFFFFFFFFFFFFC07FFFFFF0001FFFFFF0001FFFFFFFFC0007F0001FFFFFFFFC
310
0007FF0003FFFFFFFFFFE0000000001FF000FF00000000007FFFF0003F000780
310
03F0003FFF80007FFF00000000007FFFF00000000007FFF80FFFFFFFFFFFFFC0
310
7FFFFFF0001FFFFFF0001FFFFFFFFC0007F0001FFFFFFFFC0007FF0003FFFFFF
310
FFFF80000000007FF000FE0000000000FFFFE0003F00078007F0003FFF80007F
310
FE0000000001FFFFE0000000001FFFF80FFFFFFFFFFFFFC07FFFFFF0001FFFFF
310
F0001FFFFFFFFC0007F0001FFFFFFFFC0007FF0003FFFFFFFFFF0000000000FF
310
F000FC0000000003FFFFE0007F00078007F0003FFF80007FFC0000000007FFFF
310
C0000000007FFFF80FFFFFFFFFFFFFC07FFFFFF0001FFFFFF8001FFFFFFFFC00
310
0FF8001FFFFFFFFC000FFF0003FFFFFFFFFE0000000003FFF000FC000000000F
310
FFFFE0007F80070007F8001FFF80007FF8000000001FFFFF8000000001FFFFF8
310
0FFFFFFFFFFFFFC07FFFFFF0001FFFFFF8001FFFFFFFFC000FF8001FFFFFFFFC
310
000FFF0003FFFFFFFFFC000000000FFFF000F8000000007FFFFFE0007F800700
310
07F8001FFF80007FF000000000FFFFFF800000000FFFFFF80FFFFFFFFFFFFFC0
310
7FFFFFF0001FFFFFF8000FFFFFFFF8000FF8000FFFFFFFF8000FFF0003FFFFFF
310
FFFC000000007FFFF000F800000007FFFFFFC0007F8003000FF8001FFF80007F
310
F000000007FFFFFF000000007FFFFFF80FFFFFFFFFFFFFC07FFFFFF0001FFFFF
310
F8000FFFFFFFF8000FF8000FFFFFFFF8000FFF0003FFFFFFFFF80000000FFFFF
310
F000F0000000FFFFFFFFC000FF8003000FF8001FFF80007FE0000000FFFFFFFF
310
0000000FFFFFFFF8000001FFFE0000007FFFFFF0001FFFFFF8000FFFFFFFF800
310
0FF8000FFFFFFFF8000FFF0003FFFFFFFFF8000000FFFFFFF000F000000FFFFF
310
FFFFC000FFC002000FF8000FFF80007FE000001FFFFFFFFE000001FFFFFFFFF8
310
000001FFFE0000007FFFFFF0001FFFFFF8000FFFFFFFF8000FF8000FFFFFFFF8
310
000FFF0003FFFFFFFFF000001FFFFFFFF000E00000FFFFFFFFFFC000FFC00200
310
0FFC000FFF80007FE00001FFFFFFFFFE00001FFFFFFFFFF8000001FFFE000000
310
7FFFFFF0001FFFFFFC000FFFFFFFF8001FFC000FFFFFFFF8001FFF0003FFFFFF
310
FFF00001FFFFFFFFF000E00007FFFFFFFFFF8000FFC000001FFC000FFF80007F
310
C0000FFFFFFFFFFE0000FFFFFFFFFFF8000001FFFE0000007FFFFFF0001FFFFF
310
FC0007FFFFFFF0001FFC0007FFFFFFF0001FFF0003FFFFFFFFF00007FFFFFFFF
310
F000E0001FFFFFFFFFFF8000FFC000001FFC000FFF80007FC0003FFFFFFFFFFE
310
0001FFFFFFFFFFF8000001FFFE0000007FFFFFF0001FFFFFFC0007FFFFFFF000
310
1FFC0007FFFFFFF0001FFF0003FFFFFFFFF0001FFFFFFFFFF000E0003FFFFF00
310
03FF8001FFE000001FFC0007FF80007FC0007FFFFF0007FC0003FFFFF0003FF8
310
000001FFFE0000007FFFFFF0001FFFFFFC0003FFFFFFE0001FFC0003FFFFFFE0
310
001FFF0003FFFFFFFFF0003FFFFFFFFFF000E0003FFFFF0001FF8001FFE00000
310
1FFE0007FF80007FC0007FFFFE0003FC0007FFFFE0003FF8000001FFFE000000
310
7FFFFFF0001FFFFFFE0003FFFFFFE0003FFE0003FFFFFFE0003FFF0003FFFFFF
310
FFF0003FFFFF8001F000E0003FFFFF0001FF0001FFE000001FFE0007FF80007F
310
C0007FFFFE0003FC0007FFFFE0003FF8000001FFFE0000007FFFFFF0001FFFFF
310
FE0001FFFFFFC0003FFE0001FFFFFFC0003FFF0003FFFFFFFFF0003FFFFF0001
310
F000E0003FFFFF0003FF0001FFE000003FFE0007FF80007FC0007FFFFE0003FC
310
0007FFFFE0003FF8000001FFFE0000007FFFFFF0001FFFFFFF0001FFFFFFC000
310
7FFF0001FFFFFFC0007FFF0003FFFFFFFFF0003FFFFF0001F000E0003FFFFE00
310
03FF0003FFF000003FFE0003FF80007FC0007FFFFC0003FE0007FFFFE0003FF8
310
000001FFFE0000007FFFFFF0001FFFFFFF0000FFFFFF80007FFF0000FFFFFF80
310
007FFF0003FFFFFFFFF0003FFFFF0001F000E0003FFFFE0003FF0003FFF00000
310
3FFF0003FF80007FC0007FFFFC0007FE0007FFFFC0003FF8000001FFFE000000
310
7FFFFFF0001FFFFFFF80007FFFFF0000FFFF80007FFFFF0000FFFF0003FFFFFF
310
FFF0003FFFFF0003F000E0003FFFFC0003FE0003FFF000003FFF0003FF80007F
310
E0003FFFF80007FE0003FFFFC0007FF8000001FFFE0000007FFFFFF0001FFFFF
310
FF80003FFFFE0000FFFF80003FFFFE0000FFFF0003FFFFFFFFF0001FFFFE0003
310
F000F0001FFFF80003FE0003FFF000007FFF0001FF80007FE0003FFFF00007FE
310
0001FFFF80007FF8000001FFFE0000007FFFFFF0001FFFFFFFC0000FFFF80001
310
FFFFC0000FFFF80001FFFF0003FFFFFFFFF0001FFFFC0003F000F0000FFFF000
310
07FE0007FFF800007FFF0001FF80007FE0001FFFE00007FF0000FFFE00007FF8
310
000001FFFE0000007FFFFFF0001FFFFFFFC00003FFE00001FFFFC00003FFE000
310
01FFFF0003FFFFFFFFF8000FFFF80003F000F00003FFC00007FC0007FFF80000
310
7FFF8001FF80007FF00007FF80000FFF00007FF80000FFF8000001FFFE000000
310
7F80000000000001FFE000003E000003FFFFE000003E000003FFFF0003FFFFFF
310
FFF80003FFE00007F000F800000000000FFC0007FFF800007FFF8001FF80007F
310
F000000000000FFF000000000000FFF8000001FFFE0000007F80000000000001
310
FFF0000000000007FFFFF0000000000007FFFF0003FFFFFFFFFC00007E000007
310
F000F800000000000FFC0007FFF80000FFFF8000FF80007FF800000000001FFF
310
800000000001FFF8000001FFFE0000007F80000000000001FFF800000000000F
310
FFFFF800000000000FFFFF0003FFFFFFFFFC00000000000FF000FC0000000000
310
1FFC0007FFFC0000FFFF8000FF80007FF800000000003FFFC00000000001FFF8
310
000001FFFE0000007F80000000000001FFF800000000000FFFFFF80000000000
310
0FFFFF0003FFFFFFFFFE00000000001FF000FE00000000003FF8000FFFFC0000
310
FFFF8000FF80007FFC00000000003FFFC00000000003FFF8000001FFFE000000
310
7F80000000000001FFFC00000000001FFFFFFC00000000001FFFFF0003FFFFFF
310
FFFF00000000001FF000FF00000000003FF8000FFFFC0000FFFFC000FF80007F
310
FE00000000007FFFE00000000007FFF8000001FFFE0000007F80000000000001
310
FFFE00000000003FFFFFFE00000000003FFFFF0003FFFFFFFFFF80000000003F
310
F000FF80000000007FF8000FFFFC0001FFFFC0007F80007FFF0000000000FFFF
310
F0000000000FFFF800000000000000007F80000000000001FFFF8000000000FF
310
FFFFFF8000000000FFFFFF0003FFFFFFFFFFC0000000007FF000FFC000000000
310
FFF8000FFFFE0001FFFFC0007F80007FFF8000000001FFFFF8000000001FFFF8
310
00000000000000007F80000000000001FFFFC000000001FFFFFFFFC000000001
310
FFFFFF0003FFFFFFFFFFE000000000FFF000FFE000000003FFF0001FFFFE0001
310
FFFFC0007F80007FFFC000000007FFFFFE000000003FFFF80000000000000000
310
7F80000000000001FFFFE000000003FFFFFFFFE000000003FFFFFF0003FFFFFF
310
FFFFF000000003FFF000FFF80000000FFFF0001FFFFE0001FFFFE0007F80007F
310
FFF00000000FFFFFFF00000000FFFFF800000000000000007F80000000000001
310
FFFFF80000000FFFFFFFFFF80000000FFFFFFF0003FFFFFFFFFFFC0000000FFF
310
F000FFFE0000003FFFF0001FFFFE0003FFFFE0003F80007FFFFC0000003FFFFF
310
FFC0000003FFFFF800000000000000007F80000000000001FFFFFE0000003FFF
310
FFFFFFFE0000003FFFFFFF0003FFFFFFFFFFFF0000003FFFF000FFFF800000FF
310
FFF0001FFFFF0003FFFFE0003F80007FFFFF000001FFFFFFFFF800001FFFFFF8
310
00000000000000007F80000000000001FFFFFFC00001FFFFFFFFFFFFC00001FF
310
FFFFFF0003FFFFFFFFFFFFC00000FFFFF000FFFFF8000FFFFFFFFFFFFFFFFFFF
310
FFFFFFFFFFFFFFFFFFFFF0001FFFFFFFFFFF0000FFFFFFF80000000000000000
310
7FFFFFFFFFFFFFFFFFFFFFFC001FFFFFFFFFFFFFFC001FFFFFFFFFFFFFFFFFFF
310
FFFFFFFC001FFFFFF000FFFFFFFFFFFFFFFFFFFFFFFFFFFFFFFFFFFFFFFFFFFF
310
FFFFFFFFFFFFFFFFFFFFFFFFFFFFFFFFFFFFFFFFFFFFFFFFFFFFFFFFFFFFFFFF
310
FFFFFFFFFFFFFFFFFFFFFFFFFFFFFFFFFFFFFFFFFFFFFFFFFFFFFFFFFFFFFFFF
310
F000FFFFFFFFFFFFFFFFFFFFFFFFFFFFFFFFFFFFFFFFFFFFFFFFFFFFFFFFFFFF
310
FFFFFFFFFFFFFFFFFFFFFFFFFFFFFFFFFFFFFFFFFFFFFFFFFFFFFFFFFFFFFFFF
310
FFFFFFFFFFFFFFFFFFFFFFFFFFFFFFFFFFFFFFFFFFFFFFFFF000FFFFFFFFFFFF
310
FFFFFFFFFFFFFFFFFFFFFFFFFFFFFFFFFFFFFFFFFFFFFFFFFFFFFFFFFFFFFFFF
310
FFFFFFFFFFFFFFFFFFFFFFFFFFFFFFFFFFFFFFFFFFFFFFFFFFFFFFFFFFFFFFFF
310
FFFFFFFFFFFFFFFFFFFFFFFFFFFFFFFFF000FFFFFFFFFFFFFFFFFFFFFFFFFFFF
310
FFFFFFFFFFFFFFFFFFFFFFFFFFFFFFFFFFFFFFFFFFFFFFFFFFFFFFFFFFFFFFFF
310
FFFFFFFFFFFFFFFFFFFFFFFFFFFFFFFFFFFFFFFFFFFFFFFFFFFFFFFFFFFFFFFF
310
FFFFFFFFFFFFFFFFF000FFFFFFFFFFFFFFFFFFFFFFFFFFFFFFFFFFFFFFFFFFFF
310
FFFFFFFFFFFFFFFFFFFFFFFFFFFFFFFFFFFFFFFFFFFFFFFFFFFFFFFFFFFFFFFF
310
FFFFFFFFFFFFFFFFFFFFFFFFFFFFFFFFFFFFFFFFFFFFFFFFFFFFFFFFFFFFFFFF
310
F000FFFFFFFFFFFFFFFFFFFFFFFFFFFFFFFFFFFFFFFFFFFFFFFFFFFFFFFFFFFF
310
FFFFFFFFFFFFFFFFFFFFFFFFFFFFFFFFFFFFFFFFFFFFFFFFFFFFFFFFFFFFFFFF
310
FFFFFFFFFFFFFFFFFFFFFFFFFFFFFFFFFFFFFFFFFFFFFFFFF000FFFFFFFFFFFF
310
FFFFFFFFFFFFFFFFFFFFFFFFFFFFFFFFFFFFFFFFFFFFFFFFFFFFFFFFFFFFFFFF
310
FFFFFFFFFFFFFFFFFFFFFFFFFFFFFFFFFFFFFFFFFFFFFFFFFFFFFFFFFFFFFFFF
310
FFFFFFFFFFFFFFFFFFFFFFFFFFFFFFFFF000FFFFFFFFFFFFFFFFFFFFFFFFFFFF
310
FFFFFFFFFFFFFFFFFFFFFFFFFFFFFFFFFFFFFFFFFFFFFFFFFFFFFFFFFFFFFFFF
310
FFFFFFFFFFFFFFFFFFFFFFFFFFFFFFFFFFFFFFFFFFFFFFFFFFFFFFFFFFFFFFFF
310
FFFFFFFFFFFFFFFFF000FFFFFFFFFFFFFFFFFFFFFFFFFFFFFFFFFFFFFFFFFFFF
310
FFFFFFFFFFFFFFFFFFFFFFFFFFFFFFFFFFFFFFFFFFFFFFFFFFFFFFFFFFFFFFFF
310
FFFFFFFFFFFFFFFFFFFFFFFFFFFFFFFFFFFFFFFFFFFFFFFFFFFFFFFFFFFFFFFF
310
F000FFFFFFFFFFFFFFFFFFFFFFFFFFFFFFFFFFFFFFFFFFFFFFFFFFFFFFFFFFFF
310
FFFFFFFFFFFFFFFFFFFFFFFFFFFFFFFFFFFFFFFFFFFFFFFFFFFFFFFFFFFFFFFF
310
FFFFFFFFFFFFFFFFFFFFFFFFFFFFFFFFFFFFFFFFFFFFFFFFF000FFFFFFFFFFFF
310
FFFFFFFFFFFFFFFFFFFFFFFFFFFFFFFFFFFFFFFFFFFFFFFFFFFFFFFFFFFFFFFF
310
FFFFFFFFFFFFFFFFFFFFFFFFFFFFFFFFFFFFFFFFFFFFFFFFFFFFFFFFFFFFFFFF
310
FFFFFFFFFFFFFFFFFFFFFFFFFFFFFFFFF000FFFFFFFFFFFFFFFFFFFFFFFFFFFF
310
FFFFFFFFFFFFFFFFFFFFFFFFFFFFFFFFFFFFFFFFFFFFFFFFFFFFFFFFFFFFFFFF
310
FFFFFFFFFFFFFFFFFFFFFFFFFFFFFFFFFFFFFFFFFFFFFFFFFFFFFFFFFFFFFFFF
310
FFFFFFFFFFFFFFFFF000FFFFFFFFFFFFFFFFFFFFFFFFFFFFFFFFFFFFFFFFFFFF
310
FFFFFFFFFFFFFFFFFFFFFFFFFFFFFFFFFFFFFFFFFFFFFFFFFFFFFFFFFFFFFFFF
310
FFFFFFFFFFFFFFFFFFFFFFFFFFFFFFFFFFFFFFFFFFFFFFFFFFFFFFFFFFFFFFFF
310
F000FFFFFFFFFFFFFFFFFFFFFFFFFFFFFFFFFFFFFFFFFFFFFFFFFFFFFFFFFFFF
310
FFFFFFFFFFFFFFFFFFFFFFFFFFFFFFFFFFFFFFFFFFFFFFFFFFFFFFFFFFFFFFFF
310
FFFFFFFFFFFFFFFFFFFFFFFFFFFFFFFFFFFFFFFFFFFFFFFFF000FFFFFFFFFFFF
310
FFFFFFFFFFFFFFFFFFFFFFFFFFFFFFFFFFFFFFFFFFFFFFFFFFFFFFFFFFFFFFFF
310
FFFFFFFFFFFFFFFFFFFFFFFFFFFFFFFFFFFFFFFFFFFFFFFFFFFFFFFFFFFFFFFF
310
FFFFFFFFFFFFFFFFFFFFFFFFFFFFFFFFF000FFFFFFFFFFFFFFFFFFFFFFFFFFFF
310
FFFFFFFFFFFFFFFFFFFFFFFFFFFFFFFFFFFFFFFFFFFFFFFFFFFFFFFFFFFFFFFF
310
FFFFFFFFFFFFFFFFFFFFFFFFFFFFFFFFFFFFFFFFFFFFFFFFFFFFFFFFFFFFFFFF
310
FFFFFFFFFFFFFFFFF000FFFFFFFFFFFFFFFFFFFFFFFFFFFFFFFFFFFFFFFFFFFF
310
FFFFFFFFFFFFFFFFFFFFFFFFFFFFFFFFFFFFFFFFFFFFFFFFFFFFFFFFFFFFFFFF
310
FFFFFFFFFFFFFFFFFFFFFFFFFFFFFFFFFFFFFFFFFFFFFFFFFFFFFFFFFFFFFFFF
310
F000FFFFFFFFFFFFFFFFFFFFFFFFFFFFFFFFFFFFFFFFFFFFFFFFFFFFFFFFFFFF
310
FFFFFFFFFFFFFFFFFFFFFFFFFFFFFFFFFFFFFFFFFFFFFFFFFFFFFFFFFFFFFFFF
310
FFFFFFFFFFFFFFFFFFFFFFFFFFFFFFFFFFFFFFFFFFFFFFFFF000FFFFFFFFFFFF
310
FFFFFFFFFFFFFFFFFFFFFFFFFFFFFFFFFFFFFFFFFFFFFFFFFFFFFFFFFFFFFFFF
310
FFFFFFFFFFFFFFFFFFFFFFFFFFFFFFFFFFFFFFFFFFFFFFFFFFFFFFFFFFFFFFFF
310
FFFFFFFFFFFFFFFFFFFFFFFFFFFFFFFFF000FFFFFFFFFFFFFFFFFFFFFFFFFFFF
310
FFFFFFFFFFFFFFFFFFFFFFFFFFFFFFFFFFFFFFFFFFFFFFFFFFFFFFFFFFFFFFFF
310
FFFFFFFFFFFFFFFFFFFFFFFFFFFFFFFFFFFFFFFFFFFFFFFFFFFFFFFFFFFFFFFF
310
FFFFFFFFFFFFFFFFF000FFFFFFFFFFFFFFFFFFFFFFFFFFFFFFFFFFFFFFFFFFFF
310
FFFFFFFFFFFFFFFFFFFFFFFFFFFFFFFFFFFFFFFFFFFFFFFFFFFFFFFFFFFFFFFF
310
FFFFFFFFFFFFFFFFFFFFFFFFFFFFFFFFFFFFFFFFFFFFFFFFFFFFFFFFFFFFFFFF
310
F000FFFFFFFFFFFFFFFFFFFFFFFFFFFFFFFFFFFFFFFFFFFFFFFFFFFFFFFFFFFF
310
FFFFFFFFFFFFFFFFFFFFFFFFFFFFFFFFFFFFFFFFFFFFFFFFFFFFFFFFFFFFFFFF
310
FFFFFFFFFFFFFFFFFFFFFFFFFFFFFFFFFFFFFFFFFFFFFFFFF000FFFFFFFFFFFF
310
FFFFFFFFFFFFFFFFFFFFFFFFFFFFFFFFFFFFFFFFFFFFFFFFFFFFFFFFFFFFFFFF
310
FFFFFFFFFFFFFFFFFFFFFFFFFFFFFFFFFFFFFFFFFFFFFFFFFFFFFFFFFFFFFFFF
310
FFFFFFFFFFFFFFFFFFFFFFFFFFFFFFFFF0000000000000000000000000000000
310
00000000000000000000000042006C00610063006B0000000000000000000000
310
0000000000000000000000000000000000000000000000000000000000000000
310
0000000000000000000000000000FFFFFFFFFFFFFFFFFFFFFFFFFFFFFFFFFFFF
310
FFFFFFFFFFFFFFFFFFFFFFFFFFFFFFFFFFFFFFFFFFFFFFFFFFFFFFFFFFFFFFFF
310
FFFFFFFFFFFFFFFFFFFFFFFF6476000800000000FFFFFFFF20FF202026000000
310
1E00000008000000060000000000000011000000200000008403000000000000
310
6000000060000000200002FB200020000000002B00FFFFFF40002200E8030000
310
A80400001C020000AF0000804A20004000000000000000000100000000000000
310
616C000800000000E40100007001000002000000270000001100000000000000
310
00000000BC0200000000000003020122420065006C006C00200047006F007400
310
680069006300200053007400640020004C006900670068007400000000000000
310
00000000000000000000000000000000420065006C006C0047006F0074006800
310
690063005300740064002D0042006F006C006400000000000000000000000000
310
0000000000000000000000000000000000000000000000000000000000000000
310
0000000000000000000000000000000000000000000000000000000000000000
  1
OLE
  0
ENDSEC
  0
SECTION
  2
OBJECTS
  0
DICTIONARY
  5
C
330
0
100
AcDbDictionary
281
     1
  3
ACAD_GROUP
350
D
  3
ACAD_LAYOUT
350
1A
  3
ACAD_MLEADERSTYLE
350
2EF
  3
ACAD_MLINESTYLE
350
17
  3
ACAD_PLOTSETTINGS
350
19
  3
ACAD_PLOTSTYLENAME
350
E
  3
ACAD_TABLESTYLE
350
2EE
  3
ACAD_VISUALSTYLE
350
2A
  3
AcDbVariableDictionary
350
2F0
  0
DICTIONARY
  5
D
102
{ACAD_REACTORS
330
C
102
}
330
C
100
AcDbDictionary
281
     1
  0
DICTIONARY
  5
1A
102
{ACAD_REACTORS
330
C
102
}
330
C
100
AcDbDictionary
281
     1
  3
Layout1
350
1E
  3
Layout2
350
26
  3
Model
350
22
  0
DICTIONARY
  5
2EF
102
{ACAD_REACTORS
330
C
102
}
330
C
100
AcDbDictionary
281
     1
  0
DICTIONARY
  5
17
102
{ACAD_REACTORS
330
C
102
}
330
C
100
AcDbDictionary
281
     1
  3
Standard
350
18
  0
DICTIONARY
  5
19
102
{ACAD_REACTORS
330
C
102
}
330
C
100
AcDbDictionary
281
     1
  0
ACDBDICTIONARYWDFLT
  5
E
102
{ACAD_REACTORS
330
C
102
}
330
C
100
AcDbDictionary
281
     1
  3
Normal
350
F
100
AcDbDictionaryWithDefault
340
F
  0
DICTIONARY
  5
2EE
102
{ACAD_REACTORS
330
C
102
}
330
C
100
AcDbDictionary
281
     1
  0
DICTIONARY
  5
2A
102
{ACAD_REACTORS
330
C
102
}
330
C
100
AcDbDictionary
281
     1
  3
2dWireframe
350
2F
  3
3D Hidden
350
31
  3
3dWireframe
350
30
  3
Basic
350
32
  3
Brighten
350
36
  3
ColorChange
350
3A
  3
Conceptual
350
34
  3
Dim
350
35
  3
Facepattern
350
39
  3
Flat
350
2B
  3
FlatWithEdges
350
2C
  3
Gouraud
350
2D
  3
GouraudWithEdges
350
2E
  3
Linepattern
350
38
  3
Realistic
350
33
  3
Thicken
350
37
  0
DICTIONARY
  5
2F0
102
{ACAD_REACTORS
330
C
102
}
330
C
100
AcDbDictionary
281
     1
  3
PSOLHEIGHT
350
2F2
  3
PSOLWIDTH
350
2F1
  0
LAYOUT
  5
1E
102
{ACAD_REACTORS
330
1A
102
}
330
1A
100
AcDbPlotSettings
  1

  2
none_device
  4

  6

 40
0.0
 41
0.0
 42
0.0
 43
0.0
 44
0.0
 45
0.0
 46
0.0
 47
0.0
 48
0.0
 49
0.0
140
0.0
141
0.0
142
1.0
143
1.0
 70
   688
 72
     0
 73
     0
 74
     5
  7

 75
    16
147
1.0
148
0.0
149
0.0
100
AcDbLayout
  1
Layout1
 70
     1
 71
     1
 10
0.0
 20
0.0
 11
420.0
 21
297.0
 12
0.0
 22
0.0
 32
0.0
 14
1.0000000000E+20
 24
1.0000000000E+20
 34
1.0000000000E+20
 15
-1.0000000000E+20
 25
-1.0000000000E+20
 35
-1.0000000000E+20
146
0.0
 13
0.0
 23
0.0
 33
0.0
 16
1.0
 26
0.0
 36
0.0
 17
0.0
 27
1.0
 37
0.0
 76
     0
330
1B
  0
LAYOUT
  5
26
102
{ACAD_REACTORS
330
1A
102
}
330
1A
100
AcDbPlotSettings
  1

  2
none_device
  4

  6

 40
0.0
 41
0.0
 42
0.0
 43
0.0
 44
0.0
 45
0.0
 46
0.0
 47
0.0
 48
0.0
 49
0.0
140
0.0
141
0.0
142
1.0
143
1.0
 70
   688
 72
     0
 73
     0
 74
     5
  7

 75
    16
147
1.0
148
0.0
149
0.0
100
AcDbLayout
  1
Layout2
 70
     1
 71
     2
 10
0.0
 20
0.0
 11
0.0
 21
0.0
 12
0.0
 22
0.0
 32
0.0
 14
0.0
 24
0.0
 34
0.0
 15
0.0
 25
0.0
 35
0.0
146
0.0
 13
0.0
 23
0.0
 33
0.0
 16
1.0
 26
0.0
 36
0.0
 17
0.0
 27
1.0
 37
0.0
 76
     0
330
23
  0
LAYOUT
  5
22
102
{ACAD_REACTORS
330
1A
102
}
330
1A
100
AcDbPlotSettings
  1

  2
none_device
  4

  6

 40
0.0
 41
0.0
 42
0.0
 43
0.0
 44
0.0
 45
0.0
 46
0.0
 47
0.0
 48
0.0
 49
0.0
140
0.0
141
0.0
142
1.0
143
1.0
 70
  1712
 72
     0
 73
     0
 74
     0
  7

 75
     0
147
1.0
148
0.0
149
0.0
100
AcDbLayout
  1
Model
 70
     1
 71
     0
 10
0.0
 20
0.0
 11
297.0
 21
210.0
 12
0.0
 22
0.0
 32
0.0
 14
0.0
 24
0.0
 34
0.0
 15
297.0
 25
210.0
 35
0.0
146
0.0
 13
0.0
 23
0.0
 33
0.0
 16
1.0
 26
0.0
 36
0.0
 17
0.0
 27
1.0
 37
0.0
 76
     0
330
1F
331
29
  0
MLINESTYLE
  5
18
102
{ACAD_REACTORS
330
17
102
}
330
17
100
AcDbMlineStyle
  2
Standard
 70
     0
  3

 62
   256
 51
90.0
 52
90.0
 71
     2
 49
0.5
 62
   256
  6
BYLAYER
 49
-0.5
 62
   256
  6
BYLAYER
  0
ACDBPLACEHOLDER
  5
F
102
{ACAD_REACTORS
330
E
102
}
330
E
  0
VISUALSTYLE
  5
2F
102
{ACAD_REACTORS
330
2A
102
}
330
2A
100
AcDbVisualStyle
  2
2dWireframe
 70
     4
 71
     0
 72
     2
 73
     0
 90
        0
 40
-0.6
 41
-30.0
 62
     5
 63
     7
 74
     1
 91
        4
 64
     7
 65
   257
 75
     1
175
     1
 42
1.0
 92
        0
 66
   257
 43
1.0
 76
     1
 77
     6
 78
     2
 67
     7
 79
     5
170
     0
171
     0
290
     0
174
     0
 93
        1
 44
0.0
173
     0
291
     0
 45
0.0
1001
ACAD
1000
AcDbSavedByObjectVersion
1070
     0
  0
VISUALSTYLE
  5
31
102
{ACAD_REACTORS
330
2A
102
}
330
2A
100
AcDbVisualStyle
  2
3D Hidden
 70
     6
 71
     1
 72
     2
 73
     2
 90
        0
 40
-0.6
 41
-30.0
 62
     5
 63
     7
 74
     2
 91
        2
 64
     7
 65
   257
 75
     2
175
     1
 42
40.0
 92
        0
 66
   257
 43
1.0
 76
     1
 77
     6
 78
     2
 67
     7
 79
     3
170
     0
171
     0
290
     0
174
     0
 93
        1
 44
0.0
173
     0
291
     0
 45
0.0
1001
ACAD
1000
AcDbSavedByObjectVersion
1070
     0
  0
VISUALSTYLE
  5
30
102
{ACAD_REACTORS
330
2A
102
}
330
2A
100
AcDbVisualStyle
  2
3dWireframe
 70
     5
 71
     0
 72
     2
 73
     0
 90
        0
 40
-0.6
 41
-30.0
 62
     5
 63
     7
 74
     1
 91
        4
 64
     7
 65
   257
 75
     1
175
     1
 42
1.0
 92
        0
 66
   257
 43
1.0
 76
     1
 77
     6
 78
     2
 67
     7
 79
     5
170
     0
171
     0
290
     0
174
     0
 93
        1
 44
0.0
173
     0
291
     0
 45
0.0
1001
ACAD
1000
AcDbSavedByObjectVersion
1070
     0
  0
VISUALSTYLE
  5
32
102
{ACAD_REACTORS
330
2A
102
}
330
2A
100
AcDbVisualStyle
  2
Basic
 70
     7
 71
     1
 72
     0
 73
     1
 90
        0
 40
-0.6
 41
-30.0
 62
     5
 63
     7
 74
     0
 91
        4
 64
     7
 65
   257
 75
     1
175
     1
 42
1.0
 92
        8
 66
     7
 43
1.0
 76
     1
 77
     6
 78
     2
 67
     7
 79
     5
170
     0
171
     0
290
     0
174
     0
 93
        1
 44
0.0
173
     0
291
     1
 45
0.0
1001
ACAD
1000
AcDbSavedByObjectVersion
1070
     0
  0
VISUALSTYLE
  5
36
102
{ACAD_REACTORS
330
2A
102
}
330
2A
100
AcDbVisualStyle
  2
Brighten
 70
    12
 71
     2
 72
     2
 73
     0
 90
        0
 40
-0.6
 41
-30.0
 62
     5
 63
     7
 74
     1
 91
        4
 64
     7
 65
   257
 75
     1
175
     1
 42
1.0
 92
        8
 66
     7
 43
1.0
 76
     1
 77
     6
 78
     2
 67
     7
 79
     5
170
     0
171
     0
290
     0
174
     0
 93
        1
 44
50.0
173
     0
291
     1
 45
0.0
1001
ACAD
1000
AcDbSavedByObjectVersion
1070
     0
  0
VISUALSTYLE
  5
3A
102
{ACAD_REACTORS
330
2A
102
}
330
2A
100
AcDbVisualStyle
  2
ColorChange
 70
    16
 71
     2
 72
     2
 73
     3
 90
        0
 40
-0.6
 41
-30.0
 62
     5
 63
     8
 74
     1
 91
        4
 64
     7
 65
   257
 75
     1
175
     1
 42
1.0
 92
        8
 66
     8
 43
1.0
 76
     1
 77
     6
 78
     2
 67
     7
 79
     5
170
     0
171
     0
290
     0
174
     0
 93
        1
 44
0.0
173
     0
291
     1
 45
0.0
1001
ACAD
1000
AcDbSavedByObjectVersion
1070
     0
  0
VISUALSTYLE
  5
34
102
{ACAD_REACTORS
330
2A
102
}
330
2A
100
AcDbVisualStyle
  2
Conceptual
 70
     9
 71
     3
 72
     2
 73
     0
 90
        0
 40
-0.6
 41
-30.0
 62
     5
 63
     7
 74
     2
 91
        2
 64
     7
 65
   257
 75
     1
175
     1
 42
40.0
 92
        8
 66
     7
 43
1.0
 76
     1
 77
     6
 78
     2
 67
     7
 79
     3
170
     0
171
     0
290
     0
174
     0
 93
        1
 44
0.0
173
     0
291
     0
 45
0.0
1001
ACAD
1000
AcDbSavedByObjectVersion
1070
     0
  0
VISUALSTYLE
  5
35
102
{ACAD_REACTORS
330
2A
102
}
330
2A
100
AcDbVisualStyle
  2
Dim
 70
    11
 71
     2
 72
     2
 73
     0
 90
        0
 40
-0.6
 41
-30.0
 62
     5
 63
     7
 74
     1
 91
        4
 64
     7
 65
   257
 75
     1
175
     1
 42
1.0
 92
        8
 66
     7
 43
1.0
 76
     1
 77
     6
 78
     2
 67
     7
 79
     5
170
     0
171
     0
290
     0
174
     0
 93
        1
 44
-50.0
173
     0
291
     1
 45
0.0
1001
ACAD
1000
AcDbSavedByObjectVersion
1070
     0
  0
VISUALSTYLE
  5
39
102
{ACAD_REACTORS
330
2A
102
}
330
2A
100
AcDbVisualStyle
  2
Facepattern
 70
    15
 71
     2
 72
     2
 73
     0
 90
        0
 40
-0.6
 41
-30.0
 62
     5
 63
     7
 74
     1
 91
        4
 64
     7
 65
   257
 75
     1
175
     1
 42
1.0
 92
        8
 66
     7
 43
1.0
 76
     1
 77
     6
 78
     2
 67
     7
 79
     5
170
     0
171
     0
290
     0
174
     0
 93
        1
 44
0.0
173
     0
291
     1
 45
0.0
1001
ACAD
1000
AcDbSavedByObjectVersion
1070
     0
  0
VISUALSTYLE
  5
2B
102
{ACAD_REACTORS
330
2A
102
}
330
2A
100
AcDbVisualStyle
  2
Flat
 70
     0
 71
     2
 72
     1
 73
     1
 90
        2
 40
-0.6
 41
30.0
 62
     5
 63
     7
 74
     0
 91
        4
 64
     7
 65
   257
 75
     1
175
     1
 42
1.0
 92
        8
 66
     7
 43
1.0
 76
     1
 77
     6
 78
     2
 67
     7
 79
     5
170
     0
171
     0
290
     0
174
     0
 93
       13
 44
0.0
173
     0
291
     1
 45
0.0
1001
ACAD
1000
AcDbSavedByObjectVersion
1070
     0
  0
VISUALSTYLE
  5
2C
102
{ACAD_REACTORS
330
2A
102
}
330
2A
100
AcDbVisualStyle
  2
FlatWithEdges
 70
     1
 71
     2
 72
     1
 73
     1
 90
        2
 40
-0.6
 41
30.0
 62
     5
 63
     7
 74
     1
 91
        4
 64
     7
 65
   257
 75
     1
175
     1
 42
1.0
 92
        0
 66
   257
 43
1.0
 76
     1
 77
     6
 78
     2
 67
     7
 79
     5
170
     0
171
     0
290
     0
174
     0
 93
       13
 44
0.0
173
     0
291
     1
 45
0.0
1001
ACAD
1000
AcDbSavedByObjectVersion
1070
     0
  0
VISUALSTYLE
  5
2D
102
{ACAD_REACTORS
330
2A
102
}
330
2A
100
AcDbVisualStyle
  2
Gouraud
 70
     2
 71
     2
 72
     2
 73
     1
 90
        2
 40
-0.6
 41
30.0
 62
     5
 63
     7
 74
     0
 91
        4
 64
     7
 65
   257
 75
     1
175
     1
 42
1.0
 92
        0
 66
     7
 43
1.0
 76
     1
 77
     6
 78
     2
 67
     7
 79
     5
170
     0
171
     0
290
     0
174
     0
 93
       13
 44
0.0
173
     0
291
     1
 45
0.0
1001
ACAD
1000
AcDbSavedByObjectVersion
1070
     0
  0
VISUALSTYLE
  5
2E
102
{ACAD_REACTORS
330
2A
102
}
330
2A
100
AcDbVisualStyle
  2
GouraudWithEdges
 70
     3
 71
     2
 72
     2
 73
     1
 90
        2
 40
-0.6
 41
30.0
 62
     5
 63
     7
 74
     1
 91
        4
 64
     7
 65
   257
 75
     1
175
     1
 42
1.0
 92
        0
 66
   257
 43
1.0
 76
     1
 77
     6
 78
     2
 67
     7
 79
     5
170
     0
171
     0
290
     0
174
     0
 93
       13
 44
0.0
173
     0
291
     1
 45
0.0
1001
ACAD
1000
AcDbSavedByObjectVersion
1070
     0
  0
VISUALSTYLE
  5
38
102
{ACAD_REACTORS
330
2A
102
}
330
2A
100
AcDbVisualStyle
  2
Linepattern
 70
    14
 71
     2
 72
     2
 73
     0
 90
        0
 40
-0.6
 41
-30.0
 62
     5
 63
     7
 74
     1
 91
        4
 64
     7
 65
   257
 75
     7
175
     7
 42
1.0
 92
        8
 66
     7
 43
1.0
 76
     1
 77
     6
 78
     2
 67
     7
 79
     5
170
     0
171
     0
290
     0
174
     0
 93
        1
 44
0.0
173
     0
291
     1
 45
0.0
1001
ACAD
1000
AcDbSavedByObjectVersion
1070
     0
  0
VISUALSTYLE
  5
33
102
{ACAD_REACTORS
330
2A
102
}
330
2A
100
AcDbVisualStyle
  2
Realistic
 70
     8
 71
     2
 72
     2
 73
     0
 90
        0
 40
-0.6
 41
-30.0
 62
     5
 63
     7
 74
     1
 91
        0
 64
     7
 65
   257
 75
     1
175
     1
 42
1.0
 92
        8
 66
     8
 43
1.0
 76
     1
 77
     6
 78
     2
 67
     7
 79
     5
170
     0
171
     0
290
     0
174
     0
 93
       13
 44
0.0
173
     0
291
     0
 45
0.0
1001
ACAD
1000
AcDbSavedByObjectVersion
1070
     0
  0
VISUALSTYLE
  5
37
102
{ACAD_REACTORS
330
2A
102
}
330
2A
100
AcDbVisualStyle
  2
Thicken
 70
    13
 71
     2
 72
     2
 73
     0
 90
        0
 40
-0.6
 41
-30.0
 62
     5
 63
     7
 74
     1
 91
        4
 64
     7
 65
   257
 75
     1
175
     1
 42
1.0
 92
       12
 66
     7
 43
1.0
 76
     1
 77
     6
 78
     2
 67
     7
 79
     5
170
     0
171
     0
290
     0
174
     0
 93
        1
 44
0.0
173
     0
291
     1
 45
0.0
1001
ACAD
1000
AcDbSavedByObjectVersion
1070
     0
  0
DICTIONARYVAR
  5
2F2
102
{ACAD_REACTORS
330
2F0
102
}
330
2F0
100
DictionaryVariables
280
     0
  1
80.000000
  0
DICTIONARYVAR
  5
2F1
102
{ACAD_REACTORS
330
2F0
102
}
330
2F0
100
DictionaryVariables
280
     0
  1
5.000000
  0
ENDSEC
  0
EOF
