  0
SECTION
  2
HEADER
  9
$ACADVER
  1
AC1015
  9
$ACADMAINTVER
 70
     6
  9
$DWGCODEPAGE
  3
ANSI_1252
  9
$INSBASE
 10
0.0
 20
0.0
 30
0.0
  9
$EXTMIN
 10
0.0
 20
0.0
 30
0.0
  9
$EXTMAX
 10
297.0
 20
210.0
 30
0.0
  9
$LIMMIN
 10
0.0
 20
0.0
  9
$LIMMAX
 10
297.0
 20
210.0
  9
$ORTHOMODE
 70
     0
  9
$REGENMODE
 70
     1
  9
$FILLMODE
 70
     1
  9
$QTEXTMODE
 70
     0
  9
$MIRRTEXT
 70
     1
  9
$LTSCALE
 40
1.0
  9
$ATTMODE
 70
     1
  9
$TEXTSIZE
 40
2.0
  9
$TRACEWID
 40
1.0
  9
$TEXTSTYLE
  7
Standard
  9
$CLAYER
  8
0
  9
$CELTYPE
  6
ByLayer
  9
$CECOLOR
 62
   256
  9
$CELTSCALE
 40
1.0
  9
$DISPSILH
 70
     0
  9
$DIMSCALE
 40
1.0
  9
$DIMASZ
 40
3.0
  9
$DIMEXO
 40
0.0
  9
$DIMDLI
 40
3.75
  9
$DIMRND
 40
0.0
  9
$DIMDLE
 40
0.0
  9
$DIMEXE
 40
1.0
  9
$DIMTP
 40
0.0
  9
$DIMTM
 40
0.0
  9
$DIMTXT
 40
2.0
  9
$DIMCEN
 40
2.5
  9
$DIMTSZ
 40
0.0
  9
$DIMTOL
 70
     0
  9
$DIMLIM
 70
     0
  9
$DIMTIH
 70
     1
  9
$DIMTOH
 70
     1
  9
$DIMSE1
 70
     0
  9
$DIMSE2
 70
     0
  9
$DIMTAD
 70
     1
  9
$DIMZIN
 70
     0
  9
$DIMBLK
  1

  9
$DIMASO
 70
     1
  9
$DIMSHO
 70
     1
  9
$DIMPOST
  1

  9
$DIMAPOST
  1

  9
$DIMALT
 70
     0
  9
$DIMALTD
 70
     3
  9
$DIMALTF
 40
0.0393700787
  9
$DIMLFAC
 40
1.0
  9
$DIMTOFL
 70
     1
  9
$DIMTVP
 40
0.0
  9
$DIMTIX
 70
     0
  9
$DIMSOXD
 70
     0
  9
$DIMSAH
 70
     0
  9
$DIMBLK1
  1

  9
$DIMBLK2
  1

  9
$DIMSTYLE
  2
ISO-25
  9
$DIMCLRD
 70
     0
  9
$DIMCLRE
 70
     0
  9
$DIMCLRT
 70
     0
  9
$DIMTFAC
 40
1.0
  9
$DIMGAP
 40
1.524
  9
$DIMJUST
 70
     0
  9
$DIMSD1
 70
     0
  9
$DIMSD2
 70
     0
  9
$DIMTOLJ
 70
     0
  9
$DIMTZIN
 70
     0
  9
$DIMALTZ
 70
     0
  9
$DIMALTTZ
 70
     0
  9
$DIMUPT
 70
     0
  9
$DIMDEC
 70
     2
  9
$DIMTDEC
 70
     3
  9
$DIMALTU
 70
     2
  9
$DIMALTTD
 70
     3
  9
$DIMTXSTY
  7
Standard
  9
$DIMAUNIT
 70
     0
  9
$DIMADEC
 70
     2
  9
$DIMALTRND
 40
0.0
  9
$DIMAZIN
 70
     0
  9
$DIMDSEP
 70
    44
  9
$DIMATFIT
 70
     3
  9
$DIMFRAC
 70
     0
  9
$DIMLDRBLK
  1

  9
$DIMLUNIT
 70
     2
  9
$DIMLWD
 70
    -2
  9
$DIMLWE
 70
    -2
  9
$DIMTMOVE
 70
     0
  9
$LUNITS
 70
     2
  9
$LUPREC
 70
     2
  9
$SKETCHINC
 40
1.0
  9
$FILLETRAD
 40
10.0
  9
$AUNITS
 70
     0
  9
$AUPREC
 70
     2
  9
$MENU
  1
.
  9
$ELEVATION
 40
0.0
  9
$PELEVATION
 40
0.0
  9
$THICKNESS
 40
0.0
  9
$LIMCHECK
 70
     0
  9
$CHAMFERA
 40
10.0
  9
$CHAMFERB
 40
10.0
  9
$CHAMFERC
 40
20.0
  9
$CHAMFERD
 40
0.0
  9
$SKPOLY
 70
     0
  9
$TDCREATE
 40
2455608.610535174
  9
$TDUCREATE
 40
2455608.568868507
  9
$TDUPDATE
 40
2455608.610535185
  9
$TDUUPDATE
 40
2455608.568868518
  9
$TDINDWG
 40
0.0000000116
  9
$TDUSRTIMER
 40
0.0000000116
  9
$USRTIMER
 70
     1
  9
$ANGBASE
 50
0.0
  9
$ANGDIR
 70
     0
  9
$PDMODE
 70
     0
  9
$PDSIZE
 40
-1.0
  9
$PLINEWID
 40
0.0
  9
$SPLFRAME
 70
     0
  9
$SPLINETYPE
 70
     6
  9
$SPLINESEGS
 70
     8
  9
$HANDSEED
  5
239
  9
$SURFTAB1
 70
     6
  9
$SURFTAB2
 70
     6
  9
$SURFTYPE
 70
     6
  9
$SURFU
 70
     6
  9
$SURFV
 70
     6
  9
$UCSBASE
  2

  9
$UCSNAME
  2

  9
$UCSORG
 10
0.0
 20
0.0
 30
0.0
  9
$UCSXDIR
 10
1.0
 20
0.0
 30
0.0
  9
$UCSYDIR
 10
0.0
 20
1.0
 30
0.0
  9
$UCSORTHOREF
  2

  9
$UCSORTHOVIEW
 70
     0
  9
$UCSORGTOP
 10
0.0
 20
0.0
 30
0.0
  9
$UCSORGBOTTOM
 10
0.0
 20
0.0
 30
0.0
  9
$UCSORGLEFT
 10
0.0
 20
0.0
 30
0.0
  9
$UCSORGRIGHT
 10
0.0
 20
0.0
 30
0.0
  9
$UCSORGFRONT
 10
0.0
 20
0.0
 30
0.0
  9
$UCSORGBACK
 10
0.0
 20
0.0
 30
0.0
  9
$PUCSBASE
  2

  9
$PUCSNAME
  2

  9
$PUCSORG
 10
0.0
 20
0.0
 30
0.0
  9
$PUCSXDIR
 10
1.0
 20
0.0
 30
0.0
  9
$PUCSYDIR
 10
0.0
 20
1.0
 30
0.0
  9
$PUCSORTHOREF
  2

  9
$PUCSORTHOVIEW
 70
     0
  9
$PUCSORGTOP
 10
0.0
 20
0.0
 30
0.0
  9
$PUCSORGBOTTOM
 10
0.0
 20
0.0
 30
0.0
  9
$PUCSORGLEFT
 10
0.0
 20
0.0
 30
0.0
  9
$PUCSORGRIGHT
 10
0.0
 20
0.0
 30
0.0
  9
$PUCSORGFRONT
 10
0.0
 20
0.0
 30
0.0
  9
$PUCSORGBACK
 10
0.0
 20
0.0
 30
0.0
  9
$USERI1
 70
     0
  9
$USERI2
 70
     0
  9
$USERI3
 70
     0
  9
$USERI4
 70
     0
  9
$USERI5
 70
     0
  9
$USERR1
 40
0.0
  9
$USERR2
 40
0.0
  9
$USERR3
 40
0.0
  9
$USERR4
 40
0.0
  9
$USERR5
 40
0.0
  9
$WORLDVIEW
 70
     1
  9
$SHADEDGE
 70
     3
  9
$SHADEDIF
 70
    70
  9
$TILEMODE
 70
     1
  9
$MAXACTVP
 70
    64
  9
$PINSBASE
 10
0.0
 20
0.0
 30
0.0
  9
$PLIMCHECK
 70
     0
  9
$PEXTMIN
 10
1.0000000000E+20
 20
1.0000000000E+20
 30
1.0000000000E+20
  9
$PEXTMAX
 10
-1.0000000000E+20
 20
-1.0000000000E+20
 30
-1.0000000000E+20
  9
$PLIMMIN
 10
0.0
 20
0.0
  9
$PLIMMAX
 10
420.0
 20
297.0
  9
$UNITMODE
 70
     0
  9
$VISRETAIN
 70
     1
  9
$PLINEGEN
 70
     0
  9
$PSLTSCALE
 70
     1
  9
$TREEDEPTH
 70
  3020
  9
$CMLSTYLE
  2
Standard
  9
$CMLJUST
 70
     0
  9
$CMLSCALE
 40
20.0
  9
$PROXYGRAPHICS
 70
     1
  9
$MEASUREMENT
 70
     1
  9
$CELWEIGHT
370
    -1
  9
$ENDCAPS
280
     0
  9
$JOINSTYLE
280
     0
  9
$LWDISPLAY
290
     1
  9
$INSUNITS
 70
     4
  9
$HYPERLINKBASE
  1

  9
$STYLESHEET
  1

  9
$XEDIT
290
     1
  9
$CEPSNTYPE
380
     0
  9
$PSTYLEMODE
290
     1
  9
$FINGERPRINTGUID
  2
{9BC7EB3A-0966-476F-B9BB-32E80A81229B}
  9
$VERSIONGUID
  2
{FAEB1C32-E019-11D5-929B-00C0DF256EC4}
  9
$EXTNAMES
290
     1
  9
$PSVPSCALE
 40
0.0
  9
$OLESTARTUP
290
     0
  0
ENDSEC
  0
SECTION
  2
CLASSES
  0
CLASS
  1
ACDBDICTIONARYWDFLT
  2
AcDbDictionaryWithDefault
  3
ObjectDBX Classes
 90
        0
280
     0
281
     0
  0
CLASS
  1
VISUALSTYLE
  2
AcDbVisualStyle
  3
ObjectDBX Classes
 90
     4095
280
     0
281
     0
  0
CLASS
  1
DICTIONARYVAR
  2
AcDbDictionaryVar
  3
ObjectDBX Classes
 90
        0
280
     0
281
     0
  0
CLASS
  1
ACDBPLACEHOLDER
  2
AcDbPlaceHolder
  3
ObjectDBX Classes
 90
        0
280
     0
281
     0
  0
CLASS
  1
LAYOUT
  2
AcDbLayout
  3
ObjectDBX Classes
 90
        0
280
     0
281
     0
  0
ENDSEC
  0
SECTION
  2
TABLES
  0
TABLE
  2
VPORT
  5
8
330
0
100
AcDbSymbolTable
 70
     1
  0
VPORT
  5
29
330
8
100
AcDbSymbolTableRecord
100
AcDbViewportTableRecord
  2
*Active
 70
     0
 10
0.0
 20
0.0
 11
1.0
 21
1.0
 12
148.5
 22
105.0
 13
0.0
 23
0.0
 14
10.0
 24
10.0
 15
10.0
 25
10.0
 16
0.0
 26
0.0
 36
1.0
 17
0.0
 27
0.0
 37
0.0
 40
210.0
 41
1.4142857143
 42
50.0
 43
0.0
 44
0.0
 50
0.0
 51
0.0
 71
     0
 72
  2000
 73
     1
 74
     3
 75
     0
 76
     0
 77
     0
 78
     0
281
     0
 65
     1
110
0.0
120
0.0
130
0.0
111
1.0
121
0.0
131
0.0
112
0.0
122
1.0
132
0.0
 79
     0
146
0.0
  0
ENDTAB
  0
TABLE
  2
LTYPE
  5
5
330
0
100
AcDbSymbolTable
 70
     6
  0
LTYPE
  5
14
330
5
100
AcDbSymbolTableRecord
100
AcDbLinetypeTableRecord
  2
ByBlock
 70
     0
  3

 72
    65
 73
     0
 40
0.0
  0
LTYPE
  5
15
330
5
100
AcDbSymbolTableRecord
100
AcDbLinetypeTableRecord
  2
ByLayer
 70
     0
  3

 72
    65
 73
     0
 40
0.0
  0
LTYPE
  5
16
330
5
100
AcDbSymbolTableRecord
100
AcDbLinetypeTableRecord
  2
Continuous
 70
     0
  3
Solid line
 72
    65
 73
     0
 40
0.0
  0
LTYPE
  5
3B
330
5
100
AcDbSymbolTableRecord
100
AcDbLinetypeTableRecord
  2
HIDDEN
 70
     0
  3
Hidden __ __ __ __ __ __ __ __ __ __ __ __ __ __
 72
    65
 73
     2
 40
1.905
 49
1.27
 74
     0
 49
-0.635
 74
     0
  0
LTYPE
  5
3C
330
5
100
AcDbSymbolTableRecord
100
AcDbLinetypeTableRecord
  2
PHANTOM
 70
     0
  3
Phantom ______  __  __  ______  __  __  ______
 72
    65
 73
     6
 40
12.7
 49
6.35
 74
     0
 49
-1.27
 74
     0
 49
1.27
 74
     0
 49
-1.27
 74
     0
 49
1.27
 74
     0
 49
-1.27
 74
     0
  0
LTYPE
  5
3D
330
5
100
AcDbSymbolTableRecord
100
AcDbLinetypeTableRecord
  2
CENTER
 70
     0
  3
Center ____ _ ____ _ ____ _ ____ _ ____ _ ____
 72
    65
 73
     4
 40
10.16
 49
6.35
 74
     0
 49
-1.27
 74
     0
 49
1.27
 74
     0
 49
-1.27
 74
     0
  0
LTYPE
  5
3E
330
5
100
AcDbSymbolTableRecord
100
AcDbLinetypeTableRecord
  2
CENTERX2
 70
     0
  3
Center (2x) ________  __  ________  __  _____
 72
    65
 73
     4
 40
20.32
 49
12.7
 74
     0
 49
-2.54
 74
     0
 49
2.54
 74
     0
 49
-2.54
 74
     0
  0
LTYPE
  5
3F
330
5
100
AcDbSymbolTableRecord
100
AcDbLinetypeTableRecord
  2
DOT2
 70
     0
  3
Dot (.5x) ........................................
 72
    65
 73
     2
 40
0.635
 49
0.0
 74
     0
 49
-0.635
 74
     0
  0
ENDTAB
  0
TABLE
  2
LAYER
  5
2
330
0
100
AcDbSymbolTable
 70
     5
  0
LAYER
  5
10
330
2
100
AcDbSymbolTableRecord
100
AcDbLayerTableRecord
  2
0
 70
     0
 62
     7
  6
Continuous
370
    -3
390
F
  0
LAYER
  5
40
330
2
100
AcDbSymbolTableRecord
100
AcDbLayerTableRecord
  2
FORMAT
 70
     0
 62
     7
  6
Continuous
370
    -3
390
F
  0
LAYER
  5
41
330
2
100
AcDbSymbolTableRecord
100
AcDbLayerTableRecord
  2
VERMASSUNG
 70
     0
 62
     7
  6
Continuous
370
    -3
390
F
  0
LAYER
  5
42
330
2
100
AcDbSymbolTableRecord
100
AcDbLayerTableRecord
  2
KOPF_DÜNN
 70
     0
 62
     7
  6
Continuous
370
    -3
390
F
  0
LAYER
  5
43
330
2
100
AcDbSymbolTableRecord
100
AcDbLayerTableRecord
  2
KOPF_DICK
 70
     0
 62
     7
  6
Continuous
370
    15
390
F
  0
ENDTAB
  0
TABLE
  2
STYLE
  5
3
330
0
100
AcDbSymbolTable
 70
     3
  0
STYLE
  5
11
330
3
100
AcDbSymbolTableRecord
100
AcDbTextStyleTableRecord
  2
Standard
 70
     0
 40
0.0
 41
1.0
 50
0.0
 71
     0
 42
2.5
  3
txt
  4

  0
STYLE
  5
44
330
3
100
AcDbSymbolTableRecord
100
AcDbTextStyleTableRecord
  2
SLDTEXTSTYLE0
 70
     0
 40
0.0
 41
0.7
 50
0.0
 71
     0
 42
0.2
  3
TXT
  4

  0
STYLE
  5
48
330
3
100
AcDbSymbolTableRecord
100
AcDbTextStyleTableRecord
  2
SLDTEXTSTYLE1
 70
     0
 40
0.0
 41
0.6526315789
 50
0.0
 71
     0
 42
0.2
  3
TXT
  4

  0
ENDTAB
  0
TABLE
  2
VIEW
  5
6
330
0
100
AcDbSymbolTable
 70
     0
  0
ENDTAB
  0
TABLE
  2
UCS
  5
7
330
0
100
AcDbSymbolTable
 70
     0
  0
ENDTAB
  0
TABLE
  2
APPID
  5
9
330
0
100
AcDbSymbolTable
 70
     1
  0
APPID
  5
12
330
9
100
AcDbSymbolTableRecord
100
AcDbRegAppTableRecord
  2
ACAD
 70
     0
  0
ENDTAB
  0
TABLE
  2
DIMSTYLE
  5
A
330
0
100
AcDbSymbolTable
 70
     4
100
AcDbDimStyleTable
  0
DIMSTYLE
105
27
330
A
100
AcDbSymbolTableRecord
100
AcDbDimStyleTableRecord
  2
ISO-25
 70
     0
 41
2.5
 42
0.625
 43
3.75
 44
1.25
 73
     0
 74
     0
 77
     1
 78
     8
140
2.5
141
2.5
143
0.0393700787
147
0.625
171
     3
172
     1
271
     2
272
     2
274
     3
278
    44
283
     0
284
     8
340
11
  0
DIMSTYLE
105
1B1
102
{ACAD_REACTORS
330
1B0
330
1BD
330
1C7
330
1D1
102
}
330
A
100
AcDbSymbolTableRecord
100
AcDbDimStyleTableRecord
  2
SLDDIMSTYLE0
 70
     0
 41
3.0
 44
0.0
 45
0.000000001
 73
     0
 74
     0
 77
     1
 78
    12
140
2.0
147
0.5
173
     1
271
     2
272
     3
284
    12
340
44
  0
DIMSTYLE
105
1DC
102
{ACAD_REACTORS
330
1DB
102
}
330
A
100
AcDbSymbolTableRecord
100
AcDbDimStyleTableRecord
  2
SLDDIMSTYLE1
 70
     0
 41
3.0
 44
0.0
 73
     0
 74
     0
 77
     1
 78
    12
140
2.0
147
0.5
173
     1
179
     2
272
     3
284
    12
340
44
  0
DIMSTYLE
105
21C
102
{ACAD_REACTORS
330
21B
102
}
330
A
100
AcDbSymbolTableRecord
100
AcDbDimStyleTableRecord
  2
SLDDIMSTYLE2
 70
     0
 41
3.0
 44
0.0
 45
0.000000001
 73
     0
 74
     0
 77
     1
 78
    12
140
2.0
147
0.5
173
     1
271
     2
272
     3
284
    12
340
44
  0
ENDTAB
  0
TABLE
  2
BLOCK_RECORD
  5
1
330
0
100
AcDbSymbolTable
 70
     8
  0
BLOCK_RECORD
  5
1F
330
1
100
AcDbSymbolTableRecord
100
AcDbBlockTableRecord
  2
*Model_Space
340
22
  0
BLOCK_RECORD
  5
1B
330
1
100
AcDbSymbolTableRecord
100
AcDbBlockTableRecord
  2
*Paper_Space
340
1E
  0
BLOCK_RECORD
  5
23
330
1
100
AcDbSymbolTableRecord
100
AcDbBlockTableRecord
  2
*Paper_Space0
340
26
  0
BLOCK_RECORD
  5
1B2
330
1
100
AcDbSymbolTableRecord
100
AcDbBlockTableRecord
  2
*D1
340
0
  0
BLOCK_RECORD
  5
1BE
330
1
100
AcDbSymbolTableRecord
100
AcDbBlockTableRecord
  2
*D2
340
0
  0
BLOCK_RECORD
  5
1C8
330
1
100
AcDbSymbolTableRecord
100
AcDbBlockTableRecord
  2
*D3
340
0
  0
BLOCK_RECORD
  5
1D2
330
1
100
AcDbSymbolTableRecord
100
AcDbBlockTableRecord
  2
*D4
340
0
  0
BLOCK_RECORD
  5
1DD
330
1
100
AcDbSymbolTableRecord
100
AcDbBlockTableRecord
  2
*D5
340
0
  0
BLOCK_RECORD
  5
21D
330
1
100
AcDbSymbolTableRecord
100
AcDbBlockTableRecord
  2
*D6
340
0
  0
BLOCK_RECORD
  5
227
330
1
100
AcDbSymbolTableRecord
100
AcDbBlockTableRecord
  2
SW_CENTERMARKSYMBOL_0
340
0
102
{BLKREFS
331
232
102
}
  0
ENDTAB
  0
ENDSEC
  0
SECTION
  2
BLOCKS
  0
BLOCK
  5
20
330
1F
100
AcDbEntity
  8
0
100
AcDbBlockBegin
  2
*Model_Space
 70
     0
 10
0.0
 20
0.0
 30
0.0
  3
*Model_Space
  1

  0
ENDBLK
  5
21
330
1F
100
AcDbEntity
  8
0
100
AcDbBlockEnd
  0
BLOCK
  5
1C
330
1B
100
AcDbEntity
 67
     1
  8
0
100
AcDbBlockBegin
  2
*Paper_Space
 70
     0
 10
0.0
 20
0.0
 30
0.0
  3
*Paper_Space
  1

  0
ENDBLK
  5
1D
330
1B
100
AcDbEntity
 67
     1
  8
0
100
AcDbBlockEnd
  0
BLOCK
  5
24
330
23
100
AcDbEntity
  8
0
100
AcDbBlockBegin
  2
*Paper_Space0
 70
     0
 10
0.0
 20
0.0
 30
0.0
  3
*Paper_Space0
  1

  0
ENDBLK
  5
25
330
23
100
AcDbEntity
  8
0
100
AcDbBlockEnd
  0
BLOCK
  5
1B3
330
1B2
100
AcDbEntity
  8
0
100
AcDbBlockBegin
  2
*D1
 70
     1
 10
0.0
 20
0.0
 30
0.0
  3
*D1
  1

  0
SOLID
  5
1B5
330
1B2
100
AcDbEntity
  8
VERMASSUNG
100
AcDbTrace
 10
156.3208985316
 20
134.0893373912
 30
0.0
 11
155.8708985316
 21
131.0893373912
 31
0.0
 12
156.7708985316
 22
131.0893373912
 32
0.0
 13
156.7708985316
 23
131.0893373912
 33
0.0
  0
SOLID
  5
1B6
330
1B2
100
AcDbEntity
  8
VERMASSUNG
100
AcDbTrace
 10
156.3208985316
 20
71.0893373912
 30
0.0
 11
156.7708985316
 21
74.0893373912
 31
0.0
 12
155.8708985316
 22
74.0893373912
 32
0.0
 13
155.8708985316
 23
74.0893373912
 33
0.0
  0
LINE
  5
1B7
330
1B2
100
AcDbEntity
  8
VERMASSUNG
100
AcDbLine
 10
194.1796574948
 20
134.0893373912
 30
0.0
 11
155.3208985316
 21
134.0893373912
 31
0.0
  0
LINE
  5
1B8
330
1B2
100
AcDbEntity
  8
VERMASSUNG
100
AcDbLine
 10
194.1796574948
 20
71.0893373912
 30
0.0
 11
155.3208985316
 21
71.0893373912
 31
0.0
  0
LINE
  5
1B9
330
1B2
100
AcDbEntity
  8
VERMASSUNG
100
AcDbLine
 10
156.3208985316
 20
134.0893373912
 30
0.0
 11
156.3208985316
 21
71.0893373912
 31
0.0
  0
MTEXT
  5
1BA
330
1B2
100
AcDbEntity
  8
VERMASSUNG
100
AcDbMText
 10
153.5427630426
 20
96.3848225165
 30
0.0
 40
2.0
 41
0.0
 71
     1
 72
     1
  1
HSK 
  7
SLDTEXTSTYLE0
 11
-7.044195017643634E-15
 21
1.0
 31
0.0
 73
     1
 44
1.0
  0
MTEXT
  5
1BB
330
1B2
100
AcDbEntity
  8
VERMASSUNG
100
AcDbMText
 10
153.7427630521
 20
102.3848225686
 30
0.0
 40
2.0
 41
0.0
 71
     1
 72
     1
  1
%%c
  7
SLDTEXTSTYLE0
 11
-7.044195017643634E-15
 21
1.0
 31
0.0
 73
     1
 44
1.0
  0
MTEXT
  5
1BC
330
1B2
100
AcDbEntity
  8
VERMASSUNG
100
AcDbMText
 10
153.7427631685
 20
105.994657278
 30
0.0
 40
2.0
 41
0.0
 71
     1
 72
     1
  1
63
  7
SLDTEXTSTYLE0
 11
-7.044195017643634E-15
 21
1.0
 31
0.0
 73
     1
 44
1.0
  0
ENDBLK
  5
1B4
330
1B2
100
AcDbEntity
  8
0
100
AcDbBlockEnd
  0
BLOCK
  5
1BF
330
1BE
100
AcDbEntity
  8
0
100
AcDbBlockBegin
  2
*D2
 70
     1
 10
0.0
 20
0.0
 30
0.0
  3
*D2
  1

  0
SOLID
  5
1C1
330
1BE
100
AcDbEntity
  8
VERMASSUNG
100
AcDbTrace
 10
263.8796574948
 20
162.4004555648
 30
0.0
 11
260.8796574948
 21
162.8504555648
 31
0.0
 12
260.8796574948
 22
161.9504555648
 32
0.0
 13
260.8796574948
 23
161.9504555648
 33
0.0
  0
SOLID
  5
1C2
330
1BE
100
AcDbEntity
  8
VERMASSUNG
100
AcDbTrace
 10
161.9796574948
 20
162.4004555648
 30
0.0
 11
164.9796574948
 21
161.9504555648
 31
0.0
 12
164.9796574948
 22
162.8504555648
 32
0.0
 13
164.9796574948
 23
162.8504555648
 33
0.0
  0
LINE
  5
1C3
330
1BE
100
AcDbEntity
  8
VERMASSUNG
100
AcDbLine
 10
263.8796574948
 20
147.5893373912
 30
0.0
 11
263.8796574948
 21
163.4004555648
 31
0.0
  0
LINE
  5
1C4
330
1BE
100
AcDbEntity
  8
VERMASSUNG
100
AcDbLine
 10
161.9796574948
 20
122.2800151376
 30
0.0
 11
161.9796574948
 21
163.4004555648
 31
0.0
  0
LINE
  5
1C5
330
1BE
100
AcDbEntity
  8
VERMASSUNG
100
AcDbLine
 10
263.8796574948
 20
162.4004555648
 30
0.0
 11
161.9796574948
 21
162.4004555648
 31
0.0
  0
MTEXT
  5
1C6
330
1BE
100
AcDbEntity
  8
VERMASSUNG
100
AcDbMText
 10
210.230871076
 20
164.978590928
 30
0.0
 40
2.0
 41
0.0
 71
     1
 72
     1
  1
101.9
  7
SLDTEXTSTYLE0
 73
     1
 44
1.0
  0
ENDBLK
  5
1C0
330
1BE
100
AcDbEntity
  8
0
100
AcDbBlockEnd
  0
BLOCK
  5
1C9
330
1C8
100
AcDbEntity
  8
0
100
AcDbBlockBegin
  2
*D3
 70
     1
 10
0.0
 20
0.0
 30
0.0
  3
*D3
  1

  0
SOLID
  5
1CB
330
1C8
100
AcDbEntity
  8
VERMASSUNG
100
AcDbTrace
 10
193.8796574948
 20
156.4004555648
 30
0.0
 11
196.8796574948
 21
155.9504555648
 31
0.0
 12
196.8796574948
 22
156.8504555648
 32
0.0
 13
196.8796574948
 23
156.8504555648
 33
0.0
  0
SOLID
  5
1CC
330
1C8
100
AcDbEntity
  8
VERMASSUNG
100
AcDbTrace
 10
263.8796574948
 20
156.4004555648
 30
0.0
 11
260.8796574948
 21
156.8504555648
 31
0.0
 12
260.8796574948
 22
155.9504555648
 32
0.0
 13
260.8796574948
 23
155.9504555648
 33
0.0
  0
LINE
  5
1CD
330
1C8
100
AcDbEntity
  8
VERMASSUNG
100
AcDbLine
 10
193.8796574948
 20
133.7893373912
 30
0.0
 11
193.8796574948
 21
157.4004555648
 31
0.0
  0
LINE
  5
1CE
330
1C8
100
AcDbEntity
  8
VERMASSUNG
100
AcDbLine
 10
263.8796574948
 20
147.5893373912
 30
0.0
 11
263.8796574948
 21
157.4004555648
 31
0.0
  0
LINE
  5
1CF
330
1C8
100
AcDbEntity
  8
VERMASSUNG
100
AcDbLine
 10
193.8796574948
 20
156.4004555648
 30
0.0
 11
263.8796574948
 21
156.4004555648
 31
0.0
  0
MTEXT
  5
1D0
330
1C8
100
AcDbEntity
  8
VERMASSUNG
100
AcDbMText
 10
227.4800600009
 20
158.978590928
 30
0.0
 40
2.0
 41
0.0
 71
     1
 72
     1
  1
70
  7
SLDTEXTSTYLE0
 73
     1
 44
1.0
  0
ENDBLK
  5
1CA
330
1C8
100
AcDbEntity
  8
0
100
AcDbBlockEnd
  0
BLOCK
  5
1D3
330
1D2
100
AcDbEntity
  8
0
100
AcDbBlockBegin
  2
*D4
 70
     1
 10
0.0
 20
0.0
 30
0.0
  3
*D4
  1

  0
SOLID
  5
1D5
330
1D2
100
AcDbEntity
  8
VERMASSUNG
100
AcDbTrace
 10
267.0567001652
 20
147.5893373912
 30
0.0
 11
266.6067001652
 21
144.5893373912
 31
0.0
 12
267.5067001652
 22
144.5893373912
 32
0.0
 13
267.5067001652
 23
144.5893373912
 33
0.0
  0
SOLID
  5
1D6
330
1D2
100
AcDbEntity
  8
VERMASSUNG
100
AcDbTrace
 10
267.0567001652
 20
102.5893373912
 30
0.0
 11
267.5067001652
 21
105.5893373912
 31
0.0
 12
266.6067001652
 22
105.5893373912
 32
0.0
 13
266.6067001652
 23
105.5893373912
 33
0.0
  0
LINE
  5
1D7
330
1D2
100
AcDbEntity
  8
VERMASSUNG
100
AcDbLine
 10
263.8796574948
 20
147.5893373912
 30
0.0
 11
268.0567001652
 21
147.5893373912
 31
0.0
  0
LINE
  5
1D8
330
1D2
100
AcDbEntity
  8
VERMASSUNG
100
AcDbLine
 10
263.8796574948
 20
102.5893373912
 30
0.0
 11
268.0567001652
 21
102.5893373912
 31
0.0
  0
LINE
  5
1D9
330
1D2
100
AcDbEntity
  8
VERMASSUNG
100
AcDbLine
 10
267.0567001652
 20
147.5893373912
 30
0.0
 11
267.0567001652
 21
102.5893373912
 31
0.0
  0
MTEXT
  5
1DA
330
1D2
100
AcDbEntity
  8
VERMASSUNG
100
AcDbMText
 10
264.478564802
 20
123.5905558229
 30
0.0
 40
2.0
 41
0.0
 71
     1
 72
     1
  1
45
  7
SLDTEXTSTYLE0
 11
-7.044195017643634E-15
 21
1.0
 31
0.0
 73
     1
 44
1.0
  0
ENDBLK
  5
1D4
330
1D2
100
AcDbEntity
  8
0
100
AcDbBlockEnd
  0
BLOCK
  5
1DE
330
1DD
100
AcDbEntity
  8
0
100
AcDbBlockBegin
  2
*D5
 70
     1
 10
0.0
 20
0.0
 30
0.0
  3
*D5
  1

  0
ARC
  5
1E0
330
1DD
100
AcDbEntity
  8
VERMASSUNG
100
AcDbCircle
 10
271.1336082101
 20
147.5893373912
 30
0.0
 40
28.50695238332008
100
AcDbArc
 50
180.0
 51
183.0
  0
ARC
  5
1E1
330
1DD
100
AcDbEntity
  8
VERMASSUNG
100
AcDbCircle
 10
271.1336082101
 20
147.5893373912
 30
0.0
 40
28.50695238332008
100
AcDbArc
 50
163.6871226547
 51
180.0
  0
ARC
  5
1E2
330
1DD
100
AcDbEntity
  8
VERMASSUNG
100
AcDbCircle
 10
271.1336082101
 20
147.5893373912
 30
0.0
 40
28.50695238332008
100
AcDbArc
 50
183.0
 51
194.998535336
  0
SOLID
  5
1E3
330
1DD
100
AcDbEntity
  8
VERMASSUNG
100
AcDbTrace
 10
242.6266558268
 20
147.5893373912
 30
0.0
 11
243.2332428513
 21
150.5616348496
 31
0.0
 12
242.3344793759
 22
150.6087964357
 32
0.0
 13
242.3344793759
 23
150.6087964357
 33
0.0
  0
SOLID
  5
1E4
330
1DD
100
AcDbEntity
  8
VERMASSUNG
100
AcDbTrace
 10
242.6657236143
 20
146.0973987786
 30
0.0
 11
242.5319738575
 21
143.0667864638
 31
0.0
 12
243.4270373621
 22
143.1609210625
 32
0.0
 13
243.4270373621
 23
143.1609210625
 33
0.0
  0
MTEXT
  5
1E5
330
1DD
100
AcDbEntity
  8
VERMASSUNG
100
AcDbMText
 10
240.334637403
 20
151.9931958461
 30
0.0
 40
2.0
 41
0.0
 71
     1
 72
     1
  1
3°
  7
SLDTEXTSTYLE0
 11
0.1827617629804245
 21
0.9831572295377211
 31
0.0
 73
     1
 44
1.0
  0
ENDBLK
  5
1DF
330
1DD
100
AcDbEntity
  8
0
100
AcDbBlockEnd
  0
BLOCK
  5
21E
330
21D
100
AcDbEntity
  8
0
100
AcDbBlockBegin
  2
*D6
 70
     1
 10
0.0
 20
0.0
 30
0.0
  3
*D6
  1

  0
SOLID
  5
220
330
21D
100
AcDbEntity
  8
VERMASSUNG
100
AcDbTrace
 10
44.3505371029
 20
67.5815658221
 30
0.0
 11
44.8005371029
 21
70.5815658221
 31
0.0
 12
43.9005371029
 22
70.5815658221
 32
0.0
 13
43.9005371029
 23
70.5815658221
 33
0.0
  0
SOLID
  5
221
330
21D
100
AcDbEntity
  8
VERMASSUNG
100
AcDbTrace
 10
44.3505371029
 20
147.5815658221
 30
0.0
 11
43.9005371029
 21
144.5815658221
 31
0.0
 12
44.8005371029
 22
144.5815658221
 32
0.0
 13
44.8005371029
 23
144.5815658221
 33
0.0
  0
LINE
  5
222
330
21D
100
AcDbEntity
  8
VERMASSUNG
100
AcDbLine
 10
87.8883037207
 20
67.5815658221
 30
0.0
 11
43.3505371029
 21
67.5815658221
 31
0.0
  0
LINE
  5
223
330
21D
100
AcDbEntity
  8
VERMASSUNG
100
AcDbLine
 10
87.8883037207
 20
147.5815658221
 30
0.0
 11
43.3505371029
 21
147.5815658221
 31
0.0
  0
LINE
  5
224
330
21D
100
AcDbEntity
  8
VERMASSUNG
100
AcDbLine
 10
44.3505371029
 20
67.5815658221
 30
0.0
 11
44.3505371029
 21
147.5815658221
 31
0.0
  0
MTEXT
  5
225
330
21D
100
AcDbEntity
  8
VERMASSUNG
100
AcDbMText
 10
41.7724016234
 20
104.3770630735
 30
0.0
 40
2.0
 41
0.0
 71
     1
 72
     1
  1
%%c
  7
SLDTEXTSTYLE0
 11
6.123233995736766E-17
 21
1.0
 31
0.0
 73
     1
 44
1.0
  0
MTEXT
  5
226
330
21D
100
AcDbEntity
  8
VERMASSUNG
100
AcDbMText
 10
41.7724017398
 20
107.9868735828
 30
0.0
 40
2.0
 41
0.0
 71
     1
 72
     1
  1
80
  7
SLDTEXTSTYLE0
 11
6.123233995736766E-17
 21
1.0
 31
0.0
 73
     1
 44
1.0
  0
ENDBLK
  5
21F
330
21D
100
AcDbEntity
  8
0
100
AcDbBlockEnd
  0
BLOCK
  5
228
330
227
100
AcDbEntity
  8
0
100
AcDbBlockBegin
  2
SW_CENTERMARKSYMBOL_0
 70
     0
 10
0.0
 20
0.0
 30
0.0
  3
SW_CENTERMARKSYMBOL_0
  1

  0
LINE
  5
22A
330
227
100
AcDbEntity
  8
VERMASSUNG
 62
     0
100
AcDbLine
 10
0.0
 20
0.0
 30
0.0
 11
0.0
 21
2.5
 31
0.0
  0
LINE
  5
22B
330
227
100
AcDbEntity
  8
VERMASSUNG
 62
     0
100
AcDbLine
 10
0.0
 20
0.0
 30
0.0
 11
-2.5
 21
0.0
 31
0.0
  0
LINE
  5
22C
330
227
100
AcDbEntity
  8
VERMASSUNG
 62
     0
100
AcDbLine
 10
0.0
 20
0.0
 30
0.0
 11
0.0
 21
-2.5
 31
0.0
  0
LINE
  5
22D
330
227
100
AcDbEntity
  8
VERMASSUNG
 62
     0
100
AcDbLine
 10
0.0
 20
0.0
 30
0.0
 11
2.5
 21
0.0
 31
0.0
  0
LINE
  5
22E
330
227
100
AcDbEntity
  8
VERMASSUNG
 62
     0
100
AcDbLine
 10
0.0
 20
5.0
 30
0.0
 11
0.0
 21
34.0
 31
0.0
  0
LINE
  5
22F
330
227
100
AcDbEntity
  8
VERMASSUNG
 62
     0
100
AcDbLine
 10
-5.0
 20
0.0
 30
0.0
 11
-34.0
 21
0.0
 31
0.0
  0
LINE
  5
230
330
227
100
AcDbEntity
  8
VERMASSUNG
 62
     0
100
AcDbLine
 10
0.0
 20
-5.0
 30
0.0
 11
0.0
 21
-34.0
 31
0.0
  0
LINE
  5
231
330
227
100
AcDbEntity
  8
VERMASSUNG
 62
     0
100
AcDbLine
 10
5.0
 20
0.0
 30
0.0
 11
34.0
 21
0.0
 31
0.0
  0
ENDBLK
  5
229
330
227
100
AcDbEntity
  8
0
100
AcDbBlockEnd
  0
ENDSEC
  0
SECTION
  2
ENTITIES
  0
MTEXT
  5
45
330
1F
100
AcDbEntity
  8
KOPF_DÜNN
100
AcDbMText
 10
13.8892156294
 20
23.8442973028
 30
0.0
 40
3.0
 41
0.0
 71
     1
 72
     1
  1
HA6.KDB.RJA.070
  7
SLDTEXTSTYLE0
 73
     1
 44
1.0
  0
MTEXT
  5
46
330
1F
100
AcDbEntity
  8
VERMASSUNG
100
AcDbMText
 10
13.9329988022
 20
28.8834360957
 30
0.0
 40
3.0
 41
0.0
 71
     1
 72
     1
  1
Klemmhalter rechts_Turning tool right 55° /93°
  7
SLDTEXTSTYLE0
 73
     1
 44
1.0
  0
MTEXT
  5
47
330
1F
100
AcDbEntity
  8
VERMASSUNG
100
AcDbMText
 10
98.8601118557
 20
13.8365368179
 30
0.0
 40
2.0
 41
0.0
 71
     1
 72
     1
  1
Datum: 02.02.2009
  7
SLDTEXTSTYLE0
 73
     1
 44
1.0
  0
MTEXT
  5
49
330
1F
100
AcDbEntity
  8
VERMASSUNG
100
AcDbMText
 10
13.933048693
 20
18.0482802738
 30
0.0
 40
2.0
 41
0.0
 71
     1
 72
     1
  1
DIN 69893 HSK 63 A ICTM / DC.. 11 T3..
  7
SLDTEXTSTYLE1
 73
     1
 44
1.0
  0
MTEXT
  5
4A
330
1F
100
AcDbEntity
  8
VERMASSUNG
100
AcDbMText
 10
13.9808475933
 20
13.9090973692
 30
0.0
 40
2.0
 41
0.0
 71
     1
 72
     1
  1
Gewicht: 1057g
  7
SLDTEXTSTYLE0
 73
     1
 44
1.0
  0
LINE
  5
4B
330
1F
100
AcDbEntity
  8
0
  6
Continuous
 62
     7
370
    15
100
AcDbLine
 10
194.1796574948
 20
71.0893373912
 30
0.0
 11
198.8296574948
 21
71.0893373912
 31
0.0
  0
LINE
  5
4C
330
1F
100
AcDbEntity
  8
0
  6
Continuous
 62
     7
370
    15
100
AcDbLine
 10
198.8576458539
 20
134.0893373912
 30
0.0
 11
194.1796574948
 21
134.0893373912
 31
0.0
  0
ARC
  5
4D
330
1F
100
AcDbEntity
  8
0
  6
Continuous
 62
     7
370
    15
100
AcDbCircle
 10
194.1796574948
 20
71.3893373912
 30
0.0
 40
0.3000000000000114
100
AcDbArc
 50
180.0
 51
270.0
  0
ARC
  5
4E
330
1F
100
AcDbEntity
  8
0
  6
Continuous
 62
     7
370
    15
100
AcDbCircle
 10
194.1796574948
 20
133.7893373912
 30
0.0
 40
0.3000000000000114
100
AcDbArc
 50
90.0
 51
180.0
  0
ARC
  5
4F
330
1F
100
AcDbEntity
  8
0
  6
Continuous
 62
     7
370
    15
100
AcDbCircle
 10
220.8296574948
 20
75.5893373912
 30
0.0
 40
1.000000000000017
100
AcDbArc
 50
90.0
 51
143.1139143113
  0
ARC
  5
50
330
1F
100
AcDbEntity
  8
0
  6
Continuous
 62
     7
370
    15
100
AcDbCircle
 10
220.8296574948
 20
129.5893373912
 30
0.0
 40
1.000000000000009
100
AcDbArc
 50
216.8996843908
 51
270.0
  0
LINE
  5
51
330
1F
100
AcDbEntity
  8
0
  6
Continuous
 62
     7
370
    15
100
AcDbLine
 10
220.8296574948
 20
76.5893373912
 30
0.0
 11
233.6163352554
 21
76.5893373912
 31
0.0
  0
LINE
  5
52
330
1F
100
AcDbEntity
  8
0
  6
Continuous
 62
     7
370
    15
100
AcDbLine
 10
233.6810211907
 20
128.5893373912
 30
0.0
 11
220.8296574948
 21
128.5893373912
 31
0.0
  0
ARC
  5
53
330
1F
100
AcDbEntity
  8
0
  6
Continuous
 62
     7
370
    15
100
AcDbCircle
 10
193.3796574948
 20
78.0189065294
 30
0.0
 40
0.5999999999999943
100
AcDbArc
 50
33.5573097619
 51
90.0
  0
ARC
  5
54
330
1F
100
AcDbEntity
  8
0
  6
Continuous
 62
     7
370
    15
100
AcDbCircle
 10
193.3796574948
 20
127.1597682529
 30
0.0
 40
0.6000000000000227
100
AcDbArc
 50
270.0
 51
326.4426902381
  0
LINE
  5
55
330
1F
100
AcDbEntity
  8
0
  6
Continuous
 62
     7
370
    15
100
AcDbLine
 10
180.648148696
 20
126.2470674113
 30
0.0
 11
168.0796574948
 21
125.6173834834
 31
0.0
  0
LINE
  5
56
330
1F
100
AcDbEntity
  8
0
  6
Continuous
 62
     7
370
    15
100
AcDbLine
 10
191.8796574948
 20
126.8097682529
 30
0.0
 11
189.0626558375
 21
126.6686359053
 31
0.0
  0
LINE
  5
57
330
1F
100
AcDbEntity
  8
0
  6
Continuous
 62
     7
370
    15
100
AcDbLine
 10
189.0627119275
 20
78.5100360669
 30
0.0
 11
191.8796574948
 21
78.3689065294
 31
0.0
  0
LINE
  5
58
330
1F
100
AcDbEntity
  8
0
  6
Continuous
 62
     7
370
    15
100
AcDbLine
 10
172.0796574948
 20
79.3608904974
 30
0.0
 11
180.6485512147
 21
78.9315872048
 31
0.0
  0
LINE
  5
59
330
1F
100
AcDbEntity
  8
0
  6
Continuous
 62
     7
370
    15
100
AcDbLine
 10
191.8796574948
 20
78.3689065294
 30
0.0
 11
192.7363702682
 21
78.5984620252
 31
0.0
  0
LINE
  5
5A
330
1F
100
AcDbEntity
  8
0
  6
Continuous
 62
     7
370
    15
100
AcDbLine
 10
192.7363702682
 20
126.5802127571
 30
0.0
 11
191.8796574948
 21
126.8097682529
 31
0.0
  0
ARC
  5
5B
330
1F
100
AcDbEntity
  8
0
  6
Continuous
 62
     7
370
    15
100
AcDbCircle
 10
192.8916616952
 20
78.0189065294
 30
0.0
 40
0.5999999999999944
100
AcDbArc
 50
90.0
 51
105.0
  0
ARC
  5
5C
330
1F
100
AcDbEntity
  8
0
  6
Continuous
 62
     7
370
    15
100
AcDbCircle
 10
192.8916616952
 20
127.1597682529
 30
0.0
 40
0.6000000000000356
100
AcDbArc
 50
255.0
 51
270.0
  0
LINE
  5
5D
330
1F
100
AcDbEntity
  8
0
  6
Continuous
 62
     7
370
    15
100
AcDbLine
 10
192.8916616952
 20
78.6189065294
 30
0.0
 11
193.3796574948
 21
78.6189065294
 31
0.0
  0
LINE
  5
5E
330
1F
100
AcDbEntity
  8
0
  6
Continuous
 62
     7
370
    15
100
AcDbLine
 10
193.3796574948
 20
126.5597682529
 30
0.0
 11
192.8916616952
 21
126.5597682529
 31
0.0
  0
LINE
  5
5F
330
1F
100
AcDbEntity
  8
0
  6
Continuous
 62
     7
370
    15
100
AcDbLine
 10
163.1296574948
 20
81.7768373912
 30
0.0
 11
170.6796574948
 21
81.7768373912
 31
0.0
  0
ARC
  5
60
330
1F
100
AcDbEntity
  8
0
  6
Continuous
 62
     7
370
    15
100
AcDbCircle
 10
170.6796574948
 20
80.3768373912
 30
0.0
 40
1.399999999999991
100
AcDbArc
 50
37.6443616934
 51
90.0
  0
LINE
  5
61
330
1F
100
AcDbEntity
  8
0
  6
Continuous
 62
     7
370
    15
100
AcDbLine
 10
163.120820953
 20
123.4505008493
 30
0.0
 11
161.9895582682
 21
122.3192381645
 31
0.0
  0
LINE
  5
62
330
1F
100
AcDbEntity
  8
0
  6
Continuous
 62
     7
370
    15
100
AcDbLine
 10
161.9770766151
 20
82.9294182709
 30
0.0
 11
163.1296574948
 21
81.7768373912
 31
0.0
  0
ARC
  5
63
330
1F
100
AcDbEntity
  8
0
  6
Continuous
 62
     7
370
    15
100
AcDbCircle
 10
166.6796574948
 20
124.8593373912
 30
0.0
 40
1.399999999999991
100
AcDbArc
 50
270.0
 51
301.7485287426
  0
LINE
  5
64
330
1F
100
AcDbEntity
  8
0
  6
Continuous
 62
     7
370
    15
100
AcDbLine
 10
166.6796574948
 20
123.4593373912
 30
0.0
 11
163.2539232287
 21
123.4593373912
 31
0.0
  0
ARC
  5
65
330
1F
100
AcDbEntity
  8
0
  6
Continuous
 62
     7
370
    15
100
AcDbCircle
 10
255.2286641592
 20
142.3291308863
 30
0.0
 40
1.675000000000023
100
AcDbArc
 50
149.07804828
 51
207.6779814073
  0
ARC
  5
66
330
1F
100
AcDbEntity
  8
0
  6
Continuous
 62
     7
370
    15
100
AcDbCircle
 10
255.2286641592
 20
142.3291308863
 30
0.0
 40
1.674999999999994
100
AcDbArc
 50
207.6779814073
 51
267.784823142
  0
ARC
  5
67
330
1F
100
AcDbEntity
  8
0
  6
Continuous
 62
     7
370
    15
100
AcDbCircle
 10
255.2286641592
 20
142.3291308863
 30
0.0
 40
1.675000000000024
100
AcDbArc
 50
267.784823142
 51
326.3847562692
  0
LINE
  5
68
330
1F
100
AcDbEntity
  8
0
  6
Continuous
 62
     7
370
    15
100
AcDbLine
 10
256.6687881465
 20
141.4737550033
 30
0.0
 11
256.623560575
 21
141.4018288917
 31
0.0
  0
ARC
  5
69
330
1F
100
AcDbEntity
  8
0
  6
Continuous
 62
     7
370
    15
100
AcDbCircle
 10
255.2286641592
 20
142.3291308863
 30
0.0
 40
1.675000000000012
100
AcDbArc
 50
329.2913870411
 51
25.7351052074
  0
LINE
  5
6A
330
1F
100
AcDbEntity
  8
0
  6
Continuous
 62
     7
370
    15
100
AcDbLine
 10
256.6816741963
 20
143.1624296515
 30
0.0
 11
256.7375228332
 21
143.0564344694
 31
0.0
  0
ARC
  5
6B
330
1F
100
AcDbEntity
  8
0
  6
Continuous
 62
     7
370
    15
100
AcDbCircle
 10
255.2286641592
 20
142.3291308863
 30
0.0
 40
1.675000000000014
100
AcDbArc
 50
29.8341971076
 51
85.6286074416
  0
LINE
  5
6C
330
1F
100
AcDbEntity
  8
0
  6
Continuous
 62
     7
370
    15
100
AcDbLine
 10
255.2366246388
 20
144.00411197
 30
0.0
 11
255.3563346627
 21
143.9992581996
 31
0.0
  0
ARC
  5
6D
330
1F
100
AcDbEntity
  8
0
  6
Continuous
 62
     7
370
    15
100
AcDbCircle
 10
255.2286641592
 20
142.3291308863
 30
0.0
 40
1.674999999999997
100
AcDbArc
 50
89.7276993419
 51
146.1714175082
  0
LINE
  5
6E
330
1F
100
AcDbEntity
  8
0
  6
Continuous
 62
     7
370
    15
100
AcDbLine
 10
253.7917351088
 20
143.189863077
 30
0.0
 11
253.8372301804
 21
143.2616202871
 31
0.0
  0
CIRCLE
  5
6F
330
1F
100
AcDbEntity
  8
0
  6
Continuous
 62
     7
370
    15
100
AcDbCircle
 10
255.2286641592
 20
142.3291308863
 30
0.0
 40
1.799999999999961
  0
SPLINE
  5
70
330
1F
100
AcDbEntity
  8
0
  6
Continuous
 62
     7
370
    15
100
AcDbSpline
210
0.0
220
0.0
230
1.0
 70
     8
 71
     3
 72
    11
 73
     7
 74
     0
 42
0.00000001
 43
0.00000001
 40
0.0
 40
0.0
 40
0.0
 40
0.0
 40
0.2657596322624998
 40
0.5530029385954746
 40
0.8418208483438031
 40
1.0
 40
1.0
 40
1.0
 40
1.0
 10
255.2366246388424
 20
144.0041119700311
 30
0.0
 10
255.2027579604156
 20
143.9962003523295
 30
0.0
 10
255.1322868639176
 20
143.9797375517124
 30
0.0
 10
255.0424526331018
 20
143.9134955732756
 30
0.0
 10
254.9851895523798
 20
143.8357493002702
 30
0.0
 10
254.9668273928876
 20
143.781238737559
 30
0.0
 10
254.9603295631212
 20
143.7619490479604
 30
0.0
  0
SPLINE
  5
71
330
1F
100
AcDbEntity
  8
0
  6
Continuous
 62
     7
370
    15
100
AcDbSpline
210
0.0
220
0.0
230
1.0
 70
     8
 71
     3
 72
    12
 73
     8
 74
     0
 42
0.00000001
 43
0.00000001
 40
0.0
 40
0.0
 40
0.0
 40
0.0
 40
0.2057904614204237
 40
0.4120344203360551
 40
0.6141302471427875
 40
0.8132633242113042
 40
0.9999999999999999
 40
0.9999999999999999
 40
0.9999999999999999
 40
0.9999999999999999
 10
254.9603295631212
 20
143.7619490479604
 30
0.0
 10
254.9367881583973
 20
143.7007693433217
 30
0.0
 10
254.8896534710929
 20
143.5782751132046
 30
0.0
 10
254.746822859248
 20
143.4362911397216
 30
0.0
 10
254.5711020742303
 20
143.348728505509
 30
0.0
 10
254.3809894126643
 20
143.3204933005502
 30
0.0
 10
254.2619409952554
 20
143.3501562176409
 30
0.0
 10
254.204329053505
 20
143.3645112026862
 30
0.0
  0
SPLINE
  5
72
330
1F
100
AcDbEntity
  8
0
  6
Continuous
 62
     7
370
    15
100
AcDbSpline
210
0.0
220
0.0
230
1.0
 70
     8
 71
     3
 72
    11
 73
     7
 74
     0
 42
0.00000001
 43
0.00000001
 40
0.0
 40
0.0
 40
0.0
 40
0.0
 40
0.2802371411013075
 40
0.5612869875923805
 40
0.8399906057824286
 40
1.0
 40
1.0
 40
1.0
 40
1.0
 10
254.204329053505
 20
143.3645112026862
 30
0.0
 10
254.1674836592306
 20
143.3733156137701
 30
0.0
 10
254.0936860167139
 20
143.3909499692855
 30
0.0
 10
253.9798547612338
 20
143.3685928661976
 30
0.0
 10
253.892630862582
 20
143.3210886729958
 30
0.0
 10
253.8520360895938
 20
143.2775132957641
 30
0.0
 10
253.8372301803763
 20
143.2616202870854
 30
0.0
  0
SPLINE
  5
73
330
1F
100
AcDbEntity
  8
0
  6
Continuous
 62
     7
370
    15
100
AcDbSpline
210
0.0
220
0.0
230
1.0
 70
     8
 71
     3
 72
    11
 73
     7
 74
     0
 42
0.00000001
 43
0.00000001
 40
0.0
 40
0.0
 40
0.0
 40
0.0
 40
0.266901046795009
 40
0.5546143410792298
 40
0.8439070439786021
 40
1.0
 40
1.0
 40
1.0
 40
1.0
 10
256.6816741963081
 20
143.1624296515464
 30
0.0
 10
256.657771497468
 20
143.1878220546307
 30
0.0
 10
256.608102229676
 20
143.2405868941626
 30
0.0
 10
256.5056069766459
 20
143.2850285885407
 30
0.0
 10
256.4099273281345
 20
143.2954447478285
 30
0.0
 10
256.3538457804127
 20
143.2841090671291
 30
0.0
 10
256.3341910511083
 20
143.2801362856229
 30
0.0
  0
SPLINE
  5
74
330
1F
100
AcDbEntity
  8
0
  6
Continuous
 62
     7
370
    15
100
AcDbSpline
210
0.0
220
0.0
230
1.0
 70
     8
 71
     3
 72
    12
 73
     8
 74
     0
 42
0.00000001
 43
0.00000001
 40
0.0
 40
0.0
 40
0.0
 40
0.0
 40
0.2058401281338
 40
0.4120619935509858
 40
0.6141387330969493
 40
0.8132772113524619
 40
1.0
 40
1.0
 40
1.0
 40
1.0
 10
256.3341910511083
 20
143.2801362856229
 30
0.0
 10
256.2694193864388
 20
143.2699326615285
 30
0.0
 10
256.1397559359189
 20
143.2495064903835
 30
0.0
 10
255.9453755100475
 20
143.3022269168635
 30
0.0
 10
255.7817001510629
 20
143.4106248297303
 30
0.0
 10
255.66220472788
 20
143.5611419573825
 30
0.0
 10
255.628371716524
 20
143.6790674714549
 30
0.0
 10
255.6119995258673
 20
143.7361330095874
 30
0.0
  0
SPLINE
  5
75
330
1F
100
AcDbEntity
  8
0
  6
Continuous
 62
     7
370
    15
100
AcDbSpline
210
0.0
220
0.0
230
1.0
 70
     8
 71
     3
 72
    11
 73
     7
 74
     0
 42
0.00000001
 43
0.00000001
 40
0.0
 40
0.0
 40
0.0
 40
0.0
 40
0.2928993220619706
 40
0.5864344719079517
 40
0.8775178868032957
 40
1.0
 40
1.0
 40
1.0
 40
1.0
 10
255.6119995258673
 20
143.7361330095874
 30
0.0
 10
255.601190637642
 20
143.7724661217256
 30
0.0
 10
255.5795493971852
 20
143.8452112181618
 30
0.0
 10
255.5032329127269
 20
143.9326911505892
 30
0.0
 10
255.4234862791103
 20
143.9811559467683
 30
0.0
 10
255.3716782091122
 20
143.9951219960094
 30
0.0
 10
255.3563346626535
 20
143.9992581996043
 30
0.0
  0
SPLINE
  5
76
330
1F
100
AcDbEntity
  8
0
  6
Continuous
 62
     7
370
    15
100
AcDbSpline
210
0.0
220
0.0
230
1.0
 70
     8
 71
     3
 72
    11
 73
     7
 74
     0
 42
0.00000001
 43
0.00000001
 40
0.0
 40
0.0
 40
0.0
 40
0.0
 40
0.2431090893443083
 40
0.5182793655622536
 40
0.7947794085751836
 40
0.9999999999999999
 40
0.9999999999999999
 40
0.9999999999999999
 40
0.9999999999999999
 10
256.6687881464699
 20
141.4737550032558
 30
0.0
 10
256.6800957184295
 20
141.5049256816484
 30
0.0
 10
256.7042021030862
 20
141.5713778223934
 30
0.0
 10
256.6989801540358
 20
141.6811173852326
 30
0.0
 10
256.6637026231273
 20
141.7789936612597
 30
0.0
 10
256.6217375053837
 20
141.8283881310441
 30
0.0
 10
256.6038597030499
 20
141.8494309545763
 30
0.0
  0
SPLINE
  5
77
330
1F
100
AcDbEntity
  8
0
  6
Continuous
 62
     7
370
    15
100
AcDbSpline
210
0.0
220
0.0
230
1.0
 70
     8
 71
     3
 72
    12
 73
     8
 74
     0
 42
0.00000001
 43
0.00000001
 40
0.0
 40
0.0
 40
0.0
 40
0.0
 40
0.2058179564998945
 40
0.412021504590743
 40
0.6140779969167982
 40
0.8132130006453747
 40
1.0
 40
1.0
 40
1.0
 40
1.0
 10
256.6038597030499
 20
141.8494309545763
 30
0.0
 10
256.5626404805001
 20
141.9004181364747
 30
0.0
 10
256.4801248128592
 20
142.0024880226881
 30
0.0
 10
256.4285879439432
 20
142.1971695489394
 30
0.0
 10
256.4406122219094
 20
142.3931021379709
 30
0.0
 10
256.5112026957664
 20
142.5718611932841
 30
0.0
 10
256.5964222551153
 20
142.6601389284617
 30
0.0
 10
256.6376686874252
 20
142.702865523815
 30
0.0
  0
SPLINE
  5
78
330
1F
100
AcDbEntity
  8
0
  6
Continuous
 62
     7
370
    15
100
AcDbSpline
210
0.0
220
0.0
230
1.0
 70
     8
 71
     3
 72
    11
 73
     7
 74
     0
 42
0.00000001
 43
0.00000001
 40
0.0
 40
0.0
 40
0.0
 40
0.0
 40
0.2908641666076275
 40
0.583956078989188
 40
0.8745988053617566
 40
1.0
 40
1.0
 40
1.0
 40
1.0
 10
256.6376686874253
 20
142.702865523815
 30
0.0
 10
256.6636013787401
 20
142.7302294855753
 30
0.0
 10
256.715665381379
 20
142.7851669912899
 30
0.0
 10
256.7533974036895
 20
142.894731093364
 30
0.0
 10
256.7556885416141
 20
142.9884491352328
 30
0.0
 10
256.741730095351
 20
143.0406887513438
 30
0.0
 10
256.7375228332129
 20
143.0564344693724
 30
0.0
  0
SPLINE
  5
79
330
1F
100
AcDbEntity
  8
0
  6
Continuous
 62
     7
370
    15
100
AcDbSpline
210
0.0
220
0.0
230
1.0
 70
     8
 71
     3
 72
    12
 73
     8
 74
     0
 42
0.00000001
 43
0.00000001
 40
0.0
 40
0.0
 40
0.0
 40
0.0
 40
0.205858574121395
 40
0.4121026961456984
 40
0.6141937841967354
 40
0.8133180967416266
 40
0.9999999999999999
 40
0.9999999999999999
 40
0.9999999999999999
 40
0.9999999999999999
 10
253.8561367270759
 20
142.8130564792513
 30
0.0
 10
253.8973614559069
 20
142.7620608503744
 30
0.0
 10
253.9798881224382
 20
142.6599740840518
 30
0.0
 10
254.0314181233813
 20
142.4652602219227
 30
0.0
 10
254.0193680348716
 20
142.2693048425208
 30
0.0
 10
253.9487546308927
 20
142.0905739545181
 30
0.0
 10
253.863554121598
 20
142.0023238912239
 30
0.0
 10
253.8223277427006
 20
141.9596219100126
 30
0.0
  0
SPLINE
  5
7A
330
1F
100
AcDbEntity
  8
0
  6
Continuous
 62
     7
370
    15
100
AcDbSpline
210
0.0
220
0.0
230
1.0
 70
     8
 71
     3
 72
    11
 73
     7
 74
     0
 42
0.00000001
 43
0.00000001
 40
0.0
 40
0.0
 40
0.0
 40
0.0
 40
0.2524782265335793
 40
0.5068902417933473
 40
0.7591786113117136
 40
1.0
 40
1.0
 40
1.0
 40
1.0
 10
253.8223277427006
 20
141.9596219100126
 30
0.0
 10
253.7963846892675
 20
141.9322513912343
 30
0.0
 10
253.7442998785965
 20
141.8773007165881
 30
0.0
 10
253.7067403306372
 20
141.7678634243498
 30
0.0
 10
253.7033091610627
 20
141.6536103931711
 30
0.0
 10
253.731542388111
 20
141.5847298337798
 30
0.0
 10
253.7453307279924
 20
141.5510904427717
 30
0.0
  0
SPLINE
  5
7B
330
1F
100
AcDbEntity
  8
0
  6
Continuous
 62
     7
370
    15
100
AcDbSpline
210
0.0
220
0.0
230
1.0
 70
     8
 71
     3
 72
    11
 73
     7
 74
     0
 42
0.00000001
 43
0.00000001
 40
0.0
 40
0.0
 40
0.0
 40
0.0
 40
0.242361123774519
 40
0.5166847928458482
 40
0.7923341374633366
 40
1.0
 40
1.0
 40
1.0
 40
1.0
 10
253.7917351088039
 20
143.18986307701
 30
0.0
 10
253.7803114440058
 20
143.1587345314021
 30
0.0
 10
253.7559575633677
 20
143.0923722126914
 30
0.0
 10
253.7607727815142
 20
142.9826172572043
 30
0.0
 10
253.7958211100526
 20
142.8841988827278
 30
0.0
 10
253.8380096101649
 20
142.8344374536787
 30
0.0
 10
253.8561367270759
 20
142.8130564792513
 30
0.0
  0
SPLINE
  5
7C
330
1F
100
AcDbEntity
  8
0
  6
Continuous
 62
     7
370
    15
100
AcDbSpline
210
0.0
220
0.0
230
1.0
 70
     8
 71
     3
 72
    12
 73
     8
 74
     0
 42
0.00000001
 43
0.00000001
 40
0.0
 40
0.0
 40
0.0
 40
0.0
 40
0.0091735205189993
 40
0.2576775215525015
 40
0.5061895192299287
 40
0.7560357430219
 40
1.0
 40
1.0
 40
1.0
 40
1.0
 10
255.1639212240013
 20
140.6553825921271
 30
0.0
 10
255.1652919816295
 20
140.6553350838568
 30
0.0
 10
255.2037955667629
 20
140.6540006110856
 30
0.0
 10
255.2805227738424
 20
140.6648999046775
 30
0.0
 10
255.3808180455879
 20
140.7169283045625
 30
0.0
 10
255.4604142424692
 20
140.7977490247894
 30
0.0
 10
255.4866869736994
 20
140.8665484309154
 30
0.0
 10
255.4996668670046
 20
140.9005383858672
 30
0.0
  0
SPLINE
  5
7D
330
1F
100
AcDbEntity
  8
0
  6
Continuous
 62
     7
370
    15
100
AcDbSpline
210
0.0
220
0.0
230
1.0
 70
     8
 71
     3
 72
    12
 73
     8
 74
     0
 42
0.00000001
 43
0.00000001
 40
0.0
 40
0.0
 40
0.0
 40
0.0
 40
0.2057532787804195
 40
0.4119604088044698
 40
0.6140154573249099
 40
0.8131414684041081
 40
0.9999999999999999
 40
0.9999999999999999
 40
0.9999999999999999
 40
0.9999999999999999
 10
255.4996668670046
 20
140.9005383858672
 30
0.0
 10
255.5232040024254
 20
140.9617097172456
 30
0.0
 10
255.5703301915561
 20
141.084187311922
 30
0.0
 10
255.7131306628614
 20
141.2261608583916
 30
0.0
 10
255.8888156945889
 20
141.3137312266382
 30
0.0
 10
256.0789378167337
 20
141.3420017043171
 30
0.0
 10
256.198019082466
 20
141.3123371192099
 30
0.0
 10
256.2556673766208
 20
141.2979762311414
 30
0.0
  0
SPLINE
  5
7E
330
1F
100
AcDbEntity
  8
0
  6
Continuous
 62
     7
370
    15
100
AcDbSpline
210
0.0
220
0.0
230
1.0
 70
     8
 71
     3
 72
    11
 73
     7
 74
     0
 42
0.00000001
 43
0.00000001
 40
0.0
 40
0.0
 40
0.0
 40
0.0
 40
0.2794069064555867
 40
0.5596240257156041
 40
0.8375007392219502
 40
1.0
 40
1.0
 40
1.0
 40
1.0
 10
256.2556673766208
 20
141.2979762311414
 30
0.0
 10
256.2925160436342
 20
141.2891712658925
 30
0.0
 10
256.3663202299298
 20
141.2715358031139
 30
0.0
 10
256.4801551865973
 20
141.2939014849317
 30
0.0
 10
256.5677576861275
 20
141.3416041628323
 30
0.0
 10
256.6085194393712
 20
141.3855958913511
 30
0.0
 10
256.62356057503
 20
141.4018288917464
 30
0.0
  0
SPLINE
  5
7F
330
1F
100
AcDbEntity
  8
0
  6
Continuous
 62
     7
370
    15
100
AcDbSpline
210
0.0
220
0.0
230
1.0
 70
     8
 71
     3
 72
    12
 73
     8
 74
     0
 42
0.00000001
 43
0.00000001
 40
0.0
 40
0.0
 40
0.0
 40
0.0
 40
0.2058435564095146
 40
0.4120691620553163
 40
0.6141397217727111
 40
0.813260457956133
 40
1.0
 40
1.0
 40
1.0
 40
1.0
 10
254.1258053790175
 20
141.3823511482047
 30
0.0
 10
254.1905777247819
 20
141.3925548286187
 30
0.0
 10
254.3202426349158
 20
141.4129811276559
 30
0.0
 10
254.5146235299702
 20
141.3602594809474
 30
0.0
 10
254.6782945474835
 20
141.2518626541221
 30
0.0
 10
254.7977893913653
 20
141.1013491872151
 30
0.0
 10
254.831622941793
 20
140.9834247214026
 30
0.0
 10
254.8479969042585
 20
140.9263544242402
 30
0.0
  0
SPLINE
  5
80
330
1F
100
AcDbEntity
  8
0
  6
Continuous
 62
     7
370
    15
100
AcDbSpline
210
0.0
220
0.0
230
1.0
 70
     8
 71
     3
 72
    11
 73
     7
 74
     0
 42
0.00000001
 43
0.00000001
 40
0.0
 40
0.0
 40
0.0
 40
0.0
 40
0.2535086227484162
 40
0.5075674742604872
 40
0.7595056251924768
 40
1.0
 40
1.0
 40
1.0
 40
1.0
 10
254.8479969042585
 20
140.9263544242402
 30
0.0
 10
254.8588074390015
 20
140.8900057754377
 30
0.0
 10
254.8804519722542
 20
140.8172295847683
 30
0.0
 10
254.956754374598
 20
140.7299646036324
 30
0.0
 10
255.0540954690909
 20
140.6700467303713
 30
0.0
 10
255.1278842382593
 20
140.6601943172207
 30
0.0
 10
255.1639212240013
 20
140.6553825921271
 30
0.0
  0
SPLINE
  5
81
330
1F
100
AcDbEntity
  8
0
  6
Continuous
 62
     7
370
    15
100
AcDbSpline
210
0.0
220
0.0
230
1.0
 70
     8
 71
     3
 72
    12
 73
     8
 74
     0
 42
0.00000001
 43
0.00000001
 40
0.0
 40
0.0
 40
0.0
 40
0.0
 40
0.0091681771491649
 40
0.2573268097002564
 40
0.5054934687429703
 40
0.7549925359452988
 40
1.0
 40
1.0
 40
1.0
 40
1.0
 10
253.7453307279924
 20
141.5510904427717
 30
0.0
 10
253.74597322713
 20
141.5498774009192
 30
0.0
 10
253.7640065014273
 20
141.5158304813562
 30
0.0
 10
253.8116969128906
 20
141.4547426910039
 30
0.0
 10
253.9067885122635
 20
141.3937235732687
 30
0.0
 10
254.0167342591047
 20
141.3649391726449
 30
0.0
 10
254.0896691616358
 20
141.3765824081901
 30
0.0
 10
254.1258053790175
 20
141.3823511482047
 30
0.0
  0
CIRCLE
  5
82
330
1F
100
AcDbEntity
  8
0
  6
Continuous
 62
     7
370
    15
100
AcDbCircle
 10
255.2286641592
 20
142.3291308863
 30
0.0
 40
2.624999999999994
  0
LINE
  5
83
330
1F
100
AcDbEntity
  8
0
  6
Continuous
 62
     7
370
    15
100
AcDbLine
 10
252.8429963872
 20
146.6318936035
 30
0.0
 11
252.8231087238
 21
147.0113728264
 31
0.0
  0
LINE
  5
84
330
1F
100
AcDbEntity
  8
0
  6
Continuous
 62
     7
370
    15
100
AcDbLine
 10
263.4597698314
 20
147.5688166144
 30
0.0
 11
252.8231087238
 21
147.0113728264
 31
0.0
  0
LINE
  5
85
330
1F
100
AcDbEntity
  8
0
  6
Continuous
 62
     7
370
    15
100
AcDbLine
 10
263.4796574948
 20
147.1893373912
 30
0.0
 11
263.4597698314
 21
147.5688166144
 31
0.0
  0
LINE
  5
86
330
1F
100
AcDbEntity
  8
0
  6
Continuous
 62
     7
370
    15
100
AcDbLine
 10
261.749973184
 20
146.1704754679
 30
0.0
 11
263.4796574948
 21
147.1893373912
 31
0.0
  0
LINE
  5
87
330
1F
100
AcDbEntity
  8
0
  6
Continuous
 62
     7
370
    15
100
AcDbLine
 10
252.9691516408
 20
146.4177244822
 30
0.0
 11
252.8429963872
 21
146.6318936035
 31
0.0
  0
LINE
  5
88
330
1F
100
AcDbEntity
  8
0
  6
Continuous
 62
     7
370
    15
100
AcDbLine
 10
257.8353505402
 20
138.1565580793
 30
0.0
 11
257.8552382036
 21
137.7770788561
 31
0.0
  0
LINE
  5
89
330
1F
100
AcDbEntity
  8
0
  6
Continuous
 62
     7
370
    15
100
AcDbLine
 10
247.218577096
 20
137.2196350684
 30
0.0
 11
257.8552382036
 21
137.7770788561
 31
0.0
  0
LINE
  5
8A
330
1F
100
AcDbEntity
  8
0
  6
Continuous
 62
     7
370
    15
100
AcDbLine
 10
247.1986894326
 20
137.5991142916
 30
0.0
 11
247.218577096
 21
137.2196350684
 31
0.0
  0
LINE
  5
8B
330
1F
100
AcDbEntity
  8
0
  6
Continuous
 62
     7
370
    15
100
AcDbLine
 10
248.9283737433
 20
138.6179762148
 30
0.0
 11
247.1986894326
 21
137.5991142916
 31
0.0
  0
LINE
  5
8C
330
1F
100
AcDbEntity
  8
0
  6
Continuous
 62
     7
370
    15
100
AcDbLine
 10
257.7091952866
 20
138.3707272006
 30
0.0
 11
257.8353505402
 21
138.1565580793
 31
0.0
  0
SPLINE
  5
8D
330
1F
100
AcDbEntity
  8
0
  6
Continuous
 62
     7
370
    15
100
AcDbSpline
210
0.0
220
0.0
230
1.0
 70
    24
 71
     3
 72
    11
 73
     7
 74
     0
 42
0.00000001
 43
0.00000001
 40
0.0
 40
0.0
 40
0.0
 40
0.0
 40
0.009213809839
 40
0.3448490431109711
 40
0.6722304962507398
 40
1.0
 40
1.0
 40
1.0
 40
1.0
 10
257.3557223556884
 20
138.9708051591284
 30
0.0
 10
257.3567003594073
 20
138.9691448382842
 30
0.0
 10
257.3933045060649
 20
138.9070033284885
 30
0.0
 10
257.4717257439557
 20
138.7738704851506
 30
0.0
 10
257.5960636407889
 20
138.5627866233616
 30
0.0
 10
257.671469850131
 20
138.4347722827937
 30
0.0
 10
257.7091952866212
 20
138.3707272006038
 30
0.0
  0
SPLINE
  5
8E
330
1F
100
AcDbEntity
  8
0
  6
Continuous
 62
     7
370
    15
100
AcDbSpline
210
0.0
220
0.0
230
1.0
 70
    24
 71
     3
 72
    11
 73
     7
 74
     0
 42
0.00000001
 43
0.00000001
 40
0.0
 40
0.0
 40
0.0
 40
0.0
 40
0.3277695037502462
 40
0.6551509568910047
 40
0.9907861901609737
 40
0.9999999999999999
 40
0.9999999999999999
 40
0.9999999999999999
 40
0.9999999999999999
 10
252.969151640757
 20
146.4177244821834
 30
0.0
 10
253.0068770772472
 20
146.3536793999934
 30
0.0
 10
253.0822832865892
 20
146.2256650594253
 30
0.0
 10
253.2066211834223
 20
146.0145811976371
 30
0.0
 10
253.2850424213123
 20
145.8814483542996
 30
0.0
 10
253.3216465679699
 20
145.8193068445045
 30
0.0
 10
253.3226245716887
 20
145.8176465236604
 30
0.0
  0
LINE
  5
8F
330
1F
100
AcDbEntity
  8
0
  6
Continuous
 62
     7
370
    15
100
AcDbLine
 10
263.4674023758
 20
147.589244066
 30
0.0
 11
252.8205071014
 21
147.0312639284
 31
0.0
  0
LINE
  5
90
330
1F
100
AcDbEntity
  8
0
  6
Continuous
 62
     7
370
    15
100
AcDbLine
 10
258.1737446747
 20
137.9432699312
 30
0.0
 11
263.823482354
 21
146.9847402194
 31
0.0
  0
LINE
  5
91
330
1F
100
AcDbEntity
  8
0
  6
Continuous
 62
     7
370
    15
100
AcDbLine
 10
247.2109445516
 20
137.1992076168
 30
0.0
 11
257.857839826
 21
137.7571877544
 31
0.0
  0
LINE
  5
92
330
1F
100
AcDbEntity
  8
0
  6
Continuous
 62
     7
370
    15
100
AcDbLine
 10
252.5046022527
 20
146.8451817516
 30
0.0
 11
246.8548645734
 21
137.8037114634
 31
0.0
  0
ARC
  5
93
330
1F
100
AcDbEntity
  8
0
  6
Continuous
 62
     7
370
    15
100
AcDbCircle
 10
263.4796574948
 20
147.1893373912
 30
0.0
 40
0.3800000000000069
100
AcDbArc
 50
328.0
 51
93.0
  0
ARC
  5
94
330
1F
100
AcDbEntity
  8
0
  6
Continuous
 62
     7
370
    15
100
AcDbCircle
 10
252.8429963872
 20
146.6318936035
 30
0.0
 40
0.3800000000000038
100
AcDbArc
 50
93.0
 51
148.0
  0
LINE
  5
95
330
1F
100
AcDbEntity
  8
0
  6
Continuous
 62
     7
370
    15
100
AcDbLine
 10
252.5207381106
 20
146.8332629239
 30
0.0
 11
246.876431156
 21
137.800483612
 31
0.0
  0
ARC
  5
96
330
1F
100
AcDbEntity
  8
0
  6
Continuous
 62
     7
370
    15
100
AcDbCircle
 10
247.1986894326
 20
137.5991142916
 30
0.0
 40
0.3800000000000054
100
AcDbArc
 50
148.0
 51
273.0
  0
ARC
  5
97
330
1F
100
AcDbEntity
  8
0
  6
Continuous
 62
     7
370
    15
100
AcDbCircle
 10
257.8353505402
 20
138.1565580793
 30
0.0
 40
0.380000000000004
100
AcDbArc
 50
273.0
 51
328.0
  0
LINE
  5
98
330
1F
100
AcDbEntity
  8
0
  6
Continuous
 62
     7
370
    15
100
AcDbLine
 10
258.1576088168
 20
137.9551887588
 30
0.0
 11
263.8019157713
 21
146.9879680708
 31
0.0
  0
SPLINE
  5
99
330
1F
100
AcDbEntity
  8
0
  6
Continuous
 62
     7
370
    15
100
AcDbSpline
210
0.0
220
0.0
230
1.0
 70
     8
 71
     3
 72
    10
 73
     6
 74
     0
 42
0.00000001
 43
0.00000001
 40
0.0
 40
0.0
 40
0.0
 40
0.0
 40
0.3518022785810249
 40
0.703424593503199
 40
1.0
 40
1.0
 40
1.0
 40
1.0
 10
252.8205071014123
 20
147.0312639284076
 30
0.0
 10
252.7762204105961
 20
147.0244662702721
 30
0.0
 10
252.6876696837202
 20
147.0108744313276
 30
0.0
 10
252.5766074548439
 20
146.9411366535694
 30
0.0
 10
252.5272055332489
 20
146.8753031248748
 30
0.0
 10
252.5046022526532
 20
146.845181751583
 30
0.0
  0
SPLINE
  5
9A
330
1F
100
AcDbEntity
  8
0
  6
Continuous
 62
     7
370
    15
100
AcDbSpline
210
0.0
220
0.0
230
1.0
 70
     8
 71
     3
 72
    10
 73
     6
 74
     0
 42
0.00000001
 43
0.00000001
 40
0.0
 40
0.0
 40
0.0
 40
0.0
 40
0.3518022785809848
 40
0.7034245935031992
 40
1.0
 40
1.0
 40
1.0
 40
1.0
 10
257.8578398259649
 20
137.7571877543811
 30
0.0
 10
257.9021265167811
 20
137.7639854125166
 30
0.0
 10
257.990677243657
 20
137.7775772514612
 30
0.0
 10
258.1017394725333
 20
137.8473150292193
 30
0.0
 10
258.1511413941283
 20
137.913148557914
 30
0.0
 10
258.173744674724
 20
137.9432699312057
 30
0.0
  0
SPLINE
  5
9B
330
1F
100
AcDbEntity
  8
0
  6
Continuous
 62
     7
370
    15
100
AcDbSpline
210
0.0
220
0.0
230
1.0
 70
     8
 71
     3
 72
    14
 73
    10
 74
     0
 42
0.00000001
 43
0.00000001
 40
0.0
 40
0.0
 40
0.0
 40
0.0
 40
0.1588501103508031
 40
0.3173321153184902
 40
0.4720153553660836
 40
0.623644163591584
 40
0.7746618341644204
 40
0.9277417761107903
 40
1.0
 40
1.0
 40
1.0
 40
1.0
 10
246.8548645733521
 20
137.8037114633733
 30
0.0
 10
246.8343456777935
 20
137.7624378941196
 30
0.0
 10
246.7933554353741
 20
137.6799863993796
 30
0.0
 10
246.7887443028138
 20
137.5403523438251
 30
0.0
 10
246.828031202168
 20
137.4104434576062
 30
0.0
 10
246.9082261717058
 20
137.3027719651406
 30
0.0
 10
247.0186782559442
 20
137.2285476976173
 30
0.0
 10
247.1252934224946
 20
137.198652473325
 30
0.0
 10
247.1901479334969
 20
137.1990728245622
 30
0.0
 10
247.210944551588
 20
137.1992076167918
 30
0.0
  0
SPLINE
  5
9C
330
1F
100
AcDbEntity
  8
0
  6
Continuous
 62
     7
370
    15
100
AcDbSpline
210
0.0
220
0.0
230
1.0
 70
     8
 71
     3
 72
    14
 73
    10
 74
     0
 42
0.00000001
 43
0.00000001
 40
0.0
 40
0.0
 40
0.0
 40
0.0
 40
0.1588501103508049
 40
0.3173321153185018
 40
0.4720153553660993
 40
0.6236441635915903
 40
0.7746618341644416
 40
0.9277417761108057
 40
1.0
 40
1.0
 40
1.0
 40
1.0
 10
263.8234823540251
 20
146.9847402194155
 30
0.0
 10
263.8440012495837
 20
147.0260137886692
 30
0.0
 10
263.884991492003
 20
147.1084652834091
 30
0.0
 10
263.8896026245633
 20
147.2480993389637
 30
0.0
 10
263.8503157252091
 20
147.3780082251826
 30
0.0
 10
263.7701207556714
 20
147.4856797176482
 30
0.0
 10
263.659668671433
 20
147.5599039851714
 30
0.0
 10
263.5530535048825
 20
147.5897992094637
 30
0.0
 10
263.4881989938803
 20
147.5893788582266
 30
0.0
 10
263.4674023757892
 20
147.5892440659969
 30
0.0
  0
LINE
  5
9D
330
1F
100
AcDbEntity
  8
0
  6
Continuous
 62
     7
370
    15
100
AcDbLine
 10
263.4796574948
 20
147.1893373912
 30
0.0
 11
263.8019157713
 21
146.9879680708
 31
0.0
  0
LINE
  5
9E
330
1F
100
AcDbEntity
  8
0
  6
Continuous
 62
     7
370
    15
100
AcDbLine
 10
257.8353505402
 20
138.1565580793
 30
0.0
 11
258.1576088168
 21
137.9551887588
 31
0.0
  0
ARC
  5
9F
330
1F
100
AcDbEntity
  8
0
  6
Continuous
 62
     7
370
    15
100
AcDbCircle
 10
259.3371074549
 20
144.7491889349
 30
0.0
 40
1.000000000295304
100
AcDbArc
 50
328.0
 51
93.0
  0
LINE
  5
A0
330
1F
100
AcDbEntity
  8
0
  6
Continuous
 62
     7
370
    15
100
AcDbLine
 10
251.3935754287
 20
139.0406332131
 30
0.0
 11
256.6174256117
 21
139.3144036005
 31
0.0
  0
ARC
  5
A1
330
1F
100
AcDbEntity
  8
0
  6
Continuous
 62
     7
370
    15
100
AcDbCircle
 10
251.3412394725
 20
140.0392627479
 30
0.0
 40
0.9999999999999959
100
AcDbArc
 50
148.0
 51
273.0
  0
LINE
  5
A2
330
1F
100
AcDbEntity
  8
0
  6
Continuous
 62
     7
370
    15
100
AcDbLine
 10
253.2652091758
 20
145.0053378117
 30
0.0
 11
250.4931913763
 21
140.5691820121
 31
0.0
  0
ARC
  5
A3
330
1F
100
AcDbEntity
  8
0
  6
Continuous
 62
     7
370
    15
100
AcDbCircle
 10
254.1132572719
 20
144.4754185475
 30
0.0
 40
0.9999999999999675
100
AcDbArc
 50
93.0
 51
148.0
  0
LINE
  5
A4
330
1F
100
AcDbEntity
  8
0
  6
Continuous
 62
     7
370
    15
100
AcDbLine
 10
259.2847714987
 20
145.7478184696
 30
0.0
 11
254.0609213157
 21
145.4740480823
 31
0.0
  0
LINE
  5
A5
330
1F
100
AcDbEntity
  8
0
  6
Continuous
 62
     7
370
    15
100
AcDbLine
 10
257.4131377516
 20
139.7831138711
 30
0.0
 11
260.1851555513
 21
144.2192696705
 31
0.0
  0
ARC
  5
A6
330
1F
100
AcDbEntity
  8
0
  6
Continuous
 62
     7
370
    15
100
AcDbCircle
 10
256.5650896554
 20
140.3130331353
 30
0.0
 40
1.00000000000003
100
AcDbArc
 50
273.0
 51
328.0
  0
CIRCLE
  5
A7
330
1F
100
AcDbEntity
  8
0
  6
Continuous
 62
     7
370
    15
100
AcDbCircle
 10
255.3391734637
 20
142.3942258414
 30
0.0
 40
3.050000000000019
  0
LINE
  5
A8
330
1F
100
AcDbEntity
  8
0
  6
Continuous
 62
     7
370
    15
100
AcDbLine
 10
247.1986894326
 20
137.5991142916
 30
0.0
 11
246.876431156
 21
137.800483612
 31
0.0
  0
LINE
  5
A9
330
1F
100
AcDbEntity
  8
0
  6
Continuous
 62
     7
370
    15
100
AcDbLine
 10
252.8429963872
 20
146.6318936035
 30
0.0
 11
252.5207381106
 21
146.8332629239
 31
0.0
  0
SPLINE
  5
AA
330
1F
100
AcDbEntity
  8
0
  6
Continuous
 62
     7
370
    15
100
AcDbSpline
210
0.0
220
0.0
230
1.0
 70
    24
 71
     3
 72
    11
 73
     7
 74
     0
 42
0.00000001
 43
0.00000001
 40
0.0
 40
0.0
 40
0.0
 40
0.0
 40
0.0072987238691076
 40
0.126846209607904
 40
0.5874298328382695
 40
1.0
 40
1.0
 40
1.0
 40
1.0
 10
261.1575607960921
 20
145.8215179031511
 30
0.0
 10
261.1588532506509
 20
145.822279217068
 30
0.0
 10
261.1813151172483
 20
145.8355102676467
 30
0.0
 10
261.2876961971525
 20
145.8981735126056
 30
0.0
 10
261.4872822855388
 20
146.0157387033168
 30
0.0
 10
261.6656794853311
 20
146.1208226847969
 30
0.0
 10
261.7499731840464
 20
146.1704754679404
 30
0.0
  0
SPLINE
  5
AB
330
1F
100
AcDbEntity
  8
0
  6
Continuous
 62
     7
370
    15
100
AcDbSpline
210
0.0
220
0.0
230
1.0
 70
    24
 71
     3
 72
    11
 73
     7
 74
     0
 42
0.00000001
 43
0.00000001
 40
0.0
 40
0.0
 40
0.0
 40
0.0
 40
0.4125701671613147
 40
0.8731537903910497
 40
0.9927012761302761
 40
1.0
 40
1.0
 40
1.0
 40
1.0
 10
248.9283737433309
 20
138.6179762148474
 30
0.0
 10
249.0126674420461
 20
138.6676289979913
 30
0.0
 10
249.1910646418382
 20
138.7727129794722
 30
0.0
 10
249.3906507302235
 20
138.8902781701822
 30
0.0
 10
249.4970318101294
 20
138.9529414151426
 30
0.0
 10
249.5194936767264
 20
138.9661724657209
 30
0.0
 10
249.5207861312853
 20
138.9669337796377
 30
0.0
  0
LINE
  5
AC
330
1F
100
AcDbEntity
  8
0
  6
Continuous
 62
     7
370
    15
100
AcDbLine
 10
219.2296574948
 20
72.4024196949
 30
0.0
 11
215.2715903263
 21
72.4024196949
 31
0.0
  0
LINE
  5
AD
330
1F
100
AcDbEntity
  8
0
  6
Continuous
 62
     7
370
    15
100
AcDbLine
 10
215.2715903263
 20
72.4024196949
 30
0.0
 11
215.2715903263
 21
122.4393373912
 31
0.0
  0
LINE
  5
AE
330
1F
100
AcDbEntity
  8
0
  6
Continuous
 62
     7
370
    15
100
AcDbLine
 10
215.2715903263
 20
122.4393373912
 30
0.0
 11
219.2296574948
 21
122.4393373912
 31
0.0
  0
SPLINE
  5
AF
330
1F
100
AcDbEntity
  8
0
  6
Continuous
 62
     7
370
    15
100
AcDbSpline
210
0.0
220
0.0
230
1.0
 70
     8
 71
     3
 72
     8
 73
     4
 74
     0
 42
0.00000001
 43
0.00000001
 40
0.0
 40
0.0
 40
0.0
 40
0.0
 40
1.0
 40
1.0
 40
1.0
 40
1.0
 10
215.2715903262857
 20
72.40241969492257
 30
0.0
 10
214.77611066562
 20
73.29794578285592
 30
0.0
 10
214.2819966175779
 20
74.19423019790815
 30
0.0
 10
213.7896574947967
 20
75.09150023211487
 30
0.0
  0
LINE
  5
B0
330
1F
100
AcDbEntity
  8
0
  6
Continuous
 62
     7
370
    15
100
AcDbLine
 10
213.7896574948
 20
75.0915002321
 30
0.0
 11
213.7896574948
 21
122.4393373912
 31
0.0
  0
SPLINE
  5
B1
330
1F
100
AcDbEntity
  8
0
  6
Continuous
 62
     7
370
    15
100
AcDbSpline
210
0.0
220
0.0
230
1.0
 70
    24
 71
     3
 72
     8
 73
     4
 74
     0
 42
0.00000001
 43
0.00000001
 40
0.0
 40
0.0
 40
0.0
 40
0.0
 40
1.0
 40
1.0
 40
1.0
 40
1.0
 10
213.7896574947967
 20
122.4393373911697
 30
0.0
 10
214.2696094891616
 20
122.4393373911697
 30
0.0
 10
214.7649102181352
 20
122.4393373911697
 30
0.0
 10
215.2715903262858
 20
122.4393373911697
 30
0.0
  0
LINE
  5
B2
330
1F
100
AcDbEntity
  8
0
  6
Continuous
 62
     7
370
    15
100
AcDbLine
 10
198.8296574948
 20
122.4393373912
 30
0.0
 11
208.4877246633
 21
122.4393373912
 31
0.0
  0
LINE
  5
B3
330
1F
100
AcDbEntity
  8
0
  6
Continuous
 62
     7
370
    15
100
AcDbLine
 10
208.4877246633
 20
72.4024196949
 30
0.0
 11
208.4877246633
 21
122.4393373912
 31
0.0
  0
LINE
  5
B4
330
1F
100
AcDbEntity
  8
0
  6
Continuous
 62
     7
370
    15
100
AcDbLine
 10
208.4877246633
 20
72.4024196949
 30
0.0
 11
206.8296574948
 21
72.4024196949
 31
0.0
  0
SPLINE
  5
B5
330
1F
100
AcDbEntity
  8
0
  6
Continuous
 62
     7
370
    15
100
AcDbSpline
210
0.0
220
0.0
230
1.0
 70
     8
 71
     3
 72
    28
 73
    24
 74
     0
 42
0.00000001
 43
0.00000001
 40
0.0
 40
0.0
 40
0.0
 40
0.0
 40
0.1250000000000001
 40
0.1250000000000001
 40
0.1875000000000001
 40
0.1875000000000001
 40
0.2500000000000001
 40
0.2500000000000001
 40
0.3749999999999999
 40
0.3749999999999999
 40
0.4375
 40
0.4375
 40
0.4999999999999999
 40
0.4999999999999999
 40
0.6249999999999999
 40
0.6249999999999999
 40
0.7499999999999997
 40
0.7499999999999997
 40
0.8124999999999998
 40
0.8124999999999998
 40
0.8749999999999998
 40
0.8749999999999998
 40
1.0
 40
1.0
 40
1.0
 40
1.0
 10
206.8296574947967
 20
72.40241969492259
 30
0.0
 10
206.2979497373038
 20
72.40241969492259
 30
0.0
 10
205.7757111719934
 20
72.38663498097236
 30
0.0
 10
205.0058406857185
 20
72.34163956689615
 30
0.0
 10
204.7514811135271
 20
72.32308457182043
 30
0.0
 10
204.2473595328286
 20
72.27923184937393
 30
0.0
 10
203.9976367154007
 20
72.25388724242173
 30
0.0
 10
203.2720467639543
 20
72.17048516467163
 30
0.0
 10
202.8136865023727
 20
72.10461960552054
 30
0.0
 10
202.1631885589788
 20
71.99564926502875
 30
0.0
 10
201.9515065081864
 20
71.9574096292621
 30
0.0
 10
201.5474350190484
 20
71.87965089184276
 30
0.0
 10
201.3549285052275
 20
71.84014992966739
 30
0.0
 10
200.8050935342062
 20
71.7212421873014
 30
0.0
 10
200.4751647558975
 20
71.6414245058768
 30
0.0
 10
199.8906934873287
 20
71.48808134408073
 30
0.0
 10
199.6444163493153
 20
71.41674759081147
 30
0.0
 10
199.3445735566172
 20
71.32280408373684
 30
0.0
 10
199.2561166995451
 20
71.29361029037692
 30
0.0
 10
199.1027553462399
 20
71.24014371611351
 30
0.0
 10
199.0376671320137
 20
71.21578438183835
 30
0.0
 10
198.8820731160729
 20
71.1521942363936
 30
0.0
 10
198.8296574947967
 20
71.12209130130434
 30
0.0
 10
198.8296574947967
 20
71.10521440830742
 30
0.0
  0
LINE
  5
B6
330
1F
100
AcDbEntity
  8
0
  6
Continuous
 62
     7
370
    15
100
AcDbLine
 10
198.8296574948
 20
71.1052144083
 30
0.0
 11
198.8296574948
 21
71.0893373912
 31
0.0
  0
SPLINE
  5
B7
330
1F
100
AcDbEntity
  8
0
  6
Continuous
 62
     7
370
    15
100
AcDbSpline
210
0.0
220
0.0
230
1.0
 70
     8
 71
     3
 72
    17
 73
    13
 74
     0
 42
0.00000001
 43
0.00000001
 40
0.0
 40
0.0
 40
0.0
 40
0.0
 40
0.1034796923964057
 40
0.2100239188807851
 40
0.3134862136955585
 40
0.4198361274354884
 40
0.5254127712915683
 40
0.6339610695419792
 40
0.7409508756305033
 40
0.8511696089308176
 40
0.9558996534551939
 40
1.0
 40
1.0
 40
1.0
 40
1.0
 10
206.8296574947967
 20
133.0565328643339
 30
0.0
 10
206.3944091456867
 20
133.0619810608673
 30
0.0
 10
205.5110226391217
 20
133.0730388013791
 30
0.0
 10
204.230195053893
 20
133.1593971942807
 30
0.0
 10
203.012778518019
 20
133.2872673708184
 30
0.0
 10
201.9049726657724
 20
133.4462126694116
 30
0.0
 10
200.9167338618242
 20
133.6207063571272
 30
0.0
 10
200.0920103042927
 20
133.789872207767
 30
0.0
 10
199.4430568036334
 20
133.9377559902954
 30
0.0
 10
199.0260219881717
 20
134.0395465745262
 30
0.0
 10
198.8274252752072
 20
134.0898980971293
 30
0.0
 10
198.8507379966404
 20
134.083992412907
 30
0.0
 10
198.857645853878
 20
134.0822424832124
 30
0.0
  0
LINE
  5
B8
330
1F
100
AcDbEntity
  8
0
  6
Continuous
 62
     7
370
    15
100
AcDbLine
 10
208.4877246633
 20
133.0565328643
 30
0.0
 11
206.8296574948
 21
133.0565328643
 31
0.0
  0
LINE
  5
B9
330
1F
100
AcDbEntity
  8
0
  6
Continuous
 62
     7
370
    15
100
AcDbLine
 10
208.4877246633
 20
127.0480270535
 30
0.0
 11
208.4877246633
 21
133.0565328643
 31
0.0
  0
LINE
  5
BA
330
1F
100
AcDbEntity
  8
0
  6
Continuous
 62
     7
370
    15
100
AcDbLine
 10
206.0752778405
 20
127.0480270535
 30
0.0
 11
208.4877246633
 21
127.0480270535
 31
0.0
  0
SPLINE
  5
BB
330
1F
100
AcDbEntity
  8
0
  6
Continuous
 62
     7
370
    15
100
AcDbSpline
210
0.0
220
0.0
230
1.0
 70
     8
 71
     3
 72
    20
 73
    16
 74
     0
 42
0.00000001
 43
0.00000001
 40
0.0
 40
0.0
 40
0.0
 40
0.0
 40
0.2500000000000005
 40
0.2500000000000005
 40
0.3750000000000004
 40
0.3750000000000004
 40
0.5000000000000003
 40
0.5000000000000003
 40
0.6250000000000002
 40
0.6250000000000002
 40
0.7500000000000001
 40
0.7500000000000001
 40
0.8750000000000001
 40
0.8750000000000001
 40
1.0
 40
1.0
 40
1.0
 40
1.0
 10
198.8296574947967
 20
122.4393373911697
 30
0.0
 10
199.0780312290848
 20
123.0931998194671
 30
0.0
 10
199.39760132143
 20
123.6969856014643
 30
0.0
 10
200.0199075546347
 20
124.5238243376329
 30
0.0
 10
200.2513318150655
 20
124.7862529755858
 30
0.0
 10
200.7725461547152
 20
125.2829156296907
 30
0.0
 10
201.0591666373503
 20
125.5135025087123
 30
0.0
 10
201.6786513786579
 20
125.9300567332949
 30
0.0
 10
202.0129517581449
 20
126.1175545352624
 30
0.0
 10
202.7382122307696
 20
126.4489515128988
 30
0.0
 10
203.1201272881601
 20
126.5884555003941
 30
0.0
 10
203.9149154643318
 20
126.813909007865
 30
0.0
 10
204.3290736585382
 20
126.9005351194087
 30
0.0
 10
205.1946199991195
 20
127.0185159082628
 30
0.0
 10
205.6325076141314
 20
127.0480270535372
 30
0.0
 10
206.075277840486
 20
127.0480270535372
 30
0.0
  0
LINE
  5
BC
330
1F
100
AcDbEntity
  8
0
  6
Continuous
 62
     7
370
    15
100
AcDbLine
 10
209.9696574948
 20
75.0915002321
 30
0.0
 11
209.9696574948
 21
122.4393373912
 31
0.0
  0
SPLINE
  5
BD
330
1F
100
AcDbEntity
  8
0
  6
Continuous
 62
     7
370
    15
100
AcDbSpline
210
0.0
220
0.0
230
1.0
 70
     8
 71
     3
 72
     8
 73
     4
 74
     0
 42
0.00000001
 43
0.00000001
 40
0.0
 40
0.0
 40
0.0
 40
0.0
 40
1.0
 40
1.0
 40
1.0
 40
1.0
 10
209.9696574947967
 20
75.09150023211487
 30
0.0
 10
209.4773183720155
 20
74.19423019790815
 30
0.0
 10
208.9832043239734
 20
73.29794578285592
 30
0.0
 10
208.4877246633077
 20
72.40241969492259
 30
0.0
  0
SPLINE
  5
BE
330
1F
100
AcDbEntity
  8
0
  6
Continuous
 62
     7
370
    15
100
AcDbSpline
210
0.0
220
0.0
230
1.0
 70
    24
 71
     3
 72
     8
 73
     4
 74
     0
 42
0.00000001
 43
0.00000001
 40
0.0
 40
0.0
 40
0.0
 40
0.0
 40
1.0
 40
1.0
 40
1.0
 40
1.0
 10
208.4877246633076
 20
122.4393373911697
 30
0.0
 10
208.9944047714582
 20
122.4393373911697
 30
0.0
 10
209.4897055004318
 20
122.4393373911697
 30
0.0
 10
209.9696574947967
 20
122.4393373911697
 30
0.0
  0
LINE
  5
BF
330
1F
100
AcDbEntity
  8
0
  6
Continuous
 62
     7
370
    15
100
AcDbLine
 10
219.8296574948
 20
73.0290599906
 30
0.0
 11
219.8296574948
 21
122.4393373912
 31
0.0
  0
SPLINE
  5
C0
330
1F
100
AcDbEntity
  8
0
  6
Continuous
 62
     7
370
    15
100
AcDbSpline
210
0.0
220
0.0
230
1.0
 70
     8
 71
     3
 72
    10
 73
     6
 74
     0
 42
0.00000001
 43
0.00000001
 40
0.0
 40
0.0
 40
0.0
 40
0.0
 40
0.5
 40
0.5
 40
1.0
 40
1.0
 40
1.0
 40
1.0
 10
219.8296574947967
 20
73.02905999057691
 30
0.0
 10
219.8296574947967
 20
72.86917272238324
 30
0.0
 10
219.7683478435609
 20
72.70804546686865
 30
0.0
 10
219.5492482060258
 20
72.4739464685138
 30
0.0
 10
219.3911999997123
 20
72.40241969492259
 30
0.0
 10
219.2296574947967
 20
72.40241969492259
 30
0.0
  0
SPLINE
  5
C1
330
1F
100
AcDbEntity
  8
0
  6
Continuous
 62
     7
370
    15
100
AcDbSpline
210
0.0
220
0.0
230
1.0
 70
    24
 71
     3
 72
    12
 73
     8
 74
     0
 42
0.00000001
 43
0.00000001
 40
0.0
 40
0.0
 40
0.0
 40
0.0
 40
0.2500000000000006
 40
0.2500000000000006
 40
0.5000000000000012
 40
0.5000000000000012
 40
1.0
 40
1.0
 40
1.0
 40
1.0
 10
219.2296574947967
 20
122.4393373911697
 30
0.0
 10
219.3198965624838
 20
122.4393373911697
 30
0.0
 10
219.4107946765903
 20
122.4393373911697
 30
0.0
 10
219.5653917130788
 20
122.4393373911697
 30
0.0
 10
219.6303701291869
 20
122.4393373911697
 30
0.0
 10
219.7822051571231
 20
122.4393373911697
 30
0.0
 10
219.8296574947967
 20
122.4393373911697
 30
0.0
 10
219.8296574947967
 20
122.4393373911697
 30
0.0
  0
LINE
  5
C2
330
1F
100
AcDbEntity
  8
0
  6
Continuous
 62
     7
370
    15
100
AcDbLine
 10
193.8796574948
 20
71.3893373912
 30
0.0
 11
193.8796574948
 21
133.7893373906
 31
0.0
  0
SPLINE
  5
C3
330
1F
100
AcDbEntity
  8
0
  6
Continuous
 62
     7
370
    15
100
AcDbSpline
210
0.0
220
0.0
230
1.0
 70
     8
 71
     3
 72
    10
 73
     6
 74
     0
 42
0.00000001
 43
0.00000001
 40
0.0
 40
0.0
 40
0.0
 40
0.0
 40
0.5
 40
0.5
 40
1.0
 40
1.0
 40
1.0
 40
1.0
 10
210.3639550264877
 20
128.9893373911697
 30
0.0
 10
210.2424147628191
 20
129.0640635583815
 30
0.0
 10
210.1410804024702
 20
129.1730085742983
 30
0.0
 10
210.0054414595818
 20
129.4234390550599
 30
0.0
 10
209.9696574947967
 20
129.5658584171588
 30
0.0
 10
209.9696574947967
 20
129.7089912422055
 30
0.0
  0
SPLINE
  5
C4
330
1F
100
AcDbEntity
  8
0
  6
Continuous
 62
     7
370
    15
100
AcDbSpline
210
0.0
220
0.0
230
1.0
 70
    24
 71
     3
 72
    12
 73
     8
 74
     0
 42
0.00000001
 43
0.00000001
 40
0.0
 40
0.0
 40
0.0
 40
0.0
 40
0.2500000000000037
 40
0.2500000000000037
 40
0.5000000000000074
 40
0.5000000000000074
 40
1.0
 40
1.0
 40
1.0
 40
1.0
 10
210.7696574947967
 20
128.9893373911697
 30
0.0
 10
210.7203141329871
 20
128.9893373911697
 30
0.0
 10
210.6716234346855
 20
128.9893373911697
 30
0.0
 10
210.5887723371151
 20
128.9893373911697
 30
0.0
 10
210.5525723694945
 20
128.9893373911697
 30
0.0
 10
210.4568224529451
 20
128.9893373911697
 30
0.0
 10
210.4069404831329
 20
128.9893373911697
 30
0.0
 10
210.3639550264877
 20
128.9893373911697
 30
0.0
  0
SPLINE
  5
C5
330
1F
100
AcDbEntity
  8
0
  6
Continuous
 62
     7
370
    15
100
AcDbSpline
210
0.0
220
0.0
230
1.0
 70
    24
 71
     3
 72
    14
 73
    10
 74
     0
 42
0.00000001
 43
0.00000001
 40
0.0
 40
0.0
 40
0.0
 40
0.0
 40
0.1250000000000013
 40
0.1250000000000013
 40
0.2500000000000026
 40
0.2500000000000026
 40
0.5000000000000017
 40
0.5000000000000017
 40
1.0
 40
1.0
 40
1.0
 40
1.0
 10
210.7696574947967
 20
76.18933739116973
 30
0.0
 10
210.7003107730656
 20
76.18933739116972
 30
0.0
 10
210.6351127196816
 20
76.18933739116973
 30
0.0
 10
210.5307335270546
 20
76.18933739116972
 30
0.0
 10
210.4878311560456
 20
76.18933739116973
 30
0.0
 10
210.3755054984409
 20
76.18933739116972
 30
0.0
 10
210.3202818040871
 20
76.18933739116973
 30
0.0
 10
210.1762244253196
 20
76.18933739116972
 30
0.0
 10
210.1141437284881
 20
76.18933739116973
 30
0.0
 10
210.067332297129
 20
76.18933739116973
 30
0.0
  0
SPLINE
  5
C6
330
1F
100
AcDbEntity
  8
0
  6
Continuous
 62
     7
370
    15
100
AcDbSpline
210
0.0
220
0.0
230
1.0
 70
     8
 71
     3
 72
     9
 73
     5
 74
     0
 42
0.00000001
 43
0.00000001
 40
0.0
 40
0.0
 40
0.0
 40
0.0
 40
0.5
 40
1.0
 40
1.0
 40
1.0
 40
1.0
 10
209.9696574947967
 20
122.7252040226311
 30
0.0
 10
209.9696574947967
 20
122.6769719705084
 30
0.0
 10
209.9740634695019
 20
122.5811019570688
 30
0.0
 10
209.9870826495957
 20
122.4863933270855
 30
0.0
 10
209.9958051179568
 20
122.4393373911697
 30
0.0
  0
SPLINE
  5
C7
330
1F
100
AcDbEntity
  8
0
  6
Continuous
 62
     7
370
    15
100
AcDbSpline
210
0.0
220
0.0
230
1.0
 70
    24
 71
     3
 72
    14
 73
    10
 74
     0
 42
0.00000001
 43
0.00000001
 40
0.0
 40
0.0
 40
0.0
 40
0.0
 40
0.5
 40
0.5
 40
0.75
 40
0.75
 40
0.875
 40
0.875
 40
1.0
 40
1.0
 40
1.0
 40
1.0
 10
213.6919826924644
 20
76.18933739116973
 30
0.0
 10
213.6451979874162
 20
76.18933739116973
 30
0.0
 10
213.5831467906366
 20
76.18933739116973
 30
0.0
 10
213.439755152086
 20
76.18933739116972
 30
0.0
 10
213.3836114985349
 20
76.18933739116973
 30
0.0
 10
213.2706604763986
 20
76.18933739116972
 30
0.0
 10
213.2276597143605
 20
76.18933739116973
 30
0.0
 10
213.123597004054
 20
76.18933739116972
 30
0.0
 10
213.0582647656971
 20
76.18933739116972
 30
0.0
 10
212.9896574947967
 20
76.18933739116973
 30
0.0
  0
SPLINE
  5
C8
330
1F
100
AcDbEntity
  8
0
  6
Continuous
 62
     7
370
    15
100
AcDbSpline
210
0.0
220
0.0
230
1.0
 70
    24
 71
     3
 72
    12
 73
     8
 74
     0
 42
0.00000001
 43
0.00000001
 40
0.0
 40
0.0
 40
0.0
 40
0.0
 40
0.5
 40
0.5
 40
0.75
 40
0.75
 40
1.0
 40
1.0
 40
1.0
 40
1.0
 10
213.3953599631057
 20
128.9893373911697
 30
0.0
 10
213.352274413495
 20
128.9893373911697
 30
0.0
 10
213.3031222117479
 20
128.9893373911697
 30
0.0
 10
213.2066496174583
 20
128.9893373911697
 30
0.0
 10
213.1705480323241
 20
128.9893373911697
 30
0.0
 10
213.0874422744615
 20
128.9893373911698
 30
0.0
 10
213.0394456774975
 20
128.9893373911697
 30
0.0
 10
212.9896574947967
 20
128.9893373911697
 30
0.0
  0
SPLINE
  5
C9
330
1F
100
AcDbEntity
  8
0
  6
Continuous
 62
     7
370
    15
100
AcDbSpline
210
0.0
220
0.0
230
1.0
 70
     8
 71
     3
 72
    10
 73
     6
 74
     0
 42
0.00000001
 43
0.00000001
 40
0.0
 40
0.0
 40
0.0
 40
0.0
 40
0.5
 40
0.5
 40
1.0
 40
1.0
 40
1.0
 40
1.0
 10
213.7896574947967
 20
129.7089912422055
 30
0.0
 10
213.7896574947967
 20
129.5652211843875
 30
0.0
 10
213.7536084360778
 20
129.4228018218923
 30
0.0
 10
213.6180995753038
 20
129.1729075285351
 30
0.0
 10
213.5182235822076
 20
129.0648771922869
 30
0.0
 10
213.3953599631057
 20
128.9893373911697
 30
0.0
  0
SPLINE
  5
CA
330
1F
100
AcDbEntity
  8
0
  6
Continuous
 62
     7
370
    15
100
AcDbSpline
210
0.0
220
0.0
230
1.0
 70
     8
 71
     3
 72
    10
 73
     6
 74
     0
 42
0.00000001
 43
0.00000001
 40
0.0
 40
0.0
 40
0.0
 40
0.0
 40
0.5
 40
0.5
 40
1.0
 40
1.0
 40
1.0
 40
1.0
 10
213.7635098716366
 20
122.4393373911697
 30
0.0
 10
213.7721995145482
 20
122.4862162404879
 30
0.0
 10
213.7787385792987
 20
122.5336387058891
 30
0.0
 10
213.7874972136918
 20
122.6295755044759
 30
0.0
 10
213.7896574947967
 20
122.6774907924864
 30
0.0
 10
213.7896574947967
 20
122.7252040226309
 30
0.0
  0
LINE
  5
CB
330
1F
100
AcDbEntity
  8
0
  6
Continuous
 62
     7
370
    15
100
AcDbLine
 10
212.9896574948
 20
128.9893373912
 30
0.0
 11
210.7696574948
 21
128.9893373912
 31
0.0
  0
LINE
  5
CC
330
1F
100
AcDbEntity
  8
0
  6
Continuous
 62
     7
370
    15
100
AcDbLine
 10
212.9896574948
 20
76.1893373912
 30
0.0
 11
210.7696574948
 21
76.1893373912
 31
0.0
  0
LINE
  5
CD
330
1F
100
AcDbEntity
  8
0
  6
Continuous
 62
     7
370
    15
100
AcDbLine
 10
220.029656443
 20
128.9893373912
 30
0.0
 11
219.9875853956
 21
128.9893373912
 31
0.0
  0
SPLINE
  5
CE
330
1F
100
AcDbEntity
  8
0
  6
Continuous
 62
     7
370
    15
100
AcDbSpline
210
0.0
220
0.0
230
1.0
 70
    24
 71
     3
 72
    10
 73
     6
 74
     0
 42
0.00000001
 43
0.00000001
 40
0.0
 40
0.0
 40
0.0
 40
0.0
 40
0.5
 40
0.5
 40
1.0
 40
1.0
 40
1.0
 40
1.0
 10
220.0296574947716
 20
76.18933739116973
 30
0.0
 10
220.0296563665111
 20
76.18933739116973
 30
0.0
 10
219.9864514825076
 20
76.18933739116972
 30
0.0
 10
219.8855244419812
 20
76.18933739116973
 30
0.0
 10
219.8296574947967
 20
76.18933739116973
 30
0.0
 10
219.8296574947967
 20
76.18933739116973
 30
0.0
  0
ELLIPSE
  5
CF
330
1F
100
AcDbEntity
  8
0
  6
Continuous
 62
     7
370
    15
100
AcDbEllipse
 10
230.7992727371
 20
102.5893373912
 30
0.0
 11
0.0
 21
26.0
 31
0.0
210
0.0
220
0.0
230
1.0
 40
0.2679491924
 41
0.1601874882047336
 42
2.98140516538506
  0
ELLIPSE
  5
D0
330
1F
100
AcDbEntity
  8
0
  6
Continuous
 62
     7
370
    15
100
AcDbEllipse
 10
227.0018315349
 20
110.6693808139
 30
0.0
 11
0.3095778208845559
 21
3.208458578462583
 31
0.0
210
0.0
220
0.0
230
0.9999999999999999
 40
0.1859024213
 41
0.0
 42
6.283185307179586
  0
SPLINE
  5
D1
330
1F
100
AcDbEntity
  8
0
  6
Continuous
 62
     7
370
    15
100
AcDbSpline
210
0.0
220
0.0
230
1.0
 70
     8
 71
     3
 72
    20
 73
    16
 74
     0
 42
0.00000001
 43
0.00000001
 40
0.0
 40
0.0
 40
0.0
 40
0.0
 40
0.2500000000000011
 40
0.2500000000000011
 40
0.3750000000000008
 40
0.3750000000000008
 40
0.5000000000000007
 40
0.5000000000000007
 40
0.6250000000000006
 40
0.6250000000000006
 40
0.7500000000000003
 40
0.7500000000000003
 40
0.8750000000000002
 40
0.8750000000000002
 40
1.0
 40
1.0
 40
1.0
 40
1.0
 10
229.688064464936
 20
76.92220510193387
 30
0.0
 10
229.84924387165
 20
76.82501483729234
 30
0.0
 10
230.0986735417358
 20
76.7553439586221
 30
0.0
 10
230.6068470084506
 20
76.68044380225184
 30
0.0
 10
230.796796722753
 20
76.66084910926192
 30
0.0
 10
231.2098156723971
 20
76.63030240987624
 30
0.0
 10
231.4338497449238
 20
76.61921332881391
 30
0.0
 10
231.9177731091688
 20
76.6029503082091
 30
0.0
 10
232.1769701832265
 20
76.59785159266032
 30
0.0
 10
232.7135447596788
 20
76.5914731711539
 30
0.0
 10
232.9929558624295
 20
76.59012404161501
 30
0.0
 10
233.5742904505905
 20
76.58908523164615
 30
0.0
 10
233.8772355654646
 20
76.58940268401831
 30
0.0
 10
234.4879392939074
 20
76.59022310329159
 30
0.0
 10
234.7978196721182
 20
76.59072168549325
 30
0.0
 10
235.1123305068177
 20
76.59093807202176
 30
0.0
  0
SPLINE
  5
D2
330
1F
100
AcDbEntity
  8
0
  6
Continuous
 62
     7
370
    15
100
AcDbSpline
210
0.0
220
0.0
230
1.0
 70
     8
 71
     3
 72
    20
 73
    16
 74
     0
 42
0.00000001
 43
0.00000001
 40
0.0
 40
0.0
 40
0.0
 40
0.0
 40
0.249999999999998
 40
0.249999999999998
 40
0.3749999999999983
 40
0.3749999999999983
 40
0.4999999999999987
 40
0.4999999999999987
 40
0.624999999999999
 40
0.624999999999999
 40
0.7499999999999993
 40
0.7499999999999993
 40
0.8749999999999997
 40
0.8749999999999997
 40
1.0
 40
1.0
 40
1.0
 40
1.0
 10
235.1123305068177
 20
128.5877367103177
 30
0.0
 10
234.4832492892687
 20
128.5881695243444
 30
0.0
 10
233.8766307728064
 20
128.5900950888259
 30
0.0
 10
232.999995266444
 20
128.5885803021422
 30
0.0
 10
232.7169604172483
 20
128.5872245346204
 30
0.0
 10
232.1806352332027
 20
128.5808842046984
 30
0.0
 10
231.9254158844734
 20
128.5759056207271
 30
0.0
 10
231.4413695539055
 20
128.5597875321341
 30
0.0
 10
231.2130665644983
 20
128.5485621161035
 30
0.0
 10
230.7992070265761
 20
128.5180539399033
 30
0.0
 10
230.6113554639997
 20
128.4987231782654
 30
0.0
 10
230.2739725452279
 20
128.4493353662544
 30
0.0
 10
230.1240226693799
 20
128.4190138042604
 30
0.0
 10
229.8720264982521
 20
128.3469309550986
 30
0.0
 10
229.7686648743289
 20
128.305071268405
 30
0.0
 10
229.688064464936
 20
128.2564696804056
 30
0.0
  0
LINE
  5
D3
330
1F
100
AcDbEntity
  8
0
  6
Continuous
 62
     7
370
    15
100
AcDbLine
 10
172.0796574948
 20
79.3608904974
 30
0.0
 11
172.0796574948
 21
80.6441891319
 31
0.0
  0
SPLINE
  5
D4
330
1F
100
AcDbEntity
  8
0
  6
Continuous
 62
     7
370
    15
100
AcDbSpline
210
0.0
220
0.0
230
1.0
 70
     8
 71
     3
 72
    14
 73
    10
 74
     0
 42
0.00000001
 43
0.00000001
 40
0.0
 40
0.0
 40
0.0
 40
0.0
 40
0.25
 40
0.25
 40
0.5
 40
0.5
 40
0.75
 40
0.75
 40
1.0
 40
1.0
 40
1.0
 40
1.0
 10
171.4580532580569
 20
81.72496617388651
 30
0.0
 10
171.4964896428779
 20
81.62234177617499
 30
0.0
 10
171.5652910362697
 20
81.52314535273541
 30
0.0
 10
171.7085770484287
 20
81.33225332340889
 30
0.0
 10
171.7837591035357
 20
81.239996057376
 30
0.0
 10
171.9159463921858
 20
81.06038873556099
 30
0.0
 10
171.9734635876556
 20
80.97307918111665
 30
0.0
 10
172.0555083859479
 20
80.8031453476009
 30
0.0
 10
172.0796574947967
 20
80.72124300572972
 30
0.0
 10
172.0796574947967
 20
80.64418913189382
 30
0.0
  0
SPLINE
  5
D5
330
1F
100
AcDbEntity
  8
0
  6
Continuous
 62
     7
370
    15
100
AcDbSpline
210
0.0
220
0.0
230
1.0
 70
     8
 71
     3
 72
    18
 73
    14
 74
     0
 42
0.00000001
 43
0.00000001
 40
0.0
 40
0.0
 40
0.0
 40
0.0
 40
0.0624999999999998
 40
0.0624999999999998
 40
0.1249999999999997
 40
0.1249999999999997
 40
0.2499999999999993
 40
0.2499999999999993
 40
0.4999999999999996
 40
0.4999999999999996
 40
0.7499999999999998
 40
0.7499999999999998
 40
1.0
 40
1.0
 40
1.0
 40
1.0
 10
170.6796574947967
 20
82.44324862537313
 30
0.0
 10
170.7162297051471
 20
82.44702602890058
 30
0.0
 10
170.7548801785826
 20
82.44646900101743
 30
0.0
 10
170.8289716722964
 20
82.43640979585557
 30
0.0
 10
170.8643219660505
 20
82.42705591443101
 30
0.0
 10
170.9589162634399
 20
82.39267148799718
 30
0.0
 10
171.0090544365789
 20
82.36195975333435
 30
0.0
 10
171.1382477081601
 20
82.26603044329632
 30
0.0
 10
171.1965278529012
 20
82.19751494917907
 30
0.0
 10
171.2967229493247
 20
82.06094299924645
 30
0.0
 10
171.3367382007713
 20
81.99217809674354
 30
0.0
 10
171.4051376215891
 20
81.85714266763587
 30
0.0
 10
171.433499345451
 20
81.79052464158272
 30
0.0
 10
171.4580532580569
 20
81.72496617388651
 30
0.0
  0
SPLINE
  5
D6
330
1F
100
AcDbEntity
  8
0
  6
Continuous
 62
     7
370
    15
100
AcDbSpline
210
0.0
220
0.0
230
1.0
 70
     8
 71
     3
 72
    10
 73
     6
 74
     0
 42
0.00000001
 43
0.00000001
 40
0.0
 40
0.0
 40
0.0
 40
0.0
 40
0.5
 40
0.5
 40
1.0
 40
1.0
 40
1.0
 40
1.0
 10
166.7660556336747
 20
81.94705496900151
 30
0.0
 10
167.393683289382
 20
82.05032852773711
 30
0.0
 10
168.0448840344135
 20
82.13915363948865
 30
0.0
 10
169.3535887384258
 20
82.30126134635898
 30
0.0
 10
170.014633175717
 20
82.37456081064556
 30
0.0
 10
170.6796574947966
 20
82.44324862537324
 30
0.0
  0
SPLINE
  5
D7
330
1F
100
AcDbEntity
  8
0
  6
Continuous
 62
     7
370
    15
100
AcDbSpline
210
0.0
220
0.0
230
1.0
 70
     8
 71
     3
 72
    14
 73
    10
 74
     0
 42
0.00000001
 43
0.00000001
 40
0.0
 40
0.0
 40
0.0
 40
0.0
 40
0.4999999999999998
 40
0.4999999999999998
 40
0.750000000000001
 40
0.750000000000001
 40
0.8750000000000004
 40
0.8750000000000004
 40
1.0
 40
1.0
 40
1.0
 40
1.0
 10
163.1296574947967
 20
81.78270583264218
 30
0.0
 10
163.745734398552
 20
81.78843195287132
 30
0.0
 10
164.3598663946679
 20
81.79832231827335
 30
0.0
 10
165.2737630251814
 20
81.82895728594312
 30
0.0
 10
165.5772019527291
 20
81.8417507435811
 30
0.0
 10
166.0283385683666
 20
81.8696765715405
 30
0.0
 10
166.178044817909
 20
81.88044619170026
 30
0.0
 10
166.4748859541571
 20
81.9075789072998
 30
0.0
 10
166.6222715066604
 20
81.92339588012702
 30
0.0
 10
166.7660556336747
 20
81.9470549690015
 30
0.0
  0
SPLINE
  5
D8
330
1F
100
AcDbEntity
  8
0
  6
Continuous
 62
     7
370
    15
100
AcDbSpline
210
0.0
220
0.0
230
1.0
 70
     8
 71
     3
 72
     8
 73
     4
 74
     0
 42
0.00000001
 43
0.00000001
 40
0.0000005954826279
 40
0.0000005954826279
 40
0.0000005954826279
 40
0.0000005954826279
 40
0.0000302093805348
 40
0.0000302093805348
 40
0.0000302093805348
 40
0.0000302093805348
 10
163.1196125643871
 20
81.79452096229406
 30
0.0
 10
163.1229285917073
 20
81.79057418269826
 30
0.0
 10
163.1262771430996
 20
81.78663579156833
 30
0.0
 10
163.1296574947966
 20
81.78270583264216
 30
0.0
  0
SPLINE
  5
D9
330
1F
100
AcDbEntity
  8
0
  6
Continuous
 62
     7
370
    15
100
AcDbSpline
210
0.0
220
0.0
230
1.0
 70
     8
 71
     3
 72
     8
 73
     4
 74
     0
 42
0.00000001
 43
0.00000001
 40
0.0000005099763573
 40
0.0000005099763573
 40
0.0000005099763573
 40
0.0000005099763573
 40
0.0000262827998699
 40
0.0000262827998699
 40
0.0000262827998699
 40
0.0000262827998699
 10
163.1296574947967
 20
123.4592751565648
 30
0.0
 10
163.1262887555689
 20
123.4559534876089
 30
0.0
 10
163.1229403025898
 20
123.45262553033
 30
0.0
 10
163.1196125643785
 20
123.4492912834574
 30
0.0
  0
SPLINE
  5
DA
330
1F
100
AcDbEntity
  8
0
  6
Continuous
 62
     7
370
    15
100
AcDbSpline
210
0.0
220
0.0
230
1.0
 70
     8
 71
     3
 72
    10
 73
     6
 74
     0
 42
0.00000001
 43
0.00000001
 40
0.0
 40
0.0
 40
0.0
 40
0.0
 40
0.5
 40
0.5
 40
1.0
 40
1.0
 40
1.0
 40
1.0
 10
166.6796574947967
 20
123.4124247829975
 30
0.0
 10
166.0920719477061
 20
123.4334903032339
 30
0.0
 10
165.5013255542457
 20
123.4442487891061
 30
0.0
 10
164.3173063889469
 20
123.4576135696418
 30
0.0
 10
163.7238924007414
 20
123.4597562123063
 30
0.0
 10
163.1296574947967
 20
123.4592751565648
 30
0.0
  0
SPLINE
  5
DB
330
1F
100
AcDbEntity
  8
0
  6
Continuous
 62
     7
370
    15
100
AcDbSpline
210
0.0
220
0.0
230
1.0
 70
     8
 71
     3
 72
    18
 73
    14
 74
     0
 42
0.00000001
 43
0.00000001
 40
0.0
 40
0.0
 40
0.0
 40
0.0
 40
0.2500000000000003
 40
0.2500000000000003
 40
0.4999999999999999
 40
0.4999999999999999
 40
0.7499999999999996
 40
0.7499999999999996
 40
0.8749999999999993
 40
0.8749999999999993
 40
0.9374999999999997
 40
0.9374999999999997
 40
1.0
 40
1.0
 40
1.0
 40
1.0
 10
168.0796574947967
 20
124.4334450635327
 30
0.0
 10
168.0796574947967
 20
124.3502381546755
 30
0.0
 10
168.0438083948584
 20
124.261501499362
 30
0.0
 10
167.9189366588245
 20
124.0793763088017
 30
0.0
 10
167.8285362411767
 20
123.9842462601751
 30
0.0
 10
167.6062935864345
 20
123.7950647510508
 30
0.0
 10
167.4765287999887
 20
123.700119582956
 30
0.0
 10
167.2358913426772
 20
123.5618408753761
 30
0.0
 10
167.1481240445398
 20
123.5161304420737
 30
0.0
 10
166.9935999573329
 20
123.4583071368523
 30
0.0
 10
166.9369890712782
 20
123.4405923728144
 30
0.0
 10
166.8129450403716
 20
123.4160530695815
 30
0.0
 10
166.7452303653533
 20
123.4100739310432
 30
0.0
 10
166.6796574947967
 20
123.4124247829975
 30
0.0
  0
LINE
  5
DC
330
1F
100
AcDbEntity
  8
0
  6
Continuous
 62
     7
370
    15
100
AcDbLine
 10
168.0796574948
 20
124.4334450635
 30
0.0
 11
168.0796574948
 21
125.6173834834
 31
0.0
  0
LINE
  5
DD
330
1F
100
AcDbEntity
  8
0
  6
Continuous
 62
     7
370
    15
100
AcDbLine
 10
191.8796574948
 20
78.3689065294
 30
0.0
 11
191.8796574948
 21
126.8097682529
 31
0.0
  0
SPLINE
  5
DE
330
1F
100
AcDbEntity
  8
0
  6
Continuous
 62
     7
370
    15
100
AcDbSpline
210
0.0
220
0.0
230
1.0
 70
     8
 71
     3
 72
    24
 73
    20
 74
     0
 42
0.00000001
 43
0.00000001
 40
0.0
 40
0.0
 40
0.0
 40
0.0
 40
0.0010489762969676
 40
0.0637843125636786
 40
0.1272220590447881
 40
0.190378892448397
 40
0.2526748653693583
 40
0.3146354154422258
 40
0.3770891997149646
 40
0.4393540298503556
 40
0.5008133242537847
 40
0.5621845104596218
 40
0.6248438451115926
 40
0.6874304766625545
 40
0.7496743174679397
 40
0.8119848426976357
 40
0.8750960525413143
 40
0.9384412526964341
 40
1.0
 40
1.0
 40
1.0
 40
1.0
 10
180.6485633267724
 20
78.93182896258958
 30
0.0
 10
180.6481168666682
 20
78.93177067677068
 30
0.0
 10
180.6209693029742
 20
78.92822653482835
 30
0.0
 10
180.7165810805881
 20
78.94106027951081
 30
0.0
 10
180.9501413384813
 20
78.97030696471097
 30
0.0
 10
181.3456956457991
 20
79.01692128777383
 30
0.0
 10
181.8727359496354
 20
79.06710442943312
 30
0.0
 10
182.5162663616258
 20
79.11148089188295
 30
0.0
 10
183.2549402168649
 20
79.13842567282103
 30
0.0
 10
184.0524547222992
 20
79.14189752352802
 30
0.0
 10
184.8790336047459
 20
79.11427027949733
 30
0.0
 10
185.7045566223578
 20
79.05579139052463
 30
0.0
 10
186.4966831703616
 20
78.97034636116331
 30
0.0
 10
187.2292554443609
 20
78.868612121327
 30
0.0
 10
187.8648956810908
 20
78.76076899935462
 30
0.0
 10
188.386806788097
 20
78.65913884261592
 30
0.0
 10
188.7684355652128
 20
78.57665368593769
 30
0.0
 10
189.0192500354471
 20
78.52050447958803
 30
0.0
 10
189.0483715914313
 20
78.51365502097427
 30
0.0
 10
189.0627241122474
 20
78.5102792742461
 30
0.0
  0
SPLINE
  5
DF
330
1F
100
AcDbEntity
  8
0
  6
Continuous
 62
     7
370
    15
100
AcDbSpline
210
0.0
220
0.0
230
1.0
 70
     8
 71
     3
 72
    24
 73
    20
 74
     0
 42
0.00000001
 43
0.00000001
 40
0.0
 40
0.0
 40
0.0
 40
0.0
 40
0.0614384276250092
 40
0.1250736755369638
 40
0.1884253490728546
 40
0.250862390403747
 40
0.3129665632511463
 40
0.3753451453465217
 40
0.4377328972327366
 40
0.4990927322917387
 40
0.560580758844976
 40
0.6229469893028905
 40
0.6854686282028751
 40
0.7475477813740348
 40
0.809822506080776
 40
0.8730684085990464
 40
0.9364041844530122
 40
0.9991757196257861
 40
1.0
 40
1.0
 40
1.0
 40
1.0
 10
189.0626693414444
 20
126.6683663656271
 30
0.0
 10
189.0480686171408
 20
126.6649983087745
 30
0.0
 10
189.0183450984124
 20
126.6581417653007
 30
0.0
 10
188.7656072827646
 20
126.6018031447748
 30
0.0
 10
188.3826113663153
 20
126.5189460626448
 30
0.0
 10
187.8602557818778
 20
126.4170390326936
 30
0.0
 10
187.2254713038777
 20
126.3091998936497
 30
0.0
 10
186.495247699704
 20
126.2077329416745
 30
0.0
 10
185.7047791144703
 20
126.1226732279837
 30
0.0
 10
184.8802955996409
 20
126.0644689340974
 30
0.0
 10
184.0532591407587
 20
126.036885495271
 30
0.0
 10
183.2549348731058
 20
126.0403784727637
 30
0.0
 10
182.515110908817
 20
126.0673343926167
 30
0.0
 10
181.8708566758417
 20
126.1116883346162
 30
0.0
 10
181.343449420628
 20
126.1618937843741
 30
0.0
 10
180.9487848184772
 20
126.2085036395721
 30
0.0
 10
180.7162555392925
 20
126.2376992321197
 30
0.0
 10
180.6208755067397
 20
126.2504773010612
 30
0.0
 10
180.6478091436413
 20
126.2469230425531
 30
0.0
 10
180.6481582368656
 20
126.2468769749698
 30
0.0
  0
SPLINE
  5
E0
330
1F
100
AcDbEntity
  8
0
  6
Continuous
 62
     7
370
    15
100
AcDbSpline
210
0.0
220
0.0
230
1.0
 70
     8
 71
     3
 72
     9
 73
     5
 74
     0
 42
0.00000001
 43
0.00000001
 40
0.0
 40
0.0
 40
0.0
 40
0.0
 40
0.5865083119587354
 40
1.0
 40
1.0
 40
1.0
 40
1.0
 10
161.9861772927477
 20
82.93851894859084
 30
0.0
 10
161.9901779217259
 20
82.93271886756183
 30
0.0
 10
161.996999016835
 20
82.92282969649516
 30
0.0
 10
162.0061508878221
 20
82.97689448873574
 30
0.0
 10
162.0099351104053
 20
82.9992498309429
 30
0.0
  0
LINE
  5
E1
330
1F
100
AcDbEntity
  8
0
  6
Continuous
 62
     7
370
    15
100
AcDbLine
 10
161.9796574948
 20
82.9361768662
 30
0.0
 11
161.9796574948
 21
122.2800151376
 31
0.0
  0
SPLINE
  5
E2
330
1F
100
AcDbEntity
  8
0
  6
Continuous
 62
     7
370
    15
100
AcDbSpline
210
0.0
220
0.0
230
1.0
 70
     8
 71
     3
 72
    10
 73
     6
 74
     0
 42
0.00000001
 43
0.00000001
 40
0.0
 40
0.0
 40
0.0
 40
0.0
 40
0.5
 40
0.5
 40
1.0
 40
1.0
 40
1.0
 40
1.0
 10
162.0423208695201
 20
122.2638899359505
 30
0.0
 10
162.0334165804114
 20
122.3096314551637
 30
0.0
 10
162.0169012002184
 20
122.3268222946326
 30
0.0
 10
161.9897932541568
 20
122.3264990176969
 30
0.0
 10
161.9796574947967
 20
122.3086214754005
 30
0.0
 10
161.9796574947967
 20
122.2800151376479
 30
0.0
  0
SPLINE
  5
E3
330
1F
100
AcDbEntity
  8
0
  6
Continuous
 62
     7
370
    15
100
AcDbSpline
210
0.0
220
0.0
230
1.0
 70
     8
 71
     3
 72
    26
 73
    22
 74
     0
 42
0.00000001
 43
0.00000001
 40
0.0
 40
0.0
 40
0.0
 40
0.0
 40
0.2500000000000214
 40
0.2500000000000214
 40
0.3750000000000319
 40
0.3750000000000319
 40
0.437500000000036
 40
0.437500000000036
 40
0.4687500000000356
 40
0.4687500000000356
 40
0.5000000000000352
 40
0.5000000000000352
 40
0.5312500000000349
 40
0.5312500000000349
 40
0.5625000000000345
 40
0.5625000000000345
 40
0.6250000000000303
 40
0.6250000000000303
 40
0.75000000000002
 40
0.75000000000002
 40
1.0
 40
1.0
 40
1.0
 40
1.0
 10
162.8038111409012
 20
122.9794567247676
 30
0.0
 10
162.7652106180327
 20
122.8616820284121
 30
0.0
 10
162.7189136154785
 20
122.7372923422502
 30
0.0
 10
162.6249742670446
 20
122.5320730098967
 30
0.0
 10
162.5896628001311
 20
122.4605001434503
 30
0.0
 10
162.5234828243854
 20
122.3445469108498
 30
0.0
 10
162.4989444577172
 20
122.3039623760396
 30
0.0
 10
162.4555717121634
 20
122.2398206941678
 30
0.0
 10
162.4400633107382
 20
122.2179542688827
 30
0.0
 10
162.4050206661511
 20
122.1723600005396
 30
0.0
 10
162.3854703754314
 20
122.1486897095721
 30
0.0
 10
162.3435430950608
 20
122.1040731502322
 30
0.0
 10
162.3208909848292
 20
122.0831931377143
 30
0.0
 10
162.2799172707425
 20
122.0523197239635
 30
0.0
 10
162.2623179708471
 20
122.0424808541311
 30
0.0
 10
162.217690984991
 20
122.0234912384349
 30
0.0
 10
162.1971317623376
 20
122.0231669137815
 30
0.0
 10
162.1460063228409
 20
122.0323903546577
 30
0.0
 10
162.1250949098524
 20
122.0536372508747
 30
0.0
 10
162.0736450022915
 20
122.1276061297054
 30
0.0
 10
162.0559797029869
 20
122.1937242230202
 30
0.0
 10
162.0423208695201
 20
122.2638899359505
 30
0.0
  0
SPLINE
  5
E4
330
1F
100
AcDbEntity
  8
0
  6
Continuous
 62
     7
370
    15
100
AcDbSpline
210
0.0
220
0.0
230
1.0
 70
     8
 71
     3
 72
    10
 73
     6
 74
     0
 42
0.00000001
 43
0.00000001
 40
0.0
 40
0.0
 40
0.0
 40
0.0
 40
0.5
 40
0.5
 40
1.0
 40
1.0
 40
1.0
 40
1.0
 10
163.1196125643785
 20
123.4492912834574
 30
0.0
 10
163.0520533094603
 20
123.3815998906476
 30
0.0
 10
162.9884166541238
 20
123.306892725894
 30
0.0
 10
162.8781958995519
 20
123.1479265934673
 30
0.0
 10
162.8313796063293
 20
123.0635713274593
 30
0.0
 10
162.8038111409012
 20
122.9794567247676
 30
0.0
  0
SPLINE
  5
E5
330
1F
100
AcDbEntity
  8
0
  6
Continuous
 62
     7
370
    15
100
AcDbSpline
210
0.0
220
0.0
230
1.0
 70
     8
 71
     3
 72
     8
 73
     4
 74
     0
 42
0.00000001
 43
0.00000001
 40
0.0
 40
0.0
 40
0.0
 40
0.0
 40
1.0
 40
1.0
 40
1.0
 40
1.0
 10
162.9185670649959
 20
82.14541508820412
 30
0.0
 10
162.9542807233658
 20
82.02218358294434
 30
0.0
 10
163.0299487623141
 20
81.90124000599732
 30
0.0
 10
163.1196125643872
 20
81.79452096229407
 30
0.0
  0
SPLINE
  5
E6
330
1F
100
AcDbEntity
  8
0
  6
Continuous
 62
     7
370
    15
100
AcDbSpline
210
0.0
220
0.0
230
1.0
 70
     8
 71
     3
 72
    26
 73
    22
 74
     0
 42
0.00000001
 43
0.00000001
 40
0.0
 40
0.0
 40
0.0
 40
0.0
 40
0.2500000000000047
 40
0.2500000000000047
 40
0.375000000000008
 40
0.375000000000008
 40
0.437500000000009
 40
0.437500000000009
 40
0.468750000000009
 40
0.468750000000009
 40
0.5000000000000091
 40
0.5000000000000091
 40
0.5312500000000092
 40
0.5312500000000092
 40
0.5625000000000094
 40
0.5625000000000094
 40
0.6250000000000078
 40
0.6250000000000078
 40
0.7500000000000054
 40
0.7500000000000054
 40
1.0
 40
1.0
 40
1.0
 40
1.0
 10
162.0099351104053
 20
82.9992498309429
 30
0.0
 10
162.0206591437978
 20
83.10221087143186
 30
0.0
 10
162.0353921343924
 20
83.20120956091293
 30
0.0
 10
162.0877456936394
 20
83.31980524097807
 30
0.0
 10
162.109450976359
 20
83.35551554092685
 30
0.0
 10
162.1683064837244
 20
83.38049497374858
 30
0.0
 10
162.1917687175716
 20
83.38488042151215
 30
0.0
 10
162.2478900942322
 20
83.36512758806802
 30
0.0
 10
162.2706774043628
 20
83.3534711972576
 30
0.0
 10
162.325929956894
 20
83.31169084782036
 30
0.0
 10
162.3573361896349
 20
83.28141926044435
 30
0.0
 10
162.4122700102553
 20
83.21977686153036
 30
0.0
 10
162.4366938284548
 20
83.18833520922352
 30
0.0
 10
162.480108934442
 20
83.12860037180977
 30
0.0
 10
162.4996834970103
 20
83.09943536193713
 30
0.0
 10
162.5533161809583
 20
83.01560008620405
 30
0.0
 10
162.5830935290105
 20
82.96356746822785
 30
0.0
 10
162.6646275889833
 20
82.81250179426048
 30
0.0
 10
162.7078703836573
 20
82.71931075238975
 30
0.0
 10
162.820924973312
 20
82.45492421339539
 30
0.0
 10
162.8749359707912
 20
82.29596604434553
 30
0.0
 10
162.9185670649952
 20
82.14541508820469
 30
0.0
  0
SPLINE
  5
E7
330
1F
100
AcDbEntity
  8
0
  6
Continuous
 62
     7
370
    15
100
AcDbSpline
210
0.0
220
0.0
230
1.0
 70
     8
 71
     3
 72
    10
 73
     6
 74
     0
 42
0.00000001
 43
0.00000001
 40
0.0
 40
0.0
 40
0.0
 40
0.0
 40
0.5
 40
0.5
 40
1.0
 40
1.0
 40
1.0
 40
1.0
 10
219.8296574947967
 20
132.4357777149336
 30
0.0
 10
219.8296574947967
 20
132.5961829812844
 30
0.0
 10
219.7674196636899
 20
132.755244794273
 30
0.0
 10
219.5482847399473
 20
132.9861572599033
 30
0.0
 10
219.3906960449554
 20
133.056532864334
 30
0.0
 10
219.2296574947967
 20
133.056532864334
 30
0.0
  0
SPLINE
  5
E8
330
1F
100
AcDbEntity
  8
0
  6
Continuous
 62
     7
370
    15
100
AcDbSpline
210
0.0
220
0.0
230
1.0
 70
     8
 71
     3
 72
    12
 73
     8
 74
     0
 42
0.00000001
 43
0.00000001
 40
0.0
 40
0.0
 40
0.0
 40
0.0
 40
0.249999999999998
 40
0.249999999999998
 40
0.499999999999996
 40
0.499999999999996
 40
1.0
 40
1.0
 40
1.0
 40
1.0
 10
219.2296574947967
 20
127.0480270535372
 30
0.0
 10
219.3208572166224
 20
127.0480270535372
 30
0.0
 10
219.4114522257584
 20
127.0198073549493
 30
0.0
 10
219.564864952205
 20
126.9253643477012
 30
0.0
 10
219.6300738195287
 20
126.8590773709958
 30
0.0
 10
219.7828583488686
 20
126.6334525477075
 30
0.0
 10
219.8296574947967
 20
126.451026284675
 30
0.0
 10
219.8296574947967
 20
126.2702896524281
 30
0.0
  0
LINE
  5
E9
330
1F
100
AcDbEntity
  8
0
  6
Continuous
 62
     7
370
    15
100
AcDbLine
 10
219.8296574948
 20
126.2702896524
 30
0.0
 11
219.8296574948
 21
132.4357777149
 31
0.0
  0
LINE
  5
EA
330
1F
100
AcDbEntity
  8
0
  6
Continuous
 62
     7
370
    15
100
AcDbLine
 10
213.7896574948
 20
122.7252040226
 30
0.0
 11
213.7896574948
 21
123.6394810588
 31
0.0
  0
SPLINE
  5
EB
330
1F
100
AcDbEntity
  8
0
  6
Continuous
 62
     7
370
    15
100
AcDbSpline
210
0.0
220
0.0
230
1.0
 70
     8
 71
     3
 72
     8
 73
     4
 74
     0
 42
0.00000001
 43
0.00000001
 40
0.0
 40
0.0
 40
0.0
 40
0.0
 40
1.0
 40
1.0
 40
1.0
 40
1.0
 10
213.7896574947967
 20
123.639481058753
 30
0.0
 10
214.2689356453865
 20
124.7804922886056
 30
0.0
 10
214.7645034845265
 20
125.9168766993735
 30
0.0
 10
215.2715903262857
 20
127.0480270535372
 30
0.0
  0
LINE
  5
EC
330
1F
100
AcDbEntity
  8
0
  6
Continuous
 62
     7
370
    15
100
AcDbLine
 10
215.2715903263
 20
127.0480270535
 30
0.0
 11
219.2296574948
 21
127.0480270535
 31
0.0
  0
LINE
  5
ED
330
1F
100
AcDbEntity
  8
0
  6
Continuous
 62
     7
370
    15
100
AcDbLine
 10
219.8296574948
 20
126.2702896524
 30
0.0
 11
219.8296574948
 21
122.4393373912
 31
0.0
  0
LINE
  5
EE
330
1F
100
AcDbEntity
  8
0
  6
Continuous
 62
     7
370
    15
100
AcDbLine
 10
219.2296574948
 20
133.0565328643
 30
0.0
 11
215.2715903263
 21
133.0565328643
 31
0.0
  0
LINE
  5
EF
330
1F
100
AcDbEntity
  8
0
  6
Continuous
 62
     7
370
    15
100
AcDbLine
 10
215.2715903263
 20
127.0480270535
 30
0.0
 11
215.2715903263
 21
133.0565328643
 31
0.0
  0
SPLINE
  5
F0
330
1F
100
AcDbEntity
  8
0
  6
Continuous
 62
     7
370
    15
100
AcDbSpline
210
0.0
220
0.0
230
1.0
 70
     8
 71
     3
 72
     8
 73
     4
 74
     0
 42
0.00000001
 43
0.00000001
 40
0.0
 40
0.0
 40
0.0
 40
0.0
 40
1.0
 40
1.0
 40
1.0
 40
1.0
 10
215.2715903262857
 20
133.056532864334
 30
0.0
 10
214.7764502969214
 20
132.1698532161537
 30
0.0
 10
214.2823675916425
 20
131.2825905804677
 30
0.0
 10
213.7896574947967
 20
130.3945715823413
 30
0.0
  0
LINE
  5
F1
330
1F
100
AcDbEntity
  8
0
  6
Continuous
 62
     7
370
    15
100
AcDbLine
 10
213.7896574948
 20
123.6394810588
 30
0.0
 11
213.7896574948
 21
130.3945715823
 31
0.0
  0
SPLINE
  5
F2
330
1F
100
AcDbEntity
  8
0
  6
Continuous
 62
     7
370
    15
100
AcDbSpline
210
0.0
220
0.0
230
1.0
 70
     8
 71
     3
 72
     8
 73
     4
 74
     0
 42
0.00000001
 43
0.00000001
 40
0.0
 40
0.0
 40
0.0
 40
0.0
 40
1.0
 40
1.0
 40
1.0
 40
1.0
 10
209.9696574947967
 20
130.3945715823413
 30
0.0
 10
209.4769473979509
 20
131.2825905804677
 30
0.0
 10
208.982864692672
 20
132.1698532161537
 30
0.0
 10
208.4877246633077
 20
133.056532864334
 30
0.0
  0
SPLINE
  5
F3
330
1F
100
AcDbEntity
  8
0
  6
Continuous
 62
     7
370
    15
100
AcDbSpline
210
0.0
220
0.0
230
1.0
 70
     8
 71
     3
 72
     8
 73
     4
 74
     0
 42
0.00000001
 43
0.00000001
 40
0.0
 40
0.0
 40
0.0
 40
0.0
 40
1.0
 40
1.0
 40
1.0
 40
1.0
 10
208.4877246633077
 20
127.0480270535371
 30
0.0
 10
208.9948115050669
 20
125.9168766993735
 30
0.0
 10
209.4903793442069
 20
124.7804922886057
 30
0.0
 10
209.9696574947967
 20
123.6394810587531
 30
0.0
  0
LINE
  5
F4
330
1F
100
AcDbEntity
  8
0
  6
Continuous
 62
     7
370
    15
100
AcDbLine
 10
209.9696574948
 20
123.6394810588
 30
0.0
 11
209.9696574948
 21
130.3945715823
 31
0.0
  0
LINE
  5
F5
330
1F
100
AcDbEntity
  8
0
  6
Continuous
 62
     7
370
    15
100
AcDbLine
 10
209.9696574948
 20
123.6394810588
 30
0.0
 11
209.9696574948
 21
122.7252040226
 31
0.0
  0
LINE
  5
F6
330
1F
100
AcDbEntity
  8
0
  6
Continuous
 62
     7
370
    15
100
AcDbLine
 10
163.1296574948
 20
81.7768373912
 30
0.0
 11
163.1296574948
 21
81.7827058326
 31
0.0
  0
SPLINE
  5
F7
330
1F
100
AcDbEntity
  8
0
  6
Continuous
 62
     7
370
    15
100
AcDbSpline
210
0.0
220
0.0
230
1.0
 70
     8
 71
     3
 72
     8
 73
     4
 74
     0
 42
0.00000001
 43
0.00000001
 40
0.0
 40
0.0
 40
0.0
 40
0.0
 40
1.0
 40
1.0
 40
1.0
 40
1.0
 10
235.4836194226704
 20
128.6590939215945
 30
0.0
 10
235.3643343514551
 20
128.6113918993108
 30
0.0
 10
235.24055445029
 20
128.5876484909912
 30
0.0
 10
235.1123305068177
 20
128.5877367103177
 30
0.0
  0
SPLINE
  5
F8
330
1F
100
AcDbEntity
  8
0
  6
Continuous
 62
     7
370
    15
100
AcDbSpline
210
0.0
220
0.0
230
1.0
 70
     8
 71
     3
 72
     8
 73
     4
 74
     0
 42
0.00000001
 43
0.00000001
 40
0.0
 40
0.0
 40
0.0
 40
0.0
 40
1.0
 40
1.0
 40
1.0
 40
1.0
 10
235.1123305068177
 20
76.59093807202176
 30
0.0
 10
235.2405544502901
 20
76.59102629134821
 30
0.0
 10
235.3643343514553
 20
76.56728288302857
 30
0.0
 10
235.4836194226706
 20
76.5195808607449
 30
0.0
  0
LINE
  5
F9
330
1F
100
AcDbEntity
  8
0
  6
Continuous
 62
     7
370
    15
100
AcDbLine
 10
248.4381228728
 20
140.3374543884
 30
0.0
 11
246.1267662335
 21
140.2163213198
 31
0.0
  0
ARC
  5
FA
330
1F
100
AcDbEntity
  8
0
  6
Continuous
 62
     7
370
    15
100
AcDbCircle
 10
246.2061307016
 20
138.7019570544
 30
0.0
 40
1.516442497159272
100
AcDbArc
 50
93.0
 51
273.0
  0
LINE
  5
FB
330
1F
100
AcDbEntity
  8
0
  6
Continuous
 62
     7
370
    15
100
AcDbLine
 10
246.2854951698
 20
137.187592789
 30
0.0
 11
247.0490927382
 21
137.2276112418
 31
0.0
  0
LINE
  5
FC
330
1F
100
AcDbEntity
  8
0
  6
Continuous
 62
     7
370
    15
100
AcDbLine
 10
257.3327654396
 20
137.7296697718
 30
0.0
 11
255.8796574948
 21
135.4042109534
 31
0.0
  0
LINE
  5
FD
330
1F
100
AcDbEntity
  8
0
  6
Continuous
 62
     7
370
    15
100
AcDbLine
 10
255.8796574948
 20
135.4042109534
 30
0.0
 11
255.8796574948
 21
101.157072107
 31
0.0
  0
LINE
  5
FE
330
1F
100
AcDbEntity
  8
0
  6
Continuous
 62
     7
370
    15
100
AcDbLine
 10
255.8796574948
 20
101.157072107
 30
0.0
 11
237.9781039604
 21
75.5910041093
 31
0.0
  0
LINE
  5
FF
330
1F
100
AcDbEntity
  8
0
  6
Continuous
 62
     7
370
    15
100
AcDbLine
 10
237.9781039604
 20
75.5910041093
 30
0.0
 11
236.1476066872
 21
75.5910041093
 31
0.0
  0
LINE
  5
100
330
1F
100
AcDbEntity
  8
0
  6
Continuous
 62
     7
370
    15
100
AcDbLine
 10
236.1476066872
 20
75.5910041093
 30
0.0
 11
236.0782563331
 21
75.849839287
 31
0.0
  0
LINE
  5
101
330
1F
100
AcDbEntity
  8
0
  6
Continuous
 62
     7
370
    15
100
AcDbLine
 10
236.0782563331
 20
129.3288354953
 30
0.0
 11
240.5413748224
 21
145.986066376
 31
0.0
  0
LINE
  5
102
330
1F
100
AcDbEntity
  8
0
  6
Continuous
 62
     7
370
    15
100
AcDbLine
 10
240.5413748224
 20
145.986066376
 30
0.0
 11
252.3546279771
 21
146.60517274
 31
0.0
  0
SPLINE
  5
103
330
1F
100
AcDbEntity
  8
0
  6
Continuous
 62
     7
370
    15
100
AcDbSpline
210
0.0
220
0.0
230
1.0
 70
     8
 71
     3
 72
    10
 73
     6
 74
     0
 42
0.00000001
 43
0.00000001
 40
0.0
 40
0.0
 40
0.0
 40
0.0
 40
0.5
 40
0.5
 40
1.0
 40
1.0
 40
1.0
 40
1.0
 10
235.4836194226706
 20
76.5195808607449
 30
0.0
 10
235.6265205677861
 20
76.46243478589071
 30
0.0
 10
235.7581132841483
 20
76.37008844562044
 30
0.0
 10
235.9633208002063
 20
76.13852940552303
 30
0.0
 10
236.0384244974692
 20
75.99850307693379
 30
0.0
 10
236.0782563331068
 20
75.84983928700606
 30
0.0
  0
SPLINE
  5
104
330
1F
100
AcDbEntity
  8
0
  6
Continuous
 62
     7
370
    15
100
AcDbSpline
210
0.0
220
0.0
230
1.0
 70
     8
 71
     3
 72
    10
 73
     6
 74
     0
 42
0.00000001
 43
0.00000001
 40
0.0
 40
0.0
 40
0.0
 40
0.0
 40
0.5
 40
0.5
 40
1.0
 40
1.0
 40
1.0
 40
1.0
 10
236.0782563331068
 20
129.3288354953334
 30
0.0
 10
236.0380034334904
 20
129.1786001743457
 30
0.0
 10
235.9632382233625
 20
129.039849459251
 30
0.0
 10
235.757043474709
 20
128.8075830222278
 30
0.0
 10
235.6272365178338
 20
128.7165263044064
 30
0.0
 10
235.4836194226704
 20
128.6590939215944
 30
0.0
  0
LINE
  5
105
330
1F
100
AcDbEntity
  8
0
  6
Continuous
 62
     7
370
    15
100
AcDbLine
 10
246.2715506469
 20
137.453670136
 30
0.0
 11
246.8141938461
 21
137.482108861
 31
0.0
  0
LINE
  5
106
330
1F
100
AcDbEntity
  8
0
  6
Continuous
 62
     7
370
    15
100
AcDbLine
 10
246.1407107563
 20
139.9502439729
 30
0.0
 11
248.2657580316
 21
140.0616129814
 31
0.0
  0
ARC
  5
107
330
1F
100
AcDbEntity
  8
0
  6
Continuous
 62
     7
370
    15
100
AcDbCircle
 10
246.2061307016
 20
138.7019570544
 30
0.0
 40
1.25000000000001
100
AcDbArc
 50
93.0
 51
273.0
  0
CIRCLE
  5
108
330
1F
100
AcDbEntity
  8
0
  6
HIDDEN
 62
     7
370
     0
100
AcDbCircle
 10
255.2286641592
 20
142.3291308863
 30
0.0
 40
1.99999999999998
  0
CIRCLE
  5
109
330
1F
100
AcDbEntity
  8
0
  6
HIDDEN
 62
     7
370
     0
100
AcDbCircle
 10
255.2286641592
 20
142.3291308863
 30
0.0
 40
1.89999999999999
  0
CIRCLE
  5
10A
330
1F
100
AcDbEntity
  8
0
  6
HIDDEN
 62
     7
370
     0
100
AcDbCircle
 10
255.3391734637
 20
142.3942258414
 30
0.0
 40
2.199999999999993
  0
LINE
  5
10B
330
1F
100
AcDbEntity
  8
0
  6
HIDDEN
 62
     7
370
     0
100
AcDbLine
 10
252.8656568297
 20
146.5031238715
 30
0.0
 11
247.4629188664
 21
137.8569357575
 31
0.0
  0
LINE
  5
10C
330
1F
100
AcDbEntity
  8
0
  6
HIDDEN
 62
     7
370
     0
100
AcDbLine
 10
247.552286139
 20
137.7052202347
 30
0.0
 11
257.7337119955
 21
138.2388061537
 31
0.0
  0
LINE
  5
10D
330
1F
100
AcDbEntity
  8
0
  6
HIDDEN
 62
     7
370
     0
100
AcDbLine
 10
263.1260607884
 20
147.0832314481
 30
0.0
 11
252.9446349319
 21
146.5496455291
 31
0.0
  0
LINE
  5
10E
330
1F
100
AcDbEntity
  8
0
  6
HIDDEN
 62
     7
370
     0
100
AcDbLine
 10
257.8126900977
 20
138.2853278113
 30
0.0
 11
263.215428061
 21
146.9315159253
 31
0.0
  0
SPLINE
  5
10F
330
1F
100
AcDbEntity
  8
0
  6
HIDDEN
 62
     7
370
     0
100
AcDbSpline
210
0.0
220
0.0
230
1.0
 70
     8
 71
     3
 72
    10
 73
     6
 74
     0
 42
0.00000001
 43
0.00000001
 40
0.0
 40
0.0
 40
0.0
 40
0.0
 40
0.2657122957246675
 40
0.6165157621682262
 40
1.0
 40
1.0
 40
1.0
 40
1.0
 10
252.8656568296845
 20
146.5031238715268
 30
0.0
 10
252.8706557304275
 20
146.5099016123183
 30
0.0
 10
252.8822543698249
 20
146.5256275839693
 30
0.0
 10
252.9094397884732
 20
146.5439413853862
 30
0.0
 10
252.9325602123312
 20
146.5476885563417
 30
0.0
 10
252.944634931913
 20
146.5496455290509
 30
0.0
  0
SPLINE
  5
110
330
1F
100
AcDbEntity
  8
0
  6
HIDDEN
 62
     7
370
     0
100
AcDbSpline
210
0.0
220
0.0
230
1.0
 70
     8
 71
     3
 72
    10
 73
     6
 74
     0
 42
0.00000001
 43
0.00000001
 40
0.0
 40
0.0
 40
0.0
 40
0.0
 40
0.2657122957246602
 40
0.6165157621681484
 40
0.9999999999999999
 40
0.9999999999999999
 40
0.9999999999999999
 40
0.9999999999999999
 10
257.8126900976927
 20
138.2853278112619
 30
0.0
 10
257.8076911969497
 20
138.2785500704704
 30
0.0
 10
257.7960925575524
 20
138.2628240988195
 30
0.0
 10
257.768907138904
 20
138.2445102974025
 30
0.0
 10
257.7457867150461
 20
138.240763126447
 30
0.0
 10
257.7337119954642
 20
138.2388061537378
 30
0.0
  0
SPLINE
  5
111
330
1F
100
AcDbEntity
  8
0
  6
HIDDEN
 62
     7
370
     0
100
AcDbSpline
210
0.0
220
0.0
230
1.0
 70
     8
 71
     3
 72
    14
 73
    10
 74
     0
 42
0.00000001
 43
0.00000001
 40
0.0
 40
0.0
 40
0.0
 40
0.0
 40
0.1583203796596476
 40
0.3168008057739505
 40
0.4713744813487981
 40
0.6221259069005146
 40
0.772126273174391
 40
0.9245922366698884
 40
1.0
 40
1.0
 40
1.0
 40
1.0
 10
247.5522861389873
 20
137.7052202346649
 30
0.0
 10
247.5407545833832
 20
137.7057176365003
 30
0.0
 10
247.5176798148976
 20
137.7067129429958
 30
0.0
 10
247.4863987928202
 20
137.7225410091412
 30
0.0
 10
247.4626031891699
 20
137.7468889347257
 30
0.0
 10
247.4487186139696
 20
137.7774769763467
 30
0.0
 10
247.4458241196299
 20
137.8106061985771
 30
0.0
 10
247.4521815899102
 20
137.837803918527
 30
0.0
 10
247.4602491551309
 20
137.8521788262679
 30
0.0
 10
247.4629188663665
 20
137.8569357574681
 30
0.0
  0
SPLINE
  5
112
330
1F
100
AcDbEntity
  8
0
  6
HIDDEN
 62
     7
370
     0
100
AcDbSpline
210
0.0
220
0.0
230
1.0
 70
     8
 71
     3
 72
    14
 73
    10
 74
     0
 42
0.00000001
 43
0.00000001
 40
0.0
 40
0.0
 40
0.0
 40
0.0
 40
0.1583203796596747
 40
0.3168008057739731
 40
0.4713744813488162
 40
0.6221259069005283
 40
0.7721262731744003
 40
0.9245922366698621
 40
0.9999999999999999
 40
0.9999999999999999
 40
0.9999999999999999
 40
0.9999999999999999
 10
263.1260607883899
 20
147.0832314481238
 30
0.0
 10
263.137592343994
 20
147.0827340462884
 30
0.0
 10
263.1606671124796
 20
147.0817387397929
 30
0.0
 10
263.191948134557
 20
147.0659106736475
 30
0.0
 10
263.2157437382073
 20
147.041562748063
 30
0.0
 10
263.2296283134076
 20
147.010974706442
 30
0.0
 10
263.2325228077474
 20
146.9778454842117
 30
0.0
 10
263.2261653374671
 20
146.9506477642618
 30
0.0
 10
263.2180977722464
 20
146.9362728565208
 30
0.0
 10
263.2154280610107
 20
146.9315159253207
 30
0.0
  0
LINE
  5
113
330
1F
100
AcDbEntity
  8
0
  6
HIDDEN
 62
     7
370
     0
100
AcDbLine
 10
208.4877246633
 20
127.0480270535
 30
0.0
 11
208.4877246633
 21
122.4393373912
 31
0.0
  0
LINE
  5
114
330
1F
100
AcDbEntity
  8
0
  6
HIDDEN
 62
     7
370
     0
100
AcDbLine
 10
223.3410909651
 20
102.5893373912
 30
0.0
 11
223.3729965526
 21
102.7775093873
 31
0.0
  0
SPLINE
  5
115
330
1F
100
AcDbEntity
  8
0
  6
HIDDEN
 62
     7
370
     0
100
AcDbSpline
210
0.0
220
0.0
230
1.0
 70
     8
 71
     3
 72
    11
 73
     7
 74
     0
 42
0.00000001
 43
0.00000001
 40
0.0
 40
0.0
 40
0.0
 40
0.0
 40
0.0625042401708356
 40
0.3911287504138021
 40
0.7197449248585437
 40
1.0
 40
1.0
 40
1.0
 40
1.0
 10
223.4543559076492
 20
103.2573486082676
 30
0.0
 10
223.4619885136105
 20
103.3100082089337
 30
0.0
 10
223.5097505794145
 20
103.6395327939787
 30
0.0
 10
223.8646177693309
 20
104.1680166061717
 30
0.0
 10
224.4440553282757
 20
104.7316730188607
 30
0.0
 10
224.9394096766625
 20
104.8990799219019
 30
0.0
 10
225.1674144810003
 20
104.9761350205339
 30
0.0
  0
SPLINE
  5
116
330
1F
100
AcDbEntity
  8
0
  6
HIDDEN
 62
     7
370
     0
100
AcDbSpline
210
0.0
220
0.0
230
1.0
 70
     8
 71
     3
 72
    20
 73
    16
 74
     0
 42
0.00000001
 43
0.00000001
 40
0.0
 40
0.0
 40
0.0
 40
0.0
 40
0.0729114414683087
 40
0.1564863994378416
 40
0.2412193338690849
 40
0.3256812023063284
 40
0.4079724293592704
 40
0.4877200546542861
 40
0.5666632502077348
 40
0.6470935197675439
 40
0.7300766983177689
 40
0.8147749185126061
 40
0.89932294261965
 40
0.9825526002202635
 40
1.0
 40
1.0
 40
1.0
 40
1.0
 10
225.3789597410511
 20
105.0298091379895
 30
0.0
 10
225.6286972047755
 20
105.0613969452898
 30
0.0
 10
226.1646969836301
 20
105.1291923712341
 30
0.0
 10
226.9784433664305
 20
104.8844805915846
 30
0.0
 10
227.7029000297482
 20
104.3902988752675
 30
0.0
 10
228.2171532033584
 20
103.6776118761448
 30
0.0
 10
228.4531230861754
 20
102.8499693366047
 30
0.0
 10
228.3958154331414
 20
102.0105506924294
 30
0.0
 10
228.0677834147841
 20
101.244741899147
 30
0.0
 10
227.5028844907086
 20
100.6178158843174
 30
0.0
 10
226.7498373299257
 20
100.1967427442363
 30
0.0
 10
225.8799741269337
 20
100.036755074198
 30
0.0
 10
225.0242819368271
 20
100.1910259508443
 30
0.0
 10
224.4188294831104
 20
100.4645478885765
 30
0.0
 10
224.1963226320433
 20
100.7286083854265
 30
0.0
 10
224.1577620494705
 20
100.7743702419453
 30
0.0
  0
LINE
  5
117
330
1F
100
AcDbEntity
  8
0
  6
HIDDEN
 62
     7
370
     0
100
AcDbLine
 10
223.6949446554
 20
101.3251852896
 30
0.0
 11
223.5708716967
 21
101.6290053162
 31
0.0
  0
LINE
  5
118
330
1F
100
AcDbEntity
  8
0
  6
HIDDEN
 62
     7
370
     0
100
AcDbLine
 10
181.8748076994
 20
79.0647377683
 30
0.0
 11
181.6259428805
 21
79.0414748018
 31
0.0
  0
LINE
  5
119
330
1F
100
AcDbEntity
  8
0
  6
HIDDEN
 62
     7
370
     0
100
AcDbLine
 10
181.4933821192
 20
126.1494237194
 30
0.0
 11
181.8747149791
 21
126.1139204212
 31
0.0
  0
SPLINE
  5
11A
330
1F
100
AcDbEntity
  8
0
  6
HIDDEN
 62
     7
370
     0
100
AcDbSpline
210
0.0
220
0.0
230
1.0
 70
     8
 71
     3
 72
    12
 73
     8
 74
     0
 42
0.00000001
 43
0.00000001
 40
0.0
 40
0.0
 40
0.0
 40
0.0
 40
0.2208191707958344
 40
0.4480907828724416
 40
0.6689443312019324
 40
0.8961385487815386
 40
1.0
 40
1.0
 40
1.0
 40
1.0
 10
187.6346594963983
 20
122.4268658669862
 30
0.0
 10
187.7667027109426
 20
122.4439229547786
 30
0.0
 10
188.034647505613
 20
122.4785355465878
 30
0.0
 10
188.3298034990625
 20
122.5055074847306
 30
0.0
 10
188.5308961660967
 20
122.5210172396956
 30
0.0
 10
188.6282279607596
 20
122.5271264864662
 30
0.0
 10
188.6195694025378
 20
122.5265812362131
 30
0.0
 10
188.6168529699038
 20
122.5264101759114
 30
0.0
  0
SPLINE
  5
11B
330
1F
100
AcDbEntity
  8
0
  6
HIDDEN
 62
     7
370
     0
100
AcDbSpline
210
0.0
220
0.0
230
1.0
 70
     8
 71
     3
 72
    12
 73
     8
 74
     0
 42
0.00000001
 43
0.00000001
 40
0.0
 40
0.0
 40
0.0
 40
0.0
 40
0.1181004224280172
 40
0.3464926374774992
 40
0.5687551641164759
 40
0.7975157866299363
 40
1.0
 40
1.0
 40
1.0
 40
1.0
 10
188.6168528599547
 20
82.65226461343538
 30
0.0
 10
188.6189755316873
 20
82.65213058911318
 30
0.0
 10
188.6252031988876
 20
82.65173737764171
 30
0.0
 10
188.5205384944913
 20
82.65836062982163
 30
0.0
 10
188.3105648618298
 20
82.67476501012558
 30
0.0
 10
188.0151063937266
 20
82.70236672159969
 30
0.0
 10
187.756216951947
 20
82.73601152730348
 30
0.0
 10
187.6346594963983
 20
82.75180891535328
 30
0.0
  0
SPLINE
  5
11C
330
1F
100
AcDbEntity
  8
0
  6
HIDDEN
 62
     7
370
     0
100
AcDbSpline
210
0.0
220
0.0
230
1.0
 70
     8
 71
     3
 72
    22
 73
    18
 74
     0
 42
0.00000001
 43
0.00000001
 40
0.0
 40
0.0
 40
0.0
 40
0.0
 40
0.0694705033055669
 40
0.1409377255045835
 40
0.210413548914841
 40
0.2819466223559929
 40
0.3506518733998515
 40
0.4213897814436845
 40
0.4894670043894699
 40
0.5594810940348495
 40
0.6282706827033768
 40
0.6989997382187431
 40
0.7687375408512305
 40
0.8405098102584782
 40
0.909966618931815
 40
0.9814998892127911
 40
1.0
 40
1.0
 40
1.0
 40
1.0
 10
187.6346594963983
 20
82.75180891535328
 30
0.0
 10
187.4864856419389
 20
82.77153525516259
 30
0.0
 10
187.1858791250278
 20
82.81155490858336
 30
0.0
 10
186.6509842623471
 20
82.86692857211322
 30
0.0
 10
186.0653457096783
 20
82.91138495724104
 30
0.0
 10
185.451113050105
 20
82.9390699326932
 30
0.0
 10
184.8171964047367
 20
82.94732318616306
 30
0.0
 10
184.1950477041649
 20
82.9353431312826
 30
0.0
 10
183.5890502343043
 20
82.90459237752161
 30
0.0
 10
183.0245613131778
 20
82.85912640677142
 30
0.0
 10
182.5051850755961
 20
82.80304525497182
 30
0.0
 10
182.0523195779147
 20
82.74305509265342
 30
0.0
 10
181.673604434249
 20
82.68507517829451
 30
0.0
 10
181.3855193131739
 20
82.63615637014802
 30
0.0
 10
181.2030614166212
 20
82.60312100762225
 30
0.0
 10
181.1224034652872
 20
82.58798121136662
 30
0.0
 10
181.1366933439861
 20
82.5906531647396
 30
0.0
 10
181.1396296364581
 20
82.5912021992514
 30
0.0
  0
SPLINE
  5
11D
330
1F
100
AcDbEntity
  8
0
  6
HIDDEN
 62
     7
370
     0
100
AcDbSpline
210
0.0
220
0.0
230
1.0
 70
     8
 71
     3
 72
    22
 73
    18
 74
     0
 42
0.00000001
 43
0.00000001
 40
0.0
 40
0.0
 40
0.0
 40
0.0
 40
0.0499040281125891
 40
0.1203075863893551
 40
0.1885125365560139
 40
0.2586444168297198
 40
0.3277839407293165
 40
0.3988873214655109
 40
0.4686969488930349
 40
0.5405663748364763
 40
0.6097087891223019
 40
0.6809159691092508
 40
0.7490773369981721
 40
0.8192056085539703
 40
0.8876078379088262
 40
0.9579332867310437
 40
1.0
 40
1.0
 40
1.0
 40
1.0
 10
181.1396296364581
 20
122.5874725830881
 30
0.0
 10
181.1408805704836
 20
122.5872335526923
 30
0.0
 10
181.1438962960479
 20
122.5866573032176
 30
0.0
 10
181.2687896231014
 20
122.5634592683942
 30
0.0
 10
181.493271450979
 20
122.5237792320765
 30
0.0
 10
181.8122996131565
 20
122.4715678106773
 30
0.0
 10
182.2198348441532
 20
122.4122379990051
 30
0.0
 10
182.7016213979861
 20
122.3527632224891
 30
0.0
 10
183.2520410797814
 20
122.2991568661271
 30
0.0
 10
183.8449359657296
 20
122.2586829476527
 30
0.0
 10
184.4718885360468
 20
122.2354836992864
 30
0.0
 10
185.1000995098748
 20
122.2325055960715
 30
0.0
 10
185.7243596023519
 20
122.2496399217708
 30
0.0
 10
186.3169778921801
 20
122.2843257774609
 30
0.0
 10
186.8738039757083
 20
122.3332821411247
 30
0.0
 10
187.3116108203412
 20
122.3831823057479
 30
0.0
 10
187.5466775271141
 20
122.4149686947396
 30
0.0
 10
187.6346594963983
 20
122.4268658669862
 30
0.0
  0
LINE
  5
11E
330
1F
100
AcDbEntity
  8
0
  6
HIDDEN
 62
     7
370
     0
100
AcDbLine
 10
174.883632091
 20
85.5893373912
 30
0.0
 11
174.883632091
 21
119.5893373912
 31
0.0
  0
LWPOLYLINE
  5
11F
330
1F
100
AcDbEntity
  8
0
  6
HIDDEN
 62
     7
370
     0
100
AcDbPolyline
 90
       16
 70
   128
 43
0.0
 10
216.6621814755
 20
103.2645330619
 10
216.7703795479
 20
103.3676066375
 10
216.9828531193
 20
103.3583763032
 10
217.2839486794
 20
103.2375220831
 10
217.6514836934
 20
103.0139476387
 10
218.0583808498
 20
102.704124312
 10
218.4746629202
 20
102.3308776362
 10
218.8696612639
 20
101.9217057167
 10
219.2142752707
 20
101.5067533699
 10
219.4831162825
 20
101.116591272
 10
219.6563780453
 20
100.7799637339
 10
219.7212958904
 20
100.5216710286
 10
219.6730871422
 20
100.3607422874
 10
219.5153034713
 20
100.3090335716
 10
219.259569233
 20
100.370354404
 10
218.9247250695
 20
100.5401871108
  0
SPLINE
  5
120
330
1F
100
AcDbEntity
  8
0
  6
HIDDEN
 62
     7
370
     0
100
AcDbSpline
210
0.0
220
0.0
230
1.0
 70
     8
 71
     3
 72
    26
 73
    22
 74
     0
 42
0.00000001
 43
0.00000001
 40
0.0
 40
0.0
 40
0.0
 40
0.0
 40
0.1250000000000017
 40
0.1250000000000017
 40
0.2500000000000034
 40
0.2500000000000034
 40
0.3125000000000031
 40
0.3125000000000031
 40
0.3750000000000027
 40
0.3750000000000027
 40
0.4375000000000023
 40
0.4375000000000023
 40
0.500000000000002
 40
0.500000000000002
 40
0.6250000000000014
 40
0.6250000000000014
 40
0.750000000000001
 40
0.750000000000001
 40
0.8750000000000004
 40
0.8750000000000004
 40
1.0
 40
1.0
 40
1.0
 40
1.0
 10
218.7509162196803
 20
100.5546532878717
 30
0.0
 10
218.5973870286298
 20
100.5966773153473
 30
0.0
 10
218.4432226282833
 20
100.6379807529884
 30
0.0
 10
218.1350117073125
 20
100.7245504513771
 30
0.0
 10
217.9800504424091
 20
100.769139173444
 30
0.0
 10
217.7556499163958
 20
100.8570536775613
 30
0.0
 10
217.6827655678937
 20
100.8899672791
 30
0.0
 10
217.5440834952464
 20
100.9697965055634
 30
0.0
 10
217.4772790905854
 20
101.0180413224423
 30
0.0
 10
217.3617512173037
 20
101.1296505595571
 30
0.0
 10
217.3124580097632
 20
101.1932042555017
 30
0.0
 10
217.2301496456537
 20
101.3304993980065
 30
0.0
 10
217.1978717232058
 20
101.4020337840376
 30
0.0
 10
217.1153870474936
 20
101.6219453174672
 30
0.0
 10
217.078967695203
 20
101.7754343430807
 30
0.0
 10
217.007755342392
 20
102.0846865719158
 30
0.0
 10
216.9721455101706
 20
102.2438275112568
 30
0.0
 10
216.8901754562342
 20
102.5546063555659
 30
0.0
 10
216.8459042075991
 20
102.7020210591084
 30
0.0
 10
216.7548135222534
 20
102.9888017414884
 30
0.0
 10
216.7082025014143
 20
103.1281704136806
 30
0.0
 10
216.6621814755205
 20
103.2645330619477
 30
0.0
  0
SPLINE
  5
121
330
1F
100
AcDbEntity
  8
0
  6
HIDDEN
 62
     7
370
     0
100
AcDbSpline
210
0.0
220
0.0
230
1.0
 70
     8
 71
     3
 72
     8
 73
     4
 74
     0
 42
0.00000001
 43
0.00000001
 40
0.0
 40
0.0
 40
0.0
 40
0.0
 40
1.0
 40
1.0
 40
1.0
 40
1.0
 10
218.9247250694745
 20
100.5401871107568
 30
0.0
 10
218.8725757068576
 20
100.5358128530072
 30
0.0
 10
218.8239012518265
 20
100.532560109884
 30
0.0
 10
218.7865876840659
 20
100.5317075062534
 30
0.0
  0
SPLINE
  5
122
330
1F
100
AcDbEntity
  8
0
  6
HIDDEN
 62
     7
370
     0
100
AcDbSpline
210
0.0
220
0.0
230
1.0
 70
     8
 71
     3
 72
     9
 73
     5
 74
     0
 42
0.00000001
 43
0.00000001
 40
0.0
 40
0.0
 40
0.0
 40
0.0
 40
0.6942364852565025
 40
0.9999999999999999
 40
0.9999999999999999
 40
0.9999999999999999
 40
0.9999999999999999
 10
218.7579151039277
 20
100.5392741049882
 30
0.0
 10
218.7433418180853
 20
100.5395648912823
 30
0.0
 10
218.7223500002367
 20
100.5399837489775
 30
0.0
 10
218.7442270240018
 20
100.5512182020225
 30
0.0
 10
218.7509162196803
 20
100.5546532878717
 30
0.0
  0
SPLINE
  5
123
330
1F
100
AcDbEntity
  8
0
  6
HIDDEN
 62
     7
370
     0
100
AcDbSpline
210
0.0
220
0.0
230
1.0
 70
     8
 71
     3
 72
    12
 73
     8
 74
     0
 42
0.00000001
 43
0.00000001
 40
0.0
 40
0.0
 40
0.0
 40
0.0
 40
0.2500000000000001
 40
0.2500000000000001
 40
0.5000000000000001
 40
0.5000000000000001
 40
1.0
 40
1.0
 40
1.0
 40
1.0
 10
216.6621814755205
 20
103.2645330619477
 30
0.0
 10
216.7682654490698
 20
103.3879046921811
 30
0.0
 10
216.8808882605189
 20
103.5072438970197
 30
0.0
 10
217.1156209555389
 20
103.7442971195591
 30
0.0
 10
217.2388226618231
 20
103.8633012759356
 30
0.0
 10
217.6069016856638
 20
104.218655753409
 30
0.0
 10
217.8443607271982
 20
104.4503249246486
 30
0.0
 10
218.0764176441505
 20
104.6828270529424
 30
0.0
  0
LINE
  5
124
330
1F
100
AcDbEntity
  8
0
  6
HIDDEN
 62
     7
370
     0
100
AcDbLine
 10
218.0764176441
 20
104.6828270529
 30
0.0
 11
218.0739777473
 21
104.6777936817
 31
0.0
  0
SPLINE
  5
125
330
1F
100
AcDbEntity
  8
0
  6
HIDDEN
 62
     7
370
     0
100
AcDbSpline
210
0.0
220
0.0
230
1.0
 70
     8
 71
     3
 72
    34
 73
    30
 74
     0
 42
0.00000001
 43
0.00000001
 40
0.0
 40
0.0
 40
0.0
 40
0.0
 40
0.0625000000000001
 40
0.0625000000000001
 40
0.1250000000000002
 40
0.1250000000000002
 40
0.2499999999999994
 40
0.2499999999999994
 40
0.3124999999999996
 40
0.3124999999999996
 40
0.3749999999999998
 40
0.3749999999999998
 40
0.4375000000000001
 40
0.4375000000000001
 40
0.4687500000000003
 40
0.4687500000000003
 40
0.5000000000000004
 40
0.5000000000000004
 40
0.6250000000000003
 40
0.6250000000000003
 40
0.7500000000000001
 40
0.7500000000000001
 40
0.8125000000000001
 40
0.8125000000000001
 40
0.8750000000000001
 40
0.8750000000000001
 40
0.9375000000000001
 40
0.9375000000000001
 40
1.0
 40
1.0
 40
1.0
 40
1.0
 10
218.0712554446064
 20
104.6721777228015
 30
0.0
 10
218.1028088206239
 20
104.6723159378414
 30
0.0
 10
218.1614151048804
 20
104.6764159030673
 30
0.0
 10
218.3136753799917
 20
104.6850691967684
 30
0.0
 10
218.4056658292605
 20
104.6892924963867
 30
0.0
 10
218.7106832497975
 20
104.6894260966147
 30
0.0
 10
218.9568700460816
 20
104.673316756105
 30
0.0
 10
219.3557279931912
 20
104.5773357820825
 30
0.0
 10
219.4964612067621
 20
104.5325216353798
 30
0.0
 10
219.7792684871124
 20
104.4079029922839
 30
0.0
 10
219.9242545628586
 20
104.3264239126226
 30
0.0
 10
220.194940113105
 20
104.1216281988827
 30
0.0
 10
220.3222477453239
 20
103.9958234153778
 30
0.0
 10
220.47639050039
 20
103.7884733790289
 30
0.0
 10
220.5228192533238
 20
103.7149500791952
 30
0.0
 10
220.6017210930583
 20
103.566626665286
 30
0.0
 10
220.6346688986786
 20
103.4914204093229
 30
0.0
 10
220.7705137114837
 20
103.1102032282802
 30
0.0
 10
220.7817236037435
 20
102.811954887846
 30
0.0
 10
220.6962196131754
 20
102.2562881034644
 30
0.0
 10
220.597892942012
 20
101.9909810990125
 30
0.0
 10
220.3784794039668
 20
101.610496213877
 30
0.0
 10
220.2929690421986
 20
101.4858783090223
 30
0.0
 10
220.0863266368679
 20
101.236295464696
 30
0.0
 10
219.9695694882408
 20
101.1167259986089
 30
0.0
 10
219.7009227496474
 20
100.8931514043308
 30
0.0
 10
219.5569726108235
 20
100.7961156521205
 30
0.0
 10
219.2476631773474
 20
100.6370229641169
 30
0.0
 10
219.0891488182194
 20
100.5783809265226
 30
0.0
 10
218.9247250694745
 20
100.5401871107568
 30
0.0
  0
SPLINE
  5
126
330
1F
100
AcDbEntity
  8
0
  6
HIDDEN
 62
     7
370
     0
100
AcDbSpline
210
0.0
220
0.0
230
1.0
 70
     8
 71
     3
 72
    62
 73
    58
 74
     0
 42
0.00000001
 43
0.00000001
 40
-0.0312499999999998
 40
-0.0312499999999998
 40
0.0
 40
0.0
 40
0.0312499999999996
 40
0.0312499999999996
 40
0.0624999999999992
 40
0.0624999999999992
 40
0.1249999999999988
 40
0.1249999999999988
 40
0.1562499999999986
 40
0.1562499999999986
 40
0.1874999999999984
 40
0.1874999999999984
 40
0.2187499999999982
 40
0.2187499999999982
 40
0.249999999999998
 40
0.249999999999998
 40
0.2812499999999978
 40
0.2812499999999978
 40
0.3124999999999976
 40
0.3124999999999976
 40
0.3749999999999979
 40
0.3749999999999979
 40
0.4062499999999981
 40
0.4062499999999981
 40
0.4374999999999982
 40
0.4374999999999982
 40
0.4687499999999984
 40
0.4687499999999984
 40
0.4999999999999986
 40
0.4999999999999986
 40
0.5312499999999988
 40
0.5312499999999988
 40
0.5624999999999989
 40
0.5624999999999989
 40
0.5937499999999991
 40
0.5937499999999991
 40
0.6249999999999992
 40
0.6249999999999992
 40
0.6874999999999997
 40
0.6874999999999997
 40
0.7187500000000001
 40
0.7187500000000001
 40
0.7500000000000007
 40
0.7500000000000007
 40
0.812500000000001
 40
0.812500000000001
 40
0.8437500000000009
 40
0.8437500000000009
 40
0.8750000000000007
 40
0.8750000000000007
 40
0.9062500000000006
 40
0.9062500000000006
 40
0.9375000000000004
 40
0.9375000000000004
 40
0.9687500000000002
 40
0.9687500000000002
 40
1.0
 40
1.0
 40
1.03125
 40
1.03125
 10
218.4221867924412
 20
102.4469350484699
 30
0.0
 10
218.4221867924412
 20
102.7317397338695
 30
0.0
 10
218.4380080159184
 20
102.8709928907028
 30
0.0
 10
218.4990596227095
 20
103.143687133152
 30
0.0
 10
218.5450901950862
 20
103.2781582917373
 30
0.0
 10
218.7193145271428
 20
103.6551557468259
 30
0.0
 10
218.8863680236133
 20
103.879750856743
 30
0.0
 10
219.1850598892886
 20
104.1588526188429
 30
0.0
 10
219.2942954538655
 20
104.2437563007728
 30
0.0
 10
219.5239879482696
 20
104.3918286524443
 30
0.0
 10
219.6447388370862
 20
104.4555583533847
 30
0.0
 10
219.8989559124055
 20
104.5623787548001
 30
0.0
 10
220.0334868020887
 20
104.60549618139
 30
0.0
 10
220.3057961571466
 20
104.6659380982802
 30
0.0
 10
220.4446644218943
 20
104.6839124298292
 30
0.0
 10
220.7285740128562
 20
104.6926839880218
 30
0.0
 10
220.8691596403487
 20
104.6831953051276
 30
0.0
 10
221.1440536494862
 20
104.6366103161186
 30
0.0
 10
221.2806310615956
 20
104.5987484483595
 30
0.0
 10
221.6669463635684
 20
104.4461664937978
 30
0.0
 10
221.8982690854355
 20
104.2909412774901
 30
0.0
 10
222.1827988952284
 20
104.0005950977351
 30
0.0
 10
222.2688187570327
 20
103.892678146445
 30
0.0
 10
222.4171503943753
 20
103.6626730739419
 30
0.0
 10
222.4796488648356
 20
103.5409687272565
 30
0.0
 10
222.5818629627146
 20
103.283708665309
 30
0.0
 10
222.621347895237
 20
103.1475014986112
 30
0.0
 10
222.6734550400627
 20
102.8733451590852
 30
0.0
 10
222.6868106336521
 20
102.7339078802605
 30
0.0
 10
222.6871433785018
 20
102.4500769389344
 30
0.0
 10
222.6739834750069
 20
102.3094948579135
 30
0.0
 10
222.6223365880279
 20
102.0350301636422
 30
0.0
 10
222.5831865728017
 20
101.8989925632256
 30
0.0
 10
222.4812313742479
 20
101.6410134382748
 30
0.0
 10
222.4188315963859
 20
101.5190156572176
 30
0.0
 10
222.2706988018644
 20
101.2885144637847
 30
0.0
 10
222.1849065127813
 20
101.1805749902203
 30
0.0
 10
221.9013838741407
 20
100.8902359401988
 30
0.0
 10
221.6696428443098
 20
100.7343665292093
 30
0.0
 10
221.2865888569978
 20
100.5818940927896
 30
0.0
 10
221.1500768497502
 20
100.5434572108717
 30
0.0
 10
220.8735566561055
 20
100.4958663525782
 30
0.0
 10
220.7337817106936
 20
100.4862203956836
 30
0.0
 10
220.3100196161319
 20
100.4981652890955
 30
0.0
 10
220.030642926363
 20
100.5614091346505
 30
0.0
 10
219.6472603127339
 20
100.7218375268469
 30
0.0
 10
219.5259484622884
 20
100.7857071808804
 30
0.0
 10
219.2953183991835
 20
100.9341357352531
 30
0.0
 10
219.1861529528511
 20
101.0189458706355
 30
0.0
 10
218.9873892824555
 20
101.2043850502147
 30
0.0
 10
218.8966853014691
 20
101.3056319659923
 30
0.0
 10
218.7337271398841
 20
101.5273580492705
 30
0.0
 10
218.6623006204978
 20
101.6472790417332
 30
0.0
 10
218.5460192931937
 20
101.8981229066112
 30
0.0
 10
218.4999715969522
 20
102.0316488280317
 30
0.0
 10
218.4380531430187
 20
102.3067570028323
 30
0.0
 10
218.4221867924412
 20
102.4469350484699
 30
0.0
 10
218.4221867924412
 20
102.7317397338695
 30
0.0
  0
ARC
  5
127
330
1F
100
AcDbEntity
  8
0
  6
HIDDEN
 62
     7
370
     0
100
AcDbCircle
 10
218.2599615541
 20
102.5936263878
 30
0.0
 40
2.097247669210946
100
AcDbArc
 50
95.0207528349
 51
283.5382673131
  0
LINE
  5
128
330
1F
100
AcDbEntity
  8
0
  6
HIDDEN
 62
     7
370
     0
100
AcDbLine
 10
201.5394834633
 20
85.5893373912
 30
0.0
 11
201.5394834633
 21
119.5893373912
 31
0.0
  0
LINE
  5
129
330
1F
100
AcDbEntity
  8
0
  6
HIDDEN
 62
     7
370
     0
100
AcDbLine
 10
203.8296574948
 20
86.8643373912
 30
0.0
 11
203.8296574948
 21
118.314337378
 31
0.0
  0
SPLINE
  5
12A
330
1F
100
AcDbEntity
  8
0
  6
HIDDEN
 62
     7
370
     0
100
AcDbSpline
210
0.0
220
0.0
230
1.0
 70
     8
 71
     3
 72
    18
 73
    14
 74
     0
 42
0.00000001
 43
0.00000001
 40
0.0
 40
0.0
 40
0.0
 40
0.0
 40
0.2500000000000009
 40
0.2500000000000009
 40
0.3750000000000007
 40
0.3750000000000007
 40
0.5000000000000006
 40
0.5000000000000006
 40
0.6250000000000003
 40
0.6250000000000003
 40
0.7500000000000001
 40
0.7500000000000001
 40
1.0
 40
1.0
 40
1.0
 40
1.0
 10
168.0796574947967
 20
118.8768510135739
 30
0.0
 10
168.0796574947967
 20
118.8223764930217
 30
0.0
 10
168.0447468034045
 20
118.7659954336692
 30
0.0
 10
167.9427375020715
 20
118.6819185928157
 30
0.0
 10
167.9011011473934
 20
118.6545848888248
 30
0.0
 10
167.8026953519046
 20
118.6016309732258
 30
0.0
 10
167.7451521402004
 20
118.5757436195086
 30
0.0
 10
167.6178539666274
 20
118.5279660746753
 30
0.0
 10
167.5482666618699
 20
118.5060181564975
 30
0.0
 10
167.396832416715
 20
118.4665855915847
 30
0.0
 10
167.314148513621
 20
118.4490293423589
 30
0.0
 10
167.0580370515829
 20
118.4065905769384
 30
0.0
 10
166.870122047695
 20
118.3908278272014
 30
0.0
 10
166.6796574947967
 20
118.3908278272014
 30
0.0
  0
LINE
  5
12B
330
1F
100
AcDbEntity
  8
0
  6
HIDDEN
 62
     7
370
     0
100
AcDbLine
 10
166.6796574948
 20
118.3908278272
 30
0.0
 11
163.1296574948
 21
118.3908278272
 31
0.0
  0
LINE
  5
12C
330
1F
100
AcDbEntity
  8
0
  6
HIDDEN
 62
     7
370
     0
100
AcDbLine
 10
163.1296574948
 20
86.7878469551
 30
0.0
 11
170.6796574948
 21
86.7878469551
 31
0.0
  0
SPLINE
  5
12D
330
1F
100
AcDbEntity
  8
0
  6
HIDDEN
 62
     7
370
     0
100
AcDbSpline
210
0.0
220
0.0
230
1.0
 70
     8
 71
     3
 72
    16
 73
    12
 74
     0
 42
0.00000001
 43
0.00000001
 40
0.0
 40
0.0
 40
0.0
 40
0.0
 40
0.1249999999999988
 40
0.1249999999999988
 40
0.2499999999999977
 40
0.2499999999999977
 40
0.4999999999999984
 40
0.4999999999999984
 40
0.7499999999999992
 40
0.7499999999999992
 40
1.0
 40
1.0
 40
1.0
 40
1.0
 10
170.6796574947967
 20
86.78784695513806
 30
0.0
 10
170.7747792494625
 20
86.78784695513806
 30
0.0
 10
170.8681093181906
 20
86.78403112174527
 30
0.0
 10
171.0513710789286
 20
86.76926056901546
 30
0.0
 10
171.1422487944856
 20
86.75810252103989
 30
0.0
 10
171.3990504920054
 20
86.71563125089817
 30
0.0
 10
171.5541178568774
 20
86.67458505369535
 30
0.0
 10
171.807864318432
 20
86.57943893711347
 30
0.0
 10
171.9087347700998
 20
86.52467620303189
 30
0.0
 10
172.0439811847947
 20
86.413415079128
 30
0.0
 10
172.0796574947967
 20
86.35624534179934
 30
0.0
 10
172.0796574947967
 20
86.3018237687656
 30
0.0
  0
LINE
  5
12E
330
1F
100
AcDbEntity
  8
0
  6
HIDDEN
 62
     7
370
     0
100
AcDbLine
 10
163.1296574948
 20
86.7878469551
 30
0.0
 11
163.1296574948
 21
118.3908278272
 31
0.0
  0
LINE
  5
12F
330
1F
100
AcDbEntity
  8
0
  6
HIDDEN
 62
     7
370
     0
100
AcDbLine
 10
163.1296574948
 20
84.5993373912
 30
0.0
 11
163.1296574948
 21
81.7827058326
 31
0.0
  0
LINE
  5
130
330
1F
100
AcDbEntity
  8
0
  6
HIDDEN
 62
     7
370
     0
100
AcDbLine
 10
172.0796574948
 20
84.5993373912
 30
0.0
 11
172.0796574948
 21
80.6441891319
 31
0.0
  0
LINE
  5
131
330
1F
100
AcDbEntity
  8
0
  6
HIDDEN
 62
     7
370
     0
100
AcDbLine
 10
163.1296574948
 20
120.5793373912
 30
0.0
 11
163.1296574948
 21
123.4592751566
 31
0.0
  0
LINE
  5
132
330
1F
100
AcDbEntity
  8
0
  6
HIDDEN
 62
     7
370
     0
100
AcDbLine
 10
168.0796574948
 20
120.5793373912
 30
0.0
 11
168.0796574948
 21
124.4334450635
 31
0.0
  0
LINE
  5
133
330
1F
100
AcDbEntity
  8
0
  6
HIDDEN
 62
     7
370
     0
100
AcDbLine
 10
213.1796574948
 20
93.0893373912
 30
0.0
 11
213.1796574948
 21
112.0893373912
 31
0.0
  0
LINE
  5
134
330
1F
100
AcDbEntity
  8
0
  6
HIDDEN
 62
     7
370
     0
100
AcDbLine
 10
215.6796574948
 20
93.0893373912
 30
0.0
 11
215.6796574948
 21
112.0893373912
 31
0.0
  0
LINE
  5
135
330
1F
100
AcDbEntity
  8
0
  6
HIDDEN
 62
     7
370
     0
100
AcDbLine
 10
204.3296574948
 20
94.0893373912
 30
0.0
 11
204.3296574948
 21
111.0893373912
 31
0.0
  0
LINE
  5
136
330
1F
100
AcDbEntity
  8
0
  6
HIDDEN
 62
     7
370
     0
100
AcDbLine
 10
219.8296574948
 20
76.1893373912
 30
0.0
 11
213.6919826925
 21
76.1893373912
 31
0.0
  0
LINE
  5
137
330
1F
100
AcDbEntity
  8
0
  6
HIDDEN
 62
     7
370
     0
100
AcDbLine
 10
210.0673322971
 20
76.1893373912
 30
0.0
 11
206.8296574948
 21
76.1893373912
 31
0.0
  0
LINE
  5
138
330
1F
100
AcDbEntity
  8
0
  6
HIDDEN
 62
     7
370
     0
100
AcDbLine
 10
198.8296574948
 20
71.1052144083
 30
0.0
 11
198.8296574948
 21
76.1893373912
 31
0.0
  0
LINE
  5
139
330
1F
100
AcDbEntity
  8
0
  6
HIDDEN
 62
     7
370
     0
100
AcDbLine
 10
206.8296574948
 20
76.1893373912
 30
0.0
 11
198.8296574948
 21
76.1893373912
 31
0.0
  0
LINE
  5
13A
330
1F
100
AcDbEntity
  8
0
  6
HIDDEN
 62
     7
370
     0
100
AcDbLine
 10
219.8296574948
 20
128.9893373912
 30
0.0
 11
213.3953599631
 21
128.9893373912
 31
0.0
  0
LINE
  5
13B
330
1F
100
AcDbEntity
  8
0
  6
HIDDEN
 62
     7
370
     0
100
AcDbLine
 10
210.3639550265
 20
128.9893373912
 30
0.0
 11
206.8296574948
 21
128.9893373912
 31
0.0
  0
LINE
  5
13C
330
1F
100
AcDbEntity
  8
0
  6
HIDDEN
 62
     7
370
     0
100
AcDbLine
 10
206.8296574948
 20
128.9893373912
 30
0.0
 11
198.8296574948
 21
128.9893373912
 31
0.0
  0
ELLIPSE
  5
13D
330
1F
100
AcDbEntity
  8
0
  6
HIDDEN
 62
     7
370
     0
100
AcDbEllipse
 10
157.8122256305
 20
102.5893373912
 30
0.0
 11
20.07002071827051
 21
-2.842170943040401E-14
 31
0.0
210
0.0
220
0.0
230
1.0
 40
0.8164965809
 41
4.921555463185702
 42
4.980534842098401
  0
ELLIPSE
  5
13E
330
1F
100
AcDbEntity
  8
0
  6
HIDDEN
 62
     7
370
     0
100
AcDbEllipse
 10
157.8122256305
 20
102.5893373912
 30
0.0
 11
20.07002071827051
 21
-1.421085471520200E-14
 31
0.0
210
0.0
220
0.0
230
1.0
 40
0.8164965809
 41
1.302650465081199
 42
1.361629843993899
  0
LINE
  5
13F
330
1F
100
AcDbEntity
  8
0
  6
HIDDEN
 62
     7
370
     0
100
AcDbLine
 10
172.0796574948
 20
84.5993373912
 30
0.0
 11
172.0796574948
 21
86.3018237688
 31
0.0
  0
LINE
  5
140
330
1F
100
AcDbEntity
  8
0
  6
HIDDEN
 62
     7
370
     0
100
AcDbLine
 10
163.1296574948
 20
84.5993373912
 30
0.0
 11
163.1296574948
 21
86.7878469551
 31
0.0
  0
LINE
  5
141
330
1F
100
AcDbEntity
  8
0
  6
HIDDEN
 62
     7
370
     0
100
AcDbLine
 10
163.1296574948
 20
120.5793373912
 30
0.0
 11
163.1296574948
 21
118.3908278272
 31
0.0
  0
LINE
  5
142
330
1F
100
AcDbEntity
  8
0
  6
HIDDEN
 62
     7
370
     0
100
AcDbLine
 10
168.0796574948
 20
120.5793373912
 30
0.0
 11
168.0796574948
 21
118.8768510136
 31
0.0
  0
SPLINE
  5
143
330
1F
100
AcDbEntity
  8
0
  6
HIDDEN
 62
     7
370
     0
100
AcDbSpline
210
0.0
220
0.0
230
1.0
 70
     8
 71
     3
 72
    20
 73
    16
 74
     0
 42
0.00000001
 43
0.00000001
 40
0.0
 40
0.0
 40
0.0
 40
0.0
 40
0.1118594124723677
 40
0.1773788790590906
 40
0.2490007345382736
 40
0.3297495166085886
 40
0.3985222007509095
 40
0.4998023561592812
 40
0.6137679503410439
 40
0.6789341496234232
 40
0.7494609450581856
 40
0.8296072382929355
 40
0.8980511945117945
 40
0.9994620241451472
 40
1.0
 40
1.0
 40
1.0
 40
1.0
 10
188.6282855483221
 20
78.98940034059841
 30
0.0
 10
188.5849916821636
 20
79.0028193713747
 30
0.0
 10
188.5163392792983
 20
79.02409833739594
 30
0.0
 10
188.071312718892
 20
79.12737303062009
 30
0.0
 10
187.5447625311397
 20
79.24067455592333
 30
0.0
 10
186.8593351014141
 20
79.3636079319744
 30
0.0
 10
185.9660183217769
 20
79.48564225672038
 30
0.0
 10
184.8526587591459
 20
79.60337862606012
 30
0.0
 10
183.7418845165998
 20
79.61535406890872
 30
0.0
 10
182.8571367587412
 20
79.58829588654469
 30
0.0
 10
182.1899381469313
 20
79.54036343858782
 30
0.0
 10
181.6486739173899
 20
79.48407149504565
 30
0.0
 10
181.2610625115491
 20
79.43898262207408
 30
0.0
 10
181.0671525942572
 20
79.40011362711236
 30
0.0
 10
181.1303391767106
 20
79.41083476964526
 30
0.0
 10
181.130672607353
 20
79.41089134427398
 30
0.0
  0
LINE
  5
144
330
1F
100
AcDbEntity
  8
0
  6
HIDDEN
 62
     7
370
     0
100
AcDbLine
 10
182.0396694073
 20
79.5216755346
 30
0.0
 11
182.2235147203
 21
79.5398648771
 31
0.0
  0
SPLINE
  5
145
330
1F
100
AcDbEntity
  8
0
  6
HIDDEN
 62
     7
370
     0
100
AcDbSpline
210
0.0
220
0.0
230
1.0
 70
     8
 71
     3
 72
    27
 73
    23
 74
     0
 42
0.00000001
 43
0.00000001
 40
0.0
 40
0.0
 40
0.0
 40
0.0
 40
0.0008062562784629
 40
0.0456887435567096
 40
0.1022703787380507
 40
0.1705484322125664
 40
0.2091400836019392
 40
0.2506673003128257
 40
0.3211130397670601
 40
0.3862067391701943
 40
0.4266858672108087
 40
0.4648170996010134
 40
0.5006213971120528
 40
0.5452131374621054
 40
0.601707363256827
 40
0.6701133012840734
 40
0.708850610573888
 40
0.7505793336867046
 40
0.8222438805972254
 40
0.887783270117505
 40
0.9472569932516591
 40
1.0
 40
1.0
 40
1.0
 40
1.0
 10
181.1303240734746
 20
125.7677519430308
 30
0.0
 10
181.1301023780738
 20
125.7677997329074
 30
0.0
 10
181.1175393945772
 20
125.7705078785396
 30
0.0
 10
181.1666167465344
 20
125.7586756936629
 30
0.0
 10
181.3117203250084
 20
125.7352317031196
 30
0.0
 10
181.5847727729852
 20
125.7013274903588
 30
0.0
 10
181.9132992084095
 20
125.6677587034657
 30
0.0
 10
182.3060269851491
 20
125.6295753623316
 30
0.0
 10
182.8557549553756
 20
125.5906066909019
 30
0.0
 10
183.4817776019104
 20
125.5711455862063
 30
0.0
 10
184.0249691121224
 20
125.5689599084173
 30
0.0
 10
184.4700380090204
 20
125.5774747895869
 30
0.0
 10
184.936485805478
 20
125.5972581865109
 30
0.0
 10
185.4737264547038
 20
125.6414205720384
 30
0.0
 10
186.1219398851787
 20
125.713836191973
 30
0.0
 10
186.7074785164426
 20
125.7947382854691
 30
0.0
 10
187.1884481278267
 20
125.8729042731769
 30
0.0
 10
187.6338630379953
 20
125.9576764154906
 30
0.0
 10
188.0723626737039
 20
126.0514594370083
 30
0.0
 10
188.4113882350721
 20
126.1293632788386
 30
0.0
 10
188.598731320989
 20
126.1795555040646
 30
0.0
 10
188.6192212174571
 20
126.1862220103284
 30
0.0
 10
188.6288516776283
 20
126.1893553362168
 30
0.0
  0
LINE
  5
146
330
1F
100
AcDbEntity
  8
0
  6
HIDDEN
 62
     7
370
     0
100
AcDbLine
 10
223.9796574948
 20
98.3893373912
 30
0.0
 11
223.9796574948
 21
106.7893373912
 31
0.0
  0
SPLINE
  5
147
330
1F
100
AcDbEntity
  8
0
  6
HIDDEN
 62
     7
370
     0
100
AcDbSpline
210
0.0
220
0.0
230
1.0
 70
     8
 71
     3
 72
    52
 73
    48
 74
     0
 42
0.00000001
 43
0.00000001
 40
0.0
 40
0.0
 40
0.0
 40
0.0
 40
0.0625000000000012
 40
0.0625000000000012
 40
0.1250000000000023
 40
0.1250000000000023
 40
0.1875000000000035
 40
0.1875000000000035
 40
0.2187500000000037
 40
0.2187500000000037
 40
0.2500000000000038
 40
0.2500000000000038
 40
0.2812500000000039
 40
0.2812500000000039
 40
0.3125000000000041
 40
0.3125000000000041
 40
0.3750000000000037
 40
0.3750000000000037
 40
0.4062500000000035
 40
0.4062500000000035
 40
0.4375000000000033
 40
0.4375000000000033
 40
0.4687500000000031
 40
0.4687500000000031
 40
0.5000000000000029
 40
0.5000000000000029
 40
0.5312500000000027
 40
0.5312500000000027
 40
0.5625000000000024
 40
0.5625000000000024
 40
0.5937500000000023
 40
0.5937500000000023
 40
0.6250000000000021
 40
0.6250000000000021
 40
0.6562500000000019
 40
0.6562500000000019
 40
0.6875000000000017
 40
0.6875000000000017
 40
0.7187500000000014
 40
0.7187500000000014
 40
0.7500000000000012
 40
0.7500000000000012
 40
0.812500000000001
 40
0.812500000000001
 40
0.8750000000000007
 40
0.8750000000000007
 40
1.0
 40
1.0
 40
1.0
 40
1.0
 10
223.9796574947967
 20
103.4198459533286
 30
0.0
 10
223.8752867076736
 20
103.6405984285114
 30
0.0
 10
223.7368795279374
 20
103.8335986730505
 30
0.0
 10
223.3998660295006
 20
104.1744690443978
 30
0.0
 10
223.2082709047709
 20
104.3148612923315
 30
0.0
 10
222.7808079777061
 20
104.5376627965204
 30
0.0
 10
222.5523941189029
 20
104.6159082424564
 30
0.0
 10
222.1908896660385
 20
104.6778429033567
 30
0.0
 10
222.0664673103104
 20
104.6888821340089
 30
0.0
 10
221.8222053931125
 20
104.6897643800532
 30
0.0
 10
221.7008859669702
 20
104.6799592071494
 30
0.0
 10
221.4599362537404
 20
104.6387243987174
 30
0.0
 10
221.3401274269057
 20
104.6068868884346
 30
0.0
 10
221.1135705792448
 20
104.5238617532888
 30
0.0
 10
221.0052759559768
 20
104.472514375279
 30
0.0
 10
220.6947385038939
 20
104.2883389066046
 30
0.0
 10
220.5154234970501
 20
104.1305371171306
 30
0.0
 10
220.2922583087486
 20
103.8505371883748
 30
0.0
 10
220.2266885787496
 20
103.7514644440651
 30
0.0
 10
220.1122403808461
 20
103.5417901277688
 30
0.0
 10
220.0630043164196
 20
103.4300174158513
 30
0.0
 10
219.9841151402127
 20
103.2000179908626
 30
0.0
 10
219.954418977162
 20
103.0823976045011
 30
0.0
 10
219.9141424313231
 20
102.841883313863
 30
0.0
 10
219.9036174672057
 20
102.7176159437251
 30
0.0
 10
219.9030609534543
 20
102.4712921074187
 30
0.0
 10
219.9127495781154
 20
102.3493827828543
 30
0.0
 10
219.951806047302
 20
102.1080170552186
 30
0.0
 10
219.9816363399021
 20
101.9875756485588
 30
0.0
 10
220.0593508771355
 20
101.7577445704819
 30
0.0
 10
220.1071953097512
 20
101.6475158441964
 30
0.0
 10
220.2211113125445
 20
101.4361628983944
 30
0.0
 10
220.287524247894
 20
101.334966828191
 30
0.0
 10
220.4344421099956
 20
101.1489193807504
 30
0.0
 10
220.5154235591817
 20
101.0630188014913
 30
0.0
 10
220.6935517036711
 20
100.9054788487089
 30
0.0
 10
220.7905943984181
 20
100.8342952829958
 30
0.0
 10
220.9941855421936
 20
100.7119989721012
 30
0.0
 10
221.1015988827222
 20
100.6600535995003
 30
0.0
 10
221.3287846159164
 20
100.5751744676007
 30
0.0
 10
221.4478465653739
 20
100.5428346469944
 30
0.0
 10
221.8074114228221
 20
100.4789778503174
 30
0.0
 10
222.0599065354552
 20
100.4795599180996
 30
0.0
 10
222.5422187984089
 20
100.5599035781755
 30
0.0
 10
222.7762448819278
 20
100.6393098986226
 30
0.0
 10
223.415673683921
 20
100.9705872936046
 30
0.0
 10
223.7707291803062
 20
101.3169289082489
 30
0.0
 10
223.9796574947967
 20
101.7588288290108
 30
0.0
  0
LINE
  5
148
330
1F
100
AcDbEntity
  8
0
  6
HIDDEN
 62
     7
370
     0
100
AcDbLine
 10
252.399534032
 20
146.6075261666
 30
0.0
 11
248.4830289277
 21
140.3398078151
 31
0.0
  0
LINE
  5
149
330
1F
100
AcDbEntity
  8
0
  6
HIDDEN
 62
     7
370
     0
100
AcDbLine
 10
248.4830289277
 20
140.3398078151
 30
0.0
 11
248.4381228728
 21
140.3374543884
 31
0.0
  0
LINE
  5
14A
330
1F
100
AcDbEntity
  8
0
  6
HIDDEN
 62
     7
370
     0
100
AcDbLine
 10
247.0490927382
 20
137.2276112418
 30
0.0
 11
257.3565946803
 21
137.7678045286
 31
0.0
  0
LINE
  5
14B
330
1F
100
AcDbEntity
  8
0
  6
HIDDEN
 62
     7
370
     0
100
AcDbLine
 10
257.3565946803
 20
137.7678045286
 30
0.0
 11
257.3327654396
 21
137.7296697718
 31
0.0
  0
LINE
  5
14C
330
1F
100
AcDbEntity
  8
0
  6
HIDDEN
 62
     7
370
     0
100
AcDbLine
 10
252.3546279771
 20
146.60517274
 30
0.0
 11
252.399534032
 21
146.6075261666
 31
0.0
  0
LINE
  5
14D
330
1F
100
AcDbEntity
  8
0
  6
HIDDEN
 62
     7
370
     0
100
AcDbLine
 10
246.8141938461
 20
137.482108861
 30
0.0
 11
257.5289595215
 21
138.0436459356
 31
0.0
  0
LINE
  5
14E
330
1F
100
AcDbEntity
  8
0
  6
HIDDEN
 62
     7
370
     0
100
AcDbLine
 10
257.3565946803
 20
137.7678045286
 30
0.0
 11
257.5289595215
 21
138.0436459356
 31
0.0
  0
LINE
  5
14F
330
1F
100
AcDbEntity
  8
0
  6
HIDDEN
 62
     7
370
     0
100
AcDbLine
 10
248.4830289277
 20
140.3398078151
 30
0.0
 11
248.6354845504
 21
140.0809895272
 31
0.0
  0
LINE
  5
150
330
1F
100
AcDbEntity
  8
0
  6
HIDDEN
 62
     7
370
     0
100
AcDbLine
 10
248.2657580316
 20
140.0616129814
 30
0.0
 11
248.6354845504
 21
140.0809895272
 31
0.0
  0
ELLIPSE
  5
151
330
1F
100
AcDbEntity
  8
0
  6
HIDDEN
 62
     7
370
     0
100
AcDbEllipse
 10
226.4788768885
 20
105.1953148079
 30
0.0
 11
26.23613238030584
 21
41.32889059954979
 31
0.0
210
0.0
220
0.0
230
1.0
 40
0.1000778042
 41
0.0092334624724105
 42
0.0635227024153831
  0
LINE
  5
152
330
1F
100
AcDbEntity
  8
0
  6
HIDDEN
 62
     7
370
     0
100
AcDbLine
 10
252.6757008479
 20
146.5466871729
 30
0.0
 11
248.6354845504
 21
140.0809895272
 31
0.0
  0
SPLINE
  5
153
330
1F
100
AcDbEntity
  8
0
  6
HIDDEN
 62
     7
370
     0
100
AcDbSpline
210
0.0
220
0.0
230
1.0
 70
     8
 71
     3
 72
    20
 73
    16
 74
     0
 42
0.00000001
 43
0.00000001
 40
0.0
 40
0.0
 40
0.0
 40
0.0
 40
0.2499999999999997
 40
0.2499999999999997
 40
0.3749999999999997
 40
0.3749999999999997
 40
0.4374999999999999
 40
0.4374999999999999
 40
0.5000000000000001
 40
0.5000000000000001
 40
0.7499999999999999
 40
0.7499999999999999
 40
0.8749999999999999
 40
0.8749999999999999
 40
1.0
 40
1.0
 40
1.0
 40
1.0
 10
240.3138109479298
 20
135.4735837535251
 30
0.0
 10
240.3499975645871
 20
137.1413212092536
 30
0.0
 10
240.381963903604
 20
138.6164215488256
 30
0.0
 10
240.4238730426005
 20
140.5517544230854
 30
0.0
 10
240.4368293562356
 20
141.1503444705451
 30
0.0
 10
240.4547212003999
 20
141.9772359708532
 30
0.0
 10
240.460427640025
 20
142.2410158128868
 30
0.0
 10
240.4713166203463
 20
142.7444381776461
 30
0.0
 10
240.4764993882305
 20
142.9840914301437
 30
0.0
 10
240.5008329147294
 20
144.1094409718854
 30
0.0
 10
240.515518995179
 20
144.7891269680956
 30
0.0
 10
240.5305766742088
 20
145.4861215194207
 30
0.0
 10
240.5344265417887
 20
145.6643588490921
 30
0.0
 10
240.5397299561387
 20
145.9099019941781
 30
0.0
 10
240.5411744661123
 20
145.9767892659528
 30
0.0
 10
240.5413748223526
 20
145.9860663760085
 30
0.0
  0
LINE
  5
154
330
1F
100
AcDbEntity
  8
0
  6
HIDDEN
 62
     7
370
     0
100
AcDbLine
 10
236.1476066872
 20
75.5910041093
 30
0.0
 11
236.1476066872
 21
102.5893373912
 31
0.0
  0
CIRCLE
  5
155
330
1F
100
AcDbEntity
  8
0
  6
HIDDEN
 62
     7
370
     0
100
AcDbCircle
 10
224.8184190336
 20
102.594849395
 30
0.0
 40
2.090489493522764
  0
SPLINE
  5
156
330
1F
100
AcDbEntity
  8
0
  6
HIDDEN
 62
     7
370
     0
100
AcDbSpline
210
0.0
220
0.0
230
1.0
 70
     8
 71
     3
 72
    53
 73
    49
 74
     0
 42
0.00000001
 43
0.00000001
 40
0.0
 40
0.0
 40
0.0
 40
0.0
 40
0.0198778364895776
 40
0.0398147281383796
 40
0.0598124794769108
 40
0.0798728786117748
 40
0.099997696950619
 40
0.1201886889460692
 40
0.140447591858493
 40
0.1607761255373947
 40
0.1811759922211789
 40
0.201648876355062
 40
0.2221964444267898
 40
0.2428203448198666
 40
0.2635222076838888
 40
0.2843036448217199
 40
0.3051662495929243
 40
0.3261115968332356
 40
0.3471412427894851
 40
0.3682567250695999
 40
0.3894595626071948
 40
0.4107512556402647
 40
0.4321332857035614
 40
0.4536071156340304
 40
0.4751741895889878
 40
0.4968359330763759
 40
0.5185937529967114
 40
0.5404490376961565
 40
0.5624031570302556
 40
0.5844574624378346
 40
0.6066132870245311
 40
0.6288719456555314
 40
0.6512347350569915
 40
0.6737029339256752
 40
0.6962778030463537
 40
0.718960585416501
 40
0.741752506377848
 40
0.7646547737543478
 40
0.7876685779961204
 40
0.8107950923289983
 40
0.834035472909218
 40
0.8573908589829032
 40
0.8808623730499459
 40
0.9044511210319278
 40
0.9281581924437067
 40
0.9519846605683585
 40
0.9759315826351147
 40
1.0
 40
1.0
 40
1.0
 40
1.0
 10
262.574901954135
 20
146.9441372828049
 30
0.0
 10
262.5633593486024
 20
146.9252528771295
 30
0.0
 10
262.5402398455553
 20
146.887427962008
 30
0.0
 10
262.4995257003925
 20
146.8214072360518
 30
0.0
 10
262.4543395355977
 20
146.7484517589836
 30
0.0
 10
262.4042494573699
 20
146.6678632495105
 30
0.0
 10
262.3493739582005
 20
146.5797873973931
 30
0.0
 10
262.2896832801412
 20
146.4841444158007
 30
0.0
 10
262.2251874865155
 20
146.3809169709294
 30
0.0
 10
262.1558858251188
 20
146.2700726955026
 30
0.0
 10
262.0817803610782
 20
146.1515850865009
 30
0.0
 10
262.0028723038239
 20
146.0254279108914
 30
0.0
 10
261.9191629945492
 20
145.8915767455716
 30
0.0
 10
261.8306536384676
 20
145.7500085957538
 30
0.0
 10
261.7373453751772
 20
145.6007020308207
 30
0.0
 10
261.6392392579528
 20
145.4436371806517
 30
0.0
 10
261.5363362575819
 20
145.2787957693945
 30
0.0
 10
261.4286372595986
 20
145.1061611389897
 30
0.0
 10
261.3161430633064
 20
144.9257182752824
 30
0.0
 10
261.1988543803306
 20
144.7374538332488
 30
0.0
 10
261.0767718333098
 20
144.5413561622578
 30
0.0
 10
260.9498959545626
 20
144.3374153311051
 30
0.0
 10
260.818227184775
 20
144.1256231528745
 30
0.0
 10
260.6817658716966
 20
143.9059732095967
 30
0.0
 10
260.5405122688496
 20
143.6784608766976
 30
0.0
 10
260.3944665342506
 20
143.4430833472215
 30
0.0
 10
260.2436287291462
 20
143.199839655819
 30
0.0
 10
260.0879988167625
 20
142.9487307024832
 30
0.0
 10
259.9275766610685
 20
142.6897592760243
 30
0.0
 10
259.7623620255565
 20
142.4229300772679
 30
0.0
 10
259.5923545720377
 20
142.148249741964
 30
0.0
 10
259.4175538594534
 20
141.8657268633912
 30
0.0
 10
259.2379593427097
 20
141.575372014653
 30
0.0
 10
259.0535703715074
 20
141.2771977706116
 30
0.0
 10
258.8643861892734
 20
140.9712187295991
 30
0.0
 10
258.6704059318071
 20
140.6574515343155
 30
0.0
 10
258.4716286270849
 20
140.335914894064
 30
0.0
 10
258.2680531908113
 20
140.0066296001773
 30
0.0
 10
258.0596784380577
 20
139.6696185651862
 30
0.0
 10
257.8465030345265
 20
139.3249067708149
 30
0.0
 10
257.6285256749006
 20
138.9725215567532
 30
0.0
 10
257.4057444075353
 20
138.6124916261655
 30
0.0
 10
257.1781591688555
 20
138.2448508738921
 30
0.0
 10
256.9457622495748
 20
137.8696240794373
 30
0.0
 10
256.7085741381422
 20
137.4868807872243
 30
0.0
 10
256.466508737675
 20
137.0965327879777
 30
0.0
 10
256.2198801891252
 20
136.6990957332162
 30
0.0
 10
256.0520517810531
 20
136.4289361671624
 30
0.0
 10
255.9679252452631
 20
136.2935145858956
 30
0.0
  0
CIRCLE
  5
157
330
1F
100
AcDbEntity
  8
0
  6
HIDDEN
 62
     7
370
     0
100
AcDbCircle
 10
255.2286641592
 20
142.3291308863
 30
0.0
 40
2.400000000000006
  0
LINE
  5
158
330
1F
100
AcDbEntity
  8
0
  6
HIDDEN
 62
     7
370
     0
100
AcDbLine
 10
262.824651863
 20
146.5184820941
 30
0.0
 11
262.574780095
 21
146.9472707972
 31
0.0
  0
LINE
  5
159
330
1F
100
AcDbEntity
  8
0
  6
HIDDEN
 62
     7
370
     0
100
AcDbLine
 10
262.5727488248
 20
146.9440384627
 30
0.0
 11
252.5973179295
 21
146.4212482821
 31
0.0
  0
LINE
  5
15A
330
1F
100
AcDbEntity
  8
0
  6
HIDDEN
 62
     7
370
     0
100
AcDbLine
 10
257.5289595215
 20
138.0436459356
 30
0.0
 11
262.824609461
 21
146.5184573875
 31
0.0
  0
CIRCLE
  5
15B
330
1F
100
AcDbEntity
  8
0
  6
HIDDEN
 62
     7
370
     0
100
AcDbCircle
 10
255.2286641592
 20
142.3291308863
 30
0.0
 40
1.650000000000006
  0
LINE
  5
15C
330
1F
100
AcDbEntity
  8
0
  6
HIDDEN
 62
     7
370
     0
100
AcDbLine
 10
209.9696574948
 20
122.7749625477
 30
0.0
 11
209.9696574948
 21
122.4393373912
 31
0.0
  0
LINE
  5
15D
330
1F
100
AcDbEntity
  8
0
  6
HIDDEN
 62
     7
370
     0
100
AcDbLine
 10
213.7896574948
 20
122.7749625477
 30
0.0
 11
213.7896574948
 21
122.4393373912
 31
0.0
  0
LINE
  5
15E
330
1F
100
AcDbEntity
  8
0
  6
HIDDEN
 62
     7
370
     0
100
AcDbLine
 10
215.2715903263
 20
127.0480270535
 30
0.0
 11
215.2715903263
 21
122.4393373912
 31
0.0
  0
CIRCLE
  5
15F
330
1F
100
AcDbEntity
  8
0
  6
HIDDEN
 62
     7
370
     0
100
AcDbCircle
 10
224.8659443187
 20
102.5949885069
 30
0.0
 40
2.490201684547142
  0
CIRCLE
  5
160
330
1F
100
AcDbEntity
  8
0
  6
HIDDEN
 62
     7
370
     0
100
AcDbCircle
 10
200.8796574948
 20
102.5893373912
 30
0.0
 40
5.0
  0
LINE
  5
161
330
1F
100
AcDbEntity
  8
0
  6
HIDDEN
 62
     7
370
     0
100
AcDbLine
 10
255.9700199611
 20
136.296644444
 30
0.0
 11
256.1050823987
 21
135.7622709793
 31
0.0
  0
LINE
  5
162
330
1F
100
AcDbEntity
  8
0
  6
HIDDEN
 62
     7
370
     0
100
AcDbLine
 10
255.9664453918
 20
136.2939035647
 30
0.0
 11
240.3138109479
 21
135.4735837535
 31
0.0
  0
SPLINE
  5
163
330
1F
100
AcDbEntity
  8
0
  6
HIDDEN
 62
     7
370
     0
100
AcDbSpline
210
0.0
220
0.0
230
1.0
 70
     8
 71
     3
 72
    14
 73
    10
 74
     0
 42
0.00000001
 43
0.00000001
 40
0.0
 40
0.0
 40
0.0
 40
0.0
 40
0.25
 40
0.25
 40
0.5
 40
0.5
 40
0.75
 40
0.75
 40
1.0
 40
1.0
 40
1.0
 40
1.0
 10
240.3138109479298
 20
135.4735837535251
 30
0.0
 10
239.7509507945091
 20
132.7556161867481
 30
0.0
 10
239.2149768360706
 20
130.0348579476585
 30
0.0
 10
238.2287690015436
 20
124.5844420147947
 30
0.0
 10
237.7784535775478
 20
121.8547927853453
 30
0.0
 10
237.0127409052161
 20
116.3814903955249
 30
0.0
 10
236.6979882166416
 20
113.6377703326012
 30
0.0
 10
236.2646015616176
 20
108.1299739202595
 30
0.0
 10
236.1476066872278
 20
105.3657274400798
 30
0.0
 10
236.1476066872278
 20
102.5893373911697
 30
0.0
  0
CIRCLE
  5
164
330
1F
100
AcDbEntity
  8
0
  6
HIDDEN
 62
     7
370
     0
100
AcDbCircle
 10
224.7673881462
 20
102.5658139164
 30
0.0
 40
1.961686749278876
  0
CIRCLE
  5
165
330
1F
100
AcDbEntity
  8
0
  6
HIDDEN
 62
     7
370
     0
100
AcDbCircle
 10
224.8134223309
 20
102.5608682001
 30
0.0
 40
2.478156019634156
  0
CIRCLE
  5
166
330
1F
100
AcDbEntity
  8
0
  6
HIDDEN
 62
     7
370
     0
100
AcDbCircle
 10
225.1173066418
 20
102.5608682001
 30
0.0
 40
2.478156019634275
  0
CIRCLE
  5
167
330
1F
100
AcDbEntity
  8
0
  6
HIDDEN
 62
     7
370
     0
100
AcDbCircle
 10
225.7222720066
 20
102.5655809219
 30
0.0
 40
1.981116792201475
  0
CIRCLE
  5
168
330
1F
100
AcDbEntity
  8
0
  6
HIDDEN
 62
     7
370
     0
100
AcDbCircle
 10
225.0024483092
 20
102.5655809219
 30
0.0
 40
1.981116792201577
  0
CIRCLE
  5
169
330
1F
100
AcDbEntity
  8
0
  6
HIDDEN
 62
     7
370
     0
100
AcDbCircle
 10
225.2371238844
 20
102.5608682001
 30
0.0
 40
2.478156019634244
  0
CIRCLE
  5
16A
330
1F
100
AcDbEntity
  8
0
  6
HIDDEN
 62
     7
370
     0
100
AcDbCircle
 10
225.1505290533
 20
102.5632805145
 30
0.0
 40
2.279951399460261
  0
CIRCLE
  5
16B
330
1F
100
AcDbEntity
  8
0
  6
HIDDEN
 62
     7
370
     0
100
AcDbCircle
 10
225.356941127
 20
102.5608682001
 30
0.0
 40
2.478156019634175
  0
CIRCLE
  5
16C
330
1F
100
AcDbEntity
  8
0
  6
HIDDEN
 62
     7
370
     0
100
AcDbCircle
 10
225.2703462959
 20
102.5632805145
 30
0.0
 40
2.279951399460207
  0
CIRCLE
  5
16D
330
1F
100
AcDbEntity
  8
0
  6
HIDDEN
 62
     7
370
     0
100
AcDbCircle
 10
225.4767583696
 20
102.5608682001
 30
0.0
 40
2.478156019634226
  0
CIRCLE
  5
16E
330
1F
100
AcDbEntity
  8
0
  6
HIDDEN
 62
     7
370
     0
100
AcDbCircle
 10
225.3901635385
 20
102.5632805145
 30
0.0
 40
2.27995139946024
  0
CIRCLE
  5
16F
330
1F
100
AcDbEntity
  8
0
  6
HIDDEN
 62
     7
370
     0
100
AcDbCircle
 10
225.5965756122
 20
102.5608682001
 30
0.0
 40
2.478156019634254
  0
CIRCLE
  5
170
330
1F
100
AcDbEntity
  8
0
  6
HIDDEN
 62
     7
370
     0
100
AcDbCircle
 10
225.509980781
 20
102.5632805145
 30
0.0
 40
2.27995139946025
  0
CIRCLE
  5
171
330
1F
100
AcDbEntity
  8
0
  6
HIDDEN
 62
     7
370
     0
100
AcDbCircle
 10
225.6920821099
 20
102.5608682001
 30
0.0
 40
2.478156019634155
  0
CIRCLE
  5
172
330
1F
100
AcDbEntity
  8
0
  6
HIDDEN
 62
     7
370
     0
100
AcDbCircle
 10
225.7187294565
 20
102.5613553617
 30
0.0
 40
2.337910189712349
  0
CIRCLE
  5
173
330
1F
100
AcDbEntity
  8
0
  6
HIDDEN
 62
     7
370
     0
100
AcDbCircle
 10
255.2286641592
 20
142.3291308863
 30
0.0
 40
1.809570484150206
  0
LINE
  5
174
330
1F
100
AcDbEntity
  8
0
  6
HIDDEN
 62
     7
370
     0
100
AcDbLine
 10
193.8796574948
 20
77.26541347
 30
0.0
 11
193.973818336
 21
77.9354026689
 31
0.0
  0
LINE
  5
175
330
1F
100
AcDbEntity
  8
0
  6
HIDDEN
 62
     7
370
     0
100
AcDbLine
 10
193.973818336
 20
127.2432721135
 30
0.0
 11
193.8796574948
 21
127.9132613123
 31
0.0
  0
ARC
  5
176
330
1F
100
AcDbEntity
  8
0
  6
HIDDEN
 62
     7
370
     0
100
AcDbCircle
 10
193.3796574948
 20
78.0189065294
 30
0.0
 40
0.6000000000000172
100
AcDbArc
 50
352.0
 51
0.0
  0
ARC
  5
177
330
1F
100
AcDbEntity
  8
0
  6
HIDDEN
 62
     7
370
     0
100
AcDbCircle
 10
193.3796574948
 20
78.0189065294
 30
0.0
 40
0.5999999999999943
100
AcDbArc
 50
0.0
 51
33.5573097619
  0
ARC
  5
178
330
1F
100
AcDbEntity
  8
0
  6
HIDDEN
 62
     7
370
     0
100
AcDbCircle
 10
193.3796574948
 20
127.1597682529
 30
0.0
 40
0.6000000000000152
100
AcDbArc
 50
348.75
 51
8.0
  0
LWPOLYLINE
  5
179
330
1F
100
AcDbEntity
  8
0
  6
HIDDEN
 62
     7
370
     0
100
AcDbPolyline
 90
        3
 70
   128
 43
0.0
 10
193.968128663
 20
127.0427140597
 10
193.9339852143
 20
126.9301581935
 10
193.8796574948
 20
126.8281057739
  0
LINE
  5
17A
330
1F
100
AcDbEntity
  8
0
  6
HIDDEN
 62
     7
370
     0
100
AcDbLine
 10
193.9796574948
 20
78.0189065294
 30
0.0
 11
193.9796574948
 21
127.1597682529
 31
0.0
  0
ARC
  5
17B
330
1F
100
AcDbEntity
  8
0
  6
HIDDEN
 62
     7
370
     0
100
AcDbCircle
 10
187.6346594964
 20
90.5893373912
 30
0.0
 40
8.000000000000016
100
AcDbArc
 50
277.0471284265
 51
321.3178125465
  0
ARC
  5
17C
330
1F
100
AcDbEntity
  8
0
  6
HIDDEN
 62
     7
370
     0
100
AcDbCircle
 10
187.6346594964
 20
114.5893373912
 30
0.0
 40
8.000000000000016
100
AcDbArc
 50
38.6821874535
 51
82.9406061898
  0
ARC
  5
17D
330
1F
100
AcDbEntity
  8
0
  6
HIDDEN
 62
     7
370
     0
100
AcDbCircle
 10
176.9620930601
 20
83.1893373912
 30
0.0
 40
0.6000000000000331
100
AcDbArc
 50
210.0
 51
270.0
  0
ARC
  5
17E
330
1F
100
AcDbEntity
  8
0
  6
HIDDEN
 62
     7
370
     0
100
AcDbCircle
 10
176.9620930601
 20
121.9893373912
 30
0.0
 40
0.6000000000000331
100
AcDbArc
 50
90.0
 51
150.0
  0
LINE
  5
17F
330
1F
100
AcDbEntity
  8
0
  6
HIDDEN
 62
     7
370
     0
100
AcDbLine
 10
176.9620930601
 20
82.5893373912
 30
0.0
 11
181.1396296365
 21
82.5893373912
 31
0.0
  0
LINE
  5
180
330
1F
100
AcDbEntity
  8
0
  6
HIDDEN
 62
     7
370
     0
100
AcDbLine
 10
181.1396296365
 20
122.5893373912
 30
0.0
 11
176.9620930601
 21
122.5893373912
 31
0.0
  0
LINE
  5
181
330
1F
100
AcDbEntity
  8
0
  6
HIDDEN
 62
     7
370
     0
100
AcDbLine
 10
176.4424778178
 20
122.2893373912
 30
0.0
 11
174.883632091
 21
119.5893373912
 31
0.0
  0
LINE
  5
182
330
1F
100
AcDbEntity
  8
0
  6
HIDDEN
 62
     7
370
     0
100
AcDbLine
 10
174.883632091
 20
85.5893373912
 30
0.0
 11
176.4424778178
 21
82.8893373912
 31
0.0
  0
LINE
  5
183
330
1F
100
AcDbEntity
  8
0
  6
HIDDEN
 62
     7
370
     0
100
AcDbLine
 10
217.1376138905
 20
101.570159498
 30
0.0
 11
217.3252168613
 21
100.9817112111
 31
0.0
  0
LINE
  5
184
330
1F
100
AcDbEntity
  8
0
  6
HIDDEN
 62
     7
370
     0
100
AcDbLine
 10
218.7542749941
 20
100.5279106077
 30
0.0
 11
219.3352916089
 21
100.3434074833
 31
0.0
  0
LINE
  5
185
330
1F
100
AcDbEntity
  8
0
  6
HIDDEN
 62
     7
370
     0
100
AcDbLine
 10
217.3252168613
 20
100.9817112111
 30
0.0
 11
218.0518344114
 21
100.7509721844
 31
0.0
  0
LINE
  5
186
330
1F
100
AcDbEntity
  8
0
  6
HIDDEN
 62
     7
370
     0
100
AcDbLine
 10
217.0839419717
 20
103.7117060786
 30
0.0
 11
216.6999956398
 21
103.3273211119
 31
0.0
  0
LINE
  5
187
330
1F
100
AcDbEntity
  8
0
  6
HIDDEN
 62
     7
370
     0
100
AcDbLine
 10
227.1723897322
 20
113.8116792618
 30
0.0
 11
218.0614148233
 21
104.690295632
 31
0.0
  0
LINE
  5
188
330
1F
100
AcDbEntity
  8
0
  6
HIDDEN
 62
     7
370
     0
100
AcDbLine
 10
219.6715391014
 20
100.3591685796
 30
0.0
 11
226.8312733377
 21
107.5270823659
 31
0.0
  0
LINE
  5
189
330
1F
100
AcDbEntity
  8
0
  6
HIDDEN
 62
     7
370
     0
100
AcDbLine
 10
218.2391376775
 20
100.4893373912
 30
0.0
 11
220.6519673503
 21
100.4893373912
 31
0.0
  0
LINE
  5
18A
330
1F
100
AcDbEntity
  8
0
  6
HIDDEN
 62
     7
370
     0
100
AcDbLine
 10
220.6531481776
 20
104.6893373912
 30
0.0
 11
218.4939586868
 21
104.6893373912
 31
0.0
  0
ARC
  5
18B
330
1F
100
AcDbEntity
  8
0
  6
HIDDEN
 62
     7
370
     0
100
AcDbCircle
 10
202.3296574948
 20
86.8643373912
 30
0.0
 40
1.500000000000001
100
AcDbArc
 50
238.2116693829
 51
0.0
  0
ARC
  5
18C
330
1F
100
AcDbEntity
  8
0
  6
HIDDEN
 62
     7
370
     0
100
AcDbCircle
 10
202.3296574948
 20
118.3143373912
 30
0.0
 40
1.5
100
AcDbArc
 50
0.0
 51
121.7883306171
  0
LINE
  5
18D
330
1F
100
AcDbEntity
  8
0
  6
HIDDEN
 62
     7
370
     0
100
AcDbLine
 10
172.0796574948
 20
85.5893373912
 30
0.0
 11
174.883632091
 21
85.5893373912
 31
0.0
  0
LINE
  5
18E
330
1F
100
AcDbEntity
  8
0
  6
HIDDEN
 62
     7
370
     0
100
AcDbLine
 10
174.883632091
 20
119.5893373912
 30
0.0
 11
168.0796574948
 21
119.5893373912
 31
0.0
  0
LINE
  5
18F
330
1F
100
AcDbEntity
  8
0
  6
HIDDEN
 62
     7
370
     0
100
AcDbLine
 10
193.8796574948
 20
85.5893373912
 30
0.0
 11
201.5394834633
 21
85.5893373912
 31
0.0
  0
LINE
  5
190
330
1F
100
AcDbEntity
  8
0
  6
HIDDEN
 62
     7
370
     0
100
AcDbLine
 10
201.5394834633
 20
119.5893373912
 30
0.0
 11
193.8796574948
 21
119.5893373912
 31
0.0
  0
LINE
  5
191
330
1F
100
AcDbEntity
  8
0
  6
HIDDEN
 62
     7
370
     0
100
AcDbLine
 10
213.1796574948
 20
93.0893373912
 30
0.0
 11
215.6796574948
 21
93.0893373912
 31
0.0
  0
LINE
  5
192
330
1F
100
AcDbEntity
  8
0
  6
HIDDEN
 62
     7
370
     0
100
AcDbLine
 10
215.6796574948
 20
112.0893373912
 30
0.0
 11
213.1796574948
 21
112.0893373912
 31
0.0
  0
LINE
  5
193
330
1F
100
AcDbEntity
  8
0
  6
HIDDEN
 62
     7
370
     0
100
AcDbLine
 10
203.8296574948
 20
93.5893373912
 30
0.0
 11
204.3296574948
 21
94.0893373912
 31
0.0
  0
LINE
  5
194
330
1F
100
AcDbEntity
  8
0
  6
HIDDEN
 62
     7
370
     0
100
AcDbLine
 10
204.3296574948
 20
111.0893373912
 30
0.0
 11
203.8296574948
 21
111.5893373912
 31
0.0
  0
LINE
  5
195
330
1F
100
AcDbEntity
  8
0
  6
HIDDEN
 62
     7
370
     0
100
AcDbLine
 10
204.3296574948
 20
94.0893373912
 30
0.0
 11
213.1796574948
 21
94.0893373912
 31
0.0
  0
LINE
  5
196
330
1F
100
AcDbEntity
  8
0
  6
HIDDEN
 62
     7
370
     0
100
AcDbLine
 10
213.1796574948
 20
111.0893373912
 30
0.0
 11
204.3296574948
 21
111.0893373912
 31
0.0
  0
LINE
  5
197
330
1F
100
AcDbEntity
  8
0
  6
HIDDEN
 62
     7
370
     0
100
AcDbLine
 10
198.8296574948
 20
134.0893373912
 30
0.0
 11
198.8296574948
 21
128.9893373912
 31
0.0
  0
LINE
  5
198
330
1F
100
AcDbEntity
  8
0
  6
HIDDEN
 62
     7
370
     0
100
AcDbLine
 10
189.0640953253
 20
78.5099660576
 30
0.0
 11
188.6296631758
 21
78.9890320767
 31
0.0
  0
LINE
  5
199
330
1F
100
AcDbEntity
  8
0
  6
HIDDEN
 62
     7
370
     0
100
AcDbLine
 10
181.1296598507
 20
79.4107200359
 30
0.0
 11
180.6472261074
 21
78.9316540604
 31
0.0
  0
LINE
  5
19A
330
1F
100
AcDbEntity
  8
0
  6
HIDDEN
 62
     7
370
     0
100
AcDbLine
 10
180.6471041791
 20
126.2470154315
 30
0.0
 11
181.1296549301
 21
125.7678951736
 31
0.0
  0
LINE
  5
19B
330
1F
100
AcDbEntity
  8
0
  6
HIDDEN
 62
     7
370
     0
100
AcDbLine
 10
188.6296573768
 20
126.1895929513
 30
0.0
 11
189.0641997671
 21
126.6687132018
 31
0.0
  0
LINE
  5
19C
330
1F
100
AcDbEntity
  8
0
  6
HIDDEN
 62
     7
370
     0
100
AcDbLine
 10
215.6796574948
 20
98.3893373912
 30
0.0
 11
223.9796574948
 21
98.3893373912
 31
0.0
  0
LINE
  5
19D
330
1F
100
AcDbEntity
  8
0
  6
HIDDEN
 62
     7
370
     0
100
AcDbLine
 10
223.9796574948
 20
106.7893373912
 30
0.0
 11
215.6796574948
 21
106.7893373912
 31
0.0
  0
LINE
  5
19E
330
1F
100
AcDbEntity
  8
0
  6
HIDDEN
 62
     7
370
     0
100
AcDbLine
 10
223.9796574948
 20
98.3893373912
 30
0.0
 11
226.5032720947
 21
102.5893373912
 31
0.0
  0
LINE
  5
19F
330
1F
100
AcDbEntity
  8
0
  6
HIDDEN
 62
     7
370
     0
100
AcDbLine
 10
226.5032720947
 20
102.5893373912
 30
0.0
 11
223.9796574948
 21
106.7893373912
 31
0.0
  0
LINE
  5
1A0
330
1F
100
AcDbEntity
  8
0
  6
HIDDEN
 62
     7
370
     0
100
AcDbLine
 10
188.6296574948
 20
122.5264102172
 30
0.0
 11
188.6296574948
 21
126.1893016452
 31
0.0
  0
LINE
  5
1A1
330
1F
100
AcDbEntity
  8
0
  6
HIDDEN
 62
     7
370
     0
100
AcDbLine
 10
181.1296574948
 20
125.7677513944
 30
0.0
 11
181.1296574948
 21
122.5874751456
 31
0.0
  0
LINE
  5
1A2
330
1F
100
AcDbEntity
  8
0
  6
HIDDEN
 62
     7
370
     0
100
AcDbLine
 10
188.6296574948
 20
78.9895159784
 30
0.0
 11
188.6296574948
 21
82.6522645651
 31
0.0
  0
LINE
  5
1A3
330
1F
100
AcDbEntity
  8
0
  6
HIDDEN
 62
     7
370
     0
100
AcDbLine
 10
181.1296574948
 20
82.5911996368
 30
0.0
 11
181.1296574948
 21
79.4110432737
 31
0.0
  0
LINE
  5
1A4
330
1F
100
AcDbEntity
  8
0
  6
HIDDEN
 62
     7
370
     0
100
AcDbLine
 10
221.9368047536
 20
100.4893373912
 30
0.0
 11
224.7960330882
 21
100.4893373912
 31
0.0
  0
LINE
  5
1A5
330
1F
100
AcDbEntity
  8
0
  6
HIDDEN
 62
     7
370
     0
100
AcDbLine
 10
224.7960330882
 20
104.6893373912
 30
0.0
 11
221.9393418102
 21
104.6893373912
 31
0.0
  0
LINE
  5
1A6
330
1F
100
AcDbEntity
  8
0
  6
HIDDEN
 62
     7
370
     0
100
AcDbLine
 10
224.8377684288
 20
100.0893373912
 30
0.0
 11
225.858497727
 21
100.0893373912
 31
0.0
  0
LINE
  5
1A7
330
1F
100
AcDbEntity
  8
0
  6
HIDDEN
 62
     7
370
     0
100
AcDbLine
 10
225.8589805795
 20
105.0893373912
 30
0.0
 11
224.8377684288
 21
105.0893373912
 31
0.0
  0
LINE
  5
1A8
330
1F
100
AcDbEntity
  8
0
  6
HIDDEN
 62
     7
370
     0
100
AcDbLine
 10
224.8377684288
 20
100.0893373912
 30
0.0
 11
225.1416527397
 21
100.0893373912
 31
0.0
  0
LINE
  5
1A9
330
1F
100
AcDbEntity
  8
0
  6
HIDDEN
 62
     7
370
     0
100
AcDbLine
 10
225.1416527397
 20
105.0893373912
 30
0.0
 11
224.8377684288
 21
105.0893373912
 31
0.0
  0
LINE
  5
1AA
330
1F
100
AcDbEntity
  8
0
  6
HIDDEN
 62
     7
370
     0
100
AcDbLine
 10
225.0209152553
 20
100.5893373912
 30
0.0
 11
225.7407389527
 21
100.5893373912
 31
0.0
  0
LINE
  5
1AB
330
1F
100
AcDbEntity
  8
0
  6
HIDDEN
 62
     7
370
     0
100
AcDbLine
 10
225.7407389527
 20
104.5893373912
 30
0.0
 11
225.0209152553
 21
104.5893373912
 31
0.0
  0
LINE
  5
1AC
330
1F
100
AcDbEntity
  8
0
  6
HIDDEN
 62
     7
370
     0
100
AcDbLine
 10
225.6209217101
 20
100.0893373912
 30
0.0
 11
225.7164282078
 21
100.0893373912
 31
0.0
  0
LINE
  5
1AD
330
1F
100
AcDbEntity
  8
0
  6
HIDDEN
 62
     7
370
     0
100
AcDbLine
 10
225.7164282078
 20
105.0893373912
 30
0.0
 11
225.6209217101
 21
105.0893373912
 31
0.0
  0
CIRCLE
  5
1AE
330
1F
100
AcDbEntity
  8
0
  6
HIDDEN
 62
     7
370
     0
100
AcDbCircle
 10
225.3239833263
 20
102.5893373912
 30
0.0
 40
1.999999999999994
  0
LINE
  5
1AF
330
1F
100
AcDbEntity
  8
VERMASSUNG
100
AcDbLine
 10
263.8796574948
 20
147.5893373912
 30
0.0
 11
241.9244035557
 21
147.5893373912
 31
0.0
  0
DIMENSION
  5
1B0
330
1F
100
AcDbEntity
  8
VERMASSUNG
100
AcDbDimension
  2
*D1
 10
156.3208985316
 20
71.0893373912
 30
0.0
 11
156.3208985316
 21
102.5893373912
 31
0.0
 70
   160
  1
HSK %%c<>
 71
     2
 42
-1.0
  3
SLDDIMSTYLE0
100
AcDbAlignedDimension
 13
194.1796574948
 23
134.0893373912
 33
0.0
 14
194.1796574948
 24
71.0893373912
 34
0.0
 50
90.0
100
AcDbRotatedDimension
  0
DIMENSION
  5
1BD
330
1F
100
AcDbEntity
  8
VERMASSUNG
100
AcDbDimension
  2
*D2
 10
161.9796574948
 20
162.4004555648
 30
0.0
 11
212.9296574948
 21
162.4004555648
 31
0.0
 70
   160
 71
     2
 42
-1.0
  3
SLDDIMSTYLE0
100
AcDbAlignedDimension
 13
263.8796574948
 23
147.5893373912
 33
0.0
 14
161.9796574948
 24
122.2800151376
 34
0.0
100
AcDbRotatedDimension
  0
DIMENSION
  5
1C7
330
1F
100
AcDbEntity
  8
VERMASSUNG
100
AcDbDimension
  2
*D3
 10
263.8796574948
 20
156.4004555648
 30
0.0
 11
228.8796574948
 21
156.4004555648
 31
0.0
 70
   160
 71
     2
 42
-1.0
  3
SLDDIMSTYLE0
100
AcDbAlignedDimension
 13
193.8796574948
 23
133.7893373912
 33
0.0
 14
263.8796574948
 24
147.5893373912
 34
0.0
100
AcDbRotatedDimension
  0
DIMENSION
  5
1D1
330
1F
100
AcDbEntity
  8
VERMASSUNG
100
AcDbDimension
  2
*D4
 10
267.0567001652
 20
102.5893373912
 30
0.0
 11
267.0567001652
 21
125.0893373912
 31
0.0
 70
   160
 71
     2
 42
-1.0
  3
SLDDIMSTYLE0
100
AcDbAlignedDimension
 13
263.8796574948
 23
147.5893373912
 33
0.0
 14
263.8796574948
 24
102.5893373912
 34
0.0
 50
90.0
100
AcDbRotatedDimension
  0
DIMENSION
  5
1DB
330
1F
100
AcDbEntity
  8
VERMASSUNG
100
AcDbDimension
  2
*D5
 10
263.8796574948
 20
147.5893373912
 30
0.0
 11
243.1067918824
 21
152.7993182659
 31
0.0
 70
   162
 71
     1
 42
-1.0
  3
SLDDIMSTYLE1
100
AcDb2LineAngularDimension
 13
240.5413748224
 23
145.986066376
 33
0.0
 14
252.399534032
 24
146.6075261666
 34
0.0
 15
218.1462578135
 25
147.5893373912
 35
0.0
 16
242.6364244474
 26
146.8431123722
 36
0.0
  0
LINE
  5
1E6
330
1F
100
AcDbEntity
  8
VERMASSUNG
  6
CENTERX2
370
     0
100
AcDbLine
 10
159.5266128173
 20
102.5893373912
 30
0.0
 11
265.9735528924
 21
102.5893373912
 31
0.0
  0
SPLINE
  5
1E7
330
1F
100
AcDbEntity
  8
0
  6
Continuous
 62
     7
370
    15
100
AcDbSpline
210
0.0
220
0.0
230
1.0
 70
    24
 71
     3
 72
    14
 73
    10
 74
     0
 42
0.00000001
 43
0.00000001
 40
0.0
 40
0.0
 40
0.0
 40
0.0
 40
0.1588501103508144
 40
0.3173321153184993
 40
0.4720153553661036
 40
0.6236441635916001
 40
0.7746618341644477
 40
0.9277417761108078
 40
0.9999999999999999
 40
0.9999999999999999
 40
0.9999999999999999
 40
0.9999999999999999
 10
87.88830372074479
 20
146.9847402194154
 30
0.0
 10
87.88830372074477
 20
147.0260137886692
 30
0.0
 10
87.88830372074476
 20
147.1084652834091
 30
0.0
 10
87.88830372074489
 20
147.2480993389637
 30
0.0
 10
87.88830372074443
 20
147.3780082251826
 30
0.0
 10
87.88830372074489
 20
147.4856797176482
 30
0.0
 10
87.88830372074476
 20
147.5599039851715
 30
0.0
 10
87.88830372074479
 20
147.5897992094637
 30
0.0
 10
87.88830372074479
 20
147.5893788582266
 30
0.0
 10
87.88830372074479
 20
147.5892440659969
 30
0.0
  0
SPLINE
  5
1E8
330
1F
100
AcDbEntity
  8
0
  6
Continuous
 62
     7
370
    15
100
AcDbSpline
210
0.0
220
0.0
230
1.0
 70
     8
 71
     3
 72
    10
 73
     6
 74
     0
 42
0.00000001
 43
0.00000001
 40
0.0
 40
0.0
 40
0.0
 40
0.0
 40
0.2789471803881309
 40
0.5613894457331606
 40
1.0
 40
1.0
 40
1.0
 40
1.0
 10
87.88830372074491
 20
147.5892440659969
 30
0.0
 10
88.25600612949161
 20
147.5413986921963
 30
0.0
 10
88.99601809574932
 20
147.445108463195
 30
0.0
 10
90.32933645561765
 20
147.2822190094506
 30
0.0
 10
91.28001419749266
 20
147.1584929822308
 30
0.0
 10
91.85830372074479
 20
147.0832314481238
 30
0.0
  0
SPLINE
  5
1E9
330
1F
100
AcDbEntity
  8
0
  6
Continuous
 62
     7
370
    15
100
AcDbSpline
210
0.0
220
0.0
230
1.0
 70
    24
 71
     3
 72
    14
 73
    10
 74
     0
 42
0.00000001
 43
0.00000001
 40
0.0
 40
0.0
 40
0.0
 40
0.0
 40
0.1583203796597365
 40
0.316800805774033
 40
0.4713744813488527
 40
0.6221259069005313
 40
0.7721262731744652
 40
0.9245922366698631
 40
1.0
 40
1.0
 40
1.0
 40
1.0
 10
91.85830372074479
 20
147.0832314481238
 30
0.0
 10
91.8583037207445
 20
147.0827340462884
 30
0.0
 10
91.85830372074395
 20
147.0817387397929
 30
0.0
 10
91.85830372074501
 20
147.0659106736475
 30
0.0
 10
91.85830372074473
 20
147.041562748063
 30
0.0
 10
91.8583037207448
 20
147.010974706442
 30
0.0
 10
91.85830372074479
 20
146.9778454842117
 30
0.0
 10
91.8583037207448
 20
146.9506477642618
 30
0.0
 10
91.85830372074479
 20
146.9362728565208
 30
0.0
 10
91.85830372074479
 20
146.9315159253207
 30
0.0
  0
LINE
  5
1EA
330
1F
100
AcDbEntity
  8
0
  6
Continuous
 62
     7
370
    15
100
AcDbLine
 10
91.8583037207
 20
138.2853278113
 30
0.0
 11
91.8583037207
 21
146.9315159253
 31
0.0
  0
LINE
  5
1EB
330
1F
100
AcDbEntity
  8
0
  6
Continuous
 62
     7
370
    15
100
AcDbLine
 10
87.8883037207
 20
137.9432699312
 30
0.0
 11
87.8883037207
 21
146.9847402194
 31
0.0
  0
SPLINE
  5
1EC
330
1F
100
AcDbEntity
  8
0
  6
Continuous
 62
     7
370
    15
100
AcDbSpline
210
0.0
220
0.0
230
1.0
 70
    24
 71
     3
 72
    10
 73
     6
 74
     0
 42
0.00000001
 43
0.00000001
 40
0.0
 40
0.0
 40
0.0
 40
0.0
 40
0.2657122957245922
 40
0.6165157621681129
 40
1.0
 40
1.0
 40
1.0
 40
1.0
 10
91.85830372074486
 20
138.2853278112619
 30
0.0
 10
91.85830372074471
 20
138.2785500704704
 30
0.0
 10
91.85830372074443
 20
138.2628240988195
 30
0.0
 10
91.85830372074498
 20
138.2445102974025
 30
0.0
 10
91.8583037207449
 20
138.240763126447
 30
0.0
 10
91.85830372074484
 20
138.2388061537378
 30
0.0
  0
SPLINE
  5
1ED
330
1F
100
AcDbEntity
  8
0
  6
Continuous
 62
     7
370
    15
100
AcDbSpline
210
0.0
220
0.0
230
1.0
 70
    24
 71
     3
 72
    10
 73
     6
 74
     0
 42
0.00000001
 43
0.00000001
 40
0.0
 40
0.0
 40
0.0
 40
0.0
 40
0.3518022785809981
 40
0.7034245935032257
 40
1.0
 40
1.0
 40
1.0
 40
1.0
 10
87.88830372074484
 20
137.7571877543811
 30
0.0
 10
87.88830372074484
 20
137.7639854125166
 30
0.0
 10
87.88830372074484
 20
137.7775772514611
 30
0.0
 10
87.88830372074484
 20
137.8473150292193
 30
0.0
 10
87.88830372074484
 20
137.9131485579139
 30
0.0
 10
87.88830372074484
 20
137.9432699312057
 30
0.0
  0
LINE
  5
1EE
330
1F
100
AcDbEntity
  8
0
  6
Continuous
 62
     7
370
    15
100
AcDbLine
 10
87.8883037207
 20
137.1992076168
 30
0.0
 11
88.1883037207
 21
137.237844693
 31
0.0
  0
LINE
  5
1EF
330
1F
100
AcDbEntity
  8
0
  6
Continuous
 62
     7
370
    15
100
AcDbLine
 10
87.8883037207
 20
137.1992076168
 30
0.0
 11
87.8883037207
 21
137.7571877544
 31
0.0
  0
SPLINE
  5
1F0
330
1F
100
AcDbEntity
  8
0
  6
Continuous
 62
     7
370
    15
100
AcDbSpline
210
0.0
220
0.0
230
1.0
 70
     8
 71
     3
 72
    40
 73
    36
 74
     0
 42
0.00000001
 43
0.00000001
 40
0.0
 40
0.0
 40
0.0
 40
0.0
 40
0.0251837489614349
 40
0.0502517100217594
 40
0.0752099872299449
 40
0.1000647654463896
 40
0.124822307099106
 40
0.1494889486761972
 40
0.1740710969592234
 40
0.198575225003984
 40
0.2230078678771711
 40
0.2473756181593099
 40
0.2716851212263415
 40
0.2959430703240843
 40
0.3201562014516491
 40
0.3443312880715969
 40
0.3684751356662244
 40
0.3925945761608252
 40
0.4166964622360246
 40
0.440787661552383
 40
0.4648750509113086
 40
0.4889655103769512
 40
0.5130659173841449
 40
0.5550380441584317
 40
0.5966224555952663
 40
0.6378575465317318
 40
0.6787826949850809
 40
0.7194381795931662
 40
0.7598650850263968
 40
0.8001051960910536
 40
0.8402008815881733
 40
0.8801949693246316
 40
0.9201306139752252
 40
0.9600511597486113
 40
1.0
 40
1.0
 40
1.0
 40
1.0
 10
114.8883037178824
 20
135.7641979425248
 30
0.0
 10
114.7383906531786
 20
135.9072106227431
 30
0.0
 10
114.4392537825123
 20
136.1925784504945
 30
0.0
 10
113.9817188450306
 20
136.6121538728224
 30
0.0
 10
113.5190670490081
 20
137.0242069636482
 30
0.0
 10
113.0505949871133
 20
137.4282121054747
 30
0.0
 10
112.5764899246894
 20
137.8243090796778
 30
0.0
 10
112.0967020045938
 20
138.2124605089996
 30
0.0
 10
111.6112445353669
 20
138.5926761984587
 30
0.0
 10
111.120114008411
 20
138.9649533819383
 30
0.0
 10
110.6233114096528
 20
139.3292926443489
 30
0.0
 10
110.1208365390453
 20
139.6856936784659
 30
0.0
 10
109.6126895252937
 20
140.0341564172475
 30
0.0
 10
109.0988704216198
 20
140.3746807327067
 30
0.0
 10
108.5793793137191
 20
140.7072665170909
 30
0.0
 10
108.0542162895366
 20
141.031913662384
 30
0.0
 10
107.5233814509612
 20
141.3486220655868
 30
0.0
 10
106.9868748950945
 20
141.6573916320926
 30
0.0
 10
106.4446967748139
 20
141.9582222608515
 30
0.0
 10
105.8968470723613
 20
142.2511139039763
 30
0.0
 10
105.3433264404855
 20
142.5360663466974
 30
0.0
 10
104.784133060627
 20
142.8130800309916
 30
0.0
 10
104.079794853164
 20
143.1485946707535
 30
0.0
 10
103.2279945654912
 20
143.5326503448158
 30
0.0
 10
102.2252665533849
 20
143.9524069362571
 30
0.0
 10
101.216363158517
 20
144.3425997455281
 30
0.0
 10
100.2012897544999
 20
144.7032232626178
 30
0.0
 10
99.18004706103059
 20
145.0342766550757
 30
0.0
 10
98.15263692297529
 20
145.3357535090814
 30
0.0
 10
97.1190637701377
 20
145.6076657867373
 30
0.0
 10
96.0793230312648
 20
145.8499590775307
 30
0.0
 10
95.0334456018879
 20
146.0628265732425
 30
0.0
 10
93.98133178782446
 20
146.2455417833058
 30
0.0
 10
92.92336975525977
 20
146.4008072741654
 30
0.0
 10
92.21371610573216
 20
146.4792314221956
 30
0.0
 10
91.85876358024261
 20
146.5184573874551
 30
0.0
  0
LINE
  5
1F1
330
1F
100
AcDbEntity
  8
0
  6
Continuous
 62
     7
370
    15
100
AcDbLine
 10
114.8883037207
 20
136.296644444
 30
0.0
 11
114.8883037207
 21
135.7622709793
 31
0.0
  0
SPLINE
  5
1F2
330
1F
100
AcDbEntity
  8
0
  6
Continuous
 62
     7
370
    15
100
AcDbSpline
210
0.0
220
0.0
230
1.0
 70
     8
 71
     3
 72
    53
 73
    49
 74
     0
 42
0.00000001
 43
0.00000001
 40
0.0
 40
0.0
 40
0.0
 40
0.0
 40
0.0198778364895776
 40
0.0398147281383796
 40
0.0598124794769108
 40
0.0798728786117748
 40
0.099997696950619
 40
0.1201886889460692
 40
0.140447591858493
 40
0.1607761255373947
 40
0.1811759922211789
 40
0.201648876355062
 40
0.2221964444267898
 40
0.2428203448198666
 40
0.2635222076838888
 40
0.2843036448217199
 40
0.3051662495929243
 40
0.3261115968332356
 40
0.3471412427894851
 40
0.3682567250695999
 40
0.3894595626071948
 40
0.4107512556402647
 40
0.4321332857035614
 40
0.4536071156340304
 40
0.4751741895889878
 40
0.4968359330763759
 40
0.5185937529967114
 40
0.5404490376961565
 40
0.5624031570302556
 40
0.5844574624378346
 40
0.6066132870245311
 40
0.6288719456555314
 40
0.6512347350569915
 40
0.6737029339256752
 40
0.6962778030463537
 40
0.718960585416501
 40
0.741752506377848
 40
0.7646547737543478
 40
0.7876685779961204
 40
0.8107950923289983
 40
0.834035472909218
 40
0.8573908589829032
 40
0.8808623730499459
 40
0.9044511210319278
 40
0.9281581924437067
 40
0.9519846605683585
 40
0.9759315826351147
 40
1.0
 40
1.0
 40
1.0
 40
1.0
 10
91.85844409415483
 20
146.9441372828049
 30
0.0
 10
92.03460671854805
 20
146.9252528771295
 30
0.0
 10
92.38745532971538
 20
146.887427962008
 30
0.0
 10
92.9160601762572
 20
146.8214072360518
 30
0.0
 10
93.44502246967402
 20
146.7484517589836
 30
0.0
 10
93.97414599990364
 20
146.6678632495105
 30
0.0
 10
94.50335504850472
 20
146.5797873973931
 30
0.0
 10
95.03254008938477
 20
146.4841444158007
 30
0.0
 10
95.56159934469161
 20
146.3809169709294
 30
0.0
 10
96.09042761574271
 20
146.2700726955026
 30
0.0
 10
96.61891931028546
 20
146.1515850865009
 30
0.0
 10
97.1469676478282
 20
146.0254279108914
 30
0.0
 10
97.67446489493997
 20
145.8915767455716
 30
0.0
 10
98.2013023238755
 20
145.7500085957538
 30
0.0
 10
98.72737024645659
 20
145.6007020308207
 30
0.0
 10
99.25255802841596
 20
145.4436371806517
 30
0.0
 10
99.7767541097449
 20
145.2787957693945
 30
0.0
 10
100.2998460241669
 20
145.1061611389897
 30
0.0
 10
100.8217204195947
 20
144.9257182752824
 30
0.0
 10
101.342263079073
 20
144.7374538332488
 30
0.0
 10
101.8613589423452
 20
144.5413561622578
 30
0.0
 10
102.3788921280087
 20
144.3374153311051
 30
0.0
 10
102.8947459562714
 20
144.1256231528745
 30
0.0
 10
103.4088029723095
 20
143.9059732095967
 30
0.0
 10
103.9209449702268
 20
143.6784608766976
 30
0.0
 10
104.4310530176189
 20
143.4430833472215
 30
0.0
 10
104.9390074807423
 20
143.199839655819
 30
0.0
 10
105.4446880502899
 20
142.9487307024832
 30
0.0
 10
105.9479737677729
 20
142.6897592760243
 30
0.0
 10
106.448743052511
 20
142.4229300772679
 30
0.0
 10
106.94687372923
 20
142.148249741964
 30
0.0
 10
107.4422430562646
 20
141.8657268633912
 30
0.0
 10
107.93472775438
 20
141.575372014653
 30
0.0
 10
108.4242040361571
 20
141.2771977706116
 30
0.0
 10
108.9105476361453
 20
140.9712187295991
 30
0.0
 10
109.3936338410127
 20
140.6574515343155
 30
0.0
 10
109.873337522586
 20
140.335914894064
 30
0.0
 10
110.3495331628957
 20
140.0066296001773
 30
0.0
 10
110.8220949121392
 20
139.6696185651862
 30
0.0
 10
111.2908965257469
 20
139.3249067708149
 30
0.0
 10
111.7558117588048
 20
138.9725215567532
 30
0.0
 10
112.2167130438004
 20
138.6124916261655
 30
0.0
 10
112.6734766255534
 20
138.2448508738921
 30
0.0
 10
113.1259634203447
 20
137.8696240794373
 30
0.0
 10
113.5740911563557
 20
137.4868807872243
 30
0.0
 10
114.0175632825351
 20
137.0965327879777
 30
0.0
 10
114.4568885323353
 20
136.6990957332162
 30
0.0
 10
114.7445954882425
 20
136.4289361671624
 30
0.0
 10
114.8888129648973
 20
136.2935145858956
 30
0.0
  0
LINE
  5
1F3
330
1F
100
AcDbEntity
  8
0
  6
Continuous
 62
     7
370
    15
100
AcDbLine
 10
114.8883037207
 20
135.4042109534
 30
0.0
 11
88.1883037207
 21
135.4042109534
 31
0.0
  0
LINE
  5
1F4
330
1F
100
AcDbEntity
  8
0
  6
Continuous
 62
     7
370
    15
100
AcDbLine
 10
88.1883037207
 20
137.7678045286
 30
0.0
 11
88.1883037207
 21
135.4042109534
 31
0.0
  0
LINE
  5
1F5
330
1F
100
AcDbEntity
  8
0
  6
Continuous
 62
     7
370
    15
100
AcDbLine
 10
90.3583037207
 20
138.0436459356
 30
0.0
 11
91.8583037207
 21
138.0436459356
 31
0.0
  0
LINE
  5
1F6
330
1F
100
AcDbEntity
  8
0
  6
Continuous
 62
     7
370
    15
100
AcDbLine
 10
91.8583037207
 20
138.0436459356
 30
0.0
 11
91.8583037207
 21
138.2188061537
 31
0.0
  0
LINE
  5
1F7
330
1F
100
AcDbEntity
  8
0
  6
Continuous
 62
     7
370
    15
100
AcDbLine
 10
114.8883037207
 20
135.7641979425
 30
0.0
 11
114.8883037207
 21
135.4042109534
 31
0.0
  0
LINE
  5
1F8
330
1F
100
AcDbEntity
  8
0
  6
Continuous
 62
     7
370
    15
100
AcDbLine
 10
88.1883037207
 20
101.157072107
 30
0.0
 11
114.8502883687
 21
101.157072107
 31
0.0
  0
ARC
  5
1F9
330
1F
100
AcDbEntity
  8
0
  6
Continuous
 62
     7
370
    15
100
AcDbCircle
 10
87.8883037207
 20
102.5893373912
 30
0.0
 40
27.00000000000001
100
AcDbArc
 50
270.6366328723
 51
356.9592114163
  0
LINE
  5
1FA
330
1F
100
AcDbEntity
  8
0
  6
Continuous
 62
     7
370
    15
100
AcDbLine
 10
88.1883037207
 20
101.157072107
 30
0.0
 11
88.1883037207
 21
75.5910041093
 31
0.0
  0
ARC
  5
1FB
330
1F
100
AcDbEntity
  8
0
  6
Continuous
 62
     7
370
    15
100
AcDbCircle
 10
87.8883037207
 20
102.5893373912
 30
0.0
 40
27.00000000000001
100
AcDbArc
 50
356.9592114163
 51
0.0
  0
LINE
  5
1FC
330
1F
100
AcDbEntity
  8
0
  6
Continuous
 62
     7
370
    15
100
AcDbLine
 10
114.8883037207
 20
135.4042109534
 30
0.0
 11
114.8883037207
 21
102.5893373912
 31
0.0
  0
LINE
  5
1FD
330
1F
100
AcDbEntity
  8
0
  6
Continuous
 62
     7
370
    15
100
AcDbLine
 10
88.1883037207
 20
135.4042109534
 30
0.0
 11
88.1883037207
 21
101.157072107
 31
0.0
  0
SPLINE
  5
1FE
330
1F
100
AcDbEntity
  8
0
  6
Continuous
 62
     7
370
    15
100
AcDbSpline
210
0.0
220
0.0
230
1.0
 70
     8
 71
     3
 72
    20
 73
    16
 74
     0
 42
0.00000001
 43
0.00000001
 40
0.0
 40
0.0
 40
0.0
 40
0.0
 40
0.2500000000000011
 40
0.2500000000000011
 40
0.3750000000000008
 40
0.3750000000000008
 40
0.5000000000000007
 40
0.5000000000000007
 40
0.6250000000000006
 40
0.6250000000000006
 40
0.7500000000000003
 40
0.7500000000000003
 40
0.8750000000000002
 40
0.8750000000000002
 40
1.0
 40
1.0
 40
1.0
 40
1.0
 10
83.74121799136076
 20
76.92220510193387
 30
0.0
 10
84.3427477263512
 20
76.82501483729234
 30
0.0
 10
84.9075892153485
 20
76.7553439586221
 30
0.0
 10
85.69759563726427
 20
76.68044380225184
 30
0.0
 10
85.94730463763584
 20
76.66084910926192
 30
0.0
 10
86.41098017268848
 20
76.63030240987624
 30
0.0
 10
86.62647816859752
 20
76.61921332881391
 30
0.0
 10
87.02387679338642
 20
76.6029503082091
 30
0.0
 10
87.20456448560167
 20
76.59785159266032
 30
0.0
 10
87.51967198932368
 20
76.5914731711539
 30
0.0
 10
87.65586310946657
 20
76.59012404161501
 30
0.0
 10
87.88497586471516
 20
76.58908523164615
 30
0.0
 10
87.9777226042681
 20
76.58940268401831
 30
0.0
 10
88.11337428460938
 20
76.59022310329159
 30
0.0
 10
88.15730497793078
 20
76.59072168549325
 30
0.0
 10
88.17680474695952
 20
76.59093807202176
 30
0.0
  0
SPLINE
  5
1FF
330
1F
100
AcDbEntity
  8
0
  6
Continuous
 62
     7
370
    15
100
AcDbSpline
210
0.0
220
0.0
230
1.0
 70
     8
 71
     3
 72
    20
 73
    16
 74
     0
 42
0.00000001
 43
0.00000001
 40
0.0
 40
0.0
 40
0.0
 40
0.0
 40
0.249999999999998
 40
0.249999999999998
 40
0.3749999999999983
 40
0.3749999999999983
 40
0.4999999999999987
 40
0.4999999999999987
 40
0.624999999999999
 40
0.624999999999999
 40
0.7499999999999993
 40
0.7499999999999993
 40
0.8749999999999997
 40
0.8749999999999997
 40
1.0
 40
1.0
 40
1.0
 40
1.0
 10
88.17680474695952
 20
128.5877367103177
 30
0.0
 10
88.13780151689834
 20
128.5881695243444
 30
0.0
 10
88.00308778554728
 20
128.5900950888259
 30
0.0
 10
87.65914850111315
 20
128.5885803021422
 30
0.0
 10
87.52142959768697
 20
128.5872245346204
 30
0.0
 10
87.20696181985048
 20
128.5808842046984
 30
0.0
 10
87.02948145710887
 20
128.5759056207271
 30
0.0
 10
86.6333043161075
 20
128.5597875321341
 30
0.0
 10
86.41429616348692
 20
128.5485621161035
 30
0.0
 10
85.95033965144417
 20
128.5180539399033
 30
0.0
 10
85.703668878734
 20
128.4987231782654
 30
0.0
 10
85.18101615085206
 20
128.4493353662544
 30
0.0
 10
84.90334606990076
 20
128.4190138042604
 30
0.0
 10
84.33463947411838
 20
128.3469309550986
 30
0.0
 10
84.04202281432593
 20
128.305071268405
 30
0.0
 10
83.74121799136076
 20
128.2564696804056
 30
0.0
  0
ELLIPSE
  5
200
330
1F
100
AcDbEntity
  8
0
  6
Continuous
 62
     7
370
    15
100
AcDbEllipse
 10
73.7160602156
 20
110.6693808139
 30
0.0
 11
1.780425551617995
 21
3.037339420919124
 31
0.0
210
0.0
220
0.0
230
0.9999999999999999
 40
0.5815557669
 41
0.0
 42
6.283185307179586
  0
ARC
  5
201
330
1F
100
AcDbEntity
  8
0
  6
Continuous
 62
     7
370
    15
100
AcDbCircle
 10
87.8883037207
 20
102.5893373912
 30
0.0
 40
26.0
100
AcDbArc
 50
99.1780670049
 51
260.8219329951
  0
SPLINE
  5
202
330
1F
100
AcDbEntity
  8
0
  6
Continuous
 62
     7
370
    15
100
AcDbSpline
210
0.0
220
0.0
230
1.0
 70
    24
 71
     3
 72
    10
 73
     6
 74
     0
 42
0.00000001
 43
0.00000001
 40
0.0
 40
0.0
 40
0.0
 40
0.0
 40
0.0503274374758354
 40
0.3857712505729712
 40
1.0
 40
1.0
 40
1.0
 40
1.0
 10
88.18830372074535
 20
128.9893373911697
 30
0.0
 10
88.08830585889179
 20
128.9893373911697
 30
0.0
 10
87.32179951251973
 20
128.9893373911697
 30
0.0
 10
85.33387731726276
 20
128.9893373911698
 30
0.0
 10
83.44779465272686
 20
128.9893373911698
 30
0.0
 10
82.22791504151148
 20
128.9893373911697
 30
0.0
  0
SPLINE
  5
203
330
1F
100
AcDbEntity
  8
0
  6
Continuous
 62
     7
370
    15
100
AcDbSpline
210
0.0
220
0.0
230
1.0
 70
    24
 71
     3
 72
    10
 73
     6
 74
     0
 42
0.00000001
 43
0.00000001
 40
0.0
 40
0.0
 40
0.0
 40
0.0
 40
0.0503274374758697
 40
0.3857712505729934
 40
1.0
 40
1.0
 40
1.0
 40
1.0
 10
88.18830372074555
 20
76.18933739116972
 30
0.0
 10
88.08830585889194
 20
76.18933739116972
 30
0.0
 10
87.3217995125198
 20
76.18933739116972
 30
0.0
 10
85.33387731726276
 20
76.18933739116973
 30
0.0
 10
83.44779465272686
 20
76.18933739116973
 30
0.0
 10
82.22791504151148
 20
76.18933739116973
 30
0.0
  0
SPLINE
  5
204
330
1F
100
AcDbEntity
  8
0
  6
Continuous
 62
     7
370
    15
100
AcDbSpline
210
0.0
220
0.0
230
1.0
 70
    24
 71
     3
 72
    10
 73
     6
 74
     0
 42
0.00000001
 43
0.00000001
 40
0.0
 40
0.0
 40
0.0
 40
0.0
 40
0.5
 40
0.5
 40
1.0
 40
1.0
 40
1.0
 40
1.0
 10
78.88830372074544
 20
73.02905999057691
 30
0.0
 10
78.88830372074544
 20
72.86917272238324
 30
0.0
 10
78.88830372074544
 20
72.70804546686865
 30
0.0
 10
78.88830372074544
 20
72.4739464685138
 30
0.0
 10
78.88830372074544
 20
72.40241969492259
 30
0.0
 10
78.88830372074544
 20
72.40241969492259
 30
0.0
  0
ARC
  5
205
330
1F
100
AcDbEntity
  8
0
  6
Continuous
 62
     7
370
    15
100
AcDbCircle
 10
87.8883037207
 20
102.5893373912
 30
0.0
 40
31.49999999999999
100
AcDbArc
 50
140.9381656697
 51
253.398450401
  0
SPLINE
  5
206
330
1F
100
AcDbEntity
  8
0
  6
Continuous
 62
     7
370
    15
100
AcDbSpline
210
0.0
220
0.0
230
1.0
 70
    24
 71
     3
 72
    12
 73
     8
 74
     0
 42
0.00000001
 43
0.00000001
 40
0.0
 40
0.0
 40
0.0
 40
0.0
 40
0.2500000000000006
 40
0.2500000000000006
 40
0.5000000000000012
 40
0.5000000000000012
 40
1.0
 40
1.0
 40
1.0
 40
1.0
 10
63.42961405837782
 20
122.4393373911697
 30
0.0
 10
63.42961405837781
 20
122.4393373911697
 30
0.0
 10
63.4574437786813
 20
122.4393373911697
 30
0.0
 10
63.55258623993798
 20
122.4393373911697
 30
0.0
 10
63.61900905623834
 20
122.4393373911697
 30
0.0
 10
63.84320848775846
 20
122.4393373911697
 30
0.0
 10
64.02719489030407
 20
122.4393373911697
 30
0.0
 10
64.20735145948706
 20
122.4393373911697
 30
0.0
  0
SPLINE
  5
207
330
1F
100
AcDbEntity
  8
0
  6
Continuous
 62
     7
370
    15
100
AcDbSpline
210
0.0
220
0.0
230
1.0
 70
    24
 71
     3
 72
    10
 73
     6
 74
     0
 42
0.00000001
 43
0.00000001
 40
0.0
 40
0.0
 40
0.0
 40
0.0
 40
0.5
 40
0.5
 40
1.0
 40
1.0
 40
1.0
 40
1.0
 10
79.88830372074544
 20
132.4357777149336
 30
0.0
 10
79.88830372074544
 20
132.5961829812844
 30
0.0
 10
79.88830372074544
 20
132.755244794273
 30
0.0
 10
79.88830372074544
 20
132.9861572599033
 30
0.0
 10
79.88830372074544
 20
133.056532864334
 30
0.0
 10
79.88830372074544
 20
133.056532864334
 30
0.0
  0
SPLINE
  5
208
330
1F
100
AcDbEntity
  8
0
  6
Continuous
 62
     7
370
    15
100
AcDbSpline
210
0.0
220
0.0
230
1.0
 70
    24
 71
     3
 72
    12
 73
     8
 74
     0
 42
0.00000001
 43
0.00000001
 40
0.0
 40
0.0
 40
0.0
 40
0.0
 40
0.249999999999998
 40
0.249999999999998
 40
0.499999999999996
 40
0.499999999999996
 40
1.0
 40
1.0
 40
1.0
 40
1.0
 10
68.03830372074543
 20
127.0480270535372
 30
0.0
 10
68.03830372074543
 20
127.0480270535372
 30
0.0
 10
68.03830372074543
 20
127.0198073549493
 30
0.0
 10
68.03830372074543
 20
126.9253643477012
 30
0.0
 10
68.03830372074543
 20
126.8590773709958
 30
0.0
 10
68.03830372074543
 20
126.6334525477075
 30
0.0
 10
68.03830372074543
 20
126.451026284675
 30
0.0
 10
68.03830372074543
 20
126.2702896524281
 30
0.0
  0
ARC
  5
209
330
1F
100
AcDbEntity
  8
0
  6
Continuous
 62
     7
370
    15
100
AcDbCircle
 10
87.8883037207
 20
102.5893373912
 30
0.0
 40
31.5
100
AcDbArc
 50
104.7124579609
 51
129.0618343303
  0
ARC
  5
20A
330
1F
100
AcDbEntity
  8
0
  6
Continuous
 62
     7
370
    15
100
AcDbCircle
 10
87.8883037207
 20
102.5893373912
 30
0.0
 40
31.49999999999999
100
AcDbArc
 50
286.601549599
 51
31.0027191339
  0
SPLINE
  5
20B
330
1F
100
AcDbEntity
  8
0
  6
Continuous
 62
     7
370
    15
100
AcDbSpline
210
0.0
220
0.0
230
1.0
 70
    24
 71
     3
 72
    12
 73
     8
 74
     0
 42
0.00000001
 43
0.00000001
 40
0.0
 40
0.0
 40
0.0
 40
0.0
 40
0.2499999999999999
 40
0.2499999999999999
 40
0.4999999999999998
 40
0.4999999999999998
 40
1.0
 40
1.0
 40
1.0
 40
1.0
 10
96.88830372074544
 20
72.40241969492259
 30
0.0
 10
96.88830372074544
 20
72.40241969492257
 30
0.0
 10
96.88830372074544
 20
72.41953678118843
 30
0.0
 10
96.88830372074543
 20
72.48427289266354
 30
0.0
 10
96.88830372074544
 20
72.53173013554387
 30
0.0
 10
96.88830372074544
 20
72.70855457808335
 30
0.0
 10
96.88830372074544
 20
72.86883108528906
 30
0.0
 10
96.88830372074544
 20
73.02905999057684
 30
0.0
  0
LINE
  5
20C
330
1F
100
AcDbEntity
  8
0
  6
Continuous
 62
     7
370
    15
100
AcDbLine
 10
96.8883037207
 20
73.0290599906
 30
0.0
 11
96.8883037207
 21
76.1893373912
 31
0.0
  0
LINE
  5
20D
330
1F
100
AcDbEntity
  8
0
  6
Continuous
 62
     7
370
    15
100
AcDbLine
 10
96.8883037207
 20
76.1893373912
 30
0.0
 11
93.5486924
 21
76.1893373912
 31
0.0
  0
LINE
  5
20E
330
1F
100
AcDbEntity
  8
0
  6
Continuous
 62
     7
370
    15
100
AcDbLine
 10
79.8883037207
 20
128.9893373912
 30
0.0
 11
79.8883037207
 21
132.4357777149
 31
0.0
  0
LINE
  5
20F
330
1F
100
AcDbEntity
  8
0
  6
Continuous
 62
     7
370
    15
100
AcDbLine
 10
78.8883037207
 20
76.1893373912
 30
0.0
 11
78.8883037207
 21
73.0290599906
 31
0.0
  0
LINE
  5
210
330
1F
100
AcDbEntity
  8
0
  6
Continuous
 62
     7
370
    15
100
AcDbLine
 10
68.0383037207
 20
126.2702896524
 30
0.0
 11
68.0383037207
 21
122.4393373912
 31
0.0
  0
LINE
  5
211
330
1F
100
AcDbEntity
  8
0
  6
Continuous
 62
     7
370
    15
100
AcDbLine
 10
64.2073514595
 20
122.4393373912
 30
0.0
 11
68.0383037207
 21
122.4393373912
 31
0.0
  0
LINE
  5
212
330
1F
100
AcDbEntity
  8
0
  6
Continuous
 62
     7
370
    15
100
AcDbLine
 10
82.2279150415
 20
128.9893373912
 30
0.0
 11
79.8883037207
 21
128.9893373912
 31
0.0
  0
LINE
  5
213
330
1F
100
AcDbEntity
  8
0
  6
Continuous
 62
     7
370
    15
100
AcDbLine
 10
82.2279150415
 20
76.1893373912
 30
0.0
 11
78.8883037207
 21
76.1893373912
 31
0.0
  0
SPLINE
  5
214
330
1F
100
AcDbEntity
  8
0
  6
Continuous
 62
     7
370
    15
100
AcDbSpline
210
0.0
220
0.0
230
1.0
 70
     8
 71
     3
 72
    30
 73
    26
 74
     0
 42
0.00000001
 43
0.00000001
 40
0.0
 40
0.0
 40
0.0
 40
0.0
 40
0.1250000000000002
 40
0.1250000000000002
 40
0.1875000000000002
 40
0.1875000000000002
 40
0.2500000000000003
 40
0.2500000000000003
 40
0.3750000000000004
 40
0.3750000000000004
 40
0.4375000000000004
 40
0.4375000000000004
 40
0.5000000000000004
 40
0.5000000000000004
 40
0.6250000000000004
 40
0.6250000000000004
 40
0.6875000000000003
 40
0.6875000000000003
 40
0.7500000000000002
 40
0.7500000000000002
 40
0.8125000000000001
 40
0.8125000000000001
 40
0.8749999999999999
 40
0.8749999999999999
 40
1.0
 40
1.0
 40
1.0
 40
1.0
 10
88.88830372074551
 20
71.10521440830742
 30
0.0
 10
89.4197216511461
 20
71.12209332631603
 30
0.0
 10
89.94138084872027
 20
71.15211089114071
 30
0.0
 10
90.7100226358793
 20
71.21492128041382
 30
0.0
 10
90.9639124350443
 20
71.23882518764071
 30
0.0
 10
91.4669852109904
 20
71.29226048008312
 30
0.0
 10
91.71644905920705
 20
71.32186734825066
 30
0.0
 10
92.44135995680392
 20
71.41631704696508
 30
0.0
 10
92.89923729369609
 20
71.4873444407943
 30
0.0
 10
93.54900451917894
 20
71.60135872750008
 30
0.0
 10
93.76039122258909
 20
71.64081397864065
 30
0.0
 10
94.16502503335926
 20
71.72033542141132
 30
0.0
 10
94.35776550486047
 20
71.7602715639121
 30
0.0
 10
94.9081963812374
 20
71.87920796674024
 30
0.0
 10
95.23837975851802
 20
71.95737273062412
 30
0.0
 10
95.67705557516845
 20
72.06708217089299
 30
0.0
 10
95.81285413365498
 20
72.1021630076014
 30
0.0
 10
96.05973116650115
 20
72.16740328698101
 30
0.0
 10
96.17150970382914
 20
72.19773810302577
 30
0.0
 10
96.37193989370277
 20
72.25307648224761
 30
0.0
 10
96.46059223690625
 20
72.27808115880768
 30
0.0
 10
96.61425978458738
 20
72.32196096769836
 30
0.0
 10
96.67950748883922
 20
72.34090465246067
 30
0.0
 10
96.83581254220348
 20
72.38662437973088
 30
0.0
 10
96.88830372074548
 20
72.40241969492259
 30
0.0
 10
96.88830372074548
 20
72.40241969492259
 30
0.0
  0
SPLINE
  5
215
330
1F
100
AcDbEntity
  8
0
  6
Continuous
 62
     7
370
    15
100
AcDbSpline
210
0.0
220
0.0
230
1.0
 70
     8
 71
     3
 72
    28
 73
    24
 74
     0
 42
0.00000001
 43
0.00000001
 40
0.0
 40
0.0
 40
0.0
 40
0.0
 40
0.1250000000000001
 40
0.1250000000000001
 40
0.1875000000000001
 40
0.1875000000000001
 40
0.2500000000000001
 40
0.2500000000000001
 40
0.3749999999999999
 40
0.3749999999999999
 40
0.4375
 40
0.4375
 40
0.4999999999999999
 40
0.4999999999999999
 40
0.6249999999999999
 40
0.6249999999999999
 40
0.7499999999999997
 40
0.7499999999999997
 40
0.8124999999999998
 40
0.8124999999999998
 40
0.8749999999999998
 40
0.8749999999999998
 40
1.0
 40
1.0
 40
1.0
 40
1.0
 10
78.88830372074548
 20
72.40241969492259
 30
0.0
 10
78.88830372074548
 20
72.40241969492259
 30
0.0
 10
78.9407800630637
 20
72.38663498097236
 30
0.0
 10
79.0945770106206
 20
72.34163956689615
 30
0.0
 10
79.15845198565461
 20
72.32308457182043
 30
0.0
 10
79.31194825431115
 20
72.27923184937393
 30
0.0
 10
79.40176322970483
 20
72.25388724242173
 30
0.0
 10
79.70374202475571
 20
72.17048516467163
 30
0.0
 10
79.94969545881146
 20
72.10461960552054
 30
0.0
 10
80.38506263823984
 20
71.99564926502875
 30
0.0
 10
80.5422778204122
 20
71.9574096292621
 30
0.0
 10
80.87444244095464
 20
71.87965089184276
 30
0.0
 10
81.04924970655752
 20
71.84014992966739
 30
0.0
 10
81.59930889714336
 20
71.7212421873014
 30
0.0
 10
81.99993228153882
 20
71.6414245058768
 30
0.0
 10
82.87251839288753
 20
71.48808134408073
 30
0.0
 10
83.3326538404891
 20
71.41674759081147
 30
0.0
 10
84.05261993445528
 20
71.32280408373684
 30
0.0
 10
84.2978936444898
 20
71.29361029037692
 30
0.0
 10
84.79934998091865
 20
71.24014371611351
 30
0.0
 10
85.05678135029117
 20
71.21578438183835
 30
0.0
 10
85.83272114615568
 20
71.1521942363936
 30
0.0
 10
86.3569495460617
 20
71.12209130130434
 30
0.0
 10
86.88830372074551
 20
71.10521440830742
 30
0.0
  0
SPLINE
  5
216
330
1F
100
AcDbEntity
  8
0
  6
Continuous
 62
     7
370
    15
100
AcDbSpline
210
0.0
220
0.0
230
1.0
 70
     8
 71
     3
 72
    17
 73
    13
 74
     0
 42
0.00000001
 43
0.00000001
 40
0.0
 40
0.0
 40
0.0
 40
0.0
 40
0.1010733783560334
 40
0.205140028205107
 40
0.3061964135424131
 40
0.4100732691904767
 40
0.5131948365521942
 40
0.6192189555352579
 40
0.7237208234921021
 40
0.8313765332724334
 40
0.9336711881009996
 40
1.0
 40
1.0
 40
1.0
 40
1.0
 10
79.88830372074548
 20
133.0565328643339
 30
0.0
 10
79.90890730103008
 20
133.0619810399627
 30
0.0
 10
79.95072463324406
 20
133.0730387380464
 30
0.0
 10
80.28648695076483
 20
133.1593974532202
 30
0.0
 10
80.81573434462766
 20
133.287266420966
 30
0.0
 10
81.53742461063418
 20
133.4462163180272
 30
0.0
 10
82.4439669601441
 20
133.6206927011286
 30
0.0
 10
83.50581525358528
 20
133.7899244621787
 30
0.0
 10
84.71075131095826
 20
133.9375618189919
 30
0.0
 10
85.99673342486719
 20
134.0402801231239
 30
0.0
 10
87.17678887275677
 20
134.0923237834805
 30
0.0
 10
87.90274540023245
 20
134.0842394889472
 30
0.0
 10
88.18830372074535
 20
134.081059494716
 30
0.0
  0
SPLINE
  5
217
330
1F
100
AcDbEntity
  8
0
  6
Continuous
 62
     7
370
    15
100
AcDbSpline
210
0.0
220
0.0
230
1.0
 70
     8
 71
     3
 72
    20
 73
    16
 74
     0
 42
0.00000001
 43
0.00000001
 40
0.0
 40
0.0
 40
0.0
 40
0.0
 40
0.2500000000000005
 40
0.2500000000000005
 40
0.3750000000000004
 40
0.3750000000000004
 40
0.5000000000000003
 40
0.5000000000000003
 40
0.6250000000000002
 40
0.6250000000000002
 40
0.7500000000000001
 40
0.7500000000000001
 40
0.8750000000000001
 40
0.8750000000000001
 40
1.0
 40
1.0
 40
1.0
 40
1.0
 10
63.42961405837811
 20
122.4393373911697
 30
0.0
 10
63.96027082621278
 20
123.0931998194671
 30
0.0
 10
64.4939988224743
 20
123.6969856014643
 30
0.0
 10
65.27697114046303
 20
124.5238243376329
 30
0.0
 10
65.5349547405597
 20
124.7862529755858
 30
0.0
 10
66.03934999696753
 20
125.2829156296907
 30
0.0
 10
66.28212841939553
 20
125.5135025087123
 30
0.0
 10
66.73280849890858
 20
125.9300567332949
 30
0.0
 10
66.94227236489988
 20
126.1175545352624
 30
0.0
 10
67.3205608814879
 20
126.4489515128988
 30
0.0
 10
67.48430856767239
 20
126.5884555003941
 30
0.0
 10
67.75249436987184
 20
126.813909007865
 30
0.0
 10
67.85771877795858
 20
126.9005351194087
 30
0.0
 10
68.00177800327211
 20
127.0185159082628
 30
0.0
 10
68.03830372074549
 20
127.0480270535372
 30
0.0
 10
68.03830372074549
 20
127.0480270535372
 30
0.0
  0
ARC
  5
218
330
1F
100
AcDbEntity
  8
0
  6
Continuous
 62
     7
370
    15
100
AcDbCircle
 10
87.8883037207
 20
102.5893373912
 30
0.0
 40
31.49999999999997
100
AcDbArc
 50
268.180780706
 51
271.819219294
  0
CIRCLE
  5
219
330
1F
100
AcDbEntity
  8
VERMASSUNG
  6
CENTERX2
100
AcDbCircle
 10
87.8883037207
 20
107.5815658221
 30
0.0
 40
39.99999999999999
  0
POINT
  5
21A
330
1F
100
AcDbEntity
  8
VERMASSUNG
100
AcDbPoint
 10
87.8883037207
 20
147.5815658221
 30
0.0
  0
DIMENSION
  5
21B
330
1F
100
AcDbEntity
  8
VERMASSUNG
100
AcDbDimension
  2
*D6
 10
44.3505371029
 20
147.5815658221
 30
0.0
 11
44.3505371029
 21
107.5815658221
 31
0.0
 70
   160
  1
%%c<>
 71
     2
 42
-1.0
  3
SLDDIMSTYLE2
100
AcDbAlignedDimension
 13
87.8883037207
 23
67.5815658221
 33
0.0
 14
87.8883037207
 24
147.5815658221
 34
0.0
 50
90.0
100
AcDbRotatedDimension
  0
INSERT
  5
232
330
1F
100
AcDbEntity
  8
VERMASSUNG
100
AcDbBlockReference
  2
SW_CENTERMARKSYMBOL_0
 10
87.8883037207
 20
102.5893373912
 30
0.0
  0
OLE2FRAME
  5
233
330
1F
100
AcDbEntity
  8
0
100
AcDbOle2Frame
 70
     2
  3
Bitmap Image
 10
13.8511154363
 20
38.264191557
 30
0.0
 11
51.6290888628
 21
31.9806341108
 31
0.0
 71
     2
 72
     0
 73
     1
 90
    12928
310
80552BED0767C5B32B40DDAF6807D121434000000000000000006FFBDDFB85D0
310
4940DDAF6807D121434000000000000000006FFBDDFB85D04940416F4BD60AFB
310
3F4000000000000000002BED0767C5B32B40416F4BD60AFB3F40000000000000
310
0000000000000100000000010000010000000100000000000100000000320000
310
D0CF11E0A1B11AE1000000000000000000000000000000003E000300FEFF0900
310
0600000000000000000000000100000001000000000000000010000002000000
310
01000000FEFFFFFF0000000000000000FFFFFFFFFFFFFFFFFFFFFFFFFFFFFFFF
310
FFFFFFFFFFFFFFFFFFFFFFFFFFFFFFFFFFFFFFFFFFFFFFFFFFFFFFFFFFFFFFFF
310
FFFFFFFFFFFFFFFFFFFFFFFFFFFFFFFFFFFFFFFFFFFFFFFFFFFFFFFFFFFFFFFF
310
FFFFFFFFFFFFFFFFFFFFFFFFFFFFFFFFFFFFFFFFFFFFFFFFFFFFFFFFFFFFFFFF
310
FFFFFFFFFFFFFFFFFFFFFFFFFFFFFFFFFFFFFFFFFFFFFFFFFFFFFFFFFFFFFFFF
310
FFFFFFFFFFFFFFFFFFFFFFFFFFFFFFFFFFFFFFFFFFFFFFFFFFFFFFFFFFFFFFFF
310
FFFFFFFFFFFFFFFFFFFFFFFFFFFFFFFFFFFFFFFFFFFFFFFFFFFFFFFFFFFFFFFF
310
FFFFFFFFFFFFFFFFFFFFFFFFFFFFFFFFFFFFFFFFFFFFFFFFFFFFFFFFFFFFFFFF
310
FFFFFFFFFFFFFFFFFFFFFFFFFFFFFFFFFFFFFFFFFFFFFFFFFFFFFFFFFFFFFFFF
310
FFFFFFFFFFFFFFFFFFFFFFFFFFFFFFFFFFFFFFFFFFFFFFFFFFFFFFFFFFFFFFFF
310
FFFFFFFFFFFFFFFFFFFFFFFFFFFFFFFFFFFFFFFFFFFFFFFFFFFFFFFFFFFFFFFF
310
FFFFFFFFFFFFFFFFFFFFFFFFFFFFFFFFFFFFFFFFFFFFFFFFFFFFFFFFFFFFFFFF
310
FFFFFFFFFFFFFFFFFFFFFFFFFFFFFFFFFFFFFFFFFFFFFFFFFFFFFFFFFFFFFFFF
310
FFFFFFFFFFFFFFFFFFFFFFFFFFFFFFFFFFFFFFFFFFFFFFFFFFFFFFFFFFFFFFFF
310
FDFFFFFFFEFFFFFFFEFFFFFFFEFFFFFF05000000060000000700000008000000
310
090000000A0000000B0000000C0000000D0000000E0000000F00000010000000
310
11000000120000001300000014000000150000001600000017000000FEFFFFFF
310
FFFFFFFFFFFFFFFFFFFFFFFFFFFFFFFFFFFFFFFFFFFFFFFFFFFFFFFFFFFFFFFF
310
FFFFFFFFFFFFFFFFFFFFFFFFFFFFFFFFFFFFFFFFFFFFFFFFFFFFFFFFFFFFFFFF
310
FFFFFFFFFFFFFFFFFFFFFFFFFFFFFFFFFFFFFFFFFFFFFFFFFFFFFFFFFFFFFFFF
310
FFFFFFFFFFFFFFFFFFFFFFFFFFFFFFFFFFFFFFFFFFFFFFFFFFFFFFFFFFFFFFFF
310
FFFFFFFFFFFFFFFFFFFFFFFFFFFFFFFFFFFFFFFFFFFFFFFFFFFFFFFFFFFFFFFF
310
FFFFFFFFFFFFFFFFFFFFFFFFFFFFFFFFFFFFFFFFFFFFFFFFFFFFFFFFFFFFFFFF
310
FFFFFFFFFFFFFFFFFFFFFFFFFFFFFFFFFFFFFFFFFFFFFFFFFFFFFFFFFFFFFFFF
310
FFFFFFFFFFFFFFFFFFFFFFFFFFFFFFFFFFFFFFFFFFFFFFFFFFFFFFFFFFFFFFFF
310
FFFFFFFFFFFFFFFFFFFFFFFFFFFFFFFFFFFFFFFFFFFFFFFFFFFFFFFFFFFFFFFF
310
FFFFFFFFFFFFFFFFFFFFFFFFFFFFFFFFFFFFFFFFFFFFFFFFFFFFFFFFFFFFFFFF
310
FFFFFFFFFFFFFFFFFFFFFFFFFFFFFFFFFFFFFFFFFFFFFFFFFFFFFFFFFFFFFFFF
310
FFFFFFFFFFFFFFFFFFFFFFFFFFFFFFFFFFFFFFFFFFFFFFFFFFFFFFFFFFFFFFFF
310
FFFFFFFFFFFFFFFFFFFFFFFFFFFFFFFFFFFFFFFFFFFFFFFFFFFFFFFFFFFFFFFF
310
52006F006F007400200045006E00740072007900000000000000000000000000
310
0000000000000000000000000000000000000000000000000000000000000000
310
16000500FFFFFFFFFFFFFFFF020000000A00030000000000C000000000000046
310
000000000000000000000000B0B6B1B915CDCB0103000000C000000000000000
310
01004F006C006500000000000000000000000000000000000000000000000000
310
0000000000000000000000000000000000000000000000000000000000000000
310
0A000200FFFFFFFFFFFFFFFFFFFFFFFF00000000000000000000000000000000
310
0000000000000000000000000000000000000000000000001400000000000000
310
010043006F006D0070004F0062006A0000000000000000000000000000000000
310
0000000000000000000000000000000000000000000000000000000000000000
310
120002010100000003000000FFFFFFFF00000000000000000000000000000000
310
0000000000000000000000000000000000000000010000004D00000000000000
310
01004F006C006500310030004E00610074006900760065000000000000000000
310
0000000000000000000000000000000000000000000000000000000000000000
310
1A000200FFFFFFFFFFFFFFFFFFFFFFFF00000000000000000000000000000000
310
0000000000000000000000000000000000000000040000002426000000000000
310
FEFFFFFF02000000FEFFFFFFFFFFFFFFFFFFFFFFFFFFFFFFFFFFFFFFFFFFFFFF
310
FFFFFFFFFFFFFFFFFFFFFFFFFFFFFFFFFFFFFFFFFFFFFFFFFFFFFFFFFFFFFFFF
310
FFFFFFFFFFFFFFFFFFFFFFFFFFFFFFFFFFFFFFFFFFFFFFFFFFFFFFFFFFFFFFFF
310
FFFFFFFFFFFFFFFFFFFFFFFFFFFFFFFFFFFFFFFFFFFFFFFFFFFFFFFFFFFFFFFF
310
FFFFFFFFFFFFFFFFFFFFFFFFFFFFFFFFFFFFFFFFFFFFFFFFFFFFFFFFFFFFFFFF
310
FFFFFFFFFFFFFFFFFFFFFFFFFFFFFFFFFFFFFFFFFFFFFFFFFFFFFFFFFFFFFFFF
310
FFFFFFFFFFFFFFFFFFFFFFFFFFFFFFFFFFFFFFFFFFFFFFFFFFFFFFFFFFFFFFFF
310
FFFFFFFFFFFFFFFFFFFFFFFFFFFFFFFFFFFFFFFFFFFFFFFFFFFFFFFFFFFFFFFF
310
FFFFFFFFFFFFFFFFFFFFFFFFFFFFFFFFFFFFFFFFFFFFFFFFFFFFFFFFFFFFFFFF
310
FFFFFFFFFFFFFFFFFFFFFFFFFFFFFFFFFFFFFFFFFFFFFFFFFFFFFFFFFFFFFFFF
310
FFFFFFFFFFFFFFFFFFFFFFFFFFFFFFFFFFFFFFFFFFFFFFFFFFFFFFFFFFFFFFFF
310
FFFFFFFFFFFFFFFFFFFFFFFFFFFFFFFFFFFFFFFFFFFFFFFFFFFFFFFFFFFFFFFF
310
FFFFFFFFFFFFFFFFFFFFFFFFFFFFFFFFFFFFFFFFFFFFFFFFFFFFFFFFFFFFFFFF
310
FFFFFFFFFFFFFFFFFFFFFFFFFFFFFFFFFFFFFFFFFFFFFFFFFFFFFFFFFFFFFFFF
310
FFFFFFFFFFFFFFFFFFFFFFFFFFFFFFFFFFFFFFFFFFFFFFFFFFFFFFFFFFFFFFFF
310
FFFFFFFFFFFFFFFFFFFFFFFFFFFFFFFFFFFFFFFFFFFFFFFFFFFFFFFFFFFFFFFF
310
0100000200000000000000000000000000000000000000009E03820000000004
310
60E0DA3500000000C80225000000000000000000000000000000000000000000
310
0100FEFF030A0000FFFFFFFF0A00030000000000C00000000000004607000000
310
5042727573680007000000504272757368000700000050427275736800F439B2
310
7100000000000000000000000000000000000000000000000000000000000000
310
0000000000000000000000000000000000000000000000000000000000000000
310
0000000000000000000000000000000000000000000000000000000000000000
310
0000000000000000000000000000000000000000000000000000000000000000
310
0000000000000000000000000000000000000000000000000000000000000000
310
0000000000000000000000000000000000000000000000000000000000000000
310
0000000000000000000000000000000000000000000000000000000000000000
310
0000000000000000000000000000000000000000000000000000000000000000
310
0000000000000000000000000000000000000000000000000000000000000000
310
0000000000000000000000000000000000000000000000000000000000000000
310
0000000000000000000000000000000000000000000000000000000000000000
310
0000000000000000000000000000000000000000000000000000000000000000
310
20260000424D0E260000000000003E00000028000000B40200006E0000000100
310
01000000000000000000130B0000130B00000200000002000000000000FFFFFF
310
FFFFFFFFFFFFFFFFFFFFFFFFFFFFFFFFFFFFFFFFFFFFFFFFFFFFFFFFFFFFFFFF
310
FFFFFFFFFFFFFFFFFFFFFFFFFFFFFFFFFFFFFFFFFFFFFFFFFFFFFFFFFFFFFFFF
310
FFFFFFFFFFFFFFFFFFFFFFFFFFFFFFFFFFFFFFFFFFFFFFFFF000FFFFFFFFFFFF
310
FFFFFFFFFFFFFFFFFFFFFFFFFFFFFFFFFFFFFFFFFFFFFFFFFFFFFFFFFFFFFFFF
310
FFFFFFFFFFFFFFFFFFFFFFFFFFFFFFFFFFFFFFFFFFFFFFFFFFFFFFFFFFFFFFFF
310
FFFFFFFFFFFFFFFFFFFFFFFFFFFFFFFFF000FFFFFFFFFFFFFFFFFFFFFFFFFFFF
310
FFFFFFFFFFFFFFFFFFFFFFFFFFFFFFFFFFFFFFFFFFFFFFFFFFFFFFFFFFFFFFFF
310
FFFFFFFFFFFFFFFFFFFFFFFFFFFFFFFFFFFFFFFFFFFFFFFFFFFFFFFFFFFFFFFF
310
FFFFFFFFFFFFFFFFF000FFFFFFFFFFFFFFFFFFFFFFFFFFFFFFFFFFFFFFFFFFFF
310
FFFFFFFFFFFFFFFFFFFFFFFFFFFFFFFFFFFFFFFFFFFFFFFFFFFFFFFFFFFFFFFF
310
FFFFFFFFFFFFFFFFFFFFFFFFFFFFFFFFFFFFFFFFFFFFFFFFFFFFFFFFFFFFFFFF
310
F000FFFFFFFFFFFFFFFFFFFFFFFFFFFFFFFFFFFFFFFFFFFFFFFFFFFFFFFFFFFF
310
FFFFFFFFFFFFFFFFFFFFFFFFFFFFFFFFFFFFFFFFFFFFFFFFFFFFFFFFFFFFFFFF
310
FFFFFFFFFFFFFFFFFFFFFFFFFFFFFFFFFFFFFFFFFFFFFFFFF000FFFFFFFFFFFF
310
FFFFFFFFFFFFFFFFFFFFFFFFFFFFFFFFFFFFFFFFFFFFFFFFFFFFFFFFFFFFFFFF
310
FFFFFFFFFFFFFFFFFFFFFFFFFFFFFFFFFFFFFFFFFFFFFFFFFFFFFFFFFFFFFFFF
310
FFFFFFFFFFFFFFFFFFFFFFFFFFFFFFFFF000FFFFFFFFFFFFFFFFFFFFFFFFFFFF
310
FFFFFFFFFFFFFFFFFFFFFFFFFFFFFFFFFFFFFFFFFFFFFFFFFFFFFFFFFFFFFFFF
310
FFFFFFFFFFFFFFFFFFFFFFFFFFFFFFFFFFFFFFFFFFFFFFFFFFFFFFFFFFFFFFFF
310
FFFFFFFFFFFFFFFFF000FFFFFFFFFFFFFFFFFFFFFFFFFFFFFFFFFFFFFFFFFFFF
310
FFFFFFFFFFFFFFFFFFFFFFFFFFFFFFFFFFFFFFFFFFFFFFFFFFFFFFFFFFFFFFFF
310
FFFFFFFFFFFFFFFFFFFFFFFFFFFFFFFFFFFFFFFFFFFFFFFFFFFFFFFFFFFFFFFF
310
F000FFFFFFFFFFFFFFFFFFFFFFFFFFFFFFFFFFFFFFFFFFFFFFFFFFFFFFFFFFFF
310
FFFFFFFFFFFFFFFFFFFFFFFFFFFFFFFFFFFFFFFFFFFFFFFFFFFFFFFFFFFFFFFF
310
FFFFFFFFFFFFFFFFFFFFFFFFFFFFFFFFFFFFFFFFFFFFFFFFF000FFFFFFFFFFFF
310
FFFFFFFFFFFFFFFFFFFFFFFFFFFFFFFFFFFFFFFFFFFFFFFFFFFFFFFFFFFFFFFF
310
FFFFFFFFFFFFFFFFFFFFFFFFFFFFFFFFFFFFFFFFFFFFFFFFFFFFFFFFFFFFFFFF
310
FFFFFFFFFFFFFFFFFFFFFFFFFFFFFFFFF000FFFFFFFFFFFFFFFFFFFFFFFFFFFF
310
FFFFFFFFFFFFFFFFFFFFFFFFFFFFFFFFFFFFFFFFFFFFFFFFFFFFFFFFFFFFFFFF
310
FFFFFFFFFFFFFFFFFFFFFFFFFFFFFFFFFFFFFFFFFFFFFFFFFFFFFFFFFFFFFFFF
310
FFFFFFFFFFFFFFFFF000FFFFFFFFFFFFFFFFFFFFFFFFFFFFFFFFFFFFFFFFFFFF
310
FFFFFFFFFFFFFFFFFFFFFFFFFFFFFFFFFFFFFFFFFFFFFFFFFFFFFFFFFFFFFFFF
310
FFFFFFFFFFFFFFFFFFFFFFFFFFFFFFFFFFFFFFFFFFFFFFFFFFFFFFFFFFFFFFFF
310
F000FFFFFFFFFFFFFFFFFFFFFFFFFFFFFFFFFFFFFFFFFFFFFFFFFFFFFFFFFFFF
310
FFFFFFFFFFFFFFFFFFFFFFFFFFFFFFFFFFFFFFFFFFFFFFFFFFFFFFFFFFFFFFFF
310
FFFFFFFFFFFFFFFFFFFFFFFFFFFFFFFFFFFFFFFFFFFFFFFFF000FFFFFFFFFFFF
310
FFFFFFFFFFFFFFFFFFFFFFFFFFFFFFFFFFFFFFFFFFFFFFFFFFFFFFFFFFFFFFFF
310
FFFFFFFFFFFFFFFFFFFFFFFFFFFFFFFFFFFFFFFFFFFFFFFFFFFFFFFFFFFFFFFF
310
FFFFFFFFFFFFFFFFFFFFFFFFFFFFFFFFF000FFFFFFFFFFFFFFFFFFFFFFFFFFFF
310
FFFFFFFFFFFFFFFFFFFFFFFFFFFFFFFFFFFFFFFFFFFFFFFFFFFFFFFFFFFFFFFF
310
FFFFFFFFFFFFFFFFFFFFFFFFFFFFFFFFFFFFFFFFFFFFFFFFFFFFFFFFFFFFFFFF
310
FFFFFFFFFFFFFFFFF000FFFFFFFFFFFFFFFFFFFFFFFFFFFFFFFFFFFFFFFFFFFF
310
FFFFFFFFFFFFFFFFFFFFFFFFFFFFFFFFFFFFFFFFFFFFFFFFFFFFFFFFFFFFFFFF
310
FFFFFFFFFFFFFFFFFFFFFFFFFFFFFFFFFFFFFFFFFFFFFFFFFFFFFFFFFFFFFFFF
310
F000FFFFFFFFFFFFFFFFFFFFFFFFFFFFFFFFFFFFFFFFFFFFFFFFFFFFFFFFFFFF
310
FFFFFFFFFFFFFFFFFFFFFFFFFFFFFFFFFFFFFFFFFFFFFFFFFFFFFFFFFFFFFFFF
310
FFFFFFFFFFFFFFFFFFFFFFFFFFFFFFFFFFFFFFFFFFFFFFFFF000FFFFFFFFFFFF
310
FFFFFFFFFFFFFFFFFFFFFFFFFFFFFFFFFFFFFFFFFFFFFFFFFFFFFFFFFFFFFFFF
310
FFFFFFFFFFFFFFFFFFFFFFFFFFFFFFFFFFFFFFFFFFFFFFFFFFFFFFFFFFFFFFFF
310
FFFFFFFFFFFFFFFFFFFFFFFFFFFFFFFFF000FFFFFFFFFFFFFFFFFFFFFFFFFFFF
310
FFFFFFFFFFFFFFFFFFFFFFFFFFFFFFFFFFFFFFFFFFFFFFFFFFFFFFFFFFFFFFFF
310
FFFFFFFFFFFFFFFFFFFFFFFFFFFFFFFFFFFFFFFFFFFFFFFFFFFFFFFFFFFFFFFF
310
FFFFFFFFFFFFFFFFF000FFFFF80003FFFFFFFFFFFFFFFFFFFFFFFFFFFFFFFFFF
310
FFFFF00007FFFFFFFFFF00007FFFFFF800000000000000007FFFFFFFFFFFFFFF
310
FFFFFFFC001FFFFFFFFFFFFFFC001FFFFFFFFFFFFFFFFFFFFFFFFFFE0007FFFF
310
F000FFFF8000007FFFFFFFF8000FFFFFC0007FFFFF80007FFFFF0000007FFFFF
310
FFF8000007FFFFF800000000000000007FFFFFF0001FFFFFFFFFFFC00001FFFF
310
FFFFFFFFC00001FFFFFFFF000000000003FFFFE000007FFFF000FFFE0000000F
310
FFFFFFF0000FFFFF80007FFFFF80007FFFFC0000001FFFFFFFC0000001FFFFF8
310
00000000000000007FFFFFF0001FFFFFFFFFFE0000003FFFFFFFFFFE0000003F
310
FFFFFF000000000003FFFF0000000FFFF000FFF800000003FFFFFFF00007FFFF
310
80007FFFFF80007FFFF000000007FFFFFF000000003FFFF80000000000000000
310
7FFFFFF0001FFFFFFFFFF80000000FFFFFFFFFF80000000FFFFFFF0000000000
310
03FFFC00000003FFF000FFE000000000FFFFFFF00007FFFF80003FFFFF80007F
310
FFC000000001FFFFFC000000001FFFF800000000000000007FFFFFF0001FFFFF
310
FFFFE000000003FFFFFFFFE000000003FFFFFF000000000003FFF000000000FF
310
F000FF80000000007FFFFFF00007FFFF80003FFFFF80007FFF8000000000FFFF
310
F80000000007FFF800000000000000007FFFFFF0001FFFFFFFFFC000000001FF
310
FFFFFFC000000001FFFFFF000000000003FFC0000000007FF000FF0000000000
310
3FFFFFE00007FFFF00003FFFFF80007FFE00000000003FFFF00000000003FFF8
310
00000000000000007FFFFFF0001FFFFFFFFF8000000000FFFFFFFF8000000000
310
FFFFFF000000000003FF80000000003FF000FE00000000001FFFFFE00003FFFF
310
00003FFFFF80007FFC00000000001FFFE00000000001FFF8000001FFFE000000
310
7FFFFFF0001FFFFFFFFE00000000003FFFFFFE00000000003FFFFF0000000000
310
03FF00000000001FF000FC00000000000FFFFFE00003FFFF00001FFFFF80007F
310
F800000000001FFFC00000000000FFF8000001FFFE0000007FFFFFF0001FFFFF
310
FFFC00000000001FFFFFFC00000000001FFFFF000000000003FE00000000000F
310
F000F8000000000007FFFFE00003FFFF00001FFFFF80007FF800000000000FFF
310
800000000000FFF8000001FFFE0000007FFFFFF0001FFFFFFFF800000000000F
310
FFFFF800000000000FFFFF000000000003FC000000000007F000F80000000000
310
03FFFFC00003FFFE00001FFFFF80007FF0000000000007FF0000000000007FF8
310
000001FFFE0000007FFFFFF0001FFFFFFFF0000000000007FFFFF00000000000
310
07FFFF000000000003F8000000000003F000F0000000000003FFFFC00001FFFE
310
00001FFFFF80007FE0000000000007FE0000000000003FF8000001FFFE000000
310
7FFFFFF0001FFFFFFFF0000000000007FFFFF0000000000007FFFF0000000000
310
03F800001F800003F000E00001FFF00001FFFFC00001FFFE00000FFFFF80007F
310
E00001FFE00003FE00001FFF00003FF8000001FFFE0000007FFFFFF0001FFFFF
310
FFE000003E000003FFFFE000003E000003FFFF000000000003F00001FFF80001
310
F000E00007FFFC0001FFFFC00001FFFE00000FFFFF80007FC0000FFFFC0003FC
310
0000FFFFC0001FF8000001FFFE0000007FFFFFF0001FFFFFFFC00003FFE00001
310
FFFFC00003FFE00001FFFF0001FFFFFFFFF00007FFFE0001F000E0000FFFFF00
310
00FFFF800001FFFC00000FFFFF80007FC0001FFFFE0001FC0001FFFFE0001FF8
310
000001FFFE0000007FFFFFF0001FFFFFFF80000FFFF80000FFFF80000FFFF800
310
00FFFF0003FFFFFFFFE0000FFFFF8000F000C0003FFFFF8000FFFF800000FFFC
310
000007FFFF80007F80003FFFFF0001FC0003FFFFF0001FF8000001FFFE000000
310
7FFFFFF0001FFFFFFF80003FFFFE0000FFFF80003FFFFE0000FFFF0003FFFFFF
310
FFE0003FFFFF8000F000C0003FFFFF8000FFFF800000FFFC000007FFFF80007F
310
80007FFFFF8001F80007FFFFF8000FF8000001FFFE0000007FFFFFF0001FFFFF
310
FF00007FFFFF00007FFF00007FFFFF00007FFF0003FFFFFFFFE0003FFFFFC000
310
F000C0007FFFFFC000FFFF000000FFFC000007FFFF80007F8000FFFFFF8000F8
310
000FFFFFF8000FF8000001FFFE0000007FFFFFF0001FFFFFFF0000FFFFFF8000
310
7FFF0000FFFFFF80007FFF0003FFFFFFFFC0007FFFFFC00070008000FFFFFFC0
310
00FFFF000000FFF8000007FFFF80007F8000FFFFFF8000F8000FFFFFF8000FF8
310
000001FFFE0000007FFFFFF0001FFFFFFE0001FFFFFFC0003FFE0001FFFFFFC0
310
003FFF0003FFFFFFFFC0007FFFFFE00070008000FFFFFFC0007FFF0000007FF8
310
000003FFFF80007F0001FFFFFF8000F8000FFFFFF8000FF8000001FFFE000000
310
7FFFFFF0001FFFFFFE0001FFFFFFC0003FFE0001FFFFFFC0003FFF0003FFFFFF
310
FFC000FFFFFFE00070008000FFFFFFC0007FFF0000007FF8000003FFFF80007F
310
0001FFFFFF8000F8001FFFFFF8000FF8000001FFFE0000007FFFFFF0001FFFFF
310
FE0003FFFFFFE0003FFE0003FFFFFFE0003FFF0003FFFFFFFFC000FFFFFFE000
310
70008000FFFFFFC0007FFE0000007FF8000003FFFF80007F0001FFFFFF8000F0
310
001FFFFFF8000FF8000001FFFE0000007FFFFFF0001FFFFFFC0003FFFFFFE000
310
1FFC0003FFFFFFE0001FFF0003FFFFFFFFC000FFFFFFC00070008000FFFFFF80
310
007FFE0000007FF0000003FFFF80007F0001FFFFFF0000F0001FFFFFF8000FF8
310
000001FFFE0000007FFFFFF0001FFFFFFC0007FFFFFFF0001FFC0007FFFFFFF0
310
001FFF0003FFFFFFFFC000FFFFFFC00070008001FFFFFF0000FFFE0000003FF0
310
000001FFFF80007F0001FFFFFF0000F8001FFFFFF0000FF8000001FFFE000000
310
7FFFFFF0001FFFFFFC0007FFFFFFF0001FFC0007FFFFFFF0001FFF0003FFFFFF
310
FFC001FFFFFF80007000FFFFFFFFFE0000FFFE0008003FF0008001FFFF80007F
310
FFFFFFFFFC0000FFFFFFFFFFE0000FF8000001FFFE0000007FFFFFF0001FFFFF
310
F8000FFFFFFFF8000FF8000FFFFFFFF8000FFF0003FFFFFFFFFFFFFFFFFF0000
310
7000FFFFFFFFFC0000FFFC0008003FF0008001FFFF80007FFFFFFFFFF80001FF
310
FFFFFFFF80000FF8000001FFFE0000007FFFFFF0001FFFFFF8000FFFFFFFF800
310
0FF8000FFFFFFFF8000FFF0003FFFFFFFFFFFFFFFFFE0000F000FFFFFFFFE000
310
00FFFC000C003FE000C001FFFF80007FFFFFFFFFC00001FFFFFFFFFE00001FF8
310
000001FFFE0000007FFFFFF0001FFFFFF8000FFFFFFFF8000FF8000FFFFFFFF8
310
000FFF0003FFFFFFFFFFFFFFFFF00000F000FFFFFFFE000001FFFC000C001FE0
310
00C000FFFF80007FFFFFFFFE000001FFFFFFFFE000001FF80FFFFFFFFFFFFFC0
310
7FFFFFF0001FFFFFF8000FFFFFFFF8000FF8000FFFFFFFF8000FFF0003FFFFFF
310
FFFFFFFFFF800000F000FFFFFFC0000001FFFC001C001FE001C000FFFF80007F
310
FFFFFF80000003FFFFFFF80000001FF80FFFFFFFFFFFFFC07FFFFFF0001FFFFF
310
F8001FFFFFFFFC000FF8001FFFFFFFFC000FFF0003FFFFFFFFFFFFFFF0000001
310
F000FFFFF800000001FFF8001C001FE001C000FFFF80007FFFFFF800000003FF
310
FFFF800000003FF80FFFFFFFFFFFFFC07FFFFFF0001FFFFFF8001FFFFFFFFC00
310
0FF8001FFFFFFFFC000FFF0003FFFFFFFFFFFFFE00000001F000FFFFC0000000
310
03FFF8001E001FC001E000FFFF80007FFFFF8000000007FFFFFC000000003FF8
310
0FFFFFFFFFFFFFC07FFFFFF0001FFFFFF8001FFFFFFFFC000FF8001FFFFFFFFC
310
000FFF0003FFFFFFFFFFFFE000000003F000FFFE0000000007FFF8001E000FC0
310
01E0007FFF80007FFFFE0000000007FFFFE0000000007FF80FFFFFFFFFFFFFC0
310
7FFFFFF0001FFFFFF0001FFFFFFFFC0007F0001FFFFFFFFC0007FF0003FFFFFF
310
FFFFFF0000000003F000FFF80000000007FFF8001E000FC003E0007FFF80007F
310
FFF0000000000FFFFF8000000000FFF80FFFFFFFFFFFFFC07FFFFFF0001FFFFF
310
F0001FFFFFFFFC0007F0001FFFFFFFFC0007FF0003FFFFFFFFFFFC0000000007
310
F000FFE0000000000FFFF0003E000FC003E0007FFF80007FFFC0000000001FFF
310
FE0000000001FFF80FFFFFFFFFFFFFC07FFFFFF0001FFFFFF0001FFFFFFFFC00
310
07F0001FFFFFFFFC0007FF0003FFFFFFFFFFF0000000000FF000FFC000000000
310
1FFFF0003F000F8003F0003FFF80007FFF80000000003FFFF80000000003FFF8
310
0FFFFFFFFFFFFFC07FFFFFF0001FFFFFF0001FFFFFFFFC0007F0001FFFFFFFFC
310
0007FF0003FFFFFFFFFFE0000000001FF000FF00000000007FFFF0003F000780
310
03F0003FFF80007FFF00000000007FFFF00000000007FFF80FFFFFFFFFFFFFC0
310
7FFFFFF0001FFFFFF0001FFFFFFFFC0007F0001FFFFFFFFC0007FF0003FFFFFF
310
FFFF80000000007FF000FE0000000000FFFFE0003F00078007F0003FFF80007F
310
FE0000000001FFFFE0000000001FFFF80FFFFFFFFFFFFFC07FFFFFF0001FFFFF
310
F0001FFFFFFFFC0007F0001FFFFFFFFC0007FF0003FFFFFFFFFF0000000000FF
310
F000FC0000000003FFFFE0007F00078007F0003FFF80007FFC0000000007FFFF
310
C0000000007FFFF80FFFFFFFFFFFFFC07FFFFFF0001FFFFFF8001FFFFFFFFC00
310
0FF8001FFFFFFFFC000FFF0003FFFFFFFFFE0000000003FFF000FC000000000F
310
FFFFE0007F80070007F8001FFF80007FF8000000001FFFFF8000000001FFFFF8
310
0FFFFFFFFFFFFFC07FFFFFF0001FFFFFF8001FFFFFFFFC000FF8001FFFFFFFFC
310
000FFF0003FFFFFFFFFC000000000FFFF000F8000000007FFFFFE0007F800700
310
07F8001FFF80007FF000000000FFFFFF800000000FFFFFF80FFFFFFFFFFFFFC0
310
7FFFFFF0001FFFFFF8000FFFFFFFF8000FF8000FFFFFFFF8000FFF0003FFFFFF
310
FFFC000000007FFFF000F800000007FFFFFFC0007F8003000FF8001FFF80007F
310
F000000007FFFFFF000000007FFFFFF80FFFFFFFFFFFFFC07FFFFFF0001FFFFF
310
F8000FFFFFFFF8000FF8000FFFFFFFF8000FFF0003FFFFFFFFF80000000FFFFF
310
F000F0000000FFFFFFFFC000FF8003000FF8001FFF80007FE0000000FFFFFFFF
310
0000000FFFFFFFF8000001FFFE0000007FFFFFF0001FFFFFF8000FFFFFFFF800
310
0FF8000FFFFFFFF8000FFF0003FFFFFFFFF8000000FFFFFFF000F000000FFFFF
310
FFFFC000FFC002000FF8000FFF80007FE000001FFFFFFFFE000001FFFFFFFFF8
310
000001FFFE0000007FFFFFF0001FFFFFF8000FFFFFFFF8000FF8000FFFFFFFF8
310
000FFF0003FFFFFFFFF000001FFFFFFFF000E00000FFFFFFFFFFC000FFC00200
310
0FFC000FFF80007FE00001FFFFFFFFFE00001FFFFFFFFFF8000001FFFE000000
310
7FFFFFF0001FFFFFFC000FFFFFFFF8001FFC000FFFFFFFF8001FFF0003FFFFFF
310
FFF00001FFFFFFFFF000E00007FFFFFFFFFF8000FFC000001FFC000FFF80007F
310
C0000FFFFFFFFFFE0000FFFFFFFFFFF8000001FFFE0000007FFFFFF0001FFFFF
310
FC0007FFFFFFF0001FFC0007FFFFFFF0001FFF0003FFFFFFFFF00007FFFFFFFF
310
F000E0001FFFFFFFFFFF8000FFC000001FFC000FFF80007FC0003FFFFFFFFFFE
310
0001FFFFFFFFFFF8000001FFFE0000007FFFFFF0001FFFFFFC0007FFFFFFF000
310
1FFC0007FFFFFFF0001FFF0003FFFFFFFFF0001FFFFFFFFFF000E0003FFFFF00
310
03FF8001FFE000001FFC0007FF80007FC0007FFFFF0007FC0003FFFFF0003FF8
310
000001FFFE0000007FFFFFF0001FFFFFFC0003FFFFFFE0001FFC0003FFFFFFE0
310
001FFF0003FFFFFFFFF0003FFFFFFFFFF000E0003FFFFF0001FF8001FFE00000
310
1FFE0007FF80007FC0007FFFFE0003FC0007FFFFE0003FF8000001FFFE000000
310
7FFFFFF0001FFFFFFE0003FFFFFFE0003FFE0003FFFFFFE0003FFF0003FFFFFF
310
FFF0003FFFFF8001F000E0003FFFFF0001FF0001FFE000001FFE0007FF80007F
310
C0007FFFFE0003FC0007FFFFE0003FF8000001FFFE0000007FFFFFF0001FFFFF
310
FE0001FFFFFFC0003FFE0001FFFFFFC0003FFF0003FFFFFFFFF0003FFFFF0001
310
F000E0003FFFFF0003FF0001FFE000003FFE0007FF80007FC0007FFFFE0003FC
310
0007FFFFE0003FF8000001FFFE0000007FFFFFF0001FFFFFFF0001FFFFFFC000
310
7FFF0001FFFFFFC0007FFF0003FFFFFFFFF0003FFFFF0001F000E0003FFFFE00
310
03FF0003FFF000003FFE0003FF80007FC0007FFFFC0003FE0007FFFFE0003FF8
310
000001FFFE0000007FFFFFF0001FFFFFFF0000FFFFFF80007FFF0000FFFFFF80
310
007FFF0003FFFFFFFFF0003FFFFF0001F000E0003FFFFE0003FF0003FFF00000
310
3FFF0003FF80007FC0007FFFFC0007FE0007FFFFC0003FF8000001FFFE000000
310
7FFFFFF0001FFFFFFF80007FFFFF0000FFFF80007FFFFF0000FFFF0003FFFFFF
310
FFF0003FFFFF0003F000E0003FFFFC0003FE0003FFF000003FFF0003FF80007F
310
E0003FFFF80007FE0003FFFFC0007FF8000001FFFE0000007FFFFFF0001FFFFF
310
FF80003FFFFE0000FFFF80003FFFFE0000FFFF0003FFFFFFFFF0001FFFFE0003
310
F000F0001FFFF80003FE0003FFF000007FFF0001FF80007FE0003FFFF00007FE
310
0001FFFF80007FF8000001FFFE0000007FFFFFF0001FFFFFFFC0000FFFF80001
310
FFFFC0000FFFF80001FFFF0003FFFFFFFFF0001FFFFC0003F000F0000FFFF000
310
07FE0007FFF800007FFF0001FF80007FE0001FFFE00007FF0000FFFE00007FF8
310
000001FFFE0000007FFFFFF0001FFFFFFFC00003FFE00001FFFFC00003FFE000
310
01FFFF0003FFFFFFFFF8000FFFF80003F000F00003FFC00007FC0007FFF80000
310
7FFF8001FF80007FF00007FF80000FFF00007FF80000FFF8000001FFFE000000
310
7F80000000000001FFE000003E000003FFFFE000003E000003FFFF0003FFFFFF
310
FFF80003FFE00007F000F800000000000FFC0007FFF800007FFF8001FF80007F
310
F000000000000FFF000000000000FFF8000001FFFE0000007F80000000000001
310
FFF0000000000007FFFFF0000000000007FFFF0003FFFFFFFFFC00007E000007
310
F000F800000000000FFC0007FFF80000FFFF8000FF80007FF800000000001FFF
310
800000000001FFF8000001FFFE0000007F80000000000001FFF800000000000F
310
FFFFF800000000000FFFFF0003FFFFFFFFFC00000000000FF000FC0000000000
310
1FFC0007FFFC0000FFFF8000FF80007FF800000000003FFFC00000000001FFF8
310
000001FFFE0000007F80000000000001FFF800000000000FFFFFF80000000000
310
0FFFFF0003FFFFFFFFFE00000000001FF000FE00000000003FF8000FFFFC0000
310
FFFF8000FF80007FFC00000000003FFFC00000000003FFF8000001FFFE000000
310
7F80000000000001FFFC00000000001FFFFFFC00000000001FFFFF0003FFFFFF
310
FFFF00000000001FF000FF00000000003FF8000FFFFC0000FFFFC000FF80007F
310
FE00000000007FFFE00000000007FFF8000001FFFE0000007F80000000000001
310
FFFE00000000003FFFFFFE00000000003FFFFF0003FFFFFFFFFF80000000003F
310
F000FF80000000007FF8000FFFFC0001FFFFC0007F80007FFF0000000000FFFF
310
F0000000000FFFF800000000000000007F80000000000001FFFF8000000000FF
310
FFFFFF8000000000FFFFFF0003FFFFFFFFFFC0000000007FF000FFC000000000
310
FFF8000FFFFE0001FFFFC0007F80007FFF8000000001FFFFF8000000001FFFF8
310
00000000000000007F80000000000001FFFFC000000001FFFFFFFFC000000001
310
FFFFFF0003FFFFFFFFFFE000000000FFF000FFE000000003FFF0001FFFFE0001
310
FFFFC0007F80007FFFC000000007FFFFFE000000003FFFF80000000000000000
310
7F80000000000001FFFFE000000003FFFFFFFFE000000003FFFFFF0003FFFFFF
310
FFFFF000000003FFF000FFF80000000FFFF0001FFFFE0001FFFFE0007F80007F
310
FFF00000000FFFFFFF00000000FFFFF800000000000000007F80000000000001
310
FFFFF80000000FFFFFFFFFF80000000FFFFFFF0003FFFFFFFFFFFC0000000FFF
310
F000FFFE0000003FFFF0001FFFFE0003FFFFE0003F80007FFFFC0000003FFFFF
310
FFC0000003FFFFF800000000000000007F80000000000001FFFFFE0000003FFF
310
FFFFFFFE0000003FFFFFFF0003FFFFFFFFFFFF0000003FFFF000FFFF800000FF
310
FFF0001FFFFF0003FFFFE0003F80007FFFFF000001FFFFFFFFF800001FFFFFF8
310
00000000000000007F80000000000001FFFFFFC00001FFFFFFFFFFFFC00001FF
310
FFFFFF0003FFFFFFFFFFFFC00000FFFFF000FFFFF8000FFFFFFFFFFFFFFFFFFF
310
FFFFFFFFFFFFFFFFFFFFF0001FFFFFFFFFFF0000FFFFFFF80000000000000000
310
7FFFFFFFFFFFFFFFFFFFFFFC001FFFFFFFFFFFFFFC001FFFFFFFFFFFFFFFFFFF
310
FFFFFFFC001FFFFFF000FFFFFFFFFFFFFFFFFFFFFFFFFFFFFFFFFFFFFFFFFFFF
310
FFFFFFFFFFFFFFFFFFFFFFFFFFFFFFFFFFFFFFFFFFFFFFFFFFFFFFFFFFFFFFFF
310
FFFFFFFFFFFFFFFFFFFFFFFFFFFFFFFFFFFFFFFFFFFFFFFFFFFFFFFFFFFFFFFF
310
F000FFFFFFFFFFFFFFFFFFFFFFFFFFFFFFFFFFFFFFFFFFFFFFFFFFFFFFFFFFFF
310
FFFFFFFFFFFFFFFFFFFFFFFFFFFFFFFFFFFFFFFFFFFFFFFFFFFFFFFFFFFFFFFF
310
FFFFFFFFFFFFFFFFFFFFFFFFFFFFFFFFFFFFFFFFFFFFFFFFF000FFFFFFFFFFFF
310
FFFFFFFFFFFFFFFFFFFFFFFFFFFFFFFFFFFFFFFFFFFFFFFFFFFFFFFFFFFFFFFF
310
FFFFFFFFFFFFFFFFFFFFFFFFFFFFFFFFFFFFFFFFFFFFFFFFFFFFFFFFFFFFFFFF
310
FFFFFFFFFFFFFFFFFFFFFFFFFFFFFFFFF000FFFFFFFFFFFFFFFFFFFFFFFFFFFF
310
FFFFFFFFFFFFFFFFFFFFFFFFFFFFFFFFFFFFFFFFFFFFFFFFFFFFFFFFFFFFFFFF
310
FFFFFFFFFFFFFFFFFFFFFFFFFFFFFFFFFFFFFFFFFFFFFFFFFFFFFFFFFFFFFFFF
310
FFFFFFFFFFFFFFFFF000FFFFFFFFFFFFFFFFFFFFFFFFFFFFFFFFFFFFFFFFFFFF
310
FFFFFFFFFFFFFFFFFFFFFFFFFFFFFFFFFFFFFFFFFFFFFFFFFFFFFFFFFFFFFFFF
310
FFFFFFFFFFFFFFFFFFFFFFFFFFFFFFFFFFFFFFFFFFFFFFFFFFFFFFFFFFFFFFFF
310
F000FFFFFFFFFFFFFFFFFFFFFFFFFFFFFFFFFFFFFFFFFFFFFFFFFFFFFFFFFFFF
310
FFFFFFFFFFFFFFFFFFFFFFFFFFFFFFFFFFFFFFFFFFFFFFFFFFFFFFFFFFFFFFFF
310
FFFFFFFFFFFFFFFFFFFFFFFFFFFFFFFFFFFFFFFFFFFFFFFFF000FFFFFFFFFFFF
310
FFFFFFFFFFFFFFFFFFFFFFFFFFFFFFFFFFFFFFFFFFFFFFFFFFFFFFFFFFFFFFFF
310
FFFFFFFFFFFFFFFFFFFFFFFFFFFFFFFFFFFFFFFFFFFFFFFFFFFFFFFFFFFFFFFF
310
FFFFFFFFFFFFFFFFFFFFFFFFFFFFFFFFF000FFFFFFFFFFFFFFFFFFFFFFFFFFFF
310
FFFFFFFFFFFFFFFFFFFFFFFFFFFFFFFFFFFFFFFFFFFFFFFFFFFFFFFFFFFFFFFF
310
FFFFFFFFFFFFFFFFFFFFFFFFFFFFFFFFFFFFFFFFFFFFFFFFFFFFFFFFFFFFFFFF
310
FFFFFFFFFFFFFFFFF000FFFFFFFFFFFFFFFFFFFFFFFFFFFFFFFFFFFFFFFFFFFF
310
FFFFFFFFFFFFFFFFFFFFFFFFFFFFFFFFFFFFFFFFFFFFFFFFFFFFFFFFFFFFFFFF
310
FFFFFFFFFFFFFFFFFFFFFFFFFFFFFFFFFFFFFFFFFFFFFFFFFFFFFFFFFFFFFFFF
310
F000FFFFFFFFFFFFFFFFFFFFFFFFFFFFFFFFFFFFFFFFFFFFFFFFFFFFFFFFFFFF
310
FFFFFFFFFFFFFFFFFFFFFFFFFFFFFFFFFFFFFFFFFFFFFFFFFFFFFFFFFFFFFFFF
310
FFFFFFFFFFFFFFFFFFFFFFFFFFFFFFFFFFFFFFFFFFFFFFFFF000FFFFFFFFFFFF
310
FFFFFFFFFFFFFFFFFFFFFFFFFFFFFFFFFFFFFFFFFFFFFFFFFFFFFFFFFFFFFFFF
310
FFFFFFFFFFFFFFFFFFFFFFFFFFFFFFFFFFFFFFFFFFFFFFFFFFFFFFFFFFFFFFFF
310
FFFFFFFFFFFFFFFFFFFFFFFFFFFFFFFFF000FFFFFFFFFFFFFFFFFFFFFFFFFFFF
310
FFFFFFFFFFFFFFFFFFFFFFFFFFFFFFFFFFFFFFFFFFFFFFFFFFFFFFFFFFFFFFFF
310
FFFFFFFFFFFFFFFFFFFFFFFFFFFFFFFFFFFFFFFFFFFFFFFFFFFFFFFFFFFFFFFF
310
FFFFFFFFFFFFFFFFF000FFFFFFFFFFFFFFFFFFFFFFFFFFFFFFFFFFFFFFFFFFFF
310
FFFFFFFFFFFFFFFFFFFFFFFFFFFFFFFFFFFFFFFFFFFFFFFFFFFFFFFFFFFFFFFF
310
FFFFFFFFFFFFFFFFFFFFFFFFFFFFFFFFFFFFFFFFFFFFFFFFFFFFFFFFFFFFFFFF
310
F000FFFFFFFFFFFFFFFFFFFFFFFFFFFFFFFFFFFFFFFFFFFFFFFFFFFFFFFFFFFF
310
FFFFFFFFFFFFFFFFFFFFFFFFFFFFFFFFFFFFFFFFFFFFFFFFFFFFFFFFFFFFFFFF
310
FFFFFFFFFFFFFFFFFFFFFFFFFFFFFFFFFFFFFFFFFFFFFFFFF000FFFFFFFFFFFF
310
FFFFFFFFFFFFFFFFFFFFFFFFFFFFFFFFFFFFFFFFFFFFFFFFFFFFFFFFFFFFFFFF
310
FFFFFFFFFFFFFFFFFFFFFFFFFFFFFFFFFFFFFFFFFFFFFFFFFFFFFFFFFFFFFFFF
310
FFFFFFFFFFFFFFFFFFFFFFFFFFFFFFFFF000FFFFFFFFFFFFFFFFFFFFFFFFFFFF
310
FFFFFFFFFFFFFFFFFFFFFFFFFFFFFFFFFFFFFFFFFFFFFFFFFFFFFFFFFFFFFFFF
310
FFFFFFFFFFFFFFFFFFFFFFFFFFFFFFFFFFFFFFFFFFFFFFFFFFFFFFFFFFFFFFFF
310
FFFFFFFFFFFFFFFFF000FFFFFFFFFFFFFFFFFFFFFFFFFFFFFFFFFFFFFFFFFFFF
310
FFFFFFFFFFFFFFFFFFFFFFFFFFFFFFFFFFFFFFFFFFFFFFFFFFFFFFFFFFFFFFFF
310
FFFFFFFFFFFFFFFFFFFFFFFFFFFFFFFFFFFFFFFFFFFFFFFFFFFFFFFFFFFFFFFF
310
F000FFFFFFFFFFFFFFFFFFFFFFFFFFFFFFFFFFFFFFFFFFFFFFFFFFFFFFFFFFFF
310
FFFFFFFFFFFFFFFFFFFFFFFFFFFFFFFFFFFFFFFFFFFFFFFFFFFFFFFFFFFFFFFF
310
FFFFFFFFFFFFFFFFFFFFFFFFFFFFFFFFFFFFFFFFFFFFFFFFF000FFFFFFFFFFFF
310
FFFFFFFFFFFFFFFFFFFFFFFFFFFFFFFFFFFFFFFFFFFFFFFFFFFFFFFFFFFFFFFF
310
FFFFFFFFFFFFFFFFFFFFFFFFFFFFFFFFFFFFFFFFFFFFFFFFFFFFFFFFFFFFFFFF
310
FFFFFFFFFFFFFFFFFFFFFFFFFFFFFFFFF000FFFFFFFFFFFFFFFFFFFFFFFFFFFF
310
FFFFFFFFFFFFFFFFFFFFFFFFFFFFFFFFFFFFFFFFFFFFFFFFFFFFFFFFFFFFFFFF
310
FFFFFFFFFFFFFFFFFFFFFFFFFFFFFFFFFFFFFFFFFFFFFFFFFFFFFFFFFFFFFFFF
310
FFFFFFFFFFFFFFFFF000FFFFFFFFFFFFFFFFFFFFFFFFFFFFFFFFFFFFFFFFFFFF
310
FFFFFFFFFFFFFFFFFFFFFFFFFFFFFFFFFFFFFFFFFFFFFFFFFFFFFFFFFFFFFFFF
310
FFFFFFFFFFFFFFFFFFFFFFFFFFFFFFFFFFFFFFFFFFFFFFFFFFFFFFFFFFFFFFFF
310
F000FFFFFFFFFFFFFFFFFFFFFFFFFFFFFFFFFFFFFFFFFFFFFFFFFFFFFFFFFFFF
310
FFFFFFFFFFFFFFFFFFFFFFFFFFFFFFFFFFFFFFFFFFFFFFFFFFFFFFFFFFFFFFFF
310
FFFFFFFFFFFFFFFFFFFFFFFFFFFFFFFFFFFFFFFFFFFFFFFFF000FFFFFFFFFFFF
310
FFFFFFFFFFFFFFFFFFFFFFFFFFFFFFFFFFFFFFFFFFFFFFFFFFFFFFFFFFFFFFFF
310
FFFFFFFFFFFFFFFFFFFFFFFFFFFFFFFFFFFFFFFFFFFFFFFFFFFFFFFFFFFFFFFF
310
FFFFFFFFFFFFFFFFFFFFFFFFFFFFFFFFF0000000000000000000000000000000
310
0000000001000000010000000100000001000000010000000100000001000000
310
0100000001000000010000000100000001000000010000000100000001000000
310
0100000001000000010000000100000001000000010000000100000001000000
310
0100000001000000010000000000000001000000010000000000000001000000
310
0000000001000000010000000100000001000000010000000100000001000000
310
0100000001000000010000000100000001000000010000000100000001000000
310
0100000001000000010000000100000001000000010000000100000001000000
310
0100000001000000010000000100000001000000000000000100000000000000
310
0100000001000000010000000100000001000000010000000100000001000000
310
0100000000000000010000000100000001000000010000000000000001000000
310
0100000001000000010000000100000001000000010000000100000001000000
310
0100000000000000010000000000000001000000010000000100000001000000
310
0100000001000000010000000100000000000000010000000000000001000000
310
0100000001000000010000000100000001000000010000000000000001000000
310
0100000001000000010000000100000001000000010000000100000001000000
  1
OLE
  0
ENDSEC
  0
SECTION
  2
OBJECTS
  0
DICTIONARY
  5
C
330
0
100
AcDbDictionary
281
     1
  3
ACAD_GROUP
350
D
  3
ACAD_LAYOUT
350
1A
  3
ACAD_MLEADERSTYLE
350
235
  3
ACAD_MLINESTYLE
350
17
  3
ACAD_PLOTSETTINGS
350
19
  3
ACAD_PLOTSTYLENAME
350
E
  3
ACAD_TABLESTYLE
350
234
  3
ACAD_VISUALSTYLE
350
2A
  3
AcDbVariableDictionary
350
236
  0
DICTIONARY
  5
D
102
{ACAD_REACTORS
330
C
102
}
330
C
100
AcDbDictionary
281
     1
  0
DICTIONARY
  5
1A
102
{ACAD_REACTORS
330
C
102
}
330
C
100
AcDbDictionary
281
     1
  3
Layout1
350
1E
  3
Layout2
350
26
  3
Model
350
22
  0
DICTIONARY
  5
235
102
{ACAD_REACTORS
330
C
102
}
330
C
100
AcDbDictionary
281
     1
  0
DICTIONARY
  5
17
102
{ACAD_REACTORS
330
C
102
}
330
C
100
AcDbDictionary
281
     1
  3
Standard
350
18
  0
DICTIONARY
  5
19
102
{ACAD_REACTORS
330
C
102
}
330
C
100
AcDbDictionary
281
     1
  0
ACDBDICTIONARYWDFLT
  5
E
102
{ACAD_REACTORS
330
C
102
}
330
C
100
AcDbDictionary
281
     1
  3
Normal
350
F
100
AcDbDictionaryWithDefault
340
F
  0
DICTIONARY
  5
234
102
{ACAD_REACTORS
330
C
102
}
330
C
100
AcDbDictionary
281
     1
  0
DICTIONARY
  5
2A
102
{ACAD_REACTORS
330
C
102
}
330
C
100
AcDbDictionary
281
     1
  3
2dWireframe
350
2F
  3
3D Hidden
350
31
  3
3dWireframe
350
30
  3
Basic
350
32
  3
Brighten
350
36
  3
ColorChange
350
3A
  3
Conceptual
350
34
  3
Dim
350
35
  3
Facepattern
350
39
  3
Flat
350
2B
  3
FlatWithEdges
350
2C
  3
Gouraud
350
2D
  3
GouraudWithEdges
350
2E
  3
Linepattern
350
38
  3
Realistic
350
33
  3
Thicken
350
37
  0
DICTIONARY
  5
236
102
{ACAD_REACTORS
330
C
102
}
330
C
100
AcDbDictionary
281
     1
  3
PSOLHEIGHT
350
238
  3
PSOLWIDTH
350
237
  0
LAYOUT
  5
1E
102
{ACAD_REACTORS
330
1A
102
}
330
1A
100
AcDbPlotSettings
  1

  2
none_device
  4

  6

 40
0.0
 41
0.0
 42
0.0
 43
0.0
 44
0.0
 45
0.0
 46
0.0
 47
0.0
 48
0.0
 49
0.0
140
0.0
141
0.0
142
1.0
143
1.0
 70
   688
 72
     0
 73
     0
 74
     5
  7

 75
    16
147
1.0
148
0.0
149
0.0
100
AcDbLayout
  1
Layout1
 70
     1
 71
     1
 10
0.0
 20
0.0
 11
420.0
 21
297.0
 12
0.0
 22
0.0
 32
0.0
 14
1.0000000000E+20
 24
1.0000000000E+20
 34
1.0000000000E+20
 15
-1.0000000000E+20
 25
-1.0000000000E+20
 35
-1.0000000000E+20
146
0.0
 13
0.0
 23
0.0
 33
0.0
 16
1.0
 26
0.0
 36
0.0
 17
0.0
 27
1.0
 37
0.0
 76
     0
330
1B
  0
LAYOUT
  5
26
102
{ACAD_REACTORS
330
1A
102
}
330
1A
100
AcDbPlotSettings
  1

  2
none_device
  4

  6

 40
0.0
 41
0.0
 42
0.0
 43
0.0
 44
0.0
 45
0.0
 46
0.0
 47
0.0
 48
0.0
 49
0.0
140
0.0
141
0.0
142
1.0
143
1.0
 70
   688
 72
     0
 73
     0
 74
     5
  7

 75
    16
147
1.0
148
0.0
149
0.0
100
AcDbLayout
  1
Layout2
 70
     1
 71
     2
 10
0.0
 20
0.0
 11
0.0
 21
0.0
 12
0.0
 22
0.0
 32
0.0
 14
0.0
 24
0.0
 34
0.0
 15
0.0
 25
0.0
 35
0.0
146
0.0
 13
0.0
 23
0.0
 33
0.0
 16
1.0
 26
0.0
 36
0.0
 17
0.0
 27
1.0
 37
0.0
 76
     0
330
23
  0
LAYOUT
  5
22
102
{ACAD_REACTORS
330
1A
102
}
330
1A
100
AcDbPlotSettings
  1

  2
none_device
  4

  6

 40
0.0
 41
0.0
 42
0.0
 43
0.0
 44
0.0
 45
0.0
 46
0.0
 47
0.0
 48
0.0
 49
0.0
140
0.0
141
0.0
142
1.0
143
1.0
 70
  1712
 72
     0
 73
     0
 74
     0
  7

 75
     0
147
1.0
148
0.0
149
0.0
100
AcDbLayout
  1
Model
 70
     1
 71
     0
 10
0.0
 20
0.0
 11
297.0
 21
210.0
 12
0.0
 22
0.0
 32
0.0
 14
0.0
 24
0.0
 34
0.0
 15
297.0
 25
210.0
 35
0.0
146
0.0
 13
0.0
 23
0.0
 33
0.0
 16
1.0
 26
0.0
 36
0.0
 17
0.0
 27
1.0
 37
0.0
 76
     0
330
1F
331
29
  0
MLINESTYLE
  5
18
102
{ACAD_REACTORS
330
17
102
}
330
17
100
AcDbMlineStyle
  2
Standard
 70
     0
  3

 62
   256
 51
90.0
 52
90.0
 71
     2
 49
0.5
 62
   256
  6
BYLAYER
 49
-0.5
 62
   256
  6
BYLAYER
  0
ACDBPLACEHOLDER
  5
F
102
{ACAD_REACTORS
330
E
102
}
330
E
  0
VISUALSTYLE
  5
2F
102
{ACAD_REACTORS
330
2A
102
}
330
2A
100
AcDbVisualStyle
  2
2dWireframe
 70
     4
 71
     0
 72
     2
 73
     0
 90
        0
 40
-0.6
 41
-30.0
 62
     5
 63
     7
 74
     1
 91
        4
 64
     7
 65
   257
 75
     1
175
     1
 42
1.0
 92
        0
 66
   257
 43
1.0
 76
     1
 77
     6
 78
     2
 67
     7
 79
     5
170
     0
171
     0
290
     0
174
     0
 93
        1
 44
0.0
173
     0
291
     0
 45
0.0
1001
ACAD
1000
AcDbSavedByObjectVersion
1070
     0
  0
VISUALSTYLE
  5
31
102
{ACAD_REACTORS
330
2A
102
}
330
2A
100
AcDbVisualStyle
  2
3D Hidden
 70
     6
 71
     1
 72
     2
 73
     2
 90
        0
 40
-0.6
 41
-30.0
 62
     5
 63
     7
 74
     2
 91
        2
 64
     7
 65
   257
 75
     2
175
     1
 42
40.0
 92
        0
 66
   257
 43
1.0
 76
     1
 77
     6
 78
     2
 67
     7
 79
     3
170
     0
171
     0
290
     0
174
     0
 93
        1
 44
0.0
173
     0
291
     0
 45
0.0
1001
ACAD
1000
AcDbSavedByObjectVersion
1070
     0
  0
VISUALSTYLE
  5
30
102
{ACAD_REACTORS
330
2A
102
}
330
2A
100
AcDbVisualStyle
  2
3dWireframe
 70
     5
 71
     0
 72
     2
 73
     0
 90
        0
 40
-0.6
 41
-30.0
 62
     5
 63
     7
 74
     1
 91
        4
 64
     7
 65
   257
 75
     1
175
     1
 42
1.0
 92
        0
 66
   257
 43
1.0
 76
     1
 77
     6
 78
     2
 67
     7
 79
     5
170
     0
171
     0
290
     0
174
     0
 93
        1
 44
0.0
173
     0
291
     0
 45
0.0
1001
ACAD
1000
AcDbSavedByObjectVersion
1070
     0
  0
VISUALSTYLE
  5
32
102
{ACAD_REACTORS
330
2A
102
}
330
2A
100
AcDbVisualStyle
  2
Basic
 70
     7
 71
     1
 72
     0
 73
     1
 90
        0
 40
-0.6
 41
-30.0
 62
     5
 63
     7
 74
     0
 91
        4
 64
     7
 65
   257
 75
     1
175
     1
 42
1.0
 92
        8
 66
     7
 43
1.0
 76
     1
 77
     6
 78
     2
 67
     7
 79
     5
170
     0
171
     0
290
     0
174
     0
 93
        1
 44
0.0
173
     0
291
     1
 45
0.0
1001
ACAD
1000
AcDbSavedByObjectVersion
1070
     0
  0
VISUALSTYLE
  5
36
102
{ACAD_REACTORS
330
2A
102
}
330
2A
100
AcDbVisualStyle
  2
Brighten
 70
    12
 71
     2
 72
     2
 73
     0
 90
        0
 40
-0.6
 41
-30.0
 62
     5
 63
     7
 74
     1
 91
        4
 64
     7
 65
   257
 75
     1
175
     1
 42
1.0
 92
        8
 66
     7
 43
1.0
 76
     1
 77
     6
 78
     2
 67
     7
 79
     5
170
     0
171
     0
290
     0
174
     0
 93
        1
 44
50.0
173
     0
291
     1
 45
0.0
1001
ACAD
1000
AcDbSavedByObjectVersion
1070
     0
  0
VISUALSTYLE
  5
3A
102
{ACAD_REACTORS
330
2A
102
}
330
2A
100
AcDbVisualStyle
  2
ColorChange
 70
    16
 71
     2
 72
     2
 73
     3
 90
        0
 40
-0.6
 41
-30.0
 62
     5
 63
     8
 74
     1
 91
        4
 64
     7
 65
   257
 75
     1
175
     1
 42
1.0
 92
        8
 66
     8
 43
1.0
 76
     1
 77
     6
 78
     2
 67
     7
 79
     5
170
     0
171
     0
290
     0
174
     0
 93
        1
 44
0.0
173
     0
291
     1
 45
0.0
1001
ACAD
1000
AcDbSavedByObjectVersion
1070
     0
  0
VISUALSTYLE
  5
34
102
{ACAD_REACTORS
330
2A
102
}
330
2A
100
AcDbVisualStyle
  2
Conceptual
 70
     9
 71
     3
 72
     2
 73
     0
 90
        0
 40
-0.6
 41
-30.0
 62
     5
 63
     7
 74
     2
 91
        2
 64
     7
 65
   257
 75
     1
175
     1
 42
40.0
 92
        8
 66
     7
 43
1.0
 76
     1
 77
     6
 78
     2
 67
     7
 79
     3
170
     0
171
     0
290
     0
174
     0
 93
        1
 44
0.0
173
     0
291
     0
 45
0.0
1001
ACAD
1000
AcDbSavedByObjectVersion
1070
     0
  0
VISUALSTYLE
  5
35
102
{ACAD_REACTORS
330
2A
102
}
330
2A
100
AcDbVisualStyle
  2
Dim
 70
    11
 71
     2
 72
     2
 73
     0
 90
        0
 40
-0.6
 41
-30.0
 62
     5
 63
     7
 74
     1
 91
        4
 64
     7
 65
   257
 75
     1
175
     1
 42
1.0
 92
        8
 66
     7
 43
1.0
 76
     1
 77
     6
 78
     2
 67
     7
 79
     5
170
     0
171
     0
290
     0
174
     0
 93
        1
 44
-50.0
173
     0
291
     1
 45
0.0
1001
ACAD
1000
AcDbSavedByObjectVersion
1070
     0
  0
VISUALSTYLE
  5
39
102
{ACAD_REACTORS
330
2A
102
}
330
2A
100
AcDbVisualStyle
  2
Facepattern
 70
    15
 71
     2
 72
     2
 73
     0
 90
        0
 40
-0.6
 41
-30.0
 62
     5
 63
     7
 74
     1
 91
        4
 64
     7
 65
   257
 75
     1
175
     1
 42
1.0
 92
        8
 66
     7
 43
1.0
 76
     1
 77
     6
 78
     2
 67
     7
 79
     5
170
     0
171
     0
290
     0
174
     0
 93
        1
 44
0.0
173
     0
291
     1
 45
0.0
1001
ACAD
1000
AcDbSavedByObjectVersion
1070
     0
  0
VISUALSTYLE
  5
2B
102
{ACAD_REACTORS
330
2A
102
}
330
2A
100
AcDbVisualStyle
  2
Flat
 70
     0
 71
     2
 72
     1
 73
     1
 90
        2
 40
-0.6
 41
30.0
 62
     5
 63
     7
 74
     0
 91
        4
 64
     7
 65
   257
 75
     1
175
     1
 42
1.0
 92
        8
 66
     7
 43
1.0
 76
     1
 77
     6
 78
     2
 67
     7
 79
     5
170
     0
171
     0
290
     0
174
     0
 93
       13
 44
0.0
173
     0
291
     1
 45
0.0
1001
ACAD
1000
AcDbSavedByObjectVersion
1070
     0
  0
VISUALSTYLE
  5
2C
102
{ACAD_REACTORS
330
2A
102
}
330
2A
100
AcDbVisualStyle
  2
FlatWithEdges
 70
     1
 71
     2
 72
     1
 73
     1
 90
        2
 40
-0.6
 41
30.0
 62
     5
 63
     7
 74
     1
 91
        4
 64
     7
 65
   257
 75
     1
175
     1
 42
1.0
 92
        0
 66
   257
 43
1.0
 76
     1
 77
     6
 78
     2
 67
     7
 79
     5
170
     0
171
     0
290
     0
174
     0
 93
       13
 44
0.0
173
     0
291
     1
 45
0.0
1001
ACAD
1000
AcDbSavedByObjectVersion
1070
     0
  0
VISUALSTYLE
  5
2D
102
{ACAD_REACTORS
330
2A
102
}
330
2A
100
AcDbVisualStyle
  2
Gouraud
 70
     2
 71
     2
 72
     2
 73
     1
 90
        2
 40
-0.6
 41
30.0
 62
     5
 63
     7
 74
     0
 91
        4
 64
     7
 65
   257
 75
     1
175
     1
 42
1.0
 92
        0
 66
     7
 43
1.0
 76
     1
 77
     6
 78
     2
 67
     7
 79
     5
170
     0
171
     0
290
     0
174
     0
 93
       13
 44
0.0
173
     0
291
     1
 45
0.0
1001
ACAD
1000
AcDbSavedByObjectVersion
1070
     0
  0
VISUALSTYLE
  5
2E
102
{ACAD_REACTORS
330
2A
102
}
330
2A
100
AcDbVisualStyle
  2
GouraudWithEdges
 70
     3
 71
     2
 72
     2
 73
     1
 90
        2
 40
-0.6
 41
30.0
 62
     5
 63
     7
 74
     1
 91
        4
 64
     7
 65
   257
 75
     1
175
     1
 42
1.0
 92
        0
 66
   257
 43
1.0
 76
     1
 77
     6
 78
     2
 67
     7
 79
     5
170
     0
171
     0
290
     0
174
     0
 93
       13
 44
0.0
173
     0
291
     1
 45
0.0
1001
ACAD
1000
AcDbSavedByObjectVersion
1070
     0
  0
VISUALSTYLE
  5
38
102
{ACAD_REACTORS
330
2A
102
}
330
2A
100
AcDbVisualStyle
  2
Linepattern
 70
    14
 71
     2
 72
     2
 73
     0
 90
        0
 40
-0.6
 41
-30.0
 62
     5
 63
     7
 74
     1
 91
        4
 64
     7
 65
   257
 75
     7
175
     7
 42
1.0
 92
        8
 66
     7
 43
1.0
 76
     1
 77
     6
 78
     2
 67
     7
 79
     5
170
     0
171
     0
290
     0
174
     0
 93
        1
 44
0.0
173
     0
291
     1
 45
0.0
1001
ACAD
1000
AcDbSavedByObjectVersion
1070
     0
  0
VISUALSTYLE
  5
33
102
{ACAD_REACTORS
330
2A
102
}
330
2A
100
AcDbVisualStyle
  2
Realistic
 70
     8
 71
     2
 72
     2
 73
     0
 90
        0
 40
-0.6
 41
-30.0
 62
     5
 63
     7
 74
     1
 91
        0
 64
     7
 65
   257
 75
     1
175
     1
 42
1.0
 92
        8
 66
     8
 43
1.0
 76
     1
 77
     6
 78
     2
 67
     7
 79
     5
170
     0
171
     0
290
     0
174
     0
 93
       13
 44
0.0
173
     0
291
     0
 45
0.0
1001
ACAD
1000
AcDbSavedByObjectVersion
1070
     0
  0
VISUALSTYLE
  5
37
102
{ACAD_REACTORS
330
2A
102
}
330
2A
100
AcDbVisualStyle
  2
Thicken
 70
    13
 71
     2
 72
     2
 73
     0
 90
        0
 40
-0.6
 41
-30.0
 62
     5
 63
     7
 74
     1
 91
        4
 64
     7
 65
   257
 75
     1
175
     1
 42
1.0
 92
       12
 66
     7
 43
1.0
 76
     1
 77
     6
 78
     2
 67
     7
 79
     5
170
     0
171
     0
290
     0
174
     0
 93
        1
 44
0.0
173
     0
291
     1
 45
0.0
1001
ACAD
1000
AcDbSavedByObjectVersion
1070
     0
  0
DICTIONARYVAR
  5
238
102
{ACAD_REACTORS
330
236
102
}
330
236
100
DictionaryVariables
280
     0
  1
80.000000
  0
DICTIONARYVAR
  5
237
102
{ACAD_REACTORS
330
236
102
}
330
236
100
DictionaryVariables
280
     0
  1
5.000000
  0
ENDSEC
  0
EOF
