  0
SECTION
  2
HEADER
  9
$ACADVER
  1
AC1015
  9
$ACADMAINTVER
 70
     6
  9
$DWGCODEPAGE
  3
ANSI_1252
  9
$INSBASE
 10
0.0
 20
0.0
 30
0.0
  9
$EXTMIN
 10
0.0
 20
0.0
 30
0.0
  9
$EXTMAX
 10
297.0
 20
210.0
 30
0.0
  9
$LIMMIN
 10
0.0
 20
0.0
  9
$LIMMAX
 10
297.0
 20
210.0
  9
$ORTHOMODE
 70
     0
  9
$REGENMODE
 70
     1
  9
$FILLMODE
 70
     1
  9
$QTEXTMODE
 70
     0
  9
$MIRRTEXT
 70
     1
  9
$LTSCALE
 40
1.0
  9
$ATTMODE
 70
     1
  9
$TEXTSIZE
 40
2.0
  9
$TRACEWID
 40
1.0
  9
$TEXTSTYLE
  7
Standard
  9
$CLAYER
  8
0
  9
$CELTYPE
  6
ByLayer
  9
$CECOLOR
 62
   256
  9
$CELTSCALE
 40
1.0
  9
$DISPSILH
 70
     0
  9
$DIMSCALE
 40
1.0
  9
$DIMASZ
 40
3.0
  9
$DIMEXO
 40
0.0
  9
$DIMDLI
 40
3.75
  9
$DIMRND
 40
0.0
  9
$DIMDLE
 40
0.0
  9
$DIMEXE
 40
1.0
  9
$DIMTP
 40
0.0
  9
$DIMTM
 40
0.0
  9
$DIMTXT
 40
2.0
  9
$DIMCEN
 40
2.5
  9
$DIMTSZ
 40
0.0
  9
$DIMTOL
 70
     0
  9
$DIMLIM
 70
     0
  9
$DIMTIH
 70
     1
  9
$DIMTOH
 70
     1
  9
$DIMSE1
 70
     0
  9
$DIMSE2
 70
     0
  9
$DIMTAD
 70
     1
  9
$DIMZIN
 70
     0
  9
$DIMBLK
  1

  9
$DIMASO
 70
     1
  9
$DIMSHO
 70
     1
  9
$DIMPOST
  1

  9
$DIMAPOST
  1

  9
$DIMALT
 70
     0
  9
$DIMALTD
 70
     3
  9
$DIMALTF
 40
0.0393700787
  9
$DIMLFAC
 40
1.0
  9
$DIMTOFL
 70
     1
  9
$DIMTVP
 40
0.0
  9
$DIMTIX
 70
     0
  9
$DIMSOXD
 70
     0
  9
$DIMSAH
 70
     0
  9
$DIMBLK1
  1

  9
$DIMBLK2
  1

  9
$DIMSTYLE
  2
ISO-25
  9
$DIMCLRD
 70
     0
  9
$DIMCLRE
 70
     0
  9
$DIMCLRT
 70
     0
  9
$DIMTFAC
 40
1.0
  9
$DIMGAP
 40
1.524
  9
$DIMJUST
 70
     0
  9
$DIMSD1
 70
     0
  9
$DIMSD2
 70
     0
  9
$DIMTOLJ
 70
     0
  9
$DIMTZIN
 70
     0
  9
$DIMALTZ
 70
     0
  9
$DIMALTTZ
 70
     0
  9
$DIMUPT
 70
     0
  9
$DIMDEC
 70
     2
  9
$DIMTDEC
 70
     3
  9
$DIMALTU
 70
     2
  9
$DIMALTTD
 70
     3
  9
$DIMTXSTY
  7
Standard
  9
$DIMAUNIT
 70
     0
  9
$DIMADEC
 70
     2
  9
$DIMALTRND
 40
0.0
  9
$DIMAZIN
 70
     0
  9
$DIMDSEP
 70
    44
  9
$DIMATFIT
 70
     3
  9
$DIMFRAC
 70
     0
  9
$DIMLDRBLK
  1

  9
$DIMLUNIT
 70
     2
  9
$DIMLWD
 70
    -2
  9
$DIMLWE
 70
    -2
  9
$DIMTMOVE
 70
     0
  9
$LUNITS
 70
     2
  9
$LUPREC
 70
     2
  9
$SKETCHINC
 40
1.0
  9
$FILLETRAD
 40
10.0
  9
$AUNITS
 70
     0
  9
$AUPREC
 70
     2
  9
$MENU
  1
.
  9
$ELEVATION
 40
0.0
  9
$PELEVATION
 40
0.0
  9
$THICKNESS
 40
0.0
  9
$LIMCHECK
 70
     0
  9
$CHAMFERA
 40
10.0
  9
$CHAMFERB
 40
10.0
  9
$CHAMFERC
 40
20.0
  9
$CHAMFERD
 40
0.0
  9
$SKPOLY
 70
     0
  9
$TDCREATE
 40
2455614.526676296
  9
$TDUCREATE
 40
2455614.48500963
  9
$TDUPDATE
 40
2455614.526676308
  9
$TDUUPDATE
 40
2455614.485009641
  9
$TDINDWG
 40
0.0000000116
  9
$TDUSRTIMER
 40
0.0000000116
  9
$USRTIMER
 70
     1
  9
$ANGBASE
 50
0.0
  9
$ANGDIR
 70
     0
  9
$PDMODE
 70
     0
  9
$PDSIZE
 40
-1.0
  9
$PLINEWID
 40
0.0
  9
$SPLFRAME
 70
     0
  9
$SPLINETYPE
 70
     6
  9
$SPLINESEGS
 70
     8
  9
$HANDSEED
  5
240
  9
$SURFTAB1
 70
     6
  9
$SURFTAB2
 70
     6
  9
$SURFTYPE
 70
     6
  9
$SURFU
 70
     6
  9
$SURFV
 70
     6
  9
$UCSBASE
  2

  9
$UCSNAME
  2

  9
$UCSORG
 10
0.0
 20
0.0
 30
0.0
  9
$UCSXDIR
 10
1.0
 20
0.0
 30
0.0
  9
$UCSYDIR
 10
0.0
 20
1.0
 30
0.0
  9
$UCSORTHOREF
  2

  9
$UCSORTHOVIEW
 70
     0
  9
$UCSORGTOP
 10
0.0
 20
0.0
 30
0.0
  9
$UCSORGBOTTOM
 10
0.0
 20
0.0
 30
0.0
  9
$UCSORGLEFT
 10
0.0
 20
0.0
 30
0.0
  9
$UCSORGRIGHT
 10
0.0
 20
0.0
 30
0.0
  9
$UCSORGFRONT
 10
0.0
 20
0.0
 30
0.0
  9
$UCSORGBACK
 10
0.0
 20
0.0
 30
0.0
  9
$PUCSBASE
  2

  9
$PUCSNAME
  2

  9
$PUCSORG
 10
0.0
 20
0.0
 30
0.0
  9
$PUCSXDIR
 10
1.0
 20
0.0
 30
0.0
  9
$PUCSYDIR
 10
0.0
 20
1.0
 30
0.0
  9
$PUCSORTHOREF
  2

  9
$PUCSORTHOVIEW
 70
     0
  9
$PUCSORGTOP
 10
0.0
 20
0.0
 30
0.0
  9
$PUCSORGBOTTOM
 10
0.0
 20
0.0
 30
0.0
  9
$PUCSORGLEFT
 10
0.0
 20
0.0
 30
0.0
  9
$PUCSORGRIGHT
 10
0.0
 20
0.0
 30
0.0
  9
$PUCSORGFRONT
 10
0.0
 20
0.0
 30
0.0
  9
$PUCSORGBACK
 10
0.0
 20
0.0
 30
0.0
  9
$USERI1
 70
     0
  9
$USERI2
 70
     0
  9
$USERI3
 70
     0
  9
$USERI4
 70
     0
  9
$USERI5
 70
     0
  9
$USERR1
 40
0.0
  9
$USERR2
 40
0.0
  9
$USERR3
 40
0.0
  9
$USERR4
 40
0.0
  9
$USERR5
 40
0.0
  9
$WORLDVIEW
 70
     1
  9
$SHADEDGE
 70
     3
  9
$SHADEDIF
 70
    70
  9
$TILEMODE
 70
     1
  9
$MAXACTVP
 70
    64
  9
$PINSBASE
 10
0.0
 20
0.0
 30
0.0
  9
$PLIMCHECK
 70
     0
  9
$PEXTMIN
 10
1.0000000000E+20
 20
1.0000000000E+20
 30
1.0000000000E+20
  9
$PEXTMAX
 10
-1.0000000000E+20
 20
-1.0000000000E+20
 30
-1.0000000000E+20
  9
$PLIMMIN
 10
0.0
 20
0.0
  9
$PLIMMAX
 10
420.0
 20
297.0
  9
$UNITMODE
 70
     0
  9
$VISRETAIN
 70
     1
  9
$PLINEGEN
 70
     0
  9
$PSLTSCALE
 70
     1
  9
$TREEDEPTH
 70
  3020
  9
$CMLSTYLE
  2
Standard
  9
$CMLJUST
 70
     0
  9
$CMLSCALE
 40
20.0
  9
$PROXYGRAPHICS
 70
     1
  9
$MEASUREMENT
 70
     1
  9
$CELWEIGHT
370
    -1
  9
$ENDCAPS
280
     0
  9
$JOINSTYLE
280
     0
  9
$LWDISPLAY
290
     1
  9
$INSUNITS
 70
     4
  9
$HYPERLINKBASE
  1

  9
$STYLESHEET
  1

  9
$XEDIT
290
     1
  9
$CEPSNTYPE
380
     0
  9
$PSTYLEMODE
290
     1
  9
$FINGERPRINTGUID
  2
{1D8E0CB9-E23C-4960-A21D-7F3C622F73E3}
  9
$VERSIONGUID
  2
{FAEB1C32-E019-11D5-929B-00C0DF256EC4}
  9
$EXTNAMES
290
     1
  9
$PSVPSCALE
 40
0.0
  9
$OLESTARTUP
290
     0
  0
ENDSEC
  0
SECTION
  2
CLASSES
  0
CLASS
  1
ACDBDICTIONARYWDFLT
  2
AcDbDictionaryWithDefault
  3
ObjectDBX Classes
 90
        0
280
     0
281
     0
  0
CLASS
  1
VISUALSTYLE
  2
AcDbVisualStyle
  3
ObjectDBX Classes
 90
     4095
280
     0
281
     0
  0
CLASS
  1
DICTIONARYVAR
  2
AcDbDictionaryVar
  3
ObjectDBX Classes
 90
        0
280
     0
281
     0
  0
CLASS
  1
ACDBPLACEHOLDER
  2
AcDbPlaceHolder
  3
ObjectDBX Classes
 90
        0
280
     0
281
     0
  0
CLASS
  1
LAYOUT
  2
AcDbLayout
  3
ObjectDBX Classes
 90
        0
280
     0
281
     0
  0
ENDSEC
  0
SECTION
  2
TABLES
  0
TABLE
  2
VPORT
  5
8
330
0
100
AcDbSymbolTable
 70
     1
  0
VPORT
  5
29
330
8
100
AcDbSymbolTableRecord
100
AcDbViewportTableRecord
  2
*Active
 70
     0
 10
0.0
 20
0.0
 11
1.0
 21
1.0
 12
148.5
 22
105.0
 13
0.0
 23
0.0
 14
10.0
 24
10.0
 15
10.0
 25
10.0
 16
0.0
 26
0.0
 36
1.0
 17
0.0
 27
0.0
 37
0.0
 40
210.0
 41
1.4142857143
 42
50.0
 43
0.0
 44
0.0
 50
0.0
 51
0.0
 71
     0
 72
  2000
 73
     1
 74
     3
 75
     0
 76
     0
 77
     0
 78
     0
281
     0
 65
     1
110
0.0
120
0.0
130
0.0
111
1.0
121
0.0
131
0.0
112
0.0
122
1.0
132
0.0
 79
     0
146
0.0
  0
ENDTAB
  0
TABLE
  2
LTYPE
  5
5
330
0
100
AcDbSymbolTable
 70
     6
  0
LTYPE
  5
14
330
5
100
AcDbSymbolTableRecord
100
AcDbLinetypeTableRecord
  2
ByBlock
 70
     0
  3

 72
    65
 73
     0
 40
0.0
  0
LTYPE
  5
15
330
5
100
AcDbSymbolTableRecord
100
AcDbLinetypeTableRecord
  2
ByLayer
 70
     0
  3

 72
    65
 73
     0
 40
0.0
  0
LTYPE
  5
16
330
5
100
AcDbSymbolTableRecord
100
AcDbLinetypeTableRecord
  2
Continuous
 70
     0
  3
Solid line
 72
    65
 73
     0
 40
0.0
  0
LTYPE
  5
3B
330
5
100
AcDbSymbolTableRecord
100
AcDbLinetypeTableRecord
  2
HIDDEN
 70
     0
  3
Hidden __ __ __ __ __ __ __ __ __ __ __ __ __ __
 72
    65
 73
     2
 40
1.905
 49
1.27
 74
     0
 49
-0.635
 74
     0
  0
LTYPE
  5
3C
330
5
100
AcDbSymbolTableRecord
100
AcDbLinetypeTableRecord
  2
PHANTOM
 70
     0
  3
Phantom ______  __  __  ______  __  __  ______
 72
    65
 73
     6
 40
12.7
 49
6.35
 74
     0
 49
-1.27
 74
     0
 49
1.27
 74
     0
 49
-1.27
 74
     0
 49
1.27
 74
     0
 49
-1.27
 74
     0
  0
LTYPE
  5
3D
330
5
100
AcDbSymbolTableRecord
100
AcDbLinetypeTableRecord
  2
CENTER
 70
     0
  3
Center ____ _ ____ _ ____ _ ____ _ ____ _ ____
 72
    65
 73
     4
 40
10.16
 49
6.35
 74
     0
 49
-1.27
 74
     0
 49
1.27
 74
     0
 49
-1.27
 74
     0
  0
LTYPE
  5
3E
330
5
100
AcDbSymbolTableRecord
100
AcDbLinetypeTableRecord
  2
CENTERX2
 70
     0
  3
Center (2x) ________  __  ________  __  _____
 72
    65
 73
     4
 40
20.32
 49
12.7
 74
     0
 49
-2.54
 74
     0
 49
2.54
 74
     0
 49
-2.54
 74
     0
  0
LTYPE
  5
3F
330
5
100
AcDbSymbolTableRecord
100
AcDbLinetypeTableRecord
  2
DOT2
 70
     0
  3
Dot (.5x) ........................................
 72
    65
 73
     2
 40
0.635
 49
0.0
 74
     0
 49
-0.635
 74
     0
  0
ENDTAB
  0
TABLE
  2
LAYER
  5
2
330
0
100
AcDbSymbolTable
 70
     5
  0
LAYER
  5
10
330
2
100
AcDbSymbolTableRecord
100
AcDbLayerTableRecord
  2
0
 70
     0
 62
     7
  6
Continuous
370
    -3
390
F
  0
LAYER
  5
40
330
2
100
AcDbSymbolTableRecord
100
AcDbLayerTableRecord
  2
FORMAT
 70
     0
 62
     7
  6
Continuous
370
    -3
390
F
  0
LAYER
  5
41
330
2
100
AcDbSymbolTableRecord
100
AcDbLayerTableRecord
  2
VERMASSUNG
 70
     0
 62
     7
  6
Continuous
370
    -3
390
F
  0
LAYER
  5
42
330
2
100
AcDbSymbolTableRecord
100
AcDbLayerTableRecord
  2
KOPF_DÜNN
 70
     0
 62
     7
  6
Continuous
370
    -3
390
F
  0
LAYER
  5
43
330
2
100
AcDbSymbolTableRecord
100
AcDbLayerTableRecord
  2
KOPF_DICK
 70
     0
 62
     7
  6
Continuous
370
    15
390
F
  0
ENDTAB
  0
TABLE
  2
STYLE
  5
3
330
0
100
AcDbSymbolTable
 70
     3
  0
STYLE
  5
11
330
3
100
AcDbSymbolTableRecord
100
AcDbTextStyleTableRecord
  2
Standard
 70
     0
 40
0.0
 41
1.0
 50
0.0
 71
     0
 42
2.5
  3
txt
  4

  0
STYLE
  5
44
330
3
100
AcDbSymbolTableRecord
100
AcDbTextStyleTableRecord
  2
SLDTEXTSTYLE0
 70
     0
 40
0.0
 41
0.7
 50
0.0
 71
     0
 42
0.2
  3
TXT
  4

  0
STYLE
  5
48
330
3
100
AcDbSymbolTableRecord
100
AcDbTextStyleTableRecord
  2
SLDTEXTSTYLE1
 70
     0
 40
0.0
 41
0.6526315789
 50
0.0
 71
     0
 42
0.2
  3
TXT
  4

  0
ENDTAB
  0
TABLE
  2
VIEW
  5
6
330
0
100
AcDbSymbolTable
 70
     0
  0
ENDTAB
  0
TABLE
  2
UCS
  5
7
330
0
100
AcDbSymbolTable
 70
     0
  0
ENDTAB
  0
TABLE
  2
APPID
  5
9
330
0
100
AcDbSymbolTable
 70
     1
  0
APPID
  5
12
330
9
100
AcDbSymbolTableRecord
100
AcDbRegAppTableRecord
  2
ACAD
 70
     0
  0
ENDTAB
  0
TABLE
  2
DIMSTYLE
  5
A
330
0
100
AcDbSymbolTable
 70
     4
100
AcDbDimStyleTable
  0
DIMSTYLE
105
27
330
A
100
AcDbSymbolTableRecord
100
AcDbDimStyleTableRecord
  2
ISO-25
 70
     0
 41
2.5
 42
0.625
 43
3.75
 44
1.25
 73
     0
 74
     0
 77
     1
 78
     8
140
2.5
141
2.5
143
0.0393700787
147
0.625
171
     3
172
     1
271
     2
272
     2
274
     3
278
    44
283
     0
284
     8
340
11
  0
DIMSTYLE
105
1B0
102
{ACAD_REACTORS
330
1AF
330
1BC
330
1C6
330
1D0
102
}
330
A
100
AcDbSymbolTableRecord
100
AcDbDimStyleTableRecord
  2
SLDDIMSTYLE0
 70
     0
 41
3.0
 44
0.0
 45
0.000000001
 73
     0
 74
     0
 77
     1
 78
    12
140
2.0
147
0.5
173
     1
271
     2
272
     3
284
    12
340
44
  0
DIMSTYLE
105
1DB
102
{ACAD_REACTORS
330
1DA
102
}
330
A
100
AcDbSymbolTableRecord
100
AcDbDimStyleTableRecord
  2
SLDDIMSTYLE1
 70
     0
 41
3.0
 44
0.0
 73
     0
 74
     0
 77
     1
 78
    12
140
2.0
147
0.5
173
     1
179
     2
272
     3
284
    12
340
44
  0
DIMSTYLE
105
223
102
{ACAD_REACTORS
330
222
102
}
330
A
100
AcDbSymbolTableRecord
100
AcDbDimStyleTableRecord
  2
SLDDIMSTYLE2
 70
     0
 41
3.0
 44
0.0
 45
0.000000001
 73
     0
 74
     0
 77
     1
 78
    12
140
2.0
147
0.5
173
     1
271
     2
272
     3
284
    12
340
44
  0
ENDTAB
  0
TABLE
  2
BLOCK_RECORD
  5
1
330
0
100
AcDbSymbolTable
 70
     8
  0
BLOCK_RECORD
  5
1F
330
1
100
AcDbSymbolTableRecord
100
AcDbBlockTableRecord
  2
*Model_Space
340
22
  0
BLOCK_RECORD
  5
1B
330
1
100
AcDbSymbolTableRecord
100
AcDbBlockTableRecord
  2
*Paper_Space
340
1E
  0
BLOCK_RECORD
  5
23
330
1
100
AcDbSymbolTableRecord
100
AcDbBlockTableRecord
  2
*Paper_Space0
340
26
  0
BLOCK_RECORD
  5
1B1
330
1
100
AcDbSymbolTableRecord
100
AcDbBlockTableRecord
  2
*D1
340
0
  0
BLOCK_RECORD
  5
1BD
330
1
100
AcDbSymbolTableRecord
100
AcDbBlockTableRecord
  2
*D2
340
0
  0
BLOCK_RECORD
  5
1C7
330
1
100
AcDbSymbolTableRecord
100
AcDbBlockTableRecord
  2
*D3
340
0
  0
BLOCK_RECORD
  5
1D1
330
1
100
AcDbSymbolTableRecord
100
AcDbBlockTableRecord
  2
*D4
340
0
  0
BLOCK_RECORD
  5
1DC
330
1
100
AcDbSymbolTableRecord
100
AcDbBlockTableRecord
  2
*D5
340
0
  0
BLOCK_RECORD
  5
224
330
1
100
AcDbSymbolTableRecord
100
AcDbBlockTableRecord
  2
*D6
340
0
  0
BLOCK_RECORD
  5
22E
330
1
100
AcDbSymbolTableRecord
100
AcDbBlockTableRecord
  2
SW_CENTERMARKSYMBOL_0
340
0
102
{BLKREFS
331
239
102
}
  0
ENDTAB
  0
ENDSEC
  0
SECTION
  2
BLOCKS
  0
BLOCK
  5
20
330
1F
100
AcDbEntity
  8
0
100
AcDbBlockBegin
  2
*Model_Space
 70
     0
 10
0.0
 20
0.0
 30
0.0
  3
*Model_Space
  1

  0
ENDBLK
  5
21
330
1F
100
AcDbEntity
  8
0
100
AcDbBlockEnd
  0
BLOCK
  5
1C
330
1B
100
AcDbEntity
 67
     1
  8
0
100
AcDbBlockBegin
  2
*Paper_Space
 70
     0
 10
0.0
 20
0.0
 30
0.0
  3
*Paper_Space
  1

  0
ENDBLK
  5
1D
330
1B
100
AcDbEntity
 67
     1
  8
0
100
AcDbBlockEnd
  0
BLOCK
  5
24
330
23
100
AcDbEntity
  8
0
100
AcDbBlockBegin
  2
*Paper_Space0
 70
     0
 10
0.0
 20
0.0
 30
0.0
  3
*Paper_Space0
  1

  0
ENDBLK
  5
25
330
23
100
AcDbEntity
  8
0
100
AcDbBlockEnd
  0
BLOCK
  5
1B2
330
1B1
100
AcDbEntity
  8
0
100
AcDbBlockBegin
  2
*D1
 70
     1
 10
0.0
 20
0.0
 30
0.0
  3
*D1
  1

  0
SOLID
  5
1B4
330
1B1
100
AcDbEntity
  8
VERMASSUNG
100
AcDbTrace
 10
151.7981370968
 20
145.5001397517
 30
0.0
 11
151.3481370968
 21
142.5001397517
 31
0.0
 12
152.2481370968
 22
142.5001397517
 32
0.0
 13
152.2481370968
 23
142.5001397517
 33
0.0
  0
SOLID
  5
1B5
330
1B1
100
AcDbEntity
  8
VERMASSUNG
100
AcDbTrace
 10
151.7981370968
 20
82.5001397517
 30
0.0
 11
152.2481370968
 21
85.5001397517
 31
0.0
 12
151.3481370968
 22
85.5001397517
 32
0.0
 13
151.3481370968
 23
85.5001397517
 33
0.0
  0
LINE
  5
1B6
330
1B1
100
AcDbEntity
  8
VERMASSUNG
100
AcDbLine
 10
191.208916541
 20
145.5001397517
 30
0.0
 11
150.7981370968
 21
145.5001397517
 31
0.0
  0
LINE
  5
1B7
330
1B1
100
AcDbEntity
  8
VERMASSUNG
100
AcDbLine
 10
191.208916541
 20
82.5001397517
 30
0.0
 11
150.7981370968
 21
82.5001397517
 31
0.0
  0
LINE
  5
1B8
330
1B1
100
AcDbEntity
  8
VERMASSUNG
100
AcDbLine
 10
151.7981370968
 20
145.5001397517
 30
0.0
 11
151.7981370968
 21
82.5001397517
 31
0.0
  0
MTEXT
  5
1B9
330
1B1
100
AcDbEntity
  8
VERMASSUNG
100
AcDbMText
 10
149.0200016077
 20
107.7962685691
 30
0.0
 40
2.0
 41
0.0
 71
     1
 72
     1
  1
HSK 
  7
SLDTEXTSTYLE0
 11
-7.044195017643634E-15
 21
1.0
 31
0.0
 73
     1
 44
1.0
  0
MTEXT
  5
1BA
330
1B1
100
AcDbEntity
  8
VERMASSUNG
100
AcDbMText
 10
149.2200016172
 20
113.7962686213
 30
0.0
 40
2.0
 41
0.0
 71
     1
 72
     1
  1
%%c
  7
SLDTEXTSTYLE0
 11
-7.044195017643634E-15
 21
1.0
 31
0.0
 73
     1
 44
1.0
  0
MTEXT
  5
1BB
330
1B1
100
AcDbEntity
  8
VERMASSUNG
100
AcDbMText
 10
149.2200017336
 20
117.4062097448
 30
0.0
 40
2.0
 41
0.0
 71
     1
 72
     1
  1
63
  7
SLDTEXTSTYLE0
 11
-7.044195017643634E-15
 21
1.0
 31
0.0
 73
     1
 44
1.0
  0
ENDBLK
  5
1B3
330
1B1
100
AcDbEntity
  8
0
100
AcDbBlockEnd
  0
BLOCK
  5
1BE
330
1BD
100
AcDbEntity
  8
0
100
AcDbBlockBegin
  2
*D2
 70
     1
 10
0.0
 20
0.0
 30
0.0
  3
*D2
  1

  0
SOLID
  5
1C0
330
1BD
100
AcDbEntity
  8
VERMASSUNG
100
AcDbTrace
 10
262.408916541
 20
159.25214044
 30
0.0
 11
259.408916541
 21
159.70214044
 31
0.0
 12
259.408916541
 22
158.80214044
 32
0.0
 13
259.408916541
 23
158.80214044
 33
0.0
  0
SOLID
  5
1C1
330
1BD
100
AcDbEntity
  8
VERMASSUNG
100
AcDbTrace
 10
159.008916541
 20
159.25214044
 30
0.0
 11
162.008916541
 21
158.80214044
 31
0.0
 12
162.008916541
 22
159.70214044
 32
0.0
 13
162.008916541
 23
159.70214044
 33
0.0
  0
LINE
  5
1C2
330
1BD
100
AcDbEntity
  8
VERMASSUNG
100
AcDbLine
 10
262.408916541
 20
69.0001397517
 30
0.0
 11
262.408916541
 21
160.25214044
 31
0.0
  0
LINE
  5
1C3
330
1BD
100
AcDbEntity
  8
VERMASSUNG
100
AcDbLine
 10
159.008916541
 20
133.6908174982
 30
0.0
 11
159.008916541
 21
160.25214044
 31
0.0
  0
LINE
  5
1C4
330
1BD
100
AcDbEntity
  8
VERMASSUNG
100
AcDbLine
 10
262.408916541
 20
159.25214044
 30
0.0
 11
159.008916541
 21
159.25214044
 31
0.0
  0
MTEXT
  5
1C5
330
1BD
100
AcDbEntity
  8
VERMASSUNG
100
AcDbMText
 10
207.7099277976
 20
161.8302758031
 30
0.0
 40
2.0
 41
0.0
 71
     1
 72
     1
  1
103.4
  7
SLDTEXTSTYLE0
 73
     1
 44
1.0
  0
ENDBLK
  5
1BF
330
1BD
100
AcDbEntity
  8
0
100
AcDbBlockEnd
  0
BLOCK
  5
1C8
330
1C7
100
AcDbEntity
  8
0
100
AcDbBlockBegin
  2
*D3
 70
     1
 10
0.0
 20
0.0
 30
0.0
  3
*D3
  1

  0
SOLID
  5
1CA
330
1C7
100
AcDbEntity
  8
VERMASSUNG
100
AcDbTrace
 10
190.908916541
 20
153.25214044
 30
0.0
 11
193.908916541
 21
152.80214044
 31
0.0
 12
193.908916541
 22
153.70214044
 32
0.0
 13
193.908916541
 23
153.70214044
 33
0.0
  0
SOLID
  5
1CB
330
1C7
100
AcDbEntity
  8
VERMASSUNG
100
AcDbTrace
 10
262.408916541
 20
153.25214044
 30
0.0
 11
259.408916541
 21
153.70214044
 31
0.0
 12
259.408916541
 22
152.80214044
 32
0.0
 13
259.408916541
 23
152.80214044
 33
0.0
  0
LINE
  5
1CC
330
1C7
100
AcDbEntity
  8
VERMASSUNG
100
AcDbLine
 10
190.908916541
 20
145.2001397517
 30
0.0
 11
190.908916541
 21
154.25214044
 31
0.0
  0
LINE
  5
1CD
330
1C7
100
AcDbEntity
  8
VERMASSUNG
100
AcDbLine
 10
262.408916541
 20
69.0001397517
 30
0.0
 11
262.408916541
 21
154.25214044
 31
0.0
  0
LINE
  5
1CE
330
1C7
100
AcDbEntity
  8
VERMASSUNG
100
AcDbLine
 10
190.908916541
 20
153.25214044
 30
0.0
 11
262.408916541
 21
153.25214044
 31
0.0
  0
MTEXT
  5
1CF
330
1C7
100
AcDbEntity
  8
VERMASSUNG
100
AcDbMText
 10
224.4599718719
 20
155.8302758031
 30
0.0
 40
2.0
 41
0.0
 71
     1
 72
     1
  1
71.5
  7
SLDTEXTSTYLE0
 73
     1
 44
1.0
  0
ENDBLK
  5
1C9
330
1C7
100
AcDbEntity
  8
0
100
AcDbBlockEnd
  0
BLOCK
  5
1D2
330
1D1
100
AcDbEntity
  8
0
100
AcDbBlockBegin
  2
*D4
 70
     1
 10
0.0
 20
0.0
 30
0.0
  3
*D4
  1

  0
SOLID
  5
1D4
330
1D1
100
AcDbEntity
  8
VERMASSUNG
100
AcDbTrace
 10
270.858584834
 20
114.0001397517
 30
0.0
 11
270.408584834
 21
111.0001397517
 31
0.0
 12
271.308584834
 22
111.0001397517
 32
0.0
 13
271.308584834
 23
111.0001397517
 33
0.0
  0
SOLID
  5
1D5
330
1D1
100
AcDbEntity
  8
VERMASSUNG
100
AcDbTrace
 10
270.858584834
 20
69.0001397517
 30
0.0
 11
271.308584834
 21
72.0001397517
 31
0.0
 12
270.408584834
 22
72.0001397517
 32
0.0
 13
270.408584834
 23
72.0001397517
 33
0.0
  0
LINE
  5
1D6
330
1D1
100
AcDbEntity
  8
VERMASSUNG
100
AcDbLine
 10
255.3840725806
 20
114.0001397517
 30
0.0
 11
271.858584834
 21
114.0001397517
 31
0.0
  0
LINE
  5
1D7
330
1D1
100
AcDbEntity
  8
VERMASSUNG
100
AcDbLine
 10
262.408916541
 20
69.0001397517
 30
0.0
 11
271.858584834
 21
69.0001397517
 31
0.0
  0
LINE
  5
1D8
330
1D1
100
AcDbEntity
  8
VERMASSUNG
100
AcDbLine
 10
270.858584834
 20
114.0001397517
 30
0.0
 11
270.858584834
 21
69.0001397517
 31
0.0
  0
MTEXT
  5
1D9
330
1D1
100
AcDbEntity
  8
VERMASSUNG
100
AcDbMText
 10
268.2804494708
 20
90.0012336477
 30
0.0
 40
2.0
 41
0.0
 71
     1
 72
     1
  1
45
  7
SLDTEXTSTYLE0
 11
-7.044195017643634E-15
 21
1.0
 31
0.0
 73
     1
 44
1.0
  0
ENDBLK
  5
1D3
330
1D1
100
AcDbEntity
  8
0
100
AcDbBlockEnd
  0
BLOCK
  5
1DD
330
1DC
100
AcDbEntity
  8
0
100
AcDbBlockBegin
  2
*D5
 70
     1
 10
0.0
 20
0.0
 30
0.0
  3
*D5
  1

  0
ARC
  5
1DF
330
1DC
100
AcDbEntity
  8
VERMASSUNG
100
AcDbCircle
 10
261.9984421724
 20
69.0001397517
 30
0.0
 40
31.03788287722626
100
AcDbArc
 50
177.0
 51
180.0
  0
ARC
  5
1E0
330
1DC
100
AcDbEntity
  8
VERMASSUNG
100
AcDbCircle
 10
261.9984421724
 20
69.0001397517
 30
0.0
 40
31.03788287722627
100
AcDbArc
 50
165.9711806315
 51
177.0
  0
ARC
  5
1E1
330
1DC
100
AcDbEntity
  8
VERMASSUNG
100
AcDbCircle
 10
261.9984421724
 20
69.0001397517
 30
0.0
 40
31.03788287722625
100
AcDbArc
 50
180.0
 51
194.9129337894
  0
SOLID
  5
1E2
330
1DC
100
AcDbEntity
  8
VERMASSUNG
100
AcDbTrace
 10
231.003095635
 20
70.6245370318
 30
0.0
 11
231.7519301654
 21
73.5642218527
 31
0.0
 12
230.8564749086
 22
73.6545539233
 32
0.0
 13
230.8564749086
 23
73.6545539233
 33
0.0
  0
SOLID
  5
1E3
330
1DC
100
AcDbEntity
  8
VERMASSUNG
100
AcDbTrace
 10
230.9605592952
 20
69.0001397517
 30
0.0
 11
230.655560676
 21
65.981948929
 31
0.0
 12
231.5545163578
 22
66.0252926955
 32
0.0
 13
231.5545163578
 23
66.0252926955
 33
0.0
  0
LINE
  5
1E4
330
1DC
100
AcDbEntity
  8
VERMASSUNG
100
AcDbLine
 10
246.7963167299
 20
69.7968493865
 30
0.0
 11
230.0044661002
 21
70.6768729881
 31
0.0
  0
LINE
  5
1E5
330
1DC
100
AcDbEntity
  8
VERMASSUNG
100
AcDbLine
 10
252.540296588
 20
69.0001397517
 30
0.0
 11
229.9605592952
 21
69.0001397517
 31
0.0
  0
MTEXT
  5
1E6
330
1DC
100
AcDbEntity
  8
VERMASSUNG
100
AcDbMText
 10
233.7206253818
 20
65.5346766421
 30
0.0
 40
2.0
 41
0.0
 71
     1
 72
     1
  1
3°
  7
SLDTEXTSTYLE0
 11
0.1667677736033705
 21
-0.9859962016597097
 31
0.0
 73
     1
 44
1.0
  0
ENDBLK
  5
1DE
330
1DC
100
AcDbEntity
  8
0
100
AcDbBlockEnd
  0
BLOCK
  5
225
330
224
100
AcDbEntity
  8
0
100
AcDbBlockBegin
  2
*D6
 70
     1
 10
0.0
 20
0.0
 30
0.0
  3
*D6
  1

  0
SOLID
  5
227
330
224
100
AcDbEntity
  8
VERMASSUNG
100
AcDbTrace
 10
44.4658357832
 20
68.9991386106
 30
0.0
 11
44.9158357832
 21
71.9991386106
 31
0.0
 12
44.0158357832
 22
71.9991386106
 32
0.0
 13
44.0158357832
 23
71.9991386106
 33
0.0
  0
SOLID
  5
228
330
224
100
AcDbEntity
  8
VERMASSUNG
100
AcDbTrace
 10
44.4658357832
 20
148.9991386106
 30
0.0
 11
44.0158357832
 21
145.9991386106
 31
0.0
 12
44.9158357832
 22
145.9991386106
 32
0.0
 13
44.9158357832
 23
145.9991386106
 33
0.0
  0
LINE
  5
229
330
224
100
AcDbEntity
  8
VERMASSUNG
100
AcDbLine
 10
88.522766129
 20
68.9991386106
 30
0.0
 11
43.4658357832
 21
68.9991386106
 31
0.0
  0
LINE
  5
22A
330
224
100
AcDbEntity
  8
VERMASSUNG
100
AcDbLine
 10
88.522766129
 20
148.9991386106
 30
0.0
 11
43.4658357832
 21
148.9991386106
 31
0.0
  0
LINE
  5
22B
330
224
100
AcDbEntity
  8
VERMASSUNG
100
AcDbLine
 10
44.4658357832
 20
68.9991386106
 30
0.0
 11
44.4658357832
 21
148.9991386106
 31
0.0
  0
MTEXT
  5
22C
330
224
100
AcDbEntity
  8
VERMASSUNG
100
AcDbMText
 10
41.8877003036
 20
105.7954327069
 30
0.0
 40
2.0
 41
0.0
 71
     1
 72
     1
  1
%%c
  7
SLDTEXTSTYLE0
 11
6.123233995736766E-17
 21
1.0
 31
0.0
 73
     1
 44
1.0
  0
MTEXT
  5
22D
330
224
100
AcDbEntity
  8
VERMASSUNG
100
AcDbMText
 10
41.88770042
 20
109.4050433248
 30
0.0
 40
2.0
 41
0.0
 71
     1
 72
     1
  1
80
  7
SLDTEXTSTYLE0
 11
6.123233995736766E-17
 21
1.0
 31
0.0
 73
     1
 44
1.0
  0
ENDBLK
  5
226
330
224
100
AcDbEntity
  8
0
100
AcDbBlockEnd
  0
BLOCK
  5
22F
330
22E
100
AcDbEntity
  8
0
100
AcDbBlockBegin
  2
SW_CENTERMARKSYMBOL_0
 70
     0
 10
0.0
 20
0.0
 30
0.0
  3
SW_CENTERMARKSYMBOL_0
  1

  0
LINE
  5
231
330
22E
100
AcDbEntity
  8
VERMASSUNG
 62
     0
100
AcDbLine
 10
0.0
 20
0.0
 30
0.0
 11
0.0
 21
2.5
 31
0.0
  0
LINE
  5
232
330
22E
100
AcDbEntity
  8
VERMASSUNG
 62
     0
100
AcDbLine
 10
0.0
 20
0.0
 30
0.0
 11
-2.5
 21
0.0
 31
0.0
  0
LINE
  5
233
330
22E
100
AcDbEntity
  8
VERMASSUNG
 62
     0
100
AcDbLine
 10
0.0
 20
0.0
 30
0.0
 11
0.0
 21
-2.5
 31
0.0
  0
LINE
  5
234
330
22E
100
AcDbEntity
  8
VERMASSUNG
 62
     0
100
AcDbLine
 10
0.0
 20
0.0
 30
0.0
 11
2.5
 21
0.0
 31
0.0
  0
LINE
  5
235
330
22E
100
AcDbEntity
  8
VERMASSUNG
 62
     0
100
AcDbLine
 10
0.0
 20
5.0
 30
0.0
 11
0.0
 21
34.0
 31
0.0
  0
LINE
  5
236
330
22E
100
AcDbEntity
  8
VERMASSUNG
 62
     0
100
AcDbLine
 10
-5.0
 20
0.0
 30
0.0
 11
-34.0
 21
0.0
 31
0.0
  0
LINE
  5
237
330
22E
100
AcDbEntity
  8
VERMASSUNG
 62
     0
100
AcDbLine
 10
0.0
 20
-5.0
 30
0.0
 11
0.0
 21
-34.0
 31
0.0
  0
LINE
  5
238
330
22E
100
AcDbEntity
  8
VERMASSUNG
 62
     0
100
AcDbLine
 10
5.0
 20
0.0
 30
0.0
 11
34.0
 21
0.0
 31
0.0
  0
ENDBLK
  5
230
330
22E
100
AcDbEntity
  8
0
100
AcDbBlockEnd
  0
ENDSEC
  0
SECTION
  2
ENTITIES
  0
MTEXT
  5
45
330
1F
100
AcDbEntity
  8
KOPF_DÜNN
100
AcDbMText
 10
13.8892156294
 20
23.8442973028
 30
0.0
 40
3.0
 41
0.0
 71
     1
 72
     1
  1
HA6.KVB.LJA.070
  7
SLDTEXTSTYLE0
 73
     1
 44
1.0
  0
MTEXT
  5
46
330
1F
100
AcDbEntity
  8
VERMASSUNG
100
AcDbMText
 10
13.9329988022
 20
28.8834360957
 30
0.0
 40
3.0
 41
0.0
 71
     1
 72
     1
  1
Klemmhalter links_Turning tool left 35° /93°
  7
SLDTEXTSTYLE0
 73
     1
 44
1.0
  0
MTEXT
  5
47
330
1F
100
AcDbEntity
  8
VERMASSUNG
100
AcDbMText
 10
98.8601118557
 20
13.8365368179
 30
0.0
 40
2.0
 41
0.0
 71
     1
 72
     1
  1
Datum: 26.02.2009
  7
SLDTEXTSTYLE0
 73
     1
 44
1.0
  0
MTEXT
  5
49
330
1F
100
AcDbEntity
  8
VERMASSUNG
100
AcDbMText
 10
13.933048693
 20
18.0482802738
 30
0.0
 40
2.0
 41
0.0
 71
     1
 72
     1
  1
DIN 69893 HSK 63 A ICTM / VC.. 16 04..
  7
SLDTEXTSTYLE1
 73
     1
 44
1.0
  0
MTEXT
  5
4A
330
1F
100
AcDbEntity
  8
VERMASSUNG
100
AcDbMText
 10
13.9808475933
 20
13.9090973692
 30
0.0
 40
2.0
 41
0.0
 71
     1
 72
     1
  1
Gewicht: 1019g
  7
SLDTEXTSTYLE0
 73
     1
 44
1.0
  0
LINE
  5
4B
330
1F
100
AcDbEntity
  8
0
  6
Continuous
 62
     7
370
    15
100
AcDbLine
 10
191.208916541
 20
82.5001397517
 30
0.0
 11
195.858916541
 21
82.5001397517
 31
0.0
  0
LINE
  5
4C
330
1F
100
AcDbEntity
  8
0
  6
Continuous
 62
     7
370
    15
100
AcDbLine
 10
195.8869049001
 20
145.5001397517
 30
0.0
 11
191.208916541
 21
145.5001397517
 31
0.0
  0
ARC
  5
4D
330
1F
100
AcDbEntity
  8
0
  6
Continuous
 62
     7
370
    15
100
AcDbCircle
 10
191.208916541
 20
82.8001397517
 30
0.0
 40
0.3000000000000114
100
AcDbArc
 50
180.0
 51
270.0
  0
ARC
  5
4E
330
1F
100
AcDbEntity
  8
0
  6
Continuous
 62
     7
370
    15
100
AcDbCircle
 10
191.208916541
 20
145.2001397517
 30
0.0
 40
0.3000000000000114
100
AcDbArc
 50
90.0
 51
180.0
  0
ARC
  5
4F
330
1F
100
AcDbEntity
  8
0
  6
Continuous
 62
     7
370
    15
100
AcDbCircle
 10
217.858916541
 20
87.0001397517
 30
0.0
 40
1.000000000000017
100
AcDbArc
 50
90.0
 51
143.1139143113
  0
ARC
  5
50
330
1F
100
AcDbEntity
  8
0
  6
Continuous
 62
     7
370
    15
100
AcDbCircle
 10
217.858916541
 20
141.0001397517
 30
0.0
 40
1.0
100
AcDbArc
 50
216.8996843908
 51
270.0
  0
LINE
  5
51
330
1F
100
AcDbEntity
  8
0
  6
Continuous
 62
     7
370
    15
100
AcDbLine
 10
217.858916541
 20
88.0001397517
 30
0.0
 11
232.1415895531
 21
88.0001397517
 31
0.0
  0
LINE
  5
52
330
1F
100
AcDbEntity
  8
0
  6
Continuous
 62
     7
370
    15
100
AcDbLine
 10
230.2000284138
 20
140.0001397517
 30
0.0
 11
217.858916541
 21
140.0001397517
 31
0.0
  0
ARC
  5
53
330
1F
100
AcDbEntity
  8
0
  6
Continuous
 62
     7
370
    15
100
AcDbCircle
 10
190.408916541
 20
89.42970889
 30
0.0
 40
0.599999999999994
100
AcDbArc
 50
33.5573097619
 51
90.0
  0
ARC
  5
54
330
1F
100
AcDbEntity
  8
0
  6
Continuous
 62
     7
370
    15
100
AcDbCircle
 10
190.408916541
 20
138.5705706134
 30
0.0
 40
0.6000000000000019
100
AcDbArc
 50
270.0
 51
326.4426902381
  0
LINE
  5
55
330
1F
100
AcDbEntity
  8
0
  6
Continuous
 62
     7
370
    15
100
AcDbLine
 10
188.908916541
 20
89.77970889
 30
0.0
 11
189.7656293144
 21
90.0092643858
 31
0.0
  0
LINE
  5
56
330
1F
100
AcDbEntity
  8
0
  6
Continuous
 62
     7
370
    15
100
AcDbLine
 10
189.7656293144
 20
137.9910151177
 30
0.0
 11
188.908916541
 21
138.2205706134
 31
0.0
  0
LINE
  5
57
330
1F
100
AcDbEntity
  8
0
  6
Continuous
 62
     7
370
    15
100
AcDbLine
 10
177.6774077422
 20
137.6578697718
 30
0.0
 11
165.108916541
 21
137.0281858439
 31
0.0
  0
LINE
  5
58
330
1F
100
AcDbEntity
  8
0
  6
Continuous
 62
     7
370
    15
100
AcDbLine
 10
188.908916541
 20
138.2205706134
 30
0.0
 11
186.0919148837
 21
138.0794382659
 31
0.0
  0
LINE
  5
59
330
1F
100
AcDbEntity
  8
0
  6
Continuous
 62
     7
370
    15
100
AcDbLine
 10
186.0919709738
 20
89.9208384274
 30
0.0
 11
188.908916541
 21
89.77970889
 31
0.0
  0
LINE
  5
5A
330
1F
100
AcDbEntity
  8
0
  6
Continuous
 62
     7
370
    15
100
AcDbLine
 10
169.108916541
 20
90.7716928579
 30
0.0
 11
177.6778102609
 21
90.3423895653
 31
0.0
  0
ARC
  5
5B
330
1F
100
AcDbEntity
  8
0
  6
Continuous
 62
     7
370
    15
100
AcDbCircle
 10
189.9209207415
 20
89.42970889
 30
0.0
 40
0.5999999999999943
100
AcDbArc
 50
90.0
 51
105.0
  0
ARC
  5
5C
330
1F
100
AcDbEntity
  8
0
  6
Continuous
 62
     7
370
    15
100
AcDbCircle
 10
189.9209207415
 20
138.5705706134
 30
0.0
 40
0.5999999999999934
100
AcDbArc
 50
255.0
 51
270.0
  0
LINE
  5
5D
330
1F
100
AcDbEntity
  8
0
  6
Continuous
 62
     7
370
    15
100
AcDbLine
 10
189.9209207415
 20
90.02970889
 30
0.0
 11
190.408916541
 21
90.02970889
 31
0.0
  0
LINE
  5
5E
330
1F
100
AcDbEntity
  8
0
  6
Continuous
 62
     7
370
    15
100
AcDbLine
 10
190.408916541
 20
137.9705706134
 30
0.0
 11
189.9209207415
 21
137.9705706134
 31
0.0
  0
LINE
  5
5F
330
1F
100
AcDbEntity
  8
0
  6
Continuous
 62
     7
370
    15
100
AcDbLine
 10
160.158916541
 20
93.1876397517
 30
0.0
 11
167.708916541
 21
93.1876397517
 31
0.0
  0
ARC
  5
60
330
1F
100
AcDbEntity
  8
0
  6
Continuous
 62
     7
370
    15
100
AcDbCircle
 10
167.708916541
 20
91.7876397517
 30
0.0
 40
1.400000000000005
100
AcDbArc
 50
37.6443616934
 51
90.0
  0
LINE
  5
61
330
1F
100
AcDbEntity
  8
0
  6
Continuous
 62
     7
370
    15
100
AcDbLine
 10
160.1500799992
 20
134.8613032099
 30
0.0
 11
159.0188173144
 21
133.7300405251
 31
0.0
  0
LINE
  5
62
330
1F
100
AcDbEntity
  8
0
  6
Continuous
 62
     7
370
    15
100
AcDbLine
 10
159.0063356613
 20
94.3402206314
 30
0.0
 11
160.158916541
 21
93.1876397517
 31
0.0
  0
ARC
  5
63
330
1F
100
AcDbEntity
  8
0
  6
Continuous
 62
     7
370
    15
100
AcDbCircle
 10
163.708916541
 20
136.2701397517
 30
0.0
 40
1.400000000000034
100
AcDbArc
 50
270.0
 51
301.7485287426
  0
LINE
  5
64
330
1F
100
AcDbEntity
  8
0
  6
Continuous
 62
     7
370
    15
100
AcDbLine
 10
163.708916541
 20
134.8701397517
 30
0.0
 11
160.2831822749
 21
134.8701397517
 31
0.0
  0
LINE
  5
65
330
1F
100
AcDbEntity
  8
0
  6
Continuous
 62
     7
370
    15
100
AcDbLine
 10
234.8313068486
 20
79.5614316407
 30
0.0
 11
234.5973554879
 21
79.2619875544
 31
0.0
  0
ARC
  5
66
330
1F
100
AcDbEntity
  8
0
  6
Continuous
 62
     7
370
    15
100
AcDbCircle
 10
234.8313068486
 20
79.5614316407
 30
0.0
 40
0.3800000000000096
100
AcDbArc
 50
87.0
 51
232.0
  0
LINE
  5
67
330
1F
100
AcDbEntity
  8
0
  6
Continuous
 62
     7
370
    15
100
AcDbLine
 10
234.8313068486
 20
79.5614316407
 30
0.0
 11
234.8511945119
 21
79.9409108639
 31
0.0
  0
LINE
  5
68
330
1F
100
AcDbEntity
  8
0
  6
Continuous
 62
     7
370
    15
100
AcDbLine
 10
262.278509003
 20
69.6971183222
 30
0.0
 11
250.2675567857
 21
79.0811026502
 31
0.0
  0
LINE
  5
69
330
1F
100
AcDbEntity
  8
0
  6
Continuous
 62
     7
370
    15
100
AcDbLine
 10
246.7963167299
 20
69.7968493865
 30
0.0
 11
262.0175450822
 21
68.9991386106
 31
0.0
  0
LINE
  5
6A
330
1F
100
AcDbEntity
  8
0
  6
Continuous
 62
     7
370
    15
100
AcDbLine
 10
234.5617143866
 20
79.2644530702
 30
0.0
 11
246.5726666039
 21
69.8804687422
 31
0.0
  0
LINE
  5
6B
330
1F
100
AcDbEntity
  8
0
  6
Continuous
 62
     7
370
    15
100
AcDbLine
 10
250.0439066597
 20
79.1647220059
 30
0.0
 11
234.8226783074
 21
79.9624327818
 31
0.0
  0
LINE
  5
6C
330
1F
100
AcDbEntity
  8
0
  6
Continuous
 62
     7
370
    15
100
AcDbLine
 10
246.7983025184
 20
69.8167727627
 30
0.0
 11
261.9890288777
 21
69.0206605285
 31
0.0
  0
ARC
  5
6D
330
1F
100
AcDbEntity
  8
0
  6
Continuous
 62
     7
370
    15
100
AcDbCircle
 10
262.008916541
 20
69.4001397517
 30
0.0
 40
0.3800000000000182
100
AcDbArc
 50
267.0
 51
52.0
  0
LINE
  5
6E
330
1F
100
AcDbEntity
  8
0
  6
Continuous
 62
     7
370
    15
100
AcDbLine
 10
262.2428679017
 20
69.6995838381
 30
0.0
 11
250.2559845683
 21
79.0647634927
 31
0.0
  0
ARC
  5
6F
330
1F
100
AcDbEntity
  8
0
  6
Continuous
 62
     7
370
    15
100
AcDbCircle
 10
250.0220332078
 20
78.7653194066
 30
0.0
 40
0.3800000000000084
100
AcDbArc
 50
52.0
 51
87.0
  0
LINE
  5
70
330
1F
100
AcDbEntity
  8
0
  6
Continuous
 62
     7
370
    15
100
AcDbLine
 10
250.0419208712
 20
79.1447986298
 30
0.0
 11
234.8511945119
 21
79.9409108639
 31
0.0
  0
LINE
  5
71
330
1F
100
AcDbEntity
  8
0
  6
Continuous
 62
     7
370
    15
100
AcDbLine
 10
234.5973554879
 20
79.2619875544
 30
0.0
 11
246.5842388211
 21
69.8968078995
 31
0.0
  0
ARC
  5
72
330
1F
100
AcDbEntity
  8
0
  6
Continuous
 62
     7
370
    15
100
AcDbCircle
 10
246.8181901818
 20
70.1962519859
 30
0.0
 40
0.3800000000000096
100
AcDbArc
 50
232.0
 51
267.0
  0
SPLINE
  5
73
330
1F
100
AcDbEntity
  8
0
  6
Continuous
 62
     7
370
    15
100
AcDbSpline
210
0.0
220
0.0
230
1.0
 70
     8
 71
     3
 72
    10
 73
     6
 74
     0
 42
0.00000001
 43
0.00000001
 40
0.0
 40
0.0
 40
0.0
 40
0.0
 40
0.2724816576280268
 40
0.5447570452797038
 40
0.9999999999999999
 40
0.9999999999999999
 40
0.9999999999999999
 40
0.9999999999999999
 10
246.5726666039025
 20
69.88046874221571
 30
0.0
 10
246.5906665754047
 20
69.86780628806493
 30
0.0
 10
246.6266528923408
 20
69.8424909653044
 30
0.0
 10
246.7011924063088
 20
69.80951856375877
 30
0.0
 10
246.7597035280568
 20
69.801725732826
 30
0.0
 10
246.7963167299476
 20
69.79684938652261
 30
0.0
  0
SPLINE
  5
74
330
1F
100
AcDbEntity
  8
0
  6
Continuous
 62
     7
370
    15
100
AcDbSpline
210
0.0
220
0.0
230
1.0
 70
     8
 71
     3
 72
    10
 73
     6
 74
     0
 42
0.00000001
 43
0.00000001
 40
0.0
 40
0.0
 40
0.0
 40
0.0
 40
0.2724816576280249
 40
0.5447570452796736
 40
1.0
 40
1.0
 40
1.0
 40
1.0
 10
250.2675567857015
 20
79.08110265022168
 30
0.0
 10
250.2495568141994
 20
79.09376510437247
 30
0.0
 10
250.2135704972633
 20
79.11908042713299
 30
0.0
 10
250.1390309832952
 20
79.15205282867862
 30
0.0
 10
250.0805198615472
 20
79.1598456596114
 30
0.0
 10
250.0439066596564
 20
79.16472200591478
 30
0.0
  0
SPLINE
  5
75
330
1F
100
AcDbEntity
  8
0
  6
Continuous
 62
     7
370
    15
100
AcDbSpline
210
0.0
220
0.0
230
1.0
 70
     8
 71
     3
 72
    15
 73
    11
 74
     0
 42
0.00000001
 43
0.00000001
 40
0.0
 40
0.0
 40
0.0
 40
0.0
 40
0.1411619226999056
 40
0.2818342648202515
 40
0.4169666844434393
 40
0.5461338408377883
 40
0.6723563608105408
 40
0.7999811958597304
 40
0.9323887207821214
 40
1.0
 40
1.0
 40
1.0
 40
1.0
 10
234.8226783073934
 20
79.96243278181697
 30
0.0
 10
234.7754280810773
 20
79.96032877769204
 30
0.0
 10
234.6810915026169
 20
79.95612806659099
 30
0.0
 10
234.5542447327767
 20
79.89099437169072
 30
0.0
 10
234.4598225299488
 20
79.79208802449585
 30
0.0
 10
234.4075263666178
 20
79.67049758848336
 30
0.0
 10
234.3991146683993
 20
79.54121883676352
 30
0.0
 10
234.4335739068308
 20
79.41568384519306
 30
0.0
 10
234.4943210608298
 20
79.32252943187822
 30
0.0
 10
234.5446888381213
 20
79.27912487787151
 30
0.0
 10
234.5617143866375
 20
79.26445307022378
 30
0.0
  0
SPLINE
  5
76
330
1F
100
AcDbEntity
  8
0
  6
Continuous
 62
     7
370
    15
100
AcDbSpline
210
0.0
220
0.0
230
1.0
 70
     8
 71
     3
 72
    15
 73
    11
 74
     0
 42
0.00000001
 43
0.00000001
 40
0.0
 40
0.0
 40
0.0
 40
0.0
 40
0.1411619226999062
 40
0.2818342648202588
 40
0.4169666844434375
 40
0.546133840837787
 40
0.6723563608105405
 40
0.7999811958597306
 40
0.9323887207821164
 40
1.0
 40
1.0
 40
1.0
 40
1.0
 10
262.0175450822106
 20
68.99913861062043
 30
0.0
 10
262.0647953085268
 20
69.00124261474535
 30
0.0
 10
262.1591318869872
 20
69.0054433258464
 30
0.0
 10
262.2859786568275
 20
69.07057702074668
 30
0.0
 10
262.3804008596553
 20
69.16948336794155
 30
0.0
 10
262.4326970229862
 20
69.29107380395405
 30
0.0
 10
262.4411087212048
 20
69.42035255567389
 30
0.0
 10
262.4066494827733
 20
69.54588754724436
 30
0.0
 10
262.3459023287742
 20
69.63904196055917
 30
0.0
 10
262.2955345514827
 20
69.68244651456587
 30
0.0
 10
262.2785090029666
 20
69.69711832221363
 30
0.0
  0
LINE
  5
77
330
1F
100
AcDbEntity
  8
0
  6
Continuous
 62
     7
370
    15
100
AcDbLine
 10
237.9637892519
 20
78.3902444614
 30
0.0
 11
234.8313068486
 21
79.5614316407
 31
0.0
  0
LINE
  5
78
330
1F
100
AcDbEntity
  8
0
  6
Continuous
 62
     7
370
    15
100
AcDbLine
 10
250.0220332078
 20
78.7653194066
 30
0.0
 11
250.0419208712
 21
79.1447986298
 31
0.0
  0
LINE
  5
79
330
1F
100
AcDbEntity
  8
0
  6
Continuous
 62
     7
370
    15
100
AcDbLine
 10
249.9741885027
 20
78.6373529299
 30
0.0
 11
250.0220332078
 21
78.7653194066
 31
0.0
  0
LINE
  5
7A
330
1F
100
AcDbEntity
  8
0
  6
Continuous
 62
     7
370
    15
100
AcDbLine
 10
239.2180252851
 20
78.3245127362
 30
0.0
 11
237.9637892519
 21
78.3902444614
 31
0.0
  0
LINE
  5
7B
330
1F
100
AcDbEntity
  8
0
  6
Continuous
 62
     7
370
    15
100
AcDbLine
 10
246.8181901818
 20
70.1962519859
 30
0.0
 11
246.5842388211
 21
69.8968078995
 31
0.0
  0
LINE
  5
7C
330
1F
100
AcDbEntity
  8
0
  6
Continuous
 62
     7
370
    15
100
AcDbLine
 10
237.9637892519
 20
78.3902444614
 30
0.0
 11
238.9534970938
 21
77.6169999501
 31
0.0
  0
LINE
  5
7D
330
1F
100
AcDbEntity
  8
0
  6
Continuous
 62
     7
370
    15
100
AcDbLine
 10
246.8660348869
 20
70.3242184625
 30
0.0
 11
246.8181901818
 21
70.1962519859
 31
0.0
  0
ARC
  5
7E
330
1F
100
AcDbEntity
  8
0
  6
Continuous
 62
     7
370
    15
100
AcDbCircle
 10
241.7464121228
 20
76.9759797217
 30
0.0
 40
1.0
100
AcDbArc
 50
87.0
 51
232.0
  0
ARC
  5
7F
330
1F
100
AcDbEntity
  8
0
  6
Continuous
 62
     7
370
    15
100
AcDbCircle
 10
241.7464121228
 20
76.9759797217
 30
0.0
 40
2.385640646055127
100
AcDbArc
 50
158.5810823052
 51
160.4189176948
  0
LINE
  5
80
330
1F
100
AcDbEntity
  8
0
  6
Continuous
 62
     7
370
    15
100
AcDbLine
 10
249.2591793053
 20
77.5836246234
 30
0.0
 11
241.798748079
 21
77.9746092564
 31
0.0
  0
ARC
  5
81
330
1F
100
AcDbEntity
  8
0
  6
Continuous
 62
     7
370
    15
100
AcDbCircle
 10
249.2068433491
 20
76.5849950886
 30
0.0
 40
1.000000000000029
100
AcDbArc
 50
52.0
 51
87.0
  0
LINE
  5
82
330
1F
100
AcDbEntity
  8
0
  6
Continuous
 62
     7
370
    15
100
AcDbLine
 10
255.7094727422
 20
72.7736024244
 30
0.0
 11
249.8225048244
 21
77.3730058422
 31
0.0
  0
ARC
  5
83
330
1F
100
AcDbEntity
  8
0
  6
Continuous
 62
     7
370
    15
100
AcDbCircle
 10
255.0938112669
 20
71.9855916707
 30
0.0
 40
1.000000000295363
100
AcDbArc
 50
267.0
 51
52.0
  0
LINE
  5
84
330
1F
100
AcDbEntity
  8
0
  6
Continuous
 62
     7
370
    15
100
AcDbLine
 10
247.5810440843
 20
71.3779467691
 30
0.0
 11
255.0414753106
 21
70.9869621357
 31
0.0
  0
ARC
  5
85
330
1F
100
AcDbEntity
  8
0
  6
Continuous
 62
     7
370
    15
100
AcDbCircle
 10
247.6333800406
 20
72.3765763038
 30
0.0
 40
0.999999999999989
100
AcDbArc
 50
232.0
 51
267.0
  0
LINE
  5
86
330
1F
100
AcDbEntity
  8
0
  6
Continuous
 62
     7
370
    15
100
AcDbLine
 10
241.1307506474
 20
76.1879689681
 30
0.0
 11
247.0177185652
 21
71.5885655502
 31
0.0
  0
CIRCLE
  5
87
330
1F
100
AcDbEntity
  8
0
  6
Continuous
 62
     7
370
    15
100
AcDbCircle
 10
248.4201116948
 20
74.4807856962
 30
0.0
 40
3.050000000000016
  0
LINE
  5
88
330
1F
100
AcDbEntity
  8
0
  6
Continuous
 62
     7
370
    15
100
AcDbLine
 10
250.0220332078
 20
78.7653194066
 30
0.0
 11
250.2559845683
 21
79.0647634927
 31
0.0
  0
LINE
  5
89
330
1F
100
AcDbEntity
  8
0
  6
Continuous
 62
     7
370
    15
100
AcDbLine
 10
262.008916541
 20
69.4001397517
 30
0.0
 11
262.2428679017
 21
69.6995838381
 31
0.0
  0
LINE
  5
8A
330
1F
100
AcDbEntity
  8
0
  6
Continuous
 62
     7
370
    15
100
AcDbLine
 10
258.8764341377
 20
70.5713269311
 30
0.0
 11
262.008916541
 21
69.4001397517
 31
0.0
  0
LINE
  5
8B
330
1F
100
AcDbEntity
  8
0
  6
Continuous
 62
     7
370
    15
100
AcDbLine
 10
258.8764341377
 20
70.5713269311
 30
0.0
 11
257.8867262958
 21
71.3445714424
 31
0.0
  0
LINE
  5
8C
330
1F
100
AcDbEntity
  8
0
  6
Continuous
 62
     7
370
    15
100
AcDbLine
 10
262.008916541
 20
69.4001397517
 30
0.0
 11
261.9890288777
 21
69.0206605285
 31
0.0
  0
LINE
  5
8D
330
1F
100
AcDbEntity
  8
0
  6
Continuous
 62
     7
370
    15
100
AcDbLine
 10
246.8181901818
 20
70.1962519859
 30
0.0
 11
246.7983025184
 21
69.8167727627
 31
0.0
  0
LINE
  5
8E
330
1F
100
AcDbEntity
  8
0
  6
Continuous
 62
     7
370
    15
100
AcDbLine
 10
257.6221981045
 20
70.6370586563
 30
0.0
 11
258.8764341377
 21
70.5713269311
 31
0.0
  0
ARC
  5
8F
330
1F
100
AcDbEntity
  8
0
  6
Continuous
 62
     7
370
    15
100
AcDbCircle
 10
255.0938112669
 20
71.9855916707
 30
0.0
 40
2.3856406460551
100
AcDbArc
 50
338.5810823052
 51
340.4189176948
  0
SPLINE
  5
90
330
1F
100
AcDbEntity
  8
0
  6
Continuous
 62
     7
370
    15
100
AcDbSpline
210
0.0
220
0.0
230
1.0
 70
     8
 71
     3
 72
    14
 73
    10
 74
     0
 42
0.00000001
 43
0.00000001
 40
0.0
 40
0.0
 40
0.0
 40
0.0
 40
0.2086064885492589
 40
0.3652036095092874
 40
0.4768526932687234
 40
0.5890212938927609
 40
0.7185670083743584
 40
0.9352579530972345
 40
1.0
 40
1.0
 40
1.0
 40
1.0
 10
257.8867262958011
 20
71.34457144237241
 30
0.0
 10
257.8463945577478
 20
71.37318627257882
 30
0.0
 10
257.7757865128242
 20
71.4232817386861
 30
0.0
 10
257.6666838981323
 20
71.45867598662049
 30
0.0
 10
257.5753202373556
 20
71.45764134408816
 30
0.0
 10
257.4961098994053
 20
71.42550372461486
 30
0.0
 10
257.4161989505672
 20
71.34975749323723
 30
0.0
 10
257.3700120526285
 20
71.2625641234291
 30
0.0
 10
257.3468209124929
 20
71.2003734613504
 30
0.0
 10
257.3414859236073
 20
71.18606685593802
 30
0.0
  0
SPLINE
  5
91
330
1F
100
AcDbEntity
  8
0
  6
Continuous
 62
     7
370
    15
100
AcDbSpline
210
0.0
220
0.0
230
1.0
 70
     8
 71
     3
 72
    14
 73
    10
 74
     0
 42
0.00000001
 43
0.00000001
 40
0.0
 40
0.0
 40
0.0
 40
0.0
 40
0.205518191661895
 40
0.3570166013208028
 40
0.4668471835761923
 40
0.5770815399050547
 40
0.7093665789830417
 40
0.9240585340231836
 40
1.0
 40
1.0
 40
1.0
 40
1.0
 10
257.3146883371853
 20
71.11439345530812
 30
0.0
 10
257.2986935625337
 20
71.06839940918339
 30
0.0
 10
257.2709081872403
 20
70.98850070096849
 30
0.0
 10
257.2659182594635
 20
70.87638639796789
 30
0.0
 10
257.2911518443125
 20
70.79070671579306
 30
0.0
 10
257.3432204923777
 20
70.72335984874987
 30
0.0
 10
257.4369385245917
 20
70.66617350233615
 30
0.0
 10
257.5359516262111
 20
70.64328849647544
 30
0.0
 10
257.6043308576751
 20
70.63834926076717
 30
0.0
 10
257.6221981045374
 20
70.63705865626896
 30
0.0
  0
SPLINE
  5
92
330
1F
100
AcDbEntity
  8
0
  6
Continuous
 62
     7
370
    15
100
AcDbSpline
210
0.0
220
0.0
230
1.0
 70
     8
 71
     3
 72
    14
 73
    10
 74
     0
 42
0.00000001
 43
0.00000001
 40
0.0
 40
0.0
 40
0.0
 40
0.0
 40
0.2086064885490946
 40
0.3652036095092345
 40
0.4768526932686658
 40
0.5890212938927128
 40
0.7185670083743437
 40
0.9352579530973353
 40
1.0
 40
1.0
 40
1.0
 40
1.0
 10
238.953497093803
 20
77.61699995006478
 30
0.0
 10
238.9938288318563
 20
77.58838511985846
 30
0.0
 10
239.06443687678
 20
77.53828965375132
 30
0.0
 10
239.1735394914718
 20
77.50289540581687
 30
0.0
 10
239.2649031522485
 20
77.50393004834929
 30
0.0
 10
239.3441134901988
 20
77.53606766782256
 30
0.0
 10
239.4240244390369
 20
77.61181389920024
 30
0.0
 10
239.4702113369756
 20
77.69900726900836
 30
0.0
 10
239.4934024771111
 20
77.76119793108704
 30
0.0
 10
239.4987374659968
 20
77.7755045364994
 30
0.0
  0
SPLINE
  5
93
330
1F
100
AcDbEntity
  8
0
  6
Continuous
 62
     7
370
    15
100
AcDbSpline
210
0.0
220
0.0
230
1.0
 70
     8
 71
     3
 72
    14
 73
    10
 74
     0
 42
0.00000001
 43
0.00000001
 40
0.0
 40
0.0
 40
0.0
 40
0.0
 40
0.2055181916619
 40
0.3570166013208073
 40
0.4668471835761996
 40
0.5770815399050558
 40
0.7093665789830426
 40
0.9240585340231936
 40
1.0
 40
1.0
 40
1.0
 40
1.0
 10
239.5255350524189
 20
77.8471779371293
 30
0.0
 10
239.5415298270703
 20
77.89317198325405
 30
0.0
 10
239.5693152023638
 20
77.97307069146893
 30
0.0
 10
239.5743051301406
 20
78.08518499446953
 30
0.0
 10
239.5490715452915
 20
78.17086467664436
 30
0.0
 10
239.4970028972263
 20
78.23821154368757
 30
0.0
 10
239.4032848650123
 20
78.29539789010128
 30
0.0
 10
239.304271763393
 20
78.31828289596199
 30
0.0
 10
239.235892531929
 20
78.32322213167026
 30
0.0
 10
239.2180252850667
 20
78.32451273616847
 30
0.0
  0
SPLINE
  5
94
330
1F
100
AcDbEntity
  8
0
  6
Continuous
 62
     7
370
    15
100
AcDbSpline
210
0.0
220
0.0
230
1.0
 70
     8
 71
     3
 72
    11
 73
     7
 74
     0
 42
0.00000001
 43
0.00000001
 40
0.0
 40
0.0
 40
0.0
 40
0.0
 40
0.3241878797140335
 40
0.6482205889188991
 40
0.9887961381644897
 40
1.0
 40
1.0
 40
1.0
 40
1.0
 10
249.9741885027204
 20
78.63735292989041
 30
0.0
 10
249.9486526957112
 20
78.56905431160833
 30
0.0
 10
249.8975933042479
 20
78.43248976575238
 30
0.0
 10
249.8114328730729
 20
78.20204322446303
 30
0.0
 10
249.7563019639331
 20
78.05458891028026
 30
0.0
 10
249.7304023128711
 20
77.9853171465791
 30
0.0
 10
249.7295774319857
 20
77.9831109024239
 30
0.0
  0
SPLINE
  5
95
330
1F
100
AcDbEntity
  8
0
  6
Continuous
 62
     7
370
    15
100
AcDbSpline
210
0.0
220
0.0
230
1.0
 70
     8
 71
     3
 72
    11
 73
     7
 74
     0
 42
0.00000001
 43
0.00000001
 40
0.0
 40
0.0
 40
0.0
 40
0.0
 40
0.3241878797140441
 40
0.6482205889189034
 40
0.9887961381647059
 40
1.0
 40
1.0
 40
1.0
 40
1.0
 10
246.8660348868837
 20
70.32421846254702
 30
0.0
 10
246.8915706938928
 20
70.39251708082911
 30
0.0
 10
246.9426300853562
 20
70.52908162668508
 30
0.0
 10
247.028790516531
 20
70.75952816797437
 30
0.0
 10
247.0839214256714
 20
70.90698248215729
 30
0.0
 10
247.109821076733
 20
70.97625424585836
 30
0.0
 10
247.1106459576184
 20
70.97846049001349
 30
0.0
  0
ARC
  5
96
330
1F
100
AcDbEntity
  8
0
  6
Continuous
 62
     7
370
    15
100
AcDbCircle
 10
248.3110682957
 20
74.5215553525
 30
0.0
 40
1.675000000000024
100
AcDbArc
 50
218.3424940153
 51
276.9424271425
  0
ARC
  5
97
330
1F
100
AcDbEntity
  8
0
  6
Continuous
 62
     7
370
    15
100
AcDbCircle
 10
248.3110682957
 20
74.5215553525
 30
0.0
 40
1.675000000000024
100
AcDbArc
 50
276.9424271425
 51
337.0492688773
  0
ARC
  5
98
330
1F
100
AcDbEntity
  8
0
  6
Continuous
 62
     7
370
    15
100
AcDbCircle
 10
248.3110682957
 20
74.5215553525
 30
0.0
 40
1.675000000000022
100
AcDbArc
 50
337.0492688773
 51
35.6492020045
  0
LINE
  5
99
330
1F
100
AcDbEntity
  8
0
  6
Continuous
 62
     7
370
    15
100
AcDbLine
 10
249.620920249
 20
75.5655442703
 30
0.0
 11
249.6721742518
 21
75.4977805194
 31
0.0
  0
ARC
  5
9A
330
1F
100
AcDbEntity
  8
0
  6
Continuous
 62
     7
370
    15
100
AcDbCircle
 10
248.3110682957
 20
74.5215553525
 30
0.0
 40
1.675000000000005
100
AcDbArc
 50
38.5558327764
 51
94.9995509427
  0
LINE
  5
9B
330
1F
100
AcDbEntity
  8
0
  6
Continuous
 62
     7
370
    15
100
AcDbLine
 10
248.0461927093
 20
76.1754797534
 30
0.0
 11
248.1650955045
 21
76.190182616
 31
0.0
  0
ARC
  5
9C
330
1F
100
AcDbEntity
  8
0
  6
Continuous
 62
     7
370
    15
100
AcDbCircle
 10
248.3110682957
 20
74.5215553525
 30
0.0
 40
1.674999999999991
100
AcDbArc
 50
99.0986428429
 51
154.8930531769
  0
LINE
  5
9D
330
1F
100
AcDbEntity
  8
0
  6
Continuous
 62
     7
370
    15
100
AcDbLine
 10
246.7474033891
 20
75.1220360432
 30
0.0
 11
246.7943267172
 21
75.2322732881
 31
0.0
  0
ARC
  5
9E
330
1F
100
AcDbEntity
  8
0
  6
Continuous
 62
     7
370
    15
100
AcDbCircle
 10
248.3110682957
 20
74.5215553525
 30
0.0
 40
1.674999999999996
100
AcDbArc
 50
158.9921450772
 51
215.4358632435
  0
LINE
  5
9F
330
1F
100
AcDbEntity
  8
0
  6
Continuous
 62
     7
370
    15
100
AcDbLine
 10
246.9973381764
 20
73.4824508469
 30
0.0
 11
246.9463368443
 21
73.55040497
 31
0.0
  0
CIRCLE
  5
A0
330
1F
100
AcDbEntity
  8
0
  6
Continuous
 62
     7
370
    15
100
AcDbCircle
 10
248.3110682957
 20
74.5215553525
 30
0.0
 40
1.799999999999979
  0
SPLINE
  5
A1
330
1F
100
AcDbEntity
  8
0
  6
Continuous
 62
     7
370
    15
100
AcDbSpline
210
0.0
220
0.0
230
1.0
 70
     8
 71
     3
 72
    11
 73
     7
 74
     0
 42
0.00000001
 43
0.00000001
 40
0.0
 40
0.0
 40
0.0
 40
0.0
 40
0.265759632262499
 40
0.5530029385954769
 40
0.8418208483438048
 40
1.0
 40
1.0
 40
1.0
 40
1.0
 10
246.7474033890904
 20
75.12203604316215
 30
0.0
 10
246.7428118523733
 20
75.0875619457426
 30
0.0
 10
246.7332576048919
 20
75.01582690827233
 30
0.0
 10
246.7634024449253
 20
74.90835841357331
 30
0.0
 10
246.815838370019
 20
74.8272781006758
 30
0.0
 10
246.8603167650279
 20
74.79080560794856
 30
0.0
 10
246.8760563646741
 20
74.77789906234342
 30
0.0
  0
SPLINE
  5
A2
330
1F
100
AcDbEntity
  8
0
  6
Continuous
 62
     7
370
    15
100
AcDbSpline
210
0.0
220
0.0
230
1.0
 70
     8
 71
     3
 72
    12
 73
     8
 74
     0
 42
0.00000001
 43
0.00000001
 40
0.0
 40
0.0
 40
0.0
 40
0.0
 40
0.2057904614204243
 40
0.4120344203360496
 40
0.6141302471427816
 40
0.813263324211302
 40
1.0
 40
1.0
 40
1.0
 40
1.0
 10
246.8760563646741
 20
74.77789906234342
 30
0.0
 10
246.9249381656544
 20
74.73422156780697
 30
0.0
 10
247.0228094877402
 20
74.64677032726435
 30
0.0
 10
247.1050264504519
 20
74.4629214669239
 30
0.0
 10
247.1247023043829
 20
74.26758107179386
 30
0.0
 10
247.0837981730849
 20
74.07978622913429
 30
0.0
 10
247.013906968304
 20
73.97895154347425
 30
0.0
 10
246.9800840237714
 20
73.93015390161473
 30
0.0
  0
SPLINE
  5
A3
330
1F
100
AcDbEntity
  8
0
  6
Continuous
 62
     7
370
    15
100
AcDbSpline
210
0.0
220
0.0
230
1.0
 70
     8
 71
     3
 72
    11
 73
     7
 74
     0
 42
0.00000001
 43
0.00000001
 40
0.0
 40
0.0
 40
0.0
 40
0.0
 40
0.2802371411013087
 40
0.5612869875923949
 40
0.8399906057824278
 40
1.0
 40
1.0
 40
1.0
 40
1.0
 10
246.9800840237714
 20
73.93015390161473
 30
0.0
 10
246.9588046172947
 20
73.89881243397572
 30
0.0
 10
246.91618409272
 20
73.8360386064642
 30
0.0
 10
246.8967904492012
 20
73.7216651769723
 30
0.0
 10
246.9103354551184
 20
73.6232721402142
 30
0.0
 10
246.9367154230467
 20
73.56987882240254
 30
0.0
 10
246.9463368442681
 20
73.55040497002824
 30
0.0
  0
SPLINE
  5
A4
330
1F
100
AcDbEntity
  8
0
  6
Continuous
 62
     7
370
    15
100
AcDbSpline
210
0.0
220
0.0
230
1.0
 70
     8
 71
     3
 72
    11
 73
     7
 74
     0
 42
0.00000001
 43
0.00000001
 40
0.0
 40
0.0
 40
0.0
 40
0.0
 40
0.2669010467950181
 40
0.5546143410792342
 40
0.8439070439786011
 40
1.0
 40
1.0
 40
1.0
 40
1.0
 10
248.046192709258
 20
76.17547975338127
 30
0.0
 10
248.0139822354948
 20
76.16211567742425
 30
0.0
 10
247.9470495992366
 20
76.13434542972375
 30
0.0
 10
247.8691976546084
 20
76.05422417280327
 30
0.0
 10
247.8255803248175
 20
75.96843011674181
 30
0.0
 10
247.8163257645085
 20
75.91196782166551
 30
0.0
 10
247.8130823469301
 20
75.89217965299486
 30
0.0
  0
SPLINE
  5
A5
330
1F
100
AcDbEntity
  8
0
  6
Continuous
 62
     7
370
    15
100
AcDbSpline
210
0.0
220
0.0
230
1.0
 70
     8
 71
     3
 72
    12
 73
     8
 74
     0
 42
0.00000001
 43
0.00000001
 40
0.0
 40
0.0
 40
0.0
 40
0.0
 40
0.2058401281338015
 40
0.4120619935509827
 40
0.614138733096946
 40
0.8132772113524565
 40
1.0
 40
1.0
 40
1.0
 40
1.0
 10
247.8130823469301
 20
75.89217965299486
 30
0.0
 10
247.7996922779688
 20
75.82799095818088
 30
0.0
 10
247.7728873077232
 20
75.69949452850858
 30
0.0
 10
247.6547604616394
 20
75.5363711348324
 30
0.0
 10
247.4954339561559
 20
75.42167677881157
 30
0.0
 10
247.3123586672831
 20
75.36321311075645
 30
0.0
 10
247.1900930811923
 20
75.37332379740697
 30
0.0
 10
247.1309273313524
 20
75.37821647715603
 30
0.0
  0
SPLINE
  5
A6
330
1F
100
AcDbEntity
  8
0
  6
Continuous
 62
     7
370
    15
100
AcDbSpline
210
0.0
220
0.0
230
1.0
 70
     8
 71
     3
 72
    11
 73
     7
 74
     0
 42
0.00000001
 43
0.00000001
 40
0.0
 40
0.0
 40
0.0
 40
0.0
 40
0.2928993220619656
 40
0.586434471907943
 40
0.8775178868032923
 40
0.9999999999999999
 40
0.9999999999999999
 40
0.9999999999999999
 40
0.9999999999999999
 10
247.1309273313524
 20
75.37821647715603
 30
0.0
 10
247.0931207708293
 20
75.3809716692963
 30
0.0
 10
247.0174255790518
 20
75.38648803456613
 30
0.0
 10
246.9085919500996
 20
75.34608771790086
 30
0.0
 10
246.835031770329
 20
75.28866592766411
 30
0.0
 10
246.8036274593861
 20
75.24515850413054
 30
0.0
 10
246.7943267171663
 20
75.23227328809548
 30
0.0
  0
SPLINE
  5
A7
330
1F
100
AcDbEntity
  8
0
  6
Continuous
 62
     7
370
    15
100
AcDbSpline
210
0.0
220
0.0
230
1.0
 70
     8
 71
     3
 72
    11
 73
     7
 74
     0
 42
0.00000001
 43
0.00000001
 40
0.0
 40
0.0
 40
0.0
 40
0.0
 40
0.2431090893443259
 40
0.5182793655622576
 40
0.7947794085751986
 40
1.0
 40
1.0
 40
1.0
 40
1.0
 10
249.620920249031
 20
75.56554427028472
 30
0.0
 10
249.5957721720107
 20
75.58715553117489
 30
0.0
 10
249.5421594936928
 20
75.63322814250077
 30
0.0
 10
249.4376795067642
 20
75.66719831670437
 30
0.0
 10
249.3336530196777
 20
75.6688595151781
 30
0.0
 10
249.2726001306123
 20
75.6471010802783
 30
0.0
 10
249.2465906365062
 20
75.63783164368084
 30
0.0
  0
SPLINE
  5
A8
330
1F
100
AcDbEntity
  8
0
  6
Continuous
 62
     7
370
    15
100
AcDbSpline
210
0.0
220
0.0
230
1.0
 70
     8
 71
     3
 72
    12
 73
     8
 74
     0
 42
0.00000001
 43
0.00000001
 40
0.0
 40
0.0
 40
0.0
 40
0.0
 40
0.2058179564998934
 40
0.4120215045907414
 40
0.6140779969167979
 40
0.8132130006453742
 40
1.0
 40
1.0
 40
1.0
 40
1.0
 10
249.2465906365062
 20
75.63783164368084
 30
0.0
 10
249.1843122921542
 20
75.61733469633899
 30
0.0
 10
249.0596389274989
 20
75.57630240145602
 30
0.0
 10
248.8593210940435
 20
75.59703187614694
 30
0.0
 10
248.6803373940963
 20
75.67764823837186
 30
0.0
 10
248.5381504731645
 20
75.80695676234377
 30
0.0
 10
248.4857634047392
 20
75.91791137867635
 30
0.0
 10
248.4604079618312
 20
75.97161362857072
 30
0.0
  0
SPLINE
  5
A9
330
1F
100
AcDbEntity
  8
0
  6
Continuous
 62
     7
370
    15
100
AcDbSpline
210
0.0
220
0.0
230
1.0
 70
     8
 71
     3
 72
    11
 73
     7
 74
     0
 42
0.00000001
 43
0.00000001
 40
0.0
 40
0.0
 40
0.0
 40
0.0
 40
0.2908641666076355
 40
0.5839560789892043
 40
0.874598805361763
 40
1.0
 40
1.0
 40
1.0
 40
1.0
 10
248.4604079618312
 20
75.97161362857075
 30
0.0
 10
248.4439981198574
 20
76.00555487145377
 30
0.0
 10
248.4110527519642
 20
76.07369731519702
 30
0.0
 10
248.3219449395338
 20
76.14777697323358
 30
0.0
 10
248.2351087195633
 20
76.18310106679507
 30
0.0
 10
248.1813108891482
 20
76.18854249639907
 30
0.0
 10
248.1650955045162
 20
76.19018261595957
 30
0.0
  0
SPLINE
  5
AA
330
1F
100
AcDbEntity
  8
0
  6
Continuous
 62
     7
370
    15
100
AcDbSpline
210
0.0
220
0.0
230
1.0
 70
     8
 71
     3
 72
    12
 73
     8
 74
     0
 42
0.00000001
 43
0.00000001
 40
0.0
 40
0.0
 40
0.0
 40
0.0
 40
0.2058585741213969
 40
0.4121026961456953
 40
0.6141937841967359
 40
0.8133180967416261
 40
0.9999999999999999
 40
0.9999999999999999
 40
0.9999999999999999
 40
0.9999999999999999
 10
247.3725386719942
 20
73.40927046237795
 30
0.0
 10
247.4348268656953
 20
73.42976956863173
 30
0.0
 10
247.5595199112574
 20
73.47080617345529
 30
0.0
 10
247.7598655543761
 20
73.45005882698027
 30
0.0
 10
247.9388614300777
 20
73.36941025705207
 30
0.0
 10
248.0810138897201
 20
73.24009026105266
 30
0.0
 10
248.1333818234938
 20
73.12916325817335
 30
0.0
 10
248.1587213466692
 20
73.07548847748808
 30
0.0
  0
SPLINE
  5
AB
330
1F
100
AcDbEntity
  8
0
  6
Continuous
 62
     7
370
    15
100
AcDbSpline
210
0.0
220
0.0
230
1.0
 70
     8
 71
     3
 72
    11
 73
     7
 74
     0
 42
0.00000001
 43
0.00000001
 40
0.0
 40
0.0
 40
0.0
 40
0.0
 40
0.2524782265335821
 40
0.5068902417933516
 40
0.7591786113117246
 40
1.0
 40
1.0
 40
1.0
 40
1.0
 10
248.1587213466692
 20
73.07548847748808
 30
0.0
 10
248.1751336521644
 20
73.04153522215145
 30
0.0
 10
248.2080839687722
 20
72.97336865569719
 30
0.0
 10
248.297134250987
 20
72.89949519758933
 30
0.0
 10
248.4027716619901
 20
72.85583439761135
 30
0.0
 10
248.4771865715144
 20
72.85785127939357
 30
0.0
 10
248.5135287885411
 20
72.85883626957786
 30
0.0
  0
SPLINE
  5
AC
330
1F
100
AcDbEntity
  8
0
  6
Continuous
 62
     7
370
    15
100
AcDbSpline
210
0.0
220
0.0
230
1.0
 70
     8
 71
     3
 72
    11
 73
     7
 74
     0
 42
0.00000001
 43
0.00000001
 40
0.0
 40
0.0
 40
0.0
 40
0.0
 40
0.2423611237745129
 40
0.51668479284583
 40
0.7923341374633408
 40
1.0
 40
1.0
 40
1.0
 40
1.0
 10
246.9973381764252
 20
73.4824508468759
 30
0.0
 10
247.0224057465531
 20
73.46074593045212
 30
0.0
 10
247.0758467938505
 20
73.41447365678259
 30
0.0
 10
247.1801971711467
 20
73.3801176480225
 30
0.0
 10
247.284649491684
 20
73.37805016107077
 30
0.0
 10
247.346124659748
 20
73.39988758477969
 30
0.0
 10
247.3725386719942
 20
73.40927046237795
 30
0.0
  0
SPLINE
  5
AD
330
1F
100
AcDbEntity
  8
0
  6
Continuous
 62
     7
370
    15
100
AcDbSpline
210
0.0
220
0.0
230
1.0
 70
     8
 71
     3
 72
    12
 73
     8
 74
     0
 42
0.00000001
 43
0.00000001
 40
0.0
 40
0.0
 40
0.0
 40
0.0
 40
0.0091735205190014
 40
0.2576775215525119
 40
0.5061895192299325
 40
0.7560357430218884
 40
1.0
 40
1.0
 40
1.0
 40
1.0
 10
249.8534761405687
 20
73.86840679354701
 30
0.0
 10
249.8540058954092
 20
73.86967193911963
 30
0.0
 10
249.8688863237067
 20
73.90520895840073
 30
0.0
 10
249.8858587081246
 20
73.98082507489846
 30
0.0
 10
249.8727105415841
 20
74.09304459925012
 30
0.0
 10
249.8253064752476
 20
74.19609991386673
 30
0.0
 10
249.7702655832126
 20
74.24502960723973
 30
0.0
 10
249.7430729438263
 20
74.2692030437154
 30
0.0
  0
SPLINE
  5
AE
330
1F
100
AcDbEntity
  8
0
  6
Continuous
 62
     7
370
    15
100
AcDbSpline
210
0.0
220
0.0
230
1.0
 70
     8
 71
     3
 72
    12
 73
     8
 74
     0
 42
0.00000001
 43
0.00000001
 40
0.0
 40
0.0
 40
0.0
 40
0.0
 40
0.2057532787804154
 40
0.411960408804468
 40
0.6140154573249065
 40
0.8131414684041107
 40
0.9999999999999999
 40
0.9999999999999999
 40
0.9999999999999999
 40
0.9999999999999999
 10
249.7430729438263
 20
74.26920304371538
 30
0.0
 10
249.694197462155
 20
74.31287358089821
 30
0.0
 10
249.5963386891179
 20
74.40031098387514
 30
0.0
 10
249.5141208065884
 20
74.58412796430557
 30
0.0
 10
249.4944250609589
 20
74.77943766035776
 30
0.0
 10
249.5352995539124
 20
74.96725383927443
 30
0.0
 10
249.6052039487848
 20
75.06811865492149
 30
0.0
 10
249.639045284729
 20
75.11694820444406
 30
0.0
  0
SPLINE
  5
AF
330
1F
100
AcDbEntity
  8
0
  6
Continuous
 62
     7
370
    15
100
AcDbSpline
210
0.0
220
0.0
230
1.0
 70
     8
 71
     3
 72
    11
 73
     7
 74
     0
 42
0.00000001
 43
0.00000001
 40
0.0
 40
0.0
 40
0.0
 40
0.0
 40
0.2794069064555976
 40
0.5596240257156208
 40
0.837500739221948
 40
0.9999999999999999
 40
0.9999999999999999
 40
0.9999999999999999
 40
0.9999999999999999
 10
249.639045284729
 20
75.11694820444406
 30
0.0
 10
249.6603263682049
 20
75.14829253662381
 30
0.0
 10
249.7029502451786
 20
75.21107209200525
 30
0.0
 10
249.7223371760837
 20
75.32545202028273
 30
0.0
 10
249.7087405880429
 20
75.42426940841091
 30
0.0
 10
249.6820303584247
 20
75.47796630161072
 30
0.0
 10
249.6721742517758
 20
75.49778051937139
 30
0.0
  0
SPLINE
  5
B0
330
1F
100
AcDbEntity
  8
0
  6
Continuous
 62
     7
370
    15
100
AcDbSpline
210
0.0
220
0.0
230
1.0
 70
     8
 71
     3
 72
    12
 73
     8
 74
     0
 42
0.00000001
 43
0.00000001
 40
0.0
 40
0.0
 40
0.0
 40
0.0
 40
0.00916817714916
 40
0.2573268097002651
 40
0.5054934687429734
 40
0.7549925359453148
 40
1.0
 40
1.0
 40
1.0
 40
1.0
 10
248.5135287885411
 20
72.85883626957786
 30
0.0
 10
248.5148907352043
 20
72.85900766667379
 30
0.0
 10
248.55311702426
 20
72.86381833592303
 30
0.0
 10
248.6271328636039
 20
72.88679112421497
 30
0.0
 10
248.7178671183141
 20
72.95411897894591
 30
0.0
 10
248.7837138646157
 20
73.04675166739446
 30
0.0
 10
248.7986478109335
 20
73.11908452430302
 30
0.0
 10
248.8060469615703
 20
73.15492245306393
 30
0.0
  0
SPLINE
  5
B1
330
1F
100
AcDbEntity
  8
0
  6
Continuous
 62
     7
370
    15
100
AcDbSpline
210
0.0
220
0.0
230
1.0
 70
     8
 71
     3
 72
    12
 73
     8
 74
     0
 42
0.00000001
 43
0.00000001
 40
0.0
 40
0.0
 40
0.0
 40
0.0
 40
0.2058435564095128
 40
0.4120691620553191
 40
0.6141397217727145
 40
0.8132604579561357
 40
1.0
 40
1.0
 40
1.0
 40
1.0
 10
248.8060469615703
 20
73.15492245306393
 30
0.0
 10
248.8194372190054
 20
73.21911180479485
 30
0.0
 10
248.8462425864271
 20
73.34760964481474
 30
0.0
 10
248.9643707398152
 20
73.51073304525413
 30
0.0
 10
249.1236946924853
 20
73.62542372554334
 30
0.0
 10
249.3067663526349
 20
73.68388814792789
 30
0.0
 10
249.4290311492285
 20
73.67377833657237
 30
0.0
 10
249.488201977148
 20
73.66888562890276
 30
0.0
  0
SPLINE
  5
B2
330
1F
100
AcDbEntity
  8
0
  6
Continuous
 62
     7
370
    15
100
AcDbSpline
210
0.0
220
0.0
230
1.0
 70
     8
 71
     3
 72
    11
 73
     7
 74
     0
 42
0.00000001
 43
0.00000001
 40
0.0
 40
0.0
 40
0.0
 40
0.0
 40
0.253508622748408
 40
0.5075674742604732
 40
0.7595056251924693
 40
1.0
 40
1.0
 40
1.0
 40
1.0
 10
249.488201977148
 20
73.66888562890276
 30
0.0
 10
249.5260236508985
 20
73.66612647578849
 30
0.0
 10
249.6017490885966
 20
73.66060218094547
 30
0.0
 10
249.7103767039869
 20
73.70106543230655
 30
0.0
 10
249.8008774934467
 20
73.77088697139263
 30
0.0
 10
249.8362170131634
 20
73.83640773792105
 30
0.0
 10
249.8534761405687
 20
73.86840679354701
 30
0.0
  0
CIRCLE
  5
B3
330
1F
100
AcDbEntity
  8
0
  6
Continuous
 62
     7
370
    15
100
AcDbCircle
 10
248.3110682957
 20
74.5215553525
 30
0.0
 40
2.625000000000006
  0
LINE
  5
B4
330
1F
100
AcDbEntity
  8
0
  6
Continuous
 62
     7
370
    15
100
AcDbLine
 10
206.998916541
 20
86.5023025926
 30
0.0
 11
206.998916541
 21
133.8501397517
 31
0.0
  0
SPLINE
  5
B5
330
1F
100
AcDbEntity
  8
0
  6
Continuous
 62
     7
370
    15
100
AcDbSpline
210
0.0
220
0.0
230
1.0
 70
     8
 71
     3
 72
     8
 73
     4
 74
     0
 42
0.00000001
 43
0.00000001
 40
0.0
 40
0.0
 40
0.0
 40
0.0
 40
1.0
 40
1.0
 40
1.0
 40
1.0
 10
206.9989165410418
 20
86.50230259264578
 30
0.0
 10
206.5065774182605
 20
85.60503255843909
 30
0.0
 10
206.0124633702185
 20
84.70874814338686
 30
0.0
 10
205.5169837095527
 20
83.8132220554535
 30
0.0
  0
LINE
  5
B6
330
1F
100
AcDbEntity
  8
0
  6
Continuous
 62
     7
370
    15
100
AcDbLine
 10
205.5169837096
 20
83.8132220555
 30
0.0
 11
205.5169837096
 21
133.8501397517
 31
0.0
  0
SPLINE
  5
B7
330
1F
100
AcDbEntity
  8
0
  6
Continuous
 62
     7
370
    15
100
AcDbSpline
210
0.0
220
0.0
230
1.0
 70
    24
 71
     3
 72
     8
 73
     4
 74
     0
 42
0.00000001
 43
0.00000001
 40
0.0
 40
0.0
 40
0.0
 40
0.0
 40
1.0
 40
1.0
 40
1.0
 40
1.0
 10
205.5169837095527
 20
133.8501397517007
 30
0.0
 10
206.0236638177032
 20
133.8501397517007
 30
0.0
 10
206.5189645466768
 20
133.8501397517007
 30
0.0
 10
206.9989165410418
 20
133.8501397517007
 30
0.0
  0
LINE
  5
B8
330
1F
100
AcDbEntity
  8
0
  6
Continuous
 62
     7
370
    15
100
AcDbLine
 10
212.3008493725
 20
83.8132220555
 30
0.0
 11
212.3008493725
 21
133.8501397517
 31
0.0
  0
SPLINE
  5
B9
330
1F
100
AcDbEntity
  8
0
  6
Continuous
 62
     7
370
    15
100
AcDbSpline
210
0.0
220
0.0
230
1.0
 70
     8
 71
     3
 72
     8
 73
     4
 74
     0
 42
0.00000001
 43
0.00000001
 40
0.0
 40
0.0
 40
0.0
 40
0.0
 40
1.0
 40
1.0
 40
1.0
 40
1.0
 10
212.3008493725308
 20
83.8132220554535
 30
0.0
 10
211.805369711865
 20
84.70874814338684
 30
0.0
 10
211.3112556638229
 20
85.60503255843908
 30
0.0
 10
210.8189165410417
 20
86.50230259264578
 30
0.0
  0
LINE
  5
BA
330
1F
100
AcDbEntity
  8
0
  6
Continuous
 62
     7
370
    15
100
AcDbLine
 10
210.818916541
 20
86.5023025926
 30
0.0
 11
210.818916541
 21
133.8501397517
 31
0.0
  0
SPLINE
  5
BB
330
1F
100
AcDbEntity
  8
0
  6
Continuous
 62
     7
370
    15
100
AcDbSpline
210
0.0
220
0.0
230
1.0
 70
    24
 71
     3
 72
     8
 73
     4
 74
     0
 42
0.00000001
 43
0.00000001
 40
0.0
 40
0.0
 40
0.0
 40
0.0
 40
1.0
 40
1.0
 40
1.0
 40
1.0
 10
210.8189165410417
 20
133.8501397517007
 30
0.0
 10
211.2988685354066
 20
133.8501397517007
 30
0.0
 10
211.7941692643803
 20
133.8501397517007
 30
0.0
 10
212.3008493725308
 20
133.8501397517007
 30
0.0
  0
LINE
  5
BC
330
1F
100
AcDbEntity
  8
0
  6
Continuous
 62
     7
370
    15
100
AcDbLine
 10
216.858916541
 20
84.4398623511
 30
0.0
 11
216.858916541
 21
133.8501397517
 31
0.0
  0
SPLINE
  5
BD
330
1F
100
AcDbEntity
  8
0
  6
Continuous
 62
     7
370
    15
100
AcDbSpline
210
0.0
220
0.0
230
1.0
 70
     8
 71
     3
 72
    10
 73
     6
 74
     0
 42
0.00000001
 43
0.00000001
 40
0.0
 40
0.0
 40
0.0
 40
0.0
 40
0.5
 40
0.5
 40
1.0
 40
1.0
 40
1.0
 40
1.0
 10
216.8589165410418
 20
84.43986235110783
 30
0.0
 10
216.8589165410418
 20
84.27997508291416
 30
0.0
 10
216.7976068898059
 20
84.11884782739956
 30
0.0
 10
216.5785072522708
 20
83.88474882904472
 30
0.0
 10
216.4204590459574
 20
83.81322205545351
 30
0.0
 10
216.2589165410417
 20
83.81322205545351
 30
0.0
  0
SPLINE
  5
BE
330
1F
100
AcDbEntity
  8
0
  6
Continuous
 62
     7
370
    15
100
AcDbSpline
210
0.0
220
0.0
230
1.0
 70
    24
 71
     3
 72
    12
 73
     8
 74
     0
 42
0.00000001
 43
0.00000001
 40
0.0
 40
0.0
 40
0.0
 40
0.0
 40
0.2500000000000006
 40
0.2500000000000006
 40
0.5000000000000012
 40
0.5000000000000012
 40
1.0
 40
1.0
 40
1.0
 40
1.0
 10
216.2589165410417
 20
133.8501397517007
 30
0.0
 10
216.3491556087288
 20
133.8501397517007
 30
0.0
 10
216.4400537228353
 20
133.8501397517007
 30
0.0
 10
216.5946507593238
 20
133.8501397517007
 30
0.0
 10
216.6596291754319
 20
133.8501397517007
 30
0.0
 10
216.8114642033682
 20
133.8501397517007
 30
0.0
 10
216.8589165410418
 20
133.8501397517007
 30
0.0
 10
216.8589165410418
 20
133.8501397517007
 30
0.0
  0
LINE
  5
BF
330
1F
100
AcDbEntity
  8
0
  6
Continuous
 62
     7
370
    15
100
AcDbLine
 10
216.258916541
 20
83.8132220555
 30
0.0
 11
212.3008493725
 21
83.8132220555
 31
0.0
  0
LINE
  5
C0
330
1F
100
AcDbEntity
  8
0
  6
Continuous
 62
     7
370
    15
100
AcDbLine
 10
212.3008493725
 20
133.8501397517
 30
0.0
 11
216.258916541
 21
133.8501397517
 31
0.0
  0
LINE
  5
C1
330
1F
100
AcDbEntity
  8
0
  6
Continuous
 62
     7
370
    15
100
AcDbLine
 10
195.858916541
 20
133.8501397517
 30
0.0
 11
205.5169837096
 21
133.8501397517
 31
0.0
  0
LINE
  5
C2
330
1F
100
AcDbEntity
  8
0
  6
Continuous
 62
     7
370
    15
100
AcDbLine
 10
205.5169837096
 20
83.8132220555
 30
0.0
 11
203.858916541
 21
83.8132220555
 31
0.0
  0
SPLINE
  5
C3
330
1F
100
AcDbEntity
  8
0
  6
Continuous
 62
     7
370
    15
100
AcDbSpline
210
0.0
220
0.0
230
1.0
 70
     8
 71
     3
 72
    28
 73
    24
 74
     0
 42
0.00000001
 43
0.00000001
 40
0.0
 40
0.0
 40
0.0
 40
0.0
 40
0.1250000000000001
 40
0.1250000000000001
 40
0.1875000000000001
 40
0.1875000000000001
 40
0.2500000000000001
 40
0.2500000000000001
 40
0.3749999999999999
 40
0.3749999999999999
 40
0.4375
 40
0.4375
 40
0.4999999999999999
 40
0.4999999999999999
 40
0.6249999999999999
 40
0.6249999999999999
 40
0.7499999999999997
 40
0.7499999999999997
 40
0.8124999999999998
 40
0.8124999999999998
 40
0.8749999999999998
 40
0.8749999999999998
 40
1.0
 40
1.0
 40
1.0
 40
1.0
 10
203.8589165410417
 20
83.81322205545351
 30
0.0
 10
203.3272087835488
 20
83.81322205545352
 30
0.0
 10
202.8049702182385
 20
83.79743734150328
 30
0.0
 10
202.0350997319635
 20
83.75244192742709
 30
0.0
 10
201.7807401597722
 20
83.73388693235135
 30
0.0
 10
201.2766185790736
 20
83.69003420990485
 30
0.0
 10
201.0268957616457
 20
83.66468960295265
 30
0.0
 10
200.3013058101993
 20
83.58128752520255
 30
0.0
 10
199.8429455486178
 20
83.51542196605146
 30
0.0
 10
199.1924476052239
 20
83.40645162555968
 30
0.0
 10
198.9807655544314
 20
83.36821198979302
 30
0.0
 10
198.5766940652934
 20
83.29045325237367
 30
0.0
 10
198.3841875514726
 20
83.25095229019833
 30
0.0
 10
197.8343525804513
 20
83.13204454783232
 30
0.0
 10
197.5044238021425
 20
83.05222686640772
 30
0.0
 10
196.9199525335738
 20
82.89888370461165
 30
0.0
 10
196.6736753955604
 20
82.82754995134239
 30
0.0
 10
196.3738326028623
 20
82.73360644426776
 30
0.0
 10
196.2853757457901
 20
82.70441265090784
 30
0.0
 10
196.132014392485
 20
82.65094607664442
 30
0.0
 10
196.0669261782587
 20
82.62658674236926
 30
0.0
 10
195.9113321623179
 20
82.5629965969245
 30
0.0
 10
195.8589165410418
 20
82.53289366183525
 30
0.0
 10
195.8589165410417
 20
82.51601676883834
 30
0.0
  0
LINE
  5
C4
330
1F
100
AcDbEntity
  8
0
  6
Continuous
 62
     7
370
    15
100
AcDbLine
 10
195.858916541
 20
82.5160167688
 30
0.0
 11
195.858916541
 21
82.5001397517
 31
0.0
  0
SPLINE
  5
C5
330
1F
100
AcDbEntity
  8
0
  6
Continuous
 62
     7
370
    15
100
AcDbSpline
210
0.0
220
0.0
230
1.0
 70
     8
 71
     3
 72
    17
 73
    13
 74
     0
 42
0.00000001
 43
0.00000001
 40
0.0
 40
0.0
 40
0.0
 40
0.0
 40
0.1034796923964057
 40
0.2100239188807851
 40
0.3134862136955585
 40
0.4198361274354884
 40
0.5254127712915683
 40
0.6339610695419792
 40
0.7409508756305033
 40
0.8511696089308176
 40
0.9558996534551939
 40
1.0
 40
1.0
 40
1.0
 40
1.0
 10
203.8589165410417
 20
144.4673352248649
 30
0.0
 10
203.4236681919317
 20
144.4727834213982
 30
0.0
 10
202.5402816853668
 20
144.48384116191
 30
0.0
 10
201.2594541001381
 20
144.5701995548116
 30
0.0
 10
200.042037564264
 20
144.6980697313494
 30
0.0
 10
198.9342317120175
 20
144.8570150299425
 30
0.0
 10
197.9459929080693
 20
145.0315087176581
 30
0.0
 10
197.1212693505377
 20
145.200674568298
 30
0.0
 10
196.4723158498784
 20
145.3485583508263
 30
0.0
 10
196.0552810344167
 20
145.4503489350571
 30
0.0
 10
195.8566843214522
 20
145.5007004576603
 30
0.0
 10
195.8799970428855
 20
145.4947947734379
 30
0.0
 10
195.886904900123
 20
145.4930448437433
 30
0.0
  0
LINE
  5
C6
330
1F
100
AcDbEntity
  8
0
  6
Continuous
 62
     7
370
    15
100
AcDbLine
 10
205.5169837096
 20
144.4673352249
 30
0.0
 11
203.858916541
 21
144.4673352249
 31
0.0
  0
LINE
  5
C7
330
1F
100
AcDbEntity
  8
0
  6
Continuous
 62
     7
370
    15
100
AcDbLine
 10
205.5169837096
 20
138.4588294141
 30
0.0
 11
205.5169837096
 21
144.4673352249
 31
0.0
  0
LINE
  5
C8
330
1F
100
AcDbEntity
  8
0
  6
Continuous
 62
     7
370
    15
100
AcDbLine
 10
203.1045368867
 20
138.4588294141
 30
0.0
 11
205.5169837096
 21
138.4588294141
 31
0.0
  0
SPLINE
  5
C9
330
1F
100
AcDbEntity
  8
0
  6
Continuous
 62
     7
370
    15
100
AcDbSpline
210
0.0
220
0.0
230
1.0
 70
     8
 71
     3
 72
    20
 73
    16
 74
     0
 42
0.00000001
 43
0.00000001
 40
0.0
 40
0.0
 40
0.0
 40
0.0
 40
0.2500000000000005
 40
0.2500000000000005
 40
0.3750000000000004
 40
0.3750000000000004
 40
0.5000000000000003
 40
0.5000000000000003
 40
0.6250000000000002
 40
0.6250000000000002
 40
0.7500000000000001
 40
0.7500000000000001
 40
0.8750000000000001
 40
0.8750000000000001
 40
1.0
 40
1.0
 40
1.0
 40
1.0
 10
195.8589165410417
 20
133.8501397517007
 30
0.0
 10
196.1072902753298
 20
134.5040021799981
 30
0.0
 10
196.4268603676751
 20
135.1077879619952
 30
0.0
 10
197.0491666008798
 20
135.9346266981638
 30
0.0
 10
197.2805908613105
 20
136.1970553361167
 30
0.0
 10
197.8018052009602
 20
136.6937179902216
 30
0.0
 10
198.0884256835953
 20
136.9243048692432
 30
0.0
 10
198.7079104249029
 20
137.3408590938259
 30
0.0
 10
199.0422108043899
 20
137.5283568957933
 30
0.0
 10
199.7674712770147
 20
137.8597538734298
 30
0.0
 10
200.1493863344051
 20
137.999257860925
 30
0.0
 10
200.9441745105768
 20
138.224711368396
 30
0.0
 10
201.3583327047832
 20
138.3113374799396
 30
0.0
 10
202.2238790453646
 20
138.4293182687937
 30
0.0
 10
202.6617666603764
 20
138.4588294140681
 30
0.0
 10
203.104536886731
 20
138.4588294140681
 30
0.0
  0
LINE
  5
CA
330
1F
100
AcDbEntity
  8
0
  6
Continuous
 62
     7
370
    15
100
AcDbLine
 10
190.908916541
 20
82.8001397517
 30
0.0
 11
190.908916541
 21
145.2001397473
 31
0.0
  0
SPLINE
  5
CB
330
1F
100
AcDbEntity
  8
0
  6
Continuous
 62
     7
370
    15
100
AcDbSpline
210
0.0
220
0.0
230
1.0
 70
     8
 71
     3
 72
    10
 73
     6
 74
     0
 42
0.00000001
 43
0.00000001
 40
0.0
 40
0.0
 40
0.0
 40
0.0
 40
0.5
 40
0.5
 40
1.0
 40
1.0
 40
1.0
 40
1.0
 10
207.3932140727327
 20
140.4001397517007
 30
0.0
 10
207.2716738090642
 20
140.4748659189124
 30
0.0
 10
207.1703394487153
 20
140.5838109348292
 30
0.0
 10
207.0347005058268
 20
140.8342414155908
 30
0.0
 10
206.9989165410418
 20
140.9766607776897
 30
0.0
 10
206.9989165410418
 20
141.1197936027365
 30
0.0
  0
SPLINE
  5
CC
330
1F
100
AcDbEntity
  8
0
  6
Continuous
 62
     7
370
    15
100
AcDbSpline
210
0.0
220
0.0
230
1.0
 70
    24
 71
     3
 72
    12
 73
     8
 74
     0
 42
0.00000001
 43
0.00000001
 40
0.0
 40
0.0
 40
0.0
 40
0.0
 40
0.2500000000000037
 40
0.2500000000000037
 40
0.5000000000000074
 40
0.5000000000000074
 40
1.0
 40
1.0
 40
1.0
 40
1.0
 10
207.7989165410418
 20
140.4001397517007
 30
0.0
 10
207.7495731792321
 20
140.4001397517006
 30
0.0
 10
207.7008824809305
 20
140.4001397517006
 30
0.0
 10
207.6180313833601
 20
140.4001397517006
 30
0.0
 10
207.5818314157395
 20
140.4001397517007
 30
0.0
 10
207.4860814991901
 20
140.4001397517006
 30
0.0
 10
207.436199529378
 20
140.4001397517007
 30
0.0
 10
207.3932140727327
 20
140.4001397517007
 30
0.0
  0
SPLINE
  5
CD
330
1F
100
AcDbEntity
  8
0
  6
Continuous
 62
     7
370
    15
100
AcDbSpline
210
0.0
220
0.0
230
1.0
 70
    24
 71
     3
 72
    14
 73
    10
 74
     0
 42
0.00000001
 43
0.00000001
 40
0.0
 40
0.0
 40
0.0
 40
0.0
 40
0.1250000000000013
 40
0.1250000000000013
 40
0.2500000000000026
 40
0.2500000000000026
 40
0.5000000000000017
 40
0.5000000000000017
 40
1.0
 40
1.0
 40
1.0
 40
1.0
 10
207.7989165410417
 20
87.60013975170064
 30
0.0
 10
207.7295698193106
 20
87.60013975170064
 30
0.0
 10
207.6643717659266
 20
87.60013975170064
 30
0.0
 10
207.5599925732997
 20
87.60013975170064
 30
0.0
 10
207.5170902022907
 20
87.60013975170064
 30
0.0
 10
207.4047645446859
 20
87.60013975170064
 30
0.0
 10
207.3495408503322
 20
87.60013975170065
 30
0.0
 10
207.2054834715646
 20
87.60013975170064
 30
0.0
 10
207.1434027747331
 20
87.60013975170064
 30
0.0
 10
207.096591343374
 20
87.60013975170064
 30
0.0
  0
SPLINE
  5
CE
330
1F
100
AcDbEntity
  8
0
  6
Continuous
 62
     7
370
    15
100
AcDbSpline
210
0.0
220
0.0
230
1.0
 70
     8
 71
     3
 72
     9
 73
     5
 74
     0
 42
0.00000001
 43
0.00000001
 40
0.0
 40
0.0
 40
0.0
 40
0.0
 40
0.5
 40
1.0
 40
1.0
 40
1.0
 40
1.0
 10
206.9989165410418
 20
134.136006383162
 30
0.0
 10
206.9989165410418
 20
134.0877743310393
 30
0.0
 10
207.0033225157469
 20
133.9919043175997
 30
0.0
 10
207.0163416958407
 20
133.8971956876164
 30
0.0
 10
207.0250641642018
 20
133.8501397517007
 30
0.0
  0
SPLINE
  5
CF
330
1F
100
AcDbEntity
  8
0
  6
Continuous
 62
     7
370
    15
100
AcDbSpline
210
0.0
220
0.0
230
1.0
 70
    24
 71
     3
 72
    14
 73
    10
 74
     0
 42
0.00000001
 43
0.00000001
 40
0.0
 40
0.0
 40
0.0
 40
0.0
 40
0.5
 40
0.5
 40
0.75
 40
0.75
 40
0.875
 40
0.875
 40
1.0
 40
1.0
 40
1.0
 40
1.0
 10
210.7212417387095
 20
87.60013975170064
 30
0.0
 10
210.6744570336612
 20
87.60013975170065
 30
0.0
 10
210.6124058368816
 20
87.60013975170065
 30
0.0
 10
210.4690141983311
 20
87.60013975170064
 30
0.0
 10
210.4128705447798
 20
87.60013975170065
 30
0.0
 10
210.2999195226437
 20
87.60013975170064
 30
0.0
 10
210.2569187606055
 20
87.60013975170064
 30
0.0
 10
210.1528560502991
 20
87.60013975170064
 30
0.0
 10
210.0875238119422
 20
87.60013975170064
 30
0.0
 10
210.0189165410417
 20
87.60013975170064
 30
0.0
  0
SPLINE
  5
D0
330
1F
100
AcDbEntity
  8
0
  6
Continuous
 62
     7
370
    15
100
AcDbSpline
210
0.0
220
0.0
230
1.0
 70
    24
 71
     3
 72
    12
 73
     8
 74
     0
 42
0.00000001
 43
0.00000001
 40
0.0
 40
0.0
 40
0.0
 40
0.0
 40
0.5
 40
0.5
 40
0.75
 40
0.75
 40
1.0
 40
1.0
 40
1.0
 40
1.0
 10
210.4246190093508
 20
140.4001397517007
 30
0.0
 10
210.38153345974
 20
140.4001397517006
 30
0.0
 10
210.3323812579929
 20
140.4001397517006
 30
0.0
 10
210.2359086637034
 20
140.4001397517007
 30
0.0
 10
210.1998070785691
 20
140.4001397517007
 30
0.0
 10
210.1167013207066
 20
140.4001397517007
 30
0.0
 10
210.0687047237425
 20
140.4001397517007
 30
0.0
 10
210.0189165410417
 20
140.4001397517007
 30
0.0
  0
SPLINE
  5
D1
330
1F
100
AcDbEntity
  8
0
  6
Continuous
 62
     7
370
    15
100
AcDbSpline
210
0.0
220
0.0
230
1.0
 70
     8
 71
     3
 72
    10
 73
     6
 74
     0
 42
0.00000001
 43
0.00000001
 40
0.0
 40
0.0
 40
0.0
 40
0.0
 40
0.5
 40
0.5
 40
1.0
 40
1.0
 40
1.0
 40
1.0
 10
210.8189165410417
 20
141.1197936027365
 30
0.0
 10
210.8189165410417
 20
140.9760235449184
 30
0.0
 10
210.7828674823229
 20
140.8336041824232
 30
0.0
 10
210.6473586215488
 20
140.5837098890661
 30
0.0
 10
210.5474826284527
 20
140.4756795528178
 30
0.0
 10
210.4246190093507
 20
140.4001397517006
 30
0.0
  0
SPLINE
  5
D2
330
1F
100
AcDbEntity
  8
0
  6
Continuous
 62
     7
370
    15
100
AcDbSpline
210
0.0
220
0.0
230
1.0
 70
     8
 71
     3
 72
    10
 73
     6
 74
     0
 42
0.00000001
 43
0.00000001
 40
0.0
 40
0.0
 40
0.0
 40
0.0
 40
0.5
 40
0.5
 40
1.0
 40
1.0
 40
1.0
 40
1.0
 10
210.7927689178816
 20
133.8501397517007
 30
0.0
 10
210.8014585607933
 20
133.8970186010188
 30
0.0
 10
210.8079976255438
 20
133.9444410664201
 30
0.0
 10
210.8167562599368
 20
134.0403778650068
 30
0.0
 10
210.8189165410417
 20
134.0882931530173
 30
0.0
 10
210.8189165410417
 20
134.1360063831618
 30
0.0
  0
LINE
  5
D3
330
1F
100
AcDbEntity
  8
0
  6
Continuous
 62
     7
370
    15
100
AcDbLine
 10
210.018916541
 20
140.4001397517
 30
0.0
 11
207.798916541
 21
140.4001397517
 31
0.0
  0
LINE
  5
D4
330
1F
100
AcDbEntity
  8
0
  6
Continuous
 62
     7
370
    15
100
AcDbLine
 10
210.018916541
 20
87.6001397517
 30
0.0
 11
207.798916541
 21
87.6001397517
 31
0.0
  0
LINE
  5
D5
330
1F
100
AcDbEntity
  8
0
  6
Continuous
 62
     7
370
    15
100
AcDbLine
 10
217.0589154981
 20
140.4001397517
 30
0.0
 11
217.0156938771
 21
140.4001397517
 31
0.0
  0
SPLINE
  5
D6
330
1F
100
AcDbEntity
  8
0
  6
Continuous
 62
     7
370
    15
100
AcDbSpline
210
0.0
220
0.0
230
1.0
 70
    24
 71
     3
 72
    10
 73
     6
 74
     0
 42
0.00000001
 43
0.00000001
 40
0.0
 40
0.0
 40
0.0
 40
0.0
 40
0.5
 40
0.5
 40
1.0
 40
1.0
 40
1.0
 40
1.0
 10
217.0589165410171
 20
87.60013975170064
 30
0.0
 10
217.0589154231436
 20
87.60013975170064
 30
0.0
 10
217.0157105420446
 20
87.60013975170064
 30
0.0
 10
216.9147834956299
 20
87.60013975170065
 30
0.0
 10
216.8589165410418
 20
87.60013975170064
 30
0.0
 10
216.8589165410418
 20
87.60013975170064
 30
0.0
  0
ELLIPSE
  5
D7
330
1F
100
AcDbEntity
  8
0
  6
Continuous
 62
     7
370
    15
100
AcDbEllipse
 10
229.3285317833
 20
114.0001397517
 30
0.0
 11
0.0
 21
25.99999999999999
 31
0.0
210
0.0
220
0.0
230
1.0
 40
0.2679491924
 41
0.1601874882047502
 42
2.981405165385042
  0
SPLINE
  5
D8
330
1F
100
AcDbEntity
  8
0
  6
Continuous
 62
     7
370
    15
100
AcDbSpline
210
0.0
220
0.0
230
1.0
 70
     8
 71
     3
 72
    18
 73
    14
 74
     0
 42
0.00000001
 43
0.00000001
 40
0.0
 40
0.0
 40
0.0
 40
0.0
 40
0.2500000000000003
 40
0.2500000000000003
 40
0.3750000000000005
 40
0.3750000000000005
 40
0.5000000000000007
 40
0.5000000000000007
 40
0.6250000000000009
 40
0.6250000000000009
 40
0.750000000000001
 40
0.750000000000001
 40
1.0
 40
1.0
 40
1.0
 40
1.0
 10
232.1415895530628
 20
88.00013976183885
 30
0.0
 10
231.6647411623485
 20
88.00013539064852
 30
0.0
 10
231.2172300357218
 20
88.00138248688405
 30
0.0
 10
230.5885782625126
 20
88.01111127766556
 30
0.0
 10
230.3848723597444
 20
88.01574582745904
 30
0.0
 10
230.0001788102979
 20
88.02887215843916
 30
0.0
 10
229.819339821293
 20
88.03732744979604
 30
0.0
 10
229.480083202795
 20
88.05922814977555
 30
0.0
 10
229.3216663839417
 20
88.07267019254886
 30
0.0
 10
229.0276856695983
 20
88.10595305290408
 30
0.0
 10
228.8919587131744
 20
88.12591314723488
 30
0.0
 10
228.5305623063119
 20
88.1956620799903
 30
0.0
 10
228.3456791080062
 20
88.25560976831781
 30
0.0
 10
228.2173235111811
 20
88.33300746246483
 30
0.0
  0
LINE
  5
D9
330
1F
100
AcDbEntity
  8
0
  6
Continuous
 62
     7
370
    15
100
AcDbLine
 10
230.2150212763
 20
139.978727725
 30
0.0
 11
230.2000284138
 21
140.0001397517
 31
0.0
  0
SPLINE
  5
DA
330
1F
100
AcDbEntity
  8
0
  6
Continuous
 62
     7
370
    15
100
AcDbSpline
210
0.0
220
0.0
230
1.0
 70
     8
 71
     3
 72
    12
 73
     8
 74
     0
 42
0.00000001
 43
0.00000001
 40
0.0
 40
0.0
 40
0.0
 40
0.0
 40
0.5000000000000016
 40
0.5000000000000016
 40
0.7500000000000008
 40
0.7500000000000008
 40
1.0
 40
1.0
 40
1.0
 40
1.0
 10
228.2173235111811
 20
139.6672720409365
 30
0.0
 10
228.379054736864
 20
139.7647950492747
 30
0.0
 10
228.6296272127347
 20
139.834611211255
 30
0.0
 10
229.1404829622349
 20
139.9095625682668
 30
0.0
 10
229.3313540758766
 20
139.9291315387549
 30
0.0
 10
229.7465137941682
 20
139.9596097957338
 30
0.0
 10
229.9717353306019
 20
139.9706499278022
 30
0.0
 10
230.2150212763272
 20
139.9787277249783
 30
0.0
  0
ELLIPSE
  5
DB
330
1F
100
AcDbEntity
  8
0
  6
Continuous
 62
     7
370
    15
100
AcDbEllipse
 10
224.7561589747
 20
105.5947084542
 30
0.0
 11
-0.3488928401809517
 21
3.192138157437356
 31
0.0
210
0.0
220
0.0
230
1.0
 40
0.1912552084
 41
0.0
 42
6.283185307179586
  0
LINE
  5
DC
330
1F
100
AcDbEntity
  8
0
  6
Continuous
 62
     7
370
    15
100
AcDbLine
 10
188.908916541
 20
89.77970889
 30
0.0
 11
188.908916541
 21
138.2205706134
 31
0.0
  0
LINE
  5
DD
330
1F
100
AcDbEntity
  8
0
  6
Continuous
 62
     7
370
    15
100
AcDbLine
 10
169.108916541
 20
90.7716928579
 30
0.0
 11
169.108916541
 21
92.0549914924
 31
0.0
  0
SPLINE
  5
DE
330
1F
100
AcDbEntity
  8
0
  6
Continuous
 62
     7
370
    15
100
AcDbSpline
210
0.0
220
0.0
230
1.0
 70
     8
 71
     3
 72
    14
 73
    10
 74
     0
 42
0.00000001
 43
0.00000001
 40
0.0
 40
0.0
 40
0.0
 40
0.0
 40
0.25
 40
0.25
 40
0.5
 40
0.5
 40
0.75
 40
0.75
 40
1.0
 40
1.0
 40
1.0
 40
1.0
 10
168.487312304302
 20
93.13576853441744
 30
0.0
 10
168.525748689123
 20
93.03314413670591
 30
0.0
 10
168.5945500825148
 20
92.93394771326633
 30
0.0
 10
168.7378360946738
 20
92.74305568393982
 30
0.0
 10
168.8130181497807
 20
92.65079841790691
 30
0.0
 10
168.9452054384308
 20
92.4711910960919
 30
0.0
 10
169.0027226339006
 20
92.38388154164755
 30
0.0
 10
169.084767432193
 20
92.21394770813183
 30
0.0
 10
169.1089165410418
 20
92.13204536626066
 30
0.0
 10
169.1089165410417
 20
92.05499149242475
 30
0.0
  0
SPLINE
  5
DF
330
1F
100
AcDbEntity
  8
0
  6
Continuous
 62
     7
370
    15
100
AcDbSpline
210
0.0
220
0.0
230
1.0
 70
     8
 71
     3
 72
    18
 73
    14
 74
     0
 42
0.00000001
 43
0.00000001
 40
0.0
 40
0.0
 40
0.0
 40
0.0
 40
0.0624999999999998
 40
0.0624999999999998
 40
0.1249999999999997
 40
0.1249999999999997
 40
0.2499999999999993
 40
0.2499999999999993
 40
0.4999999999999996
 40
0.4999999999999996
 40
0.7499999999999998
 40
0.7499999999999998
 40
1.0
 40
1.0
 40
1.0
 40
1.0
 10
167.7089165410418
 20
93.85405098590405
 30
0.0
 10
167.7454887513921
 20
93.85782838943149
 30
0.0
 10
167.7841392248276
 20
93.85727136154836
 30
0.0
 10
167.8582307185414
 20
93.84721215638649
 30
0.0
 10
167.8935810122956
 20
93.83785827496192
 30
0.0
 10
167.9881753096849
 20
93.80347384852811
 30
0.0
 10
168.038313482824
 20
93.77276211386528
 30
0.0
 10
168.1675067544051
 20
93.67683280382724
 30
0.0
 10
168.2257868991462
 20
93.60831730970997
 30
0.0
 10
168.3259819955697
 20
93.47174535977737
 30
0.0
 10
168.3659972470163
 20
93.40298045727447
 30
0.0
 10
168.4343966678341
 20
93.26794502816679
 30
0.0
 10
168.462758391696
 20
93.20132700211364
 30
0.0
 10
168.487312304302
 20
93.13576853441744
 30
0.0
  0
SPLINE
  5
E0
330
1F
100
AcDbEntity
  8
0
  6
Continuous
 62
     7
370
    15
100
AcDbSpline
210
0.0
220
0.0
230
1.0
 70
     8
 71
     3
 72
    10
 73
     6
 74
     0
 42
0.00000001
 43
0.00000001
 40
0.0
 40
0.0
 40
0.0
 40
0.0
 40
0.5
 40
0.5
 40
1.0
 40
1.0
 40
1.0
 40
1.0
 10
163.7953146799198
 20
93.35785732953242
 30
0.0
 10
164.4229423356271
 20
93.46113088826803
 30
0.0
 10
165.0741430806585
 20
93.54995600001958
 30
0.0
 10
166.3828477846708
 20
93.71206370688991
 30
0.0
 10
167.043892221962
 20
93.78536317117647
 30
0.0
 10
167.7089165410416
 20
93.85405098590417
 30
0.0
  0
SPLINE
  5
E1
330
1F
100
AcDbEntity
  8
0
  6
Continuous
 62
     7
370
    15
100
AcDbSpline
210
0.0
220
0.0
230
1.0
 70
     8
 71
     3
 72
    14
 73
    10
 74
     0
 42
0.00000001
 43
0.00000001
 40
0.0
 40
0.0
 40
0.0
 40
0.0
 40
0.4999999999999998
 40
0.4999999999999998
 40
0.750000000000001
 40
0.750000000000001
 40
0.8750000000000004
 40
0.8750000000000004
 40
1.0
 40
1.0
 40
1.0
 40
1.0
 10
160.1589165410417
 20
93.1935081931731
 30
0.0
 10
160.7749934447971
 20
93.19923431340224
 30
0.0
 10
161.3891254409129
 20
93.20912467880427
 30
0.0
 10
162.3030220714265
 20
93.23975964647404
 30
0.0
 10
162.6064609989741
 20
93.25255310411202
 30
0.0
 10
163.0575976146116
 20
93.28047893207142
 30
0.0
 10
163.2073038641541
 20
93.29124855223117
 30
0.0
 10
163.5041450004022
 20
93.31838126783072
 30
0.0
 10
163.6515305529055
 20
93.33419824065794
 30
0.0
 10
163.7953146799198
 20
93.35785732953242
 30
0.0
  0
SPLINE
  5
E2
330
1F
100
AcDbEntity
  8
0
  6
Continuous
 62
     7
370
    15
100
AcDbSpline
210
0.0
220
0.0
230
1.0
 70
     8
 71
     3
 72
     8
 73
     4
 74
     0
 42
0.00000001
 43
0.00000001
 40
0.0000005954826279
 40
0.0000005954826279
 40
0.0000005954826279
 40
0.0000005954826279
 40
0.0000302093805348
 40
0.0000302093805348
 40
0.0000302093805348
 40
0.0000302093805348
 10
160.1488716106321
 20
93.20532332282498
 30
0.0
 10
160.1521876379524
 20
93.20137654322919
 30
0.0
 10
160.1555361893446
 20
93.19743815209924
 30
0.0
 10
160.1589165410417
 20
93.19350819317309
 30
0.0
  0
SPLINE
  5
E3
330
1F
100
AcDbEntity
  8
0
  6
Continuous
 62
     7
370
    15
100
AcDbSpline
210
0.0
220
0.0
230
1.0
 70
     8
 71
     3
 72
     8
 73
     4
 74
     0
 42
0.00000001
 43
0.00000001
 40
0.0000005099763573
 40
0.0000005099763573
 40
0.0000005099763573
 40
0.0000005099763573
 40
0.0000262827998699
 40
0.0000262827998699
 40
0.0000262827998699
 40
0.0000262827998699
 10
160.1589165410417
 20
134.8700775170957
 30
0.0
 10
160.155547801814
 20
134.8667558481398
 30
0.0
 10
160.1521993488348
 20
134.863427890861
 30
0.0
 10
160.1488716106235
 20
134.8600936439883
 30
0.0
  0
SPLINE
  5
E4
330
1F
100
AcDbEntity
  8
0
  6
Continuous
 62
     7
370
    15
100
AcDbSpline
210
0.0
220
0.0
230
1.0
 70
     8
 71
     3
 72
    10
 73
     6
 74
     0
 42
0.00000001
 43
0.00000001
 40
0.0
 40
0.0
 40
0.0
 40
0.0
 40
0.5
 40
0.5
 40
1.0
 40
1.0
 40
1.0
 40
1.0
 10
163.7089165410418
 20
134.8232271435284
 30
0.0
 10
163.1213309939511
 20
134.8442926637648
 30
0.0
 10
162.5305846004908
 20
134.855051149637
 30
0.0
 10
161.3465654351919
 20
134.8684159301727
 30
0.0
 10
160.7531514469864
 20
134.8705585728373
 30
0.0
 10
160.1589165410417
 20
134.8700775170957
 30
0.0
  0
SPLINE
  5
E5
330
1F
100
AcDbEntity
  8
0
  6
Continuous
 62
     7
370
    15
100
AcDbSpline
210
0.0
220
0.0
230
1.0
 70
     8
 71
     3
 72
    18
 73
    14
 74
     0
 42
0.00000001
 43
0.00000001
 40
0.0
 40
0.0
 40
0.0
 40
0.0
 40
0.2500000000000003
 40
0.2500000000000003
 40
0.4999999999999999
 40
0.4999999999999999
 40
0.7499999999999996
 40
0.7499999999999996
 40
0.8749999999999993
 40
0.8749999999999993
 40
0.9374999999999997
 40
0.9374999999999997
 40
1.0
 40
1.0
 40
1.0
 40
1.0
 10
165.1089165410418
 20
135.8442474240636
 30
0.0
 10
165.1089165410418
 20
135.7610405152064
 30
0.0
 10
165.0730674411035
 20
135.6723038598929
 30
0.0
 10
164.9481957050696
 20
135.4901786693326
 30
0.0
 10
164.8577952874217
 20
135.395048620706
 30
0.0
 10
164.6355526326795
 20
135.2058671115817
 30
0.0
 10
164.5057878462338
 20
135.110921943487
 30
0.0
 10
164.2651503889223
 20
134.972643235907
 30
0.0
 10
164.1773830907848
 20
134.9269328026047
 30
0.0
 10
164.022859003578
 20
134.8691094973832
 30
0.0
 10
163.9662481175233
 20
134.8513947333453
 30
0.0
 10
163.8422040866166
 20
134.8268554301124
 30
0.0
 10
163.7744894115983
 20
134.8208762915741
 30
0.0
 10
163.7089165410418
 20
134.8232271435284
 30
0.0
  0
LINE
  5
E6
330
1F
100
AcDbEntity
  8
0
  6
Continuous
 62
     7
370
    15
100
AcDbLine
 10
165.108916541
 20
135.8442474241
 30
0.0
 11
165.108916541
 21
137.0281858439
 31
0.0
  0
SPLINE
  5
E7
330
1F
100
AcDbEntity
  8
0
  6
Continuous
 62
     7
370
    15
100
AcDbSpline
210
0.0
220
0.0
230
1.0
 70
     8
 71
     3
 72
    24
 73
    20
 74
     0
 42
0.00000001
 43
0.00000001
 40
0.0
 40
0.0
 40
0.0
 40
0.0
 40
0.0010489762969676
 40
0.0637843125636786
 40
0.1272220590447881
 40
0.190378892448397
 40
0.2526748653693583
 40
0.3146354154422258
 40
0.3770891997149646
 40
0.4393540298503556
 40
0.5008133242537847
 40
0.5621845104596218
 40
0.6248438451115926
 40
0.6874304766625545
 40
0.7496743174679397
 40
0.8119848426976357
 40
0.8750960525413143
 40
0.9384412526964341
 40
1.0
 40
1.0
 40
1.0
 40
1.0
 10
177.6778223730175
 20
90.3426313231205
 30
0.0
 10
177.6773759129132
 20
90.3425730373016
 30
0.0
 10
177.6502283492192
 20
90.33902889535928
 30
0.0
 10
177.7458401268331
 20
90.35186264004173
 30
0.0
 10
177.9794003847264
 20
90.38110932524191
 30
0.0
 10
178.3749546920442
 20
90.42772364830475
 30
0.0
 10
178.9019949958804
 20
90.47790678996404
 30
0.0
 10
179.5455254078708
 20
90.52228325241387
 30
0.0
 10
180.2841992631099
 20
90.54922803335195
 30
0.0
 10
181.0817137685442
 20
90.55269988405894
 30
0.0
 10
181.9082926509909
 20
90.52507264002826
 30
0.0
 10
182.7338156686029
 20
90.46659375105554
 30
0.0
 10
183.5259422166066
 20
90.38114872169423
 30
0.0
 10
184.2585144906059
 20
90.27941448185793
 30
0.0
 10
184.8941547273359
 20
90.17157135988555
 30
0.0
 10
185.416065834342
 20
90.06994120314684
 30
0.0
 10
185.7976946114578
 20
89.98745604646861
 30
0.0
 10
186.0485090816921
 20
89.93130684011895
 30
0.0
 10
186.0776306376763
 20
89.9244573815052
 30
0.0
 10
186.0919831584924
 20
89.92108163477702
 30
0.0
  0
SPLINE
  5
E8
330
1F
100
AcDbEntity
  8
0
  6
Continuous
 62
     7
370
    15
100
AcDbSpline
210
0.0
220
0.0
230
1.0
 70
     8
 71
     3
 72
    24
 73
    20
 74
     0
 42
0.00000001
 43
0.00000001
 40
0.0
 40
0.0
 40
0.0
 40
0.0
 40
0.0614384276250092
 40
0.1250736755369638
 40
0.1884253490728546
 40
0.250862390403747
 40
0.3129665632511463
 40
0.3753451453465217
 40
0.4377328972327366
 40
0.4990927322917387
 40
0.560580758844976
 40
0.6229469893028905
 40
0.6854686282028751
 40
0.7475477813740348
 40
0.809822506080776
 40
0.8730684085990464
 40
0.9364041844530122
 40
0.9991757196257861
 40
1.0
 40
1.0
 40
1.0
 40
1.0
 10
186.0919283876895
 20
138.0791687261581
 30
0.0
 10
186.0773276633859
 20
138.0758006693054
 30
0.0
 10
186.0476041446575
 20
138.0689441258316
 30
0.0
 10
185.7948663290096
 20
138.0126055053057
 30
0.0
 10
185.4118704125603
 20
137.9297484231757
 30
0.0
 10
184.8895148281228
 20
137.8278413932245
 30
0.0
 10
184.2547303501227
 20
137.7200022541806
 30
0.0
 10
183.5245067459491
 20
137.6185353022054
 30
0.0
 10
182.7340381607153
 20
137.5334755885146
 30
0.0
 10
181.9095546458859
 20
137.4752712946284
 30
0.0
 10
181.0825181870037
 20
137.4476878558019
 30
0.0
 10
180.2841939193509
 20
137.4511808332946
 30
0.0
 10
179.544369955062
 20
137.4781367531476
 30
0.0
 10
178.9001157220868
 20
137.5224906951471
 30
0.0
 10
178.372708466873
 20
137.572696144905
 30
0.0
 10
177.9780438647222
 20
137.6193060001031
 30
0.0
 10
177.7455145855375
 20
137.6485015926506
 30
0.0
 10
177.6501345529847
 20
137.6612796615921
 30
0.0
 10
177.6770681898863
 20
137.657725403084
 30
0.0
 10
177.6774172831107
 20
137.6576793355007
 30
0.0
  0
SPLINE
  5
E9
330
1F
100
AcDbEntity
  8
0
  6
Continuous
 62
     7
370
    15
100
AcDbSpline
210
0.0
220
0.0
230
1.0
 70
     8
 71
     3
 72
     9
 73
     5
 74
     0
 42
0.00000001
 43
0.00000001
 40
0.0
 40
0.0
 40
0.0
 40
0.0
 40
0.5865083119587354
 40
1.0
 40
1.0
 40
1.0
 40
1.0
 10
159.0154363389928
 20
94.34932130912175
 30
0.0
 10
159.0194369679709
 20
94.34352122809275
 30
0.0
 10
159.02625806308
 20
94.33363205702608
 30
0.0
 10
159.0354099340672
 20
94.38769684926665
 30
0.0
 10
159.0391941566504
 20
94.41005219147381
 30
0.0
  0
LINE
  5
EA
330
1F
100
AcDbEntity
  8
0
  6
Continuous
 62
     7
370
    15
100
AcDbLine
 10
159.008916541
 20
94.3469792267
 30
0.0
 11
159.008916541
 21
133.6908174982
 31
0.0
  0
SPLINE
  5
EB
330
1F
100
AcDbEntity
  8
0
  6
Continuous
 62
     7
370
    15
100
AcDbSpline
210
0.0
220
0.0
230
1.0
 70
     8
 71
     3
 72
    10
 73
     6
 74
     0
 42
0.00000001
 43
0.00000001
 40
0.0
 40
0.0
 40
0.0
 40
0.0
 40
0.5
 40
0.5
 40
1.0
 40
1.0
 40
1.0
 40
1.0
 10
159.0715799157651
 20
133.6746922964814
 30
0.0
 10
159.0626756266564
 20
133.7204338156946
 30
0.0
 10
159.0461602464634
 20
133.7376246551636
 30
0.0
 10
159.0190523004018
 20
133.7373013782278
 30
0.0
 10
159.0089165410417
 20
133.7194238359314
 30
0.0
 10
159.0089165410417
 20
133.6908174981788
 30
0.0
  0
SPLINE
  5
EC
330
1F
100
AcDbEntity
  8
0
  6
Continuous
 62
     7
370
    15
100
AcDbSpline
210
0.0
220
0.0
230
1.0
 70
     8
 71
     3
 72
    26
 73
    22
 74
     0
 42
0.00000001
 43
0.00000001
 40
0.0
 40
0.0
 40
0.0
 40
0.0
 40
0.2500000000000214
 40
0.2500000000000214
 40
0.3750000000000319
 40
0.3750000000000319
 40
0.437500000000036
 40
0.437500000000036
 40
0.4687500000000356
 40
0.4687500000000356
 40
0.5000000000000352
 40
0.5000000000000352
 40
0.5312500000000349
 40
0.5312500000000349
 40
0.5625000000000345
 40
0.5625000000000345
 40
0.6250000000000303
 40
0.6250000000000303
 40
0.75000000000002
 40
0.75000000000002
 40
1.0
 40
1.0
 40
1.0
 40
1.0
 10
159.8330701871463
 20
134.3902590852985
 30
0.0
 10
159.7944696642778
 20
134.272484388943
 30
0.0
 10
159.7481726617235
 20
134.1480947027811
 30
0.0
 10
159.6542333132896
 20
133.9428753704276
 30
0.0
 10
159.6189218463761
 20
133.8713025039812
 30
0.0
 10
159.5527418706305
 20
133.7553492713807
 30
0.0
 10
159.5282035039622
 20
133.7147647365705
 30
0.0
 10
159.4848307584084
 20
133.6506230546987
 30
0.0
 10
159.4693223569832
 20
133.6287566294137
 30
0.0
 10
159.4342797123962
 20
133.5831623610705
 30
0.0
 10
159.4147294216764
 20
133.5594920701031
 30
0.0
 10
159.3728021413058
 20
133.5148755107631
 30
0.0
 10
159.3501500310742
 20
133.4939954982452
 30
0.0
 10
159.3091763169876
 20
133.4631220844944
 30
0.0
 10
159.2915770170922
 20
133.453283214662
 30
0.0
 10
159.246950031236
 20
133.4342935989659
 30
0.0
 10
159.2263908085827
 20
133.4339692743124
 30
0.0
 10
159.175265369086
 20
133.4431927151886
 30
0.0
 10
159.1543539560975
 20
133.4644396114056
 30
0.0
 10
159.1029040485365
 20
133.5384084902363
 30
0.0
 10
159.085238749232
 20
133.6045265835511
 30
0.0
 10
159.0715799157651
 20
133.6746922964814
 30
0.0
  0
SPLINE
  5
ED
330
1F
100
AcDbEntity
  8
0
  6
Continuous
 62
     7
370
    15
100
AcDbSpline
210
0.0
220
0.0
230
1.0
 70
     8
 71
     3
 72
    10
 73
     6
 74
     0
 42
0.00000001
 43
0.00000001
 40
0.0
 40
0.0
 40
0.0
 40
0.0
 40
0.5
 40
0.5
 40
1.0
 40
1.0
 40
1.0
 40
1.0
 10
160.1488716106235
 20
134.8600936439883
 30
0.0
 10
160.0813123557053
 20
134.7924022511785
 30
0.0
 10
160.0176757003688
 20
134.7176950864249
 30
0.0
 10
159.907454945797
 20
134.5587289539983
 30
0.0
 10
159.8606386525743
 20
134.4743736879903
 30
0.0
 10
159.8330701871463
 20
134.3902590852985
 30
0.0
  0
SPLINE
  5
EE
330
1F
100
AcDbEntity
  8
0
  6
Continuous
 62
     7
370
    15
100
AcDbSpline
210
0.0
220
0.0
230
1.0
 70
     8
 71
     3
 72
     8
 73
     4
 74
     0
 42
0.00000001
 43
0.00000001
 40
0.0
 40
0.0
 40
0.0
 40
0.0
 40
1.0
 40
1.0
 40
1.0
 40
1.0
 10
159.9478261112409
 20
93.55621744873504
 30
0.0
 10
159.9835397696108
 20
93.43298594347524
 30
0.0
 10
160.0592078085591
 20
93.31204236652825
 30
0.0
 10
160.1488716106322
 20
93.205323322825
 30
0.0
  0
SPLINE
  5
EF
330
1F
100
AcDbEntity
  8
0
  6
Continuous
 62
     7
370
    15
100
AcDbSpline
210
0.0
220
0.0
230
1.0
 70
     8
 71
     3
 72
    26
 73
    22
 74
     0
 42
0.00000001
 43
0.00000001
 40
0.0
 40
0.0
 40
0.0
 40
0.0
 40
0.2500000000000047
 40
0.2500000000000047
 40
0.375000000000008
 40
0.375000000000008
 40
0.437500000000009
 40
0.437500000000009
 40
0.468750000000009
 40
0.468750000000009
 40
0.5000000000000091
 40
0.5000000000000091
 40
0.5312500000000092
 40
0.5312500000000092
 40
0.5625000000000094
 40
0.5625000000000094
 40
0.6250000000000078
 40
0.6250000000000078
 40
0.7500000000000054
 40
0.7500000000000054
 40
1.0
 40
1.0
 40
1.0
 40
1.0
 10
159.0391941566504
 20
94.41005219147381
 30
0.0
 10
159.0499181900429
 20
94.51301323196279
 30
0.0
 10
159.0646511806374
 20
94.61201192144385
 30
0.0
 10
159.1170047398844
 20
94.73060760150899
 30
0.0
 10
159.1387100226041
 20
94.76631790145778
 30
0.0
 10
159.1975655299695
 20
94.79129733427952
 30
0.0
 10
159.2210277638166
 20
94.79568278204306
 30
0.0
 10
159.2771491404772
 20
94.77592994859893
 30
0.0
 10
159.2999364506079
 20
94.76427355778851
 30
0.0
 10
159.3551890031391
 20
94.72249320835128
 30
0.0
 10
159.3865952358799
 20
94.69222162097527
 30
0.0
 10
159.4415290565004
 20
94.63057922206127
 30
0.0
 10
159.4659528746999
 20
94.59913756975445
 30
0.0
 10
159.509367980687
 20
94.53940273234068
 30
0.0
 10
159.5289425432553
 20
94.51023772246805
 30
0.0
 10
159.5825752272033
 20
94.42640244673497
 30
0.0
 10
159.6123525752555
 20
94.37436982875877
 30
0.0
 10
159.6938866352283
 20
94.2233041547914
 30
0.0
 10
159.7371294299024
 20
94.13011311292067
 30
0.0
 10
159.850184019557
 20
93.86572657392631
 30
0.0
 10
159.9041950170362
 20
93.70676840487646
 30
0.0
 10
159.9478261112402
 20
93.5562174487356
 30
0.0
  0
SPLINE
  5
F0
330
1F
100
AcDbEntity
  8
0
  6
Continuous
 62
     7
370
    15
100
AcDbSpline
210
0.0
220
0.0
230
1.0
 70
     8
 71
     3
 72
     8
 73
     4
 74
     0
 42
0.00000001
 43
0.00000001
 40
0.0
 40
0.0
 40
0.0
 40
0.0
 40
1.0
 40
1.0
 40
1.0
 40
1.0
 10
212.3008493725308
 20
144.4673352248649
 30
0.0
 10
211.8057093431665
 20
143.5806555766846
 30
0.0
 10
211.3116266378875
 20
142.6933929409986
 30
0.0
 10
210.8189165410417
 20
141.8053739428723
 30
0.0
  0
LINE
  5
F1
330
1F
100
AcDbEntity
  8
0
  6
Continuous
 62
     7
370
    15
100
AcDbLine
 10
212.3008493725
 20
138.4588294141
 30
0.0
 11
212.3008493725
 21
144.4673352249
 31
0.0
  0
SPLINE
  5
F2
330
1F
100
AcDbEntity
  8
0
  6
Continuous
 62
     7
370
    15
100
AcDbSpline
210
0.0
220
0.0
230
1.0
 70
     8
 71
     3
 72
     8
 73
     4
 74
     0
 42
0.00000001
 43
0.00000001
 40
0.0
 40
0.0
 40
0.0
 40
0.0
 40
1.0
 40
1.0
 40
1.0
 40
1.0
 10
210.8189165410417
 20
135.050283419284
 30
0.0
 10
211.2981946916316
 20
136.1912946491366
 30
0.0
 10
211.7937625307715
 20
137.3276790599044
 30
0.0
 10
212.3008493725308
 20
138.4588294140681
 30
0.0
  0
LINE
  5
F3
330
1F
100
AcDbEntity
  8
0
  6
Continuous
 62
     7
370
    15
100
AcDbLine
 10
210.818916541
 20
135.0502834193
 30
0.0
 11
210.818916541
 21
141.8053739429
 31
0.0
  0
LINE
  5
F4
330
1F
100
AcDbEntity
  8
0
  6
Continuous
 62
     7
370
    15
100
AcDbLine
 10
210.818916541
 20
134.1360063832
 30
0.0
 11
210.818916541
 21
135.0502834193
 31
0.0
  0
LINE
  5
F5
330
1F
100
AcDbEntity
  8
0
  6
Continuous
 62
     7
370
    15
100
AcDbLine
 10
212.3008493725
 20
138.4588294141
 30
0.0
 11
216.258916541
 21
138.4588294141
 31
0.0
  0
SPLINE
  5
F6
330
1F
100
AcDbEntity
  8
0
  6
Continuous
 62
     7
370
    15
100
AcDbSpline
210
0.0
220
0.0
230
1.0
 70
     8
 71
     3
 72
    12
 73
     8
 74
     0
 42
0.00000001
 43
0.00000001
 40
0.0
 40
0.0
 40
0.0
 40
0.0
 40
0.249999999999998
 40
0.249999999999998
 40
0.499999999999996
 40
0.499999999999996
 40
1.0
 40
1.0
 40
1.0
 40
1.0
 10
216.2589165410417
 20
138.4588294140681
 30
0.0
 10
216.3501162628674
 20
138.4588294140681
 30
0.0
 10
216.4407112720034
 20
138.4306097154802
 30
0.0
 10
216.5941239984501
 20
138.3361667082321
 30
0.0
 10
216.6593328657738
 20
138.2698797315268
 30
0.0
 10
216.8121173951137
 20
138.0442549082385
 30
0.0
 10
216.8589165410418
 20
137.8618286452059
 30
0.0
 10
216.8589165410418
 20
137.681092012959
 30
0.0
  0
LINE
  5
F7
330
1F
100
AcDbEntity
  8
0
  6
Continuous
 62
     7
370
    15
100
AcDbLine
 10
216.858916541
 20
137.681092013
 30
0.0
 11
216.858916541
 21
133.8501397517
 31
0.0
  0
SPLINE
  5
F8
330
1F
100
AcDbEntity
  8
0
  6
Continuous
 62
     7
370
    15
100
AcDbSpline
210
0.0
220
0.0
230
1.0
 70
     8
 71
     3
 72
     8
 73
     4
 74
     0
 42
0.00000001
 43
0.00000001
 40
0.0
 40
0.0
 40
0.0
 40
0.0
 40
1.0
 40
1.0
 40
1.0
 40
1.0
 10
206.9989165410418
 20
141.8053739428723
 30
0.0
 10
206.506206444196
 20
142.6933929409986
 30
0.0
 10
206.012123738917
 20
143.5806555766846
 30
0.0
 10
205.5169837095527
 20
144.4673352248649
 30
0.0
  0
LINE
  5
F9
330
1F
100
AcDbEntity
  8
0
  6
Continuous
 62
     7
370
    15
100
AcDbLine
 10
206.998916541
 20
135.0502834193
 30
0.0
 11
206.998916541
 21
141.8053739429
 31
0.0
  0
SPLINE
  5
FA
330
1F
100
AcDbEntity
  8
0
  6
Continuous
 62
     7
370
    15
100
AcDbSpline
210
0.0
220
0.0
230
1.0
 70
     8
 71
     3
 72
     8
 73
     4
 74
     0
 42
0.00000001
 43
0.00000001
 40
0.0
 40
0.0
 40
0.0
 40
0.0
 40
1.0
 40
1.0
 40
1.0
 40
1.0
 10
205.5169837095527
 20
138.4588294140681
 30
0.0
 10
206.024070551312
 20
137.3276790599044
 30
0.0
 10
206.5196383904519
 20
136.1912946491366
 30
0.0
 10
206.9989165410418
 20
135.050283419284
 30
0.0
  0
SPLINE
  5
FB
330
1F
100
AcDbEntity
  8
0
  6
Continuous
 62
     7
370
    15
100
AcDbSpline
210
0.0
220
0.0
230
1.0
 70
     8
 71
     3
 72
    10
 73
     6
 74
     0
 42
0.00000001
 43
0.00000001
 40
0.0
 40
0.0
 40
0.0
 40
0.0
 40
0.5
 40
0.5
 40
1.0
 40
1.0
 40
1.0
 40
1.0
 10
216.8589165410418
 20
143.8465800754645
 30
0.0
 10
216.8589165410418
 20
144.0069853418153
 30
0.0
 10
216.7966787099349
 20
144.1660471548039
 30
0.0
 10
216.5775437861923
 20
144.3969596204342
 30
0.0
 10
216.4199550912004
 20
144.4673352248649
 30
0.0
 10
216.2589165410417
 20
144.4673352248649
 30
0.0
  0
LINE
  5
FC
330
1F
100
AcDbEntity
  8
0
  6
Continuous
 62
     7
370
    15
100
AcDbLine
 10
216.858916541
 20
137.681092013
 30
0.0
 11
216.858916541
 21
143.8465800755
 31
0.0
  0
LINE
  5
FD
330
1F
100
AcDbEntity
  8
0
  6
Continuous
 62
     7
370
    15
100
AcDbLine
 10
216.258916541
 20
144.4673352249
 30
0.0
 11
212.3008493725
 21
144.4673352249
 31
0.0
  0
LINE
  5
FE
330
1F
100
AcDbEntity
  8
0
  6
Continuous
 62
     7
370
    15
100
AcDbLine
 10
206.998916541
 20
135.0502834193
 30
0.0
 11
206.998916541
 21
134.1360063832
 31
0.0
  0
LINE
  5
FF
330
1F
100
AcDbEntity
  8
0
  6
Continuous
 62
     7
370
    15
100
AcDbLine
 10
160.158916541
 20
93.1876397517
 30
0.0
 11
160.158916541
 21
93.1935081932
 31
0.0
  0
SPLINE
  5
100
330
1F
100
AcDbEntity
  8
0
  6
Continuous
 62
     7
370
    15
100
AcDbSpline
210
0.0
220
0.0
230
1.0
 70
     8
 71
     3
 72
     8
 73
     4
 74
     0
 42
0.00000001
 43
0.00000001
 40
0.0
 40
0.0
 40
0.0
 40
0.0
 40
1.0
 40
1.0
 40
1.0
 40
1.0
 10
233.1075153793519
 20
87.25995913804158
 30
0.0
 10
233.4092331299692
 20
86.1342894072116
 30
0.0
 10
233.7110293179787
 20
85.00816405555095
 30
0.0
 10
234.0128784689155
 20
83.88159180613019
 30
0.0
  0
SPLINE
  5
101
330
1F
100
AcDbEntity
  8
0
  6
Continuous
 62
     7
370
    15
100
AcDbSpline
210
0.0
220
0.0
230
1.0
 70
     8
 71
     3
 72
    10
 73
     6
 74
     0
 42
0.00000001
 43
0.00000001
 40
0.0
 40
0.0
 40
0.0
 40
0.0
 40
0.5
 40
0.5
 40
1.0
 40
1.0
 40
1.0
 40
1.0
 10
233.1075153793519
 20
87.25995913804158
 30
0.0
 10
233.0494989564164
 20
87.47641087499063
 30
0.0
 10
232.9201606068138
 20
87.66626854479462
 30
0.0
 10
232.5670114284159
 20
87.93203754244325
 30
0.0
 10
232.3545043603487
 20
88.00014171359366
 30
0.0
 10
232.1415895530628
 20
88.00013976183885
 30
0.0
  0
LINE
  5
102
330
1F
100
AcDbEntity
  8
0
  6
Continuous
 62
     7
370
    15
100
AcDbLine
 10
234.0128784689
 20
134.5548255455
 30
0.0
 11
230.2150212763
 21
139.978727725
 31
0.0
  0
LINE
  5
103
330
1F
100
AcDbEntity
  8
0
  6
Continuous
 62
     7
370
    15
100
AcDbLine
 10
239.1056978562
 20
75.7143040984
 30
0.0
 11
236.1598449936
 21
75.868689705
 31
0.0
  0
LINE
  5
104
330
1F
100
AcDbEntity
  8
0
  6
Continuous
 62
     7
370
    15
100
AcDbLine
 10
237.5220411532
 20
70.7847656011
 30
0.0
 11
245.9827547558
 21
70.34135839
 31
0.0
  0
LINE
  5
105
330
1F
100
AcDbEntity
  8
0
  6
Continuous
 62
     7
370
    15
100
AcDbLine
 10
236.1598449936
 20
75.868689705
 30
0.0
 11
237.5220411532
 21
70.7847656011
 31
0.0
  0
LINE
  5
106
330
1F
100
AcDbEntity
  8
0
  6
Continuous
 62
     7
370
    15
100
AcDbLine
 10
249.908916541
 20
79.1717965383
 30
0.0
 11
249.908916541
 21
111.8529304577
 31
0.0
  0
LINE
  5
107
330
1F
100
AcDbEntity
  8
0
  6
Continuous
 62
     7
370
    15
100
AcDbLine
 10
234.0128784689
 20
83.8815918061
 30
0.0
 11
235.076414017
 21
79.9122491376
 31
0.0
  0
LINE
  5
108
330
1F
100
AcDbEntity
  8
0
  6
Continuous
 62
     7
370
    15
100
AcDbLine
 10
249.908916541
 20
111.8529304577
 30
0.0
 11
234.0128784689
 21
134.5548255455
 31
0.0
  0
LINE
  5
109
330
1F
100
AcDbEntity
  8
0
  6
Continuous
 62
     7
370
    15
100
AcDbLine
 10
238.7750690602
 20
75.9726196244
 30
0.0
 11
236.1123338662
 21
76.1121676627
 31
0.0
  0
SPLINE
  5
10A
330
1F
100
AcDbEntity
  8
0
  6
Continuous
 62
     7
370
    15
100
AcDbSpline
210
0.0
220
0.0
230
1.0
 70
     8
 71
     3
 72
     8
 73
     4
 74
     0
 42
0.00000001
 43
0.00000001
 40
0.0
 40
0.0
 40
0.0
 40
0.0
 40
1.0
 40
1.0
 40
1.0
 40
1.0
 10
236.1123338662244
 20
76.1121676627495
 30
0.0
 10
236.1235551312333
 20
76.03123784993417
 30
0.0
 10
236.1394149369215
 20
75.95007739885315
 30
0.0
 10
236.1598449935772
 20
75.86868970501851
 30
0.0
  0
LWPOLYLINE
  5
10B
330
1F
100
AcDbEntity
  8
0
  6
Continuous
 62
     7
370
    15
100
AcDbPolyline
 90
        3
 70
   128
 43
0.0
 10
236.1749669654
 20
76.1088852011
 10
235.6179348125
 20
78.2050493304
 10
235.5394780736
 20
78.5005403555
  0
CIRCLE
  5
10C
330
1F
100
AcDbEntity
  8
0
  6
HIDDEN
 62
     7
370
     0
100
AcDbCircle
 10
221.7807024038
 20
112.2599876107
 30
0.0
 40
1.95864071393044
  0
CIRCLE
  5
10D
330
1F
100
AcDbEntity
  8
0
  6
HIDDEN
 62
     7
370
     0
100
AcDbCircle
 10
221.8229509894
 20
112.232698956
 30
0.0
 40
2.475049786893576
  0
CIRCLE
  5
10E
330
1F
100
AcDbEntity
  8
0
  6
HIDDEN
 62
     7
370
     0
100
AcDbCircle
 10
222.1268353004
 20
112.0824935665
 30
0.0
 40
2.475049786893464
  0
CIRCLE
  5
10F
330
1F
100
AcDbEntity
  8
0
  6
HIDDEN
 62
     7
370
     0
100
AcDbCircle
 10
222.7354283348
 20
111.7877665204
 30
0.0
 40
1.978040586594016
  0
CIRCLE
  5
110
330
1F
100
AcDbEntity
  8
0
  6
HIDDEN
 62
     7
370
     0
100
AcDbCircle
 10
222.0156046374
 20
112.1435644178
 30
0.0
 40
1.978040586594028
  0
CIRCLE
  5
111
330
1F
100
AcDbEntity
  8
0
  6
HIDDEN
 62
     7
370
     0
100
AcDbCircle
 10
222.2466525429
 20
112.0232697271
 30
0.0
 40
2.475049786893413
  0
CIRCLE
  5
112
330
1F
100
AcDbEntity
  8
0
  6
HIDDEN
 62
     7
370
     0
100
AcDbCircle
 10
222.1622487256
 20
112.0663921433
 30
0.0
 40
2.274962091455438
  0
CIRCLE
  5
113
330
1F
100
AcDbEntity
  8
0
  6
HIDDEN
 62
     7
370
     0
100
AcDbCircle
 10
222.3664697855
 20
111.9640458878
 30
0.0
 40
2.475049786893412
  0
CIRCLE
  5
114
330
1F
100
AcDbEntity
  8
0
  6
HIDDEN
 62
     7
370
     0
100
AcDbCircle
 10
222.2820659682
 20
112.007168304
 30
0.0
 40
2.274962091455579
  0
CIRCLE
  5
115
330
1F
100
AcDbEntity
  8
0
  6
HIDDEN
 62
     7
370
     0
100
AcDbCircle
 10
222.4862870281
 20
111.9048220485
 30
0.0
 40
2.475049786893424
  0
CIRCLE
  5
116
330
1F
100
AcDbEntity
  8
0
  6
HIDDEN
 62
     7
370
     0
100
AcDbCircle
 10
222.4018832108
 20
111.9479444647
 30
0.0
 40
2.274962091455517
  0
CIRCLE
  5
117
330
1F
100
AcDbEntity
  8
0
  6
HIDDEN
 62
     7
370
     0
100
AcDbCircle
 10
222.6061042707
 20
111.8455982092
 30
0.0
 40
2.475049786893592
  0
CIRCLE
  5
118
330
1F
100
AcDbEntity
  8
0
  6
HIDDEN
 62
     7
370
     0
100
AcDbCircle
 10
222.5217004534
 20
111.8887206254
 30
0.0
 40
2.274962091455516
  0
CIRCLE
  5
119
330
1F
100
AcDbEntity
  8
0
  6
HIDDEN
 62
     7
370
     0
100
AcDbCircle
 10
222.7016107684
 20
111.7983908011
 30
0.0
 40
2.475049786893424
  0
CIRCLE
  5
11A
330
1F
100
AcDbEntity
  8
0
  6
HIDDEN
 62
     7
370
     0
100
AcDbCircle
 10
222.7290835692
 20
111.7852552252
 30
0.0
 40
2.334308928623943
  0
CIRCLE
  5
11B
330
1F
100
AcDbEntity
  8
0
  6
HIDDEN
 62
     7
370
     0
100
AcDbCircle
 10
248.4201116948
 20
74.4807856962
 30
0.0
 40
2.200000000000011
  0
LINE
  5
11C
330
1F
100
AcDbEntity
  8
0
  6
HIDDEN
 62
     7
370
     0
100
AcDbLine
 10
246.917174336
 20
70.3757720915
 30
0.0
 11
261.1199929166
 21
69.6314339101
 31
0.0
  0
LINE
  5
11D
330
1F
100
AcDbEntity
  8
0
  6
HIDDEN
 62
     7
370
     0
100
AcDbLine
 10
261.1862947446
 20
69.8087662044
 30
0.0
 11
249.9789617112
 21
78.5648944149
 31
0.0
  0
LINE
  5
11E
330
1F
100
AcDbEntity
  8
0
  6
HIDDEN
 62
     7
370
     0
100
AcDbLine
 10
235.653928645
 20
79.1528051881
 30
0.0
 11
246.8612616784
 21
70.3966769776
 31
0.0
  0
LINE
  5
11F
330
1F
100
AcDbEntity
  8
0
  6
HIDDEN
 62
     7
370
     0
100
AcDbLine
 10
249.9230490536
 20
78.585799301
 30
0.0
 11
235.720230473
 21
79.3301374823
 31
0.0
  0
SPLINE
  5
120
330
1F
100
AcDbEntity
  8
0
  6
HIDDEN
 62
     7
370
     0
100
AcDbSpline
210
0.0
220
0.0
230
1.0
 70
     8
 71
     3
 72
    15
 73
    11
 74
     0
 42
0.00000001
 43
0.00000001
 40
0.0
 40
0.0
 40
0.0
 40
0.0
 40
0.1437531771930667
 40
0.2878251343603562
 40
0.4234880042862372
 40
0.5497147666319193
 40
0.671885848106247
 40
0.7962090644528529
 40
0.9276088781385974
 40
1.0
 40
1.0
 40
1.0
 40
1.0
 10
235.6539286449696
 20
79.1528051880649
 30
0.0
 10
235.6449610868748
 20
79.16126882250558
 30
0.0
 10
235.6270060846696
 20
79.17821485992633
 30
0.0
 10
235.6129854412201
 20
79.21257794346467
 30
0.0
 10
235.6114989649439
 20
79.24770386543342
 30
0.0
 10
235.6220510280031
 20
79.27934085755317
 30
0.0
 10
235.6419634599358
 20
79.30474696974241
 30
0.0
 10
235.6692914903135
 20
79.32252186962852
 30
0.0
 10
235.6967160140947
 20
79.33022808308807
 30
0.0
 10
235.7140670093699
 20
79.33016123003156
 30
0.0
 10
235.7202304729705
 20
79.33013748232294
 30
0.0
  0
SPLINE
  5
121
330
1F
100
AcDbEntity
  8
0
  6
HIDDEN
 62
     7
370
     0
100
AcDbSpline
210
0.0
220
0.0
230
1.0
 70
     8
 71
     3
 72
    15
 73
    11
 74
     0
 42
0.00000001
 43
0.00000001
 40
0.0
 40
0.0
 40
0.0
 40
0.0
 40
0.1437531771930633
 40
0.2878251343603493
 40
0.4234880042862271
 40
0.5497147666319062
 40
0.671885848106231
 40
0.7962090644528567
 40
0.9276088781385718
 40
1.0
 40
1.0
 40
1.0
 40
1.0
 10
261.1862947446345
 20
69.8087662043725
 30
0.0
 10
261.1952623027292
 20
69.80030256993182
 30
0.0
 10
261.2132173049344
 20
69.78335653251108
 30
0.0
 10
261.227237948384
 20
69.74899344897273
 30
0.0
 10
261.2287244246602
 20
69.71386752700398
 30
0.0
 10
261.2181723616009
 20
69.68223053488425
 30
0.0
 10
261.1982599296682
 20
69.656824422695
 30
0.0
 10
261.1709318992906
 20
69.63904952280889
 30
0.0
 10
261.1435073755094
 20
69.63134330934933
 30
0.0
 10
261.1261563802342
 20
69.63141016240584
 30
0.0
 10
261.1199929166335
 20
69.63143391011447
 30
0.0
  0
CIRCLE
  5
122
330
1F
100
AcDbEntity
  8
0
  6
HIDDEN
 62
     7
370
     0
100
AcDbCircle
 10
248.3110682957
 20
74.5215553525
 30
0.0
 40
1.999999999999999
  0
CIRCLE
  5
123
330
1F
100
AcDbEntity
  8
0
  6
HIDDEN
 62
     7
370
     0
100
AcDbCircle
 10
248.3110682957
 20
74.5215553525
 30
0.0
 40
1.89999999999999
  0
LINE
  5
124
330
1F
100
AcDbEntity
  8
0
  6
HIDDEN
 62
     7
370
     0
100
AcDbLine
 10
205.5169837096
 20
138.4588294141
 30
0.0
 11
205.5169837096
 21
133.8501397517
 31
0.0
  0
SPLINE
  5
125
330
1F
100
AcDbEntity
  8
0
  6
HIDDEN
 62
     7
370
     0
100
AcDbSpline
210
0.0
220
0.0
230
1.0
 70
     8
 71
     3
 72
    23
 73
    19
 74
     0
 42
0.00000001
 43
0.00000001
 40
0.0
 40
0.0
 40
0.0
 40
0.0
 40
0.0096516676590042
 40
0.0781079349732399
 40
0.1471503198224048
 40
0.2172719384721659
 40
0.2883345693533608
 40
0.3590950878695114
 40
0.4279825367461006
 40
0.4947701294729137
 40
0.560973214085611
 40
0.6284940615395608
 40
0.6981574466697299
 40
0.7691961845117572
 40
0.8400425784259762
 40
0.9097676816034476
 40
0.9785352132941613
 40
1.0
 40
1.0
 40
1.0
 40
1.0
 10
221.4808918586654
 20
113.7895868117501
 30
0.0
 10
221.5102284328805
 20
113.8160212499675
 30
0.0
 10
221.7476401747768
 20
114.0299469107228
 30
0.0
 10
222.3522136005913
 20
114.2112146372221
 30
0.0
 10
223.2012979896852
 20
114.2673007892924
 30
0.0
 10
224.0437659475078
 20
114.0156562601761
 30
0.0
 10
224.7605835301911
 20
113.5042540504395
 30
0.0
 10
225.2633877136683
 20
112.7844134733666
 30
0.0
 10
225.4860355754298
 20
111.9550775785842
 30
0.0
 10
225.4158735134677
 20
111.1212357138668
 30
0.0
 10
225.0762870830273
 20
110.3657898138215
 30
0.0
 10
224.5019836043113
 20
109.7529345299109
 30
0.0
 10
223.7406269616641
 20
109.3462874620738
 30
0.0
 10
222.873105316827
 20
109.2053681017738
 30
0.0
 10
222.0013294976831
 20
109.3554156972703
 30
0.0
 10
221.2598208411368
 20
109.7881857745149
 30
0.0
 10
220.7827714909558
 20
110.2688234394605
 30
0.0
 10
220.6603822935831
 20
110.6155003623907
 30
0.0
 10
220.6312679134654
 20
110.6979691090523
 30
0.0
  0
LINE
  5
126
330
1F
100
AcDbEntity
  8
0
  6
HIDDEN
 62
     7
370
     0
100
AcDbLine
 10
220.4173908364
 20
111.2805656789
 30
0.0
 11
220.3706380264
 21
111.7719245816
 31
0.0
  0
LINE
  5
127
330
1F
100
AcDbEntity
  8
0
  6
HIDDEN
 62
     7
370
     0
100
AcDbLine
 10
178.9040667456
 20
90.4755401289
 30
0.0
 11
178.6552019268
 21
90.4522771624
 31
0.0
  0
LINE
  5
128
330
1F
100
AcDbEntity
  8
0
  6
HIDDEN
 62
     7
370
     0
100
AcDbLine
 10
178.5226411654
 20
137.5602260799
 30
0.0
 11
178.9039740253
 21
137.5247227817
 31
0.0
  0
SPLINE
  5
129
330
1F
100
AcDbEntity
  8
0
  6
HIDDEN
 62
     7
370
     0
100
AcDbSpline
210
0.0
220
0.0
230
1.0
 70
     8
 71
     3
 72
    10
 73
     6
 74
     0
 42
0.00000001
 43
0.00000001
 40
0.0
 40
0.0
 40
0.0
 40
0.0
 40
0.5
 40
0.5
 40
1.0
 40
1.0
 40
1.0
 40
1.0
 10
213.7058694463691
 20
114.9510561358051
 30
0.0
 10
213.6727515118554
 20
114.9005984141163
 30
0.0
 10
213.6287436538891
 20
114.8580936969697
 30
0.0
 10
213.5275343853831
 20
114.7923596830626
 30
0.0
 10
213.4707561956397
 20
114.7688106267887
 30
0.0
 10
213.4123167718859
 20
114.7524422795905
 30
0.0
  0
ARC
  5
12A
330
1F
100
AcDbEntity
  8
0
  6
HIDDEN
 62
     7
370
     0
100
AcDbCircle
 10
211.249113146
 20
118.2659158178
 30
0.0
 40
4.126008510720079
100
AcDbArc
 50
301.6201101001
 51
306.5434138019
  0
SPLINE
  5
12B
330
1F
100
AcDbEntity
  8
0
  6
HIDDEN
 62
     7
370
     0
100
AcDbSpline
210
0.0
220
0.0
230
1.0
 70
     8
 71
     3
 72
     8
 73
     4
 74
     0
 42
0.00000001
 43
0.00000001
 40
0.0
 40
0.0
 40
0.0
 40
0.0
 40
1.0
 40
1.0
 40
1.0
 40
1.0
 10
213.4123167718859
 20
114.7524422795905
 30
0.0
 10
213.5043009612918
 20
114.8235775369586
 30
0.0
 10
213.6024589783151
 20
114.8883964485653
 30
0.0
 10
213.7058694463691
 20
114.9510561358051
 30
0.0
  0
SPLINE
  5
12C
330
1F
100
AcDbEntity
  8
0
  6
HIDDEN
 62
     7
370
     0
100
AcDbSpline
210
0.0
220
0.0
230
1.0
 70
     8
 71
     3
 72
    62
 73
    58
 74
     0
 42
0.00000001
 43
0.00000001
 40
-0.03125
 40
-0.03125
 40
0.0
 40
0.0
 40
0.0312499999999999
 40
0.0312499999999999
 40
0.0624999999999997
 40
0.0624999999999997
 40
0.1249999999999994
 40
0.1249999999999994
 40
0.1562499999999993
 40
0.1562499999999993
 40
0.1874999999999992
 40
0.1874999999999992
 40
0.218749999999999
 40
0.218749999999999
 40
0.2499999999999989
 40
0.2499999999999989
 40
0.2812499999999988
 40
0.2812499999999988
 40
0.3124999999999986
 40
0.3124999999999986
 40
0.3749999999999983
 40
0.3749999999999983
 40
0.4062499999999984
 40
0.4062499999999984
 40
0.4374999999999985
 40
0.4374999999999985
 40
0.4687499999999986
 40
0.4687499999999986
 40
0.4999999999999987
 40
0.4999999999999987
 40
0.5312499999999988
 40
0.5312499999999988
 40
0.5624999999999988
 40
0.5624999999999988
 40
0.5937499999999989
 40
0.5937499999999989
 40
0.624999999999999
 40
0.624999999999999
 40
0.6874999999999996
 40
0.6874999999999996
 40
0.7187499999999996
 40
0.7187499999999996
 40
0.7499999999999996
 40
0.7499999999999996
 40
0.8125000000000001
 40
0.8125000000000001
 40
0.8437500000000001
 40
0.8437500000000001
 40
0.8750000000000001
 40
0.8750000000000001
 40
0.9062500000000001
 40
0.9062500000000001
 40
0.9375
 40
0.9375
 40
0.96875
 40
0.96875
 40
1.0
 40
1.0
 40
1.03125
 40
1.03125
 10
215.4493261266269
 20
114.2562188777165
 30
0.0
 10
215.4541003544971
 20
114.5397050441697
 30
0.0
 10
215.4722485562357
 20
114.6773590745082
 30
0.0
 10
215.5377029742102
 20
114.9452116522266
 30
0.0
 10
215.5858273987806
 20
115.0764267072034
 30
0.0
 10
215.7657292155998
 20
115.4422866199695
 30
0.0
 10
215.93584599446
 20
115.6573487611172
 30
0.0
 10
216.238208968272
 20
115.9220474390568
 30
0.0
 10
216.3485506462207
 20
116.0020708170871
 30
0.0
 10
216.580391786376
 20
116.1408919584312
 30
0.0
 10
216.7020355595129
 20
116.2001276259671
 30
0.0
 10
216.957649480669
 20
116.2985176515925
 30
0.0
 10
217.0929189388919
 20
116.3377619455427
 30
0.0
 10
217.366412007068
 20
116.3915534455511
 30
0.0
 10
217.5055714544296
 20
116.4066827008154
 30
0.0
 10
217.7893364583379
 20
116.4110859448012
 30
0.0
 10
217.9300785365132
 20
116.4001110331282
 30
0.0
 10
218.2040646010845
 20
116.3520162922918
 30
0.0
 10
218.3398067272984
 20
116.314163153281
 30
0.0
 10
218.7233097346013
 20
116.1634411729703
 30
0.0
 10
218.9519011098727
 20
116.0120249522102
 30
0.0
 10
219.2319003699034
 20
115.7281511418634
 30
0.0
 10
219.3162795597956
 20
115.6225832297567
 30
0.0
 10
219.4613357047497
 20
115.3968258014587
 30
0.0
 10
219.5220910017079
 20
115.277171026409
 30
0.0
 10
219.6206266991429
 20
115.0236537814463
 30
0.0
 10
219.6582274690763
 20
114.8889496818366
 30
0.0
 10
219.7064922380011
 20
114.6171022016273
 30
0.0
 10
219.7178734256786
 20
114.4785357608505
 30
0.0
 10
219.7142275911118
 20
114.1958350183884
 30
0.0
 10
219.699081560717
 20
114.0551208035975
 30
0.0
 10
219.6435842564964
 20
113.7800940963809
 30
0.0
 10
219.6025572764222
 20
113.6434764714313
 30
0.0
 10
219.4969462547305
 20
113.3835509673901
 30
0.0
 10
219.4328180881315
 20
113.260357410676
 30
0.0
 10
219.2814328013648
 20
113.0272542660803
 30
0.0
 10
219.1940035456569
 20
112.9177536457348
 30
0.0
 10
218.9060383156451
 20
112.6232286551837
 30
0.0
 10
218.6715737800471
 20
112.4648778015075
 30
0.0
 10
218.2857755559961
 20
112.3121419615805
 30
0.0
 10
218.1486247522014
 20
112.2741903236998
 30
0.0
 10
217.8710368154983
 20
112.2288065466356
 30
0.0
 10
217.7310567489208
 20
112.2209141982773
 30
0.0
 10
217.3076703611133
 20
112.2398642133726
 30
0.0
 10
217.0295018435601
 20
112.3100174937833
 30
0.0
 10
216.6485583097591
 20
112.4821358057461
 30
0.0
 10
216.5282030999016
 20
112.5500739342381
 30
0.0
 10
216.2997782998415
 20
112.7067217270312
 30
0.0
 10
216.1917017444976
 20
112.7958124745909
 30
0.0
 10
215.995473319222
 20
112.989344684368
 30
0.0
 10
215.906213841009
 20
113.0944355276067
 30
0.0
 10
215.7465357077454
 20
113.3231138313029
 30
0.0
 10
215.6767183726943
 20
113.4464914500976
 30
0.0
 10
215.5642242460196
 20
113.7026337771664
 30
0.0
 10
215.5203248473445
 20
113.8380422992683
 30
0.0
 10
215.4628391891819
 20
114.1156859631094
 30
0.0
 10
215.4493261266269
 20
114.2562188777165
 30
0.0
 10
215.4541003544971
 20
114.5397050441697
 30
0.0
  0
SPLINE
  5
12D
330
1F
100
AcDbEntity
  8
0
  6
HIDDEN
 62
     7
370
     0
100
AcDbSpline
210
0.0
220
0.0
230
1.0
 70
     8
 71
     3
 72
    21
 73
    17
 74
     0
 42
0.00000001
 43
0.00000001
 40
0.0
 40
0.0
 40
0.0
 40
0.0
 40
0.0440925387581815
 40
0.0880880500046989
 40
0.1632400162201489
 40
0.2426756524207143
 40
0.3336281241866512
 40
0.415911819700586
 40
0.492175863996879
 40
0.5699798366727945
 40
0.6550623821840996
 40
0.7160313354803323
 40
0.7613042310383814
 40
0.8066684456255738
 40
0.8821438270570515
 40
1.0
 40
1.0
 40
1.0
 40
1.0
 10
212.8178923490901
 20
114.4975667821445
 30
0.0
 10
212.9064044982965
 20
114.4200374212147
 30
0.0
 10
213.0832340219509
 20
114.2651493060198
 30
0.0
 10
213.4629496963779
 20
114.0432529709185
 30
0.0
 10
213.9400889152092
 20
113.8993213007574
 30
0.0
 10
214.5551444928705
 20
113.9076856059939
 30
0.0
 10
215.1878205339251
 20
114.1280175966855
 30
0.0
 10
215.7351020822717
 20
114.5399652880121
 30
0.0
 10
216.1247623244798
 20
115.0414259179179
 30
0.0
 10
216.3680310288511
 20
115.5862305687721
 30
0.0
 10
216.456728609562
 20
116.066955195051
 30
0.0
 10
216.4658253980845
 20
116.3895312150511
 30
0.0
 10
216.483598978833
 20
116.5276249502569
 30
0.0
 10
216.5525421231603
 20
116.5135279282622
 30
0.0
 10
216.7232820234721
 20
116.2972997867991
 30
0.0
 10
216.8075476605993
 20
115.9790407792348
 30
0.0
 10
216.8589165410418
 20
115.7850280183199
 30
0.0
  0
SPLINE
  5
12E
330
1F
100
AcDbEntity
  8
0
  6
HIDDEN
 62
     7
370
     0
100
AcDbSpline
210
0.0
220
0.0
230
1.0
 70
     8
 71
     3
 72
    19
 73
    15
 74
     0
 42
0.00000001
 43
0.00000001
 40
0.0
 40
0.0
 40
0.0
 40
0.0
 40
0.0419165944735741
 40
0.1081012737040097
 40
0.1747066192098387
 40
0.2337711287898564
 40
0.3199917642751918
 40
0.4608037051171534
 40
0.5820457633095618
 40
0.7066817597877434
 40
0.7870369708778219
 40
0.8498243853467666
 40
0.9130104966075918
 40
1.0
 40
1.0
 40
1.0
 40
1.0
 10
216.8589165410418
 20
114.7386724878907
 30
0.0
 10
216.8421458025426
 20
114.6718447719106
 30
0.0
 10
216.7988947174894
 20
114.4994986806572
 30
0.0
 10
216.6089751819124
 20
114.2115231825066
 30
0.0
 10
216.3219408272547
 20
113.9354078568362
 30
0.0
 10
215.9396736203367
 20
113.7174765038137
 30
0.0
 10
215.4039833274379
 20
113.5637196108956
 30
0.0
 10
214.7922194764375
 20
113.5672494993919
 30
0.0
 10
214.1762950629179
 20
113.7142115851592
 30
0.0
 10
213.6904285416085
 20
113.9347560317703
 30
0.0
 10
213.300127174619
 20
114.2025049844352
 30
0.0
 10
213.0057677111202
 20
114.4896464715444
 30
0.0
 10
212.7486579029002
 20
114.8607927628927
 30
0.0
 10
212.6681216139132
 20
115.1472943534223
 30
0.0
 10
212.6214708191073
 20
115.3132509312519
 30
0.0
  0
SPLINE
  5
12F
330
1F
100
AcDbEntity
  8
0
  6
HIDDEN
 62
     7
370
     0
100
AcDbSpline
210
0.0
220
0.0
230
1.0
 70
     8
 71
     3
 72
    11
 73
     7
 74
     0
 42
0.00000001
 43
0.00000001
 40
0.0
 40
0.0
 40
0.0
 40
0.0
 40
0.1394241281020218
 40
0.5102588298334628
 40
0.89652386951178
 40
1.0
 40
1.0
 40
1.0
 40
1.0
 10
212.5791979593006
 20
115.2195315554737
 30
0.0
 10
212.570221518812
 20
115.2047710191417
 30
0.0
 10
212.5373699020786
 20
115.1507510005196
 30
0.0
 10
212.5738066829815
 20
114.9016837344333
 30
0.0
 10
212.6913860410841
 20
114.6548760541754
 30
0.0
 10
212.7958255900452
 20
114.5250065664221
 30
0.0
 10
212.8178923490901
 20
114.4975667821445
 30
0.0
  0
CIRCLE
  5
130
330
1F
100
AcDbEntity
  8
0
  6
HIDDEN
 62
     7
370
     0
100
AcDbCircle
 10
214.2479964897
 20
115.9991397628
 30
0.0
 40
2.089514961746688
  0
LWPOLYLINE
  5
131
330
1F
100
AcDbEntity
  8
0
  6
HIDDEN
 62
     7
370
     0
100
AcDbPolyline
 90
        9
 70
   128
 43
0.0
 10
212.6214708191
 20
115.3132509313
 10
212.5329402207
 20
115.1179503214
 10
212.47603792
 20
114.9431661151
 10
212.4520016117
 20
114.7927000827
 10
212.4613541149
 20
114.6698250447
 10
212.5038920012
 20
114.5772136835
 10
212.5786900196
 20
114.5168804098
 10
212.6841212214
 20
114.490137546
 10
212.8178923491
 20
114.4975667821
  0
SPLINE
  5
132
330
1F
100
AcDbEntity
  8
0
  6
HIDDEN
 62
     7
370
     0
100
AcDbSpline
210
0.0
220
0.0
230
1.0
 70
     8
 71
     3
 72
    10
 73
     6
 74
     0
 42
0.00000001
 43
0.00000001
 40
0.0
 40
0.0
 40
0.0
 40
0.0
 40
0.4475812350199079
 40
0.8951457110763068
 40
1.0
 40
1.0
 40
1.0
 40
1.0
 10
184.6639185426434
 20
133.8376682275171
 30
0.0
 10
184.9106239025502
 20
133.8671806986451
 30
0.0
 10
185.4040253848762
 20
133.9262045358539
 30
0.0
 10
185.6930398582343
 20
133.940142569892
 30
0.0
 10
185.6326733736562
 20
133.9362519998007
 30
0.0
 10
185.6212152458435
 20
133.9355135329232
 30
0.0
  0
SPLINE
  5
133
330
1F
100
AcDbEntity
  8
0
  6
HIDDEN
 62
     7
370
     0
100
AcDbSpline
210
0.0
220
0.0
230
1.0
 70
     8
 71
     3
 72
    10
 73
     6
 74
     0
 42
0.00000001
 43
0.00000001
 40
0.0
 40
0.0
 40
0.0
 40
0.0
 40
0.3454716024148311
 40
0.7966960330701324
 40
1.0
 40
1.0
 40
1.0
 40
1.0
 10
185.6211928982129
 20
94.06476748961501
 30
0.0
 10
185.611632909528
 20
94.06532309748611
 30
0.0
 10
185.5895865097423
 20
94.06660439118362
 30
0.0
 10
185.1726458797061
 20
94.0965617156352
 30
0.0
 10
184.7844855554874
 20
94.14695770746214
 30
0.0
 10
184.6639185426434
 20
94.16261127588419
 30
0.0
  0
SPLINE
  5
134
330
1F
100
AcDbEntity
  8
0
  6
HIDDEN
 62
     7
370
     0
100
AcDbSpline
210
0.0
220
0.0
230
1.0
 70
     8
 71
     3
 72
    15
 73
    11
 74
     0
 42
0.00000001
 43
0.00000001
 40
0.0
 40
0.0
 40
0.0
 40
0.0
 40
0.1409172169897704
 40
0.2818898291171905
 40
0.4212989265166057
 40
0.5593768372264387
 40
0.6988856205980571
 40
0.8403671979046414
 40
0.9813164454670273
 40
1.0
 40
1.0
 40
1.0
 40
1.0
 10
184.6639185426434
 20
94.16261127588419
 30
0.0
 10
184.3478768563708
 20
94.20296509320582
 30
0.0
 10
183.7156692465388
 20
94.28368859110064
 30
0.0
 10
182.4815061248615
 20
94.36024368870291
 30
0.0
 10
181.2107841240031
 20
94.35556763756388
 30
0.0
 10
180.0222247189756
 20
94.27477162583165
 30
0.0
 10
179.0291020461945
 20
94.15037482931992
 30
0.0
 10
178.3896930398979
 20
94.04397129065781
 30
0.0
 10
178.1086729333144
 20
93.9908906299806
 30
0.0
 10
178.1752336710076
 20
94.00314666999489
 30
0.0
 10
178.1830239945258
 20
94.00458112700471
 30
0.0
  0
SPLINE
  5
135
330
1F
100
AcDbEntity
  8
0
  6
HIDDEN
 62
     7
370
     0
100
AcDbSpline
210
0.0
220
0.0
230
1.0
 70
     8
 71
     3
 72
    15
 73
    11
 74
     0
 42
0.00000001
 43
0.00000001
 40
0.0
 40
0.0
 40
0.0
 40
0.0
 40
0.1201202395113835
 40
0.2584739316900703
 40
0.3987301965958649
 40
0.5404022890432711
 40
0.6807395403003655
 40
0.8190356063860889
 40
0.9577823106998857
 40
1.0
 40
1.0
 40
1.0
 40
1.0
 10
178.1830239945258
 20
133.9956983763966
 30
0.0
 10
178.2037331309963
 20
133.991673782543
 30
0.0
 10
178.2482949129841
 20
133.9830136882821
 30
0.0
 10
178.8107345188567
 20
133.8837225616734
 30
0.0
 10
179.7041967311781
 20
133.7598049716921
 30
0.0
 10
180.8631758853703
 20
133.6600945348708
 30
0.0
 10
182.1362127654956
 20
133.6329560457951
 30
0.0
 10
183.3704980401392
 20
133.688294879959
 30
0.0
 10
184.1984608369052
 20
133.7747734789432
 30
0.0
 10
184.5758713815692
 20
133.8257708972331
 30
0.0
 10
184.6639185426434
 20
133.8376682275171
 30
0.0
  0
LINE
  5
136
330
1F
100
AcDbEntity
  8
0
  6
HIDDEN
 62
     7
370
     0
100
AcDbLine
 10
171.9128911373
 20
97.0001397517
 30
0.0
 11
171.9128911373
 21
131.0001397517
 31
0.0
  0
LINE
  5
137
330
1F
100
AcDbEntity
  8
0
  6
HIDDEN
 62
     7
370
     0
100
AcDbLine
 10
198.5687425096
 20
97.0001397517
 30
0.0
 11
198.5687425096
 21
131.0001397517
 31
0.0
  0
LINE
  5
138
330
1F
100
AcDbEntity
  8
0
  6
HIDDEN
 62
     7
370
     0
100
AcDbLine
 10
200.858916541
 20
98.2751397517
 30
0.0
 11
200.858916541
 21
129.7251397468
 31
0.0
  0
SPLINE
  5
139
330
1F
100
AcDbEntity
  8
0
  6
HIDDEN
 62
     7
370
     0
100
AcDbSpline
210
0.0
220
0.0
230
1.0
 70
     8
 71
     3
 72
    18
 73
    14
 74
     0
 42
0.00000001
 43
0.00000001
 40
0.0
 40
0.0
 40
0.0
 40
0.0
 40
0.2500000000000009
 40
0.2500000000000009
 40
0.3750000000000007
 40
0.3750000000000007
 40
0.5000000000000006
 40
0.5000000000000006
 40
0.6250000000000003
 40
0.6250000000000003
 40
0.7500000000000001
 40
0.7500000000000001
 40
1.0
 40
1.0
 40
1.0
 40
1.0
 10
165.1089165410418
 20
130.2876533741048
 30
0.0
 10
165.1089165410418
 20
130.2331788535526
 30
0.0
 10
165.0740058496496
 20
130.1767977942001
 30
0.0
 10
164.9719965483165
 20
130.0927209533466
 30
0.0
 10
164.9303601936384
 20
130.0653872493557
 30
0.0
 10
164.8319543981497
 20
130.0124333337567
 30
0.0
 10
164.7744111864454
 20
129.9865459800395
 30
0.0
 10
164.6471130128724
 20
129.9387684352063
 30
0.0
 10
164.577525708115
 20
129.9168205170284
 30
0.0
 10
164.42609146296
 20
129.8773879521157
 30
0.0
 10
164.3434075598661
 20
129.8598317028898
 30
0.0
 10
164.087296097828
 20
129.8173929374693
 30
0.0
 10
163.89938109394
 20
129.8016301877323
 30
0.0
 10
163.7089165410418
 20
129.8016301877323
 30
0.0
  0
LINE
  5
13A
330
1F
100
AcDbEntity
  8
0
  6
HIDDEN
 62
     7
370
     0
100
AcDbLine
 10
163.708916541
 20
129.8016301877
 30
0.0
 11
160.158916541
 21
129.8016301877
 31
0.0
  0
LINE
  5
13B
330
1F
100
AcDbEntity
  8
0
  6
HIDDEN
 62
     7
370
     0
100
AcDbLine
 10
160.158916541
 20
98.1986493157
 30
0.0
 11
167.708916541
 21
98.1986493157
 31
0.0
  0
SPLINE
  5
13C
330
1F
100
AcDbEntity
  8
0
  6
HIDDEN
 62
     7
370
     0
100
AcDbSpline
210
0.0
220
0.0
230
1.0
 70
     8
 71
     3
 72
    16
 73
    12
 74
     0
 42
0.00000001
 43
0.00000001
 40
0.0
 40
0.0
 40
0.0
 40
0.0
 40
0.1249999999999988
 40
0.1249999999999988
 40
0.2499999999999977
 40
0.2499999999999977
 40
0.4999999999999984
 40
0.4999999999999984
 40
0.7499999999999992
 40
0.7499999999999992
 40
1.0
 40
1.0
 40
1.0
 40
1.0
 10
167.7089165410418
 20
98.19864931566899
 30
0.0
 10
167.8040382957076
 20
98.19864931566899
 30
0.0
 10
167.8973683644356
 20
98.1948334822762
 30
0.0
 10
168.0806301251737
 20
98.18006292954638
 30
0.0
 10
168.1715078407306
 20
98.16890488157081
 30
0.0
 10
168.4283095382504
 20
98.12643361142909
 30
0.0
 10
168.5833769031224
 20
98.08538741422629
 30
0.0
 10
168.837123364677
 20
97.99024129764439
 30
0.0
 10
168.9379938163449
 20
97.93547856356281
 30
0.0
 10
169.0732402310397
 20
97.82421743965894
 30
0.0
 10
169.1089165410417
 20
97.76704770233026
 30
0.0
 10
169.1089165410417
 20
97.71262612929652
 30
0.0
  0
LINE
  5
13D
330
1F
100
AcDbEntity
  8
0
  6
HIDDEN
 62
     7
370
     0
100
AcDbLine
 10
160.158916541
 20
98.1986493157
 30
0.0
 11
160.158916541
 21
129.8016301877
 31
0.0
  0
LINE
  5
13E
330
1F
100
AcDbEntity
  8
0
  6
HIDDEN
 62
     7
370
     0
100
AcDbLine
 10
160.158916541
 20
96.0101397517
 30
0.0
 11
160.158916541
 21
93.1935081932
 31
0.0
  0
LINE
  5
13F
330
1F
100
AcDbEntity
  8
0
  6
HIDDEN
 62
     7
370
     0
100
AcDbLine
 10
169.108916541
 20
96.0101397517
 30
0.0
 11
169.108916541
 21
92.0549914924
 31
0.0
  0
LINE
  5
140
330
1F
100
AcDbEntity
  8
0
  6
HIDDEN
 62
     7
370
     0
100
AcDbLine
 10
160.158916541
 20
131.9901397517
 30
0.0
 11
160.158916541
 21
134.8700775171
 31
0.0
  0
LINE
  5
141
330
1F
100
AcDbEntity
  8
0
  6
HIDDEN
 62
     7
370
     0
100
AcDbLine
 10
165.108916541
 20
131.9901397517
 30
0.0
 11
165.108916541
 21
135.8442474241
 31
0.0
  0
LINE
  5
142
330
1F
100
AcDbEntity
  8
0
  6
HIDDEN
 62
     7
370
     0
100
AcDbLine
 10
212.708916541
 20
104.5001397517
 30
0.0
 11
212.708916541
 21
123.5001397517
 31
0.0
  0
LINE
  5
143
330
1F
100
AcDbEntity
  8
0
  6
HIDDEN
 62
     7
370
     0
100
AcDbLine
 10
210.208916541
 20
104.5001397517
 30
0.0
 11
210.208916541
 21
123.5001397517
 31
0.0
  0
LINE
  5
144
330
1F
100
AcDbEntity
  8
0
  6
HIDDEN
 62
     7
370
     0
100
AcDbLine
 10
201.358916541
 20
105.5001397517
 30
0.0
 11
201.358916541
 21
122.5001397517
 31
0.0
  0
LINE
  5
145
330
1F
100
AcDbEntity
  8
0
  6
HIDDEN
 62
     7
370
     0
100
AcDbLine
 10
216.858916541
 20
87.6001397517
 30
0.0
 11
210.7212417387
 21
87.6001397517
 31
0.0
  0
LINE
  5
146
330
1F
100
AcDbEntity
  8
0
  6
HIDDEN
 62
     7
370
     0
100
AcDbLine
 10
207.0965913434
 20
87.6001397517
 30
0.0
 11
203.858916541
 21
87.6001397517
 31
0.0
  0
LINE
  5
147
330
1F
100
AcDbEntity
  8
0
  6
HIDDEN
 62
     7
370
     0
100
AcDbLine
 10
195.858916541
 20
82.5160167688
 30
0.0
 11
195.858916541
 21
87.6001397517
 31
0.0
  0
LINE
  5
148
330
1F
100
AcDbEntity
  8
0
  6
HIDDEN
 62
     7
370
     0
100
AcDbLine
 10
203.858916541
 20
87.6001397517
 30
0.0
 11
195.858916541
 21
87.6001397517
 31
0.0
  0
LINE
  5
149
330
1F
100
AcDbEntity
  8
0
  6
HIDDEN
 62
     7
370
     0
100
AcDbLine
 10
207.3932140727
 20
140.4001397517
 30
0.0
 11
203.858916541
 21
140.4001397517
 31
0.0
  0
LINE
  5
14A
330
1F
100
AcDbEntity
  8
0
  6
HIDDEN
 62
     7
370
     0
100
AcDbLine
 10
216.858916541
 20
140.4001397517
 30
0.0
 11
210.4246190094
 21
140.4001397517
 31
0.0
  0
LINE
  5
14B
330
1F
100
AcDbEntity
  8
0
  6
HIDDEN
 62
     7
370
     0
100
AcDbLine
 10
203.858916541
 20
140.4001397517
 30
0.0
 11
195.858916541
 21
140.4001397517
 31
0.0
  0
ELLIPSE
  5
14C
330
1F
100
AcDbEntity
  8
0
  6
HIDDEN
 62
     7
370
     0
100
AcDbEllipse
 10
154.8414846767
 20
114.0001397517
 30
0.0
 11
20.07002071827054
 21
-2.842170943040401E-14
 31
0.0
210
0.0
220
0.0
230
1.0
 40
0.8164965809
 41
4.921555463185703
 42
4.980534842098404
  0
ELLIPSE
  5
14D
330
1F
100
AcDbEntity
  8
0
  6
HIDDEN
 62
     7
370
     0
100
AcDbEllipse
 10
154.8414846767
 20
114.0001397517
 30
0.0
 11
20.07002071827054
 21
-1.421085471520200E-14
 31
0.0
210
0.0
220
0.0
230
1.0
 40
0.8164965809
 41
1.302650465081197
 42
1.361629843993898
  0
LINE
  5
14E
330
1F
100
AcDbEntity
  8
0
  6
HIDDEN
 62
     7
370
     0
100
AcDbLine
 10
169.108916541
 20
96.0101397517
 30
0.0
 11
169.108916541
 21
97.7126261293
 31
0.0
  0
LINE
  5
14F
330
1F
100
AcDbEntity
  8
0
  6
HIDDEN
 62
     7
370
     0
100
AcDbLine
 10
160.158916541
 20
96.0101397517
 30
0.0
 11
160.158916541
 21
98.1986493157
 31
0.0
  0
LINE
  5
150
330
1F
100
AcDbEntity
  8
0
  6
HIDDEN
 62
     7
370
     0
100
AcDbLine
 10
160.158916541
 20
131.9901397517
 30
0.0
 11
160.158916541
 21
129.8016301877
 31
0.0
  0
LINE
  5
151
330
1F
100
AcDbEntity
  8
0
  6
HIDDEN
 62
     7
370
     0
100
AcDbLine
 10
165.108916541
 20
131.9901397517
 30
0.0
 11
165.108916541
 21
130.2876533741
 31
0.0
  0
SPLINE
  5
152
330
1F
100
AcDbEntity
  8
0
  6
HIDDEN
 62
     7
370
     0
100
AcDbSpline
210
0.0
220
0.0
230
1.0
 70
     8
 71
     3
 72
    20
 73
    16
 74
     0
 42
0.00000001
 43
0.00000001
 40
0.0
 40
0.0
 40
0.0
 40
0.0
 40
0.1118558125655511
 40
0.1773753113999064
 40
0.2489972021302199
 40
0.3297460239437926
 40
0.3985187419349276
 40
0.4997989471917701
 40
0.6137645974655735
 40
0.6789308288217129
 40
0.7494576589686347
 40
0.8296039916501068
 40
0.8980479815559851
 40
0.9994588611021246
 40
1.0
 40
1.0
 40
1.0
 40
1.0
 10
185.657537123382
 20
90.40020469598412
 30
0.0
 10
185.6142443081143
 20
90.41362336487404
 30
0.0
 10
185.5455927430918
 20
90.4349020138627
 30
0.0
 10
185.1005715490493
 20
90.53817543664735
 30
0.0
 10
184.5740216462503
 20
90.6514769019451
 30
0.0
 10
183.8885941317756
 20
90.77441029589143
 30
0.0
 10
182.9952773737695
 20
90.89644461588468
 30
0.0
 10
181.8819178055732
 20
91.01418098750719
 30
0.0
 10
180.7711435549974
 20
91.02615642781882
 30
0.0
 10
179.8863958218223
 20
90.99909825029718
 30
0.0
 10
179.2191971188938
 20
90.9511657850255
 30
0.0
 10
178.6779332629446
 20
90.89487391232726
 30
0.0
 10
178.2903204370091
 20
90.8497847701057
 30
0.0
 10
178.0964117200595
 20
90.81091596367165
 30
0.0
 10
178.1596021043418
 20
90.82163778796861
 30
0.0
 10
178.1599375050079
 20
90.8216946970546
 30
0.0
  0
LINE
  5
153
330
1F
100
AcDbEntity
  8
0
  6
HIDDEN
 62
     7
370
     0
100
AcDbLine
 10
179.0689284535
 20
90.9324778952
 30
0.0
 11
179.2527737665
 21
90.9506672377
 31
0.0
  0
SPLINE
  5
154
330
1F
100
AcDbEntity
  8
0
  6
HIDDEN
 62
     7
370
     0
100
AcDbSpline
210
0.0
220
0.0
230
1.0
 70
     8
 71
     3
 72
    27
 73
    23
 74
     0
 42
0.00000001
 43
0.00000001
 40
0.0
 40
0.0
 40
0.0
 40
0.0
 40
0.000807672014221
 40
0.0456901737908024
 40
0.1022718272496394
 40
0.1705499027799307
 40
0.2091415666355172
 40
0.2506687967608894
 40
0.3211145589711243
 40
0.386208279401396
 40
0.4266874205179333
 40
0.4648186652256232
 40
0.5006229743024806
 40
0.5452147290569483
 40
0.6017089731009302
 40
0.6701149332252625
 40
0.7088522550283424
 40
0.7505809916207371
 40
0.8222455616809682
 40
0.8877849723723561
 40
0.9472587147182338
 40
1.0
 40
1.0
 40
1.0
 40
1.0
 10
178.1595842684994
 20
137.1785540562304
 30
0.0
 10
178.1593621777169
 20
137.1786019314379
 30
0.0
 10
178.1467984559702
 20
137.1813102418756
 30
0.0
 10
178.1958753897577
 20
137.1694781476118
 30
0.0
 10
178.3409795192102
 20
137.146034029355
 30
0.0
 10
178.6140317965891
 20
137.1121298561378
 30
0.0
 10
178.9425582595551
 20
137.0785610628607
 30
0.0
 10
179.3352860289589
 20
137.0403777234269
 30
0.0
 10
179.8850140023573
 20
137.001409051262
 30
0.0
 10
180.5110366480426
 20
136.9819479467633
 30
0.0
 10
181.0542281583904
 20
136.9797622689431
 30
0.0
 10
181.4992970552586
 20
136.9882771501187
 30
0.0
 10
181.9657448517305
 20
137.0080605470429
 30
0.0
 10
182.5029855009178
 20
137.0522229325618
 30
0.0
 10
183.1511989315834
 20
137.1246385525446
 30
0.0
 10
183.736737562095
 20
137.2055406458484
 30
0.0
 10
184.2177071752799
 20
137.283706634017
 30
0.0
 10
184.6631220777284
 20
137.3684787743553
 30
0.0
 10
185.1016217625335
 20
137.4622618084358
 30
0.0
 10
185.4406471452857
 20
137.5401656045619
 30
0.0
 10
185.6279889697405
 20
137.5903574849513
 30
0.0
 10
185.6484787991596
 20
137.5970239520043
 30
0.0
 10
185.6581090595767
 20
137.6001572047253
 30
0.0
  0
LINE
  5
155
330
1F
100
AcDbEntity
  8
0
  6
HIDDEN
 62
     7
370
     0
100
AcDbLine
 10
221.008916541
 20
109.8001397517
 30
0.0
 11
221.008916541
 21
118.2001397517
 31
0.0
  0
SPLINE
  5
156
330
1F
100
AcDbEntity
  8
0
  6
HIDDEN
 62
     7
370
     0
100
AcDbSpline
210
0.0
220
0.0
230
1.0
 70
     8
 71
     3
 72
    52
 73
    48
 74
     0
 42
0.00000001
 43
0.00000001
 40
0.0
 40
0.0
 40
0.0
 40
0.0
 40
0.0624999999999997
 40
0.0624999999999997
 40
0.1249999999999993
 40
0.1249999999999993
 40
0.1874999999999989
 40
0.1874999999999989
 40
0.2187499999999992
 40
0.2187499999999992
 40
0.2499999999999995
 40
0.2499999999999995
 40
0.2812499999999998
 40
0.2812499999999998
 40
0.3125000000000001
 40
0.3125000000000001
 40
0.3749999999999998
 40
0.3749999999999998
 40
0.40625
 40
0.40625
 40
0.4375000000000002
 40
0.4375000000000002
 40
0.4687500000000004
 40
0.4687500000000004
 40
0.5000000000000006
 40
0.5000000000000006
 40
0.5312500000000007
 40
0.5312500000000007
 40
0.5625000000000009
 40
0.5625000000000009
 40
0.593750000000001
 40
0.593750000000001
 40
0.6250000000000012
 40
0.6250000000000012
 40
0.6562500000000013
 40
0.6562500000000013
 40
0.6875000000000016
 40
0.6875000000000016
 40
0.7187500000000017
 40
0.7187500000000017
 40
0.7500000000000018
 40
0.7500000000000018
 40
0.8125000000000013
 40
0.8125000000000013
 40
0.8750000000000009
 40
0.8750000000000009
 40
1.0
 40
1.0
 40
1.0
 40
1.0
 10
221.0089165410417
 20
114.4686617885793
 30
0.0
 10
220.9045457539187
 20
114.6924553584925
 30
0.0
 10
220.7661385741824
 20
114.8896886773635
 30
0.0
 10
220.4291250757456
 20
115.2398898747877
 30
0.0
 10
220.237529951016
 20
115.3851884867412
 30
0.0
 10
219.8100670239512
 20
115.6165862254573
 30
0.0
 10
219.581653165148
 20
115.698350306454
 30
0.0
 10
219.2201487122835
 20
115.7631026863875
 30
0.0
 10
219.0957263565554
 20
115.7746600181808
 30
0.0
 10
218.8514644393576
 20
115.7755833006983
 30
0.0
 10
218.7301450132153
 20
115.7653167354462
 30
0.0
 10
218.4891952999854
 20
115.7222031650545
 30
0.0
 10
218.3693864731507
 20
115.6889318675968
 30
0.0
 10
218.1428296254899
 20
115.6023644931037
 30
0.0
 10
218.0345350022218
 20
115.5489010371299
 30
0.0
 10
217.7239975501389
 20
115.3576989514363
 30
0.0
 10
217.5446825432951
 20
115.1945231664584
 30
0.0
 10
217.3215173549937
 20
114.9072740904876
 30
0.0
 10
217.2559476249947
 20
114.8059555272681
 30
0.0
 10
217.1414994270912
 20
114.5923257086917
 30
0.0
 10
217.0922633626646
 20
114.4788301811632
 30
0.0
 10
217.0133741864578
 20
114.2461895586207
 30
0.0
 10
216.9836780234071
 20
114.1276485056069
 30
0.0
 10
216.9434014775681
 20
113.8861814107103
 30
0.0
 10
216.9328765134508
 20
113.7618893947224
 30
0.0
 10
216.9323199996993
 20
113.5164767409956
 30
0.0
 10
216.9420086243605
 20
113.3954895703675
 30
0.0
 10
216.981065093547
 20
113.1568553218852
 30
0.0
 10
217.0108953861472
 20
113.0382479015137
 30
0.0
 10
217.0886099233805
 20
112.8127603313252
 30
0.0
 10
217.1364543559963
 20
112.7050434617957
 30
0.0
 10
217.2503703587895
 20
112.4992388762736
 30
0.0
 10
217.316783294139
 20
112.4010902967791
 30
0.0
 10
217.4637011562406
 20
112.2212430500718
 30
0.0
 10
217.5446826054267
 20
112.1385214906311
 30
0.0
 10
217.7228107499161
 20
111.9872593470509
 30
0.0
 10
217.8198534446632
 20
111.9191604434273
 30
0.0
 10
218.0234445884387
 20
111.8024413101968
 30
0.0
 10
218.1308579289673
 20
111.7530215714054
 30
0.0
 10
218.3580436621615
 20
111.6723987127239
 30
0.0
 10
218.4771056116189
 20
111.6417586830803
 30
0.0
 10
218.8366704690671
 20
111.5812928965826
 30
0.0
 10
219.0891655817003
 20
111.5818464049037
 30
0.0
 10
219.571477844654
 20
111.6579189504053
 30
0.0
 10
219.8055039281728
 20
111.7331484265303
 30
0.0
 10
220.444932730166
 20
112.0490977793056
 30
0.0
 10
220.7999882265512
 20
112.3815161709441
 30
0.0
 10
221.0089165410417
 20
112.8139653358944
 30
0.0
  0
LINE
  5
157
330
1F
100
AcDbEntity
  8
0
  6
HIDDEN
 62
     7
370
     0
100
AcDbLine
 10
239.169830349
 20
75.7109430569
 30
0.0
 11
239.1056978562
 21
75.7143040984
 31
0.0
  0
LINE
  5
158
330
1F
100
AcDbEntity
  8
0
  6
HIDDEN
 62
     7
370
     0
100
AcDbLine
 10
246.0468872486
 20
70.3379973485
 30
0.0
 11
239.169830349
 21
75.7109430569
 31
0.0
  0
LINE
  5
159
330
1F
100
AcDbEntity
  8
0
  6
HIDDEN
 62
     7
370
     0
100
AcDbLine
 10
245.9827547558
 20
70.34135839
 30
0.0
 11
246.0468872486
 21
70.3379973485
 31
0.0
  0
SPLINE
  5
15A
330
1F
100
AcDbEntity
  8
0
  6
HIDDEN
 62
     7
370
     0
100
AcDbSpline
210
0.0
220
0.0
230
1.0
 70
     8
 71
     3
 72
    18
 73
    14
 74
     0
 42
0.00000001
 43
0.00000001
 40
0.0
 40
0.0
 40
0.0
 40
0.0
 40
0.2500000000000001
 40
0.2500000000000001
 40
0.3750000000000002
 40
0.3750000000000002
 40
0.5000000000000002
 40
0.5000000000000002
 40
0.7500000000000002
 40
0.7500000000000002
 40
0.8750000000000001
 40
0.8750000000000001
 40
1.0
 40
1.0
 40
1.0
 40
1.0
 10
237.5220411531763
 20
70.78476560110985
 30
0.0
 10
237.5213874375671
 20
70.80453069151022
 30
0.0
 10
237.51266890404
 20
71.0682830790616
 30
0.0
 10
237.4877719191162
 20
71.82002786509025
 30
0.0
 10
237.4774741022344
 20
72.13080994191156
 30
0.0
 10
237.452827640534
 20
72.87379085670018
 30
0.0
 10
237.4386482440259
 20
73.3008845082358
 30
0.0
 10
237.3906947049533
 20
74.74325386715059
 30
0.0
 10
237.3515586524614
 20
75.91812960727918
 30
0.0
 10
237.2817217099192
 20
78.00566756180996
 30
0.0
 10
237.25651518644
 20
78.75782604496884
 30
0.0
 10
237.2030590928761
 20
80.3492810854576
 30
0.0
 10
237.174725796108
 20
81.19108798775049
 30
0.0
 10
237.1447526816326
 20
82.07932200784464
 30
0.0
  0
LINE
  5
15B
330
1F
100
AcDbEntity
  8
0
  6
HIDDEN
 62
     7
370
     0
100
AcDbLine
 10
235.076414017
 20
79.9122491376
 30
0.0
 11
249.908916541
 21
79.1349106191
 31
0.0
  0
LINE
  5
15C
330
1F
100
AcDbEntity
  8
0
  6
HIDDEN
 62
     7
370
     0
100
AcDbLine
 10
249.908916541
 20
78.8939226141
 30
0.0
 11
249.908916541
 21
79.1349106191
 31
0.0
  0
LINE
  5
15D
330
1F
100
AcDbEntity
  8
0
  6
HIDDEN
 62
     7
370
     0
100
AcDbLine
 10
249.908916541
 20
78.8939226141
 30
0.0
 11
235.161740229
 21
79.6667893753
 31
0.0
  0
SPLINE
  5
15E
330
1F
100
AcDbEntity
  8
0
  6
HIDDEN
 62
     7
370
     0
100
AcDbSpline
210
0.0
220
0.0
230
1.0
 70
     8
 71
     3
 72
     8
 73
     4
 74
     0
 42
0.00000001
 43
0.00000001
 40
0.0
 40
0.0
 40
0.0
 40
0.0
 40
1.0
 40
1.0
 40
1.0
 40
1.0
 10
235.0764140169623
 20
79.91224913761248
 30
0.0
 10
235.0998152557687
 20
79.83066315062176
 30
0.0
 10
235.1283078703902
 20
79.74884088420905
 30
0.0
 10
235.1617402289623
 20
79.66678937527175
 30
0.0
  0
LINE
  5
15F
330
1F
100
AcDbEntity
  8
0
  6
HIDDEN
 62
     7
370
     0
100
AcDbLine
 10
249.908916541
 20
79.1349106191
 30
0.0
 11
249.908916541
 21
79.1717965383
 31
0.0
  0
LINE
  5
160
330
1F
100
AcDbEntity
  8
0
  6
HIDDEN
 62
     7
370
     0
100
AcDbLine
 10
239.258200506
 20
75.9472997782
 30
0.0
 11
239.169830349
 21
75.7109430569
 31
0.0
  0
LINE
  5
161
330
1F
100
AcDbEntity
  8
0
  6
HIDDEN
 62
     7
370
     0
100
AcDbLine
 10
239.258200506
 20
75.9472997782
 30
0.0
 11
246.3751010949
 21
70.3869676429
 31
0.0
  0
ELLIPSE
  5
162
330
1F
100
AcDbEntity
  8
0
  6
HIDDEN
 62
     7
370
     0
100
AcDbEllipse
 10
193.7778984294
 20
111.1282622717
 30
0.0
 11
52.75875131289333
 21
-40.62421965344186
 31
0.0
210
0.0
220
0.0
230
1.0
 40
0.0697175754
 41
6.19034673580992
 42
6.241960718008896
  0
LINE
  5
163
330
1F
100
AcDbEntity
  8
0
  6
HIDDEN
 62
     7
370
     0
100
AcDbLine
 10
239.258200506
 20
75.9472997782
 30
0.0
 11
238.7750690602
 21
75.9726196244
 31
0.0
  0
CIRCLE
  5
164
330
1F
100
AcDbEntity
  8
0
  6
HIDDEN
 62
     7
370
     0
100
AcDbCircle
 10
221.8467809664
 20
112.2431762546
 30
0.0
 40
2.089514961746574
  0
CIRCLE
  5
165
330
1F
100
AcDbEntity
  8
0
  6
HIDDEN
 62
     7
370
     0
100
AcDbCircle
 10
248.3110682957
 20
74.5215553525
 30
0.0
 40
2.400000000000006
  0
LINE
  5
166
330
1F
100
AcDbEntity
  8
0
  6
HIDDEN
 62
     7
370
     0
100
AcDbLine
 10
249.908916541
 20
78.3460885464
 30
0.0
 11
260.7639063924
 21
69.8652409997
 31
0.0
  0
LINE
  5
167
330
1F
100
AcDbEntity
  8
0
  6
HIDDEN
 62
     7
370
     0
100
AcDbLine
 10
249.908916541
 20
78.8939226141
 30
0.0
 11
249.908916541
 21
78.3460885464
 31
0.0
  0
LINE
  5
168
330
1F
100
AcDbEntity
  8
0
  6
HIDDEN
 62
     7
370
     0
100
AcDbLine
 10
260.7639063924
 20
69.8652409997
 30
0.0
 11
246.056311479
 21
70.6360333877
 31
0.0
  0
LINE
  5
169
330
1F
100
AcDbEntity
  8
0
  6
HIDDEN
 62
     7
370
     0
100
AcDbLine
 10
235.5394780736
 20
78.5005403555
 30
0.0
 11
235.2307844244
 21
79.6631709223
 31
0.0
  0
CIRCLE
  5
16A
330
1F
100
AcDbEntity
  8
0
  6
HIDDEN
 62
     7
370
     0
100
AcDbCircle
 10
248.3110682957
 20
74.5215553525
 30
0.0
 40
1.650000000000006
  0
LINE
  5
16B
330
1F
100
AcDbEntity
  8
0
  6
HIDDEN
 62
     7
370
     0
100
AcDbLine
 10
206.998916541
 20
134.1858851419
 30
0.0
 11
206.998916541
 21
133.8501397517
 31
0.0
  0
LINE
  5
16C
330
1F
100
AcDbEntity
  8
0
  6
HIDDEN
 62
     7
370
     0
100
AcDbLine
 10
210.818916541
 20
134.1858851419
 30
0.0
 11
210.818916541
 21
133.8501397517
 31
0.0
  0
LINE
  5
16D
330
1F
100
AcDbEntity
  8
0
  6
HIDDEN
 62
     7
370
     0
100
AcDbLine
 10
212.3008493725
 20
138.4588294141
 30
0.0
 11
212.3008493725
 21
133.8501397517
 31
0.0
  0
SPLINE
  5
16E
330
1F
100
AcDbEntity
  8
0
  6
HIDDEN
 62
     7
370
     0
100
AcDbSpline
210
0.0
220
0.0
230
1.0
 70
     8
 71
     3
 72
    12
 73
     8
 74
     0
 42
0.00000001
 43
0.00000001
 40
0.0
 40
0.0
 40
0.0
 40
0.0
 40
0.249999999999996
 40
0.249999999999996
 40
0.499999999999992
 40
0.499999999999992
 40
1.0
 40
1.0
 40
1.0
 40
1.0
 10
247.5913795771217
 20
73.03678326621049
 30
0.0
 10
247.6951342672891
 20
73.04393781065335
 30
0.0
 10
247.8003048769792
 20
73.04896330568789
 30
0.0
 10
248.014914520938
 20
73.05245520914276
 30
0.0
 10
248.1254940495599
 20
73.05075044389882
 30
0.0
 10
248.4512892038594
 20
73.0336472285772
 30
0.0
 10
248.6649148532375
 20
73.00592979966557
 30
0.0
 10
248.8716135397055
 20
72.96968904726872
 30
0.0
  0
LINE
  5
16F
330
1F
100
AcDbEntity
  8
0
  6
HIDDEN
 62
     7
370
     0
100
AcDbLine
 10
233.1768657335
 20
135.7487754672
 30
0.0
 11
233.1768657335
 21
114.0001397517
 31
0.0
  0
CIRCLE
  5
170
330
1F
100
AcDbEntity
  8
0
  6
HIDDEN
 62
     7
370
     0
100
AcDbCircle
 10
221.8920832602
 20
112.2167842241
 30
0.0
 40
2.487000801551563
  0
CIRCLE
  5
171
330
1F
100
AcDbEntity
  8
0
  6
HIDDEN
 62
     7
370
     0
100
AcDbCircle
 10
197.908916541
 20
114.0001397517
 30
0.0
 40
5.0
  0
LINE
  5
172
330
1F
100
AcDbEntity
  8
0
  6
HIDDEN
 62
     7
370
     0
100
AcDbLine
 10
249.908916541
 20
81.4103805256
 30
0.0
 11
237.1447526816
 21
82.0793220078
 31
0.0
  0
SPLINE
  5
173
330
1F
100
AcDbEntity
  8
0
  6
HIDDEN
 62
     7
370
     0
100
AcDbSpline
210
0.0
220
0.0
230
1.0
 70
     8
 71
     3
 72
    16
 73
    12
 74
     0
 42
0.00000001
 43
0.00000001
 40
0.0
 40
0.0
 40
0.0
 40
0.0
 40
0.125
 40
0.125
 40
0.2500000000000001
 40
0.2500000000000001
 40
0.5
 40
0.5
 40
0.75
 40
0.75
 40
1.0
 40
1.0
 40
1.0
 40
1.0
 10
233.1768657334729
 20
114.0001397517006
 30
0.0
 10
233.1768657334729
 20
112.6605336501544
 30
0.0
 10
233.203724787465
 20
111.3190066505928
 30
0.0
 10
233.3098621787163
 20
108.6322037444073
 30
0.0
 10
233.3892348174557
 20
107.2861253941874
 30
0.0
 10
233.697362295627
 20
103.2636078934065
 30
0.0
 10
233.9961350093809
 20
100.595856868121
 30
0.0
 10
234.72439572273
 20
95.27985590393176
 30
0.0
 10
235.1532997301357
 20
92.63151884069487
 30
0.0
 10
236.0942193995215
 20
87.34724393398156
 30
0.0
 10
236.6062991738777
 20
84.7113156552701
 30
0.0
 10
237.1447526816326
 20
82.07932200784462
 30
0.0
  0
LINE
  5
174
330
1F
100
AcDbEntity
  8
0
  6
HIDDEN
 62
     7
370
     0
100
AcDbLine
 10
220.7592522416
 20
110.0079123411
 30
0.0
 11
221.0631365526
 21
109.8577069515
 31
0.0
  0
LINE
  5
175
330
1F
100
AcDbEntity
  8
0
  6
HIDDEN
 62
     7
370
     0
100
AcDbLine
 10
223.2786870194
 20
114.340042964
 30
0.0
 11
222.9748027084
 21
114.4902483536
 31
0.0
  0
LINE
  5
176
330
1F
100
AcDbEntity
  8
0
  6
HIDDEN
 62
     7
370
     0
100
AcDbLine
 10
221.1639541148
 20
110.3656192536
 30
0.0
 11
221.8837778122
 21
110.0098213562
 31
0.0
  0
LINE
  5
177
330
1F
100
AcDbEntity
  8
0
  6
HIDDEN
 62
     7
370
     0
100
AcDbLine
 10
223.6562181856
 20
113.5956901662
 30
0.0
 11
222.9363944882
 21
113.9514880636
 31
0.0
  0
LINE
  5
178
330
1F
100
AcDbEntity
  8
0
  6
HIDDEN
 62
     7
370
     0
100
AcDbLine
 10
221.5424055229
 20
109.6208115943
 30
0.0
 11
221.6379120206
 21
109.5736041861
 31
0.0
  0
LINE
  5
179
330
1F
100
AcDbEntity
  8
0
  6
HIDDEN
 62
     7
370
     0
100
AcDbLine
 10
223.8534624874
 20
114.0559401986
 30
0.0
 11
223.7579559897
 21
114.1031476068
 31
0.0
  0
CIRCLE
  5
17A
330
1F
100
AcDbEntity
  8
0
  6
HIDDEN
 62
     7
370
     0
100
AcDbCircle
 10
222.3532423725
 20
112.008751724
 30
0.0
 40
2.000000000000008
  0
CIRCLE
  5
17B
330
1F
100
AcDbEntity
  8
0
  6
HIDDEN
 62
     7
370
     0
100
AcDbCircle
 10
248.3110682957
 20
74.5215553525
 30
0.0
 40
1.809570484150209
  0
LINE
  5
17C
330
1F
100
AcDbEntity
  8
0
  6
HIDDEN
 62
     7
370
     0
100
AcDbLine
 10
190.908916541
 20
88.6762158306
 30
0.0
 11
191.0030773823
 21
89.3462050294
 31
0.0
  0
LINE
  5
17D
330
1F
100
AcDbEntity
  8
0
  6
HIDDEN
 62
     7
370
     0
100
AcDbLine
 10
191.0030773823
 20
138.654074474
 30
0.0
 11
190.908916541
 21
139.3240636728
 31
0.0
  0
ARC
  5
17E
330
1F
100
AcDbEntity
  8
0
  6
HIDDEN
 62
     7
370
     0
100
AcDbCircle
 10
190.408916541
 20
89.42970889
 30
0.0
 40
0.5999999999999943
100
AcDbArc
 50
352.0
 51
0.0
  0
ARC
  5
17F
330
1F
100
AcDbEntity
  8
0
  6
HIDDEN
 62
     7
370
     0
100
AcDbCircle
 10
190.408916541
 20
89.42970889
 30
0.0
 40
0.5999999999999943
100
AcDbArc
 50
0.0
 51
33.5573097619
  0
ARC
  5
180
330
1F
100
AcDbEntity
  8
0
  6
HIDDEN
 62
     7
370
     0
100
AcDbCircle
 10
190.408916541
 20
138.5705706134
 30
0.0
 40
0.599999999999998
100
AcDbArc
 50
348.75
 51
8.0
  0
LWPOLYLINE
  5
181
330
1F
100
AcDbEntity
  8
0
  6
HIDDEN
 62
     7
370
     0
100
AcDbPolyline
 90
        3
 70
   128
 43
0.0
 10
190.9973877093
 20
138.4535164202
 10
190.9632442605
 20
138.340960554
 10
190.908916541
 20
138.2389081344
  0
LINE
  5
182
330
1F
100
AcDbEntity
  8
0
  6
HIDDEN
 62
     7
370
     0
100
AcDbLine
 10
191.008916541
 20
89.42970889
 30
0.0
 11
191.008916541
 21
138.5705706134
 31
0.0
  0
LINE
  5
183
330
1F
100
AcDbEntity
  8
0
  6
HIDDEN
 62
     7
370
     0
100
AcDbLine
 10
213.8274638259
 20
113.8803857593
 30
0.0
 11
216.7016846682
 21
112.4597021445
 31
0.0
  0
LINE
  5
184
330
1F
100
AcDbEntity
  8
0
  6
HIDDEN
 62
     7
370
     0
100
AcDbLine
 10
213.2959764616
 20
114.1430918739
 30
0.0
 11
213.3709225732
 21
114.1060471517
 31
0.0
  0
LINE
  5
185
330
1F
100
AcDbEntity
  8
0
  6
HIDDEN
 62
     7
370
     0
100
AcDbLine
 10
218.6196972639
 20
116.1967147762
 30
0.0
 11
215.1570388537
 21
117.9082541244
 31
0.0
  0
LINE
  5
186
330
1F
100
AcDbEntity
  8
0
  6
HIDDEN
 62
     7
370
     0
100
AcDbLine
 10
212.5234208368
 20
114.5552453855
 30
0.0
 11
224.9584595344
 21
102.4696796169
 31
0.0
  0
LINE
  5
187
330
1F
100
AcDbEntity
  8
0
  6
HIDDEN
 62
     7
370
     0
100
AcDbLine
 10
224.553858415
 20
108.7197372915
 30
0.0
 11
216.5676051772
 21
116.4815457665
 31
0.0
  0
LINE
  5
188
330
1F
100
AcDbEntity
  8
0
  6
HIDDEN
 62
     7
370
     0
100
AcDbLine
 10
212.5661401061
 20
115.2241086302
 30
0.0
 11
212.504234137
 21
115.039229243
 31
0.0
  0
ARC
  5
189
330
1F
100
AcDbEntity
  8
0
  6
HIDDEN
 62
     7
370
     0
100
AcDbCircle
 10
184.6639185426
 20
102.0001397517
 30
0.0
 40
7.999999999999993
100
AcDbArc
 50
276.8735082878
 51
321.3178125465
  0
ARC
  5
18A
330
1F
100
AcDbEntity
  8
0
  6
HIDDEN
 62
     7
370
     0
100
AcDbCircle
 10
184.6639185426
 20
126.0001397517
 30
0.0
 40
7.99999999999998
100
AcDbArc
 50
38.6821874535
 51
83.118290522
  0
LINE
  5
18B
330
1F
100
AcDbEntity
  8
0
  6
HIDDEN
 62
     7
370
     0
100
AcDbLine
 10
173.9913521063
 20
94.0001397517
 30
0.0
 11
178.1830239945
 21
94.0001397517
 31
0.0
  0
LINE
  5
18C
330
1F
100
AcDbEntity
  8
0
  6
HIDDEN
 62
     7
370
     0
100
AcDbLine
 10
178.1830239945
 20
134.0001397517
 30
0.0
 11
173.9913521063
 21
134.0001397517
 31
0.0
  0
ARC
  5
18D
330
1F
100
AcDbEntity
  8
0
  6
HIDDEN
 62
     7
370
     0
100
AcDbCircle
 10
173.9913521063
 20
94.6001397517
 30
0.0
 40
0.6000000000000085
100
AcDbArc
 50
210.0
 51
270.0
  0
ARC
  5
18E
330
1F
100
AcDbEntity
  8
0
  6
HIDDEN
 62
     7
370
     0
100
AcDbCircle
 10
173.9913521063
 20
133.4001397517
 30
0.0
 40
0.6000000000000155
100
AcDbArc
 50
90.0
 51
150.0
  0
LINE
  5
18F
330
1F
100
AcDbEntity
  8
0
  6
HIDDEN
 62
     7
370
     0
100
AcDbLine
 10
173.4717368641
 20
133.7001397517
 30
0.0
 11
171.9128911373
 21
131.0001397517
 31
0.0
  0
LINE
  5
190
330
1F
100
AcDbEntity
  8
0
  6
HIDDEN
 62
     7
370
     0
100
AcDbLine
 10
171.9128911373
 20
97.0001397517
 30
0.0
 11
173.4717368641
 21
94.3001397517
 31
0.0
  0
ARC
  5
191
330
1F
100
AcDbEntity
  8
0
  6
HIDDEN
 62
     7
370
     0
100
AcDbCircle
 10
199.358916541
 20
98.2751397517
 30
0.0
 40
1.500000000000001
100
AcDbArc
 50
238.2116693829
 51
0.0
  0
ARC
  5
192
330
1F
100
AcDbEntity
  8
0
  6
HIDDEN
 62
     7
370
     0
100
AcDbCircle
 10
199.358916541
 20
129.7251397517
 30
0.0
 40
1.500000000000001
100
AcDbArc
 50
0.0
 51
121.7883306171
  0
LINE
  5
193
330
1F
100
AcDbEntity
  8
0
  6
HIDDEN
 62
     7
370
     0
100
AcDbLine
 10
169.108916541
 20
97.0001397517
 30
0.0
 11
171.9128911373
 21
97.0001397517
 31
0.0
  0
LINE
  5
194
330
1F
100
AcDbEntity
  8
0
  6
HIDDEN
 62
     7
370
     0
100
AcDbLine
 10
171.9128911373
 20
131.0001397517
 30
0.0
 11
165.108916541
 21
131.0001397517
 31
0.0
  0
LINE
  5
195
330
1F
100
AcDbEntity
  8
0
  6
HIDDEN
 62
     7
370
     0
100
AcDbLine
 10
190.908916541
 20
97.0001397517
 30
0.0
 11
198.5687425096
 21
97.0001397517
 31
0.0
  0
LINE
  5
196
330
1F
100
AcDbEntity
  8
0
  6
HIDDEN
 62
     7
370
     0
100
AcDbLine
 10
198.5687425096
 20
131.0001397517
 30
0.0
 11
190.908916541
 21
131.0001397517
 31
0.0
  0
LINE
  5
197
330
1F
100
AcDbEntity
  8
0
  6
HIDDEN
 62
     7
370
     0
100
AcDbLine
 10
210.208916541
 20
104.5001397517
 30
0.0
 11
212.708916541
 21
104.5001397517
 31
0.0
  0
LINE
  5
198
330
1F
100
AcDbEntity
  8
0
  6
HIDDEN
 62
     7
370
     0
100
AcDbLine
 10
212.708916541
 20
123.5001397517
 30
0.0
 11
210.208916541
 21
123.5001397517
 31
0.0
  0
LINE
  5
199
330
1F
100
AcDbEntity
  8
0
  6
HIDDEN
 62
     7
370
     0
100
AcDbLine
 10
200.858916541
 20
105.0001397517
 30
0.0
 11
201.358916541
 21
105.5001397517
 31
0.0
  0
LINE
  5
19A
330
1F
100
AcDbEntity
  8
0
  6
HIDDEN
 62
     7
370
     0
100
AcDbLine
 10
201.358916541
 20
122.5001397517
 30
0.0
 11
200.858916541
 21
123.0001397517
 31
0.0
  0
LINE
  5
19B
330
1F
100
AcDbEntity
  8
0
  6
HIDDEN
 62
     7
370
     0
100
AcDbLine
 10
201.358916541
 20
105.5001397517
 30
0.0
 11
210.208916541
 21
105.5001397517
 31
0.0
  0
LINE
  5
19C
330
1F
100
AcDbEntity
  8
0
  6
HIDDEN
 62
     7
370
     0
100
AcDbLine
 10
210.208916541
 20
122.5001397517
 30
0.0
 11
201.358916541
 21
122.5001397517
 31
0.0
  0
LINE
  5
19D
330
1F
100
AcDbEntity
  8
0
  6
HIDDEN
 62
     7
370
     0
100
AcDbLine
 10
195.858916541
 20
145.5001397517
 30
0.0
 11
195.858916541
 21
140.4001397517
 31
0.0
  0
LINE
  5
19E
330
1F
100
AcDbEntity
  8
0
  6
HIDDEN
 62
     7
370
     0
100
AcDbLine
 10
186.0933543715
 20
89.9207684182
 30
0.0
 11
185.658922222
 21
90.3998344373
 31
0.0
  0
LINE
  5
19F
330
1F
100
AcDbEntity
  8
0
  6
HIDDEN
 62
     7
370
     0
100
AcDbLine
 10
178.1589188969
 20
90.8215223964
 30
0.0
 11
177.6764851536
 21
90.3424564209
 31
0.0
  0
LINE
  5
1A0
330
1F
100
AcDbEntity
  8
0
  6
HIDDEN
 62
     7
370
     0
100
AcDbLine
 10
177.6763632254
 20
137.657817792
 30
0.0
 11
178.1589139763
 21
137.1786975341
 31
0.0
  0
LINE
  5
1A1
330
1F
100
AcDbEntity
  8
0
  6
HIDDEN
 62
     7
370
     0
100
AcDbLine
 10
185.658916423
 20
137.6003953118
 30
0.0
 11
186.0934588134
 21
138.0795155624
 31
0.0
  0
LINE
  5
1A2
330
1F
100
AcDbEntity
  8
0
  6
HIDDEN
 62
     7
370
     0
100
AcDbLine
 10
212.708916541
 20
109.8001397517
 30
0.0
 11
221.008916541
 21
109.8001397517
 31
0.0
  0
LINE
  5
1A3
330
1F
100
AcDbEntity
  8
0
  6
HIDDEN
 62
     7
370
     0
100
AcDbLine
 10
221.008916541
 20
118.2001397517
 30
0.0
 11
212.708916541
 21
118.2001397517
 31
0.0
  0
LINE
  5
1A4
330
1F
100
AcDbEntity
  8
0
  6
HIDDEN
 62
     7
370
     0
100
AcDbLine
 10
221.008916541
 20
109.8001397517
 30
0.0
 11
223.532531141
 21
114.0001397517
 31
0.0
  0
LINE
  5
1A5
330
1F
100
AcDbEntity
  8
0
  6
HIDDEN
 62
     7
370
     0
100
AcDbLine
 10
223.532531141
 20
114.0001397517
 30
0.0
 11
221.008916541
 21
118.2001397517
 31
0.0
  0
LINE
  5
1A6
330
1F
100
AcDbEntity
  8
0
  6
HIDDEN
 62
     7
370
     0
100
AcDbLine
 10
185.658916541
 20
90.400318339
 30
0.0
 11
185.658916541
 21
94.0647394135
 31
0.0
  0
LINE
  5
1A7
330
1F
100
AcDbEntity
  8
0
  6
HIDDEN
 62
     7
370
     0
100
AcDbLine
 10
178.158916541
 20
94.0045175198
 30
0.0
 11
178.158916541
 21
90.8218456342
 31
0.0
  0
LINE
  5
1A8
330
1F
100
AcDbEntity
  8
0
  6
HIDDEN
 62
     7
370
     0
100
AcDbLine
 10
185.658916541
 20
133.9355400899
 30
0.0
 11
185.658916541
 21
137.6001040057
 31
0.0
  0
LINE
  5
1A9
330
1F
100
AcDbEntity
  8
0
  6
HIDDEN
 62
     7
370
     0
100
AcDbLine
 10
178.158916541
 20
137.1785537549
 30
0.0
 11
178.158916541
 21
133.9957619836
 31
0.0
  0
LINE
  5
1AA
330
1F
100
AcDbEntity
  8
0
  6
HIDDEN
 62
     7
370
     0
100
AcDbLine
 10
218.0296094561
 20
111.8033291339
 30
0.0
 11
220.8947609384
 21
110.3871283657
 31
0.0
  0
LINE
  5
1AB
330
1F
100
AcDbEntity
  8
0
  6
HIDDEN
 62
     7
370
     0
100
AcDbLine
 10
222.7558233305
 20
114.1522906162
 30
0.0
 11
219.9469604832
 21
115.5406687688
 31
0.0
  0
LINE
  5
1AC
330
1F
100
AcDbEntity
  8
0
  6
HIDDEN
 62
     7
370
     0
100
AcDbLine
 10
220.7592522416
 20
110.0079123411
 30
0.0
 11
221.7505503609
 21
109.5179287689
 31
0.0
  0
LINE
  5
1AD
330
1F
100
AcDbEntity
  8
0
  6
HIDDEN
 62
     7
370
     0
100
AcDbLine
 10
224.0342038254
 20
113.9666025063
 30
0.0
 11
222.9748027084
 21
114.4902483536
 31
0.0
  0
LINE
  5
1AE
330
1F
100
AcDbEntity
  8
VERMASSUNG
100
AcDbLine
 10
262.408916541
 20
69.0001397517
 30
0.0
 11
252.540296588
 21
69.0001397517
 31
0.0
  0
DIMENSION
  5
1AF
330
1F
100
AcDbEntity
  8
VERMASSUNG
100
AcDbDimension
  2
*D1
 10
151.7981370968
 20
82.5001397517
 30
0.0
 11
151.7981370968
 21
114.0001397517
 31
0.0
 70
   160
  1
HSK %%c<>
 71
     2
 42
-1.0
  3
SLDDIMSTYLE0
100
AcDbAlignedDimension
 13
191.208916541
 23
145.5001397517
 33
0.0
 14
191.208916541
 24
82.5001397517
 34
0.0
 50
90.0
100
AcDbRotatedDimension
  0
DIMENSION
  5
1BC
330
1F
100
AcDbEntity
  8
VERMASSUNG
100
AcDbDimension
  2
*D2
 10
159.008916541
 20
159.25214044
 30
0.0
 11
210.708916541
 21
159.25214044
 31
0.0
 70
   160
 71
     2
 42
-1.0
  3
SLDDIMSTYLE0
100
AcDbAlignedDimension
 13
262.408916541
 23
69.0001397517
 33
0.0
 14
159.008916541
 24
133.6908174982
 34
0.0
100
AcDbRotatedDimension
  0
DIMENSION
  5
1C6
330
1F
100
AcDbEntity
  8
VERMASSUNG
100
AcDbDimension
  2
*D3
 10
262.408916541
 20
153.25214044
 30
0.0
 11
226.658916541
 21
153.25214044
 31
0.0
 70
   160
 71
     2
 42
-1.0
  3
SLDDIMSTYLE0
100
AcDbAlignedDimension
 13
190.908916541
 23
145.2001397517
 33
0.0
 14
262.408916541
 24
69.0001397517
 34
0.0
100
AcDbRotatedDimension
  0
DIMENSION
  5
1D0
330
1F
100
AcDbEntity
  8
VERMASSUNG
100
AcDbDimension
  2
*D4
 10
270.858584834
 20
69.0001397517
 30
0.0
 11
270.858584834
 21
91.5001397517
 31
0.0
 70
   160
 71
     2
 42
-1.0
  3
SLDDIMSTYLE0
100
AcDbAlignedDimension
 13
255.3840725806
 23
114.0001397517
 33
0.0
 14
262.408916541
 24
69.0001397517
 34
0.0
 50
90.0
100
AcDbRotatedDimension
  0
DIMENSION
  5
1DA
330
1F
100
AcDbEntity
  8
VERMASSUNG
100
AcDbDimension
  2
*D5
 10
252.540296588
 20
69.0001397517
 30
0.0
 11
231.3952075479
 21
63.8240211269
 31
0.0
 70
   162
 71
     1
 42
-1.0
  3
SLDDIMSTYLE1
100
AcDb2LineAngularDimension
 13
246.7963167299
 23
69.7968493865
 33
0.0
 14
262.0175450822
 24
68.9991386106
 34
0.0
 15
262.408916541
 25
69.0001397517
 35
0.0
 16
230.9711952025
 26
69.8126168074
 36
0.0
  0
LINE
  5
1E7
330
1F
100
AcDbEntity
  8
VERMASSUNG
  6
CENTERX2
370
     0
100
AcDbLine
 10
153.0196693548
 20
114.0001397517
 30
0.0
 11
255.3840725806
 21
114.0001397517
 31
0.0
  0
ARC
  5
1E8
330
1F
100
AcDbEntity
  8
0
  6
Continuous
 62
     7
370
    15
100
AcDbCircle
 10
91.4710298653
 20
70.7119848684
 30
0.0
 40
1.999999999999983
100
AcDbArc
 50
64.7943742942
 51
120.0
  0
ARC
  5
1E9
330
1F
100
AcDbEntity
  8
0
  6
Continuous
 62
     7
370
    15
100
AcDbCircle
 10
91.4710298653
 20
78.3311258367
 30
0.0
 40
2.000000000000008
100
AcDbArc
 50
240.0
 51
295.2056257058
  0
LINE
  5
1EA
330
1F
100
AcDbEntity
  8
0
  6
Continuous
 62
     7
370
    15
100
AcDbLine
 10
93.282766129
 20
69.8087662044
 30
0.0
 11
93.282766129
 21
78.5648944149
 31
0.0
  0
LINE
  5
1EB
330
1F
100
AcDbEntity
  8
0
  6
Continuous
 62
     7
370
    15
100
AcDbLine
 10
88.522766129
 20
69.6971183222
 30
0.0
 11
88.522766129
 21
79.0811026502
 31
0.0
  0
SPLINE
  5
1EC
330
1F
100
AcDbEntity
  8
0
  6
Continuous
 62
     7
370
    15
100
AcDbSpline
210
0.0
220
0.0
230
1.0
 70
     8
 71
     3
 72
    11
 73
     7
 74
     0
 42
0.00000001
 43
0.00000001
 40
0.0
 40
0.0
 40
0.0
 40
0.0
 40
0.2763423565394214
 40
0.5588781740971283
 40
0.7812812941997116
 40
1.0
 40
1.0
 40
1.0
 40
1.0
 10
93.28276612903208
 20
69.63143391011448
 30
0.0
 10
92.8552150489307
 20
69.57183800516177
 30
0.0
 10
91.99053049614399
 20
69.45131051541777
 30
0.0
 10
90.72772573661408
 20
69.28958523146791
 30
0.0
 10
89.56267738580473
 20
69.13984465519624
 30
0.0
 10
88.86746766417876
 20
69.04577873424043
 30
0.0
 10
88.52276612903576
 20
68.99913861062095
 30
0.0
  0
SPLINE
  5
1ED
330
1F
100
AcDbEntity
  8
0
  6
Continuous
 62
     7
370
    15
100
AcDbSpline
210
0.0
220
0.0
230
1.0
 70
    24
 71
     3
 72
    15
 73
    11
 74
     0
 42
0.00000001
 43
0.00000001
 40
0.0
 40
0.0
 40
0.0
 40
0.0
 40
0.143753177193095
 40
0.2878251343603508
 40
0.4234880042862219
 40
0.5497147666319223
 40
0.6718858481062429
 40
0.7962090644528641
 40
0.9276088781385745
 40
1.0
 40
1.0
 40
1.0
 40
1.0
 10
93.28276612903208
 20
69.80876620437252
 30
0.0
 10
93.28276612903208
 20
69.80030256993183
 30
0.0
 10
93.2827661290321
 20
69.78335653251109
 30
0.0
 10
93.28276612903201
 20
69.74899344897275
 30
0.0
 10
93.28276612903232
 20
69.71386752700401
 30
0.0
 10
93.28276612903117
 20
69.68223053488425
 30
0.0
 10
93.28276612903232
 20
69.656824422695
 30
0.0
 10
93.282766129032
 20
69.63904952280889
 30
0.0
 10
93.2827661290321
 20
69.63134330934933
 30
0.0
 10
93.28276612903208
 20
69.63141016240584
 30
0.0
 10
93.28276612903208
 20
69.63143391011448
 30
0.0
  0
SPLINE
  5
1EE
330
1F
100
AcDbEntity
  8
0
  6
Continuous
 62
     7
370
    15
100
AcDbSpline
210
0.0
220
0.0
230
1.0
 70
    24
 71
     3
 72
    15
 73
    11
 74
     0
 42
0.00000001
 43
0.00000001
 40
0.0
 40
0.0
 40
0.0
 40
0.0
 40
0.1411619226999042
 40
0.2818342648202549
 40
0.4169666844434413
 40
0.5461338408377899
 40
0.6723563608105426
 40
0.7999811958597277
 40
0.9323887207821174
 40
1.0
 40
1.0
 40
1.0
 40
1.0
 10
88.52276612903208
 20
68.99913861062045
 30
0.0
 10
88.52276612903192
 20
69.00124261474538
 30
0.0
 10
88.52276612903162
 20
69.00544332584641
 30
0.0
 10
88.52276612903384
 20
69.07057702074668
 30
0.0
 10
88.52276612902583
 20
69.16948336794155
 30
0.0
 10
88.52276612903026
 20
69.29107380395409
 30
0.0
 10
88.52276612903256
 20
69.4203525556739
 30
0.0
 10
88.52276612903194
 20
69.54588754724439
 30
0.0
 10
88.52276612903209
 20
69.63904196055917
 30
0.0
 10
88.52276612903208
 20
69.6824465145659
 30
0.0
 10
88.52276612903208
 20
69.69711832221364
 30
0.0
  0
SPLINE
  5
1EF
330
1F
100
AcDbEntity
  8
0
  6
Continuous
 62
     7
370
    15
100
AcDbSpline
210
0.0
220
0.0
230
1.0
 70
    24
 71
     3
 72
    10
 73
     6
 74
     0
 42
0.00000001
 43
0.00000001
 40
0.0
 40
0.0
 40
0.0
 40
0.0
 40
0.4164755080795023
 40
0.7035821713603223
 40
1.0
 40
1.0
 40
1.0
 40
1.0
 10
93.28276612903211
 20
78.58579930095377
 30
0.0
 10
93.28276612903191
 20
78.58473591773246
 30
0.0
 10
93.28276612903159
 20
78.58293946761397
 30
0.0
 10
93.28276612903223
 20
78.57506331988776
 30
0.0
 10
93.28276612903215
 20
78.56831991752294
 30
0.0
 10
93.28276612903211
 20
78.56489441488459
 30
0.0
  0
SPLINE
  5
1F0
330
1F
100
AcDbEntity
  8
0
  6
Continuous
 62
     7
370
    15
100
AcDbSpline
210
0.0
220
0.0
230
1.0
 70
    24
 71
     3
 72
    10
 73
     6
 74
     0
 42
0.00000001
 43
0.00000001
 40
0.0
 40
0.0
 40
0.0
 40
0.0
 40
0.2724816576280295
 40
0.5447570452796745
 40
1.0
 40
1.0
 40
1.0
 40
1.0
 10
88.52276612903212
 20
79.0811026502217
 30
0.0
 10
88.5227661290321
 20
79.0937651043725
 30
0.0
 10
88.5227661290321
 20
79.119080427133
 30
0.0
 10
88.5227661290321
 20
79.15205282867862
 30
0.0
 10
88.5227661290321
 20
79.15984565961142
 30
0.0
 10
88.52276612903212
 20
79.16472200591481
 30
0.0
  0
LINE
  5
1F1
330
1F
100
AcDbEntity
  8
0
  6
Continuous
 62
     7
370
    15
100
AcDbLine
 10
88.822766129
 20
79.922183149
 30
0.0
 11
88.522766129
 21
79.9624327818
 31
0.0
  0
LINE
  5
1F2
330
1F
100
AcDbEntity
  8
0
  6
Continuous
 62
     7
370
    15
100
AcDbLine
 10
93.282766129
 20
78.585799301
 30
0.0
 11
93.282766129
 21
78.5865399546
 31
0.0
  0
LINE
  5
1F3
330
1F
100
AcDbEntity
  8
0
  6
Continuous
 62
     7
370
    15
100
AcDbLine
 10
88.522766129
 20
79.1647220059
 30
0.0
 11
88.522766129
 21
79.9624327818
 31
0.0
  0
LINE
  5
1F4
330
1F
100
AcDbEntity
  8
0
  6
Continuous
 62
     7
370
    15
100
AcDbLine
 10
89.522766129
 20
71.8965553525
 30
0.0
 11
89.522766129
 21
77.1465553525
 31
0.0
  0
LINE
  5
1F5
330
1F
100
AcDbEntity
  8
0
  6
Continuous
 62
     7
370
    15
100
AcDbLine
 10
112.1021055411
 20
78.3460885464
 30
0.0
 11
93.282766129
 21
78.3460885464
 31
0.0
  0
ELLIPSE
  5
1F6
330
1F
100
AcDbEntity
  8
0
  6
Continuous
 62
     7
370
    15
100
AcDbEllipse
 10
88.522766129
 20
110.3321500375
 30
0.0
 11
1.364242052659392E-12
 21
40.78817500106736
 31
0.0
210
0.0
220
0.0
230
1.0
 40
0.9316425655
 41
3.267185727419552
 42
3.810984173077065
  0
LINE
  5
1F7
330
1F
100
AcDbEntity
  8
0
  6
Continuous
 62
     7
370
    15
100
AcDbLine
 10
93.282766129
 20
78.8939226141
 30
0.0
 11
90.782766129
 21
78.8939226141
 31
0.0
  0
LINE
  5
1F8
330
1F
100
AcDbEntity
  8
0
  6
Continuous
 62
     7
370
    15
100
AcDbLine
 10
88.822766129
 20
79.1349106191
 30
0.0
 11
88.822766129
 21
111.8529304577
 31
0.0
  0
LINE
  5
1F9
330
1F
100
AcDbEntity
  8
0
  6
Continuous
 62
     7
370
    15
100
AcDbLine
 10
115.522766129
 20
111.8529304577
 30
0.0
 11
88.822766129
 21
111.8529304577
 31
0.0
  0
LINE
  5
1FA
330
1F
100
AcDbEntity
  8
0
  6
Continuous
 62
     7
370
    15
100
AcDbLine
 10
115.522766129
 20
81.4103805256
 30
0.0
 11
115.522766129
 21
111.8529304577
 31
0.0
  0
LINE
  5
1FB
330
1F
100
AcDbEntity
  8
0
  6
Continuous
 62
     7
370
    15
100
AcDbLine
 10
93.282766129
 20
78.8939226141
 30
0.0
 11
93.282766129
 21
78.5865399546
 31
0.0
  0
LINE
  5
1FC
330
1F
100
AcDbEntity
  8
0
  6
Continuous
 62
     7
370
    15
100
AcDbLine
 10
93.282766129
 20
78.585799301
 30
0.0
 11
93.282766129
 21
78.585713444
 31
0.0
  0
ELLIPSE
  5
1FD
330
1F
100
AcDbEntity
  8
0
  6
Continuous
 62
     7
370
    15
100
AcDbEllipse
 10
88.522766129
 20
108.1865602635
 30
0.0
 11
1.421085471520200E-14
 21
38.05214914792104
 31
0.0
210
-3.365728748337315E-15
220
1.256956133212608E-30
230
1.0
 40
0.9986295348
 41
3.810984173077034
 42
3.931838538365197
  0
LINE
  5
1FE
330
1F
100
AcDbEntity
  8
0
  6
Continuous
 62
     7
370
    15
100
AcDbLine
 10
88.822766129
 20
111.8529304577
 30
0.0
 11
88.822766129
 21
134.5548255455
 31
0.0
  0
ELLIPSE
  5
1FF
330
1F
100
AcDbEntity
  8
0
  6
Continuous
 62
     7
370
    15
100
AcDbEllipse
 10
82.822766129
 20
134.5548255455
 30
0.0
 11
4.263256414560601E-14
 21
8.568888040452805
 31
0.0
210
0.0
220
0.0
230
1.0
 40
0.7002075382
 41
4.712388980384703
 42
5.397780545854379
  0
ARC
  5
200
330
1F
100
AcDbEntity
  8
0
  6
Continuous
 62
     7
370
    15
100
AcDbCircle
 10
88.522766129
 20
114.0001397517
 30
0.0
 40
26.00000000000004
100
AcDbArc
 50
63.2975833244
 51
92.3254641784
  0
SPLINE
  5
201
330
1F
100
AcDbEntity
  8
0
  6
Continuous
 62
     7
370
    15
100
AcDbSpline
210
0.0
220
0.0
230
1.0
 70
     8
 71
     3
 72
    14
 73
    10
 74
     0
 42
0.00000001
 43
0.00000001
 40
0.0
 40
0.0
 40
0.0
 40
0.0
 40
0.25
 40
0.25
 40
0.5
 40
0.5
 40
0.75
 40
0.75
 40
1.0
 40
1.0
 40
1.0
 40
1.0
 10
100.206039800727
 20
137.2273030807057
 30
0.0
 10
100.4986807063152
 20
137.0801045726877
 30
0.0
 10
100.7964768224686
 20
136.9406923128018
 30
0.0
 10
101.399895175696
 20
136.6736880899179
 30
0.0
 10
101.7057103423807
 20
136.5461360665596
 30
0.0
 10
102.3264213582367
 20
136.3057968975989
 30
0.0
 10
102.6401937427841
 20
136.1932133747478
 30
0.0
 10
103.2792596382374
 20
135.9936252376018
 30
0.0
 10
103.603722295378
 20
135.9047759831368
 30
0.0
 10
103.9425492790823
 20
135.8478180372303
 30
0.0
  0
SPLINE
  5
202
330
1F
100
AcDbEntity
  8
0
  6
Continuous
 62
     7
370
    15
100
AcDbSpline
210
0.0
220
0.0
230
1.0
 70
     8
 71
     3
 72
     8
 73
     4
 74
     0
 42
0.00000001
 43
0.00000001
 40
0.0
 40
0.0
 40
0.0
 40
0.0
 40
1.0
 40
1.0
 40
1.0
 40
1.0
 10
104.5226675197643
 20
135.7487754672269
 30
0.0
 10
104.3294767612076
 20
135.7822625237346
 30
0.0
 10
104.1361055061316
 20
135.8152805899774
 30
0.0
 10
103.9425492790823
 20
135.8478180372303
 30
0.0
  0
ARC
  5
203
330
1F
100
AcDbEntity
  8
0
  6
Continuous
 62
     7
370
    15
100
AcDbCircle
 10
88.522766129
 20
114.0001397517
 30
0.0
 40
27.00000000000003
100
AcDbArc
 50
0.0
 51
53.6590566882
  0
LINE
  5
204
330
1F
100
AcDbEntity
  8
0
  6
Continuous
 62
     7
370
    15
100
AcDbLine
 10
115.522766129
 20
111.8529304577
 30
0.0
 11
115.522766129
 21
114.0001397517
 31
0.0
  0
SPLINE
  5
205
330
1F
100
AcDbEntity
  8
0
  6
Continuous
 62
     7
370
    15
100
AcDbSpline
210
0.0
220
0.0
230
1.0
 70
     8
 71
     3
 72
    10
 73
     6
 74
     0
 42
0.00000001
 43
0.00000001
 40
0.0
 40
0.0
 40
0.0
 40
0.0
 40
0.5
 40
0.5
 40
1.0
 40
1.0
 40
1.0
 40
1.0
 10
88.75406595925958
 20
87.2599591380416
 30
0.0
 10
88.74521023970101
 20
87.47641087499063
 30
0.0
 10
88.72518994990315
 20
87.66626854479463
 30
0.0
 10
88.64875169274052
 20
87.93203754244327
 30
0.0
 10
88.59338244594089
 20
88.00014171359369
 30
0.0
 10
88.52349220501641
 20
88.00013976183887
 30
0.0
  0
SPLINE
  5
206
330
1F
100
AcDbEntity
  8
0
  6
Continuous
 62
     7
370
    15
100
AcDbSpline
210
0.0
220
0.0
230
1.0
 70
     8
 71
     3
 72
    18
 73
    14
 74
     0
 42
0.00000001
 43
0.00000001
 40
0.0
 40
0.0
 40
0.0
 40
0.0
 40
0.2500000000000003
 40
0.2500000000000003
 40
0.3750000000000005
 40
0.3750000000000005
 40
0.5000000000000007
 40
0.5000000000000007
 40
0.6250000000000009
 40
0.6250000000000009
 40
0.750000000000001
 40
0.750000000000001
 40
1.0
 40
1.0
 40
1.0
 40
1.0
 10
88.52349220501641
 20
88.00013976183887
 30
0.0
 10
88.36696458095727
 20
88.00013539064854
 30
0.0
 10
88.15481287353386
 20
88.00138248688407
 30
0.0
 10
87.75589508115993
 20
88.01111127766558
 30
0.0
 10
87.60813924206606
 20
88.01574582745906
 30
0.0
 10
87.29047981825411
 20
88.02887215843917
 30
0.0
 10
87.12105648762513
 20
88.03732744979605
 30
0.0
 10
86.76165346828321
 20
88.05922814977555
 30
0.0
 10
86.57167280819374
 20
88.07267019254886
 30
0.0
 10
86.1708439161964
 20
88.10595305290408
 30
0.0
 10
85.95923583234423
 20
88.1259131472349
 30
0.0
 10
85.31058743921315
 20
88.19566207999031
 30
0.0
 10
84.85471000843432
 20
88.25560976831783
 30
0.0
 10
84.3756803996473
 20
88.33300746246483
 30
0.0
  0
SPLINE
  5
207
330
1F
100
AcDbEntity
  8
0
  6
Continuous
 62
     7
370
    15
100
AcDbSpline
210
0.0
220
0.0
230
1.0
 70
     8
 71
     3
 72
    12
 73
     8
 74
     0
 42
0.00000001
 43
0.00000001
 40
0.0
 40
0.0
 40
0.0
 40
0.0
 40
0.5000000000000016
 40
0.5000000000000016
 40
0.7500000000000008
 40
0.7500000000000008
 40
1.0
 40
1.0
 40
1.0
 40
1.0
 10
84.3756803996473
 20
139.6672720409365
 30
0.0
 10
84.97926955106637
 20
139.7647950492747
 30
0.0
 10
85.54592516538438
 20
139.834611211255
 30
0.0
 10
86.3382332861236
 20
139.9095625682668
 30
0.0
 10
86.58845048143503
 20
139.9291315387549
 30
0.0
 10
87.05303583043629
 20
139.9596097957338
 30
0.0
 10
87.268878738088
 20
139.9706499278022
 30
0.0
 10
87.46779365798241
 20
139.9787277249783
 30
0.0
  0
ELLIPSE
  5
208
330
1F
100
AcDbEntity
  8
0
  6
Continuous
 62
     7
370
    15
100
AcDbEllipse
 10
71.4584384962
 20
105.5947084542
 30
0.0
 11
-1.994912198059694
 21
2.982157796204504
 31
0.0
210
0.0
220
0.0
230
0.9999999999999998
 40
0.5717468186
 41
0.0
 42
6.283185307179586
  0
ARC
  5
209
330
1F
100
AcDbEntity
  8
0
  6
Continuous
 62
     7
370
    15
100
AcDbCircle
 10
88.522766129
 20
114.0001397517
 30
0.0
 40
26.00000000000004
100
AcDbArc
 50
99.1780670049
 51
260.8219329951
  0
SPLINE
  5
20A
330
1F
100
AcDbEntity
  8
0
  6
Continuous
 62
     7
370
    15
100
AcDbSpline
210
0.0
220
0.0
230
1.0
 70
    24
 71
     3
 72
    20
 73
    16
 74
     0
 42
0.00000001
 43
0.00000001
 40
0.0
 40
0.0
 40
0.0
 40
0.0
 40
0.25
 40
0.25
 40
0.375
 40
0.375
 40
0.4375
 40
0.4375
 40
0.46875
 40
0.46875
 40
0.5
 40
0.5
 40
0.75
 40
0.75
 40
1.0
 40
1.0
 40
1.0
 40
1.0
 10
94.18315480826618
 20
140.4001397517007
 30
0.0
 10
93.22207075512652
 20
140.4001397517007
 30
0.0
 10
92.26197243323011
 20
140.4001397517007
 30
0.0
 10
90.82165644506428
 20
140.4001397517007
 30
0.0
 10
90.34152809548438
 20
140.4001397517007
 30
0.0
 10
89.6211420390237
 20
140.4001397517007
 30
0.0
 10
89.38098151825916
 20
140.4001397517007
 30
0.0
 10
89.02068078665454
 20
140.4001397517007
 30
0.0
 10
88.90057062705992
 20
140.4001397517007
 30
0.0
 10
88.66032949229795
 20
140.4001397517007
 30
0.0
 10
88.5395847768494
 20
140.4001397517007
 30
0.0
 10
87.49600407335664
 20
140.4001397517007
 30
0.0
 10
86.56941047780724
 20
140.4001397517007
 30
0.0
 10
84.71672212010174
 20
140.4001397517007
 30
0.0
 10
83.79053466294022
 20
140.4001397517007
 30
0.0
 10
82.86237744979827
 20
140.4001397517007
 30
0.0
  0
SPLINE
  5
20B
330
1F
100
AcDbEntity
  8
0
  6
Continuous
 62
     7
370
    15
100
AcDbSpline
210
0.0
220
0.0
230
1.0
 70
    24
 71
     3
 72
    10
 73
     6
 74
     0
 42
0.00000001
 43
0.00000001
 40
0.0
 40
0.0
 40
0.0
 40
0.0
 40
0.0343469703589533
 40
0.3754354119694289
 40
1.0
 40
1.0
 40
1.0
 40
1.0
 10
88.72411892076241
 20
87.60013975170067
 30
0.0
 10
88.65700233364159
 20
87.60013975170067
 30
0.0
 10
87.92337304196458
 20
87.60013975170067
 30
0.0
 10
85.96833274671944
 20
87.60013975170065
 30
0.0
 10
84.08225432004906
 20
87.60013975170065
 30
0.0
 10
82.86237744979827
 20
87.60013975170067
 30
0.0
  0
SPLINE
  5
20C
330
1F
100
AcDbEntity
  8
0
  6
Continuous
 62
     7
370
    15
100
AcDbSpline
210
0.0
220
0.0
230
1.0
 70
    24
 71
     3
 72
    10
 73
     6
 74
     0
 42
0.00000001
 43
0.00000001
 40
0.0
 40
0.0
 40
0.0
 40
0.0
 40
0.5
 40
0.5
 40
1.0
 40
1.0
 40
1.0
 40
1.0
 10
79.52276612903222
 20
84.43986235110785
 30
0.0
 10
79.52276612903222
 20
84.27997508291418
 30
0.0
 10
79.52276612903222
 20
84.11884782739959
 30
0.0
 10
79.52276612903222
 20
83.88474882904474
 30
0.0
 10
79.52276612903222
 20
83.81322205545352
 30
0.0
 10
79.52276612903222
 20
83.81322205545352
 30
0.0
  0
ARC
  5
20D
330
1F
100
AcDbEntity
  8
0
  6
Continuous
 62
     7
370
    15
100
AcDbCircle
 10
88.522766129
 20
114.0001397517
 30
0.0
 40
31.49999999999999
100
AcDbArc
 50
140.9381656697
 51
253.398450401
  0
SPLINE
  5
20E
330
1F
100
AcDbEntity
  8
0
  6
Continuous
 62
     7
370
    15
100
AcDbSpline
210
0.0
220
0.0
230
1.0
 70
    24
 71
     3
 72
    12
 73
     8
 74
     0
 42
0.00000001
 43
0.00000001
 40
0.0
 40
0.0
 40
0.0
 40
0.0
 40
0.2500000000000006
 40
0.2500000000000006
 40
0.5000000000000012
 40
0.5000000000000012
 40
1.0
 40
1.0
 40
1.0
 40
1.0
 10
64.0640764666646
 20
133.8501397517007
 30
0.0
 10
64.06407646666459
 20
133.8501397517007
 30
0.0
 10
64.09190618696809
 20
133.8501397517007
 30
0.0
 10
64.18704864822476
 20
133.8501397517007
 30
0.0
 10
64.25347146452512
 20
133.8501397517007
 30
0.0
 10
64.47767089604525
 20
133.8501397517007
 30
0.0
 10
64.66165729859085
 20
133.8501397517007
 30
0.0
 10
64.84181386777384
 20
133.8501397517007
 30
0.0
  0
SPLINE
  5
20F
330
1F
100
AcDbEntity
  8
0
  6
Continuous
 62
     7
370
    15
100
AcDbSpline
210
0.0
220
0.0
230
1.0
 70
    24
 71
     3
 72
    10
 73
     6
 74
     0
 42
0.00000001
 43
0.00000001
 40
0.0
 40
0.0
 40
0.0
 40
0.0
 40
0.5
 40
0.5
 40
1.0
 40
1.0
 40
1.0
 40
1.0
 10
80.52276612903222
 20
143.8465800754645
 30
0.0
 10
80.52276612903222
 20
144.0069853418153
 30
0.0
 10
80.52276612903222
 20
144.1660471548039
 30
0.0
 10
80.52276612903222
 20
144.3969596204343
 30
0.0
 10
80.52276612903222
 20
144.4673352248649
 30
0.0
 10
80.52276612903222
 20
144.4673352248649
 30
0.0
  0
SPLINE
  5
210
330
1F
100
AcDbEntity
  8
0
  6
Continuous
 62
     7
370
    15
100
AcDbSpline
210
0.0
220
0.0
230
1.0
 70
    24
 71
     3
 72
    12
 73
     8
 74
     0
 42
0.00000001
 43
0.00000001
 40
0.0
 40
0.0
 40
0.0
 40
0.0
 40
0.249999999999998
 40
0.249999999999998
 40
0.499999999999996
 40
0.499999999999996
 40
1.0
 40
1.0
 40
1.0
 40
1.0
 10
68.67276612903223
 20
138.4588294140681
 30
0.0
 10
68.67276612903223
 20
138.4588294140681
 30
0.0
 10
68.67276612903221
 20
138.4306097154802
 30
0.0
 10
68.67276612903223
 20
138.3361667082321
 30
0.0
 10
68.67276612903221
 20
138.2698797315268
 30
0.0
 10
68.67276612903221
 20
138.0442549082385
 30
0.0
 10
68.67276612903221
 20
137.8618286452059
 30
0.0
 10
68.67276612903223
 20
137.681092012959
 30
0.0
  0
ARC
  5
211
330
1F
100
AcDbEntity
  8
0
  6
Continuous
 62
     7
370
    15
100
AcDbCircle
 10
88.522766129
 20
114.0001397517
 30
0.0
 40
31.49999999999999
100
AcDbArc
 50
104.7124579609
 51
129.0618343303
  0
SPLINE
  5
212
330
1F
100
AcDbEntity
  8
0
  6
Continuous
 62
     7
370
    15
100
AcDbSpline
210
0.0
220
0.0
230
1.0
 70
    24
 71
     3
 72
    12
 73
     8
 74
     0
 42
0.00000001
 43
0.00000001
 40
0.0
 40
0.0
 40
0.0
 40
0.0
 40
0.2500000000000038
 40
0.2500000000000038
 40
0.5000000000000077
 40
0.5000000000000077
 40
1.0
 40
1.0
 40
1.0
 40
1.0
 10
96.52276612903222
 20
144.4673352248649
 30
0.0
 10
96.52276612903222
 20
144.4673352248649
 30
0.0
 10
96.52276612903222
 20
144.4503324749041
 30
0.0
 10
96.52276612903222
 20
144.3862719337924
 30
0.0
 10
96.52276612903222
 20
144.3391133181539
 30
0.0
 10
96.52276612903222
 20
144.1658912854616
 30
0.0
 10
96.52276612903222
 20
144.0057821952273
 30
0.0
 10
96.52276612903222
 20
143.846580075464
 30
0.0
  0
ARC
  5
213
330
1F
100
AcDbEntity
  8
0
  6
Continuous
 62
     7
370
    15
100
AcDbCircle
 10
88.522766129
 20
114.0001397517
 30
0.0
 40
31.49999999999998
100
AcDbArc
 50
328.9972808661
 51
75.2875420391
  0
LINE
  5
214
330
1F
100
AcDbEntity
  8
0
  6
Continuous
 62
     7
370
    15
100
AcDbLine
 10
96.522766129
 20
143.8465800755
 30
0.0
 11
96.522766129
 21
140.4001397517
 31
0.0
  0
LINE
  5
215
330
1F
100
AcDbEntity
  8
0
  6
Continuous
 62
     7
370
    15
100
AcDbLine
 10
96.522766129
 20
140.4001397517
 30
0.0
 11
94.1831548083
 21
140.4001397517
 31
0.0
  0
LINE
  5
216
330
1F
100
AcDbEntity
  8
0
  6
Continuous
 62
     7
370
    15
100
AcDbLine
 10
80.522766129
 20
140.4001397517
 30
0.0
 11
80.522766129
 21
143.8465800755
 31
0.0
  0
LINE
  5
217
330
1F
100
AcDbEntity
  8
0
  6
Continuous
 62
     7
370
    15
100
AcDbLine
 10
79.522766129
 20
87.6001397517
 30
0.0
 11
79.522766129
 21
84.4398623511
 31
0.0
  0
LINE
  5
218
330
1F
100
AcDbEntity
  8
0
  6
Continuous
 62
     7
370
    15
100
AcDbLine
 10
68.672766129
 20
137.681092013
 30
0.0
 11
68.672766129
 21
133.8501397517
 31
0.0
  0
LINE
  5
219
330
1F
100
AcDbEntity
  8
0
  6
Continuous
 62
     7
370
    15
100
AcDbLine
 10
64.8418138678
 20
133.8501397517
 30
0.0
 11
68.672766129
 21
133.8501397517
 31
0.0
  0
LINE
  5
21A
330
1F
100
AcDbEntity
  8
0
  6
Continuous
 62
     7
370
    15
100
AcDbLine
 10
82.8623774498
 20
140.4001397517
 30
0.0
 11
80.522766129
 21
140.4001397517
 31
0.0
  0
LINE
  5
21B
330
1F
100
AcDbEntity
  8
0
  6
Continuous
 62
     7
370
    15
100
AcDbLine
 10
82.8623774498
 20
87.6001397517
 30
0.0
 11
79.522766129
 21
87.6001397517
 31
0.0
  0
SPLINE
  5
21C
330
1F
100
AcDbEntity
  8
0
  6
Continuous
 62
     7
370
    15
100
AcDbSpline
210
0.0
220
0.0
230
1.0
 70
     8
 71
     3
 72
    28
 73
    24
 74
     0
 42
0.00000001
 43
0.00000001
 40
0.0
 40
0.0
 40
0.0
 40
0.0
 40
0.1250000000000001
 40
0.1250000000000001
 40
0.1875000000000001
 40
0.1875000000000001
 40
0.2500000000000001
 40
0.2500000000000001
 40
0.3749999999999999
 40
0.3749999999999999
 40
0.4375
 40
0.4375
 40
0.4999999999999999
 40
0.4999999999999999
 40
0.6249999999999999
 40
0.6249999999999999
 40
0.7499999999999997
 40
0.7499999999999997
 40
0.8124999999999998
 40
0.8124999999999998
 40
0.8749999999999998
 40
0.8749999999999998
 40
1.0
 40
1.0
 40
1.0
 40
1.0
 10
79.52276612903226
 20
83.81322205545352
 30
0.0
 10
79.52276612903228
 20
83.81322205545352
 30
0.0
 10
79.57524247135048
 20
83.7974373415033
 30
0.0
 10
79.72903941890738
 20
83.75244192742709
 30
0.0
 10
79.7929143939414
 20
83.73388693235137
 30
0.0
 10
79.94641066259793
 20
83.69003420990487
 30
0.0
 10
80.03622563799162
 20
83.66468960295266
 30
0.0
 10
80.33820443304249
 20
83.58128752520257
 30
0.0
 10
80.58415786709824
 20
83.51542196605148
 30
0.0
 10
81.01952504652662
 20
83.40645162555968
 30
0.0
 10
81.17674022869897
 20
83.36821198979304
 30
0.0
 10
81.50890484924142
 20
83.2904532523737
 30
0.0
 10
81.68371211484431
 20
83.25095229019833
 30
0.0
 10
82.23377130543014
 20
83.13204454783234
 30
0.0
 10
82.63439468982561
 20
83.05222686640774
 30
0.0
 10
83.50698080117432
 20
82.89888370461166
 30
0.0
 10
83.9671162487759
 20
82.8275499513424
 30
0.0
 10
84.68708234274207
 20
82.73360644426778
 30
0.0
 10
84.9323560527766
 20
82.70441265090786
 30
0.0
 10
85.43381238920543
 20
82.65094607664444
 30
0.0
 10
85.69124375857795
 20
82.62658674236928
 30
0.0
 10
86.46718355444246
 20
82.56299659692453
 30
0.0
 10
86.99141195434848
 20
82.53289366183527
 30
0.0
 10
87.5227661290323
 20
82.51601676883836
 30
0.0
  0
SPLINE
  5
21D
330
1F
100
AcDbEntity
  8
0
  6
Continuous
 62
     7
370
    15
100
AcDbSpline
210
0.0
220
0.0
230
1.0
 70
     8
 71
     3
 72
    50
 73
    46
 74
     0
 42
0.00000001
 43
0.00000001
 40
0.0
 40
0.0
 40
0.0
 40
0.0
 40
0.0625000000000004
 40
0.0625000000000004
 40
0.0937500000000005
 40
0.0937500000000005
 40
0.1250000000000006
 40
0.1250000000000006
 40
0.1875000000000006
 40
0.1875000000000006
 40
0.2187500000000006
 40
0.2187500000000006
 40
0.2500000000000006
 40
0.2500000000000006
 40
0.3125000000000006
 40
0.3125000000000006
 40
0.3750000000000005
 40
0.3750000000000005
 40
0.4062500000000006
 40
0.4062500000000006
 40
0.4375000000000006
 40
0.4375000000000006
 40
0.5000000000000006
 40
0.5000000000000006
 40
0.5625000000000007
 40
0.5625000000000007
 40
0.6250000000000006
 40
0.6250000000000006
 40
0.6562500000000006
 40
0.6562500000000006
 40
0.6875000000000006
 40
0.6875000000000006
 40
0.7187500000000006
 40
0.7187500000000006
 40
0.7500000000000004
 40
0.7500000000000004
 40
0.8125000000000004
 40
0.8125000000000004
 40
0.8750000000000004
 40
0.8750000000000004
 40
0.9375000000000003
 40
0.9375000000000003
 40
0.9687500000000002
 40
0.9687500000000002
 40
1.0
 40
1.0
 40
1.0
 40
1.0
 10
80.52276612903228
 20
144.4673352248649
 30
0.0
 10
80.52276612903228
 20
144.4673352248649
 30
0.0
 10
80.57506027098533
 20
144.4812013282461
 30
0.0
 10
80.7284128058181
 20
144.5206384711301
 30
0.0
 10
80.79211030116932
 20
144.5368911733952
 30
0.0
 10
80.94520195145913
 20
144.5752398832455
 30
0.0
 10
81.03485805341995
 20
144.5973933296536
 30
0.0
 10
81.336439441594
 20
144.6701492755156
 30
0.0
 10
81.58218087202796
 20
144.7274299783603
 30
0.0
 10
82.01734093837864
 20
144.8214224178161
 30
0.0
 10
82.17448176583981
 20
144.8542813850093
 30
0.0
 10
82.50712085856412
 20
144.9208574384575
 30
0.0
 10
82.68218681400415
 20
144.9545008762964
 30
0.0
 10
83.23304234470575
 20
145.0550617408736
 30
0.0
 10
83.63422675389242
 20
145.1216245506236
 30
0.0
 10
84.50771595997982
 20
145.2463236059232
 30
0.0
 10
84.96975655296225
 20
145.3028466149938
 30
0.0
 10
85.69087196655617
 20
145.3735155496087
 30
0.0
 10
85.93643260423956
 20
145.3947917596801
 30
0.0
 10
86.43822090339773
 20
145.432097485922
 30
0.0
 10
86.69598211971442
 20
145.448188682782
 30
0.0
 10
87.47109458393417
 20
145.4868301543897
 30
0.0
 10
87.99152376765386
 20
145.5000195729461
 30
0.0
 10
89.03965960843924
 20
145.5002582964042
 30
0.0
 10
89.572167938813
 20
145.4868582937001
 30
0.0
 10
90.5998582009796
 20
145.4357943055049
 30
0.0
 10
91.09962238156133
 20
145.3983551707507
 30
0.0
 10
91.82811738158179
 20
145.3271916878322
 30
0.0
 10
92.06746837402729
 20
145.3009232296397
 30
0.0
 10
92.52870684551415
 20
145.2452417568875
 30
0.0
 10
92.75197350058141
 20
145.2157039849516
 30
0.0
 10
93.18416110660348
 20
145.1540968399239
 30
0.0
 10
93.39308168684346
 20
145.1220258972027
 30
0.0
 10
93.79650661236715
 20
145.0562089202333
 30
0.0
 10
93.99198627233653
 20
145.0222787017701
 30
0.0
 10
94.54784448587276
 20
144.9208500741898
 30
0.0
 10
94.87740187250432
 20
144.8539310454997
 30
0.0
 10
95.45679737029026
 20
144.7289054831579
 30
0.0
 10
95.70831734173464
 20
144.6703286889238
 30
0.0
 10
96.10977183834821
 20
144.5734938372788
 30
0.0
 10
96.26225483389531
 20
144.5347388777197
 30
0.0
 10
96.41756578307054
 20
144.4948113472834
 30
0.0
 10
96.4570792304767
 20
144.4845195560329
 30
0.0
 10
96.50959257777248
 20
144.4708033434939
 30
0.0
 10
96.52276612903226
 20
144.4673352248649
 30
0.0
 10
96.52276612903226
 20
144.4673352248649
 30
0.0
  0
SPLINE
  5
21E
330
1F
100
AcDbEntity
  8
0
  6
Continuous
 62
     7
370
    15
100
AcDbSpline
210
0.0
220
0.0
230
1.0
 70
     8
 71
     3
 72
    20
 73
    16
 74
     0
 42
0.00000001
 43
0.00000001
 40
0.0
 40
0.0
 40
0.0
 40
0.0
 40
0.2500000000000005
 40
0.2500000000000005
 40
0.3750000000000004
 40
0.3750000000000004
 40
0.5000000000000003
 40
0.5000000000000003
 40
0.6250000000000002
 40
0.6250000000000002
 40
0.7500000000000001
 40
0.7500000000000001
 40
0.8750000000000001
 40
0.8750000000000001
 40
1.0
 40
1.0
 40
1.0
 40
1.0
 10
64.06407646666489
 20
133.8501397517007
 30
0.0
 10
64.59473323449956
 20
134.5040021799981
 30
0.0
 10
65.12846123076108
 20
135.1077879619952
 30
0.0
 10
65.91143354874981
 20
135.9346266981638
 30
0.0
 10
66.16941714884649
 20
136.1970553361167
 30
0.0
 10
66.67381240525432
 20
136.6937179902217
 30
0.0
 10
66.91659082768231
 20
136.9243048692432
 30
0.0
 10
67.36727090719538
 20
137.3408590938259
 30
0.0
 10
67.57673477318666
 20
137.5283568957933
 30
0.0
 10
67.9550232897747
 20
137.8597538734298
 30
0.0
 10
68.11877097595917
 20
137.999257860925
 30
0.0
 10
68.38695677815862
 20
138.224711368396
 30
0.0
 10
68.49218118624536
 20
138.3113374799396
 30
0.0
 10
68.63624041155889
 20
138.4293182687937
 30
0.0
 10
68.67276612903227
 20
138.4588294140681
 30
0.0
 10
68.67276612903227
 20
138.4588294140681
 30
0.0
  0
ARC
  5
21F
330
1F
100
AcDbEntity
  8
0
  6
Continuous
 62
     7
370
    15
100
AcDbCircle
 10
88.522766129
 20
114.0001397517
 30
0.0
 40
31.49999999999997
100
AcDbArc
 50
268.180780706
 51
270.54568234
  0
CIRCLE
  5
220
330
1F
100
AcDbEntity
  8
VERMASSUNG
  6
CENTERX2
100
AcDbCircle
 10
88.522766129
 20
108.9991386106
 30
0.0
 40
39.99999999999999
  0
POINT
  5
221
330
1F
100
AcDbEntity
  8
VERMASSUNG
100
AcDbPoint
 10
88.522766129
 20
68.9991386106
 30
0.0
  0
DIMENSION
  5
222
330
1F
100
AcDbEntity
  8
VERMASSUNG
100
AcDbDimension
  2
*D6
 10
44.4658357832
 20
148.9991386106
 30
0.0
 11
44.4658357832
 21
108.9991386106
 31
0.0
 70
   160
  1
%%c<>
 71
     2
 42
-1.0
  3
SLDDIMSTYLE2
100
AcDbAlignedDimension
 13
88.522766129
 23
68.9991386106
 33
0.0
 14
88.522766129
 24
148.9991386106
 34
0.0
 50
90.0
100
AcDbRotatedDimension
  0
INSERT
  5
239
330
1F
100
AcDbEntity
  8
VERMASSUNG
100
AcDbBlockReference
  2
SW_CENTERMARKSYMBOL_0
 10
88.522766129
 20
114.0001397517
 30
0.0
  0
OLE2FRAME
  5
23A
330
1F
100
AcDbEntity
  8
0
100
AcDbOle2Frame
 70
     2
  3
Bitmap Image
 10
13.8511154363
 20
38.264191557
 30
0.0
 11
51.6290888628
 21
31.9806341108
 31
0.0
 71
     2
 72
     0
 73
     1
 90
    12928
310
80552BED0767C5B32B40DDAF6807D121434000000000000000006FFBDDFB85D0
310
4940DDAF6807D121434000000000000000006FFBDDFB85D04940416F4BD60AFB
310
3F4000000000000000002BED0767C5B32B40416F4BD60AFB3F40000000000000
310
0000000000000100000000010000010000000100000000000100000000320000
310
D0CF11E0A1B11AE1000000000000000000000000000000003E000300FEFF0900
310
0600000000000000000000000100000001000000000000000010000002000000
310
01000000FEFFFFFF0000000000000000FFFFFFFFFFFFFFFFFFFFFFFFFFFFFFFF
310
FFFFFFFFFFFFFFFFFFFFFFFFFFFFFFFFFFFFFFFFFFFFFFFFFFFFFFFFFFFFFFFF
310
FFFFFFFFFFFFFFFFFFFFFFFFFFFFFFFFFFFFFFFFFFFFFFFFFFFFFFFFFFFFFFFF
310
FFFFFFFFFFFFFFFFFFFFFFFFFFFFFFFFFFFFFFFFFFFFFFFFFFFFFFFFFFFFFFFF
310
FFFFFFFFFFFFFFFFFFFFFFFFFFFFFFFFFFFFFFFFFFFFFFFFFFFFFFFFFFFFFFFF
310
FFFFFFFFFFFFFFFFFFFFFFFFFFFFFFFFFFFFFFFFFFFFFFFFFFFFFFFFFFFFFFFF
310
FFFFFFFFFFFFFFFFFFFFFFFFFFFFFFFFFFFFFFFFFFFFFFFFFFFFFFFFFFFFFFFF
310
FFFFFFFFFFFFFFFFFFFFFFFFFFFFFFFFFFFFFFFFFFFFFFFFFFFFFFFFFFFFFFFF
310
FFFFFFFFFFFFFFFFFFFFFFFFFFFFFFFFFFFFFFFFFFFFFFFFFFFFFFFFFFFFFFFF
310
FFFFFFFFFFFFFFFFFFFFFFFFFFFFFFFFFFFFFFFFFFFFFFFFFFFFFFFFFFFFFFFF
310
FFFFFFFFFFFFFFFFFFFFFFFFFFFFFFFFFFFFFFFFFFFFFFFFFFFFFFFFFFFFFFFF
310
FFFFFFFFFFFFFFFFFFFFFFFFFFFFFFFFFFFFFFFFFFFFFFFFFFFFFFFFFFFFFFFF
310
FFFFFFFFFFFFFFFFFFFFFFFFFFFFFFFFFFFFFFFFFFFFFFFFFFFFFFFFFFFFFFFF
310
FFFFFFFFFFFFFFFFFFFFFFFFFFFFFFFFFFFFFFFFFFFFFFFFFFFFFFFFFFFFFFFF
310
FDFFFFFFFEFFFFFFFEFFFFFFFEFFFFFF05000000060000000700000008000000
310
090000000A0000000B0000000C0000000D0000000E0000000F00000010000000
310
11000000120000001300000014000000150000001600000017000000FEFFFFFF
310
FFFFFFFFFFFFFFFFFFFFFFFFFFFFFFFFFFFFFFFFFFFFFFFFFFFFFFFFFFFFFFFF
310
FFFFFFFFFFFFFFFFFFFFFFFFFFFFFFFFFFFFFFFFFFFFFFFFFFFFFFFFFFFFFFFF
310
FFFFFFFFFFFFFFFFFFFFFFFFFFFFFFFFFFFFFFFFFFFFFFFFFFFFFFFFFFFFFFFF
310
FFFFFFFFFFFFFFFFFFFFFFFFFFFFFFFFFFFFFFFFFFFFFFFFFFFFFFFFFFFFFFFF
310
FFFFFFFFFFFFFFFFFFFFFFFFFFFFFFFFFFFFFFFFFFFFFFFFFFFFFFFFFFFFFFFF
310
FFFFFFFFFFFFFFFFFFFFFFFFFFFFFFFFFFFFFFFFFFFFFFFFFFFFFFFFFFFFFFFF
310
FFFFFFFFFFFFFFFFFFFFFFFFFFFFFFFFFFFFFFFFFFFFFFFFFFFFFFFFFFFFFFFF
310
FFFFFFFFFFFFFFFFFFFFFFFFFFFFFFFFFFFFFFFFFFFFFFFFFFFFFFFFFFFFFFFF
310
FFFFFFFFFFFFFFFFFFFFFFFFFFFFFFFFFFFFFFFFFFFFFFFFFFFFFFFFFFFFFFFF
310
FFFFFFFFFFFFFFFFFFFFFFFFFFFFFFFFFFFFFFFFFFFFFFFFFFFFFFFFFFFFFFFF
310
FFFFFFFFFFFFFFFFFFFFFFFFFFFFFFFFFFFFFFFFFFFFFFFFFFFFFFFFFFFFFFFF
310
FFFFFFFFFFFFFFFFFFFFFFFFFFFFFFFFFFFFFFFFFFFFFFFFFFFFFFFFFFFFFFFF
310
FFFFFFFFFFFFFFFFFFFFFFFFFFFFFFFFFFFFFFFFFFFFFFFFFFFFFFFFFFFFFFFF
310
52006F006F007400200045006E00740072007900000000000000000000000000
310
0000000000000000000000000000000000000000000000000000000000000000
310
16000500FFFFFFFFFFFFFFFF020000000A00030000000000C000000000000046
310
000000000000000000000000C0B997D9BBD1CB0103000000C000000000000000
310
01004F006C006500000000000000000000000000000000000000000000000000
310
0000000000000000000000000000000000000000000000000000000000000000
310
0A000200FFFFFFFFFFFFFFFFFFFFFFFF00000000000000000000000000000000
310
0000000000000000000000000000000000000000000000001400000000000000
310
010043006F006D0070004F0062006A0000000000000000000000000000000000
310
0000000000000000000000000000000000000000000000000000000000000000
310
120002010100000003000000FFFFFFFF00000000000000000000000000000000
310
0000000000000000000000000000000000000000010000004D00000000000000
310
01004F006C006500310030004E00610074006900760065000000000000000000
310
0000000000000000000000000000000000000000000000000000000000000000
310
1A000200FFFFFFFFFFFFFFFFFFFFFFFF00000000000000000000000000000000
310
0000000000000000000000000000000000000000040000002426000000000000
310
FEFFFFFF02000000FEFFFFFFFFFFFFFFFFFFFFFFFFFFFFFFFFFFFFFFFFFFFFFF
310
FFFFFFFFFFFFFFFFFFFFFFFFFFFFFFFFFFFFFFFFFFFFFFFFFFFFFFFFFFFFFFFF
310
FFFFFFFFFFFFFFFFFFFFFFFFFFFFFFFFFFFFFFFFFFFFFFFFFFFFFFFFFFFFFFFF
310
FFFFFFFFFFFFFFFFFFFFFFFFFFFFFFFFFFFFFFFFFFFFFFFFFFFFFFFFFFFFFFFF
310
FFFFFFFFFFFFFFFFFFFFFFFFFFFFFFFFFFFFFFFFFFFFFFFFFFFFFFFFFFFFFFFF
310
FFFFFFFFFFFFFFFFFFFFFFFFFFFFFFFFFFFFFFFFFFFFFFFFFFFFFFFFFFFFFFFF
310
FFFFFFFFFFFFFFFFFFFFFFFFFFFFFFFFFFFFFFFFFFFFFFFFFFFFFFFFFFFFFFFF
310
FFFFFFFFFFFFFFFFFFFFFFFFFFFFFFFFFFFFFFFFFFFFFFFFFFFFFFFFFFFFFFFF
310
FFFFFFFFFFFFFFFFFFFFFFFFFFFFFFFFFFFFFFFFFFFFFFFFFFFFFFFFFFFFFFFF
310
FFFFFFFFFFFFFFFFFFFFFFFFFFFFFFFFFFFFFFFFFFFFFFFFFFFFFFFFFFFFFFFF
310
FFFFFFFFFFFFFFFFFFFFFFFFFFFFFFFFFFFFFFFFFFFFFFFFFFFFFFFFFFFFFFFF
310
FFFFFFFFFFFFFFFFFFFFFFFFFFFFFFFFFFFFFFFFFFFFFFFFFFFFFFFFFFFFFFFF
310
FFFFFFFFFFFFFFFFFFFFFFFFFFFFFFFFFFFFFFFFFFFFFFFFFFFFFFFFFFFFFFFF
310
FFFFFFFFFFFFFFFFFFFFFFFFFFFFFFFFFFFFFFFFFFFFFFFFFFFFFFFFFFFFFFFF
310
FFFFFFFFFFFFFFFFFFFFFFFFFFFFFFFFFFFFFFFFFFFFFFFFFFFFFFFFFFFFFFFF
310
FFFFFFFFFFFFFFFFFFFFFFFFFFFFFFFFFFFFFFFFFFFFFFFFFFFFFFFFFFFFFFFF
310
0100000200000000000000000000000000000000838383FF838383FF838383FF
310
838383FF838383FF838383FF838383FF838383FF838383FF838383FF838383FF
310
0100FEFF030A0000FFFFFFFF0A00030000000000C00000000000004607000000
310
5042727573680007000000504272757368000700000050427275736800F439B2
310
710000000000000000000000008383FF838383FF838383FF838383FF838383FF
310
838383FF838383FF838383FF838383FF838383FF838383FF838383FF838383FF
310
838383FF838383FF838383FF838383FF838383FF838383FF838383FF838383FF
310
838383FF838383FF838383FF838383FF838383FF838383FF838383FF838383FF
310
838383FF838383FF838383FF838383FF838383FF838383FF838383FF838383FF
310
838383FF838383FF838383FF838383FF838383FF838383FF838383FF838383FF
310
838383FF838383FF838383FF838383FF838383FF838383FF838383FF838383FF
310
838383FF838383FF838383FF838383FF838383FF838383FF838383FF838383FF
310
838383FF838383FF838383FF838383FF838383FF838383FF838383FF838383FF
310
838383FF838383FF838383FF838383FF838383FF838383FF838383FF838383FF
310
838383FF838383FF838383FF838383FF838383FF838383FF838383FF838383FF
310
838383FF838383FF838383FF838383FF838383FF838383FF838383FF838383FF
310
20260000424D0E260000000000003E00000028000000B40200006E0000000100
310
01000000000000000000130B0000130B00000200000002000000000000FFFFFF
310
FFFFFFFFFFFFFFFFFFFFFFFFFFFFFFFFFFFFFFFFFFFFFFFFFFFFFFFFFFFFFFFF
310
FFFFFFFFFFFFFFFFFFFFFFFFFFFFFFFFFFFFFFFFFFFFFFFFFFFFFFFFFFFFFFFF
310
FFFFFFFFFFFFFFFFFFFFFFFFFFFFFFFFFFFFFFFFFFFFFFFFF000FFFFFFFFFFFF
310
FFFFFFFFFFFFFFFFFFFFFFFFFFFFFFFFFFFFFFFFFFFFFFFFFFFFFFFFFFFFFFFF
310
FFFFFFFFFFFFFFFFFFFFFFFFFFFFFFFFFFFFFFFFFFFFFFFFFFFFFFFFFFFFFFFF
310
FFFFFFFFFFFFFFFFFFFFFFFFFFFFFFFFF000FFFFFFFFFFFFFFFFFFFFFFFFFFFF
310
FFFFFFFFFFFFFFFFFFFFFFFFFFFFFFFFFFFFFFFFFFFFFFFFFFFFFFFFFFFFFFFF
310
FFFFFFFFFFFFFFFFFFFFFFFFFFFFFFFFFFFFFFFFFFFFFFFFFFFFFFFFFFFFFFFF
310
FFFFFFFFFFFFFFFFF000FFFFFFFFFFFFFFFFFFFFFFFFFFFFFFFFFFFFFFFFFFFF
310
FFFFFFFFFFFFFFFFFFFFFFFFFFFFFFFFFFFFFFFFFFFFFFFFFFFFFFFFFFFFFFFF
310
FFFFFFFFFFFFFFFFFFFFFFFFFFFFFFFFFFFFFFFFFFFFFFFFFFFFFFFFFFFFFFFF
310
F000FFFFFFFFFFFFFFFFFFFFFFFFFFFFFFFFFFFFFFFFFFFFFFFFFFFFFFFFFFFF
310
FFFFFFFFFFFFFFFFFFFFFFFFFFFFFFFFFFFFFFFFFFFFFFFFFFFFFFFFFFFFFFFF
310
FFFFFFFFFFFFFFFFFFFFFFFFFFFFFFFFFFFFFFFFFFFFFFFFF000FFFFFFFFFFFF
310
FFFFFFFFFFFFFFFFFFFFFFFFFFFFFFFFFFFFFFFFFFFFFFFFFFFFFFFFFFFFFFFF
310
FFFFFFFFFFFFFFFFFFFFFFFFFFFFFFFFFFFFFFFFFFFFFFFFFFFFFFFFFFFFFFFF
310
FFFFFFFFFFFFFFFFFFFFFFFFFFFFFFFFF000FFFFFFFFFFFFFFFFFFFFFFFFFFFF
310
FFFFFFFFFFFFFFFFFFFFFFFFFFFFFFFFFFFFFFFFFFFFFFFFFFFFFFFFFFFFFFFF
310
FFFFFFFFFFFFFFFFFFFFFFFFFFFFFFFFFFFFFFFFFFFFFFFFFFFFFFFFFFFFFFFF
310
FFFFFFFFFFFFFFFFF000FFFFFFFFFFFFFFFFFFFFFFFFFFFFFFFFFFFFFFFFFFFF
310
FFFFFFFFFFFFFFFFFFFFFFFFFFFFFFFFFFFFFFFFFFFFFFFFFFFFFFFFFFFFFFFF
310
FFFFFFFFFFFFFFFFFFFFFFFFFFFFFFFFFFFFFFFFFFFFFFFFFFFFFFFFFFFFFFFF
310
F000FFFFFFFFFFFFFFFFFFFFFFFFFFFFFFFFFFFFFFFFFFFFFFFFFFFFFFFFFFFF
310
FFFFFFFFFFFFFFFFFFFFFFFFFFFFFFFFFFFFFFFFFFFFFFFFFFFFFFFFFFFFFFFF
310
FFFFFFFFFFFFFFFFFFFFFFFFFFFFFFFFFFFFFFFFFFFFFFFFF000FFFFFFFFFFFF
310
FFFFFFFFFFFFFFFFFFFFFFFFFFFFFFFFFFFFFFFFFFFFFFFFFFFFFFFFFFFFFFFF
310
FFFFFFFFFFFFFFFFFFFFFFFFFFFFFFFFFFFFFFFFFFFFFFFFFFFFFFFFFFFFFFFF
310
FFFFFFFFFFFFFFFFFFFFFFFFFFFFFFFFF000FFFFFFFFFFFFFFFFFFFFFFFFFFFF
310
FFFFFFFFFFFFFFFFFFFFFFFFFFFFFFFFFFFFFFFFFFFFFFFFFFFFFFFFFFFFFFFF
310
FFFFFFFFFFFFFFFFFFFFFFFFFFFFFFFFFFFFFFFFFFFFFFFFFFFFFFFFFFFFFFFF
310
FFFFFFFFFFFFFFFFF000FFFFFFFFFFFFFFFFFFFFFFFFFFFFFFFFFFFFFFFFFFFF
310
FFFFFFFFFFFFFFFFFFFFFFFFFFFFFFFFFFFFFFFFFFFFFFFFFFFFFFFFFFFFFFFF
310
FFFFFFFFFFFFFFFFFFFFFFFFFFFFFFFFFFFFFFFFFFFFFFFFFFFFFFFFFFFFFFFF
310
F000FFFFFFFFFFFFFFFFFFFFFFFFFFFFFFFFFFFFFFFFFFFFFFFFFFFFFFFFFFFF
310
FFFFFFFFFFFFFFFFFFFFFFFFFFFFFFFFFFFFFFFFFFFFFFFFFFFFFFFFFFFFFFFF
310
FFFFFFFFFFFFFFFFFFFFFFFFFFFFFFFFFFFFFFFFFFFFFFFFF000FFFFFFFFFFFF
310
FFFFFFFFFFFFFFFFFFFFFFFFFFFFFFFFFFFFFFFFFFFFFFFFFFFFFFFFFFFFFFFF
310
FFFFFFFFFFFFFFFFFFFFFFFFFFFFFFFFFFFFFFFFFFFFFFFFFFFFFFFFFFFFFFFF
310
FFFFFFFFFFFFFFFFFFFFFFFFFFFFFFFFF000FFFFFFFFFFFFFFFFFFFFFFFFFFFF
310
FFFFFFFFFFFFFFFFFFFFFFFFFFFFFFFFFFFFFFFFFFFFFFFFFFFFFFFFFFFFFFFF
310
FFFFFFFFFFFFFFFFFFFFFFFFFFFFFFFFFFFFFFFFFFFFFFFFFFFFFFFFFFFFFFFF
310
FFFFFFFFFFFFFFFFF000FFFFFFFFFFFFFFFFFFFFFFFFFFFFFFFFFFFFFFFFFFFF
310
FFFFFFFFFFFFFFFFFFFFFFFFFFFFFFFFFFFFFFFFFFFFFFFFFFFFFFFFFFFFFFFF
310
FFFFFFFFFFFFFFFFFFFFFFFFFFFFFFFFFFFFFFFFFFFFFFFFFFFFFFFFFFFFFFFF
310
F000FFFFFFFFFFFFFFFFFFFFFFFFFFFFFFFFFFFFFFFFFFFFFFFFFFFFFFFFFFFF
310
FFFFFFFFFFFFFFFFFFFFFFFFFFFFFFFFFFFFFFFFFFFFFFFFFFFFFFFFFFFFFFFF
310
FFFFFFFFFFFFFFFFFFFFFFFFFFFFFFFFFFFFFFFFFFFFFFFFF000FFFFFFFFFFFF
310
FFFFFFFFFFFFFFFFFFFFFFFFFFFFFFFFFFFFFFFFFFFFFFFFFFFFFFFFFFFFFFFF
310
FFFFFFFFFFFFFFFFFFFFFFFFFFFFFFFFFFFFFFFFFFFFFFFFFFFFFFFFFFFFFFFF
310
FFFFFFFFFFFFFFFFFFFFFFFFFFFFFFFFF000FFFFFFFFFFFFFFFFFFFFFFFFFFFF
310
FFFFFFFFFFFFFFFFFFFFFFFFFFFFFFFFFFFFFFFFFFFFFFFFFFFFFFFFFFFFFFFF
310
FFFFFFFFFFFFFFFFFFFFFFFFFFFFFFFFFFFFFFFFFFFFFFFFFFFFFFFFFFFFFFFF
310
FFFFFFFFFFFFFFFFF000FFFFF80003FFFFFFFFFFFFFFFFFFFFFFFFFFFFFFFFFF
310
FFFFF00007FFFFFFFFFF00007FFFFFF800000000000000007FFFFFFFFFFFFFFF
310
FFFFFFFC001FFFFFFFFFFFFFFC001FFFFFFFFFFFFFFFFFFFFFFFFFFE0007FFFF
310
F000FFFF8000007FFFFFFFF8000FFFFFC0007FFFFF80007FFFFF0000007FFFFF
310
FFF8000007FFFFF800000000000000007FFFFFF0001FFFFFFFFFFFC00001FFFF
310
FFFFFFFFC00001FFFFFFFF000000000003FFFFE000007FFFF000FFFE0000000F
310
FFFFFFF0000FFFFF80007FFFFF80007FFFFC0000001FFFFFFFC0000001FFFFF8
310
00000000000000007FFFFFF0001FFFFFFFFFFE0000003FFFFFFFFFFE0000003F
310
FFFFFF000000000003FFFF0000000FFFF000FFF800000003FFFFFFF00007FFFF
310
80007FFFFF80007FFFF000000007FFFFFF000000003FFFF80000000000000000
310
7FFFFFF0001FFFFFFFFFF80000000FFFFFFFFFF80000000FFFFFFF0000000000
310
03FFFC00000003FFF000FFE000000000FFFFFFF00007FFFF80003FFFFF80007F
310
FFC000000001FFFFFC000000001FFFF800000000000000007FFFFFF0001FFFFF
310
FFFFE000000003FFFFFFFFE000000003FFFFFF000000000003FFF000000000FF
310
F000FF80000000007FFFFFF00007FFFF80003FFFFF80007FFF8000000000FFFF
310
F80000000007FFF800000000000000007FFFFFF0001FFFFFFFFFC000000001FF
310
FFFFFFC000000001FFFFFF000000000003FFC0000000007FF000FF0000000000
310
3FFFFFE00007FFFF00003FFFFF80007FFE00000000003FFFF00000000003FFF8
310
00000000000000007FFFFFF0001FFFFFFFFF8000000000FFFFFFFF8000000000
310
FFFFFF000000000003FF80000000003FF000FE00000000001FFFFFE00003FFFF
310
00003FFFFF80007FFC00000000001FFFE00000000001FFF8000001FFFE000000
310
7FFFFFF0001FFFFFFFFE00000000003FFFFFFE00000000003FFFFF0000000000
310
03FF00000000001FF000FC00000000000FFFFFE00003FFFF00001FFFFF80007F
310
F800000000001FFFC00000000000FFF8000001FFFE0000007FFFFFF0001FFFFF
310
FFFC00000000001FFFFFFC00000000001FFFFF000000000003FE00000000000F
310
F000F8000000000007FFFFE00003FFFF00001FFFFF80007FF800000000000FFF
310
800000000000FFF8000001FFFE0000007FFFFFF0001FFFFFFFF800000000000F
310
FFFFF800000000000FFFFF000000000003FC000000000007F000F80000000000
310
03FFFFC00003FFFE00001FFFFF80007FF0000000000007FF0000000000007FF8
310
000001FFFE0000007FFFFFF0001FFFFFFFF0000000000007FFFFF00000000000
310
07FFFF000000000003F8000000000003F000F0000000000003FFFFC00001FFFE
310
00001FFFFF80007FE0000000000007FE0000000000003FF8000001FFFE000000
310
7FFFFFF0001FFFFFFFF0000000000007FFFFF0000000000007FFFF0000000000
310
03F800001F800003F000E00001FFF00001FFFFC00001FFFE00000FFFFF80007F
310
E00001FFE00003FE00001FFF00003FF8000001FFFE0000007FFFFFF0001FFFFF
310
FFE000003E000003FFFFE000003E000003FFFF000000000003F00001FFF80001
310
F000E00007FFFC0001FFFFC00001FFFE00000FFFFF80007FC0000FFFFC0003FC
310
0000FFFFC0001FF8000001FFFE0000007FFFFFF0001FFFFFFFC00003FFE00001
310
FFFFC00003FFE00001FFFF0001FFFFFFFFF00007FFFE0001F000E0000FFFFF00
310
00FFFF800001FFFC00000FFFFF80007FC0001FFFFE0001FC0001FFFFE0001FF8
310
000001FFFE0000007FFFFFF0001FFFFFFF80000FFFF80000FFFF80000FFFF800
310
00FFFF0003FFFFFFFFE0000FFFFF8000F000C0003FFFFF8000FFFF800000FFFC
310
000007FFFF80007F80003FFFFF0001FC0003FFFFF0001FF8000001FFFE000000
310
7FFFFFF0001FFFFFFF80003FFFFE0000FFFF80003FFFFE0000FFFF0003FFFFFF
310
FFE0003FFFFF8000F000C0003FFFFF8000FFFF800000FFFC000007FFFF80007F
310
80007FFFFF8001F80007FFFFF8000FF8000001FFFE0000007FFFFFF0001FFFFF
310
FF00007FFFFF00007FFF00007FFFFF00007FFF0003FFFFFFFFE0003FFFFFC000
310
F000C0007FFFFFC000FFFF000000FFFC000007FFFF80007F8000FFFFFF8000F8
310
000FFFFFF8000FF8000001FFFE0000007FFFFFF0001FFFFFFF0000FFFFFF8000
310
7FFF0000FFFFFF80007FFF0003FFFFFFFFC0007FFFFFC00070008000FFFFFFC0
310
00FFFF000000FFF8000007FFFF80007F8000FFFFFF8000F8000FFFFFF8000FF8
310
000001FFFE0000007FFFFFF0001FFFFFFE0001FFFFFFC0003FFE0001FFFFFFC0
310
003FFF0003FFFFFFFFC0007FFFFFE00070008000FFFFFFC0007FFF0000007FF8
310
000003FFFF80007F0001FFFFFF8000F8000FFFFFF8000FF8000001FFFE000000
310
7FFFFFF0001FFFFFFE0001FFFFFFC0003FFE0001FFFFFFC0003FFF0003FFFFFF
310
FFC000FFFFFFE00070008000FFFFFFC0007FFF0000007FF8000003FFFF80007F
310
0001FFFFFF8000F8001FFFFFF8000FF8000001FFFE0000007FFFFFF0001FFFFF
310
FE0003FFFFFFE0003FFE0003FFFFFFE0003FFF0003FFFFFFFFC000FFFFFFE000
310
70008000FFFFFFC0007FFE0000007FF8000003FFFF80007F0001FFFFFF8000F0
310
001FFFFFF8000FF8000001FFFE0000007FFFFFF0001FFFFFFC0003FFFFFFE000
310
1FFC0003FFFFFFE0001FFF0003FFFFFFFFC000FFFFFFC00070008000FFFFFF80
310
007FFE0000007FF0000003FFFF80007F0001FFFFFF0000F0001FFFFFF8000FF8
310
000001FFFE0000007FFFFFF0001FFFFFFC0007FFFFFFF0001FFC0007FFFFFFF0
310
001FFF0003FFFFFFFFC000FFFFFFC00070008001FFFFFF0000FFFE0000003FF0
310
000001FFFF80007F0001FFFFFF0000F8001FFFFFF0000FF8000001FFFE000000
310
7FFFFFF0001FFFFFFC0007FFFFFFF0001FFC0007FFFFFFF0001FFF0003FFFFFF
310
FFC001FFFFFF80007000FFFFFFFFFE0000FFFE0008003FF0008001FFFF80007F
310
FFFFFFFFFC0000FFFFFFFFFFE0000FF8000001FFFE0000007FFFFFF0001FFFFF
310
F8000FFFFFFFF8000FF8000FFFFFFFF8000FFF0003FFFFFFFFFFFFFFFFFF0000
310
7000FFFFFFFFFC0000FFFC0008003FF0008001FFFF80007FFFFFFFFFF80001FF
310
FFFFFFFF80000FF8000001FFFE0000007FFFFFF0001FFFFFF8000FFFFFFFF800
310
0FF8000FFFFFFFF8000FFF0003FFFFFFFFFFFFFFFFFE0000F000FFFFFFFFE000
310
00FFFC000C003FE000C001FFFF80007FFFFFFFFFC00001FFFFFFFFFE00001FF8
310
000001FFFE0000007FFFFFF0001FFFFFF8000FFFFFFFF8000FF8000FFFFFFFF8
310
000FFF0003FFFFFFFFFFFFFFFFF00000F000FFFFFFFE000001FFFC000C001FE0
310
00C000FFFF80007FFFFFFFFE000001FFFFFFFFE000001FF80FFFFFFFFFFFFFC0
310
7FFFFFF0001FFFFFF8000FFFFFFFF8000FF8000FFFFFFFF8000FFF0003FFFFFF
310
FFFFFFFFFF800000F000FFFFFFC0000001FFFC001C001FE001C000FFFF80007F
310
FFFFFF80000003FFFFFFF80000001FF80FFFFFFFFFFFFFC07FFFFFF0001FFFFF
310
F8001FFFFFFFFC000FF8001FFFFFFFFC000FFF0003FFFFFFFFFFFFFFF0000001
310
F000FFFFF800000001FFF8001C001FE001C000FFFF80007FFFFFF800000003FF
310
FFFF800000003FF80FFFFFFFFFFFFFC07FFFFFF0001FFFFFF8001FFFFFFFFC00
310
0FF8001FFFFFFFFC000FFF0003FFFFFFFFFFFFFE00000001F000FFFFC0000000
310
03FFF8001E001FC001E000FFFF80007FFFFF8000000007FFFFFC000000003FF8
310
0FFFFFFFFFFFFFC07FFFFFF0001FFFFFF8001FFFFFFFFC000FF8001FFFFFFFFC
310
000FFF0003FFFFFFFFFFFFE000000003F000FFFE0000000007FFF8001E000FC0
310
01E0007FFF80007FFFFE0000000007FFFFE0000000007FF80FFFFFFFFFFFFFC0
310
7FFFFFF0001FFFFFF0001FFFFFFFFC0007F0001FFFFFFFFC0007FF0003FFFFFF
310
FFFFFF0000000003F000FFF80000000007FFF8001E000FC003E0007FFF80007F
310
FFF0000000000FFFFF8000000000FFF80FFFFFFFFFFFFFC07FFFFFF0001FFFFF
310
F0001FFFFFFFFC0007F0001FFFFFFFFC0007FF0003FFFFFFFFFFFC0000000007
310
F000FFE0000000000FFFF0003E000FC003E0007FFF80007FFFC0000000001FFF
310
FE0000000001FFF80FFFFFFFFFFFFFC07FFFFFF0001FFFFFF0001FFFFFFFFC00
310
07F0001FFFFFFFFC0007FF0003FFFFFFFFFFF0000000000FF000FFC000000000
310
1FFFF0003F000F8003F0003FFF80007FFF80000000003FFFF80000000003FFF8
310
0FFFFFFFFFFFFFC07FFFFFF0001FFFFFF0001FFFFFFFFC0007F0001FFFFFFFFC
310
0007FF0003FFFFFFFFFFE0000000001FF000FF00000000007FFFF0003F000780
310
03F0003FFF80007FFF00000000007FFFF00000000007FFF80FFFFFFFFFFFFFC0
310
7FFFFFF0001FFFFFF0001FFFFFFFFC0007F0001FFFFFFFFC0007FF0003FFFFFF
310
FFFF80000000007FF000FE0000000000FFFFE0003F00078007F0003FFF80007F
310
FE0000000001FFFFE0000000001FFFF80FFFFFFFFFFFFFC07FFFFFF0001FFFFF
310
F0001FFFFFFFFC0007F0001FFFFFFFFC0007FF0003FFFFFFFFFF0000000000FF
310
F000FC0000000003FFFFE0007F00078007F0003FFF80007FFC0000000007FFFF
310
C0000000007FFFF80FFFFFFFFFFFFFC07FFFFFF0001FFFFFF8001FFFFFFFFC00
310
0FF8001FFFFFFFFC000FFF0003FFFFFFFFFE0000000003FFF000FC000000000F
310
FFFFE0007F80070007F8001FFF80007FF8000000001FFFFF8000000001FFFFF8
310
0FFFFFFFFFFFFFC07FFFFFF0001FFFFFF8001FFFFFFFFC000FF8001FFFFFFFFC
310
000FFF0003FFFFFFFFFC000000000FFFF000F8000000007FFFFFE0007F800700
310
07F8001FFF80007FF000000000FFFFFF800000000FFFFFF80FFFFFFFFFFFFFC0
310
7FFFFFF0001FFFFFF8000FFFFFFFF8000FF8000FFFFFFFF8000FFF0003FFFFFF
310
FFFC000000007FFFF000F800000007FFFFFFC0007F8003000FF8001FFF80007F
310
F000000007FFFFFF000000007FFFFFF80FFFFFFFFFFFFFC07FFFFFF0001FFFFF
310
F8000FFFFFFFF8000FF8000FFFFFFFF8000FFF0003FFFFFFFFF80000000FFFFF
310
F000F0000000FFFFFFFFC000FF8003000FF8001FFF80007FE0000000FFFFFFFF
310
0000000FFFFFFFF8000001FFFE0000007FFFFFF0001FFFFFF8000FFFFFFFF800
310
0FF8000FFFFFFFF8000FFF0003FFFFFFFFF8000000FFFFFFF000F000000FFFFF
310
FFFFC000FFC002000FF8000FFF80007FE000001FFFFFFFFE000001FFFFFFFFF8
310
000001FFFE0000007FFFFFF0001FFFFFF8000FFFFFFFF8000FF8000FFFFFFFF8
310
000FFF0003FFFFFFFFF000001FFFFFFFF000E00000FFFFFFFFFFC000FFC00200
310
0FFC000FFF80007FE00001FFFFFFFFFE00001FFFFFFFFFF8000001FFFE000000
310
7FFFFFF0001FFFFFFC000FFFFFFFF8001FFC000FFFFFFFF8001FFF0003FFFFFF
310
FFF00001FFFFFFFFF000E00007FFFFFFFFFF8000FFC000001FFC000FFF80007F
310
C0000FFFFFFFFFFE0000FFFFFFFFFFF8000001FFFE0000007FFFFFF0001FFFFF
310
FC0007FFFFFFF0001FFC0007FFFFFFF0001FFF0003FFFFFFFFF00007FFFFFFFF
310
F000E0001FFFFFFFFFFF8000FFC000001FFC000FFF80007FC0003FFFFFFFFFFE
310
0001FFFFFFFFFFF8000001FFFE0000007FFFFFF0001FFFFFFC0007FFFFFFF000
310
1FFC0007FFFFFFF0001FFF0003FFFFFFFFF0001FFFFFFFFFF000E0003FFFFF00
310
03FF8001FFE000001FFC0007FF80007FC0007FFFFF0007FC0003FFFFF0003FF8
310
000001FFFE0000007FFFFFF0001FFFFFFC0003FFFFFFE0001FFC0003FFFFFFE0
310
001FFF0003FFFFFFFFF0003FFFFFFFFFF000E0003FFFFF0001FF8001FFE00000
310
1FFE0007FF80007FC0007FFFFE0003FC0007FFFFE0003FF8000001FFFE000000
310
7FFFFFF0001FFFFFFE0003FFFFFFE0003FFE0003FFFFFFE0003FFF0003FFFFFF
310
FFF0003FFFFF8001F000E0003FFFFF0001FF0001FFE000001FFE0007FF80007F
310
C0007FFFFE0003FC0007FFFFE0003FF8000001FFFE0000007FFFFFF0001FFFFF
310
FE0001FFFFFFC0003FFE0001FFFFFFC0003FFF0003FFFFFFFFF0003FFFFF0001
310
F000E0003FFFFF0003FF0001FFE000003FFE0007FF80007FC0007FFFFE0003FC
310
0007FFFFE0003FF8000001FFFE0000007FFFFFF0001FFFFFFF0001FFFFFFC000
310
7FFF0001FFFFFFC0007FFF0003FFFFFFFFF0003FFFFF0001F000E0003FFFFE00
310
03FF0003FFF000003FFE0003FF80007FC0007FFFFC0003FE0007FFFFE0003FF8
310
000001FFFE0000007FFFFFF0001FFFFFFF0000FFFFFF80007FFF0000FFFFFF80
310
007FFF0003FFFFFFFFF0003FFFFF0001F000E0003FFFFE0003FF0003FFF00000
310
3FFF0003FF80007FC0007FFFFC0007FE0007FFFFC0003FF8000001FFFE000000
310
7FFFFFF0001FFFFFFF80007FFFFF0000FFFF80007FFFFF0000FFFF0003FFFFFF
310
FFF0003FFFFF0003F000E0003FFFFC0003FE0003FFF000003FFF0003FF80007F
310
E0003FFFF80007FE0003FFFFC0007FF8000001FFFE0000007FFFFFF0001FFFFF
310
FF80003FFFFE0000FFFF80003FFFFE0000FFFF0003FFFFFFFFF0001FFFFE0003
310
F000F0001FFFF80003FE0003FFF000007FFF0001FF80007FE0003FFFF00007FE
310
0001FFFF80007FF8000001FFFE0000007FFFFFF0001FFFFFFFC0000FFFF80001
310
FFFFC0000FFFF80001FFFF0003FFFFFFFFF0001FFFFC0003F000F0000FFFF000
310
07FE0007FFF800007FFF0001FF80007FE0001FFFE00007FF0000FFFE00007FF8
310
000001FFFE0000007FFFFFF0001FFFFFFFC00003FFE00001FFFFC00003FFE000
310
01FFFF0003FFFFFFFFF8000FFFF80003F000F00003FFC00007FC0007FFF80000
310
7FFF8001FF80007FF00007FF80000FFF00007FF80000FFF8000001FFFE000000
310
7F80000000000001FFE000003E000003FFFFE000003E000003FFFF0003FFFFFF
310
FFF80003FFE00007F000F800000000000FFC0007FFF800007FFF8001FF80007F
310
F000000000000FFF000000000000FFF8000001FFFE0000007F80000000000001
310
FFF0000000000007FFFFF0000000000007FFFF0003FFFFFFFFFC00007E000007
310
F000F800000000000FFC0007FFF80000FFFF8000FF80007FF800000000001FFF
310
800000000001FFF8000001FFFE0000007F80000000000001FFF800000000000F
310
FFFFF800000000000FFFFF0003FFFFFFFFFC00000000000FF000FC0000000000
310
1FFC0007FFFC0000FFFF8000FF80007FF800000000003FFFC00000000001FFF8
310
000001FFFE0000007F80000000000001FFF800000000000FFFFFF80000000000
310
0FFFFF0003FFFFFFFFFE00000000001FF000FE00000000003FF8000FFFFC0000
310
FFFF8000FF80007FFC00000000003FFFC00000000003FFF8000001FFFE000000
310
7F80000000000001FFFC00000000001FFFFFFC00000000001FFFFF0003FFFFFF
310
FFFF00000000001FF000FF00000000003FF8000FFFFC0000FFFFC000FF80007F
310
FE00000000007FFFE00000000007FFF8000001FFFE0000007F80000000000001
310
FFFE00000000003FFFFFFE00000000003FFFFF0003FFFFFFFFFF80000000003F
310
F000FF80000000007FF8000FFFFC0001FFFFC0007F80007FFF0000000000FFFF
310
F0000000000FFFF800000000000000007F80000000000001FFFF8000000000FF
310
FFFFFF8000000000FFFFFF0003FFFFFFFFFFC0000000007FF000FFC000000000
310
FFF8000FFFFE0001FFFFC0007F80007FFF8000000001FFFFF8000000001FFFF8
310
00000000000000007F80000000000001FFFFC000000001FFFFFFFFC000000001
310
FFFFFF0003FFFFFFFFFFE000000000FFF000FFE000000003FFF0001FFFFE0001
310
FFFFC0007F80007FFFC000000007FFFFFE000000003FFFF80000000000000000
310
7F80000000000001FFFFE000000003FFFFFFFFE000000003FFFFFF0003FFFFFF
310
FFFFF000000003FFF000FFF80000000FFFF0001FFFFE0001FFFFE0007F80007F
310
FFF00000000FFFFFFF00000000FFFFF800000000000000007F80000000000001
310
FFFFF80000000FFFFFFFFFF80000000FFFFFFF0003FFFFFFFFFFFC0000000FFF
310
F000FFFE0000003FFFF0001FFFFE0003FFFFE0003F80007FFFFC0000003FFFFF
310
FFC0000003FFFFF800000000000000007F80000000000001FFFFFE0000003FFF
310
FFFFFFFE0000003FFFFFFF0003FFFFFFFFFFFF0000003FFFF000FFFF800000FF
310
FFF0001FFFFF0003FFFFE0003F80007FFFFF000001FFFFFFFFF800001FFFFFF8
310
00000000000000007F80000000000001FFFFFFC00001FFFFFFFFFFFFC00001FF
310
FFFFFF0003FFFFFFFFFFFFC00000FFFFF000FFFFF8000FFFFFFFFFFFFFFFFFFF
310
FFFFFFFFFFFFFFFFFFFFF0001FFFFFFFFFFF0000FFFFFFF80000000000000000
310
7FFFFFFFFFFFFFFFFFFFFFFC001FFFFFFFFFFFFFFC001FFFFFFFFFFFFFFFFFFF
310
FFFFFFFC001FFFFFF000FFFFFFFFFFFFFFFFFFFFFFFFFFFFFFFFFFFFFFFFFFFF
310
FFFFFFFFFFFFFFFFFFFFFFFFFFFFFFFFFFFFFFFFFFFFFFFFFFFFFFFFFFFFFFFF
310
FFFFFFFFFFFFFFFFFFFFFFFFFFFFFFFFFFFFFFFFFFFFFFFFFFFFFFFFFFFFFFFF
310
F000FFFFFFFFFFFFFFFFFFFFFFFFFFFFFFFFFFFFFFFFFFFFFFFFFFFFFFFFFFFF
310
FFFFFFFFFFFFFFFFFFFFFFFFFFFFFFFFFFFFFFFFFFFFFFFFFFFFFFFFFFFFFFFF
310
FFFFFFFFFFFFFFFFFFFFFFFFFFFFFFFFFFFFFFFFFFFFFFFFF000FFFFFFFFFFFF
310
FFFFFFFFFFFFFFFFFFFFFFFFFFFFFFFFFFFFFFFFFFFFFFFFFFFFFFFFFFFFFFFF
310
FFFFFFFFFFFFFFFFFFFFFFFFFFFFFFFFFFFFFFFFFFFFFFFFFFFFFFFFFFFFFFFF
310
FFFFFFFFFFFFFFFFFFFFFFFFFFFFFFFFF000FFFFFFFFFFFFFFFFFFFFFFFFFFFF
310
FFFFFFFFFFFFFFFFFFFFFFFFFFFFFFFFFFFFFFFFFFFFFFFFFFFFFFFFFFFFFFFF
310
FFFFFFFFFFFFFFFFFFFFFFFFFFFFFFFFFFFFFFFFFFFFFFFFFFFFFFFFFFFFFFFF
310
FFFFFFFFFFFFFFFFF000FFFFFFFFFFFFFFFFFFFFFFFFFFFFFFFFFFFFFFFFFFFF
310
FFFFFFFFFFFFFFFFFFFFFFFFFFFFFFFFFFFFFFFFFFFFFFFFFFFFFFFFFFFFFFFF
310
FFFFFFFFFFFFFFFFFFFFFFFFFFFFFFFFFFFFFFFFFFFFFFFFFFFFFFFFFFFFFFFF
310
F000FFFFFFFFFFFFFFFFFFFFFFFFFFFFFFFFFFFFFFFFFFFFFFFFFFFFFFFFFFFF
310
FFFFFFFFFFFFFFFFFFFFFFFFFFFFFFFFFFFFFFFFFFFFFFFFFFFFFFFFFFFFFFFF
310
FFFFFFFFFFFFFFFFFFFFFFFFFFFFFFFFFFFFFFFFFFFFFFFFF000FFFFFFFFFFFF
310
FFFFFFFFFFFFFFFFFFFFFFFFFFFFFFFFFFFFFFFFFFFFFFFFFFFFFFFFFFFFFFFF
310
FFFFFFFFFFFFFFFFFFFFFFFFFFFFFFFFFFFFFFFFFFFFFFFFFFFFFFFFFFFFFFFF
310
FFFFFFFFFFFFFFFFFFFFFFFFFFFFFFFFF000FFFFFFFFFFFFFFFFFFFFFFFFFFFF
310
FFFFFFFFFFFFFFFFFFFFFFFFFFFFFFFFFFFFFFFFFFFFFFFFFFFFFFFFFFFFFFFF
310
FFFFFFFFFFFFFFFFFFFFFFFFFFFFFFFFFFFFFFFFFFFFFFFFFFFFFFFFFFFFFFFF
310
FFFFFFFFFFFFFFFFF000FFFFFFFFFFFFFFFFFFFFFFFFFFFFFFFFFFFFFFFFFFFF
310
FFFFFFFFFFFFFFFFFFFFFFFFFFFFFFFFFFFFFFFFFFFFFFFFFFFFFFFFFFFFFFFF
310
FFFFFFFFFFFFFFFFFFFFFFFFFFFFFFFFFFFFFFFFFFFFFFFFFFFFFFFFFFFFFFFF
310
F000FFFFFFFFFFFFFFFFFFFFFFFFFFFFFFFFFFFFFFFFFFFFFFFFFFFFFFFFFFFF
310
FFFFFFFFFFFFFFFFFFFFFFFFFFFFFFFFFFFFFFFFFFFFFFFFFFFFFFFFFFFFFFFF
310
FFFFFFFFFFFFFFFFFFFFFFFFFFFFFFFFFFFFFFFFFFFFFFFFF000FFFFFFFFFFFF
310
FFFFFFFFFFFFFFFFFFFFFFFFFFFFFFFFFFFFFFFFFFFFFFFFFFFFFFFFFFFFFFFF
310
FFFFFFFFFFFFFFFFFFFFFFFFFFFFFFFFFFFFFFFFFFFFFFFFFFFFFFFFFFFFFFFF
310
FFFFFFFFFFFFFFFFFFFFFFFFFFFFFFFFF000FFFFFFFFFFFFFFFFFFFFFFFFFFFF
310
FFFFFFFFFFFFFFFFFFFFFFFFFFFFFFFFFFFFFFFFFFFFFFFFFFFFFFFFFFFFFFFF
310
FFFFFFFFFFFFFFFFFFFFFFFFFFFFFFFFFFFFFFFFFFFFFFFFFFFFFFFFFFFFFFFF
310
FFFFFFFFFFFFFFFFF000FFFFFFFFFFFFFFFFFFFFFFFFFFFFFFFFFFFFFFFFFFFF
310
FFFFFFFFFFFFFFFFFFFFFFFFFFFFFFFFFFFFFFFFFFFFFFFFFFFFFFFFFFFFFFFF
310
FFFFFFFFFFFFFFFFFFFFFFFFFFFFFFFFFFFFFFFFFFFFFFFFFFFFFFFFFFFFFFFF
310
F000FFFFFFFFFFFFFFFFFFFFFFFFFFFFFFFFFFFFFFFFFFFFFFFFFFFFFFFFFFFF
310
FFFFFFFFFFFFFFFFFFFFFFFFFFFFFFFFFFFFFFFFFFFFFFFFFFFFFFFFFFFFFFFF
310
FFFFFFFFFFFFFFFFFFFFFFFFFFFFFFFFFFFFFFFFFFFFFFFFF000FFFFFFFFFFFF
310
FFFFFFFFFFFFFFFFFFFFFFFFFFFFFFFFFFFFFFFFFFFFFFFFFFFFFFFFFFFFFFFF
310
FFFFFFFFFFFFFFFFFFFFFFFFFFFFFFFFFFFFFFFFFFFFFFFFFFFFFFFFFFFFFFFF
310
FFFFFFFFFFFFFFFFFFFFFFFFFFFFFFFFF000FFFFFFFFFFFFFFFFFFFFFFFFFFFF
310
FFFFFFFFFFFFFFFFFFFFFFFFFFFFFFFFFFFFFFFFFFFFFFFFFFFFFFFFFFFFFFFF
310
FFFFFFFFFFFFFFFFFFFFFFFFFFFFFFFFFFFFFFFFFFFFFFFFFFFFFFFFFFFFFFFF
310
FFFFFFFFFFFFFFFFF000FFFFFFFFFFFFFFFFFFFFFFFFFFFFFFFFFFFFFFFFFFFF
310
FFFFFFFFFFFFFFFFFFFFFFFFFFFFFFFFFFFFFFFFFFFFFFFFFFFFFFFFFFFFFFFF
310
FFFFFFFFFFFFFFFFFFFFFFFFFFFFFFFFFFFFFFFFFFFFFFFFFFFFFFFFFFFFFFFF
310
F000FFFFFFFFFFFFFFFFFFFFFFFFFFFFFFFFFFFFFFFFFFFFFFFFFFFFFFFFFFFF
310
FFFFFFFFFFFFFFFFFFFFFFFFFFFFFFFFFFFFFFFFFFFFFFFFFFFFFFFFFFFFFFFF
310
FFFFFFFFFFFFFFFFFFFFFFFFFFFFFFFFFFFFFFFFFFFFFFFFF000FFFFFFFFFFFF
310
FFFFFFFFFFFFFFFFFFFFFFFFFFFFFFFFFFFFFFFFFFFFFFFFFFFFFFFFFFFFFFFF
310
FFFFFFFFFFFFFFFFFFFFFFFFFFFFFFFFFFFFFFFFFFFFFFFFFFFFFFFFFFFFFFFF
310
FFFFFFFFFFFFFFFFFFFFFFFFFFFFFFFFF000FFFFFFFFFFFFFFFFFFFFFFFFFFFF
310
FFFFFFFFFFFFFFFFFFFFFFFFFFFFFFFFFFFFFFFFFFFFFFFFFFFFFFFFFFFFFFFF
310
FFFFFFFFFFFFFFFFFFFFFFFFFFFFFFFFFFFFFFFFFFFFFFFFFFFFFFFFFFFFFFFF
310
FFFFFFFFFFFFFFFFF000FFFFFFFFFFFFFFFFFFFFFFFFFFFFFFFFFFFFFFFFFFFF
310
FFFFFFFFFFFFFFFFFFFFFFFFFFFFFFFFFFFFFFFFFFFFFFFFFFFFFFFFFFFFFFFF
310
FFFFFFFFFFFFFFFFFFFFFFFFFFFFFFFFFFFFFFFFFFFFFFFFFFFFFFFFFFFFFFFF
310
F000FFFFFFFFFFFFFFFFFFFFFFFFFFFFFFFFFFFFFFFFFFFFFFFFFFFFFFFFFFFF
310
FFFFFFFFFFFFFFFFFFFFFFFFFFFFFFFFFFFFFFFFFFFFFFFFFFFFFFFFFFFFFFFF
310
FFFFFFFFFFFFFFFFFFFFFFFFFFFFFFFFFFFFFFFFFFFFFFFFF000FFFFFFFFFFFF
310
FFFFFFFFFFFFFFFFFFFFFFFFFFFFFFFFFFFFFFFFFFFFFFFFFFFFFFFFFFFFFFFF
310
FFFFFFFFFFFFFFFFFFFFFFFFFFFFFFFFFFFFFFFFFFFFFFFFFFFFFFFFFFFFFFFF
310
FFFFFFFFFFFFFFFFFFFFFFFFFFFFFFFFF0000000000000000000000000000000
310
000000000000DB04000000000000000000000000000000000000000000000000
310
000000000000000000000000000092000004040451000000C710EA78B159933F
310
00000000000000004C586240DA5B7C3F36EE91111A74B23F52E3A59BC420A03F
310
6479BE2BBB37A73FDA72D508576AA0BF52E3A59BC420A0BF50E3A59BC420A0BF
310
9AE3F0EE4738B23F010000000000000000000000000000000000000000000000
310
000100000092694E1ADD7D943F000000000000000050586240DA5B7C3F000000
310
00000000000000000000000000000000F0BF0000000000000002000000000000
310
00C90000007B14AE47E17A843FA60A462575026A3F0133114E7A6001E1BF0000
310
0000000000000000000000000000000001000000000000000000FFFEFF052A00
310
4F00620065006E000000000000C28400002481FFFEFF0A2A005200FC0063006B
310
00730065006900740065000000000000000040CC00000000000000000003006E
310
812481FFFEFF0D440065007400610069006C006F00720064006E006500720036
310
000000000000000040CB00000000000000000000000000000000000000000000
310
006500000000000000000000000000000000D80E0000000000000000000064A4
310
1E000000FFFEFF0000FFFF000001FFFFFFFFFFFFFFFF000080BF000000000000
  1
OLE
  0
ENDSEC
  0
SECTION
  2
OBJECTS
  0
DICTIONARY
  5
C
330
0
100
AcDbDictionary
281
     1
  3
ACAD_GROUP
350
D
  3
ACAD_LAYOUT
350
1A
  3
ACAD_MLEADERSTYLE
350
23C
  3
ACAD_MLINESTYLE
350
17
  3
ACAD_PLOTSETTINGS
350
19
  3
ACAD_PLOTSTYLENAME
350
E
  3
ACAD_TABLESTYLE
350
23B
  3
ACAD_VISUALSTYLE
350
2A
  3
AcDbVariableDictionary
350
23D
  0
DICTIONARY
  5
D
102
{ACAD_REACTORS
330
C
102
}
330
C
100
AcDbDictionary
281
     1
  0
DICTIONARY
  5
1A
102
{ACAD_REACTORS
330
C
102
}
330
C
100
AcDbDictionary
281
     1
  3
Layout1
350
1E
  3
Layout2
350
26
  3
Model
350
22
  0
DICTIONARY
  5
23C
102
{ACAD_REACTORS
330
C
102
}
330
C
100
AcDbDictionary
281
     1
  0
DICTIONARY
  5
17
102
{ACAD_REACTORS
330
C
102
}
330
C
100
AcDbDictionary
281
     1
  3
Standard
350
18
  0
DICTIONARY
  5
19
102
{ACAD_REACTORS
330
C
102
}
330
C
100
AcDbDictionary
281
     1
  0
ACDBDICTIONARYWDFLT
  5
E
102
{ACAD_REACTORS
330
C
102
}
330
C
100
AcDbDictionary
281
     1
  3
Normal
350
F
100
AcDbDictionaryWithDefault
340
F
  0
DICTIONARY
  5
23B
102
{ACAD_REACTORS
330
C
102
}
330
C
100
AcDbDictionary
281
     1
  0
DICTIONARY
  5
2A
102
{ACAD_REACTORS
330
C
102
}
330
C
100
AcDbDictionary
281
     1
  3
2dWireframe
350
2F
  3
3D Hidden
350
31
  3
3dWireframe
350
30
  3
Basic
350
32
  3
Brighten
350
36
  3
ColorChange
350
3A
  3
Conceptual
350
34
  3
Dim
350
35
  3
Facepattern
350
39
  3
Flat
350
2B
  3
FlatWithEdges
350
2C
  3
Gouraud
350
2D
  3
GouraudWithEdges
350
2E
  3
Linepattern
350
38
  3
Realistic
350
33
  3
Thicken
350
37
  0
DICTIONARY
  5
23D
102
{ACAD_REACTORS
330
C
102
}
330
C
100
AcDbDictionary
281
     1
  3
PSOLHEIGHT
350
23F
  3
PSOLWIDTH
350
23E
  0
LAYOUT
  5
1E
102
{ACAD_REACTORS
330
1A
102
}
330
1A
100
AcDbPlotSettings
  1

  2
none_device
  4

  6

 40
0.0
 41
0.0
 42
0.0
 43
0.0
 44
0.0
 45
0.0
 46
0.0
 47
0.0
 48
0.0
 49
0.0
140
0.0
141
0.0
142
1.0
143
1.0
 70
   688
 72
     0
 73
     0
 74
     5
  7

 75
    16
147
1.0
148
0.0
149
0.0
100
AcDbLayout
  1
Layout1
 70
     1
 71
     1
 10
0.0
 20
0.0
 11
420.0
 21
297.0
 12
0.0
 22
0.0
 32
0.0
 14
1.0000000000E+20
 24
1.0000000000E+20
 34
1.0000000000E+20
 15
-1.0000000000E+20
 25
-1.0000000000E+20
 35
-1.0000000000E+20
146
0.0
 13
0.0
 23
0.0
 33
0.0
 16
1.0
 26
0.0
 36
0.0
 17
0.0
 27
1.0
 37
0.0
 76
     0
330
1B
  0
LAYOUT
  5
26
102
{ACAD_REACTORS
330
1A
102
}
330
1A
100
AcDbPlotSettings
  1

  2
none_device
  4

  6

 40
0.0
 41
0.0
 42
0.0
 43
0.0
 44
0.0
 45
0.0
 46
0.0
 47
0.0
 48
0.0
 49
0.0
140
0.0
141
0.0
142
1.0
143
1.0
 70
   688
 72
     0
 73
     0
 74
     5
  7

 75
    16
147
1.0
148
0.0
149
0.0
100
AcDbLayout
  1
Layout2
 70
     1
 71
     2
 10
0.0
 20
0.0
 11
0.0
 21
0.0
 12
0.0
 22
0.0
 32
0.0
 14
0.0
 24
0.0
 34
0.0
 15
0.0
 25
0.0
 35
0.0
146
0.0
 13
0.0
 23
0.0
 33
0.0
 16
1.0
 26
0.0
 36
0.0
 17
0.0
 27
1.0
 37
0.0
 76
     0
330
23
  0
LAYOUT
  5
22
102
{ACAD_REACTORS
330
1A
102
}
330
1A
100
AcDbPlotSettings
  1

  2
none_device
  4

  6

 40
0.0
 41
0.0
 42
0.0
 43
0.0
 44
0.0
 45
0.0
 46
0.0
 47
0.0
 48
0.0
 49
0.0
140
0.0
141
0.0
142
1.0
143
1.0
 70
  1712
 72
     0
 73
     0
 74
     0
  7

 75
     0
147
1.0
148
0.0
149
0.0
100
AcDbLayout
  1
Model
 70
     1
 71
     0
 10
0.0
 20
0.0
 11
297.0
 21
210.0
 12
0.0
 22
0.0
 32
0.0
 14
0.0
 24
0.0
 34
0.0
 15
297.0
 25
210.0
 35
0.0
146
0.0
 13
0.0
 23
0.0
 33
0.0
 16
1.0
 26
0.0
 36
0.0
 17
0.0
 27
1.0
 37
0.0
 76
     0
330
1F
331
29
  0
MLINESTYLE
  5
18
102
{ACAD_REACTORS
330
17
102
}
330
17
100
AcDbMlineStyle
  2
Standard
 70
     0
  3

 62
   256
 51
90.0
 52
90.0
 71
     2
 49
0.5
 62
   256
  6
BYLAYER
 49
-0.5
 62
   256
  6
BYLAYER
  0
ACDBPLACEHOLDER
  5
F
102
{ACAD_REACTORS
330
E
102
}
330
E
  0
VISUALSTYLE
  5
2F
102
{ACAD_REACTORS
330
2A
102
}
330
2A
100
AcDbVisualStyle
  2
2dWireframe
 70
     4
 71
     0
 72
     2
 73
     0
 90
        0
 40
-0.6
 41
-30.0
 62
     5
 63
     7
 74
     1
 91
        4
 64
     7
 65
   257
 75
     1
175
     1
 42
1.0
 92
        0
 66
   257
 43
1.0
 76
     1
 77
     6
 78
     2
 67
     7
 79
     5
170
     0
171
     0
290
     0
174
     0
 93
        1
 44
0.0
173
     0
291
     0
 45
0.0
1001
ACAD
1000
AcDbSavedByObjectVersion
1070
     0
  0
VISUALSTYLE
  5
31
102
{ACAD_REACTORS
330
2A
102
}
330
2A
100
AcDbVisualStyle
  2
3D Hidden
 70
     6
 71
     1
 72
     2
 73
     2
 90
        0
 40
-0.6
 41
-30.0
 62
     5
 63
     7
 74
     2
 91
        2
 64
     7
 65
   257
 75
     2
175
     1
 42
40.0
 92
        0
 66
   257
 43
1.0
 76
     1
 77
     6
 78
     2
 67
     7
 79
     3
170
     0
171
     0
290
     0
174
     0
 93
        1
 44
0.0
173
     0
291
     0
 45
0.0
1001
ACAD
1000
AcDbSavedByObjectVersion
1070
     0
  0
VISUALSTYLE
  5
30
102
{ACAD_REACTORS
330
2A
102
}
330
2A
100
AcDbVisualStyle
  2
3dWireframe
 70
     5
 71
     0
 72
     2
 73
     0
 90
        0
 40
-0.6
 41
-30.0
 62
     5
 63
     7
 74
     1
 91
        4
 64
     7
 65
   257
 75
     1
175
     1
 42
1.0
 92
        0
 66
   257
 43
1.0
 76
     1
 77
     6
 78
     2
 67
     7
 79
     5
170
     0
171
     0
290
     0
174
     0
 93
        1
 44
0.0
173
     0
291
     0
 45
0.0
1001
ACAD
1000
AcDbSavedByObjectVersion
1070
     0
  0
VISUALSTYLE
  5
32
102
{ACAD_REACTORS
330
2A
102
}
330
2A
100
AcDbVisualStyle
  2
Basic
 70
     7
 71
     1
 72
     0
 73
     1
 90
        0
 40
-0.6
 41
-30.0
 62
     5
 63
     7
 74
     0
 91
        4
 64
     7
 65
   257
 75
     1
175
     1
 42
1.0
 92
        8
 66
     7
 43
1.0
 76
     1
 77
     6
 78
     2
 67
     7
 79
     5
170
     0
171
     0
290
     0
174
     0
 93
        1
 44
0.0
173
     0
291
     1
 45
0.0
1001
ACAD
1000
AcDbSavedByObjectVersion
1070
     0
  0
VISUALSTYLE
  5
36
102
{ACAD_REACTORS
330
2A
102
}
330
2A
100
AcDbVisualStyle
  2
Brighten
 70
    12
 71
     2
 72
     2
 73
     0
 90
        0
 40
-0.6
 41
-30.0
 62
     5
 63
     7
 74
     1
 91
        4
 64
     7
 65
   257
 75
     1
175
     1
 42
1.0
 92
        8
 66
     7
 43
1.0
 76
     1
 77
     6
 78
     2
 67
     7
 79
     5
170
     0
171
     0
290
     0
174
     0
 93
        1
 44
50.0
173
     0
291
     1
 45
0.0
1001
ACAD
1000
AcDbSavedByObjectVersion
1070
     0
  0
VISUALSTYLE
  5
3A
102
{ACAD_REACTORS
330
2A
102
}
330
2A
100
AcDbVisualStyle
  2
ColorChange
 70
    16
 71
     2
 72
     2
 73
     3
 90
        0
 40
-0.6
 41
-30.0
 62
     5
 63
     8
 74
     1
 91
        4
 64
     7
 65
   257
 75
     1
175
     1
 42
1.0
 92
        8
 66
     8
 43
1.0
 76
     1
 77
     6
 78
     2
 67
     7
 79
     5
170
     0
171
     0
290
     0
174
     0
 93
        1
 44
0.0
173
     0
291
     1
 45
0.0
1001
ACAD
1000
AcDbSavedByObjectVersion
1070
     0
  0
VISUALSTYLE
  5
34
102
{ACAD_REACTORS
330
2A
102
}
330
2A
100
AcDbVisualStyle
  2
Conceptual
 70
     9
 71
     3
 72
     2
 73
     0
 90
        0
 40
-0.6
 41
-30.0
 62
     5
 63
     7
 74
     2
 91
        2
 64
     7
 65
   257
 75
     1
175
     1
 42
40.0
 92
        8
 66
     7
 43
1.0
 76
     1
 77
     6
 78
     2
 67
     7
 79
     3
170
     0
171
     0
290
     0
174
     0
 93
        1
 44
0.0
173
     0
291
     0
 45
0.0
1001
ACAD
1000
AcDbSavedByObjectVersion
1070
     0
  0
VISUALSTYLE
  5
35
102
{ACAD_REACTORS
330
2A
102
}
330
2A
100
AcDbVisualStyle
  2
Dim
 70
    11
 71
     2
 72
     2
 73
     0
 90
        0
 40
-0.6
 41
-30.0
 62
     5
 63
     7
 74
     1
 91
        4
 64
     7
 65
   257
 75
     1
175
     1
 42
1.0
 92
        8
 66
     7
 43
1.0
 76
     1
 77
     6
 78
     2
 67
     7
 79
     5
170
     0
171
     0
290
     0
174
     0
 93
        1
 44
-50.0
173
     0
291
     1
 45
0.0
1001
ACAD
1000
AcDbSavedByObjectVersion
1070
     0
  0
VISUALSTYLE
  5
39
102
{ACAD_REACTORS
330
2A
102
}
330
2A
100
AcDbVisualStyle
  2
Facepattern
 70
    15
 71
     2
 72
     2
 73
     0
 90
        0
 40
-0.6
 41
-30.0
 62
     5
 63
     7
 74
     1
 91
        4
 64
     7
 65
   257
 75
     1
175
     1
 42
1.0
 92
        8
 66
     7
 43
1.0
 76
     1
 77
     6
 78
     2
 67
     7
 79
     5
170
     0
171
     0
290
     0
174
     0
 93
        1
 44
0.0
173
     0
291
     1
 45
0.0
1001
ACAD
1000
AcDbSavedByObjectVersion
1070
     0
  0
VISUALSTYLE
  5
2B
102
{ACAD_REACTORS
330
2A
102
}
330
2A
100
AcDbVisualStyle
  2
Flat
 70
     0
 71
     2
 72
     1
 73
     1
 90
        2
 40
-0.6
 41
30.0
 62
     5
 63
     7
 74
     0
 91
        4
 64
     7
 65
   257
 75
     1
175
     1
 42
1.0
 92
        8
 66
     7
 43
1.0
 76
     1
 77
     6
 78
     2
 67
     7
 79
     5
170
     0
171
     0
290
     0
174
     0
 93
       13
 44
0.0
173
     0
291
     1
 45
0.0
1001
ACAD
1000
AcDbSavedByObjectVersion
1070
     0
  0
VISUALSTYLE
  5
2C
102
{ACAD_REACTORS
330
2A
102
}
330
2A
100
AcDbVisualStyle
  2
FlatWithEdges
 70
     1
 71
     2
 72
     1
 73
     1
 90
        2
 40
-0.6
 41
30.0
 62
     5
 63
     7
 74
     1
 91
        4
 64
     7
 65
   257
 75
     1
175
     1
 42
1.0
 92
        0
 66
   257
 43
1.0
 76
     1
 77
     6
 78
     2
 67
     7
 79
     5
170
     0
171
     0
290
     0
174
     0
 93
       13
 44
0.0
173
     0
291
     1
 45
0.0
1001
ACAD
1000
AcDbSavedByObjectVersion
1070
     0
  0
VISUALSTYLE
  5
2D
102
{ACAD_REACTORS
330
2A
102
}
330
2A
100
AcDbVisualStyle
  2
Gouraud
 70
     2
 71
     2
 72
     2
 73
     1
 90
        2
 40
-0.6
 41
30.0
 62
     5
 63
     7
 74
     0
 91
        4
 64
     7
 65
   257
 75
     1
175
     1
 42
1.0
 92
        0
 66
     7
 43
1.0
 76
     1
 77
     6
 78
     2
 67
     7
 79
     5
170
     0
171
     0
290
     0
174
     0
 93
       13
 44
0.0
173
     0
291
     1
 45
0.0
1001
ACAD
1000
AcDbSavedByObjectVersion
1070
     0
  0
VISUALSTYLE
  5
2E
102
{ACAD_REACTORS
330
2A
102
}
330
2A
100
AcDbVisualStyle
  2
GouraudWithEdges
 70
     3
 71
     2
 72
     2
 73
     1
 90
        2
 40
-0.6
 41
30.0
 62
     5
 63
     7
 74
     1
 91
        4
 64
     7
 65
   257
 75
     1
175
     1
 42
1.0
 92
        0
 66
   257
 43
1.0
 76
     1
 77
     6
 78
     2
 67
     7
 79
     5
170
     0
171
     0
290
     0
174
     0
 93
       13
 44
0.0
173
     0
291
     1
 45
0.0
1001
ACAD
1000
AcDbSavedByObjectVersion
1070
     0
  0
VISUALSTYLE
  5
38
102
{ACAD_REACTORS
330
2A
102
}
330
2A
100
AcDbVisualStyle
  2
Linepattern
 70
    14
 71
     2
 72
     2
 73
     0
 90
        0
 40
-0.6
 41
-30.0
 62
     5
 63
     7
 74
     1
 91
        4
 64
     7
 65
   257
 75
     7
175
     7
 42
1.0
 92
        8
 66
     7
 43
1.0
 76
     1
 77
     6
 78
     2
 67
     7
 79
     5
170
     0
171
     0
290
     0
174
     0
 93
        1
 44
0.0
173
     0
291
     1
 45
0.0
1001
ACAD
1000
AcDbSavedByObjectVersion
1070
     0
  0
VISUALSTYLE
  5
33
102
{ACAD_REACTORS
330
2A
102
}
330
2A
100
AcDbVisualStyle
  2
Realistic
 70
     8
 71
     2
 72
     2
 73
     0
 90
        0
 40
-0.6
 41
-30.0
 62
     5
 63
     7
 74
     1
 91
        0
 64
     7
 65
   257
 75
     1
175
     1
 42
1.0
 92
        8
 66
     8
 43
1.0
 76
     1
 77
     6
 78
     2
 67
     7
 79
     5
170
     0
171
     0
290
     0
174
     0
 93
       13
 44
0.0
173
     0
291
     0
 45
0.0
1001
ACAD
1000
AcDbSavedByObjectVersion
1070
     0
  0
VISUALSTYLE
  5
37
102
{ACAD_REACTORS
330
2A
102
}
330
2A
100
AcDbVisualStyle
  2
Thicken
 70
    13
 71
     2
 72
     2
 73
     0
 90
        0
 40
-0.6
 41
-30.0
 62
     5
 63
     7
 74
     1
 91
        4
 64
     7
 65
   257
 75
     1
175
     1
 42
1.0
 92
       12
 66
     7
 43
1.0
 76
     1
 77
     6
 78
     2
 67
     7
 79
     5
170
     0
171
     0
290
     0
174
     0
 93
        1
 44
0.0
173
     0
291
     1
 45
0.0
1001
ACAD
1000
AcDbSavedByObjectVersion
1070
     0
  0
DICTIONARYVAR
  5
23F
102
{ACAD_REACTORS
330
23D
102
}
330
23D
100
DictionaryVariables
280
     0
  1
80.000000
  0
DICTIONARYVAR
  5
23E
102
{ACAD_REACTORS
330
23D
102
}
330
23D
100
DictionaryVariables
280
     0
  1
5.000000
  0
ENDSEC
  0
EOF
