  0
SECTION
  2
HEADER
  9
$ACADVER
  1
AC1015
  9
$ACADMAINTVER
 70
     6
  9
$DWGCODEPAGE
  3
ANSI_1252
  9
$INSBASE
 10
0.0
 20
0.0
 30
0.0
  9
$EXTMIN
 10
0.0
 20
0.0
 30
0.0
  9
$EXTMAX
 10
297.0
 20
210.0
 30
0.0
  9
$LIMMIN
 10
0.0
 20
0.0
  9
$LIMMAX
 10
297.0
 20
210.0
  9
$ORTHOMODE
 70
     0
  9
$REGENMODE
 70
     1
  9
$FILLMODE
 70
     1
  9
$QTEXTMODE
 70
     0
  9
$MIRRTEXT
 70
     1
  9
$LTSCALE
 40
1.0
  9
$ATTMODE
 70
     1
  9
$TEXTSIZE
 40
2.0
  9
$TRACEWID
 40
1.0
  9
$TEXTSTYLE
  7
Standard
  9
$CLAYER
  8
0
  9
$CELTYPE
  6
ByLayer
  9
$CECOLOR
 62
   256
  9
$CELTSCALE
 40
1.0
  9
$DISPSILH
 70
     0
  9
$DIMSCALE
 40
1.0
  9
$DIMASZ
 40
3.0
  9
$DIMEXO
 40
0.0
  9
$DIMDLI
 40
3.75
  9
$DIMRND
 40
0.0
  9
$DIMDLE
 40
0.0
  9
$DIMEXE
 40
1.0
  9
$DIMTP
 40
0.0
  9
$DIMTM
 40
0.0
  9
$DIMTXT
 40
2.0
  9
$DIMCEN
 40
2.5
  9
$DIMTSZ
 40
0.0
  9
$DIMTOL
 70
     0
  9
$DIMLIM
 70
     0
  9
$DIMTIH
 70
     1
  9
$DIMTOH
 70
     1
  9
$DIMSE1
 70
     0
  9
$DIMSE2
 70
     0
  9
$DIMTAD
 70
     1
  9
$DIMZIN
 70
     0
  9
$DIMBLK
  1

  9
$DIMASO
 70
     1
  9
$DIMSHO
 70
     1
  9
$DIMPOST
  1

  9
$DIMAPOST
  1

  9
$DIMALT
 70
     0
  9
$DIMALTD
 70
     3
  9
$DIMALTF
 40
0.0393700787
  9
$DIMLFAC
 40
1.0
  9
$DIMTOFL
 70
     1
  9
$DIMTVP
 40
0.0
  9
$DIMTIX
 70
     0
  9
$DIMSOXD
 70
     0
  9
$DIMSAH
 70
     0
  9
$DIMBLK1
  1

  9
$DIMBLK2
  1

  9
$DIMSTYLE
  2
ISO-25
  9
$DIMCLRD
 70
     0
  9
$DIMCLRE
 70
     0
  9
$DIMCLRT
 70
     0
  9
$DIMTFAC
 40
1.0
  9
$DIMGAP
 40
1.524
  9
$DIMJUST
 70
     0
  9
$DIMSD1
 70
     0
  9
$DIMSD2
 70
     0
  9
$DIMTOLJ
 70
     0
  9
$DIMTZIN
 70
     0
  9
$DIMALTZ
 70
     0
  9
$DIMALTTZ
 70
     0
  9
$DIMUPT
 70
     0
  9
$DIMDEC
 70
     2
  9
$DIMTDEC
 70
     3
  9
$DIMALTU
 70
     2
  9
$DIMALTTD
 70
     3
  9
$DIMTXSTY
  7
Standard
  9
$DIMAUNIT
 70
     0
  9
$DIMADEC
 70
     2
  9
$DIMALTRND
 40
0.0
  9
$DIMAZIN
 70
     0
  9
$DIMDSEP
 70
    44
  9
$DIMATFIT
 70
     3
  9
$DIMFRAC
 70
     0
  9
$DIMLDRBLK
  1

  9
$DIMLUNIT
 70
     2
  9
$DIMLWD
 70
    -2
  9
$DIMLWE
 70
    -2
  9
$DIMTMOVE
 70
     0
  9
$LUNITS
 70
     2
  9
$LUPREC
 70
     2
  9
$SKETCHINC
 40
1.0
  9
$FILLETRAD
 40
10.0
  9
$AUNITS
 70
     0
  9
$AUPREC
 70
     2
  9
$MENU
  1
.
  9
$ELEVATION
 40
0.0
  9
$PELEVATION
 40
0.0
  9
$THICKNESS
 40
0.0
  9
$LIMCHECK
 70
     0
  9
$CHAMFERA
 40
10.0
  9
$CHAMFERB
 40
10.0
  9
$CHAMFERC
 40
20.0
  9
$CHAMFERD
 40
0.0
  9
$SKPOLY
 70
     0
  9
$TDCREATE
 40
2456465.46767728
  9
$TDUCREATE
 40
2456465.384343947
  9
$TDUPDATE
 40
2456465.467678542
  9
$TDUUPDATE
 40
2456465.384345208
  9
$TDINDWG
 40
0.0000000116
  9
$TDUSRTIMER
 40
0.0000000116
  9
$USRTIMER
 70
     1
  9
$ANGBASE
 50
0.0
  9
$ANGDIR
 70
     0
  9
$PDMODE
 70
     0
  9
$PDSIZE
 40
-1.0
  9
$PLINEWID
 40
0.0
  9
$SPLFRAME
 70
     0
  9
$SPLINETYPE
 70
     6
  9
$SPLINESEGS
 70
     8
  9
$HANDSEED
  5
24E
  9
$SURFTAB1
 70
     6
  9
$SURFTAB2
 70
     6
  9
$SURFTYPE
 70
     6
  9
$SURFU
 70
     6
  9
$SURFV
 70
     6
  9
$UCSBASE
  2

  9
$UCSNAME
  2

  9
$UCSORG
 10
0.0
 20
0.0
 30
0.0
  9
$UCSXDIR
 10
1.0
 20
0.0
 30
0.0
  9
$UCSYDIR
 10
0.0
 20
1.0
 30
0.0
  9
$UCSORTHOREF
  2

  9
$UCSORTHOVIEW
 70
     0
  9
$UCSORGTOP
 10
0.0
 20
0.0
 30
0.0
  9
$UCSORGBOTTOM
 10
0.0
 20
0.0
 30
0.0
  9
$UCSORGLEFT
 10
0.0
 20
0.0
 30
0.0
  9
$UCSORGRIGHT
 10
0.0
 20
0.0
 30
0.0
  9
$UCSORGFRONT
 10
0.0
 20
0.0
 30
0.0
  9
$UCSORGBACK
 10
0.0
 20
0.0
 30
0.0
  9
$PUCSBASE
  2

  9
$PUCSNAME
  2

  9
$PUCSORG
 10
0.0
 20
0.0
 30
0.0
  9
$PUCSXDIR
 10
1.0
 20
0.0
 30
0.0
  9
$PUCSYDIR
 10
0.0
 20
1.0
 30
0.0
  9
$PUCSORTHOREF
  2

  9
$PUCSORTHOVIEW
 70
     0
  9
$PUCSORGTOP
 10
0.0
 20
0.0
 30
0.0
  9
$PUCSORGBOTTOM
 10
0.0
 20
0.0
 30
0.0
  9
$PUCSORGLEFT
 10
0.0
 20
0.0
 30
0.0
  9
$PUCSORGRIGHT
 10
0.0
 20
0.0
 30
0.0
  9
$PUCSORGFRONT
 10
0.0
 20
0.0
 30
0.0
  9
$PUCSORGBACK
 10
0.0
 20
0.0
 30
0.0
  9
$USERI1
 70
     0
  9
$USERI2
 70
     0
  9
$USERI3
 70
     0
  9
$USERI4
 70
     0
  9
$USERI5
 70
     0
  9
$USERR1
 40
0.0
  9
$USERR2
 40
0.0
  9
$USERR3
 40
0.0
  9
$USERR4
 40
0.0
  9
$USERR5
 40
0.0
  9
$WORLDVIEW
 70
     1
  9
$SHADEDGE
 70
     3
  9
$SHADEDIF
 70
    70
  9
$TILEMODE
 70
     1
  9
$MAXACTVP
 70
    64
  9
$PINSBASE
 10
0.0
 20
0.0
 30
0.0
  9
$PLIMCHECK
 70
     0
  9
$PEXTMIN
 10
1.0000000000E+20
 20
1.0000000000E+20
 30
1.0000000000E+20
  9
$PEXTMAX
 10
-1.0000000000E+20
 20
-1.0000000000E+20
 30
-1.0000000000E+20
  9
$PLIMMIN
 10
0.0
 20
0.0
  9
$PLIMMAX
 10
420.0
 20
297.0
  9
$UNITMODE
 70
     0
  9
$VISRETAIN
 70
     1
  9
$PLINEGEN
 70
     0
  9
$PSLTSCALE
 70
     1
  9
$TREEDEPTH
 70
  3020
  9
$CMLSTYLE
  2
Standard
  9
$CMLJUST
 70
     0
  9
$CMLSCALE
 40
20.0
  9
$PROXYGRAPHICS
 70
     1
  9
$MEASUREMENT
 70
     1
  9
$CELWEIGHT
370
    -1
  9
$ENDCAPS
280
     0
  9
$JOINSTYLE
280
     0
  9
$LWDISPLAY
290
     1
  9
$INSUNITS
 70
     4
  9
$HYPERLINKBASE
  1

  9
$STYLESHEET
  1

  9
$XEDIT
290
     1
  9
$CEPSNTYPE
380
     0
  9
$PSTYLEMODE
290
     1
  9
$FINGERPRINTGUID
  2
{82AEB574-1DEF-4F99-9F87-EB3346C50D6E}
  9
$VERSIONGUID
  2
{FAEB1C32-E019-11D5-929B-00C0DF256EC4}
  9
$EXTNAMES
290
     1
  9
$PSVPSCALE
 40
0.0
  9
$OLESTARTUP
290
     0
  0
ENDSEC
  0
SECTION
  2
CLASSES
  0
CLASS
  1
ACDBDICTIONARYWDFLT
  2
AcDbDictionaryWithDefault
  3
ObjectDBX Classes
 90
        0
280
     0
281
     0
  0
CLASS
  1
VISUALSTYLE
  2
AcDbVisualStyle
  3
ObjectDBX Classes
 90
     4095
280
     0
281
     0
  0
CLASS
  1
MATERIAL
  2
AcDbMaterial
  3
ObjectDBX Classes
 90
     1153
280
     0
281
     0
  0
CLASS
  1
ACDBPLACEHOLDER
  2
AcDbPlaceHolder
  3
ObjectDBX Classes
 90
        0
280
     0
281
     0
  0
CLASS
  1
LAYOUT
  2
AcDbLayout
  3
ObjectDBX Classes
 90
        0
280
     0
281
     0
  0
ENDSEC
  0
SECTION
  2
TABLES
  0
TABLE
  2
VPORT
  5
8
330
0
100
AcDbSymbolTable
 70
     1
  0
VPORT
  5
29
330
8
100
AcDbSymbolTableRecord
100
AcDbViewportTableRecord
  2
*Active
 70
     0
 10
0.0
 20
0.0
 11
1.0
 21
1.0
 12
148.5
 22
105.0
 13
0.0
 23
0.0
 14
10.0
 24
10.0
 15
10.0
 25
10.0
 16
0.0
 26
0.0
 36
1.0
 17
0.0
 27
0.0
 37
0.0
 40
210.0
 41
1.4142857143
 42
50.0
 43
0.0
 44
0.0
 50
0.0
 51
0.0
 71
     0
 72
  2000
 73
     1
 74
     3
 75
     0
 76
     0
 77
     0
 78
     0
281
     0
 65
     1
110
0.0
120
0.0
130
0.0
111
1.0
121
0.0
131
0.0
112
0.0
122
1.0
132
0.0
 79
     0
146
0.0
  0
ENDTAB
  0
TABLE
  2
LTYPE
  5
5
330
0
100
AcDbSymbolTable
 70
     6
  0
LTYPE
  5
14
330
5
100
AcDbSymbolTableRecord
100
AcDbLinetypeTableRecord
  2
ByBlock
 70
     0
  3

 72
    65
 73
     0
 40
0.0
  0
LTYPE
  5
15
330
5
100
AcDbSymbolTableRecord
100
AcDbLinetypeTableRecord
  2
ByLayer
 70
     0
  3

 72
    65
 73
     0
 40
0.0
  0
LTYPE
  5
16
330
5
100
AcDbSymbolTableRecord
100
AcDbLinetypeTableRecord
  2
Continuous
 70
     0
  3
Solid line
 72
    65
 73
     0
 40
0.0
  0
LTYPE
  5
3F
330
5
100
AcDbSymbolTableRecord
100
AcDbLinetypeTableRecord
  2
HIDDEN
 70
     0
  3
Hidden __ __ __ __ __ __ __ __ __ __ __ __ __ __
 72
    65
 73
     2
 40
1.905
 49
1.27
 74
     0
 49
-0.635
 74
     0
  0
LTYPE
  5
40
330
5
100
AcDbSymbolTableRecord
100
AcDbLinetypeTableRecord
  2
PHANTOM
 70
     0
  3
Phantom ______  __  __  ______  __  __  ______
 72
    65
 73
     6
 40
12.7
 49
6.35
 74
     0
 49
-1.27
 74
     0
 49
1.27
 74
     0
 49
-1.27
 74
     0
 49
1.27
 74
     0
 49
-1.27
 74
     0
  0
LTYPE
  5
41
330
5
100
AcDbSymbolTableRecord
100
AcDbLinetypeTableRecord
  2
CENTER
 70
     0
  3
Center ____ _ ____ _ ____ _ ____ _ ____ _ ____
 72
    65
 73
     4
 40
10.16
 49
6.35
 74
     0
 49
-1.27
 74
     0
 49
1.27
 74
     0
 49
-1.27
 74
     0
  0
LTYPE
  5
42
330
5
100
AcDbSymbolTableRecord
100
AcDbLinetypeTableRecord
  2
CENTERX2
 70
     0
  3
Center (2x) ________  __  ________  __  _____
 72
    65
 73
     4
 40
20.32
 49
12.7
 74
     0
 49
-2.54
 74
     0
 49
2.54
 74
     0
 49
-2.54
 74
     0
  0
LTYPE
  5
43
330
5
100
AcDbSymbolTableRecord
100
AcDbLinetypeTableRecord
  2
DOT2
 70
     0
  3
Dot (.5x) ........................................
 72
    65
 73
     2
 40
0.635
 49
0.0
 74
     0
 49
-0.635
 74
     0
  0
ENDTAB
  0
TABLE
  2
LAYER
  5
2
330
0
100
AcDbSymbolTable
 70
     5
  0
LAYER
  5
10
330
2
100
AcDbSymbolTableRecord
100
AcDbLayerTableRecord
  2
0
 70
     0
 62
     7
  6
Continuous
370
    -3
390
F
  0
LAYER
  5
44
330
2
100
AcDbSymbolTableRecord
100
AcDbLayerTableRecord
  2
FORMAT
 70
     0
 62
     7
  6
Continuous
370
    -3
390
F
  0
LAYER
  5
45
330
2
100
AcDbSymbolTableRecord
100
AcDbLayerTableRecord
  2
VERMASSUNG
 70
     0
 62
     7
  6
Continuous
370
    -3
390
F
  0
LAYER
  5
46
330
2
100
AcDbSymbolTableRecord
100
AcDbLayerTableRecord
  2
KOPF_DÜNN
 70
     0
 62
     7
  6
Continuous
370
    -3
390
F
  0
LAYER
  5
47
330
2
100
AcDbSymbolTableRecord
100
AcDbLayerTableRecord
  2
KOPF_DICK
 70
     0
 62
     7
  6
Continuous
370
    15
390
F
  0
ENDTAB
  0
TABLE
  2
STYLE
  5
3
330
0
100
AcDbSymbolTable
 70
     3
  0
STYLE
  5
11
330
3
100
AcDbSymbolTableRecord
100
AcDbTextStyleTableRecord
  2
Standard
 70
     0
 40
0.0
 41
1.0
 50
0.0
 71
     0
 42
2.0
  3
txt
  4

  0
STYLE
  5
48
330
3
100
AcDbSymbolTableRecord
100
AcDbTextStyleTableRecord
  2
SLDTEXTSTYLE0
 70
     0
 40
0.0
 41
0.7
 50
0.0
 71
     0
 42
0.2
  3
TXT
  4

  0
STYLE
  5
4C
330
3
100
AcDbSymbolTableRecord
100
AcDbTextStyleTableRecord
  2
SLDTEXTSTYLE1
 70
     0
 40
0.0
 41
0.6515151515
 50
0.0
 71
     0
 42
0.2
  3
TXT
  4

  0
ENDTAB
  0
TABLE
  2
VIEW
  5
6
330
0
100
AcDbSymbolTable
 70
     0
  0
ENDTAB
  0
TABLE
  2
UCS
  5
7
330
0
100
AcDbSymbolTable
 70
     0
  0
ENDTAB
  0
TABLE
  2
APPID
  5
9
330
0
100
AcDbSymbolTable
 70
     1
  0
APPID
  5
12
330
9
100
AcDbSymbolTableRecord
100
AcDbRegAppTableRecord
  2
ACAD
 70
     0
  0
ENDTAB
  0
TABLE
  2
DIMSTYLE
  5
A
330
0
100
AcDbSymbolTable
 70
     4
100
AcDbDimStyleTable
  0
DIMSTYLE
105
27
330
A
100
AcDbSymbolTableRecord
100
AcDbDimStyleTableRecord
  2
ISO-25
 70
     0
 41
2.5
 42
0.625
 43
3.75
 44
1.25
 73
     0
 74
     0
 77
     1
 78
     8
140
2.5
141
2.5
143
0.0393700787
147
0.625
171
     3
172
     1
178
     0
271
     2
272
     2
274
     3
278
    44
283
     0
284
     8
340
11
  0
DIMSTYLE
105
1C8
102
{ACAD_REACTORS
330
1C7
102
}
330
A
100
AcDbSymbolTableRecord
100
AcDbDimStyleTableRecord
  2
SLDDIMSTYLE0
 70
     0
 41
3.0
 44
0.0
 73
     0
 74
     0
 77
     1
 78
    12
 79
     3
140
2.0
147
0.5
173
     1
178
     0
179
     2
272
     3
276
     2
284
    12
340
48
  0
DIMSTYLE
105
1D2
102
{ACAD_REACTORS
330
1D1
330
1DE
330
1E8
330
1F2
102
}
330
A
100
AcDbSymbolTableRecord
100
AcDbDimStyleTableRecord
  2
SLDDIMSTYLE1
 70
     0
 41
3.0
 44
0.0
 45
0.000000001
 73
     0
 74
     0
 77
     1
 78
    12
 79
     3
140
2.0
147
0.5
173
     1
178
     0
271
     2
272
     3
276
     2
284
    12
340
48
  0
DIMSTYLE
105
238
102
{ACAD_REACTORS
330
237
102
}
330
A
100
AcDbSymbolTableRecord
100
AcDbDimStyleTableRecord
  2
SLDDIMSTYLE2
 70
     0
 41
3.0
 44
0.0
 45
0.000000001
 73
     0
 74
     0
 77
     1
 78
    12
 79
     3
140
2.0
141
0.0
147
0.5
173
     1
178
     0
271
     2
272
     3
276
     2
284
    12
340
48
  0
ENDTAB
  0
TABLE
  2
BLOCK_RECORD
  5
1
330
0
100
AcDbSymbolTable
 70
     8
  0
BLOCK_RECORD
  5
1F
330
1
100
AcDbSymbolTableRecord
100
AcDbBlockTableRecord
  2
*Model_Space
340
22
  0
BLOCK_RECORD
  5
1B
330
1
100
AcDbSymbolTableRecord
100
AcDbBlockTableRecord
  2
*Paper_Space
340
1E
  0
BLOCK_RECORD
  5
23
330
1
100
AcDbSymbolTableRecord
100
AcDbBlockTableRecord
  2
*Paper_Space0
340
26
  0
BLOCK_RECORD
  5
1C9
330
1
100
AcDbSymbolTableRecord
100
AcDbBlockTableRecord
  2
_D
340
0
  0
BLOCK_RECORD
  5
1D3
330
1
100
AcDbSymbolTableRecord
100
AcDbBlockTableRecord
  2
_D_1
340
0
  0
BLOCK_RECORD
  5
1DF
330
1
100
AcDbSymbolTableRecord
100
AcDbBlockTableRecord
  2
_D_2
340
0
  0
BLOCK_RECORD
  5
1E9
330
1
100
AcDbSymbolTableRecord
100
AcDbBlockTableRecord
  2
_D_3
340
0
  0
BLOCK_RECORD
  5
1F3
330
1
100
AcDbSymbolTableRecord
100
AcDbBlockTableRecord
  2
_D_4
340
0
  0
BLOCK_RECORD
  5
239
330
1
100
AcDbSymbolTableRecord
100
AcDbBlockTableRecord
  2
_D_5
340
0
  0
BLOCK_RECORD
  5
241
330
1
100
AcDbSymbolTableRecord
100
AcDbBlockTableRecord
  2
SW_CENTERMARKSYMBOL_0
340
0
102
{BLKREFS
331
24C
102
}
  0
ENDTAB
  0
ENDSEC
  0
SECTION
  2
BLOCKS
  0
BLOCK
  5
20
330
1F
100
AcDbEntity
  8
0
100
AcDbBlockBegin
  2
*Model_Space
 70
     0
 10
0.0
 20
0.0
 30
0.0
  3
*Model_Space
  1

  0
ENDBLK
  5
21
330
1F
100
AcDbEntity
  8
0
100
AcDbBlockEnd
  0
BLOCK
  5
1C
330
1B
100
AcDbEntity
 67
     1
  8
0
100
AcDbBlockBegin
  2
*Paper_Space
 70
     0
 10
0.0
 20
0.0
 30
0.0
  3
*Paper_Space
  1

  0
ENDBLK
  5
1D
330
1B
100
AcDbEntity
 67
     1
  8
0
100
AcDbBlockEnd
  0
BLOCK
  5
24
330
23
100
AcDbEntity
  8
0
100
AcDbBlockBegin
  2
*Paper_Space0
 70
     0
 10
0.0
 20
0.0
 30
0.0
  3
*Paper_Space0
  1

  0
ENDBLK
  5
25
330
23
100
AcDbEntity
  8
0
100
AcDbBlockEnd
  0
BLOCK
  5
1CA
330
1C9
100
AcDbEntity
  8
0
100
AcDbBlockBegin
  2
_D
 70
     0
 10
0.0
 20
0.0
 30
0.0
  3
_D
  1

  0
ARC
  5
1CC
330
1C9
100
AcDbEntity
  8
VERMASSUNG
100
AcDbCircle
 10
249.7093687396
 20
75.2698874214
 30
0.0
 40
9.99148410904576
100
AcDbArc
 50
0.0
 51
93.0
  0
SOLID
  5
1CD
330
1C9
100
AcDbEntity
  8
VERMASSUNG
100
AcDbTrace
 10
259.7008528486
 20
75.2698874214
 30
0.0
 11
259.7100878096
 21
78.303435627
 31
0.0
 12
258.8196427877
 22
78.172639362
 32
0.0
 13
258.8196427877
 23
78.172639362
 33
0.0
  0
SOLID
  5
1CE
330
1C9
100
AcDbEntity
  8
VERMASSUNG
100
AcDbTrace
 10
249.1864548645
 20
85.2476785488
 30
0.0
 11
252.1313476556
 21
84.5195944541
 31
0.0
 12
252.2153623771
 22
85.4156644997
 32
0.0
 13
252.2153623771
 23
85.4156644997
 33
0.0
  0
LINE
  5
1CF
330
1C9
100
AcDbEntity
  8
VERMASSUNG
100
AcDbLine
 10
259.4421458093
 20
75.2698874214
 30
0.0
 11
260.7008528486
 21
75.2698874214
 31
0.0
  0
MTEXT
  5
1D0
330
1C9
100
AcDbEntity
  8
VERMASSUNG
100
AcDbMText
 10
256.2581379999
 20
86.3837956443
 30
0.1
 40
2.0
 41
0.0
 71
     1
 72
     1
  1
93°
  7
SLDTEXTSTYLE0
 11
0.7253743710122853
 21
-0.6883545756937565
 31
0.0
 73
     1
 44
1.0
  0
ENDBLK
  5
1CB
330
1C9
100
AcDbEntity
  8
0
100
AcDbBlockEnd
  0
BLOCK
  5
1D4
330
1D3
100
AcDbEntity
  8
0
100
AcDbBlockBegin
  2
_D_1
 70
     0
 10
0.0
 20
0.0
 30
0.0
  3
_D_1
  1

  0
SOLID
  5
1D6
330
1D3
100
AcDbEntity
  8
VERMASSUNG
100
AcDbTrace
 10
139.9392319136
 20
151.7698874214
 30
0.0
 11
139.4892319136
 21
148.7698874214
 31
0.0
 12
140.3892319136
 22
148.7698874214
 32
0.0
 13
140.3892319136
 23
148.7698874214
 33
0.0
  0
SOLID
  5
1D7
330
1D3
100
AcDbEntity
  8
VERMASSUNG
100
AcDbTrace
 10
139.9392319136
 20
88.7698874214
 30
0.0
 11
140.3892319136
 21
91.7698874214
 31
0.0
 12
139.4892319136
 22
91.7698874214
 32
0.0
 13
139.4892319136
 23
91.7698874214
 33
0.0
  0
LINE
  5
1D8
330
1D3
100
AcDbEntity
  8
VERMASSUNG
100
AcDbLine
 10
179.9878566895
 20
151.7698874214
 30
0.0
 11
138.9392319136
 21
151.7698874214
 31
0.0
  0
LINE
  5
1D9
330
1D3
100
AcDbEntity
  8
VERMASSUNG
100
AcDbLine
 10
179.9878566895
 20
88.7698874214
 30
0.0
 11
138.9392319136
 21
88.7698874214
 31
0.0
  0
LINE
  5
1DA
330
1D3
100
AcDbEntity
  8
VERMASSUNG
100
AcDbLine
 10
139.9392319136
 20
151.7698874214
 30
0.0
 11
139.9392319136
 21
88.7698874214
 31
0.0
  0
MTEXT
  5
1DB
330
1D3
100
AcDbEntity
  8
VERMASSUNG
100
AcDbMText
 10
137.1610964245
 20
113.2679641728
 30
0.0
 40
2.0
 41
0.0
 71
     1
 72
     1
  1
HSK T
  7
SLDTEXTSTYLE0
 11
-7.044195017643634E-15
 21
1.0
 31
0.0
 73
     1
 44
1.0
  0
MTEXT
  5
1DC
330
1D3
100
AcDbEntity
  8
VERMASSUNG
100
AcDbMText
 10
137.361096434
 20
120.8679643009
 30
0.0
 40
2.0
 41
0.0
 71
     1
 72
     1
  1
%%c
  7
SLDTEXTSTYLE0
 11
-7.044195017643634E-15
 21
1.0
 31
0.0
 73
     1
 44
1.0
  0
MTEXT
  5
1DD
330
1D3
100
AcDbEntity
  8
VERMASSUNG
100
AcDbMText
 10
137.3610965505
 20
124.4746367099
 30
0.0
 40
2.0
 41
0.0
 71
     1
 72
     1
  1
63
  7
SLDTEXTSTYLE0
 11
-7.044195017643634E-15
 21
1.0
 31
0.0
 73
     1
 44
1.0
  0
ENDBLK
  5
1D5
330
1D3
100
AcDbEntity
  8
0
100
AcDbBlockEnd
  0
BLOCK
  5
1E0
330
1DF
100
AcDbEntity
  8
0
100
AcDbBlockBegin
  2
_D_2
 70
     0
 10
0.0
 20
0.0
 30
0.0
  3
_D_2
  1

  0
SOLID
  5
1E2
330
1DF
100
AcDbEntity
  8
VERMASSUNG
100
AcDbTrace
 10
147.7878566895
 20
163.8193396582
 30
0.0
 11
150.7878566895
 21
163.3693396582
 31
0.0
 12
150.7878566895
 22
164.2693396582
 32
0.0
 13
150.7878566895
 23
164.2693396582
 33
0.0
  0
SOLID
  5
1E3
330
1DF
100
AcDbEntity
  8
VERMASSUNG
100
AcDbTrace
 10
249.6878566895
 20
163.8193396582
 30
0.0
 11
246.6878566895
 21
164.2693396582
 31
0.0
 12
246.6878566895
 22
163.3693396582
 32
0.0
 13
246.6878566895
 23
163.3693396582
 33
0.0
  0
LINE
  5
1E4
330
1DF
100
AcDbEntity
  8
VERMASSUNG
100
AcDbLine
 10
147.7878566895
 20
139.9605651679
 30
0.0
 11
147.7878566895
 21
164.8193396582
 31
0.0
  0
LINE
  5
1E5
330
1DF
100
AcDbEntity
  8
VERMASSUNG
100
AcDbLine
 10
249.6878566895
 20
75.2698874214
 30
0.0
 11
249.6878566895
 21
164.8193396582
 31
0.0
  0
LINE
  5
1E6
330
1DF
100
AcDbEntity
  8
VERMASSUNG
100
AcDbLine
 10
147.7878566895
 20
163.8193396582
 30
0.0
 11
249.6878566895
 21
163.8193396582
 31
0.0
  0
MTEXT
  5
1E7
330
1DF
100
AcDbEntity
  8
VERMASSUNG
100
AcDbMText
 10
196.0395545595
 20
166.3974750214
 30
0.0
 40
2.0
 41
0.0
 71
     1
 72
     1
  1
101.9
  7
SLDTEXTSTYLE0
 73
     1
 44
1.0
  0
ENDBLK
  5
1E1
330
1DF
100
AcDbEntity
  8
0
100
AcDbBlockEnd
  0
BLOCK
  5
1EA
330
1E9
100
AcDbEntity
  8
0
100
AcDbBlockBegin
  2
_D_3
 70
     0
 10
0.0
 20
0.0
 30
0.0
  3
_D_3
  1

  0
SOLID
  5
1EC
330
1E9
100
AcDbEntity
  8
VERMASSUNG
100
AcDbTrace
 10
179.6878566895
 20
157.8193396582
 30
0.0
 11
182.6878566895
 21
157.3693396582
 31
0.0
 12
182.6878566895
 22
158.2693396582
 32
0.0
 13
182.6878566895
 23
158.2693396582
 33
0.0
  0
SOLID
  5
1ED
330
1E9
100
AcDbEntity
  8
VERMASSUNG
100
AcDbTrace
 10
249.6878566895
 20
157.8193396582
 30
0.0
 11
246.6878566895
 21
158.2693396582
 31
0.0
 12
246.6878566895
 22
157.3693396582
 32
0.0
 13
246.6878566895
 23
157.3693396582
 33
0.0
  0
LINE
  5
1EE
330
1E9
100
AcDbEntity
  8
VERMASSUNG
100
AcDbLine
 10
179.6878566895
 20
151.4698874214
 30
0.0
 11
179.6878566895
 21
158.8193396582
 31
0.0
  0
LINE
  5
1EF
330
1E9
100
AcDbEntity
  8
VERMASSUNG
100
AcDbLine
 10
249.6878566895
 20
75.2698874214
 30
0.0
 11
249.6878566895
 21
158.8193396582
 31
0.0
  0
LINE
  5
1F0
330
1E9
100
AcDbEntity
  8
VERMASSUNG
100
AcDbLine
 10
179.6878566895
 20
157.8193396582
 30
0.0
 11
249.6878566895
 21
157.8193396582
 31
0.0
  0
MTEXT
  5
1F1
330
1E9
100
AcDbEntity
  8
VERMASSUNG
100
AcDbMText
 10
213.2892697094
 20
160.3974750214
 30
0.0
 40
2.0
 41
0.0
 71
     1
 72
     1
  1
70
  7
SLDTEXTSTYLE0
 73
     1
 44
1.0
  0
ENDBLK
  5
1EB
330
1E9
100
AcDbEntity
  8
0
100
AcDbBlockEnd
  0
BLOCK
  5
1F4
330
1F3
100
AcDbEntity
  8
0
100
AcDbBlockBegin
  2
_D_4
 70
     0
 10
0.0
 20
0.0
 30
0.0
  3
_D_4
  1

  0
SOLID
  5
1F6
330
1F3
100
AcDbEntity
  8
VERMASSUNG
100
AcDbTrace
 10
266.8093920382
 20
120.2698874214
 30
0.0
 11
266.3593920382
 21
117.2698874214
 31
0.0
 12
267.2593920382
 22
117.2698874214
 32
0.0
 13
267.2593920382
 23
117.2698874214
 33
0.0
  0
SOLID
  5
1F7
330
1F3
100
AcDbEntity
  8
VERMASSUNG
100
AcDbTrace
 10
266.8093920382
 20
75.2698874214
 30
0.0
 11
267.2593920382
 21
78.2698874214
 31
0.0
 12
266.3593920382
 22
78.2698874214
 32
0.0
 13
266.3593920382
 23
78.2698874214
 33
0.0
  0
LINE
  5
1F8
330
1F3
100
AcDbEntity
  8
VERMASSUNG
100
AcDbLine
 10
249.857727603
 20
120.2698874214
 30
0.0
 11
267.8093920382
 21
120.2698874214
 31
0.0
  0
LINE
  5
1F9
330
1F3
100
AcDbEntity
  8
VERMASSUNG
100
AcDbLine
 10
249.6878566895
 20
75.2698874214
 30
0.0
 11
267.8093920382
 21
75.2698874214
 31
0.0
  0
LINE
  5
1FA
330
1F3
100
AcDbEntity
  8
VERMASSUNG
100
AcDbLine
 10
266.8093920382
 20
120.2698874214
 30
0.0
 11
266.8093920382
 21
75.2698874214
 31
0.0
  0
MTEXT
  5
1FB
330
1F3
100
AcDbEntity
  8
VERMASSUNG
100
AcDbMText
 10
264.2312566751
 20
96.2706309415
 30
0.0
 40
2.0
 41
0.0
 71
     1
 72
     1
  1
45
  7
SLDTEXTSTYLE0
 11
-7.044195017643634E-15
 21
1.0
 31
0.0
 73
     1
 44
1.0
  0
ENDBLK
  5
1F5
330
1F3
100
AcDbEntity
  8
0
100
AcDbBlockEnd
  0
BLOCK
  5
23A
330
239
100
AcDbEntity
  8
0
100
AcDbBlockBegin
  2
_D_5
 70
     0
 10
0.0
 20
0.0
 30
0.0
  3
_D_5
  1

  0
SOLID
  5
23C
330
239
100
AcDbEntity
  8
VERMASSUNG
100
AcDbTrace
 10
60.2187675295
 20
80.7592788081
 30
0.0
 11
58.3290560978
 21
78.3862025968
 31
0.0
 12
59.1084789612
 22
77.9362025968
 32
0.0
 13
59.1084789612
 23
77.9362025968
 33
0.0
  0
LINE
  5
23D
330
239
100
AcDbEntity
  8
VERMASSUNG
100
AcDbLine
 10
60.2187675295
 20
80.7592788081
 30
0.0
 11
52.2757336341
 21
67.0015405351
 31
0.0
  0
MTEXT
  5
23E
330
239
100
AcDbEntity
  8
VERMASSUNG
100
AcDbMText
 10
50.8379833912
 20
69.6647131295
 30
0.0
 40
2.0
 41
0.0
 71
     1
 72
     1
  1
%%c
  7
SLDTEXTSTYLE0
 11
0.499999999999998
 21
0.8660254037844398
 31
0.0
 73
     1
 44
1.0
  0
MTEXT
  5
23F
330
239
100
AcDbEntity
  8
VERMASSUNG
100
AcDbMText
 10
52.6428438108
 20
72.790822844
 30
0.0
 40
2.0
 41
0.0
 71
     1
 72
     1
  1
80
  7
SLDTEXTSTYLE0
 11
0.499999999999998
 21
0.8660254037844398
 31
0.0
 73
     1
 44
1.0
  0
MTEXT
  5
240
330
239
100
AcDbEntity
  8
VERMASSUNG
100
AcDbMText
 10
55.0674639444
 20
76.0033289225
 30
0.0
 40
1.5
 41
0.0
 71
     1
 72
     1
  1
min.
  7
SLDTEXTSTYLE0
 11
0.499999999999998
 21
0.8660254037844398
 31
0.0
 73
     1
 44
1.0
  0
ENDBLK
  5
23B
330
239
100
AcDbEntity
  8
0
100
AcDbBlockEnd
  0
BLOCK
  5
242
330
241
100
AcDbEntity
  8
0
100
AcDbBlockBegin
  2
SW_CENTERMARKSYMBOL_0
 70
     0
 10
0.0
 20
0.0
 30
0.0
  3
SW_CENTERMARKSYMBOL_0
  1

  0
LINE
  5
244
330
241
100
AcDbEntity
  8
VERMASSUNG
 62
     0
100
AcDbLine
 10
0.0
 20
0.0
 30
0.0
 11
0.0
 21
2.5
 31
0.0
  0
LINE
  5
245
330
241
100
AcDbEntity
  8
VERMASSUNG
 62
     0
100
AcDbLine
 10
0.0
 20
0.0
 30
0.0
 11
-2.5
 21
0.0
 31
0.0
  0
LINE
  5
246
330
241
100
AcDbEntity
  8
VERMASSUNG
 62
     0
100
AcDbLine
 10
0.0
 20
0.0
 30
0.0
 11
0.0
 21
-2.5
 31
0.0
  0
LINE
  5
247
330
241
100
AcDbEntity
  8
VERMASSUNG
 62
     0
100
AcDbLine
 10
0.0
 20
0.0
 30
0.0
 11
2.5
 21
0.0
 31
0.0
  0
LINE
  5
248
330
241
100
AcDbEntity
  8
VERMASSUNG
 62
     0
100
AcDbLine
 10
0.0
 20
5.0
 30
0.0
 11
0.0
 21
34.0
 31
0.0
  0
LINE
  5
249
330
241
100
AcDbEntity
  8
VERMASSUNG
 62
     0
100
AcDbLine
 10
-5.0
 20
0.0
 30
0.0
 11
-34.0
 21
0.0
 31
0.0
  0
LINE
  5
24A
330
241
100
AcDbEntity
  8
VERMASSUNG
 62
     0
100
AcDbLine
 10
0.0
 20
-5.0
 30
0.0
 11
0.0
 21
-34.0
 31
0.0
  0
LINE
  5
24B
330
241
100
AcDbEntity
  8
VERMASSUNG
 62
     0
100
AcDbLine
 10
5.0
 20
0.0
 30
0.0
 11
34.0
 21
0.0
 31
0.0
  0
ENDBLK
  5
243
330
241
100
AcDbEntity
  8
0
100
AcDbBlockEnd
  0
ENDSEC
  0
SECTION
  2
ENTITIES
  0
MTEXT
  5
49
330
1F
100
AcDbEntity
  8
KOPF_DÜNN
100
AcDbMText
 10
13.8892156294
 20
23.8442973028
 30
0.0
 40
3.0
 41
0.0
 71
     1
 72
     1
  1
HA6.KVB.LUA.070
  7
SLDTEXTSTYLE0
 73
     1
 44
1.0
  0
MTEXT
  5
4A
330
1F
100
AcDbEntity
  8
VERMASSUNG
100
AcDbMText
 10
13.9329988022
 20
28.8834360957
 30
0.0
 40
3.0
 41
0.0
 71
     1
 72
     1
  1
Klemmhalter links_Turning tool left 93° /35°
  7
SLDTEXTSTYLE0
 73
     1
 44
1.0
  0
MTEXT
  5
4B
330
1F
100
AcDbEntity
  8
VERMASSUNG
100
AcDbMText
 10
98.8601118557
 20
13.8365368179
 30
0.0
 40
2.0
 41
0.0
 71
     1
 72
     1
  1
Datum: 26.02.2009
  7
SLDTEXTSTYLE0
 73
     1
 44
1.0
  0
MTEXT
  5
4D
330
1F
100
AcDbEntity
  8
VERMASSUNG
100
AcDbMText
 10
13.933048693
 20
18.0482802738
 30
0.0
 40
2.0
 41
0.0
 71
     1
 72
     1
  1
DIN 69893 HSK T 63 / VC.. 16 04..
  7
SLDTEXTSTYLE1
 73
     1
 44
1.0
  0
MTEXT
  5
4E
330
1F
100
AcDbEntity
  8
VERMASSUNG
100
AcDbMText
 10
13.9808475933
 20
13.9090973692
 30
0.0
 40
2.0
 41
0.0
 71
     1
 72
     1
  1
Gewicht: 1028g
  7
SLDTEXTSTYLE0
 73
     1
 44
1.0
  0
LINE
  5
4F
330
1F
100
AcDbEntity
  8
0
  6
Continuous
 62
     7
370
    15
100
AcDbLine
 10
179.9878567037
 20
88.7698869148
 30
0.0
 11
184.6378566627
 21
88.7698869148
 31
0.0
  0
LINE
  5
50
330
1F
100
AcDbEntity
  8
0
  6
Continuous
 62
     7
370
    15
100
AcDbLine
 10
184.6658452343
 20
151.7698879281
 30
0.0
 11
179.9878567037
 21
151.7698879281
 31
0.0
  0
ARC
  5
51
330
1F
100
AcDbEntity
  8
0
  6
Continuous
 62
     7
370
    15
100
AcDbCircle
 10
179.9878566895
 20
89.0698874214
 30
0.0
 40
0.2999999999999829
100
AcDbArc
 50
180.0
 51
270.0
  0
ARC
  5
52
330
1F
100
AcDbEntity
  8
0
  6
Continuous
 62
     7
370
    15
100
AcDbCircle
 10
179.9878566895
 20
151.4698874214
 30
0.0
 40
0.2999999999999829
100
AcDbArc
 50
90.0
 51
180.0
  0
ARC
  5
53
330
1F
100
AcDbEntity
  8
0
  6
Continuous
 62
     7
370
    15
100
AcDbCircle
 10
206.6378566895
 20
93.2698874214
 30
0.0
 40
1.0
100
AcDbArc
 50
90.0
 51
143.1139143113
  0
ARC
  5
54
330
1F
100
AcDbEntity
  8
0
  6
Continuous
 62
     7
370
    15
100
AcDbCircle
 10
206.6378566895
 20
147.2698874214
 30
0.0
 40
1.0
100
AcDbArc
 50
216.8996843908
 51
270.0
  0
LINE
  5
55
330
1F
100
AcDbEntity
  8
0
  6
Continuous
 62
     7
370
    15
100
AcDbLine
 10
206.6378565435
 20
94.269886885
 30
0.0
 11
219.4892195914
 21
94.269886885
 31
0.0
  0
LINE
  5
56
330
1F
100
AcDbEntity
  8
0
  6
Continuous
 62
     7
370
    15
100
AcDbLine
 10
219.4245336507
 20
146.2698879579
 30
0.0
 11
206.6378565435
 21
146.2698879579
 31
0.0
  0
ARC
  5
57
330
1F
100
AcDbEntity
  8
0
  6
Continuous
 62
     7
370
    15
100
AcDbCircle
 10
179.1878566895
 20
95.6994565597
 30
0.0
 40
0.6000000000000085
100
AcDbArc
 50
33.5573097619
 51
90.0
  0
ARC
  5
58
330
1F
100
AcDbEntity
  8
0
  6
Continuous
 62
     7
370
    15
100
AcDbCircle
 10
179.1878566895
 20
144.8403182832
 30
0.0
 40
0.6000000000000227
100
AcDbArc
 50
270.0
 51
326.4426902381
  0
LINE
  5
59
330
1F
100
AcDbEntity
  8
0
  6
Continuous
 62
     7
370
    15
100
AcDbLine
 10
177.6878565945
 20
96.0494561979
 30
0.0
 11
178.5445695207
 21
96.2790123114
 31
0.0
  0
LINE
  5
5A
330
1F
100
AcDbEntity
  8
0
  6
Continuous
 62
     7
370
    15
100
AcDbLine
 10
178.5445695207
 20
144.2607625315
 30
0.0
 11
177.6878565945
 21
144.490318645
 31
0.0
  0
LINE
  5
5B
330
1F
100
AcDbEntity
  8
0
  6
Continuous
 62
     7
370
    15
100
AcDbLine
 10
166.4563482557
 20
143.9276172707
 30
0.0
 11
153.8878558133
 21
143.2979333142
 31
0.0
  0
LINE
  5
5C
330
1F
100
AcDbEntity
  8
0
  6
Continuous
 62
     7
370
    15
100
AcDbLine
 10
177.6878565945
 20
144.490318645
 30
0.0
 11
174.8708551679
 21
144.349186022
 31
0.0
  0
LINE
  5
5D
330
1F
100
AcDbEntity
  8
0
  6
Continuous
 62
     7
370
    15
100
AcDbLine
 10
174.8709110473
 20
96.1905869582
 30
0.0
 11
177.6878565945
 21
96.0494561979
 31
0.0
  0
LINE
  5
5E
330
1F
100
AcDbEntity
  8
0
  6
Continuous
 62
     7
370
    15
100
AcDbLine
 10
157.887856469
 20
97.0414413998
 30
0.0
 11
166.456750587
 21
96.6121370831
 31
0.0
  0
ARC
  5
5F
330
1F
100
AcDbEntity
  8
0
  6
Continuous
 62
     7
370
    15
100
AcDbCircle
 10
178.6998608899
 20
95.6994565597
 30
0.0
 40
0.6000000000000085
100
AcDbArc
 50
90.0
 51
105.0
  0
ARC
  5
60
330
1F
100
AcDbEntity
  8
0
  6
Continuous
 62
     7
370
    15
100
AcDbCircle
 10
178.6998608899
 20
144.8403182832
 30
0.0
 40
0.6000000000000227
100
AcDbArc
 50
255.0
 51
270.0
  0
LINE
  5
61
330
1F
100
AcDbEntity
  8
0
  6
Continuous
 62
     7
370
    15
100
AcDbLine
 10
178.6998609243
 20
96.2994567046
 30
0.0
 11
179.1878566657
 21
96.2994567046
 31
0.0
  0
LINE
  5
62
330
1F
100
AcDbEntity
  8
0
  6
Continuous
 62
     7
370
    15
100
AcDbLine
 10
179.1878566657
 20
144.2403181383
 30
0.0
 11
178.6998609243
 21
144.2403181383
 31
0.0
  0
LINE
  5
63
330
1F
100
AcDbEntity
  8
0
  6
Continuous
 62
     7
370
    15
100
AcDbLine
 10
148.9378558401
 20
99.4573871532
 30
0.0
 11
156.4878569845
 21
99.4573871532
 31
0.0
  0
ARC
  5
64
330
1F
100
AcDbEntity
  8
0
  6
Continuous
 62
     7
370
    15
100
AcDbCircle
 10
156.4878566895
 20
98.0573874214
 30
0.0
 40
1.40000000000001
100
AcDbArc
 50
37.6443616934
 51
90.0
  0
LINE
  5
65
330
1F
100
AcDbEntity
  8
0
  6
Continuous
 62
     7
370
    15
100
AcDbLine
 10
148.9290194515
 20
141.1310511568
 30
0.0
 11
147.797758684
 21
139.9997885266
 31
0.0
  0
LINE
  5
66
330
1F
100
AcDbEntity
  8
0
  6
Continuous
 62
     7
370
    15
100
AcDbLine
 10
147.7852752362
 20
100.6099677572
 30
0.0
 11
148.9378558401
 21
99.4573871532
 31
0.0
  0
ARC
  5
67
330
1F
100
AcDbEntity
  8
0
  6
Continuous
 62
     7
370
    15
100
AcDbCircle
 10
152.4878566895
 20
142.5398874214
 30
0.0
 40
1.400000000000015
100
AcDbArc
 50
270.0
 51
301.7485287426
  0
LINE
  5
68
330
1F
100
AcDbEntity
  8
0
  6
Continuous
 62
     7
370
    15
100
AcDbLine
 10
152.4878563289
 20
141.1398875454
 30
0.0
 11
149.0621222113
 21
141.1398875454
 31
0.0
  0
ARC
  5
69
330
1F
100
AcDbEntity
  8
0
  6
Continuous
 62
     7
370
    15
100
AcDbCircle
 10
249.2878566895
 20
75.6698874214
 30
0.0
 40
0.3800000000000096
100
AcDbArc
 50
218.0
 51
3.0
  0
LINE
  5
6A
330
1F
100
AcDbEntity
  8
0
  6
Continuous
 62
     7
370
    15
100
AcDbLine
 10
249.6888553653
 20
75.6612571815
 30
0.0
 11
248.8911440525
 21
90.8824878672
 31
0.0
  0
LINE
  5
6B
330
1F
100
AcDbEntity
  8
0
  6
Continuous
 62
     7
370
    15
100
AcDbLine
 10
239.6068936143
 20
87.4112474659
 30
0.0
 11
248.9908775244
 21
75.4002931455
 31
0.0
  0
LINE
  5
6C
330
1F
100
AcDbEntity
  8
0
  6
Continuous
 62
     7
370
    15
100
AcDbLine
 10
238.7255644355
 20
102.8561259547
 30
0.0
 11
239.5232757483
 21
87.6348989943
 31
0.0
  0
LINE
  5
6D
330
1F
100
AcDbEntity
  8
0
  6
Continuous
 62
     7
370
    15
100
AcDbLine
 10
248.8075261865
 20
91.1061375329
 30
0.0
 11
239.4235422764
 21
103.1170899907
 31
0.0
  0
LINE
  5
6E
330
1F
100
AcDbEntity
  8
0
  6
Continuous
 62
     7
370
    15
100
AcDbLine
 10
239.6232327376
 20
87.4228182176
 30
0.0
 11
248.9884113822
 21
75.4359367231
 31
0.0
  0
LINE
  5
6F
330
1F
100
AcDbEntity
  8
0
  6
Continuous
 62
     7
370
    15
100
AcDbLine
 10
249.6673380885
 20
75.6897742787
 30
0.0
 11
248.8712212
 21
90.8805022875
 31
0.0
  0
ARC
  5
70
330
1F
100
AcDbEntity
  8
0
  6
Continuous
 62
     7
370
    15
100
AcDbCircle
 10
248.4917444553
 20
90.8606137807
 30
0.0
 40
0.3800000000000008
100
AcDbArc
 50
3.0
 51
38.0
  0
LINE
  5
71
330
1F
100
AcDbEntity
  8
0
  6
Continuous
 62
     7
370
    15
100
AcDbLine
 10
248.7911870633
 20
91.0945649186
 30
0.0
 11
239.4260084186
 21
103.0814482758
 31
0.0
  0
ARC
  5
72
330
1F
100
AcDbEntity
  8
0
  6
Continuous
 62
     7
370
    15
100
AcDbCircle
 10
239.1265648005
 20
102.8474971139
 30
0.0
 40
0.3800000000000338
100
AcDbArc
 50
38.0
 51
183.0
  0
LINE
  5
73
330
1F
100
AcDbEntity
  8
0
  6
Continuous
 62
     7
370
    15
100
AcDbLine
 10
238.7470854376
 20
102.8276088575
 30
0.0
 11
239.5431986008
 21
87.636884574
 31
0.0
  0
ARC
  5
74
330
1F
100
AcDbEntity
  8
0
  6
Continuous
 62
     7
370
    15
100
AcDbCircle
 10
239.9226770346
 20
87.6567707547
 30
0.0
 40
0.3800000000000096
100
AcDbArc
 50
183.0
 51
218.0
  0
SPLINE
  5
75
330
1F
100
AcDbEntity
  8
0
  6
Continuous
 62
     7
370
    15
100
AcDbSpline
210
0.0
220
0.0
230
1.0
 70
     8
 71
     3
 72
    10
 73
     6
 74
     0
 42
0.00000001
 43
0.00000001
 12
1.0
 22
0.0
 32
0.0
 13
1.0
 23
0.0
 33
0.0
 40
0.0
 40
0.0
 40
0.0
 40
0.0
 40
0.2724823872825271
 40
0.5447547197091538
 40
0.9999999999999999
 40
0.9999999999999999
 40
0.9999999999999999
 40
0.9999999999999999
 10
248.891144052543
 20
90.88248786718786
 30
0.0
 10
248.8888919198823
 20
90.90437998349077
 30
0.0
 10
248.884389390715
 20
90.94814733961012
 30
0.0
 10
248.8603710706863
 20
91.02603442959446
 30
0.0
 10
248.8278661754008
 20
91.07530585908674
 30
0.0
 10
248.8075261865037
 20
91.10613753290116
 30
0.0
  0
SPLINE
  5
76
330
1F
100
AcDbEntity
  8
0
  6
Continuous
 62
     7
370
    15
100
AcDbSpline
210
0.0
220
0.0
230
1.0
 70
     8
 71
     3
 72
    10
 73
     6
 74
     0
 42
0.00000001
 43
0.00000001
 12
1.0
 22
0.0
 32
0.0
 13
1.0
 23
0.0
 33
0.0
 40
0.0
 40
0.0
 40
0.0
 40
0.0
 40
0.2724803848989171
 40
0.5447580651572648
 40
1.0
 40
1.0
 40
1.0
 40
1.0
 10
239.5232757482904
 20
87.63489899427832
 30
0.0
 10
239.52552794815
 20
87.61300689802395
 30
0.0
 10
239.5300306724043
 20
87.56923899156646
 30
0.0
 10
239.5540481489001
 20
87.49135099461891
 30
0.0
 10
239.5865535280874
 20
87.44207911190496
 30
0.0
 10
239.6068936143296
 20
87.41124746591984
 30
0.0
  0
SPLINE
  5
77
330
1F
100
AcDbEntity
  8
0
  6
Continuous
 62
     7
370
    15
100
AcDbSpline
210
0.0
220
0.0
230
1.0
 70
     8
 71
     3
 72
    15
 73
    11
 74
     0
 42
0.00000001
 43
0.00000001
 12
1.0
 22
0.0
 32
0.0
 13
1.0
 23
0.0
 33
0.0
 40
0.0
 40
0.0
 40
0.0
 40
0.0
 40
0.1411599876754895
 40
0.2818338230424921
 40
0.4169645809477339
 40
0.5461334413997133
 40
0.6723566004214844
 40
0.7999817496849566
 40
0.9323891431299959
 40
1.0
 40
1.0
 40
1.0
 40
1.0
 10
239.4235422764199
 20
103.1170899906868
 30
0.0
 10
239.3909560374569
 20
103.1513693847948
 30
0.0
 10
239.325895785917
 20
103.2198101154307
 30
0.0
 10
239.1935204424467
 20
103.2728109719807
 30
0.0
 10
239.0569284364429
 20
103.2791827993971
 30
0.0
 10
238.9308524583449
 20
103.2388833572823
 30
0.0
 10
238.8277670189813
 20
103.1604148649696
 30
0.0
 10
238.7556294783259
 20
103.0520512766614
 30
0.0
 10
238.7251815978432
 20
102.9450892833089
 30
0.0
 10
238.7254677196443
 20
102.8786006658415
 30
0.0
 10
238.7255644355195
 20
102.8561259546989
 30
0.0
  0
SPLINE
  5
78
330
1F
100
AcDbEntity
  8
0
  6
Continuous
 62
     7
370
    15
100
AcDbSpline
210
0.0
220
0.0
230
1.0
 70
     8
 71
     3
 72
    15
 73
    11
 74
     0
 42
0.00000001
 43
0.00000001
 12
1.0
 22
0.0
 32
0.0
 13
1.0
 23
0.0
 33
0.0
 40
0.0
 40
0.0
 40
0.0
 40
0.0
 40
0.1411598245862714
 40
0.281833497425732
 40
0.4169640992076274
 40
0.5461363747985647
 40
0.6723564077420076
 40
0.7999829619493307
 40
0.9323911950277035
 40
1.0
 40
1.0
 40
1.0
 40
1.0
 10
248.9908775244134
 20
75.4002931454891
 30
0.0
 10
249.0234637571266
 20
75.36601376939633
 30
0.0
 10
249.0885239961884
 20
75.29757307472909
 30
0.0
 10
249.2208994317731
 20
75.24457195265678
 30
0.0
 10
249.3574923083369
 20
75.23820102516574
 30
0.0
 10
249.4835695665583
 20
75.27849778817661
 30
0.0
 10
249.5866541053687
 20
75.35696980410627
 30
0.0
 10
249.6587880821158
 20
75.46533394889549
 30
0.0
 10
249.6892444547589
 20
75.5722945221608
 30
0.0
 10
249.6889536587825
 20
75.63878304738145
 30
0.0
 10
249.6888553653138
 20
75.66125718147696
 30
0.0
  0
LINE
  5
79
330
1F
100
AcDbEntity
  8
0
  6
Continuous
 62
     7
370
    15
100
AcDbLine
 10
248.1166711007
 20
78.8023698071
 30
0.0
 11
249.287857667
 21
75.6698886791
 31
0.0
  0
LINE
  5
7A
330
1F
100
AcDbEntity
  8
0
  6
Continuous
 62
     7
370
    15
100
AcDbLine
 10
240.0506427441
 20
87.7046140769
 30
0.0
 11
239.9226752971
 21
87.6567701736
 31
0.0
  0
LINE
  5
7B
330
1F
100
AcDbEntity
  8
0
  6
Continuous
 62
     7
370
    15
100
AcDbLine
 10
247.3434274946
 20
79.7920788565
 30
0.0
 11
248.1166711007
 21
78.8023698071
 31
0.0
  0
LINE
  5
7C
330
1F
100
AcDbEntity
  8
0
  6
Continuous
 62
     7
370
    15
100
AcDbLine
 10
248.1166711007
 20
78.8023698071
 30
0.0
 11
248.050934628
 21
80.0566042701
 31
0.0
  0
LINE
  5
7D
330
1F
100
AcDbEntity
  8
0
  6
Continuous
 62
     7
370
    15
100
AcDbLine
 10
248.3637770567
 20
90.8127690593
 30
0.0
 11
248.4917407785
 21
90.8606129626
 31
0.0
  0
ARC
  5
7E
330
1F
100
AcDbEntity
  8
0
  6
Continuous
 62
     7
370
    15
100
AcDbCircle
 10
246.7024047704
 20
82.5849926956
 30
0.0
 40
1.000000000295381
100
AcDbArc
 50
218.0
 51
3.0
  0
ARC
  5
7F
330
1F
100
AcDbEntity
  8
0
  6
Continuous
 62
     7
370
    15
100
AcDbCircle
 10
246.7024047704
 20
82.5849926956
 30
0.0
 40
2.385640646055106
100
AcDbArc
 50
289.5810823052
 51
291.4189176948
  0
ARC
  5
80
330
1F
100
AcDbEntity
  8
0
  6
Continuous
 62
     7
370
    15
100
AcDbCircle
 10
241.7120167195
 20
95.9323918397
 30
0.0
 40
1.0
100
AcDbArc
 50
38.0
 51
183.0
  0
LINE
  5
81
330
1F
100
AcDbEntity
  8
0
  6
Continuous
 62
     7
370
    15
100
AcDbLine
 10
247.0994284306
 20
90.6610845515
 30
0.0
 11
242.5000285659
 21
96.5480527768
 31
0.0
  0
ARC
  5
82
330
1F
100
AcDbEntity
  8
0
  6
Continuous
 62
     7
370
    15
100
AcDbCircle
 10
246.3114201374
 20
90.0454239219
 30
0.0
 40
1.000000000000031
100
AcDbArc
 50
3.0
 51
38.0
  0
LINE
  5
83
330
1F
100
AcDbEntity
  8
0
  6
Continuous
 62
     7
370
    15
100
AcDbLine
 10
247.7010330115
 20
82.6373289266
 30
0.0
 11
247.3100488935
 21
90.0977591911
 31
0.0
  0
LINE
  5
84
330
1F
100
AcDbEntity
  8
0
  6
Continuous
 62
     7
370
    15
100
AcDbLine
 10
241.3149913702
 20
87.8563004473
 30
0.0
 11
245.9143912349
 21
81.9693322221
 31
0.0
  0
ARC
  5
85
330
1F
100
AcDbEntity
  8
0
  6
Continuous
 62
     7
370
    15
100
AcDbCircle
 10
242.1030013526
 20
88.4719606134
 30
0.0
 40
0.9999999999999973
100
AcDbArc
 50
183.0
 51
218.0
  0
LINE
  5
86
330
1F
100
AcDbEntity
  8
0
  6
Continuous
 62
     7
370
    15
100
AcDbLine
 10
240.7133867894
 20
95.8800560722
 30
0.0
 11
241.1043709073
 21
88.4196239451
 31
0.0
  0
CIRCLE
  5
87
330
1F
100
AcDbEntity
  8
0
  6
Continuous
 62
     7
370
    15
100
AcDbCircle
 10
244.207210745
 20
89.2586922677
 30
0.0
 40
3.05000000000003
  0
LINE
  5
88
330
1F
100
AcDbEntity
  8
0
  6
Continuous
 62
     7
370
    15
100
AcDbLine
 10
240.2977524255
 20
99.7150151917
 30
0.0
 11
239.1265658591
 21
102.8474963197
 31
0.0
  0
LINE
  5
89
330
1F
100
AcDbEntity
  8
0
  6
Continuous
 62
     7
370
    15
100
AcDbLine
 10
240.2977524255
 20
99.7150151917
 30
0.0
 11
240.3634851728
 21
98.4607788661
 31
0.0
  0
LINE
  5
8A
330
1F
100
AcDbEntity
  8
0
  6
Continuous
 62
     7
370
    15
100
AcDbLine
 10
241.0709960316
 20
98.7253061423
 30
0.0
 11
240.2977524255
 21
99.7150151917
 31
0.0
  0
ARC
  5
8B
330
1F
100
AcDbEntity
  8
0
  6
Continuous
 62
     7
370
    15
100
AcDbCircle
 10
241.7120167195
 20
95.9323918397
 30
0.0
 40
2.385640646055118
100
AcDbArc
 50
109.5810823052
 51
111.4189176948
  0
SPLINE
  5
8C
330
1F
100
AcDbEntity
  8
0
  6
Continuous
 62
     7
370
    15
100
AcDbSpline
210
0.0
220
0.0
230
1.0
 70
     8
 71
     3
 72
    14
 73
    10
 74
     0
 42
0.00000001
 43
0.00000001
 12
1.0
 22
0.0
 32
0.0
 13
1.0
 23
0.0
 33
0.0
 40
0.0
 40
0.0
 40
0.0
 40
0.0
 40
0.2086086170881103
 40
0.3652086298746385
 40
0.4768547063695381
 40
0.589020246768667
 40
0.718568944697373
 40
0.9352577884425392
 40
1.0
 40
1.0
 40
1.0
 40
1.0
 10
248.0509346280473
 20
80.0566042700523
 30
0.0
 10
248.0460718491185
 20
80.10581664441641
 30
0.0
 10
248.0375586397663
 20
80.19197216409371
 30
0.0
 10
247.9926913278393
 20
80.29753300348091
 30
0.0
 10
247.9319721131134
 20
80.36580722665093
 30
0.0
 10
247.855751910069
 20
80.4045029499261
 30
0.0
 10
247.746159990203
 20
80.4151227521399
 30
0.0
 10
247.6500546612872
 20
80.39276894093823
 30
0.0
 10
247.5879034062959
 20
80.36947459061541
 30
0.0
 10
247.5736057315248
 20
80.36411580831945
 30
0.0
  0
SPLINE
  5
8D
330
1F
100
AcDbEntity
  8
0
  6
Continuous
 62
     7
370
    15
100
AcDbSpline
210
0.0
220
0.0
230
1.0
 70
     8
 71
     3
 72
    14
 73
    10
 74
     0
 42
0.00000001
 43
0.00000001
 12
1.0
 22
0.0
 32
0.0
 13
1.0
 23
0.0
 33
0.0
 40
0.0
 40
0.0
 40
0.0
 40
0.0
 40
0.205520222145093
 40
0.3570220729621807
 40
0.4668521111531642
 40
0.5770845696583906
 40
0.7093683275948248
 40
0.9240596384783026
 40
1.0
 40
1.0
 40
1.0
 40
1.0
 10
247.5019311461824
 20
80.33731979520262
 30
0.0
 10
247.4567255258921
 20
80.31921563479403
 30
0.0
 10
247.3781960065235
 20
80.2877657618285
 30
0.0
 10
247.2903025674634
 20
80.21798130717039
 30
0.0
 10
247.2422016289043
 20
80.14272135444995
 30
0.0
 10
247.2255303962478
 20
80.0592430860288
 30
0.0
 10
247.2438633497026
 20
79.95099674135167
 30
0.0
 10
247.2915465565827
 20
79.86125666359672
 30
0.0
 10
247.3326796556076
 20
79.80640997618553
 30
0.0
 10
247.3434274945634
 20
79.79207885653913
 30
0.0
  0
SPLINE
  5
8E
330
1F
100
AcDbEntity
  8
0
  6
Continuous
 62
     7
370
    15
100
AcDbSpline
210
0.0
220
0.0
230
1.0
 70
     8
 71
     3
 72
    14
 73
    10
 74
     0
 42
0.00000001
 43
0.00000001
 12
1.0
 22
0.0
 32
0.0
 13
1.0
 23
0.0
 33
0.0
 40
0.0
 40
0.0
 40
0.0
 40
0.0
 40
0.2086053193292349
 40
0.3652048071377997
 40
0.4768505093560386
 40
0.5890215555429461
 40
0.7185694968935451
 40
0.9352571071727007
 40
0.9999999999999999
 40
0.9999999999999999
 40
0.9999999999999999
 40
0.9999999999999999
 10
240.3634851727861
 20
98.46077886612355
 30
0.0
 10
240.368348034593
 20
98.41156714336238
 30
0.0
 10
240.3768614345105
 20
98.32541230427344
 30
0.0
 10
240.4217284355335
 20
98.2198518829165
 30
0.0
 10
240.4824487180305
 20
98.15157700818011
 30
0.0
 10
240.558670181553
 20
98.11287985421124
 30
0.0
 10
240.668263385976
 20
98.10226417957126
 30
0.0
 10
240.7643698145299
 20
98.12461237134121
 30
0.0
 10
240.8265201523231
 20
98.1479096643408
 30
0.0
 10
240.8408177945989
 20
98.15326919050158
 30
0.0
  0
SPLINE
  5
8F
330
1F
100
AcDbEntity
  8
0
  6
Continuous
 62
     7
370
    15
100
AcDbSpline
210
0.0
220
0.0
230
1.0
 70
     8
 71
     3
 72
    14
 73
    10
 74
     0
 42
0.00000001
 43
0.00000001
 12
1.0
 22
0.0
 32
0.0
 13
1.0
 23
0.0
 33
0.0
 40
0.0
 40
0.0
 40
0.0
 40
0.0
 40
0.2055149133565164
 40
0.3570171849311898
 40
0.4668480545685245
 40
0.5770833951191063
 40
0.7093675204397958
 40
0.9240594275733994
 40
0.9999999999999999
 40
0.9999999999999999
 40
0.9999999999999999
 40
0.9999999999999999
 10
240.9124923799413
 20
98.18006706626356
 30
0.0
 10
240.9576969825064
 20
98.19817052693331
 30
0.0
 10
241.0362256872613
 20
98.22961956613084
 30
0.0
 10
241.1241154892448
 20
98.29940490901492
 30
0.0
 10
241.1722234834735
 20
98.3746614188601
 30
0.0
 10
241.1888925977499
 20
98.45814158868505
 30
0.0
 10
241.1705604950266
 20
98.56638811419008
 30
0.0
 10
241.1228769408179
 20
98.65612834814124
 30
0.0
 10
241.0817438645657
 20
98.7109750253114
 30
0.0
 10
241.0709960315602
 20
98.7253061422819
 30
0.0
  0
SPLINE
  5
90
330
1F
100
AcDbEntity
  8
0
  6
Continuous
 62
     7
370
    15
100
AcDbSpline
210
0.0
220
0.0
230
1.0
 70
     8
 71
     3
 72
    11
 73
     7
 74
     0
 42
0.00000001
 43
0.00000001
 12
1.0
 22
0.0
 32
0.0
 13
1.0
 23
0.0
 33
0.0
 40
0.0
 40
0.0
 40
0.0
 40
0.0
 40
0.3241906626477029
 40
0.6482148252788678
 40
0.9887901768795391
 40
1.0
 40
1.0
 40
1.0
 40
1.0
 10
248.3637770567315
 20
90.81276905925215
 30
0.0
 10
248.2954780727814
 20
90.78723333824703
 30
0.0
 10
248.1589151823318
 20
90.73617501104383
 30
0.0
 10
247.9284645727819
 20
90.65001122678937
 30
0.0
 10
247.7810272424966
 20
90.59488676868978
 30
0.0
 10
247.7117419373159
 20
90.5689826341587
 30
0.0
 10
247.7095341239351
 20
90.56815718502938
 30
0.0
  0
SPLINE
  5
91
330
1F
100
AcDbEntity
  8
0
  6
Continuous
 62
     7
370
    15
100
AcDbSpline
210
0.0
220
0.0
230
1.0
 70
     8
 71
     3
 72
    11
 73
     7
 74
     0
 42
0.00000001
 43
0.00000001
 12
1.0
 22
0.0
 32
0.0
 13
1.0
 23
0.0
 33
0.0
 40
0.0
 40
0.0
 40
0.0
 40
0.0
 40
0.3241910103223771
 40
0.6482194740244215
 40
0.9887951458578442
 40
1.0
 40
1.0
 40
1.0
 40
1.0
 10
240.0506427441018
 20
87.70461407692373
 30
0.0
 10
240.1189418905848
 20
87.73015103568765
 30
0.0
 10
240.2555059389385
 20
87.78121214920121
 30
0.0
 10
240.4859551165343
 20
87.86736881359373
 30
0.0
 10
240.6334030568518
 20
87.92250734157658
 30
0.0
 10
240.7026791077768
 20
87.94840298995524
 30
0.0
 10
240.7048856768983
 20
87.94922781379164
 30
0.0
  0
ARC
  5
92
330
1F
100
AcDbEntity
  8
0
  6
Continuous
 62
     7
370
    15
100
AcDbCircle
 10
244.1664410887
 20
89.3677356668
 30
0.0
 40
1.67500000000001
100
AcDbArc
 50
218.3424940153
 51
276.9424271425
  0
ARC
  5
93
330
1F
100
AcDbEntity
  8
0
  6
Continuous
 62
     7
370
    15
100
AcDbCircle
 10
244.1664410887
 20
89.3677356668
 30
0.0
 40
1.67500000000001
100
AcDbArc
 50
276.9424271425
 51
337.0492688773
  0
ARC
  5
94
330
1F
100
AcDbEntity
  8
0
  6
Continuous
 62
     7
370
    15
100
AcDbCircle
 10
244.1664410887
 20
89.3677356668
 30
0.0
 40
1.675000000000038
100
AcDbArc
 50
337.0492688773
 51
35.6492020045
  0
LINE
  5
95
330
1F
100
AcDbEntity
  8
0
  6
Continuous
 62
     7
370
    15
100
AcDbLine
 10
245.4762896452
 20
90.4117247948
 30
0.0
 11
245.5275496397
 21
90.3439617643
 31
0.0
  0
ARC
  5
96
330
1F
100
AcDbEntity
  8
0
  6
Continuous
 62
     7
370
    15
100
AcDbCircle
 10
244.1664410887
 20
89.3677356668
 30
0.0
 40
1.675
100
AcDbArc
 50
38.5558327764
 51
94.9995509427
  0
LINE
  5
97
330
1F
100
AcDbEntity
  8
0
  6
Continuous
 62
     7
370
    15
100
AcDbLine
 10
243.9015647326
 20
91.0216609874
 30
0.0
 11
244.0204685483
 21
91.0363628456
 31
0.0
  0
ARC
  5
98
330
1F
100
AcDbEntity
  8
0
  6
Continuous
 62
     7
370
    15
100
AcDbCircle
 10
244.1664410887
 20
89.3677356668
 30
0.0
 40
1.67500000000001
100
AcDbArc
 50
99.0986428429
 51
154.8930531769
  0
LINE
  5
99
330
1F
100
AcDbEntity
  8
0
  6
Continuous
 62
     7
370
    15
100
AcDbLine
 10
242.6027795229
 20
89.9682159463
 30
0.0
 11
242.649695829
 21
90.0784528741
 31
0.0
  0
ARC
  5
9A
330
1F
100
AcDbEntity
  8
0
  6
Continuous
 62
     7
370
    15
100
AcDbCircle
 10
244.1664410887
 20
89.3677356668
 30
0.0
 40
1.674999999999992
100
AcDbArc
 50
158.9921450772
 51
215.4358632435
  0
LINE
  5
9B
330
1F
100
AcDbEntity
  8
0
  6
Continuous
 62
     7
370
    15
100
AcDbLine
 10
242.8527092491
 20
88.3286300042
 30
0.0
 11
242.8017100249
 21
88.3965867499
 31
0.0
  0
CIRCLE
  5
9C
330
1F
100
AcDbEntity
  8
0
  6
Continuous
 62
     7
370
    15
100
AcDbCircle
 10
244.1664410887
 20
89.3677356668
 30
0.0
 40
1.799999999999979
  0
SPLINE
  5
9D
330
1F
100
AcDbEntity
  8
0
  6
Continuous
 62
     7
370
    15
100
AcDbSpline
210
0.0
220
0.0
230
1.0
 70
     8
 71
     3
 72
    11
 73
     7
 74
     0
 42
0.00000001
 43
0.00000001
 12
1.0
 22
0.0
 32
0.0
 13
1.0
 23
0.0
 33
0.0
 40
0.0
 40
0.0
 40
0.0
 40
0.0
 40
0.2668941755392614
 40
0.5546205717229278
 40
0.8439073390411954
 40
1.0
 40
1.0
 40
1.0
 40
1.0
 10
243.9015647325891
 20
91.0216609874481
 30
0.0
 10
243.8693561384609
 20
91.00829584770128
 30
0.0
 10
243.802424933036
 20
90.98052236245172
 30
0.0
 10
243.7245658322646
 20
90.9004082380597
 30
0.0
 10
243.6809540869596
 20
90.81460966527565
 30
0.0
 10
243.6717012650243
 20
90.75814822080822
 30
0.0
 10
243.6684584174531
 20
90.73836011083066
 30
0.0
  0
SPLINE
  5
9E
330
1F
100
AcDbEntity
  8
0
  6
Continuous
 62
     7
370
    15
100
AcDbSpline
210
0.0
220
0.0
230
1.0
 70
     8
 71
     3
 72
    12
 73
     8
 74
     0
 42
0.00000001
 43
0.00000001
 12
1.0
 22
0.0
 32
0.0
 13
1.0
 23
0.0
 33
0.0
 40
0.0
 40
0.0
 40
0.0
 40
0.0
 40
0.2058405501447438
 40
0.4120622489169661
 40
0.6141405071042336
 40
0.8132761896418779
 40
1.0
 40
1.0
 40
1.0
 40
1.0
 10
243.6684584174531
 20
90.73836011083067
 30
0.0
 10
243.6550661355124
 20
90.67417190391532
 30
0.0
 10
243.6282567735536
 20
90.54567663475243
 30
0.0
 10
243.5101334248857
 20
90.3825499908208
 30
0.0
 10
243.3508038415691
 20
90.26785957927254
 30
0.0
 10
243.1677298132458
 20
90.20939351705795
 30
0.0
 10
243.0454644142323
 20
90.21950405328849
 30
0.0
 10
242.98629815916
 20
90.22439670951307
 30
0.0
  0
SPLINE
  5
9F
330
1F
100
AcDbEntity
  8
0
  6
Continuous
 62
     7
370
    15
100
AcDbSpline
210
0.0
220
0.0
230
1.0
 70
     8
 71
     3
 72
    11
 73
     7
 74
     0
 42
0.00000001
 43
0.00000001
 12
1.0
 22
0.0
 32
0.0
 13
1.0
 23
0.0
 33
0.0
 40
0.0
 40
0.0
 40
0.0
 40
0.0
 40
0.2928850599095786
 40
0.5864206663484572
 40
0.8775146482247461
 40
1.0
 40
1.0
 40
1.0
 40
1.0
 10
242.98629815916
 20
90.22439670951307
 30
0.0
 10
242.9484934104304
 20
90.22715182654885
 30
0.0
 10
242.8727999423238
 20
90.23266818019451
 30
0.0
 10
242.7639667698261
 20
90.19226748591556
 30
0.0
 10
242.6904037321931
 20
90.1348463480234
 30
0.0
 10
242.6589971725848
 20
90.09133821180968
 30
0.0
 10
242.6496958289522
 20
90.07845287413537
 30
0.0
  0
SPLINE
  5
A0
330
1F
100
AcDbEntity
  8
0
  6
Continuous
 62
     7
370
    15
100
AcDbSpline
210
0.0
220
0.0
230
1.0
 70
     8
 71
     3
 72
    12
 73
     8
 74
     0
 42
0.00000001
 43
0.00000001
 12
1.0
 22
0.0
 32
0.0
 13
1.0
 23
0.0
 33
0.0
 40
0.0
 40
0.0
 40
0.0
 40
0.0
 40
0.2057927367436682
 40
0.4120352045704402
 40
0.614130975181892
 40
0.8132631164057182
 40
0.9999999999999999
 40
0.9999999999999999
 40
0.9999999999999999
 40
0.9999999999999999
 10
242.7314286981004
 20
89.62407921643198
 30
0.0
 10
242.7803121147896
 20
89.58040193130786
 30
0.0
 10
242.8781857760002
 20
89.49295191049585
 30
0.0
 10
242.9604026337784
 20
89.30910201054702
 30
0.0
 10
242.9800793777721
 20
89.11376126236833
 30
0.0
 10
242.9391678705399
 20
88.92596773391875
 30
0.0
 10
242.8692767227848
 20
88.82513313740051
 30
0.0
 10
242.8354537043946
 20
88.77633539230764
 30
0.0
  0
SPLINE
  5
A1
330
1F
100
AcDbEntity
  8
0
  6
Continuous
 62
     7
370
    15
100
AcDbSpline
210
0.0
220
0.0
230
1.0
 70
     8
 71
     3
 72
    11
 73
     7
 74
     0
 42
0.00000001
 43
0.00000001
 12
1.0
 22
0.0
 32
0.0
 13
1.0
 23
0.0
 33
0.0
 40
0.0
 40
0.0
 40
0.0
 40
0.0
 40
0.2802305442117232
 40
0.5612827719040208
 40
0.8399896948268887
 40
1.0
 40
1.0
 40
1.0
 40
1.0
 10
242.8354537043946
 20
88.77633539230764
 30
0.0
 10
242.8141774458161
 20
88.7449934332251
 30
0.0
 10
242.7715625430606
 20
88.68221761512063
 30
0.0
 10
242.7521587601107
 20
88.56784754915198
 30
0.0
 10
242.7657032744803
 20
88.4694519454044
 30
0.0
 10
242.7920871984632
 20
88.41606001863256
 30
0.0
 10
242.8017100248712
 20
88.39658674986302
 30
0.0
  0
SPLINE
  5
A2
330
1F
100
AcDbEntity
  8
0
  6
Continuous
 62
     7
370
    15
100
AcDbSpline
210
0.0
220
0.0
230
1.0
 70
     8
 71
     3
 72
    11
 73
     7
 74
     0
 42
0.00000001
 43
0.00000001
 12
1.0
 22
0.0
 32
0.0
 13
1.0
 23
0.0
 33
0.0
 40
0.0
 40
0.0
 40
0.0
 40
0.0
 40
0.265758601670712
 40
0.553003143348358
 40
0.8418141765711966
 40
0.9999999999999999
 40
0.9999999999999999
 40
0.9999999999999999
 40
0.9999999999999999
 10
242.6027795229333
 20
89.96821594626844
 30
0.0
 10
242.598187325939
 20
89.93374202712357
 30
0.0
 10
242.588631663933
 20
89.86200705587224
 30
0.0
 10
242.6187775546772
 20
89.75454054974882
 30
0.0
 10
242.6712074018335
 20
89.67345599234213
 30
0.0
 10
242.715687739789
 20
89.63698557712716
 30
0.0
 10
242.7314286981004
 20
89.62407921643198
 30
0.0
  0
SPLINE
  5
A3
330
1F
100
AcDbEntity
  8
0
  6
Continuous
 62
     7
370
    15
100
AcDbSpline
210
0.0
220
0.0
230
1.0
 70
     8
 71
     3
 72
    11
 73
     7
 74
     0
 42
0.00000001
 43
0.00000001
 12
1.0
 22
0.0
 32
0.0
 13
1.0
 23
0.0
 33
0.0
 40
0.0
 40
0.0
 40
0.0
 40
0.0
 40
0.2431013728717838
 40
0.5182713775961159
 40
0.7947843698863828
 40
1.0
 40
1.0
 40
1.0
 40
1.0
 10
245.4762896452325
 20
90.41172479481638
 30
0.0
 10
245.4511434863291
 20
90.43333631957191
 30
0.0
 10
245.3975340218404
 20
90.47941024574801
 30
0.0
 10
245.2930535809267
 20
90.51337975729582
 30
0.0
 10
245.1890269498153
 20
90.51503955894452
 30
0.0
 10
245.1279736391156
 20
90.49328121182278
 30
0.0
 10
245.1019650254624
 20
90.48401219041288
 30
0.0
  0
SPLINE
  5
A4
330
1F
100
AcDbEntity
  8
0
  6
Continuous
 62
     7
370
    15
100
AcDbSpline
210
0.0
220
0.0
230
1.0
 70
     8
 71
     3
 72
    12
 73
     8
 74
     0
 42
0.00000001
 43
0.00000001
 12
1.0
 22
0.0
 32
0.0
 13
1.0
 23
0.0
 33
0.0
 40
0.0
 40
0.0
 40
0.0
 40
0.0
 40
0.2058215135106038
 40
0.4120195022949865
 40
0.6140770825380805
 40
0.8132105928565587
 40
0.9999999999999999
 40
0.9999999999999999
 40
0.9999999999999999
 40
0.9999999999999999
 10
245.1019650254624
 20
90.48401219041288
 30
0.0
 10
245.0396854253782
 20
90.46351434228067
 30
0.0
 10
244.9150123074315
 20
90.42248115269084
 30
0.0
 10
244.7146954063587
 20
90.44321512136578
 30
0.0
 10
244.5357111451679
 20
90.52382652331299
 30
0.0
 10
244.3935251443973
 20
90.65313768665368
 30
0.0
 10
244.341136320307
 20
90.76409187035497
 30
0.0
 10
244.315779760875
 20
90.81779447586477
 30
0.0
  0
SPLINE
  5
A5
330
1F
100
AcDbEntity
  8
0
  6
Continuous
 62
     7
370
    15
100
AcDbSpline
210
0.0
220
0.0
230
1.0
 70
     8
 71
     3
 72
    11
 73
     7
 74
     0
 42
0.00000001
 43
0.00000001
 12
1.0
 22
0.0
 32
0.0
 13
1.0
 23
0.0
 33
0.0
 40
0.0
 40
0.0
 40
0.0
 40
0.0
 40
0.2908589562793304
 40
0.5839603672311637
 40
0.8746063038037005
 40
1.0
 40
1.0
 40
1.0
 40
1.0
 10
244.315779760875
 20
90.81779447586477
 30
0.0
 10
244.2993717521166
 20
90.85173599973545
 30
0.0
 10
244.2664292326815
 20
90.91988072870463
 30
0.0
 10
244.1773164091649
 20
90.99395713374139
 30
0.0
 10
244.0904800931334
 20
91.02928072391103
 30
0.0
 10
244.036682929514
 20
91.03472265582333
 30
0.0
 10
244.0204685483354
 20
91.03636284561098
 30
0.0
  0
SPLINE
  5
A6
330
1F
100
AcDbEntity
  8
0
  6
Continuous
 62
     7
370
    15
100
AcDbSpline
210
0.0
220
0.0
230
1.0
 70
     8
 71
     3
 72
    12
 73
     8
 74
     0
 42
0.00000001
 43
0.00000001
 12
1.0
 22
0.0
 32
0.0
 13
1.0
 23
0.0
 33
0.0
 40
0.0
 40
0.0
 40
0.0
 40
0.0
 40
0.2058553449609841
 40
0.4121022923984324
 40
0.6141899633927538
 40
0.8133203922042443
 40
1.0
 40
1.0
 40
1.0
 40
1.0
 10
243.2279130373376
 20
88.2554504016155
 30
0.0
 10
243.2901999532568
 20
88.27594943994934
 30
0.0
 10
243.4148922746613
 20
88.31698651232139
 30
0.0
 10
243.6152378433029
 20
88.29624249626289
 30
0.0
 10
243.794232002734
 20
88.21558868254958
 30
0.0
 10
243.9363913634583
 20
88.08627505360522
 30
0.0
 10
243.988754305843
 20
87.97534377444404
 30
0.0
 10
244.0140908513444
 20
87.9216681161636
 30
0.0
  0
SPLINE
  5
A7
330
1F
100
AcDbEntity
  8
0
  6
Continuous
 62
     7
370
    15
100
AcDbSpline
210
0.0
220
0.0
230
1.0
 70
     8
 71
     3
 72
    11
 73
     7
 74
     0
 42
0.00000001
 43
0.00000001
 12
1.0
 22
0.0
 32
0.0
 13
1.0
 23
0.0
 33
0.0
 40
0.0
 40
0.0
 40
0.0
 40
0.0
 40
0.2524855459127578
 40
0.5068868282936058
 40
0.7591772472203453
 40
0.9999999999999999
 40
0.9999999999999999
 40
0.9999999999999999
 40
0.9999999999999999
 10
244.0140908513444
 20
87.92166811616362
 30
0.0
 10
244.0305057126622
 20
87.88771495911801
 30
0.0
 10
244.0634599832132
 20
87.81955102512651
 30
0.0
 10
244.1525070472983
 20
87.74567510187548
 30
0.0
 10
244.2581444672478
 20
87.70201510458695
 30
0.0
 10
244.3325599495138
 20
87.70403160539031
 30
0.0
 10
244.3689024005311
 20
87.70501640827597
 30
0.0
  0
SPLINE
  5
A8
330
1F
100
AcDbEntity
  8
0
  6
Continuous
 62
     7
370
    15
100
AcDbSpline
210
0.0
220
0.0
230
1.0
 70
     8
 71
     3
 72
    11
 73
     7
 74
     0
 42
0.00000001
 43
0.00000001
 12
1.0
 22
0.0
 32
0.0
 13
1.0
 23
0.0
 33
0.0
 40
0.0
 40
0.0
 40
0.0
 40
0.0
 40
0.2423596871790474
 40
0.5166859472255837
 40
0.7923274261910618
 40
0.9999999999999999
 40
0.9999999999999999
 40
0.9999999999999999
 40
0.9999999999999999
 10
242.8527092490571
 20
88.32863000423849
 30
0.0
 10
242.8777772197446
 20
88.30692583413195
 30
0.0
 10
242.9312195571666
 20
88.26065477387118
 30
0.0
 10
243.0355688906618
 20
88.22629538867996
 30
0.0
 10
243.1400215439891
 20
88.22423412369199
 30
0.0
 10
243.201497688708
 20
88.2460685054518
 30
0.0
 10
243.2279130373376
 20
88.2554504016155
 30
0.0
  0
SPLINE
  5
A9
330
1F
100
AcDbEntity
  8
0
  6
Continuous
 62
     7
370
    15
100
AcDbSpline
210
0.0
220
0.0
230
1.0
 70
     8
 71
     3
 72
    12
 73
     8
 74
     0
 42
0.00000001
 43
0.00000001
 12
1.0
 22
0.0
 32
0.0
 13
1.0
 23
0.0
 33
0.0
 40
0.0
 40
0.0
 40
0.0
 40
0.0
 40
0.0091656421658371
 40
0.2576714293903589
 40
0.506185542866097
 40
0.7560338616931501
 40
1.0
 40
1.0
 40
1.0
 40
1.0
 10
245.7088520679849
 20
88.71458870561064
 30
0.0
 10
245.7093812052429
 20
88.71585281713456
 30
0.0
 10
245.7242567099985
 20
88.75139047149504
 30
0.0
 10
245.7412313509443
 20
88.82700358165741
 30
0.0
 10
245.7280826717657
 20
88.93922320913252
 30
0.0
 10
245.6806825027624
 20
89.04227981910707
 30
0.0
 10
245.6256418678069
 20
89.09120980355695
 30
0.0
 10
245.5984493646997
 20
89.11538337559641
 30
0.0
  0
SPLINE
  5
AA
330
1F
100
AcDbEntity
  8
0
  6
Continuous
 62
     7
370
    15
100
AcDbSpline
210
0.0
220
0.0
230
1.0
 70
     8
 71
     3
 72
    12
 73
     8
 74
     0
 42
0.00000001
 43
0.00000001
 12
1.0
 22
0.0
 32
0.0
 13
1.0
 23
0.0
 33
0.0
 40
0.0
 40
0.0
 40
0.0
 40
0.0
 40
0.2057563201416303
 40
0.4119621115859047
 40
0.6140175720758231
 40
0.8131434011267565
 40
1.0
 40
1.0
 40
1.0
 40
1.0
 10
245.5984493646997
 20
89.11538337559641
 30
0.0
 10
245.5495718431598
 20
89.15905367074126
 30
0.0
 10
245.451710027937
 20
89.24648965807359
 30
0.0
 10
245.3694947317908
 20
89.43030900334597
 30
0.0
 10
245.3497952208095
 20
89.62561874065864
 30
0.0
 10
245.3906754292881
 20
89.81343353081003
 30
0.0
 10
245.4605770698692
 20
89.91429929242261
 30
0.0
 10
245.4944169078248
 20
89.9631290623659
 30
0.0
  0
SPLINE
  5
AB
330
1F
100
AcDbEntity
  8
0
  6
Continuous
 62
     7
370
    15
100
AcDbSpline
210
0.0
220
0.0
230
1.0
 70
     8
 71
     3
 72
    11
 73
     7
 74
     0
 42
0.00000001
 43
0.00000001
 12
1.0
 22
0.0
 32
0.0
 13
1.0
 23
0.0
 33
0.0
 40
0.0
 40
0.0
 40
0.0
 40
0.0
 40
0.2794044541078555
 40
0.5596221468087982
 40
0.8374996326032472
 40
1.0
 40
1.0
 40
1.0
 40
1.0
 10
245.4944169078248
 20
89.9631290623659
 30
0.0
 10
245.5156971530247
 20
89.99447327613822
 30
0.0
 10
245.5583195820098
 20
90.05725293459902
 30
0.0
 10
245.5777083990123
 20
90.17163176777787
 30
0.0
 10
245.5641127768029
 20
90.27044904870104
 30
0.0
 10
245.537404902383
 20
90.32414707720268
 30
0.0
 10
245.5275496397393
 20
90.34396176428736
 30
0.0
  0
SPLINE
  5
AC
330
1F
100
AcDbEntity
  8
0
  6
Continuous
 62
     7
370
    15
100
AcDbSpline
210
0.0
220
0.0
230
1.0
 70
     8
 71
     3
 72
    12
 73
     8
 74
     0
 42
0.00000001
 43
0.00000001
 12
1.0
 22
0.0
 32
0.0
 13
1.0
 23
0.0
 33
0.0
 40
0.0
 40
0.0
 40
0.0
 40
0.0
 40
0.0091629024018029
 40
0.2573268767917041
 40
0.5054970834530061
 40
0.7549945977892467
 40
1.0
 40
1.0
 40
1.0
 40
1.0
 10
244.3689024005311
 20
87.70501640827597
 30
0.0
 10
244.3702636057527
 20
87.70518733814936
 30
0.0
 10
244.4084910879383
 20
87.70998765671028
 30
0.0
 10
244.4825051346379
 20
87.73297550543523
 30
0.0
 10
244.5732404203365
 20
87.8002989122125
 30
0.0
 10
244.6390840462031
 20
87.8929341439614
 30
0.0
 10
244.6540196711843
 20
87.96526539012135
 30
0.0
 10
244.661419645347
 20
88.0011024811977
 30
0.0
  0
SPLINE
  5
AD
330
1F
100
AcDbEntity
  8
0
  6
Continuous
 62
     7
370
    15
100
AcDbSpline
210
0.0
220
0.0
230
1.0
 70
     8
 71
     3
 72
    12
 73
     8
 74
     0
 42
0.00000001
 43
0.00000001
 12
1.0
 22
0.0
 32
0.0
 13
1.0
 23
0.0
 33
0.0
 40
0.0
 40
0.0
 40
0.0
 40
0.0
 40
0.2058418467830956
 40
0.4120697022271111
 40
0.6141392695733473
 40
0.8132591776234411
 40
0.9999999999999999
 40
0.9999999999999999
 40
0.9999999999999999
 40
0.9999999999999999
 10
244.6614196453469
 20
88.00110248119772
 30
0.0
 10
244.6748083069936
 20
88.06529177525587
 30
0.0
 10
244.7016107376178
 20
88.19379073551148
 30
0.0
 10
244.8197435929984
 20
88.35691057761045
 30
0.0
 10
244.9790642666952
 20
88.47160498699799
 30
0.0
 10
245.1621365676548
 20
88.5300676282888
 30
0.0
 10
245.2844013134019
 20
88.51995835674823
 30
0.0
 10
245.3435724530595
 20
88.51506588251532
 30
0.0
  0
SPLINE
  5
AE
330
1F
100
AcDbEntity
  8
0
  6
Continuous
 62
     7
370
    15
100
AcDbSpline
210
0.0
220
0.0
230
1.0
 70
     8
 71
     3
 72
    11
 73
     7
 74
     0
 42
0.00000001
 43
0.00000001
 12
1.0
 22
0.0
 32
0.0
 13
1.0
 23
0.0
 33
0.0
 40
0.0
 40
0.0
 40
0.0
 40
0.0
 40
0.2535031685072351
 40
0.5075703295793434
 40
0.7595014269008801
 40
1.0
 40
1.0
 40
1.0
 40
1.0
 10
245.3435724530595
 20
88.51506588251532
 30
0.0
 10
245.3813934382291
 20
88.5123076858039
 30
0.0
 10
245.4571195525045
 20
88.50678515595901
 30
0.0
 10
245.5657508668742
 20
88.54724219536814
 30
0.0
 10
245.6562473875877
 20
88.61707178094724
 30
0.0
 10
245.6915906911915
 20
88.6825901007787
 30
0.0
 10
245.7088520679849
 20
88.71458870561064
 30
0.0
  0
CIRCLE
  5
AF
330
1F
100
AcDbEntity
  8
0
  6
Continuous
 62
     7
370
    15
100
AcDbCircle
 10
244.1664410887
 20
89.3677356668
 30
0.0
 40
2.625000000000002
  0
LINE
  5
B0
330
1F
100
AcDbEntity
  8
0
  6
Continuous
 62
     7
370
    15
100
AcDbLine
 10
205.6378563795
 20
90.709610183
 30
0.0
 11
205.6378563795
 21
140.1198881605
 31
0.0
  0
SPLINE
  5
B1
330
1F
100
AcDbEntity
  8
0
  6
Continuous
 62
     7
370
    15
100
AcDbSpline
210
0.0
220
0.0
230
1.0
 70
     8
 71
     3
 72
    10
 73
     6
 74
     0
 42
0.00000001
 43
0.00000001
 12
1.0
 22
0.0
 32
0.0
 13
1.0
 23
0.0
 33
0.0
 40
0.0
 40
0.0
 40
0.0
 40
0.0
 40
0.5
 40
0.5
 40
1.0
 40
1.0
 40
1.0
 40
1.0
 10
205.6378566894906
 20
90.70961002084765
 30
0.0
 10
205.6378566894906
 20
90.54972275265399
 30
0.0
 10
205.5765470382548
 20
90.3885954971394
 30
0.0
 10
205.3574474007197
 20
90.15449649878457
 30
0.0
 10
205.1993991944062
 20
90.08296972519334
 30
0.0
 10
205.0378566894906
 20
90.08296972519334
 30
0.0
  0
SPLINE
  5
B2
330
1F
100
AcDbEntity
  8
0
  6
Continuous
 62
     7
370
    15
100
AcDbSpline
210
0.0
220
0.0
230
1.0
 70
    24
 71
     3
 72
    12
 73
     8
 74
     0
 42
0.00000001
 43
0.00000001
 12
1.0
 22
0.0
 32
0.0
 13
1.0
 23
0.0
 33
0.0
 40
0.0
 40
0.0
 40
0.0
 40
0.0
 40
0.2500000000000006
 40
0.2500000000000006
 40
0.5000000000000012
 40
0.5000000000000012
 40
1.0
 40
1.0
 40
1.0
 40
1.0
 10
205.0378566894906
 20
140.1198874214405
 30
0.0
 10
205.1280957571777
 20
140.1198874214405
 30
0.0
 10
205.2189938712842
 20
140.1198874214405
 30
0.0
 10
205.3735909077727
 20
140.1198874214405
 30
0.0
 10
205.4385693238808
 20
140.1198874214405
 30
0.0
 10
205.5904043518171
 20
140.1198874214405
 30
0.0
 10
205.6378566894906
 20
140.1198874214405
 30
0.0
 10
205.6378566894906
 20
140.1198874214405
 30
0.0
  0
LINE
  5
B3
330
1F
100
AcDbEntity
  8
0
  6
Continuous
 62
     7
370
    15
100
AcDbLine
 10
205.0378573988
 20
90.0829697886
 30
0.0
 11
201.0797886107
 21
90.0829697886
 31
0.0
  0
LINE
  5
B4
330
1F
100
AcDbEntity
  8
0
  6
Continuous
 62
     7
370
    15
100
AcDbLine
 10
201.0797886107
 20
90.0829697886
 30
0.0
 11
201.0797886107
 21
140.1198881605
 31
0.0
  0
LINE
  5
B5
330
1F
100
AcDbEntity
  8
0
  6
Continuous
 62
     7
370
    15
100
AcDbLine
 10
201.0797886107
 20
140.1198881605
 30
0.0
 11
205.0378573988
 21
140.1198881605
 31
0.0
  0
SPLINE
  5
B6
330
1F
100
AcDbEntity
  8
0
  6
Continuous
 62
     7
370
    15
100
AcDbSpline
210
0.0
220
0.0
230
1.0
 70
     8
 71
     3
 72
     8
 73
     4
 74
     0
 42
0.00000001
 43
0.00000001
 12
1.0
 22
0.0
 32
0.0
 13
1.0
 23
0.0
 33
0.0
 40
0.0
 40
0.0
 40
0.0
 40
0.0
 40
1.0
 40
1.0
 40
1.0
 40
1.0
 10
201.0797895209797
 20
90.08296972519334
 30
0.0
 10
200.5843098603139
 20
90.97849581312668
 30
0.0
 10
200.0901958122718
 20
91.87478022817892
 30
0.0
 10
199.5978566894906
 20
92.7720502623856
 30
0.0
  0
LINE
  5
B7
330
1F
100
AcDbEntity
  8
0
  6
Continuous
 62
     7
370
    15
100
AcDbLine
 10
199.5978569541
 20
92.7720501015
 30
0.0
 11
199.5978569541
 21
140.1198881605
 31
0.0
  0
SPLINE
  5
B8
330
1F
100
AcDbEntity
  8
0
  6
Continuous
 62
     7
370
    15
100
AcDbSpline
210
0.0
220
0.0
230
1.0
 70
    24
 71
     3
 72
     8
 73
     4
 74
     0
 42
0.00000001
 43
0.00000001
 12
1.0
 22
0.0
 32
0.0
 13
1.0
 23
0.0
 33
0.0
 40
0.0
 40
0.0
 40
0.0
 40
0.0
 40
1.0
 40
1.0
 40
1.0
 40
1.0
 10
199.5978566894906
 20
140.1198874214405
 30
0.0
 10
200.0778086838555
 20
140.1198874214405
 30
0.0
 10
200.5731094128291
 20
140.1198874214405
 30
0.0
 10
201.0797895209797
 20
140.1198874214405
 30
0.0
  0
LINE
  5
B9
330
1F
100
AcDbEntity
  8
0
  6
Continuous
 62
     7
370
    15
100
AcDbLine
 10
184.6378566627
 20
140.1198881605
 30
0.0
 11
194.2959241498
 21
140.1198881605
 31
0.0
  0
LINE
  5
BA
330
1F
100
AcDbEntity
  8
0
  6
Continuous
 62
     7
370
    15
100
AcDbLine
 10
194.2959241498
 20
90.0829697886
 30
0.0
 11
194.2959241498
 21
140.1198881605
 31
0.0
  0
LINE
  5
BB
330
1F
100
AcDbEntity
  8
0
  6
Continuous
 62
     7
370
    15
100
AcDbLine
 10
194.2959241498
 20
90.0829697886
 30
0.0
 11
192.6378570426
 21
90.0829697886
 31
0.0
  0
SPLINE
  5
BC
330
1F
100
AcDbEntity
  8
0
  6
Continuous
 62
     7
370
    15
100
AcDbSpline
210
0.0
220
0.0
230
1.0
 70
     8
 71
     3
 72
    28
 73
    24
 74
     0
 42
0.00000001
 43
0.00000001
 12
1.0
 22
0.0
 32
0.0
 13
1.0
 23
0.0
 33
0.0
 40
0.0
 40
0.0
 40
0.0
 40
0.0
 40
0.1250000000000001
 40
0.1250000000000001
 40
0.1875000000000001
 40
0.1875000000000001
 40
0.2500000000000001
 40
0.2500000000000001
 40
0.375
 40
0.375
 40
0.4375000000000001
 40
0.4375000000000001
 40
0.5
 40
0.5
 40
0.625
 40
0.625
 40
0.7499999999999999
 40
0.7499999999999999
 40
0.8124999999999999
 40
0.8124999999999999
 40
0.875
 40
0.875
 40
1.0
 40
1.0
 40
1.0
 40
1.0
 10
192.6378566894906
 20
90.08296972519334
 30
0.0
 10
192.1061489319977
 20
90.08296972519334
 30
0.0
 10
191.5839103666873
 20
90.06718501124311
 30
0.0
 10
190.8140398804123
 20
90.02218959716691
 30
0.0
 10
190.559680308221
 20
90.00363460209118
 30
0.0
 10
190.0555587275225
 20
89.9597818796447
 30
0.0
 10
189.8058359100946
 20
89.93443727269249
 30
0.0
 10
189.0802459586482
 20
89.8510351949424
 30
0.0
 10
188.6218856970666
 20
89.78516963579129
 30
0.0
 10
187.9713877536728
 20
89.67619929529951
 30
0.0
 10
187.7597057028803
 20
89.63795965953287
 30
0.0
 10
187.3556342137423
 20
89.56020092211352
 30
0.0
 10
187.1631276999214
 20
89.52069995993817
 30
0.0
 10
186.6132927289001
 20
89.40179221757217
 30
0.0
 10
186.2833639505913
 20
89.32197453614754
 30
0.0
 10
185.6988926820227
 20
89.16863137435146
 30
0.0
 10
185.4526155440092
 20
89.09729762108222
 30
0.0
 10
185.1527727513111
 20
89.0033541140076
 30
0.0
 10
185.064315894239
 20
88.97416032064767
 30
0.0
 10
184.9109545409338
 20
88.92069374638426
 30
0.0
 10
184.8458663267076
 20
88.89633441210908
 30
0.0
 10
184.6902723107668
 20
88.83274426666436
 30
0.0
 10
184.6378566894906
 20
88.8026413315751
 30
0.0
 10
184.6378566894906
 20
88.78576443857817
 30
0.0
  0
LINE
  5
BD
330
1F
100
AcDbEntity
  8
0
  6
Continuous
 62
     7
370
    15
100
AcDbLine
 10
184.6378566627
 20
88.7857641021
 30
0.0
 11
184.6378566627
 21
88.7698869148
 31
0.0
  0
SPLINE
  5
BE
330
1F
100
AcDbEntity
  8
0
  6
Continuous
 62
     7
370
    15
100
AcDbSpline
210
0.0
220
0.0
230
1.0
 70
     8
 71
     3
 72
    17
 73
    13
 74
     0
 42
0.00000001
 43
0.00000001
 12
1.0
 22
0.0
 32
0.0
 13
1.0
 23
0.0
 33
0.0
 40
0.0
 40
0.0
 40
0.0
 40
0.0
 40
0.1034797280380778
 40
0.2100239090909901
 40
0.3134862262879433
 40
0.4198361712144981
 40
0.5254127947779869
 40
0.6339610881168427
 40
0.7409508662120068
 40
0.8511696072047016
 40
0.9558996557845765
 40
1.0
 40
1.0
 40
1.0
 40
1.0
 10
192.6378570426481
 20
150.7370828577989
 30
0.0
 10
192.2026085509222
 20
150.7425308494366
 30
0.0
 10
191.3192221003452
 20
150.7535881697652
 30
0.0
 10
190.0383942381225
 20
150.8399469301403
 30
0.0
 10
188.8209780426806
 20
150.9678180732733
 30
0.0
 10
187.7131714263547
 20
151.1267624805917
 30
0.0
 10
186.7249329470259
 20
151.3012570535763
 30
0.0
 10
185.90020984721
 20
151.4704234867632
 30
0.0
 10
185.2512561897115
 20
151.6183042952309
 30
0.0
 10
184.8342208862318
 20
151.7200950467535
 30
0.0
 10
184.6356241433538
 20
151.7704519463879
 30
0.0
 10
184.6589372603417
 20
151.7645423414125
 30
0.0
 10
184.6658452343422
 20
151.7627912500614
 30
0.0
  0
LINE
  5
BF
330
1F
100
AcDbEntity
  8
0
  6
Continuous
 62
     7
370
    15
100
AcDbLine
 10
194.2959241498
 20
150.7370828578
 30
0.0
 11
192.6378570426
 21
150.7370828578
 31
0.0
  0
LINE
  5
C0
330
1F
100
AcDbEntity
  8
0
  6
Continuous
 62
     7
370
    15
100
AcDbLine
 10
194.2959241498
 20
144.7285770366
 30
0.0
 11
194.2959241498
 21
150.7370828578
 31
0.0
  0
LINE
  5
C1
330
1F
100
AcDbEntity
  8
0
  6
Continuous
 62
     7
370
    15
100
AcDbLine
 10
191.8834773753
 20
144.7285770366
 30
0.0
 11
194.2959241498
 21
144.7285770366
 31
0.0
  0
SPLINE
  5
C2
330
1F
100
AcDbEntity
  8
0
  6
Continuous
 62
     7
370
    15
100
AcDbSpline
210
0.0
220
0.0
230
1.0
 70
     8
 71
     3
 72
    20
 73
    16
 74
     0
 42
0.00000001
 43
0.00000001
 12
1.0
 22
0.0
 32
0.0
 13
1.0
 23
0.0
 33
0.0
 40
0.0
 40
0.0
 40
0.0
 40
0.0
 40
0.2500000000000005
 40
0.2500000000000005
 40
0.3750000000000004
 40
0.3750000000000004
 40
0.5000000000000003
 40
0.5000000000000003
 40
0.6250000000000002
 40
0.6250000000000002
 40
0.7500000000000001
 40
0.7500000000000001
 40
0.8750000000000001
 40
0.8750000000000001
 40
1.0
 40
1.0
 40
1.0
 40
1.0
 10
184.6378566894906
 20
140.1198874214405
 30
0.0
 10
184.8862304237787
 20
140.7737498497379
 30
0.0
 10
185.205800516124
 20
141.377535631735
 30
0.0
 10
185.8281067493286
 20
142.2043743679036
 30
0.0
 10
186.0595310097594
 20
142.4668030058565
 30
0.0
 10
186.5807453494091
 20
142.9634656599615
 30
0.0
 10
186.8673658320442
 20
143.194052538983
 30
0.0
 10
187.4868505733518
 20
143.6106067635657
 30
0.0
 10
187.8211509528387
 20
143.7981045655332
 30
0.0
 10
188.5464114254635
 20
144.1295015431696
 30
0.0
 10
188.928326482854
 20
144.2690055306649
 30
0.0
 10
189.7231146590257
 20
144.4944590381358
 30
0.0
 10
190.1372728532321
 20
144.5810851496794
 30
0.0
 10
191.0028191938135
 20
144.6990659385336
 30
0.0
 10
191.4407068088253
 20
144.7285770838079
 30
0.0
 10
191.8834770351799
 20
144.7285770838079
 30
0.0
  0
LINE
  5
C3
330
1F
100
AcDbEntity
  8
0
  6
Continuous
 62
     7
370
    15
100
AcDbLine
 10
195.7778567378
 20
92.7720501015
 30
0.0
 11
195.7778567378
 21
140.1198881605
 31
0.0
  0
SPLINE
  5
C4
330
1F
100
AcDbEntity
  8
0
  6
Continuous
 62
     7
370
    15
100
AcDbSpline
210
0.0
220
0.0
230
1.0
 70
     8
 71
     3
 72
     8
 73
     4
 74
     0
 42
0.00000001
 43
0.00000001
 12
1.0
 22
0.0
 32
0.0
 13
1.0
 23
0.0
 33
0.0
 40
0.0
 40
0.0
 40
0.0
 40
0.0
 40
1.0
 40
1.0
 40
1.0
 40
1.0
 10
195.7778566894906
 20
92.77205026238562
 30
0.0
 10
195.2855175667094
 20
91.87478022817892
 30
0.0
 10
194.7914035186673
 20
90.97849581312668
 30
0.0
 10
194.2959238580016
 20
90.08296972519334
 30
0.0
  0
SPLINE
  5
C5
330
1F
100
AcDbEntity
  8
0
  6
Continuous
 62
     7
370
    15
100
AcDbSpline
210
0.0
220
0.0
230
1.0
 70
    24
 71
     3
 72
     8
 73
     4
 74
     0
 42
0.00000001
 43
0.00000001
 12
1.0
 22
0.0
 32
0.0
 13
1.0
 23
0.0
 33
0.0
 40
0.0
 40
0.0
 40
0.0
 40
0.0
 40
1.0
 40
1.0
 40
1.0
 40
1.0
 10
194.2959238580016
 20
140.1198874214405
 30
0.0
 10
194.8026039661521
 20
140.1198874214405
 30
0.0
 10
195.2979046951257
 20
140.1198874214405
 30
0.0
 10
195.7778566894906
 20
140.1198874214405
 30
0.0
  0
LINE
  5
C6
330
1F
100
AcDbEntity
  8
0
  6
Continuous
 62
     7
370
    15
100
AcDbLine
 10
179.6878566895
 20
89.0698882678
 30
0.0
 11
179.6878566895
 21
151.4698865751
 31
0.0
  0
SPLINE
  5
C7
330
1F
100
AcDbEntity
  8
0
  6
Continuous
 62
     7
370
    15
100
AcDbSpline
210
0.0
220
0.0
230
1.0
 70
     8
 71
     3
 72
    10
 73
     6
 74
     0
 42
0.00000001
 43
0.00000001
 12
1.0
 22
0.0
 32
0.0
 13
1.0
 23
0.0
 33
0.0
 40
0.0
 40
0.0
 40
0.0
 40
0.0
 40
0.5
 40
0.5
 40
1.0
 40
1.0
 40
1.0
 40
1.0
 10
196.1721542211816
 20
146.6698874214405
 30
0.0
 10
196.0506139575131
 20
146.7446135886523
 30
0.0
 10
195.9492795971641
 20
146.853558604569
 30
0.0
 10
195.8136406542757
 20
147.1039890853306
 30
0.0
 10
195.7778566894906
 20
147.2464084474296
 30
0.0
 10
195.7778566894906
 20
147.3895412724763
 30
0.0
  0
SPLINE
  5
C8
330
1F
100
AcDbEntity
  8
0
  6
Continuous
 62
     7
370
    15
100
AcDbSpline
210
0.0
220
0.0
230
1.0
 70
    24
 71
     3
 72
    12
 73
     8
 74
     0
 42
0.00000001
 43
0.00000001
 12
1.0
 22
0.0
 32
0.0
 13
1.0
 23
0.0
 33
0.0
 40
0.0
 40
0.0
 40
0.0
 40
0.0
 40
0.2500000000000012
 40
0.2500000000000012
 40
0.5000000000000024
 40
0.5000000000000024
 40
1.0
 40
1.0
 40
1.0
 40
1.0
 10
196.5778566894907
 20
146.6698874214405
 30
0.0
 10
196.528513327681
 20
146.6698874214405
 30
0.0
 10
196.4798226293794
 20
146.6698874214405
 30
0.0
 10
196.396971531809
 20
146.6698874214405
 30
0.0
 10
196.3607715641884
 20
146.6698874214405
 30
0.0
 10
196.265021647639
 20
146.6698874214405
 30
0.0
 10
196.2151396778269
 20
146.6698874214405
 30
0.0
 10
196.1721542211816
 20
146.6698874214405
 30
0.0
  0
SPLINE
  5
C9
330
1F
100
AcDbEntity
  8
0
  6
Continuous
 62
     7
370
    15
100
AcDbSpline
210
0.0
220
0.0
230
1.0
 70
    24
 71
     3
 72
    14
 73
    10
 74
     0
 42
0.00000001
 43
0.00000001
 12
1.0
 22
0.0
 32
0.0
 13
1.0
 23
0.0
 33
0.0
 40
0.0
 40
0.0
 40
0.0
 40
0.0
 40
0.1250000000000007
 40
0.1250000000000007
 40
0.2500000000000014
 40
0.2500000000000014
 40
0.5000000000000002
 40
0.5000000000000002
 40
1.0
 40
1.0
 40
1.0
 40
1.0
 10
196.5778566894906
 20
93.86988742144048
 30
0.0
 10
196.5085099677595
 20
93.86988742144048
 30
0.0
 10
196.4433119143755
 20
93.86988742144048
 30
0.0
 10
196.3389327217486
 20
93.86988742144048
 30
0.0
 10
196.2960303507396
 20
93.86988742144048
 30
0.0
 10
196.1837046931349
 20
93.86988742144048
 30
0.0
 10
196.128480998781
 20
93.86988742144048
 30
0.0
 10
195.9844236200135
 20
93.86988742144048
 30
0.0
 10
195.922342923182
 20
93.86988742144048
 30
0.0
 10
195.8755314918229
 20
93.86988742144048
 30
0.0
  0
SPLINE
  5
CA
330
1F
100
AcDbEntity
  8
0
  6
Continuous
 62
     7
370
    15
100
AcDbSpline
210
0.0
220
0.0
230
1.0
 70
     8
 71
     3
 72
     9
 73
     5
 74
     0
 42
0.00000001
 43
0.00000001
 12
1.0
 22
0.0
 32
0.0
 13
1.0
 23
0.0
 33
0.0
 40
0.0
 40
0.0
 40
0.0
 40
0.0
 40
0.5
 40
1.0
 40
1.0
 40
1.0
 40
1.0
 10
195.7778566894906
 20
140.4057540529019
 30
0.0
 10
195.7778566894906
 20
140.3575220007791
 30
0.0
 10
195.7822626641958
 20
140.2616519873396
 30
0.0
 10
195.7952818442896
 20
140.1669433573562
 30
0.0
 10
195.8040043126507
 20
140.1198874214405
 30
0.0
  0
SPLINE
  5
CB
330
1F
100
AcDbEntity
  8
0
  6
Continuous
 62
     7
370
    15
100
AcDbSpline
210
0.0
220
0.0
230
1.0
 70
    24
 71
     3
 72
    14
 73
    10
 74
     0
 42
0.00000001
 43
0.00000001
 12
1.0
 22
0.0
 32
0.0
 13
1.0
 23
0.0
 33
0.0
 40
0.0
 40
0.0
 40
0.0
 40
0.0
 40
0.5000000000000027
 40
0.5000000000000027
 40
0.7500000000000013
 40
0.7500000000000013
 40
0.8750000000000007
 40
0.8750000000000007
 40
1.0
 40
1.0
 40
1.0
 40
1.0
 10
199.5001818871583
 20
93.86988742144048
 30
0.0
 10
199.4533971821101
 20
93.86988742144048
 30
0.0
 10
199.3913459853305
 20
93.86988742144048
 30
0.0
 10
199.2479543467802
 20
93.86988742144048
 30
0.0
 10
199.1918106932289
 20
93.86988742144048
 30
0.0
 10
199.0788596710925
 20
93.86988742144048
 30
0.0
 10
199.0358589090544
 20
93.86988742144048
 30
0.0
 10
198.9317961987479
 20
93.86988742144048
 30
0.0
 10
198.866463960391
 20
93.86988742144048
 30
0.0
 10
198.7978566894906
 20
93.86988742144048
 30
0.0
  0
SPLINE
  5
CC
330
1F
100
AcDbEntity
  8
0
  6
Continuous
 62
     7
370
    15
100
AcDbSpline
210
0.0
220
0.0
230
1.0
 70
    24
 71
     3
 72
    12
 73
     8
 74
     0
 42
0.00000001
 43
0.00000001
 12
1.0
 22
0.0
 32
0.0
 13
1.0
 23
0.0
 33
0.0
 40
0.0
 40
0.0
 40
0.0
 40
0.0
 40
0.5000000000000024
 40
0.5000000000000024
 40
0.7500000000000012
 40
0.7500000000000012
 40
1.0
 40
1.0
 40
1.0
 40
1.0
 10
199.2035591577996
 20
146.6698874214405
 30
0.0
 10
199.1604736081889
 20
146.6698874214405
 30
0.0
 10
199.1113214064417
 20
146.6698874214405
 30
0.0
 10
199.0148488121522
 20
146.6698874214405
 30
0.0
 10
198.978747227018
 20
146.6698874214405
 30
0.0
 10
198.8956414691554
 20
146.6698874214405
 30
0.0
 10
198.8476448721913
 20
146.6698874214405
 30
0.0
 10
198.7978566894906
 20
146.6698874214405
 30
0.0
  0
SPLINE
  5
CD
330
1F
100
AcDbEntity
  8
0
  6
Continuous
 62
     7
370
    15
100
AcDbSpline
210
0.0
220
0.0
230
1.0
 70
     8
 71
     3
 72
    10
 73
     6
 74
     0
 42
0.00000001
 43
0.00000001
 12
1.0
 22
0.0
 32
0.0
 13
1.0
 23
0.0
 33
0.0
 40
0.0
 40
0.0
 40
0.0
 40
0.0
 40
0.5
 40
0.5
 40
1.0
 40
1.0
 40
1.0
 40
1.0
 10
199.5978566894906
 20
147.3895412724763
 30
0.0
 10
199.5978566894906
 20
147.2457712146582
 30
0.0
 10
199.5618076307717
 20
147.1033518521631
 30
0.0
 10
199.4262987699977
 20
146.8534575588058
 30
0.0
 10
199.3264227769016
 20
146.7454272225577
 30
0.0
 10
199.2035591577996
 20
146.6698874214404
 30
0.0
  0
SPLINE
  5
CE
330
1F
100
AcDbEntity
  8
0
  6
Continuous
 62
     7
370
    15
100
AcDbSpline
210
0.0
220
0.0
230
1.0
 70
     8
 71
     3
 72
    10
 73
     6
 74
     0
 42
0.00000001
 43
0.00000001
 12
1.0
 22
0.0
 32
0.0
 13
1.0
 23
0.0
 33
0.0
 40
0.0
 40
0.0
 40
0.0
 40
0.0
 40
0.5
 40
0.5
 40
1.0
 40
1.0
 40
1.0
 40
1.0
 10
199.5717090663305
 20
140.1198874214405
 30
0.0
 10
199.5803987092422
 20
140.1667662707586
 30
0.0
 10
199.5869377739926
 20
140.2141887361599
 30
0.0
 10
199.5956964083857
 20
140.3101255347466
 30
0.0
 10
199.5978566894906
 20
140.3580408227571
 30
0.0
 10
199.5978566894906
 20
140.4057540529017
 30
0.0
  0
LINE
  5
CF
330
1F
100
AcDbEntity
  8
0
  6
Continuous
 62
     7
370
    15
100
AcDbLine
 10
198.7978564505
 20
146.6698872784
 30
0.0
 11
196.5778572414
 21
146.6698872784
 31
0.0
  0
LINE
  5
D0
330
1F
100
AcDbEntity
  8
0
  6
Continuous
 62
     7
370
    15
100
AcDbLine
 10
198.7978564505
 20
93.8698875645
 30
0.0
 11
196.5778572414
 21
93.8698875645
 31
0.0
  0
LINE
  5
D1
330
1F
100
AcDbEntity
  8
0
  6
Continuous
 62
     7
370
    15
100
AcDbLine
 10
205.8378560398
 20
146.6698872784
 30
0.0
 11
205.7983288471
 21
146.6698872784
 31
0.0
  0
LINE
  5
D2
330
1F
100
AcDbEntity
  8
0
  6
Continuous
 62
     7
370
    15
100
AcDbLine
 10
205.8378560398
 20
93.8698875645
 30
0.0
 11
205.7924112234
 21
93.8698875645
 31
0.0
  0
ELLIPSE
  5
D3
330
1F
100
AcDbEntity
  8
0
  6
Continuous
 62
     7
370
    15
100
AcDbEllipse
 10
216.6074719318
 20
120.2698874214
 30
0.0
 11
0.0
 21
25.99999999999999
 31
0.0
210
0.0
220
0.0
230
1.0
 40
0.2679491924
 41
0.1601874882047408
 42
2.981405165385052
  0
ELLIPSE
  5
D4
330
1F
100
AcDbEntity
  8
0
  6
Continuous
 62
     7
370
    15
100
AcDbEllipse
 10
214.7103163202
 20
103.7702568757
 30
0.0
 11
-0.2084867322362527
 21
3.3487678444029
 31
0.0
210
0.0
220
0.0
230
1.0
 40
0.2037134593
 41
0.0
 42
6.283185307179586
  0
SPLINE
  5
D5
330
1F
100
AcDbEntity
  8
0
  6
Continuous
 62
     7
370
    15
100
AcDbSpline
210
0.0
220
0.0
230
1.0
 70
     8
 71
     3
 72
    20
 73
    16
 74
     0
 42
0.00000001
 43
0.00000001
 12
1.0
 22
0.0
 32
0.0
 13
1.0
 23
0.0
 33
0.0
 40
0.0
 40
0.0
 40
0.0
 40
0.0
 40
0.2500000000000012
 40
0.2500000000000012
 40
0.3750000000000009
 40
0.3750000000000009
 40
0.5000000000000008
 40
0.5000000000000008
 40
0.6250000000000006
 40
0.6250000000000006
 40
0.7500000000000003
 40
0.7500000000000003
 40
0.8750000000000002
 40
0.8750000000000002
 40
1.0
 40
1.0
 40
1.0
 40
1.0
 10
215.49626365963
 20
145.9370197106763
 30
0.0
 10
215.657443066344
 20
146.0342099753178
 30
0.0
 10
215.9068727364298
 20
146.1038808539881
 30
0.0
 10
216.4150462031446
 20
146.1787810103583
 30
0.0
 10
216.604995917447
 20
146.1983757033483
 30
0.0
 10
217.0180148670911
 20
146.2289224027339
 30
0.0
 10
217.2420489396177
 20
146.2400114837963
 30
0.0
 10
217.7259723038628
 20
146.2562745044011
 30
0.0
 10
217.9851693779204
 20
146.2613732199499
 30
0.0
 10
218.5217439543727
 20
146.2677516414563
 30
0.0
 10
218.8011550571235
 20
146.2691007709952
 30
0.0
 10
219.3824896452844
 20
146.2701395809641
 30
0.0
 10
219.6854347601585
 20
146.2698221285919
 30
0.0
 10
220.2961384886013
 20
146.2690017093186
 30
0.0
 10
220.6060188668121
 20
146.268503127117
 30
0.0
 10
220.9205297015117
 20
146.2682867405885
 30
0.0
  0
SPLINE
  5
D6
330
1F
100
AcDbEntity
  8
0
  6
Continuous
 62
     7
370
    15
100
AcDbSpline
210
0.0
220
0.0
230
1.0
 70
     8
 71
     3
 72
    20
 73
    16
 74
     0
 42
0.00000001
 43
0.00000001
 12
1.0
 22
0.0
 32
0.0
 13
1.0
 23
0.0
 33
0.0
 40
0.0
 40
0.0
 40
0.0
 40
0.0
 40
0.2500000000000019
 40
0.2500000000000019
 40
0.3750000000000016
 40
0.3750000000000016
 40
0.5000000000000012
 40
0.5000000000000012
 40
0.6250000000000009
 40
0.6250000000000009
 40
0.7500000000000007
 40
0.7500000000000007
 40
0.8750000000000003
 40
0.8750000000000003
 40
1.0
 40
1.0
 40
1.0
 40
1.0
 10
220.9205297015117
 20
94.27148810229252
 30
0.0
 10
220.2914484839626
 20
94.27105528826577
 30
0.0
 10
219.6848299675003
 20
94.26912972378433
 30
0.0
 10
218.808194461138
 20
94.27064451046796
 30
0.0
 10
218.5251596119423
 20
94.27200027798976
 30
0.0
 10
217.9888344278966
 20
94.27834060791176
 30
0.0
 10
217.7336150791673
 20
94.28331919188312
 30
0.0
 10
217.2495687485995
 20
94.29943728047611
 30
0.0
 10
217.0212657591922
 20
94.31066269650668
 30
0.0
 10
216.60740622127
 20
94.34117087270698
 30
0.0
 10
216.4195546586937
 20
94.36050163434486
 30
0.0
 10
216.0821717399218
 20
94.40988944635579
 30
0.0
 10
215.9322218640739
 20
94.44021100834986
 30
0.0
 10
215.6802256929461
 20
94.5122938575116
 30
0.0
 10
215.5768640690229
 20
94.55415354420519
 30
0.0
 10
215.49626365963
 20
94.60275513220466
 30
0.0
  0
LINE
  5
D7
330
1F
100
AcDbEntity
  8
0
  6
Continuous
 62
     7
370
    15
100
AcDbLine
 10
177.6878565945
 20
96.0494561979
 30
0.0
 11
177.6878565945
 21
144.490318645
 31
0.0
  0
LINE
  5
D8
330
1F
100
AcDbEntity
  8
0
  6
Continuous
 62
     7
370
    15
100
AcDbLine
 10
157.887856469
 20
97.0414413998
 30
0.0
 11
157.887856469
 21
98.324738715
 31
0.0
  0
SPLINE
  5
D9
330
1F
100
AcDbEntity
  8
0
  6
Continuous
 62
     7
370
    15
100
AcDbSpline
210
0.0
220
0.0
230
1.0
 70
     8
 71
     3
 72
    14
 73
    10
 74
     0
 42
0.00000001
 43
0.00000001
 12
1.0
 22
0.0
 32
0.0
 13
1.0
 23
0.0
 33
0.0
 40
0.0
 40
0.0
 40
0.0
 40
0.0
 40
0.25
 40
0.25
 40
0.5
 40
0.5
 40
0.75
 40
0.75
 40
1.0
 40
1.0
 40
1.0
 40
1.0
 10
157.2662524527508
 20
99.40551620415727
 30
0.0
 10
157.3046888375718
 20
99.30289180644574
 30
0.0
 10
157.3734902309637
 20
99.20369538300616
 30
0.0
 10
157.5167762431226
 20
99.01280335367966
 30
0.0
 10
157.5919582982295
 20
98.92054608764676
 30
0.0
 10
157.7241455868797
 20
98.74093876583174
 30
0.0
 10
157.7816627823495
 20
98.65362921138738
 30
0.0
 10
157.8637075806418
 20
98.48369537787165
 30
0.0
 10
157.8878566894906
 20
98.40179303600048
 30
0.0
 10
157.8878566894906
 20
98.32473916216458
 30
0.0
  0
SPLINE
  5
DA
330
1F
100
AcDbEntity
  8
0
  6
Continuous
 62
     7
370
    15
100
AcDbSpline
210
0.0
220
0.0
230
1.0
 70
     8
 71
     3
 72
    18
 73
    14
 74
     0
 42
0.00000001
 43
0.00000001
 12
1.0
 22
0.0
 32
0.0
 13
1.0
 23
0.0
 33
0.0
 40
0.0
 40
0.0
 40
0.0
 40
0.0
 40
0.0624999999999996
 40
0.0624999999999996
 40
0.1249999999999992
 40
0.1249999999999992
 40
0.2499999999999997
 40
0.2499999999999997
 40
0.4999999999999998
 40
0.4999999999999998
 40
0.7499999999999999
 40
0.7499999999999999
 40
1.0
 40
1.0
 40
1.0
 40
1.0
 10
156.4878566894906
 20
100.1237986556439
 30
0.0
 10
156.524428899841
 20
100.1275760591713
 30
0.0
 10
156.5630793732765
 20
100.1270190312882
 30
0.0
 10
156.6371708669903
 20
100.1169598261263
 30
0.0
 10
156.6725211607444
 20
100.1076059447017
 30
0.0
 10
156.7671154581338
 20
100.0732215182679
 30
0.0
 10
156.8172536312728
 20
100.0425097836051
 30
0.0
 10
156.946446902854
 20
99.94658047356707
 30
0.0
 10
157.0047270475951
 20
99.87806497944982
 30
0.0
 10
157.1049221440186
 20
99.74149302951722
 30
0.0
 10
157.1449373954652
 20
99.6727281270143
 30
0.0
 10
157.213336816283
 20
99.53769269790664
 30
0.0
 10
157.2416985401449
 20
99.47107467185347
 30
0.0
 10
157.2662524527508
 20
99.40551620415727
 30
0.0
  0
SPLINE
  5
DB
330
1F
100
AcDbEntity
  8
0
  6
Continuous
 62
     7
370
    15
100
AcDbSpline
210
0.0
220
0.0
230
1.0
 70
     8
 71
     3
 72
    10
 73
     6
 74
     0
 42
0.00000001
 43
0.00000001
 12
1.0
 22
0.0
 32
0.0
 13
1.0
 23
0.0
 33
0.0
 40
0.0
 40
0.0
 40
0.0
 40
0.0
 40
0.5
 40
0.5
 40
1.0
 40
1.0
 40
1.0
 40
1.0
 10
152.5742548283686
 20
99.62760499927225
 30
0.0
 10
153.201882484076
 20
99.73087855800786
 30
0.0
 10
153.8530832291074
 20
99.81970366975939
 30
0.0
 10
155.1617879331197
 20
99.98181137662974
 30
0.0
 10
155.8228323704109
 20
100.0551108409163
 30
0.0
 10
156.4878566894905
 20
100.123798655644
 30
0.0
  0
SPLINE
  5
DC
330
1F
100
AcDbEntity
  8
0
  6
Continuous
 62
     7
370
    15
100
AcDbSpline
210
0.0
220
0.0
230
1.0
 70
     8
 71
     3
 72
    14
 73
    10
 74
     0
 42
0.00000001
 43
0.00000001
 12
1.0
 22
0.0
 32
0.0
 13
1.0
 23
0.0
 33
0.0
 40
0.0
 40
0.0
 40
0.0
 40
0.0
 40
0.4999999999999998
 40
0.4999999999999998
 40
0.750000000000001
 40
0.750000000000001
 40
0.8750000000000004
 40
0.8750000000000004
 40
1.0
 40
1.0
 40
1.0
 40
1.0
 10
148.9378566894906
 20
99.46325586291292
 30
0.0
 10
149.5539335932459
 20
99.46898198314209
 30
0.0
 10
150.1680655893618
 20
99.4788723485441
 30
0.0
 10
151.0819622198754
 20
99.50950731621387
 30
0.0
 10
151.385401147423
 20
99.52230077385185
 30
0.0
 10
151.8365377630605
 20
99.55022660181125
 30
0.0
 10
151.986244012603
 20
99.56099622197101
 30
0.0
 10
152.2830851488511
 20
99.58812893757054
 30
0.0
 10
152.4304707013544
 20
99.60394591039777
 30
0.0
 10
152.5742548283686
 20
99.62760499927225
 30
0.0
  0
SPLINE
  5
DD
330
1F
100
AcDbEntity
  8
0
  6
Continuous
 62
     7
370
    15
100
AcDbSpline
210
0.0
220
0.0
230
1.0
 70
     8
 71
     3
 72
     8
 73
     4
 74
     0
 42
0.00000001
 43
0.00000001
 12
1.0
 22
0.0
 32
0.0
 13
1.0
 23
0.0
 33
0.0
 40
0.0000005954826279
 40
0.0000005954826279
 40
0.0000005954826279
 40
0.0000005954826279
 40
0.0000302093805348
 40
0.0000302093805348
 40
0.0000302093805348
 40
0.0000302093805348
 10
148.927811759081
 20
99.47507099256481
 30
0.0
 10
148.9311277864012
 20
99.47112421296902
 30
0.0
 10
148.9344763377935
 20
99.46718582183908
 30
0.0
 10
148.9378566894906
 20
99.46325586291292
 30
0.0
  0
SPLINE
  5
DE
330
1F
100
AcDbEntity
  8
0
  6
Continuous
 62
     7
370
    15
100
AcDbSpline
210
0.0
220
0.0
230
1.0
 70
     8
 71
     3
 72
     8
 73
     4
 74
     0
 42
0.00000001
 43
0.00000001
 12
1.0
 22
0.0
 32
0.0
 13
1.0
 23
0.0
 33
0.0
 40
0.0000005099763573
 40
0.0000005099763573
 40
0.0000005099763573
 40
0.0000005099763573
 40
0.0000262827998699
 40
0.0000262827998699
 40
0.0000262827998699
 40
0.0000262827998699
 10
148.9378566894906
 20
141.1398251868356
 30
0.0
 10
148.9344879502628
 20
141.1365035178797
 30
0.0
 10
148.9311394972837
 20
141.1331755606008
 30
0.0
 10
148.9278117590724
 20
141.1298413137281
 30
0.0
  0
SPLINE
  5
DF
330
1F
100
AcDbEntity
  8
0
  6
Continuous
 62
     7
370
    15
100
AcDbSpline
210
0.0
220
0.0
230
1.0
 70
     8
 71
     3
 72
    10
 73
     6
 74
     0
 42
0.00000001
 43
0.00000001
 12
1.0
 22
0.0
 32
0.0
 13
1.0
 23
0.0
 33
0.0
 40
0.0
 40
0.0
 40
0.0
 40
0.0
 40
0.5
 40
0.5
 40
1.0
 40
1.0
 40
1.0
 40
1.0
 10
152.4878566894906
 20
141.0929748132682
 30
0.0
 10
151.9002711424
 20
141.1140403335046
 30
0.0
 10
151.3095247489396
 20
141.1247988193768
 30
0.0
 10
150.1255055836408
 20
141.1381635999125
 30
0.0
 10
149.5320915954353
 20
141.1403062425771
 30
0.0
 10
148.9378566894906
 20
141.1398251868355
 30
0.0
  0
SPLINE
  5
E0
330
1F
100
AcDbEntity
  8
0
  6
Continuous
 62
     7
370
    15
100
AcDbSpline
210
0.0
220
0.0
230
1.0
 70
     8
 71
     3
 72
    18
 73
    14
 74
     0
 42
0.00000001
 43
0.00000001
 12
1.0
 22
0.0
 32
0.0
 13
1.0
 23
0.0
 33
0.0
 40
0.0
 40
0.0
 40
0.0
 40
0.0
 40
0.2500000000000003
 40
0.2500000000000003
 40
0.4999999999999999
 40
0.4999999999999999
 40
0.7499999999999996
 40
0.7499999999999996
 40
0.8749999999999993
 40
0.8749999999999993
 40
0.9374999999999997
 40
0.9374999999999997
 40
1.0
 40
1.0
 40
1.0
 40
1.0
 10
153.8878566894906
 20
142.1139950938035
 30
0.0
 10
153.8878566894907
 20
142.0307881849463
 30
0.0
 10
153.8520075895524
 20
141.9420515296327
 30
0.0
 10
153.7271358535184
 20
141.7599263390725
 30
0.0
 10
153.6367354358705
 20
141.6647962904459
 30
0.0
 10
153.4144927811284
 20
141.4756147813215
 30
0.0
 10
153.2847279946826
 20
141.3806696132268
 30
0.0
 10
153.0440905373711
 20
141.2423909056469
 30
0.0
 10
152.9563232392337
 20
141.1966804723445
 30
0.0
 10
152.8017991520269
 20
141.138857167123
 30
0.0
 10
152.7451882659721
 20
141.1211424030851
 30
0.0
 10
152.6211442350655
 20
141.0966030998522
 30
0.0
 10
152.5534295600472
 20
141.090623961314
 30
0.0
 10
152.4878566894906
 20
141.0929748132682
 30
0.0
  0
LINE
  5
E1
330
1F
100
AcDbEntity
  8
0
  6
Continuous
 62
     7
370
    15
100
AcDbLine
 10
153.8878558133
 20
142.1139950791
 30
0.0
 11
153.8878558133
 21
143.2979333142
 31
0.0
  0
SPLINE
  5
E2
330
1F
100
AcDbEntity
  8
0
  6
Continuous
 62
     7
370
    15
100
AcDbSpline
210
0.0
220
0.0
230
1.0
 70
     8
 71
     3
 72
    24
 73
    20
 74
     0
 42
0.00000001
 43
0.00000001
 12
1.0
 22
0.0
 32
0.0
 13
1.0
 23
0.0
 33
0.0
 40
0.0
 40
0.0
 40
0.0
 40
0.0
 40
0.0010489815523775
 40
0.0637843212772741
 40
0.1272220630088516
 40
0.1903789073370505
 40
0.2526748662763491
 40
0.3146354150030102
 40
0.3770891884518245
 40
0.4393540587943444
 40
0.5008133488401828
 40
0.5621845177353679
 40
0.6248438462901906
 40
0.6874304788646655
 40
0.7496743245911356
 40
0.811984857412469
 40
0.8750960476811308
 40
0.9384412548145236
 40
1.0
 40
1.0
 40
1.0
 40
1.0
 10
166.4567626942175
 20
96.61237922699392
 30
0.0
 10
166.4563160284668
 20
96.61232058202742
 30
0.0
 10
166.4291560925432
 20
96.60875461904675
 30
0.0
 10
166.524786015675
 20
96.62161922852195
 30
0.0
 10
166.7583391916955
 20
96.65085371086202
 30
0.0
 10
167.1538951439299
 20
96.69747292160343
 30
0.0
 10
167.6809351442999
 20
96.7476537210286
 30
0.0
 10
168.3244655861362
 20
96.79203239447165
 30
0.0
 10
169.0631394204059
 20
96.81897559098243
 30
0.0
 10
169.8606540905248
 20
96.82244733928458
 30
0.0
 10
170.6872331402894
 20
96.79482189299115
 30
0.0
 10
171.512755961708
 20
96.73634075001252
 30
0.0
 10
172.3048824326237
 20
96.65089768661392
 30
0.0
 10
173.037454811461
 20
96.54916251812142
 30
0.0
 10
173.6730949932817
 20
96.44131886707348
 30
0.0
 10
174.195005923828
 20
96.33968747179867
 30
0.0
 10
174.5766347614669
 20
96.25720550750616
 30
0.0
 10
174.8274494374002
 20
96.20105339999924
 30
0.0
 10
174.8565707531075
 20
96.19420454908636
 30
0.0
 10
174.8709231544512
 20
96.19082910211027
 30
0.0
  0
SPLINE
  5
E3
330
1F
100
AcDbEntity
  8
0
  6
Continuous
 62
     7
370
    15
100
AcDbSpline
210
0.0
220
0.0
230
1.0
 70
     8
 71
     3
 72
    24
 73
    20
 74
     0
 42
0.00000001
 43
0.00000001
 12
1.0
 22
0.0
 32
0.0
 13
1.0
 23
0.0
 33
0.0
 40
0.0
 40
0.0
 40
0.0
 40
0.0
 40
0.061438429114026
 40
0.1250736777967296
 40
0.1884253375120635
 40
0.2508623992448768
 40
0.3129665476325514
 40
0.3753451442328022
 40
0.4377328732174486
 40
0.499092717251918
 40
0.560580729454827
 40
0.622946985474185
 40
0.6854686070210457
 40
0.7475477863222202
 40
0.8098225081553685
 40
0.873068419947611
 40
0.936404185690527
 40
0.9991757203144552
 40
1.0
 40
1.0
 40
1.0
 40
1.0
 10
174.8708686720806
 20
144.3489159384483
 30
0.0
 10
174.8562678636284
 20
144.3455477805753
 30
0.0
 10
174.8265441737774
 20
144.338691031491
 30
0.0
 10
174.5738061737914
 20
144.2823532115949
 30
0.0
 10
174.1908108747703
 20
144.1994953987096
 30
0.0
 10
173.6684549178873
 20
144.0975886504885
 30
0.0
 10
173.0336705731857
 20
143.9897500805995
 30
0.0
 10
172.3034468365715
 20
143.8882838273705
 30
0.0
 10
171.5129787416604
 20
143.8032217488033
 30
0.0
 10
170.6884950142027
 20
143.7450203918467
 30
0.0
 10
169.8614586337227
 20
143.7174359441621
 30
0.0
 10
169.0631341747322
 20
143.7209298726963
 30
0.0
 10
168.3233104237326
 20
143.74788353137
 30
0.0
 10
167.679055552273
 20
143.7922390319834
 30
0.0
 10
167.1516486951754
 20
143.8424442157061
 30
0.0
 10
166.7569834548623
 20
143.8890516757513
 30
0.0
 10
166.5244547692742
 20
143.9182548525897
 30
0.0
 10
166.4290755406079
 20
143.9310129913069
 30
0.0
 10
166.4560084849347
 20
143.9274731613881
 30
0.0
 10
166.4563575688975
 20
143.9274272808546
 30
0.0
  0
SPLINE
  5
E4
330
1F
100
AcDbEntity
  8
0
  6
Continuous
 62
     7
370
    15
100
AcDbSpline
210
0.0
220
0.0
230
1.0
 70
     8
 71
     3
 72
     9
 73
     5
 74
     0
 42
0.00000001
 43
0.00000001
 12
1.0
 22
0.0
 32
0.0
 13
1.0
 23
0.0
 33
0.0
 40
0.0
 40
0.0
 40
0.0
 40
0.0
 40
0.5865081526888636
 40
1.0
 40
1.0
 40
1.0
 40
1.0
 10
147.7943761203664
 20
100.6190686413759
 30
0.0
 10
147.7983765569483
 20
100.613268169162
 30
0.0
 10
147.805197325873
 20
100.6033783284373
 30
0.0
 10
147.8143510369762
 20
100.6574443339644
 30
0.0
 10
147.81813602189
 20
100.6798001864666
 30
0.0
  0
LINE
  5
E5
330
1F
100
AcDbEntity
  8
0
  6
Continuous
 62
     7
370
    15
100
AcDbLine
 10
147.7878568623
 20
100.6167272964
 30
0.0
 11
147.7878568623
 21
139.9605649451
 31
0.0
  0
SPLINE
  5
E6
330
1F
100
AcDbEntity
  8
0
  6
Continuous
 62
     7
370
    15
100
AcDbSpline
210
0.0
220
0.0
230
1.0
 70
     8
 71
     3
 72
    10
 73
     6
 74
     0
 42
0.00000001
 43
0.00000001
 12
1.0
 22
0.0
 32
0.0
 13
1.0
 23
0.0
 33
0.0
 40
0.0
 40
0.0
 40
0.0
 40
0.0
 40
0.5
 40
0.5
 40
1.0
 40
1.0
 40
1.0
 40
1.0
 10
147.850520064214
 20
139.9444399662212
 30
0.0
 10
147.8416157751053
 20
139.9901814854344
 30
0.0
 10
147.8251003949123
 20
140.0073723249034
 30
0.0
 10
147.7979924488507
 20
140.0070490479677
 30
0.0
 10
147.7878566894906
 20
139.9891715056712
 30
0.0
 10
147.7878566894906
 20
139.9605651679186
 30
0.0
  0
SPLINE
  5
E7
330
1F
100
AcDbEntity
  8
0
  6
Continuous
 62
     7
370
    15
100
AcDbSpline
210
0.0
220
0.0
230
1.0
 70
     8
 71
     3
 72
    26
 73
    22
 74
     0
 42
0.00000001
 43
0.00000001
 12
1.0
 22
0.0
 32
0.0
 13
1.0
 23
0.0
 33
0.0
 40
0.0
 40
0.0
 40
0.0
 40
0.0
 40
0.25
 40
0.25
 40
0.3749999999999994
 40
0.3749999999999994
 40
0.437500000000001
 40
0.437500000000001
 40
0.4687500000000001
 40
0.4687500000000001
 40
0.4999999999999991
 40
0.4999999999999991
 40
0.5312499999999981
 40
0.5312499999999981
 40
0.5624999999999971
 40
0.5624999999999971
 40
0.6249999999999971
 40
0.6249999999999971
 40
0.7499999999999971
 40
0.7499999999999971
 40
1.0
 40
1.0
 40
1.0
 40
1.0
 10
148.6120103355951
 20
140.6600067550383
 30
0.0
 10
148.5734098127267
 20
140.5422320586829
 30
0.0
 10
148.5271128101724
 20
140.417842372521
 30
0.0
 10
148.4331734617384
 20
140.2126230401675
 30
0.0
 10
148.397861994825
 20
140.1410501737211
 30
0.0
 10
148.3316820190794
 20
140.0250969411206
 30
0.0
 10
148.3071436524112
 20
139.9845124063104
 30
0.0
 10
148.2637709068573
 20
139.9203707244386
 30
0.0
 10
148.2482625054321
 20
139.8985042991536
 30
0.0
 10
148.2132198608451
 20
139.8529100308104
 30
0.0
 10
148.1936695701254
 20
139.829239739843
 30
0.0
 10
148.1517422897548
 20
139.784623180503
 30
0.0
 10
148.1290901795231
 20
139.7637431679851
 30
0.0
 10
148.0881164654365
 20
139.7328697542343
 30
0.0
 10
148.0705171655411
 20
139.7230308844019
 30
0.0
 10
148.0258901796849
 20
139.7040412687057
 30
0.0
 10
148.0053309570316
 20
139.7037169440522
 30
0.0
 10
147.9542055175349
 20
139.7129403849285
 30
0.0
 10
147.9332941045464
 20
139.7341872811454
 30
0.0
 10
147.8818441969854
 20
139.8081561599762
 30
0.0
 10
147.8641788976809
 20
139.8742742532909
 30
0.0
 10
147.850520064214
 20
139.9444399662212
 30
0.0
  0
SPLINE
  5
E8
330
1F
100
AcDbEntity
  8
0
  6
Continuous
 62
     7
370
    15
100
AcDbSpline
210
0.0
220
0.0
230
1.0
 70
     8
 71
     3
 72
    10
 73
     6
 74
     0
 42
0.00000001
 43
0.00000001
 12
1.0
 22
0.0
 32
0.0
 13
1.0
 23
0.0
 33
0.0
 40
0.0
 40
0.0
 40
0.0
 40
0.0
 40
0.5
 40
0.5
 40
1.0
 40
1.0
 40
1.0
 40
1.0
 10
148.9278117590724
 20
141.1298413137281
 30
0.0
 10
148.8602525041542
 20
141.0621499209184
 30
0.0
 10
148.7966158488177
 20
140.9874427561647
 30
0.0
 10
148.6863950942458
 20
140.8284766237381
 30
0.0
 10
148.6395788010232
 20
140.7441213577301
 30
0.0
 10
148.6120103355951
 20
140.6600067550383
 30
0.0
  0
SPLINE
  5
E9
330
1F
100
AcDbEntity
  8
0
  6
Continuous
 62
     7
370
    15
100
AcDbSpline
210
0.0
220
0.0
230
1.0
 70
     8
 71
     3
 72
     8
 73
     4
 74
     0
 42
0.00000001
 43
0.00000001
 12
1.0
 22
0.0
 32
0.0
 13
1.0
 23
0.0
 33
0.0
 40
0.0
 40
0.0
 40
0.0
 40
0.0
 40
1.0
 40
1.0
 40
1.0
 40
1.0
 10
148.7267662596898
 20
99.82596511847487
 30
0.0
 10
148.7624799180597
 20
99.70273361321507
 30
0.0
 10
148.8381479570079
 20
99.58179003626807
 30
0.0
 10
148.9278117590811
 20
99.47507099256482
 30
0.0
  0
SPLINE
  5
EA
330
1F
100
AcDbEntity
  8
0
  6
Continuous
 62
     7
370
    15
100
AcDbSpline
210
0.0
220
0.0
230
1.0
 70
     8
 71
     3
 72
    26
 73
    22
 74
     0
 42
0.00000001
 43
0.00000001
 12
1.0
 22
0.0
 32
0.0
 13
1.0
 23
0.0
 33
0.0
 40
0.0
 40
0.0
 40
0.0
 40
0.0
 40
0.24999999999999
 40
0.24999999999999
 40
0.3749999999999855
 40
0.3749999999999855
 40
0.4374999999999828
 40
0.4374999999999828
 40
0.4687499999999823
 40
0.4687499999999823
 40
0.4999999999999817
 40
0.4999999999999817
 40
0.5312499999999811
 40
0.5312499999999811
 40
0.5624999999999805
 40
0.5624999999999805
 40
0.6249999999999835
 40
0.6249999999999835
 40
0.7499999999999892
 40
0.7499999999999892
 40
1.0
 40
1.0
 40
1.0
 40
1.0
 10
147.8181343050992
 20
100.6797998612136
 30
0.0
 10
147.8288583384918
 20
100.7827609017026
 30
0.0
 10
147.8435913290863
 20
100.8817595911837
 30
0.0
 10
147.8959448883333
 20
101.0003552712488
 30
0.0
 10
147.917650171053
 20
101.0360655711976
 30
0.0
 10
147.9765056784184
 20
101.0610450040194
 30
0.0
 10
147.9999679122655
 20
101.0654304517829
 30
0.0
 10
148.0560892889262
 20
101.0456776183387
 30
0.0
 10
148.0788765990568
 20
101.0340212275283
 30
0.0
 10
148.134129151588
 20
100.992240878091
 30
0.0
 10
148.1655353843288
 20
100.961969290715
 30
0.0
 10
148.2204692049493
 20
100.900326891801
 30
0.0
 10
148.2448930231488
 20
100.8688852394942
 30
0.0
 10
148.288308129136
 20
100.8091504020804
 30
0.0
 10
148.3078826917043
 20
100.7799853922078
 30
0.0
 10
148.3615153756522
 20
100.6961501164747
 30
0.0
 10
148.3912927237044
 20
100.6441174984985
 30
0.0
 10
148.4728267836772
 20
100.4930518245312
 30
0.0
 10
148.5160695783512
 20
100.3998607826605
 30
0.0
 10
148.6291241680059
 20
100.1354742436661
 30
0.0
 10
148.6831351654851
 20
99.97651607461627
 30
0.0
 10
148.7267662596891
 20
99.82596511847544
 30
0.0
  0
SPLINE
  5
EB
330
1F
100
AcDbEntity
  8
0
  6
Continuous
 62
     7
370
    15
100
AcDbSpline
210
0.0
220
0.0
230
1.0
 70
     8
 71
     3
 72
    10
 73
     6
 74
     0
 42
0.00000001
 43
0.00000001
 12
1.0
 22
0.0
 32
0.0
 13
1.0
 23
0.0
 33
0.0
 40
0.0
 40
0.0
 40
0.0
 40
0.0
 40
0.5
 40
0.5
 40
1.0
 40
1.0
 40
1.0
 40
1.0
 10
205.6378566894906
 20
150.1163277452044
 30
0.0
 10
205.6378566894906
 20
150.2767330115551
 30
0.0
 10
205.5756188583838
 20
150.4357948245438
 30
0.0
 10
205.3564839346412
 20
150.6667072901741
 30
0.0
 10
205.1988952396493
 20
150.7370828946047
 30
0.0
 10
205.0378566894906
 20
150.7370828946047
 30
0.0
  0
SPLINE
  5
EC
330
1F
100
AcDbEntity
  8
0
  6
Continuous
 62
     7
370
    15
100
AcDbSpline
210
0.0
220
0.0
230
1.0
 70
     8
 71
     3
 72
    12
 73
     8
 74
     0
 42
0.00000001
 43
0.00000001
 12
1.0
 22
0.0
 32
0.0
 13
1.0
 23
0.0
 33
0.0
 40
0.0
 40
0.0
 40
0.0
 40
0.0
 40
0.249999999999998
 40
0.249999999999998
 40
0.499999999999996
 40
0.499999999999996
 40
1.0
 40
1.0
 40
1.0
 40
1.0
 10
205.0378566894906
 20
144.7285770838079
 30
0.0
 10
205.1290564113163
 20
144.7285770838079
 30
0.0
 10
205.2196514204523
 20
144.70035738522
 30
0.0
 10
205.373064146899
 20
144.6059143779719
 30
0.0
 10
205.4382730142226
 20
144.5396274012666
 30
0.0
 10
205.5910575435626
 20
144.3140025779783
 30
0.0
 10
205.6378566894906
 20
144.1315763149457
 30
0.0
 10
205.6378566894906
 20
143.9508396826988
 30
0.0
  0
LINE
  5
ED
330
1F
100
AcDbEntity
  8
0
  6
Continuous
 62
     7
370
    15
100
AcDbLine
 10
205.6378563795
 20
143.9508388677
 30
0.0
 11
205.6378563795
 21
150.1163284221
 31
0.0
  0
LINE
  5
EE
330
1F
100
AcDbEntity
  8
0
  6
Continuous
 62
     7
370
    15
100
AcDbLine
 10
205.0378573988
 20
150.7370828578
 30
0.0
 11
201.0797886107
 21
150.7370828578
 31
0.0
  0
LINE
  5
EF
330
1F
100
AcDbEntity
  8
0
  6
Continuous
 62
     7
370
    15
100
AcDbLine
 10
201.0797886107
 20
144.7285770366
 30
0.0
 11
205.0378573988
 21
144.7285770366
 31
0.0
  0
LINE
  5
F0
330
1F
100
AcDbEntity
  8
0
  6
Continuous
 62
     7
370
    15
100
AcDbLine
 10
201.0797886107
 20
144.7285770366
 30
0.0
 11
201.0797886107
 21
150.7370828578
 31
0.0
  0
SPLINE
  5
F1
330
1F
100
AcDbEntity
  8
0
  6
Continuous
 62
     7
370
    15
100
AcDbSpline
210
0.0
220
0.0
230
1.0
 70
     8
 71
     3
 72
     8
 73
     4
 74
     0
 42
0.00000001
 43
0.00000001
 12
1.0
 22
0.0
 32
0.0
 13
1.0
 23
0.0
 33
0.0
 40
0.0
 40
0.0
 40
0.0
 40
0.0
 40
1.0
 40
1.0
 40
1.0
 40
1.0
 10
199.5978566894906
 20
141.3200310890238
 30
0.0
 10
200.0771348400804
 20
142.4610423188764
 30
0.0
 10
200.5727026792204
 20
143.5974267296442
 30
0.0
 10
201.0797895209797
 20
144.7285770838079
 30
0.0
  0
LINE
  5
F2
330
1F
100
AcDbEntity
  8
0
  6
Continuous
 62
     7
370
    15
100
AcDbLine
 10
199.5978569541
 20
140.4057538995
 30
0.0
 11
199.5978569541
 21
141.3200314084
 31
0.0
  0
LINE
  5
F3
330
1F
100
AcDbEntity
  8
0
  6
Continuous
 62
     7
370
    15
100
AcDbLine
 10
205.6378563795
 20
143.9508388677
 30
0.0
 11
205.6378563795
 21
140.1198881605
 31
0.0
  0
SPLINE
  5
F4
330
1F
100
AcDbEntity
  8
0
  6
Continuous
 62
     7
370
    15
100
AcDbSpline
210
0.0
220
0.0
230
1.0
 70
     8
 71
     3
 72
     8
 73
     4
 74
     0
 42
0.00000001
 43
0.00000001
 12
1.0
 22
0.0
 32
0.0
 13
1.0
 23
0.0
 33
0.0
 40
0.0
 40
0.0
 40
0.0
 40
0.0
 40
1.0
 40
1.0
 40
1.0
 40
1.0
 10
194.2959238580016
 20
144.7285770838079
 30
0.0
 10
194.8030106997608
 20
143.5974267296442
 30
0.0
 10
195.2985785389008
 20
142.4610423188764
 30
0.0
 10
195.7778566894906
 20
141.3200310890238
 30
0.0
  0
LINE
  5
F5
330
1F
100
AcDbEntity
  8
0
  6
Continuous
 62
     7
370
    15
100
AcDbLine
 10
195.7778567378
 20
141.3200314084
 30
0.0
 11
195.7778567378
 21
140.4057538995
 31
0.0
  0
SPLINE
  5
F6
330
1F
100
AcDbEntity
  8
0
  6
Continuous
 62
     7
370
    15
100
AcDbSpline
210
0.0
220
0.0
230
1.0
 70
     8
 71
     3
 72
     8
 73
     4
 74
     0
 42
0.00000001
 43
0.00000001
 12
1.0
 22
0.0
 32
0.0
 13
1.0
 23
0.0
 33
0.0
 40
0.0
 40
0.0
 40
0.0
 40
0.0
 40
1.0
 40
1.0
 40
1.0
 40
1.0
 10
195.7778566894906
 20
148.0751216126121
 30
0.0
 10
195.2851465926449
 20
148.9631406107385
 30
0.0
 10
194.7910638873659
 20
149.8504032464245
 30
0.0
 10
194.2959238580016
 20
150.7370828946047
 30
0.0
  0
LINE
  5
F7
330
1F
100
AcDbEntity
  8
0
  6
Continuous
 62
     7
370
    15
100
AcDbLine
 10
195.7778567378
 20
141.3200314084
 30
0.0
 11
195.7778567378
 21
148.0751207957
 31
0.0
  0
SPLINE
  5
F8
330
1F
100
AcDbEntity
  8
0
  6
Continuous
 62
     7
370
    15
100
AcDbSpline
210
0.0
220
0.0
230
1.0
 70
     8
 71
     3
 72
     8
 73
     4
 74
     0
 42
0.00000001
 43
0.00000001
 12
1.0
 22
0.0
 32
0.0
 13
1.0
 23
0.0
 33
0.0
 40
0.0
 40
0.0
 40
0.0
 40
0.0
 40
1.0
 40
1.0
 40
1.0
 40
1.0
 10
201.0797895209797
 20
150.7370828946047
 30
0.0
 10
200.5846494916153
 20
149.8504032464245
 30
0.0
 10
200.0905667863364
 20
148.9631406107385
 30
0.0
 10
199.5978566894906
 20
148.0751216126121
 30
0.0
  0
LINE
  5
F9
330
1F
100
AcDbEntity
  8
0
  6
Continuous
 62
     7
370
    15
100
AcDbLine
 10
199.5978569541
 20
141.3200314084
 30
0.0
 11
199.5978569541
 21
148.0751207957
 31
0.0
  0
LINE
  5
FA
330
1F
100
AcDbEntity
  8
0
  6
Continuous
 62
     7
370
    15
100
AcDbLine
 10
148.9378558401
 20
99.4573871532
 30
0.0
 11
148.9378558401
 21
99.4632563481
 31
0.0
  0
SPLINE
  5
FB
330
1F
100
AcDbEntity
  8
0
  6
Continuous
 62
     7
370
    15
100
AcDbSpline
210
0.0
220
0.0
230
1.0
 70
     8
 71
     3
 72
     8
 73
     4
 74
     0
 42
0.00000001
 43
0.00000001
 12
1.0
 22
0.0
 32
0.0
 13
1.0
 23
0.0
 33
0.0
 40
0.0
 40
0.0
 40
0.0
 40
0.0
 40
1.0
 40
1.0
 40
1.0
 40
1.0
 10
220.9205297015117
 20
146.2682867405885
 30
0.0
 10
221.048753644984
 20
146.268198521262
 30
0.0
 10
221.1725335461491
 20
146.2919419295816
 30
0.0
 10
221.2918186173644
 20
146.3396439518652
 30
0.0
  0
SPLINE
  5
FC
330
1F
100
AcDbEntity
  8
0
  6
Continuous
 62
     7
370
    15
100
AcDbSpline
210
0.0
220
0.0
230
1.0
 70
     8
 71
     3
 72
     8
 73
     4
 74
     0
 42
0.00000001
 43
0.00000001
 12
1.0
 22
0.0
 32
0.0
 13
1.0
 23
0.0
 33
0.0
 40
0.0
 40
0.0
 40
0.0
 40
0.0
 40
1.0
 40
1.0
 40
1.0
 40
1.0
 10
221.2918186173628
 20
94.20013089101636
 30
0.0
 10
221.172533546148
 20
94.24783291329955
 30
0.0
 10
221.0487536449834
 20
94.27157632161898
 30
0.0
 10
220.9205297015117
 20
94.27148810229251
 30
0.0
  0
LINE
  5
FD
330
1F
100
AcDbEntity
  8
0
  6
Continuous
 62
     7
370
    15
100
AcDbLine
 10
238.5046770726
 20
104.2333564648
 30
0.0
 11
239.2947515402
 21
103.2221040616
 31
0.0
  0
ARC
  5
FE
330
1F
100
AcDbEntity
  8
0
  6
Continuous
 62
     7
370
    15
100
AcDbCircle
 10
236.9360156984
 20
103.007785105
 30
0.0
 40
1.990657739369702
100
AcDbArc
 50
38.0
 51
218.0
  0
LINE
  5
FF
330
1F
100
AcDbEntity
  8
0
  6
Continuous
 62
     7
370
    15
100
AcDbLine
 10
239.0273539279
 20
97.0976299533
 30
0.0
 11
235.3673567925
 21
101.7822141686
 31
0.0
  0
LINE
  5
100
330
1F
100
AcDbEntity
  8
0
  6
Continuous
 62
     7
370
    15
100
AcDbLine
 10
238.6623909626
 20
89.0072810391
 30
0.0
 11
239.5080802892
 21
87.9248495141
 31
0.0
  0
ELLIPSE
  5
101
330
1F
100
AcDbEntity
  8
0
  6
Continuous
 62
     7
370
    15
100
AcDbEllipse
 10
229.9291753933
 20
82.1841463951
 30
0.0
 11
-8.733214345086024
 21
-6.823134841018017
 31
-2.775557561562891E-16
210
-1.973514889246779E-17
220
-1.541878816665512E-17
230
1.0
 40
0.9925461516
 41
3.141592653589792
 42
4.045530846331186
  0
LINE
  5
102
330
1F
100
AcDbEntity
  8
0
  6
Continuous
 62
     7
370
    15
100
AcDbLine
 10
221.9708179984
 20
93.2155310103
 30
0.0
 11
230.0094021414
 21
93.2155310103
 31
0.0
  0
LINE
  5
103
330
1F
100
AcDbEntity
  8
0
  6
Continuous
 62
     7
370
    15
100
AcDbLine
 10
221.8864550743
 20
93.5303888211
 30
0.0
 11
221.9708179984
 21
93.2155310103
 31
0.0
  0
LINE
  5
104
330
1F
100
AcDbEntity
  8
0
  6
Continuous
 62
     7
370
    15
100
AcDbLine
 10
221.7865539644
 20
146.7681883761
 30
0.0
 11
224.5004093204
 21
146.7681883761
 31
0.0
  0
LINE
  5
105
330
1F
100
AcDbEntity
  8
0
  6
Continuous
 62
     7
370
    15
100
AcDbLine
 10
247.4268590961
 20
114.2698873693
 30
0.0
 11
224.5004093204
 21
146.7681883761
 31
0.0
  0
LINE
  5
106
330
1F
100
AcDbEntity
  8
0
  6
Continuous
 62
     7
370
    15
100
AcDbLine
 10
248.6288314615
 20
91.334861044
 30
0.0
 11
247.4268590961
 21
114.2698873693
 31
0.0
  0
SPLINE
  5
107
330
1F
100
AcDbEntity
  8
0
  6
Continuous
 62
     7
370
    15
100
AcDbSpline
210
0.0
220
0.0
230
1.0
 70
     8
 71
     3
 72
    10
 73
     6
 74
     0
 42
0.00000001
 43
0.00000001
 12
1.0
 22
0.0
 32
0.0
 13
1.0
 23
0.0
 33
0.0
 40
0.0
 40
0.0
 40
0.0
 40
0.0
 40
0.5
 40
0.5
 40
1.0
 40
1.0
 40
1.0
 40
1.0
 10
221.2918186173644
 20
146.3396439518652
 30
0.0
 10
221.3944180900134
 20
146.3806734141502
 30
0.0
 10
221.4911644304763
 20
146.4394256223482
 30
0.0
 10
221.6597239096231
 20
146.5855137725861
 30
0.0
 10
221.7310553174813
 20
146.6720546410388
 30
0.0
 10
221.7865551052961
 20
146.7681892538221
 30
0.0
  0
SPLINE
  5
108
330
1F
100
AcDbEntity
  8
0
  6
Continuous
 62
     7
370
    15
100
AcDbSpline
210
0.0
220
0.0
230
1.0
 70
     8
 71
     3
 72
    10
 73
     6
 74
     0
 42
0.00000001
 43
0.00000001
 12
1.0
 22
0.0
 32
0.0
 13
1.0
 23
0.0
 33
0.0
 40
0.0
 40
0.0
 40
0.0
 40
0.0
 40
0.5
 40
0.5
 40
1.0
 40
1.0
 40
1.0
 40
1.0
 10
221.8864555278007
 20
93.53038931727683
 30
0.0
 10
221.8462026281842
 20
93.68062463826485
 30
0.0
 10
221.7714374180561
 20
93.8193753533599
 30
0.0
 10
221.5652426694017
 20
94.05164179038348
 30
0.0
 10
221.435435712526
 20
94.14269850820486
 30
0.0
 10
221.2918186173622
 20
94.20013089101661
 30
0.0
  0
LINE
  5
109
330
1F
100
AcDbEntity
  8
0
  6
Continuous
 62
     7
370
    15
100
AcDbLine
 10
238.972033367
 20
103.2442714015
 30
0.0
 11
238.3150337193
 21
104.0851923564
 31
0.0
  0
LINE
  5
10A
330
1F
100
AcDbEntity
  8
0
  6
Continuous
 62
     7
370
    15
100
AcDbLine
 10
239.0053933416
 20
97.516630117
 30
0.0
 11
235.5569964204
 21
101.930378277
 31
0.0
  0
ARC
  5
10B
330
1F
100
AcDbEntity
  8
0
  6
Continuous
 62
     7
370
    15
100
AcDbCircle
 10
236.9360156984
 20
103.007785105
 30
0.0
 40
1.750000000000005
100
AcDbArc
 50
38.0
 51
218.0
  0
LWPOLYLINE
  5
10C
330
1F
100
AcDbEntity
  8
0
  6
HIDDEN
 62
     7
370
     0
100
AcDbPolyline
 90
       26
 70
   128
 43
0.0
 10
210.9501762245
 20
134.7901414076
 10
211.4415084873
 20
134.9976521844
 10
211.8226503883
 20
135.2651922891
 10
212.0696557615
 20
135.5759522805
 10
212.1670050476
 20
135.9104051182
 10
212.1085813198
 20
136.247534577
 10
211.8980539892
 20
136.5661605188
 10
211.5486515615
 20
136.8462613711
 10
211.0823271726
 20
137.0702351371
 10
210.5283839558
 20
137.2240113953
 10
209.9216272984
 20
137.2979286054
 10
209.300183684
 20
137.2873394677
 10
208.7030960176
 20
137.1929108092
 10
208.1678872857
 20
137.0205751547
 10
207.7281819586
 20
136.7811619231
 10
207.4116105143
 20
136.4897138366
 10
207.2380641405
 20
136.1645444223
 10
207.2184467618
 20
135.8260831723
 10
207.3539933119
 20
135.4955996314
 10
207.6361821894
 20
135.1938576365
 10
208.0472884629
 20
134.9398170525
 10
208.5614753817
 20
134.7494398171
 10
209.1464372281
 20
134.6346887687
 10
209.7654202882
 20
134.6027732754
 10
210.3795269434
 20
134.655699406
 10
210.9501762245
 20
134.7901414076
  0
LWPOLYLINE
  5
10D
330
1F
100
AcDbEntity
  8
0
  6
HIDDEN
 62
     7
370
     0
100
AcDbPolyline
 90
       29
 70
   128
 43
0.0
 10
211.2146196816
 20
134.7981302926
 10
211.7509869788
 20
135.0184281284
 10
212.1838992391
 20
135.298206743
 10
212.4916529212
 20
135.6234366933
 10
212.6588104222
 20
135.9778105208
 10
212.6769935642
 20
136.3435576597
 10
212.5452859257
 20
136.7023385057
 10
212.2702961717
 20
137.0361617693
 10
211.8658116017
 20
137.3282897213
 10
211.3521164213
 20
137.5640707949
 10
210.7549691502
 20
137.7316846439
 10
210.1043118093
 20
137.8227251509
 10
209.432770491
 20
137.8326288352
 10
208.7740218196
 20
137.7608965078
 10
208.1610942189
 20
137.6111267993
 10
207.6247269217
 20
137.3908280322
 10
207.1918127988
 20
137.1110494176
 10
206.8840609793
 20
136.7858203986
 10
206.7169034783
 20
136.4314465711
 10
206.6987203364
 20
136.0656975696
 10
206.8304261122
 20
135.7069176549
 10
207.1054158662
 20
135.3730943912
 10
207.5099004362
 20
135.0809673706
 10
208.0235956166
 20
134.8451853657
 10
208.6207447503
 20
134.6775715166
 10
209.2714020912
 20
134.5865310097
 10
209.9429434095
 20
134.5766282567
 10
210.6016920809
 20
134.6483605841
 10
211.2146196816
 20
134.7981302926
  0
LWPOLYLINE
  5
10E
330
1F
100
AcDbEntity
  8
0
  6
HIDDEN
 62
     7
370
     0
100
AcDbPolyline
 90
       29
 70
   128
 43
0.0
 10
211.2146196816
 20
137.1044742802
 10
211.7509869788
 20
137.3247711846
 10
212.1838992391
 20
137.6045497993
 10
212.4916529212
 20
137.9297806808
 10
212.6588104222
 20
138.2841545084
 10
212.6769935642
 20
138.6499016473
 10
212.5452859257
 20
139.0086824933
 10
212.2702961717
 20
139.3425057569
 10
211.8658116017
 20
139.6346337089
 10
211.3521164213
 20
139.8704147825
 10
210.7549691502
 20
140.0380286315
 10
210.1043118093
 20
140.1290691385
 10
209.432770491
 20
140.1389728227
 10
208.7740218196
 20
140.0672404954
 10
208.1610942189
 20
139.9174707869
 10
207.6247269217
 20
139.6971720198
 10
207.1918127988
 20
139.4173934052
 10
206.8840609793
 20
139.0921643862
 10
206.7169034783
 20
138.7377905586
 10
206.6987203364
 20
138.3720434198
 10
206.8304261122
 20
138.0132625738
 10
207.1054158662
 20
137.6794374475
 10
207.5099004362
 20
137.3873113582
 10
208.0235956166
 20
137.1515302846
 10
208.6207447503
 20
136.9839164356
 10
209.2714020912
 20
136.8928740659
 10
209.9429434095
 20
136.8829722443
 10
210.6016920809
 20
136.9547045717
 10
211.2146196816
 20
137.1044742802
  0
LWPOLYLINE
  5
10F
330
1F
100
AcDbEntity
  8
0
  6
HIDDEN
 62
     7
370
     0
100
AcDbPolyline
 90
       26
 70
   128
 43
0.0
 10
210.9601600025
 20
140.2323043832
 10
211.4553740178
 20
140.4414552191
 10
211.8395334039
 20
140.71111222
 10
212.0884945546
 20
141.0243290404
 10
212.1866112504
 20
141.3614268342
 10
212.1277255867
 20
141.7012217382
 10
211.9155330513
 20
142.0223678389
 10
211.5633664582
 20
142.3046833763
 10
211.0933540318
 20
142.5304285178
 10
210.5350317363
 20
142.6854210833
 10
209.923476905
 20
142.759923164
 10
209.2971177701
 20
142.7492502073
 10
208.6953082983
 20
142.6540746281
 10
208.155865774
 20
142.4803755173
 10
207.712684751
 20
142.2390698382
 10
207.3936099116
 20
141.9453176597
 10
207.2186907683
 20
141.6175759325
 10
207.19891879
 20
141.2764380613
 10
207.3355363611
 20
140.9433412293
 10
207.6199585501
 20
140.6392122546
 10
208.0343132768
 20
140.3831618765
 10
208.5525682125
 20
140.1912796238
 10
209.1421568696
 20
140.0756223986
 10
209.7660330985
 20
140.0434545168
 10
210.3849975322
 20
140.0967988113
 10
210.9601600025
 20
140.2323043832
  0
LWPOLYLINE
  5
110
330
1F
100
AcDbEntity
  8
0
  6
HIDDEN
 62
     7
370
     0
100
AcDbPolyline
 90
       26
 70
   128
 43
0.0
 10
210.9601600025
 20
136.1591967681
 10
211.4553740178
 20
136.368347604
 10
211.8395334039
 20
136.6380046049
 10
212.0884945546
 20
136.9512214252
 10
212.1866112504
 20
137.2883173564
 10
212.1277255867
 20
137.6281141231
 10
211.9155330513
 20
137.9492602238
 10
211.5633664582
 20
138.2315757612
 10
211.0933540318
 20
138.4573209027
 10
210.5350317363
 20
138.6123134682
 10
209.923476905
 20
138.6868155488
 10
209.2971177701
 20
138.6761425921
 10
208.6953082983
 20
138.580967013
 10
208.155865774
 20
138.4072679022
 10
207.712684751
 20
138.1659622231
 10
207.3936099116
 20
137.8722081819
 10
207.2186907683
 20
137.5444683173
 10
207.19891879
 20
137.2033304462
 10
207.3355363611
 20
136.8702336142
 10
207.6199585501
 20
136.5661046395
 10
208.0343132768
 20
136.3100542614
 10
208.5525682125
 20
136.1181720087
 10
209.1421568696
 20
136.0025129208
 10
209.7660330985
 20
135.9703469017
 10
210.3849975322
 20
136.0236911962
 10
210.9601600025
 20
136.1591967681
  0
LWPOLYLINE
  5
111
330
1F
100
AcDbEntity
  8
0
  6
HIDDEN
 62
     7
370
     0
100
AcDbPolyline
 90
       28
 70
   128
 43
0.0
 10
211.1128335748
 20
137.3489818463
 10
211.630272672
 20
137.5633480886
 10
212.0429938589
 20
137.8369259575
 10
212.3287497018
 20
138.1549688915
 10
212.4721324001
 20
138.5003312418
 10
212.4654157017
 20
138.854392145
 10
212.3089609597
 20
139.1980669388
 10
212.0112022314
 20
139.512827892
 10
211.5881880675
 20
139.781702582
 10
211.0627284203
 20
139.9901996294
 10
210.4631503973
 20
140.1270779708
 10
209.8217746172
 20
140.1849578062
 10
209.1731792245
 20
140.1607192049
 10
208.552329794
 20
140.0556678811
 10
207.9926980589
 20
139.8754681388
 10
207.5244514201
 20
139.629835535
 10
207.17283617
 20
139.3320116142
 10
206.9568047229
 20
138.9980505148
 10
206.8880060617
 20
138.6459584275
 10
206.9701468501
 20
138.2947138438
 10
207.1988014434
 20
137.9632561395
 10
207.5616409932
 20
137.6694518069
 10
208.0391058628
 20
137.4291407803
 10
208.6054542963
 20
137.2552777568
 10
209.230155677
 20
137.1572355667
 10
209.8795333807
 20
137.140300397
 10
210.5185752664
 20
137.2053868064
 10
211.1128335748
 20
137.3489818463
  0
LWPOLYLINE
  5
112
330
1F
100
AcDbEntity
  8
0
  6
HIDDEN
 62
     7
370
     0
100
AcDbPolyline
 90
       29
 70
   128
 43
0.0
 10
211.2146196816
 20
137.6831571499
 10
211.7509869788
 20
137.9034540543
 10
212.1838992391
 20
138.1832326689
 10
212.4916529212
 20
138.5084635505
 10
212.6588104222
 20
138.8628373781
 10
212.6769935642
 20
139.228584517
 10
212.5452859257
 20
139.587365363
 10
212.2702961717
 20
139.9211886266
 10
211.8658116017
 20
140.2133165786
 10
211.3521164213
 20
140.4490976521
 10
210.7549691502
 20
140.6167115012
 10
210.1043118093
 20
140.7077520082
 10
209.432770491
 20
140.7176556924
 10
208.7740218196
 20
140.6459233651
 10
208.1610942189
 20
140.4961536566
 10
207.6247269217
 20
140.2758548895
 10
207.1918127988
 20
139.9960762748
 10
206.8840609793
 20
139.6708453933
 10
206.7169034783
 20
139.3164734283
 10
206.6987203364
 20
138.9507244268
 10
206.8304261122
 20
138.5919435808
 10
207.1054158662
 20
138.2581203172
 10
207.5099004362
 20
137.9659942278
 10
208.0235956166
 20
137.7302112916
 10
208.6207447503
 20
137.5625993052
 10
209.2714020912
 20
137.4715569356
 10
209.9429434095
 20
137.461655114
 10
210.6016920809
 20
137.5333874413
 10
211.2146196816
 20
137.6831571499
  0
LWPOLYLINE
  5
113
330
1F
100
AcDbEntity
  8
0
  6
HIDDEN
 62
     7
370
     0
100
AcDbPolyline
 90
       28
 70
   128
 43
0.0
 10
211.1128335748
 20
137.927664716
 10
211.630272672
 20
138.1420309582
 10
212.0429938589
 20
138.4156088272
 10
212.3287497018
 20
138.7336517611
 10
212.4721324001
 20
139.0790141115
 10
212.4654157017
 20
139.4330750147
 10
212.3089609597
 20
139.7767498085
 10
212.0112022314
 20
140.0915107617
 10
211.5881880675
 20
140.3603854516
 10
211.0627284203
 20
140.5688824991
 10
210.4631503973
 20
140.7057608405
 10
209.8217746172
 20
140.7636406759
 10
209.1731792245
 20
140.7394020745
 10
208.552329794
 20
140.6343507508
 10
207.9926980589
 20
140.4541510084
 10
207.5244514201
 20
140.2085184047
 10
207.17283617
 20
139.9106944838
 10
206.9568047229
 20
139.5767333844
 10
206.8880060617
 20
139.2246412972
 10
206.9701468501
 20
138.8733967134
 10
207.1988014434
 20
138.5419390091
 10
207.5616409932
 20
138.2481346765
 10
208.0391058628
 20
138.00782365
 10
208.6054542963
 20
137.8339606264
 10
209.230155677
 20
137.7359184364
 10
209.8795333807
 20
137.7189832667
 10
210.5185752664
 20
137.7840696761
 10
211.1128335748
 20
137.927664716
  0
LWPOLYLINE
  5
114
330
1F
100
AcDbEntity
  8
0
  6
HIDDEN
 62
     7
370
     0
100
AcDbPolyline
 90
       29
 70
   128
 43
0.0
 10
211.2146196816
 20
138.2618400195
 10
211.7509869788
 20
138.482136924
 10
212.1838992391
 20
138.7619155386
 10
212.4916529212
 20
139.0871464202
 10
212.6588104222
 20
139.4415202478
 10
212.6769935642
 20
139.8072673866
 10
212.5452859257
 20
140.1660482326
 10
212.2702961717
 20
140.4998714963
 10
211.8658116017
 20
140.7919994483
 10
211.3521164213
 20
141.0277805218
 10
210.7549691502
 20
141.1953943709
 10
210.1043118093
 20
141.2864348778
 10
209.432770491
 20
141.2963366994
 10
208.7740218196
 20
141.2246062347
 10
208.1610942189
 20
141.0748346636
 10
207.6247269217
 20
140.8545377591
 10
207.1918127988
 20
140.5747591445
 10
206.8840609793
 20
140.2495282629
 10
206.7169034783
 20
139.8951544353
 10
206.6987203364
 20
139.5294072965
 10
206.8304261122
 20
139.1706264505
 10
207.1054158662
 20
138.8368031868
 10
207.5099004362
 20
138.5446770975
 10
208.0235956166
 20
138.3088941613
 10
208.6207447503
 20
138.1412803123
 10
209.2714020912
 20
138.0502398053
 10
209.9429434095
 20
138.0403379837
 10
210.6016920809
 20
138.112070311
 10
211.2146196816
 20
138.2618400195
  0
LWPOLYLINE
  5
115
330
1F
100
AcDbEntity
  8
0
  6
HIDDEN
 62
     7
370
     0
100
AcDbPolyline
 90
       28
 70
   128
 43
0.0
 10
211.1128335748
 20
138.5063475856
 10
211.630272672
 20
138.7207119653
 10
212.0429938589
 20
138.9942916969
 10
212.3287497018
 20
139.3123346308
 10
212.4721324001
 20
139.6576969811
 10
212.4654157017
 20
140.0117578843
 10
212.3089609597
 20
140.3554326782
 10
212.0112022314
 20
140.6701917687
 10
211.5881880675
 20
140.9390683213
 10
211.0627284203
 20
141.1475653687
 10
210.4631503973
 20
141.2844437102
 10
209.8217746172
 20
141.3423235455
 10
209.1731792245
 20
141.3180830816
 10
208.552329794
 20
141.2130336204
 10
207.9926980589
 20
141.0328338781
 10
207.5244514201
 20
140.7872012743
 10
207.17283617
 20
140.4893773535
 10
206.9568047229
 20
140.1554162541
 10
206.8880060617
 20
139.8033241668
 10
206.9701468501
 20
139.4520795831
 10
207.1988014434
 20
139.1206218788
 10
207.5616409932
 20
138.8268175462
 10
208.0391058628
 20
138.5865065196
 10
208.6054542963
 20
138.4126434961
 10
209.230155677
 20
138.314601306
 10
209.8795333807
 20
138.2976661363
 10
210.5185752664
 20
138.3627506831
 10
211.1128335748
 20
138.5063475856
  0
LWPOLYLINE
  5
116
330
1F
100
AcDbEntity
  8
0
  6
HIDDEN
 62
     7
370
     0
100
AcDbPolyline
 90
       29
 70
   128
 43
0.0
 10
211.2146196816
 20
138.8405228892
 10
211.7509869788
 20
139.0608197937
 10
212.1838992391
 20
139.3405984083
 10
212.4916529212
 20
139.6658292899
 10
212.6588104222
 20
140.0202031174
 10
212.6769935642
 20
140.3859502563
 10
212.5452859257
 20
140.7447311023
 10
212.2702961717
 20
141.0785543659
 10
211.8658116017
 20
141.3706804553
 10
211.3521164213
 20
141.6064633915
 10
210.7549691502
 20
141.7740772405
 10
210.1043118093
 20
141.8651177475
 10
209.432770491
 20
141.8750195691
 10
208.7740218196
 20
141.8032872418
 10
208.1610942189
 20
141.6535175333
 10
207.6247269217
 20
141.4332206288
 10
207.1918127988
 20
141.1534420142
 10
206.8840609793
 20
140.8282111326
 10
206.7169034783
 20
140.473837305
 10
206.6987203364
 20
140.1080901662
 10
206.8304261122
 20
139.7493093202
 10
207.1054158662
 20
139.4154860565
 10
207.5099004362
 20
139.1233599672
 10
208.0235956166
 20
138.887577031
 10
208.6207447503
 20
138.7199631819
 10
209.2714020912
 20
138.628922675
 10
209.9429434095
 20
138.6190208534
 10
210.6016920809
 20
138.6907531807
 10
211.2146196816
 20
138.8405228892
  0
LWPOLYLINE
  5
117
330
1F
100
AcDbEntity
  8
0
  6
HIDDEN
 62
     7
370
     0
100
AcDbPolyline
 90
       28
 70
   128
 43
0.0
 10
211.1128335748
 20
139.0850304553
 10
211.630272672
 20
139.2993948349
 10
212.0429938589
 20
139.5729745665
 10
212.3287497018
 20
139.8910175005
 10
212.4721324001
 20
140.2363798508
 10
212.4654157017
 20
140.590440754
 10
212.3089609597
 20
140.9341155478
 10
212.0112022314
 20
141.2488746384
 10
211.5881880675
 20
141.517751191
 10
211.0627284203
 20
141.7262482384
 10
210.4631503973
 20
141.8631265798
 10
209.8217746172
 20
141.9210045526
 10
209.1731792245
 20
141.8967659512
 10
208.552329794
 20
141.7917164901
 10
207.9926980589
 20
141.6115167478
 10
207.5244514201
 20
141.365884144
 10
207.17283617
 20
141.0680583605
 10
206.9568047229
 20
140.7340991238
 10
206.8880060617
 20
140.3820051739
 10
206.9701468501
 20
140.0307624528
 10
207.1988014434
 20
139.6993047485
 10
207.5616409932
 20
139.4055004159
 10
208.0391058628
 20
139.1651893893
 10
208.6054542963
 20
138.9913263658
 10
209.230155677
 20
138.8932841757
 10
209.8795333807
 20
138.876349006
 10
210.5185752664
 20
138.9414335528
 10
211.1128335748
 20
139.0850304553
  0
LWPOLYLINE
  5
118
330
1F
100
AcDbEntity
  8
0
  6
HIDDEN
 62
     7
370
     0
100
AcDbPolyline
 90
       29
 70
   128
 43
0.0
 10
211.2146196816
 20
139.4192057589
 10
211.7509869788
 20
139.6395026633
 10
212.1838992391
 20
139.919281278
 10
212.4916529212
 20
140.2445121595
 10
212.6588104222
 20
140.5988859871
 10
212.6769935642
 20
140.964633126
 10
212.5452859257
 20
141.323413972
 10
212.2702961717
 20
141.6572372356
 10
211.8658116017
 20
141.949363325
 10
211.3521164213
 20
142.1851462612
 10
210.7549691502
 20
142.3527601102
 10
210.1043118093
 20
142.4438006172
 10
209.432770491
 20
142.4537024388
 10
208.7740218196
 20
142.3819701114
 10
208.1610942189
 20
142.2322004029
 10
207.6247269217
 20
142.0119034985
 10
207.1918127988
 20
141.7321248838
 10
206.8840609793
 20
141.4068940023
 10
206.7169034783
 20
141.0525201747
 10
206.6987203364
 20
140.6867730358
 10
206.8304261122
 20
140.3279921898
 10
207.1054158662
 20
139.9941689262
 10
207.5099004362
 20
139.7020428369
 10
208.0235956166
 20
139.4662599006
 10
208.6207447503
 20
139.2986460516
 10
209.2714020912
 20
139.2076055446
 10
209.9429434095
 20
139.197703723
 10
210.6016920809
 20
139.2694360504
 10
211.2146196816
 20
139.4192057589
  0
LWPOLYLINE
  5
119
330
1F
100
AcDbEntity
  8
0
  6
HIDDEN
 62
     7
370
     0
100
AcDbPolyline
 90
       29
 70
   128
 43
0.0
 10
211.2146196816
 20
139.8804749289
 10
211.7509869788
 20
140.1007718334
 10
212.1838992391
 20
140.380550448
 10
212.4916529212
 20
140.7057813296
 10
212.6588104222
 20
141.0601551572
 10
212.6769935642
 20
141.425902296
 10
212.5452859257
 20
141.784683142
 10
212.2702961717
 20
142.1185064057
 10
211.8658116017
 20
142.410632495
 10
211.3521164213
 20
142.6464154312
 10
210.7549691502
 20
142.8140292803
 10
210.1043118093
 20
142.9050697872
 10
209.432770491
 20
142.9149716088
 10
208.7740218196
 20
142.8432392815
 10
208.1610942189
 20
142.693469573
 10
207.6247269217
 20
142.4731726685
 10
207.1918127988
 20
142.1933940539
 10
206.8840609793
 20
141.8681631723
 10
206.7169034783
 20
141.5137893447
 10
206.6987203364
 20
141.1480422059
 10
206.8304261122
 20
140.7892613599
 10
207.1054158662
 20
140.4554380962
 10
207.5099004362
 20
140.1633101443
 10
208.0235956166
 20
139.9275290707
 10
208.6207447503
 20
139.7599152216
 10
209.2714020912
 20
139.6688747147
 10
209.9429434095
 20
139.6589728931
 10
210.6016920809
 20
139.7307033578
 10
211.2146196816
 20
139.8804749289
  0
LWPOLYLINE
  5
11A
330
1F
100
AcDbEntity
  8
0
  6
HIDDEN
 62
     7
370
     0
100
AcDbPolyline
 90
       28
 70
   128
 43
0.0
 10
211.1433697794
 20
140.0635245183
 10
211.6718953405
 20
140.2824840435
 10
212.0934603665
 20
140.5619236568
 10
212.3853405867
 20
140.8867820093
 10
212.5317966495
 20
141.2395446488
 10
212.5249346648
 20
141.6011939684
 10
212.3651271615
 20
141.9522336611
 10
212.060987011
 20
142.2737373898
 10
211.6289092157
 20
142.5483751038
 10
211.0921917413
 20
142.7613406369
 10
210.4797633294
 20
142.9011507818
 10
209.8246449534
 20
142.9602711389
 10
209.1621505026
 20
142.9355128595
 10
208.5279980604
 20
142.8282114604
 10
207.9563727532
 20
142.6441504547
 10
207.4780939076
 20
142.3932540158
 10
207.1189423952
 20
142.08904681
 10
206.898282275
 20
141.7479294279
 10
206.8280083988
 20
141.3882936278
 10
206.9119112496
 20
141.029522095
 10
207.1454645995
 20
140.6909621248
 10
207.5160788302
 20
140.3908620516
 10
208.0037752096
 20
140.1454008111
 10
208.5822606389
 20
139.9678124973
 10
209.2203488503
 20
139.8676692435
 10
209.8836405132
 20
139.8503727207
 10
210.5363765661
 20
139.9168523887
 10
211.1433697794
 20
140.0635245183
  0
CIRCLE
  5
11B
330
1F
100
AcDbEntity
  8
0
  6
HIDDEN
 62
     7
370
     0
100
AcDbCircle
 10
244.207210745
 20
89.2586922677
 30
0.0
 40
2.200000000000011
  0
LINE
  5
11C
330
1F
100
AcDbEntity
  8
0
  6
HIDDEN
 62
     7
370
     0
100
AcDbLine
 10
248.2913201604
 20
90.8175430188
 30
0.0
 11
239.535192952
 21
102.0248758534
 31
0.0
  0
LINE
  5
11D
330
1F
100
AcDbEntity
  8
0
  6
HIDDEN
 62
     7
370
     0
100
AcDbLine
 10
239.3578579579
 20
101.9585731366
 30
0.0
 11
240.1021970365
 21
87.7557548621
 31
0.0
  0
LINE
  5
11E
330
1F
100
AcDbEntity
  8
0
  6
HIDDEN
 62
     7
370
     0
100
AcDbLine
 10
249.056561843
 20
76.5588099995
 30
0.0
 11
248.3122264896
 21
90.7616301367
 31
0.0
  0
LINE
  5
11F
330
1F
100
AcDbEntity
  8
0
  6
HIDDEN
 62
     7
370
     0
100
AcDbLine
 10
240.1231033657
 20
87.6998419801
 30
0.0
 11
248.8792305742
 21
76.4925110081
 31
0.0
  0
SPLINE
  5
120
330
1F
100
AcDbEntity
  8
0
  6
HIDDEN
 62
     7
370
     0
100
AcDbSpline
210
0.0
220
0.0
230
1.0
 70
     8
 71
     3
 72
    15
 73
    11
 74
     0
 42
0.00000001
 43
0.00000001
 12
1.0
 22
0.0
 32
0.0
 13
1.0
 23
0.0
 33
0.0
 40
0.0
 40
0.0
 40
0.0
 40
0.0
 40
0.1437507515175405
 40
0.2878240391254555
 40
0.4234844036471261
 40
0.549713423358017
 40
0.6718779727154467
 40
0.7962079721759805
 40
0.9276092713247559
 40
1.0
 40
1.0
 40
1.0
 40
1.0
 10
239.3578579578775
 20
101.958573136639
 30
0.0
 10
239.3583619324312
 20
101.9708936651526
 30
0.0
 10
239.3593710123151
 20
101.9955623659664
 30
0.0
 10
239.3761087014874
 20
102.0286873728846
 30
0.0
 10
239.4016431415002
 20
102.0528541374772
 30
0.0
 10
239.4324420772215
 20
102.0656474556797
 30
0.0
 10
239.4646805382527
 20
102.0672862822708
 30
0.0
 10
239.4960249900618
 20
102.0583241224922
 30
0.0
 10
239.5198338229325
 20
102.0426816647881
 30
0.0
 10
239.5311671447112
 20
102.0295429646689
 30
0.0
 10
239.5351929519551
 20
102.024875853371
 30
0.0
  0
SPLINE
  5
121
330
1F
100
AcDbEntity
  8
0
  6
HIDDEN
 62
     7
370
     0
100
AcDbSpline
210
0.0
220
0.0
230
1.0
 70
     8
 71
     3
 72
    15
 73
    11
 74
     0
 42
0.00000001
 43
0.00000001
 12
1.0
 22
0.0
 32
0.0
 13
1.0
 23
0.0
 33
0.0
 40
0.0
 40
0.0
 40
0.0
 40
0.0
 40
0.1437446840155724
 40
0.2878191660732099
 40
0.4234699798071589
 40
0.5496972420885615
 40
0.6718635774254205
 40
0.796194607652558
 40
0.9276132037464067
 40
0.9999999999999999
 40
0.9999999999999999
 40
0.9999999999999999
 40
0.9999999999999999
 10
249.0565618429559
 20
76.55880999953688
 30
0.0
 10
249.0560578447414
 20
76.54649002412278
 30
0.0
 10
249.0550486919731
 20
76.52182180717963
 30
0.0
 10
249.0383108298266
 20
76.48869943939481
 30
0.0
 10
249.0127806330221
 20
76.46452888571537
 30
0.0
 10
248.9819807303558
 20
76.45174153300715
 30
0.0
 10
248.9497430628537
 20
76.45009509154112
 30
0.0
 10
248.9183977880949
 20
76.4590605679274
 30
0.0
 10
248.8945856544892
 20
76.47470055608093
 30
0.0
 10
248.8832549641278
 20
76.48784309345328
 30
0.0
 10
248.8792305741685
 20
76.49251100809515
 30
0.0
  0
CIRCLE
  5
122
330
1F
100
AcDbEntity
  8
0
  6
HIDDEN
 62
     7
370
     0
100
AcDbCircle
 10
244.1664410887
 20
89.3677356668
 30
0.0
 40
1.999999999999998
  0
CIRCLE
  5
123
330
1F
100
AcDbEntity
  8
0
  6
HIDDEN
 62
     7
370
     0
100
AcDbCircle
 10
244.1664410887
 20
89.3677356668
 30
0.0
 40
1.899999999999986
  0
LINE
  5
124
330
1F
100
AcDbEntity
  8
0
  6
HIDDEN
 62
     7
370
     0
100
AcDbLine
 10
194.2959241498
 20
144.7285770366
 30
0.0
 11
194.2959241498
 21
140.1198881605
 31
0.0
  0
SPLINE
  5
125
330
1F
100
AcDbEntity
  8
0
  6
HIDDEN
 62
     7
370
     0
100
AcDbSpline
210
0.0
220
0.0
230
1.0
 70
     8
 71
     3
 72
    70
 73
    66
 74
     0
 42
0.00000001
 43
0.00000001
 12
1.0
 22
0.0
 32
0.0
 13
1.0
 23
0.0
 33
0.0
 40
-0.0312500000000003
 40
-0.0312500000000003
 40
0.0
 40
0.0
 40
0.0312499999999998
 40
0.0312499999999998
 40
0.0624999999999995
 40
0.0624999999999995
 40
0.0937499999999993
 40
0.0937499999999993
 40
0.124999999999999
 40
0.124999999999999
 40
0.1562499999999988
 40
0.1562499999999988
 40
0.1874999999999986
 40
0.1874999999999986
 40
0.2187499999999983
 40
0.2187499999999983
 40
0.2499999999999981
 40
0.2499999999999981
 40
0.2812499999999978
 40
0.2812499999999978
 40
0.3124999999999976
 40
0.3124999999999976
 40
0.3437499999999973
 40
0.3437499999999973
 40
0.3749999999999971
 40
0.3749999999999971
 40
0.4062499999999968
 40
0.4062499999999968
 40
0.4374999999999966
 40
0.4374999999999966
 40
0.4687499999999963
 40
0.4687499999999963
 40
0.4999999999999961
 40
0.4999999999999961
 40
0.5312499999999959
 40
0.5312499999999959
 40
0.5624999999999957
 40
0.5624999999999957
 40
0.5937499999999959
 40
0.5937499999999959
 40
0.6249999999999962
 40
0.6249999999999962
 40
0.6562499999999966
 40
0.6562499999999966
 40
0.6874999999999969
 40
0.6874999999999969
 40
0.7187499999999972
 40
0.7187499999999972
 40
0.7499999999999974
 40
0.7499999999999974
 40
0.7812499999999978
 40
0.7812499999999978
 40
0.8124999999999981
 40
0.8124999999999981
 40
0.8437499999999984
 40
0.8437499999999984
 40
0.8749999999999988
 40
0.8749999999999988
 40
0.9062499999999991
 40
0.9062499999999991
 40
0.9374999999999993
 40
0.9374999999999993
 40
0.9687499999999997
 40
0.9687499999999997
 40
1.0
 40
1.0
 40
1.03125
 40
1.03125
 10
209.8862280807246
 20
140.2957641858158
 30
0.0
 10
209.4894852982566
 20
140.2957641858158
 30
0.0
 10
209.2944621306873
 20
140.3082902180378
 30
0.0
 10
208.9108280982412
 20
140.3571356446541
 30
0.0
 10
208.7202167572134
 20
140.3940521229329
 30
0.0
 10
208.3569952442462
 20
140.4896362419049
 30
0.0
 10
208.1847500594099
 20
140.5478466202721
 30
0.0
 10
207.8587694376293
 20
140.6840133108769
 30
0.0
 10
207.7045546016906
 20
140.7626075010478
 30
0.0
 10
207.4280790422672
 20
140.932201542085
 30
0.0
 10
207.303955549354
 20
141.0238332629802
 30
0.0
 10
207.0846387309012
 20
141.2200804728417
 30
0.0
 10
206.9915410447936
 20
141.3231198318148
 30
0.0
 10
206.8418687570054
 20
141.5330764728293
 30
0.0
 10
206.7841897969709
 20
141.6415467342991
 30
0.0
 10
206.707061498625
 20
141.8598174452333
 30
0.0
 10
206.6879651741305
 20
141.9677551593545
 30
0.0
 10
206.6877491178044
 20
142.1810864271267
 30
0.0
 10
206.7072583646602
 20
142.2875288447028
 30
0.0
 10
206.7838530234233
 20
142.4898775874261
 30
0.0
 10
206.840523691291
 20
142.5864449245208
 30
0.0
 10
206.9908578862434
 20
142.7709167543397
 30
0.0
 10
207.0847195585378
 20
142.8583461400347
 30
0.0
 10
207.30175663411
 20
143.0178029429908
 30
0.0
 10
207.4257487223076
 20
143.0909070512028
 30
0.0
 10
207.7056096423219
 20
143.2242318139651
 30
0.0
 10
207.8569560714263
 20
143.2823222963115
 30
0.0
 10
208.1816352542348
 20
143.3831123824799
 30
0.0
 10
208.3570456803371
 20
143.4261484989354
 30
0.0
 10
208.7202545971448
 20
143.4946429161651
 30
0.0
 10
208.9072429971295
 20
143.5202203782499
 30
0.0
 10
209.291935781961
 20
143.5547712041165
 30
0.0
 10
209.4908822546396
 20
143.5635656977749
 30
0.0
 10
209.8825976694029
 20
143.5636309081311
 30
0.0
 10
210.0773696911174
 20
143.5551868285174
 30
0.0
 10
210.4646914228969
 20
143.5207155260241
 30
0.0
 10
210.6540456997591
 20
143.4948213431807
 30
0.0
 10
211.0151841520792
 20
143.4268922984939
 30
0.0
 10
211.1897380410419
 20
143.3843332277568
 30
0.0
 10
211.517705455245
 20
143.2827732058224
 30
0.0
 10
211.6687304629484
 20
143.2246914766246
 30
0.0
 10
211.9455526315361
 20
143.0931994577128
 30
0.0
 10
212.0723035182437
 20
143.0188806103471
 30
0.0
 10
212.2902092458953
 20
142.8590579969118
 30
0.0
 10
212.382503691751
 20
142.7733029935425
 30
0.0
 10
212.5334565262676
 20
142.5890578861973
 30
0.0
 10
212.5913817421375
 20
142.4907142164485
 30
0.0
 10
212.6680180278615
 20
142.2891059687225
 30
0.0
 10
212.6876720183774
 20
142.1848336314524
 30
0.0
 10
212.6880387956059
 20
141.96883213725
 30
0.0
 10
212.6687296160824
 20
141.860662678727
 30
0.0
 10
212.5927720323868
 20
141.6444653580494
 30
0.0
 10
212.53519363618
 20
141.5352220837269
 30
0.0
 10
212.3848689944681
 20
141.323847262639
 30
0.0
 10
212.2928598443331
 20
141.2220069888469
 30
0.0
 10
212.0754475051139
 20
141.0268138998658
 30
0.0
 10
211.9489794300413
 20
140.9331356474904
 30
0.0
 10
211.6726873941426
 20
140.7634372978919
 30
0.0
 10
211.521879001853
 20
140.6863112992049
 30
0.0
 10
211.1942128580389
 20
140.5489732868088
 30
0.0
 10
211.0199218480096
 20
140.4900688967861
 30
0.0
 10
210.6591486718003
 20
140.3948988430815
 30
0.0
 10
210.4702384421097
 20
140.3579595369307
 30
0.0
 10
210.0823687495968
 20
140.3082925440567
 30
0.0
 10
209.8862280807246
 20
140.2957641858158
 30
0.0
 10
209.4894852982566
 20
140.2957641858158
 30
0.0
  0
LINE
  5
126
330
1F
100
AcDbEntity
  8
0
  6
HIDDEN
 62
     7
370
     0
100
AcDbLine
 10
167.6830071885
 20
96.7452882716
 30
0.0
 11
167.4313489277
 21
96.7217667887
 31
0.0
  0
LINE
  5
127
330
1F
100
AcDbEntity
  8
0
  6
HIDDEN
 62
     7
370
     0
100
AcDbLine
 10
167.3086574231
 20
143.8293180356
 30
0.0
 11
167.6829140563
 21
143.7944698075
 31
0.0
  0
SPLINE
  5
128
330
1F
100
AcDbEntity
  8
0
  6
HIDDEN
 62
     7
370
     0
100
AcDbSpline
210
0.0
220
0.0
230
1.0
 70
     8
 71
     3
 72
    15
 73
    11
 74
     0
 42
0.00000001
 43
0.00000001
 12
1.0
 22
0.0
 32
0.0
 13
1.0
 23
0.0
 33
0.0
 40
0.0
 40
0.0
 40
0.0
 40
0.0
 40
0.1409172263352446
 40
0.281889861653346
 40
0.4212989542022905
 40
0.5593768841673977
 40
0.6988856533029646
 40
0.840367202775075
 40
0.9813164473602943
 40
1.0
 40
1.0
 40
1.0
 40
1.0
 10
173.4428587299066
 20
100.4323589542621
 30
0.0
 10
173.126817010294
 20
100.4727122760368
 30
0.0
 10
172.4946093027256
 20
100.5534347866066
 30
0.0
 10
171.2604461304113
 20
100.6299927329894
 30
0.0
 10
169.9897240065957
 20
100.6253146649745
 30
0.0
 10
168.8011645400592
 20
100.5445181997512
 30
0.0
 10
167.8080418607688
 20
100.420123652897
 30
0.0
 10
167.168633329455
 20
100.3137167061358
 30
0.0
 10
166.8876133411016
 20
100.2606396468262
 30
0.0
 10
166.9541739095905
 20
100.2728941387881
 30
0.0
 10
166.9619642127531
 20
100.2743284145111
 30
0.0
  0
SPLINE
  5
129
330
1F
100
AcDbEntity
  8
0
  6
HIDDEN
 62
     7
370
     0
100
AcDbSpline
210
0.0
220
0.0
230
1.0
 70
     8
 71
     3
 72
    15
 73
    11
 74
     0
 42
0.00000001
 43
0.00000001
 12
1.0
 22
0.0
 32
0.0
 13
1.0
 23
0.0
 33
0.0
 40
0.0
 40
0.0
 40
0.0
 40
0.0
 40
0.1201202497733958
 40
0.2584739452442804
 40
0.3987302041697883
 40
0.5404022600041716
 40
0.680739511736143
 40
0.8190355942651634
 40
0.9577823154231621
 40
1.0
 40
1.0
 40
1.0
 40
1.0
 10
166.9619642127531
 20
140.2654464283699
 30
0.0
 10
166.9826734615566
 20
140.2614219242956
 30
0.0
 10
167.0272354837916
 20
140.252762023507
 30
0.0
 10
167.58967495352
 20
140.1534691047958
 30
0.0
 10
168.4831372089673
 20
140.0295530930845
 30
0.0
 10
169.6421160328195
 20
139.9298417175509
 30
0.0
 10
170.9151529016392
 20
139.9027046598528
 30
0.0
 10
172.1494382483663
 20
139.9580420219829
 30
0.0
 10
172.9774013260622
 20
140.0445217577743
 30
0.0
 10
173.3548116387085
 20
140.0955186769114
 30
0.0
 10
173.4428587299066
 20
140.1074158886188
 30
0.0
  0
SPLINE
  5
12A
330
1F
100
AcDbEntity
  8
0
  6
HIDDEN
 62
     7
370
     0
100
AcDbSpline
210
0.0
220
0.0
230
1.0
 70
     8
 71
     3
 72
    10
 73
     6
 74
     0
 42
0.00000001
 43
0.00000001
 12
1.0
 22
0.0
 32
0.0
 13
1.0
 23
0.0
 33
0.0
 40
0.0
 40
0.0
 40
0.0
 40
0.0
 40
0.4476050809033072
 40
0.8951935026591568
 40
1.0
 40
1.0
 40
1.0
 40
1.0
 10
173.4428587299066
 20
140.1074158886188
 30
0.0
 10
173.6895627550971
 20
140.1369276090326
 30
0.0
 10
174.1829616235476
 20
140.1959499514809
 30
0.0
 10
174.4719746093832
 20
140.2098917971781
 30
0.0
 10
174.4116200640976
 20
140.206000753048
 30
0.0
 10
174.4001689296442
 20
140.2052625009531
 30
0.0
  0
SPLINE
  5
12B
330
1F
100
AcDbEntity
  8
0
  6
HIDDEN
 62
     7
370
     0
100
AcDbSpline
210
0.0
220
0.0
230
1.0
 70
     8
 71
     3
 72
    10
 73
     6
 74
     0
 42
0.00000001
 43
0.00000001
 12
1.0
 22
0.0
 32
0.0
 13
1.0
 23
0.0
 33
0.0
 40
0.0
 40
0.0
 40
0.0
 40
0.0
 40
0.3455013620747966
 40
0.7967053169097854
 40
1.0
 40
1.0
 40
1.0
 40
1.0
 10
174.4001447152572
 20
100.334514204573
 30
0.0
 10
174.3905846214412
 20
100.3350694553177
 30
0.0
 10
174.3685396213069
 20
100.3363498300689
 30
0.0
 10
173.9515864938075
 20
100.3663098266932
 30
0.0
 10
173.5634258257415
 20
100.4167054907429
 30
0.0
 10
173.4428587299066
 20
100.4323589542621
 30
0.0
  0
LINE
  5
12C
330
1F
100
AcDbEntity
  8
0
  6
HIDDEN
 62
     7
370
     0
100
AcDbLine
 10
160.6918321852
 20
103.2698864976
 30
0.0
 11
160.6918321852
 21
137.2698883453
 31
0.0
  0
LINE
  5
12D
330
1F
100
AcDbEntity
  8
0
  6
HIDDEN
 62
     7
370
     0
100
AcDbLine
 10
187.3476826515
 20
103.2698864976
 30
0.0
 11
187.3476826515
 21
137.2698883453
 31
0.0
  0
LINE
  5
12E
330
1F
100
AcDbEntity
  8
0
  6
HIDDEN
 62
     7
370
     0
100
AcDbLine
 10
189.6378565509
 20
104.5448875913
 30
0.0
 11
189.6378565509
 21
135.9948872516
 31
0.0
  0
SPLINE
  5
12F
330
1F
100
AcDbEntity
  8
0
  6
HIDDEN
 62
     7
370
     0
100
AcDbSpline
210
0.0
220
0.0
230
1.0
 70
     8
 71
     3
 72
    18
 73
    14
 74
     0
 42
0.00000001
 43
0.00000001
 12
1.0
 22
0.0
 32
0.0
 13
1.0
 23
0.0
 33
0.0
 40
0.0
 40
0.0
 40
0.0
 40
0.0
 40
0.2500000000000009
 40
0.2500000000000009
 40
0.3750000000000007
 40
0.3750000000000007
 40
0.5000000000000006
 40
0.5000000000000006
 40
0.6250000000000003
 40
0.6250000000000003
 40
0.7500000000000001
 40
0.7500000000000001
 40
1.0
 40
1.0
 40
1.0
 40
1.0
 10
153.8878566894906
 20
136.5574010438446
 30
0.0
 10
153.8878566894906
 20
136.5029265232924
 30
0.0
 10
153.8529459980984
 20
136.4465454639399
 30
0.0
 10
153.7509366967654
 20
136.3624686230864
 30
0.0
 10
153.7093003420873
 20
136.3351349190955
 30
0.0
 10
153.6108945465985
 20
136.2821810034965
 30
0.0
 10
153.5533513348942
 20
136.2562936497794
 30
0.0
 10
153.4260531613213
 20
136.2085161049461
 30
0.0
 10
153.3564658565639
 20
136.1865681867682
 30
0.0
 10
153.2050316114089
 20
136.1471356218555
 30
0.0
 10
153.1223477083149
 20
136.1295793726296
 30
0.0
 10
152.8662362462769
 20
136.0871406072091
 30
0.0
 10
152.6783212423889
 20
136.0713778574721
 30
0.0
 10
152.4878566894906
 20
136.0713778574721
 30
0.0
  0
LINE
  5
130
330
1F
100
AcDbEntity
  8
0
  6
HIDDEN
 62
     7
370
     0
100
AcDbLine
 10
152.4878563289
 20
136.0713786373
 30
0.0
 11
148.9378558401
 21
136.0713786373
 31
0.0
  0
LINE
  5
131
330
1F
100
AcDbEntity
  8
0
  6
HIDDEN
 62
     7
370
     0
100
AcDbLine
 10
148.9378558401
 20
104.4683962056
 30
0.0
 11
156.4878569845
 21
104.4683962056
 31
0.0
  0
SPLINE
  5
132
330
1F
100
AcDbEntity
  8
0
  6
HIDDEN
 62
     7
370
     0
100
AcDbSpline
210
0.0
220
0.0
230
1.0
 70
     8
 71
     3
 72
    16
 73
    12
 74
     0
 42
0.00000001
 43
0.00000001
 12
1.0
 22
0.0
 32
0.0
 13
1.0
 23
0.0
 33
0.0
 40
0.0
 40
0.0
 40
0.0
 40
0.0
 40
0.1249999999999988
 40
0.1249999999999988
 40
0.2499999999999977
 40
0.2499999999999977
 40
0.4999999999999984
 40
0.4999999999999984
 40
0.7499999999999992
 40
0.7499999999999992
 40
1.0
 40
1.0
 40
1.0
 40
1.0
 10
156.4878566894906
 20
104.4683969854088
 30
0.0
 10
156.5829784441565
 20
104.4683969854088
 30
0.0
 10
156.6763085128845
 20
104.464581152016
 30
0.0
 10
156.8595702736225
 20
104.4498105992862
 30
0.0
 10
156.9504479891795
 20
104.4386525513106
 30
0.0
 10
157.2072496866992
 20
104.3961812811689
 30
0.0
 10
157.3623170515713
 20
104.3551350839661
 30
0.0
 10
157.6160635131259
 20
104.2599889673842
 30
0.0
 10
157.7169339647938
 20
104.2052262333027
 30
0.0
 10
157.8521803794886
 20
104.0939651093988
 30
0.0
 10
157.8878566894906
 20
104.0367953720701
 30
0.0
 10
157.8878566894906
 20
103.9823737990364
 30
0.0
  0
LINE
  5
133
330
1F
100
AcDbEntity
  8
0
  6
HIDDEN
 62
     7
370
     0
100
AcDbLine
 10
148.9378558401
 20
104.4683962056
 30
0.0
 11
148.9378558401
 21
136.0713786373
 31
0.0
  0
SPLINE
  5
134
330
1F
100
AcDbEntity
  8
0
  6
HIDDEN
 62
     7
370
     0
100
AcDbSpline
210
0.0
220
0.0
230
1.0
 70
     8
 71
     3
 72
    66
 73
    62
 74
     0
 42
0.00000001
 43
0.00000001
 12
1.0
 22
0.0
 32
0.0
 13
1.0
 23
0.0
 33
0.0
 40
-0.0312500000000003
 40
-0.0312500000000003
 40
0.0
 40
0.0
 40
0.0312499999999998
 40
0.0312499999999998
 40
0.0624999999999996
 40
0.0624999999999996
 40
0.0937499999999994
 40
0.0937499999999994
 40
0.1249999999999992
 40
0.1249999999999992
 40
0.1874999999999993
 40
0.1874999999999993
 40
0.2187499999999994
 40
0.2187499999999994
 40
0.2499999999999995
 40
0.2499999999999995
 40
0.2812499999999996
 40
0.2812499999999996
 40
0.3124999999999996
 40
0.3124999999999996
 40
0.3437499999999996
 40
0.3437499999999996
 40
0.3749999999999996
 40
0.3749999999999996
 40
0.4062499999999996
 40
0.4062499999999996
 40
0.4374999999999996
 40
0.4374999999999996
 40
0.4687499999999997
 40
0.4687499999999997
 40
0.4999999999999997
 40
0.4999999999999997
 40
0.5312499999999997
 40
0.5312499999999997
 40
0.5624999999999997
 40
0.5624999999999997
 40
0.5937499999999997
 40
0.5937499999999997
 40
0.6249999999999997
 40
0.6249999999999997
 40
0.6562499999999998
 40
0.6562499999999998
 40
0.6874999999999998
 40
0.6874999999999998
 40
0.7187499999999998
 40
0.7187499999999998
 40
0.7499999999999998
 40
0.7499999999999998
 40
0.7812499999999998
 40
0.7812499999999998
 40
0.8124999999999998
 40
0.8124999999999998
 40
0.8437499999999998
 40
0.8437499999999998
 40
0.8749999999999998
 40
0.8749999999999998
 40
0.9374999999999994
 40
0.9374999999999994
 40
0.9687499999999997
 40
0.9687499999999997
 40
1.0
 40
1.0
 40
1.03125
 40
1.03125
 10
210.8463490502605
 20
116.0698874214405
 30
0.0
 10
210.5467063343598
 20
116.0698874214405
 30
0.0
 10
210.3913205391016
 20
116.0720282361443
 30
0.0
 10
210.068063423283
 20
116.0759165744632
 30
0.0
 10
209.8987637851145
 20
116.077600065902
 30
0.0
 10
209.5649330850751
 20
116.0780493240772
 30
0.0
 10
209.3969961273625
 20
116.0768346840748
 30
0.0
 10
209.0678785906741
 20
116.0731314739643
 30
0.0
 10
208.910221582785
 20
116.0707694841934
 30
0.0
 10
208.455120788628
 20
116.0686920339935
 30
0.0
 10
208.1828295792067
 20
116.0744778270472
 30
0.0
 10
207.8380831938028
 20
116.1232538924341
 30
0.0
 10
207.7346993831546
 20
116.1459137666315
 30
0.0
 10
207.5503677671303
 20
116.2086255261238
 30
0.0
 10
207.4689050821109
 20
116.2493224348604
 30
0.0
 10
207.3367817499035
 20
116.349316026914
 30
0.0
 10
207.2851280006004
 20
116.4086566061047
 30
0.0
 10
207.2122763789543
 20
116.5494088864078
 30
0.0
 10
207.1916847901864
 20
116.6313380436273
 30
0.0
 10
207.1850242771379
 20
116.8097573966579
 30
0.0
 10
207.1984309081362
 20
116.9078499654036
 30
0.0
 10
207.2589885879187
 20
117.1179557668555
 30
0.0
 10
207.3051030365159
 20
117.2270594733207
 30
0.0
 10
207.4270096534228
 20
117.4513114519607
 30
0.0
 10
207.5032681326586
 20
117.5666243086393
 30
0.0
 10
207.6786744887652
 20
117.7914178015228
 30
0.0
 10
207.7789768552728
 20
117.9026986082426
 30
0.0
 10
208.0020557374415
 20
118.1163095072064
 30
0.0
 10
208.1228533989796
 20
118.2169100952079
 30
0.0
 10
208.3838697792735
 20
118.4021401164581
 30
0.0
 10
208.5257598017525
 20
118.487520906387
 30
0.0
 10
208.8226274410188
 20
118.630858023018
 30
0.0
 10
208.9775921411739
 20
118.6892261375218
 30
0.0
 10
209.302828764909
 20
118.77268565344
 30
0.0
 10
209.47048976659
 20
118.7965069634177
 30
0.0
 10
209.8037651470127
 20
118.8043918609531
 30
0.0
 10
209.9735106437141
 20
118.7883472056366
 30
0.0
 10
210.3019718157291
 20
118.7192214687325
 30
0.0
 10
210.4600439778402
 20
118.6670419136372
 30
0.0
 10
210.7653107791843
 20
118.5331794506457
 30
0.0
 10
210.9091564551995
 20
118.4529126640659
 30
0.0
 10
211.1783912565166
 20
118.2740712813087
 30
0.0
 10
211.305267242792
 20
118.1742328543218
 30
0.0
 10
211.5350495073127
 20
117.9659596067604
 30
0.0
 10
211.6388391620579
 20
117.8571227865917
 30
0.0
 10
211.8244244522625
 20
117.6330198666436
 30
0.0
 10
211.9057515826465
 20
117.5178094503062
 30
0.0
 10
212.0379511156082
 20
117.2938957700009
 30
0.0
 10
212.0900077593531
 20
117.183858375806
 30
0.0
 10
212.163576726508
 20
116.9697710092014
 30
0.0
 10
212.1839315288268
 20
116.8681192669308
 30
0.0
 10
212.190741963318
 20
116.6828784825179
 30
0.0
 10
212.1771198447132
 20
116.5972467462372
 30
0.0
 10
212.1167006902625
 20
116.4475125151372
 30
0.0
 10
212.0706256509899
 20
116.3835785435237
 30
0.0
 10
211.8866708476313
 20
116.2203366927469
 30
0.0
 10
211.7061414202926
 20
116.1538534783931
 30
0.0
 10
211.3720718613158
 20
116.097639930403
 30
0.0
 10
211.2511295252982
 20
116.086064479148
 30
0.0
 10
210.9887497455134
 20
116.0721523203102
 30
0.0
 10
210.8463490502605
 20
116.0698874214405
 30
0.0
 10
210.5467063343598
 20
116.0698874214405
 30
0.0
  0
SPLINE
  5
135
330
1F
100
AcDbEntity
  8
0
  6
HIDDEN
 62
     7
370
     0
100
AcDbSpline
210
0.0
220
0.0
230
1.0
 70
     8
 71
     3
 72
    28
 73
    24
 74
     0
 42
0.00000001
 43
0.00000001
 12
1.0
 22
0.0
 32
0.0
 13
1.0
 23
0.0
 33
0.0
 40
0.0
 40
0.0
 40
0.0
 40
0.0
 40
0.015541978720926
 40
0.031100338009264
 40
0.0676185347009087
 40
0.1429294629911278
 40
0.2200278829664273
 40
0.2990141959256426
 40
0.3587514711881072
 40
0.398581385600946
 40
0.4387391769134242
 40
0.472928169213041
 40
0.5187671994225949
 40
0.5909939167071138
 40
0.655506193047915
 40
0.721649800580161
 40
0.7757413822470411
 40
0.8301693585365356
 40
0.8464324537178424
 40
0.8627742107411669
 40
0.8887928559034025
 40
0.9497268751059552
 40
1.0
 40
1.0
 40
1.0
 40
1.0
 10
208.1497749243158
 20
106.4200413340443
 30
0.0
 10
208.2053961649558
 20
106.3956090863522
 30
0.0
 10
208.3166972685964
 20
106.3467188404449
 30
0.0
 10
208.5508680589021
 20
106.1541495494396
 30
0.0
 10
208.9027571885119
 20
105.7185049395217
 30
0.0
 10
209.3753720545823
 20
105.0889897411027
 30
0.0
 10
209.9920988051442
 20
104.4008697199615
 30
0.0
 10
210.612996175486
 20
103.8860700496248
 30
0.0
 10
211.1614596819359
 20
103.6405059063504
 30
0.0
 10
211.5823365077768
 20
103.6411002105635
 30
0.0
 10
211.8790739730945
 20
103.82614730743
 30
0.0
 10
212.0885693471939
 20
104.1899979535075
 30
0.0
 10
212.2102073202887
 20
104.7869465943435
 30
0.0
 10
212.176371547275
 20
105.5812751790948
 30
0.0
 10
212.0176590965349
 20
106.4603986516579
 30
0.0
 10
211.801620148328
 20
107.24894671851
 30
0.0
 10
211.5732937604039
 20
107.9700310847456
 30
0.0
 10
211.3949512719894
 20
108.4909948389213
 30
0.0
 10
211.3959197404408
 20
108.8183635915316
 30
0.0
 10
211.4734848245508
 20
108.9814731574419
 30
0.0
 10
211.6897686185582
 20
109.1295252841228
 30
0.0
 10
211.9865490715931
 20
109.1882799710568
 30
0.0
 10
212.0770519326786
 20
109.1236172418822
 30
0.0
 10
212.1179653261083
 20
109.0943853297943
 30
0.0
  0
SPLINE
  5
136
330
1F
100
AcDbEntity
  8
0
  6
HIDDEN
 62
     7
370
     0
100
AcDbSpline
210
0.0
220
0.0
230
1.0
 70
     8
 71
     3
 72
    24
 73
    20
 74
     0
 42
0.00000001
 43
0.00000001
 12
1.0
 22
0.0
 32
0.0
 13
1.0
 23
0.0
 33
0.0
 40
0.0
 40
0.0
 40
0.0
 40
0.0
 40
0.1249999999999994
 40
0.1249999999999994
 40
0.2499999999999988
 40
0.2499999999999988
 40
0.3749999999999982
 40
0.3749999999999982
 40
0.4999999999999977
 40
0.4999999999999977
 40
0.6249999999999987
 40
0.6249999999999987
 40
0.7499999999999996
 40
0.7499999999999996
 40
0.8750000000000006
 40
0.8750000000000006
 40
0.9375000000000003
 40
0.9375000000000003
 40
1.0
 40
1.0
 40
1.0
 40
1.0
 10
212.176369532679
 20
109.0697324238696
 30
0.0
 10
212.1968171230031
 20
109.0261977603591
 30
0.0
 10
212.1904511761579
 20
108.9687585961511
 30
0.0
 10
212.1192277005763
 20
108.8260911325587
 30
0.0
 10
212.0525062004887
 20
108.7396391988024
 30
0.0
 10
211.8632728081789
 20
108.5503068247795
 30
0.0
 10
211.7373762718192
 20
108.4440528417384
 30
0.0
 10
211.4428017930531
 20
108.2266191574219
 30
0.0
 10
211.2707440870788
 20
108.1127958419658
 30
0.0
 10
210.90219956046
 20
107.8915478998927
 30
0.0
 10
210.7028047178128
 20
107.7822200713186
 30
0.0
 10
210.2952823013164
 20
107.5785376912066
 30
0.0
 10
210.0861830480603
 20
107.4833638973342
 30
0.0
 10
209.6658234286193
 20
107.3148377055488
 30
0.0
 10
209.458725631459
 20
107.2417591790175
 30
0.0
 10
209.1452785476947
 20
107.1643588673534
 30
0.0
 10
209.0399208373389
 20
107.1439677648001
 30
0.0
 10
208.829628701868
 20
107.1279038546315
 30
0.0
 10
208.7222570982985
 20
107.1318987867814
 30
0.0
 10
208.617628377317
 20
107.1661667033785
 30
0.0
  0
SPLINE
  5
137
330
1F
100
AcDbEntity
  8
0
  6
HIDDEN
 62
     7
370
     0
100
AcDbSpline
210
0.0
220
0.0
230
1.0
 70
     8
 71
     3
 72
    10
 73
     6
 74
     0
 42
0.00000001
 43
0.00000001
 12
1.0
 22
0.0
 32
0.0
 13
1.0
 23
0.0
 33
0.0
 40
0.0
 40
0.0
 40
0.0
 40
0.0
 40
0.5
 40
0.5
 40
1.0
 40
1.0
 40
1.0
 40
1.0
 10
208.6176283773102
 20
107.1661667033835
 30
0.0
 10
208.5172868397414
 20
107.0511582047274
 30
0.0
 10
208.4277185560436
 20
106.9336764895417
 30
0.0
 10
208.2714418052082
 20
106.686595921787
 30
0.0
 10
208.2046767034832
 20
106.5562886393762
 30
0.0
 10
208.149775815176
 20
106.4200411027431
 30
0.0
  0
LWPOLYLINE
  5
138
330
1F
100
AcDbEntity
  8
0
  6
HIDDEN
 62
     7
370
     0
100
AcDbPolyline
 90
       26
 70
   128
 43
0.0
 10
209.6878560189
 20
102.9735489676
 10
210.3095808927
 20
103.016326476
 10
210.8922405098
 20
103.1419693419
 10
211.3992227171
 20
103.3425855377
 10
211.7986781452
 20
103.6055668184
 10
212.0654983375
 20
103.9143896589
 10
212.182923213
 20
104.2496508846
 10
212.1435729716
 20
104.5902839789
 10
211.9499249313
 20
104.914887149
 10
211.6141384397
 20
105.2030616367
 10
211.1573209916
 20
105.436702531
 10
210.6081684981
 20
105.6011284629
 10
210.0011901859
 20
105.6860073397
 10
209.3745237146
 20
105.6860073397
 10
208.7675454024
 20
105.6011284629
 10
208.218392909
 20
105.436702531
 10
207.7615735982
 20
105.2030616367
 10
207.4257889692
 20
104.914887149
 10
207.2321390663
 20
104.5902839789
 10
207.1927906875
 20
104.2496508846
 10
207.310215563
 20
103.9143896589
 10
207.577037618
 20
103.6055668184
 10
207.9764893208
 20
103.3425855377
 10
208.4834733907
 20
103.1419693419
 10
209.0661311452
 20
103.016326476
 10
209.6878560189
 20
102.9735489676
  0
LINE
  5
139
330
1F
100
AcDbEntity
  8
0
  6
HIDDEN
 62
     7
370
     0
100
AcDbLine
 10
148.9378558401
 20
102.2798868755
 30
0.0
 11
148.9378558401
 21
99.4632563481
 31
0.0
  0
ARC
  5
13A
330
1F
100
AcDbEntity
  8
0
  6
HIDDEN
 62
     7
370
     0
100
AcDbCircle
 10
214.3319338024
 20
103.0632992419
 30
0.0
 40
7.034685911021038
100
AcDbArc
 50
144.3216776256
 51
151.4992577897
  0
LINE
  5
13B
330
1F
100
AcDbEntity
  8
0
  6
HIDDEN
 62
     7
370
     0
100
AcDbLine
 10
157.887856469
 20
102.2798868755
 30
0.0
 11
157.887856469
 21
98.324738715
 31
0.0
  0
LINE
  5
13C
330
1F
100
AcDbEntity
  8
0
  6
HIDDEN
 62
     7
370
     0
100
AcDbLine
 10
148.9378558401
 20
138.2598879674
 30
0.0
 11
148.9378558401
 21
141.1398260781
 31
0.0
  0
LINE
  5
13D
330
1F
100
AcDbEntity
  8
0
  6
HIDDEN
 62
     7
370
     0
100
AcDbLine
 10
153.8878558133
 20
138.2598879674
 30
0.0
 11
153.8878558133
 21
142.1139950791
 31
0.0
  0
LINE
  5
13E
330
1F
100
AcDbEntity
  8
0
  6
HIDDEN
 62
     7
370
     0
100
AcDbLine
 10
198.9878574316
 20
110.7698877269
 30
0.0
 11
198.9878574316
 21
129.769887116
 31
0.0
  0
LINE
  5
13F
330
1F
100
AcDbEntity
  8
0
  6
HIDDEN
 62
     7
370
     0
100
AcDbLine
 10
201.48785691
 20
110.7698877269
 30
0.0
 11
201.48785691
 21
129.769887116
 31
0.0
  0
LINE
  5
140
330
1F
100
AcDbEntity
  8
0
  6
HIDDEN
 62
     7
370
     0
100
AcDbLine
 10
190.1378566329
 20
111.7698869595
 30
0.0
 11
190.1378566329
 21
128.7698878834
 31
0.0
  0
LINE
  5
141
330
1F
100
AcDbEntity
  8
0
  6
HIDDEN
 62
     7
370
     0
100
AcDbLine
 10
205.6378563795
 20
93.8698875645
 30
0.0
 11
199.5001817052
 21
93.8698875645
 31
0.0
  0
LINE
  5
142
330
1F
100
AcDbEntity
  8
0
  6
HIDDEN
 62
     7
370
     0
100
AcDbLine
 10
195.8755319868
 20
93.8698875645
 30
0.0
 11
192.6378570426
 21
93.8698875645
 31
0.0
  0
LINE
  5
143
330
1F
100
AcDbEntity
  8
0
  6
HIDDEN
 62
     7
370
     0
100
AcDbLine
 10
184.6378566627
 20
88.7857641021
 30
0.0
 11
184.6378566627
 21
93.8698875645
 31
0.0
  0
LINE
  5
144
330
1F
100
AcDbEntity
  8
0
  6
HIDDEN
 62
     7
370
     0
100
AcDbLine
 10
192.6378570426
 20
93.8698875645
 30
0.0
 11
184.6378566627
 21
93.8698875645
 31
0.0
  0
LINE
  5
145
330
1F
100
AcDbEntity
  8
0
  6
HIDDEN
 62
     7
370
     0
100
AcDbLine
 10
205.6378563795
 20
146.6698872784
 30
0.0
 11
199.2035591904
 21
146.6698872784
 31
0.0
  0
LINE
  5
146
330
1F
100
AcDbEntity
  8
0
  6
HIDDEN
 62
     7
370
     0
100
AcDbLine
 10
196.1721545015
 20
146.6698872784
 30
0.0
 11
192.6378570426
 21
146.6698872784
 31
0.0
  0
LINE
  5
147
330
1F
100
AcDbEntity
  8
0
  6
HIDDEN
 62
     7
370
     0
100
AcDbLine
 10
192.6378570426
 20
146.6698872784
 30
0.0
 11
184.6378566627
 21
146.6698872784
 31
0.0
  0
ELLIPSE
  5
148
330
1F
100
AcDbEntity
  8
0
  6
HIDDEN
 62
     7
370
     0
100
AcDbEllipse
 10
143.6204248252
 20
120.2698874214
 30
0.0
 11
20.07002071827054
 21
-2.842170943040401E-14
 31
0.0
210
0.0
220
0.0
230
1.0
 40
0.8164965809
 41
4.921555463185704
 42
4.980534842098404
  0
ELLIPSE
  5
149
330
1F
100
AcDbEntity
  8
0
  6
HIDDEN
 62
     7
370
     0
100
AcDbEllipse
 10
143.6204248252
 20
120.2698874214
 30
0.0
 11
20.07002071827048
 21
-1.421085471520200E-14
 31
0.0
210
0.0
220
0.0
230
1.0
 40
0.8164965809
 41
1.302650465081197
 42
1.361629843993897
  0
LINE
  5
14A
330
1F
100
AcDbEntity
  8
0
  6
HIDDEN
 62
     7
370
     0
100
AcDbLine
 10
157.887856469
 20
102.2798868755
 30
0.0
 11
157.887856469
 21
103.9823743442
 31
0.0
  0
LINE
  5
14B
330
1F
100
AcDbEntity
  8
0
  6
HIDDEN
 62
     7
370
     0
100
AcDbLine
 10
148.9378558401
 20
102.2798868755
 30
0.0
 11
148.9378558401
 21
104.4683962056
 31
0.0
  0
LINE
  5
14C
330
1F
100
AcDbEntity
  8
0
  6
HIDDEN
 62
     7
370
     0
100
AcDbLine
 10
148.9378558401
 20
138.2598879674
 30
0.0
 11
148.9378558401
 21
136.0713786373
 31
0.0
  0
LINE
  5
14D
330
1F
100
AcDbEntity
  8
0
  6
HIDDEN
 62
     7
370
     0
100
AcDbLine
 10
153.8878558133
 20
138.2598879674
 30
0.0
 11
153.8878558133
 21
136.5574004987
 31
0.0
  0
SPLINE
  5
14E
330
1F
100
AcDbEntity
  8
0
  6
HIDDEN
 62
     7
370
     0
100
AcDbSpline
210
0.0
220
0.0
230
1.0
 70
     8
 71
     3
 72
    20
 73
    16
 74
     0
 42
0.00000001
 43
0.00000001
 12
1.0
 22
0.0
 32
0.0
 13
1.0
 23
0.0
 33
0.0
 40
0.0
 40
0.0
 40
0.0
 40
0.0
 40
0.1118674106544
 40
0.1773868080586869
 40
0.2490085799315404
 40
0.3297572832999401
 40
0.3985298773620822
 40
0.4998099276062901
 40
0.6137754145960911
 40
0.6789415192915389
 40
0.7494682415556577
 40
0.8296144585114964
 40
0.8980583431905627
 40
0.9994690524541573
 40
1.0
 40
1.0
 40
1.0
 40
1.0
 10
174.4365012202638
 20
96.66994613797604
 30
0.0
 10
174.3932049501225
 20
96.68336507905556
 30
0.0
 10
174.3245505751236
 20
96.70464333258533
 30
0.0
 10
173.8795126650351
 20
96.80792492692234
 30
0.0
 10
173.3529614319843
 20
96.92122360289284
 30
0.0
 10
172.6675342119089
 20
97.0441587257402
 30
0.0
 10
171.7742176039072
 20
97.16619327943297
 30
0.0
 10
170.6608577935299
 20
97.28392902881228
 30
0.0
 10
169.5500835068367
 20
97.29590263464664
 30
0.0
 10
168.6653357521446
 20
97.26884769784394
 30
0.0
 10
167.9981375460605
 20
97.22091245133343
 30
0.0
 10
167.4568709957316
 20
97.16462427047496
 30
0.0
 10
167.0692683977912
 20
97.11951864006421
 30
0.0
 10
166.8753360098963
 20
97.08071452937942
 30
0.0
 10
166.9385298953015
 20
97.09138295598989
 30
0.0
 10
166.9388590309995
 20
97.09143852086008
 30
0.0
  0
LINE
  5
14F
330
1F
100
AcDbEntity
  8
0
  6
HIDDEN
 62
     7
370
     0
100
AcDbLine
 10
167.8478689794
 20
97.202224929
 30
0.0
 11
168.0317139182
 21
97.2204155216
 31
0.0
  0
SPLINE
  5
150
330
1F
100
AcDbEntity
  8
0
  6
HIDDEN
 62
     7
370
     0
100
AcDbSpline
210
0.0
220
0.0
230
1.0
 70
     8
 71
     3
 72
    27
 73
    23
 74
     0
 42
0.00000001
 43
0.00000001
 12
1.0
 22
0.0
 32
0.0
 13
1.0
 23
0.0
 33
0.0
 40
0.0
 40
0.0
 40
0.0
 40
0.0
 40
0.0008031098257013
 40
0.045685564757449
 40
0.1022671583635356
 40
0.1705451611177448
 40
0.209136769549619
 40
0.2506639562779515
 40
0.3211096258312686
 40
0.3862032952489873
 40
0.4266824158581874
 40
0.4648136295156318
 40
0.5006178480525872
 40
0.5452096215840192
 40
0.6017038016552112
 40
0.6701096498775252
 40
0.7088469686845434
 40
0.7505756515156302
 40
0.822240154330499
 40
0.8877794821244857
 40
0.9472531664514371
 40
1.0
 40
1.0
 40
1.0
 40
1.0
 10
166.9385209609049
 20
143.4483027944082
 30
0.0
 10
166.9383000995313
 20
143.4483501819169
 30
0.0
 10
166.9257362181532
 20
143.4510458594262
 30
0.0
 10
166.974818487492
 20
143.439230446358
 30
0.0
 10
167.1199192252938
 20
143.415781646687
 30
0.0
 10
167.392972404461
 20
143.3818765358951
 30
0.0
 10
167.7214981014337
 20
143.348308292897
 30
0.0
 10
168.1142260995134
 20
143.3101254319401
 30
0.0
 10
168.6639539009796
 20
143.271157273062
 30
0.0
 10
169.2899765314851
 20
143.2516956642158
 30
0.0
 10
169.8331683721266
 20
143.2495105049641
 30
0.0
 10
170.2782371213826
 20
143.2580252268814
 30
0.0
 10
170.7446849759457
 20
143.2778087768967
 30
0.0
 10
171.2819259012878
 20
143.3219686586602
 30
0.0
 10
171.9301388721895
 20
143.3943884939671
 30
0.0
 10
172.5156780119324
 20
143.4752861527672
 30
0.0
 10
172.9966471683759
 20
143.5534555126884
 30
0.0
 10
173.4420621981596
 20
143.638226076972
 30
0.0
 10
173.8805620777416
 20
143.7320108039879
 30
0.0
 10
174.2195876078941
 20
143.8099132016666
 30
0.0
 10
174.4069335165491
 20
143.8601055726039
 30
0.0
 10
174.4274235348105
 20
143.8667730378134
 30
0.0
 10
174.4370544258731
 20
143.8699069360012
 30
0.0
  0
LINE
  5
151
330
1F
100
AcDbEntity
  8
0
  6
HIDDEN
 62
     7
370
     0
100
AcDbLine
 10
212.7878582034
 20
116.0698875712
 30
0.0
 11
212.7878582034
 21
124.4698872717
 31
0.0
  0
SPLINE
  5
152
330
1F
100
AcDbEntity
  8
0
  6
HIDDEN
 62
     7
370
     0
100
AcDbSpline
210
0.0
220
0.0
230
1.0
 70
     8
 71
     3
 72
    64
 73
    60
 74
     0
 42
0.00000001
 43
0.00000001
 12
1.0
 22
0.0
 32
0.0
 13
1.0
 23
0.0
 33
0.0
 40
-0.0312499999999998
 40
-0.0312499999999998
 40
0.0
 40
0.0
 40
0.03125
 40
0.03125
 40
0.0625
 40
0.0625
 40
0.1250000000000005
 40
0.1250000000000005
 40
0.1562500000000008
 40
0.1562500000000008
 40
0.1875000000000011
 40
0.1875000000000011
 40
0.2187500000000014
 40
0.2187500000000014
 40
0.2500000000000017
 40
0.2500000000000017
 40
0.2812500000000021
 40
0.2812500000000021
 40
0.3125000000000024
 40
0.3125000000000024
 40
0.375000000000003
 40
0.375000000000003
 40
0.4062500000000029
 40
0.4062500000000029
 40
0.4375000000000028
 40
0.4375000000000028
 40
0.4687500000000027
 40
0.4687500000000027
 40
0.5000000000000026
 40
0.5000000000000026
 40
0.5312500000000024
 40
0.5312500000000024
 40
0.5625000000000023
 40
0.5625000000000023
 40
0.5937500000000022
 40
0.5937500000000022
 40
0.6250000000000021
 40
0.6250000000000021
 40
0.656250000000002
 40
0.656250000000002
 40
0.6875000000000019
 40
0.6875000000000019
 40
0.7187500000000018
 40
0.7187500000000018
 40
0.7500000000000016
 40
0.7500000000000016
 40
0.7812500000000014
 40
0.7812500000000014
 40
0.8125000000000013
 40
0.8125000000000013
 40
0.8750000000000009
 40
0.8750000000000009
 40
0.9062500000000007
 40
0.9062500000000007
 40
0.9375000000000004
 40
0.9375000000000004
 40
0.9687500000000002
 40
0.9687500000000002
 40
1.0
 40
1.0
 40
1.03125
 40
1.03125
 10
209.5181970001885
 20
121.7387253449713
 30
0.0
 10
209.857516378793
 20
121.7387253449713
 30
0.0
 10
210.0232029036262
 20
121.7587822186862
 30
0.0
 10
210.3474389798004
 20
121.834292311776
 30
0.0
 10
210.5072458155283
 20
121.890624214384
 30
0.0
 10
210.9564206378705
 20
122.0974727934503
 30
0.0
 10
211.2258458539347
 20
122.2885358042031
 30
0.0
 10
211.5638808651318
 20
122.6030106058378
 30
0.0
 10
211.667437029531
 20
122.7144882495726
 30
0.0
 10
211.8478245201685
 20
122.9386048940587
 30
0.0
 10
211.9249708542312
 20
123.0511702960389
 30
0.0
 10
212.0524912650089
 20
123.2748539962679
 30
0.0
 10
212.103014825049
 20
123.3872173376766
 30
0.0
 10
212.1699356529755
 20
123.5971654916011
 30
0.0
 10
212.1872947156139
 20
123.6959205381667
 30
0.0
 10
212.188392092222
 20
123.8797958480004
 30
0.0
 10
212.1716661707488
 20
123.9634047388991
 30
0.0
 10
212.1062618858488
 20
124.1086325201412
 30
0.0
 10
212.0567760341172
 20
124.1719223043068
 30
0.0
 10
211.8661636191684
 20
124.3292357504047
 30
0.0
 10
211.6815678230195
 20
124.3926489705977
 30
0.0
 10
211.3443516788139
 20
124.4452548757928
 30
0.0
 10
211.2203237354279
 20
124.4560798726639
 30
0.0
 10
210.9544928670034
 20
124.4684945984049
 30
0.0
 10
210.8140757427757
 20
124.4701470368532
 30
0.0
 10
210.5164422603225
 20
124.4695656442703
 30
0.0
 10
210.3568780360333
 20
124.467297232785
 30
0.0
 10
210.0312668570248
 20
124.4634585597571
 30
0.0
 10
209.8651546214924
 20
124.461960659187
 30
0.0
 10
209.5256555742782
 20
124.4618821270326
 30
0.0
 10
209.3589821684205
 20
124.4633092378561
 30
0.0
 10
209.033077120148
 20
124.4671091155777
 30
0.0
 10
208.8729867109465
 20
124.4694269191363
 30
0.0
 10
208.5726404838041
 20
124.4702285674273
 30
0.0
 10
208.4293770348491
 20
124.4686844650215
 30
0.0
 10
208.1622381375663
 20
124.4565802963052
 30
0.0
 10
208.0392786806451
 20
124.4461261098023
 30
0.0
 10
207.8127666990319
 20
124.4114956781465
 30
0.0
 10
207.7089199865928
 20
124.3870096238684
 30
0.0
 10
207.5287634080108
 20
124.321308543615
 30
0.0
 10
207.4512657101868
 20
124.28005508417
 30
0.0
 10
207.3227875517191
 20
124.1761042105449
 30
0.0
 10
207.2725627357257
 20
124.1132377461299
 30
0.0
 10
207.2057859149546
 20
123.969405354932
 30
0.0
 10
207.188249213602
 20
123.8877626064235
 30
0.0
 10
207.187477066685
 20
123.7030247860836
 30
0.0
 10
207.2042436454527
 20
123.6038842729049
 30
0.0
 10
207.2701499493595
 20
123.3934204206131
 30
0.0
 10
207.3201035204968
 20
123.2811197916734
 30
0.0
 10
207.5111810227701
 20
122.9436221462411
 30
0.0
 10
207.6964831488472
 20
122.7106832865317
 30
0.0
 10
208.0354725272304
 20
122.3947787487954
 30
0.0
 10
208.1606794403429
 20
122.2933862618684
 30
0.0
 10
208.4262121144657
 20
122.1111630179932
 30
0.0
 10
208.5670069105012
 20
122.0295775195024
 30
0.0
 10
208.8670699634973
 20
121.8911409928556
 30
0.0
 10
209.0272982052186
 20
121.8345926290491
 30
0.0
 10
209.351585575139
 20
121.7589250664807
 30
0.0
 10
209.5181970001885
 20
121.7387253449713
 30
0.0
 10
209.857516378793
 20
121.7387253449713
 30
0.0
  0
LWPOLYLINE
  5
153
330
1F
100
AcDbEntity
  8
0
  6
HIDDEN
 62
     7
370
     0
100
AcDbPolyline
 90
       26
 70
   128
 43
0.0
 10
209.6878560189
 20
134.5910684133
 10
210.3095808927
 20
134.6338459218
 10
210.8922405098
 20
134.7594887877
 10
211.3992227171
 20
134.9601040521
 10
211.7986781452
 20
135.2230853328
 10
212.0654983375
 20
135.5319091046
 10
212.182923213
 20
135.8671703303
 10
212.1435729716
 20
136.2078043559
 10
211.9499249313
 20
136.5324056634
 10
211.6141384397
 20
136.8205810824
 10
211.1573209916
 20
137.0542219767
 10
210.6081684981
 20
137.2186469773
 10
210.0011901859
 20
137.3035277167
 10
209.3745237146
 20
137.3035277167
 10
208.7675454024
 20
137.2186469773
 10
208.218392909
 20
137.0542219767
 10
207.7615735982
 20
136.8205810824
 10
207.4257889692
 20
136.5324056634
 10
207.2321390663
 20
136.2078043559
 10
207.1927906875
 20
135.8671703303
 10
207.310215563
 20
135.5319091046
 10
207.577037618
 20
135.2230853328
 10
207.9764893208
 20
134.9601040521
 10
208.4834733907
 20
134.7594887877
 10
209.0661311452
 20
134.6338459218
 10
209.6878560189
 20
134.5910684133
  0
LINE
  5
154
330
1F
100
AcDbEntity
  8
0
  6
HIDDEN
 62
     7
370
     0
100
AcDbLine
 10
244.20989956
 20
114.2698873693
 30
0.0
 11
247.4268590961
 21
114.2698873693
 31
0.0
  0
LINE
  5
155
330
1F
100
AcDbEntity
  8
0
  6
HIDDEN
 62
     7
370
     0
100
AcDbLine
 10
239.2947515402
 20
103.2221040616
 30
0.0
 11
248.6321916733
 21
91.2707283089
 31
0.0
  0
LINE
  5
156
330
1F
100
AcDbEntity
  8
0
  6
HIDDEN
 62
     7
370
     0
100
AcDbLine
 10
239.0668904338
 20
97.0470237473
 30
0.0
 11
239.0273539279
 21
97.0976299533
 31
0.0
  0
LINE
  5
157
330
1F
100
AcDbEntity
  8
0
  6
HIDDEN
 62
     7
370
     0
100
AcDbLine
 10
239.5476167951
 20
87.8742414454
 30
0.0
 11
239.0668904338
 21
97.0470237473
 31
0.0
  0
LINE
  5
158
330
1F
100
AcDbEntity
  8
0
  6
HIDDEN
 62
     7
370
     0
100
AcDbLine
 10
239.5080802892
 20
87.9248495141
 30
0.0
 11
239.5476167951
 21
87.8742414454
 31
0.0
  0
LINE
  5
159
330
1F
100
AcDbEntity
  8
0
  6
HIDDEN
 62
     7
370
     0
100
AcDbLine
 10
248.6321916733
 20
91.2707283089
 30
0.0
 11
248.6288314615
 21
91.334861044
 31
0.0
  0
LINE
  5
15A
330
1F
100
AcDbEntity
  8
0
  6
HIDDEN
 62
     7
370
     0
100
AcDbLine
 10
248.3961870823
 20
91.1819043496
 30
0.0
 11
238.972033367
 21
103.2442714015
 31
0.0
  0
LINE
  5
15B
330
1F
100
AcDbEntity
  8
0
  6
HIDDEN
 62
     7
370
     0
100
AcDbLine
 10
248.3961870823
 20
91.1819043496
 30
0.0
 11
248.6321916733
 21
91.2707283089
 31
0.0
  0
LINE
  5
15C
330
1F
100
AcDbEntity
  8
0
  6
HIDDEN
 62
     7
370
     0
100
AcDbLine
 10
239.3032489274
 20
97.1353950837
 30
0.0
 11
239.0668904338
 21
97.0470237473
 31
0.0
  0
LINE
  5
15D
330
1F
100
AcDbEntity
  8
0
  6
HIDDEN
 62
     7
370
     0
100
AcDbLine
 10
239.3032489274
 20
97.1353950837
 30
0.0
 11
239.7839752887
 21
87.9626127818
 31
0.0
  0
LINE
  5
15E
330
1F
100
AcDbEntity
  8
0
  6
HIDDEN
 62
     7
370
     0
100
AcDbLine
 10
239.5476167951
 20
87.8742414454
 30
0.0
 11
239.7839752887
 21
87.9626127818
 31
0.0
  0
LINE
  5
15F
330
1F
100
AcDbEntity
  8
0
  6
HIDDEN
 62
     7
370
     0
100
AcDbLine
 10
239.3032489274
 20
97.1353950837
 30
0.0
 11
239.0053933416
 21
97.516630117
 31
0.0
  0
ELLIPSE
  5
160
330
1F
100
AcDbEntity
  8
0
  6
HIDDEN
 62
     7
370
     0
100
AcDbEllipse
 10
243.2308951087
 20
120.2698874214
 30
0.0
 11
-18.85237393256898
 21
26.45519241215514
 31
0.0
210
0.0
220
0.0
230
1.0
 40
0.0817078932
 41
6.236345679868969
 42
7.795821010122412
  0
LINE
  5
161
330
1F
100
AcDbEntity
  8
0
  6
HIDDEN
 62
     7
370
     0
100
AcDbLine
 10
221.7865539644
 20
120.2698874214
 30
0.0
 11
221.7865539644
 21
146.7681883761
 31
0.0
  0
SPLINE
  5
162
330
1F
100
AcDbEntity
  8
0
  6
HIDDEN
 62
     7
370
     0
100
AcDbSpline
210
0.0
220
0.0
230
1.0
 70
     8
 71
     3
 72
    12
 73
     8
 74
     0
 42
0.00000001
 43
0.00000001
 12
1.0
 22
0.0
 32
0.0
 13
1.0
 23
0.0
 33
0.0
 40
0.0
 40
0.0
 40
0.0
 40
0.0
 40
0.25
 40
0.25
 40
0.5
 40
0.5
 40
1.0
 40
1.0
 40
1.0
 40
1.0
 10
221.9708163432705
 20
93.21553088398038
 30
0.0
 10
221.9345485773981
 20
93.37416180147332
 30
0.0
 10
221.9647740235096
 20
93.53229042156833
 30
0.0
 10
222.151168174723
 20
93.84759627184374
 30
0.0
 10
222.3069708037141
 20
94.00477626740533
 30
0.0
 10
222.9284645909906
 20
94.47515227141477
 30
0.0
 10
223.5448384744603
 20
94.78721000516495
 30
0.0
 10
224.2666326971564
 20
95.09847138150514
 30
0.0
  0
LINE
  5
163
330
1F
100
AcDbEntity
  8
0
  6
HIDDEN
 62
     7
370
     0
100
AcDbLine
 10
247.1576249156
 20
80.9108096102
 30
0.0
 11
248.5092347417
 21
77.2933739165
 31
0.0
  0
LINE
  5
164
330
1F
100
AcDbEntity
  8
0
  6
HIDDEN
 62
     7
370
     0
100
AcDbLine
 10
248.811176971
 20
77.4062762895
 30
0.0
 11
247.399254695
 21
81.1851250866
 31
0.0
  0
CIRCLE
  5
165
330
1F
100
AcDbEntity
  8
0
  6
HIDDEN
 62
     7
370
     0
100
AcDbCircle
 10
244.1664410887
 20
89.3677356668
 30
0.0
 40
2.400000000000006
  0
LINE
  5
166
330
1F
100
AcDbEntity
  8
0
  6
HIDDEN
 62
     7
370
     0
100
AcDbLine
 10
248.5092347417
 20
77.2933739165
 30
0.0
 11
248.811176971
 21
77.4062762895
 31
0.0
  0
LINE
  5
167
330
1F
100
AcDbEntity
  8
0
  6
HIDDEN
 62
     7
370
     0
100
AcDbLine
 10
248.5092347417
 20
77.2933739165
 30
0.0
 11
239.7559648309
 21
88.4970503786
 31
0.0
  0
LINE
  5
168
330
1F
100
AcDbEntity
  8
0
  6
HIDDEN
 62
     7
370
     0
100
AcDbLine
 10
248.067154542
 20
91.6030465552
 30
0.0
 11
248.811176971
 21
77.4062762895
 31
0.0
  0
CIRCLE
  5
169
330
1F
100
AcDbEntity
  8
0
  6
HIDDEN
 62
     7
370
     0
100
AcDbCircle
 10
244.1664410887
 20
89.3677356668
 30
0.0
 40
1.650000000000006
  0
LINE
  5
16A
330
1F
100
AcDbEntity
  8
0
  6
HIDDEN
 62
     7
370
     0
100
AcDbLine
 10
195.7778567378
 20
140.4057538995
 30
0.0
 11
195.7778567378
 21
140.1198881605
 31
0.0
  0
LINE
  5
16B
330
1F
100
AcDbEntity
  8
0
  6
HIDDEN
 62
     7
370
     0
100
AcDbLine
 10
199.5978569541
 20
140.4057538995
 30
0.0
 11
199.5978569541
 21
140.1198881605
 31
0.0
  0
LWPOLYLINE
  5
16C
330
1F
100
AcDbEntity
  8
0
  6
HIDDEN
 62
     7
370
     0
100
AcDbPolyline
 90
       29
 70
   128
 43
0.0
 10
209.6878560189
 20
134.5707115644
 10
210.3554187272
 20
134.6116767192
 10
210.9895078395
 20
134.7325195485
 10
211.5583261404
 20
134.9271799365
 10
212.0333528076
 20
135.1858976224
 10
212.3907646094
 20
135.4956983516
 10
212.6126391743
 20
135.8410476634
 10
212.6878565107
 20
136.204628546
 10
212.6126391743
 20
136.5682094285
 10
212.3907646094
 20
136.9135587403
 10
212.0333528076
 20
137.2233594695
 10
211.5583261404
 20
137.4820752928
 10
210.9895078395
 20
137.676736612
 10
210.3554187272
 20
137.7975794414
 10
209.6878560189
 20
137.8385445961
 10
209.0202933107
 20
137.7975794414
 10
208.386206061
 20
137.676736612
 10
207.8173877601
 20
137.4820752928
 10
207.3423629556
 20
137.2233594695
 10
206.9849492911
 20
136.9135587403
 10
206.7630728636
 20
136.5682094285
 10
206.6878573898
 20
136.204628546
 10
206.7630728636
 20
135.8410476634
 10
206.9849492911
 20
135.4956983516
 10
207.3423629556
 20
135.1858976224
 10
207.8173877601
 20
134.9271799365
 10
208.386206061
 20
134.7325195485
 10
209.0202933107
 20
134.6116767192
 10
209.6878560189
 20
134.5707115644
  0
LINE
  5
16D
330
1F
100
AcDbEntity
  8
0
  6
HIDDEN
 62
     7
370
     0
100
AcDbLine
 10
201.0797886107
 20
144.7285770366
 30
0.0
 11
201.0797886107
 21
140.1198881605
 31
0.0
  0
ELLIPSE
  5
16E
330
1F
100
AcDbEntity
  8
0
  6
HIDDEN
 62
     7
370
     0
100
AcDbEllipse
 10
323.5253455781
 20
103.2698874214
 30
0.0
 11
77.24226517024317
 21
24.69623926254485
 31
0.0
210
0.0
220
0.0
230
1.0
 40
0.1244094853
 41
2.927092196386899
 42
2.946094865383486
  0
SPLINE
  5
16F
330
1F
100
AcDbEntity
  8
0
  6
HIDDEN
 62
     7
370
     0
100
AcDbSpline
210
0.0
220
0.0
230
1.0
 70
     8
 71
     3
 72
    18
 73
    14
 74
     0
 42
0.00000001
 43
0.00000001
 12
1.0
 22
0.0
 32
0.0
 13
1.0
 23
0.0
 33
0.0
 40
0.0
 40
0.0
 40
0.0
 40
0.0
 40
0.2499999999999989
 40
0.2499999999999989
 40
0.3749999999999991
 40
0.3749999999999991
 40
0.4999999999999992
 40
0.4999999999999992
 40
0.6249999999999994
 40
0.6249999999999994
 40
0.7499999999999996
 40
0.7499999999999996
 40
1.0
 40
1.0
 40
1.0
 40
1.0
 10
240.8931943121639
 20
90.75017678510206
 30
0.0
 10
240.445930973123
 20
91.39117314642955
 30
0.0
 10
239.9207459631509
 20
91.9854504494938
 30
0.0
 10
239.009327729829
 20
92.79147087633143
 30
0.0
 10
238.6821551291569
 20
93.04742608201984
 30
0.0
 10
238.0012968082875
 20
93.51515776130613
 30
0.0
 10
237.64703948599
 20
93.72798992427153
 30
0.0
 10
236.9114273622677
 20
94.11116224455196
 30
0.0
 10
236.5300763361219
 20
94.28151147229154
 30
0.0
 10
235.7397199873909
 20
94.57776022787114
 30
0.0
 10
235.3334463264141
 20
94.70224761381998
 30
0.0
 10
234.1082619746135
 20
94.99865027839793
 30
0.0
 10
233.2731167016492
 20
95.09847138150512
 30
0.0
 10
232.4194556697249
 20
95.09847138150512
 30
0.0
  0
LINE
  5
170
330
1F
100
AcDbEntity
  8
0
  6
HIDDEN
 62
     7
370
     0
100
AcDbLine
 10
232.4194563482
 20
95.0984715411
 30
0.0
 11
224.266632453
 21
95.0984715411
 31
0.0
  0
ELLIPSE
  5
171
330
1F
100
AcDbEntity
  8
0
  6
HIDDEN
 62
     7
370
     0
100
AcDbEllipse
 10
227.472475776
 20
103.2698874214
 30
0.0
 11
-20.95821340020115
 21
26.42318985223164
 31
0.0
210
0.0
220
0.0
230
1.0
 40
0.0962006593
 41
3.632021503705389
 42
4.144173257730843
  0
SPLINE
  5
172
330
1F
100
AcDbEntity
  8
0
  6
HIDDEN
 62
     7
370
     0
100
AcDbSpline
210
0.0
220
0.0
230
1.0
 70
     8
 71
     3
 72
    12
 73
     8
 74
     0
 42
0.00000001
 43
0.00000001
 12
1.0
 22
0.0
 32
0.0
 13
1.0
 23
0.0
 33
0.0
 40
0.0
 40
0.0
 40
0.0
 40
0.0
 40
0.4999999999999991
 40
0.4999999999999991
 40
0.7499999999999996
 40
0.7499999999999996
 40
1.0
 40
1.0
 40
1.0
 40
1.0
 10
223.1573230139415
 20
103.2698874214405
 30
0.0
 10
223.3588153291537
 20
101.8772158405331
 30
0.0
 10
223.5509084411692
 20
100.4999838694874
 30
0.0
 10
223.8275471591884
 20
98.45690922464983
 30
0.0
 10
223.9178309708768
 20
97.7796970817862
 30
0.0
 10
224.094850457086
 20
96.4330407326626
 30
0.0
 10
224.1817570928025
 20
95.7622537133724
 30
0.0
 10
224.2666326971564
 20
95.09847138150514
 30
0.0
  0
ELLIPSE
  5
173
330
1F
100
AcDbEntity
  8
0
  6
HIDDEN
 62
     7
370
     0
100
AcDbEllipse
 10
248.0401765285
 20
103.2698874214
 30
0.0
 11
-1.409974411207429
 21
26.49943763273134
 31
0.0
210
0.0
220
0.0
230
1.0
 40
0.1224431285
 41
1.564281500408435
 42
2.549489923739099
  0
CIRCLE
  5
174
330
1F
100
AcDbEntity
  8
0
  6
HIDDEN
 62
     7
370
     0
100
AcDbCircle
 10
186.6878566895
 20
120.2698874214
 30
0.0
 40
5.0
  0
SPLINE
  5
175
330
1F
100
AcDbEntity
  8
0
  6
HIDDEN
 62
     7
370
     0
100
AcDbSpline
210
0.0
220
0.0
230
1.0
 70
     8
 71
     3
 72
     8
 73
     4
 74
     0
 42
0.00000001
 43
0.00000001
 12
1.0
 22
0.0
 32
0.0
 13
1.0
 23
0.0
 33
0.0
 40
0.0
 40
0.0
 40
0.0
 40
0.0
 40
1.0
 40
1.0
 40
1.0
 40
1.0
 10
221.8864555278007
 20
116.6864869606252
 30
0.0
 10
222.0473685662886
 20
112.2049805626259
 30
0.0
 10
222.5114224936033
 20
107.734213010341
 30
0.0
 10
223.1573230139415
 20
103.2698874214405
 30
0.0
  0
LINE
  5
176
330
1F
100
AcDbEntity
  8
0
  6
HIDDEN
 62
     7
370
     0
100
AcDbLine
 10
239.9771055136
 20
120.2698874214
 30
0.0
 11
244.20989956
 21
114.2698873693
 31
0.0
  0
LINE
  5
177
330
1F
100
AcDbEntity
  8
0
  6
HIDDEN
 62
     7
370
     0
100
AcDbLine
 10
244.20989956
 20
114.2698873693
 30
0.0
 11
244.7863882337
 21
103.2698864976
 31
0.0
  0
SPLINE
  5
178
330
1F
100
AcDbEntity
  8
0
  6
HIDDEN
 62
     7
370
     0
100
AcDbSpline
210
0.0
220
0.0
230
1.0
 70
     8
 71
     3
 72
    10
 73
     6
 74
     0
 42
0.00000001
 43
0.00000001
 12
1.0
 22
0.0
 32
0.0
 13
1.0
 23
0.0
 33
0.0
 40
0.0
 40
0.0
 40
0.0
 40
0.0
 40
0.5
 40
0.5
 40
1.0
 40
1.0
 40
1.0
 40
1.0
 10
221.8864555278007
 20
116.6864869606252
 30
0.0
 10
221.8650106964417
 20
117.2837359458087
 30
0.0
 10
221.8384832240455
 20
117.880992723119
 30
0.0
 10
221.7990584777993
 20
119.0754853814704
 30
0.0
 10
221.7865551052961
 20
119.6727148255255
 30
0.0
 10
221.7865551052961
 20
120.2698874214405
 30
0.0
  0
LINE
  5
179
330
1F
100
AcDbEntity
  8
0
  6
HIDDEN
 62
     7
370
     0
100
AcDbLine
 10
212.6878565107
 20
136.204628546
 30
0.0
 11
212.6878565107
 21
138.5109725335
 31
0.0
  0
LINE
  5
17A
330
1F
100
AcDbEntity
  8
0
  6
HIDDEN
 62
     7
370
     0
100
AcDbLine
 10
206.6878573898
 20
138.5109725335
 30
0.0
 11
206.6878573898
 21
136.204628546
 31
0.0
  0
LINE
  5
17B
330
1F
100
AcDbEntity
  8
0
  6
HIDDEN
 62
     7
370
     0
100
AcDbLine
 10
212.1878554974
 20
137.3312774041
 30
0.0
 11
212.1878554974
 21
141.4043850193
 31
0.0
  0
LINE
  5
17C
330
1F
100
AcDbEntity
  8
0
  6
HIDDEN
 62
     7
370
     0
100
AcDbLine
 10
207.1878565405
 20
141.4043850193
 30
0.0
 11
207.1878565405
 21
137.3312774041
 31
0.0
  0
LINE
  5
17D
330
1F
100
AcDbEntity
  8
0
  6
HIDDEN
 62
     7
370
     0
100
AcDbLine
 10
211.7616077814
 20
139.6916660407
 30
0.0
 11
211.6233548079
 21
139.7636945287
 31
0.0
  0
LINE
  5
17E
330
1F
100
AcDbEntity
  8
0
  6
HIDDEN
 62
     7
370
     0
100
AcDbLine
 10
207.75235723
 20
139.7636945287
 30
0.0
 11
207.6141079817
 21
139.6916660407
 31
0.0
  0
LINE
  5
17F
330
1F
100
AcDbEntity
  8
0
  6
HIDDEN
 62
     7
370
     0
100
AcDbLine
 10
206.7866688524
 20
138.673760269
 30
0.0
 11
206.9800821994
 21
138.2735448817
 31
0.0
  0
LINE
  5
180
330
1F
100
AcDbEntity
  8
0
  6
HIDDEN
 62
     7
370
     0
100
AcDbLine
 10
212.3956335638
 20
138.2735448817
 30
0.0
 11
212.5890431855
 21
138.673760269
 31
0.0
  0
LINE
  5
181
330
1F
100
AcDbEntity
  8
0
  6
HIDDEN
 62
     7
370
     0
100
AcDbLine
 10
211.7616077814
 20
140.2703489104
 30
0.0
 11
211.6233548079
 21
140.3423773983
 31
0.0
  0
LINE
  5
182
330
1F
100
AcDbEntity
  8
0
  6
HIDDEN
 62
     7
370
     0
100
AcDbLine
 10
207.75235723
 20
140.3423773983
 30
0.0
 11
207.6141079817
 21
140.2703489104
 31
0.0
  0
LINE
  5
183
330
1F
100
AcDbEntity
  8
0
  6
HIDDEN
 62
     7
370
     0
100
AcDbLine
 10
206.7866688524
 20
139.2524431387
 30
0.0
 11
206.9800821994
 21
138.8522277513
 31
0.0
  0
LINE
  5
184
330
1F
100
AcDbEntity
  8
0
  6
HIDDEN
 62
     7
370
     0
100
AcDbLine
 10
212.3956335638
 20
138.8522277513
 30
0.0
 11
212.5890431855
 21
139.2524431387
 31
0.0
  0
LINE
  5
185
330
1F
100
AcDbEntity
  8
0
  6
HIDDEN
 62
     7
370
     0
100
AcDbLine
 10
211.7616077814
 20
140.8490317801
 30
0.0
 11
211.6233548079
 21
140.921060268
 31
0.0
  0
LINE
  5
186
330
1F
100
AcDbEntity
  8
0
  6
HIDDEN
 62
     7
370
     0
100
AcDbLine
 10
207.75235723
 20
140.921060268
 30
0.0
 11
207.6141079817
 21
140.8490317801
 31
0.0
  0
LINE
  5
187
330
1F
100
AcDbEntity
  8
0
  6
HIDDEN
 62
     7
370
     0
100
AcDbLine
 10
206.7866688524
 20
139.8311241457
 30
0.0
 11
206.9800821994
 21
139.4309087584
 31
0.0
  0
LINE
  5
188
330
1F
100
AcDbEntity
  8
0
  6
HIDDEN
 62
     7
370
     0
100
AcDbLine
 10
212.3956335638
 20
139.4309087584
 30
0.0
 11
212.5890431855
 21
139.8311241457
 31
0.0
  0
LINE
  5
189
330
1F
100
AcDbEntity
  8
0
  6
HIDDEN
 62
     7
370
     0
100
AcDbLine
 10
211.7616077814
 20
141.4277146497
 30
0.0
 11
211.6233548079
 21
141.4997431377
 31
0.0
  0
LINE
  5
18A
330
1F
100
AcDbEntity
  8
0
  6
HIDDEN
 62
     7
370
     0
100
AcDbLine
 10
207.75235723
 20
141.4997431377
 30
0.0
 11
207.6141079817
 21
141.4277146497
 31
0.0
  0
LINE
  5
18B
330
1F
100
AcDbEntity
  8
0
  6
HIDDEN
 62
     7
370
     0
100
AcDbLine
 10
206.7866688524
 20
140.4098070154
 30
0.0
 11
206.9800821994
 21
140.009591628
 31
0.0
  0
LINE
  5
18C
330
1F
100
AcDbEntity
  8
0
  6
HIDDEN
 62
     7
370
     0
100
AcDbLine
 10
212.3956335638
 20
140.009591628
 30
0.0
 11
212.5890431855
 21
140.4098070154
 31
0.0
  0
LINE
  5
18D
330
1F
100
AcDbEntity
  8
0
  6
HIDDEN
 62
     7
370
     0
100
AcDbLine
 10
212.6878565107
 20
140.8257021496
 30
0.0
 11
212.6878565107
 21
141.2869713196
 31
0.0
  0
LINE
  5
18E
330
1F
100
AcDbEntity
  8
0
  6
HIDDEN
 62
     7
370
     0
100
AcDbLine
 10
206.6878573898
 20
141.2869713196
 30
0.0
 11
206.6878573898
 21
140.8257021496
 31
0.0
  0
LINE
  5
18F
330
1F
100
AcDbEntity
  8
0
  6
HIDDEN
 62
     7
370
     0
100
AcDbLine
 10
211.9691772316
 20
142.3480494806
 30
0.0
 11
211.8627158854
 21
142.4159466216
 31
0.0
  0
LINE
  5
190
330
1F
100
AcDbEntity
  8
0
  6
HIDDEN
 62
     7
370
     0
100
AcDbLine
 10
207.5129961524
 20
142.4159466216
 30
0.0
 11
207.4065348063
 21
142.3480494806
 31
0.0
  0
CIRCLE
  5
191
330
1F
100
AcDbEntity
  8
0
  6
HIDDEN
 62
     7
370
     0
100
AcDbCircle
 10
209.6878566895
 20
138.5529058027
 30
0.0
 40
2.500000000000003
  0
CIRCLE
  5
192
330
1F
100
AcDbEntity
  8
0
  6
HIDDEN
 62
     7
370
     0
100
AcDbCircle
 10
244.1664410887
 20
89.3677356668
 30
0.0
 40
1.809570484150195
  0
LINE
  5
193
330
1F
100
AcDbEntity
  8
0
  6
HIDDEN
 62
     7
370
     0
100
AcDbLine
 10
179.6878566895
 20
94.9459637442
 30
0.0
 11
179.7820175273
 21
95.6159534791
 31
0.0
  0
LINE
  5
194
330
1F
100
AcDbEntity
  8
0
  6
HIDDEN
 62
     7
370
     0
100
AcDbLine
 10
179.7820175273
 20
144.9238213638
 30
0.0
 11
179.6878566895
 21
145.5938110986
 31
0.0
  0
ARC
  5
195
330
1F
100
AcDbEntity
  8
0
  6
HIDDEN
 62
     7
370
     0
100
AcDbCircle
 10
179.1878566895
 20
95.6994565597
 30
0.0
 40
0.6000000000000227
100
AcDbArc
 50
352.0
 51
0.0
  0
ARC
  5
196
330
1F
100
AcDbEntity
  8
0
  6
HIDDEN
 62
     7
370
     0
100
AcDbCircle
 10
179.1878566895
 20
95.6994565597
 30
0.0
 40
0.6000000000000227
100
AcDbArc
 50
0.0
 51
33.5573097619
  0
ARC
  5
197
330
1F
100
AcDbEntity
  8
0
  6
HIDDEN
 62
     7
370
     0
100
AcDbCircle
 10
179.1878566895
 20
144.8403182832
 30
0.0
 40
0.599999999999998
100
AcDbArc
 50
348.75
 51
8.0
  0
LWPOLYLINE
  5
198
330
1F
100
AcDbEntity
  8
0
  6
HIDDEN
 62
     7
370
     0
100
AcDbPolyline
 90
        3
 70
   128
 43
0.0
 10
179.7763278594
 20
144.7232647726
 10
179.7421844096
 20
144.6107088515
 10
179.6878566895
 20
144.5086563864
  0
LINE
  5
199
330
1F
100
AcDbEntity
  8
0
  6
HIDDEN
 62
     7
370
     0
100
AcDbLine
 10
179.787856687
 20
95.6994558612
 30
0.0
 11
179.787856687
 21
144.8403189817
 31
0.0
  0
ARC
  5
19A
330
1F
100
AcDbEntity
  8
0
  6
HIDDEN
 62
     7
370
     0
100
AcDbCircle
 10
162.7702922548
 20
100.8698874214
 30
0.0
 40
0.6000000000000155
100
AcDbArc
 50
210.0
 51
270.0
  0
ARC
  5
19B
330
1F
100
AcDbEntity
  8
0
  6
HIDDEN
 62
     7
370
     0
100
AcDbCircle
 10
162.7702922548
 20
139.6698874214
 30
0.0
 40
0.6000000000000155
100
AcDbArc
 50
90.0
 51
150.0
  0
LINE
  5
19C
330
1F
100
AcDbEntity
  8
0
  6
HIDDEN
 62
     7
370
     0
100
AcDbLine
 10
162.7702927146
 20
100.2698878685
 30
0.0
 11
166.9619642128
 21
100.2698878685
 31
0.0
  0
LINE
  5
19D
330
1F
100
AcDbEntity
  8
0
  6
HIDDEN
 62
     7
370
     0
100
AcDbLine
 10
166.9619642128
 20
140.2698869744
 30
0.0
 11
162.7702927146
 21
140.2698869744
 31
0.0
  0
ARC
  5
19E
330
1F
100
AcDbEntity
  8
0
  6
HIDDEN
 62
     7
370
     0
100
AcDbCircle
 10
173.4428586911
 20
108.2698874214
 30
0.0
 40
7.999999999999987
100
AcDbArc
 50
276.8732960225
 51
321.3178125465
  0
ARC
  5
19F
330
1F
100
AcDbEntity
  8
0
  6
HIDDEN
 62
     7
370
     0
100
AcDbCircle
 10
173.4428586911
 20
132.2698874214
 30
0.0
 40
7.999999999999993
100
AcDbArc
 50
38.6821874535
 51
83.1164182872
  0
LINE
  5
1A0
330
1F
100
AcDbEntity
  8
0
  6
HIDDEN
 62
     7
370
     0
100
AcDbLine
 10
162.2506761853
 20
139.969887484
 30
0.0
 11
160.6918321852
 21
137.2698883453
 31
0.0
  0
LINE
  5
1A1
330
1F
100
AcDbEntity
  8
0
  6
HIDDEN
 62
     7
370
     0
100
AcDbLine
 10
160.6918321852
 20
103.2698864976
 30
0.0
 11
162.2506761853
 21
100.5698873589
 31
0.0
  0
ARC
  5
1A2
330
1F
100
AcDbEntity
  8
0
  6
HIDDEN
 62
     7
370
     0
100
AcDbCircle
 10
188.1378566895
 20
104.5448874214
 30
0.0
 40
1.500000000000004
100
AcDbArc
 50
238.2116693829
 51
0.0
  0
ARC
  5
1A3
330
1F
100
AcDbEntity
  8
0
  6
HIDDEN
 62
     7
370
     0
100
AcDbCircle
 10
188.1378566895
 20
135.9948874214
 30
0.0
 40
1.500000000000016
100
AcDbArc
 50
0.0
 51
121.7883306171
  0
LINE
  5
1A4
330
1F
100
AcDbEntity
  8
0
  6
HIDDEN
 62
     7
370
     0
100
AcDbLine
 10
157.887856469
 20
103.2698864976
 30
0.0
 11
160.6918321852
 21
103.2698864976
 31
0.0
  0
LINE
  5
1A5
330
1F
100
AcDbEntity
  8
0
  6
HIDDEN
 62
     7
370
     0
100
AcDbLine
 10
160.6918321852
 20
137.2698883453
 30
0.0
 11
153.8878558133
 21
137.2698883453
 31
0.0
  0
LINE
  5
1A6
330
1F
100
AcDbEntity
  8
0
  6
HIDDEN
 62
     7
370
     0
100
AcDbLine
 10
179.6878566895
 20
103.2698864976
 30
0.0
 11
187.3476826515
 21
103.2698864976
 31
0.0
  0
LINE
  5
1A7
330
1F
100
AcDbEntity
  8
0
  6
HIDDEN
 62
     7
370
     0
100
AcDbLine
 10
187.3476826515
 20
137.2698883453
 30
0.0
 11
179.6878566895
 21
137.2698883453
 31
0.0
  0
LINE
  5
1A8
330
1F
100
AcDbEntity
  8
0
  6
HIDDEN
 62
     7
370
     0
100
AcDbLine
 10
212.1878554974
 20
108.9992777372
 30
0.0
 11
212.1878554974
 21
116.762793895
 31
0.0
  0
LINE
  5
1A9
330
1F
100
AcDbEntity
  8
0
  6
HIDDEN
 62
     7
370
     0
100
AcDbLine
 10
212.1878554974
 20
104.3351462969
 30
0.0
 11
212.1878554974
 21
105.0629469493
 31
0.0
  0
LINE
  5
1AA
330
1F
100
AcDbEntity
  8
0
  6
HIDDEN
 62
     7
370
     0
100
AcDbLine
 10
207.1878565405
 20
116.7628663053
 30
0.0
 11
207.1878565405
 21
104.3351462969
 31
0.0
  0
LINE
  5
1AB
330
1F
100
AcDbEntity
  8
0
  6
HIDDEN
 62
     7
370
     0
100
AcDbLine
 10
210.2752951835
 20
104.1761155167
 30
0.0
 11
214.7880969499
 21
100.4721767196
 31
0.0
  0
LINE
  5
1AC
330
1F
100
AcDbEntity
  8
0
  6
HIDDEN
 62
     7
370
     0
100
AcDbLine
 10
214.6325362776
 20
107.0683377722
 30
0.0
 11
212.1367445145
 21
109.1167929509
 31
0.0
  0
LINE
  5
1AD
330
1F
100
AcDbEntity
  8
0
  6
HIDDEN
 62
     7
370
     0
100
AcDbLine
 10
198.9878574316
 20
110.7698877269
 30
0.0
 11
201.48785691
 21
110.7698877269
 31
0.0
  0
LINE
  5
1AE
330
1F
100
AcDbEntity
  8
0
  6
HIDDEN
 62
     7
370
     0
100
AcDbLine
 10
201.48785691
 20
129.769887116
 30
0.0
 11
198.9878574316
 21
129.769887116
 31
0.0
  0
LINE
  5
1AF
330
1F
100
AcDbEntity
  8
0
  6
HIDDEN
 62
     7
370
     0
100
AcDbLine
 10
189.6378565509
 20
111.2698878089
 30
0.0
 11
190.1378566329
 21
111.7698869595
 31
0.0
  0
LINE
  5
1B0
330
1F
100
AcDbEntity
  8
0
  6
HIDDEN
 62
     7
370
     0
100
AcDbLine
 10
190.1378566329
 20
128.7698878834
 30
0.0
 11
189.6378565509
 21
129.269887034
 31
0.0
  0
LINE
  5
1B1
330
1F
100
AcDbEntity
  8
0
  6
HIDDEN
 62
     7
370
     0
100
AcDbLine
 10
190.1378566329
 20
111.7698869595
 30
0.0
 11
198.9878574316
 21
111.7698869595
 31
0.0
  0
LINE
  5
1B2
330
1F
100
AcDbEntity
  8
0
  6
HIDDEN
 62
     7
370
     0
100
AcDbLine
 10
198.9878574316
 20
128.7698878834
 30
0.0
 11
190.1378566329
 21
128.7698878834
 31
0.0
  0
LINE
  5
1B3
330
1F
100
AcDbEntity
  8
0
  6
HIDDEN
 62
     7
370
     0
100
AcDbLine
 10
184.6378566627
 20
151.7698879281
 30
0.0
 11
184.6378566627
 21
146.6698872784
 31
0.0
  0
LINE
  5
1B4
330
1F
100
AcDbEntity
  8
0
  6
HIDDEN
 62
     7
370
     0
100
AcDbLine
 10
174.8722945269
 20
96.1905161777
 30
0.0
 11
174.4378623482
 21
96.6695829222
 31
0.0
  0
LINE
  5
1B5
330
1F
100
AcDbEntity
  8
0
  6
HIDDEN
 62
     7
370
     0
100
AcDbLine
 10
166.9378587906
 20
97.0912708828
 30
0.0
 11
166.455425315
 21
96.6122041383
 31
0.0
  0
LINE
  5
1B6
330
1F
100
AcDbEntity
  8
0
  6
HIDDEN
 62
     7
370
     0
100
AcDbLine
 10
166.4553033117
 20
143.9275651166
 30
0.0
 11
166.9378541339
 21
143.4484443554
 31
0.0
  0
LINE
  5
1B7
330
1F
100
AcDbEntity
  8
0
  6
HIDDEN
 62
     7
370
     0
100
AcDbLine
 10
174.4378567603
 20
143.8701434919
 30
0.0
 11
174.8723988351
 21
144.3492623904
 31
0.0
  0
LINE
  5
1B8
330
1F
100
AcDbEntity
  8
0
  6
HIDDEN
 62
     7
370
     0
100
AcDbLine
 10
212.7878582034
 20
116.0698875712
 30
0.0
 11
215.3114704345
 21
120.2698874214
 31
0.0
  0
LINE
  5
1B9
330
1F
100
AcDbEntity
  8
0
  6
HIDDEN
 62
     7
370
     0
100
AcDbLine
 10
215.3114704345
 20
120.2698874214
 30
0.0
 11
212.7878582034
 21
124.4698872717
 31
0.0
  0
LINE
  5
1BA
330
1F
100
AcDbEntity
  8
0
  6
HIDDEN
 62
     7
370
     0
100
AcDbLine
 10
210.696526796
 20
116.0698875712
 30
0.0
 11
212.7878582034
 21
116.0698875712
 31
0.0
  0
LINE
  5
1BB
330
1F
100
AcDbEntity
  8
0
  6
HIDDEN
 62
     7
370
     0
100
AcDbLine
 10
201.48785691
 20
116.0698875712
 30
0.0
 11
208.6904691462
 21
116.0698875712
 31
0.0
  0
LINE
  5
1BC
330
1F
100
AcDbEntity
  8
0
  6
HIDDEN
 62
     7
370
     0
100
AcDbLine
 10
208.7323674862
 20
124.4698872717
 30
0.0
 11
201.48785691
 21
124.4698872717
 31
0.0
  0
LINE
  5
1BD
330
1F
100
AcDbEntity
  8
0
  6
HIDDEN
 62
     7
370
     0
100
AcDbLine
 10
212.7878582034
 20
124.4698872717
 30
0.0
 11
210.6160903279
 21
124.4698872717
 31
0.0
  0
LINE
  5
1BE
330
1F
100
AcDbEntity
  8
0
  6
HIDDEN
 62
     7
370
     0
100
AcDbLine
 10
174.4378567603
 20
96.6700653473
 30
0.0
 11
174.4378567603
 21
100.3344862649
 31
0.0
  0
LINE
  5
1BF
330
1F
100
AcDbEntity
  8
0
  6
HIDDEN
 62
     7
370
     0
100
AcDbLine
 10
166.9378569279
 20
100.2742650846
 30
0.0
 11
166.9378569279
 21
97.0915931204
 31
0.0
  0
LINE
  5
1C0
330
1F
100
AcDbEntity
  8
0
  6
HIDDEN
 62
     7
370
     0
100
AcDbLine
 10
174.4378567603
 20
140.205288578
 30
0.0
 11
174.4378567603
 21
143.8698510566
 31
0.0
  0
LINE
  5
1C1
330
1F
100
AcDbEntity
  8
0
  6
HIDDEN
 62
     7
370
     0
100
AcDbLine
 10
166.9378569279
 20
143.4483009318
 30
0.0
 11
166.9378569279
 21
140.2655097583
 31
0.0
  0
LINE
  5
1C2
330
1F
100
AcDbEntity
  8
0
  6
HIDDEN
 62
     7
370
     0
100
AcDbLine
 10
212.1878554974
 20
123.7855661122
 30
0.0
 11
212.1878554974
 21
135.952666674
 31
0.0
  0
LINE
  5
1C3
330
1F
100
AcDbEntity
  8
0
  6
HIDDEN
 62
     7
370
     0
100
AcDbLine
 10
207.1878565405
 20
135.952666674
 30
0.0
 11
207.1878565405
 21
123.7916509082
 31
0.0
  0
LINE
  5
1C4
330
1F
100
AcDbEntity
  8
0
  6
HIDDEN
 62
     7
370
     0
100
AcDbLine
 10
212.6878565107
 20
136.204628546
 30
0.0
 11
212.6878565107
 21
142.0753079394
 31
0.0
  0
LINE
  5
1C5
330
1F
100
AcDbEntity
  8
0
  6
HIDDEN
 62
     7
370
     0
100
AcDbLine
 10
206.6878573898
 20
142.0717018584
 30
0.0
 11
206.6878573898
 21
136.204628546
 31
0.0
  0
LINE
  5
1C6
330
1F
100
AcDbEntity
  8
VERMASSUNG
100
AcDbLine
 10
249.6878566895
 20
75.2698874214
 30
0.0
 11
259.4421458093
 21
75.2698874214
 31
0.0
  0
DIMENSION
  5
1C7
330
1F
100
AcDbEntity
  8
VERMASSUNG
100
AcDbDimension
  2
_D
 10
248.8911470547
 20
90.8824872325
 30
0.0
 11
256.587052544
 21
82.5174539225
 31
0.0
 70
   162
  1
<>
 71
     1
 42
-1.0
  3
SLDDIMSTYLE0
100
AcDb2LineAngularDimension
 13
259.4421458093
 23
75.2698874214
 33
0.0
 14
249.6878566895
 24
75.2698874214
 34
0.0
 15
249.6888578306
 25
75.6612588803
 35
0.0
 16
256.587052544
 26
82.5174539225
 36
0.0
  0
DIMENSION
  5
1D1
330
1F
100
AcDbEntity
  8
VERMASSUNG
100
AcDbDimension
  2
_D_1
 10
139.9392319136
 20
88.7698874214
 30
0.0
 11
139.9392319136
 21
120.2698874214
 31
0.0
 70
   160
  1
HSK T%%c<>
 71
     2
 42
-1.0
  3
SLDDIMSTYLE1
100
AcDbAlignedDimension
 13
179.9878566895
 23
151.7698874214
 33
0.0
 14
179.9878566895
 24
88.7698874214
 34
0.0
 50
90.0
100
AcDbRotatedDimension
  0
DIMENSION
  5
1DE
330
1F
100
AcDbEntity
  8
VERMASSUNG
100
AcDbDimension
  2
_D_2
 10
249.6878566895
 20
163.8193396582
 30
0.0
 11
198.7378566895
 21
163.8193396582
 31
0.0
 70
   160
  1
<>
 71
     2
 42
-1.0
  3
SLDDIMSTYLE1
100
AcDbAlignedDimension
 13
147.7878566895
 23
139.9605651679
 33
0.0
 14
249.6878566895
 24
75.2698874214
 34
0.0
100
AcDbRotatedDimension
  0
DIMENSION
  5
1E8
330
1F
100
AcDbEntity
  8
VERMASSUNG
100
AcDbDimension
  2
_D_3
 10
249.6878566895
 20
157.8193396582
 30
0.0
 11
214.6878566895
 21
157.8193396582
 31
0.0
 70
   160
  1
<>
 71
     2
 42
-1.0
  3
SLDDIMSTYLE1
100
AcDbAlignedDimension
 13
179.6878566895
 23
151.4698874214
 33
0.0
 14
249.6878566895
 24
75.2698874214
 34
0.0
100
AcDbRotatedDimension
  0
DIMENSION
  5
1F2
330
1F
100
AcDbEntity
  8
VERMASSUNG
100
AcDbDimension
  2
_D_4
 10
266.8093920382
 20
75.2698874214
 30
0.0
 11
266.8093920382
 21
97.7698874214
 31
0.0
 70
   160
  1
<>
 71
     2
 42
-1.0
  3
SLDDIMSTYLE1
100
AcDbAlignedDimension
 13
249.857727603
 23
120.2698874214
 33
0.0
 14
249.6878566895
 24
75.2698874214
 34
0.0
 50
90.0
100
AcDbRotatedDimension
  0
LINE
  5
1FC
330
1F
100
AcDbEntity
  8
VERMASSUNG
  6
CENTERX2
370
     0
100
AcDbLine
 10
143.0958082482
 20
120.2698874214
 30
0.0
 11
249.857727603
 21
120.2698874214
 31
0.0
  0
SPLINE
  5
1FD
330
1F
100
AcDbEntity
  8
0
  6
Continuous
 62
     7
370
    15
100
AcDbSpline
210
0.0
220
0.0
230
1.0
 70
     8
 71
     3
 72
    10
 73
     6
 74
     0
 42
0.00000001
 43
0.00000001
 12
1.0
 22
0.0
 32
0.0
 13
1.0
 23
0.0
 33
0.0
 40
0.0
 40
0.0
 40
0.0
 40
0.0
 40
0.2770383045251111
 40
0.6129322446277675
 40
1.0
 40
1.0
 40
1.0
 40
1.0
 10
80.18108177981706
 20
75.23014423639715
 30
0.0
 10
80.62498298858041
 20
75.3589102805038
 30
0.0
 10
81.60709037169731
 20
75.64379817924191
 30
0.0
 10
83.26519720510866
 20
75.90869683858028
 30
0.0
 10
84.4142706734653
 20
76.27467307815667
 30
0.0
 10
85.02947517314827
 20
76.47061375172079
 30
0.0
  0
LINE
  5
1FE
330
1F
100
AcDbEntity
  8
0
  6
Continuous
 62
     7
370
    15
100
AcDbLine
 10
80.5187675438
 20
97.4520075062
 30
0.0
 11
80.2187675293
 21
96.9323909769
 31
0.0
  0
LINE
  5
1FF
330
1F
100
AcDbEntity
  8
0
  6
Continuous
 62
     7
370
    15
100
AcDbLine
 10
80.5187675438
 20
103.2018962243
 30
0.0
 11
80.1810817798
 21
103.2872388998
 31
0.0
  0
LINE
  5
200
330
1F
100
AcDbEntity
  8
0
  6
Continuous
 62
     7
370
    15
100
AcDbLine
 10
84.9787674529
 20
76.5588099995
 30
0.0
 11
84.9787674529
 21
90.7616301367
 31
0.0
  0
LINE
  5
201
330
1F
100
AcDbEntity
  8
0
  6
Continuous
 62
     7
370
    15
100
AcDbLine
 10
80.2187675295
 20
75.6612571815
 30
0.0
 11
80.2187675295
 21
90.8824878672
 31
0.0
  0
SPLINE
  5
202
330
1F
100
AcDbEntity
  8
0
  6
Continuous
 62
     7
370
    15
100
AcDbSpline
210
0.0
220
0.0
230
1.0
 70
    24
 71
     3
 72
    15
 73
    11
 74
     0
 42
0.00000001
 43
0.00000001
 12
1.0
 22
0.0
 32
0.0
 13
1.0
 23
0.0
 33
0.0
 40
0.0
 40
0.0
 40
0.0
 40
0.0
 40
0.1437446840155724
 40
0.2878191660732099
 40
0.4234699798071589
 40
0.5496972420885615
 40
0.6718635774254205
 40
0.796194607652558
 40
0.9276132037464067
 40
0.9999999999999999
 40
0.9999999999999999
 40
0.9999999999999999
 40
0.9999999999999999
 10
84.97876745292818
 20
76.55880999953688
 30
0.0
 10
84.97876745292818
 20
76.54649002412278
 30
0.0
 10
84.97876745292818
 20
76.52182180717963
 30
0.0
 10
84.97876745292818
 20
76.48869943939481
 30
0.0
 10
84.97876745292818
 20
76.46452888571537
 30
0.0
 10
84.97876745292818
 20
76.45174153300715
 30
0.0
 10
84.97876745292818
 20
76.45009509154112
 30
0.0
 10
84.97876745292818
 20
76.4590605679274
 30
0.0
 10
84.97876745292818
 20
76.47470055608093
 30
0.0
 10
84.97876745292818
 20
76.48784309345328
 30
0.0
 10
84.97876745292818
 20
76.49251100809515
 30
0.0
  0
SPLINE
  5
203
330
1F
100
AcDbEntity
  8
0
  6
Continuous
 62
     7
370
    15
100
AcDbSpline
210
0.0
220
0.0
230
1.0
 70
    24
 71
     3
 72
    13
 73
     9
 74
     0
 42
0.00000001
 43
0.00000001
 12
1.0
 22
0.0
 32
0.0
 13
1.0
 23
0.0
 33
0.0
 40
0.0
 40
0.0
 40
0.0
 40
0.0
 40
0.0851245338248114
 40
0.2878162474698223
 40
0.485875425854624
 40
0.6861416583766218
 40
0.8939111007014916
 40
1.0
 40
1.0
 40
1.0
 40
1.0
 10
80.2187675295176
 20
75.24854717047155
 30
0.0
 10
80.21876752951691
 20
75.24698793880472
 30
0.0
 10
80.21876752951455
 20
75.24171598973055
 30
0.0
 10
80.21876752951842
 20
75.28016962765801
 30
0.0
 10
80.2187675295206
 20
75.35652070586313
 30
0.0
 10
80.21876752952001
 20
75.46546200912458
 30
0.0
 10
80.21876752952016
 20
75.57227970288399
 30
0.0
 10
80.21876752952015
 20
75.63877930367124
 30
0.0
 10
80.21876752952014
 20
75.66125718147696
 30
0.0
  0
SPLINE
  5
204
330
1F
100
AcDbEntity
  8
0
  6
Continuous
 62
     7
370
    15
100
AcDbSpline
210
0.0
220
0.0
230
1.0
 70
    24
 71
     3
 72
    10
 73
     6
 74
     0
 42
0.00000001
 43
0.00000001
 12
1.0
 22
0.0
 32
0.0
 13
1.0
 23
0.0
 33
0.0
 40
0.0
 40
0.0
 40
0.0
 40
0.0
 40
0.4164555360470784
 40
0.7035875826389146
 40
1.0
 40
1.0
 40
1.0
 40
1.0
 10
84.97876745292818
 20
90.81754301876963
 30
0.0
 10
84.97876745292818
 20
90.81052644672438
 30
0.0
 10
84.97876745292818
 20
90.7986721848971
 30
0.0
 10
84.97876745292818
 20
90.77930746740742
 30
0.0
 10
84.97876745292818
 20
90.76758472427932
 30
0.0
 10
84.97876745292818
 20
90.76163013668001
 30
0.0
  0
SPLINE
  5
205
330
1F
100
AcDbEntity
  8
0
  6
Continuous
 62
     7
370
    15
100
AcDbSpline
210
0.0
220
0.0
230
1.0
 70
    24
 71
     3
 72
    10
 73
     6
 74
     0
 42
0.00000001
 43
0.00000001
 12
1.0
 22
0.0
 32
0.0
 13
1.0
 23
0.0
 33
0.0
 40
0.0
 40
0.0
 40
0.0
 40
0.0
 40
0.2724823872825271
 40
0.5447547197091538
 40
0.9999999999999999
 40
0.9999999999999999
 40
0.9999999999999999
 40
0.9999999999999999
 10
80.21876752952014
 20
90.88248786718786
 30
0.0
 10
80.21876752952014
 20
90.90437998349077
 30
0.0
 10
80.21876752952014
 20
90.94814733961012
 30
0.0
 10
80.21876752952012
 20
91.02603442959446
 30
0.0
 10
80.21876752952014
 20
91.07530585908674
 30
0.0
 10
80.21876752952014
 20
91.10613753290116
 30
0.0
  0
LINE
  5
206
330
1F
100
AcDbEntity
  8
0
  6
Continuous
 62
     7
370
    15
100
AcDbLine
 10
84.9787674529
 20
90.8175430188
 30
0.0
 11
84.9787674529
 21
91.0686108211
 31
0.0
  0
LINE
  5
207
330
1F
100
AcDbEntity
  8
0
  6
Continuous
 62
     7
370
    15
100
AcDbLine
 10
80.2187675295
 20
91.1061375329
 30
0.0
 11
80.2187675295
 21
103.1170899907
 31
0.0
  0
SPLINE
  5
208
330
1F
100
AcDbEntity
  8
0
  6
Continuous
 62
     7
370
    15
100
AcDbSpline
210
0.0
220
0.0
230
1.0
 70
    24
 71
     3
 72
    10
 73
     6
 74
     0
 42
0.00000001
 43
0.00000001
 12
1.0
 22
0.0
 32
0.0
 13
1.0
 23
0.0
 33
0.0
 40
0.0
 40
0.0
 40
0.0
 40
0.0
 40
0.3887133360430355
 40
0.7760879507616447
 40
0.9999999999999999
 40
0.9999999999999999
 40
0.9999999999999999
 40
0.9999999999999999
 10
80.21876752952014
 20
103.1170899906868
 30
0.0
 10
80.21876752952001
 20
103.1509467019207
 30
0.0
 10
80.21876752951975
 20
103.2185435225202
 30
0.0
 10
80.21876752952139
 20
103.2701292460935
 30
0.0
 10
80.21876752951862
 20
103.2691976829447
 30
0.0
 10
80.2187675295176
 20
103.268856454801
 30
0.0
  0
LINE
  5
209
330
1F
100
AcDbEntity
  8
0
  6
Continuous
 62
     7
370
    15
100
AcDbLine
 10
84.9787674529
 20
77.4062762895
 30
0.0
 11
94.8650378419
 21
81.1851250866
 31
0.0
  0
LINE
  5
20A
330
1F
100
AcDbEntity
  8
0
  6
Continuous
 62
     7
370
    15
100
AcDbLine
 10
84.9787674529
 20
91.6030465552
 30
0.0
 11
84.9787674529
 21
91.0686108211
 31
0.0
  0
LINE
  5
20B
330
1F
100
AcDbEntity
  8
0
  6
Continuous
 62
     7
370
    15
100
AcDbLine
 10
84.9787674529
 20
90.8175430188
 30
0.0
 11
84.9787674529
 21
90.7825960705
 31
0.0
  0
LINE
  5
20C
330
1F
100
AcDbEntity
  8
0
  6
Continuous
 62
     7
370
    15
100
AcDbLine
 10
84.9787674529
 20
91.6030465552
 30
0.0
 11
82.4787675088
 21
91.1819043496
 31
0.0
  0
LINE
  5
20D
330
1F
100
AcDbEntity
  8
0
  6
Continuous
 62
     7
370
    15
100
AcDbLine
 10
82.4787675088
 20
91.1819043496
 30
0.0
 11
80.5187675438
 21
91.2707283089
 31
0.0
  0
LINE
  5
20E
330
1F
100
AcDbEntity
  8
0
  6
Continuous
 62
     7
370
    15
100
AcDbLine
 10
80.5187675438
 20
91.2707283089
 30
0.0
 11
80.5187675438
 21
114.2698873693
 31
0.0
  0
LINE
  5
20F
330
1F
100
AcDbEntity
  8
0
  6
Continuous
 62
     7
370
    15
100
AcDbLine
 10
106.7187672166
 20
114.2698873693
 30
0.0
 11
80.5187675438
 21
114.2698873693
 31
0.0
  0
LINE
  5
210
330
1F
100
AcDbEntity
  8
0
  6
Continuous
 62
     7
370
    15
100
AcDbLine
 10
106.7187672166
 20
114.2698873693
 30
0.0
 11
106.7187672166
 21
103.2698864976
 31
0.0
  0
ARC
  5
211
330
1F
100
AcDbEntity
  8
0
  6
Continuous
 62
     7
370
    15
100
AcDbCircle
 10
80.2187675295
 20
103.2698874214
 30
0.0
 40
26.50000000000001
100
AcDbArc
 50
303.5517154024
 51
0.0
  0
ARC
  5
212
330
1F
100
AcDbEntity
  8
0
  6
Continuous
 62
     7
370
    15
100
AcDbCircle
 10
80.2187675295
 20
103.2698874214
 30
0.0
 40
26.50000000000001
100
AcDbArc
 50
302.4629426694
 51
303.5517154024
  0
LINE
  5
213
330
1F
100
AcDbEntity
  8
0
  6
Continuous
 62
     7
370
    15
100
AcDbLine
 10
94.4427491782
 20
80.9108096102
 30
0.0
 11
84.9787674529
 21
77.2933739165
 31
0.0
  0
LINE
  5
214
330
1F
100
AcDbEntity
  8
0
  6
Continuous
 62
     7
370
    15
100
AcDbLine
 10
106.7187672166
 20
120.2698874214
 30
0.0
 11
106.7187672166
 21
114.2698873693
 31
0.0
  0
ARC
  5
215
330
1F
100
AcDbEntity
  8
0
  6
Continuous
 62
     7
370
    15
100
AcDbCircle
 10
80.2187675295
 20
120.2698874214
 30
0.0
 40
26.50000000000001
100
AcDbArc
 50
0.0
 51
89.3513546783
  0
LINE
  5
216
330
1F
100
AcDbEntity
  8
0
  6
Continuous
 62
     7
370
    15
100
AcDbLine
 10
80.5187675438
 20
114.2698873693
 30
0.0
 11
80.5187675438
 21
146.7681883761
 31
0.0
  0
SPLINE
  5
217
330
1F
100
AcDbEntity
  8
0
  6
Continuous
 62
     7
370
    15
100
AcDbSpline
210
0.0
220
0.0
230
1.0
 70
     8
 71
     3
 72
    13
 73
     9
 74
     0
 42
0.00000001
 43
0.00000001
 12
1.0
 22
0.0
 32
0.0
 13
1.0
 23
0.0
 33
0.0
 40
0.0
 40
0.0
 40
0.0
 40
0.0
 40
0.0921773204882902
 40
0.259977300002264
 40
0.4277715926626126
 40
0.5950821988991323
 40
0.7623857758997848
 40
1.0
 40
1.0
 40
1.0
 40
1.0
 10
80.21876752952005
 20
94.27028735370577
 30
0.0
 10
80.1661051813215
 20
94.27018939674159
 30
0.0
 10
80.01757607433605
 20
94.26991311851035
 30
0.0
 10
79.59564399361666
 20
94.27547473508987
 30
0.0
 10
78.98809210531759
 20
94.29589096662635
 30
0.0
 10
78.24409792418253
 20
94.34166671536234
 30
0.0
 10
77.28759202751398
 20
94.42565790961955
 30
0.0
 10
76.52133647018968
 20
94.5372626302699
 30
0.0
 10
76.07168170267617
 20
94.60275461168229
 30
0.0
  0
SPLINE
  5
218
330
1F
100
AcDbEntity
  8
0
  6
Continuous
 62
     7
370
    15
100
AcDbSpline
210
0.0
220
0.0
230
1.0
 70
     8
 71
     3
 72
    20
 73
    16
 74
     0
 42
0.00000001
 43
0.00000001
 12
1.0
 22
0.0
 32
0.0
 13
1.0
 23
0.0
 33
0.0
 40
0.0
 40
0.0
 40
0.0
 40
0.0
 40
0.2500000000000012
 40
0.2500000000000012
 40
0.3750000000000009
 40
0.3750000000000009
 40
0.5000000000000008
 40
0.5000000000000008
 40
0.6250000000000006
 40
0.6250000000000006
 40
0.7500000000000003
 40
0.7500000000000003
 40
0.8750000000000002
 40
0.8750000000000002
 40
1.0
 40
1.0
 40
1.0
 40
1.0
 10
76.07168180013525
 20
145.9370197106763
 30
0.0
 10
76.67321153512572
 20
146.0342099753178
 30
0.0
 10
77.23805302412299
 20
146.1038808539881
 30
0.0
 10
78.02805944603877
 20
146.1787810103583
 30
0.0
 10
78.27776844641033
 20
146.1983757033483
 30
0.0
 10
78.74144398146298
 20
146.2289224027339
 30
0.0
 10
78.95694197737203
 20
146.2400114837963
 30
0.0
 10
79.35434060216093
 20
146.2562745044011
 30
0.0
 10
79.53502829437618
 20
146.2613732199499
 30
0.0
 10
79.8501357980982
 20
146.2677516414563
 30
0.0
 10
79.98632691824106
 20
146.2691007709952
 30
0.0
 10
80.21543967348967
 20
146.2701395809641
 30
0.0
 10
80.30818641304262
 20
146.2698221285919
 30
0.0
 10
80.44383809338389
 20
146.2690017093186
 30
0.0
 10
80.4877687867053
 20
146.268503127117
 30
0.0
 10
80.50726855573403
 20
146.2682867405885
 30
0.0
  0
ELLIPSE
  5
219
330
1F
100
AcDbEntity
  8
0
  6
Continuous
 62
     7
370
    15
100
AcDbEllipse
 10
73.1384863971
 20
103.7702568757
 30
0.0
 11
-1.499497772774717
 21
3.184873685676109
 31
0.0
210
0.0
220
0.0
230
1.0
 40
0.6906834449
 41
0.0
 42
6.283185307179586
  0
ARC
  5
21A
330
1F
100
AcDbEntity
  8
0
  6
Continuous
 62
     7
370
    15
100
AcDbCircle
 10
80.2187675295
 20
120.2698874214
 30
0.0
 40
26.00000000000003
100
AcDbArc
 50
99.1780670049
 51
260.8219329951
  0
ARC
  5
21B
330
1F
100
AcDbEntity
  8
0
  6
Continuous
 62
     7
370
    15
100
AcDbCircle
 10
72.1559113373
 20
108.8802984431
 30
0.0
 40
2.839969214309753
100
AcDbArc
 50
299.9688506499
 51
306.9116841234
  0
SPLINE
  5
21C
330
1F
100
AcDbEntity
  8
0
  6
Continuous
 62
     7
370
    15
100
AcDbSpline
210
0.0
220
0.0
230
1.0
 70
     8
 71
     3
 72
    18
 73
    14
 74
     0
 42
0.00000001
 43
0.00000001
 12
1.0
 22
0.0
 32
0.0
 13
1.0
 23
0.0
 33
0.0
 40
0.0
 40
0.0
 40
0.0
 40
0.0
 40
0.0305691375906167
 40
0.0611704937183979
 40
0.1329972410890556
 40
0.2811244628745971
 40
0.4327674583106155
 40
0.5881237042546906
 40
0.7056194890306732
 40
0.783959972940177
 40
0.8629453498995193
 40
0.9301908421536259
 40
1.0
 40
1.0
 40
1.0
 40
1.0
 10
73.57455861398851
 20
106.4200413340443
 30
0.0
 10
73.60785136683039
 20
106.3956090883361
 30
0.0
 10
73.67447196162294
 20
106.3467188463986
 30
0.0
 10
73.71406401482389
 20
106.1541495122097
 30
0.0
 10
73.61799184239364
 20
105.718505474405
 30
0.0
 10
73.34471561221103
 20
105.0889854106193
 30
0.0
 10
72.90539625191956
 20
104.4008860711707
 30
0.0
 10
72.38702169574495
 20
103.886013981978
 30
0.0
 10
71.86079650834459
 20
103.6406381700277
 30
0.0
 10
71.3974647529827
 20
103.6407823593062
 30
0.0
 10
71.01799560947391
 20
103.8272853724494
 30
0.0
 10
70.70211164520029
 20
104.1550648751265
 30
0.0
 10
70.57128890086192
 20
104.4319670640111
 30
0.0
 10
70.50465398112213
 20
104.5730079451317
 30
0.0
  0
LINE
  5
21D
330
1F
100
AcDbEntity
  8
0
  6
Continuous
 62
     7
370
    15
100
AcDbLine
 10
73.7816316692
 20
106.6165075564
 30
0.0
 11
73.574558614
 21
106.420041334
 31
0.0
  0
SPLINE
  5
21E
330
1F
100
AcDbEntity
  8
0
  6
Continuous
 62
     7
370
    15
100
AcDbSpline
210
0.0
220
0.0
230
1.0
 70
    24
 71
     3
 72
     9
 73
     5
 74
     0
 42
0.00000001
 43
0.00000001
 12
1.0
 22
0.0
 32
0.0
 13
1.0
 23
0.0
 33
0.0
 40
0.0
 40
0.0
 40
0.0
 40
0.0
 40
0.6881927470336382
 40
1.0
 40
1.0
 40
1.0
 40
1.0
 10
85.8791561482278
 20
146.6698872783893
 30
0.0
 10
84.93580931130832
 20
146.6698872783893
 30
0.0
 10
83.56504967894419
 20
146.6698872783893
 30
0.0
 10
82.19396530927168
 20
146.6698872783893
 30
0.0
 10
81.76645125837898
 20
146.6698872783893
 30
0.0
  0
SPLINE
  5
21F
330
1F
100
AcDbEntity
  8
0
  6
Continuous
 62
     7
370
    15
100
AcDbSpline
210
0.0
220
0.0
230
1.0
 70
    24
 71
     3
 72
    10
 73
     6
 74
     0
 42
0.00000001
 43
0.00000001
 12
1.0
 22
0.0
 32
0.0
 13
1.0
 23
0.0
 33
0.0
 40
0.0
 40
0.0
 40
0.0
 40
0.0
 40
0.0503274356820612
 40
0.3857712687057358
 40
1.0
 40
1.0
 40
1.0
 40
1.0
 10
80.51876754376939
 20
146.6698872783893
 30
0.0
 10
80.41876967649559
 20
146.6698872783893
 30
0.0
 10
79.65226322522754
 20
146.6698872783893
 30
0.0
 10
77.66434115768133
 20
146.6698872783893
 30
0.0
 10
75.77825848741666
 20
146.6698872783893
 30
0.0
 10
74.5583789108125
 20
146.6698872783893
 30
0.0
  0
SPLINE
  5
220
330
1F
100
AcDbEntity
  8
0
  6
Continuous
 62
     7
370
    15
100
AcDbSpline
210
0.0
220
0.0
230
1.0
 70
    24
 71
     3
 72
    10
 73
     6
 74
     0
 42
0.00000001
 43
0.00000001
 12
1.0
 22
0.0
 32
0.0
 13
1.0
 23
0.0
 33
0.0
 40
0.0
 40
0.0
 40
0.0
 40
0.0
 40
0.5
 40
0.5
 40
1.0
 40
1.0
 40
1.0
 40
1.0
 10
80.21876752952015
 20
93.86988742144048
 30
0.0
 10
79.27454993599147
 20
93.86988742144048
 30
0.0
 10
78.33141214287225
 20
93.86988742144048
 30
0.0
 10
76.44571751382065
 20
93.86988742144048
 30
0.0
 10
75.50306736375566
 20
93.86988742144048
 30
0.0
 10
74.55837885028619
 20
93.86988742144048
 30
0.0
  0
SPLINE
  5
221
330
1F
100
AcDbEntity
  8
0
  6
Continuous
 62
     7
370
    15
100
AcDbSpline
210
0.0
220
0.0
230
1.0
 70
    24
 71
     3
 72
    10
 73
     6
 74
     0
 42
0.00000001
 43
0.00000001
 12
1.0
 22
0.0
 32
0.0
 13
1.0
 23
0.0
 33
0.0
 40
0.0
 40
0.0
 40
0.0
 40
0.0
 40
0.5
 40
0.5
 40
1.0
 40
1.0
 40
1.0
 40
1.0
 10
71.21876752952014
 20
90.70961002084765
 30
0.0
 10
71.21876752952014
 20
90.54972275265399
 30
0.0
 10
71.21876752952014
 20
90.3885954971394
 30
0.0
 10
71.21876752952014
 20
90.15449649878457
 30
0.0
 10
71.21876752952014
 20
90.08296972519334
 30
0.0
 10
71.21876752952014
 20
90.08296972519334
 30
0.0
  0
ARC
  5
222
330
1F
100
AcDbEntity
  8
0
  6
Continuous
 62
     7
370
    15
100
AcDbCircle
 10
80.2187675295
 20
120.2698874214
 30
0.0
 40
31.5
100
AcDbArc
 50
140.9381656697
 51
253.398450401
  0
SPLINE
  5
223
330
1F
100
AcDbEntity
  8
0
  6
Continuous
 62
     7
370
    15
100
AcDbSpline
210
0.0
220
0.0
230
1.0
 70
    24
 71
     3
 72
    12
 73
     8
 74
     0
 42
0.00000001
 43
0.00000001
 12
1.0
 22
0.0
 32
0.0
 13
1.0
 23
0.0
 33
0.0
 40
0.0
 40
0.0
 40
0.0
 40
0.0
 40
0.2500000000000006
 40
0.2500000000000006
 40
0.5000000000000012
 40
0.5000000000000012
 40
1.0
 40
1.0
 40
1.0
 40
1.0
 10
55.76007786715253
 20
140.1198874214405
 30
0.0
 10
55.76007786715252
 20
140.1198874214405
 30
0.0
 10
55.78790758745601
 20
140.1198874214405
 30
0.0
 10
55.88305004871268
 20
140.1198874214405
 30
0.0
 10
55.94947286501304
 20
140.1198874214405
 30
0.0
 10
56.17367229653317
 20
140.1198874214405
 30
0.0
 10
56.35765869907878
 20
140.1198874214405
 30
0.0
 10
56.53781526826176
 20
140.1198874214405
 30
0.0
  0
SPLINE
  5
224
330
1F
100
AcDbEntity
  8
0
  6
Continuous
 62
     7
370
    15
100
AcDbSpline
210
0.0
220
0.0
230
1.0
 70
    24
 71
     3
 72
    10
 73
     6
 74
     0
 42
0.00000001
 43
0.00000001
 12
1.0
 22
0.0
 32
0.0
 13
1.0
 23
0.0
 33
0.0
 40
0.0
 40
0.0
 40
0.0
 40
0.0
 40
0.5
 40
0.5
 40
1.0
 40
1.0
 40
1.0
 40
1.0
 10
72.21876752952014
 20
150.1163277452044
 30
0.0
 10
72.21876752952014
 20
150.2767330115551
 30
0.0
 10
72.21876752952014
 20
150.4357948245438
 30
0.0
 10
72.21876752952014
 20
150.6667072901741
 30
0.0
 10
72.21876752952014
 20
150.7370828946047
 30
0.0
 10
72.21876752952014
 20
150.7370828946047
 30
0.0
  0
SPLINE
  5
225
330
1F
100
AcDbEntity
  8
0
  6
Continuous
 62
     7
370
    15
100
AcDbSpline
210
0.0
220
0.0
230
1.0
 70
    24
 71
     3
 72
    12
 73
     8
 74
     0
 42
0.00000001
 43
0.00000001
 12
1.0
 22
0.0
 32
0.0
 13
1.0
 23
0.0
 33
0.0
 40
0.0
 40
0.0
 40
0.0
 40
0.0
 40
0.249999999999998
 40
0.249999999999998
 40
0.499999999999996
 40
0.499999999999996
 40
1.0
 40
1.0
 40
1.0
 40
1.0
 10
60.36876752952014
 20
144.7285770838079
 30
0.0
 10
60.36876752952014
 20
144.7285770838079
 30
0.0
 10
60.36876752952013
 20
144.70035738522
 30
0.0
 10
60.36876752952014
 20
144.6059143779719
 30
0.0
 10
60.36876752952013
 20
144.5396274012666
 30
0.0
 10
60.36876752952013
 20
144.3140025779783
 30
0.0
 10
60.36876752952013
 20
144.1315763149457
 30
0.0
 10
60.36876752952014
 20
143.9508396826988
 30
0.0
  0
ARC
  5
226
330
1F
100
AcDbEntity
  8
0
  6
Continuous
 62
     7
370
    15
100
AcDbCircle
 10
80.2187675295
 20
120.2698874214
 30
0.0
 40
31.49999999999999
100
AcDbArc
 50
104.7124579609
 51
129.0618343303
  0
SPLINE
  5
227
330
1F
100
AcDbEntity
  8
0
  6
Continuous
 62
     7
370
    15
100
AcDbSpline
210
0.0
220
0.0
230
1.0
 70
    24
 71
     3
 72
    12
 73
     8
 74
     0
 42
0.00000001
 43
0.00000001
 12
1.0
 22
0.0
 32
0.0
 13
1.0
 23
0.0
 33
0.0
 40
0.0
 40
0.0
 40
0.0
 40
0.0
 40
0.2500000000000038
 40
0.2500000000000038
 40
0.5000000000000077
 40
0.5000000000000077
 40
1.0
 40
1.0
 40
1.0
 40
1.0
 10
88.21876752952014
 20
150.7370828946047
 30
0.0
 10
88.21876752952014
 20
150.7370828946047
 30
0.0
 10
88.21876752952014
 20
150.7200801446439
 30
0.0
 10
88.21876752952014
 20
150.6560196035323
 30
0.0
 10
88.21876752952014
 20
150.6088609878937
 30
0.0
 10
88.21876752952014
 20
150.4356389552014
 30
0.0
 10
88.21876752952014
 20
150.2755298649672
 30
0.0
 10
88.21876752952014
 20
150.1163277452038
 30
0.0
  0
ARC
  5
228
330
1F
100
AcDbEntity
  8
0
  6
Continuous
 62
     7
370
    15
100
AcDbCircle
 10
80.2187675295
 20
120.2698874214
 30
0.0
 40
31.49999999999998
100
AcDbArc
 50
327.2744007265
 51
75.2875420391
  0
LINE
  5
229
330
1F
100
AcDbEntity
  8
0
  6
Continuous
 62
     7
370
    15
100
AcDbLine
 10
88.2187679095
 20
150.1163284221
 30
0.0
 11
88.2187679095
 21
146.6698872784
 31
0.0
  0
LINE
  5
22A
330
1F
100
AcDbEntity
  8
0
  6
Continuous
 62
     7
370
    15
100
AcDbLine
 10
88.2187679095
 20
146.6698872784
 30
0.0
 11
85.8791561482
 21
146.6698872784
 31
0.0
  0
LINE
  5
22B
330
1F
100
AcDbEntity
  8
0
  6
Continuous
 62
     7
370
    15
100
AcDbLine
 10
72.2187671495
 20
146.6698872784
 30
0.0
 11
72.2187671495
 21
150.1163284221
 31
0.0
  0
LINE
  5
22C
330
1F
100
AcDbEntity
  8
0
  6
Continuous
 62
     7
370
    15
100
AcDbLine
 10
71.218767917
 20
93.8698875645
 30
0.0
 11
71.218767917
 21
90.709610183
 31
0.0
  0
LINE
  5
22D
330
1F
100
AcDbEntity
  8
0
  6
Continuous
 62
     7
370
    15
100
AcDbLine
 10
60.3687667904
 20
143.9508388677
 30
0.0
 11
60.3687667904
 21
140.1198881605
 31
0.0
  0
LINE
  5
22E
330
1F
100
AcDbEntity
  8
0
  6
Continuous
 62
     7
370
    15
100
AcDbLine
 10
56.5378160832
 20
140.1198881605
 30
0.0
 11
60.3687667904
 21
140.1198881605
 31
0.0
  0
LINE
  5
22F
330
1F
100
AcDbEntity
  8
0
  6
Continuous
 62
     7
370
    15
100
AcDbLine
 10
74.5583789108
 20
146.6698872784
 30
0.0
 11
72.2187671495
 21
146.6698872784
 31
0.0
  0
LINE
  5
230
330
1F
100
AcDbEntity
  8
0
  6
Continuous
 62
     7
370
    15
100
AcDbLine
 10
74.5583789108
 20
93.8698875645
 30
0.0
 11
71.218767917
 21
93.8698875645
 31
0.0
  0
SPLINE
  5
231
330
1F
100
AcDbEntity
  8
0
  6
Continuous
 62
     7
370
    15
100
AcDbSpline
210
0.0
220
0.0
230
1.0
 70
     8
 71
     3
 72
    28
 73
    24
 74
     0
 42
0.00000001
 43
0.00000001
 12
1.0
 22
0.0
 32
0.0
 13
1.0
 23
0.0
 33
0.0
 40
0.0
 40
0.0
 40
0.0
 40
0.0
 40
0.1250000000000001
 40
0.1250000000000001
 40
0.1875000000000001
 40
0.1875000000000001
 40
0.2500000000000001
 40
0.2500000000000001
 40
0.375
 40
0.375
 40
0.4375000000000001
 40
0.4375000000000001
 40
0.5
 40
0.5
 40
0.625
 40
0.625
 40
0.7499999999999999
 40
0.7499999999999999
 40
0.8124999999999999
 40
0.8124999999999999
 40
0.875
 40
0.875
 40
1.0
 40
1.0
 40
1.0
 40
1.0
 10
71.21876752952014
 20
90.08296972519334
 30
0.0
 10
71.21876752952014
 20
90.08296972519334
 30
0.0
 10
71.27124387183835
 20
90.06718501124311
 30
0.0
 10
71.42504081939525
 20
90.02218959716691
 30
0.0
 10
71.48891579442926
 20
90.00363460209118
 30
0.0
 10
71.64241206308579
 20
89.9597818796447
 30
0.0
 10
71.73222703847948
 20
89.93443727269249
 30
0.0
 10
72.03420583353035
 20
89.8510351949424
 30
0.0
 10
72.2801592675861
 20
89.78516963579129
 30
0.0
 10
72.71552644701448
 20
89.67619929529951
 30
0.0
 10
72.87274162918683
 20
89.63795965953287
 30
0.0
 10
73.20490624972928
 20
89.56020092211352
 30
0.0
 10
73.37971351533217
 20
89.52069995993817
 30
0.0
 10
73.92977270591798
 20
89.40179221757217
 30
0.0
 10
74.33039609031346
 20
89.32197453614754
 30
0.0
 10
75.20298220166217
 20
89.16863137435146
 30
0.0
 10
75.66311764926374
 20
89.09729762108222
 30
0.0
 10
76.38308374322992
 20
89.0033541140076
 30
0.0
 10
76.62835745326444
 20
88.97416032064767
 30
0.0
 10
77.12981378969327
 20
88.92069374638426
 30
0.0
 10
77.3872451590658
 20
88.89633441210908
 30
0.0
 10
78.1631849549303
 20
88.83274426666436
 30
0.0
 10
78.68741335483632
 20
88.8026413315751
 30
0.0
 10
79.21876752952015
 20
88.78576443857817
 30
0.0
  0
SPLINE
  5
232
330
1F
100
AcDbEntity
  8
0
  6
Continuous
 62
     7
370
    15
100
AcDbSpline
210
0.0
220
0.0
230
1.0
 70
     8
 71
     3
 72
    50
 73
    46
 74
     0
 42
0.00000001
 43
0.00000001
 12
1.0
 22
0.0
 32
0.0
 13
1.0
 23
0.0
 33
0.0
 40
0.0
 40
0.0
 40
0.0
 40
0.0
 40
0.0625000000000003
 40
0.0625000000000003
 40
0.0937500000000003
 40
0.0937500000000003
 40
0.1250000000000004
 40
0.1250000000000004
 40
0.1875000000000002
 40
0.1875000000000002
 40
0.2187500000000001
 40
0.2187500000000001
 40
0.2500000000000001
 40
0.2500000000000001
 40
0.3125000000000001
 40
0.3125000000000001
 40
0.375
 40
0.375
 40
0.40625
 40
0.40625
 40
0.4375000000000001
 40
0.4375000000000001
 40
0.5
 40
0.5
 40
0.5624999999999999
 40
0.5624999999999999
 40
0.6249999999999999
 40
0.6249999999999999
 40
0.6562499999999999
 40
0.6562499999999999
 40
0.6874999999999999
 40
0.6874999999999999
 40
0.71875
 40
0.71875
 40
0.75
 40
0.75
 40
0.8125
 40
0.8125
 40
0.8750000000000001
 40
0.8750000000000001
 40
0.9375000000000001
 40
0.9375000000000001
 40
0.9687500000000001
 40
0.9687500000000001
 40
1.0
 40
1.0
 40
1.0
 40
1.0
 10
72.21876752952014
 20
150.7370828946047
 30
0.0
 10
72.21876752952014
 20
150.7370828946047
 30
0.0
 10
72.27106167147319
 20
150.7509489979859
 30
0.0
 10
72.42441420630595
 20
150.7903861408699
 30
0.0
 10
72.48811170165717
 20
150.806638843135
 30
0.0
 10
72.64120335194698
 20
150.8449875529853
 30
0.0
 10
72.73085945390781
 20
150.8671409993934
 30
0.0
 10
73.03244084208185
 20
150.9398969452554
 30
0.0
 10
73.27818227251582
 20
150.9971776481001
 30
0.0
 10
73.7133423388665
 20
151.0911700875559
 30
0.0
 10
73.87048316632767
 20
151.1240290547491
 30
0.0
 10
74.20312225905197
 20
151.1906051081973
 30
0.0
 10
74.378188214492
 20
151.2242485460363
 30
0.0
 10
74.92904374519361
 20
151.3248094106134
 30
0.0
 10
75.33022815438026
 20
151.3913722203634
 30
0.0
 10
76.20371736046766
 20
151.516071275663
 30
0.0
 10
76.6657579534501
 20
151.5725942847336
 30
0.0
 10
77.38687336704402
 20
151.6432632193485
 30
0.0
 10
77.6324340047274
 20
151.6645394294199
 30
0.0
 10
78.1342223038856
 20
151.7018451556619
 30
0.0
 10
78.39198352020226
 20
151.7179363525219
 30
0.0
 10
79.16709598442202
 20
151.7565778241296
 30
0.0
 10
79.6875251681417
 20
151.769767242686
 30
0.0
 10
80.73566100892708
 20
151.770005966144
 30
0.0
 10
81.26816933930084
 20
151.7566059634399
 30
0.0
 10
82.29585960146744
 20
151.7055419752447
 30
0.0
 10
82.79562378204918
 20
151.6681028404905
 30
0.0
 10
83.52411878206964
 20
151.5969393575721
 30
0.0
 10
83.76346977451513
 20
151.5706708993795
 30
0.0
 10
84.224708246002
 20
151.5149894266273
 30
0.0
 10
84.44797490106926
 20
151.4854516546914
 30
0.0
 10
84.88016250709134
 20
151.4238445096637
 30
0.0
 10
85.0890830873313
 20
151.3917735669424
 30
0.0
 10
85.49250801285501
 20
151.3259565899731
 30
0.0
 10
85.68798767282438
 20
151.2920263715099
 30
0.0
 10
86.2438458863606
 20
151.1905977439296
 30
0.0
 10
86.57340327299218
 20
151.1236787152395
 30
0.0
 10
87.15279877077812
 20
150.9986531528977
 30
0.0
 10
87.40431874222251
 20
150.9400763586637
 30
0.0
 10
87.80577323883607
 20
150.8432415070187
 30
0.0
 10
87.95825623438317
 20
150.8044865474595
 30
0.0
 10
88.1135671835584
 20
150.7645590170232
 30
0.0
 10
88.15308063096457
 20
150.7542672257727
 30
0.0
 10
88.20559397826035
 20
150.7405510132338
 30
0.0
 10
88.21876752952014
 20
150.7370828946047
 30
0.0
 10
88.21876752952014
 20
150.7370828946047
 30
0.0
  0
SPLINE
  5
233
330
1F
100
AcDbEntity
  8
0
  6
Continuous
 62
     7
370
    15
100
AcDbSpline
210
0.0
220
0.0
230
1.0
 70
     8
 71
     3
 72
    20
 73
    16
 74
     0
 42
0.00000001
 43
0.00000001
 12
1.0
 22
0.0
 32
0.0
 13
1.0
 23
0.0
 33
0.0
 40
0.0
 40
0.0
 40
0.0
 40
0.0
 40
0.2500000000000005
 40
0.2500000000000005
 40
0.3750000000000004
 40
0.3750000000000004
 40
0.5000000000000003
 40
0.5000000000000003
 40
0.6250000000000002
 40
0.6250000000000002
 40
0.7500000000000001
 40
0.7500000000000001
 40
0.8750000000000001
 40
0.8750000000000001
 40
1.0
 40
1.0
 40
1.0
 40
1.0
 10
55.76007786715273
 20
140.1198874214405
 30
0.0
 10
56.2907346349874
 20
140.7737498497379
 30
0.0
 10
56.82446263124892
 20
141.377535631735
 30
0.0
 10
57.60743494923766
 20
142.2043743679036
 30
0.0
 10
57.86541854933434
 20
142.4668030058565
 30
0.0
 10
58.36981380574217
 20
142.9634656599615
 30
0.0
 10
58.61259222817017
 20
143.194052538983
 30
0.0
 10
59.06327230768324
 20
143.6106067635657
 30
0.0
 10
59.27273617367451
 20
143.7981045655332
 30
0.0
 10
59.65102469026256
 20
144.1295015431696
 30
0.0
 10
59.81477237644703
 20
144.2690055306649
 30
0.0
 10
60.08295817864648
 20
144.4944590381358
 30
0.0
 10
60.18818258673324
 20
144.5810851496794
 30
0.0
 10
60.33224181204675
 20
144.6990659385336
 30
0.0
 10
60.36876752952014
 20
144.7285770838079
 30
0.0
 10
60.36876752952014
 20
144.7285770838079
 30
0.0
  0
ARC
  5
234
330
1F
100
AcDbEntity
  8
0
  6
Continuous
 62
     7
370
    15
100
AcDbCircle
 10
80.2187675295
 20
120.2698874214
 30
0.0
 40
31.49999999999999
100
AcDbArc
 50
268.180780706
 51
270.0
  0
CIRCLE
  5
235
330
1F
100
AcDbEntity
  8
VERMASSUNG
  6
CENTERX2
100
AcDbCircle
 10
80.2187675295
 20
115.4002949595
 30
0.0
 40
39.99999999999999
  0
POINT
  5
236
330
1F
100
AcDbEntity
  8
VERMASSUNG
100
AcDbPoint
 10
80.2187675295
 20
75.4002949595
 30
0.0
  0
DIMENSION
  5
237
330
1F
100
AcDbEntity
  8
VERMASSUNG
100
AcDbDimension
  2
_D_5
 10
100.2187675295
 20
150.0413111109
 30
0.0
 11
55.7009065304
 21
72.9341066957
 31
0.0
 70
   163
  1
<> min. 
 71
     1
 42
-1.0
  3
SLDDIMSTYLE2
100
AcDbDiametricDimension
 15
60.2187675295
 25
80.7592788081
 35
0.0
 40
0.0
  0
INSERT
  5
24C
330
1F
100
AcDbEntity
  8
VERMASSUNG
100
AcDbBlockReference
  2
SW_CENTERMARKSYMBOL_0
 10
80.2187675295
 20
120.2698874214
 30
0.0
  0
OLE2FRAME
  5
24D
330
1F
100
AcDbEntity
  8
0
100
AcDbOle2Frame
 70
     2
  3
Paintbrush-Bild
 10
13.8511154363
 20
38.264191557
 30
0.0
 11
51.6290888628
 21
31.9806341108
 31
0.0
 71
     2
 72
     0
 73
     1
 90
    12928
310
80552BED0767C5B32B40DDAF6807D121434000000000000000006FFBDDFB85D0
310
4940DDAF6807D121434000000000000000006FFBDDFB85D04940416F4BD60AFB
310
3F4000000000000000002BED0767C5B32B40416F4BD60AFB3F40000000000000
310
0000000000000100000000010000010000000100000000000100000000320000
310
D0CF11E0A1B11AE1000000000000000000000000000000003E000300FEFF0900
310
0600000000000000000000000100000001000000000000000010000002000000
310
01000000FEFFFFFF0000000000000000FFFFFFFFFFFFFFFFFFFFFFFFFFFFFFFF
310
FFFFFFFFFFFFFFFFFFFFFFFFFFFFFFFFFFFFFFFFFFFFFFFFFFFFFFFFFFFFFFFF
310
FFFFFFFFFFFFFFFFFFFFFFFFFFFFFFFFFFFFFFFFFFFFFFFFFFFFFFFFFFFFFFFF
310
FFFFFFFFFFFFFFFFFFFFFFFFFFFFFFFFFFFFFFFFFFFFFFFFFFFFFFFFFFFFFFFF
310
FFFFFFFFFFFFFFFFFFFFFFFFFFFFFFFFFFFFFFFFFFFFFFFFFFFFFFFFFFFFFFFF
310
FFFFFFFFFFFFFFFFFFFFFFFFFFFFFFFFFFFFFFFFFFFFFFFFFFFFFFFFFFFFFFFF
310
FFFFFFFFFFFFFFFFFFFFFFFFFFFFFFFFFFFFFFFFFFFFFFFFFFFFFFFFFFFFFFFF
310
FFFFFFFFFFFFFFFFFFFFFFFFFFFFFFFFFFFFFFFFFFFFFFFFFFFFFFFFFFFFFFFF
310
FFFFFFFFFFFFFFFFFFFFFFFFFFFFFFFFFFFFFFFFFFFFFFFFFFFFFFFFFFFFFFFF
310
FFFFFFFFFFFFFFFFFFFFFFFFFFFFFFFFFFFFFFFFFFFFFFFFFFFFFFFFFFFFFFFF
310
FFFFFFFFFFFFFFFFFFFFFFFFFFFFFFFFFFFFFFFFFFFFFFFFFFFFFFFFFFFFFFFF
310
FFFFFFFFFFFFFFFFFFFFFFFFFFFFFFFFFFFFFFFFFFFFFFFFFFFFFFFFFFFFFFFF
310
FFFFFFFFFFFFFFFFFFFFFFFFFFFFFFFFFFFFFFFFFFFFFFFFFFFFFFFFFFFFFFFF
310
FFFFFFFFFFFFFFFFFFFFFFFFFFFFFFFFFFFFFFFFFFFFFFFFFFFFFFFFFFFFFFFF
310
FDFFFFFFFEFFFFFFFEFFFFFFFEFFFFFF05000000060000000700000008000000
310
090000000A0000000B0000000C0000000D0000000E0000000F00000010000000
310
11000000120000001300000014000000150000001600000017000000FEFFFFFF
310
FFFFFFFFFFFFFFFFFFFFFFFFFFFFFFFFFFFFFFFFFFFFFFFFFFFFFFFFFFFFFFFF
310
FFFFFFFFFFFFFFFFFFFFFFFFFFFFFFFFFFFFFFFFFFFFFFFFFFFFFFFFFFFFFFFF
310
FFFFFFFFFFFFFFFFFFFFFFFFFFFFFFFFFFFFFFFFFFFFFFFFFFFFFFFFFFFFFFFF
310
FFFFFFFFFFFFFFFFFFFFFFFFFFFFFFFFFFFFFFFFFFFFFFFFFFFFFFFFFFFFFFFF
310
FFFFFFFFFFFFFFFFFFFFFFFFFFFFFFFFFFFFFFFFFFFFFFFFFFFFFFFFFFFFFFFF
310
FFFFFFFFFFFFFFFFFFFFFFFFFFFFFFFFFFFFFFFFFFFFFFFFFFFFFFFFFFFFFFFF
310
FFFFFFFFFFFFFFFFFFFFFFFFFFFFFFFFFFFFFFFFFFFFFFFFFFFFFFFFFFFFFFFF
310
FFFFFFFFFFFFFFFFFFFFFFFFFFFFFFFFFFFFFFFFFFFFFFFFFFFFFFFFFFFFFFFF
310
FFFFFFFFFFFFFFFFFFFFFFFFFFFFFFFFFFFFFFFFFFFFFFFFFFFFFFFFFFFFFFFF
310
FFFFFFFFFFFFFFFFFFFFFFFFFFFFFFFFFFFFFFFFFFFFFFFFFFFFFFFFFFFFFFFF
310
FFFFFFFFFFFFFFFFFFFFFFFFFFFFFFFFFFFFFFFFFFFFFFFFFFFFFFFFFFFFFFFF
310
FFFFFFFFFFFFFFFFFFFFFFFFFFFFFFFFFFFFFFFFFFFFFFFFFFFFFFFFFFFFFFFF
310
FFFFFFFFFFFFFFFFFFFFFFFFFFFFFFFFFFFFFFFFFFFFFFFFFFFFFFFFFFFFFFFF
310
52006F006F007400200045006E00740072007900000000000000000000000000
310
0000000000000000000000000000000000000000000000000000000000000000
310
16000500FFFFFFFFFFFFFFFF020000000A00030000000000C000000000000046
310
0000000000000000000000002056FA965F6ECE0103000000C000000000000000
310
01004F006C006500000000000000000000000000000000000000000000000000
310
0000000000000000000000000000000000000000000000000000000000000000
310
0A000200FFFFFFFFFFFFFFFFFFFFFFFF00000000000000000000000000000000
310
0000000000000000000000000000000000000000000000001400000000000000
310
010043006F006D0070004F0062006A0000000000000000000000000000000000
310
0000000000000000000000000000000000000000000000000000000000000000
310
120002010100000003000000FFFFFFFF00000000000000000000000000000000
310
0000000000000000000000000000000000000000010000004D00000000000000
310
01004F006C006500310030004E00610074006900760065000000000000000000
310
0000000000000000000000000000000000000000000000000000000000000000
310
1A000200FFFFFFFFFFFFFFFFFFFFFFFF00000000000000000000000000000000
310
0000000000000000000000000000000000000000040000002426000000000000
310
FEFFFFFF02000000FEFFFFFFFFFFFFFFFFFFFFFFFFFFFFFFFFFFFFFFFFFFFFFF
310
FFFFFFFFFFFFFFFFFFFFFFFFFFFFFFFFFFFFFFFFFFFFFFFFFFFFFFFFFFFFFFFF
310
FFFFFFFFFFFFFFFFFFFFFFFFFFFFFFFFFFFFFFFFFFFFFFFFFFFFFFFFFFFFFFFF
310
FFFFFFFFFFFFFFFFFFFFFFFFFFFFFFFFFFFFFFFFFFFFFFFFFFFFFFFFFFFFFFFF
310
FFFFFFFFFFFFFFFFFFFFFFFFFFFFFFFFFFFFFFFFFFFFFFFFFFFFFFFFFFFFFFFF
310
FFFFFFFFFFFFFFFFFFFFFFFFFFFFFFFFFFFFFFFFFFFFFFFFFFFFFFFFFFFFFFFF
310
FFFFFFFFFFFFFFFFFFFFFFFFFFFFFFFFFFFFFFFFFFFFFFFFFFFFFFFFFFFFFFFF
310
FFFFFFFFFFFFFFFFFFFFFFFFFFFFFFFFFFFFFFFFFFFFFFFFFFFFFFFFFFFFFFFF
310
FFFFFFFFFFFFFFFFFFFFFFFFFFFFFFFFFFFFFFFFFFFFFFFFFFFFFFFFFFFFFFFF
310
FFFFFFFFFFFFFFFFFFFFFFFFFFFFFFFFFFFFFFFFFFFFFFFFFFFFFFFFFFFFFFFF
310
FFFFFFFFFFFFFFFFFFFFFFFFFFFFFFFFFFFFFFFFFFFFFFFFFFFFFFFFFFFFFFFF
310
FFFFFFFFFFFFFFFFFFFFFFFFFFFFFFFFFFFFFFFFFFFFFFFFFFFFFFFFFFFFFFFF
310
FFFFFFFFFFFFFFFFFFFFFFFFFFFFFFFFFFFFFFFFFFFFFFFFFFFFFFFFFFFFFFFF
310
FFFFFFFFFFFFFFFFFFFFFFFFFFFFFFFFFFFFFFFFFFFFFFFFFFFFFFFFFFFFFFFF
310
FFFFFFFFFFFFFFFFFFFFFFFFFFFFFFFFFFFFFFFFFFFFFFFFFFFFFFFFFFFFFFFF
310
FFFFFFFFFFFFFFFFFFFFFFFFFFFFFFFFFFFFFFFFFFFFFFFFFFFFFFFFFFFFFFFF
310
0100000200000000000000000000000000000000000000000000000000000000
310
0000000000000000000000000000000000000000000000000000000000000000
310
0100FEFF030A0000FFFFFFFF0A00030000000000C00000000000004607000000
310
5042727573680007000000504272757368000700000050427275736800F439B2
310
7100000000000000000000000000000000000000000000000000000000000000
310
0000000000000000000000000000000000000000000000000000000000000000
310
0000000000000000000000000000000000000000000000000000000000000000
310
0000000000000000000000000000000000000000000000000000000000000000
310
0000000000000000000000000000000000000000000000000000000000000000
310
0000000000000000000000000000000000000000000000000000000000000000
310
0000000000000000000000000000000000000000000000000000000000000000
310
0000000000000000000000000000000000000000000000000000000000000000
310
0000000000000000000000000000000000000000000000000000000000000000
310
0000000000000000000000000000000000000000000000000000000000000000
310
0000000000000000000000000000000000000000000000000000000000000000
310
0000000000000000000000000000000000000000000000000000000000000000
310
20260000424D0E260000000000003E00000028000000B40200006E0000000100
310
01000000000000000000130B0000130B00000200000002000000000000FFFFFF
310
FFFFFFFFFFFFFFFFFFFFFFFFFFFFFFFFFFFFFFFFFFFFFFFFFFFFFFFFFFFFFFFF
310
FFFFFFFFFFFFFFFFFFFFFFFFFFFFFFFFFFFFFFFFFFFFFFFFFFFFFFFFFFFFFFFF
310
FFFFFFFFFFFFFFFFFFFFFFFFFFFFFFFFFFFFFFFFFFFFFFFFF000FFFFFFFFFFFF
310
FFFFFFFFFFFFFFFFFFFFFFFFFFFFFFFFFFFFFFFFFFFFFFFFFFFFFFFFFFFFFFFF
310
FFFFFFFFFFFFFFFFFFFFFFFFFFFFFFFFFFFFFFFFFFFFFFFFFFFFFFFFFFFFFFFF
310
FFFFFFFFFFFFFFFFFFFFFFFFFFFFFFFFF000FFFFFFFFFFFFFFFFFFFFFFFFFFFF
310
FFFFFFFFFFFFFFFFFFFFFFFFFFFFFFFFFFFFFFFFFFFFFFFFFFFFFFFFFFFFFFFF
310
FFFFFFFFFFFFFFFFFFFFFFFFFFFFFFFFFFFFFFFFFFFFFFFFFFFFFFFFFFFFFFFF
310
FFFFFFFFFFFFFFFFF000FFFFFFFFFFFFFFFFFFFFFFFFFFFFFFFFFFFFFFFFFFFF
310
FFFFFFFFFFFFFFFFFFFFFFFFFFFFFFFFFFFFFFFFFFFFFFFFFFFFFFFFFFFFFFFF
310
FFFFFFFFFFFFFFFFFFFFFFFFFFFFFFFFFFFFFFFFFFFFFFFFFFFFFFFFFFFFFFFF
310
F000FFFFFFFFFFFFFFFFFFFFFFFFFFFFFFFFFFFFFFFFFFFFFFFFFFFFFFFFFFFF
310
FFFFFFFFFFFFFFFFFFFFFFFFFFFFFFFFFFFFFFFFFFFFFFFFFFFFFFFFFFFFFFFF
310
FFFFFFFFFFFFFFFFFFFFFFFFFFFFFFFFFFFFFFFFFFFFFFFFF000FFFFFFFFFFFF
310
FFFFFFFFFFFFFFFFFFFFFFFFFFFFFFFFFFFFFFFFFFFFFFFFFFFFFFFFFFFFFFFF
310
FFFFFFFFFFFFFFFFFFFFFFFFFFFFFFFFFFFFFFFFFFFFFFFFFFFFFFFFFFFFFFFF
310
FFFFFFFFFFFFFFFFFFFFFFFFFFFFFFFFF000FFFFFFFFFFFFFFFFFFFFFFFFFFFF
310
FFFFFFFFFFFFFFFFFFFFFFFFFFFFFFFFFFFFFFFFFFFFFFFFFFFFFFFFFFFFFFFF
310
FFFFFFFFFFFFFFFFFFFFFFFFFFFFFFFFFFFFFFFFFFFFFFFFFFFFFFFFFFFFFFFF
310
FFFFFFFFFFFFFFFFF000FFFFFFFFFFFFFFFFFFFFFFFFFFFFFFFFFFFFFFFFFFFF
310
FFFFFFFFFFFFFFFFFFFFFFFFFFFFFFFFFFFFFFFFFFFFFFFFFFFFFFFFFFFFFFFF
310
FFFFFFFFFFFFFFFFFFFFFFFFFFFFFFFFFFFFFFFFFFFFFFFFFFFFFFFFFFFFFFFF
310
F000FFFFFFFFFFFFFFFFFFFFFFFFFFFFFFFFFFFFFFFFFFFFFFFFFFFFFFFFFFFF
310
FFFFFFFFFFFFFFFFFFFFFFFFFFFFFFFFFFFFFFFFFFFFFFFFFFFFFFFFFFFFFFFF
310
FFFFFFFFFFFFFFFFFFFFFFFFFFFFFFFFFFFFFFFFFFFFFFFFF000FFFFFFFFFFFF
310
FFFFFFFFFFFFFFFFFFFFFFFFFFFFFFFFFFFFFFFFFFFFFFFFFFFFFFFFFFFFFFFF
310
FFFFFFFFFFFFFFFFFFFFFFFFFFFFFFFFFFFFFFFFFFFFFFFFFFFFFFFFFFFFFFFF
310
FFFFFFFFFFFFFFFFFFFFFFFFFFFFFFFFF000FFFFFFFFFFFFFFFFFFFFFFFFFFFF
310
FFFFFFFFFFFFFFFFFFFFFFFFFFFFFFFFFFFFFFFFFFFFFFFFFFFFFFFFFFFFFFFF
310
FFFFFFFFFFFFFFFFFFFFFFFFFFFFFFFFFFFFFFFFFFFFFFFFFFFFFFFFFFFFFFFF
310
FFFFFFFFFFFFFFFFF000FFFFFFFFFFFFFFFFFFFFFFFFFFFFFFFFFFFFFFFFFFFF
310
FFFFFFFFFFFFFFFFFFFFFFFFFFFFFFFFFFFFFFFFFFFFFFFFFFFFFFFFFFFFFFFF
310
FFFFFFFFFFFFFFFFFFFFFFFFFFFFFFFFFFFFFFFFFFFFFFFFFFFFFFFFFFFFFFFF
310
F000FFFFFFFFFFFFFFFFFFFFFFFFFFFFFFFFFFFFFFFFFFFFFFFFFFFFFFFFFFFF
310
FFFFFFFFFFFFFFFFFFFFFFFFFFFFFFFFFFFFFFFFFFFFFFFFFFFFFFFFFFFFFFFF
310
FFFFFFFFFFFFFFFFFFFFFFFFFFFFFFFFFFFFFFFFFFFFFFFFF000FFFFFFFFFFFF
310
FFFFFFFFFFFFFFFFFFFFFFFFFFFFFFFFFFFFFFFFFFFFFFFFFFFFFFFFFFFFFFFF
310
FFFFFFFFFFFFFFFFFFFFFFFFFFFFFFFFFFFFFFFFFFFFFFFFFFFFFFFFFFFFFFFF
310
FFFFFFFFFFFFFFFFFFFFFFFFFFFFFFFFF000FFFFFFFFFFFFFFFFFFFFFFFFFFFF
310
FFFFFFFFFFFFFFFFFFFFFFFFFFFFFFFFFFFFFFFFFFFFFFFFFFFFFFFFFFFFFFFF
310
FFFFFFFFFFFFFFFFFFFFFFFFFFFFFFFFFFFFFFFFFFFFFFFFFFFFFFFFFFFFFFFF
310
FFFFFFFFFFFFFFFFF000FFFFFFFFFFFFFFFFFFFFFFFFFFFFFFFFFFFFFFFFFFFF
310
FFFFFFFFFFFFFFFFFFFFFFFFFFFFFFFFFFFFFFFFFFFFFFFFFFFFFFFFFFFFFFFF
310
FFFFFFFFFFFFFFFFFFFFFFFFFFFFFFFFFFFFFFFFFFFFFFFFFFFFFFFFFFFFFFFF
310
F000FFFFFFFFFFFFFFFFFFFFFFFFFFFFFFFFFFFFFFFFFFFFFFFFFFFFFFFFFFFF
310
FFFFFFFFFFFFFFFFFFFFFFFFFFFFFFFFFFFFFFFFFFFFFFFFFFFFFFFFFFFFFFFF
310
FFFFFFFFFFFFFFFFFFFFFFFFFFFFFFFFFFFFFFFFFFFFFFFFF000FFFFFFFFFFFF
310
FFFFFFFFFFFFFFFFFFFFFFFFFFFFFFFFFFFFFFFFFFFFFFFFFFFFFFFFFFFFFFFF
310
FFFFFFFFFFFFFFFFFFFFFFFFFFFFFFFFFFFFFFFFFFFFFFFFFFFFFFFFFFFFFFFF
310
FFFFFFFFFFFFFFFFFFFFFFFFFFFFFFFFF000FFFFFFFFFFFFFFFFFFFFFFFFFFFF
310
FFFFFFFFFFFFFFFFFFFFFFFFFFFFFFFFFFFFFFFFFFFFFFFFFFFFFFFFFFFFFFFF
310
FFFFFFFFFFFFFFFFFFFFFFFFFFFFFFFFFFFFFFFFFFFFFFFFFFFFFFFFFFFFFFFF
310
FFFFFFFFFFFFFFFFF000FFFFF80003FFFFFFFFFFFFFFFFFFFFFFFFFFFFFFFFFF
310
FFFFF00007FFFFFFFFFF00007FFFFFF800000000000000007FFFFFFFFFFFFFFF
310
FFFFFFFC001FFFFFFFFFFFFFFC001FFFFFFFFFFFFFFFFFFFFFFFFFFE0007FFFF
310
F000FFFF8000007FFFFFFFF8000FFFFFC0007FFFFF80007FFFFF0000007FFFFF
310
FFF8000007FFFFF800000000000000007FFFFFF0001FFFFFFFFFFFC00001FFFF
310
FFFFFFFFC00001FFFFFFFF000000000003FFFFE000007FFFF000FFFE0000000F
310
FFFFFFF0000FFFFF80007FFFFF80007FFFFC0000001FFFFFFFC0000001FFFFF8
310
00000000000000007FFFFFF0001FFFFFFFFFFE0000003FFFFFFFFFFE0000003F
310
FFFFFF000000000003FFFF0000000FFFF000FFF800000003FFFFFFF00007FFFF
310
80007FFFFF80007FFFF000000007FFFFFF000000003FFFF80000000000000000
310
7FFFFFF0001FFFFFFFFFF80000000FFFFFFFFFF80000000FFFFFFF0000000000
310
03FFFC00000003FFF000FFE000000000FFFFFFF00007FFFF80003FFFFF80007F
310
FFC000000001FFFFFC000000001FFFF800000000000000007FFFFFF0001FFFFF
310
FFFFE000000003FFFFFFFFE000000003FFFFFF000000000003FFF000000000FF
310
F000FF80000000007FFFFFF00007FFFF80003FFFFF80007FFF8000000000FFFF
310
F80000000007FFF800000000000000007FFFFFF0001FFFFFFFFFC000000001FF
310
FFFFFFC000000001FFFFFF000000000003FFC0000000007FF000FF0000000000
310
3FFFFFE00007FFFF00003FFFFF80007FFE00000000003FFFF00000000003FFF8
310
00000000000000007FFFFFF0001FFFFFFFFF8000000000FFFFFFFF8000000000
310
FFFFFF000000000003FF80000000003FF000FE00000000001FFFFFE00003FFFF
310
00003FFFFF80007FFC00000000001FFFE00000000001FFF8000001FFFE000000
310
7FFFFFF0001FFFFFFFFE00000000003FFFFFFE00000000003FFFFF0000000000
310
03FF00000000001FF000FC00000000000FFFFFE00003FFFF00001FFFFF80007F
310
F800000000001FFFC00000000000FFF8000001FFFE0000007FFFFFF0001FFFFF
310
FFFC00000000001FFFFFFC00000000001FFFFF000000000003FE00000000000F
310
F000F8000000000007FFFFE00003FFFF00001FFFFF80007FF800000000000FFF
310
800000000000FFF8000001FFFE0000007FFFFFF0001FFFFFFFF800000000000F
310
FFFFF800000000000FFFFF000000000003FC000000000007F000F80000000000
310
03FFFFC00003FFFE00001FFFFF80007FF0000000000007FF0000000000007FF8
310
000001FFFE0000007FFFFFF0001FFFFFFFF0000000000007FFFFF00000000000
310
07FFFF000000000003F8000000000003F000F0000000000003FFFFC00001FFFE
310
00001FFFFF80007FE0000000000007FE0000000000003FF8000001FFFE000000
310
7FFFFFF0001FFFFFFFF0000000000007FFFFF0000000000007FFFF0000000000
310
03F800001F800003F000E00001FFF00001FFFFC00001FFFE00000FFFFF80007F
310
E00001FFE00003FE00001FFF00003FF8000001FFFE0000007FFFFFF0001FFFFF
310
FFE000003E000003FFFFE000003E000003FFFF000000000003F00001FFF80001
310
F000E00007FFFC0001FFFFC00001FFFE00000FFFFF80007FC0000FFFFC0003FC
310
0000FFFFC0001FF8000001FFFE0000007FFFFFF0001FFFFFFFC00003FFE00001
310
FFFFC00003FFE00001FFFF0001FFFFFFFFF00007FFFE0001F000E0000FFFFF00
310
00FFFF800001FFFC00000FFFFF80007FC0001FFFFE0001FC0001FFFFE0001FF8
310
000001FFFE0000007FFFFFF0001FFFFFFF80000FFFF80000FFFF80000FFFF800
310
00FFFF0003FFFFFFFFE0000FFFFF8000F000C0003FFFFF8000FFFF800000FFFC
310
000007FFFF80007F80003FFFFF0001FC0003FFFFF0001FF8000001FFFE000000
310
7FFFFFF0001FFFFFFF80003FFFFE0000FFFF80003FFFFE0000FFFF0003FFFFFF
310
FFE0003FFFFF8000F000C0003FFFFF8000FFFF800000FFFC000007FFFF80007F
310
80007FFFFF8001F80007FFFFF8000FF8000001FFFE0000007FFFFFF0001FFFFF
310
FF00007FFFFF00007FFF00007FFFFF00007FFF0003FFFFFFFFE0003FFFFFC000
310
F000C0007FFFFFC000FFFF000000FFFC000007FFFF80007F8000FFFFFF8000F8
310
000FFFFFF8000FF8000001FFFE0000007FFFFFF0001FFFFFFF0000FFFFFF8000
310
7FFF0000FFFFFF80007FFF0003FFFFFFFFC0007FFFFFC00070008000FFFFFFC0
310
00FFFF000000FFF8000007FFFF80007F8000FFFFFF8000F8000FFFFFF8000FF8
310
000001FFFE0000007FFFFFF0001FFFFFFE0001FFFFFFC0003FFE0001FFFFFFC0
310
003FFF0003FFFFFFFFC0007FFFFFE00070008000FFFFFFC0007FFF0000007FF8
310
000003FFFF80007F0001FFFFFF8000F8000FFFFFF8000FF8000001FFFE000000
310
7FFFFFF0001FFFFFFE0001FFFFFFC0003FFE0001FFFFFFC0003FFF0003FFFFFF
310
FFC000FFFFFFE00070008000FFFFFFC0007FFF0000007FF8000003FFFF80007F
310
0001FFFFFF8000F8001FFFFFF8000FF8000001FFFE0000007FFFFFF0001FFFFF
310
FE0003FFFFFFE0003FFE0003FFFFFFE0003FFF0003FFFFFFFFC000FFFFFFE000
310
70008000FFFFFFC0007FFE0000007FF8000003FFFF80007F0001FFFFFF8000F0
310
001FFFFFF8000FF8000001FFFE0000007FFFFFF0001FFFFFFC0003FFFFFFE000
310
1FFC0003FFFFFFE0001FFF0003FFFFFFFFC000FFFFFFC00070008000FFFFFF80
310
007FFE0000007FF0000003FFFF80007F0001FFFFFF0000F0001FFFFFF8000FF8
310
000001FFFE0000007FFFFFF0001FFFFFFC0007FFFFFFF0001FFC0007FFFFFFF0
310
001FFF0003FFFFFFFFC000FFFFFFC00070008001FFFFFF0000FFFE0000003FF0
310
000001FFFF80007F0001FFFFFF0000F8001FFFFFF0000FF8000001FFFE000000
310
7FFFFFF0001FFFFFFC0007FFFFFFF0001FFC0007FFFFFFF0001FFF0003FFFFFF
310
FFC001FFFFFF80007000FFFFFFFFFE0000FFFE0008003FF0008001FFFF80007F
310
FFFFFFFFFC0000FFFFFFFFFFE0000FF8000001FFFE0000007FFFFFF0001FFFFF
310
F8000FFFFFFFF8000FF8000FFFFFFFF8000FFF0003FFFFFFFFFFFFFFFFFF0000
310
7000FFFFFFFFFC0000FFFC0008003FF0008001FFFF80007FFFFFFFFFF80001FF
310
FFFFFFFF80000FF8000001FFFE0000007FFFFFF0001FFFFFF8000FFFFFFFF800
310
0FF8000FFFFFFFF8000FFF0003FFFFFFFFFFFFFFFFFE0000F000FFFFFFFFE000
310
00FFFC000C003FE000C001FFFF80007FFFFFFFFFC00001FFFFFFFFFE00001FF8
310
000001FFFE0000007FFFFFF0001FFFFFF8000FFFFFFFF8000FF8000FFFFFFFF8
310
000FFF0003FFFFFFFFFFFFFFFFF00000F000FFFFFFFE000001FFFC000C001FE0
310
00C000FFFF80007FFFFFFFFE000001FFFFFFFFE000001FF80FFFFFFFFFFFFFC0
310
7FFFFFF0001FFFFFF8000FFFFFFFF8000FF8000FFFFFFFF8000FFF0003FFFFFF
310
FFFFFFFFFF800000F000FFFFFFC0000001FFFC001C001FE001C000FFFF80007F
310
FFFFFF80000003FFFFFFF80000001FF80FFFFFFFFFFFFFC07FFFFFF0001FFFFF
310
F8001FFFFFFFFC000FF8001FFFFFFFFC000FFF0003FFFFFFFFFFFFFFF0000001
310
F000FFFFF800000001FFF8001C001FE001C000FFFF80007FFFFFF800000003FF
310
FFFF800000003FF80FFFFFFFFFFFFFC07FFFFFF0001FFFFFF8001FFFFFFFFC00
310
0FF8001FFFFFFFFC000FFF0003FFFFFFFFFFFFFE00000001F000FFFFC0000000
310
03FFF8001E001FC001E000FFFF80007FFFFF8000000007FFFFFC000000003FF8
310
0FFFFFFFFFFFFFC07FFFFFF0001FFFFFF8001FFFFFFFFC000FF8001FFFFFFFFC
310
000FFF0003FFFFFFFFFFFFE000000003F000FFFE0000000007FFF8001E000FC0
310
01E0007FFF80007FFFFE0000000007FFFFE0000000007FF80FFFFFFFFFFFFFC0
310
7FFFFFF0001FFFFFF0001FFFFFFFFC0007F0001FFFFFFFFC0007FF0003FFFFFF
310
FFFFFF0000000003F000FFF80000000007FFF8001E000FC003E0007FFF80007F
310
FFF0000000000FFFFF8000000000FFF80FFFFFFFFFFFFFC07FFFFFF0001FFFFF
310
F0001FFFFFFFFC0007F0001FFFFFFFFC0007FF0003FFFFFFFFFFFC0000000007
310
F000FFE0000000000FFFF0003E000FC003E0007FFF80007FFFC0000000001FFF
310
FE0000000001FFF80FFFFFFFFFFFFFC07FFFFFF0001FFFFFF0001FFFFFFFFC00
310
07F0001FFFFFFFFC0007FF0003FFFFFFFFFFF0000000000FF000FFC000000000
310
1FFFF0003F000F8003F0003FFF80007FFF80000000003FFFF80000000003FFF8
310
0FFFFFFFFFFFFFC07FFFFFF0001FFFFFF0001FFFFFFFFC0007F0001FFFFFFFFC
310
0007FF0003FFFFFFFFFFE0000000001FF000FF00000000007FFFF0003F000780
310
03F0003FFF80007FFF00000000007FFFF00000000007FFF80FFFFFFFFFFFFFC0
310
7FFFFFF0001FFFFFF0001FFFFFFFFC0007F0001FFFFFFFFC0007FF0003FFFFFF
310
FFFF80000000007FF000FE0000000000FFFFE0003F00078007F0003FFF80007F
310
FE0000000001FFFFE0000000001FFFF80FFFFFFFFFFFFFC07FFFFFF0001FFFFF
310
F0001FFFFFFFFC0007F0001FFFFFFFFC0007FF0003FFFFFFFFFF0000000000FF
310
F000FC0000000003FFFFE0007F00078007F0003FFF80007FFC0000000007FFFF
310
C0000000007FFFF80FFFFFFFFFFFFFC07FFFFFF0001FFFFFF8001FFFFFFFFC00
310
0FF8001FFFFFFFFC000FFF0003FFFFFFFFFE0000000003FFF000FC000000000F
310
FFFFE0007F80070007F8001FFF80007FF8000000001FFFFF8000000001FFFFF8
310
0FFFFFFFFFFFFFC07FFFFFF0001FFFFFF8001FFFFFFFFC000FF8001FFFFFFFFC
310
000FFF0003FFFFFFFFFC000000000FFFF000F8000000007FFFFFE0007F800700
310
07F8001FFF80007FF000000000FFFFFF800000000FFFFFF80FFFFFFFFFFFFFC0
310
7FFFFFF0001FFFFFF8000FFFFFFFF8000FF8000FFFFFFFF8000FFF0003FFFFFF
310
FFFC000000007FFFF000F800000007FFFFFFC0007F8003000FF8001FFF80007F
310
F000000007FFFFFF000000007FFFFFF80FFFFFFFFFFFFFC07FFFFFF0001FFFFF
310
F8000FFFFFFFF8000FF8000FFFFFFFF8000FFF0003FFFFFFFFF80000000FFFFF
310
F000F0000000FFFFFFFFC000FF8003000FF8001FFF80007FE0000000FFFFFFFF
310
0000000FFFFFFFF8000001FFFE0000007FFFFFF0001FFFFFF8000FFFFFFFF800
310
0FF8000FFFFFFFF8000FFF0003FFFFFFFFF8000000FFFFFFF000F000000FFFFF
310
FFFFC000FFC002000FF8000FFF80007FE000001FFFFFFFFE000001FFFFFFFFF8
310
000001FFFE0000007FFFFFF0001FFFFFF8000FFFFFFFF8000FF8000FFFFFFFF8
310
000FFF0003FFFFFFFFF000001FFFFFFFF000E00000FFFFFFFFFFC000FFC00200
310
0FFC000FFF80007FE00001FFFFFFFFFE00001FFFFFFFFFF8000001FFFE000000
310
7FFFFFF0001FFFFFFC000FFFFFFFF8001FFC000FFFFFFFF8001FFF0003FFFFFF
310
FFF00001FFFFFFFFF000E00007FFFFFFFFFF8000FFC000001FFC000FFF80007F
310
C0000FFFFFFFFFFE0000FFFFFFFFFFF8000001FFFE0000007FFFFFF0001FFFFF
310
FC0007FFFFFFF0001FFC0007FFFFFFF0001FFF0003FFFFFFFFF00007FFFFFFFF
310
F000E0001FFFFFFFFFFF8000FFC000001FFC000FFF80007FC0003FFFFFFFFFFE
310
0001FFFFFFFFFFF8000001FFFE0000007FFFFFF0001FFFFFFC0007FFFFFFF000
310
1FFC0007FFFFFFF0001FFF0003FFFFFFFFF0001FFFFFFFFFF000E0003FFFFF00
310
03FF8001FFE000001FFC0007FF80007FC0007FFFFF0007FC0003FFFFF0003FF8
310
000001FFFE0000007FFFFFF0001FFFFFFC0003FFFFFFE0001FFC0003FFFFFFE0
310
001FFF0003FFFFFFFFF0003FFFFFFFFFF000E0003FFFFF0001FF8001FFE00000
310
1FFE0007FF80007FC0007FFFFE0003FC0007FFFFE0003FF8000001FFFE000000
310
7FFFFFF0001FFFFFFE0003FFFFFFE0003FFE0003FFFFFFE0003FFF0003FFFFFF
310
FFF0003FFFFF8001F000E0003FFFFF0001FF0001FFE000001FFE0007FF80007F
310
C0007FFFFE0003FC0007FFFFE0003FF8000001FFFE0000007FFFFFF0001FFFFF
310
FE0001FFFFFFC0003FFE0001FFFFFFC0003FFF0003FFFFFFFFF0003FFFFF0001
310
F000E0003FFFFF0003FF0001FFE000003FFE0007FF80007FC0007FFFFE0003FC
310
0007FFFFE0003FF8000001FFFE0000007FFFFFF0001FFFFFFF0001FFFFFFC000
310
7FFF0001FFFFFFC0007FFF0003FFFFFFFFF0003FFFFF0001F000E0003FFFFE00
310
03FF0003FFF000003FFE0003FF80007FC0007FFFFC0003FE0007FFFFE0003FF8
310
000001FFFE0000007FFFFFF0001FFFFFFF0000FFFFFF80007FFF0000FFFFFF80
310
007FFF0003FFFFFFFFF0003FFFFF0001F000E0003FFFFE0003FF0003FFF00000
310
3FFF0003FF80007FC0007FFFFC0007FE0007FFFFC0003FF8000001FFFE000000
310
7FFFFFF0001FFFFFFF80007FFFFF0000FFFF80007FFFFF0000FFFF0003FFFFFF
310
FFF0003FFFFF0003F000E0003FFFFC0003FE0003FFF000003FFF0003FF80007F
310
E0003FFFF80007FE0003FFFFC0007FF8000001FFFE0000007FFFFFF0001FFFFF
310
FF80003FFFFE0000FFFF80003FFFFE0000FFFF0003FFFFFFFFF0001FFFFE0003
310
F000F0001FFFF80003FE0003FFF000007FFF0001FF80007FE0003FFFF00007FE
310
0001FFFF80007FF8000001FFFE0000007FFFFFF0001FFFFFFFC0000FFFF80001
310
FFFFC0000FFFF80001FFFF0003FFFFFFFFF0001FFFFC0003F000F0000FFFF000
310
07FE0007FFF800007FFF0001FF80007FE0001FFFE00007FF0000FFFE00007FF8
310
000001FFFE0000007FFFFFF0001FFFFFFFC00003FFE00001FFFFC00003FFE000
310
01FFFF0003FFFFFFFFF8000FFFF80003F000F00003FFC00007FC0007FFF80000
310
7FFF8001FF80007FF00007FF80000FFF00007FF80000FFF8000001FFFE000000
310
7F80000000000001FFE000003E000003FFFFE000003E000003FFFF0003FFFFFF
310
FFF80003FFE00007F000F800000000000FFC0007FFF800007FFF8001FF80007F
310
F000000000000FFF000000000000FFF8000001FFFE0000007F80000000000001
310
FFF0000000000007FFFFF0000000000007FFFF0003FFFFFFFFFC00007E000007
310
F000F800000000000FFC0007FFF80000FFFF8000FF80007FF800000000001FFF
310
800000000001FFF8000001FFFE0000007F80000000000001FFF800000000000F
310
FFFFF800000000000FFFFF0003FFFFFFFFFC00000000000FF000FC0000000000
310
1FFC0007FFFC0000FFFF8000FF80007FF800000000003FFFC00000000001FFF8
310
000001FFFE0000007F80000000000001FFF800000000000FFFFFF80000000000
310
0FFFFF0003FFFFFFFFFE00000000001FF000FE00000000003FF8000FFFFC0000
310
FFFF8000FF80007FFC00000000003FFFC00000000003FFF8000001FFFE000000
310
7F80000000000001FFFC00000000001FFFFFFC00000000001FFFFF0003FFFFFF
310
FFFF00000000001FF000FF00000000003FF8000FFFFC0000FFFFC000FF80007F
310
FE00000000007FFFE00000000007FFF8000001FFFE0000007F80000000000001
310
FFFE00000000003FFFFFFE00000000003FFFFF0003FFFFFFFFFF80000000003F
310
F000FF80000000007FF8000FFFFC0001FFFFC0007F80007FFF0000000000FFFF
310
F0000000000FFFF800000000000000007F80000000000001FFFF8000000000FF
310
FFFFFF8000000000FFFFFF0003FFFFFFFFFFC0000000007FF000FFC000000000
310
FFF8000FFFFE0001FFFFC0007F80007FFF8000000001FFFFF8000000001FFFF8
310
00000000000000007F80000000000001FFFFC000000001FFFFFFFFC000000001
310
FFFFFF0003FFFFFFFFFFE000000000FFF000FFE000000003FFF0001FFFFE0001
310
FFFFC0007F80007FFFC000000007FFFFFE000000003FFFF80000000000000000
310
7F80000000000001FFFFE000000003FFFFFFFFE000000003FFFFFF0003FFFFFF
310
FFFFF000000003FFF000FFF80000000FFFF0001FFFFE0001FFFFE0007F80007F
310
FFF00000000FFFFFFF00000000FFFFF800000000000000007F80000000000001
310
FFFFF80000000FFFFFFFFFF80000000FFFFFFF0003FFFFFFFFFFFC0000000FFF
310
F000FFFE0000003FFFF0001FFFFE0003FFFFE0003F80007FFFFC0000003FFFFF
310
FFC0000003FFFFF800000000000000007F80000000000001FFFFFE0000003FFF
310
FFFFFFFE0000003FFFFFFF0003FFFFFFFFFFFF0000003FFFF000FFFF800000FF
310
FFF0001FFFFF0003FFFFE0003F80007FFFFF000001FFFFFFFFF800001FFFFFF8
310
00000000000000007F80000000000001FFFFFFC00001FFFFFFFFFFFFC00001FF
310
FFFFFF0003FFFFFFFFFFFFC00000FFFFF000FFFFF8000FFFFFFFFFFFFFFFFFFF
310
FFFFFFFFFFFFFFFFFFFFF0001FFFFFFFFFFF0000FFFFFFF80000000000000000
310
7FFFFFFFFFFFFFFFFFFFFFFC001FFFFFFFFFFFFFFC001FFFFFFFFFFFFFFFFFFF
310
FFFFFFFC001FFFFFF000FFFFFFFFFFFFFFFFFFFFFFFFFFFFFFFFFFFFFFFFFFFF
310
FFFFFFFFFFFFFFFFFFFFFFFFFFFFFFFFFFFFFFFFFFFFFFFFFFFFFFFFFFFFFFFF
310
FFFFFFFFFFFFFFFFFFFFFFFFFFFFFFFFFFFFFFFFFFFFFFFFFFFFFFFFFFFFFFFF
310
F000FFFFFFFFFFFFFFFFFFFFFFFFFFFFFFFFFFFFFFFFFFFFFFFFFFFFFFFFFFFF
310
FFFFFFFFFFFFFFFFFFFFFFFFFFFFFFFFFFFFFFFFFFFFFFFFFFFFFFFFFFFFFFFF
310
FFFFFFFFFFFFFFFFFFFFFFFFFFFFFFFFFFFFFFFFFFFFFFFFF000FFFFFFFFFFFF
310
FFFFFFFFFFFFFFFFFFFFFFFFFFFFFFFFFFFFFFFFFFFFFFFFFFFFFFFFFFFFFFFF
310
FFFFFFFFFFFFFFFFFFFFFFFFFFFFFFFFFFFFFFFFFFFFFFFFFFFFFFFFFFFFFFFF
310
FFFFFFFFFFFFFFFFFFFFFFFFFFFFFFFFF000FFFFFFFFFFFFFFFFFFFFFFFFFFFF
310
FFFFFFFFFFFFFFFFFFFFFFFFFFFFFFFFFFFFFFFFFFFFFFFFFFFFFFFFFFFFFFFF
310
FFFFFFFFFFFFFFFFFFFFFFFFFFFFFFFFFFFFFFFFFFFFFFFFFFFFFFFFFFFFFFFF
310
FFFFFFFFFFFFFFFFF000FFFFFFFFFFFFFFFFFFFFFFFFFFFFFFFFFFFFFFFFFFFF
310
FFFFFFFFFFFFFFFFFFFFFFFFFFFFFFFFFFFFFFFFFFFFFFFFFFFFFFFFFFFFFFFF
310
FFFFFFFFFFFFFFFFFFFFFFFFFFFFFFFFFFFFFFFFFFFFFFFFFFFFFFFFFFFFFFFF
310
F000FFFFFFFFFFFFFFFFFFFFFFFFFFFFFFFFFFFFFFFFFFFFFFFFFFFFFFFFFFFF
310
FFFFFFFFFFFFFFFFFFFFFFFFFFFFFFFFFFFFFFFFFFFFFFFFFFFFFFFFFFFFFFFF
310
FFFFFFFFFFFFFFFFFFFFFFFFFFFFFFFFFFFFFFFFFFFFFFFFF000FFFFFFFFFFFF
310
FFFFFFFFFFFFFFFFFFFFFFFFFFFFFFFFFFFFFFFFFFFFFFFFFFFFFFFFFFFFFFFF
310
FFFFFFFFFFFFFFFFFFFFFFFFFFFFFFFFFFFFFFFFFFFFFFFFFFFFFFFFFFFFFFFF
310
FFFFFFFFFFFFFFFFFFFFFFFFFFFFFFFFF000FFFFFFFFFFFFFFFFFFFFFFFFFFFF
310
FFFFFFFFFFFFFFFFFFFFFFFFFFFFFFFFFFFFFFFFFFFFFFFFFFFFFFFFFFFFFFFF
310
FFFFFFFFFFFFFFFFFFFFFFFFFFFFFFFFFFFFFFFFFFFFFFFFFFFFFFFFFFFFFFFF
310
FFFFFFFFFFFFFFFFF000FFFFFFFFFFFFFFFFFFFFFFFFFFFFFFFFFFFFFFFFFFFF
310
FFFFFFFFFFFFFFFFFFFFFFFFFFFFFFFFFFFFFFFFFFFFFFFFFFFFFFFFFFFFFFFF
310
FFFFFFFFFFFFFFFFFFFFFFFFFFFFFFFFFFFFFFFFFFFFFFFFFFFFFFFFFFFFFFFF
310
F000FFFFFFFFFFFFFFFFFFFFFFFFFFFFFFFFFFFFFFFFFFFFFFFFFFFFFFFFFFFF
310
FFFFFFFFFFFFFFFFFFFFFFFFFFFFFFFFFFFFFFFFFFFFFFFFFFFFFFFFFFFFFFFF
310
FFFFFFFFFFFFFFFFFFFFFFFFFFFFFFFFFFFFFFFFFFFFFFFFF000FFFFFFFFFFFF
310
FFFFFFFFFFFFFFFFFFFFFFFFFFFFFFFFFFFFFFFFFFFFFFFFFFFFFFFFFFFFFFFF
310
FFFFFFFFFFFFFFFFFFFFFFFFFFFFFFFFFFFFFFFFFFFFFFFFFFFFFFFFFFFFFFFF
310
FFFFFFFFFFFFFFFFFFFFFFFFFFFFFFFFF000FFFFFFFFFFFFFFFFFFFFFFFFFFFF
310
FFFFFFFFFFFFFFFFFFFFFFFFFFFFFFFFFFFFFFFFFFFFFFFFFFFFFFFFFFFFFFFF
310
FFFFFFFFFFFFFFFFFFFFFFFFFFFFFFFFFFFFFFFFFFFFFFFFFFFFFFFFFFFFFFFF
310
FFFFFFFFFFFFFFFFF000FFFFFFFFFFFFFFFFFFFFFFFFFFFFFFFFFFFFFFFFFFFF
310
FFFFFFFFFFFFFFFFFFFFFFFFFFFFFFFFFFFFFFFFFFFFFFFFFFFFFFFFFFFFFFFF
310
FFFFFFFFFFFFFFFFFFFFFFFFFFFFFFFFFFFFFFFFFFFFFFFFFFFFFFFFFFFFFFFF
310
F000FFFFFFFFFFFFFFFFFFFFFFFFFFFFFFFFFFFFFFFFFFFFFFFFFFFFFFFFFFFF
310
FFFFFFFFFFFFFFFFFFFFFFFFFFFFFFFFFFFFFFFFFFFFFFFFFFFFFFFFFFFFFFFF
310
FFFFFFFFFFFFFFFFFFFFFFFFFFFFFFFFFFFFFFFFFFFFFFFFF000FFFFFFFFFFFF
310
FFFFFFFFFFFFFFFFFFFFFFFFFFFFFFFFFFFFFFFFFFFFFFFFFFFFFFFFFFFFFFFF
310
FFFFFFFFFFFFFFFFFFFFFFFFFFFFFFFFFFFFFFFFFFFFFFFFFFFFFFFFFFFFFFFF
310
FFFFFFFFFFFFFFFFFFFFFFFFFFFFFFFFF000FFFFFFFFFFFFFFFFFFFFFFFFFFFF
310
FFFFFFFFFFFFFFFFFFFFFFFFFFFFFFFFFFFFFFFFFFFFFFFFFFFFFFFFFFFFFFFF
310
FFFFFFFFFFFFFFFFFFFFFFFFFFFFFFFFFFFFFFFFFFFFFFFFFFFFFFFFFFFFFFFF
310
FFFFFFFFFFFFFFFFF000FFFFFFFFFFFFFFFFFFFFFFFFFFFFFFFFFFFFFFFFFFFF
310
FFFFFFFFFFFFFFFFFFFFFFFFFFFFFFFFFFFFFFFFFFFFFFFFFFFFFFFFFFFFFFFF
310
FFFFFFFFFFFFFFFFFFFFFFFFFFFFFFFFFFFFFFFFFFFFFFFFFFFFFFFFFFFFFFFF
310
F000FFFFFFFFFFFFFFFFFFFFFFFFFFFFFFFFFFFFFFFFFFFFFFFFFFFFFFFFFFFF
310
FFFFFFFFFFFFFFFFFFFFFFFFFFFFFFFFFFFFFFFFFFFFFFFFFFFFFFFFFFFFFFFF
310
FFFFFFFFFFFFFFFFFFFFFFFFFFFFFFFFFFFFFFFFFFFFFFFFF000FFFFFFFFFFFF
310
FFFFFFFFFFFFFFFFFFFFFFFFFFFFFFFFFFFFFFFFFFFFFFFFFFFFFFFFFFFFFFFF
310
FFFFFFFFFFFFFFFFFFFFFFFFFFFFFFFFFFFFFFFFFFFFFFFFFFFFFFFFFFFFFFFF
310
FFFFFFFFFFFFFFFFFFFFFFFFFFFFFFFFF000FFFFFFFFFFFFFFFFFFFFFFFFFFFF
310
FFFFFFFFFFFFFFFFFFFFFFFFFFFFFFFFFFFFFFFFFFFFFFFFFFFFFFFFFFFFFFFF
310
FFFFFFFFFFFFFFFFFFFFFFFFFFFFFFFFFFFFFFFFFFFFFFFFFFFFFFFFFFFFFFFF
310
FFFFFFFFFFFFFFFFF000FFFFFFFFFFFFFFFFFFFFFFFFFFFFFFFFFFFFFFFFFFFF
310
FFFFFFFFFFFFFFFFFFFFFFFFFFFFFFFFFFFFFFFFFFFFFFFFFFFFFFFFFFFFFFFF
310
FFFFFFFFFFFFFFFFFFFFFFFFFFFFFFFFFFFFFFFFFFFFFFFFFFFFFFFFFFFFFFFF
310
F000FFFFFFFFFFFFFFFFFFFFFFFFFFFFFFFFFFFFFFFFFFFFFFFFFFFFFFFFFFFF
310
FFFFFFFFFFFFFFFFFFFFFFFFFFFFFFFFFFFFFFFFFFFFFFFFFFFFFFFFFFFFFFFF
310
FFFFFFFFFFFFFFFFFFFFFFFFFFFFFFFFFFFFFFFFFFFFFFFFF000FFFFFFFFFFFF
310
FFFFFFFFFFFFFFFFFFFFFFFFFFFFFFFFFFFFFFFFFFFFFFFFFFFFFFFFFFFFFFFF
310
FFFFFFFFFFFFFFFFFFFFFFFFFFFFFFFFFFFFFFFFFFFFFFFFFFFFFFFFFFFFFFFF
310
FFFFFFFFFFFFFFFFFFFFFFFFFFFFFFFFF0000000000000000000000000000000
310
0000000000000000000000000000000000000000000000000000000000000000
310
0000000000000000000000000000000000000000000000000000000000000000
310
0000000000000000000000000000000000000000000000000000000000000000
310
0000000000000000000000000000000000000000000000000000000000000000
310
0000000000000000000000000000000000000000000000000000000000000000
310
0000000000000000000000000000000000000000000000000000000000000000
310
0000000000000000000000000000000000000000000000000000000000000000
310
0000000000000000000000000000000000000000000000000000000000000000
310
0000000000000000000000000000000000000000000000000000000000000000
310
0000000000000000000000000000000000000000000000000000000000000000
310
0000000000000000000000000000000000000000000000000000000000000000
310
0000000000000000000000000000000000000000000000000000000000000000
310
0000000000000000000000000000000000000000000000000000000000000000
310
0000000000000000000000000000000000000000000000000000000000000000
310
0000000000000000000000000000000000000000000000000000000000000000
  1
OLE
  0
ENDSEC
  0
SECTION
  2
OBJECTS
  0
DICTIONARY
  5
C
330
0
100
AcDbDictionary
281
     1
  3
ACAD_GROUP
350
D
  3
ACAD_LAYOUT
350
1A
  3
ACAD_MLINESTYLE
350
17
  3
ACAD_PLOTSETTINGS
350
19
  3
ACAD_PLOTSTYLENAME
350
E
  0
DICTIONARY
  5
D
102
{ACAD_REACTORS
330
C
102
}
330
C
100
AcDbDictionary
281
     1
  0
DICTIONARY
  5
1A
102
{ACAD_REACTORS
330
C
102
}
330
C
100
AcDbDictionary
281
     1
  3
Layout1
350
1E
  3
Layout2
350
26
  3
Model
350
22
  0
DICTIONARY
  5
17
102
{ACAD_REACTORS
330
C
102
}
330
C
100
AcDbDictionary
281
     1
  3
Standard
350
18
  0
DICTIONARY
  5
19
102
{ACAD_REACTORS
330
C
102
}
330
C
100
AcDbDictionary
281
     1
  0
ACDBDICTIONARYWDFLT
  5
E
102
{ACAD_REACTORS
330
C
102
}
330
C
100
AcDbDictionary
281
     1
  3
Normal
350
F
100
AcDbDictionaryWithDefault
340
F
  0
LAYOUT
  5
1E
102
{ACAD_REACTORS
330
1A
102
}
330
1A
100
AcDbPlotSettings
  1

  2
none_device
  4

  6

 40
0.0
 41
0.0
 42
0.0
 43
0.0
 44
0.0
 45
0.0
 46
0.0
 47
0.0
 48
0.0
 49
0.0
140
0.0
141
0.0
142
1.0
143
1.0
 70
   688
 72
     0
 73
     0
 74
     5
  7

 75
    16
147
1.0
148
0.0
149
0.0
100
AcDbLayout
  1
Layout1
 70
     1
 71
     1
 10
0.0
 20
0.0
 11
420.0
 21
297.0
 12
0.0
 22
0.0
 32
0.0
 14
1.0000000000E+20
 24
1.0000000000E+20
 34
1.0000000000E+20
 15
-1.0000000000E+20
 25
-1.0000000000E+20
 35
-1.0000000000E+20
146
0.0
 13
0.0
 23
0.0
 33
0.0
 16
1.0
 26
0.0
 36
0.0
 17
0.0
 27
1.0
 37
0.0
 76
     0
330
1B
  0
LAYOUT
  5
26
102
{ACAD_REACTORS
330
1A
102
}
330
1A
100
AcDbPlotSettings
  1

  2
none_device
  4

  6

 40
0.0
 41
0.0
 42
0.0
 43
0.0
 44
0.0
 45
0.0
 46
0.0
 47
0.0
 48
0.0
 49
0.0
140
0.0
141
0.0
142
1.0
143
1.0
 70
   688
 72
     0
 73
     0
 74
     5
  7

 75
    16
147
1.0
148
0.0
149
0.0
100
AcDbLayout
  1
Layout2
 70
     1
 71
     2
 10
0.0
 20
0.0
 11
0.0
 21
0.0
 12
0.0
 22
0.0
 32
0.0
 14
0.0
 24
0.0
 34
0.0
 15
0.0
 25
0.0
 35
0.0
146
0.0
 13
0.0
 23
0.0
 33
0.0
 16
1.0
 26
0.0
 36
0.0
 17
0.0
 27
1.0
 37
0.0
 76
     0
330
23
  0
LAYOUT
  5
22
102
{ACAD_REACTORS
330
1A
102
}
330
1A
100
AcDbPlotSettings
  1

  2
none_device
  4

  6

 40
0.0
 41
0.0
 42
0.0
 43
0.0
 44
0.0
 45
0.0
 46
0.0
 47
0.0
 48
0.0
 49
0.0
140
0.0
141
0.0
142
1.0
143
1.0
 70
  1712
 72
     0
 73
     0
 74
     0
  7

 75
     0
147
1.0
148
0.0
149
0.0
100
AcDbLayout
  1
Model
 70
     1
 71
     0
 10
0.0
 20
0.0
 11
297.0
 21
210.0
 12
0.0
 22
0.0
 32
0.0
 14
0.0
 24
0.0
 34
0.0
 15
297.0
 25
210.0
 35
0.0
146
0.0
 13
0.0
 23
0.0
 33
0.0
 16
1.0
 26
0.0
 36
0.0
 17
0.0
 27
1.0
 37
0.0
 76
     0
330
1F
331
29
  0
MLINESTYLE
  5
18
102
{ACAD_REACTORS
330
17
102
}
330
17
100
AcDbMlineStyle
  2
Standard
 70
     0
  3

 62
   256
 51
90.0
 52
90.0
 71
     2
 49
0.5
 62
   256
  6
BYLAYER
 49
-0.5
 62
   256
  6
BYLAYER
  0
ACDBPLACEHOLDER
  5
F
102
{ACAD_REACTORS
330
E
102
}
330
E
  0
ENDSEC
  0
EOF
