  0
SECTION
  2
HEADER
  9
$ACADVER
  1
AC1015
  9
$ACADMAINTVER
 70
     6
  9
$DWGCODEPAGE
  3
ANSI_1252
  9
$INSBASE
 10
0.0
 20
0.0
 30
0.0
  9
$EXTMIN
 10
0.0
 20
0.0
 30
0.0
  9
$EXTMAX
 10
297.0
 20
210.0
 30
0.0
  9
$LIMMIN
 10
0.0
 20
0.0
  9
$LIMMAX
 10
297.0
 20
210.0
  9
$ORTHOMODE
 70
     0
  9
$REGENMODE
 70
     1
  9
$FILLMODE
 70
     1
  9
$QTEXTMODE
 70
     0
  9
$MIRRTEXT
 70
     1
  9
$LTSCALE
 40
1.0
  9
$ATTMODE
 70
     1
  9
$TEXTSIZE
 40
2.0
  9
$TRACEWID
 40
1.0
  9
$TEXTSTYLE
  7
Standard
  9
$CLAYER
  8
0
  9
$CELTYPE
  6
ByLayer
  9
$CECOLOR
 62
   256
  9
$CELTSCALE
 40
1.0
  9
$DISPSILH
 70
     0
  9
$DIMSCALE
 40
1.0
  9
$DIMASZ
 40
3.0
  9
$DIMEXO
 40
0.0
  9
$DIMDLI
 40
3.75
  9
$DIMRND
 40
0.0
  9
$DIMDLE
 40
0.0
  9
$DIMEXE
 40
1.0
  9
$DIMTP
 40
0.0
  9
$DIMTM
 40
0.0
  9
$DIMTXT
 40
2.0
  9
$DIMCEN
 40
2.5
  9
$DIMTSZ
 40
0.0
  9
$DIMTOL
 70
     0
  9
$DIMLIM
 70
     0
  9
$DIMTIH
 70
     1
  9
$DIMTOH
 70
     1
  9
$DIMSE1
 70
     0
  9
$DIMSE2
 70
     0
  9
$DIMTAD
 70
     1
  9
$DIMZIN
 70
     0
  9
$DIMBLK
  1

  9
$DIMASO
 70
     1
  9
$DIMSHO
 70
     1
  9
$DIMPOST
  1

  9
$DIMAPOST
  1

  9
$DIMALT
 70
     0
  9
$DIMALTD
 70
     3
  9
$DIMALTF
 40
0.0393700787
  9
$DIMLFAC
 40
1.0
  9
$DIMTOFL
 70
     1
  9
$DIMTVP
 40
0.0
  9
$DIMTIX
 70
     0
  9
$DIMSOXD
 70
     0
  9
$DIMSAH
 70
     0
  9
$DIMBLK1
  1

  9
$DIMBLK2
  1

  9
$DIMSTYLE
  2
ISO-25
  9
$DIMCLRD
 70
     0
  9
$DIMCLRE
 70
     0
  9
$DIMCLRT
 70
     0
  9
$DIMTFAC
 40
1.0
  9
$DIMGAP
 40
1.524
  9
$DIMJUST
 70
     0
  9
$DIMSD1
 70
     0
  9
$DIMSD2
 70
     0
  9
$DIMTOLJ
 70
     0
  9
$DIMTZIN
 70
     0
  9
$DIMALTZ
 70
     0
  9
$DIMALTTZ
 70
     0
  9
$DIMUPT
 70
     0
  9
$DIMDEC
 70
     2
  9
$DIMTDEC
 70
     3
  9
$DIMALTU
 70
     2
  9
$DIMALTTD
 70
     3
  9
$DIMTXSTY
  7
Standard
  9
$DIMAUNIT
 70
     0
  9
$DIMADEC
 70
     2
  9
$DIMALTRND
 40
0.0
  9
$DIMAZIN
 70
     0
  9
$DIMDSEP
 70
    44
  9
$DIMATFIT
 70
     3
  9
$DIMFRAC
 70
     0
  9
$DIMLDRBLK
  1

  9
$DIMLUNIT
 70
     2
  9
$DIMLWD
 70
    -2
  9
$DIMLWE
 70
    -2
  9
$DIMTMOVE
 70
     0
  9
$LUNITS
 70
     2
  9
$LUPREC
 70
     2
  9
$SKETCHINC
 40
1.0
  9
$FILLETRAD
 40
10.0
  9
$AUNITS
 70
     0
  9
$AUPREC
 70
     2
  9
$MENU
  1
.
  9
$ELEVATION
 40
0.0
  9
$PELEVATION
 40
0.0
  9
$THICKNESS
 40
0.0
  9
$LIMCHECK
 70
     0
  9
$CHAMFERA
 40
10.0
  9
$CHAMFERB
 40
10.0
  9
$CHAMFERC
 40
20.0
  9
$CHAMFERD
 40
0.0
  9
$SKPOLY
 70
     0
  9
$TDCREATE
 40
2456279.385639641
  9
$TDUCREATE
 40
2456279.343972974
  9
$TDUPDATE
 40
2456279.385641273
  9
$TDUUPDATE
 40
2456279.343974607
  9
$TDINDWG
 40
0.0000000116
  9
$TDUSRTIMER
 40
0.0000000116
  9
$USRTIMER
 70
     1
  9
$ANGBASE
 50
0.0
  9
$ANGDIR
 70
     0
  9
$PDMODE
 70
     0
  9
$PDSIZE
 40
-1.0
  9
$PLINEWID
 40
0.0
  9
$SPLFRAME
 70
     0
  9
$SPLINETYPE
 70
     6
  9
$SPLINESEGS
 70
     8
  9
$HANDSEED
  5
372
  9
$SURFTAB1
 70
     6
  9
$SURFTAB2
 70
     6
  9
$SURFTYPE
 70
     6
  9
$SURFU
 70
     6
  9
$SURFV
 70
     6
  9
$UCSBASE
  2

  9
$UCSNAME
  2

  9
$UCSORG
 10
0.0
 20
0.0
 30
0.0
  9
$UCSXDIR
 10
1.0
 20
0.0
 30
0.0
  9
$UCSYDIR
 10
0.0
 20
1.0
 30
0.0
  9
$UCSORTHOREF
  2

  9
$UCSORTHOVIEW
 70
     0
  9
$UCSORGTOP
 10
0.0
 20
0.0
 30
0.0
  9
$UCSORGBOTTOM
 10
0.0
 20
0.0
 30
0.0
  9
$UCSORGLEFT
 10
0.0
 20
0.0
 30
0.0
  9
$UCSORGRIGHT
 10
0.0
 20
0.0
 30
0.0
  9
$UCSORGFRONT
 10
0.0
 20
0.0
 30
0.0
  9
$UCSORGBACK
 10
0.0
 20
0.0
 30
0.0
  9
$PUCSBASE
  2

  9
$PUCSNAME
  2

  9
$PUCSORG
 10
0.0
 20
0.0
 30
0.0
  9
$PUCSXDIR
 10
1.0
 20
0.0
 30
0.0
  9
$PUCSYDIR
 10
0.0
 20
1.0
 30
0.0
  9
$PUCSORTHOREF
  2

  9
$PUCSORTHOVIEW
 70
     0
  9
$PUCSORGTOP
 10
0.0
 20
0.0
 30
0.0
  9
$PUCSORGBOTTOM
 10
0.0
 20
0.0
 30
0.0
  9
$PUCSORGLEFT
 10
0.0
 20
0.0
 30
0.0
  9
$PUCSORGRIGHT
 10
0.0
 20
0.0
 30
0.0
  9
$PUCSORGFRONT
 10
0.0
 20
0.0
 30
0.0
  9
$PUCSORGBACK
 10
0.0
 20
0.0
 30
0.0
  9
$USERI1
 70
     0
  9
$USERI2
 70
     0
  9
$USERI3
 70
     0
  9
$USERI4
 70
     0
  9
$USERI5
 70
     0
  9
$USERR1
 40
0.0
  9
$USERR2
 40
0.0
  9
$USERR3
 40
0.0
  9
$USERR4
 40
0.0
  9
$USERR5
 40
0.0
  9
$WORLDVIEW
 70
     1
  9
$SHADEDGE
 70
     3
  9
$SHADEDIF
 70
    70
  9
$TILEMODE
 70
     1
  9
$MAXACTVP
 70
    64
  9
$PINSBASE
 10
0.0
 20
0.0
 30
0.0
  9
$PLIMCHECK
 70
     0
  9
$PEXTMIN
 10
1.0000000000E+20
 20
1.0000000000E+20
 30
1.0000000000E+20
  9
$PEXTMAX
 10
-1.0000000000E+20
 20
-1.0000000000E+20
 30
-1.0000000000E+20
  9
$PLIMMIN
 10
0.0
 20
0.0
  9
$PLIMMAX
 10
420.0
 20
297.0
  9
$UNITMODE
 70
     0
  9
$VISRETAIN
 70
     1
  9
$PLINEGEN
 70
     0
  9
$PSLTSCALE
 70
     1
  9
$TREEDEPTH
 70
  3020
  9
$CMLSTYLE
  2
Standard
  9
$CMLJUST
 70
     0
  9
$CMLSCALE
 40
20.0
  9
$PROXYGRAPHICS
 70
     1
  9
$MEASUREMENT
 70
     1
  9
$CELWEIGHT
370
    -1
  9
$ENDCAPS
280
     0
  9
$JOINSTYLE
280
     0
  9
$LWDISPLAY
290
     1
  9
$INSUNITS
 70
     4
  9
$HYPERLINKBASE
  1

  9
$STYLESHEET
  1

  9
$XEDIT
290
     1
  9
$CEPSNTYPE
380
     0
  9
$PSTYLEMODE
290
     1
  9
$FINGERPRINTGUID
  2
{B87D9B61-87A6-4365-88BA-666879860031}
  9
$VERSIONGUID
  2
{FAEB1C32-E019-11D5-929B-00C0DF256EC4}
  9
$EXTNAMES
290
     1
  9
$PSVPSCALE
 40
0.0
  9
$OLESTARTUP
290
     0
  0
ENDSEC
  0
SECTION
  2
CLASSES
  0
CLASS
  1
ACDBDICTIONARYWDFLT
  2
AcDbDictionaryWithDefault
  3
ObjectDBX Classes
 90
        0
280
     0
281
     0
  0
CLASS
  1
VISUALSTYLE
  2
AcDbVisualStyle
  3
ObjectDBX Classes
 90
     4095
280
     0
281
     0
  0
CLASS
  1
MATERIAL
  2
AcDbMaterial
  3
ObjectDBX Classes
 90
     1153
280
     0
281
     0
  0
CLASS
  1
ACDBPLACEHOLDER
  2
AcDbPlaceHolder
  3
ObjectDBX Classes
 90
        0
280
     0
281
     0
  0
CLASS
  1
LAYOUT
  2
AcDbLayout
  3
ObjectDBX Classes
 90
        0
280
     0
281
     0
  0
ENDSEC
  0
SECTION
  2
TABLES
  0
TABLE
  2
VPORT
  5
8
330
0
100
AcDbSymbolTable
 70
     1
  0
VPORT
  5
29
330
8
100
AcDbSymbolTableRecord
100
AcDbViewportTableRecord
  2
*Active
 70
     0
 10
0.0
 20
0.0
 11
1.0
 21
1.0
 12
148.5
 22
105.0
 13
0.0
 23
0.0
 14
10.0
 24
10.0
 15
10.0
 25
10.0
 16
0.0
 26
0.0
 36
1.0
 17
0.0
 27
0.0
 37
0.0
 40
210.0
 41
1.4142857143
 42
50.0
 43
0.0
 44
0.0
 50
0.0
 51
0.0
 71
     0
 72
  2000
 73
     1
 74
     3
 75
     0
 76
     0
 77
     0
 78
     0
281
     0
 65
     1
110
0.0
120
0.0
130
0.0
111
1.0
121
0.0
131
0.0
112
0.0
122
1.0
132
0.0
 79
     0
146
0.0
  0
ENDTAB
  0
TABLE
  2
LTYPE
  5
5
330
0
100
AcDbSymbolTable
 70
     6
  0
LTYPE
  5
14
330
5
100
AcDbSymbolTableRecord
100
AcDbLinetypeTableRecord
  2
ByBlock
 70
     0
  3

 72
    65
 73
     0
 40
0.0
  0
LTYPE
  5
15
330
5
100
AcDbSymbolTableRecord
100
AcDbLinetypeTableRecord
  2
ByLayer
 70
     0
  3

 72
    65
 73
     0
 40
0.0
  0
LTYPE
  5
16
330
5
100
AcDbSymbolTableRecord
100
AcDbLinetypeTableRecord
  2
Continuous
 70
     0
  3
Solid line
 72
    65
 73
     0
 40
0.0
  0
LTYPE
  5
3F
330
5
100
AcDbSymbolTableRecord
100
AcDbLinetypeTableRecord
  2
HIDDEN
 70
     0
  3
Hidden __ __ __ __ __ __ __ __ __ __ __ __ __ __
 72
    65
 73
     2
 40
1.905
 49
1.27
 74
     0
 49
-0.635
 74
     0
  0
LTYPE
  5
40
330
5
100
AcDbSymbolTableRecord
100
AcDbLinetypeTableRecord
  2
PHANTOM
 70
     0
  3
Phantom ______  __  __  ______  __  __  ______
 72
    65
 73
     6
 40
12.7
 49
6.35
 74
     0
 49
-1.27
 74
     0
 49
1.27
 74
     0
 49
-1.27
 74
     0
 49
1.27
 74
     0
 49
-1.27
 74
     0
  0
LTYPE
  5
41
330
5
100
AcDbSymbolTableRecord
100
AcDbLinetypeTableRecord
  2
CENTER
 70
     0
  3
Center ____ _ ____ _ ____ _ ____ _ ____ _ ____
 72
    65
 73
     4
 40
10.16
 49
6.35
 74
     0
 49
-1.27
 74
     0
 49
1.27
 74
     0
 49
-1.27
 74
     0
  0
LTYPE
  5
42
330
5
100
AcDbSymbolTableRecord
100
AcDbLinetypeTableRecord
  2
CENTERX2
 70
     0
  3
Center (2x) ________  __  ________  __  _____
 72
    65
 73
     4
 40
20.32
 49
12.7
 74
     0
 49
-2.54
 74
     0
 49
2.54
 74
     0
 49
-2.54
 74
     0
  0
LTYPE
  5
43
330
5
100
AcDbSymbolTableRecord
100
AcDbLinetypeTableRecord
  2
DOT2
 70
     0
  3
Dot (.5x) ........................................
 72
    65
 73
     2
 40
0.635
 49
0.0
 74
     0
 49
-0.635
 74
     0
  0
ENDTAB
  0
TABLE
  2
LAYER
  5
2
330
0
100
AcDbSymbolTable
 70
     5
  0
LAYER
  5
10
330
2
100
AcDbSymbolTableRecord
100
AcDbLayerTableRecord
  2
0
 70
     0
 62
     7
  6
Continuous
370
    -3
390
F
  0
LAYER
  5
44
330
2
100
AcDbSymbolTableRecord
100
AcDbLayerTableRecord
  2
FORMAT
 70
     0
 62
     7
  6
Continuous
370
    -3
390
F
  0
LAYER
  5
45
330
2
100
AcDbSymbolTableRecord
100
AcDbLayerTableRecord
  2
VERMASSUNG
 70
     0
 62
     7
  6
Continuous
370
    -3
390
F
  0
LAYER
  5
46
330
2
100
AcDbSymbolTableRecord
100
AcDbLayerTableRecord
  2
KOPF_DÜNN
 70
     0
 62
     7
  6
Continuous
370
    -3
390
F
  0
LAYER
  5
47
330
2
100
AcDbSymbolTableRecord
100
AcDbLayerTableRecord
  2
KOPF_DICK
 70
     0
 62
     7
  6
Continuous
370
    15
390
F
  0
ENDTAB
  0
TABLE
  2
STYLE
  5
3
330
0
100
AcDbSymbolTable
 70
     3
  0
STYLE
  5
11
330
3
100
AcDbSymbolTableRecord
100
AcDbTextStyleTableRecord
  2
Standard
 70
     0
 40
0.0
 41
1.0
 50
0.0
 71
     0
 42
2.0
  3
txt
  4

  0
STYLE
  5
48
330
3
100
AcDbSymbolTableRecord
100
AcDbTextStyleTableRecord
  2
SLDTEXTSTYLE0
 70
     0
 40
0.0
 41
0.7
 50
0.0
 71
     0
 42
0.2
  3
TXT
  4

  0
STYLE
  5
4C
330
3
100
AcDbSymbolTableRecord
100
AcDbTextStyleTableRecord
  2
SLDTEXTSTYLE1
 70
     0
 40
0.0
 41
0.6515151515
 50
0.0
 71
     0
 42
0.2
  3
TXT
  4

  0
ENDTAB
  0
TABLE
  2
VIEW
  5
6
330
0
100
AcDbSymbolTable
 70
     0
  0
ENDTAB
  0
TABLE
  2
UCS
  5
7
330
0
100
AcDbSymbolTable
 70
     0
  0
ENDTAB
  0
TABLE
  2
APPID
  5
9
330
0
100
AcDbSymbolTable
 70
     1
  0
APPID
  5
12
330
9
100
AcDbSymbolTableRecord
100
AcDbRegAppTableRecord
  2
ACAD
 70
     0
  0
ENDTAB
  0
TABLE
  2
DIMSTYLE
  5
A
330
0
100
AcDbSymbolTable
 70
     2
100
AcDbDimStyleTable
  0
DIMSTYLE
105
27
330
A
100
AcDbSymbolTableRecord
100
AcDbDimStyleTableRecord
  2
ISO-25
 70
     0
 41
2.5
 42
0.625
 43
3.75
 44
1.25
 73
     0
 74
     0
 77
     1
 78
     8
140
2.5
141
2.5
143
0.0393700787
147
0.625
171
     3
172
     1
178
     0
271
     2
272
     2
274
     3
278
    44
283
     0
284
     8
340
11
  0
DIMSTYLE
105
1A0
102
{ACAD_REACTORS
330
19F
330
350
330
35A
330
364
102
}
330
A
100
AcDbSymbolTableRecord
100
AcDbDimStyleTableRecord
  2
SLDDIMSTYLE0
 70
     0
 41
3.0
 44
0.0
 45
0.000000001
 73
     0
 74
     0
 77
     1
 78
    12
 79
     3
140
2.0
147
0.5
173
     1
178
     0
271
     2
272
     3
276
     2
284
    12
340
48
  0
ENDTAB
  0
TABLE
  2
BLOCK_RECORD
  5
1
330
0
100
AcDbSymbolTable
 70
     5
  0
BLOCK_RECORD
  5
1F
330
1
100
AcDbSymbolTableRecord
100
AcDbBlockTableRecord
  2
*Model_Space
340
22
  0
BLOCK_RECORD
  5
1B
330
1
100
AcDbSymbolTableRecord
100
AcDbBlockTableRecord
  2
*Paper_Space
340
1E
  0
BLOCK_RECORD
  5
23
330
1
100
AcDbSymbolTableRecord
100
AcDbBlockTableRecord
  2
*Paper_Space0
340
26
  0
BLOCK_RECORD
  5
1A1
330
1
100
AcDbSymbolTableRecord
100
AcDbBlockTableRecord
  2
_D
340
0
  0
BLOCK_RECORD
  5
351
330
1
100
AcDbSymbolTableRecord
100
AcDbBlockTableRecord
  2
_D_1
340
0
  0
BLOCK_RECORD
  5
35B
330
1
100
AcDbSymbolTableRecord
100
AcDbBlockTableRecord
  2
_D_2
340
0
  0
BLOCK_RECORD
  5
365
330
1
100
AcDbSymbolTableRecord
100
AcDbBlockTableRecord
  2
_D_3
340
0
  0
ENDTAB
  0
ENDSEC
  0
SECTION
  2
BLOCKS
  0
BLOCK
  5
20
330
1F
100
AcDbEntity
  8
0
100
AcDbBlockBegin
  2
*Model_Space
 70
     0
 10
0.0
 20
0.0
 30
0.0
  3
*Model_Space
  1

  0
ENDBLK
  5
21
330
1F
100
AcDbEntity
  8
0
100
AcDbBlockEnd
  0
BLOCK
  5
1C
330
1B
100
AcDbEntity
 67
     1
  8
0
100
AcDbBlockBegin
  2
*Paper_Space
 70
     0
 10
0.0
 20
0.0
 30
0.0
  3
*Paper_Space
  1

  0
ENDBLK
  5
1D
330
1B
100
AcDbEntity
 67
     1
  8
0
100
AcDbBlockEnd
  0
BLOCK
  5
24
330
23
100
AcDbEntity
  8
0
100
AcDbBlockBegin
  2
*Paper_Space0
 70
     0
 10
0.0
 20
0.0
 30
0.0
  3
*Paper_Space0
  1

  0
ENDBLK
  5
25
330
23
100
AcDbEntity
  8
0
100
AcDbBlockEnd
  0
BLOCK
  5
1A2
330
1A1
100
AcDbEntity
  8
0
100
AcDbBlockBegin
  2
_D
 70
     0
 10
0.0
 20
0.0
 30
0.0
  3
_D
  1

  0
SOLID
  5
1A4
330
1A1
100
AcDbEntity
  8
VERMASSUNG
100
AcDbTrace
 10
222.3431577869
 20
97.1703152804
 30
0.0
 11
221.8931577869
 21
94.1703152804
 31
0.0
 12
222.7931577869
 22
94.1703152804
 32
0.0
 13
222.7931577869
 23
94.1703152804
 33
0.0
  0
SOLID
  5
1A5
330
1A1
100
AcDbEntity
  8
VERMASSUNG
100
AcDbTrace
 10
222.3431577869
 20
45.1703152804
 30
0.0
 11
222.7931577869
 21
48.1703152804
 31
0.0
 12
221.8931577869
 22
48.1703152804
 32
0.0
 13
221.8931577869
 23
48.1703152804
 33
0.0
  0
LINE
  5
1A6
330
1A1
100
AcDbEntity
  8
VERMASSUNG
100
AcDbLine
 10
153.495316611
 20
97.1703152804
 30
0.0
 11
223.3431577869
 21
97.1703152804
 31
0.0
  0
LINE
  5
1A7
330
1A1
100
AcDbEntity
  8
VERMASSUNG
100
AcDbLine
 10
153.495316611
 20
45.1703152804
 30
0.0
 11
223.3431577869
 21
45.1703152804
 31
0.0
  0
LINE
  5
1A8
330
1A1
100
AcDbEntity
  8
VERMASSUNG
100
AcDbLine
 10
222.3431577869
 20
97.1703152804
 30
0.0
 11
222.3431577869
 21
45.1703152804
 31
0.0
  0
MTEXT
  5
1A9
330
1A1
100
AcDbEntity
  8
VERMASSUNG
100
AcDbMText
 10
219.7650223074
 20
67.065315455
 30
0.1
 40
2.0
 41
0.0
 71
     1
 72
     1
  1
%%c
  7
SLDTEXTSTYLE0
 11
-7.044195017643634E-15
 21
1.0
 31
0.0
 73
     1
 44
1.0
  0
MTEXT
  5
1AA
330
1A1
100
AcDbEntity
  8
VERMASSUNG
100
AcDbMText
 10
219.5650222979
 20
70.6753154693
 30
0.1
 40
2.0
 41
0.0
 71
     1
 72
     1
  1
52
  7
SLDTEXTSTYLE0
 11
-7.044195017643634E-15
 21
1.0
 31
0.0
 73
     1
 44
1.0
  0
ENDBLK
  5
1A3
330
1A1
100
AcDbEntity
  8
0
100
AcDbBlockEnd
  0
BLOCK
  5
352
330
351
100
AcDbEntity
  8
0
100
AcDbBlockBegin
  2
_D_1
 70
     0
 10
0.0
 20
0.0
 30
0.0
  3
_D_1
  1

  0
SOLID
  5
354
330
351
100
AcDbEntity
  8
VERMASSUNG
100
AcDbTrace
 10
112.1329529633
 20
187.0584467787
 30
0.0
 11
115.1329529633
 21
186.6084467787
 31
0.0
 12
115.1329529633
 22
187.5084467787
 32
0.0
 13
115.1329529633
 23
187.5084467787
 33
0.0
  0
SOLID
  5
355
330
351
100
AcDbEntity
  8
VERMASSUNG
100
AcDbTrace
 10
212.1329529633
 20
187.0584467787
 30
0.0
 11
209.1329529633
 21
187.5084467787
 31
0.0
 12
209.1329529633
 22
186.6084467787
 32
0.0
 13
209.1329529633
 23
186.6084467787
 33
0.0
  0
LINE
  5
356
330
351
100
AcDbEntity
  8
VERMASSUNG
100
AcDbLine
 10
112.1329529633
 20
182.892444452
 30
0.0
 11
112.1329529633
 21
188.0584467787
 31
0.0
  0
LINE
  5
357
330
351
100
AcDbEntity
  8
VERMASSUNG
100
AcDbLine
 10
212.1329529633
 20
156.0569588751
 30
0.0
 11
212.1329529633
 21
188.0584467787
 31
0.0
  0
LINE
  5
358
330
351
100
AcDbEntity
  8
VERMASSUNG
100
AcDbLine
 10
112.1329529633
 20
187.0584467787
 30
0.0
 11
212.1329529633
 21
187.0584467787
 31
0.0
  0
MTEXT
  5
359
330
351
100
AcDbEntity
  8
VERMASSUNG
100
AcDbMText
 10
159.3329528303
 20
189.6365821419
 30
0.1
 40
2.0
 41
0.0
 71
     1
 72
     1
  1
100
  7
SLDTEXTSTYLE0
 73
     1
 44
1.0
  0
ENDBLK
  5
353
330
351
100
AcDbEntity
  8
0
100
AcDbBlockEnd
  0
BLOCK
  5
35C
330
35B
100
AcDbEntity
  8
0
100
AcDbBlockBegin
  2
_D_2
 70
     0
 10
0.0
 20
0.0
 30
0.0
  3
_D_2
  1

  0
SOLID
  5
35E
330
35B
100
AcDbEntity
  8
VERMASSUNG
100
AcDbTrace
 10
212.1329529633
 20
193.192444452
 30
0.0
 11
209.1329529633
 21
193.642444452
 31
0.0
 12
209.1329529633
 22
192.742444452
 32
0.0
 13
209.1329529633
 23
192.742444452
 33
0.0
  0
SOLID
  5
35F
330
35B
100
AcDbEntity
  8
VERMASSUNG
100
AcDbTrace
 10
80.2329529633
 20
193.192444452
 30
0.0
 11
83.2329529633
 21
192.742444452
 31
0.0
 12
83.2329529633
 22
193.642444452
 32
0.0
 13
83.2329529633
 23
193.642444452
 33
0.0
  0
LINE
  5
360
330
35B
100
AcDbEntity
  8
VERMASSUNG
100
AcDbLine
 10
212.1329529633
 20
156.0569588751
 30
0.0
 11
212.1329529633
 21
194.192444452
 31
0.0
  0
LINE
  5
361
330
35B
100
AcDbEntity
  8
VERMASSUNG
100
AcDbLine
 10
80.2329529633
 20
173.273494488
 30
0.0
 11
80.2329529633
 21
194.192444452
 31
0.0
  0
LINE
  5
362
330
35B
100
AcDbEntity
  8
VERMASSUNG
100
AcDbLine
 10
212.1329529633
 20
193.192444452
 30
0.0
 11
80.2329529633
 21
193.192444452
 31
0.0
  0
MTEXT
  5
363
330
35B
100
AcDbEntity
  8
VERMASSUNG
100
AcDbMText
 10
142.5829527923
 20
195.7705798151
 30
0.1
 40
2.0
 41
0.0
 71
     1
 72
     1
  1
131.9
  7
SLDTEXTSTYLE0
 73
     1
 44
1.0
  0
ENDBLK
  5
35D
330
35B
100
AcDbEntity
  8
0
100
AcDbBlockEnd
  0
BLOCK
  5
366
330
365
100
AcDbEntity
  8
0
100
AcDbBlockBegin
  2
_D_3
 70
     0
 10
0.0
 20
0.0
 30
0.0
  3
_D_3
  1

  0
SOLID
  5
368
330
365
100
AcDbEntity
  8
VERMASSUNG
100
AcDbTrace
 10
70.0716433125
 20
183.192444452
 30
0.0
 11
69.6216433125
 21
180.192444452
 31
0.0
 12
70.5216433125
 22
180.192444452
 32
0.0
 13
70.5216433125
 23
180.192444452
 33
0.0
  0
SOLID
  5
369
330
365
100
AcDbEntity
  8
VERMASSUNG
100
AcDbTrace
 10
70.0716433125
 20
120.192444452
 30
0.0
 11
70.5216433125
 21
123.192444452
 31
0.0
 12
69.6216433125
 22
123.192444452
 32
0.0
 13
69.6216433125
 23
123.192444452
 33
0.0
  0
LINE
  5
36A
330
365
100
AcDbEntity
  8
VERMASSUNG
100
AcDbLine
 10
112.4329529633
 20
183.192444452
 30
0.0
 11
69.0716433125
 21
183.192444452
 31
0.0
  0
LINE
  5
36B
330
365
100
AcDbEntity
  8
VERMASSUNG
100
AcDbLine
 10
114.1329529633
 20
120.192444452
 30
0.0
 11
69.0716433125
 21
120.192444452
 31
0.0
  0
LINE
  5
36C
330
365
100
AcDbEntity
  8
VERMASSUNG
100
AcDbLine
 10
70.0716433125
 20
183.192444452
 30
0.0
 11
70.0716433125
 21
120.192444452
 31
0.0
  0
MTEXT
  5
36D
330
365
100
AcDbEntity
  8
VERMASSUNG
100
AcDbMText
 10
67.2935078235
 20
143.1874437192
 30
0.1
 40
2.0
 41
0.0
 71
     1
 72
     1
  1
HSK T
  7
SLDTEXTSTYLE0
 11
-7.044195017643634E-15
 21
1.0
 31
0.0
 73
     1
 44
1.0
  0
MTEXT
  5
36E
330
365
100
AcDbEntity
  8
VERMASSUNG
100
AcDbMText
 10
67.493507833
 20
151.9874436715
 30
0.1
 40
2.0
 41
0.0
 71
     1
 72
     1
  1
%%c
  7
SLDTEXTSTYLE0
 11
-7.044195017643634E-15
 21
1.0
 31
0.0
 73
     1
 44
1.0
  0
MTEXT
  5
36F
330
365
100
AcDbEntity
  8
VERMASSUNG
100
AcDbMText
 10
67.2935078235
 20
155.5974436858
 30
0.1
 40
2.0
 41
0.0
 71
     1
 72
     1
  1
63
  7
SLDTEXTSTYLE0
 11
-7.044195017643634E-15
 21
1.0
 31
0.0
 73
     1
 44
1.0
  0
ENDBLK
  5
367
330
365
100
AcDbEntity
  8
0
100
AcDbBlockEnd
  0
ENDSEC
  0
SECTION
  2
ENTITIES
  0
MTEXT
  5
49
330
1F
100
AcDbEntity
  8
KOPF_DÜNN
100
AcDbMText
 10
13.8892156294
 20
23.8442973028
 30
0.0
 40
3.0
 41
0.0
 71
     1
 72
     1
  1
HA6.KVB.NVA.100
  7
SLDTEXTSTYLE0
 73
     1
 44
1.0
  0
MTEXT
  5
4A
330
1F
100
AcDbEntity
  8
VERMASSUNG
100
AcDbMText
 10
13.9329988022
 20
28.8834360957
 30
0.0
 40
3.0
 41
0.0
 71
     1
 72
     1
  1
Klemmhalter_Turning tool
  7
SLDTEXTSTYLE0
 73
     1
 44
1.0
  0
MTEXT
  5
4B
330
1F
100
AcDbEntity
  8
VERMASSUNG
100
AcDbMText
 10
98.8601118557
 20
13.8365368179
 30
0.0
 40
2.0
 41
0.0
 71
     1
 72
     1
  1
Datum: 02.11.2011
  7
SLDTEXTSTYLE0
 73
     1
 44
1.0
  0
MTEXT
  5
4D
330
1F
100
AcDbEntity
  8
VERMASSUNG
100
AcDbMText
 10
13.933048693
 20
18.0482802738
 30
0.0
 40
2.0
 41
0.0
 71
     1
 72
     1
  1
DIN 69893 HSK T 63  / VC..16 04..
  7
SLDTEXTSTYLE1
 73
     1
 44
1.0
  0
MTEXT
  5
4E
330
1F
100
AcDbEntity
  8
VERMASSUNG
100
AcDbMText
 10
13.9808475933
 20
13.9090973692
 30
0.0
 40
2.0
 41
0.0
 71
     1
 72
     1
  1
Gewicht: 1159g
  7
SLDTEXTSTYLE0
 73
     1
 44
1.0
  0
LINE
  5
4F
330
1F
100
AcDbEntity
  8
0
  6
Continuous
 62
     7
370
    15
100
AcDbLine
 10
112.4329529775
 20
39.6703147738
 30
0.0
 11
117.0829529365
 21
39.6703147738
 31
0.0
  0
LINE
  5
50
330
1F
100
AcDbEntity
  8
0
  6
Continuous
 62
     7
370
    15
100
AcDbLine
 10
117.1109415081
 20
102.670315787
 30
0.0
 11
112.4329529775
 21
102.670315787
 31
0.0
  0
ARC
  5
51
330
1F
100
AcDbEntity
  8
0
  6
Continuous
 62
     7
370
    15
100
AcDbCircle
 10
112.4329529633
 20
39.9703152804
 30
0.0
 40
0.2999999999999972
100
AcDbArc
 50
180.0
 51
270.0
  0
ARC
  5
52
330
1F
100
AcDbEntity
  8
0
  6
Continuous
 62
     7
370
    15
100
AcDbCircle
 10
112.4329529633
 20
102.3703152804
 30
0.0
 40
0.2999999999999972
100
AcDbArc
 50
90.0
 51
180.0
  0
ARC
  5
53
330
1F
100
AcDbEntity
  8
0
  6
Continuous
 62
     7
370
    15
100
AcDbCircle
 10
139.0829529633
 20
44.1703152804
 30
0.0
 40
0.9999999999999929
100
AcDbArc
 50
90.0
 51
143.1139143113
  0
ARC
  5
54
330
1F
100
AcDbEntity
  8
0
  6
Continuous
 62
     7
370
    15
100
AcDbCircle
 10
139.0829529633
 20
98.1703152804
 30
0.0
 40
1.0
100
AcDbArc
 50
216.9027538046
 51
270.0
  0
LINE
  5
55
330
1F
100
AcDbEntity
  8
0
  6
Continuous
 62
     7
370
    15
100
AcDbLine
 10
139.0829528173
 20
45.170314744
 30
0.0
 11
153.4953168084
 21
45.170314744
 31
0.0
  0
LINE
  5
56
330
1F
100
AcDbEntity
  8
0
  6
Continuous
 62
     7
370
    15
100
AcDbLine
 10
153.4953168084
 20
97.1703158168
 30
0.0
 11
139.0829528173
 21
97.1703158168
 31
0.0
  0
ARC
  5
57
330
1F
100
AcDbEntity
  8
0
  6
Continuous
 62
     7
370
    15
100
AcDbCircle
 10
111.6329529633
 20
46.5998844187
 30
0.0
 40
0.6000000000000019
100
AcDbArc
 50
33.5573097619
 51
90.0
  0
ARC
  5
58
330
1F
100
AcDbEntity
  8
0
  6
Continuous
 62
     7
370
    15
100
AcDbCircle
 10
111.6329529633
 20
95.7407461421
 30
0.0
 40
0.6000000000000085
100
AcDbArc
 50
270.0
 51
326.4426902381
  0
LINE
  5
59
330
1F
100
AcDbEntity
  8
0
  6
Continuous
 62
     7
370
    15
100
AcDbLine
 10
110.1329528683
 20
46.9498840569
 30
0.0
 11
110.9896657945
 21
47.1794401704
 31
0.0
  0
LINE
  5
5A
330
1F
100
AcDbEntity
  8
0
  6
Continuous
 62
     7
370
    15
100
AcDbLine
 10
110.9896657945
 20
95.1611903904
 30
0.0
 11
110.1329528683
 21
95.3907465039
 31
0.0
  0
LINE
  5
5B
330
1F
100
AcDbEntity
  8
0
  6
Continuous
 62
     7
370
    15
100
AcDbLine
 10
98.9014445295
 20
94.8280451296
 30
0.0
 11
86.3329520871
 21
94.1983611731
 31
0.0
  0
LINE
  5
5C
330
1F
100
AcDbEntity
  8
0
  6
Continuous
 62
     7
370
    15
100
AcDbLine
 10
110.1329528683
 20
95.3907465039
 30
0.0
 11
107.3159514417
 21
95.249613881
 31
0.0
  0
LINE
  5
5D
330
1F
100
AcDbEntity
  8
0
  6
Continuous
 62
     7
370
    15
100
AcDbLine
 10
107.3160073211
 20
47.0910148172
 30
0.0
 11
110.1329528683
 21
46.9498840569
 31
0.0
  0
LINE
  5
5E
330
1F
100
AcDbEntity
  8
0
  6
Continuous
 62
     7
370
    15
100
AcDbLine
 10
90.3329527427
 20
47.9418692587
 30
0.0
 11
98.9018468608
 21
47.5125649421
 31
0.0
  0
ARC
  5
5F
330
1F
100
AcDbEntity
  8
0
  6
Continuous
 62
     7
370
    15
100
AcDbCircle
 10
111.1449571637
 20
46.5998844187
 30
0.0
 40
0.6000000000000109
100
AcDbArc
 50
90.0
 51
105.0
  0
ARC
  5
60
330
1F
100
AcDbEntity
  8
0
  6
Continuous
 62
     7
370
    15
100
AcDbCircle
 10
111.1449571637
 20
95.7407461421
 30
0.0
 40
0.6000000000000109
100
AcDbArc
 50
255.0
 51
270.0
  0
LINE
  5
61
330
1F
100
AcDbEntity
  8
0
  6
Continuous
 62
     7
370
    15
100
AcDbLine
 10
111.1449571981
 20
47.1998845635
 30
0.0
 11
111.6329529395
 21
47.1998845635
 31
0.0
  0
LINE
  5
62
330
1F
100
AcDbEntity
  8
0
  6
Continuous
 62
     7
370
    15
100
AcDbLine
 10
111.6329529395
 20
95.1407459973
 30
0.0
 11
111.1449571981
 21
95.1407459973
 31
0.0
  0
LINE
  5
63
330
1F
100
AcDbEntity
  8
0
  6
Continuous
 62
     7
370
    15
100
AcDbLine
 10
81.3829521139
 20
50.3578150122
 30
0.0
 11
88.9329532583
 21
50.3578150122
 31
0.0
  0
ARC
  5
64
330
1F
100
AcDbEntity
  8
0
  6
Continuous
 62
     7
370
    15
100
AcDbCircle
 10
88.9329529633
 20
48.9578152804
 30
0.0
 40
1.4
100
AcDbArc
 50
37.6443616934
 51
90.0
  0
LINE
  5
65
330
1F
100
AcDbEntity
  8
0
  6
Continuous
 62
     7
370
    15
100
AcDbLine
 10
81.3741157253
 20
92.0314790158
 30
0.0
 11
80.2428549578
 21
90.9002163856
 31
0.0
  0
LINE
  5
66
330
1F
100
AcDbEntity
  8
0
  6
Continuous
 62
     7
370
    15
100
AcDbLine
 10
80.23037151
 20
51.5103956161
 30
0.0
 11
81.3829521139
 21
50.3578150122
 31
0.0
  0
ARC
  5
67
330
1F
100
AcDbEntity
  8
0
  6
Continuous
 62
     7
370
    15
100
AcDbCircle
 10
84.9329529633
 20
93.4403152804
 30
0.0
 40
1.399999999999996
100
AcDbArc
 50
270.0
 51
301.7485287426
  0
LINE
  5
68
330
1F
100
AcDbEntity
  8
0
  6
Continuous
 62
     7
370
    15
100
AcDbLine
 10
84.9329526027
 20
92.0403154044
 30
0.0
 11
81.507218485
 21
92.0403154044
 31
0.0
  0
ARC
  5
69
330
1F
100
AcDbEntity
  8
0
  6
Continuous
 62
     7
370
    15
100
AcDbCircle
 10
197.1254176674
 20
71.1703152804
 30
0.0
 40
1.674999999999992
100
AcDbArc
 50
351.6787537241
 51
50.2786868513
  0
ARC
  5
6A
330
1F
100
AcDbEntity
  8
0
  6
Continuous
 62
     7
370
    15
100
AcDbCircle
 10
197.1254176674
 20
71.1703152804
 30
0.0
 40
1.674999999999992
100
AcDbArc
 50
50.2786868513
 51
110.3855285861
  0
ARC
  5
6B
330
1F
100
AcDbEntity
  8
0
  6
Continuous
 62
     7
370
    15
100
AcDbCircle
 10
197.1254176674
 20
71.1703152804
 30
0.0
 40
1.675000000000032
100
AcDbArc
 50
110.3855285861
 51
168.9854617133
  0
LINE
  5
6C
330
1F
100
AcDbEntity
  8
0
  6
Continuous
 62
     7
370
    15
100
AcDbLine
 10
195.4671604981
 20
71.4065537061
 30
0.0
 11
195.4812718977
 21
71.4903375367
 31
0.0
  0
ARC
  5
6D
330
1F
100
AcDbEntity
  8
0
  6
Continuous
 62
     7
370
    15
100
AcDbCircle
 10
197.1254176674
 20
71.1703152804
 30
0.0
 40
1.675000000000015
100
AcDbArc
 50
171.8920924852
 51
228.3358106515
  0
LINE
  5
6E
330
1F
100
AcDbEntity
  8
0
  6
Continuous
 62
     7
370
    15
100
AcDbLine
 10
196.1042298426
 20
69.8426078482
 30
0.0
 11
196.0119395007
 21
69.9190001644
 31
0.0
  0
ARC
  5
6F
330
1F
100
AcDbEntity
  8
0
  6
Continuous
 62
     7
370
    15
100
AcDbCircle
 10
197.1254176674
 20
71.1703152804
 30
0.0
 40
1.675000000000018
100
AcDbArc
 50
232.4349025517
 51
288.2293128857
  0
LINE
  5
70
330
1F
100
AcDbEntity
  8
0
  6
Continuous
 62
     7
370
    15
100
AcDbLine
 10
197.7617754092
 20
69.6209042974
 30
0.0
 11
197.6493908514
 21
69.5793799999
 31
0.0
  0
ARC
  5
71
330
1F
100
AcDbEntity
  8
0
  6
Continuous
 62
     7
370
    15
100
AcDbCircle
 10
197.1254176674
 20
71.1703152804
 30
0.0
 40
1.674999999999998
100
AcDbArc
 50
292.328404786
 51
348.7721229523
  0
LINE
  5
72
330
1F
100
AcDbEntity
  8
0
  6
Continuous
 62
     7
370
    15
100
AcDbLine
 10
198.7827806224
 20
70.9279040487
 30
0.0
 11
198.7683562984
 21
70.8441733325
 31
0.0
  0
CIRCLE
  5
73
330
1F
100
AcDbEntity
  8
0
  6
Continuous
 62
     7
370
    15
100
AcDbCircle
 10
197.1254176674
 20
71.1703152804
 30
0.0
 40
1.799999999999978
  0
SPLINE
  5
74
330
1F
100
AcDbEntity
  8
0
  6
Continuous
 62
     7
370
    15
100
AcDbSpline
210
0.0
220
0.0
230
1.0
 70
     8
 71
     3
 72
    11
 73
     7
 74
     0
 42
0.00000001
 43
0.00000001
 12
1.0
 22
0.0
 32
0.0
 13
1.0
 23
0.0
 33
0.0
 40
0.0
 40
0.0
 40
0.0
 40
0.0
 40
0.2668991828360662
 40
0.5546109122349709
 40
0.8439027094090256
 40
1.0
 40
1.0
 40
1.0
 40
1.0
 10
196.1042298425942
 20
69.84260784819034
 30
0.0
 10
196.1360556364538
 20
69.8283513960146
 30
0.0
 10
196.202188969563
 20
69.7987267869678
 30
0.0
 10
196.3138934420921
 20
69.79708745187843
 30
0.0
 10
196.4062294142597
 20
69.82424241803847
 30
0.0
 10
196.4536498036679
 20
69.85625934664937
 30
0.0
 10
196.4702694167405
 20
69.86748044735995
 30
0.0
  0
SPLINE
  5
75
330
1F
100
AcDbEntity
  8
0
  6
Continuous
 62
     7
370
    15
100
AcDbSpline
210
0.0
220
0.0
230
1.0
 70
     8
 71
     3
 72
    12
 73
     8
 74
     0
 42
0.00000001
 43
0.00000001
 12
1.0
 22
0.0
 32
0.0
 13
1.0
 23
0.0
 33
0.0
 40
0.0
 40
0.0
 40
0.0
 40
0.0
 40
0.2058385850019946
 40
0.412065089267402
 40
0.6141386288004534
 40
0.8132771872472984
 40
0.9999999999999999
 40
0.9999999999999999
 40
0.9999999999999999
 40
0.9999999999999999
 10
196.4702694167405
 20
69.86748044735995
 30
0.0
 10
196.5261446560868
 20
69.90179270518418
 30
0.0
 10
196.6380004361335
 20
69.97048188502464
 30
0.0
 10
196.8377138289114
 20
69.9965108355494
 30
0.0
 10
197.0304769456738
 20
69.95933811864535
 30
0.0
 10
197.1986386558373
 20
69.86630337643405
 30
0.0
 10
197.2751920830112
 20
69.77043615958084
 30
0.0
 10
197.312237178257
 20
69.72404489650634
 30
0.0
  0
SPLINE
  5
76
330
1F
100
AcDbEntity
  8
0
  6
Continuous
 62
     7
370
    15
100
AcDbSpline
210
0.0
220
0.0
230
1.0
 70
     8
 71
     3
 72
    11
 73
     7
 74
     0
 42
0.00000001
 43
0.00000001
 12
1.0
 22
0.0
 32
0.0
 13
1.0
 23
0.0
 33
0.0
 40
0.0
 40
0.0
 40
0.0
 40
0.0
 40
0.2928981269322496
 40
0.5864403578238309
 40
0.8775304343458574
 40
1.0
 40
1.0
 40
1.0
 40
1.0
 10
197.312237178257
 20
69.72404489650634
 30
0.0
 10
197.3361789249625
 20
69.69465571698176
 30
0.0
 10
197.3841150679892
 20
69.63581272902191
 30
0.0
 10
197.4881932990474
 20
69.58438147378135
 30
0.0
 10
197.5804414887346
 20
69.57028493490081
 30
0.0
 10
197.6336376081767
 20
69.57730199992778
 30
0.0
 10
197.649390851429
 20
69.57937999985424
 30
0.0
  0
SPLINE
  5
77
330
1F
100
AcDbEntity
  8
0
  6
Continuous
 62
     7
370
    15
100
AcDbSpline
210
0.0
220
0.0
230
1.0
 70
     8
 71
     3
 72
    12
 73
     8
 74
     0
 42
0.00000001
 43
0.00000001
 12
1.0
 22
0.0
 32
0.0
 13
1.0
 23
0.0
 33
0.0
 40
0.0
 40
0.0
 40
0.0
 40
0.0
 40
0.2057902260420887
 40
0.4120338482203682
 40
0.6141337648915498
 40
0.8132655060676973
 40
1.0
 40
1.0
 40
1.0
 40
1.0
 10
197.9237882842331
 20
69.95065244271663
 30
0.0
 10
197.9220086653999
 20
70.01618088744934
 30
0.0
 10
197.9184455068848
 20
70.14738214890083
 30
0.0
 10
197.9957410338397
 20
70.3333562292632
 30
0.0
 10
198.1243232641603
 20
70.48172029202193
 30
0.0
 10
198.2889832819307
 20
70.58085129694663
 30
0.0
 10
198.4102881829322
 20
70.59921735835326
 30
0.0
 10
198.4689919699936
 20
70.6081053533895
 30
0.0
  0
SPLINE
  5
78
330
1F
100
AcDbEntity
  8
0
  6
Continuous
 62
     7
370
    15
100
AcDbSpline
210
0.0
220
0.0
230
1.0
 70
     8
 71
     3
 72
    11
 73
     7
 74
     0
 42
0.00000001
 43
0.00000001
 12
1.0
 22
0.0
 32
0.0
 13
1.0
 23
0.0
 33
0.0
 40
0.0
 40
0.0
 40
0.0
 40
0.0
 40
0.2802354612477647
 40
0.5612856277856275
 40
0.8399901441422394
 40
0.9999999999999999
 40
0.9999999999999999
 40
0.9999999999999999
 40
0.9999999999999999
 10
198.4689919699936
 20
70.6081053533895
 30
0.0
 10
198.5063910499779
 20
70.61413702985938
 30
0.0
 10
198.5812979371865
 20
70.62621791819133
 30
0.0
 10
198.6777950308234
 20
70.69060416726981
 30
0.0
 10
198.7400643764347
 20
70.76798091348662
 30
0.0
 10
198.7607952441567
 20
70.82381080597574
 30
0.0
 10
198.7683562983781
 20
70.8441733325204
 30
0.0
  0
SPLINE
  5
79
330
1F
100
AcDbEntity
  8
0
  6
Continuous
 62
     7
370
    15
100
AcDbSpline
210
0.0
220
0.0
230
1.0
 70
     8
 71
     3
 72
    11
 73
     7
 74
     0
 42
0.00000001
 43
0.00000001
 12
1.0
 22
0.0
 32
0.0
 13
1.0
 23
0.0
 33
0.0
 40
0.0
 40
0.0
 40
0.0
 40
0.0
 40
0.2657607194148847
 40
0.5530050889545043
 40
0.841821380252036
 40
1.0
 40
1.0
 40
1.0
 40
1.0
 10
197.761775409153
 20
69.62090429741201
 30
0.0
 10
197.7900009824645
 20
69.64122354905196
 30
0.0
 10
197.8487338370199
 20
69.68350462650153
 30
0.0
 10
197.906214582988
 20
69.77918279364117
 30
0.0
 10
197.9291978127713
 20
69.8729660540816
 30
0.0
 10
197.9252022121631
 20
69.93034698469141
 30
0.0
 10
197.9237882842331
 20
69.95065244271663
 30
0.0
  0
SPLINE
  5
7A
330
1F
100
AcDbEntity
  8
0
  6
Continuous
 62
     7
370
    15
100
AcDbSpline
210
0.0
220
0.0
230
1.0
 70
     8
 71
     3
 72
    11
 73
     7
 74
     0
 42
0.00000001
 43
0.00000001
 12
1.0
 22
0.0
 32
0.0
 13
1.0
 23
0.0
 33
0.0
 40
0.0
 40
0.0
 40
0.0
 40
0.0
 40
0.2431084357955591
 40
0.5182777137558241
 40
0.794778140298678
 40
1.0
 40
1.0
 40
1.0
 40
1.0
 10
195.4671604980736
 20
71.40655370611475
 30
0.0
 10
195.4687001302954
 20
71.37343120026219
 30
0.0
 10
195.4719824395469
 20
71.3028180331339
 30
0.0
 10
195.5189766107551
 20
71.20351234683338
 30
0.0
 10
195.5891602158439
 20
71.12670997037819
 30
0.0
 10
195.6468857245561
 20
71.09723631535203
 30
0.0
 10
195.6714777697831
 20
71.08468003869766
 30
0.0
  0
SPLINE
  5
7B
330
1F
100
AcDbEntity
  8
0
  6
Continuous
 62
     7
370
    15
100
AcDbSpline
210
0.0
220
0.0
230
1.0
 70
     8
 71
     3
 72
    12
 73
     8
 74
     0
 42
0.00000001
 43
0.00000001
 12
1.0
 22
0.0
 32
0.0
 13
1.0
 23
0.0
 33
0.0
 40
0.0
 40
0.0
 40
0.0
 40
0.0
 40
0.2058197651189802
 40
0.4120224579102676
 40
0.614078691086043
 40
0.8132135809516262
 40
0.9999999999999999
 40
0.9999999999999999
 40
0.9999999999999999
 40
0.9999999999999999
 10
195.6714777697831
 20
71.08468003869766
 30
0.0
 10
195.7291272163076
 20
71.05344942001676
 30
0.0
 10
195.8445333661519
 20
70.99093007808902
 30
0.0
 10
195.9669290832562
 20
70.83100360262276
 30
0.0
 10
196.0311257994816
 20
70.6454968919896
 30
0.0
 10
196.0346563172276
 20
70.45333741651655
 30
0.0
 10
195.9899076902129
 20
70.33908827006
 30
0.0
 10
195.9682492961197
 20
70.28379153351543
 30
0.0
  0
SPLINE
  5
7C
330
1F
100
AcDbEntity
  8
0
  6
Continuous
 62
     7
370
    15
100
AcDbSpline
210
0.0
220
0.0
230
1.0
 70
     8
 71
     3
 72
    11
 73
     7
 74
     0
 42
0.00000001
 43
0.00000001
 12
1.0
 22
0.0
 32
0.0
 13
1.0
 23
0.0
 33
0.0
 40
0.0
 40
0.0
 40
0.0
 40
0.0
 40
0.2908663684761192
 40
0.5839577961873801
 40
0.8746002245538037
 40
1.0
 40
1.0
 40
1.0
 40
1.0
 10
195.9682492961197
 20
70.28379153351543
 30
0.0
 10
195.9548223821235
 20
70.24856298428597
 30
0.0
 10
195.9278658414001
 20
70.17783639571991
 30
0.0
 10
195.9351412950731
 20
70.06218469360589
 30
0.0
 10
195.9690424609632
 20
69.97478376357247
 30
0.0
 10
196.0020044026845
 20
69.93191983280121
 30
0.0
 10
196.0119395007401
 20
69.91900016444978
 30
0.0
  0
SPLINE
  5
7D
330
1F
100
AcDbEntity
  8
0
  6
Continuous
 62
     7
370
    15
100
AcDbSpline
210
0.0
220
0.0
230
1.0
 70
     8
 71
     3
 72
    12
 73
     8
 74
     0
 42
0.00000001
 43
0.00000001
 12
1.0
 22
0.0
 32
0.0
 13
1.0
 23
0.0
 33
0.0
 40
0.0
 40
0.0
 40
0.0
 40
0.0
 40
0.2058550212930525
 40
0.4120993093560565
 40
0.6141929396359552
 40
0.8133179041478235
 40
1.0
 40
1.0
 40
1.0
 40
1.0
 10
198.5785155047684
 20
71.25102399303123
 30
0.0
 10
198.5208602156879
 20
71.28226069865472
 30
0.0
 10
198.4054406127966
 20
71.34479317774189
 30
0.0
 10
198.2830421014082
 20
71.50475089149577
 30
0.0
 10
198.2188484707283
 20
71.69028638736286
 30
0.0
 10
198.2153630793661
 20
71.88243001487112
 30
0.0
 10
198.2601029556438
 20
71.9966462245209
 30
0.0
 10
198.2817514290123
 20
72.05191250548941
 30
0.0
  0
SPLINE
  5
7E
330
1F
100
AcDbEntity
  8
0
  6
Continuous
 62
     7
370
    15
100
AcDbSpline
210
0.0
220
0.0
230
1.0
 70
     8
 71
     3
 72
    11
 73
     7
 74
     0
 42
0.00000001
 43
0.00000001
 12
1.0
 22
0.0
 32
0.0
 13
1.0
 23
0.0
 33
0.0
 40
0.0
 40
0.0
 40
0.0
 40
0.0
 40
0.2524758320411289
 40
0.5068868560610058
 40
0.7591740908102187
 40
1.0
 40
1.0
 40
1.0
 40
1.0
 10
198.2817514290123
 20
72.05191250548941
 30
0.0
 10
198.2951820602831
 20
72.0871512812515
 30
0.0
 10
198.3221462667367
 20
72.15789893306861
 30
0.0
 10
198.3147692398087
 20
72.27336573474787
 30
0.0
 10
198.274028594831
 20
72.38016495014884
 30
0.0
 10
198.2214900397778
 20
72.43290452953876
 30
0.0
 10
198.1958313335686
 20
72.458661411733
 30
0.0
  0
SPLINE
  5
7F
330
1F
100
AcDbEntity
  8
0
  6
Continuous
 62
     7
370
    15
100
AcDbSpline
210
0.0
220
0.0
230
1.0
 70
     8
 71
     3
 72
    11
 73
     7
 74
     0
 42
0.00000001
 43
0.00000001
 12
1.0
 22
0.0
 32
0.0
 13
1.0
 23
0.0
 33
0.0
 40
0.0
 40
0.0
 40
0.0
 40
0.0
 40
0.2423600082196787
 40
0.5166807025142887
 40
0.7923244800564908
 40
1.0
 40
1.0
 40
1.0
 40
1.0
 10
198.7827806224137
 20
70.92790404866227
 30
0.0
 10
198.781364219448
 20
70.96103226606421
 30
0.0
 10
198.7783446285316
 20
71.03165741072405
 30
0.0
 10
198.7317217201458
 20
71.13113281077366
 30
0.0
 10
198.6615438817519
 20
71.20852693664739
 30
0.0
 10
198.6034693263097
 20
71.23825168554357
 30
0.0
 10
198.5785155047684
 20
71.25102399303123
 30
0.0
  0
SPLINE
  5
80
330
1F
100
AcDbEntity
  8
0
  6
Continuous
 62
     7
370
    15
100
AcDbSpline
210
0.0
220
0.0
230
1.0
 70
     8
 71
     3
 72
    12
 73
     8
 74
     0
 42
0.00000001
 43
0.00000001
 12
1.0
 22
0.0
 32
0.0
 13
1.0
 23
0.0
 33
0.0
 40
0.0
 40
0.0
 40
0.0
 40
0.0
 40
0.0091805173533291
 40
0.2576841390206328
 40
0.5061931117800227
 40
0.7560375526044278
 40
1.0
 40
1.0
 40
1.0
 40
1.0
 10
196.5419589032441
 20
72.7404100064492
 30
0.0
 10
196.5406740144151
 20
72.73992710838037
 30
0.0
 10
196.5046090020768
 20
72.72637284250311
 30
0.0
 10
196.4379669966701
 20
72.68680872657647
 30
0.0
 10
196.365367925973
 20
72.6002366571317
 30
0.0
 10
196.3229438738908
 20
72.49503204411947
 30
0.0
 10
196.3251316049679
 20
72.42141942723478
 30
0.0
 10
196.3262124408989
 20
72.38505153808055
 30
0.0
  0
SPLINE
  5
81
330
1F
100
AcDbEntity
  8
0
  6
Continuous
 62
     7
370
    15
100
AcDbSpline
210
0.0
220
0.0
230
1.0
 70
     8
 71
     3
 72
    12
 73
     8
 74
     0
 42
0.00000001
 43
0.00000001
 12
1.0
 22
0.0
 32
0.0
 13
1.0
 23
0.0
 33
0.0
 40
0.0
 40
0.0
 40
0.0
 40
0.0
 40
0.2057529133188443
 40
0.4119594071435765
 40
0.6140177101874255
 40
0.8131413035415292
 40
1.0
 40
1.0
 40
1.0
 40
1.0
 10
196.3262124408989
 20
72.38505153808055
 30
0.0
 10
196.3279904314066
 20
72.31953245349989
 30
0.0
 10
196.3315503319866
 20
72.18834984808709
 30
0.0
 10
196.2542796724381
 20
72.00239733444005
 30
0.0
 10
196.1257339804198
 20
71.85403957380906
 30
0.0
 10
195.9610785491157
 20
71.75487174924257
 30
0.0
 10
195.8397418625597
 20
71.73649506216651
 30
0.0
 10
195.7810013045579
 20
71.72759868561533
 30
0.0
  0
SPLINE
  5
82
330
1F
100
AcDbEntity
  8
0
  6
Continuous
 62
     7
370
    15
100
AcDbSpline
210
0.0
220
0.0
230
1.0
 70
     8
 71
     3
 72
    11
 73
     7
 74
     0
 42
0.00000001
 43
0.00000001
 12
1.0
 22
0.0
 32
0.0
 13
1.0
 23
0.0
 33
0.0
 40
0.0
 40
0.0
 40
0.0
 40
0.0
 40
0.2794027283780181
 40
0.5596245152792493
 40
0.837501280866932
 40
1.0
 40
1.0
 40
1.0
 40
1.0
 10
195.7810013045578
 20
71.72759868561533
 30
0.0
 10
195.7435993167961
 20
71.72156608209784
 30
0.0
 10
195.6686856987612
 20
71.709483190714
 30
0.0
 10
195.5721868888994
 20
71.64508912713171
 30
0.0
 10
195.509643801677
 20
71.5673828898692
 30
0.0
 10
195.4889192610087
 20
71.5111043420234
 30
0.0
 10
195.4812718977242
 20
71.4903375367472
 30
0.0
  0
SPLINE
  5
83
330
1F
100
AcDbEntity
  8
0
  6
Continuous
 62
     7
370
    15
100
AcDbSpline
210
0.0
220
0.0
230
1.0
 70
     8
 71
     3
 72
    12
 73
     8
 74
     0
 42
0.00000001
 43
0.00000001
 12
1.0
 22
0.0
 32
0.0
 13
1.0
 23
0.0
 33
0.0
 40
0.0
 40
0.0
 40
0.0
 40
0.0
 40
0.0091640392100663
 40
0.2573301688693957
 40
0.5054989368692984
 40
0.7550009050038144
 40
1.0
 40
1.0
 40
1.0
 40
1.0
 10
198.1958313335686
 20
72.458661411733
 30
0.0
 10
198.1947728326206
 20
72.45953441168896
 30
0.0
 10
198.1650496699997
 20
72.48404862653923
 30
0.0
 10
198.0975303778558
 20
72.52209953728278
 30
0.0
 10
197.986295996559
 20
72.54189539922234
 30
0.0
 10
197.873730665202
 20
72.52621578526899
 30
0.0
 10
197.8108736375658
 20
72.48743657762584
 30
0.0
 10
197.7797313083916
 20
72.46822353343723
 30
0.0
  0
SPLINE
  5
84
330
1F
100
AcDbEntity
  8
0
  6
Continuous
 62
     7
370
    15
100
AcDbSpline
210
0.0
220
0.0
230
1.0
 70
     8
 71
     3
 72
    12
 73
     8
 74
     0
 42
0.00000001
 43
0.00000001
 12
1.0
 22
0.0
 32
0.0
 13
1.0
 23
0.0
 33
0.0
 40
0.0
 40
0.0
 40
0.0
 40
0.0
 40
0.2058455312183483
 40
0.4120703034984139
 40
0.6141410114384249
 40
0.8132593457346325
 40
1.0
 40
1.0
 40
1.0
 40
1.0
 10
197.7797313083916
 20
72.46822353343723
 30
0.0
 10
197.7238536427099
 20
72.43391102646358
 30
0.0
 10
197.6119953647092
 20
72.36522279661112
 30
0.0
 10
197.412280368803
 20
72.33919325762675
 30
0.0
 10
197.2195210602162
 20
72.37636532247649
 30
0.0
 10
197.0513610373287
 20
72.46939937671402
 30
0.0
 10
196.974805824289
 20
72.56526431915016
 30
0.0
 10
196.9377560962944
 20
72.61165920070616
 30
0.0
  0
SPLINE
  5
85
330
1F
100
AcDbEntity
  8
0
  6
Continuous
 62
     7
370
    15
100
AcDbSpline
210
0.0
220
0.0
230
1.0
 70
     8
 71
     3
 72
    11
 73
     7
 74
     0
 42
0.00000001
 43
0.00000001
 12
1.0
 22
0.0
 32
0.0
 13
1.0
 23
0.0
 33
0.0
 40
0.0
 40
0.0
 40
0.0
 40
0.0
 40
0.2535047890927034
 40
0.5075643154518416
 40
0.7595163643272748
 40
1.0
 40
1.0
 40
1.0
 40
1.0
 10
196.9377560962944
 20
72.61165920070616
 30
0.0
 10
196.9138077959393
 20
72.64106197474435
 30
0.0
 10
196.8658587898495
 20
72.6999318640687
 30
0.0
 10
196.7618777500155
 20
72.75117190754197
 30
0.0
 10
196.6489845228035
 20
72.76907905256985
 30
0.0
 10
196.5770758791399
 20
72.74981682143162
 30
0.0
 10
196.5419589032441
 20
72.7404100064492
 30
0.0
  0
CIRCLE
  5
86
330
1F
100
AcDbEntity
  8
0
  6
Continuous
 62
     7
370
    15
100
AcDbCircle
 10
197.1254176674
 20
71.1703152804
 30
0.0
 40
2.624999999999981
  0
ARC
  5
87
330
1F
100
AcDbEntity
  8
0
  6
Continuous
 62
     7
370
    15
100
AcDbCircle
 10
182.7178823714
 20
71.1703152804
 30
0.0
 40
0.3800000000000021
100
AcDbArc
 50
107.5
 51
252.5
  0
LINE
  5
88
330
1F
100
AcDbEntity
  8
0
  6
Continuous
 62
     7
370
    15
100
AcDbLine
 10
211.8814675559
 20
71.5429001314
 30
0.0
 11
197.344803666
 21
76.1262929475
 31
0.0
  0
LINE
  5
89
330
1F
100
AcDbEntity
  8
0
  6
Continuous
 62
     7
370
    15
100
AcDbLine
 10
197.344803666
 20
66.2143376133
 30
0.0
 11
211.8814675559
 21
70.7977304294
 31
0.0
  0
LINE
  5
8A
330
1F
100
AcDbEntity
  8
0
  6
Continuous
 62
     7
370
    15
100
AcDbLine
 10
182.5693635692
 20
70.7977304294
 30
0.0
 11
197.1060349097
 21
66.2143376133
 31
0.0
  0
LINE
  5
8B
330
1F
100
AcDbEntity
  8
0
  6
Continuous
 62
     7
370
    15
100
AcDbLine
 10
197.1060349097
 20
76.1262929475
 30
0.0
 11
182.5693635692
 21
71.5429001314
 31
0.0
  0
LINE
  5
8C
330
1F
100
AcDbEntity
  8
0
  6
Continuous
 62
     7
370
    15
100
AcDbLine
 10
197.3396851172
 20
66.2336946873
 30
0.0
 11
211.8472246875
 21
70.8079028293
 31
0.0
  0
ARC
  5
8D
330
1F
100
AcDbEntity
  8
0
  6
Continuous
 62
     7
370
    15
100
AcDbCircle
 10
211.7329529633
 20
71.1703152804
 30
0.0
 40
0.3800000000000021
100
AcDbArc
 50
287.5
 51
72.5
  0
LINE
  5
8E
330
1F
100
AcDbEntity
  8
0
  6
Continuous
 62
     7
370
    15
100
AcDbLine
 10
211.8472246875
 20
71.5327277315
 30
0.0
 11
197.3396851172
 21
76.1069358735
 31
0.0
  0
ARC
  5
8F
330
1F
100
AcDbEntity
  8
0
  6
Continuous
 62
     7
370
    15
100
AcDbCircle
 10
197.2254176674
 20
75.7445235888
 30
0.0
 40
0.3799999999999885
100
AcDbArc
 50
72.5
 51
107.5
  0
LINE
  5
90
330
1F
100
AcDbEntity
  8
0
  6
Continuous
 62
     7
370
    15
100
AcDbLine
 10
197.1111460079
 20
76.1069358735
 30
0.0
 11
182.6036138882
 21
71.5327277315
 31
0.0
  0
LINE
  5
91
330
1F
100
AcDbEntity
  8
0
  6
Continuous
 62
     7
370
    15
100
AcDbLine
 10
182.6036138882
 20
70.8079028293
 30
0.0
 11
197.1111460079
 21
66.2336946873
 31
0.0
  0
ARC
  5
92
330
1F
100
AcDbEntity
  8
0
  6
Continuous
 62
     7
370
    15
100
AcDbCircle
 10
197.2254176674
 20
66.596106972
 30
0.0
 40
0.3799999999999885
100
AcDbArc
 50
252.5
 51
287.5
  0
SPLINE
  5
93
330
1F
100
AcDbEntity
  8
0
  6
Continuous
 62
     7
370
    15
100
AcDbSpline
210
0.0
220
0.0
230
1.0
 70
     8
 71
     3
 72
    10
 73
     6
 74
     0
 42
0.00000001
 43
0.00000001
 12
1.0
 22
0.0
 32
0.0
 13
1.0
 23
0.0
 33
0.0
 40
0.0
 40
0.0
 40
0.0
 40
0.0
 40
0.2724796921727471
 40
0.5447441479225928
 40
1.0
 40
1.0
 40
1.0
 40
1.0
 10
197.1060349096566
 20
66.2143376132777
 30
0.0
 10
197.1273290959426
 20
66.2087807421369
 30
0.0
 10
197.1699006478685
 20
66.19767138932392
 30
0.0
 10
197.2512661498482
 20
66.19289110920896
 30
0.0
 10
197.3088006562786
 20
66.2060827576128
 30
0.0
 10
197.3448036660462
 20
66.2143376132777
 30
0.0
  0
SPLINE
  5
94
330
1F
100
AcDbEntity
  8
0
  6
Continuous
 62
     7
370
    15
100
AcDbSpline
210
0.0
220
0.0
230
1.0
 70
     8
 71
     3
 72
    10
 73
     6
 74
     0
 42
0.00000001
 43
0.00000001
 12
1.0
 22
0.0
 32
0.0
 13
1.0
 23
0.0
 33
0.0
 40
0.0
 40
0.0
 40
0.0
 40
0.0
 40
0.2724795896492911
 40
0.5447746800411184
 40
1.0
 40
1.0
 40
1.0
 40
1.0
 10
197.3448036660462
 20
76.12629294752386
 30
0.0
 10
197.3235094786419
 20
76.13184978906314
 30
0.0
 10
197.2809355223876
 20
76.1429597095364
 30
0.0
 10
197.1995698288502
 20
76.14773965343227
 30
0.0
 10
197.1420354315152
 20
76.13454753962175
 30
0.0
 10
197.1060349096566
 20
76.12629294752386
 30
0.0
  0
SPLINE
  5
95
330
1F
100
AcDbEntity
  8
0
  6
Continuous
 62
     7
370
    15
100
AcDbSpline
210
0.0
220
0.0
230
1.0
 70
     8
 71
     3
 72
    15
 73
    11
 74
     0
 42
0.00000001
 43
0.00000001
 12
1.0
 22
0.0
 32
0.0
 13
1.0
 23
0.0
 33
0.0
 40
0.0
 40
0.0
 40
0.0
 40
0.0
 40
0.1411615379848753
 40
0.2818326133922088
 40
0.4169668665620732
 40
0.5461341893979967
 40
0.672355664198892
 40
0.799981341101822
 40
0.9323931059532378
 40
1.0
 40
1.0
 40
1.0
 40
1.0
 10
182.569363569191
 20
71.5429001313938
 30
0.0
 10
182.5258424536474
 20
71.52438212646598
 30
0.0
 10
182.4389514356939
 20
71.48741045700048
 30
0.0
 10
182.3429526527385
 20
71.3819765778407
 30
0.0
 10
182.2891390899482
 20
71.25626918040436
 30
0.0
 10
182.2827481941932
 20
71.12406392508046
 30
0.0
 10
182.3201330545515
 20
71.00002475330575
 30
0.0
 10
182.3963768934167
 20
70.89450667177589
 30
0.0
 10
182.4859023451707
 20
70.8285298710196
 30
0.0
 10
182.5482798047027
 20
70.80551090688027
 30
0.0
 10
182.569363569191
 20
70.79773042940778
 30
0.0
  0
SPLINE
  5
96
330
1F
100
AcDbEntity
  8
0
  6
Continuous
 62
     7
370
    15
100
AcDbSpline
210
0.0
220
0.0
230
1.0
 70
     8
 71
     3
 72
    15
 73
    11
 74
     0
 42
0.00000001
 43
0.00000001
 12
1.0
 22
0.0
 32
0.0
 13
1.0
 23
0.0
 33
0.0
 40
0.0
 40
0.0
 40
0.0
 40
0.0
 40
0.1411607488794739
 40
0.281836149293308
 40
0.4169667400987908
 40
0.5461337048511825
 40
0.6723566247775654
 40
0.7999815882417466
 40
0.9323865497522447
 40
1.0
 40
1.0
 40
1.0
 40
1.0
 10
211.8814675559311
 20
70.79773042940778
 30
0.0
 10
211.9249878748475
 20
70.81624900417327
 30
0.0
 10
212.0118788781667
 20
70.85322248188386
 30
0.0
 10
212.1078893195067
 20
70.95864943990749
 30
0.0
 10
212.1616861767593
 20
71.08436362300466
 30
0.0
 10
212.1680960972745
 20
71.21656745164105
 30
0.0
 10
212.1306952920633
 20
71.3406049649423
 30
0.0
 10
212.0544554178685
 20
71.44612082809782
 30
0.0
 10
211.9649332779203
 20
71.5121046501907
 30
0.0
 10
211.9025540043039
 20
71.53512008338092
 30
0.0
 10
211.8814675559311
 20
71.5429001313938
 30
0.0
  0
LINE
  5
97
330
1F
100
AcDbEntity
  8
0
  6
Continuous
 62
     7
370
    15
100
AcDbLine
 10
186.0621510495
 20
71.1703152804
 30
0.0
 11
182.7178834428
 21
71.1703152804
 31
0.0
  0
LINE
  5
98
330
1F
100
AcDbEntity
  8
0
  6
Continuous
 62
     7
370
    15
100
AcDbLine
 10
197.2254155626
 20
75.6079052983
 30
0.0
 11
197.2254155626
 21
75.7445238008
 31
0.0
  0
LINE
  5
99
330
1F
100
AcDbEntity
  8
0
  6
Continuous
 62
     7
370
    15
100
AcDbLine
 10
187.2599808921
 20
71.547988907
 30
0.0
 11
186.0621510495
 21
71.1703152804
 31
0.0
  0
LINE
  5
9A
330
1F
100
AcDbEntity
  8
0
  6
Continuous
 62
     7
370
    15
100
AcDbLine
 10
186.0621510495
 20
71.1703152804
 30
0.0
 11
187.2599808921
 21
70.7926416538
 31
0.0
  0
LINE
  5
9B
330
1F
100
AcDbEntity
  8
0
  6
Continuous
 62
     7
370
    15
100
AcDbLine
 10
197.2254155626
 20
66.7327252625
 30
0.0
 11
197.2254155626
 21
66.59610676
 31
0.0
  0
ARC
  5
9C
330
1F
100
AcDbEntity
  8
0
  6
Continuous
 62
     7
370
    15
100
AcDbCircle
 10
190.1005135134
 20
71.1703152804
 30
0.0
 40
0.9999999999999942
100
AcDbArc
 50
107.5
 51
252.5
  0
ARC
  5
9D
330
1F
100
AcDbEntity
  8
0
  6
Continuous
 62
     7
370
    15
100
AcDbCircle
 10
190.1005135134
 20
71.1703152804
 30
0.0
 40
2.385640646055095
100
AcDbArc
 50
179.0810823052
 51
180.9189176948
  0
LINE
  5
9E
330
1F
100
AcDbEntity
  8
0
  6
Continuous
 62
     7
370
    15
100
AcDbLine
 10
196.9247101297
 20
74.3705058879
 30
0.0
 11
189.7998093118
 21
72.1240322048
 31
0.0
  0
ARC
  5
9F
330
1F
100
AcDbEntity
  8
0
  6
Continuous
 62
     7
370
    15
100
AcDbCircle
 10
197.2254176674
 20
73.416788931
 30
0.0
 40
1.000000000000025
100
AcDbArc
 50
72.5
 51
107.5
  0
LINE
  5
A0
330
1F
100
AcDbEntity
  8
0
  6
Continuous
 62
     7
370
    15
100
AcDbLine
 10
204.6510292639
 20
72.1240322048
 30
0.0
 11
197.5261209955
 21
74.3705058879
 31
0.0
  0
ARC
  5
A1
330
1F
100
AcDbEntity
  8
0
  6
Continuous
 62
     7
370
    15
100
AcDbCircle
 10
204.3503218213
 20
71.1703152804
 30
0.0
 40
1.000000000295361
100
AcDbArc
 50
287.5
 51
72.5
  0
LINE
  5
A2
330
1F
100
AcDbEntity
  8
0
  6
Continuous
 62
     7
370
    15
100
AcDbLine
 10
197.5261209955
 20
67.9701246729
 30
0.0
 11
204.6510292639
 21
70.216598356
 31
0.0
  0
ARC
  5
A3
330
1F
100
AcDbEntity
  8
0
  6
Continuous
 62
     7
370
    15
100
AcDbCircle
 10
197.2254176674
 20
68.9238416298
 30
0.0
 40
0.9999999999999978
100
AcDbArc
 50
252.5
 51
287.5
  0
LINE
  5
A4
330
1F
100
AcDbEntity
  8
0
  6
Continuous
 62
     7
370
    15
100
AcDbLine
 10
189.7998093118
 20
70.216598356
 30
0.0
 11
196.9247101297
 21
67.9701246729
 31
0.0
  0
CIRCLE
  5
A5
330
1F
100
AcDbEntity
  8
0
  6
Continuous
 62
     7
370
    15
100
AcDbCircle
 10
197.2254176674
 20
71.1703152804
 30
0.0
 40
3.050000000000011
  0
LINE
  5
A6
330
1F
100
AcDbEntity
  8
0
  6
Continuous
 62
     7
370
    15
100
AcDbLine
 10
208.3886875262
 20
71.1703152804
 30
0.0
 11
211.7329551329
 21
71.1703152804
 31
0.0
  0
LINE
  5
A7
330
1F
100
AcDbEntity
  8
0
  6
Continuous
 62
     7
370
    15
100
AcDbLine
 10
208.3886875262
 20
71.1703152804
 30
0.0
 11
207.1908576836
 21
71.547988907
 31
0.0
  0
LINE
  5
A8
330
1F
100
AcDbEntity
  8
0
  6
Continuous
 62
     7
370
    15
100
AcDbLine
 10
207.1908576836
 20
70.7926416538
 30
0.0
 11
208.3886875262
 21
71.1703152804
 31
0.0
  0
ARC
  5
A9
330
1F
100
AcDbEntity
  8
0
  6
Continuous
 62
     7
370
    15
100
AcDbCircle
 10
204.3503218213
 20
71.1703152804
 30
0.0
 40
2.385640646055123
100
AcDbArc
 50
359.0810823052
 51
0.9189176948
  0
SPLINE
  5
AA
330
1F
100
AcDbEntity
  8
0
  6
Continuous
 62
     7
370
    15
100
AcDbSpline
210
0.0
220
0.0
230
1.0
 70
     8
 71
     3
 72
    14
 73
    10
 74
     0
 42
0.00000001
 43
0.00000001
 12
1.0
 22
0.0
 32
0.0
 13
1.0
 23
0.0
 33
0.0
 40
0.0
 40
0.0
 40
0.0
 40
0.0
 40
0.2086077957146761
 40
0.3652002693397797
 40
0.4768497161218364
 40
0.589019255061629
 40
0.7185661113053463
 40
0.9352577615487597
 40
1.0
 40
1.0
 40
1.0
 40
1.0
 10
207.19085768359
 20
71.54798890704532
 30
0.0
 10
207.1430587821472
 20
71.56066723975644
 30
0.0
 10
207.0593793989234
 20
71.58286262562407
 30
0.0
 10
206.944791814746
 20
71.57780662051486
 30
0.0
 10
206.8595774130941
 20
71.54484151464277
 30
0.0
 10
206.7966377652542
 20
71.48699914785631
 30
0.0
 10
206.7483125604101
 20
71.38806481375454
 30
0.0
 10
206.7355865616748
 20
71.2902177943227
 30
0.0
 10
206.735643835848
 20
71.2238438253096
 30
0.0
 10
206.7356570114403
 20
71.20857487760495
 30
0.0
  0
SPLINE
  5
AB
330
1F
100
AcDbEntity
  8
0
  6
Continuous
 62
     7
370
    15
100
AcDbSpline
210
0.0
220
0.0
230
1.0
 70
     8
 71
     3
 72
    14
 73
    10
 74
     0
 42
0.00000001
 43
0.00000001
 12
1.0
 22
0.0
 32
0.0
 13
1.0
 23
0.0
 33
0.0
 40
0.0
 40
0.0
 40
0.0
 40
0.0
 40
0.20551876244944
 40
0.3570173542551094
 40
0.4668434919934815
 40
0.577081131075471
 40
0.7093710964722759
 40
0.9240627258083144
 40
1.0
 40
1.0
 40
1.0
 40
1.0
 10
206.7356570114403
 20
71.13205568319663
 30
0.0
 10
206.7367831975755
 20
71.08337267439971
 30
0.0
 10
206.7387395542097
 20
70.99880288237341
 30
0.0
 10
206.7733301669643
 20
70.89204382792742
 30
0.0
 10
206.8269648023365
 20
70.82062216585503
 30
0.0
 10
206.8993250706859
 20
70.77577791407856
 30
0.0
 10
207.0071360310283
 20
70.75503361314361
 30
0.0
 10
207.107893815893
 20
70.76827195876719
 30
0.0
 10
207.1736710189377
 20
70.78759326598117
 30
0.0
 10
207.19085768359
 20
70.79264165375625
 30
0.0
  0
SPLINE
  5
AC
330
1F
100
AcDbEntity
  8
0
  6
Continuous
 62
     7
370
    15
100
AcDbSpline
210
0.0
220
0.0
230
1.0
 70
     8
 71
     3
 72
    14
 73
    10
 74
     0
 42
0.00000001
 43
0.00000001
 12
1.0
 22
0.0
 32
0.0
 13
1.0
 23
0.0
 33
0.0
 40
0.0
 40
0.0
 40
0.0
 40
0.0
 40
0.2086077957146761
 40
0.3652002693397797
 40
0.4768497161218364
 40
0.589019255061629
 40
0.7185661113053463
 40
0.9352577615487597
 40
1.0
 40
1.0
 40
1.0
 40
1.0
 10
187.2599808921128
 20
70.79264165375625
 30
0.0
 10
187.3077797935556
 20
70.77996332104512
 30
0.0
 10
187.3914591767793
 20
70.75776793517748
 30
0.0
 10
187.5060467609568
 20
70.7628239402867
 30
0.0
 10
187.5912611626086
 20
70.7957890461588
 30
0.0
 10
187.6542008104485
 20
70.85363141294526
 30
0.0
 10
187.7025260152927
 20
70.95256574704703
 30
0.0
 10
187.715252014028
 20
71.05041276647887
 30
0.0
 10
187.7151947398548
 20
71.11678673549196
 30
0.0
 10
187.7151815642624
 20
71.13205568319663
 30
0.0
  0
SPLINE
  5
AD
330
1F
100
AcDbEntity
  8
0
  6
Continuous
 62
     7
370
    15
100
AcDbSpline
210
0.0
220
0.0
230
1.0
 70
     8
 71
     3
 72
    14
 73
    10
 74
     0
 42
0.00000001
 43
0.00000001
 12
1.0
 22
0.0
 32
0.0
 13
1.0
 23
0.0
 33
0.0
 40
0.0
 40
0.0
 40
0.0
 40
0.0
 40
0.2055192673835284
 40
0.3570182314024324
 40
0.4668510872842703
 40
0.5770800920163067
 40
0.7093703824331355
 40
0.9240625392398577
 40
1.0
 40
1.0
 40
1.0
 40
1.0
 10
187.7151815642625
 20
71.20857487760495
 30
0.0
 10
187.7140550234381
 20
71.25725757863458
 30
0.0
 10
187.7120980506548
 20
71.3418268360223
 30
0.0
 10
187.6775103532893
 20
71.44859030937288
 30
0.0
 10
187.6238665998843
 20
71.52000350425175
 30
0.0
 10
187.5515130168143
 20
71.56485521575622
 30
0.0
 10
187.4437017365983
 20
71.5855958621066
 30
0.0
 10
187.3429448326551
 20
71.57235869989324
 30
0.0
 10
187.2771675718555
 20
71.55303731509268
 30
0.0
 10
187.2599808921128
 20
71.54798890704532
 30
0.0
  0
SPLINE
  5
AE
330
1F
100
AcDbEntity
  8
0
  6
Continuous
 62
     7
370
    15
100
AcDbSpline
210
0.0
220
0.0
230
1.0
 70
    24
 71
     3
 72
    11
 73
     7
 74
     0
 42
0.00000001
 43
0.00000001
 12
1.0
 22
0.0
 32
0.0
 13
1.0
 23
0.0
 33
0.0
 40
0.0
 40
0.0
 40
0.0
 40
0.0
 40
0.3241878849073901
 40
0.648220524367283
 40
0.9887961374586687
 40
1.0
 40
1.0
 40
1.0
 40
1.0
 10
197.2254155625611
 20
75.60790529831556
 30
0.0
 10
197.2254155625611
 20
75.53498905053033
 30
0.0
 10
197.225415562561
 20
75.38919147272219
 30
0.0
 10
197.2254155625612
 20
75.14316458143335
 30
0.0
 10
197.225415562561
 20
74.98574099055054
 30
0.0
 10
197.2254155625611
 20
74.91178577174799
 30
0.0
 10
197.2254155625611
 20
74.90943036399094
 30
0.0
  0
SPLINE
  5
AF
330
1F
100
AcDbEntity
  8
0
  6
Continuous
 62
     7
370
    15
100
AcDbSpline
210
0.0
220
0.0
230
1.0
 70
    24
 71
     3
 72
    11
 73
     7
 74
     0
 42
0.00000001
 43
0.00000001
 12
1.0
 22
0.0
 32
0.0
 13
1.0
 23
0.0
 33
0.0
 40
0.0
 40
0.0
 40
0.0
 40
0.0
 40
0.3241878849073901
 40
0.648220524367283
 40
0.9887961374586687
 40
1.0
 40
1.0
 40
1.0
 40
1.0
 10
197.2254155625611
 20
66.73272526248601
 30
0.0
 10
197.2254155625611
 20
66.80564151027124
 30
0.0
 10
197.225415562561
 20
66.95143908807938
 30
0.0
 10
197.2254155625612
 20
67.1974659793682
 30
0.0
 10
197.225415562561
 20
67.35488957025103
 30
0.0
 10
197.2254155625611
 20
67.42884478905357
 30
0.0
 10
197.2254155625611
 20
67.43120019681064
 30
0.0
  0
LINE
  5
B0
330
1F
100
AcDbEntity
  8
0
  6
Continuous
 62
     7
370
    15
100
AcDbLine
 10
137.4829536726
 20
40.9833976476
 30
0.0
 11
133.5248848845
 21
40.9833976476
 31
0.0
  0
LINE
  5
B1
330
1F
100
AcDbEntity
  8
0
  6
Continuous
 62
     7
370
    15
100
AcDbLine
 10
133.5248848845
 20
40.9833976476
 30
0.0
 11
133.5248848845
 21
91.0203160195
 31
0.0
  0
LINE
  5
B2
330
1F
100
AcDbEntity
  8
0
  6
Continuous
 62
     7
370
    15
100
AcDbLine
 10
133.5248848845
 20
91.0203160195
 30
0.0
 11
137.4829536726
 21
91.0203160195
 31
0.0
  0
SPLINE
  5
B3
330
1F
100
AcDbEntity
  8
0
  6
Continuous
 62
     7
370
    15
100
AcDbSpline
210
0.0
220
0.0
230
1.0
 70
     8
 71
     3
 72
     8
 73
     4
 74
     0
 42
0.00000001
 43
0.00000001
 12
1.0
 22
0.0
 32
0.0
 13
1.0
 23
0.0
 33
0.0
 40
0.0
 40
0.0
 40
0.0
 40
0.0
 40
1.0
 40
1.0
 40
1.0
 40
1.0
 10
133.5248857947726
 20
40.98339758415364
 30
0.0
 10
133.0294061341069
 20
41.87892367208698
 30
0.0
 10
132.5352920860648
 20
42.77520808713922
 30
0.0
 10
132.0429529632836
 20
43.67247812134592
 30
0.0
  0
LINE
  5
B4
330
1F
100
AcDbEntity
  8
0
  6
Continuous
 62
     7
370
    15
100
AcDbLine
 10
132.0429532279
 20
43.6724779604
 30
0.0
 11
132.0429532279
 21
91.0203160195
 31
0.0
  0
SPLINE
  5
B5
330
1F
100
AcDbEntity
  8
0
  6
Continuous
 62
     7
370
    15
100
AcDbSpline
210
0.0
220
0.0
230
1.0
 70
    24
 71
     3
 72
     8
 73
     4
 74
     0
 42
0.00000001
 43
0.00000001
 12
1.0
 22
0.0
 32
0.0
 13
1.0
 23
0.0
 33
0.0
 40
0.0
 40
0.0
 40
0.0
 40
0.0
 40
1.0
 40
1.0
 40
1.0
 40
1.0
 10
132.0429529632836
 20
91.0203152804008
 30
0.0
 10
132.5229049576485
 20
91.0203152804008
 30
0.0
 10
133.0182056866221
 20
91.0203152804008
 30
0.0
 10
133.5248857947726
 20
91.0203152804008
 30
0.0
  0
LINE
  5
B6
330
1F
100
AcDbEntity
  8
0
  6
Continuous
 62
     7
370
    15
100
AcDbLine
 10
117.0829529365
 20
91.0203160195
 30
0.0
 11
126.7410204236
 21
91.0203160195
 31
0.0
  0
LINE
  5
B7
330
1F
100
AcDbEntity
  8
0
  6
Continuous
 62
     7
370
    15
100
AcDbLine
 10
126.7410204236
 20
40.9833976476
 30
0.0
 11
126.7410204236
 21
91.0203160195
 31
0.0
  0
LINE
  5
B8
330
1F
100
AcDbEntity
  8
0
  6
Continuous
 62
     7
370
    15
100
AcDbLine
 10
126.7410204236
 20
40.9833976476
 30
0.0
 11
125.0829533164
 21
40.9833976476
 31
0.0
  0
SPLINE
  5
B9
330
1F
100
AcDbEntity
  8
0
  6
Continuous
 62
     7
370
    15
100
AcDbSpline
210
0.0
220
0.0
230
1.0
 70
     8
 71
     3
 72
    28
 73
    24
 74
     0
 42
0.00000001
 43
0.00000001
 12
1.0
 22
0.0
 32
0.0
 13
1.0
 23
0.0
 33
0.0
 40
0.0
 40
0.0
 40
0.0
 40
0.0
 40
0.1250000000000001
 40
0.1250000000000001
 40
0.1875000000000001
 40
0.1875000000000001
 40
0.2500000000000001
 40
0.2500000000000001
 40
0.375
 40
0.375
 40
0.4375000000000001
 40
0.4375000000000001
 40
0.5
 40
0.5
 40
0.625
 40
0.625
 40
0.7499999999999999
 40
0.7499999999999999
 40
0.8124999999999999
 40
0.8124999999999999
 40
0.875
 40
0.875
 40
1.0
 40
1.0
 40
1.0
 40
1.0
 10
125.0829529632836
 20
40.98339758415365
 30
0.0
 10
124.5512452057907
 20
40.98339758415364
 30
0.0
 10
124.0290066404803
 20
40.96761287020342
 30
0.0
 10
123.2591361542053
 20
40.92261745612722
 30
0.0
 10
123.004776582014
 20
40.9040624610515
 30
0.0
 10
122.5006550013155
 20
40.86020973860499
 30
0.0
 10
122.2509321838876
 20
40.8348651316528
 30
0.0
 10
121.5253422324411
 20
40.75146305390269
 30
0.0
 10
121.0669819708596
 20
40.6855974947516
 30
0.0
 10
120.4164840274657
 20
40.5766271542598
 30
0.0
 10
120.2048019766733
 20
40.53838751849316
 30
0.0
 10
119.8007304875353
 20
40.46062878107382
 30
0.0
 10
119.6082239737144
 20
40.42112781889846
 30
0.0
 10
119.0583890026931
 20
40.30222007653246
 30
0.0
 10
118.7284602243843
 20
40.22240239510785
 30
0.0
 10
118.1439889558156
 20
40.06905923331178
 30
0.0
 10
117.8977118178022
 20
39.99772548004253
 30
0.0
 10
117.5978690251041
 20
39.90378197296791
 30
0.0
 10
117.5094121680319
 20
39.87458817960798
 30
0.0
 10
117.3560508147268
 20
39.82112160534456
 30
0.0
 10
117.2909626005006
 20
39.79676227106939
 30
0.0
 10
117.1353685845598
 20
39.73317212562467
 30
0.0
 10
117.0829529632836
 20
39.70306919053541
 30
0.0
 10
117.0829529632836
 20
39.68619229753848
 30
0.0
  0
LINE
  5
BA
330
1F
100
AcDbEntity
  8
0
  6
Continuous
 62
     7
370
    15
100
AcDbLine
 10
117.0829529365
 20
39.686191961
 30
0.0
 11
117.0829529365
 21
39.6703147738
 31
0.0
  0
SPLINE
  5
BB
330
1F
100
AcDbEntity
  8
0
  6
Continuous
 62
     7
370
    15
100
AcDbSpline
210
0.0
220
0.0
230
1.0
 70
     8
 71
     3
 72
    17
 73
    13
 74
     0
 42
0.00000001
 43
0.00000001
 12
1.0
 22
0.0
 32
0.0
 13
1.0
 23
0.0
 33
0.0
 40
0.0
 40
0.0
 40
0.0
 40
0.0
 40
0.1034797280380778
 40
0.2100239090909901
 40
0.3134862262879433
 40
0.4198361712144981
 40
0.5254127947779869
 40
0.6339610881168427
 40
0.7409508662120068
 40
0.8511696072047016
 40
0.9558996557845765
 40
1.0
 40
1.0
 40
1.0
 40
1.0
 10
125.0829533164411
 20
101.6375107167592
 30
0.0
 10
124.6477048247152
 20
101.6429587083969
 30
0.0
 10
123.7643183741382
 20
101.6540160287255
 30
0.0
 10
122.4834905119154
 20
101.7403747891005
 30
0.0
 10
121.2660743164735
 20
101.8682459322336
 30
0.0
 10
120.1582677001477
 20
102.027190339552
 30
0.0
 10
119.1700292208189
 20
102.2016849125366
 30
0.0
 10
118.345306121003
 20
102.3708513457235
 30
0.0
 10
117.6963524635044
 20
102.5187321541912
 30
0.0
 10
117.2793171600248
 20
102.6205229057138
 30
0.0
 10
117.0807204171468
 20
102.6708798053482
 30
0.0
 10
117.1040335341347
 20
102.6649702003727
 30
0.0
 10
117.1109415081351
 20
102.6632191090217
 30
0.0
  0
LINE
  5
BC
330
1F
100
AcDbEntity
  8
0
  6
Continuous
 62
     7
370
    15
100
AcDbLine
 10
126.7410204236
 20
101.6375107168
 30
0.0
 11
125.0829533164
 21
101.6375107168
 31
0.0
  0
LINE
  5
BD
330
1F
100
AcDbEntity
  8
0
  6
Continuous
 62
     7
370
    15
100
AcDbLine
 10
126.7410204236
 20
95.6290048955
 30
0.0
 11
126.7410204236
 21
101.6375107168
 31
0.0
  0
LINE
  5
BE
330
1F
100
AcDbEntity
  8
0
  6
Continuous
 62
     7
370
    15
100
AcDbLine
 10
124.3285736491
 20
95.6290048955
 30
0.0
 11
126.7410204236
 21
95.6290048955
 31
0.0
  0
SPLINE
  5
BF
330
1F
100
AcDbEntity
  8
0
  6
Continuous
 62
     7
370
    15
100
AcDbSpline
210
0.0
220
0.0
230
1.0
 70
     8
 71
     3
 72
    20
 73
    16
 74
     0
 42
0.00000001
 43
0.00000001
 12
1.0
 22
0.0
 32
0.0
 13
1.0
 23
0.0
 33
0.0
 40
0.0
 40
0.0
 40
0.0
 40
0.0
 40
0.2500000000000005
 40
0.2500000000000005
 40
0.3750000000000004
 40
0.3750000000000004
 40
0.5000000000000003
 40
0.5000000000000003
 40
0.6250000000000002
 40
0.6250000000000002
 40
0.7500000000000001
 40
0.7500000000000001
 40
0.8750000000000001
 40
0.8750000000000001
 40
1.0
 40
1.0
 40
1.0
 40
1.0
 10
117.0829529632836
 20
91.0203152804008
 30
0.0
 10
117.3313266975717
 20
91.67417770869818
 30
0.0
 10
117.6508967899169
 20
92.27796349069534
 30
0.0
 10
118.2732030231216
 20
93.10480222686392
 30
0.0
 10
118.5046272835524
 20
93.36723086481683
 30
0.0
 10
119.0258416232021
 20
93.8638935189218
 30
0.0
 10
119.3124621058372
 20
94.09448039794334
 30
0.0
 10
119.9319468471448
 20
94.51103462252597
 30
0.0
 10
120.2662472266317
 20
94.69853242449346
 30
0.0
 10
120.9915076992565
 20
95.02992940212988
 30
0.0
 10
121.373422756647
 20
95.16943338962517
 30
0.0
 10
122.1682109328187
 20
95.3948868970961
 30
0.0
 10
122.582369127025
 20
95.48151300863975
 30
0.0
 10
123.4479154676064
 20
95.59949379749386
 30
0.0
 10
123.8858030826182
 20
95.62900494276822
 30
0.0
 10
124.3285733089729
 20
95.6290049427682
 30
0.0
  0
LINE
  5
C0
330
1F
100
AcDbEntity
  8
0
  6
Continuous
 62
     7
370
    15
100
AcDbLine
 10
128.2229530116
 20
43.6724779604
 30
0.0
 11
128.2229530116
 21
91.0203160195
 31
0.0
  0
SPLINE
  5
C1
330
1F
100
AcDbEntity
  8
0
  6
Continuous
 62
     7
370
    15
100
AcDbSpline
210
0.0
220
0.0
230
1.0
 70
     8
 71
     3
 72
     8
 73
     4
 74
     0
 42
0.00000001
 43
0.00000001
 12
1.0
 22
0.0
 32
0.0
 13
1.0
 23
0.0
 33
0.0
 40
0.0
 40
0.0
 40
0.0
 40
0.0
 40
1.0
 40
1.0
 40
1.0
 40
1.0
 10
128.2229529632836
 20
43.67247812134592
 30
0.0
 10
127.7306138405024
 20
42.77520808713923
 30
0.0
 10
127.2364997924603
 20
41.87892367208699
 30
0.0
 10
126.7410201317945
 20
40.98339758415364
 30
0.0
  0
SPLINE
  5
C2
330
1F
100
AcDbEntity
  8
0
  6
Continuous
 62
     7
370
    15
100
AcDbSpline
210
0.0
220
0.0
230
1.0
 70
    24
 71
     3
 72
     8
 73
     4
 74
     0
 42
0.00000001
 43
0.00000001
 12
1.0
 22
0.0
 32
0.0
 13
1.0
 23
0.0
 33
0.0
 40
0.0
 40
0.0
 40
0.0
 40
0.0
 40
1.0
 40
1.0
 40
1.0
 40
1.0
 10
126.7410201317945
 20
91.0203152804008
 30
0.0
 10
127.2477002399451
 20
91.0203152804008
 30
0.0
 10
127.7430009689187
 20
91.0203152804008
 30
0.0
 10
128.2229529632836
 20
91.0203152804008
 30
0.0
  0
LINE
  5
C3
330
1F
100
AcDbEntity
  8
0
  6
Continuous
 62
     7
370
    15
100
AcDbLine
 10
138.0829526533
 20
41.6100380419
 30
0.0
 11
138.0829526533
 21
91.0203160195
 31
0.0
  0
SPLINE
  5
C4
330
1F
100
AcDbEntity
  8
0
  6
Continuous
 62
     7
370
    15
100
AcDbSpline
210
0.0
220
0.0
230
1.0
 70
     8
 71
     3
 72
    10
 73
     6
 74
     0
 42
0.00000001
 43
0.00000001
 12
1.0
 22
0.0
 32
0.0
 13
1.0
 23
0.0
 33
0.0
 40
0.0
 40
0.0
 40
0.0
 40
0.0
 40
0.5
 40
0.5
 40
1.0
 40
1.0
 40
1.0
 40
1.0
 10
138.0829529632836
 20
41.61003787980796
 30
0.0
 10
138.0829529632836
 20
41.4501506116143
 30
0.0
 10
138.0216433120478
 20
41.2890233560997
 30
0.0
 10
137.8025436745127
 20
41.05492435774487
 30
0.0
 10
137.6444954681992
 20
40.98339758415365
 30
0.0
 10
137.4829529632836
 20
40.98339758415365
 30
0.0
  0
SPLINE
  5
C5
330
1F
100
AcDbEntity
  8
0
  6
Continuous
 62
     7
370
    15
100
AcDbSpline
210
0.0
220
0.0
230
1.0
 70
    24
 71
     3
 72
    12
 73
     8
 74
     0
 42
0.00000001
 43
0.00000001
 12
1.0
 22
0.0
 32
0.0
 13
1.0
 23
0.0
 33
0.0
 40
0.0
 40
0.0
 40
0.0
 40
0.0
 40
0.2500000000000006
 40
0.2500000000000006
 40
0.5000000000000012
 40
0.5000000000000012
 40
1.0
 40
1.0
 40
1.0
 40
1.0
 10
137.4829529632836
 20
91.0203152804008
 30
0.0
 10
137.5731920309707
 20
91.0203152804008
 30
0.0
 10
137.6640901450771
 20
91.0203152804008
 30
0.0
 10
137.8186871815657
 20
91.0203152804008
 30
0.0
 10
137.8836655976738
 20
91.0203152804008
 30
0.0
 10
138.03550062561
 20
91.0203152804008
 30
0.0
 10
138.0829529632836
 20
91.02031528040078
 30
0.0
 10
138.0829529632836
 20
91.0203152804008
 30
0.0
  0
LINE
  5
C6
330
1F
100
AcDbEntity
  8
0
  6
Continuous
 62
     7
370
    15
100
AcDbLine
 10
112.1329529633
 20
39.9703161268
 30
0.0
 11
112.1329529633
 21
102.370314434
 31
0.0
  0
SPLINE
  5
C7
330
1F
100
AcDbEntity
  8
0
  6
Continuous
 62
     7
370
    15
100
AcDbSpline
210
0.0
220
0.0
230
1.0
 70
     8
 71
     3
 72
    10
 73
     6
 74
     0
 42
0.00000001
 43
0.00000001
 12
1.0
 22
0.0
 32
0.0
 13
1.0
 23
0.0
 33
0.0
 40
0.0
 40
0.0
 40
0.0
 40
0.0
 40
0.5
 40
0.5
 40
1.0
 40
1.0
 40
1.0
 40
1.0
 10
128.6172504949745
 20
97.57031528040079
 30
0.0
 10
128.495710231306
 20
97.64504144761254
 30
0.0
 10
128.3943758709571
 20
97.75398646352934
 30
0.0
 10
128.2587369280687
 20
98.00441694429094
 30
0.0
 10
128.2229529632836
 20
98.14683630638987
 30
0.0
 10
128.2229529632836
 20
98.28996913143658
 30
0.0
  0
SPLINE
  5
C8
330
1F
100
AcDbEntity
  8
0
  6
Continuous
 62
     7
370
    15
100
AcDbSpline
210
0.0
220
0.0
230
1.0
 70
    24
 71
     3
 72
    12
 73
     8
 74
     0
 42
0.00000001
 43
0.00000001
 12
1.0
 22
0.0
 32
0.0
 13
1.0
 23
0.0
 33
0.0
 40
0.0
 40
0.0
 40
0.0
 40
0.0
 40
0.2499999999999979
 40
0.2499999999999979
 40
0.4999999999999959
 40
0.4999999999999959
 40
1.0
 40
1.0
 40
1.0
 40
1.0
 10
129.0229529632836
 20
97.57031528040078
 30
0.0
 10
128.973609601474
 20
97.57031528040079
 30
0.0
 10
128.9249189031724
 20
97.57031528040079
 30
0.0
 10
128.8420678056019
 20
97.57031528040078
 30
0.0
 10
128.8058678379813
 20
97.57031528040078
 30
0.0
 10
128.7101179214319
 20
97.57031528040079
 30
0.0
 10
128.6602359516198
 20
97.57031528040078
 30
0.0
 10
128.6172504949745
 20
97.57031528040078
 30
0.0
  0
SPLINE
  5
C9
330
1F
100
AcDbEntity
  8
0
  6
Continuous
 62
     7
370
    15
100
AcDbSpline
210
0.0
220
0.0
230
1.0
 70
    24
 71
     3
 72
    14
 73
    10
 74
     0
 42
0.00000001
 43
0.00000001
 12
1.0
 22
0.0
 32
0.0
 13
1.0
 23
0.0
 33
0.0
 40
0.0
 40
0.0
 40
0.0
 40
0.0
 40
0.1250000000000001
 40
0.1250000000000001
 40
0.2500000000000002
 40
0.2500000000000002
 40
0.5000000000000003
 40
0.5000000000000003
 40
1.0
 40
1.0
 40
1.0
 40
1.0
 10
129.0229529632836
 20
44.77031528040079
 30
0.0
 10
128.9536062415524
 20
44.77031528040079
 30
0.0
 10
128.8884081881685
 20
44.77031528040079
 30
0.0
 10
128.7840289955415
 20
44.77031528040079
 30
0.0
 10
128.7411266245325
 20
44.77031528040079
 30
0.0
 10
128.6288009669278
 20
44.77031528040078
 30
0.0
 10
128.573577272574
 20
44.77031528040079
 30
0.0
 10
128.4295198938065
 20
44.77031528040078
 30
0.0
 10
128.367439196975
 20
44.77031528040079
 30
0.0
 10
128.3206277656159
 20
44.77031528040079
 30
0.0
  0
SPLINE
  5
CA
330
1F
100
AcDbEntity
  8
0
  6
Continuous
 62
     7
370
    15
100
AcDbSpline
210
0.0
220
0.0
230
1.0
 70
     8
 71
     3
 72
     9
 73
     5
 74
     0
 42
0.00000001
 43
0.00000001
 12
1.0
 22
0.0
 32
0.0
 13
1.0
 23
0.0
 33
0.0
 40
0.0
 40
0.0
 40
0.0
 40
0.0
 40
0.5
 40
1.0
 40
1.0
 40
1.0
 40
1.0
 10
128.2229529632836
 20
91.30618191186217
 30
0.0
 10
128.2229529632836
 20
91.25794985973943
 30
0.0
 10
128.2273589379888
 20
91.16207984629987
 30
0.0
 10
128.2403781180826
 20
91.06737121631653
 30
0.0
 10
128.2491005864437
 20
91.02031528040078
 30
0.0
  0
SPLINE
  5
CB
330
1F
100
AcDbEntity
  8
0
  6
Continuous
 62
     7
370
    15
100
AcDbSpline
210
0.0
220
0.0
230
1.0
 70
    24
 71
     3
 72
    14
 73
    10
 74
     0
 42
0.00000001
 43
0.00000001
 12
1.0
 22
0.0
 32
0.0
 13
1.0
 23
0.0
 33
0.0
 40
0.0
 40
0.0
 40
0.0
 40
0.0
 40
0.5000000000000027
 40
0.5000000000000027
 40
0.7500000000000013
 40
0.7500000000000013
 40
0.8750000000000007
 40
0.8750000000000007
 40
1.0
 40
1.0
 40
1.0
 40
1.0
 10
131.9452781609513
 20
44.77031528040079
 30
0.0
 10
131.8984934559031
 20
44.77031528040079
 30
0.0
 10
131.8364422591235
 20
44.77031528040079
 30
0.0
 10
131.6930506205731
 20
44.77031528040079
 30
0.0
 10
131.6369069670218
 20
44.77031528040079
 30
0.0
 10
131.5239559448855
 20
44.77031528040079
 30
0.0
 10
131.4809551828474
 20
44.77031528040079
 30
0.0
 10
131.3768924725409
 20
44.77031528040078
 30
0.0
 10
131.311560234184
 20
44.77031528040079
 30
0.0
 10
131.2429529632836
 20
44.77031528040079
 30
0.0
  0
SPLINE
  5
CC
330
1F
100
AcDbEntity
  8
0
  6
Continuous
 62
     7
370
    15
100
AcDbSpline
210
0.0
220
0.0
230
1.0
 70
    24
 71
     3
 72
    12
 73
     8
 74
     0
 42
0.00000001
 43
0.00000001
 12
1.0
 22
0.0
 32
0.0
 13
1.0
 23
0.0
 33
0.0
 40
0.0
 40
0.0
 40
0.0
 40
0.0
 40
0.5000000000000058
 40
0.5000000000000058
 40
0.7500000000000029
 40
0.7500000000000029
 40
1.0
 40
1.0
 40
1.0
 40
1.0
 10
131.6486554315926
 20
97.57031528040078
 30
0.0
 10
131.6055698819819
 20
97.57031528040078
 30
0.0
 10
131.5564176802348
 20
97.57031528040078
 30
0.0
 10
131.4599450859452
 20
97.57031528040078
 30
0.0
 10
131.423843500811
 20
97.57031528040079
 30
0.0
 10
131.3407377429484
 20
97.57031528040079
 30
0.0
 10
131.2927411459844
 20
97.57031528040078
 30
0.0
 10
131.2429529632836
 20
97.57031528040078
 30
0.0
  0
SPLINE
  5
CD
330
1F
100
AcDbEntity
  8
0
  6
Continuous
 62
     7
370
    15
100
AcDbSpline
210
0.0
220
0.0
230
1.0
 70
     8
 71
     3
 72
    10
 73
     6
 74
     0
 42
0.00000001
 43
0.00000001
 12
1.0
 22
0.0
 32
0.0
 13
1.0
 23
0.0
 33
0.0
 40
0.0
 40
0.0
 40
0.0
 40
0.0
 40
0.5
 40
0.5
 40
1.0
 40
1.0
 40
1.0
 40
1.0
 10
132.0429529632836
 20
98.28996913143658
 30
0.0
 10
132.0429529632836
 20
98.14619907361858
 30
0.0
 10
132.0069039045647
 20
98.0037797111234
 30
0.0
 10
131.8713950437907
 20
97.75388541776618
 30
0.0
 10
131.7715190506945
 20
97.64585508151798
 30
0.0
 10
131.6486554315926
 20
97.57031528040076
 30
0.0
  0
SPLINE
  5
CE
330
1F
100
AcDbEntity
  8
0
  6
Continuous
 62
     7
370
    15
100
AcDbSpline
210
0.0
220
0.0
230
1.0
 70
     8
 71
     3
 72
    10
 73
     6
 74
     0
 42
0.00000001
 43
0.00000001
 12
1.0
 22
0.0
 32
0.0
 13
1.0
 23
0.0
 33
0.0
 40
0.0
 40
0.0
 40
0.0
 40
0.0
 40
0.5
 40
0.5
 40
1.0
 40
1.0
 40
1.0
 40
1.0
 10
132.0168053401235
 20
91.0203152804008
 30
0.0
 10
132.0254949830351
 20
91.06719412971893
 30
0.0
 10
132.0320340477856
 20
91.1146165951202
 30
0.0
 10
132.0407926821787
 20
91.21055339370695
 30
0.0
 10
132.0429529632836
 20
91.25846868171743
 30
0.0
 10
132.0429529632836
 20
91.30618191186196
 30
0.0
  0
LINE
  5
CF
330
1F
100
AcDbEntity
  8
0
  6
Continuous
 62
     7
370
    15
100
AcDbLine
 10
131.2429527243
 20
97.5703151373
 30
0.0
 11
129.0229535152
 21
97.5703151373
 31
0.0
  0
LINE
  5
D0
330
1F
100
AcDbEntity
  8
0
  6
Continuous
 62
     7
370
    15
100
AcDbLine
 10
131.2429527243
 20
44.7703154235
 30
0.0
 11
129.0229535152
 21
44.7703154235
 31
0.0
  0
LINE
  5
D1
330
1F
100
AcDbEntity
  8
0
  6
Continuous
 62
     7
370
    15
100
AcDbLine
 10
138.2829523136
 20
97.5703151373
 30
0.0
 11
138.255277132
 21
97.5703151373
 31
0.0
  0
SPLINE
  5
D2
330
1F
100
AcDbEntity
  8
0
  6
Continuous
 62
     7
370
    15
100
AcDbSpline
210
0.0
220
0.0
230
1.0
 70
    24
 71
     3
 72
    10
 73
     6
 74
     0
 42
0.00000001
 43
0.00000001
 12
1.0
 22
0.0
 32
0.0
 13
1.0
 23
0.0
 33
0.0
 40
0.0
 40
0.0
 40
0.0
 40
0.0
 40
0.5
 40
0.5
 40
1.0
 40
1.0
 40
1.0
 40
1.0
 10
138.2829529632523
 20
44.77031528040079
 30
0.0
 10
138.2829517031748
 20
44.77031528040079
 30
0.0
 10
138.2397467823126
 20
44.77031528040078
 30
0.0
 10
138.1388198165121
 20
44.77031528040079
 30
0.0
 10
138.0829529632836
 20
44.77031528040079
 30
0.0
 10
138.0829529632836
 20
44.77031528040079
 30
0.0
  0
LINE
  5
D3
330
1F
100
AcDbEntity
  8
0
  6
Continuous
 62
     7
370
    15
100
AcDbLine
 10
162.9413603296
 20
50.0360188483
 30
0.0
 11
160.9697392632
 21
47.8544664977
 31
0.0
  0
ELLIPSE
  5
D4
330
1F
100
AcDbEntity
  8
0
  6
Continuous
 62
     7
370
    15
100
AcDbEllipse
 10
164.0525682056
 20
71.1703152804
 30
0.0
 11
0.0
 21
26.0
 31
0.0
210
0.0
220
0.0
230
1.0
 40
0.2679491924
 41
0.4583960321528687
 42
2.683196621436926
  0
LINE
  5
D5
330
1F
100
AcDbEntity
  8
0
  6
Continuous
 62
     7
370
    15
100
AcDbLine
 10
162.9413603296
 20
92.3046117125
 30
0.0
 11
160.9697392632
 21
94.4861640631
 31
0.0
  0
ELLIPSE
  5
D6
330
1F
100
AcDbEntity
  8
0
  6
Continuous
 62
     7
370
    15
100
AcDbEllipse
 10
160.8821447591
 20
71.1703152804
 30
0.0
 11
0.0
 21
2.5
 31
0.0
210
0.0
220
0.0
230
1.0
 40
0.293130699
 41
0.0
 42
6.283185307179586
  0
SPLINE
  5
D7
330
1F
100
AcDbEntity
  8
0
  6
Continuous
 62
     7
370
    15
100
AcDbSpline
210
0.0
220
0.0
230
1.0
 70
     8
 71
     3
 72
    70
 73
    66
 74
     0
 42
0.00000001
 43
0.00000001
 12
1.0
 22
0.0
 32
0.0
 13
1.0
 23
0.0
 33
0.0
 40
-0.03125
 40
-0.03125
 40
0.0
 40
0.0
 40
0.03125
 40
0.03125
 40
0.0625
 40
0.0625
 40
0.09375
 40
0.09375
 40
0.125
 40
0.125
 40
0.15625
 40
0.15625
 40
0.1874999999999999
 40
0.1874999999999999
 40
0.2187499999999999
 40
0.2187499999999999
 40
0.2499999999999999
 40
0.2499999999999999
 40
0.2812499999999999
 40
0.2812499999999999
 40
0.3124999999999999
 40
0.3124999999999999
 40
0.3437499999999999
 40
0.3437499999999999
 40
0.3749999999999999
 40
0.3749999999999999
 40
0.4062499999999999
 40
0.4062499999999999
 40
0.4374999999999999
 40
0.4374999999999999
 40
0.4687499999999999
 40
0.4687499999999999
 40
0.4999999999999999
 40
0.4999999999999999
 40
0.5312499999999999
 40
0.5312499999999999
 40
0.5624999999999999
 40
0.5624999999999999
 40
0.5937499999999999
 40
0.5937499999999999
 40
0.6249999999999999
 40
0.6249999999999999
 40
0.6562499999999999
 40
0.6562499999999999
 40
0.6874999999999999
 40
0.6874999999999999
 40
0.7187499999999999
 40
0.7187499999999999
 40
0.7499999999999999
 40
0.7499999999999999
 40
0.78125
 40
0.78125
 40
0.8125
 40
0.8125
 40
0.84375
 40
0.84375
 40
0.875
 40
0.875
 40
0.90625
 40
0.90625
 40
0.9375
 40
0.9375
 40
0.96875
 40
0.96875
 40
1.0
 40
1.0
 40
1.03125
 40
1.03125
 10
143.1329529632836
 20
71.36868649070412
 30
0.0
 10
143.1329529632836
 20
70.97194407009745
 30
0.0
 10
143.1524345301627
 20
70.77692061134086
 30
0.0
 10
143.2287363757417
 20
70.39328535274994
 30
0.0
 10
143.2864947410172
 20
70.20267306044838
 30
0.0
 10
143.4371320923435
 20
69.83944875488214
 30
0.0
 10
143.5292890109041
 20
69.66720242129368
 30
0.0
 10
143.7469882485356
 20
69.34122079839302
 30
0.0
 10
143.8735925702475
 20
69.18700541302832
 30
0.0
 10
144.1501268339846
 20
68.91053034448183
 30
0.0
 10
144.3010455592728
 20
68.78640795627523
 30
0.0
 10
144.6289126269999
 20
68.56709390415932
 30
0.0
 10
144.8032790039345
 20
68.4739972946483
 30
0.0
 10
145.1641845002727
 20
68.32432666771469
 30
0.0
 10
145.3533962105453
 20
68.26664824023726
 30
0.0
 10
145.7407142908793
 20
68.18952011220448
 30
0.0
 10
145.9354702965513
 20
68.17042382735227
 30
0.0
 10
146.3271238273655
 20
68.17020764745243
 30
0.0
 10
146.5260585688334
 20
68.18971675838543
 30
0.0
 10
146.9109372091545
 20
68.26631113444445
 30
0.0
 10
147.0980212171779
 20
68.3229814767443
 30
0.0
 10
147.4614302868481
 20
68.47331425613433
 30
0.0
 10
147.6368894154539
 20
68.56717445571728
 30
0.0
 10
147.9617954540464
 20
68.78420921627016
 30
0.0
 10
148.113365180557
 20
68.9082012353934
 30
0.0
 10
148.393452453524
 20
69.18806036299785
 30
0.0
 10
148.5174722366148
 20
69.33940664664794
 30
0.0
 10
148.734766825637
 20
69.66408713841699
 30
0.0
 10
148.8287981395042
 20
69.83949920470293
 30
0.0
 10
148.9794234135149
 20
70.20271070339223
 30
0.0
 10
149.0362472110036
 20
70.38970044912965
 30
0.0
 10
149.113175161184
 20
70.77439526980997
 30
0.0
 10
149.1328798844577
 20
70.97334138882691
 30
0.0
 10
149.1330256268195
 20
71.36505680101698
 30
0.0
 10
149.1141031802942
 20
71.55982928561588
 30
0.0
 10
149.0373464020693
 20
71.9471527984051
 30
0.0
 10
148.9798210728779
 20
72.13650731875191
 30
0.0
 10
148.8304285094361
 20
72.49764747932737
 30
0.0
 10
148.7374137023436
 20
72.67220200378948
 30
0.0
 10
148.5184306671334
 20
73.00017199490917
 30
0.0
 10
148.3944454986049
 20
73.15119724728335
 30
0.0
 10
148.1181529927182
 20
73.42801824960804
 30
0.0
 10
147.9640114488654
 20
73.55476782855858
 30
0.0
 10
147.638320567285
 20
73.77267142606195
 30
0.0
 10
147.4661885062155
 20
73.8649647070204
 30
0.0
 10
147.1031128313309
 20
74.01591581029756
 30
0.0
 10
146.9125562123051
 20
74.07384062873409
 30
0.0
 10
146.5290335382418
 20
74.15047649289245
 30
0.0
 10
146.3340586137324
 20
74.17013049574736
 30
0.0
 10
145.9373986828357
 20
74.17049749691127
 30
0.0
 10
145.7422520221279
 20
74.15118828223555
 30
0.0
 10
145.3585401272191
 20
74.0752310860354
 30
0.0
 10
145.1678986413285
 20
74.01765318219809
 30
0.0
 10
144.8045050912789
 20
73.86733015294078
 30
0.0
 10
144.6321682388985
 20
73.77532206515559
 30
0.0
 10
144.3059885001858
 20
73.55791155869909
 30
0.0
 10
144.1516601315249
 20
73.43144485092476
 30
0.0
 10
143.8749356617685
 20
73.1551543383434
 30
0.0
 10
143.7506788790768
 20
73.00434590182576
 30
0.0
 10
143.5310746605662
 20
72.67667759752635
 30
0.0
 10
143.437817884103
 20
72.50238552941877
 30
0.0
 10
143.2878253044978
 20
72.14160969949369
 30
0.0
 10
143.2300245184315
 20
71.95269770248466
 30
0.0
 10
143.1524368957452
 20
71.56482736065011
 30
0.0
 10
143.1329529632836
 20
71.36868649070412
 30
0.0
 10
143.1329529632836
 20
70.97194407009745
 30
0.0
  0
ELLIPSE
  5
D8
330
1F
100
AcDbEntity
  8
0
  6
Continuous
 62
     7
370
    15
100
AcDbEllipse
 10
198.5286376078
 20
71.1703152804
 30
0.0
 11
45.45660241222412
 21
-25.85316017373703
 31
0.0
210
0.0
220
0.0
230
1.0
 40
0.0607033381
 41
2.576866854154872
 42
3.03526288630774
  0
ELLIPSE
  5
D9
330
1F
100
AcDbEntity
  8
0
  6
Continuous
 62
     7
370
    15
100
AcDbEllipse
 10
198.5286376078
 20
71.1703152804
 30
0.0
 11
45.45660241222412
 21
25.85316017373703
 31
0.0
210
0.0
220
0.0
230
1.0
 40
0.0607033381
 41
3.247922420872074
 42
3.706318453024878
  0
LINE
  5
DA
330
1F
100
AcDbEntity
  8
0
  6
Continuous
 62
     7
370
    15
100
AcDbLine
 10
110.1329528683
 20
46.9498840569
 30
0.0
 11
110.1329528683
 21
95.3907465039
 31
0.0
  0
LINE
  5
DB
330
1F
100
AcDbEntity
  8
0
  6
Continuous
 62
     7
370
    15
100
AcDbLine
 10
90.3329527427
 20
47.9418692587
 30
0.0
 11
90.3329527427
 21
49.225166574
 31
0.0
  0
SPLINE
  5
DC
330
1F
100
AcDbEntity
  8
0
  6
Continuous
 62
     7
370
    15
100
AcDbSpline
210
0.0
220
0.0
230
1.0
 70
     8
 71
     3
 72
    14
 73
    10
 74
     0
 42
0.00000001
 43
0.00000001
 12
1.0
 22
0.0
 32
0.0
 13
1.0
 23
0.0
 33
0.0
 40
0.0
 40
0.0
 40
0.0
 40
0.0
 40
0.25
 40
0.25
 40
0.5
 40
0.5
 40
0.75
 40
0.75
 40
1.0
 40
1.0
 40
1.0
 40
1.0
 10
89.71134872654382
 20
50.30594406311757
 30
0.0
 10
89.74978511136482
 20
50.20331966540605
 30
0.0
 10
89.81858650475664
 20
50.10412324196648
 30
0.0
 10
89.9618725169156
 20
49.91323121263995
 30
0.0
 10
90.03705457202251
 20
49.82097394660705
 30
0.0
 10
90.16924186067267
 20
49.64136662479204
 30
0.0
 10
90.22675905614247
 20
49.5540570703477
 30
0.0
 10
90.3088038544348
 20
49.38412323683196
 30
0.0
 10
90.33295296328359
 20
49.30222089496079
 30
0.0
 10
90.33295296328359
 20
49.22516702112488
 30
0.0
  0
SPLINE
  5
DD
330
1F
100
AcDbEntity
  8
0
  6
Continuous
 62
     7
370
    15
100
AcDbSpline
210
0.0
220
0.0
230
1.0
 70
     8
 71
     3
 72
    18
 73
    14
 74
     0
 42
0.00000001
 43
0.00000001
 12
1.0
 22
0.0
 32
0.0
 13
1.0
 23
0.0
 33
0.0
 40
0.0
 40
0.0
 40
0.0
 40
0.0
 40
0.0624999999999986
 40
0.0624999999999986
 40
0.1249999999999972
 40
0.1249999999999972
 40
0.2499999999999957
 40
0.2499999999999957
 40
0.4999999999999971
 40
0.4999999999999971
 40
0.7499999999999986
 40
0.7499999999999986
 40
1.0
 40
1.0
 40
1.0
 40
1.0
 10
88.93295296328358
 20
51.02422651460419
 30
0.0
 10
88.969525173634
 20
51.02800391813163
 30
0.0
 10
89.00817564706945
 20
51.0274468902485
 30
0.0
 10
89.0822671407833
 20
51.01738768508663
 30
0.0
 10
89.11761743453741
 20
51.00803380366205
 30
0.0
 10
89.21221173192681
 20
50.97364937722823
 30
0.0
 10
89.26234990506579
 20
50.94293764256541
 30
0.0
 10
89.39154317664693
 20
50.84700833252738
 30
0.0
 10
89.44982332138807
 20
50.77849283841012
 30
0.0
 10
89.55001841781156
 20
50.64192088847751
 30
0.0
 10
89.59003366925819
 20
50.5731559859746
 30
0.0
 10
89.65843309007596
 20
50.43812055686693
 30
0.0
 10
89.68679481393788
 20
50.37150253081378
 30
0.0
 10
89.71134872654382
 20
50.30594406311757
 30
0.0
  0
SPLINE
  5
DE
330
1F
100
AcDbEntity
  8
0
  6
Continuous
 62
     7
370
    15
100
AcDbSpline
210
0.0
220
0.0
230
1.0
 70
     8
 71
     3
 72
    10
 73
     6
 74
     0
 42
0.00000001
 43
0.00000001
 12
1.0
 22
0.0
 32
0.0
 13
1.0
 23
0.0
 33
0.0
 40
0.0
 40
0.0
 40
0.0
 40
0.0
 40
0.5
 40
0.5
 40
1.0
 40
1.0
 40
1.0
 40
1.0
 10
85.0193511021616
 20
50.52803285823256
 30
0.0
 10
85.64697875786894
 20
50.63130641696817
 30
0.0
 10
86.2981795029004
 20
50.7201315287197
 30
0.0
 10
87.60688420691265
 20
50.88223923559003
 30
0.0
 10
88.26792864420383
 20
50.95553869987662
 30
0.0
 10
88.93295296328348
 20
51.02422651460431
 30
0.0
  0
SPLINE
  5
DF
330
1F
100
AcDbEntity
  8
0
  6
Continuous
 62
     7
370
    15
100
AcDbSpline
210
0.0
220
0.0
230
1.0
 70
     8
 71
     3
 72
    14
 73
    10
 74
     0
 42
0.00000001
 43
0.00000001
 12
1.0
 22
0.0
 32
0.0
 13
1.0
 23
0.0
 33
0.0
 40
0.0
 40
0.0
 40
0.0
 40
0.0
 40
0.4999999999999998
 40
0.4999999999999998
 40
0.750000000000001
 40
0.750000000000001
 40
0.8750000000000004
 40
0.8750000000000004
 40
1.0
 40
1.0
 40
1.0
 40
1.0
 10
81.38295296328359
 20
50.36368372187324
 30
0.0
 10
81.99902986703889
 20
50.36940984210238
 30
0.0
 10
82.61316186315479
 20
50.37930020750441
 30
0.0
 10
83.52705849366833
 20
50.40993517517418
 30
0.0
 10
83.83049742121592
 20
50.42272863281217
 30
0.0
 10
84.28163403685343
 20
50.45065446077156
 30
0.0
 10
84.43134028639592
 20
50.46142408093132
 30
0.0
 10
84.72818142264401
 20
50.48855679653086
 30
0.0
 10
84.87556697514731
 20
50.50437376935808
 30
0.0
 10
85.0193511021616
 20
50.52803285823256
 30
0.0
  0
SPLINE
  5
E0
330
1F
100
AcDbEntity
  8
0
  6
Continuous
 62
     7
370
    15
100
AcDbSpline
210
0.0
220
0.0
230
1.0
 70
     8
 71
     3
 72
     8
 73
     4
 74
     0
 42
0.00000001
 43
0.00000001
 12
1.0
 22
0.0
 32
0.0
 13
1.0
 23
0.0
 33
0.0
 40
0.0000005954826279
 40
0.0000005954826279
 40
0.0000005954826279
 40
0.0000005954826279
 40
0.0000302093805348
 40
0.0000302093805348
 40
0.0000302093805348
 40
0.0000302093805348
 10
81.37290803287401
 20
50.37549885152512
 30
0.0
 10
81.37622406019418
 20
50.37155207192932
 30
0.0
 10
81.37957261158644
 20
50.36761368079939
 30
0.0
 10
81.38295296328353
 20
50.36368372187322
 30
0.0
  0
SPLINE
  5
E1
330
1F
100
AcDbEntity
  8
0
  6
Continuous
 62
     7
370
    15
100
AcDbSpline
210
0.0
220
0.0
230
1.0
 70
     8
 71
     3
 72
     8
 73
     4
 74
     0
 42
0.00000001
 43
0.00000001
 12
1.0
 22
0.0
 32
0.0
 13
1.0
 23
0.0
 33
0.0
 40
0.0000005099763573
 40
0.0000005099763573
 40
0.0000005099763573
 40
0.0000005099763573
 40
0.0000262827998699
 40
0.0000262827998699
 40
0.0000262827998699
 40
0.0000262827998699
 10
81.38295296328356
 20
92.04025304579586
 30
0.0
 10
81.37958422405582
 20
92.03693137683997
 30
0.0
 10
81.37623577107668
 20
92.0336034195611
 30
0.0
 10
81.37290803286534
 20
92.03026917268843
 30
0.0
  0
SPLINE
  5
E2
330
1F
100
AcDbEntity
  8
0
  6
Continuous
 62
     7
370
    15
100
AcDbSpline
210
0.0
220
0.0
230
1.0
 70
     8
 71
     3
 72
    10
 73
     6
 74
     0
 42
0.00000001
 43
0.00000001
 12
1.0
 22
0.0
 32
0.0
 13
1.0
 23
0.0
 33
0.0
 40
0.0
 40
0.0
 40
0.0
 40
0.0
 40
0.5
 40
0.5
 40
1.0
 40
1.0
 40
1.0
 40
1.0
 10
84.9329529632836
 20
91.99340267222853
 30
0.0
 10
84.345367416193
 20
92.01446819246495
 30
0.0
 10
83.75462102273261
 20
92.02522667833715
 30
0.0
 10
82.57060185743374
 20
92.03859145887283
 30
0.0
 10
81.97718786922827
 20
92.0407341015374
 30
0.0
 10
81.38295296328357
 20
92.04025304579585
 30
0.0
  0
SPLINE
  5
E3
330
1F
100
AcDbEntity
  8
0
  6
Continuous
 62
     7
370
    15
100
AcDbSpline
210
0.0
220
0.0
230
1.0
 70
     8
 71
     3
 72
    18
 73
    14
 74
     0
 42
0.00000001
 43
0.00000001
 12
1.0
 22
0.0
 32
0.0
 13
1.0
 23
0.0
 33
0.0
 40
0.0
 40
0.0
 40
0.0
 40
0.0
 40
0.2500000000000003
 40
0.2500000000000003
 40
0.4999999999999999
 40
0.4999999999999999
 40
0.7499999999999996
 40
0.7499999999999996
 40
0.8749999999999993
 40
0.8749999999999993
 40
0.9374999999999997
 40
0.9374999999999997
 40
1.0
 40
1.0
 40
1.0
 40
1.0
 10
86.3329529632836
 20
93.01442295276377
 30
0.0
 10
86.33295296328362
 20
92.93121604390657
 30
0.0
 10
86.29710386334533
 20
92.842479388593
 30
0.0
 10
86.17223212731142
 20
92.66035419803279
 30
0.0
 10
86.08183170966353
 20
92.56522414940616
 30
0.0
 10
85.85958905492136
 20
92.37604264028182
 30
0.0
 10
85.72982426847558
 20
92.28109747218711
 30
0.0
 10
85.48918681116407
 20
92.14281876460718
 30
0.0
 10
85.40141951302665
 20
92.0971083313048
 30
0.0
 10
85.24689542581982
 20
92.03928502608333
 30
0.0
 10
85.19028453976507
 20
92.02157026204547
 30
0.0
 10
85.06624050885847
 20
91.99703095881253
 30
0.0
 10
84.99852583384018
 20
91.99105182027427
 30
0.0
 10
84.93295296328358
 20
91.99340267222853
 30
0.0
  0
LINE
  5
E4
330
1F
100
AcDbEntity
  8
0
  6
Continuous
 62
     7
370
    15
100
AcDbLine
 10
86.3329520871
 20
93.0144229381
 30
0.0
 11
86.3329520871
 21
94.1983611731
 31
0.0
  0
SPLINE
  5
E5
330
1F
100
AcDbEntity
  8
0
  6
Continuous
 62
     7
370
    15
100
AcDbSpline
210
0.0
220
0.0
230
1.0
 70
     8
 71
     3
 72
    24
 73
    20
 74
     0
 42
0.00000001
 43
0.00000001
 12
1.0
 22
0.0
 32
0.0
 13
1.0
 23
0.0
 33
0.0
 40
0.0
 40
0.0
 40
0.0
 40
0.0
 40
0.0010489815523775
 40
0.0637843212772741
 40
0.1272220630088516
 40
0.1903789073370505
 40
0.2526748662763491
 40
0.3146354150030102
 40
0.3770891884518245
 40
0.4393540587943444
 40
0.5008133488401828
 40
0.5621845177353679
 40
0.6248438462901906
 40
0.6874304788646655
 40
0.7496743245911356
 40
0.811984857412469
 40
0.8750960476811308
 40
0.9384412548145236
 40
1.0
 40
1.0
 40
1.0
 40
1.0
 10
98.90185896801047
 20
47.51280708595422
 30
0.0
 10
98.90141230225976
 20
47.51274844098774
 30
0.0
 10
98.87425236633614
 20
47.50918247800705
 30
0.0
 10
98.96988228946798
 20
47.52204708748226
 30
0.0
 10
99.20343546548847
 20
47.55128156982232
 30
0.0
 10
99.59899141772289
 20
47.59790078056373
 30
0.0
 10
100.1260314180929
 20
47.6480815799889
 30
0.0
 10
100.7695618599292
 20
47.69246025343195
 30
0.0
 10
101.5082356941989
 20
47.71940344994275
 30
0.0
 10
102.3057503643177
 20
47.72287519824488
 30
0.0
 10
103.1323294140823
 20
47.69524975195146
 30
0.0
 10
103.957852235501
 20
47.63676860897282
 30
0.0
 10
104.7499787064166
 20
47.55132554557423
 30
0.0
 10
105.482551085254
 20
47.44959037708171
 30
0.0
 10
106.1181912670747
 20
47.34174672603379
 30
0.0
 10
106.6401021976209
 20
47.24011533075896
 30
0.0
 10
107.0217310352598
 20
47.15763336646646
 30
0.0
 10
107.2725457111932
 20
47.10148125895955
 30
0.0
 10
107.3016670269005
 20
47.09463240804668
 30
0.0
 10
107.3160194282442
 20
47.09125696107057
 30
0.0
  0
SPLINE
  5
E6
330
1F
100
AcDbEntity
  8
0
  6
Continuous
 62
     7
370
    15
100
AcDbSpline
210
0.0
220
0.0
230
1.0
 70
     8
 71
     3
 72
    24
 73
    20
 74
     0
 42
0.00000001
 43
0.00000001
 12
1.0
 22
0.0
 32
0.0
 13
1.0
 23
0.0
 33
0.0
 40
0.0
 40
0.0
 40
0.0
 40
0.0
 40
0.061438429114026
 40
0.1250736777967296
 40
0.1884253375120635
 40
0.2508623992448768
 40
0.3129665476325514
 40
0.3753451442328022
 40
0.4377328732174486
 40
0.499092717251918
 40
0.560580729454827
 40
0.622946985474185
 40
0.6854686070210457
 40
0.7475477863222202
 40
0.8098225081553685
 40
0.873068419947611
 40
0.936404185690527
 40
0.9991757203144552
 40
1.0
 40
1.0
 40
1.0
 40
1.0
 10
107.3159649458735
 20
95.24934379740861
 30
0.0
 10
107.3013641374214
 20
95.24597563953563
 30
0.0
 10
107.2716404475703
 20
95.23911889045125
 30
0.0
 10
107.0189024475844
 20
95.18278107055517
 30
0.0
 10
106.6359071485633
 20
95.09992325766991
 30
0.0
 10
106.1135511916803
 20
94.99801650944886
 30
0.0
 10
105.4787668469787
 20
94.89017793955983
 30
0.0
 10
104.7485431103645
 20
94.78871168633084
 30
0.0
 10
103.9580750154534
 20
94.70364960776364
 30
0.0
 10
103.1335912879957
 20
94.64544825080701
 30
0.0
 10
102.3065549075156
 20
94.61786380312246
 30
0.0
 10
101.5082304485252
 20
94.62135773165664
 30
0.0
 10
100.7684066975256
 20
94.64831139033029
 30
0.0
 10
100.1241518260659
 20
94.69266689094368
 30
0.0
 10
99.59674496896838
 20
94.74287207466645
 30
0.0
 10
99.2020797286553
 20
94.78947953471165
 30
0.0
 10
98.96955104306713
 20
94.81868271155
 30
0.0
 10
98.87417181440084
 20
94.83144085026721
 30
0.0
 10
98.90110475872766
 20
94.82790102034843
 30
0.0
 10
98.90145384269051
 20
94.82785513981489
 30
0.0
  0
SPLINE
  5
E7
330
1F
100
AcDbEntity
  8
0
  6
Continuous
 62
     7
370
    15
100
AcDbSpline
210
0.0
220
0.0
230
1.0
 70
     8
 71
     3
 72
     9
 73
     5
 74
     0
 42
0.00000001
 43
0.00000001
 12
1.0
 22
0.0
 32
0.0
 13
1.0
 23
0.0
 33
0.0
 40
0.0
 40
0.0
 40
0.0
 40
0.0
 40
0.5865081526888636
 40
1.0
 40
1.0
 40
1.0
 40
1.0
 10
80.23947239415936
 20
51.5194965003362
 30
0.0
 10
80.2434728307413
 20
51.51369602812233
 30
0.0
 10
80.250293599666
 20
51.50380618739758
 30
0.0
 10
80.25944731076918
 20
51.55787219292473
 30
0.0
 10
80.26323229568295
 20
51.58022804542688
 30
0.0
  0
LINE
  5
E8
330
1F
100
AcDbEntity
  8
0
  6
Continuous
 62
     7
370
    15
100
AcDbLine
 10
80.2329531361
 20
51.5171551554
 30
0.0
 11
80.2329531361
 21
90.860992804
 31
0.0
  0
SPLINE
  5
E9
330
1F
100
AcDbEntity
  8
0
  6
Continuous
 62
     7
370
    15
100
AcDbSpline
210
0.0
220
0.0
230
1.0
 70
     8
 71
     3
 72
    10
 73
     6
 74
     0
 42
0.00000001
 43
0.00000001
 12
1.0
 22
0.0
 32
0.0
 13
1.0
 23
0.0
 33
0.0
 40
0.0
 40
0.0
 40
0.0
 40
0.0
 40
0.5
 40
0.5
 40
1.0
 40
1.0
 40
1.0
 40
1.0
 10
80.295616338007
 20
90.84486782518152
 30
0.0
 10
80.28671204889824
 20
90.89060934439472
 30
0.0
 10
80.27019666870525
 20
90.90780018386371
 30
0.0
 10
80.24308872264366
 20
90.90747690692798
 30
0.0
 10
80.2329529632836
 20
90.88959936463154
 30
0.0
 10
80.2329529632836
 20
90.86099302687893
 30
0.0
  0
SPLINE
  5
EA
330
1F
100
AcDbEntity
  8
0
  6
Continuous
 62
     7
370
    15
100
AcDbSpline
210
0.0
220
0.0
230
1.0
 70
     8
 71
     3
 72
    26
 73
    22
 74
     0
 42
0.00000001
 43
0.00000001
 12
1.0
 22
0.0
 32
0.0
 13
1.0
 23
0.0
 33
0.0
 40
0.0
 40
0.0
 40
0.0
 40
0.0
 40
0.25
 40
0.25
 40
0.3749999999999994
 40
0.3749999999999994
 40
0.437500000000001
 40
0.437500000000001
 40
0.4687500000000001
 40
0.4687500000000001
 40
0.4999999999999991
 40
0.4999999999999991
 40
0.5312499999999981
 40
0.5312499999999981
 40
0.5624999999999971
 40
0.5624999999999971
 40
0.6249999999999971
 40
0.6249999999999971
 40
0.7499999999999971
 40
0.7499999999999971
 40
1.0
 40
1.0
 40
1.0
 40
1.0
 10
81.05710660938809
 20
91.56043461399862
 30
0.0
 10
81.01850608651961
 20
91.44265991764318
 30
0.0
 10
80.97220908396535
 20
91.31827023148126
 30
0.0
 10
80.87826973553145
 20
91.11305089912778
 30
0.0
 10
80.84295826861799
 20
91.04147803268135
 30
0.0
 10
80.77677829287234
 20
90.92552480008092
 30
0.0
 10
80.75223992620411
 20
90.88494026527067
 30
0.0
 10
80.70886718065029
 20
90.82079858339895
 30
0.0
 10
80.69335877922511
 20
90.7989321581139
 30
0.0
 10
80.65831613463808
 20
90.75333788977069
 30
0.0
 10
80.63876584391832
 20
90.72966759880327
 30
0.0
 10
80.59683856354773
 20
90.68505103946336
 30
0.0
 10
80.5741864533161
 20
90.66417102694544
 30
0.0
 10
80.53321273922947
 20
90.63329761319461
 30
0.0
 10
80.51561343933403
 20
90.62345874336218
 30
0.0
 10
80.47098645347788
 20
90.604469127666
 30
0.0
 10
80.45042723082453
 20
90.60414480301255
 30
0.0
 10
80.39930179132786
 20
90.61336824388876
 30
0.0
 10
80.37839037833933
 20
90.63461514010572
 30
0.0
 10
80.32694047077837
 20
90.70858401893649
 30
0.0
 10
80.30927517147381
 20
90.77470211225123
 30
0.0
 10
80.295616338007
 20
90.84486782518152
 30
0.0
  0
SPLINE
  5
EB
330
1F
100
AcDbEntity
  8
0
  6
Continuous
 62
     7
370
    15
100
AcDbSpline
210
0.0
220
0.0
230
1.0
 70
     8
 71
     3
 72
    10
 73
     6
 74
     0
 42
0.00000001
 43
0.00000001
 12
1.0
 22
0.0
 32
0.0
 13
1.0
 23
0.0
 33
0.0
 40
0.0
 40
0.0
 40
0.0
 40
0.0
 40
0.5
 40
0.5
 40
1.0
 40
1.0
 40
1.0
 40
1.0
 10
81.37290803286537
 20
92.03026917268843
 30
0.0
 10
81.30534877794712
 20
91.96257777987867
 30
0.0
 10
81.24171212261062
 20
91.88787061512501
 30
0.0
 10
81.13149136803878
 20
91.7289044826984
 30
0.0
 10
81.08467507481616
 20
91.64454921669041
 30
0.0
 10
81.05710660938809
 20
91.56043461399861
 30
0.0
  0
SPLINE
  5
EC
330
1F
100
AcDbEntity
  8
0
  6
Continuous
 62
     7
370
    15
100
AcDbSpline
210
0.0
220
0.0
230
1.0
 70
     8
 71
     3
 72
     8
 73
     4
 74
     0
 42
0.00000001
 43
0.00000001
 12
1.0
 22
0.0
 32
0.0
 13
1.0
 23
0.0
 33
0.0
 40
0.0
 40
0.0
 40
0.0
 40
0.0
 40
1.0
 40
1.0
 40
1.0
 40
1.0
 10
81.17186253348274
 20
50.72639297743518
 30
0.0
 10
81.20757619185264
 20
50.60316147217538
 30
0.0
 10
81.28324423080092
 20
50.48221789522839
 30
0.0
 10
81.37290803287405
 20
50.37549885152513
 30
0.0
  0
SPLINE
  5
ED
330
1F
100
AcDbEntity
  8
0
  6
Continuous
 62
     7
370
    15
100
AcDbSpline
210
0.0
220
0.0
230
1.0
 70
     8
 71
     3
 72
    26
 73
    22
 74
     0
 42
0.00000001
 43
0.00000001
 12
1.0
 22
0.0
 32
0.0
 13
1.0
 23
0.0
 33
0.0
 40
0.0
 40
0.0
 40
0.0
 40
0.0
 40
0.24999999999999
 40
0.24999999999999
 40
0.3749999999999855
 40
0.3749999999999855
 40
0.4374999999999828
 40
0.4374999999999828
 40
0.4687499999999823
 40
0.4687499999999823
 40
0.4999999999999817
 40
0.4999999999999817
 40
0.5312499999999811
 40
0.5312499999999811
 40
0.5624999999999805
 40
0.5624999999999805
 40
0.6249999999999835
 40
0.6249999999999835
 40
0.7499999999999892
 40
0.7499999999999892
 40
1.0
 40
1.0
 40
1.0
 40
1.0
 10
80.26323057889222
 20
51.58022772017394
 30
0.0
 10
80.27395461228474
 20
51.68318876066294
 30
0.0
 10
80.28868760287929
 20
51.78218745014401
 30
0.0
 10
80.3410411621263
 20
51.90078313020913
 30
0.0
 10
80.36274644484592
 20
51.93649343015793
 30
0.0
 10
80.42160195221133
 20
51.96147286297965
 30
0.0
 10
80.4450641860585
 20
51.96585831074322
 30
0.0
 10
80.50118556271916
 20
51.94610547729904
 30
0.0
 10
80.5239728728498
 20
51.93444908648862
 30
0.0
 10
80.57922542538101
 20
51.89266873705135
 30
0.0
 10
80.61063165812185
 20
51.86239714967532
 30
0.0
 10
80.66556547874227
 20
51.80075475076134
 30
0.0
 10
80.68998929694173
 20
51.7693130984545
 30
0.0
 10
80.73340440292895
 20
51.70957826104075
 30
0.0
 10
80.75297896549722
 20
51.68041325116811
 30
0.0
 10
80.80661164944519
 20
51.59657797543505
 30
0.0
 10
80.83638899749737
 20
51.54454535745884
 30
0.0
 10
80.91792305747018
 20
51.39347968349149
 30
0.0
 10
80.96116585214419
 20
51.30028864162077
 30
0.0
 10
81.07422044179889
 20
51.03590210262642
 30
0.0
 10
81.12823143927805
 20
50.87694393357658
 30
0.0
 10
81.17186253348207
 20
50.72639297743574
 30
0.0
  0
LINE
  5
EE
330
1F
100
AcDbEntity
  8
0
  6
Continuous
 62
     7
370
    15
100
AcDbLine
 10
137.4829536726
 20
101.6375107168
 30
0.0
 11
133.5248848845
 21
101.6375107168
 31
0.0
  0
LINE
  5
EF
330
1F
100
AcDbEntity
  8
0
  6
Continuous
 62
     7
370
    15
100
AcDbLine
 10
133.5248848845
 20
95.6290048955
 30
0.0
 11
137.4829536726
 21
95.6290048955
 31
0.0
  0
LINE
  5
F0
330
1F
100
AcDbEntity
  8
0
  6
Continuous
 62
     7
370
    15
100
AcDbLine
 10
133.5248848845
 20
95.6290048955
 30
0.0
 11
133.5248848845
 21
101.6375107168
 31
0.0
  0
SPLINE
  5
F1
330
1F
100
AcDbEntity
  8
0
  6
Continuous
 62
     7
370
    15
100
AcDbSpline
210
0.0
220
0.0
230
1.0
 70
     8
 71
     3
 72
     8
 73
     4
 74
     0
 42
0.00000001
 43
0.00000001
 12
1.0
 22
0.0
 32
0.0
 13
1.0
 23
0.0
 33
0.0
 40
0.0
 40
0.0
 40
0.0
 40
0.0
 40
1.0
 40
1.0
 40
1.0
 40
1.0
 10
126.7410201317946
 20
95.62900494276819
 30
0.0
 10
127.2481069735538
 20
94.49785458860453
 30
0.0
 10
127.7436748126937
 20
93.36147017783672
 30
0.0
 10
128.2229529632836
 20
92.22045894798413
 30
0.0
  0
LINE
  5
F2
330
1F
100
AcDbEntity
  8
0
  6
Continuous
 62
     7
370
    15
100
AcDbLine
 10
128.2229530116
 20
92.2204592673
 30
0.0
 11
128.2229530116
 21
91.3061817585
 31
0.0
  0
SPLINE
  5
F3
330
1F
100
AcDbEntity
  8
0
  6
Continuous
 62
     7
370
    15
100
AcDbSpline
210
0.0
220
0.0
230
1.0
 70
     8
 71
     3
 72
    10
 73
     6
 74
     0
 42
0.00000001
 43
0.00000001
 12
1.0
 22
0.0
 32
0.0
 13
1.0
 23
0.0
 33
0.0
 40
0.0
 40
0.0
 40
0.0
 40
0.0
 40
0.5
 40
0.5
 40
1.0
 40
1.0
 40
1.0
 40
1.0
 10
138.0829529632836
 20
101.0167556041647
 30
0.0
 10
138.0829529632836
 20
101.1771608705155
 30
0.0
 10
138.0207151321767
 20
101.3362226835041
 30
0.0
 10
137.8015802084342
 20
101.5671351491344
 30
0.0
 10
137.6439915134423
 20
101.637510753565
 30
0.0
 10
137.4829529632836
 20
101.637510753565
 30
0.0
  0
SPLINE
  5
F4
330
1F
100
AcDbEntity
  8
0
  6
Continuous
 62
     7
370
    15
100
AcDbSpline
210
0.0
220
0.0
230
1.0
 70
     8
 71
     3
 72
    12
 73
     8
 74
     0
 42
0.00000001
 43
0.00000001
 12
1.0
 22
0.0
 32
0.0
 13
1.0
 23
0.0
 33
0.0
 40
0.0
 40
0.0
 40
0.0
 40
0.0
 40
0.249999999999998
 40
0.249999999999998
 40
0.499999999999996
 40
0.499999999999996
 40
1.0
 40
1.0
 40
1.0
 40
1.0
 10
137.4829529632836
 20
95.62900494276822
 30
0.0
 10
137.5741526851093
 20
95.6290049427682
 30
0.0
 10
137.6647476942453
 20
95.60078524418033
 30
0.0
 10
137.8181604206919
 20
95.50634223693221
 30
0.0
 10
137.8833692880156
 20
95.44005526022688
 30
0.0
 10
138.0361538173555
 20
95.21443043693858
 30
0.0
 10
138.0829529632836
 20
95.03200417390603
 30
0.0
 10
138.0829529632836
 20
94.85126754165915
 30
0.0
  0
LINE
  5
F5
330
1F
100
AcDbEntity
  8
0
  6
Continuous
 62
     7
370
    15
100
AcDbLine
 10
138.0829526533
 20
94.8512667267
 30
0.0
 11
138.0829526533
 21
101.0167562811
 31
0.0
  0
SPLINE
  5
F6
330
1F
100
AcDbEntity
  8
0
  6
Continuous
 62
     7
370
    15
100
AcDbSpline
210
0.0
220
0.0
230
1.0
 70
     8
 71
     3
 72
     8
 73
     4
 74
     0
 42
0.00000001
 43
0.00000001
 12
1.0
 22
0.0
 32
0.0
 13
1.0
 23
0.0
 33
0.0
 40
0.0
 40
0.0
 40
0.0
 40
0.0
 40
1.0
 40
1.0
 40
1.0
 40
1.0
 10
132.0429529632836
 20
92.22045894798411
 30
0.0
 10
132.5222311138734
 20
93.36147017783671
 30
0.0
 10
133.0177989530134
 20
94.49785458860454
 30
0.0
 10
133.5248857947726
 20
95.6290049427682
 30
0.0
  0
LINE
  5
F7
330
1F
100
AcDbEntity
  8
0
  6
Continuous
 62
     7
370
    15
100
AcDbLine
 10
132.0429532279
 20
91.3061817585
 30
0.0
 11
132.0429532279
 21
92.2204592673
 31
0.0
  0
LINE
  5
F8
330
1F
100
AcDbEntity
  8
0
  6
Continuous
 62
     7
370
    15
100
AcDbLine
 10
138.0829526533
 20
94.8512667267
 30
0.0
 11
138.0829526533
 21
91.0203160195
 31
0.0
  0
SPLINE
  5
F9
330
1F
100
AcDbEntity
  8
0
  6
Continuous
 62
     7
370
    15
100
AcDbSpline
210
0.0
220
0.0
230
1.0
 70
     8
 71
     3
 72
     8
 73
     4
 74
     0
 42
0.00000001
 43
0.00000001
 12
1.0
 22
0.0
 32
0.0
 13
1.0
 23
0.0
 33
0.0
 40
0.0
 40
0.0
 40
0.0
 40
0.0
 40
1.0
 40
1.0
 40
1.0
 40
1.0
 10
133.5248857947726
 20
101.637510753565
 30
0.0
 10
133.0297457654083
 20
100.7508311053848
 30
0.0
 10
132.5356630601293
 20
99.86356846969878
 30
0.0
 10
132.0429529632836
 20
98.97554947157239
 30
0.0
  0
LINE
  5
FA
330
1F
100
AcDbEntity
  8
0
  6
Continuous
 62
     7
370
    15
100
AcDbLine
 10
132.0429532279
 20
92.2204592673
 30
0.0
 11
132.0429532279
 21
98.9755486546
 31
0.0
  0
SPLINE
  5
FB
330
1F
100
AcDbEntity
  8
0
  6
Continuous
 62
     7
370
    15
100
AcDbSpline
210
0.0
220
0.0
230
1.0
 70
     8
 71
     3
 72
     8
 73
     4
 74
     0
 42
0.00000001
 43
0.00000001
 12
1.0
 22
0.0
 32
0.0
 13
1.0
 23
0.0
 33
0.0
 40
0.0
 40
0.0
 40
0.0
 40
0.0
 40
1.0
 40
1.0
 40
1.0
 40
1.0
 10
128.2229529632836
 20
98.97554947157239
 30
0.0
 10
127.7302428664378
 20
99.86356846969878
 30
0.0
 10
127.2361601611588
 20
100.7508311053848
 30
0.0
 10
126.7410201317945
 20
101.637510753565
 30
0.0
  0
LINE
  5
FC
330
1F
100
AcDbEntity
  8
0
  6
Continuous
 62
     7
370
    15
100
AcDbLine
 10
128.2229530116
 20
92.2204592673
 30
0.0
 11
128.2229530116
 21
98.9755486546
 31
0.0
  0
LINE
  5
FD
330
1F
100
AcDbEntity
  8
0
  6
Continuous
 62
     7
370
    15
100
AcDbLine
 10
81.3829521139
 20
50.3578150122
 30
0.0
 11
81.3829521139
 21
50.363684207
 31
0.0
  0
ELLIPSE
  5
FE
330
1F
100
AcDbEntity
  8
0
  6
Continuous
 62
     7
370
    15
100
AcDbEllipse
 10
168.7369148912
 20
53.1619135784
 30
0.0
 11
5.988467203871039
 21
3.510161557770389
 31
0.0
210
0.0
220
0.0
230
1.0
 40
0.1059307462
 41
1.508784251041023
 42
2.817781190036746
  0
ELLIPSE
  5
FF
330
1F
100
AcDbEntity
  8
0
  6
Continuous
 62
     7
370
    15
100
AcDbEllipse
 10
168.7369148912
 20
89.1787169824
 30
0.0
 11
5.988467203871039
 21
-3.510161557770402
 31
0.0
210
0.0
220
0.0
230
1.0
 40
0.1059307462
 41
3.465404117142971
 42
4.774401056138565
  0
LINE
  5
100
330
1F
100
AcDbEntity
  8
0
  6
Continuous
 62
     7
370
    15
100
AcDbLine
 10
182.2923956861
 20
71.1703152804
 30
0.0
 11
181.4285083164
 21
71.1703152804
 31
0.0
  0
LINE
  5
101
330
1F
100
AcDbEntity
  8
0
  6
Continuous
 62
     7
370
    15
100
AcDbLine
 10
181.4285083164
 20
71.1703152804
 30
0.0
 11
182.4892847289
 21
70.8358545265
 31
0.0
  0
LINE
  5
102
330
1F
100
AcDbEntity
  8
0
  6
Continuous
 62
     7
370
    15
100
AcDbLine
 10
181.4489303579
 20
71.1767524397
 30
0.0
 11
181.4285083164
 21
71.1703152804
 31
0.0
  0
LINE
  5
103
330
1F
100
AcDbEntity
  8
0
  6
Continuous
 62
     7
370
    15
100
AcDbLine
 10
196.7061771502
 20
66.3404116815
 30
0.0
 11
182.1279762735
 21
61.7439235969
 31
0.0
  0
LINE
  5
104
330
1F
100
AcDbEntity
  8
0
  6
Continuous
 62
     7
370
    15
100
AcDbLine
 10
196.7061771502
 20
76.0002188793
 30
0.0
 11
182.1279762735
 21
80.5967069639
 31
0.0
  0
LINE
  5
105
330
1F
100
AcDbEntity
  8
0
  6
Continuous
 62
     7
370
    15
100
AcDbLine
 10
188.1872876038
 20
73.3142249694
 30
0.0
 11
182.5265078296
 21
75.0990641712
 31
0.0
  0
ARC
  5
106
330
1F
100
AcDbEntity
  8
0
  6
Continuous
 62
     7
370
    15
100
AcDbCircle
 10
181.9153488689
 20
73.1607254113
 30
0.0
 40
2.032404490076696
100
AcDbArc
 50
72.5
 51
252.5
  0
LINE
  5
107
330
1F
100
AcDbEntity
  8
0
  6
Continuous
 62
     7
370
    15
100
AcDbLine
 10
181.3041953792
 20
71.2223867988
 30
0.0
 11
181.4489303579
 21
71.1767524397
 31
0.0
  0
LINE
  5
108
330
1F
100
AcDbEntity
  8
0
  6
Continuous
 62
     7
370
    15
100
AcDbLine
 10
182.1279762735
 20
61.7439235969
 30
0.0
 11
168.7369136562
 21
54.0125892906
 31
0.0
  0
LINE
  5
109
330
1F
100
AcDbEntity
  8
0
  6
Continuous
 62
     7
370
    15
100
AcDbLine
 10
182.1279762735
 20
80.5967069639
 30
0.0
 11
168.7369136562
 21
88.3280412702
 31
0.0
  0
LINE
  5
10A
330
1F
100
AcDbEntity
  8
0
  6
Continuous
 62
     7
370
    15
100
AcDbLine
 10
187.7177222122
 20
73.1661702914
 30
0.0
 11
182.441586112
 21
74.8297301064
 31
0.0
  0
LINE
  5
10B
330
1F
100
AcDbEntity
  8
0
  6
Continuous
 62
     7
370
    15
100
AcDbLine
 10
181.3891170968
 20
71.4917207545
 30
0.0
 11
182.2941540231
 21
71.2063625536
 31
0.0
  0
LINE
  5
10C
330
1F
100
AcDbEntity
  8
0
  6
Continuous
 62
     7
370
    15
100
AcDbLine
 10
182.2927086105
 20
71.1767524397
 30
0.0
 11
181.4489303579
 21
71.1767524397
 31
0.0
  0
ARC
  5
10D
330
1F
100
AcDbEntity
  8
0
  6
Continuous
 62
     7
370
    15
100
AcDbCircle
 10
181.9153488689
 20
73.1607254113
 30
0.0
 40
1.750000000000005
100
AcDbArc
 50
72.5
 51
252.5
  0
CIRCLE
  5
10E
330
1F
100
AcDbEntity
  8
0
  6
Continuous
 62
     7
370
    15
100
AcDbCircle
 10
146.1329529633
 20
71.1703152804
 30
0.0
 40
2.860000000000007
  0
CIRCLE
  5
10F
330
1F
100
AcDbEntity
  8
0
  6
Continuous
 62
     7
370
    15
100
AcDbCircle
 10
146.1329529633
 20
71.1703152804
 30
0.0
 40
2.499999999999999
  0
LINE
  5
110
330
1F
100
AcDbEntity
  8
0
  6
Continuous
 62
     7
370
    15
100
AcDbLine
 10
147.3663015713
 20
68.4355661681
 30
0.0
 11
147.182406341
 21
68.3598612843
 31
0.0
  0
ARC
  5
111
330
1F
100
AcDbEntity
  8
0
  6
Continuous
 62
     7
370
    15
100
AcDbCircle
 10
146.1329529633
 20
71.1703152804
 30
0.0
 40
3.000000000000015
100
AcDbArc
 50
179.6758759359
 51
200.9891072745
  0
LWPOLYLINE
  5
112
330
1F
100
AcDbEntity
  8
0
  6
Continuous
 62
     7
370
    15
100
AcDbPolyline
 90
        3
 70
   128
 43
0.0
 10
148.1465189208
 20
68.9464552736
 10
147.963733827
 20
68.7937111536
 10
147.3663015713
 20
68.4355661681
  0
CIRCLE
  5
113
330
1F
100
AcDbEntity
  8
0
  6
HIDDEN
 62
     7
370
     0
100
AcDbCircle
 10
197.1254176674
 20
71.1703152804
 30
0.0
 40
1.999999999999983
  0
CIRCLE
  5
114
330
1F
100
AcDbEntity
  8
0
  6
HIDDEN
 62
     7
370
     0
100
AcDbCircle
 10
197.1254176674
 20
71.1703152804
 30
0.0
 40
1.899999999999976
  0
CIRCLE
  5
115
330
1F
100
AcDbEntity
  8
0
  6
HIDDEN
 62
     7
370
     0
100
AcDbCircle
 10
197.2254176674
 20
71.1703152804
 30
0.0
 40
2.200000000000012
  0
LINE
  5
116
330
1F
100
AcDbEntity
  8
0
  6
HIDDEN
 62
     7
370
     0
100
AcDbLine
 10
197.2552625884
 20
66.7989236711
 30
0.0
 11
210.8193202366
 21
71.0756544679
 31
0.0
  0
LINE
  5
117
330
1F
100
AcDbEntity
  8
0
  6
HIDDEN
 62
     7
370
     0
100
AcDbLine
 10
210.8193202366
 20
71.2649760929
 30
0.0
 11
197.2552625884
 21
75.5417068897
 31
0.0
  0
LINE
  5
118
330
1F
100
AcDbEntity
  8
0
  6
HIDDEN
 62
     7
370
     0
100
AcDbLine
 10
183.6315108885
 20
71.0756544679
 30
0.0
 11
197.1955685367
 21
66.7989236711
 31
0.0
  0
LINE
  5
119
330
1F
100
AcDbEntity
  8
0
  6
HIDDEN
 62
     7
370
     0
100
AcDbLine
 10
197.1955685367
 20
75.5417068897
 30
0.0
 11
183.6315108885
 21
71.2649760929
 31
0.0
  0
SPLINE
  5
11A
330
1F
100
AcDbEntity
  8
0
  6
HIDDEN
 62
     7
370
     0
100
AcDbSpline
210
0.0
220
0.0
230
1.0
 70
     8
 71
     3
 72
    15
 73
    11
 74
     0
 42
0.00000001
 43
0.00000001
 12
1.0
 22
0.0
 32
0.0
 13
1.0
 23
0.0
 33
0.0
 40
0.0
 40
0.0
 40
0.0
 40
0.0
 40
0.1437416091493575
 40
0.2878263958202522
 40
0.4234837269298675
 40
0.5497135262800285
 40
0.6718942094543199
 40
0.7962098588484116
 40
0.9276103456202488
 40
1.0
 40
1.0
 40
1.0
 40
1.0
 10
183.6315108885079
 20
71.07565446793578
 30
0.0
 10
183.6201491634353
 20
71.08044217376958
 30
0.0
 10
183.5973985876118
 20
71.09002901589936
 30
0.0
 10
183.5722252200156
 20
71.11730061962915
 30
0.0
 10
183.5585440677911
 20
71.14968559012601
 30
0.0
 10
183.5573322849156
 20
71.18301430345214
 30
0.0
 10
183.5671008968513
 20
71.21378120005497
 30
0.0
 10
183.5864646756796
 20
71.24000492540722
 30
0.0
 10
183.6094547648418
 20
71.25682572712469
 30
0.0
 10
183.6257297445032
 20
71.26283979553843
 30
0.0
 10
183.6315108885079
 20
71.2649760928658
 30
0.0
  0
SPLINE
  5
11B
330
1F
100
AcDbEntity
  8
0
  6
HIDDEN
 62
     7
370
     0
100
AcDbSpline
210
0.0
220
0.0
230
1.0
 70
     8
 71
     3
 72
    15
 73
    11
 74
     0
 42
0.00000001
 43
0.00000001
 12
1.0
 22
0.0
 32
0.0
 13
1.0
 23
0.0
 33
0.0
 40
0.0
 40
0.0
 40
0.0
 40
0.0
 40
0.1437641256880479
 40
0.2878253267638555
 40
0.4234905256946435
 40
0.5497161601523041
 40
0.6718850625364271
 40
0.7962148737767208
 40
0.92761212700636
 40
1.0
 40
1.0
 40
1.0
 40
1.0
 10
210.8193202366143
 20
71.2649760928658
 30
0.0
 10
210.8306855125721
 20
71.26018941807453
 30
0.0
 10
210.8534395497888
 20
71.25060617726734
 30
0.0
 10
210.8786022849144
 20
71.22332531311982
 30
0.0
 10
210.8923005884092
 20
71.19094697554003
 30
0.0
 10
210.8934926908475
 20
71.1576176598164
 30
0.0
 10
210.8837418304972
 20
71.12684541926396
 30
0.0
 10
210.8643646160123
 20
71.10062822786234
 30
0.0
 10
210.8413767477601
 20
71.08380461578122
 30
0.0
 10
210.8251014821815
 20
71.07779070815039
 30
0.0
 10
210.8193202366143
 20
71.07565446793578
 30
0.0
  0
LINE
  5
11C
330
1F
100
AcDbEntity
  8
0
  6
HIDDEN
 62
     7
370
     0
100
AcDbLine
 10
126.7410204236
 20
95.6290048955
 30
0.0
 11
126.7410204236
 21
91.0203160195
 31
0.0
  0
ELLIPSE
  5
11D
330
1F
100
AcDbEntity
  8
0
  6
HIDDEN
 62
     7
370
     0
100
AcDbEllipse
 10
198.5286376078
 20
71.1703152804
 30
0.0
 11
45.45660241222412
 21
-25.85316017373703
 31
0.0
210
0.0
220
0.0
230
1.0
 40
0.0607033381
 41
3.03526288630774
 42
4.348704463159619
  0
ELLIPSE
  5
11E
330
1F
100
AcDbEntity
  8
0
  6
HIDDEN
 62
     7
370
     0
100
AcDbEllipse
 10
198.5286376078
 20
71.1703152804
 30
0.0
 11
45.45660241222412
 21
25.85316017373703
 31
0.0
210
0.0
220
0.0
230
1.0
 40
0.0607033381
 41
1.934480844019997
 42
3.247922420872074
  0
ELLIPSE
  5
11F
330
1F
100
AcDbEntity
  8
0
  6
HIDDEN
 62
     7
370
     0
100
AcDbEllipse
 10
212.1471681609
 20
71.1703152804
 30
0.0
 11
83.13672790006959
 21
25.82307544547091
 31
0.0
210
0.0
220
0.0
230
1.0
 40
0.0364219102
 41
1.694962451222351
 42
1.944877441565435
  0
ELLIPSE
  5
120
330
1F
100
AcDbEntity
  8
0
  6
HIDDEN
 62
     7
370
     0
100
AcDbEllipse
 10
211.5336803456
 20
71.1703152804
 30
0.0
 11
0.0
 21
26.00000000000001
 31
0.0
210
0.0
220
0.0
230
1.0
 40
0.4083212266
 41
1.563356567194934
 42
1.57823608639486
  0
ELLIPSE
  5
121
330
1F
100
AcDbEntity
  8
0
  6
HIDDEN
 62
     7
370
     0
100
AcDbEllipse
 10
212.1471681609
 20
71.1703152804
 30
0.0
 11
83.13672790006957
 21
-25.82307544547091
 31
0.0
210
0.0
220
0.0
230
1.0
 40
0.0364219102
 41
4.539321085069255
 42
4.588222855957243
  0
ELLIPSE
  5
122
330
1F
100
AcDbEntity
  8
0
  6
HIDDEN
 62
     7
370
     0
100
AcDbEllipse
 10
212.1471681609
 20
71.1703152804
 30
0.0
 11
83.13672790006957
 21
-25.82307544547091
 31
0.0
210
0.0
220
0.0
230
1.0
 40
0.0364219102
 41
4.338307865614201
 42
4.535015022713198
  0
LINE
  5
123
330
1F
100
AcDbEntity
  8
0
  6
HIDDEN
 62
     7
370
     0
100
AcDbLine
 10
100.1281034623
 20
47.6457161306
 30
0.0
 11
99.8764452015
 21
47.6221946476
 31
0.0
  0
LINE
  5
124
330
1F
100
AcDbEntity
  8
0
  6
HIDDEN
 62
     7
370
     0
100
AcDbLine
 10
99.7537536968
 20
94.7297458945
 30
0.0
 11
100.1280103301
 21
94.6948976664
 31
0.0
  0
SPLINE
  5
125
330
1F
100
AcDbEntity
  8
0
  6
HIDDEN
 62
     7
370
     0
100
AcDbSpline
210
0.0
220
0.0
230
1.0
 70
     8
 71
     3
 72
    15
 73
    11
 74
     0
 42
0.00000001
 43
0.00000001
 12
1.0
 22
0.0
 32
0.0
 13
1.0
 23
0.0
 33
0.0
 40
0.0
 40
0.0
 40
0.0
 40
0.0
 40
0.1409172263352446
 40
0.281889861653346
 40
0.4212989542022905
 40
0.5593768841673977
 40
0.6988856533029646
 40
0.840367202775075
 40
0.9813164473602943
 40
1.0
 40
1.0
 40
1.0
 40
1.0
 10
105.8879550036996
 20
51.33278681322244
 30
0.0
 10
105.5719132840869
 20
51.37314013499712
 30
0.0
 10
104.9397055765185
 20
51.45386264556695
 30
0.0
 10
103.7055424042043
 20
51.53042059194971
 30
0.0
 10
102.4348202803886
 20
51.52574252393477
 30
0.0
 10
101.2462608138522
 20
51.44494605871155
 30
0.0
 10
100.2531381345618
 20
51.32055151185732
 30
0.0
 10
99.613729603248
 20
51.2141445650961
 30
0.0
 10
99.3327096148946
 20
51.16106750578654
 30
0.0
 10
99.39927018338341
 20
51.17332199774845
 30
0.0
 10
99.40706048654609
 20
51.17475627347139
 30
0.0
  0
SPLINE
  5
126
330
1F
100
AcDbEntity
  8
0
  6
HIDDEN
 62
     7
370
     0
100
AcDbSpline
210
0.0
220
0.0
230
1.0
 70
     8
 71
     3
 72
    15
 73
    11
 74
     0
 42
0.00000001
 43
0.00000001
 12
1.0
 22
0.0
 32
0.0
 13
1.0
 23
0.0
 33
0.0
 40
0.0
 40
0.0
 40
0.0
 40
0.0
 40
0.1201202497733958
 40
0.2584739452442804
 40
0.3987302041697883
 40
0.5404022600041716
 40
0.680739511736143
 40
0.8190355942651634
 40
0.9577823154231621
 40
1.0
 40
1.0
 40
1.0
 40
1.0
 10
99.40706048654609
 20
91.16587428733018
 30
0.0
 10
99.42776973534956
 20
91.16184978325587
 30
0.0
 10
99.47233175758457
 20
91.15318988246732
 30
0.0
 10
100.034771227313
 20
91.05389696375615
 30
0.0
 10
100.9282334827603
 20
90.92998095204483
 30
0.0
 10
102.0872123066124
 20
90.83026957651116
 30
0.0
 10
103.3602491754322
 20
90.80313251881311
 30
0.0
 10
104.5945345221593
 20
90.85846988094323
 30
0.0
 10
105.4224975998551
 20
90.94494961673458
 30
0.0
 10
105.7999079125015
 20
90.99594653587175
 30
0.0
 10
105.8879550036996
 20
91.00784374757913
 30
0.0
  0
SPLINE
  5
127
330
1F
100
AcDbEntity
  8
0
  6
HIDDEN
 62
     7
370
     0
100
AcDbSpline
210
0.0
220
0.0
230
1.0
 70
     8
 71
     3
 72
    10
 73
     6
 74
     0
 42
0.00000001
 43
0.00000001
 12
1.0
 22
0.0
 32
0.0
 13
1.0
 23
0.0
 33
0.0
 40
0.0
 40
0.0
 40
0.0
 40
0.0
 40
0.4476916687235067
 40
0.8953666750768952
 40
0.9999999999999999
 40
0.9999999999999999
 40
0.9999999999999999
 40
0.9999999999999999
 10
105.8879550036996
 20
91.00784374757913
 30
0.0
 10
106.134654355747
 20
91.03735528644219
 30
0.0
 10
106.6280438780854
 20
91.09637726579591
 30
0.0
 10
106.9170531564338
 20
91.11031844259335
 30
0.0
 10
106.8567402209584
 20
91.10643062228387
 30
0.0
 10
106.8453140978723
 20
91.10569408520368
 30
0.0
  0
SPLINE
  5
128
330
1F
100
AcDbEntity
  8
0
  6
HIDDEN
 62
     7
370
     0
100
AcDbSpline
210
0.0
220
0.0
230
1.0
 70
     8
 71
     3
 72
    10
 73
     6
 74
     0
 42
0.00000001
 43
0.00000001
 12
1.0
 22
0.0
 32
0.0
 13
1.0
 23
0.0
 33
0.0
 40
0.0
 40
0.0
 40
0.0
 40
0.0
 40
0.3457470326414442
 40
0.7967816249677357
 40
0.9999999999999999
 40
0.9999999999999999
 40
0.9999999999999999
 40
0.9999999999999999
 10
106.8453355182915
 20
51.23493647559789
 30
0.0
 10
106.8357760293273
 20
51.23549118287768
 30
0.0
 10
106.8137459772033
 20
51.23676951797832
 30
0.0
 10
106.3966878769771
 20
51.26673734722636
 30
0.0
 10
106.0085233104429
 20
51.31713326949694
 30
0.0
 10
105.8879550036996
 20
51.33278681322244
 30
0.0
  0
LINE
  5
129
330
1F
100
AcDbEntity
  8
0
  6
HIDDEN
 62
     7
370
     0
100
AcDbLine
 10
93.136928459
 20
54.1703143565
 30
0.0
 11
93.136928459
 21
88.1703162043
 31
0.0
  0
LWPOLYLINE
  5
12A
330
1F
100
AcDbEntity
  8
0
  6
HIDDEN
 62
     7
370
     0
100
AcDbPolyline
 90
        9
 70
   128
 43
0.0
 10
147.5138863971
 20
73.2543074003
 10
147.6162499239
 20
73.4925434402
 10
147.7274088611
 20
73.632752424
 10
147.8426618923
 20
73.6690150982
 10
147.9571549644
 20
73.5998012999
 10
148.0660451998
 20
73.4280323552
 10
148.164743041
 20
73.1609593088
 10
148.249079888
 20
72.8098559369
 10
148.3154943635
 20
72.3895433069
  0
LWPOLYLINE
  5
12B
330
1F
100
AcDbEntity
  8
0
  6
HIDDEN
 62
     7
370
     0
100
AcDbPolyline
 90
        9
 70
   128
 43
0.0
 10
148.3154943635
 20
69.9510872539
 10
148.249079888
 20
69.5307746239
 10
148.164743041
 20
69.179671252
 10
148.0660451998
 20
68.9125982056
 10
147.9571549644
 20
68.7408292609
 10
147.8426618923
 20
68.6716154626
 10
147.7274088611
 20
68.7078781369
 10
147.6162499239
 20
68.8480871206
 10
147.5138863971
 20
69.0863231605
  0
LINE
  5
12C
330
1F
100
AcDbEntity
  8
0
  6
HIDDEN
 62
     7
370
     0
100
AcDbLine
 10
119.7927789253
 20
54.1703143565
 30
0.0
 11
119.7927789253
 21
88.1703162043
 31
0.0
  0
LINE
  5
12D
330
1F
100
AcDbEntity
  8
0
  6
HIDDEN
 62
     7
370
     0
100
AcDbLine
 10
122.0829528247
 20
55.4453154503
 30
0.0
 11
122.0829528247
 21
86.8953151105
 31
0.0
  0
SPLINE
  5
12E
330
1F
100
AcDbEntity
  8
0
  6
HIDDEN
 62
     7
370
     0
100
AcDbSpline
210
0.0
220
0.0
230
1.0
 70
     8
 71
     3
 72
    18
 73
    14
 74
     0
 42
0.00000001
 43
0.00000001
 12
1.0
 22
0.0
 32
0.0
 13
1.0
 23
0.0
 33
0.0
 40
0.0
 40
0.0
 40
0.0
 40
0.0
 40
0.2500000000000009
 40
0.2500000000000009
 40
0.3750000000000007
 40
0.3750000000000007
 40
0.5000000000000006
 40
0.5000000000000006
 40
0.6250000000000003
 40
0.6250000000000003
 40
0.7500000000000001
 40
0.7500000000000001
 40
1.0
 40
1.0
 40
1.0
 40
1.0
 10
86.33295296328359
 20
87.45782890280492
 30
0.0
 10
86.33295296328359
 20
87.40335438225272
 30
0.0
 10
86.2980422718914
 20
87.34697332290023
 30
0.0
 10
86.19603297055836
 20
87.26289648204673
 30
0.0
 10
86.15439661588026
 20
87.23556277805584
 30
0.0
 10
86.0559908203915
 20
87.18260886245685
 30
0.0
 10
85.99844760868721
 20
87.15672150873968
 30
0.0
 10
85.87114943511428
 20
87.1089439639064
 30
0.0
 10
85.8015621303568
 20
87.08699604572851
 30
0.0
 10
85.65012788520187
 20
87.0475634808158
 30
0.0
 10
85.5674439821079
 20
87.03000723158995
 30
0.0
 10
85.31133252006984
 20
86.98756846616944
 30
0.0
 10
85.12341751618186
 20
86.97180571643243
 30
0.0
 10
84.93295296328358
 20
86.97180571643244
 30
0.0
  0
LINE
  5
12F
330
1F
100
AcDbEntity
  8
0
  6
HIDDEN
 62
     7
370
     0
100
AcDbLine
 10
84.9329526027
 20
86.9718064962
 30
0.0
 11
81.3829521139
 21
86.9718064962
 31
0.0
  0
LINE
  5
130
330
1F
100
AcDbEntity
  8
0
  6
HIDDEN
 62
     7
370
     0
100
AcDbLine
 10
81.3829521139
 20
55.3688240646
 30
0.0
 11
88.9329532583
 21
55.3688240646
 31
0.0
  0
SPLINE
  5
131
330
1F
100
AcDbEntity
  8
0
  6
HIDDEN
 62
     7
370
     0
100
AcDbSpline
210
0.0
220
0.0
230
1.0
 70
     8
 71
     3
 72
    16
 73
    12
 74
     0
 42
0.00000001
 43
0.00000001
 12
1.0
 22
0.0
 32
0.0
 13
1.0
 23
0.0
 33
0.0
 40
0.0
 40
0.0
 40
0.0
 40
0.0
 40
0.1249999999999988
 40
0.1249999999999988
 40
0.2499999999999977
 40
0.2499999999999977
 40
0.4999999999999984
 40
0.4999999999999984
 40
0.7499999999999992
 40
0.7499999999999992
 40
1.0
 40
1.0
 40
1.0
 40
1.0
 10
88.93295296328358
 20
55.36882484436913
 30
0.0
 10
89.02807471794941
 20
55.36882484436913
 30
0.0
 10
89.12140478667749
 20
55.36500901097634
 30
0.0
 10
89.3046665474155
 20
55.35023845824652
 30
0.0
 10
89.39554426297248
 20
55.33908041027094
 30
0.0
 10
89.65234596049224
 20
55.29660914012923
 30
0.0
 10
89.80741332536422
 20
55.25556294292642
 30
0.0
 10
90.06115978691886
 20
55.16041682634452
 30
0.0
 10
90.16203023858671
 20
55.10565409226295
 30
0.0
 10
90.29727665328154
 20
54.99439296835907
 30
0.0
 10
90.33295296328357
 20
54.93722323103039
 30
0.0
 10
90.33295296328359
 20
54.88280165799667
 30
0.0
  0
LINE
  5
132
330
1F
100
AcDbEntity
  8
0
  6
HIDDEN
 62
     7
370
     0
100
AcDbLine
 10
81.3829521139
 20
55.3688240646
 30
0.0
 11
81.3829521139
 21
86.9718064962
 31
0.0
  0
LINE
  5
133
330
1F
100
AcDbEntity
  8
0
  6
HIDDEN
 62
     7
370
     0
100
AcDbLine
 10
81.3829521139
 20
53.1803147344
 30
0.0
 11
81.3829521139
 21
50.363684207
 31
0.0
  0
LINE
  5
134
330
1F
100
AcDbEntity
  8
0
  6
HIDDEN
 62
     7
370
     0
100
AcDbLine
 10
90.3329527427
 20
53.1803147344
 30
0.0
 11
90.3329527427
 21
49.225166574
 31
0.0
  0
LINE
  5
135
330
1F
100
AcDbEntity
  8
0
  6
HIDDEN
 62
     7
370
     0
100
AcDbLine
 10
81.3829521139
 20
89.1603158264
 30
0.0
 11
81.3829521139
 21
92.0402539371
 31
0.0
  0
LINE
  5
136
330
1F
100
AcDbEntity
  8
0
  6
HIDDEN
 62
     7
370
     0
100
AcDbLine
 10
86.3329520871
 20
89.1603158264
 30
0.0
 11
86.3329520871
 21
93.0144229381
 31
0.0
  0
LINE
  5
137
330
1F
100
AcDbEntity
  8
0
  6
HIDDEN
 62
     7
370
     0
100
AcDbLine
 10
131.4329537054
 20
61.6703155859
 30
0.0
 11
131.4329537054
 21
80.6703149749
 31
0.0
  0
LINE
  5
138
330
1F
100
AcDbEntity
  8
0
  6
HIDDEN
 62
     7
370
     0
100
AcDbLine
 10
133.9329531838
 20
61.6703155859
 30
0.0
 11
133.9329531838
 21
80.6703149749
 31
0.0
  0
LINE
  5
139
330
1F
100
AcDbEntity
  8
0
  6
HIDDEN
 62
     7
370
     0
100
AcDbLine
 10
122.5829529067
 20
62.6703148185
 30
0.0
 11
122.5829529067
 21
79.6703157423
 31
0.0
  0
LINE
  5
13A
330
1F
100
AcDbEntity
  8
0
  6
HIDDEN
 62
     7
370
     0
100
AcDbLine
 10
138.0829526533
 20
44.7703154235
 30
0.0
 11
131.9452779789
 21
44.7703154235
 31
0.0
  0
LINE
  5
13B
330
1F
100
AcDbEntity
  8
0
  6
HIDDEN
 62
     7
370
     0
100
AcDbLine
 10
117.0829529365
 20
39.686191961
 30
0.0
 11
117.0829529365
 21
44.7703154235
 31
0.0
  0
LINE
  5
13C
330
1F
100
AcDbEntity
  8
0
  6
HIDDEN
 62
     7
370
     0
100
AcDbLine
 10
125.0829533164
 20
44.7703154235
 30
0.0
 11
117.0829529365
 21
44.7703154235
 31
0.0
  0
LINE
  5
13D
330
1F
100
AcDbEntity
  8
0
  6
HIDDEN
 62
     7
370
     0
100
AcDbLine
 10
128.3206282605
 20
44.7703154235
 30
0.0
 11
125.0829533164
 21
44.7703154235
 31
0.0
  0
LINE
  5
13E
330
1F
100
AcDbEntity
  8
0
  6
HIDDEN
 62
     7
370
     0
100
AcDbLine
 10
128.6172507753
 20
97.5703151373
 30
0.0
 11
125.0829533164
 21
97.5703151373
 31
0.0
  0
LINE
  5
13F
330
1F
100
AcDbEntity
  8
0
  6
HIDDEN
 62
     7
370
     0
100
AcDbLine
 10
138.0829526533
 20
97.5703151373
 30
0.0
 11
131.6486554642
 21
97.5703151373
 31
0.0
  0
LINE
  5
140
330
1F
100
AcDbEntity
  8
0
  6
HIDDEN
 62
     7
370
     0
100
AcDbLine
 10
125.0829533164
 20
97.5703151373
 30
0.0
 11
117.0829529365
 21
97.5703151373
 31
0.0
  0
ELLIPSE
  5
141
330
1F
100
AcDbEntity
  8
0
  6
HIDDEN
 62
     7
370
     0
100
AcDbEllipse
 10
76.0655210989
 20
71.1703152804
 30
0.0
 11
20.07002071827054
 21
-2.842170943040401E-14
 31
0.0
210
0.0
220
0.0
230
1.0
 40
0.8164965809
 41
4.921555463185704
 42
4.980534842098403
  0
ELLIPSE
  5
142
330
1F
100
AcDbEntity
  8
0
  6
HIDDEN
 62
     7
370
     0
100
AcDbEllipse
 10
76.0655210989
 20
71.1703152804
 30
0.0
 11
20.07002071827053
 21
-1.421085471520200E-14
 31
0.0
210
0.0
220
0.0
230
1.0
 40
0.8164965809
 41
1.302650465081198
 42
1.361629843993897
  0
LINE
  5
143
330
1F
100
AcDbEntity
  8
0
  6
HIDDEN
 62
     7
370
     0
100
AcDbLine
 10
90.3329527427
 20
53.1803147344
 30
0.0
 11
90.3329527427
 21
54.8828022031
 31
0.0
  0
LINE
  5
144
330
1F
100
AcDbEntity
  8
0
  6
HIDDEN
 62
     7
370
     0
100
AcDbLine
 10
81.3829521139
 20
53.1803147344
 30
0.0
 11
81.3829521139
 21
55.3688240646
 31
0.0
  0
LINE
  5
145
330
1F
100
AcDbEntity
  8
0
  6
HIDDEN
 62
     7
370
     0
100
AcDbLine
 10
81.3829521139
 20
89.1603158264
 30
0.0
 11
81.3829521139
 21
86.9718064962
 31
0.0
  0
LINE
  5
146
330
1F
100
AcDbEntity
  8
0
  6
HIDDEN
 62
     7
370
     0
100
AcDbLine
 10
86.3329520871
 20
89.1603158264
 30
0.0
 11
86.3329520871
 21
87.4578283577
 31
0.0
  0
SPLINE
  5
147
330
1F
100
AcDbEntity
  8
0
  6
HIDDEN
 62
     7
370
     0
100
AcDbSpline
210
0.0
220
0.0
230
1.0
 70
     8
 71
     3
 72
    20
 73
    16
 74
     0
 42
0.00000001
 43
0.00000001
 12
1.0
 22
0.0
 32
0.0
 13
1.0
 23
0.0
 33
0.0
 40
0.0
 40
0.0
 40
0.0
 40
0.0
 40
0.1119053055340205
 40
0.1774243632835919
 40
0.2490457638668196
 40
0.3297940486312798
 40
0.3985662861740277
 40
0.4998458113791172
 40
0.6138107075680777
 40
0.678976474440291
 40
0.7495028310915572
 40
0.8296486325667659
 40
0.8980921624304783
 40
0.9995023466631581
 40
1.0
 40
1.0
 40
1.0
 40
1.0
 10
106.8816761908143
 20
47.57035350783971
 30
0.0
 10
106.8383688370296
 20
47.58377603165366
 30
0.0
 10
106.7697056075779
 20
47.60505726340566
 30
0.0
 10
106.3246112143771
 20
47.70835232402153
 30
0.0
 10
105.7980569806397
 20
47.82165160963365
 30
0.0
 10
105.1126306526945
 20
47.94458654823247
 30
0.0
 10
104.2193138181901
 20
48.06662116008925
 30
0.0
 10
103.1059540592157
 20
48.18435683076785
 30
0.0
 10
101.9951798844856
 20
48.1963306736409
 30
0.0
 10
101.110431804782
 20
48.16927518593475
 30
0.0
 10
100.4432347948346
 20
48.1213419393543
 30
0.0
 10
99.90196334122409
 20
48.06504556754842
 30
0.0
 10
99.5143793802542
 20
48.01997106987444
 30
0.0
 10
99.32042190761335
 20
47.98106934551114
 30
0.0
 10
99.38358538707251
 20
47.99180464220462
 30
0.0
 10
99.38389383750253
 20
47.99185706659463
 30
0.0
  0
LINE
  5
148
330
1F
100
AcDbEntity
  8
0
  6
HIDDEN
 62
     7
370
     0
100
AcDbLine
 10
100.2929652532
 20
48.102652788
 30
0.0
 11
100.476810192
 21
48.1208433805
 31
0.0
  0
SPLINE
  5
149
330
1F
100
AcDbEntity
  8
0
  6
HIDDEN
 62
     7
370
     0
100
AcDbSpline
210
0.0
220
0.0
230
1.0
 70
     8
 71
     3
 72
    27
 73
    23
 74
     0
 42
0.00000001
 43
0.00000001
 12
1.0
 22
0.0
 32
0.0
 13
1.0
 23
0.0
 33
0.0
 40
0.0
 40
0.0
 40
0.0
 40
0.0
 40
0.0007882062674702
 40
0.0456705088733724
 40
0.1022519097701839
 40
0.1705296799787262
 40
0.209121156972788
 40
0.2506482022651244
 40
0.321093631889994
 40
0.3861870796074555
 40
0.4266660623502314
 40
0.4647971461379059
 40
0.5006012427305229
 40
0.5451928643883894
 40
0.601686852048025
 40
0.6700924672892478
 40
0.7088296541621837
 40
0.7505581819471696
 40
0.8222224560053049
 40
0.8877615605811822
 40
0.9472350423487876
 40
1.0
 40
1.0
 40
1.0
 40
1.0
 10
99.3836051275044
 20
94.34873251601365
 30
0.0
 10
99.38338843124797
 20
94.34877925511114
 30
0.0
 10
99.37083254491435
 20
94.35148742739331
 30
0.0
 10
99.419918881678
 20
94.33964934709223
 30
0.0
 10
99.56501398624506
 20
94.31621279440604
 30
0.0
 10
99.83806890975723
 20
94.2823038915917
 30
0.0
 10
100.1665943251198
 20
94.24873626078407
 30
0.0
 10
100.5593223982063
 20
94.21055323677182
 30
0.0
 10
101.1090501672374
 20
94.1715851483958
 30
0.0
 10
101.7350728064378
 20
94.15212352067478
 30
0.0
 10
102.278264645672
 20
94.1499383644199
 30
0.0
 10
102.7233333952927
 20
94.15845308573466
 30
0.0
 10
103.1897812494829
 20
94.17823663584475
 30
0.0
 10
103.7270221763529
 20
94.22239651788345
 30
0.0
 10
104.3752351393297
 20
94.29481635147167
 30
0.0
 10
104.9607743104576
 20
94.37571401716117
 30
0.0
 10
105.4417433499984
 20
94.45388335378446
 30
0.0
 10
105.8871587163804
 20
94.53865398941252
 30
0.0
 10
106.3256578060048
 20
94.63243851699546
 30
0.0
 10
106.6646853451785
 20
94.71034146888097
 30
0.0
 10
106.8520444482846
 20
94.76053730377028
 30
0.0
 10
106.8725353278998
 20
94.7672055440745
 30
0.0
 10
106.882168394795
 20
94.77034038289693
 30
0.0
  0
LINE
  5
14A
330
1F
100
AcDbEntity
  8
0
  6
HIDDEN
 62
     7
370
     0
100
AcDbLine
 10
148.9329537799
 20
66.9703154302
 30
0.0
 11
148.9329537799
 21
70.1904777846
 31
0.0
  0
LINE
  5
14B
330
1F
100
AcDbEntity
  8
0
  6
HIDDEN
 62
     7
370
     0
100
AcDbLine
 10
148.9329537799
 20
72.1547932074
 30
0.0
 11
148.9329537799
 21
75.3703151306
 31
0.0
  0
LINE
  5
14C
330
1F
100
AcDbEntity
  8
0
  6
HIDDEN
 62
     7
370
     0
100
AcDbLine
 10
149.9544172038
 20
68.6703153363
 30
0.0
 11
149.9544172038
 21
73.6703152245
 31
0.0
  0
LINE
  5
14D
330
1F
100
AcDbEntity
  8
0
  6
HIDDEN
 62
     7
370
     0
100
AcDbLine
 10
160.9329520215
 20
71.1703152804
 30
0.0
 11
160.9329520215
 21
68.6703153363
 31
0.0
  0
LINE
  5
14E
330
1F
100
AcDbEntity
  8
0
  6
HIDDEN
 62
     7
370
     0
100
AcDbLine
 10
160.9329520215
 20
73.6703152245
 30
0.0
 11
160.9329520215
 21
71.1703152804
 31
0.0
  0
LINE
  5
14F
330
1F
100
AcDbEntity
  8
0
  6
HIDDEN
 62
     7
370
     0
100
AcDbLine
 10
182.4084831824
 20
71.1703152804
 30
0.0
 11
182.2923956861
 21
71.1703152804
 31
0.0
  0
LINE
  5
150
330
1F
100
AcDbEntity
  8
0
  6
HIDDEN
 62
     7
370
     0
100
AcDbLine
 10
182.4084831824
 20
71.1703152804
 30
0.0
 11
196.726591741
 21
66.6558324768
 31
0.0
  0
LINE
  5
151
330
1F
100
AcDbEntity
  8
0
  6
HIDDEN
 62
     7
370
     0
100
AcDbLine
 10
196.726591741
 20
66.3468489832
 30
0.0
 11
196.726591741
 21
66.6558324768
 31
0.0
  0
LINE
  5
152
330
1F
100
AcDbEntity
  8
0
  6
HIDDEN
 62
     7
370
     0
100
AcDbLine
 10
182.4892847289
 20
70.8358545265
 30
0.0
 11
196.726591741
 21
66.3468489832
 31
0.0
  0
LINE
  5
153
330
1F
100
AcDbEntity
  8
0
  6
HIDDEN
 62
     7
370
     0
100
AcDbLine
 10
196.726591741
 20
66.3468489832
 30
0.0
 11
196.7061771502
 21
66.3404116815
 31
0.0
  0
LINE
  5
154
330
1F
100
AcDbEntity
  8
0
  6
HIDDEN
 62
     7
370
     0
100
AcDbLine
 10
196.726591741
 20
75.9937815776
 30
0.0
 11
196.7061771502
 21
76.0002188793
 31
0.0
  0
LINE
  5
155
330
1F
100
AcDbEntity
  8
0
  6
HIDDEN
 62
     7
370
     0
100
AcDbLine
 10
196.726591741
 20
75.9937815776
 30
0.0
 11
188.2077096452
 21
73.3077876678
 31
0.0
  0
LINE
  5
156
330
1F
100
AcDbEntity
  8
0
  6
HIDDEN
 62
     7
370
     0
100
AcDbLine
 10
188.2077096452
 20
73.3077876678
 30
0.0
 11
188.1872876038
 21
73.3142249694
 31
0.0
  0
LINE
  5
157
330
1F
100
AcDbEntity
  8
0
  6
HIDDEN
 62
     7
370
     0
100
AcDbLine
 10
196.726591741
 20
75.9937815776
 30
0.0
 11
196.726591741
 21
75.684798084
 31
0.0
  0
LINE
  5
158
330
1F
100
AcDbEntity
  8
0
  6
HIDDEN
 62
     7
370
     0
100
AcDbLine
 10
196.726591741
 20
75.684798084
 30
0.0
 11
188.228124236
 21
73.005241243
 31
0.0
  0
LINE
  5
159
330
1F
100
AcDbEntity
  8
0
  6
HIDDEN
 62
     7
370
     0
100
AcDbLine
 10
188.2077096452
 20
73.0116784282
 30
0.0
 11
188.228124236
 21
73.005241243
 31
0.0
  0
LINE
  5
15A
330
1F
100
AcDbEntity
  8
0
  6
HIDDEN
 62
     7
370
     0
100
AcDbLine
 10
188.2077096452
 20
73.3077876678
 30
0.0
 11
188.2077096452
 21
73.0116784282
 31
0.0
  0
LINE
  5
15B
330
1F
100
AcDbEntity
  8
0
  6
HIDDEN
 62
     7
370
     0
100
AcDbLine
 10
180.8920814146
 20
64.5527091286
 30
0.0
 11
182.1279762735
 21
61.7439235969
 31
0.0
  0
LINE
  5
15C
330
1F
100
AcDbEntity
  8
0
  6
HIDDEN
 62
     7
370
     0
100
AcDbLine
 10
180.8920814146
 20
77.7879214322
 30
0.0
 11
182.1279762735
 21
80.5967069639
 31
0.0
  0
LINE
  5
15D
330
1F
100
AcDbEntity
  8
0
  6
HIDDEN
 62
     7
370
     0
100
AcDbLine
 10
188.2077096452
 20
73.0116784282
 30
0.0
 11
187.7177222122
 21
73.1661702914
 31
0.0
  0
LINE
  5
15E
330
1F
100
AcDbEntity
  8
0
  6
HIDDEN
 62
     7
370
     0
100
AcDbLine
 10
182.2941540231
 20
71.2063625536
 30
0.0
 11
182.3880685915
 21
71.1767524397
 31
0.0
  0
LINE
  5
15F
330
1F
100
AcDbEntity
  8
0
  6
HIDDEN
 62
     7
370
     0
100
AcDbLine
 10
182.3880685915
 20
71.1767524397
 30
0.0
 11
182.2927086105
 21
71.1767524397
 31
0.0
  0
LINE
  5
160
330
1F
100
AcDbEntity
  8
0
  6
HIDDEN
 62
     7
370
     0
100
AcDbLine
 10
182.4084831824
 20
71.1703152804
 30
0.0
 11
182.3880685915
 21
71.1767524397
 31
0.0
  0
LINE
  5
161
330
1F
100
AcDbEntity
  8
0
  6
HIDDEN
 62
     7
370
     0
100
AcDbLine
 10
209.5084054817
 20
70.9768833215
 30
0.0
 11
209.5084054817
 21
71.3637472393
 31
0.0
  0
CIRCLE
  5
162
330
1F
100
AcDbEntity
  8
0
  6
HIDDEN
 62
     7
370
     0
100
AcDbCircle
 10
197.1254176674
 20
71.1703152804
 30
0.0
 40
2.100000000000009
  0
LINE
  5
163
330
1F
100
AcDbEntity
  8
0
  6
HIDDEN
 62
     7
370
     0
100
AcDbLine
 10
209.5084054817
 20
71.3637472393
 30
0.0
 11
196.2651847352
 21
75.5393180473
 31
0.0
  0
LINE
  5
164
330
1F
100
AcDbEntity
  8
0
  6
HIDDEN
 62
     7
370
     0
100
AcDbLine
 10
209.5084054817
 20
70.9768833215
 30
0.0
 11
196.2651847352
 21
66.8013125135
 31
0.0
  0
CIRCLE
  5
165
330
1F
100
AcDbEntity
  8
0
  6
HIDDEN
 62
     7
370
     0
100
AcDbCircle
 10
197.1254176674
 20
71.1703152804
 30
0.0
 40
1.650000000000006
  0
LINE
  5
166
330
1F
100
AcDbEntity
  8
0
  6
HIDDEN
 62
     7
370
     0
100
AcDbLine
 10
209.5084054817
 20
71.3637472393
 30
0.0
 11
200.9176252832
 21
71.3637472393
 31
0.0
  0
LINE
  5
167
330
1F
100
AcDbEntity
  8
0
  6
HIDDEN
 62
     7
370
     0
100
AcDbLine
 10
200.9176252832
 20
70.9768833215
 30
0.0
 11
209.5084054817
 21
70.9768833215
 31
0.0
  0
LINE
  5
168
330
1F
100
AcDbEntity
  8
0
  6
HIDDEN
 62
     7
370
     0
100
AcDbLine
 10
128.2229530116
 20
91.3485420345
 30
0.0
 11
128.2229530116
 21
91.0203160195
 31
0.0
  0
LINE
  5
169
330
1F
100
AcDbEntity
  8
0
  6
HIDDEN
 62
     7
370
     0
100
AcDbLine
 10
132.0429532279
 20
91.3485420345
 30
0.0
 11
132.0429532279
 21
91.0203160195
 31
0.0
  0
LINE
  5
16A
330
1F
100
AcDbEntity
  8
0
  6
HIDDEN
 62
     7
370
     0
100
AcDbLine
 10
133.5248848845
 20
95.6290048955
 30
0.0
 11
133.5248848845
 21
91.0203160195
 31
0.0
  0
CIRCLE
  5
16B
330
1F
100
AcDbEntity
  8
0
  6
HIDDEN
 62
     7
370
     0
100
AcDbCircle
 10
119.1329529633
 20
71.1703152804
 30
0.0
 40
5.0
  0
CIRCLE
  5
16C
330
1F
100
AcDbEntity
  8
0
  6
HIDDEN
 62
     7
370
     0
100
AcDbCircle
 10
146.1329529633
 20
71.1703152804
 30
0.0
 40
2.799999999999985
  0
CIRCLE
  5
16D
330
1F
100
AcDbEntity
  8
0
  6
HIDDEN
 62
     7
370
     0
100
AcDbCircle
 10
146.1329529633
 20
71.1703152804
 30
0.0
 40
2.480384757729327
  0
CIRCLE
  5
16E
330
1F
100
AcDbEntity
  8
0
  6
HIDDEN
 62
     7
370
     0
100
AcDbCircle
 10
197.1254176674
 20
71.1703152804
 30
0.0
 40
1.809570484150176
  0
LINE
  5
16F
330
1F
100
AcDbEntity
  8
0
  6
HIDDEN
 62
     7
370
     0
100
AcDbLine
 10
112.1329529633
 20
45.8463916032
 30
0.0
 11
112.227113801
 21
46.5163813381
 31
0.0
  0
LINE
  5
170
330
1F
100
AcDbEntity
  8
0
  6
HIDDEN
 62
     7
370
     0
100
AcDbLine
 10
112.227113801
 20
95.8242492227
 30
0.0
 11
112.1329529633
 21
96.4942389576
 31
0.0
  0
ARC
  5
171
330
1F
100
AcDbEntity
  8
0
  6
HIDDEN
 62
     7
370
     0
100
AcDbCircle
 10
111.6329529633
 20
46.5998844187
 30
0.0
 40
0.6000000000000085
100
AcDbArc
 50
352.0
 51
0.0
  0
ARC
  5
172
330
1F
100
AcDbEntity
  8
0
  6
HIDDEN
 62
     7
370
     0
100
AcDbCircle
 10
111.6329529633
 20
46.5998844187
 30
0.0
 40
0.6000000000000085
100
AcDbArc
 50
0.0
 51
33.5573097619
  0
ARC
  5
173
330
1F
100
AcDbEntity
  8
0
  6
HIDDEN
 62
     7
370
     0
100
AcDbCircle
 10
111.6329529633
 20
95.7407461421
 30
0.0
 40
0.6000000000000008
100
AcDbArc
 50
348.75
 51
8.0
  0
LWPOLYLINE
  5
174
330
1F
100
AcDbEntity
  8
0
  6
HIDDEN
 62
     7
370
     0
100
AcDbPolyline
 90
        3
 70
   128
 43
0.0
 10
112.2214241332
 20
95.6236926316
 10
112.1872806834
 20
95.5111367105
 10
112.1329529633
 20
95.4090842454
  0
LINE
  5
175
330
1F
100
AcDbEntity
  8
0
  6
HIDDEN
 62
     7
370
     0
100
AcDbLine
 10
112.2329529608
 20
46.5998837201
 30
0.0
 11
112.2329529608
 21
95.7407468407
 31
0.0
  0
LINE
  5
176
330
1F
100
AcDbEntity
  8
0
  6
HIDDEN
 62
     7
370
     0
100
AcDbLine
 10
95.2153889884
 20
51.1703157274
 30
0.0
 11
99.4070604865
 21
51.1703157274
 31
0.0
  0
LINE
  5
177
330
1F
100
AcDbEntity
  8
0
  6
HIDDEN
 62
     7
370
     0
100
AcDbLine
 10
99.4070604865
 20
91.1703148334
 30
0.0
 11
95.2153889884
 21
91.1703148334
 31
0.0
  0
ARC
  5
178
330
1F
100
AcDbEntity
  8
0
  6
HIDDEN
 62
     7
370
     0
100
AcDbCircle
 10
95.2153885286
 20
51.7703152804
 30
0.0
 40
0.6000000000000014
100
AcDbArc
 50
210.0
 51
270.0
  0
ARC
  5
179
330
1F
100
AcDbEntity
  8
0
  6
HIDDEN
 62
     7
370
     0
100
AcDbCircle
 10
95.2153885286
 20
90.5703152804
 30
0.0
 40
0.5999999999999943
100
AcDbArc
 50
90.0
 51
150.0
  0
ARC
  5
17A
330
1F
100
AcDbEntity
  8
0
  6
HIDDEN
 62
     7
370
     0
100
AcDbCircle
 10
105.8879549649
 20
59.1703152804
 30
0.0
 40
8.000000000000004
100
AcDbArc
 50
276.8741562814
 51
321.3178125465
  0
ARC
  5
17B
330
1F
100
AcDbEntity
  8
0
  6
HIDDEN
 62
     7
370
     0
100
AcDbCircle
 10
105.8879549649
 20
83.1703152804
 30
0.0
 40
8.000000000000004
100
AcDbArc
 50
38.6821874535
 51
83.1169515108
  0
LINE
  5
17C
330
1F
100
AcDbEntity
  8
0
  6
HIDDEN
 62
     7
370
     0
100
AcDbLine
 10
94.6957724591
 20
90.870315343
 30
0.0
 11
93.136928459
 21
88.1703162043
 31
0.0
  0
LINE
  5
17D
330
1F
100
AcDbEntity
  8
0
  6
HIDDEN
 62
     7
370
     0
100
AcDbLine
 10
93.136928459
 20
54.1703143565
 30
0.0
 11
94.6957724591
 21
51.4703152178
 31
0.0
  0
LINE
  5
17E
330
1F
100
AcDbEntity
  8
0
  6
HIDDEN
 62
     7
370
     0
100
AcDbLine
 10
160.8821465124
 20
73.6703152245
 30
0.0
 11
147.8245271792
 21
73.6703152245
 31
0.0
  0
LINE
  5
17F
330
1F
100
AcDbEntity
  8
0
  6
HIDDEN
 62
     7
370
     0
100
AcDbLine
 10
147.8245271792
 20
68.6703153363
 30
0.0
 11
160.8821465124
 21
68.6703153363
 31
0.0
  0
ARC
  5
180
330
1F
100
AcDbEntity
  8
0
  6
HIDDEN
 62
     7
370
     0
100
AcDbCircle
 10
120.5829529633
 20
55.4453152804
 30
0.0
 40
1.5
100
AcDbArc
 50
238.2116693829
 51
0.0
  0
ARC
  5
181
330
1F
100
AcDbEntity
  8
0
  6
HIDDEN
 62
     7
370
     0
100
AcDbCircle
 10
120.5829529633
 20
86.8953152804
 30
0.0
 40
1.500000000000001
100
AcDbArc
 50
0.0
 51
121.7883306171
  0
LINE
  5
182
330
1F
100
AcDbEntity
  8
0
  6
HIDDEN
 62
     7
370
     0
100
AcDbLine
 10
90.3329527427
 20
54.1703143565
 30
0.0
 11
93.136928459
 21
54.1703143565
 31
0.0
  0
LINE
  5
183
330
1F
100
AcDbEntity
  8
0
  6
HIDDEN
 62
     7
370
     0
100
AcDbLine
 10
93.136928459
 20
88.1703162043
 30
0.0
 11
86.3329520871
 21
88.1703162043
 31
0.0
  0
LINE
  5
184
330
1F
100
AcDbEntity
  8
0
  6
HIDDEN
 62
     7
370
     0
100
AcDbLine
 10
112.1329529633
 20
54.1703143565
 30
0.0
 11
119.7927789253
 21
54.1703143565
 31
0.0
  0
LINE
  5
185
330
1F
100
AcDbEntity
  8
0
  6
HIDDEN
 62
     7
370
     0
100
AcDbLine
 10
119.7927789253
 20
88.1703162043
 30
0.0
 11
112.1329529633
 21
88.1703162043
 31
0.0
  0
LINE
  5
186
330
1F
100
AcDbEntity
  8
0
  6
HIDDEN
 62
     7
370
     0
100
AcDbLine
 10
147.4934084763
 20
69.0750467068
 30
0.0
 11
147.6084454407
 21
68.862220872
 31
0.0
  0
LINE
  5
187
330
1F
100
AcDbEntity
  8
0
  6
HIDDEN
 62
     7
370
     0
100
AcDbLine
 10
147.6084454407
 20
73.4784096888
 30
0.0
 11
147.4940902044
 21
73.2668448648
 31
0.0
  0
LINE
  5
188
330
1F
100
AcDbEntity
  8
0
  6
HIDDEN
 62
     7
370
     0
100
AcDbLine
 10
131.4329537054
 20
61.6703155859
 30
0.0
 11
133.9329531838
 21
61.6703155859
 31
0.0
  0
LINE
  5
189
330
1F
100
AcDbEntity
  8
0
  6
HIDDEN
 62
     7
370
     0
100
AcDbLine
 10
133.9329531838
 20
80.6703149749
 30
0.0
 11
131.4329537054
 21
80.6703149749
 31
0.0
  0
LINE
  5
18A
330
1F
100
AcDbEntity
  8
0
  6
HIDDEN
 62
     7
370
     0
100
AcDbLine
 10
122.0829528247
 20
62.1703156678
 30
0.0
 11
122.5829529067
 21
62.6703148185
 31
0.0
  0
LINE
  5
18B
330
1F
100
AcDbEntity
  8
0
  6
HIDDEN
 62
     7
370
     0
100
AcDbLine
 10
122.5829529067
 20
79.6703157423
 30
0.0
 11
122.0829528247
 21
80.170314893
 31
0.0
  0
LINE
  5
18C
330
1F
100
AcDbEntity
  8
0
  6
HIDDEN
 62
     7
370
     0
100
AcDbLine
 10
122.5829529067
 20
62.6703148185
 30
0.0
 11
131.4329537054
 21
62.6703148185
 31
0.0
  0
LINE
  5
18D
330
1F
100
AcDbEntity
  8
0
  6
HIDDEN
 62
     7
370
     0
100
AcDbLine
 10
131.4329537054
 20
79.6703157423
 30
0.0
 11
122.5829529067
 21
79.6703157423
 31
0.0
  0
LINE
  5
18E
330
1F
100
AcDbEntity
  8
0
  6
HIDDEN
 62
     7
370
     0
100
AcDbLine
 10
117.0829529365
 20
102.670315787
 30
0.0
 11
117.0829529365
 21
97.5703151373
 31
0.0
  0
LINE
  5
18F
330
1F
100
AcDbEntity
  8
0
  6
HIDDEN
 62
     7
370
     0
100
AcDbLine
 10
107.3173908007
 20
47.0909440367
 30
0.0
 11
106.882958622
 21
47.5700107811
 31
0.0
  0
LINE
  5
190
330
1F
100
AcDbEntity
  8
0
  6
HIDDEN
 62
     7
370
     0
100
AcDbLine
 10
99.3829550643
 20
47.9916987418
 30
0.0
 11
98.9005215888
 21
47.5126319973
 31
0.0
  0
LINE
  5
191
330
1F
100
AcDbEntity
  8
0
  6
HIDDEN
 62
     7
370
     0
100
AcDbLine
 10
98.9003995855
 20
94.8279929756
 30
0.0
 11
99.3829504077
 21
94.3488722144
 31
0.0
  0
LINE
  5
192
330
1F
100
AcDbEntity
  8
0
  6
HIDDEN
 62
     7
370
     0
100
AcDbLine
 10
106.8829530341
 20
94.7705713509
 30
0.0
 11
107.3174951089
 21
95.2496902494
 31
0.0
  0
LINE
  5
193
330
1F
100
AcDbEntity
  8
0
  6
HIDDEN
 62
     7
370
     0
100
AcDbLine
 10
148.9329537799
 20
66.9703154302
 30
0.0
 11
149.9544172038
 21
68.6703153363
 31
0.0
  0
LINE
  5
194
330
1F
100
AcDbEntity
  8
0
  6
HIDDEN
 62
     7
370
     0
100
AcDbLine
 10
149.9544172038
 20
73.6703152245
 30
0.0
 11
148.9329537799
 21
75.3703151306
 31
0.0
  0
LINE
  5
195
330
1F
100
AcDbEntity
  8
0
  6
HIDDEN
 62
     7
370
     0
100
AcDbLine
 10
133.9329531838
 20
66.9703154302
 30
0.0
 11
148.9329537799
 21
66.9703154302
 31
0.0
  0
LINE
  5
196
330
1F
100
AcDbEntity
  8
0
  6
HIDDEN
 62
     7
370
     0
100
AcDbLine
 10
148.9329537799
 20
75.3703151306
 30
0.0
 11
133.9329531838
 21
75.3703151306
 31
0.0
  0
LINE
  5
197
330
1F
100
AcDbEntity
  8
0
  6
HIDDEN
 62
     7
370
     0
100
AcDbLine
 10
106.8829530341
 20
47.5704932062
 30
0.0
 11
106.8829530341
 21
51.2349141239
 31
0.0
  0
LINE
  5
198
330
1F
100
AcDbEntity
  8
0
  6
HIDDEN
 62
     7
370
     0
100
AcDbLine
 10
99.3829532017
 20
51.1746929435
 30
0.0
 11
99.3829532017
 21
47.9920209794
 31
0.0
  0
LINE
  5
199
330
1F
100
AcDbEntity
  8
0
  6
HIDDEN
 62
     7
370
     0
100
AcDbLine
 10
106.8829530341
 20
91.1057164369
 30
0.0
 11
106.8829530341
 21
94.7702789156
 31
0.0
  0
LINE
  5
19A
330
1F
100
AcDbEntity
  8
0
  6
HIDDEN
 62
     7
370
     0
100
AcDbLine
 10
99.3829532017
 20
94.3487287907
 30
0.0
 11
99.3829532017
 21
91.1659376173
 31
0.0
  0
LINE
  5
19B
330
1F
100
AcDbEntity
  8
0
  6
HIDDEN
 62
     7
370
     0
100
AcDbLine
 10
160.8821465124
 20
68.6703153363
 30
0.0
 11
160.9329520215
 21
68.6703153363
 31
0.0
  0
LINE
  5
19C
330
1F
100
AcDbEntity
  8
0
  6
HIDDEN
 62
     7
370
     0
100
AcDbLine
 10
160.9329520215
 20
73.6703152245
 30
0.0
 11
160.8821465124
 21
73.6703152245
 31
0.0
  0
LINE
  5
19D
330
1F
100
AcDbEntity
  8
0
  6
HIDDEN
 62
     7
370
     0
100
AcDbLine
 10
160.9329520215
 20
68.6703153363
 30
0.0
 11
162.4351045539
 21
71.1703152804
 31
0.0
  0
LINE
  5
19E
330
1F
100
AcDbEntity
  8
0
  6
HIDDEN
 62
     7
370
     0
100
AcDbLine
 10
162.4351045539
 20
71.1703152804
 30
0.0
 11
160.9329520215
 21
73.6703152245
 31
0.0
  0
DIMENSION
  5
19F
330
1F
100
AcDbEntity
  8
VERMASSUNG
100
AcDbDimension
  2
_D
 10
222.3431577869
 20
45.1703152804
 30
0.0
 11
222.3431577869
 21
71.1703152804
 31
0.0
 70
   160
  1
%%c<>
 71
     2
 42
-1.0
  3
SLDDIMSTYLE0
100
AcDbAlignedDimension
 13
153.495316611
 23
97.1703152804
 33
0.0
 14
153.495316611
 24
45.1703152804
 34
0.0
 50
90.0
100
AcDbRotatedDimension
  0
LINE
  5
1AB
330
1F
100
AcDbEntity
  8
VERMASSUNG
  6
CENTERX2
370
     0
100
AcDbLine
 10
76.3268288013
 20
71.1703152804
 30
0.0
 11
214.3448224328
 21
71.1703152804
 31
0.0
  0
SPLINE
  5
1AC
330
1F
100
AcDbEntity
  8
0
  6
Continuous
 62
     7
370
    15
100
AcDbSpline
210
0.0
220
0.0
230
1.0
 70
     8
 71
     3
 72
    10
 73
     6
 74
     0
 42
0.00000001
 43
0.00000001
 12
1.0
 22
0.0
 32
0.0
 13
1.0
 23
0.0
 33
0.0
 40
0.0
 40
0.0
 40
0.0
 40
0.0
 40
0.3315371975407465
 40
0.6671175050760514
 40
1.0
 40
1.0
 40
1.0
 40
1.0
 10
210.8709080566674
 20
146.6795224630323
 30
0.0
 10
211.0545540537889
 20
147.2038273600275
 30
0.0
 10
211.4240856186502
 20
148.2588310741721
 30
0.0
 10
211.6969838041732
 20
149.9144852539921
 30
0.0
 10
212.0153133704665
 20
150.9870058460768
 30
0.0
 10
212.173835789135
 20
151.5211018784021
 30
0.0
  0
LINE
  5
1AD
330
1F
100
AcDbEntity
  8
0
  6
Continuous
 62
     7
370
    15
100
AcDbLine
 10
182.276995336
 20
151.5211018784
 30
0.0
 11
182.3122887363
 21
151.3924444377
 31
0.0
  0
LINE
  5
1AE
330
1F
100
AcDbEntity
  8
0
  6
Continuous
 62
     7
370
    15
100
AcDbLine
 10
124.0690885534
 20
120.1924439454
 30
0.0
 11
126.7410204236
 21
120.1924439454
 31
0.0
  0
LINE
  5
1AF
330
1F
100
AcDbEntity
  8
0
  6
Continuous
 62
     7
370
    15
100
AcDbLine
 10
112.4329529775
 20
120.1924439454
 30
0.0
 11
114.1329530583
 21
120.1924439454
 31
0.0
  0
LINE
  5
1B0
330
1F
100
AcDbEntity
  8
0
  6
Continuous
 62
     7
370
    15
100
AcDbLine
 10
126.7410204236
 20
183.1924449586
 30
0.0
 11
112.4329529775
 21
183.1924449586
 31
0.0
  0
ARC
  5
1B1
330
1F
100
AcDbEntity
  8
0
  6
Continuous
 62
     7
370
    15
100
AcDbCircle
 10
112.4329529633
 20
120.492444452
 30
0.0
 40
0.2999999999999972
100
AcDbArc
 50
180.0
 51
270.0
  0
ARC
  5
1B2
330
1F
100
AcDbEntity
  8
0
  6
Continuous
 62
     7
370
    15
100
AcDbCircle
 10
112.4329529633
 20
182.892444452
 30
0.0
 40
0.3000000000000114
100
AcDbArc
 50
90.0
 51
180.0
  0
ARC
  5
1B3
330
1F
100
AcDbEntity
  8
0
  6
Continuous
 62
     7
370
    15
100
AcDbCircle
 10
137.4829529633
 20
182.592444452
 30
0.0
 40
0.5999999999999943
100
AcDbArc
 50
0.0
 51
90.0
  0
ARC
  5
1B4
330
1F
100
AcDbEntity
  8
0
  6
Continuous
 62
     7
370
    15
100
AcDbCircle
 10
137.4829529633
 20
120.792444452
 30
0.0
 40
0.6000000000000085
100
AcDbArc
 50
270.0
 51
0.0
  0
LINE
  5
1B5
330
1F
100
AcDbEntity
  8
0
  6
Continuous
 62
     7
370
    15
100
AcDbLine
 10
137.4829536726
 20
183.1924449586
 30
0.0
 11
133.5248848845
 21
183.1924449586
 31
0.0
  0
LINE
  5
1B6
330
1F
100
AcDbEntity
  8
0
  6
Continuous
 62
     7
370
    15
100
AcDbLine
 10
133.5248848845
 20
120.1924439454
 30
0.0
 11
137.4829536726
 21
120.1924439454
 31
0.0
  0
LINE
  5
1B7
330
1F
100
AcDbEntity
  8
0
  6
Continuous
 62
     7
370
    15
100
AcDbLine
 10
132.0429532279
 20
122.759226703
 30
0.0
 11
133.5248848845
 21
120.1924439454
 31
0.0
  0
LINE
  5
1B8
330
1F
100
AcDbEntity
  8
0
  6
Continuous
 62
     7
370
    15
100
AcDbLine
 10
133.5248848845
 20
183.1924449586
 30
0.0
 11
132.0429532279
 21
180.625662201
 31
0.0
  0
LINE
  5
1B9
330
1F
100
AcDbEntity
  8
0
  6
Continuous
 62
     7
370
    15
100
AcDbLine
 10
128.2229530116
 20
180.625662201
 30
0.0
 11
126.7410204236
 21
183.1924449586
 31
0.0
  0
LINE
  5
1BA
330
1F
100
AcDbEntity
  8
0
  6
Continuous
 62
     7
370
    15
100
AcDbLine
 10
126.7410204236
 20
120.1924439454
 30
0.0
 11
128.2229530116
 21
122.759226703
 31
0.0
  0
ARC
  5
1BB
330
1F
100
AcDbEntity
  8
0
  6
Continuous
 62
     7
370
    15
100
AcDbCircle
 10
131.2429529633
 20
123.417444452
 30
0.0
 40
0.8000000000000114
100
AcDbArc
 50
0.0
 51
90.0
  0
ARC
  5
1BC
330
1F
100
AcDbEntity
  8
0
  6
Continuous
 62
     7
370
    15
100
AcDbCircle
 10
131.2429529633
 20
179.967444452
 30
0.0
 40
0.8000000000000114
100
AcDbArc
 50
270.0
 51
0.0
  0
ARC
  5
1BD
330
1F
100
AcDbEntity
  8
0
  6
Continuous
 62
     7
370
    15
100
AcDbCircle
 10
129.0229529633
 20
179.967444452
 30
0.0
 40
0.799999999999983
100
AcDbArc
 50
180.0
 51
270.0
  0
ARC
  5
1BE
330
1F
100
AcDbEntity
  8
0
  6
Continuous
 62
     7
370
    15
100
AcDbCircle
 10
129.0229529633
 20
123.417444452
 30
0.0
 40
0.8000000000000114
100
AcDbArc
 50
90.0
 51
180.0
  0
LINE
  5
1BF
330
1F
100
AcDbEntity
  8
0
  6
Continuous
 62
     7
370
    15
100
AcDbLine
 10
129.0229535152
 20
124.2174450242
 30
0.0
 11
131.2429527243
 21
124.2174450242
 31
0.0
  0
LINE
  5
1C0
330
1F
100
AcDbEntity
  8
0
  6
Continuous
 62
     7
370
    15
100
AcDbLine
 10
131.2429527243
 20
179.1674438798
 30
0.0
 11
129.0229535152
 21
179.1674438798
 31
0.0
  0
ARC
  5
1C1
330
1F
100
AcDbEntity
  8
0
  6
Continuous
 62
     7
370
    15
100
AcDbCircle
 10
139.0829529633
 20
124.692444452
 30
0.0
 40
1.0
100
AcDbArc
 50
90.0
 51
180.0
  0
ARC
  5
1C2
330
1F
100
AcDbEntity
  8
0
  6
Continuous
 62
     7
370
    15
100
AcDbCircle
 10
139.0829529633
 20
178.692444452
 30
0.0
 40
1.0
100
AcDbArc
 50
180.0
 51
270.0
  0
LINE
  5
1C3
330
1F
100
AcDbEntity
  8
0
  6
Continuous
 62
     7
370
    15
100
AcDbLine
 10
139.0829528173
 20
125.6924439156
 30
0.0
 11
200.9173272599
 21
125.6924439156
 31
0.0
  0
LINE
  5
1C4
330
1F
100
AcDbEntity
  8
0
  6
Continuous
 62
     7
370
    15
100
AcDbLine
 10
143.1329524566
 20
177.6924449884
 30
0.0
 11
139.0829528173
 21
177.6924449884
 31
0.0
  0
LINE
  5
1C5
330
1F
100
AcDbEntity
  8
0
  6
Continuous
 62
     7
370
    15
100
AcDbLine
 10
157.0858894338
 20
177.6924449884
 30
0.0
 11
149.0953727116
 21
177.6924449884
 31
0.0
  0
ARC
  5
1C6
330
1F
100
AcDbEntity
  8
0
  6
Continuous
 62
     7
370
    15
100
AcDbCircle
 10
111.6329529633
 20
127.1220135903
 30
0.0
 40
0.6000000000000019
100
AcDbArc
 50
33.5573097619
 51
90.0
  0
ARC
  5
1C7
330
1F
100
AcDbEntity
  8
0
  6
Continuous
 62
     7
370
    15
100
AcDbCircle
 10
111.6329529633
 20
176.2628753137
 30
0.0
 40
0.6000000000000019
100
AcDbArc
 50
270.0
 51
326.4426902381
  0
LINE
  5
1C8
330
1F
100
AcDbEntity
  8
0
  6
Continuous
 62
     7
370
    15
100
AcDbLine
 10
110.1329528683
 20
175.9128756755
 30
0.0
 11
81.3729087313
 21
174.4719911301
 31
0.0
  0
LINE
  5
1C9
330
1F
100
AcDbEntity
  8
0
  6
Continuous
 62
     7
370
    15
100
AcDbLine
 10
81.3729087313
 20
128.9128977739
 30
0.0
 11
110.1329528683
 21
127.4720132285
 31
0.0
  0
LINE
  5
1CA
330
1F
100
AcDbEntity
  8
0
  6
Continuous
 62
     7
370
    15
100
AcDbLine
 10
110.1329528683
 20
127.4720132285
 30
0.0
 11
110.9896657945
 21
127.701569342
 31
0.0
  0
LINE
  5
1CB
330
1F
100
AcDbEntity
  8
0
  6
Continuous
 62
     7
370
    15
100
AcDbLine
 10
110.9896657945
 20
175.683319562
 30
0.0
 11
110.1329528683
 21
175.9128756755
 31
0.0
  0
ARC
  5
1CC
330
1F
100
AcDbEntity
  8
0
  6
Continuous
 62
     7
370
    15
100
AcDbCircle
 10
111.1449571637
 20
127.1220135903
 30
0.0
 40
0.5999999999999971
100
AcDbArc
 50
90.0
 51
105.0
  0
ARC
  5
1CD
330
1F
100
AcDbEntity
  8
0
  6
Continuous
 62
     7
370
    15
100
AcDbCircle
 10
111.1449571637
 20
176.2628753137
 30
0.0
 40
0.5999999999999971
100
AcDbArc
 50
255.0
 51
270.0
  0
LINE
  5
1CE
330
1F
100
AcDbEntity
  8
0
  6
Continuous
 62
     7
370
    15
100
AcDbLine
 10
111.1449571981
 20
127.7220137351
 30
0.0
 11
111.6329529395
 21
127.7220137351
 31
0.0
  0
LINE
  5
1CF
330
1F
100
AcDbEntity
  8
0
  6
Continuous
 62
     7
370
    15
100
AcDbLine
 10
111.6329529395
 20
175.6628751689
 30
0.0
 11
111.1449571981
 21
175.6628751689
 31
0.0
  0
ARC
  5
1D0
330
1F
100
AcDbEntity
  8
0
  6
Continuous
 62
     7
370
    15
100
AcDbCircle
 10
81.4329529633
 20
130.111394416
 30
0.0
 40
1.200000000000003
100
AcDbArc
 50
180.0
 51
267.1318680593
  0
ARC
  5
1D1
330
1F
100
AcDbEntity
  8
0
  6
Continuous
 62
     7
370
    15
100
AcDbCircle
 10
81.4329529633
 20
173.273494488
 30
0.0
 40
1.200000000000003
100
AcDbArc
 50
92.8681319407
 51
180.0
  0
LINE
  5
1D2
330
1F
100
AcDbEntity
  8
0
  6
Continuous
 62
     7
370
    15
100
AcDbLine
 10
196.726591741
 20
146.7324444027
 30
0.0
 11
197.1955685367
 21
146.7324444027
 31
0.0
  0
LINE
  5
1D3
330
1F
100
AcDbEntity
  8
0
  6
Continuous
 62
     7
370
    15
100
AcDbLine
 10
182.5693635692
 20
151.492444457
 30
0.0
 11
197.1060349097
 21
151.492444457
 31
0.0
  0
SPLINE
  5
1D4
330
1F
100
AcDbEntity
  8
0
  6
Continuous
 62
     7
370
    15
100
AcDbSpline
210
0.0
220
0.0
230
1.0
 70
    24
 71
     3
 72
    10
 73
     6
 74
     0
 42
0.00000001
 43
0.00000001
 12
1.0
 22
0.0
 32
0.0
 13
1.0
 23
0.0
 33
0.0
 40
0.0
 40
0.0
 40
0.0
 40
0.0
 40
0.4164402235248223
 40
0.7034894312870068
 40
0.9999999999999999
 40
0.9999999999999999
 40
0.9999999999999999
 40
0.9999999999999999
 10
197.2552625884323
 20
146.7324444026735
 30
0.0
 10
197.2470489929579
 20
146.7324444026735
 30
0.0
 10
197.2331738260486
 20
146.7324444026735
 30
0.0
 10
197.2127925272146
 20
146.7324444026735
 30
0.0
 10
197.2013715901093
 20
146.7324444026735
 30
0.0
 10
197.1955685366898
 20
146.7324444026735
 30
0.0
  0
SPLINE
  5
1D5
330
1F
100
AcDbEntity
  8
0
  6
Continuous
 62
     7
370
    15
100
AcDbSpline
210
0.0
220
0.0
230
1.0
 70
    24
 71
     3
 72
    10
 73
     6
 74
     0
 42
0.00000001
 43
0.00000001
 12
1.0
 22
0.0
 32
0.0
 13
1.0
 23
0.0
 33
0.0
 40
0.0
 40
0.0
 40
0.0
 40
0.0
 40
0.2724796921727471
 40
0.5447441479225928
 40
1.0
 40
1.0
 40
1.0
 40
1.0
 10
197.1060349096566
 20
151.4924444570488
 30
0.0
 10
197.1273290959426
 20
151.4924444570488
 30
0.0
 10
197.1699006478685
 20
151.4924444570488
 30
0.0
 10
197.2512661498482
 20
151.4924444570488
 30
0.0
 10
197.3088006562786
 20
151.4924444570488
 30
0.0
 10
197.3448036660462
 20
151.4924444570488
 30
0.0
  0
LINE
  5
1D6
330
1F
100
AcDbEntity
  8
0
  6
Continuous
 62
     7
370
    15
100
AcDbLine
 10
197.2552625884
 20
146.7324444027
 30
0.0
 11
210.8193202366
 21
146.7324444027
 31
0.0
  0
LINE
  5
1D7
330
1F
100
AcDbEntity
  8
0
  6
Continuous
 62
     7
370
    15
100
AcDbLine
 10
197.344803666
 20
151.492444457
 30
0.0
 11
211.8814675559
 21
151.492444457
 31
0.0
  0
SPLINE
  5
1D8
330
1F
100
AcDbEntity
  8
0
  6
Continuous
 62
     7
370
    15
100
AcDbSpline
210
0.0
220
0.0
230
1.0
 70
    24
 71
     3
 72
    11
 73
     7
 74
     0
 42
0.00000001
 43
0.00000001
 12
1.0
 22
0.0
 32
0.0
 13
1.0
 23
0.0
 33
0.0
 40
0.0
 40
0.0
 40
0.0
 40
0.0
 40
0.2823622970973156
 40
0.5637537569842981
 40
0.8340539950521182
 40
1.0
 40
1.0
 40
1.0
 40
1.0
 10
211.8814675559311
 20
151.4924444570488
 30
0.0
 10
211.9250943884547
 20
151.4924444570488
 30
0.0
 10
212.012198052766
 20
151.4924444570488
 30
0.0
 10
212.1066386168414
 20
151.4924444570488
 30
0.0
 10
212.1593047300562
 20
151.4924444570488
 30
0.0
 10
212.1586857842543
 20
151.4924444570488
 30
0.0
 10
212.1584503402024
 20
151.4924444570488
 30
0.0
  0
SPLINE
  5
1D9
330
1F
100
AcDbEntity
  8
0
  6
Continuous
 62
     7
370
    15
100
AcDbSpline
210
0.0
220
0.0
230
1.0
 70
    24
 71
     3
 72
    12
 73
     8
 74
     0
 42
0.00000001
 43
0.00000001
 12
1.0
 22
0.0
 32
0.0
 13
1.0
 23
0.0
 33
0.0
 40
0.0
 40
0.0
 40
0.0
 40
0.0
 40
0.0923984493972016
 40
0.3448052259656215
 40
0.6000200043164974
 40
0.8648055869489418
 40
1.0
 40
1.0
 40
1.0
 40
1.0
 10
182.2923807849198
 20
151.4924444570488
 30
0.0
 10
182.2910186398372
 20
151.4924444570488
 30
0.0
 10
182.2859354945457
 20
151.4924444570488
 30
0.0
 10
182.3219518747824
 20
151.4924444570488
 30
0.0
 10
182.3958582413568
 20
151.4924444570488
 30
0.0
 10
182.4859623612137
 20
151.4924444570488
 30
0.0
 10
182.5482949658045
 20
151.4924444570488
 30
0.0
 10
182.569363569191
 20
151.4924444570488
 30
0.0
  0
LINE
  5
1DA
330
1F
100
AcDbEntity
  8
0
  6
Continuous
 62
     7
370
    15
100
AcDbLine
 10
126.7410204236
 20
160.6924440646
 30
0.0
 11
126.7410204236
 21
183.1924449586
 31
0.0
  0
LINE
  5
1DB
330
1F
100
AcDbEntity
  8
0
  6
Continuous
 62
     7
370
    15
100
AcDbLine
 10
126.7410204236
 20
160.6924440646
 30
0.0
 11
125.0829533164
 21
160.6924440646
 31
0.0
  0
SPLINE
  5
1DC
330
1F
100
AcDbEntity
  8
0
  6
Continuous
 62
     7
370
    15
100
AcDbSpline
210
0.0
220
0.0
230
1.0
 70
     8
 71
     3
 72
    28
 73
    24
 74
     0
 42
0.00000001
 43
0.00000001
 12
1.0
 22
0.0
 32
0.0
 13
1.0
 23
0.0
 33
0.0
 40
0.0
 40
0.0
 40
0.0
 40
0.0
 40
0.1250000000000001
 40
0.1250000000000001
 40
0.1875000000000001
 40
0.1875000000000001
 40
0.2500000000000001
 40
0.2500000000000001
 40
0.375
 40
0.375
 40
0.4375000000000001
 40
0.4375000000000001
 40
0.5
 40
0.5
 40
0.625
 40
0.625
 40
0.7499999999999999
 40
0.7499999999999999
 40
0.8124999999999999
 40
0.8124999999999999
 40
0.875
 40
0.875
 40
1.0
 40
1.0
 40
1.0
 40
1.0
 10
125.0829529632836
 20
160.6924444519964
 30
0.0
 10
124.5512452057907
 20
160.6924444519964
 30
0.0
 10
124.0290066404803
 20
160.6399681096781
 30
0.0
 10
123.2591361542053
 20
160.4861711621213
 30
0.0
 10
123.004776582014
 20
160.4222961870873
 30
0.0
 10
122.5006550013155
 20
160.2687999184307
 30
0.0
 10
122.2509321838876
 20
160.178984943037
 30
0.0
 10
121.5253422324411
 20
159.8770061479862
 30
0.0
 10
121.0669819708596
 20
159.6310527139304
 30
0.0
 10
120.4164840274657
 20
159.195685534502
 30
0.0
 10
120.2048019766733
 20
159.0384703523297
 30
0.0
 10
119.8007304875353
 20
158.7063057317872
 30
0.0
 10
119.6082239737144
 20
158.5314984661843
 30
0.0
 10
119.0583890026931
 20
157.9814392755985
 30
0.0
 10
118.7284602243843
 20
157.580815891203
 30
0.0
 10
118.1439889558156
 20
156.7082297798543
 30
0.0
 10
117.8977118178022
 20
156.2480943322528
 30
0.0
 10
117.5978690251041
 20
155.5281282382866
 30
0.0
 10
117.5094121680319
 20
155.2828545282521
 30
0.0
 10
117.3560508147268
 20
154.7813981918232
 30
0.0
 10
117.2909626005006
 20
154.5239668224507
 30
0.0
 10
117.1353685845598
 20
153.7480270265862
 30
0.0
 10
117.0829529632836
 20
153.2237986266802
 30
0.0
 10
117.0829529632836
 20
152.6924444519964
 30
0.0
  0
LINE
  5
1DD
330
1F
100
AcDbEntity
  8
0
  6
Continuous
 62
     7
370
    15
100
AcDbLine
 10
125.0829533164
 20
142.6924448394
 30
0.0
 11
126.7410204236
 21
142.6924448394
 31
0.0
  0
LINE
  5
1DE
330
1F
100
AcDbEntity
  8
0
  6
Continuous
 62
     7
370
    15
100
AcDbLine
 10
126.7410204236
 20
120.1924439454
 30
0.0
 11
126.7410204236
 21
142.6924448394
 31
0.0
  0
SPLINE
  5
1DF
330
1F
100
AcDbEntity
  8
0
  6
Continuous
 62
     7
370
    15
100
AcDbSpline
210
0.0
220
0.0
230
1.0
 70
     8
 71
     3
 72
    17
 73
    13
 74
     0
 42
0.00000001
 43
0.00000001
 12
1.0
 22
0.0
 32
0.0
 13
1.0
 23
0.0
 33
0.0
 40
0.0
 40
0.0
 40
0.0
 40
0.0
 40
0.1064584947925926
 40
0.2128853820649122
 40
0.3201358678267675
 40
0.4279706072970569
 40
0.5348959099635372
 40
0.640833893296311
 40
0.7472465223320981
 40
0.8548490544915606
 40
0.9625155229041981
 40
1.0
 40
1.0
 40
1.0
 40
1.0
 10
114.1329530582785
 20
120.1924439453569
 30
0.0
 10
114.1875288345539
 20
120.2013458869383
 30
0.0
 10
114.2966641835603
 20
120.2191471271151
 30
0.0
 10
115.146558943985
 20
120.3432787249955
 30
0.0
 10
116.4036828029397
 20
120.4832028755527
 30
0.0
 10
117.9840392977163
 20
120.585722084524
 30
0.0
 10
119.6879603010185
 20
120.6021799606903
 30
0.0
 10
121.3180109964508
 20
120.5277551992485
 30
0.0
 10
122.7158841492322
 20
120.3934954688865
 30
0.0
 10
123.6841889815064
 20
120.263574914232
 30
0.0
 10
124.1531917921925
 20
120.1892753735152
 30
0.0
 10
124.0863500784505
 20
120.199781600167
 30
0.0
 10
124.06908855336
 20
120.2024947785821
 30
0.0
  0
LINE
  5
1E0
330
1F
100
AcDbEntity
  8
0
  6
Continuous
 62
     7
370
    15
100
AcDbLine
 10
117.0829529365
 20
152.6924444995
 30
0.0
 11
117.0829529365
 21
150.6924444045
 31
0.0
  0
SPLINE
  5
1E1
330
1F
100
AcDbEntity
  8
0
  6
Continuous
 62
     7
370
    15
100
AcDbSpline
210
0.0
220
0.0
230
1.0
 70
     8
 71
     3
 72
    30
 73
    26
 74
     0
 42
0.00000001
 43
0.00000001
 12
1.0
 22
0.0
 32
0.0
 13
1.0
 23
0.0
 33
0.0
 40
0.0
 40
0.0
 40
0.0
 40
0.0
 40
0.1250000000000002
 40
0.1250000000000002
 40
0.1875000000000002
 40
0.1875000000000002
 40
0.2500000000000003
 40
0.2500000000000003
 40
0.3750000000000004
 40
0.3750000000000004
 40
0.4375000000000004
 40
0.4375000000000004
 40
0.5000000000000004
 40
0.5000000000000004
 40
0.6250000000000004
 40
0.6250000000000004
 40
0.6875000000000003
 40
0.6875000000000003
 40
0.7500000000000002
 40
0.7500000000000002
 40
0.8125000000000001
 40
0.8125000000000001
 40
0.8749999999999999
 40
0.8749999999999999
 40
1.0
 40
1.0
 40
1.0
 40
1.0
 10
117.0829529632836
 20
150.6924444519964
 30
0.0
 10
117.0829529632836
 20
150.1610265215958
 30
0.0
 10
117.135370529262
 20
149.6393673240216
 30
0.0
 10
117.2887500091643
 20
148.8707255368626
 30
0.0
 10
117.3524311298321
 20
148.6168357376976
 30
0.0
 10
117.5053859972837
 20
148.1137629617515
 30
0.0
 10
117.594958296053
 20
147.8642991135348
 30
0.0
 10
117.8961823289061
 20
147.139388215938
 30
0.0
 10
118.1414973249903
 20
146.6815108790458
 30
0.0
 10
118.5755943060605
 20
146.031743653563
 30
0.0
 10
118.7322639951642
 20
145.8203569501528
 30
0.0
 10
119.0642571590066
 20
145.4157231393826
 30
0.0
 10
119.238962687999
 20
145.2229826678814
 30
0.0
 10
119.7886323705906
 20
144.6725517915044
 30
0.0
 10
120.1888833333019
 20
144.3423684142238
 30
0.0
 10
120.8424701999394
 20
143.9036925975734
 30
0.0
 10
121.0681463196165
 20
143.7678940390869
 30
0.0
 10
121.5278581407477
 20
143.5210170062407
 30
0.0
 10
121.7629114747908
 20
143.4092384689127
 30
0.0
 10
122.2434187570899
 20
143.2088082790391
 30
0.0
 10
122.488872285004
 20
143.1201559358356
 30
0.0
 10
122.9904877098114
 20
142.9664883881545
 30
0.0
 10
123.2479800924119
 20
142.9012406839026
 30
0.0
 10
124.026056608848
 20
142.7449356305384
 30
0.0
 10
124.5512188860929
 20
142.6924444519964
 30
0.0
 10
125.0829529632836
 20
142.6924444519964
 30
0.0
  0
LINE
  5
1E2
330
1F
100
AcDbEntity
  8
0
  6
Continuous
 62
     7
370
    15
100
AcDbLine
 10
112.1329529633
 20
151.692444452
 30
0.0
 11
112.1329529633
 21
182.8924436056
 31
0.0
  0
LINE
  5
1E3
330
1F
100
AcDbEntity
  8
0
  6
Continuous
 62
     7
370
    15
100
AcDbLine
 10
112.1329529633
 20
120.4924452984
 30
0.0
 11
112.1329529633
 21
151.692444452
 31
0.0
  0
LINE
  5
1E4
330
1F
100
AcDbEntity
  8
0
  6
Continuous
 62
     7
370
    15
100
AcDbLine
 10
138.0829526533
 20
160.6924440646
 30
0.0
 11
138.0829526533
 21
182.5924441152
 31
0.0
  0
SPLINE
  5
1E5
330
1F
100
AcDbEntity
  8
0
  6
Continuous
 62
     7
370
    15
100
AcDbSpline
210
0.0
220
0.0
230
1.0
 70
    24
 71
     3
 72
    10
 73
     6
 74
     0
 42
0.00000001
 43
0.00000001
 12
1.0
 22
0.0
 32
0.0
 13
1.0
 23
0.0
 33
0.0
 40
0.0
 40
0.0
 40
0.0
 40
0.0
 40
0.5
 40
0.5
 40
1.0
 40
1.0
 40
1.0
 40
1.0
 10
138.0829529632836
 20
160.6924444519964
 30
0.0
 10
138.0829529632836
 20
160.6924444519964
 30
0.0
 10
138.0216433120478
 20
160.6924444519964
 30
0.0
 10
137.8025436745127
 20
160.6924444519964
 30
0.0
 10
137.6444954681992
 20
160.6924444519964
 30
0.0
 10
137.4829529632836
 20
160.6924444519964
 30
0.0
  0
LINE
  5
1E6
330
1F
100
AcDbEntity
  8
0
  6
Continuous
 62
     7
370
    15
100
AcDbLine
 10
138.0829526533
 20
120.7924447888
 30
0.0
 11
138.0829526533
 21
142.6924448394
 31
0.0
  0
SPLINE
  5
1E7
330
1F
100
AcDbEntity
  8
0
  6
Continuous
 62
     7
370
    15
100
AcDbSpline
210
0.0
220
0.0
230
1.0
 70
    24
 71
     3
 72
    12
 73
     8
 74
     0
 42
0.00000001
 43
0.00000001
 12
1.0
 22
0.0
 32
0.0
 13
1.0
 23
0.0
 33
0.0
 40
0.0
 40
0.0
 40
0.0
 40
0.0
 40
0.2499999999999999
 40
0.2499999999999999
 40
0.4999999999999998
 40
0.4999999999999998
 40
1.0
 40
1.0
 40
1.0
 40
1.0
 10
137.4829529632836
 20
142.6924444519964
 30
0.0
 10
137.5628339680307
 20
142.6924444519964
 30
0.0
 10
137.6434280983013
 20
142.6924444519964
 30
0.0
 10
137.7900435441462
 20
142.6924444519964
 30
0.0
 10
137.8565447368902
 20
142.6924444519964
 30
0.0
 10
138.0222796380274
 20
142.6924444519964
 30
0.0
 10
138.0829529632836
 20
142.6924444519964
 30
0.0
 10
138.0829529632836
 20
142.6924444519964
 30
0.0
  0
LINE
  5
1E8
330
1F
100
AcDbEntity
  8
0
  6
Continuous
 62
     7
370
    15
100
AcDbLine
 10
133.5248848845
 20
160.6924440646
 30
0.0
 11
133.5248848845
 21
183.1924449586
 31
0.0
  0
LINE
  5
1E9
330
1F
100
AcDbEntity
  8
0
  6
Continuous
 62
     7
370
    15
100
AcDbLine
 10
137.4829536726
 20
160.6924440646
 30
0.0
 11
133.5248848845
 21
160.6924440646
 31
0.0
  0
LINE
  5
1EA
330
1F
100
AcDbEntity
  8
0
  6
Continuous
 62
     7
370
    15
100
AcDbLine
 10
133.5248848845
 20
120.1924439454
 30
0.0
 11
133.5248848845
 21
142.6924448394
 31
0.0
  0
LINE
  5
1EB
330
1F
100
AcDbEntity
  8
0
  6
Continuous
 62
     7
370
    15
100
AcDbLine
 10
133.5248848845
 20
142.6924448394
 30
0.0
 11
137.4829536726
 21
142.6924448394
 31
0.0
  0
LINE
  5
1EC
330
1F
100
AcDbEntity
  8
0
  6
Continuous
 62
     7
370
    15
100
AcDbLine
 10
132.0429532279
 20
122.759226703
 30
0.0
 11
132.0429532279
 21
142.6924448394
 31
0.0
  0
SPLINE
  5
1ED
330
1F
100
AcDbEntity
  8
0
  6
Continuous
 62
     7
370
    15
100
AcDbSpline
210
0.0
220
0.0
230
1.0
 70
    24
 71
     3
 72
     8
 73
     4
 74
     0
 42
0.00000001
 43
0.00000001
 12
1.0
 22
0.0
 32
0.0
 13
1.0
 23
0.0
 33
0.0
 40
0.0
 40
0.0
 40
0.0
 40
0.0
 40
1.0
 40
1.0
 40
1.0
 40
1.0
 10
132.0429529632836
 20
142.6924444519964
 30
0.0
 10
132.5352920860648
 20
142.6924444519964
 30
0.0
 10
133.0294061341069
 20
142.6924444519964
 30
0.0
 10
133.5248857947726
 20
142.6924444519964
 30
0.0
  0
LINE
  5
1EE
330
1F
100
AcDbEntity
  8
0
  6
Continuous
 62
     7
370
    15
100
AcDbLine
 10
132.0429532279
 20
160.6924440646
 30
0.0
 11
132.0429532279
 21
180.625662201
 31
0.0
  0
SPLINE
  5
1EF
330
1F
100
AcDbEntity
  8
0
  6
Continuous
 62
     7
370
    15
100
AcDbSpline
210
0.0
220
0.0
230
1.0
 70
    24
 71
     3
 72
     8
 73
     4
 74
     0
 42
0.00000001
 43
0.00000001
 12
1.0
 22
0.0
 32
0.0
 13
1.0
 23
0.0
 33
0.0
 40
0.0
 40
0.0
 40
0.0
 40
0.0
 40
1.0
 40
1.0
 40
1.0
 40
1.0
 10
133.5248857947726
 20
160.6924444519964
 30
0.0
 10
133.0294061341069
 20
160.6924444519964
 30
0.0
 10
132.5352920860648
 20
160.6924444519964
 30
0.0
 10
132.0429529632836
 20
160.6924444519964
 30
0.0
  0
LINE
  5
1F0
330
1F
100
AcDbEntity
  8
0
  6
Continuous
 62
     7
370
    15
100
AcDbLine
 10
128.2229530116
 20
160.6924440646
 30
0.0
 11
128.2229530116
 21
180.625662201
 31
0.0
  0
SPLINE
  5
1F1
330
1F
100
AcDbEntity
  8
0
  6
Continuous
 62
     7
370
    15
100
AcDbSpline
210
0.0
220
0.0
230
1.0
 70
    24
 71
     3
 72
     8
 73
     4
 74
     0
 42
0.00000001
 43
0.00000001
 12
1.0
 22
0.0
 32
0.0
 13
1.0
 23
0.0
 33
0.0
 40
0.0
 40
0.0
 40
0.0
 40
0.0
 40
1.0
 40
1.0
 40
1.0
 40
1.0
 10
128.2229529632836
 20
160.6924444519964
 30
0.0
 10
127.7306138405024
 20
160.6924444519964
 30
0.0
 10
127.2364997924603
 20
160.6924444519964
 30
0.0
 10
126.7410201317945
 20
160.6924444519964
 30
0.0
  0
LINE
  5
1F2
330
1F
100
AcDbEntity
  8
0
  6
Continuous
 62
     7
370
    15
100
AcDbLine
 10
128.2229530116
 20
122.759226703
 30
0.0
 11
128.2229530116
 21
142.6924448394
 31
0.0
  0
SPLINE
  5
1F3
330
1F
100
AcDbEntity
  8
0
  6
Continuous
 62
     7
370
    15
100
AcDbSpline
210
0.0
220
0.0
230
1.0
 70
    24
 71
     3
 72
     8
 73
     4
 74
     0
 42
0.00000001
 43
0.00000001
 12
1.0
 22
0.0
 32
0.0
 13
1.0
 23
0.0
 33
0.0
 40
0.0
 40
0.0
 40
0.0
 40
0.0
 40
1.0
 40
1.0
 40
1.0
 40
1.0
 10
126.7410201317945
 20
142.6924444519964
 30
0.0
 10
127.2364997924603
 20
142.6924444519964
 30
0.0
 10
127.7306138405024
 20
142.6924444519964
 30
0.0
 10
128.2229529632836
 20
142.6924444519964
 30
0.0
  0
SPLINE
  5
1F4
330
1F
100
AcDbEntity
  8
0
  6
Continuous
 62
     7
370
    15
100
AcDbSpline
210
0.0
220
0.0
230
1.0
 70
     8
 71
     3
 72
    14
 73
    10
 74
     0
 42
0.00000001
 43
0.00000001
 12
1.0
 22
0.0
 32
0.0
 13
1.0
 23
0.0
 33
0.0
 40
0.0
 40
0.0
 40
0.0
 40
0.0
 40
0.1249999999999997
 40
0.1249999999999997
 40
0.2499999999999993
 40
0.2499999999999993
 40
0.4999999999999996
 40
0.4999999999999996
 40
1.0
 40
1.0
 40
1.0
 40
1.0
 10
131.2429529632836
 20
144.0822128523668
 30
0.0
 10
131.3120495956276
 20
144.0822128523668
 30
0.0
 10
131.3770427612355
 20
144.0478804766869
 30
0.0
 10
131.4813639598806
 20
143.9585738926839
 30
0.0
 10
131.5241443339891
 20
143.9036690545373
 30
0.0
 10
131.6364819936353
 20
143.732437546231
 30
0.0
 10
131.6915291757777
 20
143.6082178438719
 30
0.0
 10
131.8354059495478
 20
143.2247730437675
 30
0.0
 10
131.8984352628229
 20
142.9586057371702
 30
0.0
 10
131.9452781609513
 20
142.6924444519964
 30
0.0
  0
SPLINE
  5
1F5
330
1F
100
AcDbEntity
  8
0
  6
Continuous
 62
     7
370
    15
100
AcDbSpline
210
0.0
220
0.0
230
1.0
 70
     8
 71
     3
 72
    14
 73
    10
 74
     0
 42
0.00000001
 43
0.00000001
 12
1.0
 22
0.0
 32
0.0
 13
1.0
 23
0.0
 33
0.0
 40
0.0
 40
0.0
 40
0.0
 40
0.0
 40
0.5000000000000027
 40
0.5000000000000027
 40
0.7500000000000013
 40
0.7500000000000013
 40
0.8750000000000007
 40
0.8750000000000007
 40
1.0
 40
1.0
 40
1.0
 40
1.0
 10
131.9452781609513
 20
160.6924444519964
 30
0.0
 10
131.8984934559031
 20
160.4266138198274
 30
0.0
 10
131.8364422591235
 20
160.1639197232683
 30
0.0
 10
131.6930506205731
 20
159.7802158779712
 30
0.0
 10
131.6369069670218
 20
159.6531056761872
 30
0.0
 10
131.5239559448855
 20
159.4809294222199
 30
0.0
 10
131.4809551828474
 20
159.4258958559106
 30
0.0
 10
131.3768924725409
 20
159.3369493543566
 30
0.0
 10
131.311560234184
 20
159.302676051626
 30
0.0
 10
131.2429529632836
 20
159.302676051626
 30
0.0
  0
SPLINE
  5
1F6
330
1F
100
AcDbEntity
  8
0
  6
Continuous
 62
     7
370
    15
100
AcDbSpline
210
0.0
220
0.0
230
1.0
 70
     8
 71
     3
 72
    14
 73
    10
 74
     0
 42
0.00000001
 43
0.00000001
 12
1.0
 22
0.0
 32
0.0
 13
1.0
 23
0.0
 33
0.0
 40
0.0
 40
0.0
 40
0.0
 40
0.0
 40
0.1250000000000001
 40
0.1250000000000001
 40
0.2500000000000002
 40
0.2500000000000002
 40
0.5000000000000003
 40
0.5000000000000003
 40
1.0
 40
1.0
 40
1.0
 40
1.0
 10
129.0229529632836
 20
159.3026760516259
 30
0.0
 10
128.9536062415524
 20
159.3026760516259
 30
0.0
 10
128.8884081881685
 20
159.3372779306879
 30
0.0
 10
128.7840289955415
 20
159.4268752603906
 30
0.0
 10
128.7411266245325
 20
159.4820608352308
 30
0.0
 10
128.6288009669278
 20
159.6536578899923
 30
0.0
 10
128.573577272574
 20
159.778476358317
 30
0.0
 10
128.4295198938065
 20
160.1633874537663
 30
0.0
 10
128.367439196975
 20
160.4264619609642
 30
0.0
 10
128.3206277656159
 20
160.6924444519964
 30
0.0
  0
SPLINE
  5
1F7
330
1F
100
AcDbEntity
  8
0
  6
Continuous
 62
     7
370
    15
100
AcDbSpline
210
0.0
220
0.0
230
1.0
 70
     8
 71
     3
 72
    14
 73
    10
 74
     0
 42
0.00000001
 43
0.00000001
 12
1.0
 22
0.0
 32
0.0
 13
1.0
 23
0.0
 33
0.0
 40
0.0
 40
0.0
 40
0.0
 40
0.0
 40
0.5
 40
0.5
 40
0.75
 40
0.75
 40
0.875
 40
0.875
 40
1.0
 40
1.0
 40
1.0
 40
1.0
 10
128.3206277656158
 20
142.6924444519958
 30
0.0
 10
128.3678342534556
 20
142.9606716534287
 30
0.0
 10
128.4311742568849
 20
143.2266698332338
 30
0.0
 10
128.5742373631408
 20
143.607796373603
 30
0.0
 10
128.6303180134118
 20
143.7339177528065
 30
0.0
 10
128.7417533633211
 20
143.9035974647108
 30
0.0
 10
128.7836981539942
 20
143.9577240863352
 30
0.0
 10
128.8886945970143
 20
144.0478623879379
 30
0.0
 10
128.954258534095
 20
144.0822128523665
 30
0.0
 10
129.0229529632834
 20
144.0822128523666
 30
0.0
  0
LINE
  5
1F8
330
1F
100
AcDbEntity
  8
0
  6
Continuous
 62
     7
370
    15
100
AcDbLine
 10
129.0229535152
 20
144.082212814
 30
0.0
 11
131.2429527243
 21
144.082212814
 31
0.0
  0
LINE
  5
1F9
330
1F
100
AcDbEntity
  8
0
  6
Continuous
 62
     7
370
    15
100
AcDbLine
 10
131.2429527243
 20
159.30267609
 30
0.0
 11
129.0229535152
 21
159.30267609
 31
0.0
  0
SPLINE
  5
1FA
330
1F
100
AcDbEntity
  8
0
  6
Continuous
 62
     7
370
    15
100
AcDbSpline
210
0.0
220
0.0
230
1.0
 70
     8
 71
     3
 72
    20
 73
    16
 74
     0
 42
0.00000001
 43
0.00000001
 12
1.0
 22
0.0
 32
0.0
 13
1.0
 23
0.0
 33
0.0
 40
0.0
 40
0.0
 40
0.0
 40
0.0
 40
0.2500000000000001
 40
0.2500000000000001
 40
0.375
 40
0.375
 40
0.4375000000000001
 40
0.4375000000000001
 40
0.4687500000000001
 40
0.4687500000000001
 40
0.5
 40
0.5
 40
0.75
 40
0.75
 40
1.0
 40
1.0
 40
1.0
 40
1.0
 10
138.0829529632836
 20
146.0320557727624
 30
0.0
 10
138.0829529632836
 20
146.9931398259021
 30
0.0
 10
138.1407823600706
 20
147.9532381477985
 30
0.0
 10
138.2176408387119
 20
149.3935541359643
 30
0.0
 10
138.2419098176617
 20
149.8736824855443
 30
0.0
 10
138.2669594366992
 20
150.5940685420049
 30
0.0
 10
138.2734416455635
 20
150.8342290627695
 30
0.0
 10
138.2796478756434
 20
151.1945297943741
 30
0.0
 10
138.2811348980919
 20
151.3146399539687
 30
0.0
 10
138.2828877663007
 20
151.5548810887307
 30
0.0
 10
138.2831398019211
 20
151.6756258041792
 30
0.0
 10
138.2802021807736
 20
152.719206507672
 30
0.0
 10
138.2363241111957
 20
153.6458001032214
 30
0.0
 10
138.1369403127165
 20
155.4984884609269
 30
0.0
 10
138.0829529632836
 20
156.4246759180884
 30
0.0
 10
138.0829529632836
 20
157.3528331312303
 30
0.0
  0
LINE
  5
1FB
330
1F
100
AcDbEntity
  8
0
  6
Continuous
 62
     7
370
    15
100
AcDbLine
 10
138.0829526533
 20
157.3528330707
 30
0.0
 11
138.0829526533
 21
160.6924440646
 31
0.0
  0
LINE
  5
1FC
330
1F
100
AcDbEntity
  8
0
  6
Continuous
 62
     7
370
    15
100
AcDbLine
 10
138.0829526533
 20
142.6924448394
 30
0.0
 11
138.0829526533
 21
146.0320558333
 31
0.0
  0
ELLIPSE
  5
1FD
330
1F
100
AcDbEntity
  8
0
  6
Continuous
 62
     7
370
    15
100
AcDbEllipse
 10
198.5286376078
 20
151.692444452
 30
0.0
 11
45.38522720420698
 21
5.334756803616813
 31
0.0
210
0.0
220
0.0
230
1.0
 40
0.5606849651
 41
2.476545986635938
 42
4.248383595640666
  0
LINE
  5
1FE
330
1F
100
AcDbEntity
  8
0
  6
Continuous
 62
     7
370
    15
100
AcDbLine
 10
162.9413603296
 20
155.8395302788
 30
0.0
 11
160.9697392632
 21
163.1977120348
 31
0.0
  0
ARC
  5
1FF
330
1F
100
AcDbEntity
  8
0
  6
Continuous
 62
     7
370
    15
100
AcDbCircle
 10
168.7369148912
 20
157.392444452
 30
0.0
 40
6.000000000000017
100
AcDbArc
 50
195.0
 51
270.0
  0
LINE
  5
200
330
1F
100
AcDbEntity
  8
0
  6
Continuous
 62
     7
370
    15
100
AcDbLine
 10
182.1279762735
 20
151.3924444377
 30
0.0
 11
168.7369136562
 21
151.3924444377
 31
0.0
  0
LINE
  5
201
330
1F
100
AcDbEntity
  8
0
  6
Continuous
 62
     7
370
    15
100
AcDbLine
 10
180.8920814146
 20
126.5487112039
 30
0.0
 11
182.1279762735
 21
151.3924444377
 31
0.0
  0
SPLINE
  5
202
330
1F
100
AcDbEntity
  8
0
  6
Continuous
 62
     7
370
    15
100
AcDbSpline
210
0.0
220
0.0
230
1.0
 70
     8
 71
     3
 72
    17
 73
    13
 74
     0
 42
0.00000001
 43
0.00000001
 12
1.0
 22
0.0
 32
0.0
 13
1.0
 23
0.0
 33
0.0
 40
0.0
 40
0.0
 40
0.0
 40
0.0
 40
0.1068867607014431
 40
0.2137566292792833
 40
0.3210682449641328
 40
0.4286808171662931
 40
0.5358091011680618
 40
0.6424229009703282
 40
0.7492946348440189
 40
0.8567924948716324
 40
0.9643120190406339
 40
1.0
 40
1.0
 40
1.0
 40
1.0
 10
143.1329524566441
 20
177.6924449884382
 30
0.0
 10
143.1658966613906
 20
177.688537548379
 30
0.0
 10
143.2317798644617
 20
177.6807232857829
 30
0.0
 10
143.7450928883758
 20
177.626303404174
 30
0.0
 10
144.5028160046546
 20
177.5654017795206
 30
0.0
 10
145.4522633619646
 20
177.5211912286749
 30
0.0
 10
146.4759173453245
 20
177.5143802720693
 30
0.0
 10
147.4567656588402
 20
177.5471650200743
 30
0.0
 10
148.295886093029
 20
177.6059918993807
 30
0.0
 10
148.8716861561613
 20
177.6623037665984
 30
0.0
 10
149.1475855710067
 20
177.6941108602414
 30
0.0
 10
149.1057886900667
 20
177.6893374277989
 30
0.0
 10
149.0953727115898
 20
177.6881478660789
 30
0.0
  0
LWPOLYLINE
  5
203
330
1F
100
AcDbEntity
  8
0
  6
Continuous
 62
     7
370
    15
100
AcDbPolyline
 90
       15
 70
   128
 43
0.0
 10
157.0858894338
 20
177.6924449884
 10
157.1078686466
 20
177.6104122334
 10
157.1736721744
 20
177.364835509
 10
157.2828790595
 20
176.9572626733
 10
157.4348075737
 20
176.3902660393
 10
157.6284928669
 20
175.6674218857
 10
157.8627130439
 20
174.7932955557
 10
158.1359928896
 20
173.7733967536
 10
158.44661132
 20
172.6141665065
 10
158.7925976564
 20
171.3229175591
 10
159.1717800547
 20
169.9077971214
 10
159.581759428
 20
168.3777365767
 10
160.0199466993
 20
166.7423890838
 10
160.483585154
 20
165.0120746278
 10
160.9697392632
 20
163.1977120348
  0
ELLIPSE
  5
204
330
1F
100
AcDbEntity
  8
0
  6
Continuous
 62
     7
370
    15
100
AcDbEllipse
 10
212.1471681609
 20
151.692444452
 30
0.0
 11
83.13427335625992
 21
3.672253306161708
 31
0.0
210
0.0
220
0.0
230
1.0
 40
0.3096118732
 41
4.313319853948156
 42
4.563234844291235
  0
LINE
  5
205
330
1F
100
AcDbEntity
  8
0
  6
Continuous
 62
     7
370
    15
100
AcDbLine
 10
200.9173272599
 20
125.6924439156
 30
0.0
 11
200.9176252832
 21
125.6931647592
 31
0.0
  0
SPLINE
  5
206
330
1F
100
AcDbEntity
  8
0
  6
Continuous
 62
     7
370
    15
100
AcDbSpline
210
0.0
220
0.0
230
1.0
 70
     8
 71
     3
 72
    14
 73
    10
 74
     0
 42
0.00000001
 43
0.00000001
 12
1.0
 22
0.0
 32
0.0
 13
1.0
 23
0.0
 33
0.0
 40
0.0
 40
0.0
 40
0.0
 40
0.0
 40
0.5000000000000012
 40
0.5000000000000012
 40
0.7500000000000018
 40
0.7500000000000018
 40
0.8750000000000009
 40
0.8750000000000009
 40
1.0
 40
1.0
 40
1.0
 40
1.0
 10
81.38295296328357
 20
142.4180298744974
 30
0.0
 10
81.99902986703889
 20
142.3293708392123
 30
0.0
 10
82.61316186315476
 20
142.2325590881356
 30
0.0
 10
83.52705849366832
 20
142.056770335246
 30
0.0
 10
83.83049742121594
 20
141.9931776863679
 30
0.0
 10
84.28163403685342
 20
141.8809562712947
 30
0.0
 10
84.43134028639592
 20
141.8407339929462
 30
0.0
 10
84.72818142264401
 20
141.7495291768526
 30
0.0
 10
84.87556697514731
 20
141.6995954099072
 30
0.0
 10
85.0193511021616
 20
141.6345925974597
 30
0.0
  0
SPLINE
  5
207
330
1F
100
AcDbEntity
  8
0
  6
Continuous
 62
     7
370
    15
100
AcDbSpline
210
0.0
220
0.0
230
1.0
 70
     8
 71
     3
 72
    10
 73
     6
 74
     0
 42
0.00000001
 43
0.00000001
 12
1.0
 22
0.0
 32
0.0
 13
1.0
 23
0.0
 33
0.0
 40
0.0
 40
0.0
 40
0.0
 40
0.0
 40
0.5
 40
0.5
 40
1.0
 40
1.0
 40
1.0
 40
1.0
 10
85.0193511021616
 20
141.6345925974597
 30
0.0
 10
85.64697875786891
 20
141.3508508268069
 30
0.0
 10
86.29817950290033
 20
141.106805837989
 30
0.0
 10
87.60688420691251
 20
140.6614185738432
 30
0.0
 10
88.26792864420369
 20
140.4600299508577
 30
0.0
 10
88.9329529632833
 20
140.2713117309017
 30
0.0
  0
SPLINE
  5
208
330
1F
100
AcDbEntity
  8
0
  6
Continuous
 62
     7
370
    15
100
AcDbSpline
210
0.0
220
0.0
230
1.0
 70
     8
 71
     3
 72
    18
 73
    14
 74
     0
 42
0.00000001
 43
0.00000001
 12
1.0
 22
0.0
 32
0.0
 13
1.0
 23
0.0
 33
0.0
 40
0.0
 40
0.0
 40
0.0
 40
0.0
 40
0.0624999999999991
 40
0.0624999999999991
 40
0.1249999999999982
 40
0.1249999999999982
 40
0.2499999999999995
 40
0.2499999999999995
 40
0.4999999999999997
 40
0.4999999999999997
 40
0.7499999999999998
 40
0.7499999999999998
 40
1.0
 40
1.0
 40
1.0
 40
1.0
 10
88.9329529632835
 20
140.2713117309021
 30
0.0
 10
88.9695251736339
 20
140.2609334000062
 30
0.0
 10
89.00817564706935
 20
140.2579950807217
 30
0.0
 10
89.08226714078322
 20
140.2682045337301
 30
0.0
 10
89.11761743453734
 20
140.2811086092695
 30
0.0
 10
89.21221173192676
 20
140.3323501815542
 30
0.0
 10
89.26234990506573
 20
140.3818818858803
 30
0.0
 10
89.3915431766469
 20
140.5411940803226
 30
0.0
 10
89.44982332138805
 20
140.6606487132479
 30
0.0
 10
89.55001841781154
 20
140.9061221654361
 30
0.0
 10
89.59003366925818
 20
141.0335917505195
 30
0.0
 10
89.65843309007596
 20
141.2910421361831
 30
0.0
 10
89.68679481393788
 20
141.4216609045464
 30
0.0
 10
89.71134872654382
 20
141.5537588866738
 30
0.0
  0
SPLINE
  5
209
330
1F
100
AcDbEntity
  8
0
  6
Continuous
 62
     7
370
    15
100
AcDbSpline
210
0.0
220
0.0
230
1.0
 70
     8
 71
     3
 72
    14
 73
    10
 74
     0
 42
0.00000001
 43
0.00000001
 12
1.0
 22
0.0
 32
0.0
 13
1.0
 23
0.0
 33
0.0
 40
0.0
 40
0.0
 40
0.0
 40
0.0
 40
0.25
 40
0.25
 40
0.5
 40
0.5
 40
0.75
 40
0.75
 40
1.0
 40
1.0
 40
1.0
 40
1.0
 10
89.71134872654382
 20
141.5537588866738
 30
0.0
 10
89.74978511136482
 20
141.7605434002709
 30
0.0
 10
89.81858650475664
 20
141.9646384483071
 30
0.0
 10
89.9618725169156
 20
142.3712742852453
 30
0.0
 10
90.03705457202251
 20
142.5749350675096
 30
0.0
 10
90.16924186067267
 20
142.9898450745295
 30
0.0
 10
90.22675905614247
 20
143.2009590672811
 30
0.0
 10
90.3088038544348
 20
143.6351054567964
 30
0.0
 10
90.33295296328359
 20
143.8564726670424
 30
0.0
 10
90.33295296328359
 20
144.0785615414238
 30
0.0
  0
LINE
  5
20A
330
1F
100
AcDbEntity
  8
0
  6
Continuous
 62
     7
370
    15
100
AcDbLine
 10
90.3329527427
 20
144.0785615639
 30
0.0
 11
90.3329527427
 21
159.3063273401
 31
0.0
  0
SPLINE
  5
20B
330
1F
100
AcDbEntity
  8
0
  6
Continuous
 62
     7
370
    15
100
AcDbSpline
210
0.0
220
0.0
230
1.0
 70
     8
 71
     3
 72
    14
 73
    10
 74
     0
 42
0.00000001
 43
0.00000001
 12
1.0
 22
0.0
 32
0.0
 13
1.0
 23
0.0
 33
0.0
 40
0.0
 40
0.0
 40
0.0
 40
0.0
 40
0.25
 40
0.25
 40
0.5
 40
0.5
 40
0.75
 40
0.75
 40
1.0
 40
1.0
 40
1.0
 40
1.0
 10
89.71134872654382
 20
161.831130017319
 30
0.0
 10
89.74978511136482
 20
161.6243455037218
 30
0.0
 10
89.81858650475664
 20
161.4202504556856
 30
0.0
 10
89.9618725169156
 20
161.0136146187474
 30
0.0
 10
90.03705457202251
 20
160.8099538364831
 30
0.0
 10
90.16924186067267
 20
160.3950438294632
 30
0.0
 10
90.22675905614247
 20
160.1839298367116
 30
0.0
 10
90.3088038544348
 20
159.7497834471963
 30
0.0
 10
90.33295296328359
 20
159.5284162369503
 30
0.0
 10
90.33295296328359
 20
159.306327362569
 30
0.0
  0
SPLINE
  5
20C
330
1F
100
AcDbEntity
  8
0
  6
Continuous
 62
     7
370
    15
100
AcDbSpline
210
0.0
220
0.0
230
1.0
 70
     8
 71
     3
 72
    18
 73
    14
 74
     0
 42
0.00000001
 43
0.00000001
 12
1.0
 22
0.0
 32
0.0
 13
1.0
 23
0.0
 33
0.0
 40
0.0
 40
0.0
 40
0.0
 40
0.0
 40
0.0624999999999986
 40
0.0624999999999986
 40
0.1249999999999972
 40
0.1249999999999972
 40
0.2499999999999957
 40
0.2499999999999957
 40
0.4999999999999971
 40
0.4999999999999971
 40
0.7499999999999986
 40
0.7499999999999986
 40
1.0
 40
1.0
 40
1.0
 40
1.0
 10
88.93295296328358
 20
163.1135771730907
 30
0.0
 10
88.969525173634
 20
163.1239555039866
 30
0.0
 10
89.00817564706945
 20
163.126893823271
 30
0.0
 10
89.0822671407833
 20
163.1166843702626
 30
0.0
 10
89.11761743453741
 20
163.1037802947232
 30
0.0
 10
89.21221173192681
 20
163.0525387224385
 30
0.0
 10
89.26234990506579
 20
163.0030070181124
 30
0.0
 10
89.39154317664693
 20
162.84369482367
 30
0.0
 10
89.44982332138807
 20
162.7242401907448
 30
0.0
 10
89.55001841781156
 20
162.4787667385566
 30
0.0
 10
89.59003366925819
 20
162.3512971534732
 30
0.0
 10
89.65843309007596
 20
162.0938467678096
 30
0.0
 10
89.68679481393788
 20
161.9632279994464
 30
0.0
 10
89.71134872654382
 20
161.831130017319
 30
0.0
  0
SPLINE
  5
20D
330
1F
100
AcDbEntity
  8
0
  6
Continuous
 62
     7
370
    15
100
AcDbSpline
210
0.0
220
0.0
230
1.0
 70
     8
 71
     3
 72
    10
 73
     6
 74
     0
 42
0.00000001
 43
0.00000001
 12
1.0
 22
0.0
 32
0.0
 13
1.0
 23
0.0
 33
0.0
 40
0.0
 40
0.0
 40
0.0
 40
0.0
 40
0.5
 40
0.5
 40
1.0
 40
1.0
 40
1.0
 40
1.0
 10
85.0193511021616
 20
161.7502963065331
 30
0.0
 10
85.64697875786894
 20
162.0340380771859
 30
0.0
 10
86.2981795029004
 20
162.2780830660037
 30
0.0
 10
87.60688420691265
 20
162.7234703301495
 30
0.0
 10
88.26792864420383
 20
162.924858953135
 30
0.0
 10
88.93295296328348
 20
163.113577173091
 30
0.0
  0
SPLINE
  5
20E
330
1F
100
AcDbEntity
  8
0
  6
Continuous
 62
     7
370
    15
100
AcDbSpline
210
0.0
220
0.0
230
1.0
 70
     8
 71
     3
 72
    14
 73
    10
 74
     0
 42
0.00000001
 43
0.00000001
 12
1.0
 22
0.0
 32
0.0
 13
1.0
 23
0.0
 33
0.0
 40
0.0
 40
0.0
 40
0.0
 40
0.0
 40
0.4999999999999998
 40
0.4999999999999998
 40
0.750000000000001
 40
0.750000000000001
 40
0.8750000000000004
 40
0.8750000000000004
 40
1.0
 40
1.0
 40
1.0
 40
1.0
 10
81.38295296328359
 20
160.9668590294953
 30
0.0
 10
81.99902986703889
 20
161.0555180647804
 30
0.0
 10
82.61316186315479
 20
161.1523298158571
 30
0.0
 10
83.52705849366833
 20
161.3281185687468
 30
0.0
 10
83.83049742121592
 20
161.3917112176248
 30
0.0
 10
84.28163403685343
 20
161.503932632698
 30
0.0
 10
84.43134028639592
 20
161.5441549110465
 30
0.0
 10
84.72818142264401
 20
161.6353597271402
 30
0.0
 10
84.87556697514731
 20
161.6852934940856
 30
0.0
 10
85.0193511021616
 20
161.750296306533
 30
0.0
  0
SPLINE
  5
20F
330
1F
100
AcDbEntity
  8
0
  6
Continuous
 62
     7
370
    15
100
AcDbSpline
210
0.0
220
0.0
230
1.0
 70
     8
 71
     3
 72
     8
 73
     4
 74
     0
 42
0.00000001
 43
0.00000001
 12
1.0
 22
0.0
 32
0.0
 13
1.0
 23
0.0
 33
0.0
 40
0.0000005954826279
 40
0.0000005954826279
 40
0.0000005954826279
 40
0.0000005954826279
 40
0.0000302093805348
 40
0.0000302093805348
 40
0.0000302093805348
 40
0.0000302093805348
 10
81.37290803287401
 20
160.9920876845055
 30
0.0
 10
81.37622406019418
 20
160.983669285397
 30
0.0
 10
81.37957261158644
 20
160.9752596958474
 30
0.0
 10
81.38295296328353
 20
160.9668590294953
 30
0.0
  0
SPLINE
  5
210
330
1F
100
AcDbEntity
  8
0
  6
Continuous
 62
     7
370
    15
100
AcDbSpline
210
0.0
220
0.0
230
1.0
 70
     8
 71
     3
 72
     8
 73
     4
 74
     0
 42
0.00000001
 43
0.00000001
 12
1.0
 22
0.0
 32
0.0
 13
1.0
 23
0.0
 33
0.0
 40
0.0000005954826279
 40
0.0000005954826279
 40
0.0000005954826279
 40
0.0000005954826279
 40
0.0000302093805348
 40
0.0000302093805348
 40
0.0000302093805348
 40
0.0000302093805348
 10
81.37290803287401
 20
142.3928012194873
 30
0.0
 10
81.37622406019418
 20
142.4012196185958
 30
0.0
 10
81.37957261158645
 20
142.4096292081453
 30
0.0
 10
81.38295296328354
 20
142.4180298744974
 30
0.0
  0
LINE
  5
211
330
1F
100
AcDbEntity
  8
0
  6
Continuous
 62
     7
370
    15
100
AcDbLine
 10
110.1329528683
 20
151.692444452
 30
0.0
 11
110.1329528683
 21
175.9128756755
 31
0.0
  0
LINE
  5
212
330
1F
100
AcDbEntity
  8
0
  6
Continuous
 62
     7
370
    15
100
AcDbLine
 10
110.1329528683
 20
127.4720132285
 30
0.0
 11
110.1329528683
 21
151.692444452
 31
0.0
  0
SPLINE
  5
213
330
1F
100
AcDbEntity
  8
0
  6
Continuous
 62
     7
370
    15
100
AcDbSpline
210
0.0
220
0.0
230
1.0
 70
     8
 71
     3
 72
    39
 73
    35
 74
     0
 42
0.00000001
 43
0.00000001
 12
1.0
 22
0.0
 32
0.0
 13
1.0
 23
0.0
 33
0.0
 40
-0.0933917898677449
 40
-0.0622351123773197
 40
-0.0310035323359511
 40
0.0
 40
0.0311554731472447
 40
0.0627537544701332
 40
0.0944598246532104
 40
0.1258516844974788
 40
0.1572196167872576
 40
0.1889387571416916
 40
0.2205174397748018
 40
0.2516656885414485
 40
0.2826462244720713
 40
0.3138733795790826
 40
0.3450060568220766
 40
0.3757359628070907
 40
0.4064218143223586
 40
0.4377517454847213
 40
0.4690453247903622
 40
0.5001675072799384
 40
0.531323032262223
 40
0.5628789029232588
 40
0.5945517697249131
 40
0.6258698547354888
 40
0.6571954425802748
 40
0.6889351647119784
 40
0.7205341263069348
 40
0.7517182475210293
 40
0.7827801982305727
 40
0.8139996739131145
 40
0.8452044676924316
 40
0.875894896980719
 40
0.9066082101322551
 40
0.9377648876226803
 40
0.9689964676640489
 40
1.0
 40
1.031155473147245
 40
1.062753754470133
 40
1.09445982465321
 10
100.7473959081426
 20
148.1032814981295
 30
0.0
 10
100.1075395852353
 20
148.6424401669161
 30
0.0
 10
99.58353599116803
 20
149.2982264577484
 30
0.0
 10
99.19679398571772
 20
150.0501976017521
 30
0.0
 10
98.95254945586724
 20
150.8627265307925
 30
0.0
 10
98.87343591264117
 20
151.7062732079811
 30
0.0
 10
98.95751650939222
 20
152.5494541850931
 30
0.0
 10
99.20674940804473
 20
153.3601744044142
 30
0.0
 10
99.59811846328343
 20
154.1095935615205
 30
0.0
 10
100.1262624373079
 20
154.7615167698293
 30
0.0
 10
100.7694995009657
 20
155.2961386864108
 30
0.0
 10
101.5082524429233
 20
155.6890045188492
 30
0.0
 10
102.3057455869753
 20
155.9364921683303
 30
0.0
 10
103.132330972742
 20
156.0147047122141
 30
0.0
 10
103.9578490312949
 20
155.9257539578659
 30
0.0
 10
104.7499891806566
 20
155.6697557776612
 30
0.0
 10
105.4825120379394
 20
155.2703346387684
 30
0.0
 10
106.1183353326706
 20
154.7331660761101
 30
0.0
 10
106.6395605127395
 20
154.0802169058011
 30
0.0
 10
107.0237849581795
 20
153.3308239021089
 30
0.0
 10
107.266324835653
 20
152.5202757754081
 30
0.0
 10
107.3443911582447
 20
151.6779271663862
 30
0.0
 10
107.2595854979077
 20
150.8356880511252
 30
0.0
 10
107.0108950573143
 20
150.026031730385
 30
0.0
 10
106.6212911340937
 20
149.2781559040421
 30
0.0
 10
106.0957286496469
 20
148.628618899478
 30
0.0
 10
105.4570613736829
 20
148.0963413928725
 30
0.0
 10
104.723807893934
 20
147.702920248284
 30
0.0
 10
103.9313002590291
 20
147.453525330459
 30
0.0
 10
103.1064192839885
 20
147.3702433489414
 30
0.0
 10
102.2801770124079
 20
147.4532159992751
 30
0.0
 10
101.4841138586063
 20
147.7056759258658
 30
0.0
 10
100.7473959081426
 20
148.1032814981295
 30
0.0
 10
100.1075395852353
 20
148.6424401669161
 30
0.0
 10
99.58353599116803
 20
149.2982264577484
 30
0.0
  0
SPLINE
  5
214
330
1F
100
AcDbEntity
  8
0
  6
Continuous
 62
     7
370
    15
100
AcDbSpline
210
0.0
220
0.0
230
1.0
 70
     8
 71
     3
 72
    42
 73
    38
 74
     0
 42
0.00000001
 43
0.00000001
 12
1.0
 22
0.0
 32
0.0
 13
1.0
 23
0.0
 33
0.0
 40
-0.0859316077047435
 40
-0.0609210129794205
 40
-0.0322766215309858
 40
0.0
 40
0.0284830185762872
 40
0.0552061382280332
 40
0.0801799849750243
 40
0.1034178158163022
 40
0.1249363295288254
 40
0.1563046582698515
 40
0.1979442359261424
 40
0.2498399451117831
 40
0.2789581882222653
 40
0.3060722232706705
 40
0.3311961507198826
 40
0.3543480221193828
 40
0.3755512447886007
 40
0.4116849506421418
 40
0.4530713442967321
 40
0.4997879465802594
 40
0.5273607820299948
 40
0.552267281468619
 40
0.574507551317974
 40
0.5940825938090333
 40
0.6109947616296124
 40
0.6252486355463573
 40
0.6621224546583179
 40
0.7036628370070499
 40
0.7499274679872661
 40
0.7824264722375788
 40
0.8111789303637421
 40
0.836182874065584
 40
0.857437910442864
 40
0.8749461318778488
 40
0.892691595361965
 40
0.9140683922952565
 40
0.9390789870205795
 40
0.9677233784690142
 40
1.0
 40
1.028483018576287
 40
1.055206138228033
 40
1.080179984975024
 10
99.99400185880975
 20
149.5988913463743
 30
0.0
 10
100.4396299994097
 20
149.0502956211317
 30
0.0
 10
100.968906117487
 20
148.6067400451588
 30
0.0
 10
101.5172821468666
 20
148.2899526351583
 30
0.0
 10
102.0709505163219
 20
148.0809062845136
 30
0.0
 10
102.6094432605959
 20
147.9666119658068
 30
0.0
 10
103.2082146917146
 20
147.9256732051075
 30
0.0
 10
103.9503728385649
 20
147.9987249572156
 30
0.0
 10
104.8846154746466
 20
148.3153393246363
 30
0.0
 10
105.677097314262
 20
148.8816005121257
 30
0.0
 10
106.220700189985
 20
149.530616621285
 30
0.0
 10
106.5394575651474
 20
150.0847419112459
 30
0.0
 10
106.7473617312241
 20
150.6403737144436
 30
0.0
 10
106.859588678279
 20
151.1764469000853
 30
0.0
 10
106.9020346063722
 20
151.809786827465
 30
0.0
 10
106.8129795056595
 20
152.5883796375427
 30
0.0
 10
106.4678409497131
 20
153.5104234540925
 30
0.0
 10
105.9241623366585
 20
154.2481123047653
 30
0.0
 10
105.3327956367386
 20
154.7500945741359
 30
0.0
 10
104.8310692343928
 20
155.0511894708632
 30
0.0
 10
104.3483768700386
 20
155.2513324312025
 30
0.0
 10
103.9038722140019
 20
155.3707129593932
 30
0.0
 10
103.5101438638846
 20
155.4294341869505
 30
0.0
 10
102.9765323693458
 20
155.4563995509561
 30
0.0
 10
102.2447791726071
 20
155.3754101884368
 30
0.0
 10
101.3159088976125
 20
155.0280081600395
 30
0.0
 10
100.5436204198279
 20
154.4586756485152
 30
0.0
 10
100.0046241417786
 20
153.8021891556122
 30
0.0
 10
99.68091796396328
 20
153.202737786157
 30
0.0
 10
99.49144086886703
 20
152.6420496050343
 30
0.0
 10
99.40123840802829
 20
152.1473852297258
 30
0.0
 10
99.37526336459038
 20
151.7027949633026
 30
0.0
 10
99.39873230088021
 20
151.2570663590053
 30
0.0
 10
99.48715348025357
 20
150.7591247891378
 30
0.0
 10
99.67435232973534
 20
150.1974619869448
 30
0.0
 10
99.99400185880975
 20
149.5988913463743
 30
0.0
 10
100.4396299994097
 20
149.0502956211317
 30
0.0
 10
100.968906117487
 20
148.6067400451588
 30
0.0
  0
ARC
  5
215
330
1F
100
AcDbEntity
  8
0
  6
Continuous
 62
     7
370
    15
100
AcDbCircle
 10
88.9329529633
 20
146.822444452
 30
0.0
 40
1.400000000000006
100
AcDbArc
 50
270.0
 51
0.0
  0
ARC
  5
216
330
1F
100
AcDbEntity
  8
0
  6
Continuous
 62
     7
370
    15
100
AcDbCircle
 10
88.9329529633
 20
156.562444452
 30
0.0
 40
1.400000000000006
100
AcDbArc
 50
0.0
 51
90.0
  0
LINE
  5
217
330
1F
100
AcDbEntity
  8
0
  6
Continuous
 62
     7
370
    15
100
AcDbLine
 10
81.3829521139
 20
157.9624442318
 30
0.0
 11
81.3829521139
 21
160.9668591925
 31
0.0
  0
LINE
  5
218
330
1F
100
AcDbEntity
  8
0
  6
Continuous
 62
     7
370
    15
100
AcDbLine
 10
81.3829521139
 20
157.9624442318
 30
0.0
 11
80.2329531361
 21
159.1124446065
 31
0.0
  0
LINE
  5
219
330
1F
100
AcDbEntity
  8
0
  6
Continuous
 62
     7
370
    15
100
AcDbLine
 10
80.2329531361
 20
159.1124446065
 30
0.0
 11
80.2329531361
 21
160.6084415623
 31
0.0
  0
SPLINE
  5
21A
330
1F
100
AcDbEntity
  8
0
  6
Continuous
 62
     7
370
    15
100
AcDbSpline
210
0.0
220
0.0
230
1.0
 70
     8
 71
     3
 72
    10
 73
     6
 74
     0
 42
0.00000001
 43
0.00000001
 12
1.0
 22
0.0
 32
0.0
 13
1.0
 23
0.0
 33
0.0
 40
0.0
 40
0.0
 40
0.0
 40
0.0
 40
0.5
 40
0.5
 40
1.0
 40
1.0
 40
1.0
 40
1.0
 10
80.23295296328314
 20
160.6084414258554
 30
0.0
 10
80.23295296328311
 20
160.7358055439066
 30
0.0
 10
80.23827252391138
 20
160.8631363562459
 30
0.0
 10
80.251400756193
 20
161.1180544174668
 30
0.0
 10
80.259093410847
 20
161.2461004400279
 30
0.0
 10
80.26323057889222
 20
161.3673286961386
 30
0.0
  0
SPLINE
  5
21B
330
1F
100
AcDbEntity
  8
0
  6
Continuous
 62
     7
370
    15
100
AcDbSpline
210
0.0
220
0.0
230
1.0
 70
     8
 71
     3
 72
     8
 73
     4
 74
     0
 42
0.00000001
 43
0.00000001
 12
1.0
 22
0.0
 32
0.0
 13
1.0
 23
0.0
 33
0.0
 40
0.0
 40
0.0
 40
0.0
 40
0.0
 40
1.0
 40
1.0
 40
1.0
 40
1.0
 10
81.17186253348274
 20
161.6780991274786
 30
0.0
 10
81.20757619185264
 20
161.4439431009
 30
0.0
 10
81.28324423080092
 20
161.2197171937216
 30
0.0
 10
81.37290803287405
 20
160.9920876845055
 30
0.0
  0
LINE
  5
21C
330
1F
100
AcDbEntity
  8
0
  6
Continuous
 62
     7
370
    15
100
AcDbLine
 10
81.3829521139
 20
145.4224446722
 30
0.0
 11
81.3829521139
 21
142.4180297115
 31
0.0
  0
LINE
  5
21D
330
1F
100
AcDbEntity
  8
0
  6
Continuous
 62
     7
370
    15
100
AcDbLine
 10
88.9329532583
 20
145.4224446722
 30
0.0
 11
81.3829521139
 21
145.4224446722
 31
0.0
  0
SPLINE
  5
21E
330
1F
100
AcDbEntity
  8
0
  6
Continuous
 62
     7
370
    15
100
AcDbSpline
210
0.0
220
0.0
230
1.0
 70
     8
 71
     3
 72
     8
 73
     4
 74
     0
 42
0.00000001
 43
0.00000001
 12
1.0
 22
0.0
 32
0.0
 13
1.0
 23
0.0
 33
0.0
 40
0.0
 40
0.0
 40
0.0
 40
0.0
 40
1.0
 40
1.0
 40
1.0
 40
1.0
 10
81.17186253348274
 20
141.7067897765141
 30
0.0
 10
81.20757619185264
 20
141.9409458030927
 30
0.0
 10
81.28324423080092
 20
142.1651717102711
 30
0.0
 10
81.37290803287405
 20
142.3928012194873
 30
0.0
  0
SPLINE
  5
21F
330
1F
100
AcDbEntity
  8
0
  6
Continuous
 62
     7
370
    15
100
AcDbSpline
210
0.0
220
0.0
230
1.0
 70
     8
 71
     3
 72
    10
 73
     6
 74
     0
 42
0.00000001
 43
0.00000001
 12
1.0
 22
0.0
 32
0.0
 13
1.0
 23
0.0
 33
0.0
 40
0.0
 40
0.0
 40
0.0
 40
0.0
 40
0.5
 40
0.5
 40
1.0
 40
1.0
 40
1.0
 40
1.0
 10
80.23295296328314
 20
142.7764474781373
 30
0.0
 10
80.23295296328311
 20
142.6490833600862
 30
0.0
 10
80.23827252391138
 20
142.5217525477468
 30
0.0
 10
80.251400756193
 20
142.2668344865259
 30
0.0
 10
80.259093410847
 20
142.1387884639649
 30
0.0
 10
80.26323057889222
 20
142.0175602078542
 30
0.0
  0
LINE
  5
220
330
1F
100
AcDbEntity
  8
0
  6
Continuous
 62
     7
370
    15
100
AcDbLine
 10
80.2329531361
 20
144.2724442975
 30
0.0
 11
80.2329531361
 21
142.7764473417
 31
0.0
  0
LINE
  5
221
330
1F
100
AcDbEntity
  8
0
  6
Continuous
 62
     7
370
    15
100
AcDbLine
 10
81.3829521139
 20
145.4224446722
 30
0.0
 11
80.2329531361
 21
144.2724442975
 31
0.0
  0
LINE
  5
222
330
1F
100
AcDbEntity
  8
0
  6
Continuous
 62
     7
370
    15
100
AcDbLine
 10
88.9329532583
 20
157.9624442318
 30
0.0
 11
81.3829521139
 21
157.9624442318
 31
0.0
  0
LINE
  5
223
330
1F
100
AcDbEntity
  8
0
  6
Continuous
 62
     7
370
    15
100
AcDbLine
 10
80.2329531361
 20
130.1113944435
 30
0.0
 11
80.2329531361
 21
142.7764473417
 31
0.0
  0
SPLINE
  5
224
330
1F
100
AcDbEntity
  8
0
  6
Continuous
 62
     7
370
    15
100
AcDbSpline
210
0.0
220
0.0
230
1.0
 70
     8
 71
     3
 72
    26
 73
    22
 74
     0
 42
0.00000001
 43
0.00000001
 12
1.0
 22
0.0
 32
0.0
 13
1.0
 23
0.0
 33
0.0
 40
0.0
 40
0.0
 40
0.0
 40
0.0
 40
0.24999999999999
 40
0.24999999999999
 40
0.3749999999999855
 40
0.3749999999999855
 40
0.4374999999999828
 40
0.4374999999999828
 40
0.4687499999999823
 40
0.4687499999999823
 40
0.4999999999999817
 40
0.4999999999999817
 40
0.5312499999999811
 40
0.5312499999999811
 40
0.5624999999999805
 40
0.5624999999999805
 40
0.6249999999999835
 40
0.6249999999999835
 40
0.7499999999999892
 40
0.7499999999999892
 40
1.0
 40
1.0
 40
1.0
 40
1.0
 10
80.26323057889222
 20
142.0175602078542
 30
0.0
 10
80.27395461228474
 20
141.7033220980065
 30
0.0
 10
80.28868760287929
 20
141.3882490513738
 30
0.0
 10
80.3410411621263
 20
140.9093385314594
 30
0.0
 10
80.36274644484592
 20
140.7477632875857
 30
0.0
 10
80.42160195221133
 20
140.5070508685484
 30
0.0
 10
80.4450641860585
 20
140.4264029672838
 30
0.0
 10
80.50118556271916
 20
140.3165855031183
 30
0.0
 10
80.5239728728498
 20
140.2819855360344
 30
0.0
 10
80.57922542538101
 20
140.2352284464792
 30
0.0
 10
80.61063165812185
 20
140.2265732677657
 30
0.0
 10
80.66556547874227
 20
140.2353186204152
 30
0.0
 10
80.68998929694173
 20
140.2502933830381
 30
0.0
 10
80.73340440292895
 20
140.2874762220682
 30
0.0
 10
80.75297896549722
 20
140.3103742359631
 30
0.0
 10
80.80661164944519
 20
140.3838982856738
 30
0.0
 10
80.83638899749737
 20
140.4397935873784
 30
0.0
 10
80.91792305747018
 20
140.6164534721467
 30
0.0
 10
80.96116585214419
 20
140.7460602820388
 30
0.0
 10
81.07422044179889
 20
141.1419068212424
 30
0.0
 10
81.12823143927805
 20
141.4207232092579
 30
0.0
 10
81.17186253348207
 20
141.7067897765146
 30
0.0
  0
LINE
  5
225
330
1F
100
AcDbEntity
  8
0
  6
Continuous
 62
     7
370
    15
100
AcDbLine
 10
80.2329531361
 20
160.6084415623
 30
0.0
 11
80.2329531361
 21
173.2734944605
 31
0.0
  0
SPLINE
  5
226
330
1F
100
AcDbEntity
  8
0
  6
Continuous
 62
     7
370
    15
100
AcDbSpline
210
0.0
220
0.0
230
1.0
 70
     8
 71
     3
 72
    26
 73
    22
 74
     0
 42
0.00000001
 43
0.00000001
 12
1.0
 22
0.0
 32
0.0
 13
1.0
 23
0.0
 33
0.0
 40
0.0
 40
0.0
 40
0.0
 40
0.0
 40
0.24999999999999
 40
0.24999999999999
 40
0.3749999999999855
 40
0.3749999999999855
 40
0.4374999999999828
 40
0.4374999999999828
 40
0.4687499999999823
 40
0.4687499999999823
 40
0.4999999999999817
 40
0.4999999999999817
 40
0.5312499999999811
 40
0.5312499999999811
 40
0.5624999999999805
 40
0.5624999999999805
 40
0.6249999999999835
 40
0.6249999999999835
 40
0.7499999999999892
 40
0.7499999999999892
 40
1.0
 40
1.0
 40
1.0
 40
1.0
 10
80.26323057889222
 20
161.3673286961386
 30
0.0
 10
80.27395461228474
 20
161.6815668059862
 30
0.0
 10
80.28868760287929
 20
161.9966398526189
 30
0.0
 10
80.3410411621263
 20
162.4755503725333
 30
0.0
 10
80.36274644484592
 20
162.637125616407
 30
0.0
 10
80.42160195221133
 20
162.8778380354443
 30
0.0
 10
80.4450641860585
 20
162.9584859367089
 30
0.0
 10
80.50118556271916
 20
163.0683034008744
 30
0.0
 10
80.5239728728498
 20
163.1029033679583
 30
0.0
 10
80.57922542538101
 20
163.1496604575135
 30
0.0
 10
80.61063165812185
 20
163.158315636227
 30
0.0
 10
80.66556547874227
 20
163.1495702835775
 30
0.0
 10
80.68998929694173
 20
163.1345955209547
 30
0.0
 10
80.73340440292895
 20
163.0974126819245
 30
0.0
 10
80.75297896549722
 20
163.0745146680296
 30
0.0
 10
80.80661164944519
 20
163.0009906183189
 30
0.0
 10
80.83638899749737
 20
162.9450953166143
 30
0.0
 10
80.91792305747018
 20
162.768435431846
 30
0.0
 10
80.96116585214419
 20
162.6388286219539
 30
0.0
 10
81.07422044179889
 20
162.2429820827503
 30
0.0
 10
81.12823143927805
 20
161.9641656947348
 30
0.0
 10
81.17186253348207
 20
161.6780991274782
 30
0.0
  0
SPLINE
  5
227
330
1F
100
AcDbEntity
  8
0
  6
Continuous
 62
     7
370
    15
100
AcDbSpline
210
0.0
220
0.0
230
1.0
 70
     8
 71
     3
 72
     9
 73
     5
 74
     0
 42
0.00000001
 43
0.00000001
 12
1.0
 22
0.0
 32
0.0
 13
1.0
 23
0.0
 33
0.0
 40
0.0
 40
0.0
 40
0.0
 40
0.0
 40
0.5131028265951941
 40
1.0
 40
1.0
 40
1.0
 40
1.0
 10
101.232460183373
 20
148.4716897764292
 30
0.0
 10
100.9019661515491
 20
148.697460502698
 30
0.0
 10
100.2578573790112
 20
149.1374711878213
 30
0.0
 10
99.90248582658536
 20
149.8318802507874
 30
0.0
 10
99.72945642220073
 20
150.1699860607323
 30
0.0
  0
LINE
  5
228
330
1F
100
AcDbEntity
  8
0
  6
Continuous
 62
     7
370
    15
100
AcDbLine
 10
105.8181826447
 20
154.3048743558
 30
0.0
 11
105.8879550037
 21
154.236548108
 31
0.0
  0
SPLINE
  5
229
330
1F
100
AcDbEntity
  8
0
  6
Continuous
 62
     7
370
    15
100
AcDbSpline
210
0.0
220
0.0
230
1.0
 70
     8
 71
     3
 72
    18
 73
    14
 74
     0
 42
0.00000001
 43
0.00000001
 12
1.0
 22
0.0
 32
0.0
 13
1.0
 23
0.0
 33
0.0
 40
0.0
 40
0.0
 40
0.0
 40
0.0
 40
0.2499999999999974
 40
0.2499999999999974
 40
0.3749999999999971
 40
0.3749999999999971
 40
0.4999999999999968
 40
0.4999999999999968
 40
0.6249999999999964
 40
0.6249999999999964
 40
0.7499999999999961
 40
0.7499999999999961
 40
1.0
 40
1.0
 40
1.0
 40
1.0
 10
86.33295296328359
 20
146.8224444519964
 30
0.0
 10
86.33295296328359
 20
146.6402566705656
 30
0.0
 10
86.29804227189142
 20
146.463017317168
 30
0.0
 10
86.19603297055836
 20
146.211876628856
 30
0.0
 10
86.15439661588026
 20
146.1323902898091
 30
0.0
 10
86.0559908203915
 20
145.9816797318022
 30
0.0
 10
85.99844760868721
 20
145.9097427878167
 30
0.0
 10
85.87114943511428
 20
145.7793286638767
 30
0.0
 10
85.8015621303568
 20
145.720646613299
 30
0.0
 10
85.65012788520185
 20
145.6165835587532
 30
0.0
 10
85.56744398210789
 20
145.5710315092059
 30
0.0
 10
85.31133252006984
 20
145.4618263070288
 30
0.0
 10
85.12341751618186
 20
145.4224444519964
 30
0.0
 10
84.93295296328358
 20
145.4224444519964
 30
0.0
  0
LINE
  5
22A
330
1F
100
AcDbEntity
  8
0
  6
Continuous
 62
     7
370
    15
100
AcDbLine
 10
86.3329520871
 20
146.8224446223
 30
0.0
 11
86.3329520871
 21
156.5624442817
 31
0.0
  0
SPLINE
  5
22B
330
1F
100
AcDbEntity
  8
0
  6
Continuous
 62
     7
370
    15
100
AcDbSpline
210
0.0
220
0.0
230
1.0
 70
     8
 71
     3
 72
    18
 73
    14
 74
     0
 42
0.00000001
 43
0.00000001
 12
1.0
 22
0.0
 32
0.0
 13
1.0
 23
0.0
 33
0.0
 40
0.0
 40
0.0
 40
0.0
 40
0.0
 40
0.2500000000000009
 40
0.2500000000000009
 40
0.3750000000000007
 40
0.3750000000000007
 40
0.5000000000000006
 40
0.5000000000000006
 40
0.6250000000000003
 40
0.6250000000000003
 40
0.7500000000000001
 40
0.7500000000000001
 40
1.0
 40
1.0
 40
1.0
 40
1.0
 10
86.33295296328359
 20
156.5624444519964
 30
0.0
 10
86.33295296328359
 20
156.7446322334272
 30
0.0
 10
86.2980422718914
 20
156.9218715868248
 30
0.0
 10
86.19603297055836
 20
157.1730122751368
 30
0.0
 10
86.15439661588026
 20
157.2524986141837
 30
0.0
 10
86.0559908203915
 20
157.4032091721905
 30
0.0
 10
85.99844760868721
 20
157.475146116176
 30
0.0
 10
85.87114943511428
 20
157.6055602401161
 30
0.0
 10
85.8015621303568
 20
157.6642422906937
 30
0.0
 10
85.65012788520187
 20
157.7683053452396
 30
0.0
 10
85.5674439821079
 20
157.8138573947868
 30
0.0
 10
85.31133252006984
 20
157.9230625969639
 30
0.0
 10
85.12341751618186
 20
157.9624444519964
 30
0.0
 10
84.93295296328358
 20
157.9624444519964
 30
0.0
  0
LINE
  5
22C
330
1F
100
AcDbEntity
  8
0
  6
Continuous
 62
     7
370
    15
100
AcDbLine
 10
200.9176252832
 20
125.6931647592
 30
0.0
 11
209.5084054817
 21
146.7324444027
 31
0.0
  0
LINE
  5
22D
330
1F
100
AcDbEntity
  8
0
  6
Continuous
 62
     7
370
    15
100
AcDbLine
 10
196.726591741
 20
151.3924444377
 30
0.0
 11
196.726591741
 21
148.992444382
 31
0.0
  0
LINE
  5
22E
330
1F
100
AcDbEntity
  8
0
  6
Continuous
 62
     7
370
    15
100
AcDbLine
 10
196.2651847352
 20
146.7324444027
 30
0.0
 11
196.726591741
 21
148.992444382
 31
0.0
  0
LINE
  5
22F
330
1F
100
AcDbEntity
  8
0
  6
Continuous
 62
     7
370
    15
100
AcDbLine
 10
196.726591741
 20
146.7324444027
 30
0.0
 11
196.2651847352
 21
146.7324444027
 31
0.0
  0
LINE
  5
230
330
1F
100
AcDbEntity
  8
0
  6
Continuous
 62
     7
370
    15
100
AcDbLine
 10
196.726591741
 20
151.3924444377
 30
0.0
 11
182.1279762735
 21
151.3924444377
 31
0.0
  0
LINE
  5
231
330
1F
100
AcDbEntity
  8
0
  6
HIDDEN
 62
     7
370
     0
100
AcDbLine
 10
199.1444690575
 20
151.2170043068
 30
0.0
 11
199.7504173269
 21
151.2170043068
 31
0.0
  0
LINE
  5
232
330
1F
100
AcDbEntity
  8
0
  6
HIDDEN
 62
     7
370
     0
100
AcDbLine
 10
194.5004178633
 20
151.2170043068
 30
0.0
 11
199.1444690575
 21
151.2170043068
 31
0.0
  0
LINE
  5
233
330
1F
100
AcDbEntity
  8
0
  6
HIDDEN
 62
     7
370
     0
100
AcDbLine
 10
199.1444690575
 20
150.492444395
 30
0.0
 11
199.7504173269
 21
150.492444395
 31
0.0
  0
LINE
  5
234
330
1F
100
AcDbEntity
  8
0
  6
HIDDEN
 62
     7
370
     0
100
AcDbLine
 10
194.5004178633
 20
150.492444395
 30
0.0
 11
199.1444690575
 21
150.492444395
 31
0.0
  0
LINE
  5
235
330
1F
100
AcDbEntity
  8
0
  6
HIDDEN
 62
     7
370
     0
100
AcDbLine
 10
198.6637426962
 20
147.692444262
 30
0.0
 11
199.1254179229
 21
147.692444262
 31
0.0
  0
LINE
  5
236
330
1F
100
AcDbEntity
  8
0
  6
HIDDEN
 62
     7
370
     0
100
AcDbLine
 10
195.1254172673
 20
147.692444262
 30
0.0
 11
198.6637426962
 21
147.692444262
 31
0.0
  0
LINE
  5
237
330
1F
100
AcDbEntity
  8
0
  6
HIDDEN
 62
     7
370
     0
100
AcDbLine
 10
198.6637426962
 20
142.592444078
 30
0.0
 11
199.1254179229
 21
142.592444078
 31
0.0
  0
LINE
  5
238
330
1F
100
AcDbEntity
  8
0
  6
HIDDEN
 62
     7
370
     0
100
AcDbLine
 10
195.1254172673
 20
142.592444078
 30
0.0
 11
198.6637426962
 21
142.592444078
 31
0.0
  0
LINE
  5
239
330
1F
100
AcDbEntity
  8
0
  6
HIDDEN
 62
     7
370
     0
100
AcDbLine
 10
198.5868229021
 20
142.4924442479
 30
0.0
 11
199.0254162301
 21
142.4924442479
 31
0.0
  0
LINE
  5
23A
330
1F
100
AcDbEntity
  8
0
  6
HIDDEN
 62
     7
370
     0
100
AcDbLine
 10
195.22541896
 20
142.4924442479
 30
0.0
 11
198.5868229021
 21
142.4924442479
 31
0.0
  0
SPLINE
  5
23B
330
1F
100
AcDbEntity
  8
0
  6
HIDDEN
 62
     7
370
     0
100
AcDbSpline
210
0.0
220
0.0
230
1.0
 70
     8
 71
     3
 72
    12
 73
     8
 74
     0
 42
0.00000001
 43
0.00000001
 12
1.0
 22
0.0
 32
0.0
 13
1.0
 23
0.0
 33
0.0
 40
0.0
 40
0.0
 40
0.0
 40
0.0
 40
0.2058385850019946
 40
0.412065089267402
 40
0.6141386288004534
 40
0.8132771872472984
 40
0.9999999999999999
 40
0.9999999999999999
 40
0.9999999999999999
 40
0.9999999999999999
 10
196.4702694167405
 20
151.4542321026374
 30
0.0
 10
196.5261446560868
 20
151.4444701903332
 30
0.0
 10
196.6380004361335
 20
151.4249279686209
 30
0.0
 10
196.8377138289114
 20
151.4092387532682
 30
0.0
 10
197.0304769456738
 20
151.4103986364837
 30
0.0
 10
197.1986386558373
 20
151.4269723588816
 30
0.0
 10
197.2751920830112
 20
151.4453425521195
 30
0.0
 10
197.312237178257
 20
151.4542321026374
 30
0.0
  0
LINE
  5
23C
330
1F
100
AcDbEntity
  8
0
  6
HIDDEN
 62
     7
370
     0
100
AcDbLine
 10
197.3122371783
 20
150.0924444924
 30
0.0
 11
196.4702694167
 21
150.0924444924
 31
0.0
  0
SPLINE
  5
23D
330
1F
100
AcDbEntity
  8
0
  6
HIDDEN
 62
     7
370
     0
100
AcDbSpline
210
0.0
220
0.0
230
1.0
 70
     8
 71
     3
 72
    11
 73
     7
 74
     0
 42
0.00000001
 43
0.00000001
 12
1.0
 22
0.0
 32
0.0
 13
1.0
 23
0.0
 33
0.0
 40
0.0
 40
0.0
 40
0.0
 40
0.0
 40
0.2657607194148847
 40
0.5530050889545043
 40
0.841821380252036
 40
1.0
 40
1.0
 40
1.0
 40
1.0
 10
197.761775409153
 20
151.4924444570488
 30
0.0
 10
197.7900009824645
 20
151.4911316689094
 30
0.0
 10
197.8487338370199
 20
151.4883999690427
 30
0.0
 10
197.906214582988
 20
151.4782546915073
 30
0.0
 10
197.9291978127713
 20
151.4661478700168
 30
0.0
 10
197.9252022121631
 20
151.4572738256728
 30
0.0
 10
197.9237882842331
 20
151.4541335570675
 30
0.0
  0
SPLINE
  5
23E
330
1F
100
AcDbEntity
  8
0
  6
HIDDEN
 62
     7
370
     0
100
AcDbSpline
210
0.0
220
0.0
230
1.0
 70
     8
 71
     3
 72
    11
 73
     7
 74
     0
 42
0.00000001
 43
0.00000001
 12
1.0
 22
0.0
 32
0.0
 13
1.0
 23
0.0
 33
0.0
 40
0.0
 40
0.0
 40
0.0
 40
0.0
 40
0.2928981269322496
 40
0.5864403578238309
 40
0.8775304343458574
 40
1.0
 40
1.0
 40
1.0
 40
1.0
 10
197.312237178257
 20
151.4542321026374
 30
0.0
 10
197.3361789249625
 20
151.45993987615
 30
0.0
 10
197.3841150679892
 20
151.471367974978
 30
0.0
 10
197.4881932990474
 20
151.483789024631
 30
0.0
 10
197.5804414887346
 20
151.490268807559
 30
0.0
 10
197.6336376081767
 20
151.4919473743448
 30
0.0
 10
197.649390851429
 20
151.4924444570488
 30
0.0
  0
LINE
  5
23F
330
1F
100
AcDbEntity
  8
0
  6
HIDDEN
 62
     7
370
     0
100
AcDbLine
 10
197.926351284
 20
150.0924444924
 30
0.0
 11
197.3122371783
 21
150.0924444924
 31
0.0
  0
SPLINE
  5
240
330
1F
100
AcDbEntity
  8
0
  6
HIDDEN
 62
     7
370
     0
100
AcDbSpline
210
0.0
220
0.0
230
1.0
 70
     8
 71
     3
 72
     9
 73
     5
 74
     0
 42
0.00000001
 43
0.00000001
 12
1.0
 22
0.0
 32
0.0
 13
1.0
 23
0.0
 33
0.0
 40
0.0
 40
0.0
 40
0.0
 40
0.0
 40
0.7300521404178655
 40
1.0
 40
1.0
 40
1.0
 40
1.0
 10
195.9682492961197
 20
151.4541335570675
 30
0.0
 10
195.9528947955061
 20
151.4600254299753
 30
0.0
 10
195.9318627352413
 20
151.4680959123171
 30
0.0
 10
195.9364900380787
 20
151.4735527407996
 30
0.0
 10
195.9377391685753
 20
151.4750257999685
 30
0.0
  0
SPLINE
  5
241
330
1F
100
AcDbEntity
  8
0
  6
HIDDEN
 62
     7
370
     0
100
AcDbSpline
210
0.0
220
0.0
230
1.0
 70
     8
 71
     3
 72
    11
 73
     7
 74
     0
 42
0.00000001
 43
0.00000001
 12
1.0
 22
0.0
 32
0.0
 13
1.0
 23
0.0
 33
0.0
 40
0.0
 40
0.0
 40
0.0
 40
0.0
 40
0.2668991828360662
 40
0.5546109122349709
 40
0.8439027094090256
 40
1.0
 40
1.0
 40
1.0
 40
1.0
 10
196.1042298425942
 20
151.4924444570488
 30
0.0
 10
196.1360556364538
 20
151.4911269842359
 30
0.0
 10
196.202188969563
 20
151.4883893033227
 30
0.0
 10
196.3138934420921
 20
151.4782237691604
 30
0.0
 10
196.4062294142597
 20
151.46614626912
 30
0.0
 10
196.4536498036679
 20
151.4573240581239
 30
0.0
 10
196.4702694167405
 20
151.4542321026374
 30
0.0
  0
LINE
  5
242
330
1F
100
AcDbEntity
  8
0
  6
HIDDEN
 62
     7
370
     0
100
AcDbLine
 10
196.4702694167
 20
150.0924444924
 30
0.0
 11
195.9332464685
 21
150.0924444924
 31
0.0
  0
SPLINE
  5
243
330
1F
100
AcDbEntity
  8
0
  6
HIDDEN
 62
     7
370
     0
100
AcDbSpline
210
0.0
220
0.0
230
1.0
 70
     8
 71
     3
 72
     9
 73
     5
 74
     0
 42
0.00000001
 43
0.00000001
 12
1.0
 22
0.0
 32
0.0
 13
1.0
 23
0.0
 33
0.0
 40
0.0
 40
0.0
 40
0.0
 40
0.0
 40
0.4249497148418118
 40
1.0
 40
1.0
 40
1.0
 40
1.0
 10
195.5580799330979
 20
151.4735528551091
 30
0.0
 10
195.5713138605958
 20
151.4712109025932
 30
0.0
 10
195.6024561982316
 20
151.4656997740193
 30
0.0
 10
195.6462780191613
 20
151.4582143749816
 30
0.0
 10
195.6714777697831
 20
151.4539098941304
 30
0.0
  0
SPLINE
  5
244
330
1F
100
AcDbEntity
  8
0
  6
HIDDEN
 62
     7
370
     0
100
AcDbSpline
210
0.0
220
0.0
230
1.0
 70
     8
 71
     3
 72
    10
 73
     6
 74
     0
 42
0.00000001
 43
0.00000001
 12
1.0
 22
0.0
 32
0.0
 13
1.0
 23
0.0
 33
0.0
 40
0.0
 40
0.0
 40
0.0
 40
0.0
 40
0.3351683881995203
 40
0.6709603571841515
 40
1.0
 40
1.0
 40
1.0
 40
1.0
 10
195.6714777697831
 20
151.4539098941304
 30
0.0
 10
195.728895293909
 20
151.4442175753881
 30
0.0
 10
195.8438371674642
 20
151.4248149053446
 30
0.0
 10
195.9696965360018
 20
151.4082623664014
 30
0.0
 10
196.0042090062703
 20
151.4113589250462
 30
0.0
 10
196.0212899793892
 20
151.4128914793537
 30
0.0
  0
SPLINE
  5
245
330
1F
100
AcDbEntity
  8
0
  6
HIDDEN
 62
     7
370
     0
100
AcDbSpline
210
0.0
220
0.0
230
1.0
 70
     8
 71
     3
 72
     9
 73
     5
 74
     0
 42
0.00000001
 43
0.00000001
 12
1.0
 22
0.0
 32
0.0
 13
1.0
 23
0.0
 33
0.0
 40
0.0
 40
0.0
 40
0.0
 40
0.0
 40
0.3409494209261432
 40
1.0
 40
1.0
 40
1.0
 40
1.0
 10
196.0217593659668
 20
151.4212759436623
 30
0.0
 10
196.0235168565845
 20
151.4236262134175
 30
0.0
 10
196.0286715525889
 20
151.4305195225448
 30
0.0
 10
195.9922517729684
 20
151.4447529852376
 30
0.0
 10
195.9682492961198
 20
151.4541335570675
 30
0.0
  0
LINE
  5
246
330
1F
100
AcDbEntity
  8
0
  6
HIDDEN
 62
     7
370
     0
100
AcDbLine
 10
197.9237882842
 20
151.4541335571
 30
0.0
 11
197.9269249787
 21
151.4441367697
 31
0.0
  0
SPLINE
  5
247
330
1F
100
AcDbEntity
  8
0
  6
HIDDEN
 62
     7
370
     0
100
AcDbSpline
210
0.0
220
0.0
230
1.0
 70
     8
 71
     3
 72
    11
 73
     7
 74
     0
 42
0.00000001
 43
0.00000001
 12
1.0
 22
0.0
 32
0.0
 13
1.0
 23
0.0
 33
0.0
 40
0.0
 40
0.0
 40
0.0
 40
0.0
 40
0.2596840645141811
 40
0.514150734779425
 40
0.7648801361361758
 40
1.0
 40
1.0
 40
1.0
 40
1.0
 10
197.932274495533
 20
151.4270661798355
 30
0.0
 10
197.9523515513687
 20
151.4208212739549
 30
0.0
 10
197.992102288594
 20
151.4084569305629
 30
0.0
 10
198.1252715413951
 20
151.4102953184834
 30
0.0
 10
198.2887647186947
 20
151.4266338595021
 30
0.0
 10
198.4102169058743
 20
151.4450147316472
 30
0.0
 10
198.4689919699936
 20
151.4539098941304
 30
0.0
  0
LINE
  5
248
330
1F
100
AcDbEntity
  8
0
  6
HIDDEN
 62
     7
370
     0
100
AcDbLine
 10
198.46899197
 20
150.0924444924
 30
0.0
 11
197.926351284
 21
150.0924444924
 31
0.0
  0
LINE
  5
249
330
1F
100
AcDbEntity
  8
0
  6
HIDDEN
 62
     7
370
     0
100
AcDbLine
 10
195.9332464685
 20
150.0924444924
 30
0.0
 11
195.6714777698
 21
150.0924444924
 31
0.0
  0
SPLINE
  5
24A
330
1F
100
AcDbEntity
  8
0
  6
HIDDEN
 62
     7
370
     0
100
AcDbSpline
210
0.0
220
0.0
230
1.0
 70
     8
 71
     3
 72
     9
 73
     5
 74
     0
 42
0.00000001
 43
0.00000001
 12
1.0
 22
0.0
 32
0.0
 13
1.0
 23
0.0
 33
0.0
 40
0.0
 40
0.0
 40
0.0
 40
0.0
 40
0.3875284675963336
 40
1.0
 40
1.0
 40
1.0
 40
1.0
 10
198.6872716297417
 20
151.4725868553205
 30
0.0
 10
198.6757655824715
 20
151.4705427579353
 30
0.0
 10
198.6460747384888
 20
151.4652680554139
 30
0.0
 10
198.6041767996026
 20
151.458101709418
 30
0.0
 10
198.5785155047684
 20
151.4537125265042
 30
0.0
  0
LINE
  5
24B
330
1F
100
AcDbEntity
  8
0
  6
HIDDEN
 62
     7
370
     0
100
AcDbLine
 10
198.7831009974
 20
150.0924444924
 30
0.0
 11
198.46899197
 21
150.0924444924
 31
0.0
  0
SPLINE
  5
24C
330
1F
100
AcDbEntity
  8
0
  6
HIDDEN
 62
     7
370
     0
100
AcDbSpline
210
0.0
220
0.0
230
1.0
 70
     8
 71
     3
 72
    11
 73
     7
 74
     0
 42
0.00000001
 43
0.00000001
 12
1.0
 22
0.0
 32
0.0
 13
1.0
 23
0.0
 33
0.0
 40
0.0
 40
0.0
 40
0.0
 40
0.0
 40
0.2872693464524017
 40
0.5750819121563776
 40
0.8571022618570198
 40
1.0
 40
1.0
 40
1.0
 40
1.0
 10
198.5785155047684
 20
151.4537125265042
 30
0.0
 10
198.5206736491073
 20
151.4438979127093
 30
0.0
 10
198.4048805602621
 20
151.4242501259269
 30
0.0
 10
198.2852684245847
 20
151.4090592658544
 30
0.0
 10
198.222605524985
 20
151.4082052501297
 30
0.0
 10
198.2268230331517
 20
151.4175723644101
 30
0.0
 10
198.2282413591652
 20
151.4207224761185
 30
0.0
  0
SPLINE
  5
24D
330
1F
100
AcDbEntity
  8
0
  6
HIDDEN
 62
     7
370
     0
100
AcDbSpline
210
0.0
220
0.0
230
1.0
 70
     8
 71
     3
 72
     9
 73
     5
 74
     0
 42
0.00000001
 43
0.00000001
 12
1.0
 22
0.0
 32
0.0
 13
1.0
 23
0.0
 33
0.0
 40
0.0
 40
0.0
 40
0.0
 40
0.0
 40
0.7300148088437814
 40
1.0
 40
1.0
 40
1.0
 40
1.0
 10
198.2817514290123
 20
151.4534884997693
 30
0.0
 10
198.2970997383685
 20
151.4593725042019
 30
0.0
 10
198.3181243931704
 20
151.4674326207384
 30
0.0
 10
198.3135079325577
 20
151.4728751612647
 30
0.0
 10
198.3122615565567
 20
151.474344566609
 30
0.0
  0
LINE
  5
24E
330
1F
100
AcDbEntity
  8
0
  6
HIDDEN
 62
     7
370
     0
100
AcDbLine
 10
195.6714777698
 20
150.0924444924
 30
0.0
 11
195.4668997278
 21
150.0924444924
 31
0.0
  0
LINE
  5
24F
330
1F
100
AcDbEntity
  8
0
  6
HIDDEN
 62
     7
370
     0
100
AcDbLine
 10
196.3277994146
 20
151.459486319
 30
0.0
 11
196.3262124409
 21
151.4534884998
 31
0.0
  0
SPLINE
  5
250
330
1F
100
AcDbEntity
  8
0
  6
HIDDEN
 62
     7
370
     0
100
AcDbSpline
210
0.0
220
0.0
230
1.0
 70
     8
 71
     3
 72
    12
 73
     8
 74
     0
 42
0.00000001
 43
0.00000001
 12
1.0
 22
0.0
 32
0.0
 13
1.0
 23
0.0
 33
0.0
 40
0.0
 40
0.0
 40
0.0
 40
0.0
 40
0.1404239717846619
 40
0.3635914997824444
 40
0.5822696372423141
 40
0.797771677312117
 40
1.0
 40
1.0
 40
1.0
 40
1.0
 10
196.3230757464676
 20
151.4435117940002
 30
0.0
 10
196.3235766863477
 20
151.4374621662969
 30
0.0
 10
196.3248737404047
 20
151.4217982224433
 30
0.0
 10
196.2533820306488
 20
151.408698665738
 30
0.0
 10
196.1259679457925
 20
151.4097306294406
 30
0.0
 10
195.9610245754405
 20
151.4264129153136
 30
0.0
 10
195.8397242565385
 20
151.4448074902321
 30
0.0
 10
195.7810013045578
 20
151.4537125265042
 30
0.0
  0
SPLINE
  5
251
330
1F
100
AcDbEntity
  8
0
  6
HIDDEN
 62
     7
370
     0
100
AcDbSpline
210
0.0
220
0.0
230
1.0
 70
     8
 71
     3
 72
    12
 73
     8
 74
     0
 42
0.00000001
 43
0.00000001
 12
1.0
 22
0.0
 32
0.0
 13
1.0
 23
0.0
 33
0.0
 40
0.0
 40
0.0
 40
0.0
 40
0.0
 40
0.2058455312183483
 40
0.4120703034984139
 40
0.6141410114384249
 40
0.8132593457346325
 40
1.0
 40
1.0
 40
1.0
 40
1.0
 10
197.7797313083916
 20
151.453389663161
 30
0.0
 10
197.7238536427099
 20
151.4436213738429
 30
0.0
 10
197.6119953647092
 20
151.4240667985254
 30
0.0
 10
197.412280368803
 20
151.4083554985537
 30
0.0
 10
197.2195210602162
 20
151.4095176581394
 30
0.0
 10
197.0513610373287
 20
151.4261124718838
 30
0.0
 10
196.974805824289
 20
151.4444938131383
 30
0.0
 10
196.9377560962944
 20
151.453389663161
 30
0.0
  0
LINE
  5
252
330
1F
100
AcDbEntity
  8
0
  6
HIDDEN
 62
     7
370
     0
100
AcDbLine
 10
189.5658908834
 20
151.1392034524
 30
0.0
 11
189.5592449655
 21
151.1388546139
 31
0.0
  0
LINE
  5
253
330
1F
100
AcDbEntity
  8
0
  6
HIDDEN
 62
     7
370
     0
100
AcDbLine
 10
197.2254155626
 20
151.1978254355
 30
0.0
 11
197.2254155626
 21
151.2730513575
 31
0.0
  0
SPLINE
  5
254
330
1F
100
AcDbEntity
  8
0
  6
HIDDEN
 62
     7
370
     0
100
AcDbSpline
210
0.0
220
0.0
230
1.0
 70
    24
 71
     3
 72
     9
 73
     5
 74
     0
 42
0.00000001
 43
0.00000001
 12
1.0
 22
0.0
 32
0.0
 13
1.0
 23
0.0
 33
0.0
 40
0.0
 40
0.0
 40
0.0
 40
0.0
 40
0.6508576314480055
 40
1.0
 40
1.0
 40
1.0
 40
1.0
 10
197.2254155625611
 20
151.1978254354608
 30
0.0
 10
197.2254155625611
 20
151.163684381909
 30
0.0
 10
197.2254155625611
 20
151.1112288956364
 30
0.0
 10
197.2254155625611
 20
151.11846888954
 30
0.0
 10
197.2254155625611
 20
151.1209966781598
 30
0.0
  0
LINE
  5
255
330
1F
100
AcDbEntity
  8
0
  6
HIDDEN
 62
     7
370
     0
100
AcDbLine
 10
204.8915936102
 20
151.1388546139
 30
0.0
 11
204.885379826
 21
151.139159331
 31
0.0
  0
LINE
  5
256
330
1F
100
AcDbEntity
  8
0
  6
HIDDEN
 62
     7
370
     0
100
AcDbLine
 10
198.1425671329
 20
150.4939163503
 30
0.0
 11
200.275415038
 21
150.4939163503
 31
0.0
  0
LINE
  5
257
330
1F
100
AcDbEntity
  8
0
  6
HIDDEN
 62
     7
370
     0
100
AcDbLine
 10
194.1754160871
 20
150.4939163503
 30
0.0
 11
198.1425671329
 21
150.4939163503
 31
0.0
  0
LINE
  5
258
330
1F
100
AcDbEntity
  8
0
  6
HIDDEN
 62
     7
370
     0
100
AcDbLine
 10
208.3886875262
 20
150.6924444045
 30
0.0
 11
211.7329551329
 21
151.2730513575
 31
0.0
  0
SPLINE
  5
259
330
1F
100
AcDbEntity
  8
0
  6
HIDDEN
 62
     7
370
     0
100
AcDbSpline
210
0.0
220
0.0
230
1.0
 70
    24
 71
     3
 72
    14
 73
    10
 74
     0
 42
0.00000001
 43
0.00000001
 12
1.0
 22
0.0
 32
0.0
 13
1.0
 23
0.0
 33
0.0
 40
0.0
 40
0.0
 40
0.0
 40
0.0
 40
0.2086077957146761
 40
0.3652002693397797
 40
0.4768497161218364
 40
0.589019255061629
 40
0.7185661113053463
 40
0.9352577615487597
 40
1.0
 40
1.0
 40
1.0
 40
1.0
 10
187.2599808921128
 20
150.6924444044989
 30
0.0
 10
187.3077797935556
 20
150.6924444044989
 30
0.0
 10
187.3914591767793
 20
150.6924444044989
 30
0.0
 10
187.5060467609568
 20
150.6924444044989
 30
0.0
 10
187.5912611626086
 20
150.6924444044989
 30
0.0
 10
187.6542008104485
 20
150.6924444044989
 30
0.0
 10
187.7025260152927
 20
150.6924444044989
 30
0.0
 10
187.715252014028
 20
150.6924444044989
 30
0.0
 10
187.7151947398548
 20
150.6924444044989
 30
0.0
 10
187.7151815642624
 20
150.6924444044989
 30
0.0
  0
SPLINE
  5
25A
330
1F
100
AcDbEntity
  8
0
  6
HIDDEN
 62
     7
370
     0
100
AcDbSpline
210
0.0
220
0.0
230
1.0
 70
    24
 71
     3
 72
    14
 73
    10
 74
     0
 42
0.00000001
 43
0.00000001
 12
1.0
 22
0.0
 32
0.0
 13
1.0
 23
0.0
 33
0.0
 40
0.0
 40
0.0
 40
0.0
 40
0.0
 40
0.20551876244944
 40
0.3570173542551094
 40
0.4668434919934815
 40
0.577081131075471
 40
0.7093710964722759
 40
0.9240627258083144
 40
1.0
 40
1.0
 40
1.0
 40
1.0
 10
206.7356570114403
 20
150.6924444044989
 30
0.0
 10
206.7367831975755
 20
150.6924444044989
 30
0.0
 10
206.7387395542097
 20
150.6924444044989
 30
0.0
 10
206.7733301669643
 20
150.6924444044989
 30
0.0
 10
206.8269648023365
 20
150.6924444044989
 30
0.0
 10
206.8993250706859
 20
150.6924444044989
 30
0.0
 10
207.0071360310283
 20
150.6924444044989
 30
0.0
 10
207.107893815893
 20
150.6924444044989
 30
0.0
 10
207.1736710189377
 20
150.6924444044989
 30
0.0
 10
207.19085768359
 20
150.6924444044989
 30
0.0
  0
LINE
  5
25B
330
1F
100
AcDbEntity
  8
0
  6
HIDDEN
 62
     7
370
     0
100
AcDbLine
 10
187.7151815643
 20
150.6924444045
 30
0.0
 11
187.7148760905
 21
150.6924444045
 31
0.0
  0
LINE
  5
25C
330
1F
100
AcDbEntity
  8
0
  6
HIDDEN
 62
     7
370
     0
100
AcDbLine
 10
206.7356570114
 20
150.6924444045
 30
0.0
 11
206.7359624852
 21
150.6924444045
 31
0.0
  0
LINE
  5
25D
330
1F
100
AcDbEntity
  8
0
  6
HIDDEN
 62
     7
370
     0
100
AcDbLine
 10
186.0621510495
 20
150.6924444045
 30
0.0
 11
182.7178834428
 21
151.2730513575
 31
0.0
  0
LINE
  5
25E
330
1F
100
AcDbEntity
  8
0
  6
HIDDEN
 62
     7
370
     0
100
AcDbLine
 10
186.0621510495
 20
150.6924444045
 30
0.0
 11
187.2599808921
 21
150.6924444045
 31
0.0
  0
SPLINE
  5
25F
330
1F
100
AcDbEntity
  8
0
  6
HIDDEN
 62
     7
370
     0
100
AcDbSpline
210
0.0
220
0.0
230
1.0
 70
    27
 71
     3
 72
    15
 73
    11
 74
     0
 42
0.00000001
 43
0.00000001
 12
1.0
 22
0.0
 32
0.0
 13
1.0
 23
0.0
 33
0.0
 40
0.0
 40
0.0
 40
0.0
 40
0.0
 40
0.1437641256880479
 40
0.2878253267638555
 40
0.4234905256946435
 40
0.5497161601523041
 40
0.6718850625364271
 40
0.7962148737767208
 40
0.92761212700636
 40
1.0
 40
1.0
 40
1.0
 40
1.0
 10
210.8193202366143
 20
146.7324444026735
 30
0.0
 10
210.8306855125721
 20
146.7324444026735
 30
0.0
 10
210.8534395497888
 20
146.7324444026735
 30
0.0
 10
210.8786022849144
 20
146.7324444026735
 30
0.0
 10
210.8923005884092
 20
146.7324444026735
 30
0.0
 10
210.8934926908475
 20
146.7324444026735
 30
0.0
 10
210.8837418304972
 20
146.7324444026735
 30
0.0
 10
210.8643646160123
 20
146.7324444026735
 30
0.0
 10
210.8413767477601
 20
146.7324444026735
 30
0.0
 10
210.8251014821815
 20
146.7324444026735
 30
0.0
 10
210.8193202366143
 20
146.7324444026735
 30
0.0
  0
LINE
  5
260
330
1F
100
AcDbEntity
  8
0
  6
HIDDEN
 62
     7
370
     0
100
AcDbLine
 10
207.1908576836
 20
150.6924444045
 30
0.0
 11
208.3886875262
 21
150.6924444045
 31
0.0
  0
LINE
  5
261
330
1F
100
AcDbEntity
  8
0
  6
HIDDEN
 62
     7
370
     0
100
AcDbLine
 10
204.8846720208
 20
151.1392329055
 30
0.0
 11
204.8915936102
 21
151.1388546139
 31
0.0
  0
LINE
  5
262
330
1F
100
AcDbEntity
  8
0
  6
HIDDEN
 62
     7
370
     0
100
AcDbLine
 10
189.5592449655
 20
151.1388546139
 30
0.0
 11
189.5651905288
 21
151.1391344181
 31
0.0
  0
LINE
  5
263
330
1F
100
AcDbEntity
  8
0
  6
HIDDEN
 62
     7
370
     0
100
AcDbLine
 10
117.0829529365
 20
176.1511340671
 30
0.0
 11
126.7410204236
 21
176.1511340671
 31
0.0
  0
LINE
  5
264
330
1F
100
AcDbEntity
  8
0
  6
HIDDEN
 62
     7
370
     0
100
AcDbLine
 10
126.7410204236
 20
143.692444072
 30
0.0
 11
126.7410204236
 21
142.6924448394
 31
0.0
  0
LINE
  5
265
330
1F
100
AcDbEntity
  8
0
  6
HIDDEN
 62
     7
370
     0
100
AcDbLine
 10
126.7410204236
 20
160.6924440646
 30
0.0
 11
126.7410204236
 21
159.692444832
 31
0.0
  0
SPLINE
  5
266
330
1F
100
AcDbEntity
  8
0
  6
HIDDEN
 62
     7
370
     0
100
AcDbSpline
210
0.0
220
0.0
230
1.0
 70
     8
 71
     3
 72
    12
 73
     8
 74
     0
 42
0.00000001
 43
0.00000001
 12
1.0
 22
0.0
 32
0.0
 13
1.0
 23
0.0
 33
0.0
 40
0.0
 40
0.0
 40
0.0
 40
0.0
 40
0.2500000000000006
 40
0.2500000000000006
 40
0.5000000000000012
 40
0.5000000000000012
 40
1.0
 40
1.0
 40
1.0
 40
1.0
 10
137.4829529632836
 20
176.151134114364
 30
0.0
 10
137.5731920309707
 20
176.151134114364
 30
0.0
 10
137.6640901450771
 20
176.1233043940605
 30
0.0
 10
137.8186871815657
 20
176.0281619328038
 30
0.0
 10
137.8836655976738
 20
175.9617391165035
 30
0.0
 10
138.03550062561
 20
175.7375396849833
 30
0.0
 10
138.0829529632836
 20
175.5535532824377
 30
0.0
 10
138.0829529632836
 20
175.3733967132547
 30
0.0
  0
LINE
  5
267
330
1F
100
AcDbEntity
  8
0
  6
HIDDEN
 62
     7
370
     0
100
AcDbLine
 10
133.5248848845
 20
176.1511340671
 30
0.0
 11
137.4829536726
 21
176.1511340671
 31
0.0
  0
LINE
  5
268
330
1F
100
AcDbEntity
  8
0
  6
HIDDEN
 62
     7
370
     0
100
AcDbLine
 10
133.5248848845
 20
143.692444072
 30
0.0
 11
133.5248848845
 21
142.6924448394
 31
0.0
  0
SPLINE
  5
269
330
1F
100
AcDbEntity
  8
0
  6
HIDDEN
 62
     7
370
     0
100
AcDbSpline
210
0.0
220
0.0
230
1.0
 70
     8
 71
     3
 72
     8
 73
     4
 74
     0
 42
0.00000001
 43
0.00000001
 12
1.0
 22
0.0
 32
0.0
 13
1.0
 23
0.0
 33
0.0
 40
0.0
 40
0.0
 40
0.0
 40
0.0
 40
1.0
 40
1.0
 40
1.0
 40
1.0
 10
132.0429529632836
 20
172.7425881195797
 30
0.0
 10
132.5229049576485
 20
173.8852035605017
 30
0.0
 10
133.0182056866221
 20
175.0208910542329
 30
0.0
 10
133.5248857947726
 20
176.1511341143638
 30
0.0
  0
SPLINE
  5
26A
330
1F
100
AcDbEntity
  8
0
  6
HIDDEN
 62
     7
370
     0
100
AcDbSpline
210
0.0
220
0.0
230
1.0
 70
     8
 71
     3
 72
     8
 73
     4
 74
     0
 42
0.00000001
 43
0.00000001
 12
1.0
 22
0.0
 32
0.0
 13
1.0
 23
0.0
 33
0.0
 40
0.0
 40
0.0
 40
0.0
 40
0.0
 40
1.0
 40
1.0
 40
1.0
 40
1.0
 10
126.7410201317945
 20
176.1511341143638
 30
0.0
 10
127.2477002399451
 20
175.0208910542328
 30
0.0
 10
127.7430009689187
 20
173.8852035605017
 30
0.0
 10
128.2229529632836
 20
172.7425881195797
 30
0.0
  0
LINE
  5
26B
330
1F
100
AcDbEntity
  8
0
  6
HIDDEN
 62
     7
370
     0
100
AcDbLine
 10
132.0429532279
 20
143.692444072
 30
0.0
 11
132.0429532279
 21
142.6924448394
 31
0.0
  0
LINE
  5
26C
330
1F
100
AcDbEntity
  8
0
  6
HIDDEN
 62
     7
370
     0
100
AcDbLine
 10
132.0429532279
 20
160.6924440646
 30
0.0
 11
132.0429532279
 21
159.692444832
 31
0.0
  0
LINE
  5
26D
330
1F
100
AcDbEntity
  8
0
  6
HIDDEN
 62
     7
370
     0
100
AcDbLine
 10
128.2229530116
 20
160.6924440646
 30
0.0
 11
128.2229530116
 21
159.692444832
 31
0.0
  0
LINE
  5
26E
330
1F
100
AcDbEntity
  8
0
  6
HIDDEN
 62
     7
370
     0
100
AcDbLine
 10
128.2229530116
 20
143.692444072
 30
0.0
 11
128.2229530116
 21
142.6924448394
 31
0.0
  0
SPLINE
  5
26F
330
1F
100
AcDbEntity
  8
0
  6
HIDDEN
 62
     7
370
     0
100
AcDbSpline
210
0.0
220
0.0
230
1.0
 70
     8
 71
     3
 72
    10
 73
     6
 74
     0
 42
0.00000001
 43
0.00000001
 12
1.0
 22
0.0
 32
0.0
 13
1.0
 23
0.0
 33
0.0
 40
0.0
 40
0.0
 40
0.0
 40
0.0
 40
0.5
 40
0.5
 40
1.0
 40
1.0
 40
1.0
 40
1.0
 10
84.9329529632836
 20
161.3601469054063
 30
0.0
 10
84.345367416193
 20
161.2448674444129
 30
0.0
 10
83.75462102273261
 20
161.1495978905726
 30
0.0
 10
82.57060185743374
 20
160.9750596596287
 30
0.0
 10
81.97718786922827
 20
160.8966846837851
 30
0.0
 10
81.38295296328357
 20
160.8235112153147
 30
0.0
  0
SPLINE
  5
270
330
1F
100
AcDbEntity
  8
0
  6
HIDDEN
 62
     7
370
     0
100
AcDbSpline
210
0.0
220
0.0
230
1.0
 70
     8
 71
     3
 72
    18
 73
    14
 74
     0
 42
0.00000001
 43
0.00000001
 12
1.0
 22
0.0
 32
0.0
 13
1.0
 23
0.0
 33
0.0
 40
0.0
 40
0.0
 40
0.0
 40
0.0
 40
0.2500000000000003
 40
0.2500000000000003
 40
0.4999999999999999
 40
0.4999999999999999
 40
0.7499999999999996
 40
0.7499999999999996
 40
0.8749999999999993
 40
0.8749999999999993
 40
0.9374999999999997
 40
0.9374999999999997
 40
1.0
 40
1.0
 40
1.0
 40
1.0
 10
86.3329529632836
 20
158.9811937838077
 30
0.0
 10
86.33295296328362
 20
159.2305617608663
 30
0.0
 10
86.29710386334533
 20
159.4763703152451
 30
0.0
 10
86.17223212731142
 20
159.9484941390233
 30
0.0
 10
86.08183170966353
 20
160.1792227179748
 30
0.0
 10
85.85958905492136
 20
160.61277264704
 30
0.0
 10
85.72982426847558
 20
160.8181704774848
 30
0.0
 10
85.48918681116407
 20
161.1004639993515
 30
0.0
 10
85.40141951302665
 20
161.1908435916162
 30
0.0
 10
85.24689542581982
 20
161.2984649964858
 30
0.0
 10
85.19028453976507
 20
161.3300395724601
 30
0.0
 10
85.06624050885847
 20
161.3682140145574
 30
0.0
 10
84.99852583384018
 20
161.3730117643379
 30
0.0
 10
84.93295296328358
 20
161.3601469054063
 30
0.0
  0
SPLINE
  5
271
330
1F
100
AcDbEntity
  8
0
  6
HIDDEN
 62
     7
370
     0
100
AcDbSpline
210
0.0
220
0.0
230
1.0
 70
     8
 71
     3
 72
    18
 73
    14
 74
     0
 42
0.00000001
 43
0.00000001
 12
1.0
 22
0.0
 32
0.0
 13
1.0
 23
0.0
 33
0.0
 40
0.0
 40
0.0
 40
0.0
 40
0.0
 40
0.2499999999999996
 40
0.2499999999999996
 40
0.5
 40
0.5
 40
0.7500000000000003
 40
0.7500000000000003
 40
0.8750000000000007
 40
0.8750000000000007
 40
0.9375000000000003
 40
0.9375000000000003
 40
1.0
 40
1.0
 40
1.0
 40
1.0
 10
86.3329529632836
 20
144.403695120185
 30
0.0
 10
86.3329529632836
 20
144.1543271431264
 30
0.0
 10
86.29710386334533
 20
143.9085185887476
 30
0.0
 10
86.17223212731143
 20
143.4363947649694
 30
0.0
 10
86.08183170966353
 20
143.205666186018
 30
0.0
 10
85.85958905492136
 20
142.7721162569527
 30
0.0
 10
85.7298242684756
 20
142.5667184265079
 30
0.0
 10
85.48918681116409
 20
142.2844249046412
 30
0.0
 10
85.40141951302664
 20
142.1940453123766
 30
0.0
 10
85.24689542581982
 20
142.0864239075069
 30
0.0
 10
85.19028453976507
 20
142.0548493315327
 30
0.0
 10
85.06624050885847
 20
142.0166748894353
 30
0.0
 10
84.99852583384018
 20
142.0118771396548
 30
0.0
 10
84.93295296328358
 20
142.0247419985864
 30
0.0
  0
SPLINE
  5
272
330
1F
100
AcDbEntity
  8
0
  6
HIDDEN
 62
     7
370
     0
100
AcDbSpline
210
0.0
220
0.0
230
1.0
 70
     8
 71
     3
 72
    10
 73
     6
 74
     0
 42
0.00000001
 43
0.00000001
 12
1.0
 22
0.0
 32
0.0
 13
1.0
 23
0.0
 33
0.0
 40
0.0
 40
0.0
 40
0.0
 40
0.0
 40
0.5
 40
0.5
 40
1.0
 40
1.0
 40
1.0
 40
1.0
 10
84.9329529632836
 20
142.0247419985864
 30
0.0
 10
84.345367416193
 20
142.1400214595799
 30
0.0
 10
83.75462102273261
 20
142.2352910134201
 30
0.0
 10
82.57060185743374
 20
142.4098292443641
 30
0.0
 10
81.97718786922827
 20
142.4882042202077
 30
0.0
 10
81.38295296328357
 20
142.561377688678
 30
0.0
  0
SPLINE
  5
273
330
1F
100
AcDbEntity
  8
0
  6
HIDDEN
 62
     7
370
     0
100
AcDbSpline
210
0.0
220
0.0
230
1.0
 70
     8
 71
     3
 72
    10
 73
     6
 74
     0
 42
0.00000001
 43
0.00000001
 12
1.0
 22
0.0
 32
0.0
 13
1.0
 23
0.0
 33
0.0
 40
0.0
 40
0.0
 40
0.0
 40
0.0
 40
0.5
 40
0.5
 40
1.0
 40
1.0
 40
1.0
 40
1.0
 10
81.37290803286537
 20
142.5398449210323
 30
0.0
 10
81.30534877794712
 20
142.3939916405026
 30
0.0
 10
81.24171212261064
 20
142.2506050338757
 30
0.0
 10
81.13149136803878
 20
141.9632292309716
 30
0.0
 10
81.08467507481616
 20
141.8193706268977
 30
0.0
 10
81.05710660938809
 20
141.6688724558799
 30
0.0
  0
SPLINE
  5
274
330
1F
100
AcDbEntity
  8
0
  6
HIDDEN
 62
     7
370
     0
100
AcDbSpline
210
0.0
220
0.0
230
1.0
 70
     8
 71
     3
 72
    26
 73
    22
 74
     0
 42
0.00000001
 43
0.00000001
 12
1.0
 22
0.0
 32
0.0
 13
1.0
 23
0.0
 33
0.0
 40
0.0
 40
0.0
 40
0.0
 40
0.0
 40
0.2499999999999852
 40
0.2499999999999852
 40
0.3749999999999783
 40
0.3749999999999783
 40
0.4374999999999766
 40
0.4374999999999766
 40
0.468749999999977
 40
0.468749999999977
 40
0.4999999999999774
 40
0.4999999999999774
 40
0.5312499999999777
 40
0.5312499999999777
 40
0.5624999999999781
 40
0.5624999999999781
 40
0.6249999999999808
 40
0.6249999999999808
 40
0.7499999999999863
 40
0.7499999999999863
 40
1.0
 40
1.0
 40
1.0
 40
1.0
 10
81.05710660938809
 20
141.6688724558799
 30
0.0
 10
81.01850608651961
 20
141.4581495156717
 30
0.0
 10
80.97220908396537
 20
141.2517550415113
 30
0.0
 10
80.87826973553145
 20
140.9625798401341
 30
0.0
 10
80.84295826861798
 20
140.8691788280647
 30
0.0
 10
80.77677829287234
 20
140.74409724407
 30
0.0
 10
80.75223992620411
 20
140.7043375355371
 30
0.0
 10
80.70886718065032
 20
140.6549231372461
 30
0.0
 10
80.69335877922512
 20
140.6401891598576
 30
0.0
 10
80.65831613463808
 20
140.6173777755651
 30
0.0
 10
80.63876584391832
 20
140.6095054116511
 30
0.0
 10
80.59683856354773
 20
140.6095095891653
 30
0.0
 10
80.5741864533161
 20
140.6183725658227
 30
0.0
 10
80.53321273922947
 20
140.6533476842183
 30
0.0
 10
80.51561343933405
 20
140.6777725219948
 30
0.0
 10
80.47098645347788
 20
140.7560795592777
 30
0.0
 10
80.45042723082453
 20
140.8152996302735
 30
0.0
 10
80.39930179132786
 20
140.9901216107712
 30
0.0
 10
80.37839037833933
 20
141.1096378596704
 30
0.0
 10
80.32694047077837
 20
141.463295150115
 30
0.0
 10
80.30927517147381
 20
141.6966029983515
 30
0.0
 10
80.295616338007
 20
141.9293174676388
 30
0.0
  0
SPLINE
  5
275
330
1F
100
AcDbEntity
  8
0
  6
HIDDEN
 62
     7
370
     0
100
AcDbSpline
210
0.0
220
0.0
230
1.0
 70
     8
 71
     3
 72
    10
 73
     6
 74
     0
 42
0.00000001
 43
0.00000001
 12
1.0
 22
0.0
 32
0.0
 13
1.0
 23
0.0
 33
0.0
 40
0.0
 40
0.0
 40
0.0
 40
0.0
 40
0.5
 40
0.5
 40
1.0
 40
1.0
 40
1.0
 40
1.0
 10
80.295616338007
 20
141.9293174676388
 30
0.0
 10
80.28671204889824
 20
142.0810256584851
 30
0.0
 10
80.27019666870525
 20
142.2358298745497
 30
0.0
 10
80.24308872264366
 20
142.5504684395036
 30
0.0
 10
80.2329529632836
 20
142.706222411222
 30
0.0
 10
80.2329529632836
 20
142.8596119198016
 30
0.0
  0
SPLINE
  5
276
330
1F
100
AcDbEntity
  8
0
  6
HIDDEN
 62
     7
370
     0
100
AcDbSpline
210
0.0
220
0.0
230
1.0
 70
     8
 71
     3
 72
    10
 73
     6
 74
     0
 42
0.00000001
 43
0.00000001
 12
1.0
 22
0.0
 32
0.0
 13
1.0
 23
0.0
 33
0.0
 40
0.0
 40
0.0
 40
0.0
 40
0.0
 40
0.5
 40
0.5
 40
1.0
 40
1.0
 40
1.0
 40
1.0
 10
80.295616338007
 20
161.4555714363539
 30
0.0
 10
80.28671204889824
 20
161.3038632455077
 30
0.0
 10
80.27019666870525
 20
161.149059029443
 30
0.0
 10
80.24308872264366
 20
160.8344204644891
 30
0.0
 10
80.2329529632836
 20
160.6786664927708
 30
0.0
 10
80.2329529632836
 20
160.5252769841912
 30
0.0
  0
SPLINE
  5
277
330
1F
100
AcDbEntity
  8
0
  6
HIDDEN
 62
     7
370
     0
100
AcDbSpline
210
0.0
220
0.0
230
1.0
 70
     8
 71
     3
 72
    26
 73
    22
 74
     0
 42
0.00000001
 43
0.00000001
 12
1.0
 22
0.0
 32
0.0
 13
1.0
 23
0.0
 33
0.0
 40
0.0
 40
0.0
 40
0.0
 40
0.0
 40
0.25
 40
0.25
 40
0.3749999999999994
 40
0.3749999999999994
 40
0.437500000000001
 40
0.437500000000001
 40
0.4687500000000001
 40
0.4687500000000001
 40
0.4999999999999991
 40
0.4999999999999991
 40
0.5312499999999981
 40
0.5312499999999981
 40
0.5624999999999971
 40
0.5624999999999971
 40
0.6249999999999971
 40
0.6249999999999971
 40
0.7499999999999971
 40
0.7499999999999971
 40
1.0
 40
1.0
 40
1.0
 40
1.0
 10
81.05710660938809
 20
161.7160164481128
 30
0.0
 10
81.01850608651961
 20
161.9267393883211
 30
0.0
 10
80.97220908396535
 20
162.1331338624815
 30
0.0
 10
80.87826973553145
 20
162.4223090638586
 30
0.0
 10
80.84295826861799
 20
162.5157100759281
 30
0.0
 10
80.77677829287234
 20
162.6407916599227
 30
0.0
 10
80.75223992620411
 20
162.6805513684556
 30
0.0
 10
80.70886718065029
 20
162.7299657667466
 30
0.0
 10
80.69335877922511
 20
162.7446997441351
 30
0.0
 10
80.65831613463808
 20
162.7675111284277
 30
0.0
 10
80.63876584391832
 20
162.7753834923416
 30
0.0
 10
80.59683856354773
 20
162.7753793148274
 30
0.0
 10
80.5741864533161
 20
162.7665163381701
 30
0.0
 10
80.53321273922947
 20
162.7315412197744
 30
0.0
 10
80.51561343933403
 20
162.707116381998
 30
0.0
 10
80.47098645347788
 20
162.6288093447151
 30
0.0
 10
80.45042723082453
 20
162.5695892737192
 30
0.0
 10
80.39930179132786
 20
162.3947672932215
 30
0.0
 10
80.37839037833933
 20
162.2752510443224
 30
0.0
 10
80.32694047077837
 20
161.9215937538778
 30
0.0
 10
80.30927517147381
 20
161.6882859056412
 30
0.0
 10
80.295616338007
 20
161.4555714363539
 30
0.0
  0
SPLINE
  5
278
330
1F
100
AcDbEntity
  8
0
  6
HIDDEN
 62
     7
370
     0
100
AcDbSpline
210
0.0
220
0.0
230
1.0
 70
     8
 71
     3
 72
    10
 73
     6
 74
     0
 42
0.00000001
 43
0.00000001
 12
1.0
 22
0.0
 32
0.0
 13
1.0
 23
0.0
 33
0.0
 40
0.0
 40
0.0
 40
0.0
 40
0.0
 40
0.5
 40
0.5
 40
1.0
 40
1.0
 40
1.0
 40
1.0
 10
81.37290803286537
 20
160.8450439829604
 30
0.0
 10
81.30534877794712
 20
160.9908972634901
 30
0.0
 10
81.24171212261062
 20
161.134283870117
 30
0.0
 10
81.13149136803878
 20
161.4216596730212
 30
0.0
 10
81.08467507481616
 20
161.565518277095
 30
0.0
 10
81.05710660938809
 20
161.7160164481128
 30
0.0
  0
LINE
  5
279
330
1F
100
AcDbEntity
  8
0
  6
HIDDEN
 62
     7
370
     0
100
AcDbLine
 10
93.136928459
 20
151.692444452
 30
0.0
 11
93.136928459
 21
168.6924453759
 31
0.0
  0
LINE
  5
27A
330
1F
100
AcDbEntity
  8
0
  6
HIDDEN
 62
     7
370
     0
100
AcDbLine
 10
93.136928459
 20
134.6924435281
 30
0.0
 11
93.136928459
 21
151.692444452
 31
0.0
  0
LINE
  5
27B
330
1F
100
AcDbEntity
  8
0
  6
HIDDEN
 62
     7
370
     0
100
AcDbLine
 10
119.7927789253
 20
151.692444452
 30
0.0
 11
119.7927789253
 21
168.6924453759
 31
0.0
  0
LINE
  5
27C
330
1F
100
AcDbEntity
  8
0
  6
HIDDEN
 62
     7
370
     0
100
AcDbLine
 10
119.7927789253
 20
134.6924435281
 30
0.0
 11
119.7927789253
 21
151.692444452
 31
0.0
  0
LINE
  5
27D
330
1F
100
AcDbEntity
  8
0
  6
HIDDEN
 62
     7
370
     0
100
AcDbLine
 10
122.0829528247
 20
151.692444452
 30
0.0
 11
122.0829528247
 21
167.4174442821
 31
0.0
  0
LINE
  5
27E
330
1F
100
AcDbEntity
  8
0
  6
HIDDEN
 62
     7
370
     0
100
AcDbLine
 10
122.0829528247
 20
135.9674446219
 30
0.0
 11
122.0829528247
 21
151.692444452
 31
0.0
  0
LINE
  5
27F
330
1F
100
AcDbEntity
  8
0
  6
HIDDEN
 62
     7
370
     0
100
AcDbLine
 10
81.3829521139
 20
134.6924435281
 30
0.0
 11
81.3829521139
 21
142.4180297115
 31
0.0
  0
LINE
  5
280
330
1F
100
AcDbEntity
  8
0
  6
HIDDEN
 62
     7
370
     0
100
AcDbLine
 10
81.3829521139
 20
160.9724778616
 30
0.0
 11
81.3829521139
 21
168.6924453759
 31
0.0
  0
LINE
  5
281
330
1F
100
AcDbEntity
  8
0
  6
HIDDEN
 62
     7
370
     0
100
AcDbLine
 10
131.4329537054
 20
151.692444452
 30
0.0
 11
131.4329537054
 21
161.1924441465
 31
0.0
  0
LINE
  5
282
330
1F
100
AcDbEntity
  8
0
  6
HIDDEN
 62
     7
370
     0
100
AcDbLine
 10
131.4329537054
 20
142.1924447575
 30
0.0
 11
131.4329537054
 21
151.692444452
 31
0.0
  0
LINE
  5
283
330
1F
100
AcDbEntity
  8
0
  6
HIDDEN
 62
     7
370
     0
100
AcDbLine
 10
133.9329531838
 20
151.692444452
 30
0.0
 11
133.9329531838
 21
161.1924441465
 31
0.0
  0
LINE
  5
284
330
1F
100
AcDbEntity
  8
0
  6
HIDDEN
 62
     7
370
     0
100
AcDbLine
 10
133.9329531838
 20
142.1924447575
 30
0.0
 11
133.9329531838
 21
151.692444452
 31
0.0
  0
LINE
  5
285
330
1F
100
AcDbEntity
  8
0
  6
HIDDEN
 62
     7
370
     0
100
AcDbLine
 10
197.2552625884
 20
146.7324444027
 30
0.0
 11
197.2552029838
 21
146.7324444027
 31
0.0
  0
LINE
  5
286
330
1F
100
AcDbEntity
  8
0
  6
HIDDEN
 62
     7
370
     0
100
AcDbLine
 10
122.5829529067
 20
151.692444452
 30
0.0
 11
122.5829529067
 21
160.1924449139
 31
0.0
  0
LINE
  5
287
330
1F
100
AcDbEntity
  8
0
  6
HIDDEN
 62
     7
370
     0
100
AcDbLine
 10
122.5829529067
 20
143.1924439901
 30
0.0
 11
122.5829529067
 21
151.692444452
 31
0.0
  0
LINE
  5
288
330
1F
100
AcDbEntity
  8
0
  6
HIDDEN
 62
     7
370
     0
100
AcDbLine
 10
119.1329531794
 20
125.292444595
 30
0.0
 11
114.4329530143
 21
125.292444595
 31
0.0
  0
LINE
  5
289
330
1F
100
AcDbEntity
  8
0
  6
HIDDEN
 62
     7
370
     0
100
AcDbLine
 10
123.8329526459
 20
125.292444595
 30
0.0
 11
119.1329531794
 21
125.292444595
 31
0.0
  0
LINE
  5
28A
330
1F
100
AcDbEntity
  8
0
  6
HIDDEN
 62
     7
370
     0
100
AcDbLine
 10
182.4084831824
 20
148.992444382
 30
0.0
 11
196.726591741
 21
148.992444382
 31
0.0
  0
LINE
  5
28B
330
1F
100
AcDbEntity
  8
0
  6
HIDDEN
 62
     7
370
     0
100
AcDbLine
 10
181.3891170968
 20
146.7324444027
 30
0.0
 11
196.2651847352
 21
146.7324444027
 31
0.0
  0
ARC
  5
28C
330
1F
100
AcDbEntity
  8
0
  6
HIDDEN
 62
     7
370
     0
100
AcDbCircle
 10
146.1324886833
 20
159.6340553861
 30
0.0
 40
4.499703299738267
100
AcDbArc
 50
236.2556047491
 51
303.6375150877
  0
LINE
  5
28D
330
1F
100
AcDbEntity
  8
0
  6
HIDDEN
 62
     7
370
     0
100
AcDbLine
 10
148.9329537799
 20
151.692444452
 30
0.0
 11
148.9329537799
 21
155.8924443022
 31
0.0
  0
LINE
  5
28E
330
1F
100
AcDbEntity
  8
0
  6
HIDDEN
 62
     7
370
     0
100
AcDbLine
 10
148.9329537799
 20
147.4924446018
 30
0.0
 11
148.9329537799
 21
151.692444452
 31
0.0
  0
LINE
  5
28F
330
1F
100
AcDbEntity
  8
0
  6
HIDDEN
 62
     7
370
     0
100
AcDbLine
 10
149.9544172038
 20
151.692444452
 30
0.0
 11
149.9544172038
 21
154.1924443961
 31
0.0
  0
LINE
  5
290
330
1F
100
AcDbEntity
  8
0
  6
HIDDEN
 62
     7
370
     0
100
AcDbLine
 10
149.9544172038
 20
149.1924445079
 30
0.0
 11
149.9544172038
 21
151.692444452
 31
0.0
  0
LINE
  5
291
330
1F
100
AcDbEntity
  8
0
  6
HIDDEN
 62
     7
370
     0
100
AcDbLine
 10
143.6329534699
 20
170.3920140796
 30
0.0
 11
148.6329524268
 21
170.3920140796
 31
0.0
  0
LINE
  5
292
330
1F
100
AcDbEntity
  8
0
  6
HIDDEN
 62
     7
370
     0
100
AcDbLine
 10
143.1329524566
 20
170.692443841
 30
0.0
 11
149.1329534401
 21
170.692443841
 31
0.0
  0
LWPOLYLINE
  5
293
330
1F
100
AcDbEntity
  8
0
  6
HIDDEN
 62
     7
370
     0
100
AcDbPolyline
 90
        4
 70
   128
 43
0.0
 10
148.3154943635
 20
168.6658170008
 10
148.5170698215
 20
168.8261572206
 10
148.6199884166
 20
168.9080223375
 10
148.6329524268
 20
168.9183339411
  0
LWPOLYLINE
  5
294
330
1F
100
AcDbEntity
  8
0
  6
HIDDEN
 62
     7
370
     0
100
AcDbPolyline
 90
        7
 70
   128
 43
0.0
 10
148.6329524268
 20
163.7868145415
 10
148.6229239454
 20
163.7994218552
 10
148.5431803812
 20
163.8996731424
 10
148.3862488021
 20
164.0969663792
 10
148.1571508993
 20
164.3849816107
 10
147.8632254948
 20
164.7544950181
 10
147.5138863971
 20
165.193674148
  0
SPLINE
  5
295
330
1F
100
AcDbEntity
  8
0
  6
HIDDEN
 62
     7
370
     0
100
AcDbSpline
210
0.0
220
0.0
230
1.0
 70
     8
 71
     3
 72
    16
 73
    12
 74
     0
 42
0.00000001
 43
0.00000001
 12
1.0
 22
0.0
 32
0.0
 13
1.0
 23
0.0
 33
0.0
 40
0.0
 40
0.0
 40
0.0
 40
0.0
 40
0.2500000000000011
 40
0.2500000000000011
 40
0.5000000000000022
 40
0.5000000000000022
 40
0.750000000000002
 40
0.750000000000002
 40
0.875000000000001
 40
0.875000000000001
 40
1.0
 40
1.0
 40
1.0
 40
1.0
 10
147.513886281538
 20
165.1936739519193
 30
0.0
 10
147.4914924329375
 20
165.5078124655708
 30
0.0
 10
147.4861393347909
 20
165.8236492768022
 30
0.0
 10
147.5317643807092
 20
166.4609075945034
 30
0.0
 10
147.5831061817267
 20
166.7715293060194
 30
0.0
 10
147.7400455461261
 20
167.372770634065
 30
0.0
 10
147.8462288223321
 20
167.6651309283938
 30
0.0
 10
148.0177130112677
 20
168.0656684544283
 30
0.0
 10
148.0771269147787
 20
168.1939288836956
 30
0.0
 10
148.1968921425214
 20
168.4393867369109
 30
0.0
 10
148.2577739530332
 20
168.5575290480142
 30
0.0
 10
148.3154934772155
 20
168.6658161806475
 30
0.0
  0
LWPOLYLINE
  5
296
330
1F
100
AcDbEntity
  8
0
  6
HIDDEN
 62
     7
370
     0
100
AcDbPolyline
 90
        9
 70
   128
 43
0.0
 10
148.3154943635
 20
168.6658170008
 10
148.249079888
 20
168.378144496
 10
148.164743041
 20
168.0128462547
 10
148.0660451998
 20
167.5853412532
 10
147.9571549644
 20
167.1136775919
 10
147.8426618923
 20
166.6177641534
 10
147.7274088611
 20
166.1185342752
 10
147.6162499239
 20
165.6370628559
 10
147.5138863971
 20
165.193674148
  0
LINE
  5
297
330
1F
100
AcDbEntity
  8
0
  6
HIDDEN
 62
     7
370
     0
100
AcDbLine
 10
160.9329520215
 20
154.1924443961
 30
0.0
 11
160.9329520215
 21
149.1924445079
 31
0.0
  0
LINE
  5
298
330
1F
100
AcDbEntity
  8
0
  6
HIDDEN
 62
     7
370
     0
100
AcDbLine
 10
197.1254213204
 20
146.2824442358
 30
0.0
 11
198.7754194488
 21
146.2824442358
 31
0.0
  0
LINE
  5
299
330
1F
100
AcDbEntity
  8
0
  6
HIDDEN
 62
     7
370
     0
100
AcDbLine
 10
195.4754157414
 20
146.2824442358
 30
0.0
 11
197.1254213204
 21
146.2824442358
 31
0.0
  0
LINE
  5
29A
330
1F
100
AcDbEntity
  8
0
  6
HIDDEN
 62
     7
370
     0
100
AcDbLine
 10
197.1254213204
 20
135.232444846
 30
0.0
 11
198.7754194488
 21
135.232444846
 31
0.0
  0
LINE
  5
29B
330
1F
100
AcDbEntity
  8
0
  6
HIDDEN
 62
     7
370
     0
100
AcDbLine
 10
195.4754157414
 20
135.232444846
 30
0.0
 11
197.1254213204
 21
135.232444846
 31
0.0
  0
LINE
  5
29C
330
1F
100
AcDbEntity
  8
0
  6
HIDDEN
 62
     7
370
     0
100
AcDbLine
 10
182.3880685915
 20
149.0924444449
 30
0.0
 11
181.4489303579
 21
151.3924444377
 31
0.0
  0
LINE
  5
29D
330
1F
100
AcDbEntity
  8
0
  6
HIDDEN
 62
     7
370
     0
100
AcDbLine
 10
182.4084831824
 20
148.992444382
 30
0.0
 11
182.3880685915
 21
149.0924444449
 31
0.0
  0
LINE
  5
29E
330
1F
100
AcDbEntity
  8
0
  6
HIDDEN
 62
     7
370
     0
100
AcDbLine
 10
182.4084831824
 20
148.992444382
 30
0.0
 11
181.4285083164
 21
151.3924444377
 31
0.0
  0
LINE
  5
29F
330
1F
100
AcDbEntity
  8
0
  6
HIDDEN
 62
     7
370
     0
100
AcDbLine
 10
181.3891170968
 20
149.0924444449
 30
0.0
 11
182.3880685915
 21
149.0924444449
 31
0.0
  0
LINE
  5
2A0
330
1F
100
AcDbEntity
  8
0
  6
HIDDEN
 62
     7
370
     0
100
AcDbLine
 10
182.441586112
 20
149.0924444449
 30
0.0
 11
182.3880685915
 21
149.0924444449
 31
0.0
  0
LINE
  5
2A1
330
1F
100
AcDbEntity
  8
0
  6
HIDDEN
 62
     7
370
     0
100
AcDbLine
 10
180.1653517832
 20
149.0924444449
 30
0.0
 11
181.3891170968
 21
149.0924444449
 31
0.0
  0
LINE
  5
2A2
330
1F
100
AcDbEntity
  8
0
  6
HIDDEN
 62
     7
370
     0
100
AcDbLine
 10
180.1653517832
 20
146.7324444027
 30
0.0
 11
181.3891170968
 21
146.7324444027
 31
0.0
  0
LINE
  5
2A3
330
1F
100
AcDbEntity
  8
0
  6
HIDDEN
 62
     7
370
     0
100
AcDbLine
 10
188.2077096452
 20
149.0924444449
 30
0.0
 11
188.228124236
 21
148.992444382
 31
0.0
  0
LINE
  5
2A4
330
1F
100
AcDbEntity
  8
0
  6
HIDDEN
 62
     7
370
     0
100
AcDbLine
 10
188.2077096452
 20
151.3924444377
 30
0.0
 11
188.2077096452
 21
149.0924444449
 31
0.0
  0
LINE
  5
2A5
330
1F
100
AcDbEntity
  8
0
  6
HIDDEN
 62
     7
370
     0
100
AcDbLine
 10
188.228124236
 20
146.7324444027
 30
0.0
 11
188.228124236
 21
148.992444382
 31
0.0
  0
LINE
  5
2A6
330
1F
100
AcDbEntity
  8
0
  6
HIDDEN
 62
     7
370
     0
100
AcDbLine
 10
188.2077096452
 20
149.0924444449
 30
0.0
 11
182.441586112
 21
149.0924444449
 31
0.0
  0
LINE
  5
2A7
330
1F
100
AcDbEntity
  8
0
  6
HIDDEN
 62
     7
370
     0
100
AcDbLine
 10
86.3329520871
 20
146.8224446223
 30
0.0
 11
86.3329520871
 21
144.4036951223
 31
0.0
  0
LINE
  5
2A8
330
1F
100
AcDbEntity
  8
0
  6
HIDDEN
 62
     7
370
     0
100
AcDbLine
 10
86.3329520871
 20
156.5624442817
 30
0.0
 11
86.3329520871
 21
158.9811937817
 31
0.0
  0
ARC
  5
2A9
330
1F
100
AcDbEntity
  8
0
  6
HIDDEN
 62
     7
370
     0
100
AcDbCircle
 10
124.328573309
 20
179.542444452
 30
0.0
 40
8.000000000000009
100
AcDbArc
 50
205.0819293509
 51
270.0
  0
LINE
  5
2AA
330
1F
100
AcDbEntity
  8
0
  6
HIDDEN
 62
     7
370
     0
100
AcDbLine
 10
132.0168054153
 20
171.5424451911
 30
0.0
 11
138.0829526533
 21
171.5424451911
 31
0.0
  0
LINE
  5
2AB
330
1F
100
AcDbEntity
  8
0
  6
HIDDEN
 62
     7
370
     0
100
AcDbLine
 10
124.3285736491
 20
171.5424451911
 30
0.0
 11
128.2491008242
 21
171.5424451911
 31
0.0
  0
LINE
  5
2AC
330
1F
100
AcDbEntity
  8
0
  6
HIDDEN
 62
     7
370
     0
100
AcDbLine
 10
133.5248848845
 20
160.6924440646
 30
0.0
 11
133.5248848845
 21
159.692444832
 31
0.0
  0
LINE
  5
2AD
330
1F
100
AcDbEntity
  8
0
  6
HIDDEN
 62
     7
370
     0
100
AcDbLine
 10
128.6172507753
 20
159.692444832
 30
0.0
 11
125.0829533164
 21
159.692444832
 31
0.0
  0
LINE
  5
2AE
330
1F
100
AcDbEntity
  8
0
  6
HIDDEN
 62
     7
370
     0
100
AcDbLine
 10
131.6486554642
 20
143.692444072
 30
0.0
 11
138.0829526533
 21
143.692444072
 31
0.0
  0
LINE
  5
2AF
330
1F
100
AcDbEntity
  8
0
  6
HIDDEN
 62
     7
370
     0
100
AcDbLine
 10
125.0829533164
 20
143.692444072
 30
0.0
 11
128.6172507753
 21
143.692444072
 31
0.0
  0
ARC
  5
2B0
330
1F
100
AcDbEntity
  8
0
  6
HIDDEN
 62
     7
370
     0
100
AcDbCircle
 10
125.0829529633
 20
151.692444452
 30
0.0
 40
8.000000000000028
100
AcDbArc
 50
90.0
 51
270.0
  0
LINE
  5
2B1
330
1F
100
AcDbEntity
  8
0
  6
HIDDEN
 62
     7
370
     0
100
AcDbLine
 10
138.0829526533
 20
159.692444832
 30
0.0
 11
131.6486554642
 21
159.692444832
 31
0.0
  0
LINE
  5
2B2
330
1F
100
AcDbEntity
  8
0
  6
HIDDEN
 62
     7
370
     0
100
AcDbLine
 10
147.3663015713
 20
175.5124442213
 30
0.0
 11
143.1329524566
 21
175.5124442213
 31
0.0
  0
LINE
  5
2B3
330
1F
100
AcDbEntity
  8
0
  6
HIDDEN
 62
     7
370
     0
100
AcDbLine
 10
149.1329534401
 20
175.5124442213
 30
0.0
 11
147.3663015713
 21
175.5124442213
 31
0.0
  0
LINE
  5
2B4
330
1F
100
AcDbEntity
  8
0
  6
HIDDEN
 62
     7
370
     0
100
AcDbLine
 10
147.2840769638
 20
175.6921820276
 30
0.0
 11
143.3329521169
 21
175.6921820276
 31
0.0
  0
LINE
  5
2B5
330
1F
100
AcDbEntity
  8
0
  6
HIDDEN
 62
     7
370
     0
100
AcDbLine
 10
148.9329537799
 20
175.6921820276
 30
0.0
 11
147.2840769638
 21
175.6921820276
 31
0.0
  0
LINE
  5
2B6
330
1F
100
AcDbEntity
  8
0
  6
HIDDEN
 62
     7
370
     0
100
AcDbLine
 10
147.2840769638
 20
175.0021818959
 30
0.0
 11
143.3329521169
 21
175.0021818959
 31
0.0
  0
LINE
  5
2B7
330
1F
100
AcDbEntity
  8
0
  6
HIDDEN
 62
     7
370
     0
100
AcDbLine
 10
148.9329537799
 20
175.0021818959
 30
0.0
 11
147.2840769638
 21
175.0021818959
 31
0.0
  0
LINE
  5
2B8
330
1F
100
AcDbEntity
  8
0
  6
HIDDEN
 62
     7
370
     0
100
AcDbLine
 10
147.2840769638
 20
174.3121817642
 30
0.0
 11
143.3329521169
 21
174.3121817642
 31
0.0
  0
LINE
  5
2B9
330
1F
100
AcDbEntity
  8
0
  6
HIDDEN
 62
     7
370
     0
100
AcDbLine
 10
148.9329537799
 20
174.3121817642
 30
0.0
 11
147.2840769638
 21
174.3121817642
 31
0.0
  0
LINE
  5
2BA
330
1F
100
AcDbEntity
  8
0
  6
HIDDEN
 62
     7
370
     0
100
AcDbLine
 10
147.3663015713
 20
174.8224440896
 30
0.0
 11
143.1329524566
 21
174.8224440896
 31
0.0
  0
LINE
  5
2BB
330
1F
100
AcDbEntity
  8
0
  6
HIDDEN
 62
     7
370
     0
100
AcDbLine
 10
149.1329534401
 20
174.8224440896
 30
0.0
 11
147.3663015713
 21
174.8224440896
 31
0.0
  0
LINE
  5
2BC
330
1F
100
AcDbEntity
  8
0
  6
HIDDEN
 62
     7
370
     0
100
AcDbLine
 10
147.2840769638
 20
173.6221816325
 30
0.0
 11
143.3329521169
 21
173.6221816325
 31
0.0
  0
LINE
  5
2BD
330
1F
100
AcDbEntity
  8
0
  6
HIDDEN
 62
     7
370
     0
100
AcDbLine
 10
148.9329537799
 20
173.6221816325
 30
0.0
 11
147.2840769638
 21
173.6221816325
 31
0.0
  0
LINE
  5
2BE
330
1F
100
AcDbEntity
  8
0
  6
HIDDEN
 62
     7
370
     0
100
AcDbLine
 10
147.3663015713
 20
174.1324439579
 30
0.0
 11
143.1329524566
 21
174.1324439579
 31
0.0
  0
LINE
  5
2BF
330
1F
100
AcDbEntity
  8
0
  6
HIDDEN
 62
     7
370
     0
100
AcDbLine
 10
149.1329534401
 20
174.1324439579
 30
0.0
 11
147.3663015713
 21
174.1324439579
 31
0.0
  0
LINE
  5
2C0
330
1F
100
AcDbEntity
  8
0
  6
HIDDEN
 62
     7
370
     0
100
AcDbLine
 10
147.3663015713
 20
176.2024443531
 30
0.0
 11
143.1329524566
 21
176.2024443531
 31
0.0
  0
LINE
  5
2C1
330
1F
100
AcDbEntity
  8
0
  6
HIDDEN
 62
     7
370
     0
100
AcDbLine
 10
149.1329534401
 20
176.2024443531
 30
0.0
 11
147.3663015713
 21
176.2024443531
 31
0.0
  0
LINE
  5
2C2
330
1F
100
AcDbEntity
  8
0
  6
HIDDEN
 62
     7
370
     0
100
AcDbLine
 10
147.3663015713
 20
176.7524443501
 30
0.0
 11
143.1329524566
 21
176.7524443501
 31
0.0
  0
LINE
  5
2C3
330
1F
100
AcDbEntity
  8
0
  6
HIDDEN
 62
     7
370
     0
100
AcDbLine
 10
149.1329534401
 20
176.7524443501
 30
0.0
 11
147.3663015713
 21
176.7524443501
 31
0.0
  0
LINE
  5
2C4
330
1F
100
AcDbEntity
  8
0
  6
HIDDEN
 62
     7
370
     0
100
AcDbLine
 10
147.3663015713
 20
173.4424438261
 30
0.0
 11
143.1329524566
 21
173.4424438261
 31
0.0
  0
LINE
  5
2C5
330
1F
100
AcDbEntity
  8
0
  6
HIDDEN
 62
     7
370
     0
100
AcDbLine
 10
149.1329534401
 20
173.4424438261
 30
0.0
 11
147.3663015713
 21
173.4424438261
 31
0.0
  0
LINE
  5
2C6
330
1F
100
AcDbEntity
  8
0
  6
HIDDEN
 62
     7
370
     0
100
AcDbLine
 10
147.3663015713
 20
170.692443841
 30
0.0
 11
143.1329524566
 21
170.692443841
 31
0.0
  0
LINE
  5
2C7
330
1F
100
AcDbEntity
  8
0
  6
HIDDEN
 62
     7
370
     0
100
AcDbLine
 10
149.1329534401
 20
170.692443841
 30
0.0
 11
147.3663015713
 21
170.692443841
 31
0.0
  0
LINE
  5
2C8
330
1F
100
AcDbEntity
  8
0
  6
HIDDEN
 62
     7
370
     0
100
AcDbLine
 10
147.3087458362
 20
176.8924444848
 30
0.0
 11
143.2729525914
 21
176.8924444848
 31
0.0
  0
LINE
  5
2C9
330
1F
100
AcDbEntity
  8
0
  6
HIDDEN
 62
     7
370
     0
100
AcDbLine
 10
148.9929533054
 20
176.8924444848
 30
0.0
 11
147.3087458362
 21
176.8924444848
 31
0.0
  0
LINE
  5
2CA
330
1F
100
AcDbEntity
  8
0
  6
HIDDEN
 62
     7
370
     0
100
AcDbLine
 10
147.1526785244
 20
170.3924443507
 30
0.0
 11
143.6525671233
 21
170.3924443507
 31
0.0
  0
LINE
  5
2CB
330
1F
100
AcDbEntity
  8
0
  6
HIDDEN
 62
     7
370
     0
100
AcDbLine
 10
148.6133387734
 20
170.3924443507
 30
0.0
 11
147.1526785244
 21
170.3924443507
 31
0.0
  0
LINE
  5
2CC
330
1F
100
AcDbEntity
  8
0
  6
HIDDEN
 62
     7
370
     0
100
AcDbLine
 10
147.1607437779
 20
172.0358207756
 30
0.0
 11
143.6329534699
 21
172.0358207756
 31
0.0
  0
LINE
  5
2CD
330
1F
100
AcDbEntity
  8
0
  6
HIDDEN
 62
     7
370
     0
100
AcDbLine
 10
148.6329524268
 20
172.0358207756
 30
0.0
 11
147.1607437779
 21
172.0358207756
 31
0.0
  0
ARC
  5
2CE
330
1F
100
AcDbEntity
  8
0
  6
HIDDEN
 62
     7
370
     0
100
AcDbCircle
 10
197.1254176674
 20
144.7278306419
 30
0.0
 40
7.00000000000002
100
AcDbArc
 50
104.9005966878
 51
112.024312837
  0
ARC
  5
2CF
330
1F
100
AcDbEntity
  8
0
  6
HIDDEN
 62
     7
370
     0
100
AcDbCircle
 10
197.1254176674
 20
144.7278306419
 30
0.0
 40
7.000000000000012
100
AcDbArc
 50
67.975687163
 51
75.0994033122
  0
LINE
  5
2D0
330
1F
100
AcDbEntity
  8
0
  6
HIDDEN
 62
     7
370
     0
100
AcDbLine
 10
194.5004178633
 20
151.2170043068
 30
0.0
 11
194.5004178633
 21
150.492444395
 31
0.0
  0
LINE
  5
2D1
330
1F
100
AcDbEntity
  8
0
  6
HIDDEN
 62
     7
370
     0
100
AcDbLine
 10
199.7504173269
 20
150.492444395
 30
0.0
 11
199.7504173269
 21
151.2170043068
 31
0.0
  0
LINE
  5
2D2
330
1F
100
AcDbEntity
  8
0
  6
HIDDEN
 62
     7
370
     0
100
AcDbLine
 10
194.5004178633
 20
150.492444395
 30
0.0
 11
195.0479014267
 21
149.5441808299
 31
0.0
  0
LINE
  5
2D3
330
1F
100
AcDbEntity
  8
0
  6
HIDDEN
 62
     7
370
     0
100
AcDbLine
 10
199.2029337634
 20
149.5441808299
 30
0.0
 11
199.7504173269
 21
150.492444395
 31
0.0
  0
ARC
  5
2D4
330
1F
100
AcDbEntity
  8
0
  6
HIDDEN
 62
     7
370
     0
100
AcDbCircle
 10
193.3158471832
 20
148.5441807157
 30
0.0
 40
2.000000000000016
100
AcDbArc
 50
334.7943742942
 51
30.0
  0
ARC
  5
2D5
330
1F
100
AcDbEntity
  8
0
  6
HIDDEN
 62
     7
370
     0
100
AcDbCircle
 10
200.9349881515
 20
148.5441807157
 30
0.0
 40
1.999999999999976
100
AcDbArc
 50
150.0
 51
205.2056257058
  0
LINE
  5
2D6
330
1F
100
AcDbEntity
  8
0
  6
HIDDEN
 62
     7
370
     0
100
AcDbLine
 10
195.1254172673
 20
147.692444262
 30
0.0
 11
195.1254172673
 21
142.592444078
 31
0.0
  0
LINE
  5
2D7
330
1F
100
AcDbEntity
  8
0
  6
HIDDEN
 62
     7
370
     0
100
AcDbLine
 10
199.1254179229
 20
142.592444078
 30
0.0
 11
199.1254179229
 21
147.692444262
 31
0.0
  0
LINE
  5
2D8
330
1F
100
AcDbEntity
  8
0
  6
HIDDEN
 62
     7
370
     0
100
AcDbLine
 10
195.1254172673
 20
142.592444078
 30
0.0
 11
195.22541896
 21
142.4924442479
 31
0.0
  0
LINE
  5
2D9
330
1F
100
AcDbEntity
  8
0
  6
HIDDEN
 62
     7
370
     0
100
AcDbLine
 10
199.0254162301
 20
142.4924442479
 30
0.0
 11
199.1254179229
 21
142.592444078
 31
0.0
  0
LINE
  5
2DA
330
1F
100
AcDbEntity
  8
0
  6
HIDDEN
 62
     7
370
     0
100
AcDbLine
 10
197.926351284
 20
150.0924444924
 30
0.0
 11
197.926351284
 21
151.4604086776
 31
0.0
  0
LINE
  5
2DB
330
1F
100
AcDbEntity
  8
0
  6
HIDDEN
 62
     7
370
     0
100
AcDbLine
 10
195.9332464685
 20
151.4750258
 30
0.0
 11
195.9332464685
 21
150.0924444924
 31
0.0
  0
LINE
  5
2DC
330
1F
100
AcDbEntity
  8
0
  6
HIDDEN
 62
     7
370
     0
100
AcDbLine
 10
195.4504190435
 20
151.492444457
 30
0.0
 11
195.5580650319
 21
151.473463681
 31
0.0
  0
LINE
  5
2DD
330
1F
100
AcDbEntity
  8
0
  6
HIDDEN
 62
     7
370
     0
100
AcDbLine
 10
197.9193030347
 20
151.4441367697
 30
0.0
 11
197.9193030347
 21
150.0924444924
 31
0.0
  0
LINE
  5
2DE
330
1F
100
AcDbEntity
  8
0
  6
HIDDEN
 62
     7
370
     0
100
AcDbLine
 10
196.0294930686
 20
150.0924444924
 30
0.0
 11
196.0294930686
 21
151.4212759437
 31
0.0
  0
LINE
  5
2DF
330
1F
100
AcDbEntity
  8
0
  6
HIDDEN
 62
     7
370
     0
100
AcDbLine
 10
198.7831009974
 20
150.0924444924
 30
0.0
 11
198.7831009974
 21
151.5081902405
 31
0.0
  0
LINE
  5
2E0
330
1F
100
AcDbEntity
  8
0
  6
HIDDEN
 62
     7
370
     0
100
AcDbLine
 10
198.6872865309
 20
151.4724967353
 30
0.0
 11
198.8004161467
 21
151.492444457
 31
0.0
  0
LINE
  5
2E1
330
1F
100
AcDbEntity
  8
0
  6
HIDDEN
 62
     7
370
     0
100
AcDbLine
 10
195.4668997278
 20
151.5081902405
 30
0.0
 11
195.4668997278
 21
150.0924444924
 31
0.0
  0
LINE
  5
2E2
330
1F
100
AcDbEntity
  8
0
  6
HIDDEN
 62
     7
370
     0
100
AcDbLine
 10
198.2205002059
 20
151.4207224761
 30
0.0
 11
198.2205002059
 21
150.0924444924
 31
0.0
  0
LINE
  5
2E3
330
1F
100
AcDbEntity
  8
0
  6
HIDDEN
 62
     7
370
     0
100
AcDbLine
 10
196.3306902398
 20
150.0924444924
 30
0.0
 11
196.3306902398
 21
151.443511794
 31
0.0
  0
LINE
  5
2E4
330
1F
100
AcDbEntity
  8
0
  6
HIDDEN
 62
     7
370
     0
100
AcDbLine
 10
198.3167468061
 20
150.0924444924
 30
0.0
 11
198.3167468061
 21
151.492444457
 31
0.0
  0
LINE
  5
2E5
330
1F
100
AcDbEntity
  8
0
  6
HIDDEN
 62
     7
370
     0
100
AcDbLine
 10
196.3236494412
 20
151.459486319
 30
0.0
 11
196.3236494412
 21
150.0924444924
 31
0.0
  0
LINE
  5
2E6
330
1F
100
AcDbEntity
  8
0
  6
HIDDEN
 62
     7
370
     0
100
AcDbLine
 10
189.5592449655
 20
151.1388546139
 30
0.0
 11
196.6841457834
 21
151.1388546139
 31
0.0
  0
SPLINE
  5
2E7
330
1F
100
AcDbEntity
  8
0
  6
HIDDEN
 62
     7
370
     0
100
AcDbSpline
210
0.0
220
0.0
230
1.0
 70
     8
 71
     3
 72
     9
 73
     5
 74
     0
 42
0.00000001
 43
0.00000001
 12
1.0
 22
0.0
 32
0.0
 13
1.0
 23
0.0
 33
0.0
 40
0.0
 40
0.0
 40
0.0
 40
0.0
 40
0.0792860253809889
 40
1.0
 40
1.0
 40
1.0
 40
1.0
 10
196.6868875970154
 20
151.1349016152371
 30
0.0
 10
196.7001762111489
 20
151.1355834691398
 30
0.0
 10
196.8677796957437
 20
151.1441833945292
 30
0.0
 10
197.0535136477323
 20
151.124426307312
 30
0.0
 10
197.2245214928894
 20
151.1062356810135
 30
0.0
  0
LINE
  5
2E8
330
1F
100
AcDbEntity
  8
0
  6
HIDDEN
 62
     7
370
     0
100
AcDbLine
 10
197.2260935654
 20
151.1080127609
 30
0.0
 11
197.7657540192
 21
151.1364852711
 31
0.0
  0
LINE
  5
2E9
330
1F
100
AcDbEntity
  8
0
  6
HIDDEN
 62
     7
370
     0
100
AcDbLine
 10
197.7666853418
 20
151.1388546139
 30
0.0
 11
204.8915936102
 21
151.1388546139
 31
0.0
  0
LINE
  5
2EA
330
1F
100
AcDbEntity
  8
0
  6
HIDDEN
 62
     7
370
     0
100
AcDbLine
 10
194.1754160871
 20
151.492444457
 30
0.0
 11
194.1754160871
 21
150.4939163503
 31
0.0
  0
LINE
  5
2EB
330
1F
100
AcDbEntity
  8
0
  6
HIDDEN
 62
     7
370
     0
100
AcDbLine
 10
200.275415038
 20
150.4939163503
 30
0.0
 11
200.275415038
 21
151.492444457
 31
0.0
  0
ARC
  5
2EC
330
1F
100
AcDbEntity
  8
0
  6
HIDDEN
 62
     7
370
     0
100
AcDbCircle
 10
194.1754176674
 20
149.6439163147
 30
0.0
 40
0.8500000000000227
100
AcDbArc
 50
0.0
 51
90.0
  0
ARC
  5
2ED
330
1F
100
AcDbEntity
  8
0
  6
HIDDEN
 62
     7
370
     0
100
AcDbCircle
 10
200.2754176674
 20
149.6439163147
 30
0.0
 40
0.8500000000000227
100
AcDbArc
 50
90.0
 51
180.0
  0
LINE
  5
2EE
330
1F
100
AcDbEntity
  8
0
  6
HIDDEN
 62
     7
370
     0
100
AcDbLine
 10
195.0254155745
 20
149.6439163973
 30
0.0
 11
195.0254155745
 21
146.7324444027
 31
0.0
  0
LINE
  5
2EF
330
1F
100
AcDbEntity
  8
0
  6
HIDDEN
 62
     7
370
     0
100
AcDbLine
 10
199.4254155506
 20
146.7324444027
 30
0.0
 11
199.4254155506
 21
149.6439163973
 31
0.0
  0
SPLINE
  5
2F0
330
1F
100
AcDbEntity
  8
0
  6
HIDDEN
 62
     7
370
     0
100
AcDbSpline
210
0.0
220
0.0
230
1.0
 70
     8
 71
     3
 72
    11
 73
     7
 74
     0
 42
0.00000001
 43
0.00000001
 12
1.0
 22
0.0
 32
0.0
 13
1.0
 23
0.0
 33
0.0
 40
0.0
 40
0.0
 40
0.0
 40
0.0
 40
0.1977673350823698
 40
0.4722225417118568
 40
0.7646044640140917
 40
1.0
 40
1.0
 40
1.0
 40
1.0
 10
187.8330795516282
 20
150.7446555703928
 30
0.0
 10
187.913719362398
 20
150.7882154044922
 30
0.0
 10
188.1062685333165
 20
150.8922261885099
 30
0.0
 10
188.5062904098318
 20
151.016505885957
 30
0.0
 10
189.0080830075904
 20
151.1138973929786
 30
0.0
 10
189.394055230851
 20
151.1239721715347
 30
0.0
 10
189.5662038077622
 20
151.1284656523776
 30
0.0
  0
SPLINE
  5
2F1
330
1F
100
AcDbEntity
  8
0
  6
HIDDEN
 62
     7
370
     0
100
AcDbSpline
210
0.0
220
0.0
230
1.0
 70
     8
 71
     3
 72
    12
 73
     8
 74
     0
 42
0.00000001
 43
0.00000001
 12
1.0
 22
0.0
 32
0.0
 13
1.0
 23
0.0
 33
0.0
 40
0.0
 40
0.0
 40
0.0
 40
0.0
 40
0.1823795937886071
 40
0.4262341829620644
 40
0.6804090268847676
 40
0.9437312785574309
 40
1.0
 40
1.0
 40
1.0
 40
1.0
 10
204.884053622654
 20
151.1280307829429
 30
0.0
 10
205.031294091967
 20
151.1252299749821
 30
0.0
 10
205.3754056223903
 20
151.1186842860263
 30
0.0
 10
205.8591191065681
 20
151.037597496561
 30
0.0
 10
206.3014477255184
 20
150.9053031473153
 30
0.0
 10
206.5979437282003
 20
150.7792516815283
 30
0.0
 10
206.7243721258452
 20
150.6966339408101
 30
0.0
 10
206.7466317166596
 20
150.6820878646386
 30
0.0
  0
LINE
  5
2F2
330
1F
100
AcDbEntity
  8
0
  6
HIDDEN
 62
     7
370
     0
100
AcDbLine
 10
189.1005127181
 20
151.492444457
 30
0.0
 11
187.7148760905
 21
150.6924444045
 31
0.0
  0
LINE
  5
2F3
330
1F
100
AcDbEntity
  8
0
  6
HIDDEN
 62
     7
370
     0
100
AcDbLine
 10
206.7359624852
 20
150.6924444045
 30
0.0
 11
205.350318407
 21
151.492444457
 31
0.0
  0
SPLINE
  5
2F4
330
1F
100
AcDbEntity
  8
0
  6
HIDDEN
 62
     7
370
     0
100
AcDbSpline
210
0.0
220
0.0
230
1.0
 70
     8
 71
     3
 72
    10
 73
     6
 74
     0
 42
0.00000001
 43
0.00000001
 12
1.0
 22
0.0
 32
0.0
 13
1.0
 23
0.0
 33
0.0
 40
0.0
 40
0.0
 40
0.0
 40
0.0
 40
0.3146603027336338
 40
0.6594066919916177
 40
0.9999999999999999
 40
0.9999999999999999
 40
0.9999999999999999
 40
0.9999999999999999
 10
182.3122887362748
 20
151.3924444377471
 30
0.0
 10
182.4577455307111
 20
150.9009065843489
 30
0.0
 10
182.7625668977972
 20
149.8708327330173
 30
0.0
 10
183.0263695245496
 20
148.2587355008723
 30
0.0
 10
183.3961571446269
 20
147.2037958705964
 30
0.0
 10
183.5799305190354
 20
146.6795224630323
 30
0.0
  0
LINE
  5
2F5
330
1F
100
AcDbEntity
  8
0
  6
HIDDEN
 62
     7
370
     0
100
AcDbLine
 10
182.3378814806
 20
151.492444457
 30
0.0
 11
182.7178834428
 21
151.2730513575
 31
0.0
  0
LINE
  5
2F6
330
1F
100
AcDbEntity
  8
0
  6
HIDDEN
 62
     7
370
     0
100
AcDbLine
 10
211.7329551329
 20
151.2730513575
 30
0.0
 11
212.1129496445
 21
151.492444457
 31
0.0
  0
LINE
  5
2F7
330
1F
100
AcDbEntity
  8
0
  6
HIDDEN
 62
     7
370
     0
100
AcDbLine
 10
112.1329529633
 20
126.3685207748
 30
0.0
 11
112.227113801
 21
127.0385105097
 31
0.0
  0
LINE
  5
2F8
330
1F
100
AcDbEntity
  8
0
  6
HIDDEN
 62
     7
370
     0
100
AcDbLine
 10
112.227113801
 20
176.3463783943
 30
0.0
 11
112.1329529633
 21
177.0163681292
 31
0.0
  0
ARC
  5
2F9
330
1F
100
AcDbEntity
  8
0
  6
HIDDEN
 62
     7
370
     0
100
AcDbCircle
 10
111.6329529633
 20
127.1220135903
 30
0.0
 40
0.6000000000000085
100
AcDbArc
 50
352.0
 51
0.0
  0
ARC
  5
2FA
330
1F
100
AcDbEntity
  8
0
  6
HIDDEN
 62
     7
370
     0
100
AcDbCircle
 10
111.6329529633
 20
127.1220135903
 30
0.0
 40
0.6000000000000085
100
AcDbArc
 50
0.0
 51
33.5573097619
  0
ARC
  5
2FB
330
1F
100
AcDbEntity
  8
0
  6
HIDDEN
 62
     7
370
     0
100
AcDbCircle
 10
111.6329529633
 20
176.2628753137
 30
0.0
 40
0.599999999999998
100
AcDbArc
 50
348.75
 51
8.0
  0
LWPOLYLINE
  5
2FC
330
1F
100
AcDbEntity
  8
0
  6
HIDDEN
 62
     7
370
     0
100
AcDbPolyline
 90
        3
 70
   128
 43
0.0
 10
112.2214241332
 20
176.1458218032
 10
112.1872806834
 20
176.0332658821
 10
112.1329529633
 20
175.931213417
  0
LINE
  5
2FD
330
1F
100
AcDbEntity
  8
0
  6
HIDDEN
 62
     7
370
     0
100
AcDbLine
 10
112.2329529608
 20
127.1220128917
 30
0.0
 11
112.2329529608
 21
176.2628760123
 31
0.0
  0
ARC
  5
2FE
330
1F
100
AcDbEntity
  8
0
  6
HIDDEN
 62
     7
370
     0
100
AcDbCircle
 10
105.8879549649
 20
139.692444452
 30
0.0
 40
7.999999999999987
100
AcDbArc
 50
270.0
 51
321.3178125465
  0
ARC
  5
2FF
330
1F
100
AcDbEntity
  8
0
  6
HIDDEN
 62
     7
370
     0
100
AcDbCircle
 10
105.8879549649
 20
163.692444452
 30
0.0
 40
7.999999999999987
100
AcDbArc
 50
38.6821874535
 51
90.0
  0
LINE
  5
300
330
1F
100
AcDbEntity
  8
0
  6
HIDDEN
 62
     7
370
     0
100
AcDbLine
 10
95.2153889884
 20
131.692444899
 30
0.0
 11
105.8879550037
 21
131.692444899
 31
0.0
  0
LINE
  5
301
330
1F
100
AcDbEntity
  8
0
  6
HIDDEN
 62
     7
370
     0
100
AcDbLine
 10
105.8879550037
 20
171.692444005
 30
0.0
 11
95.2153889884
 21
171.692444005
 31
0.0
  0
ARC
  5
302
330
1F
100
AcDbEntity
  8
0
  6
HIDDEN
 62
     7
370
     0
100
AcDbCircle
 10
95.2153885286
 20
132.292444452
 30
0.0
 40
0.6000000000000032
100
AcDbArc
 50
210.0
 51
270.0
  0
ARC
  5
303
330
1F
100
AcDbEntity
  8
0
  6
HIDDEN
 62
     7
370
     0
100
AcDbCircle
 10
95.2153885286
 20
171.092444452
 30
0.0
 40
0.6000000000000032
100
AcDbArc
 50
90.0
 51
150.0
  0
LINE
  5
304
330
1F
100
AcDbEntity
  8
0
  6
HIDDEN
 62
     7
370
     0
100
AcDbLine
 10
94.6957724591
 20
171.3924445146
 30
0.0
 11
93.136928459
 21
168.6924453759
 31
0.0
  0
LINE
  5
305
330
1F
100
AcDbEntity
  8
0
  6
HIDDEN
 62
     7
370
     0
100
AcDbLine
 10
93.136928459
 20
134.6924435281
 30
0.0
 11
94.6957724591
 21
131.9924443894
 31
0.0
  0
ARC
  5
306
330
1F
100
AcDbEntity
  8
0
  6
HIDDEN
 62
     7
370
     0
100
AcDbCircle
 10
120.5829529633
 20
135.967444452
 30
0.0
 40
1.500000000000025
100
AcDbArc
 50
238.211669383
 51
0.0
  0
ARC
  5
307
330
1F
100
AcDbEntity
  8
0
  6
HIDDEN
 62
     7
370
     0
100
AcDbCircle
 10
120.5829529633
 20
167.417444452
 30
0.0
 40
1.500000000000025
100
AcDbArc
 50
0.0
 51
121.7883306171
  0
LINE
  5
308
330
1F
100
AcDbEntity
  8
0
  6
HIDDEN
 62
     7
370
     0
100
AcDbLine
 10
81.3829521139
 20
134.6924435281
 30
0.0
 11
93.136928459
 21
134.6924435281
 31
0.0
  0
LINE
  5
309
330
1F
100
AcDbEntity
  8
0
  6
HIDDEN
 62
     7
370
     0
100
AcDbLine
 10
93.136928459
 20
168.6924453759
 30
0.0
 11
81.3829521139
 21
168.6924453759
 31
0.0
  0
LINE
  5
30A
330
1F
100
AcDbEntity
  8
0
  6
HIDDEN
 62
     7
370
     0
100
AcDbLine
 10
112.1329529633
 20
134.6924435281
 30
0.0
 11
119.7927789253
 21
134.6924435281
 31
0.0
  0
LINE
  5
30B
330
1F
100
AcDbEntity
  8
0
  6
HIDDEN
 62
     7
370
     0
100
AcDbLine
 10
119.7927789253
 20
168.6924453759
 30
0.0
 11
112.1329529633
 21
168.6924453759
 31
0.0
  0
LINE
  5
30C
330
1F
100
AcDbEntity
  8
0
  6
HIDDEN
 62
     7
370
     0
100
AcDbLine
 10
80.2329531361
 20
134.0284924888
 30
0.0
 11
81.3829521139
 21
134.6924435281
 31
0.0
  0
LINE
  5
30D
330
1F
100
AcDbEntity
  8
0
  6
HIDDEN
 62
     7
370
     0
100
AcDbLine
 10
81.3829521139
 20
168.6924453759
 30
0.0
 11
80.2329531361
 21
169.3563964152
 31
0.0
  0
LINE
  5
30E
330
1F
100
AcDbEntity
  8
0
  6
HIDDEN
 62
     7
370
     0
100
AcDbLine
 10
131.4329537054
 20
142.1924447575
 30
0.0
 11
133.9329531838
 21
142.1924447575
 31
0.0
  0
LINE
  5
30F
330
1F
100
AcDbEntity
  8
0
  6
HIDDEN
 62
     7
370
     0
100
AcDbLine
 10
133.9329531838
 20
161.1924441465
 30
0.0
 11
131.4329537054
 21
161.1924441465
 31
0.0
  0
LINE
  5
310
330
1F
100
AcDbEntity
  8
0
  6
HIDDEN
 62
     7
370
     0
100
AcDbLine
 10
122.0829528247
 20
142.6924448394
 30
0.0
 11
122.5829529067
 21
143.1924439901
 31
0.0
  0
LINE
  5
311
330
1F
100
AcDbEntity
  8
0
  6
HIDDEN
 62
     7
370
     0
100
AcDbLine
 10
122.5829529067
 20
160.1924449139
 30
0.0
 11
122.0829528247
 21
160.6924440646
 31
0.0
  0
LINE
  5
312
330
1F
100
AcDbEntity
  8
0
  6
HIDDEN
 62
     7
370
     0
100
AcDbLine
 10
122.5829529067
 20
143.1924439901
 30
0.0
 11
131.4329537054
 21
143.1924439901
 31
0.0
  0
LINE
  5
313
330
1F
100
AcDbEntity
  8
0
  6
HIDDEN
 62
     7
370
     0
100
AcDbLine
 10
131.4329537054
 20
160.1924449139
 30
0.0
 11
122.5829529067
 21
160.1924449139
 31
0.0
  0
ARC
  5
314
330
1F
100
AcDbEntity
  8
0
  6
HIDDEN
 62
     7
370
     0
100
AcDbCircle
 10
114.4329529633
 20
124.992444452
 30
0.0
 40
0.3000000000000114
100
AcDbArc
 50
90.0
 51
180.0
  0
ARC
  5
315
330
1F
100
AcDbEntity
  8
0
  6
HIDDEN
 62
     7
370
     0
100
AcDbCircle
 10
123.8329529633
 20
124.992444452
 30
0.0
 40
0.3000000000000114
100
AcDbArc
 50
0.0
 51
90.0
  0
LINE
  5
316
330
1F
100
AcDbEntity
  8
0
  6
HIDDEN
 62
     7
370
     0
100
AcDbLine
 10
114.1329530583
 20
124.9924451047
 30
0.0
 11
114.1329530583
 21
120.1924439454
 31
0.0
  0
LINE
  5
317
330
1F
100
AcDbEntity
  8
0
  6
HIDDEN
 62
     7
370
     0
100
AcDbLine
 10
124.1329530676
 20
120.1924439454
 30
0.0
 11
124.1329530676
 21
124.9924451047
 31
0.0
  0
LINE
  5
318
330
1F
100
AcDbEntity
  8
0
  6
HIDDEN
 62
     7
370
     0
100
AcDbLine
 10
133.9329531838
 20
147.4924446018
 30
0.0
 11
148.9329537799
 21
147.4924446018
 31
0.0
  0
LINE
  5
319
330
1F
100
AcDbEntity
  8
0
  6
HIDDEN
 62
     7
370
     0
100
AcDbLine
 10
143.6329534699
 20
155.8924443022
 30
0.0
 11
133.9329531838
 21
155.8924443022
 31
0.0
  0
LINE
  5
31A
330
1F
100
AcDbEntity
  8
0
  6
HIDDEN
 62
     7
370
     0
100
AcDbLine
 10
148.9329537799
 20
155.8924443022
 30
0.0
 11
148.6250399102
 21
155.8924443022
 31
0.0
  0
LINE
  5
31B
330
1F
100
AcDbEntity
  8
0
  6
HIDDEN
 62
     7
370
     0
100
AcDbLine
 10
148.9329537799
 20
147.4924446018
 30
0.0
 11
149.9544172038
 21
149.1924445079
 31
0.0
  0
LINE
  5
31C
330
1F
100
AcDbEntity
  8
0
  6
HIDDEN
 62
     7
370
     0
100
AcDbLine
 10
149.9544172038
 20
154.1924443961
 30
0.0
 11
148.9329537799
 21
155.8924443022
 31
0.0
  0
LINE
  5
31D
330
1F
100
AcDbEntity
  8
0
  6
HIDDEN
 62
     7
370
     0
100
AcDbLine
 10
143.1329524566
 20
170.692443841
 30
0.0
 11
143.6329534699
 21
170.3920140796
 31
0.0
  0
LINE
  5
31E
330
1F
100
AcDbEntity
  8
0
  6
HIDDEN
 62
     7
370
     0
100
AcDbLine
 10
148.6329524268
 20
170.3920140796
 30
0.0
 11
149.1329534401
 21
170.692443841
 31
0.0
  0
LINE
  5
31F
330
1F
100
AcDbEntity
  8
0
  6
HIDDEN
 62
     7
370
     0
100
AcDbLine
 10
143.1329524566
 20
177.6924449884
 30
0.0
 11
143.1329524566
 21
170.692443841
 31
0.0
  0
LINE
  5
320
330
1F
100
AcDbEntity
  8
0
  6
HIDDEN
 62
     7
370
     0
100
AcDbLine
 10
149.1329534401
 20
170.692443841
 30
0.0
 11
149.1329534401
 21
177.6924449884
 31
0.0
  0
LINE
  5
321
330
1F
100
AcDbEntity
  8
0
  6
HIDDEN
 62
     7
370
     0
100
AcDbLine
 10
143.6329534699
 20
170.3920140796
 30
0.0
 11
143.6329534699
 21
155.8924443022
 31
0.0
  0
LINE
  5
322
330
1F
100
AcDbEntity
  8
0
  6
HIDDEN
 62
     7
370
     0
100
AcDbLine
 10
148.6329524268
 20
168.9183339411
 30
0.0
 11
148.6329524268
 21
170.3920140796
 31
0.0
  0
LINE
  5
323
330
1F
100
AcDbEntity
  8
0
  6
HIDDEN
 62
     7
370
     0
100
AcDbLine
 10
148.6329524268
 20
155.8878370495
 30
0.0
 11
148.6329524268
 21
163.7868145415
 31
0.0
  0
LINE
  5
324
330
1F
100
AcDbEntity
  8
0
  6
HIDDEN
 62
     7
370
     0
100
AcDbLine
 10
160.1493185808
 20
166.2595728346
 30
0.0
 11
148.6329524268
 21
168.9183339411
 31
0.0
  0
LINE
  5
325
330
1F
100
AcDbEntity
  8
0
  6
HIDDEN
 62
     7
370
     0
100
AcDbLine
 10
148.6329524268
 20
163.7868145415
 30
0.0
 11
161.6149707188
 21
160.789678798
 31
0.0
  0
LINE
  5
326
330
1F
100
AcDbEntity
  8
0
  6
HIDDEN
 62
     7
370
     0
100
AcDbLine
 10
149.9544172038
 20
149.1924445079
 30
0.0
 11
160.9329520215
 21
149.1924445079
 31
0.0
  0
LINE
  5
327
330
1F
100
AcDbEntity
  8
0
  6
HIDDEN
 62
     7
370
     0
100
AcDbLine
 10
160.9329520215
 20
154.1924443961
 30
0.0
 11
149.9544172038
 21
154.1924443961
 31
0.0
  0
LINE
  5
328
330
1F
100
AcDbEntity
  8
0
  6
HIDDEN
 62
     7
370
     0
100
AcDbLine
 10
160.9329520215
 20
149.1924445079
 30
0.0
 11
162.4351045539
 21
151.692444452
 31
0.0
  0
LINE
  5
329
330
1F
100
AcDbEntity
  8
0
  6
HIDDEN
 62
     7
370
     0
100
AcDbLine
 10
162.4351045539
 20
151.692444452
 30
0.0
 11
160.9329520215
 21
154.1924443961
 31
0.0
  0
LINE
  5
32A
330
1F
100
AcDbEntity
  8
0
  6
HIDDEN
 62
     7
370
     0
100
AcDbLine
 10
195.0254155745
 20
146.7324444027
 30
0.0
 11
195.4754157414
 21
146.2824442358
 31
0.0
  0
LINE
  5
32B
330
1F
100
AcDbEntity
  8
0
  6
HIDDEN
 62
     7
370
     0
100
AcDbLine
 10
198.7754194488
 20
146.2824442358
 30
0.0
 11
199.2254196157
 21
146.7324444027
 31
0.0
  0
LINE
  5
32C
330
1F
100
AcDbEntity
  8
0
  6
HIDDEN
 62
     7
370
     0
100
AcDbLine
 10
195.4754157414
 20
146.2824442358
 30
0.0
 11
195.4754157414
 21
135.232444846
 31
0.0
  0
LINE
  5
32D
330
1F
100
AcDbEntity
  8
0
  6
HIDDEN
 62
     7
370
     0
100
AcDbLine
 10
198.7754194488
 20
135.232444846
 30
0.0
 11
198.7754194488
 21
146.2824442358
 31
0.0
  0
LINE
  5
32E
330
1F
100
AcDbEntity
  8
0
  6
HIDDEN
 62
     7
370
     0
100
AcDbLine
 10
195.4754157414
 20
135.232444846
 30
0.0
 11
197.1254213204
 21
134.2410240256
 31
0.0
  0
LINE
  5
32F
330
1F
100
AcDbEntity
  8
0
  6
HIDDEN
 62
     7
370
     0
100
AcDbLine
 10
197.1254213204
 20
134.2410240256
 30
0.0
 11
198.7754194488
 21
135.232444846
 31
0.0
  0
LINE
  5
330
330
1F
100
AcDbEntity
  8
0
  6
HIDDEN
 62
     7
370
     0
100
AcDbLine
 10
179.8829449763
 20
151.3924444377
 30
0.0
 11
180.1653517832
 21
149.0924444449
 31
0.0
  0
LINE
  5
331
330
1F
100
AcDbEntity
  8
0
  6
HIDDEN
 62
     7
370
     0
100
AcDbLine
 10
180.1653517832
 20
149.0924444449
 30
0.0
 11
180.1653517832
 21
146.7324444027
 31
0.0
  0
LINE
  5
332
330
1F
100
AcDbEntity
  8
0
  6
HIDDEN
 62
     7
370
     0
100
AcDbLine
 10
149.1329534401
 20
175.5124442213
 30
0.0
 11
148.9329537799
 21
175.6921820276
 31
0.0
  0
LINE
  5
333
330
1F
100
AcDbEntity
  8
0
  6
HIDDEN
 62
     7
370
     0
100
AcDbLine
 10
143.3329521169
 20
175.6921820276
 30
0.0
 11
143.1329524566
 21
175.5124442213
 31
0.0
  0
LINE
  5
334
330
1F
100
AcDbEntity
  8
0
  6
HIDDEN
 62
     7
370
     0
100
AcDbLine
 10
143.1329524566
 20
175.5124442213
 30
0.0
 11
143.3329521169
 21
175.0021818959
 31
0.0
  0
LINE
  5
335
330
1F
100
AcDbEntity
  8
0
  6
HIDDEN
 62
     7
370
     0
100
AcDbLine
 10
148.9329537799
 20
175.0021818959
 30
0.0
 11
149.1329534401
 21
175.5124442213
 31
0.0
  0
LINE
  5
336
330
1F
100
AcDbEntity
  8
0
  6
HIDDEN
 62
     7
370
     0
100
AcDbLine
 10
143.1329524566
 20
174.8224440896
 30
0.0
 11
143.3329521169
 21
174.3121817642
 31
0.0
  0
LINE
  5
337
330
1F
100
AcDbEntity
  8
0
  6
HIDDEN
 62
     7
370
     0
100
AcDbLine
 10
148.9329537799
 20
174.3121817642
 30
0.0
 11
149.1329534401
 21
174.8224440896
 31
0.0
  0
LINE
  5
338
330
1F
100
AcDbEntity
  8
0
  6
HIDDEN
 62
     7
370
     0
100
AcDbLine
 10
143.1329524566
 20
174.1324439579
 30
0.0
 11
143.3329521169
 21
173.6221816325
 31
0.0
  0
LINE
  5
339
330
1F
100
AcDbEntity
  8
0
  6
HIDDEN
 62
     7
370
     0
100
AcDbLine
 10
148.9329537799
 20
173.6221816325
 30
0.0
 11
149.1329534401
 21
174.1324439579
 31
0.0
  0
LINE
  5
33A
330
1F
100
AcDbEntity
  8
0
  6
HIDDEN
 62
     7
370
     0
100
AcDbLine
 10
149.1329534401
 20
174.8224440896
 30
0.0
 11
148.9329537799
 21
175.0021818959
 31
0.0
  0
LINE
  5
33B
330
1F
100
AcDbEntity
  8
0
  6
HIDDEN
 62
     7
370
     0
100
AcDbLine
 10
143.3329521169
 20
175.0021818959
 30
0.0
 11
143.1329524566
 21
174.8224440896
 31
0.0
  0
LINE
  5
33C
330
1F
100
AcDbEntity
  8
0
  6
HIDDEN
 62
     7
370
     0
100
AcDbLine
 10
149.1329534401
 20
174.1324439579
 30
0.0
 11
148.9329537799
 21
174.3121817642
 31
0.0
  0
LINE
  5
33D
330
1F
100
AcDbEntity
  8
0
  6
HIDDEN
 62
     7
370
     0
100
AcDbLine
 10
143.3329521169
 20
174.3121817642
 30
0.0
 11
143.1329524566
 21
174.1324439579
 31
0.0
  0
LINE
  5
33E
330
1F
100
AcDbEntity
  8
0
  6
HIDDEN
 62
     7
370
     0
100
AcDbLine
 10
149.1329534401
 20
176.2024443531
 30
0.0
 11
149.1329534401
 21
176.7524443501
 31
0.0
  0
LINE
  5
33F
330
1F
100
AcDbEntity
  8
0
  6
HIDDEN
 62
     7
370
     0
100
AcDbLine
 10
143.1329524566
 20
176.7524443501
 30
0.0
 11
143.1329524566
 21
176.2024443531
 31
0.0
  0
LINE
  5
340
330
1F
100
AcDbEntity
  8
0
  6
HIDDEN
 62
     7
370
     0
100
AcDbLine
 10
149.1329534401
 20
173.4424438261
 30
0.0
 11
148.9329537799
 21
173.6221816325
 31
0.0
  0
LINE
  5
341
330
1F
100
AcDbEntity
  8
0
  6
HIDDEN
 62
     7
370
     0
100
AcDbLine
 10
143.3329521169
 20
173.6221816325
 30
0.0
 11
143.1329524566
 21
173.4424438261
 31
0.0
  0
LINE
  5
342
330
1F
100
AcDbEntity
  8
0
  6
HIDDEN
 62
     7
370
     0
100
AcDbLine
 10
143.1329524566
 20
176.2024443531
 30
0.0
 11
143.3329521169
 21
175.6921820276
 31
0.0
  0
LINE
  5
343
330
1F
100
AcDbEntity
  8
0
  6
HIDDEN
 62
     7
370
     0
100
AcDbLine
 10
148.9329537799
 20
175.6921820276
 30
0.0
 11
149.1329534401
 21
176.2024443531
 31
0.0
  0
LINE
  5
344
330
1F
100
AcDbEntity
  8
0
  6
HIDDEN
 62
     7
370
     0
100
AcDbLine
 10
149.1329534401
 20
170.692443841
 30
0.0
 11
149.1329534401
 21
173.4424438261
 31
0.0
  0
LINE
  5
345
330
1F
100
AcDbEntity
  8
0
  6
HIDDEN
 62
     7
370
     0
100
AcDbLine
 10
143.1329524566
 20
173.4424438261
 30
0.0
 11
143.1329524566
 21
170.692443841
 31
0.0
  0
LINE
  5
346
330
1F
100
AcDbEntity
  8
0
  6
HIDDEN
 62
     7
370
     0
100
AcDbLine
 10
149.1329534401
 20
176.7524443501
 30
0.0
 11
148.9929533054
 21
176.8924444848
 31
0.0
  0
LINE
  5
347
330
1F
100
AcDbEntity
  8
0
  6
HIDDEN
 62
     7
370
     0
100
AcDbLine
 10
143.2729525914
 20
176.8924444848
 30
0.0
 11
143.1329524566
 21
176.7524443501
 31
0.0
  0
LINE
  5
348
330
1F
100
AcDbEntity
  8
0
  6
HIDDEN
 62
     7
370
     0
100
AcDbLine
 10
143.1329524566
 20
170.692443841
 30
0.0
 11
143.6525671233
 21
170.3924443507
 31
0.0
  0
LINE
  5
349
330
1F
100
AcDbEntity
  8
0
  6
HIDDEN
 62
     7
370
     0
100
AcDbLine
 10
148.6133387734
 20
170.3924443507
 30
0.0
 11
149.1329534401
 21
170.692443841
 31
0.0
  0
LINE
  5
34A
330
1F
100
AcDbEntity
  8
0
  6
HIDDEN
 62
     7
370
     0
100
AcDbLine
 10
143.6329534699
 20
172.0358207756
 30
0.0
 11
146.132954811
 21
170.5924440109
 31
0.0
  0
LINE
  5
34B
330
1F
100
AcDbEntity
  8
0
  6
HIDDEN
 62
     7
370
     0
100
AcDbLine
 10
146.132954811
 20
170.5924440109
 30
0.0
 11
148.6329524268
 21
172.0358207756
 31
0.0
  0
LINE
  5
34C
330
1F
100
AcDbEntity
  8
0
  6
HIDDEN
 62
     7
370
     0
100
AcDbLine
 10
148.6329524268
 20
172.0358207756
 30
0.0
 11
148.6329524268
 21
176.8924444848
 31
0.0
  0
LINE
  5
34D
330
1F
100
AcDbEntity
  8
0
  6
HIDDEN
 62
     7
370
     0
100
AcDbLine
 10
143.6329534699
 20
176.8924444848
 30
0.0
 11
143.6329534699
 21
172.0358207756
 31
0.0
  0
CIRCLE
  5
34E
330
1F
100
AcDbEntity
  8
0
  6
HIDDEN
 62
     7
370
     0
100
AcDbCircle
 10
146.1329529633
 20
173.492444452
 30
0.0
 40
2.5
  0
LINE
  5
34F
330
1F
100
AcDbEntity
  8
VERMASSUNG
100
AcDbLine
 10
212.1329529633
 20
151.692444452
 30
0.0
 11
212.1329529633
 21
156.0569588751
 31
0.0
  0
DIMENSION
  5
350
330
1F
100
AcDbEntity
  8
VERMASSUNG
100
AcDbDimension
  2
_D_1
 10
212.1329529633
 20
187.0584467787
 30
0.0
 11
162.1329529633
 21
187.0584467787
 31
0.0
 70
   160
  1
<>
 71
     2
 42
-1.0
  3
SLDDIMSTYLE0
100
AcDbAlignedDimension
 13
112.1329529633
 23
182.892444452
 33
0.0
 14
212.1329529633
 24
156.0569588751
 34
0.0
100
AcDbRotatedDimension
  0
DIMENSION
  5
35A
330
1F
100
AcDbEntity
  8
VERMASSUNG
100
AcDbDimension
  2
_D_2
 10
80.2329529633
 20
193.192444452
 30
0.0
 11
146.1829529633
 21
193.192444452
 31
0.0
 70
   160
  1
<>
 71
     2
 42
-1.0
  3
SLDDIMSTYLE0
100
AcDbAlignedDimension
 13
212.1329529633
 23
156.0569588751
 33
0.0
 14
80.2329529633
 24
173.273494488
 34
0.0
100
AcDbRotatedDimension
  0
DIMENSION
  5
364
330
1F
100
AcDbEntity
  8
VERMASSUNG
100
AcDbDimension
  2
_D_3
 10
70.0716433125
 20
120.192444452
 30
0.0
 11
70.0716433125
 21
151.692444452
 31
0.0
 70
   160
  1
HSK T %%c<>
 71
     2
 42
-1.0
  3
SLDDIMSTYLE0
100
AcDbAlignedDimension
 13
112.4329529633
 23
183.192444452
 33
0.0
 14
114.1329529633
 24
120.192444452
 34
0.0
 50
90.0
100
AcDbRotatedDimension
  0
LINE
  5
370
330
1F
100
AcDbEntity
  8
VERMASSUNG
  6
CENTERX2
370
     0
100
AcDbLine
 10
214.0492785508
 20
151.692444452
 30
0.0
 11
77.8374372316
 21
151.692444452
 31
0.0
  0
OLE2FRAME
  5
371
330
1F
100
AcDbEntity
  8
0
100
AcDbOle2Frame
 70
     2
  3
Paintbrush-Bild
 10
13.8511154363
 20
38.264191557
 30
0.0
 11
51.6290888628
 21
31.9806341108
 31
0.0
 71
     2
 72
     0
 73
     1
 90
    12928
310
80552BED0767C5B32B40DDAF6807D121434000000000000000006FFBDDFB85D0
310
4940DDAF6807D121434000000000000000006FFBDDFB85D04940416F4BD60AFB
310
3F4000000000000000002BED0767C5B32B40416F4BD60AFB3F40000000000000
310
0000000000000100000000010000010000000100000000000100000000320000
310
D0CF11E0A1B11AE1000000000000000000000000000000003E000300FEFF0900
310
0600000000000000000000000100000001000000000000000010000002000000
310
01000000FEFFFFFF0000000000000000FFFFFFFFFFFFFFFFFFFFFFFFFFFFFFFF
310
FFFFFFFFFFFFFFFFFFFFFFFFFFFFFFFFFFFFFFFFFFFFFFFFFFFFFFFFFFFFFFFF
310
FFFFFFFFFFFFFFFFFFFFFFFFFFFFFFFFFFFFFFFFFFFFFFFFFFFFFFFFFFFFFFFF
310
FFFFFFFFFFFFFFFFFFFFFFFFFFFFFFFFFFFFFFFFFFFFFFFFFFFFFFFFFFFFFFFF
310
FFFFFFFFFFFFFFFFFFFFFFFFFFFFFFFFFFFFFFFFFFFFFFFFFFFFFFFFFFFFFFFF
310
FFFFFFFFFFFFFFFFFFFFFFFFFFFFFFFFFFFFFFFFFFFFFFFFFFFFFFFFFFFFFFFF
310
FFFFFFFFFFFFFFFFFFFFFFFFFFFFFFFFFFFFFFFFFFFFFFFFFFFFFFFFFFFFFFFF
310
FFFFFFFFFFFFFFFFFFFFFFFFFFFFFFFFFFFFFFFFFFFFFFFFFFFFFFFFFFFFFFFF
310
FFFFFFFFFFFFFFFFFFFFFFFFFFFFFFFFFFFFFFFFFFFFFFFFFFFFFFFFFFFFFFFF
310
FFFFFFFFFFFFFFFFFFFFFFFFFFFFFFFFFFFFFFFFFFFFFFFFFFFFFFFFFFFFFFFF
310
FFFFFFFFFFFFFFFFFFFFFFFFFFFFFFFFFFFFFFFFFFFFFFFFFFFFFFFFFFFFFFFF
310
FFFFFFFFFFFFFFFFFFFFFFFFFFFFFFFFFFFFFFFFFFFFFFFFFFFFFFFFFFFFFFFF
310
FFFFFFFFFFFFFFFFFFFFFFFFFFFFFFFFFFFFFFFFFFFFFFFFFFFFFFFFFFFFFFFF
310
FFFFFFFFFFFFFFFFFFFFFFFFFFFFFFFFFFFFFFFFFFFFFFFFFFFFFFFFFFFFFFFF
310
FDFFFFFFFEFFFFFFFEFFFFFFFEFFFFFF05000000060000000700000008000000
310
090000000A0000000B0000000C0000000D0000000E0000000F00000010000000
310
11000000120000001300000014000000150000001600000017000000FEFFFFFF
310
FFFFFFFFFFFFFFFFFFFFFFFFFFFFFFFFFFFFFFFFFFFFFFFFFFFFFFFFFFFFFFFF
310
FFFFFFFFFFFFFFFFFFFFFFFFFFFFFFFFFFFFFFFFFFFFFFFFFFFFFFFFFFFFFFFF
310
FFFFFFFFFFFFFFFFFFFFFFFFFFFFFFFFFFFFFFFFFFFFFFFFFFFFFFFFFFFFFFFF
310
FFFFFFFFFFFFFFFFFFFFFFFFFFFFFFFFFFFFFFFFFFFFFFFFFFFFFFFFFFFFFFFF
310
FFFFFFFFFFFFFFFFFFFFFFFFFFFFFFFFFFFFFFFFFFFFFFFFFFFFFFFFFFFFFFFF
310
FFFFFFFFFFFFFFFFFFFFFFFFFFFFFFFFFFFFFFFFFFFFFFFFFFFFFFFFFFFFFFFF
310
FFFFFFFFFFFFFFFFFFFFFFFFFFFFFFFFFFFFFFFFFFFFFFFFFFFFFFFFFFFFFFFF
310
FFFFFFFFFFFFFFFFFFFFFFFFFFFFFFFFFFFFFFFFFFFFFFFFFFFFFFFFFFFFFFFF
310
FFFFFFFFFFFFFFFFFFFFFFFFFFFFFFFFFFFFFFFFFFFFFFFFFFFFFFFFFFFFFFFF
310
FFFFFFFFFFFFFFFFFFFFFFFFFFFFFFFFFFFFFFFFFFFFFFFFFFFFFFFFFFFFFFFF
310
FFFFFFFFFFFFFFFFFFFFFFFFFFFFFFFFFFFFFFFFFFFFFFFFFFFFFFFFFFFFFFFF
310
FFFFFFFFFFFFFFFFFFFFFFFFFFFFFFFFFFFFFFFFFFFFFFFFFFFFFFFFFFFFFFFF
310
FFFFFFFFFFFFFFFFFFFFFFFFFFFFFFFFFFFFFFFFFFFFFFFFFFFFFFFFFFFFFFFF
310
52006F006F007400200045006E00740072007900000000000000000000000000
310
0000000000000000000000000000000000000000000000000000000000000000
310
16000500FFFFFFFFFFFFFFFF020000000A00030000000000C000000000000046
310
000000000000000000000000E0381FA72EDCCD0103000000C000000000000000
310
01004F006C006500000000000000000000000000000000000000000000000000
310
0000000000000000000000000000000000000000000000000000000000000000
310
0A000200FFFFFFFFFFFFFFFFFFFFFFFF00000000000000000000000000000000
310
0000000000000000000000000000000000000000000000001400000000000000
310
010043006F006D0070004F0062006A0000000000000000000000000000000000
310
0000000000000000000000000000000000000000000000000000000000000000
310
120002010100000003000000FFFFFFFF00000000000000000000000000000000
310
0000000000000000000000000000000000000000010000004D00000000000000
310
01004F006C006500310030004E00610074006900760065000000000000000000
310
0000000000000000000000000000000000000000000000000000000000000000
310
1A000200FFFFFFFFFFFFFFFFFFFFFFFF00000000000000000000000000000000
310
0000000000000000000000000000000000000000040000002426000000000000
310
FEFFFFFF02000000FEFFFFFFFFFFFFFFFFFFFFFFFFFFFFFFFFFFFFFFFFFFFFFF
310
FFFFFFFFFFFFFFFFFFFFFFFFFFFFFFFFFFFFFFFFFFFFFFFFFFFFFFFFFFFFFFFF
310
FFFFFFFFFFFFFFFFFFFFFFFFFFFFFFFFFFFFFFFFFFFFFFFFFFFFFFFFFFFFFFFF
310
FFFFFFFFFFFFFFFFFFFFFFFFFFFFFFFFFFFFFFFFFFFFFFFFFFFFFFFFFFFFFFFF
310
FFFFFFFFFFFFFFFFFFFFFFFFFFFFFFFFFFFFFFFFFFFFFFFFFFFFFFFFFFFFFFFF
310
FFFFFFFFFFFFFFFFFFFFFFFFFFFFFFFFFFFFFFFFFFFFFFFFFFFFFFFFFFFFFFFF
310
FFFFFFFFFFFFFFFFFFFFFFFFFFFFFFFFFFFFFFFFFFFFFFFFFFFFFFFFFFFFFFFF
310
FFFFFFFFFFFFFFFFFFFFFFFFFFFFFFFFFFFFFFFFFFFFFFFFFFFFFFFFFFFFFFFF
310
FFFFFFFFFFFFFFFFFFFFFFFFFFFFFFFFFFFFFFFFFFFFFFFFFFFFFFFFFFFFFFFF
310
FFFFFFFFFFFFFFFFFFFFFFFFFFFFFFFFFFFFFFFFFFFFFFFFFFFFFFFFFFFFFFFF
310
FFFFFFFFFFFFFFFFFFFFFFFFFFFFFFFFFFFFFFFFFFFFFFFFFFFFFFFFFFFFFFFF
310
FFFFFFFFFFFFFFFFFFFFFFFFFFFFFFFFFFFFFFFFFFFFFFFFFFFFFFFFFFFFFFFF
310
FFFFFFFFFFFFFFFFFFFFFFFFFFFFFFFFFFFFFFFFFFFFFFFFFFFFFFFFFFFFFFFF
310
FFFFFFFFFFFFFFFFFFFFFFFFFFFFFFFFFFFFFFFFFFFFFFFFFFFFFFFFFFFFFFFF
310
FFFFFFFFFFFFFFFFFFFFFFFFFFFFFFFFFFFFFFFFFFFFFFFFFFFFFFFFFFFFFFFF
310
FFFFFFFFFFFFFFFFFFFFFFFFFFFFFFFFFFFFFFFFFFFFFFFFFFFFFFFFFFFFFFFF
310
0100000200000000000000000000000000000000000000000000000000000000
310
0000000000000000000000000000000000000000000000000000000000000000
310
0100FEFF030A0000FFFFFFFF0A00030000000000C00000000000004607000000
310
5042727573680007000000504272757368000700000050427275736800F439B2
310
7100000000000000000000000000000000000000000000000000000000000000
310
0000000000000000000000000000000000000000000000000000000000000000
310
0000000000000000000000000000000000000000000000000000000000000000
310
0000000000000000000000000000000000000000000000000000000000000000
310
0000000000000000000000000000000000000000000000000000000000000000
310
0000000000000000000000000000000000000000000000000000000000000000
310
0000000000000000000000000000000000000000000000000000000000000000
310
0000000000000000000000000000000000000000000000000000000000000000
310
0000000000000000000000000000000000000000000000000000000000000000
310
0000000000000000000000000000000000000000000000000000000000000000
310
0000000000000000000000000000000000000000000000000000000000000000
310
0000000000000000000000000000000000000000000000000000000000000000
310
20260000424D0E260000000000003E00000028000000B40200006E0000000100
310
01000000000000000000130B0000130B00000200000002000000000000FFFFFF
310
FFFFFFFFFFFFFFFFFFFFFFFFFFFFFFFFFFFFFFFFFFFFFFFFFFFFFFFFFFFFFFFF
310
FFFFFFFFFFFFFFFFFFFFFFFFFFFFFFFFFFFFFFFFFFFFFFFFFFFFFFFFFFFFFFFF
310
FFFFFFFFFFFFFFFFFFFFFFFFFFFFFFFFFFFFFFFFFFFFFFFFF000FFFFFFFFFFFF
310
FFFFFFFFFFFFFFFFFFFFFFFFFFFFFFFFFFFFFFFFFFFFFFFFFFFFFFFFFFFFFFFF
310
FFFFFFFFFFFFFFFFFFFFFFFFFFFFFFFFFFFFFFFFFFFFFFFFFFFFFFFFFFFFFFFF
310
FFFFFFFFFFFFFFFFFFFFFFFFFFFFFFFFF000FFFFFFFFFFFFFFFFFFFFFFFFFFFF
310
FFFFFFFFFFFFFFFFFFFFFFFFFFFFFFFFFFFFFFFFFFFFFFFFFFFFFFFFFFFFFFFF
310
FFFFFFFFFFFFFFFFFFFFFFFFFFFFFFFFFFFFFFFFFFFFFFFFFFFFFFFFFFFFFFFF
310
FFFFFFFFFFFFFFFFF000FFFFFFFFFFFFFFFFFFFFFFFFFFFFFFFFFFFFFFFFFFFF
310
FFFFFFFFFFFFFFFFFFFFFFFFFFFFFFFFFFFFFFFFFFFFFFFFFFFFFFFFFFFFFFFF
310
FFFFFFFFFFFFFFFFFFFFFFFFFFFFFFFFFFFFFFFFFFFFFFFFFFFFFFFFFFFFFFFF
310
F000FFFFFFFFFFFFFFFFFFFFFFFFFFFFFFFFFFFFFFFFFFFFFFFFFFFFFFFFFFFF
310
FFFFFFFFFFFFFFFFFFFFFFFFFFFFFFFFFFFFFFFFFFFFFFFFFFFFFFFFFFFFFFFF
310
FFFFFFFFFFFFFFFFFFFFFFFFFFFFFFFFFFFFFFFFFFFFFFFFF000FFFFFFFFFFFF
310
FFFFFFFFFFFFFFFFFFFFFFFFFFFFFFFFFFFFFFFFFFFFFFFFFFFFFFFFFFFFFFFF
310
FFFFFFFFFFFFFFFFFFFFFFFFFFFFFFFFFFFFFFFFFFFFFFFFFFFFFFFFFFFFFFFF
310
FFFFFFFFFFFFFFFFFFFFFFFFFFFFFFFFF000FFFFFFFFFFFFFFFFFFFFFFFFFFFF
310
FFFFFFFFFFFFFFFFFFFFFFFFFFFFFFFFFFFFFFFFFFFFFFFFFFFFFFFFFFFFFFFF
310
FFFFFFFFFFFFFFFFFFFFFFFFFFFFFFFFFFFFFFFFFFFFFFFFFFFFFFFFFFFFFFFF
310
FFFFFFFFFFFFFFFFF000FFFFFFFFFFFFFFFFFFFFFFFFFFFFFFFFFFFFFFFFFFFF
310
FFFFFFFFFFFFFFFFFFFFFFFFFFFFFFFFFFFFFFFFFFFFFFFFFFFFFFFFFFFFFFFF
310
FFFFFFFFFFFFFFFFFFFFFFFFFFFFFFFFFFFFFFFFFFFFFFFFFFFFFFFFFFFFFFFF
310
F000FFFFFFFFFFFFFFFFFFFFFFFFFFFFFFFFFFFFFFFFFFFFFFFFFFFFFFFFFFFF
310
FFFFFFFFFFFFFFFFFFFFFFFFFFFFFFFFFFFFFFFFFFFFFFFFFFFFFFFFFFFFFFFF
310
FFFFFFFFFFFFFFFFFFFFFFFFFFFFFFFFFFFFFFFFFFFFFFFFF000FFFFFFFFFFFF
310
FFFFFFFFFFFFFFFFFFFFFFFFFFFFFFFFFFFFFFFFFFFFFFFFFFFFFFFFFFFFFFFF
310
FFFFFFFFFFFFFFFFFFFFFFFFFFFFFFFFFFFFFFFFFFFFFFFFFFFFFFFFFFFFFFFF
310
FFFFFFFFFFFFFFFFFFFFFFFFFFFFFFFFF000FFFFFFFFFFFFFFFFFFFFFFFFFFFF
310
FFFFFFFFFFFFFFFFFFFFFFFFFFFFFFFFFFFFFFFFFFFFFFFFFFFFFFFFFFFFFFFF
310
FFFFFFFFFFFFFFFFFFFFFFFFFFFFFFFFFFFFFFFFFFFFFFFFFFFFFFFFFFFFFFFF
310
FFFFFFFFFFFFFFFFF000FFFFFFFFFFFFFFFFFFFFFFFFFFFFFFFFFFFFFFFFFFFF
310
FFFFFFFFFFFFFFFFFFFFFFFFFFFFFFFFFFFFFFFFFFFFFFFFFFFFFFFFFFFFFFFF
310
FFFFFFFFFFFFFFFFFFFFFFFFFFFFFFFFFFFFFFFFFFFFFFFFFFFFFFFFFFFFFFFF
310
F000FFFFFFFFFFFFFFFFFFFFFFFFFFFFFFFFFFFFFFFFFFFFFFFFFFFFFFFFFFFF
310
FFFFFFFFFFFFFFFFFFFFFFFFFFFFFFFFFFFFFFFFFFFFFFFFFFFFFFFFFFFFFFFF
310
FFFFFFFFFFFFFFFFFFFFFFFFFFFFFFFFFFFFFFFFFFFFFFFFF000FFFFFFFFFFFF
310
FFFFFFFFFFFFFFFFFFFFFFFFFFFFFFFFFFFFFFFFFFFFFFFFFFFFFFFFFFFFFFFF
310
FFFFFFFFFFFFFFFFFFFFFFFFFFFFFFFFFFFFFFFFFFFFFFFFFFFFFFFFFFFFFFFF
310
FFFFFFFFFFFFFFFFFFFFFFFFFFFFFFFFF000FFFFFFFFFFFFFFFFFFFFFFFFFFFF
310
FFFFFFFFFFFFFFFFFFFFFFFFFFFFFFFFFFFFFFFFFFFFFFFFFFFFFFFFFFFFFFFF
310
FFFFFFFFFFFFFFFFFFFFFFFFFFFFFFFFFFFFFFFFFFFFFFFFFFFFFFFFFFFFFFFF
310
FFFFFFFFFFFFFFFFF000FFFFFFFFFFFFFFFFFFFFFFFFFFFFFFFFFFFFFFFFFFFF
310
FFFFFFFFFFFFFFFFFFFFFFFFFFFFFFFFFFFFFFFFFFFFFFFFFFFFFFFFFFFFFFFF
310
FFFFFFFFFFFFFFFFFFFFFFFFFFFFFFFFFFFFFFFFFFFFFFFFFFFFFFFFFFFFFFFF
310
F000FFFFFFFFFFFFFFFFFFFFFFFFFFFFFFFFFFFFFFFFFFFFFFFFFFFFFFFFFFFF
310
FFFFFFFFFFFFFFFFFFFFFFFFFFFFFFFFFFFFFFFFFFFFFFFFFFFFFFFFFFFFFFFF
310
FFFFFFFFFFFFFFFFFFFFFFFFFFFFFFFFFFFFFFFFFFFFFFFFF000FFFFFFFFFFFF
310
FFFFFFFFFFFFFFFFFFFFFFFFFFFFFFFFFFFFFFFFFFFFFFFFFFFFFFFFFFFFFFFF
310
FFFFFFFFFFFFFFFFFFFFFFFFFFFFFFFFFFFFFFFFFFFFFFFFFFFFFFFFFFFFFFFF
310
FFFFFFFFFFFFFFFFFFFFFFFFFFFFFFFFF000FFFFFFFFFFFFFFFFFFFFFFFFFFFF
310
FFFFFFFFFFFFFFFFFFFFFFFFFFFFFFFFFFFFFFFFFFFFFFFFFFFFFFFFFFFFFFFF
310
FFFFFFFFFFFFFFFFFFFFFFFFFFFFFFFFFFFFFFFFFFFFFFFFFFFFFFFFFFFFFFFF
310
FFFFFFFFFFFFFFFFF000FFFFF80003FFFFFFFFFFFFFFFFFFFFFFFFFFFFFFFFFF
310
FFFFF00007FFFFFFFFFF00007FFFFFF800000000000000007FFFFFFFFFFFFFFF
310
FFFFFFFC001FFFFFFFFFFFFFFC001FFFFFFFFFFFFFFFFFFFFFFFFFFE0007FFFF
310
F000FFFF8000007FFFFFFFF8000FFFFFC0007FFFFF80007FFFFF0000007FFFFF
310
FFF8000007FFFFF800000000000000007FFFFFF0001FFFFFFFFFFFC00001FFFF
310
FFFFFFFFC00001FFFFFFFF000000000003FFFFE000007FFFF000FFFE0000000F
310
FFFFFFF0000FFFFF80007FFFFF80007FFFFC0000001FFFFFFFC0000001FFFFF8
310
00000000000000007FFFFFF0001FFFFFFFFFFE0000003FFFFFFFFFFE0000003F
310
FFFFFF000000000003FFFF0000000FFFF000FFF800000003FFFFFFF00007FFFF
310
80007FFFFF80007FFFF000000007FFFFFF000000003FFFF80000000000000000
310
7FFFFFF0001FFFFFFFFFF80000000FFFFFFFFFF80000000FFFFFFF0000000000
310
03FFFC00000003FFF000FFE000000000FFFFFFF00007FFFF80003FFFFF80007F
310
FFC000000001FFFFFC000000001FFFF800000000000000007FFFFFF0001FFFFF
310
FFFFE000000003FFFFFFFFE000000003FFFFFF000000000003FFF000000000FF
310
F000FF80000000007FFFFFF00007FFFF80003FFFFF80007FFF8000000000FFFF
310
F80000000007FFF800000000000000007FFFFFF0001FFFFFFFFFC000000001FF
310
FFFFFFC000000001FFFFFF000000000003FFC0000000007FF000FF0000000000
310
3FFFFFE00007FFFF00003FFFFF80007FFE00000000003FFFF00000000003FFF8
310
00000000000000007FFFFFF0001FFFFFFFFF8000000000FFFFFFFF8000000000
310
FFFFFF000000000003FF80000000003FF000FE00000000001FFFFFE00003FFFF
310
00003FFFFF80007FFC00000000001FFFE00000000001FFF8000001FFFE000000
310
7FFFFFF0001FFFFFFFFE00000000003FFFFFFE00000000003FFFFF0000000000
310
03FF00000000001FF000FC00000000000FFFFFE00003FFFF00001FFFFF80007F
310
F800000000001FFFC00000000000FFF8000001FFFE0000007FFFFFF0001FFFFF
310
FFFC00000000001FFFFFFC00000000001FFFFF000000000003FE00000000000F
310
F000F8000000000007FFFFE00003FFFF00001FFFFF80007FF800000000000FFF
310
800000000000FFF8000001FFFE0000007FFFFFF0001FFFFFFFF800000000000F
310
FFFFF800000000000FFFFF000000000003FC000000000007F000F80000000000
310
03FFFFC00003FFFE00001FFFFF80007FF0000000000007FF0000000000007FF8
310
000001FFFE0000007FFFFFF0001FFFFFFFF0000000000007FFFFF00000000000
310
07FFFF000000000003F8000000000003F000F0000000000003FFFFC00001FFFE
310
00001FFFFF80007FE0000000000007FE0000000000003FF8000001FFFE000000
310
7FFFFFF0001FFFFFFFF0000000000007FFFFF0000000000007FFFF0000000000
310
03F800001F800003F000E00001FFF00001FFFFC00001FFFE00000FFFFF80007F
310
E00001FFE00003FE00001FFF00003FF8000001FFFE0000007FFFFFF0001FFFFF
310
FFE000003E000003FFFFE000003E000003FFFF000000000003F00001FFF80001
310
F000E00007FFFC0001FFFFC00001FFFE00000FFFFF80007FC0000FFFFC0003FC
310
0000FFFFC0001FF8000001FFFE0000007FFFFFF0001FFFFFFFC00003FFE00001
310
FFFFC00003FFE00001FFFF0001FFFFFFFFF00007FFFE0001F000E0000FFFFF00
310
00FFFF800001FFFC00000FFFFF80007FC0001FFFFE0001FC0001FFFFE0001FF8
310
000001FFFE0000007FFFFFF0001FFFFFFF80000FFFF80000FFFF80000FFFF800
310
00FFFF0003FFFFFFFFE0000FFFFF8000F000C0003FFFFF8000FFFF800000FFFC
310
000007FFFF80007F80003FFFFF0001FC0003FFFFF0001FF8000001FFFE000000
310
7FFFFFF0001FFFFFFF80003FFFFE0000FFFF80003FFFFE0000FFFF0003FFFFFF
310
FFE0003FFFFF8000F000C0003FFFFF8000FFFF800000FFFC000007FFFF80007F
310
80007FFFFF8001F80007FFFFF8000FF8000001FFFE0000007FFFFFF0001FFFFF
310
FF00007FFFFF00007FFF00007FFFFF00007FFF0003FFFFFFFFE0003FFFFFC000
310
F000C0007FFFFFC000FFFF000000FFFC000007FFFF80007F8000FFFFFF8000F8
310
000FFFFFF8000FF8000001FFFE0000007FFFFFF0001FFFFFFF0000FFFFFF8000
310
7FFF0000FFFFFF80007FFF0003FFFFFFFFC0007FFFFFC00070008000FFFFFFC0
310
00FFFF000000FFF8000007FFFF80007F8000FFFFFF8000F8000FFFFFF8000FF8
310
000001FFFE0000007FFFFFF0001FFFFFFE0001FFFFFFC0003FFE0001FFFFFFC0
310
003FFF0003FFFFFFFFC0007FFFFFE00070008000FFFFFFC0007FFF0000007FF8
310
000003FFFF80007F0001FFFFFF8000F8000FFFFFF8000FF8000001FFFE000000
310
7FFFFFF0001FFFFFFE0001FFFFFFC0003FFE0001FFFFFFC0003FFF0003FFFFFF
310
FFC000FFFFFFE00070008000FFFFFFC0007FFF0000007FF8000003FFFF80007F
310
0001FFFFFF8000F8001FFFFFF8000FF8000001FFFE0000007FFFFFF0001FFFFF
310
FE0003FFFFFFE0003FFE0003FFFFFFE0003FFF0003FFFFFFFFC000FFFFFFE000
310
70008000FFFFFFC0007FFE0000007FF8000003FFFF80007F0001FFFFFF8000F0
310
001FFFFFF8000FF8000001FFFE0000007FFFFFF0001FFFFFFC0003FFFFFFE000
310
1FFC0003FFFFFFE0001FFF0003FFFFFFFFC000FFFFFFC00070008000FFFFFF80
310
007FFE0000007FF0000003FFFF80007F0001FFFFFF0000F0001FFFFFF8000FF8
310
000001FFFE0000007FFFFFF0001FFFFFFC0007FFFFFFF0001FFC0007FFFFFFF0
310
001FFF0003FFFFFFFFC000FFFFFFC00070008001FFFFFF0000FFFE0000003FF0
310
000001FFFF80007F0001FFFFFF0000F8001FFFFFF0000FF8000001FFFE000000
310
7FFFFFF0001FFFFFFC0007FFFFFFF0001FFC0007FFFFFFF0001FFF0003FFFFFF
310
FFC001FFFFFF80007000FFFFFFFFFE0000FFFE0008003FF0008001FFFF80007F
310
FFFFFFFFFC0000FFFFFFFFFFE0000FF8000001FFFE0000007FFFFFF0001FFFFF
310
F8000FFFFFFFF8000FF8000FFFFFFFF8000FFF0003FFFFFFFFFFFFFFFFFF0000
310
7000FFFFFFFFFC0000FFFC0008003FF0008001FFFF80007FFFFFFFFFF80001FF
310
FFFFFFFF80000FF8000001FFFE0000007FFFFFF0001FFFFFF8000FFFFFFFF800
310
0FF8000FFFFFFFF8000FFF0003FFFFFFFFFFFFFFFFFE0000F000FFFFFFFFE000
310
00FFFC000C003FE000C001FFFF80007FFFFFFFFFC00001FFFFFFFFFE00001FF8
310
000001FFFE0000007FFFFFF0001FFFFFF8000FFFFFFFF8000FF8000FFFFFFFF8
310
000FFF0003FFFFFFFFFFFFFFFFF00000F000FFFFFFFE000001FFFC000C001FE0
310
00C000FFFF80007FFFFFFFFE000001FFFFFFFFE000001FF80FFFFFFFFFFFFFC0
310
7FFFFFF0001FFFFFF8000FFFFFFFF8000FF8000FFFFFFFF8000FFF0003FFFFFF
310
FFFFFFFFFF800000F000FFFFFFC0000001FFFC001C001FE001C000FFFF80007F
310
FFFFFF80000003FFFFFFF80000001FF80FFFFFFFFFFFFFC07FFFFFF0001FFFFF
310
F8001FFFFFFFFC000FF8001FFFFFFFFC000FFF0003FFFFFFFFFFFFFFF0000001
310
F000FFFFF800000001FFF8001C001FE001C000FFFF80007FFFFFF800000003FF
310
FFFF800000003FF80FFFFFFFFFFFFFC07FFFFFF0001FFFFFF8001FFFFFFFFC00
310
0FF8001FFFFFFFFC000FFF0003FFFFFFFFFFFFFE00000001F000FFFFC0000000
310
03FFF8001E001FC001E000FFFF80007FFFFF8000000007FFFFFC000000003FF8
310
0FFFFFFFFFFFFFC07FFFFFF0001FFFFFF8001FFFFFFFFC000FF8001FFFFFFFFC
310
000FFF0003FFFFFFFFFFFFE000000003F000FFFE0000000007FFF8001E000FC0
310
01E0007FFF80007FFFFE0000000007FFFFE0000000007FF80FFFFFFFFFFFFFC0
310
7FFFFFF0001FFFFFF0001FFFFFFFFC0007F0001FFFFFFFFC0007FF0003FFFFFF
310
FFFFFF0000000003F000FFF80000000007FFF8001E000FC003E0007FFF80007F
310
FFF0000000000FFFFF8000000000FFF80FFFFFFFFFFFFFC07FFFFFF0001FFFFF
310
F0001FFFFFFFFC0007F0001FFFFFFFFC0007FF0003FFFFFFFFFFFC0000000007
310
F000FFE0000000000FFFF0003E000FC003E0007FFF80007FFFC0000000001FFF
310
FE0000000001FFF80FFFFFFFFFFFFFC07FFFFFF0001FFFFFF0001FFFFFFFFC00
310
07F0001FFFFFFFFC0007FF0003FFFFFFFFFFF0000000000FF000FFC000000000
310
1FFFF0003F000F8003F0003FFF80007FFF80000000003FFFF80000000003FFF8
310
0FFFFFFFFFFFFFC07FFFFFF0001FFFFFF0001FFFFFFFFC0007F0001FFFFFFFFC
310
0007FF0003FFFFFFFFFFE0000000001FF000FF00000000007FFFF0003F000780
310
03F0003FFF80007FFF00000000007FFFF00000000007FFF80FFFFFFFFFFFFFC0
310
7FFFFFF0001FFFFFF0001FFFFFFFFC0007F0001FFFFFFFFC0007FF0003FFFFFF
310
FFFF80000000007FF000FE0000000000FFFFE0003F00078007F0003FFF80007F
310
FE0000000001FFFFE0000000001FFFF80FFFFFFFFFFFFFC07FFFFFF0001FFFFF
310
F0001FFFFFFFFC0007F0001FFFFFFFFC0007FF0003FFFFFFFFFF0000000000FF
310
F000FC0000000003FFFFE0007F00078007F0003FFF80007FFC0000000007FFFF
310
C0000000007FFFF80FFFFFFFFFFFFFC07FFFFFF0001FFFFFF8001FFFFFFFFC00
310
0FF8001FFFFFFFFC000FFF0003FFFFFFFFFE0000000003FFF000FC000000000F
310
FFFFE0007F80070007F8001FFF80007FF8000000001FFFFF8000000001FFFFF8
310
0FFFFFFFFFFFFFC07FFFFFF0001FFFFFF8001FFFFFFFFC000FF8001FFFFFFFFC
310
000FFF0003FFFFFFFFFC000000000FFFF000F8000000007FFFFFE0007F800700
310
07F8001FFF80007FF000000000FFFFFF800000000FFFFFF80FFFFFFFFFFFFFC0
310
7FFFFFF0001FFFFFF8000FFFFFFFF8000FF8000FFFFFFFF8000FFF0003FFFFFF
310
FFFC000000007FFFF000F800000007FFFFFFC0007F8003000FF8001FFF80007F
310
F000000007FFFFFF000000007FFFFFF80FFFFFFFFFFFFFC07FFFFFF0001FFFFF
310
F8000FFFFFFFF8000FF8000FFFFFFFF8000FFF0003FFFFFFFFF80000000FFFFF
310
F000F0000000FFFFFFFFC000FF8003000FF8001FFF80007FE0000000FFFFFFFF
310
0000000FFFFFFFF8000001FFFE0000007FFFFFF0001FFFFFF8000FFFFFFFF800
310
0FF8000FFFFFFFF8000FFF0003FFFFFFFFF8000000FFFFFFF000F000000FFFFF
310
FFFFC000FFC002000FF8000FFF80007FE000001FFFFFFFFE000001FFFFFFFFF8
310
000001FFFE0000007FFFFFF0001FFFFFF8000FFFFFFFF8000FF8000FFFFFFFF8
310
000FFF0003FFFFFFFFF000001FFFFFFFF000E00000FFFFFFFFFFC000FFC00200
310
0FFC000FFF80007FE00001FFFFFFFFFE00001FFFFFFFFFF8000001FFFE000000
310
7FFFFFF0001FFFFFFC000FFFFFFFF8001FFC000FFFFFFFF8001FFF0003FFFFFF
310
FFF00001FFFFFFFFF000E00007FFFFFFFFFF8000FFC000001FFC000FFF80007F
310
C0000FFFFFFFFFFE0000FFFFFFFFFFF8000001FFFE0000007FFFFFF0001FFFFF
310
FC0007FFFFFFF0001FFC0007FFFFFFF0001FFF0003FFFFFFFFF00007FFFFFFFF
310
F000E0001FFFFFFFFFFF8000FFC000001FFC000FFF80007FC0003FFFFFFFFFFE
310
0001FFFFFFFFFFF8000001FFFE0000007FFFFFF0001FFFFFFC0007FFFFFFF000
310
1FFC0007FFFFFFF0001FFF0003FFFFFFFFF0001FFFFFFFFFF000E0003FFFFF00
310
03FF8001FFE000001FFC0007FF80007FC0007FFFFF0007FC0003FFFFF0003FF8
310
000001FFFE0000007FFFFFF0001FFFFFFC0003FFFFFFE0001FFC0003FFFFFFE0
310
001FFF0003FFFFFFFFF0003FFFFFFFFFF000E0003FFFFF0001FF8001FFE00000
310
1FFE0007FF80007FC0007FFFFE0003FC0007FFFFE0003FF8000001FFFE000000
310
7FFFFFF0001FFFFFFE0003FFFFFFE0003FFE0003FFFFFFE0003FFF0003FFFFFF
310
FFF0003FFFFF8001F000E0003FFFFF0001FF0001FFE000001FFE0007FF80007F
310
C0007FFFFE0003FC0007FFFFE0003FF8000001FFFE0000007FFFFFF0001FFFFF
310
FE0001FFFFFFC0003FFE0001FFFFFFC0003FFF0003FFFFFFFFF0003FFFFF0001
310
F000E0003FFFFF0003FF0001FFE000003FFE0007FF80007FC0007FFFFE0003FC
310
0007FFFFE0003FF8000001FFFE0000007FFFFFF0001FFFFFFF0001FFFFFFC000
310
7FFF0001FFFFFFC0007FFF0003FFFFFFFFF0003FFFFF0001F000E0003FFFFE00
310
03FF0003FFF000003FFE0003FF80007FC0007FFFFC0003FE0007FFFFE0003FF8
310
000001FFFE0000007FFFFFF0001FFFFFFF0000FFFFFF80007FFF0000FFFFFF80
310
007FFF0003FFFFFFFFF0003FFFFF0001F000E0003FFFFE0003FF0003FFF00000
310
3FFF0003FF80007FC0007FFFFC0007FE0007FFFFC0003FF8000001FFFE000000
310
7FFFFFF0001FFFFFFF80007FFFFF0000FFFF80007FFFFF0000FFFF0003FFFFFF
310
FFF0003FFFFF0003F000E0003FFFFC0003FE0003FFF000003FFF0003FF80007F
310
E0003FFFF80007FE0003FFFFC0007FF8000001FFFE0000007FFFFFF0001FFFFF
310
FF80003FFFFE0000FFFF80003FFFFE0000FFFF0003FFFFFFFFF0001FFFFE0003
310
F000F0001FFFF80003FE0003FFF000007FFF0001FF80007FE0003FFFF00007FE
310
0001FFFF80007FF8000001FFFE0000007FFFFFF0001FFFFFFFC0000FFFF80001
310
FFFFC0000FFFF80001FFFF0003FFFFFFFFF0001FFFFC0003F000F0000FFFF000
310
07FE0007FFF800007FFF0001FF80007FE0001FFFE00007FF0000FFFE00007FF8
310
000001FFFE0000007FFFFFF0001FFFFFFFC00003FFE00001FFFFC00003FFE000
310
01FFFF0003FFFFFFFFF8000FFFF80003F000F00003FFC00007FC0007FFF80000
310
7FFF8001FF80007FF00007FF80000FFF00007FF80000FFF8000001FFFE000000
310
7F80000000000001FFE000003E000003FFFFE000003E000003FFFF0003FFFFFF
310
FFF80003FFE00007F000F800000000000FFC0007FFF800007FFF8001FF80007F
310
F000000000000FFF000000000000FFF8000001FFFE0000007F80000000000001
310
FFF0000000000007FFFFF0000000000007FFFF0003FFFFFFFFFC00007E000007
310
F000F800000000000FFC0007FFF80000FFFF8000FF80007FF800000000001FFF
310
800000000001FFF8000001FFFE0000007F80000000000001FFF800000000000F
310
FFFFF800000000000FFFFF0003FFFFFFFFFC00000000000FF000FC0000000000
310
1FFC0007FFFC0000FFFF8000FF80007FF800000000003FFFC00000000001FFF8
310
000001FFFE0000007F80000000000001FFF800000000000FFFFFF80000000000
310
0FFFFF0003FFFFFFFFFE00000000001FF000FE00000000003FF8000FFFFC0000
310
FFFF8000FF80007FFC00000000003FFFC00000000003FFF8000001FFFE000000
310
7F80000000000001FFFC00000000001FFFFFFC00000000001FFFFF0003FFFFFF
310
FFFF00000000001FF000FF00000000003FF8000FFFFC0000FFFFC000FF80007F
310
FE00000000007FFFE00000000007FFF8000001FFFE0000007F80000000000001
310
FFFE00000000003FFFFFFE00000000003FFFFF0003FFFFFFFFFF80000000003F
310
F000FF80000000007FF8000FFFFC0001FFFFC0007F80007FFF0000000000FFFF
310
F0000000000FFFF800000000000000007F80000000000001FFFF8000000000FF
310
FFFFFF8000000000FFFFFF0003FFFFFFFFFFC0000000007FF000FFC000000000
310
FFF8000FFFFE0001FFFFC0007F80007FFF8000000001FFFFF8000000001FFFF8
310
00000000000000007F80000000000001FFFFC000000001FFFFFFFFC000000001
310
FFFFFF0003FFFFFFFFFFE000000000FFF000FFE000000003FFF0001FFFFE0001
310
FFFFC0007F80007FFFC000000007FFFFFE000000003FFFF80000000000000000
310
7F80000000000001FFFFE000000003FFFFFFFFE000000003FFFFFF0003FFFFFF
310
FFFFF000000003FFF000FFF80000000FFFF0001FFFFE0001FFFFE0007F80007F
310
FFF00000000FFFFFFF00000000FFFFF800000000000000007F80000000000001
310
FFFFF80000000FFFFFFFFFF80000000FFFFFFF0003FFFFFFFFFFFC0000000FFF
310
F000FFFE0000003FFFF0001FFFFE0003FFFFE0003F80007FFFFC0000003FFFFF
310
FFC0000003FFFFF800000000000000007F80000000000001FFFFFE0000003FFF
310
FFFFFFFE0000003FFFFFFF0003FFFFFFFFFFFF0000003FFFF000FFFF800000FF
310
FFF0001FFFFF0003FFFFE0003F80007FFFFF000001FFFFFFFFF800001FFFFFF8
310
00000000000000007F80000000000001FFFFFFC00001FFFFFFFFFFFFC00001FF
310
FFFFFF0003FFFFFFFFFFFFC00000FFFFF000FFFFF8000FFFFFFFFFFFFFFFFFFF
310
FFFFFFFFFFFFFFFFFFFFF0001FFFFFFFFFFF0000FFFFFFF80000000000000000
310
7FFFFFFFFFFFFFFFFFFFFFFC001FFFFFFFFFFFFFFC001FFFFFFFFFFFFFFFFFFF
310
FFFFFFFC001FFFFFF000FFFFFFFFFFFFFFFFFFFFFFFFFFFFFFFFFFFFFFFFFFFF
310
FFFFFFFFFFFFFFFFFFFFFFFFFFFFFFFFFFFFFFFFFFFFFFFFFFFFFFFFFFFFFFFF
310
FFFFFFFFFFFFFFFFFFFFFFFFFFFFFFFFFFFFFFFFFFFFFFFFFFFFFFFFFFFFFFFF
310
F000FFFFFFFFFFFFFFFFFFFFFFFFFFFFFFFFFFFFFFFFFFFFFFFFFFFFFFFFFFFF
310
FFFFFFFFFFFFFFFFFFFFFFFFFFFFFFFFFFFFFFFFFFFFFFFFFFFFFFFFFFFFFFFF
310
FFFFFFFFFFFFFFFFFFFFFFFFFFFFFFFFFFFFFFFFFFFFFFFFF000FFFFFFFFFFFF
310
FFFFFFFFFFFFFFFFFFFFFFFFFFFFFFFFFFFFFFFFFFFFFFFFFFFFFFFFFFFFFFFF
310
FFFFFFFFFFFFFFFFFFFFFFFFFFFFFFFFFFFFFFFFFFFFFFFFFFFFFFFFFFFFFFFF
310
FFFFFFFFFFFFFFFFFFFFFFFFFFFFFFFFF000FFFFFFFFFFFFFFFFFFFFFFFFFFFF
310
FFFFFFFFFFFFFFFFFFFFFFFFFFFFFFFFFFFFFFFFFFFFFFFFFFFFFFFFFFFFFFFF
310
FFFFFFFFFFFFFFFFFFFFFFFFFFFFFFFFFFFFFFFFFFFFFFFFFFFFFFFFFFFFFFFF
310
FFFFFFFFFFFFFFFFF000FFFFFFFFFFFFFFFFFFFFFFFFFFFFFFFFFFFFFFFFFFFF
310
FFFFFFFFFFFFFFFFFFFFFFFFFFFFFFFFFFFFFFFFFFFFFFFFFFFFFFFFFFFFFFFF
310
FFFFFFFFFFFFFFFFFFFFFFFFFFFFFFFFFFFFFFFFFFFFFFFFFFFFFFFFFFFFFFFF
310
F000FFFFFFFFFFFFFFFFFFFFFFFFFFFFFFFFFFFFFFFFFFFFFFFFFFFFFFFFFFFF
310
FFFFFFFFFFFFFFFFFFFFFFFFFFFFFFFFFFFFFFFFFFFFFFFFFFFFFFFFFFFFFFFF
310
FFFFFFFFFFFFFFFFFFFFFFFFFFFFFFFFFFFFFFFFFFFFFFFFF000FFFFFFFFFFFF
310
FFFFFFFFFFFFFFFFFFFFFFFFFFFFFFFFFFFFFFFFFFFFFFFFFFFFFFFFFFFFFFFF
310
FFFFFFFFFFFFFFFFFFFFFFFFFFFFFFFFFFFFFFFFFFFFFFFFFFFFFFFFFFFFFFFF
310
FFFFFFFFFFFFFFFFFFFFFFFFFFFFFFFFF000FFFFFFFFFFFFFFFFFFFFFFFFFFFF
310
FFFFFFFFFFFFFFFFFFFFFFFFFFFFFFFFFFFFFFFFFFFFFFFFFFFFFFFFFFFFFFFF
310
FFFFFFFFFFFFFFFFFFFFFFFFFFFFFFFFFFFFFFFFFFFFFFFFFFFFFFFFFFFFFFFF
310
FFFFFFFFFFFFFFFFF000FFFFFFFFFFFFFFFFFFFFFFFFFFFFFFFFFFFFFFFFFFFF
310
FFFFFFFFFFFFFFFFFFFFFFFFFFFFFFFFFFFFFFFFFFFFFFFFFFFFFFFFFFFFFFFF
310
FFFFFFFFFFFFFFFFFFFFFFFFFFFFFFFFFFFFFFFFFFFFFFFFFFFFFFFFFFFFFFFF
310
F000FFFFFFFFFFFFFFFFFFFFFFFFFFFFFFFFFFFFFFFFFFFFFFFFFFFFFFFFFFFF
310
FFFFFFFFFFFFFFFFFFFFFFFFFFFFFFFFFFFFFFFFFFFFFFFFFFFFFFFFFFFFFFFF
310
FFFFFFFFFFFFFFFFFFFFFFFFFFFFFFFFFFFFFFFFFFFFFFFFF000FFFFFFFFFFFF
310
FFFFFFFFFFFFFFFFFFFFFFFFFFFFFFFFFFFFFFFFFFFFFFFFFFFFFFFFFFFFFFFF
310
FFFFFFFFFFFFFFFFFFFFFFFFFFFFFFFFFFFFFFFFFFFFFFFFFFFFFFFFFFFFFFFF
310
FFFFFFFFFFFFFFFFFFFFFFFFFFFFFFFFF000FFFFFFFFFFFFFFFFFFFFFFFFFFFF
310
FFFFFFFFFFFFFFFFFFFFFFFFFFFFFFFFFFFFFFFFFFFFFFFFFFFFFFFFFFFFFFFF
310
FFFFFFFFFFFFFFFFFFFFFFFFFFFFFFFFFFFFFFFFFFFFFFFFFFFFFFFFFFFFFFFF
310
FFFFFFFFFFFFFFFFF000FFFFFFFFFFFFFFFFFFFFFFFFFFFFFFFFFFFFFFFFFFFF
310
FFFFFFFFFFFFFFFFFFFFFFFFFFFFFFFFFFFFFFFFFFFFFFFFFFFFFFFFFFFFFFFF
310
FFFFFFFFFFFFFFFFFFFFFFFFFFFFFFFFFFFFFFFFFFFFFFFFFFFFFFFFFFFFFFFF
310
F000FFFFFFFFFFFFFFFFFFFFFFFFFFFFFFFFFFFFFFFFFFFFFFFFFFFFFFFFFFFF
310
FFFFFFFFFFFFFFFFFFFFFFFFFFFFFFFFFFFFFFFFFFFFFFFFFFFFFFFFFFFFFFFF
310
FFFFFFFFFFFFFFFFFFFFFFFFFFFFFFFFFFFFFFFFFFFFFFFFF000FFFFFFFFFFFF
310
FFFFFFFFFFFFFFFFFFFFFFFFFFFFFFFFFFFFFFFFFFFFFFFFFFFFFFFFFFFFFFFF
310
FFFFFFFFFFFFFFFFFFFFFFFFFFFFFFFFFFFFFFFFFFFFFFFFFFFFFFFFFFFFFFFF
310
FFFFFFFFFFFFFFFFFFFFFFFFFFFFFFFFF000FFFFFFFFFFFFFFFFFFFFFFFFFFFF
310
FFFFFFFFFFFFFFFFFFFFFFFFFFFFFFFFFFFFFFFFFFFFFFFFFFFFFFFFFFFFFFFF
310
FFFFFFFFFFFFFFFFFFFFFFFFFFFFFFFFFFFFFFFFFFFFFFFFFFFFFFFFFFFFFFFF
310
FFFFFFFFFFFFFFFFF000FFFFFFFFFFFFFFFFFFFFFFFFFFFFFFFFFFFFFFFFFFFF
310
FFFFFFFFFFFFFFFFFFFFFFFFFFFFFFFFFFFFFFFFFFFFFFFFFFFFFFFFFFFFFFFF
310
FFFFFFFFFFFFFFFFFFFFFFFFFFFFFFFFFFFFFFFFFFFFFFFFFFFFFFFFFFFFFFFF
310
F000FFFFFFFFFFFFFFFFFFFFFFFFFFFFFFFFFFFFFFFFFFFFFFFFFFFFFFFFFFFF
310
FFFFFFFFFFFFFFFFFFFFFFFFFFFFFFFFFFFFFFFFFFFFFFFFFFFFFFFFFFFFFFFF
310
FFFFFFFFFFFFFFFFFFFFFFFFFFFFFFFFFFFFFFFFFFFFFFFFF000FFFFFFFFFFFF
310
FFFFFFFFFFFFFFFFFFFFFFFFFFFFFFFFFFFFFFFFFFFFFFFFFFFFFFFFFFFFFFFF
310
FFFFFFFFFFFFFFFFFFFFFFFFFFFFFFFFFFFFFFFFFFFFFFFFFFFFFFFFFFFFFFFF
310
FFFFFFFFFFFFFFFFFFFFFFFFFFFFFFFFF000FFFFFFFFFFFFFFFFFFFFFFFFFFFF
310
FFFFFFFFFFFFFFFFFFFFFFFFFFFFFFFFFFFFFFFFFFFFFFFFFFFFFFFFFFFFFFFF
310
FFFFFFFFFFFFFFFFFFFFFFFFFFFFFFFFFFFFFFFFFFFFFFFFFFFFFFFFFFFFFFFF
310
FFFFFFFFFFFFFFFFF000FFFFFFFFFFFFFFFFFFFFFFFFFFFFFFFFFFFFFFFFFFFF
310
FFFFFFFFFFFFFFFFFFFFFFFFFFFFFFFFFFFFFFFFFFFFFFFFFFFFFFFFFFFFFFFF
310
FFFFFFFFFFFFFFFFFFFFFFFFFFFFFFFFFFFFFFFFFFFFFFFFFFFFFFFFFFFFFFFF
310
F000FFFFFFFFFFFFFFFFFFFFFFFFFFFFFFFFFFFFFFFFFFFFFFFFFFFFFFFFFFFF
310
FFFFFFFFFFFFFFFFFFFFFFFFFFFFFFFFFFFFFFFFFFFFFFFFFFFFFFFFFFFFFFFF
310
FFFFFFFFFFFFFFFFFFFFFFFFFFFFFFFFFFFFFFFFFFFFFFFFF000FFFFFFFFFFFF
310
FFFFFFFFFFFFFFFFFFFFFFFFFFFFFFFFFFFFFFFFFFFFFFFFFFFFFFFFFFFFFFFF
310
FFFFFFFFFFFFFFFFFFFFFFFFFFFFFFFFFFFFFFFFFFFFFFFFFFFFFFFFFFFFFFFF
310
FFFFFFFFFFFFFFFFFFFFFFFFFFFFFFFFF0000000000000000000000000000000
310
0000000000000000000000000000000000000000000000000000000000000000
310
0000000000000000000000000000000000000000000000000000000000000000
310
0000000000000000000000000000000000000000000000000000000000000000
310
0000000000000000000000000000000000000000000000000000000000000000
310
0000000000000000000000000000000000000000000000000000000000000000
310
0000000000000000000000000000000000000000000000000000000000000000
310
0000000000000000000000000000000000000000000000000000000000000000
310
0000000000000000000000000000000000000000000000000000000000000000
310
0000000000000000000000000000000000000000000000000000000000000000
310
0000000000000000000000000000000000000000000000000000000000000000
310
0000000000000000000000000000000000000000000000000000000000000000
310
0000000000000000000000000000000000000000000000000000000000000000
310
0000000000000000000000000000000000000000000000000000000000000000
310
0000000000000000000000000000000000000000000000000000000000000000
310
0000000000000000000000000000000000000000000000000000000000000000
  1
OLE
  0
ENDSEC
  0
SECTION
  2
OBJECTS
  0
DICTIONARY
  5
C
330
0
100
AcDbDictionary
281
     1
  3
ACAD_GROUP
350
D
  3
ACAD_LAYOUT
350
1A
  3
ACAD_MLINESTYLE
350
17
  3
ACAD_PLOTSETTINGS
350
19
  3
ACAD_PLOTSTYLENAME
350
E
  0
DICTIONARY
  5
D
102
{ACAD_REACTORS
330
C
102
}
330
C
100
AcDbDictionary
281
     1
  0
DICTIONARY
  5
1A
102
{ACAD_REACTORS
330
C
102
}
330
C
100
AcDbDictionary
281
     1
  3
Layout1
350
1E
  3
Layout2
350
26
  3
Model
350
22
  0
DICTIONARY
  5
17
102
{ACAD_REACTORS
330
C
102
}
330
C
100
AcDbDictionary
281
     1
  3
Standard
350
18
  0
DICTIONARY
  5
19
102
{ACAD_REACTORS
330
C
102
}
330
C
100
AcDbDictionary
281
     1
  0
ACDBDICTIONARYWDFLT
  5
E
102
{ACAD_REACTORS
330
C
102
}
330
C
100
AcDbDictionary
281
     1
  3
Normal
350
F
100
AcDbDictionaryWithDefault
340
F
  0
LAYOUT
  5
1E
102
{ACAD_REACTORS
330
1A
102
}
330
1A
100
AcDbPlotSettings
  1

  2
none_device
  4

  6

 40
0.0
 41
0.0
 42
0.0
 43
0.0
 44
0.0
 45
0.0
 46
0.0
 47
0.0
 48
0.0
 49
0.0
140
0.0
141
0.0
142
1.0
143
1.0
 70
   688
 72
     0
 73
     0
 74
     5
  7

 75
    16
147
1.0
148
0.0
149
0.0
100
AcDbLayout
  1
Layout1
 70
     1
 71
     1
 10
0.0
 20
0.0
 11
420.0
 21
297.0
 12
0.0
 22
0.0
 32
0.0
 14
1.0000000000E+20
 24
1.0000000000E+20
 34
1.0000000000E+20
 15
-1.0000000000E+20
 25
-1.0000000000E+20
 35
-1.0000000000E+20
146
0.0
 13
0.0
 23
0.0
 33
0.0
 16
1.0
 26
0.0
 36
0.0
 17
0.0
 27
1.0
 37
0.0
 76
     0
330
1B
  0
LAYOUT
  5
26
102
{ACAD_REACTORS
330
1A
102
}
330
1A
100
AcDbPlotSettings
  1

  2
none_device
  4

  6

 40
0.0
 41
0.0
 42
0.0
 43
0.0
 44
0.0
 45
0.0
 46
0.0
 47
0.0
 48
0.0
 49
0.0
140
0.0
141
0.0
142
1.0
143
1.0
 70
   688
 72
     0
 73
     0
 74
     5
  7

 75
    16
147
1.0
148
0.0
149
0.0
100
AcDbLayout
  1
Layout2
 70
     1
 71
     2
 10
0.0
 20
0.0
 11
0.0
 21
0.0
 12
0.0
 22
0.0
 32
0.0
 14
0.0
 24
0.0
 34
0.0
 15
0.0
 25
0.0
 35
0.0
146
0.0
 13
0.0
 23
0.0
 33
0.0
 16
1.0
 26
0.0
 36
0.0
 17
0.0
 27
1.0
 37
0.0
 76
     0
330
23
  0
LAYOUT
  5
22
102
{ACAD_REACTORS
330
1A
102
}
330
1A
100
AcDbPlotSettings
  1

  2
none_device
  4

  6

 40
0.0
 41
0.0
 42
0.0
 43
0.0
 44
0.0
 45
0.0
 46
0.0
 47
0.0
 48
0.0
 49
0.0
140
0.0
141
0.0
142
1.0
143
1.0
 70
  1712
 72
     0
 73
     0
 74
     0
  7

 75
     0
147
1.0
148
0.0
149
0.0
100
AcDbLayout
  1
Model
 70
     1
 71
     0
 10
0.0
 20
0.0
 11
297.0
 21
210.0
 12
0.0
 22
0.0
 32
0.0
 14
0.0
 24
0.0
 34
0.0
 15
297.0
 25
210.0
 35
0.0
146
0.0
 13
0.0
 23
0.0
 33
0.0
 16
1.0
 26
0.0
 36
0.0
 17
0.0
 27
1.0
 37
0.0
 76
     0
330
1F
331
29
  0
MLINESTYLE
  5
18
102
{ACAD_REACTORS
330
17
102
}
330
17
100
AcDbMlineStyle
  2
Standard
 70
     0
  3

 62
   256
 51
90.0
 52
90.0
 71
     2
 49
0.5
 62
   256
  6
BYLAYER
 49
-0.5
 62
   256
  6
BYLAYER
  0
ACDBPLACEHOLDER
  5
F
102
{ACAD_REACTORS
330
E
102
}
330
E
  0
ENDSEC
  0
EOF
