  0
SECTION
  2
HEADER
  9
$ACADVER
  1
AC1015
  9
$ACADMAINTVER
 70
     6
  9
$DWGCODEPAGE
  3
ANSI_1252
  9
$INSBASE
 10
0.0
 20
0.0
 30
0.0
  9
$EXTMIN
 10
0.0
 20
0.0
 30
0.0
  9
$EXTMAX
 10
297.0
 20
210.0
 30
0.0
  9
$LIMMIN
 10
0.0
 20
0.0
  9
$LIMMAX
 10
297.0
 20
210.0
  9
$ORTHOMODE
 70
     0
  9
$REGENMODE
 70
     1
  9
$FILLMODE
 70
     1
  9
$QTEXTMODE
 70
     0
  9
$MIRRTEXT
 70
     1
  9
$LTSCALE
 40
1.0
  9
$ATTMODE
 70
     1
  9
$TEXTSIZE
 40
2.0
  9
$TRACEWID
 40
1.0
  9
$TEXTSTYLE
  7
Standard
  9
$CLAYER
  8
0
  9
$CELTYPE
  6
ByLayer
  9
$CECOLOR
 62
   256
  9
$CELTSCALE
 40
1.0
  9
$DISPSILH
 70
     0
  9
$DIMSCALE
 40
1.0
  9
$DIMASZ
 40
3.0
  9
$DIMEXO
 40
0.0
  9
$DIMDLI
 40
3.75
  9
$DIMRND
 40
0.0
  9
$DIMDLE
 40
0.0
  9
$DIMEXE
 40
1.0
  9
$DIMTP
 40
0.0
  9
$DIMTM
 40
0.0
  9
$DIMTXT
 40
2.0
  9
$DIMCEN
 40
2.5
  9
$DIMTSZ
 40
0.0
  9
$DIMTOL
 70
     0
  9
$DIMLIM
 70
     0
  9
$DIMTIH
 70
     1
  9
$DIMTOH
 70
     1
  9
$DIMSE1
 70
     0
  9
$DIMSE2
 70
     0
  9
$DIMTAD
 70
     1
  9
$DIMZIN
 70
     0
  9
$DIMBLK
  1

  9
$DIMASO
 70
     1
  9
$DIMSHO
 70
     1
  9
$DIMPOST
  1

  9
$DIMAPOST
  1

  9
$DIMALT
 70
     0
  9
$DIMALTD
 70
     3
  9
$DIMALTF
 40
0.0393700787
  9
$DIMLFAC
 40
1.0
  9
$DIMTOFL
 70
     1
  9
$DIMTVP
 40
0.0
  9
$DIMTIX
 70
     0
  9
$DIMSOXD
 70
     0
  9
$DIMSAH
 70
     0
  9
$DIMBLK1
  1

  9
$DIMBLK2
  1

  9
$DIMSTYLE
  2
ISO-25
  9
$DIMCLRD
 70
     0
  9
$DIMCLRE
 70
     0
  9
$DIMCLRT
 70
     0
  9
$DIMTFAC
 40
1.0
  9
$DIMGAP
 40
1.524
  9
$DIMJUST
 70
     0
  9
$DIMSD1
 70
     0
  9
$DIMSD2
 70
     0
  9
$DIMTOLJ
 70
     0
  9
$DIMTZIN
 70
     0
  9
$DIMALTZ
 70
     0
  9
$DIMALTTZ
 70
     0
  9
$DIMUPT
 70
     0
  9
$DIMDEC
 70
     2
  9
$DIMTDEC
 70
     3
  9
$DIMALTU
 70
     2
  9
$DIMALTTD
 70
     3
  9
$DIMTXSTY
  7
Standard
  9
$DIMAUNIT
 70
     0
  9
$DIMADEC
 70
     2
  9
$DIMALTRND
 40
0.0
  9
$DIMAZIN
 70
     0
  9
$DIMDSEP
 70
    44
  9
$DIMATFIT
 70
     3
  9
$DIMFRAC
 70
     0
  9
$DIMLDRBLK
  1

  9
$DIMLUNIT
 70
     2
  9
$DIMLWD
 70
    -2
  9
$DIMLWE
 70
    -2
  9
$DIMTMOVE
 70
     0
  9
$LUNITS
 70
     2
  9
$LUPREC
 70
     2
  9
$SKETCHINC
 40
1.0
  9
$FILLETRAD
 40
10.0
  9
$AUNITS
 70
     0
  9
$AUPREC
 70
     2
  9
$MENU
  1
.
  9
$ELEVATION
 40
0.0
  9
$PELEVATION
 40
0.0
  9
$THICKNESS
 40
0.0
  9
$LIMCHECK
 70
     0
  9
$CHAMFERA
 40
10.0
  9
$CHAMFERB
 40
10.0
  9
$CHAMFERC
 40
20.0
  9
$CHAMFERD
 40
0.0
  9
$SKPOLY
 70
     0
  9
$TDCREATE
 40
2455623.395781574
  9
$TDUCREATE
 40
2455623.354114907
  9
$TDUPDATE
 40
2455623.395781585
  9
$TDUUPDATE
 40
2455623.354114919
  9
$TDINDWG
 40
0.0000000116
  9
$TDUSRTIMER
 40
0.0000000116
  9
$USRTIMER
 70
     1
  9
$ANGBASE
 50
0.0
  9
$ANGDIR
 70
     0
  9
$PDMODE
 70
     0
  9
$PDSIZE
 40
-1.0
  9
$PLINEWID
 40
0.0
  9
$SPLFRAME
 70
     0
  9
$SPLINETYPE
 70
     6
  9
$SPLINESEGS
 70
     8
  9
$HANDSEED
  5
311
  9
$SURFTAB1
 70
     6
  9
$SURFTAB2
 70
     6
  9
$SURFTYPE
 70
     6
  9
$SURFU
 70
     6
  9
$SURFV
 70
     6
  9
$UCSBASE
  2

  9
$UCSNAME
  2

  9
$UCSORG
 10
0.0
 20
0.0
 30
0.0
  9
$UCSXDIR
 10
1.0
 20
0.0
 30
0.0
  9
$UCSYDIR
 10
0.0
 20
1.0
 30
0.0
  9
$UCSORTHOREF
  2

  9
$UCSORTHOVIEW
 70
     0
  9
$UCSORGTOP
 10
0.0
 20
0.0
 30
0.0
  9
$UCSORGBOTTOM
 10
0.0
 20
0.0
 30
0.0
  9
$UCSORGLEFT
 10
0.0
 20
0.0
 30
0.0
  9
$UCSORGRIGHT
 10
0.0
 20
0.0
 30
0.0
  9
$UCSORGFRONT
 10
0.0
 20
0.0
 30
0.0
  9
$UCSORGBACK
 10
0.0
 20
0.0
 30
0.0
  9
$PUCSBASE
  2

  9
$PUCSNAME
  2

  9
$PUCSORG
 10
0.0
 20
0.0
 30
0.0
  9
$PUCSXDIR
 10
1.0
 20
0.0
 30
0.0
  9
$PUCSYDIR
 10
0.0
 20
1.0
 30
0.0
  9
$PUCSORTHOREF
  2

  9
$PUCSORTHOVIEW
 70
     0
  9
$PUCSORGTOP
 10
0.0
 20
0.0
 30
0.0
  9
$PUCSORGBOTTOM
 10
0.0
 20
0.0
 30
0.0
  9
$PUCSORGLEFT
 10
0.0
 20
0.0
 30
0.0
  9
$PUCSORGRIGHT
 10
0.0
 20
0.0
 30
0.0
  9
$PUCSORGFRONT
 10
0.0
 20
0.0
 30
0.0
  9
$PUCSORGBACK
 10
0.0
 20
0.0
 30
0.0
  9
$USERI1
 70
     0
  9
$USERI2
 70
     0
  9
$USERI3
 70
     0
  9
$USERI4
 70
     0
  9
$USERI5
 70
     0
  9
$USERR1
 40
0.0
  9
$USERR2
 40
0.0
  9
$USERR3
 40
0.0
  9
$USERR4
 40
0.0
  9
$USERR5
 40
0.0
  9
$WORLDVIEW
 70
     1
  9
$SHADEDGE
 70
     3
  9
$SHADEDIF
 70
    70
  9
$TILEMODE
 70
     1
  9
$MAXACTVP
 70
    64
  9
$PINSBASE
 10
0.0
 20
0.0
 30
0.0
  9
$PLIMCHECK
 70
     0
  9
$PEXTMIN
 10
1.0000000000E+20
 20
1.0000000000E+20
 30
1.0000000000E+20
  9
$PEXTMAX
 10
-1.0000000000E+20
 20
-1.0000000000E+20
 30
-1.0000000000E+20
  9
$PLIMMIN
 10
0.0
 20
0.0
  9
$PLIMMAX
 10
420.0
 20
297.0
  9
$UNITMODE
 70
     0
  9
$VISRETAIN
 70
     1
  9
$PLINEGEN
 70
     0
  9
$PSLTSCALE
 70
     1
  9
$TREEDEPTH
 70
  3020
  9
$CMLSTYLE
  2
Standard
  9
$CMLJUST
 70
     0
  9
$CMLSCALE
 40
20.0
  9
$PROXYGRAPHICS
 70
     1
  9
$MEASUREMENT
 70
     1
  9
$CELWEIGHT
370
    -1
  9
$ENDCAPS
280
     0
  9
$JOINSTYLE
280
     0
  9
$LWDISPLAY
290
     1
  9
$INSUNITS
 70
     4
  9
$HYPERLINKBASE
  1

  9
$STYLESHEET
  1

  9
$XEDIT
290
     1
  9
$CEPSNTYPE
380
     0
  9
$PSTYLEMODE
290
     1
  9
$FINGERPRINTGUID
  2
{3E67523E-9985-4B8A-A3BF-F52C9D8E7653}
  9
$VERSIONGUID
  2
{FAEB1C32-E019-11D5-929B-00C0DF256EC4}
  9
$EXTNAMES
290
     1
  9
$PSVPSCALE
 40
0.0
  9
$OLESTARTUP
290
     0
  0
ENDSEC
  0
SECTION
  2
CLASSES
  0
CLASS
  1
ACDBDICTIONARYWDFLT
  2
AcDbDictionaryWithDefault
  3
ObjectDBX Classes
 90
        0
280
     0
281
     0
  0
CLASS
  1
VISUALSTYLE
  2
AcDbVisualStyle
  3
ObjectDBX Classes
 90
     4095
280
     0
281
     0
  0
CLASS
  1
DICTIONARYVAR
  2
AcDbDictionaryVar
  3
ObjectDBX Classes
 90
        0
280
     0
281
     0
  0
CLASS
  1
ACDBPLACEHOLDER
  2
AcDbPlaceHolder
  3
ObjectDBX Classes
 90
        0
280
     0
281
     0
  0
CLASS
  1
LAYOUT
  2
AcDbLayout
  3
ObjectDBX Classes
 90
        0
280
     0
281
     0
  0
ENDSEC
  0
SECTION
  2
TABLES
  0
TABLE
  2
VPORT
  5
8
330
0
100
AcDbSymbolTable
 70
     1
  0
VPORT
  5
29
330
8
100
AcDbSymbolTableRecord
100
AcDbViewportTableRecord
  2
*Active
 70
     0
 10
0.0
 20
0.0
 11
1.0
 21
1.0
 12
148.5
 22
105.0
 13
0.0
 23
0.0
 14
10.0
 24
10.0
 15
10.0
 25
10.0
 16
0.0
 26
0.0
 36
1.0
 17
0.0
 27
0.0
 37
0.0
 40
210.0
 41
1.4142857143
 42
50.0
 43
0.0
 44
0.0
 50
0.0
 51
0.0
 71
     0
 72
  2000
 73
     1
 74
     3
 75
     0
 76
     0
 77
     0
 78
     0
281
     0
 65
     1
110
0.0
120
0.0
130
0.0
111
1.0
121
0.0
131
0.0
112
0.0
122
1.0
132
0.0
 79
     0
146
0.0
  0
ENDTAB
  0
TABLE
  2
LTYPE
  5
5
330
0
100
AcDbSymbolTable
 70
     6
  0
LTYPE
  5
14
330
5
100
AcDbSymbolTableRecord
100
AcDbLinetypeTableRecord
  2
ByBlock
 70
     0
  3

 72
    65
 73
     0
 40
0.0
  0
LTYPE
  5
15
330
5
100
AcDbSymbolTableRecord
100
AcDbLinetypeTableRecord
  2
ByLayer
 70
     0
  3

 72
    65
 73
     0
 40
0.0
  0
LTYPE
  5
16
330
5
100
AcDbSymbolTableRecord
100
AcDbLinetypeTableRecord
  2
Continuous
 70
     0
  3
Solid line
 72
    65
 73
     0
 40
0.0
  0
LTYPE
  5
3B
330
5
100
AcDbSymbolTableRecord
100
AcDbLinetypeTableRecord
  2
HIDDEN
 70
     0
  3
Hidden __ __ __ __ __ __ __ __ __ __ __ __ __ __
 72
    65
 73
     2
 40
1.905
 49
1.27
 74
     0
 49
-0.635
 74
     0
  0
LTYPE
  5
3C
330
5
100
AcDbSymbolTableRecord
100
AcDbLinetypeTableRecord
  2
PHANTOM
 70
     0
  3
Phantom ______  __  __  ______  __  __  ______
 72
    65
 73
     6
 40
12.7
 49
6.35
 74
     0
 49
-1.27
 74
     0
 49
1.27
 74
     0
 49
-1.27
 74
     0
 49
1.27
 74
     0
 49
-1.27
 74
     0
  0
LTYPE
  5
3D
330
5
100
AcDbSymbolTableRecord
100
AcDbLinetypeTableRecord
  2
CENTER
 70
     0
  3
Center ____ _ ____ _ ____ _ ____ _ ____ _ ____
 72
    65
 73
     4
 40
10.16
 49
6.35
 74
     0
 49
-1.27
 74
     0
 49
1.27
 74
     0
 49
-1.27
 74
     0
  0
LTYPE
  5
3E
330
5
100
AcDbSymbolTableRecord
100
AcDbLinetypeTableRecord
  2
CENTERX2
 70
     0
  3
Center (2x) ________  __  ________  __  _____
 72
    65
 73
     4
 40
20.32
 49
12.7
 74
     0
 49
-2.54
 74
     0
 49
2.54
 74
     0
 49
-2.54
 74
     0
  0
LTYPE
  5
3F
330
5
100
AcDbSymbolTableRecord
100
AcDbLinetypeTableRecord
  2
DOT2
 70
     0
  3
Dot (.5x) ........................................
 72
    65
 73
     2
 40
0.635
 49
0.0
 74
     0
 49
-0.635
 74
     0
  0
ENDTAB
  0
TABLE
  2
LAYER
  5
2
330
0
100
AcDbSymbolTable
 70
     5
  0
LAYER
  5
10
330
2
100
AcDbSymbolTableRecord
100
AcDbLayerTableRecord
  2
0
 70
     0
 62
     7
  6
Continuous
370
    -3
390
F
  0
LAYER
  5
40
330
2
100
AcDbSymbolTableRecord
100
AcDbLayerTableRecord
  2
FORMAT
 70
     0
 62
     7
  6
Continuous
370
    -3
390
F
  0
LAYER
  5
41
330
2
100
AcDbSymbolTableRecord
100
AcDbLayerTableRecord
  2
VERMASSUNG
 70
     0
 62
     7
  6
Continuous
370
    -3
390
F
  0
LAYER
  5
42
330
2
100
AcDbSymbolTableRecord
100
AcDbLayerTableRecord
  2
KOPF_DÜNN
 70
     0
 62
     7
  6
Continuous
370
    -3
390
F
  0
LAYER
  5
43
330
2
100
AcDbSymbolTableRecord
100
AcDbLayerTableRecord
  2
KOPF_DICK
 70
     0
 62
     7
  6
Continuous
370
    15
390
F
  0
ENDTAB
  0
TABLE
  2
STYLE
  5
3
330
0
100
AcDbSymbolTable
 70
     3
  0
STYLE
  5
11
330
3
100
AcDbSymbolTableRecord
100
AcDbTextStyleTableRecord
  2
Standard
 70
     0
 40
0.0
 41
1.0
 50
0.0
 71
     0
 42
2.5
  3
txt
  4

  0
STYLE
  5
44
330
3
100
AcDbSymbolTableRecord
100
AcDbTextStyleTableRecord
  2
SLDTEXTSTYLE0
 70
     0
 40
0.0
 41
0.7
 50
0.0
 71
     0
 42
0.2
  3
TXT
  4

  0
STYLE
  5
48
330
3
100
AcDbSymbolTableRecord
100
AcDbTextStyleTableRecord
  2
SLDTEXTSTYLE1
 70
     0
 40
0.0
 41
0.6526315789
 50
0.0
 71
     0
 42
0.2
  3
TXT
  4

  0
ENDTAB
  0
TABLE
  2
VIEW
  5
6
330
0
100
AcDbSymbolTable
 70
     0
  0
ENDTAB
  0
TABLE
  2
UCS
  5
7
330
0
100
AcDbSymbolTable
 70
     0
  0
ENDTAB
  0
TABLE
  2
APPID
  5
9
330
0
100
AcDbSymbolTable
 70
     1
  0
APPID
  5
12
330
9
100
AcDbSymbolTableRecord
100
AcDbRegAppTableRecord
  2
ACAD
 70
     0
  0
ENDTAB
  0
TABLE
  2
DIMSTYLE
  5
A
330
0
100
AcDbSymbolTable
 70
     4
100
AcDbDimStyleTable
  0
DIMSTYLE
105
27
330
A
100
AcDbSymbolTableRecord
100
AcDbDimStyleTableRecord
  2
ISO-25
 70
     0
 41
2.5
 42
0.625
 43
3.75
 44
1.25
 73
     0
 74
     0
 77
     1
 78
     8
140
2.5
141
2.5
143
0.0393700787
147
0.625
171
     3
172
     1
271
     2
272
     2
274
     3
278
    44
283
     0
284
     8
340
11
  0
DIMSTYLE
105
24B
102
{ACAD_REACTORS
330
24A
330
255
330
25F
330
276
102
}
330
A
100
AcDbSymbolTableRecord
100
AcDbDimStyleTableRecord
  2
SLDDIMSTYLE0
 70
     0
 41
3.0
 44
0.0
 45
0.000000001
 73
     0
 74
     0
 77
     1
 78
    12
140
2.0
147
0.5
173
     1
271
     2
272
     3
284
    12
340
44
  0
DIMSTYLE
105
26A
102
{ACAD_REACTORS
330
269
102
}
330
A
100
AcDbSymbolTableRecord
100
AcDbDimStyleTableRecord
  2
SLDDIMSTYLE1
 70
     0
 41
3.0
 44
0.0
 73
     0
 74
     0
 77
     1
 78
    12
140
2.0
147
0.5
173
     1
272
     3
284
    12
340
44
  0
DIMSTYLE
105
2F4
102
{ACAD_REACTORS
330
2F3
102
}
330
A
100
AcDbSymbolTableRecord
100
AcDbDimStyleTableRecord
  2
SLDDIMSTYLE2
 70
     0
 41
3.0
 44
0.0
 45
0.000000001
 73
     0
 74
     0
 77
     1
 78
    12
140
2.0
147
0.5
173
     1
271
     2
272
     3
284
    12
340
44
  0
ENDTAB
  0
TABLE
  2
BLOCK_RECORD
  5
1
330
0
100
AcDbSymbolTable
 70
     8
  0
BLOCK_RECORD
  5
1F
330
1
100
AcDbSymbolTableRecord
100
AcDbBlockTableRecord
  2
*Model_Space
340
22
  0
BLOCK_RECORD
  5
1B
330
1
100
AcDbSymbolTableRecord
100
AcDbBlockTableRecord
  2
*Paper_Space
340
1E
  0
BLOCK_RECORD
  5
23
330
1
100
AcDbSymbolTableRecord
100
AcDbBlockTableRecord
  2
*Paper_Space0
340
26
  0
BLOCK_RECORD
  5
24C
330
1
100
AcDbSymbolTableRecord
100
AcDbBlockTableRecord
  2
*D1
340
0
  0
BLOCK_RECORD
  5
256
330
1
100
AcDbSymbolTableRecord
100
AcDbBlockTableRecord
  2
*D2
340
0
  0
BLOCK_RECORD
  5
260
330
1
100
AcDbSymbolTableRecord
100
AcDbBlockTableRecord
  2
*D3
340
0
  0
BLOCK_RECORD
  5
26B
330
1
100
AcDbSymbolTableRecord
100
AcDbBlockTableRecord
  2
*D4
340
0
  0
BLOCK_RECORD
  5
277
330
1
100
AcDbSymbolTableRecord
100
AcDbBlockTableRecord
  2
*D5
340
0
  0
BLOCK_RECORD
  5
2F5
330
1
100
AcDbSymbolTableRecord
100
AcDbBlockTableRecord
  2
*D6
340
0
  0
BLOCK_RECORD
  5
2FF
330
1
100
AcDbSymbolTableRecord
100
AcDbBlockTableRecord
  2
SW_CENTERMARKSYMBOL_0
340
0
102
{BLKREFS
331
30A
102
}
  0
ENDTAB
  0
ENDSEC
  0
SECTION
  2
BLOCKS
  0
BLOCK
  5
20
330
1F
100
AcDbEntity
  8
0
100
AcDbBlockBegin
  2
*Model_Space
 70
     0
 10
0.0
 20
0.0
 30
0.0
  3
*Model_Space
  1

  0
ENDBLK
  5
21
330
1F
100
AcDbEntity
  8
0
100
AcDbBlockEnd
  0
BLOCK
  5
1C
330
1B
100
AcDbEntity
 67
     1
  8
0
100
AcDbBlockBegin
  2
*Paper_Space
 70
     0
 10
0.0
 20
0.0
 30
0.0
  3
*Paper_Space
  1

  0
ENDBLK
  5
1D
330
1B
100
AcDbEntity
 67
     1
  8
0
100
AcDbBlockEnd
  0
BLOCK
  5
24
330
23
100
AcDbEntity
  8
0
100
AcDbBlockBegin
  2
*Paper_Space0
 70
     0
 10
0.0
 20
0.0
 30
0.0
  3
*Paper_Space0
  1

  0
ENDBLK
  5
25
330
23
100
AcDbEntity
  8
0
100
AcDbBlockEnd
  0
BLOCK
  5
24D
330
24C
100
AcDbEntity
  8
0
100
AcDbBlockBegin
  2
*D1
 70
     1
 10
0.0
 20
0.0
 30
0.0
  3
*D1
  1

  0
SOLID
  5
24F
330
24C
100
AcDbEntity
  8
VERMASSUNG
100
AcDbTrace
 10
277.8454002578
 20
153.5566329413
 30
0.0
 11
274.8454002578
 21
154.0066329413
 31
0.0
 12
274.8454002578
 22
153.1066329413
 32
0.0
 13
274.8454002578
 23
153.1066329413
 33
0.0
  0
SOLID
  5
250
330
24C
100
AcDbEntity
  8
VERMASSUNG
100
AcDbTrace
 10
137.8454002578
 20
153.5566329413
 30
0.0
 11
140.8454002578
 21
153.1066329413
 31
0.0
 12
140.8454002578
 22
154.0066329413
 32
0.0
 13
140.8454002578
 23
154.0066329413
 33
0.0
  0
LINE
  5
251
330
24C
100
AcDbEntity
  8
VERMASSUNG
100
AcDbLine
 10
277.8454002578
 20
110.0867135473
 30
0.0
 11
277.8454002578
 21
154.5566329413
 31
0.0
  0
LINE
  5
252
330
24C
100
AcDbEntity
  8
VERMASSUNG
100
AcDbLine
 10
137.8454002578
 20
146.4105462037
 30
0.0
 11
137.8454002578
 21
154.5566329413
 31
0.0
  0
LINE
  5
253
330
24C
100
AcDbEntity
  8
VERMASSUNG
100
AcDbLine
 10
277.8454002578
 20
153.5566329413
 30
0.0
 11
137.8454002578
 21
153.5566329413
 31
0.0
  0
MTEXT
  5
254
330
24C
100
AcDbEntity
  8
VERMASSUNG
100
AcDbMText
 10
205.8457519513
 20
156.1347683044
 30
0.0
 40
2.0
 41
0.0
 71
     1
 72
     1
  1
140
  7
SLDTEXTSTYLE0
 73
     1
 44
1.0
  0
ENDBLK
  5
24E
330
24C
100
AcDbEntity
  8
0
100
AcDbBlockEnd
  0
BLOCK
  5
257
330
256
100
AcDbEntity
  8
0
100
AcDbBlockBegin
  2
*D2
 70
     1
 10
0.0
 20
0.0
 30
0.0
  3
*D2
  1

  0
SOLID
  5
259
330
256
100
AcDbEntity
  8
VERMASSUNG
100
AcDbTrace
 10
277.8454002578
 20
159.5566329413
 30
0.0
 11
274.8454002578
 21
160.0066329413
 31
0.0
 12
274.8454002578
 22
159.1066329413
 32
0.0
 13
274.8454002578
 23
159.1066329413
 33
0.0
  0
SOLID
  5
25A
330
256
100
AcDbEntity
  8
VERMASSUNG
100
AcDbTrace
 10
105.9454002578
 20
159.5566329413
 30
0.0
 11
108.9454002578
 21
159.1066329413
 31
0.0
 12
108.9454002578
 22
160.0066329413
 32
0.0
 13
108.9454002578
 23
160.0066329413
 33
0.0
  0
LINE
  5
25B
330
256
100
AcDbEntity
  8
VERMASSUNG
100
AcDbLine
 10
277.8454002578
 20
110.0867135473
 30
0.0
 11
277.8454002578
 21
160.5566329413
 31
0.0
  0
LINE
  5
25C
330
256
100
AcDbEntity
  8
VERMASSUNG
100
AcDbLine
 10
105.9454002578
 20
135.1866067083
 30
0.0
 11
105.9454002578
 21
160.5566329413
 31
0.0
  0
LINE
  5
25D
330
256
100
AcDbEntity
  8
VERMASSUNG
100
AcDbLine
 10
277.8454002578
 20
159.5566329413
 30
0.0
 11
105.9454002578
 21
159.5566329413
 31
0.0
  0
MTEXT
  5
25E
330
256
100
AcDbEntity
  8
VERMASSUNG
100
AcDbMText
 10
189.1958139675
 20
162.1347683044
 30
0.0
 40
2.0
 41
0.0
 71
     1
 72
     1
  1
171.9
  7
SLDTEXTSTYLE0
 73
     1
 44
1.0
  0
ENDBLK
  5
258
330
256
100
AcDbEntity
  8
0
100
AcDbBlockEnd
  0
BLOCK
  5
261
330
260
100
AcDbEntity
  8
0
100
AcDbBlockBegin
  2
*D3
 70
     1
 10
0.0
 20
0.0
 30
0.0
  3
*D3
  1

  0
SOLID
  5
263
330
260
100
AcDbEntity
  8
VERMASSUNG
100
AcDbTrace
 10
283.4960068845
 20
88.2105462037
 30
0.0
 11
283.9460068845
 21
91.2105462037
 31
0.0
 12
283.0460068845
 22
91.2105462037
 32
0.0
 13
283.0460068845
 23
91.2105462037
 33
0.0
  0
SOLID
  5
264
330
260
100
AcDbEntity
  8
VERMASSUNG
100
AcDbTrace
 10
283.4960068845
 20
115.2105462037
 30
0.0
 11
283.0460068845
 21
112.2105462037
 31
0.0
 12
283.9460068845
 22
112.2105462037
 32
0.0
 13
283.9460068845
 23
112.2105462037
 33
0.0
  0
LINE
  5
265
330
260
100
AcDbEntity
  8
VERMASSUNG
100
AcDbLine
 10
277.8454002578
 20
88.2105462037
 30
0.0
 11
284.4960068845
 21
88.2105462037
 31
0.0
  0
LINE
  5
266
330
260
100
AcDbEntity
  8
VERMASSUNG
100
AcDbLine
 10
272.6419039721
 20
115.2105462037
 30
0.0
 11
284.4960068845
 21
115.2105462037
 31
0.0
  0
LINE
  5
267
330
260
100
AcDbEntity
  8
VERMASSUNG
100
AcDbLine
 10
283.4960068845
 20
88.2105462037
 30
0.0
 11
283.4960068845
 21
115.2105462037
 31
0.0
  0
MTEXT
  5
268
330
260
100
AcDbEntity
  8
VERMASSUNG
100
AcDbMText
 10
280.9178715213
 20
100.3106702359
 30
0.0
 40
2.0
 41
0.0
 71
     1
 72
     1
  1
27
  7
SLDTEXTSTYLE0
 11
6.123233995736766E-17
 21
1.0
 31
0.0
 73
     1
 44
1.0
  0
ENDBLK
  5
262
330
260
100
AcDbEntity
  8
0
100
AcDbBlockEnd
  0
BLOCK
  5
26C
330
26B
100
AcDbEntity
  8
0
100
AcDbBlockBegin
  2
*D4
 70
     1
 10
0.0
 20
0.0
 30
0.0
  3
*D4
  1

  0
ARC
  5
26E
330
26B
100
AcDbEntity
  8
VERMASSUNG
100
AcDbCircle
 10
277.8454002578
 20
76.5335796139
 30
0.0
 40
44.57810176017585
100
AcDbArc
 50
90.0
 51
95.0277975181
  0
ARC
  5
26F
330
26B
100
AcDbEntity
  8
VERMASSUNG
100
AcDbCircle
 10
277.8454002578
 20
76.5335796139
 30
0.0
 40
44.57810176017585
100
AcDbArc
 50
82.3042239062
 51
90.0
  0
ARC
  5
270
330
26B
100
AcDbEntity
  8
VERMASSUNG
100
AcDbCircle
 10
277.8454002578
 20
76.5335796139
 30
0.0
 40
44.57810176017586
100
AcDbArc
 50
95.0277975181
 51
102.7235736119
  0
SOLID
  5
271
330
26B
100
AcDbEntity
  8
VERMASSUNG
100
AcDbTrace
 10
277.8454002578
 20
121.1116813741
 30
0.0
 11
280.8285908416
 21
120.5611598573
 31
0.0
 12
280.8588234859
 22
121.4606519291
 32
0.0
 13
280.8588234859
 23
121.4606519291
 33
0.0
  0
SOLID
  5
272
330
26B
100
AcDbEntity
  8
VERMASSUNG
100
AcDbTrace
 10
273.9386180133
 20
120.9401580572
 30
0.0
 11
270.9062060982
 21
121.0236923445
 31
0.0
 12
271.015153042
 22
120.1303108115
 32
0.0
 13
271.015153042
 23
120.1303108115
 33
0.0
  0
LINE
  5
273
330
26B
100
AcDbEntity
  8
VERMASSUNG
100
AcDbLine
 10
277.8454002578
 20
110.0867135473
 30
0.0
 11
277.8454002578
 21
122.1116813741
 31
0.0
  0
LINE
  5
274
330
26B
100
AcDbEntity
  8
VERMASSUNG
100
AcDbLine
 10
275.181674252
 20
106.8109153916
 30
0.0
 11
273.8509789688
 21
121.9363103537
 31
0.0
  0
MTEXT
  5
275
330
26B
100
AcDbEntity
  8
VERMASSUNG
100
AcDbMText
 10
274.4785864185
 20
123.5874265462
 30
0.0
 40
2.0
 41
0.0
 71
     1
 72
     1
  1
5°
  7
SLDTEXTSTYLE0
 11
0.9990376110356036
 21
0.04386173430535947
 31
0.0
 73
     1
 44
1.0
  0
ENDBLK
  5
26D
330
26B
100
AcDbEntity
  8
0
100
AcDbBlockEnd
  0
BLOCK
  5
278
330
277
100
AcDbEntity
  8
0
100
AcDbBlockBegin
  2
*D5
 70
     1
 10
0.0
 20
0.0
 30
0.0
  3
*D5
  1

  0
SOLID
  5
27A
330
277
100
AcDbEntity
  8
VERMASSUNG
100
AcDbTrace
 10
99.9661039721
 20
146.7105462037
 30
0.0
 11
99.5161039721
 21
143.7105462037
 31
0.0
 12
100.4161039721
 22
143.7105462037
 32
0.0
 13
100.4161039721
 23
143.7105462037
 33
0.0
  0
SOLID
  5
27B
330
277
100
AcDbEntity
  8
VERMASSUNG
100
AcDbTrace
 10
99.9661039721
 20
83.7105462037
 30
0.0
 11
100.4161039721
 21
86.7105462037
 31
0.0
 12
99.5161039721
 22
86.7105462037
 32
0.0
 13
99.5161039721
 23
86.7105462037
 33
0.0
  0
LINE
  5
27C
330
277
100
AcDbEntity
  8
VERMASSUNG
100
AcDbLine
 10
138.1454002578
 20
146.7105462037
 30
0.0
 11
98.9661039721
 21
146.7105462037
 31
0.0
  0
LINE
  5
27D
330
277
100
AcDbEntity
  8
VERMASSUNG
100
AcDbLine
 10
138.1454002578
 20
83.7105462037
 30
0.0
 11
98.9661039721
 21
83.7105462037
 31
0.0
  0
LINE
  5
27E
330
277
100
AcDbEntity
  8
VERMASSUNG
100
AcDbLine
 10
99.9661039721
 20
146.7105462037
 30
0.0
 11
99.9661039721
 21
83.7105462037
 31
0.0
  0
MTEXT
  5
27F
330
277
100
AcDbEntity
  8
VERMASSUNG
100
AcDbMText
 10
97.187968483
 20
109.006383865
 30
0.0
 40
2.0
 41
0.0
 71
     1
 72
     1
  1
HSK 
  7
SLDTEXTSTYLE0
 11
-7.044195017643634E-15
 21
1.0
 31
0.0
 73
     1
 44
1.0
  0
MTEXT
  5
280
330
277
100
AcDbEntity
  8
VERMASSUNG
100
AcDbMText
 10
97.3879684925
 20
115.0063839171
 30
0.0
 40
2.0
 41
0.0
 71
     1
 72
     1
  1
%%c
  7
SLDTEXTSTYLE0
 11
-7.044195017643634E-15
 21
1.0
 31
0.0
 73
     1
 44
1.0
  0
MTEXT
  5
281
330
277
100
AcDbEntity
  8
VERMASSUNG
100
AcDbMText
 10
97.387968609
 20
118.6149566069
 30
0.0
 40
2.0
 41
0.0
 71
     1
 72
     1
  1
63
  7
SLDTEXTSTYLE0
 11
-7.044195017643634E-15
 21
1.0
 31
0.0
 73
     1
 44
1.0
  0
ENDBLK
  5
279
330
277
100
AcDbEntity
  8
0
100
AcDbBlockEnd
  0
BLOCK
  5
2F6
330
2F5
100
AcDbEntity
  8
0
100
AcDbBlockBegin
  2
*D6
 70
     1
 10
0.0
 20
0.0
 30
0.0
  3
*D6
  1

  0
SOLID
  5
2F8
330
2F5
100
AcDbEntity
  8
VERMASSUNG
100
AcDbTrace
 10
22.8069736586
 20
88.210553279
 30
0.0
 11
23.2569736586
 21
91.210553279
 31
0.0
 12
22.3569736586
 22
91.210553279
 32
0.0
 13
22.3569736586
 23
91.210553279
 33
0.0
  0
SOLID
  5
2F9
330
2F5
100
AcDbEntity
  8
VERMASSUNG
100
AcDbTrace
 10
22.8069736586
 20
138.210553279
 30
0.0
 11
22.3569736586
 21
135.210553279
 31
0.0
 12
23.2569736586
 22
135.210553279
 32
0.0
 13
23.2569736586
 23
135.210553279
 33
0.0
  0
LINE
  5
2FA
330
2F5
100
AcDbEntity
  8
VERMASSUNG
100
AcDbLine
 10
57.4890960617
 20
88.210553279
 30
0.0
 11
21.8069736586
 21
88.210553279
 31
0.0
  0
LINE
  5
2FB
330
2F5
100
AcDbEntity
  8
VERMASSUNG
100
AcDbLine
 10
57.4890960617
 20
138.210553279
 30
0.0
 11
21.8069736586
 21
138.210553279
 31
0.0
  0
LINE
  5
2FC
330
2F5
100
AcDbEntity
  8
VERMASSUNG
100
AcDbLine
 10
22.8069736586
 20
88.210553279
 30
0.0
 11
22.8069736586
 21
138.210553279
 31
0.0
  0
MTEXT
  5
2FD
330
2F5
100
AcDbEntity
  8
VERMASSUNG
100
AcDbMText
 10
20.2288381791
 20
110.0064741661
 30
0.0
 40
2.0
 41
0.0
 71
     1
 72
     1
  1
%%c
  7
SLDTEXTSTYLE0
 11
6.123233995736766E-17
 21
1.0
 31
0.0
 73
     1
 44
1.0
  0
MTEXT
  5
2FE
330
2F5
100
AcDbEntity
  8
VERMASSUNG
100
AcDbMText
 10
20.2288382955
 20
113.6148804564
 30
0.0
 40
2.0
 41
0.0
 71
     1
 72
     1
  1
50
  7
SLDTEXTSTYLE0
 11
6.123233995736766E-17
 21
1.0
 31
0.0
 73
     1
 44
1.0
  0
ENDBLK
  5
2F7
330
2F5
100
AcDbEntity
  8
0
100
AcDbBlockEnd
  0
BLOCK
  5
300
330
2FF
100
AcDbEntity
  8
0
100
AcDbBlockBegin
  2
SW_CENTERMARKSYMBOL_0
 70
     0
 10
0.0
 20
0.0
 30
0.0
  3
SW_CENTERMARKSYMBOL_0
  1

  0
LINE
  5
302
330
2FF
100
AcDbEntity
  8
VERMASSUNG
 62
     0
100
AcDbLine
 10
0.0
 20
0.0
 30
0.0
 11
0.0
 21
2.5
 31
0.0
  0
LINE
  5
303
330
2FF
100
AcDbEntity
  8
VERMASSUNG
 62
     0
100
AcDbLine
 10
0.0
 20
0.0
 30
0.0
 11
-2.5
 21
0.0
 31
0.0
  0
LINE
  5
304
330
2FF
100
AcDbEntity
  8
VERMASSUNG
 62
     0
100
AcDbLine
 10
0.0
 20
0.0
 30
0.0
 11
0.0
 21
-2.5
 31
0.0
  0
LINE
  5
305
330
2FF
100
AcDbEntity
  8
VERMASSUNG
 62
     0
100
AcDbLine
 10
0.0
 20
0.0
 30
0.0
 11
2.5
 21
0.0
 31
0.0
  0
LINE
  5
306
330
2FF
100
AcDbEntity
  8
VERMASSUNG
 62
     0
100
AcDbLine
 10
0.0
 20
5.0
 30
0.0
 11
0.0
 21
34.0
 31
0.0
  0
LINE
  5
307
330
2FF
100
AcDbEntity
  8
VERMASSUNG
 62
     0
100
AcDbLine
 10
-5.0
 20
0.0
 30
0.0
 11
-34.0
 21
0.0
 31
0.0
  0
LINE
  5
308
330
2FF
100
AcDbEntity
  8
VERMASSUNG
 62
     0
100
AcDbLine
 10
0.0
 20
-5.0
 30
0.0
 11
0.0
 21
-34.0
 31
0.0
  0
LINE
  5
309
330
2FF
100
AcDbEntity
  8
VERMASSUNG
 62
     0
100
AcDbLine
 10
5.0
 20
0.0
 30
0.0
 11
34.0
 21
0.0
 31
0.0
  0
ENDBLK
  5
301
330
2FF
100
AcDbEntity
  8
0
100
AcDbBlockEnd
  0
ENDSEC
  0
SECTION
  2
ENTITIES
  0
MTEXT
  5
45
330
1F
100
AcDbEntity
  8
KOPF_DÜNN
100
AcDbMText
 10
13.8892156294
 20
23.8442973028
 30
0.0
 40
3.0
 41
0.0
 71
     1
 72
     1
  1
HA6.PCD.LLC.140
  7
SLDTEXTSTYLE0
 73
     1
 44
1.0
  0
MTEXT
  5
46
330
1F
100
AcDbEntity
  8
VERMASSUNG
100
AcDbMText
 10
13.9329988022
 20
28.8834360957
 30
0.0
 40
3.0
 41
0.0
 71
     1
 72
     1
  1
Bohrstange_Boring bar
  7
SLDTEXTSTYLE0
 73
     1
 44
1.0
  0
MTEXT
  5
47
330
1F
100
AcDbEntity
  8
VERMASSUNG
100
AcDbMText
 10
98.8601118557
 20
13.8365368179
 30
0.0
 40
2.0
 41
0.0
 71
     1
 72
     1
  1
Datum: 02.03.2011
  7
SLDTEXTSTYLE0
 73
     1
 44
1.0
  0
MTEXT
  5
49
330
1F
100
AcDbEntity
  8
VERMASSUNG
100
AcDbMText
 10
13.933048693
 20
18.0482802738
 30
0.0
 40
2.0
 41
0.0
 71
     1
 72
     1
  1
DIN 69893 HSK 63 A ICTM / CN.. 12 04..
  7
SLDTEXTSTYLE1
 73
     1
 44
1.0
  0
MTEXT
  5
4A
330
1F
100
AcDbEntity
  8
VERMASSUNG
100
AcDbMText
 10
13.9808475933
 20
13.9090973692
 30
0.0
 40
2.0
 41
0.0
 71
     1
 72
     1
  1
Gewicht: 1573g
  7
SLDTEXTSTYLE0
 73
     1
 44
1.0
  0
LINE
  5
4B
330
1F
100
AcDbEntity
  8
0
  6
Continuous
 62
     7
370
    15
100
AcDbLine
 10
272.3483513773
 20
96.9561796961
 30
0.0
 11
272.0006557998
 21
97.3342118822
 31
0.0
  0
LINE
  5
4C
330
1F
100
AcDbEntity
  8
0
  6
Continuous
 62
     7
370
    15
100
AcDbLine
 10
268.396466845
 20
94.6054775504
 30
0.0
 11
269.0283217265
 21
93.9184930226
 31
0.0
  0
LINE
  5
4D
330
1F
100
AcDbEntity
  8
0
  6
Continuous
 62
     7
370
    15
100
AcDbLine
 10
276.7194084091
 20
100.7528833663
 30
0.0
 11
276.2218529239
 21
101.41171828
 31
0.0
  0
LINE
  5
4E
330
1F
100
AcDbEntity
  8
0
  6
Continuous
 62
     7
370
    15
100
AcDbLine
 10
264.6591834682
 20
89.8922554356
 30
0.0
 11
265.1567389534
 21
89.2334205219
 31
0.0
  0
LINE
  5
4F
330
1F
100
AcDbEntity
  8
0
  6
Continuous
 62
     7
370
    15
100
AcDbLine
 10
138.1454002578
 20
83.7105462037
 30
0.0
 11
142.7954002578
 21
83.7105462037
 31
0.0
  0
LINE
  5
50
330
1F
100
AcDbEntity
  8
0
  6
Continuous
 62
     7
370
    15
100
AcDbLine
 10
142.7996044552
 20
146.7105462037
 30
0.0
 11
138.1454002578
 21
146.7105462037
 31
0.0
  0
ARC
  5
51
330
1F
100
AcDbEntity
  8
0
  6
Continuous
 62
     7
370
    15
100
AcDbCircle
 10
138.1454002578
 20
84.0105462037
 30
0.0
 40
0.3000000000000398
100
AcDbArc
 50
180.0
 51
270.0
  0
ARC
  5
52
330
1F
100
AcDbEntity
  8
0
  6
Continuous
 62
     7
370
    15
100
AcDbCircle
 10
138.1454002578
 20
146.4105462037
 30
0.0
 40
0.3000000000000398
100
AcDbArc
 50
90.0
 51
180.0
  0
ARC
  5
53
330
1F
100
AcDbEntity
  8
0
  6
Continuous
 62
     7
370
    15
100
AcDbCircle
 10
137.3454002578
 20
90.6401153419
 30
0.0
 40
0.6000000000000097
100
AcDbArc
 50
33.5573097619
 51
90.0
  0
ARC
  5
54
330
1F
100
AcDbEntity
  8
0
  6
Continuous
 62
     7
370
    15
100
AcDbCircle
 10
137.3454002578
 20
139.7809770654
 30
0.0
 40
0.6000000000000227
100
AcDbArc
 50
270.0
 51
326.4426902381
  0
LINE
  5
55
330
1F
100
AcDbEntity
  8
0
  6
Continuous
 62
     7
370
    15
100
AcDbLine
 10
135.8454002578
 20
90.9901153419
 30
0.0
 11
136.7021130312
 21
91.2196708377
 31
0.0
  0
LINE
  5
56
330
1F
100
AcDbEntity
  8
0
  6
Continuous
 62
     7
370
    15
100
AcDbLine
 10
136.7021130312
 20
139.2014215696
 30
0.0
 11
135.8454002578
 21
139.4309770654
 31
0.0
  0
LINE
  5
57
330
1F
100
AcDbEntity
  8
0
  6
Continuous
 62
     7
370
    15
100
AcDbLine
 10
124.6149780753
 20
138.8683306635
 30
0.0
 11
112.0454002578
 21
138.2385922958
 31
0.0
  0
LINE
  5
58
330
1F
100
AcDbEntity
  8
0
  6
Continuous
 62
     7
370
    15
100
AcDbLine
 10
135.8454002578
 20
139.4309770654
 30
0.0
 11
133.0267909003
 21
139.2897641717
 31
0.0
  0
LINE
  5
59
330
1F
100
AcDbEntity
  8
0
  6
Continuous
 62
     7
370
    15
100
AcDbLine
 10
133.0270123754
 20
91.1313171396
 30
0.0
 11
135.8454002578
 21
90.9901153419
 31
0.0
  0
LINE
  5
5A
330
1F
100
AcDbEntity
  8
0
  6
Continuous
 62
     7
370
    15
100
AcDbLine
 10
116.0454002578
 20
91.9820993099
 30
0.0
 11
124.615677027
 21
91.5527267262
 31
0.0
  0
ARC
  5
5B
330
1F
100
AcDbEntity
  8
0
  6
Continuous
 62
     7
370
    15
100
AcDbCircle
 10
136.8574044582
 20
90.6401153419
 30
0.0
 40
0.6000000000000227
100
AcDbArc
 50
90.0
 51
105.0
  0
ARC
  5
5C
330
1F
100
AcDbEntity
  8
0
  6
Continuous
 62
     7
370
    15
100
AcDbCircle
 10
136.8574044582
 20
139.7809770654
 30
0.0
 40
0.6000000000000282
100
AcDbArc
 50
255.0
 51
270.0
  0
LINE
  5
5D
330
1F
100
AcDbEntity
  8
0
  6
Continuous
 62
     7
370
    15
100
AcDbLine
 10
136.8574044582
 20
91.2401153419
 30
0.0
 11
137.3454002578
 21
91.2401153419
 31
0.0
  0
LINE
  5
5E
330
1F
100
AcDbEntity
  8
0
  6
Continuous
 62
     7
370
    15
100
AcDbLine
 10
137.3454002578
 20
139.1809770654
 30
0.0
 11
136.8574044582
 21
139.1809770654
 31
0.0
  0
ARC
  5
5F
330
1F
100
AcDbEntity
  8
0
  6
Continuous
 62
     7
370
    15
100
AcDbCircle
 10
166.7954002578
 20
92.2105462037
 30
0.0
 40
3.0
100
AcDbArc
 50
90.0
 51
180.0
  0
ARC
  5
60
330
1F
100
AcDbEntity
  8
0
  6
Continuous
 62
     7
370
    15
100
AcDbCircle
 10
166.7954002578
 20
138.2105462037
 30
0.0
 40
3.0
100
AcDbArc
 50
180.0
 51
270.0
  0
LINE
  5
61
330
1F
100
AcDbEntity
  8
0
  6
Continuous
 62
     7
370
    15
100
AcDbLine
 10
166.7954002578
 20
95.2105462037
 30
0.0
 11
251.8454002578
 21
95.2105462037
 31
0.0
  0
LINE
  5
62
330
1F
100
AcDbEntity
  8
0
  6
Continuous
 62
     7
370
    15
100
AcDbLine
 10
251.8454002578
 20
135.2105462037
 30
0.0
 11
166.7954002578
 21
135.2105462037
 31
0.0
  0
LINE
  5
63
330
1F
100
AcDbEntity
  8
0
  6
Continuous
 62
     7
370
    15
100
AcDbLine
 10
107.0954002578
 20
94.3980462037
 30
0.0
 11
114.6454002578
 21
94.3980462037
 31
0.0
  0
ARC
  5
64
330
1F
100
AcDbEntity
  8
0
  6
Continuous
 62
     7
370
    15
100
AcDbCircle
 10
114.6454002578
 20
92.9980462037
 30
0.0
 40
1.40000000000002
100
AcDbArc
 50
37.6443616934
 51
90.0
  0
LINE
  5
65
330
1F
100
AcDbEntity
  8
0
  6
Continuous
 62
     7
370
    15
100
AcDbLine
 10
106.1163403228
 20
94.9633067207
 30
0.0
 11
107.0954002578
 21
94.3980462037
 31
0.0
  0
ARC
  5
66
330
1F
100
AcDbEntity
  8
0
  6
Continuous
 62
     7
370
    15
100
AcDbCircle
 10
110.6454002578
 20
137.4805462037
 30
0.0
 40
1.399999999999992
100
AcDbArc
 50
270.0
 51
302.5610026528
  0
LINE
  5
67
330
1F
100
AcDbEntity
  8
0
  6
Continuous
 62
     7
370
    15
100
AcDbLine
 10
110.6454002578
 20
136.0805462037
 30
0.0
 11
107.2430556619
 21
136.0805462037
 31
0.0
  0
LINE
  5
68
330
1F
100
AcDbEntity
  8
0
  6
Continuous
 62
     7
370
    15
100
AcDbLine
 10
107.0782689384
 20
136.0706554318
 30
0.0
 11
106.1967648271
 21
135.5617187958
 31
0.0
  0
LINE
  5
69
330
1F
100
AcDbEntity
  8
0
  6
Continuous
 62
     7
370
    15
100
AcDbLine
 10
252.3454002578
 20
135.7105462037
 30
0.0
 11
251.8454002578
 21
135.2105462037
 31
0.0
  0
LINE
  5
6A
330
1F
100
AcDbEntity
  8
0
  6
Continuous
 62
     7
370
    15
100
AcDbLine
 10
251.8454002578
 20
95.2105462037
 30
0.0
 11
255.7199184081
 21
91.3360280534
 31
0.0
  0
LINE
  5
6B
330
1F
100
AcDbEntity
  8
0
  6
Continuous
 62
     7
370
    15
100
AcDbLine
 10
254.5939554281
 20
135.7105462037
 30
0.0
 11
252.3454002578
 21
135.7105462037
 31
0.0
  0
LINE
  5
6C
330
1F
100
AcDbEntity
  8
0
  6
Continuous
 62
     7
370
    15
100
AcDbLine
 10
255.7199184081
 20
91.3360280534
 30
0.0
 11
264.8434811556
 21
90.3771029679
 31
0.0
  0
LINE
  5
6D
330
1F
100
AcDbEntity
  8
0
  6
Continuous
 62
     7
370
    15
100
AcDbLine
 10
268.3834890905
 20
95.1951068568
 30
0.0
 11
268.4720624888
 21
95.0988053863
 31
0.0
  0
LINE
  5
6E
330
1F
100
AcDbEntity
  8
0
  6
Continuous
 62
     7
370
    15
100
AcDbLine
 10
268.4720624888
 20
95.0988053863
 30
0.0
 11
268.7926131153
 21
94.2254751811
 31
0.0
  0
LINE
  5
6F
330
1F
100
AcDbEntity
  8
0
  6
Continuous
 62
     7
370
    15
100
AcDbLine
 10
268.7926131153
 20
94.2254751811
 30
0.0
 11
268.4540214362
 21
94.5936091492
 31
0.0
  0
ELLIPSE
  5
70
330
1F
100
AcDbEntity
  8
0
  6
Continuous
 62
     7
370
    15
100
AcDbEllipse
 10
270.6883365519
 20
95.4373363593
 30
0.0
 11
1.78067630855702
 21
1.375799859026855
 31
0.0
210
0.0
220
0.0
230
1.0
 40
0.984640649
 41
3.051173417657669
 42
5.770344310529107
  0
ELLIPSE
  5
71
330
1F
100
AcDbEntity
  8
0
  6
Continuous
 62
     7
370
    15
100
AcDbEllipse
 10
270.6883365519
 20
95.4373363593
 30
0.0
 11
1.78067630855702
 21
1.375799859026855
 31
0.0
210
0.0
220
0.0
230
1.0
 40
0.984640649
 41
6.192766071247455
 42
6.744558150796705
  0
ELLIPSE
  5
72
330
1F
100
AcDbEntity
  8
0
  6
Continuous
 62
     7
370
    15
100
AcDbEllipse
 10
270.6883365519
 20
95.4373363593
 30
0.0
 11
1.78067630855702
 21
1.375799859026855
 31
0.0
210
0.0
220
0.0
230
1.0
 40
0.984640649
 41
2.390703614602119
 42
2.628751656939313
  0
LINE
  5
73
330
1F
100
AcDbEntity
  8
0
  6
Continuous
 62
     7
370
    15
100
AcDbLine
 10
272.9046106149
 20
95.7758673323
 30
0.0
 11
272.5840599885
 21
96.6491975375
 31
0.0
  0
LWPOLYLINE
  5
74
330
1F
100
AcDbEntity
  8
0
  6
Continuous
 62
     7
370
    15
100
AcDbPolyline
 90
        3
 70
   128
 43
0.0
 10
272.5246961709
 20
97.0242422948
 10
272.5557931056
 20
96.7853934855
 10
272.5629295017
 20
96.6818106235
  0
LWPOLYLINE
  5
75
330
1F
100
AcDbEntity
  8
0
  6
Continuous
 62
     7
370
    15
100
AcDbPolyline
 90
        3
 70
   128
 43
0.0
 10
269.340625059
 20
93.6384459929
 10
269.1803733461
 20
93.65955883
 10
268.6536212246
 20
93.7964230493
  0
CIRCLE
  5
76
330
1F
100
AcDbEntity
  8
0
  6
Continuous
 62
     7
370
    15
100
AcDbCircle
 10
266.5341684866
 20
106.9576669812
 30
0.0
 40
3.46072266859791
  0
CIRCLE
  5
77
330
1F
100
AcDbEntity
  8
0
  6
Continuous
 62
     7
370
    15
100
AcDbCircle
 10
266.5221882106
 20
106.9414052708
 30
0.0
 40
1.979481950528482
  0
SPLINE
  5
78
330
1F
100
AcDbEntity
  8
0
  6
Continuous
 62
     7
370
    15
100
AcDbSpline
210
0.0
220
0.0
230
1.0
 70
     8
 71
     3
 72
    11
 73
     7
 74
     0
 42
0.00000001
 43
0.00000001
 40
0.0
 40
0.0
 40
0.0
 40
0.0
 40
0.1081100880371232
 40
0.4711580666043592
 40
0.8135808430836238
 40
0.9999999999999999
 40
0.9999999999999999
 40
0.9999999999999999
 40
0.9999999999999999
 10
264.7846770315132
 20
107.2350445975102
 30
0.0
 10
264.8016695412926
 20
107.1847221084962
 30
0.0
 10
264.8757251470163
 20
106.9654100437203
 30
0.0
 10
265.0276357262433
 20
106.5334215235544
 30
0.0
 10
265.22231547595
 20
106.0177673686572
 30
0.0
 10
265.3343392165146
 20
105.7324739921705
 30
0.0
 10
265.3738280882397
 20
105.6319067955093
 30
0.0
  0
SPLINE
  5
79
330
1F
100
AcDbEntity
  8
0
  6
Continuous
 62
     7
370
    15
100
AcDbSpline
210
0.0
220
0.0
230
1.0
 70
     8
 71
     3
 72
    10
 73
     6
 74
     0
 42
0.00000001
 43
0.00000001
 40
0.0
 40
0.0
 40
0.0
 40
0.0
 40
0.4391165375904154
 40
0.7513669429073451
 40
1.0
 40
1.0
 40
1.0
 40
1.0
 10
265.3738280882397
 20
105.6319067955093
 30
0.0
 10
265.605941120137
 20
105.6070405604529
 30
0.0
 10
266.0031068933567
 20
105.5644922494316
 30
0.0
 10
266.6153360341572
 20
105.4564565662168
 30
0.0
 10
266.9305086319052
 20
105.3888499104651
 30
0.0
 10
267.0702209460343
 20
105.3588806733136
 30
0.0
  0
SPLINE
  5
7A
330
1F
100
AcDbEntity
  8
0
  6
Continuous
 62
     7
370
    15
100
AcDbSpline
210
0.0
220
0.0
230
1.0
 70
     8
 71
     3
 72
    10
 73
     6
 74
     0
 42
0.00000001
 43
0.00000001
 40
0.0
 40
0.0
 40
0.0
 40
0.0
 40
0.439116537590413
 40
0.7513669429073414
 40
1.0
 40
1.0
 40
1.0
 40
1.0
 10
267.0702209460343
 20
105.3588806733136
 30
0.0
 10
267.2179924622683
 20
105.5635159735495
 30
0.0
 10
267.4708424984132
 20
105.9136649358111
 30
0.0
 10
267.8732832263066
 20
106.3764840975694
 30
0.0
 10
268.0840377429939
 20
106.5930092804179
 30
0.0
 10
268.1774627471024
 20
106.6889923531187
 30
0.0
  0
SPLINE
  5
7B
330
1F
100
AcDbEntity
  8
0
  6
Continuous
 62
     7
370
    15
100
AcDbSpline
210
0.0
220
0.0
230
1.0
 70
     8
 71
     3
 72
    11
 73
     7
 74
     0
 42
0.00000001
 43
0.00000001
 40
0.0
 40
0.0
 40
0.0
 40
0.0
 40
0.1864191569163802
 40
0.5288419333956468
 40
0.8918899119628728
 40
0.9999999999999999
 40
0.9999999999999999
 40
0.9999999999999999
 40
0.9999999999999999
 10
268.1774627471024
 20
106.6889923531187
 30
0.0
 10
268.1379738753774
 20
106.7895595497799
 30
0.0
 10
268.0259501348127
 20
107.0748529262666
 30
0.0
 10
267.8312703851061
 20
107.5905070811639
 30
0.0
 10
267.679359805879
 20
108.0224956013297
 30
0.0
 10
267.6053042001554
 20
108.2418076661056
 30
0.0
 10
267.588311690376
 20
108.2921301551196
 30
0.0
  0
SPLINE
  5
7C
330
1F
100
AcDbEntity
  8
0
  6
Continuous
 62
     7
370
    15
100
AcDbSpline
210
0.0
220
0.0
230
1.0
 70
     8
 71
     3
 72
    10
 73
     6
 74
     0
 42
0.00000001
 43
0.00000001
 40
0.0
 40
0.0
 40
0.0
 40
0.0
 40
0.4391165375904182
 40
0.7513669429073534
 40
1.0
 40
1.0
 40
1.0
 40
1.0
 10
267.588311690376
 20
108.2921301551196
 30
0.0
 10
267.3347212913681
 20
108.3454355084826
 30
0.0
 10
266.9008058576683
 20
108.4366456474055
 30
0.0
 10
266.3049116785132
 20
108.5230514956237
 30
0.0
 10
266.0187645131421
 20
108.5522243107179
 30
0.0
 10
265.8919188325814
 20
108.5651562773153
 30
0.0
  0
SPLINE
  5
7D
330
1F
100
AcDbEntity
  8
0
  6
Continuous
 62
     7
370
    15
100
AcDbSpline
210
0.0
220
0.0
230
1.0
 70
     8
 71
     3
 72
    10
 73
     6
 74
     0
 42
0.00000001
 43
0.00000001
 40
0.0
 40
0.0
 40
0.0
 40
0.0
 40
0.4391165375904061
 40
0.7513669429073512
 40
1.0
 40
1.0
 40
1.0
 40
1.0
 10
265.8919188325814
 20
108.5651562773153
 30
0.0
 10
265.7226699492368
 20
108.3889600953859
 30
0.0
 10
265.4330702526118
 20
108.0874729610259
 30
0.0
 10
265.0469644863639
 20
107.6030239642711
 30
0.0
 10
264.8652354020535
 20
107.3480649407652
 30
0.0
 10
264.7846770315132
 20
107.2350445975102
 30
0.0
  0
LINE
  5
7E
330
1F
100
AcDbEntity
  8
0
  6
Continuous
 62
     7
370
    15
100
AcDbLine
 10
267.7873572114
 20
107.2055481035
 30
0.0
 11
268.1774627471
 21
106.6889923531
 31
0.0
  0
LINE
  5
7F
330
1F
100
AcDbEntity
  8
0
  6
Continuous
 62
     7
370
    15
100
AcDbLine
 10
267.7873572114
 20
107.2055481035
 30
0.0
 11
267.492781683
 21
108.0071170045
 31
0.0
  0
LINE
  5
80
330
1F
100
AcDbEntity
  8
0
  6
Continuous
 62
     7
370
    15
100
AcDbLine
 10
267.492781683
 20
108.0071170045
 30
0.0
 11
267.3723937941
 21
108.3347042562
 31
0.0
  0
LINE
  5
81
330
1F
100
AcDbEntity
  8
0
  6
Continuous
 62
     7
370
    15
100
AcDbLine
 10
265.1872994968
 20
106.1156978337
 30
0.0
 11
265.8319189814
 21
106.0119494848
 31
0.0
  0
LINE
  5
82
330
1F
100
AcDbEntity
  8
0
  6
Continuous
 62
     7
370
    15
100
AcDbLine
 10
265.8319189814
 20
106.0119494848
 30
0.0
 11
266.6801154103
 21
105.8754364237
 31
0.0
  0
LINE
  5
83
330
1F
100
AcDbEntity
  8
0
  6
Continuous
 62
     7
370
    15
100
AcDbLine
 10
266.6801154103
 20
105.8754364237
 30
0.0
 11
267.070220946
 21
105.3588806733
 31
0.0
  0
LINE
  5
84
330
1F
100
AcDbEntity
  8
0
  6
Continuous
 62
     7
370
    15
100
AcDbLine
 10
266.6801154103
 20
105.8754364237
 30
0.0
 11
267.2337363108
 21
106.5404922636
 31
0.0
  0
LINE
  5
85
330
1F
100
AcDbEntity
  8
0
  6
Continuous
 62
     7
370
    15
100
AcDbLine
 10
267.2337363108
 20
106.5404922636
 30
0.0
 11
267.7873572114
 21
107.2055481035
 31
0.0
  0
ARC
  5
86
330
1F
100
AcDbEntity
  8
0
  6
Continuous
 62
     7
370
    15
100
AcDbCircle
 10
266.0684474408
 20
107.507864263
 30
0.0
 40
1.514498839823912
100
AcDbArc
 50
261.0149898469
 51
320.3020218049
  0
ARC
  5
87
330
1F
100
AcDbEntity
  8
0
  6
Continuous
 62
     7
370
    15
100
AcDbCircle
 10
266.0632796761
 20
107.4616984223
 30
0.0
 40
1.468093918273543
100
AcDbArc
 50
226.4792120811
 51
260.9328120579
  0
ARC
  5
88
330
1F
100
AcDbEntity
  8
0
  6
Continuous
 62
     7
370
    15
100
AcDbCircle
 10
266.1257134416
 20
107.5049305997
 30
0.0
 40
1.456388259300504
100
AcDbArc
 50
20.170582183
 51
35.517569228
  0
ARC
  5
89
330
1F
100
AcDbEntity
  8
0
  6
Continuous
 62
     7
370
    15
100
AcDbCircle
 10
266.0917237828
 20
107.4983919491
 30
0.0
 40
1.490558426082164
100
AcDbArc
 50
320.0106773139
 51
19.955993209
  0
LINE
  5
8A
330
1F
100
AcDbEntity
  8
0
  6
Continuous
 62
     7
370
    15
100
AcDbLine
 10
264.0322608871
 20
101.3392878206
 30
0.0
 11
265.0796447049
 21
89.4341626416
 31
0.0
  0
ARC
  5
8B
330
1F
100
AcDbEntity
  8
0
  6
Continuous
 62
     7
370
    15
100
AcDbCircle
 10
264.4343462373
 20
101.3723107318
 30
0.0
 40
0.4034391422339657
100
AcDbArc
 50
85.894863421
 51
184.6951137195
  0
LINE
  5
8C
330
1F
100
AcDbEntity
  8
0
  6
Continuous
 62
     7
370
    15
100
AcDbLine
 10
276.4348789996
 20
100.906928431
 30
0.0
 11
264.4632271806
 21
101.7747147981
 31
0.0
  0
ARC
  5
8D
330
1F
100
AcDbEntity
  8
0
  6
Continuous
 62
     7
370
    15
100
AcDbCircle
 10
276.4081312995
 20
100.5179757988
 30
0.0
 40
0.3898712474074983
100
AcDbArc
 50
5.0274293321
 51
86.0660471321
  0
LINE
  5
8E
330
1F
100
AcDbEntity
  8
0
  6
Continuous
 62
     7
370
    15
100
AcDbLine
 10
277.8438864754
 20
88.6470160677
 30
0.0
 11
276.7965026575
 21
100.5521412467
 31
0.0
  0
ARC
  5
8F
330
1F
100
AcDbEntity
  8
0
  6
Continuous
 62
     7
370
    15
100
AcDbCircle
 10
277.4418011252
 20
88.6139931565
 30
0.0
 40
0.4034391422340173
100
AcDbArc
 50
265.894863421
 51
4.6951137195
  0
LINE
  5
90
330
1F
100
AcDbEntity
  8
0
  6
Continuous
 62
     7
370
    15
100
AcDbLine
 10
265.4412683629
 20
89.0793754573
 30
0.0
 11
277.4129201818
 21
88.2115890901
 31
0.0
  0
ARC
  5
91
330
1F
100
AcDbEntity
  8
0
  6
Continuous
 62
     7
370
    15
100
AcDbCircle
 10
265.4680160629
 20
89.4683280895
 30
0.0
 40
0.3898712474075846
100
AcDbArc
 50
185.0274293321
 51
266.0660471321
  0
ARC
  5
92
330
1F
100
AcDbEntity
  8
0
  6
Continuous
 62
     7
370
    15
100
AcDbCircle
 10
277.4420906439
 20
88.6136283072
 30
0.0
 40
0.383267185122017
100
AcDbArc
 50
265.894863421
 51
4.6951137195
  0
LINE
  5
93
330
1F
100
AcDbEntity
  8
0
  6
Continuous
 62
     7
370
    15
100
AcDbLine
 10
277.8240717266
 20
88.6450000728
 30
0.0
 11
276.7766879084
 21
100.5501252518
 31
0.0
  0
ARC
  5
94
330
1F
100
AcDbEntity
  8
0
  6
Continuous
 62
     7
370
    15
100
AcDbCircle
 10
276.407735118
 20
100.517668076
 30
0.0
 40
0.3703776854223952
100
AcDbArc
 50
5.0274293787
 51
86.0660470326
  0
LINE
  5
95
330
1F
100
AcDbEntity
  8
0
  6
Continuous
 62
     7
370
    15
100
AcDbLine
 10
276.4331454337
 20
100.8871730769
 30
0.0
 11
264.4614936147
 21
101.7549594441
 31
0.0
  0
ARC
  5
96
330
1F
100
AcDbEntity
  8
0
  6
Continuous
 62
     7
370
    15
100
AcDbCircle
 10
264.4340567186
 20
101.372675581
 30
0.0
 40
0.3832671851220797
100
AcDbArc
 50
85.894863421
 51
184.6951137195
  0
LINE
  5
97
330
1F
100
AcDbEntity
  8
0
  6
Continuous
 62
     7
370
    15
100
AcDbLine
 10
264.0520756359
 20
101.3413038154
 30
0.0
 11
265.0994594537
 21
89.4361786364
 31
0.0
  0
ARC
  5
98
330
1F
100
AcDbEntity
  8
0
  6
Continuous
 62
     7
370
    15
100
AcDbCircle
 10
265.4684122438
 20
89.4686358119
 30
0.0
 40
0.3703776850372563
100
AcDbArc
 50
185.0274293321
 51
266.0660471321
  0
LINE
  5
99
330
1F
100
AcDbEntity
  8
0
  6
Continuous
 62
     7
370
    15
100
AcDbLine
 10
265.4430019288
 20
89.0991308113
 30
0.0
 11
277.4146537477
 21
88.2313444442
 31
0.0
  0
LINE
  5
9A
330
1F
100
AcDbEntity
  8
0
  6
Continuous
 62
     7
370
    15
100
AcDbLine
 10
264.405623039
 20
101.4099740692
 30
0.0
 11
264.0520756359
 21
101.3413038154
 31
0.0
  0
LINE
  5
9B
330
1F
100
AcDbEntity
  8
0
  6
Continuous
 62
     7
370
    15
100
AcDbLine
 10
264.405623039
 20
101.4099740692
 30
0.0
 11
264.4614936147
 21
101.7549594441
 31
0.0
  0
LINE
  5
9C
330
1F
100
AcDbEntity
  8
0
  6
Continuous
 62
     7
370
    15
100
AcDbLine
 10
275.9373235144
 20
101.5657633446
 30
0.0
 11
275.641241735
 21
101.5872253564
 31
0.0
  0
LINE
  5
9D
330
1F
100
AcDbEntity
  8
0
  6
Continuous
 62
     7
370
    15
100
AcDbLine
 10
276.377274858
 20
100.542187702
 30
0.0
 11
276.4331454337
 21
100.8871730769
 31
0.0
  0
LINE
  5
9E
330
1F
100
AcDbEntity
  8
0
  6
Continuous
 62
     7
370
    15
100
AcDbLine
 10
275.769215325
 20
100.0153966065
 30
0.0
 11
276.377274858
 21
100.542187702
 31
0.0
  0
LINE
  5
9F
330
1F
100
AcDbEntity
  8
0
  6
Continuous
 62
     7
370
    15
100
AcDbLine
 10
265.2691725715
 20
100.5800451727
 30
0.0
 11
264.405623039
 21
101.4099740692
 31
0.0
  0
LINE
  5
A0
330
1F
100
AcDbEntity
  8
0
  6
Continuous
 62
     7
370
    15
100
AcDbLine
 10
265.4530068568
 20
89.5048488902
 30
0.0
 11
265.0994594537
 21
89.4361786364
 31
0.0
  0
LINE
  5
A1
330
1F
100
AcDbEntity
  8
0
  6
Continuous
 62
     7
370
    15
100
AcDbLine
 10
265.9860504672
 20
90.13097184
 30
0.0
 11
265.4530068568
 21
89.5048488902
 31
0.0
  0
LINE
  5
A2
330
1F
100
AcDbEntity
  8
0
  6
Continuous
 62
     7
370
    15
100
AcDbLine
 10
263.5450517593
 20
101.880520498
 30
0.0
 11
263.9070583347
 21
97.7657599651
 31
0.0
  0
LINE
  5
A3
330
1F
100
AcDbEntity
  8
0
  6
Continuous
 62
     7
370
    15
100
AcDbLine
 10
264.5544214385
 20
90.4074843684
 30
0.0
 11
264.5820892198
 21
90.0929975553
 31
0.0
  0
ARC
  5
A4
330
1F
100
AcDbEntity
  8
0
  6
Continuous
 62
     7
370
    15
100
AcDbCircle
 10
267.3094077123
 20
98.5491780057
 30
0.0
 40
1.008597855584591
100
AcDbArc
 50
85.894863421
 51
184.6951137195
  0
SPLINE
  5
A5
330
1F
100
AcDbEntity
  8
0
  6
Continuous
 62
     7
370
    15
100
AcDbSpline
210
0.0
220
0.0
230
1.0
 70
     8
 71
     3
 72
    11
 73
     7
 74
     0
 42
0.00000001
 43
0.00000001
 40
0.0
 40
0.0
 40
0.0
 40
0.0
 40
0.3367831131411808
 40
0.6790111347687632
 40
0.9923717339918713
 40
0.9999999999999999
 40
0.9999999999999999
 40
0.9999999999999999
 40
0.9999999999999999
 10
265.2691725714662
 20
100.580045172662
 30
0.0
 10
265.3222370840238
 20
100.5287115662365
 30
0.0
 10
265.4292240245256
 20
100.4252144222568
 30
0.0
 10
265.6015524568912
 20
100.2548372379657
 30
0.0
 10
265.7114211918908
 20
100.1448559573968
 30
0.0
 10
265.7620944177802
 20
100.0937723412805
 30
0.0
 10
265.7632986615669
 20
100.0925583446139
 30
0.0
  0
LINE
  5
A6
330
1F
100
AcDbEntity
  8
0
  6
Continuous
 62
     7
370
    15
100
AcDbLine
 10
266.3041943368
 20
98.4666207276
 30
0.0
 11
266.890377213
 21
91.8037523501
 31
0.0
  0
LINE
  5
A7
330
1F
100
AcDbEntity
  8
0
  6
Continuous
 62
     7
370
    15
100
AcDbLine
 10
274.0817110046
 20
99.0695194988
 30
0.0
 11
267.3816100706
 21
99.5551881715
 31
0.0
  0
ARC
  5
A8
330
1F
100
AcDbEntity
  8
0
  6
Continuous
 62
     7
370
    15
100
AcDbCircle
 10
274.0148417544
 20
98.0971379183
 30
0.0
 40
0.9746781185188377
100
AcDbArc
 50
5.0274293321
 51
86.0660471321
  0
LINE
  5
A9
330
1F
100
AcDbEntity
  8
0
  6
Continuous
 62
     7
370
    15
100
AcDbLine
 10
275.5719530256
 20
91.5196831606
 30
0.0
 11
274.9857701494
 21
98.1825515381
 31
0.0
  0
ARC
  5
AA
330
1F
100
AcDbEntity
  8
0
  6
Continuous
 62
     7
370
    15
100
AcDbCircle
 10
274.5667396504
 20
91.437125882
 30
0.0
 40
1.008597855397961
100
AcDbArc
 50
265.8948634049
 51
4.6951137474
  0
LINE
  5
AB
330
1F
100
AcDbEntity
  8
0
  6
Continuous
 62
     7
370
    15
100
AcDbLine
 10
267.7944363579
 20
90.9167843894
 30
0.0
 11
274.4945372918
 21
90.4311157164
 31
0.0
  0
ARC
  5
AC
330
1F
100
AcDbEntity
  8
0
  6
Continuous
 62
     7
370
    15
100
AcDbCircle
 10
267.8613056081
 20
91.8891659699
 30
0.0
 40
0.9746781185187158
100
AcDbArc
 50
185.0274293321
 51
266.0660471321
  0
CIRCLE
  5
AD
330
1F
100
AcDbEntity
  8
0
  6
Continuous
 62
     7
370
    15
100
AcDbCircle
 10
270.8995384459
 20
94.9957776071
 30
0.0
 40
2.557772374002526
  0
ARC
  5
AE
330
1F
100
AcDbEntity
  8
0
  6
Continuous
 62
     7
370
    15
100
AcDbCircle
 10
270.4005242267
 20
95.7028062732
 30
0.0
 40
2.605738895874586
100
AcDbArc
 50
265.9588052553
 51
312.5639910564
  0
ARC
  5
AF
330
1F
100
AcDbEntity
  8
0
  6
Continuous
 62
     7
370
    15
100
AcDbCircle
 10
270.461819721
 20
95.6824158129
 30
0.0
 40
2.544688918392557
100
AcDbArc
 50
324.6245901827
 51
36.8025964811
  0
ARC
  5
B0
330
1F
100
AcDbEntity
  8
0
  6
Continuous
 62
     7
370
    15
100
AcDbCircle
 10
270.3947460894
 20
95.625578236
 30
0.0
 40
2.528295689273221
100
AcDbArc
 50
226.6068062128
 51
265.9660848262
  0
LINE
  5
B1
330
1F
100
AcDbEntity
  8
0
  6
Continuous
 62
     7
370
    15
100
AcDbLine
 10
276.377274858
 20
100.542187702
 30
0.0
 11
276.7766879084
 21
100.5501252518
 31
0.0
  0
LINE
  5
B2
330
1F
100
AcDbEntity
  8
0
  6
Continuous
 62
     7
370
    15
100
AcDbLine
 10
277.4246586758
 20
88.6370625231
 30
0.0
 11
277.8240717266
 21
88.6450000728
 31
0.0
  0
LINE
  5
B3
330
1F
100
AcDbEntity
  8
0
  6
Continuous
 62
     7
370
    15
100
AcDbLine
 10
276.4602762794
 20
89.6005086116
 30
0.0
 11
277.4246586758
 21
88.6370625231
 31
0.0
  0
SPLINE
  5
B4
330
1F
100
AcDbEntity
  8
0
  6
Continuous
 62
     7
370
    15
100
AcDbSpline
210
0.0
220
0.0
230
1.0
 70
     8
 71
     3
 72
    11
 73
     7
 74
     0
 42
0.00000001
 43
0.00000001
 40
0.0
 40
0.0
 40
0.0
 40
0.0
 40
0.3372314186521659
 40
0.6736321483071666
 40
0.9918835608968706
 40
1.0
 40
1.0
 40
1.0
 40
1.0
 10
275.769215324962
 20
100.015396606545
 30
0.0
 10
275.711988078406
 20
99.96370321938663
 30
0.0
 10
275.597674550938
 20
99.86044377937375
 30
0.0
 10
275.4299115080304
 20
99.68452470845118
 30
0.0
 10
275.3311779640923
 20
99.57037175860782
 30
0.0
 10
275.2875562412615
 20
99.51679300854583
 30
0.0
 10
275.2864714130375
 20
99.51546055910315
 30
0.0
  0
ARC
  5
B5
330
1F
100
AcDbEntity
  8
0
  6
Continuous
 62
     7
370
    15
100
AcDbCircle
 10
275.9098545984
 20
101.175233807
 30
0.0
 40
0.3914943946914163
100
AcDbArc
 50
37.1609309514
 51
85.9765779557
  0
SPLINE
  5
B6
330
1F
100
AcDbEntity
  8
0
  6
Continuous
 62
     7
370
    15
100
AcDbSpline
210
0.0
220
0.0
230
1.0
 70
     8
 71
     3
 72
    11
 73
     7
 74
     0
 42
0.00000001
 43
0.00000001
 40
0.0
 40
0.0
 40
0.0
 40
0.0
 40
0.0081164391031956
 40
0.3263678516911009
 40
0.6627685813470351
 40
1.0
 40
1.0
 40
1.0
 40
1.0
 10
266.4792424941612
 20
90.61707308266203
 30
0.0
 10
266.4779551442917
 20
90.61600880096103
 30
0.0
 10
266.4261898804921
 20
90.57321326859362
 30
0.0
 10
266.3151217821392
 20
90.47539304009732
 30
0.0
 10
266.1418589527831
 20
90.30675647622903
 30
0.0
 10
266.0380293081881
 20
90.18961486975653
 30
0.0
 10
265.9860504671649
 20
90.1309718399766
 30
0.0
  0
LINE
  5
B7
330
1F
100
AcDbEntity
  8
0
  6
Continuous
 62
     7
370
    15
100
AcDbLine
 10
277.4246586758
 20
88.6370625231
 30
0.0
 11
277.4146537477
 21
88.2313444442
 31
0.0
  0
LINE
  5
B8
330
1F
100
AcDbEntity
  8
0
  6
Continuous
 62
     7
370
    15
100
AcDbLine
 10
265.4530068568
 20
89.5048488902
 30
0.0
 11
265.4430019288
 21
89.0991308113
 31
0.0
  0
ARC
  5
B9
330
1F
100
AcDbEntity
  8
0
  6
Continuous
 62
     7
370
    15
100
AcDbCircle
 10
264.9699662537
 20
90.1267853202
 30
0.0
 40
0.3893458700122622
100
AcDbArc
 50
184.9784384364
 51
217.0397542572
  0
SPLINE
  5
BA
330
1F
100
AcDbEntity
  8
0
  6
Continuous
 62
     7
370
    15
100
AcDbSpline
210
0.0
220
0.0
230
1.0
 70
     8
 71
     3
 72
    11
 73
     7
 74
     0
 42
0.00000001
 43
0.00000001
 40
0.0
 40
0.0
 40
0.0
 40
0.0
 40
0.0076282660080946
 40
0.320988865231028
 40
0.6632168868585123
 40
1.0
 40
1.0
 40
1.0
 40
1.0
 10
275.9819040071454
 20
90.0671351224188
 30
0.0
 10
275.9829186623908
 20
90.0661721682067
 30
0.0
 10
276.0256142154166
 20
90.02565213659261
 30
0.0
 10
276.1227173668257
 20
89.93257432189772
 30
0.0
 10
276.2874281563803
 20
89.77228399061693
 30
0.0
 10
276.4029690746064
 20
89.65746015173909
 30
0.0
 10
276.4602762793677
 20
89.60050861156547
 30
0.0
  0
LINE
  5
BB
330
1F
100
AcDbEntity
  8
0
  6
Continuous
 62
     7
370
    15
100
AcDbLine
 10
142.7954002578
 20
135.0605462037
 30
0.0
 11
152.4534674263
 21
135.0605462037
 31
0.0
  0
LINE
  5
BC
330
1F
100
AcDbEntity
  8
0
  6
Continuous
 62
     7
370
    15
100
AcDbLine
 10
152.4534674263
 20
85.0236285074
 30
0.0
 11
152.4534674263
 21
135.0605462037
 31
0.0
  0
LINE
  5
BD
330
1F
100
AcDbEntity
  8
0
  6
Continuous
 62
     7
370
    15
100
AcDbLine
 10
152.4534674263
 20
85.0236285074
 30
0.0
 11
150.7954002578
 21
85.0236285074
 31
0.0
  0
SPLINE
  5
BE
330
1F
100
AcDbEntity
  8
0
  6
Continuous
 62
     7
370
    15
100
AcDbSpline
210
0.0
220
0.0
230
1.0
 70
     8
 71
     3
 72
    28
 73
    24
 74
     0
 42
0.00000001
 43
0.00000001
 40
0.0
 40
0.0
 40
0.0
 40
0.0
 40
0.1250000000000001
 40
0.1250000000000001
 40
0.1875000000000003
 40
0.1875000000000003
 40
0.2500000000000005
 40
0.2500000000000005
 40
0.3750000000000008
 40
0.3750000000000008
 40
0.4375000000000008
 40
0.4375000000000008
 40
0.5000000000000006
 40
0.5000000000000006
 40
0.6250000000000003
 40
0.6250000000000003
 40
0.7500000000000001
 40
0.7500000000000001
 40
0.8125
 40
0.8125
 40
0.875
 40
0.875
 40
1.0
 40
1.0
 40
1.0
 40
1.0
 10
150.7954002577774
 20
85.02362850741304
 30
0.0
 10
150.2636925002845
 20
85.02362850741302
 30
0.0
 10
149.7414539349741
 20
85.00784379346285
 30
0.0
 10
148.9715834486991
 20
84.96284837938663
 30
0.0
 10
148.7172238765078
 20
84.94429338431092
 30
0.0
 10
148.2131022958093
 20
84.90044066186442
 30
0.0
 10
147.9633794783813
 20
84.87509605491222
 30
0.0
 10
147.237789526935
 20
84.79169397716211
 30
0.0
 10
146.7794292653534
 20
84.72582841801102
 30
0.0
 10
146.1289313219595
 20
84.61685807751923
 30
0.0
 10
145.9172492711671
 20
84.57861844175257
 30
0.0
 10
145.5131777820291
 20
84.50085970433322
 30
0.0
 10
145.3206712682082
 20
84.46135874215787
 30
0.0
 10
144.7708362971869
 20
84.3424509997919
 30
0.0
 10
144.4409075188781
 20
84.26263331836726
 30
0.0
 10
143.8564362503094
 20
84.1092901565712
 30
0.0
 10
143.610159112296
 20
84.03795640330195
 30
0.0
 10
143.3103163195979
 20
83.94401289622732
 30
0.0
 10
143.2218594625257
 20
83.91481910286741
 30
0.0
 10
143.0684981092206
 20
83.86135252860399
 30
0.0
 10
143.0034098949944
 20
83.8369931943288
 30
0.0
 10
142.8478158790536
 20
83.77340304888406
 30
0.0
 10
142.7954002577774
 20
83.74330011379479
 30
0.0
 10
142.7954002577774
 20
83.72642322079786
 30
0.0
  0
LINE
  5
BF
330
1F
100
AcDbEntity
  8
0
  6
Continuous
 62
     7
370
    15
100
AcDbLine
 10
142.7954002578
 20
83.7264232208
 30
0.0
 11
142.7954002578
 21
83.7105462037
 31
0.0
  0
SPLINE
  5
C0
330
1F
100
AcDbEntity
  8
0
  6
Continuous
 62
     7
370
    15
100
AcDbSpline
210
0.0
220
0.0
230
1.0
 70
     8
 71
     3
 72
    23
 73
    19
 74
     0
 42
0.00000001
 43
0.00000001
 40
0.0
 40
0.0
 40
0.0
 40
0.0
 40
0.0517619521913365
 40
0.1565080754797603
 40
0.2099948740593993
 40
0.2617439796566979
 40
0.3663990748701003
 40
0.4197728662548324
 40
0.5256599837700473
 40
0.5793826576173069
 40
0.6338669009070219
 40
0.6871877621286605
 40
0.7408883520437745
 40
0.7958044585045476
 40
0.8511490227897118
 40
0.903539656566251
 40
0.9563116809912257
 40
1.0
 40
1.0
 40
1.0
 40
1.0
 10
150.7954002577774
 20
145.6777416768245
 30
0.0
 10
150.5777870273391
 20
145.6791482553968
 30
0.0
 10
149.9198089864622
 20
145.6834012036733
 30
0.0
 10
149.0447576175257
 20
145.7229666492304
 30
0.0
 10
148.1999700234793
 20
145.7859365516732
 30
0.0
 10
147.3802950995635
 20
145.8639743398006
 30
0.0
 10
146.6045054697045
 20
145.9608851936171
 30
0.0
 10
145.7065884221987
 20
146.0963558024262
 30
0.0
 10
145.0490211841145
 20
146.2125099034297
 30
0.0
 10
144.4713011039973
 20
146.3262826270399
 30
0.0
 10
144.0799729392483
 20
146.4083668377362
 30
0.0
 10
143.7361676630865
 20
146.4843528252551
 30
0.0
 10
143.4410719424247
 20
146.5524215716307
 30
0.0
 10
143.1957928670499
 20
146.6110082563031
 30
0.0
 10
143.0078396535015
 20
146.6571457172336
 30
0.0
 10
142.87944935221
 20
146.6892551662258
 30
0.0
 10
142.8059004603797
 20
146.7078762608003
 30
0.0
 10
142.8015670988186
 20
146.7089796916684
 30
0.0
 10
142.7996044551504
 20
146.7094794518605
 30
0.0
  0
LINE
  5
C1
330
1F
100
AcDbEntity
  8
0
  6
Continuous
 62
     7
370
    15
100
AcDbLine
 10
152.4534674263
 20
145.6777416768
 30
0.0
 11
150.7954002578
 21
145.6777416768
 31
0.0
  0
LINE
  5
C2
330
1F
100
AcDbEntity
  8
0
  6
Continuous
 62
     7
370
    15
100
AcDbLine
 10
152.4534674263
 20
139.669235866
 30
0.0
 11
152.4534674263
 21
145.6777416768
 31
0.0
  0
LINE
  5
C3
330
1F
100
AcDbEntity
  8
0
  6
Continuous
 62
     7
370
    15
100
AcDbLine
 10
150.0410206035
 20
139.669235866
 30
0.0
 11
152.4534674263
 21
139.669235866
 31
0.0
  0
SPLINE
  5
C4
330
1F
100
AcDbEntity
  8
0
  6
Continuous
 62
     7
370
    15
100
AcDbSpline
210
0.0
220
0.0
230
1.0
 70
     8
 71
     3
 72
    20
 73
    16
 74
     0
 42
0.00000001
 43
0.00000001
 40
0.0
 40
0.0
 40
0.0
 40
0.0
 40
0.2499999999999999
 40
0.2499999999999999
 40
0.3749999999999999
 40
0.3749999999999999
 40
0.5
 40
0.5
 40
0.6250000000000001
 40
0.6250000000000001
 40
0.75
 40
0.75
 40
0.875
 40
0.875
 40
1.0
 40
1.0
 40
1.0
 40
1.0
 10
142.7954002577774
 20
135.0605462036602
 30
0.0
 10
143.0437739920654
 20
135.7144086319576
 30
0.0
 10
143.3633440844107
 20
136.3181944139547
 30
0.0
 10
143.9856503176154
 20
137.1450331501233
 30
0.0
 10
144.2170745780462
 20
137.4074617880763
 30
0.0
 10
144.7382889176959
 20
137.9041244421812
 30
0.0
 10
145.024909400331
 20
138.1347113212028
 30
0.0
 10
145.6443941416386
 20
138.5512655457854
 30
0.0
 10
145.9786945211255
 20
138.7387633477529
 30
0.0
 10
146.7039549937503
 20
139.0701603253893
 30
0.0
 10
147.0858700511408
 20
139.2096643128846
 30
0.0
 10
147.8806582273125
 20
139.4351178203555
 30
0.0
 10
148.2948164215188
 20
139.5217439318992
 30
0.0
 10
149.1603627621002
 20
139.6397247207533
 30
0.0
 10
149.598250377112
 20
139.6692358660276
 30
0.0
 10
150.0410206034666
 20
139.6692358660276
 30
0.0
  0
LINE
  5
C5
330
1F
100
AcDbEntity
  8
0
  6
Continuous
 62
     7
370
    15
100
AcDbLine
 10
153.9354002578
 20
87.7127090446
 30
0.0
 11
153.9354002578
 21
135.0605462037
 31
0.0
  0
SPLINE
  5
C6
330
1F
100
AcDbEntity
  8
0
  6
Continuous
 62
     7
370
    15
100
AcDbSpline
210
0.0
220
0.0
230
1.0
 70
     8
 71
     3
 72
     8
 73
     4
 74
     0
 42
0.00000001
 43
0.00000001
 40
0.0
 40
0.0
 40
0.0
 40
0.0
 40
1.0
 40
1.0
 40
1.0
 40
1.0
 10
153.9354002577774
 20
87.71270904460532
 30
0.0
 10
153.4430611349962
 20
86.81543901039862
 30
0.0
 10
152.9489470869541
 20
85.91915459534638
 30
0.0
 10
152.4534674262883
 20
85.02362850741304
 30
0.0
  0
SPLINE
  5
C7
330
1F
100
AcDbEntity
  8
0
  6
Continuous
 62
     7
370
    15
100
AcDbSpline
210
0.0
220
0.0
230
1.0
 70
    24
 71
     3
 72
     8
 73
     4
 74
     0
 42
0.00000001
 43
0.00000001
 40
0.0
 40
0.0
 40
0.0
 40
0.0
 40
1.0
 40
1.0
 40
1.0
 40
1.0
 10
152.4534674262883
 20
135.0605462036602
 30
0.0
 10
152.9601475344389
 20
135.0605462036602
 30
0.0
 10
153.4554482634125
 20
135.0605462036602
 30
0.0
 10
153.9354002577774
 20
135.0605462036602
 30
0.0
  0
LINE
  5
C8
330
1F
100
AcDbEntity
  8
0
  6
Continuous
 62
     7
370
    15
100
AcDbLine
 10
163.1954002578
 20
85.0236285074
 30
0.0
 11
159.2373330893
 21
85.0236285074
 31
0.0
  0
LINE
  5
C9
330
1F
100
AcDbEntity
  8
0
  6
Continuous
 62
     7
370
    15
100
AcDbLine
 10
159.2373330893
 20
85.0236285074
 30
0.0
 11
159.2373330893
 21
135.0605462037
 31
0.0
  0
LINE
  5
CA
330
1F
100
AcDbEntity
  8
0
  6
Continuous
 62
     7
370
    15
100
AcDbLine
 10
159.2373330893
 20
135.0605462037
 30
0.0
 11
163.1954002578
 21
135.0605462037
 31
0.0
  0
SPLINE
  5
CB
330
1F
100
AcDbEntity
  8
0
  6
Continuous
 62
     7
370
    15
100
AcDbSpline
210
0.0
220
0.0
230
1.0
 70
     8
 71
     3
 72
     8
 73
     4
 74
     0
 42
0.00000001
 43
0.00000001
 40
0.0
 40
0.0
 40
0.0
 40
0.0
 40
1.0
 40
1.0
 40
1.0
 40
1.0
 10
159.2373330892665
 20
85.02362850741304
 30
0.0
 10
158.7418534286007
 20
85.91915459534638
 30
0.0
 10
158.2477393805586
 20
86.81543901039862
 30
0.0
 10
157.7554002577774
 20
87.7127090446053
 30
0.0
  0
LINE
  5
CC
330
1F
100
AcDbEntity
  8
0
  6
Continuous
 62
     7
370
    15
100
AcDbLine
 10
157.7554002578
 20
87.7127090446
 30
0.0
 11
157.7554002578
 21
135.0605462037
 31
0.0
  0
SPLINE
  5
CD
330
1F
100
AcDbEntity
  8
0
  6
Continuous
 62
     7
370
    15
100
AcDbSpline
210
0.0
220
0.0
230
1.0
 70
    24
 71
     3
 72
     8
 73
     4
 74
     0
 42
0.00000001
 43
0.00000001
 40
0.0
 40
0.0
 40
0.0
 40
0.0
 40
1.0
 40
1.0
 40
1.0
 40
1.0
 10
157.7554002577774
 20
135.0605462036602
 30
0.0
 10
158.2353522521423
 20
135.0605462036602
 30
0.0
 10
158.7306529811159
 20
135.0605462036602
 30
0.0
 10
159.2373330892665
 20
135.0605462036602
 30
0.0
  0
LINE
  5
CE
330
1F
100
AcDbEntity
  8
0
  6
Continuous
 62
     7
370
    15
100
AcDbLine
 10
163.7954002578
 20
85.6502688031
 30
0.0
 11
163.7954002578
 21
135.0605462037
 31
0.0
  0
SPLINE
  5
CF
330
1F
100
AcDbEntity
  8
0
  6
Continuous
 62
     7
370
    15
100
AcDbSpline
210
0.0
220
0.0
230
1.0
 70
     8
 71
     3
 72
    10
 73
     6
 74
     0
 42
0.00000001
 43
0.00000001
 40
0.0
 40
0.0
 40
0.0
 40
0.0
 40
0.5
 40
0.5
 40
1.0
 40
1.0
 40
1.0
 40
1.0
 10
163.7954002577774
 20
85.65026880306735
 30
0.0
 10
163.7954002577774
 20
85.49038153487369
 30
0.0
 10
163.7340906065415
 20
85.3292542793591
 30
0.0
 10
163.5149909690065
 20
85.09515528100428
 30
0.0
 10
163.356942762693
 20
85.02362850741306
 30
0.0
 10
163.1954002577774
 20
85.02362850741305
 30
0.0
  0
SPLINE
  5
D0
330
1F
100
AcDbEntity
  8
0
  6
Continuous
 62
     7
370
    15
100
AcDbSpline
210
0.0
220
0.0
230
1.0
 70
    24
 71
     3
 72
    12
 73
     8
 74
     0
 42
0.00000001
 43
0.00000001
 40
0.0
 40
0.0
 40
0.0
 40
0.0
 40
0.2499999999999986
 40
0.2499999999999986
 40
0.4999999999999972
 40
0.4999999999999972
 40
1.0
 40
1.0
 40
1.0
 40
1.0
 10
163.1954002577774
 20
135.0605462036602
 30
0.0
 10
163.2856393254644
 20
135.0605462036602
 30
0.0
 10
163.3765374395709
 20
135.0605462036602
 30
0.0
 10
163.5311344760595
 20
135.0605462036602
 30
0.0
 10
163.5961128921676
 20
135.0605462036602
 30
0.0
 10
163.7479479201038
 20
135.0605462036602
 30
0.0
 10
163.7954002577774
 20
135.0605462036602
 30
0.0
 10
163.7954002577774
 20
135.0605462036602
 30
0.0
  0
LINE
  5
D1
330
1F
100
AcDbEntity
  8
0
  6
Continuous
 62
     7
370
    15
100
AcDbLine
 10
137.8454002578
 20
84.0105462037
 30
0.0
 11
137.8454002578
 21
146.4105461926
 31
0.0
  0
SPLINE
  5
D2
330
1F
100
AcDbEntity
  8
0
  6
Continuous
 62
     7
370
    15
100
AcDbSpline
210
0.0
220
0.0
230
1.0
 70
     8
 71
     3
 72
    10
 73
     6
 74
     0
 42
0.00000001
 43
0.00000001
 40
0.0
 40
0.0
 40
0.0
 40
0.0
 40
0.5
 40
0.5
 40
1.0
 40
1.0
 40
1.0
 40
1.0
 10
154.3296977894683
 20
141.6105462036602
 30
0.0
 10
154.2081575257998
 20
141.685272370872
 30
0.0
 10
154.1068231654509
 20
141.7942173867887
 30
0.0
 10
153.9711842225625
 20
142.0446478675503
 30
0.0
 10
153.9354002577774
 20
142.1870672296493
 30
0.0
 10
153.9354002577774
 20
142.330200054696
 30
0.0
  0
SPLINE
  5
D3
330
1F
100
AcDbEntity
  8
0
  6
Continuous
 62
     7
370
    15
100
AcDbSpline
210
0.0
220
0.0
230
1.0
 70
    24
 71
     3
 72
    12
 73
     8
 74
     0
 42
0.00000001
 43
0.00000001
 40
0.0
 40
0.0
 40
0.0
 40
0.0
 40
0.25
 40
0.25
 40
0.5
 40
0.5
 40
1.0
 40
1.0
 40
1.0
 40
1.0
 10
154.7354002577774
 20
141.6105462036602
 30
0.0
 10
154.6860568959678
 20
141.6105462036602
 30
0.0
 10
154.6373661976661
 20
141.6105462036602
 30
0.0
 10
154.5545151000957
 20
141.6105462036602
 30
0.0
 10
154.5183151324751
 20
141.6105462036602
 30
0.0
 10
154.4225652159257
 20
141.6105462036602
 30
0.0
 10
154.3726832461136
 20
141.6105462036602
 30
0.0
 10
154.3296977894683
 20
141.6105462036602
 30
0.0
  0
SPLINE
  5
D4
330
1F
100
AcDbEntity
  8
0
  6
Continuous
 62
     7
370
    15
100
AcDbSpline
210
0.0
220
0.0
230
1.0
 70
    24
 71
     3
 72
    14
 73
    10
 74
     0
 42
0.00000001
 43
0.00000001
 40
0.0
 40
0.0
 40
0.0
 40
0.0
 40
0.125
 40
0.125
 40
0.25
 40
0.25
 40
0.5
 40
0.5
 40
1.0
 40
1.0
 40
1.0
 40
1.0
 10
154.7354002577774
 20
88.81054620366018
 30
0.0
 10
154.6660535360462
 20
88.81054620366018
 30
0.0
 10
154.6008554826623
 20
88.81054620366017
 30
0.0
 10
154.4964762900353
 20
88.81054620366018
 30
0.0
 10
154.4535739190263
 20
88.81054620366018
 30
0.0
 10
154.3412482614216
 20
88.81054620366017
 30
0.0
 10
154.2860245670678
 20
88.81054620366017
 30
0.0
 10
154.1419671883002
 20
88.81054620366018
 30
0.0
 10
154.0798864914688
 20
88.81054620366017
 30
0.0
 10
154.0330750601097
 20
88.81054620366018
 30
0.0
  0
SPLINE
  5
D5
330
1F
100
AcDbEntity
  8
0
  6
Continuous
 62
     7
370
    15
100
AcDbSpline
210
0.0
220
0.0
230
1.0
 70
     8
 71
     3
 72
     9
 73
     5
 74
     0
 42
0.00000001
 43
0.00000001
 40
0.0
 40
0.0
 40
0.0
 40
0.0
 40
0.5
 40
1.0
 40
1.0
 40
1.0
 40
1.0
 10
153.9354002577774
 20
135.3464128351216
 30
0.0
 10
153.9354002577774
 20
135.2981807829989
 30
0.0
 10
153.9398062324826
 20
135.2023107695593
 30
0.0
 10
153.9528254125764
 20
135.107602139576
 30
0.0
 10
153.9615478809375
 20
135.0605462036602
 30
0.0
  0
SPLINE
  5
D6
330
1F
100
AcDbEntity
  8
0
  6
Continuous
 62
     7
370
    15
100
AcDbSpline
210
0.0
220
0.0
230
1.0
 70
    24
 71
     3
 72
    14
 73
    10
 74
     0
 42
0.00000001
 43
0.00000001
 40
0.0
 40
0.0
 40
0.0
 40
0.0
 40
0.5000000000000021
 40
0.5000000000000021
 40
0.7500000000000028
 40
0.7500000000000028
 40
0.8750000000000014
 40
0.8750000000000014
 40
1.0
 40
1.0
 40
1.0
 40
1.0
 10
157.6577254554451
 20
88.81054620366018
 30
0.0
 10
157.6109407503969
 20
88.81054620366017
 30
0.0
 10
157.5488895536173
 20
88.81054620366018
 30
0.0
 10
157.4054979150667
 20
88.81054620366018
 30
0.0
 10
157.3493542615156
 20
88.81054620366017
 30
0.0
 10
157.2364032393794
 20
88.81054620366017
 30
0.0
 10
157.1934024773412
 20
88.81054620366017
 30
0.0
 10
157.0893397670348
 20
88.81054620366018
 30
0.0
 10
157.0240075286778
 20
88.81054620366018
 30
0.0
 10
156.9554002577774
 20
88.81054620366018
 30
0.0
  0
SPLINE
  5
D7
330
1F
100
AcDbEntity
  8
0
  6
Continuous
 62
     7
370
    15
100
AcDbSpline
210
0.0
220
0.0
230
1.0
 70
    24
 71
     3
 72
    12
 73
     8
 74
     0
 42
0.00000001
 43
0.00000001
 40
0.0
 40
0.0
 40
0.0
 40
0.0
 40
0.5000000000000017
 40
0.5000000000000017
 40
0.7500000000000008
 40
0.7500000000000008
 40
1.0
 40
1.0
 40
1.0
 40
1.0
 10
157.3611027260864
 20
141.6105462036602
 30
0.0
 10
157.3180171764756
 20
141.6105462036602
 30
0.0
 10
157.2688649747286
 20
141.6105462036602
 30
0.0
 10
157.172392380439
 20
141.6105462036602
 30
0.0
 10
157.1362907953048
 20
141.6105462036602
 30
0.0
 10
157.0531850374422
 20
141.6105462036602
 30
0.0
 10
157.0051884404782
 20
141.6105462036602
 30
0.0
 10
156.9554002577773
 20
141.6105462036602
 30
0.0
  0
SPLINE
  5
D8
330
1F
100
AcDbEntity
  8
0
  6
Continuous
 62
     7
370
    15
100
AcDbSpline
210
0.0
220
0.0
230
1.0
 70
     8
 71
     3
 72
    10
 73
     6
 74
     0
 42
0.00000001
 43
0.00000001
 40
0.0
 40
0.0
 40
0.0
 40
0.0
 40
0.5
 40
0.5
 40
1.0
 40
1.0
 40
1.0
 40
1.0
 10
157.7554002577774
 20
142.330200054696
 30
0.0
 10
157.7554002577774
 20
142.186429996878
 30
0.0
 10
157.7193511990585
 20
142.0440106343828
 30
0.0
 10
157.5838423382845
 20
141.7941163410256
 30
0.0
 10
157.4839663451883
 20
141.6860860047774
 30
0.0
 10
157.3611027260864
 20
141.6105462036602
 30
0.0
  0
SPLINE
  5
D9
330
1F
100
AcDbEntity
  8
0
  6
Continuous
 62
     7
370
    15
100
AcDbSpline
210
0.0
220
0.0
230
1.0
 70
     8
 71
     3
 72
    10
 73
     6
 74
     0
 42
0.00000001
 43
0.00000001
 40
0.0
 40
0.0
 40
0.0
 40
0.0
 40
0.5
 40
0.5
 40
1.0
 40
1.0
 40
1.0
 40
1.0
 10
157.7292526346172
 20
135.0605462036602
 30
0.0
 10
157.7379422775289
 20
135.1074250529784
 30
0.0
 10
157.7444813422794
 20
135.1548475183796
 30
0.0
 10
157.7532399766725
 20
135.2507843169664
 30
0.0
 10
157.7554002577774
 20
135.2986996049768
 30
0.0
 10
157.7554002577774
 20
135.3464128351214
 30
0.0
  0
LINE
  5
DA
330
1F
100
AcDbEntity
  8
0
  6
Continuous
 62
     7
370
    15
100
AcDbLine
 10
156.9554002578
 20
141.6105462037
 30
0.0
 11
154.7354002578
 21
141.6105462037
 31
0.0
  0
LINE
  5
DB
330
1F
100
AcDbEntity
  8
0
  6
Continuous
 62
     7
370
    15
100
AcDbLine
 10
156.9554002578
 20
88.8105462037
 30
0.0
 11
154.7354002578
 21
88.8105462037
 31
0.0
  0
LINE
  5
DC
330
1F
100
AcDbEntity
  8
0
  6
Continuous
 62
     7
370
    15
100
AcDbLine
 10
135.8454002578
 20
90.9901153419
 30
0.0
 11
135.8454002578
 21
139.4309770654
 31
0.0
  0
LINE
  5
DD
330
1F
100
AcDbEntity
  8
0
  6
Continuous
 62
     7
370
    15
100
AcDbLine
 10
116.0454002578
 20
91.9820993099
 30
0.0
 11
116.0454002578
 21
93.2653979444
 31
0.0
  0
SPLINE
  5
DE
330
1F
100
AcDbEntity
  8
0
  6
Continuous
 62
     7
370
    15
100
AcDbSpline
210
0.0
220
0.0
230
1.0
 70
     8
 71
     3
 72
    14
 73
    10
 74
     0
 42
0.00000001
 43
0.00000001
 40
0.0
 40
0.0
 40
0.0
 40
0.0
 40
0.25
 40
0.25
 40
0.5
 40
0.5
 40
0.75
 40
0.75
 40
1.0
 40
1.0
 40
1.0
 40
1.0
 10
115.4237960210375
 20
94.34617498637698
 30
0.0
 10
115.4622324058585
 20
94.24355058866546
 30
0.0
 10
115.5310337992504
 20
94.14435416522589
 30
0.0
 10
115.6743198114093
 20
93.95346213589936
 30
0.0
 10
115.7495018665163
 20
93.86120486986646
 30
0.0
 10
115.8816891551664
 20
93.68159754805147
 30
0.0
 10
115.9392063506362
 20
93.59428799360711
 30
0.0
 10
116.0212511489285
 20
93.42435416009135
 30
0.0
 10
116.0454002577773
 20
93.34245181822021
 30
0.0
 10
116.0454002577773
 20
93.26539794438429
 30
0.0
  0
SPLINE
  5
DF
330
1F
100
AcDbEntity
  8
0
  6
Continuous
 62
     7
370
    15
100
AcDbSpline
210
0.0
220
0.0
230
1.0
 70
     8
 71
     3
 72
    18
 73
    14
 74
     0
 42
0.00000001
 43
0.00000001
 40
0.0
 40
0.0
 40
0.0
 40
0.0
 40
0.0625000000000006
 40
0.0625000000000006
 40
0.1250000000000012
 40
0.1250000000000012
 40
0.2500000000000007
 40
0.2500000000000007
 40
0.5000000000000006
 40
0.5000000000000006
 40
0.7500000000000003
 40
0.7500000000000003
 40
1.0
 40
1.0
 40
1.0
 40
1.0
 10
114.6454002577774
 20
95.06445743786351
 30
0.0
 10
114.6819724681278
 20
95.06823484139096
 30
0.0
 10
114.7206229415632
 20
95.06767781350783
 30
0.0
 10
114.7947144352771
 20
95.05761860834596
 30
0.0
 10
114.8300647290311
 20
95.0482647269214
 30
0.0
 10
114.9246590264205
 20
95.0138803004876
 30
0.0
 10
114.9747971995595
 20
94.98316856582478
 30
0.0
 10
115.1039904711406
 20
94.88723925578677
 30
0.0
 10
115.1622706158818
 20
94.81872376166952
 30
0.0
 10
115.2624657123053
 20
94.6821518117369
 30
0.0
 10
115.3024809637519
 20
94.613386909234
 30
0.0
 10
115.3708803845697
 20
94.47835148012635
 30
0.0
 10
115.3992421084316
 20
94.41173345407319
 30
0.0
 10
115.4237960210376
 20
94.34617498637698
 30
0.0
  0
SPLINE
  5
E0
330
1F
100
AcDbEntity
  8
0
  6
Continuous
 62
     7
370
    15
100
AcDbSpline
210
0.0
220
0.0
230
1.0
 70
     8
 71
     3
 72
    10
 73
     6
 74
     0
 42
0.00000001
 43
0.00000001
 40
0.0
 40
0.0
 40
0.0
 40
0.0
 40
0.5
 40
0.5
 40
1.0
 40
1.0
 40
1.0
 40
1.0
 10
110.7317983966555
 20
94.56826378149184
 30
0.0
 10
111.3594260523629
 20
94.67153734022746
 30
0.0
 10
112.0106267973943
 20
94.76036245197898
 30
0.0
 10
113.3193315014065
 20
94.92247015884934
 30
0.0
 10
113.9803759386977
 20
94.99576962313594
 30
0.0
 10
114.6454002577773
 20
95.06445743786362
 30
0.0
  0
SPLINE
  5
E1
330
1F
100
AcDbEntity
  8
0
  6
Continuous
 62
     7
370
    15
100
AcDbSpline
210
0.0
220
0.0
230
1.0
 70
     8
 71
     3
 72
    14
 73
    10
 74
     0
 42
0.00000001
 43
0.00000001
 40
0.0
 40
0.0
 40
0.0
 40
0.0
 40
0.4999999999999998
 40
0.4999999999999998
 40
0.7499999999999997
 40
0.7499999999999997
 40
0.8749999999999998
 40
0.8749999999999998
 40
1.0
 40
1.0
 40
1.0
 40
1.0
 10
107.0954002577773
 20
94.40391464513263
 30
0.0
 10
107.7114771615327
 20
94.40964076536177
 30
0.0
 10
108.3256091576486
 20
94.4195311307638
 30
0.0
 10
109.2395057881621
 20
94.45016609843357
 30
0.0
 10
109.5429447157097
 20
94.46295955607155
 30
0.0
 10
109.9940813313472
 20
94.49088538403093
 30
0.0
 10
110.1437875808898
 20
94.50165500419071
 30
0.0
 10
110.4406287171378
 20
94.52878771979023
 30
0.0
 10
110.5880142696411
 20
94.54460469261745
 30
0.0
 10
110.7317983966554
 20
94.56826378149192
 30
0.0
  0
SPLINE
  5
E2
330
1F
100
AcDbEntity
  8
0
  6
Continuous
 62
     7
370
    15
100
AcDbSpline
210
0.0
220
0.0
230
1.0
 70
     8
 71
     3
 72
     8
 73
     4
 74
     0
 42
0.00000001
 43
0.00000001
 40
0.0000003682006999
 40
0.0000003682006999
 40
0.0000003682006999
 40
0.0000003682006999
 40
0.0000187826246626
 40
0.0000187826246626
 40
0.0000187826246626
 40
0.0000187826246626
 10
107.0853553273591
 20
94.4106590495912
 30
0.0
 10
107.0886897227866
 20
94.40840629173736
 30
0.0
 10
107.0920381368957
 20
94.40615816360685
 30
0.0
 10
107.0954002577773
 20
94.40391464513263
 30
0.0
  0
SPLINE
  5
E3
330
1F
100
AcDbEntity
  8
0
  6
Continuous
 62
     7
370
    15
100
AcDbSpline
210
0.0
220
0.0
230
1.0
 70
     8
 71
     3
 72
     8
 73
     4
 74
     0
 42
0.00000001
 43
0.00000001
 40
0.0000003292049707
 40
0.0000003292049707
 40
0.0000003292049707
 40
0.0000003292049707
 40
0.0000169050949325
 40
0.0000169050949325
 40
0.0000169050949325
 40
0.0000169050949325
 10
107.0954002577773
 20
136.0804839690553
 30
0.0
 10
107.0920436756405
 20
136.0785719749584
 30
0.0
 10
107.088695311515
 20
136.0766566847033
 30
0.0
 10
107.0853553273459
 20
136.074738076088
 30
0.0
  0
SPLINE
  5
E4
330
1F
100
AcDbEntity
  8
0
  6
Continuous
 62
     7
370
    15
100
AcDbSpline
210
0.0
220
0.0
230
1.0
 70
     8
 71
     3
 72
    10
 73
     6
 74
     0
 42
0.00000001
 43
0.00000001
 40
0.0
 40
0.0
 40
0.0
 40
0.0
 40
0.5
 40
0.5
 40
1.0
 40
1.0
 40
1.0
 40
1.0
 10
110.6454002577774
 20
136.0336335954879
 30
0.0
 10
110.0578147106868
 20
136.0546991157244
 30
0.0
 10
109.4670683172264
 20
136.0654576015966
 30
0.0
 10
108.2830491519275
 20
136.0788223821322
 30
0.0
 10
107.6896351637221
 20
136.0809650247968
 30
0.0
 10
107.0954002577773
 20
136.0804839690553
 30
0.0
  0
SPLINE
  5
E5
330
1F
100
AcDbEntity
  8
0
  6
Continuous
 62
     7
370
    15
100
AcDbSpline
210
0.0
220
0.0
230
1.0
 70
     8
 71
     3
 72
    18
 73
    14
 74
     0
 42
0.00000001
 43
0.00000001
 40
0.0
 40
0.0
 40
0.0
 40
0.0
 40
0.2499999999999997
 40
0.2499999999999997
 40
0.4999999999999993
 40
0.4999999999999993
 40
0.749999999999999
 40
0.749999999999999
 40
0.8749999999999988
 40
0.8749999999999988
 40
0.9374999999999994
 40
0.9374999999999994
 40
1.0
 40
1.0
 40
1.0
 40
1.0
 10
112.0454002577773
 20
137.0546538760232
 30
0.0
 10
112.0454002577773
 20
136.971446967166
 30
0.0
 10
112.0095511578391
 20
136.8827103118524
 30
0.0
 10
111.8846794218052
 20
136.7005851212922
 30
0.0
 10
111.7942790041573
 20
136.6054550726656
 30
0.0
 10
111.5720363494151
 20
136.4162735635412
 30
0.0
 10
111.4422715629694
 20
136.3213283954465
 30
0.0
 10
111.2016341056578
 20
136.1830496878666
 30
0.0
 10
111.1138668075204
 20
136.1373392545642
 30
0.0
 10
110.9593427203136
 20
136.0795159493427
 30
0.0
 10
110.9027318342588
 20
136.0618011853049
 30
0.0
 10
110.7786878033523
 20
136.037261882072
 30
0.0
 10
110.710973128334
 20
136.0312827435337
 30
0.0
 10
110.6454002577774
 20
136.0336335954879
 30
0.0
  0
LINE
  5
E6
330
1F
100
AcDbEntity
  8
0
  6
Continuous
 62
     7
370
    15
100
AcDbLine
 10
112.0454002578
 20
137.054653876
 30
0.0
 11
112.0454002578
 21
138.2385922958
 31
0.0
  0
SPLINE
  5
E7
330
1F
100
AcDbEntity
  8
0
  6
Continuous
 62
     7
370
    15
100
AcDbSpline
210
0.0
220
0.0
230
1.0
 70
     8
 71
     3
 72
    18
 73
    14
 74
     0
 42
0.00000001
 43
0.00000001
 40
0.0
 40
0.0
 40
0.0
 40
0.0
 40
0.0010671296451828
 40
0.1270947795731588
 40
0.2524053457512668
 40
0.3766468878986944
 40
0.4391415999050648
 40
0.5008278021400229
 40
0.5624255708817563
 40
0.6253162439161298
 40
0.7499985144706806
 40
0.8752758950341298
 40
1.0
 40
1.0
 40
1.0
 40
1.0
 10
124.61570109785
 20
91.55320718074383
 30
0.0
 10
124.6147892652116
 20
91.55309240220718
 30
0.0
 10
124.5061903065745
 20
91.53942231734099
 30
0.0
 10
124.8938313742245
 20
91.590341817957
 30
0.0
 10
125.7597960560596
 20
91.68992499100332
 30
0.0
 10
126.9601999808292
 20
91.75904887414698
 30
0.0
 10
128.0177758953179
 20
91.76300110328594
 30
0.0
 10
128.844909982228
 20
91.73551216483051
 30
0.0
 10
129.6701818498636
 20
91.67697198842336
 30
0.0
 10
130.7245470698611
 20
91.56345082868656
 30
0.0
 10
131.8863833513341
 20
91.38030000443898
 30
0.0
 10
132.8386181327174
 20
91.17569679480388
 30
0.0
 10
132.9643231935253
 20
91.14641144402782
 30
0.0
 10
133.0270366256705
 20
91.13180117418715
 30
0.0
  0
SPLINE
  5
E8
330
1F
100
AcDbEntity
  8
0
  6
Continuous
 62
     7
370
    15
100
AcDbSpline
210
0.0
220
0.0
230
1.0
 70
     8
 71
     3
 72
    18
 73
    14
 74
     0
 42
0.00000001
 43
0.00000001
 40
0.0
 40
0.0
 40
0.0
 40
0.0
 40
0.1248907792210123
 40
0.2505384020341698
 40
0.3748721840485285
 40
0.4374907653352096
 40
0.4990776265894369
 40
0.5607931536355758
 40
0.6233901338664934
 40
0.7478191038417353
 40
0.8731940995934958
 40
0.9991614644710082
 40
0.9999999999999999
 40
0.9999999999999999
 40
0.9999999999999999
 40
0.9999999999999999
 10
133.0268178601466
 20
139.2892260525789
 30
0.0
 10
132.9630771074349
 20
139.2745647599808
 30
0.0
 10
132.8352093302584
 20
139.2451533267093
 30
0.0
 10
131.8832101091981
 20
139.0402002226468
 30
0.0
 10
130.7226664039937
 20
138.8569364468358
 30
0.0
 10
129.6704019519058
 20
138.7439088545867
 30
0.0
 10
128.846174836837
 20
138.6856452070456
 30
0.0
 10
128.0185710673179
 20
138.6581988190416
 30
0.0
 10
126.9597538748326
 20
138.6621836249706
 30
0.0
 10
125.7575351767986
 20
138.731273101352
 30
0.0
 10
124.8923512371113
 20
138.8308993179089
 30
0.0
 10
124.5062108155809
 20
138.8817153915088
 30
0.0
 10
124.6142823563614
 20
138.8680432114461
 30
0.0
 10
124.6149970062817
 20
138.8679528007577
 30
0.0
  0
SPLINE
  5
E9
330
1F
100
AcDbEntity
  8
0
  6
Continuous
 62
     7
370
    15
100
AcDbSpline
210
0.0
220
0.0
230
1.0
 70
     8
 71
     3
 72
    22
 73
    18
 74
     0
 42
0.00000001
 43
0.00000001
 40
0.0
 40
0.0
 40
0.0
 40
0.0
 40
0.1250000000000042
 40
0.1250000000000042
 40
0.2500000000000083
 40
0.2500000000000083
 40
0.3125000000000086
 40
0.3125000000000086
 40
0.3750000000000089
 40
0.3750000000000089
 40
0.500000000000008
 40
0.500000000000008
 40
0.625000000000007
 40
0.625000000000007
 40
0.7500000000000061
 40
0.7500000000000061
 40
1.0
 40
1.0
 40
1.0
 40
1.0
 10
107.0853553273464
 20
136.0747380760889
 30
0.0
 10
107.02473560647
 20
136.0399158994416
 30
0.0
 10
106.9625462665035
 20
136.0014120957409
 30
0.0
 10
106.828816800274
 20
135.9154776079423
 30
0.0
 10
106.7565622585618
 20
135.8671710067401
 30
0.0
 10
106.634664317726
 20
135.7908192885702
 30
0.0
 10
106.590857764574
 20
135.7644048279632
 30
0.0
 10
106.5044625953991
 20
135.7158959034326
 30
0.0
 10
106.4621226191074
 20
135.6939617807062
 30
0.0
 10
106.3481518727384
 20
135.6375919907616
 30
0.0
 10
106.2897331467482
 20
135.6112351662279
 30
0.0
 10
106.1898255755607
 20
135.5590953417238
 30
0.0
 10
106.1484115847654
 20
135.5339347520112
 30
0.0
 10
106.0763866168881
 20
135.4788279086842
 30
0.0
 10
106.0460380755751
 20
135.4489715051893
 30
0.0
 10
105.972546345543
 20
135.3515648031966
 30
0.0
 10
105.9454002577774
 20
135.2752331193863
 30
0.0
 10
105.9454002577774
 20
135.1866067083161
 30
0.0
  0
SPLINE
  5
EA
330
1F
100
AcDbEntity
  8
0
  6
Continuous
 62
     7
370
    15
100
AcDbSpline
210
0.0
220
0.0
230
1.0
 70
     8
 71
     3
 72
    22
 73
    18
 74
     0
 42
0.00000001
 43
0.00000001
 40
0.0
 40
0.0
 40
0.0
 40
0.0
 40
0.2499999999999963
 40
0.2499999999999963
 40
0.4999999999999927
 40
0.4999999999999927
 40
0.5624999999999934
 40
0.5624999999999934
 40
0.6249999999999941
 40
0.6249999999999941
 40
0.6874999999999949
 40
0.6874999999999949
 40
0.7499999999999957
 40
0.7499999999999957
 40
0.8749999999999978
 40
0.8749999999999978
 40
1.0
 40
1.0
 40
1.0
 40
1.0
 10
105.9454002577772
 20
95.25142844166088
 30
0.0
 10
105.9454002577772
 20
95.1614550566431
 30
0.0
 10
105.9768984761229
 20
95.086407014128
 30
0.0
 10
106.0834259052994
 20
94.97337980041651
 30
0.0
 10
106.1565861244363
 20
94.93656621762375
 30
0.0
 10
106.2775146007607
 20
94.90092254136995
 30
0.0
 10
106.3033650885646
 20
94.89417232758379
 30
0.0
 10
106.3609596463389
 20
94.87910331886937
 30
0.0
 10
106.3929053868625
 20
94.8709702954427
 30
0.0
 10
106.4687624274347
 20
94.84568472085832
 30
0.0
 10
106.5159734780808
 20
94.82630950274121
 30
0.0
 10
106.6121994716798
 20
94.77055102409143
 30
0.0
 10
106.6566204016038
 20
94.7380658809805
 30
0.0
 10
106.7728414114896
 20
94.64915549935891
 30
0.0
 10
106.8379936509015
 20
94.59465741603074
 30
0.0
 10
106.9645480912673
 20
94.49602993697441
 30
0.0
 10
107.025222168237
 20
94.45128573872624
 30
0.0
 10
107.0853553273594
 20
94.41065904958991
 30
0.0
  0
LINE
  5
EB
330
1F
100
AcDbEntity
  8
0
  6
Continuous
 62
     7
370
    15
100
AcDbLine
 10
105.9454002578
 20
95.2514284417
 30
0.0
 11
105.9454002578
 21
135.1866067083
 31
0.0
  0
ELLIPSE
  5
EC
330
1F
100
AcDbEntity
  8
0
  6
Continuous
 62
     7
370
    15
100
AcDbEllipse
 10
246.7008039923
 20
115.2105462037
 30
0.0
 11
0.8021781934011472
 21
19.99887070822257
 31
0.0
210
0.0
220
0.0
230
0.9999999999999998
 40
0.2649452246
 41
0.7270977325829072
 42
2.715001329517251
  0
SPLINE
  5
ED
330
1F
100
AcDbEntity
  8
0
  6
Continuous
 62
     7
370
    15
100
AcDbSpline
210
0.0
220
0.0
230
1.0
 70
     8
 71
     3
 72
    14
 73
    10
 74
     0
 42
0.00000001
 43
0.00000001
 40
0.0
 40
0.0
 40
0.0
 40
0.0
 40
0.25
 40
0.25
 40
0.5
 40
0.5
 40
0.75
 40
0.75
 40
1.0
 40
1.0
 40
1.0
 40
1.0
 10
248.9464960273715
 20
95.57439067506499
 30
0.0
 10
248.3087308934327
 20
95.58784750983259
 30
0.0
 10
247.7006618311503
 20
95.62050037668546
 30
0.0
 10
246.5434238005786
 20
95.73959342379061
 30
0.0
 10
246.0254648033122
 20
95.82327342575664
 30
0.0
 10
245.1094894860065
 20
96.063683739182
 30
0.0
 10
244.7335574740889
 20
96.21522143581431
 30
0.0
 10
244.1326703043043
 20
96.6002426885787
 30
0.0
 10
243.9184632358871
 20
96.8272819842384
 30
0.0
 10
243.778111849243
 20
97.09188531490865
 30
0.0
  0
ELLIPSE
  5
EE
330
1F
100
AcDbEntity
  8
0
  6
Continuous
 62
     7
370
    15
100
AcDbEllipse
 10
310.7272459162
 20
115.2105462037
 30
0.0
 11
190.2870637919092
 21
2.813935298683717
 31
0.0
210
0.0
220
0.0
230
1.0
 40
0.1040588589
 41
4.380186392728716
 42
4.396249712731057
  0
LINE
  5
EF
330
1F
100
AcDbEntity
  8
0
  6
Continuous
 62
     7
370
    15
100
AcDbLine
 10
251.8454002578
 20
95.5159253228
 30
0.0
 11
251.8454002578
 21
95.2105462037
 31
0.0
  0
LINE
  5
F0
330
1F
100
AcDbEntity
  8
0
  6
Continuous
 62
     7
370
    15
100
AcDbLine
 10
251.8454002578
 20
135.2105462037
 30
0.0
 11
251.8454002578
 21
133.182557216
 31
0.0
  0
ELLIPSE
  5
F1
330
1F
100
AcDbEntity
  8
0
  6
Continuous
 62
     7
370
    15
100
AcDbEllipse
 10
310.7272459162
 20
115.2105462037
 30
0.0
 11
190.2870637919092
 21
2.813935298683717
 31
0.0
210
0.0
220
0.0
230
1.0
 40
0.1040588589
 41
1.883857984659827
 42
1.899921304662171
  0
SPLINE
  5
F2
330
1F
100
AcDbEntity
  8
0
  6
Continuous
 62
     7
370
    15
100
AcDbSpline
210
0.0
220
0.0
230
1.0
 70
     8
 71
     3
 72
    20
 73
    16
 74
     0
 42
0.00000001
 43
0.00000001
 40
0.0
 40
0.0
 40
0.0
 40
0.0
 40
0.2500000000000019
 40
0.2500000000000019
 40
0.3750000000000016
 40
0.3750000000000016
 40
0.5000000000000013
 40
0.5000000000000013
 40
0.6250000000000011
 40
0.6250000000000011
 40
0.7500000000000007
 40
0.7500000000000007
 40
0.8750000000000003
 40
0.8750000000000003
 40
1.0
 40
1.0
 40
1.0
 40
1.0
 10
243.778111849243
 20
130.2931081587943
 30
0.0
 10
243.9185215360588
 20
130.7036792893301
 30
0.0
 10
244.1313780043889
 20
131.0724950476429
 30
0.0
 10
244.5793191919974
 20
131.5680534744125
 30
0.0
 10
244.7507412533523
 20
131.7232322330594
 30
0.0
 10
245.1276449592772
 20
132.0047570370861
 30
0.0
 10
245.3343574674063
 20
132.1326674391637
 30
0.0
 10
245.7860194493966
 20
132.364904243895
 30
0.0
 10
246.0337535658316
 20
132.4700934281939
 30
0.0
 10
246.5547250932985
 20
132.6522802964923
 30
0.0
 10
246.8276677642066
 20
132.7296975930906
 30
0.0
 10
247.3983655244178
 20
132.8601808536773
 30
0.0
 10
247.6983185253705
 20
132.9135144145797
 30
0.0
 10
248.3138117625755
 20
132.9950491713272
 30
0.0
 10
248.6272679002303
 20
133.0232085193399
 30
0.0
 10
248.9464960273715
 20
133.0392833633175
 30
0.0
  0
ELLIPSE
  5
F3
330
1F
100
AcDbEntity
  8
0
  6
Continuous
 62
     7
370
    15
100
AcDbEllipse
 10
243.3443760554
 20
106.4933035643
 30
0.0
 11
-0.08929898894007238
 21
2.398087983540961
 31
0.0
210
0.0
220
0.0
230
1.0
 40
0.2571121377
 41
5.369274369243258
 42
10.0510288537077
  0
LINE
  5
F4
330
1F
100
AcDbEntity
  8
0
  6
Continuous
 62
     7
370
    15
100
AcDbLine
 10
157.7554002578
 20
135.3464128351
 30
0.0
 11
157.7554002578
 21
136.2606898712
 31
0.0
  0
SPLINE
  5
F5
330
1F
100
AcDbEntity
  8
0
  6
Continuous
 62
     7
370
    15
100
AcDbSpline
210
0.0
220
0.0
230
1.0
 70
     8
 71
     3
 72
     8
 73
     4
 74
     0
 42
0.00000001
 43
0.00000001
 40
0.0
 40
0.0
 40
0.0
 40
0.0
 40
1.0
 40
1.0
 40
1.0
 40
1.0
 10
157.7554002577774
 20
136.2606898712435
 30
0.0
 10
158.2346784083672
 20
137.4017011010961
 30
0.0
 10
158.7302462475072
 20
138.538085511864
 30
0.0
 10
159.2373330892664
 20
139.6692358660276
 30
0.0
  0
LINE
  5
F6
330
1F
100
AcDbEntity
  8
0
  6
Continuous
 62
     7
370
    15
100
AcDbLine
 10
159.2373330893
 20
139.669235866
 30
0.0
 11
163.1954002578
 21
139.669235866
 31
0.0
  0
SPLINE
  5
F7
330
1F
100
AcDbEntity
  8
0
  6
Continuous
 62
     7
370
    15
100
AcDbSpline
210
0.0
220
0.0
230
1.0
 70
     8
 71
     3
 72
    12
 73
     8
 74
     0
 42
0.00000001
 43
0.00000001
 40
0.0
 40
0.0
 40
0.0
 40
0.0
 40
0.250000000000002
 40
0.250000000000002
 40
0.500000000000004
 40
0.500000000000004
 40
1.0
 40
1.0
 40
1.0
 40
1.0
 10
163.1954002577774
 20
139.6692358660276
 30
0.0
 10
163.2865999796031
 20
139.6692358660276
 30
0.0
 10
163.3771949887391
 20
139.6410161674397
 30
0.0
 10
163.5306077151857
 20
139.5465731601917
 30
0.0
 10
163.5958165825094
 20
139.4802861834863
 30
0.0
 10
163.7486011118493
 20
139.254661360198
 30
0.0
 10
163.7954002577774
 20
139.0722350971654
 30
0.0
 10
163.7954002577774
 20
138.8914984649186
 30
0.0
  0
LINE
  5
F8
330
1F
100
AcDbEntity
  8
0
  6
Continuous
 62
     7
370
    15
100
AcDbLine
 10
163.7954002578
 20
138.8914984649
 30
0.0
 11
163.7954002578
 21
135.0605462037
 31
0.0
  0
SPLINE
  5
F9
330
1F
100
AcDbEntity
  8
0
  6
Continuous
 62
     7
370
    15
100
AcDbSpline
210
0.0
220
0.0
230
1.0
 70
     8
 71
     3
 72
     8
 73
     4
 74
     0
 42
0.00000001
 43
0.00000001
 40
0.0
 40
0.0
 40
0.0
 40
0.0
 40
1.0
 40
1.0
 40
1.0
 40
1.0
 10
152.4534674262883
 20
139.6692358660276
 30
0.0
 10
152.9605542680476
 20
138.538085511864
 30
0.0
 10
153.4561221071875
 20
137.4017011010961
 30
0.0
 10
153.9354002577774
 20
136.2606898712435
 30
0.0
  0
LINE
  5
FA
330
1F
100
AcDbEntity
  8
0
  6
Continuous
 62
     7
370
    15
100
AcDbLine
 10
153.9354002578
 20
136.2606898712
 30
0.0
 11
153.9354002578
 21
135.3464128351
 31
0.0
  0
SPLINE
  5
FB
330
1F
100
AcDbEntity
  8
0
  6
Continuous
 62
     7
370
    15
100
AcDbSpline
210
0.0
220
0.0
230
1.0
 70
     8
 71
     3
 72
    10
 73
     6
 74
     0
 42
0.00000001
 43
0.00000001
 40
0.0
 40
0.0
 40
0.0
 40
0.0
 40
0.5
 40
0.5
 40
1.0
 40
1.0
 40
1.0
 40
1.0
 10
163.7954002577774
 20
145.0569865274241
 30
0.0
 10
163.7954002577774
 20
145.2173917937749
 30
0.0
 10
163.7331624266705
 20
145.3764536067635
 30
0.0
 10
163.514027502928
 20
145.6073660723938
 30
0.0
 10
163.3564388079361
 20
145.6777416768244
 30
0.0
 10
163.1954002577774
 20
145.6777416768244
 30
0.0
  0
LINE
  5
FC
330
1F
100
AcDbEntity
  8
0
  6
Continuous
 62
     7
370
    15
100
AcDbLine
 10
163.7954002578
 20
138.8914984649
 30
0.0
 11
163.7954002578
 21
145.0569865274
 31
0.0
  0
SPLINE
  5
FD
330
1F
100
AcDbEntity
  8
0
  6
Continuous
 62
     7
370
    15
100
AcDbSpline
210
0.0
220
0.0
230
1.0
 70
     8
 71
     3
 72
     8
 73
     4
 74
     0
 42
0.00000001
 43
0.00000001
 40
0.0
 40
0.0
 40
0.0
 40
0.0
 40
1.0
 40
1.0
 40
1.0
 40
1.0
 10
153.9354002577774
 20
143.0157803948318
 30
0.0
 10
153.4426901609316
 20
143.9037993929582
 30
0.0
 10
152.9486074556526
 20
144.7910620286442
 30
0.0
 10
152.4534674262883
 20
145.6777416768245
 30
0.0
  0
LINE
  5
FE
330
1F
100
AcDbEntity
  8
0
  6
Continuous
 62
     7
370
    15
100
AcDbLine
 10
153.9354002578
 20
136.2606898712
 30
0.0
 11
153.9354002578
 21
143.0157803948
 31
0.0
  0
SPLINE
  5
FF
330
1F
100
AcDbEntity
  8
0
  6
Continuous
 62
     7
370
    15
100
AcDbSpline
210
0.0
220
0.0
230
1.0
 70
     8
 71
     3
 72
     8
 73
     4
 74
     0
 42
0.00000001
 43
0.00000001
 40
0.0
 40
0.0
 40
0.0
 40
0.0
 40
1.0
 40
1.0
 40
1.0
 40
1.0
 10
159.2373330892664
 20
145.6777416768244
 30
0.0
 10
158.7421930599021
 20
144.7910620286442
 30
0.0
 10
158.2481103546232
 20
143.9037993929582
 30
0.0
 10
157.7554002577774
 20
143.0157803948318
 30
0.0
  0
LINE
  5
100
330
1F
100
AcDbEntity
  8
0
  6
Continuous
 62
     7
370
    15
100
AcDbLine
 10
159.2373330893
 20
139.669235866
 30
0.0
 11
159.2373330893
 21
145.6777416768
 31
0.0
  0
LINE
  5
101
330
1F
100
AcDbEntity
  8
0
  6
Continuous
 62
     7
370
    15
100
AcDbLine
 10
157.7554002578
 20
136.2606898712
 30
0.0
 11
157.7554002578
 21
143.0157803948
 31
0.0
  0
LINE
  5
102
330
1F
100
AcDbEntity
  8
0
  6
Continuous
 62
     7
370
    15
100
AcDbLine
 10
163.1954002578
 20
145.6777416768
 30
0.0
 11
159.2373330893
 21
145.6777416768
 31
0.0
  0
SPLINE
  5
103
330
1F
100
AcDbEntity
  8
0
  6
Continuous
 62
     7
370
    15
100
AcDbSpline
210
0.0
220
0.0
230
1.0
 70
     8
 71
     3
 72
    18
 73
    14
 74
     0
 42
0.00000001
 43
0.00000001
 40
0.0
 40
0.0
 40
0.0
 40
0.0
 40
0.2500000000000004
 40
0.2500000000000004
 40
0.5000000000000009
 40
0.5000000000000009
 40
0.6250000000000007
 40
0.6250000000000007
 40
0.7500000000000004
 40
0.7500000000000004
 40
0.8750000000000002
 40
0.8750000000000002
 40
1.0
 40
1.0
 40
1.0
 40
1.0
 10
243.778111849243
 20
107.9758859201899
 30
0.0
 10
243.8310134406911
 20
107.7529124967329
 30
0.0
 10
243.884290663009
 20
107.5036145873856
 30
0.0
 10
243.9729415978743
 20
106.9507266218176
 30
0.0
 10
244.0072484035819
 20
106.6537959603444
 30
0.0
 10
244.0228600653867
 20
106.1770251113009
 30
0.0
 10
244.0218023069061
 20
106.0163118032898
 30
0.0
 10
244.0048488459223
 20
105.6938062421705
 30
0.0
 10
243.9885145429267
 20
105.5303338145256
 30
0.0
 10
243.9431614349075
 20
105.2218801704973
 30
0.0
 10
243.9136263210134
 20
105.0723962750412
 30
0.0
 10
243.8480769204367
 20
104.7976670235912
 30
0.0
 10
243.8128378981908
 20
104.6743369875939
 30
0.0
 10
243.778111849243
 20
104.5637563482229
 30
0.0
  0
LINE
  5
104
330
1F
100
AcDbEntity
  8
0
  6
Continuous
 62
     7
370
    15
100
AcDbLine
 10
107.0954002578
 20
94.3980462037
 30
0.0
 11
107.0954002578
 21
94.4039146451
 31
0.0
  0
SPLINE
  5
105
330
1F
100
AcDbEntity
  8
0
  6
Continuous
 62
     7
370
    15
100
AcDbSpline
210
0.0
220
0.0
230
1.0
 70
     8
 71
     3
 72
     8
 73
     4
 74
     0
 42
0.00000001
 43
0.00000001
 40
0.0
 40
0.0
 40
0.0
 40
0.0
 40
1.0
 40
1.0
 40
1.0
 40
1.0
 10
251.8454002577775
 20
95.5159253228364
 30
0.0
 10
253.1268466179021
 20
94.15679764226428
 30
0.0
 10
254.4200341536009
 20
92.80891016340428
 30
0.0
 10
255.7199184080804
 20
91.46743366693948
 30
0.0
  0
SPLINE
  5
106
330
1F
100
AcDbEntity
  8
0
  6
Continuous
 62
     7
370
    15
100
AcDbSpline
210
0.0
220
0.0
230
1.0
 70
     8
 71
     3
 72
     8
 73
     4
 74
     0
 42
0.00000001
 43
0.00000001
 40
0.0
 40
0.0
 40
0.0
 40
0.0
 40
1.0
 40
1.0
 40
1.0
 40
1.0
 10
252.3454002577774
 20
133.7262923045915
 30
0.0
 10
252.1785399854621
 20
133.5452269559217
 30
0.0
 10
252.0118682725032
 20
133.3639866097411
 30
0.0
 10
251.8454002577775
 20
133.1825572160137
 30
0.0
  0
ELLIPSE
  5
107
330
1F
100
AcDbEntity
  8
0
  6
Continuous
 62
     7
370
    15
100
AcDbEllipse
 10
310.7272459162
 20
115.2105462037
 30
0.0
 11
195.0442403867068
 21
2.884283681150805
 31
0.0
210
0.0
220
0.0
230
1.0
 40
0.1040588589
 41
1.853986825035542
 42
1.873243518195788
  0
LINE
  5
108
330
1F
100
AcDbEntity
  8
0
  6
Continuous
 62
     7
370
    15
100
AcDbLine
 10
275.181674252
 20
106.8109153916
 30
0.0
 11
255.9397096274
 21
133.8922828257
 31
0.0
  0
LINE
  5
109
330
1F
100
AcDbEntity
  8
0
  6
Continuous
 62
     7
370
    15
100
AcDbLine
 10
275.6929077598
 20
100.9999616589
 30
0.0
 11
275.181674252
 21
106.8109153916
 31
0.0
  0
LINE
  5
10A
330
1F
100
AcDbEntity
  8
0
  6
Continuous
 62
     7
370
    15
100
AcDbLine
 10
263.4839942016
 20
101.8849463631
 30
0.0
 11
275.6929077598
 21
100.9999616589
 31
0.0
  0
ARC
  5
10B
330
1F
100
AcDbEntity
  8
0
  6
Continuous
 62
     7
370
    15
100
AcDbCircle
 10
263.277291952
 20
99.5639562424
 30
0.0
 40
2.330176165148635
100
AcDbArc
 50
84.910790854
 51
265.0592971015
  0
LINE
  5
10C
330
1F
100
AcDbEntity
  8
0
  6
Continuous
 62
     7
370
    15
100
AcDbLine
 10
264.3732552809
 20
97.1484482603
 30
0.0
 11
263.0766062176
 21
97.2424381622
 31
0.0
  0
LINE
  5
10D
330
1F
100
AcDbEntity
  8
0
  6
Continuous
 62
     7
370
    15
100
AcDbLine
 10
264.966795224
 20
90.4019555217
 30
0.0
 11
264.3732552809
 21
97.1484482603
 31
0.0
  0
SPLINE
  5
10E
330
1F
100
AcDbEntity
  8
0
  6
Continuous
 62
     7
370
    15
100
AcDbSpline
210
0.0
220
0.0
230
1.0
 70
     8
 71
     3
 72
     8
 73
     4
 74
     0
 42
0.00000001
 43
0.00000001
 40
0.0
 40
0.0
 40
0.0
 40
0.0
 40
1.0
 40
1.0
 40
1.0
 40
1.0
 10
264.9667952240227
 20
90.4019555216534
 30
0.0
 10
261.88321984888
 20
90.74730403886215
 30
0.0
 10
258.8008615641658
 20
91.10195867400235
 30
0.0
 10
255.7199184080804
 20
91.4674336669395
 30
0.0
  0
CIRCLE
  5
10F
330
1F
100
AcDbEntity
  8
0
  6
Continuous
 62
     7
370
    15
100
AcDbCircle
 10
266.5637005816
 20
106.9091084928
 30
0.0
 40
3.977270322758459
  0
LINE
  5
110
330
1F
100
AcDbEntity
  8
0
  6
Continuous
 62
     7
370
    15
100
AcDbLine
 10
252.3454002578
 20
135.7105462037
 30
0.0
 11
252.3454002578
 21
133.7262923046
 31
0.0
  0
LINE
  5
111
330
1F
100
AcDbEntity
  8
0
  6
Continuous
 62
     7
370
    15
100
AcDbLine
 10
255.7199184081
 20
91.3360280534
 30
0.0
 11
255.7199184081
 21
91.4674336669
 31
0.0
  0
ELLIPSE
  5
112
330
1F
100
AcDbEntity
  8
0
  6
Continuous
 62
     7
370
    15
100
AcDbEllipse
 10
269.1866806009
 20
115.2105462037
 30
0.0
 11
-14.59302442223881
 21
20.49991501973692
 31
0.0
210
0.0
220
0.0
230
1.0
 40
0.0040448756
 41
5.855950295593503
 42
6.280305938888284
  0
ARC
  5
113
330
1F
100
AcDbEntity
  8
0
  6
Continuous
 62
     7
370
    15
100
AcDbCircle
 10
262.7469734049
 20
100.189463526
 30
0.0
 40
2.302177391403034
100
AcDbArc
 50
227.3993666925
 51
265.9735745061
  0
LINE
  5
114
330
1F
100
AcDbEntity
  8
0
  6
Continuous
 62
     7
370
    15
100
AcDbLine
 10
262.2780087582
 20
98.2998958808
 30
0.0
 11
263.8702202273
 21
98.1844816149
 31
0.0
  0
LINE
  5
115
330
1F
100
AcDbEntity
  8
0
  6
Continuous
 62
     7
370
    15
100
AcDbLine
 10
263.9042781002
 20
97.7973615991
 30
0.0
 11
263.8819715035
 21
97.7989785322
 31
0.0
  0
LINE
  5
116
330
1F
100
AcDbEntity
  8
0
  6
Continuous
 62
     7
370
    15
100
AcDbLine
 10
263.8819715035
 20
97.7989785322
 30
0.0
 11
264.3732552809
 21
97.1484482603
 31
0.0
  0
ELLIPSE
  5
117
330
1F
100
AcDbEntity
  8
0
  6
Continuous
 62
     7
370
    15
100
AcDbEllipse
 10
262.3653919912
 20
114.9477742645
 30
0.0
 11
-2.521159715942985
 21
24.57077231890479
 31
0.0
210
0.0
220
0.0
230
0.9999999999999998
 40
0.0908883341
 41
3.122510526928771
 42
3.178293248108339
  0
ARC
  5
118
330
1F
100
AcDbEntity
  8
0
  6
Continuous
 62
     7
370
    15
100
AcDbCircle
 10
262.7287149499
 20
99.9417352168
 30
0.0
 40
2.053778649612754
100
AcDbArc
 50
217.1410928291
 51
265.9964160781
  0
ARC
  5
119
330
1F
100
AcDbEntity
  8
0
  6
Continuous
 62
     7
370
    15
100
AcDbCircle
 10
262.4225820087
 20
100.3524652536
 30
0.0
 40
2.057654600502222
100
AcDbArc
 50
228.4290275287
 51
265.9710110481
  0
LWPOLYLINE
  5
11A
330
1F
100
AcDbEntity
  8
0
  6
Continuous
 62
     7
370
    15
100
AcDbPolyline
 90
        3
 70
   128
 43
0.0
 10
271.8296412329
 20
93.5242188953
 10
271.8573777518
 20
93.5432464615
 10
272.1630804587
 20
93.783621362
  0
LWPOLYLINE
  5
11B
330
1F
100
AcDbEntity
  8
0
  6
Continuous
 62
     7
370
    15
100
AcDbPolyline
 90
        3
 70
   128
 43
0.0
 10
272.6312492042
 20
96.5206319881
 10
272.648191614
 20
96.6673876924
 10
272.661458656
 20
96.9639271607
  0
LINE
  5
11C
330
1F
100
AcDbEntity
  8
0
  6
HIDDEN
 62
     7
370
     0
100
AcDbLine
 10
142.7954002578
 20
83.7105462037
 30
0.0
 11
142.7954002578
 21
83.7264232208
 31
0.0
  0
SPLINE
  5
11D
330
1F
100
AcDbEntity
  8
0
  6
HIDDEN
 62
     7
370
     0
100
AcDbSpline
210
0.0
220
0.0
230
1.0
 70
     8
 71
     3
 72
    30
 73
    26
 74
     0
 42
0.00000001
 43
0.00000001
 40
0.0
 40
0.0
 40
0.0
 40
0.0
 40
0.1249999999999997
 40
0.1249999999999997
 40
0.1874999999999996
 40
0.1874999999999996
 40
0.2499999999999994
 40
0.2499999999999994
 40
0.3749999999999994
 40
0.3749999999999994
 40
0.4374999999999995
 40
0.4374999999999995
 40
0.4999999999999996
 40
0.4999999999999996
 40
0.6249999999999999
 40
0.6249999999999999
 40
0.6874999999999999
 40
0.6874999999999999
 40
0.75
 40
0.75
 40
0.8125
 40
0.8125
 40
0.8750000000000001
 40
0.8750000000000001
 40
1.0
 40
1.0
 40
1.0
 40
1.0
 10
142.7954002577774
 20
83.72642322079786
 30
0.0
 10
142.7954002577774
 20
83.74330213880648
 30
0.0
 10
142.8478178237558
 20
83.77331970363117
 30
0.0
 10
143.0011973036581
 20
83.83613009290428
 30
0.0
 10
143.0648784243259
 20
83.8600340001312
 30
0.0
 10
143.2178332917775
 20
83.91346929257357
 30
0.0
 10
143.3074055905468
 20
83.94307616074114
 30
0.0
 10
143.6086296233999
 20
84.03752585945556
 30
0.0
 10
143.8539446194841
 20
84.10855325328478
 30
0.0
 10
144.2880416005543
 20
84.22256753999055
 30
0.0
 10
144.444711289658
 20
84.26202279113113
 30
0.0
 10
144.7767044535004
 20
84.34154423390179
 30
0.0
 10
144.9514099824928
 20
84.38148037640256
 30
0.0
 10
145.5010796650844
 20
84.50041677923073
 30
0.0
 10
145.9013306277957
 20
84.5785815431146
 30
0.0
 10
146.5549174944332
 20
84.68829098338345
 30
0.0
 10
146.7805936141103
 20
84.72337182009187
 30
0.0
 10
147.2403054352416
 20
84.7886120994715
 30
0.0
 10
147.4753587692847
 20
84.81894691551622
 30
0.0
 10
147.9558660515837
 20
84.87428529473807
 30
0.0
 10
148.2013195794978
 20
84.89928997129816
 30
0.0
 10
148.7029350043052
 20
84.94316978018884
 30
0.0
 10
148.9604273869057
 20
84.96211346495114
 30
0.0
 10
149.7385039033418
 20
85.00783319222133
 30
0.0
 10
150.2636661805867
 20
85.02362850741302
 30
0.0
 10
150.7954002577774
 20
85.02362850741304
 30
0.0
  0
LINE
  5
11E
330
1F
100
AcDbEntity
  8
0
  6
HIDDEN
 62
     7
370
     0
100
AcDbLine
 10
150.7954002578
 20
85.0236285074
 30
0.0
 11
152.4534674263
 21
85.0236285074
 31
0.0
  0
LINE
  5
11F
330
1F
100
AcDbEntity
  8
0
  6
HIDDEN
 62
     7
370
     0
100
AcDbLine
 10
152.4534674263
 20
145.6777416768
 30
0.0
 11
152.4534674263
 21
85.0236285074
 31
0.0
  0
LINE
  5
120
330
1F
100
AcDbEntity
  8
0
  6
HIDDEN
 62
     7
370
     0
100
AcDbLine
 10
150.7954002578
 20
145.6777416768
 30
0.0
 11
152.4534674263
 21
145.6777416768
 31
0.0
  0
SPLINE
  5
121
330
1F
100
AcDbEntity
  8
0
  6
HIDDEN
 62
     7
370
     0
100
AcDbSpline
210
0.0
220
0.0
230
1.0
 70
     8
 71
     3
 72
    24
 73
    20
 74
     0
 42
0.00000001
 43
0.00000001
 40
0.0
 40
0.0
 40
0.0
 40
0.0
 40
0.0096786192490796
 40
0.0638613520263618
 40
0.1150897520283912
 40
0.2187147589296631
 40
0.2715873592962996
 40
0.3233204929274789
 40
0.42792396604408
 40
0.4812567026176671
 40
0.5874625812434174
 40
0.6419371468053006
 40
0.6968114823325074
 40
0.7499885119850114
 40
0.8035487259003959
 40
0.858337480263607
 40
0.9135595833158351
 40
0.9566727434116614
 40
1.0
 40
1.0
 40
1.0
 40
1.0
 10
142.7996044551504
 20
146.7094794518605
 30
0.0
 10
142.7982808627132
 20
146.7098152903974
 30
0.0
 10
142.7895475506154
 20
146.7120312162927
 30
0.0
 10
142.828514164545
 20
146.7021286951304
 30
0.0
 10
142.9473462594889
 20
146.6721792589677
 30
0.0
 10
143.1773244208408
 20
146.6151210134134
 30
0.0
 10
143.5058131747219
 20
146.5372869669829
 30
0.0
 10
143.9010529914598
 20
146.4469087437181
 30
0.0
 10
144.391296985631
 20
146.3414550308551
 30
0.0
 10
145.1134687233606
 20
146.2005696611212
 30
0.0
 10
145.7810507635374
 20
146.0840441080193
 30
0.0
 10
146.5212231404111
 20
145.9743042216461
 30
0.0
 10
147.111157572754
 20
145.8977467518406
 30
0.0
 10
147.7248107591986
 20
145.8300107446405
 30
0.0
 10
148.3608008211189
 20
145.772583810932
 30
0.0
 10
149.0235494531111
 20
145.7266840037712
 30
0.0
 10
149.6570883584625
 20
145.6970755322921
 30
0.0
 10
150.2497558601975
 20
145.6805752195122
 30
0.0
 10
150.6132187157666
 20
145.6786877493554
 30
0.0
 10
150.7954002577774
 20
145.6777416768245
 30
0.0
  0
SPLINE
  5
122
330
1F
100
AcDbEntity
  8
0
  6
HIDDEN
 62
     7
370
     0
100
AcDbSpline
210
0.0
220
0.0
230
1.0
 70
     8
 71
     3
 72
    76
 73
    72
 74
     0
 42
0.00000001
 43
0.00000001
 40
-0.03125
 40
-0.03125
 40
0.0
 40
0.0
 40
0.0312499999999999
 40
0.0312499999999999
 40
0.0468749999999999
 40
0.0468749999999999
 40
0.0624999999999998
 40
0.0624999999999998
 40
0.0937499999999997
 40
0.0937499999999997
 40
0.1249999999999996
 40
0.1249999999999996
 40
0.1562499999999995
 40
0.1562499999999995
 40
0.1874999999999994
 40
0.1874999999999994
 40
0.2187499999999993
 40
0.2187499999999993
 40
0.2499999999999992
 40
0.2499999999999992
 40
0.2812499999999991
 40
0.2812499999999991
 40
0.312499999999999
 40
0.312499999999999
 40
0.328124999999999
 40
0.328124999999999
 40
0.343749999999999
 40
0.343749999999999
 40
0.3749999999999991
 40
0.3749999999999991
 40
0.4062499999999991
 40
0.4062499999999991
 40
0.4374999999999991
 40
0.4374999999999991
 40
0.4687499999999992
 40
0.4687499999999992
 40
0.4999999999999992
 40
0.4999999999999992
 40
0.5312499999999992
 40
0.5312499999999992
 40
0.5624999999999993
 40
0.5624999999999993
 40
0.5937499999999993
 40
0.5937499999999993
 40
0.6249999999999993
 40
0.6249999999999993
 40
0.6562499999999994
 40
0.6562499999999994
 40
0.6874999999999994
 40
0.6874999999999994
 40
0.7031249999999996
 40
0.7031249999999996
 40
0.7187499999999997
 40
0.7187499999999997
 40
0.7499999999999997
 40
0.7499999999999997
 40
0.7812499999999997
 40
0.7812499999999997
 40
0.8124999999999998
 40
0.8124999999999998
 40
0.8437499999999998
 40
0.8437499999999998
 40
0.8749999999999998
 40
0.8749999999999998
 40
0.9062499999999999
 40
0.9062499999999999
 40
0.9374999999999999
 40
0.9374999999999999
 40
0.96875
 40
0.96875
 40
1.0
 40
1.0
 40
1.03125
 40
1.03125
 10
139.8454002577774
 20
115.5414301994543
 30
0.0
 10
139.8454002577774
 20
114.8796622078661
 30
0.0
 10
139.8779207355618
 20
114.5544110397703
 30
0.0
 10
139.9734139798438
 20
114.0746143188811
 30
0.0
 10
140.0130888152549
 20
113.9160386350875
 30
0.0
 10
140.1084754285906
 20
113.6016562492945
 30
0.0
 10
140.1644196700013
 20
113.4455366257103
 30
0.0
 10
140.3527826934509
 20
112.9915960658084
 30
0.0
 10
140.5063949698693
 20
112.7046158198013
 30
0.0
 10
140.8692227636534
 20
112.1615026630621
 30
0.0
 10
141.0800578652359
 20
111.9047633715181
 30
0.0
 10
141.5405574352533
 20
111.4443787372871
 30
0.0
 10
141.7919203761712
 20
111.2376019205333
 30
0.0
 10
142.3382670705246
 20
110.8720777128699
 30
0.0
 10
142.6284817102425
 20
110.7170781541551
 30
0.0
 10
143.2298685265442
 20
110.4675471330609
 30
0.0
 10
143.5454982196346
 20
110.3712688593722
 30
0.0
 10
144.1911386209142
 20
110.2426198521292
 30
0.0
 10
144.5158943767275
 20
110.2107335930126
 30
0.0
 10
145.1691944071189
 20
110.2103604455019
 30
0.0
 10
145.5010667479496
 20
110.2429399317479
 30
0.0
 10
146.1427179815533
 20
110.3707138364542
 30
0.0
 10
146.4546428984864
 20
110.4652462807514
 30
0.0
 10
146.9091324990033
 20
110.6533658752901
 30
0.0
 10
147.0589958068372
 20
110.7242488565109
 30
0.0
 10
147.3480810407599
 20
110.8788654628453
 30
0.0
 10
147.4879419550679
 20
110.9627880615832
 30
0.0
 10
147.8938183987722
 20
111.2339835850589
 30
0.0
 10
148.1468565452618
 20
111.4410835905001
 30
0.0
 10
148.6127561014252
 20
111.9066860435574
 30
0.0
 10
148.819262175921
 20
112.1586048959447
 30
0.0
 10
149.1813677393206
 20
112.6995085119455
 30
0.0
 10
149.3382268531358
 20
112.992051354697
 30
0.0
 10
149.5891769699984
 20
113.5969190114545
 30
0.0
 10
149.6839880693294
 20
113.9085658429012
 30
0.0
 10
149.8124099321225
 20
114.5503191481228
 30
0.0
 10
149.8452732186137
 20
114.8820469670021
 30
0.0
 10
149.8455265447222
 20
115.535166732263
 30
0.0
 10
149.813970544153
 20
115.860099938606
 30
0.0
 10
149.6857293227286
 20
116.5066269450591
 30
0.0
 10
149.5899232740702
 20
116.82163489892
 30
0.0
 10
149.3407897629761
 20
117.4235935670657
 30
0.0
 10
149.1853296412813
 20
117.7150697373412
 30
0.0
 10
148.8208753869216
 20
118.2606646738379
 30
0.0
 10
148.6144424794858
 20
118.512141788843
 30
0.0
 10
148.1539733969679
 20
118.9734648128978
 30
0.0
 10
147.897176388912
 20
119.1845881138441
 30
0.0
 10
147.3551311750775
 20
119.5473188955602
 30
0.0
 10
147.068361595142
 20
119.7012077989457
 30
0.0
 10
146.6140544192563
 20
119.8901575256378
 30
0.0
 10
146.4579141184828
 20
119.9462303216575
 30
0.0
 10
146.1440681571368
 20
120.0417330871903
 30
0.0
 10
145.985681369443
 20
120.0815137302178
 30
0.0
 10
145.5062051294996
 20
120.177396267343
 30
0.0
 10
145.1799651850727
 20
120.2102717153425
 30
0.0
 10
144.5190905877948
 20
120.2108172845136
 30
0.0
 10
144.1939542404499
 20
120.1786507659002
 30
0.0
 10
143.5538717399634
 20
120.051868227913
 30
0.0
 10
143.2355508158956
 20
119.9556004741217
 30
0.0
 10
142.6306345370565
 20
119.7052061526965
 30
0.0
 10
142.343485623405
 20
119.551891990975
 30
0.0
 10
141.799534069732
 20
119.1891840669551
 30
0.0
 10
141.5428881200054
 20
118.9787449942213
 30
0.0
 10
141.0822975665925
 20
118.518864005945
 30
0.0
 10
140.8751486806016
 20
118.2675822062521
 30
0.0
 10
140.5086174371883
 20
117.7206620325122
 30
0.0
 10
140.3539332496838
 20
117.4315218808959
 30
0.0
 10
140.1038335963456
 20
116.8302852069766
 30
0.0
 10
140.0071468218524
 20
116.5143095133359
 30
0.0
 10
139.8779252468962
 20
115.8683357552393
 30
0.0
 10
139.8454002577774
 20
115.5414301994543
 30
0.0
 10
139.8454002577774
 20
114.8796622078661
 30
0.0
  0
LINE
  5
123
330
1F
100
AcDbEntity
  8
0
  6
HIDDEN
 62
     7
370
     0
100
AcDbLine
 10
137.8454002578
 20
146.4105461926
 30
0.0
 11
137.8454002578
 21
84.0105462037
 31
0.0
  0
SPLINE
  5
124
330
1F
100
AcDbEntity
  8
0
  6
HIDDEN
 62
     7
370
     0
100
AcDbSpline
210
0.0
220
0.0
230
1.0
 70
     8
 71
     3
 72
    10
 73
     6
 74
     0
 42
0.00000001
 43
0.00000001
 40
0.0
 40
0.0
 40
0.0
 40
0.0
 40
0.5
 40
0.5
 40
1.0
 40
1.0
 40
1.0
 40
1.0
 10
154.0330750601097
 20
88.81054620366021
 30
0.0
 10
154.0009198724877
 20
88.7482601581441
 30
0.0
 10
153.9762636412935
 20
88.6817297332749
 30
0.0
 10
153.943450884368
 20
88.54487110291247
 30
0.0
 10
153.9354002577774
 20
88.47581350773414
 30
0.0
 10
153.9354002577774
 20
88.40615057533086
 30
0.0
  0
SPLINE
  5
125
330
1F
100
AcDbEntity
  8
0
  6
HIDDEN
 62
     7
370
     0
100
AcDbSpline
210
0.0
220
0.0
230
1.0
 70
    24
 71
     3
 72
    10
 73
     6
 74
     0
 42
0.00000001
 43
0.00000001
 40
0.0
 40
0.0
 40
0.0
 40
0.0
 40
0.5
 40
0.5
 40
1.0
 40
1.0
 40
1.0
 40
1.0
 10
153.9354002577774
 20
135.0605462036602
 30
0.0
 10
153.9354002577774
 20
135.0605462036602
 30
0.0
 10
153.9376221162621
 20
135.0605462036602
 30
0.0
 10
153.9463587879857
 20
135.0605462036602
 30
0.0
 10
153.95287030178
 20
135.0605462036602
 30
0.0
 10
153.9615478809375
 20
135.0605462036602
 30
0.0
  0
LINE
  5
126
330
1F
100
AcDbEntity
  8
0
  6
HIDDEN
 62
     7
370
     0
100
AcDbLine
 10
153.9354002578
 20
135.3464128351
 30
0.0
 11
153.9354002578
 21
142.3302000547
 31
0.0
  0
LINE
  5
127
330
1F
100
AcDbEntity
  8
0
  6
HIDDEN
 62
     7
370
     0
100
AcDbLine
 10
153.9354002578
 20
88.4061505753
 30
0.0
 11
153.9354002578
 21
135.0605462037
 31
0.0
  0
SPLINE
  5
128
330
1F
100
AcDbEntity
  8
0
  6
HIDDEN
 62
     7
370
     0
100
AcDbSpline
210
0.0
220
0.0
230
1.0
 70
     8
 71
     3
 72
    10
 73
     6
 74
     0
 42
0.00000001
 43
0.00000001
 40
0.0
 40
0.0
 40
0.0
 40
0.0
 40
0.5
 40
0.5
 40
1.0
 40
1.0
 40
1.0
 40
1.0
 10
157.7554002577774
 20
88.40615057533084
 30
0.0
 10
157.7554002577774
 20
88.4763869357016
 30
0.0
 10
157.7471176456869
 20
88.5463810371991
 30
0.0
 10
157.7140177026283
 20
88.68334030175802
 30
0.0
 10
157.6896803106698
 20
88.74864821101329
 30
0.0
 10
157.6577254554452
 20
88.8105462036602
 30
0.0
  0
LINE
  5
129
330
1F
100
AcDbEntity
  8
0
  6
HIDDEN
 62
     7
370
     0
100
AcDbLine
 10
157.7554002578
 20
135.3464128351
 30
0.0
 11
157.7554002578
 21
142.3302000547
 31
0.0
  0
SPLINE
  5
12A
330
1F
100
AcDbEntity
  8
0
  6
HIDDEN
 62
     7
370
     0
100
AcDbSpline
210
0.0
220
0.0
230
1.0
 70
    24
 71
     3
 72
    10
 73
     6
 74
     0
 42
0.00000001
 43
0.00000001
 40
0.0
 40
0.0
 40
0.0
 40
0.0
 40
0.5
 40
0.5
 40
1.0
 40
1.0
 40
1.0
 40
1.0
 10
157.7292526346173
 20
135.0605462036602
 30
0.0
 10
157.7379304095249
 20
135.0605462036602
 30
0.0
 10
157.7444834335318
 20
135.0605462036602
 30
0.0
 10
157.7532180430288
 20
135.0605462036602
 30
0.0
 10
157.7554002577774
 20
135.0605462036602
 30
0.0
 10
157.7554002577774
 20
135.0605462036602
 30
0.0
  0
LINE
  5
12B
330
1F
100
AcDbEntity
  8
0
  6
HIDDEN
 62
     7
370
     0
100
AcDbLine
 10
157.7554002578
 20
88.4061505753
 30
0.0
 11
157.7554002578
 21
135.0605462037
 31
0.0
  0
LINE
  5
12C
330
1F
100
AcDbEntity
  8
0
  6
HIDDEN
 62
     7
370
     0
100
AcDbLine
 10
137.8454002578
 20
89.8866222825
 30
0.0
 11
137.8454002578
 21
140.5096837396
 31
0.0
  0
LINE
  5
12D
330
1F
100
AcDbEntity
  8
0
  6
HIDDEN
 62
     7
370
     0
100
AcDbLine
 10
142.7954002578
 20
135.0605462037
 30
0.0
 11
150.0410206035
 21
135.0605462037
 31
0.0
  0
LWPOLYLINE
  5
12E
330
1F
100
AcDbEntity
  8
0
  6
HIDDEN
 62
     7
370
     0
100
AcDbPolyline
 90
        2
 70
   128
 43
0.0
 10
157.7554002578
 20
135.0605462037
 10
157.7554002578
 20
135.0605462037
  0
LWPOLYLINE
  5
12F
330
1F
100
AcDbEntity
  8
0
  6
HIDDEN
 62
     7
370
     0
100
AcDbPolyline
 90
        2
 70
   128
 43
0.0
 10
163.7954002578
 20
135.0605462037
 10
163.7954002578
 20
135.0605462037
  0
LWPOLYLINE
  5
130
330
1F
100
AcDbEntity
  8
0
  6
HIDDEN
 62
     7
370
     0
100
AcDbPolyline
 90
        2
 70
   128
 43
0.0
 10
153.9354002578
 20
135.0605462037
 10
153.9354002578
 20
135.0605462037
  0
LINE
  5
131
330
1F
100
AcDbEntity
  8
0
  6
HIDDEN
 62
     7
370
     0
100
AcDbLine
 10
135.8454002578
 20
139.4309770654
 30
0.0
 11
135.8454002578
 21
90.9901153419
 31
0.0
  0
SPLINE
  5
132
330
1F
100
AcDbEntity
  8
0
  6
HIDDEN
 62
     7
370
     0
100
AcDbSpline
210
0.0
220
0.0
230
1.0
 70
     8
 71
     3
 72
    14
 73
    10
 74
     0
 42
0.00000001
 43
0.00000001
 40
0.0
 40
0.0
 40
0.0
 40
0.0
 40
0.4999999999999984
 40
0.4999999999999984
 40
0.7499999999999976
 40
0.7499999999999976
 40
0.8749999999999987
 40
0.8749999999999987
 40
1.0
 40
1.0
 40
1.0
 40
1.0
 10
107.0954002577774
 20
94.40391464513262
 30
0.0
 10
107.7114771615327
 20
94.40964076536176
 30
0.0
 10
108.3256091576485
 20
94.4195311307638
 30
0.0
 10
109.2395057881621
 20
94.45016609843357
 30
0.0
 10
109.5429447157097
 20
94.46295955607154
 30
0.0
 10
109.9940813313472
 20
94.49088538403095
 30
0.0
 10
110.1437875808897
 20
94.5016550041907
 30
0.0
 10
110.4406287171378
 20
94.52878771979023
 30
0.0
 10
110.5880142696411
 20
94.54460469261745
 30
0.0
 10
110.7317983966554
 20
94.56826378149192
 30
0.0
  0
SPLINE
  5
133
330
1F
100
AcDbEntity
  8
0
  6
HIDDEN
 62
     7
370
     0
100
AcDbSpline
210
0.0
220
0.0
230
1.0
 70
     8
 71
     3
 72
    10
 73
     6
 74
     0
 42
0.00000001
 43
0.00000001
 40
0.0
 40
0.0
 40
0.0
 40
0.0
 40
0.5
 40
0.5
 40
1.0
 40
1.0
 40
1.0
 40
1.0
 10
110.7317983966554
 20
94.56826378149191
 30
0.0
 10
111.3594260523627
 20
94.67153734022752
 30
0.0
 10
112.0106267973941
 20
94.76036245197908
 30
0.0
 10
113.3193315014063
 20
94.92247015884939
 30
0.0
 10
113.9803759386975
 20
94.99576962313597
 30
0.0
 10
114.6454002577771
 20
95.06445743786365
 30
0.0
  0
SPLINE
  5
134
330
1F
100
AcDbEntity
  8
0
  6
HIDDEN
 62
     7
370
     0
100
AcDbSpline
210
0.0
220
0.0
230
1.0
 70
     8
 71
     3
 72
    18
 73
    14
 74
     0
 42
0.00000001
 43
0.00000001
 40
0.0
 40
0.0
 40
0.0
 40
0.0
 40
0.0625000000000006
 40
0.0625000000000006
 40
0.1250000000000012
 40
0.1250000000000012
 40
0.2500000000000024
 40
0.2500000000000024
 40
0.5000000000000016
 40
0.5000000000000016
 40
0.7500000000000008
 40
0.7500000000000008
 40
1.0
 40
1.0
 40
1.0
 40
1.0
 10
114.6454002577773
 20
95.06445743786354
 30
0.0
 10
114.6819724681277
 20
95.06823484139099
 30
0.0
 10
114.7206229415631
 20
95.06767781350786
 30
0.0
 10
114.794714435277
 20
95.05761860834602
 30
0.0
 10
114.8300647290311
 20
95.04826472692145
 30
0.0
 10
114.9246590264205
 20
95.01388030048766
 30
0.0
 10
114.9747971995595
 20
94.98316856582483
 30
0.0
 10
115.1039904711407
 20
94.8872392557868
 30
0.0
 10
115.1622706158818
 20
94.81872376166953
 30
0.0
 10
115.2624657123053
 20
94.68215181173692
 30
0.0
 10
115.3024809637519
 20
94.61338690923401
 30
0.0
 10
115.3708803845697
 20
94.47835148012635
 30
0.0
 10
115.3992421084317
 20
94.4117334540732
 30
0.0
 10
115.4237960210376
 20
94.34617498637697
 30
0.0
  0
SPLINE
  5
135
330
1F
100
AcDbEntity
  8
0
  6
HIDDEN
 62
     7
370
     0
100
AcDbSpline
210
0.0
220
0.0
230
1.0
 70
     8
 71
     3
 72
    14
 73
    10
 74
     0
 42
0.00000001
 43
0.00000001
 40
0.0
 40
0.0
 40
0.0
 40
0.0
 40
0.25
 40
0.25
 40
0.5
 40
0.5
 40
0.75
 40
0.75
 40
1.0
 40
1.0
 40
1.0
 40
1.0
 10
115.4237960210375
 20
94.34617498637697
 30
0.0
 10
115.4622324058585
 20
94.24355058866543
 30
0.0
 10
115.5310337992504
 20
94.14435416522588
 30
0.0
 10
115.6743198114093
 20
93.95346213589936
 30
0.0
 10
115.7495018665163
 20
93.86120486986646
 30
0.0
 10
115.8816891551664
 20
93.68159754805146
 30
0.0
 10
115.9392063506362
 20
93.59428799360711
 30
0.0
 10
116.0212511489285
 20
93.42435416009135
 30
0.0
 10
116.0454002577773
 20
93.34245181822021
 30
0.0
 10
116.0454002577773
 20
93.26539794438429
 30
0.0
  0
LINE
  5
136
330
1F
100
AcDbEntity
  8
0
  6
HIDDEN
 62
     7
370
     0
100
AcDbLine
 10
116.0454002578
 20
93.2653979444
 30
0.0
 11
116.0454002578
 21
91.9820993099
 31
0.0
  0
LINE
  5
137
330
1F
100
AcDbEntity
  8
0
  6
HIDDEN
 62
     7
370
     0
100
AcDbLine
 10
112.0454002578
 20
138.2385922958
 30
0.0
 11
112.0454002578
 21
137.054653876
 31
0.0
  0
SPLINE
  5
138
330
1F
100
AcDbEntity
  8
0
  6
HIDDEN
 62
     7
370
     0
100
AcDbSpline
210
0.0
220
0.0
230
1.0
 70
     8
 71
     3
 72
    18
 73
    14
 74
     0
 42
0.00000001
 43
0.00000001
 40
0.0
 40
0.0
 40
0.0
 40
0.0
 40
0.2499999999999994
 40
0.2499999999999994
 40
0.4999999999999989
 40
0.4999999999999989
 40
0.7499999999999983
 40
0.7499999999999983
 40
0.8749999999999991
 40
0.8749999999999991
 40
0.9374999999999996
 40
0.9374999999999996
 40
1.0
 40
1.0
 40
1.0
 40
1.0
 10
112.0454002577774
 20
137.0546538760232
 30
0.0
 10
112.0454002577774
 20
136.971446967166
 30
0.0
 10
112.0095511578391
 20
136.8827103118524
 30
0.0
 10
111.8846794218052
 20
136.7005851212922
 30
0.0
 10
111.7942790041573
 20
136.6054550726656
 30
0.0
 10
111.5720363494151
 20
136.4162735635412
 30
0.0
 10
111.4422715629694
 20
136.3213283954465
 30
0.0
 10
111.2016341056578
 20
136.1830496878666
 30
0.0
 10
111.1138668075204
 20
136.1373392545642
 30
0.0
 10
110.9593427203136
 20
136.0795159493427
 30
0.0
 10
110.9027318342588
 20
136.0618011853049
 30
0.0
 10
110.7786878033522
 20
136.037261882072
 30
0.0
 10
110.7109731283339
 20
136.0312827435337
 30
0.0
 10
110.6454002577774
 20
136.0336335954879
 30
0.0
  0
SPLINE
  5
139
330
1F
100
AcDbEntity
  8
0
  6
HIDDEN
 62
     7
370
     0
100
AcDbSpline
210
0.0
220
0.0
230
1.0
 70
     8
 71
     3
 72
    10
 73
     6
 74
     0
 42
0.00000001
 43
0.00000001
 40
0.0
 40
0.0
 40
0.0
 40
0.0
 40
0.5
 40
0.5
 40
1.0
 40
1.0
 40
1.0
 40
1.0
 10
110.6454002577774
 20
136.0336335954879
 30
0.0
 10
110.0578147106868
 20
136.0546991157244
 30
0.0
 10
109.4670683172264
 20
136.0654576015966
 30
0.0
 10
108.2830491519275
 20
136.0788223821322
 30
0.0
 10
107.6896351637221
 20
136.0809650247968
 30
0.0
 10
107.0954002577774
 20
136.0804839690553
 30
0.0
  0
SPLINE
  5
13A
330
1F
100
AcDbEntity
  8
0
  6
HIDDEN
 62
     7
370
     0
100
AcDbSpline
210
0.0
220
0.0
230
1.0
 70
     8
 71
     3
 72
     8
 73
     4
 74
     0
 42
0.00000001
 43
0.00000001
 40
0.0000003292049692
 40
0.0000003292049692
 40
0.0000003292049692
 40
0.0000003292049692
 40
0.000016905094931
 40
0.000016905094931
 40
0.000016905094931
 40
0.000016905094931
 10
107.0954002577773
 20
136.0804839690553
 30
0.0
 10
107.0920436756405
 20
136.0785719749584
 30
0.0
 10
107.088695311515
 20
136.0766566847033
 30
0.0
 10
107.085355327346
 20
136.074738076088
 30
0.0
  0
SPLINE
  5
13B
330
1F
100
AcDbEntity
  8
0
  6
HIDDEN
 62
     7
370
     0
100
AcDbSpline
210
0.0
220
0.0
230
1.0
 70
     8
 71
     3
 72
     8
 73
     4
 74
     0
 42
0.00000001
 43
0.00000001
 40
0.0000003682006999
 40
0.0000003682006999
 40
0.0000003682006999
 40
0.0000003682006999
 40
0.0000187826246626
 40
0.0000187826246626
 40
0.0000187826246626
 40
0.0000187826246626
 10
107.0853553273591
 20
94.4106590495912
 30
0.0
 10
107.0886897227866
 20
94.40840629173736
 30
0.0
 10
107.0920381368957
 20
94.40615816360683
 30
0.0
 10
107.0954002577773
 20
94.40391464513262
 30
0.0
  0
SPLINE
  5
13C
330
1F
100
AcDbEntity
  8
0
  6
HIDDEN
 62
     7
370
     0
100
AcDbSpline
210
0.0
220
0.0
230
1.0
 70
     8
 71
     3
 72
    10
 73
     6
 74
     0
 42
0.00000001
 43
0.00000001
 40
0.0
 40
0.0
 40
0.0
 40
0.0
 40
0.2949159523312437
 40
0.5007639170797389
 40
1.0
 40
1.0
 40
1.0
 40
1.0
 10
125.840550462349
 20
91.6859465808384
 30
0.0
 10
125.6676182492619
 20
91.6681993680728
 30
0.0
 10
125.3739813275212
 20
91.63806480359261
 30
0.0
 10
124.6992321954508
 20
91.56998274484083
 30
0.0
 10
124.6503278859515
 20
91.5601612843047
 30
0.0
 10
124.61570109785
 20
91.55320718074383
 30
0.0
  0
SPLINE
  5
13D
330
1F
100
AcDbEntity
  8
0
  6
HIDDEN
 62
     7
370
     0
100
AcDbSpline
210
0.0
220
0.0
230
1.0
 70
     8
 71
     3
 72
    16
 73
    12
 74
     0
 42
0.00000001
 43
0.00000001
 40
0.0
 40
0.0
 40
0.0
 40
0.0
 40
0.0014619398999435
 40
0.1695060946944863
 40
0.3368148262131682
 40
0.5027784258718645
 40
0.5863380399920285
 40
0.668520298482347
 40
0.7507638349534445
 40
0.834194604174546
 40
1.0
 40
1.0
 40
1.0
 40
1.0
 10
133.0270366256705
 20
91.13180117418715
 30
0.0
 10
133.0279667303851
 20
91.1315929207742
 30
0.0
 10
133.1358086586641
 20
91.1074467689793
 30
0.0
 10
132.7477949258676
 20
91.19599362452507
 30
0.0
 10
131.8860042971885
 20
91.37959698228985
 30
0.0
 10
130.6956986307104
 20
91.56782690277026
 30
0.0
 10
129.6442983601283
 20
91.67923188276838
 30
0.0
 10
128.8182694042752
 20
91.73686749800473
 30
0.0
 10
127.9944814598717
 20
91.76335325625767
 30
0.0
 10
126.9243259881535
 20
91.7586136693447
 30
0.0
 10
126.2735091030798
 20
91.71497643353064
 30
0.0
 10
125.840550462349
 20
91.6859465808384
 30
0.0
  0
SPLINE
  5
13E
330
1F
100
AcDbEntity
  8
0
  6
HIDDEN
 62
     7
370
     0
100
AcDbSpline
210
0.0
220
0.0
230
1.0
 70
     8
 71
     3
 72
    16
 73
    12
 74
     0
 42
0.00000001
 43
0.00000001
 40
0.0
 40
0.0
 40
0.0
 40
0.0
 40
0.1658979086808741
 40
0.2493608198222819
 40
0.3317589050038944
 40
0.4138911421869723
 40
0.4976181669650955
 40
0.6634955966468964
 40
0.830539450997977
 40
0.9983760749348626
 40
1.0
 40
1.0
 40
1.0
 40
1.0
 10
125.8404577420671
 20
138.7351292336419
 30
0.0
 10
126.274026154263
 20
138.7061764203549
 30
0.0
 10
126.925721980774
 20
138.6626575037222
 30
0.0
 10
127.9966878846587
 20
138.6579178745194
 30
0.0
 10
128.8209109238941
 20
138.6843196292836
 30
0.0
 10
129.6479291398702
 20
138.742013192241
 30
0.0
 10
130.6990463227061
 20
138.8536720892685
 30
0.0
 10
131.8877581748919
 20
139.0418709640417
 30
0.0
 10
132.7484962625657
 20
139.225130465153
 30
0.0
 10
133.136500855642
 20
139.3136539310403
 30
0.0
 10
133.027858965522
 20
139.2894579207501
 30
0.0
 10
133.0268178601466
 20
139.2892260525789
 30
0.0
  0
SPLINE
  5
13F
330
1F
100
AcDbEntity
  8
0
  6
HIDDEN
 62
     7
370
     0
100
AcDbSpline
210
0.0
220
0.0
230
1.0
 70
     8
 71
     3
 72
    10
 73
     6
 74
     0
 42
0.00000001
 43
0.00000001
 40
0.0
 40
0.0
 40
0.0
 40
0.0
 40
0.4995493564858565
 40
0.5744878148481155
 40
1.0
 40
1.0
 40
1.0
 40
1.0
 10
124.6149970062817
 20
138.8679528007577
 30
0.0
 10
124.6352917223399
 20
138.8621605504444
 30
0.0
 10
124.6586308917931
 20
138.8554993923779
 30
0.0
 10
125.2908095302911
 20
138.7913528193035
 30
0.0
 10
125.5878752361423
 20
138.7609659303768
 30
0.0
 10
125.8404577420671
 20
138.7351292336419
 30
0.0
  0
LINE
  5
140
330
1F
100
AcDbEntity
  8
0
  6
HIDDEN
 62
     7
370
     0
100
AcDbLine
 10
163.7954002578
 20
92.2105462037
 30
0.0
 11
163.7954002578
 21
138.2105462037
 31
0.0
  0
SPLINE
  5
141
330
1F
100
AcDbEntity
  8
0
  6
HIDDEN
 62
     7
370
     0
100
AcDbSpline
210
0.0
220
0.0
230
1.0
 70
    11
 71
     3
 72
    22
 73
    18
 74
     0
 42
0.00000001
 43
0.00000001
 40
0.0
 40
0.0
 40
0.0
 40
0.0
 40
0.1250000000000001
 40
0.1250000000000001
 40
0.2500000000000001
 40
0.2500000000000001
 40
0.3750000000000001
 40
0.3750000000000001
 40
0.5000000000000001
 40
0.5000000000000001
 40
0.6250000000000001
 40
0.6250000000000001
 40
0.7500000000000001
 40
0.7500000000000001
 40
0.8750000000000001
 40
0.8750000000000001
 40
1.0
 40
1.0
 40
1.0
 40
1.0
 10
131.600402259379
 20
135.0480746794767
 30
0.0
 10
131.7593450883481
 20
135.0701483875237
 30
0.0
 10
131.9000366362384
 20
135.0868322055113
 30
0.0
 10
132.1460228737008
 20
135.1130539003936
 30
0.0
 10
132.2520609563821
 20
135.1226332062389
 30
0.0
 10
132.4225529969492
 20
135.1367124733181
 30
0.0
 10
132.4866056964129
 20
135.1412190495651
 30
0.0
 10
132.5731097475059
 20
135.147083219403
 30
0.0
 10
132.595343242866
 20
135.1484251519213
 30
0.0
 10
132.5954570488779
 20
135.1484322916708
 30
0.0
 10
132.5739991203927
 20
135.1471396561846
 30
0.0
 10
132.4880133275137
 20
135.1413182266744
 30
0.0
 10
132.4226991807642
 20
135.1367187573985
 30
0.0
 10
132.2536933468287
 20
135.1227737365887
 30
0.0
 10
132.1497343089529
 20
135.1134213497304
 30
0.0
 10
131.902223862714
 20
135.087092879264
 30
0.0
 10
131.7593397726303
 20
135.070147649286
 30
0.0
 10
131.6004022593793
 20
135.0480746794767
 30
0.0
  0
SPLINE
  5
142
330
1F
100
AcDbEntity
  8
0
  6
HIDDEN
 62
     7
370
     0
100
AcDbSpline
210
0.0
220
0.0
230
1.0
 70
    11
 71
     3
 72
    22
 73
    18
 74
     0
 42
0.00000001
 43
0.00000001
 40
0.0
 40
0.0
 40
0.0
 40
0.0
 40
0.125
 40
0.125
 40
0.2500000000000001
 40
0.2500000000000001
 40
0.3750000000000001
 40
0.3750000000000001
 40
0.5000000000000001
 40
0.5000000000000001
 40
0.6250000000000001
 40
0.6250000000000001
 40
0.7500000000000002
 40
0.7500000000000002
 40
0.8750000000000002
 40
0.8750000000000002
 40
1.0
 40
1.0
 40
1.0
 40
1.0
 10
131.600402259379
 20
95.37301772784373
 30
0.0
 10
131.7593450883481
 20
95.35094401979669
 30
0.0
 10
131.9000366362384
 20
95.33426020180907
 30
0.0
 10
132.1460228737008
 20
95.30803850692678
 30
0.0
 10
132.2520609563821
 20
95.29845920108147
 30
0.0
 10
132.4225529969492
 20
95.2843799340023
 30
0.0
 10
132.4866056964129
 20
95.27987335775526
 30
0.0
 10
132.5731097475059
 20
95.27400918791737
 30
0.0
 10
132.595343242866
 20
95.27266725539907
 30
0.0
 10
132.5954570488779
 20
95.27266011564956
 30
0.0
 10
132.5739991203927
 20
95.27395275113578
 30
0.0
 10
132.4880133275137
 20
95.279774180646
 30
0.0
 10
132.4226991807642
 20
95.28437364992185
 30
0.0
 10
132.2536933468287
 20
95.29831867073169
 30
0.0
 10
132.1497343089529
 20
95.30767105759001
 30
0.0
 10
131.902223862714
 20
95.33399952805644
 30
0.0
 10
131.7593397726303
 20
95.35094475803443
 30
0.0
 10
131.6004022593793
 20
95.37301772784365
 30
0.0
  0
LINE
  5
143
330
1F
100
AcDbEntity
  8
0
  6
HIDDEN
 62
     7
370
     0
100
AcDbLine
 10
137.8454002578
 20
98.2105462037
 30
0.0
 11
137.8454002578
 21
132.2105462037
 31
0.0
  0
SPLINE
  5
144
330
1F
100
AcDbEntity
  8
0
  6
HIDDEN
 62
     7
370
     0
100
AcDbSpline
210
0.0
220
0.0
230
1.0
 70
    11
 71
     3
 72
    56
 73
    52
 74
     0
 42
0.00000001
 43
0.00000001
 40
0.0
 40
0.0
 40
0.0
 40
0.0
 40
0.0624999999999999
 40
0.0624999999999999
 40
0.09375
 40
0.09375
 40
0.125
 40
0.125
 40
0.15625
 40
0.15625
 40
0.1875000000000001
 40
0.1875000000000001
 40
0.2187500000000001
 40
0.2187500000000001
 40
0.2500000000000001
 40
0.2500000000000001
 40
0.3124999999999999
 40
0.3124999999999999
 40
0.3437499999999998
 40
0.3437499999999998
 40
0.3749999999999997
 40
0.3749999999999997
 40
0.4062499999999997
 40
0.4062499999999997
 40
0.4374999999999997
 40
0.4374999999999997
 40
0.4687499999999997
 40
0.4687499999999997
 40
0.4999999999999997
 40
0.4999999999999997
 40
0.5624999999999997
 40
0.5624999999999997
 40
0.6249999999999998
 40
0.6249999999999998
 40
0.6874999999999998
 40
0.6874999999999998
 40
0.7187499999999998
 40
0.7187499999999998
 40
0.7499999999999998
 40
0.7499999999999998
 40
0.7812499999999999
 40
0.7812499999999999
 40
0.8124999999999999
 40
0.8124999999999999
 40
0.875
 40
0.875
 40
0.9375
 40
0.9375
 40
0.96875
 40
0.96875
 40
1.0
 40
1.0
 40
1.0
 40
1.0
 10
131.600402259379
 20
95.3730177278437
 30
0.0
 10
131.3446149488312
 20
95.40854103173727
 30
0.0
 10
131.0544251418879
 20
95.44408490070552
 30
0.0
 10
130.5677720435972
 20
95.49055660061441
 30
0.0
 10
130.3974262014359
 20
95.50480251384592
 30
0.0
 10
130.0504527913449
 20
95.5290904280443
 30
0.0
 10
129.8725148941102
 20
95.53926677436635
 30
0.0
 10
129.5075956165504
 20
95.55494210197025
 30
0.0
 10
129.3192610244551
 20
95.56042906318312
 30
0.0
 10
128.9453741719996
 20
95.56588905745886
 30
0.0
 10
128.7586839578297
 20
95.56594728071802
 30
0.0
 10
128.3858054669104
 20
95.56076313874124
 30
0.0
 10
128.1981012239881
 20
95.5554476602698
 30
0.0
 10
127.8311823244405
 20
95.5399452792465
 30
0.0
 10
127.652732582376
 20
95.52984587148582
 30
0.0
 10
127.1319436790153
 20
95.49371402983189
 30
0.0
 10
126.8010599593443
 20
95.46128480881383
 30
0.0
 10
126.3645584010128
 20
95.40975831744672
 30
0.0
 10
126.2277728619602
 20
95.39203370640274
 30
0.0
 10
125.9720482525064
 20
95.35663937989344
 30
0.0
 10
125.8544245244008
 20
95.33914285851286
 30
0.0
 10
125.6443550712122
 20
95.30644046252435
 30
0.0
 10
125.5510202325271
 20
95.29110865357829
 30
0.0
 10
125.388074521848
 20
95.26351249422949
 30
0.0
 10
125.3183715589981
 20
95.25122581111586
 30
0.0
 10
125.207748492666
 20
95.23138081932942
 30
0.0
 10
125.1660668210556
 20
95.22369470680273
 30
0.0
 10
125.1098916806803
 20
95.2132773264255
 30
0.0
 10
125.0954534049198
 20
95.21055616874902
 30
0.0
 10
125.0952944098172
 20
95.21052635716842
 30
0.0
 10
125.150953747554
 20
95.2211884873164
 30
0.0
 10
125.3737785080883
 20
95.26116915905139
 30
0.0
 10
125.535690793682
 20
95.28950541068369
 30
0.0
 10
125.9594823524178
 20
95.35551631964374
 30
0.0
 10
126.2143287749651
 20
95.39197619243497
 30
0.0
 10
126.6529724350788
 20
95.44382771542132
 30
0.0
 10
126.8096699713583
 20
95.46071534948129
 30
0.0
 10
127.1328699211368
 20
95.49140877010223
 30
0.0
 10
127.3005434025571
 20
95.50536857704608
 30
0.0
 10
127.6481282687458
 20
95.52956800619727
 30
0.0
 10
127.8296917495648
 20
95.53986495502807
 30
0.0
 10
128.1958780243737
 20
95.55537090188997
 30
0.0
 10
128.3805354402159
 20
95.56063688378697
 30
0.0
 10
128.9391318467744
 20
95.56855970704248
 30
0.0
 10
129.3214661882449
 20
95.56284558366885
 30
0.0
 10
130.0487633326133
 20
95.53178649750657
 30
0.0
 10
130.4044574067133
 20
95.50609786145661
 30
0.0
 10
130.8877696836643
 20
95.46002585124852
 30
0.0
 10
131.0414672908808
 20
95.44342369283223
 30
0.0
 10
131.3338895157239
 20
95.40880383761794
 30
0.0
 10
131.4725047389291
 20
95.3907799165795
 30
0.0
 10
131.600402259379
 20
95.3730177278437
 30
0.0
  0
SPLINE
  5
145
330
1F
100
AcDbEntity
  8
0
  6
HIDDEN
 62
     7
370
     0
100
AcDbSpline
210
0.0
220
0.0
230
1.0
 70
    11
 71
     3
 72
    56
 73
    52
 74
     0
 42
0.00000001
 43
0.00000001
 40
0.0
 40
0.0
 40
0.0
 40
0.0
 40
0.0625000000000001
 40
0.0625000000000001
 40
0.0937500000000002
 40
0.0937500000000002
 40
0.1250000000000002
 40
0.1250000000000002
 40
0.15625
 40
0.15625
 40
0.1874999999999998
 40
0.1874999999999998
 40
0.2187499999999996
 40
0.2187499999999996
 40
0.2499999999999994
 40
0.2499999999999994
 40
0.3124999999999992
 40
0.3124999999999992
 40
0.3437499999999992
 40
0.3437499999999992
 40
0.3749999999999992
 40
0.3749999999999992
 40
0.4062499999999993
 40
0.4062499999999993
 40
0.4374999999999993
 40
0.4374999999999993
 40
0.4687499999999993
 40
0.4687499999999993
 40
0.4999999999999993
 40
0.4999999999999993
 40
0.5624999999999992
 40
0.5624999999999992
 40
0.6249999999999992
 40
0.6249999999999992
 40
0.6874999999999992
 40
0.6874999999999992
 40
0.7187499999999993
 40
0.7187499999999993
 40
0.7499999999999993
 40
0.7499999999999993
 40
0.7812499999999994
 40
0.7812499999999994
 40
0.8124999999999996
 40
0.8124999999999996
 40
0.8749999999999998
 40
0.8749999999999998
 40
0.9375
 40
0.9375
 40
0.96875
 40
0.96875
 40
1.0
 40
1.0
 40
1.0
 40
1.0
 10
131.600402259379
 20
135.0480746794767
 30
0.0
 10
131.3446149488312
 20
135.0125513755831
 30
0.0
 10
131.0544251418879
 20
134.9770075066149
 30
0.0
 10
130.5677720435971
 20
134.930535806706
 30
0.0
 10
130.3974262014359
 20
134.9162898934745
 30
0.0
 10
130.0504527913449
 20
134.8920019792761
 30
0.0
 10
129.8725148941101
 20
134.881825632954
 30
0.0
 10
129.5075956165504
 20
134.8661503053501
 30
0.0
 10
129.319261024455
 20
134.8606633441373
 30
0.0
 10
128.9453741719996
 20
134.8552033498615
 30
0.0
 10
128.7586839578296
 20
134.8551451266024
 30
0.0
 10
128.3858054669104
 20
134.8603292685792
 30
0.0
 10
128.198101223988
 20
134.8656447470506
 30
0.0
 10
127.8311823244405
 20
134.8811471280739
 30
0.0
 10
127.652732582376
 20
134.8912465358346
 30
0.0
 10
127.1319436790153
 20
134.9273783774885
 30
0.0
 10
126.8010599593443
 20
134.9598075985066
 30
0.0
 10
126.3645584010128
 20
135.0113340898737
 30
0.0
 10
126.2277728619602
 20
135.0290587009177
 30
0.0
 10
125.9720482525064
 20
135.064453027427
 30
0.0
 10
125.8544245244008
 20
135.0819495488075
 30
0.0
 10
125.6443550712121
 20
135.114651944796
 30
0.0
 10
125.5510202325271
 20
135.1299837537421
 30
0.0
 10
125.388074521848
 20
135.1575799130909
 30
0.0
 10
125.3183715589981
 20
135.1698665962045
 30
0.0
 10
125.207748492666
 20
135.189711587991
 30
0.0
 10
125.1660668210556
 20
135.1973977005177
 30
0.0
 10
125.1098916806803
 20
135.2078150808949
 30
0.0
 10
125.0954534049198
 20
135.2105362385714
 30
0.0
 10
125.0952944098172
 20
135.210566050152
 30
0.0
 10
125.150953747554
 20
135.199903920004
 30
0.0
 10
125.3737785080883
 20
135.159923248269
 30
0.0
 10
125.535690793682
 20
135.1315869966367
 30
0.0
 10
125.9594823524178
 20
135.0655760876767
 30
0.0
 10
126.2143287749651
 20
135.0291162148854
 30
0.0
 10
126.6529724350788
 20
134.9772646918991
 30
0.0
 10
126.8096699713583
 20
134.9603770578391
 30
0.0
 10
127.1328699211369
 20
134.9296836372182
 30
0.0
 10
127.3005434025571
 20
134.9157238302743
 30
0.0
 10
127.6481282687458
 20
134.8915244011231
 30
0.0
 10
127.8296917495648
 20
134.8812274522923
 30
0.0
 10
128.1958780243737
 20
134.8657215054304
 30
0.0
 10
128.3805354402159
 20
134.8604555235334
 30
0.0
 10
128.9391318467744
 20
134.8525327002779
 30
0.0
 10
129.3214661882449
 20
134.8582468236515
 30
0.0
 10
130.0487633326133
 20
134.8893059098138
 30
0.0
 10
130.4044574067133
 20
134.9149945458638
 30
0.0
 10
130.8877696836643
 20
134.9610665560719
 30
0.0
 10
131.0414672908808
 20
134.9776687144881
 30
0.0
 10
131.3338895157239
 20
135.0122885697025
 30
0.0
 10
131.4725047389291
 20
135.0303124907408
 30
0.0
 10
131.600402259379
 20
135.0480746794767
 30
0.0
  0
SPLINE
  5
146
330
1F
100
AcDbEntity
  8
0
  6
HIDDEN
 62
     7
370
     0
100
AcDbSpline
210
0.0
220
0.0
230
1.0
 70
     8
 71
     3
 72
    68
 73
    64
 74
     0
 42
0.00000001
 43
0.00000001
 40
-0.0624999999999977
 40
-0.0624999999999977
 40
0.0
 40
0.0
 40
0.0312500000000001
 40
0.0312500000000001
 40
0.0625000000000002
 40
0.0625000000000002
 40
0.0937500000000002
 40
0.0937500000000002
 40
0.1250000000000003
 40
0.1250000000000003
 40
0.1562500000000004
 40
0.1562500000000004
 40
0.1875000000000004
 40
0.1875000000000004
 40
0.2187500000000005
 40
0.2187500000000005
 40
0.2500000000000006
 40
0.2500000000000006
 40
0.2812500000000007
 40
0.2812500000000007
 40
0.3125000000000008
 40
0.3125000000000008
 40
0.3437500000000008
 40
0.3437500000000008
 40
0.3750000000000009
 40
0.3750000000000009
 40
0.406250000000001
 40
0.406250000000001
 40
0.4375000000000011
 40
0.4375000000000011
 40
0.4687500000000012
 40
0.4687500000000012
 40
0.5000000000000012
 40
0.5000000000000012
 40
0.5312500000000013
 40
0.5312500000000013
 40
0.5625000000000013
 40
0.5625000000000013
 40
0.5937500000000014
 40
0.5937500000000014
 40
0.6250000000000016
 40
0.6250000000000016
 40
0.6562500000000016
 40
0.6562500000000016
 40
0.6875000000000017
 40
0.6875000000000017
 40
0.7187500000000018
 40
0.7187500000000018
 40
0.7500000000000018
 40
0.7500000000000018
 40
0.7812500000000019
 40
0.7812500000000019
 40
0.812500000000002
 40
0.812500000000002
 40
0.8437500000000021
 40
0.8437500000000021
 40
0.8750000000000021
 40
0.8750000000000021
 40
0.9062500000000022
 40
0.9062500000000022
 40
0.9375000000000023
 40
0.9375000000000023
 40
1.0
 40
1.0
 40
1.03125
 40
1.03125
 10
235.5147297451007
 20
123.7200533794635
 30
0.0
 10
236.0107355141156
 20
123.7200533794635
 30
0.0
 10
236.1732752565383
 20
123.7052467306261
 30
0.0
 10
236.4930024662356
 20
123.647187847875
 30
0.0
 10
236.6518590428209
 20
123.6032190157759
 30
0.0
 10
236.9545309410499
 20
123.488334977884
 30
0.0
 10
237.098058756646
 20
123.4179657815956
 30
0.0
 10
237.3696905355932
 20
123.2512905796251
 30
0.0
 10
237.4981751679163
 20
123.1541765838857
 30
0.0
 10
237.7285319238768
 20
122.9413653297675
 30
0.0
 10
237.8319594238396
 20
122.8249103927793
 30
0.0
 10
238.0147245003948
 20
122.570949150463
 30
0.0
 10
238.0922908761163
 20
122.4354755187449
 30
0.0
 10
238.2170260691126
 20
122.1539049559543
 30
0.0
 10
238.2651064124553
 20
122.0057208029118
 30
0.0
 10
238.3293899212667
 20
121.7011781180707
 30
0.0
 10
238.345309248823
 20
121.5474302289335
 30
0.0
 10
238.3454904960093
 20
121.2369822353754
 30
0.0
 10
238.3292264667288
 20
121.078653647397
 30
0.0
 10
238.2653862489295
 20
120.7711827921905
 30
0.0
 10
238.2181527043425
 20
120.621126080923
 30
0.0
 10
238.0928475381142
 20
120.3285994473416
 30
0.0
 10
238.014639760489
 20
120.1868690616863
 30
0.0
 10
237.8337878779908
 20
119.9235734213748
 30
0.0
 10
237.730415714331
 20
119.8002623673844
 30
0.0
 10
237.4972791784538
 20
119.5719703705901
 30
0.0
 10
237.3711891414694
 20
119.4705515188574
 30
0.0
 10
237.1006470051464
 20
119.2924991494639
 30
0.0
 10
236.9544520445593
 20
119.2152399291134
 30
0.0
 10
236.6518266956095
 20
119.0913646878658
 30
0.0
 10
236.4960041970605
 20
119.0445313792298
 30
0.0
 10
236.175371024782
 20
118.9810963470554
 30
0.0
 10
236.0095658441739
 20
118.9648316459318
 30
0.0
 10
235.6831120280641
 20
118.964710298962
 30
0.0
 10
235.5207724257755
 20
118.980328926249
 30
0.0
 10
235.197910438121
 20
119.0436331209033
 30
0.0
 10
235.0401697276958
 20
119.0910284733642
 30
0.0
 10
234.7392173950232
 20
119.2139143216346
 30
0.0
 10
234.5936979170835
 20
119.2903730312907
 30
0.0
 10
234.3204946611928
 20
119.469766953182
 30
0.0
 10
234.1946640132616
 20
119.5711527212823
 30
0.0
 10
233.9639841896857
 20
119.796442625825
 30
0.0
 10
233.8583667117467
 20
119.9218073194683
 30
0.0
 10
233.6768223244227
 20
120.185702929314
 30
0.0
 10
233.5999038674292
 20
120.3247755388761
 30
0.0
 10
233.4740760723047
 20
120.6170807123931
 30
0.0
 10
233.4258158030189
 20
120.7698767899994
 30
0.0
 10
233.3619410342207
 20
121.0762657758586
 30
0.0
 10
233.345550873755
 20
121.2315016507631
 30
0.0
 10
233.3452516887945
 20
121.5459675185034
 30
0.0
 10
233.3613410577093
 20
121.6999386753345
 30
0.0
 10
233.4246564646239
 20
122.0016992809896
 30
0.0
 10
233.4726701321146
 20
122.1510517181493
 30
0.0
 10
233.5979256711245
 20
122.4345128971577
 30
0.0
 10
233.6745961187729
 20
122.5684359239985
 30
0.0
 10
233.8558059029878
 20
122.8211384529682
 30
0.0
 10
233.961168949075
 20
122.9402035816762
 30
0.0
 10
234.1913505673893
 20
123.1531432645573
 30
0.0
 10
234.3170159072651
 20
123.2484791221643
 30
0.0
 10
234.5901441417104
 20
123.4166639299474
 30
0.0
 10
234.7352638764302
 20
123.4878100127049
 30
0.0
 10
235.1862141266833
 20
123.6594023428971
 30
0.0
 10
235.5147297451007
 20
123.7200533794635
 30
0.0
 10
236.0107355141156
 20
123.7200533794635
 30
0.0
  0
LINE
  5
147
330
1F
100
AcDbEntity
  8
0
  6
HIDDEN
 62
     7
370
     0
100
AcDbLine
 10
251.8454002578
 20
95.2105462037
 30
0.0
 11
251.8454002578
 21
135.2105462037
 31
0.0
  0
LINE
  5
148
330
1F
100
AcDbEntity
  8
0
  6
HIDDEN
 62
     7
370
     0
100
AcDbLine
 10
157.7292526346
 20
135.0605462037
 30
0.0
 11
163.7954002578
 21
135.0605462037
 31
0.0
  0
LINE
  5
149
330
1F
100
AcDbEntity
  8
0
  6
HIDDEN
 62
     7
370
     0
100
AcDbLine
 10
150.0410206035
 20
135.0605462037
 30
0.0
 11
153.9615478809
 21
135.0605462037
 31
0.0
  0
LINE
  5
14A
330
1F
100
AcDbEntity
  8
0
  6
HIDDEN
 62
     7
370
     0
100
AcDbLine
 10
118.849374854
 20
132.2105462037
 30
0.0
 11
118.849374854
 21
98.2105462037
 31
0.0
  0
LINE
  5
14B
330
1F
100
AcDbEntity
  8
0
  6
HIDDEN
 62
     7
370
     0
100
AcDbLine
 10
105.9454002578
 20
98.9644535259
 30
0.0
 11
105.9454002578
 21
131.4566388814
 31
0.0
  0
LINE
  5
14C
330
1F
100
AcDbEntity
  8
0
  6
HIDDEN
 62
     7
370
     0
100
AcDbLine
 10
145.5052262263
 20
132.2105462037
 30
0.0
 11
145.5052262263
 21
98.2105462037
 31
0.0
  0
LINE
  5
14D
330
1F
100
AcDbEntity
  8
0
  6
HIDDEN
 62
     7
370
     0
100
AcDbLine
 10
147.7954002578
 20
130.9355462037
 30
0.0
 11
147.7954002578
 21
99.4855462037
 31
0.0
  0
LINE
  5
14E
330
1F
100
AcDbEntity
  8
0
  6
HIDDEN
 62
     7
370
     0
100
AcDbLine
 10
107.0954002578
 20
99.4090557676
 30
0.0
 11
114.6454002578
 21
99.4090557676
 31
0.0
  0
LINE
  5
14F
330
1F
100
AcDbEntity
  8
0
  6
HIDDEN
 62
     7
370
     0
100
AcDbLine
 10
107.0954002578
 20
131.0120366397
 30
0.0
 11
107.0954002578
 21
99.4090557676
 31
0.0
  0
LINE
  5
150
330
1F
100
AcDbEntity
  8
0
  6
HIDDEN
 62
     7
370
     0
100
AcDbLine
 10
110.6454002578
 20
131.0120366397
 30
0.0
 11
107.0954002578
 21
131.0120366397
 31
0.0
  0
SPLINE
  5
151
330
1F
100
AcDbEntity
  8
0
  6
HIDDEN
 62
     7
370
     0
100
AcDbSpline
210
0.0
220
0.0
230
1.0
 70
     8
 71
     3
 72
    18
 73
    14
 74
     0
 42
0.00000001
 43
0.00000001
 40
0.0
 40
0.0
 40
0.0
 40
0.0
 40
0.2500000000000009
 40
0.2500000000000009
 40
0.3750000000000002
 40
0.3750000000000002
 40
0.4999999999999994
 40
0.4999999999999994
 40
0.6249999999999987
 40
0.6249999999999987
 40
0.7499999999999979
 40
0.7499999999999979
 40
1.0
 40
1.0
 40
1.0
 40
1.0
 10
112.0454002577774
 20
131.4980598260643
 30
0.0
 10
112.0454002577774
 20
131.4435853055121
 30
0.0
 10
112.0104895663852
 20
131.3872042461596
 30
0.0
 10
111.9084802650521
 20
131.3031274053061
 30
0.0
 10
111.866843910374
 20
131.2757937013153
 30
0.0
 10
111.7684381148853
 20
131.2228397857162
 30
0.0
 10
111.710894903181
 20
131.1969524319991
 30
0.0
 10
111.583596729608
 20
131.1491748871658
 30
0.0
 10
111.5140094248506
 20
131.1272269689879
 30
0.0
 10
111.3625751796956
 20
131.0877944040752
 30
0.0
 10
111.2798912766017
 20
131.0702381548494
 30
0.0
 10
111.0237798145636
 20
131.0277993894288
 30
0.0
 10
110.8358648106756
 20
131.0120366396918
 30
0.0
 10
110.6454002577773
 20
131.0120366396918
 30
0.0
  0
LINE
  5
152
330
1F
100
AcDbEntity
  8
0
  6
HIDDEN
 62
     7
370
     0
100
AcDbLine
 10
112.0454002578
 20
131.4980598261
 30
0.0
 11
112.0454002578
 21
132.2105462037
 31
0.0
  0
SPLINE
  5
153
330
1F
100
AcDbEntity
  8
0
  6
HIDDEN
 62
     7
370
     0
100
AcDbSpline
210
0.0
220
0.0
230
1.0
 70
     8
 71
     3
 72
    18
 73
    14
 74
     0
 42
0.00000001
 43
0.00000001
 40
0.0
 40
0.0
 40
0.0
 40
0.0
 40
0.2500000000000006
 40
0.2500000000000006
 40
0.3750000000000004
 40
0.3750000000000004
 40
0.5000000000000002
 40
0.5000000000000002
 40
0.625
 40
0.625
 40
0.7499999999999998
 40
0.7499999999999998
 40
1.0
 40
1.0
 40
1.0
 40
1.0
 10
112.0454002577774
 20
131.4980598260643
 30
0.0
 10
112.0454002577774
 20
131.4435853055121
 30
0.0
 10
112.0104895663852
 20
131.3872042461597
 30
0.0
 10
111.9084802650521
 20
131.3031274053061
 30
0.0
 10
111.866843910374
 20
131.2757937013153
 30
0.0
 10
111.7684381148853
 20
131.2228397857163
 30
0.0
 10
111.710894903181
 20
131.1969524319991
 30
0.0
 10
111.583596729608
 20
131.1491748871658
 30
0.0
 10
111.5140094248506
 20
131.1272269689879
 30
0.0
 10
111.3625751796956
 20
131.0877944040752
 30
0.0
 10
111.2798912766016
 20
131.0702381548494
 30
0.0
 10
111.0237798145636
 20
131.0277993894288
 30
0.0
 10
110.8358648106756
 20
131.0120366396918
 30
0.0
 10
110.6454002577773
 20
131.0120366396918
 30
0.0
  0
LINE
  5
154
330
1F
100
AcDbEntity
  8
0
  6
HIDDEN
 62
     7
370
     0
100
AcDbLine
 10
110.6454002578
 20
131.0120366397
 30
0.0
 11
107.0954002578
 21
131.0120366397
 31
0.0
  0
LINE
  5
155
330
1F
100
AcDbEntity
  8
0
  6
HIDDEN
 62
     7
370
     0
100
AcDbLine
 10
107.0954002578
 20
99.4090557676
 30
0.0
 11
114.6454002578
 21
99.4090557676
 31
0.0
  0
SPLINE
  5
156
330
1F
100
AcDbEntity
  8
0
  6
HIDDEN
 62
     7
370
     0
100
AcDbSpline
210
0.0
220
0.0
230
1.0
 70
     8
 71
     3
 72
    16
 73
    12
 74
     0
 42
0.00000001
 43
0.00000001
 40
0.0
 40
0.0
 40
0.0
 40
0.0
 40
0.1249999999999982
 40
0.1249999999999982
 40
0.2499999999999963
 40
0.2499999999999963
 40
0.4999999999999976
 40
0.4999999999999976
 40
0.7499999999999988
 40
0.7499999999999988
 40
1.0
 40
1.0
 40
1.0
 40
1.0
 10
114.6454002577774
 20
99.40905576762853
 30
0.0
 10
114.7405220124432
 20
99.40905576762853
 30
0.0
 10
114.8338520811712
 20
99.40523993423575
 30
0.0
 10
115.0171138419093
 20
99.39046938150594
 30
0.0
 10
115.1079915574663
 20
99.37931133353035
 30
0.0
 10
115.364793254986
 20
99.33684006338864
 30
0.0
 10
115.519860619858
 20
99.29579386618583
 30
0.0
 10
115.7736070814126
 20
99.20064774960393
 30
0.0
 10
115.8744775330805
 20
99.14588501552238
 30
0.0
 10
116.0097239477753
 20
99.0346238916185
 30
0.0
 10
116.0454002577774
 20
98.9774541542898
 30
0.0
 10
116.0454002577774
 20
98.92303258125607
 30
0.0
  0
LINE
  5
157
330
1F
100
AcDbEntity
  8
0
  6
HIDDEN
 62
     7
370
     0
100
AcDbLine
 10
116.0454002578
 20
98.9230325813
 30
0.0
 11
116.0454002578
 21
98.2105462037
 31
0.0
  0
SPLINE
  5
158
330
1F
100
AcDbEntity
  8
0
  6
HIDDEN
 62
     7
370
     0
100
AcDbSpline
210
0.0
220
0.0
230
1.0
 70
     8
 71
     3
 72
    16
 73
    12
 74
     0
 42
0.00000001
 43
0.00000001
 40
0.0
 40
0.0
 40
0.0
 40
0.0
 40
0.1249999999999987
 40
0.1249999999999987
 40
0.2499999999999973
 40
0.2499999999999973
 40
0.4999999999999982
 40
0.4999999999999982
 40
0.7499999999999991
 40
0.7499999999999991
 40
1.0
 40
1.0
 40
1.0
 40
1.0
 10
114.6454002577774
 20
99.40905576762852
 30
0.0
 10
114.7405220124432
 20
99.40905576762853
 30
0.0
 10
114.8338520811713
 20
99.40523993423574
 30
0.0
 10
115.0171138419093
 20
99.39046938150594
 30
0.0
 10
115.1079915574663
 20
99.37931133353035
 30
0.0
 10
115.364793254986
 20
99.33684006338864
 30
0.0
 10
115.519860619858
 20
99.29579386618582
 30
0.0
 10
115.7736070814126
 20
99.20064774960393
 30
0.0
 10
115.8744775330805
 20
99.14588501552237
 30
0.0
 10
116.0097239477753
 20
99.0346238916185
 30
0.0
 10
116.0454002577773
 20
98.9774541542898
 30
0.0
 10
116.0454002577773
 20
98.92303258125607
 30
0.0
  0
LINE
  5
159
330
1F
100
AcDbEntity
  8
0
  6
HIDDEN
 62
     7
370
     0
100
AcDbLine
 10
107.0954002578
 20
99.4090557676
 30
0.0
 11
107.0954002578
 21
131.0120366397
 31
0.0
  0
SPLINE
  5
15A
330
1F
100
AcDbEntity
  8
0
  6
HIDDEN
 62
     7
370
     0
100
AcDbSpline
210
0.0
220
0.0
230
1.0
 70
     8
 71
     3
 72
    10
 73
     6
 74
     0
 42
0.00000001
 43
0.00000001
 40
0.0
 40
0.0
 40
0.0
 40
0.0
 40
0.5
 40
0.5
 40
1.0
 40
1.0
 40
1.0
 40
1.0
 10
235.7360052568117
 20
112.8788152336642
 30
0.0
 10
236.073664760439
 20
112.7232544533909
 30
0.0
 10
236.4018798951167
 20
112.5493527380926
 30
0.0
 10
237.0574584724251
 20
112.2008261434932
 30
0.0
 10
237.3681431748765
 20
112.0366328128009
 30
0.0
 10
237.666622718171
 20
111.8786735738642
 30
0.0
  0
SPLINE
  5
15B
330
1F
100
AcDbEntity
  8
0
  6
HIDDEN
 62
     7
370
     0
100
AcDbSpline
210
0.0
220
0.0
230
1.0
 70
     8
 71
     3
 72
    54
 73
    50
 74
     0
 42
0.00000001
 43
0.00000001
 40
0.0
 40
0.0
 40
0.0
 40
0.0
 40
0.0624999999999993
 40
0.0624999999999993
 40
0.1249999999999987
 40
0.1249999999999987
 40
0.187499999999998
 40
0.187499999999998
 40
0.2187499999999982
 40
0.2187499999999982
 40
0.2499999999999983
 40
0.2499999999999983
 40
0.3125000000000005
 40
0.3125000000000005
 40
0.3437500000000028
 40
0.3437500000000028
 40
0.3750000000000051
 40
0.3750000000000051
 40
0.437500000000007
 40
0.437500000000007
 40
0.4687500000000094
 40
0.4687500000000094
 40
0.5000000000000118
 40
0.5000000000000118
 40
0.5156250000000128
 40
0.5156250000000128
 40
0.5312500000000139
 40
0.5312500000000139
 40
0.5625000000000131
 40
0.5625000000000131
 40
0.5937500000000123
 40
0.5937500000000123
 40
0.6250000000000115
 40
0.6250000000000115
 40
0.6875000000000099
 40
0.6875000000000099
 40
0.718750000000009
 40
0.718750000000009
 40
0.750000000000008
 40
0.750000000000008
 40
0.781250000000007
 40
0.781250000000007
 40
0.812500000000006
 40
0.812500000000006
 40
0.875000000000004
 40
0.875000000000004
 40
0.937500000000002
 40
0.937500000000002
 40
1.0
 40
1.0
 40
1.0
 40
1.0
 10
237.666622718171
 20
111.8786735738642
 30
0.0
 10
237.7290721755612
 20
111.8464885129357
 30
0.0
 10
237.7971153705898
 20
111.7739318630956
 30
0.0
 10
237.9005008231806
 20
111.5803266544334
 30
0.0
 10
237.9373979072715
 20
111.4560461735495
 30
0.0
 10
237.9510853572977
 20
111.1613758515332
 30
0.0
 10
237.9279528784978
 20
110.9871643646243
 30
0.0
 10
237.8240675634135
 20
110.6977021040647
 30
0.0
 10
237.7776600208408
 20
110.5964345961749
 30
0.0
 10
237.663161321201
 20
110.394518235398
 30
0.0
 10
237.5931807232467
 20
110.2907401978244
 30
0.0
 10
237.3556370285451
 20
109.9909610283517
 30
0.0
 10
237.1605538646364
 20
109.8066332226101
 30
0.0
 10
236.8522224630795
 20
109.577995316657
 30
0.0
 10
236.7468922235952
 20
109.5094785845178
 30
0.0
 10
236.5371162742573
 20
109.3888394390357
 30
0.0
 10
236.4317417527501
 20
109.3360458163807
 30
0.0
 10
236.1131510118843
 20
109.1980901441997
 30
0.0
 10
235.9050032787817
 20
109.1355626927984
 30
0.0
 10
235.59281798769
 20
109.0855595895362
 30
0.0
 10
235.4879765653635
 20
109.0762603050334
 30
0.0
 10
235.2755185892628
 20
109.0772577471851
 30
0.0
 10
235.168283936188
 20
109.0873321015122
 30
0.0
 10
235.0029576448821
 20
109.1255124206518
 30
0.0
 10
234.9477498676838
 20
109.1420213427134
 30
0.0
 10
234.8365316891849
 20
109.1846231854557
 30
0.0
 10
234.7797219663009
 20
109.2112416164782
 30
0.0
 10
234.6152769688063
 20
109.3045499751536
 30
0.0
 10
234.5111110549075
 20
109.3863810918385
 30
0.0
 10
234.3269133778775
 20
109.5697271714332
 30
0.0
 10
234.2459954676092
 20
109.6706617103577
 30
0.0
 10
234.1024540839169
 20
109.8837552358417
 30
0.0
 10
234.0407995798526
 20
109.994462694351
 30
0.0
 10
233.8804480148888
 20
110.3389216633321
 30
0.0
 10
233.8056582286744
 20
110.5888132125303
 30
0.0
 10
233.7518769350879
 20
110.9687432988232
 30
0.0
 10
233.743423780198
 20
111.0969029664301
 30
0.0
 10
233.7481465254087
 20
111.3568462951352
 30
0.0
 10
233.7616506560631
 20
111.487904282646
 30
0.0
 10
233.8117475179528
 20
111.7405601123191
 30
0.0
 10
233.849026848437
 20
111.865318539054
 30
0.0
 10
233.9461932081076
 20
112.0989150912568
 30
0.0
 10
234.0053805509193
 20
112.2071267929346
 30
0.0
 10
234.2144149647858
 20
112.5056863962848
 30
0.0
 10
234.3927229304125
 20
112.6614835446893
 30
0.0
 10
234.7742497040609
 20
112.8700527777276
 30
0.0
 10
234.9787398230455
 20
112.925170407134
 30
0.0
 10
235.3716906574496
 20
112.9556475911992
 30
0.0
 10
235.5661084209077
 20
112.9318753942352
 30
0.0
 10
235.7360052568117
 20
112.8788152336642
 30
0.0
  0
LWPOLYLINE
  5
15C
330
1F
100
AcDbEntity
  8
0
  6
HIDDEN
 62
     7
370
     0
100
AcDbPolyline
 90
       21
 70
   128
 43
0.0
 10
234.7301989362
 20
113.434756481
 10
234.8430921372
 20
113.2586114263
 10
234.8486823417
 20
112.9180730389
 10
234.7464223412
 20
112.4464755888
 10
234.5463220573
 20
111.8899823204
 10
234.2679686998
 20
111.303066672
 10
233.9386094348
 20
110.7431800366
 10
233.590484242
 20
110.265128019
 10
233.2576700407
 20
109.9157056815
 10
232.9727450038
 20
109.729116917
 10
232.7635995791
 20
109.7236263339
 10
232.650706378
 20
109.8997713886
 10
232.6451161736
 20
110.240309776
 10
232.7473761741
 20
110.711907226
 10
232.947476458
 20
111.2684004945
 10
233.2258298155
 20
111.8553161428
 10
233.5551890805
 20
112.4152027783
 10
233.9033142733
 20
112.8932547959
 10
234.2361284746
 20
113.2426771334
 10
234.5210535115
 20
113.4292658979
 10
234.7301989362
 20
113.434756481
  0
SPLINE
  5
15D
330
1F
100
AcDbEntity
  8
0
  6
HIDDEN
 62
     7
370
     0
100
AcDbSpline
210
0.0
220
0.0
230
1.0
 70
     8
 71
     3
 72
    62
 73
    58
 74
     0
 42
0.00000001
 43
0.00000001
 40
-0.0312500000000021
 40
-0.0312500000000021
 40
0.0
 40
0.0
 40
0.0312499999999998
 40
0.0312499999999998
 40
0.0624999999999997
 40
0.0624999999999997
 40
0.1249999999999966
 40
0.1249999999999966
 40
0.1874999999999934
 40
0.1874999999999934
 40
0.2187499999999925
 40
0.2187499999999925
 40
0.2499999999999915
 40
0.2499999999999915
 40
0.2812499999999905
 40
0.2812499999999905
 40
0.3124999999999896
 40
0.3124999999999896
 40
0.3437499999999886
 40
0.3437499999999886
 40
0.3749999999999876
 40
0.3749999999999876
 40
0.4374999999999855
 40
0.4374999999999855
 40
0.4687499999999858
 40
0.4687499999999858
 40
0.4999999999999862
 40
0.4999999999999862
 40
0.5312499999999867
 40
0.5312499999999867
 40
0.562499999999987
 40
0.562499999999987
 40
0.5937499999999875
 40
0.5937499999999875
 40
0.6249999999999879
 40
0.6249999999999879
 40
0.6562499999999882
 40
0.6562499999999882
 40
0.6874999999999887
 40
0.6874999999999887
 40
0.718749999999989
 40
0.718749999999989
 40
0.7499999999999895
 40
0.7499999999999895
 40
0.7812499999999899
 40
0.7812499999999899
 40
0.8124999999999902
 40
0.8124999999999902
 40
0.8749999999999921
 40
0.8749999999999921
 40
0.906249999999994
 40
0.906249999999994
 40
0.937499999999996
 40
0.937499999999996
 40
0.9687499999999979
 40
0.9687499999999979
 40
1.0
 40
1.0
 40
1.03125
 40
1.03125
 10
235.7041378404907
 20
116.0837753050944
 30
0.0
 10
235.9866626750645
 20
116.0837753050944
 30
0.0
 10
236.1249857061156
 20
116.0678172804925
 30
0.0
 10
236.3962136518078
 20
116.0062836291862
 30
0.0
 10
236.5304240179763
 20
115.9598908989341
 30
0.0
 10
236.9094035256805
 20
115.7834155818856
 30
0.0
 10
237.1382800861402
 20
115.6134095128572
 30
0.0
 10
237.5191729382914
 20
115.2074910252882
 30
0.0
 10
237.6747710111585
 20
114.9673705069104
 30
0.0
 10
237.8339170566803
 20
114.5847543638079
 30
0.0
 10
237.8756824476307
 20
114.4505020708776
 30
0.0
 10
237.9310008614407
 20
114.1831780626985
 30
0.0
 10
237.9451066889112
 20
114.0498041719824
 30
0.0
 10
237.9456848469661
 20
113.7838067952143
 30
0.0
 10
237.9316937980232
 20
113.6515817727907
 30
0.0
 10
237.8771953691466
 20
113.4012938527788
 30
0.0
 10
237.8363050301984
 20
113.2804624198477
 30
0.0
 10
237.7296970305221
 20
113.0533421248367
 30
0.0
 10
237.6649494834434
 20
112.9484554111682
 30
0.0
 10
237.5133886078159
 20
112.7539004372189
 30
0.0
 10
237.4261020106763
 20
112.6642215061614
 30
0.0
 10
237.1404880562298
 20
112.4257467972924
 30
0.0
 10
236.9111018611787
 20
112.301462651352
 30
0.0
 10
236.5348831915254
 20
112.1762304532286
 30
0.0
 10
236.4024121364747
 20
112.1439653657788
 30
0.0
 10
236.1284571600227
 20
112.100488543242
 30
0.0
 10
235.9904164967204
 20
112.0896467122415
 30
0.0
 10
235.7121989247393
 20
112.0890420009976
 30
0.0
 10
235.5703895659747
 20
112.0997033183219
 30
0.0
 10
235.2979329986435
 20
112.1419896856967
 30
0.0
 10
235.1660672675685
 20
112.1733631645196
 30
0.0
 10
234.9105508474479
 20
112.2574247658211
 30
0.0
 10
234.7905640878079
 20
112.3089394768698
 30
0.0
 10
234.5654180904874
 20
112.4308787817903
 30
0.0
 10
234.4592913261037
 20
112.5021849510917
 30
0.0
 10
234.2679646784117
 20
112.6610715799303
 30
0.0
 10
234.1820283318783
 20
112.7487980827553
 30
0.0
 10
234.0295313706597
 20
112.9429511536439
 30
0.0
 10
233.9633863074314
 20
113.0495226724737
 30
0.0
 10
233.8571658722356
 20
113.2737771745703
 30
0.0
 10
233.816125260407
 20
113.3925260219482
 30
0.0
 10
233.7599386724583
 20
113.6451191101525
 30
0.0
 10
233.7457211008941
 20
113.7758725535199
 30
0.0
 10
233.7450902092084
 20
114.040422529181
 30
0.0
 10
233.7588785910083
 20
114.1768261677192
 30
0.0
 10
233.8137221627522
 20
114.4455791963507
 30
0.0
 10
233.854223344807
 20
114.5772787011874
 30
0.0
 10
234.0138125434903
 20
114.9641265578502
 30
0.0
 10
234.1685803771693
 20
115.203852560558
 30
0.0
 10
234.4565600910498
 20
115.5113375701772
 30
0.0
 10
234.5605090136029
 20
115.6039164621419
 30
0.0
 10
234.784920211494
 20
115.7688658824971
 30
0.0
 10
234.9068507655424
 20
115.8417446761412
 30
0.0
 10
235.1590932190013
 20
115.9593821837838
 30
0.0
 10
235.2899703926906
 20
116.0049144385755
 30
0.0
 10
235.5621767410705
 20
116.0673041460463
 30
0.0
 10
235.7041378404907
 20
116.0837753050944
 30
0.0
 10
235.9866626750645
 20
116.0837753050944
 30
0.0
  0
ARC
  5
15E
330
1F
100
AcDbEntity
  8
0
  6
HIDDEN
 62
     7
370
     0
100
AcDbCircle
 10
235.8609069941
 20
110.7564697987
 30
0.0
 40
2.126017542112145
100
AcDbArc
 50
31.8598399927
 51
93.3680180456
  0
LINE
  5
15F
330
1F
100
AcDbEntity
  8
0
  6
HIDDEN
 62
     7
370
     0
100
AcDbLine
 10
107.0954002578
 20
97.2205462037
 30
0.0
 11
107.0954002578
 21
94.3980462037
 31
0.0
  0
LINE
  5
160
330
1F
100
AcDbEntity
  8
0
  6
HIDDEN
 62
     7
370
     0
100
AcDbLine
 10
116.0454002578
 20
97.2205462037
 30
0.0
 11
116.0454002578
 21
93.2653979444
 31
0.0
  0
LINE
  5
161
330
1F
100
AcDbEntity
  8
0
  6
HIDDEN
 62
     7
370
     0
100
AcDbLine
 10
105.9454002578
 20
97.2205462037
 30
0.0
 11
105.9454002578
 21
95.2514284417
 31
0.0
  0
LINE
  5
162
330
1F
100
AcDbEntity
  8
0
  6
HIDDEN
 62
     7
370
     0
100
AcDbLine
 10
112.0454002578
 20
133.2005462037
 30
0.0
 11
112.0454002578
 21
137.054653876
 31
0.0
  0
LINE
  5
163
330
1F
100
AcDbEntity
  8
0
  6
HIDDEN
 62
     7
370
     0
100
AcDbLine
 10
107.0954002578
 20
133.2005462037
 30
0.0
 11
107.0954002578
 21
136.0804839691
 31
0.0
  0
LINE
  5
164
330
1F
100
AcDbEntity
  8
0
  6
HIDDEN
 62
     7
370
     0
100
AcDbLine
 10
105.9454002578
 20
133.2005462037
 30
0.0
 11
105.9454002578
 21
135.1866067083
 31
0.0
  0
LINE
  5
165
330
1F
100
AcDbEntity
  8
0
  6
HIDDEN
 62
     7
370
     0
100
AcDbLine
 10
159.6454002578
 20
124.7105462037
 30
0.0
 11
159.6454002578
 21
105.7105462037
 31
0.0
  0
LWPOLYLINE
  5
166
330
1F
100
AcDbEntity
  8
0
  6
HIDDEN
 62
     7
370
     0
100
AcDbPolyline
 90
        2
 70
   128
 43
0.0
 10
159.6454002578
 20
105.7105462037
 10
159.6454002578
 20
105.7105462037
  0
LINE
  5
167
330
1F
100
AcDbEntity
  8
0
  6
HIDDEN
 62
     7
370
     0
100
AcDbLine
 10
157.1454002578
 20
124.7105462037
 30
0.0
 11
157.1454002578
 21
105.7105462037
 31
0.0
  0
LWPOLYLINE
  5
168
330
1F
100
AcDbEntity
  8
0
  6
HIDDEN
 62
     7
370
     0
100
AcDbPolyline
 90
        2
 70
   128
 43
0.0
 10
157.1454002578
 20
105.7105462037
 10
157.1454002578
 20
105.7105462037
  0
LWPOLYLINE
  5
169
330
1F
100
AcDbEntity
  8
0
  6
HIDDEN
 62
     7
370
     0
100
AcDbPolyline
 90
        2
 70
   128
 43
0.0
 10
163.7954002578
 20
88.8105462037
 10
163.7954002578
 20
88.8105462037
  0
LINE
  5
16A
330
1F
100
AcDbEntity
  8
0
  6
HIDDEN
 62
     7
370
     0
100
AcDbLine
 10
154.0330750601
 20
88.8105462037
 30
0.0
 11
150.7954002578
 21
88.8105462037
 31
0.0
  0
LINE
  5
16B
330
1F
100
AcDbEntity
  8
0
  6
HIDDEN
 62
     7
370
     0
100
AcDbLine
 10
153.9354002578
 20
88.4061505753
 30
0.0
 11
153.9354002578
 21
87.7127090446
 31
0.0
  0
LINE
  5
16C
330
1F
100
AcDbEntity
  8
0
  6
HIDDEN
 62
     7
370
     0
100
AcDbLine
 10
148.2954002578
 20
123.7105462037
 30
0.0
 11
148.2954002578
 21
106.7105462037
 31
0.0
  0
LINE
  5
16D
330
1F
100
AcDbEntity
  8
0
  6
HIDDEN
 62
     7
370
     0
100
AcDbLine
 10
147.7954002578
 20
106.2105462037
 30
0.0
 11
147.7954002578
 21
124.2105462037
 31
0.0
  0
LINE
  5
16E
330
1F
100
AcDbEntity
  8
0
  6
HIDDEN
 62
     7
370
     0
100
AcDbLine
 10
163.7954002578
 20
88.8105462037
 30
0.0
 11
157.6577254554
 21
88.8105462037
 31
0.0
  0
LINE
  5
16F
330
1F
100
AcDbEntity
  8
0
  6
HIDDEN
 62
     7
370
     0
100
AcDbLine
 10
157.7554002578
 20
87.7127090446
 30
0.0
 11
157.7554002578
 21
88.4061505753
 31
0.0
  0
LINE
  5
170
330
1F
100
AcDbEntity
  8
0
  6
HIDDEN
 62
     7
370
     0
100
AcDbLine
 10
163.7954002578
 20
88.8105462037
 30
0.0
 11
163.7954002578
 21
85.6502688031
 31
0.0
  0
LINE
  5
171
330
1F
100
AcDbEntity
  8
0
  6
HIDDEN
 62
     7
370
     0
100
AcDbLine
 10
142.7954002578
 20
83.7264232208
 30
0.0
 11
142.7954002578
 21
88.8105462037
 31
0.0
  0
LINE
  5
172
330
1F
100
AcDbEntity
  8
0
  6
HIDDEN
 62
     7
370
     0
100
AcDbLine
 10
150.7954002578
 20
88.8105462037
 30
0.0
 11
142.7954002578
 21
88.8105462037
 31
0.0
  0
LINE
  5
173
330
1F
100
AcDbEntity
  8
0
  6
HIDDEN
 62
     7
370
     0
100
AcDbLine
 10
252.3454002578
 20
115.2105462037
 30
0.0
 11
252.3454002578
 21
135.7105462037
 31
0.0
  0
LINE
  5
174
330
1F
100
AcDbEntity
  8
0
  6
HIDDEN
 62
     7
370
     0
100
AcDbLine
 10
255.7199184081
 20
102.9736096218
 30
0.0
 11
255.7199184081
 21
91.3360280534
 31
0.0
  0
SPLINE
  5
175
330
1F
100
AcDbEntity
  8
0
  6
HIDDEN
 62
     7
370
     0
100
AcDbSpline
210
0.0
220
0.0
230
1.0
 70
     8
 71
     3
 72
    16
 73
    12
 74
     0
 42
0.00000001
 43
0.00000001
 40
0.0
 40
0.0
 40
0.0
 40
0.0
 40
0.2499999999999996
 40
0.2499999999999996
 40
0.4999999999999991
 40
0.4999999999999991
 40
0.6249999999999992
 40
0.6249999999999992
 40
0.7499999999999993
 40
0.7499999999999993
 40
1.0
 40
1.0
 40
1.0
 40
1.0
 10
255.7199184080875
 20
102.9736096217583
 30
0.0
 10
255.2363839861644
 20
103.9169953503055
 30
0.0
 10
254.7853703925182
 20
104.8766426838996
 30
0.0
 10
253.9706278301567
 20
106.8395828599052
 30
0.0
 10
253.606761729713
 20
107.8430526086758
 30
0.0
 10
253.1494999407318
 20
109.3917885620985
 30
0.0
 10
253.0129680366646
 20
109.9118118005886
 30
0.0
 10
252.7751506392993
 20
110.9602389637859
 30
0.0
 10
252.6736974476034
 20
111.4899655158439
 30
0.0
 10
252.4289907444771
 20
113.0814091410193
 30
0.0
 10
252.3454002577774
 20
114.1447355818795
 30
0.0
 10
252.3454002577774
 20
115.2105462036602
 30
0.0
  0
ELLIPSE
  5
176
330
1F
100
AcDbEntity
  8
0
  6
HIDDEN
 62
     7
370
     0
100
AcDbEllipse
 10
269.1866806009
 20
115.2105462037
 30
0.0
 11
-14.59302442223881
 21
20.49991501973692
 31
0.0
210
0.0
220
0.0
230
1.0
 40
0.0040448756
 41
6.280305938888284
 42
7.851102265679998
  0
LINE
  5
177
330
1F
100
AcDbEntity
  8
0
  6
HIDDEN
 62
     7
370
     0
100
AcDbLine
 10
157.1454002578
 20
106.7105462037
 30
0.0
 11
157.1454002578
 21
123.6856055137
 31
0.0
  0
LWPOLYLINE
  5
178
330
1F
100
AcDbEntity
  8
0
  6
HIDDEN
 62
     7
370
     0
100
AcDbPolyline
 90
        2
 70
   128
 43
0.0
 10
163.7954002578
 20
141.6105462037
 10
163.7954002578
 20
141.6105462037
  0
LINE
  5
179
330
1F
100
AcDbEntity
  8
0
  6
HIDDEN
 62
     7
370
     0
100
AcDbLine
 10
150.7954002578
 20
141.6105462037
 30
0.0
 11
142.7954002578
 21
141.6105462037
 31
0.0
  0
LINE
  5
17A
330
1F
100
AcDbEntity
  8
0
  6
HIDDEN
 62
     7
370
     0
100
AcDbLine
 10
154.3296977895
 20
141.6105462037
 30
0.0
 11
150.7954002578
 21
141.6105462037
 31
0.0
  0
LINE
  5
17B
330
1F
100
AcDbEntity
  8
0
  6
HIDDEN
 62
     7
370
     0
100
AcDbLine
 10
153.9354002578
 20
142.3302000547
 30
0.0
 11
153.9354002578
 21
143.0157803948
 31
0.0
  0
LINE
  5
17C
330
1F
100
AcDbEntity
  8
0
  6
HIDDEN
 62
     7
370
     0
100
AcDbLine
 10
163.7954002578
 20
141.6105462037
 30
0.0
 11
157.3611027261
 21
141.6105462037
 31
0.0
  0
LINE
  5
17D
330
1F
100
AcDbEntity
  8
0
  6
HIDDEN
 62
     7
370
     0
100
AcDbLine
 10
157.7554002578
 20
143.0157803948
 30
0.0
 11
157.7554002578
 21
142.3302000547
 31
0.0
  0
LINE
  5
17E
330
1F
100
AcDbEntity
  8
0
  6
HIDDEN
 62
     7
370
     0
100
AcDbLine
 10
163.7954002578
 20
141.6105462037
 30
0.0
 11
163.7954002578
 21
145.0569865274
 31
0.0
  0
SPLINE
  5
17F
330
1F
100
AcDbEntity
  8
0
  6
HIDDEN
 62
     7
370
     0
100
AcDbSpline
210
0.0
220
0.0
230
1.0
 70
     8
 71
     3
 72
     8
 73
     4
 74
     0
 42
0.00000001
 43
0.00000001
 40
0.0000002432046719
 40
0.0000002432046719
 40
0.0000002432046719
 40
0.0000002432046719
 40
0.0014006019039539
 40
0.0014006019039539
 40
0.0014006019039539
 40
0.0014006019039539
 10
105.9454002577774
 20
98.9644535259321
 30
0.0
 10
106.3292597852563
 20
99.11082703773535
 30
0.0
 10
106.7126131852124
 20
99.25898423965276
 30
0.0
 10
107.0954002577773
 20
99.40905576762852
 30
0.0
  0
LINE
  5
180
330
1F
100
AcDbEntity
  8
0
  6
HIDDEN
 62
     7
370
     0
100
AcDbLine
 10
105.9454002578
 20
97.2205462037
 30
0.0
 11
105.9454002578
 21
98.9644535259
 31
0.0
  0
SPLINE
  5
181
330
1F
100
AcDbEntity
  8
0
  6
HIDDEN
 62
     7
370
     0
100
AcDbSpline
210
0.0
220
0.0
230
1.0
 70
     8
 71
     3
 72
     8
 73
     4
 74
     0
 42
0.00000001
 43
0.00000001
 40
0.0000002438860712
 40
0.0000002438860712
 40
0.0000002438860712
 40
0.0000002438860712
 40
0.0014006025853533
 40
0.0014006025853533
 40
0.0014006025853533
 40
0.0014006025853533
 10
107.0954002577773
 20
131.0120366396919
 30
0.0
 10
106.7126131852124
 20
131.1621081676676
 30
0.0
 10
106.3292597852563
 20
131.3102653695851
 30
0.0
 10
105.9454002577774
 20
131.4566388813883
 30
0.0
  0
LINE
  5
182
330
1F
100
AcDbEntity
  8
0
  6
HIDDEN
 62
     7
370
     0
100
AcDbLine
 10
105.9454002578
 20
133.2005462037
 30
0.0
 11
105.9454002578
 21
131.4566388814
 31
0.0
  0
LINE
  5
183
330
1F
100
AcDbEntity
  8
0
  6
HIDDEN
 62
     7
370
     0
100
AcDbLine
 10
107.0954002578
 20
97.2205462037
 30
0.0
 11
107.0954002578
 21
99.4090557676
 31
0.0
  0
LINE
  5
184
330
1F
100
AcDbEntity
  8
0
  6
HIDDEN
 62
     7
370
     0
100
AcDbLine
 10
116.0454002578
 20
97.2205462037
 30
0.0
 11
116.0454002578
 21
98.9230325813
 31
0.0
  0
LINE
  5
185
330
1F
100
AcDbEntity
  8
0
  6
HIDDEN
 62
     7
370
     0
100
AcDbLine
 10
112.0454002578
 20
133.2005462037
 30
0.0
 11
112.0454002578
 21
131.4980598261
 31
0.0
  0
LINE
  5
186
330
1F
100
AcDbEntity
  8
0
  6
HIDDEN
 62
     7
370
     0
100
AcDbLine
 10
107.0954002578
 20
133.2005462037
 30
0.0
 11
107.0954002578
 21
131.0120366397
 31
0.0
  0
SPLINE
  5
187
330
1F
100
AcDbEntity
  8
0
  6
HIDDEN
 62
     7
370
     0
100
AcDbSpline
210
0.0
220
0.0
230
1.0
 70
    11
 71
     3
 72
    34
 73
    30
 74
     0
 42
0.00000001
 43
0.00000001
 40
0.0
 40
0.0
 40
0.0
 40
0.0
 40
0.0127738756313379
 40
0.0481305018861323
 40
0.0807425016923963
 40
0.137589091362688
 40
0.1884518731192233
 40
0.2226712138150648
 40
0.2626938372949148
 40
0.2986558359810538
 40
0.3315197765429492
 40
0.3878459718944505
 40
0.3881259547070394
 40
0.4440926113325822
 40
0.4768435653244632
 40
0.5126448960710602
 40
0.5530084671478315
 40
0.5873855940016046
 40
0.6380121006395925
 40
0.6949796268749278
 40
0.7275539945508005
 40
0.7628079420081014
 40
0.8028703493977706
 40
0.837083156337814
 40
0.8877749825785588
 40
0.8880089190148163
 40
0.9388397946263363
 40
0.9729712758707716
 40
1.0
 40
1.0
 40
1.0
 40
1.0
 10
126.0054121702659
 20
92.14288434712111
 30
0.0
 10
126.0646058228287
 20
92.14897325092464
 30
0.0
 10
126.2876407331834
 20
92.1719155438088
 30
0.0
 10
126.8109931799607
 20
92.20856029561644
 30
0.0
 10
127.6837566384265
 20
92.23624432565039
 30
0.0
 10
128.7985946078682
 20
92.22568872880197
 30
0.0
 10
129.9116597541744
 20
92.10954370499798
 30
0.0
 10
130.8061019111601
 20
91.98795274601387
 30
0.0
 10
131.4899342498581
 20
91.86619483662207
 30
0.0
 10
132.0306935370473
 20
91.74983362104722
 30
0.0
 10
132.444088009523
 20
91.65636103912519
 30
0.0
 10
132.6722502303044
 20
91.58972293779024
 30
0.0
 10
132.5178731247443
 20
91.6309433636016
 30
0.0
 10
132.4909950504579
 20
91.64341973726923
 30
0.0
 10
132.0350711074539
 20
91.74900119545538
 30
0.0
 10
131.5111379255012
 20
91.86174967654095
 30
0.0
 10
130.8249310372566
 20
91.98484777148322
 30
0.0
 10
129.9318174729603
 20
92.10683915865336
 30
0.0
 10
128.8183811925203
 20
92.22459169934835
 30
0.0
 10
127.7076306662306
 20
92.23656228710075
 30
0.0
 10
126.8228781510879
 20
92.2095047377344
 30
0.0
 10
126.1556841748361
 20
92.16157266386675
 30
0.0
 10
125.614404351648
 20
92.10527847087994
 30
0.0
 10
125.2268512695194
 20
92.06019834785249
 30
0.0
 10
125.0328241722156
 20
92.02131570877948
 30
0.0
 10
125.1590514709584
 20
92.04272250907552
 30
0.0
 10
125.1882105064769
 20
92.05264381797826
 30
0.0
 10
125.5597912446928
 20
92.100273646965
 30
0.0
 10
125.8688353331117
 20
92.12982473900516
 30
0.0
 10
126.0054121702659
 20
92.14288434712111
 30
0.0
  0
SPLINE
  5
188
330
1F
100
AcDbEntity
  8
0
  6
HIDDEN
 62
     7
370
     0
100
AcDbSpline
210
0.0
220
0.0
230
1.0
 70
     8
 71
     3
 72
    38
 73
    34
 74
     0
 42
0.00000001
 43
0.00000001
 40
-0.0939221400677789
 40
-0.065775259775378
 40
-0.0344739496007944
 40
0.0
 40
0.0323124298479835
 40
0.0609695982577461
 40
0.0859698687835549
 40
0.1073131755946561
 40
0.125001929016961
 40
0.1562358721977444
 40
0.1978507372990771
 40
0.2498168793248351
 40
0.2782629480307221
 40
0.3049884159832859
 40
0.330004216891384
 40
0.3533239044418167
 40
0.3749644360933808
 40
0.406026783832292
 40
0.4476555976010197
 40
0.4998320869201297
 40
0.5286685248934815
 40
0.5555536435543464
 40
0.5805015705746597
 40
0.6035302879119624
 40
0.62466296934292
 40
0.6685312637103242
 40
0.7183269153555463
 40
0.7652375706113131
 40
0.7915712044406463
 40
0.812293703571044
 40
0.8615656629637487
 40
0.9060778599322211
 40
0.934224740224622
 40
0.9655260503992056
 40
1.0
 40
1.032312429847984
 40
1.060969598257746
 40
1.085969868783555
 10
126.7856654219587
 20
138.2135502296877
 30
0.0
 10
126.1815972034494
 20
138.2580837349035
 30
0.0
 10
125.7062821406032
 20
138.3061591211365
 30
0.0
 10
125.3866833146033
 20
138.3423218604024
 30
0.0
 10
125.1996889088894
 20
138.3687119945908
 30
0.0
 10
125.111383249337
 20
138.3847816043881
 30
0.0
 10
125.0819697534677
 20
138.392605289638
 30
0.0
 10
125.1541018235365
 20
138.3744377910543
 30
0.0
 10
125.475213825731
 20
138.3298312110916
 30
0.0
 10
126.0472413159456
 20
138.2690926824209
 30
0.0
 10
126.6977736637019
 20
138.219748519401
 30
0.0
 10
127.2476497924433
 20
138.1973860589216
 30
0.0
 10
127.8030876582214
 20
138.1889038490171
 30
0.0
 10
128.343863205858
 20
138.1953549351656
 30
0.0
 10
128.9417931006572
 20
138.2188333117674
 30
0.0
 10
129.6814589578242
 20
138.2857531826046
 30
0.0
 10
130.6135085910971
 20
138.4018546165397
 30
0.0
 10
131.4028453247707
 20
138.537169501131
 30
0.0
 10
131.9417750126081
 20
138.6522813251982
 30
0.0
 10
132.255879352504
 20
138.7220554017492
 30
0.0
 10
132.4611597208698
 20
138.7726154872451
 30
0.0
 10
132.5722297069607
 20
138.8032936271518
 30
0.0
 10
132.6185012087647
 20
138.818020644408
 30
0.0
 10
132.4925363404184
 20
138.7801610508207
 30
0.0
 10
132.0222908115453
 20
138.6696752663946
 30
0.0
 10
131.3690928479567
 20
138.5299710480184
 30
0.0
 10
130.7650738924407
 20
138.4268444418731
 30
0.0
 10
130.0907358428024
 20
138.3274084161036
 30
0.0
 10
129.205386359815
 20
138.2339380818281
 30
0.0
 10
128.2359074692027
 20
138.1869295757554
 30
0.0
 10
127.4475718919357
 20
138.1906137908559
 30
0.0
 10
126.7856654219587
 20
138.2135502296877
 30
0.0
 10
126.1815972034494
 20
138.2580837349035
 30
0.0
 10
125.7062821406032
 20
138.3061591211365
 30
0.0
  0
CIRCLE
  5
189
330
1F
100
AcDbEntity
  8
0
  6
HIDDEN
 62
     7
370
     0
100
AcDbCircle
 10
266.5045376912
 20
106.9783262399
 30
0.0
 40
3.482075844718125
  0
LINE
  5
18A
330
1F
100
AcDbEntity
  8
0
  6
HIDDEN
 62
     7
370
     0
100
AcDbLine
 10
238.8454002578
 20
119.4105462037
 30
0.0
 11
238.8454002578
 21
111.0105462037
 31
0.0
  0
SPLINE
  5
18B
330
1F
100
AcDbEntity
  8
0
  6
HIDDEN
 62
     7
370
     0
100
AcDbSpline
210
0.0
220
0.0
230
1.0
 70
     8
 71
     3
 72
    62
 73
    58
 74
     0
 42
0.00000001
 43
0.00000001
 40
-0.0312500000000013
 40
-0.0312500000000013
 40
0.0
 40
0.0
 40
0.03125
 40
0.03125
 40
0.0625
 40
0.0625
 40
0.1249999999999971
 40
0.1249999999999971
 40
0.1874999999999943
 40
0.1874999999999943
 40
0.2187499999999935
 40
0.2187499999999935
 40
0.2499999999999928
 40
0.2499999999999928
 40
0.281249999999992
 40
0.281249999999992
 40
0.3124999999999912
 40
0.3124999999999912
 40
0.3437499999999905
 40
0.3437499999999905
 40
0.3749999999999897
 40
0.3749999999999897
 40
0.4374999999999902
 40
0.4374999999999902
 40
0.4687499999999906
 40
0.4687499999999906
 40
0.4999999999999909
 40
0.4999999999999909
 40
0.5312499999999912
 40
0.5312499999999912
 40
0.5624999999999916
 40
0.5624999999999916
 40
0.5937499999999919
 40
0.5937499999999919
 40
0.6249999999999922
 40
0.6249999999999922
 40
0.6562499999999926
 40
0.6562499999999926
 40
0.6874999999999929
 40
0.6874999999999929
 40
0.7187499999999932
 40
0.7187499999999932
 40
0.7499999999999936
 40
0.7499999999999936
 40
0.7812499999999938
 40
0.7812499999999938
 40
0.8124999999999941
 40
0.8124999999999941
 40
0.8749999999999947
 40
0.8749999999999947
 40
0.906249999999996
 40
0.906249999999996
 40
0.9374999999999973
 40
0.9374999999999973
 40
0.9687499999999987
 40
0.9687499999999987
 40
1.0
 40
1.0
 40
1.03125
 40
1.03125
 10
235.9866626750644
 20
118.331754470665
 30
0.0
 10
235.7041378404905
 20
118.331754470665
 30
0.0
 10
235.5658148094394
 20
118.3208892767501
 30
0.0
 10
235.2945868637473
 20
118.278366951002
 30
0.0
 10
235.1603764975789
 20
118.2461201363873
 30
0.0
 10
234.7813969898746
 20
118.120637998843
 30
0.0
 10
234.5525204294149
 20
117.9966851476029
 30
0.0
 10
234.1716275772636
 20
117.6796591946522
 30
0.0
 10
234.0160295043966
 20
117.4829908880934
 30
0.0
 10
233.8568834588747
 20
117.1465783729977
 30
0.0
 10
233.8151180679245
 20
117.0249282891675
 30
0.0
 10
233.7597996541144
 20
116.774439906629
 30
0.0
 10
233.7456938266438
 20
116.6454562071077
 30
0.0
 10
233.7451156685889
 20
116.3796374907175
 30
0.0
 10
233.7591067175319
 20
116.2430579395495
 30
0.0
 10
233.8136051464085
 20
115.9761772161302
 30
0.0
 10
233.8544954853566
 20
115.8429932608481
 30
0.0
 10
233.961103485033
 20
115.5848957295362
 30
0.0
 10
234.0258510321117
 20
115.4616653722797
 30
0.0
 10
234.177411907739
 20
115.2266169416292
 30
0.0
 10
234.2646985048786
 20
115.1146970304144
 30
0.0
 10
234.5503124593251
 20
114.8094823010558
 30
0.0
 10
234.7796986543761
 20
114.6390547533862
 30
0.0
 10
235.1559173240295
 20
114.4629905898513
 30
0.0
 10
235.2883883790802
 20
114.4165954516014
 30
0.0
 10
235.5623433555321
 20
114.3536954707938
 30
0.0
 10
235.7003840188344
 20
114.3377684752206
 30
0.0
 10
235.9786015908155
 20
114.3368844988589
 30
0.0
 10
236.1204109495801
 20
114.3525458877681
 30
0.0
 10
236.3928675169112
 20
114.4137498452487
 30
0.0
 10
236.5247332479863
 20
114.4589141128676
 30
0.0
 10
236.7802496681069
 20
114.5771844646352
 30
0.0
 10
236.900236427747
 20
114.6486034593016
 30
0.0
 10
237.1253824250674
 20
114.8130663341964
 30
0.0
 10
237.2315091894512
 20
114.9072385571726
 30
0.0
 10
237.4228358371432
 20
115.1107367611959
 30
0.0
 10
237.5087721836766
 20
115.2203216941441
 30
0.0
 10
237.6612691448952
 20
115.4551394552898
 30
0.0
 10
237.7274142081236
 20
115.5804286842297
 30
0.0
 10
237.8336346433194
 20
115.8355170642315
 30
0.0
 10
237.874675255148
 20
115.9666475331508
 30
0.0
 10
237.9308618430967
 20
116.236336859758
 30
0.0
 10
237.9450794146609
 20
116.3715161604833
 30
0.0
 10
237.9457103063467
 20
116.6362610920211
 30
0.0
 10
237.9319219245467
 20
116.7683719615311
 30
0.0
 10
237.8770783528029
 20
117.0204267620313
 30
0.0
 10
237.8365771707481
 20
117.1398909864924
 30
0.0
 10
237.6769879720648
 20
117.4803597065338
 30
0.0
 10
237.5222201383859
 20
117.6767710619678
 30
0.0
 10
237.2342404245053
 20
117.9169890090087
 30
0.0
 10
237.1302915019523
 20
117.9871200233974
 30
0.0
 10
236.9058803040612
 20
118.109511085798
 30
0.0
 10
236.7839497500127
 20
118.1621083638398
 30
0.0
 10
236.5317072965538
 20
118.2457627065635
 30
0.0
 10
236.4008301228646
 20
118.2774163579936
 30
0.0
 10
236.1286237744846
 20
118.3205389729203
 30
0.0
 10
235.9866626750644
 20
118.331754470665
 30
0.0
 10
235.7041378404905
 20
118.331754470665
 30
0.0
  0
LINE
  5
18C
330
1F
100
AcDbEntity
  8
0
  6
HIDDEN
 62
     7
370
     0
100
AcDbLine
 10
159.6454002578
 20
111.0105462037
 30
0.0
 11
159.6454002578
 21
119.3859256237
 31
0.0
  0
CIRCLE
  5
18D
330
1F
100
AcDbEntity
  8
0
  6
HIDDEN
 62
     7
370
     0
100
AcDbCircle
 10
266.0781245325
 20
107.542958497
 30
0.0
 40
3.482075844718224
  0
ARC
  5
18E
330
1F
100
AcDbEntity
  8
0
  6
HIDDEN
 62
     7
370
     0
100
AcDbCircle
 10
262.8050984827
 20
100.1961980112
 30
0.0
 40
2.346789875630841
100
AcDbArc
 50
85.4146489326
 51
226.4660359462
  0
LINE
  5
18F
330
1F
100
AcDbEntity
  8
0
  6
HIDDEN
 62
     7
370
     0
100
AcDbLine
 10
275.2016239824
 20
101.6504919308
 30
0.0
 11
275.6929077598
 21
100.9999616589
 31
0.0
  0
LINE
  5
190
330
1F
100
AcDbEntity
  8
0
  6
HIDDEN
 62
     7
370
     0
100
AcDbLine
 10
272.7307322851
 20
110.0563145228
 30
0.0
 11
275.181674252
 21
106.8109153916
 31
0.0
  0
LINE
  5
191
330
1F
100
AcDbEntity
  8
0
  6
HIDDEN
 62
     7
370
     0
100
AcDbLine
 10
263.8702202273
 20
98.1844816149
 30
0.0
 11
264.0776684022
 21
98.1694443668
 31
0.0
  0
LINE
  5
192
330
1F
100
AcDbEntity
  8
0
  6
HIDDEN
 62
     7
370
     0
100
AcDbLine
 10
264.0776684022
 20
98.1694443668
 30
0.0
 11
264.3849820842
 21
97.7625169201
 31
0.0
  0
LINE
  5
193
330
1F
100
AcDbEntity
  8
0
  6
HIDDEN
 62
     7
370
     0
100
AcDbLine
 10
264.3849820842
 20
97.7625169201
 30
0.0
 11
263.9042781002
 21
97.7973615991
 31
0.0
  0
ELLIPSE
  5
194
330
1F
100
AcDbEntity
  8
0
  6
HIDDEN
 62
     7
370
     0
100
AcDbEllipse
 10
262.3653919912
 20
114.9477742645
 30
0.0
 11
-2.521159715942985
 21
24.57077231890479
 31
0.0
210
0.0
220
0.0
230
0.9999999999999998
 40
0.0908883341
 41
2.986842517334834
 42
3.122510526928771
  0
LINE
  5
195
330
1F
100
AcDbEntity
  8
0
  6
HIDDEN
 62
     7
370
     0
100
AcDbLine
 10
265.0160013448
 20
90.5900141943
 30
0.0
 11
264.5122142437
 21
90.6353021535
 31
0.0
  0
ELLIPSE
  5
196
330
1F
100
AcDbEntity
  8
0
  6
HIDDEN
 62
     7
370
     0
100
AcDbEllipse
 10
262.8701713239
 20
114.9472069252
 30
0.0
 11
-2.526603040320083
 21
24.62382198612029
 31
0.0
210
0.0
220
0.0
230
1.0
 40
0.0908883341
 41
2.865677183310034
 42
2.984680675785211
  0
SPLINE
  5
197
330
1F
100
AcDbEntity
  8
0
  6
HIDDEN
 62
     7
370
     0
100
AcDbSpline
210
0.0
220
0.0
230
1.0
 70
     8
 71
     3
 72
     8
 73
     4
 74
     0
 42
0.00000001
 43
0.00000001
 40
0.0
 40
0.0
 40
0.0
 40
0.0
 40
1.0
 40
1.0
 40
1.0
 40
1.0
 10
275.1004328288023
 20
90.39722195488797
 30
0.0
 10
271.6302515909613
 20
90.65635574333115
 30
0.0
 10
268.1605898840081
 20
90.92112029379764
 30
0.0
 10
264.6915100637026
 20
91.19219142837098
 30
0.0
  0
SPLINE
  5
198
330
1F
100
AcDbEntity
  8
0
  6
HIDDEN
 62
     7
370
     0
100
AcDbSpline
210
0.0
220
0.0
230
1.0
 70
     8
 71
     3
 72
    31
 73
    27
 74
     0
 42
0.00000001
 43
0.00000001
 40
0.0
 40
0.0
 40
0.0
 40
0.0
 40
0.0312058637747624
 40
0.0624202211330121
 40
0.0936430725863915
 40
0.1248744186465285
 40
0.1561142598250364
 40
0.1873625966335092
 40
0.2186194295835325
 40
0.2498847591866704
 40
0.2811585859544748
 40
0.312440910398481
 40
0.3437317330302105
 40
0.3750310543611689
 40
0.4063388749028462
 40
0.4376551951667173
 40
0.4689800156642436
 40
0.5003133369068681
 40
0.5646971931479945
 40
0.6285338980263097
 40
0.6918222734516959
 40
0.7545611700250248
 40
0.8167494673175317
 40
0.8783860741626784
 40
0.9394699289611851
 40
1.0
 40
1.0
 40
1.0
 40
1.0
 10
273.0120934356156
 20
99.72420524212863
 30
0.0
 10
273.0345860821395
 20
99.58815365616957
 30
0.0
 10
273.0795774972151
 20
99.31601345385508
 30
0.0
 10
273.147055428743
 20
98.9154522331976
 30
0.0
 10
273.214538277
 20
98.52062319050847
 30
0.0
 10
273.2820247217739
 20
98.13222627793857
 30
0.0
 10
273.3495151169066
 20
97.75027185408928
 30
0.0
 10
273.4170093677421
 20
97.3749520383143
 30
0.0
 10
273.4845074989279
 20
97.006407058609
 30
0.0
 10
273.5520095065673
 20
96.64478780734467
 30
0.0
 10
273.6195153815862
 20
96.29023899632672
 30
0.0
 10
273.6870251641954
 20
95.94290360038383
 30
0.0
 10
273.7545387025673
 20
95.60292158356302
 30
0.0
 10
273.8220565640167
 20
95.270430204467
 30
0.0
 10
273.889576630311
 20
94.94556373077978
 30
0.0
 10
273.9571068100545
 20
94.62845394398609
 30
0.0
 10
274.0246175759069
 20
94.31922807986636
 30
0.0
 10
274.1159818831584
 20
93.91213693348703
 30
0.0
 10
274.2298488220424
 20
93.42211790546077
 30
0.0
 10
274.3641877564733
 20
92.86923141953761
 30
0.0
 10
274.4952577960781
 20
92.35662601278713
 30
0.0
 10
274.6229926815051
 20
91.88429357063748
 30
0.0
 10
274.7474245496828
 20
91.45180936363043
 30
0.0
 10
274.8684911178021
 20
91.05981961484794
 30
0.0
 10
274.9864069259935
 20
90.70462725454426
 30
0.0
 10
275.0627410287012
 20
90.49936495249817
 30
0.0
 10
275.1007342817582
 20
90.3972011448676
 30
0.0
  0
SPLINE
  5
199
330
1F
100
AcDbEntity
  8
0
  6
HIDDEN
 62
     7
370
     0
100
AcDbSpline
210
0.0
220
0.0
230
1.0
 70
     8
 71
     3
 72
     8
 73
     4
 74
     0
 42
0.00000001
 43
0.00000001
 40
0.0
 40
0.0
 40
0.0
 40
0.0
 40
1.0
 40
1.0
 40
1.0
 40
1.0
 10
255.71991840809
 20
102.9736096217703
 30
0.0
 10
261.4673421636957
 20
101.7950397328098
 30
0.0
 10
267.2347034350083
 20
100.7315344749724
 30
0.0
 10
273.0117959463399
 20
99.72419075499344
 30
0.0
  0
LWPOLYLINE
  5
19A
330
1F
100
AcDbEntity
  8
0
  6
HIDDEN
 62
     7
370
     0
100
AcDbPolyline
 90
        2
 70
   128
 43
0.0
 10
142.7954002578
 20
88.8105462037
 10
142.7954002578
 20
88.8105462037
  0
ELLIPSE
  5
19B
330
1F
100
AcDbEntity
  8
0
  6
HIDDEN
 62
     7
370
     0
100
AcDbEllipse
 10
267.5745450932
 20
102.9100872701
 30
0.0
 11
-0.9382876123696064
 21
2.751666891553299
 31
0.0
210
0.0
220
0.0
230
0.9999999999999999
 40
0.8587453104
 41
1.51253306044827
 42
1.59822225587691
  0
ELLIPSE
  5
19C
330
1F
100
AcDbEntity
  8
0
  6
HIDDEN
 62
     7
370
     0
100
AcDbEllipse
 10
268.0358945785
 20
101.8671734311
 30
0.0
 11
2.967222170038042
 21
-0.5785035440251675
 31
0.0
210
0.0
220
0.0
230
0.9999999999999999
 40
0.1845741307
 41
3.430111266355981
 42
4.018063484422689
  0
ELLIPSE
  5
19D
330
1F
100
AcDbEntity
  8
0
  6
HIDDEN
 62
     7
370
     0
100
AcDbEllipse
 10
268.5067473557
 20
100.8027767144
 30
0.0
 11
-0.9382876123696634
 21
2.751666891553298
 31
0.0
210
0.0
220
0.0
230
1.0
 40
0.8587453104
 41
0.7360393123552063
 42
0.9245808423815632
  0
ELLIPSE
  5
19E
330
1F
100
AcDbEntity
  8
0
  6
HIDDEN
 62
     7
370
     0
100
AcDbEllipse
 10
268.5067473557
 20
100.8027767144
 30
0.0
 11
-0.9382876123696634
 21
2.751666891553298
 31
0.0
210
0.0
220
0.0
230
1.0
 40
0.8587453104
 41
4.739814909466745
 42
4.848839927572591
  0
SPLINE
  5
19F
330
1F
100
AcDbEntity
  8
0
  6
HIDDEN
 62
     7
370
     0
100
AcDbSpline
210
0.0
220
0.0
230
1.0
 70
     8
 71
     3
 72
    22
 73
    18
 74
     0
 42
0.00000001
 43
0.00000001
 40
0.0
 40
0.0
 40
0.0
 40
0.0
 40
0.1250000000000006
 40
0.1250000000000006
 40
0.2500000000000012
 40
0.2500000000000012
 40
0.5000000000000027
 40
0.5000000000000027
 40
0.6250000000000036
 40
0.6250000000000036
 40
0.7500000000000046
 40
0.7500000000000046
 40
0.8750000000000054
 40
0.8750000000000054
 40
0.9375000000000027
 40
0.9375000000000027
 40
1.0
 40
1.0
 40
1.0
 40
1.0
 10
268.8426348151893
 20
106.2058990441794
 30
0.0
 10
268.8719731054964
 20
106.1670509346948
 30
0.0
 10
268.8924110141598
 20
106.1146452263131
 30
0.0
 10
268.9192230252497
 20
105.9899120909877
 30
0.0
 10
268.9255058540925
 20
105.9172851098669
 30
0.0
 10
268.9240431328935
 20
105.6786528865025
 30
0.0
 10
268.8973763226516
 20
105.492123875078
 30
0.0
 10
268.8060508385897
 20
105.1818863660554
 30
0.0
 10
268.7668607799896
 20
105.0732232750378
 30
0.0
 10
268.6634011500389
 20
104.8446627777492
 30
0.0
 10
268.5992701763975
 20
104.7247307260077
 30
0.0
 10
268.4322958864219
 20
104.4754861304316
 30
0.0
 10
268.3297078372457
 20
104.3452825134911
 30
0.0
 10
268.1220236645589
 20
104.1458550582716
 30
0.0
 10
268.0425326687093
 20
104.0776786981341
 30
0.0
 10
267.8550883115445
 20
103.9423233581448
 30
0.0
 10
267.7477426879929
 20
103.875680421728
 30
0.0
 10
267.6239336837907
 20
103.8147361893082
 30
0.0
  0
SPLINE
  5
1A0
330
1F
100
AcDbEntity
  8
0
  6
HIDDEN
 62
     7
370
     0
100
AcDbSpline
210
0.0
220
0.0
230
1.0
 70
     8
 71
     3
 72
     8
 73
     4
 74
     0
 42
0.00000001
 43
0.00000001
 40
0.0
 40
0.0
 40
0.0
 40
0.0
 40
1.0
 40
1.0
 40
1.0
 40
1.0
 10
267.6239336837905
 20
103.8147361893082
 30
0.0
 10
267.4809172118174
 20
103.7689537358915
 30
0.0
 10
267.3402944868361
 20
103.715903671216
 30
0.0
 10
267.2020395666249
 20
103.6556647579838
 30
0.0
  0
SPLINE
  5
1A1
330
1F
100
AcDbEntity
  8
0
  6
HIDDEN
 62
     7
370
     0
100
AcDbSpline
210
0.0
220
0.0
230
1.0
 70
     8
 71
     3
 72
    22
 73
    18
 74
     0
 42
0.00000001
 43
0.00000001
 40
0.0
 40
0.0
 40
0.0
 40
0.0
 40
0.0625000000000007
 40
0.0625000000000007
 40
0.1250000000000015
 40
0.1250000000000015
 40
0.1875000000000022
 40
0.1875000000000022
 40
0.2500000000000029
 40
0.2500000000000029
 40
0.3750000000000043
 40
0.3750000000000043
 40
0.5000000000000057
 40
0.5000000000000057
 40
0.7500000000000028
 40
0.7500000000000028
 40
1.0
 40
1.0
 40
1.0
 40
1.0
 10
267.2020395666249
 20
103.6556647579838
 30
0.0
 10
267.0649591525303
 20
103.6183149533797
 30
0.0
 10
266.9363975181238
 20
103.5956327111144
 30
0.0
 10
266.6897451184112
 20
103.5678425325408
 30
0.0
 10
266.5771256723349
 20
103.5633967844085
 30
0.0
 10
266.3650755461724
 20
103.5650612076543
 30
0.0
 10
266.2651897455025
 20
103.571413502694
 30
0.0
 10
266.0787484672169
 20
103.590698325929
 30
0.0
 10
265.9916288153671
 20
103.6036481405181
 30
0.0
 10
265.7432494388475
 20
103.6489897516083
 30
0.0
 10
265.5947375907336
 20
103.6877451500619
 30
0.0
 10
265.3198831618599
 20
103.7737538718719
 30
0.0
 10
265.1938285449997
 20
103.8212228690607
 30
0.0
 10
264.848224358366
 20
103.967747352829
 30
0.0
 10
264.6574029904659
 20
104.0717103076718
 30
0.0
 10
264.3486325589942
 20
104.2702099556674
 30
0.0
 10
264.2293511281584
 20
104.3653816999252
 30
0.0
 10
264.1699103837484
 20
104.4440897814976
 30
0.0
  0
ELLIPSE
  5
1A2
330
1F
100
AcDbEntity
  8
0
  6
HIDDEN
 62
     7
370
     0
100
AcDbEllipse
 10
267.7559526882
 20
102.5000022969
 30
0.0
 11
2.967222170038099
 21
-0.5785035440251676
 31
0.0
210
0.0
220
0.0
230
0.9999999999999998
 40
0.1845741307
 41
4.206605014449027
 42
6.37698970641122
  0
LINE
  5
1A3
330
1F
100
AcDbEntity
  8
0
  6
HIDDEN
 62
     7
370
     0
100
AcDbLine
 10
142.7954002578
 20
83.7264232208
 30
0.0
 11
142.7954002578
 21
88.8105462037
 31
0.0
  0
LINE
  5
1A4
330
1F
100
AcDbEntity
  8
0
  6
HIDDEN
 62
     7
370
     0
100
AcDbLine
 10
142.7954002578
 20
88.8105462037
 30
0.0
 11
150.7954002578
 21
88.8105462037
 31
0.0
  0
LINE
  5
1A5
330
1F
100
AcDbEntity
  8
0
  6
HIDDEN
 62
     7
370
     0
100
AcDbLine
 10
268.8426348152
 20
106.2058990442
 30
0.0
 11
268.5449962806
 21
106.6000152063
 31
0.0
  0
ELLIPSE
  5
1A6
330
1F
100
AcDbEntity
  8
0
  6
HIDDEN
 62
     7
370
     0
100
AcDbEllipse
 10
265.2811086401
 20
108.5509394894
 30
0.0
 11
3.671213746604337
 21
2.058398841174096
 31
0.0
210
0.0
220
0.0
230
1.0
 40
0.8772799171
 41
3.9037132825882
 42
5.178837123826587
  0
LINE
  5
1A7
330
1F
100
AcDbEntity
  8
0
  6
HIDDEN
 62
     7
370
     0
100
AcDbLine
 10
263.8722718491
 20
104.8382059436
 30
0.0
 11
264.1699103838
 21
104.4440897815
 31
0.0
  0
ELLIPSE
  5
1A8
330
1F
100
AcDbEntity
  8
0
  6
HIDDEN
 62
     7
370
     0
100
AcDbEllipse
 10
263.9587378836
 20
110.3019482697
 30
0.0
 11
-2.570105550204858
 21
3.40318882785725
 31
0.0
210
0.0
220
0.0
230
1.0
 40
0.9848432766
 41
0.0
 42
6.283185307179586
  0
ARC
  5
1A9
330
1F
100
AcDbEntity
  8
0
  6
HIDDEN
 62
     7
370
     0
100
AcDbCircle
 10
265.9416706661
 20
107.6374696773
 30
0.0
 40
4.176517709843222
100
AcDbArc
 50
293.7527628135
 51
287.5642488383
  0
ARC
  5
1AA
330
1F
100
AcDbEntity
  8
0
  6
HIDDEN
 62
     7
370
     0
100
AcDbCircle
 10
262.7844953469
 20
99.9466490768
 30
0.0
 40
2.101421711171652
100
AcDbArc
 50
85.4999922629
 51
216.3295976812
  0
LINE
  5
1AB
330
1F
100
AcDbEntity
  8
0
  6
HIDDEN
 62
     7
370
     0
100
AcDbLine
 10
262.949371277
 20
102.0415927839
 30
0.0
 11
266.0552099117
 21
101.8164605743
 31
0.0
  0
LINE
  5
1AC
330
1F
100
AcDbEntity
  8
0
  6
HIDDEN
 62
     7
370
     0
100
AcDbLine
 10
266.2249453427
 20
102.3011823672
 30
0.0
 11
262.9927104242
 21
102.535476635
 31
0.0
  0
ARC
  5
1AD
330
1F
100
AcDbEntity
  8
0
  6
HIDDEN
 62
     7
370
     0
100
AcDbCircle
 10
262.4741289984
 20
100.3585562972
 30
0.0
 40
2.096699610448926
100
AcDbArc
 50
85.4061534462
 51
227.4856038908
  0
LINE
  5
1AE
330
1F
100
AcDbEntity
  8
0
  6
HIDDEN
 62
     7
370
     0
100
AcDbLine
 10
265.0160013448
 20
90.5900141943
 30
0.0
 11
264.3849820842
 21
97.7625169201
 31
0.0
  0
LINE
  5
1AF
330
1F
100
AcDbEntity
  8
0
  6
HIDDEN
 62
     7
370
     0
100
AcDbLine
 10
263.8819715035
 20
97.7989785322
 30
0.0
 11
264.5122142437
 21
90.6353021535
 31
0.0
  0
LINE
  5
1B0
330
1F
100
AcDbEntity
  8
0
  6
HIDDEN
 62
     7
370
     0
100
AcDbLine
 10
270.9240124019
 20
101.46353681
 30
0.0
 11
270.8431095714
 21
101.6836813457
 31
0.0
  0
LINE
  5
1B1
330
1F
100
AcDbEntity
  8
0
  6
HIDDEN
 62
     7
370
     0
100
AcDbLine
 10
270.9240124019
 20
101.46353681
 30
0.0
 11
275.2456317059
 21
101.1502765872
 31
0.0
  0
LINE
  5
1B2
330
1F
100
AcDbEntity
  8
0
  6
HIDDEN
 62
     7
370
     0
100
AcDbLine
 10
275.2456317059
 20
101.1502765872
 30
0.0
 11
275.2016239824
 21
101.6504919308
 31
0.0
  0
LINE
  5
1B3
330
1F
100
AcDbEntity
  8
0
  6
HIDDEN
 62
     7
370
     0
100
AcDbLine
 10
275.2016239824
 20
101.6504919308
 30
0.0
 11
270.7201311904
 21
101.9753408663
 31
0.0
  0
LINE
  5
1B4
330
1F
100
AcDbEntity
  8
0
  6
HIDDEN
 62
     7
370
     0
100
AcDbLine
 10
270.6166987199
 20
101.8704642567
 30
0.0
 11
270.9240124019
 21
101.46353681
 31
0.0
  0
LINE
  5
1B5
330
1F
100
AcDbEntity
  8
0
  6
HIDDEN
 62
     7
370
     0
100
AcDbLine
 10
271.7212762903
 20
98.8648003643
 30
0.0
 11
270.6166987199
 21
101.8704642567
 31
0.0
  0
LINE
  5
1B6
330
1F
100
AcDbEntity
  8
0
  6
HIDDEN
 62
     7
370
     0
100
AcDbLine
 10
271.4280754793
 20
99.2530403431
 30
0.0
 11
271.7212762903
 21
98.8648003643
 31
0.0
  0
LINE
  5
1B7
330
1F
100
AcDbEntity
  8
0
  6
HIDDEN
 62
     7
370
     0
100
AcDbLine
 10
269.5917291914
 20
103.4042337825
 30
0.0
 11
268.5449962806
 21
106.6000152063
 31
0.0
  0
LINE
  5
1B8
330
1F
100
AcDbEntity
  8
0
  6
HIDDEN
 62
     7
370
     0
100
AcDbLine
 10
274.9383180239
 20
101.5572040339
 30
0.0
 11
275.2456317059
 21
101.1502765872
 31
0.0
  0
LWPOLYLINE
  5
1B9
330
1F
100
AcDbEntity
  8
0
  6
HIDDEN
 62
     7
370
     0
100
AcDbPolyline
 90
       21
 70
   128
 43
0.0
 10
235.8454002578
 20
121.4597323521
 10
236.494335946
 20
121.361981512
 10
237.0797492876
 20
121.0782975249
 10
237.544335946
 20
120.6364493561
 10
237.842618942
 20
120.0796881828
 10
237.9454002578
 20
119.4625136679
 10
237.842618942
 20
118.845339153
 10
237.544335946
 20
118.2885779797
 10
237.0797492876
 20
117.8467298109
 10
236.494335946
 20
117.5630458238
 10
235.8454002578
 20
117.4652949837
 10
235.1964645696
 20
117.5630458238
 10
234.611051228
 20
117.8467298109
 10
234.1464645696
 20
118.2885779797
 10
233.8481815736
 20
118.845339153
 10
233.7454002578
 20
119.4625136679
 10
233.8481815736
 20
120.0796881828
 10
234.1464645696
 20
120.6364493561
 10
234.611051228
 20
121.0782975249
 10
235.1964645696
 20
121.361981512
 10
235.8454002578
 20
121.4597323521
  0
LINE
  5
1BA
330
1F
100
AcDbEntity
  8
0
  6
HIDDEN
 62
     7
370
     0
100
AcDbLine
 10
265.2381828774
 20
102.0291826387
 30
0.0
 11
267.0485518589
 21
97.1029911016
 31
0.0
  0
ARC
  5
1BB
330
1F
100
AcDbEntity
  8
0
  6
HIDDEN
 62
     7
370
     0
100
AcDbCircle
 10
270.0297105791
 20
96.1026405435
 30
0.0
 40
3.144520401339232
100
AcDbArc
 50
161.4504292288
 51
304.9179146518
  0
ARC
  5
1BC
330
1F
100
AcDbEntity
  8
0
  6
HIDDEN
 62
     7
370
     0
100
AcDbCircle
 10
270.0919182328
 20
96.1633323264
 30
0.0
 40
3.154795910948843
100
AcDbArc
 50
311.0344180055
 51
58.9042244483
  0
LINE
  5
1BD
330
1F
100
AcDbEntity
  8
0
  6
HIDDEN
 62
     7
370
     0
100
AcDbLine
 10
275.1005705702
 20
90.3949894822
 30
0.0
 11
275.8526178858
 21
91.165161829
 31
0.0
  0
LINE
  5
1BE
330
1F
100
AcDbEntity
  8
0
  6
HIDDEN
 62
     7
370
     0
100
AcDbLine
 10
274.9383180239
 20
101.5572040339
 30
0.0
 11
270.6166987199
 21
101.8704642567
 31
0.0
  0
LINE
  5
1BF
330
1F
100
AcDbEntity
  8
0
  6
HIDDEN
 62
     7
370
     0
100
AcDbLine
 10
264.0776684022
 20
98.1694443668
 30
0.0
 11
264.6915100637
 21
91.1921914284
 31
0.0
  0
LINE
  5
1C0
330
1F
100
AcDbEntity
  8
0
  6
HIDDEN
 62
     7
370
     0
100
AcDbLine
 10
265.16093684
 20
102.2659348111
 30
0.0
 11
262.642057595
 21
102.4485202306
 31
0.0
  0
LINE
  5
1C1
330
1F
100
AcDbEntity
  8
0
  6
HIDDEN
 62
     7
370
     0
100
AcDbLine
 10
275.8525813964
 20
91.1651971005
 30
0.0
 11
274.9383180239
 21
101.5572040339
 31
0.0
  0
LINE
  5
1C2
330
1F
100
AcDbEntity
  8
0
  6
HIDDEN
 62
     7
370
     0
100
AcDbLine
 10
112.0454002578
 20
133.2005462037
 30
0.0
 11
112.0454002578
 21
131.4980598261
 31
0.0
  0
LINE
  5
1C3
330
1F
100
AcDbEntity
  8
0
  6
HIDDEN
 62
     7
370
     0
100
AcDbLine
 10
116.0454002578
 20
97.2205462037
 30
0.0
 11
116.0454002578
 21
98.9230325813
 31
0.0
  0
LINE
  5
1C4
330
1F
100
AcDbEntity
  8
0
  6
HIDDEN
 62
     7
370
     0
100
AcDbLine
 10
116.0454002578
 20
97.2205462037
 30
0.0
 11
116.0454002578
 21
93.2653979444
 31
0.0
  0
LINE
  5
1C5
330
1F
100
AcDbEntity
  8
0
  6
HIDDEN
 62
     7
370
     0
100
AcDbLine
 10
112.0454002578
 20
133.2005462037
 30
0.0
 11
112.0454002578
 21
137.054653876
 31
0.0
  0
SPLINE
  5
1C6
330
1F
100
AcDbEntity
  8
0
  6
HIDDEN
 62
     7
370
     0
100
AcDbSpline
210
0.0
220
0.0
230
1.0
 70
     8
 71
     3
 72
    10
 73
     6
 74
     0
 42
0.00000001
 43
0.00000001
 40
0.0
 40
0.0
 40
0.0
 40
0.0
 40
0.5
 40
0.5
 40
1.0
 40
1.0
 40
1.0
 40
1.0
 10
266.6365136849385
 20
98.29369137817699
 30
0.0
 10
266.6276660899994
 20
98.11766873605289
 30
0.0
 10
266.6346198338841
 20
97.95525229987487
 30
0.0
 10
266.6740531640053
 20
97.67559476142884
 30
0.0
 10
266.7060429241394
 20
97.55652211715166
 30
0.0
 10
266.7553510479111
 20
97.49123108039647
 30
0.0
  0
ARC
  5
1C7
330
1F
100
AcDbEntity
  8
0
  6
HIDDEN
 62
     7
370
     0
100
AcDbCircle
 10
269.4842050422
 20
96.901103933
 30
0.0
 40
3.169959914348178
100
AcDbArc
 50
153.9402891021
 51
353.1065000007
  0
ARC
  5
1C8
330
1F
100
AcDbEntity
  8
0
  6
HIDDEN
 62
     7
370
     0
100
AcDbCircle
 10
269.5474823008
 20
96.961512032
 30
0.0
 40
3.113977291763637
100
AcDbArc
 50
0.044437284
 51
67.5529323133
  0
SPLINE
  5
1C9
330
1F
100
AcDbEntity
  8
0
  6
HIDDEN
 62
     7
370
     0
100
AcDbSpline
210
0.0
220
0.0
230
1.0
 70
     8
 71
     3
 72
    10
 73
     6
 74
     0
 42
0.00000001
 43
0.00000001
 40
0.0
 40
0.0
 40
0.0
 40
0.0
 40
0.5000000000000002
 40
0.5000000000000002
 40
1.0
 40
1.0
 40
1.0
 40
1.0
 10
271.4280754793491
 20
99.2530403430789
 30
0.0
 10
271.3786794368378
 20
99.3184477968706
 30
0.0
 10
271.2823873105967
 20
99.41195022605214
 30
0.0
 10
271.0438167659441
 20
99.61664290007774
 30
0.0
 10
270.9000944593786
 20
99.728333078517
 30
0.0
 10
270.7364914697288
 20
99.83955160255434
 30
0.0
  0
LINE
  5
1CA
330
1F
100
AcDbEntity
  8
0
  6
HIDDEN
 62
     7
370
     0
100
AcDbLine
 10
267.0485518589
 20
97.1029911016
 30
0.0
 11
266.7553510479
 21
97.4912310804
 31
0.0
  0
LINE
  5
1CB
330
1F
100
AcDbEntity
  8
0
  6
HIDDEN
 62
     7
370
     0
100
AcDbLine
 10
107.0954002578
 20
97.2205462037
 30
0.0
 11
107.0954002578
 21
94.4039146451
 31
0.0
  0
LINE
  5
1CC
330
1F
100
AcDbEntity
  8
0
  6
HIDDEN
 62
     7
370
     0
100
AcDbLine
 10
107.0954002578
 20
97.2205462037
 30
0.0
 11
107.0954002578
 21
99.4090557676
 31
0.0
  0
SPLINE
  5
1CD
330
1F
100
AcDbEntity
  8
0
  6
HIDDEN
 62
     7
370
     0
100
AcDbSpline
210
0.0
220
0.0
230
1.0
 70
     8
 71
     3
 72
     8
 73
     4
 74
     0
 42
0.00000001
 43
0.00000001
 40
0.0000002438860713
 40
0.0000002438860713
 40
0.0000002438860713
 40
0.0000002438860713
 40
0.0014006025853533
 40
0.0014006025853533
 40
0.0014006025853533
 40
0.0014006025853533
 10
107.0954002577774
 20
131.0120366396918
 30
0.0
 10
106.7126131852124
 20
131.1621081676676
 30
0.0
 10
106.3292597852563
 20
131.3102653695851
 30
0.0
 10
105.9454002577774
 20
131.4566388813883
 30
0.0
  0
SPLINE
  5
1CE
330
1F
100
AcDbEntity
  8
0
  6
HIDDEN
 62
     7
370
     0
100
AcDbSpline
210
0.0
220
0.0
230
1.0
 70
     8
 71
     3
 72
     8
 73
     4
 74
     0
 42
0.00000001
 43
0.00000001
 40
0.0000002432046719
 40
0.0000002432046719
 40
0.0000002432046719
 40
0.0000002432046719
 40
0.0014006019039539
 40
0.0014006019039539
 40
0.0014006019039539
 40
0.0014006019039539
 10
105.9454002577773
 20
98.96445352593209
 30
0.0
 10
106.3292597852563
 20
99.11082703773533
 30
0.0
 10
106.7126131852124
 20
99.25898423965275
 30
0.0
 10
107.0954002577773
 20
99.40905576762852
 30
0.0
  0
LINE
  5
1CF
330
1F
100
AcDbEntity
  8
0
  6
HIDDEN
 62
     7
370
     0
100
AcDbLine
 10
105.9454002578
 20
131.4566388814
 30
0.0
 11
105.9454002578
 21
98.9644535259
 31
0.0
  0
LINE
  5
1D0
330
1F
100
AcDbEntity
  8
0
  6
HIDDEN
 62
     7
370
     0
100
AcDbLine
 10
105.9454002578
 20
97.2205462037
 30
0.0
 11
105.9454002578
 21
98.9644535259
 31
0.0
  0
SPLINE
  5
1D1
330
1F
100
AcDbEntity
  8
0
  6
HIDDEN
 62
     7
370
     0
100
AcDbSpline
210
0.0
220
0.0
230
1.0
 70
     8
 71
     3
 72
    22
 73
    18
 74
     0
 42
0.00000001
 43
0.00000001
 40
0.0
 40
0.0
 40
0.0
 40
0.0
 40
0.2500000000000001
 40
0.2500000000000001
 40
0.5000000000000002
 40
0.5000000000000002
 40
0.5625000000000007
 40
0.5625000000000007
 40
0.6250000000000012
 40
0.6250000000000012
 40
0.6875000000000017
 40
0.6875000000000017
 40
0.7500000000000021
 40
0.7500000000000021
 40
0.8750000000000011
 40
0.8750000000000011
 40
1.0
 40
1.0
 40
1.0
 40
1.0
 10
105.9454002577772
 20
95.25142844166088
 30
0.0
 10
105.9454002577772
 20
95.1614550566431
 30
0.0
 10
105.9768984761229
 20
95.086407014128
 30
0.0
 10
106.0834259052994
 20
94.97337980041651
 30
0.0
 10
106.1565861244364
 20
94.93656621762374
 30
0.0
 10
106.2775146007607
 20
94.90092254136995
 30
0.0
 10
106.3033650885646
 20
94.89417232758379
 30
0.0
 10
106.3609596463389
 20
94.87910331886937
 30
0.0
 10
106.3929053868625
 20
94.8709702954427
 30
0.0
 10
106.4687624274347
 20
94.84568472085832
 30
0.0
 10
106.5159734780808
 20
94.82630950274118
 30
0.0
 10
106.6121994716798
 20
94.77055102409142
 30
0.0
 10
106.6566204016038
 20
94.7380658809805
 30
0.0
 10
106.7728414114896
 20
94.6491554993589
 30
0.0
 10
106.8379936509015
 20
94.59465741603074
 30
0.0
 10
106.9645480912673
 20
94.4960299369744
 30
0.0
 10
107.025222168237
 20
94.45128573872624
 30
0.0
 10
107.0853553273594
 20
94.4106590495899
 30
0.0
  0
LINE
  5
1D2
330
1F
100
AcDbEntity
  8
0
  6
HIDDEN
 62
     7
370
     0
100
AcDbLine
 10
105.9454002578
 20
97.2205462037
 30
0.0
 11
105.9454002578
 21
95.2514284417
 31
0.0
  0
LINE
  5
1D3
330
1F
100
AcDbEntity
  8
0
  6
HIDDEN
 62
     7
370
     0
100
AcDbLine
 10
107.0954002578
 20
133.2005462037
 30
0.0
 11
107.0954002578
 21
131.0120366397
 31
0.0
  0
LINE
  5
1D4
330
1F
100
AcDbEntity
  8
0
  6
HIDDEN
 62
     7
370
     0
100
AcDbLine
 10
107.0954002578
 20
133.2005462037
 30
0.0
 11
107.0954002578
 21
136.0804839691
 31
0.0
  0
LINE
  5
1D5
330
1F
100
AcDbEntity
  8
0
  6
HIDDEN
 62
     7
370
     0
100
AcDbLine
 10
105.9454002578
 20
133.2005462037
 30
0.0
 11
105.9454002578
 21
131.4566388814
 31
0.0
  0
LINE
  5
1D6
330
1F
100
AcDbEntity
  8
0
  6
HIDDEN
 62
     7
370
     0
100
AcDbLine
 10
105.9454002578
 20
133.2005462037
 30
0.0
 11
105.9454002578
 21
135.1866067083
 31
0.0
  0
SPLINE
  5
1D7
330
1F
100
AcDbEntity
  8
0
  6
HIDDEN
 62
     7
370
     0
100
AcDbSpline
210
0.0
220
0.0
230
1.0
 70
     8
 71
     3
 72
    22
 73
    18
 74
     0
 42
0.00000001
 43
0.00000001
 40
0.0
 40
0.0
 40
0.0
 40
0.0
 40
0.1250000000000022
 40
0.1250000000000022
 40
0.2500000000000045
 40
0.2500000000000045
 40
0.3125000000000056
 40
0.3125000000000056
 40
0.3750000000000068
 40
0.3750000000000068
 40
0.5000000000000052
 40
0.5000000000000052
 40
0.6250000000000038
 40
0.6250000000000038
 40
0.7500000000000023
 40
0.7500000000000023
 40
1.0
 40
1.0
 40
1.0
 40
1.0
 10
107.0853553273464
 20
136.0747380760889
 30
0.0
 10
107.0247356064701
 20
136.0399158994416
 30
0.0
 10
106.9625462665035
 20
136.0014120957409
 30
0.0
 10
106.8288168002741
 20
135.9154776079422
 30
0.0
 10
106.7565622585618
 20
135.86717100674
 30
0.0
 10
106.6346643177261
 20
135.7908192885702
 30
0.0
 10
106.590857764574
 20
135.7644048279632
 30
0.0
 10
106.5044625953991
 20
135.7158959034326
 30
0.0
 10
106.4621226191074
 20
135.6939617807062
 30
0.0
 10
106.3481518727384
 20
135.6375919907615
 30
0.0
 10
106.2897331467482
 20
135.6112351662279
 30
0.0
 10
106.1898255755607
 20
135.5590953417237
 30
0.0
 10
106.1484115847653
 20
135.5339347520112
 30
0.0
 10
106.076386616888
 20
135.4788279086841
 30
0.0
 10
106.0460380755751
 20
135.4489715051892
 30
0.0
 10
105.972546345543
 20
135.3515648031965
 30
0.0
 10
105.9454002577773
 20
135.2752331193862
 30
0.0
 10
105.9454002577774
 20
135.186606708316
 30
0.0
  0
SPLINE
  5
1D8
330
1F
100
AcDbEntity
  8
0
  6
HIDDEN
 62
     7
370
     0
100
AcDbSpline
210
0.0
220
0.0
230
1.0
 70
     8
 71
     3
 72
    32
 73
    28
 74
     0
 42
0.00000001
 43
0.00000001
 40
0.0
 40
0.0
 40
0.0
 40
0.0
 40
0.0311872114981615
 40
0.0623174262075645
 40
0.0934041101051559
 40
0.124460785791984
 40
0.155501015088133
 40
0.1865383813725177
 40
0.2175864717817091
 40
0.2486588593841501
 40
0.2797690854464615
 40
0.3109306419071488
 40
0.342156954169885
 40
0.373461364323727
 40
0.4048571148913235
 40
0.4363573331984757
 40
0.4679750164495706
 40
0.4997230175836208
 40
0.556081453597496
 40
0.612072984831219
 40
0.6677708191993785
 40
0.7232493272916831
 40
0.7785837640416122
 40
0.8338499729233055
 40
0.88912407826493
 40
0.9444821718187915
 40
1.0
 40
1.0
 40
1.0
 40
1.0
 10
275.8525395242216
 20
91.16525254536656
 30
0.0
 10
275.832018428892
 20
91.21855892916767
 30
0.0
 10
275.7910137419554
 20
91.32507427566195
 30
0.0
 10
275.7286476282584
 20
91.49765703744202
 30
0.0
 10
275.6657367150214
 20
91.67940778282602
 30
0.0
 10
275.6022144342215
 20
91.87125461063134
 30
0.0
 10
275.5380986320095
 20
92.07294921164414
 30
0.0
 10
275.4733845776505
 20
92.28455791306587
 30
0.0
 10
275.408073585136
 20
92.50606279866079
 30
0.0
 10
275.3421653510277
 20
92.73746848697917
 30
0.0
 10
275.2756600062948
 20
92.97877353167841
 30
0.0
 10
275.2085575665597
 20
93.22997808551969
 30
0.0
 10
275.1408580766044
 20
93.49108186210658
 30
0.0
 10
275.0725615805279
 20
93.7620846292102
 30
0.0
 10
275.0036680941961
 20
94.04298629000041
 30
0.0
 10
274.934177743981
 20
94.33378607322173
 30
0.0
 10
274.8640902348932
 20
94.63448572075367
 30
0.0
 10
274.775251272382
 20
95.02485540276912
 30
0.0
 10
274.6677376080607
 20
95.51246500927674
 30
0.0
 10
274.5416329541566
 20
96.10734313280341
 30
0.0
 10
274.4156244099647
 20
96.72473837396504
 30
0.0
 10
274.2897131090301
 20
97.3646372322402
 30
0.0
 10
274.1639005944227
 20
98.02707145095832
 30
0.0
 10
274.0381835511244
 20
98.71191306409241
 30
0.0
 10
273.9125778687843
 20
99.41962330893934
 30
0.0
 10
273.7870274798674
 20
100.1484600318107
 30
0.0
 10
273.703664072065
 20
100.6518197543534
 30
0.0
 10
273.6619223189545
 20
100.9038622010105
 30
0.0
  0
SPLINE
  5
1D9
330
1F
100
AcDbEntity
  8
0
  6
HIDDEN
 62
     7
370
     0
100
AcDbSpline
210
0.0
220
0.0
230
1.0
 70
     8
 71
     3
 72
    10
 73
     6
 74
     0
 42
0.00000001
 43
0.00000001
 40
0.0
 40
0.0
 40
0.0
 40
0.0
 40
0.5
 40
0.5
 40
1.0
 40
1.0
 40
1.0
 40
1.0
 10
153.9354002577774
 20
142.330200054696
 30
0.0
 10
153.9354002577774
 20
142.186587703138
 30
0.0
 10
153.9715675328752
 20
142.0436142894194
 30
0.0
 10
154.1073234766291
 20
141.7936216627056
 30
0.0
 10
154.207593167252
 20
141.6856193534268
 30
0.0
 10
154.3296977894684
 20
141.6105462036601
 30
0.0
  0
LINE
  5
1DA
330
1F
100
AcDbEntity
  8
0
  6
HIDDEN
 62
     7
370
     0
100
AcDbLine
 10
153.9354002578
 20
142.3302000547
 30
0.0
 11
153.9354002578
 21
88.4061505753
 31
0.0
  0
SPLINE
  5
1DB
330
1F
100
AcDbEntity
  8
0
  6
HIDDEN
 62
     7
370
     0
100
AcDbSpline
210
0.0
220
0.0
230
1.0
 70
     8
 71
     3
 72
    10
 73
     6
 74
     0
 42
0.00000001
 43
0.00000001
 40
0.0
 40
0.0
 40
0.0
 40
0.0
 40
0.5
 40
0.5
 40
1.0
 40
1.0
 40
1.0
 40
1.0
 10
153.9354002577774
 20
88.40615057533086
 30
0.0
 10
153.9354002577774
 20
88.47638693570138
 30
0.0
 10
153.9436828698678
 20
88.54638103719864
 30
0.0
 10
153.9767828129262
 20
88.6833403017571
 30
0.0
 10
154.0011202048845
 20
88.74864821101217
 30
0.0
 10
154.033075060109
 20
88.8105462036589
 30
0.0
  0
SPLINE
  5
1DC
330
1F
100
AcDbEntity
  8
0
  6
HIDDEN
 62
     7
370
     0
100
AcDbSpline
210
0.0
220
0.0
230
1.0
 70
    24
 71
     3
 72
    12
 73
     8
 74
     0
 42
0.00000001
 43
0.00000001
 40
0.0
 40
0.0
 40
0.0
 40
0.0
 40
0.5000000000000017
 40
0.5000000000000017
 40
0.7500000000000008
 40
0.7500000000000008
 40
1.0
 40
1.0
 40
1.0
 40
1.0
 10
154.3296977894683
 20
141.6105462036602
 30
0.0
 10
154.3728211379019
 20
141.6105462036602
 30
0.0
 10
154.4225607252021
 20
141.6105462036602
 30
0.0
 10
154.519081702024
 20
141.6105462036602
 30
0.0
 10
154.5546468328757
 20
141.6105462036602
 30
0.0
 10
154.6379951634986
 20
141.6105462036602
 30
0.0
 10
154.686465063189
 20
141.6105462036602
 30
0.0
 10
154.7354002577785
 20
141.6105462036602
 30
0.0
  0
SPLINE
  5
1DD
330
1F
100
AcDbEntity
  8
0
  6
HIDDEN
 62
     7
370
     0
100
AcDbSpline
210
0.0
220
0.0
230
1.0
 70
    24
 71
     3
 72
    14
 73
    10
 74
     0
 42
0.00000001
 43
0.00000001
 40
0.0
 40
0.0
 40
0.0
 40
0.0
 40
0.4999999999999956
 40
0.4999999999999956
 40
0.749999999999996
 40
0.749999999999996
 40
0.874999999999998
 40
0.874999999999998
 40
1.0
 40
1.0
 40
1.0
 40
1.0
 10
154.0330750601096
 20
88.81054620366017
 30
0.0
 10
154.0802815479494
 20
88.81054620366017
 30
0.0
 10
154.1436215513787
 20
88.81054620366017
 30
0.0
 10
154.2866846576346
 20
88.81054620366017
 30
0.0
 10
154.3427653079056
 20
88.81054620366017
 30
0.0
 10
154.4542006578149
 20
88.81054620366017
 30
0.0
 10
154.4961454484879
 20
88.81054620366017
 30
0.0
 10
154.6011418915081
 20
88.81054620366017
 30
0.0
 10
154.6667058285888
 20
88.81054620366017
 30
0.0
 10
154.7354002577773
 20
88.81054620366017
 30
0.0
  0
LINE
  5
1DE
330
1F
100
AcDbEntity
  8
0
  6
HIDDEN
 62
     7
370
     0
100
AcDbLine
 10
157.7554002578
 20
142.3302000547
 30
0.0
 11
157.7554002578
 21
88.4061505753
 31
0.0
  0
SPLINE
  5
1DF
330
1F
100
AcDbEntity
  8
0
  6
HIDDEN
 62
     7
370
     0
100
AcDbSpline
210
0.0
220
0.0
230
1.0
 70
     8
 71
     3
 72
    10
 73
     6
 74
     0
 42
0.00000001
 43
0.00000001
 40
0.0
 40
0.0
 40
0.0
 40
0.0
 40
0.5
 40
0.5
 40
1.0
 40
1.0
 40
1.0
 40
1.0
 10
157.3611027260864
 20
141.6105462036602
 30
0.0
 10
157.4824152491842
 20
141.6851323499484
 30
0.0
 10
157.5838436114093
 20
141.7939566610998
 30
0.0
 10
157.7197871776694
 20
142.0449771797215
 30
0.0
 10
157.7554002577774
 20
142.1875598728608
 30
0.0
 10
157.7554002577774
 20
142.330200054696
 30
0.0
  0
SPLINE
  5
1E0
330
1F
100
AcDbEntity
  8
0
  6
HIDDEN
 62
     7
370
     0
100
AcDbSpline
210
0.0
220
0.0
230
1.0
 70
     8
 71
     3
 72
    10
 73
     6
 74
     0
 42
0.00000001
 43
0.00000001
 40
0.0
 40
0.0
 40
0.0
 40
0.0
 40
0.5
 40
0.5
 40
1.0
 40
1.0
 40
1.0
 40
1.0
 10
157.6577254554451
 20
88.8105462036602
 30
0.0
 10
157.6898806430671
 20
88.74826015814406
 30
0.0
 10
157.7145368742613
 20
88.68172973327482
 30
0.0
 10
157.7473496311868
 20
88.54487110291231
 30
0.0
 10
157.7554002577774
 20
88.47581350773395
 30
0.0
 10
157.7554002577774
 20
88.40615057533061
 30
0.0
  0
SPLINE
  5
1E1
330
1F
100
AcDbEntity
  8
0
  6
HIDDEN
 62
     7
370
     0
100
AcDbSpline
210
0.0
220
0.0
230
1.0
 70
    24
 71
     3
 72
    12
 73
     8
 74
     0
 42
0.00000001
 43
0.00000001
 40
0.0
 40
0.0
 40
0.0
 40
0.0
 40
0.2499999999999971
 40
0.2499999999999971
 40
0.4999999999999942
 40
0.4999999999999942
 40
1.0
 40
1.0
 40
1.0
 40
1.0
 10
156.9554002577774
 20
141.6105462036602
 30
0.0
 10
157.0049353639953
 20
141.6105462036602
 30
0.0
 10
157.0533402525969
 20
141.6105462036602
 30
0.0
 10
157.1362268017745
 20
141.6105462036602
 30
0.0
 10
157.1727415232429
 20
141.6105462036602
 30
0.0
 10
157.2690743615975
 20
141.6105462036602
 30
0.0
 10
157.3178269092601
 20
141.6105462036602
 30
0.0
 10
157.3611027260908
 20
141.6105462036602
 30
0.0
  0
SPLINE
  5
1E2
330
1F
100
AcDbEntity
  8
0
  6
HIDDEN
 62
     7
370
     0
100
AcDbSpline
210
0.0
220
0.0
230
1.0
 70
    24
 71
     3
 72
    14
 73
    10
 74
     0
 42
0.00000001
 43
0.00000001
 40
0.0
 40
0.0
 40
0.0
 40
0.0
 40
0.1250000000000017
 40
0.1250000000000017
 40
0.2500000000000033
 40
0.2500000000000033
 40
0.5000000000000032
 40
0.5000000000000032
 40
1.0
 40
1.0
 40
1.0
 40
1.0
 10
156.9554002577774
 20
88.81054620366017
 30
0.0
 10
157.0244968901214
 20
88.81054620366018
 30
0.0
 10
157.0894900557294
 20
88.81054620366017
 30
0.0
 10
157.1938112543745
 20
88.81054620366018
 30
0.0
 10
157.236591628483
 20
88.81054620366018
 30
0.0
 10
157.3489292881292
 20
88.81054620366017
 30
0.0
 10
157.4039764702715
 20
88.81054620366018
 30
0.0
 10
157.5478532440416
 20
88.81054620366017
 30
0.0
 10
157.6108825573167
 20
88.8105462036602
 30
0.0
 10
157.6577254554451
 20
88.81054620366017
 30
0.0
  0
LINE
  5
1E3
330
1F
100
AcDbEntity
  8
0
  6
HIDDEN
 62
     7
370
     0
100
AcDbLine
 10
154.7354002578
 20
141.6105462037
 30
0.0
 11
156.9554002578
 21
141.6105462037
 31
0.0
  0
LINE
  5
1E4
330
1F
100
AcDbEntity
  8
0
  6
HIDDEN
 62
     7
370
     0
100
AcDbLine
 10
154.7354002578
 20
88.8105462037
 30
0.0
 11
156.9554002578
 21
88.8105462037
 31
0.0
  0
SPLINE
  5
1E5
330
1F
100
AcDbEntity
  8
0
  6
HIDDEN
 62
     7
370
     0
100
AcDbSpline
210
0.0
220
0.0
230
1.0
 70
     8
 71
     3
 72
    12
 73
     8
 74
     0
 42
0.00000001
 43
0.00000001
 40
0.0
 40
0.0
 40
0.0
 40
0.0
 40
0.2500000000000019
 40
0.2500000000000019
 40
0.5000000000000038
 40
0.5000000000000038
 40
1.0
 40
1.0
 40
1.0
 40
1.0
 10
163.1954002577774
 20
145.6777416768244
 30
0.0
 10
163.2748932068257
 20
145.6777416768244
 30
0.0
 10
163.3559767081812
 20
145.6607389268636
 30
0.0
 10
163.502407105319
 20
145.596678385752
 30
0.0
 10
163.5689557151927
 20
145.5495197701134
 30
0.0
 10
163.7332455891664
 20
145.3762977374211
 30
0.0
 10
163.7954002577775
 20
145.2161886471869
 30
0.0
 10
163.7954002577774
 20
145.0569865274235
 30
0.0
  0
SPLINE
  5
1E6
330
1F
100
AcDbEntity
  8
0
  6
HIDDEN
 62
     7
370
     0
100
AcDbSpline
210
0.0
220
0.0
230
1.0
 70
     8
 71
     3
 72
    12
 73
     8
 74
     0
 42
0.00000001
 43
0.00000001
 40
0.0
 40
0.0
 40
0.0
 40
0.0
 40
0.25
 40
0.25
 40
0.5
 40
0.5
 40
1.0
 40
1.0
 40
1.0
 40
1.0
 10
163.1954002577774
 20
85.02362850741305
 30
0.0
 10
163.2752812625245
 20
85.02362850741306
 30
0.0
 10
163.3558753927951
 20
85.04074559367889
 30
0.0
 10
163.50249083864
 20
85.105481705154
 30
0.0
 10
163.568992031384
 20
85.15293894803433
 30
0.0
 10
163.7347269325212
 20
85.32976339057382
 30
0.0
 10
163.7954002577774
 20
85.49003989777951
 30
0.0
 10
163.7954002577774
 20
85.65026880306728
 30
0.0
  0
LINE
  5
1E7
330
1F
100
AcDbEntity
  8
0
  6
HIDDEN
 62
     7
370
     0
100
AcDbLine
 10
163.7954002578
 20
145.0569865274
 30
0.0
 11
163.7954002578
 21
85.6502688031
 31
0.0
  0
LINE
  5
1E8
330
1F
100
AcDbEntity
  8
0
  6
HIDDEN
 62
     7
370
     0
100
AcDbLine
 10
157.7554002578
 20
142.3302000547
 30
0.0
 11
157.7554002578
 21
143.0157803948
 31
0.0
  0
SPLINE
  5
1E9
330
1F
100
AcDbEntity
  8
0
  6
HIDDEN
 62
     7
370
     0
100
AcDbSpline
210
0.0
220
0.0
230
1.0
 70
     8
 71
     3
 72
     8
 73
     4
 74
     0
 42
0.00000001
 43
0.00000001
 40
0.0
 40
0.0
 40
0.0
 40
0.0
 40
1.0
 40
1.0
 40
1.0
 40
1.0
 10
157.7554002577774
 20
143.0157803948318
 30
0.0
 10
158.2481103546232
 20
143.9037993929582
 30
0.0
 10
158.7421930599021
 20
144.7910620286442
 30
0.0
 10
159.2373330892664
 20
145.6777416768244
 30
0.0
  0
LINE
  5
1EA
330
1F
100
AcDbEntity
  8
0
  6
HIDDEN
 62
     7
370
     0
100
AcDbLine
 10
159.2373330893
 20
145.6777416768
 30
0.0
 11
163.1954002578
 21
145.6777416768
 31
0.0
  0
LINE
  5
1EB
330
1F
100
AcDbEntity
  8
0
  6
HIDDEN
 62
     7
370
     0
100
AcDbLine
 10
157.3611027261
 20
141.6105462037
 30
0.0
 11
163.7954002578
 21
141.6105462037
 31
0.0
  0
LINE
  5
1EC
330
1F
100
AcDbEntity
  8
0
  6
HIDDEN
 62
     7
370
     0
100
AcDbLine
 10
163.7954002578
 20
145.0569865274
 30
0.0
 11
163.7954002578
 21
141.6105462037
 31
0.0
  0
SPLINE
  5
1ED
330
1F
100
AcDbEntity
  8
0
  6
HIDDEN
 62
     7
370
     0
100
AcDbSpline
210
0.0
220
0.0
230
1.0
 70
     8
 71
     3
 72
     8
 73
     4
 74
     0
 42
0.00000001
 43
0.00000001
 40
0.0
 40
0.0
 40
0.0
 40
0.0
 40
1.0
 40
1.0
 40
1.0
 40
1.0
 10
152.4534674262883
 20
145.6777416768245
 30
0.0
 10
152.9486074556526
 20
144.7910620286442
 30
0.0
 10
153.4426901609316
 20
143.9037993929582
 30
0.0
 10
153.9354002577774
 20
143.0157803948318
 30
0.0
  0
LINE
  5
1EE
330
1F
100
AcDbEntity
  8
0
  6
HIDDEN
 62
     7
370
     0
100
AcDbLine
 10
153.9354002578
 20
143.0157803948
 30
0.0
 11
153.9354002578
 21
142.3302000547
 31
0.0
  0
LINE
  5
1EF
330
1F
100
AcDbEntity
  8
0
  6
HIDDEN
 62
     7
370
     0
100
AcDbLine
 10
150.7954002578
 20
141.6105462037
 30
0.0
 11
154.3296977895
 21
141.6105462037
 31
0.0
  0
LINE
  5
1F0
330
1F
100
AcDbEntity
  8
0
  6
HIDDEN
 62
     7
370
     0
100
AcDbLine
 10
159.2373330893
 20
145.6777416768
 30
0.0
 11
159.2373330893
 21
85.0236285074
 31
0.0
  0
LINE
  5
1F1
330
1F
100
AcDbEntity
  8
0
  6
HIDDEN
 62
     7
370
     0
100
AcDbLine
 10
153.9354002578
 20
143.0157803948
 30
0.0
 11
153.9354002578
 21
87.7127090446
 31
0.0
  0
LINE
  5
1F2
330
1F
100
AcDbEntity
  8
0
  6
HIDDEN
 62
     7
370
     0
100
AcDbLine
 10
157.7554002578
 20
143.0157803948
 30
0.0
 11
157.7554002578
 21
87.7127090446
 31
0.0
  0
LINE
  5
1F3
330
1F
100
AcDbEntity
  8
0
  6
HIDDEN
 62
     7
370
     0
100
AcDbLine
 10
105.9454002578
 20
135.1866067083
 30
0.0
 11
105.9454002578
 21
95.2514284417
 31
0.0
  0
LWPOLYLINE
  5
1F4
330
1F
100
AcDbEntity
  8
0
  6
HIDDEN
 62
     7
370
     0
100
AcDbPolyline
 90
       12
 70
   128
 43
0.0
 10
269.5917291914
 20
103.4042337825
 10
269.6612478929
 20
102.8673606305
 10
269.5358564308
 20
102.3026160941
 10
269.2257132757
 20
101.7557524169
 10
268.7559443814
 20
101.2710732418
 10
268.16460763
 20
100.887844393
 10
267.4996096082
 20
100.6371127927
 10
266.814824501
 20
100.539191224
 10
266.165729525
 20
100.6020127101
 10
265.6049104949
 20
100.8204878277
 10
265.1778016333
 20
101.1769170221
 10
264.91900476
 20
101.6424245198
  0
ELLIPSE
  5
1F5
330
1F
100
AcDbEntity
  8
0
  6
HIDDEN
 62
     7
370
     0
100
AcDbEllipse
 10
268.2054823265
 20
100.3755247655
 30
0.0
 11
-0.9382876123696633
 21
2.751666891553313
 31
0.0
210
0.0
220
0.0
230
1.0
 40
0.8587453104
 41
2.098545205328488
 42
4.239491960015197
  0
SPLINE
  5
1F6
330
1F
100
AcDbEntity
  8
0
  6
HIDDEN
 62
     7
370
     0
100
AcDbSpline
210
0.0
220
0.0
230
1.0
 70
     8
 71
     3
 72
     8
 73
     4
 74
     0
 42
0.00000001
 43
0.00000001
 40
0.0
 40
0.0
 40
0.0
 40
0.0
 40
1.0
 40
1.0
 40
1.0
 40
1.0
 10
152.4534674262883
 20
85.02362850741302
 30
0.0
 10
152.9489470869541
 20
85.91915459534638
 30
0.0
 10
153.4430611349962
 20
86.81543901039862
 30
0.0
 10
153.9354002577774
 20
87.71270904460532
 30
0.0
  0
LINE
  5
1F7
330
1F
100
AcDbEntity
  8
0
  6
HIDDEN
 62
     7
370
     0
100
AcDbLine
 10
153.9354002578
 20
87.7127090446
 30
0.0
 11
153.9354002578
 21
88.4061505753
 31
0.0
  0
LINE
  5
1F8
330
1F
100
AcDbEntity
  8
0
  6
HIDDEN
 62
     7
370
     0
100
AcDbLine
 10
150.7954002578
 20
88.8105462037
 30
0.0
 11
154.0330750601
 21
88.8105462037
 31
0.0
  0
LINE
  5
1F9
330
1F
100
AcDbEntity
  8
0
  6
HIDDEN
 62
     7
370
     0
100
AcDbLine
 10
157.7554002578
 20
88.4061505753
 30
0.0
 11
157.7554002578
 21
87.7127090446
 31
0.0
  0
SPLINE
  5
1FA
330
1F
100
AcDbEntity
  8
0
  6
HIDDEN
 62
     7
370
     0
100
AcDbSpline
210
0.0
220
0.0
230
1.0
 70
     8
 71
     3
 72
     8
 73
     4
 74
     0
 42
0.00000001
 43
0.00000001
 40
0.0
 40
0.0
 40
0.0
 40
0.0
 40
1.0
 40
1.0
 40
1.0
 40
1.0
 10
157.7554002577774
 20
87.7127090446053
 30
0.0
 10
158.2477393805586
 20
86.81543901039862
 30
0.0
 10
158.7418534286007
 20
85.91915459534637
 30
0.0
 10
159.2373330892664
 20
85.02362850741302
 30
0.0
  0
LINE
  5
1FB
330
1F
100
AcDbEntity
  8
0
  6
HIDDEN
 62
     7
370
     0
100
AcDbLine
 10
159.2373330893
 20
85.0236285074
 30
0.0
 11
163.1954002578
 21
85.0236285074
 31
0.0
  0
LINE
  5
1FC
330
1F
100
AcDbEntity
  8
0
  6
HIDDEN
 62
     7
370
     0
100
AcDbLine
 10
157.6577254554
 20
88.8105462037
 30
0.0
 11
163.7954002578
 21
88.8105462037
 31
0.0
  0
LINE
  5
1FD
330
1F
100
AcDbEntity
  8
0
  6
HIDDEN
 62
     7
370
     0
100
AcDbLine
 10
163.7954002578
 20
85.6502688031
 30
0.0
 11
163.7954002578
 21
88.8105462037
 31
0.0
  0
LINE
  5
1FE
330
1F
100
AcDbEntity
  8
0
  6
HIDDEN
 62
     7
370
     0
100
AcDbLine
 10
263.8722718491
 20
104.8382059436
 30
0.0
 11
264.91900476
 21
101.6424245198
 31
0.0
  0
LWPOLYLINE
  5
1FF
330
1F
100
AcDbEntity
  8
0
  6
HIDDEN
 62
     7
370
     0
100
AcDbPolyline
 90
       23
 70
   128
 43
0.0
 10
235.8454002578
 20
121.9144254156
 10
236.5497316499
 20
121.8181142371
 10
237.1970023014
 20
121.5369832605
 10
237.7347741937
 20
121.0938080456
 10
238.1194802462
 20
120.5244920126
 10
238.3199538625
 20
119.8751577607
 10
238.3199538625
 20
119.1984104891
 10
238.1194802462
 20
118.5490762372
 10
237.7347741937
 20
117.9797602042
 10
237.1970023014
 20
117.5365849893
 10
236.5497316499
 20
117.2554540127
 10
235.8454002578
 20
117.1591428342
 10
235.1410688657
 20
117.2554540127
 10
234.4937982141
 20
117.5365849893
 10
233.9560263219
 20
117.9797602042
 10
233.5713202694
 20
118.5490762372
 10
233.3708466531
 20
119.1984104891
 10
233.3708466531
 20
119.8751577607
 10
233.5713202694
 20
120.5244920126
 10
233.9560263219
 20
121.0938080456
 10
234.4937982141
 20
121.5369832605
 10
235.1410688657
 20
121.8181142371
 10
235.8454002578
 20
121.9144254156
  0
SPLINE
  5
200
330
1F
100
AcDbEntity
  8
0
  6
HIDDEN
 62
     7
370
     0
100
AcDbSpline
210
0.0
220
0.0
230
1.0
 70
     8
 71
     3
 72
     9
 73
     5
 74
     0
 42
0.00000001
 43
0.00000001
 40
0.0
 40
0.0
 40
0.0
 40
0.0
 40
0.4944450011115746
 40
1.0
 40
1.0
 40
1.0
 40
1.0
 10
273.662912356225
 20
100.905728981121
 30
0.0
 10
273.5578655214815
 20
100.7094215875307
 30
0.0
 10
273.3454114881565
 20
100.3123958452358
 30
0.0
 10
273.1251172069436
 20
99.91966580823123
 30
0.0
 10
273.0137463318499
 20
99.72111917480991
 30
0.0
  0
LINE
  5
201
330
1F
100
AcDbEntity
  8
0
  6
HIDDEN
 62
     7
370
     0
100
AcDbLine
 10
273.6619223183
 20
100.9038622009
 30
0.0
 11
272.7307322851
 21
110.0563145228
 31
0.0
  0
LINE
  5
202
330
1F
100
AcDbEntity
  8
0
  6
HIDDEN
 62
     7
370
     0
100
AcDbLine
 10
272.7307322851
 20
110.0563145228
 30
0.0
 11
269.0617427047
 21
115.2105462037
 31
0.0
  0
CIRCLE
  5
203
330
1F
100
AcDbEntity
  8
0
  6
HIDDEN
 62
     7
370
     0
100
AcDbCircle
 10
144.8454002578
 20
115.2105462037
 30
0.0
 40
5.000000000000014
  0
LINE
  5
204
330
1F
100
AcDbEntity
  8
0
  6
HIDDEN
 62
     7
370
     0
100
AcDbLine
 10
137.8454002578
 20
89.8866222825
 30
0.0
 11
137.939561099
 21
90.5566114814
 31
0.0
  0
LINE
  5
205
330
1F
100
AcDbEntity
  8
0
  6
HIDDEN
 62
     7
370
     0
100
AcDbLine
 10
137.939561099
 20
139.864480926
 30
0.0
 11
137.8454002578
 21
140.5344701248
 31
0.0
  0
ARC
  5
206
330
1F
100
AcDbEntity
  8
0
  6
HIDDEN
 62
     7
370
     0
100
AcDbCircle
 10
137.3454002578
 20
90.6401153419
 30
0.0
 40
0.6000000000000394
100
AcDbArc
 50
352.0
 51
0.0
  0
ARC
  5
207
330
1F
100
AcDbEntity
  8
0
  6
HIDDEN
 62
     7
370
     0
100
AcDbCircle
 10
137.3454002578
 20
90.6401153419
 30
0.0
 40
0.6000000000000227
100
AcDbArc
 50
0.0
 51
33.5573097619
  0
ARC
  5
208
330
1F
100
AcDbEntity
  8
0
  6
HIDDEN
 62
     7
370
     0
100
AcDbCircle
 10
137.3454002578
 20
139.7809770654
 30
0.0
 40
0.6000000000000414
100
AcDbArc
 50
348.75
 51
8.0
  0
LWPOLYLINE
  5
209
330
1F
100
AcDbEntity
  8
0
  6
HIDDEN
 62
     7
370
     0
100
AcDbPolyline
 90
        3
 70
   128
 43
0.0
 10
137.933871426
 20
139.6639228722
 10
137.8997279773
 20
139.551367006
 10
137.8454002578
 20
139.4493145863
  0
LINE
  5
20A
330
1F
100
AcDbEntity
  8
0
  6
HIDDEN
 62
     7
370
     0
100
AcDbLine
 10
137.9454002578
 20
90.6401153419
 30
0.0
 11
137.9454002578
 21
139.7809770654
 31
0.0
  0
LINE
  5
20B
330
1F
100
AcDbEntity
  8
0
  6
HIDDEN
 62
     7
370
     0
100
AcDbLine
 10
137.9454002578
 20
90.6401153419
 30
0.0
 11
137.9454002578
 21
139.7809770654
 31
0.0
  0
ARC
  5
20C
330
1F
100
AcDbEntity
  8
0
  6
HIDDEN
 62
     7
370
     0
100
AcDbCircle
 10
131.6004022594
 20
103.2105462037
 30
0.0
 40
8.000000000000012
100
AcDbArc
 50
277.1341635912
 51
321.3178125465
  0
ARC
  5
20D
330
1F
100
AcDbEntity
  8
0
  6
HIDDEN
 62
     7
370
     0
100
AcDbCircle
 10
131.6004022594
 20
127.2105462037
 30
0.0
 40
8.000000000000002
100
AcDbArc
 50
38.6821874535
 51
82.8695281791
  0
LINE
  5
20E
330
1F
100
AcDbEntity
  8
0
  6
HIDDEN
 62
     7
370
     0
100
AcDbLine
 10
120.9278358231
 20
95.2105462037
 30
0.0
 11
125.098517639
 21
95.2105462037
 31
0.0
  0
LINE
  5
20F
330
1F
100
AcDbEntity
  8
0
  6
HIDDEN
 62
     7
370
     0
100
AcDbLine
 10
125.098517639
 20
135.2105462037
 30
0.0
 11
120.9278358231
 21
135.2105462037
 31
0.0
  0
ARC
  5
210
330
1F
100
AcDbEntity
  8
0
  6
HIDDEN
 62
     7
370
     0
100
AcDbCircle
 10
120.9278358231
 20
95.8105462037
 30
0.0
 40
0.6000000000000032
100
AcDbArc
 50
210.0
 51
270.0
  0
ARC
  5
211
330
1F
100
AcDbEntity
  8
0
  6
HIDDEN
 62
     7
370
     0
100
AcDbCircle
 10
120.9278358231
 20
134.6105462037
 30
0.0
 40
0.6000000000000227
100
AcDbArc
 50
90.0
 51
150.0
  0
LINE
  5
212
330
1F
100
AcDbEntity
  8
0
  6
HIDDEN
 62
     7
370
     0
100
AcDbLine
 10
120.4082205808
 20
134.9105462037
 30
0.0
 11
118.849374854
 21
132.2105462037
 31
0.0
  0
LINE
  5
213
330
1F
100
AcDbEntity
  8
0
  6
HIDDEN
 62
     7
370
     0
100
AcDbLine
 10
118.849374854
 20
98.2105462037
 30
0.0
 11
120.4082205808
 21
95.5105462037
 31
0.0
  0
ARC
  5
214
330
1F
100
AcDbEntity
  8
0
  6
HIDDEN
 62
     7
370
     0
100
AcDbCircle
 10
146.2954002578
 20
99.4855462037
 30
0.0
 40
1.5
100
AcDbArc
 50
238.211669383
 51
0.0
  0
ARC
  5
215
330
1F
100
AcDbEntity
  8
0
  6
HIDDEN
 62
     7
370
     0
100
AcDbCircle
 10
146.2954002578
 20
130.9355462037
 30
0.0
 40
1.5
100
AcDbArc
 50
0.0
 51
121.7883306171
  0
LINE
  5
216
330
1F
100
AcDbEntity
  8
0
  6
HIDDEN
 62
     7
370
     0
100
AcDbLine
 10
116.0454002578
 20
98.2105462037
 30
0.0
 11
118.849374854
 21
98.2105462037
 31
0.0
  0
LINE
  5
217
330
1F
100
AcDbEntity
  8
0
  6
HIDDEN
 62
     7
370
     0
100
AcDbLine
 10
118.849374854
 20
132.2105462037
 30
0.0
 11
112.0454002578
 21
132.2105462037
 31
0.0
  0
LINE
  5
218
330
1F
100
AcDbEntity
  8
0
  6
HIDDEN
 62
     7
370
     0
100
AcDbLine
 10
137.8454002578
 20
98.2105462037
 30
0.0
 11
145.5052262263
 21
98.2105462037
 31
0.0
  0
LINE
  5
219
330
1F
100
AcDbEntity
  8
0
  6
HIDDEN
 62
     7
370
     0
100
AcDbLine
 10
145.5052262263
 20
132.2105462037
 30
0.0
 11
137.8454002578
 21
132.2105462037
 31
0.0
  0
LINE
  5
21A
330
1F
100
AcDbEntity
  8
0
  6
HIDDEN
 62
     7
370
     0
100
AcDbLine
 10
236.6521116876
 20
112.4162978898
 30
0.0
 11
234.7301989362
 21
113.434756481
 31
0.0
  0
LINE
  5
21B
330
1F
100
AcDbEntity
  8
0
  6
HIDDEN
 62
     7
370
     0
100
AcDbLine
 10
243.3467717557
 20
108.8686685523
 30
0.0
 11
237.6690202074
 21
111.8774184752
 31
0.0
  0
LINE
  5
21C
330
1F
100
AcDbEntity
  8
0
  6
HIDDEN
 62
     7
370
     0
100
AcDbLine
 10
232.7635995791
 20
109.7236263339
 30
0.0
 11
243.341980355
 21
104.1179385763
 31
0.0
  0
LINE
  5
21D
330
1F
100
AcDbEntity
  8
0
  6
HIDDEN
 62
     7
370
     0
100
AcDbLine
 10
234.3520105192
 20
113.3343582079
 30
0.0
 11
232.6768259792
 21
112.1462438518
 31
0.0
  0
LINE
  5
21E
330
1F
100
AcDbEntity
  8
0
  6
HIDDEN
 62
     7
370
     0
100
AcDbLine
 10
232.6768259792
 20
112.1462438518
 30
0.0
 11
232.6343211356
 21
110.0929410723
 31
0.0
  0
LINE
  5
21F
330
1F
100
AcDbEntity
  8
0
  6
HIDDEN
 62
     7
370
     0
100
AcDbLine
 10
233.7454002578
 20
113.9128868147
 30
0.0
 11
233.7454002578
 21
111.1839388723
 31
0.0
  0
LINE
  5
220
330
1F
100
AcDbEntity
  8
0
  6
HIDDEN
 62
     7
370
     0
100
AcDbLine
 10
237.9454002578
 20
111.2581865882
 30
0.0
 11
237.9454002578
 21
113.9129275717
 31
0.0
  0
LINE
  5
221
330
1F
100
AcDbEntity
  8
0
  6
HIDDEN
 62
     7
370
     0
100
AcDbLine
 10
157.1454002578
 20
105.7105462037
 30
0.0
 11
159.6454002578
 21
105.7105462037
 31
0.0
  0
LINE
  5
222
330
1F
100
AcDbEntity
  8
0
  6
HIDDEN
 62
     7
370
     0
100
AcDbLine
 10
159.6454002578
 20
124.7105462037
 30
0.0
 11
157.1454002578
 21
124.7105462037
 31
0.0
  0
LINE
  5
223
330
1F
100
AcDbEntity
  8
0
  6
HIDDEN
 62
     7
370
     0
100
AcDbLine
 10
147.7954002578
 20
106.2105462037
 30
0.0
 11
148.2954002578
 21
106.7105462037
 31
0.0
  0
LINE
  5
224
330
1F
100
AcDbEntity
  8
0
  6
HIDDEN
 62
     7
370
     0
100
AcDbLine
 10
148.2954002578
 20
123.7105462037
 30
0.0
 11
147.7954002578
 21
124.2105462037
 31
0.0
  0
LINE
  5
225
330
1F
100
AcDbEntity
  8
0
  6
HIDDEN
 62
     7
370
     0
100
AcDbLine
 10
148.2954002578
 20
106.7105462037
 30
0.0
 11
157.1454002578
 21
106.7105462037
 31
0.0
  0
LINE
  5
226
330
1F
100
AcDbEntity
  8
0
  6
HIDDEN
 62
     7
370
     0
100
AcDbLine
 10
157.1454002578
 20
123.7105462037
 30
0.0
 11
148.2954002578
 21
123.7105462037
 31
0.0
  0
LINE
  5
227
330
1F
100
AcDbEntity
  8
0
  6
HIDDEN
 62
     7
370
     0
100
AcDbLine
 10
142.7954002578
 20
146.7105462037
 30
0.0
 11
142.7954002578
 21
141.6105462037
 31
0.0
  0
LINE
  5
228
330
1F
100
AcDbEntity
  8
0
  6
HIDDEN
 62
     7
370
     0
100
AcDbLine
 10
133.0298380883
 20
91.1311748701
 30
0.0
 11
132.5954059388
 21
91.6102408892
 31
0.0
  0
LINE
  5
229
330
1F
100
AcDbEntity
  8
0
  6
HIDDEN
 62
     7
370
     0
100
AcDbLine
 10
125.0954026137
 20
92.0319288483
 30
0.0
 11
124.6129688703
 21
91.5528628729
 31
0.0
  0
LINE
  5
22A
330
1F
100
AcDbEntity
  8
0
  6
HIDDEN
 62
     7
370
     0
100
AcDbLine
 10
124.6128469421
 20
138.868224244
 30
0.0
 11
125.0953976931
 21
138.3891039861
 31
0.0
  0
LINE
  5
22B
330
1F
100
AcDbEntity
  8
0
  6
HIDDEN
 62
     7
370
     0
100
AcDbLine
 10
132.5954001398
 20
138.8108017638
 30
0.0
 11
133.0299425301
 21
139.2899220143
 31
0.0
  0
LINE
  5
22C
330
1F
100
AcDbEntity
  8
0
  6
HIDDEN
 62
     7
370
     0
100
AcDbLine
 10
159.6454002578
 20
111.0105462037
 30
0.0
 11
238.8454002578
 21
111.0105462037
 31
0.0
  0
LINE
  5
22D
330
1F
100
AcDbEntity
  8
0
  6
HIDDEN
 62
     7
370
     0
100
AcDbLine
 10
238.8454002578
 20
119.4105462037
 30
0.0
 11
159.6454002578
 21
119.4105462037
 31
0.0
  0
LINE
  5
22E
330
1F
100
AcDbEntity
  8
0
  6
HIDDEN
 62
     7
370
     0
100
AcDbLine
 10
238.8454002578
 20
111.0105462037
 30
0.0
 11
241.3690148577
 21
115.2105462037
 31
0.0
  0
LINE
  5
22F
330
1F
100
AcDbEntity
  8
0
  6
HIDDEN
 62
     7
370
     0
100
AcDbLine
 10
241.3690148577
 20
115.2105462037
 30
0.0
 11
238.8454002578
 21
119.4105462037
 31
0.0
  0
LINE
  5
230
330
1F
100
AcDbEntity
  8
0
  6
HIDDEN
 62
     7
370
     0
100
AcDbLine
 10
132.5954002578
 20
91.6107247909
 30
0.0
 11
132.5954002578
 21
95.272710013
 31
0.0
  0
LINE
  5
231
330
1F
100
AcDbEntity
  8
0
  6
HIDDEN
 62
     7
370
     0
100
AcDbLine
 10
125.0954002578
 20
95.2111304649
 30
0.0
 11
125.0954002578
 21
92.0322520861
 31
0.0
  0
LINE
  5
232
330
1F
100
AcDbEntity
  8
0
  6
HIDDEN
 62
     7
370
     0
100
AcDbLine
 10
132.5954002578
 20
135.1483823943
 30
0.0
 11
132.5954002578
 21
138.8102483421
 31
0.0
  0
LINE
  5
233
330
1F
100
AcDbEntity
  8
0
  6
HIDDEN
 62
     7
370
     0
100
AcDbLine
 10
125.0954002578
 20
138.3888487948
 30
0.0
 11
125.0954002578
 21
135.2099619424
 31
0.0
  0
LINE
  5
234
330
1F
100
AcDbEntity
  8
0
  6
HIDDEN
 62
     7
370
     0
100
AcDbLine
 10
263.2373944527
 20
105.4494764034
 30
0.0
 11
263.6638076114
 21
104.8848441463
 31
0.0
  0
LINE
  5
235
330
1F
100
AcDbEntity
  8
0
  6
HIDDEN
 62
     7
370
     0
100
AcDbLine
 10
269.2498203386
 20
109.103429432
 30
0.0
 11
268.8234071799
 21
109.668061689
 31
0.0
  0
LINE
  5
236
330
1F
100
AcDbEntity
  8
0
  6
HIDDEN
 62
     7
370
     0
100
AcDbLine
 10
260.9137121595
 20
98.7979831887
 30
0.0
 11
261.4049959369
 21
98.1474529168
 31
0.0
  0
LINE
  5
237
330
1F
100
AcDbEntity
  8
0
  6
HIDDEN
 62
     7
370
     0
100
AcDbLine
 10
270.7616469622
 20
101.8851112968
 30
0.0
 11
268.8807073157
 21
106.1371112445
 31
0.0
  0
LINE
  5
238
330
1F
100
AcDbEntity
  8
0
  6
HIDDEN
 62
     7
370
     0
100
AcDbLine
 10
260.6071302473
 20
107.7707970983
 30
0.0
 11
262.634828254
 21
105.0858337504
 31
0.0
  0
LINE
  5
239
330
1F
100
AcDbEntity
  8
0
  6
HIDDEN
 62
     7
370
     0
100
AcDbLine
 10
269.3380435266
 20
110.1481360932
 30
0.0
 11
267.3103455199
 21
112.8330994411
 31
0.0
  0
LINE
  5
23A
330
1F
100
AcDbEntity
  8
0
  6
HIDDEN
 62
     7
370
     0
100
AcDbLine
 10
260.7842293585
 20
99.10863247
 30
0.0
 11
261.0915430405
 21
98.7017050233
 31
0.0
  0
LINE
  5
23B
330
1F
100
AcDbEntity
  8
0
  6
HIDDEN
 62
     7
370
     0
100
AcDbLine
 10
233.7454002578
 20
119.4625136679
 30
0.0
 11
233.7454002578
 21
116.5081648356
 31
0.0
  0
LINE
  5
23C
330
1F
100
AcDbEntity
  8
0
  6
HIDDEN
 62
     7
370
     0
100
AcDbLine
 10
237.9454002578
 20
116.5082055926
 30
0.0
 11
237.9454002578
 21
119.4625136679
 31
0.0
  0
ARC
  5
23D
330
1F
100
AcDbEntity
  8
0
  6
HIDDEN
 62
     7
370
     0
100
AcDbCircle
 10
114.6454002578
 20
92.9980462037
 30
0.0
 40
1.40000000000002
100
AcDbArc
 50
37.6443616934
 51
90.0
  0
ARC
  5
23E
330
1F
100
AcDbEntity
  8
0
  6
HIDDEN
 62
     7
370
     0
100
AcDbCircle
 10
110.6454002578
 20
137.4805462037
 30
0.0
 40
1.399999999999992
100
AcDbArc
 50
270.0
 51
302.5610026528
  0
LINE
  5
23F
330
1F
100
AcDbEntity
  8
0
  6
HIDDEN
 62
     7
370
     0
100
AcDbLine
 10
272.6179620367
 20
98.0635631586
 30
0.0
 11
272.0326026424
 21
98.8386630571
 31
0.0
  0
LINE
  5
240
330
1F
100
AcDbEntity
  8
0
  6
HIDDEN
 62
     7
370
     0
100
AcDbLine
 10
266.9253910061
 20
94.9816707959
 30
0.0
 11
267.5107504004
 21
94.2065708974
 31
0.0
  0
LINE
  5
241
330
1F
100
AcDbEntity
  8
0
  6
HIDDEN
 62
     7
370
     0
100
AcDbLine
 10
107.0954002578
 20
94.3980462037
 30
0.0
 11
114.6454002578
 21
94.3980462037
 31
0.0
  0
LINE
  5
242
330
1F
100
AcDbEntity
  8
0
  6
HIDDEN
 62
     7
370
     0
100
AcDbLine
 10
106.1138811814
 20
94.9647265066
 30
0.0
 11
106.1163403228
 21
94.9633067207
 31
0.0
  0
LINE
  5
243
330
1F
100
AcDbEntity
  8
0
  6
HIDDEN
 62
     7
370
     0
100
AcDbLine
 10
110.6454002578
 20
136.0805462037
 30
0.0
 11
107.2430556619
 21
136.0805462037
 31
0.0
  0
LINE
  5
244
330
1F
100
AcDbEntity
  8
0
  6
HIDDEN
 62
     7
370
     0
100
AcDbLine
 10
107.0789404134
 20
136.0710431081
 30
0.0
 11
107.0782689384
 21
136.0706554318
 31
0.0
  0
LINE
  5
245
330
1F
100
AcDbEntity
  8
0
  6
HIDDEN
 62
     7
370
     0
100
AcDbLine
 10
106.1967648271
 20
135.5617187958
 30
0.0
 11
106.194636852
 21
135.5604902089
 31
0.0
  0
LINE
  5
246
330
1F
100
AcDbEntity
  8
0
  6
HIDDEN
 62
     7
370
     0
100
AcDbLine
 10
264.9690778375
 20
101.5119528727
 30
0.0
 11
266.7201656158
 21
97.5534924532
 31
0.0
  0
LINE
  5
247
330
1F
100
AcDbEntity
  8
0
  6
HIDDEN
 62
     7
370
     0
100
AcDbLine
 10
233.3454002578
 20
121.3908741946
 30
0.0
 11
233.3454002578
 21
119.5367841249
 31
0.0
  0
LINE
  5
248
330
1F
100
AcDbEntity
  8
0
  6
HIDDEN
 62
     7
370
     0
100
AcDbLine
 10
238.3454002578
 20
119.5367841249
 30
0.0
 11
238.3454002578
 21
121.3905696536
 31
0.0
  0
LINE
  5
249
330
1F
100
AcDbEntity
  8
VERMASSUNG
100
AcDbLine
 10
277.8454002578
 20
110.0867135473
 30
0.0
 11
277.8454002578
 21
88.2105462037
 31
0.0
  0
DIMENSION
  5
24A
330
1F
100
AcDbEntity
  8
VERMASSUNG
100
AcDbDimension
  2
*D1
 10
137.8454002578
 20
153.5566329413
 30
0.0
 11
207.8454002578
 21
153.5566329413
 31
0.0
 70
   160
 71
     2
 42
-1.0
  3
SLDDIMSTYLE0
100
AcDbAlignedDimension
 13
277.8454002578
 23
110.0867135473
 33
0.0
 14
137.8454002578
 24
146.4105462037
 34
0.0
100
AcDbRotatedDimension
  0
DIMENSION
  5
255
330
1F
100
AcDbEntity
  8
VERMASSUNG
100
AcDbDimension
  2
*D2
 10
105.9454002578
 20
159.5566329413
 30
0.0
 11
191.8954002578
 21
159.5566329413
 31
0.0
 70
   160
 71
     2
 42
-1.0
  3
SLDDIMSTYLE0
100
AcDbAlignedDimension
 13
277.8454002578
 23
110.0867135473
 33
0.0
 14
105.9454002578
 24
135.1866067083
 34
0.0
100
AcDbRotatedDimension
  0
DIMENSION
  5
25F
330
1F
100
AcDbEntity
  8
VERMASSUNG
100
AcDbDimension
  2
*D3
 10
283.4960068845
 20
115.2105462037
 30
0.0
 11
283.4960068845
 21
101.7105462037
 31
0.0
 70
   160
 71
     2
 42
-1.0
  3
SLDDIMSTYLE0
100
AcDbAlignedDimension
 13
277.8454002578
 23
88.2105462037
 33
0.0
 14
272.6419039721
 24
115.2105462037
 34
0.0
 50
90.0
100
AcDbRotatedDimension
  0
DIMENSION
  5
269
330
1F
100
AcDbEntity
  8
VERMASSUNG
100
AcDbDimension
  2
*D4
 10
275.181674252
 20
106.8109153916
 30
0.0
 11
275.8901274025
 21
121.0687799009
 31
0.0
 70
   162
 71
     1
 42
-1.0
  3
SLDDIMSTYLE1
100
AcDb2LineAngularDimension
 13
277.8454002578
 23
110.0867135473
 33
0.0
 14
277.8454002578
 24
88.2105462037
 34
0.0
 15
275.6929077598
 25
100.9999616589
 35
0.0
 16
275.8901274025
 26
121.0687799009
 36
0.0
  0
DIMENSION
  5
276
330
1F
100
AcDbEntity
  8
VERMASSUNG
100
AcDbDimension
  2
*D5
 10
99.9661039721
 20
83.7105462037
 30
0.0
 11
99.9661039721
 21
115.2105462037
 31
0.0
 70
   160
  1
HSK %%c<>
 71
     2
 42
-1.0
  3
SLDDIMSTYLE0
100
AcDbAlignedDimension
 13
138.1454002578
 23
146.7105462037
 33
0.0
 14
138.1454002578
 24
83.7105462037
 34
0.0
 50
90.0
100
AcDbRotatedDimension
  0
LINE
  5
282
330
1F
100
AcDbEntity
  8
VERMASSUNG
  6
CENTERX2
370
     0
100
AcDbLine
 10
102.8977813914
 20
115.2105462037
 30
0.0
 11
272.6419039721
 21
115.2105462037
 31
0.0
  0
LINE
  5
283
330
1F
100
AcDbEntity
  8
0
  6
Continuous
 62
     7
370
    15
100
AcDbLine
 10
53.6088987096
 20
110.5958889266
 30
0.0
 11
53.4378867612
 21
110.3663210482
 31
0.0
  0
LINE
  5
284
330
1F
100
AcDbEntity
  8
0
  6
Continuous
 62
     7
370
    15
100
AcDbLine
 10
54.4067025146
 20
103.4728387698
 30
0.0
 11
54.6343672331
 21
103.299301243
 31
0.0
  0
LINE
  5
285
330
1F
100
AcDbEntity
  8
0
  6
Continuous
 62
     7
370
    15
100
AcDbLine
 10
57.4468677652
 20
88.2105889436
 30
0.0
 11
62.1347217621
 21
88.8694238572
 31
0.0
  0
LINE
  5
286
330
1F
100
AcDbEntity
  8
0
  6
Continuous
 62
     7
370
    15
100
AcDbLine
 10
56.030360204
 20
90.9281830431
 30
0.0
 11
56.4757953912
 21
90.3466044579
 31
0.0
  0
SPLINE
  5
287
330
1F
100
AcDbEntity
  8
0
  6
Continuous
 62
     7
370
    15
100
AcDbSpline
210
0.0
220
0.0
230
1.0
 70
     8
 71
     3
 72
    12
 73
     8
 74
     0
 42
0.00000001
 43
0.00000001
 40
0.0
 40
0.0
 40
0.0
 40
0.0
 40
0.0607647259461961
 40
0.3645163777844529
 40
0.563848381940378
 40
0.770620661474521
 40
1.0
 40
1.0
 40
1.0
 40
1.0
 10
55.06549399051509
 20
100.7042178901249
 30
0.0
 10
55.06477145177939
 20
100.7056469489812
 30
0.0
 10
55.06043707523698
 20
100.7142196093499
 30
0.0
 10
55.07585902418003
 20
100.6830324257876
 30
0.0
 10
55.09979427635758
 20
100.5785377148283
 30
0.0
 10
55.10937800365414
 20
100.4218703118587
 30
0.0
 10
55.07073861391891
 20
100.3051838502066
 30
0.0
 10
55.05041752076802
 20
100.2438165130689
 30
0.0
  0
LINE
  5
288
330
1F
100
AcDbEntity
  8
0
  6
Continuous
 62
     7
370
    15
100
AcDbLine
 10
55.0376483344
 20
100.2501748476
 30
0.0
 11
54.7580442906
 21
99.5384928748
 31
0.0
  0
LINE
  5
289
330
1F
100
AcDbEntity
  8
0
  6
Continuous
 62
     7
370
    15
100
AcDbLine
 10
54.4558709756
 20
101.8174922174
 30
0.0
 11
54.158610234
 21
101.7757149447
 31
0.0
  0
LINE
  5
28A
330
1F
100
AcDbEntity
  8
0
  6
Continuous
 62
     7
370
    15
100
AcDbLine
 10
62.0764318747
 20
89.5661663063
 30
0.0
 11
64.7395520342
 21
89.9404434364
 31
0.0
  0
LINE
  5
28B
330
1F
100
AcDbEntity
  8
0
  6
Continuous
 62
     7
370
    15
100
AcDbLine
 10
64.7496606492
 20
89.9474573317
 30
0.0
 11
65.0003291174
 21
90.2839567926
 31
0.0
  0
LWPOLYLINE
  5
28C
330
1F
100
AcDbEntity
  8
0
  6
Continuous
 62
     7
370
    15
100
AcDbPolyline
 90
       27
 70
   128
 43
0.0
 10
54.1342132393
 20
108.1581979249
 10
54.2683573091
 20
107.3470978344
 10
54.3846024369
 20
106.5114629676
 10
54.4761928783
 20
105.6998573856
 10
54.5378057297
 20
104.9594486547
 10
54.5658602762
 20
104.3332666391
 10
54.5587260895
 20
103.8577027615
 10
54.5168177827
 20
103.5603950659
 10
54.4425709142
 20
103.4586219947
 10
54.340300442
 20
103.5582982291
 10
54.2159499544
 20
103.8536309485
 10
54.0767462496
 20
104.3274564888
 10
53.930779341
 20
104.952237832
 10
53.7865322948
 20
105.6916649572
 10
53.6523882249
 20
106.5027650477
 10
53.5361430972
 20
107.3383999145
 10
53.4445526558
 20
108.1500054965
 10
53.3829398044
 20
108.8904142274
 10
53.3548852579
 20
109.516596243
 10
53.3620194446
 20
109.9921601206
 10
53.4039277514
 20
110.2894678163
 10
53.4781746199
 20
110.3912408874
 10
53.5804450921
 20
110.291564653
 10
53.7047955797
 20
109.9962319336
 10
53.8439992845
 20
109.5224063933
 10
53.9899661931
 20
108.8976250502
 10
54.1342132393
 20
108.1581979249
  0
LWPOLYLINE
  5
28D
330
1F
100
AcDbEntity
  8
0
  6
Continuous
 62
     7
370
    15
100
AcDbPolyline
 90
       21
 70
   128
 43
0.0
 10
54.0597101797
 20
107.6296551461
 10
54.1575549111
 20
107.0231285323
 10
54.2360980804
 20
106.4069897029
 10
54.2876513349
 20
105.8415506196
 10
54.3071682829
 20
105.3821603995
 10
54.2927384696
 20
105.073787358
 10
54.2457743855
 20
104.946617197
 10
54.1708732025
 20
105.013098218
 10
54.0753667703
 20
105.2667227954
 10
53.9686039238
 20
105.6826643885
 10
53.8610353543
 20
106.220207736
 10
53.763190623
 20
106.8267343499
 10
53.6846474537
 20
107.4428731792
 10
53.6330941992
 20
108.0083122625
 10
53.6135772512
 20
108.4677024827
 10
53.6280070645
 20
108.7760755241
 10
53.6749711486
 20
108.9032456851
 10
53.7498723316
 20
108.8367646641
 10
53.8453787638
 20
108.5831400867
 10
53.9521416103
 20
108.1671984937
 10
54.0597101797
 20
107.6296551461
  0
LINE
  5
28E
330
1F
100
AcDbEntity
  8
0
  6
Continuous
 62
     7
370
    15
100
AcDbLine
 10
54.0905539025
 20
107.4326307179
 30
0.0
 11
54.0058390973
 21
107.2350445975
 31
0.0
  0
LINE
  5
28F
330
1F
100
AcDbEntity
  8
0
  6
Continuous
 62
     7
370
    15
100
AcDbLine
 10
54.2999365653
 20
105.632786627
 30
0.0
 11
54.293676239
 21
105.6319067955
 31
0.0
  0
LINE
  5
290
330
1F
100
AcDbEntity
  8
0
  6
Continuous
 62
     7
370
    15
100
AcDbLine
 10
54.1231821045
 20
107.2515360817
 30
0.0
 11
54.0058390973
 21
107.2350445975
 31
0.0
  0
LINE
  5
291
330
1F
100
AcDbEntity
  8
0
  6
Continuous
 62
     7
370
    15
100
AcDbLine
 10
54.1778844451
 20
101.3392878206
 30
0.0
 11
55.9622070134
 21
89.4341626416
 31
0.0
  0
ARC
  5
292
330
1F
100
AcDbEntity
  8
0
  6
Continuous
 62
     7
370
    15
100
AcDbCircle
 10
55.0535501805
 20
101.5883537877
 30
0.0
 40
0.9103978998326493
100
AcDbArc
 50
168.1878974803
 51
195.8773641343
  0
LINE
  5
293
330
1F
100
AcDbEntity
  8
0
  6
Continuous
 62
     7
370
    15
100
AcDbLine
 10
55.5550271927
 20
100.906928431
 30
0.0
 11
54.1624307104
 21
101.7747147981
 31
0.0
  0
ARC
  5
294
330
1F
100
AcDbEntity
  8
0
  6
Continuous
 62
     7
370
    15
100
AcDbCircle
 10
54.5768469051
 20
100.4752645988
 30
0.0
 40
1.069191441660699
100
AcDbArc
 50
4.1232200601
 51
23.8115183253
  0
LINE
  5
295
330
1F
100
AcDbEntity
  8
0
  6
Continuous
 62
     7
370
    15
100
AcDbLine
 10
57.4275935541
 20
88.6470160677
 30
0.0
 11
55.6432709858
 21
100.5521412467
 31
0.0
  0
ARC
  5
296
330
1F
100
AcDbEntity
  8
0
  6
Continuous
 62
     7
370
    15
100
AcDbCircle
 10
56.5519278188
 20
88.3979501005
 30
0.0
 40
0.9103978998331452
100
AcDbArc
 50
348.1878974803
 51
15.8773641343
  0
LINE
  5
297
330
1F
100
AcDbEntity
  8
0
  6
Continuous
 62
     7
370
    15
100
AcDbLine
 10
56.0504508066
 20
89.0793754573
 30
0.0
 11
57.4430472888
 21
88.2115890901
 31
0.0
  0
ARC
  5
298
330
1F
100
AcDbEntity
  8
0
  6
Continuous
 62
     7
370
    15
100
AcDbCircle
 10
57.0286310941
 20
89.5110392894
 30
0.0
 40
1.069191441660432
100
AcDbArc
 50
184.1232200601
 51
203.8115183253
  0
ARC
  5
299
330
1F
100
AcDbEntity
  8
0
  6
Continuous
 62
     7
370
    15
100
AcDbCircle
 10
56.5938913539
 20
88.408387404
 30
0.0
 40
0.8648780048403646
100
AcDbArc
 50
348.1878974803
 51
15.8773641343
  0
LINE
  5
29A
330
1F
100
AcDbEntity
  8
0
  6
Continuous
 62
     7
370
    15
100
AcDbLine
 10
57.4257738025
 20
88.6450000728
 30
0.0
 11
55.6414512344
 21
100.5501252518
 31
0.0
  0
ARC
  5
29B
330
1F
100
AcDbEntity
  8
0
  6
Continuous
 62
     7
370
    15
100
AcDbCircle
 10
54.6283483592
 20
100.4770924364
 30
0.0
 40
1.015731868021444
100
AcDbArc
 50
4.1232200661
 51
23.811518364
  0
LINE
  5
29C
330
1F
100
AcDbEntity
  8
0
  6
Continuous
 62
     7
370
    15
100
AcDbLine
 10
55.5576196307
 20
100.8871730769
 30
0.0
 11
54.1650231485
 21
101.7549594441
 31
0.0
  0
ARC
  5
29D
330
1F
100
AcDbEntity
  8
0
  6
Continuous
 62
     7
370
    15
100
AcDbCircle
 10
55.011586645
 20
101.5779164842
 30
0.0
 40
0.8648780048406178
100
AcDbArc
 50
168.1878974803
 51
195.8773641343
  0
LINE
  5
29E
330
1F
100
AcDbEntity
  8
0
  6
Continuous
 62
     7
370
    15
100
AcDbLine
 10
54.1797041964
 20
101.3413038154
 30
0.0
 11
55.9640267647
 21
89.4361786364
 31
0.0
  0
ARC
  5
29F
330
1F
100
AcDbEntity
  8
0
  6
Continuous
 62
     7
370
    15
100
AcDbCircle
 10
56.9771296414
 20
89.5092114518
 30
0.0
 40
1.015731869577917
100
AcDbArc
 50
184.1232200601
 51
203.8115183253
  0
LINE
  5
2A0
330
1F
100
AcDbEntity
  8
0
  6
Continuous
 62
     7
370
    15
100
AcDbLine
 10
56.0478583682
 20
89.0991308113
 30
0.0
 11
57.4404548504
 21
88.2313444442
 31
0.0
  0
LINE
  5
2A1
330
1F
100
AcDbEntity
  8
0
  6
Continuous
 62
     7
370
    15
100
AcDbLine
 10
62.1154475509
 20
89.3058509814
 30
0.0
 11
60.3311249827
 21
101.2109761603
 31
0.0
  0
ARC
  5
2A2
330
1F
100
AcDbEntity
  8
0
  6
Continuous
 62
     7
370
    15
100
AcDbCircle
 10
61.1009036268
 20
89.0424058553
 30
0.0
 40
1.048190206275459
100
AcDbArc
 50
350.5010688618
 51
14.5564253113
  0
LINE
  5
2A3
330
1F
100
AcDbEntity
  8
0
  6
Continuous
 62
     7
370
    15
100
AcDbLine
 10
57.4558086727
 20
88.2686879332
 30
0.0
 11
57.4404548504
 21
88.2313444442
 31
0.0
  0
LINE
  5
2A4
330
1F
100
AcDbEntity
  8
0
  6
Continuous
 62
     7
370
    15
100
AcDbLine
 10
56.2146698642
 20
89.5048488902
 30
0.0
 11
56.0478583682
 21
89.0991308113
 31
0.0
  0
LINE
  5
2A5
330
1F
100
AcDbEntity
  8
0
  6
Continuous
 62
     7
370
    15
100
AcDbLine
 10
56.5476022677
 20
90.13097184
 30
0.0
 11
56.2146698642
 21
89.5048488902
 31
0.0
  0
ARC
  5
2A6
330
1F
100
AcDbEntity
  8
0
  6
Continuous
 62
     7
370
    15
100
AcDbCircle
 10
59.264700902
 20
101.1340995125
 30
0.0
 40
1.069191441660885
100
AcDbArc
 50
4.1232200601
 51
23.8115183253
  0
LINE
  5
2A7
330
1F
100
AcDbEntity
  8
0
  6
Continuous
 62
     7
370
    15
100
AcDbLine
 10
55.5667733504
 20
100.8752710339
 30
0.0
 11
55.5576196307
 21
100.8871730769
 31
0.0
  0
LINE
  5
2A8
330
1F
100
AcDbEntity
  8
0
  6
Continuous
 62
     7
370
    15
100
AcDbLine
 10
56.7827299707
 20
91.5196831606
 30
0.0
 11
55.7841091048
 21
98.1825515381
 31
0.0
  0
LINE
  5
2A9
330
1F
100
AcDbEntity
  8
0
  6
Continuous
 62
     7
370
    15
100
AcDbLine
 10
60.2428811895
 20
101.5657633446
 30
0.0
 11
60.1602195182
 21
101.6172733638
 31
0.0
  0
LINE
  5
2AA
330
1F
100
AcDbEntity
  8
0
  6
Continuous
 62
     7
370
    15
100
AcDbLine
 10
54.4303472959
 20
101.4099740692
 30
0.0
 11
54.1650231485
 21
101.7549594441
 31
0.0
  0
LINE
  5
2AB
330
1F
100
AcDbEntity
  8
0
  6
Continuous
 62
     7
370
    15
100
AcDbLine
 10
55.1283863442
 20
100.5800451727
 30
0.0
 11
54.4303472959
 21
101.4099740692
 31
0.0
  0
ARC
  5
2AC
330
1F
100
AcDbEntity
  8
0
  6
Continuous
 62
     7
370
    15
100
AcDbCircle
 10
54.5935656318
 20
90.8970182421
 30
0.0
 40
2.275994750326074
100
AcDbArc
 50
348.1878974917
 51
15.8773641436
  0
LINE
  5
2AD
330
1F
100
AcDbEntity
  8
0
  6
Continuous
 62
     7
370
    15
100
AcDbLine
 10
54.8227480282
 20
98.4666207276
 30
0.0
 11
55.8213688941
 21
91.8037523501
 31
0.0
  0
ARC
  5
2AE
330
1F
100
AcDbEntity
  8
0
  6
Continuous
 62
     7
370
    15
100
AcDbCircle
 10
57.0119123665
 20
99.0892856456
 30
0.0
 40
2.275994749581513
100
AcDbArc
 50
168.1878974803
 51
195.8773641343
  0
LINE
  5
2AF
330
1F
100
AcDbEntity
  8
0
  6
Continuous
 62
     7
370
    15
100
AcDbLine
 10
55.5634996219
 20
99.0695194988
 30
0.0
 11
54.7841136915
 21
99.5551881715
 31
0.0
  0
ARC
  5
2B0
330
1F
100
AcDbEntity
  8
0
  6
Continuous
 62
     7
370
    15
100
AcDbCircle
 10
53.118048903
 20
97.9903599185
 30
0.0
 40
2.672978604152269
100
AcDbArc
 50
4.1232200601
 51
23.8115183253
  0
LINE
  5
2B1
330
1F
100
AcDbEntity
  8
0
  6
Continuous
 62
     7
370
    15
100
AcDbLine
 10
56.041978377
 20
90.9167843894
 30
0.0
 11
56.8213643076
 21
90.4311157164
 31
0.0
  0
ARC
  5
2B2
330
1F
100
AcDbEntity
  8
0
  6
Continuous
 62
     7
370
    15
100
AcDbCircle
 10
58.4874290959
 20
91.9959439697
 30
0.0
 40
2.672978604152192
100
AcDbArc
 50
184.1232200601
 51
203.8115183253
  0
LWPOLYLINE
  5
2B3
330
1F
100
AcDbEntity
  8
0
  6
Continuous
 62
     7
370
    15
100
AcDbPolyline
 90
       23
 70
   128
 43
0.0
 10
56.137163527
 20
92.4447112721
 10
56.2073866016
 20
92.4957405977
 10
56.2448275341
 20
92.7490953379
 10
56.2464530827
 20
93.1842501985
 10
56.2121315552
 20
93.7659515205
 10
56.1446434775
 20
94.4470733224
 10
56.0494563325
 20
95.1724351665
 10
55.9342816164
 20
95.8832725503
 10
55.8084500998
 20
96.5219976562
 10
55.6821559039
 20
97.036864775
 10
55.5656306332
 20
97.3861624347
 10
55.4683144723
 20
97.5415926161
 10
55.3980913976
 20
97.4905632905
 10
55.3606504651
 20
97.2372085503
 10
55.3590249165
 20
96.8020536898
 10
55.3933464441
 20
96.2203523678
 10
55.4608345217
 20
95.5392305659
 10
55.5560216667
 20
94.8138687217
 10
55.6711963828
 20
94.103031338
 10
55.7970278994
 20
93.464306232
 10
55.9233220953
 20
92.9494391132
 10
56.039847366
 20
92.6001414536
 10
56.137163527
 20
92.4447112721
  0
LINE
  5
2B4
330
1F
100
AcDbEntity
  8
0
  6
Continuous
 62
     7
370
    15
100
AcDbLine
 10
56.4905961361
 20
90.3574885431
 30
0.0
 11
56.4958223135
 21
90.3266778271
 31
0.0
  0
LINE
  5
2B5
330
1F
100
AcDbEntity
  8
0
  6
Continuous
 62
     7
370
    15
100
AcDbLine
 10
56.2146698642
 20
89.5048488902
 30
0.0
 11
55.9640267647
 21
89.4361786364
 31
0.0
  0
LINE
  5
2B6
330
1F
100
AcDbEntity
  8
0
  6
Continuous
 62
     7
370
    15
100
AcDbLine
 10
54.4303472959
 20
101.4099740692
 30
0.0
 11
54.1797041964
 21
101.3413038154
 31
0.0
  0
ARC
  5
2B7
330
1F
100
AcDbEntity
  8
0
  6
Continuous
 62
     7
370
    15
100
AcDbCircle
 10
62.155006696
 20
90.3728984315
 30
0.0
 40
2.620475515690636
100
AcDbArc
 50
350.5010688618
 51
14.5564253113
  0
LINE
  5
2B8
330
1F
100
AcDbEntity
  8
0
  6
Continuous
 62
     7
370
    15
100
AcDbLine
 10
64.6913665064
 20
91.0315112468
 30
0.0
 11
63.2489141445
 21
100.6556544587
 31
0.0
  0
ARC
  5
2B9
330
1F
100
AcDbEntity
  8
0
  6
Continuous
 62
     7
370
    15
100
AcDbCircle
 10
62.880907614
 20
90.5505025984
 30
0.0
 40
2.136116611005888
100
AcDbArc
 50
352.8319169909
 51
13.3242242995
  0
LINE
  5
2BA
330
1F
100
AcDbEntity
  8
0
  6
Continuous
 62
     7
370
    15
100
AcDbLine
 10
63.5170708555
 20
100.666937745
 30
0.0
 11
64.9595232174
 21
91.0427945331
 31
0.0
  0
ARC
  5
2BB
330
1F
100
AcDbEntity
  8
0
  6
Continuous
 62
     7
370
    15
100
AcDbCircle
 10
59.8476243814
 20
100.3238568599
 30
0.0
 40
3.417434958957417
100
AcDbArc
 50
5.5716046186
 51
20.3605021016
  0
LINE
  5
2BC
330
1F
100
AcDbEntity
  8
0
  6
Continuous
 62
     7
370
    15
100
AcDbLine
 10
63.3626442175
 20
101.2878153175
 30
0.0
 11
63.0648830242
 21
101.5147452914
 31
0.0
  0
ARC
  5
2BD
330
1F
100
AcDbEntity
  8
0
  6
Continuous
 62
     7
370
    15
100
AcDbCircle
 10
61.6508287143
 20
100.5324036113
 30
0.0
 40
1.871085022907308
100
AcDbArc
 50
4.1232200601
 51
23.8115183253
  0
LINE
  5
2BE
330
1F
100
AcDbEntity
  8
0
  6
Continuous
 62
     7
370
    15
100
AcDbLine
 10
63.3669926745
 20
101.5572040339
 30
0.0
 11
60.4715534412
 21
101.1502765872
 31
0.0
  0
LINE
  5
2BF
330
1F
100
AcDbEntity
  8
0
  6
Continuous
 62
     7
370
    15
100
AcDbLine
 10
60.4715534412
 20
101.1502765872
 30
0.0
 11
60.3965819047
 21
101.6504919308
 31
0.0
  0
LINE
  5
2C0
330
1F
100
AcDbEntity
  8
0
  6
Continuous
 62
     7
370
    15
100
AcDbLine
 10
60.3965819047
 20
101.6504919308
 30
0.0
 11
55.7678185044
 21
100.9999616589
 31
0.0
  0
LINE
  5
2C1
330
1F
100
AcDbEntity
  8
0
  6
Continuous
 62
     7
370
    15
100
AcDbLine
 10
55.7678185044
 20
100.9999616589
 30
0.0
 11
54.8968813464
 21
106.8109153916
 31
0.0
  0
LINE
  5
2C2
330
1F
100
AcDbEntity
  8
0
  6
Continuous
 62
     7
370
    15
100
AcDbLine
 10
77.9890960617
 20
110.0563145228
 30
0.0
 11
54.8968813464
 21
106.8109153916
 31
0.0
  0
LINE
  5
2C3
330
1F
100
AcDbEntity
  8
0
  6
Continuous
 62
     7
370
    15
100
AcDbLine
 10
77.9890960617
 20
100.9038622009
 30
0.0
 11
77.9890960617
 21
110.0563145228
 31
0.0
  0
SPLINE
  5
2C4
330
1F
100
AcDbEntity
  8
0
  6
Continuous
 62
     7
370
    15
100
AcDbSpline
210
0.0
220
0.0
230
1.0
 70
     8
 71
     3
 72
    32
 73
    28
 74
     0
 42
0.00000001
 43
0.00000001
 40
0.0
 40
0.0
 40
0.0
 40
0.0
 40
0.0311872114981615
 40
0.0623174262075645
 40
0.0934041101051559
 40
0.124460785791984
 40
0.155501015088133
 40
0.1865383813725177
 40
0.2175864717817091
 40
0.2486588593841501
 40
0.2797690854464615
 40
0.3109306419071488
 40
0.342156954169885
 40
0.373461364323727
 40
0.4048571148913235
 40
0.4363573331984757
 40
0.4679750164495706
 40
0.4997230175836208
 40
0.556081453597496
 40
0.612072984831219
 40
0.6677708191993785
 40
0.7232493272916831
 40
0.7785837640416122
 40
0.8338499729233055
 40
0.88912407826493
 40
0.9444821718187915
 40
1.0
 40
1.0
 40
1.0
 40
1.0
 10
64.92492582669979
 20
91.16525254536656
 30
0.0
 10
65.0893191302718
 20
91.21855892916767
 30
0.0
 10
65.41780529726914
 20
91.32507427566195
 30
0.0
 10
65.90569770366287
 20
91.49765703744202
 30
0.0
 10
66.38936560923717
 20
91.67940778282602
 30
0.0
 10
66.86850566829764
 20
91.87125461063134
 30
0.0
 10
67.3431986463261
 20
92.07294921164414
 30
0.0
 10
67.81342257495076
 20
92.28455791306587
 30
0.0
 10
68.27918299483423
 20
92.50606279866079
 30
0.0
 10
68.74047809340931
 20
92.73746848697917
 30
0.0
 10
69.19730804690879
 20
92.97877353167841
 30
0.0
 10
69.64967251598995
 20
93.22997808551969
 30
0.0
 10
70.09757133031398
 20
93.49108186210658
 30
0.0
 10
70.54100426697569
 20
93.7620846292102
 30
0.0
 10
70.97997126048482
 20
94.04298629000041
 30
0.0
 10
71.41447178924376
 20
94.33378607322173
 30
0.0
 10
71.84450713558125
 20
94.63448572075367
 30
0.0
 10
72.37938153100572
 20
95.02485540276912
 30
0.0
 10
73.00987301668572
 20
95.51246500927674
 30
0.0
 10
73.72395999081355
 20
96.10734313280341
 30
0.0
 10
74.4120550734226
 20
96.72473837396504
 30
0.0
 10
75.07416087810047
 20
97.3646372322402
 30
0.0
 10
75.71022543624498
 20
98.02707145095832
 30
0.0
 10
76.32042661011276
 20
98.71191306409241
 30
0.0
 10
76.90408040442665
 20
99.41962330893934
 30
0.0
 10
77.46372735125422
 20
100.1484600318107
 30
0.0
 10
77.8138050390982
 20
100.6518197543534
 30
0.0
 10
77.98909605467357
 20
100.9038622010105
 30
0.0
  0
LINE
  5
2C5
330
1F
100
AcDbEntity
  8
0
  6
Continuous
 62
     7
370
    15
100
AcDbLine
 10
63.4375805868
 20
101.0862365377
 30
0.0
 11
63.3669926745
 21
101.5572040339
 31
0.0
  0
SPLINE
  5
2C6
330
1F
100
AcDbEntity
  8
0
  6
Continuous
 62
     7
370
    15
100
AcDbSpline
210
0.0
220
0.0
230
1.0
 70
     8
 71
     3
 72
    31
 73
    27
 74
     0
 42
0.00000001
 43
0.00000001
 40
0.0
 40
0.0
 40
0.0
 40
0.0
 40
0.0312058637747624
 40
0.0624202211330121
 40
0.0936430725863915
 40
0.1248744186465285
 40
0.1561142598250364
 40
0.1873625966335092
 40
0.2186194295835325
 40
0.2498847591866704
 40
0.2811585859544748
 40
0.312440910398481
 40
0.3437317330302105
 40
0.3750310543611689
 40
0.4063388749028462
 40
0.4376551951667173
 40
0.4689800156642436
 40
0.5003133369068681
 40
0.5646971931479945
 40
0.6285338980263097
 40
0.6918222734516959
 40
0.7545611700250248
 40
0.8167494673175317
 40
0.8783860741626784
 40
0.9394699289611851
 40
1.0
 40
1.0
 40
1.0
 40
1.0
 10
77.98914619204115
 20
99.72420524212863
 30
0.0
 10
77.88811871109874
 20
99.58815365616957
 30
0.0
 10
77.68603625164647
 20
99.31601345385508
 30
0.0
 10
77.37270324940712
 20
98.9154522331976
 30
0.0
 10
77.05199421403219
 20
98.52062319050847
 30
0.0
 10
76.72329153925223
 20
98.13222627793857
 30
0.0
 10
76.38691770552286
 20
97.75027185408928
 30
0.0
 10
76.04294712685913
 20
97.3749520383143
 30
0.0
 10
75.69152458427895
 20
97.006407058609
 30
0.0
 10
75.33277980566352
 20
96.64478780734467
 30
0.0
 10
74.96685029531368
 20
96.29023899632672
 30
0.0
 10
74.59387516406136
 20
95.94290360038383
 30
0.0
 10
74.21399665935598
 20
95.60292158356302
 30
0.0
 10
73.82735989902193
 20
95.270430204467
 30
0.0
 10
73.4341120801546
 20
94.94556373077978
 30
0.0
 10
73.03440557938225
 20
94.62845394398609
 30
0.0
 10
72.6283860000137
 20
94.31922807986636
 30
0.0
 10
72.07136143765455
 20
93.91213693348703
 30
0.0
 10
71.35633238328506
 20
93.42211790546077
 30
0.0
 10
70.4746520339252
 20
92.86923141953761
 30
0.0
 10
69.57892444590365
 20
92.35662601278713
 30
0.0
 10
68.67111858193226
 20
91.88429357063748
 30
0.0
 10
67.75325890445879
 20
91.45180936363043
 30
0.0
 10
66.82694738323845
 20
91.05981961484794
 30
0.0
 10
65.89510251898295
 20
90.70462725454426
 30
0.0
 10
65.26586112313939
 20
90.49936495249817
 30
0.0
 10
64.95267308872035
 20
90.3972011448676
 30
0.0
  0
SPLINE
  5
2C7
330
1F
100
AcDbEntity
  8
0
  6
Continuous
 62
     7
370
    15
100
AcDbSpline
210
0.0
220
0.0
230
1.0
 70
    24
 71
     3
 72
     9
 73
     5
 74
     0
 42
0.00000001
 43
0.00000001
 40
0.0
 40
0.0
 40
0.0
 40
0.0
 40
0.4944450011115746
 40
1.0
 40
1.0
 40
1.0
 40
1.0
 10
77.98909606166832
 20
100.905728981121
 30
0.0
 10
77.98909606166832
 20
100.7094215875307
 30
0.0
 10
77.98909606166833
 20
100.3123958452358
 30
0.0
 10
77.98909606166832
 20
99.91966580823123
 30
0.0
 10
77.98909606166832
 20
99.72111917480991
 30
0.0
  0
SPLINE
  5
2C8
330
1F
100
AcDbEntity
  8
0
  6
Continuous
 62
     7
370
    15
100
AcDbSpline
210
0.0
220
0.0
230
1.0
 70
     8
 71
     3
 72
     8
 73
     4
 74
     0
 42
0.00000001
 43
0.00000001
 40
0.0
 40
0.0
 40
0.0
 40
0.0
 40
1.0
 40
1.0
 40
1.0
 40
1.0
 10
54.00744295421791
 20
95.5159253228364
 30
0.0
 10
54.33446496355351
 20
94.15679764226428
 30
0.0
 10
54.66115344052722
 20
92.80891016340428
 30
0.0
 10
54.98765168336148
 20
91.46743366693948
 30
0.0
  0
ARC
  5
2C9
330
1F
100
AcDbEntity
  8
0
  6
Continuous
 62
     7
370
    15
100
AcDbCircle
 10
57.4890960617
 20
115.2105462037
 30
0.0
 40
19.99999999999998
100
AcDbArc
 50
259.0543608099
 51
259.974721251
  0
ARC
  5
2CA
330
1F
100
AcDbEntity
  8
0
  6
Continuous
 62
     7
370
    15
100
AcDbCircle
 10
57.4890960617
 20
115.2105462037
 30
0.0
 40
19.99999999999994
100
AcDbArc
 50
116.025278749
 51
116.9456391901
  0
SPLINE
  5
2CB
330
1F
100
AcDbEntity
  8
0
  6
Continuous
 62
     7
370
    15
100
AcDbSpline
210
0.0
220
0.0
230
1.0
 70
     8
 71
     3
 72
     8
 73
     4
 74
     0
 42
0.00000001
 43
0.00000001
 40
0.0
 40
0.0
 40
0.0
 40
0.0
 40
1.0
 40
1.0
 40
1.0
 40
1.0
 10
48.69039466169776
 20
133.7262923045915
 30
0.0
 10
48.69813166238949
 20
133.5452269559217
 30
0.0
 10
48.70591327053108
 20
133.3639866097411
 30
0.0
 10
48.71374306752359
 20
133.1825572160137
 30
0.0
  0
ARC
  5
2CC
330
1F
100
AcDbEntity
  8
0
  6
Continuous
 62
     7
370
    15
100
AcDbCircle
 10
57.4890960617
 20
115.2105462037
 30
0.0
 40
20.49999999999992
100
AcDbArc
 50
114.3137873733
 51
115.4171146188
  0
LINE
  5
2CD
330
1F
100
AcDbEntity
  8
0
  6
Continuous
 62
     7
370
    15
100
AcDbLine
 10
54.8968813464
 20
106.8109153916
 30
0.0
 11
49.0485559851
 21
133.8922828257
 31
0.0
  0
ARC
  5
2CE
330
1F
100
AcDbEntity
  8
0
  6
Continuous
 62
     7
370
    15
100
AcDbCircle
 10
73.9020013502
 20
102.277750648
 30
0.0
 40
19.68749907880455
100
AcDbArc
 50
184.7739059157
 51
192.2740110449
  0
LWPOLYLINE
  5
2CF
330
1F
100
AcDbEntity
  8
0
  6
Continuous
 62
     7
370
    15
100
AcDbPolyline
 90
        3
 70
   128
 43
0.0
 10
54.2708488308
 20
101.7914890508
 10
54.2788401721
 20
101.8234876901
 10
54.3476226676
 20
101.8849463631
  0
SPLINE
  5
2D0
330
1F
100
AcDbEntity
  8
0
  6
Continuous
 62
     7
370
    15
100
AcDbSpline
210
0.0
220
0.0
230
1.0
 70
     8
 71
     3
 72
     9
 73
     5
 74
     0
 42
0.00000001
 43
0.00000001
 40
0.0
 40
0.0
 40
0.0
 40
0.0
 40
0.2749189100741106
 40
1.0
 40
1.0
 40
1.0
 40
1.0
 10
55.76828597374001
 20
90.72801740357117
 30
0.0
 10
55.69695720294615
 20
90.79413298656728
 30
0.0
 10
55.43750334880918
 20
91.03462420260725
 30
0.0
 10
55.17673203314479
 20
91.28551644579497
 30
0.0
 10
54.98765168336145
 20
91.46743366693948
 30
0.0
  0
LWPOLYLINE
  5
2D1
330
1F
100
AcDbEntity
  8
0
  6
Continuous
 62
     7
370
    15
100
AcDbPolyline
 90
       29
 70
   128
 43
0.0
 10
53.4036803632
 20
110.886003716
 10
53.5097714391
 20
110.7996399021
 10
53.6384575472
 20
110.5189820265
 10
53.7832858286
 20
110.0581034472
 10
53.9369939885
 20
109.4401145404
 10
54.0918744581
 20
108.6960038506
 10
54.2401608837
 20
107.8630841948
 10
54.3744175648
 20
106.9831216425
 10
54.4879123109
 20
106.1002411906
 10
54.5749540215
 20
105.2587141514
 10
54.6311780617
 20
104.5007382047
 10
54.6537651234
 20
103.8643214294
 10
54.6415825969
 20
103.38137642
 10
54.5952413652
 20
103.076120056
 10
54.5170651709
 20
102.9638591661
 10
54.4109740949
 20
103.05022298
 10
54.2822879869
 20
103.3308808556
 10
54.1374597055
 20
103.791759435
 10
53.9837515455
 20
104.4097483417
 10
53.828871076
 20
105.1538590315
 10
53.6805846504
 20
105.9867786873
 10
53.5463279692
 20
106.8667412396
 10
53.4328332232
 20
107.7496216915
 10
53.3457915126
 20
108.5911487307
 10
53.2895674724
 20
109.3491246774
 10
53.2669804107
 20
109.9855414528
 10
53.2791629372
 20
110.4684864621
 10
53.3255041689
 20
110.7737428261
 10
53.4036803632
 20
110.886003716
  0
LINE
  5
2D2
330
1F
100
AcDbEntity
  8
0
  6
Continuous
 62
     7
370
    15
100
AcDbLine
 10
54.3476226676
 20
101.8849463631
 30
0.0
 11
55.7678185044
 21
100.9999616589
 31
0.0
  0
LINE
  5
2D3
330
1F
100
AcDbEntity
  8
0
  6
Continuous
 62
     7
370
    15
100
AcDbLine
 10
60.3265594952
 20
101.2406285099
 30
0.0
 11
60.4715534412
 21
101.1502765872
 31
0.0
  0
ARC
  5
2D4
330
1F
100
AcDbEntity
  8
0
  6
Continuous
 62
     7
370
    15
100
AcDbCircle
 10
57.4890960617
 20
115.2105462037
 30
0.0
 40
20.50000000000004
100
AcDbArc
 50
0.0
 51
114.3137873733
  0
LINE
  5
2D5
330
1F
100
AcDbEntity
  8
0
  6
Continuous
 62
     7
370
    15
100
AcDbLine
 10
77.9890960617
 20
110.0563145228
 30
0.0
 11
77.9890960617
 21
115.2105462037
 31
0.0
  0
SPLINE
  5
2D6
330
1F
100
AcDbEntity
  8
0
  6
Continuous
 62
     7
370
    15
100
AcDbSpline
210
0.0
220
0.0
230
1.0
 70
     8
 71
     3
 72
    18
 73
    14
 74
     0
 42
0.00000001
 43
0.00000001
 40
0.0
 40
0.0
 40
0.0
 40
0.0
 40
0.2500000000000004
 40
0.2500000000000004
 40
0.5000000000000009
 40
0.5000000000000009
 40
0.6250000000000007
 40
0.6250000000000007
 40
0.7500000000000004
 40
0.7500000000000004
 40
0.8750000000000002
 40
0.8750000000000002
 40
1.0
 40
1.0
 40
1.0
 40
1.0
 10
47.49103010429748
 20
107.9758859201899
 30
0.0
 10
47.72173867409928
 20
107.7529124967329
 30
0.0
 10
47.91800146590343
 20
107.5036145873856
 30
0.0
 10
48.24427240352401
 20
106.9507266218176
 30
0.0
 10
48.37025794531721
 20
106.6537959603444
 30
0.0
 10
48.47593327337453
 20
106.1770251113009
 30
0.0
 10
48.49598619781216
 20
106.0163118032898
 30
0.0
 10
48.4990869639203
 20
105.6938062421705
 30
0.0
 10
48.48131156816472
 20
105.5303338145256
 30
0.0
 10
48.40428706959305
 20
105.2218801704973
 30
0.0
 10
48.3441731600428
 20
105.0723962750412
 30
0.0
 10
48.18395305637967
 20
104.7976670235912
 30
0.0
 10
48.08590557341049
 20
104.6743369875939
 30
0.0
 10
47.97057364245435
 20
104.5637563482229
 30
0.0
  0
SPLINE
  5
2D7
330
1F
100
AcDbEntity
  8
0
  6
Continuous
 62
     7
370
    15
100
AcDbSpline
210
0.0
220
0.0
230
1.0
 70
     8
 71
     3
 72
    14
 73
    10
 74
     0
 42
0.00000001
 43
0.00000001
 40
0.0
 40
0.0
 40
0.0
 40
0.0
 40
0.25
 40
0.25
 40
0.5
 40
0.5
 40
0.75
 40
0.75
 40
1.0
 40
1.0
 40
1.0
 40
1.0
 10
53.69154473787819
 20
95.57439067506499
 30
0.0
 10
53.62196292636626
 20
95.58784750983259
 30
0.0
 10
53.45096233289971
 20
95.62050037668546
 30
0.0
 10
52.91105965306726
 20
95.73959342379061
 30
0.0
 10
52.55609723723607
 20
95.82327342575664
 30
0.0
 10
51.69267639664706
 20
96.063683739182
 30
0.0
 10
51.20445207472375
 20
96.21522143581431
 30
0.0
 10
50.14227932548103
 20
96.6002426885787
 30
0.0
 10
49.5868103808923
 20
96.8272819842384
 30
0.0
 10
49.02067663426488
 20
97.09188531490865
 30
0.0
  0
SPLINE
  5
2D8
330
1F
100
AcDbEntity
  8
0
  6
Continuous
 62
     7
370
    15
100
AcDbSpline
210
0.0
220
0.0
230
1.0
 70
     8
 71
     3
 72
    20
 73
    16
 74
     0
 42
0.00000001
 43
0.00000001
 40
0.0
 40
0.0
 40
0.0
 40
0.0
 40
0.2500000000000019
 40
0.2500000000000019
 40
0.3750000000000016
 40
0.3750000000000016
 40
0.5000000000000013
 40
0.5000000000000013
 40
0.6250000000000011
 40
0.6250000000000011
 40
0.7500000000000007
 40
0.7500000000000007
 40
0.8750000000000003
 40
0.8750000000000003
 40
1.0
 40
1.0
 40
1.0
 40
1.0
 10
44.35454906264555
 20
130.2931081587943
 30
0.0
 10
44.82601294440376
 20
130.7036792893301
 30
0.0
 10
45.29420439659621
 20
131.0724950476429
 30
0.0
 10
45.9777470160405
 20
131.5680534744125
 30
0.0
 10
46.20212068061671
 20
131.7232322330594
 30
0.0
 10
46.62543665793046
 20
132.0047570370861
 30
0.0
 10
46.82649888521681
 20
132.1326674391637
 30
0.0
 10
47.20429339541445
 20
132.364904243895
 30
0.0
 10
47.38258469087943
 20
132.4700934281939
 30
0.0
 10
47.70035485971935
 20
132.6522802964923
 30
0.0
 10
47.84036102481264
 20
132.7296975930906
 30
0.0
 10
48.08116589939868
 20
132.8601808536773
 30
0.0
 10
48.18250039401941
 20
132.9135144145797
 30
0.0
 10
48.33927308026745
 20
132.9950491713272
 30
0.0
 10
48.39457465429246
 20
133.0232085193399
 30
0.0
 10
48.42619744743617
 20
133.0392833633175
 30
0.0
  0
ELLIPSE
  5
2D9
330
1F
100
AcDbEntity
  8
0
  6
Continuous
 62
     7
370
    15
100
AcDbEllipse
 10
46.0647613186
 20
106.4933035643
 30
0.0
 11
1.944517034299814
 21
-1.891116789252735
 31
0.0
210
0.0
220
0.0
230
1.0
 40
0.7584394521
 41
1.574919010900742
 42
6.256673495365154
  0
ARC
  5
2DA
330
1F
100
AcDbEntity
  8
0
  6
Continuous
 62
     7
370
    15
100
AcDbCircle
 10
57.4890960617
 20
115.2105462037
 30
0.0
 40
20.00000000000002
100
AcDbArc
 50
131.0507569084
 51
244.9492430916
  0
SPLINE
  5
2DB
330
1F
100
AcDbEntity
  8
0
  6
Continuous
 62
     7
370
    15
100
AcDbSpline
210
0.0
220
0.0
230
1.0
 70
    24
 71
     3
 72
    10
 73
     6
 74
     0
 42
0.00000001
 43
0.00000001
 40
0.0
 40
0.0
 40
0.0
 40
0.0
 40
0.5
 40
0.5
 40
1.0
 40
1.0
 40
1.0
 40
1.0
 10
48.48909606166867
 20
85.65026880306735
 30
0.0
 10
48.48909606166867
 20
85.49038153487369
 30
0.0
 10
48.48909606166868
 20
85.3292542793591
 30
0.0
 10
48.48909606166868
 20
85.09515528100428
 30
0.0
 10
48.48909606166868
 20
85.02362850741306
 30
0.0
 10
48.48909606166868
 20
85.02362850741305
 30
0.0
  0
ARC
  5
2DC
330
1F
100
AcDbEntity
  8
0
  6
Continuous
 62
     7
370
    15
100
AcDbCircle
 10
57.4890960617
 20
115.2105462037
 30
0.0
 40
31.50000000000003
100
AcDbArc
 50
140.9381656697
 51
253.398450401
  0
SPLINE
  5
2DD
330
1F
100
AcDbEntity
  8
0
  6
Continuous
 62
     7
370
    15
100
AcDbSpline
210
0.0
220
0.0
230
1.0
 70
    24
 71
     3
 72
    12
 73
     8
 74
     0
 42
0.00000001
 43
0.00000001
 40
0.0
 40
0.0
 40
0.0
 40
0.0
 40
0.2499999999999986
 40
0.2499999999999986
 40
0.4999999999999972
 40
0.4999999999999972
 40
1.0
 40
1.0
 40
1.0
 40
1.0
 10
33.03040639930107
 20
135.0605462036602
 30
0.0
 10
33.03040639930105
 20
135.0605462036602
 30
0.0
 10
33.05823611960455
 20
135.0605462036602
 30
0.0
 10
33.15337858086122
 20
135.0605462036602
 30
0.0
 10
33.21980139716159
 20
135.0605462036602
 30
0.0
 10
33.44400082868169
 20
135.0605462036602
 30
0.0
 10
33.62798723122732
 20
135.0605462036602
 30
0.0
 10
33.80814380041029
 20
135.0605462036602
 30
0.0
  0
SPLINE
  5
2DE
330
1F
100
AcDbEntity
  8
0
  6
Continuous
 62
     7
370
    15
100
AcDbSpline
210
0.0
220
0.0
230
1.0
 70
    24
 71
     3
 72
    10
 73
     6
 74
     0
 42
0.00000001
 43
0.00000001
 40
0.0
 40
0.0
 40
0.0
 40
0.0
 40
0.5
 40
0.5
 40
1.0
 40
1.0
 40
1.0
 40
1.0
 10
49.4890960616687
 20
145.0569865274241
 30
0.0
 10
49.4890960616687
 20
145.2173917937749
 30
0.0
 10
49.4890960616687
 20
145.3764536067635
 30
0.0
 10
49.4890960616687
 20
145.6073660723938
 30
0.0
 10
49.4890960616687
 20
145.6777416768244
 30
0.0
 10
49.4890960616687
 20
145.6777416768244
 30
0.0
  0
SPLINE
  5
2DF
330
1F
100
AcDbEntity
  8
0
  6
Continuous
 62
     7
370
    15
100
AcDbSpline
210
0.0
220
0.0
230
1.0
 70
    24
 71
     3
 72
    12
 73
     8
 74
     0
 42
0.00000001
 43
0.00000001
 40
0.0
 40
0.0
 40
0.0
 40
0.0
 40
0.250000000000002
 40
0.250000000000002
 40
0.500000000000004
 40
0.500000000000004
 40
1.0
 40
1.0
 40
1.0
 40
1.0
 10
37.63909606166868
 20
139.6692358660276
 30
0.0
 10
37.63909606166868
 20
139.6692358660276
 30
0.0
 10
37.63909606166868
 20
139.6410161674397
 30
0.0
 10
37.63909606166868
 20
139.5465731601917
 30
0.0
 10
37.63909606166868
 20
139.4802861834863
 30
0.0
 10
37.63909606166868
 20
139.254661360198
 30
0.0
 10
37.63909606166868
 20
139.0722350971654
 30
0.0
 10
37.63909606166868
 20
138.8914984649186
 30
0.0
  0
ARC
  5
2E0
330
1F
100
AcDbEntity
  8
0
  6
Continuous
 62
     7
370
    15
100
AcDbCircle
 10
57.4890960617
 20
115.2105462037
 30
0.0
 40
31.50000000000002
100
AcDbArc
 50
104.7124579609
 51
129.0618343303
  0
SPLINE
  5
2E1
330
1F
100
AcDbEntity
  8
0
  6
Continuous
 62
     7
370
    15
100
AcDbSpline
210
0.0
220
0.0
230
1.0
 70
    24
 71
     3
 72
    12
 73
     8
 74
     0
 42
0.00000001
 43
0.00000001
 40
0.0
 40
0.0
 40
0.0
 40
0.0
 40
0.2500000000000019
 40
0.2500000000000019
 40
0.5000000000000038
 40
0.5000000000000038
 40
1.0
 40
1.0
 40
1.0
 40
1.0
 10
65.4890960616687
 20
145.6777416768244
 30
0.0
 10
65.4890960616687
 20
145.6777416768244
 30
0.0
 10
65.4890960616687
 20
145.6607389268636
 30
0.0
 10
65.4890960616687
 20
145.596678385752
 30
0.0
 10
65.4890960616687
 20
145.5495197701134
 30
0.0
 10
65.4890960616687
 20
145.3762977374211
 30
0.0
 10
65.4890960616687
 20
145.2161886471869
 30
0.0
 10
65.4890960616687
 20
145.0569865274235
 30
0.0
  0
ARC
  5
2E2
330
1F
100
AcDbEntity
  8
0
  6
Continuous
 62
     7
370
    15
100
AcDbCircle
 10
57.4890960617
 20
115.2105462037
 30
0.0
 40
31.50000000000002
100
AcDbArc
 50
286.601549599
 51
75.2875420391
  0
SPLINE
  5
2E3
330
1F
100
AcDbEntity
  8
0
  6
Continuous
 62
     7
370
    15
100
AcDbSpline
210
0.0
220
0.0
230
1.0
 70
    24
 71
     3
 72
    12
 73
     8
 74
     0
 42
0.00000001
 43
0.00000001
 40
0.0
 40
0.0
 40
0.0
 40
0.0
 40
0.25
 40
0.25
 40
0.5
 40
0.5
 40
1.0
 40
1.0
 40
1.0
 40
1.0
 10
66.48909606166869
 20
85.02362850741305
 30
0.0
 10
66.48909606166869
 20
85.02362850741306
 30
0.0
 10
66.48909606166869
 20
85.04074559367889
 30
0.0
 10
66.48909606166869
 20
85.105481705154
 30
0.0
 10
66.48909606166869
 20
85.15293894803433
 30
0.0
 10
66.48909606166869
 20
85.32976339057382
 30
0.0
 10
66.48909606166869
 20
85.49003989777951
 30
0.0
 10
66.48909606166869
 20
85.65026880306728
 30
0.0
  0
LINE
  5
2E4
330
1F
100
AcDbEntity
  8
0
  6
Continuous
 62
     7
370
    15
100
AcDbLine
 10
65.4890960617
 20
141.6105462037
 30
0.0
 11
49.4890960617
 21
141.6105462037
 31
0.0
  0
LINE
  5
2E5
330
1F
100
AcDbEntity
  8
0
  6
Continuous
 62
     7
370
    15
100
AcDbLine
 10
66.4890960617
 20
88.8105462037
 30
0.0
 11
61.7157854885
 21
88.8105462037
 31
0.0
  0
LINE
  5
2E6
330
1F
100
AcDbEntity
  8
0
  6
Continuous
 62
     7
370
    15
100
AcDbLine
 10
56.4818596038
 20
88.8105462037
 30
0.0
 11
48.4890960617
 21
88.8105462037
 31
0.0
  0
LINE
  5
2E7
330
1F
100
AcDbEntity
  8
0
  6
Continuous
 62
     7
370
    15
100
AcDbLine
 10
65.4890960617
 20
145.0569865274
 30
0.0
 11
65.4890960617
 21
141.6105462037
 31
0.0
  0
LINE
  5
2E8
330
1F
100
AcDbEntity
  8
0
  6
Continuous
 62
     7
370
    15
100
AcDbLine
 10
66.4890960617
 20
85.6502688031
 30
0.0
 11
66.4890960617
 21
88.8105462037
 31
0.0
  0
LINE
  5
2E9
330
1F
100
AcDbEntity
  8
0
  6
Continuous
 62
     7
370
    15
100
AcDbLine
 10
49.4890960617
 20
141.6105462037
 30
0.0
 11
49.4890960617
 21
145.0569865274
 31
0.0
  0
LINE
  5
2EA
330
1F
100
AcDbEntity
  8
0
  6
Continuous
 62
     7
370
    15
100
AcDbLine
 10
48.4890960617
 20
88.8105462037
 30
0.0
 11
48.4890960617
 21
85.6502688031
 31
0.0
  0
LINE
  5
2EB
330
1F
100
AcDbEntity
  8
0
  6
Continuous
 62
     7
370
    15
100
AcDbLine
 10
37.6390960617
 20
138.8914984649
 30
0.0
 11
37.6390960617
 21
135.0605462037
 31
0.0
  0
LINE
  5
2EC
330
1F
100
AcDbEntity
  8
0
  6
Continuous
 62
     7
370
    15
100
AcDbLine
 10
33.8081438004
 20
135.0605462037
 30
0.0
 11
37.6390960617
 21
135.0605462037
 31
0.0
  0
SPLINE
  5
2ED
330
1F
100
AcDbEntity
  8
0
  6
Continuous
 62
     7
370
    15
100
AcDbSpline
210
0.0
220
0.0
230
1.0
 70
     8
 71
     3
 72
    30
 73
    26
 74
     0
 42
0.00000001
 43
0.00000001
 40
0.0
 40
0.0
 40
0.0
 40
0.0
 40
0.1249999999999997
 40
0.1249999999999997
 40
0.1874999999999996
 40
0.1874999999999996
 40
0.2499999999999994
 40
0.2499999999999994
 40
0.3749999999999994
 40
0.3749999999999994
 40
0.4374999999999995
 40
0.4374999999999995
 40
0.4999999999999996
 40
0.4999999999999996
 40
0.6249999999999999
 40
0.6249999999999999
 40
0.6874999999999999
 40
0.6874999999999999
 40
0.75
 40
0.75
 40
0.8125
 40
0.8125
 40
0.8750000000000001
 40
0.8750000000000001
 40
1.0
 40
1.0
 40
1.0
 40
1.0
 10
58.48909606166875
 20
83.72642322079786
 30
0.0
 10
59.02051399206934
 20
83.74330213880648
 30
0.0
 10
59.54217318964351
 20
83.77331970363117
 30
0.0
 10
60.31081497680255
 20
83.83613009290428
 30
0.0
 10
60.56470477596756
 20
83.8600340001312
 30
0.0
 10
61.06777755191365
 20
83.91346929257357
 30
0.0
 10
61.31724140013028
 20
83.94307616074114
 30
0.0
 10
62.04215229772715
 20
84.03752585945556
 30
0.0
 10
62.50002963461933
 20
84.10855325328478
 30
0.0
 10
63.14979686010218
 20
84.22256753999055
 30
0.0
 10
63.36118356351235
 20
84.26202279113113
 30
0.0
 10
63.76581737428251
 20
84.34154423390179
 30
0.0
 10
63.95855784578372
 20
84.38148037640256
 30
0.0
 10
64.50898872216065
 20
84.50041677923073
 30
0.0
 10
64.83917209944127
 20
84.5785815431146
 30
0.0
 10
65.2778479160917
 20
84.68829098338345
 30
0.0
 10
65.41364647457823
 20
84.72337182009187
 30
0.0
 10
65.6605235074244
 20
84.7886120994715
 30
0.0
 10
65.77230204475241
 20
84.81894691551622
 30
0.0
 10
65.97273223462602
 20
84.87428529473807
 30
0.0
 10
66.0613845778295
 20
84.89928997129816
 30
0.0
 10
66.21505212551062
 20
84.94316978018884
 30
0.0
 10
66.28029982976247
 20
84.96211346495114
 30
0.0
 10
66.43660488312673
 20
85.00783319222133
 30
0.0
 10
66.48909606166873
 20
85.02362850741302
 30
0.0
 10
66.48909606166873
 20
85.02362850741304
 30
0.0
  0
SPLINE
  5
2EE
330
1F
100
AcDbEntity
  8
0
  6
Continuous
 62
     7
370
    15
100
AcDbSpline
210
0.0
220
0.0
230
1.0
 70
     8
 71
     3
 72
    28
 73
    24
 74
     0
 42
0.00000001
 43
0.00000001
 40
0.0
 40
0.0
 40
0.0
 40
0.0
 40
0.1250000000000001
 40
0.1250000000000001
 40
0.1875000000000003
 40
0.1875000000000003
 40
0.2500000000000005
 40
0.2500000000000005
 40
0.3750000000000008
 40
0.3750000000000008
 40
0.4375000000000008
 40
0.4375000000000008
 40
0.5000000000000006
 40
0.5000000000000006
 40
0.6250000000000003
 40
0.6250000000000003
 40
0.7500000000000001
 40
0.7500000000000001
 40
0.8125
 40
0.8125
 40
0.875
 40
0.875
 40
1.0
 40
1.0
 40
1.0
 40
1.0
 10
48.48909606166872
 20
85.02362850741304
 30
0.0
 10
48.48909606166872
 20
85.02362850741302
 30
0.0
 10
48.54157240398695
 20
85.00784379346285
 30
0.0
 10
48.69536935154385
 20
84.96284837938663
 30
0.0
 10
48.75924432657786
 20
84.94429338431092
 30
0.0
 10
48.91274059523439
 20
84.90044066186442
 30
0.0
 10
49.00255557062808
 20
84.87509605491222
 30
0.0
 10
49.30453436567895
 20
84.79169397716211
 30
0.0
 10
49.5504877997347
 20
84.72582841801102
 30
0.0
 10
49.98585497916309
 20
84.61685807751923
 30
0.0
 10
50.14307016133544
 20
84.57861844175257
 30
0.0
 10
50.47523478187789
 20
84.50085970433322
 30
0.0
 10
50.65004204748077
 20
84.46135874215787
 30
0.0
 10
51.20010123806661
 20
84.3424509997919
 30
0.0
 10
51.60072462246207
 20
84.26263331836726
 30
0.0
 10
52.47331073381078
 20
84.1092901565712
 30
0.0
 10
52.93344618141235
 20
84.03795640330195
 30
0.0
 10
53.65341227537854
 20
83.94401289622732
 30
0.0
 10
53.89868598541307
 20
83.91481910286741
 30
0.0
 10
54.40014232184189
 20
83.86135252860399
 30
0.0
 10
54.65757369121442
 20
83.8369931943288
 30
0.0
 10
55.43351348707892
 20
83.77340304888406
 30
0.0
 10
55.95774188698493
 20
83.74330011379479
 30
0.0
 10
56.48909606166876
 20
83.72642322079786
 30
0.0
  0
SPLINE
  5
2EF
330
1F
100
AcDbEntity
  8
0
  6
Continuous
 62
     7
370
    15
100
AcDbSpline
210
0.0
220
0.0
230
1.0
 70
     8
 71
     3
 72
    50
 73
    46
 74
     0
 42
0.00000001
 43
0.00000001
 40
0.0
 40
0.0
 40
0.0
 40
0.0
 40
0.0625000000000002
 40
0.0625000000000002
 40
0.0937500000000001
 40
0.0937500000000001
 40
0.1250000000000001
 40
0.1250000000000001
 40
0.1874999999999999
 40
0.1874999999999999
 40
0.2187499999999998
 40
0.2187499999999998
 40
0.2499999999999998
 40
0.2499999999999998
 40
0.3124999999999998
 40
0.3124999999999998
 40
0.3749999999999998
 40
0.3749999999999998
 40
0.4062499999999998
 40
0.4062499999999998
 40
0.4374999999999997
 40
0.4374999999999997
 40
0.4999999999999997
 40
0.4999999999999997
 40
0.5624999999999996
 40
0.5624999999999996
 40
0.6249999999999996
 40
0.6249999999999996
 40
0.6562499999999994
 40
0.6562499999999994
 40
0.6874999999999994
 40
0.6874999999999994
 40
0.7187499999999994
 40
0.7187499999999994
 40
0.7499999999999993
 40
0.7499999999999993
 40
0.8124999999999996
 40
0.8124999999999996
 40
0.8749999999999997
 40
0.8749999999999997
 40
0.9374999999999999
 40
0.9374999999999999
 40
0.9687499999999999
 40
0.9687499999999999
 40
1.0
 40
1.0
 40
1.0
 40
1.0
 10
49.48909606166874
 20
145.6777416768245
 30
0.0
 10
49.48909606166875
 20
145.6777416768245
 30
0.0
 10
49.54139020362182
 20
145.6916077802057
 30
0.0
 10
49.69474273845458
 20
145.7310449230897
 30
0.0
 10
49.75844023380579
 20
145.7472976253547
 30
0.0
 10
49.91153188409562
 20
145.7856463352051
 30
0.0
 10
50.00118798605644
 20
145.8077997816131
 30
0.0
 10
50.30276937423049
 20
145.8805557274752
 30
0.0
 10
50.54851080466447
 20
145.9378364303199
 30
0.0
 10
50.98367087101514
 20
146.0318288697756
 30
0.0
 10
51.14081169847631
 20
146.0646878369689
 30
0.0
 10
51.47345079120062
 20
146.131263890417
 30
0.0
 10
51.64851674664066
 20
146.164907328256
 30
0.0
 10
52.19937227734227
 20
146.2654681928331
 30
0.0
 10
52.60055668652893
 20
146.3320310025832
 30
0.0
 10
53.47404589261632
 20
146.4567300578827
 30
0.0
 10
53.93608648559876
 20
146.5132530669534
 30
0.0
 10
54.65720189919267
 20
146.5839220015682
 30
0.0
 10
54.90276253687606
 20
146.6051982116396
 30
0.0
 10
55.40455083603425
 20
146.6425039378816
 30
0.0
 10
55.66231205235091
 20
146.6585951347416
 30
0.0
 10
56.43742451657068
 20
146.6972366063493
 30
0.0
 10
56.95785370029036
 20
146.7104260249057
 30
0.0
 10
58.00598954107573
 20
146.7106647483637
 30
0.0
 10
58.53849787144949
 20
146.6972647456596
 30
0.0
 10
59.56618813361609
 20
146.6462007574644
 30
0.0
 10
60.06595231419782
 20
146.6087616227102
 30
0.0
 10
60.79444731421828
 20
146.5375981397918
 30
0.0
 10
61.03379830666377
 20
146.5113296815992
 30
0.0
 10
61.49503677815063
 20
146.455648208847
 30
0.0
 10
61.7183034332179
 20
146.4261104369111
 30
0.0
 10
62.15049103923997
 20
146.3645032918834
 30
0.0
 10
62.35941161947994
 20
146.3324323491622
 30
0.0
 10
62.76283654500366
 20
146.2666153721928
 30
0.0
 10
62.95831620497301
 20
146.2326851537296
 30
0.0
 10
63.51417441850923
 20
146.1312565261493
 30
0.0
 10
63.84373180514081
 20
146.0643374974592
 30
0.0
 10
64.42312730292674
 20
145.9393119351174
 30
0.0
 10
64.67464727437113
 20
145.8807351408834
 30
0.0
 10
65.07610177098469
 20
145.7839002892384
 30
0.0
 10
65.22858476653178
 20
145.7451453296792
 30
0.0
 10
65.38389571570703
 20
145.705217799243
 30
0.0
 10
65.42340916311318
 20
145.6949260079924
 30
0.0
 10
65.47592251040896
 20
145.6812097954535
 30
0.0
 10
65.48909606166875
 20
145.6777416768245
 30
0.0
 10
65.48909606166875
 20
145.6777416768245
 30
0.0
  0
SPLINE
  5
2F0
330
1F
100
AcDbEntity
  8
0
  6
Continuous
 62
     7
370
    15
100
AcDbSpline
210
0.0
220
0.0
230
1.0
 70
     8
 71
     3
 72
    20
 73
    16
 74
     0
 42
0.00000001
 43
0.00000001
 40
0.0
 40
0.0
 40
0.0
 40
0.0
 40
0.2499999999999999
 40
0.2499999999999999
 40
0.3749999999999999
 40
0.3749999999999999
 40
0.5
 40
0.5
 40
0.6250000000000001
 40
0.6250000000000001
 40
0.75
 40
0.75
 40
0.875
 40
0.875
 40
1.0
 40
1.0
 40
1.0
 40
1.0
 10
33.03040639930133
 20
135.0605462036602
 30
0.0
 10
33.561063167136
 20
135.7144086319576
 30
0.0
 10
34.09479116339752
 20
136.3181944139547
 30
0.0
 10
34.87776348138627
 20
137.1450331501233
 30
0.0
 10
35.13574708148294
 20
137.4074617880763
 30
0.0
 10
35.64014233789076
 20
137.9041244421812
 30
0.0
 10
35.88292076031875
 20
138.1347113212028
 30
0.0
 10
36.33360083983183
 20
138.5512655457854
 30
0.0
 10
36.5430647058231
 20
138.7387633477529
 30
0.0
 10
36.92135322241113
 20
139.0701603253893
 30
0.0
 10
37.08510090859563
 20
139.2096643128846
 30
0.0
 10
37.35328671079506
 20
139.4351178203555
 30
0.0
 10
37.45851111888181
 20
139.5217439318992
 30
0.0
 10
37.60257034419533
 20
139.6397247207533
 30
0.0
 10
37.63909606166875
 20
139.6692358660276
 30
0.0
 10
37.63909606166875
 20
139.6692358660276
 30
0.0
  0
ARC
  5
2F1
330
1F
100
AcDbEntity
  8
0
  6
Continuous
 62
     7
370
    15
100
AcDbCircle
 10
57.4890960617
 20
115.2105462037
 30
0.0
 40
31.50000000000001
100
AcDbArc
 50
268.180780706
 51
271.819219294
  0
CIRCLE
  5
2F2
330
1F
100
AcDbEntity
  8
VERMASSUNG
  6
CENTERX2
100
AcDbCircle
 10
57.4890960617
 20
113.210553279
 30
0.0
 40
25.0
  0
DIMENSION
  5
2F3
330
1F
100
AcDbEntity
  8
VERMASSUNG
100
AcDbDimension
  2
*D6
 10
22.8069736586
 20
138.210553279
 30
0.0
 11
22.8069736586
 21
113.210553279
 31
0.0
 70
   160
  1
%%c<>
 71
     2
 42
-1.0
  3
SLDDIMSTYLE2
100
AcDbAlignedDimension
 13
57.4890960617
 23
88.210553279
 33
0.0
 14
57.4890960617
 24
138.210553279
 34
0.0
 50
90.0
100
AcDbRotatedDimension
  0
INSERT
  5
30A
330
1F
100
AcDbEntity
  8
VERMASSUNG
100
AcDbBlockReference
  2
SW_CENTERMARKSYMBOL_0
 10
57.4890960617
 20
115.2105462037
 30
0.0
  0
OLE2FRAME
  5
30B
330
1F
100
AcDbEntity
  8
0
100
AcDbOle2Frame
 70
     2
  3
Bitmap Image
 10
13.8511154363
 20
38.264191557
 30
0.0
 11
51.6290888628
 21
31.9806341108
 31
0.0
 71
     2
 72
     0
 73
     1
 90
    12928
310
80552BED0767C5B32B40DDAF6807D121434000000000000000006FFBDDFB85D0
310
4940DDAF6807D121434000000000000000006FFBDDFB85D04940416F4BD60AFB
310
3F4000000000000000002BED0767C5B32B40416F4BD60AFB3F40000000000000
310
0000000000000100000000010000010000000100000000000100000000320000
310
D0CF11E0A1B11AE1000000000000000000000000000000003E000300FEFF0900
310
0600000000000000000000000100000001000000000000000010000002000000
310
01000000FEFFFFFF0000000000000000FFFFFFFFFFFFFFFFFFFFFFFFFFFFFFFF
310
FFFFFFFFFFFFFFFFFFFFFFFFFFFFFFFFFFFFFFFFFFFFFFFFFFFFFFFFFFFFFFFF
310
FFFFFFFFFFFFFFFFFFFFFFFFFFFFFFFFFFFFFFFFFFFFFFFFFFFFFFFFFFFFFFFF
310
FFFFFFFFFFFFFFFFFFFFFFFFFFFFFFFFFFFFFFFFFFFFFFFFFFFFFFFFFFFFFFFF
310
FFFFFFFFFFFFFFFFFFFFFFFFFFFFFFFFFFFFFFFFFFFFFFFFFFFFFFFFFFFFFFFF
310
FFFFFFFFFFFFFFFFFFFFFFFFFFFFFFFFFFFFFFFFFFFFFFFFFFFFFFFFFFFFFFFF
310
FFFFFFFFFFFFFFFFFFFFFFFFFFFFFFFFFFFFFFFFFFFFFFFFFFFFFFFFFFFFFFFF
310
FFFFFFFFFFFFFFFFFFFFFFFFFFFFFFFFFFFFFFFFFFFFFFFFFFFFFFFFFFFFFFFF
310
FFFFFFFFFFFFFFFFFFFFFFFFFFFFFFFFFFFFFFFFFFFFFFFFFFFFFFFFFFFFFFFF
310
FFFFFFFFFFFFFFFFFFFFFFFFFFFFFFFFFFFFFFFFFFFFFFFFFFFFFFFFFFFFFFFF
310
FFFFFFFFFFFFFFFFFFFFFFFFFFFFFFFFFFFFFFFFFFFFFFFFFFFFFFFFFFFFFFFF
310
FFFFFFFFFFFFFFFFFFFFFFFFFFFFFFFFFFFFFFFFFFFFFFFFFFFFFFFFFFFFFFFF
310
FFFFFFFFFFFFFFFFFFFFFFFFFFFFFFFFFFFFFFFFFFFFFFFFFFFFFFFFFFFFFFFF
310
FFFFFFFFFFFFFFFFFFFFFFFFFFFFFFFFFFFFFFFFFFFFFFFFFFFFFFFFFFFFFFFF
310
FDFFFFFFFEFFFFFFFEFFFFFFFEFFFFFF05000000060000000700000008000000
310
090000000A0000000B0000000C0000000D0000000E0000000F00000010000000
310
11000000120000001300000014000000150000001600000017000000FEFFFFFF
310
FFFFFFFFFFFFFFFFFFFFFFFFFFFFFFFFFFFFFFFFFFFFFFFFFFFFFFFFFFFFFFFF
310
FFFFFFFFFFFFFFFFFFFFFFFFFFFFFFFFFFFFFFFFFFFFFFFFFFFFFFFFFFFFFFFF
310
FFFFFFFFFFFFFFFFFFFFFFFFFFFFFFFFFFFFFFFFFFFFFFFFFFFFFFFFFFFFFFFF
310
FFFFFFFFFFFFFFFFFFFFFFFFFFFFFFFFFFFFFFFFFFFFFFFFFFFFFFFFFFFFFFFF
310
FFFFFFFFFFFFFFFFFFFFFFFFFFFFFFFFFFFFFFFFFFFFFFFFFFFFFFFFFFFFFFFF
310
FFFFFFFFFFFFFFFFFFFFFFFFFFFFFFFFFFFFFFFFFFFFFFFFFFFFFFFFFFFFFFFF
310
FFFFFFFFFFFFFFFFFFFFFFFFFFFFFFFFFFFFFFFFFFFFFFFFFFFFFFFFFFFFFFFF
310
FFFFFFFFFFFFFFFFFFFFFFFFFFFFFFFFFFFFFFFFFFFFFFFFFFFFFFFFFFFFFFFF
310
FFFFFFFFFFFFFFFFFFFFFFFFFFFFFFFFFFFFFFFFFFFFFFFFFFFFFFFFFFFFFFFF
310
FFFFFFFFFFFFFFFFFFFFFFFFFFFFFFFFFFFFFFFFFFFFFFFFFFFFFFFFFFFFFFFF
310
FFFFFFFFFFFFFFFFFFFFFFFFFFFFFFFFFFFFFFFFFFFFFFFFFFFFFFFFFFFFFFFF
310
FFFFFFFFFFFFFFFFFFFFFFFFFFFFFFFFFFFFFFFFFFFFFFFFFFFFFFFFFFFFFFFF
310
FFFFFFFFFFFFFFFFFFFFFFFFFFFFFFFFFFFFFFFFFFFFFFFFFFFFFFFFFFFFFFFF
310
52006F006F007400200045006E00740072007900000000000000000000000000
310
0000000000000000000000000000000000000000000000000000000000000000
310
16000500FFFFFFFFFFFFFFFF020000000A00030000000000C000000000000046
310
00000000000000000000000040847502B4D8CB0103000000C000000000000000
310
01004F006C006500000000000000000000000000000000000000000000000000
310
0000000000000000000000000000000000000000000000000000000000000000
310
0A000200FFFFFFFFFFFFFFFFFFFFFFFF00000000000000000000000000000000
310
0000000000000000000000000000000000000000000000001400000000000000
310
010043006F006D0070004F0062006A0000000000000000000000000000000000
310
0000000000000000000000000000000000000000000000000000000000000000
310
120002010100000003000000FFFFFFFF00000000000000000000000000000000
310
0000000000000000000000000000000000000000010000004D00000000000000
310
01004F006C006500310030004E00610074006900760065000000000000000000
310
0000000000000000000000000000000000000000000000000000000000000000
310
1A000200FFFFFFFFFFFFFFFFFFFFFFFF00000000000000000000000000000000
310
0000000000000000000000000000000000000000040000002426000000000000
310
FEFFFFFF02000000FEFFFFFFFFFFFFFFFFFFFFFFFFFFFFFFFFFFFFFFFFFFFFFF
310
FFFFFFFFFFFFFFFFFFFFFFFFFFFFFFFFFFFFFFFFFFFFFFFFFFFFFFFFFFFFFFFF
310
FFFFFFFFFFFFFFFFFFFFFFFFFFFFFFFFFFFFFFFFFFFFFFFFFFFFFFFFFFFFFFFF
310
FFFFFFFFFFFFFFFFFFFFFFFFFFFFFFFFFFFFFFFFFFFFFFFFFFFFFFFFFFFFFFFF
310
FFFFFFFFFFFFFFFFFFFFFFFFFFFFFFFFFFFFFFFFFFFFFFFFFFFFFFFFFFFFFFFF
310
FFFFFFFFFFFFFFFFFFFFFFFFFFFFFFFFFFFFFFFFFFFFFFFFFFFFFFFFFFFFFFFF
310
FFFFFFFFFFFFFFFFFFFFFFFFFFFFFFFFFFFFFFFFFFFFFFFFFFFFFFFFFFFFFFFF
310
FFFFFFFFFFFFFFFFFFFFFFFFFFFFFFFFFFFFFFFFFFFFFFFFFFFFFFFFFFFFFFFF
310
FFFFFFFFFFFFFFFFFFFFFFFFFFFFFFFFFFFFFFFFFFFFFFFFFFFFFFFFFFFFFFFF
310
FFFFFFFFFFFFFFFFFFFFFFFFFFFFFFFFFFFFFFFFFFFFFFFFFFFFFFFFFFFFFFFF
310
FFFFFFFFFFFFFFFFFFFFFFFFFFFFFFFFFFFFFFFFFFFFFFFFFFFFFFFFFFFFFFFF
310
FFFFFFFFFFFFFFFFFFFFFFFFFFFFFFFFFFFFFFFFFFFFFFFFFFFFFFFFFFFFFFFF
310
FFFFFFFFFFFFFFFFFFFFFFFFFFFFFFFFFFFFFFFFFFFFFFFFFFFFFFFFFFFFFFFF
310
FFFFFFFFFFFFFFFFFFFFFFFFFFFFFFFFFFFFFFFFFFFFFFFFFFFFFFFFFFFFFFFF
310
FFFFFFFFFFFFFFFFFFFFFFFFFFFFFFFFFFFFFFFFFFFFFFFFFFFFFFFFFFFFFFFF
310
FFFFFFFFFFFFFFFFFFFFFFFFFFFFFFFFFFFFFFFFFFFFFFFFFFFFFFFFFFFFFFFF
310
010000020000000000000000000000000000000061007200650064005C003100
310
30002E0030005C0044004C004C005300680061007200650064005C003B004300
310
0100FEFF030A0000FFFFFFFF0A00030000000000C00000000000004607000000
310
5042727573680007000000504272757368000700000050427275736800F439B2
310
71000000000000000000000000004100540049002E004100430045005C004300
310
6F00720065002D005300740061007400690063003B0043003A005C0050007200
310
6F006700720061006D002000460069006C006500730020002800780038003600
310
29005C0043006F006D006D006F006E002000460069006C00650073005C004100
310
750074006F006400650073006B0020005300680061007200650064005C003B00
310
43003A005C00500072006F006700720061006D002000460069006C0065007300
310
5C004E006F0072006D0061006E005C004E0070006D005C00420069006E000000
310
43003A005C00500072006F006700720061006D002000460069006C0065007300
310
5C0053006F006C006900640057006F0072006B007300200043006F0072007000
310
5C0053006F006C006900640057006F0072006B00730020002800320029005C00
310
730065007400750070005C0069003300380036005C0073007700610063007400
310
770069007A002E006500780065000000220043003A005C00500072006F006700
310
20260000424D0E260000000000003E00000028000000B40200006E0000000100
310
01000000000000000000130B0000130B00000200000002000000000000FFFFFF
310
FFFFFFFFFFFFFFFFFFFFFFFFFFFFFFFFFFFFFFFFFFFFFFFFFFFFFFFFFFFFFFFF
310
FFFFFFFFFFFFFFFFFFFFFFFFFFFFFFFFFFFFFFFFFFFFFFFFFFFFFFFFFFFFFFFF
310
FFFFFFFFFFFFFFFFFFFFFFFFFFFFFFFFFFFFFFFFFFFFFFFFF000FFFFFFFFFFFF
310
FFFFFFFFFFFFFFFFFFFFFFFFFFFFFFFFFFFFFFFFFFFFFFFFFFFFFFFFFFFFFFFF
310
FFFFFFFFFFFFFFFFFFFFFFFFFFFFFFFFFFFFFFFFFFFFFFFFFFFFFFFFFFFFFFFF
310
FFFFFFFFFFFFFFFFFFFFFFFFFFFFFFFFF000FFFFFFFFFFFFFFFFFFFFFFFFFFFF
310
FFFFFFFFFFFFFFFFFFFFFFFFFFFFFFFFFFFFFFFFFFFFFFFFFFFFFFFFFFFFFFFF
310
FFFFFFFFFFFFFFFFFFFFFFFFFFFFFFFFFFFFFFFFFFFFFFFFFFFFFFFFFFFFFFFF
310
FFFFFFFFFFFFFFFFF000FFFFFFFFFFFFFFFFFFFFFFFFFFFFFFFFFFFFFFFFFFFF
310
FFFFFFFFFFFFFFFFFFFFFFFFFFFFFFFFFFFFFFFFFFFFFFFFFFFFFFFFFFFFFFFF
310
FFFFFFFFFFFFFFFFFFFFFFFFFFFFFFFFFFFFFFFFFFFFFFFFFFFFFFFFFFFFFFFF
310
F000FFFFFFFFFFFFFFFFFFFFFFFFFFFFFFFFFFFFFFFFFFFFFFFFFFFFFFFFFFFF
310
FFFFFFFFFFFFFFFFFFFFFFFFFFFFFFFFFFFFFFFFFFFFFFFFFFFFFFFFFFFFFFFF
310
FFFFFFFFFFFFFFFFFFFFFFFFFFFFFFFFFFFFFFFFFFFFFFFFF000FFFFFFFFFFFF
310
FFFFFFFFFFFFFFFFFFFFFFFFFFFFFFFFFFFFFFFFFFFFFFFFFFFFFFFFFFFFFFFF
310
FFFFFFFFFFFFFFFFFFFFFFFFFFFFFFFFFFFFFFFFFFFFFFFFFFFFFFFFFFFFFFFF
310
FFFFFFFFFFFFFFFFFFFFFFFFFFFFFFFFF000FFFFFFFFFFFFFFFFFFFFFFFFFFFF
310
FFFFFFFFFFFFFFFFFFFFFFFFFFFFFFFFFFFFFFFFFFFFFFFFFFFFFFFFFFFFFFFF
310
FFFFFFFFFFFFFFFFFFFFFFFFFFFFFFFFFFFFFFFFFFFFFFFFFFFFFFFFFFFFFFFF
310
FFFFFFFFFFFFFFFFF000FFFFFFFFFFFFFFFFFFFFFFFFFFFFFFFFFFFFFFFFFFFF
310
FFFFFFFFFFFFFFFFFFFFFFFFFFFFFFFFFFFFFFFFFFFFFFFFFFFFFFFFFFFFFFFF
310
FFFFFFFFFFFFFFFFFFFFFFFFFFFFFFFFFFFFFFFFFFFFFFFFFFFFFFFFFFFFFFFF
310
F000FFFFFFFFFFFFFFFFFFFFFFFFFFFFFFFFFFFFFFFFFFFFFFFFFFFFFFFFFFFF
310
FFFFFFFFFFFFFFFFFFFFFFFFFFFFFFFFFFFFFFFFFFFFFFFFFFFFFFFFFFFFFFFF
310
FFFFFFFFFFFFFFFFFFFFFFFFFFFFFFFFFFFFFFFFFFFFFFFFF000FFFFFFFFFFFF
310
FFFFFFFFFFFFFFFFFFFFFFFFFFFFFFFFFFFFFFFFFFFFFFFFFFFFFFFFFFFFFFFF
310
FFFFFFFFFFFFFFFFFFFFFFFFFFFFFFFFFFFFFFFFFFFFFFFFFFFFFFFFFFFFFFFF
310
FFFFFFFFFFFFFFFFFFFFFFFFFFFFFFFFF000FFFFFFFFFFFFFFFFFFFFFFFFFFFF
310
FFFFFFFFFFFFFFFFFFFFFFFFFFFFFFFFFFFFFFFFFFFFFFFFFFFFFFFFFFFFFFFF
310
FFFFFFFFFFFFFFFFFFFFFFFFFFFFFFFFFFFFFFFFFFFFFFFFFFFFFFFFFFFFFFFF
310
FFFFFFFFFFFFFFFFF000FFFFFFFFFFFFFFFFFFFFFFFFFFFFFFFFFFFFFFFFFFFF
310
FFFFFFFFFFFFFFFFFFFFFFFFFFFFFFFFFFFFFFFFFFFFFFFFFFFFFFFFFFFFFFFF
310
FFFFFFFFFFFFFFFFFFFFFFFFFFFFFFFFFFFFFFFFFFFFFFFFFFFFFFFFFFFFFFFF
310
F000FFFFFFFFFFFFFFFFFFFFFFFFFFFFFFFFFFFFFFFFFFFFFFFFFFFFFFFFFFFF
310
FFFFFFFFFFFFFFFFFFFFFFFFFFFFFFFFFFFFFFFFFFFFFFFFFFFFFFFFFFFFFFFF
310
FFFFFFFFFFFFFFFFFFFFFFFFFFFFFFFFFFFFFFFFFFFFFFFFF000FFFFFFFFFFFF
310
FFFFFFFFFFFFFFFFFFFFFFFFFFFFFFFFFFFFFFFFFFFFFFFFFFFFFFFFFFFFFFFF
310
FFFFFFFFFFFFFFFFFFFFFFFFFFFFFFFFFFFFFFFFFFFFFFFFFFFFFFFFFFFFFFFF
310
FFFFFFFFFFFFFFFFFFFFFFFFFFFFFFFFF000FFFFFFFFFFFFFFFFFFFFFFFFFFFF
310
FFFFFFFFFFFFFFFFFFFFFFFFFFFFFFFFFFFFFFFFFFFFFFFFFFFFFFFFFFFFFFFF
310
FFFFFFFFFFFFFFFFFFFFFFFFFFFFFFFFFFFFFFFFFFFFFFFFFFFFFFFFFFFFFFFF
310
FFFFFFFFFFFFFFFFF000FFFFFFFFFFFFFFFFFFFFFFFFFFFFFFFFFFFFFFFFFFFF
310
FFFFFFFFFFFFFFFFFFFFFFFFFFFFFFFFFFFFFFFFFFFFFFFFFFFFFFFFFFFFFFFF
310
FFFFFFFFFFFFFFFFFFFFFFFFFFFFFFFFFFFFFFFFFFFFFFFFFFFFFFFFFFFFFFFF
310
F000FFFFFFFFFFFFFFFFFFFFFFFFFFFFFFFFFFFFFFFFFFFFFFFFFFFFFFFFFFFF
310
FFFFFFFFFFFFFFFFFFFFFFFFFFFFFFFFFFFFFFFFFFFFFFFFFFFFFFFFFFFFFFFF
310
FFFFFFFFFFFFFFFFFFFFFFFFFFFFFFFFFFFFFFFFFFFFFFFFF000FFFFFFFFFFFF
310
FFFFFFFFFFFFFFFFFFFFFFFFFFFFFFFFFFFFFFFFFFFFFFFFFFFFFFFFFFFFFFFF
310
FFFFFFFFFFFFFFFFFFFFFFFFFFFFFFFFFFFFFFFFFFFFFFFFFFFFFFFFFFFFFFFF
310
FFFFFFFFFFFFFFFFFFFFFFFFFFFFFFFFF000FFFFFFFFFFFFFFFFFFFFFFFFFFFF
310
FFFFFFFFFFFFFFFFFFFFFFFFFFFFFFFFFFFFFFFFFFFFFFFFFFFFFFFFFFFFFFFF
310
FFFFFFFFFFFFFFFFFFFFFFFFFFFFFFFFFFFFFFFFFFFFFFFFFFFFFFFFFFFFFFFF
310
FFFFFFFFFFFFFFFFF000FFFFF80003FFFFFFFFFFFFFFFFFFFFFFFFFFFFFFFFFF
310
FFFFF00007FFFFFFFFFF00007FFFFFF800000000000000007FFFFFFFFFFFFFFF
310
FFFFFFFC001FFFFFFFFFFFFFFC001FFFFFFFFFFFFFFFFFFFFFFFFFFE0007FFFF
310
F000FFFF8000007FFFFFFFF8000FFFFFC0007FFFFF80007FFFFF0000007FFFFF
310
FFF8000007FFFFF800000000000000007FFFFFF0001FFFFFFFFFFFC00001FFFF
310
FFFFFFFFC00001FFFFFFFF000000000003FFFFE000007FFFF000FFFE0000000F
310
FFFFFFF0000FFFFF80007FFFFF80007FFFFC0000001FFFFFFFC0000001FFFFF8
310
00000000000000007FFFFFF0001FFFFFFFFFFE0000003FFFFFFFFFFE0000003F
310
FFFFFF000000000003FFFF0000000FFFF000FFF800000003FFFFFFF00007FFFF
310
80007FFFFF80007FFFF000000007FFFFFF000000003FFFF80000000000000000
310
7FFFFFF0001FFFFFFFFFF80000000FFFFFFFFFF80000000FFFFFFF0000000000
310
03FFFC00000003FFF000FFE000000000FFFFFFF00007FFFF80003FFFFF80007F
310
FFC000000001FFFFFC000000001FFFF800000000000000007FFFFFF0001FFFFF
310
FFFFE000000003FFFFFFFFE000000003FFFFFF000000000003FFF000000000FF
310
F000FF80000000007FFFFFF00007FFFF80003FFFFF80007FFF8000000000FFFF
310
F80000000007FFF800000000000000007FFFFFF0001FFFFFFFFFC000000001FF
310
FFFFFFC000000001FFFFFF000000000003FFC0000000007FF000FF0000000000
310
3FFFFFE00007FFFF00003FFFFF80007FFE00000000003FFFF00000000003FFF8
310
00000000000000007FFFFFF0001FFFFFFFFF8000000000FFFFFFFF8000000000
310
FFFFFF000000000003FF80000000003FF000FE00000000001FFFFFE00003FFFF
310
00003FFFFF80007FFC00000000001FFFE00000000001FFF8000001FFFE000000
310
7FFFFFF0001FFFFFFFFE00000000003FFFFFFE00000000003FFFFF0000000000
310
03FF00000000001FF000FC00000000000FFFFFE00003FFFF00001FFFFF80007F
310
F800000000001FFFC00000000000FFF8000001FFFE0000007FFFFFF0001FFFFF
310
FFFC00000000001FFFFFFC00000000001FFFFF000000000003FE00000000000F
310
F000F8000000000007FFFFE00003FFFF00001FFFFF80007FF800000000000FFF
310
800000000000FFF8000001FFFE0000007FFFFFF0001FFFFFFFF800000000000F
310
FFFFF800000000000FFFFF000000000003FC000000000007F000F80000000000
310
03FFFFC00003FFFE00001FFFFF80007FF0000000000007FF0000000000007FF8
310
000001FFFE0000007FFFFFF0001FFFFFFFF0000000000007FFFFF00000000000
310
07FFFF000000000003F8000000000003F000F0000000000003FFFFC00001FFFE
310
00001FFFFF80007FE0000000000007FE0000000000003FF8000001FFFE000000
310
7FFFFFF0001FFFFFFFF0000000000007FFFFF0000000000007FFFF0000000000
310
03F800001F800003F000E00001FFF00001FFFFC00001FFFE00000FFFFF80007F
310
E00001FFE00003FE00001FFF00003FF8000001FFFE0000007FFFFFF0001FFFFF
310
FFE000003E000003FFFFE000003E000003FFFF000000000003F00001FFF80001
310
F000E00007FFFC0001FFFFC00001FFFE00000FFFFF80007FC0000FFFFC0003FC
310
0000FFFFC0001FF8000001FFFE0000007FFFFFF0001FFFFFFFC00003FFE00001
310
FFFFC00003FFE00001FFFF0001FFFFFFFFF00007FFFE0001F000E0000FFFFF00
310
00FFFF800001FFFC00000FFFFF80007FC0001FFFFE0001FC0001FFFFE0001FF8
310
000001FFFE0000007FFFFFF0001FFFFFFF80000FFFF80000FFFF80000FFFF800
310
00FFFF0003FFFFFFFFE0000FFFFF8000F000C0003FFFFF8000FFFF800000FFFC
310
000007FFFF80007F80003FFFFF0001FC0003FFFFF0001FF8000001FFFE000000
310
7FFFFFF0001FFFFFFF80003FFFFE0000FFFF80003FFFFE0000FFFF0003FFFFFF
310
FFE0003FFFFF8000F000C0003FFFFF8000FFFF800000FFFC000007FFFF80007F
310
80007FFFFF8001F80007FFFFF8000FF8000001FFFE0000007FFFFFF0001FFFFF
310
FF00007FFFFF00007FFF00007FFFFF00007FFF0003FFFFFFFFE0003FFFFFC000
310
F000C0007FFFFFC000FFFF000000FFFC000007FFFF80007F8000FFFFFF8000F8
310
000FFFFFF8000FF8000001FFFE0000007FFFFFF0001FFFFFFF0000FFFFFF8000
310
7FFF0000FFFFFF80007FFF0003FFFFFFFFC0007FFFFFC00070008000FFFFFFC0
310
00FFFF000000FFF8000007FFFF80007F8000FFFFFF8000F8000FFFFFF8000FF8
310
000001FFFE0000007FFFFFF0001FFFFFFE0001FFFFFFC0003FFE0001FFFFFFC0
310
003FFF0003FFFFFFFFC0007FFFFFE00070008000FFFFFFC0007FFF0000007FF8
310
000003FFFF80007F0001FFFFFF8000F8000FFFFFF8000FF8000001FFFE000000
310
7FFFFFF0001FFFFFFE0001FFFFFFC0003FFE0001FFFFFFC0003FFF0003FFFFFF
310
FFC000FFFFFFE00070008000FFFFFFC0007FFF0000007FF8000003FFFF80007F
310
0001FFFFFF8000F8001FFFFFF8000FF8000001FFFE0000007FFFFFF0001FFFFF
310
FE0003FFFFFFE0003FFE0003FFFFFFE0003FFF0003FFFFFFFFC000FFFFFFE000
310
70008000FFFFFFC0007FFE0000007FF8000003FFFF80007F0001FFFFFF8000F0
310
001FFFFFF8000FF8000001FFFE0000007FFFFFF0001FFFFFFC0003FFFFFFE000
310
1FFC0003FFFFFFE0001FFF0003FFFFFFFFC000FFFFFFC00070008000FFFFFF80
310
007FFE0000007FF0000003FFFF80007F0001FFFFFF0000F0001FFFFFF8000FF8
310
000001FFFE0000007FFFFFF0001FFFFFFC0007FFFFFFF0001FFC0007FFFFFFF0
310
001FFF0003FFFFFFFFC000FFFFFFC00070008001FFFFFF0000FFFE0000003FF0
310
000001FFFF80007F0001FFFFFF0000F8001FFFFFF0000FF8000001FFFE000000
310
7FFFFFF0001FFFFFFC0007FFFFFFF0001FFC0007FFFFFFF0001FFF0003FFFFFF
310
FFC001FFFFFF80007000FFFFFFFFFE0000FFFE0008003FF0008001FFFF80007F
310
FFFFFFFFFC0000FFFFFFFFFFE0000FF8000001FFFE0000007FFFFFF0001FFFFF
310
F8000FFFFFFFF8000FF8000FFFFFFFF8000FFF0003FFFFFFFFFFFFFFFFFF0000
310
7000FFFFFFFFFC0000FFFC0008003FF0008001FFFF80007FFFFFFFFFF80001FF
310
FFFFFFFF80000FF8000001FFFE0000007FFFFFF0001FFFFFF8000FFFFFFFF800
310
0FF8000FFFFFFFF8000FFF0003FFFFFFFFFFFFFFFFFE0000F000FFFFFFFFE000
310
00FFFC000C003FE000C001FFFF80007FFFFFFFFFC00001FFFFFFFFFE00001FF8
310
000001FFFE0000007FFFFFF0001FFFFFF8000FFFFFFFF8000FF8000FFFFFFFF8
310
000FFF0003FFFFFFFFFFFFFFFFF00000F000FFFFFFFE000001FFFC000C001FE0
310
00C000FFFF80007FFFFFFFFE000001FFFFFFFFE000001FF80FFFFFFFFFFFFFC0
310
7FFFFFF0001FFFFFF8000FFFFFFFF8000FF8000FFFFFFFF8000FFF0003FFFFFF
310
FFFFFFFFFF800000F000FFFFFFC0000001FFFC001C001FE001C000FFFF80007F
310
FFFFFF80000003FFFFFFF80000001FF80FFFFFFFFFFFFFC07FFFFFF0001FFFFF
310
F8001FFFFFFFFC000FF8001FFFFFFFFC000FFF0003FFFFFFFFFFFFFFF0000001
310
F000FFFFF800000001FFF8001C001FE001C000FFFF80007FFFFFF800000003FF
310
FFFF800000003FF80FFFFFFFFFFFFFC07FFFFFF0001FFFFFF8001FFFFFFFFC00
310
0FF8001FFFFFFFFC000FFF0003FFFFFFFFFFFFFE00000001F000FFFFC0000000
310
03FFF8001E001FC001E000FFFF80007FFFFF8000000007FFFFFC000000003FF8
310
0FFFFFFFFFFFFFC07FFFFFF0001FFFFFF8001FFFFFFFFC000FF8001FFFFFFFFC
310
000FFF0003FFFFFFFFFFFFE000000003F000FFFE0000000007FFF8001E000FC0
310
01E0007FFF80007FFFFE0000000007FFFFE0000000007FF80FFFFFFFFFFFFFC0
310
7FFFFFF0001FFFFFF0001FFFFFFFFC0007F0001FFFFFFFFC0007FF0003FFFFFF
310
FFFFFF0000000003F000FFF80000000007FFF8001E000FC003E0007FFF80007F
310
FFF0000000000FFFFF8000000000FFF80FFFFFFFFFFFFFC07FFFFFF0001FFFFF
310
F0001FFFFFFFFC0007F0001FFFFFFFFC0007FF0003FFFFFFFFFFFC0000000007
310
F000FFE0000000000FFFF0003E000FC003E0007FFF80007FFFC0000000001FFF
310
FE0000000001FFF80FFFFFFFFFFFFFC07FFFFFF0001FFFFFF0001FFFFFFFFC00
310
07F0001FFFFFFFFC0007FF0003FFFFFFFFFFF0000000000FF000FFC000000000
310
1FFFF0003F000F8003F0003FFF80007FFF80000000003FFFF80000000003FFF8
310
0FFFFFFFFFFFFFC07FFFFFF0001FFFFFF0001FFFFFFFFC0007F0001FFFFFFFFC
310
0007FF0003FFFFFFFFFFE0000000001FF000FF00000000007FFFF0003F000780
310
03F0003FFF80007FFF00000000007FFFF00000000007FFF80FFFFFFFFFFFFFC0
310
7FFFFFF0001FFFFFF0001FFFFFFFFC0007F0001FFFFFFFFC0007FF0003FFFFFF
310
FFFF80000000007FF000FE0000000000FFFFE0003F00078007F0003FFF80007F
310
FE0000000001FFFFE0000000001FFFF80FFFFFFFFFFFFFC07FFFFFF0001FFFFF
310
F0001FFFFFFFFC0007F0001FFFFFFFFC0007FF0003FFFFFFFFFF0000000000FF
310
F000FC0000000003FFFFE0007F00078007F0003FFF80007FFC0000000007FFFF
310
C0000000007FFFF80FFFFFFFFFFFFFC07FFFFFF0001FFFFFF8001FFFFFFFFC00
310
0FF8001FFFFFFFFC000FFF0003FFFFFFFFFE0000000003FFF000FC000000000F
310
FFFFE0007F80070007F8001FFF80007FF8000000001FFFFF8000000001FFFFF8
310
0FFFFFFFFFFFFFC07FFFFFF0001FFFFFF8001FFFFFFFFC000FF8001FFFFFFFFC
310
000FFF0003FFFFFFFFFC000000000FFFF000F8000000007FFFFFE0007F800700
310
07F8001FFF80007FF000000000FFFFFF800000000FFFFFF80FFFFFFFFFFFFFC0
310
7FFFFFF0001FFFFFF8000FFFFFFFF8000FF8000FFFFFFFF8000FFF0003FFFFFF
310
FFFC000000007FFFF000F800000007FFFFFFC0007F8003000FF8001FFF80007F
310
F000000007FFFFFF000000007FFFFFF80FFFFFFFFFFFFFC07FFFFFF0001FFFFF
310
F8000FFFFFFFF8000FF8000FFFFFFFF8000FFF0003FFFFFFFFF80000000FFFFF
310
F000F0000000FFFFFFFFC000FF8003000FF8001FFF80007FE0000000FFFFFFFF
310
0000000FFFFFFFF8000001FFFE0000007FFFFFF0001FFFFFF8000FFFFFFFF800
310
0FF8000FFFFFFFF8000FFF0003FFFFFFFFF8000000FFFFFFF000F000000FFFFF
310
FFFFC000FFC002000FF8000FFF80007FE000001FFFFFFFFE000001FFFFFFFFF8
310
000001FFFE0000007FFFFFF0001FFFFFF8000FFFFFFFF8000FF8000FFFFFFFF8
310
000FFF0003FFFFFFFFF000001FFFFFFFF000E00000FFFFFFFFFFC000FFC00200
310
0FFC000FFF80007FE00001FFFFFFFFFE00001FFFFFFFFFF8000001FFFE000000
310
7FFFFFF0001FFFFFFC000FFFFFFFF8001FFC000FFFFFFFF8001FFF0003FFFFFF
310
FFF00001FFFFFFFFF000E00007FFFFFFFFFF8000FFC000001FFC000FFF80007F
310
C0000FFFFFFFFFFE0000FFFFFFFFFFF8000001FFFE0000007FFFFFF0001FFFFF
310
FC0007FFFFFFF0001FFC0007FFFFFFF0001FFF0003FFFFFFFFF00007FFFFFFFF
310
F000E0001FFFFFFFFFFF8000FFC000001FFC000FFF80007FC0003FFFFFFFFFFE
310
0001FFFFFFFFFFF8000001FFFE0000007FFFFFF0001FFFFFFC0007FFFFFFF000
310
1FFC0007FFFFFFF0001FFF0003FFFFFFFFF0001FFFFFFFFFF000E0003FFFFF00
310
03FF8001FFE000001FFC0007FF80007FC0007FFFFF0007FC0003FFFFF0003FF8
310
000001FFFE0000007FFFFFF0001FFFFFFC0003FFFFFFE0001FFC0003FFFFFFE0
310
001FFF0003FFFFFFFFF0003FFFFFFFFFF000E0003FFFFF0001FF8001FFE00000
310
1FFE0007FF80007FC0007FFFFE0003FC0007FFFFE0003FF8000001FFFE000000
310
7FFFFFF0001FFFFFFE0003FFFFFFE0003FFE0003FFFFFFE0003FFF0003FFFFFF
310
FFF0003FFFFF8001F000E0003FFFFF0001FF0001FFE000001FFE0007FF80007F
310
C0007FFFFE0003FC0007FFFFE0003FF8000001FFFE0000007FFFFFF0001FFFFF
310
FE0001FFFFFFC0003FFE0001FFFFFFC0003FFF0003FFFFFFFFF0003FFFFF0001
310
F000E0003FFFFF0003FF0001FFE000003FFE0007FF80007FC0007FFFFE0003FC
310
0007FFFFE0003FF8000001FFFE0000007FFFFFF0001FFFFFFF0001FFFFFFC000
310
7FFF0001FFFFFFC0007FFF0003FFFFFFFFF0003FFFFF0001F000E0003FFFFE00
310
03FF0003FFF000003FFE0003FF80007FC0007FFFFC0003FE0007FFFFE0003FF8
310
000001FFFE0000007FFFFFF0001FFFFFFF0000FFFFFF80007FFF0000FFFFFF80
310
007FFF0003FFFFFFFFF0003FFFFF0001F000E0003FFFFE0003FF0003FFF00000
310
3FFF0003FF80007FC0007FFFFC0007FE0007FFFFC0003FF8000001FFFE000000
310
7FFFFFF0001FFFFFFF80007FFFFF0000FFFF80007FFFFF0000FFFF0003FFFFFF
310
FFF0003FFFFF0003F000E0003FFFFC0003FE0003FFF000003FFF0003FF80007F
310
E0003FFFF80007FE0003FFFFC0007FF8000001FFFE0000007FFFFFF0001FFFFF
310
FF80003FFFFE0000FFFF80003FFFFE0000FFFF0003FFFFFFFFF0001FFFFE0003
310
F000F0001FFFF80003FE0003FFF000007FFF0001FF80007FE0003FFFF00007FE
310
0001FFFF80007FF8000001FFFE0000007FFFFFF0001FFFFFFFC0000FFFF80001
310
FFFFC0000FFFF80001FFFF0003FFFFFFFFF0001FFFFC0003F000F0000FFFF000
310
07FE0007FFF800007FFF0001FF80007FE0001FFFE00007FF0000FFFE00007FF8
310
000001FFFE0000007FFFFFF0001FFFFFFFC00003FFE00001FFFFC00003FFE000
310
01FFFF0003FFFFFFFFF8000FFFF80003F000F00003FFC00007FC0007FFF80000
310
7FFF8001FF80007FF00007FF80000FFF00007FF80000FFF8000001FFFE000000
310
7F80000000000001FFE000003E000003FFFFE000003E000003FFFF0003FFFFFF
310
FFF80003FFE00007F000F800000000000FFC0007FFF800007FFF8001FF80007F
310
F000000000000FFF000000000000FFF8000001FFFE0000007F80000000000001
310
FFF0000000000007FFFFF0000000000007FFFF0003FFFFFFFFFC00007E000007
310
F000F800000000000FFC0007FFF80000FFFF8000FF80007FF800000000001FFF
310
800000000001FFF8000001FFFE0000007F80000000000001FFF800000000000F
310
FFFFF800000000000FFFFF0003FFFFFFFFFC00000000000FF000FC0000000000
310
1FFC0007FFFC0000FFFF8000FF80007FF800000000003FFFC00000000001FFF8
310
000001FFFE0000007F80000000000001FFF800000000000FFFFFF80000000000
310
0FFFFF0003FFFFFFFFFE00000000001FF000FE00000000003FF8000FFFFC0000
310
FFFF8000FF80007FFC00000000003FFFC00000000003FFF8000001FFFE000000
310
7F80000000000001FFFC00000000001FFFFFFC00000000001FFFFF0003FFFFFF
310
FFFF00000000001FF000FF00000000003FF8000FFFFC0000FFFFC000FF80007F
310
FE00000000007FFFE00000000007FFF8000001FFFE0000007F80000000000001
310
FFFE00000000003FFFFFFE00000000003FFFFF0003FFFFFFFFFF80000000003F
310
F000FF80000000007FF8000FFFFC0001FFFFC0007F80007FFF0000000000FFFF
310
F0000000000FFFF800000000000000007F80000000000001FFFF8000000000FF
310
FFFFFF8000000000FFFFFF0003FFFFFFFFFFC0000000007FF000FFC000000000
310
FFF8000FFFFE0001FFFFC0007F80007FFF8000000001FFFFF8000000001FFFF8
310
00000000000000007F80000000000001FFFFC000000001FFFFFFFFC000000001
310
FFFFFF0003FFFFFFFFFFE000000000FFF000FFE000000003FFF0001FFFFE0001
310
FFFFC0007F80007FFFC000000007FFFFFE000000003FFFF80000000000000000
310
7F80000000000001FFFFE000000003FFFFFFFFE000000003FFFFFF0003FFFFFF
310
FFFFF000000003FFF000FFF80000000FFFF0001FFFFE0001FFFFE0007F80007F
310
FFF00000000FFFFFFF00000000FFFFF800000000000000007F80000000000001
310
FFFFF80000000FFFFFFFFFF80000000FFFFFFF0003FFFFFFFFFFFC0000000FFF
310
F000FFFE0000003FFFF0001FFFFE0003FFFFE0003F80007FFFFC0000003FFFFF
310
FFC0000003FFFFF800000000000000007F80000000000001FFFFFE0000003FFF
310
FFFFFFFE0000003FFFFFFF0003FFFFFFFFFFFF0000003FFFF000FFFF800000FF
310
FFF0001FFFFF0003FFFFE0003F80007FFFFF000001FFFFFFFFF800001FFFFFF8
310
00000000000000007F80000000000001FFFFFFC00001FFFFFFFFFFFFC00001FF
310
FFFFFF0003FFFFFFFFFFFFC00000FFFFF000FFFFF8000FFFFFFFFFFFFFFFFFFF
310
FFFFFFFFFFFFFFFFFFFFF0001FFFFFFFFFFF0000FFFFFFF80000000000000000
310
7FFFFFFFFFFFFFFFFFFFFFFC001FFFFFFFFFFFFFFC001FFFFFFFFFFFFFFFFFFF
310
FFFFFFFC001FFFFFF000FFFFFFFFFFFFFFFFFFFFFFFFFFFFFFFFFFFFFFFFFFFF
310
FFFFFFFFFFFFFFFFFFFFFFFFFFFFFFFFFFFFFFFFFFFFFFFFFFFFFFFFFFFFFFFF
310
FFFFFFFFFFFFFFFFFFFFFFFFFFFFFFFFFFFFFFFFFFFFFFFFFFFFFFFFFFFFFFFF
310
F000FFFFFFFFFFFFFFFFFFFFFFFFFFFFFFFFFFFFFFFFFFFFFFFFFFFFFFFFFFFF
310
FFFFFFFFFFFFFFFFFFFFFFFFFFFFFFFFFFFFFFFFFFFFFFFFFFFFFFFFFFFFFFFF
310
FFFFFFFFFFFFFFFFFFFFFFFFFFFFFFFFFFFFFFFFFFFFFFFFF000FFFFFFFFFFFF
310
FFFFFFFFFFFFFFFFFFFFFFFFFFFFFFFFFFFFFFFFFFFFFFFFFFFFFFFFFFFFFFFF
310
FFFFFFFFFFFFFFFFFFFFFFFFFFFFFFFFFFFFFFFFFFFFFFFFFFFFFFFFFFFFFFFF
310
FFFFFFFFFFFFFFFFFFFFFFFFFFFFFFFFF000FFFFFFFFFFFFFFFFFFFFFFFFFFFF
310
FFFFFFFFFFFFFFFFFFFFFFFFFFFFFFFFFFFFFFFFFFFFFFFFFFFFFFFFFFFFFFFF
310
FFFFFFFFFFFFFFFFFFFFFFFFFFFFFFFFFFFFFFFFFFFFFFFFFFFFFFFFFFFFFFFF
310
FFFFFFFFFFFFFFFFF000FFFFFFFFFFFFFFFFFFFFFFFFFFFFFFFFFFFFFFFFFFFF
310
FFFFFFFFFFFFFFFFFFFFFFFFFFFFFFFFFFFFFFFFFFFFFFFFFFFFFFFFFFFFFFFF
310
FFFFFFFFFFFFFFFFFFFFFFFFFFFFFFFFFFFFFFFFFFFFFFFFFFFFFFFFFFFFFFFF
310
F000FFFFFFFFFFFFFFFFFFFFFFFFFFFFFFFFFFFFFFFFFFFFFFFFFFFFFFFFFFFF
310
FFFFFFFFFFFFFFFFFFFFFFFFFFFFFFFFFFFFFFFFFFFFFFFFFFFFFFFFFFFFFFFF
310
FFFFFFFFFFFFFFFFFFFFFFFFFFFFFFFFFFFFFFFFFFFFFFFFF000FFFFFFFFFFFF
310
FFFFFFFFFFFFFFFFFFFFFFFFFFFFFFFFFFFFFFFFFFFFFFFFFFFFFFFFFFFFFFFF
310
FFFFFFFFFFFFFFFFFFFFFFFFFFFFFFFFFFFFFFFFFFFFFFFFFFFFFFFFFFFFFFFF
310
FFFFFFFFFFFFFFFFFFFFFFFFFFFFFFFFF000FFFFFFFFFFFFFFFFFFFFFFFFFFFF
310
FFFFFFFFFFFFFFFFFFFFFFFFFFFFFFFFFFFFFFFFFFFFFFFFFFFFFFFFFFFFFFFF
310
FFFFFFFFFFFFFFFFFFFFFFFFFFFFFFFFFFFFFFFFFFFFFFFFFFFFFFFFFFFFFFFF
310
FFFFFFFFFFFFFFFFF000FFFFFFFFFFFFFFFFFFFFFFFFFFFFFFFFFFFFFFFFFFFF
310
FFFFFFFFFFFFFFFFFFFFFFFFFFFFFFFFFFFFFFFFFFFFFFFFFFFFFFFFFFFFFFFF
310
FFFFFFFFFFFFFFFFFFFFFFFFFFFFFFFFFFFFFFFFFFFFFFFFFFFFFFFFFFFFFFFF
310
F000FFFFFFFFFFFFFFFFFFFFFFFFFFFFFFFFFFFFFFFFFFFFFFFFFFFFFFFFFFFF
310
FFFFFFFFFFFFFFFFFFFFFFFFFFFFFFFFFFFFFFFFFFFFFFFFFFFFFFFFFFFFFFFF
310
FFFFFFFFFFFFFFFFFFFFFFFFFFFFFFFFFFFFFFFFFFFFFFFFF000FFFFFFFFFFFF
310
FFFFFFFFFFFFFFFFFFFFFFFFFFFFFFFFFFFFFFFFFFFFFFFFFFFFFFFFFFFFFFFF
310
FFFFFFFFFFFFFFFFFFFFFFFFFFFFFFFFFFFFFFFFFFFFFFFFFFFFFFFFFFFFFFFF
310
FFFFFFFFFFFFFFFFFFFFFFFFFFFFFFFFF000FFFFFFFFFFFFFFFFFFFFFFFFFFFF
310
FFFFFFFFFFFFFFFFFFFFFFFFFFFFFFFFFFFFFFFFFFFFFFFFFFFFFFFFFFFFFFFF
310
FFFFFFFFFFFFFFFFFFFFFFFFFFFFFFFFFFFFFFFFFFFFFFFFFFFFFFFFFFFFFFFF
310
FFFFFFFFFFFFFFFFF000FFFFFFFFFFFFFFFFFFFFFFFFFFFFFFFFFFFFFFFFFFFF
310
FFFFFFFFFFFFFFFFFFFFFFFFFFFFFFFFFFFFFFFFFFFFFFFFFFFFFFFFFFFFFFFF
310
FFFFFFFFFFFFFFFFFFFFFFFFFFFFFFFFFFFFFFFFFFFFFFFFFFFFFFFFFFFFFFFF
310
F000FFFFFFFFFFFFFFFFFFFFFFFFFFFFFFFFFFFFFFFFFFFFFFFFFFFFFFFFFFFF
310
FFFFFFFFFFFFFFFFFFFFFFFFFFFFFFFFFFFFFFFFFFFFFFFFFFFFFFFFFFFFFFFF
310
FFFFFFFFFFFFFFFFFFFFFFFFFFFFFFFFFFFFFFFFFFFFFFFFF000FFFFFFFFFFFF
310
FFFFFFFFFFFFFFFFFFFFFFFFFFFFFFFFFFFFFFFFFFFFFFFFFFFFFFFFFFFFFFFF
310
FFFFFFFFFFFFFFFFFFFFFFFFFFFFFFFFFFFFFFFFFFFFFFFFFFFFFFFFFFFFFFFF
310
FFFFFFFFFFFFFFFFFFFFFFFFFFFFFFFFF000FFFFFFFFFFFFFFFFFFFFFFFFFFFF
310
FFFFFFFFFFFFFFFFFFFFFFFFFFFFFFFFFFFFFFFFFFFFFFFFFFFFFFFFFFFFFFFF
310
FFFFFFFFFFFFFFFFFFFFFFFFFFFFFFFFFFFFFFFFFFFFFFFFFFFFFFFFFFFFFFFF
310
FFFFFFFFFFFFFFFFF000FFFFFFFFFFFFFFFFFFFFFFFFFFFFFFFFFFFFFFFFFFFF
310
FFFFFFFFFFFFFFFFFFFFFFFFFFFFFFFFFFFFFFFFFFFFFFFFFFFFFFFFFFFFFFFF
310
FFFFFFFFFFFFFFFFFFFFFFFFFFFFFFFFFFFFFFFFFFFFFFFFFFFFFFFFFFFFFFFF
310
F000FFFFFFFFFFFFFFFFFFFFFFFFFFFFFFFFFFFFFFFFFFFFFFFFFFFFFFFFFFFF
310
FFFFFFFFFFFFFFFFFFFFFFFFFFFFFFFFFFFFFFFFFFFFFFFFFFFFFFFFFFFFFFFF
310
FFFFFFFFFFFFFFFFFFFFFFFFFFFFFFFFFFFFFFFFFFFFFFFFF000FFFFFFFFFFFF
310
FFFFFFFFFFFFFFFFFFFFFFFFFFFFFFFFFFFFFFFFFFFFFFFFFFFFFFFFFFFFFFFF
310
FFFFFFFFFFFFFFFFFFFFFFFFFFFFFFFFFFFFFFFFFFFFFFFFFFFFFFFFFFFFFFFF
310
FFFFFFFFFFFFFFFFFFFFFFFFFFFFFFFFF000FFFFFFFFFFFFFFFFFFFFFFFFFFFF
310
FFFFFFFFFFFFFFFFFFFFFFFFFFFFFFFFFFFFFFFFFFFFFFFFFFFFFFFFFFFFFFFF
310
FFFFFFFFFFFFFFFFFFFFFFFFFFFFFFFFFFFFFFFFFFFFFFFFFFFFFFFFFFFFFFFF
310
FFFFFFFFFFFFFFFFF000FFFFFFFFFFFFFFFFFFFFFFFFFFFFFFFFFFFFFFFFFFFF
310
FFFFFFFFFFFFFFFFFFFFFFFFFFFFFFFFFFFFFFFFFFFFFFFFFFFFFFFFFFFFFFFF
310
FFFFFFFFFFFFFFFFFFFFFFFFFFFFFFFFFFFFFFFFFFFFFFFFFFFFFFFFFFFFFFFF
310
F000FFFFFFFFFFFFFFFFFFFFFFFFFFFFFFFFFFFFFFFFFFFFFFFFFFFFFFFFFFFF
310
FFFFFFFFFFFFFFFFFFFFFFFFFFFFFFFFFFFFFFFFFFFFFFFFFFFFFFFFFFFFFFFF
310
FFFFFFFFFFFFFFFFFFFFFFFFFFFFFFFFFFFFFFFFFFFFFFFFF000FFFFFFFFFFFF
310
FFFFFFFFFFFFFFFFFFFFFFFFFFFFFFFFFFFFFFFFFFFFFFFFFFFFFFFFFFFFFFFF
310
FFFFFFFFFFFFFFFFFFFFFFFFFFFFFFFFFFFFFFFFFFFFFFFFFFFFFFFFFFFFFFFF
310
FFFFFFFFFFFFFFFFFFFFFFFFFFFFFFFFF0000000000000000000000000000000
310
00000000000000000000000042006C00610063006B0000000000000000000000
310
0000000000000000000000000000000000000000000000000000000000000000
310
0000000000000000000000000000FFFFFFFFFFFFFFFFFFFFFFFFFFFFFFFFFFFF
310
FFFFFFFFFFFFFFFFFFFFFFFFFFFFFFFFFFFFFFFFFFFFFFFFFFFFFFFFFFFFFFFF
310
FFFFFFFFFFFFFFFFFFFFFFFF6476000800000000FFFFFFFF20FF202026000000
310
1E00000008000000060000000000000011000000200000008403000000000000
310
6000000060000000200002FB200020000000002B00FFFFFF40002200E8030000
310
A80400001C020000AF0000804A20004000000000000000000100000000000000
310
616C000800000000E40100007001000002000000270000001100000000000000
310
00000000BC0200000000000003020122420065006C006C00200047006F007400
310
680069006300200053007400640020004C006900670068007400000000000000
310
00000000000000000000000000000000420065006C006C0047006F0074006800
310
690063005300740064002D0042006F006C006400000000000000000000000000
310
0000000000000000000000000000000000000000000000000000000000000000
310
0000000000000000000000000000000000000000000000000000000000000000
  1
OLE
  0
ENDSEC
  0
SECTION
  2
OBJECTS
  0
DICTIONARY
  5
C
330
0
100
AcDbDictionary
281
     1
  3
ACAD_GROUP
350
D
  3
ACAD_LAYOUT
350
1A
  3
ACAD_MLEADERSTYLE
350
30D
  3
ACAD_MLINESTYLE
350
17
  3
ACAD_PLOTSETTINGS
350
19
  3
ACAD_PLOTSTYLENAME
350
E
  3
ACAD_TABLESTYLE
350
30C
  3
ACAD_VISUALSTYLE
350
2A
  3
AcDbVariableDictionary
350
30E
  0
DICTIONARY
  5
D
102
{ACAD_REACTORS
330
C
102
}
330
C
100
AcDbDictionary
281
     1
  0
DICTIONARY
  5
1A
102
{ACAD_REACTORS
330
C
102
}
330
C
100
AcDbDictionary
281
     1
  3
Layout1
350
1E
  3
Layout2
350
26
  3
Model
350
22
  0
DICTIONARY
  5
30D
102
{ACAD_REACTORS
330
C
102
}
330
C
100
AcDbDictionary
281
     1
  0
DICTIONARY
  5
17
102
{ACAD_REACTORS
330
C
102
}
330
C
100
AcDbDictionary
281
     1
  3
Standard
350
18
  0
DICTIONARY
  5
19
102
{ACAD_REACTORS
330
C
102
}
330
C
100
AcDbDictionary
281
     1
  0
ACDBDICTIONARYWDFLT
  5
E
102
{ACAD_REACTORS
330
C
102
}
330
C
100
AcDbDictionary
281
     1
  3
Normal
350
F
100
AcDbDictionaryWithDefault
340
F
  0
DICTIONARY
  5
30C
102
{ACAD_REACTORS
330
C
102
}
330
C
100
AcDbDictionary
281
     1
  0
DICTIONARY
  5
2A
102
{ACAD_REACTORS
330
C
102
}
330
C
100
AcDbDictionary
281
     1
  3
2dWireframe
350
2F
  3
3D Hidden
350
31
  3
3dWireframe
350
30
  3
Basic
350
32
  3
Brighten
350
36
  3
ColorChange
350
3A
  3
Conceptual
350
34
  3
Dim
350
35
  3
Facepattern
350
39
  3
Flat
350
2B
  3
FlatWithEdges
350
2C
  3
Gouraud
350
2D
  3
GouraudWithEdges
350
2E
  3
Linepattern
350
38
  3
Realistic
350
33
  3
Thicken
350
37
  0
DICTIONARY
  5
30E
102
{ACAD_REACTORS
330
C
102
}
330
C
100
AcDbDictionary
281
     1
  3
PSOLHEIGHT
350
310
  3
PSOLWIDTH
350
30F
  0
LAYOUT
  5
1E
102
{ACAD_REACTORS
330
1A
102
}
330
1A
100
AcDbPlotSettings
  1

  2
none_device
  4

  6

 40
0.0
 41
0.0
 42
0.0
 43
0.0
 44
0.0
 45
0.0
 46
0.0
 47
0.0
 48
0.0
 49
0.0
140
0.0
141
0.0
142
1.0
143
1.0
 70
   688
 72
     0
 73
     0
 74
     5
  7

 75
    16
147
1.0
148
0.0
149
0.0
100
AcDbLayout
  1
Layout1
 70
     1
 71
     1
 10
0.0
 20
0.0
 11
420.0
 21
297.0
 12
0.0
 22
0.0
 32
0.0
 14
1.0000000000E+20
 24
1.0000000000E+20
 34
1.0000000000E+20
 15
-1.0000000000E+20
 25
-1.0000000000E+20
 35
-1.0000000000E+20
146
0.0
 13
0.0
 23
0.0
 33
0.0
 16
1.0
 26
0.0
 36
0.0
 17
0.0
 27
1.0
 37
0.0
 76
     0
330
1B
  0
LAYOUT
  5
26
102
{ACAD_REACTORS
330
1A
102
}
330
1A
100
AcDbPlotSettings
  1

  2
none_device
  4

  6

 40
0.0
 41
0.0
 42
0.0
 43
0.0
 44
0.0
 45
0.0
 46
0.0
 47
0.0
 48
0.0
 49
0.0
140
0.0
141
0.0
142
1.0
143
1.0
 70
   688
 72
     0
 73
     0
 74
     5
  7

 75
    16
147
1.0
148
0.0
149
0.0
100
AcDbLayout
  1
Layout2
 70
     1
 71
     2
 10
0.0
 20
0.0
 11
0.0
 21
0.0
 12
0.0
 22
0.0
 32
0.0
 14
0.0
 24
0.0
 34
0.0
 15
0.0
 25
0.0
 35
0.0
146
0.0
 13
0.0
 23
0.0
 33
0.0
 16
1.0
 26
0.0
 36
0.0
 17
0.0
 27
1.0
 37
0.0
 76
     0
330
23
  0
LAYOUT
  5
22
102
{ACAD_REACTORS
330
1A
102
}
330
1A
100
AcDbPlotSettings
  1

  2
none_device
  4

  6

 40
0.0
 41
0.0
 42
0.0
 43
0.0
 44
0.0
 45
0.0
 46
0.0
 47
0.0
 48
0.0
 49
0.0
140
0.0
141
0.0
142
1.0
143
1.0
 70
  1712
 72
     0
 73
     0
 74
     0
  7

 75
     0
147
1.0
148
0.0
149
0.0
100
AcDbLayout
  1
Model
 70
     1
 71
     0
 10
0.0
 20
0.0
 11
297.0
 21
210.0
 12
0.0
 22
0.0
 32
0.0
 14
0.0
 24
0.0
 34
0.0
 15
297.0
 25
210.0
 35
0.0
146
0.0
 13
0.0
 23
0.0
 33
0.0
 16
1.0
 26
0.0
 36
0.0
 17
0.0
 27
1.0
 37
0.0
 76
     0
330
1F
331
29
  0
MLINESTYLE
  5
18
102
{ACAD_REACTORS
330
17
102
}
330
17
100
AcDbMlineStyle
  2
Standard
 70
     0
  3

 62
   256
 51
90.0
 52
90.0
 71
     2
 49
0.5
 62
   256
  6
BYLAYER
 49
-0.5
 62
   256
  6
BYLAYER
  0
ACDBPLACEHOLDER
  5
F
102
{ACAD_REACTORS
330
E
102
}
330
E
  0
VISUALSTYLE
  5
2F
102
{ACAD_REACTORS
330
2A
102
}
330
2A
100
AcDbVisualStyle
  2
2dWireframe
 70
     4
 71
     0
 72
     2
 73
     0
 90
        0
 40
-0.6
 41
-30.0
 62
     5
 63
     7
 74
     1
 91
        4
 64
     7
 65
   257
 75
     1
175
     1
 42
1.0
 92
        0
 66
   257
 43
1.0
 76
     1
 77
     6
 78
     2
 67
     7
 79
     5
170
     0
171
     0
290
     0
174
     0
 93
        1
 44
0.0
173
     0
291
     0
 45
0.0
1001
ACAD
1000
AcDbSavedByObjectVersion
1070
     0
  0
VISUALSTYLE
  5
31
102
{ACAD_REACTORS
330
2A
102
}
330
2A
100
AcDbVisualStyle
  2
3D Hidden
 70
     6
 71
     1
 72
     2
 73
     2
 90
        0
 40
-0.6
 41
-30.0
 62
     5
 63
     7
 74
     2
 91
        2
 64
     7
 65
   257
 75
     2
175
     1
 42
40.0
 92
        0
 66
   257
 43
1.0
 76
     1
 77
     6
 78
     2
 67
     7
 79
     3
170
     0
171
     0
290
     0
174
     0
 93
        1
 44
0.0
173
     0
291
     0
 45
0.0
1001
ACAD
1000
AcDbSavedByObjectVersion
1070
     0
  0
VISUALSTYLE
  5
30
102
{ACAD_REACTORS
330
2A
102
}
330
2A
100
AcDbVisualStyle
  2
3dWireframe
 70
     5
 71
     0
 72
     2
 73
     0
 90
        0
 40
-0.6
 41
-30.0
 62
     5
 63
     7
 74
     1
 91
        4
 64
     7
 65
   257
 75
     1
175
     1
 42
1.0
 92
        0
 66
   257
 43
1.0
 76
     1
 77
     6
 78
     2
 67
     7
 79
     5
170
     0
171
     0
290
     0
174
     0
 93
        1
 44
0.0
173
     0
291
     0
 45
0.0
1001
ACAD
1000
AcDbSavedByObjectVersion
1070
     0
  0
VISUALSTYLE
  5
32
102
{ACAD_REACTORS
330
2A
102
}
330
2A
100
AcDbVisualStyle
  2
Basic
 70
     7
 71
     1
 72
     0
 73
     1
 90
        0
 40
-0.6
 41
-30.0
 62
     5
 63
     7
 74
     0
 91
        4
 64
     7
 65
   257
 75
     1
175
     1
 42
1.0
 92
        8
 66
     7
 43
1.0
 76
     1
 77
     6
 78
     2
 67
     7
 79
     5
170
     0
171
     0
290
     0
174
     0
 93
        1
 44
0.0
173
     0
291
     1
 45
0.0
1001
ACAD
1000
AcDbSavedByObjectVersion
1070
     0
  0
VISUALSTYLE
  5
36
102
{ACAD_REACTORS
330
2A
102
}
330
2A
100
AcDbVisualStyle
  2
Brighten
 70
    12
 71
     2
 72
     2
 73
     0
 90
        0
 40
-0.6
 41
-30.0
 62
     5
 63
     7
 74
     1
 91
        4
 64
     7
 65
   257
 75
     1
175
     1
 42
1.0
 92
        8
 66
     7
 43
1.0
 76
     1
 77
     6
 78
     2
 67
     7
 79
     5
170
     0
171
     0
290
     0
174
     0
 93
        1
 44
50.0
173
     0
291
     1
 45
0.0
1001
ACAD
1000
AcDbSavedByObjectVersion
1070
     0
  0
VISUALSTYLE
  5
3A
102
{ACAD_REACTORS
330
2A
102
}
330
2A
100
AcDbVisualStyle
  2
ColorChange
 70
    16
 71
     2
 72
     2
 73
     3
 90
        0
 40
-0.6
 41
-30.0
 62
     5
 63
     8
 74
     1
 91
        4
 64
     7
 65
   257
 75
     1
175
     1
 42
1.0
 92
        8
 66
     8
 43
1.0
 76
     1
 77
     6
 78
     2
 67
     7
 79
     5
170
     0
171
     0
290
     0
174
     0
 93
        1
 44
0.0
173
     0
291
     1
 45
0.0
1001
ACAD
1000
AcDbSavedByObjectVersion
1070
     0
  0
VISUALSTYLE
  5
34
102
{ACAD_REACTORS
330
2A
102
}
330
2A
100
AcDbVisualStyle
  2
Conceptual
 70
     9
 71
     3
 72
     2
 73
     0
 90
        0
 40
-0.6
 41
-30.0
 62
     5
 63
     7
 74
     2
 91
        2
 64
     7
 65
   257
 75
     1
175
     1
 42
40.0
 92
        8
 66
     7
 43
1.0
 76
     1
 77
     6
 78
     2
 67
     7
 79
     3
170
     0
171
     0
290
     0
174
     0
 93
        1
 44
0.0
173
     0
291
     0
 45
0.0
1001
ACAD
1000
AcDbSavedByObjectVersion
1070
     0
  0
VISUALSTYLE
  5
35
102
{ACAD_REACTORS
330
2A
102
}
330
2A
100
AcDbVisualStyle
  2
Dim
 70
    11
 71
     2
 72
     2
 73
     0
 90
        0
 40
-0.6
 41
-30.0
 62
     5
 63
     7
 74
     1
 91
        4
 64
     7
 65
   257
 75
     1
175
     1
 42
1.0
 92
        8
 66
     7
 43
1.0
 76
     1
 77
     6
 78
     2
 67
     7
 79
     5
170
     0
171
     0
290
     0
174
     0
 93
        1
 44
-50.0
173
     0
291
     1
 45
0.0
1001
ACAD
1000
AcDbSavedByObjectVersion
1070
     0
  0
VISUALSTYLE
  5
39
102
{ACAD_REACTORS
330
2A
102
}
330
2A
100
AcDbVisualStyle
  2
Facepattern
 70
    15
 71
     2
 72
     2
 73
     0
 90
        0
 40
-0.6
 41
-30.0
 62
     5
 63
     7
 74
     1
 91
        4
 64
     7
 65
   257
 75
     1
175
     1
 42
1.0
 92
        8
 66
     7
 43
1.0
 76
     1
 77
     6
 78
     2
 67
     7
 79
     5
170
     0
171
     0
290
     0
174
     0
 93
        1
 44
0.0
173
     0
291
     1
 45
0.0
1001
ACAD
1000
AcDbSavedByObjectVersion
1070
     0
  0
VISUALSTYLE
  5
2B
102
{ACAD_REACTORS
330
2A
102
}
330
2A
100
AcDbVisualStyle
  2
Flat
 70
     0
 71
     2
 72
     1
 73
     1
 90
        2
 40
-0.6
 41
30.0
 62
     5
 63
     7
 74
     0
 91
        4
 64
     7
 65
   257
 75
     1
175
     1
 42
1.0
 92
        8
 66
     7
 43
1.0
 76
     1
 77
     6
 78
     2
 67
     7
 79
     5
170
     0
171
     0
290
     0
174
     0
 93
       13
 44
0.0
173
     0
291
     1
 45
0.0
1001
ACAD
1000
AcDbSavedByObjectVersion
1070
     0
  0
VISUALSTYLE
  5
2C
102
{ACAD_REACTORS
330
2A
102
}
330
2A
100
AcDbVisualStyle
  2
FlatWithEdges
 70
     1
 71
     2
 72
     1
 73
     1
 90
        2
 40
-0.6
 41
30.0
 62
     5
 63
     7
 74
     1
 91
        4
 64
     7
 65
   257
 75
     1
175
     1
 42
1.0
 92
        0
 66
   257
 43
1.0
 76
     1
 77
     6
 78
     2
 67
     7
 79
     5
170
     0
171
     0
290
     0
174
     0
 93
       13
 44
0.0
173
     0
291
     1
 45
0.0
1001
ACAD
1000
AcDbSavedByObjectVersion
1070
     0
  0
VISUALSTYLE
  5
2D
102
{ACAD_REACTORS
330
2A
102
}
330
2A
100
AcDbVisualStyle
  2
Gouraud
 70
     2
 71
     2
 72
     2
 73
     1
 90
        2
 40
-0.6
 41
30.0
 62
     5
 63
     7
 74
     0
 91
        4
 64
     7
 65
   257
 75
     1
175
     1
 42
1.0
 92
        0
 66
     7
 43
1.0
 76
     1
 77
     6
 78
     2
 67
     7
 79
     5
170
     0
171
     0
290
     0
174
     0
 93
       13
 44
0.0
173
     0
291
     1
 45
0.0
1001
ACAD
1000
AcDbSavedByObjectVersion
1070
     0
  0
VISUALSTYLE
  5
2E
102
{ACAD_REACTORS
330
2A
102
}
330
2A
100
AcDbVisualStyle
  2
GouraudWithEdges
 70
     3
 71
     2
 72
     2
 73
     1
 90
        2
 40
-0.6
 41
30.0
 62
     5
 63
     7
 74
     1
 91
        4
 64
     7
 65
   257
 75
     1
175
     1
 42
1.0
 92
        0
 66
   257
 43
1.0
 76
     1
 77
     6
 78
     2
 67
     7
 79
     5
170
     0
171
     0
290
     0
174
     0
 93
       13
 44
0.0
173
     0
291
     1
 45
0.0
1001
ACAD
1000
AcDbSavedByObjectVersion
1070
     0
  0
VISUALSTYLE
  5
38
102
{ACAD_REACTORS
330
2A
102
}
330
2A
100
AcDbVisualStyle
  2
Linepattern
 70
    14
 71
     2
 72
     2
 73
     0
 90
        0
 40
-0.6
 41
-30.0
 62
     5
 63
     7
 74
     1
 91
        4
 64
     7
 65
   257
 75
     7
175
     7
 42
1.0
 92
        8
 66
     7
 43
1.0
 76
     1
 77
     6
 78
     2
 67
     7
 79
     5
170
     0
171
     0
290
     0
174
     0
 93
        1
 44
0.0
173
     0
291
     1
 45
0.0
1001
ACAD
1000
AcDbSavedByObjectVersion
1070
     0
  0
VISUALSTYLE
  5
33
102
{ACAD_REACTORS
330
2A
102
}
330
2A
100
AcDbVisualStyle
  2
Realistic
 70
     8
 71
     2
 72
     2
 73
     0
 90
        0
 40
-0.6
 41
-30.0
 62
     5
 63
     7
 74
     1
 91
        0
 64
     7
 65
   257
 75
     1
175
     1
 42
1.0
 92
        8
 66
     8
 43
1.0
 76
     1
 77
     6
 78
     2
 67
     7
 79
     5
170
     0
171
     0
290
     0
174
     0
 93
       13
 44
0.0
173
     0
291
     0
 45
0.0
1001
ACAD
1000
AcDbSavedByObjectVersion
1070
     0
  0
VISUALSTYLE
  5
37
102
{ACAD_REACTORS
330
2A
102
}
330
2A
100
AcDbVisualStyle
  2
Thicken
 70
    13
 71
     2
 72
     2
 73
     0
 90
        0
 40
-0.6
 41
-30.0
 62
     5
 63
     7
 74
     1
 91
        4
 64
     7
 65
   257
 75
     1
175
     1
 42
1.0
 92
       12
 66
     7
 43
1.0
 76
     1
 77
     6
 78
     2
 67
     7
 79
     5
170
     0
171
     0
290
     0
174
     0
 93
        1
 44
0.0
173
     0
291
     1
 45
0.0
1001
ACAD
1000
AcDbSavedByObjectVersion
1070
     0
  0
DICTIONARYVAR
  5
310
102
{ACAD_REACTORS
330
30E
102
}
330
30E
100
DictionaryVariables
280
     0
  1
80.000000
  0
DICTIONARYVAR
  5
30F
102
{ACAD_REACTORS
330
30E
102
}
330
30E
100
DictionaryVariables
280
     0
  1
5.000000
  0
ENDSEC
  0
EOF
