  0
SECTION
  2
HEADER
  9
$ACADVER
  1
AC1015
  9
$ACADMAINTVER
 70
     6
  9
$DWGCODEPAGE
  3
ANSI_1252
  9
$INSBASE
 10
0.0
 20
0.0
 30
0.0
  9
$EXTMIN
 10
0.0
 20
0.0
 30
0.0
  9
$EXTMAX
 10
297.0
 20
210.0
 30
0.0
  9
$LIMMIN
 10
0.0
 20
0.0
  9
$LIMMAX
 10
297.0
 20
210.0
  9
$ORTHOMODE
 70
     0
  9
$REGENMODE
 70
     1
  9
$FILLMODE
 70
     1
  9
$QTEXTMODE
 70
     0
  9
$MIRRTEXT
 70
     1
  9
$LTSCALE
 40
1.0
  9
$ATTMODE
 70
     1
  9
$TEXTSIZE
 40
2.0
  9
$TRACEWID
 40
1.0
  9
$TEXTSTYLE
  7
Standard
  9
$CLAYER
  8
0
  9
$CELTYPE
  6
ByLayer
  9
$CECOLOR
 62
   256
  9
$CELTSCALE
 40
1.0
  9
$DISPSILH
 70
     0
  9
$DIMSCALE
 40
1.0
  9
$DIMASZ
 40
3.0
  9
$DIMEXO
 40
0.0
  9
$DIMDLI
 40
3.75
  9
$DIMRND
 40
0.0
  9
$DIMDLE
 40
0.0
  9
$DIMEXE
 40
1.0
  9
$DIMTP
 40
0.0
  9
$DIMTM
 40
0.0
  9
$DIMTXT
 40
2.0
  9
$DIMCEN
 40
2.5
  9
$DIMTSZ
 40
0.0
  9
$DIMTOL
 70
     0
  9
$DIMLIM
 70
     0
  9
$DIMTIH
 70
     1
  9
$DIMTOH
 70
     1
  9
$DIMSE1
 70
     0
  9
$DIMSE2
 70
     0
  9
$DIMTAD
 70
     1
  9
$DIMZIN
 70
     0
  9
$DIMBLK
  1

  9
$DIMASO
 70
     1
  9
$DIMSHO
 70
     1
  9
$DIMPOST
  1

  9
$DIMAPOST
  1

  9
$DIMALT
 70
     0
  9
$DIMALTD
 70
     3
  9
$DIMALTF
 40
0.0393700787
  9
$DIMLFAC
 40
1.0
  9
$DIMTOFL
 70
     1
  9
$DIMTVP
 40
0.0
  9
$DIMTIX
 70
     0
  9
$DIMSOXD
 70
     0
  9
$DIMSAH
 70
     0
  9
$DIMBLK1
  1

  9
$DIMBLK2
  1

  9
$DIMSTYLE
  2
ISO-25
  9
$DIMCLRD
 70
     0
  9
$DIMCLRE
 70
     0
  9
$DIMCLRT
 70
     0
  9
$DIMTFAC
 40
1.0
  9
$DIMGAP
 40
1.524
  9
$DIMJUST
 70
     0
  9
$DIMSD1
 70
     0
  9
$DIMSD2
 70
     0
  9
$DIMTOLJ
 70
     0
  9
$DIMTZIN
 70
     0
  9
$DIMALTZ
 70
     0
  9
$DIMALTTZ
 70
     0
  9
$DIMUPT
 70
     0
  9
$DIMDEC
 70
     2
  9
$DIMTDEC
 70
     3
  9
$DIMALTU
 70
     2
  9
$DIMALTTD
 70
     3
  9
$DIMTXSTY
  7
Standard
  9
$DIMAUNIT
 70
     0
  9
$DIMADEC
 70
     2
  9
$DIMALTRND
 40
0.0
  9
$DIMAZIN
 70
     0
  9
$DIMDSEP
 70
    44
  9
$DIMATFIT
 70
     3
  9
$DIMFRAC
 70
     0
  9
$DIMLDRBLK
  1

  9
$DIMLUNIT
 70
     2
  9
$DIMLWD
 70
    -2
  9
$DIMLWE
 70
    -2
  9
$DIMTMOVE
 70
     0
  9
$LUNITS
 70
     2
  9
$LUPREC
 70
     2
  9
$SKETCHINC
 40
1.0
  9
$FILLETRAD
 40
10.0
  9
$AUNITS
 70
     0
  9
$AUPREC
 70
     2
  9
$MENU
  1
.
  9
$ELEVATION
 40
0.0
  9
$PELEVATION
 40
0.0
  9
$THICKNESS
 40
0.0
  9
$LIMCHECK
 70
     0
  9
$CHAMFERA
 40
10.0
  9
$CHAMFERB
 40
10.0
  9
$CHAMFERC
 40
20.0
  9
$CHAMFERD
 40
0.0
  9
$SKPOLY
 70
     0
  9
$TDCREATE
 40
2455608.626360926
  9
$TDUCREATE
 40
2455608.584694259
  9
$TDUPDATE
 40
2455608.626360937
  9
$TDUUPDATE
 40
2455608.584694271
  9
$TDINDWG
 40
0.0000000116
  9
$TDUSRTIMER
 40
0.0000000116
  9
$USRTIMER
 70
     1
  9
$ANGBASE
 50
0.0
  9
$ANGDIR
 70
     0
  9
$PDMODE
 70
     0
  9
$PDSIZE
 40
-1.0
  9
$PLINEWID
 40
0.0
  9
$SPLFRAME
 70
     0
  9
$SPLINETYPE
 70
     6
  9
$SPLINESEGS
 70
     8
  9
$HANDSEED
  5
316
  9
$SURFTAB1
 70
     6
  9
$SURFTAB2
 70
     6
  9
$SURFTYPE
 70
     6
  9
$SURFU
 70
     6
  9
$SURFV
 70
     6
  9
$UCSBASE
  2

  9
$UCSNAME
  2

  9
$UCSORG
 10
0.0
 20
0.0
 30
0.0
  9
$UCSXDIR
 10
1.0
 20
0.0
 30
0.0
  9
$UCSYDIR
 10
0.0
 20
1.0
 30
0.0
  9
$UCSORTHOREF
  2

  9
$UCSORTHOVIEW
 70
     0
  9
$UCSORGTOP
 10
0.0
 20
0.0
 30
0.0
  9
$UCSORGBOTTOM
 10
0.0
 20
0.0
 30
0.0
  9
$UCSORGLEFT
 10
0.0
 20
0.0
 30
0.0
  9
$UCSORGRIGHT
 10
0.0
 20
0.0
 30
0.0
  9
$UCSORGFRONT
 10
0.0
 20
0.0
 30
0.0
  9
$UCSORGBACK
 10
0.0
 20
0.0
 30
0.0
  9
$PUCSBASE
  2

  9
$PUCSNAME
  2

  9
$PUCSORG
 10
0.0
 20
0.0
 30
0.0
  9
$PUCSXDIR
 10
1.0
 20
0.0
 30
0.0
  9
$PUCSYDIR
 10
0.0
 20
1.0
 30
0.0
  9
$PUCSORTHOREF
  2

  9
$PUCSORTHOVIEW
 70
     0
  9
$PUCSORGTOP
 10
0.0
 20
0.0
 30
0.0
  9
$PUCSORGBOTTOM
 10
0.0
 20
0.0
 30
0.0
  9
$PUCSORGLEFT
 10
0.0
 20
0.0
 30
0.0
  9
$PUCSORGRIGHT
 10
0.0
 20
0.0
 30
0.0
  9
$PUCSORGFRONT
 10
0.0
 20
0.0
 30
0.0
  9
$PUCSORGBACK
 10
0.0
 20
0.0
 30
0.0
  9
$USERI1
 70
     0
  9
$USERI2
 70
     0
  9
$USERI3
 70
     0
  9
$USERI4
 70
     0
  9
$USERI5
 70
     0
  9
$USERR1
 40
0.0
  9
$USERR2
 40
0.0
  9
$USERR3
 40
0.0
  9
$USERR4
 40
0.0
  9
$USERR5
 40
0.0
  9
$WORLDVIEW
 70
     1
  9
$SHADEDGE
 70
     3
  9
$SHADEDIF
 70
    70
  9
$TILEMODE
 70
     1
  9
$MAXACTVP
 70
    64
  9
$PINSBASE
 10
0.0
 20
0.0
 30
0.0
  9
$PLIMCHECK
 70
     0
  9
$PEXTMIN
 10
1.0000000000E+20
 20
1.0000000000E+20
 30
1.0000000000E+20
  9
$PEXTMAX
 10
-1.0000000000E+20
 20
-1.0000000000E+20
 30
-1.0000000000E+20
  9
$PLIMMIN
 10
0.0
 20
0.0
  9
$PLIMMAX
 10
420.0
 20
297.0
  9
$UNITMODE
 70
     0
  9
$VISRETAIN
 70
     1
  9
$PLINEGEN
 70
     0
  9
$PSLTSCALE
 70
     1
  9
$TREEDEPTH
 70
  3020
  9
$CMLSTYLE
  2
Standard
  9
$CMLJUST
 70
     0
  9
$CMLSCALE
 40
20.0
  9
$PROXYGRAPHICS
 70
     1
  9
$MEASUREMENT
 70
     1
  9
$CELWEIGHT
370
    -1
  9
$ENDCAPS
280
     0
  9
$JOINSTYLE
280
     0
  9
$LWDISPLAY
290
     1
  9
$INSUNITS
 70
     4
  9
$HYPERLINKBASE
  1

  9
$STYLESHEET
  1

  9
$XEDIT
290
     1
  9
$CEPSNTYPE
380
     0
  9
$PSTYLEMODE
290
     1
  9
$FINGERPRINTGUID
  2
{050C55F2-AC89-4A6F-B6FE-F46A188698D3}
  9
$VERSIONGUID
  2
{FAEB1C32-E019-11D5-929B-00C0DF256EC4}
  9
$EXTNAMES
290
     1
  9
$PSVPSCALE
 40
0.0
  9
$OLESTARTUP
290
     0
  0
ENDSEC
  0
SECTION
  2
CLASSES
  0
CLASS
  1
ACDBDICTIONARYWDFLT
  2
AcDbDictionaryWithDefault
  3
ObjectDBX Classes
 90
        0
280
     0
281
     0
  0
CLASS
  1
VISUALSTYLE
  2
AcDbVisualStyle
  3
ObjectDBX Classes
 90
     4095
280
     0
281
     0
  0
CLASS
  1
DICTIONARYVAR
  2
AcDbDictionaryVar
  3
ObjectDBX Classes
 90
        0
280
     0
281
     0
  0
CLASS
  1
ACDBPLACEHOLDER
  2
AcDbPlaceHolder
  3
ObjectDBX Classes
 90
        0
280
     0
281
     0
  0
CLASS
  1
LAYOUT
  2
AcDbLayout
  3
ObjectDBX Classes
 90
        0
280
     0
281
     0
  0
ENDSEC
  0
SECTION
  2
TABLES
  0
TABLE
  2
VPORT
  5
8
330
0
100
AcDbSymbolTable
 70
     1
  0
VPORT
  5
29
330
8
100
AcDbSymbolTableRecord
100
AcDbViewportTableRecord
  2
*Active
 70
     0
 10
0.0
 20
0.0
 11
1.0
 21
1.0
 12
148.5
 22
105.0
 13
0.0
 23
0.0
 14
10.0
 24
10.0
 15
10.0
 25
10.0
 16
0.0
 26
0.0
 36
1.0
 17
0.0
 27
0.0
 37
0.0
 40
210.0
 41
1.4142857143
 42
50.0
 43
0.0
 44
0.0
 50
0.0
 51
0.0
 71
     0
 72
  2000
 73
     1
 74
     3
 75
     0
 76
     0
 77
     0
 78
     0
281
     0
 65
     1
110
0.0
120
0.0
130
0.0
111
1.0
121
0.0
131
0.0
112
0.0
122
1.0
132
0.0
 79
     0
146
0.0
  0
ENDTAB
  0
TABLE
  2
LTYPE
  5
5
330
0
100
AcDbSymbolTable
 70
     6
  0
LTYPE
  5
14
330
5
100
AcDbSymbolTableRecord
100
AcDbLinetypeTableRecord
  2
ByBlock
 70
     0
  3

 72
    65
 73
     0
 40
0.0
  0
LTYPE
  5
15
330
5
100
AcDbSymbolTableRecord
100
AcDbLinetypeTableRecord
  2
ByLayer
 70
     0
  3

 72
    65
 73
     0
 40
0.0
  0
LTYPE
  5
16
330
5
100
AcDbSymbolTableRecord
100
AcDbLinetypeTableRecord
  2
Continuous
 70
     0
  3
Solid line
 72
    65
 73
     0
 40
0.0
  0
LTYPE
  5
3B
330
5
100
AcDbSymbolTableRecord
100
AcDbLinetypeTableRecord
  2
HIDDEN
 70
     0
  3
Hidden __ __ __ __ __ __ __ __ __ __ __ __ __ __
 72
    65
 73
     2
 40
1.905
 49
1.27
 74
     0
 49
-0.635
 74
     0
  0
LTYPE
  5
3C
330
5
100
AcDbSymbolTableRecord
100
AcDbLinetypeTableRecord
  2
PHANTOM
 70
     0
  3
Phantom ______  __  __  ______  __  __  ______
 72
    65
 73
     6
 40
12.7
 49
6.35
 74
     0
 49
-1.27
 74
     0
 49
1.27
 74
     0
 49
-1.27
 74
     0
 49
1.27
 74
     0
 49
-1.27
 74
     0
  0
LTYPE
  5
3D
330
5
100
AcDbSymbolTableRecord
100
AcDbLinetypeTableRecord
  2
CENTER
 70
     0
  3
Center ____ _ ____ _ ____ _ ____ _ ____ _ ____
 72
    65
 73
     4
 40
10.16
 49
6.35
 74
     0
 49
-1.27
 74
     0
 49
1.27
 74
     0
 49
-1.27
 74
     0
  0
LTYPE
  5
3E
330
5
100
AcDbSymbolTableRecord
100
AcDbLinetypeTableRecord
  2
CENTERX2
 70
     0
  3
Center (2x) ________  __  ________  __  _____
 72
    65
 73
     4
 40
20.32
 49
12.7
 74
     0
 49
-2.54
 74
     0
 49
2.54
 74
     0
 49
-2.54
 74
     0
  0
LTYPE
  5
3F
330
5
100
AcDbSymbolTableRecord
100
AcDbLinetypeTableRecord
  2
DOT2
 70
     0
  3
Dot (.5x) ........................................
 72
    65
 73
     2
 40
0.635
 49
0.0
 74
     0
 49
-0.635
 74
     0
  0
ENDTAB
  0
TABLE
  2
LAYER
  5
2
330
0
100
AcDbSymbolTable
 70
     5
  0
LAYER
  5
10
330
2
100
AcDbSymbolTableRecord
100
AcDbLayerTableRecord
  2
0
 70
     0
 62
     7
  6
Continuous
370
    -3
390
F
  0
LAYER
  5
40
330
2
100
AcDbSymbolTableRecord
100
AcDbLayerTableRecord
  2
FORMAT
 70
     0
 62
     7
  6
Continuous
370
    -3
390
F
  0
LAYER
  5
41
330
2
100
AcDbSymbolTableRecord
100
AcDbLayerTableRecord
  2
VERMASSUNG
 70
     0
 62
     7
  6
Continuous
370
    -3
390
F
  0
LAYER
  5
42
330
2
100
AcDbSymbolTableRecord
100
AcDbLayerTableRecord
  2
KOPF_DÜNN
 70
     0
 62
     7
  6
Continuous
370
    -3
390
F
  0
LAYER
  5
43
330
2
100
AcDbSymbolTableRecord
100
AcDbLayerTableRecord
  2
KOPF_DICK
 70
     0
 62
     7
  6
Continuous
370
    15
390
F
  0
ENDTAB
  0
TABLE
  2
STYLE
  5
3
330
0
100
AcDbSymbolTable
 70
     3
  0
STYLE
  5
11
330
3
100
AcDbSymbolTableRecord
100
AcDbTextStyleTableRecord
  2
Standard
 70
     0
 40
0.0
 41
1.0
 50
0.0
 71
     0
 42
2.5
  3
txt
  4

  0
STYLE
  5
44
330
3
100
AcDbSymbolTableRecord
100
AcDbTextStyleTableRecord
  2
SLDTEXTSTYLE0
 70
     0
 40
0.0
 41
0.7
 50
0.0
 71
     0
 42
0.2
  3
TXT
  4

  0
STYLE
  5
48
330
3
100
AcDbSymbolTableRecord
100
AcDbTextStyleTableRecord
  2
SLDTEXTSTYLE1
 70
     0
 40
0.0
 41
0.6526315789
 50
0.0
 71
     0
 42
0.2
  3
TXT
  4

  0
ENDTAB
  0
TABLE
  2
VIEW
  5
6
330
0
100
AcDbSymbolTable
 70
     0
  0
ENDTAB
  0
TABLE
  2
UCS
  5
7
330
0
100
AcDbSymbolTable
 70
     0
  0
ENDTAB
  0
TABLE
  2
APPID
  5
9
330
0
100
AcDbSymbolTable
 70
     1
  0
APPID
  5
12
330
9
100
AcDbSymbolTableRecord
100
AcDbRegAppTableRecord
  2
ACAD
 70
     0
  0
ENDTAB
  0
TABLE
  2
DIMSTYLE
  5
A
330
0
100
AcDbSymbolTable
 70
     3
100
AcDbDimStyleTable
  0
DIMSTYLE
105
27
330
A
100
AcDbSymbolTableRecord
100
AcDbDimStyleTableRecord
  2
ISO-25
 70
     0
 41
2.5
 42
0.625
 43
3.75
 44
1.25
 73
     0
 74
     0
 77
     1
 78
     8
140
2.5
141
2.5
143
0.0393700787
147
0.625
171
     3
172
     1
271
     2
272
     2
274
     3
278
    44
283
     0
284
     8
340
11
  0
DIMSTYLE
105
253
102
{ACAD_REACTORS
330
252
330
25D
330
267
330
27E
102
}
330
A
100
AcDbSymbolTableRecord
100
AcDbDimStyleTableRecord
  2
SLDDIMSTYLE0
 70
     0
 41
3.0
 44
0.0
 45
0.000000001
 73
     0
 74
     0
 77
     1
 78
    12
140
2.0
147
0.5
173
     1
271
     2
272
     3
284
    12
340
44
  0
DIMSTYLE
105
272
102
{ACAD_REACTORS
330
271
102
}
330
A
100
AcDbSymbolTableRecord
100
AcDbDimStyleTableRecord
  2
SLDDIMSTYLE1
 70
     0
 41
3.0
 44
0.0
 73
     0
 74
     0
 77
     1
 78
    12
140
2.0
147
0.5
173
     1
179
     2
272
     3
284
    12
340
44
  0
ENDTAB
  0
TABLE
  2
BLOCK_RECORD
  5
1
330
0
100
AcDbSymbolTable
 70
     7
  0
BLOCK_RECORD
  5
1F
330
1
100
AcDbSymbolTableRecord
100
AcDbBlockTableRecord
  2
*Model_Space
340
22
  0
BLOCK_RECORD
  5
1B
330
1
100
AcDbSymbolTableRecord
100
AcDbBlockTableRecord
  2
*Paper_Space
340
1E
  0
BLOCK_RECORD
  5
23
330
1
100
AcDbSymbolTableRecord
100
AcDbBlockTableRecord
  2
*Paper_Space0
340
26
  0
BLOCK_RECORD
  5
254
330
1
100
AcDbSymbolTableRecord
100
AcDbBlockTableRecord
  2
*D1
340
0
  0
BLOCK_RECORD
  5
25E
330
1
100
AcDbSymbolTableRecord
100
AcDbBlockTableRecord
  2
*D2
340
0
  0
BLOCK_RECORD
  5
268
330
1
100
AcDbSymbolTableRecord
100
AcDbBlockTableRecord
  2
*D3
340
0
  0
BLOCK_RECORD
  5
273
330
1
100
AcDbSymbolTableRecord
100
AcDbBlockTableRecord
  2
*D4
340
0
  0
BLOCK_RECORD
  5
27F
330
1
100
AcDbSymbolTableRecord
100
AcDbBlockTableRecord
  2
*D5
340
0
  0
BLOCK_RECORD
  5
304
330
1
100
AcDbSymbolTableRecord
100
AcDbBlockTableRecord
  2
SW_CENTERMARKSYMBOL_0
340
0
102
{BLKREFS
331
30F
102
}
  0
ENDTAB
  0
ENDSEC
  0
SECTION
  2
BLOCKS
  0
BLOCK
  5
20
330
1F
100
AcDbEntity
  8
0
100
AcDbBlockBegin
  2
*Model_Space
 70
     0
 10
0.0
 20
0.0
 30
0.0
  3
*Model_Space
  1

  0
ENDBLK
  5
21
330
1F
100
AcDbEntity
  8
0
100
AcDbBlockEnd
  0
BLOCK
  5
1C
330
1B
100
AcDbEntity
 67
     1
  8
0
100
AcDbBlockBegin
  2
*Paper_Space
 70
     0
 10
0.0
 20
0.0
 30
0.0
  3
*Paper_Space
  1

  0
ENDBLK
  5
1D
330
1B
100
AcDbEntity
 67
     1
  8
0
100
AcDbBlockEnd
  0
BLOCK
  5
24
330
23
100
AcDbEntity
  8
0
100
AcDbBlockBegin
  2
*Paper_Space0
 70
     0
 10
0.0
 20
0.0
 30
0.0
  3
*Paper_Space0
  1

  0
ENDBLK
  5
25
330
23
100
AcDbEntity
  8
0
100
AcDbBlockEnd
  0
BLOCK
  5
255
330
254
100
AcDbEntity
  8
0
100
AcDbBlockBegin
  2
*D1
 70
     1
 10
0.0
 20
0.0
 30
0.0
  3
*D1
  1

  0
SOLID
  5
257
330
254
100
AcDbEntity
  8
VERMASSUNG
100
AcDbTrace
 10
264.3543317392
 20
158.0760731707
 30
0.0
 11
261.3543317392
 21
158.5260731707
 31
0.0
 12
261.3543317392
 22
157.6260731707
 32
0.0
 13
261.3543317392
 23
157.6260731707
 33
0.0
  0
SOLID
  5
258
330
254
100
AcDbEntity
  8
VERMASSUNG
100
AcDbTrace
 10
194.3543317392
 20
158.0760731707
 30
0.0
 11
197.3543317392
 21
157.6260731707
 31
0.0
 12
197.3543317392
 22
158.5260731707
 32
0.0
 13
197.3543317392
 23
158.5260731707
 33
0.0
  0
LINE
  5
259
330
254
100
AcDbEntity
  8
VERMASSUNG
100
AcDbLine
 10
264.3543317392
 20
150.876482852
 30
0.0
 11
264.3543317392
 21
159.0760731707
 31
0.0
  0
LINE
  5
25A
330
254
100
AcDbEntity
  8
VERMASSUNG
100
AcDbLine
 10
194.3543317392
 20
137.076482852
 30
0.0
 11
194.3543317392
 21
159.0760731707
 31
0.0
  0
LINE
  5
25B
330
254
100
AcDbEntity
  8
VERMASSUNG
100
AcDbLine
 10
264.3543317392
 20
158.0760731707
 30
0.0
 11
194.3543317392
 21
158.0760731707
 31
0.0
  0
MTEXT
  5
25C
330
254
100
AcDbEntity
  8
VERMASSUNG
100
AcDbMText
 10
227.9553893002
 20
160.6542085339
 30
0.0
 40
2.0
 41
0.0
 71
     1
 72
     1
  1
70
  7
SLDTEXTSTYLE0
 73
     1
 44
1.0
  0
ENDBLK
  5
256
330
254
100
AcDbEntity
  8
0
100
AcDbBlockEnd
  0
BLOCK
  5
25F
330
25E
100
AcDbEntity
  8
0
100
AcDbBlockBegin
  2
*D2
 70
     1
 10
0.0
 20
0.0
 30
0.0
  3
*D2
  1

  0
SOLID
  5
261
330
25E
100
AcDbEntity
  8
VERMASSUNG
100
AcDbTrace
 10
264.3543317392
 20
164.0760731707
 30
0.0
 11
261.3543317392
 21
164.5260731707
 31
0.0
 12
261.3543317392
 22
163.6260731707
 32
0.0
 13
261.3543317392
 23
163.6260731707
 33
0.0
  0
SOLID
  5
262
330
25E
100
AcDbEntity
  8
VERMASSUNG
100
AcDbTrace
 10
162.4543317392
 20
164.0760731707
 30
0.0
 11
165.4543317392
 21
163.6260731707
 31
0.0
 12
165.4543317392
 22
164.5260731707
 32
0.0
 13
165.4543317392
 23
164.5260731707
 33
0.0
  0
LINE
  5
263
330
25E
100
AcDbEntity
  8
VERMASSUNG
100
AcDbLine
 10
264.3543317392
 20
150.876482852
 30
0.0
 11
264.3543317392
 21
165.0760731707
 31
0.0
  0
LINE
  5
264
330
25E
100
AcDbEntity
  8
VERMASSUNG
100
AcDbLine
 10
162.4543317392
 20
125.5671605985
 30
0.0
 11
162.4543317392
 21
165.0760731707
 31
0.0
  0
LINE
  5
265
330
25E
100
AcDbEntity
  8
VERMASSUNG
100
AcDbLine
 10
264.3543317392
 20
164.0760731707
 30
0.0
 11
162.4543317392
 21
164.0760731707
 31
0.0
  0
MTEXT
  5
266
330
25E
100
AcDbEntity
  8
VERMASSUNG
100
AcDbMText
 10
210.7049639343
 20
166.6542085339
 30
0.0
 40
2.0
 41
0.0
 71
     1
 72
     1
  1
101.9
  7
SLDTEXTSTYLE0
 73
     1
 44
1.0
  0
ENDBLK
  5
260
330
25E
100
AcDbEntity
  8
0
100
AcDbBlockEnd
  0
BLOCK
  5
269
330
268
100
AcDbEntity
  8
0
100
AcDbBlockBegin
  2
*D3
 70
     1
 10
0.0
 20
0.0
 30
0.0
  3
*D3
  1

  0
SOLID
  5
26B
330
268
100
AcDbEntity
  8
VERMASSUNG
100
AcDbTrace
 10
268.075097561
 20
150.876482852
 30
0.0
 11
267.625097561
 21
147.876482852
 31
0.0
 12
268.525097561
 22
147.876482852
 32
0.0
 13
268.525097561
 23
147.876482852
 33
0.0
  0
SOLID
  5
26C
330
268
100
AcDbEntity
  8
VERMASSUNG
100
AcDbTrace
 10
268.075097561
 20
105.876482852
 30
0.0
 11
268.525097561
 21
108.876482852
 31
0.0
 12
267.625097561
 22
108.876482852
 32
0.0
 13
267.625097561
 23
108.876482852
 33
0.0
  0
LINE
  5
26D
330
268
100
AcDbEntity
  8
VERMASSUNG
100
AcDbLine
 10
264.3543317392
 20
150.876482852
 30
0.0
 11
269.075097561
 21
150.876482852
 31
0.0
  0
LINE
  5
26E
330
268
100
AcDbEntity
  8
VERMASSUNG
100
AcDbLine
 10
259.2085609756
 20
105.876482852
 30
0.0
 11
269.075097561
 21
105.876482852
 31
0.0
  0
LINE
  5
26F
330
268
100
AcDbEntity
  8
VERMASSUNG
100
AcDbLine
 10
268.075097561
 20
150.876482852
 30
0.0
 11
268.075097561
 21
105.876482852
 31
0.0
  0
MTEXT
  5
270
330
268
100
AcDbEntity
  8
VERMASSUNG
100
AcDbMText
 10
265.4969621978
 20
126.876560413
 30
0.0
 40
2.0
 41
0.0
 71
     1
 72
     1
  1
45
  7
SLDTEXTSTYLE0
 11
-7.044195017643634E-15
 21
1.0
 31
0.0
 73
     1
 44
1.0
  0
ENDBLK
  5
26A
330
268
100
AcDbEntity
  8
0
100
AcDbBlockEnd
  0
BLOCK
  5
274
330
273
100
AcDbEntity
  8
0
100
AcDbBlockBegin
  2
*D4
 70
     1
 10
0.0
 20
0.0
 30
0.0
  3
*D4
  1

  0
ARC
  5
276
330
273
100
AcDbEntity
  8
VERMASSUNG
100
AcDbCircle
 10
287.2516957645
 20
150.876482852
 30
0.0
 40
51.39881522165471
100
AcDbArc
 50
180.0
 51
183.0
  0
ARC
  5
277
330
273
100
AcDbEntity
  8
VERMASSUNG
100
AcDbCircle
 10
287.2516957645
 20
150.876482852
 30
0.0
 40
51.3988152216547
100
AcDbArc
 50
173.322043696
 51
180.0
  0
ARC
  5
278
330
273
100
AcDbEntity
  8
VERMASSUNG
100
AcDbCircle
 10
287.2516957645
 20
150.876482852
 30
0.0
 40
51.39881522165471
100
AcDbArc
 50
183.0
 51
189.677956304
  0
SOLID
  5
279
330
273
100
AcDbEntity
  8
VERMASSUNG
100
AcDbTrace
 10
235.8528805428
 20
150.876482852
 30
0.0
 11
236.3901284165
 21
153.8620924585
 31
0.0
 12
235.4905107771
 22
153.8883241747
 32
0.0
 13
235.4905107771
 23
153.8883241747
 33
0.0
  0
SOLID
  5
27A
330
273
100
AcDbEntity
  8
VERMASSUNG
100
AcDbTrace
 10
235.9233208328
 20
148.1864767076
 30
0.0
 11
235.7190752779
 21
145.1597980406
 31
0.0
 12
236.6160871606
 22
145.2330761566
 32
0.0
 13
236.6160871606
 23
145.2330761566
 33
0.0
  0
LINE
  5
27B
330
273
100
AcDbEntity
  8
VERMASSUNG
100
AcDbLine
 10
243.0997377565
 20
150.876482852
 30
0.0
 11
234.8528805428
 21
150.876482852
 31
0.0
  0
LINE
  5
27C
330
273
100
AcDbEntity
  8
VERMASSUNG
100
AcDbLine
 10
240.79296398
 20
148.4416838909
 30
0.0
 11
234.924691298
 21
148.1341407514
 31
0.0
  0
MTEXT
  5
27D
330
273
100
AcDbEntity
  8
VERMASSUNG
100
AcDbMText
 10
233.3272506642
 20
148.1647823056
 30
0.0
 40
2.0
 41
0.0
 71
     1
 72
     1
  1
3°
  7
SLDTEXTSTYLE0
 11
-0.02617694830788034
 21
0.999657324975557
 31
0.0
 73
     1
 44
1.0
  0
ENDBLK
  5
275
330
273
100
AcDbEntity
  8
0
100
AcDbBlockEnd
  0
BLOCK
  5
280
330
27F
100
AcDbEntity
  8
0
100
AcDbBlockBegin
  2
*D5
 70
     1
 10
0.0
 20
0.0
 30
0.0
  3
*D5
  1

  0
SOLID
  5
282
330
27F
100
AcDbEntity
  8
VERMASSUNG
100
AcDbTrace
 10
156.750804878
 20
137.376482852
 30
0.0
 11
156.300804878
 21
134.376482852
 31
0.0
 12
157.200804878
 22
134.376482852
 32
0.0
 13
157.200804878
 23
134.376482852
 33
0.0
  0
SOLID
  5
283
330
27F
100
AcDbEntity
  8
VERMASSUNG
100
AcDbTrace
 10
156.750804878
 20
74.376482852
 30
0.0
 11
157.200804878
 21
77.376482852
 31
0.0
 12
156.300804878
 22
77.376482852
 32
0.0
 13
156.300804878
 23
77.376482852
 33
0.0
  0
LINE
  5
284
330
27F
100
AcDbEntity
  8
VERMASSUNG
100
AcDbLine
 10
194.6543317392
 20
137.376482852
 30
0.0
 11
155.750804878
 21
137.376482852
 31
0.0
  0
LINE
  5
285
330
27F
100
AcDbEntity
  8
VERMASSUNG
100
AcDbLine
 10
194.6543317392
 20
74.376482852
 30
0.0
 11
155.750804878
 21
74.376482852
 31
0.0
  0
LINE
  5
286
330
27F
100
AcDbEntity
  8
VERMASSUNG
100
AcDbLine
 10
156.750804878
 20
137.376482852
 30
0.0
 11
156.750804878
 21
74.376482852
 31
0.0
  0
MTEXT
  5
287
330
27F
100
AcDbEntity
  8
VERMASSUNG
100
AcDbMText
 10
153.972669389
 20
99.6736016325
 30
0.0
 40
2.0
 41
0.0
 71
     1
 72
     1
  1
HSK 
  7
SLDTEXTSTYLE0
 11
-7.044195017643634E-15
 21
1.0
 31
0.0
 73
     1
 44
1.0
  0
MTEXT
  5
288
330
27F
100
AcDbEntity
  8
VERMASSUNG
100
AcDbMText
 10
154.1726693985
 20
105.6736016847
 30
0.0
 40
2.0
 41
0.0
 71
     1
 72
     1
  1
%%c
  7
SLDTEXTSTYLE0
 11
-7.044195017643634E-15
 21
1.0
 31
0.0
 73
     1
 44
1.0
  0
MTEXT
  5
289
330
27F
100
AcDbEntity
  8
VERMASSUNG
100
AcDbMText
 10
154.1726695149
 20
109.2814791935
 30
0.0
 40
2.0
 41
0.0
 71
     1
 72
     1
  1
63
  7
SLDTEXTSTYLE0
 11
-7.044195017643634E-15
 21
1.0
 31
0.0
 73
     1
 44
1.0
  0
ENDBLK
  5
281
330
27F
100
AcDbEntity
  8
0
100
AcDbBlockEnd
  0
BLOCK
  5
305
330
304
100
AcDbEntity
  8
0
100
AcDbBlockBegin
  2
SW_CENTERMARKSYMBOL_0
 70
     0
 10
0.0
 20
0.0
 30
0.0
  3
SW_CENTERMARKSYMBOL_0
  1

  0
LINE
  5
307
330
304
100
AcDbEntity
  8
VERMASSUNG
 62
     0
100
AcDbLine
 10
0.0
 20
0.0
 30
0.0
 11
0.0
 21
2.5
 31
0.0
  0
LINE
  5
308
330
304
100
AcDbEntity
  8
VERMASSUNG
 62
     0
100
AcDbLine
 10
0.0
 20
0.0
 30
0.0
 11
-2.5
 21
0.0
 31
0.0
  0
LINE
  5
309
330
304
100
AcDbEntity
  8
VERMASSUNG
 62
     0
100
AcDbLine
 10
0.0
 20
0.0
 30
0.0
 11
0.0
 21
-2.5
 31
0.0
  0
LINE
  5
30A
330
304
100
AcDbEntity
  8
VERMASSUNG
 62
     0
100
AcDbLine
 10
0.0
 20
0.0
 30
0.0
 11
2.5
 21
0.0
 31
0.0
  0
LINE
  5
30B
330
304
100
AcDbEntity
  8
VERMASSUNG
 62
     0
100
AcDbLine
 10
0.0
 20
5.0
 30
0.0
 11
0.0
 21
48.9977854407
 31
0.0
  0
LINE
  5
30C
330
304
100
AcDbEntity
  8
VERMASSUNG
 62
     0
100
AcDbLine
 10
-5.0
 20
0.0
 30
0.0
 11
-34.0
 21
0.0
 31
0.0
  0
LINE
  5
30D
330
304
100
AcDbEntity
  8
VERMASSUNG
 62
     0
100
AcDbLine
 10
0.0
 20
-5.0
 30
0.0
 11
0.0
 21
-34.0
 31
0.0
  0
LINE
  5
30E
330
304
100
AcDbEntity
  8
VERMASSUNG
 62
     0
100
AcDbLine
 10
5.0
 20
0.0
 30
0.0
 11
34.0
 21
0.0
 31
0.0
  0
ENDBLK
  5
306
330
304
100
AcDbEntity
  8
0
100
AcDbBlockEnd
  0
ENDSEC
  0
SECTION
  2
ENTITIES
  0
MTEXT
  5
45
330
1F
100
AcDbEntity
  8
KOPF_DÜNN
100
AcDbMText
 10
13.8892156294
 20
23.8442973028
 30
0.0
 40
3.0
 41
0.0
 71
     1
 72
     1
  1
HA6.PDF.RJA.070
  7
SLDTEXTSTYLE0
 73
     1
 44
1.0
  0
MTEXT
  5
46
330
1F
100
AcDbEntity
  8
VERMASSUNG
100
AcDbMText
 10
13.9329988022
 20
28.8834360957
 30
0.0
 40
3.0
 41
0.0
 71
     1
 72
     1
  1
Klemmhalter rechts_Turning tool right 55° /93°
  7
SLDTEXTSTYLE0
 73
     1
 44
1.0
  0
MTEXT
  5
47
330
1F
100
AcDbEntity
  8
VERMASSUNG
100
AcDbMText
 10
98.8601118557
 20
13.8365368179
 30
0.0
 40
2.0
 41
0.0
 71
     1
 72
     1
  1
Datum: 15.02.2011
  7
SLDTEXTSTYLE0
 73
     1
 44
1.0
  0
MTEXT
  5
49
330
1F
100
AcDbEntity
  8
VERMASSUNG
100
AcDbMText
 10
13.933048693
 20
18.0482802738
 30
0.0
 40
2.0
 41
0.0
 71
     1
 72
     1
  1
DIN 69893 HSK 63 A ICTM / DN.. 15 04..
  7
SLDTEXTSTYLE1
 73
     1
 44
1.0
  0
MTEXT
  5
4A
330
1F
100
AcDbEntity
  8
VERMASSUNG
100
AcDbMText
 10
13.9808475933
 20
13.9090973692
 30
0.0
 40
2.0
 41
0.0
 71
     1
 72
     1
  1
Gewicht: 1132g
  7
SLDTEXTSTYLE0
 73
     1
 44
1.0
  0
LINE
  5
4B
330
1F
100
AcDbEntity
  8
0
  6
Continuous
 62
     7
370
    15
100
AcDbLine
 10
254.1511378861
 20
142.0637916634
 30
0.0
 11
254.1614151887
 21
142.073215192
 31
0.0
  0
LINE
  5
4C
330
1F
100
AcDbEntity
  8
0
  6
Continuous
 62
     7
370
    15
100
AcDbLine
 10
250.9791984089
 20
145.5320529691
 30
0.0
 11
250.5912067155
 21
145.1762932017
 31
0.0
  0
LINE
  5
4D
330
1F
100
AcDbEntity
  8
0
  6
Continuous
 62
     7
370
    15
100
AcDbLine
 10
194.6543317392
 20
74.376482852
 30
0.0
 11
199.3043317392
 21
74.376482852
 31
0.0
  0
LINE
  5
4E
330
1F
100
AcDbEntity
  8
0
  6
Continuous
 62
     7
370
    15
100
AcDbLine
 10
199.3085359366
 20
137.376482852
 30
0.0
 11
194.6543317392
 21
137.376482852
 31
0.0
  0
ARC
  5
4F
330
1F
100
AcDbEntity
  8
0
  6
Continuous
 62
     7
370
    15
100
AcDbCircle
 10
194.6543317392
 20
74.676482852
 30
0.0
 40
0.3000000000000114
100
AcDbArc
 50
180.0
 51
270.0
  0
ARC
  5
50
330
1F
100
AcDbEntity
  8
0
  6
Continuous
 62
     7
370
    15
100
AcDbCircle
 10
194.6543317392
 20
137.076482852
 30
0.0
 40
0.3000000000000114
100
AcDbArc
 50
90.0
 51
180.0
  0
ARC
  5
51
330
1F
100
AcDbEntity
  8
0
  6
Continuous
 62
     7
370
    15
100
AcDbCircle
 10
221.3043317392
 20
78.876482852
 30
0.0
 40
1.000000000000017
100
AcDbArc
 50
90.0
 51
143.1139143113
  0
ARC
  5
52
330
1F
100
AcDbEntity
  8
0
  6
Continuous
 62
     7
370
    15
100
AcDbCircle
 10
221.3043317392
 20
132.876482852
 30
0.0
 40
0.999999999999992
100
AcDbArc
 50
216.8996843908
 51
270.0
  0
LINE
  5
53
330
1F
100
AcDbEntity
  8
0
  6
Continuous
 62
     7
370
    15
100
AcDbLine
 10
221.3043317392
 20
79.876482852
 30
0.0
 11
235.5870047512
 21
79.876482852
 31
0.0
  0
LINE
  5
54
330
1F
100
AcDbEntity
  8
0
  6
Continuous
 62
     7
370
    15
100
AcDbLine
 10
235.5870047512
 20
131.876482852
 30
0.0
 11
221.3043317392
 21
131.876482852
 31
0.0
  0
ARC
  5
55
330
1F
100
AcDbEntity
  8
0
  6
Continuous
 62
     7
370
    15
100
AcDbCircle
 10
193.8543317392
 20
81.3060519903
 30
0.0
 40
0.6000000000000019
100
AcDbArc
 50
33.5573097619
 51
90.0
  0
ARC
  5
56
330
1F
100
AcDbEntity
  8
0
  6
Continuous
 62
     7
370
    15
100
AcDbCircle
 10
193.8543317392
 20
130.4469137137
 30
0.0
 40
0.5999999999999943
100
AcDbArc
 50
270.0
 51
326.4426902381
  0
LINE
  5
57
330
1F
100
AcDbEntity
  8
0
  6
Continuous
 62
     7
370
    15
100
AcDbLine
 10
192.3543317392
 20
81.6560519903
 30
0.0
 11
193.2110445126
 21
81.8856074861
 31
0.0
  0
LINE
  5
58
330
1F
100
AcDbEntity
  8
0
  6
Continuous
 62
     7
370
    15
100
AcDbLine
 10
193.2110445126
 20
129.867358218
 30
0.0
 11
192.3543317392
 21
130.0969137137
 31
0.0
  0
LINE
  5
59
330
1F
100
AcDbEntity
  8
0
  6
Continuous
 62
     7
370
    15
100
AcDbLine
 10
181.1228229404
 20
129.5342128721
 30
0.0
 11
168.5543317392
 21
128.9045289442
 31
0.0
  0
LINE
  5
5A
330
1F
100
AcDbEntity
  8
0
  6
Continuous
 62
     7
370
    15
100
AcDbLine
 10
192.3543317392
 20
130.0969137137
 30
0.0
 11
189.5373300819
 21
129.9557813662
 31
0.0
  0
LINE
  5
5B
330
1F
100
AcDbEntity
  8
0
  6
Continuous
 62
     7
370
    15
100
AcDbLine
 10
189.5373861719
 20
81.7971815277
 30
0.0
 11
192.3543317392
 21
81.6560519903
 31
0.0
  0
LINE
  5
5C
330
1F
100
AcDbEntity
  8
0
  6
Continuous
 62
     7
370
    15
100
AcDbLine
 10
172.5543317392
 20
82.6480359582
 30
0.0
 11
181.1232254591
 21
82.2187326657
 31
0.0
  0
ARC
  5
5D
330
1F
100
AcDbEntity
  8
0
  6
Continuous
 62
     7
370
    15
100
AcDbCircle
 10
193.3663359397
 20
81.3060519903
 30
0.0
 40
0.5999999999999943
100
AcDbArc
 50
90.0
 51
105.0
  0
ARC
  5
5E
330
1F
100
AcDbEntity
  8
0
  6
Continuous
 62
     7
370
    15
100
AcDbCircle
 10
193.3663359397
 20
130.4469137137
 30
0.0
 40
0.5999999999999943
100
AcDbArc
 50
255.0
 51
270.0
  0
LINE
  5
5F
330
1F
100
AcDbEntity
  8
0
  6
Continuous
 62
     7
370
    15
100
AcDbLine
 10
193.3663359397
 20
81.9060519903
 30
0.0
 11
193.8543317392
 21
81.9060519903
 31
0.0
  0
LINE
  5
60
330
1F
100
AcDbEntity
  8
0
  6
Continuous
 62
     7
370
    15
100
AcDbLine
 10
193.8543317392
 20
129.8469137137
 30
0.0
 11
193.3663359397
 21
129.8469137137
 31
0.0
  0
ARC
  5
61
330
1F
100
AcDbEntity
  8
0
  6
Continuous
 62
     7
370
    15
100
AcDbCircle
 10
235.5870047512
 20
132.876482852
 30
0.0
 40
0.9999999999999883
100
AcDbArc
 50
270.0
 51
345.0
  0
ARC
  5
62
330
1F
100
AcDbEntity
  8
0
  6
Continuous
 62
     7
370
    15
100
AcDbCircle
 10
235.5870047512
 20
78.876482852
 30
0.0
 40
1.0
100
AcDbArc
 50
15.0
 51
90.0
  0
LINE
  5
63
330
1F
100
AcDbEntity
  8
0
  6
Continuous
 62
     7
370
    15
100
AcDbLine
 10
236.5529305775
 20
79.1353018971
 30
0.0
 11
236.6222809316
 21
78.876482852
 31
0.0
  0
LINE
  5
64
330
1F
100
AcDbEntity
  8
0
  6
Continuous
 62
     7
370
    15
100
AcDbLine
 10
236.6222809316
 20
78.876482852
 30
0.0
 11
236.6447132241
 21
78.876482852
 31
0.0
  0
LINE
  5
65
330
1F
100
AcDbEntity
  8
0
  6
Continuous
 62
     7
370
    15
100
AcDbLine
 10
163.6043317392
 20
85.063982852
 30
0.0
 11
171.1543317392
 21
85.063982852
 31
0.0
  0
ARC
  5
66
330
1F
100
AcDbEntity
  8
0
  6
Continuous
 62
     7
370
    15
100
AcDbCircle
 10
171.1543317392
 20
83.663982852
 30
0.0
 40
1.399999999999991
100
AcDbArc
 50
37.6443616934
 51
90.0
  0
LINE
  5
67
330
1F
100
AcDbEntity
  8
0
  6
Continuous
 62
     7
370
    15
100
AcDbLine
 10
163.5954951974
 20
126.7376463102
 30
0.0
 11
162.4654993584
 21
125.6076504712
 31
0.0
  0
LINE
  5
68
330
1F
100
AcDbEntity
  8
0
  6
Continuous
 62
     7
370
    15
100
AcDbLine
 10
162.4517508595
 20
86.2165637318
 30
0.0
 11
163.6043317392
 21
85.063982852
 31
0.0
  0
ARC
  5
69
330
1F
100
AcDbEntity
  8
0
  6
Continuous
 62
     7
370
    15
100
AcDbCircle
 10
167.1543317392
 20
128.146482852
 30
0.0
 40
1.400000000000024
100
AcDbArc
 50
270.0
 51
302.5610026528
  0
LINE
  5
6A
330
1F
100
AcDbEntity
  8
0
  6
Continuous
 62
     7
370
    15
100
AcDbLine
 10
167.1543317392
 20
126.746482852
 30
0.0
 11
163.7452201406
 21
126.746482852
 31
0.0
  0
LINE
  5
6B
330
1F
100
AcDbEntity
  8
0
  6
Continuous
 62
     7
370
    15
100
AcDbLine
 10
237.618444759
 20
136.5942168682
 30
0.0
 11
236.5529305775
 21
132.6176638069
 31
0.0
  0
LINE
  5
6C
330
1F
100
AcDbEntity
  8
0
  6
Continuous
 62
     7
370
    15
100
AcDbLine
 10
240.79296398
 20
148.4416838909
 30
0.0
 11
238.7774731636
 21
140.9197697616
 31
0.0
  0
LINE
  5
6D
330
1F
100
AcDbEntity
  8
0
  6
Continuous
 62
     7
370
    15
100
AcDbLine
 10
248.1385738744
 20
148.8266509929
 30
0.0
 11
240.79296398
 21
148.4416838909
 31
0.0
  0
LINE
  5
6E
330
1F
100
AcDbEntity
  8
0
  6
Continuous
 62
     7
370
    15
100
AcDbLine
 10
256.5003673819
 20
138.1399021801
 30
0.0
 11
256.6597794628
 21
138.2968924333
 31
0.0
  0
LINE
  5
6F
330
1F
100
AcDbEntity
  8
0
  6
Continuous
 62
     7
370
    15
100
AcDbLine
 10
249.3928291561
 20
150.4560781133
 30
0.0
 11
248.5662638304
 21
149.6420701722
 31
0.0
  0
LINE
  5
70
330
1F
100
AcDbEntity
  8
0
  6
Continuous
 62
     7
370
    15
100
AcDbLine
 10
248.4073042131
 20
149.4103424542
 30
0.0
 11
247.7963991111
 21
148.8087183735
 31
0.0
  0
LINE
  5
71
330
1F
100
AcDbEntity
  8
0
  6
Continuous
 62
     7
370
    15
100
AcDbLine
 10
254.1637647921
 20
142.0696829208
 30
0.0
 11
254.4888592205
 21
142.3898384344
 31
0.0
  0
LWPOLYLINE
  5
72
330
1F
100
AcDbEntity
  8
0
  6
Continuous
 62
     7
370
    15
100
AcDbPolyline
 90
       31
 70
   128
 43
0.0
 10
241.4595050584
 20
135.0029529503
 10
242.0485449276
 20
135.3999738662
 10
242.7110079911
 20
135.663208389
 10
243.4179414342
 20
135.7811519069
 10
244.1384488733
 20
135.7486497223
 10
244.8410406757
 20
135.5671223365
 10
245.4950102085
 20
135.2445033673
 10
246.0717758648
 20
134.794892812
 10
246.546130218
 20
134.2379408091
 10
246.8973417064
 20
133.5979888337
 10
247.1100607029
 20
132.903005858
 10
247.1749903665
 20
132.183365973
 10
247.0892929593
 20
131.4705208948
 10
246.8567138693
 20
130.795625374
 10
246.4874179187
 20
130.1881755833
 10
245.9975451127
 20
129.6747199935
 10
245.4085052436
 20
129.2776990776
 10
244.74604218
 20
129.0144645548
 10
244.0391087369
 20
128.8965210368
 10
243.3186012979
 20
128.9290232215
 10
242.6160094954
 20
129.1105506073
 10
241.9620399626
 20
129.4331695764
 10
241.3852743063
 20
129.8827801318
 10
240.9109199532
 20
130.4397321347
 10
240.5597084647
 20
131.0796841101
 10
240.3469894682
 20
131.7746670857
 10
240.2820598046
 20
132.4943069707
 10
240.3677572118
 20
133.2071520489
 10
240.6003363018
 20
133.8820475697
 10
240.9696322524
 20
134.4894973604
 10
241.4595050584
 20
135.0029529503
  0
LWPOLYLINE
  5
73
330
1F
100
AcDbEntity
  8
0
  6
Continuous
 62
     7
370
    15
100
AcDbPolyline
 90
       24
 70
   128
 43
0.0
 10
242.4319422129
 20
133.8611887453
 10
242.8800378493
 20
134.1423016684
 10
243.3910619025
 20
134.2896598282
 10
243.9271140561
 20
134.2923343442
 10
244.4484377743
 20
134.1501268596
 10
244.9163688618
 20
133.873584253
 10
245.2962030104
 20
133.4832164245
 10
245.5597696589
 20
133.0079751701
 10
245.6875212749
 20
132.4831069596
 10
245.6699831053
 20
131.947538867
 10
245.5084558759
 20
131.4409915277
 10
245.2149193225
 20
131.0010332405
 10
244.8111437083
 20
130.660293699
 10
244.3270752235
 20
130.444043996
 10
243.7986150132
 20
130.368322383
 10
243.2649565536
 20
130.4387447854
 10
242.7656788513
 20
130.6500882958
 10
242.3378110495
 20
130.986678533
 10
242.0130861456
 20
131.4235521388
 10
241.8155875003
 20
131.9283081964
 10
241.7599626846
 20
132.4635112581
 10
241.8503371366
 20
132.9894677614
 10
242.0800081967
 20
133.4671699183
 10
242.4319422129
 20
133.8611887453
  0
SPLINE
  5
74
330
1F
100
AcDbEntity
  8
0
  6
Continuous
 62
     7
370
    15
100
AcDbSpline
210
0.0
220
0.0
230
1.0
 70
     8
 71
     3
 72
    14
 73
    10
 74
     0
 42
0.00000001
 43
0.00000001
 40
0.0
 40
0.0
 40
0.0
 40
0.0
 40
0.1077749207859748
 40
0.2867612133939411
 40
0.47119535183043
 40
0.6394547261041784
 40
0.8140630833004969
 40
0.9068266860428522
 40
0.9999999999999999
 40
0.9999999999999999
 40
0.9999999999999999
 40
0.9999999999999999
 10
244.0124260357244
 20
130.6094709347062
 30
0.0
 10
244.0510186915337
 20
130.641353436937
 30
0.0
 10
244.1537037756632
 20
130.7261845364086
 30
0.0
 10
244.3378936247857
 20
130.8793693410825
 30
0.0
 10
244.5661729779528
 20
131.0708365454962
 30
0.0
 10
244.8067001495884
 20
131.2743521423379
 30
0.0
 10
245.0074675684346
 20
131.4454544581417
 30
0.0
 10
245.1713773073342
 20
131.5857050502008
 30
0.0
 10
245.2546916857816
 20
131.6572022206805
 30
0.0
 10
245.2964406664468
 20
131.6930295777778
 30
0.0
  0
SPLINE
  5
75
330
1F
100
AcDbEntity
  8
0
  6
Continuous
 62
     7
370
    15
100
AcDbSpline
210
0.0
220
0.0
230
1.0
 70
     8
 71
     3
 72
    10
 73
     6
 74
     0
 42
0.00000001
 43
0.00000001
 40
0.0
 40
0.0
 40
0.0
 40
0.0
 40
0.4391165375904133
 40
0.7513669429073541
 40
1.0
 40
1.0
 40
1.0
 40
1.0
 10
245.2964406664468
 20
131.6930295777778
 30
0.0
 10
245.2312974220234
 20
131.9164731714175
 30
0.0
 10
245.1198316123273
 20
132.2988047747468
 30
0.0
 10
245.0157384380716
 20
132.9116530847066
 30
0.0
 10
244.981284052237
 20
133.2337786301122
 30
0.0
 10
244.9660108273081
 20
133.3765731043471
 30
0.0
  0
SPLINE
  5
76
330
1F
100
AcDbEntity
  8
0
  6
Continuous
 62
     7
370
    15
100
AcDbSpline
210
0.0
220
0.0
230
1.0
 70
     8
 71
     3
 72
    13
 73
     9
 74
     0
 42
0.00000001
 43
0.00000001
 40
0.0
 40
0.0
 40
0.0
 40
0.0
 40
0.2161241182544839
 40
0.4396369202065189
 40
0.5932538221761667
 40
0.7520048557756794
 40
0.8754343578245617
 40
1.0
 40
1.0
 40
1.0
 40
1.0
 10
244.9660108273081
 20
133.3765731043471
 30
0.0
 10
244.8460269275963
 20
133.4083597107819
 30
0.0
 10
244.6019572116866
 20
133.4730196194938
 30
0.0
 10
244.2588985064467
 20
133.5834659545836
 30
0.0
 10
243.957510020087
 20
133.6969575765004
 30
0.0
 10
243.7261418935884
 20
133.795669943341
 30
0.0
 10
243.5239195473764
 20
133.8897989678767
 30
0.0
 10
243.4091926202428
 20
133.9475501227357
 30
0.0
 10
243.3515663574468
 20
133.9765579878449
 30
0.0
  0
SPLINE
  5
77
330
1F
100
AcDbEntity
  8
0
  6
Continuous
 62
     7
370
    15
100
AcDbSpline
210
0.0
220
0.0
230
1.0
 70
     8
 71
     3
 72
    11
 73
     7
 74
     0
 42
0.00000001
 43
0.00000001
 40
0.0
 40
0.0
 40
0.0
 40
0.0
 40
0.1864191569163863
 40
0.5288419333956458
 40
0.891889911962879
 40
1.0
 40
1.0
 40
1.0
 40
1.0
 10
243.3515663574468
 20
133.9765579878449
 30
0.0
 10
243.2680572692657
 20
133.9049320696009
 30
0.0
 10
243.0311550732666
 20
133.701740564436
 30
0.0
 10
242.6120897403842
 20
133.3457372323338
 30
0.0
 10
242.2741023301273
 20
133.0636365554169
 30
0.0
 10
242.1061007195165
 20
132.9248457421927
 30
0.0
 10
242.0675517267243
 20
132.8929993447734
 30
0.0
  0
SPLINE
  5
78
330
1F
100
AcDbEntity
  8
0
  6
Continuous
 62
     7
370
    15
100
AcDbSpline
210
0.0
220
0.0
230
1.0
 70
     8
 71
     3
 72
    10
 73
     6
 74
     0
 42
0.00000001
 43
0.00000001
 40
0.0
 40
0.0
 40
0.0
 40
0.0
 40
0.4391165375904104
 40
0.7513669429073435
 40
1.0
 40
1.0
 40
1.0
 40
1.0
 10
242.0675517267243
 20
132.8929993447734
 30
0.0
 10
242.0970156399565
 20
132.6344184691542
 30
0.0
 10
242.1474309819357
 20
132.1919638918923
 30
0.0
 10
242.2786606531155
 20
131.6058398144931
 30
0.0
 10
242.3613336129223
 20
131.3312002945744
 30
0.0
 10
242.3979815658631
 20
131.209455818204
 30
0.0
  0
SPLINE
  5
79
330
1F
100
AcDbEntity
  8
0
  6
Continuous
 62
     7
370
    15
100
AcDbSpline
210
0.0
220
0.0
230
1.0
 70
     8
 71
     3
 72
    13
 73
     9
 74
     0
 42
0.00000001
 43
0.00000001
 40
0.0
 40
0.0
 40
0.0
 40
0.0
 40
0.2161241182544799
 40
0.4396369202065166
 40
0.5932538221761714
 40
0.7520048557756887
 40
0.875434357824569
 40
1.0
 40
1.0
 40
1.0
 40
1.0
 10
242.3979815658631
 20
131.209455818204
 30
0.0
 10
242.4990871667743
 20
131.1590777167469
 30
0.0
 10
242.7047548884485
 20
131.0565992263806
 30
0.0
 10
243.0226795388812
 20
130.921400679252
 30
0.0
 10
243.3262575160574
 20
130.8100652848665
 30
0.0
 10
243.5763920105322
 20
130.7298341827048
 30
0.0
 10
243.8065934424626
 20
130.6632591787068
 30
0.0
 10
243.9436059395246
 20
130.6274550258935
 30
0.0
 10
244.0124260357244
 20
130.6094709347062
 30
0.0
  0
LINE
  5
7A
330
1F
100
AcDbEntity
  8
0
  6
Continuous
 62
     7
370
    15
100
AcDbLine
 10
242.7035025358
 20
133.3383397118
 30
0.0
 11
243.3515663574
 21
133.9765579878
 31
0.0
  0
LINE
  5
7B
330
1F
100
AcDbEntity
  8
0
  6
Continuous
 62
     7
370
    15
100
AcDbLine
 10
242.7035025358
 20
133.3383397118
 30
0.0
 11
242.0614952204
 21
132.7965603903
 31
0.0
  0
LINE
  5
7C
330
1F
100
AcDbEntity
  8
0
  6
Continuous
 62
     7
370
    15
100
AcDbLine
 10
244.6339303156
 20
131.1284165207
 30
0.0
 11
244.4831619252
 21
131.896583065
 31
0.0
  0
LINE
  5
7D
330
1F
100
AcDbEntity
  8
0
  6
Continuous
 62
     7
370
    15
100
AcDbLine
 10
244.4831619252
 20
131.896583065
 30
0.0
 11
244.3179470056
 21
132.7383548283
 31
0.0
  0
LINE
  5
7E
330
1F
100
AcDbEntity
  8
0
  6
Continuous
 62
     7
370
    15
100
AcDbLine
 10
244.3179470056
 20
132.7383548283
 30
0.0
 11
244.9660108273
 21
133.3765731043
 31
0.0
  0
LINE
  5
7F
330
1F
100
AcDbEntity
  8
0
  6
Continuous
 62
     7
370
    15
100
AcDbLine
 10
244.3179470056
 20
132.7383548283
 30
0.0
 11
243.5107247707
 21
133.03834727
 31
0.0
  0
LINE
  5
80
330
1F
100
AcDbEntity
  8
0
  6
Continuous
 62
     7
370
    15
100
AcDbLine
 10
243.5107247707
 20
133.03834727
 30
0.0
 11
242.7035025358
 21
133.3383397118
 31
0.0
  0
ARC
  5
81
330
1F
100
AcDbEntity
  8
0
  6
Continuous
 62
     7
370
    15
100
AcDbCircle
 10
242.9738922984
 20
131.5961356521
 30
0.0
 40
1.538883833861602
100
AcDbArc
 50
11.2585820815
 51
69.5832920757
  0
ARC
  5
82
330
1F
100
AcDbEntity
  8
0
  6
Continuous
 62
     7
370
    15
100
AcDbCircle
 10
243.0580523624
 20
131.6104759103
 30
0.0
 40
1.453545517011667
100
AcDbArc
 50
326.9029571651
 51
11.3518797749
  0
ARC
  5
83
330
1F
100
AcDbEntity
  8
0
  6
Continuous
 62
     7
370
    15
100
AcDbCircle
 10
242.9929541732
 20
131.6776649103
 30
0.0
 40
1.455864992268372
100
AcDbArc
 50
69.1670412643
 51
129.7767299666
  0
ELLIPSE
  5
84
330
1F
100
AcDbEntity
  8
0
  6
Continuous
 62
     7
370
    15
100
AcDbEllipse
 10
252.5703067988
 20
143.8026340805
 30
0.0
 11
-1.638720360290108
 21
1.684449447900505
 31
0.0
210
0.0
220
0.0
230
0.9999999999999999
 40
0.9711290287
 41
4.850469640406244
 42
6.566275140299212
  0
ELLIPSE
  5
85
330
1F
100
AcDbEntity
  8
0
  6
Continuous
 62
     7
370
    15
100
AcDbEllipse
 10
252.5703067988
 20
143.8026340805
 30
0.0
 11
-1.638720360290108
 21
1.684449447900505
 31
0.0
210
0.0
220
0.0
230
0.9999999999999999
 40
0.9711290287
 41
3.112895273348161
 42
4.850469640406271
  0
LINE
  5
86
330
1F
100
AcDbEntity
  8
0
  6
Continuous
 62
     7
370
    15
100
AcDbLine
 10
219.7043317392
 20
75.6895651558
 30
0.0
 11
215.7462645707
 21
75.6895651558
 31
0.0
  0
LINE
  5
87
330
1F
100
AcDbEntity
  8
0
  6
Continuous
 62
     7
370
    15
100
AcDbLine
 10
215.7462645707
 20
75.6895651558
 30
0.0
 11
215.7462645707
 21
125.726482852
 31
0.0
  0
LINE
  5
88
330
1F
100
AcDbEntity
  8
0
  6
Continuous
 62
     7
370
    15
100
AcDbLine
 10
215.7462645707
 20
125.726482852
 30
0.0
 11
219.7043317392
 21
125.726482852
 31
0.0
  0
LINE
  5
89
330
1F
100
AcDbEntity
  8
0
  6
Continuous
 62
     7
370
    15
100
AcDbLine
 10
199.3043317392
 20
125.726482852
 30
0.0
 11
208.9623989077
 21
125.726482852
 31
0.0
  0
LINE
  5
8A
330
1F
100
AcDbEntity
  8
0
  6
Continuous
 62
     7
370
    15
100
AcDbLine
 10
208.9623989077
 20
75.6895651558
 30
0.0
 11
208.9623989077
 21
125.726482852
 31
0.0
  0
LINE
  5
8B
330
1F
100
AcDbEntity
  8
0
  6
Continuous
 62
     7
370
    15
100
AcDbLine
 10
208.9623989077
 20
75.6895651558
 30
0.0
 11
207.3043317392
 21
75.6895651558
 31
0.0
  0
SPLINE
  5
8C
330
1F
100
AcDbEntity
  8
0
  6
Continuous
 62
     7
370
    15
100
AcDbSpline
210
0.0
220
0.0
230
1.0
 70
     8
 71
     3
 72
    28
 73
    24
 74
     0
 42
0.00000001
 43
0.00000001
 40
0.0
 40
0.0
 40
0.0
 40
0.0
 40
0.1250000000000006
 40
0.1250000000000006
 40
0.1875000000000009
 40
0.1875000000000009
 40
0.2500000000000012
 40
0.2500000000000012
 40
0.3750000000000011
 40
0.3750000000000011
 40
0.4375000000000011
 40
0.4375000000000011
 40
0.500000000000001
 40
0.500000000000001
 40
0.6250000000000008
 40
0.6250000000000008
 40
0.7500000000000006
 40
0.7500000000000006
 40
0.8125000000000004
 40
0.8125000000000004
 40
0.8750000000000003
 40
0.8750000000000003
 40
1.0
 40
1.0
 40
1.0
 40
1.0
 10
207.3043317392089
 20
75.68956515577219
 30
0.0
 10
206.772623981716
 20
75.68956515577219
 30
0.0
 10
206.2503854164056
 20
75.67378044182195
 30
0.0
 10
205.4805149301307
 20
75.62878502774575
 30
0.0
 10
205.2261553579393
 20
75.61023003267003
 30
0.0
 10
204.7220337772408
 20
75.56637731022353
 30
0.0
 10
204.4723109598129
 20
75.54103270327133
 30
0.0
 10
203.7467210083665
 20
75.45763062552122
 30
0.0
 10
203.2883607467849
 20
75.39176506637013
 30
0.0
 10
202.637862803391
 20
75.28279472587835
 30
0.0
 10
202.4261807525986
 20
75.24455509011169
 30
0.0
 10
202.0221092634606
 20
75.16679635269233
 30
0.0
 10
201.8296027496397
 20
75.12729539051699
 30
0.0
 10
201.2797677786184
 20
75.008387648151
 30
0.0
 10
200.9498390003096
 20
74.9285699667264
 30
0.0
 10
200.365367731741
 20
74.77522680493031
 30
0.0
 10
200.1190905937275
 20
74.70389305166107
 30
0.0
 10
199.8192478010294
 20
74.60994954458646
 30
0.0
 10
199.7307909439573
 20
74.58075575122652
 30
0.0
 10
199.5774295906521
 20
74.52728917696311
 30
0.0
 10
199.5123413764259
 20
74.50292984268795
 30
0.0
 10
199.3567473604851
 20
74.4393396972432
 30
0.0
 10
199.3043317392089
 20
74.40923676215391
 30
0.0
 10
199.3043317392089
 20
74.39235986915699
 30
0.0
  0
LINE
  5
8D
330
1F
100
AcDbEntity
  8
0
  6
Continuous
 62
     7
370
    15
100
AcDbLine
 10
199.3043317392
 20
74.3923598692
 30
0.0
 11
199.3043317392
 21
74.376482852
 31
0.0
  0
SPLINE
  5
8E
330
1F
100
AcDbEntity
  8
0
  6
Continuous
 62
     7
370
    15
100
AcDbSpline
210
0.0
220
0.0
230
1.0
 70
     8
 71
     3
 72
    23
 73
    19
 74
     0
 42
0.00000001
 43
0.00000001
 40
0.0
 40
0.0
 40
0.0
 40
0.0
 40
0.051825557326442
 40
0.1565081979543685
 40
0.209994979015388
 40
0.2618040557469393
 40
0.3663992823944641
 40
0.4197730562975894
 40
0.5256601391314213
 40
0.5793827953828045
 40
0.6338670208272051
 40
0.6871878645845733
 40
0.7408884369110434
 40
0.7958045253850528
 40
0.8511490715431197
 40
0.9035396881600675
 40
0.9563116953005332
 40
1.0
 40
1.0
 40
1.0
 40
1.0
 10
207.3043317392089
 20
136.3436783251836
 30
0.0
 10
207.0864508232396
 20
136.3450882276729
 30
0.0
 10
206.4284714152764
 20
136.3493459975704
 30
0.0
 10
205.5534341526961
 20
136.3889225677048
 30
0.0
 10
204.7086602323166
 20
136.4518911410175
 30
0.0
 10
203.8889980560331
 20
136.5299376915718
 30
0.0
 10
203.1132336987241
 20
136.6268525334505
 30
0.0
 10
202.2155197689341
 20
136.7622924600411
 30
0.0
 10
201.5579526873866
 20
136.878446550288
 30
0.0
 10
200.9802325812095
 20
136.9922192756889
 30
0.0
 10
200.5889044217898
 20
137.0743034860191
 30
0.0
 10
200.2450991442212
 20
137.1502894736346
 30
0.0
 10
199.950003423938
 20
137.2183582199842
 30
0.0
 10
199.704724348459
 20
137.2769449046638
 30
0.0
 10
199.5167711349387
 20
137.3230823655923
 30
0.0
 10
199.38838083364
 20
137.355191814585
 30
0.0
 10
199.3148319418115
 20
137.3738129091594
 30
0.0
 10
199.3104985802502
 20
137.3749163400275
 30
0.0
 10
199.308535936582
 20
137.3754161002196
 30
0.0
  0
LINE
  5
8F
330
1F
100
AcDbEntity
  8
0
  6
Continuous
 62
     7
370
    15
100
AcDbLine
 10
208.9623989077
 20
136.3436783252
 30
0.0
 11
207.3043317392
 21
136.3436783252
 31
0.0
  0
LINE
  5
90
330
1F
100
AcDbEntity
  8
0
  6
Continuous
 62
     7
370
    15
100
AcDbLine
 10
208.9623989077
 20
130.3351725144
 30
0.0
 11
208.9623989077
 21
136.3436783252
 31
0.0
  0
LINE
  5
91
330
1F
100
AcDbEntity
  8
0
  6
Continuous
 62
     7
370
    15
100
AcDbLine
 10
206.5499520849
 20
130.3351725144
 30
0.0
 11
208.9623989077
 21
130.3351725144
 31
0.0
  0
SPLINE
  5
92
330
1F
100
AcDbEntity
  8
0
  6
Continuous
 62
     7
370
    15
100
AcDbSpline
210
0.0
220
0.0
230
1.0
 70
     8
 71
     3
 72
    20
 73
    16
 74
     0
 42
0.00000001
 43
0.00000001
 40
0.0
 40
0.0
 40
0.0
 40
0.0
 40
0.2499999999999997
 40
0.2499999999999997
 40
0.3749999999999997
 40
0.3749999999999997
 40
0.4999999999999998
 40
0.4999999999999998
 40
0.6249999999999998
 40
0.6249999999999998
 40
0.7499999999999999
 40
0.7499999999999999
 40
0.8749999999999999
 40
0.8749999999999999
 40
1.0
 40
1.0
 40
1.0
 40
1.0
 10
199.3043317392089
 20
125.7264828520193
 30
0.0
 10
199.552705473497
 20
126.3803452803167
 30
0.0
 10
199.8722755658422
 20
126.9841310623139
 30
0.0
 10
200.494581799047
 20
127.8109697984825
 30
0.0
 10
200.7260060594777
 20
128.0733984364354
 30
0.0
 10
201.2472203991274
 20
128.5700610905404
 30
0.0
 10
201.5338408817625
 20
128.8006479695619
 30
0.0
 10
202.1533256230701
 20
129.2172021941445
 30
0.0
 10
202.4876260025571
 20
129.404699996112
 30
0.0
 10
203.2128864751818
 20
129.7360969737484
 30
0.0
 10
203.5948015325723
 20
129.8756009612437
 30
0.0
 10
204.389589708744
 20
130.1010544687146
 30
0.0
 10
204.8037479029504
 20
130.1876805802583
 30
0.0
 10
205.6692942435318
 20
130.3056613691124
 30
0.0
 10
206.1071818585436
 20
130.3351725143868
 30
0.0
 10
206.5499520848982
 20
130.3351725143868
 30
0.0
  0
LINE
  5
93
330
1F
100
AcDbEntity
  8
0
  6
Continuous
 62
     7
370
    15
100
AcDbLine
 10
210.4443317392
 20
78.378645693
 30
0.0
 11
210.4443317392
 21
125.726482852
 31
0.0
  0
SPLINE
  5
94
330
1F
100
AcDbEntity
  8
0
  6
Continuous
 62
     7
370
    15
100
AcDbSpline
210
0.0
220
0.0
230
1.0
 70
     8
 71
     3
 72
     8
 73
     4
 74
     0
 42
0.00000001
 43
0.00000001
 40
0.0
 40
0.0
 40
0.0
 40
0.0
 40
1.0
 40
1.0
 40
1.0
 40
1.0
 10
210.4443317392089
 20
78.37864569296445
 30
0.0
 10
209.9519926164278
 20
77.48137565875776
 30
0.0
 10
209.4578785683856
 20
76.58509124370552
 30
0.0
 10
208.9623989077199
 20
75.68956515577217
 30
0.0
  0
SPLINE
  5
95
330
1F
100
AcDbEntity
  8
0
  6
Continuous
 62
     7
370
    15
100
AcDbSpline
210
0.0
220
0.0
230
1.0
 70
    24
 71
     3
 72
     8
 73
     4
 74
     0
 42
0.00000001
 43
0.00000001
 40
0.0
 40
0.0
 40
0.0
 40
0.0
 40
1.0
 40
1.0
 40
1.0
 40
1.0
 10
208.9623989077199
 20
125.7264828520193
 30
0.0
 10
209.4690790158704
 20
125.7264828520193
 30
0.0
 10
209.964379744844
 20
125.7264828520193
 30
0.0
 10
210.4443317392089
 20
125.7264828520193
 30
0.0
  0
LINE
  5
96
330
1F
100
AcDbEntity
  8
0
  6
Continuous
 62
     7
370
    15
100
AcDbLine
 10
220.3043317392
 20
76.3162054514
 30
0.0
 11
220.3043317392
 21
125.726482852
 31
0.0
  0
SPLINE
  5
97
330
1F
100
AcDbEntity
  8
0
  6
Continuous
 62
     7
370
    15
100
AcDbSpline
210
0.0
220
0.0
230
1.0
 70
     8
 71
     3
 72
    10
 73
     6
 74
     0
 42
0.00000001
 43
0.00000001
 40
0.0
 40
0.0
 40
0.0
 40
0.0
 40
0.5
 40
0.5
 40
1.0
 40
1.0
 40
1.0
 40
1.0
 10
220.3043317392089
 20
76.31620545142648
 30
0.0
 10
220.3043317392089
 20
76.15631818323281
 30
0.0
 10
220.2430220879731
 20
75.99519092771823
 30
0.0
 10
220.023922450438
 20
75.7610919293634
 30
0.0
 10
219.8658742441245
 20
75.68956515577219
 30
0.0
 10
219.7043317392089
 20
75.68956515577219
 30
0.0
  0
SPLINE
  5
98
330
1F
100
AcDbEntity
  8
0
  6
Continuous
 62
     7
370
    15
100
AcDbSpline
210
0.0
220
0.0
230
1.0
 70
    24
 71
     3
 72
    12
 73
     8
 74
     0
 42
0.00000001
 43
0.00000001
 40
0.0
 40
0.0
 40
0.0
 40
0.0
 40
0.2500000000000013
 40
0.2500000000000013
 40
0.5000000000000027
 40
0.5000000000000027
 40
1.0
 40
1.0
 40
1.0
 40
1.0
 10
219.7043317392089
 20
125.7264828520193
 30
0.0
 10
219.794570806896
 20
125.7264828520193
 30
0.0
 10
219.8854689210025
 20
125.7264828520193
 30
0.0
 10
220.040065957491
 20
125.7264828520193
 30
0.0
 10
220.1050443735991
 20
125.7264828520193
 30
0.0
 10
220.2568794015353
 20
125.7264828520193
 30
0.0
 10
220.3043317392089
 20
125.7264828520193
 30
0.0
 10
220.3043317392089
 20
125.7264828520193
 30
0.0
  0
SPLINE
  5
99
330
1F
100
AcDbEntity
  8
0
  6
Continuous
 62
     7
370
    15
100
AcDbSpline
210
0.0
220
0.0
230
1.0
 70
     8
 71
     3
 72
     8
 73
     4
 74
     0
 42
0.00000001
 43
0.00000001
 40
0.0
 40
0.0
 40
0.0
 40
0.0
 40
1.0
 40
1.0
 40
1.0
 40
1.0
 10
215.7462645706979
 20
75.68956515577217
 30
0.0
 10
215.2507849100322
 20
76.58509124370552
 30
0.0
 10
214.7566708619901
 20
77.48137565875776
 30
0.0
 10
214.2643317392089
 20
78.37864569296445
 30
0.0
  0
LINE
  5
9A
330
1F
100
AcDbEntity
  8
0
  6
Continuous
 62
     7
370
    15
100
AcDbLine
 10
214.2643317392
 20
78.378645693
 30
0.0
 11
214.2643317392
 21
125.726482852
 31
0.0
  0
SPLINE
  5
9B
330
1F
100
AcDbEntity
  8
0
  6
Continuous
 62
     7
370
    15
100
AcDbSpline
210
0.0
220
0.0
230
1.0
 70
    24
 71
     3
 72
     8
 73
     4
 74
     0
 42
0.00000001
 43
0.00000001
 40
0.0
 40
0.0
 40
0.0
 40
0.0
 40
1.0
 40
1.0
 40
1.0
 40
1.0
 10
214.264331739209
 20
125.7264828520193
 30
0.0
 10
214.7442837335738
 20
125.7264828520193
 30
0.0
 10
215.2395844625475
 20
125.7264828520193
 30
0.0
 10
215.746264570698
 20
125.7264828520193
 30
0.0
  0
LINE
  5
9C
330
1F
100
AcDbEntity
  8
0
  6
Continuous
 62
     7
370
    15
100
AcDbLine
 10
194.3543317392
 20
74.676482852
 30
0.0
 11
194.3543317392
 21
137.0764828509
 31
0.0
  0
SPLINE
  5
9D
330
1F
100
AcDbEntity
  8
0
  6
Continuous
 62
     7
370
    15
100
AcDbSpline
210
0.0
220
0.0
230
1.0
 70
     8
 71
     3
 72
    10
 73
     6
 74
     0
 42
0.00000001
 43
0.00000001
 40
0.0
 40
0.0
 40
0.0
 40
0.0
 40
0.5
 40
0.5
 40
1.0
 40
1.0
 40
1.0
 40
1.0
 10
210.8386292708998
 20
132.2764828520193
 30
0.0
 10
210.7170890072314
 20
132.3512090192311
 30
0.0
 10
210.6157546468824
 20
132.4601540351479
 30
0.0
 10
210.480115703994
 20
132.7105845159095
 30
0.0
 10
210.4443317392089
 20
132.8530038780085
 30
0.0
 10
210.4443317392089
 20
132.9961367030552
 30
0.0
  0
SPLINE
  5
9E
330
1F
100
AcDbEntity
  8
0
  6
Continuous
 62
     7
370
    15
100
AcDbSpline
210
0.0
220
0.0
230
1.0
 70
    24
 71
     3
 72
    12
 73
     8
 74
     0
 42
0.00000001
 43
0.00000001
 40
0.0
 40
0.0
 40
0.0
 40
0.0
 40
0.2500000000000008
 40
0.2500000000000008
 40
0.5000000000000017
 40
0.5000000000000017
 40
1.0
 40
1.0
 40
1.0
 40
1.0
 10
211.2443317392089
 20
132.2764828520193
 30
0.0
 10
211.1949883773993
 20
132.2764828520193
 30
0.0
 10
211.1462976790977
 20
132.2764828520193
 30
0.0
 10
211.0634465815272
 20
132.2764828520193
 30
0.0
 10
211.0272466139066
 20
132.2764828520193
 30
0.0
 10
210.9314966973573
 20
132.2764828520193
 30
0.0
 10
210.8816147275452
 20
132.2764828520193
 30
0.0
 10
210.8386292708998
 20
132.2764828520193
 30
0.0
  0
SPLINE
  5
9F
330
1F
100
AcDbEntity
  8
0
  6
Continuous
 62
     7
370
    15
100
AcDbSpline
210
0.0
220
0.0
230
1.0
 70
    24
 71
     3
 72
    14
 73
    10
 74
     0
 42
0.00000001
 43
0.00000001
 40
0.0
 40
0.0
 40
0.0
 40
0.0
 40
0.1249999999999988
 40
0.1249999999999988
 40
0.2499999999999976
 40
0.2499999999999976
 40
0.4999999999999987
 40
0.4999999999999987
 40
1.0
 40
1.0
 40
1.0
 40
1.0
 10
211.2443317392089
 20
79.47648285201932
 30
0.0
 10
211.1749850174778
 20
79.4764828520193
 30
0.0
 10
211.1097869640938
 20
79.47648285201932
 30
0.0
 10
211.0054077714668
 20
79.47648285201932
 30
0.0
 10
210.9625054004578
 20
79.4764828520193
 30
0.0
 10
210.8501797428531
 20
79.47648285201932
 30
0.0
 10
210.7949560484993
 20
79.4764828520193
 30
0.0
 10
210.6508986697318
 20
79.47648285201932
 30
0.0
 10
210.5888179729003
 20
79.4764828520193
 30
0.0
 10
210.5420065415412
 20
79.47648285201932
 30
0.0
  0
SPLINE
  5
A0
330
1F
100
AcDbEntity
  8
0
  6
Continuous
 62
     7
370
    15
100
AcDbSpline
210
0.0
220
0.0
230
1.0
 70
     8
 71
     3
 72
     9
 73
     5
 74
     0
 42
0.00000001
 43
0.00000001
 40
0.0
 40
0.0
 40
0.0
 40
0.0
 40
0.5
 40
1.0
 40
1.0
 40
1.0
 40
1.0
 10
210.4443317392089
 20
126.0123494834807
 30
0.0
 10
210.4443317392089
 20
125.964117431358
 30
0.0
 10
210.4487377139141
 20
125.8682474179184
 30
0.0
 10
210.4617568940079
 20
125.7735387879351
 30
0.0
 10
210.470479362369
 20
125.7264828520193
 30
0.0
  0
SPLINE
  5
A1
330
1F
100
AcDbEntity
  8
0
  6
Continuous
 62
     7
370
    15
100
AcDbSpline
210
0.0
220
0.0
230
1.0
 70
    24
 71
     3
 72
    14
 73
    10
 74
     0
 42
0.00000001
 43
0.00000001
 40
0.0
 40
0.0
 40
0.0
 40
0.0
 40
0.4999999999999994
 40
0.4999999999999994
 40
0.7499999999999981
 40
0.7499999999999981
 40
0.874999999999999
 40
0.874999999999999
 40
1.0
 40
1.0
 40
1.0
 40
1.0
 10
214.1666569368766
 20
79.47648285201932
 30
0.0
 10
214.1198722318284
 20
79.47648285201932
 30
0.0
 10
214.0578210350488
 20
79.47648285201932
 30
0.0
 10
213.9144293964983
 20
79.47648285201932
 30
0.0
 10
213.8582857429471
 20
79.47648285201933
 30
0.0
 10
213.7453347208109
 20
79.47648285201932
 30
0.0
 10
213.7023339587728
 20
79.47648285201932
 30
0.0
 10
213.5982712484663
 20
79.47648285201932
 30
0.0
 10
213.5329390101093
 20
79.47648285201932
 30
0.0
 10
213.4643317392089
 20
79.47648285201932
 30
0.0
  0
SPLINE
  5
A2
330
1F
100
AcDbEntity
  8
0
  6
Continuous
 62
     7
370
    15
100
AcDbSpline
210
0.0
220
0.0
230
1.0
 70
    24
 71
     3
 72
    12
 73
     8
 74
     0
 42
0.00000001
 43
0.00000001
 40
0.0
 40
0.0
 40
0.0
 40
0.0
 40
0.5000000000000017
 40
0.5000000000000017
 40
0.7500000000000008
 40
0.7500000000000008
 40
1.0
 40
1.0
 40
1.0
 40
1.0
 10
213.870034207518
 20
132.2764828520193
 30
0.0
 10
213.8269486579072
 20
132.2764828520193
 30
0.0
 10
213.7777964561601
 20
132.2764828520193
 30
0.0
 10
213.6813238618705
 20
132.2764828520193
 30
0.0
 10
213.6452222767363
 20
132.2764828520193
 30
0.0
 10
213.5621165188738
 20
132.2764828520193
 30
0.0
 10
213.5141199219097
 20
132.2764828520193
 30
0.0
 10
213.4643317392089
 20
132.2764828520193
 30
0.0
  0
SPLINE
  5
A3
330
1F
100
AcDbEntity
  8
0
  6
Continuous
 62
     7
370
    15
100
AcDbSpline
210
0.0
220
0.0
230
1.0
 70
     8
 71
     3
 72
    10
 73
     6
 74
     0
 42
0.00000001
 43
0.00000001
 40
0.0
 40
0.0
 40
0.0
 40
0.0
 40
0.5
 40
0.5
 40
1.0
 40
1.0
 40
1.0
 40
1.0
 10
214.2643317392089
 20
132.9961367030551
 30
0.0
 10
214.2643317392089
 20
132.8523666452371
 30
0.0
 10
214.2282826804901
 20
132.7099472827419
 30
0.0
 10
214.092773819716
 20
132.4600529893847
 30
0.0
 10
213.9928978266199
 20
132.3520226531365
 30
0.0
 10
213.8700342075179
 20
132.2764828520193
 30
0.0
  0
SPLINE
  5
A4
330
1F
100
AcDbEntity
  8
0
  6
Continuous
 62
     7
370
    15
100
AcDbSpline
210
0.0
220
0.0
230
1.0
 70
     8
 71
     3
 72
    10
 73
     6
 74
     0
 42
0.00000001
 43
0.00000001
 40
0.0
 40
0.0
 40
0.0
 40
0.0
 40
0.5
 40
0.5
 40
1.0
 40
1.0
 40
1.0
 40
1.0
 10
214.2381841160488
 20
125.7264828520193
 30
0.0
 10
214.2468737589605
 20
125.7733617013375
 30
0.0
 10
214.253412823711
 20
125.8207841667387
 30
0.0
 10
214.262171458104
 20
125.9167209653255
 30
0.0
 10
214.264331739209
 20
125.964636253336
 30
0.0
 10
214.264331739209
 20
126.0123494834805
 30
0.0
  0
LINE
  5
A5
330
1F
100
AcDbEntity
  8
0
  6
Continuous
 62
     7
370
    15
100
AcDbLine
 10
213.4643317392
 20
132.276482852
 30
0.0
 11
211.2443317392
 21
132.276482852
 31
0.0
  0
LINE
  5
A6
330
1F
100
AcDbEntity
  8
0
  6
Continuous
 62
     7
370
    15
100
AcDbLine
 10
213.4643317392
 20
79.476482852
 30
0.0
 11
211.2443317392
 21
79.476482852
 31
0.0
  0
LINE
  5
A7
330
1F
100
AcDbEntity
  8
0
  6
Continuous
 62
     7
370
    15
100
AcDbLine
 10
220.5043306796
 20
132.276482852
 30
0.0
 11
220.4598654497
 21
132.276482852
 31
0.0
  0
SPLINE
  5
A8
330
1F
100
AcDbEntity
  8
0
  6
Continuous
 62
     7
370
    15
100
AcDbSpline
210
0.0
220
0.0
230
1.0
 70
    24
 71
     3
 72
    10
 73
     6
 74
     0
 42
0.00000001
 43
0.00000001
 40
0.0
 40
0.0
 40
0.0
 40
0.0
 40
0.5
 40
0.5
 40
1.0
 40
1.0
 40
1.0
 40
1.0
 10
220.5043317391834
 20
79.47648285201932
 30
0.0
 10
220.5043306019095
 20
79.47648285201932
 30
0.0
 10
220.4611257153857
 20
79.47648285201932
 30
0.0
 10
220.3601986799689
 20
79.47648285201932
 30
0.0
 10
220.3043317392089
 20
79.47648285201932
 30
0.0
 10
220.3043317392089
 20
79.47648285201932
 30
0.0
  0
ELLIPSE
  5
A9
330
1F
100
AcDbEntity
  8
0
  6
Continuous
 62
     7
370
    15
100
AcDbEllipse
 10
306.9430494798
 20
105.876482852
 30
0.0
 11
147.4511159362817
 21
-4.655015242949133
 31
0.0
210
0.0
220
0.0
230
1.0
 40
0.1734804855
 41
2.081404986944105
 42
2.085037983804252
  0
SPLINE
  5
AA
330
1F
100
AcDbEntity
  8
0
  6
Continuous
 62
     7
370
    15
100
AcDbSpline
210
0.0
220
0.0
230
1.0
 70
     8
 71
     3
 72
    14
 73
    10
 74
     0
 42
0.00000001
 43
0.00000001
 40
0.0
 40
0.0
 40
0.0
 40
0.0
 40
0.25
 40
0.25
 40
0.5
 40
0.5
 40
0.75
 40
0.75
 40
1.0
 40
1.0
 40
1.0
 40
1.0
 10
235.1186821315493
 20
130.4377082925442
 30
0.0
 10
234.4940383648438
 20
130.396337266804
 30
0.0
 10
233.910307025005
 20
130.3197182171644
 30
0.0
 10
232.8242636248168
 20
130.085236257664
 30
0.0
 10
232.3503303839775
 20
129.9328875643805
 30
0.0
 10
231.5305357954649
 20
129.5472216894429
 30
0.0
 10
231.2015978699314
 20
129.3218374770389
 30
0.0
 10
230.677597668782
 20
128.7979183580972
 30
0.0
 10
230.4910780733941
 20
128.5075739649641
 30
0.0
 10
230.3650162398164
 20
128.1880419173429
 30
0.0
  0
ELLIPSE
  5
AB
330
1F
100
AcDbEntity
  8
0
  6
Continuous
 62
     7
370
    15
100
AcDbEllipse
 10
234.9256470996
 20
105.876482852
 30
0.0
 11
-1.299954407456283
 21
25.99774751943447
 31
0.0
210
0.0
220
0.0
230
0.9999999999999998
 40
0.263265937
 41
0.5260033403818895
 42
2.240197032160199
  0
SPLINE
  5
AC
330
1F
100
AcDbEntity
  8
0
  6
Continuous
 62
     7
370
    15
100
AcDbSpline
210
0.0
220
0.0
230
1.0
 70
     8
 71
     3
 72
    20
 73
    16
 74
     0
 42
0.00000001
 43
0.00000001
 40
0.0
 40
0.0
 40
0.0
 40
0.0
 40
0.2499999999999992
 40
0.2499999999999992
 40
0.3749999999999993
 40
0.3749999999999993
 40
0.4999999999999994
 40
0.4999999999999994
 40
0.6249999999999996
 40
0.6249999999999996
 40
0.7499999999999997
 40
0.7499999999999997
 40
0.8749999999999999
 40
0.8749999999999999
 40
1.0
 40
1.0
 40
1.0
 40
1.0
 10
230.3650162398164
 20
89.47608351535436
 30
0.0
 10
230.4911525689914
 20
88.99287385882063
 30
0.0
 10
230.6770948954232
 20
88.54161957331131
 30
0.0
 10
231.0654581218006
 20
87.91303433431855
 30
0.0
 10
231.2146583900728
 20
87.7101585867818
 30
0.0
 10
231.5488496775507
 20
87.32919592899874
 30
0.0
 10
231.7330416426006
 20
87.15145018540849
 30
0.0
 10
232.1379534686405
 20
86.8209261393327
 30
0.0
 10
232.3594493917638
 20
86.66766495566033
 30
0.0
 10
232.8400534169255
 20
86.38879015154687
 30
0.0
 10
233.093734090743
 20
86.26615831568203
 30
0.0
 10
233.6280301576136
 20
86.05251130543482
 30
0.0
 10
233.9086260873725
 20
85.96148029700745
 30
0.0
 10
234.4987885058142
 20
85.81151956735464
 30
0.0
 10
234.8057348465541
 20
85.75350885812895
 30
0.0
 10
235.1186821315493
 20
85.71361774652968
 30
0.0
  0
ELLIPSE
  5
AD
330
1F
100
AcDbEntity
  8
0
  6
Continuous
 62
     7
370
    15
100
AcDbEllipse
 10
306.9430494798
 20
105.876482852
 30
0.0
 11
147.4511159362817
 21
-4.655015242949133
 31
0.0
210
0.0
220
0.0
230
1.0
 40
0.1734804855
 41
4.20910073292252
 42
4.212733729782666
  0
ELLIPSE
  5
AE
330
1F
100
AcDbEntity
  8
0
  6
Continuous
 62
     7
370
    15
100
AcDbEllipse
 10
229.5786187601
 20
118.2598267212
 30
0.0
 11
0.2506366587653304
 21
3.580131742809967
 31
0.0
210
0.0
220
0.0
230
1.0
 40
0.2071261215
 41
0.0
 42
6.283185307179586
  0
LINE
  5
AF
330
1F
100
AcDbEntity
  8
0
  6
Continuous
 62
     7
370
    15
100
AcDbLine
 10
192.3543317392
 20
81.6560519903
 30
0.0
 11
192.3543317392
 21
130.0969137137
 31
0.0
  0
LINE
  5
B0
330
1F
100
AcDbEntity
  8
0
  6
Continuous
 62
     7
370
    15
100
AcDbLine
 10
172.5543317392
 20
82.6480359582
 30
0.0
 11
172.5543317392
 21
83.9313345927
 31
0.0
  0
SPLINE
  5
B1
330
1F
100
AcDbEntity
  8
0
  6
Continuous
 62
     7
370
    15
100
AcDbSpline
210
0.0
220
0.0
230
1.0
 70
     8
 71
     3
 72
    14
 73
    10
 74
     0
 42
0.00000001
 43
0.00000001
 40
0.0
 40
0.0
 40
0.0
 40
0.0
 40
0.25
 40
0.25
 40
0.5
 40
0.5
 40
0.75
 40
0.75
 40
1.0
 40
1.0
 40
1.0
 40
1.0
 10
171.9327275024691
 20
85.01211163473612
 30
0.0
 10
171.9711638872901
 20
84.90948723702458
 30
0.0
 10
172.0399652806819
 20
84.810290813585
 30
0.0
 10
172.1832512928409
 20
84.6193987842585
 30
0.0
 10
172.2584333479478
 20
84.52714151822559
 30
0.0
 10
172.390620636598
 20
84.34753419641059
 30
0.0
 10
172.4481378320678
 20
84.26022464196623
 30
0.0
 10
172.5301826303601
 20
84.09029080845049
 30
0.0
 10
172.5543317392089
 20
84.00838846657933
 30
0.0
 10
172.5543317392089
 20
83.93133459274344
 30
0.0
  0
SPLINE
  5
B2
330
1F
100
AcDbEntity
  8
0
  6
Continuous
 62
     7
370
    15
100
AcDbSpline
210
0.0
220
0.0
230
1.0
 70
     8
 71
     3
 72
    18
 73
    14
 74
     0
 42
0.00000001
 43
0.00000001
 40
0.0
 40
0.0
 40
0.0
 40
0.0
 40
0.0624999999999998
 40
0.0624999999999998
 40
0.1249999999999997
 40
0.1249999999999997
 40
0.2499999999999993
 40
0.2499999999999993
 40
0.4999999999999996
 40
0.4999999999999996
 40
0.7499999999999998
 40
0.7499999999999998
 40
1.0
 40
1.0
 40
1.0
 40
1.0
 10
171.1543317392089
 20
85.73039408622273
 30
0.0
 10
171.1909039495593
 20
85.73417148975018
 30
0.0
 10
171.2295544229948
 20
85.73361446186703
 30
0.0
 10
171.3036459167086
 20
85.72355525670517
 30
0.0
 10
171.3389962104627
 20
85.7142013752806
 30
0.0
 10
171.4335905078521
 20
85.67981694884678
 30
0.0
 10
171.4837286809911
 20
85.64910521418396
 30
0.0
 10
171.6129219525722
 20
85.55317590414592
 30
0.0
 10
171.6712020973134
 20
85.48466041002867
 30
0.0
 10
171.7713971937369
 20
85.34808846009606
 30
0.0
 10
171.8114124451835
 20
85.27932355759314
 30
0.0
 10
171.8798118660013
 20
85.14428812848548
 30
0.0
 10
171.9081735898632
 20
85.07767010243232
 30
0.0
 10
171.9327275024691
 20
85.01211163473612
 30
0.0
  0
SPLINE
  5
B3
330
1F
100
AcDbEntity
  8
0
  6
Continuous
 62
     7
370
    15
100
AcDbSpline
210
0.0
220
0.0
230
1.0
 70
     8
 71
     3
 72
    10
 73
     6
 74
     0
 42
0.00000001
 43
0.00000001
 40
0.0
 40
0.0
 40
0.0
 40
0.0
 40
0.5
 40
0.5
 40
1.0
 40
1.0
 40
1.0
 40
1.0
 10
167.2407298780869
 20
85.2342004298511
 30
0.0
 10
167.8683575337943
 20
85.33747398858671
 30
0.0
 10
168.5195582788257
 20
85.42629910033826
 30
0.0
 10
169.828262982838
 20
85.58840680720857
 30
0.0
 10
170.4893074201291
 20
85.66170627149516
 30
0.0
 10
171.1543317392088
 20
85.73039408622284
 30
0.0
  0
SPLINE
  5
B4
330
1F
100
AcDbEntity
  8
0
  6
Continuous
 62
     7
370
    15
100
AcDbSpline
210
0.0
220
0.0
230
1.0
 70
     8
 71
     3
 72
    14
 73
    10
 74
     0
 42
0.00000001
 43
0.00000001
 40
0.0
 40
0.0
 40
0.0
 40
0.0
 40
0.5000000000000001
 40
0.5000000000000001
 40
0.7499999999999986
 40
0.7499999999999986
 40
0.8749999999999993
 40
0.8749999999999993
 40
1.0
 40
1.0
 40
1.0
 40
1.0
 10
163.6043317392089
 20
85.06985129349177
 30
0.0
 10
164.2204086429643
 20
85.07557741372091
 30
0.0
 10
164.8345406390801
 20
85.08546777912294
 30
0.0
 10
165.7484372695936
 20
85.11610274679269
 30
0.0
 10
166.0518761971413
 20
85.12889620443067
 30
0.0
 10
166.5030128127788
 20
85.15682203239005
 30
0.0
 10
166.6527190623213
 20
85.16759165254983
 30
0.0
 10
166.9495601985694
 20
85.19472436814935
 30
0.0
 10
167.0969457510726
 20
85.21054134097658
 30
0.0
 10
167.240729878087
 20
85.23420042985103
 30
0.0
  0
SPLINE
  5
B5
330
1F
100
AcDbEntity
  8
0
  6
Continuous
 62
     7
370
    15
100
AcDbSpline
210
0.0
220
0.0
230
1.0
 70
     8
 71
     3
 72
     8
 73
     4
 74
     0
 42
0.00000001
 43
0.00000001
 40
0.0000005954826279
 40
0.0000005954826279
 40
0.0000005954826279
 40
0.0000005954826279
 40
0.0000302093805348
 40
0.0000302093805348
 40
0.0000302093805348
 40
0.0000302093805348
 10
163.5942868087993
 20
85.08166642314366
 30
0.0
 10
163.5976028361195
 20
85.07771964354787
 30
0.0
 10
163.6009513875118
 20
85.07378125241793
 30
0.0
 10
163.6043317392088
 20
85.06985129349178
 30
0.0
  0
SPLINE
  5
B6
330
1F
100
AcDbEntity
  8
0
  6
Continuous
 62
     7
370
    15
100
AcDbSpline
210
0.0
220
0.0
230
1.0
 70
     8
 71
     3
 72
     8
 73
     4
 74
     0
 42
0.00000001
 43
0.00000001
 40
0.0000005099763573
 40
0.0000005099763573
 40
0.0000005099763573
 40
0.0000005099763573
 40
0.0000262827998699
 40
0.0000262827998699
 40
0.0000262827998699
 40
0.0000262827998699
 10
163.6043317392089
 20
126.7464206174144
 30
0.0
 10
163.6009629999811
 20
126.7430989484585
 30
0.0
 10
163.597614547002
 20
126.7397709911796
 30
0.0
 10
163.5942868087907
 20
126.736436744307
 30
0.0
  0
SPLINE
  5
B7
330
1F
100
AcDbEntity
  8
0
  6
Continuous
 62
     7
370
    15
100
AcDbSpline
210
0.0
220
0.0
230
1.0
 70
     8
 71
     3
 72
    10
 73
     6
 74
     0
 42
0.00000001
 43
0.00000001
 40
0.0
 40
0.0
 40
0.0
 40
0.0
 40
0.5
 40
0.5
 40
1.0
 40
1.0
 40
1.0
 40
1.0
 10
167.1543317392089
 20
126.6995702438471
 30
0.0
 10
166.5667461921183
 20
126.7206357640835
 30
0.0
 10
165.975999798658
 20
126.7313942499557
 30
0.0
 10
164.7919806333591
 20
126.7447590304914
 30
0.0
 10
164.1985666451536
 20
126.746901673156
 30
0.0
 10
163.6043317392089
 20
126.7464206174144
 30
0.0
  0
SPLINE
  5
B8
330
1F
100
AcDbEntity
  8
0
  6
Continuous
 62
     7
370
    15
100
AcDbSpline
210
0.0
220
0.0
230
1.0
 70
     8
 71
     3
 72
    18
 73
    14
 74
     0
 42
0.00000001
 43
0.00000001
 40
0.0
 40
0.0
 40
0.0
 40
0.0
 40
0.2500000000000012
 40
0.2500000000000012
 40
0.5000000000000017
 40
0.5000000000000017
 40
0.7500000000000021
 40
0.7500000000000021
 40
0.8750000000000019
 40
0.8750000000000019
 40
0.937500000000001
 40
0.937500000000001
 40
1.0
 40
1.0
 40
1.0
 40
1.0
 10
168.5543317392089
 20
127.7205905243823
 30
0.0
 10
168.5543317392089
 20
127.6373836155251
 30
0.0
 10
168.5184826392707
 20
127.5486469602116
 30
0.0
 10
168.3936109032367
 20
127.3665217696513
 30
0.0
 10
168.3032104855889
 20
127.2713917210247
 30
0.0
 10
168.0809678308467
 20
127.0822102119004
 30
0.0
 10
167.9512030444009
 20
126.9872650438057
 30
0.0
 10
167.7105655870894
 20
126.8489863362257
 30
0.0
 10
167.622798288952
 20
126.8032759029233
 30
0.0
 10
167.4682742017451
 20
126.7454525977019
 30
0.0
 10
167.4116633156904
 20
126.727737833664
 30
0.0
 10
167.2876192847838
 20
126.7031985304311
 30
0.0
 10
167.2199046097655
 20
126.6972193918928
 30
0.0
 10
167.1543317392089
 20
126.6995702438471
 30
0.0
  0
LINE
  5
B9
330
1F
100
AcDbEntity
  8
0
  6
Continuous
 62
     7
370
    15
100
AcDbLine
 10
168.5543317392
 20
127.7205905244
 30
0.0
 11
168.5543317392
 21
128.9045289442
 31
0.0
  0
SPLINE
  5
BA
330
1F
100
AcDbEntity
  8
0
  6
Continuous
 62
     7
370
    15
100
AcDbSpline
210
0.0
220
0.0
230
1.0
 70
     8
 71
     3
 72
    24
 73
    20
 74
     0
 42
0.00000001
 43
0.00000001
 40
0.0
 40
0.0
 40
0.0
 40
0.0
 40
0.0010489762969672
 40
0.0637843125636783
 40
0.1272220590447879
 40
0.1903788924483968
 40
0.2526748653693582
 40
0.3146354154422257
 40
0.3770891997149646
 40
0.4393540298503556
 40
0.5008133242537848
 40
0.5621845104596219
 40
0.6248438451115927
 40
0.6874304766625546
 40
0.74967431746794
 40
0.811984842697636
 40
0.8750960525413146
 40
0.9384412526964344
 40
1.0
 40
1.0
 40
1.0
 40
1.0
 10
181.1232375711847
 20
82.21897442343916
 30
0.0
 10
181.1227911110804
 20
82.21891613762027
 30
0.0
 10
181.0956435473865
 20
82.21537199567796
 30
0.0
 10
181.1912553250003
 20
82.22820574036038
 30
0.0
 10
181.4248155828936
 20
82.25745242556057
 30
0.0
 10
181.8203698902114
 20
82.3040667486234
 30
0.0
 10
182.3474101940476
 20
82.3542498902827
 30
0.0
 10
182.990940606038
 20
82.39862635273253
 30
0.0
 10
183.7296144612771
 20
82.42557113367063
 30
0.0
 10
184.5271289667114
 20
82.42904298437759
 30
0.0
 10
185.3537078491581
 20
82.40141574034693
 30
0.0
 10
186.1792308667701
 20
82.34293685137422
 30
0.0
 10
186.9713574147738
 20
82.2574918220129
 30
0.0
 10
187.7039296887731
 20
82.15575758217659
 30
0.0
 10
188.3395699255031
 20
82.04791446020421
 30
0.0
 10
188.8614810325092
 20
81.94628430346549
 30
0.0
 10
189.243109809625
 20
81.86379914678729
 30
0.0
 10
189.4939242798593
 20
81.80764994043761
 30
0.0
 10
189.5230458358435
 20
81.80080048182387
 30
0.0
 10
189.5373983566596
 20
81.79742473509569
 30
0.0
  0
SPLINE
  5
BB
330
1F
100
AcDbEntity
  8
0
  6
Continuous
 62
     7
370
    15
100
AcDbSpline
210
0.0
220
0.0
230
1.0
 70
     8
 71
     3
 72
    24
 73
    20
 74
     0
 42
0.00000001
 43
0.00000001
 40
0.0
 40
0.0
 40
0.0
 40
0.0
 40
0.0614384276250096
 40
0.1250736755369642
 40
0.1884253490728549
 40
0.2508623904037472
 40
0.3129665632511465
 40
0.3753451453465217
 40
0.4377328972327366
 40
0.4990927322917386
 40
0.5605807588449758
 40
0.6229469893028902
 40
0.6854686282028748
 40
0.7475477813740343
 40
0.8098225060807754
 40
0.8730684085990458
 40
0.9364041844530115
 40
0.9991757196257856
 40
0.9999999999999999
 40
0.9999999999999999
 40
0.9999999999999999
 40
0.9999999999999999
 10
189.5373435858567
 20
129.9555118264767
 30
0.0
 10
189.522742861553
 20
129.9521437696241
 30
0.0
 10
189.4930193428247
 20
129.9452872261503
 30
0.0
 10
189.2402815271768
 20
129.8889486056244
 30
0.0
 10
188.8572856107275
 20
129.8060915234944
 30
0.0
 10
188.33493002629
 20
129.7041844935432
 30
0.0
 10
187.7001455482899
 20
129.5963453544993
 30
0.0
 10
186.9699219441162
 20
129.4948784025241
 30
0.0
 10
186.1794533588825
 20
129.4098186888333
 30
0.0
 10
185.3549698440531
 20
129.3516143949471
 30
0.0
 10
184.5279333851709
 20
129.3240309561206
 30
0.0
 10
183.7296091175181
 20
129.3275239336133
 30
0.0
 10
182.9897851532291
 20
129.3544798534664
 30
0.0
 10
182.345530920254
 20
129.3988337954658
 30
0.0
 10
181.8181236650402
 20
129.4490392452237
 30
0.0
 10
181.4234590628894
 20
129.4956491004218
 30
0.0
 10
181.1909297837047
 20
129.5248446929694
 30
0.0
 10
181.0955497511519
 20
129.5376227619107
 30
0.0
 10
181.1224833880535
 20
129.5340685034028
 30
0.0
 10
181.1228324812779
 20
129.5340224358194
 30
0.0
  0
SPLINE
  5
BC
330
1F
100
AcDbEntity
  8
0
  6
Continuous
 62
     7
370
    15
100
AcDbSpline
210
0.0
220
0.0
230
1.0
 70
     8
 71
     3
 72
     9
 73
     5
 74
     0
 42
0.00000001
 43
0.00000001
 40
0.0
 40
0.0
 40
0.0
 40
0.0
 40
0.586508311958736
 40
1.0
 40
1.0
 40
1.0
 40
1.0
 10
162.4608515371599
 20
86.22566440944043
 30
0.0
 10
162.4648521661381
 20
86.21986432841145
 30
0.0
 10
162.4716732612472
 20
86.20997515734474
 30
0.0
 10
162.4808251322343
 20
86.26403994958532
 30
0.0
 10
162.4846093548175
 20
86.2863952917925
 30
0.0
  0
LINE
  5
BD
330
1F
100
AcDbEntity
  8
0
  6
Continuous
 62
     7
370
    15
100
AcDbLine
 10
162.4543317392
 20
86.2233223271
 30
0.0
 11
162.4543317392
 21
125.5671605985
 31
0.0
  0
SPLINE
  5
BE
330
1F
100
AcDbEntity
  8
0
  6
Continuous
 62
     7
370
    15
100
AcDbSpline
210
0.0
220
0.0
230
1.0
 70
     8
 71
     3
 72
    10
 73
     6
 74
     0
 42
0.00000001
 43
0.00000001
 40
0.0
 40
0.0
 40
0.0
 40
0.0
 40
0.5
 40
0.5
 40
1.0
 40
1.0
 40
1.0
 40
1.0
 10
162.5169951139323
 20
125.5510353968001
 30
0.0
 10
162.5080908248236
 20
125.5967769160133
 30
0.0
 10
162.4915754446306
 20
125.6139677554823
 30
0.0
 10
162.464467498569
 20
125.6136444785466
 30
0.0
 10
162.4543317392089
 20
125.5957669362501
 30
0.0
 10
162.4543317392089
 20
125.5671605984975
 30
0.0
  0
SPLINE
  5
BF
330
1F
100
AcDbEntity
  8
0
  6
Continuous
 62
     7
370
    15
100
AcDbSpline
210
0.0
220
0.0
230
1.0
 70
     8
 71
     3
 72
    26
 73
    22
 74
     0
 42
0.00000001
 43
0.00000001
 40
0.0
 40
0.0
 40
0.0
 40
0.0
 40
0.2499999999999971
 40
0.2499999999999971
 40
0.3749999999999955
 40
0.3749999999999955
 40
0.4374999999999939
 40
0.4374999999999939
 40
0.4687499999999932
 40
0.4687499999999932
 40
0.4999999999999923
 40
0.4999999999999923
 40
0.5312499999999916
 40
0.5312499999999916
 40
0.5624999999999908
 40
0.5624999999999908
 40
0.6249999999999926
 40
0.6249999999999926
 40
0.7499999999999944
 40
0.7499999999999944
 40
1.0
 40
1.0
 40
1.0
 40
1.0
 10
163.2784853853134
 20
126.2666021856172
 30
0.0
 10
163.2398848624449
 20
126.1488274892617
 30
0.0
 10
163.1935878598907
 20
126.0244378030998
 30
0.0
 10
163.0996485114567
 20
125.8192184707463
 30
0.0
 10
163.0643370445433
 20
125.7476456042998
 30
0.0
 10
162.9981570687976
 20
125.6316923716994
 30
0.0
 10
162.9736187021294
 20
125.5911078368892
 30
0.0
 10
162.9302459565755
 20
125.5269661550174
 30
0.0
 10
162.9147375551503
 20
125.5050997297323
 30
0.0
 10
162.8796949105633
 20
125.4595054613891
 30
0.0
 10
162.8601446198435
 20
125.4358351704217
 30
0.0
 10
162.8182173394729
 20
125.3912186110818
 30
0.0
 10
162.7955652292413
 20
125.3703385985639
 30
0.0
 10
162.7545915151547
 20
125.3394651848132
 30
0.0
 10
162.7369922152593
 20
125.3296263149808
 30
0.0
 10
162.6923652294032
 20
125.3106366992846
 30
0.0
 10
162.6718060067498
 20
125.3103123746312
 30
0.0
 10
162.6206805672532
 20
125.3195358155074
 30
0.0
 10
162.5997691542647
 20
125.3407827117243
 30
0.0
 10
162.5483192467037
 20
125.4147515905551
 30
0.0
 10
162.5306539473991
 20
125.4808696838698
 30
0.0
 10
162.5169951139323
 20
125.5510353968001
 30
0.0
  0
SPLINE
  5
C0
330
1F
100
AcDbEntity
  8
0
  6
Continuous
 62
     7
370
    15
100
AcDbSpline
210
0.0
220
0.0
230
1.0
 70
     8
 71
     3
 72
    10
 73
     6
 74
     0
 42
0.00000001
 43
0.00000001
 40
0.0
 40
0.0
 40
0.0
 40
0.0
 40
0.5
 40
0.5
 40
1.0
 40
1.0
 40
1.0
 40
1.0
 10
163.5942868087907
 20
126.736436744307
 30
0.0
 10
163.5267275538724
 20
126.6687453514972
 30
0.0
 10
163.4630908985359
 20
126.5940381867436
 30
0.0
 10
163.3528701439641
 20
126.4350720543169
 30
0.0
 10
163.3060538507414
 20
126.3507167883089
 30
0.0
 10
163.2784853853134
 20
126.2666021856172
 30
0.0
  0
SPLINE
  5
C1
330
1F
100
AcDbEntity
  8
0
  6
Continuous
 62
     7
370
    15
100
AcDbSpline
210
0.0
220
0.0
230
1.0
 70
     8
 71
     3
 72
     8
 73
     4
 74
     0
 42
0.00000001
 43
0.00000001
 40
0.0
 40
0.0
 40
0.0
 40
0.0
 40
1.0
 40
1.0
 40
1.0
 40
1.0
 10
163.3932413094081
 20
85.43256054905372
 30
0.0
 10
163.428954967778
 20
85.30932904379392
 30
0.0
 10
163.5046230067263
 20
85.18838546684692
 30
0.0
 10
163.5942868087994
 20
85.08166642314367
 30
0.0
  0
SPLINE
  5
C2
330
1F
100
AcDbEntity
  8
0
  6
Continuous
 62
     7
370
    15
100
AcDbSpline
210
0.0
220
0.0
230
1.0
 70
     8
 71
     3
 72
    26
 73
    22
 74
     0
 42
0.00000001
 43
0.00000001
 40
0.0
 40
0.0
 40
0.0
 40
0.0
 40
0.2500000000000057
 40
0.2500000000000057
 40
0.3750000000000081
 40
0.3750000000000081
 40
0.4375000000000087
 40
0.4375000000000087
 40
0.4687500000000086
 40
0.4687500000000086
 40
0.5000000000000085
 40
0.5000000000000085
 40
0.5312500000000084
 40
0.5312500000000084
 40
0.5625000000000084
 40
0.5625000000000084
 40
0.6250000000000082
 40
0.6250000000000082
 40
0.7500000000000062
 40
0.7500000000000062
 40
1.0
 40
1.0
 40
1.0
 40
1.0
 10
162.4846093548176
 20
86.28639529179245
 30
0.0
 10
162.4953333882101
 20
86.38935633228141
 30
0.0
 10
162.5100663788046
 20
86.48835502176247
 30
0.0
 10
162.5624199380516
 20
86.60695070182759
 30
0.0
 10
162.5841252207713
 20
86.64266100177636
 30
0.0
 10
162.6429807281367
 20
86.66764043459807
 30
0.0
 10
162.6664429619838
 20
86.67202588236164
 30
0.0
 10
162.7225643386444
 20
86.65227304891748
 30
0.0
 10
162.745351648775
 20
86.64061665810712
 30
0.0
 10
162.8006042013062
 20
86.59883630866987
 30
0.0
 10
162.8320104340469
 20
86.56856472129398
 30
0.0
 10
162.8869442546674
 20
86.50692232237998
 30
0.0
 10
162.9113680728668
 20
86.4754806700732
 30
0.0
 10
162.9547831788541
 20
86.41574583265944
 30
0.0
 10
162.9743577414224
 20
86.38658082278681
 30
0.0
 10
163.0279904253703
 20
86.30274554705373
 30
0.0
 10
163.0577677734225
 20
86.25071292907751
 30
0.0
 10
163.1393018333954
 20
86.09964725511013
 30
0.0
 10
163.1825446280694
 20
86.0064562132394
 30
0.0
 10
163.2955992177241
 20
85.74206967424502
 30
0.0
 10
163.3496102152033
 20
85.58311150519515
 30
0.0
 10
163.3932413094074
 20
85.43256054905429
 30
0.0
  0
LINE
  5
C3
330
1F
100
AcDbEntity
  8
0
  6
Continuous
 62
     7
370
    15
100
AcDbLine
 10
214.2643317392
 20
126.0123494835
 30
0.0
 11
214.2643317392
 21
126.9266265196
 31
0.0
  0
SPLINE
  5
C4
330
1F
100
AcDbEntity
  8
0
  6
Continuous
 62
     7
370
    15
100
AcDbSpline
210
0.0
220
0.0
230
1.0
 70
     8
 71
     3
 72
     8
 73
     4
 74
     0
 42
0.00000001
 43
0.00000001
 40
0.0
 40
0.0
 40
0.0
 40
0.0
 40
1.0
 40
1.0
 40
1.0
 40
1.0
 10
214.264331739209
 20
126.9266265196026
 30
0.0
 10
214.7436098897988
 20
128.0676377494553
 30
0.0
 10
215.2391777289387
 20
129.2040221602231
 30
0.0
 10
215.746264570698
 20
130.3351725143868
 30
0.0
  0
LINE
  5
C5
330
1F
100
AcDbEntity
  8
0
  6
Continuous
 62
     7
370
    15
100
AcDbLine
 10
215.7462645707
 20
130.3351725144
 30
0.0
 11
219.7043317392
 21
130.3351725144
 31
0.0
  0
SPLINE
  5
C6
330
1F
100
AcDbEntity
  8
0
  6
Continuous
 62
     7
370
    15
100
AcDbSpline
210
0.0
220
0.0
230
1.0
 70
     8
 71
     3
 72
    12
 73
     8
 74
     0
 42
0.00000001
 43
0.00000001
 40
0.0
 40
0.0
 40
0.0
 40
0.0
 40
0.2499999999999967
 40
0.2499999999999967
 40
0.4999999999999933
 40
0.4999999999999933
 40
1.0
 40
1.0
 40
1.0
 40
1.0
 10
219.7043317392089
 20
130.3351725143868
 30
0.0
 10
219.7955314610346
 20
130.3351725143868
 30
0.0
 10
219.8861264701706
 20
130.3069528157988
 30
0.0
 10
220.0395391966173
 20
130.2125098085508
 30
0.0
 10
220.1047480639409
 20
130.1462228318454
 30
0.0
 10
220.2575325932809
 20
129.9205980085572
 30
0.0
 10
220.3043317392089
 20
129.7381717455246
 30
0.0
 10
220.3043317392089
 20
129.5574351132777
 30
0.0
  0
LINE
  5
C7
330
1F
100
AcDbEntity
  8
0
  6
Continuous
 62
     7
370
    15
100
AcDbLine
 10
220.3043317392
 20
129.5574351133
 30
0.0
 11
220.3043317392
 21
125.726482852
 31
0.0
  0
SPLINE
  5
C8
330
1F
100
AcDbEntity
  8
0
  6
Continuous
 62
     7
370
    15
100
AcDbSpline
210
0.0
220
0.0
230
1.0
 70
     8
 71
     3
 72
     8
 73
     4
 74
     0
 42
0.00000001
 43
0.00000001
 40
0.0
 40
0.0
 40
0.0
 40
0.0
 40
1.0
 40
1.0
 40
1.0
 40
1.0
 10
215.746264570698
 20
136.3436783251836
 30
0.0
 10
215.2511245413337
 20
135.4569986770033
 30
0.0
 10
214.7570418360547
 20
134.5697360413173
 30
0.0
 10
214.2643317392089
 20
133.681717043191
 30
0.0
  0
LINE
  5
C9
330
1F
100
AcDbEntity
  8
0
  6
Continuous
 62
     7
370
    15
100
AcDbLine
 10
215.7462645707
 20
130.3351725144
 30
0.0
 11
215.7462645707
 21
136.3436783252
 31
0.0
  0
LINE
  5
CA
330
1F
100
AcDbEntity
  8
0
  6
Continuous
 62
     7
370
    15
100
AcDbLine
 10
214.2643317392
 20
126.9266265196
 30
0.0
 11
214.2643317392
 21
133.6817170432
 31
0.0
  0
SPLINE
  5
CB
330
1F
100
AcDbEntity
  8
0
  6
Continuous
 62
     7
370
    15
100
AcDbSpline
210
0.0
220
0.0
230
1.0
 70
     8
 71
     3
 72
     8
 73
     4
 74
     0
 42
0.00000001
 43
0.00000001
 40
0.0
 40
0.0
 40
0.0
 40
0.0
 40
1.0
 40
1.0
 40
1.0
 40
1.0
 10
210.4443317392089
 20
133.681717043191
 30
0.0
 10
209.9516216423632
 20
134.5697360413173
 30
0.0
 10
209.4575389370842
 20
135.4569986770033
 30
0.0
 10
208.9623989077199
 20
136.3436783251836
 30
0.0
  0
LINE
  5
CC
330
1F
100
AcDbEntity
  8
0
  6
Continuous
 62
     7
370
    15
100
AcDbLine
 10
210.4443317392
 20
126.9266265196
 30
0.0
 11
210.4443317392
 21
133.6817170432
 31
0.0
  0
SPLINE
  5
CD
330
1F
100
AcDbEntity
  8
0
  6
Continuous
 62
     7
370
    15
100
AcDbSpline
210
0.0
220
0.0
230
1.0
 70
     8
 71
     3
 72
     8
 73
     4
 74
     0
 42
0.00000001
 43
0.00000001
 40
0.0
 40
0.0
 40
0.0
 40
0.0
 40
1.0
 40
1.0
 40
1.0
 40
1.0
 10
208.9623989077199
 20
130.3351725143868
 30
0.0
 10
209.4694857494792
 20
129.2040221602231
 30
0.0
 10
209.9650535886191
 20
128.0676377494553
 30
0.0
 10
210.4443317392089
 20
126.9266265196027
 30
0.0
  0
LINE
  5
CE
330
1F
100
AcDbEntity
  8
0
  6
Continuous
 62
     7
370
    15
100
AcDbLine
 10
219.7043317392
 20
136.3436783252
 30
0.0
 11
215.7462645707
 21
136.3436783252
 31
0.0
  0
SPLINE
  5
CF
330
1F
100
AcDbEntity
  8
0
  6
Continuous
 62
     7
370
    15
100
AcDbSpline
210
0.0
220
0.0
230
1.0
 70
     8
 71
     3
 72
    10
 73
     6
 74
     0
 42
0.00000001
 43
0.00000001
 40
0.0
 40
0.0
 40
0.0
 40
0.0
 40
0.5
 40
0.5
 40
1.0
 40
1.0
 40
1.0
 40
1.0
 10
220.3043317392089
 20
135.7229231757832
 30
0.0
 10
220.3043317392089
 20
135.883328442134
 30
0.0
 10
220.2420939081021
 20
136.0423902551226
 30
0.0
 10
220.0229589843595
 20
136.273302720753
 30
0.0
 10
219.8653702893676
 20
136.3436783251836
 30
0.0
 10
219.7043317392089
 20
136.3436783251836
 30
0.0
  0
LINE
  5
D0
330
1F
100
AcDbEntity
  8
0
  6
Continuous
 62
     7
370
    15
100
AcDbLine
 10
220.3043317392
 20
129.5574351133
 30
0.0
 11
220.3043317392
 21
135.7229231758
 31
0.0
  0
LINE
  5
D1
330
1F
100
AcDbEntity
  8
0
  6
Continuous
 62
     7
370
    15
100
AcDbLine
 10
210.4443317392
 20
126.9266265196
 30
0.0
 11
210.4443317392
 21
126.0123494835
 31
0.0
  0
LWPOLYLINE
  5
D2
330
1F
100
AcDbEntity
  8
0
  6
Continuous
 62
     7
370
    15
100
AcDbPolyline
 90
       31
 70
   128
 43
0.0
 10
240.2833125401
 20
132.3388364719
 10
240.3805309877
 20
131.6218649647
 10
240.6240728429
 20
130.9362285528
 10
241.0032941579
 20
130.3118928374
 10
241.5016211416
 20
129.7761442852
 10
242.0972745135
 20
129.3523976787
 10
242.7642213629
 20
129.059172778
 10
243.4733129124
 20
128.9092849183
 10
244.1935584584
 20
128.9092849183
 10
244.8934798145
 20
129.059172778
 10
245.5424870589
 20
129.3523976787
 10
246.1122154608
 20
129.7761442852
 10
246.577765155
 20
130.3118928374
 10
246.918789386
 20
130.9362285528
 10
247.1203837585
 20
131.6218649647
 10
247.173737631
 20
132.3388364719
 10
247.0765191834
 20
133.0558079791
 10
246.8329773282
 20
133.741444391
 10
246.4537560132
 20
134.3657801063
 10
245.9554290295
 20
134.9015286585
 10
245.3597756577
 20
135.325275265
 10
244.6928288082
 20
135.6185001657
 10
243.9837372588
 20
135.7683880254
 10
243.2634917127
 20
135.7683880254
 10
242.5635703566
 20
135.6185001657
 10
241.9145631122
 20
135.325275265
 10
241.3448347103
 20
134.9015286585
 10
240.8792850161
 20
134.3657801063
 10
240.5382607851
 20
133.741444391
 10
240.3366664126
 20
133.0558079791
 10
240.2833125401
 20
132.3388364719
  0
SPLINE
  5
D3
330
1F
100
AcDbEntity
  8
0
  6
Continuous
 62
     7
370
    15
100
AcDbSpline
210
0.0
220
0.0
230
1.0
 70
     8
 71
     3
 72
     8
 73
     4
 74
     0
 42
0.00000001
 43
0.00000001
 40
0.0
 40
0.0
 40
0.0
 40
0.0
 40
1.0
 40
1.0
 40
1.0
 40
1.0
 10
236.6222809316401
 20
84.40955576622535
 30
0.0
 10
236.5991304488955
 20
84.50812691628595
 30
0.0
 10
236.5760133398433
 20
84.60670541535232
 30
0.0
 10
236.552930577519
 20
84.7052914776904
 30
0.0
  0
SPLINE
  5
D4
330
1F
100
AcDbEntity
  8
0
  6
Continuous
 62
     7
370
    15
100
AcDbSpline
210
0.0
220
0.0
230
1.0
 70
     8
 71
     3
 72
    10
 73
     6
 74
     0
 42
0.00000001
 43
0.00000001
 40
0.0
 40
0.0
 40
0.0
 40
0.0
 40
0.5
 40
0.5
 40
1.0
 40
1.0
 40
1.0
 40
1.0
 10
235.58700475123
 20
85.65411456015492
 30
0.0
 10
235.8251139497284
 20
85.62395953722057
 30
0.0
 10
236.0441021227157
 20
85.50109803697818
 30
0.0
 10
236.3813957541954
 20
85.15616699826917
 30
0.0
 10
236.4982005020875
 20
84.93904264457633
 30
0.0
 10
236.552930577519
 20
84.7052914776904
 30
0.0
  0
SPLINE
  5
D5
330
1F
100
AcDbEntity
  8
0
  6
Continuous
 62
     7
370
    15
100
AcDbSpline
210
0.0
220
0.0
230
1.0
 70
     8
 71
     3
 72
    12
 73
     8
 74
     0
 42
0.00000001
 43
0.00000001
 40
0.0
 40
0.0
 40
0.0
 40
0.0
 40
0.2500000000000023
 40
0.2500000000000023
 40
0.5000000000000047
 40
0.5000000000000047
 40
1.0
 40
1.0
 40
1.0
 40
1.0
 10
236.552930577519
 20
131.35820445987
 30
0.0
 10
236.5254765482528
 20
131.2426300172122
 30
0.0
 10
236.4830019564151
 20
131.1343218960322
 30
0.0
 10
236.3693233858818
 20
130.9316037323749
 30
0.0
 10
236.2968857190529
 20
130.8367058797239
 30
0.0
 10
236.0463220024303
 20
130.5954510292696
 30
0.0
 10
235.8261741676497
 20
130.4841755741275
 30
0.0
 10
235.58700475123
 20
130.4685324705202
 30
0.0
  0
SPLINE
  5
D6
330
1F
100
AcDbEntity
  8
0
  6
Continuous
 62
     7
370
    15
100
AcDbSpline
210
0.0
220
0.0
230
1.0
 70
     8
 71
     3
 72
     8
 73
     4
 74
     0
 42
0.00000001
 43
0.00000001
 40
0.0
 40
0.0
 40
0.0
 40
0.0
 40
1.0
 40
1.0
 40
1.0
 40
1.0
 10
236.552930577519
 20
131.35820445987
 30
0.0
 10
237.0591002338889
 20
133.4890492753205
 30
0.0
 10
237.5813004546733
 20
135.6153824282688
 30
0.0
 10
238.11227706254
 20
137.739245543639
 30
0.0
  0
LINE
  5
D7
330
1F
100
AcDbEntity
  8
0
  6
Continuous
 62
     7
370
    15
100
AcDbLine
 10
238.1122770625
 20
137.7392455436
 30
0.0
 11
256.5524141691
 21
138.1410362234
 31
0.0
  0
LINE
  5
D8
330
1F
100
AcDbEntity
  8
0
  6
Continuous
 62
     7
370
    15
100
AcDbLine
 10
256.5524141691
 20
138.1410362234
 30
0.0
 11
256.5598050447
 21
138.1526377966
 31
0.0
  0
ARC
  5
D9
330
1F
100
AcDbEntity
  8
0
  6
Continuous
 62
     7
370
    15
100
AcDbCircle
 10
264.7260085083
 20
136.6559073242
 30
0.0
 40
8.30223350165382
100
AcDbArc
 50
169.6139037879
 51
180.0142043085
  0
LINE
  5
DA
330
1F
100
AcDbEntity
  8
0
  6
Continuous
 62
     7
370
    15
100
AcDbLine
 10
256.4237752618
 20
136.6538491013
 30
0.0
 11
256.4237752618
 21
105.3125185386
 31
0.0
  0
LINE
  5
DB
330
1F
100
AcDbEntity
  8
0
  6
Continuous
 62
     7
370
    15
100
AcDbLine
 10
256.4237752618
 20
105.3125185386
 30
0.0
 11
241.0929403852
 21
83.8872299374
 31
0.0
  0
ELLIPSE
  5
DC
330
1F
100
AcDbEntity
  8
0
  6
Continuous
 62
     7
370
    15
100
AcDbEllipse
 10
306.9430494798
 20
105.876482852
 30
0.0
 11
153.1223127030618
 21
-4.83405429075485
 31
0.0
210
0.0
220
0.0
230
0.9999999999999999
 40
0.1734804855
 41
4.24072753194409
 42
4.273325693299094
  0
LINE
  5
DD
330
1F
100
AcDbEntity
  8
0
  6
Continuous
 62
     7
370
    15
100
AcDbLine
 10
236.6222809316
 20
84.4095557662
 30
0.0
 11
236.6222809316
 21
78.876482852
 31
0.0
  0
ELLIPSE
  5
DE
330
1F
100
AcDbEntity
  8
0
  6
Continuous
 62
     7
370
    15
100
AcDbEllipse
 10
256.3770259453
 20
105.876482852
 30
0.0
 11
19.75908128153321
 21
26.99227138525077
 31
0.0
210
0.0
220
0.0
230
1.0
 40
0.0326926316
 41
3.165519987239061
 42
3.784592904297519
  0
LINE
  5
DF
330
1F
100
AcDbEntity
  8
0
  6
Continuous
 62
     7
370
    15
100
AcDbLine
 10
163.6043317392
 20
85.063982852
 30
0.0
 11
163.6043317392
 21
85.0698512935
 31
0.0
  0
SPLINE
  5
E0
330
1F
100
AcDbEntity
  8
0
  6
Continuous
 62
     7
370
    15
100
AcDbSpline
210
0.0
220
0.0
230
1.0
 70
     8
 71
     3
 72
     8
 73
     4
 74
     0
 42
0.00000001
 43
0.00000001
 40
0.0
 40
0.0
 40
0.0
 40
0.0
 40
1.0
 40
1.0
 40
1.0
 40
1.0
 10
239.1647769574213
 20
141.9040472300408
 30
0.0
 10
238.8975558072314
 20
141.382228493821
 30
0.0
 10
238.7263721245058
 20
140.8644366815867
 30
0.0
 10
238.6689851278855
 20
140.3514164508699
 30
0.0
  0
LINE
  5
E1
330
1F
100
AcDbEntity
  8
0
  6
Continuous
 62
     7
370
    15
100
AcDbLine
 10
238.6689851279
 20
140.3514164509
 30
0.0
 11
237.7614325038
 21
137.0177769717
 31
0.0
  0
SPLINE
  5
E2
330
1F
100
AcDbEntity
  8
0
  6
Continuous
 62
     7
370
    15
100
AcDbSpline
210
0.0
220
0.0
230
1.0
 70
     8
 71
     3
 72
    10
 73
     6
 74
     0
 42
0.00000001
 43
0.00000001
 40
0.0
 40
0.0
 40
0.0
 40
0.0
 40
0.3192400430261541
 40
0.6595646590833102
 40
1.0
 40
1.0
 40
1.0
 40
1.0
 10
237.6196433560924
 20
136.5938957050801
 30
0.0
 10
237.6556007369141
 20
136.7151198484286
 30
0.0
 10
237.7298903448166
 20
136.9655745220415
 30
0.0
 10
237.8953842889356
 20
137.3474931224382
 30
0.0
 10
238.0399716323477
 20
137.6086472444283
 30
0.0
 10
238.11227706254
 20
137.739245543639
 30
0.0
  0
LINE
  5
E3
330
1F
100
AcDbEntity
  8
0
  6
Continuous
 62
     7
370
    15
100
AcDbLine
 10
240.79296398
 20
148.2158964986
 30
0.0
 11
240.79296398
 21
148.4416838909
 31
0.0
  0
SPLINE
  5
E4
330
1F
100
AcDbEntity
  8
0
  6
Continuous
 62
     7
370
    15
100
AcDbSpline
210
0.0
220
0.0
230
1.0
 70
     8
 71
     3
 72
     8
 73
     4
 74
     0
 42
0.00000001
 43
0.00000001
 40
0.0
 40
0.0
 40
0.0
 40
0.0
 40
1.0
 40
1.0
 40
1.0
 40
1.0
 10
239.1647769574213
 20
141.9040472300408
 30
0.0
 10
239.7019660287297
 20
144.0095561529351
 30
0.0
 10
240.2454798428746
 20
146.1132850321358
 30
0.0
 10
240.7929639800334
 20
148.2158964985617
 30
0.0
  0
LINE
  5
E5
330
1F
100
AcDbEntity
  8
0
  6
Continuous
 62
     7
370
    15
100
AcDbLine
 10
243.9807921771
 20
142.0089830024
 30
0.0
 11
239.1647769574
 21
141.90404723
 31
0.0
  0
ELLIPSE
  5
E6
330
1F
100
AcDbEntity
  8
0
  6
Continuous
 62
     7
370
    15
100
AcDbEllipse
 10
392.053843182
 20
103.270487471
 30
0.0
 11
286.3530075113734
 21
-9.015396293139375
 31
0.0
210
0.0
220
0.0
230
0.9999999999999999
 40
0.1656412093
 41
2.10207869050274
 42
2.132520030965874
  0
LINE
  5
E7
330
1F
100
AcDbEntity
  8
0
  6
Continuous
 62
     7
370
    15
100
AcDbLine
 10
248.2636182734
 20
148.7318022383
 30
0.0
 11
243.9807921771
 21
142.0089830024
 31
0.0
  0
LINE
  5
E8
330
1F
100
AcDbEntity
  8
0
  6
Continuous
 62
     7
370
    15
100
AcDbLine
 10
242.379755979
 20
140.4322701416
 30
0.0
 11
243.9807921771
 21
142.0089830024
 31
0.0
  0
LINE
  5
E9
330
1F
100
AcDbEntity
  8
0
  6
Continuous
 62
     7
370
    15
100
AcDbLine
 10
242.379755979
 20
140.4322701416
 30
0.0
 11
238.6689851279
 21
140.3514164509
 31
0.0
  0
ELLIPSE
  5
EA
330
1F
100
AcDbEntity
  8
0
  6
Continuous
 62
     7
370
    15
100
AcDbEllipse
 10
220.9290429782
 20
107.3029496797
 30
0.0
 11
27.28392697985279
 21
41.50632949203899
 31
0.0
210
0.0
220
0.0
230
1.0
 40
0.0443290021
 41
6.244626074161225
 42
6.315758914868543
  0
LINE
  5
EB
330
1F
100
AcDbEntity
  8
0
  6
Continuous
 62
     7
370
    15
100
AcDbLine
 10
256.5598050447
 20
138.1526377966
 30
0.0
 11
256.5479251794
 21
138.1409384132
 31
0.0
  0
LINE
  5
EC
330
1F
100
AcDbEntity
  8
0
  6
Continuous
 62
     7
370
    15
100
AcDbLine
 10
242.1128163231
 20
137.8765809148
 30
0.0
 11
256.3997262677
 21
138.1878772584
 31
0.0
  0
ARC
  5
ED
330
1F
100
AcDbEntity
  8
0
  6
Continuous
 62
     7
370
    15
100
AcDbCircle
 10
242.1033889065
 20
138.2802326177
 30
0.0
 40
0.4037617781518273
100
AcDbArc
 50
148.7702271627
 51
271.3379183017
  0
LINE
  5
EE
330
1F
100
AcDbEntity
  8
0
  6
Continuous
 62
     7
370
    15
100
AcDbLine
 10
249.3394329573
 20
150.3900549476
 30
0.0
 11
241.7581342449
 21
138.4895715585
 31
0.0
  0
ARC
  5
EF
330
1F
100
AcDbEntity
  8
0
  6
Continuous
 62
     7
370
    15
100
AcDbCircle
 10
249.6594226352
 20
150.1852078331
 30
0.0
 40
0.3799417511815876
100
AcDbArc
 50
90.9863332564
 51
147.3739335617
  0
LINE
  5
F0
330
1F
100
AcDbEntity
  8
0
  6
Continuous
 62
     7
370
    15
100
AcDbLine
 10
263.9397922958
 20
150.8763896319
 30
0.0
 11
249.6528823511
 21
150.5650932882
 31
0.0
  0
ARC
  5
F1
330
1F
100
AcDbEntity
  8
0
  6
Continuous
 62
     7
370
    15
100
AcDbCircle
 10
263.9492197124
 20
150.4727379289
 30
0.0
 40
0.4037617781518612
100
AcDbArc
 50
328.7702271627
 51
91.3379183017
  0
LINE
  5
F2
330
1F
100
AcDbEntity
  8
0
  6
Continuous
 62
     7
370
    15
100
AcDbLine
 10
256.7131756616
 20
138.362915599
 30
0.0
 11
264.294474374
 21
150.2633989882
 31
0.0
  0
ARC
  5
F3
330
1F
100
AcDbEntity
  8
0
  6
Continuous
 62
     7
370
    15
100
AcDbCircle
 10
256.3931859836
 20
138.5677627135
 30
0.0
 40
0.3799417511816888
100
AcDbArc
 50
270.9863332564
 51
327.3739335617
  0
ARC
  5
F4
330
1F
100
AcDbEntity
  8
0
  6
Continuous
 62
     7
370
    15
100
AcDbCircle
 10
263.9497791587
 20
150.4732197895
 30
0.0
 40
0.383573689244307
100
AcDbArc
 50
328.7702271627
 51
91.3379183017
  0
LINE
  5
F5
330
1F
100
AcDbEntity
  8
0
  6
Continuous
 62
     7
370
    15
100
AcDbLine
 10
263.9408231129
 20
150.8566889073
 30
0.0
 11
249.6539131683
 21
150.5453925633
 31
0.0
  0
ARC
  5
F6
330
1F
100
AcDbEntity
  8
0
  6
Continuous
 62
     7
370
    15
100
AcDbCircle
 10
249.6601264386
 20
150.1845013798
 30
0.0
 40
0.3609446647823079
100
AcDbArc
 50
90.9863333245
 51
147.373933402
  0
LINE
  5
F7
330
1F
100
AcDbEntity
  8
0
  6
Continuous
 62
     7
370
    15
100
AcDbLine
 10
249.3561362441
 20
150.3791061401
 30
0.0
 11
241.7748375317
 21
138.478622751
 31
0.0
  0
ARC
  5
F8
330
1F
100
AcDbEntity
  8
0
  6
Continuous
 62
     7
370
    15
100
AcDbCircle
 10
242.1028294603
 20
138.2797507572
 30
0.0
 40
0.3835736892442827
100
AcDbArc
 50
148.7702271627
 51
271.3379183017
  0
LINE
  5
F9
330
1F
100
AcDbEntity
  8
0
  6
Continuous
 62
     7
370
    15
100
AcDbLine
 10
242.111785506
 20
137.8962816394
 30
0.0
 11
256.3986954507
 21
138.2075779831
 31
0.0
  0
ARC
  5
FA
330
1F
100
AcDbEntity
  8
0
  6
Continuous
 62
     7
370
    15
100
AcDbCircle
 10
256.3924821808
 20
138.5684691654
 30
0.0
 40
0.3609446636224752
100
AcDbArc
 50
270.9863332564
 51
327.3739335617
  0
LINE
  5
FB
330
1F
100
AcDbEntity
  8
0
  6
Continuous
 62
     7
370
    15
100
AcDbLine
 10
256.6964723748
 20
138.3738644066
 30
0.0
 11
264.2777710872
 21
150.2743477958
 31
0.0
  0
LINE
  5
FC
330
1F
100
AcDbEntity
  8
0
  6
Continuous
 62
     7
370
    15
100
AcDbLine
 10
242.0541027685
 20
138.2330769768
 30
0.0
 11
242.111785506
 21
137.8962816394
 31
0.0
  0
LINE
  5
FD
330
1F
100
AcDbEntity
  8
0
  6
Continuous
 62
     7
370
    15
100
AcDbLine
 10
242.0541027685
 20
138.2330769768
 30
0.0
 11
241.7748375317
 21
138.478622751
 31
0.0
  0
LINE
  5
FE
330
1F
100
AcDbEntity
  8
0
  6
Continuous
 62
     7
370
    15
100
AcDbLine
 10
256.3410127132
 20
138.5443733205
 30
0.0
 11
256.3986954507
 21
138.2075779831
 31
0.0
  0
LINE
  5
FF
330
1F
100
AcDbEntity
  8
0
  6
Continuous
 62
     7
370
    15
100
AcDbLine
 10
243.8013116474
 20
139.165775758
 30
0.0
 11
242.0541027685
 21
138.2330769768
 31
0.0
  0
LINE
  5
100
330
1F
100
AcDbEntity
  8
0
  6
Continuous
 62
     7
370
    15
100
AcDbLine
 10
243.8013116474
 20
139.165775758
 30
0.0
 11
244.4653698757
 21
139.1802448699
 31
0.0
  0
LINE
  5
101
330
1F
100
AcDbEntity
  8
0
  6
Continuous
 62
     7
370
    15
100
AcDbLine
 10
256.0541760357
 20
138.9225635029
 30
0.0
 11
256.3410127132
 21
138.5443733205
 31
0.0
  0
LINE
  5
102
330
1F
100
AcDbEntity
  8
0
  6
Continuous
 62
     7
370
    15
100
AcDbLine
 10
248.5128676316
 20
149.5760470065
 30
0.0
 11
248.0318972805
 21
148.8210603095
 31
0.0
  0
LINE
  5
103
330
1F
100
AcDbEntity
  8
0
  6
Continuous
 62
     7
370
    15
100
AcDbLine
 10
243.2063213047
 20
141.2462780827
 30
0.0
 11
241.0123939661
 21
137.80243596
 31
0.0
  0
LINE
  5
104
330
1F
100
AcDbEntity
  8
0
  6
Continuous
 62
     7
370
    15
100
AcDbLine
 10
249.635401481
 20
150.1335603659
 30
0.0
 11
249.3561362441
 21
150.3791061401
 31
0.0
  0
LINE
  5
105
330
1F
100
AcDbEntity
  8
0
  6
Continuous
 62
     7
370
    15
100
AcDbLine
 10
249.8355882577
 20
149.6700366895
 30
0.0
 11
249.635401481
 21
150.1335603659
 31
0.0
  0
LINE
  5
106
330
1F
100
AcDbEntity
  8
0
  6
Continuous
 62
     7
370
    15
100
AcDbLine
 10
244.1536918199
 20
139.7189124367
 30
0.0
 11
243.8013116474
 21
139.165775758
 31
0.0
  0
ARC
  5
107
330
1F
100
AcDbEntity
  8
0
  6
Continuous
 62
     7
370
    15
100
AcDbCircle
 10
246.9348535287
 20
140.9833323752
 30
0.0
 40
1.009404445379646
100
AcDbArc
 50
148.7702271627
 51
271.3379183017
  0
LINE
  5
108
330
1F
100
AcDbEntity
  8
0
  6
Continuous
 62
     7
370
    15
100
AcDbLine
 10
244.7430731406
 20
139.6930073501
 30
0.0
 11
244.7442340584
 21
139.6910009568
 31
0.0
  0
SPLINE
  5
109
330
1F
100
AcDbEntity
  8
0
  6
Continuous
 62
     7
370
    15
100
AcDbSpline
210
0.0
220
0.0
230
1.0
 70
     8
 71
     3
 72
    14
 73
    10
 74
     0
 42
0.00000001
 43
0.00000001
 40
0.0
 40
0.0
 40
0.0
 40
0.0
 40
0.2234968253973993
 40
0.3567622963774759
 40
0.4531212562341042
 40
0.534461904150058
 40
0.6157317558035387
 40
0.7396161778922177
 40
1.0
 40
1.0
 40
1.0
 40
1.0
 10
244.4653698757031
 20
139.1802448699088
 30
0.0
 10
244.5240174910406
 20
139.184060784893
 30
0.0
 10
244.6176351873442
 20
139.1901520329013
 30
0.0
 10
244.7292050013571
 20
139.2321805461491
 30
0.0
 10
244.7937793842258
 20
139.2821741379061
 30
0.0
 10
244.8294814721523
 20
139.3405479636633
 30
0.0
 10
244.8438812868411
 20
139.4151123413169
 30
0.0
 10
244.8257964249204
 20
139.5387824504166
 30
0.0
 10
244.7771782182874
 20
139.6295178117601
 30
0.0
 10
244.7442340584243
 20
139.6910009567865
 30
0.0
  0
SPLINE
  5
10A
330
1F
100
AcDbEntity
  8
0
  6
Continuous
 62
     7
370
    15
100
AcDbSpline
210
0.0
220
0.0
230
1.0
 70
     8
 71
     3
 72
    14
 73
    10
 74
     0
 42
0.00000001
 43
0.00000001
 40
0.0
 40
0.0
 40
0.0
 40
0.0
 40
0.2210591904779448
 40
0.3460797326519059
 40
0.4396016244131357
 40
0.5338897453199583
 40
0.6146561933587252
 40
0.7517253237593559
 40
1.0
 40
1.0
 40
1.0
 40
1.0
 10
244.7430731406012
 20
139.6930073501383
 30
0.0
 10
244.711933919572
 20
139.74316644106
 30
0.0
 10
244.6631838392634
 20
139.8216931231613
 30
0.0
 10
244.5765654082563
 20
139.9025594203731
 30
0.0
 10
244.5011374975506
 20
139.9405602021785
 30
0.0
 10
244.4287179175276
 20
139.9465994991433
 30
0.0
 10
244.3497945899161
 20
139.9236330579541
 30
0.0
 10
244.2487477076549
 20
139.8537230686014
 30
0.0
 10
244.1909381604003
 20
139.7717361262037
 30
0.0
 10
244.1536918199093
 20
139.7189124367375
 30
0.0
  0
LINE
  5
10B
330
1F
100
AcDbEntity
  8
0
  6
Continuous
 62
     7
370
    15
100
AcDbLine
 10
246.9584220701
 20
139.9742031177
 30
0.0
 11
254.9542893165
 21
140.1484244328
 31
0.0
  0
LINE
  5
10C
330
1F
100
AcDbEntity
  8
0
  6
Continuous
 62
     7
370
    15
100
AcDbLine
 10
250.3146958179
 20
148.1669502625
 30
0.0
 11
246.0717168746
 21
141.5066797271
 31
0.0
  0
ARC
  5
10D
330
1F
100
AcDbEntity
  8
0
  6
Continuous
 62
     7
370
    15
100
AcDbCircle
 10
251.1146700127
 20
147.6548324763
 30
0.0
 40
0.9498543779538006
100
AcDbArc
 50
90.9863332564
 51
147.3739335617
  0
LINE
  5
10E
330
1F
100
AcDbEntity
  8
0
  6
Continuous
 62
     7
370
    15
100
AcDbLine
 10
259.0941865488
 20
148.778767429
 30
0.0
 11
251.0983193025
 21
148.604546114
 31
0.0
  0
ARC
  5
10F
330
1F
100
AcDbEntity
  8
0
  6
Continuous
 62
     7
370
    15
100
AcDbCircle
 10
259.1177550906
 20
147.7696381716
 30
0.0
 40
1.009404445368976
100
AcDbArc
 50
328.7702271484
 51
91.3379183219
  0
LINE
  5
110
330
1F
100
AcDbEntity
  8
0
  6
Continuous
 62
     7
370
    15
100
AcDbLine
 10
255.737912801
 20
140.5860202842
 30
0.0
 11
259.9808917445
 21
147.2462908195
 31
0.0
  0
ARC
  5
111
330
1F
100
AcDbEntity
  8
0
  6
Continuous
 62
     7
370
    15
100
AcDbCircle
 10
254.9379386062
 20
141.0981380704
 30
0.0
 40
0.9498543779536281
100
AcDbArc
 50
270.9863332564
 51
327.3739335617
  0
LWPOLYLINE
  5
112
330
1F
100
AcDbEntity
  8
0
  6
Continuous
 62
     7
370
    15
100
AcDbPolyline
 90
       27
 70
   128
 43
0.0
 10
255.1810283067
 20
142.9640890956
 10
255.4406355765
 20
143.5109239689
 10
255.5599306887
 20
144.108062119
 10
255.5319806452
 20
144.7208000472
 10
255.3584098008
 20
145.3135276522
 10
255.0493054621
 20
145.8517977602
 10
254.6226316497
 20
146.304328069
 10
254.1031850947
 20
146.6448191619
 10
253.5211541428
 20
146.8534829343
 10
252.9103643172
 20
146.9181926062
 10
252.3063125026
 20
146.8351874866
 10
251.7441039948
 20
146.6092915313
 10
251.2564123086
 20
146.2536329923
 10
250.8715803122
 20
145.788881451
 10
250.6119730424
 20
145.2420465777
 10
250.4926779301
 20
144.6449084276
 10
250.5206279737
 20
144.0321704995
 10
250.6941988181
 20
143.4394428944
 10
251.0033031568
 20
142.9011727864
 10
251.4299769692
 20
142.4486424777
 10
251.9494235242
 20
142.1081513847
 10
252.5314544761
 20
141.8994876123
 10
253.1422443016
 20
141.8347779405
 10
253.7462961162
 20
141.9177830601
 10
254.3085046241
 20
142.1436790153
 10
254.7961963103
 20
142.4993375543
 10
255.1810283067
 20
142.9640890956
  0
LINE
  5
113
330
1F
100
AcDbEntity
  8
0
  6
Continuous
 62
     7
370
    15
100
AcDbLine
 10
254.354462981
 20
142.1500811545
 30
0.0
 11
254.5718204465
 21
142.5793994791
 31
0.0
  0
ARC
  5
114
330
1F
100
AcDbEntity
  8
0
  6
Continuous
 62
     7
370
    15
100
AcDbCircle
 10
252.1185080201
 20
143.6199193745
 30
0.0
 40
2.484734765878728
100
AcDbArc
 50
87.65587781
 51
120.6444517196
  0
SPLINE
  5
115
330
1F
100
AcDbEntity
  8
0
  6
Continuous
 62
     7
370
    15
100
AcDbSpline
210
0.0
220
0.0
230
1.0
 70
     8
 71
     3
 72
    11
 73
     7
 74
     0
 42
0.00000001
 43
0.00000001
 40
0.0
 40
0.0
 40
0.0
 40
0.0
 40
0.3280455501580181
 40
0.6557028173712002
 40
0.9906967996087704
 40
0.9999999999999999
 40
0.9999999999999999
 40
0.9999999999999999
 40
0.9999999999999999
 10
256.0541760356696
 20
138.9225635029043
 30
0.0
 10
256.0119254694957
 20
138.9818854955105
 30
0.0
 10
255.9274743459784
 20
139.100459265724
 30
0.0
 10
255.8071587189573
 20
139.3143182612507
 30
0.0
 10
255.7397606695156
 20
139.4574992192276
 30
0.0
 10
255.7109275946966
 20
139.5267976165158
 30
0.0
 10
255.7101485006857
 20
139.5286701176843
 30
0.0
  0
LINE
  5
116
330
1F
100
AcDbEntity
  8
0
  6
Continuous
 62
     7
370
    15
100
AcDbLine
 10
256.3410127132
 20
138.5443733205
 30
0.0
 11
256.6964723748
 21
138.3738644066
 31
0.0
  0
LINE
  5
117
330
1F
100
AcDbEntity
  8
0
  6
Continuous
 62
     7
370
    15
100
AcDbLine
 10
261.9734598873
 20
149.313578674
 30
0.0
 11
263.9223114256
 21
150.4448567096
 31
0.0
  0
LINE
  5
118
330
1F
100
AcDbEntity
  8
0
  6
Continuous
 62
     7
370
    15
100
AcDbLine
 10
263.9223114256
 20
150.4448567096
 30
0.0
 11
264.2777710872
 21
150.2743477958
 31
0.0
  0
LINE
  5
119
330
1F
100
AcDbEntity
  8
0
  6
Continuous
 62
     7
370
    15
100
AcDbLine
 10
261.6210797148
 20
148.7604419953
 30
0.0
 11
261.9734598873
 21
149.313578674
 31
0.0
  0
SPLINE
  5
11A
330
1F
100
AcDbEntity
  8
0
  6
Continuous
 62
     7
370
    15
100
AcDbSpline
210
0.0
220
0.0
230
1.0
 70
     8
 71
     3
 72
    11
 73
     7
 74
     0
 42
0.00000001
 43
0.00000001
 40
0.0
 40
0.0
 40
0.0
 40
0.0
 40
0.32804555015787
 40
0.6557028173708704
 40
0.9906967996087332
 40
0.9999999999999999
 40
0.9999999999999999
 40
0.9999999999999999
 40
0.9999999999999999
 10
249.8355882576826
 20
149.6700366894514
 30
0.0
 10
249.8677404483231
 20
149.6007697383271
 30
0.0
 10
249.9320067734645
 20
149.4623178221801
 30
0.0
 10
250.0566861821781
 20
149.2527563126965
 30
0.0
 10
250.1437652052758
 20
149.1289573301627
 30
0.0
 10
250.1869484974704
 20
149.0737911382031
 30
0.0
 10
250.1881153464633
 20
149.0723005011473
 30
0.0
  0
LINE
  5
11B
330
1F
100
AcDbEntity
  8
0
  6
Continuous
 62
     7
370
    15
100
AcDbLine
 10
249.635401481
 20
150.1335603659
 30
0.0
 11
249.6539131683
 21
150.5453925633
 31
0.0
  0
LINE
  5
11C
330
1F
100
AcDbEntity
  8
0
  6
Continuous
 62
     7
370
    15
100
AcDbLine
 10
263.9223114256
 20
150.4448567096
 30
0.0
 11
263.9408231129
 21
150.8566889073
 31
0.0
  0
LINE
  5
11D
330
1F
100
AcDbEntity
  8
0
  6
Continuous
 62
     7
370
    15
100
AcDbLine
 10
261.9734598873
 20
149.313578674
 30
0.0
 11
261.309401659
 21
149.2991095622
 31
0.0
  0
LWPOLYLINE
  5
11E
330
1F
100
AcDbEntity
  8
0
  6
Continuous
 62
     7
370
    15
100
AcDbPolyline
 90
        3
 70
   128
 43
0.0
 10
248.5662638304
 20
149.6420701722
 10
248.5402575071
 20
149.6136962859
 10
248.5128676316
 20
149.5760470065
  0
LINE
  5
11F
330
1F
100
AcDbEntity
  8
0
  6
Continuous
 62
     7
370
    15
100
AcDbLine
 10
261.0316983941
 20
148.7863470819
 30
0.0
 11
261.0305374762
 21
148.7883534753
 31
0.0
  0
SPLINE
  5
120
330
1F
100
AcDbEntity
  8
0
  6
Continuous
 62
     7
370
    15
100
AcDbSpline
210
0.0
220
0.0
230
1.0
 70
     8
 71
     3
 72
    14
 73
    10
 74
     0
 42
0.00000001
 43
0.00000001
 40
0.0
 40
0.0
 40
0.0
 40
0.0
 40
0.2210591904779317
 40
0.3460797326519371
 40
0.4396016244131781
 40
0.5338897453200155
 40
0.614656193358805
 40
0.7517253237593684
 40
1.0
 40
1.0
 40
1.0
 40
1.0
 10
261.0316983940647
 20
148.7863470819225
 30
0.0
 10
261.0628376150939
 20
148.7361879910009
 30
0.0
 10
261.1115876954025
 20
148.6576613088996
 30
0.0
 10
261.1982061264096
 20
148.5767950116878
 30
0.0
 10
261.2736340371154
 20
148.5387942298823
 30
0.0
 10
261.3460536171384
 20
148.5327549329174
 30
0.0
 10
261.4249769447497
 20
148.5557213741068
 30
0.0
 10
261.5260238270111
 20
148.6256313634595
 30
0.0
 10
261.5838333742657
 20
148.7076183058571
 30
0.0
 10
261.6210797147567
 20
148.7604419953233
 30
0.0
  0
SPLINE
  5
121
330
1F
100
AcDbEntity
  8
0
  6
Continuous
 62
     7
370
    15
100
AcDbSpline
210
0.0
220
0.0
230
1.0
 70
     8
 71
     3
 72
    14
 73
    10
 74
     0
 42
0.00000001
 43
0.00000001
 40
0.0
 40
0.0
 40
0.0
 40
0.0
 40
0.2234968253973907
 40
0.356762296377468
 40
0.4531212562341366
 40
0.5344619041499963
 40
0.6157317558035551
 40
0.739616177892202
 40
0.9999999999999999
 40
0.9999999999999999
 40
0.9999999999999999
 40
0.9999999999999999
 10
261.3094016589628
 20
149.2991095621522
 30
0.0
 10
261.2507540436254
 20
149.2952936471679
 30
0.0
 10
261.1571363473218
 20
149.2892023991595
 30
0.0
 10
261.0455665333089
 20
149.2471738859117
 30
0.0
 10
260.9809921504402
 20
149.1971802941547
 30
0.0
 10
260.9452900625137
 20
149.1388064683976
 30
0.0
 10
260.9308902478248
 20
149.064242090744
 30
0.0
 10
260.9489751097455
 20
148.9405719816442
 30
0.0
 10
260.9975933163785
 20
148.8498366203007
 30
0.0
 10
261.0305374762416
 20
148.7883534752744
 30
0.0
  0
LINE
  5
122
330
1F
100
AcDbEntity
  8
0
  6
Continuous
 62
     7
370
    15
100
AcDbLine
 10
248.3498670729
 20
149.3201824753
 30
0.0
 11
248.0318972805
 21
148.8210603095
 31
0.0
  0
LINE
  5
123
330
1F
100
AcDbEntity
  8
0
  6
Continuous
 62
     7
370
    15
100
AcDbLine
 10
243.2063213047
 20
141.2462780827
 30
0.0
 11
241.533069071
 21
138.6197478313
 31
0.0
  0
LINE
  5
124
330
1F
100
AcDbEntity
  8
0
  6
Continuous
 62
     7
370
    15
100
AcDbLine
 10
240.7585981986
 20
137.8570429117
 30
0.0
 11
240.7229160917
 21
137.7961285497
 31
0.0
  0
LINE
  5
125
330
1F
100
AcDbEntity
  8
0
  6
Continuous
 62
     7
370
    15
100
AcDbLine
 10
242.4318504323
 20
140.4835731631
 30
0.0
 11
240.7585981986
 21
137.8570429117
 31
0.0
  0
LINE
  5
126
330
1F
100
AcDbEntity
  8
0
  6
HIDDEN
 62
     7
370
     0
100
AcDbLine
 10
199.3043317392
 20
74.376482852
 30
0.0
 11
199.3043317392
 21
74.3923598692
 31
0.0
  0
SPLINE
  5
127
330
1F
100
AcDbEntity
  8
0
  6
HIDDEN
 62
     7
370
     0
100
AcDbSpline
210
0.0
220
0.0
230
1.0
 70
     8
 71
     3
 72
    30
 73
    26
 74
     0
 42
0.00000001
 43
0.00000001
 40
0.0
 40
0.0
 40
0.0
 40
0.0
 40
0.125
 40
0.125
 40
0.1875000000000001
 40
0.1875000000000001
 40
0.2500000000000001
 40
0.2500000000000001
 40
0.3750000000000001
 40
0.3750000000000001
 40
0.4375000000000001
 40
0.4375000000000001
 40
0.5000000000000001
 40
0.5000000000000001
 40
0.625
 40
0.625
 40
0.6875
 40
0.6875
 40
0.75
 40
0.75
 40
0.8125000000000001
 40
0.8125000000000001
 40
0.8750000000000001
 40
0.8750000000000001
 40
1.0
 40
1.0
 40
1.0
 40
1.0
 10
199.3043317392089
 20
74.39235986915702
 30
0.0
 10
199.3043317392089
 20
74.40923878716562
 30
0.0
 10
199.3567493051873
 20
74.43925635199031
 30
0.0
 10
199.5101287850896
 20
74.50206674126342
 30
0.0
 10
199.5738099057574
 20
74.52597064849031
 30
0.0
 10
199.7267647732091
 20
74.5794059409327
 30
0.0
 10
199.8163370719783
 20
74.60901280910026
 30
0.0
 10
200.1175611048315
 20
74.70346250781469
 30
0.0
 10
200.3628761009156
 20
74.77448990164392
 30
0.0
 10
200.7969730819858
 20
74.88850418834966
 30
0.0
 10
200.9536427710895
 20
74.92795943949024
 30
0.0
 10
201.2856359349319
 20
75.00748088226091
 30
0.0
 10
201.4603414639244
 20
75.0474170247617
 30
0.0
 10
202.0100111465159
 20
75.16635342758984
 30
0.0
 10
202.4102621092272
 20
75.24451819147369
 30
0.0
 10
203.0638489758647
 20
75.3542276317426
 30
0.0
 10
203.2895250955418
 20
75.38930846845099
 30
0.0
 10
203.7492369166731
 20
75.4545487478306
 30
0.0
 10
203.9842902507162
 20
75.48488356387536
 30
0.0
 10
204.4647975330152
 20
75.5402219430972
 30
0.0
 10
204.7102510609293
 20
75.56522661965728
 30
0.0
 10
205.2118664857367
 20
75.60910642854797
 30
0.0
 10
205.4693588683372
 20
75.62805011331028
 30
0.0
 10
206.2474353847734
 20
75.67376984058043
 30
0.0
 10
206.7725976620182
 20
75.68956515577217
 30
0.0
 10
207.3043317392089
 20
75.68956515577219
 30
0.0
  0
LINE
  5
128
330
1F
100
AcDbEntity
  8
0
  6
HIDDEN
 62
     7
370
     0
100
AcDbLine
 10
207.3043317392
 20
75.6895651558
 30
0.0
 11
208.9623989077
 21
75.6895651558
 31
0.0
  0
LINE
  5
129
330
1F
100
AcDbEntity
  8
0
  6
HIDDEN
 62
     7
370
     0
100
AcDbLine
 10
208.9623989077
 20
136.3436783252
 30
0.0
 11
208.9623989077
 21
75.6895651558
 31
0.0
  0
LINE
  5
12A
330
1F
100
AcDbEntity
  8
0
  6
HIDDEN
 62
     7
370
     0
100
AcDbLine
 10
207.3043317392
 20
136.3436783252
 30
0.0
 11
208.9623989077
 21
136.3436783252
 31
0.0
  0
SPLINE
  5
12B
330
1F
100
AcDbEntity
  8
0
  6
HIDDEN
 62
     7
370
     0
100
AcDbSpline
210
0.0
220
0.0
230
1.0
 70
     8
 71
     3
 72
    24
 73
    20
 74
     0
 42
0.00000001
 43
0.00000001
 40
0.0
 40
0.0
 40
0.0
 40
0.0
 40
0.0096786162622413
 40
0.063861332318643
 40
0.1151504039407282
 40
0.2187148509044287
 40
0.2715874349544933
 40
0.3233795945035976
 40
0.4279241425876941
 40
0.4812568627027102
 40
0.5874627085531514
 40
0.6419372573040941
 40
0.6968115758969908
 40
0.7499885891389747
 40
0.8035487865255879
 40
0.8583375239808981
 40
0.9135596099914929
 40
0.9566727567825257
 40
0.9999999999999999
 40
0.9999999999999999
 40
0.9999999999999999
 40
0.9999999999999999
 10
199.308535936582
 20
137.3754161002196
 30
0.0
 10
199.3072123526135
 20
137.3757519365679
 30
0.0
 10
199.2984790963947
 20
137.3779678480223
 30
0.0
 10
199.3374643639448
 20
137.368060594595
 30
0.0
 10
199.456334875217
 20
137.3381014935337
 30
0.0
 10
199.6863514856965
 20
137.281034993
 30
0.0
 10
200.0148377195038
 20
137.2032015712063
 30
0.0
 10
200.4101150531829
 20
137.1128162806636
 30
0.0
 10
200.9003893444704
 20
137.0073602918684
 30
0.0
 10
201.6224002625474
 20
136.8665062992524
 30
0.0
 10
202.289982235479
 20
136.7499807580589
 30
0.0
 10
203.0301546236742
 20
136.6402408696808
 30
0.0
 10
203.6200890537104
 20
136.563683400284
 30
0.0
 10
204.2337422407568
 20
136.4959473929771
 30
0.0
 10
204.8697323025155
 20
136.4385204592973
 30
0.0
 10
205.5324809345522
 20
136.3926206521286
 30
0.0
 10
206.1660198398921
 20
136.3630121806516
 30
0.0
 10
206.7586873416294
 20
136.3465118678712
 30
0.0
 10
207.1221501971983
 20
136.3446243977145
 30
0.0
 10
207.3043317392089
 20
136.3436783251836
 30
0.0
  0
SPLINE
  5
12C
330
1F
100
AcDbEntity
  8
0
  6
HIDDEN
 62
     7
370
     0
100
AcDbSpline
210
0.0
220
0.0
230
1.0
 70
     8
 71
     3
 72
    76
 73
    72
 74
     0
 42
0.00000001
 43
0.00000001
 40
-0.0312499999999998
 40
-0.0312499999999998
 40
0.0
 40
0.0
 40
0.0312500000000001
 40
0.0312500000000001
 40
0.0468750000000001
 40
0.0468750000000001
 40
0.0625000000000002
 40
0.0625000000000002
 40
0.0937500000000002
 40
0.0937500000000002
 40
0.1250000000000003
 40
0.1250000000000003
 40
0.1562500000000004
 40
0.1562500000000004
 40
0.1875000000000004
 40
0.1875000000000004
 40
0.2187500000000005
 40
0.2187500000000005
 40
0.2500000000000006
 40
0.2500000000000006
 40
0.2812500000000008
 40
0.2812500000000008
 40
0.312500000000001
 40
0.312500000000001
 40
0.328125000000001
 40
0.328125000000001
 40
0.343750000000001
 40
0.343750000000001
 40
0.375000000000001
 40
0.375000000000001
 40
0.4062500000000009
 40
0.4062500000000009
 40
0.4375000000000009
 40
0.4375000000000009
 40
0.4687500000000009
 40
0.4687500000000009
 40
0.500000000000001
 40
0.500000000000001
 40
0.5312500000000011
 40
0.5312500000000011
 40
0.5625000000000011
 40
0.5625000000000011
 40
0.5937500000000012
 40
0.5937500000000012
 40
0.6250000000000013
 40
0.6250000000000013
 40
0.6562500000000014
 40
0.6562500000000014
 40
0.6875000000000014
 40
0.6875000000000014
 40
0.7031250000000014
 40
0.7031250000000014
 40
0.7187500000000013
 40
0.7187500000000013
 40
0.7500000000000012
 40
0.7500000000000012
 40
0.7812500000000011
 40
0.7812500000000011
 40
0.8125000000000009
 40
0.8125000000000009
 40
0.8437500000000008
 40
0.8437500000000008
 40
0.8750000000000007
 40
0.8750000000000007
 40
0.9062500000000006
 40
0.9062500000000006
 40
0.9375000000000003
 40
0.9375000000000003
 40
0.9687500000000002
 40
0.9687500000000002
 40
1.0
 40
1.0
 40
1.03125
 40
1.03125
 10
196.3543317392089
 20
106.2073668478134
 30
0.0
 10
196.3543317392089
 20
105.5455988562253
 30
0.0
 10
196.3868522169933
 20
105.2203476881294
 30
0.0
 10
196.4823454612753
 20
104.7405509672403
 30
0.0
 10
196.5220202966865
 20
104.5819752834466
 30
0.0
 10
196.6174069100222
 20
104.2675928976536
 30
0.0
 10
196.6733511514328
 20
104.1114732740694
 30
0.0
 10
196.8617141748824
 20
103.6575327141675
 30
0.0
 10
197.0153264513008
 20
103.3705524681605
 30
0.0
 10
197.3781542450849
 20
102.8274393114212
 30
0.0
 10
197.5889893466674
 20
102.5707000198772
 30
0.0
 10
198.0494889166849
 20
102.1103153856463
 30
0.0
 10
198.3008518576027
 20
101.9035385688924
 30
0.0
 10
198.8471985519562
 20
101.538014361229
 30
0.0
 10
199.1374131916741
 20
101.3830148025142
 30
0.0
 10
199.7388000079758
 20
101.13348378142
 30
0.0
 10
200.0544297010662
 20
101.0372055077313
 30
0.0
 10
200.7000701023458
 20
100.9085565004883
 30
0.0
 10
201.0248258581591
 20
100.8766702413717
 30
0.0
 10
201.6781258885505
 20
100.876297093861
 30
0.0
 10
202.0099982293812
 20
100.908876580107
 30
0.0
 10
202.6516494629848
 20
101.0366504848134
 30
0.0
 10
202.9635743799179
 20
101.1311829291105
 30
0.0
 10
203.4180639804348
 20
101.3193025236492
 30
0.0
 10
203.5679272882688
 20
101.39018550487
 30
0.0
 10
203.8570125221914
 20
101.5448021112044
 30
0.0
 10
203.9968734364995
 20
101.6287247099423
 30
0.0
 10
204.4027498802037
 20
101.899920233418
 30
0.0
 10
204.6557880266933
 20
102.1070202388593
 30
0.0
 10
205.1216875828567
 20
102.5726226919165
 30
0.0
 10
205.3281936573525
 20
102.8245415443038
 30
0.0
 10
205.6902992207522
 20
103.3654451603047
 30
0.0
 10
205.8471583345674
 20
103.6579880030561
 30
0.0
 10
206.0981084514299
 20
104.2628556598137
 30
0.0
 10
206.1929195507609
 20
104.5745024912603
 30
0.0
 10
206.3213414135541
 20
105.2162557964819
 30
0.0
 10
206.3542047000452
 20
105.5479836153612
 30
0.0
 10
206.3544580261538
 20
106.2011033806221
 30
0.0
 10
206.3229020255845
 20
106.5260365869652
 30
0.0
 10
206.1946608041601
 20
107.1725635934183
 30
0.0
 10
206.0988547555017
 20
107.4875715472792
 30
0.0
 10
205.8497212444076
 20
108.0895302154248
 30
0.0
 10
205.6942611227129
 20
108.3810063857003
 30
0.0
 10
205.3298068683531
 20
108.926601322197
 30
0.0
 10
205.1233739609173
 20
109.1780784372022
 30
0.0
 10
204.6629048783994
 20
109.639401461257
 30
0.0
 10
204.4061078703435
 20
109.8505247622033
 30
0.0
 10
203.864062656509
 20
110.2132555439193
 30
0.0
 10
203.5772930765735
 20
110.3671444473049
 30
0.0
 10
203.1229859006879
 20
110.5560941739969
 30
0.0
 10
202.9668455999144
 20
110.6121669700167
 30
0.0
 10
202.6529996385683
 20
110.7076697355494
 30
0.0
 10
202.4946128508745
 20
110.7474503785769
 30
0.0
 10
202.0151366109311
 20
110.8433329157022
 30
0.0
 10
201.6888966665043
 20
110.8762083637017
 30
0.0
 10
201.0280220692263
 20
110.8767539328728
 30
0.0
 10
200.7028857218814
 20
110.8445874142593
 30
0.0
 10
200.0628032213949
 20
110.7178048762721
 30
0.0
 10
199.7444822973271
 20
110.6215371224808
 30
0.0
 10
199.139566018488
 20
110.3711428010556
 30
0.0
 10
198.8524171048365
 20
110.2178286393341
 30
0.0
 10
198.3084655511635
 20
109.8551207153143
 30
0.0
 10
198.0518196014369
 20
109.6446816425804
 30
0.0
 10
197.591229048024
 20
109.1848006543041
 30
0.0
 10
197.3840801620331
 20
108.9335188546113
 30
0.0
 10
197.0175489186198
 20
108.3865986808713
 30
0.0
 10
196.8628647311153
 20
108.0974585292551
 30
0.0
 10
196.6127650777771
 20
107.4962218553357
 30
0.0
 10
196.516078303284
 20
107.180246161695
 30
0.0
 10
196.3868567283277
 20
106.5342724035984
 30
0.0
 10
196.3543317392089
 20
106.2073668478134
 30
0.0
 10
196.3543317392089
 20
105.5455988562253
 30
0.0
  0
LINE
  5
12D
330
1F
100
AcDbEntity
  8
0
  6
HIDDEN
 62
     7
370
     0
100
AcDbLine
 10
194.3543317392
 20
137.0764828509
 30
0.0
 11
194.3543317392
 21
74.676482852
 31
0.0
  0
SPLINE
  5
12E
330
1F
100
AcDbEntity
  8
0
  6
HIDDEN
 62
     7
370
     0
100
AcDbSpline
210
0.0
220
0.0
230
1.0
 70
     8
 71
     3
 72
    10
 73
     6
 74
     0
 42
0.00000001
 43
0.00000001
 40
0.0
 40
0.0
 40
0.0
 40
0.0
 40
0.5
 40
0.5
 40
1.0
 40
1.0
 40
1.0
 40
1.0
 10
210.5420065415412
 20
79.47648285201933
 30
0.0
 10
210.5098513539192
 20
79.41419680650324
 30
0.0
 10
210.485195122725
 20
79.34766638163404
 30
0.0
 10
210.4523823657995
 20
79.2108077512716
 30
0.0
 10
210.4443317392089
 20
79.1417501560933
 30
0.0
 10
210.4443317392089
 20
79.07208722368999
 30
0.0
  0
SPLINE
  5
12F
330
1F
100
AcDbEntity
  8
0
  6
HIDDEN
 62
     7
370
     0
100
AcDbSpline
210
0.0
220
0.0
230
1.0
 70
    24
 71
     3
 72
    10
 73
     6
 74
     0
 42
0.00000001
 43
0.00000001
 40
0.0
 40
0.0
 40
0.0
 40
0.0
 40
0.5
 40
0.5
 40
1.0
 40
1.0
 40
1.0
 40
1.0
 10
210.4443317392089
 20
125.7264828520193
 30
0.0
 10
210.4443317392089
 20
125.7264828520193
 30
0.0
 10
210.4465535976936
 20
125.7264828520193
 30
0.0
 10
210.4552902694172
 20
125.7264828520193
 30
0.0
 10
210.4618017832115
 20
125.7264828520193
 30
0.0
 10
210.4704793623691
 20
125.7264828520193
 30
0.0
  0
LINE
  5
130
330
1F
100
AcDbEntity
  8
0
  6
HIDDEN
 62
     7
370
     0
100
AcDbLine
 10
210.4443317392
 20
126.0123494835
 30
0.0
 11
210.4443317392
 21
132.9961367031
 31
0.0
  0
LINE
  5
131
330
1F
100
AcDbEntity
  8
0
  6
HIDDEN
 62
     7
370
     0
100
AcDbLine
 10
210.4443317392
 20
79.0720872237
 30
0.0
 11
210.4443317392
 21
125.726482852
 31
0.0
  0
SPLINE
  5
132
330
1F
100
AcDbEntity
  8
0
  6
HIDDEN
 62
     7
370
     0
100
AcDbSpline
210
0.0
220
0.0
230
1.0
 70
     8
 71
     3
 72
    10
 73
     6
 74
     0
 42
0.00000001
 43
0.00000001
 40
0.0
 40
0.0
 40
0.0
 40
0.0
 40
0.5
 40
0.5
 40
1.0
 40
1.0
 40
1.0
 40
1.0
 10
214.2643317392089
 20
79.07208722368999
 30
0.0
 10
214.2643317392089
 20
79.14232358406076
 30
0.0
 10
214.2560491271184
 20
79.21231768555825
 30
0.0
 10
214.2229491840599
 20
79.34927695011716
 30
0.0
 10
214.1986117921014
 20
79.41458485937244
 30
0.0
 10
214.1666569368767
 20
79.47648285201933
 30
0.0
  0
LINE
  5
133
330
1F
100
AcDbEntity
  8
0
  6
HIDDEN
 62
     7
370
     0
100
AcDbLine
 10
214.2643317392
 20
126.0123494835
 30
0.0
 11
214.2643317392
 21
132.9961367031
 31
0.0
  0
SPLINE
  5
134
330
1F
100
AcDbEntity
  8
0
  6
HIDDEN
 62
     7
370
     0
100
AcDbSpline
210
0.0
220
0.0
230
1.0
 70
    24
 71
     3
 72
    10
 73
     6
 74
     0
 42
0.00000001
 43
0.00000001
 40
0.0
 40
0.0
 40
0.0
 40
0.0
 40
0.5
 40
0.5
 40
1.0
 40
1.0
 40
1.0
 40
1.0
 10
214.2381841160488
 20
125.7264828520193
 30
0.0
 10
214.2468618909565
 20
125.7264828520193
 30
0.0
 10
214.2534149149633
 20
125.7264828520193
 30
0.0
 10
214.2621495244604
 20
125.7264828520193
 30
0.0
 10
214.2643317392089
 20
125.7264828520193
 30
0.0
 10
214.2643317392089
 20
125.7264828520193
 30
0.0
  0
LINE
  5
135
330
1F
100
AcDbEntity
  8
0
  6
HIDDEN
 62
     7
370
     0
100
AcDbLine
 10
214.2643317392
 20
79.0720872237
 30
0.0
 11
214.2643317392
 21
125.726482852
 31
0.0
  0
SPLINE
  5
136
330
1F
100
AcDbEntity
  8
0
  6
HIDDEN
 62
     7
370
     0
100
AcDbSpline
210
0.0
220
0.0
230
1.0
 70
    24
 71
     3
 72
    18
 73
    14
 74
     0
 42
0.00000001
 43
0.00000001
 40
0.0
 40
0.0
 40
0.0
 40
0.0
 40
0.5
 40
0.5
 40
0.75
 40
0.75
 40
0.875
 40
0.875
 40
0.9375
 40
0.9375
 40
0.96875
 40
0.96875
 40
1.0
 40
1.0
 40
1.0
 40
1.0
 10
220.3043317392089
 20
132.2764828520193
 30
0.0
 10
220.3043317392089
 20
132.2764828520193
 30
0.0
 10
220.3601808832707
 20
132.2764828520193
 30
0.0
 10
220.4358982789664
 20
132.2764828520193
 30
0.0
 10
220.4600876288523
 20
132.2764828520193
 30
0.0
 10
220.4858313926452
 20
132.2764828520193
 30
0.0
 10
220.4926770383845
 20
132.2764828520193
 30
0.0
 10
220.4996168552843
 20
132.2764828520193
 30
0.0
 10
220.5013792968496
 20
132.2764828520193
 30
0.0
 10
220.5031474697456
 20
132.2764828520193
 30
0.0
 10
220.5035912651435
 20
132.2764828520193
 30
0.0
 10
220.5041834364551
 20
132.2764828520193
 30
0.0
 10
220.504331805799
 20
132.2764828520193
 30
0.0
 10
220.5043317391848
 20
132.2764828520193
 30
0.0
  0
SPLINE
  5
137
330
1F
100
AcDbEntity
  8
0
  6
HIDDEN
 62
     7
370
     0
100
AcDbSpline
210
0.0
220
0.0
230
1.0
 70
    24
 71
     3
 72
    10
 73
     6
 74
     0
 42
0.00000001
 43
0.00000001
 40
0.0
 40
0.0
 40
0.0
 40
0.0
 40
0.0694249854782849
 40
0.5346816991731113
 40
1.0
 40
1.0
 40
1.0
 40
1.0
 10
220.4598654496535
 20
132.2764828520193
 30
0.0
 10
220.4577291351052
 20
132.2764828520193
 30
0.0
 10
220.4412761494146
 20
132.2764828520193
 30
0.0
 10
220.3409377791023
 20
132.2764828520193
 30
0.0
 10
220.3165342908623
 20
132.2764828520193
 30
0.0
 10
220.3043317392089
 20
132.2764828520193
 30
0.0
  0
LINE
  5
138
330
1F
100
AcDbEntity
  8
0
  6
HIDDEN
 62
     7
370
     0
100
AcDbLine
 10
220.3043317392
 20
132.276482852
 30
0.0
 11
220.3043317392
 21
79.476482852
 31
0.0
  0
SPLINE
  5
139
330
1F
100
AcDbEntity
  8
0
  6
HIDDEN
 62
     7
370
     0
100
AcDbSpline
210
0.0
220
0.0
230
1.0
 70
    24
 71
     3
 72
    18
 73
    14
 74
     0
 42
0.00000001
 43
0.00000001
 40
0.0
 40
0.0
 40
0.0
 40
0.0
 40
0.5000000000000001
 40
0.5000000000000001
 40
0.75
 40
0.75
 40
0.8750000000000001
 40
0.8750000000000001
 40
0.9375000000000001
 40
0.9375000000000001
 40
0.9687500000000001
 40
0.9687500000000001
 40
1.0
 40
1.0
 40
1.0
 40
1.0
 10
220.3043317392089
 20
79.47648285201932
 30
0.0
 10
220.3043317392089
 20
79.47648285201932
 30
0.0
 10
220.3601809075128
 20
79.47648285201932
 30
0.0
 10
220.4358983176652
 20
79.47648285201932
 30
0.0
 10
220.4600876687775
 20
79.47648285201932
 30
0.0
 10
220.4858314245185
 20
79.47648285201932
 30
0.0
 10
220.492677065966
 20
79.47648285201933
 30
0.0
 10
220.4996168740985
 20
79.4764828520193
 30
0.0
 10
220.5013793123593
 20
79.47648285201932
 30
0.0
 10
220.5031474797922
 20
79.47648285201932
 30
0.0
 10
220.5035912732851
 20
79.4764828520193
 30
0.0
 10
220.5041834406345
 20
79.4764828520193
 30
0.0
 10
220.5043318077764
 20
79.4764828520193
 30
0.0
 10
220.5043317391834
 20
79.47648285201932
 30
0.0
  0
LINE
  5
13A
330
1F
100
AcDbEntity
  8
0
  6
HIDDEN
 62
     7
370
     0
100
AcDbLine
 10
220.3043317392
 20
79.476482852
 30
0.0
 11
220.3043317392
 21
132.276482852
 31
0.0
  0
SPLINE
  5
13B
330
1F
100
AcDbEntity
  8
0
  6
HIDDEN
 62
     7
370
     0
100
AcDbSpline
210
0.0
220
0.0
230
1.0
 70
     8
 71
     3
 72
    70
 73
    66
 74
     0
 42
0.00000001
 43
0.00000001
 40
-0.03125
 40
-0.03125
 40
0.0
 40
0.0
 40
0.03125
 40
0.03125
 40
0.0625
 40
0.0625
 40
0.09375
 40
0.09375
 40
0.125
 40
0.125
 40
0.15625
 40
0.15625
 40
0.1875
 40
0.1875
 40
0.21875
 40
0.21875
 40
0.25
 40
0.25
 40
0.28125
 40
0.28125
 40
0.3125
 40
0.3125
 40
0.34375
 40
0.34375
 40
0.375
 40
0.375
 40
0.40625
 40
0.40625
 40
0.4375
 40
0.4375
 40
0.46875
 40
0.46875
 40
0.5
 40
0.5
 40
0.53125
 40
0.53125
 40
0.5625
 40
0.5625
 40
0.59375
 40
0.59375
 40
0.625
 40
0.625
 40
0.65625
 40
0.65625
 40
0.6875
 40
0.6875
 40
0.71875
 40
0.71875
 40
0.75
 40
0.75
 40
0.78125
 40
0.78125
 40
0.8125
 40
0.8125
 40
0.84375
 40
0.84375
 40
0.875
 40
0.875
 40
0.90625
 40
0.90625
 40
0.9375
 40
0.9375
 40
0.96875
 40
0.96875
 40
1.0
 40
1.0
 40
1.03125
 40
1.03125
 10
224.1559603479749
 20
94.2242754072417
 30
0.0
 10
224.5527031304429
 20
94.2242754072417
 30
0.0
 10
224.7477262980123
 20
94.24180091392432
 30
0.0
 10
225.1313603304583
 20
94.31052847330683
 30
0.0
 10
225.3219716714862
 20
94.36257692071683
 30
0.0
 10
225.6851931844533
 20
94.49860548327094
 30
0.0
 10
225.8574383692897
 20
94.58193345279805
 30
0.0
 10
226.1834189910703
 20
94.7793244013322
 30
0.0
 10
226.3376338270089
 20
94.89436046925081
 30
0.0
 10
226.6141093864323
 20
95.14647459198781
 30
0.0
 10
226.7382328793456
 20
95.28444395165356
 30
0.0
 10
226.9575496977984
 20
95.58533134025127
 30
0.0
 10
227.0506473839059
 20
95.74589136554268
 30
0.0
 10
227.2003196716941
 20
96.07957269166774
 30
0.0
 10
227.2579986317287
 20
96.25516588833196
 30
0.0
 10
227.3351269300746
 20
96.61614050455411
 30
0.0
 10
227.354223254569
 20
96.79839081343023
 30
0.0
 10
227.3544393108951
 20
97.16641718427951
 30
0.0
 10
227.3349300640393
 20
97.35413178551116
 30
0.0
 10
227.2583354052762
 20
97.71876498348217
 30
0.0
 10
227.2016647374085
 20
97.896739343805
 30
0.0
 10
227.0513305424562
 20
98.24372165083082
 30
0.0
 10
226.9574688701618
 20
98.41191799920847
 30
0.0
 10
226.7404317945895
 20
98.72436804901614
 30
0.0
 10
226.616439706392
 20
98.87064835120597
 30
0.0
 10
226.3365787863776
 20
99.14168308315209
 30
0.0
 10
226.1852323572733
 20
99.26207859831001
 30
0.0
 10
225.8605531744647
 20
99.47342606158415
 30
0.0
 10
225.6851427483625
 20
99.56511964684364
 30
0.0
 10
225.3219338315547
 20
99.71218177581066
 30
0.0
 10
225.13494543157
 20
99.76776845103763
 30
0.0
 10
224.7502526467385
 20
99.84305283931822
 30
0.0
 10
224.55130617406
 20
99.86235952210508
 30
0.0
 10
224.1595907592966
 20
99.86250233467001
 30
0.0
 10
223.9648187375822
 20
99.84396181656825
 30
0.0
 10
223.5774970058026
 20
99.7688440847524
 30
0.0
 10
223.3881427289405
 20
99.71257126398696
 30
0.0
 10
223.0270042766204
 20
99.56671032747144
 30
0.0
 10
222.8524503876577
 20
99.47600235875115
 30
0.0
 10
222.5244829734546
 20
99.26300808195936
 30
0.0
 10
222.3734579657512
 20
99.14264961953656
 30
0.0
 10
222.0966357971635
 20
98.87527713656623
 30
0.0
 10
221.9698849104559
 20
98.72650264119962
 30
0.0
 10
221.7519791828043
 20
98.41329017283
 30
0.0
 10
221.6596847369486
 20
98.24827714755718
 30
0.0
 10
221.5087319024319
 20
97.90158889047365
 30
0.0
 10
221.4508066865621
 20
97.72030418419979
 30
0.0
 10
221.3741704008381
 20
97.35694255284214
 30
0.0
 10
221.3545164103221
 20
97.17294274724448
 30
0.0
 10
221.3541496330936
 20
96.8001889912879
 30
0.0
 10
221.3734588126171
 20
96.61758136001427
 30
0.0
 10
221.4494163963128
 20
96.25995041668133
 30
0.0
 10
221.5069947925195
 20
96.08301186980096
 30
0.0
 10
221.6573194342315
 20
95.74701866881352
 30
0.0
 10
221.7493285843665
 20
95.58832773664432
 30
0.0
 10
221.9667409235856
 20
95.2889722900536
 30
0.0
 10
222.0932089986582
 20
95.14787555419021
 30
0.0
 10
222.3695010345569
 20
94.89558180624364
 30
0.0
 10
222.5203094268466
 20
94.7826741179337
 30
0.0
 10
222.8479755706607
 20
94.58354866465228
 30
0.0
 10
223.02226658069
 20
94.49922578008317
 30
0.0
 10
223.3830397568993
 20
94.36377740108779
 30
0.0
 10
223.5719499865898
 20
94.31168923080799
 30
0.0
 10
223.9598196791028
 20
94.24180270499667
 30
0.0
 10
224.1559603479749
 20
94.2242754072417
 30
0.0
 10
224.5527031304429
 20
94.2242754072417
 30
0.0
  0
LINE
  5
13C
330
1F
100
AcDbEntity
  8
0
  6
HIDDEN
 62
     7
370
     0
100
AcDbLine
 10
194.3543317392
 20
80.5525589309
 30
0.0
 11
194.3543317392
 21
131.2004067731
 31
0.0
  0
LINE
  5
13D
330
1F
100
AcDbEntity
  8
0
  6
HIDDEN
 62
     7
370
     0
100
AcDbLine
 10
199.3043317392
 20
125.726482852
 30
0.0
 11
206.5499520849
 21
125.726482852
 31
0.0
  0
LWPOLYLINE
  5
13E
330
1F
100
AcDbEntity
  8
0
  6
HIDDEN
 62
     7
370
     0
100
AcDbPolyline
 90
        2
 70
   128
 43
0.0
 10
214.2643317392
 20
125.726482852
 10
214.2643317392
 20
125.726482852
  0
LWPOLYLINE
  5
13F
330
1F
100
AcDbEntity
  8
0
  6
HIDDEN
 62
     7
370
     0
100
AcDbPolyline
 90
        2
 70
   128
 43
0.0
 10
220.3043317392
 20
125.726482852
 10
220.3043317392
 20
125.726482852
  0
LWPOLYLINE
  5
140
330
1F
100
AcDbEntity
  8
0
  6
HIDDEN
 62
     7
370
     0
100
AcDbPolyline
 90
        2
 70
   128
 43
0.0
 10
210.4443317392
 20
125.726482852
 10
210.4443317392
 20
125.726482852
  0
LINE
  5
141
330
1F
100
AcDbEntity
  8
0
  6
HIDDEN
 62
     7
370
     0
100
AcDbLine
 10
192.3543317392
 20
130.0969137137
 30
0.0
 11
192.3543317392
 21
81.6560519903
 31
0.0
  0
SPLINE
  5
142
330
1F
100
AcDbEntity
  8
0
  6
HIDDEN
 62
     7
370
     0
100
AcDbSpline
210
0.0
220
0.0
230
1.0
 70
     8
 71
     3
 72
    14
 73
    10
 74
     0
 42
0.00000001
 43
0.00000001
 40
0.0
 40
0.0
 40
0.0
 40
0.0
 40
0.4999999999999983
 40
0.4999999999999983
 40
0.7499999999999977
 40
0.7499999999999977
 40
0.8749999999999989
 40
0.8749999999999989
 40
1.0
 40
1.0
 40
1.0
 40
1.0
 10
163.6043317392089
 20
85.06985129349177
 30
0.0
 10
164.2204086429643
 20
85.07557741372091
 30
0.0
 10
164.8345406390801
 20
85.08546777912294
 30
0.0
 10
165.7484372695936
 20
85.11610274679269
 30
0.0
 10
166.0518761971413
 20
85.12889620443067
 30
0.0
 10
166.5030128127788
 20
85.15682203239005
 30
0.0
 10
166.6527190623213
 20
85.1675916525498
 30
0.0
 10
166.9495601985694
 20
85.19472436814934
 30
0.0
 10
167.0969457510727
 20
85.21054134097656
 30
0.0
 10
167.240729878087
 20
85.23420042985103
 30
0.0
  0
SPLINE
  5
143
330
1F
100
AcDbEntity
  8
0
  6
HIDDEN
 62
     7
370
     0
100
AcDbSpline
210
0.0
220
0.0
230
1.0
 70
     8
 71
     3
 72
    10
 73
     6
 74
     0
 42
0.00000001
 43
0.00000001
 40
0.0
 40
0.0
 40
0.0
 40
0.0
 40
0.5
 40
0.5
 40
1.0
 40
1.0
 40
1.0
 40
1.0
 10
167.240729878087
 20
85.23420042985103
 30
0.0
 10
167.8683575337943
 20
85.33747398858664
 30
0.0
 10
168.5195582788257
 20
85.42629910033817
 30
0.0
 10
169.8282629828379
 20
85.5884068072085
 30
0.0
 10
170.489307420129
 20
85.66170627149508
 30
0.0
 10
171.1543317392086
 20
85.73039408622277
 30
0.0
  0
SPLINE
  5
144
330
1F
100
AcDbEntity
  8
0
  6
HIDDEN
 62
     7
370
     0
100
AcDbSpline
210
0.0
220
0.0
230
1.0
 70
     8
 71
     3
 72
    18
 73
    14
 74
     0
 42
0.00000001
 43
0.00000001
 40
0.0
 40
0.0
 40
0.0
 40
0.0
 40
0.0624999999999993
 40
0.0624999999999993
 40
0.1249999999999986
 40
0.1249999999999986
 40
0.2500000000000002
 40
0.2500000000000002
 40
0.5000000000000001
 40
0.5000000000000001
 40
0.75
 40
0.75
 40
1.0
 40
1.0
 40
1.0
 40
1.0
 10
171.1543317392089
 20
85.73039408622267
 30
0.0
 10
171.1909039495592
 20
85.73417148975012
 30
0.0
 10
171.2295544229947
 20
85.733614461867
 30
0.0
 10
171.3036459167085
 20
85.72355525670517
 30
0.0
 10
171.3389962104626
 20
85.7142013752806
 30
0.0
 10
171.433590507852
 20
85.67981694884679
 30
0.0
 10
171.483728680991
 20
85.64910521418398
 30
0.0
 10
171.6129219525722
 20
85.55317590414595
 30
0.0
 10
171.6712020973133
 20
85.48466041002868
 30
0.0
 10
171.7713971937368
 20
85.34808846009606
 30
0.0
 10
171.8114124451835
 20
85.27932355759316
 30
0.0
 10
171.8798118660013
 20
85.14428812848548
 30
0.0
 10
171.9081735898632
 20
85.07767010243232
 30
0.0
 10
171.9327275024691
 20
85.01211163473612
 30
0.0
  0
SPLINE
  5
145
330
1F
100
AcDbEntity
  8
0
  6
HIDDEN
 62
     7
370
     0
100
AcDbSpline
210
0.0
220
0.0
230
1.0
 70
     8
 71
     3
 72
    14
 73
    10
 74
     0
 42
0.00000001
 43
0.00000001
 40
0.0
 40
0.0
 40
0.0
 40
0.0
 40
0.25
 40
0.25
 40
0.5
 40
0.5
 40
0.75
 40
0.75
 40
1.0
 40
1.0
 40
1.0
 40
1.0
 10
171.9327275024691
 20
85.01211163473612
 30
0.0
 10
171.9711638872901
 20
84.90948723702458
 30
0.0
 10
172.0399652806819
 20
84.81029081358501
 30
0.0
 10
172.183251292841
 20
84.6193987842585
 30
0.0
 10
172.2584333479479
 20
84.5271415182256
 30
0.0
 10
172.390620636598
 20
84.34753419641059
 30
0.0
 10
172.4481378320678
 20
84.26022464196623
 30
0.0
 10
172.5301826303601
 20
84.09029080845049
 30
0.0
 10
172.5543317392089
 20
84.00838846657933
 30
0.0
 10
172.5543317392089
 20
83.93133459274344
 30
0.0
  0
LINE
  5
146
330
1F
100
AcDbEntity
  8
0
  6
HIDDEN
 62
     7
370
     0
100
AcDbLine
 10
172.5543317392
 20
83.9313345927
 30
0.0
 11
172.5543317392
 21
82.6480359582
 31
0.0
  0
LINE
  5
147
330
1F
100
AcDbEntity
  8
0
  6
HIDDEN
 62
     7
370
     0
100
AcDbLine
 10
168.5543317392
 20
128.9045289442
 30
0.0
 11
168.5543317392
 21
127.7205905244
 31
0.0
  0
SPLINE
  5
148
330
1F
100
AcDbEntity
  8
0
  6
HIDDEN
 62
     7
370
     0
100
AcDbSpline
210
0.0
220
0.0
230
1.0
 70
     8
 71
     3
 72
    18
 73
    14
 74
     0
 42
0.00000001
 43
0.00000001
 40
0.0
 40
0.0
 40
0.0
 40
0.0
 40
0.2500000000000001
 40
0.2500000000000001
 40
0.4999999999999993
 40
0.4999999999999993
 40
0.7499999999999986
 40
0.7499999999999986
 40
0.8749999999999981
 40
0.8749999999999981
 40
0.9374999999999991
 40
0.9374999999999991
 40
1.0
 40
1.0
 40
1.0
 40
1.0
 10
168.5543317392089
 20
127.7205905243823
 30
0.0
 10
168.5543317392089
 20
127.6373836155251
 30
0.0
 10
168.5184826392707
 20
127.5486469602116
 30
0.0
 10
168.3936109032367
 20
127.3665217696513
 30
0.0
 10
168.3032104855889
 20
127.2713917210247
 30
0.0
 10
168.0809678308467
 20
127.0822102119004
 30
0.0
 10
167.9512030444009
 20
126.9872650438057
 30
0.0
 10
167.7105655870894
 20
126.8489863362257
 30
0.0
 10
167.622798288952
 20
126.8032759029233
 30
0.0
 10
167.4682742017451
 20
126.7454525977019
 30
0.0
 10
167.4116633156904
 20
126.727737833664
 30
0.0
 10
167.2876192847838
 20
126.7031985304311
 30
0.0
 10
167.2199046097655
 20
126.6972193918928
 30
0.0
 10
167.1543317392089
 20
126.6995702438471
 30
0.0
  0
SPLINE
  5
149
330
1F
100
AcDbEntity
  8
0
  6
HIDDEN
 62
     7
370
     0
100
AcDbSpline
210
0.0
220
0.0
230
1.0
 70
     8
 71
     3
 72
    10
 73
     6
 74
     0
 42
0.00000001
 43
0.00000001
 40
0.0
 40
0.0
 40
0.0
 40
0.0
 40
0.5
 40
0.5
 40
1.0
 40
1.0
 40
1.0
 40
1.0
 10
167.1543317392089
 20
126.6995702438471
 30
0.0
 10
166.5667461921183
 20
126.7206357640835
 30
0.0
 10
165.975999798658
 20
126.7313942499557
 30
0.0
 10
164.7919806333591
 20
126.7447590304914
 30
0.0
 10
164.1985666451536
 20
126.746901673156
 30
0.0
 10
163.6043317392089
 20
126.7464206174144
 30
0.0
  0
SPLINE
  5
14A
330
1F
100
AcDbEntity
  8
0
  6
HIDDEN
 62
     7
370
     0
100
AcDbSpline
210
0.0
220
0.0
230
1.0
 70
     8
 71
     3
 72
     8
 73
     4
 74
     0
 42
0.00000001
 43
0.00000001
 40
0.0000005099763571
 40
0.0000005099763571
 40
0.0000005099763571
 40
0.0000005099763571
 40
0.0000262827998697
 40
0.0000262827998697
 40
0.0000262827998697
 40
0.0000262827998697
 10
163.6043317392089
 20
126.7464206174144
 30
0.0
 10
163.6009629999811
 20
126.7430989484585
 30
0.0
 10
163.597614547002
 20
126.7397709911797
 30
0.0
 10
163.5942868087907
 20
126.736436744307
 30
0.0
  0
SPLINE
  5
14B
330
1F
100
AcDbEntity
  8
0
  6
HIDDEN
 62
     7
370
     0
100
AcDbSpline
210
0.0
220
0.0
230
1.0
 70
     8
 71
     3
 72
     8
 73
     4
 74
     0
 42
0.00000001
 43
0.00000001
 40
0.0000005954826279
 40
0.0000005954826279
 40
0.0000005954826279
 40
0.0000005954826279
 40
0.0000302093805349
 40
0.0000302093805349
 40
0.0000302093805349
 40
0.0000302093805349
 10
163.5942868087993
 20
85.08166642314366
 30
0.0
 10
163.5976028361195
 20
85.07771964354785
 30
0.0
 10
163.6009513875117
 20
85.07378125241792
 30
0.0
 10
163.6043317392088
 20
85.06985129349175
 30
0.0
  0
SPLINE
  5
14C
330
1F
100
AcDbEntity
  8
0
  6
HIDDEN
 62
     7
370
     0
100
AcDbSpline
210
0.0
220
0.0
230
1.0
 70
     8
 71
     3
 72
    12
 73
     8
 74
     0
 42
0.00000001
 43
0.00000001
 40
0.0
 40
0.0
 40
0.0
 40
0.0
 40
0.1192152782081884
 40
0.2486291495149581
 40
0.5007186954388793
 40
0.753705405543983
 40
0.9999999999999999
 40
0.9999999999999999
 40
0.9999999999999999
 40
0.9999999999999999
 10
182.3494819437805
 20
82.35188322919754
 30
0.0
 10
182.2673392457114
 20
82.34414727769823
 30
0.0
 10
182.0960267305142
 20
82.32801358182576
 30
0.0
 10
181.7296727667813
 20
82.29503888603706
 30
0.0
 10
181.4249097445243
 20
82.25686138400891
 30
0.0
 10
181.1665312860408
 20
82.2249854268719
 30
0.0
 10
181.1375392780357
 20
82.2209601067944
 30
0.0
 10
181.1232375711847
 20
82.21897442343916
 30
0.0
  0
SPLINE
  5
14D
330
1F
100
AcDbEntity
  8
0
  6
HIDDEN
 62
     7
370
     0
100
AcDbSpline
210
0.0
220
0.0
230
1.0
 70
     8
 71
     3
 72
    20
 73
    16
 74
     0
 42
0.00000001
 43
0.00000001
 40
0.0
 40
0.0
 40
0.0
 40
0.0
 40
0.0014371417843433
 40
0.0850458908086348
 40
0.1697599742259448
 40
0.2540983643787719
 40
0.3373295355548657
 40
0.4202346307100785
 40
0.5035601638150932
 40
0.5868465105665929
 40
0.6687600060933071
 40
0.7507345792016872
 40
0.8338925024192407
 40
0.9172623649586594
 40
1.0
 40
1.0
 40
1.0
 40
1.0
 10
189.5373983566596
 20
81.79742473509569
 30
0.0
 10
189.537851326437
 20
81.797320909267
 30
0.0
 10
189.5646567666869
 20
81.7911767972622
 30
0.0
 10
189.4686282552344
 20
81.81327361936715
 30
0.0
 10
189.2355827180669
 20
81.86515324928752
 30
0.0
 10
188.8417976522232
 20
81.95021038736651
 30
0.0
 10
188.3173392738478
 20
82.05196563656527
 30
0.0
 10
187.6783759636212
 20
82.15986184081709
 30
0.0
 10
186.9452107102305
 20
82.26090775626672
 30
0.0
 10
186.1526474973141
 20
82.34531691170781
 30
0.0
 10
185.3278987035415
 20
82.40272053300026
 30
0.0
 10
184.5011814455271
 20
82.42947860533538
 30
0.0
 10
183.7068740852635
 20
82.42504334401507
 30
0.0
 10
182.9634446467184
 20
82.39772786232325
 30
0.0
 10
182.5536162240431
 20
82.3671259485716
 30
0.0
 10
182.3494819437805
 20
82.35188322919754
 30
0.0
  0
SPLINE
  5
14E
330
1F
100
AcDbEntity
  8
0
  6
HIDDEN
 62
     7
370
     0
100
AcDbSpline
210
0.0
220
0.0
230
1.0
 70
     8
 71
     3
 72
    20
 73
    16
 74
     0
 42
0.00000001
 43
0.00000001
 40
0.0
 40
0.0
 40
0.0
 40
0.0
 40
0.0828182133813296
 40
0.1661936881157301
 40
0.2493852825370402
 40
0.331515512477228
 40
0.4133807586231849
 40
0.4968356081148763
 40
0.5800413781711405
 40
0.6629790154186296
 40
0.7460493132171999
 40
0.8302847957804701
 40
0.9148461952092958
 40
0.9984038487566721
 40
1.0
 40
1.0
 40
1.0
 40
1.0
 10
182.3493892234987
 20
129.4010658820011
 30
0.0
 10
182.5540409801983
 20
129.3858758448342
 30
0.0
 10
182.964721539904
 20
129.3553935608496
 30
0.0
 10
183.7084468316075
 20
129.3280830856405
 30
0.0
 10
184.503406316286
 20
129.3236702086523
 30
0.0
 10
185.3305349548488
 20
129.3503385011345
 30
0.0
 10
186.1562766903482
 20
129.4078025033603
 30
0.0
 10
186.948553687283
 20
129.4923900293921
 30
0.0
 10
187.6813771451467
 20
129.5935636264791
 30
0.0
 10
188.3192866372138
 20
129.7013491869933
 30
0.0
 10
188.843141599169
 20
129.8029565591671
 30
0.0
 10
189.2362860844074
 20
129.887846588541
 30
0.0
 10
189.4689486745587
 20
129.9396818497798
 30
0.0
 10
189.5650189153867
 20
129.9617841666644
 30
0.0
 10
189.5378527966236
 20
129.9556272340694
 30
0.0
 10
189.5373435858567
 20
129.9555118264767
 30
0.0
  0
SPLINE
  5
14F
330
1F
100
AcDbEntity
  8
0
  6
HIDDEN
 62
     7
370
     0
100
AcDbSpline
210
0.0
220
0.0
230
1.0
 70
     8
 71
     3
 72
    12
 73
     8
 74
     0
 42
0.00000001
 43
0.00000001
 40
0.0
 40
0.0
 40
0.0
 40
0.0
 40
0.2468412763863412
 40
0.4995707343914281
 40
0.7516700890846406
 40
0.8176861511891758
 40
0.9999999999999999
 40
0.9999999999999999
 40
0.9999999999999999
 40
0.9999999999999999
 10
181.1228324812779
 20
129.5340224358194
 30
0.0
 10
181.1369460982921
 20
129.5320039551119
 30
0.0
 10
181.1655100002453
 20
129.5279188446142
 30
0.0
 10
181.4262995094706
 20
129.4959207664707
 30
0.0
 10
181.6931879235887
 20
129.4616539693695
 30
0.0
 10
182.0518653938344
 20
129.4289620589482
 30
0.0
 10
182.2234319484333
 20
129.4128757811845
 30
0.0
 10
182.3493892234987
 20
129.4010658820011
 30
0.0
  0
LWPOLYLINE
  5
150
330
1F
100
AcDbEntity
  8
0
  6
HIDDEN
 62
     7
370
     0
100
AcDbPolyline
 90
       26
 70
   128
 43
0.0
 10
221.0421764274
 20
113.6809104311
 10
221.2566955218
 20
113.7744286139
 10
221.5651972259
 20
113.747495658
 10
221.9482972431
 20
113.6018038601
 10
222.3819239903
 20
113.3465075717
 10
222.8388311044
 20
112.9976479975
 10
223.2903094308
 20
112.5771452676
 10
223.707990926
 20
112.1114211149
 10
224.0656311254
 20
111.6297387009
 10
224.3407581801
 20
111.162363903
 10
224.5160848453
 20
110.7386635988
 10
224.5805947019
 20
110.3852604365
 10
224.5302343582
 20
110.1243600367
 10
224.36816814
 20
109.9723557309
 10
224.1045792638
 20
109.9387985087
 10
223.756029988
 20
110.0257968939
 10
223.3444209455
 20
110.2278844578
 10
222.8956150463
 20
110.5323632957
 10
222.4378124156
 20
110.9201018824
 10
221.9997784763
 20
111.3667371764
 10
221.6090365119
 20
111.8442054396
 10
221.2901382771
 20
112.322505585
 10
221.0631213206
 20
112.7715842555
 10
220.9422499529
 20
113.1632241866
 10
220.9351189664
 20
113.472817201
 10
221.0421764274
 20
113.6809104311
  0
SPLINE
  5
151
330
1F
100
AcDbEntity
  8
0
  6
HIDDEN
 62
     7
370
     0
100
AcDbSpline
210
0.0
220
0.0
230
1.0
 70
     8
 71
     3
 72
    76
 73
    72
 74
     0
 42
0.00000001
 43
0.00000001
 40
0.0
 40
0.0
 40
0.0
 40
0.0
 40
0.0156249999999996
 40
0.0156249999999996
 40
0.0312499999999991
 40
0.0312499999999991
 40
0.062499999999999
 40
0.062499999999999
 40
0.1249999999999993
 40
0.1249999999999993
 40
0.1562499999999991
 40
0.1562499999999991
 40
0.1874999999999988
 40
0.1874999999999988
 40
0.2187499999999985
 40
0.2187499999999985
 40
0.2499999999999983
 40
0.2499999999999983
 40
0.281249999999998
 40
0.281249999999998
 40
0.3124999999999977
 40
0.3124999999999977
 40
0.3437499999999974
 40
0.3437499999999974
 40
0.3749999999999972
 40
0.3749999999999972
 40
0.4062499999999969
 40
0.4062499999999969
 40
0.4374999999999967
 40
0.4374999999999967
 40
0.4687499999999964
 40
0.4687499999999964
 40
0.4999999999999961
 40
0.4999999999999961
 40
0.5156249999999959
 40
0.5156249999999959
 40
0.5312499999999957
 40
0.5312499999999957
 40
0.5468749999999954
 40
0.5468749999999954
 40
0.5624999999999952
 40
0.5624999999999952
 40
0.5937499999999956
 40
0.5937499999999956
 40
0.6249999999999959
 40
0.6249999999999959
 40
0.6562499999999962
 40
0.6562499999999962
 40
0.6874999999999966
 40
0.6874999999999966
 40
0.7187499999999969
 40
0.7187499999999969
 40
0.7499999999999972
 40
0.7499999999999972
 40
0.7812499999999977
 40
0.7812499999999977
 40
0.812499999999998
 40
0.812499999999998
 40
0.8437499999999983
 40
0.8437499999999983
 40
0.8749999999999987
 40
0.8749999999999987
 40
0.906249999999999
 40
0.906249999999999
 40
0.9374999999999993
 40
0.9374999999999993
 40
0.9687499999999997
 40
0.9687499999999997
 40
0.9843749999999998
 40
0.9843749999999998
 40
1.0
 40
1.0
 40
1.0
 40
1.0
 10
222.9364081778427
 20
115.3357557981351
 30
0.0
 10
222.9413714286242
 20
115.3066324347258
 30
0.0
 10
222.9656109224842
 20
115.29240279069
 30
0.0
 10
223.0314790800119
 20
115.2743550999693
 30
0.0
 10
223.0724493558963
 20
115.2708128219506
 30
0.0
 10
223.2056343410831
 20
115.2631931378837
 30
0.0
 10
223.3089971734105
 20
115.2620648567315
 30
0.0
 10
223.6436743678735
 20
115.2438567235016
 30
0.0
 10
223.8946245896822
 20
115.2145139431019
 30
0.0
 10
224.3069482302949
 20
115.1187904187648
 30
0.0
 10
224.4524012003787
 20
115.0778851981042
 30
0.0
 10
224.7513788097469
 20
114.9757069085235
 30
0.0
 10
224.9043268973819
 20
114.9148599379463
 30
0.0
 10
225.2186795319968
 20
114.7676111623984
 30
0.0
 10
225.3775332183971
 20
114.6821760852779
 30
0.0
 10
225.6884747843597
 20
114.4875335264746
 30
0.0
 10
225.8419609237029
 20
114.376946152348
 30
0.0
 10
226.1203611075282
 20
114.1431757014874
 30
0.0
 10
226.249901489645
 20
114.0159017138841
 30
0.0
 10
226.4677831108193
 20
113.76251636719
 30
0.0
 10
226.5592173945794
 20
113.6332230905816
 30
0.0
 10
226.7012563951028
 20
113.3863488585322
 30
0.0
 10
226.7536772596285
 20
113.2665684520679
 30
0.0
 10
226.8259738465424
 20
113.0379184313371
 30
0.0
 10
226.845506970367
 20
112.9309424320012
 30
0.0
 10
226.8584090860225
 20
112.7278703401027
 30
0.0
 10
226.8514961368156
 20
112.6311731427313
 30
0.0
 10
226.8149157594032
 20
112.4502797973347
 30
0.0
 10
226.7855093536765
 20
112.3660606671083
 30
0.0
 10
226.7063391283881
 20
112.2060081740565
 30
0.0
 10
226.6567397668075
 20
112.1304531955456
 30
0.0
 10
226.5338063962933
 20
111.9804491732355
 30
0.0
 10
226.4616939376155
 20
111.9079258345342
 30
0.0
 10
226.3199697980772
 20
111.7767005763495
 30
0.0
 10
226.2664728664543
 20
111.7283502341584
 30
0.0
 10
226.1443887389219
 20
111.6148286036787
 30
0.0
 10
226.0765004571377
 20
111.5498121951379
 30
0.0
 10
225.9421112613428
 20
111.4213795635337
 30
0.0
 10
225.8757311334493
 20
111.3586447375924
 30
0.0
 10
225.7443234225483
 20
111.2402160874581
 30
0.0
 10
225.678517515998
 20
111.1836861207118
 30
0.0
 10
225.4776369439101
 20
111.0218762112295
 30
0.0
 10
225.3419164148973
 20
110.9265475069282
 30
0.0
 10
225.0598403051252
 20
110.759401064265
 30
0.0
 10
224.9137779533647
 20
110.687673235483
 30
0.0
 10
224.6079146141152
 20
110.5711139136672
 30
0.0
 10
224.4517085189547
 20
110.5276924371308
 30
0.0
 10
224.1320245238231
 20
110.4742870865566
 30
0.0
 10
223.9664856630578
 20
110.4643431410823
 30
0.0
 10
223.6356479661785
 20
110.4856953686715
 30
0.0
 10
223.4714645664517
 20
110.5163857659146
 30
0.0
 10
223.1457457505927
 20
110.6254188232245
 30
0.0
 10
222.9895040079572
 20
110.7024608076135
 30
0.0
 10
222.6986899499653
 20
110.900417099478
 30
0.0
 10
222.5618891113711
 20
111.0239723999864
 30
0.0
 10
222.3268746404088
 20
111.3007703386142
 30
0.0
 10
222.2249750510951
 20
111.4577986931047
 30
0.0
 10
222.0609695907563
 20
111.7876900163633
 30
0.0
 10
221.9974030159141
 20
111.9625669198829
 30
0.0
 10
221.9056846998203
 20
112.3175997582416
 30
0.0
 10
221.8775710645132
 20
112.4958888278289
 30
0.0
 10
221.8503596879832
 20
112.8535384633313
 30
0.0
 10
221.8516486780281
 20
113.0337372242127
 30
0.0
 10
221.8787564818228
 20
113.3821818909993
 30
0.0
 10
221.9044250342924
 20
113.5521143145581
 30
0.0
 10
221.9750383735434
 20
113.883163774295
 30
0.0
 10
222.0208165113679
 20
114.0455544340059
 30
0.0
 10
222.095373171255
 20
114.2737267358174
 30
0.0
 10
222.1212060388267
 20
114.3473120691302
 30
0.0
 10
222.1699187703338
 20
114.4861882585371
 30
0.0
 10
222.1925945423337
 20
114.5505384956854
 30
0.0
 10
222.2061018599789
 20
114.6025237080333
 30
0.0
  0
SPLINE
  5
152
330
1F
100
AcDbEntity
  8
0
  6
HIDDEN
 62
     7
370
     0
100
AcDbSpline
210
0.0
220
0.0
230
1.0
 70
     8
 71
     3
 72
    10
 73
     6
 74
     0
 42
0.00000001
 43
0.00000001
 40
0.0
 40
0.0
 40
0.0
 40
0.0
 40
0.5
 40
0.5
 40
1.0
 40
1.0
 40
1.0
 40
1.0
 10
222.2061018599858
 20
114.6025237080352
 30
0.0
 10
222.3254268677537
 20
114.7322424441604
 30
0.0
 10
222.4464447388328
 20
114.8580837601566
 30
0.0
 10
222.6903895068337
 20
115.102453356356
 30
0.0
 10
222.8138586760295
 20
115.221497462554
 30
0.0
 10
222.9364081778537
 20
115.3357557981397
 30
0.0
  0
LINE
  5
153
330
1F
100
AcDbEntity
  8
0
  6
HIDDEN
 62
     7
370
     0
100
AcDbLine
 10
162.4543317392
 20
86.2233223271
 30
0.0
 11
162.4608515372
 21
86.2256644094
 31
0.0
  0
SPLINE
  5
154
330
1F
100
AcDbEntity
  8
0
  6
HIDDEN
 62
     7
370
     0
100
AcDbSpline
210
0.0
220
0.0
230
1.0
 70
     8
 71
     3
 72
    64
 73
    60
 74
     0
 42
0.00000001
 43
0.00000001
 40
-0.0312500000000006
 40
-0.0312500000000006
 40
0.0
 40
0.0
 40
0.0312499999999994
 40
0.0312499999999994
 40
0.0624999999999989
 40
0.0624999999999989
 40
0.1249999999999978
 40
0.1249999999999978
 40
0.1562499999999972
 40
0.1562499999999972
 40
0.1874999999999966
 40
0.1874999999999966
 40
0.2187499999999961
 40
0.2187499999999961
 40
0.2499999999999955
 40
0.2499999999999955
 40
0.281249999999995
 40
0.281249999999995
 40
0.3124999999999945
 40
0.3124999999999945
 40
0.3749999999999939
 40
0.3749999999999939
 40
0.4062499999999942
 40
0.4062499999999942
 40
0.4374999999999944
 40
0.4374999999999944
 40
0.4687499999999946
 40
0.4687499999999946
 40
0.4999999999999949
 40
0.4999999999999949
 40
0.5312499999999951
 40
0.5312499999999951
 40
0.5624999999999953
 40
0.5624999999999953
 40
0.5937499999999956
 40
0.5937499999999956
 40
0.6249999999999958
 40
0.6249999999999958
 40
0.656249999999996
 40
0.656249999999996
 40
0.6874999999999962
 40
0.6874999999999962
 40
0.7187499999999964
 40
0.7187499999999964
 40
0.7499999999999966
 40
0.7499999999999966
 40
0.7812499999999969
 40
0.7812499999999969
 40
0.8124999999999972
 40
0.8124999999999972
 40
0.8749999999999978
 40
0.8749999999999978
 40
0.9062499999999983
 40
0.9062499999999983
 40
0.9374999999999989
 40
0.9374999999999989
 40
0.9687499999999994
 40
0.9687499999999994
 40
1.0
 40
1.0
 40
1.031249999999999
 40
1.031249999999999
 10
224.1846720499067
 20
104.6815376148125
 30
0.0
 10
224.5239914285112
 20
104.6815376148125
 30
0.0
 10
224.6896779533443
 20
104.7019708993952
 30
0.0
 10
225.0139140295185
 20
104.7800067778207
 30
0.0
 10
225.1737208652465
 20
104.8385745092983
 30
0.0
 10
225.6228956875886
 20
105.058474184044
 30
0.0
 10
225.8923209036529
 20
105.2671237494727
 30
0.0
 10
226.23035591485
 20
105.6367295418704
 30
0.0
 10
226.3339120792491
 20
105.7717227110403
 30
0.0
 10
226.5142995698867
 20
106.0541958731716
 30
0.0
 10
226.5914459039494
 20
106.201445806566
 30
0.0
 10
226.7189663147271
 20
106.5080046661167
 30
0.0
 10
226.7694898747672
 20
106.6693333189663
 30
0.0
 10
226.8364107026937
 20
106.9881421986185
 30
0.0
 10
226.8537697653321
 20
107.1470422648454
 30
0.0
 10
226.8548671419402
 20
107.4635696458631
 30
0.0
 10
226.838141220467
 20
107.6188952601662
 30
0.0
 10
226.772736935567
 20
107.9119331181809
 30
0.0
 10
226.7232510838354
 20
108.0530391889028
 30
0.0
 10
226.5326386688866
 20
108.4432629706141
 30
0.0
 10
226.3480428727378
 20
108.6639724788256
 30
0.0
 10
226.0108267285321
 20
108.9277166893952
 30
0.0
 10
225.8867987851461
 20
109.0057214008073
 30
0.0
 10
225.6209679167216
 20
109.1396607908465
 30
0.0
 10
225.4805507924939
 20
109.1952094171138
 30
0.0
 10
225.1829173100406
 20
109.2856930861038
 30
0.0
 10
225.0233530857515
 20
109.3208756586907
 30
0.0
 10
224.697741906743
 20
109.3676224698556
 30
0.0
 10
224.5316296712106
 20
109.379641122618
 30
0.0
 10
224.1921306239964
 20
109.3803446722278
 30
0.0
 10
224.0254572181386
 20
109.3689713618223
 30
0.0
 10
223.6995521698662
 20
109.3235957784854
 30
0.0
 10
223.5394617606647
 20
109.2891081465405
 30
0.0
 10
223.2391155335222
 20
109.1992492822772
 30
0.0
 10
223.0958520845672
 20
109.1431746571865
 30
0.0
 10
222.8287131872845
 20
109.0097352430325
 30
0.0
 10
222.7057537303632
 20
108.9330930332004
 30
0.0
 10
222.4792417487501
 20
108.7575149444697
 30
0.0
 10
222.375395036311
 20
108.6577643131746
 30
0.0
 10
222.195238457729
 20
108.4403617782223
 30
0.0
 10
222.117740759905
 20
108.322026537617
 30
0.0
 10
221.9892626014373
 20
108.0627062005968
 30
0.0
 10
221.9390377854439
 20
107.9218844166542
 30
0.0
 10
221.8722609646728
 20
107.6303909591739
 30
0.0
 10
221.8547242633202
 20
107.4779254074766
 30
0.0
 10
221.8539521164031
 20
107.1586802636743
 30
0.0
 10
221.870718695171
 20
106.9987269408488
 30
0.0
 10
221.9366249990777
 20
106.6783933226996
 30
0.0
 10
221.986578570215
 20
106.5168358256483
 30
0.0
 10
222.1776560724883
 20
106.0535809236928
 30
0.0
 10
222.3629581985654
 20
105.7633728029069
 30
0.0
 10
222.7019475769486
 20
105.3919457472816
 30
0.0
 10
222.8271544900611
 20
105.2767312215409
 30
0.0
 10
223.0926871641838
 20
105.0743733533015
 30
0.0
 10
223.2334819602193
 20
104.9863052751213
 30
0.0
 10
223.5335450132154
 20
104.8391137968283
 30
0.0
 10
223.6937732549367
 20
104.780318630736
 30
0.0
 10
224.0180606248571
 20
104.7021170439607
 30
0.0
 10
224.1846720499067
 20
104.6815376148125
 30
0.0
 10
224.5239914285112
 20
104.6815376148125
 30
0.0
  0
ARC
  5
155
330
1F
100
AcDbEntity
  8
0
  6
HIDDEN
 62
     7
370
     0
100
AcDbCircle
 10
224.2430117148
 20
113.3040537681
 30
0.0
 40
2.415579835519464
100
AcDbArc
 50
122.7453893877
 51
147.4836912795
  0
SPLINE
  5
156
330
1F
100
AcDbEntity
  8
0
  6
HIDDEN
 62
     7
370
     0
100
AcDbSpline
210
0.0
220
0.0
230
1.0
 70
    11
 71
     3
 72
    56
 73
    52
 74
     0
 42
0.00000001
 43
0.00000001
 40
0.0
 40
0.0
 40
0.0
 40
0.0
 40
0.0624999999999999
 40
0.0624999999999999
 40
0.0937499999999998
 40
0.0937499999999998
 40
0.1249999999999996
 40
0.1249999999999996
 40
0.1562499999999995
 40
0.1562499999999995
 40
0.1874999999999994
 40
0.1874999999999994
 40
0.2187499999999993
 40
0.2187499999999993
 40
0.2499999999999992
 40
0.2499999999999992
 40
0.3124999999999989
 40
0.3124999999999989
 40
0.3437499999999989
 40
0.3437499999999989
 40
0.3749999999999989
 40
0.3749999999999989
 40
0.4062499999999989
 40
0.4062499999999989
 40
0.4374999999999989
 40
0.4374999999999989
 40
0.4687499999999989
 40
0.4687499999999989
 40
0.4999999999999989
 40
0.4999999999999989
 40
0.5624999999999989
 40
0.5624999999999989
 40
0.6249999999999989
 40
0.6249999999999989
 40
0.6874999999999989
 40
0.6874999999999989
 40
0.7187499999999989
 40
0.7187499999999989
 40
0.7499999999999989
 40
0.7499999999999989
 40
0.781249999999999
 40
0.781249999999999
 40
0.812499999999999
 40
0.812499999999999
 40
0.8749999999999993
 40
0.8749999999999993
 40
0.9374999999999997
 40
0.9374999999999997
 40
0.9687499999999999
 40
0.9687499999999999
 40
1.0
 40
1.0
 40
1.0
 40
1.0
 10
188.1093337408105
 20
86.03895437620288
 30
0.0
 10
187.8535464302628
 20
86.07447768009644
 30
0.0
 10
187.5633566233195
 20
86.11002154906465
 30
0.0
 10
187.0767035250287
 20
86.15649324897352
 30
0.0
 10
186.9063576828675
 20
86.17073916220502
 30
0.0
 10
186.5593842727764
 20
86.19502707640343
 30
0.0
 10
186.3814463755417
 20
86.20520342272548
 30
0.0
 10
186.0165270979819
 20
86.22087875032936
 30
0.0
 10
185.8281925058866
 20
86.22636571154224
 30
0.0
 10
185.4543056534311
 20
86.23182570581797
 30
0.0
 10
185.2676154392612
 20
86.23188392907713
 30
0.0
 10
184.894736948342
 20
86.22669978710034
 30
0.0
 10
184.7070327054196
 20
86.22138430862893
 30
0.0
 10
184.3401138058721
 20
86.20588192760562
 30
0.0
 10
184.1616640638075
 20
86.19578251984491
 30
0.0
 10
183.6408751604469
 20
86.15965067819101
 30
0.0
 10
183.3099914407759
 20
86.12722145717294
 30
0.0
 10
182.8734898824443
 20
86.07569496580585
 30
0.0
 10
182.7367043433917
 20
86.05797035476186
 30
0.0
 10
182.4809797339379
 20
86.02257602825257
 30
0.0
 10
182.3633560058323
 20
86.00507950687198
 30
0.0
 10
182.1532865526437
 20
85.97237711088346
 30
0.0
 10
182.0599517139587
 20
85.95704530193741
 30
0.0
 10
181.8970060032795
 20
85.9294491425886
 30
0.0
 10
181.8273030404297
 20
85.917162459475
 30
0.0
 10
181.7166799740975
 20
85.89731746768852
 30
0.0
 10
181.6749983024871
 20
85.88963135516185
 30
0.0
 10
181.6188231621119
 20
85.8792139747846
 30
0.0
 10
181.6043848863513
 20
85.87649281710814
 30
0.0
 10
181.6042258912487
 20
85.87646300552755
 30
0.0
 10
181.6598852289855
 20
85.88712513567552
 30
0.0
 10
181.8827099895199
 20
85.9271058074105
 30
0.0
 10
182.0446222751136
 20
85.95544205904282
 30
0.0
 10
182.4684138338494
 20
86.02145296800288
 30
0.0
 10
182.7232602563966
 20
86.05791284079409
 30
0.0
 10
183.1619039165104
 20
86.10976436378044
 30
0.0
 10
183.3186014527898
 20
86.12665199784043
 30
0.0
 10
183.6418014025684
 20
86.15734541846136
 30
0.0
 10
183.8094748839887
 20
86.17130522540522
 30
0.0
 10
184.1570597501774
 20
86.19550465455639
 30
0.0
 10
184.3386232309963
 20
86.20580160338719
 30
0.0
 10
184.7048095058052
 20
86.22130755024911
 30
0.0
 10
184.8894669216475
 20
86.2265735321461
 30
0.0
 10
185.4480633282059
 20
86.23449635540162
 30
0.0
 10
185.8303976696765
 20
86.22878223202797
 30
0.0
 10
186.5576948140449
 20
86.1977231458657
 30
0.0
 10
186.9133888881449
 20
86.17203450981573
 30
0.0
 10
187.3967011650958
 20
86.12596249960764
 30
0.0
 10
187.5503987723123
 20
86.10936034119135
 30
0.0
 10
187.8428209971555
 20
86.07474048597705
 30
0.0
 10
187.9814362203607
 20
86.05671656493867
 30
0.0
 10
188.1093337408105
 20
86.03895437620287
 30
0.0
  0
SPLINE
  5
157
330
1F
100
AcDbEntity
  8
0
  6
HIDDEN
 62
     7
370
     0
100
AcDbSpline
210
0.0
220
0.0
230
1.0
 70
    11
 71
     3
 72
    56
 73
    52
 74
     0
 42
0.00000001
 43
0.00000001
 40
0.0
 40
0.0
 40
0.0
 40
0.0
 40
0.0624999999999997
 40
0.0624999999999997
 40
0.0937499999999996
 40
0.0937499999999996
 40
0.1249999999999995
 40
0.1249999999999995
 40
0.1562499999999994
 40
0.1562499999999994
 40
0.1874999999999993
 40
0.1874999999999993
 40
0.2187499999999993
 40
0.2187499999999993
 40
0.2499999999999992
 40
0.2499999999999992
 40
0.3124999999999992
 40
0.3124999999999992
 40
0.3437499999999992
 40
0.3437499999999992
 40
0.3749999999999993
 40
0.3749999999999993
 40
0.4062499999999994
 40
0.4062499999999994
 40
0.4374999999999995
 40
0.4374999999999995
 40
0.4687499999999996
 40
0.4687499999999996
 40
0.4999999999999997
 40
0.4999999999999997
 40
0.5624999999999998
 40
0.5624999999999998
 40
0.625
 40
0.625
 40
0.6875000000000001
 40
0.6875000000000001
 40
0.7187500000000002
 40
0.7187500000000002
 40
0.7500000000000003
 40
0.7500000000000003
 40
0.7812500000000004
 40
0.7812500000000004
 40
0.8125000000000004
 40
0.8125000000000004
 40
0.8750000000000003
 40
0.8750000000000003
 40
0.9375000000000001
 40
0.9375000000000001
 40
0.9687500000000001
 40
0.9687500000000001
 40
1.0
 40
1.0
 40
1.0
 40
1.0
 10
188.1093337408105
 20
125.7140113278358
 30
0.0
 10
187.8535464302628
 20
125.6784880239422
 30
0.0
 10
187.5633566233195
 20
125.642944154974
 30
0.0
 10
187.0767035250287
 20
125.5964724550651
 30
0.0
 10
186.9063576828675
 20
125.5822265418336
 30
0.0
 10
186.5593842727765
 20
125.5579386276352
 30
0.0
 10
186.3814463755417
 20
125.5477622813132
 30
0.0
 10
186.0165270979819
 20
125.5320869537093
 30
0.0
 10
185.8281925058866
 20
125.5265999924964
 30
0.0
 10
185.4543056534311
 20
125.5211399982207
 30
0.0
 10
185.2676154392612
 20
125.5210817749615
 30
0.0
 10
184.894736948342
 20
125.5262659169383
 30
0.0
 10
184.7070327054196
 20
125.5315813954097
 30
0.0
 10
184.3401138058721
 20
125.547083776433
 30
0.0
 10
184.1616640638076
 20
125.5571831841937
 30
0.0
 10
183.6408751604469
 20
125.5933150258476
 30
0.0
 10
183.3099914407759
 20
125.6257442468657
 30
0.0
 10
182.8734898824443
 20
125.6772707382328
 30
0.0
 10
182.7367043433917
 20
125.6949953492768
 30
0.0
 10
182.4809797339379
 20
125.7303896757861
 30
0.0
 10
182.3633560058323
 20
125.7478861971667
 30
0.0
 10
182.1532865526437
 20
125.7805885931552
 30
0.0
 10
182.0599517139587
 20
125.7959204021012
 30
0.0
 10
181.8970060032795
 20
125.82351656145
 30
0.0
 10
181.8273030404297
 20
125.8358032445636
 30
0.0
 10
181.7166799740976
 20
125.8556482363501
 30
0.0
 10
181.6749983024871
 20
125.8633343488768
 30
0.0
 10
181.6188231621119
 20
125.873751729254
 30
0.0
 10
181.6043848863513
 20
125.8764728869305
 30
0.0
 10
181.6042258912487
 20
125.8765026985111
 30
0.0
 10
181.6598852289855
 20
125.8658405683631
 30
0.0
 10
181.8827099895199
 20
125.8258598966281
 30
0.0
 10
182.0446222751136
 20
125.7975236449958
 30
0.0
 10
182.4684138338494
 20
125.7315127360358
 30
0.0
 10
182.7232602563966
 20
125.6950528632446
 30
0.0
 10
183.1619039165103
 20
125.6432013402582
 30
0.0
 10
183.3186014527898
 20
125.6263137061982
 30
0.0
 10
183.6418014025684
 20
125.5956202855773
 30
0.0
 10
183.8094748839887
 20
125.5816604786334
 30
0.0
 10
184.1570597501774
 20
125.5574610494823
 30
0.0
 10
184.3386232309963
 20
125.5471641006515
 30
0.0
 10
184.7048095058052
 20
125.5316581537896
 30
0.0
 10
184.8894669216475
 20
125.5263921718926
 30
0.0
 10
185.4480633282059
 20
125.5184693486371
 30
0.0
 10
185.8303976696764
 20
125.5241834720107
 30
0.0
 10
186.5576948140448
 20
125.5552425581729
 30
0.0
 10
186.9133888881449
 20
125.5809311942229
 30
0.0
 10
187.3967011650958
 20
125.627003204431
 30
0.0
 10
187.5503987723123
 20
125.6436053628473
 30
0.0
 10
187.8428209971554
 20
125.6782252180616
 30
0.0
 10
187.9814362203606
 20
125.6962491391
 30
0.0
 10
188.1093337408105
 20
125.7140113278358
 30
0.0
  0
SPLINE
  5
158
330
1F
100
AcDbEntity
  8
0
  6
HIDDEN
 62
     7
370
     0
100
AcDbSpline
210
0.0
220
0.0
230
1.0
 70
    11
 71
     3
 72
    22
 73
    18
 74
     0
 42
0.00000001
 43
0.00000001
 40
0.0
 40
0.0
 40
0.0
 40
0.0
 40
0.1250000000000001
 40
0.1250000000000001
 40
0.2500000000000001
 40
0.2500000000000001
 40
0.3750000000000001
 40
0.3750000000000001
 40
0.5000000000000001
 40
0.5000000000000001
 40
0.6250000000000001
 40
0.6250000000000001
 40
0.7500000000000001
 40
0.7500000000000001
 40
0.8750000000000001
 40
0.8750000000000001
 40
1.0
 40
1.0
 40
1.0
 40
1.0
 10
188.1093337408105
 20
125.7140113278358
 30
0.0
 10
188.2682765697796
 20
125.7360850358828
 30
0.0
 10
188.4089681176699
 20
125.7527688538704
 30
0.0
 10
188.6549543551324
 20
125.7789905487527
 30
0.0
 10
188.7609924378137
 20
125.7885698545981
 30
0.0
 10
188.9314844783807
 20
125.8026491216772
 30
0.0
 10
188.9955371778444
 20
125.8071556979242
 30
0.0
 10
189.0820412289374
 20
125.8130198677622
 30
0.0
 10
189.1042747242976
 20
125.8143618002805
 30
0.0
 10
189.1043885303095
 20
125.81436894003
 30
0.0
 10
189.0829306018242
 20
125.8130763045437
 30
0.0
 10
188.9969448089452
 20
125.8072548750335
 30
0.0
 10
188.9316306621957
 20
125.8026554057577
 30
0.0
 10
188.7626248282603
 20
125.7887103849478
 30
0.0
 10
188.6586657903845
 20
125.7793579980895
 30
0.0
 10
188.4111553441456
 20
125.7530295276231
 30
0.0
 10
188.2682712540619
 20
125.7360842976451
 30
0.0
 10
188.1093337408109
 20
125.7140113278359
 30
0.0
  0
SPLINE
  5
159
330
1F
100
AcDbEntity
  8
0
  6
HIDDEN
 62
     7
370
     0
100
AcDbSpline
210
0.0
220
0.0
230
1.0
 70
    11
 71
     3
 72
    22
 73
    18
 74
     0
 42
0.00000001
 43
0.00000001
 40
0.0
 40
0.0
 40
0.0
 40
0.0
 40
0.125
 40
0.125
 40
0.25
 40
0.25
 40
0.375
 40
0.375
 40
0.5
 40
0.5
 40
0.625
 40
0.625
 40
0.75
 40
0.75
 40
0.875
 40
0.875
 40
1.0
 40
1.0
 40
1.0
 40
1.0
 10
188.1093337408105
 20
86.03895437620288
 30
0.0
 10
188.2682765697796
 20
86.01688066815582
 30
0.0
 10
188.40896811767
 20
86.00019685016821
 30
0.0
 10
188.6549543551324
 20
85.97397515528591
 30
0.0
 10
188.7609924378137
 20
85.96439584944062
 30
0.0
 10
188.9314844783807
 20
85.95031658236147
 30
0.0
 10
188.9955371778444
 20
85.94581000611441
 30
0.0
 10
189.0820412289374
 20
85.93994583627651
 30
0.0
 10
189.1042747242976
 20
85.9386039037582
 30
0.0
 10
189.1043885303095
 20
85.93859676400868
 30
0.0
 10
189.0829306018242
 20
85.93988939949493
 30
0.0
 10
188.9969448089453
 20
85.94571082900514
 30
0.0
 10
188.9316306621957
 20
85.95031029828097
 30
0.0
 10
188.7626248282603
 20
85.96425531909081
 30
0.0
 10
188.6586657903845
 20
85.97360770594914
 30
0.0
 10
188.4111553441456
 20
85.99993617641556
 30
0.0
 10
188.2682712540618
 20
86.01688140639357
 30
0.0
 10
188.1093337408108
 20
86.03895437620278
 30
0.0
  0
LINE
  5
15A
330
1F
100
AcDbEntity
  8
0
  6
HIDDEN
 62
     7
370
     0
100
AcDbLine
 10
194.3543317392
 20
88.876482852
 30
0.0
 11
194.3543317392
 21
122.8577980073
 31
0.0
  0
LINE
  5
15B
330
1F
100
AcDbEntity
  8
0
  6
HIDDEN
 62
     7
370
     0
100
AcDbLine
 10
214.238184116
 20
125.726482852
 30
0.0
 11
220.3043317392
 21
125.726482852
 31
0.0
  0
LINE
  5
15C
330
1F
100
AcDbEntity
  8
0
  6
HIDDEN
 62
     7
370
     0
100
AcDbLine
 10
206.5499520849
 20
125.726482852
 30
0.0
 11
210.4704793624
 21
125.726482852
 31
0.0
  0
LINE
  5
15D
330
1F
100
AcDbEntity
  8
0
  6
HIDDEN
 62
     7
370
     0
100
AcDbLine
 10
175.3583063354
 20
122.876482852
 30
0.0
 11
175.3583063354
 21
88.876482852
 31
0.0
  0
LWPOLYLINE
  5
15E
330
1F
100
AcDbEntity
  8
0
  6
HIDDEN
 62
     7
370
     0
100
AcDbPolyline
 90
        2
 70
   128
 43
0.0
 10
175.3583063354
 20
88.876482852
 10
175.3583063354
 20
88.876482852
  0
LINE
  5
15F
330
1F
100
AcDbEntity
  8
0
  6
HIDDEN
 62
     7
370
     0
100
AcDbLine
 10
162.4543317392
 20
89.8465474542
 30
0.0
 11
162.4543317392
 21
121.9064182499
 31
0.0
  0
LINE
  5
160
330
1F
100
AcDbEntity
  8
0
  6
HIDDEN
 62
     7
370
     0
100
AcDbLine
 10
202.0141577077
 20
122.876482852
 30
0.0
 11
202.0141577077
 21
88.876482852
 31
0.0
  0
LWPOLYLINE
  5
161
330
1F
100
AcDbEntity
  8
0
  6
HIDDEN
 62
     7
370
     0
100
AcDbPolyline
 90
        2
 70
   128
 43
0.0
 10
202.0141577077
 20
88.876482852
 10
202.0141577077
 20
88.876482852
  0
LINE
  5
162
330
1F
100
AcDbEntity
  8
0
  6
HIDDEN
 62
     7
370
     0
100
AcDbLine
 10
204.3043317392
 20
121.6014828313
 30
0.0
 11
204.3043317392
 21
90.151482852
 31
0.0
  0
LWPOLYLINE
  5
163
330
1F
100
AcDbEntity
  8
0
  6
HIDDEN
 62
     7
370
     0
100
AcDbPolyline
 90
        2
 70
   128
 43
0.0
 10
204.3043317392
 20
90.151482852
 10
204.3043317392
 20
90.151482852
  0
LINE
  5
164
330
1F
100
AcDbEntity
  8
0
  6
HIDDEN
 62
     7
370
     0
100
AcDbLine
 10
163.6043317392
 20
90.074992416
 30
0.0
 11
171.1543317392
 21
90.074992416
 31
0.0
  0
LINE
  5
165
330
1F
100
AcDbEntity
  8
0
  6
HIDDEN
 62
     7
370
     0
100
AcDbLine
 10
163.6043317392
 20
121.6779732881
 30
0.0
 11
163.6043317392
 21
90.074992416
 31
0.0
  0
LINE
  5
166
330
1F
100
AcDbEntity
  8
0
  6
HIDDEN
 62
     7
370
     0
100
AcDbLine
 10
167.1543317392
 20
121.6779732881
 30
0.0
 11
163.6043317392
 21
121.6779732881
 31
0.0
  0
SPLINE
  5
167
330
1F
100
AcDbEntity
  8
0
  6
HIDDEN
 62
     7
370
     0
100
AcDbSpline
210
0.0
220
0.0
230
1.0
 70
     8
 71
     3
 72
    18
 73
    14
 74
     0
 42
0.00000001
 43
0.00000001
 40
0.0
 40
0.0
 40
0.0
 40
0.0
 40
0.2500000000000017
 40
0.2500000000000017
 40
0.3750000000000022
 40
0.3750000000000022
 40
0.5000000000000027
 40
0.5000000000000027
 40
0.6250000000000031
 40
0.6250000000000031
 40
0.7500000000000037
 40
0.7500000000000037
 40
1.0
 40
1.0
 40
1.0
 40
1.0
 10
168.5543317392089
 20
122.1639964744235
 30
0.0
 10
168.5543317392089
 20
122.1095219538713
 30
0.0
 10
168.5194210478168
 20
122.0531408945188
 30
0.0
 10
168.4174117464837
 20
121.9690640536653
 30
0.0
 10
168.3757753918056
 20
121.9417303496744
 30
0.0
 10
168.2773695963168
 20
121.8887764340754
 30
0.0
 10
168.2198263846126
 20
121.8628890803582
 30
0.0
 10
168.0925282110396
 20
121.8151115355249
 30
0.0
 10
168.0229409062821
 20
121.7931636173471
 30
0.0
 10
167.8715066611272
 20
121.7537310524343
 30
0.0
 10
167.7888227580332
 20
121.7361748032085
 30
0.0
 10
167.5327112959952
 20
121.693736037788
 30
0.0
 10
167.3447962921072
 20
121.677973288051
 30
0.0
 10
167.1543317392089
 20
121.677973288051
 30
0.0
  0
LINE
  5
168
330
1F
100
AcDbEntity
  8
0
  6
HIDDEN
 62
     7
370
     0
100
AcDbLine
 10
168.5543317392
 20
122.1639964744
 30
0.0
 11
168.5543317392
 21
122.876482852
 31
0.0
  0
SPLINE
  5
169
330
1F
100
AcDbEntity
  8
0
  6
HIDDEN
 62
     7
370
     0
100
AcDbSpline
210
0.0
220
0.0
230
1.0
 70
     8
 71
     3
 72
    18
 73
    14
 74
     0
 42
0.00000001
 43
0.00000001
 40
0.0
 40
0.0
 40
0.0
 40
0.0
 40
0.2500000000000022
 40
0.2500000000000022
 40
0.3750000000000027
 40
0.3750000000000027
 40
0.5000000000000031
 40
0.5000000000000031
 40
0.6250000000000036
 40
0.6250000000000036
 40
0.750000000000004
 40
0.750000000000004
 40
1.0
 40
1.0
 40
1.0
 40
1.0
 10
168.5543317392089
 20
122.1639964744235
 30
0.0
 10
168.5543317392089
 20
122.1095219538713
 30
0.0
 10
168.5194210478168
 20
122.0531408945188
 30
0.0
 10
168.4174117464837
 20
121.9690640536653
 30
0.0
 10
168.3757753918056
 20
121.9417303496744
 30
0.0
 10
168.2773695963168
 20
121.8887764340754
 30
0.0
 10
168.2198263846126
 20
121.8628890803582
 30
0.0
 10
168.0925282110396
 20
121.8151115355249
 30
0.0
 10
168.0229409062821
 20
121.7931636173471
 30
0.0
 10
167.8715066611272
 20
121.7537310524343
 30
0.0
 10
167.7888227580333
 20
121.7361748032085
 30
0.0
 10
167.5327112959952
 20
121.693736037788
 30
0.0
 10
167.3447962921072
 20
121.677973288051
 30
0.0
 10
167.1543317392089
 20
121.677973288051
 30
0.0
  0
LINE
  5
16A
330
1F
100
AcDbEntity
  8
0
  6
HIDDEN
 62
     7
370
     0
100
AcDbLine
 10
167.1543317392
 20
121.6779732881
 30
0.0
 11
163.6043317392
 21
121.6779732881
 31
0.0
  0
LINE
  5
16B
330
1F
100
AcDbEntity
  8
0
  6
HIDDEN
 62
     7
370
     0
100
AcDbLine
 10
163.6043317392
 20
90.074992416
 30
0.0
 11
171.1543317392
 21
90.074992416
 31
0.0
  0
SPLINE
  5
16C
330
1F
100
AcDbEntity
  8
0
  6
HIDDEN
 62
     7
370
     0
100
AcDbSpline
210
0.0
220
0.0
230
1.0
 70
     8
 71
     3
 72
    16
 73
    12
 74
     0
 42
0.00000001
 43
0.00000001
 40
0.0
 40
0.0
 40
0.0
 40
0.0
 40
0.125000000000002
 40
0.125000000000002
 40
0.250000000000004
 40
0.250000000000004
 40
0.5000000000000027
 40
0.5000000000000027
 40
0.7500000000000013
 40
0.7500000000000013
 40
1.0
 40
1.0
 40
1.0
 40
1.0
 10
171.1543317392089
 20
90.07499241598768
 30
0.0
 10
171.2494534938747
 20
90.07499241598768
 30
0.0
 10
171.3427835626028
 20
90.07117658259486
 30
0.0
 10
171.5260453233408
 20
90.05640602986506
 30
0.0
 10
171.6169230388978
 20
90.04524798188947
 30
0.0
 10
171.8737247364176
 20
90.00277671174776
 30
0.0
 10
172.0287921012896
 20
89.96173051454495
 30
0.0
 10
172.2825385628442
 20
89.86658439796307
 30
0.0
 10
172.383409014512
 20
89.81182166388149
 30
0.0
 10
172.5186554292069
 20
89.7005605399776
 30
0.0
 10
172.5543317392089
 20
89.64339080264891
 30
0.0
 10
172.5543317392089
 20
89.58896922961517
 30
0.0
  0
LINE
  5
16D
330
1F
100
AcDbEntity
  8
0
  6
HIDDEN
 62
     7
370
     0
100
AcDbLine
 10
172.5543317392
 20
89.5889692296
 30
0.0
 11
172.5543317392
 21
88.876482852
 31
0.0
  0
SPLINE
  5
16E
330
1F
100
AcDbEntity
  8
0
  6
HIDDEN
 62
     7
370
     0
100
AcDbSpline
210
0.0
220
0.0
230
1.0
 70
     8
 71
     3
 72
    16
 73
    12
 74
     0
 42
0.00000001
 43
0.00000001
 40
0.0
 40
0.0
 40
0.0
 40
0.0
 40
0.1249999999999988
 40
0.1249999999999988
 40
0.2499999999999977
 40
0.2499999999999977
 40
0.4999999999999984
 40
0.4999999999999984
 40
0.7499999999999992
 40
0.7499999999999992
 40
1.0
 40
1.0
 40
1.0
 40
1.0
 10
171.1543317392089
 20
90.07499241598765
 30
0.0
 10
171.2494534938747
 20
90.07499241598765
 30
0.0
 10
171.3427835626028
 20
90.07117658259487
 30
0.0
 10
171.5260453233408
 20
90.05640602986506
 30
0.0
 10
171.6169230388978
 20
90.04524798188947
 30
0.0
 10
171.8737247364176
 20
90.00277671174777
 30
0.0
 10
172.0287921012896
 20
89.96173051454497
 30
0.0
 10
172.2825385628442
 20
89.86658439796308
 30
0.0
 10
172.383409014512
 20
89.8118216638815
 30
0.0
 10
172.5186554292069
 20
89.70056053997762
 30
0.0
 10
172.5543317392089
 20
89.64339080264894
 30
0.0
 10
172.5543317392089
 20
89.5889692296152
 30
0.0
  0
LINE
  5
16F
330
1F
100
AcDbEntity
  8
0
  6
HIDDEN
 62
     7
370
     0
100
AcDbLine
 10
163.6043317392
 20
90.074992416
 30
0.0
 11
163.6043317392
 21
121.6779732881
 31
0.0
  0
SPLINE
  5
170
330
1F
100
AcDbEntity
  8
0
  6
HIDDEN
 62
     7
370
     0
100
AcDbSpline
210
0.0
220
0.0
230
1.0
 70
     8
 71
     3
 72
    28
 73
    24
 74
     0
 42
0.00000001
 43
0.00000001
 40
0.0
 40
0.0
 40
0.0
 40
0.0
 40
0.1250000000000001
 40
0.1250000000000001
 40
0.2500000000000001
 40
0.2500000000000001
 40
0.3750000000000002
 40
0.3750000000000002
 40
0.5000000000000002
 40
0.5000000000000002
 40
0.6250000000000002
 40
0.6250000000000002
 40
0.7500000000000003
 40
0.7500000000000003
 40
0.8750000000000004
 40
0.8750000000000004
 40
0.9375000000000007
 40
0.9375000000000007
 40
0.9687500000000004
 40
0.9687500000000004
 40
0.9843750000000002
 40
0.9843750000000002
 40
1.0
 40
1.0
 40
1.0
 40
1.0
 10
236.552930577519
 20
124.1983241788664
 30
0.0
 10
236.4994562947205
 20
124.3642364112978
 30
0.0
 10
236.3989086272804
 20
124.5663340299855
 30
0.0
 10
236.1942604887559
 20
125.0238022475899
 30
0.0
 10
236.0890873064046
 20
125.2802309906962
 30
0.0
 10
235.9216172247344
 20
125.8131872699584
 30
0.0
 10
235.8586969587557
 20
126.0894731221019
 30
0.0
 10
235.7833349197507
 20
126.6371042158534
 30
0.0
 10
235.7701366073311
 20
126.9084347626491
 30
0.0
 10
235.7832777640196
 20
127.4383618019974
 30
0.0
 10
235.809362047401
 20
127.6974773640898
 30
0.0
 10
235.8891046026522
 20
128.2029873774744
 30
0.0
 10
235.9427042982806
 20
128.4500888560163
 30
0.0
 10
236.0712713162311
 20
128.9442468391421
 30
0.0
 10
236.1459064210355
 20
129.1898907006068
 30
0.0
 10
236.2762363832281
 20
129.5833498124149
 30
0.0
 10
236.3226740096789
 20
129.7181845898932
 30
0.0
 10
236.4004845545778
 20
129.9426811172353
 30
0.0
 10
236.4277201364191
 20
130.0209036991642
 30
0.0
 10
236.472460328203
 20
130.1530585368564
 30
0.0
 10
236.4880887482594
 20
130.1997691617003
 30
0.0
 10
236.5205892139465
 20
130.3009993982762
 30
0.0
 10
236.537946502906
 20
130.3569711230858
 30
0.0
 10
236.552930577519
 20
130.4120295895225
 30
0.0
  0
SPLINE
  5
171
330
1F
100
AcDbEntity
  8
0
  6
HIDDEN
 62
     7
370
     0
100
AcDbSpline
210
0.0
220
0.0
230
1.0
 70
     8
 71
     3
 72
     8
 73
     4
 74
     0
 42
0.00000001
 43
0.00000001
 40
0.0
 40
0.0
 40
0.0
 40
0.0
 40
1.0
 40
1.0
 40
1.0
 40
1.0
 10
236.6222809316401
 20
78.88148921686702
 30
0.0
 10
236.6137086631476
 20
78.93053371094611
 30
0.0
 10
236.6136951557537
 20
78.99128204420002
 30
0.0
 10
236.6222809316401
 20
79.06378962944999
 30
0.0
  0
LINE
  5
172
330
1F
100
AcDbEntity
  8
0
  6
HIDDEN
 62
     7
370
     0
100
AcDbLine
 10
236.6222809316
 20
79.0637896295
 30
0.0
 11
236.6222809316
 21
105.876482852
 31
0.0
  0
SPLINE
  5
173
330
1F
100
AcDbEntity
  8
0
  6
HIDDEN
 62
     7
370
     0
100
AcDbSpline
210
0.0
220
0.0
230
1.0
 70
     8
 71
     3
 72
    10
 73
     6
 74
     0
 42
0.00000001
 43
0.00000001
 40
0.0
 40
0.0
 40
0.0
 40
0.0
 40
0.5
 40
0.5
 40
1.0
 40
1.0
 40
1.0
 40
1.0
 10
237.8345182001374
 20
122.1482633369905
 30
0.0
 10
237.4615727619267
 20
119.451760418138
 30
0.0
 10
237.1557779404736
 20
116.7491829176875
 30
0.0
 10
236.7353741315165
 20
111.3267328567443
 30
0.0
 10
236.6222809316401
 20
108.6067231750147
 30
0.0
 10
236.6222809316401
 20
105.8764828520193
 30
0.0
  0
SPLINE
  5
174
330
1F
100
AcDbEntity
  8
0
  6
HIDDEN
 62
     7
370
     0
100
AcDbSpline
210
0.0
220
0.0
230
1.0
 70
     8
 71
     3
 72
    10
 73
     6
 74
     0
 42
0.00000001
 43
0.00000001
 40
0.0
 40
0.0
 40
0.0
 40
0.0
 40
0.5
 40
0.5
 40
1.0
 40
1.0
 40
1.0
 40
1.0
 10
236.552930577519
 20
124.1983241788664
 30
0.0
 10
236.7057741443402
 20
123.7241033748287
 30
0.0
 10
236.8934246911015
 20
123.3129418747224
 30
0.0
 10
237.3241780907119
 20
122.6231347875247
 30
0.0
 10
237.5671808241906
 20
122.3439643414774
 30
0.0
 10
237.8345182001374
 20
122.1482633369905
 30
0.0
  0
LINE
  5
175
330
1F
100
AcDbEntity
  8
0
  6
HIDDEN
 62
     7
370
     0
100
AcDbLine
 10
236.6222809316
 20
78.876482852
 30
0.0
 11
236.6222809316
 21
78.8814892169
 31
0.0
  0
ELLIPSE
  5
176
330
1F
100
AcDbEntity
  8
0
  6
HIDDEN
 62
     7
370
     0
100
AcDbEllipse
 10
256.3770259453
 20
105.876482852
 30
0.0
 11
19.75908128153321
 21
26.99227138525077
 31
0.0
210
0.0
220
0.0
230
1.0
 40
0.0326926316
 41
3.146262435436001
 42
3.165519987239061
  0
LINE
  5
177
330
1F
100
AcDbEntity
  8
0
  6
HIDDEN
 62
     7
370
     0
100
AcDbLine
 10
163.6043317392
 20
87.886482852
 30
0.0
 11
163.6043317392
 21
85.063982852
 31
0.0
  0
LINE
  5
178
330
1F
100
AcDbEntity
  8
0
  6
HIDDEN
 62
     7
370
     0
100
AcDbLine
 10
172.5543317392
 20
87.886482852
 30
0.0
 11
172.5543317392
 21
83.9313345927
 31
0.0
  0
LINE
  5
179
330
1F
100
AcDbEntity
  8
0
  6
HIDDEN
 62
     7
370
     0
100
AcDbLine
 10
163.6043317392
 20
123.866482852
 30
0.0
 11
163.6043317392
 21
126.7464206174
 31
0.0
  0
LINE
  5
17A
330
1F
100
AcDbEntity
  8
0
  6
HIDDEN
 62
     7
370
     0
100
AcDbLine
 10
162.4543317392
 20
123.866482852
 30
0.0
 11
162.4543317392
 21
125.5671605985
 31
0.0
  0
LINE
  5
17B
330
1F
100
AcDbEntity
  8
0
  6
HIDDEN
 62
     7
370
     0
100
AcDbLine
 10
162.4543317392
 20
87.886482852
 30
0.0
 11
162.4543317392
 21
86.2233223271
 31
0.0
  0
LINE
  5
17C
330
1F
100
AcDbEntity
  8
0
  6
HIDDEN
 62
     7
370
     0
100
AcDbLine
 10
168.5543317392
 20
123.866482852
 30
0.0
 11
168.5543317392
 21
127.7205905244
 31
0.0
  0
LINE
  5
17D
330
1F
100
AcDbEntity
  8
0
  6
HIDDEN
 62
     7
370
     0
100
AcDbLine
 10
216.1543317392
 20
115.376482852
 30
0.0
 11
216.1543317392
 21
96.376482852
 31
0.0
  0
LINE
  5
17E
330
1F
100
AcDbEntity
  8
0
  6
HIDDEN
 62
     7
370
     0
100
AcDbLine
 10
213.6543317392
 20
115.376482852
 30
0.0
 11
213.6543317392
 21
96.376482852
 31
0.0
  0
LINE
  5
17F
330
1F
100
AcDbEntity
  8
0
  6
HIDDEN
 62
     7
370
     0
100
AcDbLine
 10
256.4237752618
 20
105.3125185386
 30
0.0
 11
250.1072663847
 21
99.0919716245
 31
0.0
  0
LWPOLYLINE
  5
180
330
1F
100
AcDbEntity
  8
0
  6
HIDDEN
 62
     7
370
     0
100
AcDbPolyline
 90
        2
 70
   128
 43
0.0
 10
220.3043317392
 20
79.476482852
 10
220.3043317392
 20
79.476482852
  0
LINE
  5
181
330
1F
100
AcDbEntity
  8
0
  6
HIDDEN
 62
     7
370
     0
100
AcDbLine
 10
204.8043317392
 20
114.376482852
 30
0.0
 11
204.8043317392
 21
97.376482852
 31
0.0
  0
LINE
  5
182
330
1F
100
AcDbEntity
  8
0
  6
HIDDEN
 62
     7
370
     0
100
AcDbLine
 10
204.3043317392
 20
96.876482852
 30
0.0
 11
204.3043317392
 21
114.8579913868
 31
0.0
  0
LINE
  5
183
330
1F
100
AcDbEntity
  8
0
  6
HIDDEN
 62
     7
370
     0
100
AcDbLine
 10
210.5420065415
 20
79.476482852
 30
0.0
 11
207.3043317392
 21
79.476482852
 31
0.0
  0
LINE
  5
184
330
1F
100
AcDbEntity
  8
0
  6
HIDDEN
 62
     7
370
     0
100
AcDbLine
 10
210.4443317392
 20
79.0720872237
 30
0.0
 11
210.4443317392
 21
78.378645693
 31
0.0
  0
LINE
  5
185
330
1F
100
AcDbEntity
  8
0
  6
HIDDEN
 62
     7
370
     0
100
AcDbLine
 10
199.3043317392
 20
74.3923598692
 30
0.0
 11
199.3043317392
 21
79.476482852
 31
0.0
  0
LINE
  5
186
330
1F
100
AcDbEntity
  8
0
  6
HIDDEN
 62
     7
370
     0
100
AcDbLine
 10
207.3043317392
 20
79.476482852
 30
0.0
 11
199.3043317392
 21
79.476482852
 31
0.0
  0
LINE
  5
187
330
1F
100
AcDbEntity
  8
0
  6
HIDDEN
 62
     7
370
     0
100
AcDbLine
 10
220.3043317392
 20
79.476482852
 30
0.0
 11
214.1666569369
 21
79.476482852
 31
0.0
  0
LINE
  5
188
330
1F
100
AcDbEntity
  8
0
  6
HIDDEN
 62
     7
370
     0
100
AcDbLine
 10
214.2643317392
 20
78.378645693
 30
0.0
 11
214.2643317392
 21
79.0720872237
 31
0.0
  0
LINE
  5
189
330
1F
100
AcDbEntity
  8
0
  6
HIDDEN
 62
     7
370
     0
100
AcDbLine
 10
220.3043317392
 20
79.476482852
 30
0.0
 11
220.3043317392
 21
76.3162054514
 31
0.0
  0
LINE
  5
18A
330
1F
100
AcDbEntity
  8
0
  6
HIDDEN
 62
     7
370
     0
100
AcDbLine
 10
213.6543317392
 20
97.376482852
 30
0.0
 11
213.6543317392
 21
114.3575013203
 31
0.0
  0
LINE
  5
18B
330
1F
100
AcDbEntity
  8
0
  6
HIDDEN
 62
     7
370
     0
100
AcDbLine
 10
237.7614325038
 20
137.0177769717
 30
0.0
 11
237.5346709445
 21
136.1848321194
 31
0.0
  0
SPLINE
  5
18C
330
1F
100
AcDbEntity
  8
0
  6
HIDDEN
 62
     7
370
     0
100
AcDbSpline
210
0.0
220
0.0
230
1.0
 70
     8
 71
     3
 72
     9
 73
     5
 74
     0
 42
0.00000001
 43
0.00000001
 40
0.0
 40
0.0
 40
0.0
 40
0.0
 40
0.9425616489248662
 40
1.0
 40
1.0
 40
1.0
 40
1.0
 10
237.5346709444881
 20
136.1848321194472
 30
0.0
 10
237.5532485131782
 20
136.3129995132191
 30
0.0
 10
237.5729581721816
 20
136.4489772436075
 30
0.0
 10
237.6171074919631
 20
136.5860239672536
 30
0.0
 10
237.6196433560924
 20
136.5938957050801
 30
0.0
  0
SPLINE
  5
18D
330
1F
100
AcDbEntity
  8
0
  6
HIDDEN
 62
     7
370
     0
100
AcDbSpline
210
0.0
220
0.0
230
1.0
 70
     8
 71
     3
 72
    26
 73
    22
 74
     0
 42
0.00000001
 43
0.00000001
 40
0.0
 40
0.0
 40
0.0
 40
0.0
 40
0.2499999999999999
 40
0.2499999999999999
 40
0.4999999999999998
 40
0.4999999999999998
 40
0.6249999999999998
 40
0.6249999999999998
 40
0.7499999999999997
 40
0.7499999999999997
 40
0.8124999999999994
 40
0.8124999999999994
 40
0.8749999999999992
 40
0.8749999999999992
 40
0.9062499999999993
 40
0.9062499999999993
 40
0.9374999999999996
 40
0.9374999999999996
 40
0.9687499999999998
 40
0.9687499999999998
 40
1.0
 40
1.0
 40
1.0
 40
1.0
 10
239.1705151670373
 20
130.4526968860551
 30
0.0
 10
238.9699668341009
 20
130.8431672369547
 30
0.0
 10
238.768765925722
 20
131.1547903112216
 30
0.0
 10
238.3692678011691
 20
131.6439221338935
 30
0.0
 10
238.1711591383712
 20
131.8218122185153
 30
0.0
 10
237.8731755911936
 20
131.9720801447118
 30
0.0
 10
237.7736649642801
 20
132.0024951231786
 30
0.0
 10
237.5714432823196
 20
132.0118433537386
 30
0.0
 10
237.4693232062848
 20
131.9914625233487
 30
0.0
 10
237.3097043027123
 20
131.8999590672389
 30
0.0
 10
237.2554598525123
 20
131.8592092401143
 30
0.0
 10
237.1426532348833
 20
131.7474090042321
 30
0.0
 10
237.0841411050845
 20
131.6767266912742
 30
0.0
 10
236.9901839381706
 20
131.5323581839296
 30
0.0
 10
236.9577819492543
 20
131.4777276444568
 30
0.0
 10
236.8892814071274
 20
131.3485319923492
 30
0.0
 10
236.8532894307698
 20
131.2742250307893
 30
0.0
 10
236.7763315826198
 20
131.0955794737795
 30
0.0
 10
236.7351910893817
 20
130.9908375552291
 30
0.0
 10
236.6475384350721
 20
130.737451822463
 30
0.0
 10
236.5997377171271
 20
130.5840208129827
 30
0.0
 10
236.552930577519
 20
130.4120295895225
 30
0.0
  0
SPLINE
  5
18E
330
1F
100
AcDbEntity
  8
0
  6
HIDDEN
 62
     7
370
     0
100
AcDbSpline
210
0.0
220
0.0
230
1.0
 70
     8
 71
     3
 72
     8
 73
     4
 74
     0
 42
0.00000001
 43
0.00000001
 40
0.0
 40
0.0
 40
0.0
 40
0.0
 40
1.0
 40
1.0
 40
1.0
 40
1.0
 10
240.7929639800334
 20
138.7823537488588
 30
0.0
 10
240.2184508615186
 20
136.0088497467345
 30
0.0
 10
239.6719524666655
 20
133.2328114756334
 30
0.0
 10
239.1705151670373
 20
130.4526968860551
 30
0.0
  0
LINE
  5
18F
330
1F
100
AcDbEntity
  8
0
  6
HIDDEN
 62
     7
370
     0
100
AcDbLine
 10
240.79296398
 20
148.4416838909
 30
0.0
 11
240.79296398
 21
138.7823537489
 31
0.0
  0
LWPOLYLINE
  5
190
330
1F
100
AcDbEntity
  8
0
  6
HIDDEN
 62
     7
370
     0
100
AcDbPolyline
 90
        2
 70
   128
 43
0.0
 10
220.3043317392
 20
132.276482852
 10
220.3043317392
 20
132.276482852
  0
LINE
  5
191
330
1F
100
AcDbEntity
  8
0
  6
HIDDEN
 62
     7
370
     0
100
AcDbLine
 10
220.3043317392
 20
132.276482852
 30
0.0
 11
213.8700342075
 21
132.276482852
 31
0.0
  0
LINE
  5
192
330
1F
100
AcDbEntity
  8
0
  6
HIDDEN
 62
     7
370
     0
100
AcDbLine
 10
214.2643317392
 20
133.6817170432
 30
0.0
 11
214.2643317392
 21
132.9961367031
 31
0.0
  0
LINE
  5
193
330
1F
100
AcDbEntity
  8
0
  6
HIDDEN
 62
     7
370
     0
100
AcDbLine
 10
220.3043317392
 20
132.276482852
 30
0.0
 11
220.3043317392
 21
135.7229231758
 31
0.0
  0
LINE
  5
194
330
1F
100
AcDbEntity
  8
0
  6
HIDDEN
 62
     7
370
     0
100
AcDbLine
 10
210.8386292709
 20
132.276482852
 30
0.0
 11
207.3043317392
 21
132.276482852
 31
0.0
  0
LINE
  5
195
330
1F
100
AcDbEntity
  8
0
  6
HIDDEN
 62
     7
370
     0
100
AcDbLine
 10
210.4443317392
 20
132.9961367031
 30
0.0
 11
210.4443317392
 21
133.6817170432
 31
0.0
  0
LINE
  5
196
330
1F
100
AcDbEntity
  8
0
  6
HIDDEN
 62
     7
370
     0
100
AcDbLine
 10
207.3043317392
 20
132.276482852
 30
0.0
 11
199.3043317392
 21
132.276482852
 31
0.0
  0
LWPOLYLINE
  5
197
330
1F
100
AcDbEntity
  8
0
  6
HIDDEN
 62
     7
370
     0
100
AcDbPolyline
 90
       31
 70
   128
 43
0.0
 10
239.4881084978
 20
131.5557133658
 10
239.5853269455
 20
130.8387418586
 10
239.8288688007
 20
130.1531054467
 10
240.2080901157
 20
129.5287697314
 10
240.7064170993
 20
128.9930211792
 10
241.3020704712
 20
128.5692745727
 10
241.9690173207
 20
128.276049672
 10
242.6781088701
 20
128.1261618123
 10
243.3983544161
 20
128.1261618123
 10
244.0982757723
 20
128.276049672
 10
244.7472830167
 20
128.5692745727
 10
245.3170114185
 20
128.9930211792
 10
245.7825611127
 20
129.5287697314
 10
246.1235853437
 20
130.1531054467
 10
246.3251797162
 20
130.8387418586
 10
246.3785335888
 20
131.5557133658
 10
246.2813151411
 20
132.272684873
 10
246.0377732859
 20
132.9583212849
 10
245.6585519709
 20
133.5826570003
 10
245.1602249873
 20
134.1184055525
 10
244.5645716154
 20
134.542152159
 10
243.8976247659
 20
134.8353770597
 10
243.1885332165
 20
134.9852649194
 10
242.4682876705
 20
134.9852649194
 10
241.7683663143
 20
134.8353770597
 10
241.1193590699
 20
134.542152159
 10
240.5496306681
 20
134.1184055525
 10
240.0840809739
 20
133.5826570003
 10
239.7430567428
 20
132.9583212849
 10
239.5414623703
 20
132.272684873
 10
239.4881084978
 20
131.5557133658
  0
ELLIPSE
  5
198
330
1F
100
AcDbEntity
  8
0
  6
HIDDEN
 62
     7
370
     0
100
AcDbEllipse
 10
158.2868998749
 20
105.876482852
 30
0.0
 11
20.07002071827054
 21
-2.842170943040401E-14
 31
0.0
210
0.0
220
0.0
230
1.0
 40
0.8164965809
 41
4.921555463185704
 42
4.980534842098403
  0
LINE
  5
199
330
1F
100
AcDbEntity
  8
0
  6
HIDDEN
 62
     7
370
     0
100
AcDbLine
 10
162.4543317392
 20
87.886482852
 30
0.0
 11
162.4543317392
 21
89.8465474542
 31
0.0
  0
ELLIPSE
  5
19A
330
1F
100
AcDbEntity
  8
0
  6
HIDDEN
 62
     7
370
     0
100
AcDbEllipse
 10
158.2868998749
 20
105.876482852
 30
0.0
 11
20.07002071827054
 21
-2.842170943040401E-14
 31
0.0
210
0.0
220
0.0
230
1.0
 40
0.8164965809
 41
1.302650465081197
 42
1.361629843993897
  0
LINE
  5
19B
330
1F
100
AcDbEntity
  8
0
  6
HIDDEN
 62
     7
370
     0
100
AcDbLine
 10
162.4543317392
 20
123.866482852
 30
0.0
 11
162.4543317392
 21
121.9064182499
 31
0.0
  0
LINE
  5
19C
330
1F
100
AcDbEntity
  8
0
  6
HIDDEN
 62
     7
370
     0
100
AcDbLine
 10
168.5543317392
 20
123.866482852
 30
0.0
 11
168.5543317392
 21
122.1639964744
 31
0.0
  0
LINE
  5
19D
330
1F
100
AcDbEntity
  8
0
  6
HIDDEN
 62
     7
370
     0
100
AcDbLine
 10
163.6043317392
 20
123.866482852
 30
0.0
 11
163.6043317392
 21
121.6779732881
 31
0.0
  0
LINE
  5
19E
330
1F
100
AcDbEntity
  8
0
  6
HIDDEN
 62
     7
370
     0
100
AcDbLine
 10
163.6043317392
 20
87.886482852
 30
0.0
 11
163.6043317392
 21
90.074992416
 31
0.0
  0
LINE
  5
19F
330
1F
100
AcDbEntity
  8
0
  6
HIDDEN
 62
     7
370
     0
100
AcDbLine
 10
172.5543317392
 20
87.886482852
 30
0.0
 11
172.5543317392
 21
89.5889692296
 31
0.0
  0
SPLINE
  5
1A0
330
1F
100
AcDbEntity
  8
0
  6
HIDDEN
 62
     7
370
     0
100
AcDbSpline
210
0.0
220
0.0
230
1.0
 70
     8
 71
     3
 72
    40
 73
    36
 74
     0
 42
0.00000001
 43
0.00000001
 40
0.0
 40
0.0
 40
0.0
 40
0.0
 40
0.0625000000000006
 40
0.0625000000000006
 40
0.1250000000000011
 40
0.1250000000000011
 40
0.2500000000000021
 40
0.2500000000000021
 40
0.3125000000000022
 40
0.3125000000000022
 40
0.3750000000000022
 40
0.3750000000000022
 40
0.4062500000000017
 40
0.4062500000000017
 40
0.4375000000000012
 40
0.4375000000000012
 40
0.4687500000000007
 40
0.4687500000000007
 40
0.5000000000000002
 40
0.5000000000000002
 40
0.5312499999999997
 40
0.5312499999999997
 40
0.5624999999999992
 40
0.5624999999999992
 40
0.6249999999999993
 40
0.6249999999999993
 40
0.6874999999999994
 40
0.6874999999999994
 40
0.7499999999999996
 40
0.7499999999999996
 40
0.8749999999999999
 40
0.8749999999999999
 40
0.9375
 40
0.9375
 40
1.0
 40
1.0
 40
1.0
 40
1.0
 10
241.7852209400377
 20
134.5266274478357
 30
0.0
 10
241.8334007568905
 20
134.5740753050111
 30
0.0
 10
241.8989453037188
 20
134.6208694365423
 30
0.0
 10
242.0560323153551
 20
134.7125095055917
 30
0.0
 10
242.147843231652
 20
134.7573394476944
 30
0.0
 10
242.4509873849006
 20
134.8838121411874
 30
0.0
 10
242.6900963049107
 20
134.9590410642392
 30
0.0
 10
243.1027734188931
 20
135.0390281956571
 30
0.0
 10
243.2495965226853
 20
135.0601339142132
 30
0.0
 10
243.5672532167228
 20
135.0836906614869
 30
0.0
 10
243.7395241250038
 20
135.0863817117209
 30
0.0
 10
244.0189802568448
 20
135.063827784146
 30
0.0
 10
244.1156914100912
 20
135.0518606219639
 30
0.0
 10
244.3192079392805
 20
135.0145056339275
 30
0.0
 10
244.4256243210493
 20
134.9891749970483
 30
0.0
 10
244.6470039770248
 20
134.9187678681493
 30
0.0
 10
244.764132743296
 20
134.8728117955485
 30
0.0
 10
244.999844962397
 20
134.7532767314562
 30
0.0
 10
245.1203838546593
 20
134.6780270505379
 30
0.0
 10
245.3423096773127
 20
134.5035270980515
 30
0.0
 10
245.4423468199757
 20
134.4053824607684
 30
0.0
 10
245.6095396613705
 20
134.2077847722784
 30
0.0
 10
245.6767691602277
 20
134.1097237972149
 30
0.0
 10
245.8464208462398
 20
133.8201958028607
 30
0.0
 10
245.9144864727581
 20
133.6396238235048
 30
0.0
 10
246.0096507198284
 20
133.3046662183992
 30
0.0
 10
246.0360924672618
 20
133.1489241389999
 30
0.0
 10
246.0657460391662
 20
132.8531070200083
 30
0.0
 10
246.0684530462713
 20
132.7126718661392
 30
0.0
 10
246.0524111535587
 20
132.3178403356754
 30
0.0
 10
246.0107715734622
 20
132.087913224471
 30
0.0
 10
245.9218455261618
 20
131.7964136894238
 30
0.0
 10
245.8875136549394
 20
131.7084338346223
 30
0.0
 10
245.8098547267276
 20
131.5557702449535
 30
0.0
 10
245.7663869908355
 20
131.4907725870571
 30
0.0
 10
245.7177331506649
 20
131.4428579080433
 30
0.0
  0
ELLIPSE
  5
1A1
330
1F
100
AcDbEntity
  8
0
  6
HIDDEN
 62
     7
370
     0
100
AcDbEllipse
 10
247.0973268911
 20
137.0066462204
 30
0.0
 11
3.827220889374416
 21
0.7636100465516904
 31
0.0
210
0.0
220
0.0
230
1.0
 40
0.157545078
 41
6.047601591540884
 42
9.189194245130425
  0
SPLINE
  5
1A2
330
1F
100
AcDbEntity
  8
0
  6
HIDDEN
 62
     7
370
     0
100
AcDbSpline
210
0.0
220
0.0
230
1.0
 70
    11
 71
     3
 72
    34
 73
    30
 74
     0
 42
0.00000001
 43
0.00000001
 40
0.0
 40
0.0
 40
0.0
 40
0.0
 40
0.0127738756313522
 40
0.0481305018861466
 40
0.0807425016924106
 40
0.1375890913627023
 40
0.1884518731192376
 40
0.2226712138150791
 40
0.2626938372949291
 40
0.2986558359810682
 40
0.3315197765429635
 40
0.3878459718944648
 40
0.3881763079742728
 40
0.4440926113325964
 40
0.4768435653244775
 40
0.5126448960710747
 40
0.5530084671478458
 40
0.5873855940016189
 40
0.6380121006396069
 40
0.6949796268749422
 40
0.7275539945508149
 40
0.7628079420081157
 40
0.802870349397785
 40
0.8370831563378284
 40
0.887774982578573
 40
0.8880425262005196
 40
0.9388397946263505
 40
0.9729712758707858
 40
1.0
 40
1.0
 40
1.0
 40
1.0
 10
182.5143436516973
 20
82.80882099548023
 30
0.0
 10
182.5735373042991
 20
82.81490989927227
 30
0.0
 10
182.7965722148009
 20
82.83785219211309
 30
0.0
 10
183.3199246590371
 20
82.87449694466972
 30
0.0
 10
184.1926881301436
 20
82.90218097097811
 30
0.0
 10
185.3075260213654
 20
82.89162539718322
 30
0.0
 10
186.4205914257045
 20
82.77548029732993
 30
0.0
 10
187.3150329034879
 20
82.65388953852505
 30
0.0
 10
187.9988678412066
 20
82.53213086313193
 30
0.0
 10
188.5396183065944
 20
82.41577224757928
 30
0.0
 10
188.953049012357
 20
82.32228898673267
 30
0.0
 10
189.1811975333201
 20
82.25565526496898
 30
0.0
 10
189.0266540657067
 20
82.29692023625816
 30
0.0
 10
188.9997779328586
 20
82.30939032011352
 30
0.0
 10
188.5439944520483
 20
82.41493983681377
 30
0.0
 10
188.0200720005508
 20
82.5276856894284
 30
0.0
 10
187.3338619185906
 20
82.65078456769561
 30
0.0
 10
186.4407491782844
 20
82.7727757489297
 30
0.0
 10
185.3273126352597
 20
82.89052837696498
 30
0.0
 10
184.2165620083796
 20
82.9024989017475
 30
0.0
 10
183.331809943543
 20
82.87544145013143
 30
0.0
 10
182.6646142782365
 20
82.82750903359596
 30
0.0
 10
182.1233413873509
 20
82.77121624077203
 30
0.0
 10
181.7357619522577
 20
82.72613079679654
 30
0.0
 10
181.5417473307853
 20
82.68725079218841
 30
0.0
 10
181.6680732105168
 20
82.7086745738236
 30
0.0
 10
181.6972292522387
 20
82.71859122227387
 30
0.0
 10
182.0687265448052
 20
82.76621085250262
 30
0.0
 10
182.3777679849175
 20
82.79576155813203
 30
0.0
 10
182.5143436516973
 20
82.80882099548023
 30
0.0
  0
SPLINE
  5
1A3
330
1F
100
AcDbEntity
  8
0
  6
HIDDEN
 62
     7
370
     0
100
AcDbSpline
210
0.0
220
0.0
230
1.0
 70
     8
 71
     3
 72
    38
 73
    34
 74
     0
 42
0.00000001
 43
0.00000001
 40
-0.0939221400677788
 40
-0.065775259775378
 40
-0.0344739496007943
 40
0.0
 40
0.0323124298479836
 40
0.0609695982577461
 40
0.0859698687835549
 40
0.1073131755946561
 40
0.125001929016961
 40
0.1562358721977445
 40
0.1978507372990771
 40
0.2498168793248351
 40
0.2782629480307222
 40
0.304988415983286
 40
0.3300042168913842
 40
0.3533239044418168
 40
0.3749644360933808
 40
0.406026783832292
 40
0.4476555976010197
 40
0.4998320869201297
 40
0.5286685248934814
 40
0.5555536435543464
 40
0.5805015705746597
 40
0.6035302879119624
 40
0.62466296934292
 40
0.6685312637103242
 40
0.7183269153555463
 40
0.7652375706113131
 40
0.7915712044406463
 40
0.812293703571044
 40
0.8615656629637487
 40
0.9060778599322212
 40
0.934224740224622
 40
0.9655260503992057
 40
1.0
 40
1.032312429847984
 40
1.060969598257746
 40
1.085969868783555
 10
183.2945969033903
 20
128.8794868780468
 30
0.0
 10
182.6905286848809
 20
128.9240203832627
 30
0.0
 10
182.2152136220348
 20
128.9720957694957
 30
0.0
 10
181.8956147960349
 20
129.0082585087615
 30
0.0
 10
181.7086203903209
 20
129.0346486429499
 30
0.0
 10
181.6203147307685
 20
129.0507182527472
 30
0.0
 10
181.5909012348992
 20
129.0585419379971
 30
0.0
 10
181.6630333049681
 20
129.0403744394134
 30
0.0
 10
181.9841453071626
 20
128.9957678594508
 30
0.0
 10
182.5561727973772
 20
128.9350293307801
 30
0.0
 10
183.2067051451334
 20
128.8856851677601
 30
0.0
 10
183.7565812738749
 20
128.8633227072807
 30
0.0
 10
184.312019139653
 20
128.8548404973762
 30
0.0
 10
184.8527946872895
 20
128.8612915835248
 30
0.0
 10
185.4507245820888
 20
128.8847699601265
 30
0.0
 10
186.1903904392557
 20
128.9516898309637
 30
0.0
 10
187.1224400725286
 20
129.0677912648989
 30
0.0
 10
187.9117768062022
 20
129.2031061494902
 30
0.0
 10
188.4507064940396
 20
129.3182179735573
 30
0.0
 10
188.7648108339355
 20
129.3879920501084
 30
0.0
 10
188.9700912023013
 20
129.4385521356042
 30
0.0
 10
189.0811611883922
 20
129.469230275511
 30
0.0
 10
189.1274326901962
 20
129.4839572927671
 30
0.0
 10
189.00146782185
 20
129.4460976991798
 30
0.0
 10
188.5312222929768
 20
129.3356119147537
 30
0.0
 10
187.8780243293883
 20
129.1959076963776
 30
0.0
 10
187.2740053738723
 20
129.0927810902323
 30
0.0
 10
186.5996673242339
 20
128.9933450644628
 30
0.0
 10
185.7143178412465
 20
128.8998747301872
 30
0.0
 10
184.7448389506342
 20
128.8528662241145
 30
0.0
 10
183.9565033733672
 20
128.856550439215
 30
0.0
 10
183.2945969033903
 20
128.8794868780468
 30
0.0
 10
182.6905286848809
 20
128.9240203832627
 30
0.0
 10
182.2152136220348
 20
128.9720957694957
 30
0.0
  0
SPLINE
  5
1A4
330
1F
100
AcDbEntity
  8
0
  6
HIDDEN
 62
     7
370
     0
100
AcDbSpline
210
0.0
220
0.0
230
1.0
 70
     8
 71
     3
 72
     8
 73
     4
 74
     0
 42
0.00000001
 43
0.00000001
 40
0.0
 40
0.0
 40
0.0
 40
0.0
 40
1.0
 40
1.0
 40
1.0
 40
1.0
 10
240.7929639800334
 20
138.7823537488588
 30
0.0
 10
245.3437743457116
 20
139.0908612979084
 30
0.0
 10
249.8947005024094
 20
139.3976324224309
 30
0.0
 10
254.445731151571
 20
139.7028047425556
 30
0.0
  0
SPLINE
  5
1A5
330
1F
100
AcDbEntity
  8
0
  6
HIDDEN
 62
     7
370
     0
100
AcDbSpline
210
0.0
220
0.0
230
1.0
 70
     8
 71
     3
 72
    42
 73
    38
 74
     0
 42
0.00000001
 43
0.00000001
 40
0.0
 40
0.0
 40
0.0
 40
0.0
 40
0.0261199400027466
 40
0.0523695993643651
 40
0.078750486601941
 40
0.1052640845945385
 40
0.1319118508273686
 40
0.1586952176439752
 40
0.1856155925056865
 40
0.2126743582578169
 40
0.2398728734018176
 40
0.2672124723728952
 40
0.2946944658224818
 40
0.3223201409049639
 40
0.3500907615681636
 40
0.3780075688470818
 40
0.4060717811603801
 40
0.4342845946091249
 40
0.4626471832774503
 40
0.4911606995345506
 40
0.5198262743378177
 40
0.5486450175365277
 40
0.5776180181759296
 40
0.6067463448012381
 40
0.6360310457613102
 40
0.6654731495117022
 40
0.6950736649167751
 40
0.7248335815506702
 40
0.7547538699968522
 40
0.7848354821460142
 40
0.8150793514921694
 40
0.8454863934266632
 40
0.8760575055300073
 40
0.9067935678613342
 40
0.9376954432452842
 40
0.9687639775562893
 40
1.0
 40
1.0
 40
1.0
 40
1.0
 10
261.3890875975633
 20
148.6071366864904
 30
0.0
 10
261.3517211300844
 20
148.5670710442274
 30
0.0
 10
261.2768026221812
 20
148.4867407818545
 30
0.0
 10
261.158475830736
 20
148.3572162307908
 30
0.0
 10
261.0354557790012
 20
148.2206670410887
 30
0.0
 10
260.907328932398
 20
148.076416766949
 30
0.0
 10
260.7742069424641
 20
147.924594688617
 30
0.0
 10
260.6360596775377
 20
147.7651146707061
 30
0.0
 10
260.4928952840149
 20
147.5979508901977
 30
0.0
 10
260.3447115731509
 20
147.4230634461154
 30
0.0
 10
260.1915091462874
 20
147.2404184955522
 30
0.0
 10
260.0332878509951
 20
147.0499828680321
 30
0.0
 10
259.8700477379716
 20
146.8517255708623
 30
0.0
 10
259.7017888026627
 20
146.6456174337642
 30
0.0
 10
259.5285110550399
 20
146.4316312558825
 30
0.0
 10
259.3502145007652
 20
146.2097418170423
 30
0.0
 10
259.1668991462854
 20
145.9799259255476
 30
0.0
 10
258.9785649974644
 20
145.7421624559667
 30
0.0
 10
258.7852120599614
 20
145.4964323894496
 30
0.0
 10
258.5868403391373
 20
145.2427188531613
 30
0.0
 10
258.3834498400884
 20
144.9810071597239
 30
0.0
 10
258.1750405676499
 20
144.7112848464072
 30
0.0
 10
257.9616125263895
 20
144.4335417140674
 30
0.0
 10
257.7431657206758
 20
144.1477698659588
 30
0.0
 10
257.5197001544523
 20
143.8539637457773
 30
0.0
 10
257.2912158321239
 20
143.5521201772429
 30
0.0
 10
257.0577127552571
 20
143.2422383964259
 30
0.0
 10
256.8191909350304
 20
142.9243201097881
 30
0.0
 10
256.5756503454272
 20
142.5983694537684
 30
0.0
 10
256.3270910993716
 20
142.2643933229601
 30
0.0
 10
256.0735127860888
 20
141.9224003095861
 30
0.0
 10
255.8149169641916
 20
141.5724048656149
 30
0.0
 10
255.55129778195
 20
141.2144118134866
 30
0.0
 10
255.282677266791
 20
140.8484747891513
 30
0.0
 10
255.0089725553134
 20
140.4744765263709
 30
0.0
 10
254.7304954143061
 20
140.0929556563835
 30
0.0
 10
254.5413904019593
 20
139.8330170537165
 30
0.0
 10
254.4465837181859
 20
139.7026983667728
 30
0.0
  0
ELLIPSE
  5
1A6
330
1F
100
AcDbEntity
  8
0
  6
HIDDEN
 62
     7
370
     0
100
AcDbEllipse
 10
333.8130260869
 20
103.4280200682
 30
0.0
 11
269.0429488262399
 21
-8.470414977035075
 31
0.0
210
0.0
220
0.0
230
1.0
 40
0.1656412093
 41
1.848563036520693
 42
1.902973810852359
  0
ELLIPSE
  5
1A7
330
1F
100
AcDbEntity
  8
0
  6
HIDDEN
 62
     7
370
     0
100
AcDbEllipse
 10
220.9290429782
 20
107.3029496797
 30
0.0
 11
27.28392697985279
 21
41.50632949203899
 31
0.0
210
0.0
220
0.0
230
1.0
 40
0.0443290021
 41
0.0325736076886348
 42
0.1857441732111392
  0
LINE
  5
1A8
330
1F
100
AcDbEntity
  8
0
  6
HIDDEN
 62
     7
370
     0
100
AcDbLine
 10
228.4543317392
 20
110.076482852
 30
0.0
 11
228.4543317392
 21
101.676482852
 31
0.0
  0
LWPOLYLINE
  5
1A9
330
1F
100
AcDbEntity
  8
0
  6
HIDDEN
 62
     7
370
     0
100
AcDbPolyline
 90
        2
 70
   128
 43
0.0
 10
228.4543317392
 20
101.676482852
 10
228.4543317392
 20
101.676482852
  0
SPLINE
  5
1AA
330
1F
100
AcDbEntity
  8
0
  6
HIDDEN
 62
     7
370
     0
100
AcDbSpline
210
0.0
220
0.0
230
1.0
 70
     8
 71
     3
 72
    64
 73
    60
 74
     0
 42
0.00000001
 43
0.00000001
 40
-0.0312499999999989
 40
-0.0312499999999989
 40
0.0
 40
0.0
 40
0.03125
 40
0.03125
 40
0.0624999999999999
 40
0.0624999999999999
 40
0.1249999999999998
 40
0.1249999999999998
 40
0.1562499999999999
 40
0.1562499999999999
 40
0.1875
 40
0.1875
 40
0.2187500000000002
 40
0.2187500000000002
 40
0.2500000000000003
 40
0.2500000000000003
 40
0.2812500000000005
 40
0.2812500000000005
 40
0.3125000000000007
 40
0.3125000000000007
 40
0.3750000000000009
 40
0.3750000000000009
 40
0.4062500000000012
 40
0.4062500000000012
 40
0.4375000000000013
 40
0.4375000000000013
 40
0.4687500000000015
 40
0.4687500000000015
 40
0.5000000000000017
 40
0.5000000000000017
 40
0.5312500000000019
 40
0.5312500000000019
 40
0.562500000000002
 40
0.562500000000002
 40
0.5937500000000022
 40
0.5937500000000022
 40
0.6250000000000023
 40
0.6250000000000023
 40
0.6562500000000026
 40
0.6562500000000026
 40
0.6875000000000027
 40
0.6875000000000027
 40
0.7187500000000029
 40
0.7187500000000029
 40
0.750000000000003
 40
0.750000000000003
 40
0.7812500000000032
 40
0.7812500000000032
 40
0.8125000000000034
 40
0.8125000000000034
 40
0.8750000000000032
 40
0.8750000000000032
 40
0.9062500000000027
 40
0.9062500000000027
 40
0.9375000000000022
 40
0.9375000000000022
 40
0.9687500000000011
 40
0.9687500000000011
 40
1.0
 40
1.0
 40
1.03125
 40
1.03125
 10
224.5239914285112
 20
102.3729649852966
 30
0.0
 10
224.1846720499067
 20
102.3729649852966
 30
0.0
 10
224.0189855250735
 20
102.3846251643213
 30
0.0
 10
223.6947494488993
 20
102.4303183933281
 30
0.0
 10
223.5349426131714
 20
102.4649755462493
 30
0.0
 10
223.0857677908292
 20
102.6000734642063
 30
0.0
 10
222.816342574765
 20
102.7338171420915
 30
0.0
 10
222.4783075635679
 20
102.9963435127471
 30
0.0
 10
222.3747513991687
 20
103.0958372982732
 30
0.0
 10
222.1943639085312
 20
103.3138012673325
 30
0.0
 10
222.1172175744685
 20
103.4319775818691
 30
0.0
 10
221.9896971636908
 20
103.6893999772648
 30
0.0
 10
221.9391736036507
 20
103.8305862936901
 30
0.0
 10
221.8722527757241
 20
104.1225127992489
 30
0.0
 10
221.8548937130858
 20
104.27430187726
 30
0.0
 10
221.8537963364776
 20
104.5903824444481
 30
0.0
 10
221.8705222579509
 20
104.75256162906
 30
0.0
 10
221.9359265428509
 20
105.0718901451995
 30
0.0
 10
221.9854123945825
 20
105.232749609429
 30
0.0
 10
222.1760248095313
 20
105.6965187523396
 30
0.0
 10
222.3606206056801
 20
105.9861285142752
 30
0.0
 10
222.6978367498858
 20
106.3569568101772
 30
0.0
 10
222.8218646932719
 20
106.4716885453321
 30
0.0
 10
223.0876955616963
 20
106.675283496525
 30
0.0
 10
223.228112685924
 20
106.7634546946061
 30
0.0
 10
223.5257461683772
 20
106.910573471902
 30
0.0
 10
223.6853103926664
 20
106.9699587496906
 30
0.0
 10
224.0109215716749
 20
107.0497443034504
 30
0.0
 10
224.1770338072073
 20
107.070803012373
 30
0.0
 10
224.5165328544215
 20
107.0720259748221
 30
0.0
 10
224.6832062602793
 20
107.0520877182316
 30
0.0
 10
225.0091113085517
 20
106.9745636907506
 30
0.0
 10
225.1692017177532
 20
106.9162508035152
 30
0.0
 10
225.4695479448957
 20
106.7699083667291
 30
0.0
 10
225.6128113938506
 20
106.6807698372406
 30
0.0
 10
225.8799502911334
 20
106.4776526729372
 30
0.0
 10
226.0029097480547
 20
106.3647308434854
 30
0.0
 10
226.2294217296678
 20
106.1174488455625
 30
0.0
 10
226.3332684421069
 20
105.9821004517145
 30
0.0
 10
226.5134250206889
 20
105.7002884742605
 30
0.0
 10
226.5909227185129
 20
105.552759582406
 30
0.0
 10
226.7194008769806
 20
105.2439343905275
 30
0.0
 10
226.769625692974
 20
105.0830830614173
 30
0.0
 10
226.8364025137451
 20
104.764764620125
 30
0.0
 10
226.8539392150977
 20
104.6051160260778
 30
0.0
 10
226.8547113620147
 20
104.2855564901811
 30
0.0
 10
226.8379447832469
 20
104.132473844367
 30
0.0
 10
226.7720384793402
 20
103.838629515253
 30
0.0
 10
226.7220849082029
 20
103.6970057060308
 30
0.0
 10
226.5310074059296
 20
103.307446796683
 30
0.0
 10
226.3457052798524
 20
103.0863823707422
 30
0.0
 10
226.0067159014692
 20
102.8224343544234
 30
0.0
 10
225.8815089883568
 20
102.7441914578741
 30
0.0
 10
225.615976314234
 20
102.6111927743133
 30
0.0
 10
225.4751815181986
 20
102.5557459173917
 30
0.0
 10
225.1751184652024
 20
102.4652967193998
 30
0.0
 10
225.0148902234811
 20
102.4305025361608
 30
0.0
 10
224.6906028535607
 20
102.3847092069181
 30
0.0
 10
224.5239914285112
 20
102.3729649852966
 30
0.0
 10
224.1846720499067
 20
102.3729649852966
 30
0.0
  0
LINE
  5
1AB
330
1F
100
AcDbEntity
  8
0
  6
HIDDEN
 62
     7
370
     0
100
AcDbLine
 10
216.1543317392
 20
101.676482852
 30
0.0
 11
216.1543317392
 21
110.0574649268
 31
0.0
  0
LINE
  5
1AC
330
1F
100
AcDbEntity
  8
0
  6
HIDDEN
 62
     7
370
     0
100
AcDbLine
 10
254.951377971
 20
136.5643233626
 30
0.0
 11
254.9587688466
 21
136.5759249359
 31
0.0
  0
LINE
  5
1AD
330
1F
100
AcDbEntity
  8
0
  6
HIDDEN
 62
     7
370
     0
100
AcDbLine
 10
256.5479251794
 20
138.1409384132
 30
0.0
 11
254.9587688466
 21
136.5759249359
 31
0.0
  0
LINE
  5
1AE
330
1F
100
AcDbEntity
  8
0
  6
HIDDEN
 62
     7
370
     0
100
AcDbLine
 10
254.951377971
 20
136.5643233626
 30
0.0
 11
256.5524141691
 21
138.1410362234
 31
0.0
  0
ELLIPSE
  5
1AF
330
1F
100
AcDbEntity
  8
0
  6
HIDDEN
 62
     7
370
     0
100
AcDbEllipse
 10
237.7031689594
 20
126.4050190442
 30
0.0
 11
3.08553303694461
 21
3.038656856958581
 31
0.0
210
0.0
220
0.0
230
1.0
 40
0.9698463104
 41
3.980734945305649
 42
6.740472323379665
  0
LINE
  5
1B0
330
1F
100
AcDbEntity
  8
0
  6
HIDDEN
 62
     7
370
     0
100
AcDbLine
 10
245.7177331507
 20
131.442857908
 30
0.0
 11
244.9898286904
 21
130.7260119522
 31
0.0
  0
LINE
  5
1B1
330
1F
100
AcDbEntity
  8
0
  6
HIDDEN
 62
     7
370
     0
100
AcDbLine
 10
241.0573164798
 20
133.809781492
 30
0.0
 11
241.78522094
 21
134.5266274478
 31
0.0
  0
ELLIPSE
  5
1B2
330
1F
100
AcDbEntity
  8
0
  6
HIDDEN
 62
     7
370
     0
100
AcDbEllipse
 10
241.4186524927
 20
130.064056034
 30
0.0
 11
3.128204630659241
 21
-2.806765604355534
 31
0.0
210
0.0
220
0.0
230
1.0
 40
0.8058084352
 41
1.015416558446866
 42
2.290540399685272
  0
LWPOLYLINE
  5
1B3
330
1F
100
AcDbEntity
  8
0
  6
HIDDEN
 62
     7
370
     0
100
AcDbPolyline
 90
       34
 70
   128
 43
0.0
 10
238.7260291426
 20
131.4837861136
 10
238.8246971079
 20
130.7006396765
 10
239.0692217052
 20
129.9457981922
 10
239.4507651785
 20
129.2465435985
 10
239.9555375525
 20
128.6281487784
 10
240.5652950385
 20
128.1129641319
 10
241.2579994122
 20
127.7196097743
 10
242.0086145328
 20
127.4623025572
 10
242.7900112141
 20
127.3503422337
 10
243.5739477441
 20
127.3877753415
 10
244.332090614
 20
127.5732489507
 10
245.0370385653
 20
127.9000595618
 10
245.6633129422
 20
128.3563953878
 10
246.1882785571
 20
128.9257632629
 10
246.5929617848
 20
129.5875847487
 10
246.8627363191
 20
130.3179398924
 10
246.9878518055
 20
131.090431756
 10
246.9637862442
 20
131.8771404711
 10
246.7914094273
 20
132.6496323347
 10
246.4769515022
 20
133.3799874784
 10
246.0317777975
 20
134.0418089642
 10
245.4719780509
 20
134.6111768394
 10
244.8177848837
 20
135.0675126653
 10
244.0928425415
 20
135.3943232764
 10
243.3233523293
 20
135.5797968856
 10
242.5371256284
 20
135.6172299935
 10
241.76257872
 20
135.5052696699
 10
241.0277057477
 20
135.2479624528
 10
240.3590669353
 20
134.8546080953
 10
239.7808286315
 20
134.3394234487
 10
239.3138898754
 20
133.7210286286
 10
238.9751270501
 20
133.021774035
 10
238.7767839267
 20
132.2669325506
 10
238.7260291426
 20
131.4837861136
  0
LINE
  5
1B4
330
1F
100
AcDbEntity
  8
0
  6
HIDDEN
 62
     7
370
     0
100
AcDbLine
 10
244.9898286904
 20
130.7260119522
 30
0.0
 11
247.6139033847
 21
134.3293331438
 31
0.0
  0
LINE
  5
1B5
330
1F
100
AcDbEntity
  8
0
  6
HIDDEN
 62
     7
370
     0
100
AcDbLine
 10
252.1555681695
 20
139.6717957146
 30
0.0
 11
251.6175734475
 21
139.1419743413
 31
0.0
  0
LINE
  5
1B6
330
1F
100
AcDbEntity
  8
0
  6
HIDDEN
 62
     7
370
     0
100
AcDbLine
 10
249.6698487655
 20
136.4492445431
 30
0.0
 11
252.1555681695
 21
139.6717957146
 31
0.0
  0
LINE
  5
1B7
330
1F
100
AcDbEntity
  8
0
  6
HIDDEN
 62
     7
370
     0
100
AcDbLine
 10
250.8469132847
 20
137.6084268075
 30
0.0
 11
249.6698487655
 21
136.4492445431
 31
0.0
  0
LWPOLYLINE
  5
1B8
330
1F
100
AcDbEntity
  8
0
  6
HIDDEN
 62
     7
370
     0
100
AcDbPolyline
 90
        2
 70
   128
 43
0.0
 10
199.3043317392
 20
79.476482852
 10
199.3043317392
 20
79.476482852
  0
LINE
  5
1B9
330
1F
100
AcDbEntity
  8
0
  6
HIDDEN
 62
     7
370
     0
100
AcDbLine
 10
199.3043317392
 20
74.3923598692
 30
0.0
 11
199.3043317392
 21
79.476482852
 31
0.0
  0
LINE
  5
1BA
330
1F
100
AcDbEntity
  8
0
  6
HIDDEN
 62
     7
370
     0
100
AcDbLine
 10
199.3043317392
 20
79.476482852
 30
0.0
 11
207.3043317392
 21
79.476482852
 31
0.0
  0
LWPOLYLINE
  5
1BB
330
1F
100
AcDbEntity
  8
0
  6
HIDDEN
 62
     7
370
     0
100
AcDbPolyline
 90
       26
 70
   128
 43
0.0
 10
224.3543317392
 20
97.4736419377
 10
224.9760564571
 20
97.5474473669
 10
225.5587159245
 20
97.7642261877
 10
226.065699504
 20
98.1103573897
 10
226.465151553
 20
98.5640922765
 10
226.7319730299
 20
99.0969210164
 10
226.8493985603
 20
99.67536402
 10
226.810049866
 20
100.2630755861
 10
226.6163993704
 20
100.8231276356
 10
226.2806148461
 20
101.3203300384
 10
225.8237948699
 20
101.7234417389
 10
225.2746431209
 20
102.0071337466
 10
224.6676648231
 20
102.1535806492
 10
224.0409986553
 20
102.1535806492
 10
223.4340203575
 20
102.0071337466
 10
222.8848686085
 20
101.7234417389
 10
222.4280486323
 20
101.3203300384
 10
222.092264108
 20
100.8231276356
 10
221.8986136124
 20
100.2630755861
 10
221.8592649181
 20
99.67536402
 10
221.9766904485
 20
99.0969210164
 10
222.2435119255
 20
98.5640922765
 10
222.6429639744
 20
98.1103573897
 10
223.149947554
 20
97.7642261877
 10
223.7326070213
 20
97.5474473669
 10
224.3543317392
 20
97.4736419377
  0
ARC
  5
1BC
330
1F
100
AcDbEntity
  8
0
  6
HIDDEN
 62
     7
370
     0
100
AcDbCircle
 10
251.3855466263
 20
142.7391534363
 30
0.0
 40
3.162533251943593
100
AcDbArc
 50
284.0921726789
 51
179.7026649025
  0
LINE
  5
1BD
330
1F
100
AcDbEntity
  8
0
  6
HIDDEN
 62
     7
370
     0
100
AcDbLine
 10
248.2230559588
 20
142.7555652544
 30
0.0
 11
243.2507818494
 21
136.309380005
 31
0.0
  0
LINE
  5
1BE
330
1F
100
AcDbEntity
  8
0
  6
HIDDEN
 62
     7
370
     0
100
AcDbLine
 10
261.6376335399
 20
148.1748879457
 30
0.0
 11
261.3890455902
 21
148.6081552697
 31
0.0
  0
LINE
  5
1BF
330
1F
100
AcDbEntity
  8
0
  6
HIDDEN
 62
     7
370
     0
100
AcDbLine
 10
256.0947080741
 20
139.4740731
 30
0.0
 11
261.6376325887
 21
148.1748885691
 31
0.0
  0
ARC
  5
1C0
330
1F
100
AcDbEntity
  8
0
  6
HIDDEN
 62
     7
370
     0
100
AcDbCircle
 10
262.9449660139
 20
135.1173989922
 30
0.0
 40
8.118290652819004
100
AcDbArc
 50
147.5441752716
 51
169.6500877591
  0
LINE
  5
1C1
330
1F
100
AcDbEntity
  8
0
  6
HIDDEN
 62
     7
370
     0
100
AcDbLine
 10
247.4038663129
 20
148.3186948614
 30
0.0
 11
242.379755979
 21
140.4322701416
 31
0.0
  0
LINE
  5
1C2
330
1F
100
AcDbEntity
  8
0
  6
HIDDEN
 62
     7
370
     0
100
AcDbLine
 10
249.6698487655
 20
136.4492445431
 30
0.0
 11
254.951377971
 21
136.5643233626
 31
0.0
  0
LINE
  5
1C3
330
1F
100
AcDbEntity
  8
0
  6
HIDDEN
 62
     7
370
     0
100
AcDbLine
 10
237.5346709445
 20
136.1848321194
 30
0.0
 11
243.2507818494
 21
136.309380005
 31
0.0
  0
LINE
  5
1C4
330
1F
100
AcDbEntity
  8
0
  6
HIDDEN
 62
     7
370
     0
100
AcDbLine
 10
243.2507818494
 20
136.309380005
 30
0.0
 11
243.3477404975
 21
136.4048656334
 31
0.0
  0
ELLIPSE
  5
1C5
330
1F
100
AcDbEntity
  8
0
  6
HIDDEN
 62
     7
370
     0
100
AcDbEllipse
 10
254.8530701948
 20
105.876482852
 30
0.0
 11
0.8523741976695192
 21
26.99959507802726
 31
0.0
210
0.0
220
0.0
230
0.9999999999999999
 40
0.1734804855
 41
1.576273031568479
 42
1.830273624838012
  0
ELLIPSE
  5
1C6
330
1F
100
AcDbEntity
  8
0
  6
HIDDEN
 62
     7
370
     0
100
AcDbEllipse
 10
256.3770259453
 20
105.876482852
 30
0.0
 11
19.75908128153321
 21
26.99227138525077
 31
0.0
210
0.0
220
0.0
230
1.0
 40
0.0326926316
 41
1.84872425371327
 42
3.047661394689796
  0
LINE
  5
1C7
330
1F
100
AcDbEntity
  8
0
  6
HIDDEN
 62
     7
370
     0
100
AcDbLine
 10
168.5543317392
 20
123.866482852
 30
0.0
 11
168.5543317392
 21
122.1639964744
 31
0.0
  0
LINE
  5
1C8
330
1F
100
AcDbEntity
  8
0
  6
HIDDEN
 62
     7
370
     0
100
AcDbLine
 10
172.5543317392
 20
87.886482852
 30
0.0
 11
172.5543317392
 21
89.5889692296
 31
0.0
  0
LINE
  5
1C9
330
1F
100
AcDbEntity
  8
0
  6
HIDDEN
 62
     7
370
     0
100
AcDbLine
 10
172.5543317392
 20
87.886482852
 30
0.0
 11
172.5543317392
 21
83.9313345927
 31
0.0
  0
LINE
  5
1CA
330
1F
100
AcDbEntity
  8
0
  6
HIDDEN
 62
     7
370
     0
100
AcDbLine
 10
168.5543317392
 20
123.866482852
 30
0.0
 11
168.5543317392
 21
127.7205905244
 31
0.0
  0
SPLINE
  5
1CB
330
1F
100
AcDbEntity
  8
0
  6
HIDDEN
 62
     7
370
     0
100
AcDbSpline
210
0.0
220
0.0
230
1.0
 70
     8
 71
     3
 72
    10
 73
     6
 74
     0
 42
0.00000001
 43
0.00000001
 40
0.0
 40
0.0
 40
0.0
 40
0.0
 40
0.5
 40
0.5
 40
1.0
 40
1.0
 40
1.0
 40
1.0
 10
251.61757344748
 20
139.141974341288
 30
0.0
 10
251.5433943542613
 20
139.0689221951748
 30
0.0
 10
251.4213992970329
 20
138.9854061836797
 30
0.0
 10
251.134653104622
 20
138.8168532647613
 30
0.0
 10
250.9679484552427
 20
138.7313954980917
 30
0.0
 10
250.783478972643
 20
138.6510371639428
 30
0.0
  0
ARC
  5
1CC
330
1F
100
AcDbEntity
  8
0
  6
HIDDEN
 62
     7
370
     0
100
AcDbCircle
 10
250.4268240889
 20
141.795141126
 30
0.0
 40
3.164268071785172
100
AcDbArc
 50
276.471745319
 51
187.3230922624
  0
SPLINE
  5
1CD
330
1F
100
AcDbEntity
  8
0
  6
HIDDEN
 62
     7
370
     0
100
AcDbSpline
210
0.0
220
0.0
230
1.0
 70
     8
 71
     3
 72
    10
 73
     6
 74
     0
 42
0.00000001
 43
0.00000001
 40
0.0
 40
0.0
 40
0.0
 40
0.0
 40
0.5
 40
0.5
 40
1.0
 40
1.0
 40
1.0
 40
1.0
 10
247.2883664758409
 20
141.3918096977595
 30
0.0
 10
247.3414788485117
 20
141.5752049306085
 30
0.0
 10
247.4040196248675
 20
141.7423589015126
 30
0.0
 10
247.538736760965
 20
142.0301204382081
 30
0.0
 10
247.6107950057621
 20
142.1526059209162
 30
0.0
 10
247.6850612368524
 20
142.2257438810811
 30
0.0
  0
LINE
  5
1CE
330
1F
100
AcDbEntity
  8
0
  6
HIDDEN
 62
     7
370
     0
100
AcDbLine
 10
247.6850612369
 20
142.2257438811
 30
0.0
 11
248.2230559588
 21
142.7555652544
 31
0.0
  0
LWPOLYLINE
  5
1CF
330
1F
100
AcDbEntity
  8
0
  6
HIDDEN
 62
     7
370
     0
100
AcDbPolyline
 90
        2
 70
   128
 43
0.0
 10
220.3043317392
 20
132.276482852
 10
220.3043317392
 20
132.276482852
  0
LWPOLYLINE
  5
1D0
330
1F
100
AcDbEntity
  8
0
  6
HIDDEN
 62
     7
370
     0
100
AcDbPolyline
 90
        2
 70
   128
 43
0.0
 10
220.3043317392
 20
79.476482852
 10
220.3043317392
 20
79.476482852
  0
LINE
  5
1D1
330
1F
100
AcDbEntity
  8
0
  6
HIDDEN
 62
     7
370
     0
100
AcDbLine
 10
163.6043317392
 20
123.866482852
 30
0.0
 11
163.6043317392
 21
126.7464206174
 31
0.0
  0
SPLINE
  5
1D2
330
1F
100
AcDbEntity
  8
0
  6
HIDDEN
 62
     7
370
     0
100
AcDbSpline
210
0.0
220
0.0
230
1.0
 70
     8
 71
     3
 72
    10
 73
     6
 74
     0
 42
0.00000001
 43
0.00000001
 40
0.0
 40
0.0
 40
0.0
 40
0.0
 40
0.5
 40
0.5
 40
1.0
 40
1.0
 40
1.0
 40
1.0
 10
163.5942868087907
 20
126.736436744307
 30
0.0
 10
163.5267275538725
 20
126.6687453514972
 30
0.0
 10
163.4630908985359
 20
126.5940381867436
 30
0.0
 10
163.3528701439641
 20
126.4350720543169
 30
0.0
 10
163.3060538507415
 20
126.3507167883089
 30
0.0
 10
163.2784853853134
 20
126.2666021856172
 30
0.0
  0
LINE
  5
1D3
330
1F
100
AcDbEntity
  8
0
  6
HIDDEN
 62
     7
370
     0
100
AcDbLine
 10
162.4543317392
 20
123.866482852
 30
0.0
 11
162.4543317392
 21
125.5671605985
 31
0.0
  0
SPLINE
  5
1D4
330
1F
100
AcDbEntity
  8
0
  6
HIDDEN
 62
     7
370
     0
100
AcDbSpline
210
0.0
220
0.0
230
1.0
 70
     8
 71
     3
 72
    10
 73
     6
 74
     0
 42
0.00000001
 43
0.00000001
 40
0.0
 40
0.0
 40
0.0
 40
0.0
 40
0.5
 40
0.5
 40
1.0
 40
1.0
 40
1.0
 40
1.0
 10
162.5169951139323
 20
125.5510353968001
 30
0.0
 10
162.5080908248236
 20
125.5967769160133
 30
0.0
 10
162.4915754446306
 20
125.6139677554822
 30
0.0
 10
162.464467498569
 20
125.6136444785465
 30
0.0
 10
162.4543317392089
 20
125.5957669362501
 30
0.0
 10
162.4543317392089
 20
125.5671605984975
 30
0.0
  0
LINE
  5
1D5
330
1F
100
AcDbEntity
  8
0
  6
HIDDEN
 62
     7
370
     0
100
AcDbLine
 10
163.6043317392
 20
123.866482852
 30
0.0
 11
163.6043317392
 21
121.6779732881
 31
0.0
  0
ELLIPSE
  5
1D6
330
1F
100
AcDbEntity
  8
0
  6
HIDDEN
 62
     7
370
     0
100
AcDbEllipse
 10
158.2868998749
 20
105.876482852
 30
0.0
 11
20.07002071827054
 21
-2.842170943040401E-14
 31
0.0
210
0.0
220
0.0
230
1.0
 40
0.8164965809
 41
1.302650465081197
 42
1.361629843993897
  0
LINE
  5
1D7
330
1F
100
AcDbEntity
  8
0
  6
HIDDEN
 62
     7
370
     0
100
AcDbLine
 10
162.4543317392
 20
123.866482852
 30
0.0
 11
162.4543317392
 21
121.9064182499
 31
0.0
  0
LINE
  5
1D8
330
1F
100
AcDbEntity
  8
0
  6
HIDDEN
 62
     7
370
     0
100
AcDbLine
 10
163.6043317392
 20
87.886482852
 30
0.0
 11
163.6043317392
 21
90.074992416
 31
0.0
  0
LINE
  5
1D9
330
1F
100
AcDbEntity
  8
0
  6
HIDDEN
 62
     7
370
     0
100
AcDbLine
 10
163.6043317392
 20
87.886482852
 30
0.0
 11
163.6043317392
 21
85.0698512935
 31
0.0
  0
ELLIPSE
  5
1DA
330
1F
100
AcDbEntity
  8
0
  6
HIDDEN
 62
     7
370
     0
100
AcDbEllipse
 10
158.2868998749
 20
105.876482852
 30
0.0
 11
20.07002071827057
 21
-2.842170943040400E-14
 31
0.0
210
0.0
220
0.0
230
1.0
 40
0.8164965809
 41
4.921555463185703
 42
4.980534842098402
  0
LINE
  5
1DB
330
1F
100
AcDbEntity
  8
0
  6
HIDDEN
 62
     7
370
     0
100
AcDbLine
 10
162.4543317392
 20
121.9064182499
 30
0.0
 11
162.4543317392
 21
89.8465474542
 31
0.0
  0
SPLINE
  5
1DC
330
1F
100
AcDbEntity
  8
0
  6
HIDDEN
 62
     7
370
     0
100
AcDbSpline
210
0.0
220
0.0
230
1.0
 70
     8
 71
     3
 72
     8
 73
     4
 74
     0
 42
0.00000001
 43
0.00000001
 40
0.0
 40
0.0
 40
0.0
 40
0.0
 40
1.0
 40
1.0
 40
1.0
 40
1.0
 10
163.393241309408
 20
85.43256054905372
 30
0.0
 10
163.4289549677779
 20
85.30932904379392
 30
0.0
 10
163.5046230067262
 20
85.18838546684692
 30
0.0
 10
163.5942868087993
 20
85.08166642314367
 30
0.0
  0
SPLINE
  5
1DD
330
1F
100
AcDbEntity
  8
0
  6
HIDDEN
 62
     7
370
     0
100
AcDbSpline
210
0.0
220
0.0
230
1.0
 70
     8
 71
     3
 72
    10
 73
     6
 74
     0
 42
0.00000001
 43
0.00000001
 40
0.0
 40
0.0
 40
0.0
 40
0.0
 40
0.5
 40
0.5
 40
1.0
 40
1.0
 40
1.0
 40
1.0
 10
162.4543317392084
 20
86.22332232706643
 30
0.0
 10
162.4543317392084
 20
86.20980580119867
 30
0.0
 10
162.4596512998367
 20
86.20563502884136
 30
0.0
 10
162.4727795321183
 20
86.22376607222895
 30
0.0
 10
162.4804721867723
 20
86.24667449729087
 30
0.0
 10
162.4846093548175
 20
86.28639529179247
 30
0.0
  0
LINE
  5
1DE
330
1F
100
AcDbEntity
  8
0
  6
HIDDEN
 62
     7
370
     0
100
AcDbLine
 10
162.4543317392
 20
87.886482852
 30
0.0
 11
162.4543317392
 21
86.2233223271
 31
0.0
  0
LINE
  5
1DF
330
1F
100
AcDbEntity
  8
0
  6
HIDDEN
 62
     7
370
     0
100
AcDbLine
 10
162.4543317392
 20
87.886482852
 30
0.0
 11
162.4543317392
 21
89.8465474542
 31
0.0
  0
SPLINE
  5
1E0
330
1F
100
AcDbEntity
  8
0
  6
HIDDEN
 62
     7
370
     0
100
AcDbSpline
210
0.0
220
0.0
230
1.0
 70
     8
 71
     3
 72
    10
 73
     6
 74
     0
 42
0.00000001
 43
0.00000001
 40
0.0
 40
0.0
 40
0.0
 40
0.0
 40
0.5
 40
0.5
 40
1.0
 40
1.0
 40
1.0
 40
1.0
 10
210.4443317392089
 20
132.9961367030551
 30
0.0
 10
210.4443317392089
 20
132.8525243514971
 30
0.0
 10
210.4804990143067
 20
132.7095509377785
 30
0.0
 10
210.6162549580607
 20
132.4595583110648
 30
0.0
 10
210.7165246486836
 20
132.351556001786
 30
0.0
 10
210.8386292708999
 20
132.2764828520193
 30
0.0
  0
LINE
  5
1E1
330
1F
100
AcDbEntity
  8
0
  6
HIDDEN
 62
     7
370
     0
100
AcDbLine
 10
210.4443317392
 20
132.9961367031
 30
0.0
 11
210.4443317392
 21
79.0720872237
 31
0.0
  0
SPLINE
  5
1E2
330
1F
100
AcDbEntity
  8
0
  6
HIDDEN
 62
     7
370
     0
100
AcDbSpline
210
0.0
220
0.0
230
1.0
 70
     8
 71
     3
 72
    10
 73
     6
 74
     0
 42
0.00000001
 43
0.00000001
 40
0.0
 40
0.0
 40
0.0
 40
0.0
 40
0.5
 40
0.5
 40
1.0
 40
1.0
 40
1.0
 40
1.0
 10
210.4443317392089
 20
79.07208722368999
 30
0.0
 10
210.4443317392089
 20
79.1423235840605
 30
0.0
 10
210.4526143512994
 20
79.21231768555776
 30
0.0
 10
210.4857142943577
 20
79.34927695011623
 30
0.0
 10
210.510051686316
 20
79.41458485937132
 30
0.0
 10
210.5420065415405
 20
79.47648285201804
 30
0.0
  0
SPLINE
  5
1E3
330
1F
100
AcDbEntity
  8
0
  6
HIDDEN
 62
     7
370
     0
100
AcDbSpline
210
0.0
220
0.0
230
1.0
 70
    24
 71
     3
 72
    12
 73
     8
 74
     0
 42
0.00000001
 43
0.00000001
 40
0.0
 40
0.0
 40
0.0
 40
0.0
 40
0.5000000000000041
 40
0.5000000000000041
 40
0.750000000000002
 40
0.750000000000002
 40
1.0
 40
1.0
 40
1.0
 40
1.0
 10
210.8386292708999
 20
132.2764828520193
 30
0.0
 10
210.8817526193334
 20
132.2764828520193
 30
0.0
 10
210.9314922066337
 20
132.2764828520193
 30
0.0
 10
211.0280131834556
 20
132.2764828520193
 30
0.0
 10
211.0635783143073
 20
132.2764828520193
 30
0.0
 10
211.1469266449302
 20
132.2764828520193
 30
0.0
 10
211.1953965446206
 20
132.2764828520193
 30
0.0
 10
211.2443317392101
 20
132.2764828520193
 30
0.0
  0
SPLINE
  5
1E4
330
1F
100
AcDbEntity
  8
0
  6
HIDDEN
 62
     7
370
     0
100
AcDbSpline
210
0.0
220
0.0
230
1.0
 70
    24
 71
     3
 72
    14
 73
    10
 74
     0
 42
0.00000001
 43
0.00000001
 40
0.0
 40
0.0
 40
0.0
 40
0.0
 40
0.5
 40
0.5
 40
0.75
 40
0.75
 40
0.875
 40
0.875
 40
1.0
 40
1.0
 40
1.0
 40
1.0
 10
210.5420065415411
 20
79.47648285201932
 30
0.0
 10
210.5892130293809
 20
79.47648285201933
 30
0.0
 10
210.6525530328103
 20
79.47648285201933
 30
0.0
 10
210.7956161390661
 20
79.47648285201932
 30
0.0
 10
210.8516967893371
 20
79.47648285201932
 30
0.0
 10
210.9631321392465
 20
79.47648285201932
 30
0.0
 10
211.0050769299195
 20
79.47648285201932
 30
0.0
 10
211.1100733729396
 20
79.47648285201932
 30
0.0
 10
211.1756373100203
 20
79.4764828520193
 30
0.0
 10
211.2443317392088
 20
79.47648285201932
 30
0.0
  0
LINE
  5
1E5
330
1F
100
AcDbEntity
  8
0
  6
HIDDEN
 62
     7
370
     0
100
AcDbLine
 10
214.2643317392
 20
132.9961367031
 30
0.0
 11
214.2643317392
 21
79.0720872237
 31
0.0
  0
SPLINE
  5
1E6
330
1F
100
AcDbEntity
  8
0
  6
HIDDEN
 62
     7
370
     0
100
AcDbSpline
210
0.0
220
0.0
230
1.0
 70
     8
 71
     3
 72
    10
 73
     6
 74
     0
 42
0.00000001
 43
0.00000001
 40
0.0
 40
0.0
 40
0.0
 40
0.0
 40
0.5
 40
0.5
 40
1.0
 40
1.0
 40
1.0
 40
1.0
 10
213.870034207518
 20
132.2764828520193
 30
0.0
 10
213.9913467306157
 20
132.3510689983075
 30
0.0
 10
214.0927750928409
 20
132.4598933094589
 30
0.0
 10
214.228718659101
 20
132.7109138280806
 30
0.0
 10
214.264331739209
 20
132.8534965212199
 30
0.0
 10
214.2643317392089
 20
132.9961367030552
 30
0.0
  0
SPLINE
  5
1E7
330
1F
100
AcDbEntity
  8
0
  6
HIDDEN
 62
     7
370
     0
100
AcDbSpline
210
0.0
220
0.0
230
1.0
 70
     8
 71
     3
 72
    10
 73
     6
 74
     0
 42
0.00000001
 43
0.00000001
 40
0.0
 40
0.0
 40
0.0
 40
0.0
 40
0.5
 40
0.5
 40
1.0
 40
1.0
 40
1.0
 40
1.0
 10
214.1666569368766
 20
79.47648285201932
 30
0.0
 10
214.1988121244987
 20
79.41419680650318
 30
0.0
 10
214.2234683556929
 20
79.34766638163394
 30
0.0
 10
214.2562811126184
 20
79.21080775127143
 30
0.0
 10
214.264331739209
 20
79.14175015609307
 30
0.0
 10
214.264331739209
 20
79.07208722368973
 30
0.0
  0
SPLINE
  5
1E8
330
1F
100
AcDbEntity
  8
0
  6
HIDDEN
 62
     7
370
     0
100
AcDbSpline
210
0.0
220
0.0
230
1.0
 70
    24
 71
     3
 72
    12
 73
     8
 74
     0
 42
0.00000001
 43
0.00000001
 40
0.0
 40
0.0
 40
0.0
 40
0.0
 40
0.2500000000000012
 40
0.2500000000000012
 40
0.5000000000000024
 40
0.5000000000000024
 40
1.0
 40
1.0
 40
1.0
 40
1.0
 10
213.4643317392089
 20
132.2764828520193
 30
0.0
 10
213.5138668454269
 20
132.2764828520193
 30
0.0
 10
213.5622717340284
 20
132.2764828520193
 30
0.0
 10
213.645158283206
 20
132.2764828520193
 30
0.0
 10
213.6816730046744
 20
132.2764828520193
 30
0.0
 10
213.778005843029
 20
132.2764828520193
 30
0.0
 10
213.8267583906917
 20
132.2764828520193
 30
0.0
 10
213.8700342075223
 20
132.2764828520193
 30
0.0
  0
SPLINE
  5
1E9
330
1F
100
AcDbEntity
  8
0
  6
HIDDEN
 62
     7
370
     0
100
AcDbSpline
210
0.0
220
0.0
230
1.0
 70
    24
 71
     3
 72
    14
 73
    10
 74
     0
 42
0.00000001
 43
0.00000001
 40
0.0
 40
0.0
 40
0.0
 40
0.0
 40
0.124999999999999
 40
0.124999999999999
 40
0.2499999999999979
 40
0.2499999999999979
 40
0.4999999999999994
 40
0.4999999999999994
 40
1.0
 40
1.0
 40
1.0
 40
1.0
 10
213.4643317392089
 20
79.47648285201932
 30
0.0
 10
213.5334283715529
 20
79.47648285201932
 30
0.0
 10
213.5984215371608
 20
79.47648285201932
 30
0.0
 10
213.702742735806
 20
79.47648285201933
 30
0.0
 10
213.7455231099145
 20
79.47648285201932
 30
0.0
 10
213.8578607695607
 20
79.47648285201932
 30
0.0
 10
213.9129079517031
 20
79.47648285201932
 30
0.0
 10
214.0567847254731
 20
79.47648285201932
 30
0.0
 10
214.1198140387482
 20
79.47648285201932
 30
0.0
 10
214.1666569368766
 20
79.47648285201932
 30
0.0
  0
LINE
  5
1EA
330
1F
100
AcDbEntity
  8
0
  6
HIDDEN
 62
     7
370
     0
100
AcDbLine
 10
211.2443317392
 20
132.276482852
 30
0.0
 11
213.4643317392
 21
132.276482852
 31
0.0
  0
LINE
  5
1EB
330
1F
100
AcDbEntity
  8
0
  6
HIDDEN
 62
     7
370
     0
100
AcDbLine
 10
211.2443317392
 20
79.476482852
 30
0.0
 11
213.4643317392
 21
79.476482852
 31
0.0
  0
LINE
  5
1EC
330
1F
100
AcDbEntity
  8
0
  6
HIDDEN
 62
     7
370
     0
100
AcDbLine
 10
210.4443317392
 20
133.6817170432
 30
0.0
 11
210.4443317392
 21
132.9961367031
 31
0.0
  0
SPLINE
  5
1ED
330
1F
100
AcDbEntity
  8
0
  6
HIDDEN
 62
     7
370
     0
100
AcDbSpline
210
0.0
220
0.0
230
1.0
 70
     8
 71
     3
 72
     8
 73
     4
 74
     0
 42
0.00000001
 43
0.00000001
 40
0.0
 40
0.0
 40
0.0
 40
0.0
 40
1.0
 40
1.0
 40
1.0
 40
1.0
 10
208.9623989077199
 20
136.3436783251836
 30
0.0
 10
209.4575389370842
 20
135.4569986770033
 30
0.0
 10
209.9516216423632
 20
134.5697360413173
 30
0.0
 10
210.4443317392089
 20
133.681717043191
 30
0.0
  0
LINE
  5
1EE
330
1F
100
AcDbEntity
  8
0
  6
HIDDEN
 62
     7
370
     0
100
AcDbLine
 10
207.3043317392
 20
132.276482852
 30
0.0
 11
210.8386292709
 21
132.276482852
 31
0.0
  0
SPLINE
  5
1EF
330
1F
100
AcDbEntity
  8
0
  6
HIDDEN
 62
     7
370
     0
100
AcDbSpline
210
0.0
220
0.0
230
1.0
 70
     8
 71
     3
 72
    12
 73
     8
 74
     0
 42
0.00000001
 43
0.00000001
 40
0.0
 40
0.0
 40
0.0
 40
0.0
 40
0.2500000000000019
 40
0.2500000000000019
 40
0.5000000000000038
 40
0.5000000000000038
 40
1.0
 40
1.0
 40
1.0
 40
1.0
 10
219.7043317392089
 20
136.3436783251836
 30
0.0
 10
219.7838246882572
 20
136.3436783251836
 30
0.0
 10
219.8649081896127
 20
136.3266755752228
 30
0.0
 10
220.0113385867505
 20
136.2626150341111
 30
0.0
 10
220.0778871966242
 20
136.2154564184725
 30
0.0
 10
220.2421770705979
 20
136.0422343857803
 30
0.0
 10
220.3043317392091
 20
135.882125295546
 30
0.0
 10
220.3043317392089
 20
135.7229231757826
 30
0.0
  0
SPLINE
  5
1F0
330
1F
100
AcDbEntity
  8
0
  6
HIDDEN
 62
     7
370
     0
100
AcDbSpline
210
0.0
220
0.0
230
1.0
 70
     8
 71
     3
 72
    12
 73
     8
 74
     0
 42
0.00000001
 43
0.00000001
 40
0.0
 40
0.0
 40
0.0
 40
0.0
 40
0.25
 40
0.25
 40
0.5
 40
0.5
 40
1.0
 40
1.0
 40
1.0
 40
1.0
 10
219.7043317392089
 20
75.68956515577219
 30
0.0
 10
219.784212743956
 20
75.6895651557722
 30
0.0
 10
219.8648068742266
 20
75.70668224203803
 30
0.0
 10
220.0114223200715
 20
75.77141835351314
 30
0.0
 10
220.0779235128155
 20
75.81887559639347
 30
0.0
 10
220.2436584139527
 20
75.99570003893295
 30
0.0
 10
220.3043317392089
 20
76.15597654613865
 30
0.0
 10
220.3043317392089
 20
76.31620545142643
 30
0.0
  0
LINE
  5
1F1
330
1F
100
AcDbEntity
  8
0
  6
HIDDEN
 62
     7
370
     0
100
AcDbLine
 10
220.3043317392
 20
135.7229231758
 30
0.0
 11
220.3043317392
 21
76.3162054514
 31
0.0
  0
LINE
  5
1F2
330
1F
100
AcDbEntity
  8
0
  6
HIDDEN
 62
     7
370
     0
100
AcDbLine
 10
214.2643317392
 20
132.9961367031
 30
0.0
 11
214.2643317392
 21
133.6817170432
 31
0.0
  0
SPLINE
  5
1F3
330
1F
100
AcDbEntity
  8
0
  6
HIDDEN
 62
     7
370
     0
100
AcDbSpline
210
0.0
220
0.0
230
1.0
 70
     8
 71
     3
 72
     8
 73
     4
 74
     0
 42
0.00000001
 43
0.00000001
 40
0.0
 40
0.0
 40
0.0
 40
0.0
 40
1.0
 40
1.0
 40
1.0
 40
1.0
 10
214.2643317392089
 20
133.681717043191
 30
0.0
 10
214.7570418360547
 20
134.5697360413173
 30
0.0
 10
215.2511245413337
 20
135.4569986770033
 30
0.0
 10
215.7462645706979
 20
136.3436783251836
 30
0.0
  0
LINE
  5
1F4
330
1F
100
AcDbEntity
  8
0
  6
HIDDEN
 62
     7
370
     0
100
AcDbLine
 10
215.7462645707
 20
136.3436783252
 30
0.0
 11
219.7043317392
 21
136.3436783252
 31
0.0
  0
LINE
  5
1F5
330
1F
100
AcDbEntity
  8
0
  6
HIDDEN
 62
     7
370
     0
100
AcDbLine
 10
220.3043317392
 20
135.7229231758
 30
0.0
 11
220.3043317392
 21
132.276482852
 31
0.0
  0
LINE
  5
1F6
330
1F
100
AcDbEntity
  8
0
  6
HIDDEN
 62
     7
370
     0
100
AcDbLine
 10
213.8700342075
 20
132.276482852
 30
0.0
 11
220.3043317392
 21
132.276482852
 31
0.0
  0
LINE
  5
1F7
330
1F
100
AcDbEntity
  8
0
  6
HIDDEN
 62
     7
370
     0
100
AcDbLine
 10
214.2643317392
 20
133.6817170432
 30
0.0
 11
214.2643317392
 21
78.378645693
 31
0.0
  0
LINE
  5
1F8
330
1F
100
AcDbEntity
  8
0
  6
HIDDEN
 62
     7
370
     0
100
AcDbLine
 10
215.7462645707
 20
136.3436783252
 30
0.0
 11
215.7462645707
 21
75.6895651558
 31
0.0
  0
LINE
  5
1F9
330
1F
100
AcDbEntity
  8
0
  6
HIDDEN
 62
     7
370
     0
100
AcDbLine
 10
210.4443317392
 20
133.6817170432
 30
0.0
 11
210.4443317392
 21
78.378645693
 31
0.0
  0
ELLIPSE
  5
1FA
330
1F
100
AcDbEntity
  8
0
  6
HIDDEN
 62
     7
370
     0
100
AcDbEllipse
 10
248.2167520008
 20
138.959429237
 30
0.0
 11
1.737186289662958
 21
2.355075434760465
 31
0.0
210
0.0
220
0.0
230
1.0
 40
0.8537330573
 41
5.16335735826129
 42
7.352681728804443
  0
LWPOLYLINE
  5
1FB
330
1F
100
AcDbEntity
  8
0
  6
HIDDEN
 62
     7
370
     0
100
AcDbPolyline
 90
       13
 70
   128
 43
0.0
 10
247.6139033847
 20
134.3293331438
 10
247.801999867
 20
134.7321624388
 10
247.8432807807
 20
135.212616482
 10
247.7349328997
 20
135.7379531244
 10
247.4843399532
 20
136.272371542
 10
247.1085794361
 20
136.7794520027
 10
246.6332588069
 20
137.2246378112
 10
246.0907703809
 20
137.5775902903
 10
245.5180838478
 20
137.8142563119
 10
244.9542268485
 20
137.9185074776
 10
244.4376253056
 20
137.8832392429
 10
244.0034847606
 20
137.7108550796
 10
243.6813911741
 20
137.4131026836
  0
SPLINE
  5
1FC
330
1F
100
AcDbEntity
  8
0
  6
HIDDEN
 62
     7
370
     0
100
AcDbSpline
210
0.0
220
0.0
230
1.0
 70
     8
 71
     3
 72
    32
 73
    28
 74
     0
 42
0.00000001
 43
0.00000001
 40
0.0
 40
0.0
 40
0.0
 40
0.0
 40
0.0325512006801041
 40
0.0649795190494626
 40
0.097292358389994
 40
0.1294972016230251
 40
0.1616016071854351
 40
0.1936132046588797
 40
0.2255396901610844
 40
0.2573888215099561
 40
0.2891684131729622
 40
0.3208863310159044
 40
0.3525504868668092
 40
0.3841688329121616
 40
0.4157493559441105
 40
0.4473000714785294
 40
0.4788290177649288
 40
0.5103442497101653
 40
0.5661097829523545
 40
0.6214222689688383
 40
0.67632880943674
 40
0.7308775576192099
 40
0.7851176197106886
 40
0.8390989443368225
 40
0.8928722011322621
 40
0.9464886496315437
 40
1.0
 40
1.0
 40
1.0
 40
1.0
 10
254.5984657003091
 20
139.1931143951222
 30
0.0
 10
254.6986356571058
 20
139.330163686246
 30
0.0
 10
254.8985974244097
 20
139.6037449009854
 30
0.0
 10
255.1932906342657
 20
140.0052674465481
 30
0.0
 10
255.4833798799299
 20
140.399267916388
 30
0.0
 10
255.7685359387251
 20
140.7851775370932
 30
0.0
 10
256.0488464789939
 20
141.1631477865633
 30
0.0
 10
256.3242880396329
 20
141.5331381484002
 30
0.0
 10
256.5948667927793
 20
141.8951593034273
 30
0.0
 10
256.8605810064178
 20
142.2492082774068
 30
0.0
 10
257.1214310587141
 20
142.5952857422758
 30
0.0
 10
257.3774167652238
 20
142.933391398963
 30
0.0
 10
257.6285380959541
 20
143.2635252139147
 30
0.0
 10
257.8747949727612
 20
143.5856870772915
 30
0.0
 10
258.1161873669684
 20
143.8998769405327
 30
0.0
 10
258.3527151132926
 20
144.2060946102532
 30
0.0
 10
258.5843785578813
 20
144.5043404373527
 30
0.0
 10
258.8693567211441
 20
144.8690765600274
 30
0.0
 10
259.2013147745135
 20
145.2902917087759
 30
0.0
 10
259.5720751949877
 20
145.755025574739
 30
0.0
 10
259.9240254336603
 20
146.1901742250444
 30
0.0
 10
260.2571708255437
 20
146.5957467774992
 30
0.0
 10
260.5714770517189
 20
146.9716891353621
 30
0.0
 10
260.8670660350647
 20
147.3181941093707
 30
0.0
 10
261.1434782656977
 20
147.6345363988271
 30
0.0
 10
261.4024141842284
 20
147.923401343523
 30
0.0
 10
261.5592701781403
 20
148.0911064399057
 30
0.0
 10
261.6376212330142
 20
148.1748767242386
 30
0.0
  0
SPLINE
  5
1FD
330
1F
100
AcDbEntity
  8
0
  6
HIDDEN
 62
     7
370
     0
100
AcDbSpline
210
0.0
220
0.0
230
1.0
 70
     8
 71
     3
 72
    26
 73
    22
 74
     0
 42
0.00000001
 43
0.00000001
 40
0.0
 40
0.0
 40
0.0
 40
0.0
 40
0.2500000000000054
 40
0.2500000000000054
 40
0.3750000000000083
 40
0.3750000000000083
 40
0.437500000000009
 40
0.437500000000009
 40
0.468750000000007
 40
0.468750000000007
 40
0.500000000000005
 40
0.500000000000005
 40
0.531250000000003
 40
0.531250000000003
 40
0.562500000000001
 40
0.562500000000001
 40
0.6250000000000003
 40
0.6250000000000003
 40
0.7499999999999993
 40
0.7499999999999993
 40
1.0
 40
1.0
 40
1.0
 40
1.0
 10
163.2784853853134
 20
126.2666021856172
 30
0.0
 10
163.2398848624449
 20
126.1488274892617
 30
0.0
 10
163.1935878598907
 20
126.0244378030998
 30
0.0
 10
163.0996485114568
 20
125.8192184707463
 30
0.0
 10
163.0643370445433
 20
125.7476456042998
 30
0.0
 10
162.9981570687976
 20
125.6316923716994
 30
0.0
 10
162.9736187021294
 20
125.5911078368892
 30
0.0
 10
162.9302459565756
 20
125.5269661550174
 30
0.0
 10
162.9147375551504
 20
125.5050997297323
 30
0.0
 10
162.8796949105634
 20
125.4595054613891
 30
0.0
 10
162.8601446198435
 20
125.4358351704217
 30
0.0
 10
162.8182173394729
 20
125.3912186110818
 30
0.0
 10
162.7955652292413
 20
125.3703385985639
 30
0.0
 10
162.7545915151547
 20
125.3394651848131
 30
0.0
 10
162.7369922152592
 20
125.3296263149806
 30
0.0
 10
162.6923652294031
 20
125.3106366992845
 30
0.0
 10
162.6718060067498
 20
125.3103123746311
 30
0.0
 10
162.6206805672531
 20
125.3195358155073
 30
0.0
 10
162.5997691542646
 20
125.3407827117243
 30
0.0
 10
162.5483192467037
 20
125.414751590555
 30
0.0
 10
162.5306539473991
 20
125.4808696838698
 30
0.0
 10
162.5169951139323
 20
125.5510353968001
 30
0.0
  0
SPLINE
  5
1FE
330
1F
100
AcDbEntity
  8
0
  6
HIDDEN
 62
     7
370
     0
100
AcDbSpline
210
0.0
220
0.0
230
1.0
 70
     8
 71
     3
 72
    26
 73
    22
 74
     0
 42
0.00000001
 43
0.00000001
 40
0.0
 40
0.0
 40
0.0
 40
0.0
 40
0.2500000000000037
 40
0.2500000000000037
 40
0.3750000000000052
 40
0.3750000000000052
 40
0.4375000000000052
 40
0.4375000000000052
 40
0.4687500000000058
 40
0.4687500000000058
 40
0.5000000000000063
 40
0.5000000000000063
 40
0.5312500000000069
 40
0.5312500000000069
 40
0.5625000000000074
 40
0.5625000000000074
 40
0.6250000000000063
 40
0.6250000000000063
 40
0.7500000000000031
 40
0.7500000000000031
 40
1.0
 40
1.0
 40
1.0
 40
1.0
 10
162.4846093548175
 20
86.2863952917925
 30
0.0
 10
162.4953333882101
 20
86.38935633228145
 30
0.0
 10
162.5100663788046
 20
86.48835502176253
 30
0.0
 10
162.5624199380516
 20
86.60695070182764
 30
0.0
 10
162.5841252207712
 20
86.64266100177645
 30
0.0
 10
162.6429807281366
 20
86.66764043459818
 30
0.0
 10
162.6664429619838
 20
86.67202588236175
 30
0.0
 10
162.7225643386444
 20
86.65227304891762
 30
0.0
 10
162.745351648775
 20
86.64061665810722
 30
0.0
 10
162.8006042013062
 20
86.59883630866999
 30
0.0
 10
162.832010434047
 20
86.56856472129401
 30
0.0
 10
162.8869442546675
 20
86.50692232237999
 30
0.0
 10
162.911368072867
 20
86.47548067007317
 30
0.0
 10
162.9547831788542
 20
86.41574583265943
 30
0.0
 10
162.9743577414224
 20
86.38658082278677
 30
0.0
 10
163.0279904253704
 20
86.3027455470537
 30
0.0
 10
163.0577677734227
 20
86.2507129290775
 30
0.0
 10
163.1393018333955
 20
86.09964725511013
 30
0.0
 10
163.1825446280695
 20
86.00645621323937
 30
0.0
 10
163.2955992177242
 20
85.742069674245
 30
0.0
 10
163.3496102152034
 20
85.58311150519515
 30
0.0
 10
163.3932413094074
 20
85.43256054905429
 30
0.0
  0
LINE
  5
1FF
330
1F
100
AcDbEntity
  8
0
  6
HIDDEN
 62
     7
370
     0
100
AcDbLine
 10
162.4543317392
 20
125.5671605985
 30
0.0
 11
162.4543317392
 21
86.2233223271
 31
0.0
  0
SPLINE
  5
200
330
1F
100
AcDbEntity
  8
0
  6
HIDDEN
 62
     7
370
     0
100
AcDbSpline
210
0.0
220
0.0
230
1.0
 70
     8
 71
     3
 72
     8
 73
     4
 74
     0
 42
0.00000001
 43
0.00000001
 40
0.0
 40
0.0
 40
0.0
 40
0.0
 40
1.0
 40
1.0
 40
1.0
 40
1.0
 10
214.2643317392089
 20
78.37864569296443
 30
0.0
 10
214.7566708619901
 20
77.48137565875773
 30
0.0
 10
215.2507849100323
 20
76.58509124370549
 30
0.0
 10
215.7462645706979
 20
75.68956515577214
 30
0.0
  0
LINE
  5
201
330
1F
100
AcDbEntity
  8
0
  6
HIDDEN
 62
     7
370
     0
100
AcDbLine
 10
214.2643317392
 20
79.0720872237
 30
0.0
 11
214.2643317392
 21
78.378645693
 31
0.0
  0
LINE
  5
202
330
1F
100
AcDbEntity
  8
0
  6
HIDDEN
 62
     7
370
     0
100
AcDbLine
 10
215.7462645707
 20
75.6895651558
 30
0.0
 11
219.7043317392
 21
75.6895651558
 31
0.0
  0
LINE
  5
203
330
1F
100
AcDbEntity
  8
0
  6
HIDDEN
 62
     7
370
     0
100
AcDbLine
 10
220.3043317392
 20
76.3162054514
 30
0.0
 11
220.3043317392
 21
79.476482852
 31
0.0
  0
LINE
  5
204
330
1F
100
AcDbEntity
  8
0
  6
HIDDEN
 62
     7
370
     0
100
AcDbLine
 10
214.1666569369
 20
79.476482852
 30
0.0
 11
220.3043317392
 21
79.476482852
 31
0.0
  0
LINE
  5
205
330
1F
100
AcDbEntity
  8
0
  6
HIDDEN
 62
     7
370
     0
100
AcDbLine
 10
210.4443317392
 20
78.378645693
 30
0.0
 11
210.4443317392
 21
79.0720872237
 31
0.0
  0
SPLINE
  5
206
330
1F
100
AcDbEntity
  8
0
  6
HIDDEN
 62
     7
370
     0
100
AcDbSpline
210
0.0
220
0.0
230
1.0
 70
     8
 71
     3
 72
     8
 73
     4
 74
     0
 42
0.00000001
 43
0.00000001
 40
0.0
 40
0.0
 40
0.0
 40
0.0
 40
1.0
 40
1.0
 40
1.0
 40
1.0
 10
208.9623989077199
 20
75.68956515577216
 30
0.0
 10
209.4578785683856
 20
76.58509124370552
 30
0.0
 10
209.9519926164277
 20
77.48137565875776
 30
0.0
 10
210.4443317392089
 20
78.37864569296445
 30
0.0
  0
LINE
  5
207
330
1F
100
AcDbEntity
  8
0
  6
HIDDEN
 62
     7
370
     0
100
AcDbLine
 10
207.3043317392
 20
79.476482852
 30
0.0
 11
210.5420065415
 21
79.476482852
 31
0.0
  0
LINE
  5
208
330
1F
100
AcDbEntity
  8
0
  6
HIDDEN
 62
     7
370
     0
100
AcDbLine
 10
243.6813911741
 20
137.4131026836
 30
0.0
 11
241.0573164798
 21
133.809781492
 31
0.0
  0
LWPOLYLINE
  5
209
330
1F
100
AcDbEntity
  8
0
  6
HIDDEN
 62
     7
370
     0
100
AcDbPolyline
 90
       29
 70
   128
 43
0.0
 10
224.3543317392
 20
96.9010424098
 10
225.0218945411
 20
96.9717225775
 10
225.6559829566
 20
97.180218882
 10
226.2248011448
 20
97.5160764478
 10
226.6998261866
 20
97.9624539743
 10
227.0572383429
 20
98.4969682284
 10
227.2791154758
 20
99.0928164333
 10
227.3543317392
 20
99.7201202722
 10
227.2791154758
 20
100.347424111
 10
227.0572383429
 20
100.9432723159
 10
226.6998261866
 20
101.47778657
 10
226.2248011448
 20
101.9241640965
 10
225.6559829566
 20
102.2600216623
 10
225.0218945411
 20
102.4685179668
 10
224.3543317392
 20
102.5391981345
 10
223.6867689373
 20
102.4685179668
 10
223.0526805219
 20
102.2600216623
 10
222.4838623336
 20
101.9241640965
 10
222.0088372918
 20
101.47778657
 10
221.6514251355
 20
100.9432723159
 10
221.4295480027
 20
100.347424111
 10
221.3543317392
 20
99.7201202722
 10
221.4295480027
 20
99.0928164333
 10
221.6514251355
 20
98.4969682284
 10
222.0088372918
 20
97.9624539743
 10
222.4838623336
 20
97.5160764478
 10
223.0526805219
 20
97.180218882
 10
223.6867689373
 20
96.9717225775
 10
224.3543317392
 20
96.9010424098
  0
CIRCLE
  5
20A
330
1F
100
AcDbEntity
  8
0
  6
HIDDEN
 62
     7
370
     0
100
AcDbCircle
 10
201.3543317392
 20
105.876482852
 30
0.0
 40
5.0
  0
LINE
  5
20B
330
1F
100
AcDbEntity
  8
0
  6
HIDDEN
 62
     7
370
     0
100
AcDbLine
 10
254.447259752
 20
139.7038298915
 30
0.0
 11
254.598613711
 21
139.1926099374
 31
0.0
  0
LINE
  5
20C
330
1F
100
AcDbEntity
  8
0
  6
HIDDEN
 62
     7
370
     0
100
AcDbLine
 10
254.5984657001
 20
139.1931143953
 30
0.0
 11
252.3931909317
 21
135.8287903202
 31
0.0
  0
ELLIPSE
  5
20D
330
1F
100
AcDbEntity
  8
0
  6
HIDDEN
 62
     7
370
     0
100
AcDbEllipse
 10
259.572756536
 20
131.2549902743
 30
0.0
 11
6.244531146197573
 21
6.149662686701788
 31
0.0
210
0.0
220
0.0
230
0.9999999999999998
 40
0.9698463104
 41
1.790035012785526
 42
2.348540373423703
  0
LINE
  5
20E
330
1F
100
AcDbEntity
  8
0
  6
HIDDEN
 62
     7
370
     0
100
AcDbLine
 10
250.941630335
 20
131.2549902743
 30
0.0
 11
250.1645693978
 21
105.876482852
 31
0.0
  0
LINE
  5
20F
330
1F
100
AcDbEntity
  8
0
  6
HIDDEN
 62
     7
370
     0
100
AcDbLine
 10
194.3543317392
 20
80.5525589309
 30
0.0
 11
194.4484925805
 21
81.2225481297
 31
0.0
  0
LINE
  5
210
330
1F
100
AcDbEntity
  8
0
  6
HIDDEN
 62
     7
370
     0
100
AcDbLine
 10
194.4484925805
 20
130.5304175743
 30
0.0
 11
194.3543317392
 21
131.2004067731
 31
0.0
  0
ARC
  5
211
330
1F
100
AcDbEntity
  8
0
  6
HIDDEN
 62
     7
370
     0
100
AcDbCircle
 10
193.8543317392
 20
81.3060519903
 30
0.0
 40
0.6000000000000113
100
AcDbArc
 50
352.0
 51
0.0
  0
ARC
  5
212
330
1F
100
AcDbEntity
  8
0
  6
HIDDEN
 62
     7
370
     0
100
AcDbCircle
 10
193.8543317392
 20
81.3060519903
 30
0.0
 40
0.6000000000000019
100
AcDbArc
 50
0.0
 51
33.5573097619
  0
ARC
  5
213
330
1F
100
AcDbEntity
  8
0
  6
HIDDEN
 62
     7
370
     0
100
AcDbCircle
 10
193.8543317392
 20
130.4469137137
 30
0.0
 40
0.6000000000000258
100
AcDbArc
 50
348.75
 51
8.0
  0
LWPOLYLINE
  5
214
330
1F
100
AcDbEntity
  8
0
  6
HIDDEN
 62
     7
370
     0
100
AcDbPolyline
 90
        3
 70
   128
 43
0.0
 10
194.4428029075
 20
130.3298595205
 10
194.4086594587
 20
130.2173036543
 10
194.3543317392
 20
130.1152512347
  0
LINE
  5
215
330
1F
100
AcDbEntity
  8
0
  6
HIDDEN
 62
     7
370
     0
100
AcDbLine
 10
194.4543317392
 20
81.3060519903
 30
0.0
 11
194.4543317392
 21
130.4469137137
 31
0.0
  0
LINE
  5
216
330
1F
100
AcDbEntity
  8
0
  6
HIDDEN
 62
     7
370
     0
100
AcDbLine
 10
194.4543317392
 20
81.3060519903
 30
0.0
 11
194.4543317392
 21
130.4469137137
 31
0.0
  0
LINE
  5
217
330
1F
100
AcDbEntity
  8
0
  6
HIDDEN
 62
     7
370
     0
100
AcDbLine
 10
229.6615229673
 20
121.7651231785
 30
0.0
 11
221.0421764274
 21
113.6809104311
 31
0.0
  0
LINE
  5
218
330
1F
100
AcDbEntity
  8
0
  6
HIDDEN
 62
     7
370
     0
100
AcDbLine
 10
226.3927377952
 20
111.8442024168
 30
0.0
 11
229.4957145528
 21
114.7545302639
 31
0.0
  0
LINE
  5
219
330
1F
100
AcDbEntity
  8
0
  6
HIDDEN
 62
     7
370
     0
100
AcDbLine
 10
224.4626871234
 20
110.0339793132
 30
0.0
 11
225.9200490752
 21
111.4008606672
 31
0.0
  0
LINE
  5
21A
330
1F
100
AcDbEntity
  8
0
  6
HIDDEN
 62
     7
370
     0
100
AcDbLine
 10
221.0177530455
 20
112.8892073362
 30
0.0
 11
221.7279668834
 21
110.8965840806
 31
0.0
  0
LINE
  5
21B
330
1F
100
AcDbEntity
  8
0
  6
HIDDEN
 62
     7
370
     0
100
AcDbLine
 10
221.7279668834
 20
110.8965840806
 30
0.0
 11
223.6710442284
 21
110.0602817634
 31
0.0
  0
LINE
  5
21C
330
1F
100
AcDbEntity
  8
0
  6
HIDDEN
 62
     7
370
     0
100
AcDbLine
 10
221.8543317392
 20
112.9309099072
 30
0.0
 11
221.8543317392
 21
107.312834658
 31
0.0
  0
LINE
  5
21D
330
1F
100
AcDbEntity
  8
0
  6
HIDDEN
 62
     7
370
     0
100
AcDbLine
 10
226.8543317392
 20
107.3117036271
 30
0.0
 11
226.8543317392
 21
112.7552798598
 31
0.0
  0
LINE
  5
21E
330
1F
100
AcDbEntity
  8
0
  6
HIDDEN
 62
     7
370
     0
100
AcDbLine
 10
177.4367673045
 20
85.876482852
 30
0.0
 11
181.6143541984
 21
85.876482852
 31
0.0
  0
LINE
  5
21F
330
1F
100
AcDbEntity
  8
0
  6
HIDDEN
 62
     7
370
     0
100
AcDbLine
 10
181.6143541984
 20
125.876482852
 30
0.0
 11
177.4367673045
 21
125.876482852
 31
0.0
  0
ARC
  5
220
330
1F
100
AcDbEntity
  8
0
  6
HIDDEN
 62
     7
370
     0
100
AcDbCircle
 10
177.4367673045
 20
86.476482852
 30
0.0
 40
0.6000000000000085
100
AcDbArc
 50
210.0
 51
270.0
  0
ARC
  5
221
330
1F
100
AcDbEntity
  8
0
  6
HIDDEN
 62
     7
370
     0
100
AcDbCircle
 10
177.4367673045
 20
125.276482852
 30
0.0
 40
0.6000000000000085
100
AcDbArc
 50
90.0
 51
150.0
  0
ARC
  5
222
330
1F
100
AcDbEntity
  8
0
  6
HIDDEN
 62
     7
370
     0
100
AcDbCircle
 10
188.1093337408
 20
93.876482852
 30
0.0
 40
8.000000000000002
100
AcDbArc
 50
277.1308039199
 51
321.3178125465
  0
ARC
  5
223
330
1F
100
AcDbEntity
  8
0
  6
HIDDEN
 62
     7
370
     0
100
AcDbCircle
 10
188.1093337408
 20
117.876482852
 30
0.0
 40
7.999999999999993
100
AcDbArc
 50
38.6821874535
 51
82.8541153034
  0
LINE
  5
224
330
1F
100
AcDbEntity
  8
0
  6
HIDDEN
 62
     7
370
     0
100
AcDbLine
 10
176.9171520622
 20
125.576482852
 30
0.0
 11
175.3583063354
 21
122.876482852
 31
0.0
  0
LINE
  5
225
330
1F
100
AcDbEntity
  8
0
  6
HIDDEN
 62
     7
370
     0
100
AcDbLine
 10
175.3583063354
 20
88.876482852
 30
0.0
 11
176.9171520622
 21
86.176482852
 31
0.0
  0
ARC
  5
226
330
1F
100
AcDbEntity
  8
0
  6
HIDDEN
 62
     7
370
     0
100
AcDbCircle
 10
202.8043317392
 20
90.151482852
 30
0.0
 40
1.500000000000001
100
AcDbArc
 50
238.2116693829
 51
0.0
  0
ARC
  5
227
330
1F
100
AcDbEntity
  8
0
  6
HIDDEN
 62
     7
370
     0
100
AcDbCircle
 10
202.8043317392
 20
121.601482852
 30
0.0
 40
1.5
100
AcDbArc
 50
0.0
 51
121.7883306171
  0
LINE
  5
228
330
1F
100
AcDbEntity
  8
0
  6
HIDDEN
 62
     7
370
     0
100
AcDbLine
 10
172.5543317392
 20
88.876482852
 30
0.0
 11
175.3583063354
 21
88.876482852
 31
0.0
  0
LINE
  5
229
330
1F
100
AcDbEntity
  8
0
  6
HIDDEN
 62
     7
370
     0
100
AcDbLine
 10
175.3583063354
 20
122.876482852
 30
0.0
 11
168.5543317392
 21
122.876482852
 31
0.0
  0
LINE
  5
22A
330
1F
100
AcDbEntity
  8
0
  6
HIDDEN
 62
     7
370
     0
100
AcDbLine
 10
194.3543317392
 20
88.876482852
 30
0.0
 11
202.0141577077
 21
88.876482852
 31
0.0
  0
LINE
  5
22B
330
1F
100
AcDbEntity
  8
0
  6
HIDDEN
 62
     7
370
     0
100
AcDbLine
 10
202.0141577077
 20
122.876482852
 30
0.0
 11
194.3543317392
 21
122.876482852
 31
0.0
  0
LINE
  5
22C
330
1F
100
AcDbEntity
  8
0
  6
HIDDEN
 62
     7
370
     0
100
AcDbLine
 10
213.6543317392
 20
96.376482852
 30
0.0
 11
216.1543317392
 21
96.376482852
 31
0.0
  0
LINE
  5
22D
330
1F
100
AcDbEntity
  8
0
  6
HIDDEN
 62
     7
370
     0
100
AcDbLine
 10
216.1543317392
 20
115.376482852
 30
0.0
 11
213.6543317392
 21
115.376482852
 31
0.0
  0
LINE
  5
22E
330
1F
100
AcDbEntity
  8
0
  6
HIDDEN
 62
     7
370
     0
100
AcDbLine
 10
204.3043317392
 20
96.876482852
 30
0.0
 11
204.8043317392
 21
97.376482852
 31
0.0
  0
LINE
  5
22F
330
1F
100
AcDbEntity
  8
0
  6
HIDDEN
 62
     7
370
     0
100
AcDbLine
 10
204.8043317392
 20
114.376482852
 30
0.0
 11
204.3043317392
 21
114.876482852
 31
0.0
  0
LINE
  5
230
330
1F
100
AcDbEntity
  8
0
  6
HIDDEN
 62
     7
370
     0
100
AcDbLine
 10
204.8043317392
 20
97.376482852
 30
0.0
 11
213.6543317392
 21
97.376482852
 31
0.0
  0
LINE
  5
231
330
1F
100
AcDbEntity
  8
0
  6
HIDDEN
 62
     7
370
     0
100
AcDbLine
 10
213.6543317392
 20
114.376482852
 30
0.0
 11
204.8043317392
 21
114.376482852
 31
0.0
  0
LINE
  5
232
330
1F
100
AcDbEntity
  8
0
  6
HIDDEN
 62
     7
370
     0
100
AcDbLine
 10
199.3043317392
 20
137.376482852
 30
0.0
 11
199.3043317392
 21
132.276482852
 31
0.0
  0
LINE
  5
233
330
1F
100
AcDbEntity
  8
0
  6
HIDDEN
 62
     7
370
     0
100
AcDbLine
 10
241.2726666345
 20
134.8325804981
 30
0.0
 11
240.4774625922
 21
134.0494573921
 31
0.0
  0
LINE
  5
234
330
1F
100
AcDbEntity
  8
0
  6
HIDDEN
 62
     7
370
     0
100
AcDbLine
 10
245.3891794944
 20
129.0619693396
 30
0.0
 11
246.1843835366
 21
129.8450924456
 31
0.0
  0
LINE
  5
235
330
1F
100
AcDbEntity
  8
0
  6
HIDDEN
 62
     7
370
     0
100
AcDbLine
 10
245.7526472647
 20
131.4811865772
 30
0.0
 11
250.8769168539
 21
137.6408527199
 31
0.0
  0
LINE
  5
236
330
1F
100
AcDbEntity
  8
0
  6
HIDDEN
 62
     7
370
     0
100
AcDbLine
 10
189.5387695697
 20
81.7971115185
 30
0.0
 11
189.1043374202
 21
82.2761775376
 31
0.0
  0
LINE
  5
237
330
1F
100
AcDbEntity
  8
0
  6
HIDDEN
 62
     7
370
     0
100
AcDbLine
 10
181.6043340951
 20
82.6978654967
 30
0.0
 11
181.1219003518
 21
82.2187995213
 31
0.0
  0
LINE
  5
238
330
1F
100
AcDbEntity
  8
0
  6
HIDDEN
 62
     7
370
     0
100
AcDbLine
 10
181.1217784235
 20
129.5341608923
 30
0.0
 11
181.6043291745
 21
129.0550406344
 31
0.0
  0
LINE
  5
239
330
1F
100
AcDbEntity
  8
0
  6
HIDDEN
 62
     7
370
     0
100
AcDbLine
 10
189.1043316212
 20
129.4767384121
 30
0.0
 11
189.5388740115
 21
129.9558586627
 31
0.0
  0
LINE
  5
23A
330
1F
100
AcDbEntity
  8
0
  6
HIDDEN
 62
     7
370
     0
100
AcDbLine
 10
216.1543317392
 20
101.676482852
 30
0.0
 11
228.4543317392
 21
101.676482852
 31
0.0
  0
LINE
  5
23B
330
1F
100
AcDbEntity
  8
0
  6
HIDDEN
 62
     7
370
     0
100
AcDbLine
 10
228.4543317392
 20
110.076482852
 30
0.0
 11
216.1543317392
 21
110.076482852
 31
0.0
  0
LINE
  5
23C
330
1F
100
AcDbEntity
  8
0
  6
HIDDEN
 62
     7
370
     0
100
AcDbLine
 10
228.4543317392
 20
101.676482852
 30
0.0
 11
230.9779463391
 21
105.876482852
 31
0.0
  0
LINE
  5
23D
330
1F
100
AcDbEntity
  8
0
  6
HIDDEN
 62
     7
370
     0
100
AcDbLine
 10
230.9779463391
 20
105.876482852
 30
0.0
 11
228.4543317392
 21
110.076482852
 31
0.0
  0
LINE
  5
23E
330
1F
100
AcDbEntity
  8
0
  6
HIDDEN
 62
     7
370
     0
100
AcDbLine
 10
189.1043317392
 20
125.8143190427
 30
0.0
 11
189.1043317392
 21
129.476447106
 31
0.0
  0
LINE
  5
23F
330
1F
100
AcDbEntity
  8
0
  6
HIDDEN
 62
     7
370
     0
100
AcDbLine
 10
181.6043317392
 20
129.0548968552
 30
0.0
 11
181.6043317392
 21
125.8746113048
 31
0.0
  0
LINE
  5
240
330
1F
100
AcDbEntity
  8
0
  6
HIDDEN
 62
     7
370
     0
100
AcDbLine
 10
189.1043317392
 20
82.2766614393
 30
0.0
 11
189.1043317392
 21
85.9386466614
 31
0.0
  0
LINE
  5
241
330
1F
100
AcDbEntity
  8
0
  6
HIDDEN
 62
     7
370
     0
100
AcDbLine
 10
181.6043317392
 20
85.8783543992
 30
0.0
 11
181.6043317392
 21
82.6981887345
 31
0.0
  0
LINE
  5
242
330
1F
100
AcDbEntity
  8
0
  6
HIDDEN
 62
     7
370
     0
100
AcDbLine
 10
239.913254056
 20
134.476278945
 30
0.0
 11
237.1998258741
 21
131.8040738343
 31
0.0
  0
LINE
  5
243
330
1F
100
AcDbEntity
  8
0
  6
HIDDEN
 62
     7
370
     0
100
AcDbLine
 10
240.6501991007
 20
123.4125262127
 30
0.0
 11
245.8073143385
 21
128.4912932821
 31
0.0
  0
LINE
  5
244
330
1F
100
AcDbEntity
  8
0
  6
HIDDEN
 62
     7
370
     0
100
AcDbLine
 10
221.8543317392
 20
104.4412620769
 30
0.0
 11
221.8543317392
 21
99.8228734897
 31
0.0
  0
LINE
  5
245
330
1F
100
AcDbEntity
  8
0
  6
HIDDEN
 62
     7
370
     0
100
AcDbLine
 10
226.8543317392
 20
99.8228734897
 30
0.0
 11
226.8543317392
 21
104.440131046
 31
0.0
  0
ARC
  5
246
330
1F
100
AcDbEntity
  8
0
  6
HIDDEN
 62
     7
370
     0
100
AcDbCircle
 10
171.1543317392
 20
83.663982852
 30
0.0
 40
1.400000000000013
100
AcDbArc
 50
37.6443616934
 51
90.0
  0
ARC
  5
247
330
1F
100
AcDbEntity
  8
0
  6
HIDDEN
 62
     7
370
     0
100
AcDbCircle
 10
167.1543317392
 20
128.146482852
 30
0.0
 40
1.400000000000024
100
AcDbArc
 50
270.0
 51
302.5610026528
  0
LINE
  5
248
330
1F
100
AcDbEntity
  8
0
  6
HIDDEN
 62
     7
370
     0
100
AcDbLine
 10
249.1278173599
 20
145.0284639294
 30
0.0
 11
248.155387565
 21
144.0708075281
 31
0.0
  0
LINE
  5
249
330
1F
100
AcDbEntity
  8
0
  6
HIDDEN
 62
     7
370
     0
100
AcDbLine
 10
252.6461001612
 20
139.5108184515
 30
0.0
 11
253.6185299562
 21
140.4684748528
 31
0.0
  0
LINE
  5
24A
330
1F
100
AcDbEntity
  8
0
  6
HIDDEN
 62
     7
370
     0
100
AcDbLine
 10
167.1543317392
 20
126.746482852
 30
0.0
 11
163.7452201406
 21
126.746482852
 31
0.0
  0
LINE
  5
24B
330
1F
100
AcDbEntity
  8
0
  6
HIDDEN
 62
     7
370
     0
100
AcDbLine
 10
163.5954951974
 20
126.7376463102
 30
0.0
 11
162.4654993584
 21
125.6076504712
 31
0.0
  0
LINE
  5
24C
330
1F
100
AcDbEntity
  8
0
  6
HIDDEN
 62
     7
370
     0
100
AcDbLine
 10
163.6043317392
 20
85.063982852
 30
0.0
 11
171.1543317392
 21
85.063982852
 31
0.0
  0
LINE
  5
24D
330
1F
100
AcDbEntity
  8
0
  6
HIDDEN
 62
     7
370
     0
100
AcDbLine
 10
162.456280583
 20
86.2120340082
 30
0.0
 11
163.6043317392
 21
85.063982852
 31
0.0
  0
LINE
  5
24E
330
1F
100
AcDbEntity
  8
0
  6
HIDDEN
 62
     7
370
     0
100
AcDbLine
 10
247.6494432579
 20
142.1865691258
 30
0.0
 11
243.7257466275
 21
137.470060584
 31
0.0
  0
LINE
  5
24F
330
1F
100
AcDbEntity
  8
0
  6
HIDDEN
 62
     7
370
     0
100
AcDbLine
 10
221.3543317392
 20
99.7201202722
 30
0.0
 11
221.3543317392
 21
96.9839606006
 31
0.0
  0
LINE
  5
250
330
1F
100
AcDbEntity
  8
0
  6
HIDDEN
 62
     7
370
     0
100
AcDbLine
 10
227.3543317392
 20
96.9841841696
 30
0.0
 11
227.3543317392
 21
99.7201202722
 31
0.0
  0
LINE
  5
251
330
1F
100
AcDbEntity
  8
VERMASSUNG
100
AcDbLine
 10
264.3543317392
 20
150.876482852
 30
0.0
 11
243.0997377565
 21
150.876482852
 31
0.0
  0
DIMENSION
  5
252
330
1F
100
AcDbEntity
  8
VERMASSUNG
100
AcDbDimension
  2
*D1
 10
194.3543317392
 20
158.0760731707
 30
0.0
 11
229.3543317392
 21
158.0760731707
 31
0.0
 70
   160
 71
     2
 42
-1.0
  3
SLDDIMSTYLE0
100
AcDbAlignedDimension
 13
264.3543317392
 23
150.876482852
 33
0.0
 14
194.3543317392
 24
137.076482852
 34
0.0
100
AcDbRotatedDimension
  0
DIMENSION
  5
25D
330
1F
100
AcDbEntity
  8
VERMASSUNG
100
AcDbDimension
  2
*D2
 10
162.4543317392
 20
164.0760731707
 30
0.0
 11
213.4043317392
 21
164.0760731707
 31
0.0
 70
   160
 71
     2
 42
-1.0
  3
SLDDIMSTYLE0
100
AcDbAlignedDimension
 13
264.3543317392
 23
150.876482852
 33
0.0
 14
162.4543317392
 24
125.5671605985
 34
0.0
 50
0.0
100
AcDbRotatedDimension
  0
DIMENSION
  5
267
330
1F
100
AcDbEntity
  8
VERMASSUNG
100
AcDbDimension
  2
*D3
 10
268.075097561
 20
105.876482852
 30
0.0
 11
268.075097561
 21
128.376482852
 31
0.0
 70
   160
 71
     2
 42
-1.0
  3
SLDDIMSTYLE0
100
AcDbAlignedDimension
 13
264.3543317392
 23
150.876482852
 33
0.0
 14
259.2085609756
 24
105.876482852
 34
0.0
 50
90.0
100
AcDbRotatedDimension
  0
DIMENSION
  5
271
330
1F
100
AcDbEntity
  8
VERMASSUNG
100
AcDbDimension
  2
*D4
 10
248.1385738744
 20
148.8266509929
 30
0.0
 11
235.8704936331
 21
149.5310187229
 31
0.0
 70
   162
 71
     1
 42
-1.0
  3
SLDDIMSTYLE1
100
AcDb2LineAngularDimension
 13
243.0997377565
 23
150.876482852
 33
0.0
 14
264.3543317392
 24
150.876482852
 34
0.0
 15
240.79296398
 25
148.4416838909
 35
0.0
 16
235.8704936331
 26
149.5310187229
 36
0.0
  0
DIMENSION
  5
27E
330
1F
100
AcDbEntity
  8
VERMASSUNG
100
AcDbDimension
  2
*D5
 10
156.750804878
 20
74.376482852
 30
0.0
 11
156.750804878
 21
105.876482852
 31
0.0
 70
   160
  1
HSK %%c<>
 71
     2
 42
-1.0
  3
SLDDIMSTYLE0
100
AcDbAlignedDimension
 13
194.6543317392
 23
137.376482852
 33
0.0
 14
194.6543317392
 24
74.376482852
 34
0.0
 50
90.0
100
AcDbRotatedDimension
  0
LINE
  5
28A
330
1F
100
AcDbEntity
  8
VERMASSUNG
  6
CENTERX2
370
     0
100
AcDbLine
 10
159.2137317073
 20
105.876482852
 30
0.0
 11
259.2085609756
 21
105.876482852
 31
0.0
  0
LINE
  5
28B
330
1F
100
AcDbEntity
  8
0
  6
Continuous
 62
     7
370
    15
100
AcDbLine
 10
75.3915129882
 20
146.1092604475
 30
0.0
 11
75.3158893623
 21
146.1193224566
 31
0.0
  0
LINE
  5
28C
330
1F
100
AcDbEntity
  8
0
  6
Continuous
 62
     7
370
    15
100
AcDbLine
 10
82.4830515031
 20
150.0622889178
 30
0.0
 11
77.8665829986
 21
150.8762983756
 31
0.0
  0
LINE
  5
28D
330
1F
100
AcDbEntity
  8
0
  6
Continuous
 62
     7
370
    15
100
AcDbLine
 10
75.5664954614
 20
149.1395605879
 30
0.0
 11
75.1117555611
 21
148.5664731043
 31
0.0
  0
SPLINE
  5
28E
330
1F
100
AcDbEntity
  8
0
  6
Continuous
 62
     7
370
    15
100
AcDbSpline
210
0.0
220
0.0
230
1.0
 70
     8
 71
     3
 72
     9
 73
     5
 74
     0
 42
0.00000001
 43
0.00000001
 40
0.0
 40
0.0
 40
0.0
 40
0.0
 40
0.5635021594874852
 40
1.0
 40
1.0
 40
1.0
 40
1.0
 10
75.65015849660867
 20
149.2488568799868
 30
0.0
 10
75.65081205778114
 20
149.2424728495042
 30
0.0
 10
75.65197187795478
 20
149.2311436462792
 30
0.0
 10
75.59992593920902
 20
149.1606984952493
 30
0.0
 10
75.57720799933904
 20
149.1299493389502
 30
0.0
  0
LINE
  5
28F
330
1F
100
AcDbEntity
  8
0
  6
Continuous
 62
     7
370
    15
100
AcDbLine
 10
72.8469739389
 20
140.0306930917
 30
0.0
 11
73.089522468
 21
139.3029092031
 31
0.0
  0
SPLINE
  5
290
330
1F
100
AcDbEntity
  8
0
  6
Continuous
 62
     7
370
    15
100
AcDbSpline
210
0.0
220
0.0
230
1.0
 70
     8
 71
     3
 72
    10
 73
     6
 74
     0
 42
0.00000001
 43
0.00000001
 40
0.0
 40
0.0
 40
0.0
 40
0.0
 40
0.282702422012052
 40
0.6542231230982309
 40
1.0
 40
1.0
 40
1.0
 40
1.0
 10
73.09684080075259
 20
139.3087057547941
 30
0.0
 10
73.10998945441379
 20
139.2647552621731
 30
0.0
 10
73.14041775142499
 20
139.1630460927235
 30
0.0
 10
73.12713337218406
 20
139.077889877191
 30
0.0
 10
73.12656064833735
 20
139.0738760769978
 30
0.0
 10
73.12628456394906
 20
139.0719412045851
 30
0.0
  0
LINE
  5
291
330
1F
100
AcDbEntity
  8
0
  6
Continuous
 62
     7
370
    15
100
AcDbLine
 10
71.6589588393
 20
137.8766706365
 30
0.0
 11
71.9517037925
 21
137.8250530141
 31
0.0
  0
LINE
  5
292
330
1F
100
AcDbEntity
  8
0
  6
Continuous
 62
     7
370
    15
100
AcDbLine
 10
86.6067695152
 20
149.2747513729
 30
0.0
 11
82.5086149108
 21
149.9973645585
 31
0.0
  0
LINE
  5
293
330
1F
100
AcDbEntity
  8
0
  6
Continuous
 62
     7
370
    15
100
AcDbLine
 10
86.8648324814
 20
148.9134801703
 30
0.0
 11
86.634202553
 21
149.2540015059
 31
0.0
  0
LINE
  5
294
330
1F
100
AcDbEntity
  8
0
  6
Continuous
 62
     7
370
    15
100
AcDbLine
 10
83.2132032793
 20
136.6351897048
 30
0.0
 11
83.5182305146
 21
136.8559187429
 31
0.0
  0
LWPOLYLINE
  5
295
330
1F
100
AcDbEntity
  8
0
  6
Continuous
 62
     7
370
    15
100
AcDbPolyline
 90
       31
 70
   128
 43
0.0
 10
71.3482896518
 20
135.0029537605
 10
71.5237610694
 20
135.3999747115
 10
71.6887886357
 20
135.6632093119
 10
71.8361592573
 20
135.7811520027
 10
71.9594333042
 20
135.7486488449
 10
72.0532221441
 20
135.5671228992
 10
72.1134270262
 20
135.2445034461
 10
72.1374164988
 20
134.7948925721
 10
72.1241428238
 20
134.2379411834
 10
72.0741852839
 20
133.5979884642
 10
71.9897278305
 20
132.9030057567
 10
71.8744612951
 20
132.1833653527
 10
71.7334236671
 20
131.4705217408
 10
71.5727789048
 20
130.7956257986
 10
71.3995477837
 20
130.1881762373
 10
71.2213014905
 20
129.6747194754
 10
71.0458300729
 20
129.2776985245
 10
70.8808025066
 20
129.0144639241
 10
70.7334314194
 20
128.8965212332
 10
70.6101578381
 20
128.9290225284
 10
70.5163689982
 20
129.1105503368
 10
70.4561641161
 20
129.4331697898
 10
70.4321741779
 20
129.8827806639
 10
70.4454478529
 20
130.4397320526
 10
70.4954053928
 20
131.0796847718
 10
70.5798628461
 20
131.7746674793
 10
70.6951293815
 20
132.4943078833
 10
70.8361670096
 20
133.2071514951
 10
70.9968122375
 20
133.8820474373
 10
71.1700433586
 20
134.4894969987
 10
71.3482896518
 20
135.0029537605
  0
LWPOLYLINE
  5
296
330
1F
100
AcDbEntity
  8
0
  6
Continuous
 62
     7
370
    15
100
AcDbPolyline
 90
       24
 70
   128
 43
0.0
 10
71.3210778032
 20
133.861189537
 10
71.4508757647
 20
134.1423018055
 10
71.5683565196
 20
134.2896593886
 10
71.6648066137
 20
134.292334147
 10
71.7330730241
 20
134.1501267778
 10
71.7680930812
 20
133.8735835778
 10
71.7672688607
 20
133.4832159953
 10
71.73066183
 20
133.007975124
 10
71.6609867942
 20
132.483107798
 10
71.5634116624
 20
131.9475395756
 10
71.445172811
 20
131.4409913646
 10
71.3150391076
 20
131.0010327177
 10
71.1826627795
 20
130.6602934527
 10
71.0578608979
 20
130.4440440761
 10
70.9498898778
 20
130.3683219629
 10
70.8667572309
 20
130.4387448507
 10
70.8146287781
 20
130.6500880199
 10
70.7973699738
 20
130.9866791742
 10
70.8162618522
 20
131.4235514181
 10
70.8699023072
 20
131.9283077644
 10
70.9543136601
 20
132.4635109084
 10
71.0632350948
 20
132.9894678818
 10
71.188588785
 20
133.4671693074
 10
71.3210778032
 20
133.861189537
  0
SPLINE
  5
297
330
1F
100
AcDbEntity
  8
0
  6
Continuous
 62
     7
370
    15
100
AcDbSpline
210
0.0
220
0.0
230
1.0
 70
     8
 71
     3
 72
     9
 73
     5
 74
     0
 42
0.00000001
 43
0.00000001
 40
0.0
 40
0.0
 40
0.0
 40
0.0
 40
0.7499560133122254
 40
1.0
 40
1.0
 40
1.0
 40
1.0
 10
71.75134045075413
 20
133.3228422480002
 30
0.0
 10
71.67423243642249
 20
133.2065172860291
 30
0.0
 10
71.57141572055794
 20
133.0514082397567
 30
0.0
 10
71.40340672483616
 20
132.924685808761
 30
0.0
 10
71.36139708574649
 20
132.8929996269121
 30
0.0
  0
SPLINE
  5
298
330
1F
100
AcDbEntity
  8
0
  6
Continuous
 62
     7
370
    15
100
AcDbSpline
210
0.0
220
0.0
230
1.0
 70
     8
 71
     3
 72
    10
 73
     6
 74
     0
 42
0.00000001
 43
0.00000001
 40
0.0
 40
0.0
 40
0.0
 40
0.0
 40
0.4391164205732213
 40
0.7513668456376255
 40
1.0
 40
1.0
 40
1.0
 40
1.0
 10
71.36139708574649
 20
132.8929996269121
 30
0.0
 10
71.42700640882141
 20
132.6344184709309
 30
0.0
 10
71.53926973538721
 20
132.1919633533169
 30
0.0
 10
71.37885030187073
 20
131.6058406927574
 30
0.0
 10
71.2020700357379
 20
131.3312001925225
 30
0.0
 10
71.12370540391441
 20
131.2094552593603
 30
0.0
  0
LINE
  5
299
330
1F
100
AcDbEntity
  8
0
  6
Continuous
 62
     7
370
    15
100
AcDbLine
 10
71.1237054039
 20
131.2094552594
 30
0.0
 11
71.3121599239
 21
131.0210244881
 31
0.0
  0
LINE
  5
29A
330
1F
100
AcDbEntity
  8
0
  6
Continuous
 62
     7
370
    15
100
AcDbLine
 10
71.3677985315
 20
131.1664151179
 30
0.0
 11
71.1237054039
 21
131.2094552594
 31
0.0
  0
LINE
  5
29B
330
1F
100
AcDbEntity
  8
0
  6
Continuous
 62
     7
370
    15
100
AcDbLine
 10
71.710259812
 20
132.8314857709
 30
0.0
 11
71.3613970857
 21
132.8929996269
 31
0.0
  0
ELLIPSE
  5
29C
330
1F
100
AcDbEntity
  8
0
  6
Continuous
 62
     7
370
    15
100
AcDbEllipse
 10
74.9098895377
 20
143.8026340805
 30
0.0
 11
0.40897700731486
 21
2.316228079400418
 31
0.0
210
0.0
220
0.0
230
1.0
 40
0.1735823891
 41
6.081666982331569
 42
7.423368666009951
  0
SPLINE
  5
29D
330
1F
100
AcDbEntity
  8
0
  6
Continuous
 62
     7
370
    15
100
AcDbSpline
210
0.0
220
0.0
230
1.0
 70
     8
 71
     3
 72
    42
 73
    38
 74
     0
 42
0.00000001
 43
0.00000001
 40
0.0
 40
0.0
 40
0.0
 40
0.0
 40
0.0261199400027466
 40
0.0523695993643651
 40
0.078750486601941
 40
0.1052640845945385
 40
0.1319118508273686
 40
0.1586952176439752
 40
0.1856155925056865
 40
0.2126743582578169
 40
0.2398728734018176
 40
0.2672124723728952
 40
0.2946944658224818
 40
0.3223201409049639
 40
0.3500907615681636
 40
0.3780075688470818
 40
0.4060717811603801
 40
0.4342845946091249
 40
0.4626471832774503
 40
0.4911606995345506
 40
0.5198262743378177
 40
0.5486450175365277
 40
0.5776180181759296
 40
0.6067463448012381
 40
0.6360310457613102
 40
0.6654731495117022
 40
0.6950736649167751
 40
0.7248335815506702
 40
0.7547538699968522
 40
0.7848354821460142
 40
0.8150793514921694
 40
0.8454863934266632
 40
0.8760575055300073
 40
0.9067935678613342
 40
0.9376954432452842
 40
0.9687639775562893
 40
1.0
 40
1.0
 40
1.0
 40
1.0
 10
86.82208695113692
 20
148.6071366864904
 30
0.0
 10
87.00184635115248
 20
148.5670710442274
 30
0.0
 10
87.3622578896094
 20
148.4867407818545
 30
0.0
 10
87.9010146400288
 20
148.3572162307908
 30
0.0
 10
88.43995430714088
 20
148.2206670410887
 30
0.0
 10
88.97873892069002
 20
148.076416766949
 30
0.0
 10
89.51731282325864
 20
147.924594688617
 30
0.0
 10
90.05554224264529
 20
147.7651146707061
 30
0.0
 10
90.59331261827788
 20
147.5979508901977
 30
0.0
 10
91.13050234807653
 20
147.4230634461154
 30
0.0
 10
91.66698990100156
 20
147.2404184955522
 30
0.0
 10
92.20265192222828
 20
147.0499828680321
 30
0.0
 10
92.73736377158629
 20
146.8517255708623
 30
0.0
 10
93.27099940620798
 20
146.6456174337642
 30
0.0
 10
93.80343144150007
 20
146.4316312558825
 30
0.0
 10
94.33453116521525
 20
146.2097418170423
 30
0.0
 10
94.86416856545362
 20
145.9799259255476
 30
0.0
 10
95.3922123561772
 20
145.7421624559667
 30
0.0
 10
95.91853000468126
 20
145.4964323894496
 30
0.0
 10
96.44298775983239
 20
145.2427188531613
 30
0.0
 10
96.96545068140053
 20
144.9810071597239
 30
0.0
 10
97.48578267041812
 20
144.7112848464072
 30
0.0
 10
98.00384650054335
 20
144.4335417140674
 30
0.0
 10
98.51950385062595
 20
144.1477698659588
 30
0.0
 10
99.03261533773386
 20
143.8539637457773
 30
0.0
 10
99.54304055346147
 20
143.5521201772429
 30
0.0
 10
100.0506380929303
 20
143.2422383964259
 30
0.0
 10
100.5552656163396
 20
142.9243201097881
 30
0.0
 10
101.0567797931334
 20
142.5983694537684
 30
0.0
 10
101.555036692889
 20
142.2643933229601
 30
0.0
 10
102.0498905006151
 20
141.9224003095861
 30
0.0
 10
102.5411985412434
 20
141.5724048656149
 30
0.0
 10
103.028802572116
 20
141.2144118134866
 30
0.0
 10
103.5125993677834
 20
140.8484747891513
 30
0.0
 10
103.9922753645932
 20
140.4744765263709
 30
0.0
 10
104.4683052198786
 20
140.0929556563835
 30
0.0
 10
104.7807226143042
 20
139.8330170537165
 30
0.0
 10
104.9373512343022
 20
139.7026983667728
 30
0.0
  0
LINE
  5
29E
330
1F
100
AcDbEntity
  8
0
  6
Continuous
 62
     7
370
    15
100
AcDbLine
 10
104.9371470418
 20
139.7038286703
 30
0.0
 11
104.9371470418
 21
139.1926108079
 31
0.0
  0
SPLINE
  5
29F
330
1F
100
AcDbEntity
  8
0
  6
Continuous
 62
     7
370
    15
100
AcDbSpline
210
0.0
220
0.0
230
1.0
 70
     8
 71
     3
 72
    32
 73
    28
 74
     0
 42
0.00000001
 43
0.00000001
 40
0.0
 40
0.0
 40
0.0
 40
0.0
 40
0.0325512006801041
 40
0.0649795190494626
 40
0.097292358389994
 40
0.1294972016230251
 40
0.1616016071854351
 40
0.1936132046588797
 40
0.2255396901610844
 40
0.2573888215099561
 40
0.2891684131729622
 40
0.3208863310159044
 40
0.3525504868668092
 40
0.3841688329121616
 40
0.4157493559441105
 40
0.4473000714785294
 40
0.4788290177649288
 40
0.5103442497101653
 40
0.5661097829523545
 40
0.6214222689688383
 40
0.67632880943674
 40
0.7308775576192099
 40
0.7851176197106886
 40
0.8390989443368225
 40
0.8928722011322621
 40
0.9464886496315437
 40
1.0
 40
1.0
 40
1.0
 40
1.0
 10
104.9371463369194
 20
139.1931143951222
 30
0.0
 10
104.7742934156938
 20
139.330163686246
 30
0.0
 10
104.4492023506655
 20
139.6037449009854
 30
0.0
 10
103.9528816079806
 20
140.0052674465481
 30
0.0
 10
103.4514138041538
 20
140.399267916388
 30
0.0
 10
102.9441119413632
 20
140.7851775370932
 30
0.0
 10
102.4311591645779
 20
141.1631477865633
 30
0.0
 10
101.9125066779687
 20
141.5331381484002
 30
0.0
 10
101.3881675437337
 20
141.8951593034273
 30
0.0
 10
100.8581383338997
 20
142.2492082774068
 30
0.0
 10
100.3224200297845
 20
142.5952857422758
 30
0.0
 10
99.78101244872515
 20
142.933391398963
 30
0.0
 10
99.23391571674547
 20
143.2635252139147
 30
0.0
 10
98.6811299306801
 20
143.5856870772915
 30
0.0
 10
98.12265504082305
 20
143.8998769405327
 30
0.0
 10
97.55849165413478
 20
144.2060946102532
 30
0.0
 10
96.98863794072558
 20
144.5043404373527
 30
0.0
 10
96.26545830107673
 20
144.8690765600274
 30
0.0
 10
95.38536912326404
 20
145.2902917087759
 30
0.0
 10
94.34336296393818
 20
145.755025574739
 30
0.0
 10
93.29217755179334
 20
146.1901742250444
 30
0.0
 10
92.2318229960908
 20
146.5957467774992
 30
0.0
 10
91.16228132118673
 20
146.9716891353621
 30
0.0
 10
90.08362283601753
 20
147.3181941093707
 30
0.0
 10
88.99559676127127
 20
147.6345363988271
 30
0.0
 10
87.89914481633905
 20
147.923401343523
 30
0.0
 10
87.159746544168
 20
148.0911064399057
 30
0.0
 10
86.79041010281324
 20
148.1748767242386
 30
0.0
  0
LINE
  5
2A0
330
1F
100
AcDbEntity
  8
0
  6
Continuous
 62
     7
370
    15
100
AcDbLine
 10
104.9371470418
 20
139.1931137221
 30
0.0
 11
104.9371470418
 21
135.8287910151
 31
0.0
  0
ARC
  5
2A1
330
1F
100
AcDbEntity
  8
0
  6
Continuous
 62
     7
370
    15
100
AcDbCircle
 10
127.5057274708
 20
127.3881147459
 30
0.0
 40
44.90637260239207
100
AcDbArc
 50
167.017798529
 51
168.1939605574
  0
ARC
  5
2A2
330
1F
100
AcDbEntity
  8
0
  6
Continuous
 62
     7
370
    15
100
AcDbCircle
 10
121.8458973346
 20
128.2783625545
 30
0.0
 40
48.25954423507461
100
AcDbArc
 50
168.1934654415
 51
170.0056597808
  0
LINE
  5
2A3
330
1F
100
AcDbEntity
  8
0
  6
Continuous
 62
     7
370
    15
100
AcDbLine
 10
74.6073291358
 20
138.1526364165
 30
0.0
 11
83.5493120086
 21
136.5759240615
 31
0.0
  0
LINE
  5
2A4
330
1F
100
AcDbEntity
  8
0
  6
Continuous
 62
     7
370
    15
100
AcDbLine
 10
104.9371470418
 20
135.8287910151
 30
0.0
 11
104.9371470418
 21
131.2549894827
 31
0.0
  0
LWPOLYLINE
  5
2A5
330
1F
100
AcDbEntity
  8
0
  6
Continuous
 62
     7
370
    15
100
AcDbPolyline
 90
       31
 70
   128
 43
0.0
 10
70.6679398846
 20
132.338836618
 10
70.5589253176
 20
131.6218653845
 10
70.4816348572
 20
130.9362294304
 10
70.4394459445
 20
130.3118931281
 10
70.4342030641
 20
129.7761442291
 10
70.4661348556
 20
129.3523980456
 10
70.5338466633
 20
129.0591729956
 10
70.634377813
 20
128.9092840778
 10
70.7633357216
 20
128.9092840778
 10
70.9150840249
 20
129.0591729956
 10
71.0829903093
 20
129.3523980456
 10
71.259716684
 20
129.7761442291
 10
71.4375387598
 20
130.3118931281
 10
71.608685581
 20
130.9362294304
 10
71.7656762991
 20
131.6218653845
 10
71.901650792
 20
132.338836618
 10
72.010665359
 20
133.0558078515
 10
72.0879562851
 20
133.7414438056
 10
72.1301451978
 20
134.3657801079
 10
72.1353880782
 20
134.9015290069
 10
72.1034558211
 20
135.3252751904
 10
72.035744479
 20
135.6185002404
 10
71.9352128636
 20
135.7683872955
 10
71.806254955
 20
135.7683872955
 10
71.6545066517
 20
135.6185002404
 10
71.4866003674
 20
135.3252751904
 10
71.3098744583
 20
134.9015290069
 10
71.1320519168
 20
134.3657801079
 10
70.9609055613
 20
133.7414438056
 10
70.8039143775
 20
133.0558078515
 10
70.6679398846
 20
132.338836618
  0
SPLINE
  5
2A6
330
1F
100
AcDbEntity
  8
0
  6
Continuous
 62
     7
370
    15
100
AcDbSpline
210
0.0
220
0.0
230
1.0
 70
     8
 71
     3
 72
     8
 73
     4
 74
     0
 42
0.00000001
 43
0.00000001
 40
0.0
 40
0.0
 40
0.0
 40
0.0
 40
1.0
 40
1.0
 40
1.0
 40
1.0
 10
61.5612176199158
 20
84.40955576622535
 30
0.0
 10
61.57445334619273
 20
84.50812691628595
 30
0.0
 10
61.5876963437608
 20
84.60670541535232
 30
0.0
 10
61.60094682462002
 20
84.7052914776904
 30
0.0
  0
SPLINE
  5
2A7
330
1F
100
AcDbEntity
  8
0
  6
Continuous
 62
     7
370
    15
100
AcDbSpline
210
0.0
220
0.0
230
1.0
 70
     8
 71
     3
 72
    10
 73
     6
 74
     0
 42
0.00000001
 43
0.00000001
 40
0.0
 40
0.0
 40
0.0
 40
0.0
 40
0.5
 40
0.5
 40
1.0
 40
1.0
 40
1.0
 40
1.0
 10
61.59530370765371
 20
85.65411456015492
 30
0.0
 10
61.63261932702986
 20
85.62395953722057
 30
0.0
 10
61.65016472883883
 20
85.50109803697818
 30
0.0
 10
61.64973552969788
 20
85.15616699826917
 30
0.0
 10
61.63236420035435
 20
84.93904264457633
 30
0.0
 10
61.60094682462002
 20
84.7052914776904
 30
0.0
  0
LINE
  5
2A8
330
1F
100
AcDbEntity
  8
0
  6
Continuous
 62
     7
370
    15
100
AcDbLine
 10
61.5219439139
 20
85.7136177465
 30
0.0
 11
61.5953037077
 21
85.6541145602
 31
0.0
  0
LINE
  5
2A9
330
1F
100
AcDbEntity
  8
0
  6
Continuous
 62
     7
370
    15
100
AcDbLine
 10
69.49729471
 20
130.4685324705
 30
0.0
 11
69.4080077648
 21
130.4377082925
 31
0.0
  0
SPLINE
  5
2AA
330
1F
100
AcDbEntity
  8
0
  6
Continuous
 62
     7
370
    15
100
AcDbSpline
210
0.0
220
0.0
230
1.0
 70
     8
 71
     3
 72
    12
 73
     8
 74
     0
 42
0.00000001
 43
0.00000001
 40
0.0
 40
0.0
 40
0.0
 40
0.0
 40
0.2500000000000023
 40
0.2500000000000023
 40
0.5000000000000047
 40
0.5000000000000047
 40
1.0
 40
1.0
 40
1.0
 40
1.0
 10
69.82711411202251
 20
131.35820445987
 30
0.0
 10
69.80181965494192
 20
131.2426300172122
 30
0.0
 10
69.77511705809033
 20
131.1343218960322
 30
0.0
 10
69.71901855699357
 20
130.9316037323749
 30
0.0
 10
69.6893157503601
 20
130.8367058797239
 30
0.0
 10
69.60191330201565
 20
130.5954510292696
 30
0.0
 10
69.54287560370042
 20
130.4841755741275
 30
0.0
 10
69.49729470999578
 20
130.4685324705202
 30
0.0
  0
SPLINE
  5
2AB
330
1F
100
AcDbEntity
  8
0
  6
Continuous
 62
     7
370
    15
100
AcDbSpline
210
0.0
220
0.0
230
1.0
 70
     8
 71
     3
 72
     8
 73
     4
 74
     0
 42
0.00000001
 43
0.00000001
 40
0.0
 40
0.0
 40
0.0
 40
0.0
 40
1.0
 40
1.0
 40
1.0
 40
1.0
 10
69.82711411202251
 20
131.35820445987
 30
0.0
 10
70.29346775812571
 20
133.4890492753205
 30
0.0
 10
70.76189610260965
 20
135.6153824282688
 30
0.0
 10
71.23146029955628
 20
137.739245543639
 30
0.0
  0
LINE
  5
2AC
330
1F
100
AcDbEntity
  8
0
  6
Continuous
 62
     7
370
    15
100
AcDbLine
 10
71.2314603571
 20
137.7392446773
 30
0.0
 11
74.6039600764
 21
138.1410358625
 31
0.0
  0
LINE
  5
2AD
330
1F
100
AcDbEntity
  8
0
  6
Continuous
 62
     7
370
    15
100
AcDbLine
 10
74.3186964374
 20
136.6538496839
 30
0.0
 11
68.7923744973
 21
105.3125185461
 31
0.0
  0
LINE
  5
2AE
330
1F
100
AcDbEntity
  8
0
  6
Continuous
 62
     7
370
    15
100
AcDbLine
 10
68.7923744973
 20
105.3125185461
 30
0.0
 11
62.2695755866
 21
83.8872304337
 31
0.0
  0
ARC
  5
2AF
330
1F
100
AcDbEntity
  8
0
  6
Continuous
 62
     7
370
    15
100
AcDbCircle
 10
77.9371463415
 20
105.876482852
 30
0.0
 40
26.99999999999986
100
AcDbArc
 50
232.6619975762
 51
234.5297346417
  0
LINE
  5
2B0
330
1F
100
AcDbEntity
  8
0
  6
Continuous
 62
     7
370
    15
100
AcDbLine
 10
74.6039600764
 20
138.1410358625
 30
0.0
 11
74.6073291358
 21
138.1526364165
 31
0.0
  0
LINE
  5
2B1
330
1F
100
AcDbEntity
  8
0
  6
Continuous
 62
     7
370
    15
100
AcDbLine
 10
104.9371470418
 20
131.2549894827
 30
0.0
 11
104.9371470418
 21
105.876482852
 31
0.0
  0
ARC
  5
2B2
330
1F
100
AcDbEntity
  8
0
  6
Continuous
 62
     7
370
    15
100
AcDbCircle
 10
77.9371463415
 20
105.876482852
 30
0.0
 40
27.00000000000004
100
AcDbArc
 50
345.4468380118
 51
0.0
  0
LINE
  5
2B3
330
1F
100
AcDbEntity
  8
0
  6
Continuous
 62
     7
370
    15
100
AcDbLine
 10
68.7923744973
 20
105.3125185461
 30
0.0
 11
104.0708494094
 21
99.0919715876
 31
0.0
  0
ARC
  5
2B4
330
1F
100
AcDbEntity
  8
0
  6
Continuous
 62
     7
370
    15
100
AcDbCircle
 10
77.9371463415
 20
105.876482852
 30
0.0
 40
27.00000000000005
100
AcDbArc
 50
234.5297346417
 51
271.1033764421
  0
ARC
  5
2B5
330
1F
100
AcDbEntity
  8
0
  6
Continuous
 62
     7
370
    15
100
AcDbCircle
 10
77.9371463415
 20
105.876482852
 30
0.0
 40
27.00000000000006
100
AcDbArc
 50
276.7527999324
 51
345.4468380118
  0
SPLINE
  5
2B6
330
1F
100
AcDbEntity
  8
0
  6
Continuous
 62
     7
370
    15
100
AcDbSpline
210
0.0
220
0.0
230
1.0
 70
     8
 71
     3
 72
     8
 73
     4
 74
     0
 42
0.00000001
 43
0.00000001
 40
0.0
 40
0.0
 40
0.0
 40
0.0
 40
1.0
 40
1.0
 40
1.0
 40
1.0
 10
78.45706810297257
 20
78.88148921686702
 30
0.0
 10
79.34213969974691
 20
78.93053371094611
 30
0.0
 10
80.2271059517973
 20
78.99128204420002
 30
0.0
 10
81.11196636036021
 20
79.06378962944999
 30
0.0
  0
LINE
  5
2B7
330
1F
100
AcDbEntity
  8
0
  6
Continuous
 62
     7
370
    15
100
AcDbLine
 10
72.7182586398
 20
141.9712377863
 30
0.0
 11
72.1542743687
 21
141.9040484505
 31
0.0
  0
SPLINE
  5
2B8
330
1F
100
AcDbEntity
  8
0
  6
Continuous
 62
     7
370
    15
100
AcDbSpline
210
0.0
220
0.0
230
1.0
 70
     8
 71
     3
 72
     8
 73
     4
 74
     0
 42
0.00000001
 43
0.00000001
 40
0.0
 40
0.0
 40
0.0
 40
0.0
 40
1.0
 40
1.0
 40
1.0
 40
1.0
 10
72.15427426915441
 20
141.9040472300408
 30
0.0
 10
72.621714450375
 20
144.0095561529351
 30
0.0
 10
73.08997318878308
 20
146.1132850321358
 30
0.0
 10
73.55874577202626
 20
148.2158964985617
 30
0.0
  0
ELLIPSE
  5
2B9
330
1F
100
AcDbEntity
  8
0
  6
Continuous
 62
     7
370
    15
100
AcDbEllipse
 10
92.7164805676
 20
103.270487471
 30
0.0
 11
49.72535407209324
 21
-8.767921548193755
 31
0.0
210
0.0
220
0.0
230
0.9999999999999998
 40
0.9548092459
 41
2.104081950886042
 42
2.127305112429228
  0
LINE
  5
2BA
330
1F
100
AcDbEntity
  8
0
  6
Continuous
 62
     7
370
    15
100
AcDbLine
 10
72.1542743687
 20
141.9040484505
 30
0.0
 11
72.673031753
 21
141.8154945748
 31
0.0
  0
SPLINE
  5
2BB
330
1F
100
AcDbEntity
  8
0
  6
Continuous
 62
     7
370
    15
100
AcDbSpline
210
0.0
220
0.0
230
1.0
 70
     8
 71
     3
 72
    14
 73
    10
 74
     0
 42
0.00000001
 43
0.00000001
 40
0.0
 40
0.0
 40
0.0
 40
0.0
 40
0.25
 40
0.25
 40
0.5
 40
0.5
 40
0.75
 40
0.75
 40
1.0
 40
1.0
 40
1.0
 40
1.0
 10
69.40800776481234
 20
130.4377082925442
 30
0.0
 10
69.28887227641809
 20
130.396337266804
 30
0.0
 10
69.06930894982823
 20
130.3197182171644
 30
0.0
 10
68.44786008458125
 20
130.085236257664
 30
0.0
 10
68.06165385755935
 20
129.9328875643805
 30
0.0
 10
67.1699701854304
 20
129.5472216894429
 30
0.0
 10
66.68324869313508
 20
129.3218374770389
 30
0.0
 10
65.65127396247904
 20
128.7979183580972
 30
0.0
 10
65.1222703958912
 20
128.5075739649641
 30
0.0
 10
64.58820136163152
 20
128.1880419173429
 30
0.0
  0
SPLINE
  5
2BC
330
1F
100
AcDbEntity
  8
0
  6
Continuous
 62
     7
370
    15
100
AcDbSpline
210
0.0
220
0.0
230
1.0
 70
     8
 71
     3
 72
    20
 73
    16
 74
     0
 42
0.00000001
 43
0.00000001
 40
0.0
 40
0.0
 40
0.0
 40
0.0
 40
0.2499999999999992
 40
0.2499999999999992
 40
0.3749999999999993
 40
0.3749999999999993
 40
0.4999999999999994
 40
0.4999999999999994
 40
0.6249999999999996
 40
0.6249999999999996
 40
0.7499999999999997
 40
0.7499999999999997
 40
0.8749999999999999
 40
0.8749999999999999
 40
1.0
 40
1.0
 40
1.0
 40
1.0
 10
57.76223861929719
 20
89.47608351535436
 30
0.0
 10
58.15504494285617
 20
88.99287385882063
 30
0.0
 10
58.55077124325217
 20
88.54161957331131
 30
0.0
 10
59.13829601925151
 20
87.91303433431855
 30
0.0
 10
59.33453875556965
 20
87.7101585867818
 30
0.0
 10
59.71434485267856
 20
87.32919592899874
 30
0.0
 10
59.89744014401153
 20
87.15145018540849
 30
0.0
 10
60.24693417694685
 20
86.8209261393327
 30
0.0
 10
60.41387931769941
 20
86.66766495566033
 30
0.0
 10
60.72455195904769
 20
86.38879015154687
 30
0.0
 10
60.86488732958399
 20
86.26615831568203
 30
0.0
 10
61.11344257833864
 20
86.05251130543482
 30
0.0
 10
61.22169171891848
 20
85.96148029700745
 30
0.0
 10
61.40200200010533
 20
85.81151956735464
 30
0.0
 10
61.47294548664286
 20
85.75350885812895
 30
0.0
 10
61.52194391390159
 20
85.71361774652968
 30
0.0
  0
ELLIPSE
  5
2BD
330
1F
100
AcDbEntity
  8
0
  6
Continuous
 62
     7
370
    15
100
AcDbEllipse
 10
59.85743862
 20
118.2598267212
 30
0.0
 11
2.594429360883062
 21
3.24096865262706
 31
0.0
210
0.0
220
0.0
230
1.0
 40
0.5866005609
 41
0.0
 42
6.283185307179586
  0
ARC
  5
2BE
330
1F
100
AcDbEntity
  8
0
  6
Continuous
 62
     7
370
    15
100
AcDbCircle
 10
77.9371463415
 20
105.876482852
 30
0.0
 40
26.00000000000002
100
AcDbArc
 50
120.8919680966
 51
219.1080319034
  0
SPLINE
  5
2BF
330
1F
100
AcDbEntity
  8
0
  6
Continuous
 62
     7
370
    15
100
AcDbSpline
210
0.0
220
0.0
230
1.0
 70
     8
 71
     3
 72
    11
 73
     7
 74
     0
 42
0.00000001
 43
0.00000001
 40
0.0
 40
0.0
 40
0.0
 40
0.0
 40
0.1228193332673231
 40
0.4736616150656357
 40
0.7636935099646563
 40
1.0
 40
1.0
 40
1.0
 40
1.0
 10
57.9681300279105
 20
115.3357558103576
 30
0.0
 10
58.06484724106058
 20
115.315335603159
 30
0.0
 10
58.43784414770887
 20
115.2365836016266
 30
0.0
 10
58.95812042123846
 20
115.2713058001328
 30
0.0
 10
59.50367952291029
 20
115.2205473722246
 30
0.0
 10
59.76605841103824
 20
115.1353360089874
 30
0.0
 10
59.88385683860423
 20
115.0970792549029
 30
0.0
  0
SPLINE
  5
2C0
330
1F
100
AcDbEntity
  8
0
  6
Continuous
 62
     7
370
    15
100
AcDbSpline
210
0.0
220
0.0
230
1.0
 70
     8
 71
     3
 72
     9
 73
     5
 74
     0
 42
0.00000001
 43
0.00000001
 40
0.0
 40
0.0
 40
0.0
 40
0.0
 40
0.7919494634407941
 40
1.0
 40
1.0
 40
1.0
 40
1.0
 10
57.77300304736736
 20
114.8164326476231
 30
0.0
 10
57.81049993175888
 20
114.9595890405121
 30
0.0
 10
57.85784750394942
 20
115.1403535962036
 30
0.0
 10
57.94913716495581
 20
115.3021036292035
 30
0.0
 10
57.9681300279105
 20
115.3357558103576
 30
0.0
  0
LWPOLYLINE
  5
2C1
330
1F
100
AcDbEntity
  8
0
  6
Continuous
 62
     7
370
    15
100
AcDbPolyline
 90
        8
 70
   128
 43
0.0
 10
57.9681300279
 20
115.3357558104
 10
57.9410043266
 20
115.2612323093
 10
57.91191726
 20
115.1813145878
 10
57.8809507843
 20
115.0962354767
 10
57.8481961694
 20
115.0062399136
 10
57.8137465474
 20
114.9115905317
 10
57.7777025011
 20
114.812562071
 10
57.7582900133
 20
114.7592261585
  0
SPLINE
  5
2C2
330
1F
100
AcDbEntity
  8
0
  6
Continuous
 62
     7
370
    15
100
AcDbSpline
210
0.0
220
0.0
230
1.0
 70
    24
 71
     3
 72
    10
 73
     6
 74
     0
 42
0.00000001
 43
0.00000001
 40
0.0
 40
0.0
 40
0.0
 40
0.0
 40
0.5
 40
0.5
 40
1.0
 40
1.0
 40
1.0
 40
1.0
 10
68.93714634146336
 20
76.31620545142648
 30
0.0
 10
68.93714634146336
 20
76.15631818323281
 30
0.0
 10
68.93714634146336
 20
75.99519092771823
 30
0.0
 10
68.93714634146336
 20
75.7610919293634
 30
0.0
 10
68.93714634146336
 20
75.68956515577219
 30
0.0
 10
68.93714634146336
 20
75.68956515577219
 30
0.0
  0
ARC
  5
2C3
330
1F
100
AcDbEntity
  8
0
  6
Continuous
 62
     7
370
    15
100
AcDbCircle
 10
77.9371463415
 20
105.876482852
 30
0.0
 40
31.50000000000001
100
AcDbArc
 50
140.9381656697
 51
253.398450401
  0
SPLINE
  5
2C4
330
1F
100
AcDbEntity
  8
0
  6
Continuous
 62
     7
370
    15
100
AcDbSpline
210
0.0
220
0.0
230
1.0
 70
    24
 71
     3
 72
    12
 73
     8
 74
     0
 42
0.00000001
 43
0.00000001
 40
0.0
 40
0.0
 40
0.0
 40
0.0
 40
0.2500000000000013
 40
0.2500000000000013
 40
0.5000000000000027
 40
0.5000000000000027
 40
1.0
 40
1.0
 40
1.0
 40
1.0
 10
53.47845667909576
 20
125.7264828520193
 30
0.0
 10
53.47845667909576
 20
125.7264828520193
 30
0.0
 10
53.50628639939924
 20
125.7264828520193
 30
0.0
 10
53.60142886065591
 20
125.7264828520193
 30
0.0
 10
53.66785167695627
 20
125.7264828520193
 30
0.0
 10
53.89205110847639
 20
125.7264828520193
 30
0.0
 10
54.076037511022
 20
125.7264828520193
 30
0.0
 10
54.25619408020498
 20
125.7264828520193
 30
0.0
  0
SPLINE
  5
2C5
330
1F
100
AcDbEntity
  8
0
  6
Continuous
 62
     7
370
    15
100
AcDbSpline
210
0.0
220
0.0
230
1.0
 70
    24
 71
     3
 72
    10
 73
     6
 74
     0
 42
0.00000001
 43
0.00000001
 40
0.0
 40
0.0
 40
0.0
 40
0.0
 40
0.5
 40
0.5
 40
1.0
 40
1.0
 40
1.0
 40
1.0
 10
69.93714634146336
 20
135.7229231757832
 30
0.0
 10
69.93714634146336
 20
135.883328442134
 30
0.0
 10
69.93714634146336
 20
136.0423902551226
 30
0.0
 10
69.93714634146336
 20
136.273302720753
 30
0.0
 10
69.93714634146336
 20
136.3436783251836
 30
0.0
 10
69.93714634146336
 20
136.3436783251836
 30
0.0
  0
SPLINE
  5
2C6
330
1F
100
AcDbEntity
  8
0
  6
Continuous
 62
     7
370
    15
100
AcDbSpline
210
0.0
220
0.0
230
1.0
 70
    24
 71
     3
 72
    12
 73
     8
 74
     0
 42
0.00000001
 43
0.00000001
 40
0.0
 40
0.0
 40
0.0
 40
0.0
 40
0.2499999999999967
 40
0.2499999999999967
 40
0.4999999999999933
 40
0.4999999999999933
 40
1.0
 40
1.0
 40
1.0
 40
1.0
 10
58.08714634146335
 20
130.3351725143868
 30
0.0
 10
58.08714634146335
 20
130.3351725143868
 30
0.0
 10
58.08714634146335
 20
130.3069528157988
 30
0.0
 10
58.08714634146335
 20
130.2125098085508
 30
0.0
 10
58.08714634146335
 20
130.1462228318454
 30
0.0
 10
58.08714634146335
 20
129.9205980085572
 30
0.0
 10
58.08714634146336
 20
129.7381717455246
 30
0.0
 10
58.08714634146335
 20
129.5574351132777
 30
0.0
  0
ARC
  5
2C7
330
1F
100
AcDbEntity
  8
0
  6
Continuous
 62
     7
370
    15
100
AcDbCircle
 10
77.9371463415
 20
105.876482852
 30
0.0
 40
31.49999999999999
100
AcDbArc
 50
104.7124579609
 51
129.0618343303
  0
ARC
  5
2C8
330
1F
100
AcDbEntity
  8
0
  6
Continuous
 62
     7
370
    15
100
AcDbCircle
 10
77.9371463415
 20
105.876482852
 30
0.0
 40
31.50000000000001
100
AcDbArc
 50
286.601549599
 51
31.0027191339
  0
SPLINE
  5
2C9
330
1F
100
AcDbEntity
  8
0
  6
Continuous
 62
     7
370
    15
100
AcDbSpline
210
0.0
220
0.0
230
1.0
 70
    24
 71
     3
 72
    12
 73
     8
 74
     0
 42
0.00000001
 43
0.00000001
 40
0.0
 40
0.0
 40
0.0
 40
0.0
 40
0.25
 40
0.25
 40
0.5
 40
0.5
 40
1.0
 40
1.0
 40
1.0
 40
1.0
 10
86.93714634146338
 20
75.68956515577219
 30
0.0
 10
86.93714634146338
 20
75.6895651557722
 30
0.0
 10
86.93714634146338
 20
75.70668224203803
 30
0.0
 10
86.93714634146336
 20
75.77141835351314
 30
0.0
 10
86.93714634146338
 20
75.81887559639347
 30
0.0
 10
86.93714634146338
 20
75.99570003893295
 30
0.0
 10
86.93714634146338
 20
76.15597654613865
 30
0.0
 10
86.93714634146338
 20
76.31620545142643
 30
0.0
  0
LINE
  5
2CA
330
1F
100
AcDbEntity
  8
0
  6
Continuous
 62
     7
370
    15
100
AcDbLine
 10
86.937145954
 20
76.3162056135
 30
0.0
 11
86.937145954
 21
79.4764829951
 31
0.0
  0
LINE
  5
2CB
330
1F
100
AcDbEntity
  8
0
  6
Continuous
 62
     7
370
    15
100
AcDbLine
 10
86.937145954
 20
79.4764829951
 30
0.0
 11
83.5975349602
 21
79.4764829951
 31
0.0
  0
LINE
  5
2CC
330
1F
100
AcDbEntity
  8
0
  6
Continuous
 62
     7
370
    15
100
AcDbLine
 10
69.9371459615
 20
132.276482709
 30
0.0
 11
69.9371459615
 21
135.7229238527
 31
0.0
  0
LINE
  5
2CD
330
1F
100
AcDbEntity
  8
0
  6
Continuous
 62
     7
370
    15
100
AcDbLine
 10
68.9371467289
 20
79.4764829951
 30
0.0
 11
68.9371467289
 21
76.3162056135
 31
0.0
  0
LINE
  5
2CE
330
1F
100
AcDbEntity
  8
0
  6
Continuous
 62
     7
370
    15
100
AcDbLine
 10
58.0871456024
 20
129.5574342983
 30
0.0
 11
58.0871456024
 21
125.7264835911
 31
0.0
  0
LINE
  5
2CF
330
1F
100
AcDbEntity
  8
0
  6
Continuous
 62
     7
370
    15
100
AcDbLine
 10
54.2561948952
 20
125.7264835911
 30
0.0
 11
58.0871456024
 21
125.7264835911
 31
0.0
  0
LINE
  5
2D0
330
1F
100
AcDbEntity
  8
0
  6
Continuous
 62
     7
370
    15
100
AcDbLine
 10
70.029209992
 20
132.276482709
 30
0.0
 11
69.9371459615
 21
132.276482709
 31
0.0
  0
LINE
  5
2D1
330
1F
100
AcDbEntity
  8
0
  6
Continuous
 62
     7
370
    15
100
AcDbLine
 10
72.2767577228
 20
79.4764829951
 30
0.0
 11
68.9371467289
 21
79.4764829951
 31
0.0
  0
SPLINE
  5
2D2
330
1F
100
AcDbEntity
  8
0
  6
Continuous
 62
     7
370
    15
100
AcDbSpline
210
0.0
220
0.0
230
1.0
 70
     8
 71
     3
 72
    30
 73
    26
 74
     0
 42
0.00000001
 43
0.00000001
 40
0.0
 40
0.0
 40
0.0
 40
0.0
 40
0.125
 40
0.125
 40
0.1875000000000001
 40
0.1875000000000001
 40
0.2500000000000001
 40
0.2500000000000001
 40
0.3750000000000001
 40
0.3750000000000001
 40
0.4375000000000001
 40
0.4375000000000001
 40
0.5000000000000001
 40
0.5000000000000001
 40
0.625
 40
0.625
 40
0.6875
 40
0.6875
 40
0.75
 40
0.75
 40
0.8125000000000001
 40
0.8125000000000001
 40
0.8750000000000001
 40
0.8750000000000001
 40
1.0
 40
1.0
 40
1.0
 40
1.0
 10
78.93714634146345
 20
74.39235986915702
 30
0.0
 10
79.46856427186404
 20
74.40923878716562
 30
0.0
 10
79.9902234694382
 20
74.43925635199031
 30
0.0
 10
80.75886525659723
 20
74.50206674126342
 30
0.0
 10
81.01275505576224
 20
74.52597064849031
 30
0.0
 10
81.51582783170834
 20
74.5794059409327
 30
0.0
 10
81.76529167992497
 20
74.60901280910026
 30
0.0
 10
82.49020257752183
 20
74.70346250781469
 30
0.0
 10
82.94807991441401
 20
74.77448990164392
 30
0.0
 10
83.59784713989686
 20
74.88850418834966
 30
0.0
 10
83.80923384330703
 20
74.92795943949024
 30
0.0
 10
84.21386765407718
 20
75.00748088226091
 30
0.0
 10
84.4066081255784
 20
75.0474170247617
 30
0.0
 10
84.95703900195532
 20
75.16635342758984
 30
0.0
 10
85.28722237923596
 20
75.24451819147369
 30
0.0
 10
85.72589819588637
 20
75.3542276317426
 30
0.0
 10
85.86169675437291
 20
75.38930846845099
 30
0.0
 10
86.10857378721907
 20
75.4545487478306
 30
0.0
 10
86.22035232454708
 20
75.48488356387536
 30
0.0
 10
86.4207825144207
 20
75.5402219430972
 30
0.0
 10
86.50943485762419
 20
75.56522661965728
 30
0.0
 10
86.6631024053053
 20
75.60910642854797
 30
0.0
 10
86.72835010955714
 20
75.62805011331028
 30
0.0
 10
86.8846551629214
 20
75.67376984058043
 30
0.0
 10
86.93714634146343
 20
75.68956515577217
 30
0.0
 10
86.93714634146342
 20
75.68956515577219
 30
0.0
  0
SPLINE
  5
2D3
330
1F
100
AcDbEntity
  8
0
  6
Continuous
 62
     7
370
    15
100
AcDbSpline
210
0.0
220
0.0
230
1.0
 70
     8
 71
     3
 72
    28
 73
    24
 74
     0
 42
0.00000001
 43
0.00000001
 40
0.0
 40
0.0
 40
0.0
 40
0.0
 40
0.1250000000000006
 40
0.1250000000000006
 40
0.1875000000000009
 40
0.1875000000000009
 40
0.2500000000000012
 40
0.2500000000000012
 40
0.3750000000000011
 40
0.3750000000000011
 40
0.4375000000000011
 40
0.4375000000000011
 40
0.500000000000001
 40
0.500000000000001
 40
0.6250000000000008
 40
0.6250000000000008
 40
0.7500000000000006
 40
0.7500000000000006
 40
0.8125000000000004
 40
0.8125000000000004
 40
0.8750000000000003
 40
0.8750000000000003
 40
1.0
 40
1.0
 40
1.0
 40
1.0
 10
68.9371463414634
 20
75.68956515577219
 30
0.0
 10
68.9371463414634
 20
75.68956515577219
 30
0.0
 10
68.98962268378162
 20
75.67378044182195
 30
0.0
 10
69.14341963133853
 20
75.62878502774575
 30
0.0
 10
69.20729460637254
 20
75.61023003267003
 30
0.0
 10
69.36079087502907
 20
75.56637731022353
 30
0.0
 10
69.45060585042276
 20
75.54103270327133
 30
0.0
 10
69.75258464547363
 20
75.45763062552122
 30
0.0
 10
69.99853807952938
 20
75.39176506637013
 30
0.0
 10
70.43390525895776
 20
75.28279472587835
 30
0.0
 10
70.59112044113012
 20
75.24455509011169
 30
0.0
 10
70.92328506167257
 20
75.16679635269233
 30
0.0
 10
71.09809232727545
 20
75.12729539051699
 30
0.0
 10
71.64815151786128
 20
75.008387648151
 30
0.0
 10
72.04877490225675
 20
74.9285699667264
 30
0.0
 10
72.92136101360546
 20
74.77522680493031
 30
0.0
 10
73.38149646120704
 20
74.70389305166107
 30
0.0
 10
74.10146255517321
 20
74.60994954458646
 30
0.0
 10
74.34673626520774
 20
74.58075575122652
 30
0.0
 10
74.84819260163657
 20
74.52728917696311
 30
0.0
 10
75.10562397100911
 20
74.50292984268795
 30
0.0
 10
75.8815637668736
 20
74.4393396972432
 30
0.0
 10
76.40579216677962
 20
74.40923676215391
 30
0.0
 10
76.93714634146345
 20
74.39235986915699
 30
0.0
  0
SPLINE
  5
2D4
330
1F
100
AcDbEntity
  8
0
  6
Continuous
 62
     7
370
    15
100
AcDbSpline
210
0.0
220
0.0
230
1.0
 70
     8
 71
     3
 72
    11
 73
     7
 74
     0
 42
0.00000001
 43
0.00000001
 40
0.0
 40
0.0
 40
0.0
 40
0.0
 40
0.321488333385731
 40
0.6430073370808912
 40
0.9641700743272754
 40
1.0
 40
1.0
 40
1.0
 40
1.0
 10
69.93714596148381
 20
136.3436782883778
 30
0.0
 10
69.95782319601426
 20
136.3493724974025
 30
0.0
 10
69.99917963770412
 20
136.3607614586853
 30
0.0
 10
70.35034906572564
 20
136.4488189942159
 30
0.0
 10
70.6847356165758
 20
136.5339783828538
 30
0.0
 10
70.95330041056688
 20
136.5920014953954
 30
0.0
 10
70.9802551847304
 20
136.5978250431195
 30
0.0
  0
SPLINE
  5
2D5
330
1F
100
AcDbEntity
  8
0
  6
Continuous
 62
     7
370
    15
100
AcDbSpline
210
0.0
220
0.0
230
1.0
 70
     8
 71
     3
 72
    20
 73
    16
 74
     0
 42
0.00000001
 43
0.00000001
 40
0.0
 40
0.0
 40
0.0
 40
0.0
 40
0.2499999999999997
 40
0.2499999999999997
 40
0.3749999999999997
 40
0.3749999999999997
 40
0.4999999999999998
 40
0.4999999999999998
 40
0.6249999999999998
 40
0.6249999999999998
 40
0.7499999999999999
 40
0.7499999999999999
 40
0.8749999999999999
 40
0.8749999999999999
 40
1.0
 40
1.0
 40
1.0
 40
1.0
 10
53.47845667909603
 20
125.7264828520193
 30
0.0
 10
54.00911344693071
 20
126.3803452803167
 30
0.0
 10
54.54284144319222
 20
126.9841310623139
 30
0.0
 10
55.32581376118097
 20
127.8109697984825
 30
0.0
 10
55.58379736127764
 20
128.0733984364354
 30
0.0
 10
56.08819261768545
 20
128.5700610905404
 30
0.0
 10
56.33097104011345
 20
128.8006479695619
 30
0.0
 10
56.78165111962652
 20
129.2172021941445
 30
0.0
 10
56.99111498561779
 20
129.404699996112
 30
0.0
 10
57.36940350220583
 20
129.7360969737484
 30
0.0
 10
57.53315118839031
 20
129.8756009612437
 30
0.0
 10
57.80133699058975
 20
130.1010544687146
 30
0.0
 10
57.90656139867649
 20
130.1876805802583
 30
0.0
 10
58.05062062399001
 20
130.3056613691124
 30
0.0
 10
58.08714634146341
 20
130.3351725143868
 30
0.0
 10
58.08714634146342
 20
130.3351725143868
 30
0.0
  0
ARC
  5
2D6
330
1F
100
AcDbEntity
  8
0
  6
Continuous
 62
     7
370
    15
100
AcDbCircle
 10
77.9371463415
 20
105.876482852
 30
0.0
 40
31.49999999999997
100
AcDbArc
 50
268.180780706
 51
271.819219294
  0
LINE
  5
2D7
330
1F
100
AcDbEntity
  8
0
  6
Continuous
 62
     7
370
    15
100
AcDbLine
 10
71.6626338382
 20
137.8765812295
 30
0.0
 11
74.2755536177
 21
138.1878776627
 31
0.0
  0
ARC
  5
2D8
330
1F
100
AcDbEntity
  8
0
  6
Continuous
 62
     7
370
    15
100
AcDbCircle
 10
72.5807430814
 20
138.1179239952
 30
0.0
 40
0.9493002228394603
100
AcDbArc
 50
156.9524445428
 51
194.7280992598
  0
LINE
  5
2D9
330
1F
100
AcDbEntity
  8
0
  6
Continuous
 62
     7
370
    15
100
AcDbLine
 10
75.1630018186
 20
150.3900548594
 30
0.0
 11
71.7072157842
 21
138.4895702975
 31
0.0
  0
ARC
  5
2DA
330
1F
100
AcDbEntity
  8
0
  6
Continuous
 62
     7
370
    15
100
AcDbCircle
 10
75.4534834628
 20
150.354834028
 30
0.0
 40
0.2926091122895647
100
AcDbArc
 50
134.0631990032
 51
173.0866472275
  0
LINE
  5
2DB
330
1F
100
AcDbEntity
  8
0
  6
Continuous
 62
     7
370
    15
100
AcDbLine
 10
77.8629078178
 20
150.8763877826
 30
0.0
 11
75.2499880456
 21
150.5650950747
 31
0.0
  0
ARC
  5
2DC
330
1F
100
AcDbEntity
  8
0
  6
Continuous
 62
     7
370
    15
100
AcDbCircle
 10
76.9448089597
 20
150.6350443238
 30
0.0
 40
0.9492903551526969
100
AcDbArc
 50
336.9522366119
 51
14.7282990726
  0
LINE
  5
2DD
330
1F
100
AcDbEntity
  8
0
  6
Continuous
 62
     7
370
    15
100
AcDbLine
 10
74.3625398446
 20
138.3629141527
 30
0.0
 11
77.8183258282
 21
150.2633987146
 31
0.0
  0
ARC
  5
2DE
330
1F
100
AcDbEntity
  8
0
  6
Continuous
 62
     7
370
    15
100
AcDbCircle
 10
74.0720685971
 20
138.3981342923
 30
0.0
 40
0.2925987078940456
100
AcDbArc
 50
314.062337622
 51
353.0865366614
  0
ARC
  5
2DF
330
1F
100
AcDbEntity
  8
0
  6
Continuous
 62
     7
370
    15
100
AcDbCircle
 10
76.9874091765
 20
150.627412388
 30
0.0
 40
0.9018407901479559
100
AcDbArc
 50
336.952522277
 51
14.7280344785
  0
LINE
  5
2E0
330
1F
100
AcDbEntity
  8
0
  6
Continuous
 62
     7
370
    15
100
AcDbLine
 10
77.859618612
 20
150.8566884475
 30
0.0
 11
75.2466988471
 21
150.5453920143
 31
0.0
  0
ARC
  5
2E1
330
1F
100
AcDbEntity
  8
0
  6
Continuous
 62
     7
370
    15
100
AcDbCircle
 10
75.4400058038
 20
150.3456502779
 30
0.0
 40
0.2779646394219953
100
AcDbArc
 50
134.0620684186
 51
173.0870934984
  0
LINE
  5
2E2
330
1F
100
AcDbEntity
  8
0
  6
Continuous
 62
     7
370
    15
100
AcDbLine
 10
75.1640618965
 20
150.3791062312
 30
0.0
 11
71.7082760949
 21
138.4786216693
 31
0.0
  0
ARC
  5
2E3
330
1F
100
AcDbEntity
  8
0
  6
Continuous
 62
     7
370
    15
100
AcDbCircle
 10
72.5381272689
 20
138.1255571127
 30
0.0
 40
0.9018356569010292
100
AcDbArc
 50
156.9524172649
 51
194.7281523085
  0
LINE
  5
2E4
330
1F
100
AcDbEntity
  8
0
  6
Continuous
 62
     7
370
    15
100
AcDbLine
 10
71.6659232695
 20
137.8962805646
 30
0.0
 11
74.2788428162
 21
138.2075769978
 31
0.0
  0
ARC
  5
2E5
330
1F
100
AcDbEntity
  8
0
  6
Continuous
 62
     7
370
    15
100
AcDbCircle
 10
74.0855239124
 20
138.4073246713
 30
0.0
 40
0.2779772142490313
100
AcDbArc
 50
314.0629868871
 51
353.0861750299
  0
LINE
  5
2E6
330
1F
100
AcDbEntity
  8
0
  6
Continuous
 62
     7
370
    15
100
AcDbLine
 10
74.3614797667
 20
138.3738627808
 30
0.0
 11
77.8172657211
 21
150.2743473428
 31
0.0
  0
ARC
  5
2E7
330
1F
100
AcDbEntity
  8
0
  6
Continuous
 62
     7
370
    15
100
AcDbCircle
 10
81.5064879452
 20
149.8308302198
 30
0.0
 40
1.00361821002213
100
AcDbArc
 50
337.6622411635
 51
13.3338267926
  0
LINE
  5
2E8
330
1F
100
AcDbEntity
  8
0
  6
Continuous
 62
     7
370
    15
100
AcDbLine
 10
77.8888025726
 20
150.7767139154
 30
0.0
 11
77.859618612
 21
150.8566884475
 31
0.0
  0
LINE
  5
2E9
330
1F
100
AcDbEntity
  8
0
  6
Continuous
 62
     7
370
    15
100
AcDbLine
 10
78.979008291
 20
137.5489084201
 30
0.0
 11
82.4347940926
 21
149.4493892568
 31
0.0
  0
LINE
  5
2EA
330
1F
100
AcDbEntity
  8
0
  6
Continuous
 62
     7
370
    15
100
AcDbLine
 10
75.3969814815
 20
150.1335611718
 30
0.0
 11
75.2466988471
 21
150.5453920143
 31
0.0
  0
LINE
  5
2EB
330
1F
100
AcDbEntity
  8
0
  6
Continuous
 62
     7
370
    15
100
AcDbLine
 10
75.6083481666
 20
149.6700382011
 30
0.0
 11
75.3969814815
 21
150.1335611718
 31
0.0
  0
ARC
  5
2EC
330
1F
100
AcDbEntity
  8
0
  6
Continuous
 62
     7
370
    15
100
AcDbCircle
 10
74.3301603569
 20
148.1754083231
 30
0.0
 40
2.37326553571398
100
AcDbArc
 50
336.9525265026
 51
14.7280287934
  0
LINE
  5
2ED
330
1F
100
AcDbEntity
  8
0
  6
Continuous
 62
     7
370
    15
100
AcDbLine
 10
74.5799151902
 20
140.5860221165
 30
0.0
 11
76.5139937122
 21
147.2462898271
 31
0.0
  0
LINE
  5
2EE
330
1F
100
AcDbEntity
  8
0
  6
Continuous
 62
     7
370
    15
100
AcDbLine
 10
72.9000928533
 20
139.9742027896
 30
0.0
 11
74.3624497392
 21
140.148423441
 31
0.0
  0
ARC
  5
2EF
330
1F
100
AcDbEntity
  8
0
  6
Continuous
 62
     7
370
    15
100
AcDbCircle
 10
75.195375582
 20
140.5775609309
 30
0.0
 40
2.373260173633735
100
AcDbArc
 50
156.9524777747
 51
194.7280688622
  0
LINE
  5
2F0
330
1F
100
AcDbEntity
  8
0
  6
Continuous
 62
     7
370
    15
100
AcDbLine
 10
74.9456264731
 20
148.1669506209
 30
0.0
 11
73.0115479511
 21
141.506679185
 31
0.0
  0
ARC
  5
2F1
330
1F
100
AcDbEntity
  8
0
  6
Continuous
 62
     7
370
    15
100
AcDbCircle
 10
75.6718106669
 20
148.0789018631
 30
0.0
 40
0.7315026090463028
100
AcDbArc
 50
134.0625698518
 51
173.0867176621
  0
LINE
  5
2F2
330
1F
100
AcDbEntity
  8
0
  6
Continuous
 62
     7
370
    15
100
AcDbLine
 10
76.6254486936
 20
148.7787662225
 30
0.0
 11
75.1630919241
 21
148.6045455711
 31
0.0
  0
ARC
  5
2F3
330
1F
100
AcDbEntity
  8
0
  6
Continuous
 62
     7
370
    15
100
AcDbCircle
 10
73.8537249995
 20
140.6740693796
 30
0.0
 40
0.7315083824538393
100
AcDbArc
 50
314.0627858727
 51
353.0868904187
  0
LWPOLYLINE
  5
2F4
330
1F
100
AcDbEntity
  8
0
  6
Continuous
 62
     7
370
    15
100
AcDbPolyline
 90
       27
 70
   128
 43
0.0
 10
74.8995243758
 20
142.9640872555
 10
75.0424281415
 20
143.5109226184
 10
75.1690791641
 20
144.1080605762
 10
75.2721169684
 20
144.7208000498
 10
75.3455533833
 20
145.3135272639
 10
75.3851208557
 20
145.8517981844
 10
75.3885192518
 20
146.3043278234
 10
75.3555515968
 20
146.6448193567
 10
75.2881338541
 20
146.8534840422
 10
75.1901836321
 20
146.9181923347
 10
75.0673938729
 20
146.8351891415
 10
74.9269006029
 20
146.6092912631
 10
74.7768684943
 20
146.2536340731
 10
74.6260172874
 20
145.7888817566
 10
74.4831135217
 20
145.2420463937
 10
74.3564624992
 20
144.6449084359
 10
74.2534246948
 20
144.0321689623
 10
74.17998828
 20
143.4394417482
 10
74.1404210404
 20
142.901174553
 10
74.1370224115
 20
142.4486411887
 10
74.1699900665
 20
142.1081496554
 10
74.2374078092
 20
141.8994886952
 10
74.3353580311
 20
141.8347766774
 10
74.4581477903
 20
141.9177835958
 10
74.5986410603
 20
142.143677749
 10
74.748673169
 20
142.4993386643
 10
74.8995243758
 20
142.9640872555
  0
ARC
  5
2F5
330
1F
100
AcDbEntity
  8
0
  6
Continuous
 62
     7
370
    15
100
AcDbCircle
 10
78.4359382356
 20
137.6792172918
 30
0.0
 40
0.5584849927063925
100
AcDbArc
 50
329.1690708976
 51
346.5070541362
  0
LINE
  5
2F6
330
1F
100
AcDbEntity
  8
0
  6
Continuous
 62
     7
370
    15
100
AcDbLine
 10
74.3189364858
 20
138.2566316204
 30
0.0
 11
74.2788428162
 21
138.2075769978
 31
0.0
  0
LINE
  5
2F7
330
1F
100
AcDbEntity
  8
0
  6
Continuous
 62
     7
370
    15
100
AcDbLine
 10
71.9411956799
 20
138.2330766099
 30
0.0
 11
71.6659232695
 21
137.8962805646
 31
0.0
  0
LINE
  5
2F8
330
1F
100
AcDbEntity
  8
0
  6
Continuous
 62
     7
370
    15
100
AcDbLine
 10
73.0171470624
 20
139.1657775419
 30
0.0
 11
71.9411956799
 21
138.2330766099
 31
0.0
  0
LINE
  5
2F9
330
1F
100
AcDbEntity
  8
0
  6
Continuous
 62
     7
370
    15
100
AcDbLine
 10
73.0171470624
 20
139.1657775419
 30
0.0
 11
73.1289961096
 21
139.1791029053
 31
0.0
  0
SPLINE
  5
2FA
330
1F
100
AcDbEntity
  8
0
  6
Continuous
 62
     7
370
    15
100
AcDbSpline
210
0.0
220
0.0
230
1.0
 70
     8
 71
     3
 72
    11
 73
     7
 74
     0
 42
0.00000001
 43
0.00000001
 40
0.0
 40
0.0
 40
0.0
 40
0.0
 40
0.3280460040021044
 40
0.6557059496773356
 40
0.9906968307053972
 40
1.0
 40
1.0
 40
1.0
 40
1.0
 10
75.60834816660517
 20
149.6700382011309
 30
0.0
 10
75.63187245556658
 20
149.6007709283874
 30
0.0
 10
75.67889334911727
 20
149.4623178995387
 30
0.0
 10
75.65131052434126
 20
149.2527573442048
 30
0.0
 10
75.5866406905517
 20
149.1289550821221
 30
0.0
 10
75.54204102228462
 20
149.0737910586221
 30
0.0
 10
75.54083589467936
 20
149.0723004715815
 30
0.0
  0
LINE
  5
2FB
330
1F
100
AcDbEntity
  8
0
  6
Continuous
 62
     7
370
    15
100
AcDbLine
 10
71.9411956799
 20
138.2330766099
 30
0.0
 11
71.7082760949
 21
138.4786216693
 31
0.0
  0
LINE
  5
2FC
330
1F
100
AcDbEntity
  8
0
  6
Continuous
 62
     7
370
    15
100
AcDbLine
 10
75.3969814815
 20
150.1335611718
 30
0.0
 11
75.1640618965
 21
150.3791062312
 31
0.0
  0
LINE
  5
2FD
330
1F
100
AcDbEntity
  8
0
  6
Continuous
 62
     7
370
    15
100
AcDbLine
 10
73.0721267593
 20
139.3551079708
 30
0.0
 11
73.0171470624
 21
139.1657775419
 31
0.0
  0
LINE
  5
2FE
330
1F
100
AcDbEntity
  8
0
  6
Continuous
 62
     7
370
    15
100
AcDbLine
 10
79.0533089731
 20
137.8047725337
 30
0.0
 11
82.160612261
 21
148.50520698
 31
0.0
  0
LINE
  5
2FF
330
1F
100
AcDbEntity
  8
0
  6
Continuous
 62
     7
370
    15
100
AcDbLine
 10
83.3788236324
 20
137.0420677739
 30
0.0
 11
86.4861269202
 21
147.7425022202
 31
0.0
  0
ARC
  5
300
330
1F
100
AcDbEntity
  8
0
  6
Continuous
 62
     7
370
    15
100
AcDbCircle
 10
84.165357068
 20
148.6961034969
 30
0.0
 40
2.509049242664631
100
AcDbArc
 50
337.6623039659
 51
13.3338332114
  0
LINE
  5
301
330
1F
100
AcDbEntity
  8
0
  6
Continuous
 62
     7
370
    15
100
AcDbLine
 10
86.7611790728
 20
147.8554306703
 30
0.0
 11
83.7471663673
 21
137.4762578087
 31
0.0
  0
ARC
  5
302
330
1F
100
AcDbEntity
  8
0
  6
Continuous
 62
     7
370
    15
100
AcDbCircle
 10
84.8141032251
 20
148.5802809114
 30
0.0
 40
2.077621772295699
100
AcDbArc
 50
339.5808925556
 51
9.2286818646
  0
ARC
  5
303
330
1F
100
AcDbEntity
  8
0
  6
Continuous
 62
     7
370
    15
100
AcDbCircle
 10
82.1254357055
 20
137.3321263144
 30
0.0
 40
1.286512826304092
100
AcDbArc
 50
327.2524041969
 51
346.9700086076
  0
INSERT
  5
30F
330
1F
100
AcDbEntity
  8
VERMASSUNG
100
AcDbBlockReference
  2
SW_CENTERMARKSYMBOL_0
 10
77.9371463415
 20
105.876482852
 30
0.0
  0
OLE2FRAME
  5
310
330
1F
100
AcDbEntity
  8
0
100
AcDbOle2Frame
 70
     2
  3
Bitmap Image
 10
13.8511154363
 20
38.264191557
 30
0.0
 11
51.6290888628
 21
31.9806341108
 31
0.0
 71
     2
 72
     0
 73
     1
 90
    12928
310
80552BED0767C5B32B40DDAF6807D121434000000000000000006FFBDDFB85D0
310
4940DDAF6807D121434000000000000000006FFBDDFB85D04940416F4BD60AFB
310
3F4000000000000000002BED0767C5B32B40416F4BD60AFB3F40000000000000
310
0000000000000100000000010000010000000100000000000100000000320000
310
D0CF11E0A1B11AE1000000000000000000000000000000003E000300FEFF0900
310
0600000000000000000000000100000001000000000000000010000002000000
310
01000000FEFFFFFF0000000000000000FFFFFFFFFFFFFFFFFFFFFFFFFFFFFFFF
310
FFFFFFFFFFFFFFFFFFFFFFFFFFFFFFFFFFFFFFFFFFFFFFFFFFFFFFFFFFFFFFFF
310
FFFFFFFFFFFFFFFFFFFFFFFFFFFFFFFFFFFFFFFFFFFFFFFFFFFFFFFFFFFFFFFF
310
FFFFFFFFFFFFFFFFFFFFFFFFFFFFFFFFFFFFFFFFFFFFFFFFFFFFFFFFFFFFFFFF
310
FFFFFFFFFFFFFFFFFFFFFFFFFFFFFFFFFFFFFFFFFFFFFFFFFFFFFFFFFFFFFFFF
310
FFFFFFFFFFFFFFFFFFFFFFFFFFFFFFFFFFFFFFFFFFFFFFFFFFFFFFFFFFFFFFFF
310
FFFFFFFFFFFFFFFFFFFFFFFFFFFFFFFFFFFFFFFFFFFFFFFFFFFFFFFFFFFFFFFF
310
FFFFFFFFFFFFFFFFFFFFFFFFFFFFFFFFFFFFFFFFFFFFFFFFFFFFFFFFFFFFFFFF
310
FFFFFFFFFFFFFFFFFFFFFFFFFFFFFFFFFFFFFFFFFFFFFFFFFFFFFFFFFFFFFFFF
310
FFFFFFFFFFFFFFFFFFFFFFFFFFFFFFFFFFFFFFFFFFFFFFFFFFFFFFFFFFFFFFFF
310
FFFFFFFFFFFFFFFFFFFFFFFFFFFFFFFFFFFFFFFFFFFFFFFFFFFFFFFFFFFFFFFF
310
FFFFFFFFFFFFFFFFFFFFFFFFFFFFFFFFFFFFFFFFFFFFFFFFFFFFFFFFFFFFFFFF
310
FFFFFFFFFFFFFFFFFFFFFFFFFFFFFFFFFFFFFFFFFFFFFFFFFFFFFFFFFFFFFFFF
310
FFFFFFFFFFFFFFFFFFFFFFFFFFFFFFFFFFFFFFFFFFFFFFFFFFFFFFFFFFFFFFFF
310
FDFFFFFFFEFFFFFFFEFFFFFFFEFFFFFF05000000060000000700000008000000
310
090000000A0000000B0000000C0000000D0000000E0000000F00000010000000
310
11000000120000001300000014000000150000001600000017000000FEFFFFFF
310
FFFFFFFFFFFFFFFFFFFFFFFFFFFFFFFFFFFFFFFFFFFFFFFFFFFFFFFFFFFFFFFF
310
FFFFFFFFFFFFFFFFFFFFFFFFFFFFFFFFFFFFFFFFFFFFFFFFFFFFFFFFFFFFFFFF
310
FFFFFFFFFFFFFFFFFFFFFFFFFFFFFFFFFFFFFFFFFFFFFFFFFFFFFFFFFFFFFFFF
310
FFFFFFFFFFFFFFFFFFFFFFFFFFFFFFFFFFFFFFFFFFFFFFFFFFFFFFFFFFFFFFFF
310
FFFFFFFFFFFFFFFFFFFFFFFFFFFFFFFFFFFFFFFFFFFFFFFFFFFFFFFFFFFFFFFF
310
FFFFFFFFFFFFFFFFFFFFFFFFFFFFFFFFFFFFFFFFFFFFFFFFFFFFFFFFFFFFFFFF
310
FFFFFFFFFFFFFFFFFFFFFFFFFFFFFFFFFFFFFFFFFFFFFFFFFFFFFFFFFFFFFFFF
310
FFFFFFFFFFFFFFFFFFFFFFFFFFFFFFFFFFFFFFFFFFFFFFFFFFFFFFFFFFFFFFFF
310
FFFFFFFFFFFFFFFFFFFFFFFFFFFFFFFFFFFFFFFFFFFFFFFFFFFFFFFFFFFFFFFF
310
FFFFFFFFFFFFFFFFFFFFFFFFFFFFFFFFFFFFFFFFFFFFFFFFFFFFFFFFFFFFFFFF
310
FFFFFFFFFFFFFFFFFFFFFFFFFFFFFFFFFFFFFFFFFFFFFFFFFFFFFFFFFFFFFFFF
310
FFFFFFFFFFFFFFFFFFFFFFFFFFFFFFFFFFFFFFFFFFFFFFFFFFFFFFFFFFFFFFFF
310
FFFFFFFFFFFFFFFFFFFFFFFFFFFFFFFFFFFFFFFFFFFFFFFFFFFFFFFFFFFFFFFF
310
52006F006F007400200045006E00740072007900000000000000000000000000
310
0000000000000000000000000000000000000000000000000000000000000000
310
16000500FFFFFFFFFFFFFFFF020000000A00030000000000C000000000000046
310
000000000000000000000000C071B4E818CDCB0103000000C000000000000000
310
01004F006C006500000000000000000000000000000000000000000000000000
310
0000000000000000000000000000000000000000000000000000000000000000
310
0A000200FFFFFFFFFFFFFFFFFFFFFFFF00000000000000000000000000000000
310
0000000000000000000000000000000000000000000000001400000000000000
310
010043006F006D0070004F0062006A0000000000000000000000000000000000
310
0000000000000000000000000000000000000000000000000000000000000000
310
120002010100000003000000FFFFFFFF00000000000000000000000000000000
310
0000000000000000000000000000000000000000010000004D00000000000000
310
01004F006C006500310030004E00610074006900760065000000000000000000
310
0000000000000000000000000000000000000000000000000000000000000000
310
1A000200FFFFFFFFFFFFFFFFFFFFFFFF00000000000000000000000000000000
310
0000000000000000000000000000000000000000040000002426000000000000
310
FEFFFFFF02000000FEFFFFFFFFFFFFFFFFFFFFFFFFFFFFFFFFFFFFFFFFFFFFFF
310
FFFFFFFFFFFFFFFFFFFFFFFFFFFFFFFFFFFFFFFFFFFFFFFFFFFFFFFFFFFFFFFF
310
FFFFFFFFFFFFFFFFFFFFFFFFFFFFFFFFFFFFFFFFFFFFFFFFFFFFFFFFFFFFFFFF
310
FFFFFFFFFFFFFFFFFFFFFFFFFFFFFFFFFFFFFFFFFFFFFFFFFFFFFFFFFFFFFFFF
310
FFFFFFFFFFFFFFFFFFFFFFFFFFFFFFFFFFFFFFFFFFFFFFFFFFFFFFFFFFFFFFFF
310
FFFFFFFFFFFFFFFFFFFFFFFFFFFFFFFFFFFFFFFFFFFFFFFFFFFFFFFFFFFFFFFF
310
FFFFFFFFFFFFFFFFFFFFFFFFFFFFFFFFFFFFFFFFFFFFFFFFFFFFFFFFFFFFFFFF
310
FFFFFFFFFFFFFFFFFFFFFFFFFFFFFFFFFFFFFFFFFFFFFFFFFFFFFFFFFFFFFFFF
310
FFFFFFFFFFFFFFFFFFFFFFFFFFFFFFFFFFFFFFFFFFFFFFFFFFFFFFFFFFFFFFFF
310
FFFFFFFFFFFFFFFFFFFFFFFFFFFFFFFFFFFFFFFFFFFFFFFFFFFFFFFFFFFFFFFF
310
FFFFFFFFFFFFFFFFFFFFFFFFFFFFFFFFFFFFFFFFFFFFFFFFFFFFFFFFFFFFFFFF
310
FFFFFFFFFFFFFFFFFFFFFFFFFFFFFFFFFFFFFFFFFFFFFFFFFFFFFFFFFFFFFFFF
310
FFFFFFFFFFFFFFFFFFFFFFFFFFFFFFFFFFFFFFFFFFFFFFFFFFFFFFFFFFFFFFFF
310
FFFFFFFFFFFFFFFFFFFFFFFFFFFFFFFFFFFFFFFFFFFFFFFFFFFFFFFFFFFFFFFF
310
FFFFFFFFFFFFFFFFFFFFFFFFFFFFFFFFFFFFFFFFFFFFFFFFFFFFFFFFFFFFFFFF
310
FFFFFFFFFFFFFFFFFFFFFFFFFFFFFFFFFFFFFFFFFFFFFFFFFFFFFFFFFFFFFFFF
310
0100000200000000000000000000000000000000610072004E0082005C003104
310
A807250000000000A807250000000000680061007200650064005C003B004300
310
0100FEFF030A0000FFFFFFFF0A00030000000000C00000000000004607000000
310
5042727573680007000000504272757368000700000050427275736800F439B2
310
71000000000000000000000000004100540049002E004100430045005C004300
310
6F00720065002D005300740061007400690063003B0043003A005C0050007200
310
6F006700720061006D002000460069006C006500730020002800780038003600
310
29005C0043006F006D006D006F006E002000460069006C00650073005C004100
310
750074006F006400650073006B0020005300680061007200650064005C003B00
310
43003A005C00500072006F006700720061006D002000460069006C0065007300
310
5C004E006F0072006D0061006E005C004E0070006D005C00420069006E000000
310
43003A005C00500072006F006700720061006D002000460069006C0065007300
310
5C0053006F006C006900640057006F0072006B007300200043006F0072007000
310
5C0053006F006C006900640057006F0072006B00730020002800320029005C00
310
730065007400750070005C0069003300380036005C0073007700610063007400
310
770069007A002E006500780065000000220043003A005C00500072006F006700
310
20260000424D0E260000000000003E00000028000000B40200006E0000000100
310
01000000000000000000130B0000130B00000200000002000000000000FFFFFF
310
FFFFFFFFFFFFFFFFFFFFFFFFFFFFFFFFFFFFFFFFFFFFFFFFFFFFFFFFFFFFFFFF
310
FFFFFFFFFFFFFFFFFFFFFFFFFFFFFFFFFFFFFFFFFFFFFFFFFFFFFFFFFFFFFFFF
310
FFFFFFFFFFFFFFFFFFFFFFFFFFFFFFFFFFFFFFFFFFFFFFFFF000FFFFFFFFFFFF
310
FFFFFFFFFFFFFFFFFFFFFFFFFFFFFFFFFFFFFFFFFFFFFFFFFFFFFFFFFFFFFFFF
310
FFFFFFFFFFFFFFFFFFFFFFFFFFFFFFFFFFFFFFFFFFFFFFFFFFFFFFFFFFFFFFFF
310
FFFFFFFFFFFFFFFFFFFFFFFFFFFFFFFFF000FFFFFFFFFFFFFFFFFFFFFFFFFFFF
310
FFFFFFFFFFFFFFFFFFFFFFFFFFFFFFFFFFFFFFFFFFFFFFFFFFFFFFFFFFFFFFFF
310
FFFFFFFFFFFFFFFFFFFFFFFFFFFFFFFFFFFFFFFFFFFFFFFFFFFFFFFFFFFFFFFF
310
FFFFFFFFFFFFFFFFF000FFFFFFFFFFFFFFFFFFFFFFFFFFFFFFFFFFFFFFFFFFFF
310
FFFFFFFFFFFFFFFFFFFFFFFFFFFFFFFFFFFFFFFFFFFFFFFFFFFFFFFFFFFFFFFF
310
FFFFFFFFFFFFFFFFFFFFFFFFFFFFFFFFFFFFFFFFFFFFFFFFFFFFFFFFFFFFFFFF
310
F000FFFFFFFFFFFFFFFFFFFFFFFFFFFFFFFFFFFFFFFFFFFFFFFFFFFFFFFFFFFF
310
FFFFFFFFFFFFFFFFFFFFFFFFFFFFFFFFFFFFFFFFFFFFFFFFFFFFFFFFFFFFFFFF
310
FFFFFFFFFFFFFFFFFFFFFFFFFFFFFFFFFFFFFFFFFFFFFFFFF000FFFFFFFFFFFF
310
FFFFFFFFFFFFFFFFFFFFFFFFFFFFFFFFFFFFFFFFFFFFFFFFFFFFFFFFFFFFFFFF
310
FFFFFFFFFFFFFFFFFFFFFFFFFFFFFFFFFFFFFFFFFFFFFFFFFFFFFFFFFFFFFFFF
310
FFFFFFFFFFFFFFFFFFFFFFFFFFFFFFFFF000FFFFFFFFFFFFFFFFFFFFFFFFFFFF
310
FFFFFFFFFFFFFFFFFFFFFFFFFFFFFFFFFFFFFFFFFFFFFFFFFFFFFFFFFFFFFFFF
310
FFFFFFFFFFFFFFFFFFFFFFFFFFFFFFFFFFFFFFFFFFFFFFFFFFFFFFFFFFFFFFFF
310
FFFFFFFFFFFFFFFFF000FFFFFFFFFFFFFFFFFFFFFFFFFFFFFFFFFFFFFFFFFFFF
310
FFFFFFFFFFFFFFFFFFFFFFFFFFFFFFFFFFFFFFFFFFFFFFFFFFFFFFFFFFFFFFFF
310
FFFFFFFFFFFFFFFFFFFFFFFFFFFFFFFFFFFFFFFFFFFFFFFFFFFFFFFFFFFFFFFF
310
F000FFFFFFFFFFFFFFFFFFFFFFFFFFFFFFFFFFFFFFFFFFFFFFFFFFFFFFFFFFFF
310
FFFFFFFFFFFFFFFFFFFFFFFFFFFFFFFFFFFFFFFFFFFFFFFFFFFFFFFFFFFFFFFF
310
FFFFFFFFFFFFFFFFFFFFFFFFFFFFFFFFFFFFFFFFFFFFFFFFF000FFFFFFFFFFFF
310
FFFFFFFFFFFFFFFFFFFFFFFFFFFFFFFFFFFFFFFFFFFFFFFFFFFFFFFFFFFFFFFF
310
FFFFFFFFFFFFFFFFFFFFFFFFFFFFFFFFFFFFFFFFFFFFFFFFFFFFFFFFFFFFFFFF
310
FFFFFFFFFFFFFFFFFFFFFFFFFFFFFFFFF000FFFFFFFFFFFFFFFFFFFFFFFFFFFF
310
FFFFFFFFFFFFFFFFFFFFFFFFFFFFFFFFFFFFFFFFFFFFFFFFFFFFFFFFFFFFFFFF
310
FFFFFFFFFFFFFFFFFFFFFFFFFFFFFFFFFFFFFFFFFFFFFFFFFFFFFFFFFFFFFFFF
310
FFFFFFFFFFFFFFFFF000FFFFFFFFFFFFFFFFFFFFFFFFFFFFFFFFFFFFFFFFFFFF
310
FFFFFFFFFFFFFFFFFFFFFFFFFFFFFFFFFFFFFFFFFFFFFFFFFFFFFFFFFFFFFFFF
310
FFFFFFFFFFFFFFFFFFFFFFFFFFFFFFFFFFFFFFFFFFFFFFFFFFFFFFFFFFFFFFFF
310
F000FFFFFFFFFFFFFFFFFFFFFFFFFFFFFFFFFFFFFFFFFFFFFFFFFFFFFFFFFFFF
310
FFFFFFFFFFFFFFFFFFFFFFFFFFFFFFFFFFFFFFFFFFFFFFFFFFFFFFFFFFFFFFFF
310
FFFFFFFFFFFFFFFFFFFFFFFFFFFFFFFFFFFFFFFFFFFFFFFFF000FFFFFFFFFFFF
310
FFFFFFFFFFFFFFFFFFFFFFFFFFFFFFFFFFFFFFFFFFFFFFFFFFFFFFFFFFFFFFFF
310
FFFFFFFFFFFFFFFFFFFFFFFFFFFFFFFFFFFFFFFFFFFFFFFFFFFFFFFFFFFFFFFF
310
FFFFFFFFFFFFFFFFFFFFFFFFFFFFFFFFF000FFFFFFFFFFFFFFFFFFFFFFFFFFFF
310
FFFFFFFFFFFFFFFFFFFFFFFFFFFFFFFFFFFFFFFFFFFFFFFFFFFFFFFFFFFFFFFF
310
FFFFFFFFFFFFFFFFFFFFFFFFFFFFFFFFFFFFFFFFFFFFFFFFFFFFFFFFFFFFFFFF
310
FFFFFFFFFFFFFFFFF000FFFFFFFFFFFFFFFFFFFFFFFFFFFFFFFFFFFFFFFFFFFF
310
FFFFFFFFFFFFFFFFFFFFFFFFFFFFFFFFFFFFFFFFFFFFFFFFFFFFFFFFFFFFFFFF
310
FFFFFFFFFFFFFFFFFFFFFFFFFFFFFFFFFFFFFFFFFFFFFFFFFFFFFFFFFFFFFFFF
310
F000FFFFFFFFFFFFFFFFFFFFFFFFFFFFFFFFFFFFFFFFFFFFFFFFFFFFFFFFFFFF
310
FFFFFFFFFFFFFFFFFFFFFFFFFFFFFFFFFFFFFFFFFFFFFFFFFFFFFFFFFFFFFFFF
310
FFFFFFFFFFFFFFFFFFFFFFFFFFFFFFFFFFFFFFFFFFFFFFFFF000FFFFFFFFFFFF
310
FFFFFFFFFFFFFFFFFFFFFFFFFFFFFFFFFFFFFFFFFFFFFFFFFFFFFFFFFFFFFFFF
310
FFFFFFFFFFFFFFFFFFFFFFFFFFFFFFFFFFFFFFFFFFFFFFFFFFFFFFFFFFFFFFFF
310
FFFFFFFFFFFFFFFFFFFFFFFFFFFFFFFFF000FFFFFFFFFFFFFFFFFFFFFFFFFFFF
310
FFFFFFFFFFFFFFFFFFFFFFFFFFFFFFFFFFFFFFFFFFFFFFFFFFFFFFFFFFFFFFFF
310
FFFFFFFFFFFFFFFFFFFFFFFFFFFFFFFFFFFFFFFFFFFFFFFFFFFFFFFFFFFFFFFF
310
FFFFFFFFFFFFFFFFF000FFFFF80003FFFFFFFFFFFFFFFFFFFFFFFFFFFFFFFFFF
310
FFFFF00007FFFFFFFFFF00007FFFFFF800000000000000007FFFFFFFFFFFFFFF
310
FFFFFFFC001FFFFFFFFFFFFFFC001FFFFFFFFFFFFFFFFFFFFFFFFFFE0007FFFF
310
F000FFFF8000007FFFFFFFF8000FFFFFC0007FFFFF80007FFFFF0000007FFFFF
310
FFF8000007FFFFF800000000000000007FFFFFF0001FFFFFFFFFFFC00001FFFF
310
FFFFFFFFC00001FFFFFFFF000000000003FFFFE000007FFFF000FFFE0000000F
310
FFFFFFF0000FFFFF80007FFFFF80007FFFFC0000001FFFFFFFC0000001FFFFF8
310
00000000000000007FFFFFF0001FFFFFFFFFFE0000003FFFFFFFFFFE0000003F
310
FFFFFF000000000003FFFF0000000FFFF000FFF800000003FFFFFFF00007FFFF
310
80007FFFFF80007FFFF000000007FFFFFF000000003FFFF80000000000000000
310
7FFFFFF0001FFFFFFFFFF80000000FFFFFFFFFF80000000FFFFFFF0000000000
310
03FFFC00000003FFF000FFE000000000FFFFFFF00007FFFF80003FFFFF80007F
310
FFC000000001FFFFFC000000001FFFF800000000000000007FFFFFF0001FFFFF
310
FFFFE000000003FFFFFFFFE000000003FFFFFF000000000003FFF000000000FF
310
F000FF80000000007FFFFFF00007FFFF80003FFFFF80007FFF8000000000FFFF
310
F80000000007FFF800000000000000007FFFFFF0001FFFFFFFFFC000000001FF
310
FFFFFFC000000001FFFFFF000000000003FFC0000000007FF000FF0000000000
310
3FFFFFE00007FFFF00003FFFFF80007FFE00000000003FFFF00000000003FFF8
310
00000000000000007FFFFFF0001FFFFFFFFF8000000000FFFFFFFF8000000000
310
FFFFFF000000000003FF80000000003FF000FE00000000001FFFFFE00003FFFF
310
00003FFFFF80007FFC00000000001FFFE00000000001FFF8000001FFFE000000
310
7FFFFFF0001FFFFFFFFE00000000003FFFFFFE00000000003FFFFF0000000000
310
03FF00000000001FF000FC00000000000FFFFFE00003FFFF00001FFFFF80007F
310
F800000000001FFFC00000000000FFF8000001FFFE0000007FFFFFF0001FFFFF
310
FFFC00000000001FFFFFFC00000000001FFFFF000000000003FE00000000000F
310
F000F8000000000007FFFFE00003FFFF00001FFFFF80007FF800000000000FFF
310
800000000000FFF8000001FFFE0000007FFFFFF0001FFFFFFFF800000000000F
310
FFFFF800000000000FFFFF000000000003FC000000000007F000F80000000000
310
03FFFFC00003FFFE00001FFFFF80007FF0000000000007FF0000000000007FF8
310
000001FFFE0000007FFFFFF0001FFFFFFFF0000000000007FFFFF00000000000
310
07FFFF000000000003F8000000000003F000F0000000000003FFFFC00001FFFE
310
00001FFFFF80007FE0000000000007FE0000000000003FF8000001FFFE000000
310
7FFFFFF0001FFFFFFFF0000000000007FFFFF0000000000007FFFF0000000000
310
03F800001F800003F000E00001FFF00001FFFFC00001FFFE00000FFFFF80007F
310
E00001FFE00003FE00001FFF00003FF8000001FFFE0000007FFFFFF0001FFFFF
310
FFE000003E000003FFFFE000003E000003FFFF000000000003F00001FFF80001
310
F000E00007FFFC0001FFFFC00001FFFE00000FFFFF80007FC0000FFFFC0003FC
310
0000FFFFC0001FF8000001FFFE0000007FFFFFF0001FFFFFFFC00003FFE00001
310
FFFFC00003FFE00001FFFF0001FFFFFFFFF00007FFFE0001F000E0000FFFFF00
310
00FFFF800001FFFC00000FFFFF80007FC0001FFFFE0001FC0001FFFFE0001FF8
310
000001FFFE0000007FFFFFF0001FFFFFFF80000FFFF80000FFFF80000FFFF800
310
00FFFF0003FFFFFFFFE0000FFFFF8000F000C0003FFFFF8000FFFF800000FFFC
310
000007FFFF80007F80003FFFFF0001FC0003FFFFF0001FF8000001FFFE000000
310
7FFFFFF0001FFFFFFF80003FFFFE0000FFFF80003FFFFE0000FFFF0003FFFFFF
310
FFE0003FFFFF8000F000C0003FFFFF8000FFFF800000FFFC000007FFFF80007F
310
80007FFFFF8001F80007FFFFF8000FF8000001FFFE0000007FFFFFF0001FFFFF
310
FF00007FFFFF00007FFF00007FFFFF00007FFF0003FFFFFFFFE0003FFFFFC000
310
F000C0007FFFFFC000FFFF000000FFFC000007FFFF80007F8000FFFFFF8000F8
310
000FFFFFF8000FF8000001FFFE0000007FFFFFF0001FFFFFFF0000FFFFFF8000
310
7FFF0000FFFFFF80007FFF0003FFFFFFFFC0007FFFFFC00070008000FFFFFFC0
310
00FFFF000000FFF8000007FFFF80007F8000FFFFFF8000F8000FFFFFF8000FF8
310
000001FFFE0000007FFFFFF0001FFFFFFE0001FFFFFFC0003FFE0001FFFFFFC0
310
003FFF0003FFFFFFFFC0007FFFFFE00070008000FFFFFFC0007FFF0000007FF8
310
000003FFFF80007F0001FFFFFF8000F8000FFFFFF8000FF8000001FFFE000000
310
7FFFFFF0001FFFFFFE0001FFFFFFC0003FFE0001FFFFFFC0003FFF0003FFFFFF
310
FFC000FFFFFFE00070008000FFFFFFC0007FFF0000007FF8000003FFFF80007F
310
0001FFFFFF8000F8001FFFFFF8000FF8000001FFFE0000007FFFFFF0001FFFFF
310
FE0003FFFFFFE0003FFE0003FFFFFFE0003FFF0003FFFFFFFFC000FFFFFFE000
310
70008000FFFFFFC0007FFE0000007FF8000003FFFF80007F0001FFFFFF8000F0
310
001FFFFFF8000FF8000001FFFE0000007FFFFFF0001FFFFFFC0003FFFFFFE000
310
1FFC0003FFFFFFE0001FFF0003FFFFFFFFC000FFFFFFC00070008000FFFFFF80
310
007FFE0000007FF0000003FFFF80007F0001FFFFFF0000F0001FFFFFF8000FF8
310
000001FFFE0000007FFFFFF0001FFFFFFC0007FFFFFFF0001FFC0007FFFFFFF0
310
001FFF0003FFFFFFFFC000FFFFFFC00070008001FFFFFF0000FFFE0000003FF0
310
000001FFFF80007F0001FFFFFF0000F8001FFFFFF0000FF8000001FFFE000000
310
7FFFFFF0001FFFFFFC0007FFFFFFF0001FFC0007FFFFFFF0001FFF0003FFFFFF
310
FFC001FFFFFF80007000FFFFFFFFFE0000FFFE0008003FF0008001FFFF80007F
310
FFFFFFFFFC0000FFFFFFFFFFE0000FF8000001FFFE0000007FFFFFF0001FFFFF
310
F8000FFFFFFFF8000FF8000FFFFFFFF8000FFF0003FFFFFFFFFFFFFFFFFF0000
310
7000FFFFFFFFFC0000FFFC0008003FF0008001FFFF80007FFFFFFFFFF80001FF
310
FFFFFFFF80000FF8000001FFFE0000007FFFFFF0001FFFFFF8000FFFFFFFF800
310
0FF8000FFFFFFFF8000FFF0003FFFFFFFFFFFFFFFFFE0000F000FFFFFFFFE000
310
00FFFC000C003FE000C001FFFF80007FFFFFFFFFC00001FFFFFFFFFE00001FF8
310
000001FFFE0000007FFFFFF0001FFFFFF8000FFFFFFFF8000FF8000FFFFFFFF8
310
000FFF0003FFFFFFFFFFFFFFFFF00000F000FFFFFFFE000001FFFC000C001FE0
310
00C000FFFF80007FFFFFFFFE000001FFFFFFFFE000001FF80FFFFFFFFFFFFFC0
310
7FFFFFF0001FFFFFF8000FFFFFFFF8000FF8000FFFFFFFF8000FFF0003FFFFFF
310
FFFFFFFFFF800000F000FFFFFFC0000001FFFC001C001FE001C000FFFF80007F
310
FFFFFF80000003FFFFFFF80000001FF80FFFFFFFFFFFFFC07FFFFFF0001FFFFF
310
F8001FFFFFFFFC000FF8001FFFFFFFFC000FFF0003FFFFFFFFFFFFFFF0000001
310
F000FFFFF800000001FFF8001C001FE001C000FFFF80007FFFFFF800000003FF
310
FFFF800000003FF80FFFFFFFFFFFFFC07FFFFFF0001FFFFFF8001FFFFFFFFC00
310
0FF8001FFFFFFFFC000FFF0003FFFFFFFFFFFFFE00000001F000FFFFC0000000
310
03FFF8001E001FC001E000FFFF80007FFFFF8000000007FFFFFC000000003FF8
310
0FFFFFFFFFFFFFC07FFFFFF0001FFFFFF8001FFFFFFFFC000FF8001FFFFFFFFC
310
000FFF0003FFFFFFFFFFFFE000000003F000FFFE0000000007FFF8001E000FC0
310
01E0007FFF80007FFFFE0000000007FFFFE0000000007FF80FFFFFFFFFFFFFC0
310
7FFFFFF0001FFFFFF0001FFFFFFFFC0007F0001FFFFFFFFC0007FF0003FFFFFF
310
FFFFFF0000000003F000FFF80000000007FFF8001E000FC003E0007FFF80007F
310
FFF0000000000FFFFF8000000000FFF80FFFFFFFFFFFFFC07FFFFFF0001FFFFF
310
F0001FFFFFFFFC0007F0001FFFFFFFFC0007FF0003FFFFFFFFFFFC0000000007
310
F000FFE0000000000FFFF0003E000FC003E0007FFF80007FFFC0000000001FFF
310
FE0000000001FFF80FFFFFFFFFFFFFC07FFFFFF0001FFFFFF0001FFFFFFFFC00
310
07F0001FFFFFFFFC0007FF0003FFFFFFFFFFF0000000000FF000FFC000000000
310
1FFFF0003F000F8003F0003FFF80007FFF80000000003FFFF80000000003FFF8
310
0FFFFFFFFFFFFFC07FFFFFF0001FFFFFF0001FFFFFFFFC0007F0001FFFFFFFFC
310
0007FF0003FFFFFFFFFFE0000000001FF000FF00000000007FFFF0003F000780
310
03F0003FFF80007FFF00000000007FFFF00000000007FFF80FFFFFFFFFFFFFC0
310
7FFFFFF0001FFFFFF0001FFFFFFFFC0007F0001FFFFFFFFC0007FF0003FFFFFF
310
FFFF80000000007FF000FE0000000000FFFFE0003F00078007F0003FFF80007F
310
FE0000000001FFFFE0000000001FFFF80FFFFFFFFFFFFFC07FFFFFF0001FFFFF
310
F0001FFFFFFFFC0007F0001FFFFFFFFC0007FF0003FFFFFFFFFF0000000000FF
310
F000FC0000000003FFFFE0007F00078007F0003FFF80007FFC0000000007FFFF
310
C0000000007FFFF80FFFFFFFFFFFFFC07FFFFFF0001FFFFFF8001FFFFFFFFC00
310
0FF8001FFFFFFFFC000FFF0003FFFFFFFFFE0000000003FFF000FC000000000F
310
FFFFE0007F80070007F8001FFF80007FF8000000001FFFFF8000000001FFFFF8
310
0FFFFFFFFFFFFFC07FFFFFF0001FFFFFF8001FFFFFFFFC000FF8001FFFFFFFFC
310
000FFF0003FFFFFFFFFC000000000FFFF000F8000000007FFFFFE0007F800700
310
07F8001FFF80007FF000000000FFFFFF800000000FFFFFF80FFFFFFFFFFFFFC0
310
7FFFFFF0001FFFFFF8000FFFFFFFF8000FF8000FFFFFFFF8000FFF0003FFFFFF
310
FFFC000000007FFFF000F800000007FFFFFFC0007F8003000FF8001FFF80007F
310
F000000007FFFFFF000000007FFFFFF80FFFFFFFFFFFFFC07FFFFFF0001FFFFF
310
F8000FFFFFFFF8000FF8000FFFFFFFF8000FFF0003FFFFFFFFF80000000FFFFF
310
F000F0000000FFFFFFFFC000FF8003000FF8001FFF80007FE0000000FFFFFFFF
310
0000000FFFFFFFF8000001FFFE0000007FFFFFF0001FFFFFF8000FFFFFFFF800
310
0FF8000FFFFFFFF8000FFF0003FFFFFFFFF8000000FFFFFFF000F000000FFFFF
310
FFFFC000FFC002000FF8000FFF80007FE000001FFFFFFFFE000001FFFFFFFFF8
310
000001FFFE0000007FFFFFF0001FFFFFF8000FFFFFFFF8000FF8000FFFFFFFF8
310
000FFF0003FFFFFFFFF000001FFFFFFFF000E00000FFFFFFFFFFC000FFC00200
310
0FFC000FFF80007FE00001FFFFFFFFFE00001FFFFFFFFFF8000001FFFE000000
310
7FFFFFF0001FFFFFFC000FFFFFFFF8001FFC000FFFFFFFF8001FFF0003FFFFFF
310
FFF00001FFFFFFFFF000E00007FFFFFFFFFF8000FFC000001FFC000FFF80007F
310
C0000FFFFFFFFFFE0000FFFFFFFFFFF8000001FFFE0000007FFFFFF0001FFFFF
310
FC0007FFFFFFF0001FFC0007FFFFFFF0001FFF0003FFFFFFFFF00007FFFFFFFF
310
F000E0001FFFFFFFFFFF8000FFC000001FFC000FFF80007FC0003FFFFFFFFFFE
310
0001FFFFFFFFFFF8000001FFFE0000007FFFFFF0001FFFFFFC0007FFFFFFF000
310
1FFC0007FFFFFFF0001FFF0003FFFFFFFFF0001FFFFFFFFFF000E0003FFFFF00
310
03FF8001FFE000001FFC0007FF80007FC0007FFFFF0007FC0003FFFFF0003FF8
310
000001FFFE0000007FFFFFF0001FFFFFFC0003FFFFFFE0001FFC0003FFFFFFE0
310
001FFF0003FFFFFFFFF0003FFFFFFFFFF000E0003FFFFF0001FF8001FFE00000
310
1FFE0007FF80007FC0007FFFFE0003FC0007FFFFE0003FF8000001FFFE000000
310
7FFFFFF0001FFFFFFE0003FFFFFFE0003FFE0003FFFFFFE0003FFF0003FFFFFF
310
FFF0003FFFFF8001F000E0003FFFFF0001FF0001FFE000001FFE0007FF80007F
310
C0007FFFFE0003FC0007FFFFE0003FF8000001FFFE0000007FFFFFF0001FFFFF
310
FE0001FFFFFFC0003FFE0001FFFFFFC0003FFF0003FFFFFFFFF0003FFFFF0001
310
F000E0003FFFFF0003FF0001FFE000003FFE0007FF80007FC0007FFFFE0003FC
310
0007FFFFE0003FF8000001FFFE0000007FFFFFF0001FFFFFFF0001FFFFFFC000
310
7FFF0001FFFFFFC0007FFF0003FFFFFFFFF0003FFFFF0001F000E0003FFFFE00
310
03FF0003FFF000003FFE0003FF80007FC0007FFFFC0003FE0007FFFFE0003FF8
310
000001FFFE0000007FFFFFF0001FFFFFFF0000FFFFFF80007FFF0000FFFFFF80
310
007FFF0003FFFFFFFFF0003FFFFF0001F000E0003FFFFE0003FF0003FFF00000
310
3FFF0003FF80007FC0007FFFFC0007FE0007FFFFC0003FF8000001FFFE000000
310
7FFFFFF0001FFFFFFF80007FFFFF0000FFFF80007FFFFF0000FFFF0003FFFFFF
310
FFF0003FFFFF0003F000E0003FFFFC0003FE0003FFF000003FFF0003FF80007F
310
E0003FFFF80007FE0003FFFFC0007FF8000001FFFE0000007FFFFFF0001FFFFF
310
FF80003FFFFE0000FFFF80003FFFFE0000FFFF0003FFFFFFFFF0001FFFFE0003
310
F000F0001FFFF80003FE0003FFF000007FFF0001FF80007FE0003FFFF00007FE
310
0001FFFF80007FF8000001FFFE0000007FFFFFF0001FFFFFFFC0000FFFF80001
310
FFFFC0000FFFF80001FFFF0003FFFFFFFFF0001FFFFC0003F000F0000FFFF000
310
07FE0007FFF800007FFF0001FF80007FE0001FFFE00007FF0000FFFE00007FF8
310
000001FFFE0000007FFFFFF0001FFFFFFFC00003FFE00001FFFFC00003FFE000
310
01FFFF0003FFFFFFFFF8000FFFF80003F000F00003FFC00007FC0007FFF80000
310
7FFF8001FF80007FF00007FF80000FFF00007FF80000FFF8000001FFFE000000
310
7F80000000000001FFE000003E000003FFFFE000003E000003FFFF0003FFFFFF
310
FFF80003FFE00007F000F800000000000FFC0007FFF800007FFF8001FF80007F
310
F000000000000FFF000000000000FFF8000001FFFE0000007F80000000000001
310
FFF0000000000007FFFFF0000000000007FFFF0003FFFFFFFFFC00007E000007
310
F000F800000000000FFC0007FFF80000FFFF8000FF80007FF800000000001FFF
310
800000000001FFF8000001FFFE0000007F80000000000001FFF800000000000F
310
FFFFF800000000000FFFFF0003FFFFFFFFFC00000000000FF000FC0000000000
310
1FFC0007FFFC0000FFFF8000FF80007FF800000000003FFFC00000000001FFF8
310
000001FFFE0000007F80000000000001FFF800000000000FFFFFF80000000000
310
0FFFFF0003FFFFFFFFFE00000000001FF000FE00000000003FF8000FFFFC0000
310
FFFF8000FF80007FFC00000000003FFFC00000000003FFF8000001FFFE000000
310
7F80000000000001FFFC00000000001FFFFFFC00000000001FFFFF0003FFFFFF
310
FFFF00000000001FF000FF00000000003FF8000FFFFC0000FFFFC000FF80007F
310
FE00000000007FFFE00000000007FFF8000001FFFE0000007F80000000000001
310
FFFE00000000003FFFFFFE00000000003FFFFF0003FFFFFFFFFF80000000003F
310
F000FF80000000007FF8000FFFFC0001FFFFC0007F80007FFF0000000000FFFF
310
F0000000000FFFF800000000000000007F80000000000001FFFF8000000000FF
310
FFFFFF8000000000FFFFFF0003FFFFFFFFFFC0000000007FF000FFC000000000
310
FFF8000FFFFE0001FFFFC0007F80007FFF8000000001FFFFF8000000001FFFF8
310
00000000000000007F80000000000001FFFFC000000001FFFFFFFFC000000001
310
FFFFFF0003FFFFFFFFFFE000000000FFF000FFE000000003FFF0001FFFFE0001
310
FFFFC0007F80007FFFC000000007FFFFFE000000003FFFF80000000000000000
310
7F80000000000001FFFFE000000003FFFFFFFFE000000003FFFFFF0003FFFFFF
310
FFFFF000000003FFF000FFF80000000FFFF0001FFFFE0001FFFFE0007F80007F
310
FFF00000000FFFFFFF00000000FFFFF800000000000000007F80000000000001
310
FFFFF80000000FFFFFFFFFF80000000FFFFFFF0003FFFFFFFFFFFC0000000FFF
310
F000FFFE0000003FFFF0001FFFFE0003FFFFE0003F80007FFFFC0000003FFFFF
310
FFC0000003FFFFF800000000000000007F80000000000001FFFFFE0000003FFF
310
FFFFFFFE0000003FFFFFFF0003FFFFFFFFFFFF0000003FFFF000FFFF800000FF
310
FFF0001FFFFF0003FFFFE0003F80007FFFFF000001FFFFFFFFF800001FFFFFF8
310
00000000000000007F80000000000001FFFFFFC00001FFFFFFFFFFFFC00001FF
310
FFFFFF0003FFFFFFFFFFFFC00000FFFFF000FFFFF8000FFFFFFFFFFFFFFFFFFF
310
FFFFFFFFFFFFFFFFFFFFF0001FFFFFFFFFFF0000FFFFFFF80000000000000000
310
7FFFFFFFFFFFFFFFFFFFFFFC001FFFFFFFFFFFFFFC001FFFFFFFFFFFFFFFFFFF
310
FFFFFFFC001FFFFFF000FFFFFFFFFFFFFFFFFFFFFFFFFFFFFFFFFFFFFFFFFFFF
310
FFFFFFFFFFFFFFFFFFFFFFFFFFFFFFFFFFFFFFFFFFFFFFFFFFFFFFFFFFFFFFFF
310
FFFFFFFFFFFFFFFFFFFFFFFFFFFFFFFFFFFFFFFFFFFFFFFFFFFFFFFFFFFFFFFF
310
F000FFFFFFFFFFFFFFFFFFFFFFFFFFFFFFFFFFFFFFFFFFFFFFFFFFFFFFFFFFFF
310
FFFFFFFFFFFFFFFFFFFFFFFFFFFFFFFFFFFFFFFFFFFFFFFFFFFFFFFFFFFFFFFF
310
FFFFFFFFFFFFFFFFFFFFFFFFFFFFFFFFFFFFFFFFFFFFFFFFF000FFFFFFFFFFFF
310
FFFFFFFFFFFFFFFFFFFFFFFFFFFFFFFFFFFFFFFFFFFFFFFFFFFFFFFFFFFFFFFF
310
FFFFFFFFFFFFFFFFFFFFFFFFFFFFFFFFFFFFFFFFFFFFFFFFFFFFFFFFFFFFFFFF
310
FFFFFFFFFFFFFFFFFFFFFFFFFFFFFFFFF000FFFFFFFFFFFFFFFFFFFFFFFFFFFF
310
FFFFFFFFFFFFFFFFFFFFFFFFFFFFFFFFFFFFFFFFFFFFFFFFFFFFFFFFFFFFFFFF
310
FFFFFFFFFFFFFFFFFFFFFFFFFFFFFFFFFFFFFFFFFFFFFFFFFFFFFFFFFFFFFFFF
310
FFFFFFFFFFFFFFFFF000FFFFFFFFFFFFFFFFFFFFFFFFFFFFFFFFFFFFFFFFFFFF
310
FFFFFFFFFFFFFFFFFFFFFFFFFFFFFFFFFFFFFFFFFFFFFFFFFFFFFFFFFFFFFFFF
310
FFFFFFFFFFFFFFFFFFFFFFFFFFFFFFFFFFFFFFFFFFFFFFFFFFFFFFFFFFFFFFFF
310
F000FFFFFFFFFFFFFFFFFFFFFFFFFFFFFFFFFFFFFFFFFFFFFFFFFFFFFFFFFFFF
310
FFFFFFFFFFFFFFFFFFFFFFFFFFFFFFFFFFFFFFFFFFFFFFFFFFFFFFFFFFFFFFFF
310
FFFFFFFFFFFFFFFFFFFFFFFFFFFFFFFFFFFFFFFFFFFFFFFFF000FFFFFFFFFFFF
310
FFFFFFFFFFFFFFFFFFFFFFFFFFFFFFFFFFFFFFFFFFFFFFFFFFFFFFFFFFFFFFFF
310
FFFFFFFFFFFFFFFFFFFFFFFFFFFFFFFFFFFFFFFFFFFFFFFFFFFFFFFFFFFFFFFF
310
FFFFFFFFFFFFFFFFFFFFFFFFFFFFFFFFF000FFFFFFFFFFFFFFFFFFFFFFFFFFFF
310
FFFFFFFFFFFFFFFFFFFFFFFFFFFFFFFFFFFFFFFFFFFFFFFFFFFFFFFFFFFFFFFF
310
FFFFFFFFFFFFFFFFFFFFFFFFFFFFFFFFFFFFFFFFFFFFFFFFFFFFFFFFFFFFFFFF
310
FFFFFFFFFFFFFFFFF000FFFFFFFFFFFFFFFFFFFFFFFFFFFFFFFFFFFFFFFFFFFF
310
FFFFFFFFFFFFFFFFFFFFFFFFFFFFFFFFFFFFFFFFFFFFFFFFFFFFFFFFFFFFFFFF
310
FFFFFFFFFFFFFFFFFFFFFFFFFFFFFFFFFFFFFFFFFFFFFFFFFFFFFFFFFFFFFFFF
310
F000FFFFFFFFFFFFFFFFFFFFFFFFFFFFFFFFFFFFFFFFFFFFFFFFFFFFFFFFFFFF
310
FFFFFFFFFFFFFFFFFFFFFFFFFFFFFFFFFFFFFFFFFFFFFFFFFFFFFFFFFFFFFFFF
310
FFFFFFFFFFFFFFFFFFFFFFFFFFFFFFFFFFFFFFFFFFFFFFFFF000FFFFFFFFFFFF
310
FFFFFFFFFFFFFFFFFFFFFFFFFFFFFFFFFFFFFFFFFFFFFFFFFFFFFFFFFFFFFFFF
310
FFFFFFFFFFFFFFFFFFFFFFFFFFFFFFFFFFFFFFFFFFFFFFFFFFFFFFFFFFFFFFFF
310
FFFFFFFFFFFFFFFFFFFFFFFFFFFFFFFFF000FFFFFFFFFFFFFFFFFFFFFFFFFFFF
310
FFFFFFFFFFFFFFFFFFFFFFFFFFFFFFFFFFFFFFFFFFFFFFFFFFFFFFFFFFFFFFFF
310
FFFFFFFFFFFFFFFFFFFFFFFFFFFFFFFFFFFFFFFFFFFFFFFFFFFFFFFFFFFFFFFF
310
FFFFFFFFFFFFFFFFF000FFFFFFFFFFFFFFFFFFFFFFFFFFFFFFFFFFFFFFFFFFFF
310
FFFFFFFFFFFFFFFFFFFFFFFFFFFFFFFFFFFFFFFFFFFFFFFFFFFFFFFFFFFFFFFF
310
FFFFFFFFFFFFFFFFFFFFFFFFFFFFFFFFFFFFFFFFFFFFFFFFFFFFFFFFFFFFFFFF
310
F000FFFFFFFFFFFFFFFFFFFFFFFFFFFFFFFFFFFFFFFFFFFFFFFFFFFFFFFFFFFF
310
FFFFFFFFFFFFFFFFFFFFFFFFFFFFFFFFFFFFFFFFFFFFFFFFFFFFFFFFFFFFFFFF
310
FFFFFFFFFFFFFFFFFFFFFFFFFFFFFFFFFFFFFFFFFFFFFFFFF000FFFFFFFFFFFF
310
FFFFFFFFFFFFFFFFFFFFFFFFFFFFFFFFFFFFFFFFFFFFFFFFFFFFFFFFFFFFFFFF
310
FFFFFFFFFFFFFFFFFFFFFFFFFFFFFFFFFFFFFFFFFFFFFFFFFFFFFFFFFFFFFFFF
310
FFFFFFFFFFFFFFFFFFFFFFFFFFFFFFFFF000FFFFFFFFFFFFFFFFFFFFFFFFFFFF
310
FFFFFFFFFFFFFFFFFFFFFFFFFFFFFFFFFFFFFFFFFFFFFFFFFFFFFFFFFFFFFFFF
310
FFFFFFFFFFFFFFFFFFFFFFFFFFFFFFFFFFFFFFFFFFFFFFFFFFFFFFFFFFFFFFFF
310
FFFFFFFFFFFFFFFFF000FFFFFFFFFFFFFFFFFFFFFFFFFFFFFFFFFFFFFFFFFFFF
310
FFFFFFFFFFFFFFFFFFFFFFFFFFFFFFFFFFFFFFFFFFFFFFFFFFFFFFFFFFFFFFFF
310
FFFFFFFFFFFFFFFFFFFFFFFFFFFFFFFFFFFFFFFFFFFFFFFFFFFFFFFFFFFFFFFF
310
F000FFFFFFFFFFFFFFFFFFFFFFFFFFFFFFFFFFFFFFFFFFFFFFFFFFFFFFFFFFFF
310
FFFFFFFFFFFFFFFFFFFFFFFFFFFFFFFFFFFFFFFFFFFFFFFFFFFFFFFFFFFFFFFF
310
FFFFFFFFFFFFFFFFFFFFFFFFFFFFFFFFFFFFFFFFFFFFFFFFF000FFFFFFFFFFFF
310
FFFFFFFFFFFFFFFFFFFFFFFFFFFFFFFFFFFFFFFFFFFFFFFFFFFFFFFFFFFFFFFF
310
FFFFFFFFFFFFFFFFFFFFFFFFFFFFFFFFFFFFFFFFFFFFFFFFFFFFFFFFFFFFFFFF
310
FFFFFFFFFFFFFFFFFFFFFFFFFFFFFFFFF000FFFFFFFFFFFFFFFFFFFFFFFFFFFF
310
FFFFFFFFFFFFFFFFFFFFFFFFFFFFFFFFFFFFFFFFFFFFFFFFFFFFFFFFFFFFFFFF
310
FFFFFFFFFFFFFFFFFFFFFFFFFFFFFFFFFFFFFFFFFFFFFFFFFFFFFFFFFFFFFFFF
310
FFFFFFFFFFFFFFFFF000FFFFFFFFFFFFFFFFFFFFFFFFFFFFFFFFFFFFFFFFFFFF
310
FFFFFFFFFFFFFFFFFFFFFFFFFFFFFFFFFFFFFFFFFFFFFFFFFFFFFFFFFFFFFFFF
310
FFFFFFFFFFFFFFFFFFFFFFFFFFFFFFFFFFFFFFFFFFFFFFFFFFFFFFFFFFFFFFFF
310
F000FFFFFFFFFFFFFFFFFFFFFFFFFFFFFFFFFFFFFFFFFFFFFFFFFFFFFFFFFFFF
310
FFFFFFFFFFFFFFFFFFFFFFFFFFFFFFFFFFFFFFFFFFFFFFFFFFFFFFFFFFFFFFFF
310
FFFFFFFFFFFFFFFFFFFFFFFFFFFFFFFFFFFFFFFFFFFFFFFFF000FFFFFFFFFFFF
310
FFFFFFFFFFFFFFFFFFFFFFFFFFFFFFFFFFFFFFFFFFFFFFFFFFFFFFFFFFFFFFFF
310
FFFFFFFFFFFFFFFFFFFFFFFFFFFFFFFFFFFFFFFFFFFFFFFFFFFFFFFFFFFFFFFF
310
FFFFFFFFFFFFFFFFFFFFFFFFFFFFFFFFF0000000000000000000000000000000
310
00000000FFFFFF7FFFFFFF7FFFFFFF7FFFFFFF7FFFFFFF7FFFFFFF7FFFFFFF7F
310
FFFFFF7FFFFFFF7FFFFFFF7FFFFFFF7FFFFFFF7FFFFFFF7FFFFFFF7FFFFFFF7F
310
FFFFFF7FFFFFFF7FFFFFFF7FFFFFFF7FFFFFFF7FFFFFFF7FFFFFFF7FFFFFFF7F
310
FFFFFF7FFFFFFF7FFFFFFF7FFFFFFF7FFFFFFF7FFFFFFF7FFFFFFF7FFFFFFF7F
310
FFFFFF7FFFFFFF7FFFFFFF7FFFFFFF7FFFFFFF7FFFFFFF7FFFFFFF7FFFFFFF7F
310
FFFFFF7FFFFFFF7FFFFFFF7FFFFFFF7FFFFFFF7FFFFFFF7FFFFFFF7FFFFFFF7F
310
FFFFFF7FFFFFFF7FFFFFFF7FFFFFFF7FFFFFFF7FFFFFFF7FFFFFFF7FFFFFFF7F
310
FFFFFF7FFFFFFF7FFFFFFF7FFFFFFF7FFFFFFF7FFFFFFF7FFFFFFF7FFFFFFF7F
310
FFFFFF7FFFFFFF7FFFFFFF7FFFFFFF7FFFFFFF7FFFFFFF7FFFFFFF7FFFFFFF7F
310
FFFFFF7FFFFFFF7FFFFFFF7FFFFFFF7FFFFFFF7FFFFFFF7FFFFFFF7FFFFFFF7F
310
FFFFFF7FFFFFFF7FFFFFFF7FFFFFFF7FFFFFFF7FFFFFFF7FFFFFFF7FFFFFFF7F
310
FFFFFF7FFFFFFF7FFFFFFF7FFFFFFF7FFFFFFF7FFFFFFF7FFFFFFF7FFFFFFF7F
310
FFFFFF7FFFFFFF7FFFFFFF7FFFFFFF7FFFFFFF7FFFFFFF7FFFFFFF7FFFFFFF7F
310
FFFFFF7FFFFFFF7FFFFFFF7FFFFFFF7FFFFFFF7FFFFFFF7FFFFFFF7FFFFFFF7F
310
FFFFFF7FFFFFFF7FFFFFFF7FFFFFFF7FFFFFFF7FFFFFFF7FFFFFFF7FFFFFFF7F
  1
OLE
  0
ENDSEC
  0
SECTION
  2
OBJECTS
  0
DICTIONARY
  5
C
330
0
100
AcDbDictionary
281
     1
  3
ACAD_GROUP
350
D
  3
ACAD_LAYOUT
350
1A
  3
ACAD_MLEADERSTYLE
350
312
  3
ACAD_MLINESTYLE
350
17
  3
ACAD_PLOTSETTINGS
350
19
  3
ACAD_PLOTSTYLENAME
350
E
  3
ACAD_TABLESTYLE
350
311
  3
ACAD_VISUALSTYLE
350
2A
  3
AcDbVariableDictionary
350
313
  0
DICTIONARY
  5
D
102
{ACAD_REACTORS
330
C
102
}
330
C
100
AcDbDictionary
281
     1
  0
DICTIONARY
  5
1A
102
{ACAD_REACTORS
330
C
102
}
330
C
100
AcDbDictionary
281
     1
  3
Layout1
350
1E
  3
Layout2
350
26
  3
Model
350
22
  0
DICTIONARY
  5
312
102
{ACAD_REACTORS
330
C
102
}
330
C
100
AcDbDictionary
281
     1
  0
DICTIONARY
  5
17
102
{ACAD_REACTORS
330
C
102
}
330
C
100
AcDbDictionary
281
     1
  3
Standard
350
18
  0
DICTIONARY
  5
19
102
{ACAD_REACTORS
330
C
102
}
330
C
100
AcDbDictionary
281
     1
  0
ACDBDICTIONARYWDFLT
  5
E
102
{ACAD_REACTORS
330
C
102
}
330
C
100
AcDbDictionary
281
     1
  3
Normal
350
F
100
AcDbDictionaryWithDefault
340
F
  0
DICTIONARY
  5
311
102
{ACAD_REACTORS
330
C
102
}
330
C
100
AcDbDictionary
281
     1
  0
DICTIONARY
  5
2A
102
{ACAD_REACTORS
330
C
102
}
330
C
100
AcDbDictionary
281
     1
  3
2dWireframe
350
2F
  3
3D Hidden
350
31
  3
3dWireframe
350
30
  3
Basic
350
32
  3
Brighten
350
36
  3
ColorChange
350
3A
  3
Conceptual
350
34
  3
Dim
350
35
  3
Facepattern
350
39
  3
Flat
350
2B
  3
FlatWithEdges
350
2C
  3
Gouraud
350
2D
  3
GouraudWithEdges
350
2E
  3
Linepattern
350
38
  3
Realistic
350
33
  3
Thicken
350
37
  0
DICTIONARY
  5
313
102
{ACAD_REACTORS
330
C
102
}
330
C
100
AcDbDictionary
281
     1
  3
PSOLHEIGHT
350
315
  3
PSOLWIDTH
350
314
  0
LAYOUT
  5
1E
102
{ACAD_REACTORS
330
1A
102
}
330
1A
100
AcDbPlotSettings
  1

  2
none_device
  4

  6

 40
0.0
 41
0.0
 42
0.0
 43
0.0
 44
0.0
 45
0.0
 46
0.0
 47
0.0
 48
0.0
 49
0.0
140
0.0
141
0.0
142
1.0
143
1.0
 70
   688
 72
     0
 73
     0
 74
     5
  7

 75
    16
147
1.0
148
0.0
149
0.0
100
AcDbLayout
  1
Layout1
 70
     1
 71
     1
 10
0.0
 20
0.0
 11
420.0
 21
297.0
 12
0.0
 22
0.0
 32
0.0
 14
1.0000000000E+20
 24
1.0000000000E+20
 34
1.0000000000E+20
 15
-1.0000000000E+20
 25
-1.0000000000E+20
 35
-1.0000000000E+20
146
0.0
 13
0.0
 23
0.0
 33
0.0
 16
1.0
 26
0.0
 36
0.0
 17
0.0
 27
1.0
 37
0.0
 76
     0
330
1B
  0
LAYOUT
  5
26
102
{ACAD_REACTORS
330
1A
102
}
330
1A
100
AcDbPlotSettings
  1

  2
none_device
  4

  6

 40
0.0
 41
0.0
 42
0.0
 43
0.0
 44
0.0
 45
0.0
 46
0.0
 47
0.0
 48
0.0
 49
0.0
140
0.0
141
0.0
142
1.0
143
1.0
 70
   688
 72
     0
 73
     0
 74
     5
  7

 75
    16
147
1.0
148
0.0
149
0.0
100
AcDbLayout
  1
Layout2
 70
     1
 71
     2
 10
0.0
 20
0.0
 11
0.0
 21
0.0
 12
0.0
 22
0.0
 32
0.0
 14
0.0
 24
0.0
 34
0.0
 15
0.0
 25
0.0
 35
0.0
146
0.0
 13
0.0
 23
0.0
 33
0.0
 16
1.0
 26
0.0
 36
0.0
 17
0.0
 27
1.0
 37
0.0
 76
     0
330
23
  0
LAYOUT
  5
22
102
{ACAD_REACTORS
330
1A
102
}
330
1A
100
AcDbPlotSettings
  1

  2
none_device
  4

  6

 40
0.0
 41
0.0
 42
0.0
 43
0.0
 44
0.0
 45
0.0
 46
0.0
 47
0.0
 48
0.0
 49
0.0
140
0.0
141
0.0
142
1.0
143
1.0
 70
  1712
 72
     0
 73
     0
 74
     0
  7

 75
     0
147
1.0
148
0.0
149
0.0
100
AcDbLayout
  1
Model
 70
     1
 71
     0
 10
0.0
 20
0.0
 11
297.0
 21
210.0
 12
0.0
 22
0.0
 32
0.0
 14
0.0
 24
0.0
 34
0.0
 15
297.0
 25
210.0
 35
0.0
146
0.0
 13
0.0
 23
0.0
 33
0.0
 16
1.0
 26
0.0
 36
0.0
 17
0.0
 27
1.0
 37
0.0
 76
     0
330
1F
331
29
  0
MLINESTYLE
  5
18
102
{ACAD_REACTORS
330
17
102
}
330
17
100
AcDbMlineStyle
  2
Standard
 70
     0
  3

 62
   256
 51
90.0
 52
90.0
 71
     2
 49
0.5
 62
   256
  6
BYLAYER
 49
-0.5
 62
   256
  6
BYLAYER
  0
ACDBPLACEHOLDER
  5
F
102
{ACAD_REACTORS
330
E
102
}
330
E
  0
VISUALSTYLE
  5
2F
102
{ACAD_REACTORS
330
2A
102
}
330
2A
100
AcDbVisualStyle
  2
2dWireframe
 70
     4
 71
     0
 72
     2
 73
     0
 90
        0
 40
-0.6
 41
-30.0
 62
     5
 63
     7
 74
     1
 91
        4
 64
     7
 65
   257
 75
     1
175
     1
 42
1.0
 92
        0
 66
   257
 43
1.0
 76
     1
 77
     6
 78
     2
 67
     7
 79
     5
170
     0
171
     0
290
     0
174
     0
 93
        1
 44
0.0
173
     0
291
     0
 45
0.0
1001
ACAD
1000
AcDbSavedByObjectVersion
1070
     0
  0
VISUALSTYLE
  5
31
102
{ACAD_REACTORS
330
2A
102
}
330
2A
100
AcDbVisualStyle
  2
3D Hidden
 70
     6
 71
     1
 72
     2
 73
     2
 90
        0
 40
-0.6
 41
-30.0
 62
     5
 63
     7
 74
     2
 91
        2
 64
     7
 65
   257
 75
     2
175
     1
 42
40.0
 92
        0
 66
   257
 43
1.0
 76
     1
 77
     6
 78
     2
 67
     7
 79
     3
170
     0
171
     0
290
     0
174
     0
 93
        1
 44
0.0
173
     0
291
     0
 45
0.0
1001
ACAD
1000
AcDbSavedByObjectVersion
1070
     0
  0
VISUALSTYLE
  5
30
102
{ACAD_REACTORS
330
2A
102
}
330
2A
100
AcDbVisualStyle
  2
3dWireframe
 70
     5
 71
     0
 72
     2
 73
     0
 90
        0
 40
-0.6
 41
-30.0
 62
     5
 63
     7
 74
     1
 91
        4
 64
     7
 65
   257
 75
     1
175
     1
 42
1.0
 92
        0
 66
   257
 43
1.0
 76
     1
 77
     6
 78
     2
 67
     7
 79
     5
170
     0
171
     0
290
     0
174
     0
 93
        1
 44
0.0
173
     0
291
     0
 45
0.0
1001
ACAD
1000
AcDbSavedByObjectVersion
1070
     0
  0
VISUALSTYLE
  5
32
102
{ACAD_REACTORS
330
2A
102
}
330
2A
100
AcDbVisualStyle
  2
Basic
 70
     7
 71
     1
 72
     0
 73
     1
 90
        0
 40
-0.6
 41
-30.0
 62
     5
 63
     7
 74
     0
 91
        4
 64
     7
 65
   257
 75
     1
175
     1
 42
1.0
 92
        8
 66
     7
 43
1.0
 76
     1
 77
     6
 78
     2
 67
     7
 79
     5
170
     0
171
     0
290
     0
174
     0
 93
        1
 44
0.0
173
     0
291
     1
 45
0.0
1001
ACAD
1000
AcDbSavedByObjectVersion
1070
     0
  0
VISUALSTYLE
  5
36
102
{ACAD_REACTORS
330
2A
102
}
330
2A
100
AcDbVisualStyle
  2
Brighten
 70
    12
 71
     2
 72
     2
 73
     0
 90
        0
 40
-0.6
 41
-30.0
 62
     5
 63
     7
 74
     1
 91
        4
 64
     7
 65
   257
 75
     1
175
     1
 42
1.0
 92
        8
 66
     7
 43
1.0
 76
     1
 77
     6
 78
     2
 67
     7
 79
     5
170
     0
171
     0
290
     0
174
     0
 93
        1
 44
50.0
173
     0
291
     1
 45
0.0
1001
ACAD
1000
AcDbSavedByObjectVersion
1070
     0
  0
VISUALSTYLE
  5
3A
102
{ACAD_REACTORS
330
2A
102
}
330
2A
100
AcDbVisualStyle
  2
ColorChange
 70
    16
 71
     2
 72
     2
 73
     3
 90
        0
 40
-0.6
 41
-30.0
 62
     5
 63
     8
 74
     1
 91
        4
 64
     7
 65
   257
 75
     1
175
     1
 42
1.0
 92
        8
 66
     8
 43
1.0
 76
     1
 77
     6
 78
     2
 67
     7
 79
     5
170
     0
171
     0
290
     0
174
     0
 93
        1
 44
0.0
173
     0
291
     1
 45
0.0
1001
ACAD
1000
AcDbSavedByObjectVersion
1070
     0
  0
VISUALSTYLE
  5
34
102
{ACAD_REACTORS
330
2A
102
}
330
2A
100
AcDbVisualStyle
  2
Conceptual
 70
     9
 71
     3
 72
     2
 73
     0
 90
        0
 40
-0.6
 41
-30.0
 62
     5
 63
     7
 74
     2
 91
        2
 64
     7
 65
   257
 75
     1
175
     1
 42
40.0
 92
        8
 66
     7
 43
1.0
 76
     1
 77
     6
 78
     2
 67
     7
 79
     3
170
     0
171
     0
290
     0
174
     0
 93
        1
 44
0.0
173
     0
291
     0
 45
0.0
1001
ACAD
1000
AcDbSavedByObjectVersion
1070
     0
  0
VISUALSTYLE
  5
35
102
{ACAD_REACTORS
330
2A
102
}
330
2A
100
AcDbVisualStyle
  2
Dim
 70
    11
 71
     2
 72
     2
 73
     0
 90
        0
 40
-0.6
 41
-30.0
 62
     5
 63
     7
 74
     1
 91
        4
 64
     7
 65
   257
 75
     1
175
     1
 42
1.0
 92
        8
 66
     7
 43
1.0
 76
     1
 77
     6
 78
     2
 67
     7
 79
     5
170
     0
171
     0
290
     0
174
     0
 93
        1
 44
-50.0
173
     0
291
     1
 45
0.0
1001
ACAD
1000
AcDbSavedByObjectVersion
1070
     0
  0
VISUALSTYLE
  5
39
102
{ACAD_REACTORS
330
2A
102
}
330
2A
100
AcDbVisualStyle
  2
Facepattern
 70
    15
 71
     2
 72
     2
 73
     0
 90
        0
 40
-0.6
 41
-30.0
 62
     5
 63
     7
 74
     1
 91
        4
 64
     7
 65
   257
 75
     1
175
     1
 42
1.0
 92
        8
 66
     7
 43
1.0
 76
     1
 77
     6
 78
     2
 67
     7
 79
     5
170
     0
171
     0
290
     0
174
     0
 93
        1
 44
0.0
173
     0
291
     1
 45
0.0
1001
ACAD
1000
AcDbSavedByObjectVersion
1070
     0
  0
VISUALSTYLE
  5
2B
102
{ACAD_REACTORS
330
2A
102
}
330
2A
100
AcDbVisualStyle
  2
Flat
 70
     0
 71
     2
 72
     1
 73
     1
 90
        2
 40
-0.6
 41
30.0
 62
     5
 63
     7
 74
     0
 91
        4
 64
     7
 65
   257
 75
     1
175
     1
 42
1.0
 92
        8
 66
     7
 43
1.0
 76
     1
 77
     6
 78
     2
 67
     7
 79
     5
170
     0
171
     0
290
     0
174
     0
 93
       13
 44
0.0
173
     0
291
     1
 45
0.0
1001
ACAD
1000
AcDbSavedByObjectVersion
1070
     0
  0
VISUALSTYLE
  5
2C
102
{ACAD_REACTORS
330
2A
102
}
330
2A
100
AcDbVisualStyle
  2
FlatWithEdges
 70
     1
 71
     2
 72
     1
 73
     1
 90
        2
 40
-0.6
 41
30.0
 62
     5
 63
     7
 74
     1
 91
        4
 64
     7
 65
   257
 75
     1
175
     1
 42
1.0
 92
        0
 66
   257
 43
1.0
 76
     1
 77
     6
 78
     2
 67
     7
 79
     5
170
     0
171
     0
290
     0
174
     0
 93
       13
 44
0.0
173
     0
291
     1
 45
0.0
1001
ACAD
1000
AcDbSavedByObjectVersion
1070
     0
  0
VISUALSTYLE
  5
2D
102
{ACAD_REACTORS
330
2A
102
}
330
2A
100
AcDbVisualStyle
  2
Gouraud
 70
     2
 71
     2
 72
     2
 73
     1
 90
        2
 40
-0.6
 41
30.0
 62
     5
 63
     7
 74
     0
 91
        4
 64
     7
 65
   257
 75
     1
175
     1
 42
1.0
 92
        0
 66
     7
 43
1.0
 76
     1
 77
     6
 78
     2
 67
     7
 79
     5
170
     0
171
     0
290
     0
174
     0
 93
       13
 44
0.0
173
     0
291
     1
 45
0.0
1001
ACAD
1000
AcDbSavedByObjectVersion
1070
     0
  0
VISUALSTYLE
  5
2E
102
{ACAD_REACTORS
330
2A
102
}
330
2A
100
AcDbVisualStyle
  2
GouraudWithEdges
 70
     3
 71
     2
 72
     2
 73
     1
 90
        2
 40
-0.6
 41
30.0
 62
     5
 63
     7
 74
     1
 91
        4
 64
     7
 65
   257
 75
     1
175
     1
 42
1.0
 92
        0
 66
   257
 43
1.0
 76
     1
 77
     6
 78
     2
 67
     7
 79
     5
170
     0
171
     0
290
     0
174
     0
 93
       13
 44
0.0
173
     0
291
     1
 45
0.0
1001
ACAD
1000
AcDbSavedByObjectVersion
1070
     0
  0
VISUALSTYLE
  5
38
102
{ACAD_REACTORS
330
2A
102
}
330
2A
100
AcDbVisualStyle
  2
Linepattern
 70
    14
 71
     2
 72
     2
 73
     0
 90
        0
 40
-0.6
 41
-30.0
 62
     5
 63
     7
 74
     1
 91
        4
 64
     7
 65
   257
 75
     7
175
     7
 42
1.0
 92
        8
 66
     7
 43
1.0
 76
     1
 77
     6
 78
     2
 67
     7
 79
     5
170
     0
171
     0
290
     0
174
     0
 93
        1
 44
0.0
173
     0
291
     1
 45
0.0
1001
ACAD
1000
AcDbSavedByObjectVersion
1070
     0
  0
VISUALSTYLE
  5
33
102
{ACAD_REACTORS
330
2A
102
}
330
2A
100
AcDbVisualStyle
  2
Realistic
 70
     8
 71
     2
 72
     2
 73
     0
 90
        0
 40
-0.6
 41
-30.0
 62
     5
 63
     7
 74
     1
 91
        0
 64
     7
 65
   257
 75
     1
175
     1
 42
1.0
 92
        8
 66
     8
 43
1.0
 76
     1
 77
     6
 78
     2
 67
     7
 79
     5
170
     0
171
     0
290
     0
174
     0
 93
       13
 44
0.0
173
     0
291
     0
 45
0.0
1001
ACAD
1000
AcDbSavedByObjectVersion
1070
     0
  0
VISUALSTYLE
  5
37
102
{ACAD_REACTORS
330
2A
102
}
330
2A
100
AcDbVisualStyle
  2
Thicken
 70
    13
 71
     2
 72
     2
 73
     0
 90
        0
 40
-0.6
 41
-30.0
 62
     5
 63
     7
 74
     1
 91
        4
 64
     7
 65
   257
 75
     1
175
     1
 42
1.0
 92
       12
 66
     7
 43
1.0
 76
     1
 77
     6
 78
     2
 67
     7
 79
     5
170
     0
171
     0
290
     0
174
     0
 93
        1
 44
0.0
173
     0
291
     1
 45
0.0
1001
ACAD
1000
AcDbSavedByObjectVersion
1070
     0
  0
DICTIONARYVAR
  5
315
102
{ACAD_REACTORS
330
313
102
}
330
313
100
DictionaryVariables
280
     0
  1
80.000000
  0
DICTIONARYVAR
  5
314
102
{ACAD_REACTORS
330
313
102
}
330
313
100
DictionaryVariables
280
     0
  1
5.000000
  0
ENDSEC
  0
EOF
