  0
SECTION
  2
HEADER
  9
$ACADVER
  1
AC1015
  9
$ACADMAINTVER
 70
     6
  9
$DWGCODEPAGE
  3
ANSI_1252
  9
$INSBASE
 10
0.0
 20
0.0
 30
0.0
  9
$EXTMIN
 10
0.0
 20
0.0
 30
0.0
  9
$EXTMAX
 10
297.0
 20
210.0
 30
0.0
  9
$LIMMIN
 10
0.0
 20
0.0
  9
$LIMMAX
 10
297.0
 20
210.0
  9
$ORTHOMODE
 70
     0
  9
$REGENMODE
 70
     1
  9
$FILLMODE
 70
     1
  9
$QTEXTMODE
 70
     0
  9
$MIRRTEXT
 70
     1
  9
$LTSCALE
 40
1.0
  9
$ATTMODE
 70
     1
  9
$TEXTSIZE
 40
2.0
  9
$TRACEWID
 40
1.0
  9
$TEXTSTYLE
  7
Standard
  9
$CLAYER
  8
0
  9
$CELTYPE
  6
ByLayer
  9
$CECOLOR
 62
   256
  9
$CELTSCALE
 40
1.0
  9
$DISPSILH
 70
     0
  9
$DIMSCALE
 40
1.0
  9
$DIMASZ
 40
3.0
  9
$DIMEXO
 40
0.0
  9
$DIMDLI
 40
3.75
  9
$DIMRND
 40
0.0
  9
$DIMDLE
 40
0.0
  9
$DIMEXE
 40
1.0
  9
$DIMTP
 40
0.0
  9
$DIMTM
 40
0.0
  9
$DIMTXT
 40
2.0
  9
$DIMCEN
 40
2.5
  9
$DIMTSZ
 40
0.0
  9
$DIMTOL
 70
     0
  9
$DIMLIM
 70
     0
  9
$DIMTIH
 70
     1
  9
$DIMTOH
 70
     1
  9
$DIMSE1
 70
     0
  9
$DIMSE2
 70
     0
  9
$DIMTAD
 70
     1
  9
$DIMZIN
 70
     0
  9
$DIMBLK
  1

  9
$DIMASO
 70
     1
  9
$DIMSHO
 70
     1
  9
$DIMPOST
  1

  9
$DIMAPOST
  1

  9
$DIMALT
 70
     0
  9
$DIMALTD
 70
     3
  9
$DIMALTF
 40
0.0393700787
  9
$DIMLFAC
 40
1.0
  9
$DIMTOFL
 70
     1
  9
$DIMTVP
 40
0.0
  9
$DIMTIX
 70
     0
  9
$DIMSOXD
 70
     0
  9
$DIMSAH
 70
     0
  9
$DIMBLK1
  1

  9
$DIMBLK2
  1

  9
$DIMSTYLE
  2
ISO-25
  9
$DIMCLRD
 70
     0
  9
$DIMCLRE
 70
     0
  9
$DIMCLRT
 70
     0
  9
$DIMTFAC
 40
1.0
  9
$DIMGAP
 40
1.524
  9
$DIMJUST
 70
     0
  9
$DIMSD1
 70
     0
  9
$DIMSD2
 70
     0
  9
$DIMTOLJ
 70
     0
  9
$DIMTZIN
 70
     0
  9
$DIMALTZ
 70
     0
  9
$DIMALTTZ
 70
     0
  9
$DIMUPT
 70
     0
  9
$DIMDEC
 70
     2
  9
$DIMTDEC
 70
     3
  9
$DIMALTU
 70
     2
  9
$DIMALTTD
 70
     3
  9
$DIMTXSTY
  7
Standard
  9
$DIMAUNIT
 70
     0
  9
$DIMADEC
 70
     2
  9
$DIMALTRND
 40
0.0
  9
$DIMAZIN
 70
     0
  9
$DIMDSEP
 70
    44
  9
$DIMATFIT
 70
     3
  9
$DIMFRAC
 70
     0
  9
$DIMLDRBLK
  1

  9
$DIMLUNIT
 70
     2
  9
$DIMLWD
 70
    -2
  9
$DIMLWE
 70
    -2
  9
$DIMTMOVE
 70
     0
  9
$LUNITS
 70
     2
  9
$LUPREC
 70
     2
  9
$SKETCHINC
 40
1.0
  9
$FILLETRAD
 40
10.0
  9
$AUNITS
 70
     0
  9
$AUPREC
 70
     2
  9
$MENU
  1
.
  9
$ELEVATION
 40
0.0
  9
$PELEVATION
 40
0.0
  9
$THICKNESS
 40
0.0
  9
$LIMCHECK
 70
     0
  9
$CHAMFERA
 40
10.0
  9
$CHAMFERB
 40
10.0
  9
$CHAMFERC
 40
20.0
  9
$CHAMFERD
 40
0.0
  9
$SKPOLY
 70
     0
  9
$TDCREATE
 40
2455679.355684606
  9
$TDUCREATE
 40
2455679.272351273
  9
$TDUPDATE
 40
2455679.355684618
  9
$TDUUPDATE
 40
2455679.272351285
  9
$TDINDWG
 40
0.0000000116
  9
$TDUSRTIMER
 40
0.0000000116
  9
$USRTIMER
 70
     1
  9
$ANGBASE
 50
0.0
  9
$ANGDIR
 70
     0
  9
$PDMODE
 70
     0
  9
$PDSIZE
 40
-1.0
  9
$PLINEWID
 40
0.0
  9
$SPLFRAME
 70
     0
  9
$SPLINETYPE
 70
     6
  9
$SPLINESEGS
 70
     8
  9
$HANDSEED
  5
1BC
  9
$SURFTAB1
 70
     6
  9
$SURFTAB2
 70
     6
  9
$SURFTYPE
 70
     6
  9
$SURFU
 70
     6
  9
$SURFV
 70
     6
  9
$UCSBASE
  2

  9
$UCSNAME
  2

  9
$UCSORG
 10
0.0
 20
0.0
 30
0.0
  9
$UCSXDIR
 10
1.0
 20
0.0
 30
0.0
  9
$UCSYDIR
 10
0.0
 20
1.0
 30
0.0
  9
$UCSORTHOREF
  2

  9
$UCSORTHOVIEW
 70
     0
  9
$UCSORGTOP
 10
0.0
 20
0.0
 30
0.0
  9
$UCSORGBOTTOM
 10
0.0
 20
0.0
 30
0.0
  9
$UCSORGLEFT
 10
0.0
 20
0.0
 30
0.0
  9
$UCSORGRIGHT
 10
0.0
 20
0.0
 30
0.0
  9
$UCSORGFRONT
 10
0.0
 20
0.0
 30
0.0
  9
$UCSORGBACK
 10
0.0
 20
0.0
 30
0.0
  9
$PUCSBASE
  2

  9
$PUCSNAME
  2

  9
$PUCSORG
 10
0.0
 20
0.0
 30
0.0
  9
$PUCSXDIR
 10
1.0
 20
0.0
 30
0.0
  9
$PUCSYDIR
 10
0.0
 20
1.0
 30
0.0
  9
$PUCSORTHOREF
  2

  9
$PUCSORTHOVIEW
 70
     0
  9
$PUCSORGTOP
 10
0.0
 20
0.0
 30
0.0
  9
$PUCSORGBOTTOM
 10
0.0
 20
0.0
 30
0.0
  9
$PUCSORGLEFT
 10
0.0
 20
0.0
 30
0.0
  9
$PUCSORGRIGHT
 10
0.0
 20
0.0
 30
0.0
  9
$PUCSORGFRONT
 10
0.0
 20
0.0
 30
0.0
  9
$PUCSORGBACK
 10
0.0
 20
0.0
 30
0.0
  9
$USERI1
 70
     0
  9
$USERI2
 70
     0
  9
$USERI3
 70
     0
  9
$USERI4
 70
     0
  9
$USERI5
 70
     0
  9
$USERR1
 40
0.0
  9
$USERR2
 40
0.0
  9
$USERR3
 40
0.0
  9
$USERR4
 40
0.0
  9
$USERR5
 40
0.0
  9
$WORLDVIEW
 70
     1
  9
$SHADEDGE
 70
     3
  9
$SHADEDIF
 70
    70
  9
$TILEMODE
 70
     1
  9
$MAXACTVP
 70
    64
  9
$PINSBASE
 10
0.0
 20
0.0
 30
0.0
  9
$PLIMCHECK
 70
     0
  9
$PEXTMIN
 10
1.0000000000E+20
 20
1.0000000000E+20
 30
1.0000000000E+20
  9
$PEXTMAX
 10
-1.0000000000E+20
 20
-1.0000000000E+20
 30
-1.0000000000E+20
  9
$PLIMMIN
 10
0.0
 20
0.0
  9
$PLIMMAX
 10
420.0
 20
297.0
  9
$UNITMODE
 70
     0
  9
$VISRETAIN
 70
     1
  9
$PLINEGEN
 70
     0
  9
$PSLTSCALE
 70
     1
  9
$TREEDEPTH
 70
  3020
  9
$CMLSTYLE
  2
Standard
  9
$CMLJUST
 70
     0
  9
$CMLSCALE
 40
20.0
  9
$PROXYGRAPHICS
 70
     1
  9
$MEASUREMENT
 70
     1
  9
$CELWEIGHT
370
    -1
  9
$ENDCAPS
280
     0
  9
$JOINSTYLE
280
     0
  9
$LWDISPLAY
290
     1
  9
$INSUNITS
 70
     4
  9
$HYPERLINKBASE
  1

  9
$STYLESHEET
  1

  9
$XEDIT
290
     1
  9
$CEPSNTYPE
380
     0
  9
$PSTYLEMODE
290
     1
  9
$FINGERPRINTGUID
  2
{87942D09-B4FA-418F-993F-FF285C3599E3}
  9
$VERSIONGUID
  2
{FAEB1C32-E019-11D5-929B-00C0DF256EC4}
  9
$EXTNAMES
290
     1
  9
$PSVPSCALE
 40
0.0
  9
$OLESTARTUP
290
     0
  0
ENDSEC
  0
SECTION
  2
CLASSES
  0
CLASS
  1
ACDBDICTIONARYWDFLT
  2
AcDbDictionaryWithDefault
  3
ObjectDBX Classes
 90
        0
280
     0
281
     0
  0
CLASS
  1
VISUALSTYLE
  2
AcDbVisualStyle
  3
ObjectDBX Classes
 90
     4095
280
     0
281
     0
  0
CLASS
  1
DICTIONARYVAR
  2
AcDbDictionaryVar
  3
ObjectDBX Classes
 90
        0
280
     0
281
     0
  0
CLASS
  1
ACDBPLACEHOLDER
  2
AcDbPlaceHolder
  3
ObjectDBX Classes
 90
        0
280
     0
281
     0
  0
CLASS
  1
LAYOUT
  2
AcDbLayout
  3
ObjectDBX Classes
 90
        0
280
     0
281
     0
  0
ENDSEC
  0
SECTION
  2
TABLES
  0
TABLE
  2
VPORT
  5
8
330
0
100
AcDbSymbolTable
 70
     1
  0
VPORT
  5
29
330
8
100
AcDbSymbolTableRecord
100
AcDbViewportTableRecord
  2
*Active
 70
     0
 10
0.0
 20
0.0
 11
1.0
 21
1.0
 12
148.5
 22
105.0
 13
0.0
 23
0.0
 14
10.0
 24
10.0
 15
10.0
 25
10.0
 16
0.0
 26
0.0
 36
1.0
 17
0.0
 27
0.0
 37
0.0
 40
210.0
 41
1.4142857143
 42
50.0
 43
0.0
 44
0.0
 50
0.0
 51
0.0
 71
     0
 72
  2000
 73
     1
 74
     3
 75
     0
 76
     0
 77
     0
 78
     0
281
     0
 65
     1
110
0.0
120
0.0
130
0.0
111
1.0
121
0.0
131
0.0
112
0.0
122
1.0
132
0.0
 79
     0
146
0.0
  0
ENDTAB
  0
TABLE
  2
LTYPE
  5
5
330
0
100
AcDbSymbolTable
 70
     6
  0
LTYPE
  5
14
330
5
100
AcDbSymbolTableRecord
100
AcDbLinetypeTableRecord
  2
ByBlock
 70
     0
  3

 72
    65
 73
     0
 40
0.0
  0
LTYPE
  5
15
330
5
100
AcDbSymbolTableRecord
100
AcDbLinetypeTableRecord
  2
ByLayer
 70
     0
  3

 72
    65
 73
     0
 40
0.0
  0
LTYPE
  5
16
330
5
100
AcDbSymbolTableRecord
100
AcDbLinetypeTableRecord
  2
Continuous
 70
     0
  3
Solid line
 72
    65
 73
     0
 40
0.0
  0
LTYPE
  5
3B
330
5
100
AcDbSymbolTableRecord
100
AcDbLinetypeTableRecord
  2
HIDDEN
 70
     0
  3
Hidden __ __ __ __ __ __ __ __ __ __ __ __ __ __
 72
    65
 73
     2
 40
1.905
 49
1.27
 74
     0
 49
-0.635
 74
     0
  0
LTYPE
  5
3C
330
5
100
AcDbSymbolTableRecord
100
AcDbLinetypeTableRecord
  2
PHANTOM
 70
     0
  3
Phantom ______  __  __  ______  __  __  ______
 72
    65
 73
     6
 40
12.7
 49
6.35
 74
     0
 49
-1.27
 74
     0
 49
1.27
 74
     0
 49
-1.27
 74
     0
 49
1.27
 74
     0
 49
-1.27
 74
     0
  0
LTYPE
  5
3D
330
5
100
AcDbSymbolTableRecord
100
AcDbLinetypeTableRecord
  2
CENTER
 70
     0
  3
Center ____ _ ____ _ ____ _ ____ _ ____ _ ____
 72
    65
 73
     4
 40
10.16
 49
6.35
 74
     0
 49
-1.27
 74
     0
 49
1.27
 74
     0
 49
-1.27
 74
     0
  0
LTYPE
  5
3E
330
5
100
AcDbSymbolTableRecord
100
AcDbLinetypeTableRecord
  2
CENTERX2
 70
     0
  3
Center (2x) ________  __  ________  __  _____
 72
    65
 73
     4
 40
20.32
 49
12.7
 74
     0
 49
-2.54
 74
     0
 49
2.54
 74
     0
 49
-2.54
 74
     0
  0
LTYPE
  5
3F
330
5
100
AcDbSymbolTableRecord
100
AcDbLinetypeTableRecord
  2
DOT2
 70
     0
  3
Dot (.5x) ........................................
 72
    65
 73
     2
 40
0.635
 49
0.0
 74
     0
 49
-0.635
 74
     0
  0
ENDTAB
  0
TABLE
  2
LAYER
  5
2
330
0
100
AcDbSymbolTable
 70
     5
  0
LAYER
  5
10
330
2
100
AcDbSymbolTableRecord
100
AcDbLayerTableRecord
  2
0
 70
     0
 62
     7
  6
Continuous
370
    -3
390
F
  0
LAYER
  5
40
330
2
100
AcDbSymbolTableRecord
100
AcDbLayerTableRecord
  2
FORMAT
 70
     0
 62
     7
  6
Continuous
370
    -3
390
F
  0
LAYER
  5
41
330
2
100
AcDbSymbolTableRecord
100
AcDbLayerTableRecord
  2
VERMASSUNG
 70
     0
 62
     7
  6
Continuous
370
    -3
390
F
  0
LAYER
  5
42
330
2
100
AcDbSymbolTableRecord
100
AcDbLayerTableRecord
  2
KOPF_DÜNN
 70
     0
 62
     7
  6
Continuous
370
    -3
390
F
  0
LAYER
  5
43
330
2
100
AcDbSymbolTableRecord
100
AcDbLayerTableRecord
  2
KOPF_DICK
 70
     0
 62
     7
  6
Continuous
370
    15
390
F
  0
ENDTAB
  0
TABLE
  2
STYLE
  5
3
330
0
100
AcDbSymbolTable
 70
     3
  0
STYLE
  5
11
330
3
100
AcDbSymbolTableRecord
100
AcDbTextStyleTableRecord
  2
Standard
 70
     0
 40
0.0
 41
1.0
 50
0.0
 71
     0
 42
2.5
  3
txt
  4

  0
STYLE
  5
44
330
3
100
AcDbSymbolTableRecord
100
AcDbTextStyleTableRecord
  2
SLDTEXTSTYLE0
 70
     0
 40
0.0
 41
0.7
 50
0.0
 71
     0
 42
0.2
  3
TXT
  4

  0
STYLE
  5
48
330
3
100
AcDbSymbolTableRecord
100
AcDbTextStyleTableRecord
  2
SLDTEXTSTYLE1
 70
     0
 40
0.0
 41
0.6473684211
 50
0.0
 71
     0
 42
0.2
  3
TXT
  4

  0
ENDTAB
  0
TABLE
  2
VIEW
  5
6
330
0
100
AcDbSymbolTable
 70
     0
  0
ENDTAB
  0
TABLE
  2
UCS
  5
7
330
0
100
AcDbSymbolTable
 70
     0
  0
ENDTAB
  0
TABLE
  2
APPID
  5
9
330
0
100
AcDbSymbolTable
 70
     1
  0
APPID
  5
12
330
9
100
AcDbSymbolTableRecord
100
AcDbRegAppTableRecord
  2
ACAD
 70
     0
  0
ENDTAB
  0
TABLE
  2
DIMSTYLE
  5
A
330
0
100
AcDbSymbolTable
 70
     5
100
AcDbDimStyleTable
  0
DIMSTYLE
105
27
330
A
100
AcDbSymbolTableRecord
100
AcDbDimStyleTableRecord
  2
ISO-25
 70
     0
 41
2.5
 42
0.625
 43
3.75
 44
1.25
 73
     0
 74
     0
 77
     1
 78
     8
140
2.5
141
2.5
143
0.0393700787
147
0.625
171
     3
172
     1
271
     2
272
     2
274
     3
278
    44
283
     0
284
     8
340
11
  0
DIMSTYLE
105
15B
102
{ACAD_REACTORS
330
15A
330
197
330
1A1
330
1AB
102
}
330
A
100
AcDbSymbolTableRecord
100
AcDbDimStyleTableRecord
  2
SLDDIMSTYLE0
 70
     0
 41
3.0
 44
0.0
 45
0.000000001
 73
     0
 74
     0
 77
     1
 78
    12
140
2.0
147
0.5
173
     1
271
     2
272
     3
284
    12
340
44
  0
DIMSTYLE
105
168
102
{ACAD_REACTORS
330
167
102
}
330
A
100
AcDbSymbolTableRecord
100
AcDbDimStyleTableRecord
  2
SLDDIMSTYLE1
 70
     0
 41
3.0
 44
0.0
 45
0.000000001
 73
     0
 74
     0
 77
     1
 78
    12
140
2.0
147
0.5
173
     1
271
     2
272
     2
284
    12
340
44
  0
DIMSTYLE
105
173
102
{ACAD_REACTORS
330
172
102
}
330
A
100
AcDbSymbolTableRecord
100
AcDbDimStyleTableRecord
  2
SLDDIMSTYLE2
 70
     0
 41
3.0
 44
0.0
 45
0.000000001
 73
     0
 74
     0
 77
     1
 78
    12
140
2.0
147
0.5
173
     1
271
     2
272
     2
284
    12
340
44
  0
DIMSTYLE
105
181
102
{ACAD_REACTORS
330
180
330
18C
102
}
330
A
100
AcDbSymbolTableRecord
100
AcDbDimStyleTableRecord
  2
SLDDIMSTYLE3
 70
     0
 41
3.0
 44
0.0
 45
0.000000001
 73
     0
 74
     0
 77
     1
 78
    12
140
2.0
147
0.5
173
     1
271
     2
272
     3
284
    12
340
44
  0
ENDTAB
  0
TABLE
  2
BLOCK_RECORD
  5
1
330
0
100
AcDbSymbolTable
 70
     9
  0
BLOCK_RECORD
  5
1F
330
1
100
AcDbSymbolTableRecord
100
AcDbBlockTableRecord
  2
*Model_Space
340
22
  0
BLOCK_RECORD
  5
1B
330
1
100
AcDbSymbolTableRecord
100
AcDbBlockTableRecord
  2
*Paper_Space
340
1E
  0
BLOCK_RECORD
  5
23
330
1
100
AcDbSymbolTableRecord
100
AcDbBlockTableRecord
  2
*Paper_Space0
340
26
  0
BLOCK_RECORD
  5
15C
330
1
100
AcDbSymbolTableRecord
100
AcDbBlockTableRecord
  2
*D1
340
0
  0
BLOCK_RECORD
  5
169
330
1
100
AcDbSymbolTableRecord
100
AcDbBlockTableRecord
  2
*D2
340
0
  0
BLOCK_RECORD
  5
174
330
1
100
AcDbSymbolTableRecord
100
AcDbBlockTableRecord
  2
*D3
340
0
  0
BLOCK_RECORD
  5
182
330
1
100
AcDbSymbolTableRecord
100
AcDbBlockTableRecord
  2
*D4
340
0
  0
BLOCK_RECORD
  5
18D
330
1
100
AcDbSymbolTableRecord
100
AcDbBlockTableRecord
  2
*D5
340
0
  0
BLOCK_RECORD
  5
198
330
1
100
AcDbSymbolTableRecord
100
AcDbBlockTableRecord
  2
*D6
340
0
  0
BLOCK_RECORD
  5
1A2
330
1
100
AcDbSymbolTableRecord
100
AcDbBlockTableRecord
  2
*D7
340
0
  0
BLOCK_RECORD
  5
1AC
330
1
100
AcDbSymbolTableRecord
100
AcDbBlockTableRecord
  2
*D8
340
0
  0
ENDTAB
  0
ENDSEC
  0
SECTION
  2
BLOCKS
  0
BLOCK
  5
20
330
1F
100
AcDbEntity
  8
0
100
AcDbBlockBegin
  2
*Model_Space
 70
     0
 10
0.0
 20
0.0
 30
0.0
  3
*Model_Space
  1

  0
ENDBLK
  5
21
330
1F
100
AcDbEntity
  8
0
100
AcDbBlockEnd
  0
BLOCK
  5
1C
330
1B
100
AcDbEntity
 67
     1
  8
0
100
AcDbBlockBegin
  2
*Paper_Space
 70
     0
 10
0.0
 20
0.0
 30
0.0
  3
*Paper_Space
  1

  0
ENDBLK
  5
1D
330
1B
100
AcDbEntity
 67
     1
  8
0
100
AcDbBlockEnd
  0
BLOCK
  5
24
330
23
100
AcDbEntity
  8
0
100
AcDbBlockBegin
  2
*Paper_Space0
 70
     0
 10
0.0
 20
0.0
 30
0.0
  3
*Paper_Space0
  1

  0
ENDBLK
  5
25
330
23
100
AcDbEntity
  8
0
100
AcDbBlockEnd
  0
BLOCK
  5
15D
330
15C
100
AcDbEntity
  8
0
100
AcDbBlockBegin
  2
*D1
 70
     1
 10
0.0
 20
0.0
 30
0.0
  3
*D1
  1

  0
SOLID
  5
15F
330
15C
100
AcDbEntity
  8
VERMASSUNG
100
AcDbTrace
 10
88.3940411701
 20
140.3291440953
 30
0.0
 11
87.9440411701
 21
137.3291440953
 31
0.0
 12
88.8440411701
 22
137.3291440953
 32
0.0
 13
88.8440411701
 23
137.3291440953
 33
0.0
  0
SOLID
  5
160
330
15C
100
AcDbEntity
  8
VERMASSUNG
100
AcDbTrace
 10
88.3940411701
 20
77.3291440953
 30
0.0
 11
88.8440411701
 21
80.3291440953
 31
0.0
 12
87.9440411701
 22
80.3291440953
 32
0.0
 13
87.9440411701
 23
80.3291440953
 33
0.0
  0
LINE
  5
161
330
15C
100
AcDbEntity
  8
VERMASSUNG
100
AcDbLine
 10
124.8226519212
 20
140.3291440953
 30
0.0
 11
87.3940411701
 21
140.3291440953
 31
0.0
  0
LINE
  5
162
330
15C
100
AcDbEntity
  8
VERMASSUNG
100
AcDbLine
 10
124.8226519212
 20
77.3291440953
 30
0.0
 11
87.3940411701
 21
77.3291440953
 31
0.0
  0
LINE
  5
163
330
15C
100
AcDbEntity
  8
VERMASSUNG
100
AcDbLine
 10
88.3940411701
 20
140.3291440953
 30
0.0
 11
88.3940411701
 21
77.3291440953
 31
0.0
  0
MTEXT
  5
164
330
15C
100
AcDbEntity
  8
VERMASSUNG
100
AcDbMText
 10
85.6159056811
 20
101.1256023835
 30
0.0
 40
2.0
 41
0.0
 71
     1
 72
     1
  1
HSK A 
  7
SLDTEXTSTYLE0
 11
-7.044195017643634E-15
 21
1.0
 31
0.0
 73
     1
 44
1.0
  0
MTEXT
  5
165
330
15C
100
AcDbEntity
  8
VERMASSUNG
100
AcDbMText
 10
85.8159056906
 20
110.1256029274
 30
0.0
 40
2.0
 41
0.0
 71
     1
 72
     1
  1
%%c
  7
SLDTEXTSTYLE0
 11
-7.044195017643634E-15
 21
1.0
 31
0.0
 73
     1
 44
1.0
  0
MTEXT
  5
166
330
15C
100
AcDbEntity
  8
VERMASSUNG
100
AcDbMText
 10
85.815905807
 20
113.7339295775
 30
0.0
 40
2.0
 41
0.0
 71
     1
 72
     1
  1
63
  7
SLDTEXTSTYLE0
 11
-7.044195017643634E-15
 21
1.0
 31
0.0
 73
     1
 44
1.0
  0
ENDBLK
  5
15E
330
15C
100
AcDbEntity
  8
0
100
AcDbBlockEnd
  0
BLOCK
  5
16A
330
169
100
AcDbEntity
  8
0
100
AcDbBlockBegin
  2
*D2
 70
     1
 10
0.0
 20
0.0
 30
0.0
  3
*D2
  1

  0
SOLID
  5
16C
330
169
100
AcDbEntity
  8
VERMASSUNG
100
AcDbTrace
 10
168.0226519212
 20
142.0150595883
 30
0.0
 11
171.0226519212
 21
141.5650595883
 31
0.0
 12
171.0226519212
 22
142.4650595883
 32
0.0
 13
171.0226519212
 23
142.4650595883
 33
0.0
  0
SOLID
  5
16D
330
169
100
AcDbEntity
  8
VERMASSUNG
100
AcDbTrace
 10
204.5226519212
 20
142.0150595883
 30
0.0
 11
201.5226519212
 21
142.4650595883
 31
0.0
 12
201.5226519212
 22
141.5650595883
 32
0.0
 13
201.5226519212
 23
141.5650595883
 33
0.0
  0
LINE
  5
16E
330
169
100
AcDbEntity
  8
VERMASSUNG
100
AcDbLine
 10
168.0226519212
 20
111.7291440953
 30
0.0
 11
168.0226519212
 21
143.0150595883
 31
0.0
  0
LINE
  5
16F
330
169
100
AcDbEntity
  8
VERMASSUNG
100
AcDbLine
 10
204.5226519212
 20
117.480363112
 30
0.0
 11
204.5226519212
 21
143.0150595883
 31
0.0
  0
LINE
  5
170
330
169
100
AcDbEntity
  8
VERMASSUNG
100
AcDbLine
 10
168.0226519212
 20
142.0150595883
 30
0.0
 11
204.5226519212
 21
142.0150595883
 31
0.0
  0
MTEXT
  5
171
330
169
100
AcDbEntity
  8
VERMASSUNG
100
AcDbMText
 10
183.8730549548
 20
144.5931949514
 30
0.0
 40
2.0
 41
0.0
 71
     1
 72
     1
  1
36.5
  7
SLDTEXTSTYLE0
 73
     1
 44
1.0
  0
ENDBLK
  5
16B
330
169
100
AcDbEntity
  8
0
100
AcDbBlockEnd
  0
BLOCK
  5
175
330
174
100
AcDbEntity
  8
0
100
AcDbBlockBegin
  2
*D3
 70
     1
 10
0.0
 20
0.0
 30
0.0
  3
*D3
  1

  0
SOLID
  5
177
330
174
100
AcDbEntity
  8
VERMASSUNG
100
AcDbTrace
 10
210.6945828819
 20
105.8291440953
 30
0.0
 11
210.2445828819
 21
102.8291440953
 31
0.0
 12
211.1445828819
 22
102.8291440953
 32
0.0
 13
211.1445828819
 23
102.8291440953
 33
0.0
  0
SOLID
  5
178
330
174
100
AcDbEntity
  8
VERMASSUNG
100
AcDbTrace
 10
210.6945828819
 20
111.8291440953
 30
0.0
 11
211.1445828819
 21
114.8291440953
 31
0.0
 12
210.2445828819
 22
114.8291440953
 32
0.0
 13
210.2445828819
 23
114.8291440953
 33
0.0
  0
LINE
  5
179
330
174
100
AcDbEntity
  8
VERMASSUNG
100
AcDbLine
 10
201.0226519212
 20
105.8291440953
 30
0.0
 11
211.6945828819
 21
105.8291440953
 31
0.0
  0
LINE
  5
17A
330
174
100
AcDbEntity
  8
VERMASSUNG
100
AcDbLine
 10
201.0226519212
 20
111.8291440953
 30
0.0
 11
211.6945828819
 21
111.8291440953
 31
0.0
  0
LINE
  5
17B
330
174
100
AcDbEntity
  8
VERMASSUNG
100
AcDbLine
 10
210.6945828819
 20
105.8291440953
 30
0.0
 11
210.6945828819
 21
99.8291440953
 31
0.0
  0
LINE
  5
17C
330
174
100
AcDbEntity
  8
VERMASSUNG
100
AcDbLine
 10
210.6945828819
 20
105.8291440953
 30
0.0
 11
210.6945828819
 21
111.8291440953
 31
0.0
  0
LINE
  5
17D
330
174
100
AcDbEntity
  8
VERMASSUNG
100
AcDbLine
 10
210.6945828819
 20
111.8291440953
 30
0.0
 11
210.6945828819
 21
117.8291440953
 31
0.0
  0
MTEXT
  5
17E
330
174
100
AcDbEntity
  8
VERMASSUNG
100
AcDbMText
 10
208.1164474024
 20
106.3251159263
 30
0.0
 40
2.0
 41
0.0
 71
     1
 72
     1
  1
%%c
  7
SLDTEXTSTYLE0
 11
6.123233995736766E-17
 21
1.0
 31
0.0
 73
     1
 44
1.0
  0
MTEXT
  5
17F
330
174
100
AcDbEntity
  8
VERMASSUNG
100
AcDbMText
 10
208.1164475188
 20
109.9337941495
 30
0.0
 40
2.0
 41
0.0
 71
     1
 72
     1
  1
6
  7
SLDTEXTSTYLE0
 11
6.123233995736766E-17
 21
1.0
 31
0.0
 73
     1
 44
1.0
  0
ENDBLK
  5
176
330
174
100
AcDbEntity
  8
0
100
AcDbBlockEnd
  0
BLOCK
  5
183
330
182
100
AcDbEntity
  8
0
100
AcDbBlockBegin
  2
*D4
 70
     1
 10
0.0
 20
0.0
 30
0.0
  3
*D4
  1

  0
SOLID
  5
185
330
182
100
AcDbEntity
  8
VERMASSUNG
100
AcDbTrace
 10
216.6945828819
 20
98.3291440953
 30
0.0
 11
217.1445828819
 21
101.3291440953
 31
0.0
 12
216.2445828819
 22
101.3291440953
 32
0.0
 13
216.2445828819
 23
101.3291440953
 33
0.0
  0
SOLID
  5
186
330
182
100
AcDbEntity
  8
VERMASSUNG
100
AcDbTrace
 10
216.6945828819
 20
119.3291440953
 30
0.0
 11
216.2445828819
 21
116.3291440953
 31
0.0
 12
217.1445828819
 22
116.3291440953
 32
0.0
 13
217.1445828819
 23
116.3291440953
 33
0.0
  0
LINE
  5
187
330
182
100
AcDbEntity
  8
VERMASSUNG
100
AcDbLine
 10
204.5226519212
 20
98.3291440953
 30
0.0
 11
217.6945828819
 21
98.3291440953
 31
0.0
  0
LINE
  5
188
330
182
100
AcDbEntity
  8
VERMASSUNG
100
AcDbLine
 10
204.5226519212
 20
119.3291440953
 30
0.0
 11
217.6945828819
 21
119.3291440953
 31
0.0
  0
LINE
  5
189
330
182
100
AcDbEntity
  8
VERMASSUNG
100
AcDbLine
 10
216.6945828819
 20
98.3291440953
 30
0.0
 11
216.6945828819
 21
119.3291440953
 31
0.0
  0
MTEXT
  5
18A
330
182
100
AcDbEntity
  8
VERMASSUNG
100
AcDbMText
 10
214.1164474024
 20
105.8250065005
 30
0.0
 40
2.0
 41
0.0
 71
     1
 72
     1
  1
%%c
  7
SLDTEXTSTYLE0
 11
6.123233995736766E-17
 21
1.0
 31
0.0
 73
     1
 44
1.0
  0
MTEXT
  5
18B
330
182
100
AcDbEntity
  8
VERMASSUNG
100
AcDbMText
 10
214.1164475188
 20
109.4336847237
 30
0.0
 40
2.0
 41
0.0
 71
     1
 72
     1
  1
21
  7
SLDTEXTSTYLE0
 11
6.123233995736766E-17
 21
1.0
 31
0.0
 73
     1
 44
1.0
  0
ENDBLK
  5
184
330
182
100
AcDbEntity
  8
0
100
AcDbBlockEnd
  0
BLOCK
  5
18E
330
18D
100
AcDbEntity
  8
0
100
AcDbBlockBegin
  2
*D5
 70
     1
 10
0.0
 20
0.0
 30
0.0
  3
*D5
  1

  0
SOLID
  5
190
330
18D
100
AcDbEntity
  8
VERMASSUNG
100
AcDbTrace
 10
222.6945828819
 20
95.8291440953
 30
0.0
 11
223.1445828819
 21
98.8291440953
 31
0.0
 12
222.2445828819
 22
98.8291440953
 32
0.0
 13
222.2445828819
 23
98.8291440953
 33
0.0
  0
SOLID
  5
191
330
18D
100
AcDbEntity
  8
VERMASSUNG
100
AcDbTrace
 10
222.6945828819
 20
121.8291440953
 30
0.0
 11
222.2445828819
 21
118.8291440953
 31
0.0
 12
223.1445828819
 22
118.8291440953
 32
0.0
 13
223.1445828819
 23
118.8291440953
 33
0.0
  0
LINE
  5
192
330
18D
100
AcDbEntity
  8
VERMASSUNG
100
AcDbLine
 10
153.4726519212
 20
95.8291440953
 30
0.0
 11
223.6945828819
 21
95.8291440953
 31
0.0
  0
LINE
  5
193
330
18D
100
AcDbEntity
  8
VERMASSUNG
100
AcDbLine
 10
153.4726519212
 20
121.8291440953
 30
0.0
 11
223.6945828819
 21
121.8291440953
 31
0.0
  0
LINE
  5
194
330
18D
100
AcDbEntity
  8
VERMASSUNG
100
AcDbLine
 10
222.6945828819
 20
95.8291440953
 30
0.0
 11
222.6945828819
 21
121.8291440953
 31
0.0
  0
MTEXT
  5
195
330
18D
100
AcDbEntity
  8
VERMASSUNG
100
AcDbMText
 10
220.1164474024
 20
105.6254268689
 30
0.0
 40
2.0
 41
0.0
 71
     1
 72
     1
  1
%%c
  7
SLDTEXTSTYLE0
 11
6.123233995736766E-17
 21
1.0
 31
0.0
 73
     1
 44
1.0
  0
MTEXT
  5
196
330
18D
100
AcDbEntity
  8
VERMASSUNG
100
AcDbMText
 10
220.1164475188
 20
109.2341050921
 30
0.0
 40
2.0
 41
0.0
 71
     1
 72
     1
  1
26
  7
SLDTEXTSTYLE0
 11
6.123233995736766E-17
 21
1.0
 31
0.0
 73
     1
 44
1.0
  0
ENDBLK
  5
18F
330
18D
100
AcDbEntity
  8
0
100
AcDbBlockEnd
  0
BLOCK
  5
199
330
198
100
AcDbEntity
  8
0
100
AcDbBlockBegin
  2
*D6
 70
     1
 10
0.0
 20
0.0
 30
0.0
  3
*D6
  1

  0
SOLID
  5
19B
330
198
100
AcDbEntity
  8
VERMASSUNG
100
AcDbTrace
 10
204.5226519212
 20
154.0150595883
 30
0.0
 11
201.5226519212
 21
154.4650595883
 31
0.0
 12
201.5226519212
 22
153.5650595883
 32
0.0
 13
201.5226519212
 23
153.5650595883
 33
0.0
  0
SOLID
  5
19C
330
198
100
AcDbEntity
  8
VERMASSUNG
100
AcDbTrace
 10
124.5226519212
 20
154.0150595883
 30
0.0
 11
127.5226519212
 21
153.5650595883
 31
0.0
 12
127.5226519212
 22
154.4650595883
 32
0.0
 13
127.5226519212
 23
154.4650595883
 33
0.0
  0
LINE
  5
19D
330
198
100
AcDbEntity
  8
VERMASSUNG
100
AcDbLine
 10
204.5226519212
 20
117.480363112
 30
0.0
 11
204.5226519212
 21
155.0150595883
 31
0.0
  0
LINE
  5
19E
330
198
100
AcDbEntity
  8
VERMASSUNG
100
AcDbLine
 10
124.5226519212
 20
140.0291440953
 30
0.0
 11
124.5226519212
 21
155.0150595883
 31
0.0
  0
LINE
  5
19F
330
198
100
AcDbEntity
  8
VERMASSUNG
100
AcDbLine
 10
204.5226519212
 20
154.0150595883
 30
0.0
 11
124.5226519212
 21
154.0150595883
 31
0.0
  0
MTEXT
  5
1A0
330
198
100
AcDbEntity
  8
VERMASSUNG
100
AcDbMText
 10
163.1232738063
 20
156.5931949514
 30
0.0
 40
2.0
 41
0.0
 71
     1
 72
     1
  1
80
  7
SLDTEXTSTYLE0
 73
     1
 44
1.0
  0
ENDBLK
  5
19A
330
198
100
AcDbEntity
  8
0
100
AcDbBlockEnd
  0
BLOCK
  5
1A3
330
1A2
100
AcDbEntity
  8
0
100
AcDbBlockBegin
  2
*D7
 70
     1
 10
0.0
 20
0.0
 30
0.0
  3
*D7
  1

  0
SOLID
  5
1A5
330
1A2
100
AcDbEntity
  8
VERMASSUNG
100
AcDbTrace
 10
150.4726519212
 20
148.0150595883
 30
0.0
 11
153.4726519212
 21
147.5650595883
 31
0.0
 12
153.4726519212
 22
148.4650595883
 32
0.0
 13
153.4726519212
 23
148.4650595883
 33
0.0
  0
SOLID
  5
1A6
330
1A2
100
AcDbEntity
  8
VERMASSUNG
100
AcDbTrace
 10
204.5226519212
 20
148.0150595883
 30
0.0
 11
201.5226519212
 21
148.4650595883
 31
0.0
 12
201.5226519212
 22
147.5650595883
 32
0.0
 13
201.5226519212
 23
147.5650595883
 33
0.0
  0
LINE
  5
1A7
330
1A2
100
AcDbEntity
  8
VERMASSUNG
100
AcDbLine
 10
150.4726519212
 20
138.6755844191
 30
0.0
 11
150.4726519212
 21
149.0150595883
 31
0.0
  0
LINE
  5
1A8
330
1A2
100
AcDbEntity
  8
VERMASSUNG
100
AcDbLine
 10
204.5226519212
 20
117.480363112
 30
0.0
 11
204.5226519212
 21
149.0150595883
 31
0.0
  0
LINE
  5
1A9
330
1A2
100
AcDbEntity
  8
VERMASSUNG
100
AcDbLine
 10
150.4726519212
 20
148.0150595883
 30
0.0
 11
204.5226519212
 21
148.0150595883
 31
0.0
  0
MTEXT
  5
1AA
330
1A2
100
AcDbEntity
  8
VERMASSUNG
100
AcDbMText
 10
174.2985760815
 20
150.5931949514
 30
0.0
 40
2.0
 41
0.0
 71
     1
 72
     1
  1
54.05
  7
SLDTEXTSTYLE0
 73
     1
 44
1.0
  0
ENDBLK
  5
1A4
330
1A2
100
AcDbEntity
  8
0
100
AcDbBlockEnd
  0
BLOCK
  5
1AD
330
1AC
100
AcDbEntity
  8
0
100
AcDbBlockBegin
  2
*D8
 70
     1
 10
0.0
 20
0.0
 30
0.0
  3
*D8
  1

  0
SOLID
  5
1AF
330
1AC
100
AcDbEntity
  8
VERMASSUNG
100
AcDbTrace
 10
204.5226519212
 20
160.0150595883
 30
0.0
 11
201.5226519212
 21
160.4650595883
 31
0.0
 12
201.5226519212
 22
159.5650595883
 32
0.0
 13
201.5226519212
 23
159.5650595883
 33
0.0
  0
SOLID
  5
1B0
330
1AC
100
AcDbEntity
  8
VERMASSUNG
100
AcDbTrace
 10
92.6226519212
 20
160.0150595883
 30
0.0
 11
95.6226519212
 21
159.5650595883
 31
0.0
 12
95.6226519212
 22
160.4650595883
 32
0.0
 13
95.6226519212
 23
160.4650595883
 33
0.0
  0
LINE
  5
1B1
330
1AC
100
AcDbEntity
  8
VERMASSUNG
100
AcDbLine
 10
204.5226519212
 20
117.480363112
 30
0.0
 11
204.5226519212
 21
161.0150595883
 31
0.0
  0
LINE
  5
1B2
330
1AC
100
AcDbEntity
  8
VERMASSUNG
100
AcDbLine
 10
92.6226519212
 20
128.5198218418
 30
0.0
 11
92.6226519212
 21
161.0150595883
 31
0.0
  0
LINE
  5
1B3
330
1AC
100
AcDbEntity
  8
VERMASSUNG
100
AcDbLine
 10
204.5226519212
 20
160.0150595883
 30
0.0
 11
92.6226519212
 21
160.0150595883
 31
0.0
  0
MTEXT
  5
1B4
330
1AC
100
AcDbEntity
  8
VERMASSUNG
100
AcDbMText
 10
146.0732651389
 20
162.5931949514
 30
0.0
 40
2.0
 41
0.0
 71
     1
 72
     1
  1
111.9
  7
SLDTEXTSTYLE0
 73
     1
 44
1.0
  0
ENDBLK
  5
1AE
330
1AC
100
AcDbEntity
  8
0
100
AcDbBlockEnd
  0
ENDSEC
  0
SECTION
  2
ENTITIES
  0
MTEXT
  5
45
330
1F
100
AcDbEntity
  8
KOPF_DÜNN
100
AcDbMText
 10
13.8892156294
 20
23.8442973028
 30
0.0
 40
3.0
 41
0.0
 71
     1
 72
     1
  1
HA6.S06.K01.080
  7
SLDTEXTSTYLE0
 73
     1
 44
1.0
  0
MTEXT
  5
46
330
1F
100
AcDbEntity
  8
VERMASSUNG
100
AcDbMText
 10
13.9329988022
 20
28.8834360957
 30
0.0
 40
3.0
 41
0.0
 71
     1
 72
     1
  1
Schrumpffutter_Heat shrink chuck
  7
SLDTEXTSTYLE0
 73
     1
 44
1.0
  0
MTEXT
  5
47
330
1F
100
AcDbEntity
  8
VERMASSUNG
100
AcDbMText
 10
98.8601118557
 20
13.8365368179
 30
0.0
 40
2.0
 41
0.0
 71
     1
 72
     1
  1
Datum: 27.04.2011
  7
SLDTEXTSTYLE0
 73
     1
 44
1.0
  0
MTEXT
  5
49
330
1F
100
AcDbEntity
  8
VERMASSUNG
100
AcDbMText
 10
13.933048693
 20
18.0482802738
 30
0.0
 40
2.0
 41
0.0
 71
     1
 72
     1
  1
DIN 69 893 HSK A 63
  7
SLDTEXTSTYLE1
 73
     1
 44
1.0
  0
MTEXT
  5
4A
330
1F
100
AcDbEntity
  8
VERMASSUNG
100
AcDbMText
 10
13.9808475933
 20
13.9090973692
 30
0.0
 40
2.0
 41
0.0
 71
     1
 72
     1
  1
Gewicht: 827g
  7
SLDTEXTSTYLE0
 73
     1
 44
1.0
  0
LINE
  5
4B
330
1F
100
AcDbEntity
  8
0
  6
Continuous
 62
     7
370
    15
100
AcDbLine
 10
124.8226519212
 20
77.3291440953
 30
0.0
 11
129.4726519212
 21
77.3291440953
 31
0.0
  0
LINE
  5
4C
330
1F
100
AcDbEntity
  8
0
  6
Continuous
 62
     7
370
    15
100
AcDbLine
 10
129.5006402803
 20
140.3291440953
 30
0.0
 11
124.8226519212
 21
140.3291440953
 31
0.0
  0
ARC
  5
4D
330
1F
100
AcDbEntity
  8
0
  6
Continuous
 62
     7
370
    15
100
AcDbCircle
 10
124.8226519212
 20
77.6291440953
 30
0.0
 40
0.3000000000000114
100
AcDbArc
 50
180.0
 51
270.0
  0
ARC
  5
4E
330
1F
100
AcDbEntity
  8
0
  6
Continuous
 62
     7
370
    15
100
AcDbCircle
 10
124.8226519212
 20
140.0291440953
 30
0.0
 40
0.3000000000000114
100
AcDbArc
 50
90.0
 51
180.0
  0
ARC
  5
4F
330
1F
100
AcDbEntity
  8
0
  6
Continuous
 62
     7
370
    15
100
AcDbCircle
 10
124.0226451685
 20
84.258706481
 30
0.0
 40
0.6000067526677242
100
AcDbArc
 50
33.5571153394
 51
90.0
  0
ARC
  5
50
330
1F
100
AcDbEntity
  8
0
  6
Continuous
 62
     7
370
    15
100
AcDbCircle
 10
124.0226451685
 20
133.3995817097
 30
0.0
 40
0.6000067526677164
100
AcDbArc
 50
270.0
 51
326.4428846606
  0
LINE
  5
51
330
1F
100
AcDbEntity
  8
0
  6
Continuous
 62
     7
370
    15
100
AcDbLine
 10
111.2911431223
 20
132.4868741154
 30
0.0
 11
98.7226519212
 21
131.8571901875
 31
0.0
  0
LINE
  5
52
330
1F
100
AcDbEntity
  8
0
  6
Continuous
 62
     7
370
    15
100
AcDbLine
 10
122.5226519212
 20
133.0495749571
 30
0.0
 11
119.7056502638
 21
132.9084426095
 31
0.0
  0
LINE
  5
53
330
1F
100
AcDbEntity
  8
0
  6
Continuous
 62
     7
370
    15
100
AcDbLine
 10
119.7057063539
 20
84.7498427711
 30
0.0
 11
122.5226519212
 21
84.6087132336
 31
0.0
  0
LINE
  5
54
330
1F
100
AcDbEntity
  8
0
  6
Continuous
 62
     7
370
    15
100
AcDbLine
 10
102.7226519212
 20
85.6006972016
 30
0.0
 11
111.291545641
 21
85.171393909
 31
0.0
  0
LINE
  5
55
330
1F
100
AcDbEntity
  8
0
  6
Continuous
 62
     7
370
    15
100
AcDbLine
 10
122.5226519212
 20
84.6087132336
 30
0.0
 11
123.3793646946
 21
84.8382687294
 31
0.0
  0
LINE
  5
56
330
1F
100
AcDbEntity
  8
0
  6
Continuous
 62
     7
370
    15
100
AcDbLine
 10
123.3793646946
 20
132.8200194613
 30
0.0
 11
122.5226519212
 21
133.0495749571
 31
0.0
  0
ARC
  5
57
330
1F
100
AcDbEntity
  8
0
  6
Continuous
 62
     7
370
    15
100
AcDbCircle
 10
123.5346561216
 20
84.2587132336
 30
0.0
 40
0.6000000000000109
100
AcDbArc
 50
90.0
 51
105.0
  0
ARC
  5
58
330
1F
100
AcDbEntity
  8
0
  6
Continuous
 62
     7
370
    15
100
AcDbCircle
 10
123.5346561216
 20
133.3995749571
 30
0.0
 40
0.6000000000000245
100
AcDbArc
 50
255.0
 51
270.0
  0
LINE
  5
59
330
1F
100
AcDbEntity
  8
0
  6
Continuous
 62
     7
370
    15
100
AcDbLine
 10
123.5346561216
 20
84.8587132336
 30
0.0
 11
124.0226451685
 21
84.8587132336
 31
0.0
  0
LINE
  5
5A
330
1F
100
AcDbEntity
  8
0
  6
Continuous
 62
     7
370
    15
100
AcDbLine
 10
124.0226451685
 20
132.7995749571
 30
0.0
 11
123.5346561216
 21
132.7995749571
 31
0.0
  0
ARC
  5
5B
330
1F
100
AcDbEntity
  8
0
  6
Continuous
 62
     7
370
    15
100
AcDbCircle
 10
153.4726519212
 20
92.8291440953
 30
0.0
 40
3.0
100
AcDbArc
 50
90.0
 51
180.0
  0
ARC
  5
5C
330
1F
100
AcDbEntity
  8
0
  6
Continuous
 62
     7
370
    15
100
AcDbCircle
 10
153.4726519212
 20
124.8291440953
 30
0.0
 40
3.0
100
AcDbArc
 50
180.0
 51
270.0
  0
LINE
  5
5D
330
1F
100
AcDbEntity
  8
0
  6
Continuous
 62
     7
370
    15
100
AcDbLine
 10
153.4726519212
 20
95.8291440953
 30
0.0
 11
172.7571400807
 21
95.8291440953
 31
0.0
  0
LINE
  5
5E
330
1F
100
AcDbEntity
  8
0
  6
Continuous
 62
     7
370
    15
100
AcDbLine
 10
172.7571400807
 20
121.8291440953
 30
0.0
 11
153.4726519212
 21
121.8291440953
 31
0.0
  0
LINE
  5
5F
330
1F
100
AcDbEntity
  8
0
  6
Continuous
 62
     7
370
    15
100
AcDbLine
 10
172.7571400807
 20
95.8291440953
 30
0.0
 11
202.6795701126
 21
98.1840904112
 31
0.0
  0
LINE
  5
60
330
1F
100
AcDbEntity
  8
0
  6
Continuous
 62
     7
370
    15
100
AcDbLine
 10
202.6795701126
 20
119.4741977795
 30
0.0
 11
172.7571400807
 21
121.8291440953
 31
0.0
  0
LINE
  5
61
330
1F
100
AcDbEntity
  8
0
  6
Continuous
 62
     7
370
    15
100
AcDbLine
 10
93.9059885612
 20
87.9591440953
 30
0.0
 11
101.3226519212
 21
87.9591440953
 31
0.0
  0
ARC
  5
62
330
1F
100
AcDbEntity
  8
0
  6
Continuous
 62
     7
370
    15
100
AcDbCircle
 10
202.5226519212
 20
100.1779250787
 30
0.0
 40
1.999999999999988
100
AcDbArc
 50
274.5
 51
0.0
  0
ARC
  5
63
330
1F
100
AcDbEntity
  8
0
  6
Continuous
 62
     7
370
    15
100
AcDbCircle
 10
202.5226519212
 20
117.480363112
 30
0.0
 40
2.000000000000002
100
AcDbArc
 50
0.0
 51
85.5
  0
ARC
  5
64
330
1F
100
AcDbEntity
  8
0
  6
Continuous
 62
     7
370
    15
100
AcDbCircle
 10
101.3226519212
 20
86.5591440953
 30
0.0
 40
1.399999999999995
100
AcDbArc
 50
42.2210104152
 51
90.0
  0
LINE
  5
65
330
1F
100
AcDbEntity
  8
0
  6
Continuous
 62
     7
370
    15
100
AcDbLine
 10
92.6338123563
 20
89.0979836602
 30
0.0
 11
93.7638153794
 21
87.9679806372
 31
0.0
  0
LINE
  5
66
330
1F
100
AcDbEntity
  8
0
  6
Continuous
 62
     7
370
    15
100
AcDbLine
 10
93.7638153794
 20
129.6903075535
 30
0.0
 11
92.6325526945
 21
128.5590448687
 31
0.0
  0
ARC
  5
67
330
1F
100
AcDbEntity
  8
0
  6
Continuous
 62
     7
370
    15
100
AcDbCircle
 10
97.3226519212
 20
131.0991440953
 30
0.0
 40
1.400000000000008
100
AcDbArc
 50
270.0
 51
301.7485287426
  0
LINE
  5
68
330
1F
100
AcDbEntity
  8
0
  6
Continuous
 62
     7
370
    15
100
AcDbLine
 10
97.3226519212
 20
129.6991440953
 30
0.0
 11
93.8969176551
 21
129.6991440953
 31
0.0
  0
LINE
  5
69
330
1F
100
AcDbEntity
  8
0
  6
Continuous
 62
     7
370
    15
100
AcDbLine
 10
149.8726519212
 20
78.6422263991
 30
0.0
 11
145.9145847527
 21
78.6422263991
 31
0.0
  0
LINE
  5
6A
330
1F
100
AcDbEntity
  8
0
  6
Continuous
 62
     7
370
    15
100
AcDbLine
 10
145.9145847527
 20
78.6422263991
 30
0.0
 11
145.9145847527
 21
128.6791440953
 31
0.0
  0
LINE
  5
6B
330
1F
100
AcDbEntity
  8
0
  6
Continuous
 62
     7
370
    15
100
AcDbLine
 10
145.9145847527
 20
128.6791440953
 30
0.0
 11
149.8726519212
 21
128.6791440953
 31
0.0
  0
LINE
  5
6C
330
1F
100
AcDbEntity
  8
0
  6
Continuous
 62
     7
370
    15
100
AcDbLine
 10
150.4726519212
 20
79.2688666947
 30
0.0
 11
150.4726519212
 21
128.6791440953
 31
0.0
  0
SPLINE
  5
6D
330
1F
100
AcDbEntity
  8
0
  6
Continuous
 62
     7
370
    15
100
AcDbSpline
210
0.0
220
0.0
230
1.0
 70
     8
 71
     3
 72
    10
 73
     6
 74
     0
 42
0.00000001
 43
0.00000001
 40
0.0
 40
0.0
 40
0.0
 40
0.0
 40
0.5
 40
0.5
 40
1.0
 40
1.0
 40
1.0
 40
1.0
 10
150.4726519211707
 20
79.26886669474847
 30
0.0
 10
150.4726519211707
 20
79.10897942655481
 30
0.0
 10
150.4113422699349
 20
78.94785217104021
 30
0.0
 10
150.1922426323998
 20
78.71375317268537
 30
0.0
 10
150.0341944260863
 20
78.64222639909416
 30
0.0
 10
149.8726519211707
 20
78.64222639909416
 30
0.0
  0
SPLINE
  5
6E
330
1F
100
AcDbEntity
  8
0
  6
Continuous
 62
     7
370
    15
100
AcDbSpline
210
0.0
220
0.0
230
1.0
 70
    24
 71
     3
 72
    12
 73
     8
 74
     0
 42
0.00000001
 43
0.00000001
 40
0.0
 40
0.0
 40
0.0
 40
0.0
 40
0.2500000000000033
 40
0.2500000000000033
 40
0.5000000000000067
 40
0.5000000000000067
 40
1.0
 40
1.0
 40
1.0
 40
1.0
 10
149.8726519211707
 20
128.6791440953413
 30
0.0
 10
149.9628909888577
 20
128.6791440953413
 30
0.0
 10
150.0537891029642
 20
128.6791440953413
 30
0.0
 10
150.2083861394528
 20
128.6791440953413
 30
0.0
 10
150.2733645555609
 20
128.6791440953413
 30
0.0
 10
150.4251995834971
 20
128.6791440953413
 30
0.0
 10
150.4726519211707
 20
128.6791440953413
 30
0.0
 10
150.4726519211707
 20
128.6791440953413
 30
0.0
  0
LINE
  5
6F
330
1F
100
AcDbEntity
  8
0
  6
Continuous
 62
     7
370
    15
100
AcDbLine
 10
129.4726519212
 20
128.6791440953
 30
0.0
 11
139.1307190897
 21
128.6791440953
 31
0.0
  0
LINE
  5
70
330
1F
100
AcDbEntity
  8
0
  6
Continuous
 62
     7
370
    15
100
AcDbLine
 10
139.1307190897
 20
78.6422263991
 30
0.0
 11
139.1307190897
 21
128.6791440953
 31
0.0
  0
LINE
  5
71
330
1F
100
AcDbEntity
  8
0
  6
Continuous
 62
     7
370
    15
100
AcDbLine
 10
139.1307190897
 20
78.6422263991
 30
0.0
 11
137.4726519212
 21
78.6422263991
 31
0.0
  0
SPLINE
  5
72
330
1F
100
AcDbEntity
  8
0
  6
Continuous
 62
     7
370
    15
100
AcDbSpline
210
0.0
220
0.0
230
1.0
 70
     8
 71
     3
 72
    28
 73
    24
 74
     0
 42
0.00000001
 43
0.00000001
 40
0.0
 40
0.0
 40
0.0
 40
0.0
 40
0.1250000000000001
 40
0.1250000000000001
 40
0.1875000000000001
 40
0.1875000000000001
 40
0.2500000000000001
 40
0.2500000000000001
 40
0.3749999999999999
 40
0.3749999999999999
 40
0.4375
 40
0.4375
 40
0.4999999999999999
 40
0.4999999999999999
 40
0.6249999999999999
 40
0.6249999999999999
 40
0.7499999999999997
 40
0.7499999999999997
 40
0.8124999999999998
 40
0.8124999999999998
 40
0.8749999999999998
 40
0.8749999999999998
 40
1.0
 40
1.0
 40
1.0
 40
1.0
 10
137.4726519211707
 20
78.64222639909416
 30
0.0
 10
136.9409441636778
 20
78.64222639909416
 30
0.0
 10
136.4187055983674
 20
78.62644168514394
 30
0.0
 10
135.6488351120924
 20
78.58144627106775
 30
0.0
 10
135.3944755399011
 20
78.562891275992
 30
0.0
 10
134.8903539592026
 20
78.5190385535455
 30
0.0
 10
134.6406311417747
 20
78.49369394659331
 30
0.0
 10
133.9150411903283
 20
78.41029186884322
 30
0.0
 10
133.4566809287467
 20
78.34442630969212
 30
0.0
 10
132.8061829853528
 20
78.23545596920033
 30
0.0
 10
132.5945009345604
 20
78.19721633343369
 30
0.0
 10
132.1904294454224
 20
78.11945759601433
 30
0.0
 10
131.9979229316015
 20
78.07995663383896
 30
0.0
 10
131.4480879605802
 20
77.96104889147297
 30
0.0
 10
131.1181591822714
 20
77.88123121004837
 30
0.0
 10
130.5336879137027
 20
77.7278880482523
 30
0.0
 10
130.2874107756893
 20
77.65655429498305
 30
0.0
 10
129.9875679829912
 20
77.56261078790843
 30
0.0
 10
129.8991111259191
 20
77.53341699454849
 30
0.0
 10
129.7457497726139
 20
77.47995042028508
 30
0.0
 10
129.6806615583877
 20
77.4555910860099
 30
0.0
 10
129.5250675424469
 20
77.39200094056517
 30
0.0
 10
129.4726519211707
 20
77.36189800547591
 30
0.0
 10
129.4726519211707
 20
77.34502111247899
 30
0.0
  0
LINE
  5
73
330
1F
100
AcDbEntity
  8
0
  6
Continuous
 62
     7
370
    15
100
AcDbLine
 10
129.4726519212
 20
77.3450211125
 30
0.0
 11
129.4726519212
 21
77.3291440953
 31
0.0
  0
SPLINE
  5
74
330
1F
100
AcDbEntity
  8
0
  6
Continuous
 62
     7
370
    15
100
AcDbSpline
210
0.0
220
0.0
230
1.0
 70
     8
 71
     3
 72
    17
 73
    13
 74
     0
 42
0.00000001
 43
0.00000001
 40
0.0
 40
0.0
 40
0.0
 40
0.0
 40
0.1034796923964056
 40
0.210023918880785
 40
0.3134862136955583
 40
0.4198361274354882
 40
0.5254127712915682
 40
0.633961069541979
 40
0.7409508756305031
 40
0.8511696089308174
 40
0.9558996534551937
 40
1.0
 40
1.0
 40
1.0
 40
1.0
 10
137.4726519211707
 20
139.2963395685056
 30
0.0
 10
137.0374035720607
 20
139.3017877650389
 30
0.0
 10
136.1540170654957
 20
139.3128455055507
 30
0.0
 10
134.873189480267
 20
139.3992038984523
 30
0.0
 10
133.655772944393
 20
139.5270740749901
 30
0.0
 10
132.5479670921465
 20
139.6860193735832
 30
0.0
 10
131.5597282881982
 20
139.8605130612988
 30
0.0
 10
130.7350047306667
 20
140.0296789119386
 30
0.0
 10
130.0860512300074
 20
140.177562694467
 30
0.0
 10
129.6690164145456
 20
140.2793532786978
 30
0.0
 10
129.4704197015811
 20
140.329704801301
 30
0.0
 10
129.4937324230144
 20
140.3237991170786
 30
0.0
 10
129.500640280252
 20
140.322049187384
 30
0.0
  0
LINE
  5
75
330
1F
100
AcDbEntity
  8
0
  6
Continuous
 62
     7
370
    15
100
AcDbLine
 10
139.1307190897
 20
139.2963395685
 30
0.0
 11
137.4726519212
 21
139.2963395685
 31
0.0
  0
LINE
  5
76
330
1F
100
AcDbEntity
  8
0
  6
Continuous
 62
     7
370
    15
100
AcDbLine
 10
139.1307190897
 20
133.2878337577
 30
0.0
 11
139.1307190897
 21
139.2963395685
 31
0.0
  0
LINE
  5
77
330
1F
100
AcDbEntity
  8
0
  6
Continuous
 62
     7
370
    15
100
AcDbLine
 10
136.7182722669
 20
133.2878337577
 30
0.0
 11
139.1307190897
 21
133.2878337577
 31
0.0
  0
SPLINE
  5
78
330
1F
100
AcDbEntity
  8
0
  6
Continuous
 62
     7
370
    15
100
AcDbSpline
210
0.0
220
0.0
230
1.0
 70
     8
 71
     3
 72
    20
 73
    16
 74
     0
 42
0.00000001
 43
0.00000001
 40
0.0
 40
0.0
 40
0.0
 40
0.0
 40
0.2499999999999997
 40
0.2499999999999997
 40
0.3749999999999997
 40
0.3749999999999997
 40
0.4999999999999998
 40
0.4999999999999998
 40
0.6249999999999998
 40
0.6249999999999998
 40
0.7499999999999999
 40
0.7499999999999999
 40
0.8749999999999999
 40
0.8749999999999999
 40
1.0
 40
1.0
 40
1.0
 40
1.0
 10
129.4726519211707
 20
128.6791440953413
 30
0.0
 10
129.7210256554588
 20
129.3330065236387
 30
0.0
 10
130.040595747804
 20
129.9367923056359
 30
0.0
 10
130.6629019810087
 20
130.7636310418045
 30
0.0
 10
130.8943262414394
 20
131.0260596797574
 30
0.0
 10
131.4155405810892
 20
131.5227223338624
 30
0.0
 10
131.7021610637242
 20
131.7533092128839
 30
0.0
 10
132.3216458050319
 20
132.1698634374665
 30
0.0
 10
132.6559461845188
 20
132.357361239434
 30
0.0
 10
133.3812066571436
 20
132.6887582170704
 30
0.0
 10
133.7631217145341
 20
132.8282622045657
 30
0.0
 10
134.5579098907058
 20
133.0537157120367
 30
0.0
 10
134.9720680849122
 20
133.1403418235803
 30
0.0
 10
135.8376144254935
 20
133.2583226124344
 30
0.0
 10
136.2755020405054
 20
133.2878337577087
 30
0.0
 10
136.71827226686
 20
133.2878337577087
 30
0.0
  0
SPLINE
  5
79
330
1F
100
AcDbEntity
  8
0
  6
Continuous
 62
     7
370
    15
100
AcDbSpline
210
0.0
220
0.0
230
1.0
 70
     8
 71
     3
 72
    70
 73
    66
 74
     0
 42
0.00000001
 43
0.00000001
 40
-0.0312500000000001
 40
-0.0312500000000001
 40
0.0
 40
0.0
 40
0.0312499999999997
 40
0.0312499999999997
 40
0.0624999999999994
 40
0.0624999999999994
 40
0.0937499999999993
 40
0.0937499999999993
 40
0.1249999999999991
 40
0.1249999999999991
 40
0.156249999999999
 40
0.156249999999999
 40
0.1874999999999989
 40
0.1874999999999989
 40
0.2187499999999988
 40
0.2187499999999988
 40
0.2499999999999986
 40
0.2499999999999986
 40
0.2812499999999987
 40
0.2812499999999987
 40
0.3124999999999988
 40
0.3124999999999988
 40
0.3437499999999989
 40
0.3437499999999989
 40
0.3749999999999989
 40
0.3749999999999989
 40
0.4062499999999991
 40
0.4062499999999991
 40
0.4374999999999992
 40
0.4374999999999992
 40
0.4687499999999992
 40
0.4687499999999992
 40
0.4999999999999993
 40
0.4999999999999993
 40
0.5312499999999993
 40
0.5312499999999993
 40
0.5624999999999994
 40
0.5624999999999994
 40
0.5937499999999994
 40
0.5937499999999994
 40
0.6249999999999994
 40
0.6249999999999994
 40
0.6562499999999996
 40
0.6562499999999996
 40
0.6874999999999996
 40
0.6874999999999996
 40
0.7187499999999996
 40
0.7187499999999996
 40
0.7499999999999996
 40
0.7499999999999996
 40
0.7812499999999997
 40
0.7812499999999997
 40
0.8124999999999997
 40
0.8124999999999997
 40
0.8437499999999997
 40
0.8437499999999997
 40
0.8749999999999998
 40
0.8749999999999998
 40
0.9062499999999998
 40
0.9062499999999998
 40
0.9374999999999998
 40
0.9374999999999998
 40
0.9687499999999999
 40
0.9687499999999999
 40
1.0
 40
1.0
 40
1.03125
 40
1.03125
 10
128.5226519211707
 20
122.894133530417
 30
0.0
 10
128.5226519211707
 20
123.3655561438569
 30
0.0
 10
128.5486369965547
 20
123.5957697037731
 30
0.0
 10
128.6504018991387
 20
124.0458324918352
 30
0.0
 10
128.7274362849447
 20
124.2679934323263
 30
0.0
 10
128.9283025723818
 20
124.6887776497987
 30
0.0
 10
129.0511816209732
 20
124.887044947443
 30
0.0
 10
129.3414462830369
 20
125.2603318359095
 30
0.0
 10
129.5102198588888
 20
125.4358428814246
 30
0.0
 10
129.8788578801752
 20
125.7491422317274
 30
0.0
 10
130.0800509281276
 20
125.8890745222701
 30
0.0
 10
130.5171884533818
 20
126.1355312812616
 30
0.0
 10
130.7496031210052
 20
126.2396616192116
 30
0.0
 10
131.2307873431176
 20
126.4067835978958
 30
0.0
 10
131.4831223490755
 20
126.4709953646558
 30
0.0
 10
131.9995672147633
 20
126.5567803111887
 30
0.0
 10
132.2592724628156
 20
126.5779816177846
 30
0.0
 10
132.7815795199687
 20
126.5782237001898
 30
0.0
 10
133.0468858352827
 20
126.5565626583425
 30
0.0
 10
133.560091925412
 20
126.4713691686206
 30
0.0
 10
133.8095593637237
 20
126.4082929528583
 30
0.0
 10
134.2941619732156
 20
126.2404055473139
 30
0.0
 10
134.528031632
 20
126.1354094453662
 30
0.0
 10
134.9611739532553
 20
125.8915416680965
 30
0.0
 10
135.1633508690211
 20
125.7516833314068
 30
0.0
 10
135.5366256613307
 20
125.4346216324634
 30
0.0
 10
135.7019479554806
 20
125.2623785697438
 30
0.0
 10
135.9916629428159
 20
124.8906105677318
 30
0.0
 10
136.1170662084465
 20
124.6886572722473
 30
0.0
 10
136.3178816564585
 20
124.2679482321111
 30
0.0
 10
136.3936662135644
 20
124.0500464858147
 30
0.0
 10
136.4962759322967
 20
123.5987299305719
 30
0.0
 10
136.5225534651549
 20
123.3638806789932
 30
0.0
 10
136.5227498119763
 20
122.8984884140451
 30
0.0
 10
136.4975165657587
 20
122.6655765822522
 30
0.0
 10
136.3951160798415
 20
122.1994765119416
 30
0.0
 10
136.3184277827824
 20
121.9703238922658
 30
0.0
 10
136.1192116724659
 20
121.5306539801701
 30
0.0
 10
135.9951050384614
 20
121.316766559506
 30
0.0
 10
135.7032286904598
 20
120.9132838373624
 30
0.0
 10
135.537956386278
 20
120.7264108799848
 30
0.0
 10
135.1695732830943
 20
120.3824628565588
 30
0.0
 10
134.9640633764667
 20
120.2242307449264
 30
0.0
 10
134.5299590325345
 20
119.9514413957096
 30
0.0
 10
134.3004737449072
 20
119.8354023257902
 30
0.0
 10
133.8162610675466
 20
119.6452217701904
 30
0.0
 10
133.5622677417746
 20
119.5720732491375
 30
0.0
 10
133.0508896056484
 20
119.4751869610888
 30
0.0
 10
132.7907595815813
 20
119.4502788136764
 30
0.0
 10
132.2617553676894
 20
119.4498262336388
 30
0.0
 10
132.0016676369023
 20
119.4742732416785
 30
0.0
 10
131.4899501141935
 20
119.5703153719933
 30
0.0
 10
131.2356389964604
 20
119.6431060329844
 30
0.0
 10
130.7512611504947
 20
119.8324140488686
 30
0.0
 10
130.521496393732
 20
119.9480823567249
 30
0.0
 10
130.0865343368588
 20
120.2204106723927
 30
0.0
 10
129.880858074729
 20
120.3782653663399
 30
0.0
 10
129.512015229603
 20
120.7214782826329
 30
0.0
 10
129.3463315119487
 20
120.9081274192118
 30
0.0
 10
129.0534300949485
 20
121.3115906166232
 30
0.0
 10
128.9292193630228
 20
121.5248528759786
 30
0.0
 10
128.7292108111011
 20
121.9641001995472
 30
0.0
 10
128.6520732615148
 20
122.1930412026163
 30
0.0
 10
128.548640231244
 20
122.6596035146342
 30
0.0
 10
128.5226519211707
 20
122.894133530417
 30
0.0
 10
128.5226519211707
 20
123.3655561438569
 30
0.0
  0
SPLINE
  5
7A
330
1F
100
AcDbEntity
  8
0
  6
Continuous
 62
     7
370
    15
100
AcDbSpline
210
0.0
220
0.0
230
1.0
 70
     8
 71
     3
 72
    70
 73
    66
 74
     0
 42
0.00000001
 43
0.00000001
 40
-0.0312499999999998
 40
-0.0312499999999998
 40
0.0
 40
0.0
 40
0.0312500000000001
 40
0.0312500000000001
 40
0.0625000000000001
 40
0.0625000000000001
 40
0.0937500000000002
 40
0.0937500000000002
 40
0.1250000000000002
 40
0.1250000000000002
 40
0.1562500000000003
 40
0.1562500000000003
 40
0.1875000000000003
 40
0.1875000000000003
 40
0.2187500000000004
 40
0.2187500000000004
 40
0.2500000000000004
 40
0.2500000000000004
 40
0.2812500000000007
 40
0.2812500000000007
 40
0.312500000000001
 40
0.312500000000001
 40
0.3437500000000013
 40
0.3437500000000013
 40
0.3750000000000016
 40
0.3750000000000016
 40
0.4062500000000018
 40
0.4062500000000018
 40
0.4375000000000021
 40
0.4375000000000021
 40
0.4687500000000024
 40
0.4687500000000024
 40
0.5000000000000027
 40
0.5000000000000027
 40
0.5312500000000027
 40
0.5312500000000027
 40
0.5625000000000026
 40
0.5625000000000026
 40
0.5937500000000026
 40
0.5937500000000026
 40
0.6250000000000024
 40
0.6250000000000024
 40
0.6562500000000024
 40
0.6562500000000024
 40
0.6875000000000023
 40
0.6875000000000023
 40
0.7187500000000023
 40
0.7187500000000023
 40
0.7500000000000022
 40
0.7500000000000022
 40
0.781250000000002
 40
0.781250000000002
 40
0.8125000000000017
 40
0.8125000000000017
 40
0.8437500000000013
 40
0.8437500000000013
 40
0.8750000000000011
 40
0.8750000000000011
 40
0.9062500000000008
 40
0.9062500000000008
 40
0.9375000000000006
 40
0.9375000000000006
 40
0.9687500000000002
 40
0.9687500000000002
 40
1.0
 40
1.0
 40
1.03125
 40
1.03125
 10
128.5226519211707
 20
135.9766718225317
 30
0.0
 10
128.5226519211707
 20
136.2412168065706
 30
0.0
 10
128.5486369965546
 20
136.3683689007255
 30
0.0
 10
128.6504018991387
 20
136.6131778964633
 30
0.0
 10
128.7274362849447
 20
136.7320398955364
 30
0.0
 10
128.9283025723818
 20
136.9537497218819
 30
0.0
 10
129.0511816209732
 20
137.0564650608073
 30
0.0
 10
129.3414462830369
 20
137.2471570813852
 30
0.0
 10
129.5102198588888
 20
137.3353467786961
 30
0.0
 10
129.8788578801752
 20
137.4908458947932
 30
0.0
 10
130.0800509281276
 20
137.5592585522573
 30
0.0
 10
130.5171884533818
 20
137.6785891716024
 30
0.0
 10
130.7496031210052
 20
137.7283488637847
 30
0.0
 10
131.2307873431176
 20
137.8077228408574
 30
0.0
 10
131.4831223490755
 20
137.8379185250973
 30
0.0
 10
131.9995672147633
 20
137.8781664129401
 30
0.0
 10
132.2592724628156
 20
137.8880506977229
 30
0.0
 10
132.7815795199687
 20
137.888163800505
 30
0.0
 10
133.0468858352827
 20
137.8780641947737
 30
0.0
 10
133.560091925412
 20
137.8380940047974
 30
0.0
 10
133.8095593637237
 20
137.8084368410261
 30
0.0
 10
134.2941619732156
 20
137.7287050140656
 30
0.0
 10
134.528031632
 20
137.6785259607525
 30
0.0
 10
134.9611739532553
 20
137.5604572861663
 30
0.0
 10
135.1633508690211
 20
137.4921041257656
 30
0.0
 10
135.5366256613307
 20
137.3347436136613
 30
0.0
 10
135.7019479554806
 20
137.2481881965929
 30
0.0
 10
135.9916629428159
 20
137.058300776349
 30
0.0
 10
136.1170662084465
 20
136.9536867558976
 30
0.0
 10
136.3178816564585
 20
136.7320156189563
 30
0.0
 10
136.3936662135644
 20
136.6154493344114
 30
0.0
 10
136.4962759322967
 20
136.3699995107393
 30
0.0
 10
136.5225534651549
 20
136.240268955262
 30
0.0
 10
136.5227498119763
 20
135.9791232209587
 30
0.0
 10
136.4975165657587
 20
135.8464440589258
 30
0.0
 10
136.3951160798415
 20
135.5770868056107
 30
0.0
 10
136.3184277827824
 20
135.4427153672641
 30
0.0
 10
136.1192116724659
 20
135.18168323736
 30
0.0
 10
135.9951050384614
 20
135.0530206000662
 30
0.0
 10
135.7032286904598
 20
134.8077128787281
 30
0.0
 10
135.537956386278
 20
134.6927562709986
 30
0.0
 10
135.1695732830943
 20
134.4794250913136
 30
0.0
 10
134.9640633764667
 20
134.3803069037776
 30
0.0
 10
134.5299590325345
 20
134.2083846415066
 30
0.0
 10
134.3004737449072
 20
134.1346731527188
 30
0.0
 10
133.8162610675466
 20
134.0134206813921
 30
0.0
 10
133.5622677417747
 20
133.9665123507082
 30
0.0
 10
133.0508896056484
 20
133.9043031173333
 30
0.0
 10
132.7907595815813
 20
133.888254125681
 30
0.0
 10
132.2617553676894
 20
133.8879628398869
 30
0.0
 10
132.0016676369023
 20
133.9037150805335
 30
0.0
 10
131.4899501141936
 20
133.965384958331
 30
0.0
 10
131.2356389964604
 20
134.0120666341712
 30
0.0
 10
130.7512611504948
 20
134.1327729226285
 30
0.0
 10
130.521496393732
 20
134.2062571370699
 30
0.0
 10
130.0865343368588
 20
134.3779095845937
 30
0.0
 10
129.880858074729
 20
134.4768044648911
 30
0.0
 10
129.512015229603
 20
134.6897135785099
 30
0.0
 10
129.3463315119487
 20
134.804554528194
 30
0.0
 10
129.0534300949485
 20
135.0498965343538
 30
0.0
 10
128.9292193630228
 20
135.1782086140353
 30
0.0
 10
128.7292108111011
 20
135.4390500419416
 30
0.0
 10
128.6520732615148
 20
135.573333314024
 30
0.0
 10
128.548640231244
 20
135.8430258951646
 30
0.0
 10
128.5226519211707
 20
135.9766718225317
 30
0.0
 10
128.5226519211707
 20
136.2412168065706
 30
0.0
  0
SPLINE
  5
7B
330
1F
100
AcDbEntity
  8
0
  6
Continuous
 62
     7
370
    15
100
AcDbSpline
210
0.0
220
0.0
230
1.0
 70
     8
 71
     3
 72
     8
 73
     4
 74
     0
 42
0.00000001
 43
0.00000001
 40
0.0
 40
0.0
 40
0.0
 40
0.0
 40
1.0
 40
1.0
 40
1.0
 40
1.0
 10
145.9145847526597
 20
78.64222639909416
 30
0.0
 10
145.419105091994
 20
79.53775248702752
 30
0.0
 10
144.9249910439519
 20
80.43403690207975
 30
0.0
 10
144.4326519211707
 20
81.33130693628645
 30
0.0
  0
LINE
  5
7C
330
1F
100
AcDbEntity
  8
0
  6
Continuous
 62
     7
370
    15
100
AcDbLine
 10
144.4326519212
 20
81.3313069363
 30
0.0
 11
144.4326519212
 21
128.6791440953
 31
0.0
  0
SPLINE
  5
7D
330
1F
100
AcDbEntity
  8
0
  6
Continuous
 62
     7
370
    15
100
AcDbSpline
210
0.0
220
0.0
230
1.0
 70
    24
 71
     3
 72
     8
 73
     4
 74
     0
 42
0.00000001
 43
0.00000001
 40
0.0
 40
0.0
 40
0.0
 40
0.0
 40
1.0
 40
1.0
 40
1.0
 40
1.0
 10
144.4326519211707
 20
128.6791440953413
 30
0.0
 10
144.9126039155356
 20
128.6791440953413
 30
0.0
 10
145.4079046445092
 20
128.6791440953413
 30
0.0
 10
145.9145847526598
 20
128.6791440953413
 30
0.0
  0
LINE
  5
7E
330
1F
100
AcDbEntity
  8
0
  6
Continuous
 62
     7
370
    15
100
AcDbLine
 10
140.6126519212
 20
81.3313069363
 30
0.0
 11
140.6126519212
 21
128.6791440953
 31
0.0
  0
SPLINE
  5
7F
330
1F
100
AcDbEntity
  8
0
  6
Continuous
 62
     7
370
    15
100
AcDbSpline
210
0.0
220
0.0
230
1.0
 70
     8
 71
     3
 72
     8
 73
     4
 74
     0
 42
0.00000001
 43
0.00000001
 40
0.0
 40
0.0
 40
0.0
 40
0.0
 40
1.0
 40
1.0
 40
1.0
 40
1.0
 10
140.6126519211707
 20
81.33130693628645
 30
0.0
 10
140.1203127983895
 20
80.43403690207975
 30
0.0
 10
139.6261987503474
 20
79.5377524870275
 30
0.0
 10
139.1307190896816
 20
78.64222639909416
 30
0.0
  0
SPLINE
  5
80
330
1F
100
AcDbEntity
  8
0
  6
Continuous
 62
     7
370
    15
100
AcDbSpline
210
0.0
220
0.0
230
1.0
 70
    24
 71
     3
 72
     8
 73
     4
 74
     0
 42
0.00000001
 43
0.00000001
 40
0.0
 40
0.0
 40
0.0
 40
0.0
 40
1.0
 40
1.0
 40
1.0
 40
1.0
 10
139.1307190896816
 20
128.6791440953413
 30
0.0
 10
139.6373991978322
 20
128.6791440953413
 30
0.0
 10
140.1326999268058
 20
128.6791440953413
 30
0.0
 10
140.6126519211707
 20
128.6791440953413
 30
0.0
  0
LINE
  5
81
330
1F
100
AcDbEntity
  8
0
  6
Continuous
 62
     7
370
    15
100
AcDbLine
 10
124.5226519212
 20
77.6291440953
 30
0.0
 11
124.5226519212
 21
140.0291440893
 31
0.0
  0
ARC
  5
82
330
1F
100
AcDbEntity
  8
0
  6
Continuous
 62
     7
370
    15
100
AcDbCircle
 10
132.6856812041
 20
120.8802024399
 30
0.0
 40
3.91030839634385
100
AcDbArc
 50
18.6034682283
 51
92.3894785612
  0
ARC
  5
83
330
1F
100
AcDbEntity
  8
0
  6
Continuous
 62
     7
370
    15
100
AcDbCircle
 10
132.4051990898
 20
120.8106158615
 30
0.0
 40
3.97822918417511
100
AcDbArc
 50
88.3081594227
 51
160.0239935182
  0
SPLINE
  5
84
330
1F
100
AcDbEntity
  8
0
  6
Continuous
 62
     7
370
    15
100
AcDbSpline
210
0.0
220
0.0
230
1.0
 70
     8
 71
     3
 72
    10
 73
     6
 74
     0
 42
0.00000001
 43
0.00000001
 40
0.0
 40
0.0
 40
0.0
 40
0.0
 40
0.5
 40
0.5
 40
1.0
 40
1.0
 40
1.0
 40
1.0
 10
141.0069494528616
 20
135.2291440953413
 30
0.0
 10
140.8854091891932
 20
135.3038702625531
 30
0.0
 10
140.7840748288442
 20
135.4128152784699
 30
0.0
 10
140.6484358859558
 20
135.6632457592315
 30
0.0
 10
140.6126519211707
 20
135.8056651213304
 30
0.0
 10
140.6126519211707
 20
135.9487979463771
 30
0.0
  0
SPLINE
  5
85
330
1F
100
AcDbEntity
  8
0
  6
Continuous
 62
     7
370
    15
100
AcDbSpline
210
0.0
220
0.0
230
1.0
 70
    24
 71
     3
 72
    12
 73
     8
 74
     0
 42
0.00000001
 43
0.00000001
 40
0.0
 40
0.0
 40
0.0
 40
0.0
 40
0.2500000000000037
 40
0.2500000000000037
 40
0.5000000000000074
 40
0.5000000000000074
 40
1.0
 40
1.0
 40
1.0
 40
1.0
 10
141.4126519211707
 20
135.2291440953413
 30
0.0
 10
141.3627752388533
 20
135.2291440953413
 30
0.0
 10
141.3147720454496
 20
135.2291440953413
 30
0.0
 10
141.2317239427377
 20
135.2291440953413
 30
0.0
 10
141.1955943632698
 20
135.2291440953413
 30
0.0
 10
141.0996823323256
 20
135.2291440953413
 30
0.0
 10
141.0499236643568
 20
135.2291440953413
 30
0.0
 10
141.0069494528616
 20
135.2291440953413
 30
0.0
  0
SPLINE
  5
86
330
1F
100
AcDbEntity
  8
0
  6
Continuous
 62
     7
370
    15
100
AcDbSpline
210
0.0
220
0.0
230
1.0
 70
    24
 71
     3
 72
    14
 73
    10
 74
     0
 42
0.00000001
 43
0.00000001
 40
0.0
 40
0.0
 40
0.0
 40
0.0
 40
0.1249999999999991
 40
0.1249999999999991
 40
0.2499999999999982
 40
0.2499999999999982
 40
0.4999999999999998
 40
0.4999999999999998
 40
1.0
 40
1.0
 40
1.0
 40
1.0
 10
141.4126519211707
 20
82.42914409534133
 30
0.0
 10
141.3442140732842
 20
82.42914409534133
 30
0.0
 10
141.2786640345192
 20
82.42914409534133
 30
0.0
 10
141.1742373951112
 20
82.42914409534133
 30
0.0
 10
141.1316927853498
 20
82.42914409534133
 30
0.0
 10
141.0190833248096
 20
82.42914409534131
 30
0.0
 10
140.9635442777901
 20
82.42914409534133
 30
0.0
 10
140.8209325823263
 20
82.42914409534131
 30
0.0
 10
140.7575272273305
 20
82.42914409534131
 30
0.0
 10
140.710326723503
 20
82.42914409534133
 30
0.0
  0
SPLINE
  5
87
330
1F
100
AcDbEntity
  8
0
  6
Continuous
 62
     7
370
    15
100
AcDbSpline
210
0.0
220
0.0
230
1.0
 70
     8
 71
     3
 72
    10
 73
     6
 74
     0
 42
0.00000001
 43
0.00000001
 40
0.0
 40
0.0
 40
0.0
 40
0.0
 40
0.5
 40
0.5
 40
1.0
 40
1.0
 40
1.0
 40
1.0
 10
140.6126519211707
 20
128.9650107268027
 30
0.0
 10
140.6126519211707
 20
128.9172392188094
 30
0.0
 10
140.6148131647679
 20
128.8695294967477
 30
0.0
 10
140.623484538628
 20
128.7742343791994
 30
0.0
 10
140.630013721584
 20
128.7265418152328
 30
0.0
 10
140.6387995443309
 20
128.6791440953413
 30
0.0
  0
SPLINE
  5
88
330
1F
100
AcDbEntity
  8
0
  6
Continuous
 62
     7
370
    15
100
AcDbSpline
210
0.0
220
0.0
230
1.0
 70
    24
 71
     3
 72
    14
 73
    10
 74
     0
 42
0.00000001
 43
0.00000001
 40
0.0
 40
0.0
 40
0.0
 40
0.0
 40
0.5000000000000013
 40
0.5000000000000013
 40
0.750000000000002
 40
0.750000000000002
 40
0.875000000000001
 40
0.875000000000001
 40
1.0
 40
1.0
 40
1.0
 40
1.0
 10
144.3349771188384
 20
82.42914409534133
 30
0.0
 10
144.2881924137902
 20
82.42914409534131
 30
0.0
 10
144.2261412170106
 20
82.42914409534133
 30
0.0
 10
144.08274957846
 20
82.42914409534133
 30
0.0
 10
144.0266059249088
 20
82.42914409534131
 30
0.0
 10
143.9136549027726
 20
82.42914409534131
 30
0.0
 10
143.8706541407345
 20
82.42914409534133
 30
0.0
 10
143.766591430428
 20
82.42914409534131
 30
0.0
 10
143.7012591920711
 20
82.42914409534133
 30
0.0
 10
143.6326519211707
 20
82.42914409534133
 30
0.0
  0
SPLINE
  5
89
330
1F
100
AcDbEntity
  8
0
  6
Continuous
 62
     7
370
    15
100
AcDbSpline
210
0.0
220
0.0
230
1.0
 70
    24
 71
     3
 72
    12
 73
     8
 74
     0
 42
0.00000001
 43
0.00000001
 40
0.0
 40
0.0
 40
0.0
 40
0.0
 40
0.5000000000000017
 40
0.5000000000000017
 40
0.7500000000000008
 40
0.7500000000000008
 40
1.0
 40
1.0
 40
1.0
 40
1.0
 10
144.0383543894797
 20
135.2291440953413
 30
0.0
 10
143.9952688398688
 20
135.2291440953413
 30
0.0
 10
143.9461166381195
 20
135.2291440953413
 30
0.0
 10
143.8496440438315
 20
135.2291440953413
 30
0.0
 10
143.813542458697
 20
135.2291440953413
 30
0.0
 10
143.7304367008357
 20
135.2291440953413
 30
0.0
 10
143.6824401038694
 20
135.2291440953413
 30
0.0
 10
143.6326519211707
 20
135.2291440953413
 30
0.0
  0
SPLINE
  5
8A
330
1F
100
AcDbEntity
  8
0
  6
Continuous
 62
     7
370
    15
100
AcDbSpline
210
0.0
220
0.0
230
1.0
 70
     8
 71
     3
 72
    10
 73
     6
 74
     0
 42
0.00000001
 43
0.00000001
 40
0.0
 40
0.0
 40
0.0
 40
0.0
 40
0.5
 40
0.5
 40
1.0
 40
1.0
 40
1.0
 40
1.0
 10
144.4326519211707
 20
135.9487979463771
 30
0.0
 10
144.4326519211707
 20
135.8050278885591
 30
0.0
 10
144.3966028624518
 20
135.6626085260639
 30
0.0
 10
144.2610940016778
 20
135.4127142327067
 30
0.0
 10
144.1612180085816
 20
135.3046838964585
 30
0.0
 10
144.0383543894797
 20
135.2291440953413
 30
0.0
  0
SPLINE
  5
8B
330
1F
100
AcDbEntity
  8
0
  6
Continuous
 62
     7
370
    15
100
AcDbSpline
210
0.0
220
0.0
230
1.0
 70
     8
 71
     3
 72
    10
 73
     6
 74
     0
 42
0.00000001
 43
0.00000001
 40
0.0
 40
0.0
 40
0.0
 40
0.0
 40
0.5
 40
0.5
 40
1.0
 40
1.0
 40
1.0
 40
1.0
 10
144.4065042980106
 20
128.6791440953413
 30
0.0
 10
144.4151939409222
 20
128.7260229446595
 30
0.0
 10
144.4217330056727
 20
128.7734454100607
 30
0.0
 10
144.4304916400658
 20
128.8693822086475
 30
0.0
 10
144.4326519211707
 20
128.917297496658
 30
0.0
 10
144.4326519211707
 20
128.9650107268025
 30
0.0
  0
LINE
  5
8C
330
1F
100
AcDbEntity
  8
0
  6
Continuous
 62
     7
370
    15
100
AcDbLine
 10
143.6326519212
 20
135.2291440953
 30
0.0
 11
141.4126519212
 21
135.2291440953
 31
0.0
  0
LINE
  5
8D
330
1F
100
AcDbEntity
  8
0
  6
Continuous
 62
     7
370
    15
100
AcDbLine
 10
143.6326519212
 20
82.4291440953
 30
0.0
 11
141.4126519212
 21
82.4291440953
 31
0.0
  0
LINE
  5
8E
330
1F
100
AcDbEntity
  8
0
  6
Continuous
 62
     7
370
    15
100
AcDbLine
 10
102.7226519212
 20
85.6006972016
 30
0.0
 11
102.7226519212
 21
86.8654065641
 31
0.0
  0
SPLINE
  5
8F
330
1F
100
AcDbEntity
  8
0
  6
Continuous
 62
     7
370
    15
100
AcDbSpline
210
0.0
220
0.0
230
1.0
 70
     8
 71
     3
 72
    14
 73
    10
 74
     0
 42
0.00000001
 43
0.00000001
 40
0.0
 40
0.0
 40
0.0
 40
0.0
 40
0.25
 40
0.25
 40
0.5
 40
0.5
 40
0.75
 40
0.75
 40
1.0
 40
1.0
 40
1.0
 40
1.0
 10
101.944364803255
 20
87.99599277178137
 30
0.0
 10
102.0009914784571
 20
87.88829531794451
 30
0.0
 10
102.0955141387468
 20
87.78550573622519
 30
0.0
 10
102.278559114309
 20
87.58714842400504
 30
0.0
 10
102.3701856912637
 20
87.4910889153268
 30
0.0
 10
102.5290390089569
 20
87.30355987261756
 30
0.0
 10
102.5969296165786
 20
87.212150899834
 30
0.0
 10
102.6938466422862
 20
87.03377467892385
 30
0.0
 10
102.7226519211713
 20
86.94655277267766
 30
0.0
 10
102.7226519211713
 20
86.8654065641434
 30
0.0
  0
SPLINE
  5
90
330
1F
100
AcDbEntity
  8
0
  6
Continuous
 62
     7
370
    15
100
AcDbSpline
210
0.0
220
0.0
230
1.0
 70
     8
 71
     3
 72
    14
 73
    10
 74
     0
 42
0.00000001
 43
0.00000001
 40
0.0
 40
0.0
 40
0.0
 40
0.0
 40
0.1249999999999975
 40
0.1249999999999975
 40
0.249999999999995
 40
0.249999999999995
 40
0.4999999999999953
 40
0.4999999999999953
 40
1.0
 40
1.0
 40
1.0
 40
1.0
 10
101.3226519211707
 20
88.4426746340607
 30
0.0
 10
101.3711963298279
 20
88.44842294734099
 30
0.0
 10
101.4241116846128
 20
88.44532205868474
 30
0.0
 10
101.5194070295958
 20
88.42312721452242
 30
0.0
 10
101.5596580268808
 20
88.40589498742655
 30
0.0
 10
101.6639280403937
 20
88.34956707097449
 30
0.0
 10
101.7142500155471
 20
88.3053807250287
 30
0.0
 10
101.8419329630725
 20
88.17437282617807
 30
0.0
 10
101.8980184101347
 20
88.08413830594777
 30
0.0
 10
101.9443648032564
 20
87.9959927717819
 30
0.0
  0
SPLINE
  5
91
330
1F
100
AcDbEntity
  8
0
  6
Continuous
 62
     7
370
    15
100
AcDbSpline
210
0.0
220
0.0
230
1.0
 70
     8
 71
     3
 72
     8
 73
     4
 74
     0
 42
0.00000001
 43
0.00000001
 40
0.0
 40
0.0
 40
0.0
 40
0.0
 40
1.0
 40
1.0
 40
1.0
 40
1.0
 10
99.05412682822448
 20
88.13282934747791
 30
0.0
 10
99.78870385470744
 20
88.25145435854687
 30
0.0
 10
100.5521789241031
 20
88.35144023068314
 30
0.0
 10
101.3226519211707
 20
88.4426746340607
 30
0.0
  0
SPLINE
  5
92
330
1F
100
AcDbEntity
  8
0
  6
Continuous
 62
     7
370
    15
100
AcDbSpline
210
0.0
220
0.0
230
1.0
 70
     8
 71
     3
 72
    14
 73
    10
 74
     0
 42
0.00000001
 43
0.00000001
 40
0.0
 40
0.0
 40
0.0
 40
0.0
 40
0.500000000000001
 40
0.500000000000001
 40
0.7500000000000004
 40
0.7500000000000004
 40
0.8750000000000003
 40
0.8750000000000003
 40
1.0
 40
1.0
 40
1.0
 40
1.0
 10
93.7726519211707
 20
87.95920632994626
 30
0.0
 10
94.66479805172429
 20
87.9584841037456
 30
0.0
 10
95.55477448751789
 20
87.96307031020307
 30
0.0
 10
96.88136965459348
 20
87.99079531459459
 30
0.0
 10
97.32221658309223
 20
88.00340185221877
 30
0.0
 10
97.97865682051464
 20
88.03441800022622
 30
0.0
 10
98.19667047710652
 20
88.046761172853
 30
0.0
 10
98.6293793307893
 20
88.07978522801628
 30
0.0
 10
98.84465579595408
 20
88.0990023931547
 30
0.0
 10
99.0541268282245
 20
88.13282934747791
 30
0.0
  0
SPLINE
  5
93
330
1F
100
AcDbEntity
  8
0
  6
Continuous
 62
     7
370
    15
100
AcDbSpline
210
0.0
220
0.0
230
1.0
 70
     8
 71
     3
 72
     8
 73
     4
 74
     0
 42
0.00000001
 43
0.00000001
 40
0.0000005163856998
 40
0.0000005163856998
 40
0.0000005163856998
 40
0.0000005163856998
 40
0.000026289209185
 40
0.000026289209185
 40
0.000026289209185
 40
0.000026289209185
 10
93.76260699076309
 20
87.96919020304303
 30
0.0
 10
93.76593472897093
 20
87.96585595617391
 30
0.0
 10
93.76928318194652
 20
87.96252799889861
 30
0.0
 10
93.77265192117068
 20
87.95920632994624
 30
0.0
  0
SPLINE
  5
94
330
1F
100
AcDbEntity
  8
0
  6
Continuous
 62
     7
370
    15
100
AcDbSpline
210
0.0
220
0.0
230
1.0
 70
     8
 71
     3
 72
     8
 73
     4
 74
     0
 42
0.00000001
 43
0.00000001
 40
0.0000005099763573
 40
0.0000005099763573
 40
0.0000005099763573
 40
0.0000005099763573
 40
0.0000262827998699
 40
0.0000262827998699
 40
0.0000262827998699
 40
0.0000262827998699
 10
93.77265192117068
 20
129.6990818607364
 30
0.0
 10
93.76928318194294
 20
129.6957601917805
 30
0.0
 10
93.7659347289638
 20
129.6924322345016
 30
0.0
 10
93.76260699075246
 20
129.6890979876289
 30
0.0
  0
SPLINE
  5
95
330
1F
100
AcDbEntity
  8
0
  6
Continuous
 62
     7
370
    15
100
AcDbSpline
210
0.0
220
0.0
230
1.0
 70
     8
 71
     3
 72
    10
 73
     6
 74
     0
 42
0.00000001
 43
0.00000001
 40
0.0
 40
0.0
 40
0.0
 40
0.0
 40
0.5
 40
0.5
 40
1.0
 40
1.0
 40
1.0
 40
1.0
 10
97.3226519211707
 20
129.6522314871691
 30
0.0
 10
96.73506637408012
 20
129.6732970074055
 30
0.0
 10
96.14431998061973
 20
129.6840554932777
 30
0.0
 10
94.96030081532088
 20
129.6974202738134
 30
0.0
 10
94.36688682711541
 20
129.6995629164779
 30
0.0
 10
93.7726519211707
 20
129.6990818607364
 30
0.0
  0
SPLINE
  5
96
330
1F
100
AcDbEntity
  8
0
  6
Continuous
 62
     7
370
    15
100
AcDbSpline
210
0.0
220
0.0
230
1.0
 70
     8
 71
     3
 72
    18
 73
    14
 74
     0
 42
0.00000001
 43
0.00000001
 40
0.0
 40
0.0
 40
0.0
 40
0.0
 40
0.2500000000000009
 40
0.2500000000000009
 40
0.500000000000001
 40
0.500000000000001
 40
0.7500000000000011
 40
0.7500000000000011
 40
0.875000000000001
 40
0.875000000000001
 40
0.9375000000000006
 40
0.9375000000000006
 40
1.0
 40
1.0
 40
1.0
 40
1.0
 10
98.72265192117072
 20
130.6732517677043
 30
0.0
 10
98.72265192117072
 20
130.5900448588471
 30
0.0
 10
98.68680282123245
 20
130.5013082035336
 30
0.0
 10
98.56193108519854
 20
130.3191830129733
 30
0.0
 10
98.47153066755065
 20
130.2240529643467
 30
0.0
 10
98.24928801280848
 20
130.0348714552223
 30
0.0
 10
98.11952322636272
 20
129.9399262871276
 30
0.0
 10
97.8788857690512
 20
129.8016475795477
 30
0.0
 10
97.79111847091374
 20
129.7559371462453
 30
0.0
 10
97.63659438370695
 20
129.6981138410239
 30
0.0
 10
97.5799834976522
 20
129.680399076986
 30
0.0
 10
97.45593946674559
 20
129.6558597737531
 30
0.0
 10
97.38822479172731
 20
129.6498806352148
 30
0.0
 10
97.3226519211707
 20
129.6522314871691
 30
0.0
  0
LINE
  5
97
330
1F
100
AcDbEntity
  8
0
  6
Continuous
 62
     7
370
    15
100
AcDbLine
 10
98.7226519212
 20
130.6732517677
 30
0.0
 11
98.7226519212
 21
131.8571901875
 31
0.0
  0
LINE
  5
98
330
1F
100
AcDbEntity
  8
0
  6
Continuous
 62
     7
370
    15
100
AcDbLine
 10
122.5226519212
 20
84.6087132336
 30
0.0
 11
122.5226519212
 21
133.0495749571
 31
0.0
  0
SPLINE
  5
99
330
1F
100
AcDbEntity
  8
0
  6
Continuous
 62
     7
370
    15
100
AcDbSpline
210
0.0
220
0.0
230
1.0
 70
     8
 71
     3
 72
    24
 73
    20
 74
     0
 42
0.00000001
 43
0.00000001
 40
0.0
 40
0.0
 40
0.0
 40
0.0
 40
0.0010489762969682
 40
0.0637843125639766
 40
0.1272220590447888
 40
0.1903788924487598
 40
0.252674865369363
 40
0.3146354154424954
 40
0.377089199714964
 40
0.4393540298504154
 40
0.5008133242537826
 40
0.562184510458698
 40
0.624843845111553
 40
0.6874304766616532
 40
0.7496743174679398
 40
0.8119848426977657
 40
0.8750960525413161
 40
0.9384412526965076
 40
0.9999999999999999
 40
0.9999999999999999
 40
0.9999999999999999
 40
0.9999999999999999
 10
111.2915577531464
 20
85.17163566676118
 30
0.0
 10
111.2911112930422
 20
85.17157738094228
 30
0.0
 10
111.2639637293484
 20
85.16803323899975
 30
0.0
 10
111.3595755069621
 20
85.1808669836825
 30
0.0
 10
111.5931357648565
 20
85.21011366888268
 30
0.0
 10
111.9886900721738
 20
85.25672799194552
 30
0.0
 10
112.5157303760113
 20
85.30691113360488
 30
0.0
 10
113.1592607880011
 20
85.35128759605449
 30
0.0
 10
113.8979346432402
 20
85.3782323769927
 30
0.0
 10
114.6954491486735
 20
85.38170422769949
 30
0.0
 10
115.5220280311162
 20
85.35407698366924
 30
0.0
 10
116.347551048727
 20
85.29559809469592
 30
0.0
 10
117.1396775967282
 20
85.21015306533583
 30
0.0
 10
117.8722498707341
 20
85.10841882549951
 30
0.0
 10
118.5078901074621
 20
85.00057570352654
 30
0.0
 10
119.0298012144715
 20
84.89894554678744
 30
0.0
 10
119.4114299915871
 20
84.81646039010923
 30
0.0
 10
119.6622444618209
 20
84.76031118375961
 30
0.0
 10
119.6913660178052
 20
84.75346172514587
 30
0.0
 10
119.7057185386214
 20
84.7500859784177
 30
0.0
  0
SPLINE
  5
9A
330
1F
100
AcDbEntity
  8
0
  6
Continuous
 62
     7
370
    15
100
AcDbSpline
210
0.0
220
0.0
230
1.0
 70
     8
 71
     3
 72
    24
 73
    20
 74
     0
 42
0.00000001
 43
0.00000001
 40
0.0
 40
0.0
 40
0.0
 40
0.0
 40
0.0614384276250176
 40
0.1250736755369651
 40
0.1884253490729237
 40
0.2508623904037427
 40
0.3129665632511172
 40
0.3753451453465143
 40
0.4377328972324873
 40
0.4990927322917189
 40
0.5605807588447405
 40
0.6229469893028771
 40
0.6854686282025979
 40
0.7475477813740068
 40
0.8098225060804932
 40
0.8730684085990272
 40
0.9364041844536292
 40
0.9991757196257863
 40
1.0
 40
1.0
 40
1.0
 40
1.0
 10
119.7056637678185
 20
132.9081730697987
 30
0.0
 10
119.691063043515
 20
132.9048050129461
 30
0.0
 10
119.6613395247871
 20
132.8979484694723
 30
0.0
 10
119.4086017091384
 20
132.8416098489463
 30
0.0
 10
119.0256057926888
 20
132.7587527668164
 30
0.0
 10
118.5032502082517
 20
132.6568457368651
 30
0.0
 10
117.8684657302518
 20
132.5490065978213
 30
0.0
 10
117.1382421260791
 20
132.4475396458462
 30
0.0
 10
116.3477735408451
 20
132.3624799321555
 30
0.0
 10
115.523290026017
 20
132.3042756382691
 30
0.0
 10
114.6962535671335
 20
132.2766921994425
 30
0.0
 10
113.8979292994818
 20
132.2801851769353
 30
0.0
 10
113.1581053351925
 20
132.3071410967884
 30
0.0
 10
112.5138511022174
 20
132.3514950387876
 30
0.0
 10
111.9864438470014
 20
132.4017004885455
 30
0.0
 10
111.5917792448512
 20
132.4483103437439
 30
0.0
 10
111.3592499656629
 20
132.4775059362913
 30
0.0
 10
111.2638699331144
 20
132.4902840052325
 30
0.0
 10
111.2908035700153
 20
132.4867297467247
 30
0.0
 10
111.2911526632396
 20
132.4866836791414
 30
0.0
  0
SPLINE
  5
9B
330
1F
100
AcDbEntity
  8
0
  6
Continuous
 62
     7
370
    15
100
AcDbSpline
210
0.0
220
0.0
230
1.0
 70
     8
 71
     3
 72
    10
 73
     6
 74
     0
 42
0.00000001
 43
0.00000001
 40
0.0
 40
0.0
 40
0.0
 40
0.0
 40
0.0840381716606348
 40
0.7011125076933074
 40
1.0
 40
1.0
 40
1.0
 40
1.0
 10
92.63619888370637
 20
89.10037018765799
 30
0.0
 10
92.63687344104129
 20
89.09816456082208
 30
0.0
 10
92.64250112873748
 20
89.07976348745987
 30
0.0
 10
92.66882260886433
 20
89.09399805018305
 30
0.0
 10
92.68125762570904
 20
89.13968382573404
 30
0.0
 10
92.6853152958941
 20
89.1545915505606
 30
0.0
  0
LINE
  5
9C
330
1F
100
AcDbEntity
  8
0
  6
Continuous
 62
     7
370
    15
100
AcDbLine
 10
92.6226519212
 20
89.1384663489
 30
0.0
 11
92.6226519212
 21
128.5198218418
 31
0.0
  0
SPLINE
  5
9D
330
1F
100
AcDbEntity
  8
0
  6
Continuous
 62
     7
370
    15
100
AcDbSpline
210
0.0
220
0.0
230
1.0
 70
     8
 71
     3
 72
    10
 73
     6
 74
     0
 42
0.00000001
 43
0.00000001
 40
0.0
 40
0.0
 40
0.0
 40
0.0
 40
0.3981552638809415
 40
0.8068145697130351
 40
1.0
 40
1.0
 40
1.0
 40
1.0
 10
92.6853152958941
 20
128.503696640122
 30
0.0
 10
92.67965179116963
 20
128.5225384246729
 30
0.0
 10
92.66817536842235
 20
128.5607190734653
 30
0.0
 10
92.64466114044814
 20
128.5743023573329
 30
0.0
 10
92.63964518463034
 20
128.5586020632127
 30
0.0
 10
92.63803511890275
 20
128.5535624443655
 30
0.0
  0
SPLINE
  5
9E
330
1F
100
AcDbEntity
  8
0
  6
Continuous
 62
     7
370
    15
100
AcDbSpline
210
0.0
220
0.0
230
1.0
 70
     8
 71
     3
 72
    26
 73
    22
 74
     0
 42
0.00000001
 43
0.00000001
 40
0.0
 40
0.0
 40
0.0
 40
0.0
 40
0.2500000000000165
 40
0.2500000000000165
 40
0.3750000000000256
 40
0.3750000000000256
 40
0.4375000000000291
 40
0.4375000000000291
 40
0.4687500000000291
 40
0.4687500000000291
 40
0.5000000000000292
 40
0.5000000000000292
 40
0.5312500000000293
 40
0.5312500000000293
 40
0.5625000000000293
 40
0.5625000000000293
 40
0.625000000000026
 40
0.625000000000026
 40
0.7500000000000173
 40
0.7500000000000173
 40
1.0
 40
1.0
 40
1.0
 40
1.0
 10
93.44680556727522
 20
129.2192634289392
 30
0.0
 10
93.40820504440676
 20
129.1014887325837
 30
0.0
 10
93.36190804185249
 20
128.9770990464218
 30
0.0
 10
93.26796869341855
 20
128.7718797140683
 30
0.0
 10
93.2326572265051
 20
128.7003068476219
 30
0.0
 10
93.16647725075944
 20
128.5843536150214
 30
0.0
 10
93.1419388840912
 20
128.5437690802112
 30
0.0
 10
93.09856613853741
 20
128.4796273983394
 30
0.0
 10
93.0830577371122
 20
128.4577609730544
 30
0.0
 10
93.04801509252519
 20
128.4121667047112
 30
0.0
 10
93.02846480180541
 20
128.3884964137438
 30
0.0
 10
92.98653752143483
 20
128.3438798544038
 30
0.0
 10
92.96388541120318
 20
128.3229998418859
 30
0.0
 10
92.92291169711653
 20
128.2921264281351
 30
0.0
 10
92.90531239722111
 20
128.2822875583027
 30
0.0
 10
92.86068541136497
 20
128.2632979426065
 30
0.0
 10
92.84012618871162
 20
128.2629736179531
 30
0.0
 10
92.78900074921496
 20
128.2721970588293
 30
0.0
 10
92.76808933622644
 20
128.2934439550463
 30
0.0
 10
92.7166394286655
 20
128.367412833877
 30
0.0
 10
92.69897412936095
 20
128.4335309271918
 30
0.0
 10
92.6853152958941
 20
128.5036966401221
 30
0.0
  0
SPLINE
  5
9F
330
1F
100
AcDbEntity
  8
0
  6
Continuous
 62
     7
370
    15
100
AcDbSpline
210
0.0
220
0.0
230
1.0
 70
     8
 71
     3
 72
    10
 73
     6
 74
     0
 42
0.00000001
 43
0.00000001
 40
0.0
 40
0.0
 40
0.0
 40
0.0
 40
0.5
 40
0.5
 40
1.0
 40
1.0
 40
1.0
 40
1.0
 10
93.76260699075249
 20
129.6890979876289
 30
0.0
 10
93.69504773583425
 20
129.6214065948192
 30
0.0
 10
93.63141108049776
 20
129.5466994300656
 30
0.0
 10
93.52119032592591
 20
129.387733297639
 30
0.0
 10
93.47437403270328
 20
129.303378031631
 30
0.0
 10
93.44680556727522
 20
129.2192634289392
 30
0.0
  0
SPLINE
  5
A0
330
1F
100
AcDbEntity
  8
0
  6
Continuous
 62
     7
370
    15
100
AcDbSpline
210
0.0
220
0.0
230
1.0
 70
     8
 71
     3
 72
    10
 73
     6
 74
     0
 42
0.00000001
 43
0.00000001
 40
0.0
 40
0.0
 40
0.0
 40
0.0
 40
0.5
 40
0.5
 40
1.0
 40
1.0
 40
1.0
 40
1.0
 10
93.44680556727525
 20
88.43902476174335
 30
0.0
 10
93.47428298202922
 20
88.35518796527548
 30
0.0
 10
93.52099161231864
 20
88.27087747768633
 30
0.0
 10
93.63127007506459
 20
88.11175624719962
 30
0.0
 10
93.6951576136785
 20
88.03677150310997
 30
0.0
 10
93.7626069907631
 20
87.96919020304303
 30
0.0
  0
SPLINE
  5
A1
330
1F
100
AcDbEntity
  8
0
  6
Continuous
 62
     7
370
    15
100
AcDbSpline
210
0.0
220
0.0
230
1.0
 70
     8
 71
     3
 72
    24
 73
    20
 74
     0
 42
0.00000001
 43
0.00000001
 40
0.0
 40
0.0
 40
0.0
 40
0.0
 40
0.25
 40
0.25
 40
0.374999999999999
 40
0.374999999999999
 40
0.4374999999999993
 40
0.4374999999999993
 40
0.4687499999999994
 40
0.4687499999999994
 40
0.4999999999999995
 40
0.4999999999999995
 40
0.5624999999999971
 40
0.5624999999999971
 40
0.6249999999999947
 40
0.6249999999999947
 40
0.7499999999999947
 40
0.7499999999999947
 40
1.0
 40
1.0
 40
1.0
 40
1.0
 10
92.6853152958941
 20
89.15459155056057
 30
0.0
 10
92.69906841456435
 20
89.22524160855086
 30
0.0
 10
92.71684098197021
 20
89.2918397213158
 30
0.0
 10
92.76909207352557
 20
89.36593774154899
 30
0.0
 10
92.79012714910712
 20
89.38719554871055
 30
0.0
 10
92.84302755673556
 20
89.39534147485679
 30
0.0
 10
92.86413322961349
 20
89.39440167146103
 30
0.0
 10
92.91018539829143
 20
89.37338567988368
 30
0.0
 10
92.92855587027483
 20
89.36247687377606
 30
0.0
 10
92.97010750534055
 20
89.3298419628287
 30
0.0
 10
92.99267417809745
 20
89.30834998245732
 30
0.0
 10
93.05545519455747
 20
89.23988403887101
 30
0.0
 10
93.08858495552535
 20
89.19380958066591
 30
0.0
 10
93.14550264201038
 20
89.10880169233126
 30
0.0
 10
93.16968866751415
 20
89.06852139114987
 30
0.0
 10
93.23489661789391
 20
88.95358516468391
 30
0.0
 10
93.26961267808514
 20
88.88300217953692
 30
0.0
 10
93.36282794841603
 20
88.67879642045831
 30
0.0
 10
93.4085004837767
 20
88.55589803813095
 30
0.0
 10
93.44680556727525
 20
88.43902476174337
 30
0.0
  0
SPLINE
  5
A2
330
1F
100
AcDbEntity
  8
0
  6
Continuous
 62
     7
370
    15
100
AcDbSpline
210
0.0
220
0.0
230
1.0
 70
     8
 71
     3
 72
    10
 73
     6
 74
     0
 42
0.00000001
 43
0.00000001
 40
0.0
 40
0.0
 40
0.0
 40
0.0
 40
0.5
 40
0.5
 40
1.0
 40
1.0
 40
1.0
 40
1.0
 10
150.4726519211707
 20
138.6755844191052
 30
0.0
 10
150.4726519211707
 20
138.835989685456
 30
0.0
 10
150.4104140900638
 20
138.9950514984446
 30
0.0
 10
150.1912791663213
 20
139.2259639640749
 30
0.0
 10
150.0336904713294
 20
139.2963395685056
 30
0.0
 10
149.8726519211707
 20
139.2963395685056
 30
0.0
  0
SPLINE
  5
A3
330
1F
100
AcDbEntity
  8
0
  6
Continuous
 62
     7
370
    15
100
AcDbSpline
210
0.0
220
0.0
230
1.0
 70
     8
 71
     3
 72
    12
 73
     8
 74
     0
 42
0.00000001
 43
0.00000001
 40
0.0
 40
0.0
 40
0.0
 40
0.0
 40
0.250000000000002
 40
0.250000000000002
 40
0.500000000000004
 40
0.500000000000004
 40
1.0
 40
1.0
 40
1.0
 40
1.0
 10
149.8726519211707
 20
133.2878337577088
 30
0.0
 10
149.9638516429964
 20
133.2878337577088
 30
0.0
 10
150.0544466521324
 20
133.2596140591209
 30
0.0
 10
150.2078593785791
 20
133.1651710518728
 30
0.0
 10
150.2730682459027
 20
133.0988840751675
 30
0.0
 10
150.4258527752426
 20
132.8732592518791
 30
0.0
 10
150.4726519211707
 20
132.6908329888466
 30
0.0
 10
150.4726519211707
 20
132.5100963565997
 30
0.0
  0
LINE
  5
A4
330
1F
100
AcDbEntity
  8
0
  6
Continuous
 62
     7
370
    15
100
AcDbLine
 10
150.4726519212
 20
132.5100963566
 30
0.0
 11
150.4726519212
 21
138.6755844191
 31
0.0
  0
SPLINE
  5
A5
330
1F
100
AcDbEntity
  8
0
  6
Continuous
 62
     7
370
    15
100
AcDbSpline
210
0.0
220
0.0
230
1.0
 70
     8
 71
     3
 72
     8
 73
     4
 74
     0
 42
0.00000001
 43
0.00000001
 40
0.0
 40
0.0
 40
0.0
 40
0.0
 40
1.0
 40
1.0
 40
1.0
 40
1.0
 10
145.9145847526597
 20
139.2963395685056
 30
0.0
 10
145.4194447232954
 20
138.4096599203253
 30
0.0
 10
144.9253620180164
 20
137.5223972846393
 30
0.0
 10
144.4326519211707
 20
136.6343782865129
 30
0.0
  0
LINE
  5
A6
330
1F
100
AcDbEntity
  8
0
  6
Continuous
 62
     7
370
    15
100
AcDbLine
 10
145.9145847527
 20
133.2878337577
 30
0.0
 11
145.9145847527
 21
139.2963395685
 31
0.0
  0
SPLINE
  5
A7
330
1F
100
AcDbEntity
  8
0
  6
Continuous
 62
     7
370
    15
100
AcDbSpline
210
0.0
220
0.0
230
1.0
 70
     8
 71
     3
 72
     8
 73
     4
 74
     0
 42
0.00000001
 43
0.00000001
 40
0.0
 40
0.0
 40
0.0
 40
0.0
 40
1.0
 40
1.0
 40
1.0
 40
1.0
 10
144.4326519211707
 20
129.8792877629246
 30
0.0
 10
144.9119300717605
 20
131.0202989927772
 30
0.0
 10
145.4074979109005
 20
132.1566834035451
 30
0.0
 10
145.9145847526597
 20
133.2878337577087
 30
0.0
  0
LINE
  5
A8
330
1F
100
AcDbEntity
  8
0
  6
Continuous
 62
     7
370
    15
100
AcDbLine
 10
144.4326519212
 20
129.8792877629
 30
0.0
 11
144.4326519212
 21
136.6343782865
 31
0.0
  0
SPLINE
  5
A9
330
1F
100
AcDbEntity
  8
0
  6
Continuous
 62
     7
370
    15
100
AcDbSpline
210
0.0
220
0.0
230
1.0
 70
     8
 71
     3
 72
     8
 73
     4
 74
     0
 42
0.00000001
 43
0.00000001
 40
0.0
 40
0.0
 40
0.0
 40
0.0
 40
1.0
 40
1.0
 40
1.0
 40
1.0
 10
140.6126519211707
 20
136.6343782865129
 30
0.0
 10
140.1199418243249
 20
137.5223972846393
 30
0.0
 10
139.625859119046
 20
138.4096599203253
 30
0.0
 10
139.1307190896817
 20
139.2963395685056
 30
0.0
  0
LINE
  5
AA
330
1F
100
AcDbEntity
  8
0
  6
Continuous
 62
     7
370
    15
100
AcDbLine
 10
140.6126519212
 20
129.8792877629
 30
0.0
 11
140.6126519212
 21
136.6343782865
 31
0.0
  0
SPLINE
  5
AB
330
1F
100
AcDbEntity
  8
0
  6
Continuous
 62
     7
370
    15
100
AcDbSpline
210
0.0
220
0.0
230
1.0
 70
     8
 71
     3
 72
     8
 73
     4
 74
     0
 42
0.00000001
 43
0.00000001
 40
0.0
 40
0.0
 40
0.0
 40
0.0
 40
1.0
 40
1.0
 40
1.0
 40
1.0
 10
139.1307190896816
 20
133.2878337577087
 30
0.0
 10
139.6378059314409
 20
132.1566834035451
 30
0.0
 10
140.1333737705808
 20
131.0202989927773
 30
0.0
 10
140.6126519211707
 20
129.8792877629247
 30
0.0
  0
LINE
  5
AC
330
1F
100
AcDbEntity
  8
0
  6
Continuous
 62
     7
370
    15
100
AcDbLine
 10
149.8726519212
 20
139.2963395685
 30
0.0
 11
145.9145847527
 21
139.2963395685
 31
0.0
  0
LINE
  5
AD
330
1F
100
AcDbEntity
  8
0
  6
Continuous
 62
     7
370
    15
100
AcDbLine
 10
145.9145847527
 20
133.2878337577
 30
0.0
 11
149.8726519212
 21
133.2878337577
 31
0.0
  0
LINE
  5
AE
330
1F
100
AcDbEntity
  8
0
  6
Continuous
 62
     7
370
    15
100
AcDbLine
 10
140.6126519212
 20
129.8792877629
 30
0.0
 11
140.6126519212
 21
128.9650107268
 31
0.0
  0
LINE
  5
AF
330
1F
100
AcDbEntity
  8
0
  6
Continuous
 62
     7
370
    15
100
AcDbLine
 10
144.4326519212
 20
128.9650107268
 30
0.0
 11
144.4326519212
 21
129.8792877629
 31
0.0
  0
LINE
  5
B0
330
1F
100
AcDbEntity
  8
0
  6
Continuous
 62
     7
370
    15
100
AcDbLine
 10
150.4726519212
 20
132.5100963566
 30
0.0
 11
150.4726519212
 21
128.6791440953
 31
0.0
  0
ARC
  5
B1
330
1F
100
AcDbEntity
  8
0
  6
Continuous
 62
     7
370
    15
100
AcDbCircle
 10
132.614045073
 20
127.9192237929
 30
0.0
 40
6.856131885626148
100
AcDbArc
 50
70.448950334
 51
90.7637829985
  0
ARC
  5
B2
330
1F
100
AcDbEntity
  8
0
  6
Continuous
 62
     7
370
    15
100
AcDbCircle
 10
132.4303873981
 20
127.9280046169
 30
0.0
 40
6.847363528545749
100
AcDbArc
 50
89.2279469712
 51
109.685070272
  0
LINE
  5
B3
330
1F
100
AcDbEntity
  8
0
  6
Continuous
 62
     7
370
    15
100
AcDbLine
 10
172.7571400807
 20
95.8291440953
 30
0.0
 11
172.7571400807
 21
121.8291440953
 31
0.0
  0
LINE
  5
B4
330
1F
100
AcDbEntity
  8
0
  6
Continuous
 62
     7
370
    15
100
AcDbLine
 10
204.5226519212
 20
100.1779250787
 30
0.0
 11
204.5226519212
 21
117.480363031
 31
0.0
  0
LINE
  5
B5
330
1F
100
AcDbEntity
  8
0
  6
HIDDEN
 62
     7
370
     0
100
AcDbLine
 10
167.6226519212
 20
106.3291440953
 30
0.0
 11
167.6226519212
 21
111.3291440953
 31
0.0
  0
LINE
  5
B6
330
1F
100
AcDbEntity
  8
0
  6
HIDDEN
 62
     7
370
     0
100
AcDbLine
 10
156.4226519212
 20
106.3291440953
 30
0.0
 11
156.4226519212
 21
111.3291440953
 31
0.0
  0
LINE
  5
B7
330
1F
100
AcDbEntity
  8
0
  6
HIDDEN
 62
     7
370
     0
100
AcDbLine
 10
156.0226519212
 20
106.7291440953
 30
0.0
 11
156.0226519212
 21
110.9291440953
 31
0.0
  0
LINE
  5
B8
330
1F
100
AcDbEntity
  8
0
  6
HIDDEN
 62
     7
370
     0
100
AcDbLine
 10
170.0226519212
 20
107.8291440953
 30
0.0
 11
169.0226519212
 21
107.8291440953
 31
0.0
  0
LINE
  5
B9
330
1F
100
AcDbEntity
  8
0
  6
HIDDEN
 62
     7
370
     0
100
AcDbLine
 10
170.0226519212
 20
106.7291440953
 30
0.0
 11
170.0226519212
 21
107.8291440953
 31
0.0
  0
LINE
  5
BA
330
1F
100
AcDbEntity
  8
0
  6
HIDDEN
 62
     7
370
     0
100
AcDbLine
 10
170.0226519212
 20
109.8291440953
 30
0.0
 11
170.0226519212
 21
110.9291440953
 31
0.0
  0
LINE
  5
BB
330
1F
100
AcDbEntity
  8
0
  6
HIDDEN
 62
     7
370
     0
100
AcDbLine
 10
169.0226519212
 20
109.8291440953
 30
0.0
 11
170.0226519212
 21
109.8291440953
 31
0.0
  0
LINE
  5
BC
330
1F
100
AcDbEntity
  8
0
  6
HIDDEN
 62
     7
370
     0
100
AcDbLine
 10
169.0226519212
 20
107.8291440953
 30
0.0
 11
169.0226519212
 21
109.8291440953
 31
0.0
  0
LINE
  5
BD
330
1F
100
AcDbEntity
  8
0
  6
HIDDEN
 62
     7
370
     0
100
AcDbLine
 10
166.0226519212
 20
108.8291440953
 30
0.0
 11
166.0226519212
 21
108.2041440953
 31
0.0
  0
LINE
  5
BE
330
1F
100
AcDbEntity
  8
0
  6
HIDDEN
 62
     7
370
     0
100
AcDbLine
 10
160.0226519211
 20
108.8291440953
 30
0.0
 11
156.0226519212
 21
108.8291440953
 31
0.0
  0
LINE
  5
BF
330
1F
100
AcDbEntity
  8
0
  6
HIDDEN
 62
     7
370
     0
100
AcDbLine
 10
160.0226519211
 20
108.2041440953
 30
0.0
 11
160.0226519211
 21
108.8291440953
 31
0.0
  0
LINE
  5
C0
330
1F
100
AcDbEntity
  8
0
  6
HIDDEN
 62
     7
370
     0
100
AcDbLine
 10
160.0226519211
 20
108.8291440953
 30
0.0
 11
160.0226519211
 21
109.4541440953
 31
0.0
  0
LINE
  5
C1
330
1F
100
AcDbEntity
  8
0
  6
HIDDEN
 62
     7
370
     0
100
AcDbLine
 10
166.0226519212
 20
108.8291440953
 30
0.0
 11
169.0226519212
 21
108.8291440953
 31
0.0
  0
LINE
  5
C2
330
1F
100
AcDbEntity
  8
0
  6
HIDDEN
 62
     7
370
     0
100
AcDbLine
 10
166.0226519212
 20
109.4541440953
 30
0.0
 11
166.0226519212
 21
108.8291440953
 31
0.0
  0
LINE
  5
C3
330
1F
100
AcDbEntity
  8
0
  6
HIDDEN
 62
     7
370
     0
100
AcDbLine
 10
160.0226519211
 20
109.4541440953
 30
0.0
 11
160.0226519211
 21
110.0791440953
 31
0.0
  0
LINE
  5
C4
330
1F
100
AcDbEntity
  8
0
  6
HIDDEN
 62
     7
370
     0
100
AcDbLine
 10
166.0226519212
 20
108.2041440953
 30
0.0
 11
166.0226519212
 21
107.5791440953
 31
0.0
  0
LINE
  5
C5
330
1F
100
AcDbEntity
  8
0
  6
HIDDEN
 62
     7
370
     0
100
AcDbLine
 10
160.0226519211
 20
107.5791440953
 30
0.0
 11
160.0226519211
 21
108.2041440953
 31
0.0
  0
LINE
  5
C6
330
1F
100
AcDbEntity
  8
0
  6
HIDDEN
 62
     7
370
     0
100
AcDbLine
 10
166.0226519212
 20
110.0791440953
 30
0.0
 11
166.0226519212
 21
109.4541440953
 31
0.0
  0
LINE
  5
C7
330
1F
100
AcDbEntity
  8
0
  6
HIDDEN
 62
     7
370
     0
100
AcDbLine
 10
166.0226519212
 20
107.5791440953
 30
0.0
 11
170.0226519212
 21
107.5791440953
 31
0.0
  0
LINE
  5
C8
330
1F
100
AcDbEntity
  8
0
  6
HIDDEN
 62
     7
370
     0
100
AcDbLine
 10
166.0226519212
 20
110.0791440953
 30
0.0
 11
170.0226519212
 21
110.0791440953
 31
0.0
  0
LINE
  5
C9
330
1F
100
AcDbEntity
  8
0
  6
HIDDEN
 62
     7
370
     0
100
AcDbLine
 10
160.0226519211
 20
107.5791440953
 30
0.0
 11
156.0226519211
 21
107.5791440953
 31
0.0
  0
LINE
  5
CA
330
1F
100
AcDbEntity
  8
0
  6
HIDDEN
 62
     7
370
     0
100
AcDbLine
 10
160.0226519211
 20
110.0791440953
 30
0.0
 11
156.0226519211
 21
110.0791440953
 31
0.0
  0
LINE
  5
CB
330
1F
100
AcDbEntity
  8
0
  6
HIDDEN
 62
     7
370
     0
100
AcDbLine
 10
139.1307190897
 20
133.2878337577
 30
0.0
 11
139.1307190897
 21
128.6791440953
 31
0.0
  0
LWPOLYLINE
  5
CC
330
1F
100
AcDbEntity
  8
0
  6
HIDDEN
 62
     7
370
     0
100
AcDbPolyline
 90
       22
 70
   128
 43
0.0
 10
136.3916724714
 20
122.1276560385
 10
136.4098981945
 20
122.0633357369
 10
136.5181212779
 20
121.392667928
 10
136.4819376887
 20
120.7158709407
 10
136.302655196
 20
120.0574059816
 10
135.9867535363
 20
119.4410716899
 10
135.5456502186
 20
118.8891439927
 10
134.9952878661
 20
118.4215709951
 10
134.3555580081
 20
118.0552520035
 10
133.6495821485
 20
117.8034267406
 10
132.9028760944
 20
117.6751968276
 10
132.142427748
 20
117.6751968276
 10
131.3957216938
 20
117.8034267406
 10
130.6897458343
 20
118.0552520035
 10
130.0500159763
 20
118.4215709951
 10
129.4996536238
 20
118.8891439927
 10
129.058550306
 20
119.4410716899
 10
128.7426486463
 20
120.0574059816
 10
128.5633661536
 20
120.7158709407
 10
128.5271825644
 20
121.392667928
 10
128.6354056479
 20
122.0633357369
 10
128.6663170221
 20
122.1696847802
  0
LINE
  5
CD
330
1F
100
AcDbEntity
  8
0
  6
HIDDEN
 62
     7
370
     0
100
AcDbLine
 10
112.5178021257
 20
85.3045444725
 30
0.0
 11
112.268937307
 21
85.281281506
 31
0.0
  0
LINE
  5
CE
330
1F
100
AcDbEntity
  8
0
  6
HIDDEN
 62
     7
370
     0
100
AcDbLine
 10
112.1363765458
 20
132.3892304236
 30
0.0
 11
112.5177094055
 21
132.3537271253
 31
0.0
  0
SPLINE
  5
CF
330
1F
100
AcDbEntity
  8
0
  6
HIDDEN
 62
     7
370
     0
100
AcDbSpline
210
0.0
220
0.0
230
1.0
 70
     8
 71
     3
 72
    22
 73
    18
 74
     0
 42
0.00000001
 43
0.00000001
 40
0.0
 40
0.0
 40
0.0
 40
0.0
 40
0.069470503305567
 40
0.1409377255045835
 40
0.210413548914841
 40
0.2819466223559928
 40
0.3506518733998513
 40
0.4213897814436845
 40
0.4894670043894698
 40
0.5594810940348494
 40
0.6282706827033766
 40
0.6989997382187428
 40
0.7687375408512302
 40
0.8405098102584779
 40
0.9099666189318144
 40
0.9814998892127903
 40
1.0
 40
1.0
 40
1.0
 40
1.0
 10
118.2776539227723
 20
88.99161561952486
 30
0.0
 10
118.1294800683129
 20
89.01134195933417
 30
0.0
 10
117.8288735514018
 20
89.05136161275496
 30
0.0
 10
117.2939786887211
 20
89.10673527628482
 30
0.0
 10
116.7083401360523
 20
89.15119166141262
 30
0.0
 10
116.094107476479
 20
89.1788766368648
 30
0.0
 10
115.4601908311107
 20
89.18712989033466
 30
0.0
 10
114.8380421305389
 20
89.17514983545418
 30
0.0
 10
114.2320446606783
 20
89.14439908169322
 30
0.0
 10
113.6675557395518
 20
89.09893311094301
 30
0.0
 10
113.1481795019701
 20
89.04285195914342
 30
0.0
 10
112.6953140042887
 20
88.98286179682502
 30
0.0
 10
112.316598860623
 20
88.92488188246611
 30
0.0
 10
112.0285137395479
 20
88.87596307431961
 30
0.0
 10
111.8460558429952
 20
88.84292771179385
 30
0.0
 10
111.7653978916612
 20
88.82778791553821
 30
0.0
 10
111.77968777036
 20
88.8304598689112
 30
0.0
 10
111.7826240628321
 20
88.831008903423
 30
0.0
  0
SPLINE
  5
D0
330
1F
100
AcDbEntity
  8
0
  6
HIDDEN
 62
     7
370
     0
100
AcDbSpline
210
0.0
220
0.0
230
1.0
 70
     8
 71
     3
 72
    22
 73
    18
 74
     0
 42
0.00000001
 43
0.00000001
 40
0.0
 40
0.0
 40
0.0
 40
0.0
 40
0.0499040281125884
 40
0.1203075863893544
 40
0.1885125365560131
 40
0.258644416829719
 40
0.3277839407293157
 40
0.3988873214655099
 40
0.4686969488930336
 40
0.5405663748364754
 40
0.609708789122301
 40
0.6809159691092499
 40
0.7490773369981711
 40
0.8192056085539694
 40
0.8876078379088254
 40
0.9579332867310426
 40
1.0
 40
1.0
 40
1.0
 40
1.0
 10
111.7826240628321
 20
128.8272792872596
 30
0.0
 10
111.7838749968576
 20
128.8270402568639
 30
0.0
 10
111.7868907224219
 20
128.8264640073892
 30
0.0
 10
111.9117840494754
 20
128.8032659725658
 30
0.0
 10
112.136265877353
 20
128.7635859362481
 30
0.0
 10
112.4552940395305
 20
128.7113745148489
 30
0.0
 10
112.8628292705272
 20
128.6520447031766
 30
0.0
 10
113.3446158243601
 20
128.5925699266607
 30
0.0
 10
113.8950355061554
 20
128.5389635702987
 30
0.0
 10
114.4879303921036
 20
128.4984896518243
 30
0.0
 10
115.1148829624208
 20
128.475290403458
 30
0.0
 10
115.7430939362488
 20
128.4723123002431
 30
0.0
 10
116.3673540287258
 20
128.4894466259424
 30
0.0
 10
116.9599723185542
 20
128.5241324816325
 30
0.0
 10
117.5167984020823
 20
128.5730888452962
 30
0.0
 10
117.9546052467152
 20
128.6229890099195
 30
0.0
 10
118.1896719534881
 20
128.6547753989111
 30
0.0
 10
118.2776539227723
 20
128.6666725711578
 30
0.0
  0
SPLINE
  5
D1
330
1F
100
AcDbEntity
  8
0
  6
HIDDEN
 62
     7
370
     0
100
AcDbSpline
210
0.0
220
0.0
230
1.0
 70
     8
 71
     3
 72
    12
 73
     8
 74
     0
 42
0.00000001
 43
0.00000001
 40
0.0
 40
0.0
 40
0.0
 40
0.0
 40
0.2208188061601852
 40
0.4480900429463158
 40
0.6689432265833899
 40
0.8961370690003194
 40
1.0
 40
1.0
 40
1.0
 40
1.0
 10
118.2776539227723
 20
128.6666725711578
 30
0.0
 10
118.4096971383068
 20
128.6837296590123
 30
0.0
 10
118.6776419349865
 20
128.7183422509478
 30
0.0
 10
118.9727979131752
 20
128.7453141881322
 30
0.0
 10
119.1738906374995
 20
128.7608239466948
 30
0.0
 10
119.2712225446395
 20
128.7669332005205
 30
0.0
 10
119.2625638703198
 20
128.7663879429694
 30
0.0
 10
119.2598473716234
 20
128.7662168785118
 30
0.0
  0
SPLINE
  5
D2
330
1F
100
AcDbEntity
  8
0
  6
HIDDEN
 62
     7
370
     0
100
AcDbSpline
210
0.0
220
0.0
230
1.0
 70
     8
 71
     3
 72
    12
 73
     8
 74
     0
 42
0.00000001
 43
0.00000001
 40
0.0
 40
0.0
 40
0.0
 40
0.0
 40
0.1180999824084444
 40
0.3464923114131301
 40
0.5687549489489319
 40
0.7975156856014113
 40
1.0
 40
1.0
 40
1.0
 40
1.0
 10
119.2598472788796
 20
88.89207131808172
 30
0.0
 10
119.2619699344795
 20
88.89193729477905
 30
0.0
 10
119.268197571691
 20
88.89154408520378
 30
0.0
 10
119.1635329083781
 20
88.89816733478325
 30
0.0
 10
118.9535592916167
 20
88.91457171408123
 30
0.0
 10
118.6581008193517
 20
88.94217342581864
 30
0.0
 10
118.3992113780818
 20
88.9758182314902
 30
0.0
 10
118.2776539227723
 20
88.99161561952486
 30
0.0
  0
LINE
  5
D3
330
1F
100
AcDbEntity
  8
0
  6
HIDDEN
 62
     7
370
     0
100
AcDbLine
 10
105.5266265174
 20
91.8291440953
 30
0.0
 11
105.5266265174
 21
125.8291440953
 31
0.0
  0
LWPOLYLINE
  5
D4
330
1F
100
AcDbEntity
  8
0
  6
HIDDEN
 62
     7
370
     0
100
AcDbPolyline
 90
       28
 70
   128
 43
0.0
 10
134.9084263376
 20
134.3800564827
 10
135.2829679671
 20
134.2222145862
 10
135.7809557294
 20
133.9348603291
 10
136.1611799026
 20
133.605576536
 10
136.4098981945
 20
133.246264381
 10
136.5181212779
 20
132.8699103416
 10
136.4819376887
 20
132.4901168334
 10
136.302655196
 20
132.1206105833
 10
135.9867535363
 20
131.77474651
 10
135.5456502186
 20
131.4650250421
 10
134.9952878661
 20
131.2026403205
 10
134.3555580081
 20
130.9970756127
 10
133.6495821485
 20
130.8557605628
 10
132.9028760944
 20
130.7838026648
 10
132.142427748
 20
130.7838026648
 10
131.3957216938
 20
130.8557605628
 10
130.6897458343
 20
130.9970756127
 10
130.0500159763
 20
131.2026403205
 10
129.4996536238
 20
131.4650250421
 10
129.058550306
 20
131.77474651
 10
128.7426486463
 20
132.1206105833
 10
128.5633661536
 20
132.4901168334
 10
128.5271825644
 20
132.8699103416
 10
128.6354056479
 20
133.246264381
 10
128.8841239398
 20
133.605576536
 10
129.264348113
 20
133.9348603291
 10
129.7623358752
 20
134.2222145862
 10
130.1238535052
 20
134.3751969278
  0
SPLINE
  5
D5
330
1F
100
AcDbEntity
  8
0
  6
HIDDEN
 62
     7
370
     0
100
AcDbSpline
210
0.0
220
0.0
230
1.0
 70
     8
 71
     3
 72
    11
 73
     7
 74
     0
 42
0.00000001
 43
0.00000001
 40
0.0
 40
0.0
 40
0.0
 40
0.0
 40
0.0005779865010845
 40
0.0005779865010845
 40
0.0005779865010845
 40
0.0011559733324421
 40
0.0011559733324421
 40
0.0011559733324421
 40
0.0011559733324421
 10
92.62265192117071
 20
110.8289847035012
 30
0.0
 10
92.78931917597667
 20
110.8270010641602
 30
0.0
 10
92.95598560565432
 20
110.8249634571516
 30
0.0
 10
93.12265194410615
 20
110.8228519937452
 30
0.0
 10
93.28931837293256
 20
110.8207405291938
 30
0.0
 10
93.45598474657027
 20
110.8185549660375
 30
0.0
 10
93.62265192117071
 20
110.8162723887059
 30
0.0
  0
SPLINE
  5
D6
330
1F
100
AcDbEntity
  8
0
  6
HIDDEN
 62
     7
370
     0
100
AcDbSpline
210
0.0
220
0.0
230
1.0
 70
     8
 71
     3
 72
    11
 73
     7
 74
     0
 42
0.00000001
 43
0.00000001
 40
0.0
 40
0.0
 40
0.0
 40
0.0
 40
0.0005782382535738
 40
0.0005782382535738
 40
0.0005782382535738
 40
0.0011564766069466
 40
0.0011564766069466
 40
0.0011564766069466
 40
0.0011564766069466
 10
93.6226519211707
 20
106.8324437931251
 30
0.0
 10
93.45599796720207
 20
106.8320062153632
 30
0.0
 10
93.28933729500008
 20
106.8315261506905
 30
0.0
 10
93.12267040633466
 20
106.8310066113208
 30
0.0
 10
92.95600348793862
 20
106.8304870718584
 30
0.0
 10
92.7893303581054
 20
106.8299282428362
 30
0.0
 10
92.6226519211707
 20
106.8293426992527
 30
0.0
  0
LINE
  5
D7
330
1F
100
AcDbEntity
  8
0
  6
HIDDEN
 62
     7
370
     0
100
AcDbLine
 10
132.1824778897
 20
91.8291440953
 30
0.0
 11
132.1824778897
 21
125.8291440953
 31
0.0
  0
LINE
  5
D8
330
1F
100
AcDbEntity
  8
0
  6
HIDDEN
 62
     7
370
     0
100
AcDbLine
 10
134.4726519212
 20
93.1041440953
 30
0.0
 11
134.4726519212
 21
124.5541440941
 31
0.0
  0
SPLINE
  5
D9
330
1F
100
AcDbEntity
  8
0
  6
HIDDEN
 62
     7
370
     0
100
AcDbSpline
210
0.0
220
0.0
230
1.0
 70
     8
 71
     3
 72
    16
 73
    12
 74
     0
 42
0.00000001
 43
0.00000001
 40
0.0
 40
0.0
 40
0.0
 40
0.0
 40
0.124999999999998
 40
0.124999999999998
 40
0.249999999999996
 40
0.249999999999996
 40
0.4999999999999973
 40
0.4999999999999973
 40
0.7499999999999987
 40
0.7499999999999987
 40
1.0
 40
1.0
 40
1.0
 40
1.0
 10
101.3226519211707
 20
93.02765365930966
 30
0.0
 10
101.4177736758365
 20
93.02765365930966
 30
0.0
 10
101.5111037445646
 20
93.02383782591686
 30
0.0
 10
101.6943655053026
 20
93.00906727318706
 30
0.0
 10
101.7852432208596
 20
92.99790922521147
 30
0.0
 10
102.0420449183794
 20
92.95543795506974
 30
0.0
 10
102.1971122832513
 20
92.91439175786695
 30
0.0
 10
102.450858744806
 20
92.81924564128506
 30
0.0
 10
102.5517291964738
 20
92.76448290720349
 30
0.0
 10
102.6869756111687
 20
92.6532217832996
 30
0.0
 10
102.7226519211707
 20
92.59605204597092
 30
0.0
 10
102.7226519211707
 20
92.5416304729372
 30
0.0
  0
SPLINE
  5
DA
330
1F
100
AcDbEntity
  8
0
  6
HIDDEN
 62
     7
370
     0
100
AcDbSpline
210
0.0
220
0.0
230
1.0
 70
     8
 71
     3
 72
     8
 73
     4
 74
     0
 42
0.00000001
 43
0.00000001
 40
0.0
 40
0.0
 40
0.0
 40
0.0
 40
1.0
 40
1.0
 40
1.0
 40
1.0
 10
93.92265192448583
 20
95.17245660539189
 30
0.0
 10
93.92265192448777
 20
94.28855946307498
 30
0.0
 10
93.90917129857796
 20
93.57397621801302
 30
0.0
 10
93.90781993038863
 20
93.02765365930965
 30
0.0
  0
SPLINE
  5
DB
330
1F
100
AcDbEntity
  8
0
  6
HIDDEN
 62
     7
370
     0
100
AcDbSpline
210
0.0
220
0.0
230
1.0
 70
     8
 71
     3
 72
    10
 73
     6
 74
     0
 42
0.00000001
 43
0.00000001
 40
0.0
 40
0.0
 40
0.0
 40
0.0
 40
0.5
 40
0.5
 40
1.0
 40
1.0
 40
1.0
 40
1.0
 10
93.6226519211707
 20
96.1973668710949
 30
0.0
 10
93.71404303686357
 20
96.02272808347752
 30
0.0
 10
93.7866948705965
 20
95.84912625622195
 30
0.0
 10
93.89419376360449
 20
95.50551283721529
 30
0.0
 10
93.92265192448023
 20
95.33718701068392
 30
0.0
 10
93.92265192448585
 20
95.17245660545137
 30
0.0
  0
LINE
  5
DC
330
1F
100
AcDbEntity
  8
0
  6
HIDDEN
 62
     7
370
     0
100
AcDbLine
 10
93.6226519212
 20
99.2283173029
 30
0.0
 11
93.6226519212
 21
96.1973668711
 31
0.0
  0
SPLINE
  5
DD
330
1F
100
AcDbEntity
  8
0
  6
HIDDEN
 62
     7
370
     0
100
AcDbSpline
210
0.0
220
0.0
230
1.0
 70
     8
 71
     3
 72
    10
 73
     6
 74
     0
 42
0.00000001
 43
0.00000001
 40
0.0
 40
0.0
 40
0.0
 40
0.0
 40
0.5
 40
0.5
 40
1.0
 40
1.0
 40
1.0
 40
1.0
 10
93.92265192435858
 20
100.5961577196985
 30
0.0
 10
93.92265192435855
 20
100.3541737520917
 30
0.0
 10
93.89450189528809
 20
100.1198313231267
 30
0.0
 10
93.79091198114564
 20
99.6644563008491
 30
0.0
 10
93.71428327155395
 20
99.44285173774178
 30
0.0
 10
93.62265192117069
 20
99.22831730294388
 30
0.0
  0
LINE
  5
DE
330
1F
100
AcDbEntity
  8
0
  6
HIDDEN
 62
     7
370
     0
100
AcDbLine
 10
93.9226519244
 20
112.4337777169
 30
0.0
 11
93.9226519244
 21
100.5961577197
 31
0.0
  0
SPLINE
  5
DF
330
1F
100
AcDbEntity
  8
0
  6
HIDDEN
 62
     7
370
     0
100
AcDbSpline
210
0.0
220
0.0
230
1.0
 70
     8
 71
     3
 72
     8
 73
     4
 74
     0
 42
0.00000001
 43
0.00000001
 40
0.0
 40
0.0
 40
0.0
 40
0.0
 40
1.0
 40
1.0
 40
1.0
 40
1.0
 10
93.62265192117071
 20
118.4360834164104
 30
0.0
 10
93.80368338772986
 20
118.0039759307475
 30
0.0
 10
93.9226519243643
 20
117.5498305246476
 30
0.0
 10
93.92265192435862
 20
117.0621304709532
 30
0.0
  0
LINE
  5
E0
330
1F
100
AcDbEntity
  8
0
  6
HIDDEN
 62
     7
370
     0
100
AcDbLine
 10
93.6226519212
 20
121.4692864024
 30
0.0
 11
93.6226519212
 21
118.4360834164
 31
0.0
  0
SPLINE
  5
E1
330
1F
100
AcDbEntity
  8
0
  6
HIDDEN
 62
     7
370
     0
100
AcDbSpline
210
0.0
220
0.0
230
1.0
 70
     8
 71
     3
 72
    10
 73
     6
 74
     0
 42
0.00000001
 43
0.00000001
 40
0.0
 40
0.0
 40
0.0
 40
0.0
 40
0.5
 40
0.5
 40
1.0
 40
1.0
 40
1.0
 40
1.0
 10
93.92265192456395
 20
122.4858315852612
 30
0.0
 10
93.92265192456216
 20
122.3211952386552
 30
0.0
 10
93.89549325380692
 20
122.1540400148247
 30
0.0
 10
93.78972825848841
 20
121.8154170070231
 30
0.0
 10
93.71331347019108
 20
121.6431452297322
 30
0.0
 10
93.62265192117073
 20
121.4692864023882
 30
0.0
  0
SPLINE
  5
E2
330
1F
100
AcDbEntity
  8
0
  6
HIDDEN
 62
     7
370
     0
100
AcDbSpline
210
0.0
220
0.0
230
1.0
 70
     8
 71
     3
 72
    18
 73
    14
 74
     0
 42
0.00000001
 43
0.00000001
 40
0.0
 40
0.0
 40
0.0
 40
0.0
 40
0.2500000000000033
 40
0.2500000000000033
 40
0.3750000000000029
 40
0.3750000000000029
 40
0.5000000000000026
 40
0.5000000000000026
 40
0.6250000000000022
 40
0.6250000000000022
 40
0.7500000000000018
 40
0.7500000000000018
 40
1.0
 40
1.0
 40
1.0
 40
1.0
 10
98.72265192117072
 20
125.1166577177454
 30
0.0
 10
98.72265192117071
 20
125.0621831971932
 30
0.0
 10
98.68774122977852
 20
125.0058021378408
 30
0.0
 10
98.58573192844548
 20
124.9217252969873
 30
0.0
 10
98.54409557376736
 20
124.8943915929964
 30
0.0
 10
98.44568977827862
 20
124.8414376773974
 30
0.0
 10
98.38814656657435
 20
124.8155503236802
 30
0.0
 10
98.2608483930014
 20
124.7677727788469
 30
0.0
 10
98.19126108824393
 20
124.7458248606691
 30
0.0
 10
98.03982684308897
 20
124.7063922957563
 30
0.0
 10
97.95714293999502
 20
124.6888360465305
 30
0.0
 10
97.70103147795697
 20
124.64639728111
 30
0.0
 10
97.513116474069
 20
124.630634531373
 30
0.0
 10
97.3226519211707
 20
124.630634531373
 30
0.0
  0
LINE
  5
E3
330
1F
100
AcDbEntity
  8
0
  6
HIDDEN
 62
     7
370
     0
100
AcDbLine
 10
97.3226519212
 20
124.6306345314
 30
0.0
 11
93.9226519246
 21
124.6306345314
 31
0.0
  0
LINE
  5
E4
330
1F
100
AcDbEntity
  8
0
  6
HIDDEN
 62
     7
370
     0
100
AcDbLine
 10
93.8536829345
 20
93.0276536593
 30
0.0
 11
101.3226519212
 21
93.0276536593
 31
0.0
  0
SPLINE
  5
E5
330
1F
100
AcDbEntity
  8
0
  6
HIDDEN
 62
     7
370
     0
100
AcDbSpline
210
0.0
220
0.0
230
1.0
 70
     8
 71
     3
 72
    22
 73
    18
 74
     0
 42
0.00000001
 43
0.00000001
 40
0.0
 40
0.0
 40
0.0
 40
0.0
 40
0.1249999999999999
 40
0.1249999999999999
 40
0.2499999999999999
 40
0.2499999999999999
 40
0.4999999999999996
 40
0.4999999999999996
 40
0.5624999999999994
 40
0.5624999999999994
 40
0.6249999999999993
 40
0.6249999999999993
 40
0.7499999999999994
 40
0.7499999999999994
 40
0.8749999999999997
 40
0.8749999999999997
 40
1.0
 40
1.0
 40
1.0
 40
1.0
 10
93.85368293452862
 20
93.02765365930968
 30
0.0
 10
93.84060054180024
 20
93.28275936945735
 30
0.0
 10
93.82738097836041
 20
93.57591762856124
 30
0.0
 10
93.80493380056632
 20
94.23821809418605
 30
0.0
 10
93.79545533354185
 20
94.60849201479743
 30
0.0
 10
93.77625737260531
 20
95.83104881791121
 30
0.0
 10
93.77737114560217
 20
96.76818774404309
 30
0.0
 10
93.79628193855527
 20
98.08805897355808
 30
0.0
 10
93.80091146641425
 20
98.35956088253438
 30
0.0
 10
93.8113926861602
 20
98.91794571733666
 30
0.0
 10
93.81718794744464
 20
99.2050685732763
 30
0.0
 10
93.83549716834958
 20
100.077657827648
 30
0.0
 10
93.84953210262995
 20
100.6781135040038
 30
0.0
 10
93.87898927476677
 20
101.9155879964999
 30
0.0
 10
93.89454496574832
 20
102.5526041531433
 30
0.0
 10
93.91833951574523
 20
103.8640927508279
 30
0.0
 10
93.92635856789059
 20
104.5402153624884
 30
0.0
 10
93.9226519211707
 20
105.2245104737732
 30
0.0
  0
LINE
  5
E6
330
1F
100
AcDbEntity
  8
0
  6
HIDDEN
 62
     7
370
     0
100
AcDbLine
 10
93.9226519246
 20
112.4337777169
 30
0.0
 11
93.9226519246
 21
124.6306345314
 31
0.0
  0
SPLINE
  5
E7
330
1F
100
AcDbEntity
  8
0
  6
HIDDEN
 62
     7
370
     0
100
AcDbSpline
210
0.0
220
0.0
230
1.0
 70
     8
 71
     3
 72
    10
 73
     6
 74
     0
 42
0.00000001
 43
0.00000001
 40
0.0
 40
0.0
 40
0.0
 40
0.0
 40
0.5
 40
0.5
 40
1.0
 40
1.0
 40
1.0
 40
1.0
 10
93.92265192117071
 20
105.2245104737581
 30
0.0
 10
93.92265192117053
 20
105.4984256218325
 30
0.0
 10
93.89689269130281
 20
105.7693672005626
 30
0.0
 10
93.7936867585697
 20
106.3050582821655
 30
0.0
 10
93.71634859469447
 20
106.5708050856875
 30
0.0
 10
93.6226519211707
 20
106.8324437931251
 30
0.0
  0
SPLINE
  5
E8
330
1F
100
AcDbEntity
  8
0
  6
HIDDEN
 62
     7
370
     0
100
AcDbSpline
210
0.0
220
0.0
230
1.0
 70
     8
 71
     3
 72
    10
 73
     6
 74
     0
 42
0.00000001
 43
0.00000001
 40
0.0
 40
0.0
 40
0.0
 40
0.0
 40
0.5
 40
0.5
 40
1.0
 40
1.0
 40
1.0
 40
1.0
 10
93.62265192117071
 20
110.8162723887059
 30
0.0
 10
93.71588250256174
 20
111.080166196776
 30
0.0
 10
93.79091211479847
 20
111.3463465074142
 30
0.0
 10
93.8959792139766
 20
111.8846690823724
 30
0.0
 10
93.92265192456279
 20
112.157417198618
 30
0.0
 10
93.92265192456398
 20
112.4337777169084
 30
0.0
  0
LINE
  5
E9
330
1F
100
AcDbEntity
  8
0
  6
HIDDEN
 62
     7
370
     0
100
AcDbLine
 10
93.6226519212
 20
106.8324437931
 30
0.0
 11
93.6226519212
 21
110.8162723887
 31
0.0
  0
LINE
  5
EA
330
1F
100
AcDbEntity
  8
0
  6
HIDDEN
 62
     7
370
     0
100
AcDbLine
 10
93.7726519212
 20
90.8391440953
 30
0.0
 11
93.7726519212
 21
87.9592063299
 31
0.0
  0
LINE
  5
EB
330
1F
100
AcDbEntity
  8
0
  6
HIDDEN
 62
     7
370
     0
100
AcDbLine
 10
102.7226519212
 20
90.8391440953
 30
0.0
 11
102.7226519212
 21
86.8654065641
 31
0.0
  0
LINE
  5
EC
330
1F
100
AcDbEntity
  8
0
  6
HIDDEN
 62
     7
370
     0
100
AcDbLine
 10
93.7726519212
 20
126.8191440953
 30
0.0
 11
93.7726519212
 21
129.6990818607
 31
0.0
  0
LINE
  5
ED
330
1F
100
AcDbEntity
  8
0
  6
HIDDEN
 62
     7
370
     0
100
AcDbLine
 10
98.7226519212
 20
126.8191440953
 30
0.0
 11
98.7226519212
 21
130.6732517677
 31
0.0
  0
LINE
  5
EE
330
1F
100
AcDbEntity
  8
0
  6
HIDDEN
 62
     7
370
     0
100
AcDbLine
 10
143.3226519212
 20
99.3291440953
 30
0.0
 11
143.3226519212
 21
118.3291440953
 31
0.0
  0
LINE
  5
EF
330
1F
100
AcDbEntity
  8
0
  6
HIDDEN
 62
     7
370
     0
100
AcDbLine
 10
146.3226519212
 20
99.3291440953
 30
0.0
 11
146.3226519212
 21
118.3291440953
 31
0.0
  0
LINE
  5
F0
330
1F
100
AcDbEntity
  8
0
  6
HIDDEN
 62
     7
370
     0
100
AcDbLine
 10
134.9726519212
 20
100.3291440953
 30
0.0
 11
134.9726519212
 21
117.3291440953
 31
0.0
  0
LINE
  5
F1
330
1F
100
AcDbEntity
  8
0
  6
HIDDEN
 62
     7
370
     0
100
AcDbLine
 10
129.4726519212
 20
77.3450211125
 30
0.0
 11
129.4726519212
 21
82.4291440953
 31
0.0
  0
LINE
  5
F2
330
1F
100
AcDbEntity
  8
0
  6
HIDDEN
 62
     7
370
     0
100
AcDbLine
 10
137.4726519212
 20
82.4291440953
 30
0.0
 11
129.4726519212
 21
82.4291440953
 31
0.0
  0
LINE
  5
F3
330
1F
100
AcDbEntity
  8
0
  6
HIDDEN
 62
     7
370
     0
100
AcDbLine
 10
150.4726519212
 20
82.4291440953
 30
0.0
 11
144.3349771188
 21
82.4291440953
 31
0.0
  0
LINE
  5
F4
330
1F
100
AcDbEntity
  8
0
  6
HIDDEN
 62
     7
370
     0
100
AcDbLine
 10
140.7103267235
 20
82.4291440953
 30
0.0
 11
137.4726519212
 21
82.4291440953
 31
0.0
  0
LINE
  5
F5
330
1F
100
AcDbEntity
  8
0
  6
HIDDEN
 62
     7
370
     0
100
AcDbLine
 10
150.4726519212
 20
135.2291440953
 30
0.0
 11
144.0383543895
 21
135.2291440953
 31
0.0
  0
LINE
  5
F6
330
1F
100
AcDbEntity
  8
0
  6
HIDDEN
 62
     7
370
     0
100
AcDbLine
 10
141.0069494529
 20
135.2291440953
 30
0.0
 11
137.4726519212
 21
135.2291440953
 31
0.0
  0
LINE
  5
F7
330
1F
100
AcDbEntity
  8
0
  6
HIDDEN
 62
     7
370
     0
100
AcDbLine
 10
137.4726519212
 20
135.2291440953
 30
0.0
 11
129.4726519212
 21
135.2291440953
 31
0.0
  0
SPLINE
  5
F8
330
1F
100
AcDbEntity
  8
0
  6
HIDDEN
 62
     7
370
     0
100
AcDbSpline
210
0.0
220
0.0
230
1.0
 70
     8
 71
     3
 72
    11
 73
     7
 74
     0
 42
0.00000001
 43
0.00000001
 40
0.0
 40
0.0
 40
0.0
 40
0.0
 40
0.0008203708524183
 40
0.0008203708524183
 40
0.0008203708524183
 40
0.0016409967870154
 40
0.0016409967870154
 40
0.0016409967870154
 40
0.0016409967870154
 10
93.7726519211707
 20
92.97711134469859
 30
0.0
 10
93.58149362087205
 20
92.93593231607946
 30
0.0
 10
93.39006655079986
 20
92.89717834384946
 30
0.0
 10
93.19842092727923
 20
92.86081058457091
 30
0.0
 10
93.00671552219877
 20
92.82443148080488
 30
0.0
 10
92.81477657013984
 20
92.79043723003733
 30
0.0
 10
92.62265192306904
 20
92.75878910464611
 30
0.0
  0
ELLIPSE
  5
F9
330
1F
100
AcDbEntity
  8
0
  6
HIDDEN
 62
     7
370
     0
100
AcDbEllipse
 10
88.3802200526
 20
108.8291440953
 30
0.0
 11
20.19992453366613
 21
-1.421085471520200E-14
 31
0.0
210
0.0
220
0.0
230
1.0
 40
0.8164965809
 41
1.30056635471801
 42
1.359198697209614
  0
LINE
  5
FA
330
1F
100
AcDbEntity
  8
0
  6
HIDDEN
 62
     7
370
     0
100
AcDbLine
 10
93.7726519212
 20
90.8391440953
 30
0.0
 11
93.7726519212
 21
92.9771113447
 31
0.0
  0
LINE
  5
FB
330
1F
100
AcDbEntity
  8
0
  6
HIDDEN
 62
     7
370
     0
100
AcDbLine
 10
93.8536829345
 20
93.0276536593
 30
0.0
 11
93.7726519212
 21
92.9771113447
 31
0.0
  0
LINE
  5
FC
330
1F
100
AcDbEntity
  8
0
  6
HIDDEN
 62
     7
370
     0
100
AcDbLine
 10
102.7226519212
 20
90.8391440953
 30
0.0
 11
102.7226519212
 21
92.5416304729
 31
0.0
  0
LINE
  5
FD
330
1F
100
AcDbEntity
  8
0
  6
HIDDEN
 62
     7
370
     0
100
AcDbLine
 10
93.7726519212
 20
126.8191440953
 30
0.0
 11
93.7726519212
 21
124.7237685464
 31
0.0
  0
SPLINE
  5
FE
330
1F
100
AcDbEntity
  8
0
  6
HIDDEN
 62
     7
370
     0
100
AcDbSpline
210
0.0
220
0.0
230
1.0
 70
     8
 71
     3
 72
     8
 73
     4
 74
     0
 42
0.00000001
 43
0.00000001
 40
0.0
 40
0.0
 40
0.0
 40
0.0
 40
1.0
 40
1.0
 40
1.0
 40
1.0
 10
93.7726519211707
 20
124.7237685464
 30
0.0
 10
93.82265742011445
 20
124.6927327721808
 30
0.0
 10
93.87265749077886
 20
124.6616881271533
 30
0.0
 10
93.922651924564
 20
124.630634531373
 30
0.0
  0
LINE
  5
FF
330
1F
100
AcDbEntity
  8
0
  6
HIDDEN
 62
     7
370
     0
100
AcDbLine
 10
98.7226519212
 20
126.8191440953
 30
0.0
 11
98.7226519212
 21
125.1166577177
 31
0.0
  0
SPLINE
  5
100
330
1F
100
AcDbEntity
  8
0
  6
HIDDEN
 62
     7
370
     0
100
AcDbSpline
210
0.0
220
0.0
230
1.0
 70
     8
 71
     3
 72
    20
 73
    16
 74
     0
 42
0.00000001
 43
0.00000001
 40
0.0
 40
0.0
 40
0.0
 40
0.0
 40
0.1118532753367727
 40
0.1773727969001436
 40
0.2489947124776664
 40
0.3297435623025036
 40
0.3985163041505095
 40
0.4997965445410392
 40
0.6137622343533015
 40
0.6789284883141681
 40
0.7494553429231908
 40
0.8296017033995806
 40
0.8980457170458405
 40
0.9994566317807579
 40
1.0
 40
1.0
 40
1.0
 40
1.0
 10
119.2712672377985
 20
85.22921044560417
 30
0.0
 10
119.2279751632085
 20
85.24262885943284
 30
0.0
 10
119.1593241887018
 20
85.2639072849737
 30
0.0
 10
118.7143067768838
 20
85.36717981235255
 30
0.0
 10
118.187757074924
 20
85.48048123535827
 30
0.0
 10
117.50232950071
 20
85.60341464191866
 30
0.0
 10
116.6090127579502
 20
85.72544895856235
 30
0.0
 10
115.495653185814
 20
85.84318533179409
 30
0.0
 10
114.384878929565
 20
85.85516077032115
 30
0.0
 10
113.5001312137915
 20
85.82810259621138
 30
0.0
 10
112.8329324466865
 20
85.78017011873449
 30
0.0
 10
112.2916688540554
 20
85.7238782959624
 30
0.0
 10
111.904055027273
 20
85.67878896398165
 30
0.0
 10
111.7101471561934
 20
85.63992029040732
 30
0.0
 10
111.7733402200118
 20
85.65064259520986
 30
0.0
 10
111.7736770092232
 20
85.65069974003497
 30
0.0
  0
LINE
  5
101
330
1F
100
AcDbEntity
  8
0
  6
HIDDEN
 62
     7
370
     0
100
AcDbLine
 10
112.6826638335
 20
85.7614822388
 30
0.0
 11
112.8665091467
 21
85.7796715813
 31
0.0
  0
SPLINE
  5
102
330
1F
100
AcDbEntity
  8
0
  6
HIDDEN
 62
     7
370
     0
100
AcDbSpline
210
0.0
220
0.0
230
1.0
 70
     8
 71
     3
 72
    27
 73
    23
 74
     0
 42
0.00000001
 43
0.00000001
 40
0.0
 40
0.0
 40
0.0
 40
0.0
 40
0.0008086698272164
 40
0.0456911818206492
 40
0.1022728481609739
 40
0.170550939236766
 40
0.2091426118792428
 40
0.2506698514601189
 40
0.3211156297110305
 40
0.3862093649620112
 40
0.4266885152941663
 40
0.4648197686822756
 40
0.5006240859091298
 40
0.5452158508125173
 40
0.6017101077175113
 40
0.670116083417031
 40
0.7088534140408783
 40
0.7505821601356528
 40
0.8222467465127807
 40
0.8877861721259266
 40
0.9472599280119505
 40
0.9999999999999999
 40
0.9999999999999999
 40
0.9999999999999999
 40
0.9999999999999999
 10
111.77332045829
 20
132.0075582255517
 30
0.0
 10
111.7730980888293
 20
132.0076061609033
 30
0.0
 10
111.7605338467635
 20
132.0103145874957
 30
0.0
 10
111.8096104858525
 20
131.9984825570913
 30
0.0
 10
111.9547150036057
 20
131.9750383488271
 30
0.0
 10
112.2277671607522
 20
131.9411342034784
 30
0.0
 10
112.5562936431311
 20
131.9075654057015
 30
0.0
 10
112.9490214073745
 20
131.8693820674651
 30
0.0
 10
113.4987493830221
 20
131.8304133947809
 30
0.0
 10
114.1247720281205
 20
131.8109522904199
 30
0.0
 10
114.6679635385631
 20
131.808766612578
 30
0.0
 10
115.1130324353994
 20
131.8172814937585
 30
0.0
 10
115.5794802318579
 20
131.8370648906841
 30
0.0
 10
116.1167208809939
 20
131.8812272761989
 30
0.0
 10
116.7649343117826
 20
131.9536428962156
 30
0.0
 10
117.3504729417726
 20
132.0345449893831
 30
0.0
 10
117.8314425562442
 20
132.1127109778759
 30
0.0
 10
118.2768574532658
 20
132.1974831168201
 30
0.0
 10
118.7153571726823
 20
132.2912661597524
 30
0.0
 10
119.0543824295413
 20
132.3691699236643
 30
0.0
 10
119.2417233649169
 20
132.4193615610146
 30
0.0
 10
119.2622131470795
 20
132.4260280004346
 30
0.0
 10
119.271843266707
 20
132.429161201588
 30
0.0
  0
LINE
  5
103
330
1F
100
AcDbEntity
  8
0
  6
HIDDEN
 62
     7
370
     0
100
AcDbLine
 10
152.6226519212
 20
104.6291440953
 30
0.0
 11
152.6226519212
 21
113.0291440953
 31
0.0
  0
LINE
  5
104
330
1F
100
AcDbEntity
  8
0
  6
HIDDEN
 62
     7
370
     0
100
AcDbLine
 10
153.8844592211
 20
106.7291440953
 30
0.0
 11
153.8844592211
 21
110.9291440953
 31
0.0
  0
LINE
  5
105
330
1F
100
AcDbEntity
  8
0
  6
HIDDEN
 62
     7
370
     0
100
AcDbLine
 10
201.0226519212
 20
105.8291440953
 30
0.0
 11
201.0226519212
 21
111.8291440953
 31
0.0
  0
LINE
  5
106
330
1F
100
AcDbEntity
  8
0
  6
HIDDEN
 62
     7
370
     0
100
AcDbLine
 10
168.0226519212
 20
105.9291440953
 30
0.0
 11
168.0226519212
 21
111.7291440953
 31
0.0
  0
LINE
  5
107
330
1F
100
AcDbEntity
  8
0
  6
HIDDEN
 62
     7
370
     0
100
AcDbLine
 10
182.5226519212
 20
105.8291440953
 30
0.0
 11
182.5226519212
 21
111.8291440953
 31
0.0
  0
SPLINE
  5
108
330
1F
100
AcDbEntity
  8
0
  6
HIDDEN
 62
     7
370
     0
100
AcDbSpline
210
0.0
220
0.0
230
1.0
 70
     8
 71
     3
 72
     8
 73
     4
 74
     0
 42
0.00000001
 43
0.00000001
 40
0.0
 40
0.0
 40
0.0
 40
0.0
 40
0.0001590976953429
 40
0.0001590976953429
 40
0.0001590976953429
 40
0.0001590976953429
 10
93.90781993038864
 20
93.02765365930966
 30
0.0
 10
93.86276845988432
 20
92.9996747749859
 30
0.0
 10
93.81771242146955
 20
92.97170324461085
 30
0.0
 10
93.7726519211707
 20
92.94373890525834
 30
0.0
  0
SPLINE
  5
109
330
1F
100
AcDbEntity
  8
0
  6
HIDDEN
 62
     7
370
     0
100
AcDbSpline
210
0.0
220
0.0
230
1.0
 70
     8
 71
     3
 72
    11
 73
     7
 74
     0
 42
0.00000001
 43
0.00000001
 40
0.0
 40
0.0
 40
0.0
 40
0.0
 40
0.0008212909311457
 40
0.0008212909311457
 40
0.0008212909311457
 40
0.001642825724306
 40
0.001642825724306
 40
0.001642825724306
 40
0.001642825724306
 10
93.7726519211707
 20
92.94373890525834
 30
0.0
 10
93.5815068996885
 20
92.9004527164058
 30
0.0
 10
93.39008856401205
 20
92.85951620676849
 30
0.0
 10
93.19844248935088
 20
92.82091443538191
 30
0.0
 10
93.00673940780929
 20
92.78230118154481
 30
0.0
 10
92.81479428452377
 20
92.74602097225879
 30
0.0
 10
92.62265192117061
 20
92.71205406590727
 30
0.0
  0
LINE
  5
10A
330
1F
100
AcDbEntity
  8
0
  6
HIDDEN
 62
     7
370
     0
100
AcDbLine
 10
140.6126519212
 20
128.9650107268
 30
0.0
 11
140.6126519212
 21
128.6791440953
 31
0.0
  0
LINE
  5
10B
330
1F
100
AcDbEntity
  8
0
  6
HIDDEN
 62
     7
370
     0
100
AcDbLine
 10
144.4326519212
 20
128.9650107268
 30
0.0
 11
144.4326519212
 21
128.6791440953
 31
0.0
  0
LINE
  5
10C
330
1F
100
AcDbEntity
  8
0
  6
HIDDEN
 62
     7
370
     0
100
AcDbLine
 10
145.9145847527
 20
133.2878337577
 30
0.0
 11
145.9145847527
 21
128.6791440953
 31
0.0
  0
SPLINE
  5
10D
330
1F
100
AcDbEntity
  8
0
  6
HIDDEN
 62
     7
370
     0
100
AcDbSpline
210
0.0
220
0.0
230
1.0
 70
     8
 71
     3
 72
    11
 73
     7
 74
     0
 42
0.00000001
 43
0.00000001
 40
0.0
 40
0.0
 40
0.0
 40
0.0
 40
0.0005781862223978
 40
0.0005781862223978
 40
0.0005781862223978
 40
0.0011563724723927
 40
0.0011563724723927
 40
0.0011563724723927
 40
0.0011563724723927
 10
93.6226519211707
 20
121.4692864023882
 30
0.0
 10
93.45599136689509
 20
121.5338159138018
 30
0.0
 10
93.2893280699886
 20
121.5983186176455
 30
0.0
 10
93.12266148615838
 20
121.6628050660791
 30
0.0
 10
92.9559948938993
 20
121.727291517774
 30
0.0
 10
92.78932502827342
 20
121.7917615265021
 30
0.0
 10
92.6226519211707
 20
121.8562172932346
 30
0.0
  0
SPLINE
  5
10E
330
1F
100
AcDbEntity
  8
0
  6
HIDDEN
 62
     7
370
     0
100
AcDbSpline
210
0.0
220
0.0
230
1.0
 70
     8
 71
     3
 72
    11
 73
     7
 74
     0
 42
0.00000001
 43
0.00000001
 40
0.0
 40
0.0
 40
0.0
 40
0.0
 40
0.0005778746105108
 40
0.0005778746105108
 40
0.0005778746105108
 40
0.0011557494857227
 40
0.0011557494857227
 40
0.0011557494857227
 40
0.0011557494857227
 10
92.62265192117069
 20
95.8019222398514
 30
0.0
 10
92.789318797584
 20
95.86773436654524
 30
0.0
 10
92.95598551714545
 20
95.93359284668284
 30
0.0
 10
93.1226521651941
 20
95.99950041961344
 30
0.0
 10
93.28931888971276
 20
96.06540802278377
 30
0.0
 10
93.45598558413336
 20
96.13136513117222
 30
0.0
 10
93.6226519211707
 20
96.19736687109491
 30
0.0
  0
SPLINE
  5
10F
330
1F
100
AcDbEntity
  8
0
  6
HIDDEN
 62
     7
370
     0
100
AcDbSpline
210
0.0
220
0.0
230
1.0
 70
     8
 71
     3
 72
    11
 73
     7
 74
     0
 42
0.00000001
 43
0.00000001
 40
0.0000000000000006
 40
0.0000000000000006
 40
0.0000000000000006
 40
0.0000000000000006
 40
0.0005780486062768
 40
0.0005780486062768
 40
0.0005780486062768
 40
0.0011560973514127
 40
0.0011560973514127
 40
0.0011560973514127
 40
0.0011560973514127
 10
92.6226519211707
 20
118.8099585970332
 30
0.0
 10
92.7893217772156
 20
118.7475867355188
 30
0.0
 10
92.95598948129988
 20
118.6852328752212
 30
0.0
 10
93.12265578575352
 20
118.6229133150352
 30
0.0
 10
93.28932212644726
 20
118.5605937412984
 30
0.0
 10
93.45598708307604
 20
118.498308536979
 30
0.0
 10
93.62265192117071
 20
118.4360834164104
 30
0.0
  0
SPLINE
  5
110
330
1F
100
AcDbEntity
  8
0
  6
HIDDEN
 62
     7
370
     0
100
AcDbSpline
210
0.0
220
0.0
230
1.0
 70
     8
 71
     3
 72
    11
 73
     7
 74
     0
 42
0.00000001
 43
0.00000001
 40
0.0
 40
0.0
 40
0.0
 40
0.0
 40
0.0005782401583533
 40
0.0005782401583533
 40
0.0005782401583533
 40
0.0011564805960993
 40
0.0011564805960993
 40
0.0011564805960993
 40
0.0011564805960993
 10
93.6226519211707
 20
99.2283173029439
 30
0.0
 10
93.45600097082179
 20
99.16489184488304
 30
0.0
 10
93.28934137823914
 20
99.10153632122771
 30
0.0
 10
93.12267432581059
 20
99.03823873687769
 30
0.0
 10
92.95600718924679
 20
98.97494112057437
 30
0.0
 10
92.78933258180072
 20
98.91170132563359
 30
0.0
 10
92.62265192117067
 20
98.84850131899469
 30
0.0
  0
CIRCLE
  5
111
330
1F
100
AcDbEntity
  8
0
  6
HIDDEN
 62
     7
370
     0
100
AcDbCircle
 10
131.5226519212
 20
108.8291440953
 30
0.0
 40
5.0
  0
LINE
  5
112
330
1F
100
AcDbEntity
  8
0
  6
HIDDEN
 62
     7
370
     0
100
AcDbLine
 10
156.4226519212
 20
106.3291440953
 30
0.0
 11
167.6226519212
 21
106.3291440953
 31
0.0
  0
LINE
  5
113
330
1F
100
AcDbEntity
  8
0
  6
HIDDEN
 62
     7
370
     0
100
AcDbLine
 10
167.6226519212
 20
111.3291440953
 30
0.0
 11
156.4226519212
 21
111.3291440953
 31
0.0
  0
LINE
  5
114
330
1F
100
AcDbEntity
  8
0
  6
HIDDEN
 62
     7
370
     0
100
AcDbLine
 10
167.6226519212
 20
106.3291440953
 30
0.0
 11
168.0226519212
 21
106.7291440953
 31
0.0
  0
LINE
  5
115
330
1F
100
AcDbEntity
  8
0
  6
HIDDEN
 62
     7
370
     0
100
AcDbLine
 10
168.0226519212
 20
110.9291440953
 30
0.0
 11
167.6226519212
 21
111.3291440953
 31
0.0
  0
LINE
  5
116
330
1F
100
AcDbEntity
  8
0
  6
HIDDEN
 62
     7
370
     0
100
AcDbLine
 10
156.4226519212
 20
111.3291440953
 30
0.0
 11
156.0226519212
 21
110.9291440953
 31
0.0
  0
LINE
  5
117
330
1F
100
AcDbEntity
  8
0
  6
HIDDEN
 62
     7
370
     0
100
AcDbLine
 10
156.0226519212
 20
106.7291440953
 30
0.0
 11
156.4226519212
 21
106.3291440953
 31
0.0
  0
LINE
  5
118
330
1F
100
AcDbEntity
  8
0
  6
HIDDEN
 62
     7
370
     0
100
AcDbLine
 10
168.0226519212
 20
106.7291440953
 30
0.0
 11
170.0226519212
 21
106.7291440953
 31
0.0
  0
LINE
  5
119
330
1F
100
AcDbEntity
  8
0
  6
HIDDEN
 62
     7
370
     0
100
AcDbLine
 10
170.0226519212
 20
110.9291440953
 30
0.0
 11
168.0226519212
 21
110.9291440953
 31
0.0
  0
LINE
  5
11A
330
1F
100
AcDbEntity
  8
0
  6
HIDDEN
 62
     7
370
     0
100
AcDbLine
 10
160.0226519211
 20
107.5791440953
 30
0.0
 11
166.0226519212
 21
107.5791440953
 31
0.0
  0
LINE
  5
11B
330
1F
100
AcDbEntity
  8
0
  6
HIDDEN
 62
     7
370
     0
100
AcDbLine
 10
166.0226519212
 20
110.0791440953
 30
0.0
 11
160.0226519211
 21
110.0791440953
 31
0.0
  0
LINE
  5
11C
330
1F
100
AcDbEntity
  8
0
  6
HIDDEN
 62
     7
370
     0
100
AcDbLine
 10
136.5226519212
 20
121.2230847382
 30
0.0
 11
136.5226519212
 21
123.1269770756
 31
0.0
  0
LINE
  5
11D
330
1F
100
AcDbEntity
  8
0
  6
HIDDEN
 62
     7
370
     0
100
AcDbLine
 10
128.5226519212
 20
123.1298448371
 30
0.0
 11
128.5226519212
 21
121.2230847382
 31
0.0
  0
LINE
  5
11E
330
1F
100
AcDbEntity
  8
0
  6
HIDDEN
 62
     7
370
     0
100
AcDbLine
 10
124.5226519212
 20
83.5052129494
 30
0.0
 11
124.6168126967
 21
84.1752016806
 31
0.0
  0
LINE
  5
11F
330
1F
100
AcDbEntity
  8
0
  6
HIDDEN
 62
     7
370
     0
100
AcDbLine
 10
124.6168126967
 20
133.4830865101
 30
0.0
 11
124.5226519212
 21
134.1530752413
 31
0.0
  0
ARC
  5
120
330
1F
100
AcDbEntity
  8
0
  6
HIDDEN
 62
     7
370
     0
100
AcDbCircle
 10
124.0226451685
 20
84.258706481
 30
0.0
 40
0.6000067526677343
100
AcDbArc
 50
352.0
 51
0.0
  0
ARC
  5
121
330
1F
100
AcDbEntity
  8
0
  6
HIDDEN
 62
     7
370
     0
100
AcDbCircle
 10
124.0226451685
 20
84.258706481
 30
0.0
 40
0.6000067526677242
100
AcDbArc
 50
0.0
 51
33.5571153394
  0
ARC
  5
122
330
1F
100
AcDbEntity
  8
0
  6
HIDDEN
 62
     7
370
     0
100
AcDbCircle
 10
124.0226451685
 20
133.3995817097
 30
0.0
 40
0.6000067526677363
100
AcDbArc
 50
348.75
 51
8.0
  0
LWPOLYLINE
  5
123
330
1F
100
AcDbEntity
  8
0
  6
HIDDEN
 62
     7
370
     0
100
AcDbPolyline
 90
        3
 70
   128
 43
0.0
 10
124.6111229597
 20
133.2825261991
 10
124.5769791267
 20
133.1699690662
 10
124.5226519212
 20
133.0679171947
  0
LINE
  5
124
330
1F
100
AcDbEntity
  8
0
  6
HIDDEN
 62
     7
370
     0
100
AcDbLine
 10
124.6226519212
 20
84.258706481
 30
0.0
 11
124.6226519212
 21
133.3995817097
 31
0.0
  0
LINE
  5
125
330
1F
100
AcDbEntity
  8
0
  6
HIDDEN
 62
     7
370
     0
100
AcDbLine
 10
107.6050874865
 20
88.8291440953
 30
0.0
 11
111.7826240628
 21
88.8291440953
 31
0.0
  0
LINE
  5
126
330
1F
100
AcDbEntity
  8
0
  6
HIDDEN
 62
     7
370
     0
100
AcDbLine
 10
111.7826240628
 20
128.8291440953
 30
0.0
 11
107.6050874865
 21
128.8291440953
 31
0.0
  0
ARC
  5
127
330
1F
100
AcDbEntity
  8
0
  6
HIDDEN
 62
     7
370
     0
100
AcDbCircle
 10
118.2776539228
 20
96.8291440953
 30
0.0
 40
8.0
100
AcDbArc
 50
277.0481477739
 51
321.3178125465
  0
ARC
  5
128
330
1F
100
AcDbEntity
  8
0
  6
HIDDEN
 62
     7
370
     0
100
AcDbCircle
 10
118.2776539228
 20
120.8291440953
 30
0.0
 40
8.000000000000005
100
AcDbArc
 50
38.6821874535
 51
82.9419580958
  0
ARC
  5
129
330
1F
100
AcDbEntity
  8
0
  6
HIDDEN
 62
     7
370
     0
100
AcDbCircle
 10
107.6050874865
 20
89.4291440953
 30
0.0
 40
0.5999999999999962
100
AcDbArc
 50
210.0
 51
270.0
  0
ARC
  5
12A
330
1F
100
AcDbEntity
  8
0
  6
HIDDEN
 62
     7
370
     0
100
AcDbCircle
 10
107.6050874865
 20
128.2291440953
 30
0.0
 40
0.6000000000000032
100
AcDbArc
 50
90.0
 51
150.0
  0
LINE
  5
12B
330
1F
100
AcDbEntity
  8
0
  6
HIDDEN
 62
     7
370
     0
100
AcDbLine
 10
107.0854722442
 20
128.5291440953
 30
0.0
 11
105.5266265174
 21
125.8291440953
 31
0.0
  0
LINE
  5
12C
330
1F
100
AcDbEntity
  8
0
  6
HIDDEN
 62
     7
370
     0
100
AcDbLine
 10
105.5266265174
 20
91.8291440953
 30
0.0
 11
107.0854722442
 21
89.1291440953
 31
0.0
  0
LINE
  5
12D
330
1F
100
AcDbEntity
  8
0
  6
HIDDEN
 62
     7
370
     0
100
AcDbLine
 10
136.5226519212
 20
132.77474651
 30
0.0
 11
136.5226519212
 21
136.1076444486
 31
0.0
  0
LINE
  5
12E
330
1F
100
AcDbEntity
  8
0
  6
HIDDEN
 62
     7
370
     0
100
AcDbLine
 10
128.5226519212
 20
136.1089443146
 30
0.0
 11
128.5226519212
 21
132.77474651
 31
0.0
  0
ARC
  5
12F
330
1F
100
AcDbEntity
  8
0
  6
HIDDEN
 62
     7
370
     0
100
AcDbCircle
 10
132.9726519212
 20
93.1041440953
 30
0.0
 40
1.5
100
AcDbArc
 50
238.2116693829
 51
0.0
  0
ARC
  5
130
330
1F
100
AcDbEntity
  8
0
  6
HIDDEN
 62
     7
370
     0
100
AcDbCircle
 10
132.9726519212
 20
124.5541440953
 30
0.0
 40
1.5
100
AcDbArc
 50
0.0
 51
121.7883306171
  0
LINE
  5
131
330
1F
100
AcDbEntity
  8
0
  6
HIDDEN
 62
     7
370
     0
100
AcDbLine
 10
124.5226519212
 20
91.8291440953
 30
0.0
 11
132.1824778897
 21
91.8291440953
 31
0.0
  0
LINE
  5
132
330
1F
100
AcDbEntity
  8
0
  6
HIDDEN
 62
     7
370
     0
100
AcDbLine
 10
132.1824778897
 20
125.8291440953
 30
0.0
 11
124.5226519212
 21
125.8291440953
 31
0.0
  0
LINE
  5
133
330
1F
100
AcDbEntity
  8
0
  6
HIDDEN
 62
     7
370
     0
100
AcDbLine
 10
102.7226519212
 20
91.8291440953
 30
0.0
 11
105.5266265174
 21
91.8291440953
 31
0.0
  0
LINE
  5
134
330
1F
100
AcDbEntity
  8
0
  6
HIDDEN
 62
     7
370
     0
100
AcDbLine
 10
105.5266265174
 20
125.8291440953
 30
0.0
 11
98.7226519212
 21
125.8291440953
 31
0.0
  0
LINE
  5
135
330
1F
100
AcDbEntity
  8
0
  6
HIDDEN
 62
     7
370
     0
100
AcDbLine
 10
143.3226519212
 20
99.3291440953
 30
0.0
 11
146.3226519212
 21
99.3291440953
 31
0.0
  0
LINE
  5
136
330
1F
100
AcDbEntity
  8
0
  6
HIDDEN
 62
     7
370
     0
100
AcDbLine
 10
146.3226519212
 20
118.3291440953
 30
0.0
 11
143.3226519212
 21
118.3291440953
 31
0.0
  0
LINE
  5
137
330
1F
100
AcDbEntity
  8
0
  6
HIDDEN
 62
     7
370
     0
100
AcDbLine
 10
134.4726519212
 20
99.8291440953
 30
0.0
 11
134.9726519212
 21
100.3291440953
 31
0.0
  0
LINE
  5
138
330
1F
100
AcDbEntity
  8
0
  6
HIDDEN
 62
     7
370
     0
100
AcDbLine
 10
134.9726519212
 20
117.3291440953
 30
0.0
 11
134.4726519212
 21
117.8291440953
 31
0.0
  0
LINE
  5
139
330
1F
100
AcDbEntity
  8
0
  6
HIDDEN
 62
     7
370
     0
100
AcDbLine
 10
134.9726519212
 20
100.3291440953
 30
0.0
 11
143.3226519212
 21
100.3291440953
 31
0.0
  0
LINE
  5
13A
330
1F
100
AcDbEntity
  8
0
  6
HIDDEN
 62
     7
370
     0
100
AcDbLine
 10
143.3226519212
 20
117.3291440953
 30
0.0
 11
134.9726519212
 21
117.3291440953
 31
0.0
  0
LINE
  5
13B
330
1F
100
AcDbEntity
  8
0
  6
HIDDEN
 62
     7
370
     0
100
AcDbLine
 10
129.4726519212
 20
140.3291440953
 30
0.0
 11
129.4726519212
 21
135.2291440953
 31
0.0
  0
LINE
  5
13C
330
1F
100
AcDbEntity
  8
0
  6
HIDDEN
 62
     7
370
     0
100
AcDbLine
 10
119.7070897516
 20
84.7497727618
 30
0.0
 11
119.2726576021
 21
85.2288387809
 31
0.0
  0
LINE
  5
13D
330
1F
100
AcDbEntity
  8
0
  6
HIDDEN
 62
     7
370
     0
100
AcDbLine
 10
111.7726542771
 20
85.65052674
 30
0.0
 11
111.2902205337
 21
85.1714607646
 31
0.0
  0
LINE
  5
13E
330
1F
100
AcDbEntity
  8
0
  6
HIDDEN
 62
     7
370
     0
100
AcDbLine
 10
111.2900986055
 20
132.4868221357
 30
0.0
 11
111.7726493565
 21
132.0077018778
 31
0.0
  0
LINE
  5
13F
330
1F
100
AcDbEntity
  8
0
  6
HIDDEN
 62
     7
370
     0
100
AcDbLine
 10
119.2726518032
 20
132.4293996554
 30
0.0
 11
119.7071941935
 21
132.908519906
 31
0.0
  0
LINE
  5
140
330
1F
100
AcDbEntity
  8
0
  6
HIDDEN
 62
     7
370
     0
100
AcDbLine
 10
152.6226519212
 20
104.6291440953
 30
0.0
 11
153.8844592211
 21
106.7291440953
 31
0.0
  0
LINE
  5
141
330
1F
100
AcDbEntity
  8
0
  6
HIDDEN
 62
     7
370
     0
100
AcDbLine
 10
153.8844592211
 20
110.9291440953
 30
0.0
 11
152.6226519212
 21
113.0291440953
 31
0.0
  0
LINE
  5
142
330
1F
100
AcDbEntity
  8
0
  6
HIDDEN
 62
     7
370
     0
100
AcDbLine
 10
146.3226519212
 20
104.6291440953
 30
0.0
 11
152.6226519212
 21
104.6291440953
 31
0.0
  0
LINE
  5
143
330
1F
100
AcDbEntity
  8
0
  6
HIDDEN
 62
     7
370
     0
100
AcDbLine
 10
152.6226519212
 20
113.0291440953
 30
0.0
 11
146.3226519212
 21
113.0291440953
 31
0.0
  0
ARC
  5
144
330
1F
100
AcDbEntity
  8
0
  6
HIDDEN
 62
     7
370
     0
100
AcDbCircle
 10
204.0226519212
 20
104.7924498473
 30
0.0
 40
0.5000000000000105
100
AcDbArc
 50
360.0
 51
80.0
  0
ARC
  5
145
330
1F
100
AcDbEntity
  8
0
  6
HIDDEN
 62
     7
370
     0
100
AcDbCircle
 10
204.0226519212
 20
112.8658383434
 30
0.0
 40
0.5
100
AcDbArc
 50
280.0
 51
0.0
  0
LINE
  5
146
330
1F
100
AcDbEntity
  8
0
  6
HIDDEN
 62
     7
370
     0
100
AcDbLine
 10
119.2726519212
 20
128.7662169214
 30
0.0
 11
119.2726519212
 21
132.4291083494
 31
0.0
  0
LINE
  5
147
330
1F
100
AcDbEntity
  8
0
  6
HIDDEN
 62
     7
370
     0
100
AcDbLine
 10
111.7726519212
 20
132.0075580985
 30
0.0
 11
111.7726519212
 21
128.8272818498
 31
0.0
  0
LINE
  5
148
330
1F
100
AcDbEntity
  8
0
  6
HIDDEN
 62
     7
370
     0
100
AcDbLine
 10
119.2726519212
 20
85.2293226826
 30
0.0
 11
119.2726519212
 21
88.8920712693
 31
0.0
  0
LINE
  5
149
330
1F
100
AcDbEntity
  8
0
  6
HIDDEN
 62
     7
370
     0
100
AcDbLine
 10
111.7726519212
 20
88.8310063409
 30
0.0
 11
111.7726519212
 21
85.6508499778
 31
0.0
  0
LINE
  5
14A
330
1F
100
AcDbEntity
  8
0
  6
HIDDEN
 62
     7
370
     0
100
AcDbLine
 10
204.10947601
 20
112.3734344669
 30
0.0
 11
201.0226519212
 21
111.8291440953
 31
0.0
  0
LINE
  5
14B
330
1F
100
AcDbEntity
  8
0
  6
HIDDEN
 62
     7
370
     0
100
AcDbLine
 10
201.0226519212
 20
105.8291440953
 30
0.0
 11
204.10947601
 21
105.2848537238
 31
0.0
  0
LINE
  5
14C
330
1F
100
AcDbEntity
  8
0
  6
HIDDEN
 62
     7
370
     0
100
AcDbLine
 10
168.4226519212
 20
105.5291440953
 30
0.0
 11
181.6278779031
 21
105.5291440953
 31
0.0
  0
LINE
  5
14D
330
1F
100
AcDbEntity
  8
0
  6
HIDDEN
 62
     7
370
     0
100
AcDbLine
 10
181.6278779031
 20
112.1291440953
 30
0.0
 11
168.4226519212
 21
112.1291440953
 31
0.0
  0
ARC
  5
14E
330
1F
100
AcDbEntity
  8
0
  6
HIDDEN
 62
     7
370
     0
100
AcDbCircle
 10
181.6278779031
 20
105.9291440953
 30
0.0
 40
0.3999999999999915
100
AcDbArc
 50
270.0
 51
290.0
  0
ARC
  5
14F
330
1F
100
AcDbEntity
  8
0
  6
HIDDEN
 62
     7
370
     0
100
AcDbCircle
 10
181.6278779031
 20
111.7291440953
 30
0.0
 40
0.3999999999999977
100
AcDbArc
 50
70.0
 51
90.0
  0
ARC
  5
150
330
1F
100
AcDbEntity
  8
0
  6
HIDDEN
 62
     7
370
     0
100
AcDbCircle
 10
168.4226519212
 20
105.9291440953
 30
0.0
 40
0.4000000000000057
100
AcDbArc
 50
180.0
 51
270.0
  0
ARC
  5
151
330
1F
100
AcDbEntity
  8
0
  6
HIDDEN
 62
     7
370
     0
100
AcDbCircle
 10
168.4226519212
 20
111.7291440953
 30
0.0
 40
0.4000000000000057
100
AcDbArc
 50
90.0
 51
180.0
  0
LINE
  5
152
330
1F
100
AcDbEntity
  8
0
  6
HIDDEN
 62
     7
370
     0
100
AcDbLine
 10
181.7646859604
 20
105.553267047
 30
0.0
 11
182.5226519212
 21
105.8291440953
 31
0.0
  0
LINE
  5
153
330
1F
100
AcDbEntity
  8
0
  6
HIDDEN
 62
     7
370
     0
100
AcDbLine
 10
182.5226519212
 20
111.8291440953
 30
0.0
 11
181.7646859604
 21
112.1050211437
 31
0.0
  0
LINE
  5
154
330
1F
100
AcDbEntity
  8
0
  6
HIDDEN
 62
     7
370
     0
100
AcDbLine
 10
182.5226519212
 20
105.8291440953
 30
0.0
 11
201.0226519212
 21
105.8291440953
 31
0.0
  0
LINE
  5
155
330
1F
100
AcDbEntity
  8
0
  6
HIDDEN
 62
     7
370
     0
100
AcDbLine
 10
201.0226519212
 20
111.8291440953
 30
0.0
 11
182.5226519212
 21
111.8291440953
 31
0.0
  0
LINE
  5
156
330
1F
100
AcDbEntity
  8
0
  6
HIDDEN
 62
     7
370
     0
100
AcDbLine
 10
168.0226519212
 20
111.3291440953
 30
0.0
 11
167.6226519212
 21
110.9291440953
 31
0.0
  0
LINE
  5
157
330
1F
100
AcDbEntity
  8
0
  6
HIDDEN
 62
     7
370
     0
100
AcDbLine
 10
167.6226519212
 20
106.7291440953
 30
0.0
 11
168.0226519212
 21
106.3291440953
 31
0.0
  0
LINE
  5
158
330
1F
100
AcDbEntity
  8
0
  6
HIDDEN
 62
     7
370
     0
100
AcDbLine
 10
153.8844592211
 20
106.7291440953
 30
0.0
 11
167.6226519212
 21
106.7291440953
 31
0.0
  0
LINE
  5
159
330
1F
100
AcDbEntity
  8
0
  6
HIDDEN
 62
     7
370
     0
100
AcDbLine
 10
167.6226519212
 20
110.9291440953
 30
0.0
 11
153.8844592211
 21
110.9291440953
 31
0.0
  0
DIMENSION
  5
15A
330
1F
100
AcDbEntity
  8
VERMASSUNG
100
AcDbDimension
  2
*D1
 10
88.3940411701
 20
77.3291440953
 30
0.0
 11
88.3940411701
 21
108.8291440953
 31
0.0
 70
   160
  1
HSK A %%c<>
 71
     2
 42
-1.0
  3
SLDDIMSTYLE0
100
AcDbAlignedDimension
 13
124.8226519212
 23
140.3291440953
 33
0.0
 14
124.8226519212
 24
77.3291440953
 34
0.0
 50
90.0
100
AcDbRotatedDimension
  0
DIMENSION
  5
167
330
1F
100
AcDbEntity
  8
VERMASSUNG
100
AcDbDimension
  2
*D2
 10
204.5226519212
 20
142.0150595883
 30
0.0
 11
186.2726519212
 21
142.0150595883
 31
0.0
 70
   160
 71
     2
 42
-1.0
  3
SLDDIMSTYLE1
100
AcDbAlignedDimension
 13
168.0226519212
 23
111.7291440953
 33
0.0
 14
204.5226519212
 24
117.480363112
 34
0.0
100
AcDbRotatedDimension
  0
DIMENSION
  5
172
330
1F
100
AcDbEntity
  8
VERMASSUNG
100
AcDbDimension
  2
*D3
 10
210.6945828819
 20
111.8291440953
 30
0.0
 11
210.6945828819
 21
108.8291440953
 31
0.0
 70
   160
  1
%%c<>
 71
     2
 42
-1.0
  3
SLDDIMSTYLE2
100
AcDbAlignedDimension
 13
201.0226519212
 23
105.8291440953
 33
0.0
 14
201.0226519212
 24
111.8291440953
 34
0.0
 50
90.0
100
AcDbRotatedDimension
  0
DIMENSION
  5
180
330
1F
100
AcDbEntity
  8
VERMASSUNG
100
AcDbDimension
  2
*D4
 10
216.6945828819
 20
119.3291440953
 30
0.0
 11
216.6945828819
 21
108.8291440953
 31
0.0
 70
   160
  1
%%c<>
 71
     2
 42
-1.0
  3
SLDDIMSTYLE3
100
AcDbAlignedDimension
 13
204.5226519212
 23
98.3291440953
 33
0.0
 14
204.5226519212
 24
119.3291440953
 34
0.0
 50
90.0
100
AcDbRotatedDimension
  0
DIMENSION
  5
18C
330
1F
100
AcDbEntity
  8
VERMASSUNG
100
AcDbDimension
  2
*D5
 10
222.6945828819
 20
121.8291440953
 30
0.0
 11
222.6945828819
 21
108.8291440953
 31
0.0
 70
   160
  1
%%c<>
 71
     2
 42
-1.0
  3
SLDDIMSTYLE3
100
AcDbAlignedDimension
 13
153.4726519212
 23
95.8291440953
 33
0.0
 14
153.4726519212
 24
121.8291440953
 34
0.0
 50
90.0
100
AcDbRotatedDimension
  0
DIMENSION
  5
197
330
1F
100
AcDbEntity
  8
VERMASSUNG
100
AcDbDimension
  2
*D6
 10
124.5226519212
 20
154.0150595883
 30
0.0
 11
164.5226519212
 21
154.0150595883
 31
0.0
 70
   160
 71
     2
 42
-1.0
  3
SLDDIMSTYLE0
100
AcDbAlignedDimension
 13
204.5226519212
 23
117.480363112
 33
0.0
 14
124.5226519212
 24
140.0291440953
 34
0.0
 50
0.0
100
AcDbRotatedDimension
  0
DIMENSION
  5
1A1
330
1F
100
AcDbEntity
  8
VERMASSUNG
100
AcDbDimension
  2
*D7
 10
204.5226519212
 20
148.0150595883
 30
0.0
 11
177.4976519212
 21
148.0150595883
 31
0.0
 70
   160
 71
     2
 42
-1.0
  3
SLDDIMSTYLE0
100
AcDbAlignedDimension
 13
150.4726519212
 23
138.6755844191
 33
0.0
 14
204.5226519212
 24
117.480363112
 34
0.0
100
AcDbRotatedDimension
  0
DIMENSION
  5
1AB
330
1F
100
AcDbEntity
  8
VERMASSUNG
100
AcDbDimension
  2
*D8
 10
92.6226519212
 20
160.0150595883
 30
0.0
 11
148.5726519212
 21
160.0150595883
 31
0.0
 70
   160
 71
     2
 42
-1.0
  3
SLDDIMSTYLE0
100
AcDbAlignedDimension
 13
204.5226519212
 23
117.480363112
 33
0.0
 14
92.6226519212
 24
128.5198218418
 34
0.0
100
AcDbRotatedDimension
  0
LINE
  5
1B5
330
1F
100
AcDbEntity
  8
VERMASSUNG
  6
CENTERX2
370
     0
100
AcDbLine
 10
89.7864572048
 20
108.8291440953
 30
0.0
 11
206.5173347779
 21
108.8291440953
 31
0.0
  0
OLE2FRAME
  5
1B6
330
1F
100
AcDbEntity
  8
0
100
AcDbOle2Frame
 70
     2
  3
Bitmap Image
 10
13.8511154363
 20
38.264191557
 30
0.0
 11
51.6290888628
 21
31.9806341108
 31
0.0
 71
     2
 72
     0
 73
     1
 90
    12928
310
80552BED0767C5B32B40DDAF6807D121434000000000000000006FFBDDFB85D0
310
4940DDAF6807D121434000000000000000006FFBDDFB85D04940416F4BD60AFB
310
3F4000000000000000002BED0767C5B32B40416F4BD60AFB3F40000000000000
310
0000000000000100000000010000010000000100000000000100000000320000
310
D0CF11E0A1B11AE1000000000000000000000000000000003E000300FEFF0900
310
0600000000000000000000000100000001000000000000000010000002000000
310
01000000FEFFFFFF0000000000000000FFFFFFFFFFFFFFFFFFFFFFFFFFFFFFFF
310
FFFFFFFFFFFFFFFFFFFFFFFFFFFFFFFFFFFFFFFFFFFFFFFFFFFFFFFFFFFFFFFF
310
FFFFFFFFFFFFFFFFFFFFFFFFFFFFFFFFFFFFFFFFFFFFFFFFFFFFFFFFFFFFFFFF
310
FFFFFFFFFFFFFFFFFFFFFFFFFFFFFFFFFFFFFFFFFFFFFFFFFFFFFFFFFFFFFFFF
310
FFFFFFFFFFFFFFFFFFFFFFFFFFFFFFFFFFFFFFFFFFFFFFFFFFFFFFFFFFFFFFFF
310
FFFFFFFFFFFFFFFFFFFFFFFFFFFFFFFFFFFFFFFFFFFFFFFFFFFFFFFFFFFFFFFF
310
FFFFFFFFFFFFFFFFFFFFFFFFFFFFFFFFFFFFFFFFFFFFFFFFFFFFFFFFFFFFFFFF
310
FFFFFFFFFFFFFFFFFFFFFFFFFFFFFFFFFFFFFFFFFFFFFFFFFFFFFFFFFFFFFFFF
310
FFFFFFFFFFFFFFFFFFFFFFFFFFFFFFFFFFFFFFFFFFFFFFFFFFFFFFFFFFFFFFFF
310
FFFFFFFFFFFFFFFFFFFFFFFFFFFFFFFFFFFFFFFFFFFFFFFFFFFFFFFFFFFFFFFF
310
FFFFFFFFFFFFFFFFFFFFFFFFFFFFFFFFFFFFFFFFFFFFFFFFFFFFFFFFFFFFFFFF
310
FFFFFFFFFFFFFFFFFFFFFFFFFFFFFFFFFFFFFFFFFFFFFFFFFFFFFFFFFFFFFFFF
310
FFFFFFFFFFFFFFFFFFFFFFFFFFFFFFFFFFFFFFFFFFFFFFFFFFFFFFFFFFFFFFFF
310
FFFFFFFFFFFFFFFFFFFFFFFFFFFFFFFFFFFFFFFFFFFFFFFFFFFFFFFFFFFFFFFF
310
FDFFFFFFFEFFFFFFFEFFFFFFFEFFFFFF05000000060000000700000008000000
310
090000000A0000000B0000000C0000000D0000000E0000000F00000010000000
310
11000000120000001300000014000000150000001600000017000000FEFFFFFF
310
FFFFFFFFFFFFFFFFFFFFFFFFFFFFFFFFFFFFFFFFFFFFFFFFFFFFFFFFFFFFFFFF
310
FFFFFFFFFFFFFFFFFFFFFFFFFFFFFFFFFFFFFFFFFFFFFFFFFFFFFFFFFFFFFFFF
310
FFFFFFFFFFFFFFFFFFFFFFFFFFFFFFFFFFFFFFFFFFFFFFFFFFFFFFFFFFFFFFFF
310
FFFFFFFFFFFFFFFFFFFFFFFFFFFFFFFFFFFFFFFFFFFFFFFFFFFFFFFFFFFFFFFF
310
FFFFFFFFFFFFFFFFFFFFFFFFFFFFFFFFFFFFFFFFFFFFFFFFFFFFFFFFFFFFFFFF
310
FFFFFFFFFFFFFFFFFFFFFFFFFFFFFFFFFFFFFFFFFFFFFFFFFFFFFFFFFFFFFFFF
310
FFFFFFFFFFFFFFFFFFFFFFFFFFFFFFFFFFFFFFFFFFFFFFFFFFFFFFFFFFFFFFFF
310
FFFFFFFFFFFFFFFFFFFFFFFFFFFFFFFFFFFFFFFFFFFFFFFFFFFFFFFFFFFFFFFF
310
FFFFFFFFFFFFFFFFFFFFFFFFFFFFFFFFFFFFFFFFFFFFFFFFFFFFFFFFFFFFFFFF
310
FFFFFFFFFFFFFFFFFFFFFFFFFFFFFFFFFFFFFFFFFFFFFFFFFFFFFFFFFFFFFFFF
310
FFFFFFFFFFFFFFFFFFFFFFFFFFFFFFFFFFFFFFFFFFFFFFFFFFFFFFFFFFFFFFFF
310
FFFFFFFFFFFFFFFFFFFFFFFFFFFFFFFFFFFFFFFFFFFFFFFFFFFFFFFFFFFFFFFF
310
FFFFFFFFFFFFFFFFFFFFFFFFFFFFFFFFFFFFFFFFFFFFFFFFFFFFFFFFFFFFFFFF
310
52006F006F007400200045006E00740072007900000000000000000000000000
310
0000000000000000000000000000000000000000000000000000000000000000
310
16000500FFFFFFFFFFFFFFFF020000000A00030000000000C000000000000046
310
000000000000000000000000B03FE0D6A404CC0103000000C000000000000000
310
01004F006C006500000000000000000000000000000000000000000000000000
310
0000000000000000000000000000000000000000000000000000000000000000
310
0A000200FFFFFFFFFFFFFFFFFFFFFFFF00000000000000000000000000000000
310
0000000000000000000000000000000000000000000000001400000000000000
310
010043006F006D0070004F0062006A0000000000000000000000000000000000
310
0000000000000000000000000000000000000000000000000000000000000000
310
120002010100000003000000FFFFFFFF00000000000000000000000000000000
310
0000000000000000000000000000000000000000010000004D00000000000000
310
01004F006C006500310030004E00610074006900760065000000000000000000
310
0000000000000000000000000000000000000000000000000000000000000000
310
1A000200FFFFFFFFFFFFFFFFFFFFFFFF00000000000000000000000000000000
310
0000000000000000000000000000000000000000040000002426000000000000
310
FEFFFFFF02000000FEFFFFFFFFFFFFFFFFFFFFFFFFFFFFFFFFFFFFFFFFFFFFFF
310
FFFFFFFFFFFFFFFFFFFFFFFFFFFFFFFFFFFFFFFFFFFFFFFFFFFFFFFFFFFFFFFF
310
FFFFFFFFFFFFFFFFFFFFFFFFFFFFFFFFFFFFFFFFFFFFFFFFFFFFFFFFFFFFFFFF
310
FFFFFFFFFFFFFFFFFFFFFFFFFFFFFFFFFFFFFFFFFFFFFFFFFFFFFFFFFFFFFFFF
310
FFFFFFFFFFFFFFFFFFFFFFFFFFFFFFFFFFFFFFFFFFFFFFFFFFFFFFFFFFFFFFFF
310
FFFFFFFFFFFFFFFFFFFFFFFFFFFFFFFFFFFFFFFFFFFFFFFFFFFFFFFFFFFFFFFF
310
FFFFFFFFFFFFFFFFFFFFFFFFFFFFFFFFFFFFFFFFFFFFFFFFFFFFFFFFFFFFFFFF
310
FFFFFFFFFFFFFFFFFFFFFFFFFFFFFFFFFFFFFFFFFFFFFFFFFFFFFFFFFFFFFFFF
310
FFFFFFFFFFFFFFFFFFFFFFFFFFFFFFFFFFFFFFFFFFFFFFFFFFFFFFFFFFFFFFFF
310
FFFFFFFFFFFFFFFFFFFFFFFFFFFFFFFFFFFFFFFFFFFFFFFFFFFFFFFFFFFFFFFF
310
FFFFFFFFFFFFFFFFFFFFFFFFFFFFFFFFFFFFFFFFFFFFFFFFFFFFFFFFFFFFFFFF
310
FFFFFFFFFFFFFFFFFFFFFFFFFFFFFFFFFFFFFFFFFFFFFFFFFFFFFFFFFFFFFFFF
310
FFFFFFFFFFFFFFFFFFFFFFFFFFFFFFFFFFFFFFFFFFFFFFFFFFFFFFFFFFFFFFFF
310
FFFFFFFFFFFFFFFFFFFFFFFFFFFFFFFFFFFFFFFFFFFFFFFFFFFFFFFFFFFFFFFF
310
FFFFFFFFFFFFFFFFFFFFFFFFFFFFFFFFFFFFFFFFFFFFFFFFFFFFFFFFFFFFFFFF
310
FFFFFFFFFFFFFFFFFFFFFFFFFFFFFFFFFFFFFFFFFFFFFFFFFFFFFFFFFFFFFFFF
310
01000002000000000000000000000000000000005002600123008200B0004004
310
F804250000000000200F0A3100000000B0028003800380033001500250024004
310
0100FEFF030A0000FFFFFFFF0A00030000000000C00000000000004607000000
310
5042727573680007000000504272757368000700000050427275736800F439B2
310
7100000000000000000000000003200320032003200320032003B002E0032003
310
200320032003800320032003B002B002B002B002B002B00280035002B002B002
310
B002B002F001F001500250028003B002B002B002B002B002B002B0028003B002
310
B002B002B002B002B002B0020000000000000000000000001500900000000004
310
18042500000000009062F50D0000000000000000000000000000000000000000
310
0000000000000000000000000000000000000000000000000000000000000000
310
0000000000000000000000000000000000000000000000000000000000000000
310
0000000000000000000000000000000000000000000000000000000000000000
310
0000000000000000000000000000000000000000000000000000000000000000
310
0000000000000000000000000000000000000000000000000000000000000000
310
0000000000000000000000000000000000000000000000000000000000000000
310
0000000000000000000000000000000000000000000000000000000000000000
310
20260000424D0E260000000000003E00000028000000B40200006E0000000100
310
01000000000000000000130B0000130B00000200000002000000000000FFFFFF
310
FFFFFFFFFFFFFFFFFFFFFFFFFFFFFFFFFFFFFFFFFFFFFFFFFFFFFFFFFFFFFFFF
310
FFFFFFFFFFFFFFFFFFFFFFFFFFFFFFFFFFFFFFFFFFFFFFFFFFFFFFFFFFFFFFFF
310
FFFFFFFFFFFFFFFFFFFFFFFFFFFFFFFFFFFFFFFFFFFFFFFFF000FFFFFFFFFFFF
310
FFFFFFFFFFFFFFFFFFFFFFFFFFFFFFFFFFFFFFFFFFFFFFFFFFFFFFFFFFFFFFFF
310
FFFFFFFFFFFFFFFFFFFFFFFFFFFFFFFFFFFFFFFFFFFFFFFFFFFFFFFFFFFFFFFF
310
FFFFFFFFFFFFFFFFFFFFFFFFFFFFFFFFF000FFFFFFFFFFFFFFFFFFFFFFFFFFFF
310
FFFFFFFFFFFFFFFFFFFFFFFFFFFFFFFFFFFFFFFFFFFFFFFFFFFFFFFFFFFFFFFF
310
FFFFFFFFFFFFFFFFFFFFFFFFFFFFFFFFFFFFFFFFFFFFFFFFFFFFFFFFFFFFFFFF
310
FFFFFFFFFFFFFFFFF000FFFFFFFFFFFFFFFFFFFFFFFFFFFFFFFFFFFFFFFFFFFF
310
FFFFFFFFFFFFFFFFFFFFFFFFFFFFFFFFFFFFFFFFFFFFFFFFFFFFFFFFFFFFFFFF
310
FFFFFFFFFFFFFFFFFFFFFFFFFFFFFFFFFFFFFFFFFFFFFFFFFFFFFFFFFFFFFFFF
310
F000FFFFFFFFFFFFFFFFFFFFFFFFFFFFFFFFFFFFFFFFFFFFFFFFFFFFFFFFFFFF
310
FFFFFFFFFFFFFFFFFFFFFFFFFFFFFFFFFFFFFFFFFFFFFFFFFFFFFFFFFFFFFFFF
310
FFFFFFFFFFFFFFFFFFFFFFFFFFFFFFFFFFFFFFFFFFFFFFFFF000FFFFFFFFFFFF
310
FFFFFFFFFFFFFFFFFFFFFFFFFFFFFFFFFFFFFFFFFFFFFFFFFFFFFFFFFFFFFFFF
310
FFFFFFFFFFFFFFFFFFFFFFFFFFFFFFFFFFFFFFFFFFFFFFFFFFFFFFFFFFFFFFFF
310
FFFFFFFFFFFFFFFFFFFFFFFFFFFFFFFFF000FFFFFFFFFFFFFFFFFFFFFFFFFFFF
310
FFFFFFFFFFFFFFFFFFFFFFFFFFFFFFFFFFFFFFFFFFFFFFFFFFFFFFFFFFFFFFFF
310
FFFFFFFFFFFFFFFFFFFFFFFFFFFFFFFFFFFFFFFFFFFFFFFFFFFFFFFFFFFFFFFF
310
FFFFFFFFFFFFFFFFF000FFFFFFFFFFFFFFFFFFFFFFFFFFFFFFFFFFFFFFFFFFFF
310
FFFFFFFFFFFFFFFFFFFFFFFFFFFFFFFFFFFFFFFFFFFFFFFFFFFFFFFFFFFFFFFF
310
FFFFFFFFFFFFFFFFFFFFFFFFFFFFFFFFFFFFFFFFFFFFFFFFFFFFFFFFFFFFFFFF
310
F000FFFFFFFFFFFFFFFFFFFFFFFFFFFFFFFFFFFFFFFFFFFFFFFFFFFFFFFFFFFF
310
FFFFFFFFFFFFFFFFFFFFFFFFFFFFFFFFFFFFFFFFFFFFFFFFFFFFFFFFFFFFFFFF
310
FFFFFFFFFFFFFFFFFFFFFFFFFFFFFFFFFFFFFFFFFFFFFFFFF000FFFFFFFFFFFF
310
FFFFFFFFFFFFFFFFFFFFFFFFFFFFFFFFFFFFFFFFFFFFFFFFFFFFFFFFFFFFFFFF
310
FFFFFFFFFFFFFFFFFFFFFFFFFFFFFFFFFFFFFFFFFFFFFFFFFFFFFFFFFFFFFFFF
310
FFFFFFFFFFFFFFFFFFFFFFFFFFFFFFFFF000FFFFFFFFFFFFFFFFFFFFFFFFFFFF
310
FFFFFFFFFFFFFFFFFFFFFFFFFFFFFFFFFFFFFFFFFFFFFFFFFFFFFFFFFFFFFFFF
310
FFFFFFFFFFFFFFFFFFFFFFFFFFFFFFFFFFFFFFFFFFFFFFFFFFFFFFFFFFFFFFFF
310
FFFFFFFFFFFFFFFFF000FFFFFFFFFFFFFFFFFFFFFFFFFFFFFFFFFFFFFFFFFFFF
310
FFFFFFFFFFFFFFFFFFFFFFFFFFFFFFFFFFFFFFFFFFFFFFFFFFFFFFFFFFFFFFFF
310
FFFFFFFFFFFFFFFFFFFFFFFFFFFFFFFFFFFFFFFFFFFFFFFFFFFFFFFFFFFFFFFF
310
F000FFFFFFFFFFFFFFFFFFFFFFFFFFFFFFFFFFFFFFFFFFFFFFFFFFFFFFFFFFFF
310
FFFFFFFFFFFFFFFFFFFFFFFFFFFFFFFFFFFFFFFFFFFFFFFFFFFFFFFFFFFFFFFF
310
FFFFFFFFFFFFFFFFFFFFFFFFFFFFFFFFFFFFFFFFFFFFFFFFF000FFFFFFFFFFFF
310
FFFFFFFFFFFFFFFFFFFFFFFFFFFFFFFFFFFFFFFFFFFFFFFFFFFFFFFFFFFFFFFF
310
FFFFFFFFFFFFFFFFFFFFFFFFFFFFFFFFFFFFFFFFFFFFFFFFFFFFFFFFFFFFFFFF
310
FFFFFFFFFFFFFFFFFFFFFFFFFFFFFFFFF000FFFFFFFFFFFFFFFFFFFFFFFFFFFF
310
FFFFFFFFFFFFFFFFFFFFFFFFFFFFFFFFFFFFFFFFFFFFFFFFFFFFFFFFFFFFFFFF
310
FFFFFFFFFFFFFFFFFFFFFFFFFFFFFFFFFFFFFFFFFFFFFFFFFFFFFFFFFFFFFFFF
310
FFFFFFFFFFFFFFFFF000FFFFFFFFFFFFFFFFFFFFFFFFFFFFFFFFFFFFFFFFFFFF
310
FFFFFFFFFFFFFFFFFFFFFFFFFFFFFFFFFFFFFFFFFFFFFFFFFFFFFFFFFFFFFFFF
310
FFFFFFFFFFFFFFFFFFFFFFFFFFFFFFFFFFFFFFFFFFFFFFFFFFFFFFFFFFFFFFFF
310
F000FFFFFFFFFFFFFFFFFFFFFFFFFFFFFFFFFFFFFFFFFFFFFFFFFFFFFFFFFFFF
310
FFFFFFFFFFFFFFFFFFFFFFFFFFFFFFFFFFFFFFFFFFFFFFFFFFFFFFFFFFFFFFFF
310
FFFFFFFFFFFFFFFFFFFFFFFFFFFFFFFFFFFFFFFFFFFFFFFFF000FFFFFFFFFFFF
310
FFFFFFFFFFFFFFFFFFFFFFFFFFFFFFFFFFFFFFFFFFFFFFFFFFFFFFFFFFFFFFFF
310
FFFFFFFFFFFFFFFFFFFFFFFFFFFFFFFFFFFFFFFFFFFFFFFFFFFFFFFFFFFFFFFF
310
FFFFFFFFFFFFFFFFFFFFFFFFFFFFFFFFF000FFFFFFFFFFFFFFFFFFFFFFFFFFFF
310
FFFFFFFFFFFFFFFFFFFFFFFFFFFFFFFFFFFFFFFFFFFFFFFFFFFFFFFFFFFFFFFF
310
FFFFFFFFFFFFFFFFFFFFFFFFFFFFFFFFFFFFFFFFFFFFFFFFFFFFFFFFFFFFFFFF
310
FFFFFFFFFFFFFFFFF000FFFFF80003FFFFFFFFFFFFFFFFFFFFFFFFFFFFFFFFFF
310
FFFFF00007FFFFFFFFFF00007FFFFFF800000000000000007FFFFFFFFFFFFFFF
310
FFFFFFFC001FFFFFFFFFFFFFFC001FFFFFFFFFFFFFFFFFFFFFFFFFFE0007FFFF
310
F000FFFF8000007FFFFFFFF8000FFFFFC0007FFFFF80007FFFFF0000007FFFFF
310
FFF8000007FFFFF800000000000000007FFFFFF0001FFFFFFFFFFFC00001FFFF
310
FFFFFFFFC00001FFFFFFFF000000000003FFFFE000007FFFF000FFFE0000000F
310
FFFFFFF0000FFFFF80007FFFFF80007FFFFC0000001FFFFFFFC0000001FFFFF8
310
00000000000000007FFFFFF0001FFFFFFFFFFE0000003FFFFFFFFFFE0000003F
310
FFFFFF000000000003FFFF0000000FFFF000FFF800000003FFFFFFF00007FFFF
310
80007FFFFF80007FFFF000000007FFFFFF000000003FFFF80000000000000000
310
7FFFFFF0001FFFFFFFFFF80000000FFFFFFFFFF80000000FFFFFFF0000000000
310
03FFFC00000003FFF000FFE000000000FFFFFFF00007FFFF80003FFFFF80007F
310
FFC000000001FFFFFC000000001FFFF800000000000000007FFFFFF0001FFFFF
310
FFFFE000000003FFFFFFFFE000000003FFFFFF000000000003FFF000000000FF
310
F000FF80000000007FFFFFF00007FFFF80003FFFFF80007FFF8000000000FFFF
310
F80000000007FFF800000000000000007FFFFFF0001FFFFFFFFFC000000001FF
310
FFFFFFC000000001FFFFFF000000000003FFC0000000007FF000FF0000000000
310
3FFFFFE00007FFFF00003FFFFF80007FFE00000000003FFFF00000000003FFF8
310
00000000000000007FFFFFF0001FFFFFFFFF8000000000FFFFFFFF8000000000
310
FFFFFF000000000003FF80000000003FF000FE00000000001FFFFFE00003FFFF
310
00003FFFFF80007FFC00000000001FFFE00000000001FFF8000001FFFE000000
310
7FFFFFF0001FFFFFFFFE00000000003FFFFFFE00000000003FFFFF0000000000
310
03FF00000000001FF000FC00000000000FFFFFE00003FFFF00001FFFFF80007F
310
F800000000001FFFC00000000000FFF8000001FFFE0000007FFFFFF0001FFFFF
310
FFFC00000000001FFFFFFC00000000001FFFFF000000000003FE00000000000F
310
F000F8000000000007FFFFE00003FFFF00001FFFFF80007FF800000000000FFF
310
800000000000FFF8000001FFFE0000007FFFFFF0001FFFFFFFF800000000000F
310
FFFFF800000000000FFFFF000000000003FC000000000007F000F80000000000
310
03FFFFC00003FFFE00001FFFFF80007FF0000000000007FF0000000000007FF8
310
000001FFFE0000007FFFFFF0001FFFFFFFF0000000000007FFFFF00000000000
310
07FFFF000000000003F8000000000003F000F0000000000003FFFFC00001FFFE
310
00001FFFFF80007FE0000000000007FE0000000000003FF8000001FFFE000000
310
7FFFFFF0001FFFFFFFF0000000000007FFFFF0000000000007FFFF0000000000
310
03F800001F800003F000E00001FFF00001FFFFC00001FFFE00000FFFFF80007F
310
E00001FFE00003FE00001FFF00003FF8000001FFFE0000007FFFFFF0001FFFFF
310
FFE000003E000003FFFFE000003E000003FFFF000000000003F00001FFF80001
310
F000E00007FFFC0001FFFFC00001FFFE00000FFFFF80007FC0000FFFFC0003FC
310
0000FFFFC0001FF8000001FFFE0000007FFFFFF0001FFFFFFFC00003FFE00001
310
FFFFC00003FFE00001FFFF0001FFFFFFFFF00007FFFE0001F000E0000FFFFF00
310
00FFFF800001FFFC00000FFFFF80007FC0001FFFFE0001FC0001FFFFE0001FF8
310
000001FFFE0000007FFFFFF0001FFFFFFF80000FFFF80000FFFF80000FFFF800
310
00FFFF0003FFFFFFFFE0000FFFFF8000F000C0003FFFFF8000FFFF800000FFFC
310
000007FFFF80007F80003FFFFF0001FC0003FFFFF0001FF8000001FFFE000000
310
7FFFFFF0001FFFFFFF80003FFFFE0000FFFF80003FFFFE0000FFFF0003FFFFFF
310
FFE0003FFFFF8000F000C0003FFFFF8000FFFF800000FFFC000007FFFF80007F
310
80007FFFFF8001F80007FFFFF8000FF8000001FFFE0000007FFFFFF0001FFFFF
310
FF00007FFFFF00007FFF00007FFFFF00007FFF0003FFFFFFFFE0003FFFFFC000
310
F000C0007FFFFFC000FFFF000000FFFC000007FFFF80007F8000FFFFFF8000F8
310
000FFFFFF8000FF8000001FFFE0000007FFFFFF0001FFFFFFF0000FFFFFF8000
310
7FFF0000FFFFFF80007FFF0003FFFFFFFFC0007FFFFFC00070008000FFFFFFC0
310
00FFFF000000FFF8000007FFFF80007F8000FFFFFF8000F8000FFFFFF8000FF8
310
000001FFFE0000007FFFFFF0001FFFFFFE0001FFFFFFC0003FFE0001FFFFFFC0
310
003FFF0003FFFFFFFFC0007FFFFFE00070008000FFFFFFC0007FFF0000007FF8
310
000003FFFF80007F0001FFFFFF8000F8000FFFFFF8000FF8000001FFFE000000
310
7FFFFFF0001FFFFFFE0001FFFFFFC0003FFE0001FFFFFFC0003FFF0003FFFFFF
310
FFC000FFFFFFE00070008000FFFFFFC0007FFF0000007FF8000003FFFF80007F
310
0001FFFFFF8000F8001FFFFFF8000FF8000001FFFE0000007FFFFFF0001FFFFF
310
FE0003FFFFFFE0003FFE0003FFFFFFE0003FFF0003FFFFFFFFC000FFFFFFE000
310
70008000FFFFFFC0007FFE0000007FF8000003FFFF80007F0001FFFFFF8000F0
310
001FFFFFF8000FF8000001FFFE0000007FFFFFF0001FFFFFFC0003FFFFFFE000
310
1FFC0003FFFFFFE0001FFF0003FFFFFFFFC000FFFFFFC00070008000FFFFFF80
310
007FFE0000007FF0000003FFFF80007F0001FFFFFF0000F0001FFFFFF8000FF8
310
000001FFFE0000007FFFFFF0001FFFFFFC0007FFFFFFF0001FFC0007FFFFFFF0
310
001FFF0003FFFFFFFFC000FFFFFFC00070008001FFFFFF0000FFFE0000003FF0
310
000001FFFF80007F0001FFFFFF0000F8001FFFFFF0000FF8000001FFFE000000
310
7FFFFFF0001FFFFFFC0007FFFFFFF0001FFC0007FFFFFFF0001FFF0003FFFFFF
310
FFC001FFFFFF80007000FFFFFFFFFE0000FFFE0008003FF0008001FFFF80007F
310
FFFFFFFFFC0000FFFFFFFFFFE0000FF8000001FFFE0000007FFFFFF0001FFFFF
310
F8000FFFFFFFF8000FF8000FFFFFFFF8000FFF0003FFFFFFFFFFFFFFFFFF0000
310
7000FFFFFFFFFC0000FFFC0008003FF0008001FFFF80007FFFFFFFFFF80001FF
310
FFFFFFFF80000FF8000001FFFE0000007FFFFFF0001FFFFFF8000FFFFFFFF800
310
0FF8000FFFFFFFF8000FFF0003FFFFFFFFFFFFFFFFFE0000F000FFFFFFFFE000
310
00FFFC000C003FE000C001FFFF80007FFFFFFFFFC00001FFFFFFFFFE00001FF8
310
000001FFFE0000007FFFFFF0001FFFFFF8000FFFFFFFF8000FF8000FFFFFFFF8
310
000FFF0003FFFFFFFFFFFFFFFFF00000F000FFFFFFFE000001FFFC000C001FE0
310
00C000FFFF80007FFFFFFFFE000001FFFFFFFFE000001FF80FFFFFFFFFFFFFC0
310
7FFFFFF0001FFFFFF8000FFFFFFFF8000FF8000FFFFFFFF8000FFF0003FFFFFF
310
FFFFFFFFFF800000F000FFFFFFC0000001FFFC001C001FE001C000FFFF80007F
310
FFFFFF80000003FFFFFFF80000001FF80FFFFFFFFFFFFFC07FFFFFF0001FFFFF
310
F8001FFFFFFFFC000FF8001FFFFFFFFC000FFF0003FFFFFFFFFFFFFFF0000001
310
F000FFFFF800000001FFF8001C001FE001C000FFFF80007FFFFFF800000003FF
310
FFFF800000003FF80FFFFFFFFFFFFFC07FFFFFF0001FFFFFF8001FFFFFFFFC00
310
0FF8001FFFFFFFFC000FFF0003FFFFFFFFFFFFFE00000001F000FFFFC0000000
310
03FFF8001E001FC001E000FFFF80007FFFFF8000000007FFFFFC000000003FF8
310
0FFFFFFFFFFFFFC07FFFFFF0001FFFFFF8001FFFFFFFFC000FF8001FFFFFFFFC
310
000FFF0003FFFFFFFFFFFFE000000003F000FFFE0000000007FFF8001E000FC0
310
01E0007FFF80007FFFFE0000000007FFFFE0000000007FF80FFFFFFFFFFFFFC0
310
7FFFFFF0001FFFFFF0001FFFFFFFFC0007F0001FFFFFFFFC0007FF0003FFFFFF
310
FFFFFF0000000003F000FFF80000000007FFF8001E000FC003E0007FFF80007F
310
FFF0000000000FFFFF8000000000FFF80FFFFFFFFFFFFFC07FFFFFF0001FFFFF
310
F0001FFFFFFFFC0007F0001FFFFFFFFC0007FF0003FFFFFFFFFFFC0000000007
310
F000FFE0000000000FFFF0003E000FC003E0007FFF80007FFFC0000000001FFF
310
FE0000000001FFF80FFFFFFFFFFFFFC07FFFFFF0001FFFFFF0001FFFFFFFFC00
310
07F0001FFFFFFFFC0007FF0003FFFFFFFFFFF0000000000FF000FFC000000000
310
1FFFF0003F000F8003F0003FFF80007FFF80000000003FFFF80000000003FFF8
310
0FFFFFFFFFFFFFC07FFFFFF0001FFFFFF0001FFFFFFFFC0007F0001FFFFFFFFC
310
0007FF0003FFFFFFFFFFE0000000001FF000FF00000000007FFFF0003F000780
310
03F0003FFF80007FFF00000000007FFFF00000000007FFF80FFFFFFFFFFFFFC0
310
7FFFFFF0001FFFFFF0001FFFFFFFFC0007F0001FFFFFFFFC0007FF0003FFFFFF
310
FFFF80000000007FF000FE0000000000FFFFE0003F00078007F0003FFF80007F
310
FE0000000001FFFFE0000000001FFFF80FFFFFFFFFFFFFC07FFFFFF0001FFFFF
310
F0001FFFFFFFFC0007F0001FFFFFFFFC0007FF0003FFFFFFFFFF0000000000FF
310
F000FC0000000003FFFFE0007F00078007F0003FFF80007FFC0000000007FFFF
310
C0000000007FFFF80FFFFFFFFFFFFFC07FFFFFF0001FFFFFF8001FFFFFFFFC00
310
0FF8001FFFFFFFFC000FFF0003FFFFFFFFFE0000000003FFF000FC000000000F
310
FFFFE0007F80070007F8001FFF80007FF8000000001FFFFF8000000001FFFFF8
310
0FFFFFFFFFFFFFC07FFFFFF0001FFFFFF8001FFFFFFFFC000FF8001FFFFFFFFC
310
000FFF0003FFFFFFFFFC000000000FFFF000F8000000007FFFFFE0007F800700
310
07F8001FFF80007FF000000000FFFFFF800000000FFFFFF80FFFFFFFFFFFFFC0
310
7FFFFFF0001FFFFFF8000FFFFFFFF8000FF8000FFFFFFFF8000FFF0003FFFFFF
310
FFFC000000007FFFF000F800000007FFFFFFC0007F8003000FF8001FFF80007F
310
F000000007FFFFFF000000007FFFFFF80FFFFFFFFFFFFFC07FFFFFF0001FFFFF
310
F8000FFFFFFFF8000FF8000FFFFFFFF8000FFF0003FFFFFFFFF80000000FFFFF
310
F000F0000000FFFFFFFFC000FF8003000FF8001FFF80007FE0000000FFFFFFFF
310
0000000FFFFFFFF8000001FFFE0000007FFFFFF0001FFFFFF8000FFFFFFFF800
310
0FF8000FFFFFFFF8000FFF0003FFFFFFFFF8000000FFFFFFF000F000000FFFFF
310
FFFFC000FFC002000FF8000FFF80007FE000001FFFFFFFFE000001FFFFFFFFF8
310
000001FFFE0000007FFFFFF0001FFFFFF8000FFFFFFFF8000FF8000FFFFFFFF8
310
000FFF0003FFFFFFFFF000001FFFFFFFF000E00000FFFFFFFFFFC000FFC00200
310
0FFC000FFF80007FE00001FFFFFFFFFE00001FFFFFFFFFF8000001FFFE000000
310
7FFFFFF0001FFFFFFC000FFFFFFFF8001FFC000FFFFFFFF8001FFF0003FFFFFF
310
FFF00001FFFFFFFFF000E00007FFFFFFFFFF8000FFC000001FFC000FFF80007F
310
C0000FFFFFFFFFFE0000FFFFFFFFFFF8000001FFFE0000007FFFFFF0001FFFFF
310
FC0007FFFFFFF0001FFC0007FFFFFFF0001FFF0003FFFFFFFFF00007FFFFFFFF
310
F000E0001FFFFFFFFFFF8000FFC000001FFC000FFF80007FC0003FFFFFFFFFFE
310
0001FFFFFFFFFFF8000001FFFE0000007FFFFFF0001FFFFFFC0007FFFFFFF000
310
1FFC0007FFFFFFF0001FFF0003FFFFFFFFF0001FFFFFFFFFF000E0003FFFFF00
310
03FF8001FFE000001FFC0007FF80007FC0007FFFFF0007FC0003FFFFF0003FF8
310
000001FFFE0000007FFFFFF0001FFFFFFC0003FFFFFFE0001FFC0003FFFFFFE0
310
001FFF0003FFFFFFFFF0003FFFFFFFFFF000E0003FFFFF0001FF8001FFE00000
310
1FFE0007FF80007FC0007FFFFE0003FC0007FFFFE0003FF8000001FFFE000000
310
7FFFFFF0001FFFFFFE0003FFFFFFE0003FFE0003FFFFFFE0003FFF0003FFFFFF
310
FFF0003FFFFF8001F000E0003FFFFF0001FF0001FFE000001FFE0007FF80007F
310
C0007FFFFE0003FC0007FFFFE0003FF8000001FFFE0000007FFFFFF0001FFFFF
310
FE0001FFFFFFC0003FFE0001FFFFFFC0003FFF0003FFFFFFFFF0003FFFFF0001
310
F000E0003FFFFF0003FF0001FFE000003FFE0007FF80007FC0007FFFFE0003FC
310
0007FFFFE0003FF8000001FFFE0000007FFFFFF0001FFFFFFF0001FFFFFFC000
310
7FFF0001FFFFFFC0007FFF0003FFFFFFFFF0003FFFFF0001F000E0003FFFFE00
310
03FF0003FFF000003FFE0003FF80007FC0007FFFFC0003FE0007FFFFE0003FF8
310
000001FFFE0000007FFFFFF0001FFFFFFF0000FFFFFF80007FFF0000FFFFFF80
310
007FFF0003FFFFFFFFF0003FFFFF0001F000E0003FFFFE0003FF0003FFF00000
310
3FFF0003FF80007FC0007FFFFC0007FE0007FFFFC0003FF8000001FFFE000000
310
7FFFFFF0001FFFFFFF80007FFFFF0000FFFF80007FFFFF0000FFFF0003FFFFFF
310
FFF0003FFFFF0003F000E0003FFFFC0003FE0003FFF000003FFF0003FF80007F
310
E0003FFFF80007FE0003FFFFC0007FF8000001FFFE0000007FFFFFF0001FFFFF
310
FF80003FFFFE0000FFFF80003FFFFE0000FFFF0003FFFFFFFFF0001FFFFE0003
310
F000F0001FFFF80003FE0003FFF000007FFF0001FF80007FE0003FFFF00007FE
310
0001FFFF80007FF8000001FFFE0000007FFFFFF0001FFFFFFFC0000FFFF80001
310
FFFFC0000FFFF80001FFFF0003FFFFFFFFF0001FFFFC0003F000F0000FFFF000
310
07FE0007FFF800007FFF0001FF80007FE0001FFFE00007FF0000FFFE00007FF8
310
000001FFFE0000007FFFFFF0001FFFFFFFC00003FFE00001FFFFC00003FFE000
310
01FFFF0003FFFFFFFFF8000FFFF80003F000F00003FFC00007FC0007FFF80000
310
7FFF8001FF80007FF00007FF80000FFF00007FF80000FFF8000001FFFE000000
310
7F80000000000001FFE000003E000003FFFFE000003E000003FFFF0003FFFFFF
310
FFF80003FFE00007F000F800000000000FFC0007FFF800007FFF8001FF80007F
310
F000000000000FFF000000000000FFF8000001FFFE0000007F80000000000001
310
FFF0000000000007FFFFF0000000000007FFFF0003FFFFFFFFFC00007E000007
310
F000F800000000000FFC0007FFF80000FFFF8000FF80007FF800000000001FFF
310
800000000001FFF8000001FFFE0000007F80000000000001FFF800000000000F
310
FFFFF800000000000FFFFF0003FFFFFFFFFC00000000000FF000FC0000000000
310
1FFC0007FFFC0000FFFF8000FF80007FF800000000003FFFC00000000001FFF8
310
000001FFFE0000007F80000000000001FFF800000000000FFFFFF80000000000
310
0FFFFF0003FFFFFFFFFE00000000001FF000FE00000000003FF8000FFFFC0000
310
FFFF8000FF80007FFC00000000003FFFC00000000003FFF8000001FFFE000000
310
7F80000000000001FFFC00000000001FFFFFFC00000000001FFFFF0003FFFFFF
310
FFFF00000000001FF000FF00000000003FF8000FFFFC0000FFFFC000FF80007F
310
FE00000000007FFFE00000000007FFF8000001FFFE0000007F80000000000001
310
FFFE00000000003FFFFFFE00000000003FFFFF0003FFFFFFFFFF80000000003F
310
F000FF80000000007FF8000FFFFC0001FFFFC0007F80007FFF0000000000FFFF
310
F0000000000FFFF800000000000000007F80000000000001FFFF8000000000FF
310
FFFFFF8000000000FFFFFF0003FFFFFFFFFFC0000000007FF000FFC000000000
310
FFF8000FFFFE0001FFFFC0007F80007FFF8000000001FFFFF8000000001FFFF8
310
00000000000000007F80000000000001FFFFC000000001FFFFFFFFC000000001
310
FFFFFF0003FFFFFFFFFFE000000000FFF000FFE000000003FFF0001FFFFE0001
310
FFFFC0007F80007FFFC000000007FFFFFE000000003FFFF80000000000000000
310
7F80000000000001FFFFE000000003FFFFFFFFE000000003FFFFFF0003FFFFFF
310
FFFFF000000003FFF000FFF80000000FFFF0001FFFFE0001FFFFE0007F80007F
310
FFF00000000FFFFFFF00000000FFFFF800000000000000007F80000000000001
310
FFFFF80000000FFFFFFFFFF80000000FFFFFFF0003FFFFFFFFFFFC0000000FFF
310
F000FFFE0000003FFFF0001FFFFE0003FFFFE0003F80007FFFFC0000003FFFFF
310
FFC0000003FFFFF800000000000000007F80000000000001FFFFFE0000003FFF
310
FFFFFFFE0000003FFFFFFF0003FFFFFFFFFFFF0000003FFFF000FFFF800000FF
310
FFF0001FFFFF0003FFFFE0003F80007FFFFF000001FFFFFFFFF800001FFFFFF8
310
00000000000000007F80000000000001FFFFFFC00001FFFFFFFFFFFFC00001FF
310
FFFFFF0003FFFFFFFFFFFFC00000FFFFF000FFFFF8000FFFFFFFFFFFFFFFFFFF
310
FFFFFFFFFFFFFFFFFFFFF0001FFFFFFFFFFF0000FFFFFFF80000000000000000
310
7FFFFFFFFFFFFFFFFFFFFFFC001FFFFFFFFFFFFFFC001FFFFFFFFFFFFFFFFFFF
310
FFFFFFFC001FFFFFF000FFFFFFFFFFFFFFFFFFFFFFFFFFFFFFFFFFFFFFFFFFFF
310
FFFFFFFFFFFFFFFFFFFFFFFFFFFFFFFFFFFFFFFFFFFFFFFFFFFFFFFFFFFFFFFF
310
FFFFFFFFFFFFFFFFFFFFFFFFFFFFFFFFFFFFFFFFFFFFFFFFFFFFFFFFFFFFFFFF
310
F000FFFFFFFFFFFFFFFFFFFFFFFFFFFFFFFFFFFFFFFFFFFFFFFFFFFFFFFFFFFF
310
FFFFFFFFFFFFFFFFFFFFFFFFFFFFFFFFFFFFFFFFFFFFFFFFFFFFFFFFFFFFFFFF
310
FFFFFFFFFFFFFFFFFFFFFFFFFFFFFFFFFFFFFFFFFFFFFFFFF000FFFFFFFFFFFF
310
FFFFFFFFFFFFFFFFFFFFFFFFFFFFFFFFFFFFFFFFFFFFFFFFFFFFFFFFFFFFFFFF
310
FFFFFFFFFFFFFFFFFFFFFFFFFFFFFFFFFFFFFFFFFFFFFFFFFFFFFFFFFFFFFFFF
310
FFFFFFFFFFFFFFFFFFFFFFFFFFFFFFFFF000FFFFFFFFFFFFFFFFFFFFFFFFFFFF
310
FFFFFFFFFFFFFFFFFFFFFFFFFFFFFFFFFFFFFFFFFFFFFFFFFFFFFFFFFFFFFFFF
310
FFFFFFFFFFFFFFFFFFFFFFFFFFFFFFFFFFFFFFFFFFFFFFFFFFFFFFFFFFFFFFFF
310
FFFFFFFFFFFFFFFFF000FFFFFFFFFFFFFFFFFFFFFFFFFFFFFFFFFFFFFFFFFFFF
310
FFFFFFFFFFFFFFFFFFFFFFFFFFFFFFFFFFFFFFFFFFFFFFFFFFFFFFFFFFFFFFFF
310
FFFFFFFFFFFFFFFFFFFFFFFFFFFFFFFFFFFFFFFFFFFFFFFFFFFFFFFFFFFFFFFF
310
F000FFFFFFFFFFFFFFFFFFFFFFFFFFFFFFFFFFFFFFFFFFFFFFFFFFFFFFFFFFFF
310
FFFFFFFFFFFFFFFFFFFFFFFFFFFFFFFFFFFFFFFFFFFFFFFFFFFFFFFFFFFFFFFF
310
FFFFFFFFFFFFFFFFFFFFFFFFFFFFFFFFFFFFFFFFFFFFFFFFF000FFFFFFFFFFFF
310
FFFFFFFFFFFFFFFFFFFFFFFFFFFFFFFFFFFFFFFFFFFFFFFFFFFFFFFFFFFFFFFF
310
FFFFFFFFFFFFFFFFFFFFFFFFFFFFFFFFFFFFFFFFFFFFFFFFFFFFFFFFFFFFFFFF
310
FFFFFFFFFFFFFFFFFFFFFFFFFFFFFFFFF000FFFFFFFFFFFFFFFFFFFFFFFFFFFF
310
FFFFFFFFFFFFFFFFFFFFFFFFFFFFFFFFFFFFFFFFFFFFFFFFFFFFFFFFFFFFFFFF
310
FFFFFFFFFFFFFFFFFFFFFFFFFFFFFFFFFFFFFFFFFFFFFFFFFFFFFFFFFFFFFFFF
310
FFFFFFFFFFFFFFFFF000FFFFFFFFFFFFFFFFFFFFFFFFFFFFFFFFFFFFFFFFFFFF
310
FFFFFFFFFFFFFFFFFFFFFFFFFFFFFFFFFFFFFFFFFFFFFFFFFFFFFFFFFFFFFFFF
310
FFFFFFFFFFFFFFFFFFFFFFFFFFFFFFFFFFFFFFFFFFFFFFFFFFFFFFFFFFFFFFFF
310
F000FFFFFFFFFFFFFFFFFFFFFFFFFFFFFFFFFFFFFFFFFFFFFFFFFFFFFFFFFFFF
310
FFFFFFFFFFFFFFFFFFFFFFFFFFFFFFFFFFFFFFFFFFFFFFFFFFFFFFFFFFFFFFFF
310
FFFFFFFFFFFFFFFFFFFFFFFFFFFFFFFFFFFFFFFFFFFFFFFFF000FFFFFFFFFFFF
310
FFFFFFFFFFFFFFFFFFFFFFFFFFFFFFFFFFFFFFFFFFFFFFFFFFFFFFFFFFFFFFFF
310
FFFFFFFFFFFFFFFFFFFFFFFFFFFFFFFFFFFFFFFFFFFFFFFFFFFFFFFFFFFFFFFF
310
FFFFFFFFFFFFFFFFFFFFFFFFFFFFFFFFF000FFFFFFFFFFFFFFFFFFFFFFFFFFFF
310
FFFFFFFFFFFFFFFFFFFFFFFFFFFFFFFFFFFFFFFFFFFFFFFFFFFFFFFFFFFFFFFF
310
FFFFFFFFFFFFFFFFFFFFFFFFFFFFFFFFFFFFFFFFFFFFFFFFFFFFFFFFFFFFFFFF
310
FFFFFFFFFFFFFFFFF000FFFFFFFFFFFFFFFFFFFFFFFFFFFFFFFFFFFFFFFFFFFF
310
FFFFFFFFFFFFFFFFFFFFFFFFFFFFFFFFFFFFFFFFFFFFFFFFFFFFFFFFFFFFFFFF
310
FFFFFFFFFFFFFFFFFFFFFFFFFFFFFFFFFFFFFFFFFFFFFFFFFFFFFFFFFFFFFFFF
310
F000FFFFFFFFFFFFFFFFFFFFFFFFFFFFFFFFFFFFFFFFFFFFFFFFFFFFFFFFFFFF
310
FFFFFFFFFFFFFFFFFFFFFFFFFFFFFFFFFFFFFFFFFFFFFFFFFFFFFFFFFFFFFFFF
310
FFFFFFFFFFFFFFFFFFFFFFFFFFFFFFFFFFFFFFFFFFFFFFFFF000FFFFFFFFFFFF
310
FFFFFFFFFFFFFFFFFFFFFFFFFFFFFFFFFFFFFFFFFFFFFFFFFFFFFFFFFFFFFFFF
310
FFFFFFFFFFFFFFFFFFFFFFFFFFFFFFFFFFFFFFFFFFFFFFFFFFFFFFFFFFFFFFFF
310
FFFFFFFFFFFFFFFFFFFFFFFFFFFFFFFFF000FFFFFFFFFFFFFFFFFFFFFFFFFFFF
310
FFFFFFFFFFFFFFFFFFFFFFFFFFFFFFFFFFFFFFFFFFFFFFFFFFFFFFFFFFFFFFFF
310
FFFFFFFFFFFFFFFFFFFFFFFFFFFFFFFFFFFFFFFFFFFFFFFFFFFFFFFFFFFFFFFF
310
FFFFFFFFFFFFFFFFF000FFFFFFFFFFFFFFFFFFFFFFFFFFFFFFFFFFFFFFFFFFFF
310
FFFFFFFFFFFFFFFFFFFFFFFFFFFFFFFFFFFFFFFFFFFFFFFFFFFFFFFFFFFFFFFF
310
FFFFFFFFFFFFFFFFFFFFFFFFFFFFFFFFFFFFFFFFFFFFFFFFFFFFFFFFFFFFFFFF
310
F000FFFFFFFFFFFFFFFFFFFFFFFFFFFFFFFFFFFFFFFFFFFFFFFFFFFFFFFFFFFF
310
FFFFFFFFFFFFFFFFFFFFFFFFFFFFFFFFFFFFFFFFFFFFFFFFFFFFFFFFFFFFFFFF
310
FFFFFFFFFFFFFFFFFFFFFFFFFFFFFFFFFFFFFFFFFFFFFFFFF000FFFFFFFFFFFF
310
FFFFFFFFFFFFFFFFFFFFFFFFFFFFFFFFFFFFFFFFFFFFFFFFFFFFFFFFFFFFFFFF
310
FFFFFFFFFFFFFFFFFFFFFFFFFFFFFFFFFFFFFFFFFFFFFFFFFFFFFFFFFFFFFFFF
310
FFFFFFFFFFFFFFFFFFFFFFFFFFFFFFFFF000FFFFFFFFFFFFFFFFFFFFFFFFFFFF
310
FFFFFFFFFFFFFFFFFFFFFFFFFFFFFFFFFFFFFFFFFFFFFFFFFFFFFFFFFFFFFFFF
310
FFFFFFFFFFFFFFFFFFFFFFFFFFFFFFFFFFFFFFFFFFFFFFFFFFFFFFFFFFFFFFFF
310
FFFFFFFFFFFFFFFFF000FFFFFFFFFFFFFFFFFFFFFFFFFFFFFFFFFFFFFFFFFFFF
310
FFFFFFFFFFFFFFFFFFFFFFFFFFFFFFFFFFFFFFFFFFFFFFFFFFFFFFFFFFFFFFFF
310
FFFFFFFFFFFFFFFFFFFFFFFFFFFFFFFFFFFFFFFFFFFFFFFFFFFFFFFFFFFFFFFF
310
F000FFFFFFFFFFFFFFFFFFFFFFFFFFFFFFFFFFFFFFFFFFFFFFFFFFFFFFFFFFFF
310
FFFFFFFFFFFFFFFFFFFFFFFFFFFFFFFFFFFFFFFFFFFFFFFFFFFFFFFFFFFFFFFF
310
FFFFFFFFFFFFFFFFFFFFFFFFFFFFFFFFFFFFFFFFFFFFFFFFF000FFFFFFFFFFFF
310
FFFFFFFFFFFFFFFFFFFFFFFFFFFFFFFFFFFFFFFFFFFFFFFFFFFFFFFFFFFFFFFF
310
FFFFFFFFFFFFFFFFFFFFFFFFFFFFFFFFFFFFFFFFFFFFFFFFFFFFFFFFFFFFFFFF
310
FFFFFFFFFFFFFFFFFFFFFFFFFFFFFFFFF0000000000000000000000000000000
310
0000000001000000000000000100000000000000010000000000000001000000
310
0000000001000000010000000100000001000000010000000100000001000000
310
0100000000000000010000000100000001000000010000000100000001000000
310
0100000001000000000000000100000000000000010000000000000001000000
310
0000000001000000000000000100000000000000010000000000000001000000
310
0000000001000000000000000100000001000000010000000100000001000000
310
0100000001000000010000000000000001000000010000000100000001000000
310
0100000001000000010000000100000000000000010000000100000001000000
310
0100000001000000010000000100000001000000000000000100000001000000
310
0100000001000000010000000100000001000000010000000000000001000000
310
0000000001000000000000000100000000000000010000000000000001000000
310
0000000001000000000000000100000000000000010000000000000000000000
310
0000000000000000000000000000000000000000000000000000000000000000
310
0000000000000000E3021D0300000004F0CA5131000000001022513100000000
310
0000000000000000000000000000000000000000000000000000000000000000
  1
OLE
  0
ENDSEC
  0
SECTION
  2
OBJECTS
  0
DICTIONARY
  5
C
330
0
100
AcDbDictionary
281
     1
  3
ACAD_GROUP
350
D
  3
ACAD_LAYOUT
350
1A
  3
ACAD_MLEADERSTYLE
350
1B8
  3
ACAD_MLINESTYLE
350
17
  3
ACAD_PLOTSETTINGS
350
19
  3
ACAD_PLOTSTYLENAME
350
E
  3
ACAD_TABLESTYLE
350
1B7
  3
ACAD_VISUALSTYLE
350
2A
  3
AcDbVariableDictionary
350
1B9
  0
DICTIONARY
  5
D
102
{ACAD_REACTORS
330
C
102
}
330
C
100
AcDbDictionary
281
     1
  0
DICTIONARY
  5
1A
102
{ACAD_REACTORS
330
C
102
}
330
C
100
AcDbDictionary
281
     1
  3
Layout1
350
1E
  3
Layout2
350
26
  3
Model
350
22
  0
DICTIONARY
  5
1B8
102
{ACAD_REACTORS
330
C
102
}
330
C
100
AcDbDictionary
281
     1
  0
DICTIONARY
  5
17
102
{ACAD_REACTORS
330
C
102
}
330
C
100
AcDbDictionary
281
     1
  3
Standard
350
18
  0
DICTIONARY
  5
19
102
{ACAD_REACTORS
330
C
102
}
330
C
100
AcDbDictionary
281
     1
  0
ACDBDICTIONARYWDFLT
  5
E
102
{ACAD_REACTORS
330
C
102
}
330
C
100
AcDbDictionary
281
     1
  3
Normal
350
F
100
AcDbDictionaryWithDefault
340
F
  0
DICTIONARY
  5
1B7
102
{ACAD_REACTORS
330
C
102
}
330
C
100
AcDbDictionary
281
     1
  0
DICTIONARY
  5
2A
102
{ACAD_REACTORS
330
C
102
}
330
C
100
AcDbDictionary
281
     1
  3
2dWireframe
350
2F
  3
3D Hidden
350
31
  3
3dWireframe
350
30
  3
Basic
350
32
  3
Brighten
350
36
  3
ColorChange
350
3A
  3
Conceptual
350
34
  3
Dim
350
35
  3
Facepattern
350
39
  3
Flat
350
2B
  3
FlatWithEdges
350
2C
  3
Gouraud
350
2D
  3
GouraudWithEdges
350
2E
  3
Linepattern
350
38
  3
Realistic
350
33
  3
Thicken
350
37
  0
DICTIONARY
  5
1B9
102
{ACAD_REACTORS
330
C
102
}
330
C
100
AcDbDictionary
281
     1
  3
PSOLHEIGHT
350
1BB
  3
PSOLWIDTH
350
1BA
  0
LAYOUT
  5
1E
102
{ACAD_REACTORS
330
1A
102
}
330
1A
100
AcDbPlotSettings
  1

  2
none_device
  4

  6

 40
0.0
 41
0.0
 42
0.0
 43
0.0
 44
0.0
 45
0.0
 46
0.0
 47
0.0
 48
0.0
 49
0.0
140
0.0
141
0.0
142
1.0
143
1.0
 70
   688
 72
     0
 73
     0
 74
     5
  7

 75
    16
147
1.0
148
0.0
149
0.0
100
AcDbLayout
  1
Layout1
 70
     1
 71
     1
 10
0.0
 20
0.0
 11
420.0
 21
297.0
 12
0.0
 22
0.0
 32
0.0
 14
1.0000000000E+20
 24
1.0000000000E+20
 34
1.0000000000E+20
 15
-1.0000000000E+20
 25
-1.0000000000E+20
 35
-1.0000000000E+20
146
0.0
 13
0.0
 23
0.0
 33
0.0
 16
1.0
 26
0.0
 36
0.0
 17
0.0
 27
1.0
 37
0.0
 76
     0
330
1B
  0
LAYOUT
  5
26
102
{ACAD_REACTORS
330
1A
102
}
330
1A
100
AcDbPlotSettings
  1

  2
none_device
  4

  6

 40
0.0
 41
0.0
 42
0.0
 43
0.0
 44
0.0
 45
0.0
 46
0.0
 47
0.0
 48
0.0
 49
0.0
140
0.0
141
0.0
142
1.0
143
1.0
 70
   688
 72
     0
 73
     0
 74
     5
  7

 75
    16
147
1.0
148
0.0
149
0.0
100
AcDbLayout
  1
Layout2
 70
     1
 71
     2
 10
0.0
 20
0.0
 11
0.0
 21
0.0
 12
0.0
 22
0.0
 32
0.0
 14
0.0
 24
0.0
 34
0.0
 15
0.0
 25
0.0
 35
0.0
146
0.0
 13
0.0
 23
0.0
 33
0.0
 16
1.0
 26
0.0
 36
0.0
 17
0.0
 27
1.0
 37
0.0
 76
     0
330
23
  0
LAYOUT
  5
22
102
{ACAD_REACTORS
330
1A
102
}
330
1A
100
AcDbPlotSettings
  1

  2
none_device
  4

  6

 40
0.0
 41
0.0
 42
0.0
 43
0.0
 44
0.0
 45
0.0
 46
0.0
 47
0.0
 48
0.0
 49
0.0
140
0.0
141
0.0
142
1.0
143
1.0
 70
  1712
 72
     0
 73
     0
 74
     0
  7

 75
     0
147
1.0
148
0.0
149
0.0
100
AcDbLayout
  1
Model
 70
     1
 71
     0
 10
0.0
 20
0.0
 11
297.0
 21
210.0
 12
0.0
 22
0.0
 32
0.0
 14
0.0
 24
0.0
 34
0.0
 15
297.0
 25
210.0
 35
0.0
146
0.0
 13
0.0
 23
0.0
 33
0.0
 16
1.0
 26
0.0
 36
0.0
 17
0.0
 27
1.0
 37
0.0
 76
     0
330
1F
331
29
  0
MLINESTYLE
  5
18
102
{ACAD_REACTORS
330
17
102
}
330
17
100
AcDbMlineStyle
  2
Standard
 70
     0
  3

 62
   256
 51
90.0
 52
90.0
 71
     2
 49
0.5
 62
   256
  6
BYLAYER
 49
-0.5
 62
   256
  6
BYLAYER
  0
ACDBPLACEHOLDER
  5
F
102
{ACAD_REACTORS
330
E
102
}
330
E
  0
VISUALSTYLE
  5
2F
102
{ACAD_REACTORS
330
2A
102
}
330
2A
100
AcDbVisualStyle
  2
2dWireframe
 70
     4
 71
     0
 72
     2
 73
     0
 90
        0
 40
-0.6
 41
-30.0
 62
     5
 63
     7
 74
     1
 91
        4
 64
     7
 65
   257
 75
     1
175
     1
 42
1.0
 92
        0
 66
   257
 43
1.0
 76
     1
 77
     6
 78
     2
 67
     7
 79
     5
170
     0
171
     0
290
     0
174
     0
 93
        1
 44
0.0
173
     0
291
     0
 45
0.0
1001
ACAD
1000
AcDbSavedByObjectVersion
1070
     0
  0
VISUALSTYLE
  5
31
102
{ACAD_REACTORS
330
2A
102
}
330
2A
100
AcDbVisualStyle
  2
3D Hidden
 70
     6
 71
     1
 72
     2
 73
     2
 90
        0
 40
-0.6
 41
-30.0
 62
     5
 63
     7
 74
     2
 91
        2
 64
     7
 65
   257
 75
     2
175
     1
 42
40.0
 92
        0
 66
   257
 43
1.0
 76
     1
 77
     6
 78
     2
 67
     7
 79
     3
170
     0
171
     0
290
     0
174
     0
 93
        1
 44
0.0
173
     0
291
     0
 45
0.0
1001
ACAD
1000
AcDbSavedByObjectVersion
1070
     0
  0
VISUALSTYLE
  5
30
102
{ACAD_REACTORS
330
2A
102
}
330
2A
100
AcDbVisualStyle
  2
3dWireframe
 70
     5
 71
     0
 72
     2
 73
     0
 90
        0
 40
-0.6
 41
-30.0
 62
     5
 63
     7
 74
     1
 91
        4
 64
     7
 65
   257
 75
     1
175
     1
 42
1.0
 92
        0
 66
   257
 43
1.0
 76
     1
 77
     6
 78
     2
 67
     7
 79
     5
170
     0
171
     0
290
     0
174
     0
 93
        1
 44
0.0
173
     0
291
     0
 45
0.0
1001
ACAD
1000
AcDbSavedByObjectVersion
1070
     0
  0
VISUALSTYLE
  5
32
102
{ACAD_REACTORS
330
2A
102
}
330
2A
100
AcDbVisualStyle
  2
Basic
 70
     7
 71
     1
 72
     0
 73
     1
 90
        0
 40
-0.6
 41
-30.0
 62
     5
 63
     7
 74
     0
 91
        4
 64
     7
 65
   257
 75
     1
175
     1
 42
1.0
 92
        8
 66
     7
 43
1.0
 76
     1
 77
     6
 78
     2
 67
     7
 79
     5
170
     0
171
     0
290
     0
174
     0
 93
        1
 44
0.0
173
     0
291
     1
 45
0.0
1001
ACAD
1000
AcDbSavedByObjectVersion
1070
     0
  0
VISUALSTYLE
  5
36
102
{ACAD_REACTORS
330
2A
102
}
330
2A
100
AcDbVisualStyle
  2
Brighten
 70
    12
 71
     2
 72
     2
 73
     0
 90
        0
 40
-0.6
 41
-30.0
 62
     5
 63
     7
 74
     1
 91
        4
 64
     7
 65
   257
 75
     1
175
     1
 42
1.0
 92
        8
 66
     7
 43
1.0
 76
     1
 77
     6
 78
     2
 67
     7
 79
     5
170
     0
171
     0
290
     0
174
     0
 93
        1
 44
50.0
173
     0
291
     1
 45
0.0
1001
ACAD
1000
AcDbSavedByObjectVersion
1070
     0
  0
VISUALSTYLE
  5
3A
102
{ACAD_REACTORS
330
2A
102
}
330
2A
100
AcDbVisualStyle
  2
ColorChange
 70
    16
 71
     2
 72
     2
 73
     3
 90
        0
 40
-0.6
 41
-30.0
 62
     5
 63
     8
 74
     1
 91
        4
 64
     7
 65
   257
 75
     1
175
     1
 42
1.0
 92
        8
 66
     8
 43
1.0
 76
     1
 77
     6
 78
     2
 67
     7
 79
     5
170
     0
171
     0
290
     0
174
     0
 93
        1
 44
0.0
173
     0
291
     1
 45
0.0
1001
ACAD
1000
AcDbSavedByObjectVersion
1070
     0
  0
VISUALSTYLE
  5
34
102
{ACAD_REACTORS
330
2A
102
}
330
2A
100
AcDbVisualStyle
  2
Conceptual
 70
     9
 71
     3
 72
     2
 73
     0
 90
        0
 40
-0.6
 41
-30.0
 62
     5
 63
     7
 74
     2
 91
        2
 64
     7
 65
   257
 75
     1
175
     1
 42
40.0
 92
        8
 66
     7
 43
1.0
 76
     1
 77
     6
 78
     2
 67
     7
 79
     3
170
     0
171
     0
290
     0
174
     0
 93
        1
 44
0.0
173
     0
291
     0
 45
0.0
1001
ACAD
1000
AcDbSavedByObjectVersion
1070
     0
  0
VISUALSTYLE
  5
35
102
{ACAD_REACTORS
330
2A
102
}
330
2A
100
AcDbVisualStyle
  2
Dim
 70
    11
 71
     2
 72
     2
 73
     0
 90
        0
 40
-0.6
 41
-30.0
 62
     5
 63
     7
 74
     1
 91
        4
 64
     7
 65
   257
 75
     1
175
     1
 42
1.0
 92
        8
 66
     7
 43
1.0
 76
     1
 77
     6
 78
     2
 67
     7
 79
     5
170
     0
171
     0
290
     0
174
     0
 93
        1
 44
-50.0
173
     0
291
     1
 45
0.0
1001
ACAD
1000
AcDbSavedByObjectVersion
1070
     0
  0
VISUALSTYLE
  5
39
102
{ACAD_REACTORS
330
2A
102
}
330
2A
100
AcDbVisualStyle
  2
Facepattern
 70
    15
 71
     2
 72
     2
 73
     0
 90
        0
 40
-0.6
 41
-30.0
 62
     5
 63
     7
 74
     1
 91
        4
 64
     7
 65
   257
 75
     1
175
     1
 42
1.0
 92
        8
 66
     7
 43
1.0
 76
     1
 77
     6
 78
     2
 67
     7
 79
     5
170
     0
171
     0
290
     0
174
     0
 93
        1
 44
0.0
173
     0
291
     1
 45
0.0
1001
ACAD
1000
AcDbSavedByObjectVersion
1070
     0
  0
VISUALSTYLE
  5
2B
102
{ACAD_REACTORS
330
2A
102
}
330
2A
100
AcDbVisualStyle
  2
Flat
 70
     0
 71
     2
 72
     1
 73
     1
 90
        2
 40
-0.6
 41
30.0
 62
     5
 63
     7
 74
     0
 91
        4
 64
     7
 65
   257
 75
     1
175
     1
 42
1.0
 92
        8
 66
     7
 43
1.0
 76
     1
 77
     6
 78
     2
 67
     7
 79
     5
170
     0
171
     0
290
     0
174
     0
 93
       13
 44
0.0
173
     0
291
     1
 45
0.0
1001
ACAD
1000
AcDbSavedByObjectVersion
1070
     0
  0
VISUALSTYLE
  5
2C
102
{ACAD_REACTORS
330
2A
102
}
330
2A
100
AcDbVisualStyle
  2
FlatWithEdges
 70
     1
 71
     2
 72
     1
 73
     1
 90
        2
 40
-0.6
 41
30.0
 62
     5
 63
     7
 74
     1
 91
        4
 64
     7
 65
   257
 75
     1
175
     1
 42
1.0
 92
        0
 66
   257
 43
1.0
 76
     1
 77
     6
 78
     2
 67
     7
 79
     5
170
     0
171
     0
290
     0
174
     0
 93
       13
 44
0.0
173
     0
291
     1
 45
0.0
1001
ACAD
1000
AcDbSavedByObjectVersion
1070
     0
  0
VISUALSTYLE
  5
2D
102
{ACAD_REACTORS
330
2A
102
}
330
2A
100
AcDbVisualStyle
  2
Gouraud
 70
     2
 71
     2
 72
     2
 73
     1
 90
        2
 40
-0.6
 41
30.0
 62
     5
 63
     7
 74
     0
 91
        4
 64
     7
 65
   257
 75
     1
175
     1
 42
1.0
 92
        0
 66
     7
 43
1.0
 76
     1
 77
     6
 78
     2
 67
     7
 79
     5
170
     0
171
     0
290
     0
174
     0
 93
       13
 44
0.0
173
     0
291
     1
 45
0.0
1001
ACAD
1000
AcDbSavedByObjectVersion
1070
     0
  0
VISUALSTYLE
  5
2E
102
{ACAD_REACTORS
330
2A
102
}
330
2A
100
AcDbVisualStyle
  2
GouraudWithEdges
 70
     3
 71
     2
 72
     2
 73
     1
 90
        2
 40
-0.6
 41
30.0
 62
     5
 63
     7
 74
     1
 91
        4
 64
     7
 65
   257
 75
     1
175
     1
 42
1.0
 92
        0
 66
   257
 43
1.0
 76
     1
 77
     6
 78
     2
 67
     7
 79
     5
170
     0
171
     0
290
     0
174
     0
 93
       13
 44
0.0
173
     0
291
     1
 45
0.0
1001
ACAD
1000
AcDbSavedByObjectVersion
1070
     0
  0
VISUALSTYLE
  5
38
102
{ACAD_REACTORS
330
2A
102
}
330
2A
100
AcDbVisualStyle
  2
Linepattern
 70
    14
 71
     2
 72
     2
 73
     0
 90
        0
 40
-0.6
 41
-30.0
 62
     5
 63
     7
 74
     1
 91
        4
 64
     7
 65
   257
 75
     7
175
     7
 42
1.0
 92
        8
 66
     7
 43
1.0
 76
     1
 77
     6
 78
     2
 67
     7
 79
     5
170
     0
171
     0
290
     0
174
     0
 93
        1
 44
0.0
173
     0
291
     1
 45
0.0
1001
ACAD
1000
AcDbSavedByObjectVersion
1070
     0
  0
VISUALSTYLE
  5
33
102
{ACAD_REACTORS
330
2A
102
}
330
2A
100
AcDbVisualStyle
  2
Realistic
 70
     8
 71
     2
 72
     2
 73
     0
 90
        0
 40
-0.6
 41
-30.0
 62
     5
 63
     7
 74
     1
 91
        0
 64
     7
 65
   257
 75
     1
175
     1
 42
1.0
 92
        8
 66
     8
 43
1.0
 76
     1
 77
     6
 78
     2
 67
     7
 79
     5
170
     0
171
     0
290
     0
174
     0
 93
       13
 44
0.0
173
     0
291
     0
 45
0.0
1001
ACAD
1000
AcDbSavedByObjectVersion
1070
     0
  0
VISUALSTYLE
  5
37
102
{ACAD_REACTORS
330
2A
102
}
330
2A
100
AcDbVisualStyle
  2
Thicken
 70
    13
 71
     2
 72
     2
 73
     0
 90
        0
 40
-0.6
 41
-30.0
 62
     5
 63
     7
 74
     1
 91
        4
 64
     7
 65
   257
 75
     1
175
     1
 42
1.0
 92
       12
 66
     7
 43
1.0
 76
     1
 77
     6
 78
     2
 67
     7
 79
     5
170
     0
171
     0
290
     0
174
     0
 93
        1
 44
0.0
173
     0
291
     1
 45
0.0
1001
ACAD
1000
AcDbSavedByObjectVersion
1070
     0
  0
DICTIONARYVAR
  5
1BB
102
{ACAD_REACTORS
330
1B9
102
}
330
1B9
100
DictionaryVariables
280
     0
  1
80.000000
  0
DICTIONARYVAR
  5
1BA
102
{ACAD_REACTORS
330
1B9
102
}
330
1B9
100
DictionaryVariables
280
     0
  1
5.000000
  0
ENDSEC
  0
EOF
