  0
SECTION
  2
HEADER
  9
$ACADVER
  1
AC1015
  9
$ACADMAINTVER
 70
     6
  9
$DWGCODEPAGE
  3
ANSI_1252
  9
$INSBASE
 10
0.0
 20
0.0
 30
0.0
  9
$EXTMIN
 10
0.0
 20
0.0
 30
0.0
  9
$EXTMAX
 10
297.0
 20
210.0
 30
0.0
  9
$LIMMIN
 10
0.0
 20
0.0
  9
$LIMMAX
 10
297.0
 20
210.0
  9
$ORTHOMODE
 70
     0
  9
$REGENMODE
 70
     1
  9
$FILLMODE
 70
     1
  9
$QTEXTMODE
 70
     0
  9
$MIRRTEXT
 70
     1
  9
$LTSCALE
 40
1.0
  9
$ATTMODE
 70
     1
  9
$TEXTSIZE
 40
2.0
  9
$TRACEWID
 40
1.0
  9
$TEXTSTYLE
  7
Standard
  9
$CLAYER
  8
0
  9
$CELTYPE
  6
ByLayer
  9
$CECOLOR
 62
   256
  9
$CELTSCALE
 40
1.0
  9
$DISPSILH
 70
     0
  9
$DIMSCALE
 40
1.0
  9
$DIMASZ
 40
3.0
  9
$DIMEXO
 40
0.0
  9
$DIMDLI
 40
3.75
  9
$DIMRND
 40
0.0
  9
$DIMDLE
 40
0.0
  9
$DIMEXE
 40
1.0
  9
$DIMTP
 40
0.0
  9
$DIMTM
 40
0.0
  9
$DIMTXT
 40
2.0
  9
$DIMCEN
 40
2.5
  9
$DIMTSZ
 40
0.0
  9
$DIMTOL
 70
     0
  9
$DIMLIM
 70
     0
  9
$DIMTIH
 70
     1
  9
$DIMTOH
 70
     1
  9
$DIMSE1
 70
     0
  9
$DIMSE2
 70
     0
  9
$DIMTAD
 70
     1
  9
$DIMZIN
 70
     0
  9
$DIMBLK
  1

  9
$DIMASO
 70
     1
  9
$DIMSHO
 70
     1
  9
$DIMPOST
  1

  9
$DIMAPOST
  1

  9
$DIMALT
 70
     0
  9
$DIMALTD
 70
     3
  9
$DIMALTF
 40
0.0393700787
  9
$DIMLFAC
 40
1.0
  9
$DIMTOFL
 70
     1
  9
$DIMTVP
 40
0.0
  9
$DIMTIX
 70
     0
  9
$DIMSOXD
 70
     0
  9
$DIMSAH
 70
     0
  9
$DIMBLK1
  1

  9
$DIMBLK2
  1

  9
$DIMSTYLE
  2
ISO-25
  9
$DIMCLRD
 70
     0
  9
$DIMCLRE
 70
     0
  9
$DIMCLRT
 70
     0
  9
$DIMTFAC
 40
1.0
  9
$DIMGAP
 40
1.524
  9
$DIMJUST
 70
     0
  9
$DIMSD1
 70
     0
  9
$DIMSD2
 70
     0
  9
$DIMTOLJ
 70
     0
  9
$DIMTZIN
 70
     0
  9
$DIMALTZ
 70
     0
  9
$DIMALTTZ
 70
     0
  9
$DIMUPT
 70
     0
  9
$DIMDEC
 70
     2
  9
$DIMTDEC
 70
     3
  9
$DIMALTU
 70
     2
  9
$DIMALTTD
 70
     3
  9
$DIMTXSTY
  7
Standard
  9
$DIMAUNIT
 70
     0
  9
$DIMADEC
 70
     2
  9
$DIMALTRND
 40
0.0
  9
$DIMAZIN
 70
     0
  9
$DIMDSEP
 70
    44
  9
$DIMATFIT
 70
     3
  9
$DIMFRAC
 70
     0
  9
$DIMLDRBLK
  1

  9
$DIMLUNIT
 70
     2
  9
$DIMLWD
 70
    -2
  9
$DIMLWE
 70
    -2
  9
$DIMTMOVE
 70
     0
  9
$LUNITS
 70
     2
  9
$LUPREC
 70
     2
  9
$SKETCHINC
 40
1.0
  9
$FILLETRAD
 40
10.0
  9
$AUNITS
 70
     0
  9
$AUPREC
 70
     2
  9
$MENU
  1
.
  9
$ELEVATION
 40
0.0
  9
$PELEVATION
 40
0.0
  9
$THICKNESS
 40
0.0
  9
$LIMCHECK
 70
     0
  9
$CHAMFERA
 40
10.0
  9
$CHAMFERB
 40
10.0
  9
$CHAMFERC
 40
20.0
  9
$CHAMFERD
 40
0.0
  9
$SKPOLY
 70
     0
  9
$TDCREATE
 40
2455679.494788264
  9
$TDUCREATE
 40
2455679.41145493
  9
$TDUPDATE
 40
2455679.494788276
  9
$TDUUPDATE
 40
2455679.411454942
  9
$TDINDWG
 40
0.0000000116
  9
$TDUSRTIMER
 40
0.0000000116
  9
$USRTIMER
 70
     1
  9
$ANGBASE
 50
0.0
  9
$ANGDIR
 70
     0
  9
$PDMODE
 70
     0
  9
$PDSIZE
 40
-1.0
  9
$PLINEWID
 40
0.0
  9
$SPLFRAME
 70
     0
  9
$SPLINETYPE
 70
     6
  9
$SPLINESEGS
 70
     8
  9
$HANDSEED
  5
23D
  9
$SURFTAB1
 70
     6
  9
$SURFTAB2
 70
     6
  9
$SURFTYPE
 70
     6
  9
$SURFU
 70
     6
  9
$SURFV
 70
     6
  9
$UCSBASE
  2

  9
$UCSNAME
  2

  9
$UCSORG
 10
0.0
 20
0.0
 30
0.0
  9
$UCSXDIR
 10
1.0
 20
0.0
 30
0.0
  9
$UCSYDIR
 10
0.0
 20
1.0
 30
0.0
  9
$UCSORTHOREF
  2

  9
$UCSORTHOVIEW
 70
     0
  9
$UCSORGTOP
 10
0.0
 20
0.0
 30
0.0
  9
$UCSORGBOTTOM
 10
0.0
 20
0.0
 30
0.0
  9
$UCSORGLEFT
 10
0.0
 20
0.0
 30
0.0
  9
$UCSORGRIGHT
 10
0.0
 20
0.0
 30
0.0
  9
$UCSORGFRONT
 10
0.0
 20
0.0
 30
0.0
  9
$UCSORGBACK
 10
0.0
 20
0.0
 30
0.0
  9
$PUCSBASE
  2

  9
$PUCSNAME
  2

  9
$PUCSORG
 10
0.0
 20
0.0
 30
0.0
  9
$PUCSXDIR
 10
1.0
 20
0.0
 30
0.0
  9
$PUCSYDIR
 10
0.0
 20
1.0
 30
0.0
  9
$PUCSORTHOREF
  2

  9
$PUCSORTHOVIEW
 70
     0
  9
$PUCSORGTOP
 10
0.0
 20
0.0
 30
0.0
  9
$PUCSORGBOTTOM
 10
0.0
 20
0.0
 30
0.0
  9
$PUCSORGLEFT
 10
0.0
 20
0.0
 30
0.0
  9
$PUCSORGRIGHT
 10
0.0
 20
0.0
 30
0.0
  9
$PUCSORGFRONT
 10
0.0
 20
0.0
 30
0.0
  9
$PUCSORGBACK
 10
0.0
 20
0.0
 30
0.0
  9
$USERI1
 70
     0
  9
$USERI2
 70
     0
  9
$USERI3
 70
     0
  9
$USERI4
 70
     0
  9
$USERI5
 70
     0
  9
$USERR1
 40
0.0
  9
$USERR2
 40
0.0
  9
$USERR3
 40
0.0
  9
$USERR4
 40
0.0
  9
$USERR5
 40
0.0
  9
$WORLDVIEW
 70
     1
  9
$SHADEDGE
 70
     3
  9
$SHADEDIF
 70
    70
  9
$TILEMODE
 70
     1
  9
$MAXACTVP
 70
    64
  9
$PINSBASE
 10
0.0
 20
0.0
 30
0.0
  9
$PLIMCHECK
 70
     0
  9
$PEXTMIN
 10
1.0000000000E+20
 20
1.0000000000E+20
 30
1.0000000000E+20
  9
$PEXTMAX
 10
-1.0000000000E+20
 20
-1.0000000000E+20
 30
-1.0000000000E+20
  9
$PLIMMIN
 10
0.0
 20
0.0
  9
$PLIMMAX
 10
420.0
 20
297.0
  9
$UNITMODE
 70
     0
  9
$VISRETAIN
 70
     1
  9
$PLINEGEN
 70
     0
  9
$PSLTSCALE
 70
     1
  9
$TREEDEPTH
 70
  3020
  9
$CMLSTYLE
  2
Standard
  9
$CMLJUST
 70
     0
  9
$CMLSCALE
 40
20.0
  9
$PROXYGRAPHICS
 70
     1
  9
$MEASUREMENT
 70
     1
  9
$CELWEIGHT
370
    -1
  9
$ENDCAPS
280
     0
  9
$JOINSTYLE
280
     0
  9
$LWDISPLAY
290
     1
  9
$INSUNITS
 70
     4
  9
$HYPERLINKBASE
  1

  9
$STYLESHEET
  1

  9
$XEDIT
290
     1
  9
$CEPSNTYPE
380
     0
  9
$PSTYLEMODE
290
     1
  9
$FINGERPRINTGUID
  2
{B25AEC41-2156-4266-BC1B-CD82A1C3FF0A}
  9
$VERSIONGUID
  2
{FAEB1C32-E019-11D5-929B-00C0DF256EC4}
  9
$EXTNAMES
290
     1
  9
$PSVPSCALE
 40
0.0
  9
$OLESTARTUP
290
     0
  0
ENDSEC
  0
SECTION
  2
CLASSES
  0
CLASS
  1
ACDBDICTIONARYWDFLT
  2
AcDbDictionaryWithDefault
  3
ObjectDBX Classes
 90
        0
280
     0
281
     0
  0
CLASS
  1
VISUALSTYLE
  2
AcDbVisualStyle
  3
ObjectDBX Classes
 90
     4095
280
     0
281
     0
  0
CLASS
  1
DICTIONARYVAR
  2
AcDbDictionaryVar
  3
ObjectDBX Classes
 90
        0
280
     0
281
     0
  0
CLASS
  1
ACDBPLACEHOLDER
  2
AcDbPlaceHolder
  3
ObjectDBX Classes
 90
        0
280
     0
281
     0
  0
CLASS
  1
LAYOUT
  2
AcDbLayout
  3
ObjectDBX Classes
 90
        0
280
     0
281
     0
  0
ENDSEC
  0
SECTION
  2
TABLES
  0
TABLE
  2
VPORT
  5
8
330
0
100
AcDbSymbolTable
 70
     1
  0
VPORT
  5
29
330
8
100
AcDbSymbolTableRecord
100
AcDbViewportTableRecord
  2
*Active
 70
     0
 10
0.0
 20
0.0
 11
1.0
 21
1.0
 12
148.5
 22
105.0
 13
0.0
 23
0.0
 14
10.0
 24
10.0
 15
10.0
 25
10.0
 16
0.0
 26
0.0
 36
1.0
 17
0.0
 27
0.0
 37
0.0
 40
210.0
 41
1.4142857143
 42
50.0
 43
0.0
 44
0.0
 50
0.0
 51
0.0
 71
     0
 72
  2000
 73
     1
 74
     3
 75
     0
 76
     0
 77
     0
 78
     0
281
     0
 65
     1
110
0.0
120
0.0
130
0.0
111
1.0
121
0.0
131
0.0
112
0.0
122
1.0
132
0.0
 79
     0
146
0.0
  0
ENDTAB
  0
TABLE
  2
LTYPE
  5
5
330
0
100
AcDbSymbolTable
 70
     6
  0
LTYPE
  5
14
330
5
100
AcDbSymbolTableRecord
100
AcDbLinetypeTableRecord
  2
ByBlock
 70
     0
  3

 72
    65
 73
     0
 40
0.0
  0
LTYPE
  5
15
330
5
100
AcDbSymbolTableRecord
100
AcDbLinetypeTableRecord
  2
ByLayer
 70
     0
  3

 72
    65
 73
     0
 40
0.0
  0
LTYPE
  5
16
330
5
100
AcDbSymbolTableRecord
100
AcDbLinetypeTableRecord
  2
Continuous
 70
     0
  3
Solid line
 72
    65
 73
     0
 40
0.0
  0
LTYPE
  5
3B
330
5
100
AcDbSymbolTableRecord
100
AcDbLinetypeTableRecord
  2
HIDDEN
 70
     0
  3
Hidden __ __ __ __ __ __ __ __ __ __ __ __ __ __
 72
    65
 73
     2
 40
1.905
 49
1.27
 74
     0
 49
-0.635
 74
     0
  0
LTYPE
  5
3C
330
5
100
AcDbSymbolTableRecord
100
AcDbLinetypeTableRecord
  2
PHANTOM
 70
     0
  3
Phantom ______  __  __  ______  __  __  ______
 72
    65
 73
     6
 40
12.7
 49
6.35
 74
     0
 49
-1.27
 74
     0
 49
1.27
 74
     0
 49
-1.27
 74
     0
 49
1.27
 74
     0
 49
-1.27
 74
     0
  0
LTYPE
  5
3D
330
5
100
AcDbSymbolTableRecord
100
AcDbLinetypeTableRecord
  2
CENTER
 70
     0
  3
Center ____ _ ____ _ ____ _ ____ _ ____ _ ____
 72
    65
 73
     4
 40
10.16
 49
6.35
 74
     0
 49
-1.27
 74
     0
 49
1.27
 74
     0
 49
-1.27
 74
     0
  0
LTYPE
  5
3E
330
5
100
AcDbSymbolTableRecord
100
AcDbLinetypeTableRecord
  2
CENTERX2
 70
     0
  3
Center (2x) ________  __  ________  __  _____
 72
    65
 73
     4
 40
20.32
 49
12.7
 74
     0
 49
-2.54
 74
     0
 49
2.54
 74
     0
 49
-2.54
 74
     0
  0
LTYPE
  5
3F
330
5
100
AcDbSymbolTableRecord
100
AcDbLinetypeTableRecord
  2
DOT2
 70
     0
  3
Dot (.5x) ........................................
 72
    65
 73
     2
 40
0.635
 49
0.0
 74
     0
 49
-0.635
 74
     0
  0
ENDTAB
  0
TABLE
  2
LAYER
  5
2
330
0
100
AcDbSymbolTable
 70
     5
  0
LAYER
  5
10
330
2
100
AcDbSymbolTableRecord
100
AcDbLayerTableRecord
  2
0
 70
     0
 62
     7
  6
Continuous
370
    -3
390
F
  0
LAYER
  5
40
330
2
100
AcDbSymbolTableRecord
100
AcDbLayerTableRecord
  2
FORMAT
 70
     0
 62
     7
  6
Continuous
370
    -3
390
F
  0
LAYER
  5
41
330
2
100
AcDbSymbolTableRecord
100
AcDbLayerTableRecord
  2
VERMASSUNG
 70
     0
 62
     7
  6
Continuous
370
    -3
390
F
  0
LAYER
  5
42
330
2
100
AcDbSymbolTableRecord
100
AcDbLayerTableRecord
  2
KOPF_DÜNN
 70
     0
 62
     7
  6
Continuous
370
    -3
390
F
  0
LAYER
  5
43
330
2
100
AcDbSymbolTableRecord
100
AcDbLayerTableRecord
  2
KOPF_DICK
 70
     0
 62
     7
  6
Continuous
370
    15
390
F
  0
ENDTAB
  0
TABLE
  2
STYLE
  5
3
330
0
100
AcDbSymbolTable
 70
     3
  0
STYLE
  5
11
330
3
100
AcDbSymbolTableRecord
100
AcDbTextStyleTableRecord
  2
Standard
 70
     0
 40
0.0
 41
1.0
 50
0.0
 71
     0
 42
2.5
  3
txt
  4

  0
STYLE
  5
44
330
3
100
AcDbSymbolTableRecord
100
AcDbTextStyleTableRecord
  2
SLDTEXTSTYLE0
 70
     0
 40
0.0
 41
0.7
 50
0.0
 71
     0
 42
0.2
  3
TXT
  4

  0
STYLE
  5
48
330
3
100
AcDbSymbolTableRecord
100
AcDbTextStyleTableRecord
  2
SLDTEXTSTYLE1
 70
     0
 40
0.0
 41
0.6473684211
 50
0.0
 71
     0
 42
0.2
  3
TXT
  4

  0
ENDTAB
  0
TABLE
  2
VIEW
  5
6
330
0
100
AcDbSymbolTable
 70
     0
  0
ENDTAB
  0
TABLE
  2
UCS
  5
7
330
0
100
AcDbSymbolTable
 70
     0
  0
ENDTAB
  0
TABLE
  2
APPID
  5
9
330
0
100
AcDbSymbolTable
 70
     1
  0
APPID
  5
12
330
9
100
AcDbSymbolTableRecord
100
AcDbRegAppTableRecord
  2
ACAD
 70
     0
  0
ENDTAB
  0
TABLE
  2
DIMSTYLE
  5
A
330
0
100
AcDbSymbolTable
 70
     5
100
AcDbDimStyleTable
  0
DIMSTYLE
105
27
330
A
100
AcDbSymbolTableRecord
100
AcDbDimStyleTableRecord
  2
ISO-25
 70
     0
 41
2.5
 42
0.625
 43
3.75
 44
1.25
 73
     0
 74
     0
 77
     1
 78
     8
140
2.5
141
2.5
143
0.0393700787
147
0.625
171
     3
172
     1
271
     2
272
     2
274
     3
278
    44
283
     0
284
     8
340
11
  0
DIMSTYLE
105
1DB
102
{ACAD_REACTORS
330
1DA
330
217
330
222
330
22C
102
}
330
A
100
AcDbSymbolTableRecord
100
AcDbDimStyleTableRecord
  2
SLDDIMSTYLE0
 70
     0
 41
3.0
 44
0.0
 45
0.000000001
 73
     0
 74
     0
 77
     1
 78
    12
140
2.0
147
0.5
173
     1
271
     2
272
     3
284
    12
340
44
  0
DIMSTYLE
105
1E8
102
{ACAD_REACTORS
330
1E7
102
}
330
A
100
AcDbSymbolTableRecord
100
AcDbDimStyleTableRecord
  2
SLDDIMSTYLE1
 70
     0
 41
3.0
 44
0.0
 45
0.000000001
 73
     0
 74
     0
 77
     1
 78
    12
140
2.0
147
0.5
173
     1
271
     2
272
     2
284
    12
340
44
  0
DIMSTYLE
105
1F3
102
{ACAD_REACTORS
330
1F2
102
}
330
A
100
AcDbSymbolTableRecord
100
AcDbDimStyleTableRecord
  2
SLDDIMSTYLE2
 70
     0
 41
3.0
 44
0.0
 45
0.000000001
 73
     0
 74
     0
 77
     1
 78
    12
140
2.0
147
0.5
173
     1
271
     2
272
     2
284
    12
340
44
  0
DIMSTYLE
105
1FF
102
{ACAD_REACTORS
330
1FE
330
20B
102
}
330
A
100
AcDbSymbolTableRecord
100
AcDbDimStyleTableRecord
  2
SLDDIMSTYLE3
 70
     0
 41
3.0
 44
0.0
 45
0.000000001
 73
     0
 74
     0
 77
     1
 78
    12
140
2.0
147
0.5
173
     1
271
     2
272
     3
284
    12
340
44
  0
ENDTAB
  0
TABLE
  2
BLOCK_RECORD
  5
1
330
0
100
AcDbSymbolTable
 70
     9
  0
BLOCK_RECORD
  5
1F
330
1
100
AcDbSymbolTableRecord
100
AcDbBlockTableRecord
  2
*Model_Space
340
22
  0
BLOCK_RECORD
  5
1B
330
1
100
AcDbSymbolTableRecord
100
AcDbBlockTableRecord
  2
*Paper_Space
340
1E
  0
BLOCK_RECORD
  5
23
330
1
100
AcDbSymbolTableRecord
100
AcDbBlockTableRecord
  2
*Paper_Space0
340
26
  0
BLOCK_RECORD
  5
1DC
330
1
100
AcDbSymbolTableRecord
100
AcDbBlockTableRecord
  2
*D1
340
0
  0
BLOCK_RECORD
  5
1E9
330
1
100
AcDbSymbolTableRecord
100
AcDbBlockTableRecord
  2
*D2
340
0
  0
BLOCK_RECORD
  5
1F4
330
1
100
AcDbSymbolTableRecord
100
AcDbBlockTableRecord
  2
*D3
340
0
  0
BLOCK_RECORD
  5
200
330
1
100
AcDbSymbolTableRecord
100
AcDbBlockTableRecord
  2
*D4
340
0
  0
BLOCK_RECORD
  5
20C
330
1
100
AcDbSymbolTableRecord
100
AcDbBlockTableRecord
  2
*D5
340
0
  0
BLOCK_RECORD
  5
218
330
1
100
AcDbSymbolTableRecord
100
AcDbBlockTableRecord
  2
*D6
340
0
  0
BLOCK_RECORD
  5
223
330
1
100
AcDbSymbolTableRecord
100
AcDbBlockTableRecord
  2
*D7
340
0
  0
BLOCK_RECORD
  5
22D
330
1
100
AcDbSymbolTableRecord
100
AcDbBlockTableRecord
  2
*D8
340
0
  0
ENDTAB
  0
ENDSEC
  0
SECTION
  2
BLOCKS
  0
BLOCK
  5
20
330
1F
100
AcDbEntity
  8
0
100
AcDbBlockBegin
  2
*Model_Space
 70
     0
 10
0.0
 20
0.0
 30
0.0
  3
*Model_Space
  1

  0
ENDBLK
  5
21
330
1F
100
AcDbEntity
  8
0
100
AcDbBlockEnd
  0
BLOCK
  5
1C
330
1B
100
AcDbEntity
 67
     1
  8
0
100
AcDbBlockBegin
  2
*Paper_Space
 70
     0
 10
0.0
 20
0.0
 30
0.0
  3
*Paper_Space
  1

  0
ENDBLK
  5
1D
330
1B
100
AcDbEntity
 67
     1
  8
0
100
AcDbBlockEnd
  0
BLOCK
  5
24
330
23
100
AcDbEntity
  8
0
100
AcDbBlockBegin
  2
*Paper_Space0
 70
     0
 10
0.0
 20
0.0
 30
0.0
  3
*Paper_Space0
  1

  0
ENDBLK
  5
25
330
23
100
AcDbEntity
  8
0
100
AcDbBlockEnd
  0
BLOCK
  5
1DD
330
1DC
100
AcDbEntity
  8
0
100
AcDbBlockBegin
  2
*D1
 70
     1
 10
0.0
 20
0.0
 30
0.0
  3
*D1
  1

  0
SOLID
  5
1DF
330
1DC
100
AcDbEntity
  8
VERMASSUNG
100
AcDbTrace
 10
81.4319609967
 20
138.7046587216
 30
0.0
 11
80.9819609967
 21
135.7046587216
 31
0.0
 12
81.8819609967
 22
135.7046587216
 32
0.0
 13
81.8819609967
 23
135.7046587216
 33
0.0
  0
SOLID
  5
1E0
330
1DC
100
AcDbEntity
  8
VERMASSUNG
100
AcDbTrace
 10
81.4319609967
 20
75.7046587216
 30
0.0
 11
81.8819609967
 21
78.7046587216
 31
0.0
 12
80.9819609967
 22
78.7046587216
 32
0.0
 13
80.9819609967
 23
78.7046587216
 33
0.0
  0
LINE
  5
1E1
330
1DC
100
AcDbEntity
  8
VERMASSUNG
100
AcDbLine
 10
118.501834905
 20
138.7046587216
 30
0.0
 11
80.4319609967
 21
138.7046587216
 31
0.0
  0
LINE
  5
1E2
330
1DC
100
AcDbEntity
  8
VERMASSUNG
100
AcDbLine
 10
118.501834905
 20
75.7046587216
 30
0.0
 11
80.4319609967
 21
75.7046587216
 31
0.0
  0
LINE
  5
1E3
330
1DC
100
AcDbEntity
  8
VERMASSUNG
100
AcDbLine
 10
81.4319609967
 20
138.7046587216
 30
0.0
 11
81.4319609967
 21
75.7046587216
 31
0.0
  0
MTEXT
  5
1E4
330
1DC
100
AcDbEntity
  8
VERMASSUNG
100
AcDbMText
 10
78.6538255077
 20
99.5011170098
 30
0.0
 40
2.0
 41
0.0
 71
     1
 72
     1
  1
HSK A 
  7
SLDTEXTSTYLE0
 11
-7.044195017643634E-15
 21
1.0
 31
0.0
 73
     1
 44
1.0
  0
MTEXT
  5
1E5
330
1DC
100
AcDbEntity
  8
VERMASSUNG
100
AcDbMText
 10
78.8538255172
 20
108.5011175536
 30
0.0
 40
2.0
 41
0.0
 71
     1
 72
     1
  1
%%c
  7
SLDTEXTSTYLE0
 11
-7.044195017643634E-15
 21
1.0
 31
0.0
 73
     1
 44
1.0
  0
MTEXT
  5
1E6
330
1DC
100
AcDbEntity
  8
VERMASSUNG
100
AcDbMText
 10
78.8538256336
 20
112.1094442037
 30
0.0
 40
2.0
 41
0.0
 71
     1
 72
     1
  1
63
  7
SLDTEXTSTYLE0
 11
-7.044195017643634E-15
 21
1.0
 31
0.0
 73
     1
 44
1.0
  0
ENDBLK
  5
1DE
330
1DC
100
AcDbEntity
  8
0
100
AcDbBlockEnd
  0
BLOCK
  5
1EA
330
1E9
100
AcDbEntity
  8
0
100
AcDbBlockBegin
  2
*D2
 70
     1
 10
0.0
 20
0.0
 30
0.0
  3
*D2
  1

  0
SOLID
  5
1EC
330
1E9
100
AcDbEntity
  8
VERMASSUNG
100
AcDbTrace
 10
161.701834905
 20
139.5637053088
 30
0.0
 11
164.701834905
 21
139.1137053088
 31
0.0
 12
164.701834905
 22
140.0137053088
 32
0.0
 13
164.701834905
 23
140.0137053088
 33
0.0
  0
SOLID
  5
1ED
330
1E9
100
AcDbEntity
  8
VERMASSUNG
100
AcDbTrace
 10
198.201834905
 20
139.5637053088
 30
0.0
 11
195.201834905
 21
140.0137053088
 31
0.0
 12
195.201834905
 22
139.1137053088
 32
0.0
 13
195.201834905
 23
139.1137053088
 33
0.0
  0
LINE
  5
1EE
330
1E9
100
AcDbEntity
  8
VERMASSUNG
100
AcDbLine
 10
161.701834905
 20
111.1046587216
 30
0.0
 11
161.701834905
 21
140.5637053088
 31
0.0
  0
LINE
  5
1EF
330
1E9
100
AcDbEntity
  8
VERMASSUNG
100
AcDbLine
 10
198.201834905
 20
115.8558777382
 30
0.0
 11
198.201834905
 21
140.5637053088
 31
0.0
  0
LINE
  5
1F0
330
1E9
100
AcDbEntity
  8
VERMASSUNG
100
AcDbLine
 10
161.701834905
 20
139.5637053088
 30
0.0
 11
198.201834905
 21
139.5637053088
 31
0.0
  0
MTEXT
  5
1F1
330
1E9
100
AcDbEntity
  8
VERMASSUNG
100
AcDbMText
 10
177.5522379386
 20
142.1418406719
 30
0.0
 40
2.0
 41
0.0
 71
     1
 72
     1
  1
36.5
  7
SLDTEXTSTYLE0
 73
     1
 44
1.0
  0
ENDBLK
  5
1EB
330
1E9
100
AcDbEntity
  8
0
100
AcDbBlockEnd
  0
BLOCK
  5
1F5
330
1F4
100
AcDbEntity
  8
0
100
AcDbBlockBegin
  2
*D3
 70
     1
 10
0.0
 20
0.0
 30
0.0
  3
*D3
  1

  0
SOLID
  5
1F7
330
1F4
100
AcDbEntity
  8
VERMASSUNG
100
AcDbTrace
 10
208.3117246253
 20
103.2046587216
 30
0.0
 11
208.7617246253
 21
106.2046587216
 31
0.0
 12
207.8617246253
 22
106.2046587216
 32
0.0
 13
207.8617246253
 23
106.2046587216
 33
0.0
  0
SOLID
  5
1F8
330
1F4
100
AcDbEntity
  8
VERMASSUNG
100
AcDbTrace
 10
208.3117246253
 20
111.2046587216
 30
0.0
 11
207.8617246253
 21
108.2046587216
 31
0.0
 12
208.7617246253
 22
108.2046587216
 32
0.0
 13
208.7617246253
 23
108.2046587216
 33
0.0
  0
LINE
  5
1F9
330
1F4
100
AcDbEntity
  8
VERMASSUNG
100
AcDbLine
 10
194.701834905
 20
103.2046587216
 30
0.0
 11
209.3117246253
 21
103.2046587216
 31
0.0
  0
LINE
  5
1FA
330
1F4
100
AcDbEntity
  8
VERMASSUNG
100
AcDbLine
 10
194.701834905
 20
111.2046587216
 30
0.0
 11
209.3117246253
 21
111.2046587216
 31
0.0
  0
LINE
  5
1FB
330
1F4
100
AcDbEntity
  8
VERMASSUNG
100
AcDbLine
 10
208.3117246253
 20
103.2046587216
 30
0.0
 11
208.3117246253
 21
111.2046587216
 31
0.0
  0
MTEXT
  5
1FC
330
1F4
100
AcDbEntity
  8
VERMASSUNG
100
AcDbMText
 10
205.7335891458
 20
104.7006305525
 30
0.0
 40
2.0
 41
0.0
 71
     1
 72
     1
  1
%%c
  7
SLDTEXTSTYLE0
 11
6.123233995736766E-17
 21
1.0
 31
0.0
 73
     1
 44
1.0
  0
MTEXT
  5
1FD
330
1F4
100
AcDbEntity
  8
VERMASSUNG
100
AcDbMText
 10
205.7335892622
 20
108.3093087757
 30
0.0
 40
2.0
 41
0.0
 71
     1
 72
     1
  1
8
  7
SLDTEXTSTYLE0
 11
6.123233995736766E-17
 21
1.0
 31
0.0
 73
     1
 44
1.0
  0
ENDBLK
  5
1F6
330
1F4
100
AcDbEntity
  8
0
100
AcDbBlockEnd
  0
BLOCK
  5
201
330
200
100
AcDbEntity
  8
0
100
AcDbBlockBegin
  2
*D4
 70
     1
 10
0.0
 20
0.0
 30
0.0
  3
*D4
  1

  0
SOLID
  5
203
330
200
100
AcDbEntity
  8
VERMASSUNG
100
AcDbTrace
 10
214.3117246253
 20
96.7046587216
 30
0.0
 11
214.7617246253
 21
99.7046587216
 31
0.0
 12
213.8617246253
 22
99.7046587216
 32
0.0
 13
213.8617246253
 23
99.7046587216
 33
0.0
  0
SOLID
  5
204
330
200
100
AcDbEntity
  8
VERMASSUNG
100
AcDbTrace
 10
214.3117246253
 20
117.7046587216
 30
0.0
 11
213.8617246253
 21
114.7046587216
 31
0.0
 12
214.7617246253
 22
114.7046587216
 32
0.0
 13
214.7617246253
 23
114.7046587216
 33
0.0
  0
LINE
  5
205
330
200
100
AcDbEntity
  8
VERMASSUNG
100
AcDbLine
 10
198.201834905
 20
96.7046587216
 30
0.0
 11
215.3117246253
 21
96.7046587216
 31
0.0
  0
LINE
  5
206
330
200
100
AcDbEntity
  8
VERMASSUNG
100
AcDbLine
 10
198.201834905
 20
117.7046587216
 30
0.0
 11
215.3117246253
 21
117.7046587216
 31
0.0
  0
LINE
  5
207
330
200
100
AcDbEntity
  8
VERMASSUNG
100
AcDbLine
 10
214.3117246253
 20
96.7046587216
 30
0.0
 11
214.3117246253
 21
117.7046587216
 31
0.0
  0
MTEXT
  5
208
330
200
100
AcDbEntity
  8
VERMASSUNG
100
AcDbMText
 10
211.7335891458
 20
103.6006218852
 30
0.0
 40
2.0
 41
0.0
 71
     1
 72
     1
  1
%%c
  7
SLDTEXTSTYLE0
 11
6.123233995736766E-17
 21
1.0
 31
0.0
 73
     1
 44
1.0
  0
MTEXT
  5
209
330
200
100
AcDbEntity
  8
VERMASSUNG
100
AcDbMText
 10
211.7335892622
 20
107.2093001083
 30
0.0
 40
2.0
 41
0.0
 71
     1
 72
     1
  1
21
  7
SLDTEXTSTYLE0
 11
6.123233995736766E-17
 21
1.0
 31
0.0
 73
     1
 44
1.0
  0
MTEXT
  5
20A
330
200
100
AcDbEntity
  8
VERMASSUNG
100
AcDbMText
 10
211.7335892622
 20
109.6088970748
 30
0.0
 40
2.0
 41
0.0
 71
     1
 72
     1
  1
 
  7
SLDTEXTSTYLE0
 11
6.123233995736766E-17
 21
1.0
 31
0.0
 73
     1
 44
1.0
  0
ENDBLK
  5
202
330
200
100
AcDbEntity
  8
0
100
AcDbBlockEnd
  0
BLOCK
  5
20D
330
20C
100
AcDbEntity
  8
0
100
AcDbBlockBegin
  2
*D5
 70
     1
 10
0.0
 20
0.0
 30
0.0
  3
*D5
  1

  0
SOLID
  5
20F
330
20C
100
AcDbEntity
  8
VERMASSUNG
100
AcDbTrace
 10
220.3117246253
 20
94.2046587216
 30
0.0
 11
220.7617246253
 21
97.2046587216
 31
0.0
 12
219.8617246253
 22
97.2046587216
 32
0.0
 13
219.8617246253
 23
97.2046587216
 33
0.0
  0
SOLID
  5
210
330
20C
100
AcDbEntity
  8
VERMASSUNG
100
AcDbTrace
 10
220.3117246253
 20
120.2046587216
 30
0.0
 11
219.8617246253
 21
117.2046587216
 31
0.0
 12
220.7617246253
 22
117.2046587216
 32
0.0
 13
220.7617246253
 23
117.2046587216
 33
0.0
  0
LINE
  5
211
330
20C
100
AcDbEntity
  8
VERMASSUNG
100
AcDbLine
 10
165.201834905
 20
94.2046587216
 30
0.0
 11
221.3117246253
 21
94.2046587216
 31
0.0
  0
LINE
  5
212
330
20C
100
AcDbEntity
  8
VERMASSUNG
100
AcDbLine
 10
165.201834905
 20
120.2046587216
 30
0.0
 11
221.3117246253
 21
120.2046587216
 31
0.0
  0
LINE
  5
213
330
20C
100
AcDbEntity
  8
VERMASSUNG
100
AcDbLine
 10
220.3117246253
 20
94.2046587216
 30
0.0
 11
220.3117246253
 21
120.2046587216
 31
0.0
  0
MTEXT
  5
214
330
20C
100
AcDbEntity
  8
VERMASSUNG
100
AcDbMText
 10
217.7335891458
 20
103.4010422535
 30
0.0
 40
2.0
 41
0.0
 71
     1
 72
     1
  1
%%c
  7
SLDTEXTSTYLE0
 11
6.123233995736766E-17
 21
1.0
 31
0.0
 73
     1
 44
1.0
  0
MTEXT
  5
215
330
20C
100
AcDbEntity
  8
VERMASSUNG
100
AcDbMText
 10
217.7335892622
 20
107.0097204767
 30
0.0
 40
2.0
 41
0.0
 71
     1
 72
     1
  1
26
  7
SLDTEXTSTYLE0
 11
6.123233995736766E-17
 21
1.0
 31
0.0
 73
     1
 44
1.0
  0
MTEXT
  5
216
330
20C
100
AcDbEntity
  8
VERMASSUNG
100
AcDbMText
 10
217.7335892622
 20
109.8084767064
 30
0.0
 40
2.0
 41
0.0
 71
     1
 72
     1
  1
 
  7
SLDTEXTSTYLE0
 11
6.123233995736766E-17
 21
1.0
 31
0.0
 73
     1
 44
1.0
  0
ENDBLK
  5
20E
330
20C
100
AcDbEntity
  8
0
100
AcDbBlockEnd
  0
BLOCK
  5
219
330
218
100
AcDbEntity
  8
0
100
AcDbBlockBegin
  2
*D6
 70
     1
 10
0.0
 20
0.0
 30
0.0
  3
*D6
  1

  0
SOLID
  5
21B
330
218
100
AcDbEntity
  8
VERMASSUNG
100
AcDbTrace
 10
118.201834905
 20
151.5637053088
 30
0.0
 11
121.201834905
 21
151.1137053088
 31
0.0
 12
121.201834905
 22
152.0137053088
 32
0.0
 13
121.201834905
 23
152.0137053088
 33
0.0
  0
SOLID
  5
21C
330
218
100
AcDbEntity
  8
VERMASSUNG
100
AcDbTrace
 10
198.201834905
 20
151.5637053088
 30
0.0
 11
195.201834905
 21
152.0137053088
 31
0.0
 12
195.201834905
 22
151.1137053088
 32
0.0
 13
195.201834905
 23
151.1137053088
 33
0.0
  0
LINE
  5
21D
330
218
100
AcDbEntity
  8
VERMASSUNG
100
AcDbLine
 10
118.201834905
 20
132.5285898675
 30
0.0
 11
118.201834905
 21
152.5637053088
 31
0.0
  0
LINE
  5
21E
330
218
100
AcDbEntity
  8
VERMASSUNG
100
AcDbLine
 10
198.201834905
 20
115.8558777382
 30
0.0
 11
198.201834905
 21
152.5637053088
 31
0.0
  0
LINE
  5
21F
330
218
100
AcDbEntity
  8
VERMASSUNG
100
AcDbLine
 10
118.201834905
 20
151.5637053088
 30
0.0
 11
198.201834905
 21
151.5637053088
 31
0.0
  0
MTEXT
  5
220
330
218
100
AcDbEntity
  8
VERMASSUNG
100
AcDbMText
 10
156.2025575485
 20
154.1418406719
 30
0.0
 40
2.0
 41
0.0
 71
     1
 72
     1
  1
80
  7
SLDTEXTSTYLE0
 73
     1
 44
1.0
  0
MTEXT
  5
221
330
218
100
AcDbEntity
  8
VERMASSUNG
100
AcDbMText
 10
159.0013137782
 20
154.1418406719
 30
0.0
 40
2.0
 41
0.0
 71
     1
 72
     1
  1
 
  7
SLDTEXTSTYLE0
 73
     1
 44
1.0
  0
ENDBLK
  5
21A
330
218
100
AcDbEntity
  8
0
100
AcDbBlockEnd
  0
BLOCK
  5
224
330
223
100
AcDbEntity
  8
0
100
AcDbBlockBegin
  2
*D7
 70
     1
 10
0.0
 20
0.0
 30
0.0
  3
*D7
  1

  0
SOLID
  5
226
330
223
100
AcDbEntity
  8
VERMASSUNG
100
AcDbTrace
 10
144.151834905
 20
145.5637053088
 30
0.0
 11
147.151834905
 21
145.1137053088
 31
0.0
 12
147.151834905
 22
146.0137053088
 32
0.0
 13
147.151834905
 23
146.0137053088
 33
0.0
  0
SOLID
  5
227
330
223
100
AcDbEntity
  8
VERMASSUNG
100
AcDbTrace
 10
198.201834905
 20
145.5637053088
 30
0.0
 11
195.201834905
 21
146.0137053088
 31
0.0
 12
195.201834905
 22
145.1137053088
 32
0.0
 13
195.201834905
 23
145.1137053088
 33
0.0
  0
LINE
  5
228
330
223
100
AcDbEntity
  8
VERMASSUNG
100
AcDbLine
 10
144.151834905
 20
137.0510990453
 30
0.0
 11
144.151834905
 21
146.5637053088
 31
0.0
  0
LINE
  5
229
330
223
100
AcDbEntity
  8
VERMASSUNG
100
AcDbLine
 10
198.201834905
 20
115.8558777382
 30
0.0
 11
198.201834905
 21
146.5637053088
 31
0.0
  0
LINE
  5
22A
330
223
100
AcDbEntity
  8
VERMASSUNG
100
AcDbLine
 10
144.151834905
 20
145.5637053088
 30
0.0
 11
198.201834905
 21
145.5637053088
 31
0.0
  0
MTEXT
  5
22B
330
223
100
AcDbEntity
  8
VERMASSUNG
100
AcDbMText
 10
167.9777590653
 20
148.1418406719
 30
0.0
 40
2.0
 41
0.0
 71
     1
 72
     1
  1
54.05
  7
SLDTEXTSTYLE0
 73
     1
 44
1.0
  0
ENDBLK
  5
225
330
223
100
AcDbEntity
  8
0
100
AcDbBlockEnd
  0
BLOCK
  5
22E
330
22D
100
AcDbEntity
  8
0
100
AcDbBlockBegin
  2
*D8
 70
     1
 10
0.0
 20
0.0
 30
0.0
  3
*D8
  1

  0
SOLID
  5
230
330
22D
100
AcDbEntity
  8
VERMASSUNG
100
AcDbTrace
 10
86.301834905
 20
157.5637053088
 30
0.0
 11
89.301834905
 21
157.1137053088
 31
0.0
 12
89.301834905
 22
158.0137053088
 32
0.0
 13
89.301834905
 23
158.0137053088
 33
0.0
  0
SOLID
  5
231
330
22D
100
AcDbEntity
  8
VERMASSUNG
100
AcDbTrace
 10
198.201834905
 20
157.5637053088
 30
0.0
 11
195.201834905
 21
158.0137053088
 31
0.0
 12
195.201834905
 22
157.1137053088
 32
0.0
 13
195.201834905
 23
157.1137053088
 33
0.0
  0
LINE
  5
232
330
22D
100
AcDbEntity
  8
VERMASSUNG
100
AcDbLine
 10
86.301834905
 20
126.895336468
 30
0.0
 11
86.301834905
 21
158.5637053088
 31
0.0
  0
LINE
  5
233
330
22D
100
AcDbEntity
  8
VERMASSUNG
100
AcDbLine
 10
198.201834905
 20
115.8558777382
 30
0.0
 11
198.201834905
 21
158.5637053088
 31
0.0
  0
LINE
  5
234
330
22D
100
AcDbEntity
  8
VERMASSUNG
100
AcDbLine
 10
86.301834905
 20
157.5637053088
 30
0.0
 11
198.201834905
 21
157.5637053088
 31
0.0
  0
MTEXT
  5
235
330
22D
100
AcDbEntity
  8
VERMASSUNG
100
AcDbMText
 10
139.7524481228
 20
160.1418406719
 30
0.0
 40
2.0
 41
0.0
 71
     1
 72
     1
  1
111.9
  7
SLDTEXTSTYLE0
 73
     1
 44
1.0
  0
ENDBLK
  5
22F
330
22D
100
AcDbEntity
  8
0
100
AcDbBlockEnd
  0
ENDSEC
  0
SECTION
  2
ENTITIES
  0
MTEXT
  5
45
330
1F
100
AcDbEntity
  8
KOPF_DÜNN
100
AcDbMText
 10
13.8892156294
 20
23.8442973028
 30
0.0
 40
3.0
 41
0.0
 71
     1
 72
     1
  1
HA6.S08.K21.080
  7
SLDTEXTSTYLE0
 73
     1
 44
1.0
  0
MTEXT
  5
46
330
1F
100
AcDbEntity
  8
VERMASSUNG
100
AcDbMText
 10
13.9329988022
 20
28.8834360957
 30
0.0
 40
3.0
 41
0.0
 71
     1
 72
     1
  1
Schrumpffutter_Heat shrink chuck
  7
SLDTEXTSTYLE0
 73
     1
 44
1.0
  0
MTEXT
  5
47
330
1F
100
AcDbEntity
  8
VERMASSUNG
100
AcDbMText
 10
98.8601118557
 20
13.8365368179
 30
0.0
 40
2.0
 41
0.0
 71
     1
 72
     1
  1
Datum: 27.04.2011
  7
SLDTEXTSTYLE0
 73
     1
 44
1.0
  0
MTEXT
  5
49
330
1F
100
AcDbEntity
  8
VERMASSUNG
100
AcDbMText
 10
13.933048693
 20
18.0482802738
 30
0.0
 40
2.0
 41
0.0
 71
     1
 72
     1
  1
DIN 69 893 HSK A 63
  7
SLDTEXTSTYLE1
 73
     1
 44
1.0
  0
MTEXT
  5
4A
330
1F
100
AcDbEntity
  8
VERMASSUNG
100
AcDbMText
 10
13.9808475933
 20
13.9090973692
 30
0.0
 40
2.0
 41
0.0
 71
     1
 72
     1
  1
Gewicht: 813g
  7
SLDTEXTSTYLE0
 73
     1
 44
1.0
  0
ARC
  5
4B
330
1F
100
AcDbEntity
  8
0
  6
Continuous
 62
     7
370
    15
100
AcDbCircle
 10
118.501834905
 20
76.0046587216
 30
0.0
 40
0.3000000000000114
100
AcDbArc
 50
180.0
 51
270.0
  0
ARC
  5
4C
330
1F
100
AcDbEntity
  8
0
  6
Continuous
 62
     7
370
    15
100
AcDbCircle
 10
118.501834905
 20
138.4046587216
 30
0.0
 40
0.3000000000000114
100
AcDbArc
 50
90.0
 51
180.0
  0
LINE
  5
4D
330
1F
100
AcDbEntity
  8
0
  6
Continuous
 62
     7
370
    15
100
AcDbLine
 10
118.501834905
 20
75.7046587216
 30
0.0
 11
123.151834905
 21
75.7046587216
 31
0.0
  0
LINE
  5
4E
330
1F
100
AcDbEntity
  8
0
  6
Continuous
 62
     7
370
    15
100
AcDbLine
 10
123.1611429918
 20
138.7046587216
 30
0.0
 11
118.501834905
 21
138.7046587216
 31
0.0
  0
ARC
  5
4F
330
1F
100
AcDbEntity
  8
0
  6
Continuous
 62
     7
370
    15
100
AcDbCircle
 10
117.7018281523
 20
82.6342211072
 30
0.0
 40
0.6000067526677242
100
AcDbArc
 50
33.5571153394
 51
90.0
  0
ARC
  5
50
330
1F
100
AcDbEntity
  8
0
  6
Continuous
 62
     7
370
    15
100
AcDbCircle
 10
117.7018281523
 20
131.775096336
 30
0.0
 40
0.6000067526677242
100
AcDbArc
 50
270.0
 51
326.4428846606
  0
LINE
  5
51
330
1F
100
AcDbEntity
  8
0
  6
Continuous
 62
     7
370
    15
100
AcDbLine
 10
104.9703261062
 20
130.8623887417
 30
0.0
 11
92.401834905
 21
130.2327048137
 31
0.0
  0
LINE
  5
52
330
1F
100
AcDbEntity
  8
0
  6
Continuous
 62
     7
370
    15
100
AcDbLine
 10
116.201834905
 20
131.4250895833
 30
0.0
 11
113.3848332476
 21
131.2839572357
 31
0.0
  0
LINE
  5
53
330
1F
100
AcDbEntity
  8
0
  6
Continuous
 62
     7
370
    15
100
AcDbLine
 10
113.3848893377
 20
83.1253573973
 30
0.0
 11
116.201834905
 21
82.9842278598
 31
0.0
  0
LINE
  5
54
330
1F
100
AcDbEntity
  8
0
  6
Continuous
 62
     7
370
    15
100
AcDbLine
 10
96.401834905
 20
83.9762118278
 30
0.0
 11
104.9707286249
 21
83.5469085352
 31
0.0
  0
LINE
  5
55
330
1F
100
AcDbEntity
  8
0
  6
Continuous
 62
     7
370
    15
100
AcDbLine
 10
116.201834905
 20
82.9842278598
 30
0.0
 11
117.0585476784
 21
83.2137833556
 31
0.0
  0
LINE
  5
56
330
1F
100
AcDbEntity
  8
0
  6
Continuous
 62
     7
370
    15
100
AcDbLine
 10
117.0585476784
 20
131.1955340875
 30
0.0
 11
116.201834905
 21
131.4250895833
 31
0.0
  0
ARC
  5
57
330
1F
100
AcDbEntity
  8
0
  6
Continuous
 62
     7
370
    15
100
AcDbCircle
 10
117.2138391054
 20
82.6342278598
 30
0.0
 40
0.6000000000000085
100
AcDbArc
 50
90.0
 51
105.0
  0
ARC
  5
58
330
1F
100
AcDbEntity
  8
0
  6
Continuous
 62
     7
370
    15
100
AcDbCircle
 10
117.2138391054
 20
131.7750895833
 30
0.0
 40
0.5999999999999943
100
AcDbArc
 50
255.0
 51
270.0
  0
LINE
  5
59
330
1F
100
AcDbEntity
  8
0
  6
Continuous
 62
     7
370
    15
100
AcDbLine
 10
117.2138391054
 20
83.2342278598
 30
0.0
 11
117.7018281523
 21
83.2342278598
 31
0.0
  0
LINE
  5
5A
330
1F
100
AcDbEntity
  8
0
  6
Continuous
 62
     7
370
    15
100
AcDbLine
 10
117.7018281523
 20
131.1750895833
 30
0.0
 11
117.2138391054
 21
131.1750895833
 31
0.0
  0
ARC
  5
5B
330
1F
100
AcDbEntity
  8
0
  6
Continuous
 62
     7
370
    15
100
AcDbCircle
 10
147.151834905
 20
91.2046587216
 30
0.0
 40
3.0
100
AcDbArc
 50
90.0
 51
180.0
  0
ARC
  5
5C
330
1F
100
AcDbEntity
  8
0
  6
Continuous
 62
     7
370
    15
100
AcDbCircle
 10
147.151834905
 20
123.2046587216
 30
0.0
 40
3.0
100
AcDbArc
 50
180.0
 51
270.0
  0
LINE
  5
5D
330
1F
100
AcDbEntity
  8
0
  6
Continuous
 62
     7
370
    15
100
AcDbLine
 10
158.6429852517
 20
94.2046587216
 30
0.0
 11
166.4363230646
 21
94.2046587216
 31
0.0
  0
LINE
  5
5E
330
1F
100
AcDbEntity
  8
0
  6
Continuous
 62
     7
370
    15
100
AcDbLine
 10
147.151834905
 20
94.2046587216
 30
0.0
 11
151.661957182
 21
94.2046587216
 31
0.0
  0
LINE
  5
5F
330
1F
100
AcDbEntity
  8
0
  6
Continuous
 62
     7
370
    15
100
AcDbLine
 10
151.6597982454
 20
120.2046587216
 30
0.0
 11
147.151834905
 21
120.2046587216
 31
0.0
  0
LINE
  5
60
330
1F
100
AcDbEntity
  8
0
  6
Continuous
 62
     7
370
    15
100
AcDbLine
 10
166.4363230646
 20
120.2046587216
 30
0.0
 11
158.6454775789
 21
120.2046587216
 31
0.0
  0
LINE
  5
61
330
1F
100
AcDbEntity
  8
0
  6
Continuous
 62
     7
370
    15
100
AcDbLine
 10
166.4363230646
 20
94.2046587216
 30
0.0
 11
196.3587530964
 21
96.5596050374
 31
0.0
  0
LINE
  5
62
330
1F
100
AcDbEntity
  8
0
  6
Continuous
 62
     7
370
    15
100
AcDbLine
 10
196.3587530964
 20
117.8497124057
 30
0.0
 11
166.4363230646
 21
120.2046587216
 31
0.0
  0
LINE
  5
63
330
1F
100
AcDbEntity
  8
0
  6
Continuous
 62
     7
370
    15
100
AcDbLine
 10
87.5962540314
 20
86.3346587216
 30
0.0
 11
95.001834905
 21
86.3346587216
 31
0.0
  0
ARC
  5
64
330
1F
100
AcDbEntity
  8
0
  6
Continuous
 62
     7
370
    15
100
AcDbCircle
 10
196.201834905
 20
98.5534397049
 30
0.0
 40
2.000000000000004
100
AcDbArc
 50
274.5
 51
0.0
  0
ARC
  5
65
330
1F
100
AcDbEntity
  8
0
  6
Continuous
 62
     7
370
    15
100
AcDbCircle
 10
196.201834905
 20
115.8558777382
 30
0.0
 40
2.000000000000004
100
AcDbArc
 50
0.0
 51
85.5
  0
ARC
  5
66
330
1F
100
AcDbEntity
  8
0
  6
Continuous
 62
     7
370
    15
100
AcDbCircle
 10
95.001834905
 20
84.9346587216
 30
0.0
 40
1.400000000000007
100
AcDbArc
 50
42.2465410162
 51
90.0
  0
LINE
  5
67
330
1F
100
AcDbEntity
  8
0
  6
Continuous
 62
     7
370
    15
100
AcDbLine
 10
86.3129953401
 20
87.4734982865
 30
0.0
 11
87.4429983632
 21
86.3434952634
 31
0.0
  0
LINE
  5
68
330
1F
100
AcDbEntity
  8
0
  6
Continuous
 62
     7
370
    15
100
AcDbLine
 10
87.4429983632
 20
128.0658221797
 30
0.0
 11
86.3117356784
 21
126.9345594949
 31
0.0
  0
ARC
  5
69
330
1F
100
AcDbEntity
  8
0
  6
Continuous
 62
     7
370
    15
100
AcDbCircle
 10
91.001834905
 20
129.4746587216
 30
0.0
 40
1.400000000000006
100
AcDbArc
 50
270.0
 51
302.5610026528
  0
LINE
  5
6A
330
1F
100
AcDbEntity
  8
0
  6
Continuous
 62
     7
370
    15
100
AcDbLine
 10
91.001834905
 20
128.0746587216
 30
0.0
 11
87.5927233064
 21
128.0746587216
 31
0.0
  0
LINE
  5
6B
330
1F
100
AcDbEntity
  8
0
  6
Continuous
 62
     7
370
    15
100
AcDbLine
 10
198.2791571121
 20
115.4220616395
 30
0.0
 11
198.201834905
 21
115.5690269819
 31
0.0
  0
LINE
  5
6C
330
1F
100
AcDbEntity
  8
0
  6
Continuous
 62
     7
370
    15
100
AcDbLine
 10
198.201834905
 20
98.8402904612
 30
0.0
 11
198.2791571121
 21
98.9872558036
 31
0.0
  0
LINE
  5
6D
330
1F
100
AcDbEntity
  8
0
  6
Continuous
 62
     7
370
    15
100
AcDbLine
 10
118.201834905
 20
76.0046587216
 30
0.0
 11
118.201834905
 21
138.4046587156
 31
0.0
  0
LINE
  5
6E
330
1F
100
AcDbEntity
  8
0
  6
Continuous
 62
     7
370
    15
100
AcDbLine
 10
139.5937677365
 20
77.0177410253
 30
0.0
 11
139.5937677365
 21
127.0546587216
 31
0.0
  0
SPLINE
  5
6F
330
1F
100
AcDbEntity
  8
0
  6
Continuous
 62
     7
370
    15
100
AcDbSpline
210
0.0
220
0.0
230
1.0
 70
     8
 71
     3
 72
     8
 73
     4
 74
     0
 42
0.00000001
 43
0.00000001
 40
0.0
 40
0.0
 40
0.0
 40
0.0
 40
1.0
 40
1.0
 40
1.0
 40
1.0
 10
139.5937677364808
 20
77.01774102531311
 30
0.0
 10
139.0982880758151
 20
77.91326711324648
 30
0.0
 10
138.604174027773
 20
78.80955152829871
 30
0.0
 10
138.1118349049918
 20
79.70682156250541
 30
0.0
  0
LINE
  5
70
330
1F
100
AcDbEntity
  8
0
  6
Continuous
 62
     7
370
    15
100
AcDbLine
 10
138.111834905
 20
79.7068215625
 30
0.0
 11
138.111834905
 21
127.0546587216
 31
0.0
  0
SPLINE
  5
71
330
1F
100
AcDbEntity
  8
0
  6
Continuous
 62
     7
370
    15
100
AcDbSpline
210
0.0
220
0.0
230
1.0
 70
    24
 71
     3
 72
     8
 73
     4
 74
     0
 42
0.00000001
 43
0.00000001
 40
0.0
 40
0.0
 40
0.0
 40
0.0
 40
1.0
 40
1.0
 40
1.0
 40
1.0
 10
138.1118349049918
 20
127.0546587215603
 30
0.0
 10
138.5917868993567
 20
127.0546587215603
 30
0.0
 10
139.0870876283303
 20
127.0546587215603
 30
0.0
 10
139.5937677364809
 20
127.0546587215603
 30
0.0
  0
LINE
  5
72
330
1F
100
AcDbEntity
  8
0
  6
Continuous
 62
     7
370
    15
100
AcDbLine
 10
144.151834905
 20
77.644381321
 30
0.0
 11
144.151834905
 21
127.0546587216
 31
0.0
  0
SPLINE
  5
73
330
1F
100
AcDbEntity
  8
0
  6
Continuous
 62
     7
370
    15
100
AcDbSpline
210
0.0
220
0.0
230
1.0
 70
     8
 71
     3
 72
    10
 73
     6
 74
     0
 42
0.00000001
 43
0.00000001
 40
0.0
 40
0.0
 40
0.0
 40
0.0
 40
0.5
 40
0.5
 40
1.0
 40
1.0
 40
1.0
 40
1.0
 10
144.1518349049918
 20
77.64438132096743
 30
0.0
 10
144.1518349049918
 20
77.48449405277377
 30
0.0
 10
144.0905252537559
 20
77.32336679725917
 30
0.0
 10
143.8714256162208
 20
77.08926779890433
 30
0.0
 10
143.7133774099074
 20
77.01774102531311
 30
0.0
 10
143.5518349049918
 20
77.01774102531311
 30
0.0
  0
SPLINE
  5
74
330
1F
100
AcDbEntity
  8
0
  6
Continuous
 62
     7
370
    15
100
AcDbSpline
210
0.0
220
0.0
230
1.0
 70
    24
 71
     3
 72
    12
 73
     8
 74
     0
 42
0.00000001
 43
0.00000001
 40
0.0
 40
0.0
 40
0.0
 40
0.0
 40
0.2500000000000033
 40
0.2500000000000033
 40
0.5000000000000067
 40
0.5000000000000067
 40
1.0
 40
1.0
 40
1.0
 40
1.0
 10
143.5518349049918
 20
127.0546587215603
 30
0.0
 10
143.6420739726788
 20
127.0546587215603
 30
0.0
 10
143.7329720867853
 20
127.0546587215603
 30
0.0
 10
143.8875691232739
 20
127.0546587215603
 30
0.0
 10
143.952547539382
 20
127.0546587215603
 30
0.0
 10
144.1043825673182
 20
127.0546587215603
 30
0.0
 10
144.1518349049918
 20
127.0546587215603
 30
0.0
 10
144.1518349049918
 20
127.0546587215603
 30
0.0
  0
SPLINE
  5
75
330
1F
100
AcDbEntity
  8
0
  6
Continuous
 62
     7
370
    15
100
AcDbSpline
210
0.0
220
0.0
230
1.0
 70
     8
 71
     3
 72
    70
 73
    66
 74
     0
 42
0.00000001
 43
0.00000001
 40
-0.0312499999999998
 40
-0.0312499999999998
 40
0.0
 40
0.0
 40
0.0312500000000003
 40
0.0312500000000003
 40
0.0625000000000006
 40
0.0625000000000006
 40
0.0937500000000009
 40
0.0937500000000009
 40
0.1250000000000012
 40
0.1250000000000012
 40
0.1562500000000014
 40
0.1562500000000014
 40
0.1875000000000017
 40
0.1875000000000017
 40
0.2187500000000021
 40
0.2187500000000021
 40
0.2500000000000023
 40
0.2500000000000023
 40
0.2812500000000024
 40
0.2812500000000024
 40
0.3125000000000026
 40
0.3125000000000026
 40
0.3437500000000027
 40
0.3437500000000027
 40
0.3750000000000028
 40
0.3750000000000028
 40
0.4062500000000029
 40
0.4062500000000029
 40
0.4375000000000031
 40
0.4375000000000031
 40
0.4687500000000032
 40
0.4687500000000032
 40
0.5000000000000033
 40
0.5000000000000033
 40
0.5312500000000032
 40
0.5312500000000032
 40
0.562500000000003
 40
0.562500000000003
 40
0.5937500000000029
 40
0.5937500000000029
 40
0.6250000000000027
 40
0.6250000000000027
 40
0.6562500000000026
 40
0.6562500000000026
 40
0.6875000000000024
 40
0.6875000000000024
 40
0.7187500000000022
 40
0.7187500000000022
 40
0.7500000000000021
 40
0.7500000000000021
 40
0.7812500000000019
 40
0.7812500000000019
 40
0.8125000000000016
 40
0.8125000000000016
 40
0.8437500000000013
 40
0.8437500000000013
 40
0.875000000000001
 40
0.875000000000001
 40
0.9062500000000008
 40
0.9062500000000008
 40
0.9375000000000006
 40
0.9375000000000006
 40
0.9687500000000002
 40
0.9687500000000002
 40
1.0
 40
1.0
 40
1.03125
 40
1.03125
 10
125.9372895663317
 20
132.2636221163395
 30
0.0
 10
126.4663802436519
 20
132.2636221163395
 30
0.0
 10
126.726450911029
 20
132.2795225567542
 30
0.0
 10
127.2380255908644
 20
132.3414669069285
 30
0.0
 10
127.4922008746046
 20
132.3882691410198
 30
0.0
 10
127.9764715046663
 20
132.5092461244749
 30
0.0
 10
128.2061125965475
 20
132.5828484522817
 30
0.0
 10
128.640716944781
 20
132.7546727232598
 30
0.0
 10
128.8462827214276
 20
132.8536761461873
 30
0.0
 10
129.2148398620228
 20
133.0667725601001
 30
0.0
 10
129.3803208447583
 20
133.1816722762298
 30
0.0
 10
129.6727453541934
 20
133.4270391749201
 30
0.0
 10
129.7968463308199
 20
133.5554790753903
 30
0.0
 10
129.9964255275696
 20
133.8163712234763
 30
0.0
 10
130.0733591134279
 20
133.9507523948157
 30
0.0
 10
130.1762161719483
 20
134.220072345922
 30
0.0
 10
130.2016890814074
 20
134.3527536101402
 30
0.0
 10
130.2019794919752
 20
134.6139400842712
 30
0.0
 10
130.1759548581995
 20
134.743705122436
 30
0.0
 10
130.0738065737075
 20
134.9892877567086
 30
0.0
 10
129.9982301261243
 20
135.1059492940175
 30
0.0
 10
129.7977325949794
 20
135.327854484172
 30
0.0
 10
129.672603753471
 20
135.432465738095
 30
0.0
 10
129.3832449524494
 20
135.6225121497031
 30
0.0
 10
129.2178339653939
 20
135.7092718211528
 30
0.0
 10
128.8448434072461
 20
135.8667761969043
 30
0.0
 10
128.643110374157
 20
135.9351014616915
 30
0.0
 10
128.2102511233291
 20
136.0533311853107
 30
0.0
 10
127.9763325904398
 20
136.1036261014146
 30
0.0
 10
127.4921488552971
 20
136.1834916383042
 30
0.0
 10
127.2428332293416
 20
136.2132327661038
 30
0.0
 10
126.7298007049139
 20
136.253385507612
 30
0.0
 10
126.4645068820093
 20
136.2635837770219
 30
0.0
 10
125.9421722621395
 20
136.2636602354066
 30
0.0
 10
125.6824185996578
 20
136.2538692237976
 30
0.0
 10
125.1658067840125
 20
136.2138023850588
 30
0.0
 10
124.9134407435123
 20
136.183705218202
 30
0.0
 10
124.4319156219794
 20
136.1044830083718
 30
0.0
 10
124.1990648898659
 20
136.0547255289084
 30
0.0
 10
123.7619750414271
 20
135.935633586458
 30
0.0
 10
123.5606540527699
 20
135.8673183249107
 30
0.0
 10
123.19156802747
 20
135.7119173579772
 30
0.0
 10
123.0225832764183
 20
135.6237650159103
 30
0.0
 10
122.7321272197591
 20
135.433325626794
 30
0.0
 10
122.609055408397
 20
135.3307010490949
 30
0.0
 10
122.407719166975
 20
135.1090607024868
 30
0.0
 10
122.3305066210328
 20
134.9903066269393
 30
0.0
 10
122.2283030781327
 20
134.7456406880216
 30
0.0
 10
122.2020747266804
 20
134.6184839625731
 30
0.0
 10
122.2015983273633
 20
134.3540358167175
 30
0.0
 10
122.2273407398612
 20
134.2211351364604
 30
0.0
 10
122.3286515162251
 20
133.9543428629783
 30
0.0
 10
122.405484155616
 20
133.8189789615097
 30
0.0
 10
122.6058879948312
 20
133.5563991662071
 30
0.0
 10
122.7285594931233
 20
133.4294240064534
 30
0.0
 10
123.0185067822875
 20
133.185344620371
 30
0.0
 10
123.1870777616527
 20
133.0679194956171
 30
0.0
 10
123.5553473557659
 20
132.8547230346687
 30
0.0
 10
123.7564092130362
 20
132.7575489162438
 30
0.0
 10
124.1934401316211
 20
132.5841940290296
 30
0.0
 10
124.4255883447507
 20
132.5097944773729
 30
0.0
 10
124.9065986262496
 20
132.3893415978683
 30
0.0
 10
125.15869870908
 20
132.3424832226023
 30
0.0
 10
125.675768195339
 20
132.2795257256186
 30
0.0
 10
125.9372895663317
 20
132.2636221163395
 30
0.0
 10
126.4663802436519
 20
132.2636221163395
 30
0.0
  0
LINE
  5
76
330
1F
100
AcDbEntity
  8
0
  6
Continuous
 62
     7
370
    15
100
AcDbLine
 10
123.151834905
 20
127.0546587216
 30
0.0
 11
132.8099020735
 21
127.0546587216
 31
0.0
  0
LINE
  5
77
330
1F
100
AcDbEntity
  8
0
  6
Continuous
 62
     7
370
    15
100
AcDbLine
 10
132.8099020735
 20
77.0177410253
 30
0.0
 11
132.8099020735
 21
127.0546587216
 31
0.0
  0
LINE
  5
78
330
1F
100
AcDbEntity
  8
0
  6
Continuous
 62
     7
370
    15
100
AcDbLine
 10
132.8099020735
 20
77.0177410253
 30
0.0
 11
131.151834905
 21
77.0177410253
 31
0.0
  0
SPLINE
  5
79
330
1F
100
AcDbEntity
  8
0
  6
Continuous
 62
     7
370
    15
100
AcDbSpline
210
0.0
220
0.0
230
1.0
 70
     8
 71
     3
 72
    28
 73
    24
 74
     0
 42
0.00000001
 43
0.00000001
 40
0.0
 40
0.0
 40
0.0
 40
0.0
 40
0.1250000000000001
 40
0.1250000000000001
 40
0.1875000000000001
 40
0.1875000000000001
 40
0.2500000000000001
 40
0.2500000000000001
 40
0.3749999999999999
 40
0.3749999999999999
 40
0.4375
 40
0.4375
 40
0.4999999999999999
 40
0.4999999999999999
 40
0.6249999999999999
 40
0.6249999999999999
 40
0.7499999999999997
 40
0.7499999999999997
 40
0.8124999999999998
 40
0.8124999999999998
 40
0.8749999999999998
 40
0.8749999999999998
 40
1.0
 40
1.0
 40
1.0
 40
1.0
 10
131.1518349049918
 20
77.01774102531311
 30
0.0
 10
130.6201271474989
 20
77.01774102531311
 30
0.0
 10
130.0978885821885
 20
77.0019563113629
 30
0.0
 10
129.3280180959135
 20
76.9569608972867
 30
0.0
 10
129.0736585237222
 20
76.93840590221096
 30
0.0
 10
128.5695369430237
 20
76.89455317976446
 30
0.0
 10
128.3198141255957
 20
76.86920857281227
 30
0.0
 10
127.5942241741493
 20
76.78580649506218
 30
0.0
 10
127.1358639125678
 20
76.71994093591108
 30
0.0
 10
126.4853659691739
 20
76.61097059541929
 30
0.0
 10
126.2736839183815
 20
76.57273095965265
 30
0.0
 10
125.8696124292435
 20
76.49497222223329
 30
0.0
 10
125.6771059154226
 20
76.45547126005792
 30
0.0
 10
125.1272709444013
 20
76.33656351769193
 30
0.0
 10
124.7973421660925
 20
76.25674583626731
 30
0.0
 10
124.2128708975238
 20
76.10340267447125
 30
0.0
 10
123.9665937595104
 20
76.03206892120201
 30
0.0
 10
123.6667509668123
 20
75.93812541412738
 30
0.0
 10
123.5782941097401
 20
75.90893162076745
 30
0.0
 10
123.424932756435
 20
75.85546504650404
 30
0.0
 10
123.3598445422088
 20
75.83110571222886
 30
0.0
 10
123.204250526268
 20
75.76751556678413
 30
0.0
 10
123.1518349049918
 20
75.73741263169487
 30
0.0
 10
123.1518349049918
 20
75.72053573869795
 30
0.0
  0
LINE
  5
7A
330
1F
100
AcDbEntity
  8
0
  6
Continuous
 62
     7
370
    15
100
AcDbLine
 10
123.151834905
 20
75.7205357387
 30
0.0
 11
123.151834905
 21
75.7046587216
 31
0.0
  0
SPLINE
  5
7B
330
1F
100
AcDbEntity
  8
0
  6
Continuous
 62
     7
370
    15
100
AcDbSpline
210
0.0
220
0.0
230
1.0
 70
     8
 71
     3
 72
    22
 73
    18
 74
     0
 42
0.00000001
 43
0.00000001
 40
0.0
 40
0.0
 40
0.0
 40
0.0
 40
0.0515773377536172
 40
0.1565264849943629
 40
0.2100197540385886
 40
0.2615951369298746
 40
0.3664424119934943
 40
0.4198226601719804
 40
0.4724528789006786
 40
0.5794488992297344
 40
0.6339397336480286
 40
0.6872670452602943
 40
0.7409741315029978
 40
0.7958968813361827
 40
0.8512481408256359
 40
0.9034470736265863
 40
1.0
 40
1.0
 40
1.0
 40
1.0
 10
131.1518349049918
 20
137.6718541947245
 30
0.0
 10
130.9350247089893
 20
137.673250815793
 30
0.0
 10
130.2770508900746
 20
137.6774892700493
 30
0.0
 10
129.4019559127436
 20
137.7170215944035
 30
0.0
 10
128.5571304178868
 20
137.7799948412454
 30
0.0
 10
127.7374051342826
 20
137.8580088745006
 30
0.0
 10
126.9616151562542
 20
137.9548920023758
 30
0.0
 10
126.2441266949477
 20
138.0631514142917
 30
0.0
 10
125.5648619477756
 20
138.1768697865962
 30
0.0
 10
124.9565469698667
 20
138.293369971537
 30
0.0
 10
124.4364550291435
 20
138.402470222954
 30
0.0
 10
124.0925648514274
 20
138.4784741206841
 30
0.0
 10
123.7976111236998
 20
138.5465075766057
 30
0.0
 10
123.5518368363587
 20
138.6052206273642
 30
0.0
 10
123.3659345273853
 20
138.650836007298
 30
0.0
 10
123.1943379216615
 20
138.6937954588585
 30
0.0
 10
123.1742086464853
 20
138.6989564806605
 30
0.0
 10
123.1611429918115
 20
138.7023064338028
 30
0.0
  0
LINE
  5
7C
330
1F
100
AcDbEntity
  8
0
  6
Continuous
 62
     7
370
    15
100
AcDbLine
 10
132.8099020735
 20
137.6718541947
 30
0.0
 11
131.151834905
 21
137.6718541947
 31
0.0
  0
LINE
  5
7D
330
1F
100
AcDbEntity
  8
0
  6
Continuous
 62
     7
370
    15
100
AcDbLine
 10
132.8099020735
 20
131.6633483839
 30
0.0
 11
132.8099020735
 21
137.6718541947
 31
0.0
  0
LINE
  5
7E
330
1F
100
AcDbEntity
  8
0
  6
Continuous
 62
     7
370
    15
100
AcDbLine
 10
130.3974552507
 20
131.6633483839
 30
0.0
 11
132.8099020735
 21
131.6633483839
 31
0.0
  0
SPLINE
  5
7F
330
1F
100
AcDbEntity
  8
0
  6
Continuous
 62
     7
370
    15
100
AcDbSpline
210
0.0
220
0.0
230
1.0
 70
     8
 71
     3
 72
    20
 73
    16
 74
     0
 42
0.00000001
 43
0.00000001
 40
0.0
 40
0.0
 40
0.0
 40
0.0
 40
0.2499999999999997
 40
0.2499999999999997
 40
0.3749999999999997
 40
0.3749999999999997
 40
0.4999999999999998
 40
0.4999999999999998
 40
0.6249999999999998
 40
0.6249999999999998
 40
0.7499999999999999
 40
0.7499999999999999
 40
0.8749999999999999
 40
0.8749999999999999
 40
1.0
 40
1.0
 40
1.0
 40
1.0
 10
123.1518349049918
 20
127.0546587215603
 30
0.0
 10
123.4002086392798
 20
127.7085211498577
 30
0.0
 10
123.7197787316251
 20
128.3123069318548
 30
0.0
 10
124.3420849648298
 20
129.1391456680234
 30
0.0
 10
124.5735092252606
 20
129.4015743059763
 30
0.0
 10
125.0947235649103
 20
129.8982369600813
 30
0.0
 10
125.3813440475453
 20
130.1288238391028
 30
0.0
 10
126.0008287888529
 20
130.5453780636855
 30
0.0
 10
126.3351291683399
 20
130.732875865653
 30
0.0
 10
127.0603896409647
 20
131.0642728432894
 30
0.0
 10
127.4423046983552
 20
131.2037768307847
 30
0.0
 10
128.2370928745269
 20
131.4292303382556
 30
0.0
 10
128.6512510687332
 20
131.5158564497993
 30
0.0
 10
129.5167974093146
 20
131.6338372386534
 30
0.0
 10
129.9546850243264
 20
131.6633483839277
 30
0.0
 10
130.397455250681
 20
131.6633483839277
 30
0.0
  0
SPLINE
  5
80
330
1F
100
AcDbEntity
  8
0
  6
Continuous
 62
     7
370
    15
100
AcDbSpline
210
0.0
220
0.0
230
1.0
 70
     8
 71
     3
 72
    70
 73
    66
 74
     0
 42
0.00000001
 43
0.00000001
 40
-0.0312500000000002
 40
-0.0312500000000002
 40
0.0
 40
0.0
 40
0.0312499999999999
 40
0.0312499999999999
 40
0.0624999999999999
 40
0.0624999999999999
 40
0.0937499999999998
 40
0.0937499999999998
 40
0.1249999999999998
 40
0.1249999999999998
 40
0.1562499999999997
 40
0.1562499999999997
 40
0.1874999999999997
 40
0.1874999999999997
 40
0.2187499999999996
 40
0.2187499999999996
 40
0.2499999999999996
 40
0.2499999999999996
 40
0.2812499999999995
 40
0.2812499999999995
 40
0.3124999999999994
 40
0.3124999999999994
 40
0.3437499999999994
 40
0.3437499999999994
 40
0.3749999999999993
 40
0.3749999999999993
 40
0.4062499999999993
 40
0.4062499999999993
 40
0.4374999999999992
 40
0.4374999999999992
 40
0.4687499999999992
 40
0.4687499999999992
 40
0.4999999999999991
 40
0.4999999999999991
 40
0.5312499999999991
 40
0.5312499999999991
 40
0.562499999999999
 40
0.562499999999999
 40
0.5937499999999989
 40
0.5937499999999989
 40
0.6249999999999989
 40
0.6249999999999989
 40
0.6562499999999989
 40
0.6562499999999989
 40
0.6874999999999988
 40
0.6874999999999988
 40
0.7187499999999987
 40
0.7187499999999987
 40
0.7499999999999987
 40
0.7499999999999987
 40
0.7812499999999988
 40
0.7812499999999988
 40
0.812499999999999
 40
0.812499999999999
 40
0.8437499999999991
 40
0.8437499999999991
 40
0.8749999999999993
 40
0.8749999999999993
 40
0.9062499999999994
 40
0.9062499999999994
 40
0.9374999999999997
 40
0.9374999999999997
 40
0.9687499999999998
 40
0.9687499999999998
 40
1.0
 40
1.0
 40
1.03125
 40
1.03125
 10
125.9372895663317
 20
117.8255656075436
 30
0.0
 10
126.4663802436519
 20
117.8255656075436
 30
0.0
 10
126.726450911029
 20
117.8502429023288
 30
0.0
 10
127.2380255908644
 20
117.9467145753707
 30
0.0
 10
127.4922008746046
 20
118.0196954913508
 30
0.0
 10
127.9764715046663
 20
118.2094360942894
 30
0.0
 10
128.2061125965475
 20
118.3252967526832
 30
0.0
 10
128.640716944781
 20
118.5979145986409
 30
0.0
 10
128.8462827214276
 20
118.7559536806946
 30
0.0
 10
129.2148398620228
 20
119.0994965316653
 30
0.0
 10
129.3803208447583
 20
119.2862589757669
 30
0.0
 10
129.6727453541934
 20
119.6898021501638
 30
0.0
 10
129.79684633082
 20
119.9032991465929
 30
0.0
 10
129.9964255275696
 20
120.3426824605154
 30
0.0
 10
130.0733591134279
 20
120.571822447661
 30
0.0
 10
130.1762161719483
 20
121.0377965704211
 30
0.0
 10
130.2016890814074
 20
121.2706790160972
 30
0.0
 10
130.2019794919752
 20
121.736076551177
 30
0.0
 10
130.1759548581994
 20
121.9709523085714
 30
0.0
 10
130.0738065737075
 20
122.4224454558176
 30
0.0
 10
129.9982301261243
 20
122.640491931229
 30
0.0
 10
129.7977325949794
 20
123.0615864562668
 30
0.0
 10
129.672603753471
 20
123.2635078407851
 30
0.0
 10
129.3832449524494
 20
123.635537323304
 30
0.0
 10
129.2178339653939
 20
123.8081656268844
 30
0.0
 10
128.8448434072461
 20
124.1254836314304
 30
0.0
 10
128.643110374157
 20
124.265270564932
 30
0.0
 10
128.2102511233292
 20
124.5094468184839
 30
0.0
 10
127.9763325904398
 20
124.6146763295253
 30
0.0
 10
127.4921488552971
 20
124.7828334759005
 30
0.0
 10
127.2428332293417
 20
124.8460843664943
 30
0.0
 10
126.7298007049139
 20
124.9316635755969
 30
0.0
 10
126.4645068820093
 20
124.9535357405193
 30
0.0
 10
125.9421722621395
 20
124.9536993901633
 30
0.0
 10
125.6824185996578
 20
124.9326976980673
 30
0.0
 10
125.1658067840125
 20
124.8472953429896
 30
0.0
 10
124.9134407435123
 20
124.7832891597027
 30
0.0
 10
124.4319156219794
 20
124.6164746396615
 30
0.0
 10
124.1990648898659
 20
124.5123414762623
 30
0.0
 10
123.7619750414271
 20
124.2663548237674
 30
0.0
 10
123.5606540527699
 20
124.1266049928185
 30
0.0
 10
123.19156802747
 20
123.8134669230939
 30
0.0
 10
123.0225832764183
 20
123.6380107638238
 30
0.0
 10
122.7321272197591
 20
123.2651704997236
 30
0.0
 10
122.609055408397
 20
123.0670486896127
 30
0.0
 10
122.407719166975
 20
122.646337346879
 30
0.0
 10
122.3305066210328
 20
122.4243473262115
 30
0.0
 10
122.2283030781327
 20
121.9744823865031
 30
0.0
 10
122.2020747266804
 20
121.7442269733863
 30
0.0
 10
122.2015983273633
 20
121.2729110308373
 30
0.0
 10
122.2273407398612
 20
121.0396736151231
 30
0.0
 10
122.3286515162251
 20
120.5779970756251
 30
0.0
 10
122.405484155616
 20
120.3470996885129
 30
0.0
 10
122.6058879948312
 20
119.9048236747213
 30
0.0
 10
122.7285594931233
 20
119.6937612434354
 30
0.0
 10
123.0185067822875
 20
119.2922627327027
 30
0.0
 10
123.1870777616527
 20
119.1013562106268
 30
0.0
 10
123.5553473557659
 20
118.7576308786297
 30
0.0
 10
123.7564092130362
 20
118.6024936924156
 30
0.0
 10
124.1934401316211
 20
118.3274163323359
 30
0.0
 10
124.4255883447507
 20
118.2103001029139
 30
0.0
 10
124.9065986262496
 20
118.0213736178493
 30
0.0
 10
125.15869870908
 20
117.9482986474551
 30
0.0
 10
125.675768195339
 20
117.8502465883205
 30
0.0
 10
125.9372895663317
 20
117.8255656075436
 30
0.0
 10
126.4663802436519
 20
117.8255656075436
 30
0.0
  0
LINE
  5
81
330
1F
100
AcDbEntity
  8
0
  6
Continuous
 62
     7
370
    15
100
AcDbLine
 10
134.291834905
 20
79.7068215625
 30
0.0
 11
134.291834905
 21
127.0546587216
 31
0.0
  0
SPLINE
  5
82
330
1F
100
AcDbEntity
  8
0
  6
Continuous
 62
     7
370
    15
100
AcDbSpline
210
0.0
220
0.0
230
1.0
 70
     8
 71
     3
 72
     8
 73
     4
 74
     0
 42
0.00000001
 43
0.00000001
 40
0.0
 40
0.0
 40
0.0
 40
0.0
 40
1.0
 40
1.0
 40
1.0
 40
1.0
 10
134.2918349049918
 20
79.70682156250541
 30
0.0
 10
133.7994957822106
 20
78.80955152829871
 30
0.0
 10
133.3053817341685
 20
77.91326711324646
 30
0.0
 10
132.8099020735027
 20
77.01774102531311
 30
0.0
  0
SPLINE
  5
83
330
1F
100
AcDbEntity
  8
0
  6
Continuous
 62
     7
370
    15
100
AcDbSpline
210
0.0
220
0.0
230
1.0
 70
    24
 71
     3
 72
     8
 73
     4
 74
     0
 42
0.00000001
 43
0.00000001
 40
0.0
 40
0.0
 40
0.0
 40
0.0
 40
1.0
 40
1.0
 40
1.0
 40
1.0
 10
132.8099020735027
 20
127.0546587215603
 30
0.0
 10
133.3165821816533
 20
127.0546587215603
 30
0.0
 10
133.8118829106269
 20
127.0546587215603
 30
0.0
 10
134.2918349049918
 20
127.0546587215603
 30
0.0
  0
LINE
  5
84
330
1F
100
AcDbEntity
  8
0
  6
Continuous
 62
     7
370
    15
100
AcDbLine
 10
143.551834905
 20
77.0177410253
 30
0.0
 11
139.5937677365
 21
77.0177410253
 31
0.0
  0
LINE
  5
85
330
1F
100
AcDbEntity
  8
0
  6
Continuous
 62
     7
370
    15
100
AcDbLine
 10
139.5937677365
 20
127.0546587216
 30
0.0
 11
143.551834905
 21
127.0546587216
 31
0.0
  0
ARC
  5
86
330
1F
100
AcDbEntity
  8
0
  6
Continuous
 62
     7
370
    15
100
AcDbCircle
 10
126.2025721858
 20
119.1021095841
 30
0.0
 40
4.116558797582146
100
AcDbArc
 50
20.4598205653
 51
159.8718680226
  0
SPLINE
  5
87
330
1F
100
AcDbEntity
  8
0
  6
Continuous
 62
     7
370
    15
100
AcDbSpline
210
0.0
220
0.0
230
1.0
 70
    24
 71
     3
 72
    14
 73
    10
 74
     0
 42
0.00000001
 43
0.00000001
 40
0.0
 40
0.0
 40
0.0
 40
0.0
 40
0.5000000000000013
 40
0.5000000000000013
 40
0.750000000000002
 40
0.750000000000002
 40
0.875000000000001
 40
0.875000000000001
 40
1.0
 40
1.0
 40
1.0
 40
1.0
 10
138.0141601026595
 20
80.80465872156029
 30
0.0
 10
137.9673753976113
 20
80.80465872156027
 30
0.0
 10
137.9053242008316
 20
80.80465872156029
 30
0.0
 10
137.7619325622811
 20
80.80465872156029
 30
0.0
 10
137.7057889087299
 20
80.80465872156027
 30
0.0
 10
137.5928378865937
 20
80.80465872156027
 30
0.0
 10
137.5498371245556
 20
80.80465872156029
 30
0.0
 10
137.4457744142491
 20
80.80465872156027
 30
0.0
 10
137.3804421758922
 20
80.80465872156029
 30
0.0
 10
137.3118349049918
 20
80.80465872156029
 30
0.0
  0
SPLINE
  5
88
330
1F
100
AcDbEntity
  8
0
  6
Continuous
 62
     7
370
    15
100
AcDbSpline
210
0.0
220
0.0
230
1.0
 70
    24
 71
     3
 72
    12
 73
     8
 74
     0
 42
0.00000001
 43
0.00000001
 40
0.0
 40
0.0
 40
0.0
 40
0.0
 40
0.5000000000000017
 40
0.5000000000000017
 40
0.7500000000000008
 40
0.7500000000000008
 40
1.0
 40
1.0
 40
1.0
 40
1.0
 10
137.7175373733008
 20
133.6046587215603
 30
0.0
 10
137.6744518236899
 20
133.6046587215603
 30
0.0
 10
137.6252996219405
 20
133.6046587215603
 30
0.0
 10
137.5288270276526
 20
133.6046587215603
 30
0.0
 10
137.4927254425181
 20
133.6046587215603
 30
0.0
 10
137.4096196846568
 20
133.6046587215603
 30
0.0
 10
137.3616230876905
 20
133.6046587215603
 30
0.0
 10
137.3118349049918
 20
133.6046587215603
 30
0.0
  0
SPLINE
  5
89
330
1F
100
AcDbEntity
  8
0
  6
Continuous
 62
     7
370
    15
100
AcDbSpline
210
0.0
220
0.0
230
1.0
 70
     8
 71
     3
 72
    10
 73
     6
 74
     0
 42
0.00000001
 43
0.00000001
 40
0.0
 40
0.0
 40
0.0
 40
0.0
 40
0.5
 40
0.5
 40
1.0
 40
1.0
 40
1.0
 40
1.0
 10
138.1118349049918
 20
134.3243125725961
 30
0.0
 10
138.1118349049918
 20
134.180542514778
 30
0.0
 10
138.0757858462729
 20
134.0381231522829
 30
0.0
 10
137.9402769854989
 20
133.7882288589257
 30
0.0
 10
137.8404009924027
 20
133.6801985226774
 30
0.0
 10
137.7175373733008
 20
133.6046587215602
 30
0.0
  0
SPLINE
  5
8A
330
1F
100
AcDbEntity
  8
0
  6
Continuous
 62
     7
370
    15
100
AcDbSpline
210
0.0
220
0.0
230
1.0
 70
     8
 71
     3
 72
    10
 73
     6
 74
     0
 42
0.00000001
 43
0.00000001
 40
0.0
 40
0.0
 40
0.0
 40
0.0
 40
0.5
 40
0.5
 40
1.0
 40
1.0
 40
1.0
 40
1.0
 10
138.0856872818317
 20
127.0546587215603
 30
0.0
 10
138.0943769247433
 20
127.1015375708784
 30
0.0
 10
138.1009159894938
 20
127.1489600362797
 30
0.0
 10
138.1096746238869
 20
127.2448968348664
 30
0.0
 10
138.1118349049918
 20
127.2928121228769
 30
0.0
 10
138.1118349049918
 20
127.3405253530215
 30
0.0
  0
SPLINE
  5
8B
330
1F
100
AcDbEntity
  8
0
  6
Continuous
 62
     7
370
    15
100
AcDbSpline
210
0.0
220
0.0
230
1.0
 70
     8
 71
     3
 72
    10
 73
     6
 74
     0
 42
0.00000001
 43
0.00000001
 40
0.0
 40
0.0
 40
0.0
 40
0.0
 40
0.5
 40
0.5
 40
1.0
 40
1.0
 40
1.0
 40
1.0
 10
134.6861324366827
 20
133.6046587215603
 30
0.0
 10
134.5645921730142
 20
133.679384888772
 30
0.0
 10
134.4632578126653
 20
133.7883299046888
 30
0.0
 10
134.3276188697769
 20
134.0387603854504
 30
0.0
 10
134.2918349049918
 20
134.1811797475494
 30
0.0
 10
134.2918349049918
 20
134.3243125725961
 30
0.0
  0
SPLINE
  5
8C
330
1F
100
AcDbEntity
  8
0
  6
Continuous
 62
     7
370
    15
100
AcDbSpline
210
0.0
220
0.0
230
1.0
 70
    24
 71
     3
 72
    12
 73
     8
 74
     0
 42
0.00000001
 43
0.00000001
 40
0.0
 40
0.0
 40
0.0
 40
0.0
 40
0.2500000000000037
 40
0.2500000000000037
 40
0.5000000000000074
 40
0.5000000000000074
 40
1.0
 40
1.0
 40
1.0
 40
1.0
 10
135.0918349049918
 20
133.6046587215603
 30
0.0
 10
135.0419582226743
 20
133.6046587215603
 30
0.0
 10
134.9939550292708
 20
133.6046587215603
 30
0.0
 10
134.9109069265588
 20
133.6046587215603
 30
0.0
 10
134.8747773470909
 20
133.6046587215603
 30
0.0
 10
134.7788653161467
 20
133.6046587215603
 30
0.0
 10
134.7291066481779
 20
133.6046587215603
 30
0.0
 10
134.6861324366827
 20
133.6046587215603
 30
0.0
  0
SPLINE
  5
8D
330
1F
100
AcDbEntity
  8
0
  6
Continuous
 62
     7
370
    15
100
AcDbSpline
210
0.0
220
0.0
230
1.0
 70
    24
 71
     3
 72
    14
 73
    10
 74
     0
 42
0.00000001
 43
0.00000001
 40
0.0
 40
0.0
 40
0.0
 40
0.0
 40
0.1249999999999991
 40
0.1249999999999991
 40
0.2499999999999982
 40
0.2499999999999982
 40
0.4999999999999998
 40
0.4999999999999998
 40
1.0
 40
1.0
 40
1.0
 40
1.0
 10
135.0918349049918
 20
80.80465872156029
 30
0.0
 10
135.0233970571053
 20
80.80465872156029
 30
0.0
 10
134.9578470183403
 20
80.80465872156029
 30
0.0
 10
134.8534203789323
 20
80.80465872156029
 30
0.0
 10
134.8108757691709
 20
80.80465872156029
 30
0.0
 10
134.6982663086307
 20
80.80465872156027
 30
0.0
 10
134.6427272616112
 20
80.80465872156029
 30
0.0
 10
134.5001155661473
 20
80.80465872156027
 30
0.0
 10
134.4367102111516
 20
80.80465872156027
 30
0.0
 10
134.389509707324
 20
80.80465872156029
 30
0.0
  0
SPLINE
  5
8E
330
1F
100
AcDbEntity
  8
0
  6
Continuous
 62
     7
370
    15
100
AcDbSpline
210
0.0
220
0.0
230
1.0
 70
     8
 71
     3
 72
    10
 73
     6
 74
     0
 42
0.00000001
 43
0.00000001
 40
0.0
 40
0.0
 40
0.0
 40
0.0
 40
0.5
 40
0.5
 40
1.0
 40
1.0
 40
1.0
 40
1.0
 10
134.2918349049918
 20
127.3405253530216
 30
0.0
 10
134.2918349049918
 20
127.2927538450284
 30
0.0
 10
134.2939961485889
 20
127.2450441229667
 30
0.0
 10
134.3026675224491
 20
127.1497490054184
 30
0.0
 10
134.3091967054051
 20
127.1020564414518
 30
0.0
 10
134.3179825281519
 20
127.0546587215603
 30
0.0
  0
LINE
  5
8F
330
1F
100
AcDbEntity
  8
0
  6
Continuous
 62
     7
370
    15
100
AcDbLine
 10
137.311834905
 20
133.6046587216
 30
0.0
 11
135.091834905
 21
133.6046587216
 31
0.0
  0
LINE
  5
90
330
1F
100
AcDbEntity
  8
0
  6
Continuous
 62
     7
370
    15
100
AcDbLine
 10
137.311834905
 20
80.8046587216
 30
0.0
 11
135.091834905
 21
80.8046587216
 31
0.0
  0
LINE
  5
91
330
1F
100
AcDbEntity
  8
0
  6
Continuous
 62
     7
370
    15
100
AcDbLine
 10
96.401834905
 20
83.9762118278
 30
0.0
 11
96.401834905
 21
85.2409211904
 31
0.0
  0
SPLINE
  5
92
330
1F
100
AcDbEntity
  8
0
  6
Continuous
 62
     7
370
    15
100
AcDbSpline
210
0.0
220
0.0
230
1.0
 70
     8
 71
     3
 72
    14
 73
    10
 74
     0
 42
0.00000001
 43
0.00000001
 40
0.0
 40
0.0
 40
0.0
 40
0.0
 40
0.25
 40
0.25
 40
0.5
 40
0.5
 40
0.75
 40
0.75
 40
1.0
 40
1.0
 40
1.0
 40
1.0
 10
95.62354778707608
 20
86.37150739800033
 30
0.0
 10
95.68017446227816
 20
86.26380994416347
 30
0.0
 10
95.77469712256787
 20
86.16102036244415
 30
0.0
 10
95.95774209813011
 20
85.962663050224
 30
0.0
 10
96.04936867508484
 20
85.86660354154576
 30
0.0
 10
96.20822199277802
 20
85.67907449883651
 30
0.0
 10
96.27611260039973
 20
85.58766552605296
 30
0.0
 10
96.37302962610731
 20
85.4092893051428
 30
0.0
 10
96.40183490499237
 20
85.32206739889662
 30
0.0
 10
96.40183490499237
 20
85.24092119036237
 30
0.0
  0
SPLINE
  5
93
330
1F
100
AcDbEntity
  8
0
  6
Continuous
 62
     7
370
    15
100
AcDbSpline
210
0.0
220
0.0
230
1.0
 70
     8
 71
     3
 72
    14
 73
    10
 74
     0
 42
0.00000001
 43
0.00000001
 40
0.0
 40
0.0
 40
0.0
 40
0.0
 40
0.1250000000000025
 40
0.1250000000000025
 40
0.250000000000005
 40
0.250000000000005
 40
0.5000000000000046
 40
0.5000000000000046
 40
1.0
 40
1.0
 40
1.0
 40
1.0
 10
95.00183490499178
 20
86.81818926027965
 30
0.0
 10
95.05037931364896
 20
86.82393757355995
 30
0.0
 10
95.10329466843386
 20
86.8208366849037
 30
0.0
 10
95.19859001341688
 20
86.79864184074137
 30
0.0
 10
95.23884101070185
 20
86.78140961364551
 30
0.0
 10
95.3431110242148
 20
86.72508169719346
 30
0.0
 10
95.39343299936814
 20
86.68089535124766
 30
0.0
 10
95.52111594689353
 20
86.54988745239703
 30
0.0
 10
95.5772013939558
 20
86.45965293216675
 30
0.0
 10
95.62354778707753
 20
86.37150739800086
 30
0.0
  0
SPLINE
  5
94
330
1F
100
AcDbEntity
  8
0
  6
Continuous
 62
     7
370
    15
100
AcDbSpline
210
0.0
220
0.0
230
1.0
 70
     8
 71
     3
 72
     8
 73
     4
 74
     0
 42
0.00000001
 43
0.00000001
 40
0.0
 40
0.0
 40
0.0
 40
0.0
 40
1.0
 40
1.0
 40
1.0
 40
1.0
 10
92.73330981204556
 20
86.50834397369685
 30
0.0
 10
93.46788683852853
 20
86.62696898476581
 30
0.0
 10
94.23136190792417
 20
86.7269548569021
 30
0.0
 10
95.00183490499178
 20
86.81818926027965
 30
0.0
  0
SPLINE
  5
95
330
1F
100
AcDbEntity
  8
0
  6
Continuous
 62
     7
370
    15
100
AcDbSpline
210
0.0
220
0.0
230
1.0
 70
     8
 71
     3
 72
    14
 73
    10
 74
     0
 42
0.00000001
 43
0.00000001
 40
0.0
 40
0.0
 40
0.0
 40
0.0
 40
0.4999999999999989
 40
0.4999999999999989
 40
0.7499999999999983
 40
0.7499999999999983
 40
0.8749999999999991
 40
0.8749999999999991
 40
1.0
 40
1.0
 40
1.0
 40
1.0
 10
87.45183490499178
 20
86.3347209561652
 30
0.0
 10
88.34398103554535
 20
86.33399872996456
 30
0.0
 10
89.23395747133894
 20
86.33858493642202
 30
0.0
 10
90.56055263841456
 20
86.36630994081357
 30
0.0
 10
91.00139956691329
 20
86.37891647843772
 30
0.0
 10
91.6578398043357
 20
86.40993262644517
 30
0.0
 10
91.87585346092759
 20
86.42227579907195
 30
0.0
 10
92.30856231461034
 20
86.45529985423521
 30
0.0
 10
92.52383877977515
 20
86.47451701937365
 30
0.0
 10
92.73330981204555
 20
86.50834397369687
 30
0.0
  0
SPLINE
  5
96
330
1F
100
AcDbEntity
  8
0
  6
Continuous
 62
     7
370
    15
100
AcDbSpline
210
0.0
220
0.0
230
1.0
 70
     8
 71
     3
 72
     8
 73
     4
 74
     0
 42
0.00000001
 43
0.00000001
 40
0.0000005163856998
 40
0.0000005163856998
 40
0.0000005163856998
 40
0.0000005163856998
 40
0.000026289209185
 40
0.000026289209185
 40
0.000026289209185
 40
0.000026289209185
 10
87.44178997458418
 20
86.34470482926199
 30
0.0
 10
87.44511771279201
 20
86.34137058239287
 30
0.0
 10
87.44846616576761
 20
86.33804262511755
 30
0.0
 10
87.45183490499177
 20
86.3347209561652
 30
0.0
  0
SPLINE
  5
97
330
1F
100
AcDbEntity
  8
0
  6
Continuous
 62
     7
370
    15
100
AcDbSpline
210
0.0
220
0.0
230
1.0
 70
     8
 71
     3
 72
     8
 73
     4
 74
     0
 42
0.00000001
 43
0.00000001
 40
0.0000005099763573
 40
0.0000005099763573
 40
0.0000005099763573
 40
0.0000005099763573
 40
0.0000262827998699
 40
0.0000262827998699
 40
0.0000262827998699
 40
0.0000262827998699
 10
87.45183490499177
 20
128.0745964869554
 30
0.0
 10
87.44846616576403
 20
128.0712748179995
 30
0.0
 10
87.44511771278488
 20
128.0679468607206
 30
0.0
 10
87.44178997457355
 20
128.0646126138479
 30
0.0
  0
SPLINE
  5
98
330
1F
100
AcDbEntity
  8
0
  6
Continuous
 62
     7
370
    15
100
AcDbSpline
210
0.0
220
0.0
230
1.0
 70
     8
 71
     3
 72
    10
 73
     6
 74
     0
 42
0.00000001
 43
0.00000001
 40
0.0
 40
0.0
 40
0.0
 40
0.0
 40
0.5
 40
0.5
 40
1.0
 40
1.0
 40
1.0
 40
1.0
 10
91.00183490499178
 20
128.027746113388
 30
0.0
 10
90.4142493579012
 20
128.0488116336244
 30
0.0
 10
89.8235029644408
 20
128.0595701194966
 30
0.0
 10
88.63948379914194
 20
128.0729349000323
 30
0.0
 10
88.04606981093649
 20
128.0750775426969
 30
0.0
 10
87.45183490499178
 20
128.0745964869554
 30
0.0
  0
SPLINE
  5
99
330
1F
100
AcDbEntity
  8
0
  6
Continuous
 62
     7
370
    15
100
AcDbSpline
210
0.0
220
0.0
230
1.0
 70
     8
 71
     3
 72
    18
 73
    14
 74
     0
 42
0.00000001
 43
0.00000001
 40
0.0
 40
0.0
 40
0.0
 40
0.0
 40
0.2499999999999991
 40
0.2499999999999991
 40
0.499999999999999
 40
0.499999999999999
 40
0.7499999999999989
 40
0.7499999999999989
 40
0.8749999999999999
 40
0.8749999999999999
 40
0.9374999999999999
 40
0.9374999999999999
 40
1.0
 40
1.0
 40
1.0
 40
1.0
 10
92.4018349049918
 20
129.0487663939233
 30
0.0
 10
92.4018349049918
 20
128.9655594850661
 30
0.0
 10
92.36598580505354
 20
128.8768228297525
 30
0.0
 10
92.2411140690196
 20
128.6946976391922
 30
0.0
 10
92.15071365137175
 20
128.5995675905656
 30
0.0
 10
91.92847099662957
 20
128.4103860814413
 30
0.0
 10
91.7987062101838
 20
128.3154409133466
 30
0.0
 10
91.55806875287227
 20
128.1771622057667
 30
0.0
 10
91.47030145473484
 20
128.1314517724643
 30
0.0
 10
91.31577736752803
 20
128.0736284672428
 30
0.0
 10
91.25916648147327
 20
128.055913703205
 30
0.0
 10
91.13512245056668
 20
128.031374399972
 30
0.0
 10
91.06740777554836
 20
128.0253952614338
 30
0.0
 10
91.0018349049918
 20
128.027746113388
 30
0.0
  0
LINE
  5
9A
330
1F
100
AcDbEntity
  8
0
  6
Continuous
 62
     7
370
    15
100
AcDbLine
 10
92.401834905
 20
129.0487663939
 30
0.0
 11
92.401834905
 21
130.2327048137
 31
0.0
  0
LINE
  5
9B
330
1F
100
AcDbEntity
  8
0
  6
Continuous
 62
     7
370
    15
100
AcDbLine
 10
116.201834905
 20
82.9842278598
 30
0.0
 11
116.201834905
 21
131.4250895833
 31
0.0
  0
SPLINE
  5
9C
330
1F
100
AcDbEntity
  8
0
  6
Continuous
 62
     7
370
    15
100
AcDbSpline
210
0.0
220
0.0
230
1.0
 70
     8
 71
     3
 72
    24
 73
    20
 74
     0
 42
0.00000001
 43
0.00000001
 40
0.0
 40
0.0
 40
0.0
 40
0.0
 40
0.0010489762969683
 40
0.0637843125636769
 40
0.1272220590447979
 40
0.190378892448547
 40
0.2526748653693617
 40
0.3146354154430339
 40
0.3770891997149997
 40
0.4393540298511558
 40
0.5008133242537859
 40
0.56218451045969
 40
0.6248438451115955
 40
0.6874304766618995
 40
0.749674317467912
 40
0.8119848426969831
 40
0.8750960525413152
 40
0.9384412526965837
 40
1.0
 40
1.0
 40
1.0
 40
1.0
 10
104.9707407369675
 20
83.54715029298013
 30
0.0
 10
104.9702942768633
 20
83.54709200716124
 30
0.0
 10
104.9431467131693
 20
83.54354786521854
 30
0.0
 10
105.0387584907817
 20
83.55638160990159
 30
0.0
 10
105.2723187486768
 20
83.58562829510151
 30
0.0
 10
105.6678730559949
 20
83.6322426181644
 30
0.0
 10
106.1949133598337
 20
83.68242575982379
 30
0.0
 10
106.8384437718219
 20
83.7268022222742
 30
0.0
 10
107.5771176270665
 20
83.75374700321173
 30
0.0
 10
108.3746321324984
 20
83.7572188539179
 30
0.0
 10
109.2012110149448
 20
83.72959160988778
 30
0.0
 10
110.0267340325532
 20
83.67111272091512
 30
0.0
 10
110.8188605805545
 20
83.5856676915542
 30
0.0
 10
111.5514328545518
 20
83.48393345171765
 30
0.0
 10
112.1870730912819
 20
83.37609032974594
 30
0.0
 10
112.7089841982933
 20
83.27446017300683
 30
0.0
 10
113.0906129754066
 20
83.19197501632839
 30
0.0
 10
113.3414274456425
 20
83.13582580997856
 30
0.0
 10
113.3705490016265
 20
83.12897635136481
 30
0.0
 10
113.3849015224425
 20
83.12560060463666
 30
0.0
  0
SPLINE
  5
9D
330
1F
100
AcDbEntity
  8
0
  6
Continuous
 62
     7
370
    15
100
AcDbSpline
210
0.0
220
0.0
230
1.0
 70
     8
 71
     3
 72
    24
 73
    20
 74
     0
 42
0.00000001
 43
0.00000001
 40
0.0
 40
0.0
 40
0.0
 40
0.0
 40
0.0614384276252095
 40
0.1250736755369691
 40
0.1884253490731512
 40
0.2508623904037511
 40
0.3129665632512957
 40
0.3753451453465188
 40
0.4377328972324856
 40
0.4990927322917281
 40
0.5605807588449117
 40
0.622946989302896
 40
0.6854686282028133
 40
0.7475477813740252
 40
0.8098225060806654
 40
0.8730684085990508
 40
0.9364041844531371
 40
0.9991757196257861
 40
1.0
 40
1.0
 40
1.0
 40
1.0
 10
113.3848467516395
 20
131.2836876960177
 30
0.0
 10
113.3702460273359
 20
131.280319639165
 30
0.0
 10
113.3405225086075
 20
131.2734630956912
 30
0.0
 10
113.0877846929588
 20
131.2171244751652
 30
0.0
 10
112.7047887765098
 20
131.1342673930352
 30
0.0
 10
112.1824331920716
 20
131.0323603630839
 30
0.0
 10
111.5476487140717
 20
130.9245212240402
 30
0.0
 10
110.8174251098996
 20
130.823054272065
 30
0.0
 10
110.0269565246661
 20
130.7379945583745
 30
0.0
 10
109.2024730098374
 20
130.679790264488
 30
0.0
 10
108.3754365509537
 20
130.6522068256613
 30
0.0
 10
107.5771122833014
 20
130.6556998031543
 30
0.0
 10
106.8372883190131
 20
130.6826557230075
 30
0.0
 10
106.1930340860373
 20
130.7270096650067
 30
0.0
 10
105.6656268308221
 20
130.7772151147645
 30
0.0
 10
105.2709622286723
 20
130.8238249699627
 30
0.0
 10
105.038432949488
 20
130.8530205625104
 30
0.0
 10
104.9430529169346
 20
130.8657986314516
 30
0.0
 10
104.9699865538364
 20
130.8622443729437
 30
0.0
 10
104.9703356470607
 20
130.8621983053603
 30
0.0
  0
SPLINE
  5
9E
330
1F
100
AcDbEntity
  8
0
  6
Continuous
 62
     7
370
    15
100
AcDbSpline
210
0.0
220
0.0
230
1.0
 70
     8
 71
     3
 72
    10
 73
     6
 74
     0
 42
0.00000001
 43
0.00000001
 40
0.0
 40
0.0
 40
0.0
 40
0.0
 40
0.0840381716606348
 40
0.7011125076933074
 40
1.0
 40
1.0
 40
1.0
 40
1.0
 10
86.31538186752746
 20
87.47588481387695
 30
0.0
 10
86.31605642486237
 20
87.47367918704104
 30
0.0
 10
86.32168411255857
 20
87.45527811367883
 30
0.0
 10
86.34800559268542
 20
87.469512676402
 30
0.0
 10
86.36044060953013
 20
87.515198451953
 30
0.0
 10
86.36449827971518
 20
87.53010617677955
 30
0.0
  0
LINE
  5
9F
330
1F
100
AcDbEntity
  8
0
  6
Continuous
 62
     7
370
    15
100
AcDbLine
 10
86.301834905
 20
87.5139809751
 30
0.0
 11
86.301834905
 21
126.895336468
 31
0.0
  0
SPLINE
  5
A0
330
1F
100
AcDbEntity
  8
0
  6
Continuous
 62
     7
370
    15
100
AcDbSpline
210
0.0
220
0.0
230
1.0
 70
     8
 71
     3
 72
    10
 73
     6
 74
     0
 42
0.00000001
 43
0.00000001
 40
0.0
 40
0.0
 40
0.0
 40
0.0
 40
0.3981552638809415
 40
0.8068145697130351
 40
1.0
 40
1.0
 40
1.0
 40
1.0
 10
86.36449827971518
 20
126.879211266341
 30
0.0
 10
86.35883477499071
 20
126.8980530508919
 30
0.0
 10
86.34735835224345
 20
126.9362336996842
 30
0.0
 10
86.32384412426921
 20
126.9498169835518
 30
0.0
 10
86.31882816845143
 20
126.9341166894317
 30
0.0
 10
86.31721810272383
 20
126.9290770705845
 30
0.0
  0
SPLINE
  5
A1
330
1F
100
AcDbEntity
  8
0
  6
Continuous
 62
     7
370
    15
100
AcDbSpline
210
0.0
220
0.0
230
1.0
 70
     8
 71
     3
 72
    26
 73
    22
 74
     0
 42
0.00000001
 43
0.00000001
 40
0.0
 40
0.0
 40
0.0
 40
0.0
 40
0.2500000000000165
 40
0.2500000000000165
 40
0.3750000000000256
 40
0.3750000000000256
 40
0.4375000000000291
 40
0.4375000000000291
 40
0.4687500000000291
 40
0.4687500000000291
 40
0.5000000000000292
 40
0.5000000000000292
 40
0.5312500000000293
 40
0.5312500000000293
 40
0.5625000000000293
 40
0.5625000000000293
 40
0.625000000000026
 40
0.625000000000026
 40
0.7500000000000173
 40
0.7500000000000173
 40
1.0
 40
1.0
 40
1.0
 40
1.0
 10
87.1259885510963
 20
127.5947780551581
 30
0.0
 10
87.08738802822782
 20
127.4770033588027
 30
0.0
 10
87.04109102567357
 20
127.3526136726408
 30
0.0
 10
86.94715167723965
 20
127.1473943402873
 30
0.0
 10
86.91184021032619
 20
127.0758214738408
 30
0.0
 10
86.8456602345805
 20
126.9598682412404
 30
0.0
 10
86.82112186791228
 20
126.9192837064301
 30
0.0
 10
86.7777491223585
 20
126.8551420245584
 30
0.0
 10
86.76224072093329
 20
126.8332755992733
 30
0.0
 10
86.72719807634627
 20
126.7876813309302
 30
0.0
 10
86.7076477856265
 20
126.7640110399627
 30
0.0
 10
86.66572050525589
 20
126.7193944806228
 30
0.0
 10
86.64306839502426
 20
126.6985144681049
 30
0.0
 10
86.60209468093761
 20
126.667641054354
 30
0.0
 10
86.58449538104219
 20
126.6578021845216
 30
0.0
 10
86.53986839518605
 20
126.6388125688255
 30
0.0
 10
86.51930917253272
 20
126.638488244172
 30
0.0
 10
86.46818373303606
 20
126.6477116850482
 30
0.0
 10
86.4472723200475
 20
126.6689585812652
 30
0.0
 10
86.39582241248658
 20
126.742927460096
 30
0.0
 10
86.37815711318203
 20
126.8090455534107
 30
0.0
 10
86.36449827971519
 20
126.879211266341
 30
0.0
  0
SPLINE
  5
A2
330
1F
100
AcDbEntity
  8
0
  6
Continuous
 62
     7
370
    15
100
AcDbSpline
210
0.0
220
0.0
230
1.0
 70
     8
 71
     3
 72
    10
 73
     6
 74
     0
 42
0.00000001
 43
0.00000001
 40
0.0
 40
0.0
 40
0.0
 40
0.0
 40
0.5
 40
0.5
 40
1.0
 40
1.0
 40
1.0
 40
1.0
 10
87.44178997457358
 20
128.0646126138479
 30
0.0
 10
87.37423071965533
 20
127.9969212210382
 30
0.0
 10
87.31059406431885
 20
127.9222140562845
 30
0.0
 10
87.200373309747
 20
127.7632479238579
 30
0.0
 10
87.15355701652436
 20
127.6788926578499
 30
0.0
 10
87.1259885510963
 20
127.5947780551581
 30
0.0
  0
SPLINE
  5
A3
330
1F
100
AcDbEntity
  8
0
  6
Continuous
 62
     7
370
    15
100
AcDbSpline
210
0.0
220
0.0
230
1.0
 70
     8
 71
     3
 72
    10
 73
     6
 74
     0
 42
0.00000001
 43
0.00000001
 40
0.0
 40
0.0
 40
0.0
 40
0.0
 40
0.5
 40
0.5
 40
1.0
 40
1.0
 40
1.0
 40
1.0
 10
87.12598855109634
 20
86.81453938796231
 30
0.0
 10
87.1534659658503
 20
86.73070259149443
 30
0.0
 10
87.20017459613973
 20
86.64639210390528
 30
0.0
 10
87.31045305888568
 20
86.48727087341858
 30
0.0
 10
87.37434059749958
 20
86.41228612932893
 30
0.0
 10
87.4417899745842
 20
86.34470482926199
 30
0.0
  0
SPLINE
  5
A4
330
1F
100
AcDbEntity
  8
0
  6
Continuous
 62
     7
370
    15
100
AcDbSpline
210
0.0
220
0.0
230
1.0
 70
     8
 71
     3
 72
    24
 73
    20
 74
     0
 42
0.00000001
 43
0.00000001
 40
0.0
 40
0.0
 40
0.0
 40
0.0
 40
0.25
 40
0.25
 40
0.374999999999999
 40
0.374999999999999
 40
0.4374999999999993
 40
0.4374999999999993
 40
0.4687499999999994
 40
0.4687499999999994
 40
0.4999999999999995
 40
0.4999999999999995
 40
0.5624999999999971
 40
0.5624999999999971
 40
0.6249999999999947
 40
0.6249999999999947
 40
0.7499999999999947
 40
0.7499999999999947
 40
1.0
 40
1.0
 40
1.0
 40
1.0
 10
86.36449827971519
 20
87.53010617677953
 30
0.0
 10
86.37825139838543
 20
87.60075623476982
 30
0.0
 10
86.3960239657913
 20
87.66735434753475
 30
0.0
 10
86.44827505734665
 20
87.74145236776795
 30
0.0
 10
86.4693101329282
 20
87.76271017492951
 30
0.0
 10
86.52221054055664
 20
87.77085610107575
 30
0.0
 10
86.54331621343455
 20
87.76991629767998
 30
0.0
 10
86.58936838211253
 20
87.74890030610264
 30
0.0
 10
86.60773885409593
 20
87.73799149999502
 30
0.0
 10
86.64929048916161
 20
87.70535658904765
 30
0.0
 10
86.67185716191852
 20
87.68386460867627
 30
0.0
 10
86.73463817837853
 20
87.61539866508997
 30
0.0
 10
86.76776793934644
 20
87.56932420688487
 30
0.0
 10
86.82468562583145
 20
87.48431631855021
 30
0.0
 10
86.84887165133523
 20
87.44403601736883
 30
0.0
 10
86.91407960171499
 20
87.32909979090287
 30
0.0
 10
86.94879566190622
 20
87.25851680575587
 30
0.0
 10
87.0420109322371
 20
87.05431104667727
 30
0.0
 10
87.0876834675978
 20
86.9314126643499
 30
0.0
 10
87.12598855109633
 20
86.81453938796233
 30
0.0
  0
LINE
  5
A5
330
1F
100
AcDbEntity
  8
0
  6
Continuous
 62
     7
370
    15
100
AcDbLine
 10
138.111834905
 20
127.340525353
 30
0.0
 11
138.111834905
 21
128.2548023891
 31
0.0
  0
SPLINE
  5
A6
330
1F
100
AcDbEntity
  8
0
  6
Continuous
 62
     7
370
    15
100
AcDbSpline
210
0.0
220
0.0
230
1.0
 70
     8
 71
     3
 72
     8
 73
     4
 74
     0
 42
0.00000001
 43
0.00000001
 40
0.0
 40
0.0
 40
0.0
 40
0.0
 40
1.0
 40
1.0
 40
1.0
 40
1.0
 10
138.1118349049918
 20
128.2548023891436
 30
0.0
 10
138.5911130555816
 20
129.3958136189962
 30
0.0
 10
139.0866808947216
 20
130.532198029764
 30
0.0
 10
139.5937677364809
 20
131.6633483839277
 30
0.0
  0
LINE
  5
A7
330
1F
100
AcDbEntity
  8
0
  6
Continuous
 62
     7
370
    15
100
AcDbLine
 10
139.5937677365
 20
131.6633483839
 30
0.0
 11
143.551834905
 21
131.6633483839
 31
0.0
  0
SPLINE
  5
A8
330
1F
100
AcDbEntity
  8
0
  6
Continuous
 62
     7
370
    15
100
AcDbSpline
210
0.0
220
0.0
230
1.0
 70
     8
 71
     3
 72
    12
 73
     8
 74
     0
 42
0.00000001
 43
0.00000001
 40
0.0
 40
0.0
 40
0.0
 40
0.0
 40
0.250000000000002
 40
0.250000000000002
 40
0.500000000000004
 40
0.500000000000004
 40
1.0
 40
1.0
 40
1.0
 40
1.0
 10
143.5518349049918
 20
131.6633483839277
 30
0.0
 10
143.6430346268175
 20
131.6633483839277
 30
0.0
 10
143.7336296359535
 20
131.6351286853398
 30
0.0
 10
143.8870423624001
 20
131.5406856780917
 30
0.0
 10
143.9522512297238
 20
131.4743987013864
 30
0.0
 10
144.1050357590637
 20
131.2487738780981
 30
0.0
 10
144.1518349049918
 20
131.0663476150656
 30
0.0
 10
144.1518349049918
 20
130.8856109828187
 30
0.0
  0
LINE
  5
A9
330
1F
100
AcDbEntity
  8
0
  6
Continuous
 62
     7
370
    15
100
AcDbLine
 10
144.151834905
 20
130.8856109828
 30
0.0
 11
144.151834905
 21
127.0546587216
 31
0.0
  0
SPLINE
  5
AA
330
1F
100
AcDbEntity
  8
0
  6
Continuous
 62
     7
370
    15
100
AcDbSpline
210
0.0
220
0.0
230
1.0
 70
     8
 71
     3
 72
     8
 73
     4
 74
     0
 42
0.00000001
 43
0.00000001
 40
0.0
 40
0.0
 40
0.0
 40
0.0
 40
1.0
 40
1.0
 40
1.0
 40
1.0
 10
134.2918349049918
 20
135.0098929127319
 30
0.0
 10
133.799124808146
 20
135.8979119108583
 30
0.0
 10
133.305042102867
 20
136.7851745465443
 30
0.0
 10
132.8099020735027
 20
137.6718541947245
 30
0.0
  0
SPLINE
  5
AB
330
1F
100
AcDbEntity
  8
0
  6
Continuous
 62
     7
370
    15
100
AcDbSpline
210
0.0
220
0.0
230
1.0
 70
     8
 71
     3
 72
     8
 73
     4
 74
     0
 42
0.00000001
 43
0.00000001
 40
0.0
 40
0.0
 40
0.0
 40
0.0
 40
1.0
 40
1.0
 40
1.0
 40
1.0
 10
132.8099020735027
 20
131.6633483839277
 30
0.0
 10
133.316988915262
 20
130.5321980297641
 30
0.0
 10
133.8125567544019
 20
129.3958136189962
 30
0.0
 10
134.2918349049918
 20
128.2548023891436
 30
0.0
  0
LINE
  5
AC
330
1F
100
AcDbEntity
  8
0
  6
Continuous
 62
     7
370
    15
100
AcDbLine
 10
134.291834905
 20
128.2548023891
 30
0.0
 11
134.291834905
 21
135.0098929127
 31
0.0
  0
SPLINE
  5
AD
330
1F
100
AcDbEntity
  8
0
  6
Continuous
 62
     7
370
    15
100
AcDbSpline
210
0.0
220
0.0
230
1.0
 70
     8
 71
     3
 72
     8
 73
     4
 74
     0
 42
0.00000001
 43
0.00000001
 40
0.0
 40
0.0
 40
0.0
 40
0.0
 40
1.0
 40
1.0
 40
1.0
 40
1.0
 10
139.5937677364809
 20
137.6718541947245
 30
0.0
 10
139.0986277071165
 20
136.7851745465443
 30
0.0
 10
138.6045450018376
 20
135.8979119108583
 30
0.0
 10
138.1118349049918
 20
135.0098929127319
 30
0.0
  0
LINE
  5
AE
330
1F
100
AcDbEntity
  8
0
  6
Continuous
 62
     7
370
    15
100
AcDbLine
 10
139.5937677365
 20
131.6633483839
 30
0.0
 11
139.5937677365
 21
137.6718541947
 31
0.0
  0
LINE
  5
AF
330
1F
100
AcDbEntity
  8
0
  6
Continuous
 62
     7
370
    15
100
AcDbLine
 10
138.111834905
 20
128.2548023891
 30
0.0
 11
138.111834905
 21
135.0098929127
 31
0.0
  0
SPLINE
  5
B0
330
1F
100
AcDbEntity
  8
0
  6
Continuous
 62
     7
370
    15
100
AcDbSpline
210
0.0
220
0.0
230
1.0
 70
     8
 71
     3
 72
    10
 73
     6
 74
     0
 42
0.00000001
 43
0.00000001
 40
0.0
 40
0.0
 40
0.0
 40
0.0
 40
0.5
 40
0.5
 40
1.0
 40
1.0
 40
1.0
 40
1.0
 10
144.1518349049918
 20
137.0510990453242
 30
0.0
 10
144.1518349049918
 20
137.211504311675
 30
0.0
 10
144.0895970738849
 20
137.3705661246636
 30
0.0
 10
143.8704621501423
 20
137.6014785902939
 30
0.0
 10
143.7128734551505
 20
137.6718541947245
 30
0.0
 10
143.5518349049918
 20
137.6718541947245
 30
0.0
  0
LINE
  5
B1
330
1F
100
AcDbEntity
  8
0
  6
Continuous
 62
     7
370
    15
100
AcDbLine
 10
144.151834905
 20
130.8856109828
 30
0.0
 11
144.151834905
 21
137.0510990453
 31
0.0
  0
LINE
  5
B2
330
1F
100
AcDbEntity
  8
0
  6
Continuous
 62
     7
370
    15
100
AcDbLine
 10
134.291834905
 20
128.2548023891
 30
0.0
 11
134.291834905
 21
127.340525353
 31
0.0
  0
LINE
  5
B3
330
1F
100
AcDbEntity
  8
0
  6
Continuous
 62
     7
370
    15
100
AcDbLine
 10
143.551834905
 20
137.6718541947
 30
0.0
 11
139.5937677365
 21
137.6718541947
 31
0.0
  0
ARC
  5
B4
330
1F
100
AcDbEntity
  8
0
  6
Continuous
 62
     7
370
    15
100
AcDbCircle
 10
126.2020481372
 20
125.902092598
 30
0.0
 40
7.256731394571228
100
AcDbArc
 50
70.784033514
 51
109.2716389961
  0
SPLINE
  5
B5
330
1F
100
AcDbEntity
  8
0
  6
Continuous
 62
     7
370
    15
100
AcDbSpline
210
0.0
220
0.0
230
1.0
 70
     8
 71
     3
 72
    62
 73
    58
 74
     0
 42
0.00000001
 43
0.00000001
 40
-0.0312499999999998
 40
-0.0312499999999998
 40
0.0
 40
0.0
 40
0.0625000000000003
 40
0.0625000000000003
 40
0.1250000000000006
 40
0.1250000000000006
 40
0.1875000000000009
 40
0.1875000000000009
 40
0.2500000000000013
 40
0.2500000000000013
 40
0.2812500000000011
 40
0.2812500000000011
 40
0.3125000000000008
 40
0.3125000000000008
 40
0.3437500000000006
 40
0.3437500000000006
 40
0.3750000000000003
 40
0.3750000000000003
 40
0.4062500000000001
 40
0.4062500000000001
 40
0.4374999999999999
 40
0.4374999999999999
 40
0.4999999999999999
 40
0.4999999999999999
 40
0.5312499999999999
 40
0.5312499999999999
 40
0.5625
 40
0.5625
 40
0.59375
 40
0.59375
 40
0.6250000000000001
 40
0.6250000000000001
 40
0.6562500000000001
 40
0.6562500000000001
 40
0.6875000000000002
 40
0.6875000000000002
 40
0.7187500000000002
 40
0.7187500000000002
 40
0.7500000000000002
 40
0.7500000000000002
 40
0.7812500000000003
 40
0.7812500000000003
 40
0.8125000000000003
 40
0.8125000000000003
 40
0.8437500000000004
 40
0.8437500000000004
 40
0.8593750000000004
 40
0.8593750000000004
 40
0.8750000000000003
 40
0.8750000000000003
 40
0.9062500000000003
 40
0.9062500000000003
 40
0.9375000000000002
 40
0.9375000000000002
 40
0.9687500000000002
 40
0.9687500000000002
 40
1.0
 40
1.0
 40
1.0625
 40
1.0625
 10
152.6664569184805
 20
109.2594359310413
 30
0.0
 10
153.1756533285551
 20
109.6375583988711
 30
0.0
 10
153.5506082748446
 20
109.8225860615973
 30
0.0
 10
154.3591118561756
 20
110.0731503395368
 30
0.0
 10
154.7751827711963
 20
110.1325839479592
 30
0.0
 10
155.6226978169955
 20
110.1228265133429
 30
0.0
 10
156.03521140997
 20
110.0542730219946
 30
0.0
 10
156.8371627125633
 20
109.7850629355732
 30
0.0
 10
157.2068032727639
 20
109.5911787205022
 30
0.0
 10
157.7034705439597
 20
109.2020351890004
 30
0.0
 10
157.8571977181002
 20
109.0566176913782
 30
0.0
 10
158.1297887094989
 20
108.7400044585006
 30
0.0
 10
158.2512702192289
 20
108.5655801953651
 30
0.0
 10
158.4501089033334
 20
108.1937737946304
 30
0.0
 10
158.526947928271
 20
107.9986111104801
 30
0.0
 10
158.6302695315632
 20
107.5875168554569
 30
0.0
 10
158.6548957916984
 20
107.3763912333483
 30
0.0
 10
158.6481602522336
 20
106.9563767446725
 30
0.0
 10
158.6160639809227
 20
106.7431671693737
 30
0.0
 10
158.500725368798
 20
106.3385777096716
 30
0.0
 10
158.4166970480846
 20
106.1424353785305
 30
0.0
 10
158.102083595283
 20
105.593551626047
 30
0.0
 10
157.8097003654636
 20
105.279148380296
 30
0.0
 10
157.3056560514364
 20
104.9030979725917
 30
0.0
 10
157.1241756433561
 20
104.7918865268203
 30
0.0
 10
156.7485832138752
 20
104.6033260886689
 30
0.0
 10
156.5540819831496
 20
104.5253211726781
 30
0.0
 10
156.1521889469423
 20
104.4002639366567
 30
0.0
 10
155.9439362366228
 20
104.3533860501661
 30
0.0
 10
155.5280117300288
 20
104.2932298118448
 30
0.0
 10
155.31874751469
 20
104.2793273136678
 30
0.0
 10
154.8976136217134
 20
104.2838205586982
 30
0.0
 10
154.6846396337879
 20
104.3026533761726
 30
0.0
 10
154.2703843775818
 20
104.3721255438761
 30
0.0
 10
154.0674238358782
 20
104.4226035626254
 30
0.0
 10
153.6699914001733
 20
104.5558734530891
 30
0.0
 10
153.4738013168613
 20
104.6397406411604
 30
0.0
 10
153.1038928769078
 20
104.8365761268233
 30
0.0
 10
152.9290939736812
 20
104.949523549833
 30
0.0
 10
152.601066931391
 20
105.2066692766318
 30
0.0
 10
152.4461874870744
 20
105.3528555076694
 30
0.0
 10
152.1720000606198
 20
105.6716740011124
 30
0.0
 10
152.0524267867831
 20
105.8436226036596
 30
0.0
 10
151.8531694704359
 20
106.2163394982438
 30
0.0
 10
151.7755846476919
 20
106.4147012078458
 30
0.0
 10
151.6992409728862
 20
106.7192539475527
 30
0.0
 10
151.6801997928963
 20
106.8225016549251
 30
0.0
 10
151.6557003374187
 20
107.0326701925135
 30
0.0
 10
151.6503683420976
 20
107.1400485955981
 30
0.0
 10
151.6558296838076
 20
107.457182735155
 30
0.0
 10
151.6872038120717
 20
107.6653256796809
 30
0.0
 10
151.804381290944
 20
108.0751891540266
 30
0.0
 10
151.8879783596668
 20
108.2690257740971
 30
0.0
 10
152.0982360883566
 20
108.635064164608
 30
0.0
 10
152.2251449641893
 20
108.8066470460664
 30
0.0
 10
152.5079442604216
 20
109.1173016585436
 30
0.0
 10
152.6664569184805
 20
109.2594359310413
 30
0.0
 10
153.1756533285551
 20
109.6375583988711
 30
0.0
  0
CIRCLE
  5
B6
330
1F
100
AcDbEntity
  8
0
  6
Continuous
 62
     7
370
    15
100
AcDbCircle
 10
155.151834905
 20
107.2046587216
 30
0.0
 40
2.5
  0
LINE
  5
B7
330
1F
100
AcDbEntity
  8
0
  6
Continuous
 62
     7
370
    15
100
AcDbLine
 10
166.4363230646
 20
94.2046587216
 30
0.0
 11
166.4363230646
 21
120.2046587216
 31
0.0
  0
LINE
  5
B8
330
1F
100
AcDbEntity
  8
0
  6
Continuous
 62
     7
370
    15
100
AcDbLine
 10
152.8361890543
 20
120.0204315312
 30
0.0
 11
152.8979968842
 21
120.0134454491
 31
0.0
  0
SPLINE
  5
B9
330
1F
100
AcDbEntity
  8
0
  6
Continuous
 62
     7
370
    15
100
AcDbSpline
210
0.0
220
0.0
230
1.0
 70
     8
 71
     3
 72
    27
 73
    23
 74
     0
 42
0.00000001
 43
0.00000001
 40
0.0
 40
0.0
 40
0.0
 40
0.0
 40
0.0347302714021781
 40
0.0735820187886929
 40
0.1134595782414774
 40
0.1544727354608316
 40
0.1963831522493457
 40
0.2439039159832775
 40
0.2924245459852248
 40
0.3484098651537471
 40
0.4056877856677099
 40
0.4684121588826781
 40
0.5328102279474577
 40
0.598097755085612
 40
0.6653178267380396
 40
0.7296994998496803
 40
0.796335729711376
 40
0.8429468136982224
 40
0.8907998295916771
 40
0.9374726292129574
 40
0.9859443505327977
 40
1.0
 40
1.0
 40
1.0
 40
1.0
 10
158.6454775789262
 20
120.2034944945884
 30
0.0
 10
158.6430747039015
 20
120.2030492242829
 30
0.0
 10
158.6379838022736
 20
120.2021058430001
 30
0.0
 10
158.545229932809
 20
120.1852305950636
 30
0.0
 10
158.3943318879701
 20
120.1586459062809
 30
0.0
 10
158.1811946336162
 20
120.1229002738015
 30
0.0
 10
157.9038346354875
 20
120.0796008654174
 30
0.0
 10
157.5617815889476
 20
120.0313587817472
 30
0.0
 10
157.1397208837157
 20
119.9799819855973
 30
0.0
 10
156.6500112879709
 20
119.9320106105176
 30
0.0
 10
156.0838659617857
 20
119.8929005799224
 30
0.0
 10
155.4676854385006
 20
119.8706258221081
 30
0.0
 10
154.8163264249251
 20
119.8708301206455
 30
0.0
 10
154.1588334645488
 20
119.8954894706021
 30
0.0
 10
153.5291646387498
 20
119.9420307455196
 30
0.0
 10
152.9435434495902
 20
120.0045574497969
 30
0.0
 10
152.480830347772
 20
120.0672246721995
 30
0.0
 10
152.1313154132759
 20
120.1213147486902
 30
0.0
 10
151.886303059164
 20
120.1625494327469
 30
0.0
 10
151.7216656312825
 20
120.1918273372634
 30
0.0
 10
151.6483016894798
 20
120.2053068107324
 30
0.0
 10
151.6576882272774
 20
120.203585538423
 30
0.0
 10
151.6597982453915
 20
120.203198610268
 30
0.0
  0
SPLINE
  5
BA
330
1F
100
AcDbEntity
  8
0
  6
Continuous
 62
     7
370
    15
100
AcDbSpline
210
0.0
220
0.0
230
1.0
 70
     8
 71
     3
 72
     9
 73
     5
 74
     0
 42
0.00000001
 43
0.00000001
 40
0.0
 40
0.0
 40
0.0
 40
0.0
 40
0.5460994395362753
 40
1.0
 40
1.0
 40
1.0
 40
1.0
 10
152.5002858473565
 20
120.0663632441732
 30
0.0
 10
152.557585638591
 20
120.0579895318516
 30
0.0
 10
152.6625112017504
 20
120.042655855024
 30
0.0
 10
152.7819676881604
 20
120.0273698551494
 30
0.0
 10
152.8361890542929
 20
120.0204315312391
 30
0.0
  0
LINE
  5
BB
330
1F
100
AcDbEntity
  8
0
  6
Continuous
 62
     7
370
    15
100
AcDbLine
 10
152.8361890544
 20
94.3888859119
 30
0.0
 11
152.751224308
 21
94.3772855873
 31
0.0
  0
SPLINE
  5
BC
330
1F
100
AcDbEntity
  8
0
  6
Continuous
 62
     7
370
    15
100
AcDbSpline
210
0.0
220
0.0
230
1.0
 70
     8
 71
     3
 72
    27
 73
    23
 74
     0
 42
0.00000001
 43
0.00000001
 40
0.0
 40
0.0
 40
0.0
 40
0.0
 40
0.0253913350109134
 40
0.0643679637617764
 40
0.1044066157468495
 40
0.1449097630967933
 40
0.1863112476835263
 40
0.2329288315492175
 40
0.2805246292507809
 40
0.3355442979921658
 40
0.3918143455944864
 40
0.4539682738434478
 40
0.5177560085409564
 40
0.5829384218893262
 40
0.6500278466115396
 40
0.7147172042268387
 40
0.7816114928147667
 40
0.8294825723018691
 40
0.8786277525813396
 40
0.9265646825374111
 40
0.9763904966922563
 40
1.0
 40
1.0
 40
1.0
 40
1.0
 10
151.6619571820381
 20
94.20651471499559
 30
0.0
 10
151.6606155593925
 20
94.20626995087821
 30
0.0
 10
151.6572144968729
 20
94.20564946488044
 30
0.0
 10
151.7322731087812
 20
94.21936966625955
 30
0.0
 10
151.8684649688551
 20
94.24357393583917
 30
0.0
 10
152.0682522480916
 20
94.27752492791113
 30
0.0
 10
152.3302173417061
 20
94.31919606025635
 30
0.0
 10
152.6561967447083
 20
94.36641770064814
 30
0.0
 10
153.060835800729
 20
94.41762864934769
 30
0.0
 10
153.5334452428403
 20
94.46672454029333
 30
0.0
 10
154.0847081058986
 20
94.50868743964476
 30
0.0
 10
154.689591876774
 20
94.5353731100305
 30
0.0
 10
155.3361140990731
 20
94.54068372965766
 30
0.0
 10
155.9945003253145
 20
94.5216475341761
 30
0.0
 10
156.6325312130976
 20
94.47968135811594
 30
0.0
 10
157.2323907773549
 20
94.41997365511948
 30
0.0
 10
157.7162162283038
 20
94.3573701348807
 30
0.0
 10
158.0909896801508
 20
94.3010887001697
 30
0.0
 10
158.3613173905844
 20
94.25647299257771
 30
0.0
 10
158.5527791566326
 20
94.22279652045647
 30
0.0
 10
158.6472946338152
 20
94.20549328671646
 30
0.0
 10
158.6440336577139
 20
94.20608986370233
 30
0.0
 10
158.6429852517329
 20
94.20628166359926
 30
0.0
  0
LINE
  5
BD
330
1F
100
AcDbEntity
  8
0
  6
Continuous
 62
     7
370
    15
100
AcDbLine
 10
152.966642052
 20
94.4043077699
 30
0.0
 11
152.8361890544
 21
94.3888859119
 31
0.0
  0
LINE
  5
BE
330
1F
100
AcDbEntity
  8
0
  6
Continuous
 62
     7
370
    15
100
AcDbLine
 10
198.201834905
 20
98.5534397049
 30
0.0
 11
198.201834905
 21
115.8558776573
 31
0.0
  0
LINE
  5
BF
330
1F
100
AcDbEntity
  8
0
  6
Continuous
 62
     7
370
    15
100
AcDbLine
 10
198.2791571121
 20
115.4220616395
 30
0.0
 11
198.201834905
 21
113.4540800526
 31
0.0
  0
LINE
  5
C0
330
1F
100
AcDbEntity
  8
0
  6
Continuous
 62
     7
370
    15
100
AcDbLine
 10
198.201834905
 20
100.9552373905
 30
0.0
 11
198.2791571121
 21
98.9872558036
 31
0.0
  0
LINE
  5
C1
330
1F
100
AcDbEntity
  8
0
  6
HIDDEN
 62
     7
370
     0
100
AcDbLine
 10
161.201834905
 20
104.8208408701
 30
0.0
 11
161.201834905
 21
110.2046587216
 31
0.0
  0
LINE
  5
C2
330
1F
100
AcDbEntity
  8
0
  6
HIDDEN
 62
     7
370
     0
100
AcDbLine
 10
161.201834905
 20
104.2046587216
 30
0.0
 11
161.201834905
 21
104.8208408701
 31
0.0
  0
LINE
  5
C3
330
1F
100
AcDbEntity
  8
0
  6
HIDDEN
 62
     7
370
     0
100
AcDbLine
 10
148.701834905
 20
104.8208408701
 30
0.0
 11
148.701834905
 21
110.2046587216
 31
0.0
  0
LINE
  5
C4
330
1F
100
AcDbEntity
  8
0
  6
HIDDEN
 62
     7
370
     0
100
AcDbLine
 10
148.701834905
 20
104.2046587216
 30
0.0
 11
148.701834905
 21
104.8208408701
 31
0.0
  0
LINE
  5
C5
330
1F
100
AcDbEntity
  8
0
  6
HIDDEN
 62
     7
370
     0
100
AcDbLine
 10
148.201834905
 20
105.2181438454
 30
0.0
 11
148.201834905
 21
109.7046587216
 31
0.0
  0
LINE
  5
C6
330
1F
100
AcDbEntity
  8
0
  6
HIDDEN
 62
     7
370
     0
100
AcDbLine
 10
148.201834905
 20
104.7046587216
 30
0.0
 11
148.201834905
 21
105.2181438454
 31
0.0
  0
LINE
  5
C7
330
1F
100
AcDbEntity
  8
0
  6
HIDDEN
 62
     7
370
     0
100
AcDbLine
 10
164.201834905
 20
107.8011520713
 30
0.0
 11
162.201834905
 21
107.8011520713
 31
0.0
  0
LINE
  5
C8
330
1F
100
AcDbEntity
  8
0
  6
HIDDEN
 62
     7
370
     0
100
AcDbLine
 10
164.201834905
 20
104.7046587216
 30
0.0
 11
164.201834905
 21
107.8011520713
 31
0.0
  0
LINE
  5
C9
330
1F
100
AcDbEntity
  8
0
  6
HIDDEN
 62
     7
370
     0
100
AcDbLine
 10
162.201834905
 20
105.0189534708
 30
0.0
 11
164.201834905
 21
105.0189534708
 31
0.0
  0
LINE
  5
CA
330
1F
100
AcDbEntity
  8
0
  6
HIDDEN
 62
     7
370
     0
100
AcDbLine
 10
164.201834905
 20
106.6081653718
 30
0.0
 11
162.201834905
 21
106.6081653718
 31
0.0
  0
LINE
  5
CB
330
1F
100
AcDbEntity
  8
0
  6
HIDDEN
 62
     7
370
     0
100
AcDbLine
 10
164.201834905
 20
109.3903639723
 30
0.0
 11
164.201834905
 21
109.7046587216
 31
0.0
  0
LINE
  5
CC
330
1F
100
AcDbEntity
  8
0
  6
HIDDEN
 62
     7
370
     0
100
AcDbLine
 10
162.201834905
 20
109.3903639723
 30
0.0
 11
164.201834905
 21
109.3903639723
 31
0.0
  0
LINE
  5
CD
330
1F
100
AcDbEntity
  8
0
  6
HIDDEN
 62
     7
370
     0
100
AcDbLine
 10
162.201834905
 20
107.8011520713
 30
0.0
 11
162.201834905
 21
109.3903639723
 31
0.0
  0
LINE
  5
CE
330
1F
100
AcDbEntity
  8
0
  6
HIDDEN
 62
     7
370
     0
100
AcDbLine
 10
162.201834905
 20
107.111100923
 30
0.0
 11
162.201834905
 21
107.8011520713
 31
0.0
  0
LINE
  5
CF
330
1F
100
AcDbEntity
  8
0
  6
HIDDEN
 62
     7
370
     0
100
AcDbLine
 10
162.201834905
 20
107.111100923
 30
0.0
 11
164.201834905
 21
107.111100923
 31
0.0
  0
LINE
  5
D0
330
1F
100
AcDbEntity
  8
0
  6
HIDDEN
 62
     7
370
     0
100
AcDbLine
 10
152.7018349049
 20
106.5385359098
 30
0.0
 11
152.7018349049
 21
107.3973834296
 31
0.0
  0
LINE
  5
D1
330
1F
100
AcDbEntity
  8
0
  6
HIDDEN
 62
     7
370
     0
100
AcDbLine
 10
159.701834905
 20
107.3973834296
 30
0.0
 11
159.701834905
 21
106.5385359098
 31
0.0
  0
LINE
  5
D2
330
1F
100
AcDbEntity
  8
0
  6
HIDDEN
 62
     7
370
     0
100
AcDbLine
 10
159.701834905
 20
108.2562309494
 30
0.0
 11
159.701834905
 21
107.3973834296
 31
0.0
  0
LINE
  5
D3
330
1F
100
AcDbEntity
  8
0
  6
HIDDEN
 62
     7
370
     0
100
AcDbLine
 10
152.7018349049
 20
107.3973834296
 30
0.0
 11
152.7018349049
 21
108.2562309494
 31
0.0
  0
LINE
  5
D4
330
1F
100
AcDbEntity
  8
0
  6
HIDDEN
 62
     7
370
     0
100
AcDbLine
 10
152.7018349049
 20
106.0127497958
 30
0.0
 11
152.7018349049
 21
106.5385359098
 31
0.0
  0
LINE
  5
D5
330
1F
100
AcDbEntity
  8
0
  6
HIDDEN
 62
     7
370
     0
100
AcDbLine
 10
152.7018349049
 20
106.5385359098
 30
0.0
 11
148.2018349049
 21
106.5385359098
 31
0.0
  0
LINE
  5
D6
330
1F
100
AcDbEntity
  8
0
  6
HIDDEN
 62
     7
370
     0
100
AcDbLine
 10
159.701834905
 20
106.5385359098
 30
0.0
 11
159.701834905
 21
106.0127497958
 31
0.0
  0
LINE
  5
D7
330
1F
100
AcDbEntity
  8
0
  6
HIDDEN
 62
     7
370
     0
100
AcDbLine
 10
159.701834905
 20
106.5385359098
 30
0.0
 11
164.201834905
 21
106.5385359098
 31
0.0
  0
LINE
  5
D8
330
1F
100
AcDbEntity
  8
0
  6
HIDDEN
 62
     7
370
     0
100
AcDbLine
 10
159.701834905
 20
108.5892923553
 30
0.0
 11
159.701834905
 21
108.2562309494
 31
0.0
  0
LINE
  5
D9
330
1F
100
AcDbEntity
  8
0
  6
HIDDEN
 62
     7
370
     0
100
AcDbLine
 10
159.701834905
 20
108.2562309494
 30
0.0
 11
162.201834905
 21
108.2562309494
 31
0.0
  0
LINE
  5
DA
330
1F
100
AcDbEntity
  8
0
  6
HIDDEN
 62
     7
370
     0
100
AcDbLine
 10
152.7018349049
 20
108.2562309494
 30
0.0
 11
152.7018349049
 21
108.5892923553
 31
0.0
  0
LINE
  5
DB
330
1F
100
AcDbEntity
  8
0
  6
HIDDEN
 62
     7
370
     0
100
AcDbLine
 10
152.7018349049
 20
108.2562309494
 30
0.0
 11
148.201834905
 21
108.2562309494
 31
0.0
  0
LINE
  5
DC
330
1F
100
AcDbEntity
  8
0
  6
HIDDEN
 62
     7
370
     0
100
AcDbLine
 10
164.201834905
 20
108.7003128239
 30
0.0
 11
164.201834905
 21
109.3903639723
 31
0.0
  0
LINE
  5
DD
330
1F
100
AcDbEntity
  8
0
  6
HIDDEN
 62
     7
370
     0
100
AcDbLine
 10
164.201834905
 20
108.7003128239
 30
0.0
 11
162.201834905
 21
108.7003128239
 31
0.0
  0
LINE
  5
DE
330
1F
100
AcDbEntity
  8
0
  6
HIDDEN
 62
     7
370
     0
100
AcDbLine
 10
159.701834905
 20
106.0127497958
 30
0.0
 11
159.701834905
 21
105.4869636819
 31
0.0
  0
LINE
  5
DF
330
1F
100
AcDbEntity
  8
0
  6
HIDDEN
 62
     7
370
     0
100
AcDbLine
 10
152.7018349049
 20
105.4869636819
 30
0.0
 11
152.7018349049
 21
106.0127497958
 31
0.0
  0
LINE
  5
E0
330
1F
100
AcDbEntity
  8
0
  6
HIDDEN
 62
     7
370
     0
100
AcDbLine
 10
159.701834905
 20
108.9223537612
 30
0.0
 11
159.701834905
 21
108.5892923553
 31
0.0
  0
LINE
  5
E1
330
1F
100
AcDbEntity
  8
0
  6
HIDDEN
 62
     7
370
     0
100
AcDbLine
 10
152.7018349049
 20
108.5892923553
 30
0.0
 11
152.7018349049
 21
108.9223537612
 31
0.0
  0
LINE
  5
E2
330
1F
100
AcDbEntity
  8
0
  6
HIDDEN
 62
     7
370
     0
100
AcDbLine
 10
152.7018349049
 20
106.1530864937
 30
0.0
 11
148.2018349049
 21
106.1530864937
 31
0.0
  0
LINE
  5
E3
330
1F
100
AcDbEntity
  8
0
  6
HIDDEN
 62
     7
370
     0
100
AcDbLine
 10
152.7018349049
 20
105.4869636819
 30
0.0
 11
148.2018349049
 21
105.4869636819
 31
0.0
  0
LINE
  5
E4
330
1F
100
AcDbEntity
  8
0
  6
HIDDEN
 62
     7
370
     0
100
AcDbLine
 10
159.701834905
 20
106.1530864937
 30
0.0
 11
162.201834905
 21
106.1530864937
 31
0.0
  0
LINE
  5
E5
330
1F
100
AcDbEntity
  8
0
  6
HIDDEN
 62
     7
370
     0
100
AcDbLine
 10
162.201834905
 20
105.7090046192
 30
0.0
 11
162.201834905
 21
106.1530864937
 31
0.0
  0
LINE
  5
E6
330
1F
100
AcDbEntity
  8
0
  6
HIDDEN
 62
     7
370
     0
100
AcDbLine
 10
164.201834905
 20
105.7090046192
 30
0.0
 11
162.201834905
 21
105.7090046192
 31
0.0
  0
LINE
  5
E7
330
1F
100
AcDbEntity
  8
0
  6
HIDDEN
 62
     7
370
     0
100
AcDbLine
 10
159.701834905
 20
105.4869636819
 30
0.0
 11
164.201834905
 21
105.4869636819
 31
0.0
  0
LINE
  5
E8
330
1F
100
AcDbEntity
  8
0
  6
HIDDEN
 62
     7
370
     0
100
AcDbLine
 10
152.7018349049
 20
107.8707815334
 30
0.0
 11
148.2018349049
 21
107.8707815334
 31
0.0
  0
LINE
  5
E9
330
1F
100
AcDbEntity
  8
0
  6
HIDDEN
 62
     7
370
     0
100
AcDbLine
 10
152.7018349049
 20
108.9223537612
 30
0.0
 11
148.2018349049
 21
108.9223537612
 31
0.0
  0
LINE
  5
EA
330
1F
100
AcDbEntity
  8
0
  6
HIDDEN
 62
     7
370
     0
100
AcDbLine
 10
159.701834905
 20
107.8707815334
 30
0.0
 11
164.201834905
 21
107.8707815334
 31
0.0
  0
LINE
  5
EB
330
1F
100
AcDbEntity
  8
0
  6
HIDDEN
 62
     7
370
     0
100
AcDbLine
 10
164.201834905
 20
108.7003128239
 30
0.0
 11
164.201834905
 21
107.8707815334
 31
0.0
  0
LINE
  5
EC
330
1F
100
AcDbEntity
  8
0
  6
HIDDEN
 62
     7
370
     0
100
AcDbLine
 10
159.701834905
 20
108.9223537612
 30
0.0
 11
164.201834905
 21
108.9223537612
 31
0.0
  0
LINE
  5
ED
330
1F
100
AcDbEntity
  8
0
  6
HIDDEN
 62
     7
370
     0
100
AcDbLine
 10
162.201834905
 20
105.0189534708
 30
0.0
 11
162.201834905
 21
105.7090046192
 31
0.0
  0
LINE
  5
EE
330
1F
100
AcDbEntity
  8
0
  6
HIDDEN
 62
     7
370
     0
100
AcDbLine
 10
162.201834905
 20
107.2982165201
 30
0.0
 11
164.201834905
 21
107.2982165201
 31
0.0
  0
LINE
  5
EF
330
1F
100
AcDbEntity
  8
0
  6
HIDDEN
 62
     7
370
     0
100
AcDbLine
 10
162.201834905
 20
106.1530864937
 30
0.0
 11
162.201834905
 21
107.111100923
 31
0.0
  0
LINE
  5
F0
330
1F
100
AcDbEntity
  8
0
  6
HIDDEN
 62
     7
370
     0
100
AcDbLine
 10
164.201834905
 20
107.8707815334
 30
0.0
 11
164.201834905
 21
107.8011520713
 31
0.0
  0
LINE
  5
F1
330
1F
100
AcDbEntity
  8
0
  6
HIDDEN
 62
     7
370
     0
100
AcDbLine
 10
132.8099020735
 20
131.6633483839
 30
0.0
 11
132.8099020735
 21
127.0546587216
 31
0.0
  0
ARC
  5
F2
330
1F
100
AcDbEntity
  8
0
  6
HIDDEN
 62
     7
370
     0
100
AcDbCircle
 10
126.4873291577
 20
119.6945132556
 30
0.0
 40
3.671058114996329
100
AcDbArc
 50
265.5396649219
 51
13.3323229707
  0
ARC
  5
F3
330
1F
100
AcDbEntity
  8
0
  6
HIDDEN
 62
     7
370
     0
100
AcDbCircle
 10
125.9171137138
 20
119.6964303664
 30
0.0
 40
3.672909414629131
100
AcDbArc
 50
167.0632686599
 51
274.4459864155
  0
LINE
  5
F4
330
1F
100
AcDbEntity
  8
0
  6
HIDDEN
 62
     7
370
     0
100
AcDbLine
 10
106.1969851096
 20
83.6800590987
 30
0.0
 11
105.9481202908
 21
83.6567961322
 31
0.0
  0
LINE
  5
F5
330
1F
100
AcDbEntity
  8
0
  6
HIDDEN
 62
     7
370
     0
100
AcDbLine
 10
105.8155595296
 20
130.7647450498
 30
0.0
 11
106.1968923893
 21
130.7292417515
 31
0.0
  0
SPLINE
  5
F6
330
1F
100
AcDbEntity
  8
0
  6
HIDDEN
 62
     7
370
     0
100
AcDbSpline
210
0.0
220
0.0
230
1.0
 70
     8
 71
     3
 72
    22
 73
    18
 74
     0
 42
0.00000001
 43
0.00000001
 40
0.0
 40
0.0
 40
0.0
 40
0.0
 40
0.069470503305567
 40
0.1409377255045835
 40
0.210413548914841
 40
0.2819466223559928
 40
0.3506518733998513
 40
0.4213897814436845
 40
0.4894670043894698
 40
0.5594810940348494
 40
0.6282706827033766
 40
0.6989997382187428
 40
0.7687375408512302
 40
0.8405098102584779
 40
0.9099666189318144
 40
0.9814998892127903
 40
1.0
 40
1.0
 40
1.0
 40
1.0
 10
111.9568369065934
 20
87.36713024574381
 30
0.0
 10
111.808663052134
 20
87.38685658555313
 30
0.0
 10
111.5080565352229
 20
87.4268762389739
 30
0.0
 10
110.9731616725421
 20
87.48224990250378
 30
0.0
 10
110.3875231198734
 20
87.52670628763158
 30
0.0
 10
109.7732904603
 20
87.55439126308376
 30
0.0
 10
109.1393738149318
 20
87.56264451655362
 30
0.0
 10
108.51722511436
 20
87.55066446167314
 30
0.0
 10
107.9112276444993
 20
87.51991370791218
 30
0.0
 10
107.3467387233729
 20
87.47444773716197
 30
0.0
 10
106.8273624857912
 20
87.41836658536238
 30
0.0
 10
106.3744969881097
 20
87.35837642304398
 30
0.0
 10
105.9957818444441
 20
87.30039650868507
 30
0.0
 10
105.7076967233689
 20
87.25147770053857
 30
0.0
 10
105.5252388268163
 20
87.2184423380128
 30
0.0
 10
105.4445808754823
 20
87.20330254175717
 30
0.0
 10
105.4588707541811
 20
87.20597449513016
 30
0.0
 10
105.4618070466532
 20
87.20652352964196
 30
0.0
  0
SPLINE
  5
F7
330
1F
100
AcDbEntity
  8
0
  6
HIDDEN
 62
     7
370
     0
100
AcDbSpline
210
0.0
220
0.0
230
1.0
 70
     8
 71
     3
 72
    30
 73
    26
 74
     0
 42
0.00000001
 43
0.00000001
 40
0.0
 40
0.0
 40
0.0
 40
0.0
 40
0.0156161600804337
 40
0.0849748372628082
 40
0.1203204532886746
 40
0.15431851909124
 40
0.2234436946574013
 40
0.2586467089786606
 40
0.2931107206687011
 40
0.3631864361325603
 40
0.3988795186727328
 40
0.4336750628309723
 40
0.4687145712104809
 40
0.5045294144990544
 40
0.5406151111978532
 40
0.5750767863722916
 40
0.6452033649630275
 40
0.6809575734718859
 40
0.7149323277721685
 40
0.784033058295527
 40
0.8192378401372485
 40
0.8533347063218409
 40
0.9226550151093995
 40
0.9579547149334489
 40
1.0
 40
1.0
 40
1.0
 40
1.0
 10
105.4549522861774
 20
127.2040744536682
 30
0.0
 10
105.4543545470923
 20
127.2041867065499
 30
0.0
 10
105.4511019689156
 20
127.2047975270272
 30
0.0
 10
105.501422871364
 20
127.19533839257
 30
0.0
 10
105.6017279004053
 20
127.1770335564739
 30
0.0
 10
105.7363448884749
 20
127.1530502511001
 30
0.0
 10
105.918403533505
 20
127.1219514569536
 30
0.0
 10
106.1453261071703
 20
127.0860323129113
 30
0.0
 10
106.4019125125476
 20
127.0477132917722
 30
0.0
 10
106.6999491710203
 20
127.007468156464
 30
0.0
 10
107.0324984250201
 20
126.9688071330616
 30
0.0
 10
107.2976961304244
 20
126.9414044743304
 30
0.0
 10
107.5767539556833
 20
126.9163596377183
 30
0.0
 10
107.8712049715775
 20
126.8941919404227
 30
0.0
 10
108.1740699048937
 20
126.8760298531527
 30
0.0
 10
108.5844558917625
 20
126.8577717481583
 30
0.0
 10
109.0052967307173
 20
126.8489245141539
 30
0.0
 10
109.4252006479462
 20
126.8503899085951
 30
0.0
 10
109.8398151687999
 20
126.8584333017624
 30
0.0
 10
110.2460362882758
 20
126.8759400873616
 30
0.0
 10
110.6355667879977
 20
126.9015054003895
 30
0.0
 10
111.0123874892361
 20
126.9316896361037
 30
0.0
 10
111.3655246489401
 20
126.9675872109511
 30
0.0
 10
111.7072761367617
 20
127.0084054888098
 30
0.0
 10
111.8689498977712
 20
127.0302904023762
 30
0.0
 10
111.9568369065934
 20
127.0421871973767
 30
0.0
  0
SPLINE
  5
F8
330
1F
100
AcDbEntity
  8
0
  6
HIDDEN
 62
     7
370
     0
100
AcDbSpline
210
0.0
220
0.0
230
1.0
 70
     8
 71
     3
 72
    15
 73
    11
 74
     0
 42
0.00000001
 43
0.00000001
 40
0.0
 40
0.0
 40
0.0
 40
0.0
 40
0.110063418724542
 40
0.2209009689825244
 40
0.3341663237413386
 40
0.4482661719592044
 40
0.5583525522743782
 40
0.7822319970743017
 40
0.8962856904736614
 40
0.9999999999999999
 40
0.9999999999999999
 40
0.9999999999999999
 40
0.9999999999999999
 10
111.9568369065934
 20
127.0421871973767
 30
0.0
 10
112.0244308928223
 20
127.0512554514532
 30
0.0
 10
112.1600942878756
 20
127.0694557412104
 30
0.0
 10
112.3405397160359
 20
127.0901767967638
 30
0.0
 10
112.5026884768784
 20
127.1069164812265
 30
0.0
 10
112.6407396746444
 20
127.119498596408
 30
0.0
 10
112.7923801393653
 20
127.1318773799944
 30
0.0
 10
112.8938273599528
 20
127.1388347663997
 30
0.0
 10
112.9452471386956
 20
127.1421317950461
 30
0.0
 10
112.9492020994375
 20
127.1423771059889
 30
0.0
 10
112.951085691228
 20
127.1424939379142
 30
0.0
  0
SPLINE
  5
F9
330
1F
100
AcDbEntity
  8
0
  6
HIDDEN
 62
     7
370
     0
100
AcDbSpline
210
0.0
220
0.0
230
1.0
 70
     8
 71
     3
 72
    12
 73
     8
 74
     0
 42
0.00000001
 43
0.00000001
 40
0.0
 40
0.0
 40
0.0
 40
0.0
 40
0.1180999897765186
 40
0.3464923168730383
 40
0.5687549525518864
 40
0.7975156872931217
 40
1.0
 40
1.0
 40
1.0
 40
1.0
 10
112.9390302628255
 20
87.26758594429272
 30
0.0
 10
112.9411529186954
 20
87.26745192097299
 30
0.0
 10
112.9473805564091
 20
87.26705871136598
 30
0.0
 10
112.8427158924082
 20
87.27368196098898
 30
0.0
 10
112.6327422753807
 20
87.29008634030382
 30
0.0
 10
112.3372838031853
 20
87.31768805203681
 30
0.0
 10
112.0783943619069
 20
87.35133285770891
 30
0.0
 10
111.9568369065934
 20
87.36713024574381
 30
0.0
  0
LINE
  5
FA
330
1F
100
AcDbEntity
  8
0
  6
HIDDEN
 62
     7
370
     0
100
AcDbLine
 10
99.2058095012
 20
90.2046587216
 30
0.0
 11
99.2058095012
 21
124.2046587216
 31
0.0
  0
LWPOLYLINE
  5
FB
330
1F
100
AcDbEntity
  8
0
  6
HIDDEN
 62
     7
370
     0
100
AcDbPolyline
 90
       15
 70
   128
 43
0.0
 10
126.201834905
 20
129.1502611362
 10
126.9588398824
 20
129.1864037417
 10
127.6884847276
 20
129.2935252702
 10
128.3643981748
 20
129.4677540705
 10
128.9621509509
 20
129.70279306
 10
129.4601387132
 20
129.9901473171
 10
129.8403628864
 20
130.3194311102
 10
130.0890811783
 20
130.6787432652
 10
130.1973042617
 20
131.0550973046
 10
130.1611206725
 20
131.4348908127
 10
129.9818381799
 20
131.8043970628
 10
129.6659365201
 20
132.1502611362
 10
129.2248332024
 20
132.4599826041
 10
128.6744708499
 20
132.7223673257
 10
128.5904546985
 20
132.7545129464
  0
LWPOLYLINE
  5
FC
330
1F
100
AcDbEntity
  8
0
  6
HIDDEN
 62
     7
370
     0
100
AcDbPolyline
 90
       15
 70
   128
 43
0.0
 10
123.8069844228
 20
132.7521889723
 10
123.7291989601
 20
132.7223673257
 10
123.1788366076
 20
132.4599826041
 10
122.7377332899
 20
132.1502611362
 10
122.4218316301
 20
131.8043970628
 10
122.2425491375
 20
131.4348908127
 10
122.2063655483
 20
131.0550973046
 10
122.3145886317
 20
130.6787432652
 10
122.5633069236
 20
130.3194311102
 10
122.9435310968
 20
129.9901473171
 10
123.4415188591
 20
129.70279306
 10
124.0392716352
 20
129.4677540705
 10
124.7151850824
 20
129.2935252702
 10
125.4448299276
 20
129.1864037417
 10
126.201834905
 20
129.1502611362
  0
SPLINE
  5
FD
330
1F
100
AcDbEntity
  8
0
  6
HIDDEN
 62
     7
370
     0
100
AcDbSpline
210
0.0
220
0.0
230
1.0
 70
     8
 71
     3
 72
    11
 73
     7
 74
     0
 42
0.00000001
 43
0.00000001
 40
0.0
 40
0.0
 40
0.0
 40
0.0
 40
0.0005779865010845
 40
0.0005779865010845
 40
0.0005779865010845
 40
0.0011559733324421
 40
0.0011559733324421
 40
0.0011559733324421
 40
0.0011559733324421
 10
86.3018349049918
 20
109.2044993297202
 30
0.0
 10
86.46850215979777
 20
109.2025156903791
 30
0.0
 10
86.63516858947543
 20
109.2004780833706
 30
0.0
 10
86.80183492792725
 20
109.1983666199641
 30
0.0
 10
86.96850135675365
 20
109.1962551554128
 30
0.0
 10
87.13516773039134
 20
109.1940695922564
 30
0.0
 10
87.3018349049918
 20
109.1917870149248
 30
0.0
  0
SPLINE
  5
FE
330
1F
100
AcDbEntity
  8
0
  6
HIDDEN
 62
     7
370
     0
100
AcDbSpline
210
0.0
220
0.0
230
1.0
 70
     8
 71
     3
 72
     8
 73
     4
 74
     0
 42
0.00000001
 43
0.00000001
 40
0.0
 40
0.0
 40
0.0
 40
0.0
 40
0.0011564765856722
 40
0.0011564765856722
 40
0.0011564765856722
 40
0.0011564765856722
 10
87.30183490499178
 20
105.207958419344
 30
0.0
 10
86.96852697442293
 20
105.2070832637607
 30
0.0
 10
86.63519174203074
 20
105.2060284125092
 30
0.0
 10
86.30183490499178
 20
105.2048573254716
 30
0.0
  0
LINE
  5
FF
330
1F
100
AcDbEntity
  8
0
  6
HIDDEN
 62
     7
370
     0
100
AcDbLine
 10
125.8616608735
 20
90.2046587216
 30
0.0
 11
125.8616608735
 21
124.2046587216
 31
0.0
  0
LINE
  5
100
330
1F
100
AcDbEntity
  8
0
  6
HIDDEN
 62
     7
370
     0
100
AcDbLine
 10
128.151834905
 20
91.4796587216
 30
0.0
 11
128.151834905
 21
122.9296587201
 31
0.0
  0
SPLINE
  5
101
330
1F
100
AcDbEntity
  8
0
  6
HIDDEN
 62
     7
370
     0
100
AcDbSpline
210
0.0
220
0.0
230
1.0
 70
     8
 71
     3
 72
    16
 73
    12
 74
     0
 42
0.00000001
 43
0.00000001
 40
0.0
 40
0.0
 40
0.0
 40
0.0
 40
0.124999999999998
 40
0.124999999999998
 40
0.249999999999996
 40
0.249999999999996
 40
0.4999999999999973
 40
0.4999999999999973
 40
0.7499999999999987
 40
0.7499999999999987
 40
1.0
 40
1.0
 40
1.0
 40
1.0
 10
95.00183490499178
 20
91.40316828552862
 30
0.0
 10
95.09695665965762
 20
91.40316828552862
 30
0.0
 10
95.1902867283857
 20
91.39935245213582
 30
0.0
 10
95.37354848912369
 20
91.38458189940602
 30
0.0
 10
95.4644262046807
 20
91.37342385143043
 30
0.0
 10
95.72122790220043
 20
91.3309525812887
 30
0.0
 10
95.87629526707244
 20
91.28990638408591
 30
0.0
 10
96.13004172862705
 20
91.19476026750402
 30
0.0
 10
96.23091218029492
 20
91.13999753342245
 30
0.0
 10
96.36615859498976
 20
91.02873640951856
 30
0.0
 10
96.4018349049918
 20
90.97156667218988
 30
0.0
 10
96.4018349049918
 20
90.91714509915616
 30
0.0
  0
SPLINE
  5
102
330
1F
100
AcDbEntity
  8
0
  6
HIDDEN
 62
     7
370
     0
100
AcDbSpline
210
0.0
220
0.0
230
1.0
 70
     8
 71
     3
 72
     8
 73
     4
 74
     0
 42
0.00000001
 43
0.00000001
 40
0.0
 40
0.0
 40
0.0
 40
0.0
 40
1.0
 40
1.0
 40
1.0
 40
1.0
 10
87.60183490830698
 20
93.54797123161086
 30
0.0
 10
87.60183490830892
 20
92.66407408929393
 30
0.0
 10
87.58835428239911
 20
91.94949084423199
 30
0.0
 10
87.58700291420982
 20
91.40316828552862
 30
0.0
  0
SPLINE
  5
103
330
1F
100
AcDbEntity
  8
0
  6
HIDDEN
 62
     7
370
     0
100
AcDbSpline
210
0.0
220
0.0
230
1.0
 70
     8
 71
     3
 72
    10
 73
     6
 74
     0
 42
0.00000001
 43
0.00000001
 40
0.0
 40
0.0
 40
0.0
 40
0.0
 40
0.5
 40
0.5
 40
1.0
 40
1.0
 40
1.0
 40
1.0
 10
87.30183490499178
 20
94.57288149731406
 30
0.0
 10
87.3932260206847
 20
94.39824270969665
 30
0.0
 10
87.46587785441776
 20
94.22464088244107
 30
0.0
 10
87.57337674742591
 20
93.88102746343435
 30
0.0
 10
87.60183490830136
 20
93.7127016369029
 30
0.0
 10
87.60183490830698
 20
93.54797123167033
 30
0.0
  0
LINE
  5
104
330
1F
100
AcDbEntity
  8
0
  6
HIDDEN
 62
     7
370
     0
100
AcDbLine
 10
87.301834905
 20
97.6038319292
 30
0.0
 11
87.301834905
 21
94.5728814973
 31
0.0
  0
SPLINE
  5
105
330
1F
100
AcDbEntity
  8
0
  6
HIDDEN
 62
     7
370
     0
100
AcDbSpline
210
0.0
220
0.0
230
1.0
 70
     8
 71
     3
 72
    10
 73
     6
 74
     0
 42
0.00000001
 43
0.00000001
 40
0.0
 40
0.0
 40
0.0
 40
0.0
 40
0.5
 40
0.5
 40
1.0
 40
1.0
 40
1.0
 40
1.0
 10
87.60183490817951
 20
98.97167234591744
 30
0.0
 10
87.60183490817948
 20
98.72968837831064
 30
0.0
 10
87.5736848791089
 20
98.49534594934563
 30
0.0
 10
87.47009496496649
 20
98.03997092706794
 30
0.0
 10
87.393466255375
 20
97.81836636396058
 30
0.0
 10
87.3018349049918
 20
97.60383192916264
 30
0.0
  0
LINE
  5
106
330
1F
100
AcDbEntity
  8
0
  6
HIDDEN
 62
     7
370
     0
100
AcDbLine
 10
87.6018349082
 20
110.8092923431
 30
0.0
 11
87.6018349082
 21
98.9716723459
 31
0.0
  0
SPLINE
  5
107
330
1F
100
AcDbEntity
  8
0
  6
HIDDEN
 62
     7
370
     0
100
AcDbSpline
210
0.0
220
0.0
230
1.0
 70
     8
 71
     3
 72
     8
 73
     4
 74
     0
 42
0.00000001
 43
0.00000001
 40
0.0
 40
0.0
 40
0.0
 40
0.0
 40
1.0
 40
1.0
 40
1.0
 40
1.0
 10
87.30183490499178
 20
116.8115980426286
 30
0.0
 10
87.4828663715507
 20
116.3794905569659
 30
0.0
 10
87.60183490818521
 20
115.9253451508663
 30
0.0
 10
87.60183490817953
 20
115.4376450971722
 30
0.0
  0
LINE
  5
108
330
1F
100
AcDbEntity
  8
0
  6
HIDDEN
 62
     7
370
     0
100
AcDbLine
 10
87.301834905
 20
119.8448010286
 30
0.0
 11
87.301834905
 21
116.8115980426
 31
0.0
  0
SPLINE
  5
109
330
1F
100
AcDbEntity
  8
0
  6
HIDDEN
 62
     7
370
     0
100
AcDbSpline
210
0.0
220
0.0
230
1.0
 70
     8
 71
     3
 72
    10
 73
     6
 74
     0
 42
0.00000001
 43
0.00000001
 40
0.0
 40
0.0
 40
0.0
 40
0.0
 40
0.5
 40
0.5
 40
1.0
 40
1.0
 40
1.0
 40
1.0
 10
87.601834908385
 20
120.8613462114801
 30
0.0
 10
87.60183490838321
 20
120.6967098648741
 30
0.0
 10
87.57467623762771
 20
120.5295546410436
 30
0.0
 10
87.46891124230928
 20
120.190931633242
 30
0.0
 10
87.39249645401215
 20
120.018659855951
 30
0.0
 10
87.30183490499181
 20
119.844801028607
 30
0.0
  0
SPLINE
  5
10A
330
1F
100
AcDbEntity
  8
0
  6
HIDDEN
 62
     7
370
     0
100
AcDbSpline
210
0.0
220
0.0
230
1.0
 70
     8
 71
     3
 72
    18
 73
    14
 74
     0
 42
0.00000001
 43
0.00000001
 40
0.0
 40
0.0
 40
0.0
 40
0.0
 40
0.2500000000000033
 40
0.2500000000000033
 40
0.3750000000000029
 40
0.3750000000000029
 40
0.5000000000000026
 40
0.5000000000000026
 40
0.6250000000000022
 40
0.6250000000000022
 40
0.7500000000000018
 40
0.7500000000000018
 40
1.0
 40
1.0
 40
1.0
 40
1.0
 10
92.40183490499179
 20
123.4921723439644
 30
0.0
 10
92.40183490499177
 20
123.4376978234122
 30
0.0
 10
92.36692421359962
 20
123.3813167640597
 30
0.0
 10
92.26491491226658
 20
123.2972399232062
 30
0.0
 10
92.22327855758846
 20
123.2699062192153
 30
0.0
 10
92.12487276209971
 20
123.2169523036163
 30
0.0
 10
92.06732955039543
 20
123.1910649498992
 30
0.0
 10
91.94003137682246
 20
123.1432874050659
 30
0.0
 10
91.870444072065
 20
123.121339486888
 30
0.0
 10
91.71900982691005
 20
123.0819069219753
 30
0.0
 10
91.6363259238161
 20
123.0643506727495
 30
0.0
 10
91.38021446177805
 20
123.0219119073289
 30
0.0
 10
91.19229945789006
 20
123.0061491575919
 30
0.0
 10
91.0018349049918
 20
123.0061491575919
 30
0.0
  0
LINE
  5
10B
330
1F
100
AcDbEntity
  8
0
  6
HIDDEN
 62
     7
370
     0
100
AcDbLine
 10
91.001834905
 20
123.0061491576
 30
0.0
 11
87.6018349084
 21
123.0061491576
 31
0.0
  0
LINE
  5
10C
330
1F
100
AcDbEntity
  8
0
  6
HIDDEN
 62
     7
370
     0
100
AcDbLine
 10
87.5328659183
 20
91.4031682855
 30
0.0
 11
95.001834905
 21
91.4031682855
 31
0.0
  0
SPLINE
  5
10D
330
1F
100
AcDbEntity
  8
0
  6
HIDDEN
 62
     7
370
     0
100
AcDbSpline
210
0.0
220
0.0
230
1.0
 70
     8
 71
     3
 72
    22
 73
    18
 74
     0
 42
0.00000001
 43
0.00000001
 40
0.0
 40
0.0
 40
0.0
 40
0.0
 40
0.1249999999999998
 40
0.1249999999999998
 40
0.2499999999999995
 40
0.2499999999999995
 40
0.4999999999999992
 40
0.4999999999999992
 40
0.5624999999999993
 40
0.5624999999999993
 40
0.6249999999999994
 40
0.6249999999999994
 40
0.7499999999999996
 40
0.7499999999999996
 40
0.8749999999999998
 40
0.8749999999999998
 40
1.0
 40
1.0
 40
1.0
 40
1.0
 10
87.53286591834971
 20
91.40316828552862
 30
0.0
 10
87.51978352562134
 20
91.6582739956763
 30
0.0
 10
87.50656396218152
 20
91.9514322547802
 30
0.0
 10
87.4841167843874
 20
92.613732720405
 30
0.0
 10
87.47463831736292
 20
92.98400664101639
 30
0.0
 10
87.45544035642637
 20
94.20656344413017
 30
0.0
 10
87.45655412942325
 20
95.14370237026203
 30
0.0
 10
87.47546492237635
 20
96.46357359977704
 30
0.0
 10
87.48009445023534
 20
96.73507550875335
 30
0.0
 10
87.4905756699813
 20
97.29346034355565
 30
0.0
 10
87.49637093126572
 20
97.58058319949525
 30
0.0
 10
87.51468015217065
 20
98.45317245386694
 30
0.0
 10
87.52871508645102
 20
99.05362813022279
 30
0.0
 10
87.55817225858783
 20
100.2911026227189
 30
0.0
 10
87.57372794956942
 20
100.9281187793623
 30
0.0
 10
87.5975224995663
 20
102.2396073770469
 30
0.0
 10
87.60554155171165
 20
102.9157299887074
 30
0.0
 10
87.60183490499179
 20
103.6000250999922
 30
0.0
  0
LINE
  5
10E
330
1F
100
AcDbEntity
  8
0
  6
HIDDEN
 62
     7
370
     0
100
AcDbLine
 10
87.6018349084
 20
110.8092923431
 30
0.0
 11
87.6018349084
 21
123.0061491576
 31
0.0
  0
SPLINE
  5
10F
330
1F
100
AcDbEntity
  8
0
  6
HIDDEN
 62
     7
370
     0
100
AcDbSpline
210
0.0
220
0.0
230
1.0
 70
     8
 71
     3
 72
    10
 73
     6
 74
     0
 42
0.00000001
 43
0.00000001
 40
0.0
 40
0.0
 40
0.0
 40
0.0
 40
0.5
 40
0.5
 40
1.0
 40
1.0
 40
1.0
 40
1.0
 10
87.60183490499179
 20
103.6000250999771
 30
0.0
 10
87.60183490499162
 20
103.8739402480515
 30
0.0
 10
87.57607567512389
 20
104.1448818267815
 30
0.0
 10
87.47286974239077
 20
104.6805729083844
 30
0.0
 10
87.39553157851554
 20
104.9463197119064
 30
0.0
 10
87.30183490499178
 20
105.207958419344
 30
0.0
  0
SPLINE
  5
110
330
1F
100
AcDbEntity
  8
0
  6
HIDDEN
 62
     7
370
     0
100
AcDbSpline
210
0.0
220
0.0
230
1.0
 70
     8
 71
     3
 72
    10
 73
     6
 74
     0
 42
0.00000001
 43
0.00000001
 40
0.0
 40
0.0
 40
0.0
 40
0.0
 40
0.5
 40
0.5
 40
1.0
 40
1.0
 40
1.0
 40
1.0
 10
87.30183490499178
 20
109.1917870149248
 30
0.0
 10
87.3950654863828
 20
109.4556808229949
 30
0.0
 10
87.47009509861955
 20
109.7218611336332
 30
0.0
 10
87.57516219779768
 20
110.2601837085914
 30
0.0
 10
87.60183490838388
 20
110.5329318248369
 30
0.0
 10
87.60183490838506
 20
110.8092923431274
 30
0.0
  0
LINE
  5
111
330
1F
100
AcDbEntity
  8
0
  6
HIDDEN
 62
     7
370
     0
100
AcDbLine
 10
87.301834905
 20
105.2079584193
 30
0.0
 11
87.301834905
 21
109.1917870149
 31
0.0
  0
LINE
  5
112
330
1F
100
AcDbEntity
  8
0
  6
HIDDEN
 62
     7
370
     0
100
AcDbLine
 10
87.451834905
 20
89.2146587216
 30
0.0
 11
87.451834905
 21
86.3347209562
 31
0.0
  0
LINE
  5
113
330
1F
100
AcDbEntity
  8
0
  6
HIDDEN
 62
     7
370
     0
100
AcDbLine
 10
96.401834905
 20
89.2146587216
 30
0.0
 11
96.401834905
 21
85.2409211904
 31
0.0
  0
LINE
  5
114
330
1F
100
AcDbEntity
  8
0
  6
HIDDEN
 62
     7
370
     0
100
AcDbLine
 10
87.451834905
 20
125.1946587216
 30
0.0
 11
87.451834905
 21
128.074596487
 31
0.0
  0
LINE
  5
115
330
1F
100
AcDbEntity
  8
0
  6
HIDDEN
 62
     7
370
     0
100
AcDbLine
 10
92.401834905
 20
125.1946587216
 30
0.0
 11
92.401834905
 21
129.0487663939
 31
0.0
  0
LINE
  5
116
330
1F
100
AcDbEntity
  8
0
  6
HIDDEN
 62
     7
370
     0
100
AcDbLine
 10
137.001834905
 20
97.7046587216
 30
0.0
 11
137.001834905
 21
116.7046587216
 31
0.0
  0
LINE
  5
117
330
1F
100
AcDbEntity
  8
0
  6
HIDDEN
 62
     7
370
     0
100
AcDbLine
 10
140.001834905
 20
97.7046587216
 30
0.0
 11
140.001834905
 21
116.7046587216
 31
0.0
  0
LINE
  5
118
330
1F
100
AcDbEntity
  8
0
  6
HIDDEN
 62
     7
370
     0
100
AcDbLine
 10
128.651834905
 20
98.7046587216
 30
0.0
 11
128.651834905
 21
115.7046587216
 31
0.0
  0
LINE
  5
119
330
1F
100
AcDbEntity
  8
0
  6
HIDDEN
 62
     7
370
     0
100
AcDbLine
 10
134.3895097073
 20
80.8046587216
 30
0.0
 11
131.151834905
 21
80.8046587216
 31
0.0
  0
LINE
  5
11A
330
1F
100
AcDbEntity
  8
0
  6
HIDDEN
 62
     7
370
     0
100
AcDbLine
 10
144.151834905
 20
80.8046587216
 30
0.0
 11
138.0141601027
 21
80.8046587216
 31
0.0
  0
LINE
  5
11B
330
1F
100
AcDbEntity
  8
0
  6
HIDDEN
 62
     7
370
     0
100
AcDbLine
 10
123.151834905
 20
75.7205357387
 30
0.0
 11
123.151834905
 21
80.8046587216
 31
0.0
  0
LINE
  5
11C
330
1F
100
AcDbEntity
  8
0
  6
HIDDEN
 62
     7
370
     0
100
AcDbLine
 10
131.151834905
 20
80.8046587216
 30
0.0
 11
123.151834905
 21
80.8046587216
 31
0.0
  0
LINE
  5
11D
330
1F
100
AcDbEntity
  8
0
  6
HIDDEN
 62
     7
370
     0
100
AcDbLine
 10
144.151834905
 20
133.6046587216
 30
0.0
 11
137.7175373733
 21
133.6046587216
 31
0.0
  0
LINE
  5
11E
330
1F
100
AcDbEntity
  8
0
  6
HIDDEN
 62
     7
370
     0
100
AcDbLine
 10
131.151834905
 20
133.6046587216
 30
0.0
 11
123.151834905
 21
133.6046587216
 31
0.0
  0
LINE
  5
11F
330
1F
100
AcDbEntity
  8
0
  6
HIDDEN
 62
     7
370
     0
100
AcDbLine
 10
134.6861324367
 20
133.6046587216
 30
0.0
 11
131.151834905
 21
133.6046587216
 31
0.0
  0
SPLINE
  5
120
330
1F
100
AcDbEntity
  8
0
  6
HIDDEN
 62
     7
370
     0
100
AcDbSpline
210
0.0
220
0.0
230
1.0
 70
     8
 71
     3
 72
    11
 73
     7
 74
     0
 42
0.00000001
 43
0.00000001
 40
0.0
 40
0.0
 40
0.0
 40
0.0
 40
0.0008203708524183
 40
0.0008203708524183
 40
0.0008203708524183
 40
0.0016409967870154
 40
0.0016409967870154
 40
0.0016409967870154
 40
0.0016409967870154
 10
87.45183490499178
 20
91.35262597091754
 30
0.0
 10
87.26067660469313
 20
91.31144694229842
 30
0.0
 10
87.06924953462095
 20
91.2726929700684
 30
0.0
 10
86.87760391110034
 20
91.23632521078987
 30
0.0
 10
86.68589850601988
 20
91.19994610702383
 30
0.0
 10
86.49395955396092
 20
91.16595185625629
 30
0.0
 10
86.3018349068901
 20
91.13430373086507
 30
0.0
  0
ELLIPSE
  5
121
330
1F
100
AcDbEntity
  8
0
  6
HIDDEN
 62
     7
370
     0
100
AcDbEllipse
 10
82.0594030364
 20
107.2046587216
 30
0.0
 11
20.19992453366626
 21
-1.421085471520200E-14
 31
0.0
210
0.0
220
0.0
230
1.0
 40
0.8164965809
 41
1.300566354718001
 42
1.359198697209606
  0
LINE
  5
122
330
1F
100
AcDbEntity
  8
0
  6
HIDDEN
 62
     7
370
     0
100
AcDbLine
 10
87.451834905
 20
89.2146587216
 30
0.0
 11
87.451834905
 21
91.3526259709
 31
0.0
  0
LINE
  5
123
330
1F
100
AcDbEntity
  8
0
  6
HIDDEN
 62
     7
370
     0
100
AcDbLine
 10
87.5328659183
 20
91.4031682855
 30
0.0
 11
87.451834905
 21
91.3526259709
 31
0.0
  0
LINE
  5
124
330
1F
100
AcDbEntity
  8
0
  6
HIDDEN
 62
     7
370
     0
100
AcDbLine
 10
96.401834905
 20
89.2146587216
 30
0.0
 11
96.401834905
 21
90.9171450992
 31
0.0
  0
LINE
  5
125
330
1F
100
AcDbEntity
  8
0
  6
HIDDEN
 62
     7
370
     0
100
AcDbLine
 10
87.451834905
 20
125.1946587216
 30
0.0
 11
87.451834905
 21
123.0992831726
 31
0.0
  0
SPLINE
  5
126
330
1F
100
AcDbEntity
  8
0
  6
HIDDEN
 62
     7
370
     0
100
AcDbSpline
210
0.0
220
0.0
230
1.0
 70
     8
 71
     3
 72
     8
 73
     4
 74
     0
 42
0.00000001
 43
0.00000001
 40
0.0
 40
0.0
 40
0.0
 40
0.0
 40
1.0
 40
1.0
 40
1.0
 40
1.0
 10
87.45183490499178
 20
123.0992831726189
 30
0.0
 10
87.50184040393552
 20
123.0682473983998
 30
0.0
 10
87.55184047459993
 20
123.0372027533723
 30
0.0
 10
87.60183490838506
 20
123.0061491575919
 30
0.0
  0
LINE
  5
127
330
1F
100
AcDbEntity
  8
0
  6
HIDDEN
 62
     7
370
     0
100
AcDbLine
 10
92.401834905
 20
125.1946587216
 30
0.0
 11
92.401834905
 21
123.492172344
 31
0.0
  0
LINE
  5
128
330
1F
100
AcDbEntity
  8
0
  6
HIDDEN
 62
     7
370
     0
100
AcDbLine
 10
194.701834905
 20
103.2046587216
 30
0.0
 11
194.701834905
 21
111.2046587216
 31
0.0
  0
SPLINE
  5
129
330
1F
100
AcDbEntity
  8
0
  6
HIDDEN
 62
     7
370
     0
100
AcDbSpline
210
0.0
220
0.0
230
1.0
 70
     8
 71
     3
 72
    20
 73
    16
 74
     0
 42
0.00000001
 43
0.00000001
 40
0.0
 40
0.0
 40
0.0
 40
0.0
 40
0.111853549484807
 40
0.1773730685923813
 40
0.2489949814854254
 40
0.3297438282837404
 40
0.3985165675540304
 40
0.4997968041481736
 40
0.6137624896800351
 40
0.6789287412005155
 40
0.7494555931725914
 40
0.8296019506563316
 40
0.8980459617409714
 40
0.9994568726595943
 40
1.0
 40
1.0
 40
1.0
 40
1.0
 10
112.9504507905814
 20
83.60472491990663
 30
0.0
 10
112.907158635961
 20
83.61814336129463
 30
0.0
 10
112.8385075976493
 20
83.63942181097885
 30
0.0
 10
112.3934897771621
 20
83.74269443510664
 30
0.0
 10
111.8669400535003
 20
83.85599586268219
 30
0.0
 10
111.1815124857398
 20
83.97892926787986
 30
0.0
 10
110.2881957413324
 20
84.10096358488495
 30
0.0
 10
109.1748361696544
 20
84.21869995794215
 30
0.0
 10
108.0640619140451
 20
84.23067539665561
 30
0.0
 10
107.1793141963805
 20
84.2036172221788
 30
0.0
 10
106.5121154361449
 20
84.15568474602603
 30
0.0
 10
105.9708518150211
 20
84.09939291786432
 30
0.0
 10
105.5832380964148
 20
84.05430360639212
 30
0.0
 10
105.3893301339759
 20
84.0154349184552
 30
0.0
 10
105.4525229082597
 20
84.02615717133718
 30
0.0
 10
105.4528595474357
 20
84.02621429069008
 30
0.0
  0
LINE
  5
12A
330
1F
100
AcDbEntity
  8
0
  6
HIDDEN
 62
     7
370
     0
100
AcDbLine
 10
106.3618468216
 20
84.1369968654
 30
0.0
 11
106.5456921305
 21
84.1551862075
 31
0.0
  0
SPLINE
  5
12B
330
1F
100
AcDbEntity
  8
0
  6
HIDDEN
 62
     7
370
     0
100
AcDbSpline
210
0.0
220
0.0
230
1.0
 70
     8
 71
     3
 72
    27
 73
    23
 74
     0
 42
0.00000001
 43
0.00000001
 40
0.0
 40
0.0
 40
0.0
 40
0.0
 40
0.0008085620132841
 40
0.0456910729041001
 40
0.1022727378530139
 40
0.1705508272486699
 40
0.2091424989411692
 40
0.2506697374996036
 40
0.3211155140165488
 40
0.3862092476658908
 40
0.4266883970024079
 40
0.4648196494529344
 40
0.5006239657997429
 40
0.545215729607791
 40
0.6017099851235641
 40
0.6701159591397633
 40
0.708853288810003
 40
0.7505820338773139
 40
0.8222466184900681
 40
0.8877860424904734
 40
0.9472597969139351
 40
0.9999999999999999
 40
0.9999999999999999
 40
0.9999999999999999
 40
0.9999999999999999
 10
105.4525033546269
 20
130.3830728706059
 30
0.0
 10
105.452281015278
 20
130.3831207994588
 30
0.0
 10
105.4397168294327
 20
130.3858292135005
 30
0.0
 10
105.4887935003641
 20
130.3739971761952
 30
0.0
 10
105.6338979761668
 20
130.3505529776561
 30
0.0
 10
105.906950146306
 20
130.3166488292964
 30
0.0
 10
106.2354766265851
 20
130.2830800320063
 30
0.0
 10
106.6282043913811
 20
130.2448966936412
 30
0.0
 10
107.1779323667795
 20
130.2059280210136
 30
0.0
 10
107.8039550119372
 20
130.1864669166382
 30
0.0
 10
108.3471465223698
 20
130.1842812387985
 30
0.0
 10
108.7922154192134
 20
130.1927961199782
 30
0.0
 10
109.2586632156819
 20
130.2125795169031
 30
0.0
 10
109.7959038648324
 20
130.2567419024175
 30
0.0
 10
110.4441172956119
 20
130.3291575224306
 30
0.0
 10
111.0296559256551
 20
130.4100596156132
 30
0.0
 10
111.5106255399811
 20
130.4882256040711
 30
0.0
 10
111.9560404375808
 20
130.5729977431662
 30
0.0
 10
112.3945401532523
 20
130.6667807851422
 30
0.0
 10
112.7335654237154
 20
130.7446845525346
 30
0.0
 10
112.9209064551609
 20
130.7948762161451
 30
0.0
 10
112.9413962424305
 20
130.801542658551
 30
0.0
 10
112.9510263772708
 20
130.8046758652764
 30
0.0
  0
LINE
  5
12C
330
1F
100
AcDbEntity
  8
0
  6
HIDDEN
 62
     7
370
     0
100
AcDbLine
 10
161.701834905
 20
103.3046587216
 30
0.0
 11
161.701834905
 21
111.1046583287
 31
0.0
  0
SPLINE
  5
12D
330
1F
100
AcDbEntity
  8
0
  6
HIDDEN
 62
     7
370
     0
100
AcDbSpline
210
0.0
220
0.0
230
1.0
 70
     8
 71
     3
 72
    17
 73
    13
 74
     0
 42
0.00000001
 43
0.00000001
 40
0.0
 40
0.0
 40
0.0
 40
0.0
 40
0.1013431159103712
 40
0.2057512952604489
 40
0.3070613091035604
 40
0.4111043761154768
 40
0.516366513039788
 40
0.6245062130620166
 40
0.732596800042527
 40
0.8440587783481873
 40
0.9480068973974345
 40
1.0
 40
1.0
 40
1.0
 40
1.0
 10
163.7018349049918
 20
111.2345470574823
 30
0.0
 10
163.7820697399269
 20
111.2359479070399
 30
0.0
 10
163.9449660655886
 20
111.238791974033
 30
0.0
 10
164.1809253543974
 20
111.2609407658683
 30
0.0
 10
164.4050150114597
 20
111.2935755936135
 30
0.0
 10
164.6104425929871
 20
111.3342471565163
 30
0.0
 10
164.7955409877321
 20
111.3792225885858
 30
0.0
 10
164.9527837586075
 20
111.4235192684826
 30
0.0
 10
165.0783309546145
 20
111.4627701002064
 30
0.0
 10
165.1604668291867
 20
111.4902700609887
 30
0.0
 10
165.2008392349481
 20
111.5043095905282
 30
0.0
 10
165.1975374041528
 20
111.5031613835374
 30
0.0
 10
165.1964365250813
 20
111.5027785543967
 30
0.0
  0
LINE
  5
12E
330
1F
100
AcDbEntity
  8
0
  6
HIDDEN
 62
     7
370
     0
100
AcDbLine
 10
163.7025908193
 20
111.234569504
 30
0.0
 11
163.6718732174
 21
111.235509933
 31
0.0
  0
SPLINE
  5
12F
330
1F
100
AcDbEntity
  8
0
  6
HIDDEN
 62
     7
370
     0
100
AcDbSpline
210
0.0
220
0.0
230
1.0
 70
     8
 71
     3
 72
    17
 73
    13
 74
     0
 42
0.00000001
 43
0.00000001
 40
0.0
 40
0.0
 40
0.0
 40
0.0
 40
0.0488083042940193
 40
0.1532047376997465
 40
0.2528028019996169
 40
0.3550864709111448
 40
0.4586155002232356
 40
0.5649000045429401
 40
0.672817115168789
 40
0.7839630175507377
 40
0.8902352823469329
 40
1.0
 40
1.0
 40
1.0
 40
1.0
 10
162.2066523627306
 20
111.5029805970229
 30
0.0
 10
162.2056720058546
 20
111.503321752889
 30
0.0
 10
162.2025947565993
 20
111.5043926094931
 30
0.0
 10
162.239778932281
 20
111.4914520460484
 30
0.0
 10
162.3144923643298
 20
111.4663817085593
 30
0.0
 10
162.4257081953004
 20
111.4311852824793
 30
0.0
 10
162.5715393304853
 20
111.3890893817528
 30
0.0
 10
162.750348964267
 20
111.3439235528435
 30
0.0
 10
162.9605556521607
 20
111.3001255398233
 30
0.0
 10
163.1934602980741
 20
111.2643066777801
 30
0.0
 10
163.4438281540199
 20
111.2394192597951
 30
0.0
 10
163.6149107478615
 20
111.2361885342181
 30
0.0
 10
163.7018349049918
 20
111.2345470574823
 30
0.0
  0
SPLINE
  5
130
330
1F
100
AcDbEntity
  8
0
  6
HIDDEN
 62
     7
370
     0
100
AcDbSpline
210
0.0
220
0.0
230
1.0
 70
     8
 71
     3
 72
    27
 73
    23
 74
     0
 42
0.00000001
 43
0.00000001
 40
0.0
 40
0.0
 40
0.0
 40
0.0
 40
0.0507816103274936
 40
0.1030881979290503
 40
0.1538561257728967
 40
0.2060070907766576
 40
0.2585050423281203
 40
0.312430557157847
 40
0.3665037503210739
 40
0.4222571586564713
 40
0.4743148081469629
 40
0.5280476338066704
 40
0.5775602478487406
 40
0.6284669923466482
 40
0.6788956278408013
 40
0.7306348167685562
 40
0.7839167771556487
 40
0.8387032221737084
 40
0.8925100780107021
 40
0.9480286554418255
 40
0.9993150357584306
 40
1.0
 40
1.0
 40
1.0
 40
1.0
 10
165.2018349049918
 20
102.9046587215603
 30
0.0
 10
165.198082975317
 20
102.9059748558115
 30
0.0
 10
165.1904664451118
 20
102.9086466479685
 30
0.0
 10
165.1294000414929
 20
102.9296007438504
 30
0.0
 10
165.0334207075648
 20
102.960913369631
 30
0.0
 10
164.9023284508195
 20
103.0005561487759
 30
0.0
 10
164.7370035777028
 20
103.045165510499
 30
0.0
 10
164.5409870728631
 20
103.0900494864278
 30
0.0
 10
164.3161897412566
 20
103.1304496674551
 30
0.0
 10
164.0745797684476
 20
103.1600987315794
 30
0.0
 10
163.821720925928
 20
103.1756062070075
 30
0.0
 10
163.574708648053
 20
103.1752545146346
 30
0.0
 10
163.3336928456778
 20
103.1601794000609
 30
0.0
 10
163.1080651676307
 20
103.133199923563
 30
0.0
 10
162.8954367918091
 20
103.096486522471
 30
0.0
 10
162.7010559846671
 20
103.0536480112666
 30
0.0
 10
162.5283495751806
 20
103.0083121632166
 30
0.0
 10
162.3865007710032
 20
102.9660951311679
 30
0.0
 10
162.278853251474
 20
102.9311537104902
 30
0.0
 10
162.2194929041949
 20
102.9108382213545
 30
0.0
 10
162.1952409209372
 20
102.9023721612112
 30
0.0
 10
162.2020137182214
 20
102.9047207302515
 30
0.0
 10
162.2021029813335
 20
102.9047516835744
 30
0.0
  0
LINE
  5
131
330
1F
100
AcDbEntity
  8
0
  6
HIDDEN
 62
     7
370
     0
100
AcDbLine
 10
172.201834905
 20
103.2046587216
 30
0.0
 11
172.201834905
 21
111.2046587216
 31
0.0
  0
LINE
  5
132
330
1F
100
AcDbEntity
  8
0
  6
HIDDEN
 62
     7
370
     0
100
AcDbLine
 10
144.301834905
 20
103.0046587216
 30
0.0
 11
144.301834905
 21
111.4046587216
 31
0.0
  0
LINE
  5
133
330
1F
100
AcDbEntity
  8
0
  6
HIDDEN
 62
     7
370
     0
100
AcDbLine
 10
145.3232979573
 20
104.7046587216
 30
0.0
 11
145.3232979573
 21
109.7046587216
 31
0.0
  0
LINE
  5
134
330
1F
100
AcDbEntity
  8
0
  6
HIDDEN
 62
     7
370
     0
100
AcDbLine
 10
157.651834905
 20
94.7820089907
 30
0.0
 11
152.651834905
 21
94.7820089907
 31
0.0
  0
LINE
  5
135
330
1F
100
AcDbEntity
  8
0
  6
HIDDEN
 62
     7
370
     0
100
AcDbLine
 10
155.151834905
 20
119.6273084524
 30
0.0
 11
157.651834905
 21
119.6273084524
 31
0.0
  0
LINE
  5
136
330
1F
100
AcDbEntity
  8
0
  6
HIDDEN
 62
     7
370
     0
100
AcDbLine
 10
152.651834905
 20
119.6273084524
 30
0.0
 11
155.151834905
 21
119.6273084524
 31
0.0
  0
LINE
  5
137
330
1F
100
AcDbEntity
  8
0
  6
HIDDEN
 62
     7
370
     0
100
AcDbLine
 10
155.151834905
 20
112.2046587216
 30
0.0
 11
157.651834905
 21
112.2046587216
 31
0.0
  0
LINE
  5
138
330
1F
100
AcDbEntity
  8
0
  6
HIDDEN
 62
     7
370
     0
100
AcDbLine
 10
152.651834905
 20
112.2046587216
 30
0.0
 11
155.151834905
 21
112.2046587216
 31
0.0
  0
LINE
  5
139
330
1F
100
AcDbEntity
  8
0
  6
HIDDEN
 62
     7
370
     0
100
AcDbLine
 10
157.651834905
 20
102.2046587216
 30
0.0
 11
152.651834905
 21
102.2046587216
 31
0.0
  0
SPLINE
  5
13A
330
1F
100
AcDbEntity
  8
0
  6
HIDDEN
 62
     7
370
     0
100
AcDbSpline
210
0.0
220
0.0
230
1.0
 70
     8
 71
     3
 72
    30
 73
    26
 74
     0
 42
0.00000001
 43
0.00000001
 40
0.0
 40
0.0
 40
0.0
 40
0.0
 40
0.0412274297564292
 40
0.0838627324950373
 40
0.1250516510534608
 40
0.1672473279861977
 40
0.2244849111414904
 40
0.2833611997047468
 40
0.3419130967478433
 40
0.4019328869320881
 40
0.4346453182317893
 40
0.4680030772970353
 40
0.5007963769266229
 40
0.5349012334331602
 40
0.5631174209943276
 40
0.5919349488450942
 40
0.6414698556812164
 40
0.6923287517706465
 40
0.7450260126139431
 40
0.7988519530009967
 40
0.8464596455547878
 40
0.8953104661842607
 40
0.942992551406325
 40
0.9925828888811922
 40
1.0
 40
1.0
 40
1.0
 40
1.0
 10
165.2018349049918
 20
114.2502678045596
 30
0.0
 10
165.1998932341518
 20
114.2526725410701
 30
0.0
 10
165.1959435864727
 20
114.2575641332913
 30
0.0
 10
165.1648510823035
 20
114.2962852231077
 30
0.0
 10
165.1178322945089
 20
114.3555871429339
 30
0.0
 10
165.049607582901
 20
114.4432908302816
 30
0.0
 10
164.957561073386
 20
114.5655272018395
 30
0.0
 10
164.8449320173718
 20
114.7247500714458
 30
0.0
 10
164.7282194342439
 20
114.908204585195
 30
0.0
 10
164.6360412167361
 20
115.0836311548072
 30
0.0
 10
164.5750253334724
 20
115.2431388235002
 30
0.0
 10
164.5411745579268
 20
115.3757185078673
 30
0.0
 10
164.5270397450267
 20
115.5156890578218
 30
0.0
 10
164.5365758152994
 20
115.6491342055158
 30
0.0
 10
164.5643980288352
 20
115.7724746557807
 30
0.0
 10
164.6124110345069
 20
115.9095841293748
 30
0.0
 10
164.6884574379347
 20
116.0629506880627
 30
0.0
 10
164.7898804475227
 20
116.2259394344429
 30
0.0
 10
164.8960044585641
 20
116.3752520470513
 30
0.0
 10
164.9942598075866
 20
116.5024822504405
 30
0.0
 10
165.0782272247368
 20
116.6060176036945
 30
0.0
 10
165.143586225946
 20
116.6840949634537
 30
0.0
 10
165.1863955042689
 20
116.7342808203809
 30
0.0
 10
165.2042806607749
 20
116.7550400175815
 30
0.0
 10
165.2008402523251
 20
116.7510403277062
 30
0.0
 10
165.2003926285076
 20
116.7505199370384
 30
0.0
  0
SPLINE
  5
13B
330
1F
100
AcDbEntity
  8
0
  6
HIDDEN
 62
     7
370
     0
100
AcDbSpline
210
0.0
220
0.0
230
1.0
 70
     8
 71
     3
 72
    10
 73
     6
 74
     0
 42
0.00000001
 43
0.00000001
 40
0.0
 40
0.0
 40
0.0
 40
0.0
 40
0.3845743046460935
 40
0.8689635483481948
 40
1.0
 40
1.0
 40
1.0
 40
1.0
 10
162.2043332016332
 20
116.7505927373199
 30
0.0
 10
162.2054664258817
 20
116.750884848843
 30
0.0
 10
162.2080269988375
 20
116.7515448884312
 30
0.0
 10
162.2407986612591
 20
116.7618683724805
 30
0.0
 10
162.2691358928983
 20
116.7752480933006
 30
0.0
 10
162.275169456839
 20
116.7780969037316
 30
0.0
  0
SPLINE
  5
13C
330
1F
100
AcDbEntity
  8
0
  6
HIDDEN
 62
     7
370
     0
100
AcDbSpline
210
0.0
220
0.0
230
1.0
 70
     8
 71
     3
 72
    27
 73
    23
 74
     0
 42
0.00000001
 43
0.00000001
 40
0.0
 40
0.0
 40
0.0
 40
0.0
 40
0.0436974915427763
 40
0.087833525367082
 40
0.1331056124352598
 40
0.1803435214697002
 40
0.2285619252985586
 40
0.2848361166626606
 40
0.3422362494844856
 40
0.4099429175775589
 40
0.4800763979314943
 40
0.5134973703867752
 40
0.547780722801513
 40
0.581248496283161
 40
0.6157765870447472
 40
0.6611901320797525
 40
0.707834737011316
 40
0.7790431163816824
 40
0.8522596840365295
 40
0.9116646089721117
 40
0.9725942847189291
 40
1.0
 40
1.0
 40
1.0
 40
1.0
 10
162.2028996483996
 20
114.3693764449521
 30
0.0
 10
162.2041556055744
 20
114.3708321723215
 30
0.0
 10
162.2066801245452
 20
114.3737582365489
 30
0.0
 10
162.2344177670927
 20
114.4061028836797
 30
0.0
 10
162.2773125426046
 20
114.4567127949376
 30
0.0
 10
162.3363935195096
 20
114.5277278758644
 30
0.0
 10
162.4122568092002
 20
114.6216028529448
 30
0.0
 10
162.5032931067484
 20
114.7394453268042
 30
0.0
 10
162.6112605039754
 20
114.8903429499165
 30
0.0
 10
162.7262966488991
 20
115.0740727606515
 30
0.0
 10
162.8127493283357
 20
115.2583832113084
 30
0.0
 10
162.8577600212665
 20
115.4204697852818
 30
0.0
 10
162.8745100348768
 20
115.5446800828226
 30
0.0
 10
162.8720671766766
 20
115.6718543530425
 30
0.0
 10
162.8487249115028
 20
115.8099642799142
 30
0.0
 10
162.8012706561296
 20
115.9562674710542
 30
0.0
 10
162.7207905451791
 20
116.1309234493322
 30
0.0
 10
162.6117531107598
 20
116.316063887794
 30
0.0
 10
162.4929555423693
 20
116.4900232010221
 30
0.0
 10
162.3884160185884
 20
116.6320658317976
 30
0.0
 10
162.3184393969045
 20
116.7230216391228
 30
0.0
 10
162.2854151136802
 20
116.765055927461
 30
0.0
 10
162.275169456839
 20
116.7780969037315
 30
0.0
  0
LINE
  5
13D
330
1F
100
AcDbEntity
  8
0
  6
HIDDEN
 62
     7
370
     0
100
AcDbLine
 10
165.201834905
 20
118.2046587216
 30
0.0
 11
162.201834905
 21
118.2046587216
 31
0.0
  0
LWPOLYLINE
  5
13E
330
1F
100
AcDbEntity
  8
0
  6
HIDDEN
 62
     7
370
     0
100
AcDbPolyline
 90
       19
 70
   128
 43
0.0
 10
165.1986157224
 20
97.6608775199
 10
165.1694178405
 20
97.694968619
 10
165.0727133803
 20
97.8104701836
 10
164.9803265628
 20
97.9254709795
 10
164.8722759215
 20
98.0684048719
 10
164.7607614614
 20
98.2315929037
 10
164.6525227939
 20
98.421055155
 10
164.5554994363
 20
98.6794498576
 10
164.5317975532
 20
98.91836622
 10
164.5737705172
 20
99.1533789355
 10
164.6403373433
 20
99.3260070793
 10
164.7244849872
 20
99.4883845853
 10
164.8498181615
 20
99.6888226374
 10
164.9756170246
 20
99.8669079169
 10
165.0576279275
 20
99.975942003
 10
165.1272346761
 20
100.0654729169
 10
165.1947452334
 20
100.1502480007
 10
165.201834905
 20
100.1590496386
 10
165.201834905
 20
100.1590496386
  0
LINE
  5
13F
330
1F
100
AcDbEntity
  8
0
  6
HIDDEN
 62
     7
370
     0
100
AcDbLine
 10
163.701834905
 20
96.7046587216
 30
0.0
 11
165.201834905
 21
96.7046587216
 31
0.0
  0
LINE
  5
140
330
1F
100
AcDbEntity
  8
0
  6
HIDDEN
 62
     7
370
     0
100
AcDbLine
 10
162.201834905
 20
96.7046587216
 30
0.0
 11
163.701834905
 21
96.7046587216
 31
0.0
  0
SPLINE
  5
141
330
1F
100
AcDbEntity
  8
0
  6
HIDDEN
 62
     7
370
     0
100
AcDbSpline
210
0.0
220
0.0
230
1.0
 70
     8
 71
     3
 72
     9
 73
     5
 74
     0
 42
0.00000001
 43
0.00000001
 40
0.0
 40
0.0
 40
0.0
 40
0.0
 40
0.9127674511740028
 40
1.0
 40
1.0
 40
1.0
 40
1.0
 10
162.275169456839
 20
97.63122053938902
 30
0.0
 10
162.2318584351916
 20
97.64772939073906
 30
0.0
 10
162.1844082094065
 20
97.66581598150081
 30
0.0
 10
162.2055757394401
 20
97.65815350897067
 30
0.0
 10
162.2074222370372
 20
97.65748509196155
 30
0.0
  0
SPLINE
  5
142
330
1F
100
AcDbEntity
  8
0
  6
HIDDEN
 62
     7
370
     0
100
AcDbSpline
210
0.0
220
0.0
230
1.0
 70
     8
 71
     3
 72
    17
 73
    13
 74
     0
 42
0.00000001
 43
0.00000001
 40
0.0
 40
0.0
 40
0.0
 40
0.0
 40
0.1236628338233998
 40
0.246432373745179
 40
0.3531987520651142
 40
0.4234332315585018
 40
0.4941244379417765
 40
0.5801597051227767
 40
0.7140608633124538
 40
0.8512841765221898
 40
0.9473213221325524
 40
0.9999999999999999
 40
0.9999999999999999
 40
0.9999999999999999
 40
0.9999999999999999
 10
162.275169456839
 20
97.63122053938908
 30
0.0
 10
162.3288174962996
 20
97.6999398363337
 30
0.0
 10
162.4357260419176
 20
97.83688202781175
 30
0.0
 10
162.6507038615667
 20
98.14599715136067
 30
0.0
 10
162.8132632399706
 20
98.45544020688877
 30
0.0
 10
162.884737933018
 20
98.75459162662739
 30
0.0
 10
162.8585160927254
 20
99.0398510616262
 30
0.0
 10
162.7209943959736
 20
99.36215505221128
 30
0.0
 10
162.4973293876979
 20
99.68440514568039
 30
0.0
 10
162.3037249312335
 20
99.92231435724423
 30
0.0
 10
162.2062889488359
 20
100.0360222820835
 30
0.0
 10
162.2107730506601
 20
100.0307858025726
 30
0.0
 10
162.2123614260596
 20
100.0289309171215
 30
0.0
  0
LINE
  5
143
330
1F
100
AcDbEntity
  8
0
  6
HIDDEN
 62
     7
370
     0
100
AcDbLine
 10
162.1805148306
 20
100.0403416495
 30
0.0
 11
162.2751694568
 21
97.6312205394
 31
0.0
  0
LINE
  5
144
330
1F
100
AcDbEntity
  8
0
  6
HIDDEN
 62
     7
370
     0
100
AcDbLine
 10
162.1805148306
 20
114.3689757936
 30
0.0
 11
162.2751694568
 21
116.7780969037
 31
0.0
  0
SPLINE
  5
145
330
1F
100
AcDbEntity
  8
0
  6
HIDDEN
 62
     7
370
     0
100
AcDbSpline
210
0.0
220
0.0
230
1.0
 70
     8
 71
     3
 72
     8
 73
     4
 74
     0
 42
0.00000001
 43
0.00000001
 40
0.0
 40
0.0
 40
0.0
 40
0.0
 40
0.000159097695343
 40
0.000159097695343
 40
0.000159097695343
 40
0.000159097695343
 10
87.5870029142098
 20
91.40316828552862
 30
0.0
 10
87.54195144370547
 20
91.37518940120485
 30
0.0
 10
87.49689540529066
 20
91.34721787082978
 30
0.0
 10
87.4518349049918
 20
91.31925353147726
 30
0.0
  0
SPLINE
  5
146
330
1F
100
AcDbEntity
  8
0
  6
HIDDEN
 62
     7
370
     0
100
AcDbSpline
210
0.0
220
0.0
230
1.0
 70
     8
 71
     3
 72
    11
 73
     7
 74
     0
 42
0.00000001
 43
0.00000001
 40
0.0
 40
0.0
 40
0.0
 40
0.0
 40
0.0008212909311456
 40
0.0008212909311456
 40
0.0008212909311456
 40
0.001642825724306
 40
0.001642825724306
 40
0.001642825724306
 40
0.001642825724306
 10
87.4518349049918
 20
91.31925353147726
 30
0.0
 10
87.2606898835096
 20
91.2759673426247
 30
0.0
 10
87.06927154783314
 20
91.23503083298742
 30
0.0
 10
86.87762547317199
 20
91.19642906160082
 30
0.0
 10
86.6859223916304
 20
91.15781580776375
 30
0.0
 10
86.49397726834488
 20
91.12153559847775
 30
0.0
 10
86.30183490499171
 20
91.08756869212623
 30
0.0
  0
LINE
  5
147
330
1F
100
AcDbEntity
  8
0
  6
HIDDEN
 62
     7
370
     0
100
AcDbLine
 10
134.291834905
 20
127.390441849
 30
0.0
 11
134.291834905
 21
127.0546587216
 31
0.0
  0
LINE
  5
148
330
1F
100
AcDbEntity
  8
0
  6
HIDDEN
 62
     7
370
     0
100
AcDbLine
 10
138.111834905
 20
127.3904418489
 30
0.0
 11
138.111834905
 21
127.0546587216
 31
0.0
  0
LINE
  5
149
330
1F
100
AcDbEntity
  8
0
  6
HIDDEN
 62
     7
370
     0
100
AcDbLine
 10
139.5937677365
 20
131.6633483839
 30
0.0
 11
139.5937677365
 21
127.0546587216
 31
0.0
  0
SPLINE
  5
14A
330
1F
100
AcDbEntity
  8
0
  6
HIDDEN
 62
     7
370
     0
100
AcDbSpline
210
0.0
220
0.0
230
1.0
 70
     8
 71
     3
 72
    11
 73
     7
 74
     0
 42
0.00000001
 43
0.00000001
 40
0.0
 40
0.0
 40
0.0
 40
0.0
 40
0.0005781862223978
 40
0.0005781862223978
 40
0.0005781862223978
 40
0.0011563724723928
 40
0.0011563724723928
 40
0.0011563724723928
 40
0.0011563724723928
 10
87.30183490499178
 20
119.844801028607
 30
0.0
 10
87.13517435071617
 20
119.9093305400206
 30
0.0
 10
86.9685110538097
 20
119.9738332438644
 30
0.0
 10
86.80184446997946
 20
120.0383196922981
 30
0.0
 10
86.63517787772038
 20
120.102806143993
 30
0.0
 10
86.46850801209449
 20
120.1672761527211
 30
0.0
 10
86.30183490499174
 20
120.2317319194537
 30
0.0
  0
SPLINE
  5
14B
330
1F
100
AcDbEntity
  8
0
  6
HIDDEN
 62
     7
370
     0
100
AcDbSpline
210
0.0
220
0.0
230
1.0
 70
     8
 71
     3
 72
    11
 73
     7
 74
     0
 42
0.00000001
 43
0.00000001
 40
0.0
 40
0.0
 40
0.0
 40
0.0
 40
0.0005778746105108
 40
0.0005778746105108
 40
0.0005778746105108
 40
0.0011557494857226
 40
0.0011557494857226
 40
0.0011557494857226
 40
0.0011557494857226
 10
86.30183490499176
 20
94.17743686607037
 30
0.0
 10
86.4685017814051
 20
94.24324899276424
 30
0.0
 10
86.63516850096656
 20
94.30910747290186
 30
0.0
 10
86.80183514901518
 20
94.3750150458325
 30
0.0
 10
86.96850187353385
 20
94.44092264900284
 30
0.0
 10
87.13516856795445
 20
94.50687975739136
 30
0.0
 10
87.30183490499178
 20
94.57288149731406
 30
0.0
  0
SPLINE
  5
14C
330
1F
100
AcDbEntity
  8
0
  6
HIDDEN
 62
     7
370
     0
100
AcDbSpline
210
0.0
220
0.0
230
1.0
 70
     8
 71
     3
 72
    11
 73
     7
 74
     0
 42
0.00000001
 43
0.00000001
 40
0.0000000000000006
 40
0.0000000000000006
 40
0.0000000000000006
 40
0.0000000000000006
 40
0.0005780486062768
 40
0.0005780486062768
 40
0.0005780486062768
 40
0.0011560973514127
 40
0.0011560973514127
 40
0.0011560973514127
 40
0.0011560973514127
 10
86.30183490499176
 20
117.185473223252
 30
0.0
 10
86.46850476103668
 20
117.1231013617375
 30
0.0
 10
86.63517246512095
 20
117.0607475014398
 30
0.0
 10
86.80183876957459
 20
116.9984279412537
 30
0.0
 10
86.96850511026832
 20
116.9361083675169
 30
0.0
 10
87.13517006689712
 20
116.8738231631973
 30
0.0
 10
87.30183490499178
 20
116.8115980426286
 30
0.0
  0
SPLINE
  5
14D
330
1F
100
AcDbEntity
  8
0
  6
HIDDEN
 62
     7
370
     0
100
AcDbSpline
210
0.0
220
0.0
230
1.0
 70
     8
 71
     3
 72
    11
 73
     7
 74
     0
 42
0.00000001
 43
0.00000001
 40
0.0
 40
0.0
 40
0.0
 40
0.0
 40
0.0005782401583533
 40
0.0005782401583533
 40
0.0005782401583533
 40
0.0011564805960993
 40
0.0011564805960993
 40
0.0011564805960993
 40
0.0011564805960993
 10
87.30183490499178
 20
97.60383192916262
 30
0.0
 10
87.13518395464288
 20
97.54040647110183
 30
0.0
 10
86.96852436206024
 20
97.47705094744656
 30
0.0
 10
86.80185730963169
 20
97.4137533630966
 30
0.0
 10
86.63519017306787
 20
97.35045574679336
 30
0.0
 10
86.46851556562181
 20
97.28721595185263
 30
0.0
 10
86.30183490499174
 20
97.2240159452138
 30
0.0
  0
CIRCLE
  5
14E
330
1F
100
AcDbEntity
  8
0
  6
HIDDEN
 62
     7
370
     0
100
AcDbCircle
 10
125.201834905
 20
107.2046587216
 30
0.0
 40
5.0
  0
LINE
  5
14F
330
1F
100
AcDbEntity
  8
0
  6
HIDDEN
 62
     7
370
     0
100
AcDbLine
 10
192.7944097911
 20
115.9182743708
 30
0.0
 11
192.6766303438
 21
112.9205872621
 31
0.0
  0
LINE
  5
150
330
1F
100
AcDbEntity
  8
0
  6
HIDDEN
 62
     7
370
     0
100
AcDbLine
 10
192.2751653651
 20
115.4382897606
 30
0.0
 11
192.1966457336
 21
113.4398316881
 31
0.0
  0
LINE
  5
151
330
1F
100
AcDbEntity
  8
0
  6
HIDDEN
 62
     7
370
     0
100
AcDbLine
 10
198.128347595
 20
115.7087033837
 30
0.0
 11
198.0105681477
 21
112.711016275
 31
0.0
  0
LINE
  5
152
330
1F
100
AcDbEntity
  8
0
  6
HIDDEN
 62
     7
370
     0
100
AcDbLine
 10
198.201834905
 20
113.4540800526
 30
0.0
 11
198.1834024215
 21
112.9849420201
 31
0.0
  0
LINE
  5
153
330
1F
100
AcDbEntity
  8
0
  6
HIDDEN
 62
     7
370
     0
100
AcDbLine
 10
196.2328216943
 20
114.2820214613
 30
0.0
 11
196.2033768325
 21
113.5325996841
 31
0.0
  0
LINE
  5
154
330
1F
100
AcDbEntity
  8
0
  6
HIDDEN
 62
     7
370
     0
100
AcDbLine
 10
196.2328216943
 20
114.2820214613
 30
0.0
 11
198.2312797668
 21
114.2035018298
 31
0.0
  0
LINE
  5
155
330
1F
100
AcDbEntity
  8
0
  6
HIDDEN
 62
     7
370
     0
100
AcDbLine
 10
196.2622665561
 20
115.0314432385
 30
0.0
 11
196.2328216943
 21
114.2820214613
 31
0.0
  0
LINE
  5
156
330
1F
100
AcDbEntity
  8
0
  6
HIDDEN
 62
     7
370
     0
100
AcDbLine
 10
196.2033768325
 20
113.5325996841
 30
0.0
 11
198.201834905
 21
113.4540800526
 31
0.0
  0
LINE
  5
157
330
1F
100
AcDbEntity
  8
0
  6
HIDDEN
 62
     7
370
     0
100
AcDbLine
 10
196.2622665561
 20
115.0314432385
 30
0.0
 11
198.2607246286
 21
114.952923607
 31
0.0
  0
LINE
  5
158
330
1F
100
AcDbEntity
  8
0
  6
HIDDEN
 62
     7
370
     0
100
AcDbLine
 10
198.1898167695
 20
101.2611193646
 30
0.0
 11
198.201834905
 21
100.9552373905
 31
0.0
  0
LINE
  5
159
330
1F
100
AcDbEntity
  8
0
  6
HIDDEN
 62
     7
370
     0
100
AcDbLine
 10
198.1834024215
 20
101.424375423
 30
0.0
 11
198.1898167695
 21
101.2611193646
 31
0.0
  0
LINE
  5
15A
330
1F
100
AcDbEntity
  8
0
  6
HIDDEN
 62
     7
370
     0
100
AcDbLine
 10
198.0184578747
 20
101.4974942081
 30
0.0
 11
198.128347595
 21
98.7006140594
 31
0.0
  0
LINE
  5
15B
330
1F
100
AcDbEntity
  8
0
  6
HIDDEN
 62
     7
370
     0
100
AcDbLine
 10
198.0105681477
 20
101.6983011681
 30
0.0
 11
198.0184578747
 21
101.4974942081
 31
0.0
  0
LINE
  5
15C
330
1F
100
AcDbEntity
  8
0
  6
HIDDEN
 62
     7
370
     0
100
AcDbLine
 10
192.6845200708
 20
101.287923221
 30
0.0
 11
192.7944097911
 21
98.4910430723
 31
0.0
  0
LINE
  5
15D
330
1F
100
AcDbEntity
  8
0
  6
HIDDEN
 62
     7
370
     0
100
AcDbLine
 10
192.6766303438
 20
101.488730181
 30
0.0
 11
192.6845200708
 21
101.287923221
 31
0.0
  0
LINE
  5
15E
330
1F
100
AcDbEntity
  8
0
  6
HIDDEN
 62
     7
370
     0
100
AcDbLine
 10
192.2019055516
 20
100.8356144484
 30
0.0
 11
192.2751653651
 21
98.9710276825
 31
0.0
  0
LINE
  5
15F
330
1F
100
AcDbEntity
  8
0
  6
HIDDEN
 62
     7
370
     0
100
AcDbLine
 10
192.1966457336
 20
100.969485755
 30
0.0
 11
192.2019055516
 21
100.8356144484
 31
0.0
  0
LINE
  5
160
330
1F
100
AcDbEntity
  8
0
  6
HIDDEN
 62
     7
370
     0
100
AcDbLine
 10
196.2328216943
 20
100.1272959818
 30
0.0
 11
196.2033768325
 21
100.876717759
 31
0.0
  0
LINE
  5
161
330
1F
100
AcDbEntity
  8
0
  6
HIDDEN
 62
     7
370
     0
100
AcDbLine
 10
196.2328216943
 20
100.1272959818
 30
0.0
 11
196.2622665561
 21
99.3778742046
 31
0.0
  0
LINE
  5
162
330
1F
100
AcDbEntity
  8
0
  6
HIDDEN
 62
     7
370
     0
100
AcDbLine
 10
196.2328216943
 20
100.1272959818
 30
0.0
 11
198.2312797668
 21
100.2058156133
 31
0.0
  0
LINE
  5
163
330
1F
100
AcDbEntity
  8
0
  6
HIDDEN
 62
     7
370
     0
100
AcDbLine
 10
196.2033768325
 20
100.876717759
 30
0.0
 11
198.201834905
 21
100.9552373905
 31
0.0
  0
LINE
  5
164
330
1F
100
AcDbEntity
  8
0
  6
HIDDEN
 62
     7
370
     0
100
AcDbLine
 10
196.2622665561
 20
99.3778742046
 30
0.0
 11
198.2607246286
 21
99.4563938362
 31
0.0
  0
LINE
  5
165
330
1F
100
AcDbEntity
  8
0
  6
HIDDEN
 62
     7
370
     0
100
AcDbLine
 10
148.701834905
 20
104.2046587216
 30
0.0
 11
161.201834905
 21
104.2046587216
 31
0.0
  0
LINE
  5
166
330
1F
100
AcDbEntity
  8
0
  6
HIDDEN
 62
     7
370
     0
100
AcDbLine
 10
161.201834905
 20
110.2046587216
 30
0.0
 11
148.701834905
 21
110.2046587216
 31
0.0
  0
LINE
  5
167
330
1F
100
AcDbEntity
  8
0
  6
HIDDEN
 62
     7
370
     0
100
AcDbLine
 10
161.201834905
 20
104.2046587216
 30
0.0
 11
161.701834905
 21
104.7046587216
 31
0.0
  0
LINE
  5
168
330
1F
100
AcDbEntity
  8
0
  6
HIDDEN
 62
     7
370
     0
100
AcDbLine
 10
161.701834905
 20
109.7046587216
 30
0.0
 11
161.201834905
 21
110.2046587216
 31
0.0
  0
LINE
  5
169
330
1F
100
AcDbEntity
  8
0
  6
HIDDEN
 62
     7
370
     0
100
AcDbLine
 10
148.701834905
 20
110.2046587216
 30
0.0
 11
148.201834905
 21
109.7046587216
 31
0.0
  0
LINE
  5
16A
330
1F
100
AcDbEntity
  8
0
  6
HIDDEN
 62
     7
370
     0
100
AcDbLine
 10
148.201834905
 20
104.7046587216
 30
0.0
 11
148.701834905
 21
104.2046587216
 31
0.0
  0
LINE
  5
16B
330
1F
100
AcDbEntity
  8
0
  6
HIDDEN
 62
     7
370
     0
100
AcDbLine
 10
161.701834905
 20
104.7046587216
 30
0.0
 11
164.201834905
 21
104.7046587216
 31
0.0
  0
LINE
  5
16C
330
1F
100
AcDbEntity
  8
0
  6
HIDDEN
 62
     7
370
     0
100
AcDbLine
 10
164.201834905
 20
109.7046587216
 30
0.0
 11
161.701834905
 21
109.7046587216
 31
0.0
  0
LINE
  5
16D
330
1F
100
AcDbEntity
  8
0
  6
HIDDEN
 62
     7
370
     0
100
AcDbLine
 10
152.7018349049
 20
105.7046587216
 30
0.0
 11
159.701834905
 21
105.7046587216
 31
0.0
  0
LINE
  5
16E
330
1F
100
AcDbEntity
  8
0
  6
HIDDEN
 62
     7
370
     0
100
AcDbLine
 10
159.701834905
 20
108.7046587216
 30
0.0
 11
152.7018349049
 21
108.7046587216
 31
0.0
  0
LINE
  5
16F
330
1F
100
AcDbEntity
  8
0
  6
HIDDEN
 62
     7
370
     0
100
AcDbLine
 10
122.201834905
 20
121.5052892273
 30
0.0
 11
122.201834905
 21
119.5985993644
 31
0.0
  0
LINE
  5
170
330
1F
100
AcDbEntity
  8
0
  6
HIDDEN
 62
     7
370
     0
100
AcDbLine
 10
130.201834905
 20
119.5985993644
 30
0.0
 11
130.201834905
 21
121.5024938713
 31
0.0
  0
LINE
  5
171
330
1F
100
AcDbEntity
  8
0
  6
HIDDEN
 62
     7
370
     0
100
AcDbLine
 10
118.201834905
 20
81.8807275756
 30
0.0
 11
118.2959956805
 21
82.5507163068
 31
0.0
  0
LINE
  5
172
330
1F
100
AcDbEntity
  8
0
  6
HIDDEN
 62
     7
370
     0
100
AcDbLine
 10
118.2959956805
 20
131.8586011363
 30
0.0
 11
118.201834905
 21
132.5285898675
 31
0.0
  0
ARC
  5
173
330
1F
100
AcDbEntity
  8
0
  6
HIDDEN
 62
     7
370
     0
100
AcDbCircle
 10
117.7018281523
 20
82.6342211072
 30
0.0
 40
0.60000675266771
100
AcDbArc
 50
352.0
 51
0.0
  0
ARC
  5
174
330
1F
100
AcDbEntity
  8
0
  6
HIDDEN
 62
     7
370
     0
100
AcDbCircle
 10
117.7018281523
 20
82.6342211072
 30
0.0
 40
0.6000067526677124
100
AcDbArc
 50
0.0
 51
33.5571153394
  0
ARC
  5
175
330
1F
100
AcDbEntity
  8
0
  6
HIDDEN
 62
     7
370
     0
100
AcDbCircle
 10
117.7018281523
 20
131.775096336
 30
0.0
 40
0.6000067526677042
100
AcDbArc
 50
348.75
 51
8.0
  0
LWPOLYLINE
  5
176
330
1F
100
AcDbEntity
  8
0
  6
HIDDEN
 62
     7
370
     0
100
AcDbPolyline
 90
        3
 70
   128
 43
0.0
 10
118.2903059435
 20
131.6580408254
 10
118.2561621105
 20
131.5454836924
 10
118.201834905
 20
131.4434318209
  0
LINE
  5
177
330
1F
100
AcDbEntity
  8
0
  6
HIDDEN
 62
     7
370
     0
100
AcDbLine
 10
118.301834905
 20
82.6342211072
 30
0.0
 11
118.301834905
 21
131.775096336
 31
0.0
  0
LINE
  5
178
330
1F
100
AcDbEntity
  8
0
  6
HIDDEN
 62
     7
370
     0
100
AcDbLine
 10
101.2842704703
 20
87.2046587216
 30
0.0
 11
105.4618070467
 21
87.2046587216
 31
0.0
  0
LINE
  5
179
330
1F
100
AcDbEntity
  8
0
  6
HIDDEN
 62
     7
370
     0
100
AcDbLine
 10
105.4549522862
 20
127.2046587216
 30
0.0
 11
101.2842704703
 21
127.2046587216
 31
0.0
  0
ARC
  5
17A
330
1F
100
AcDbEntity
  8
0
  6
HIDDEN
 62
     7
370
     0
100
AcDbCircle
 10
111.9568369066
 20
95.2046587216
 30
0.0
 40
8.000000000000004
100
AcDbArc
 50
277.0480948018
 51
321.3178125465
  0
ARC
  5
17B
330
1F
100
AcDbEntity
  8
0
  6
HIDDEN
 62
     7
370
     0
100
AcDbCircle
 10
111.9568369066
 20
119.2046587216
 30
0.0
 40
8.000000000000004
100
AcDbArc
 50
38.6821874535
 51
82.8562452552
  0
ARC
  5
17C
330
1F
100
AcDbEntity
  8
0
  6
HIDDEN
 62
     7
370
     0
100
AcDbCircle
 10
101.2842704703
 20
87.8046587216
 30
0.0
 40
0.5999999999999962
100
AcDbArc
 50
210.0
 51
270.0
  0
ARC
  5
17D
330
1F
100
AcDbEntity
  8
0
  6
HIDDEN
 62
     7
370
     0
100
AcDbCircle
 10
101.2842704703
 20
126.6046587216
 30
0.0
 40
0.599999999999989
100
AcDbArc
 50
90.0
 51
150.0
  0
LINE
  5
17E
330
1F
100
AcDbEntity
  8
0
  6
HIDDEN
 62
     7
370
     0
100
AcDbLine
 10
100.764655228
 20
126.9046587216
 30
0.0
 11
99.2058095012
 21
124.2046587216
 31
0.0
  0
LINE
  5
17F
330
1F
100
AcDbEntity
  8
0
  6
HIDDEN
 62
     7
370
     0
100
AcDbLine
 10
99.2058095012
 20
90.2046587216
 30
0.0
 11
100.764655228
 21
87.5046587216
 31
0.0
  0
LINE
  5
180
330
1F
100
AcDbEntity
  8
0
  6
HIDDEN
 62
     7
370
     0
100
AcDbLine
 10
122.201834905
 20
134.4843909587
 30
0.0
 11
122.201834905
 21
131.1502611362
 31
0.0
  0
LINE
  5
181
330
1F
100
AcDbEntity
  8
0
  6
HIDDEN
 62
     7
370
     0
100
AcDbLine
 10
130.201834905
 20
131.1502611362
 30
0.0
 11
130.201834905
 21
134.4830162694
 31
0.0
  0
ARC
  5
182
330
1F
100
AcDbEntity
  8
0
  6
HIDDEN
 62
     7
370
     0
100
AcDbCircle
 10
126.651834905
 20
91.4796587216
 30
0.0
 40
1.5
100
AcDbArc
 50
238.2116693829
 51
0.0
  0
ARC
  5
183
330
1F
100
AcDbEntity
  8
0
  6
HIDDEN
 62
     7
370
     0
100
AcDbCircle
 10
126.651834905
 20
122.9296587216
 30
0.0
 40
1.5
100
AcDbArc
 50
0.0
 51
121.7883306171
  0
LINE
  5
184
330
1F
100
AcDbEntity
  8
0
  6
HIDDEN
 62
     7
370
     0
100
AcDbLine
 10
118.201834905
 20
90.2046587216
 30
0.0
 11
125.8616608735
 21
90.2046587216
 31
0.0
  0
LINE
  5
185
330
1F
100
AcDbEntity
  8
0
  6
HIDDEN
 62
     7
370
     0
100
AcDbLine
 10
125.8616608735
 20
124.2046587216
 30
0.0
 11
118.201834905
 21
124.2046587216
 31
0.0
  0
LINE
  5
186
330
1F
100
AcDbEntity
  8
0
  6
HIDDEN
 62
     7
370
     0
100
AcDbLine
 10
96.401834905
 20
90.2046587216
 30
0.0
 11
99.2058095012
 21
90.2046587216
 31
0.0
  0
LINE
  5
187
330
1F
100
AcDbEntity
  8
0
  6
HIDDEN
 62
     7
370
     0
100
AcDbLine
 10
99.2058095012
 20
124.2046587216
 30
0.0
 11
92.401834905
 21
124.2046587216
 31
0.0
  0
LINE
  5
188
330
1F
100
AcDbEntity
  8
0
  6
HIDDEN
 62
     7
370
     0
100
AcDbLine
 10
137.001834905
 20
97.7046587216
 30
0.0
 11
140.001834905
 21
97.7046587216
 31
0.0
  0
LINE
  5
189
330
1F
100
AcDbEntity
  8
0
  6
HIDDEN
 62
     7
370
     0
100
AcDbLine
 10
140.001834905
 20
116.7046587216
 30
0.0
 11
137.001834905
 21
116.7046587216
 31
0.0
  0
LINE
  5
18A
330
1F
100
AcDbEntity
  8
0
  6
HIDDEN
 62
     7
370
     0
100
AcDbLine
 10
128.151834905
 20
98.2046587216
 30
0.0
 11
128.651834905
 21
98.7046587216
 31
0.0
  0
LINE
  5
18B
330
1F
100
AcDbEntity
  8
0
  6
HIDDEN
 62
     7
370
     0
100
AcDbLine
 10
128.651834905
 20
115.7046587216
 30
0.0
 11
128.151834905
 21
116.2046587216
 31
0.0
  0
LINE
  5
18C
330
1F
100
AcDbEntity
  8
0
  6
HIDDEN
 62
     7
370
     0
100
AcDbLine
 10
128.651834905
 20
98.7046587216
 30
0.0
 11
137.001834905
 21
98.7046587216
 31
0.0
  0
LINE
  5
18D
330
1F
100
AcDbEntity
  8
0
  6
HIDDEN
 62
     7
370
     0
100
AcDbLine
 10
137.001834905
 20
115.7046587216
 30
0.0
 11
128.651834905
 21
115.7046587216
 31
0.0
  0
LINE
  5
18E
330
1F
100
AcDbEntity
  8
0
  6
HIDDEN
 62
     7
370
     0
100
AcDbLine
 10
123.151834905
 20
138.7046587216
 30
0.0
 11
123.151834905
 21
133.6046587216
 31
0.0
  0
ARC
  5
18F
330
1F
100
AcDbEntity
  8
0
  6
HIDDEN
 62
     7
370
     0
100
AcDbCircle
 10
197.701834905
 20
102.1679644735
 30
0.0
 40
0.4999999999999966
100
AcDbArc
 50
0.0
 51
80.0
  0
ARC
  5
190
330
1F
100
AcDbEntity
  8
0
  6
HIDDEN
 62
     7
370
     0
100
AcDbCircle
 10
197.701834905
 20
112.2413529696
 30
0.0
 40
0.5000000000000105
100
AcDbArc
 50
280.0
 51
0.0
  0
LINE
  5
191
330
1F
100
AcDbEntity
  8
0
  6
HIDDEN
 62
     7
370
     0
100
AcDbLine
 10
197.7886589938
 20
111.7489490931
 30
0.0
 11
194.701834905
 21
111.2046587216
 31
0.0
  0
LINE
  5
192
330
1F
100
AcDbEntity
  8
0
  6
HIDDEN
 62
     7
370
     0
100
AcDbLine
 10
194.701834905
 20
103.2046587216
 30
0.0
 11
197.7886589938
 21
102.66036835
 31
0.0
  0
LINE
  5
193
330
1F
100
AcDbEntity
  8
0
  6
HIDDEN
 62
     7
370
     0
100
AcDbLine
 10
113.3862727355
 20
83.125287388
 30
0.0
 11
112.951840586
 21
83.6043534071
 31
0.0
  0
LINE
  5
194
330
1F
100
AcDbEntity
  8
0
  6
HIDDEN
 62
     7
370
     0
100
AcDbLine
 10
105.4518372609
 20
84.0260413662
 30
0.0
 11
104.9694035176
 21
83.5469753908
 31
0.0
  0
LINE
  5
195
330
1F
100
AcDbEntity
  8
0
  6
HIDDEN
 62
     7
370
     0
100
AcDbLine
 10
104.9692815893
 20
130.8623367619
 30
0.0
 11
105.4518323403
 21
130.383216504
 31
0.0
  0
LINE
  5
196
330
1F
100
AcDbEntity
  8
0
  6
HIDDEN
 62
     7
370
     0
100
AcDbLine
 10
112.951834787
 20
130.8049142817
 30
0.0
 11
113.3863771773
 21
131.2840345322
 31
0.0
  0
ARC
  5
197
330
1F
100
AcDbEntity
  8
0
  6
HIDDEN
 62
     7
370
     0
100
AcDbCircle
 10
162.101834905
 20
103.3046587216
 30
0.0
 40
0.4000000000000057
100
AcDbArc
 50
180.0
 51
270.0
  0
ARC
  5
198
330
1F
100
AcDbEntity
  8
0
  6
HIDDEN
 62
     7
370
     0
100
AcDbCircle
 10
162.101834905
 20
111.1046587216
 30
0.0
 40
0.4000000000000057
100
AcDbArc
 50
90.0
 51
180.0
  0
LINE
  5
199
330
1F
100
AcDbEntity
  8
0
  6
HIDDEN
 62
     7
370
     0
100
AcDbLine
 10
165.201834905
 20
102.9046587216
 30
0.0
 11
171.3070608869
 21
102.9046587216
 31
0.0
  0
LINE
  5
19A
330
1F
100
AcDbEntity
  8
0
  6
HIDDEN
 62
     7
370
     0
100
AcDbLine
 10
162.101834905
 20
102.9046587216
 30
0.0
 11
162.2021029813
 21
102.9046587216
 31
0.0
  0
LINE
  5
19B
330
1F
100
AcDbEntity
  8
0
  6
HIDDEN
 62
     7
370
     0
100
AcDbLine
 10
162.2066523627
 20
111.5046587216
 30
0.0
 11
162.101834905
 21
111.5046587216
 31
0.0
  0
LINE
  5
19C
330
1F
100
AcDbEntity
  8
0
  6
HIDDEN
 62
     7
370
     0
100
AcDbLine
 10
171.3070608869
 20
111.5046587216
 30
0.0
 11
165.1964365251
 21
111.5046587216
 31
0.0
  0
ARC
  5
19D
330
1F
100
AcDbEntity
  8
0
  6
HIDDEN
 62
     7
370
     0
100
AcDbCircle
 10
171.3070608869
 20
103.3046587216
 30
0.0
 40
0.3999999999999977
100
AcDbArc
 50
270.0
 51
290.0
  0
ARC
  5
19E
330
1F
100
AcDbEntity
  8
0
  6
HIDDEN
 62
     7
370
     0
100
AcDbCircle
 10
171.3070608869
 20
111.1046587216
 30
0.0
 40
0.3999999999999915
100
AcDbArc
 50
70.0
 51
90.0
  0
LINE
  5
19F
330
1F
100
AcDbEntity
  8
0
  6
HIDDEN
 62
     7
370
     0
100
AcDbLine
 10
171.4438689442
 20
102.9287816732
 30
0.0
 11
172.201834905
 21
103.2046587216
 31
0.0
  0
LINE
  5
1A0
330
1F
100
AcDbEntity
  8
0
  6
HIDDEN
 62
     7
370
     0
100
AcDbLine
 10
172.201834905
 20
111.2046587216
 30
0.0
 11
171.4438689442
 21
111.4805357699
 31
0.0
  0
LINE
  5
1A1
330
1F
100
AcDbEntity
  8
0
  6
HIDDEN
 62
     7
370
     0
100
AcDbLine
 10
140.001834905
 20
103.0046587216
 30
0.0
 11
144.301834905
 21
103.0046587216
 31
0.0
  0
LINE
  5
1A2
330
1F
100
AcDbEntity
  8
0
  6
HIDDEN
 62
     7
370
     0
100
AcDbLine
 10
144.301834905
 20
111.4046587216
 30
0.0
 11
140.001834905
 21
111.4046587216
 31
0.0
  0
LINE
  5
1A3
330
1F
100
AcDbEntity
  8
0
  6
HIDDEN
 62
     7
370
     0
100
AcDbLine
 10
144.301834905
 20
103.0046587216
 30
0.0
 11
145.3232979573
 21
104.7046587216
 31
0.0
  0
LINE
  5
1A4
330
1F
100
AcDbEntity
  8
0
  6
HIDDEN
 62
     7
370
     0
100
AcDbLine
 10
145.3232979573
 20
109.7046587216
 30
0.0
 11
144.301834905
 21
111.4046587216
 31
0.0
  0
LINE
  5
1A5
330
1F
100
AcDbEntity
  8
0
  6
HIDDEN
 62
     7
370
     0
100
AcDbLine
 10
172.201834905
 20
103.2046587216
 30
0.0
 11
194.701834905
 21
103.2046587216
 31
0.0
  0
LINE
  5
1A6
330
1F
100
AcDbEntity
  8
0
  6
HIDDEN
 62
     7
370
     0
100
AcDbLine
 10
194.701834905
 20
111.2046587216
 30
0.0
 11
172.201834905
 21
111.2046587216
 31
0.0
  0
LINE
  5
1A7
330
1F
100
AcDbEntity
  8
0
  6
HIDDEN
 62
     7
370
     0
100
AcDbLine
 10
112.951834905
 20
83.6048373088
 30
0.0
 11
112.951834905
 21
87.2675858955
 31
0.0
  0
LINE
  5
1A8
330
1F
100
AcDbEntity
  8
0
  6
HIDDEN
 62
     7
370
     0
100
AcDbLine
 10
105.451834905
 20
87.2065209671
 30
0.0
 11
105.451834905
 21
84.026364604
 31
0.0
  0
LINE
  5
1A9
330
1F
100
AcDbEntity
  8
0
  6
HIDDEN
 62
     7
370
     0
100
AcDbLine
 10
112.951834905
 20
127.1424949122
 30
0.0
 11
112.951834905
 21
130.8046229756
 31
0.0
  0
LINE
  5
1AA
330
1F
100
AcDbEntity
  8
0
  6
HIDDEN
 62
     7
370
     0
100
AcDbLine
 10
105.451834905
 20
130.3830727247
 30
0.0
 11
105.451834905
 21
127.2040744603
 31
0.0
  0
LINE
  5
1AB
330
1F
100
AcDbEntity
  8
0
  6
HIDDEN
 62
     7
370
     0
100
AcDbLine
 10
158.651834905
 20
94.2046587216
 30
0.0
 11
157.651834905
 21
94.7820089907
 31
0.0
  0
LINE
  5
1AC
330
1F
100
AcDbEntity
  8
0
  6
HIDDEN
 62
     7
370
     0
100
AcDbLine
 10
152.651834905
 20
94.7820089907
 30
0.0
 11
151.651834905
 21
94.2046587216
 31
0.0
  0
LINE
  5
1AD
330
1F
100
AcDbEntity
  8
0
  6
HIDDEN
 62
     7
370
     0
100
AcDbLine
 10
151.651834905
 20
120.2046587216
 30
0.0
 11
152.651834905
 21
119.6273084524
 31
0.0
  0
LINE
  5
1AE
330
1F
100
AcDbEntity
  8
0
  6
HIDDEN
 62
     7
370
     0
100
AcDbLine
 10
157.651834905
 20
119.6273084524
 30
0.0
 11
158.651834905
 21
120.2046587216
 31
0.0
  0
LINE
  5
1AF
330
1F
100
AcDbEntity
  8
0
  6
HIDDEN
 62
     7
370
     0
100
AcDbLine
 10
161.701834905
 20
110.2046587216
 30
0.0
 11
161.201834905
 21
109.7046587216
 31
0.0
  0
LINE
  5
1B0
330
1F
100
AcDbEntity
  8
0
  6
HIDDEN
 62
     7
370
     0
100
AcDbLine
 10
161.201834905
 20
104.7046587216
 30
0.0
 11
161.701834905
 21
104.2046587216
 31
0.0
  0
LINE
  5
1B1
330
1F
100
AcDbEntity
  8
0
  6
HIDDEN
 62
     7
370
     0
100
AcDbLine
 10
152.651834905
 20
119.6273084524
 30
0.0
 11
152.651834905
 21
112.2046587216
 31
0.0
  0
LINE
  5
1B2
330
1F
100
AcDbEntity
  8
0
  6
HIDDEN
 62
     7
370
     0
100
AcDbLine
 10
157.651834905
 20
112.2046587216
 30
0.0
 11
157.651834905
 21
119.6273084524
 31
0.0
  0
LINE
  5
1B3
330
1F
100
AcDbEntity
  8
0
  6
HIDDEN
 62
     7
370
     0
100
AcDbLine
 10
145.3232979573
 20
104.7046587216
 30
0.0
 11
161.201834905
 21
104.7046587216
 31
0.0
  0
LINE
  5
1B4
330
1F
100
AcDbEntity
  8
0
  6
HIDDEN
 62
     7
370
     0
100
AcDbLine
 10
161.201834905
 20
109.7046587216
 30
0.0
 11
145.3232979573
 21
109.7046587216
 31
0.0
  0
LINE
  5
1B5
330
1F
100
AcDbEntity
  8
0
  6
HIDDEN
 62
     7
370
     0
100
AcDbLine
 10
152.651834905
 20
112.2046587216
 30
0.0
 11
155.151834905
 21
110.702507174
 31
0.0
  0
LINE
  5
1B6
330
1F
100
AcDbEntity
  8
0
  6
HIDDEN
 62
     7
370
     0
100
AcDbLine
 10
155.151834905
 20
110.702507174
 30
0.0
 11
157.651834905
 21
112.2046587216
 31
0.0
  0
LINE
  5
1B7
330
1F
100
AcDbEntity
  8
0
  6
HIDDEN
 62
     7
370
     0
100
AcDbLine
 10
157.651834905
 20
102.2046587216
 30
0.0
 11
155.151834905
 21
103.7068102691
 31
0.0
  0
LINE
  5
1B8
330
1F
100
AcDbEntity
  8
0
  6
HIDDEN
 62
     7
370
     0
100
AcDbLine
 10
155.151834905
 20
103.7068102691
 30
0.0
 11
152.651834905
 21
102.2046587216
 31
0.0
  0
LINE
  5
1B9
330
1F
100
AcDbEntity
  8
0
  6
HIDDEN
 62
     7
370
     0
100
AcDbLine
 10
157.651834905
 20
94.7820089907
 30
0.0
 11
157.651834905
 21
102.2046587216
 31
0.0
  0
LINE
  5
1BA
330
1F
100
AcDbEntity
  8
0
  6
HIDDEN
 62
     7
370
     0
100
AcDbLine
 10
152.651834905
 20
102.2046587216
 30
0.0
 11
152.651834905
 21
94.7820089907
 31
0.0
  0
LINE
  5
1BB
330
1F
100
AcDbEntity
  8
0
  6
HIDDEN
 62
     7
370
     0
100
AcDbLine
 10
162.201834905
 20
114.369376445
 30
0.0
 11
162.201834905
 21
111.5029806098
 31
0.0
  0
LINE
  5
1BC
330
1F
100
AcDbEntity
  8
0
  6
HIDDEN
 62
     7
370
     0
100
AcDbLine
 10
162.201834905
 20
118.2046587216
 30
0.0
 11
162.201834905
 21
116.7505927373
 31
0.0
  0
LINE
  5
1BD
330
1F
100
AcDbEntity
  8
0
  6
HIDDEN
 62
     7
370
     0
100
AcDbLine
 10
165.201834905
 20
116.750519937
 30
0.0
 11
165.201834905
 21
118.2046587216
 31
0.0
  0
LINE
  5
1BE
330
1F
100
AcDbEntity
  8
0
  6
HIDDEN
 62
     7
370
     0
100
AcDbLine
 10
165.201834905
 20
111.5027785654
 30
0.0
 11
165.201834905
 21
114.2502678046
 31
0.0
  0
LINE
  5
1BF
330
1F
100
AcDbEntity
  8
0
  6
HIDDEN
 62
     7
370
     0
100
AcDbLine
 10
162.201834905
 20
97.657485092
 30
0.0
 11
162.201834905
 21
96.7046587216
 31
0.0
  0
LINE
  5
1C0
330
1F
100
AcDbEntity
  8
0
  6
HIDDEN
 62
     7
370
     0
100
AcDbLine
 10
162.201834905
 20
102.9047511412
 30
0.0
 11
162.201834905
 21
100.0289309171
 31
0.0
  0
LINE
  5
1C1
330
1F
100
AcDbEntity
  8
0
  6
HIDDEN
 62
     7
370
     0
100
AcDbLine
 10
165.201834905
 20
100.1590496386
 30
0.0
 11
165.201834905
 21
102.9046587216
 31
0.0
  0
LINE
  5
1C2
330
1F
100
AcDbEntity
  8
0
  6
HIDDEN
 62
     7
370
     0
100
AcDbLine
 10
165.201834905
 20
96.7046587216
 30
0.0
 11
165.201834905
 21
97.6608775199
 31
0.0
  0
LINE
  5
1C3
330
1F
100
AcDbEntity
  8
0
  6
HIDDEN
 62
     7
370
     0
100
AcDbLine
 10
162.201834905
 20
96.7046587216
 30
0.0
 11
163.701834905
 21
95.803367793
 31
0.0
  0
LINE
  5
1C4
330
1F
100
AcDbEntity
  8
0
  6
HIDDEN
 62
     7
370
     0
100
AcDbLine
 10
163.701834905
 20
95.803367793
 30
0.0
 11
165.201834905
 21
96.7046587216
 31
0.0
  0
LINE
  5
1C5
330
1F
100
AcDbEntity
  8
0
  6
HIDDEN
 62
     7
370
     0
100
AcDbLine
 10
165.1987802083
 20
97.6570007227
 30
0.0
 11
198.201834905
 21
98.9536942733
 31
0.0
  0
LINE
  5
1C6
330
1F
100
AcDbEntity
  8
0
  6
HIDDEN
 62
     7
370
     0
100
AcDbLine
 10
198.201834905
 20
101.4556231698
 30
0.0
 11
165.201834905
 21
100.1590496386
 31
0.0
  0
LINE
  5
1C7
330
1F
100
AcDbEntity
  8
0
  6
HIDDEN
 62
     7
370
     0
100
AcDbLine
 10
165.201834905
 20
114.2502678046
 30
0.0
 11
198.201834905
 21
112.9536942733
 31
0.0
  0
LINE
  5
1C8
330
1F
100
AcDbEntity
  8
0
  6
HIDDEN
 62
     7
370
     0
100
AcDbLine
 10
198.201834905
 20
115.4556231698
 30
0.0
 11
165.2004614197
 21
116.7522506655
 31
0.0
  0
LINE
  5
1C9
330
1F
100
AcDbEntity
  8
0
  6
HIDDEN
 62
     7
370
     0
100
AcDbLine
 10
162.1805148306
 20
100.0403416495
 30
0.0
 11
161.4790928787
 21
98.7618182577
 31
0.0
  0
LINE
  5
1CA
330
1F
100
AcDbEntity
  8
0
  6
HIDDEN
 62
     7
370
     0
100
AcDbLine
 10
161.4790928787
 20
98.7618182577
 30
0.0
 11
162.2044403798
 21
97.6554794582
 31
0.0
  0
LINE
  5
1CB
330
1F
100
AcDbEntity
  8
0
  6
HIDDEN
 62
     7
370
     0
100
AcDbLine
 10
162.2029214108
 20
116.7515211721
 30
0.0
 11
161.4790928787
 21
115.6474991854
 31
0.0
  0
LINE
  5
1CC
330
1F
100
AcDbEntity
  8
0
  6
HIDDEN
 62
     7
370
     0
100
AcDbLine
 10
161.4790928787
 20
115.6474991854
 30
0.0
 11
162.1805148306
 21
114.3689757936
 31
0.0
  0
LINE
  5
1CD
330
1F
100
AcDbEntity
  8
0
  6
HIDDEN
 62
     7
370
     0
100
AcDbLine
 10
87.585171545
 20
86.3346587216
 30
0.0
 11
87.5962540314
 21
86.3346587216
 31
0.0
  0
LINE
  5
1CE
330
1F
100
AcDbEntity
  8
0
  6
HIDDEN
 62
     7
370
     0
100
AcDbLine
 10
192.7944097911
 20
115.9182743708
 30
0.0
 11
192.2751653651
 21
115.4382897606
 31
0.0
  0
LINE
  5
1CF
330
1F
100
AcDbEntity
  8
0
  6
HIDDEN
 62
     7
370
     0
100
AcDbLine
 10
192.1966457336
 20
113.4398316881
 30
0.0
 11
192.6766303438
 21
112.9205872621
 31
0.0
  0
LINE
  5
1D0
330
1F
100
AcDbEntity
  8
0
  6
HIDDEN
 62
     7
370
     0
100
AcDbLine
 10
198.128347595
 20
115.7087033837
 30
0.0
 11
192.7944097911
 21
115.9182743708
 31
0.0
  0
LINE
  5
1D1
330
1F
100
AcDbEntity
  8
0
  6
HIDDEN
 62
     7
370
     0
100
AcDbLine
 10
192.6766303438
 20
112.9205872621
 30
0.0
 11
198.0105681477
 21
112.711016275
 31
0.0
  0
LINE
  5
1D2
330
1F
100
AcDbEntity
  8
0
  6
HIDDEN
 62
     7
370
     0
100
AcDbLine
 10
198.0105681477
 20
112.711016275
 30
0.0
 11
198.1834024215
 21
112.9849420201
 31
0.0
  0
LINE
  5
1D3
330
1F
100
AcDbEntity
  8
0
  6
HIDDEN
 62
     7
370
     0
100
AcDbLine
 10
198.201834905
 20
115.5690269819
 30
0.0
 11
198.128347595
 21
115.7087033837
 31
0.0
  0
LINE
  5
1D4
330
1F
100
AcDbEntity
  8
0
  6
HIDDEN
 62
     7
370
     0
100
AcDbLine
 10
198.128347595
 20
98.7006140594
 30
0.0
 11
198.201834905
 21
98.8402904612
 31
0.0
  0
LINE
  5
1D5
330
1F
100
AcDbEntity
  8
0
  6
HIDDEN
 62
     7
370
     0
100
AcDbLine
 10
198.1834024215
 20
101.424375423
 30
0.0
 11
198.0105681477
 21
101.6983011681
 31
0.0
  0
LINE
  5
1D6
330
1F
100
AcDbEntity
  8
0
  6
HIDDEN
 62
     7
370
     0
100
AcDbLine
 10
198.0105681477
 20
101.6983011681
 30
0.0
 11
192.6766303438
 21
101.488730181
 31
0.0
  0
LINE
  5
1D7
330
1F
100
AcDbEntity
  8
0
  6
HIDDEN
 62
     7
370
     0
100
AcDbLine
 10
192.7944097911
 20
98.4910430723
 30
0.0
 11
198.128347595
 21
98.7006140594
 31
0.0
  0
LINE
  5
1D8
330
1F
100
AcDbEntity
  8
0
  6
HIDDEN
 62
     7
370
     0
100
AcDbLine
 10
192.6766303438
 20
101.488730181
 30
0.0
 11
192.1966457336
 21
100.969485755
 31
0.0
  0
LINE
  5
1D9
330
1F
100
AcDbEntity
  8
0
  6
HIDDEN
 62
     7
370
     0
100
AcDbLine
 10
192.2751653651
 20
98.9710276825
 30
0.0
 11
192.7944097911
 21
98.4910430723
 31
0.0
  0
DIMENSION
  5
1DA
330
1F
100
AcDbEntity
  8
VERMASSUNG
100
AcDbDimension
  2
*D1
 10
81.4319609967
 20
75.7046587216
 30
0.0
 11
81.4319609967
 21
107.2046587216
 31
0.0
 70
   160
  1
HSK A %%c<>
 71
     2
 42
-1.0
  3
SLDDIMSTYLE0
100
AcDbAlignedDimension
 13
118.501834905
 23
138.7046587216
 33
0.0
 14
118.501834905
 24
75.7046587216
 34
0.0
 50
90.0
100
AcDbRotatedDimension
  0
DIMENSION
  5
1E7
330
1F
100
AcDbEntity
  8
VERMASSUNG
100
AcDbDimension
  2
*D2
 10
198.201834905
 20
139.5637053088
 30
0.0
 11
179.951834905
 21
139.5637053088
 31
0.0
 70
   160
 71
     2
 42
-1.0
  3
SLDDIMSTYLE1
100
AcDbAlignedDimension
 13
161.701834905
 23
111.1046587216
 33
0.0
 14
198.201834905
 24
115.8558777382
 34
0.0
100
AcDbRotatedDimension
  0
DIMENSION
  5
1F2
330
1F
100
AcDbEntity
  8
VERMASSUNG
100
AcDbDimension
  2
*D3
 10
208.3117246253
 20
111.2046587216
 30
0.0
 11
208.3117246253
 21
107.2046587216
 31
0.0
 70
   160
  1
%%c<>
 71
     2
 42
-1.0
  3
SLDDIMSTYLE2
100
AcDbAlignedDimension
 13
194.701834905
 23
103.2046587216
 33
0.0
 14
194.701834905
 24
111.2046587216
 34
0.0
 50
90.0
100
AcDbRotatedDimension
  0
DIMENSION
  5
1FE
330
1F
100
AcDbEntity
  8
VERMASSUNG
100
AcDbDimension
  2
*D4
 10
214.3117246253
 20
117.7046587216
 30
0.0
 11
214.3117246253
 21
107.2046587216
 31
0.0
 70
   160
  1
%%c<> 
 71
     2
 42
-1.0
  3
SLDDIMSTYLE3
100
AcDbAlignedDimension
 13
198.201834905
 23
96.7046587216
 33
0.0
 14
198.201834905
 24
117.7046587216
 34
0.0
 50
90.0
100
AcDbRotatedDimension
  0
DIMENSION
  5
20B
330
1F
100
AcDbEntity
  8
VERMASSUNG
100
AcDbDimension
  2
*D5
 10
220.3117246253
 20
120.2046587216
 30
0.0
 11
220.3117246253
 21
107.2046587216
 31
0.0
 70
   160
  1
%%c<> 
 71
     2
 42
-1.0
  3
SLDDIMSTYLE3
100
AcDbAlignedDimension
 13
165.201834905
 23
94.2046587216
 33
0.0
 14
165.201834905
 24
120.2046587216
 34
0.0
 50
90.0
100
AcDbRotatedDimension
  0
DIMENSION
  5
217
330
1F
100
AcDbEntity
  8
VERMASSUNG
100
AcDbDimension
  2
*D6
 10
198.201834905
 20
151.5637053088
 30
0.0
 11
158.201834905
 21
151.5637053088
 31
0.0
 70
   160
  1
<> 
 71
     2
 42
-1.0
  3
SLDDIMSTYLE0
100
AcDbAlignedDimension
 13
118.201834905
 23
132.5285898675
 33
0.0
 14
198.201834905
 24
115.8558777382
 34
0.0
100
AcDbRotatedDimension
  0
DIMENSION
  5
222
330
1F
100
AcDbEntity
  8
VERMASSUNG
100
AcDbDimension
  2
*D7
 10
198.201834905
 20
145.5637053088
 30
0.0
 11
171.176834905
 21
145.5637053088
 31
0.0
 70
   160
 71
     2
 42
-1.0
  3
SLDDIMSTYLE0
100
AcDbAlignedDimension
 13
144.151834905
 23
137.0510990453
 33
0.0
 14
198.201834905
 24
115.8558777382
 34
0.0
100
AcDbRotatedDimension
  0
DIMENSION
  5
22C
330
1F
100
AcDbEntity
  8
VERMASSUNG
100
AcDbDimension
  2
*D8
 10
198.201834905
 20
157.5637053088
 30
0.0
 11
142.251834905
 21
157.5637053088
 31
0.0
 70
   160
 71
     2
 42
-1.0
  3
SLDDIMSTYLE0
100
AcDbAlignedDimension
 13
86.301834905
 23
126.895336468
 33
0.0
 14
198.201834905
 24
115.8558777382
 34
0.0
100
AcDbRotatedDimension
  0
LINE
  5
236
330
1F
100
AcDbEntity
  8
VERMASSUNG
  6
CENTERX2
370
     0
100
AcDbLine
 10
83.2885157096
 20
107.2046587216
 30
0.0
 11
200.201834905
 21
107.2046587216
 31
0.0
  0
OLE2FRAME
  5
237
330
1F
100
AcDbEntity
  8
0
100
AcDbOle2Frame
 70
     2
  3
Bitmap Image
 10
13.8511154363
 20
38.264191557
 30
0.0
 11
51.6290888628
 21
31.9806341108
 31
0.0
 71
     2
 72
     0
 73
     1
 90
    12928
310
80552BED0767C5B32B40DDAF6807D121434000000000000000006FFBDDFB85D0
310
4940DDAF6807D121434000000000000000006FFBDDFB85D04940416F4BD60AFB
310
3F4000000000000000002BED0767C5B32B40416F4BD60AFB3F40000000000000
310
0000000000000100000000010000010000000100000000000100000000320000
310
D0CF11E0A1B11AE1000000000000000000000000000000003E000300FEFF0900
310
0600000000000000000000000100000001000000000000000010000002000000
310
01000000FEFFFFFF0000000000000000FFFFFFFFFFFFFFFFFFFFFFFFFFFFFFFF
310
FFFFFFFFFFFFFFFFFFFFFFFFFFFFFFFFFFFFFFFFFFFFFFFFFFFFFFFFFFFFFFFF
310
FFFFFFFFFFFFFFFFFFFFFFFFFFFFFFFFFFFFFFFFFFFFFFFFFFFFFFFFFFFFFFFF
310
FFFFFFFFFFFFFFFFFFFFFFFFFFFFFFFFFFFFFFFFFFFFFFFFFFFFFFFFFFFFFFFF
310
FFFFFFFFFFFFFFFFFFFFFFFFFFFFFFFFFFFFFFFFFFFFFFFFFFFFFFFFFFFFFFFF
310
FFFFFFFFFFFFFFFFFFFFFFFFFFFFFFFFFFFFFFFFFFFFFFFFFFFFFFFFFFFFFFFF
310
FFFFFFFFFFFFFFFFFFFFFFFFFFFFFFFFFFFFFFFFFFFFFFFFFFFFFFFFFFFFFFFF
310
FFFFFFFFFFFFFFFFFFFFFFFFFFFFFFFFFFFFFFFFFFFFFFFFFFFFFFFFFFFFFFFF
310
FFFFFFFFFFFFFFFFFFFFFFFFFFFFFFFFFFFFFFFFFFFFFFFFFFFFFFFFFFFFFFFF
310
FFFFFFFFFFFFFFFFFFFFFFFFFFFFFFFFFFFFFFFFFFFFFFFFFFFFFFFFFFFFFFFF
310
FFFFFFFFFFFFFFFFFFFFFFFFFFFFFFFFFFFFFFFFFFFFFFFFFFFFFFFFFFFFFFFF
310
FFFFFFFFFFFFFFFFFFFFFFFFFFFFFFFFFFFFFFFFFFFFFFFFFFFFFFFFFFFFFFFF
310
FFFFFFFFFFFFFFFFFFFFFFFFFFFFFFFFFFFFFFFFFFFFFFFFFFFFFFFFFFFFFFFF
310
FFFFFFFFFFFFFFFFFFFFFFFFFFFFFFFFFFFFFFFFFFFFFFFFFFFFFFFFFFFFFFFF
310
FDFFFFFFFEFFFFFFFEFFFFFFFEFFFFFF05000000060000000700000008000000
310
090000000A0000000B0000000C0000000D0000000E0000000F00000010000000
310
11000000120000001300000014000000150000001600000017000000FEFFFFFF
310
FFFFFFFFFFFFFFFFFFFFFFFFFFFFFFFFFFFFFFFFFFFFFFFFFFFFFFFFFFFFFFFF
310
FFFFFFFFFFFFFFFFFFFFFFFFFFFFFFFFFFFFFFFFFFFFFFFFFFFFFFFFFFFFFFFF
310
FFFFFFFFFFFFFFFFFFFFFFFFFFFFFFFFFFFFFFFFFFFFFFFFFFFFFFFFFFFFFFFF
310
FFFFFFFFFFFFFFFFFFFFFFFFFFFFFFFFFFFFFFFFFFFFFFFFFFFFFFFFFFFFFFFF
310
FFFFFFFFFFFFFFFFFFFFFFFFFFFFFFFFFFFFFFFFFFFFFFFFFFFFFFFFFFFFFFFF
310
FFFFFFFFFFFFFFFFFFFFFFFFFFFFFFFFFFFFFFFFFFFFFFFFFFFFFFFFFFFFFFFF
310
FFFFFFFFFFFFFFFFFFFFFFFFFFFFFFFFFFFFFFFFFFFFFFFFFFFFFFFFFFFFFFFF
310
FFFFFFFFFFFFFFFFFFFFFFFFFFFFFFFFFFFFFFFFFFFFFFFFFFFFFFFFFFFFFFFF
310
FFFFFFFFFFFFFFFFFFFFFFFFFFFFFFFFFFFFFFFFFFFFFFFFFFFFFFFFFFFFFFFF
310
FFFFFFFFFFFFFFFFFFFFFFFFFFFFFFFFFFFFFFFFFFFFFFFFFFFFFFFFFFFFFFFF
310
FFFFFFFFFFFFFFFFFFFFFFFFFFFFFFFFFFFFFFFFFFFFFFFFFFFFFFFFFFFFFFFF
310
FFFFFFFFFFFFFFFFFFFFFFFFFFFFFFFFFFFFFFFFFFFFFFFFFFFFFFFFFFFFFFFF
310
FFFFFFFFFFFFFFFFFFFFFFFFFFFFFFFFFFFFFFFFFFFFFFFFFFFFFFFFFFFFFFFF
310
52006F006F007400200045006E00740072007900000000000000000000000000
310
0000000000000000000000000000000000000000000000000000000000000000
310
16000500FFFFFFFFFFFFFFFF020000000A00030000000000C000000000000046
310
000000000000000000000000707979D2C004CC0103000000C000000000000000
310
01004F006C006500000000000000000000000000000000000000000000000000
310
0000000000000000000000000000000000000000000000000000000000000000
310
0A000200FFFFFFFFFFFFFFFFFFFFFFFF00000000000000000000000000000000
310
0000000000000000000000000000000000000000000000001400000000000000
310
010043006F006D0070004F0062006A0000000000000000000000000000000000
310
0000000000000000000000000000000000000000000000000000000000000000
310
120002010100000003000000FFFFFFFF00000000000000000000000000000000
310
0000000000000000000000000000000000000000010000004D00000000000000
310
01004F006C006500310030004E00610074006900760065000000000000000000
310
0000000000000000000000000000000000000000000000000000000000000000
310
1A000200FFFFFFFFFFFFFFFFFFFFFFFF00000000000000000000000000000000
310
0000000000000000000000000000000000000000040000002426000000000000
310
FEFFFFFF02000000FEFFFFFFFFFFFFFFFFFFFFFFFFFFFFFFFFFFFFFFFFFFFFFF
310
FFFFFFFFFFFFFFFFFFFFFFFFFFFFFFFFFFFFFFFFFFFFFFFFFFFFFFFFFFFFFFFF
310
FFFFFFFFFFFFFFFFFFFFFFFFFFFFFFFFFFFFFFFFFFFFFFFFFFFFFFFFFFFFFFFF
310
FFFFFFFFFFFFFFFFFFFFFFFFFFFFFFFFFFFFFFFFFFFFFFFFFFFFFFFFFFFFFFFF
310
FFFFFFFFFFFFFFFFFFFFFFFFFFFFFFFFFFFFFFFFFFFFFFFFFFFFFFFFFFFFFFFF
310
FFFFFFFFFFFFFFFFFFFFFFFFFFFFFFFFFFFFFFFFFFFFFFFFFFFFFFFFFFFFFFFF
310
FFFFFFFFFFFFFFFFFFFFFFFFFFFFFFFFFFFFFFFFFFFFFFFFFFFFFFFFFFFFFFFF
310
FFFFFFFFFFFFFFFFFFFFFFFFFFFFFFFFFFFFFFFFFFFFFFFFFFFFFFFFFFFFFFFF
310
FFFFFFFFFFFFFFFFFFFFFFFFFFFFFFFFFFFFFFFFFFFFFFFFFFFFFFFFFFFFFFFF
310
FFFFFFFFFFFFFFFFFFFFFFFFFFFFFFFFFFFFFFFFFFFFFFFFFFFFFFFFFFFFFFFF
310
FFFFFFFFFFFFFFFFFFFFFFFFFFFFFFFFFFFFFFFFFFFFFFFFFFFFFFFFFFFFFFFF
310
FFFFFFFFFFFFFFFFFFFFFFFFFFFFFFFFFFFFFFFFFFFFFFFFFFFFFFFFFFFFFFFF
310
FFFFFFFFFFFFFFFFFFFFFFFFFFFFFFFFFFFFFFFFFFFFFFFFFFFFFFFFFFFFFFFF
310
FFFFFFFFFFFFFFFFFFFFFFFFFFFFFFFFFFFFFFFFFFFFFFFFFFFFFFFFFFFFFFFF
310
FFFFFFFFFFFFFFFFFFFFFFFFFFFFFFFFFFFFFFFFFFFFFFFFFFFFFFFFFFFFFFFF
310
FFFFFFFFFFFFFFFFFFFFFFFFFFFFFFFFFFFFFFFFFFFFFFFFFFFFFFFFFFFFFFFF
310
0100000200000000000000000000000000000000000000000000000000000000
310
000000000000000038000000410000006C0DD30100000000960EAE0100000000
310
0100FEFF030A0000FFFFFFFF0A00030000000000C00000000000004607000000
310
5042727573680007000000504272757368000700000050427275736800F439B2
310
7100000000000000000000000000000000000000000000000000C70600000000
310
425D000000000000000000000000000000000000000000003800000041000000
310
6C0DD301000000001E0E11020000000000000000000000000000000000000000
310
0000C70600000000435D00000000000000000000000000000000000000000000
310
38000000410000006C0DD301000000004E0E8503000000000000000000000000
310
00000000000000000000C706000000003D5D0000000000000000000000000000
310
000000000000000038000000410000006C0DD30100000000A40E290200000000
310
000000000000000000000000000000000000C706000000003E5D000000000000
310
0000000000000000000000000000000038000000410000006C0DD30100000000
310
420E330200000000000000000000000000000000000000000000C70600000000
310
3F5D000000000000000000000000000000000000000000003800000041000000
310
6C0DD30100000000020E8F010000000000000000000000000000000000000000
310
20260000424D0E260000000000003E00000028000000B40200006E0000000100
310
01000000000000000000130B0000130B00000200000002000000000000FFFFFF
310
FFFFFFFFFFFFFFFFFFFFFFFFFFFFFFFFFFFFFFFFFFFFFFFFFFFFFFFFFFFFFFFF
310
FFFFFFFFFFFFFFFFFFFFFFFFFFFFFFFFFFFFFFFFFFFFFFFFFFFFFFFFFFFFFFFF
310
FFFFFFFFFFFFFFFFFFFFFFFFFFFFFFFFFFFFFFFFFFFFFFFFF000FFFFFFFFFFFF
310
FFFFFFFFFFFFFFFFFFFFFFFFFFFFFFFFFFFFFFFFFFFFFFFFFFFFFFFFFFFFFFFF
310
FFFFFFFFFFFFFFFFFFFFFFFFFFFFFFFFFFFFFFFFFFFFFFFFFFFFFFFFFFFFFFFF
310
FFFFFFFFFFFFFFFFFFFFFFFFFFFFFFFFF000FFFFFFFFFFFFFFFFFFFFFFFFFFFF
310
FFFFFFFFFFFFFFFFFFFFFFFFFFFFFFFFFFFFFFFFFFFFFFFFFFFFFFFFFFFFFFFF
310
FFFFFFFFFFFFFFFFFFFFFFFFFFFFFFFFFFFFFFFFFFFFFFFFFFFFFFFFFFFFFFFF
310
FFFFFFFFFFFFFFFFF000FFFFFFFFFFFFFFFFFFFFFFFFFFFFFFFFFFFFFFFFFFFF
310
FFFFFFFFFFFFFFFFFFFFFFFFFFFFFFFFFFFFFFFFFFFFFFFFFFFFFFFFFFFFFFFF
310
FFFFFFFFFFFFFFFFFFFFFFFFFFFFFFFFFFFFFFFFFFFFFFFFFFFFFFFFFFFFFFFF
310
F000FFFFFFFFFFFFFFFFFFFFFFFFFFFFFFFFFFFFFFFFFFFFFFFFFFFFFFFFFFFF
310
FFFFFFFFFFFFFFFFFFFFFFFFFFFFFFFFFFFFFFFFFFFFFFFFFFFFFFFFFFFFFFFF
310
FFFFFFFFFFFFFFFFFFFFFFFFFFFFFFFFFFFFFFFFFFFFFFFFF000FFFFFFFFFFFF
310
FFFFFFFFFFFFFFFFFFFFFFFFFFFFFFFFFFFFFFFFFFFFFFFFFFFFFFFFFFFFFFFF
310
FFFFFFFFFFFFFFFFFFFFFFFFFFFFFFFFFFFFFFFFFFFFFFFFFFFFFFFFFFFFFFFF
310
FFFFFFFFFFFFFFFFFFFFFFFFFFFFFFFFF000FFFFFFFFFFFFFFFFFFFFFFFFFFFF
310
FFFFFFFFFFFFFFFFFFFFFFFFFFFFFFFFFFFFFFFFFFFFFFFFFFFFFFFFFFFFFFFF
310
FFFFFFFFFFFFFFFFFFFFFFFFFFFFFFFFFFFFFFFFFFFFFFFFFFFFFFFFFFFFFFFF
310
FFFFFFFFFFFFFFFFF000FFFFFFFFFFFFFFFFFFFFFFFFFFFFFFFFFFFFFFFFFFFF
310
FFFFFFFFFFFFFFFFFFFFFFFFFFFFFFFFFFFFFFFFFFFFFFFFFFFFFFFFFFFFFFFF
310
FFFFFFFFFFFFFFFFFFFFFFFFFFFFFFFFFFFFFFFFFFFFFFFFFFFFFFFFFFFFFFFF
310
F000FFFFFFFFFFFFFFFFFFFFFFFFFFFFFFFFFFFFFFFFFFFFFFFFFFFFFFFFFFFF
310
FFFFFFFFFFFFFFFFFFFFFFFFFFFFFFFFFFFFFFFFFFFFFFFFFFFFFFFFFFFFFFFF
310
FFFFFFFFFFFFFFFFFFFFFFFFFFFFFFFFFFFFFFFFFFFFFFFFF000FFFFFFFFFFFF
310
FFFFFFFFFFFFFFFFFFFFFFFFFFFFFFFFFFFFFFFFFFFFFFFFFFFFFFFFFFFFFFFF
310
FFFFFFFFFFFFFFFFFFFFFFFFFFFFFFFFFFFFFFFFFFFFFFFFFFFFFFFFFFFFFFFF
310
FFFFFFFFFFFFFFFFFFFFFFFFFFFFFFFFF000FFFFFFFFFFFFFFFFFFFFFFFFFFFF
310
FFFFFFFFFFFFFFFFFFFFFFFFFFFFFFFFFFFFFFFFFFFFFFFFFFFFFFFFFFFFFFFF
310
FFFFFFFFFFFFFFFFFFFFFFFFFFFFFFFFFFFFFFFFFFFFFFFFFFFFFFFFFFFFFFFF
310
FFFFFFFFFFFFFFFFF000FFFFFFFFFFFFFFFFFFFFFFFFFFFFFFFFFFFFFFFFFFFF
310
FFFFFFFFFFFFFFFFFFFFFFFFFFFFFFFFFFFFFFFFFFFFFFFFFFFFFFFFFFFFFFFF
310
FFFFFFFFFFFFFFFFFFFFFFFFFFFFFFFFFFFFFFFFFFFFFFFFFFFFFFFFFFFFFFFF
310
F000FFFFFFFFFFFFFFFFFFFFFFFFFFFFFFFFFFFFFFFFFFFFFFFFFFFFFFFFFFFF
310
FFFFFFFFFFFFFFFFFFFFFFFFFFFFFFFFFFFFFFFFFFFFFFFFFFFFFFFFFFFFFFFF
310
FFFFFFFFFFFFFFFFFFFFFFFFFFFFFFFFFFFFFFFFFFFFFFFFF000FFFFFFFFFFFF
310
FFFFFFFFFFFFFFFFFFFFFFFFFFFFFFFFFFFFFFFFFFFFFFFFFFFFFFFFFFFFFFFF
310
FFFFFFFFFFFFFFFFFFFFFFFFFFFFFFFFFFFFFFFFFFFFFFFFFFFFFFFFFFFFFFFF
310
FFFFFFFFFFFFFFFFFFFFFFFFFFFFFFFFF000FFFFFFFFFFFFFFFFFFFFFFFFFFFF
310
FFFFFFFFFFFFFFFFFFFFFFFFFFFFFFFFFFFFFFFFFFFFFFFFFFFFFFFFFFFFFFFF
310
FFFFFFFFFFFFFFFFFFFFFFFFFFFFFFFFFFFFFFFFFFFFFFFFFFFFFFFFFFFFFFFF
310
FFFFFFFFFFFFFFFFF000FFFFFFFFFFFFFFFFFFFFFFFFFFFFFFFFFFFFFFFFFFFF
310
FFFFFFFFFFFFFFFFFFFFFFFFFFFFFFFFFFFFFFFFFFFFFFFFFFFFFFFFFFFFFFFF
310
FFFFFFFFFFFFFFFFFFFFFFFFFFFFFFFFFFFFFFFFFFFFFFFFFFFFFFFFFFFFFFFF
310
F000FFFFFFFFFFFFFFFFFFFFFFFFFFFFFFFFFFFFFFFFFFFFFFFFFFFFFFFFFFFF
310
FFFFFFFFFFFFFFFFFFFFFFFFFFFFFFFFFFFFFFFFFFFFFFFFFFFFFFFFFFFFFFFF
310
FFFFFFFFFFFFFFFFFFFFFFFFFFFFFFFFFFFFFFFFFFFFFFFFF000FFFFFFFFFFFF
310
FFFFFFFFFFFFFFFFFFFFFFFFFFFFFFFFFFFFFFFFFFFFFFFFFFFFFFFFFFFFFFFF
310
FFFFFFFFFFFFFFFFFFFFFFFFFFFFFFFFFFFFFFFFFFFFFFFFFFFFFFFFFFFFFFFF
310
FFFFFFFFFFFFFFFFFFFFFFFFFFFFFFFFF000FFFFFFFFFFFFFFFFFFFFFFFFFFFF
310
FFFFFFFFFFFFFFFFFFFFFFFFFFFFFFFFFFFFFFFFFFFFFFFFFFFFFFFFFFFFFFFF
310
FFFFFFFFFFFFFFFFFFFFFFFFFFFFFFFFFFFFFFFFFFFFFFFFFFFFFFFFFFFFFFFF
310
FFFFFFFFFFFFFFFFF000FFFFF80003FFFFFFFFFFFFFFFFFFFFFFFFFFFFFFFFFF
310
FFFFF00007FFFFFFFFFF00007FFFFFF800000000000000007FFFFFFFFFFFFFFF
310
FFFFFFFC001FFFFFFFFFFFFFFC001FFFFFFFFFFFFFFFFFFFFFFFFFFE0007FFFF
310
F000FFFF8000007FFFFFFFF8000FFFFFC0007FFFFF80007FFFFF0000007FFFFF
310
FFF8000007FFFFF800000000000000007FFFFFF0001FFFFFFFFFFFC00001FFFF
310
FFFFFFFFC00001FFFFFFFF000000000003FFFFE000007FFFF000FFFE0000000F
310
FFFFFFF0000FFFFF80007FFFFF80007FFFFC0000001FFFFFFFC0000001FFFFF8
310
00000000000000007FFFFFF0001FFFFFFFFFFE0000003FFFFFFFFFFE0000003F
310
FFFFFF000000000003FFFF0000000FFFF000FFF800000003FFFFFFF00007FFFF
310
80007FFFFF80007FFFF000000007FFFFFF000000003FFFF80000000000000000
310
7FFFFFF0001FFFFFFFFFF80000000FFFFFFFFFF80000000FFFFFFF0000000000
310
03FFFC00000003FFF000FFE000000000FFFFFFF00007FFFF80003FFFFF80007F
310
FFC000000001FFFFFC000000001FFFF800000000000000007FFFFFF0001FFFFF
310
FFFFE000000003FFFFFFFFE000000003FFFFFF000000000003FFF000000000FF
310
F000FF80000000007FFFFFF00007FFFF80003FFFFF80007FFF8000000000FFFF
310
F80000000007FFF800000000000000007FFFFFF0001FFFFFFFFFC000000001FF
310
FFFFFFC000000001FFFFFF000000000003FFC0000000007FF000FF0000000000
310
3FFFFFE00007FFFF00003FFFFF80007FFE00000000003FFFF00000000003FFF8
310
00000000000000007FFFFFF0001FFFFFFFFF8000000000FFFFFFFF8000000000
310
FFFFFF000000000003FF80000000003FF000FE00000000001FFFFFE00003FFFF
310
00003FFFFF80007FFC00000000001FFFE00000000001FFF8000001FFFE000000
310
7FFFFFF0001FFFFFFFFE00000000003FFFFFFE00000000003FFFFF0000000000
310
03FF00000000001FF000FC00000000000FFFFFE00003FFFF00001FFFFF80007F
310
F800000000001FFFC00000000000FFF8000001FFFE0000007FFFFFF0001FFFFF
310
FFFC00000000001FFFFFFC00000000001FFFFF000000000003FE00000000000F
310
F000F8000000000007FFFFE00003FFFF00001FFFFF80007FF800000000000FFF
310
800000000000FFF8000001FFFE0000007FFFFFF0001FFFFFFFF800000000000F
310
FFFFF800000000000FFFFF000000000003FC000000000007F000F80000000000
310
03FFFFC00003FFFE00001FFFFF80007FF0000000000007FF0000000000007FF8
310
000001FFFE0000007FFFFFF0001FFFFFFFF0000000000007FFFFF00000000000
310
07FFFF000000000003F8000000000003F000F0000000000003FFFFC00001FFFE
310
00001FFFFF80007FE0000000000007FE0000000000003FF8000001FFFE000000
310
7FFFFFF0001FFFFFFFF0000000000007FFFFF0000000000007FFFF0000000000
310
03F800001F800003F000E00001FFF00001FFFFC00001FFFE00000FFFFF80007F
310
E00001FFE00003FE00001FFF00003FF8000001FFFE0000007FFFFFF0001FFFFF
310
FFE000003E000003FFFFE000003E000003FFFF000000000003F00001FFF80001
310
F000E00007FFFC0001FFFFC00001FFFE00000FFFFF80007FC0000FFFFC0003FC
310
0000FFFFC0001FF8000001FFFE0000007FFFFFF0001FFFFFFFC00003FFE00001
310
FFFFC00003FFE00001FFFF0001FFFFFFFFF00007FFFE0001F000E0000FFFFF00
310
00FFFF800001FFFC00000FFFFF80007FC0001FFFFE0001FC0001FFFFE0001FF8
310
000001FFFE0000007FFFFFF0001FFFFFFF80000FFFF80000FFFF80000FFFF800
310
00FFFF0003FFFFFFFFE0000FFFFF8000F000C0003FFFFF8000FFFF800000FFFC
310
000007FFFF80007F80003FFFFF0001FC0003FFFFF0001FF8000001FFFE000000
310
7FFFFFF0001FFFFFFF80003FFFFE0000FFFF80003FFFFE0000FFFF0003FFFFFF
310
FFE0003FFFFF8000F000C0003FFFFF8000FFFF800000FFFC000007FFFF80007F
310
80007FFFFF8001F80007FFFFF8000FF8000001FFFE0000007FFFFFF0001FFFFF
310
FF00007FFFFF00007FFF00007FFFFF00007FFF0003FFFFFFFFE0003FFFFFC000
310
F000C0007FFFFFC000FFFF000000FFFC000007FFFF80007F8000FFFFFF8000F8
310
000FFFFFF8000FF8000001FFFE0000007FFFFFF0001FFFFFFF0000FFFFFF8000
310
7FFF0000FFFFFF80007FFF0003FFFFFFFFC0007FFFFFC00070008000FFFFFFC0
310
00FFFF000000FFF8000007FFFF80007F8000FFFFFF8000F8000FFFFFF8000FF8
310
000001FFFE0000007FFFFFF0001FFFFFFE0001FFFFFFC0003FFE0001FFFFFFC0
310
003FFF0003FFFFFFFFC0007FFFFFE00070008000FFFFFFC0007FFF0000007FF8
310
000003FFFF80007F0001FFFFFF8000F8000FFFFFF8000FF8000001FFFE000000
310
7FFFFFF0001FFFFFFE0001FFFFFFC0003FFE0001FFFFFFC0003FFF0003FFFFFF
310
FFC000FFFFFFE00070008000FFFFFFC0007FFF0000007FF8000003FFFF80007F
310
0001FFFFFF8000F8001FFFFFF8000FF8000001FFFE0000007FFFFFF0001FFFFF
310
FE0003FFFFFFE0003FFE0003FFFFFFE0003FFF0003FFFFFFFFC000FFFFFFE000
310
70008000FFFFFFC0007FFE0000007FF8000003FFFF80007F0001FFFFFF8000F0
310
001FFFFFF8000FF8000001FFFE0000007FFFFFF0001FFFFFFC0003FFFFFFE000
310
1FFC0003FFFFFFE0001FFF0003FFFFFFFFC000FFFFFFC00070008000FFFFFF80
310
007FFE0000007FF0000003FFFF80007F0001FFFFFF0000F0001FFFFFF8000FF8
310
000001FFFE0000007FFFFFF0001FFFFFFC0007FFFFFFF0001FFC0007FFFFFFF0
310
001FFF0003FFFFFFFFC000FFFFFFC00070008001FFFFFF0000FFFE0000003FF0
310
000001FFFF80007F0001FFFFFF0000F8001FFFFFF0000FF8000001FFFE000000
310
7FFFFFF0001FFFFFFC0007FFFFFFF0001FFC0007FFFFFFF0001FFF0003FFFFFF
310
FFC001FFFFFF80007000FFFFFFFFFE0000FFFE0008003FF0008001FFFF80007F
310
FFFFFFFFFC0000FFFFFFFFFFE0000FF8000001FFFE0000007FFFFFF0001FFFFF
310
F8000FFFFFFFF8000FF8000FFFFFFFF8000FFF0003FFFFFFFFFFFFFFFFFF0000
310
7000FFFFFFFFFC0000FFFC0008003FF0008001FFFF80007FFFFFFFFFF80001FF
310
FFFFFFFF80000FF8000001FFFE0000007FFFFFF0001FFFFFF8000FFFFFFFF800
310
0FF8000FFFFFFFF8000FFF0003FFFFFFFFFFFFFFFFFE0000F000FFFFFFFFE000
310
00FFFC000C003FE000C001FFFF80007FFFFFFFFFC00001FFFFFFFFFE00001FF8
310
000001FFFE0000007FFFFFF0001FFFFFF8000FFFFFFFF8000FF8000FFFFFFFF8
310
000FFF0003FFFFFFFFFFFFFFFFF00000F000FFFFFFFE000001FFFC000C001FE0
310
00C000FFFF80007FFFFFFFFE000001FFFFFFFFE000001FF80FFFFFFFFFFFFFC0
310
7FFFFFF0001FFFFFF8000FFFFFFFF8000FF8000FFFFFFFF8000FFF0003FFFFFF
310
FFFFFFFFFF800000F000FFFFFFC0000001FFFC001C001FE001C000FFFF80007F
310
FFFFFF80000003FFFFFFF80000001FF80FFFFFFFFFFFFFC07FFFFFF0001FFFFF
310
F8001FFFFFFFFC000FF8001FFFFFFFFC000FFF0003FFFFFFFFFFFFFFF0000001
310
F000FFFFF800000001FFF8001C001FE001C000FFFF80007FFFFFF800000003FF
310
FFFF800000003FF80FFFFFFFFFFFFFC07FFFFFF0001FFFFFF8001FFFFFFFFC00
310
0FF8001FFFFFFFFC000FFF0003FFFFFFFFFFFFFE00000001F000FFFFC0000000
310
03FFF8001E001FC001E000FFFF80007FFFFF8000000007FFFFFC000000003FF8
310
0FFFFFFFFFFFFFC07FFFFFF0001FFFFFF8001FFFFFFFFC000FF8001FFFFFFFFC
310
000FFF0003FFFFFFFFFFFFE000000003F000FFFE0000000007FFF8001E000FC0
310
01E0007FFF80007FFFFE0000000007FFFFE0000000007FF80FFFFFFFFFFFFFC0
310
7FFFFFF0001FFFFFF0001FFFFFFFFC0007F0001FFFFFFFFC0007FF0003FFFFFF
310
FFFFFF0000000003F000FFF80000000007FFF8001E000FC003E0007FFF80007F
310
FFF0000000000FFFFF8000000000FFF80FFFFFFFFFFFFFC07FFFFFF0001FFFFF
310
F0001FFFFFFFFC0007F0001FFFFFFFFC0007FF0003FFFFFFFFFFFC0000000007
310
F000FFE0000000000FFFF0003E000FC003E0007FFF80007FFFC0000000001FFF
310
FE0000000001FFF80FFFFFFFFFFFFFC07FFFFFF0001FFFFFF0001FFFFFFFFC00
310
07F0001FFFFFFFFC0007FF0003FFFFFFFFFFF0000000000FF000FFC000000000
310
1FFFF0003F000F8003F0003FFF80007FFF80000000003FFFF80000000003FFF8
310
0FFFFFFFFFFFFFC07FFFFFF0001FFFFFF0001FFFFFFFFC0007F0001FFFFFFFFC
310
0007FF0003FFFFFFFFFFE0000000001FF000FF00000000007FFFF0003F000780
310
03F0003FFF80007FFF00000000007FFFF00000000007FFF80FFFFFFFFFFFFFC0
310
7FFFFFF0001FFFFFF0001FFFFFFFFC0007F0001FFFFFFFFC0007FF0003FFFFFF
310
FFFF80000000007FF000FE0000000000FFFFE0003F00078007F0003FFF80007F
310
FE0000000001FFFFE0000000001FFFF80FFFFFFFFFFFFFC07FFFFFF0001FFFFF
310
F0001FFFFFFFFC0007F0001FFFFFFFFC0007FF0003FFFFFFFFFF0000000000FF
310
F000FC0000000003FFFFE0007F00078007F0003FFF80007FFC0000000007FFFF
310
C0000000007FFFF80FFFFFFFFFFFFFC07FFFFFF0001FFFFFF8001FFFFFFFFC00
310
0FF8001FFFFFFFFC000FFF0003FFFFFFFFFE0000000003FFF000FC000000000F
310
FFFFE0007F80070007F8001FFF80007FF8000000001FFFFF8000000001FFFFF8
310
0FFFFFFFFFFFFFC07FFFFFF0001FFFFFF8001FFFFFFFFC000FF8001FFFFFFFFC
310
000FFF0003FFFFFFFFFC000000000FFFF000F8000000007FFFFFE0007F800700
310
07F8001FFF80007FF000000000FFFFFF800000000FFFFFF80FFFFFFFFFFFFFC0
310
7FFFFFF0001FFFFFF8000FFFFFFFF8000FF8000FFFFFFFF8000FFF0003FFFFFF
310
FFFC000000007FFFF000F800000007FFFFFFC0007F8003000FF8001FFF80007F
310
F000000007FFFFFF000000007FFFFFF80FFFFFFFFFFFFFC07FFFFFF0001FFFFF
310
F8000FFFFFFFF8000FF8000FFFFFFFF8000FFF0003FFFFFFFFF80000000FFFFF
310
F000F0000000FFFFFFFFC000FF8003000FF8001FFF80007FE0000000FFFFFFFF
310
0000000FFFFFFFF8000001FFFE0000007FFFFFF0001FFFFFF8000FFFFFFFF800
310
0FF8000FFFFFFFF8000FFF0003FFFFFFFFF8000000FFFFFFF000F000000FFFFF
310
FFFFC000FFC002000FF8000FFF80007FE000001FFFFFFFFE000001FFFFFFFFF8
310
000001FFFE0000007FFFFFF0001FFFFFF8000FFFFFFFF8000FF8000FFFFFFFF8
310
000FFF0003FFFFFFFFF000001FFFFFFFF000E00000FFFFFFFFFFC000FFC00200
310
0FFC000FFF80007FE00001FFFFFFFFFE00001FFFFFFFFFF8000001FFFE000000
310
7FFFFFF0001FFFFFFC000FFFFFFFF8001FFC000FFFFFFFF8001FFF0003FFFFFF
310
FFF00001FFFFFFFFF000E00007FFFFFFFFFF8000FFC000001FFC000FFF80007F
310
C0000FFFFFFFFFFE0000FFFFFFFFFFF8000001FFFE0000007FFFFFF0001FFFFF
310
FC0007FFFFFFF0001FFC0007FFFFFFF0001FFF0003FFFFFFFFF00007FFFFFFFF
310
F000E0001FFFFFFFFFFF8000FFC000001FFC000FFF80007FC0003FFFFFFFFFFE
310
0001FFFFFFFFFFF8000001FFFE0000007FFFFFF0001FFFFFFC0007FFFFFFF000
310
1FFC0007FFFFFFF0001FFF0003FFFFFFFFF0001FFFFFFFFFF000E0003FFFFF00
310
03FF8001FFE000001FFC0007FF80007FC0007FFFFF0007FC0003FFFFF0003FF8
310
000001FFFE0000007FFFFFF0001FFFFFFC0003FFFFFFE0001FFC0003FFFFFFE0
310
001FFF0003FFFFFFFFF0003FFFFFFFFFF000E0003FFFFF0001FF8001FFE00000
310
1FFE0007FF80007FC0007FFFFE0003FC0007FFFFE0003FF8000001FFFE000000
310
7FFFFFF0001FFFFFFE0003FFFFFFE0003FFE0003FFFFFFE0003FFF0003FFFFFF
310
FFF0003FFFFF8001F000E0003FFFFF0001FF0001FFE000001FFE0007FF80007F
310
C0007FFFFE0003FC0007FFFFE0003FF8000001FFFE0000007FFFFFF0001FFFFF
310
FE0001FFFFFFC0003FFE0001FFFFFFC0003FFF0003FFFFFFFFF0003FFFFF0001
310
F000E0003FFFFF0003FF0001FFE000003FFE0007FF80007FC0007FFFFE0003FC
310
0007FFFFE0003FF8000001FFFE0000007FFFFFF0001FFFFFFF0001FFFFFFC000
310
7FFF0001FFFFFFC0007FFF0003FFFFFFFFF0003FFFFF0001F000E0003FFFFE00
310
03FF0003FFF000003FFE0003FF80007FC0007FFFFC0003FE0007FFFFE0003FF8
310
000001FFFE0000007FFFFFF0001FFFFFFF0000FFFFFF80007FFF0000FFFFFF80
310
007FFF0003FFFFFFFFF0003FFFFF0001F000E0003FFFFE0003FF0003FFF00000
310
3FFF0003FF80007FC0007FFFFC0007FE0007FFFFC0003FF8000001FFFE000000
310
7FFFFFF0001FFFFFFF80007FFFFF0000FFFF80007FFFFF0000FFFF0003FFFFFF
310
FFF0003FFFFF0003F000E0003FFFFC0003FE0003FFF000003FFF0003FF80007F
310
E0003FFFF80007FE0003FFFFC0007FF8000001FFFE0000007FFFFFF0001FFFFF
310
FF80003FFFFE0000FFFF80003FFFFE0000FFFF0003FFFFFFFFF0001FFFFE0003
310
F000F0001FFFF80003FE0003FFF000007FFF0001FF80007FE0003FFFF00007FE
310
0001FFFF80007FF8000001FFFE0000007FFFFFF0001FFFFFFFC0000FFFF80001
310
FFFFC0000FFFF80001FFFF0003FFFFFFFFF0001FFFFC0003F000F0000FFFF000
310
07FE0007FFF800007FFF0001FF80007FE0001FFFE00007FF0000FFFE00007FF8
310
000001FFFE0000007FFFFFF0001FFFFFFFC00003FFE00001FFFFC00003FFE000
310
01FFFF0003FFFFFFFFF8000FFFF80003F000F00003FFC00007FC0007FFF80000
310
7FFF8001FF80007FF00007FF80000FFF00007FF80000FFF8000001FFFE000000
310
7F80000000000001FFE000003E000003FFFFE000003E000003FFFF0003FFFFFF
310
FFF80003FFE00007F000F800000000000FFC0007FFF800007FFF8001FF80007F
310
F000000000000FFF000000000000FFF8000001FFFE0000007F80000000000001
310
FFF0000000000007FFFFF0000000000007FFFF0003FFFFFFFFFC00007E000007
310
F000F800000000000FFC0007FFF80000FFFF8000FF80007FF800000000001FFF
310
800000000001FFF8000001FFFE0000007F80000000000001FFF800000000000F
310
FFFFF800000000000FFFFF0003FFFFFFFFFC00000000000FF000FC0000000000
310
1FFC0007FFFC0000FFFF8000FF80007FF800000000003FFFC00000000001FFF8
310
000001FFFE0000007F80000000000001FFF800000000000FFFFFF80000000000
310
0FFFFF0003FFFFFFFFFE00000000001FF000FE00000000003FF8000FFFFC0000
310
FFFF8000FF80007FFC00000000003FFFC00000000003FFF8000001FFFE000000
310
7F80000000000001FFFC00000000001FFFFFFC00000000001FFFFF0003FFFFFF
310
FFFF00000000001FF000FF00000000003FF8000FFFFC0000FFFFC000FF80007F
310
FE00000000007FFFE00000000007FFF8000001FFFE0000007F80000000000001
310
FFFE00000000003FFFFFFE00000000003FFFFF0003FFFFFFFFFF80000000003F
310
F000FF80000000007FF8000FFFFC0001FFFFC0007F80007FFF0000000000FFFF
310
F0000000000FFFF800000000000000007F80000000000001FFFF8000000000FF
310
FFFFFF8000000000FFFFFF0003FFFFFFFFFFC0000000007FF000FFC000000000
310
FFF8000FFFFE0001FFFFC0007F80007FFF8000000001FFFFF8000000001FFFF8
310
00000000000000007F80000000000001FFFFC000000001FFFFFFFFC000000001
310
FFFFFF0003FFFFFFFFFFE000000000FFF000FFE000000003FFF0001FFFFE0001
310
FFFFC0007F80007FFFC000000007FFFFFE000000003FFFF80000000000000000
310
7F80000000000001FFFFE000000003FFFFFFFFE000000003FFFFFF0003FFFFFF
310
FFFFF000000003FFF000FFF80000000FFFF0001FFFFE0001FFFFE0007F80007F
310
FFF00000000FFFFFFF00000000FFFFF800000000000000007F80000000000001
310
FFFFF80000000FFFFFFFFFF80000000FFFFFFF0003FFFFFFFFFFFC0000000FFF
310
F000FFFE0000003FFFF0001FFFFE0003FFFFE0003F80007FFFFC0000003FFFFF
310
FFC0000003FFFFF800000000000000007F80000000000001FFFFFE0000003FFF
310
FFFFFFFE0000003FFFFFFF0003FFFFFFFFFFFF0000003FFFF000FFFF800000FF
310
FFF0001FFFFF0003FFFFE0003F80007FFFFF000001FFFFFFFFF800001FFFFFF8
310
00000000000000007F80000000000001FFFFFFC00001FFFFFFFFFFFFC00001FF
310
FFFFFF0003FFFFFFFFFFFFC00000FFFFF000FFFFF8000FFFFFFFFFFFFFFFFFFF
310
FFFFFFFFFFFFFFFFFFFFF0001FFFFFFFFFFF0000FFFFFFF80000000000000000
310
7FFFFFFFFFFFFFFFFFFFFFFC001FFFFFFFFFFFFFFC001FFFFFFFFFFFFFFFFFFF
310
FFFFFFFC001FFFFFF000FFFFFFFFFFFFFFFFFFFFFFFFFFFFFFFFFFFFFFFFFFFF
310
FFFFFFFFFFFFFFFFFFFFFFFFFFFFFFFFFFFFFFFFFFFFFFFFFFFFFFFFFFFFFFFF
310
FFFFFFFFFFFFFFFFFFFFFFFFFFFFFFFFFFFFFFFFFFFFFFFFFFFFFFFFFFFFFFFF
310
F000FFFFFFFFFFFFFFFFFFFFFFFFFFFFFFFFFFFFFFFFFFFFFFFFFFFFFFFFFFFF
310
FFFFFFFFFFFFFFFFFFFFFFFFFFFFFFFFFFFFFFFFFFFFFFFFFFFFFFFFFFFFFFFF
310
FFFFFFFFFFFFFFFFFFFFFFFFFFFFFFFFFFFFFFFFFFFFFFFFF000FFFFFFFFFFFF
310
FFFFFFFFFFFFFFFFFFFFFFFFFFFFFFFFFFFFFFFFFFFFFFFFFFFFFFFFFFFFFFFF
310
FFFFFFFFFFFFFFFFFFFFFFFFFFFFFFFFFFFFFFFFFFFFFFFFFFFFFFFFFFFFFFFF
310
FFFFFFFFFFFFFFFFFFFFFFFFFFFFFFFFF000FFFFFFFFFFFFFFFFFFFFFFFFFFFF
310
FFFFFFFFFFFFFFFFFFFFFFFFFFFFFFFFFFFFFFFFFFFFFFFFFFFFFFFFFFFFFFFF
310
FFFFFFFFFFFFFFFFFFFFFFFFFFFFFFFFFFFFFFFFFFFFFFFFFFFFFFFFFFFFFFFF
310
FFFFFFFFFFFFFFFFF000FFFFFFFFFFFFFFFFFFFFFFFFFFFFFFFFFFFFFFFFFFFF
310
FFFFFFFFFFFFFFFFFFFFFFFFFFFFFFFFFFFFFFFFFFFFFFFFFFFFFFFFFFFFFFFF
310
FFFFFFFFFFFFFFFFFFFFFFFFFFFFFFFFFFFFFFFFFFFFFFFFFFFFFFFFFFFFFFFF
310
F000FFFFFFFFFFFFFFFFFFFFFFFFFFFFFFFFFFFFFFFFFFFFFFFFFFFFFFFFFFFF
310
FFFFFFFFFFFFFFFFFFFFFFFFFFFFFFFFFFFFFFFFFFFFFFFFFFFFFFFFFFFFFFFF
310
FFFFFFFFFFFFFFFFFFFFFFFFFFFFFFFFFFFFFFFFFFFFFFFFF000FFFFFFFFFFFF
310
FFFFFFFFFFFFFFFFFFFFFFFFFFFFFFFFFFFFFFFFFFFFFFFFFFFFFFFFFFFFFFFF
310
FFFFFFFFFFFFFFFFFFFFFFFFFFFFFFFFFFFFFFFFFFFFFFFFFFFFFFFFFFFFFFFF
310
FFFFFFFFFFFFFFFFFFFFFFFFFFFFFFFFF000FFFFFFFFFFFFFFFFFFFFFFFFFFFF
310
FFFFFFFFFFFFFFFFFFFFFFFFFFFFFFFFFFFFFFFFFFFFFFFFFFFFFFFFFFFFFFFF
310
FFFFFFFFFFFFFFFFFFFFFFFFFFFFFFFFFFFFFFFFFFFFFFFFFFFFFFFFFFFFFFFF
310
FFFFFFFFFFFFFFFFF000FFFFFFFFFFFFFFFFFFFFFFFFFFFFFFFFFFFFFFFFFFFF
310
FFFFFFFFFFFFFFFFFFFFFFFFFFFFFFFFFFFFFFFFFFFFFFFFFFFFFFFFFFFFFFFF
310
FFFFFFFFFFFFFFFFFFFFFFFFFFFFFFFFFFFFFFFFFFFFFFFFFFFFFFFFFFFFFFFF
310
F000FFFFFFFFFFFFFFFFFFFFFFFFFFFFFFFFFFFFFFFFFFFFFFFFFFFFFFFFFFFF
310
FFFFFFFFFFFFFFFFFFFFFFFFFFFFFFFFFFFFFFFFFFFFFFFFFFFFFFFFFFFFFFFF
310
FFFFFFFFFFFFFFFFFFFFFFFFFFFFFFFFFFFFFFFFFFFFFFFFF000FFFFFFFFFFFF
310
FFFFFFFFFFFFFFFFFFFFFFFFFFFFFFFFFFFFFFFFFFFFFFFFFFFFFFFFFFFFFFFF
310
FFFFFFFFFFFFFFFFFFFFFFFFFFFFFFFFFFFFFFFFFFFFFFFFFFFFFFFFFFFFFFFF
310
FFFFFFFFFFFFFFFFFFFFFFFFFFFFFFFFF000FFFFFFFFFFFFFFFFFFFFFFFFFFFF
310
FFFFFFFFFFFFFFFFFFFFFFFFFFFFFFFFFFFFFFFFFFFFFFFFFFFFFFFFFFFFFFFF
310
FFFFFFFFFFFFFFFFFFFFFFFFFFFFFFFFFFFFFFFFFFFFFFFFFFFFFFFFFFFFFFFF
310
FFFFFFFFFFFFFFFFF000FFFFFFFFFFFFFFFFFFFFFFFFFFFFFFFFFFFFFFFFFFFF
310
FFFFFFFFFFFFFFFFFFFFFFFFFFFFFFFFFFFFFFFFFFFFFFFFFFFFFFFFFFFFFFFF
310
FFFFFFFFFFFFFFFFFFFFFFFFFFFFFFFFFFFFFFFFFFFFFFFFFFFFFFFFFFFFFFFF
310
F000FFFFFFFFFFFFFFFFFFFFFFFFFFFFFFFFFFFFFFFFFFFFFFFFFFFFFFFFFFFF
310
FFFFFFFFFFFFFFFFFFFFFFFFFFFFFFFFFFFFFFFFFFFFFFFFFFFFFFFFFFFFFFFF
310
FFFFFFFFFFFFFFFFFFFFFFFFFFFFFFFFFFFFFFFFFFFFFFFFF000FFFFFFFFFFFF
310
FFFFFFFFFFFFFFFFFFFFFFFFFFFFFFFFFFFFFFFFFFFFFFFFFFFFFFFFFFFFFFFF
310
FFFFFFFFFFFFFFFFFFFFFFFFFFFFFFFFFFFFFFFFFFFFFFFFFFFFFFFFFFFFFFFF
310
FFFFFFFFFFFFFFFFFFFFFFFFFFFFFFFFF000FFFFFFFFFFFFFFFFFFFFFFFFFFFF
310
FFFFFFFFFFFFFFFFFFFFFFFFFFFFFFFFFFFFFFFFFFFFFFFFFFFFFFFFFFFFFFFF
310
FFFFFFFFFFFFFFFFFFFFFFFFFFFFFFFFFFFFFFFFFFFFFFFFFFFFFFFFFFFFFFFF
310
FFFFFFFFFFFFFFFFF000FFFFFFFFFFFFFFFFFFFFFFFFFFFFFFFFFFFFFFFFFFFF
310
FFFFFFFFFFFFFFFFFFFFFFFFFFFFFFFFFFFFFFFFFFFFFFFFFFFFFFFFFFFFFFFF
310
FFFFFFFFFFFFFFFFFFFFFFFFFFFFFFFFFFFFFFFFFFFFFFFFFFFFFFFFFFFFFFFF
310
F000FFFFFFFFFFFFFFFFFFFFFFFFFFFFFFFFFFFFFFFFFFFFFFFFFFFFFFFFFFFF
310
FFFFFFFFFFFFFFFFFFFFFFFFFFFFFFFFFFFFFFFFFFFFFFFFFFFFFFFFFFFFFFFF
310
FFFFFFFFFFFFFFFFFFFFFFFFFFFFFFFFFFFFFFFFFFFFFFFFF000FFFFFFFFFFFF
310
FFFFFFFFFFFFFFFFFFFFFFFFFFFFFFFFFFFFFFFFFFFFFFFFFFFFFFFFFFFFFFFF
310
FFFFFFFFFFFFFFFFFFFFFFFFFFFFFFFFFFFFFFFFFFFFFFFFFFFFFFFFFFFFFFFF
310
FFFFFFFFFFFFFFFFFFFFFFFFFFFFFFFFF000FFFFFFFFFFFFFFFFFFFFFFFFFFFF
310
FFFFFFFFFFFFFFFFFFFFFFFFFFFFFFFFFFFFFFFFFFFFFFFFFFFFFFFFFFFFFFFF
310
FFFFFFFFFFFFFFFFFFFFFFFFFFFFFFFFFFFFFFFFFFFFFFFFFFFFFFFFFFFFFFFF
310
FFFFFFFFFFFFFFFFF000FFFFFFFFFFFFFFFFFFFFFFFFFFFFFFFFFFFFFFFFFFFF
310
FFFFFFFFFFFFFFFFFFFFFFFFFFFFFFFFFFFFFFFFFFFFFFFFFFFFFFFFFFFFFFFF
310
FFFFFFFFFFFFFFFFFFFFFFFFFFFFFFFFFFFFFFFFFFFFFFFFFFFFFFFFFFFFFFFF
310
F000FFFFFFFFFFFFFFFFFFFFFFFFFFFFFFFFFFFFFFFFFFFFFFFFFFFFFFFFFFFF
310
FFFFFFFFFFFFFFFFFFFFFFFFFFFFFFFFFFFFFFFFFFFFFFFFFFFFFFFFFFFFFFFF
310
FFFFFFFFFFFFFFFFFFFFFFFFFFFFFFFFFFFFFFFFFFFFFFFFF000FFFFFFFFFFFF
310
FFFFFFFFFFFFFFFFFFFFFFFFFFFFFFFFFFFFFFFFFFFFFFFFFFFFFFFFFFFFFFFF
310
FFFFFFFFFFFFFFFFFFFFFFFFFFFFFFFFFFFFFFFFFFFFFFFFFFFFFFFFFFFFFFFF
310
FFFFFFFFFFFFFFFFFFFFFFFFFFFFFFFFF0000000000000000000000000000000
310
00000000AFF8EC3DE66B453E8F66ED3D064D453EE942E73D48C34A3E09D5E63D
310
48C34A3E09D5E63D97F04A3EA664E73D6CF54A3E74AFEC3D28E24A3EAFF8EC3D
310
28E24A3E8C23CA3D6CF54A3EC76CCA3D97F04A3E95B7CF3D48C34A3E3347D03D
310
48C34A3E3347D03D064D453E53D9CF3DE66B453EACB5C93D28E24A3E8C23CA3D
310
064D453E53D9CF3D33CF443E17C9CE3DC8E3443E52B1CA3DE66B453EACB5C93D
310
0000000001000000010000000100000001000000010000000100000001000000
310
0100000001000000010000000100000001000000000000000100000001000000
310
0100000000000000010000000100000001000000010000000100000001000000
310
0100000001000000010000000100000001000000010000000000000001000000
310
0100000001000000000000000100000001000000010000000100000001000000
310
0100000001000000010000000100000001000000010000000000000001000000
310
0100000001000000000000000100000000000000010000000100000001000000
310
0100000001000000010000000100000001000000000000000100000000000000
310
0100000000000000010000000100000000000000010000000000000001000000
310
0100000001000000010000000100000001000000010000000100000000000000
  1
OLE
  0
ENDSEC
  0
SECTION
  2
OBJECTS
  0
DICTIONARY
  5
C
330
0
100
AcDbDictionary
281
     1
  3
ACAD_GROUP
350
D
  3
ACAD_LAYOUT
350
1A
  3
ACAD_MLEADERSTYLE
350
239
  3
ACAD_MLINESTYLE
350
17
  3
ACAD_PLOTSETTINGS
350
19
  3
ACAD_PLOTSTYLENAME
350
E
  3
ACAD_TABLESTYLE
350
238
  3
ACAD_VISUALSTYLE
350
2A
  3
AcDbVariableDictionary
350
23A
  0
DICTIONARY
  5
D
102
{ACAD_REACTORS
330
C
102
}
330
C
100
AcDbDictionary
281
     1
  0
DICTIONARY
  5
1A
102
{ACAD_REACTORS
330
C
102
}
330
C
100
AcDbDictionary
281
     1
  3
Layout1
350
1E
  3
Layout2
350
26
  3
Model
350
22
  0
DICTIONARY
  5
239
102
{ACAD_REACTORS
330
C
102
}
330
C
100
AcDbDictionary
281
     1
  0
DICTIONARY
  5
17
102
{ACAD_REACTORS
330
C
102
}
330
C
100
AcDbDictionary
281
     1
  3
Standard
350
18
  0
DICTIONARY
  5
19
102
{ACAD_REACTORS
330
C
102
}
330
C
100
AcDbDictionary
281
     1
  0
ACDBDICTIONARYWDFLT
  5
E
102
{ACAD_REACTORS
330
C
102
}
330
C
100
AcDbDictionary
281
     1
  3
Normal
350
F
100
AcDbDictionaryWithDefault
340
F
  0
DICTIONARY
  5
238
102
{ACAD_REACTORS
330
C
102
}
330
C
100
AcDbDictionary
281
     1
  0
DICTIONARY
  5
2A
102
{ACAD_REACTORS
330
C
102
}
330
C
100
AcDbDictionary
281
     1
  3
2dWireframe
350
2F
  3
3D Hidden
350
31
  3
3dWireframe
350
30
  3
Basic
350
32
  3
Brighten
350
36
  3
ColorChange
350
3A
  3
Conceptual
350
34
  3
Dim
350
35
  3
Facepattern
350
39
  3
Flat
350
2B
  3
FlatWithEdges
350
2C
  3
Gouraud
350
2D
  3
GouraudWithEdges
350
2E
  3
Linepattern
350
38
  3
Realistic
350
33
  3
Thicken
350
37
  0
DICTIONARY
  5
23A
102
{ACAD_REACTORS
330
C
102
}
330
C
100
AcDbDictionary
281
     1
  3
PSOLHEIGHT
350
23C
  3
PSOLWIDTH
350
23B
  0
LAYOUT
  5
1E
102
{ACAD_REACTORS
330
1A
102
}
330
1A
100
AcDbPlotSettings
  1

  2
none_device
  4

  6

 40
0.0
 41
0.0
 42
0.0
 43
0.0
 44
0.0
 45
0.0
 46
0.0
 47
0.0
 48
0.0
 49
0.0
140
0.0
141
0.0
142
1.0
143
1.0
 70
   688
 72
     0
 73
     0
 74
     5
  7

 75
    16
147
1.0
148
0.0
149
0.0
100
AcDbLayout
  1
Layout1
 70
     1
 71
     1
 10
0.0
 20
0.0
 11
420.0
 21
297.0
 12
0.0
 22
0.0
 32
0.0
 14
1.0000000000E+20
 24
1.0000000000E+20
 34
1.0000000000E+20
 15
-1.0000000000E+20
 25
-1.0000000000E+20
 35
-1.0000000000E+20
146
0.0
 13
0.0
 23
0.0
 33
0.0
 16
1.0
 26
0.0
 36
0.0
 17
0.0
 27
1.0
 37
0.0
 76
     0
330
1B
  0
LAYOUT
  5
26
102
{ACAD_REACTORS
330
1A
102
}
330
1A
100
AcDbPlotSettings
  1

  2
none_device
  4

  6

 40
0.0
 41
0.0
 42
0.0
 43
0.0
 44
0.0
 45
0.0
 46
0.0
 47
0.0
 48
0.0
 49
0.0
140
0.0
141
0.0
142
1.0
143
1.0
 70
   688
 72
     0
 73
     0
 74
     5
  7

 75
    16
147
1.0
148
0.0
149
0.0
100
AcDbLayout
  1
Layout2
 70
     1
 71
     2
 10
0.0
 20
0.0
 11
0.0
 21
0.0
 12
0.0
 22
0.0
 32
0.0
 14
0.0
 24
0.0
 34
0.0
 15
0.0
 25
0.0
 35
0.0
146
0.0
 13
0.0
 23
0.0
 33
0.0
 16
1.0
 26
0.0
 36
0.0
 17
0.0
 27
1.0
 37
0.0
 76
     0
330
23
  0
LAYOUT
  5
22
102
{ACAD_REACTORS
330
1A
102
}
330
1A
100
AcDbPlotSettings
  1

  2
none_device
  4

  6

 40
0.0
 41
0.0
 42
0.0
 43
0.0
 44
0.0
 45
0.0
 46
0.0
 47
0.0
 48
0.0
 49
0.0
140
0.0
141
0.0
142
1.0
143
1.0
 70
  1712
 72
     0
 73
     0
 74
     0
  7

 75
     0
147
1.0
148
0.0
149
0.0
100
AcDbLayout
  1
Model
 70
     1
 71
     0
 10
0.0
 20
0.0
 11
297.0
 21
210.0
 12
0.0
 22
0.0
 32
0.0
 14
0.0
 24
0.0
 34
0.0
 15
297.0
 25
210.0
 35
0.0
146
0.0
 13
0.0
 23
0.0
 33
0.0
 16
1.0
 26
0.0
 36
0.0
 17
0.0
 27
1.0
 37
0.0
 76
     0
330
1F
331
29
  0
MLINESTYLE
  5
18
102
{ACAD_REACTORS
330
17
102
}
330
17
100
AcDbMlineStyle
  2
Standard
 70
     0
  3

 62
   256
 51
90.0
 52
90.0
 71
     2
 49
0.5
 62
   256
  6
BYLAYER
 49
-0.5
 62
   256
  6
BYLAYER
  0
ACDBPLACEHOLDER
  5
F
102
{ACAD_REACTORS
330
E
102
}
330
E
  0
VISUALSTYLE
  5
2F
102
{ACAD_REACTORS
330
2A
102
}
330
2A
100
AcDbVisualStyle
  2
2dWireframe
 70
     4
 71
     0
 72
     2
 73
     0
 90
        0
 40
-0.6
 41
-30.0
 62
     5
 63
     7
 74
     1
 91
        4
 64
     7
 65
   257
 75
     1
175
     1
 42
1.0
 92
        0
 66
   257
 43
1.0
 76
     1
 77
     6
 78
     2
 67
     7
 79
     5
170
     0
171
     0
290
     0
174
     0
 93
        1
 44
0.0
173
     0
291
     0
 45
0.0
1001
ACAD
1000
AcDbSavedByObjectVersion
1070
     0
  0
VISUALSTYLE
  5
31
102
{ACAD_REACTORS
330
2A
102
}
330
2A
100
AcDbVisualStyle
  2
3D Hidden
 70
     6
 71
     1
 72
     2
 73
     2
 90
        0
 40
-0.6
 41
-30.0
 62
     5
 63
     7
 74
     2
 91
        2
 64
     7
 65
   257
 75
     2
175
     1
 42
40.0
 92
        0
 66
   257
 43
1.0
 76
     1
 77
     6
 78
     2
 67
     7
 79
     3
170
     0
171
     0
290
     0
174
     0
 93
        1
 44
0.0
173
     0
291
     0
 45
0.0
1001
ACAD
1000
AcDbSavedByObjectVersion
1070
     0
  0
VISUALSTYLE
  5
30
102
{ACAD_REACTORS
330
2A
102
}
330
2A
100
AcDbVisualStyle
  2
3dWireframe
 70
     5
 71
     0
 72
     2
 73
     0
 90
        0
 40
-0.6
 41
-30.0
 62
     5
 63
     7
 74
     1
 91
        4
 64
     7
 65
   257
 75
     1
175
     1
 42
1.0
 92
        0
 66
   257
 43
1.0
 76
     1
 77
     6
 78
     2
 67
     7
 79
     5
170
     0
171
     0
290
     0
174
     0
 93
        1
 44
0.0
173
     0
291
     0
 45
0.0
1001
ACAD
1000
AcDbSavedByObjectVersion
1070
     0
  0
VISUALSTYLE
  5
32
102
{ACAD_REACTORS
330
2A
102
}
330
2A
100
AcDbVisualStyle
  2
Basic
 70
     7
 71
     1
 72
     0
 73
     1
 90
        0
 40
-0.6
 41
-30.0
 62
     5
 63
     7
 74
     0
 91
        4
 64
     7
 65
   257
 75
     1
175
     1
 42
1.0
 92
        8
 66
     7
 43
1.0
 76
     1
 77
     6
 78
     2
 67
     7
 79
     5
170
     0
171
     0
290
     0
174
     0
 93
        1
 44
0.0
173
     0
291
     1
 45
0.0
1001
ACAD
1000
AcDbSavedByObjectVersion
1070
     0
  0
VISUALSTYLE
  5
36
102
{ACAD_REACTORS
330
2A
102
}
330
2A
100
AcDbVisualStyle
  2
Brighten
 70
    12
 71
     2
 72
     2
 73
     0
 90
        0
 40
-0.6
 41
-30.0
 62
     5
 63
     7
 74
     1
 91
        4
 64
     7
 65
   257
 75
     1
175
     1
 42
1.0
 92
        8
 66
     7
 43
1.0
 76
     1
 77
     6
 78
     2
 67
     7
 79
     5
170
     0
171
     0
290
     0
174
     0
 93
        1
 44
50.0
173
     0
291
     1
 45
0.0
1001
ACAD
1000
AcDbSavedByObjectVersion
1070
     0
  0
VISUALSTYLE
  5
3A
102
{ACAD_REACTORS
330
2A
102
}
330
2A
100
AcDbVisualStyle
  2
ColorChange
 70
    16
 71
     2
 72
     2
 73
     3
 90
        0
 40
-0.6
 41
-30.0
 62
     5
 63
     8
 74
     1
 91
        4
 64
     7
 65
   257
 75
     1
175
     1
 42
1.0
 92
        8
 66
     8
 43
1.0
 76
     1
 77
     6
 78
     2
 67
     7
 79
     5
170
     0
171
     0
290
     0
174
     0
 93
        1
 44
0.0
173
     0
291
     1
 45
0.0
1001
ACAD
1000
AcDbSavedByObjectVersion
1070
     0
  0
VISUALSTYLE
  5
34
102
{ACAD_REACTORS
330
2A
102
}
330
2A
100
AcDbVisualStyle
  2
Conceptual
 70
     9
 71
     3
 72
     2
 73
     0
 90
        0
 40
-0.6
 41
-30.0
 62
     5
 63
     7
 74
     2
 91
        2
 64
     7
 65
   257
 75
     1
175
     1
 42
40.0
 92
        8
 66
     7
 43
1.0
 76
     1
 77
     6
 78
     2
 67
     7
 79
     3
170
     0
171
     0
290
     0
174
     0
 93
        1
 44
0.0
173
     0
291
     0
 45
0.0
1001
ACAD
1000
AcDbSavedByObjectVersion
1070
     0
  0
VISUALSTYLE
  5
35
102
{ACAD_REACTORS
330
2A
102
}
330
2A
100
AcDbVisualStyle
  2
Dim
 70
    11
 71
     2
 72
     2
 73
     0
 90
        0
 40
-0.6
 41
-30.0
 62
     5
 63
     7
 74
     1
 91
        4
 64
     7
 65
   257
 75
     1
175
     1
 42
1.0
 92
        8
 66
     7
 43
1.0
 76
     1
 77
     6
 78
     2
 67
     7
 79
     5
170
     0
171
     0
290
     0
174
     0
 93
        1
 44
-50.0
173
     0
291
     1
 45
0.0
1001
ACAD
1000
AcDbSavedByObjectVersion
1070
     0
  0
VISUALSTYLE
  5
39
102
{ACAD_REACTORS
330
2A
102
}
330
2A
100
AcDbVisualStyle
  2
Facepattern
 70
    15
 71
     2
 72
     2
 73
     0
 90
        0
 40
-0.6
 41
-30.0
 62
     5
 63
     7
 74
     1
 91
        4
 64
     7
 65
   257
 75
     1
175
     1
 42
1.0
 92
        8
 66
     7
 43
1.0
 76
     1
 77
     6
 78
     2
 67
     7
 79
     5
170
     0
171
     0
290
     0
174
     0
 93
        1
 44
0.0
173
     0
291
     1
 45
0.0
1001
ACAD
1000
AcDbSavedByObjectVersion
1070
     0
  0
VISUALSTYLE
  5
2B
102
{ACAD_REACTORS
330
2A
102
}
330
2A
100
AcDbVisualStyle
  2
Flat
 70
     0
 71
     2
 72
     1
 73
     1
 90
        2
 40
-0.6
 41
30.0
 62
     5
 63
     7
 74
     0
 91
        4
 64
     7
 65
   257
 75
     1
175
     1
 42
1.0
 92
        8
 66
     7
 43
1.0
 76
     1
 77
     6
 78
     2
 67
     7
 79
     5
170
     0
171
     0
290
     0
174
     0
 93
       13
 44
0.0
173
     0
291
     1
 45
0.0
1001
ACAD
1000
AcDbSavedByObjectVersion
1070
     0
  0
VISUALSTYLE
  5
2C
102
{ACAD_REACTORS
330
2A
102
}
330
2A
100
AcDbVisualStyle
  2
FlatWithEdges
 70
     1
 71
     2
 72
     1
 73
     1
 90
        2
 40
-0.6
 41
30.0
 62
     5
 63
     7
 74
     1
 91
        4
 64
     7
 65
   257
 75
     1
175
     1
 42
1.0
 92
        0
 66
   257
 43
1.0
 76
     1
 77
     6
 78
     2
 67
     7
 79
     5
170
     0
171
     0
290
     0
174
     0
 93
       13
 44
0.0
173
     0
291
     1
 45
0.0
1001
ACAD
1000
AcDbSavedByObjectVersion
1070
     0
  0
VISUALSTYLE
  5
2D
102
{ACAD_REACTORS
330
2A
102
}
330
2A
100
AcDbVisualStyle
  2
Gouraud
 70
     2
 71
     2
 72
     2
 73
     1
 90
        2
 40
-0.6
 41
30.0
 62
     5
 63
     7
 74
     0
 91
        4
 64
     7
 65
   257
 75
     1
175
     1
 42
1.0
 92
        0
 66
     7
 43
1.0
 76
     1
 77
     6
 78
     2
 67
     7
 79
     5
170
     0
171
     0
290
     0
174
     0
 93
       13
 44
0.0
173
     0
291
     1
 45
0.0
1001
ACAD
1000
AcDbSavedByObjectVersion
1070
     0
  0
VISUALSTYLE
  5
2E
102
{ACAD_REACTORS
330
2A
102
}
330
2A
100
AcDbVisualStyle
  2
GouraudWithEdges
 70
     3
 71
     2
 72
     2
 73
     1
 90
        2
 40
-0.6
 41
30.0
 62
     5
 63
     7
 74
     1
 91
        4
 64
     7
 65
   257
 75
     1
175
     1
 42
1.0
 92
        0
 66
   257
 43
1.0
 76
     1
 77
     6
 78
     2
 67
     7
 79
     5
170
     0
171
     0
290
     0
174
     0
 93
       13
 44
0.0
173
     0
291
     1
 45
0.0
1001
ACAD
1000
AcDbSavedByObjectVersion
1070
     0
  0
VISUALSTYLE
  5
38
102
{ACAD_REACTORS
330
2A
102
}
330
2A
100
AcDbVisualStyle
  2
Linepattern
 70
    14
 71
     2
 72
     2
 73
     0
 90
        0
 40
-0.6
 41
-30.0
 62
     5
 63
     7
 74
     1
 91
        4
 64
     7
 65
   257
 75
     7
175
     7
 42
1.0
 92
        8
 66
     7
 43
1.0
 76
     1
 77
     6
 78
     2
 67
     7
 79
     5
170
     0
171
     0
290
     0
174
     0
 93
        1
 44
0.0
173
     0
291
     1
 45
0.0
1001
ACAD
1000
AcDbSavedByObjectVersion
1070
     0
  0
VISUALSTYLE
  5
33
102
{ACAD_REACTORS
330
2A
102
}
330
2A
100
AcDbVisualStyle
  2
Realistic
 70
     8
 71
     2
 72
     2
 73
     0
 90
        0
 40
-0.6
 41
-30.0
 62
     5
 63
     7
 74
     1
 91
        0
 64
     7
 65
   257
 75
     1
175
     1
 42
1.0
 92
        8
 66
     8
 43
1.0
 76
     1
 77
     6
 78
     2
 67
     7
 79
     5
170
     0
171
     0
290
     0
174
     0
 93
       13
 44
0.0
173
     0
291
     0
 45
0.0
1001
ACAD
1000
AcDbSavedByObjectVersion
1070
     0
  0
VISUALSTYLE
  5
37
102
{ACAD_REACTORS
330
2A
102
}
330
2A
100
AcDbVisualStyle
  2
Thicken
 70
    13
 71
     2
 72
     2
 73
     0
 90
        0
 40
-0.6
 41
-30.0
 62
     5
 63
     7
 74
     1
 91
        4
 64
     7
 65
   257
 75
     1
175
     1
 42
1.0
 92
       12
 66
     7
 43
1.0
 76
     1
 77
     6
 78
     2
 67
     7
 79
     5
170
     0
171
     0
290
     0
174
     0
 93
        1
 44
0.0
173
     0
291
     1
 45
0.0
1001
ACAD
1000
AcDbSavedByObjectVersion
1070
     0
  0
DICTIONARYVAR
  5
23C
102
{ACAD_REACTORS
330
23A
102
}
330
23A
100
DictionaryVariables
280
     0
  1
80.000000
  0
DICTIONARYVAR
  5
23B
102
{ACAD_REACTORS
330
23A
102
}
330
23A
100
DictionaryVariables
280
     0
  1
5.000000
  0
ENDSEC
  0
EOF
