  0
SECTION
  2
HEADER
  9
$ACADVER
  1
AC1015
  9
$ACADMAINTVER
 70
     6
  9
$DWGCODEPAGE
  3
ANSI_1252
  9
$INSBASE
 10
0.0
 20
0.0
 30
0.0
  9
$EXTMIN
 10
0.0
 20
0.0
 30
0.0
  9
$EXTMAX
 10
297.0
 20
210.0
 30
0.0
  9
$LIMMIN
 10
0.0
 20
0.0
  9
$LIMMAX
 10
297.0
 20
210.0
  9
$ORTHOMODE
 70
     0
  9
$REGENMODE
 70
     1
  9
$FILLMODE
 70
     1
  9
$QTEXTMODE
 70
     0
  9
$MIRRTEXT
 70
     1
  9
$LTSCALE
 40
1.0
  9
$ATTMODE
 70
     1
  9
$TEXTSIZE
 40
2.0
  9
$TRACEWID
 40
1.0
  9
$TEXTSTYLE
  7
Standard
  9
$CLAYER
  8
0
  9
$CELTYPE
  6
ByLayer
  9
$CECOLOR
 62
   256
  9
$CELTSCALE
 40
1.0
  9
$DISPSILH
 70
     0
  9
$DIMSCALE
 40
1.0
  9
$DIMASZ
 40
3.0
  9
$DIMEXO
 40
0.0
  9
$DIMDLI
 40
3.75
  9
$DIMRND
 40
0.0
  9
$DIMDLE
 40
0.0
  9
$DIMEXE
 40
1.0
  9
$DIMTP
 40
0.0
  9
$DIMTM
 40
0.0
  9
$DIMTXT
 40
2.0
  9
$DIMCEN
 40
2.5
  9
$DIMTSZ
 40
0.0
  9
$DIMTOL
 70
     0
  9
$DIMLIM
 70
     0
  9
$DIMTIH
 70
     1
  9
$DIMTOH
 70
     1
  9
$DIMSE1
 70
     0
  9
$DIMSE2
 70
     0
  9
$DIMTAD
 70
     1
  9
$DIMZIN
 70
     0
  9
$DIMBLK
  1

  9
$DIMASO
 70
     1
  9
$DIMSHO
 70
     1
  9
$DIMPOST
  1

  9
$DIMAPOST
  1

  9
$DIMALT
 70
     0
  9
$DIMALTD
 70
     3
  9
$DIMALTF
 40
0.0393700787
  9
$DIMLFAC
 40
1.0
  9
$DIMTOFL
 70
     1
  9
$DIMTVP
 40
0.0
  9
$DIMTIX
 70
     0
  9
$DIMSOXD
 70
     0
  9
$DIMSAH
 70
     0
  9
$DIMBLK1
  1

  9
$DIMBLK2
  1

  9
$DIMSTYLE
  2
ISO-25
  9
$DIMCLRD
 70
     0
  9
$DIMCLRE
 70
     0
  9
$DIMCLRT
 70
     0
  9
$DIMTFAC
 40
1.0
  9
$DIMGAP
 40
1.524
  9
$DIMJUST
 70
     0
  9
$DIMSD1
 70
     0
  9
$DIMSD2
 70
     0
  9
$DIMTOLJ
 70
     0
  9
$DIMTZIN
 70
     0
  9
$DIMALTZ
 70
     0
  9
$DIMALTTZ
 70
     0
  9
$DIMUPT
 70
     0
  9
$DIMDEC
 70
     2
  9
$DIMTDEC
 70
     3
  9
$DIMALTU
 70
     2
  9
$DIMALTTD
 70
     3
  9
$DIMTXSTY
  7
Standard
  9
$DIMAUNIT
 70
     0
  9
$DIMADEC
 70
     2
  9
$DIMALTRND
 40
0.0
  9
$DIMAZIN
 70
     0
  9
$DIMDSEP
 70
    44
  9
$DIMATFIT
 70
     3
  9
$DIMFRAC
 70
     0
  9
$DIMLDRBLK
  1

  9
$DIMLUNIT
 70
     2
  9
$DIMLWD
 70
    -2
  9
$DIMLWE
 70
    -2
  9
$DIMTMOVE
 70
     0
  9
$LUNITS
 70
     2
  9
$LUPREC
 70
     2
  9
$SKETCHINC
 40
1.0
  9
$FILLETRAD
 40
10.0
  9
$AUNITS
 70
     0
  9
$AUPREC
 70
     2
  9
$MENU
  1
.
  9
$ELEVATION
 40
0.0
  9
$PELEVATION
 40
0.0
  9
$THICKNESS
 40
0.0
  9
$LIMCHECK
 70
     0
  9
$CHAMFERA
 40
10.0
  9
$CHAMFERB
 40
10.0
  9
$CHAMFERC
 40
20.0
  9
$CHAMFERD
 40
0.0
  9
$SKPOLY
 70
     0
  9
$TDCREATE
 40
2455679.499227153
  9
$TDUCREATE
 40
2455679.41589382
  9
$TDUPDATE
 40
2455679.499227164
  9
$TDUUPDATE
 40
2455679.415893831
  9
$TDINDWG
 40
0.0000000116
  9
$TDUSRTIMER
 40
0.0000000116
  9
$USRTIMER
 70
     1
  9
$ANGBASE
 50
0.0
  9
$ANGDIR
 70
     0
  9
$PDMODE
 70
     0
  9
$PDSIZE
 40
-1.0
  9
$PLINEWID
 40
0.0
  9
$SPLFRAME
 70
     0
  9
$SPLINETYPE
 70
     6
  9
$SPLINESEGS
 70
     8
  9
$HANDSEED
  5
238
  9
$SURFTAB1
 70
     6
  9
$SURFTAB2
 70
     6
  9
$SURFTYPE
 70
     6
  9
$SURFU
 70
     6
  9
$SURFV
 70
     6
  9
$UCSBASE
  2

  9
$UCSNAME
  2

  9
$UCSORG
 10
0.0
 20
0.0
 30
0.0
  9
$UCSXDIR
 10
1.0
 20
0.0
 30
0.0
  9
$UCSYDIR
 10
0.0
 20
1.0
 30
0.0
  9
$UCSORTHOREF
  2

  9
$UCSORTHOVIEW
 70
     0
  9
$UCSORGTOP
 10
0.0
 20
0.0
 30
0.0
  9
$UCSORGBOTTOM
 10
0.0
 20
0.0
 30
0.0
  9
$UCSORGLEFT
 10
0.0
 20
0.0
 30
0.0
  9
$UCSORGRIGHT
 10
0.0
 20
0.0
 30
0.0
  9
$UCSORGFRONT
 10
0.0
 20
0.0
 30
0.0
  9
$UCSORGBACK
 10
0.0
 20
0.0
 30
0.0
  9
$PUCSBASE
  2

  9
$PUCSNAME
  2

  9
$PUCSORG
 10
0.0
 20
0.0
 30
0.0
  9
$PUCSXDIR
 10
1.0
 20
0.0
 30
0.0
  9
$PUCSYDIR
 10
0.0
 20
1.0
 30
0.0
  9
$PUCSORTHOREF
  2

  9
$PUCSORTHOVIEW
 70
     0
  9
$PUCSORGTOP
 10
0.0
 20
0.0
 30
0.0
  9
$PUCSORGBOTTOM
 10
0.0
 20
0.0
 30
0.0
  9
$PUCSORGLEFT
 10
0.0
 20
0.0
 30
0.0
  9
$PUCSORGRIGHT
 10
0.0
 20
0.0
 30
0.0
  9
$PUCSORGFRONT
 10
0.0
 20
0.0
 30
0.0
  9
$PUCSORGBACK
 10
0.0
 20
0.0
 30
0.0
  9
$USERI1
 70
     0
  9
$USERI2
 70
     0
  9
$USERI3
 70
     0
  9
$USERI4
 70
     0
  9
$USERI5
 70
     0
  9
$USERR1
 40
0.0
  9
$USERR2
 40
0.0
  9
$USERR3
 40
0.0
  9
$USERR4
 40
0.0
  9
$USERR5
 40
0.0
  9
$WORLDVIEW
 70
     1
  9
$SHADEDGE
 70
     3
  9
$SHADEDIF
 70
    70
  9
$TILEMODE
 70
     1
  9
$MAXACTVP
 70
    64
  9
$PINSBASE
 10
0.0
 20
0.0
 30
0.0
  9
$PLIMCHECK
 70
     0
  9
$PEXTMIN
 10
1.0000000000E+20
 20
1.0000000000E+20
 30
1.0000000000E+20
  9
$PEXTMAX
 10
-1.0000000000E+20
 20
-1.0000000000E+20
 30
-1.0000000000E+20
  9
$PLIMMIN
 10
0.0
 20
0.0
  9
$PLIMMAX
 10
420.0
 20
297.0
  9
$UNITMODE
 70
     0
  9
$VISRETAIN
 70
     1
  9
$PLINEGEN
 70
     0
  9
$PSLTSCALE
 70
     1
  9
$TREEDEPTH
 70
  3020
  9
$CMLSTYLE
  2
Standard
  9
$CMLJUST
 70
     0
  9
$CMLSCALE
 40
20.0
  9
$PROXYGRAPHICS
 70
     1
  9
$MEASUREMENT
 70
     1
  9
$CELWEIGHT
370
    -1
  9
$ENDCAPS
280
     0
  9
$JOINSTYLE
280
     0
  9
$LWDISPLAY
290
     1
  9
$INSUNITS
 70
     4
  9
$HYPERLINKBASE
  1

  9
$STYLESHEET
  1

  9
$XEDIT
290
     1
  9
$CEPSNTYPE
380
     0
  9
$PSTYLEMODE
290
     1
  9
$FINGERPRINTGUID
  2
{0611160B-B188-4648-A8FC-CB83F79B256E}
  9
$VERSIONGUID
  2
{FAEB1C32-E019-11D5-929B-00C0DF256EC4}
  9
$EXTNAMES
290
     1
  9
$PSVPSCALE
 40
0.0
  9
$OLESTARTUP
290
     0
  0
ENDSEC
  0
SECTION
  2
CLASSES
  0
CLASS
  1
ACDBDICTIONARYWDFLT
  2
AcDbDictionaryWithDefault
  3
ObjectDBX Classes
 90
        0
280
     0
281
     0
  0
CLASS
  1
VISUALSTYLE
  2
AcDbVisualStyle
  3
ObjectDBX Classes
 90
     4095
280
     0
281
     0
  0
CLASS
  1
DICTIONARYVAR
  2
AcDbDictionaryVar
  3
ObjectDBX Classes
 90
        0
280
     0
281
     0
  0
CLASS
  1
ACDBPLACEHOLDER
  2
AcDbPlaceHolder
  3
ObjectDBX Classes
 90
        0
280
     0
281
     0
  0
CLASS
  1
LAYOUT
  2
AcDbLayout
  3
ObjectDBX Classes
 90
        0
280
     0
281
     0
  0
ENDSEC
  0
SECTION
  2
TABLES
  0
TABLE
  2
VPORT
  5
8
330
0
100
AcDbSymbolTable
 70
     1
  0
VPORT
  5
29
330
8
100
AcDbSymbolTableRecord
100
AcDbViewportTableRecord
  2
*Active
 70
     0
 10
0.0
 20
0.0
 11
1.0
 21
1.0
 12
148.5
 22
105.0
 13
0.0
 23
0.0
 14
10.0
 24
10.0
 15
10.0
 25
10.0
 16
0.0
 26
0.0
 36
1.0
 17
0.0
 27
0.0
 37
0.0
 40
210.0
 41
1.4142857143
 42
50.0
 43
0.0
 44
0.0
 50
0.0
 51
0.0
 71
     0
 72
  2000
 73
     1
 74
     3
 75
     0
 76
     0
 77
     0
 78
     0
281
     0
 65
     1
110
0.0
120
0.0
130
0.0
111
1.0
121
0.0
131
0.0
112
0.0
122
1.0
132
0.0
 79
     0
146
0.0
  0
ENDTAB
  0
TABLE
  2
LTYPE
  5
5
330
0
100
AcDbSymbolTable
 70
     6
  0
LTYPE
  5
14
330
5
100
AcDbSymbolTableRecord
100
AcDbLinetypeTableRecord
  2
ByBlock
 70
     0
  3

 72
    65
 73
     0
 40
0.0
  0
LTYPE
  5
15
330
5
100
AcDbSymbolTableRecord
100
AcDbLinetypeTableRecord
  2
ByLayer
 70
     0
  3

 72
    65
 73
     0
 40
0.0
  0
LTYPE
  5
16
330
5
100
AcDbSymbolTableRecord
100
AcDbLinetypeTableRecord
  2
Continuous
 70
     0
  3
Solid line
 72
    65
 73
     0
 40
0.0
  0
LTYPE
  5
3B
330
5
100
AcDbSymbolTableRecord
100
AcDbLinetypeTableRecord
  2
HIDDEN
 70
     0
  3
Hidden __ __ __ __ __ __ __ __ __ __ __ __ __ __
 72
    65
 73
     2
 40
1.905
 49
1.27
 74
     0
 49
-0.635
 74
     0
  0
LTYPE
  5
3C
330
5
100
AcDbSymbolTableRecord
100
AcDbLinetypeTableRecord
  2
PHANTOM
 70
     0
  3
Phantom ______  __  __  ______  __  __  ______
 72
    65
 73
     6
 40
12.7
 49
6.35
 74
     0
 49
-1.27
 74
     0
 49
1.27
 74
     0
 49
-1.27
 74
     0
 49
1.27
 74
     0
 49
-1.27
 74
     0
  0
LTYPE
  5
3D
330
5
100
AcDbSymbolTableRecord
100
AcDbLinetypeTableRecord
  2
CENTER
 70
     0
  3
Center ____ _ ____ _ ____ _ ____ _ ____ _ ____
 72
    65
 73
     4
 40
10.16
 49
6.35
 74
     0
 49
-1.27
 74
     0
 49
1.27
 74
     0
 49
-1.27
 74
     0
  0
LTYPE
  5
3E
330
5
100
AcDbSymbolTableRecord
100
AcDbLinetypeTableRecord
  2
CENTERX2
 70
     0
  3
Center (2x) ________  __  ________  __  _____
 72
    65
 73
     4
 40
20.32
 49
12.7
 74
     0
 49
-2.54
 74
     0
 49
2.54
 74
     0
 49
-2.54
 74
     0
  0
LTYPE
  5
3F
330
5
100
AcDbSymbolTableRecord
100
AcDbLinetypeTableRecord
  2
DOT2
 70
     0
  3
Dot (.5x) ........................................
 72
    65
 73
     2
 40
0.635
 49
0.0
 74
     0
 49
-0.635
 74
     0
  0
ENDTAB
  0
TABLE
  2
LAYER
  5
2
330
0
100
AcDbSymbolTable
 70
     5
  0
LAYER
  5
10
330
2
100
AcDbSymbolTableRecord
100
AcDbLayerTableRecord
  2
0
 70
     0
 62
     7
  6
Continuous
370
    -3
390
F
  0
LAYER
  5
40
330
2
100
AcDbSymbolTableRecord
100
AcDbLayerTableRecord
  2
FORMAT
 70
     0
 62
     7
  6
Continuous
370
    -3
390
F
  0
LAYER
  5
41
330
2
100
AcDbSymbolTableRecord
100
AcDbLayerTableRecord
  2
VERMASSUNG
 70
     0
 62
     7
  6
Continuous
370
    -3
390
F
  0
LAYER
  5
42
330
2
100
AcDbSymbolTableRecord
100
AcDbLayerTableRecord
  2
KOPF_DÜNN
 70
     0
 62
     7
  6
Continuous
370
    -3
390
F
  0
LAYER
  5
43
330
2
100
AcDbSymbolTableRecord
100
AcDbLayerTableRecord
  2
KOPF_DICK
 70
     0
 62
     7
  6
Continuous
370
    15
390
F
  0
ENDTAB
  0
TABLE
  2
STYLE
  5
3
330
0
100
AcDbSymbolTable
 70
     3
  0
STYLE
  5
11
330
3
100
AcDbSymbolTableRecord
100
AcDbTextStyleTableRecord
  2
Standard
 70
     0
 40
0.0
 41
1.0
 50
0.0
 71
     0
 42
2.5
  3
txt
  4

  0
STYLE
  5
44
330
3
100
AcDbSymbolTableRecord
100
AcDbTextStyleTableRecord
  2
SLDTEXTSTYLE0
 70
     0
 40
0.0
 41
0.7
 50
0.0
 71
     0
 42
0.2
  3
TXT
  4

  0
STYLE
  5
48
330
3
100
AcDbSymbolTableRecord
100
AcDbTextStyleTableRecord
  2
SLDTEXTSTYLE1
 70
     0
 40
0.0
 41
0.6473684211
 50
0.0
 71
     0
 42
0.2
  3
TXT
  4

  0
ENDTAB
  0
TABLE
  2
VIEW
  5
6
330
0
100
AcDbSymbolTable
 70
     0
  0
ENDTAB
  0
TABLE
  2
UCS
  5
7
330
0
100
AcDbSymbolTable
 70
     0
  0
ENDTAB
  0
TABLE
  2
APPID
  5
9
330
0
100
AcDbSymbolTable
 70
     1
  0
APPID
  5
12
330
9
100
AcDbSymbolTableRecord
100
AcDbRegAppTableRecord
  2
ACAD
 70
     0
  0
ENDTAB
  0
TABLE
  2
DIMSTYLE
  5
A
330
0
100
AcDbSymbolTable
 70
     5
100
AcDbDimStyleTable
  0
DIMSTYLE
105
27
330
A
100
AcDbSymbolTableRecord
100
AcDbDimStyleTableRecord
  2
ISO-25
 70
     0
 41
2.5
 42
0.625
 43
3.75
 44
1.25
 73
     0
 74
     0
 77
     1
 78
     8
140
2.5
141
2.5
143
0.0393700787
147
0.625
171
     3
172
     1
271
     2
272
     2
274
     3
278
    44
283
     0
284
     8
340
11
  0
DIMSTYLE
105
1D8
102
{ACAD_REACTORS
330
1D7
330
208
330
212
330
21D
330
227
102
}
330
A
100
AcDbSymbolTableRecord
100
AcDbDimStyleTableRecord
  2
SLDDIMSTYLE0
 70
     0
 41
3.0
 44
0.0
 45
0.000000001
 73
     0
 74
     0
 77
     1
 78
    12
140
2.0
147
0.5
173
     1
271
     2
272
     3
284
    12
340
44
  0
DIMSTYLE
105
1E5
102
{ACAD_REACTORS
330
1E4
102
}
330
A
100
AcDbSymbolTableRecord
100
AcDbDimStyleTableRecord
  2
SLDDIMSTYLE1
 70
     0
 41
3.0
 44
0.0
 45
0.000000001
 73
     0
 74
     0
 77
     1
 78
    12
140
2.0
147
0.5
173
     1
271
     2
272
     2
284
    12
340
44
  0
DIMSTYLE
105
1F0
102
{ACAD_REACTORS
330
1EF
102
}
330
A
100
AcDbSymbolTableRecord
100
AcDbDimStyleTableRecord
  2
SLDDIMSTYLE2
 70
     0
 41
3.0
 44
0.0
 45
0.000000001
 73
     0
 74
     0
 77
     1
 78
    12
140
2.0
147
0.5
173
     1
271
     2
272
     2
284
    12
340
44
  0
DIMSTYLE
105
1FD
102
{ACAD_REACTORS
330
1FC
102
}
330
A
100
AcDbSymbolTableRecord
100
AcDbDimStyleTableRecord
  2
SLDDIMSTYLE3
 70
     0
 41
3.0
 44
0.0
 45
0.000000001
 73
     0
 74
     0
 77
     1
 78
    12
140
2.0
147
0.5
173
     1
271
     2
272
     3
284
    12
340
44
  0
ENDTAB
  0
TABLE
  2
BLOCK_RECORD
  5
1
330
0
100
AcDbSymbolTable
 70
     9
  0
BLOCK_RECORD
  5
1F
330
1
100
AcDbSymbolTableRecord
100
AcDbBlockTableRecord
  2
*Model_Space
340
22
  0
BLOCK_RECORD
  5
1B
330
1
100
AcDbSymbolTableRecord
100
AcDbBlockTableRecord
  2
*Paper_Space
340
1E
  0
BLOCK_RECORD
  5
23
330
1
100
AcDbSymbolTableRecord
100
AcDbBlockTableRecord
  2
*Paper_Space0
340
26
  0
BLOCK_RECORD
  5
1D9
330
1
100
AcDbSymbolTableRecord
100
AcDbBlockTableRecord
  2
*D1
340
0
  0
BLOCK_RECORD
  5
1E6
330
1
100
AcDbSymbolTableRecord
100
AcDbBlockTableRecord
  2
*D2
340
0
  0
BLOCK_RECORD
  5
1F1
330
1
100
AcDbSymbolTableRecord
100
AcDbBlockTableRecord
  2
*D3
340
0
  0
BLOCK_RECORD
  5
1FE
330
1
100
AcDbSymbolTableRecord
100
AcDbBlockTableRecord
  2
*D4
340
0
  0
BLOCK_RECORD
  5
209
330
1
100
AcDbSymbolTableRecord
100
AcDbBlockTableRecord
  2
*D5
340
0
  0
BLOCK_RECORD
  5
213
330
1
100
AcDbSymbolTableRecord
100
AcDbBlockTableRecord
  2
*D6
340
0
  0
BLOCK_RECORD
  5
21E
330
1
100
AcDbSymbolTableRecord
100
AcDbBlockTableRecord
  2
*D7
340
0
  0
BLOCK_RECORD
  5
228
330
1
100
AcDbSymbolTableRecord
100
AcDbBlockTableRecord
  2
*D8
340
0
  0
ENDTAB
  0
ENDSEC
  0
SECTION
  2
BLOCKS
  0
BLOCK
  5
20
330
1F
100
AcDbEntity
  8
0
100
AcDbBlockBegin
  2
*Model_Space
 70
     0
 10
0.0
 20
0.0
 30
0.0
  3
*Model_Space
  1

  0
ENDBLK
  5
21
330
1F
100
AcDbEntity
  8
0
100
AcDbBlockEnd
  0
BLOCK
  5
1C
330
1B
100
AcDbEntity
 67
     1
  8
0
100
AcDbBlockBegin
  2
*Paper_Space
 70
     0
 10
0.0
 20
0.0
 30
0.0
  3
*Paper_Space
  1

  0
ENDBLK
  5
1D
330
1B
100
AcDbEntity
 67
     1
  8
0
100
AcDbBlockEnd
  0
BLOCK
  5
24
330
23
100
AcDbEntity
  8
0
100
AcDbBlockBegin
  2
*Paper_Space0
 70
     0
 10
0.0
 20
0.0
 30
0.0
  3
*Paper_Space0
  1

  0
ENDBLK
  5
25
330
23
100
AcDbEntity
  8
0
100
AcDbBlockEnd
  0
BLOCK
  5
1DA
330
1D9
100
AcDbEntity
  8
0
100
AcDbBlockBegin
  2
*D1
 70
     1
 10
0.0
 20
0.0
 30
0.0
  3
*D1
  1

  0
SOLID
  5
1DC
330
1D9
100
AcDbEntity
  8
VERMASSUNG
100
AcDbTrace
 10
50.1026002167
 20
137.544312026
 30
0.0
 11
49.6526002167
 21
134.544312026
 31
0.0
 12
50.5526002167
 22
134.544312026
 32
0.0
 13
50.5526002167
 23
134.544312026
 33
0.0
  0
SOLID
  5
1DD
330
1D9
100
AcDbEntity
  8
VERMASSUNG
100
AcDbTrace
 10
50.1026002167
 20
74.544312026
 30
0.0
 11
50.5526002167
 21
77.544312026
 31
0.0
 12
49.6526002167
 22
77.544312026
 32
0.0
 13
49.6526002167
 23
77.544312026
 33
0.0
  0
LINE
  5
1DE
330
1D9
100
AcDbEntity
  8
VERMASSUNG
100
AcDbLine
 10
86.6350393413
 20
137.544312026
 30
0.0
 11
49.1026002167
 21
137.544312026
 31
0.0
  0
LINE
  5
1DF
330
1D9
100
AcDbEntity
  8
VERMASSUNG
100
AcDbLine
 10
86.6350393413
 20
74.544312026
 30
0.0
 11
49.1026002167
 21
74.544312026
 31
0.0
  0
LINE
  5
1E0
330
1D9
100
AcDbEntity
  8
VERMASSUNG
100
AcDbLine
 10
50.1026002167
 20
137.544312026
 30
0.0
 11
50.1026002167
 21
74.544312026
 31
0.0
  0
MTEXT
  5
1E1
330
1D9
100
AcDbEntity
  8
VERMASSUNG
100
AcDbMText
 10
47.3244647276
 20
98.3407703142
 30
0.0
 40
2.0
 41
0.0
 71
     1
 72
     1
  1
HSK A 
  7
SLDTEXTSTYLE0
 11
-7.044195017643634E-15
 21
1.0
 31
0.0
 73
     1
 44
1.0
  0
MTEXT
  5
1E2
330
1D9
100
AcDbEntity
  8
VERMASSUNG
100
AcDbMText
 10
47.5244647371
 20
107.3407708581
 30
0.0
 40
2.0
 41
0.0
 71
     1
 72
     1
  1
%%c
  7
SLDTEXTSTYLE0
 11
-7.044195017643634E-15
 21
1.0
 31
0.0
 73
     1
 44
1.0
  0
MTEXT
  5
1E3
330
1D9
100
AcDbEntity
  8
VERMASSUNG
100
AcDbMText
 10
47.5244648536
 20
110.9490975081
 30
0.0
 40
2.0
 41
0.0
 71
     1
 72
     1
  1
63
  7
SLDTEXTSTYLE0
 11
-7.044195017643634E-15
 21
1.0
 31
0.0
 73
     1
 44
1.0
  0
ENDBLK
  5
1DB
330
1D9
100
AcDbEntity
  8
0
100
AcDbBlockEnd
  0
BLOCK
  5
1E7
330
1E6
100
AcDbEntity
  8
0
100
AcDbBlockBegin
  2
*D2
 70
     1
 10
0.0
 20
0.0
 30
0.0
  3
*D2
  1

  0
SOLID
  5
1E9
330
1E6
100
AcDbEntity
  8
VERMASSUNG
100
AcDbTrace
 10
209.8350393413
 20
133.6605633803
 30
0.0
 11
212.8350393413
 21
133.2105633803
 31
0.0
 12
212.8350393413
 22
134.1105633803
 32
0.0
 13
212.8350393413
 23
134.1105633803
 33
0.0
  0
SOLID
  5
1EA
330
1E6
100
AcDbEntity
  8
VERMASSUNG
100
AcDbTrace
 10
246.3350393413
 20
133.6605633803
 30
0.0
 11
243.3350393413
 21
134.1105633803
 31
0.0
 12
243.3350393413
 22
133.2105633803
 32
0.0
 13
243.3350393413
 23
133.2105633803
 33
0.0
  0
LINE
  5
1EB
330
1E6
100
AcDbEntity
  8
VERMASSUNG
100
AcDbLine
 10
209.8350393413
 20
109.944312026
 30
0.0
 11
209.8350393413
 21
134.6605633803
 31
0.0
  0
LINE
  5
1EC
330
1E6
100
AcDbEntity
  8
VERMASSUNG
100
AcDbLine
 10
246.3350393413
 20
114.6955310427
 30
0.0
 11
246.3350393413
 21
134.6605633803
 31
0.0
  0
LINE
  5
1ED
330
1E6
100
AcDbEntity
  8
VERMASSUNG
100
AcDbLine
 10
209.8350393413
 20
133.6605633803
 30
0.0
 11
246.3350393413
 21
133.6605633803
 31
0.0
  0
MTEXT
  5
1EE
330
1E6
100
AcDbEntity
  8
VERMASSUNG
100
AcDbMText
 10
225.6854423749
 20
136.2386987434
 30
0.0
 40
2.0
 41
0.0
 71
     1
 72
     1
  1
36.5
  7
SLDTEXTSTYLE0
 73
     1
 44
1.0
  0
ENDBLK
  5
1E8
330
1E6
100
AcDbEntity
  8
0
100
AcDbBlockEnd
  0
BLOCK
  5
1F2
330
1F1
100
AcDbEntity
  8
0
100
AcDbBlockBegin
  2
*D3
 70
     1
 10
0.0
 20
0.0
 30
0.0
  3
*D3
  1

  0
SOLID
  5
1F4
330
1F1
100
AcDbEntity
  8
VERMASSUNG
100
AcDbTrace
 10
252.9312026002
 20
102.044312026
 30
0.0
 11
253.3812026002
 21
105.044312026
 31
0.0
 12
252.4812026002
 22
105.044312026
 32
0.0
 13
252.4812026002
 23
105.044312026
 33
0.0
  0
SOLID
  5
1F5
330
1F1
100
AcDbEntity
  8
VERMASSUNG
100
AcDbTrace
 10
252.9312026002
 20
110.044312026
 30
0.0
 11
252.4812026002
 21
107.044312026
 31
0.0
 12
253.3812026002
 22
107.044312026
 32
0.0
 13
253.3812026002
 23
107.044312026
 33
0.0
  0
LINE
  5
1F6
330
1F1
100
AcDbEntity
  8
VERMASSUNG
100
AcDbLine
 10
242.8350393413
 20
102.044312026
 30
0.0
 11
253.9312026002
 21
102.044312026
 31
0.0
  0
LINE
  5
1F7
330
1F1
100
AcDbEntity
  8
VERMASSUNG
100
AcDbLine
 10
242.8350393413
 20
110.044312026
 30
0.0
 11
253.9312026002
 21
110.044312026
 31
0.0
  0
LINE
  5
1F8
330
1F1
100
AcDbEntity
  8
VERMASSUNG
100
AcDbLine
 10
252.9312026002
 20
102.044312026
 30
0.0
 11
252.9312026002
 21
110.044312026
 31
0.0
  0
MTEXT
  5
1F9
330
1F1
100
AcDbEntity
  8
VERMASSUNG
100
AcDbMText
 10
250.3530671207
 20
102.9403846154
 30
0.0
 40
2.0
 41
0.0
 71
     1
 72
     1
  1
%%c
  7
SLDTEXTSTYLE0
 11
6.123233995736766E-17
 21
1.0
 31
0.0
 73
     1
 44
1.0
  0
MTEXT
  5
1FA
330
1F1
100
AcDbEntity
  8
VERMASSUNG
100
AcDbMText
 10
250.3530672371
 20
106.5490628386
 30
0.0
 40
2.0
 41
0.0
 71
     1
 72
     1
  1
8
  7
SLDTEXTSTYLE0
 11
6.123233995736766E-17
 21
1.0
 31
0.0
 73
     1
 44
1.0
  0
MTEXT
  5
1FB
330
1F1
100
AcDbEntity
  8
VERMASSUNG
100
AcDbMText
 10
250.3530672371
 20
107.9484409534
 30
0.0
 40
2.0
 41
0.0
 71
     1
 72
     1
  1
 
  7
SLDTEXTSTYLE0
 11
6.123233995736766E-17
 21
1.0
 31
0.0
 73
     1
 44
1.0
  0
ENDBLK
  5
1F3
330
1F1
100
AcDbEntity
  8
0
100
AcDbBlockEnd
  0
BLOCK
  5
1FF
330
1FE
100
AcDbEntity
  8
0
100
AcDbBlockBegin
  2
*D4
 70
     1
 10
0.0
 20
0.0
 30
0.0
  3
*D4
  1

  0
SOLID
  5
201
330
1FE
100
AcDbEntity
  8
VERMASSUNG
100
AcDbTrace
 10
258.9312026002
 20
95.544312026
 30
0.0
 11
259.3812026002
 21
98.544312026
 31
0.0
 12
258.4812026002
 22
98.544312026
 32
0.0
 13
258.4812026002
 23
98.544312026
 33
0.0
  0
SOLID
  5
202
330
1FE
100
AcDbEntity
  8
VERMASSUNG
100
AcDbTrace
 10
258.9312026002
 20
116.544312026
 30
0.0
 11
258.4812026002
 21
113.544312026
 31
0.0
 12
259.3812026002
 22
113.544312026
 32
0.0
 13
259.3812026002
 23
113.544312026
 33
0.0
  0
LINE
  5
203
330
1FE
100
AcDbEntity
  8
VERMASSUNG
100
AcDbLine
 10
246.3350393413
 20
95.544312026
 30
0.0
 11
259.9312026002
 21
95.544312026
 31
0.0
  0
LINE
  5
204
330
1FE
100
AcDbEntity
  8
VERMASSUNG
100
AcDbLine
 10
246.3350393413
 20
116.544312026
 30
0.0
 11
259.9312026002
 21
116.544312026
 31
0.0
  0
LINE
  5
205
330
1FE
100
AcDbEntity
  8
VERMASSUNG
100
AcDbLine
 10
258.9312026002
 20
95.544312026
 30
0.0
 11
258.9312026002
 21
116.544312026
 31
0.0
  0
MTEXT
  5
206
330
1FE
100
AcDbEntity
  8
VERMASSUNG
100
AcDbMText
 10
256.3530671207
 20
103.0401744312
 30
0.0
 40
2.0
 41
0.0
 71
     1
 72
     1
  1
%%c
  7
SLDTEXTSTYLE0
 11
6.123233995736766E-17
 21
1.0
 31
0.0
 73
     1
 44
1.0
  0
MTEXT
  5
207
330
1FE
100
AcDbEntity
  8
VERMASSUNG
100
AcDbMText
 10
256.3530672371
 20
106.6488526544
 30
0.0
 40
2.0
 41
0.0
 71
     1
 72
     1
  1
21
  7
SLDTEXTSTYLE0
 11
6.123233995736766E-17
 21
1.0
 31
0.0
 73
     1
 44
1.0
  0
ENDBLK
  5
200
330
1FE
100
AcDbEntity
  8
0
100
AcDbBlockEnd
  0
BLOCK
  5
20A
330
209
100
AcDbEntity
  8
0
100
AcDbBlockBegin
  2
*D5
 70
     1
 10
0.0
 20
0.0
 30
0.0
  3
*D5
  1

  0
SOLID
  5
20C
330
209
100
AcDbEntity
  8
VERMASSUNG
100
AcDbTrace
 10
86.3350393413
 20
145.6605633803
 30
0.0
 11
89.3350393413
 21
145.2105633803
 31
0.0
 12
89.3350393413
 22
146.1105633803
 32
0.0
 13
89.3350393413
 23
146.1105633803
 33
0.0
  0
SOLID
  5
20D
330
209
100
AcDbEntity
  8
VERMASSUNG
100
AcDbTrace
 10
246.3350393413
 20
145.6605633803
 30
0.0
 11
243.3350393413
 21
146.1105633803
 31
0.0
 12
243.3350393413
 22
145.2105633803
 32
0.0
 13
243.3350393413
 23
145.2105633803
 33
0.0
  0
LINE
  5
20E
330
209
100
AcDbEntity
  8
VERMASSUNG
100
AcDbLine
 10
86.3350393413
 20
137.244312026
 30
0.0
 11
86.3350393413
 21
146.6605633803
 31
0.0
  0
LINE
  5
20F
330
209
100
AcDbEntity
  8
VERMASSUNG
100
AcDbLine
 10
246.3350393413
 20
114.6955310427
 30
0.0
 11
246.3350393413
 21
146.6605633803
 31
0.0
  0
LINE
  5
210
330
209
100
AcDbEntity
  8
VERMASSUNG
100
AcDbLine
 10
86.3350393413
 20
145.6605633803
 30
0.0
 11
246.3350393413
 21
145.6605633803
 31
0.0
  0
MTEXT
  5
211
330
209
100
AcDbEntity
  8
VERMASSUNG
100
AcDbMText
 10
164.4355518007
 20
148.2386987434
 30
0.0
 40
2.0
 41
0.0
 71
     1
 72
     1
  1
160
  7
SLDTEXTSTYLE0
 73
     1
 44
1.0
  0
ENDBLK
  5
20B
330
209
100
AcDbEntity
  8
0
100
AcDbBlockEnd
  0
BLOCK
  5
214
330
213
100
AcDbEntity
  8
0
100
AcDbBlockBegin
  2
*D6
 70
     1
 10
0.0
 20
0.0
 30
0.0
  3
*D6
  1

  0
SOLID
  5
216
330
213
100
AcDbEntity
  8
VERMASSUNG
100
AcDbTrace
 10
264.9312026002
 20
119.544312026
 30
0.0
 11
264.4812026002
 21
116.544312026
 31
0.0
 12
265.3812026002
 22
116.544312026
 32
0.0
 13
265.3812026002
 23
116.544312026
 33
0.0
  0
SOLID
  5
217
330
213
100
AcDbEntity
  8
VERMASSUNG
100
AcDbTrace
 10
264.9312026002
 20
92.544312026
 30
0.0
 11
265.3812026002
 21
95.544312026
 31
0.0
 12
264.4812026002
 22
95.544312026
 32
0.0
 13
264.4812026002
 23
95.544312026
 33
0.0
  0
LINE
  5
218
330
213
100
AcDbEntity
  8
VERMASSUNG
100
AcDbLine
 10
208.2164251328
 20
119.544312026
 30
0.0
 11
265.9312026002
 21
119.544312026
 31
0.0
  0
LINE
  5
219
330
213
100
AcDbEntity
  8
VERMASSUNG
100
AcDbLine
 10
208.2164251328
 20
92.544312026
 30
0.0
 11
265.9312026002
 21
92.544312026
 31
0.0
  0
LINE
  5
21A
330
213
100
AcDbEntity
  8
VERMASSUNG
100
AcDbLine
 10
264.9312026002
 20
119.544312026
 30
0.0
 11
264.9312026002
 21
92.544312026
 31
0.0
  0
MTEXT
  5
21B
330
213
100
AcDbEntity
  8
VERMASSUNG
100
AcDbMText
 10
262.3530671207
 20
102.8405947996
 30
0.0
 40
2.0
 41
0.0
 71
     1
 72
     1
  1
%%c
  7
SLDTEXTSTYLE0
 11
-7.044195017643634E-15
 21
1.0
 31
0.0
 73
     1
 44
1.0
  0
MTEXT
  5
21C
330
213
100
AcDbEntity
  8
VERMASSUNG
100
AcDbMText
 10
262.3530672371
 20
106.4492730228
 30
0.0
 40
2.0
 41
0.0
 71
     1
 72
     1
  1
27
  7
SLDTEXTSTYLE0
 11
-7.044195017643634E-15
 21
1.0
 31
0.0
 73
     1
 44
1.0
  0
ENDBLK
  5
215
330
213
100
AcDbEntity
  8
0
100
AcDbBlockEnd
  0
BLOCK
  5
21F
330
21E
100
AcDbEntity
  8
0
100
AcDbBlockBegin
  2
*D7
 70
     1
 10
0.0
 20
0.0
 30
0.0
  3
*D7
  1

  0
SOLID
  5
221
330
21E
100
AcDbEntity
  8
VERMASSUNG
100
AcDbTrace
 10
246.3350393413
 20
139.6605633803
 30
0.0
 11
243.3350393413
 21
140.1105633803
 31
0.0
 12
243.3350393413
 22
139.2105633803
 32
0.0
 13
243.3350393413
 23
139.2105633803
 33
0.0
  0
SOLID
  5
222
330
21E
100
AcDbEntity
  8
VERMASSUNG
100
AcDbTrace
 10
112.2850393413
 20
139.6605633803
 30
0.0
 11
115.2850393413
 21
139.2105633803
 31
0.0
 12
115.2850393413
 22
140.1105633803
 32
0.0
 13
115.2850393413
 23
140.1105633803
 33
0.0
  0
LINE
  5
223
330
21E
100
AcDbEntity
  8
VERMASSUNG
100
AcDbLine
 10
246.3350393413
 20
114.6955310427
 30
0.0
 11
246.3350393413
 21
140.6605633803
 31
0.0
  0
LINE
  5
224
330
21E
100
AcDbEntity
  8
VERMASSUNG
100
AcDbLine
 10
112.2850393413
 20
135.8907523498
 30
0.0
 11
112.2850393413
 21
140.6605633803
 31
0.0
  0
LINE
  5
225
330
21E
100
AcDbEntity
  8
VERMASSUNG
100
AcDbLine
 10
246.3350393413
 20
139.6605633803
 30
0.0
 11
112.2850393413
 21
139.6605633803
 31
0.0
  0
MTEXT
  5
226
330
21E
100
AcDbEntity
  8
VERMASSUNG
100
AcDbMText
 10
175.6108540759
 20
142.2386987434
 30
0.0
 40
2.0
 41
0.0
 71
     1
 72
     1
  1
134.05
  7
SLDTEXTSTYLE0
 73
     1
 44
1.0
  0
ENDBLK
  5
220
330
21E
100
AcDbEntity
  8
0
100
AcDbBlockEnd
  0
BLOCK
  5
229
330
228
100
AcDbEntity
  8
0
100
AcDbBlockBegin
  2
*D8
 70
     1
 10
0.0
 20
0.0
 30
0.0
  3
*D8
  1

  0
SOLID
  5
22B
330
228
100
AcDbEntity
  8
VERMASSUNG
100
AcDbTrace
 10
246.3350393413
 20
151.6605633803
 30
0.0
 11
243.3350393413
 21
152.1105633803
 31
0.0
 12
243.3350393413
 22
151.2105633803
 32
0.0
 13
243.3350393413
 23
151.2105633803
 33
0.0
  0
SOLID
  5
22C
330
228
100
AcDbEntity
  8
VERMASSUNG
100
AcDbTrace
 10
54.4350393413
 20
151.6605633803
 30
0.0
 11
57.4350393413
 21
151.2105633803
 31
0.0
 12
57.4350393413
 22
152.1105633803
 32
0.0
 13
57.4350393413
 23
152.1105633803
 33
0.0
  0
LINE
  5
22D
330
228
100
AcDbEntity
  8
VERMASSUNG
100
AcDbLine
 10
246.3350393413
 20
114.6955310427
 30
0.0
 11
246.3350393413
 21
152.6605633803
 31
0.0
  0
LINE
  5
22E
330
228
100
AcDbEntity
  8
VERMASSUNG
100
AcDbLine
 10
54.4350393413
 20
125.7349897725
 30
0.0
 11
54.4350393413
 21
152.6605633803
 31
0.0
  0
LINE
  5
22F
330
228
100
AcDbEntity
  8
VERMASSUNG
100
AcDbLine
 10
246.3350393413
 20
151.6605633803
 30
0.0
 11
54.4350393413
 21
151.6605633803
 31
0.0
  0
MTEXT
  5
230
330
228
100
AcDbEntity
  8
VERMASSUNG
100
AcDbMText
 10
147.6860729275
 20
154.2386987434
 30
0.0
 40
2.0
 41
0.0
 71
     1
 72
     1
  1
191.9
  7
SLDTEXTSTYLE0
 73
     1
 44
1.0
  0
ENDBLK
  5
22A
330
228
100
AcDbEntity
  8
0
100
AcDbBlockEnd
  0
ENDSEC
  0
SECTION
  2
ENTITIES
  0
MTEXT
  5
45
330
1F
100
AcDbEntity
  8
KOPF_DÜNN
100
AcDbMText
 10
13.8892156294
 20
23.8442973028
 30
0.0
 40
3.0
 41
0.0
 71
     1
 72
     1
  1
HA6.S08.K21.160
  7
SLDTEXTSTYLE0
 73
     1
 44
1.0
  0
MTEXT
  5
46
330
1F
100
AcDbEntity
  8
VERMASSUNG
100
AcDbMText
 10
13.9329988022
 20
28.8834360957
 30
0.0
 40
3.0
 41
0.0
 71
     1
 72
     1
  1
Schrumpffutter_Heat shrink chuck
  7
SLDTEXTSTYLE0
 73
     1
 44
1.0
  0
MTEXT
  5
47
330
1F
100
AcDbEntity
  8
VERMASSUNG
100
AcDbMText
 10
98.8601118557
 20
13.8365368179
 30
0.0
 40
2.0
 41
0.0
 71
     1
 72
     1
  1
Datum: 27.04.2011
  7
SLDTEXTSTYLE0
 73
     1
 44
1.0
  0
MTEXT
  5
49
330
1F
100
AcDbEntity
  8
VERMASSUNG
100
AcDbMText
 10
13.933048693
 20
18.0482802738
 30
0.0
 40
2.0
 41
0.0
 71
     1
 72
     1
  1
DIN 69 893 HSK A 63
  7
SLDTEXTSTYLE1
 73
     1
 44
1.0
  0
MTEXT
  5
4A
330
1F
100
AcDbEntity
  8
VERMASSUNG
100
AcDbMText
 10
13.9808475933
 20
13.9090973692
 30
0.0
 40
2.0
 41
0.0
 71
     1
 72
     1
  1
Gewicht: 1179g
  7
SLDTEXTSTYLE0
 73
     1
 44
1.0
  0
LINE
  5
4B
330
1F
100
AcDbEntity
  8
0
  6
Continuous
 62
     7
370
    15
100
AcDbLine
 10
86.6350393413
 20
74.544312026
 30
0.0
 11
91.2850393413
 21
74.544312026
 31
0.0
  0
LINE
  5
4C
330
1F
100
AcDbEntity
  8
0
  6
Continuous
 62
     7
370
    15
100
AcDbLine
 10
91.2943474282
 20
137.544312026
 30
0.0
 11
86.6350393413
 21
137.544312026
 31
0.0
  0
ARC
  5
4D
330
1F
100
AcDbEntity
  8
0
  6
Continuous
 62
     7
370
    15
100
AcDbCircle
 10
86.6350393413
 20
74.844312026
 30
0.0
 40
0.3000000000000114
100
AcDbArc
 50
180.0
 51
270.0
  0
ARC
  5
4E
330
1F
100
AcDbEntity
  8
0
  6
Continuous
 62
     7
370
    15
100
AcDbCircle
 10
86.6350393413
 20
137.244312026
 30
0.0
 40
0.2999999999999972
100
AcDbArc
 50
90.0
 51
180.0
  0
ARC
  5
4F
330
1F
100
AcDbEntity
  8
0
  6
Continuous
 62
     7
370
    15
100
AcDbCircle
 10
85.8350325887
 20
81.4738744116
 30
0.0
 40
0.6000067526677242
100
AcDbArc
 50
33.5571153394
 51
90.0
  0
ARC
  5
50
330
1F
100
AcDbEntity
  8
0
  6
Continuous
 62
     7
370
    15
100
AcDbCircle
 10
85.8350325887
 20
130.6147496404
 30
0.0
 40
0.6000067526677242
100
AcDbArc
 50
270.0
 51
326.4428846606
  0
LINE
  5
51
330
1F
100
AcDbEntity
  8
0
  6
Continuous
 62
     7
370
    15
100
AcDbLine
 10
73.1046171588
 20
129.7020964858
 30
0.0
 11
60.5350393413
 21
129.0723581182
 31
0.0
  0
LINE
  5
52
330
1F
100
AcDbEntity
  8
0
  6
Continuous
 62
     7
370
    15
100
AcDbLine
 10
84.3350393413
 20
130.2647428877
 30
0.0
 11
81.5164299838
 21
130.1235299941
 31
0.0
  0
LINE
  5
53
330
1F
100
AcDbEntity
  8
0
  6
Continuous
 62
     7
370
    15
100
AcDbLine
 10
81.516651459
 20
81.965082962
 30
0.0
 11
84.3350393413
 21
81.8238811643
 31
0.0
  0
LINE
  5
54
330
1F
100
AcDbEntity
  8
0
  6
Continuous
 62
     7
370
    15
100
AcDbLine
 10
64.5350393413
 20
82.8158651322
 30
0.0
 11
73.1053161105
 21
82.3864925486
 31
0.0
  0
LINE
  5
55
330
1F
100
AcDbEntity
  8
0
  6
Continuous
 62
     7
370
    15
100
AcDbLine
 10
84.3350393413
 20
81.8238811643
 30
0.0
 11
85.1917521147
 21
82.0534366601
 31
0.0
  0
LINE
  5
56
330
1F
100
AcDbEntity
  8
0
  6
Continuous
 62
     7
370
    15
100
AcDbLine
 10
85.1917521147
 20
130.035187392
 30
0.0
 11
84.3350393413
 21
130.2647428877
 31
0.0
  0
ARC
  5
57
330
1F
100
AcDbEntity
  8
0
  6
Continuous
 62
     7
370
    15
100
AcDbCircle
 10
85.3470435418
 20
81.4738811643
 30
0.0
 40
0.6000000000000085
100
AcDbArc
 50
90.0
 51
105.0
  0
ARC
  5
58
330
1F
100
AcDbEntity
  8
0
  6
Continuous
 62
     7
370
    15
100
AcDbCircle
 10
85.3470435418
 20
130.6147428877
 30
0.0
 40
0.6000000000000227
100
AcDbArc
 50
255.0
 51
270.0
  0
LINE
  5
59
330
1F
100
AcDbEntity
  8
0
  6
Continuous
 62
     7
370
    15
100
AcDbLine
 10
85.3470435418
 20
82.0738811643
 30
0.0
 11
85.8350325887
 21
82.0738811643
 31
0.0
  0
LINE
  5
5A
330
1F
100
AcDbEntity
  8
0
  6
Continuous
 62
     7
370
    15
100
AcDbLine
 10
85.8350325887
 20
130.0147428877
 30
0.0
 11
85.3470435418
 21
130.0147428877
 31
0.0
  0
ARC
  5
5B
330
1F
100
AcDbEntity
  8
0
  6
Continuous
 62
     7
370
    15
100
AcDbCircle
 10
115.2850393413
 20
86.5283532245
 30
0.0
 40
3.0
100
AcDbArc
 50
104.3250519401
 51
180.0
  0
ARC
  5
5C
330
1F
100
AcDbEntity
  8
0
  6
Continuous
 62
     7
370
    15
100
AcDbCircle
 10
115.2850393413
 20
125.5602708275
 30
0.0
 40
3.0
100
AcDbArc
 50
180.0
 51
255.6749480599
  0
ARC
  5
5D
330
1F
100
AcDbEntity
  8
0
  6
Continuous
 62
     7
370
    15
100
AcDbCircle
 10
139.2850393413
 20
-7.455687974
 30
0.0
 40
100.0
100
AcDbArc
 50
90.0
 51
104.3250519401
  0
ARC
  5
5E
330
1F
100
AcDbEntity
  8
0
  6
Continuous
 62
     7
370
    15
100
AcDbCircle
 10
139.2850393413
 20
219.544312026
 30
0.0
 40
100.0
100
AcDbArc
 50
255.6749480599
 51
270.0
  0
LINE
  5
5F
330
1F
100
AcDbEntity
  8
0
  6
Continuous
 62
     7
370
    15
100
AcDbLine
 10
161.7760018353
 20
92.544312026
 30
0.0
 11
208.2164251328
 21
92.544312026
 31
0.0
  0
LINE
  5
60
330
1F
100
AcDbEntity
  8
0
  6
Continuous
 62
     7
370
    15
100
AcDbLine
 10
139.2850393413
 20
92.544312026
 30
0.0
 11
154.7884318689
 21
92.544312026
 31
0.0
  0
LINE
  5
61
330
1F
100
AcDbEntity
  8
0
  6
Continuous
 62
     7
370
    15
100
AcDbLine
 10
154.7863354461
 20
119.544312026
 30
0.0
 11
139.2850393413
 21
119.544312026
 31
0.0
  0
LINE
  5
62
330
1F
100
AcDbEntity
  8
0
  6
Continuous
 62
     7
370
    15
100
AcDbLine
 10
208.2164251328
 20
119.544312026
 30
0.0
 11
161.7762246132
 21
119.544312026
 31
0.0
  0
LINE
  5
63
330
1F
100
AcDbEntity
  8
0
  6
Continuous
 62
     7
370
    15
100
AcDbLine
 10
208.2164251328
 20
92.544312026
 30
0.0
 11
244.4919575328
 21
95.3992583419
 31
0.0
  0
LINE
  5
64
330
1F
100
AcDbEntity
  8
0
  6
Continuous
 62
     7
370
    15
100
AcDbLine
 10
244.4919575328
 20
116.6893657102
 30
0.0
 11
208.2164251328
 21
119.544312026
 31
0.0
  0
LINE
  5
65
330
1F
100
AcDbEntity
  8
0
  6
Continuous
 62
     7
370
    15
100
AcDbLine
 10
55.7183759813
 20
85.174312026
 30
0.0
 11
63.1350393413
 21
85.174312026
 31
0.0
  0
ARC
  5
66
330
1F
100
AcDbEntity
  8
0
  6
Continuous
 62
     7
370
    15
100
AcDbCircle
 10
244.3350393413
 20
97.3930930093
 30
0.0
 40
2.000000000000057
100
AcDbArc
 50
274.5
 51
0.0
  0
ARC
  5
67
330
1F
100
AcDbEntity
  8
0
  6
Continuous
 62
     7
370
    15
100
AcDbCircle
 10
244.3350393413
 20
114.6955310427
 30
0.0
 40
2.000000000000057
100
AcDbArc
 50
0.0
 51
85.5
  0
ARC
  5
68
330
1F
100
AcDbEntity
  8
0
  6
Continuous
 62
     7
370
    15
100
AcDbCircle
 10
63.1350393413
 20
83.774312026
 30
0.0
 40
1.399999999999997
100
AcDbArc
 50
42.2465410162
 51
90.0
  0
LINE
  5
69
330
1F
100
AcDbEntity
  8
0
  6
Continuous
 62
     7
370
    15
100
AcDbLine
 10
54.4461997764
 20
86.3131515909
 30
0.0
 11
55.5762027995
 21
85.1831485678
 31
0.0
  0
LINE
  5
6A
330
1F
100
AcDbEntity
  8
0
  6
Continuous
 62
     7
370
    15
100
AcDbLine
 10
55.5762027995
 20
126.9054754842
 30
0.0
 11
54.4449401147
 21
125.7742127994
 31
0.0
  0
ARC
  5
6B
330
1F
100
AcDbEntity
  8
0
  6
Continuous
 62
     7
370
    15
100
AcDbCircle
 10
59.1350393413
 20
128.314312026
 30
0.0
 40
1.399999999999996
100
AcDbArc
 50
270.0
 51
301.7485287426
  0
LINE
  5
6C
330
1F
100
AcDbEntity
  8
0
  6
Continuous
 62
     7
370
    15
100
AcDbLine
 10
59.1350393413
 20
126.914312026
 30
0.0
 11
55.7093050752
 21
126.914312026
 31
0.0
  0
LINE
  5
6D
330
1F
100
AcDbEntity
  8
0
  6
Continuous
 62
     7
370
    15
100
AcDbLine
 10
246.3534718248
 20
114.2640287275
 30
0.0
 11
246.3350393413
 21
114.299063116
 31
0.0
  0
LINE
  5
6E
330
1F
100
AcDbEntity
  8
0
  6
Continuous
 62
     7
370
    15
100
AcDbLine
 10
246.3350393413
 20
97.6799437657
 30
0.0
 11
246.4123615485
 21
97.8269091081
 31
0.0
  0
SPLINE
  5
6F
330
1F
100
AcDbEntity
  8
0
  6
Continuous
 62
     7
370
    15
100
AcDbSpline
210
0.0
220
0.0
230
1.0
 70
     8
 71
     3
 72
    70
 73
    66
 74
     0
 42
0.00000001
 43
0.00000001
 40
-0.0312500000000002
 40
-0.0312500000000002
 40
0.0
 40
0.0
 40
0.0312499999999999
 40
0.0312499999999999
 40
0.0624999999999999
 40
0.0624999999999999
 40
0.0937499999999998
 40
0.0937499999999998
 40
0.1249999999999998
 40
0.1249999999999998
 40
0.1562499999999997
 40
0.1562499999999997
 40
0.1874999999999997
 40
0.1874999999999997
 40
0.2187499999999996
 40
0.2187499999999996
 40
0.2499999999999996
 40
0.2499999999999996
 40
0.2812499999999995
 40
0.2812499999999995
 40
0.3124999999999994
 40
0.3124999999999994
 40
0.3437499999999994
 40
0.3437499999999994
 40
0.3749999999999993
 40
0.3749999999999993
 40
0.4062499999999993
 40
0.4062499999999993
 40
0.4374999999999992
 40
0.4374999999999992
 40
0.4687499999999992
 40
0.4687499999999992
 40
0.4999999999999991
 40
0.4999999999999991
 40
0.5312499999999991
 40
0.5312499999999991
 40
0.562499999999999
 40
0.562499999999999
 40
0.5937499999999989
 40
0.5937499999999989
 40
0.6249999999999989
 40
0.6249999999999989
 40
0.6562499999999989
 40
0.6562499999999989
 40
0.6874999999999988
 40
0.6874999999999988
 40
0.7187499999999987
 40
0.7187499999999987
 40
0.7499999999999987
 40
0.7499999999999987
 40
0.7812499999999988
 40
0.7812499999999988
 40
0.812499999999999
 40
0.812499999999999
 40
0.8437499999999991
 40
0.8437499999999991
 40
0.8749999999999993
 40
0.8749999999999993
 40
0.9062499999999994
 40
0.9062499999999994
 40
0.9374999999999997
 40
0.9374999999999997
 40
0.9687499999999998
 40
0.9687499999999998
 40
1.0
 40
1.0
 40
1.03125
 40
1.03125
 10
94.07049400267437
 20
116.6652189119856
 30
0.0
 10
94.59958467999466
 20
116.6652189119856
 30
0.0
 10
94.85965534737176
 20
116.6898962067708
 30
0.0
 10
95.37123002720716
 20
116.7863678798127
 30
0.0
 10
95.62540531094736
 20
116.8593487957927
 30
0.0
 10
96.10967594100907
 20
117.0490893987313
 30
0.0
 10
96.33931703289022
 20
117.1649500571251
 30
0.0
 10
96.77392138112373
 20
117.4375679030828
 30
0.0
 10
96.97948715777032
 20
117.5956069851365
 30
0.0
 10
97.34804429836556
 20
117.9391498361072
 30
0.0
 10
97.51352528110105
 20
118.1259122802089
 30
0.0
 10
97.80594979053615
 20
118.5294554546057
 30
0.0
 10
97.93005076716265
 20
118.7429524510349
 30
0.0
 10
98.12962996391236
 20
119.1823357649573
 30
0.0
 10
98.20656354977064
 20
119.411475752103
 30
0.0
 10
98.309420608291
 20
119.877449874863
 30
0.0
 10
98.33489351775013
 20
120.1103323205392
 30
0.0
 10
98.33518392831792
 20
120.575729855619
 30
0.0
 10
98.30915929454217
 20
120.8106056130133
 30
0.0
 10
98.20701101005017
 20
121.2620987602596
 30
0.0
 10
98.131434562467
 20
121.4801452356709
 30
0.0
 10
97.93093703132207
 20
121.9012397607087
 30
0.0
 10
97.8058081898137
 20
122.1031611452271
 30
0.0
 10
97.51644938879211
 20
122.475190627746
 30
0.0
 10
97.35103840173664
 20
122.6478189313263
 30
0.0
 10
96.97804784358883
 20
122.9651369358723
 30
0.0
 10
96.77631481049973
 20
123.104923869374
 30
0.0
 10
96.34345555967185
 20
123.3491001229258
 30
0.0
 10
96.10953702678248
 20
123.4543296339673
 30
0.0
 10
95.62535329163987
 20
123.6224867803424
 30
0.0
 10
95.37603766568436
 20
123.6857376709362
 30
0.0
 10
94.86300514125662
 20
123.7713168800389
 30
0.0
 10
94.59771131835198
 20
123.7931890449613
 30
0.0
 10
94.07537669848223
 20
123.7933526946052
 30
0.0
 10
93.8156230360005
 20
123.7723510025092
 30
0.0
 10
93.29901122035527
 20
123.6869486474316
 30
0.0
 10
93.04664517985499
 20
123.6229424641446
 30
0.0
 10
92.56512005832215
 20
123.4561279441034
 30
0.0
 10
92.3322693262086
 20
123.3519947807043
 30
0.0
 10
91.89517947776983
 20
123.1060081282093
 30
0.0
 10
91.69385848911266
 20
122.9662582972605
 30
0.0
 10
91.32477246381275
 20
122.6531202275359
 30
0.0
 10
91.15578771276105
 20
122.4776640682658
 30
0.0
 10
90.86533165610184
 20
122.1048238041655
 30
0.0
 10
90.74225984473972
 20
121.9067019940546
 30
0.0
 10
90.5409236033177
 20
121.4859906513209
 30
0.0
 10
90.46371105737546
 20
121.2640006306534
 30
0.0
 10
90.3615075144754
 20
120.814135690945
 30
0.0
 10
90.33527916302309
 20
120.5838802778283
 30
0.0
 10
90.33480276370598
 20
120.1125643352792
 30
0.0
 10
90.36054517620394
 20
119.8793269195651
 30
0.0
 10
90.46185595256782
 20
119.417650380067
 30
0.0
 10
90.53868859195873
 20
119.1867529929549
 30
0.0
 10
90.73909243117393
 20
118.7444769791632
 30
0.0
 10
90.86176392946597
 20
118.5334145478773
 30
0.0
 10
91.1517112186302
 20
118.1319160371446
 30
0.0
 10
91.32028219799543
 20
117.9410095150687
 30
0.0
 10
91.68855179210858
 20
117.5972841830716
 30
0.0
 10
91.8896136493789
 20
117.4421469968575
 30
0.0
 10
92.32664456796383
 20
117.1670696367778
 30
0.0
 10
92.55879278109344
 20
117.0499534073558
 30
0.0
 10
93.0398030625923
 20
116.8610269222913
 30
0.0
 10
93.29190314542274
 20
116.787951951897
 30
0.0
 10
93.80897263168174
 20
116.6898998927625
 30
0.0
 10
94.07049400267437
 20
116.6652189119856
 30
0.0
 10
94.59958467999466
 20
116.6652189119856
 30
0.0
  0
LINE
  5
70
330
1F
100
AcDbEntity
  8
0
  6
Continuous
 62
     7
370
    15
100
AcDbLine
 10
91.2850393413
 20
125.894312026
 30
0.0
 11
100.9431065098
 21
125.894312026
 31
0.0
  0
LINE
  5
71
330
1F
100
AcDbEntity
  8
0
  6
Continuous
 62
     7
370
    15
100
AcDbLine
 10
100.9431065098
 20
75.8573943298
 30
0.0
 11
100.9431065098
 21
125.894312026
 31
0.0
  0
LINE
  5
72
330
1F
100
AcDbEntity
  8
0
  6
Continuous
 62
     7
370
    15
100
AcDbLine
 10
100.9431065098
 20
75.8573943298
 30
0.0
 11
99.2850393413
 21
75.8573943298
 31
0.0
  0
SPLINE
  5
73
330
1F
100
AcDbEntity
  8
0
  6
Continuous
 62
     7
370
    15
100
AcDbSpline
210
0.0
220
0.0
230
1.0
 70
     8
 71
     3
 72
    28
 73
    24
 74
     0
 42
0.00000001
 43
0.00000001
 40
0.0
 40
0.0
 40
0.0
 40
0.0
 40
0.1250000000000001
 40
0.1250000000000001
 40
0.1875000000000001
 40
0.1875000000000001
 40
0.2500000000000001
 40
0.2500000000000001
 40
0.3749999999999999
 40
0.3749999999999999
 40
0.4375
 40
0.4375
 40
0.4999999999999999
 40
0.4999999999999999
 40
0.6249999999999999
 40
0.6249999999999999
 40
0.7499999999999997
 40
0.7499999999999997
 40
0.8124999999999998
 40
0.8124999999999998
 40
0.8749999999999998
 40
0.8749999999999998
 40
1.0
 40
1.0
 40
1.0
 40
1.0
 10
99.2850393413345
 20
75.85739432975505
 30
0.0
 10
98.75333158384156
 20
75.85739432975505
 30
0.0
 10
98.23109301853124
 20
75.84160961580484
 30
0.0
 10
97.46122253225623
 20
75.79661420172864
 30
0.0
 10
97.2068629600649
 20
75.7780592066529
 30
0.0
 10
96.70274137936639
 20
75.7342064842064
 30
0.0
 10
96.45301856193846
 20
75.70886187725421
 30
0.0
 10
95.72742861049205
 20
75.62545979950411
 30
0.0
 10
95.26906834891051
 20
75.55959424035302
 30
0.0
 10
94.61857040551664
 20
75.45062389986123
 30
0.0
 10
94.40688835472417
 20
75.41238426409458
 30
0.0
 10
94.00281686558617
 20
75.33462552667523
 30
0.0
 10
93.81031035176532
 20
75.29512456449986
 30
0.0
 10
93.26047538074403
 20
75.17621682213387
 30
0.0
 10
92.93054660243521
 20
75.09639914070925
 30
0.0
 10
92.34607533386654
 20
74.9430559789132
 30
0.0
 10
92.0997981958531
 20
74.87172222564395
 30
0.0
 10
91.79995540315502
 20
74.77777871856932
 30
0.0
 10
91.71149854608285
 20
74.74858492520939
 30
0.0
 10
91.55813719277772
 20
74.69511835094598
 30
0.0
 10
91.49304897855149
 20
74.67075901667079
 30
0.0
 10
91.33745496261069
 20
74.60716887122607
 30
0.0
 10
91.2850393413345
 20
74.5770659361368
 30
0.0
 10
91.2850393413345
 20
74.56018904313989
 30
0.0
  0
LINE
  5
74
330
1F
100
AcDbEntity
  8
0
  6
Continuous
 62
     7
370
    15
100
AcDbLine
 10
91.2850393413
 20
74.5601890431
 30
0.0
 11
91.2850393413
 21
74.544312026
 31
0.0
  0
SPLINE
  5
75
330
1F
100
AcDbEntity
  8
0
  6
Continuous
 62
     7
370
    15
100
AcDbSpline
210
0.0
220
0.0
230
1.0
 70
     8
 71
     3
 72
    22
 73
    18
 74
     0
 42
0.00000001
 43
0.00000001
 40
0.0
 40
0.0
 40
0.0
 40
0.0
 40
0.0515773377536172
 40
0.1565264849943629
 40
0.2100197540385886
 40
0.2615951369298746
 40
0.3664424119934943
 40
0.4198226601719804
 40
0.4724528789006786
 40
0.5794488992297344
 40
0.6339397336480286
 40
0.6872670452602943
 40
0.7409741315029978
 40
0.7958968813361827
 40
0.8512481408256359
 40
0.9034470736265863
 40
1.0
 40
1.0
 40
1.0
 40
1.0
 10
99.2850393413345
 20
136.5115074991665
 30
0.0
 10
99.06822914533203
 20
136.512904120235
 30
0.0
 10
98.41025532641729
 20
136.5171425744912
 30
0.0
 10
97.53516034908635
 20
136.5566748988455
 30
0.0
 10
96.69033485422949
 20
136.6196481456874
 30
0.0
 10
95.87060957062526
 20
136.6976621789425
 30
0.0
 10
95.09481959259686
 20
136.7945453068177
 30
0.0
 10
94.37733113129039
 20
136.9028047187337
 30
0.0
 10
93.69806638411832
 20
137.0165230910382
 30
0.0
 10
93.0897514062094
 20
137.1330232759789
 30
0.0
 10
92.56965946548621
 20
137.242123527396
 30
0.0
 10
92.22576928777009
 20
137.318127425126
 30
0.0
 10
91.93081556004253
 20
137.3861608810476
 30
0.0
 10
91.68504127270137
 20
137.4448739318062
 30
0.0
 10
91.49913896372797
 20
137.4904893117399
 30
0.0
 10
91.32754235800424
 20
137.5334487633004
 30
0.0
 10
91.30741308282796
 20
137.5386097851025
 30
0.0
 10
91.29434742815427
 20
137.5419597382448
 30
0.0
  0
LINE
  5
76
330
1F
100
AcDbEntity
  8
0
  6
Continuous
 62
     7
370
    15
100
AcDbLine
 10
100.9431065098
 20
136.5115074992
 30
0.0
 11
99.2850393413
 21
136.5115074992
 31
0.0
  0
LINE
  5
77
330
1F
100
AcDbEntity
  8
0
  6
Continuous
 62
     7
370
    15
100
AcDbLine
 10
100.9431065098
 20
130.5030016884
 30
0.0
 11
100.9431065098
 21
136.5115074992
 31
0.0
  0
LINE
  5
78
330
1F
100
AcDbEntity
  8
0
  6
Continuous
 62
     7
370
    15
100
AcDbLine
 10
98.530659687
 20
130.5030016884
 30
0.0
 11
100.9431065098
 21
130.5030016884
 31
0.0
  0
SPLINE
  5
79
330
1F
100
AcDbEntity
  8
0
  6
Continuous
 62
     7
370
    15
100
AcDbSpline
210
0.0
220
0.0
230
1.0
 70
     8
 71
     3
 72
    20
 73
    16
 74
     0
 42
0.00000001
 43
0.00000001
 40
0.0
 40
0.0
 40
0.0
 40
0.0
 40
0.2499999999999997
 40
0.2499999999999997
 40
0.3749999999999997
 40
0.3749999999999997
 40
0.4999999999999998
 40
0.4999999999999998
 40
0.6249999999999998
 40
0.6249999999999998
 40
0.7499999999999999
 40
0.7499999999999999
 40
0.8749999999999999
 40
0.8749999999999999
 40
1.0
 40
1.0
 40
1.0
 40
1.0
 10
91.2850393413345
 20
125.8943120260022
 30
0.0
 10
91.53341307562256
 20
126.5481744542996
 30
0.0
 10
91.85298316796782
 20
127.1519602362968
 30
0.0
 10
92.4752894011725
 20
127.9787989724654
 30
0.0
 10
92.70671366160327
 20
128.2412276104183
 30
0.0
 10
93.22792800125299
 20
128.7378902645233
 30
0.0
 10
93.51454848388805
 20
128.9684771435448
 30
0.0
 10
94.13403322519568
 20
129.3850313681274
 30
0.0
 10
94.46833360468263
 20
129.5725291700949
 30
0.0
 10
95.19359407730742
 20
129.9039261477313
 30
0.0
 10
95.57550913469788
 20
130.0434301352266
 30
0.0
 10
96.37029731086957
 20
130.2688836426976
 30
0.0
 10
96.78445550507594
 20
130.3555097542412
 30
0.0
 10
97.65000184565734
 20
130.4734905430953
 30
0.0
 10
98.08788946066915
 20
130.5030016883696
 30
0.0
 10
98.53065968702377
 20
130.5030016883696
 30
0.0
  0
SPLINE
  5
7A
330
1F
100
AcDbEntity
  8
0
  6
Continuous
 62
     7
370
    15
100
AcDbSpline
210
0.0
220
0.0
230
1.0
 70
     8
 71
     3
 72
    70
 73
    66
 74
     0
 42
0.00000001
 43
0.00000001
 40
-0.0312499999999998
 40
-0.0312499999999998
 40
0.0
 40
0.0
 40
0.0312500000000003
 40
0.0312500000000003
 40
0.0625000000000006
 40
0.0625000000000006
 40
0.0937500000000009
 40
0.0937500000000009
 40
0.1250000000000012
 40
0.1250000000000012
 40
0.1562500000000014
 40
0.1562500000000014
 40
0.1875000000000017
 40
0.1875000000000017
 40
0.2187500000000021
 40
0.2187500000000021
 40
0.2500000000000023
 40
0.2500000000000023
 40
0.2812500000000024
 40
0.2812500000000024
 40
0.3125000000000026
 40
0.3125000000000026
 40
0.3437500000000027
 40
0.3437500000000027
 40
0.3750000000000028
 40
0.3750000000000028
 40
0.4062500000000029
 40
0.4062500000000029
 40
0.4375000000000031
 40
0.4375000000000031
 40
0.4687500000000032
 40
0.4687500000000032
 40
0.5000000000000033
 40
0.5000000000000033
 40
0.5312500000000032
 40
0.5312500000000032
 40
0.562500000000003
 40
0.562500000000003
 40
0.5937500000000029
 40
0.5937500000000029
 40
0.6250000000000027
 40
0.6250000000000027
 40
0.6562500000000026
 40
0.6562500000000026
 40
0.6875000000000024
 40
0.6875000000000024
 40
0.7187500000000022
 40
0.7187500000000022
 40
0.7500000000000021
 40
0.7500000000000021
 40
0.7812500000000019
 40
0.7812500000000019
 40
0.8125000000000016
 40
0.8125000000000016
 40
0.8437500000000013
 40
0.8437500000000013
 40
0.875000000000001
 40
0.875000000000001
 40
0.9062500000000008
 40
0.9062500000000008
 40
0.9375000000000006
 40
0.9375000000000006
 40
0.9687500000000002
 40
0.9687500000000002
 40
1.0
 40
1.0
 40
1.03125
 40
1.03125
 10
94.07049400267437
 20
131.1032754207814
 30
0.0
 10
94.59958467999465
 20
131.1032754207814
 30
0.0
 10
94.85965534737176
 20
131.1191758611961
 30
0.0
 10
95.37123002720716
 20
131.1811202113704
 30
0.0
 10
95.62540531094736
 20
131.2279224454618
 30
0.0
 10
96.10967594100907
 20
131.3488994289168
 30
0.0
 10
96.33931703289022
 20
131.4225017567236
 30
0.0
 10
96.77392138112371
 20
131.5943260277018
 30
0.0
 10
96.97948715777032
 20
131.6933294506292
 30
0.0
 10
97.34804429836556
 20
131.906425864542
 30
0.0
 10
97.51352528110105
 20
132.0213255806717
 30
0.0
 10
97.80594979053615
 20
132.266692479362
 30
0.0
 10
97.93005076716264
 20
132.3951323798323
 30
0.0
 10
98.12962996391236
 20
132.6560245279182
 30
0.0
 10
98.20656354977064
 20
132.7904056992577
 30
0.0
 10
98.309420608291
 20
133.059725650364
 30
0.0
 10
98.33489351775013
 20
133.1924069145821
 30
0.0
 10
98.33518392831792
 20
133.4535933887132
 30
0.0
 10
98.30915929454217
 20
133.5833584268779
 30
0.0
 10
98.20701101005017
 20
133.8289410611505
 30
0.0
 10
98.131434562467
 20
133.9456025984594
 30
0.0
 10
97.93093703132207
 20
134.167507788614
 30
0.0
 10
97.8058081898137
 20
134.272119042537
 30
0.0
 10
97.51644938879211
 20
134.462165454145
 30
0.0
 10
97.35103840173664
 20
134.5489251255947
 30
0.0
 10
96.97804784358883
 20
134.7064295013462
 30
0.0
 10
96.77631481049973
 20
134.7747547661335
 30
0.0
 10
96.34345555967185
 20
134.8929844897527
 30
0.0
 10
96.10953702678248
 20
134.9432794058565
 30
0.0
 10
95.62535329163985
 20
135.0231449427462
 30
0.0
 10
95.37603766568435
 20
135.0528860705458
 30
0.0
 10
94.86300514125662
 20
135.093038812054
 30
0.0
 10
94.59771131835198
 20
135.1032370814638
 30
0.0
 10
94.07537669848223
 20
135.1033135398486
 30
0.0
 10
93.8156230360005
 20
135.0935225282395
 30
0.0
 10
93.29901122035527
 20
135.0534556895007
 30
0.0
 10
93.04664517985499
 20
135.0233585226439
 30
0.0
 10
92.56512005832215
 20
134.9441363128137
 30
0.0
 10
92.3322693262086
 20
134.8943788333504
 30
0.0
 10
91.89517947776983
 20
134.7752868909
 30
0.0
 10
91.69385848911266
 20
134.7069716293527
 30
0.0
 10
91.32477246381276
 20
134.5515706624192
 30
0.0
 10
91.15578771276105
 20
134.4634183203522
 30
0.0
 10
90.86533165610184
 20
134.2729789312359
 30
0.0
 10
90.74225984473972
 20
134.1703543535368
 30
0.0
 10
90.5409236033177
 20
133.9487140069287
 30
0.0
 10
90.46371105737546
 20
133.8299599313812
 30
0.0
 10
90.3615075144754
 20
133.5852939924635
 30
0.0
 10
90.33527916302309
 20
133.458137267015
 30
0.0
 10
90.33480276370598
 20
133.1936891211595
 30
0.0
 10
90.36054517620396
 20
133.0607884409023
 30
0.0
 10
90.46185595256782
 20
132.7939961674202
 30
0.0
 10
90.53868859195873
 20
132.6586322659516
 30
0.0
 10
90.73909243117393
 20
132.3960524706491
 30
0.0
 10
90.86176392946597
 20
132.2690773108953
 30
0.0
 10
91.1517112186302
 20
132.0249979248129
 30
0.0
 10
91.32028219799543
 20
131.9075728000591
 30
0.0
 10
91.68855179210858
 20
131.6943763391106
 30
0.0
 10
91.8896136493789
 20
131.5972022206857
 30
0.0
 10
92.32664456796383
 20
131.4238473334716
 30
0.0
 10
92.55879278109344
 20
131.3494477818149
 30
0.0
 10
93.0398030625923
 20
131.2289949023102
 30
0.0
 10
93.29190314542274
 20
131.1821365270442
 30
0.0
 10
93.80897263168174
 20
131.1191790300605
 30
0.0
 10
94.07049400267437
 20
131.1032754207814
 30
0.0
 10
94.59958467999465
 20
131.1032754207814
 30
0.0
  0
LINE
  5
7B
330
1F
100
AcDbEntity
  8
0
  6
Continuous
 62
     7
370
    15
100
AcDbLine
 10
112.2850393413
 20
76.4840346254
 30
0.0
 11
112.2850393413
 21
125.894312026
 31
0.0
  0
SPLINE
  5
7C
330
1F
100
AcDbEntity
  8
0
  6
Continuous
 62
     7
370
    15
100
AcDbSpline
210
0.0
220
0.0
230
1.0
 70
     8
 71
     3
 72
    10
 73
     6
 74
     0
 42
0.00000001
 43
0.00000001
 40
0.0
 40
0.0
 40
0.0
 40
0.0
 40
0.5
 40
0.5
 40
1.0
 40
1.0
 40
1.0
 40
1.0
 10
112.2850393413345
 20
76.48403462540936
 30
0.0
 10
112.2850393413345
 20
76.32414735721571
 30
0.0
 10
112.2237296900987
 20
76.16302010170111
 30
0.0
 10
112.0046300525636
 20
75.92892110334627
 30
0.0
 10
111.8465818462501
 20
75.85739432975505
 30
0.0
 10
111.6850393413345
 20
75.85739432975505
 30
0.0
  0
SPLINE
  5
7D
330
1F
100
AcDbEntity
  8
0
  6
Continuous
 62
     7
370
    15
100
AcDbSpline
210
0.0
220
0.0
230
1.0
 70
    24
 71
     3
 72
    12
 73
     8
 74
     0
 42
0.00000001
 43
0.00000001
 40
0.0
 40
0.0
 40
0.0
 40
0.0
 40
0.2500000000000033
 40
0.2500000000000033
 40
0.5000000000000067
 40
0.5000000000000067
 40
1.0
 40
1.0
 40
1.0
 40
1.0
 10
111.6850393413345
 20
125.8943120260022
 30
0.0
 10
111.7752784090215
 20
125.8943120260022
 30
0.0
 10
111.866176523128
 20
125.8943120260022
 30
0.0
 10
112.0207735596166
 20
125.8943120260022
 30
0.0
 10
112.0857519757247
 20
125.8943120260022
 30
0.0
 10
112.2375870036609
 20
125.8943120260022
 30
0.0
 10
112.2850393413345
 20
125.8943120260022
 30
0.0
 10
112.2850393413345
 20
125.8943120260022
 30
0.0
  0
LINE
  5
7E
330
1F
100
AcDbEntity
  8
0
  6
Continuous
 62
     7
370
    15
100
AcDbLine
 10
107.7269721728
 20
75.8573943298
 30
0.0
 11
107.7269721728
 21
125.894312026
 31
0.0
  0
SPLINE
  5
7F
330
1F
100
AcDbEntity
  8
0
  6
Continuous
 62
     7
370
    15
100
AcDbSpline
210
0.0
220
0.0
230
1.0
 70
     8
 71
     3
 72
     8
 73
     4
 74
     0
 42
0.00000001
 43
0.00000001
 40
0.0
 40
0.0
 40
0.0
 40
0.0
 40
1.0
 40
1.0
 40
1.0
 40
1.0
 10
107.7269721728236
 20
75.85739432975505
 30
0.0
 10
107.2314925121578
 20
76.75292041768842
 30
0.0
 10
106.7373784641157
 20
77.64920483274066
 30
0.0
 10
106.2450393413345
 20
78.54647486694736
 30
0.0
  0
LINE
  5
80
330
1F
100
AcDbEntity
  8
0
  6
Continuous
 62
     7
370
    15
100
AcDbLine
 10
106.2450393413
 20
78.5464748669
 30
0.0
 11
106.2450393413
 21
125.894312026
 31
0.0
  0
SPLINE
  5
81
330
1F
100
AcDbEntity
  8
0
  6
Continuous
 62
     7
370
    15
100
AcDbSpline
210
0.0
220
0.0
230
1.0
 70
    24
 71
     3
 72
     8
 73
     4
 74
     0
 42
0.00000001
 43
0.00000001
 40
0.0
 40
0.0
 40
0.0
 40
0.0
 40
1.0
 40
1.0
 40
1.0
 40
1.0
 10
106.2450393413345
 20
125.8943120260022
 30
0.0
 10
106.7249913356994
 20
125.8943120260022
 30
0.0
 10
107.220292064673
 20
125.8943120260022
 30
0.0
 10
107.7269721728236
 20
125.8943120260022
 30
0.0
  0
LINE
  5
82
330
1F
100
AcDbEntity
  8
0
  6
Continuous
 62
     7
370
    15
100
AcDbLine
 10
111.6850393413
 20
75.8573943298
 30
0.0
 11
107.7269721728
 21
75.8573943298
 31
0.0
  0
LINE
  5
83
330
1F
100
AcDbEntity
  8
0
  6
Continuous
 62
     7
370
    15
100
AcDbLine
 10
107.7269721728
 20
125.894312026
 30
0.0
 11
111.6850393413
 21
125.894312026
 31
0.0
  0
LINE
  5
84
330
1F
100
AcDbEntity
  8
0
  6
Continuous
 62
     7
370
    15
100
AcDbLine
 10
86.3350393413
 20
74.844312026
 30
0.0
 11
86.3350393413
 21
137.2443120206
 31
0.0
  0
LINE
  5
85
330
1F
100
AcDbEntity
  8
0
  6
Continuous
 62
     7
370
    15
100
AcDbLine
 10
102.4250393413
 20
78.5464748669
 30
0.0
 11
102.4250393413
 21
125.894312026
 31
0.0
  0
SPLINE
  5
86
330
1F
100
AcDbEntity
  8
0
  6
Continuous
 62
     7
370
    15
100
AcDbSpline
210
0.0
220
0.0
230
1.0
 70
     8
 71
     3
 72
     8
 73
     4
 74
     0
 42
0.00000001
 43
0.00000001
 40
0.0
 40
0.0
 40
0.0
 40
0.0
 40
1.0
 40
1.0
 40
1.0
 40
1.0
 10
102.4250393413345
 20
78.54647486694735
 30
0.0
 10
101.9327002185533
 20
77.64920483274065
 30
0.0
 10
101.4385861705112
 20
76.75292041768842
 30
0.0
 10
100.9431065098454
 20
75.85739432975505
 30
0.0
  0
SPLINE
  5
87
330
1F
100
AcDbEntity
  8
0
  6
Continuous
 62
     7
370
    15
100
AcDbSpline
210
0.0
220
0.0
230
1.0
 70
    24
 71
     3
 72
     8
 73
     4
 74
     0
 42
0.00000001
 43
0.00000001
 40
0.0
 40
0.0
 40
0.0
 40
0.0
 40
1.0
 40
1.0
 40
1.0
 40
1.0
 10
100.9431065098454
 20
125.8943120260022
 30
0.0
 10
101.449786617996
 20
125.8943120260022
 30
0.0
 10
101.9450873469696
 20
125.8943120260022
 30
0.0
 10
102.4250393413345
 20
125.8943120260022
 30
0.0
  0
ARC
  5
88
330
1F
100
AcDbEntity
  8
0
  6
Continuous
 62
     7
370
    15
100
AcDbCircle
 10
94.3323157571
 20
117.9515302663
 30
0.0
 40
4.113520338565318
100
AcDbArc
 50
19.6206971925
 51
159.0963838037
  0
SPLINE
  5
89
330
1F
100
AcDbEntity
  8
0
  6
Continuous
 62
     7
370
    15
100
AcDbSpline
210
0.0
220
0.0
230
1.0
 70
    24
 71
     3
 72
    14
 73
    10
 74
     0
 42
0.00000001
 43
0.00000001
 40
0.0
 40
0.0
 40
0.0
 40
0.0
 40
0.4999999999999984
 40
0.4999999999999984
 40
0.7499999999999992
 40
0.7499999999999992
 40
0.8749999999999996
 40
0.8749999999999996
 40
1.0
 40
1.0
 40
1.0
 40
1.0
 10
106.1473645390022
 20
79.64431202600223
 30
0.0
 10
106.100579833954
 20
79.64431202600223
 30
0.0
 10
106.0385286371744
 20
79.64431202600223
 30
0.0
 10
105.8951369986238
 20
79.64431202600221
 30
0.0
 10
105.8389933450726
 20
79.64431202600223
 30
0.0
 10
105.7260423229365
 20
79.64431202600223
 30
0.0
 10
105.6830415608983
 20
79.64431202600223
 30
0.0
 10
105.5789788505918
 20
79.64431202600223
 30
0.0
 10
105.5136466122349
 20
79.64431202600223
 30
0.0
 10
105.4450393413345
 20
79.64431202600223
 30
0.0
  0
SPLINE
  5
8A
330
1F
100
AcDbEntity
  8
0
  6
Continuous
 62
     7
370
    15
100
AcDbSpline
210
0.0
220
0.0
230
1.0
 70
    24
 71
     3
 72
    12
 73
     8
 74
     0
 42
0.00000001
 43
0.00000001
 40
0.0
 40
0.0
 40
0.0
 40
0.0
 40
0.5000000000000017
 40
0.5000000000000017
 40
0.7500000000000008
 40
0.7500000000000008
 40
1.0
 40
1.0
 40
1.0
 40
1.0
 10
105.8507418096435
 20
132.4443120260022
 30
0.0
 10
105.8076562600326
 20
132.4443120260022
 30
0.0
 10
105.7585040582833
 20
132.4443120260022
 30
0.0
 10
105.6620314639953
 20
132.4443120260022
 30
0.0
 10
105.6259298788608
 20
132.4443120260022
 30
0.0
 10
105.5428241209995
 20
132.4443120260022
 30
0.0
 10
105.4948275240332
 20
132.4443120260022
 30
0.0
 10
105.4450393413345
 20
132.4443120260022
 30
0.0
  0
SPLINE
  5
8B
330
1F
100
AcDbEntity
  8
0
  6
Continuous
 62
     7
370
    15
100
AcDbSpline
210
0.0
220
0.0
230
1.0
 70
     8
 71
     3
 72
    10
 73
     6
 74
     0
 42
0.00000001
 43
0.00000001
 40
0.0
 40
0.0
 40
0.0
 40
0.0
 40
0.5
 40
0.5
 40
1.0
 40
1.0
 40
1.0
 40
1.0
 10
106.2450393413345
 20
133.163965877038
 30
0.0
 10
106.2450393413345
 20
133.02019581922
 30
0.0
 10
106.2089902826156
 20
132.8777764567248
 30
0.0
 10
106.0734814218416
 20
132.6278821633676
 30
0.0
 10
105.9736054287454
 20
132.5198518271194
 30
0.0
 10
105.8507418096435
 20
132.4443120260022
 30
0.0
  0
SPLINE
  5
8C
330
1F
100
AcDbEntity
  8
0
  6
Continuous
 62
     7
370
    15
100
AcDbSpline
210
0.0
220
0.0
230
1.0
 70
     8
 71
     3
 72
    10
 73
     6
 74
     0
 42
0.00000001
 43
0.00000001
 40
0.0
 40
0.0
 40
0.0
 40
0.0
 40
0.5
 40
0.5
 40
1.0
 40
1.0
 40
1.0
 40
1.0
 10
106.2188917181744
 20
125.8943120260022
 30
0.0
 10
106.227581361086
 20
125.9411908753204
 30
0.0
 10
106.2341204258366
 20
125.9886133407217
 30
0.0
 10
106.2428790602296
 20
126.0845501393085
 30
0.0
 10
106.2450393413345
 20
126.132465427319
 30
0.0
 10
106.2450393413345
 20
126.1801786574636
 30
0.0
  0
SPLINE
  5
8D
330
1F
100
AcDbEntity
  8
0
  6
Continuous
 62
     7
370
    15
100
AcDbSpline
210
0.0
220
0.0
230
1.0
 70
     8
 71
     3
 72
    10
 73
     6
 74
     0
 42
0.00000001
 43
0.00000001
 40
0.0
 40
0.0
 40
0.0
 40
0.0
 40
0.5
 40
0.5
 40
1.0
 40
1.0
 40
1.0
 40
1.0
 10
102.8193368730254
 20
132.4443120260022
 30
0.0
 10
102.6977966093569
 20
132.519038193214
 30
0.0
 10
102.596462249008
 20
132.6279832091308
 30
0.0
 10
102.4608233061196
 20
132.8784136898924
 30
0.0
 10
102.4250393413345
 20
133.0208330519913
 30
0.0
 10
102.4250393413345
 20
133.163965877038
 30
0.0
  0
SPLINE
  5
8E
330
1F
100
AcDbEntity
  8
0
  6
Continuous
 62
     7
370
    15
100
AcDbSpline
210
0.0
220
0.0
230
1.0
 70
    24
 71
     3
 72
    12
 73
     8
 74
     0
 42
0.00000001
 43
0.00000001
 40
0.0
 40
0.0
 40
0.0
 40
0.0
 40
0.2500000000000037
 40
0.2500000000000037
 40
0.5000000000000074
 40
0.5000000000000074
 40
1.0
 40
1.0
 40
1.0
 40
1.0
 10
103.2250393413345
 20
132.4443120260022
 30
0.0
 10
103.175162659017
 20
132.4443120260022
 30
0.0
 10
103.1271594656135
 20
132.4443120260022
 30
0.0
 10
103.0441113629015
 20
132.4443120260022
 30
0.0
 10
103.0079817834336
 20
132.4443120260022
 30
0.0
 10
102.9120697524894
 20
132.4443120260022
 30
0.0
 10
102.8623110845206
 20
132.4443120260022
 30
0.0
 10
102.8193368730254
 20
132.4443120260022
 30
0.0
  0
SPLINE
  5
8F
330
1F
100
AcDbEntity
  8
0
  6
Continuous
 62
     7
370
    15
100
AcDbSpline
210
0.0
220
0.0
230
1.0
 70
    24
 71
     3
 72
    14
 73
    10
 74
     0
 42
0.00000001
 43
0.00000001
 40
0.0
 40
0.0
 40
0.0
 40
0.0
 40
0.1249999999999991
 40
0.1249999999999991
 40
0.2499999999999982
 40
0.2499999999999982
 40
0.4999999999999998
 40
0.4999999999999998
 40
1.0
 40
1.0
 40
1.0
 40
1.0
 10
103.2250393413345
 20
79.64431202600223
 30
0.0
 10
103.1566014934481
 20
79.64431202600223
 30
0.0
 10
103.091051454683
 20
79.64431202600223
 30
0.0
 10
102.986624815275
 20
79.64431202600223
 30
0.0
 10
102.9440802055136
 20
79.64431202600223
 30
0.0
 10
102.8314707449734
 20
79.64431202600221
 30
0.0
 10
102.7759316979539
 20
79.64431202600223
 30
0.0
 10
102.6333200024901
 20
79.64431202600221
 30
0.0
 10
102.5699146474943
 20
79.64431202600221
 30
0.0
 10
102.5227141436668
 20
79.64431202600223
 30
0.0
  0
SPLINE
  5
90
330
1F
100
AcDbEntity
  8
0
  6
Continuous
 62
     7
370
    15
100
AcDbSpline
210
0.0
220
0.0
230
1.0
 70
     8
 71
     3
 72
    10
 73
     6
 74
     0
 42
0.00000001
 43
0.00000001
 40
0.0
 40
0.0
 40
0.0
 40
0.0
 40
0.5
 40
0.5
 40
1.0
 40
1.0
 40
1.0
 40
1.0
 10
102.4250393413345
 20
126.1801786574636
 30
0.0
 10
102.4250393413345
 20
126.1324071494703
 30
0.0
 10
102.4272005849317
 20
126.0846974274086
 30
0.0
 10
102.4358719587918
 20
125.9894023098603
 30
0.0
 10
102.4424011417478
 20
125.9417097458937
 30
0.0
 10
102.4511869644946
 20
125.8943120260022
 30
0.0
  0
LINE
  5
91
330
1F
100
AcDbEntity
  8
0
  6
Continuous
 62
     7
370
    15
100
AcDbLine
 10
105.4450393413
 20
132.444312026
 30
0.0
 11
103.2250393413
 21
132.444312026
 31
0.0
  0
LINE
  5
92
330
1F
100
AcDbEntity
  8
0
  6
Continuous
 62
     7
370
    15
100
AcDbLine
 10
105.4450393413
 20
79.644312026
 30
0.0
 11
103.2250393413
 21
79.644312026
 31
0.0
  0
LINE
  5
93
330
1F
100
AcDbEntity
  8
0
  6
Continuous
 62
     7
370
    15
100
AcDbLine
 10
64.5350393413
 20
82.8158651322
 30
0.0
 11
64.5350393413
 21
84.0805744948
 31
0.0
  0
SPLINE
  5
94
330
1F
100
AcDbEntity
  8
0
  6
Continuous
 62
     7
370
    15
100
AcDbSpline
210
0.0
220
0.0
230
1.0
 70
     8
 71
     3
 72
    14
 73
    10
 74
     0
 42
0.00000001
 43
0.00000001
 40
0.0
 40
0.0
 40
0.0
 40
0.0
 40
0.25
 40
0.25
 40
0.5
 40
0.5
 40
0.75
 40
0.75
 40
1.0
 40
1.0
 40
1.0
 40
1.0
 10
63.75675222341879
 20
85.21116070244227
 30
0.0
 10
63.81337889862086
 20
85.10346324860541
 30
0.0
 10
63.9079015589106
 20
85.00067366688609
 30
0.0
 10
64.09094653447283
 20
84.80231635466593
 30
0.0
 10
64.18257311142756
 20
84.7062568459877
 30
0.0
 10
64.34142642912074
 20
84.51872780327845
 30
0.0
 10
64.40931703674244
 20
84.4273188304949
 30
0.0
 10
64.50623406245003
 20
84.24894260958473
 30
0.0
 10
64.5350393413351
 20
84.16172070333856
 30
0.0
 10
64.53503934133508
 20
84.0805744948043
 30
0.0
  0
SPLINE
  5
95
330
1F
100
AcDbEntity
  8
0
  6
Continuous
 62
     7
370
    15
100
AcDbSpline
210
0.0
220
0.0
230
1.0
 70
     8
 71
     3
 72
    14
 73
    10
 74
     0
 42
0.00000001
 43
0.00000001
 40
0.0
 40
0.0
 40
0.0
 40
0.0
 40
0.1250000000000022
 40
0.1250000000000022
 40
0.2500000000000044
 40
0.2500000000000044
 40
0.5000000000000029
 40
0.5000000000000029
 40
1.0
 40
1.0
 40
1.0
 40
1.0
 10
63.1350393413345
 20
85.65784256472159
 30
0.0
 10
63.18358374999167
 20
85.66359087800188
 30
0.0
 10
63.23649910477658
 20
85.66048998934563
 30
0.0
 10
63.33179444975961
 20
85.6382951451833
 30
0.0
 10
63.37204544704458
 20
85.62106291808745
 30
0.0
 10
63.47631546055754
 20
85.56473500163538
 30
0.0
 10
63.52663743571087
 20
85.5205486556896
 30
0.0
 10
63.65432038323625
 20
85.38954075683897
 30
0.0
 10
63.71040583029852
 20
85.29930623660867
 30
0.0
 10
63.75675222342026
 20
85.2111607024428
 30
0.0
  0
SPLINE
  5
96
330
1F
100
AcDbEntity
  8
0
  6
Continuous
 62
     7
370
    15
100
AcDbSpline
210
0.0
220
0.0
230
1.0
 70
     8
 71
     3
 72
     8
 73
     4
 74
     0
 42
0.00000001
 43
0.00000001
 40
0.0
 40
0.0
 40
0.0
 40
0.0
 40
1.0
 40
1.0
 40
1.0
 40
1.0
 10
60.86651424838829
 20
85.34799727813879
 30
0.0
 10
61.60109127487124
 20
85.46662228920775
 30
0.0
 10
62.36456634426689
 20
85.56660816134404
 30
0.0
 10
63.1350393413345
 20
85.65784256472159
 30
0.0
  0
SPLINE
  5
97
330
1F
100
AcDbEntity
  8
0
  6
Continuous
 62
     7
370
    15
100
AcDbSpline
210
0.0
220
0.0
230
1.0
 70
     8
 71
     3
 72
    14
 73
    10
 74
     0
 42
0.00000001
 43
0.00000001
 40
0.0
 40
0.0
 40
0.0
 40
0.0
 40
0.5000000000000001
 40
0.5000000000000001
 40
0.7499999999999991
 40
0.7499999999999991
 40
0.8749999999999997
 40
0.8749999999999997
 40
1.0
 40
1.0
 40
1.0
 40
1.0
 10
55.58503934133451
 20
85.17437426060714
 30
0.0
 10
56.47718547188808
 20
85.17365203440649
 30
0.0
 10
57.36716190768168
 20
85.17823824086396
 30
0.0
 10
58.69375707475729
 20
85.2059632452555
 30
0.0
 10
59.13460400325603
 20
85.21856978287967
 30
0.0
 10
59.79104424067844
 20
85.24958593088712
 30
0.0
 10
60.00905789727033
 20
85.26192910351389
 30
0.0
 10
60.44176675095309
 20
85.29495315867716
 30
0.0
 10
60.65704321611788
 20
85.3141703238156
 30
0.0
 10
60.86651424838829
 20
85.34799727813879
 30
0.0
  0
SPLINE
  5
98
330
1F
100
AcDbEntity
  8
0
  6
Continuous
 62
     7
370
    15
100
AcDbSpline
210
0.0
220
0.0
230
1.0
 70
     8
 71
     3
 72
     8
 73
     4
 74
     0
 42
0.00000001
 43
0.00000001
 40
0.0000005163856712
 40
0.0000005163856712
 40
0.0000005163856712
 40
0.0000005163856712
 40
0.000026289209185
 40
0.000026289209185
 40
0.000026289209185
 40
0.000026289209185
 10
55.57499441091582
 20
85.18435813371501
 30
0.0
 10
55.5783221491273
 20
85.1810238868422
 30
0.0
 10
55.58167060210658
 20
85.17769592956317
 30
0.0
 10
55.58503934133448
 20
85.17437426060712
 30
0.0
  0
SPLINE
  5
99
330
1F
100
AcDbEntity
  8
0
  6
Continuous
 62
     7
370
    15
100
AcDbSpline
210
0.0
220
0.0
230
1.0
 70
     8
 71
     3
 72
     8
 73
     4
 74
     0
 42
0.00000001
 43
0.00000001
 40
0.0000005099763573
 40
0.0000005099763573
 40
0.0000005099763573
 40
0.0000005099763573
 40
0.0000262827998699
 40
0.0000262827998699
 40
0.0000262827998699
 40
0.0000262827998699
 10
55.58503934133449
 20
126.9142497913973
 30
0.0
 10
55.58167060210675
 20
126.9109281224414
 30
0.0
 10
55.57832214912762
 20
126.9076001651626
 30
0.0
 10
55.57499441091629
 20
126.9042659182899
 30
0.0
  0
SPLINE
  5
9A
330
1F
100
AcDbEntity
  8
0
  6
Continuous
 62
     7
370
    15
100
AcDbSpline
210
0.0
220
0.0
230
1.0
 70
     8
 71
     3
 72
    10
 73
     6
 74
     0
 42
0.00000001
 43
0.00000001
 40
0.0
 40
0.0
 40
0.0
 40
0.0
 40
0.5
 40
0.5
 40
1.0
 40
1.0
 40
1.0
 40
1.0
 10
59.13503934133452
 20
126.86739941783
 30
0.0
 10
58.54745379424392
 20
126.8884649380664
 30
0.0
 10
57.95670740078353
 20
126.8992234239386
 30
0.0
 10
56.77268823548467
 20
126.9125882044743
 30
0.0
 10
56.17927424727921
 20
126.9147308471388
 30
0.0
 10
55.58503934133451
 20
126.9142497913973
 30
0.0
  0
SPLINE
  5
9B
330
1F
100
AcDbEntity
  8
0
  6
Continuous
 62
     7
370
    15
100
AcDbSpline
210
0.0
220
0.0
230
1.0
 70
     8
 71
     3
 72
    18
 73
    14
 74
     0
 42
0.00000001
 43
0.00000001
 40
0.0
 40
0.0
 40
0.0
 40
0.0
 40
0.249999999999999
 40
0.249999999999999
 40
0.499999999999998
 40
0.499999999999998
 40
0.749999999999997
 40
0.749999999999997
 40
0.874999999999998
 40
0.874999999999998
 40
0.937499999999999
 40
0.937499999999999
 40
1.0
 40
1.0
 40
1.0
 40
1.0
 10
60.53503934133452
 20
127.8884196983652
 30
0.0
 10
60.53503934133453
 20
127.805212789508
 30
0.0
 10
60.49919024139624
 20
127.7164761341945
 30
0.0
 10
60.37431850536232
 20
127.5343509436342
 30
0.0
 10
60.28391808771445
 20
127.4392208950076
 30
0.0
 10
60.06167543297228
 20
127.2500393858833
 30
0.0
 10
59.9319106465265
 20
127.1550942177886
 30
0.0
 10
59.691273189215
 20
127.0168155102086
 30
0.0
 10
59.60350589107756
 20
126.9711050769062
 30
0.0
 10
59.44898180387073
 20
126.9132817716848
 30
0.0
 10
59.39237091781599
 20
126.8955670076469
 30
0.0
 10
59.26832688690941
 20
126.871027704414
 30
0.0
 10
59.2006122118911
 20
126.8650485658757
 30
0.0
 10
59.1350393413345
 20
126.86739941783
 30
0.0
  0
LINE
  5
9C
330
1F
100
AcDbEntity
  8
0
  6
Continuous
 62
     7
370
    15
100
AcDbLine
 10
60.5350393413
 20
127.8884196984
 30
0.0
 11
60.5350393413
 21
129.0723581182
 31
0.0
  0
LINE
  5
9D
330
1F
100
AcDbEntity
  8
0
  6
Continuous
 62
     7
370
    15
100
AcDbLine
 10
84.3350393413
 20
81.8238811643
 30
0.0
 11
84.3350393413
 21
130.2647428877
 31
0.0
  0
SPLINE
  5
9E
330
1F
100
AcDbEntity
  8
0
  6
Continuous
 62
     7
370
    15
100
AcDbSpline
210
0.0
220
0.0
230
1.0
 70
     8
 71
     3
 72
    18
 73
    14
 74
     0
 42
0.00000001
 43
0.00000001
 40
0.0
 40
0.0
 40
0.0
 40
0.0
 40
0.0010671296451825
 40
0.1270947795731591
 40
0.2524053457512679
 40
0.3766468878986963
 40
0.4391415999051271
 40
0.5008278021400229
 40
0.5624255708816985
 40
0.6253162439161283
 40
0.7499985144706796
 40
0.8752758950341297
 40
1.0
 40
1.0
 40
1.0
 40
1.0
 10
73.10534018140719
 20
82.38697300308587
 30
0.0
 10
73.10442834876868
 20
82.38685822454923
 30
0.0
 10
72.99582939013187
 20
82.37318813968345
 30
0.0
 10
73.38347045778153
 20
82.42410764029887
 30
0.0
 10
74.24943513961674
 20
82.52369081334541
 30
0.0
 10
75.44983906438651
 20
82.59281469648904
 30
0.0
 10
76.50741497887532
 20
82.59676692562793
 30
0.0
 10
77.33454906578511
 20
82.56927798717258
 30
0.0
 10
78.15982093342036
 20
82.51073781076538
 30
0.0
 10
79.21418615341807
 20
82.39721665102867
 30
0.0
 10
80.3760224348912
 20
82.21406582678101
 30
0.0
 10
81.3282572162745
 20
82.00946261714594
 30
0.0
 10
81.4539622770824
 20
81.98017726636989
 30
0.0
 10
81.51667570922761
 20
81.96556699652919
 30
0.0
  0
SPLINE
  5
9F
330
1F
100
AcDbEntity
  8
0
  6
Continuous
 62
     7
370
    15
100
AcDbSpline
210
0.0
220
0.0
230
1.0
 70
     8
 71
     3
 72
    18
 73
    14
 74
     0
 42
0.00000001
 43
0.00000001
 40
0.0
 40
0.0
 40
0.0
 40
0.0
 40
0.1248907792210118
 40
0.2505384020341681
 40
0.3748721840485256
 40
0.4374907653350248
 40
0.499077626589441
 40
0.5607931536355697
 40
0.6233901338664959
 40
0.7478191038417357
 40
0.8731940995934964
 40
0.9991614644710061
 40
1.0
 40
1.0
 40
1.0
 40
1.0
 10
81.51645694370372
 20
130.1229918749209
 30
0.0
 10
81.45271619099206
 20
130.1083305823228
 30
0.0
 10
81.32484841381556
 20
130.0789191490513
 30
0.0
 10
80.37284919275528
 20
129.8739660449888
 30
0.0
 10
79.21230548755142
 20
129.690702269178
 30
0.0
 10
78.16004103546398
 20
129.5776746769287
 30
0.0
 10
77.33581392039498
 20
129.5194110293876
 30
0.0
 10
76.50821015087504
 20
129.4919646413836
 30
0.0
 10
75.44939295838975
 20
129.4959494473126
 30
0.0
 10
74.24717426035578
 20
129.5650389236939
 30
0.0
 10
73.38199032066844
 20
129.664665140251
 30
0.0
 10
72.99584989913814
 20
129.7154812138504
 30
0.0
 10
73.10392143991857
 20
129.7018090337881
 30
0.0
 10
73.10463608983885
 20
129.7017186230998
 30
0.0
  0
SPLINE
  5
A0
330
1F
100
AcDbEntity
  8
0
  6
Continuous
 62
     7
370
    15
100
AcDbSpline
210
0.0
220
0.0
230
1.0
 70
     8
 71
     3
 72
    10
 73
     6
 74
     0
 42
0.00000001
 43
0.00000001
 40
0.0
 40
0.0
 40
0.0
 40
0.0
 40
0.5
 40
0.5
 40
1.0
 40
1.0
 40
1.0
 40
1.0
 10
54.43503934133384
 20
86.35363427952473
 30
0.0
 10
54.4350393413338
 20
86.32476001466533
 30
0.0
 10
54.4452332510949
 20
86.3072564582868
 30
0.0
 10
54.47198385590305
 20
86.30672489545904
 30
0.0
 10
54.48887130783441
 20
86.32439235263861
 30
0.0
 10
54.49770271605792
 20
86.36975948122146
 30
0.0
  0
LINE
  5
A1
330
1F
100
AcDbEntity
  8
0
  6
Continuous
 62
     7
370
    15
100
AcDbLine
 10
54.4350393413
 20
86.3536342795
 30
0.0
 11
54.4350393413
 21
125.7349897725
 31
0.0
  0
SPLINE
  5
A2
330
1F
100
AcDbEntity
  8
0
  6
Continuous
 62
     7
370
    15
100
AcDbSpline
210
0.0
220
0.0
230
1.0
 70
     8
 71
     3
 72
    10
 73
     6
 74
     0
 42
0.00000001
 43
0.00000001
 40
0.0
 40
0.0
 40
0.0
 40
0.0
 40
0.5
 40
0.5
 40
1.0
 40
1.0
 40
1.0
 40
1.0
 10
54.49770271605792
 20
125.718864570783
 30
0.0
 10
54.48879842694916
 20
125.7646060899961
 30
0.0
 10
54.47228304675618
 20
125.7817969294651
 30
0.0
 10
54.44517510069458
 20
125.7814736525294
 30
0.0
 10
54.43503934133451
 20
125.763596110233
 30
0.0
 10
54.43503934133451
 20
125.7349897724804
 30
0.0
  0
SPLINE
  5
A3
330
1F
100
AcDbEntity
  8
0
  6
Continuous
 62
     7
370
    15
100
AcDbSpline
210
0.0
220
0.0
230
1.0
 70
     8
 71
     3
 72
    26
 73
    22
 74
     0
 42
0.00000001
 43
0.00000001
 40
0.0
 40
0.0
 40
0.0
 40
0.0
 40
0.2499999999999842
 40
0.2499999999999842
 40
0.3749999999999759
 40
0.3749999999999759
 40
0.4374999999999711
 40
0.4374999999999711
 40
0.4687499999999716
 40
0.4687499999999716
 40
0.4999999999999721
 40
0.4999999999999721
 40
0.5312499999999726
 40
0.5312499999999726
 40
0.562499999999973
 40
0.562499999999973
 40
0.624999999999976
 40
0.624999999999976
 40
0.749999999999984
 40
0.749999999999984
 40
1.0
 40
1.0
 40
1.0
 40
1.0
 10
55.25919298743901
 20
126.4344313596001
 30
0.0
 10
55.22059246457055
 20
126.3166566632446
 30
0.0
 10
55.17429546201628
 20
126.1922669770827
 30
0.0
 10
55.08035611358236
 20
125.9870476447292
 30
0.0
 10
55.0450446466689
 20
125.9154747782828
 30
0.0
 10
54.97886467092322
 20
125.7995215456823
 30
0.0
 10
54.95432630425501
 20
125.7589370108721
 30
0.0
 10
54.91095355870118
 20
125.6947953290003
 30
0.0
 10
54.895445157276
 20
125.6729289037153
 30
0.0
 10
54.86040251268896
 20
125.627334635372
 30
0.0
 10
54.84085222196919
 20
125.6036643444046
 30
0.0
 10
54.79892494159861
 20
125.5590477850647
 30
0.0
 10
54.77627283136696
 20
125.5381677725468
 30
0.0
 10
54.73529911728036
 20
125.507294358796
 30
0.0
 10
54.71769981738492
 20
125.4974554889636
 30
0.0
 10
54.67307283152878
 20
125.4784658732674
 30
0.0
 10
54.65251360887544
 20
125.478141548614
 30
0.0
 10
54.60138816937877
 20
125.4873649894902
 30
0.0
 10
54.58047675639022
 20
125.5086118857072
 30
0.0
 10
54.52902684882929
 20
125.5825807645379
 30
0.0
 10
54.51136154952473
 20
125.6486988578527
 30
0.0
 10
54.49770271605792
 20
125.718864570783
 30
0.0
  0
SPLINE
  5
A4
330
1F
100
AcDbEntity
  8
0
  6
Continuous
 62
     7
370
    15
100
AcDbSpline
210
0.0
220
0.0
230
1.0
 70
     8
 71
     3
 72
    10
 73
     6
 74
     0
 42
0.00000001
 43
0.00000001
 40
0.0
 40
0.0
 40
0.0
 40
0.0
 40
0.5
 40
0.5
 40
1.0
 40
1.0
 40
1.0
 40
1.0
 10
55.5749944109163
 20
126.9042659182899
 30
0.0
 10
55.50743515599807
 20
126.8365745254801
 30
0.0
 10
55.44379850066156
 20
126.7618673607265
 30
0.0
 10
55.3335777460897
 20
126.6029012282998
 30
0.0
 10
55.28676145286708
 20
126.5185459622918
 30
0.0
 10
55.25919298743901
 20
126.4344313596001
 30
0.0
  0
SPLINE
  5
A5
330
1F
100
AcDbEntity
  8
0
  6
Continuous
 62
     7
370
    15
100
AcDbSpline
210
0.0
220
0.0
230
1.0
 70
     8
 71
     3
 72
    10
 73
     6
 74
     0
 42
0.00000001
 43
0.00000001
 40
0.0
 40
0.0
 40
0.0
 40
0.0
 40
0.5
 40
0.5
 40
1.0
 40
1.0
 40
1.0
 40
1.0
 10
55.25919298743904
 20
85.65419269240425
 30
0.0
 10
55.28667040219226
 20
85.57035589593866
 30
0.0
 10
55.33337903247993
 20
85.48604540835183
 30
0.0
 10
55.44365749522187
 20
85.32692417786897
 30
0.0
 10
55.50754503383351
 20
85.25193943378089
 30
0.0
 10
55.57499441091585
 20
85.18435813371501
 30
0.0
  0
SPLINE
  5
A6
330
1F
100
AcDbEntity
  8
0
  6
Continuous
 62
     7
370
    15
100
AcDbSpline
210
0.0
220
0.0
230
1.0
 70
     8
 71
     3
 72
    24
 73
    20
 74
     0
 42
0.00000001
 43
0.00000001
 40
0.0
 40
0.0
 40
0.0
 40
0.0
 40
0.2499999999999937
 40
0.2499999999999937
 40
0.3749999999999912
 40
0.3749999999999912
 40
0.4374999999999901
 40
0.4374999999999901
 40
0.4687499999999891
 40
0.4687499999999891
 40
0.4999999999999881
 40
0.4999999999999881
 40
0.5624999999999888
 40
0.5624999999999888
 40
0.6249999999999893
 40
0.6249999999999893
 40
0.749999999999992
 40
0.749999999999992
 40
1.0
 40
1.0
 40
1.0
 40
1.0
 10
54.49770271605792
 20
86.36975948122146
 30
0.0
 10
54.51145583472813
 20
86.44040953921174
 30
0.0
 10
54.529228402134
 20
86.50700765197668
 30
0.0
 10
54.58147949368936
 20
86.58110567220987
 30
0.0
 10
54.60251456927092
 20
86.60236347937143
 30
0.0
 10
54.65541497689935
 20
86.61050940551767
 30
0.0
 10
54.67652064977727
 20
86.60956960212191
 30
0.0
 10
54.72257281845523
 20
86.58855361054455
 30
0.0
 10
54.7409432904386
 20
86.57764480443694
 30
0.0
 10
54.7824949255043
 20
86.54500989348958
 30
0.0
 10
54.80506159826123
 20
86.52351791311821
 30
0.0
 10
54.86784261472128
 20
86.45505196953192
 30
0.0
 10
54.90097237568912
 20
86.40897751132682
 30
0.0
 10
54.95789006217415
 20
86.32396962299214
 30
0.0
 10
54.98207608767794
 20
86.28368932181077
 30
0.0
 10
55.04728403805768
 20
86.16875309534483
 30
0.0
 10
55.08200009824894
 20
86.09817011019781
 30
0.0
 10
55.17521536857982
 20
85.89396435111921
 30
0.0
 10
55.2208879039405
 20
85.77106596879183
 30
0.0
 10
55.25919298743904
 20
85.65419269240427
 30
0.0
  0
LINE
  5
A7
330
1F
100
AcDbEntity
  8
0
  6
Continuous
 62
     7
370
    15
100
AcDbLine
 10
111.6850393413
 20
136.5115074992
 30
0.0
 11
107.7269721728
 21
136.5115074992
 31
0.0
  0
LINE
  5
A8
330
1F
100
AcDbEntity
  8
0
  6
Continuous
 62
     7
370
    15
100
AcDbLine
 10
107.7269721728
 20
130.5030016884
 30
0.0
 11
111.6850393413
 21
130.5030016884
 31
0.0
  0
LINE
  5
A9
330
1F
100
AcDbEntity
  8
0
  6
Continuous
 62
     7
370
    15
100
AcDbLine
 10
107.7269721728
 20
130.5030016884
 30
0.0
 11
107.7269721728
 21
136.5115074992
 31
0.0
  0
SPLINE
  5
AA
330
1F
100
AcDbEntity
  8
0
  6
Continuous
 62
     7
370
    15
100
AcDbSpline
210
0.0
220
0.0
230
1.0
 70
     8
 71
     3
 72
     8
 73
     4
 74
     0
 42
0.00000001
 43
0.00000001
 40
0.0
 40
0.0
 40
0.0
 40
0.0
 40
1.0
 40
1.0
 40
1.0
 40
1.0
 10
102.4250393413345
 20
133.8495462171738
 30
0.0
 10
101.9323292444888
 20
134.7375652153002
 30
0.0
 10
101.4382465392098
 20
135.6248278509862
 30
0.0
 10
100.9431065098454
 20
136.5115074991665
 30
0.0
  0
LINE
  5
AB
330
1F
100
AcDbEntity
  8
0
  6
Continuous
 62
     7
370
    15
100
AcDbLine
 10
102.4250393413
 20
127.0944556936
 30
0.0
 11
102.4250393413
 21
133.8495462172
 31
0.0
  0
SPLINE
  5
AC
330
1F
100
AcDbEntity
  8
0
  6
Continuous
 62
     7
370
    15
100
AcDbSpline
210
0.0
220
0.0
230
1.0
 70
     8
 71
     3
 72
     8
 73
     4
 74
     0
 42
0.00000001
 43
0.00000001
 40
0.0
 40
0.0
 40
0.0
 40
0.0
 40
1.0
 40
1.0
 40
1.0
 40
1.0
 10
100.9431065098454
 20
130.5030016883696
 30
0.0
 10
101.4501933516047
 20
129.371851334206
 30
0.0
 10
101.9457611907447
 20
128.2354669234381
 30
0.0
 10
102.4250393413345
 20
127.0944556935855
 30
0.0
  0
SPLINE
  5
AD
330
1F
100
AcDbEntity
  8
0
  6
Continuous
 62
     7
370
    15
100
AcDbSpline
210
0.0
220
0.0
230
1.0
 70
     8
 71
     3
 72
     8
 73
     4
 74
     0
 42
0.00000001
 43
0.00000001
 40
0.0
 40
0.0
 40
0.0
 40
0.0
 40
1.0
 40
1.0
 40
1.0
 40
1.0
 10
107.7269721728236
 20
136.5115074991665
 30
0.0
 10
107.2318321434592
 20
135.6248278509862
 30
0.0
 10
106.7377494381803
 20
134.7375652153002
 30
0.0
 10
106.2450393413345
 20
133.8495462171738
 30
0.0
  0
SPLINE
  5
AE
330
1F
100
AcDbEntity
  8
0
  6
Continuous
 62
     7
370
    15
100
AcDbSpline
210
0.0
220
0.0
230
1.0
 70
     8
 71
     3
 72
     8
 73
     4
 74
     0
 42
0.00000001
 43
0.00000001
 40
0.0
 40
0.0
 40
0.0
 40
0.0
 40
1.0
 40
1.0
 40
1.0
 40
1.0
 10
106.2450393413345
 20
127.0944556935855
 30
0.0
 10
106.7243174919244
 20
128.2354669234381
 30
0.0
 10
107.2198853310643
 20
129.371851334206
 30
0.0
 10
107.7269721728236
 20
130.5030016883696
 30
0.0
  0
LINE
  5
AF
330
1F
100
AcDbEntity
  8
0
  6
Continuous
 62
     7
370
    15
100
AcDbLine
 10
106.2450393413
 20
127.0944556936
 30
0.0
 11
106.2450393413
 21
133.8495462172
 31
0.0
  0
SPLINE
  5
B0
330
1F
100
AcDbEntity
  8
0
  6
Continuous
 62
     7
370
    15
100
AcDbSpline
210
0.0
220
0.0
230
1.0
 70
     8
 71
     3
 72
    10
 73
     6
 74
     0
 42
0.00000001
 43
0.00000001
 40
0.0
 40
0.0
 40
0.0
 40
0.0
 40
0.5
 40
0.5
 40
1.0
 40
1.0
 40
1.0
 40
1.0
 10
112.2850393413345
 20
135.8907523497661
 30
0.0
 10
112.2850393413345
 20
136.0511576161169
 30
0.0
 10
112.2228015102277
 20
136.2102194291055
 30
0.0
 10
112.0036665864851
 20
136.4411318947358
 30
0.0
 10
111.8460778914932
 20
136.5115074991665
 30
0.0
 10
111.6850393413345
 20
136.5115074991665
 30
0.0
  0
SPLINE
  5
B1
330
1F
100
AcDbEntity
  8
0
  6
Continuous
 62
     7
370
    15
100
AcDbSpline
210
0.0
220
0.0
230
1.0
 70
     8
 71
     3
 72
    12
 73
     8
 74
     0
 42
0.00000001
 43
0.00000001
 40
0.0
 40
0.0
 40
0.0
 40
0.0
 40
0.25
 40
0.25
 40
0.5
 40
0.5
 40
1.0
 40
1.0
 40
1.0
 40
1.0
 10
111.6850393413345
 20
130.5030016883697
 30
0.0
 10
111.7762390631602
 20
130.5030016883697
 30
0.0
 10
111.8668340722962
 20
130.4747819897818
 30
0.0
 10
112.0202467987428
 20
130.3803389825337
 30
0.0
 10
112.0854556660665
 20
130.3140520058284
 30
0.0
 10
112.2382401954064
 20
130.08842718254
 30
0.0
 10
112.2850393413345
 20
129.9060009195075
 30
0.0
 10
112.2850393413345
 20
129.7252642872606
 30
0.0
  0
LINE
  5
B2
330
1F
100
AcDbEntity
  8
0
  6
Continuous
 62
     7
370
    15
100
AcDbLine
 10
112.2850393413
 20
129.7252642873
 30
0.0
 11
112.2850393413
 21
135.8907523498
 31
0.0
  0
LINE
  5
B3
330
1F
100
AcDbEntity
  8
0
  6
Continuous
 62
     7
370
    15
100
AcDbLine
 10
102.4250393413
 20
127.0944556936
 30
0.0
 11
102.4250393413
 21
126.1801786575
 31
0.0
  0
LINE
  5
B4
330
1F
100
AcDbEntity
  8
0
  6
Continuous
 62
     7
370
    15
100
AcDbLine
 10
106.2450393413
 20
126.1801786575
 30
0.0
 11
106.2450393413
 21
127.0944556936
 31
0.0
  0
LINE
  5
B5
330
1F
100
AcDbEntity
  8
0
  6
Continuous
 62
     7
370
    15
100
AcDbLine
 10
112.2850393413
 20
129.7252642873
 30
0.0
 11
112.2850393413
 21
125.894312026
 31
0.0
  0
ARC
  5
B6
330
1F
100
AcDbEntity
  8
0
  6
Continuous
 62
     7
370
    15
100
AcDbCircle
 10
94.3349925713
 20
124.8131338761
 30
0.0
 40
7.189493853403827
100
AcDbArc
 50
70.6167057305
 51
109.3684161953
  0
LINE
  5
B7
330
1F
100
AcDbEntity
  8
0
  6
Continuous
 62
     7
370
    15
100
AcDbLine
 10
208.2164251328
 20
92.544312026
 30
0.0
 11
208.2164251328
 21
119.544312026
 31
0.0
  0
LINE
  5
B8
330
1F
100
AcDbEntity
  8
0
  6
Continuous
 62
     7
370
    15
100
AcDbLine
 10
155.9666228092
 20
119.3653160289
 30
0.0
 11
156.0634707255
 21
119.3540061141
 31
0.0
  0
SPLINE
  5
B9
330
1F
100
AcDbEntity
  8
0
  6
Continuous
 62
     7
370
    15
100
AcDbSpline
210
0.0
220
0.0
230
1.0
 70
     8
 71
     3
 72
    37
 73
    33
 74
     0
 42
0.00000001
 43
0.00000001
 40
0.0
 40
0.0
 40
0.0
 40
0.0
 40
0.0283338167071062
 40
0.0502853489433215
 40
0.089499457888373
 40
0.1297051816834822
 40
0.1719939982007483
 40
0.2151987573400787
 40
0.2644164845967595
 40
0.3146883836563028
 40
0.3433350348637309
 40
0.3721512856707166
 40
0.4014828741227756
 40
0.4309857190054915
 40
0.4625252838994097
 40
0.4942722604078309
 40
0.5266698551552113
 40
0.5592915698658205
 40
0.5917172085360488
 40
0.6243722938339779
 40
0.6577694010595374
 40
0.6914330158673828
 40
0.7229911821715223
 40
0.754802660174454
 40
0.7874880952258981
 40
0.8205144635423445
 40
0.8428913523303134
 40
0.8883300208648102
 40
0.9114696732489393
 40
0.9338529724603353
 40
0.979562272053515
 40
0.9999999999999999
 40
0.9999999999999999
 40
0.9999999999999999
 40
0.9999999999999999
 10
161.7762246132364
 20
119.5427374472737
 30
0.0
 10
161.7767579312089
 20
119.542830344885
 30
0.0
 10
161.7777044355441
 20
119.5429952146183
 30
0.0
 10
161.723931389074
 20
119.5334312089705
 30
0.0
 10
161.6273395058556
 20
119.5165032061334
 30
0.0
 10
161.4492963215409
 20
119.4864542724779
 30
0.0
 10
161.2109882532904
 20
119.4485366201096
 30
0.0
 10
160.9043098842077
 20
119.4036421773748
 30
0.0
 10
160.5317510299446
 20
119.3552074555836
 30
0.0
 10
160.1611957993839
 20
119.314714873136
 30
0.0
 10
159.8318909466166
 20
119.2848899532325
 30
0.0
 10
159.5577277811143
 20
119.2639171096156
 30
0.0
 10
159.2736022888474
 20
119.246408652538
 30
0.0
 10
158.9748519158961
 20
119.2326510621365
 30
0.0
 10
158.6637936163864
 20
119.2234807406882
 30
0.0
 10
158.3405430817823
 20
119.2196036053915
 30
0.0
 10
158.0132426534028
 20
119.2215198498114
 30
0.0
 10
157.6855063618405
 20
119.2293484960553
 30
0.0
 10
157.3610593563402
 20
119.242867748246
 30
0.0
 10
157.0405394538154
 20
119.2617848676099
 30
0.0
 10
156.7251172295579
 20
119.285759491201
 30
0.0
 10
156.4249392159518
 20
119.3135052759584
 30
0.0
 10
156.1435676606225
 20
119.3437274104989
 30
0.0
 10
155.8810762219064
 20
119.3754841279384
 30
0.0
 10
155.6341859749716
 20
119.4084832679446
 30
0.0
 10
155.4323683988894
 20
119.4377972565408
 30
0.0
 10
155.2254368185252
 20
119.4695804842127
 30
0.0
 10
155.0677780896816
 20
119.4953526593966
 30
0.0
 10
154.9457530160038
 20
119.5160865592125
 30
0.0
 10
154.8495140380225
 20
119.5327963054669
 30
0.0
 10
154.7918057432431
 20
119.5431018664385
 30
0.0
 10
154.7876266715727
 20
119.5438493904156
 30
0.0
 10
154.7863354460552
 20
119.5440803560727
 30
0.0
  0
SPLINE
  5
BA
330
1F
100
AcDbEntity
  8
0
  6
Continuous
 62
     7
370
    15
100
AcDbSpline
210
0.0
220
0.0
230
1.0
 70
     8
 71
     3
 72
    58
 73
    54
 74
     0
 42
0.00000001
 43
0.00000001
 40
-0.031249999999999
 40
-0.031249999999999
 40
0.0
 40
0.0
 40
0.0625000000000021
 40
0.0625000000000021
 40
0.1250000000000041
 40
0.1250000000000041
 40
0.1875000000000062
 40
0.1875000000000062
 40
0.2500000000000083
 40
0.2500000000000083
 40
0.2812500000000085
 40
0.2812500000000085
 40
0.3125000000000088
 40
0.3125000000000088
 40
0.343750000000009
 40
0.343750000000009
 40
0.3750000000000093
 40
0.3750000000000093
 40
0.4062500000000095
 40
0.4062500000000095
 40
0.4375000000000098
 40
0.4375000000000098
 40
0.46875000000001
 40
0.46875000000001
 40
0.5000000000000103
 40
0.5000000000000103
 40
0.5625000000000108
 40
0.5625000000000108
 40
0.59375000000001
 40
0.59375000000001
 40
0.6250000000000092
 40
0.6250000000000092
 40
0.6562500000000085
 40
0.6562500000000085
 40
0.6875000000000078
 40
0.6875000000000078
 40
0.7500000000000062
 40
0.7500000000000062
 40
0.7812500000000056
 40
0.7812500000000056
 40
0.8125000000000048
 40
0.8125000000000048
 40
0.843750000000004
 40
0.843750000000004
 40
0.8750000000000033
 40
0.8750000000000033
 40
0.9062500000000026
 40
0.9062500000000026
 40
0.9375000000000018
 40
0.9375000000000018
 40
0.968750000000001
 40
0.968750000000001
 40
1.0
 40
1.0
 40
1.062500000000002
 40
1.062500000000002
 10
155.7969044962603
 20
108.1084638399027
 30
0.0
 10
156.3060594383295
 20
108.4892626290123
 30
0.0
 10
156.6815966249592
 20
108.6758226847427
 30
0.0
 10
157.4913526447483
 20
108.9282691752167
 30
0.0
 10
157.9086958795497
 20
108.9881605698401
 30
0.0
 10
158.7576452515284
 20
108.9781316367792
 30
0.0
 10
159.1710083549867
 20
108.9089747463452
 30
0.0
 10
159.9748270083926
 20
108.6370732533327
 30
0.0
 10
160.3440998493516
 20
108.4418421939569
 30
0.0
 10
160.8409691737899
 20
108.0492781927127
 30
0.0
 10
160.9940956823964
 20
107.9031283120783
 30
0.0
 10
161.2659532298827
 20
107.5845752006398
 30
0.0
 10
161.3872051199454
 20
107.4087310007526
 30
0.0
 10
161.584521636268
 20
107.036285741915
 30
0.0
 10
161.6604092121692
 20
106.8415088165308
 30
0.0
 10
161.7626309637645
 20
106.4332385176856
 30
0.0
 10
161.7879127988309
 20
106.2185654508377
 30
0.0
 10
161.781626628238
 20
105.7978794199039
 30
0.0
 10
161.7503523725549
 20
105.5855221571913
 30
0.0
 10
161.6356579082604
 20
105.177635544521
 30
0.0
 10
161.5535850044154
 20
104.9834731626381
 30
0.0
 10
161.3437993822048
 20
104.6130965532993
 30
0.0
 10
161.2194942032818
 20
104.4429117157867
 30
0.0
 10
160.9378633857213
 20
104.1293512542562
 30
0.0
 10
160.7797095783906
 20
103.9858622649271
 30
0.0
 10
160.275955819134
 20
103.6067194862594
 30
0.0
 10
159.8913923356874
 20
103.4144770815684
 30
0.0
 10
159.2894413668481
 20
103.2256717256789
 30
0.0
 10
159.0819344557952
 20
103.1783972978637
 30
0.0
 10
158.6621949454677
 20
103.1171205709939
 30
0.0
 10
158.4521148556837
 20
103.1031927279342
 30
0.0
 10
158.0315470635087
 20
103.1076528080029
 30
0.0
 10
157.8199378890006
 20
103.1262363687585
 30
0.0
 10
157.4012628210755
 20
103.1967636718916
 30
0.0
 10
157.1973840420855
 20
103.2479756631933
 30
0.0
 10
156.6018867296759
 20
103.4491007444816
 30
0.0
 10
156.2207875952905
 20
103.650669546797
 30
0.0
 10
155.7300941085813
 20
104.0386753680635
 30
0.0
 10
155.5784406464707
 20
104.1827149582848
 30
0.0
 10
155.302867123816
 20
104.5054247452782
 30
0.0
 10
155.1829341682566
 20
104.6798182178083
 30
0.0
 10
154.9857209938445
 20
105.0519893330546
 30
0.0
 10
154.9075425532909
 20
105.2533163767291
 30
0.0
 10
154.806335245388
 20
105.6621966039446
 30
0.0
 10
154.7817104493658
 20
105.8718018100125
 30
0.0
 10
154.7890844254464
 20
106.3000037664428
 30
0.0
 10
154.8208243221304
 20
106.5088085812938
 30
0.0
 10
154.9365147036727
 20
106.9165826595452
 30
0.0
 10
155.0209199720768
 20
107.1142163019086
 30
0.0
 10
155.2300006904938
 20
107.4807969699121
 30
0.0
 10
155.3569238610377
 20
107.6538102590184
 30
0.0
 10
155.63990234786
 20
107.9667385727479
 30
0.0
 10
155.7969044962603
 20
108.1084638399027
 30
0.0
 10
156.3060594383295
 20
108.4892626290123
 30
0.0
  0
LINE
  5
BB
330
1F
100
AcDbEntity
  8
0
  6
Continuous
 62
     7
370
    15
100
AcDbLine
 10
155.9666228095
 20
92.7233080231
 30
0.0
 11
155.8398801987
 21
92.7070648495
 31
0.0
  0
SPLINE
  5
BC
330
1F
100
AcDbEntity
  8
0
  6
Continuous
 62
     7
370
    15
100
AcDbSpline
210
0.0
220
0.0
230
1.0
 70
     8
 71
     3
 72
    39
 73
    35
 74
     0
 42
0.00000001
 43
0.00000001
 40
0.0
 40
0.0
 40
0.0
 40
0.0
 40
0.0040478926103284
 40
0.0262940502056302
 40
0.0656291024318481
 40
0.106035434374763
 40
0.1469126567679611
 40
0.1887023289924827
 40
0.2355906689664408
 40
0.2834723721612979
 40
0.3109454208247568
 40
0.3385763882266055
 40
0.3666815550613529
 40
0.3949420993054414
 40
0.4258370158140874
 40
0.4569294196125886
 40
0.488636561153675
 40
0.5205536092108807
 40
0.5528932467913314
 40
0.585456939370138
 40
0.6187367398892993
 40
0.6522694804687171
 40
0.6843140911365259
 40
0.7166036656324519
 40
0.7497203297924722
 40
0.7831514774026777
 40
0.8070068276661101
 40
0.8310037554383912
 40
0.8554823993299047
 40
0.880145928359991
 40
0.9040088500470066
 40
0.9527909831513657
 40
0.9778292982351803
 40
1.0
 40
1.0
 40
1.0
 40
1.0
 10
154.7884318689121
 20
92.5449167320533
 30
0.0
 10
154.787279686346
 20
92.54471140695489
 30
0.0
 10
154.7797954101672
 20
92.5433776688927
 30
0.0
 10
154.8043934866984
 20
92.54777219476395
 30
0.0
 10
154.8645809375055
 20
92.5584813993719
 30
0.0
 10
155.0080438125021
 20
92.58332095047803
 30
0.0
 10
155.2101209496647
 20
92.6166838105934
 30
0.0
 10
155.4766065182017
 20
92.65782173971883
 30
0.0
 10
155.8070877280593
 20
92.7041549285338
 30
0.0
 10
156.1409250928342
 20
92.74490178256042
 30
0.0
 10
156.4416329475852
 20
92.77657359588143
 30
0.0
 10
156.694612391869
 20
92.8000016359214
 30
0.0
 10
156.9585269423392
 20
92.82086576044665
 30
0.0
 10
157.2400244523457
 20
92.83909231563825
 30
0.0
 10
157.5373986261037
 20
92.85372570010153
 30
0.0
 10
157.8508743273416
 20
92.86389385595922
 30
0.0
 10
158.1705938850845
 20
92.86872995712888
 30
0.0
 10
158.4952837399702
 20
92.86789539558433
 30
0.0
 10
158.821468580772
 20
92.86123562376297
 30
0.0
 10
159.1485318687723
 20
92.84873289087453
 30
0.0
 10
159.4733948499118
 20
92.83057715984083
 30
0.0
 10
159.7878383729076
 20
92.8075620141207
 30
0.0
 10
160.0881084023449
 20
92.78072414780752
 30
0.0
 10
160.3738592282447
 20
92.75089393557121
 30
0.0
 10
160.6472113377168
 20
92.71846572983648
 30
0.0
 10
160.8789940551971
 20
92.68789170610589
 30
0.0
 10
161.070593592643
 20
92.66068195636208
 30
0.0
 10
161.227153312922
 20
92.6372279264818
 30
0.0
 10
161.3695404094159
 20
92.61488634606732
 30
0.0
 10
161.4936186058186
 20
92.59463980863647
 30
0.0
 10
161.6334392659535
 20
92.57108187631093
 30
0.0
 10
161.7282851831953
 20
92.55443215798837
 30
0.0
 10
161.7813401663805
 20
92.5449761723845
 30
0.0
 10
161.7777077307759
 20
92.54562324303973
 30
0.0
 10
161.776001835338
 20
92.5459271258883
 30
0.0
  0
LINE
  5
BD
330
1F
100
AcDbEntity
  8
0
  6
Continuous
 62
     7
370
    15
100
AcDbLine
 10
156.1424651824
 20
92.7436684651
 30
0.0
 11
155.9666228095
 21
92.7233080231
 31
0.0
  0
CIRCLE
  5
BE
330
1F
100
AcDbEntity
  8
0
  6
Continuous
 62
     7
370
    15
100
AcDbCircle
 10
158.2850393413
 20
106.044312026
 30
0.0
 40
2.5
  0
LINE
  5
BF
330
1F
100
AcDbEntity
  8
0
  6
Continuous
 62
     7
370
    15
100
AcDbLine
 10
246.3350393413
 20
97.3930930093
 30
0.0
 11
246.3350393413
 21
114.6955310224
 31
0.0
  0
LINE
  5
C0
330
1F
100
AcDbEntity
  8
0
  6
Continuous
 62
     7
370
    15
100
AcDbLine
 10
246.3534718248
 20
114.2640287275
 30
0.0
 11
246.3350393413
 21
113.794890695
 31
0.0
  0
LINE
  5
C1
330
1F
100
AcDbEntity
  8
0
  6
Continuous
 62
     7
370
    15
100
AcDbLine
 10
246.3644842032
 20
99.0454689178
 30
0.0
 11
246.4123615485
 21
97.8269091081
 31
0.0
  0
LINE
  5
C2
330
1F
100
AcDbEntity
  8
0
  6
Continuous
 62
     7
370
    15
100
AcDbLine
 10
246.3350393413
 20
99.794890695
 30
0.0
 11
246.3644842032
 21
99.0454689178
 31
0.0
  0
LINE
  5
C3
330
1F
100
AcDbEntity
  8
0
  6
HIDDEN
 62
     7
370
     0
100
AcDbLine
 10
100.9431065098
 20
130.5030016884
 30
0.0
 11
100.9431065098
 21
125.894312026
 31
0.0
  0
ARC
  5
C4
330
1F
100
AcDbEntity
  8
0
  6
HIDDEN
 62
     7
370
     0
100
AcDbCircle
 10
94.6160118131
 20
118.540766973
 30
0.0
 40
3.677290312353009
100
AcDbArc
 50
265.6179031648
 51
12.4383822962
  0
ARC
  5
C5
330
1F
100
AcDbEntity
  8
0
  6
HIDDEN
 62
     7
370
     0
100
AcDbCircle
 10
94.050949785
 20
118.5331874646
 30
0.0
 40
3.669972981963966
100
AcDbArc
 50
166.0291606888
 51
274.4396600647
  0
LINE
  5
C6
330
1F
100
AcDbEntity
  8
0
  6
HIDDEN
 62
     7
370
     0
100
AcDbLine
 10
74.3301895459
 20
82.5197124032
 30
0.0
 11
73.7960441168
 21
82.4650978037
 31
0.0
  0
LINE
  5
C7
330
1F
100
AcDbEntity
  8
0
  6
HIDDEN
 62
     7
370
     0
100
AcDbLine
 10
73.5583904447
 20
129.6476452065
 30
0.0
 11
74.3300968256
 21
129.568895056
 31
0.0
  0
SPLINE
  5
C8
330
1F
100
AcDbEntity
  8
0
  6
HIDDEN
 62
     7
370
     0
100
AcDbSpline
210
0.0
220
0.0
230
1.0
 70
     8
 71
     3
 72
    16
 73
    12
 74
     0
 42
0.00000001
 43
0.00000001
 40
0.0
 40
0.0
 40
0.0
 40
0.0
 40
0.1100509126464168
 40
0.220875868864719
 40
0.3341283537218718
 40
0.4482152372178306
 40
0.5582891088458428
 40
0.6699199158154304
 40
0.78234013270534
 40
0.8963808666271851
 40
1.0
 40
1.0
 40
1.0
 40
1.0
 10
80.0900413429361
 20
125.8818405018187
 30
0.0
 10
80.15763516892527
 20
125.8909087531534
 30
0.0
 10
80.29329824237215
 20
125.909109037408
 30
0.0
 10
80.4737461133371
 20
125.9298301347579
 30
0.0
 10
80.63588535782897
 20
125.9465696563954
 30
0.0
 10
80.77397210536917
 20
125.9591523798347
 30
0.0
 10
80.88749919677693
 20
125.9684281959248
 30
0.0
 10
80.97622831948836
 20
125.9749844099836
 30
0.0
 10
81.03986525476863
 20
125.979315642282
 30
0.0
 10
81.07847596626114
 20
125.9817856091986
 30
0.0
 10
81.08240921729771
 20
125.982030246648
 30
0.0
 10
81.08428168036963
 20
125.9821467087263
 30
0.0
  0
SPLINE
  5
C9
330
1F
100
AcDbEntity
  8
0
  6
HIDDEN
 62
     7
370
     0
100
AcDbSpline
210
0.0
220
0.0
230
1.0
 70
     8
 71
     3
 72
    16
 73
    12
 74
     0
 42
0.00000001
 43
0.00000001
 40
0.0
 40
0.0
 40
0.0
 40
0.0
 40
0.0070280205264527
 40
0.1183809169017418
 40
0.232148056138998
 40
0.3467499938246769
 40
0.4574787960971301
 40
0.5689801258918054
 40
0.6829257677816843
 40
0.797721110899137
 40
0.9999999999999999
 40
0.9999999999999999
 40
0.9999999999999999
 40
0.9999999999999999
 10
81.08427927777619
 20
86.10647749505566
 30
0.0
 10
81.08453118505338
 20
86.10646158695066
 30
0.0
 10
81.0887743448927
 20
86.10619362870459
 30
0.0
 10
81.07285498851857
 20
86.10719033211535
 30
0.0
 10
81.03383676500523
 20
86.1097076355415
 30
0.0
 10
80.96539337896641
 20
86.11440247413391
 30
0.0
 10
80.87260973158675
 20
86.12136237201148
 30
0.0
 10
80.75543716116297
 20
86.13105417219055
 30
0.0
 10
80.61214504144199
 20
86.1444454168012
 30
0.0
 10
80.4030802643954
 20
86.16597240142177
 30
0.0
 10
80.21196448670634
 20
86.19088832688577
 30
0.0
 10
80.0900413429361
 20
86.20678355018575
 30
0.0
  0
SPLINE
  5
CA
330
1F
100
AcDbEntity
  8
0
  6
HIDDEN
 62
     7
370
     0
100
AcDbSpline
210
0.0
220
0.0
230
1.0
 70
     8
 71
     3
 72
    32
 73
    28
 74
     0
 42
0.00000001
 43
0.00000001
 40
0.0
 40
0.0
 40
0.0
 40
0.0
 40
0.0346239305784003
 40
0.0694856633630166
 40
0.1050986804323536
 40
0.1409725967297708
 40
0.1755970960170308
 40
0.2104650744677736
 40
0.2461074135539813
 40
0.2820202239560262
 40
0.3509369157952861
 40
0.3859282994925113
 40
0.4214399215599407
 40
0.489717036405698
 40
0.5243644040068604
 40
0.5595048416018171
 40
0.6284941694825993
 40
0.6634978652371093
 40
0.6989967201838478
 40
0.7337528558990941
 40
0.7687504662678829
 40
0.804513685769049
 40
0.8405437629960127
 40
0.910216981903595
 40
0.9455973632566557
 40
0.9815114656514446
 40
1.0
 40
1.0
 40
1.0
 40
1.0
 10
80.0900413429361
 20
86.20678355018575
 30
0.0
 10
80.01804303816876
 20
86.21657149292449
 30
0.0
 10
79.87355193377365
 20
86.23621460342054
 30
0.0
 10
79.63223204402938
 20
86.26566382462691
 30
0.0
 10
79.37293361969782
 20
86.29421419665225
 30
0.0
 10
79.0989468481307
 20
86.32064545320709
 30
0.0
 10
78.8143167226976
 20
86.34409779443324
 30
0.0
 10
78.51974057104253
 20
86.3640957622769
 30
0.0
 10
78.21277594033363
 20
86.3802494827721
 30
0.0
 10
77.79903367233896
 20
86.39545151366134
 30
0.0
 10
77.37817385910262
 20
86.4009072831356
 30
0.0
 10
76.96019308590245
 20
86.39628801909143
 30
0.0
 10
76.54773989694488
 20
86.38511430519061
 30
0.0
 10
76.14541722451504
 20
86.36467960898945
 30
0.0
 10
75.76284614693229
 20
86.33688941048676
 30
0.0
 10
75.39307355276583
 20
86.30472823222175
 30
0.0
 10
75.04770532766912
 20
86.26742079470712
 30
0.0
 10
74.73496764746955
 20
86.22813551155421
 30
0.0
 10
74.51723953555621
 20
86.1983209893768
 30
0.0
 10
74.31934977161785
 20
86.16918737360024
 30
0.0
 10
74.14202462637904
 20
86.14145382788988
 30
0.0
 10
73.98538302192371
 20
86.11566827887471
 30
0.0
 10
73.81052907441543
 20
86.08563882963317
 30
0.0
 10
73.6838832115547
 20
86.06267605807541
 30
0.0
 10
73.61426602347177
 20
86.04978697975629
 30
0.0
 10
73.58236681322741
 20
86.04381368303471
 30
0.0
 10
73.59184177117466
 20
86.04558441367257
 30
0.0
 10
73.59506180049576
 20
86.04618618991321
 30
0.0
  0
SPLINE
  5
CB
330
1F
100
AcDbEntity
  8
0
  6
HIDDEN
 62
     7
370
     0
100
AcDbSpline
210
0.0
220
0.0
230
1.0
 70
     8
 71
     3
 72
    30
 73
    26
 74
     0
 42
0.00000001
 43
0.00000001
 40
0.0
 40
0.0
 40
0.0
 40
0.0
 40
0.0501295436075413
 40
0.0849645869476773
 40
0.120310272050844
 40
0.1887226296272166
 40
0.2234350577734725
 40
0.2586381408933402
 40
0.327989180089662
 40
0.3631798593913006
 40
0.3988730116878407
 40
0.4336686238483539
 40
0.4687082007069248
 40
0.5045231139898276
 40
0.5406088812122951
 40
0.6099754147819895
 40
0.6451997353264738
 40
0.6809540137111606
 40
0.7493278060998901
 40
0.7840312587819452
 40
0.8192361094257294
 40
0.8878451716853011
 40
0.922654863951113
 40
0.957954632762727
 40
1.0
 40
1.0
 40
1.0
 40
1.0
 10
73.59506180049576
 20
126.0424378620912
 30
0.0
 10
73.59580577181137
 20
126.0422925194165
 30
0.0
 10
73.59706672914278
 20
126.0420461780491
 30
0.0
 10
73.65961560492856
 20
126.0304276319556
 30
0.0
 10
73.75982665596351
 20
126.0121488269524
 30
0.0
 10
73.91142025896262
 20
125.9853329122291
 30
0.0
 10
74.10785836181537
 20
125.9526994582263
 30
0.0
 10
74.3354927293675
 20
125.9166686984803
 30
0.0
 10
74.60682274071193
 20
125.8771753081644
 30
0.0
 10
74.91562699677615
 20
125.8375351921111
 30
0.0
 10
75.16571766074752
 20
125.8084581751989
 30
0.0
 10
75.4308983465462
 20
125.7810584346483
 30
0.0
 10
75.70995242259002
 20
125.7560125638534
 30
0.0
 10
76.0044363140679
 20
125.733846107628
 30
0.0
 10
76.40652299140895
 20
125.709718628893
 30
0.0
 10
76.82277079318524
 20
125.6943416216632
 30
0.0
 10
77.24321751403285
 20
125.6889548842937
 30
0.0
 10
77.661618710695
 20
125.6903852711669
 30
0.0
 10
78.07592674713729
 20
125.7017785884343
 30
0.0
 10
78.47597578449644
 20
125.7219518025212
 30
0.0
 10
78.86586005367101
 20
125.7475177465947
 30
0.0
 10
79.23668281288091
 20
125.7800891809748
 30
0.0
 10
79.57898837769528
 20
125.8168383760982
 30
0.0
 10
79.8405285345886
 20
125.8480608811739
 30
0.0
 10
80.00217122455466
 20
125.869944442115
 30
0.0
 10
80.0900413429361
 20
125.8818405018187
 30
0.0
  0
LINE
  5
CC
330
1F
100
AcDbEntity
  8
0
  6
HIDDEN
 62
     7
370
     0
100
AcDbLine
 10
67.3390139376
 20
89.044312026
 30
0.0
 11
67.3390139376
 21
123.044312026
 31
0.0
  0
LWPOLYLINE
  5
CD
330
1F
100
AcDbEntity
  8
0
  6
HIDDEN
 62
     7
370
     0
100
AcDbPolyline
 90
       12
 70
   128
 43
0.0
 10
94.3350393413
 20
127.9899144406
 10
95.2575028243
 20
128.0438246995
 10
96.1302360621
 20
128.20264916
 10
96.9061897801
 20
128.4578255544
 10
97.5435321124
 20
128.7955972572
 10
98.0079037689
 20
129.1977549086
 10
98.2742703534
 20
129.6426180853
 10
98.3282719744
 20
130.1062040985
 10
98.1669973906
 20
130.5635209061
 10
97.7991409565
 20
130.9899144406
 10
97.2445339076
 20
131.3623977164
 10
96.7210856641
 20
131.5951233792
  0
LWPOLYLINE
  5
CE
330
1F
100
AcDbEntity
  8
0
  6
HIDDEN
 62
     7
370
     0
100
AcDbPolyline
 90
       12
 70
   128
 43
0.0
 10
91.9506606475
 20
131.5957427506
 10
91.425544775
 20
131.3623977164
 10
90.8709377262
 20
130.9899144406
 10
90.5030812921
 20
130.5635209061
 10
90.3418067082
 20
130.1062040985
 10
90.3958083293
 20
129.6426180853
 10
90.6621749138
 20
129.1977549086
 10
91.1265465703
 20
128.7955972572
 10
91.7638889026
 20
128.4578255544
 10
92.5398426205
 20
128.20264916
 10
93.4125758584
 20
128.0438246995
 10
94.3350393413
 20
127.9899144406
  0
SPLINE
  5
CF
330
1F
100
AcDbEntity
  8
0
  6
HIDDEN
 62
     7
370
     0
100
AcDbSpline
210
0.0
220
0.0
230
1.0
 70
     8
 71
     3
 72
    11
 73
     7
 74
     0
 42
0.00000001
 43
0.00000001
 40
0.0
 40
0.0
 40
0.0
 40
0.0
 40
0.0005779865010845
 40
0.0005779865010845
 40
0.0005779865010845
 40
0.0011559733324421
 40
0.0011559733324421
 40
0.0011559733324421
 40
0.0011559733324421
 10
54.43503934133451
 20
108.0441526341621
 30
0.0
 10
54.60170659614047
 20
108.0421689948211
 30
0.0
 10
54.76837302581814
 20
108.0401313878125
 30
0.0
 10
54.93503936426997
 20
108.0380199244061
 30
0.0
 10
55.10170579309636
 20
108.0359084598547
 30
0.0
 10
55.26837216673407
 20
108.0337228966984
 30
0.0
 10
55.43503934133451
 20
108.0314403193668
 30
0.0
  0
SPLINE
  5
D0
330
1F
100
AcDbEntity
  8
0
  6
HIDDEN
 62
     7
370
     0
100
AcDbSpline
210
0.0
220
0.0
230
1.0
 70
     8
 71
     3
 72
     8
 73
     4
 74
     0
 42
0.00000001
 43
0.00000001
 40
0.0
 40
0.0
 40
0.0
 40
0.0
 40
0.0011564765856722
 40
0.0011564765856722
 40
0.0011564765856722
 40
0.0011564765856722
 10
55.43503934133451
 20
104.047611723786
 30
0.0
 10
55.10173141076566
 20
104.0467365682027
 30
0.0
 10
54.76839617837345
 20
104.0456817169511
 30
0.0
 10
54.43503934133451
 20
104.0445106299135
 30
0.0
  0
LINE
  5
D1
330
1F
100
AcDbEntity
  8
0
  6
HIDDEN
 62
     7
370
     0
100
AcDbLine
 10
93.9948653099
 20
89.044312026
 30
0.0
 11
93.9948653099
 21
123.044312026
 31
0.0
  0
LINE
  5
D2
330
1F
100
AcDbEntity
  8
0
  6
HIDDEN
 62
     7
370
     0
100
AcDbLine
 10
96.2850393413
 20
90.319312026
 30
0.0
 11
96.2850393413
 21
121.769312026
 31
0.0
  0
SPLINE
  5
D3
330
1F
100
AcDbEntity
  8
0
  6
HIDDEN
 62
     7
370
     0
100
AcDbSpline
210
0.0
220
0.0
230
1.0
 70
     8
 71
     3
 72
    16
 73
    12
 74
     0
 42
0.00000001
 43
0.00000001
 40
0.0
 40
0.0
 40
0.0
 40
0.0
 40
0.124999999999998
 40
0.124999999999998
 40
0.249999999999996
 40
0.249999999999996
 40
0.4999999999999973
 40
0.4999999999999973
 40
0.7499999999999987
 40
0.7499999999999987
 40
1.0
 40
1.0
 40
1.0
 40
1.0
 10
63.1350393413345
 20
90.24282158997056
 30
0.0
 10
63.23016109600032
 20
90.24282158997056
 30
0.0
 10
63.32349116472841
 20
90.23900575657775
 30
0.0
 10
63.50675292546641
 20
90.22423520384795
 30
0.0
 10
63.59763064102341
 20
90.21307715587237
 30
0.0
 10
63.85443233854316
 20
90.17060588573064
 30
0.0
 10
64.00949970341516
 20
90.12955968852785
 30
0.0
 10
64.26324616496977
 20
90.03441357194596
 30
0.0
 10
64.36411661663763
 20
89.97965083786438
 30
0.0
 10
64.49936303133246
 20
89.8683897139605
 30
0.0
 10
64.53503934133451
 20
89.81121997663182
 30
0.0
 10
64.53503934133451
 20
89.7567984035981
 30
0.0
  0
SPLINE
  5
D4
330
1F
100
AcDbEntity
  8
0
  6
HIDDEN
 62
     7
370
     0
100
AcDbSpline
210
0.0
220
0.0
230
1.0
 70
     8
 71
     3
 72
     8
 73
     4
 74
     0
 42
0.00000001
 43
0.00000001
 40
0.0
 40
0.0
 40
0.0
 40
0.0
 40
1.0
 40
1.0
 40
1.0
 40
1.0
 10
55.7350393446497
 20
92.3876245360528
 30
0.0
 10
55.73503934465163
 20
91.50372739373587
 30
0.0
 10
55.72155871874183
 20
90.78914414867393
 30
0.0
 10
55.72020735055253
 20
90.24282158997056
 30
0.0
  0
LINE
  5
D5
330
1F
100
AcDbEntity
  8
0
  6
HIDDEN
 62
     7
370
     0
100
AcDbLine
 10
55.4350393413
 20
96.4434852336
 30
0.0
 11
55.4350393413
 21
93.4125348018
 31
0.0
  0
LINE
  5
D6
330
1F
100
AcDbEntity
  8
0
  6
HIDDEN
 62
     7
370
     0
100
AcDbLine
 10
55.7350393445
 20
109.6489456476
 30
0.0
 11
55.7350393445
 21
97.8113256503
 31
0.0
  0
SPLINE
  5
D7
330
1F
100
AcDbEntity
  8
0
  6
HIDDEN
 62
     7
370
     0
100
AcDbSpline
210
0.0
220
0.0
230
1.0
 70
     8
 71
     3
 72
     8
 73
     4
 74
     0
 42
0.00000001
 43
0.00000001
 40
0.0
 40
0.0
 40
0.0
 40
0.0
 40
1.0
 40
1.0
 40
1.0
 40
1.0
 10
55.43503934133449
 20
115.6512513470706
 30
0.0
 10
55.61607080789341
 20
115.2191438614079
 30
0.0
 10
55.73503934452793
 20
114.7649984553082
 30
0.0
 10
55.73503934452223
 20
114.2772984016141
 30
0.0
  0
LINE
  5
D8
330
1F
100
AcDbEntity
  8
0
  6
HIDDEN
 62
     7
370
     0
100
AcDbLine
 10
55.4350393413
 20
118.684454333
 30
0.0
 11
55.4350393413
 21
115.6512513471
 31
0.0
  0
SPLINE
  5
D9
330
1F
100
AcDbEntity
  8
0
  6
HIDDEN
 62
     7
370
     0
100
AcDbSpline
210
0.0
220
0.0
230
1.0
 70
     8
 71
     3
 72
    10
 73
     6
 74
     0
 42
0.00000001
 43
0.00000001
 40
0.0
 40
0.0
 40
0.0
 40
0.0
 40
0.5
 40
0.5
 40
1.0
 40
1.0
 40
1.0
 40
1.0
 10
55.73503934472772
 20
119.700999515922
 30
0.0
 10
55.73503934472593
 20
119.536363169316
 30
0.0
 10
55.70788067397044
 20
119.3692079454855
 30
0.0
 10
55.60211567865203
 20
119.0305849376839
 30
0.0
 10
55.52570089035487
 20
118.8583131603929
 30
0.0
 10
55.43503934133454
 20
118.6844543330489
 30
0.0
  0
SPLINE
  5
DA
330
1F
100
AcDbEntity
  8
0
  6
HIDDEN
 62
     7
370
     0
100
AcDbSpline
210
0.0
220
0.0
230
1.0
 70
     8
 71
     3
 72
    18
 73
    14
 74
     0
 42
0.00000001
 43
0.00000001
 40
0.0
 40
0.0
 40
0.0
 40
0.0
 40
0.2500000000000033
 40
0.2500000000000033
 40
0.3750000000000029
 40
0.3750000000000029
 40
0.5000000000000026
 40
0.5000000000000026
 40
0.6250000000000022
 40
0.6250000000000022
 40
0.7500000000000018
 40
0.7500000000000018
 40
1.0
 40
1.0
 40
1.0
 40
1.0
 10
60.5350393413345
 20
122.3318256484064
 30
0.0
 10
60.5350393413345
 20
122.2773511278541
 30
0.0
 10
60.50012864994233
 20
122.2209700685017
 30
0.0
 10
60.39811934860928
 20
122.1368932276482
 30
0.0
 10
60.35648299393117
 20
122.1095595236573
 30
0.0
 10
60.25807719844242
 20
122.0566056080583
 30
0.0
 10
60.20053398673814
 20
122.0307182543411
 30
0.0
 10
60.07323581316519
 20
121.9829407095078
 30
0.0
 10
60.00364850840773
 20
121.96099279133
 30
0.0
 10
59.85221426325277
 20
121.9215602264172
 30
0.0
 10
59.76953036015882
 20
121.9040039771914
 30
0.0
 10
59.51341889812077
 20
121.8615652117709
 30
0.0
 10
59.32550389423279
 20
121.8458024620339
 30
0.0
 10
59.1350393413345
 20
121.8458024620339
 30
0.0
  0
LINE
  5
DB
330
1F
100
AcDbEntity
  8
0
  6
HIDDEN
 62
     7
370
     0
100
AcDbLine
 10
59.1350393413
 20
121.845802462
 30
0.0
 11
55.7350393447
 21
121.845802462
 31
0.0
  0
LINE
  5
DC
330
1F
100
AcDbEntity
  8
0
  6
HIDDEN
 62
     7
370
     0
100
AcDbLine
 10
55.6660703547
 20
90.24282159
 30
0.0
 11
63.1350393413
 21
90.24282159
 31
0.0
  0
SPLINE
  5
DD
330
1F
100
AcDbEntity
  8
0
  6
HIDDEN
 62
     7
370
     0
100
AcDbSpline
210
0.0
220
0.0
230
1.0
 70
     8
 71
     3
 72
    22
 73
    18
 74
     0
 42
0.00000001
 43
0.00000001
 40
0.0
 40
0.0
 40
0.0
 40
0.0
 40
0.1249999999999998
 40
0.1249999999999998
 40
0.2499999999999995
 40
0.2499999999999995
 40
0.4999999999999992
 40
0.4999999999999992
 40
0.5624999999999993
 40
0.5624999999999993
 40
0.6249999999999994
 40
0.6249999999999994
 40
0.7499999999999996
 40
0.7499999999999996
 40
0.8749999999999998
 40
0.8749999999999998
 40
1.0
 40
1.0
 40
1.0
 40
1.0
 10
55.66607035469243
 20
90.24282158997056
 30
0.0
 10
55.65298796196405
 20
90.49792730011822
 30
0.0
 10
55.63976839852422
 20
90.79108555922214
 30
0.0
 10
55.6173212207301
 20
91.45338602484694
 30
0.0
 10
55.60784275370565
 20
91.82365994545833
 30
0.0
 10
55.5886447927691
 20
93.0462167485721
 30
0.0
 10
55.58975856576598
 20
93.98335567470397
 30
0.0
 10
55.60866935871906
 20
95.30322690421897
 30
0.0
 10
55.61329888657806
 20
95.57472881319529
 30
0.0
 10
55.62378010632402
 20
96.13311364799759
 30
0.0
 10
55.62957536760843
 20
96.42023650393719
 30
0.0
 10
55.64788458851337
 20
97.29282575830888
 30
0.0
 10
55.66191952279373
 20
97.89328143466473
 30
0.0
 10
55.69137669493055
 20
99.1307559271608
 30
0.0
 10
55.70693238591213
 20
99.76777208380426
 30
0.0
 10
55.73072693590901
 20
101.0792606814888
 30
0.0
 10
55.73874598805437
 20
101.7553832931493
 30
0.0
 10
55.7350393413345
 20
102.4396784044341
 30
0.0
  0
LINE
  5
DE
330
1F
100
AcDbEntity
  8
0
  6
HIDDEN
 62
     7
370
     0
100
AcDbLine
 10
55.7350393447
 20
109.6489456476
 30
0.0
 11
55.7350393447
 21
121.845802462
 31
0.0
  0
SPLINE
  5
DF
330
1F
100
AcDbEntity
  8
0
  6
HIDDEN
 62
     7
370
     0
100
AcDbSpline
210
0.0
220
0.0
230
1.0
 70
     8
 71
     3
 72
    10
 73
     6
 74
     0
 42
0.00000001
 43
0.00000001
 40
0.0
 40
0.0
 40
0.0
 40
0.0
 40
0.5
 40
0.5
 40
1.0
 40
1.0
 40
1.0
 40
1.0
 10
55.7350393413345
 20
102.439678404419
 30
0.0
 10
55.73503934133432
 20
102.7135935524934
 30
0.0
 10
55.70928011146663
 20
102.9845351312235
 30
0.0
 10
55.60607417873348
 20
103.5202262128264
 30
0.0
 10
55.52873601485826
 20
103.7859730163484
 30
0.0
 10
55.43503934133449
 20
104.0476117237859
 30
0.0
  0
SPLINE
  5
E0
330
1F
100
AcDbEntity
  8
0
  6
HIDDEN
 62
     7
370
     0
100
AcDbSpline
210
0.0
220
0.0
230
1.0
 70
     8
 71
     3
 72
    10
 73
     6
 74
     0
 42
0.00000001
 43
0.00000001
 40
0.0
 40
0.0
 40
0.0
 40
0.0
 40
0.5
 40
0.5
 40
1.0
 40
1.0
 40
1.0
 40
1.0
 10
55.43503934133449
 20
108.0314403193668
 30
0.0
 10
55.52826992272551
 20
108.2953341274369
 30
0.0
 10
55.60329953496226
 20
108.5615144380751
 30
0.0
 10
55.7083666341404
 20
109.0998370130333
 30
0.0
 10
55.73503934472659
 20
109.3725851292789
 30
0.0
 10
55.73503934472779
 20
109.6489456475693
 30
0.0
  0
LINE
  5
E1
330
1F
100
AcDbEntity
  8
0
  6
HIDDEN
 62
     7
370
     0
100
AcDbLine
 10
55.4350393413
 20
104.0476117238
 30
0.0
 11
55.4350393413
 21
108.0314403194
 31
0.0
  0
LINE
  5
E2
330
1F
100
AcDbEntity
  8
0
  6
HIDDEN
 62
     7
370
     0
100
AcDbLine
 10
55.5850393413
 20
88.054312026
 30
0.0
 11
55.5850393413
 21
85.1743742606
 31
0.0
  0
LINE
  5
E3
330
1F
100
AcDbEntity
  8
0
  6
HIDDEN
 62
     7
370
     0
100
AcDbLine
 10
64.5350393413
 20
88.054312026
 30
0.0
 11
64.5350393413
 21
84.0805744948
 31
0.0
  0
LINE
  5
E4
330
1F
100
AcDbEntity
  8
0
  6
HIDDEN
 62
     7
370
     0
100
AcDbLine
 10
55.5850393413
 20
124.034312026
 30
0.0
 11
55.5850393413
 21
126.9142497914
 31
0.0
  0
LINE
  5
E5
330
1F
100
AcDbEntity
  8
0
  6
HIDDEN
 62
     7
370
     0
100
AcDbLine
 10
60.5350393413
 20
124.034312026
 30
0.0
 11
60.5350393413
 21
127.8884196984
 31
0.0
  0
LINE
  5
E6
330
1F
100
AcDbEntity
  8
0
  6
HIDDEN
 62
     7
370
     0
100
AcDbLine
 10
105.1350393413
 20
96.544312026
 30
0.0
 11
105.1350393413
 21
115.544312026
 31
0.0
  0
LINE
  5
E7
330
1F
100
AcDbEntity
  8
0
  6
HIDDEN
 62
     7
370
     0
100
AcDbLine
 10
108.1350393413
 20
96.544312026
 30
0.0
 11
108.1350393413
 21
115.544312026
 31
0.0
  0
LINE
  5
E8
330
1F
100
AcDbEntity
  8
0
  6
HIDDEN
 62
     7
370
     0
100
AcDbLine
 10
96.7850393413
 20
97.544312026
 30
0.0
 11
96.7850393413
 21
114.544312026
 31
0.0
  0
LINE
  5
E9
330
1F
100
AcDbEntity
  8
0
  6
HIDDEN
 62
     7
370
     0
100
AcDbLine
 10
102.5227141437
 20
79.644312026
 30
0.0
 11
99.2850393413
 21
79.644312026
 31
0.0
  0
LINE
  5
EA
330
1F
100
AcDbEntity
  8
0
  6
HIDDEN
 62
     7
370
     0
100
AcDbLine
 10
91.2850393413
 20
74.5601890431
 30
0.0
 11
91.2850393413
 21
79.644312026
 31
0.0
  0
LINE
  5
EB
330
1F
100
AcDbEntity
  8
0
  6
HIDDEN
 62
     7
370
     0
100
AcDbLine
 10
99.2850393413
 20
79.644312026
 30
0.0
 11
91.2850393413
 21
79.644312026
 31
0.0
  0
LINE
  5
EC
330
1F
100
AcDbEntity
  8
0
  6
HIDDEN
 62
     7
370
     0
100
AcDbLine
 10
112.2850393413
 20
79.644312026
 30
0.0
 11
106.147364539
 21
79.644312026
 31
0.0
  0
LINE
  5
ED
330
1F
100
AcDbEntity
  8
0
  6
HIDDEN
 62
     7
370
     0
100
AcDbLine
 10
102.819336873
 20
132.444312026
 30
0.0
 11
99.2850393413
 21
132.444312026
 31
0.0
  0
LINE
  5
EE
330
1F
100
AcDbEntity
  8
0
  6
HIDDEN
 62
     7
370
     0
100
AcDbLine
 10
99.2850393413
 20
132.444312026
 30
0.0
 11
91.2850393413
 21
132.444312026
 31
0.0
  0
LINE
  5
EF
330
1F
100
AcDbEntity
  8
0
  6
HIDDEN
 62
     7
370
     0
100
AcDbLine
 10
112.2850393413
 20
132.444312026
 30
0.0
 11
105.8507418096
 21
132.444312026
 31
0.0
  0
SPLINE
  5
F0
330
1F
100
AcDbEntity
  8
0
  6
HIDDEN
 62
     7
370
     0
100
AcDbSpline
210
0.0
220
0.0
230
1.0
 70
     8
 71
     3
 72
    11
 73
     7
 74
     0
 42
0.00000001
 43
0.00000001
 40
0.0
 40
0.0
 40
0.0
 40
0.0
 40
0.0008203708524183
 40
0.0008203708524183
 40
0.0008203708524183
 40
0.0016409967870154
 40
0.0016409967870154
 40
0.0016409967870154
 40
0.0016409967870154
 10
55.58503934133451
 20
90.19227927535948
 30
0.0
 10
55.39388104103585
 20
90.15110024674034
 30
0.0
 10
55.20245397096365
 20
90.11234627451036
 30
0.0
 10
55.01080834744301
 20
90.0759785152318
 30
0.0
 10
54.81910294236256
 20
90.03959941146577
 30
0.0
 10
54.62716399030362
 20
90.00560516069822
 30
0.0
 10
54.43503934323282
 20
89.973957035307
 30
0.0
  0
ELLIPSE
  5
F1
330
1F
100
AcDbEntity
  8
0
  6
HIDDEN
 62
     7
370
     0
100
AcDbEllipse
 10
50.1926074727
 20
106.044312026
 30
0.0
 11
20.19992453366649
 21
-1.421085471520200E-14
 31
0.0
210
0.0
220
0.0
230
1.0
 40
0.8164965809
 41
1.300566354717996
 42
1.359198697209599
  0
LINE
  5
F2
330
1F
100
AcDbEntity
  8
0
  6
HIDDEN
 62
     7
370
     0
100
AcDbLine
 10
64.5350393413
 20
88.054312026
 30
0.0
 11
64.5350393413
 21
89.7567984036
 31
0.0
  0
LINE
  5
F3
330
1F
100
AcDbEntity
  8
0
  6
HIDDEN
 62
     7
370
     0
100
AcDbLine
 10
55.5850393413
 20
88.054312026
 30
0.0
 11
55.5850393413
 21
90.1922792754
 31
0.0
  0
LINE
  5
F4
330
1F
100
AcDbEntity
  8
0
  6
HIDDEN
 62
     7
370
     0
100
AcDbLine
 10
55.6660703547
 20
90.24282159
 30
0.0
 11
55.5850393413
 21
90.1922792754
 31
0.0
  0
LINE
  5
F5
330
1F
100
AcDbEntity
  8
0
  6
HIDDEN
 62
     7
370
     0
100
AcDbLine
 10
60.5350393413
 20
124.034312026
 30
0.0
 11
60.5350393413
 21
122.3318256484
 31
0.0
  0
LINE
  5
F6
330
1F
100
AcDbEntity
  8
0
  6
HIDDEN
 62
     7
370
     0
100
AcDbLine
 10
55.5850393413
 20
124.034312026
 30
0.0
 11
55.5850393413
 21
121.9389364771
 31
0.0
  0
SPLINE
  5
F7
330
1F
100
AcDbEntity
  8
0
  6
HIDDEN
 62
     7
370
     0
100
AcDbSpline
210
0.0
220
0.0
230
1.0
 70
     8
 71
     3
 72
     8
 73
     4
 74
     0
 42
0.00000001
 43
0.00000001
 40
0.0
 40
0.0
 40
0.0
 40
0.0
 40
1.0
 40
1.0
 40
1.0
 40
1.0
 10
55.58503934133451
 20
121.9389364770608
 30
0.0
 10
55.63504484027823
 20
121.9079007028417
 30
0.0
 10
55.68504491094264
 20
121.8768560578142
 30
0.0
 10
55.73503934472776
 20
121.8458024620339
 30
0.0
  0
LINE
  5
F8
330
1F
100
AcDbEntity
  8
0
  6
HIDDEN
 62
     7
370
     0
100
AcDbLine
 10
242.8350393413
 20
102.044312026
 30
0.0
 11
242.8350393413
 21
110.044312026
 31
0.0
  0
SPLINE
  5
F9
330
1F
100
AcDbEntity
  8
0
  6
HIDDEN
 62
     7
370
     0
100
AcDbSpline
210
0.0
220
0.0
230
1.0
 70
     8
 71
     3
 72
    20
 73
    16
 74
     0
 42
0.00000001
 43
0.00000001
 40
0.0
 40
0.0
 40
0.0
 40
0.0
 40
0.1119595197684167
 40
0.177476763464755
 40
0.2490961890179855
 40
0.3298422315094334
 40
0.3986125823882006
 40
0.4998893016461228
 40
0.6138510293005642
 40
0.6790150176761717
 40
0.7495394203320147
 40
0.8296829944178317
 40
0.8981246285223357
 40
0.9995320175861916
 40
1.0
 40
1.0
 40
1.0
 40
1.0
 10
81.08387979119738
 20
82.44431826423441
 30
0.0
 10
81.04055605289881
 20
82.45774758227145
 30
0.0
 10
80.97187983072203
 20
82.47903556122742
 30
0.0
 10
80.52670070467175
 20
82.58234637287593
 30
0.0
 10
80.0001424210019
 20
82.69564960293782
 30
0.0
 10
79.31471739987255
 20
82.81858247073043
 30
0.0
 10
78.42140000257366
 20
82.94061692991492
 30
0.0
 10
77.308040615436
 20
83.05835323769948
 30
0.0
 10
76.19726653480042
 20
83.07032874007507
 30
0.0
 10
75.31251823289512
 20
83.04327044994373
 30
0.0
 10
74.64532163827205
 20
82.99533838553671
 30
0.0
 10
74.10404913605367
 20
82.93904487317347
 30
0.0
 10
73.71646917696849
 20
82.89396196253537
 30
0.0
 10
73.52253265689292
 20
82.85508878783321
 30
0.0
 10
73.58563511712285
 20
82.86579484507341
 30
0.0
 10
73.58592498935818
 20
82.86584402522791
 30
0.0
  0
LINE
  5
FA
330
1F
100
AcDbEntity
  8
0
  6
HIDDEN
 62
     7
370
     0
100
AcDbLine
 10
74.4950512542
 20
82.9766501695
 30
0.0
 11
74.6788965668
 21
82.994839512
 31
0.0
  0
LINE
  5
FB
330
1F
100
AcDbEntity
  8
0
  6
HIDDEN
 62
     7
370
     0
100
AcDbLine
 10
74.6788938684
 20
129.0937151088
 30
0.0
 11
74.5048205879
 21
129.1109246347
 31
0.0
  0
SPLINE
  5
FC
330
1F
100
AcDbEntity
  8
0
  6
HIDDEN
 62
     7
370
     0
100
AcDbSpline
210
0.0
220
0.0
230
1.0
 70
     8
 71
     3
 72
    20
 73
    16
 74
     0
 42
0.00000001
 43
0.00000001
 40
0.0
 40
0.0
 40
0.0
 40
0.0
 40
0.0004889684280515
 40
0.1018319933920969
 40
0.1702475582146014
 40
0.2503692056770022
 40
0.3209568221778694
 40
0.3861816196697952
 40
0.5002554836816518
 40
0.6012243489253606
 40
0.6697680558604869
 40
0.7502401907580438
 40
0.8220490693851532
 40
0.8877204546109767
 40
1.0
 40
1.0
 40
1.0
 40
1.0
 10
73.5859583741196
 20
129.2227134801947
 30
0.0
 10
73.5856547331227
 20
129.2227650673449
 30
0.0
 10
73.52241881396037
 20
129.2335085469575
 30
0.0
 10
73.71562284774969
 20
129.1946525562948
 30
0.0
 10
74.10256990265704
 20
129.1496290658924
 30
0.0
 10
74.64357682598006
 20
129.0933661038025
 30
0.0
 10
75.3110770874379
 20
129.0454349112117
 30
0.0
 10
76.19690493878811
 20
129.0183614554849
 30
0.0
 10
77.30771151086445
 20
129.030187459056
 30
0.0
 10
78.41978187688217
 20
129.1476365342074
 30
0.0
 10
79.3108821830858
 20
129.2693409224482
 30
0.0
 10
79.9963666339236
 20
129.3921619680272
 30
0.0
 10
80.52435453347647
 20
129.5056002197139
 30
0.0
 10
80.9717384849604
 20
129.6093407753546
 30
0.0
 10
81.0405489513114
 20
129.6307635686282
 30
0.0
 10
81.0839654586216
 20
129.6442804492728
 30
0.0
  0
SPLINE
  5
FD
330
1F
100
AcDbEntity
  8
0
  6
HIDDEN
 62
     7
370
     0
100
AcDbSpline
210
0.0
220
0.0
230
1.0
 70
     8
 71
     3
 72
    22
 73
    18
 74
     0
 42
0.00000001
 43
0.00000001
 40
0.0
 40
0.0
 40
0.0
 40
0.0
 40
0.0505062323214696
 40
0.153317864599033
 40
0.2057385496080911
 40
0.2562410477514916
 40
0.3588605346652491
 40
0.4110693372550057
 40
0.4635437978253536
 40
0.5701739320268401
 40
0.6244506830213128
 40
0.6783211864617931
 40
0.7325832186661166
 40
0.788114697849758
 40
0.8441013983197571
 40
0.8959032115444788
 40
1.0
 40
1.0
 40
1.0
 40
1.0
 10
211.8350393413345
 20
110.0742003619242
 30
0.0
 10
211.8750030027942
 20
110.0745591369514
 30
0.0
 10
211.9963176001207
 20
110.0756482425629
 30
0.0
 10
212.1576324835416
 20
110.085804446146
 30
0.0
 10
212.3132674968818
 20
110.1019315422615
 30
0.0
 10
212.4641883689027
 20
110.1218632373401
 30
0.0
 10
212.6069842967401
 20
110.1465309099976
 30
0.0
 10
212.7399795102801
 20
110.1741901194732
 30
0.0
 10
212.8673004379655
 20
110.2035340884708
 30
0.0
 10
212.9822701496957
 20
110.233805682303
 30
0.0
 10
213.081555049063
 20
110.2624023708543
 30
0.0
 10
213.1479145994355
 20
110.2825307710296
 30
0.0
 10
213.2054308554721
 20
110.3007346839549
 30
0.0
 10
213.2536889700141
 20
110.316550914147
 30
0.0
 10
213.290397558101
 20
110.3289085325775
 30
0.0
 10
213.3256722598965
 20
110.3410225817319
 30
0.0
 10
213.331122797191
 20
110.3429373793481
 30
0.0
 10
213.3347622360417
 20
110.3442159301513
 30
0.0
  0
LINE
  5
FE
330
1F
100
AcDbEntity
  8
0
  6
HIDDEN
 62
     7
370
     0
100
AcDbLine
 10
211.9567354797
 20
110.0760941907
 30
0.0
 11
211.7184060159
 21
110.0760919901
 31
0.0
  0
SPLINE
  5
FF
330
1F
100
AcDbEntity
  8
0
  6
HIDDEN
 62
     7
370
     0
100
AcDbSpline
210
0.0
220
0.0
230
1.0
 70
     8
 71
     3
 72
    22
 73
    18
 74
     0
 42
0.00000001
 43
0.00000001
 40
0.0
 40
0.0
 40
0.0
 40
0.0
 40
0.1007446507057583
 40
0.153162442570684
 40
0.2028120569178974
 40
0.3036961083223561
 40
0.3550221992410672
 40
0.4066344501923865
 40
0.5114772615373923
 40
0.5648129411909932
 40
0.6186021976414714
 40
0.672768447176571
 40
0.7281497304289342
 40
0.7839657841950433
 40
0.8369223191188919
 40
0.9448532869924239
 40
1.0
 40
1.0
 40
1.0
 40
1.0
 10
210.3354276786202
 20
110.3441773011853
 30
0.0
 10
210.3387854736243
 20
110.3429980405024
 30
0.0
 10
210.3438903410378
 20
110.341205206388
 30
0.0
 10
210.3769363970982
 20
110.3298457525972
 30
0.0
 10
210.4211339280038
 20
110.3149398959872
 30
0.0
 10
210.4832887462317
 20
110.2946098538621
 30
0.0
 10
210.5624694373761
 20
110.270207471141
 30
0.0
 10
210.6540854673549
 20
110.2432375223931
 30
0.0
 10
210.7626044022108
 20
110.2137546267055
 30
0.0
 10
210.8861827205905
 20
110.1840407251185
 30
0.0
 10
210.9869632553219
 20
110.1620493543017
 30
0.0
 10
211.0952617699752
 20
110.1410463970161
 30
0.0
 10
211.2106350396286
 20
110.1217244791762
 30
0.0
 10
211.3301809701754
 20
110.105098470368
 30
0.0
 10
211.4932417534476
 20
110.0872980366583
 30
0.0
 10
211.6623619507583
 20
110.0758888042562
 30
0.0
 10
211.7914026500769
 20
110.0746270422007
 30
0.0
 10
211.8350393413345
 20
110.0742003619242
 30
0.0
  0
SPLINE
  5
100
330
1F
100
AcDbEntity
  8
0
  6
HIDDEN
 62
     7
370
     0
100
AcDbSpline
210
0.0
220
0.0
230
1.0
 70
     8
 71
     3
 72
    27
 73
    23
 74
     0
 42
0.00000001
 43
0.00000001
 40
0.0
 40
0.0
 40
0.0
 40
0.0
 40
0.0507816103274928
 40
0.1030881979290496
 40
0.1538561257728959
 40
0.2060070907766584
 40
0.2585050423281224
 40
0.3124305571578501
 40
0.366503750321076
 40
0.422257158656474
 40
0.4743148081469655
 40
0.5280476338066699
 40
0.5775602478487412
 40
0.628466992346647
 40
0.6788956278408003
 40
0.7306348167685568
 40
0.7839167771556502
 40
0.8387032221737071
 40
0.8925100780107024
 40
0.9480286554418254
 40
0.9993150357584294
 40
1.0
 40
1.0
 40
1.0
 40
1.0
 10
213.3350393413345
 20
101.7443120260022
 30
0.0
 10
213.3312874116597
 20
101.7456281602534
 30
0.0
 10
213.3236708814544
 20
101.7482999524104
 30
0.0
 10
213.2626044778357
 20
101.7692540482923
 30
0.0
 10
213.1666251439075
 20
101.8005666740729
 30
0.0
 10
213.0355328871621
 20
101.8402094532179
 30
0.0
 10
212.8702080140455
 20
101.8848188149409
 30
0.0
 10
212.6741915092058
 20
101.9297027908698
 30
0.0
 10
212.4493941775993
 20
101.970102971897
 30
0.0
 10
212.2077842047904
 20
101.9997520360213
 30
0.0
 10
211.9549253622707
 20
102.0152595114494
 30
0.0
 10
211.7079130843957
 20
102.0149078190766
 30
0.0
 10
211.4668972820205
 20
101.9998327045028
 30
0.0
 10
211.2412696039735
 20
101.972853228005
 30
0.0
 10
211.0286412281517
 20
101.936139826913
 30
0.0
 10
210.8342604210098
 20
101.8933013157085
 30
0.0
 10
210.6615540115234
 20
101.8479654676585
 30
0.0
 10
210.5197052073459
 20
101.8057484356098
 30
0.0
 10
210.4120576878168
 20
101.7708070149322
 30
0.0
 10
210.3526973405372
 20
101.7504915257964
 30
0.0
 10
210.3284453572806
 20
101.7420254656532
 30
0.0
 10
210.3352181545641
 20
101.7443740346934
 30
0.0
 10
210.3353074176762
 20
101.7444049880163
 30
0.0
  0
LINE
  5
101
330
1F
100
AcDbEntity
  8
0
  6
HIDDEN
 62
     7
370
     0
100
AcDbLine
 10
209.8350393413
 20
102.144312026
 30
0.0
 11
209.8350393413
 21
109.944312026
 31
0.0
  0
LINE
  5
102
330
1F
100
AcDbEntity
  8
0
  6
HIDDEN
 62
     7
370
     0
100
AcDbLine
 10
220.3350393413
 20
102.044312026
 30
0.0
 11
220.3350393413
 21
110.044312026
 31
0.0
  0
LINE
  5
103
330
1F
100
AcDbEntity
  8
0
  6
HIDDEN
 62
     7
370
     0
100
AcDbLine
 10
150.4350393413
 20
101.844312026
 30
0.0
 11
150.4350393413
 21
110.244312026
 31
0.0
  0
LINE
  5
104
330
1F
100
AcDbEntity
  8
0
  6
HIDDEN
 62
     7
370
     0
100
AcDbLine
 10
151.4565023937
 20
103.544312026
 30
0.0
 11
151.4565023937
 21
108.544312026
 31
0.0
  0
LINE
  5
105
330
1F
100
AcDbEntity
  8
0
  6
HIDDEN
 62
     7
370
     0
100
AcDbLine
 10
160.7850393413
 20
93.1216622952
 30
0.0
 11
155.7850393413
 21
93.1216622952
 31
0.0
  0
LINE
  5
106
330
1F
100
AcDbEntity
  8
0
  6
HIDDEN
 62
     7
370
     0
100
AcDbLine
 10
158.2850393413
 20
118.9669617568
 30
0.0
 11
160.7850393413
 21
118.9669617568
 31
0.0
  0
LINE
  5
107
330
1F
100
AcDbEntity
  8
0
  6
HIDDEN
 62
     7
370
     0
100
AcDbLine
 10
155.7850393413
 20
118.9669617568
 30
0.0
 11
158.2850393413
 21
118.9669617568
 31
0.0
  0
LINE
  5
108
330
1F
100
AcDbEntity
  8
0
  6
HIDDEN
 62
     7
370
     0
100
AcDbLine
 10
209.3350393413
 20
103.544312026
 30
0.0
 11
209.3350393413
 21
108.544312026
 31
0.0
  0
LINE
  5
109
330
1F
100
AcDbEntity
  8
0
  6
HIDDEN
 62
     7
370
     0
100
AcDbLine
 10
158.2850393413
 20
111.544312026
 30
0.0
 11
160.7850393413
 21
111.544312026
 31
0.0
  0
LINE
  5
10A
330
1F
100
AcDbEntity
  8
0
  6
HIDDEN
 62
     7
370
     0
100
AcDbLine
 10
155.7850393413
 20
111.544312026
 30
0.0
 11
158.2850393413
 21
111.544312026
 31
0.0
  0
LINE
  5
10B
330
1F
100
AcDbEntity
  8
0
  6
HIDDEN
 62
     7
370
     0
100
AcDbLine
 10
160.7850393413
 20
100.544312026
 30
0.0
 11
155.7850393413
 21
100.544312026
 31
0.0
  0
SPLINE
  5
10C
330
1F
100
AcDbEntity
  8
0
  6
HIDDEN
 62
     7
370
     0
100
AcDbSpline
210
0.0
220
0.0
230
1.0
 70
     8
 71
     3
 72
    30
 73
    26
 74
     0
 42
0.00000001
 43
0.00000001
 40
0.0
 40
0.0
 40
0.0
 40
0.0
 40
0.0412274297564297
 40
0.0838627324950377
 40
0.1250516510534626
 40
0.1672473279861979
 40
0.2244849111414936
 40
0.2833611997047531
 40
0.3419130967478512
 40
0.4019328869320963
 40
0.4346453182317965
 40
0.4680030772970392
 40
0.5007963769266237
 40
0.5349012334331618
 40
0.5631174209943286
 40
0.5919349488450931
 40
0.6414698556812157
 40
0.6923287517706446
 40
0.7450260126139402
 40
0.798851953000994
 40
0.8464596455547826
 40
0.8953104661842556
 40
0.9429925514063195
 40
0.992582888881185
 40
1.0
 40
1.0
 40
1.0
 40
1.0
 10
213.3350393413346
 20
113.0899211090016
 30
0.0
 10
213.3330976704945
 20
113.092325845512
 30
0.0
 10
213.3291480228154
 20
113.0972174377332
 30
0.0
 10
213.2980555186462
 20
113.1359385275496
 30
0.0
 10
213.2510367308516
 20
113.1952404473758
 30
0.0
 10
213.1828120192438
 20
113.2829441347236
 30
0.0
 10
213.0907655097288
 20
113.4051805062814
 30
0.0
 10
212.9781364537144
 20
113.5644033758878
 30
0.0
 10
212.8614238705866
 20
113.7478578896369
 30
0.0
 10
212.7692456530788
 20
113.9232844592491
 30
0.0
 10
212.7082297698151
 20
114.0827921279421
 30
0.0
 10
212.6743789942694
 20
114.2153718123093
 30
0.0
 10
212.6602441813695
 20
114.3553423622638
 30
0.0
 10
212.6697802516421
 20
114.4887875099578
 30
0.0
 10
212.6976024651778
 20
114.6121279602227
 30
0.0
 10
212.7456154708496
 20
114.7492374338168
 30
0.0
 10
212.8216618742774
 20
114.9026039925047
 30
0.0
 10
212.9230848838654
 20
115.0655927388849
 30
0.0
 10
213.0292088949067
 20
115.2149053514932
 30
0.0
 10
213.1274642439293
 20
115.3421355548824
 30
0.0
 10
213.2114316610795
 20
115.4456709081364
 30
0.0
 10
213.2767906622887
 20
115.5237482678956
 30
0.0
 10
213.3195999406116
 20
115.5739341248229
 30
0.0
 10
213.3374850971176
 20
115.5946933220235
 30
0.0
 10
213.3340446886679
 20
115.5906936321482
 30
0.0
 10
213.3335970648503
 20
115.5901732414804
 30
0.0
  0
SPLINE
  5
10D
330
1F
100
AcDbEntity
  8
0
  6
HIDDEN
 62
     7
370
     0
100
AcDbSpline
210
0.0
220
0.0
230
1.0
 70
     8
 71
     3
 72
    10
 73
     6
 74
     0
 42
0.00000001
 43
0.00000001
 40
0.0
 40
0.0
 40
0.0
 40
0.0
 40
0.3845743046451166
 40
0.8689635483469482
 40
1.0
 40
1.0
 40
1.0
 40
1.0
 10
210.3375376379759
 20
115.5902460417617
 30
0.0
 10
210.3386708622243
 20
115.5905381532849
 30
0.0
 10
210.3412314351801
 20
115.591198192873
 30
0.0
 10
210.3740030976017
 20
115.6015216769223
 30
0.0
 10
210.402340329241
 20
115.6149013977425
 30
0.0
 10
210.4083738931818
 20
115.6177502081734
 30
0.0
  0
SPLINE
  5
10E
330
1F
100
AcDbEntity
  8
0
  6
HIDDEN
 62
     7
370
     0
100
AcDbSpline
210
0.0
220
0.0
230
1.0
 70
     8
 71
     3
 72
    27
 73
    23
 74
     0
 42
0.00000001
 43
0.00000001
 40
0.0
 40
0.0
 40
0.0
 40
0.0
 40
0.0436974915427923
 40
0.0878335253670998
 40
0.1331056124352797
 40
0.1803435214697237
 40
0.2285619252985855
 40
0.2848361166626923
 40
0.3422362494845222
 40
0.4099429175776006
 40
0.4800763979315435
 40
0.5134973703868265
 40
0.5477807228015654
 40
0.5812484962832148
 40
0.6157765870448011
 40
0.6611901320798151
 40
0.707834737011386
 40
0.7790431163817595
 40
0.8522596840366105
 40
0.9116646089721951
 40
0.9725942847190165
 40
0.9999999999999999
 40
0.9999999999999999
 40
0.9999999999999999
 40
0.9999999999999999
 10
210.3361040847423
 20
113.209029749394
 30
0.0
 10
210.3373600419171
 20
113.2104854767635
 30
0.0
 10
210.3398845608879
 20
113.2134115409909
 30
0.0
 10
210.3676222034354
 20
113.2457561881216
 30
0.0
 10
210.4105169789472
 20
113.2963660993796
 30
0.0
 10
210.4695979558524
 20
113.3673811803064
 30
0.0
 10
210.545461245543
 20
113.4612561573868
 30
0.0
 10
210.6364975430911
 20
113.5790986312462
 30
0.0
 10
210.7444649403182
 20
113.7299962543585
 30
0.0
 10
210.8595010852418
 20
113.9137260650935
 30
0.0
 10
210.9459537646784
 20
114.0980365157504
 30
0.0
 10
210.9909644576092
 20
114.2601230897238
 30
0.0
 10
211.0077144712195
 20
114.3843333872646
 30
0.0
 10
211.0052716130193
 20
114.5115076574845
 30
0.0
 10
210.9819293478456
 20
114.6496175843562
 30
0.0
 10
210.9344750924723
 20
114.7959207754962
 30
0.0
 10
210.8539949815218
 20
114.9705767537742
 30
0.0
 10
210.7449575471024
 20
115.1557171922361
 30
0.0
 10
210.626159978712
 20
115.3296765054642
 30
0.0
 10
210.521620454931
 20
115.4717191362396
 30
0.0
 10
210.4516438332472
 20
115.5626749435648
 30
0.0
 10
210.4186195500229
 20
115.604709231903
 30
0.0
 10
210.4083738931817
 20
115.6177502081734
 30
0.0
  0
LINE
  5
10F
330
1F
100
AcDbEntity
  8
0
  6
HIDDEN
 62
     7
370
     0
100
AcDbLine
 10
213.3350393413
 20
116.544312026
 30
0.0
 11
210.3350393413
 21
116.544312026
 31
0.0
  0
LWPOLYLINE
  5
110
330
1F
100
AcDbEntity
  8
0
  6
HIDDEN
 62
     7
370
     0
100
AcDbPolyline
 90
       25
 70
   128
 43
0.0
 10
213.3335970649
 20
96.4984508105
 10
213.32858102
 20
96.504283656
 10
213.3026222768
 20
96.5346219234
 10
213.2616694133
 20
96.5830236359
 10
213.2059178166
 20
96.650123488
 10
213.1135309992
 20
96.7651242839
 10
213.0054803578
 20
96.9080581763
 10
212.8939658977
 20
97.0712462082
 10
212.7857272303
 20
97.2607084594
 10
212.7309963395
 20
97.3842750426
 10
212.6887038727
 20
97.519103162
 10
212.6686265542
 20
97.6356538722
 10
212.6650019895
 20
97.7580195244
 10
212.6783690297
 20
97.8760208028
 10
212.7069749536
 20
97.99303224
 10
212.7735417796
 20
98.1656603837
 10
212.8576894235
 20
98.3280378897
 10
212.9830225978
 20
98.5284759419
 10
213.1088214609
 20
98.7065612213
 10
213.1908323638
 20
98.8155953074
 10
213.2604391125
 20
98.9051262213
 10
213.3019918027
 20
98.9575181735
 10
213.3279496697
 20
98.9899013051
 10
213.3350393413
 20
98.998702943
 10
213.3350393413
 20
98.998702943
  0
LINE
  5
111
330
1F
100
AcDbEntity
  8
0
  6
HIDDEN
 62
     7
370
     0
100
AcDbLine
 10
211.8350393413
 20
96.044312026
 30
0.0
 11
213.3350393413
 21
96.044312026
 31
0.0
  0
LINE
  5
112
330
1F
100
AcDbEntity
  8
0
  6
HIDDEN
 62
     7
370
     0
100
AcDbLine
 10
210.3350393413
 20
96.044312026
 30
0.0
 11
211.8350393413
 21
96.044312026
 31
0.0
  0
SPLINE
  5
113
330
1F
100
AcDbEntity
  8
0
  6
HIDDEN
 62
     7
370
     0
100
AcDbSpline
210
0.0
220
0.0
230
1.0
 70
     8
 71
     3
 72
    10
 73
     6
 74
     0
 42
0.00000001
 43
0.00000001
 40
0.0
 40
0.0
 40
0.0
 40
0.0
 40
0.4502538229609563
 40
0.9124888988645022
 40
1.0
 40
1.0
 40
1.0
 40
1.0
 10
210.4083738931817
 20
96.47087384383101
 30
0.0
 10
210.3898645615979
 20
96.47893595322398
 30
0.0
 10
210.3523533651696
 20
96.49527470471784
 30
0.0
 10
210.3318630164013
 20
96.500007347225
 30
0.0
 10
210.3367583728352
 20
96.49860175829285
 30
0.0
 10
210.337537637976
 20
96.49837801024269
 30
0.0
  0
SPLINE
  5
114
330
1F
100
AcDbEntity
  8
0
  6
HIDDEN
 62
     7
370
     0
100
AcDbSpline
210
0.0
220
0.0
230
1.0
 70
     8
 71
     3
 72
    27
 73
    23
 74
     0
 42
0.00000001
 43
0.00000001
 40
0.0
 40
0.0
 40
0.0
 40
0.0
 40
0.0608264897247589
 40
0.1237193167709604
 40
0.1844237980453182
 40
0.2463606360141296
 40
0.2991647884938217
 40
0.3530415064218343
 40
0.3877307951692999
 40
0.4232518388085271
 40
0.4580084579068927
 40
0.4940009229034608
 40
0.5364145333649353
 40
0.5800047849866601
 40
0.6460232438695436
 40
0.7138788078164786
 40
0.781388060923126
 40
0.8512276457805645
 40
0.8986000998891212
 40
0.9472587925050582
 40
0.9946769480778408
 40
1.0
 40
1.0
 40
1.0
 40
1.0
 10
210.4083738931818
 20
96.47087384383099
 30
0.0
 10
210.4323713968391
 20
96.50150128858834
 30
0.0
 10
210.4811816236026
 20
96.56379662335061
 30
0.0
 10
210.5776522441381
 20
96.69203934614437
 30
0.0
 10
210.682649052139
 20
96.84016646107044
 30
0.0
 10
210.7849924450885
 20
96.99865259055693
 30
0.0
 10
210.8781588257469
 20
97.16644559705043
 30
0.0
 10
210.9452591537581
 20
97.32059087063065
 30
0.0
 10
210.9873920775571
 20
97.46571099381728
 30
0.0
 10
211.0069637285949
 20
97.5940969856793
 30
0.0
 10
211.0064137806774
 20
97.72632845633542
 30
0.0
 10
210.9837048989567
 20
97.86441742778192
 30
0.0
 10
210.937781004145
 20
98.0053269148876
 30
0.0
 10
210.8619561944899
 20
98.16751272932423
 30
0.0
 10
210.7586475505777
 20
98.338236157165
 30
0.0
 10
210.6380657946035
 20
98.5081276212889
 30
0.0
 10
210.523028072184
 20
98.65605587186359
 30
0.0
 10
210.4360070127023
 20
98.76193078432452
 30
0.0
 10
210.3771900513354
 20
98.83165372287107
 30
0.0
 10
210.3459312576815
 20
98.86818936630497
 30
0.0
 10
210.3323157017815
 20
98.88400045956466
 30
0.0
 10
210.3357567840206
 20
98.87999823787936
 30
0.0
 10
210.3361040847423
 20
98.8795943026104
 30
0.0
  0
LINE
  5
115
330
1F
100
AcDbEntity
  8
0
  6
HIDDEN
 62
     7
370
     0
100
AcDbLine
 10
210.313719267
 20
98.879994954
 30
0.0
 11
210.4083738932
 21
96.4708738438
 31
0.0
  0
LINE
  5
116
330
1F
100
AcDbEntity
  8
0
  6
HIDDEN
 62
     7
370
     0
100
AcDbLine
 10
210.313719267
 20
113.208629098
 30
0.0
 11
210.4083738932
 21
115.6177502082
 31
0.0
  0
SPLINE
  5
117
330
1F
100
AcDbEntity
  8
0
  6
HIDDEN
 62
     7
370
     0
100
AcDbSpline
210
0.0
220
0.0
230
1.0
 70
     8
 71
     3
 72
     8
 73
     4
 74
     0
 42
0.00000001
 43
0.00000001
 40
0.0
 40
0.0
 40
0.0
 40
0.0
 40
0.000159097695343
 40
0.000159097695343
 40
0.000159097695343
 40
0.000159097695343
 10
55.72020735055253
 20
90.24282158997056
 30
0.0
 10
55.67515588004818
 20
90.21484270564677
 30
0.0
 10
55.63009984163337
 20
90.18687117527172
 30
0.0
 10
55.58503934133451
 20
90.1589068359192
 30
0.0
  0
SPLINE
  5
118
330
1F
100
AcDbEntity
  8
0
  6
HIDDEN
 62
     7
370
     0
100
AcDbSpline
210
0.0
220
0.0
230
1.0
 70
     8
 71
     3
 72
    11
 73
     7
 74
     0
 42
0.00000001
 43
0.00000001
 40
0.0
 40
0.0
 40
0.0
 40
0.0
 40
0.0008212909311457
 40
0.0008212909311457
 40
0.0008212909311457
 40
0.001642825724306
 40
0.001642825724306
 40
0.001642825724306
 40
0.001642825724306
 10
55.58503934133451
 20
90.1589068359192
 30
0.0
 10
55.39389431985231
 20
90.11562064706665
 30
0.0
 10
55.20247598417584
 20
90.07468413742936
 30
0.0
 10
55.0108299095147
 20
90.03608236604276
 30
0.0
 10
54.81912682797309
 20
89.99746911220569
 30
0.0
 10
54.62718170468758
 20
89.96118890291969
 30
0.0
 10
54.4350393413344
 20
89.92722199656816
 30
0.0
  0
LINE
  5
119
330
1F
100
AcDbEntity
  8
0
  6
HIDDEN
 62
     7
370
     0
100
AcDbLine
 10
102.4250393413
 20
126.1801786575
 30
0.0
 11
102.4250393413
 21
125.894312026
 31
0.0
  0
LINE
  5
11A
330
1F
100
AcDbEntity
  8
0
  6
HIDDEN
 62
     7
370
     0
100
AcDbLine
 10
106.2450393413
 20
126.2254259292
 30
0.0
 11
106.2450393413
 21
125.894312026
 31
0.0
  0
LINE
  5
11B
330
1F
100
AcDbEntity
  8
0
  6
HIDDEN
 62
     7
370
     0
100
AcDbLine
 10
107.7269721728
 20
130.5030016884
 30
0.0
 11
107.7269721728
 21
125.894312026
 31
0.0
  0
SPLINE
  5
11C
330
1F
100
AcDbEntity
  8
0
  6
HIDDEN
 62
     7
370
     0
100
AcDbSpline
210
0.0
220
0.0
230
1.0
 70
     8
 71
     3
 72
    24
 73
    20
 74
     0
 42
0.00000001
 43
0.00000001
 40
0.0
 40
0.0
 40
0.0
 40
0.0
 40
0.2499999999999937
 40
0.2499999999999937
 40
0.3749999999999912
 40
0.3749999999999912
 40
0.4374999999999901
 40
0.4374999999999901
 40
0.4687499999999891
 40
0.4687499999999891
 40
0.4999999999999881
 40
0.4999999999999881
 40
0.5624999999999888
 40
0.5624999999999888
 40
0.6249999999999893
 40
0.6249999999999893
 40
0.749999999999992
 40
0.749999999999992
 40
1.0
 40
1.0
 40
1.0
 40
1.0
 10
54.49770271605792
 20
86.36975948122146
 30
0.0
 10
54.51145583472813
 20
86.44040953921174
 30
0.0
 10
54.529228402134
 20
86.50700765197668
 30
0.0
 10
54.58147949368936
 20
86.58110567220987
 30
0.0
 10
54.60251456927092
 20
86.60236347937143
 30
0.0
 10
54.65541497689935
 20
86.61050940551767
 30
0.0
 10
54.67652064977727
 20
86.60956960212191
 30
0.0
 10
54.72257281845523
 20
86.58855361054455
 30
0.0
 10
54.7409432904386
 20
86.57764480443694
 30
0.0
 10
54.7824949255043
 20
86.54500989348958
 30
0.0
 10
54.80506159826123
 20
86.52351791311821
 30
0.0
 10
54.86784261472128
 20
86.45505196953192
 30
0.0
 10
54.90097237568912
 20
86.40897751132682
 30
0.0
 10
54.95789006217415
 20
86.32396962299214
 30
0.0
 10
54.98207608767794
 20
86.28368932181077
 30
0.0
 10
55.04728403805768
 20
86.16875309534483
 30
0.0
 10
55.08200009824894
 20
86.09817011019781
 30
0.0
 10
55.17521536857982
 20
85.89396435111921
 30
0.0
 10
55.2208879039405
 20
85.77106596879183
 30
0.0
 10
55.25919298743904
 20
85.65419269240427
 30
0.0
  0
SPLINE
  5
11D
330
1F
100
AcDbEntity
  8
0
  6
HIDDEN
 62
     7
370
     0
100
AcDbSpline
210
0.0
220
0.0
230
1.0
 70
     8
 71
     3
 72
    11
 73
     7
 74
     0
 42
0.00000001
 43
0.00000001
 40
0.0
 40
0.0
 40
0.0
 40
0.0
 40
0.0005781862223978
 40
0.0005781862223978
 40
0.0005781862223978
 40
0.0011563724723928
 40
0.0011563724723928
 40
0.0011563724723928
 40
0.0011563724723928
 10
55.43503934133451
 20
118.684454333049
 30
0.0
 10
55.2683787870589
 20
118.7489838444625
 30
0.0
 10
55.10171549015242
 20
118.8134865483063
 30
0.0
 10
54.93504890632219
 20
118.87797299674
 30
0.0
 10
54.76838231406308
 20
118.9424594484349
 30
0.0
 10
54.6017124484372
 20
119.0069294571631
 30
0.0
 10
54.43503934133445
 20
119.0713852238957
 30
0.0
  0
SPLINE
  5
11E
330
1F
100
AcDbEntity
  8
0
  6
HIDDEN
 62
     7
370
     0
100
AcDbSpline
210
0.0
220
0.0
230
1.0
 70
     8
 71
     3
 72
    11
 73
     7
 74
     0
 42
0.00000001
 43
0.00000001
 40
0.0
 40
0.0
 40
0.0
 40
0.0
 40
0.0005778746105108
 40
0.0005778746105108
 40
0.0005778746105108
 40
0.0011557494857226
 40
0.0011557494857226
 40
0.0011557494857226
 40
0.0011557494857226
 10
54.43503934133448
 20
93.0170901705123
 30
0.0
 10
54.60170621774782
 20
93.08290229720618
 30
0.0
 10
54.76837293730927
 20
93.1487607773438
 30
0.0
 10
54.93503958535792
 20
93.21466835027442
 30
0.0
 10
55.10170630987658
 20
93.28057595344477
 30
0.0
 10
55.26837300429717
 20
93.34653306183327
 30
0.0
 10
55.43503934133451
 20
93.41253480175598
 30
0.0
  0
SPLINE
  5
11F
330
1F
100
AcDbEntity
  8
0
  6
HIDDEN
 62
     7
370
     0
100
AcDbSpline
210
0.0
220
0.0
230
1.0
 70
     8
 71
     3
 72
    11
 73
     7
 74
     0
 42
0.00000001
 43
0.00000001
 40
0.0000000000000006
 40
0.0000000000000006
 40
0.0000000000000006
 40
0.0000000000000006
 40
0.0005780486062768
 40
0.0005780486062768
 40
0.0005780486062768
 40
0.0011560973514127
 40
0.0011560973514127
 40
0.0011560973514127
 40
0.0011560973514127
 10
54.43503934133448
 20
116.0251265276939
 30
0.0
 10
54.60170919737939
 20
115.9627546661794
 30
0.0
 10
54.76837690146366
 20
115.9004008058817
 30
0.0
 10
54.9350432059173
 20
115.8380812456957
 30
0.0
 10
55.10170954661105
 20
115.7757616719588
 30
0.0
 10
55.26837450323982
 20
115.7134764676392
 30
0.0
 10
55.43503934133449
 20
115.6512513470705
 30
0.0
  0
SPLINE
  5
120
330
1F
100
AcDbEntity
  8
0
  6
HIDDEN
 62
     7
370
     0
100
AcDbSpline
210
0.0
220
0.0
230
1.0
 70
     8
 71
     3
 72
    11
 73
     7
 74
     0
 42
0.00000001
 43
0.00000001
 40
0.0
 40
0.0
 40
0.0
 40
0.0
 40
0.0005782401583533
 40
0.0005782401583533
 40
0.0005782401583533
 40
0.0011564805960992
 40
0.0011564805960992
 40
0.0011564805960992
 40
0.0011564805960992
 10
55.43503934133451
 20
96.44348523360456
 30
0.0
 10
55.26838839098559
 20
96.38005977554377
 30
0.0
 10
55.10172879840295
 20
96.3167042518885
 30
0.0
 10
54.93506174597439
 20
96.25340666753853
 30
0.0
 10
54.76839460941058
 20
96.19010905123527
 30
0.0
 10
54.6017200019645
 20
96.12686925629454
 30
0.0
 10
54.43503934133444
 20
96.0636692496557
 30
0.0
  0
CIRCLE
  5
121
330
1F
100
AcDbEntity
  8
0
  6
HIDDEN
 62
     7
370
     0
100
AcDbCircle
 10
93.3350393413
 20
106.044312026
 30
0.0
 40
5.0
  0
LINE
  5
122
330
1F
100
AcDbEntity
  8
0
  6
HIDDEN
 62
     7
370
     0
100
AcDbLine
 10
210.3350393413
 20
103.544312026
 30
0.0
 11
210.3350393413
 21
108.544312026
 31
0.0
  0
LINE
  5
123
330
1F
100
AcDbEntity
  8
0
  6
HIDDEN
 62
     7
370
     0
100
AcDbLine
 10
197.3350393413
 20
103.044312026
 30
0.0
 11
197.3350393413
 21
109.044312026
 31
0.0
  0
LINE
  5
124
330
1F
100
AcDbEntity
  8
0
  6
HIDDEN
 62
     7
370
     0
100
AcDbLine
 10
196.8350393413
 20
103.544312026
 30
0.0
 11
196.8350393413
 21
108.544312026
 31
0.0
  0
LINE
  5
125
330
1F
100
AcDbEntity
  8
0
  6
HIDDEN
 62
     7
370
     0
100
AcDbLine
 10
212.8350393413
 20
104.7565352529
 30
0.0
 11
210.8350393413
 21
104.7565352529
 31
0.0
  0
LINE
  5
126
330
1F
100
AcDbEntity
  8
0
  6
HIDDEN
 62
     7
370
     0
100
AcDbLine
 10
212.8350393413
 20
103.544312026
 30
0.0
 11
212.8350393413
 21
104.7565352529
 31
0.0
  0
LINE
  5
127
330
1F
100
AcDbEntity
  8
0
  6
HIDDEN
 62
     7
370
     0
100
AcDbLine
 10
210.8350393413
 20
105.3488666231
 30
0.0
 11
212.8350393413
 21
105.3488666231
 31
0.0
  0
LINE
  5
128
330
1F
100
AcDbEntity
  8
0
  6
HIDDEN
 62
     7
370
     0
100
AcDbLine
 10
212.8350393413
 20
107.3320887991
 30
0.0
 11
210.8350393413
 21
107.3320887991
 31
0.0
  0
LINE
  5
129
330
1F
100
AcDbEntity
  8
0
  6
HIDDEN
 62
     7
370
     0
100
AcDbLine
 10
212.8350393413
 20
106.7397574289
 30
0.0
 11
212.8350393413
 21
108.544312026
 31
0.0
  0
LINE
  5
12A
330
1F
100
AcDbEntity
  8
0
  6
HIDDEN
 62
     7
370
     0
100
AcDbLine
 10
210.8350393413
 20
106.7397574289
 30
0.0
 11
212.8350393413
 21
106.7397574289
 31
0.0
  0
LINE
  5
12B
330
1F
100
AcDbEntity
  8
0
  6
HIDDEN
 62
     7
370
     0
100
AcDbLine
 10
210.8350393413
 20
104.7565352529
 30
0.0
 11
210.8350393413
 21
106.7397574289
 31
0.0
  0
LINE
  5
12C
330
1F
100
AcDbEntity
  8
0
  6
HIDDEN
 62
     7
370
     0
100
AcDbLine
 10
210.8350393413
 20
106.8866696379
 30
0.0
 11
210.8350393413
 21
106.7397574289
 31
0.0
  0
LINE
  5
12D
330
1F
100
AcDbEntity
  8
0
  6
HIDDEN
 62
     7
370
     0
100
AcDbLine
 10
210.8350393413
 20
104.9034474619
 30
0.0
 11
212.8350393413
 21
104.9034474619
 31
0.0
  0
LINE
  5
12E
330
1F
100
AcDbEntity
  8
0
  6
HIDDEN
 62
     7
370
     0
100
AcDbLine
 10
212.8350393413
 20
104.9034474619
 30
0.0
 11
212.8350393413
 21
104.7565352529
 31
0.0
  0
LINE
  5
12F
330
1F
100
AcDbEntity
  8
0
  6
HIDDEN
 62
     7
370
     0
100
AcDbLine
 10
212.8350393413
 20
106.8866696379
 30
0.0
 11
210.8350393413
 21
106.8866696379
 31
0.0
  0
LINE
  5
130
330
1F
100
AcDbEntity
  8
0
  6
HIDDEN
 62
     7
370
     0
100
AcDbLine
 10
208.3350393413
 20
106.6201101814
 30
0.0
 11
208.3350393413
 21
105.8204318118
 31
0.0
  0
LINE
  5
131
330
1F
100
AcDbEntity
  8
0
  6
HIDDEN
 62
     7
370
     0
100
AcDbLine
 10
201.3350393413
 20
105.8204318118
 30
0.0
 11
201.3350393413
 21
106.6201101814
 31
0.0
  0
LINE
  5
132
330
1F
100
AcDbEntity
  8
0
  6
HIDDEN
 62
     7
370
     0
100
AcDbLine
 10
201.3350393413
 20
105.1326935494
 30
0.0
 11
201.3350393413
 21
105.8204318118
 31
0.0
  0
LINE
  5
133
330
1F
100
AcDbEntity
  8
0
  6
HIDDEN
 62
     7
370
     0
100
AcDbLine
 10
201.3350393413
 20
105.8204318118
 30
0.0
 11
196.8350393413
 21
105.8204318118
 31
0.0
  0
LINE
  5
134
330
1F
100
AcDbEntity
  8
0
  6
HIDDEN
 62
     7
370
     0
100
AcDbLine
 10
208.3350393413
 20
105.8204318118
 30
0.0
 11
208.3350393413
 21
105.1326935494
 31
0.0
  0
LINE
  5
135
330
1F
100
AcDbEntity
  8
0
  6
HIDDEN
 62
     7
370
     0
100
AcDbLine
 10
208.3350393413
 20
105.8204318118
 30
0.0
 11
210.8350393413
 21
105.8204318118
 31
0.0
  0
LINE
  5
136
330
1F
100
AcDbEntity
  8
0
  6
HIDDEN
 62
     7
370
     0
100
AcDbLine
 10
208.3350393413
 20
107.419788551
 30
0.0
 11
208.3350393413
 21
106.6201101814
 31
0.0
  0
LINE
  5
137
330
1F
100
AcDbEntity
  8
0
  6
HIDDEN
 62
     7
370
     0
100
AcDbLine
 10
201.3350393413
 20
106.6201101814
 30
0.0
 11
201.3350393413
 21
107.419788551
 31
0.0
  0
LINE
  5
138
330
1F
100
AcDbEntity
  8
0
  6
HIDDEN
 62
     7
370
     0
100
AcDbLine
 10
201.3350393413
 20
104.4449552869
 30
0.0
 11
201.3350393413
 21
105.1326935494
 31
0.0
  0
LINE
  5
139
330
1F
100
AcDbEntity
  8
0
  6
HIDDEN
 62
     7
370
     0
100
AcDbLine
 10
208.3350393413
 20
105.1326935494
 30
0.0
 11
208.3350393413
 21
104.4449552869
 31
0.0
  0
LINE
  5
13A
330
1F
100
AcDbEntity
  8
0
  6
HIDDEN
 62
     7
370
     0
100
AcDbLine
 10
208.3350393413
 20
107.531728658
 30
0.0
 11
208.3350393413
 21
107.419788551
 31
0.0
  0
LINE
  5
13B
330
1F
100
AcDbEntity
  8
0
  6
HIDDEN
 62
     7
370
     0
100
AcDbLine
 10
208.3350393413
 20
107.419788551
 30
0.0
 11
212.8350393413
 21
107.419788551
 31
0.0
  0
LINE
  5
13C
330
1F
100
AcDbEntity
  8
0
  6
HIDDEN
 62
     7
370
     0
100
AcDbLine
 10
201.3350393413
 20
107.419788551
 30
0.0
 11
201.3350393413
 21
107.531728658
 31
0.0
  0
LINE
  5
13D
330
1F
100
AcDbEntity
  8
0
  6
HIDDEN
 62
     7
370
     0
100
AcDbLine
 10
201.3350393413
 20
107.419788551
 30
0.0
 11
196.8350393413
 21
107.419788551
 31
0.0
  0
LINE
  5
13E
330
1F
100
AcDbEntity
  8
0
  6
HIDDEN
 62
     7
370
     0
100
AcDbLine
 10
201.3350393413
 20
104.668835501
 30
0.0
 11
196.8350393413
 21
104.668835501
 31
0.0
  0
LINE
  5
13F
330
1F
100
AcDbEntity
  8
0
  6
HIDDEN
 62
     7
370
     0
100
AcDbLine
 10
201.3350393413
 20
104.4449552869
 30
0.0
 11
196.8350393413
 21
104.4449552869
 31
0.0
  0
LINE
  5
140
330
1F
100
AcDbEntity
  8
0
  6
HIDDEN
 62
     7
370
     0
100
AcDbLine
 10
208.3350393413
 20
104.668835501
 30
0.0
 11
212.8350393413
 21
104.668835501
 31
0.0
  0
LINE
  5
141
330
1F
100
AcDbEntity
  8
0
  6
HIDDEN
 62
     7
370
     0
100
AcDbLine
 10
208.3350393413
 20
104.4449552869
 30
0.0
 11
212.8350393413
 21
104.4449552869
 31
0.0
  0
LINE
  5
142
330
1F
100
AcDbEntity
  8
0
  6
HIDDEN
 62
     7
370
     0
100
AcDbLine
 10
201.3350393413
 20
107.531728658
 30
0.0
 11
201.3350393413
 21
107.6436687651
 31
0.0
  0
LINE
  5
143
330
1F
100
AcDbEntity
  8
0
  6
HIDDEN
 62
     7
370
     0
100
AcDbLine
 10
208.3350393413
 20
107.6436687651
 30
0.0
 11
208.3350393413
 21
107.531728658
 31
0.0
  0
LINE
  5
144
330
1F
100
AcDbEntity
  8
0
  6
HIDDEN
 62
     7
370
     0
100
AcDbLine
 10
210.8350393413
 20
107.1851765901
 30
0.0
 11
212.8350393413
 21
107.1851765901
 31
0.0
  0
LINE
  5
145
330
1F
100
AcDbEntity
  8
0
  6
HIDDEN
 62
     7
370
     0
100
AcDbLine
 10
210.8350393413
 20
106.8866696379
 30
0.0
 11
210.8350393413
 21
107.1851765901
 31
0.0
  0
LINE
  5
146
330
1F
100
AcDbEntity
  8
0
  6
HIDDEN
 62
     7
370
     0
100
AcDbLine
 10
208.3350393413
 20
106.2681922402
 30
0.0
 11
210.8350393413
 21
106.2681922402
 31
0.0
  0
LINE
  5
147
330
1F
100
AcDbEntity
  8
0
  6
HIDDEN
 62
     7
370
     0
100
AcDbLine
 10
208.3350393413
 20
107.6436687651
 30
0.0
 11
212.8350393413
 21
107.6436687651
 31
0.0
  0
LINE
  5
148
330
1F
100
AcDbEntity
  8
0
  6
HIDDEN
 62
     7
370
     0
100
AcDbLine
 10
201.3350393413
 20
106.2681922402
 30
0.0
 11
196.8350393413
 21
106.2681922402
 31
0.0
  0
LINE
  5
149
330
1F
100
AcDbEntity
  8
0
  6
HIDDEN
 62
     7
370
     0
100
AcDbLine
 10
201.3350393413
 20
107.6436687651
 30
0.0
 11
196.8350393413
 21
107.6436687651
 31
0.0
  0
LINE
  5
14A
330
1F
100
AcDbEntity
  8
0
  6
HIDDEN
 62
     7
370
     0
100
AcDbLine
 10
212.8350393413
 20
105.2019544141
 30
0.0
 11
210.8350393413
 21
105.2019544141
 31
0.0
  0
LINE
  5
14B
330
1F
100
AcDbEntity
  8
0
  6
HIDDEN
 62
     7
370
     0
100
AcDbLine
 10
212.8350393413
 20
105.2019544141
 30
0.0
 11
212.8350393413
 21
104.9034474619
 31
0.0
  0
LINE
  5
14C
330
1F
100
AcDbEntity
  8
0
  6
HIDDEN
 62
     7
370
     0
100
AcDbLine
 10
210.8350393413
 20
107.3320887991
 30
0.0
 11
210.8350393413
 21
107.1851765901
 31
0.0
  0
LINE
  5
14D
330
1F
100
AcDbEntity
  8
0
  6
HIDDEN
 62
     7
370
     0
100
AcDbLine
 10
212.8350393413
 20
105.3488666231
 30
0.0
 11
212.8350393413
 21
105.2019544141
 31
0.0
  0
LINE
  5
14E
330
1F
100
AcDbEntity
  8
0
  6
HIDDEN
 62
     7
370
     0
100
AcDbLine
 10
246.2026623077
 20
114.5506704717
 30
0.0
 11
246.0848828604
 21
111.552983363
 31
0.0
  0
LINE
  5
14F
330
1F
100
AcDbEntity
  8
0
  6
HIDDEN
 62
     7
370
     0
100
AcDbLine
 10
240.8687245038
 20
114.7602414588
 30
0.0
 11
240.7509450566
 21
111.7625543501
 31
0.0
  0
LINE
  5
150
330
1F
100
AcDbEntity
  8
0
  6
HIDDEN
 62
     7
370
     0
100
AcDbLine
 10
246.3350393413
 20
113.794890695
 30
0.0
 11
246.2577171342
 21
111.8269091081
 31
0.0
  0
LINE
  5
151
330
1F
100
AcDbEntity
  8
0
  6
HIDDEN
 62
     7
370
     0
100
AcDbLine
 10
240.3494800778
 20
114.2802568486
 30
0.0
 11
240.2709604463
 21
112.2817987761
 31
0.0
  0
LINE
  5
152
330
1F
100
AcDbEntity
  8
0
  6
HIDDEN
 62
     7
370
     0
100
AcDbLine
 10
244.307136407
 20
113.1239885493
 30
0.0
 11
244.2776915452
 21
112.3745667721
 31
0.0
  0
LINE
  5
153
330
1F
100
AcDbEntity
  8
0
  6
HIDDEN
 62
     7
370
     0
100
AcDbLine
 10
244.307136407
 20
113.1239885493
 30
0.0
 11
246.3055944795
 21
113.0454689178
 31
0.0
  0
LINE
  5
154
330
1F
100
AcDbEntity
  8
0
  6
HIDDEN
 62
     7
370
     0
100
AcDbLine
 10
244.3365812689
 20
113.8734103265
 30
0.0
 11
244.307136407
 21
113.1239885493
 31
0.0
  0
LINE
  5
155
330
1F
100
AcDbEntity
  8
0
  6
HIDDEN
 62
     7
370
     0
100
AcDbLine
 10
244.3365812689
 20
113.8734103265
 30
0.0
 11
246.3350393413
 21
113.794890695
 31
0.0
  0
LINE
  5
156
330
1F
100
AcDbEntity
  8
0
  6
HIDDEN
 62
     7
370
     0
100
AcDbLine
 10
244.2776915452
 20
112.3745667721
 30
0.0
 11
246.2761496177
 21
112.2960471406
 31
0.0
  0
LINE
  5
157
330
1F
100
AcDbEntity
  8
0
  6
HIDDEN
 62
     7
370
     0
100
AcDbLine
 10
246.3166068578
 20
100.2640287275
 30
0.0
 11
246.3350393413
 21
99.794890695
 31
0.0
  0
LINE
  5
158
330
1F
100
AcDbEntity
  8
0
  6
HIDDEN
 62
     7
370
     0
100
AcDbLine
 10
246.2026623077
 20
99.0391109182
 30
0.0
 11
246.2615520314
 21
97.5402673638
 31
0.0
  0
LINE
  5
159
330
1F
100
AcDbEntity
  8
0
  6
HIDDEN
 62
     7
370
     0
100
AcDbLine
 10
246.1437725841
 20
100.5379544725
 30
0.0
 11
246.2026623077
 21
99.0391109182
 31
0.0
  0
LINE
  5
15A
330
1F
100
AcDbEntity
  8
0
  6
HIDDEN
 62
     7
370
     0
100
AcDbLine
 10
240.8687245038
 20
98.8295399311
 30
0.0
 11
240.9276142275
 21
97.3306963767
 31
0.0
  0
LINE
  5
15B
330
1F
100
AcDbEntity
  8
0
  6
HIDDEN
 62
     7
370
     0
100
AcDbLine
 10
240.8098347802
 20
100.3283834855
 30
0.0
 11
240.8687245038
 21
98.8295399311
 31
0.0
  0
LINE
  5
15C
330
1F
100
AcDbEntity
  8
0
  6
HIDDEN
 62
     7
370
     0
100
AcDbLine
 10
240.3691099857
 20
98.8099100232
 30
0.0
 11
240.4083698015
 21
97.810680987
 31
0.0
  0
LINE
  5
15D
330
1F
100
AcDbEntity
  8
0
  6
HIDDEN
 62
     7
370
     0
100
AcDbLine
 10
240.32985017
 20
99.8091390595
 30
0.0
 11
240.3691099857
 21
98.8099100232
 31
0.0
  0
LINE
  5
15E
330
1F
100
AcDbEntity
  8
0
  6
HIDDEN
 62
     7
370
     0
100
AcDbLine
 10
244.3660261307
 20
98.9669492863
 30
0.0
 11
246.3644842032
 21
99.0454689178
 31
0.0
  0
LINE
  5
15F
330
1F
100
AcDbEntity
  8
0
  6
HIDDEN
 62
     7
370
     0
100
AcDbLine
 10
244.3365812689
 20
99.7163710634
 30
0.0
 11
244.3660261307
 21
98.9669492863
 31
0.0
  0
LINE
  5
160
330
1F
100
AcDbEntity
  8
0
  6
HIDDEN
 62
     7
370
     0
100
AcDbLine
 10
244.3954709925
 20
98.2175275091
 30
0.0
 11
244.3660261307
 21
98.9669492863
 31
0.0
  0
LINE
  5
161
330
1F
100
AcDbEntity
  8
0
  6
HIDDEN
 62
     7
370
     0
100
AcDbLine
 10
244.3954709925
 20
98.2175275091
 30
0.0
 11
246.393929065
 21
98.2960471406
 31
0.0
  0
LINE
  5
162
330
1F
100
AcDbEntity
  8
0
  6
HIDDEN
 62
     7
370
     0
100
AcDbLine
 10
244.3365812689
 20
99.7163710634
 30
0.0
 11
246.3350393413
 21
99.794890695
 31
0.0
  0
LINE
  5
163
330
1F
100
AcDbEntity
  8
0
  6
HIDDEN
 62
     7
370
     0
100
AcDbLine
 10
90.3350393413
 20
120.3449425317
 30
0.0
 11
90.3350393413
 21
118.4382526689
 31
0.0
  0
LINE
  5
164
330
1F
100
AcDbEntity
  8
0
  6
HIDDEN
 62
     7
370
     0
100
AcDbLine
 10
98.3350393413
 20
118.4382526689
 30
0.0
 11
98.3350393413
 21
120.3421471758
 31
0.0
  0
LINE
  5
165
330
1F
100
AcDbEntity
  8
0
  6
HIDDEN
 62
     7
370
     0
100
AcDbLine
 10
86.3350393413
 20
80.72038088
 30
0.0
 11
86.4292001169
 21
81.3903696112
 31
0.0
  0
LINE
  5
166
330
1F
100
AcDbEntity
  8
0
  6
HIDDEN
 62
     7
370
     0
100
AcDbLine
 10
86.4292001169
 20
130.6982544408
 30
0.0
 11
86.3350393413
 21
131.368243172
 31
0.0
  0
ARC
  5
167
330
1F
100
AcDbEntity
  8
0
  6
HIDDEN
 62
     7
370
     0
100
AcDbCircle
 10
85.8350325887
 20
81.4738744116
 30
0.0
 40
0.60000675266771
100
AcDbArc
 50
352.0
 51
0.0
  0
ARC
  5
168
330
1F
100
AcDbEntity
  8
0
  6
HIDDEN
 62
     7
370
     0
100
AcDbCircle
 10
85.8350325887
 20
81.4738744116
 30
0.0
 40
0.6000067526677164
100
AcDbArc
 50
0.0
 51
33.5571153394
  0
ARC
  5
169
330
1F
100
AcDbEntity
  8
0
  6
HIDDEN
 62
     7
370
     0
100
AcDbCircle
 10
85.8350325887
 20
130.6147496404
 30
0.0
 40
0.6000067526677113
100
AcDbArc
 50
348.75
 51
8.0
  0
LWPOLYLINE
  5
16A
330
1F
100
AcDbEntity
  8
0
  6
HIDDEN
 62
     7
370
     0
100
AcDbPolyline
 90
        3
 70
   128
 43
0.0
 10
86.4235103798
 20
130.4976941298
 10
86.3893665468
 20
130.3851369968
 10
86.3350393413
 20
130.2830851254
  0
LINE
  5
16B
330
1F
100
AcDbEntity
  8
0
  6
HIDDEN
 62
     7
370
     0
100
AcDbLine
 10
86.4350393413
 20
81.4738744116
 30
0.0
 11
86.4350393413
 21
130.6147496404
 31
0.0
  0
ARC
  5
16C
330
1F
100
AcDbEntity
  8
0
  6
HIDDEN
 62
     7
370
     0
100
AcDbCircle
 10
69.4174749066
 20
86.644312026
 30
0.0
 40
0.6000000000000032
100
AcDbArc
 50
210.0
 51
270.0
  0
ARC
  5
16D
330
1F
100
AcDbEntity
  8
0
  6
HIDDEN
 62
     7
370
     0
100
AcDbCircle
 10
69.4174749066
 20
125.444312026
 30
0.0
 40
0.599999999999989
100
AcDbArc
 50
90.0
 51
150.0
  0
ARC
  5
16E
330
1F
100
AcDbEntity
  8
0
  6
HIDDEN
 62
     7
370
     0
100
AcDbCircle
 10
80.0900413429
 20
94.044312026
 30
0.0
 40
8.000000000000012
100
AcDbArc
 50
277.1234776659
 51
321.3178125465
  0
ARC
  5
16F
330
1F
100
AcDbEntity
  8
0
  6
HIDDEN
 62
     7
370
     0
100
AcDbCircle
 10
80.0900413429
 20
118.044312026
 30
0.0
 40
8.000000000000004
100
AcDbArc
 50
38.6821874535
 51
82.8557585992
  0
LINE
  5
170
330
1F
100
AcDbEntity
  8
0
  6
HIDDEN
 62
     7
370
     0
100
AcDbLine
 10
69.4174749066
 20
86.044312026
 30
0.0
 11
73.5950618005
 21
86.044312026
 31
0.0
  0
LINE
  5
171
330
1F
100
AcDbEntity
  8
0
  6
HIDDEN
 62
     7
370
     0
100
AcDbLine
 10
73.5950618005
 20
126.044312026
 30
0.0
 11
69.4174749066
 21
126.044312026
 31
0.0
  0
LINE
  5
172
330
1F
100
AcDbEntity
  8
0
  6
HIDDEN
 62
     7
370
     0
100
AcDbLine
 10
68.8978596644
 20
125.744312026
 30
0.0
 11
67.3390139376
 21
123.044312026
 31
0.0
  0
LINE
  5
173
330
1F
100
AcDbEntity
  8
0
  6
HIDDEN
 62
     7
370
     0
100
AcDbLine
 10
67.3390139376
 20
89.044312026
 30
0.0
 11
68.8978596644
 21
86.344312026
 31
0.0
  0
LINE
  5
174
330
1F
100
AcDbEntity
  8
0
  6
HIDDEN
 62
     7
370
     0
100
AcDbLine
 10
90.3350393413
 20
133.3240442631
 30
0.0
 11
90.3350393413
 21
129.9899144406
 31
0.0
  0
LINE
  5
175
330
1F
100
AcDbEntity
  8
0
  6
HIDDEN
 62
     7
370
     0
100
AcDbLine
 10
98.3350393413
 20
129.9899144406
 30
0.0
 11
98.3350393413
 21
133.3226695738
 31
0.0
  0
ARC
  5
176
330
1F
100
AcDbEntity
  8
0
  6
HIDDEN
 62
     7
370
     0
100
AcDbCircle
 10
94.7850393413
 20
90.319312026
 30
0.0
 40
1.5
100
AcDbArc
 50
238.2116693829
 51
0.0
  0
ARC
  5
177
330
1F
100
AcDbEntity
  8
0
  6
HIDDEN
 62
     7
370
     0
100
AcDbCircle
 10
94.7850393413
 20
121.769312026
 30
0.0
 40
1.5
100
AcDbArc
 50
0.0
 51
121.7883306171
  0
LINE
  5
178
330
1F
100
AcDbEntity
  8
0
  6
HIDDEN
 62
     7
370
     0
100
AcDbLine
 10
64.5350393413
 20
89.044312026
 30
0.0
 11
67.3390139376
 21
89.044312026
 31
0.0
  0
LINE
  5
179
330
1F
100
AcDbEntity
  8
0
  6
HIDDEN
 62
     7
370
     0
100
AcDbLine
 10
67.3390139376
 20
123.044312026
 30
0.0
 11
60.5350393413
 21
123.044312026
 31
0.0
  0
LINE
  5
17A
330
1F
100
AcDbEntity
  8
0
  6
HIDDEN
 62
     7
370
     0
100
AcDbLine
 10
86.3350393413
 20
89.044312026
 30
0.0
 11
93.9948653099
 21
89.044312026
 31
0.0
  0
LINE
  5
17B
330
1F
100
AcDbEntity
  8
0
  6
HIDDEN
 62
     7
370
     0
100
AcDbLine
 10
93.9948653099
 20
123.044312026
 30
0.0
 11
86.3350393413
 21
123.044312026
 31
0.0
  0
LINE
  5
17C
330
1F
100
AcDbEntity
  8
0
  6
HIDDEN
 62
     7
370
     0
100
AcDbLine
 10
105.1350393413
 20
96.544312026
 30
0.0
 11
108.1350393413
 21
96.544312026
 31
0.0
  0
LINE
  5
17D
330
1F
100
AcDbEntity
  8
0
  6
HIDDEN
 62
     7
370
     0
100
AcDbLine
 10
108.1350393413
 20
115.544312026
 30
0.0
 11
105.1350393413
 21
115.544312026
 31
0.0
  0
LINE
  5
17E
330
1F
100
AcDbEntity
  8
0
  6
HIDDEN
 62
     7
370
     0
100
AcDbLine
 10
96.2850393413
 20
97.044312026
 30
0.0
 11
96.7850393413
 21
97.544312026
 31
0.0
  0
LINE
  5
17F
330
1F
100
AcDbEntity
  8
0
  6
HIDDEN
 62
     7
370
     0
100
AcDbLine
 10
96.7850393413
 20
114.544312026
 30
0.0
 11
96.2850393413
 21
115.044312026
 31
0.0
  0
LINE
  5
180
330
1F
100
AcDbEntity
  8
0
  6
HIDDEN
 62
     7
370
     0
100
AcDbLine
 10
96.7850393413
 20
97.544312026
 30
0.0
 11
105.1350393413
 21
97.544312026
 31
0.0
  0
LINE
  5
181
330
1F
100
AcDbEntity
  8
0
  6
HIDDEN
 62
     7
370
     0
100
AcDbLine
 10
105.1350393413
 20
114.544312026
 30
0.0
 11
96.7850393413
 21
114.544312026
 31
0.0
  0
LINE
  5
182
330
1F
100
AcDbEntity
  8
0
  6
HIDDEN
 62
     7
370
     0
100
AcDbLine
 10
91.2850393413
 20
137.544312026
 30
0.0
 11
91.2850393413
 21
132.444312026
 31
0.0
  0
ARC
  5
183
330
1F
100
AcDbEntity
  8
0
  6
HIDDEN
 62
     7
370
     0
100
AcDbCircle
 10
245.8350393413
 20
101.0076177779
 30
0.0
 40
0.5000000000000568
100
AcDbArc
 50
0.0
 51
80.0
  0
ARC
  5
184
330
1F
100
AcDbEntity
  8
0
  6
HIDDEN
 62
     7
370
     0
100
AcDbCircle
 10
245.8350393413
 20
111.0810062741
 30
0.0
 40
0.5000000000000568
100
AcDbArc
 50
280.0
 51
0.0
  0
LINE
  5
185
330
1F
100
AcDbEntity
  8
0
  6
HIDDEN
 62
     7
370
     0
100
AcDbLine
 10
245.9218634302
 20
110.5886023976
 30
0.0
 11
242.8350393413
 21
110.044312026
 31
0.0
  0
LINE
  5
186
330
1F
100
AcDbEntity
  8
0
  6
HIDDEN
 62
     7
370
     0
100
AcDbLine
 10
242.8350393413
 20
102.044312026
 30
0.0
 11
245.9218634302
 21
101.5000216544
 31
0.0
  0
LINE
  5
187
330
1F
100
AcDbEntity
  8
0
  6
HIDDEN
 62
     7
370
     0
100
AcDbLine
 10
81.5194771718
 20
81.9649406925
 30
0.0
 11
81.0850450223
 21
82.4440067116
 31
0.0
  0
LINE
  5
188
330
1F
100
AcDbEntity
  8
0
  6
HIDDEN
 62
     7
370
     0
100
AcDbLine
 10
73.5850416972
 20
82.8656946707
 30
0.0
 11
73.1026079539
 21
82.3866286953
 31
0.0
  0
LINE
  5
189
330
1F
100
AcDbEntity
  8
0
  6
HIDDEN
 62
     7
370
     0
100
AcDbLine
 10
73.1024860257
 20
129.7019900663
 30
0.0
 11
73.5850367766
 21
129.2228698084
 31
0.0
  0
LINE
  5
18A
330
1F
100
AcDbEntity
  8
0
  6
HIDDEN
 62
     7
370
     0
100
AcDbLine
 10
81.0850392233
 20
129.6445675861
 30
0.0
 11
81.5195816137
 21
130.1236878367
 31
0.0
  0
ARC
  5
18B
330
1F
100
AcDbEntity
  8
0
  6
HIDDEN
 62
     7
370
     0
100
AcDbCircle
 10
219.4402653232
 20
102.144312026
 30
0.0
 40
0.4000000000000074
100
AcDbArc
 50
270.0
 51
290.0
  0
ARC
  5
18C
330
1F
100
AcDbEntity
  8
0
  6
HIDDEN
 62
     7
370
     0
100
AcDbCircle
 10
219.4402653232
 20
109.944312026
 30
0.0
 40
0.4000000000000057
100
AcDbArc
 50
70.0
 51
90.0
  0
LINE
  5
18D
330
1F
100
AcDbEntity
  8
0
  6
HIDDEN
 62
     7
370
     0
100
AcDbLine
 10
213.3350393413
 20
101.744312026
 30
0.0
 11
219.4402653232
 21
101.744312026
 31
0.0
  0
LINE
  5
18E
330
1F
100
AcDbEntity
  8
0
  6
HIDDEN
 62
     7
370
     0
100
AcDbLine
 10
210.2350393413
 20
101.744312026
 30
0.0
 11
210.3353074177
 21
101.744312026
 31
0.0
  0
LINE
  5
18F
330
1F
100
AcDbEntity
  8
0
  6
HIDDEN
 62
     7
370
     0
100
AcDbLine
 10
210.3354276786
 20
110.344312026
 30
0.0
 11
210.2350393413
 21
110.344312026
 31
0.0
  0
LINE
  5
190
330
1F
100
AcDbEntity
  8
0
  6
HIDDEN
 62
     7
370
     0
100
AcDbLine
 10
219.4402653232
 20
110.344312026
 30
0.0
 11
213.334762236
 21
110.344312026
 31
0.0
  0
ARC
  5
191
330
1F
100
AcDbEntity
  8
0
  6
HIDDEN
 62
     7
370
     0
100
AcDbCircle
 10
210.2350393413
 20
102.144312026
 30
0.0
 40
0.4000000000000057
100
AcDbArc
 50
180.0
 51
270.0
  0
ARC
  5
192
330
1F
100
AcDbEntity
  8
0
  6
HIDDEN
 62
     7
370
     0
100
AcDbCircle
 10
210.2350393413
 20
109.944312026
 30
0.0
 40
0.4000000000000057
100
AcDbArc
 50
90.0
 51
180.0
  0
LINE
  5
193
330
1F
100
AcDbEntity
  8
0
  6
HIDDEN
 62
     7
370
     0
100
AcDbLine
 10
219.5770733805
 20
101.7684349777
 30
0.0
 11
220.3350393413
 21
102.044312026
 31
0.0
  0
LINE
  5
194
330
1F
100
AcDbEntity
  8
0
  6
HIDDEN
 62
     7
370
     0
100
AcDbLine
 10
220.3350393413
 20
110.044312026
 30
0.0
 11
219.5770733805
 21
110.3201890743
 31
0.0
  0
LINE
  5
195
330
1F
100
AcDbEntity
  8
0
  6
HIDDEN
 62
     7
370
     0
100
AcDbLine
 10
108.1350393413
 20
101.844312026
 30
0.0
 11
150.4350393413
 21
101.844312026
 31
0.0
  0
LINE
  5
196
330
1F
100
AcDbEntity
  8
0
  6
HIDDEN
 62
     7
370
     0
100
AcDbLine
 10
150.4350393413
 20
110.244312026
 30
0.0
 11
108.1350393413
 21
110.244312026
 31
0.0
  0
LINE
  5
197
330
1F
100
AcDbEntity
  8
0
  6
HIDDEN
 62
     7
370
     0
100
AcDbLine
 10
150.4350393413
 20
101.844312026
 30
0.0
 11
151.4565023937
 21
103.544312026
 31
0.0
  0
LINE
  5
198
330
1F
100
AcDbEntity
  8
0
  6
HIDDEN
 62
     7
370
     0
100
AcDbLine
 10
151.4565023937
 20
108.544312026
 30
0.0
 11
150.4350393413
 21
110.244312026
 31
0.0
  0
LINE
  5
199
330
1F
100
AcDbEntity
  8
0
  6
HIDDEN
 62
     7
370
     0
100
AcDbLine
 10
220.3350393413
 20
102.044312026
 30
0.0
 11
242.8350393413
 21
102.044312026
 31
0.0
  0
LINE
  5
19A
330
1F
100
AcDbEntity
  8
0
  6
HIDDEN
 62
     7
370
     0
100
AcDbLine
 10
242.8350393413
 20
110.044312026
 30
0.0
 11
220.3350393413
 21
110.044312026
 31
0.0
  0
LINE
  5
19B
330
1F
100
AcDbEntity
  8
0
  6
HIDDEN
 62
     7
370
     0
100
AcDbLine
 10
81.0850393413
 20
125.9821482166
 30
0.0
 11
81.0850393413
 21
129.7445980868
 31
0.0
  0
LINE
  5
19C
330
1F
100
AcDbEntity
  8
0
  6
HIDDEN
 62
     7
370
     0
100
AcDbLine
 10
73.5850393413
 20
129.2226146172
 30
0.0
 11
73.5850393413
 21
126.0424404788
 31
0.0
  0
LINE
  5
19D
330
1F
100
AcDbEntity
  8
0
  6
HIDDEN
 62
     7
370
     0
100
AcDbLine
 10
81.0850393413
 20
82.3439471661
 30
0.0
 11
81.0850393413
 21
86.1064758354
 31
0.0
  0
LINE
  5
19E
330
1F
100
AcDbEntity
  8
0
  6
HIDDEN
 62
     7
370
     0
100
AcDbLine
 10
73.5850393413
 20
86.0461835732
 30
0.0
 11
73.5850393413
 21
82.8660179085
 31
0.0
  0
LINE
  5
19F
330
1F
100
AcDbEntity
  8
0
  6
HIDDEN
 62
     7
370
     0
100
AcDbLine
 10
161.7850393413
 20
92.544312026
 30
0.0
 11
160.7850393413
 21
93.1216622952
 31
0.0
  0
LINE
  5
1A0
330
1F
100
AcDbEntity
  8
0
  6
HIDDEN
 62
     7
370
     0
100
AcDbLine
 10
155.7850393413
 20
93.1216622952
 30
0.0
 11
154.7850393413
 21
92.544312026
 31
0.0
  0
LINE
  5
1A1
330
1F
100
AcDbEntity
  8
0
  6
HIDDEN
 62
     7
370
     0
100
AcDbLine
 10
154.7850393413
 20
119.544312026
 30
0.0
 11
155.7850393413
 21
118.9669617568
 31
0.0
  0
LINE
  5
1A2
330
1F
100
AcDbEntity
  8
0
  6
HIDDEN
 62
     7
370
     0
100
AcDbLine
 10
160.7850393413
 20
118.9669617568
 30
0.0
 11
161.7850393413
 21
119.544312026
 31
0.0
  0
LINE
  5
1A3
330
1F
100
AcDbEntity
  8
0
  6
HIDDEN
 62
     7
370
     0
100
AcDbLine
 10
209.8350393413
 20
109.044312026
 30
0.0
 11
209.3350393413
 21
108.544312026
 31
0.0
  0
LINE
  5
1A4
330
1F
100
AcDbEntity
  8
0
  6
HIDDEN
 62
     7
370
     0
100
AcDbLine
 10
209.3350393413
 20
103.544312026
 30
0.0
 11
209.8350393413
 21
103.044312026
 31
0.0
  0
LINE
  5
1A5
330
1F
100
AcDbEntity
  8
0
  6
HIDDEN
 62
     7
370
     0
100
AcDbLine
 10
155.7850393413
 20
118.9669617568
 30
0.0
 11
155.7850393413
 21
111.544312026
 31
0.0
  0
LINE
  5
1A6
330
1F
100
AcDbEntity
  8
0
  6
HIDDEN
 62
     7
370
     0
100
AcDbLine
 10
160.7850393413
 20
111.544312026
 30
0.0
 11
160.7850393413
 21
118.9669617568
 31
0.0
  0
LINE
  5
1A7
330
1F
100
AcDbEntity
  8
0
  6
HIDDEN
 62
     7
370
     0
100
AcDbLine
 10
151.4565023937
 20
103.544312026
 30
0.0
 11
209.3350393413
 21
103.544312026
 31
0.0
  0
LINE
  5
1A8
330
1F
100
AcDbEntity
  8
0
  6
HIDDEN
 62
     7
370
     0
100
AcDbLine
 10
209.3350393413
 20
108.544312026
 30
0.0
 11
151.4565023937
 21
108.544312026
 31
0.0
  0
LINE
  5
1A9
330
1F
100
AcDbEntity
  8
0
  6
HIDDEN
 62
     7
370
     0
100
AcDbLine
 10
155.7850393413
 20
111.544312026
 30
0.0
 11
158.2850393413
 21
110.0421604784
 31
0.0
  0
LINE
  5
1AA
330
1F
100
AcDbEntity
  8
0
  6
HIDDEN
 62
     7
370
     0
100
AcDbLine
 10
158.2850393413
 20
110.0421604784
 30
0.0
 11
160.7850393413
 21
111.544312026
 31
0.0
  0
LINE
  5
1AB
330
1F
100
AcDbEntity
  8
0
  6
HIDDEN
 62
     7
370
     0
100
AcDbLine
 10
160.7850393413
 20
93.1216622952
 30
0.0
 11
160.7850393413
 21
100.544312026
 31
0.0
  0
LINE
  5
1AC
330
1F
100
AcDbEntity
  8
0
  6
HIDDEN
 62
     7
370
     0
100
AcDbLine
 10
155.7850393413
 20
100.544312026
 30
0.0
 11
155.7850393413
 21
93.1216622952
 31
0.0
  0
LINE
  5
1AD
330
1F
100
AcDbEntity
  8
0
  6
HIDDEN
 62
     7
370
     0
100
AcDbLine
 10
160.7850393413
 20
100.544312026
 30
0.0
 11
158.2850393413
 21
102.0464635736
 31
0.0
  0
LINE
  5
1AE
330
1F
100
AcDbEntity
  8
0
  6
HIDDEN
 62
     7
370
     0
100
AcDbLine
 10
158.2850393413
 20
102.0464635736
 30
0.0
 11
155.7850393413
 21
100.544312026
 31
0.0
  0
LINE
  5
1AF
330
1F
100
AcDbEntity
  8
0
  6
HIDDEN
 62
     7
370
     0
100
AcDbLine
 10
210.3350393413
 20
113.2090297494
 30
0.0
 11
210.3350393413
 21
110.3441780235
 31
0.0
  0
LINE
  5
1B0
330
1F
100
AcDbEntity
  8
0
  6
HIDDEN
 62
     7
370
     0
100
AcDbLine
 10
210.3350393413
 20
116.544312026
 30
0.0
 11
210.3350393413
 21
115.5902460418
 31
0.0
  0
LINE
  5
1B1
330
1F
100
AcDbEntity
  8
0
  6
HIDDEN
 62
     7
370
     0
100
AcDbLine
 10
213.3350393413
 20
115.5901732415
 30
0.0
 11
213.3350393413
 21
116.544312026
 31
0.0
  0
LINE
  5
1B2
330
1F
100
AcDbEntity
  8
0
  6
HIDDEN
 62
     7
370
     0
100
AcDbLine
 10
213.3350393413
 20
110.3442164878
 30
0.0
 11
213.3350393413
 21
113.089921109
 31
0.0
  0
LINE
  5
1B3
330
1F
100
AcDbEntity
  8
0
  6
HIDDEN
 62
     7
370
     0
100
AcDbLine
 10
210.3350393413
 20
96.4983780102
 30
0.0
 11
210.3350393413
 21
96.044312026
 31
0.0
  0
LINE
  5
1B4
330
1F
100
AcDbEntity
  8
0
  6
HIDDEN
 62
     7
370
     0
100
AcDbLine
 10
210.3350393413
 20
101.7444044456
 30
0.0
 11
210.3350393413
 21
98.8795943026
 31
0.0
  0
LINE
  5
1B5
330
1F
100
AcDbEntity
  8
0
  6
HIDDEN
 62
     7
370
     0
100
AcDbLine
 10
213.3350393413
 20
98.998702943
 30
0.0
 11
213.3350393413
 21
101.744312026
 31
0.0
  0
LINE
  5
1B6
330
1F
100
AcDbEntity
  8
0
  6
HIDDEN
 62
     7
370
     0
100
AcDbLine
 10
213.3350393413
 20
96.044312026
 30
0.0
 11
213.3350393413
 21
96.4984508105
 31
0.0
  0
LINE
  5
1B7
330
1F
100
AcDbEntity
  8
0
  6
HIDDEN
 62
     7
370
     0
100
AcDbLine
 10
210.3350393413
 20
96.044312026
 30
0.0
 11
211.8350393413
 21
95.1430210975
 31
0.0
  0
LINE
  5
1B8
330
1F
100
AcDbEntity
  8
0
  6
HIDDEN
 62
     7
370
     0
100
AcDbLine
 10
211.8350393413
 20
95.1430210975
 30
0.0
 11
213.3350393413
 21
96.044312026
 31
0.0
  0
LINE
  5
1B9
330
1F
100
AcDbEntity
  8
0
  6
HIDDEN
 62
     7
370
     0
100
AcDbLine
 10
213.333665856
 20
96.4967200821
 30
0.0
 11
246.3350393413
 21
97.7933475777
 31
0.0
  0
LINE
  5
1BA
330
1F
100
AcDbEntity
  8
0
  6
HIDDEN
 62
     7
370
     0
100
AcDbLine
 10
246.3350393413
 20
100.2952764743
 30
0.0
 11
213.3350393413
 21
98.998702943
 31
0.0
  0
LINE
  5
1BB
330
1F
100
AcDbEntity
  8
0
  6
HIDDEN
 62
     7
370
     0
100
AcDbLine
 10
213.3350393413
 20
113.089921109
 30
0.0
 11
246.3350393413
 21
111.7933475777
 31
0.0
  0
LINE
  5
1BC
330
1F
100
AcDbEntity
  8
0
  6
HIDDEN
 62
     7
370
     0
100
AcDbLine
 10
246.3350393413
 20
114.2952764743
 30
0.0
 11
213.333665856
 21
115.5919039699
 31
0.0
  0
LINE
  5
1BD
330
1F
100
AcDbEntity
  8
0
  6
HIDDEN
 62
     7
370
     0
100
AcDbLine
 10
210.313719267
 20
98.879994954
 30
0.0
 11
209.6122973151
 21
97.6014715622
 31
0.0
  0
LINE
  5
1BE
330
1F
100
AcDbEntity
  8
0
  6
HIDDEN
 62
     7
370
     0
100
AcDbLine
 10
209.6122973151
 20
97.6014715622
 30
0.0
 11
210.3361258471
 21
96.4974495755
 31
0.0
  0
LINE
  5
1BF
330
1F
100
AcDbEntity
  8
0
  6
HIDDEN
 62
     7
370
     0
100
AcDbLine
 10
210.3361258471
 20
115.5911744765
 30
0.0
 11
209.6122973151
 21
114.4871524898
 31
0.0
  0
LINE
  5
1C0
330
1F
100
AcDbEntity
  8
0
  6
HIDDEN
 62
     7
370
     0
100
AcDbLine
 10
209.6122973151
 20
114.4871524898
 30
0.0
 11
210.313719267
 21
113.208629098
 31
0.0
  0
LINE
  5
1C1
330
1F
100
AcDbEntity
  8
0
  6
HIDDEN
 62
     7
370
     0
100
AcDbLine
 10
209.8350393413
 20
103.044312026
 30
0.0
 11
210.3350393413
 21
103.544312026
 31
0.0
  0
LINE
  5
1C2
330
1F
100
AcDbEntity
  8
0
  6
HIDDEN
 62
     7
370
     0
100
AcDbLine
 10
210.3350393413
 20
108.544312026
 30
0.0
 11
209.8350393413
 21
109.044312026
 31
0.0
  0
LINE
  5
1C3
330
1F
100
AcDbEntity
  8
0
  6
HIDDEN
 62
     7
370
     0
100
AcDbLine
 10
197.3350393413
 20
103.044312026
 30
0.0
 11
209.8350393413
 21
103.044312026
 31
0.0
  0
LINE
  5
1C4
330
1F
100
AcDbEntity
  8
0
  6
HIDDEN
 62
     7
370
     0
100
AcDbLine
 10
209.8350393413
 20
109.044312026
 30
0.0
 11
197.3350393413
 21
109.044312026
 31
0.0
  0
LINE
  5
1C5
330
1F
100
AcDbEntity
  8
0
  6
HIDDEN
 62
     7
370
     0
100
AcDbLine
 10
197.3350393413
 20
109.044312026
 30
0.0
 11
196.8350393413
 21
108.544312026
 31
0.0
  0
LINE
  5
1C6
330
1F
100
AcDbEntity
  8
0
  6
HIDDEN
 62
     7
370
     0
100
AcDbLine
 10
196.8350393413
 20
103.544312026
 30
0.0
 11
197.3350393413
 21
103.044312026
 31
0.0
  0
LINE
  5
1C7
330
1F
100
AcDbEntity
  8
0
  6
HIDDEN
 62
     7
370
     0
100
AcDbLine
 10
210.3350393413
 20
103.544312026
 30
0.0
 11
212.8350393413
 21
103.544312026
 31
0.0
  0
LINE
  5
1C8
330
1F
100
AcDbEntity
  8
0
  6
HIDDEN
 62
     7
370
     0
100
AcDbLine
 10
212.8350393413
 20
108.544312026
 30
0.0
 11
210.3350393413
 21
108.544312026
 31
0.0
  0
LINE
  5
1C9
330
1F
100
AcDbEntity
  8
0
  6
HIDDEN
 62
     7
370
     0
100
AcDbLine
 10
201.3350393413
 20
104.544312026
 30
0.0
 11
208.3350393413
 21
104.544312026
 31
0.0
  0
LINE
  5
1CA
330
1F
100
AcDbEntity
  8
0
  6
HIDDEN
 62
     7
370
     0
100
AcDbLine
 10
208.3350393413
 20
107.544312026
 30
0.0
 11
201.3350393413
 21
107.544312026
 31
0.0
  0
LINE
  5
1CB
330
1F
100
AcDbEntity
  8
0
  6
HIDDEN
 62
     7
370
     0
100
AcDbLine
 10
246.2026623077
 20
114.5506704717
 30
0.0
 11
240.8687245038
 21
114.7602414588
 31
0.0
  0
LINE
  5
1CC
330
1F
100
AcDbEntity
  8
0
  6
HIDDEN
 62
     7
370
     0
100
AcDbLine
 10
240.7509450566
 20
111.7625543501
 30
0.0
 11
246.0848828604
 21
111.552983363
 31
0.0
  0
LINE
  5
1CD
330
1F
100
AcDbEntity
  8
0
  6
HIDDEN
 62
     7
370
     0
100
AcDbLine
 10
246.0848828604
 20
111.552983363
 30
0.0
 11
246.2577171342
 21
111.8269091081
 31
0.0
  0
LINE
  5
1CE
330
1F
100
AcDbEntity
  8
0
  6
HIDDEN
 62
     7
370
     0
100
AcDbLine
 10
246.3350393413
 20
114.299063116
 30
0.0
 11
246.2026623077
 21
114.5506704717
 31
0.0
  0
LINE
  5
1CF
330
1F
100
AcDbEntity
  8
0
  6
HIDDEN
 62
     7
370
     0
100
AcDbLine
 10
240.8687245038
 20
114.7602414588
 30
0.0
 11
240.3494800778
 21
114.2802568486
 31
0.0
  0
LINE
  5
1D0
330
1F
100
AcDbEntity
  8
0
  6
HIDDEN
 62
     7
370
     0
100
AcDbLine
 10
240.2709604463
 20
112.2817987761
 30
0.0
 11
240.7509450566
 21
111.7625543501
 31
0.0
  0
LINE
  5
1D1
330
1F
100
AcDbEntity
  8
0
  6
HIDDEN
 62
     7
370
     0
100
AcDbLine
 10
246.2615520314
 20
97.5402673638
 30
0.0
 11
246.3350393413
 21
97.6799437657
 31
0.0
  0
LINE
  5
1D2
330
1F
100
AcDbEntity
  8
0
  6
HIDDEN
 62
     7
370
     0
100
AcDbLine
 10
246.3166068578
 20
100.2640287275
 30
0.0
 11
246.1437725841
 21
100.5379544725
 31
0.0
  0
LINE
  5
1D3
330
1F
100
AcDbEntity
  8
0
  6
HIDDEN
 62
     7
370
     0
100
AcDbLine
 10
246.1437725841
 20
100.5379544725
 30
0.0
 11
240.8098347802
 21
100.3283834855
 31
0.0
  0
LINE
  5
1D4
330
1F
100
AcDbEntity
  8
0
  6
HIDDEN
 62
     7
370
     0
100
AcDbLine
 10
240.9276142275
 20
97.3306963767
 30
0.0
 11
246.2615520314
 21
97.5402673638
 31
0.0
  0
LINE
  5
1D5
330
1F
100
AcDbEntity
  8
0
  6
HIDDEN
 62
     7
370
     0
100
AcDbLine
 10
240.8098347802
 20
100.3283834855
 30
0.0
 11
240.32985017
 21
99.8091390595
 31
0.0
  0
LINE
  5
1D6
330
1F
100
AcDbEntity
  8
0
  6
HIDDEN
 62
     7
370
     0
100
AcDbLine
 10
240.4083698015
 20
97.810680987
 30
0.0
 11
240.9276142275
 21
97.3306963767
 31
0.0
  0
DIMENSION
  5
1D7
330
1F
100
AcDbEntity
  8
VERMASSUNG
100
AcDbDimension
  2
*D1
 10
50.1026002167
 20
74.544312026
 30
0.0
 11
50.1026002167
 21
106.044312026
 31
0.0
 70
   160
  1
HSK A %%c<>
 71
     2
 42
-1.0
  3
SLDDIMSTYLE0
100
AcDbAlignedDimension
 13
86.6350393413
 23
137.544312026
 33
0.0
 14
86.6350393413
 24
74.544312026
 34
0.0
 50
90.0
100
AcDbRotatedDimension
  0
DIMENSION
  5
1E4
330
1F
100
AcDbEntity
  8
VERMASSUNG
100
AcDbDimension
  2
*D2
 10
246.3350393413
 20
133.6605633803
 30
0.0
 11
228.0850393413
 21
133.6605633803
 31
0.0
 70
   160
 71
     2
 42
-1.0
  3
SLDDIMSTYLE1
100
AcDbAlignedDimension
 13
209.8350393413
 23
109.944312026
 33
0.0
 14
246.3350393413
 24
114.6955310427
 34
0.0
 50
0.0
100
AcDbRotatedDimension
  0
DIMENSION
  5
1EF
330
1F
100
AcDbEntity
  8
VERMASSUNG
100
AcDbDimension
  2
*D3
 10
252.9312026002
 20
110.044312026
 30
0.0
 11
252.9312026002
 21
106.044312026
 31
0.0
 70
   160
  1
%%c<> 
 71
     2
 42
-1.0
  3
SLDDIMSTYLE2
100
AcDbAlignedDimension
 13
242.8350393413
 23
102.044312026
 33
0.0
 14
242.8350393413
 24
110.044312026
 34
0.0
 50
90.0
100
AcDbRotatedDimension
  0
DIMENSION
  5
1FC
330
1F
100
AcDbEntity
  8
VERMASSUNG
100
AcDbDimension
  2
*D4
 10
258.9312026002
 20
116.544312026
 30
0.0
 11
258.9312026002
 21
106.044312026
 31
0.0
 70
   160
  1
%%c<>
 71
     2
 42
-1.0
  3
SLDDIMSTYLE3
100
AcDbAlignedDimension
 13
246.3350393413
 23
95.544312026
 33
0.0
 14
246.3350393413
 24
116.544312026
 34
0.0
 50
90.0
100
AcDbRotatedDimension
  0
DIMENSION
  5
208
330
1F
100
AcDbEntity
  8
VERMASSUNG
100
AcDbDimension
  2
*D5
 10
246.3350393413
 20
145.6605633803
 30
0.0
 11
166.3350393413
 21
145.6605633803
 31
0.0
 70
   160
 71
     2
 42
-1.0
  3
SLDDIMSTYLE0
100
AcDbAlignedDimension
 13
86.3350393413
 23
137.244312026
 33
0.0
 14
246.3350393413
 24
114.6955310427
 34
0.0
100
AcDbRotatedDimension
  0
DIMENSION
  5
212
330
1F
100
AcDbEntity
  8
VERMASSUNG
100
AcDbDimension
  2
*D6
 10
264.9312026002
 20
92.544312026
 30
0.0
 11
264.9312026002
 21
106.044312026
 31
0.0
 70
   160
  1
%%c<>
 71
     2
 42
-1.0
  3
SLDDIMSTYLE0
100
AcDbAlignedDimension
 13
208.2164251328
 23
119.544312026
 33
0.0
 14
208.2164251328
 24
92.544312026
 34
0.0
 50
90.0
100
AcDbRotatedDimension
  0
DIMENSION
  5
21D
330
1F
100
AcDbEntity
  8
VERMASSUNG
100
AcDbDimension
  2
*D7
 10
112.2850393413
 20
139.6605633803
 30
0.0
 11
179.3100393413
 21
139.6605633803
 31
0.0
 70
   160
 71
     2
 42
-1.0
  3
SLDDIMSTYLE0
100
AcDbAlignedDimension
 13
246.3350393413
 23
114.6955310427
 33
0.0
 14
112.2850393413
 24
135.8907523498
 34
0.0
100
AcDbRotatedDimension
  0
DIMENSION
  5
227
330
1F
100
AcDbEntity
  8
VERMASSUNG
100
AcDbDimension
  2
*D8
 10
54.4350393413
 20
151.6605633803
 30
0.0
 11
150.3850393413
 21
151.6605633803
 31
0.0
 70
   160
 71
     2
 42
-1.0
  3
SLDDIMSTYLE0
100
AcDbAlignedDimension
 13
246.3350393413
 23
114.6955310427
 33
0.0
 14
54.4350393413
 24
125.7349897725
 34
0.0
100
AcDbRotatedDimension
  0
LINE
  5
231
330
1F
100
AcDbEntity
  8
VERMASSUNG
  6
CENTERX2
370
     0
100
AcDbLine
 10
52.289735499
 20
106.044312026
 30
0.0
 11
248.289815818
 21
106.044312026
 31
0.0
  0
OLE2FRAME
  5
232
330
1F
100
AcDbEntity
  8
0
100
AcDbOle2Frame
 70
     2
  3
Bitmap Image
 10
13.8511154363
 20
38.264191557
 30
0.0
 11
51.6290888628
 21
31.9806341108
 31
0.0
 71
     2
 72
     0
 73
     1
 90
    12928
310
80552BED0767C5B32B40DDAF6807D121434000000000000000006FFBDDFB85D0
310
4940DDAF6807D121434000000000000000006FFBDDFB85D04940416F4BD60AFB
310
3F4000000000000000002BED0767C5B32B40416F4BD60AFB3F40000000000000
310
0000000000000100000000010000010000000100000000000100000000320000
310
D0CF11E0A1B11AE1000000000000000000000000000000003E000300FEFF0900
310
0600000000000000000000000100000001000000000000000010000002000000
310
01000000FEFFFFFF0000000000000000FFFFFFFFFFFFFFFFFFFFFFFFFFFFFFFF
310
FFFFFFFFFFFFFFFFFFFFFFFFFFFFFFFFFFFFFFFFFFFFFFFFFFFFFFFFFFFFFFFF
310
FFFFFFFFFFFFFFFFFFFFFFFFFFFFFFFFFFFFFFFFFFFFFFFFFFFFFFFFFFFFFFFF
310
FFFFFFFFFFFFFFFFFFFFFFFFFFFFFFFFFFFFFFFFFFFFFFFFFFFFFFFFFFFFFFFF
310
FFFFFFFFFFFFFFFFFFFFFFFFFFFFFFFFFFFFFFFFFFFFFFFFFFFFFFFFFFFFFFFF
310
FFFFFFFFFFFFFFFFFFFFFFFFFFFFFFFFFFFFFFFFFFFFFFFFFFFFFFFFFFFFFFFF
310
FFFFFFFFFFFFFFFFFFFFFFFFFFFFFFFFFFFFFFFFFFFFFFFFFFFFFFFFFFFFFFFF
310
FFFFFFFFFFFFFFFFFFFFFFFFFFFFFFFFFFFFFFFFFFFFFFFFFFFFFFFFFFFFFFFF
310
FFFFFFFFFFFFFFFFFFFFFFFFFFFFFFFFFFFFFFFFFFFFFFFFFFFFFFFFFFFFFFFF
310
FFFFFFFFFFFFFFFFFFFFFFFFFFFFFFFFFFFFFFFFFFFFFFFFFFFFFFFFFFFFFFFF
310
FFFFFFFFFFFFFFFFFFFFFFFFFFFFFFFFFFFFFFFFFFFFFFFFFFFFFFFFFFFFFFFF
310
FFFFFFFFFFFFFFFFFFFFFFFFFFFFFFFFFFFFFFFFFFFFFFFFFFFFFFFFFFFFFFFF
310
FFFFFFFFFFFFFFFFFFFFFFFFFFFFFFFFFFFFFFFFFFFFFFFFFFFFFFFFFFFFFFFF
310
FFFFFFFFFFFFFFFFFFFFFFFFFFFFFFFFFFFFFFFFFFFFFFFFFFFFFFFFFFFFFFFF
310
FDFFFFFFFEFFFFFFFEFFFFFFFEFFFFFF05000000060000000700000008000000
310
090000000A0000000B0000000C0000000D0000000E0000000F00000010000000
310
11000000120000001300000014000000150000001600000017000000FEFFFFFF
310
FFFFFFFFFFFFFFFFFFFFFFFFFFFFFFFFFFFFFFFFFFFFFFFFFFFFFFFFFFFFFFFF
310
FFFFFFFFFFFFFFFFFFFFFFFFFFFFFFFFFFFFFFFFFFFFFFFFFFFFFFFFFFFFFFFF
310
FFFFFFFFFFFFFFFFFFFFFFFFFFFFFFFFFFFFFFFFFFFFFFFFFFFFFFFFFFFFFFFF
310
FFFFFFFFFFFFFFFFFFFFFFFFFFFFFFFFFFFFFFFFFFFFFFFFFFFFFFFFFFFFFFFF
310
FFFFFFFFFFFFFFFFFFFFFFFFFFFFFFFFFFFFFFFFFFFFFFFFFFFFFFFFFFFFFFFF
310
FFFFFFFFFFFFFFFFFFFFFFFFFFFFFFFFFFFFFFFFFFFFFFFFFFFFFFFFFFFFFFFF
310
FFFFFFFFFFFFFFFFFFFFFFFFFFFFFFFFFFFFFFFFFFFFFFFFFFFFFFFFFFFFFFFF
310
FFFFFFFFFFFFFFFFFFFFFFFFFFFFFFFFFFFFFFFFFFFFFFFFFFFFFFFFFFFFFFFF
310
FFFFFFFFFFFFFFFFFFFFFFFFFFFFFFFFFFFFFFFFFFFFFFFFFFFFFFFFFFFFFFFF
310
FFFFFFFFFFFFFFFFFFFFFFFFFFFFFFFFFFFFFFFFFFFFFFFFFFFFFFFFFFFFFFFF
310
FFFFFFFFFFFFFFFFFFFFFFFFFFFFFFFFFFFFFFFFFFFFFFFFFFFFFFFFFFFFFFFF
310
FFFFFFFFFFFFFFFFFFFFFFFFFFFFFFFFFFFFFFFFFFFFFFFFFFFFFFFFFFFFFFFF
310
FFFFFFFFFFFFFFFFFFFFFFFFFFFFFFFFFFFFFFFFFFFFFFFFFFFFFFFFFFFFFFFF
310
52006F006F007400200045006E00740072007900000000000000000000000000
310
0000000000000000000000000000000000000000000000000000000000000000
310
16000500FFFFFFFFFFFFFFFF020000000A00030000000000C000000000000046
310
00000000000000000000000060B616B7C104CC0103000000C000000000000000
310
01004F006C006500000000000000000000000000000000000000000000000000
310
0000000000000000000000000000000000000000000000000000000000000000
310
0A000200FFFFFFFFFFFFFFFFFFFFFFFF00000000000000000000000000000000
310
0000000000000000000000000000000000000000000000001400000000000000
310
010043006F006D0070004F0062006A0000000000000000000000000000000000
310
0000000000000000000000000000000000000000000000000000000000000000
310
120002010100000003000000FFFFFFFF00000000000000000000000000000000
310
0000000000000000000000000000000000000000010000004D00000000000000
310
01004F006C006500310030004E00610074006900760065000000000000000000
310
0000000000000000000000000000000000000000000000000000000000000000
310
1A000200FFFFFFFFFFFFFFFFFFFFFFFF00000000000000000000000000000000
310
0000000000000000000000000000000000000000040000002426000000000000
310
FEFFFFFF02000000FEFFFFFFFFFFFFFFFFFFFFFFFFFFFFFFFFFFFFFFFFFFFFFF
310
FFFFFFFFFFFFFFFFFFFFFFFFFFFFFFFFFFFFFFFFFFFFFFFFFFFFFFFFFFFFFFFF
310
FFFFFFFFFFFFFFFFFFFFFFFFFFFFFFFFFFFFFFFFFFFFFFFFFFFFFFFFFFFFFFFF
310
FFFFFFFFFFFFFFFFFFFFFFFFFFFFFFFFFFFFFFFFFFFFFFFFFFFFFFFFFFFFFFFF
310
FFFFFFFFFFFFFFFFFFFFFFFFFFFFFFFFFFFFFFFFFFFFFFFFFFFFFFFFFFFFFFFF
310
FFFFFFFFFFFFFFFFFFFFFFFFFFFFFFFFFFFFFFFFFFFFFFFFFFFFFFFFFFFFFFFF
310
FFFFFFFFFFFFFFFFFFFFFFFFFFFFFFFFFFFFFFFFFFFFFFFFFFFFFFFFFFFFFFFF
310
FFFFFFFFFFFFFFFFFFFFFFFFFFFFFFFFFFFFFFFFFFFFFFFFFFFFFFFFFFFFFFFF
310
FFFFFFFFFFFFFFFFFFFFFFFFFFFFFFFFFFFFFFFFFFFFFFFFFFFFFFFFFFFFFFFF
310
FFFFFFFFFFFFFFFFFFFFFFFFFFFFFFFFFFFFFFFFFFFFFFFFFFFFFFFFFFFFFFFF
310
FFFFFFFFFFFFFFFFFFFFFFFFFFFFFFFFFFFFFFFFFFFFFFFFFFFFFFFFFFFFFFFF
310
FFFFFFFFFFFFFFFFFFFFFFFFFFFFFFFFFFFFFFFFFFFFFFFFFFFFFFFFFFFFFFFF
310
FFFFFFFFFFFFFFFFFFFFFFFFFFFFFFFFFFFFFFFFFFFFFFFFFFFFFFFFFFFFFFFF
310
FFFFFFFFFFFFFFFFFFFFFFFFFFFFFFFFFFFFFFFFFFFFFFFFFFFFFFFFFFFFFFFF
310
FFFFFFFFFFFFFFFFFFFFFFFFFFFFFFFFFFFFFFFFFFFFFFFFFFFFFFFFFFFFFFFF
310
FFFFFFFFFFFFFFFFFFFFFFFFFFFFFFFFFFFFFFFFFFFFFFFFFFFFFFFFFFFFFFFF
310
0100000200000000000000000000000000000000000000000000000000000000
310
00000000000000003800000041000000DE0D580200000000860EDE0100000000
310
0100FEFF030A0000FFFFFFFF0A00030000000000C00000000000004607000000
310
5042727573680007000000504272757368000700000050427275736800F439B2
310
7100000000000000000000000000000000000000000000000000C70600000000
310
425D000000000000000000000000000000000000000000003800000041000000
310
DE0D580200000000660E25020000000000000000000000000000000000000000
310
0000C70600000000435D00000000000000000000000000000000000000000000
310
3800000041000000DE0D5802000000002E0E2101000000000000000000000000
310
00000000000000000000C706000000003D5D0000000000000000000000000000
310
00000000000000003800000041000000DE0D580200000000700E6B0100000000
310
000000000000000000000000000000000000C706000000003E5D000000000000
310
000000000000000000000000000000003800000041000000DE0D580200000000
310
780EAF0300000000000000000000000000000000000000000000C70600000000
310
3F5D000000000000000000000000000000000000000000003800000041000000
310
DE0D5802000000000C0E83040000000000000000000000000000000000000000
310
20260000424D0E260000000000003E00000028000000B40200006E0000000100
310
01000000000000000000130B0000130B00000200000002000000000000FFFFFF
310
FFFFFFFFFFFFFFFFFFFFFFFFFFFFFFFFFFFFFFFFFFFFFFFFFFFFFFFFFFFFFFFF
310
FFFFFFFFFFFFFFFFFFFFFFFFFFFFFFFFFFFFFFFFFFFFFFFFFFFFFFFFFFFFFFFF
310
FFFFFFFFFFFFFFFFFFFFFFFFFFFFFFFFFFFFFFFFFFFFFFFFF000FFFFFFFFFFFF
310
FFFFFFFFFFFFFFFFFFFFFFFFFFFFFFFFFFFFFFFFFFFFFFFFFFFFFFFFFFFFFFFF
310
FFFFFFFFFFFFFFFFFFFFFFFFFFFFFFFFFFFFFFFFFFFFFFFFFFFFFFFFFFFFFFFF
310
FFFFFFFFFFFFFFFFFFFFFFFFFFFFFFFFF000FFFFFFFFFFFFFFFFFFFFFFFFFFFF
310
FFFFFFFFFFFFFFFFFFFFFFFFFFFFFFFFFFFFFFFFFFFFFFFFFFFFFFFFFFFFFFFF
310
FFFFFFFFFFFFFFFFFFFFFFFFFFFFFFFFFFFFFFFFFFFFFFFFFFFFFFFFFFFFFFFF
310
FFFFFFFFFFFFFFFFF000FFFFFFFFFFFFFFFFFFFFFFFFFFFFFFFFFFFFFFFFFFFF
310
FFFFFFFFFFFFFFFFFFFFFFFFFFFFFFFFFFFFFFFFFFFFFFFFFFFFFFFFFFFFFFFF
310
FFFFFFFFFFFFFFFFFFFFFFFFFFFFFFFFFFFFFFFFFFFFFFFFFFFFFFFFFFFFFFFF
310
F000FFFFFFFFFFFFFFFFFFFFFFFFFFFFFFFFFFFFFFFFFFFFFFFFFFFFFFFFFFFF
310
FFFFFFFFFFFFFFFFFFFFFFFFFFFFFFFFFFFFFFFFFFFFFFFFFFFFFFFFFFFFFFFF
310
FFFFFFFFFFFFFFFFFFFFFFFFFFFFFFFFFFFFFFFFFFFFFFFFF000FFFFFFFFFFFF
310
FFFFFFFFFFFFFFFFFFFFFFFFFFFFFFFFFFFFFFFFFFFFFFFFFFFFFFFFFFFFFFFF
310
FFFFFFFFFFFFFFFFFFFFFFFFFFFFFFFFFFFFFFFFFFFFFFFFFFFFFFFFFFFFFFFF
310
FFFFFFFFFFFFFFFFFFFFFFFFFFFFFFFFF000FFFFFFFFFFFFFFFFFFFFFFFFFFFF
310
FFFFFFFFFFFFFFFFFFFFFFFFFFFFFFFFFFFFFFFFFFFFFFFFFFFFFFFFFFFFFFFF
310
FFFFFFFFFFFFFFFFFFFFFFFFFFFFFFFFFFFFFFFFFFFFFFFFFFFFFFFFFFFFFFFF
310
FFFFFFFFFFFFFFFFF000FFFFFFFFFFFFFFFFFFFFFFFFFFFFFFFFFFFFFFFFFFFF
310
FFFFFFFFFFFFFFFFFFFFFFFFFFFFFFFFFFFFFFFFFFFFFFFFFFFFFFFFFFFFFFFF
310
FFFFFFFFFFFFFFFFFFFFFFFFFFFFFFFFFFFFFFFFFFFFFFFFFFFFFFFFFFFFFFFF
310
F000FFFFFFFFFFFFFFFFFFFFFFFFFFFFFFFFFFFFFFFFFFFFFFFFFFFFFFFFFFFF
310
FFFFFFFFFFFFFFFFFFFFFFFFFFFFFFFFFFFFFFFFFFFFFFFFFFFFFFFFFFFFFFFF
310
FFFFFFFFFFFFFFFFFFFFFFFFFFFFFFFFFFFFFFFFFFFFFFFFF000FFFFFFFFFFFF
310
FFFFFFFFFFFFFFFFFFFFFFFFFFFFFFFFFFFFFFFFFFFFFFFFFFFFFFFFFFFFFFFF
310
FFFFFFFFFFFFFFFFFFFFFFFFFFFFFFFFFFFFFFFFFFFFFFFFFFFFFFFFFFFFFFFF
310
FFFFFFFFFFFFFFFFFFFFFFFFFFFFFFFFF000FFFFFFFFFFFFFFFFFFFFFFFFFFFF
310
FFFFFFFFFFFFFFFFFFFFFFFFFFFFFFFFFFFFFFFFFFFFFFFFFFFFFFFFFFFFFFFF
310
FFFFFFFFFFFFFFFFFFFFFFFFFFFFFFFFFFFFFFFFFFFFFFFFFFFFFFFFFFFFFFFF
310
FFFFFFFFFFFFFFFFF000FFFFFFFFFFFFFFFFFFFFFFFFFFFFFFFFFFFFFFFFFFFF
310
FFFFFFFFFFFFFFFFFFFFFFFFFFFFFFFFFFFFFFFFFFFFFFFFFFFFFFFFFFFFFFFF
310
FFFFFFFFFFFFFFFFFFFFFFFFFFFFFFFFFFFFFFFFFFFFFFFFFFFFFFFFFFFFFFFF
310
F000FFFFFFFFFFFFFFFFFFFFFFFFFFFFFFFFFFFFFFFFFFFFFFFFFFFFFFFFFFFF
310
FFFFFFFFFFFFFFFFFFFFFFFFFFFFFFFFFFFFFFFFFFFFFFFFFFFFFFFFFFFFFFFF
310
FFFFFFFFFFFFFFFFFFFFFFFFFFFFFFFFFFFFFFFFFFFFFFFFF000FFFFFFFFFFFF
310
FFFFFFFFFFFFFFFFFFFFFFFFFFFFFFFFFFFFFFFFFFFFFFFFFFFFFFFFFFFFFFFF
310
FFFFFFFFFFFFFFFFFFFFFFFFFFFFFFFFFFFFFFFFFFFFFFFFFFFFFFFFFFFFFFFF
310
FFFFFFFFFFFFFFFFFFFFFFFFFFFFFFFFF000FFFFFFFFFFFFFFFFFFFFFFFFFFFF
310
FFFFFFFFFFFFFFFFFFFFFFFFFFFFFFFFFFFFFFFFFFFFFFFFFFFFFFFFFFFFFFFF
310
FFFFFFFFFFFFFFFFFFFFFFFFFFFFFFFFFFFFFFFFFFFFFFFFFFFFFFFFFFFFFFFF
310
FFFFFFFFFFFFFFFFF000FFFFFFFFFFFFFFFFFFFFFFFFFFFFFFFFFFFFFFFFFFFF
310
FFFFFFFFFFFFFFFFFFFFFFFFFFFFFFFFFFFFFFFFFFFFFFFFFFFFFFFFFFFFFFFF
310
FFFFFFFFFFFFFFFFFFFFFFFFFFFFFFFFFFFFFFFFFFFFFFFFFFFFFFFFFFFFFFFF
310
F000FFFFFFFFFFFFFFFFFFFFFFFFFFFFFFFFFFFFFFFFFFFFFFFFFFFFFFFFFFFF
310
FFFFFFFFFFFFFFFFFFFFFFFFFFFFFFFFFFFFFFFFFFFFFFFFFFFFFFFFFFFFFFFF
310
FFFFFFFFFFFFFFFFFFFFFFFFFFFFFFFFFFFFFFFFFFFFFFFFF000FFFFFFFFFFFF
310
FFFFFFFFFFFFFFFFFFFFFFFFFFFFFFFFFFFFFFFFFFFFFFFFFFFFFFFFFFFFFFFF
310
FFFFFFFFFFFFFFFFFFFFFFFFFFFFFFFFFFFFFFFFFFFFFFFFFFFFFFFFFFFFFFFF
310
FFFFFFFFFFFFFFFFFFFFFFFFFFFFFFFFF000FFFFFFFFFFFFFFFFFFFFFFFFFFFF
310
FFFFFFFFFFFFFFFFFFFFFFFFFFFFFFFFFFFFFFFFFFFFFFFFFFFFFFFFFFFFFFFF
310
FFFFFFFFFFFFFFFFFFFFFFFFFFFFFFFFFFFFFFFFFFFFFFFFFFFFFFFFFFFFFFFF
310
FFFFFFFFFFFFFFFFF000FFFFF80003FFFFFFFFFFFFFFFFFFFFFFFFFFFFFFFFFF
310
FFFFF00007FFFFFFFFFF00007FFFFFF800000000000000007FFFFFFFFFFFFFFF
310
FFFFFFFC001FFFFFFFFFFFFFFC001FFFFFFFFFFFFFFFFFFFFFFFFFFE0007FFFF
310
F000FFFF8000007FFFFFFFF8000FFFFFC0007FFFFF80007FFFFF0000007FFFFF
310
FFF8000007FFFFF800000000000000007FFFFFF0001FFFFFFFFFFFC00001FFFF
310
FFFFFFFFC00001FFFFFFFF000000000003FFFFE000007FFFF000FFFE0000000F
310
FFFFFFF0000FFFFF80007FFFFF80007FFFFC0000001FFFFFFFC0000001FFFFF8
310
00000000000000007FFFFFF0001FFFFFFFFFFE0000003FFFFFFFFFFE0000003F
310
FFFFFF000000000003FFFF0000000FFFF000FFF800000003FFFFFFF00007FFFF
310
80007FFFFF80007FFFF000000007FFFFFF000000003FFFF80000000000000000
310
7FFFFFF0001FFFFFFFFFF80000000FFFFFFFFFF80000000FFFFFFF0000000000
310
03FFFC00000003FFF000FFE000000000FFFFFFF00007FFFF80003FFFFF80007F
310
FFC000000001FFFFFC000000001FFFF800000000000000007FFFFFF0001FFFFF
310
FFFFE000000003FFFFFFFFE000000003FFFFFF000000000003FFF000000000FF
310
F000FF80000000007FFFFFF00007FFFF80003FFFFF80007FFF8000000000FFFF
310
F80000000007FFF800000000000000007FFFFFF0001FFFFFFFFFC000000001FF
310
FFFFFFC000000001FFFFFF000000000003FFC0000000007FF000FF0000000000
310
3FFFFFE00007FFFF00003FFFFF80007FFE00000000003FFFF00000000003FFF8
310
00000000000000007FFFFFF0001FFFFFFFFF8000000000FFFFFFFF8000000000
310
FFFFFF000000000003FF80000000003FF000FE00000000001FFFFFE00003FFFF
310
00003FFFFF80007FFC00000000001FFFE00000000001FFF8000001FFFE000000
310
7FFFFFF0001FFFFFFFFE00000000003FFFFFFE00000000003FFFFF0000000000
310
03FF00000000001FF000FC00000000000FFFFFE00003FFFF00001FFFFF80007F
310
F800000000001FFFC00000000000FFF8000001FFFE0000007FFFFFF0001FFFFF
310
FFFC00000000001FFFFFFC00000000001FFFFF000000000003FE00000000000F
310
F000F8000000000007FFFFE00003FFFF00001FFFFF80007FF800000000000FFF
310
800000000000FFF8000001FFFE0000007FFFFFF0001FFFFFFFF800000000000F
310
FFFFF800000000000FFFFF000000000003FC000000000007F000F80000000000
310
03FFFFC00003FFFE00001FFFFF80007FF0000000000007FF0000000000007FF8
310
000001FFFE0000007FFFFFF0001FFFFFFFF0000000000007FFFFF00000000000
310
07FFFF000000000003F8000000000003F000F0000000000003FFFFC00001FFFE
310
00001FFFFF80007FE0000000000007FE0000000000003FF8000001FFFE000000
310
7FFFFFF0001FFFFFFFF0000000000007FFFFF0000000000007FFFF0000000000
310
03F800001F800003F000E00001FFF00001FFFFC00001FFFE00000FFFFF80007F
310
E00001FFE00003FE00001FFF00003FF8000001FFFE0000007FFFFFF0001FFFFF
310
FFE000003E000003FFFFE000003E000003FFFF000000000003F00001FFF80001
310
F000E00007FFFC0001FFFFC00001FFFE00000FFFFF80007FC0000FFFFC0003FC
310
0000FFFFC0001FF8000001FFFE0000007FFFFFF0001FFFFFFFC00003FFE00001
310
FFFFC00003FFE00001FFFF0001FFFFFFFFF00007FFFE0001F000E0000FFFFF00
310
00FFFF800001FFFC00000FFFFF80007FC0001FFFFE0001FC0001FFFFE0001FF8
310
000001FFFE0000007FFFFFF0001FFFFFFF80000FFFF80000FFFF80000FFFF800
310
00FFFF0003FFFFFFFFE0000FFFFF8000F000C0003FFFFF8000FFFF800000FFFC
310
000007FFFF80007F80003FFFFF0001FC0003FFFFF0001FF8000001FFFE000000
310
7FFFFFF0001FFFFFFF80003FFFFE0000FFFF80003FFFFE0000FFFF0003FFFFFF
310
FFE0003FFFFF8000F000C0003FFFFF8000FFFF800000FFFC000007FFFF80007F
310
80007FFFFF8001F80007FFFFF8000FF8000001FFFE0000007FFFFFF0001FFFFF
310
FF00007FFFFF00007FFF00007FFFFF00007FFF0003FFFFFFFFE0003FFFFFC000
310
F000C0007FFFFFC000FFFF000000FFFC000007FFFF80007F8000FFFFFF8000F8
310
000FFFFFF8000FF8000001FFFE0000007FFFFFF0001FFFFFFF0000FFFFFF8000
310
7FFF0000FFFFFF80007FFF0003FFFFFFFFC0007FFFFFC00070008000FFFFFFC0
310
00FFFF000000FFF8000007FFFF80007F8000FFFFFF8000F8000FFFFFF8000FF8
310
000001FFFE0000007FFFFFF0001FFFFFFE0001FFFFFFC0003FFE0001FFFFFFC0
310
003FFF0003FFFFFFFFC0007FFFFFE00070008000FFFFFFC0007FFF0000007FF8
310
000003FFFF80007F0001FFFFFF8000F8000FFFFFF8000FF8000001FFFE000000
310
7FFFFFF0001FFFFFFE0001FFFFFFC0003FFE0001FFFFFFC0003FFF0003FFFFFF
310
FFC000FFFFFFE00070008000FFFFFFC0007FFF0000007FF8000003FFFF80007F
310
0001FFFFFF8000F8001FFFFFF8000FF8000001FFFE0000007FFFFFF0001FFFFF
310
FE0003FFFFFFE0003FFE0003FFFFFFE0003FFF0003FFFFFFFFC000FFFFFFE000
310
70008000FFFFFFC0007FFE0000007FF8000003FFFF80007F0001FFFFFF8000F0
310
001FFFFFF8000FF8000001FFFE0000007FFFFFF0001FFFFFFC0003FFFFFFE000
310
1FFC0003FFFFFFE0001FFF0003FFFFFFFFC000FFFFFFC00070008000FFFFFF80
310
007FFE0000007FF0000003FFFF80007F0001FFFFFF0000F0001FFFFFF8000FF8
310
000001FFFE0000007FFFFFF0001FFFFFFC0007FFFFFFF0001FFC0007FFFFFFF0
310
001FFF0003FFFFFFFFC000FFFFFFC00070008001FFFFFF0000FFFE0000003FF0
310
000001FFFF80007F0001FFFFFF0000F8001FFFFFF0000FF8000001FFFE000000
310
7FFFFFF0001FFFFFFC0007FFFFFFF0001FFC0007FFFFFFF0001FFF0003FFFFFF
310
FFC001FFFFFF80007000FFFFFFFFFE0000FFFE0008003FF0008001FFFF80007F
310
FFFFFFFFFC0000FFFFFFFFFFE0000FF8000001FFFE0000007FFFFFF0001FFFFF
310
F8000FFFFFFFF8000FF8000FFFFFFFF8000FFF0003FFFFFFFFFFFFFFFFFF0000
310
7000FFFFFFFFFC0000FFFC0008003FF0008001FFFF80007FFFFFFFFFF80001FF
310
FFFFFFFF80000FF8000001FFFE0000007FFFFFF0001FFFFFF8000FFFFFFFF800
310
0FF8000FFFFFFFF8000FFF0003FFFFFFFFFFFFFFFFFE0000F000FFFFFFFFE000
310
00FFFC000C003FE000C001FFFF80007FFFFFFFFFC00001FFFFFFFFFE00001FF8
310
000001FFFE0000007FFFFFF0001FFFFFF8000FFFFFFFF8000FF8000FFFFFFFF8
310
000FFF0003FFFFFFFFFFFFFFFFF00000F000FFFFFFFE000001FFFC000C001FE0
310
00C000FFFF80007FFFFFFFFE000001FFFFFFFFE000001FF80FFFFFFFFFFFFFC0
310
7FFFFFF0001FFFFFF8000FFFFFFFF8000FF8000FFFFFFFF8000FFF0003FFFFFF
310
FFFFFFFFFF800000F000FFFFFFC0000001FFFC001C001FE001C000FFFF80007F
310
FFFFFF80000003FFFFFFF80000001FF80FFFFFFFFFFFFFC07FFFFFF0001FFFFF
310
F8001FFFFFFFFC000FF8001FFFFFFFFC000FFF0003FFFFFFFFFFFFFFF0000001
310
F000FFFFF800000001FFF8001C001FE001C000FFFF80007FFFFFF800000003FF
310
FFFF800000003FF80FFFFFFFFFFFFFC07FFFFFF0001FFFFFF8001FFFFFFFFC00
310
0FF8001FFFFFFFFC000FFF0003FFFFFFFFFFFFFE00000001F000FFFFC0000000
310
03FFF8001E001FC001E000FFFF80007FFFFF8000000007FFFFFC000000003FF8
310
0FFFFFFFFFFFFFC07FFFFFF0001FFFFFF8001FFFFFFFFC000FF8001FFFFFFFFC
310
000FFF0003FFFFFFFFFFFFE000000003F000FFFE0000000007FFF8001E000FC0
310
01E0007FFF80007FFFFE0000000007FFFFE0000000007FF80FFFFFFFFFFFFFC0
310
7FFFFFF0001FFFFFF0001FFFFFFFFC0007F0001FFFFFFFFC0007FF0003FFFFFF
310
FFFFFF0000000003F000FFF80000000007FFF8001E000FC003E0007FFF80007F
310
FFF0000000000FFFFF8000000000FFF80FFFFFFFFFFFFFC07FFFFFF0001FFFFF
310
F0001FFFFFFFFC0007F0001FFFFFFFFC0007FF0003FFFFFFFFFFFC0000000007
310
F000FFE0000000000FFFF0003E000FC003E0007FFF80007FFFC0000000001FFF
310
FE0000000001FFF80FFFFFFFFFFFFFC07FFFFFF0001FFFFFF0001FFFFFFFFC00
310
07F0001FFFFFFFFC0007FF0003FFFFFFFFFFF0000000000FF000FFC000000000
310
1FFFF0003F000F8003F0003FFF80007FFF80000000003FFFF80000000003FFF8
310
0FFFFFFFFFFFFFC07FFFFFF0001FFFFFF0001FFFFFFFFC0007F0001FFFFFFFFC
310
0007FF0003FFFFFFFFFFE0000000001FF000FF00000000007FFFF0003F000780
310
03F0003FFF80007FFF00000000007FFFF00000000007FFF80FFFFFFFFFFFFFC0
310
7FFFFFF0001FFFFFF0001FFFFFFFFC0007F0001FFFFFFFFC0007FF0003FFFFFF
310
FFFF80000000007FF000FE0000000000FFFFE0003F00078007F0003FFF80007F
310
FE0000000001FFFFE0000000001FFFF80FFFFFFFFFFFFFC07FFFFFF0001FFFFF
310
F0001FFFFFFFFC0007F0001FFFFFFFFC0007FF0003FFFFFFFFFF0000000000FF
310
F000FC0000000003FFFFE0007F00078007F0003FFF80007FFC0000000007FFFF
310
C0000000007FFFF80FFFFFFFFFFFFFC07FFFFFF0001FFFFFF8001FFFFFFFFC00
310
0FF8001FFFFFFFFC000FFF0003FFFFFFFFFE0000000003FFF000FC000000000F
310
FFFFE0007F80070007F8001FFF80007FF8000000001FFFFF8000000001FFFFF8
310
0FFFFFFFFFFFFFC07FFFFFF0001FFFFFF8001FFFFFFFFC000FF8001FFFFFFFFC
310
000FFF0003FFFFFFFFFC000000000FFFF000F8000000007FFFFFE0007F800700
310
07F8001FFF80007FF000000000FFFFFF800000000FFFFFF80FFFFFFFFFFFFFC0
310
7FFFFFF0001FFFFFF8000FFFFFFFF8000FF8000FFFFFFFF8000FFF0003FFFFFF
310
FFFC000000007FFFF000F800000007FFFFFFC0007F8003000FF8001FFF80007F
310
F000000007FFFFFF000000007FFFFFF80FFFFFFFFFFFFFC07FFFFFF0001FFFFF
310
F8000FFFFFFFF8000FF8000FFFFFFFF8000FFF0003FFFFFFFFF80000000FFFFF
310
F000F0000000FFFFFFFFC000FF8003000FF8001FFF80007FE0000000FFFFFFFF
310
0000000FFFFFFFF8000001FFFE0000007FFFFFF0001FFFFFF8000FFFFFFFF800
310
0FF8000FFFFFFFF8000FFF0003FFFFFFFFF8000000FFFFFFF000F000000FFFFF
310
FFFFC000FFC002000FF8000FFF80007FE000001FFFFFFFFE000001FFFFFFFFF8
310
000001FFFE0000007FFFFFF0001FFFFFF8000FFFFFFFF8000FF8000FFFFFFFF8
310
000FFF0003FFFFFFFFF000001FFFFFFFF000E00000FFFFFFFFFFC000FFC00200
310
0FFC000FFF80007FE00001FFFFFFFFFE00001FFFFFFFFFF8000001FFFE000000
310
7FFFFFF0001FFFFFFC000FFFFFFFF8001FFC000FFFFFFFF8001FFF0003FFFFFF
310
FFF00001FFFFFFFFF000E00007FFFFFFFFFF8000FFC000001FFC000FFF80007F
310
C0000FFFFFFFFFFE0000FFFFFFFFFFF8000001FFFE0000007FFFFFF0001FFFFF
310
FC0007FFFFFFF0001FFC0007FFFFFFF0001FFF0003FFFFFFFFF00007FFFFFFFF
310
F000E0001FFFFFFFFFFF8000FFC000001FFC000FFF80007FC0003FFFFFFFFFFE
310
0001FFFFFFFFFFF8000001FFFE0000007FFFFFF0001FFFFFFC0007FFFFFFF000
310
1FFC0007FFFFFFF0001FFF0003FFFFFFFFF0001FFFFFFFFFF000E0003FFFFF00
310
03FF8001FFE000001FFC0007FF80007FC0007FFFFF0007FC0003FFFFF0003FF8
310
000001FFFE0000007FFFFFF0001FFFFFFC0003FFFFFFE0001FFC0003FFFFFFE0
310
001FFF0003FFFFFFFFF0003FFFFFFFFFF000E0003FFFFF0001FF8001FFE00000
310
1FFE0007FF80007FC0007FFFFE0003FC0007FFFFE0003FF8000001FFFE000000
310
7FFFFFF0001FFFFFFE0003FFFFFFE0003FFE0003FFFFFFE0003FFF0003FFFFFF
310
FFF0003FFFFF8001F000E0003FFFFF0001FF0001FFE000001FFE0007FF80007F
310
C0007FFFFE0003FC0007FFFFE0003FF8000001FFFE0000007FFFFFF0001FFFFF
310
FE0001FFFFFFC0003FFE0001FFFFFFC0003FFF0003FFFFFFFFF0003FFFFF0001
310
F000E0003FFFFF0003FF0001FFE000003FFE0007FF80007FC0007FFFFE0003FC
310
0007FFFFE0003FF8000001FFFE0000007FFFFFF0001FFFFFFF0001FFFFFFC000
310
7FFF0001FFFFFFC0007FFF0003FFFFFFFFF0003FFFFF0001F000E0003FFFFE00
310
03FF0003FFF000003FFE0003FF80007FC0007FFFFC0003FE0007FFFFE0003FF8
310
000001FFFE0000007FFFFFF0001FFFFFFF0000FFFFFF80007FFF0000FFFFFF80
310
007FFF0003FFFFFFFFF0003FFFFF0001F000E0003FFFFE0003FF0003FFF00000
310
3FFF0003FF80007FC0007FFFFC0007FE0007FFFFC0003FF8000001FFFE000000
310
7FFFFFF0001FFFFFFF80007FFFFF0000FFFF80007FFFFF0000FFFF0003FFFFFF
310
FFF0003FFFFF0003F000E0003FFFFC0003FE0003FFF000003FFF0003FF80007F
310
E0003FFFF80007FE0003FFFFC0007FF8000001FFFE0000007FFFFFF0001FFFFF
310
FF80003FFFFE0000FFFF80003FFFFE0000FFFF0003FFFFFFFFF0001FFFFE0003
310
F000F0001FFFF80003FE0003FFF000007FFF0001FF80007FE0003FFFF00007FE
310
0001FFFF80007FF8000001FFFE0000007FFFFFF0001FFFFFFFC0000FFFF80001
310
FFFFC0000FFFF80001FFFF0003FFFFFFFFF0001FFFFC0003F000F0000FFFF000
310
07FE0007FFF800007FFF0001FF80007FE0001FFFE00007FF0000FFFE00007FF8
310
000001FFFE0000007FFFFFF0001FFFFFFFC00003FFE00001FFFFC00003FFE000
310
01FFFF0003FFFFFFFFF8000FFFF80003F000F00003FFC00007FC0007FFF80000
310
7FFF8001FF80007FF00007FF80000FFF00007FF80000FFF8000001FFFE000000
310
7F80000000000001FFE000003E000003FFFFE000003E000003FFFF0003FFFFFF
310
FFF80003FFE00007F000F800000000000FFC0007FFF800007FFF8001FF80007F
310
F000000000000FFF000000000000FFF8000001FFFE0000007F80000000000001
310
FFF0000000000007FFFFF0000000000007FFFF0003FFFFFFFFFC00007E000007
310
F000F800000000000FFC0007FFF80000FFFF8000FF80007FF800000000001FFF
310
800000000001FFF8000001FFFE0000007F80000000000001FFF800000000000F
310
FFFFF800000000000FFFFF0003FFFFFFFFFC00000000000FF000FC0000000000
310
1FFC0007FFFC0000FFFF8000FF80007FF800000000003FFFC00000000001FFF8
310
000001FFFE0000007F80000000000001FFF800000000000FFFFFF80000000000
310
0FFFFF0003FFFFFFFFFE00000000001FF000FE00000000003FF8000FFFFC0000
310
FFFF8000FF80007FFC00000000003FFFC00000000003FFF8000001FFFE000000
310
7F80000000000001FFFC00000000001FFFFFFC00000000001FFFFF0003FFFFFF
310
FFFF00000000001FF000FF00000000003FF8000FFFFC0000FFFFC000FF80007F
310
FE00000000007FFFE00000000007FFF8000001FFFE0000007F80000000000001
310
FFFE00000000003FFFFFFE00000000003FFFFF0003FFFFFFFFFF80000000003F
310
F000FF80000000007FF8000FFFFC0001FFFFC0007F80007FFF0000000000FFFF
310
F0000000000FFFF800000000000000007F80000000000001FFFF8000000000FF
310
FFFFFF8000000000FFFFFF0003FFFFFFFFFFC0000000007FF000FFC000000000
310
FFF8000FFFFE0001FFFFC0007F80007FFF8000000001FFFFF8000000001FFFF8
310
00000000000000007F80000000000001FFFFC000000001FFFFFFFFC000000001
310
FFFFFF0003FFFFFFFFFFE000000000FFF000FFE000000003FFF0001FFFFE0001
310
FFFFC0007F80007FFFC000000007FFFFFE000000003FFFF80000000000000000
310
7F80000000000001FFFFE000000003FFFFFFFFE000000003FFFFFF0003FFFFFF
310
FFFFF000000003FFF000FFF80000000FFFF0001FFFFE0001FFFFE0007F80007F
310
FFF00000000FFFFFFF00000000FFFFF800000000000000007F80000000000001
310
FFFFF80000000FFFFFFFFFF80000000FFFFFFF0003FFFFFFFFFFFC0000000FFF
310
F000FFFE0000003FFFF0001FFFFE0003FFFFE0003F80007FFFFC0000003FFFFF
310
FFC0000003FFFFF800000000000000007F80000000000001FFFFFE0000003FFF
310
FFFFFFFE0000003FFFFFFF0003FFFFFFFFFFFF0000003FFFF000FFFF800000FF
310
FFF0001FFFFF0003FFFFE0003F80007FFFFF000001FFFFFFFFF800001FFFFFF8
310
00000000000000007F80000000000001FFFFFFC00001FFFFFFFFFFFFC00001FF
310
FFFFFF0003FFFFFFFFFFFFC00000FFFFF000FFFFF8000FFFFFFFFFFFFFFFFFFF
310
FFFFFFFFFFFFFFFFFFFFF0001FFFFFFFFFFF0000FFFFFFF80000000000000000
310
7FFFFFFFFFFFFFFFFFFFFFFC001FFFFFFFFFFFFFFC001FFFFFFFFFFFFFFFFFFF
310
FFFFFFFC001FFFFFF000FFFFFFFFFFFFFFFFFFFFFFFFFFFFFFFFFFFFFFFFFFFF
310
FFFFFFFFFFFFFFFFFFFFFFFFFFFFFFFFFFFFFFFFFFFFFFFFFFFFFFFFFFFFFFFF
310
FFFFFFFFFFFFFFFFFFFFFFFFFFFFFFFFFFFFFFFFFFFFFFFFFFFFFFFFFFFFFFFF
310
F000FFFFFFFFFFFFFFFFFFFFFFFFFFFFFFFFFFFFFFFFFFFFFFFFFFFFFFFFFFFF
310
FFFFFFFFFFFFFFFFFFFFFFFFFFFFFFFFFFFFFFFFFFFFFFFFFFFFFFFFFFFFFFFF
310
FFFFFFFFFFFFFFFFFFFFFFFFFFFFFFFFFFFFFFFFFFFFFFFFF000FFFFFFFFFFFF
310
FFFFFFFFFFFFFFFFFFFFFFFFFFFFFFFFFFFFFFFFFFFFFFFFFFFFFFFFFFFFFFFF
310
FFFFFFFFFFFFFFFFFFFFFFFFFFFFFFFFFFFFFFFFFFFFFFFFFFFFFFFFFFFFFFFF
310
FFFFFFFFFFFFFFFFFFFFFFFFFFFFFFFFF000FFFFFFFFFFFFFFFFFFFFFFFFFFFF
310
FFFFFFFFFFFFFFFFFFFFFFFFFFFFFFFFFFFFFFFFFFFFFFFFFFFFFFFFFFFFFFFF
310
FFFFFFFFFFFFFFFFFFFFFFFFFFFFFFFFFFFFFFFFFFFFFFFFFFFFFFFFFFFFFFFF
310
FFFFFFFFFFFFFFFFF000FFFFFFFFFFFFFFFFFFFFFFFFFFFFFFFFFFFFFFFFFFFF
310
FFFFFFFFFFFFFFFFFFFFFFFFFFFFFFFFFFFFFFFFFFFFFFFFFFFFFFFFFFFFFFFF
310
FFFFFFFFFFFFFFFFFFFFFFFFFFFFFFFFFFFFFFFFFFFFFFFFFFFFFFFFFFFFFFFF
310
F000FFFFFFFFFFFFFFFFFFFFFFFFFFFFFFFFFFFFFFFFFFFFFFFFFFFFFFFFFFFF
310
FFFFFFFFFFFFFFFFFFFFFFFFFFFFFFFFFFFFFFFFFFFFFFFFFFFFFFFFFFFFFFFF
310
FFFFFFFFFFFFFFFFFFFFFFFFFFFFFFFFFFFFFFFFFFFFFFFFF000FFFFFFFFFFFF
310
FFFFFFFFFFFFFFFFFFFFFFFFFFFFFFFFFFFFFFFFFFFFFFFFFFFFFFFFFFFFFFFF
310
FFFFFFFFFFFFFFFFFFFFFFFFFFFFFFFFFFFFFFFFFFFFFFFFFFFFFFFFFFFFFFFF
310
FFFFFFFFFFFFFFFFFFFFFFFFFFFFFFFFF000FFFFFFFFFFFFFFFFFFFFFFFFFFFF
310
FFFFFFFFFFFFFFFFFFFFFFFFFFFFFFFFFFFFFFFFFFFFFFFFFFFFFFFFFFFFFFFF
310
FFFFFFFFFFFFFFFFFFFFFFFFFFFFFFFFFFFFFFFFFFFFFFFFFFFFFFFFFFFFFFFF
310
FFFFFFFFFFFFFFFFF000FFFFFFFFFFFFFFFFFFFFFFFFFFFFFFFFFFFFFFFFFFFF
310
FFFFFFFFFFFFFFFFFFFFFFFFFFFFFFFFFFFFFFFFFFFFFFFFFFFFFFFFFFFFFFFF
310
FFFFFFFFFFFFFFFFFFFFFFFFFFFFFFFFFFFFFFFFFFFFFFFFFFFFFFFFFFFFFFFF
310
F000FFFFFFFFFFFFFFFFFFFFFFFFFFFFFFFFFFFFFFFFFFFFFFFFFFFFFFFFFFFF
310
FFFFFFFFFFFFFFFFFFFFFFFFFFFFFFFFFFFFFFFFFFFFFFFFFFFFFFFFFFFFFFFF
310
FFFFFFFFFFFFFFFFFFFFFFFFFFFFFFFFFFFFFFFFFFFFFFFFF000FFFFFFFFFFFF
310
FFFFFFFFFFFFFFFFFFFFFFFFFFFFFFFFFFFFFFFFFFFFFFFFFFFFFFFFFFFFFFFF
310
FFFFFFFFFFFFFFFFFFFFFFFFFFFFFFFFFFFFFFFFFFFFFFFFFFFFFFFFFFFFFFFF
310
FFFFFFFFFFFFFFFFFFFFFFFFFFFFFFFFF000FFFFFFFFFFFFFFFFFFFFFFFFFFFF
310
FFFFFFFFFFFFFFFFFFFFFFFFFFFFFFFFFFFFFFFFFFFFFFFFFFFFFFFFFFFFFFFF
310
FFFFFFFFFFFFFFFFFFFFFFFFFFFFFFFFFFFFFFFFFFFFFFFFFFFFFFFFFFFFFFFF
310
FFFFFFFFFFFFFFFFF000FFFFFFFFFFFFFFFFFFFFFFFFFFFFFFFFFFFFFFFFFFFF
310
FFFFFFFFFFFFFFFFFFFFFFFFFFFFFFFFFFFFFFFFFFFFFFFFFFFFFFFFFFFFFFFF
310
FFFFFFFFFFFFFFFFFFFFFFFFFFFFFFFFFFFFFFFFFFFFFFFFFFFFFFFFFFFFFFFF
310
F000FFFFFFFFFFFFFFFFFFFFFFFFFFFFFFFFFFFFFFFFFFFFFFFFFFFFFFFFFFFF
310
FFFFFFFFFFFFFFFFFFFFFFFFFFFFFFFFFFFFFFFFFFFFFFFFFFFFFFFFFFFFFFFF
310
FFFFFFFFFFFFFFFFFFFFFFFFFFFFFFFFFFFFFFFFFFFFFFFFF000FFFFFFFFFFFF
310
FFFFFFFFFFFFFFFFFFFFFFFFFFFFFFFFFFFFFFFFFFFFFFFFFFFFFFFFFFFFFFFF
310
FFFFFFFFFFFFFFFFFFFFFFFFFFFFFFFFFFFFFFFFFFFFFFFFFFFFFFFFFFFFFFFF
310
FFFFFFFFFFFFFFFFFFFFFFFFFFFFFFFFF000FFFFFFFFFFFFFFFFFFFFFFFFFFFF
310
FFFFFFFFFFFFFFFFFFFFFFFFFFFFFFFFFFFFFFFFFFFFFFFFFFFFFFFFFFFFFFFF
310
FFFFFFFFFFFFFFFFFFFFFFFFFFFFFFFFFFFFFFFFFFFFFFFFFFFFFFFFFFFFFFFF
310
FFFFFFFFFFFFFFFFF000FFFFFFFFFFFFFFFFFFFFFFFFFFFFFFFFFFFFFFFFFFFF
310
FFFFFFFFFFFFFFFFFFFFFFFFFFFFFFFFFFFFFFFFFFFFFFFFFFFFFFFFFFFFFFFF
310
FFFFFFFFFFFFFFFFFFFFFFFFFFFFFFFFFFFFFFFFFFFFFFFFFFFFFFFFFFFFFFFF
310
F000FFFFFFFFFFFFFFFFFFFFFFFFFFFFFFFFFFFFFFFFFFFFFFFFFFFFFFFFFFFF
310
FFFFFFFFFFFFFFFFFFFFFFFFFFFFFFFFFFFFFFFFFFFFFFFFFFFFFFFFFFFFFFFF
310
FFFFFFFFFFFFFFFFFFFFFFFFFFFFFFFFFFFFFFFFFFFFFFFFF000FFFFFFFFFFFF
310
FFFFFFFFFFFFFFFFFFFFFFFFFFFFFFFFFFFFFFFFFFFFFFFFFFFFFFFFFFFFFFFF
310
FFFFFFFFFFFFFFFFFFFFFFFFFFFFFFFFFFFFFFFFFFFFFFFFFFFFFFFFFFFFFFFF
310
FFFFFFFFFFFFFFFFFFFFFFFFFFFFFFFFF000FFFFFFFFFFFFFFFFFFFFFFFFFFFF
310
FFFFFFFFFFFFFFFFFFFFFFFFFFFFFFFFFFFFFFFFFFFFFFFFFFFFFFFFFFFFFFFF
310
FFFFFFFFFFFFFFFFFFFFFFFFFFFFFFFFFFFFFFFFFFFFFFFFFFFFFFFFFFFFFFFF
310
FFFFFFFFFFFFFFFFF000FFFFFFFFFFFFFFFFFFFFFFFFFFFFFFFFFFFFFFFFFFFF
310
FFFFFFFFFFFFFFFFFFFFFFFFFFFFFFFFFFFFFFFFFFFFFFFFFFFFFFFFFFFFFFFF
310
FFFFFFFFFFFFFFFFFFFFFFFFFFFFFFFFFFFFFFFFFFFFFFFFFFFFFFFFFFFFFFFF
310
F000FFFFFFFFFFFFFFFFFFFFFFFFFFFFFFFFFFFFFFFFFFFFFFFFFFFFFFFFFFFF
310
FFFFFFFFFFFFFFFFFFFFFFFFFFFFFFFFFFFFFFFFFFFFFFFFFFFFFFFFFFFFFFFF
310
FFFFFFFFFFFFFFFFFFFFFFFFFFFFFFFFFFFFFFFFFFFFFFFFF000FFFFFFFFFFFF
310
FFFFFFFFFFFFFFFFFFFFFFFFFFFFFFFFFFFFFFFFFFFFFFFFFFFFFFFFFFFFFFFF
310
FFFFFFFFFFFFFFFFFFFFFFFFFFFFFFFFFFFFFFFFFFFFFFFFFFFFFFFFFFFFFFFF
310
FFFFFFFFFFFFFFFFFFFFFFFFFFFFFFFFF0000000000000000000000000000000
310
000000000000000030C38A0400000022291FA6586BC5010090B719FFFEFF012A
310
000300000000600D0A0A000000FFFEFF012A000300000000600D0A0A000000FF
310
FEFF012A00040000000090C18A04000000FFFEFF012A000300000000600D0A0A
310
000000FFFEFF012A000300000000600D0A0A000000FFFEFF012A000400000000
310
90C18A04000000F00A00006F981E000100000000000000010000000200000005
310
00000001000000280A0000FFFEFF012A000708501369A55B6BC50100701C32FF
310
FEFF012A00030000000060330A0A000000FFFEFF012A00030000000060330A0A
310
000000FFFEFF012A00040000000000BB8A04000000FFFEFF012A000300000000
310
60330A0A000000FFFEFF012A00030000000060330A0A000000FFFEFF012A0004
310
0000000000BB8A040000000E0BE3655C6BC5010030DE28FFFEFF012A00030000
310
0000C0190A0A000000FFFEFF012A000300000000C0190A0A000000FFFEFF012A
310
000400000000C0B88A04000000FFFEFF012A000300000000C0190A0A000000FF
310
FEFF012A000300000000C0190A0A000000FFFEFF012A000400000000C0B88A04
310
000000F00A00006F981E00010000000000000001000000020000000500000001
310
000000280A0000FFFEFF012A000708FA02F570FA6CC5010030532EFFFEFF012A
  1
OLE
  0
ENDSEC
  0
SECTION
  2
OBJECTS
  0
DICTIONARY
  5
C
330
0
100
AcDbDictionary
281
     1
  3
ACAD_GROUP
350
D
  3
ACAD_LAYOUT
350
1A
  3
ACAD_MLEADERSTYLE
350
234
  3
ACAD_MLINESTYLE
350
17
  3
ACAD_PLOTSETTINGS
350
19
  3
ACAD_PLOTSTYLENAME
350
E
  3
ACAD_TABLESTYLE
350
233
  3
ACAD_VISUALSTYLE
350
2A
  3
AcDbVariableDictionary
350
235
  0
DICTIONARY
  5
D
102
{ACAD_REACTORS
330
C
102
}
330
C
100
AcDbDictionary
281
     1
  0
DICTIONARY
  5
1A
102
{ACAD_REACTORS
330
C
102
}
330
C
100
AcDbDictionary
281
     1
  3
Layout1
350
1E
  3
Layout2
350
26
  3
Model
350
22
  0
DICTIONARY
  5
234
102
{ACAD_REACTORS
330
C
102
}
330
C
100
AcDbDictionary
281
     1
  0
DICTIONARY
  5
17
102
{ACAD_REACTORS
330
C
102
}
330
C
100
AcDbDictionary
281
     1
  3
Standard
350
18
  0
DICTIONARY
  5
19
102
{ACAD_REACTORS
330
C
102
}
330
C
100
AcDbDictionary
281
     1
  0
ACDBDICTIONARYWDFLT
  5
E
102
{ACAD_REACTORS
330
C
102
}
330
C
100
AcDbDictionary
281
     1
  3
Normal
350
F
100
AcDbDictionaryWithDefault
340
F
  0
DICTIONARY
  5
233
102
{ACAD_REACTORS
330
C
102
}
330
C
100
AcDbDictionary
281
     1
  0
DICTIONARY
  5
2A
102
{ACAD_REACTORS
330
C
102
}
330
C
100
AcDbDictionary
281
     1
  3
2dWireframe
350
2F
  3
3D Hidden
350
31
  3
3dWireframe
350
30
  3
Basic
350
32
  3
Brighten
350
36
  3
ColorChange
350
3A
  3
Conceptual
350
34
  3
Dim
350
35
  3
Facepattern
350
39
  3
Flat
350
2B
  3
FlatWithEdges
350
2C
  3
Gouraud
350
2D
  3
GouraudWithEdges
350
2E
  3
Linepattern
350
38
  3
Realistic
350
33
  3
Thicken
350
37
  0
DICTIONARY
  5
235
102
{ACAD_REACTORS
330
C
102
}
330
C
100
AcDbDictionary
281
     1
  3
PSOLHEIGHT
350
237
  3
PSOLWIDTH
350
236
  0
LAYOUT
  5
1E
102
{ACAD_REACTORS
330
1A
102
}
330
1A
100
AcDbPlotSettings
  1

  2
none_device
  4

  6

 40
0.0
 41
0.0
 42
0.0
 43
0.0
 44
0.0
 45
0.0
 46
0.0
 47
0.0
 48
0.0
 49
0.0
140
0.0
141
0.0
142
1.0
143
1.0
 70
   688
 72
     0
 73
     0
 74
     5
  7

 75
    16
147
1.0
148
0.0
149
0.0
100
AcDbLayout
  1
Layout1
 70
     1
 71
     1
 10
0.0
 20
0.0
 11
420.0
 21
297.0
 12
0.0
 22
0.0
 32
0.0
 14
1.0000000000E+20
 24
1.0000000000E+20
 34
1.0000000000E+20
 15
-1.0000000000E+20
 25
-1.0000000000E+20
 35
-1.0000000000E+20
146
0.0
 13
0.0
 23
0.0
 33
0.0
 16
1.0
 26
0.0
 36
0.0
 17
0.0
 27
1.0
 37
0.0
 76
     0
330
1B
  0
LAYOUT
  5
26
102
{ACAD_REACTORS
330
1A
102
}
330
1A
100
AcDbPlotSettings
  1

  2
none_device
  4

  6

 40
0.0
 41
0.0
 42
0.0
 43
0.0
 44
0.0
 45
0.0
 46
0.0
 47
0.0
 48
0.0
 49
0.0
140
0.0
141
0.0
142
1.0
143
1.0
 70
   688
 72
     0
 73
     0
 74
     5
  7

 75
    16
147
1.0
148
0.0
149
0.0
100
AcDbLayout
  1
Layout2
 70
     1
 71
     2
 10
0.0
 20
0.0
 11
0.0
 21
0.0
 12
0.0
 22
0.0
 32
0.0
 14
0.0
 24
0.0
 34
0.0
 15
0.0
 25
0.0
 35
0.0
146
0.0
 13
0.0
 23
0.0
 33
0.0
 16
1.0
 26
0.0
 36
0.0
 17
0.0
 27
1.0
 37
0.0
 76
     0
330
23
  0
LAYOUT
  5
22
102
{ACAD_REACTORS
330
1A
102
}
330
1A
100
AcDbPlotSettings
  1

  2
none_device
  4

  6

 40
0.0
 41
0.0
 42
0.0
 43
0.0
 44
0.0
 45
0.0
 46
0.0
 47
0.0
 48
0.0
 49
0.0
140
0.0
141
0.0
142
1.0
143
1.0
 70
  1712
 72
     0
 73
     0
 74
     0
  7

 75
     0
147
1.0
148
0.0
149
0.0
100
AcDbLayout
  1
Model
 70
     1
 71
     0
 10
0.0
 20
0.0
 11
297.0
 21
210.0
 12
0.0
 22
0.0
 32
0.0
 14
0.0
 24
0.0
 34
0.0
 15
297.0
 25
210.0
 35
0.0
146
0.0
 13
0.0
 23
0.0
 33
0.0
 16
1.0
 26
0.0
 36
0.0
 17
0.0
 27
1.0
 37
0.0
 76
     0
330
1F
331
29
  0
MLINESTYLE
  5
18
102
{ACAD_REACTORS
330
17
102
}
330
17
100
AcDbMlineStyle
  2
Standard
 70
     0
  3

 62
   256
 51
90.0
 52
90.0
 71
     2
 49
0.5
 62
   256
  6
BYLAYER
 49
-0.5
 62
   256
  6
BYLAYER
  0
ACDBPLACEHOLDER
  5
F
102
{ACAD_REACTORS
330
E
102
}
330
E
  0
VISUALSTYLE
  5
2F
102
{ACAD_REACTORS
330
2A
102
}
330
2A
100
AcDbVisualStyle
  2
2dWireframe
 70
     4
 71
     0
 72
     2
 73
     0
 90
        0
 40
-0.6
 41
-30.0
 62
     5
 63
     7
 74
     1
 91
        4
 64
     7
 65
   257
 75
     1
175
     1
 42
1.0
 92
        0
 66
   257
 43
1.0
 76
     1
 77
     6
 78
     2
 67
     7
 79
     5
170
     0
171
     0
290
     0
174
     0
 93
        1
 44
0.0
173
     0
291
     0
 45
0.0
1001
ACAD
1000
AcDbSavedByObjectVersion
1070
     0
  0
VISUALSTYLE
  5
31
102
{ACAD_REACTORS
330
2A
102
}
330
2A
100
AcDbVisualStyle
  2
3D Hidden
 70
     6
 71
     1
 72
     2
 73
     2
 90
        0
 40
-0.6
 41
-30.0
 62
     5
 63
     7
 74
     2
 91
        2
 64
     7
 65
   257
 75
     2
175
     1
 42
40.0
 92
        0
 66
   257
 43
1.0
 76
     1
 77
     6
 78
     2
 67
     7
 79
     3
170
     0
171
     0
290
     0
174
     0
 93
        1
 44
0.0
173
     0
291
     0
 45
0.0
1001
ACAD
1000
AcDbSavedByObjectVersion
1070
     0
  0
VISUALSTYLE
  5
30
102
{ACAD_REACTORS
330
2A
102
}
330
2A
100
AcDbVisualStyle
  2
3dWireframe
 70
     5
 71
     0
 72
     2
 73
     0
 90
        0
 40
-0.6
 41
-30.0
 62
     5
 63
     7
 74
     1
 91
        4
 64
     7
 65
   257
 75
     1
175
     1
 42
1.0
 92
        0
 66
   257
 43
1.0
 76
     1
 77
     6
 78
     2
 67
     7
 79
     5
170
     0
171
     0
290
     0
174
     0
 93
        1
 44
0.0
173
     0
291
     0
 45
0.0
1001
ACAD
1000
AcDbSavedByObjectVersion
1070
     0
  0
VISUALSTYLE
  5
32
102
{ACAD_REACTORS
330
2A
102
}
330
2A
100
AcDbVisualStyle
  2
Basic
 70
     7
 71
     1
 72
     0
 73
     1
 90
        0
 40
-0.6
 41
-30.0
 62
     5
 63
     7
 74
     0
 91
        4
 64
     7
 65
   257
 75
     1
175
     1
 42
1.0
 92
        8
 66
     7
 43
1.0
 76
     1
 77
     6
 78
     2
 67
     7
 79
     5
170
     0
171
     0
290
     0
174
     0
 93
        1
 44
0.0
173
     0
291
     1
 45
0.0
1001
ACAD
1000
AcDbSavedByObjectVersion
1070
     0
  0
VISUALSTYLE
  5
36
102
{ACAD_REACTORS
330
2A
102
}
330
2A
100
AcDbVisualStyle
  2
Brighten
 70
    12
 71
     2
 72
     2
 73
     0
 90
        0
 40
-0.6
 41
-30.0
 62
     5
 63
     7
 74
     1
 91
        4
 64
     7
 65
   257
 75
     1
175
     1
 42
1.0
 92
        8
 66
     7
 43
1.0
 76
     1
 77
     6
 78
     2
 67
     7
 79
     5
170
     0
171
     0
290
     0
174
     0
 93
        1
 44
50.0
173
     0
291
     1
 45
0.0
1001
ACAD
1000
AcDbSavedByObjectVersion
1070
     0
  0
VISUALSTYLE
  5
3A
102
{ACAD_REACTORS
330
2A
102
}
330
2A
100
AcDbVisualStyle
  2
ColorChange
 70
    16
 71
     2
 72
     2
 73
     3
 90
        0
 40
-0.6
 41
-30.0
 62
     5
 63
     8
 74
     1
 91
        4
 64
     7
 65
   257
 75
     1
175
     1
 42
1.0
 92
        8
 66
     8
 43
1.0
 76
     1
 77
     6
 78
     2
 67
     7
 79
     5
170
     0
171
     0
290
     0
174
     0
 93
        1
 44
0.0
173
     0
291
     1
 45
0.0
1001
ACAD
1000
AcDbSavedByObjectVersion
1070
     0
  0
VISUALSTYLE
  5
34
102
{ACAD_REACTORS
330
2A
102
}
330
2A
100
AcDbVisualStyle
  2
Conceptual
 70
     9
 71
     3
 72
     2
 73
     0
 90
        0
 40
-0.6
 41
-30.0
 62
     5
 63
     7
 74
     2
 91
        2
 64
     7
 65
   257
 75
     1
175
     1
 42
40.0
 92
        8
 66
     7
 43
1.0
 76
     1
 77
     6
 78
     2
 67
     7
 79
     3
170
     0
171
     0
290
     0
174
     0
 93
        1
 44
0.0
173
     0
291
     0
 45
0.0
1001
ACAD
1000
AcDbSavedByObjectVersion
1070
     0
  0
VISUALSTYLE
  5
35
102
{ACAD_REACTORS
330
2A
102
}
330
2A
100
AcDbVisualStyle
  2
Dim
 70
    11
 71
     2
 72
     2
 73
     0
 90
        0
 40
-0.6
 41
-30.0
 62
     5
 63
     7
 74
     1
 91
        4
 64
     7
 65
   257
 75
     1
175
     1
 42
1.0
 92
        8
 66
     7
 43
1.0
 76
     1
 77
     6
 78
     2
 67
     7
 79
     5
170
     0
171
     0
290
     0
174
     0
 93
        1
 44
-50.0
173
     0
291
     1
 45
0.0
1001
ACAD
1000
AcDbSavedByObjectVersion
1070
     0
  0
VISUALSTYLE
  5
39
102
{ACAD_REACTORS
330
2A
102
}
330
2A
100
AcDbVisualStyle
  2
Facepattern
 70
    15
 71
     2
 72
     2
 73
     0
 90
        0
 40
-0.6
 41
-30.0
 62
     5
 63
     7
 74
     1
 91
        4
 64
     7
 65
   257
 75
     1
175
     1
 42
1.0
 92
        8
 66
     7
 43
1.0
 76
     1
 77
     6
 78
     2
 67
     7
 79
     5
170
     0
171
     0
290
     0
174
     0
 93
        1
 44
0.0
173
     0
291
     1
 45
0.0
1001
ACAD
1000
AcDbSavedByObjectVersion
1070
     0
  0
VISUALSTYLE
  5
2B
102
{ACAD_REACTORS
330
2A
102
}
330
2A
100
AcDbVisualStyle
  2
Flat
 70
     0
 71
     2
 72
     1
 73
     1
 90
        2
 40
-0.6
 41
30.0
 62
     5
 63
     7
 74
     0
 91
        4
 64
     7
 65
   257
 75
     1
175
     1
 42
1.0
 92
        8
 66
     7
 43
1.0
 76
     1
 77
     6
 78
     2
 67
     7
 79
     5
170
     0
171
     0
290
     0
174
     0
 93
       13
 44
0.0
173
     0
291
     1
 45
0.0
1001
ACAD
1000
AcDbSavedByObjectVersion
1070
     0
  0
VISUALSTYLE
  5
2C
102
{ACAD_REACTORS
330
2A
102
}
330
2A
100
AcDbVisualStyle
  2
FlatWithEdges
 70
     1
 71
     2
 72
     1
 73
     1
 90
        2
 40
-0.6
 41
30.0
 62
     5
 63
     7
 74
     1
 91
        4
 64
     7
 65
   257
 75
     1
175
     1
 42
1.0
 92
        0
 66
   257
 43
1.0
 76
     1
 77
     6
 78
     2
 67
     7
 79
     5
170
     0
171
     0
290
     0
174
     0
 93
       13
 44
0.0
173
     0
291
     1
 45
0.0
1001
ACAD
1000
AcDbSavedByObjectVersion
1070
     0
  0
VISUALSTYLE
  5
2D
102
{ACAD_REACTORS
330
2A
102
}
330
2A
100
AcDbVisualStyle
  2
Gouraud
 70
     2
 71
     2
 72
     2
 73
     1
 90
        2
 40
-0.6
 41
30.0
 62
     5
 63
     7
 74
     0
 91
        4
 64
     7
 65
   257
 75
     1
175
     1
 42
1.0
 92
        0
 66
     7
 43
1.0
 76
     1
 77
     6
 78
     2
 67
     7
 79
     5
170
     0
171
     0
290
     0
174
     0
 93
       13
 44
0.0
173
     0
291
     1
 45
0.0
1001
ACAD
1000
AcDbSavedByObjectVersion
1070
     0
  0
VISUALSTYLE
  5
2E
102
{ACAD_REACTORS
330
2A
102
}
330
2A
100
AcDbVisualStyle
  2
GouraudWithEdges
 70
     3
 71
     2
 72
     2
 73
     1
 90
        2
 40
-0.6
 41
30.0
 62
     5
 63
     7
 74
     1
 91
        4
 64
     7
 65
   257
 75
     1
175
     1
 42
1.0
 92
        0
 66
   257
 43
1.0
 76
     1
 77
     6
 78
     2
 67
     7
 79
     5
170
     0
171
     0
290
     0
174
     0
 93
       13
 44
0.0
173
     0
291
     1
 45
0.0
1001
ACAD
1000
AcDbSavedByObjectVersion
1070
     0
  0
VISUALSTYLE
  5
38
102
{ACAD_REACTORS
330
2A
102
}
330
2A
100
AcDbVisualStyle
  2
Linepattern
 70
    14
 71
     2
 72
     2
 73
     0
 90
        0
 40
-0.6
 41
-30.0
 62
     5
 63
     7
 74
     1
 91
        4
 64
     7
 65
   257
 75
     7
175
     7
 42
1.0
 92
        8
 66
     7
 43
1.0
 76
     1
 77
     6
 78
     2
 67
     7
 79
     5
170
     0
171
     0
290
     0
174
     0
 93
        1
 44
0.0
173
     0
291
     1
 45
0.0
1001
ACAD
1000
AcDbSavedByObjectVersion
1070
     0
  0
VISUALSTYLE
  5
33
102
{ACAD_REACTORS
330
2A
102
}
330
2A
100
AcDbVisualStyle
  2
Realistic
 70
     8
 71
     2
 72
     2
 73
     0
 90
        0
 40
-0.6
 41
-30.0
 62
     5
 63
     7
 74
     1
 91
        0
 64
     7
 65
   257
 75
     1
175
     1
 42
1.0
 92
        8
 66
     8
 43
1.0
 76
     1
 77
     6
 78
     2
 67
     7
 79
     5
170
     0
171
     0
290
     0
174
     0
 93
       13
 44
0.0
173
     0
291
     0
 45
0.0
1001
ACAD
1000
AcDbSavedByObjectVersion
1070
     0
  0
VISUALSTYLE
  5
37
102
{ACAD_REACTORS
330
2A
102
}
330
2A
100
AcDbVisualStyle
  2
Thicken
 70
    13
 71
     2
 72
     2
 73
     0
 90
        0
 40
-0.6
 41
-30.0
 62
     5
 63
     7
 74
     1
 91
        4
 64
     7
 65
   257
 75
     1
175
     1
 42
1.0
 92
       12
 66
     7
 43
1.0
 76
     1
 77
     6
 78
     2
 67
     7
 79
     5
170
     0
171
     0
290
     0
174
     0
 93
        1
 44
0.0
173
     0
291
     1
 45
0.0
1001
ACAD
1000
AcDbSavedByObjectVersion
1070
     0
  0
DICTIONARYVAR
  5
237
102
{ACAD_REACTORS
330
235
102
}
330
235
100
DictionaryVariables
280
     0
  1
80.000000
  0
DICTIONARYVAR
  5
236
102
{ACAD_REACTORS
330
235
102
}
330
235
100
DictionaryVariables
280
     0
  1
5.000000
  0
ENDSEC
  0
EOF
