  0
SECTION
  2
HEADER
  9
$ACADVER
  1
AC1015
  9
$ACADMAINTVER
 70
     6
  9
$DWGCODEPAGE
  3
ANSI_1252
  9
$INSBASE
 10
0.0
 20
0.0
 30
0.0
  9
$EXTMIN
 10
0.0
 20
0.0
 30
0.0
  9
$EXTMAX
 10
297.0
 20
210.0
 30
0.0
  9
$LIMMIN
 10
0.0
 20
0.0
  9
$LIMMAX
 10
297.0
 20
210.0
  9
$ORTHOMODE
 70
     0
  9
$REGENMODE
 70
     1
  9
$FILLMODE
 70
     1
  9
$QTEXTMODE
 70
     0
  9
$MIRRTEXT
 70
     1
  9
$LTSCALE
 40
1.0
  9
$ATTMODE
 70
     1
  9
$TEXTSIZE
 40
2.0
  9
$TRACEWID
 40
1.0
  9
$TEXTSTYLE
  7
Standard
  9
$CLAYER
  8
0
  9
$CELTYPE
  6
ByLayer
  9
$CECOLOR
 62
   256
  9
$CELTSCALE
 40
1.0
  9
$DISPSILH
 70
     0
  9
$DIMSCALE
 40
1.0
  9
$DIMASZ
 40
3.0
  9
$DIMEXO
 40
0.0
  9
$DIMDLI
 40
3.75
  9
$DIMRND
 40
0.0
  9
$DIMDLE
 40
0.0
  9
$DIMEXE
 40
1.0
  9
$DIMTP
 40
0.0
  9
$DIMTM
 40
0.0
  9
$DIMTXT
 40
2.0
  9
$DIMCEN
 40
2.5
  9
$DIMTSZ
 40
0.0
  9
$DIMTOL
 70
     0
  9
$DIMLIM
 70
     0
  9
$DIMTIH
 70
     1
  9
$DIMTOH
 70
     1
  9
$DIMSE1
 70
     0
  9
$DIMSE2
 70
     0
  9
$DIMTAD
 70
     1
  9
$DIMZIN
 70
     0
  9
$DIMBLK
  1

  9
$DIMASO
 70
     1
  9
$DIMSHO
 70
     1
  9
$DIMPOST
  1

  9
$DIMAPOST
  1

  9
$DIMALT
 70
     0
  9
$DIMALTD
 70
     3
  9
$DIMALTF
 40
0.0393700787
  9
$DIMLFAC
 40
1.0
  9
$DIMTOFL
 70
     1
  9
$DIMTVP
 40
0.0
  9
$DIMTIX
 70
     0
  9
$DIMSOXD
 70
     0
  9
$DIMSAH
 70
     0
  9
$DIMBLK1
  1

  9
$DIMBLK2
  1

  9
$DIMSTYLE
  2
ISO-25
  9
$DIMCLRD
 70
     0
  9
$DIMCLRE
 70
     0
  9
$DIMCLRT
 70
     0
  9
$DIMTFAC
 40
1.0
  9
$DIMGAP
 40
1.524
  9
$DIMJUST
 70
     0
  9
$DIMSD1
 70
     0
  9
$DIMSD2
 70
     0
  9
$DIMTOLJ
 70
     0
  9
$DIMTZIN
 70
     0
  9
$DIMALTZ
 70
     0
  9
$DIMALTTZ
 70
     0
  9
$DIMUPT
 70
     0
  9
$DIMDEC
 70
     2
  9
$DIMTDEC
 70
     3
  9
$DIMALTU
 70
     2
  9
$DIMALTTD
 70
     3
  9
$DIMTXSTY
  7
Standard
  9
$DIMAUNIT
 70
     0
  9
$DIMADEC
 70
     2
  9
$DIMALTRND
 40
0.0
  9
$DIMAZIN
 70
     0
  9
$DIMDSEP
 70
    44
  9
$DIMATFIT
 70
     3
  9
$DIMFRAC
 70
     0
  9
$DIMLDRBLK
  1

  9
$DIMLUNIT
 70
     2
  9
$DIMLWD
 70
    -2
  9
$DIMLWE
 70
    -2
  9
$DIMTMOVE
 70
     0
  9
$LUNITS
 70
     2
  9
$LUPREC
 70
     2
  9
$SKETCHINC
 40
1.0
  9
$FILLETRAD
 40
10.0
  9
$AUNITS
 70
     0
  9
$AUPREC
 70
     2
  9
$MENU
  1
.
  9
$ELEVATION
 40
0.0
  9
$PELEVATION
 40
0.0
  9
$THICKNESS
 40
0.0
  9
$LIMCHECK
 70
     0
  9
$CHAMFERA
 40
10.0
  9
$CHAMFERB
 40
10.0
  9
$CHAMFERC
 40
20.0
  9
$CHAMFERD
 40
0.0
  9
$SKPOLY
 70
     0
  9
$TDCREATE
 40
2455679.501293692
  9
$TDUCREATE
 40
2455679.417960359
  9
$TDUPDATE
 40
2455679.501293704
  9
$TDUUPDATE
 40
2455679.41796037
  9
$TDINDWG
 40
0.0000000116
  9
$TDUSRTIMER
 40
0.0000000116
  9
$USRTIMER
 70
     1
  9
$ANGBASE
 50
0.0
  9
$ANGDIR
 70
     0
  9
$PDMODE
 70
     0
  9
$PDSIZE
 40
-1.0
  9
$PLINEWID
 40
0.0
  9
$SPLFRAME
 70
     0
  9
$SPLINETYPE
 70
     6
  9
$SPLINESEGS
 70
     8
  9
$HANDSEED
  5
23C
  9
$SURFTAB1
 70
     6
  9
$SURFTAB2
 70
     6
  9
$SURFTYPE
 70
     6
  9
$SURFU
 70
     6
  9
$SURFV
 70
     6
  9
$UCSBASE
  2

  9
$UCSNAME
  2

  9
$UCSORG
 10
0.0
 20
0.0
 30
0.0
  9
$UCSXDIR
 10
1.0
 20
0.0
 30
0.0
  9
$UCSYDIR
 10
0.0
 20
1.0
 30
0.0
  9
$UCSORTHOREF
  2

  9
$UCSORTHOVIEW
 70
     0
  9
$UCSORGTOP
 10
0.0
 20
0.0
 30
0.0
  9
$UCSORGBOTTOM
 10
0.0
 20
0.0
 30
0.0
  9
$UCSORGLEFT
 10
0.0
 20
0.0
 30
0.0
  9
$UCSORGRIGHT
 10
0.0
 20
0.0
 30
0.0
  9
$UCSORGFRONT
 10
0.0
 20
0.0
 30
0.0
  9
$UCSORGBACK
 10
0.0
 20
0.0
 30
0.0
  9
$PUCSBASE
  2

  9
$PUCSNAME
  2

  9
$PUCSORG
 10
0.0
 20
0.0
 30
0.0
  9
$PUCSXDIR
 10
1.0
 20
0.0
 30
0.0
  9
$PUCSYDIR
 10
0.0
 20
1.0
 30
0.0
  9
$PUCSORTHOREF
  2

  9
$PUCSORTHOVIEW
 70
     0
  9
$PUCSORGTOP
 10
0.0
 20
0.0
 30
0.0
  9
$PUCSORGBOTTOM
 10
0.0
 20
0.0
 30
0.0
  9
$PUCSORGLEFT
 10
0.0
 20
0.0
 30
0.0
  9
$PUCSORGRIGHT
 10
0.0
 20
0.0
 30
0.0
  9
$PUCSORGFRONT
 10
0.0
 20
0.0
 30
0.0
  9
$PUCSORGBACK
 10
0.0
 20
0.0
 30
0.0
  9
$USERI1
 70
     0
  9
$USERI2
 70
     0
  9
$USERI3
 70
     0
  9
$USERI4
 70
     0
  9
$USERI5
 70
     0
  9
$USERR1
 40
0.0
  9
$USERR2
 40
0.0
  9
$USERR3
 40
0.0
  9
$USERR4
 40
0.0
  9
$USERR5
 40
0.0
  9
$WORLDVIEW
 70
     1
  9
$SHADEDGE
 70
     3
  9
$SHADEDIF
 70
    70
  9
$TILEMODE
 70
     1
  9
$MAXACTVP
 70
    64
  9
$PINSBASE
 10
0.0
 20
0.0
 30
0.0
  9
$PLIMCHECK
 70
     0
  9
$PEXTMIN
 10
1.0000000000E+20
 20
1.0000000000E+20
 30
1.0000000000E+20
  9
$PEXTMAX
 10
-1.0000000000E+20
 20
-1.0000000000E+20
 30
-1.0000000000E+20
  9
$PLIMMIN
 10
0.0
 20
0.0
  9
$PLIMMAX
 10
420.0
 20
297.0
  9
$UNITMODE
 70
     0
  9
$VISRETAIN
 70
     1
  9
$PLINEGEN
 70
     0
  9
$PSLTSCALE
 70
     1
  9
$TREEDEPTH
 70
  3020
  9
$CMLSTYLE
  2
Standard
  9
$CMLJUST
 70
     0
  9
$CMLSCALE
 40
20.0
  9
$PROXYGRAPHICS
 70
     1
  9
$MEASUREMENT
 70
     1
  9
$CELWEIGHT
370
    -1
  9
$ENDCAPS
280
     0
  9
$JOINSTYLE
280
     0
  9
$LWDISPLAY
290
     1
  9
$INSUNITS
 70
     4
  9
$HYPERLINKBASE
  1

  9
$STYLESHEET
  1

  9
$XEDIT
290
     1
  9
$CEPSNTYPE
380
     0
  9
$PSTYLEMODE
290
     1
  9
$FINGERPRINTGUID
  2
{02A0C2E3-0098-460E-A7F0-33618CE8B5F0}
  9
$VERSIONGUID
  2
{FAEB1C32-E019-11D5-929B-00C0DF256EC4}
  9
$EXTNAMES
290
     1
  9
$PSVPSCALE
 40
0.0
  9
$OLESTARTUP
290
     0
  0
ENDSEC
  0
SECTION
  2
CLASSES
  0
CLASS
  1
ACDBDICTIONARYWDFLT
  2
AcDbDictionaryWithDefault
  3
ObjectDBX Classes
 90
        0
280
     0
281
     0
  0
CLASS
  1
VISUALSTYLE
  2
AcDbVisualStyle
  3
ObjectDBX Classes
 90
     4095
280
     0
281
     0
  0
CLASS
  1
DICTIONARYVAR
  2
AcDbDictionaryVar
  3
ObjectDBX Classes
 90
        0
280
     0
281
     0
  0
CLASS
  1
ACDBPLACEHOLDER
  2
AcDbPlaceHolder
  3
ObjectDBX Classes
 90
        0
280
     0
281
     0
  0
CLASS
  1
LAYOUT
  2
AcDbLayout
  3
ObjectDBX Classes
 90
        0
280
     0
281
     0
  0
ENDSEC
  0
SECTION
  2
TABLES
  0
TABLE
  2
VPORT
  5
8
330
0
100
AcDbSymbolTable
 70
     1
  0
VPORT
  5
29
330
8
100
AcDbSymbolTableRecord
100
AcDbViewportTableRecord
  2
*Active
 70
     0
 10
0.0
 20
0.0
 11
1.0
 21
1.0
 12
148.5
 22
105.0
 13
0.0
 23
0.0
 14
10.0
 24
10.0
 15
10.0
 25
10.0
 16
0.0
 26
0.0
 36
1.0
 17
0.0
 27
0.0
 37
0.0
 40
210.0
 41
1.4142857143
 42
50.0
 43
0.0
 44
0.0
 50
0.0
 51
0.0
 71
     0
 72
  2000
 73
     1
 74
     3
 75
     0
 76
     0
 77
     0
 78
     0
281
     0
 65
     1
110
0.0
120
0.0
130
0.0
111
1.0
121
0.0
131
0.0
112
0.0
122
1.0
132
0.0
 79
     0
146
0.0
  0
ENDTAB
  0
TABLE
  2
LTYPE
  5
5
330
0
100
AcDbSymbolTable
 70
     6
  0
LTYPE
  5
14
330
5
100
AcDbSymbolTableRecord
100
AcDbLinetypeTableRecord
  2
ByBlock
 70
     0
  3

 72
    65
 73
     0
 40
0.0
  0
LTYPE
  5
15
330
5
100
AcDbSymbolTableRecord
100
AcDbLinetypeTableRecord
  2
ByLayer
 70
     0
  3

 72
    65
 73
     0
 40
0.0
  0
LTYPE
  5
16
330
5
100
AcDbSymbolTableRecord
100
AcDbLinetypeTableRecord
  2
Continuous
 70
     0
  3
Solid line
 72
    65
 73
     0
 40
0.0
  0
LTYPE
  5
3B
330
5
100
AcDbSymbolTableRecord
100
AcDbLinetypeTableRecord
  2
HIDDEN
 70
     0
  3
Hidden __ __ __ __ __ __ __ __ __ __ __ __ __ __
 72
    65
 73
     2
 40
1.905
 49
1.27
 74
     0
 49
-0.635
 74
     0
  0
LTYPE
  5
3C
330
5
100
AcDbSymbolTableRecord
100
AcDbLinetypeTableRecord
  2
PHANTOM
 70
     0
  3
Phantom ______  __  __  ______  __  __  ______
 72
    65
 73
     6
 40
12.7
 49
6.35
 74
     0
 49
-1.27
 74
     0
 49
1.27
 74
     0
 49
-1.27
 74
     0
 49
1.27
 74
     0
 49
-1.27
 74
     0
  0
LTYPE
  5
3D
330
5
100
AcDbSymbolTableRecord
100
AcDbLinetypeTableRecord
  2
CENTER
 70
     0
  3
Center ____ _ ____ _ ____ _ ____ _ ____ _ ____
 72
    65
 73
     4
 40
10.16
 49
6.35
 74
     0
 49
-1.27
 74
     0
 49
1.27
 74
     0
 49
-1.27
 74
     0
  0
LTYPE
  5
3E
330
5
100
AcDbSymbolTableRecord
100
AcDbLinetypeTableRecord
  2
CENTERX2
 70
     0
  3
Center (2x) ________  __  ________  __  _____
 72
    65
 73
     4
 40
20.32
 49
12.7
 74
     0
 49
-2.54
 74
     0
 49
2.54
 74
     0
 49
-2.54
 74
     0
  0
LTYPE
  5
3F
330
5
100
AcDbSymbolTableRecord
100
AcDbLinetypeTableRecord
  2
DOT2
 70
     0
  3
Dot (.5x) ........................................
 72
    65
 73
     2
 40
0.635
 49
0.0
 74
     0
 49
-0.635
 74
     0
  0
ENDTAB
  0
TABLE
  2
LAYER
  5
2
330
0
100
AcDbSymbolTable
 70
     5
  0
LAYER
  5
10
330
2
100
AcDbSymbolTableRecord
100
AcDbLayerTableRecord
  2
0
 70
     0
 62
     7
  6
Continuous
370
    -3
390
F
  0
LAYER
  5
40
330
2
100
AcDbSymbolTableRecord
100
AcDbLayerTableRecord
  2
FORMAT
 70
     0
 62
     7
  6
Continuous
370
    -3
390
F
  0
LAYER
  5
41
330
2
100
AcDbSymbolTableRecord
100
AcDbLayerTableRecord
  2
VERMASSUNG
 70
     0
 62
     7
  6
Continuous
370
    -3
390
F
  0
LAYER
  5
42
330
2
100
AcDbSymbolTableRecord
100
AcDbLayerTableRecord
  2
KOPF_DÜNN
 70
     0
 62
     7
  6
Continuous
370
    -3
390
F
  0
LAYER
  5
43
330
2
100
AcDbSymbolTableRecord
100
AcDbLayerTableRecord
  2
KOPF_DICK
 70
     0
 62
     7
  6
Continuous
370
    15
390
F
  0
ENDTAB
  0
TABLE
  2
STYLE
  5
3
330
0
100
AcDbSymbolTable
 70
     3
  0
STYLE
  5
11
330
3
100
AcDbSymbolTableRecord
100
AcDbTextStyleTableRecord
  2
Standard
 70
     0
 40
0.0
 41
1.0
 50
0.0
 71
     0
 42
2.5
  3
txt
  4

  0
STYLE
  5
44
330
3
100
AcDbSymbolTableRecord
100
AcDbTextStyleTableRecord
  2
SLDTEXTSTYLE0
 70
     0
 40
0.0
 41
0.7
 50
0.0
 71
     0
 42
0.2
  3
TXT
  4

  0
STYLE
  5
48
330
3
100
AcDbSymbolTableRecord
100
AcDbTextStyleTableRecord
  2
SLDTEXTSTYLE1
 70
     0
 40
0.0
 41
0.6473684211
 50
0.0
 71
     0
 42
0.2
  3
TXT
  4

  0
ENDTAB
  0
TABLE
  2
VIEW
  5
6
330
0
100
AcDbSymbolTable
 70
     0
  0
ENDTAB
  0
TABLE
  2
UCS
  5
7
330
0
100
AcDbSymbolTable
 70
     0
  0
ENDTAB
  0
TABLE
  2
APPID
  5
9
330
0
100
AcDbSymbolTable
 70
     1
  0
APPID
  5
12
330
9
100
AcDbSymbolTableRecord
100
AcDbRegAppTableRecord
  2
ACAD
 70
     0
  0
ENDTAB
  0
TABLE
  2
DIMSTYLE
  5
A
330
0
100
AcDbSymbolTable
 70
     5
100
AcDbDimStyleTable
  0
DIMSTYLE
105
27
330
A
100
AcDbSymbolTableRecord
100
AcDbDimStyleTableRecord
  2
ISO-25
 70
     0
 41
2.5
 42
0.625
 43
3.75
 44
1.25
 73
     0
 74
     0
 77
     1
 78
     8
140
2.5
141
2.5
143
0.0393700787
147
0.625
171
     3
172
     1
271
     2
272
     2
274
     3
278
    44
283
     0
284
     8
340
11
  0
DIMSTYLE
105
1DB
102
{ACAD_REACTORS
330
1DA
330
20C
330
216
330
221
330
22B
102
}
330
A
100
AcDbSymbolTableRecord
100
AcDbDimStyleTableRecord
  2
SLDDIMSTYLE0
 70
     0
 41
3.0
 44
0.0
 45
0.000000001
 73
     0
 74
     0
 77
     1
 78
    12
140
2.0
147
0.5
173
     1
271
     2
272
     3
284
    12
340
44
  0
DIMSTYLE
105
1E8
102
{ACAD_REACTORS
330
1E7
102
}
330
A
100
AcDbSymbolTableRecord
100
AcDbDimStyleTableRecord
  2
SLDDIMSTYLE1
 70
     0
 41
3.0
 44
0.0
 45
0.000000001
 73
     0
 74
     0
 77
     1
 78
    12
140
2.0
147
0.5
173
     1
271
     2
272
     2
284
    12
340
44
  0
DIMSTYLE
105
1F3
102
{ACAD_REACTORS
330
1F2
102
}
330
A
100
AcDbSymbolTableRecord
100
AcDbDimStyleTableRecord
  2
SLDDIMSTYLE2
 70
     0
 41
3.0
 44
0.0
 45
0.000000001
 73
     0
 74
     0
 77
     1
 78
    12
140
2.0
147
0.5
173
     1
271
     2
272
     2
284
    12
340
44
  0
DIMSTYLE
105
200
102
{ACAD_REACTORS
330
1FF
102
}
330
A
100
AcDbSymbolTableRecord
100
AcDbDimStyleTableRecord
  2
SLDDIMSTYLE3
 70
     0
 41
3.0
 44
0.0
 45
0.000000001
 73
     0
 74
     0
 77
     1
 78
    12
140
2.0
147
0.5
173
     1
271
     2
272
     3
284
    12
340
44
  0
ENDTAB
  0
TABLE
  2
BLOCK_RECORD
  5
1
330
0
100
AcDbSymbolTable
 70
     9
  0
BLOCK_RECORD
  5
1F
330
1
100
AcDbSymbolTableRecord
100
AcDbBlockTableRecord
  2
*Model_Space
340
22
  0
BLOCK_RECORD
  5
1B
330
1
100
AcDbSymbolTableRecord
100
AcDbBlockTableRecord
  2
*Paper_Space
340
1E
  0
BLOCK_RECORD
  5
23
330
1
100
AcDbSymbolTableRecord
100
AcDbBlockTableRecord
  2
*Paper_Space0
340
26
  0
BLOCK_RECORD
  5
1DC
330
1
100
AcDbSymbolTableRecord
100
AcDbBlockTableRecord
  2
*D1
340
0
  0
BLOCK_RECORD
  5
1E9
330
1
100
AcDbSymbolTableRecord
100
AcDbBlockTableRecord
  2
*D2
340
0
  0
BLOCK_RECORD
  5
1F4
330
1
100
AcDbSymbolTableRecord
100
AcDbBlockTableRecord
  2
*D3
340
0
  0
BLOCK_RECORD
  5
201
330
1
100
AcDbSymbolTableRecord
100
AcDbBlockTableRecord
  2
*D4
340
0
  0
BLOCK_RECORD
  5
20D
330
1
100
AcDbSymbolTableRecord
100
AcDbBlockTableRecord
  2
*D5
340
0
  0
BLOCK_RECORD
  5
217
330
1
100
AcDbSymbolTableRecord
100
AcDbBlockTableRecord
  2
*D6
340
0
  0
BLOCK_RECORD
  5
222
330
1
100
AcDbSymbolTableRecord
100
AcDbBlockTableRecord
  2
*D7
340
0
  0
BLOCK_RECORD
  5
22C
330
1
100
AcDbSymbolTableRecord
100
AcDbBlockTableRecord
  2
*D8
340
0
  0
ENDTAB
  0
ENDSEC
  0
SECTION
  2
BLOCKS
  0
BLOCK
  5
20
330
1F
100
AcDbEntity
  8
0
100
AcDbBlockBegin
  2
*Model_Space
 70
     0
 10
0.0
 20
0.0
 30
0.0
  3
*Model_Space
  1

  0
ENDBLK
  5
21
330
1F
100
AcDbEntity
  8
0
100
AcDbBlockEnd
  0
BLOCK
  5
1C
330
1B
100
AcDbEntity
 67
     1
  8
0
100
AcDbBlockBegin
  2
*Paper_Space
 70
     0
 10
0.0
 20
0.0
 30
0.0
  3
*Paper_Space
  1

  0
ENDBLK
  5
1D
330
1B
100
AcDbEntity
 67
     1
  8
0
100
AcDbBlockEnd
  0
BLOCK
  5
24
330
23
100
AcDbEntity
  8
0
100
AcDbBlockBegin
  2
*Paper_Space0
 70
     0
 10
0.0
 20
0.0
 30
0.0
  3
*Paper_Space0
  1

  0
ENDBLK
  5
25
330
23
100
AcDbEntity
  8
0
100
AcDbBlockEnd
  0
BLOCK
  5
1DD
330
1DC
100
AcDbEntity
  8
0
100
AcDbBlockBegin
  2
*D1
 70
     1
 10
0.0
 20
0.0
 30
0.0
  3
*D1
  1

  0
SOLID
  5
1DF
330
1DC
100
AcDbEntity
  8
VERMASSUNG
100
AcDbTrace
 10
82.3602383532
 20
137.3122426869
 30
0.0
 11
81.9102383532
 21
134.3122426869
 31
0.0
 12
82.8102383532
 22
134.3122426869
 32
0.0
 13
82.8102383532
 23
134.3122426869
 33
0.0
  0
SOLID
  5
1E0
330
1DC
100
AcDbEntity
  8
VERMASSUNG
100
AcDbTrace
 10
82.3602383532
 20
74.3122426869
 30
0.0
 11
82.8102383532
 21
77.3122426869
 31
0.0
 12
81.9102383532
 22
77.3122426869
 32
0.0
 13
81.9102383532
 23
77.3122426869
 33
0.0
  0
LINE
  5
1E1
330
1DC
100
AcDbEntity
  8
VERMASSUNG
100
AcDbLine
 10
119.0187363134
 20
137.3122426869
 30
0.0
 11
81.3602383532
 21
137.3122426869
 31
0.0
  0
LINE
  5
1E2
330
1DC
100
AcDbEntity
  8
VERMASSUNG
100
AcDbLine
 10
119.0187363134
 20
74.3122426869
 30
0.0
 11
81.3602383532
 21
74.3122426869
 31
0.0
  0
LINE
  5
1E3
330
1DC
100
AcDbEntity
  8
VERMASSUNG
100
AcDbLine
 10
82.3602383532
 20
137.3122426869
 30
0.0
 11
82.3602383532
 21
74.3122426869
 31
0.0
  0
MTEXT
  5
1E4
330
1DC
100
AcDbEntity
  8
VERMASSUNG
100
AcDbMText
 10
79.5821028642
 20
98.1087009751
 30
0.0
 40
2.0
 41
0.0
 71
     1
 72
     1
  1
HSK A 
  7
SLDTEXTSTYLE0
 11
-7.044195017643634E-15
 21
1.0
 31
0.0
 73
     1
 44
1.0
  0
MTEXT
  5
1E5
330
1DC
100
AcDbEntity
  8
VERMASSUNG
100
AcDbMText
 10
79.7821028737
 20
107.108701519
 30
0.0
 40
2.0
 41
0.0
 71
     1
 72
     1
  1
%%c
  7
SLDTEXTSTYLE0
 11
-7.044195017643634E-15
 21
1.0
 31
0.0
 73
     1
 44
1.0
  0
MTEXT
  5
1E6
330
1DC
100
AcDbEntity
  8
VERMASSUNG
100
AcDbMText
 10
79.7821029901
 20
110.717028169
 30
0.0
 40
2.0
 41
0.0
 71
     1
 72
     1
  1
63
  7
SLDTEXTSTYLE0
 11
-7.044195017643634E-15
 21
1.0
 31
0.0
 73
     1
 44
1.0
  0
ENDBLK
  5
1DE
330
1DC
100
AcDbEntity
  8
0
100
AcDbBlockEnd
  0
BLOCK
  5
1EA
330
1E9
100
AcDbEntity
  8
0
100
AcDbBlockBegin
  2
*D2
 70
     1
 10
0.0
 20
0.0
 30
0.0
  3
*D2
  1

  0
SOLID
  5
1EC
330
1E9
100
AcDbEntity
  8
VERMASSUNG
100
AcDbTrace
 10
162.2187363134
 20
137.7071505959
 30
0.0
 11
165.2187363134
 21
137.2571505959
 31
0.0
 12
165.2187363134
 22
138.1571505959
 32
0.0
 13
165.2187363134
 23
138.1571505959
 33
0.0
  0
SOLID
  5
1ED
330
1E9
100
AcDbEntity
  8
VERMASSUNG
100
AcDbTrace
 10
203.7187363134
 20
137.7071505959
 30
0.0
 11
200.7187363134
 21
138.1571505959
 31
0.0
 12
200.7187363134
 22
137.2571505959
 32
0.0
 13
200.7187363134
 23
137.2571505959
 33
0.0
  0
LINE
  5
1EE
330
1E9
100
AcDbEntity
  8
VERMASSUNG
100
AcDbLine
 10
162.2187363134
 20
110.7122426869
 30
0.0
 11
162.2187363134
 21
138.7071505959
 31
0.0
  0
LINE
  5
1EF
330
1E9
100
AcDbEntity
  8
VERMASSUNG
100
AcDbLine
 10
203.7187363134
 20
115.9634617036
 30
0.0
 11
203.7187363134
 21
138.7071505959
 31
0.0
  0
LINE
  5
1F0
330
1E9
100
AcDbEntity
  8
VERMASSUNG
100
AcDbLine
 10
162.2187363134
 20
137.7071505959
 30
0.0
 11
203.7187363134
 21
137.7071505959
 31
0.0
  0
MTEXT
  5
1F1
330
1E9
100
AcDbEntity
  8
VERMASSUNG
100
AcDbMText
 10
180.6689291628
 20
140.285285959
 30
0.0
 40
2.0
 41
0.0
 71
     1
 72
     1
  1
41.5
  7
SLDTEXTSTYLE0
 73
     1
 44
1.0
  0
ENDBLK
  5
1EB
330
1E9
100
AcDbEntity
  8
0
100
AcDbBlockEnd
  0
BLOCK
  5
1F5
330
1F4
100
AcDbEntity
  8
0
100
AcDbBlockBegin
  2
*D3
 70
     1
 10
0.0
 20
0.0
 30
0.0
  3
*D3
  1

  0
SOLID
  5
1F7
330
1F4
100
AcDbEntity
  8
VERMASSUNG
100
AcDbTrace
 10
210.2304442037
 20
100.8122426869
 30
0.0
 11
210.6804442037
 21
103.8122426869
 31
0.0
 12
209.7804442037
 22
103.8122426869
 32
0.0
 13
209.7804442037
 23
103.8122426869
 33
0.0
  0
SOLID
  5
1F8
330
1F4
100
AcDbEntity
  8
VERMASSUNG
100
AcDbTrace
 10
210.2304442037
 20
110.8122426869
 30
0.0
 11
209.7804442037
 21
107.8122426869
 31
0.0
 12
210.6804442037
 22
107.8122426869
 32
0.0
 13
210.6804442037
 23
107.8122426869
 33
0.0
  0
LINE
  5
1F9
330
1F4
100
AcDbEntity
  8
VERMASSUNG
100
AcDbLine
 10
200.2187363134
 20
100.8122426869
 30
0.0
 11
211.2304442037
 21
100.8122426869
 31
0.0
  0
LINE
  5
1FA
330
1F4
100
AcDbEntity
  8
VERMASSUNG
100
AcDbLine
 10
200.2187363134
 20
110.8122426869
 30
0.0
 11
211.2304442037
 21
110.8122426869
 31
0.0
  0
LINE
  5
1FB
330
1F4
100
AcDbEntity
  8
VERMASSUNG
100
AcDbLine
 10
210.2304442037
 20
100.8122426869
 30
0.0
 11
210.2304442037
 21
110.8122426869
 31
0.0
  0
MTEXT
  5
1FC
330
1F4
100
AcDbEntity
  8
VERMASSUNG
100
AcDbMText
 10
207.6523087241
 20
102.2082058505
 30
0.0
 40
2.0
 41
0.0
 71
     1
 72
     1
  1
%%c
  7
SLDTEXTSTYLE0
 11
6.123233995736766E-17
 21
1.0
 31
0.0
 73
     1
 44
1.0
  0
MTEXT
  5
1FD
330
1F4
100
AcDbEntity
  8
VERMASSUNG
100
AcDbMText
 10
207.6523088406
 20
105.8168840737
 30
0.0
 40
2.0
 41
0.0
 71
     1
 72
     1
  1
10
  7
SLDTEXTSTYLE0
 11
6.123233995736766E-17
 21
1.0
 31
0.0
 73
     1
 44
1.0
  0
MTEXT
  5
1FE
330
1F4
100
AcDbEntity
  8
VERMASSUNG
100
AcDbMText
 10
207.6523088406
 20
108.2164810401
 30
0.0
 40
2.0
 41
0.0
 71
     1
 72
     1
  1
 
  7
SLDTEXTSTYLE0
 11
6.123233995736766E-17
 21
1.0
 31
0.0
 73
     1
 44
1.0
  0
ENDBLK
  5
1F6
330
1F4
100
AcDbEntity
  8
0
100
AcDbBlockEnd
  0
BLOCK
  5
202
330
201
100
AcDbEntity
  8
0
100
AcDbBlockBegin
  2
*D4
 70
     1
 10
0.0
 20
0.0
 30
0.0
  3
*D4
  1

  0
SOLID
  5
204
330
201
100
AcDbEntity
  8
VERMASSUNG
100
AcDbTrace
 10
216.2304442037
 20
93.8122426869
 30
0.0
 11
216.6804442037
 21
96.8122426869
 31
0.0
 12
215.7804442037
 22
96.8122426869
 32
0.0
 13
215.7804442037
 23
96.8122426869
 33
0.0
  0
SOLID
  5
205
330
201
100
AcDbEntity
  8
VERMASSUNG
100
AcDbTrace
 10
216.2304442037
 20
117.8122426869
 30
0.0
 11
215.7804442037
 21
114.8122426869
 31
0.0
 12
216.6804442037
 22
114.8122426869
 32
0.0
 13
216.6804442037
 23
114.8122426869
 33
0.0
  0
LINE
  5
206
330
201
100
AcDbEntity
  8
VERMASSUNG
100
AcDbLine
 10
203.7187363134
 20
93.8122426869
 30
0.0
 11
217.2304442037
 21
93.8122426869
 31
0.0
  0
LINE
  5
207
330
201
100
AcDbEntity
  8
VERMASSUNG
100
AcDbLine
 10
203.7187363134
 20
117.8122426869
 30
0.0
 11
217.2304442037
 21
117.8122426869
 31
0.0
  0
LINE
  5
208
330
201
100
AcDbEntity
  8
VERMASSUNG
100
AcDbLine
 10
216.2304442037
 20
93.8122426869
 30
0.0
 11
216.2304442037
 21
117.8122426869
 31
0.0
  0
MTEXT
  5
209
330
201
100
AcDbEntity
  8
VERMASSUNG
100
AcDbMText
 10
213.6523087241
 20
101.908836403
 30
0.0
 40
2.0
 41
0.0
 71
     1
 72
     1
  1
%%c
  7
SLDTEXTSTYLE0
 11
6.123233995736766E-17
 21
1.0
 31
0.0
 73
     1
 44
1.0
  0
MTEXT
  5
20A
330
201
100
AcDbEntity
  8
VERMASSUNG
100
AcDbMText
 10
213.6523088406
 20
105.5175146262
 30
0.0
 40
2.0
 41
0.0
 71
     1
 72
     1
  1
24
  7
SLDTEXTSTYLE0
 11
6.123233995736766E-17
 21
1.0
 31
0.0
 73
     1
 44
1.0
  0
MTEXT
  5
20B
330
201
100
AcDbEntity
  8
VERMASSUNG
100
AcDbMText
 10
213.6523088406
 20
108.5158504875
 30
0.0
 40
2.0
 41
0.0
 71
     1
 72
     1
  1
 
  7
SLDTEXTSTYLE0
 11
6.123233995736766E-17
 21
1.0
 31
0.0
 73
     1
 44
1.0
  0
ENDBLK
  5
203
330
201
100
AcDbEntity
  8
0
100
AcDbBlockEnd
  0
BLOCK
  5
20E
330
20D
100
AcDbEntity
  8
0
100
AcDbBlockBegin
  2
*D5
 70
     1
 10
0.0
 20
0.0
 30
0.0
  3
*D5
  1

  0
SOLID
  5
210
330
20D
100
AcDbEntity
  8
VERMASSUNG
100
AcDbTrace
 10
118.7187363134
 20
149.7071505959
 30
0.0
 11
121.7187363134
 21
149.2571505959
 31
0.0
 12
121.7187363134
 22
150.1571505959
 32
0.0
 13
121.7187363134
 23
150.1571505959
 33
0.0
  0
SOLID
  5
211
330
20D
100
AcDbEntity
  8
VERMASSUNG
100
AcDbTrace
 10
203.7187363134
 20
149.7071505959
 30
0.0
 11
200.7187363134
 21
150.1571505959
 31
0.0
 12
200.7187363134
 22
149.2571505959
 32
0.0
 13
200.7187363134
 23
149.2571505959
 33
0.0
  0
LINE
  5
212
330
20D
100
AcDbEntity
  8
VERMASSUNG
100
AcDbLine
 10
118.7187363134
 20
131.1361738329
 30
0.0
 11
118.7187363134
 21
150.7071505959
 31
0.0
  0
LINE
  5
213
330
20D
100
AcDbEntity
  8
VERMASSUNG
100
AcDbLine
 10
203.7187363134
 20
115.9634617036
 30
0.0
 11
203.7187363134
 21
150.7071505959
 31
0.0
  0
LINE
  5
214
330
20D
100
AcDbEntity
  8
VERMASSUNG
100
AcDbLine
 10
118.7187363134
 20
149.7071505959
 30
0.0
 11
203.7187363134
 21
149.7071505959
 31
0.0
  0
MTEXT
  5
215
330
20D
100
AcDbEntity
  8
VERMASSUNG
100
AcDbMText
 10
159.8193581986
 20
152.285285959
 30
0.0
 40
2.0
 41
0.0
 71
     1
 72
     1
  1
85
  7
SLDTEXTSTYLE0
 73
     1
 44
1.0
  0
ENDBLK
  5
20F
330
20D
100
AcDbEntity
  8
0
100
AcDbBlockEnd
  0
BLOCK
  5
218
330
217
100
AcDbEntity
  8
0
100
AcDbBlockBegin
  2
*D6
 70
     1
 10
0.0
 20
0.0
 30
0.0
  3
*D6
  1

  0
SOLID
  5
21A
330
217
100
AcDbEntity
  8
VERMASSUNG
100
AcDbTrace
 10
222.2304442037
 20
120.8122426869
 30
0.0
 11
221.7804442037
 21
117.8122426869
 31
0.0
 12
222.6804442037
 22
117.8122426869
 32
0.0
 13
222.6804442037
 23
117.8122426869
 33
0.0
  0
SOLID
  5
21B
330
217
100
AcDbEntity
  8
VERMASSUNG
100
AcDbTrace
 10
222.2304442037
 20
90.8122426869
 30
0.0
 11
222.6804442037
 21
93.8122426869
 31
0.0
 12
221.7804442037
 22
93.8122426869
 32
0.0
 13
221.7804442037
 23
93.8122426869
 33
0.0
  0
LINE
  5
21C
330
217
100
AcDbEntity
  8
VERMASSUNG
100
AcDbLine
 10
165.7187363134
 20
120.8122426869
 30
0.0
 11
223.2304442037
 21
120.8122426869
 31
0.0
  0
LINE
  5
21D
330
217
100
AcDbEntity
  8
VERMASSUNG
100
AcDbLine
 10
165.6001221049
 20
90.8122426869
 30
0.0
 11
223.2304442037
 21
90.8122426869
 31
0.0
  0
LINE
  5
21E
330
217
100
AcDbEntity
  8
VERMASSUNG
100
AcDbLine
 10
222.2304442037
 20
120.8122426869
 30
0.0
 11
222.2304442037
 21
90.8122426869
 31
0.0
  0
MTEXT
  5
21F
330
217
100
AcDbEntity
  8
VERMASSUNG
100
AcDbMText
 10
219.6523087241
 20
102.6085254605
 30
0.0
 40
2.0
 41
0.0
 71
     1
 72
     1
  1
%%c
  7
SLDTEXTSTYLE0
 11
-7.044195017643634E-15
 21
1.0
 31
0.0
 73
     1
 44
1.0
  0
MTEXT
  5
220
330
217
100
AcDbEntity
  8
VERMASSUNG
100
AcDbMText
 10
219.6523088406
 20
106.2172036836
 30
0.0
 40
2.0
 41
0.0
 71
     1
 72
     1
  1
30
  7
SLDTEXTSTYLE0
 11
-7.044195017643634E-15
 21
1.0
 31
0.0
 73
     1
 44
1.0
  0
ENDBLK
  5
219
330
217
100
AcDbEntity
  8
0
100
AcDbBlockEnd
  0
BLOCK
  5
223
330
222
100
AcDbEntity
  8
0
100
AcDbBlockBegin
  2
*D7
 70
     1
 10
0.0
 20
0.0
 30
0.0
  3
*D7
  1

  0
SOLID
  5
225
330
222
100
AcDbEntity
  8
VERMASSUNG
100
AcDbTrace
 10
144.6687363134
 20
143.7071505959
 30
0.0
 11
147.6687363134
 21
143.2571505959
 31
0.0
 12
147.6687363134
 22
144.1571505959
 32
0.0
 13
147.6687363134
 23
144.1571505959
 33
0.0
  0
SOLID
  5
226
330
222
100
AcDbEntity
  8
VERMASSUNG
100
AcDbTrace
 10
203.7187363134
 20
143.7071505959
 30
0.0
 11
200.7187363134
 21
144.1571505959
 31
0.0
 12
200.7187363134
 22
143.2571505959
 32
0.0
 13
200.7187363134
 23
143.2571505959
 33
0.0
  0
LINE
  5
227
330
222
100
AcDbEntity
  8
VERMASSUNG
100
AcDbLine
 10
144.6687363134
 20
135.6586830107
 30
0.0
 11
144.6687363134
 21
144.7071505959
 31
0.0
  0
LINE
  5
228
330
222
100
AcDbEntity
  8
VERMASSUNG
100
AcDbLine
 10
203.7187363134
 20
115.9634617036
 30
0.0
 11
203.7187363134
 21
144.7071505959
 31
0.0
  0
LINE
  5
229
330
222
100
AcDbEntity
  8
VERMASSUNG
100
AcDbLine
 10
144.6687363134
 20
143.7071505959
 30
0.0
 11
203.7187363134
 21
143.7071505959
 31
0.0
  0
MTEXT
  5
22A
330
222
100
AcDbEntity
  8
VERMASSUNG
100
AcDbMText
 10
171.0944502896
 20
146.285285959
 30
0.0
 40
2.0
 41
0.0
 71
     1
 72
     1
  1
59.05
  7
SLDTEXTSTYLE0
 73
     1
 44
1.0
  0
ENDBLK
  5
224
330
222
100
AcDbEntity
  8
0
100
AcDbBlockEnd
  0
BLOCK
  5
22D
330
22C
100
AcDbEntity
  8
0
100
AcDbBlockBegin
  2
*D8
 70
     1
 10
0.0
 20
0.0
 30
0.0
  3
*D8
  1

  0
SOLID
  5
22F
330
22C
100
AcDbEntity
  8
VERMASSUNG
100
AcDbTrace
 10
203.7187363134
 20
155.7071505959
 30
0.0
 11
200.7187363134
 21
156.1571505959
 31
0.0
 12
200.7187363134
 22
155.2571505959
 32
0.0
 13
200.7187363134
 23
155.2571505959
 33
0.0
  0
SOLID
  5
230
330
22C
100
AcDbEntity
  8
VERMASSUNG
100
AcDbTrace
 10
86.8187363134
 20
155.7071505959
 30
0.0
 11
89.8187363134
 21
155.2571505959
 31
0.0
 12
89.8187363134
 22
156.1571505959
 32
0.0
 13
89.8187363134
 23
156.1571505959
 33
0.0
  0
LINE
  5
231
330
22C
100
AcDbEntity
  8
VERMASSUNG
100
AcDbLine
 10
203.7187363134
 20
115.9634617036
 30
0.0
 11
203.7187363134
 21
156.7071505959
 31
0.0
  0
LINE
  5
232
330
22C
100
AcDbEntity
  8
VERMASSUNG
100
AcDbLine
 10
86.8187363134
 20
125.5029204334
 30
0.0
 11
86.8187363134
 21
156.7071505959
 31
0.0
  0
LINE
  5
233
330
22C
100
AcDbEntity
  8
VERMASSUNG
100
AcDbLine
 10
203.7187363134
 20
155.7071505959
 30
0.0
 11
86.8187363134
 21
155.7071505959
 31
0.0
  0
MTEXT
  5
234
330
22C
100
AcDbEntity
  8
VERMASSUNG
100
AcDbMText
 10
142.5697698996
 20
158.285285959
 30
0.0
 40
2.0
 41
0.0
 71
     1
 72
     1
  1
116.9
  7
SLDTEXTSTYLE0
 73
     1
 44
1.0
  0
ENDBLK
  5
22E
330
22C
100
AcDbEntity
  8
0
100
AcDbBlockEnd
  0
ENDSEC
  0
SECTION
  2
ENTITIES
  0
MTEXT
  5
45
330
1F
100
AcDbEntity
  8
KOPF_DÜNN
100
AcDbMText
 10
13.8892156294
 20
23.8442973028
 30
0.0
 40
3.0
 41
0.0
 71
     1
 72
     1
  1
HA6.S10.K21.085
  7
SLDTEXTSTYLE0
 73
     1
 44
1.0
  0
MTEXT
  5
46
330
1F
100
AcDbEntity
  8
VERMASSUNG
100
AcDbMText
 10
13.9329988022
 20
28.8834360957
 30
0.0
 40
3.0
 41
0.0
 71
     1
 72
     1
  1
Schrumpffutter_Heat shrink chuck
  7
SLDTEXTSTYLE0
 73
     1
 44
1.0
  0
MTEXT
  5
47
330
1F
100
AcDbEntity
  8
VERMASSUNG
100
AcDbMText
 10
98.8601118557
 20
13.8365368179
 30
0.0
 40
2.0
 41
0.0
 71
     1
 72
     1
  1
Datum: 27.04.2011
  7
SLDTEXTSTYLE0
 73
     1
 44
1.0
  0
MTEXT
  5
49
330
1F
100
AcDbEntity
  8
VERMASSUNG
100
AcDbMText
 10
13.933048693
 20
18.0482802738
 30
0.0
 40
2.0
 41
0.0
 71
     1
 72
     1
  1
DIN 69 893 HSK A 63
  7
SLDTEXTSTYLE1
 73
     1
 44
1.0
  0
MTEXT
  5
4A
330
1F
100
AcDbEntity
  8
VERMASSUNG
100
AcDbMText
 10
13.9808475933
 20
13.9090973692
 30
0.0
 40
2.0
 41
0.0
 71
     1
 72
     1
  1
Gewicht: 890g
  7
SLDTEXTSTYLE0
 73
     1
 44
1.0
  0
LINE
  5
4B
330
1F
100
AcDbEntity
  8
0
  6
Continuous
 62
     7
370
    15
100
AcDbLine
 10
119.0187363134
 20
74.3122426869
 30
0.0
 11
123.6687363134
 21
74.3122426869
 31
0.0
  0
LINE
  5
4C
330
1F
100
AcDbEntity
  8
0
  6
Continuous
 62
     7
370
    15
100
AcDbLine
 10
123.6780444003
 20
137.3122426869
 30
0.0
 11
119.0187363134
 21
137.3122426869
 31
0.0
  0
ARC
  5
4D
330
1F
100
AcDbEntity
  8
0
  6
Continuous
 62
     7
370
    15
100
AcDbCircle
 10
119.0187363134
 20
74.6122426869
 30
0.0
 40
0.2999999999999972
100
AcDbArc
 50
180.0
 51
270.0
  0
ARC
  5
4E
330
1F
100
AcDbEntity
  8
0
  6
Continuous
 62
     7
370
    15
100
AcDbCircle
 10
119.0187363134
 20
137.0122426869
 30
0.0
 40
0.3000000000000114
100
AcDbArc
 50
90.0
 51
180.0
  0
ARC
  5
4F
330
1F
100
AcDbEntity
  8
0
  6
Continuous
 62
     7
370
    15
100
AcDbCircle
 10
118.2187295608
 20
81.2418050725
 30
0.0
 40
0.6000067526677242
100
AcDbArc
 50
33.5571153394
 51
90.0
  0
ARC
  5
50
330
1F
100
AcDbEntity
  8
0
  6
Continuous
 62
     7
370
    15
100
AcDbCircle
 10
118.2187295608
 20
130.3826803013
 30
0.0
 40
0.6000067526677164
100
AcDbArc
 50
270.0
 51
326.4428846606
  0
LINE
  5
51
330
1F
100
AcDbEntity
  8
0
  6
Continuous
 62
     7
370
    15
100
AcDbLine
 10
105.4872275146
 20
129.469972707
 30
0.0
 11
92.9187363134
 21
128.8402887791
 31
0.0
  0
LINE
  5
52
330
1F
100
AcDbEntity
  8
0
  6
Continuous
 62
     7
370
    15
100
AcDbLine
 10
116.7187363134
 20
130.0326735486
 30
0.0
 11
113.9017346561
 21
129.8915412011
 31
0.0
  0
LINE
  5
53
330
1F
100
AcDbEntity
  8
0
  6
Continuous
 62
     7
370
    15
100
AcDbLine
 10
113.9017907462
 20
81.7329413626
 30
0.0
 11
116.7187363134
 21
81.5918118252
 31
0.0
  0
LINE
  5
54
330
1F
100
AcDbEntity
  8
0
  6
Continuous
 62
     7
370
    15
100
AcDbLine
 10
96.9187363134
 20
82.5837957931
 30
0.0
 11
105.4876300333
 21
82.1544925005
 31
0.0
  0
LINE
  5
55
330
1F
100
AcDbEntity
  8
0
  6
Continuous
 62
     7
370
    15
100
AcDbLine
 10
116.7187363134
 20
81.5918118252
 30
0.0
 11
117.5754490868
 21
81.8213673209
 31
0.0
  0
LINE
  5
56
330
1F
100
AcDbEntity
  8
0
  6
Continuous
 62
     7
370
    15
100
AcDbLine
 10
117.5754490868
 20
129.8031180528
 30
0.0
 11
116.7187363134
 21
130.0326735486
 31
0.0
  0
ARC
  5
57
330
1F
100
AcDbEntity
  8
0
  6
Continuous
 62
     7
370
    15
100
AcDbCircle
 10
117.7307405139
 20
81.2418118252
 30
0.0
 40
0.6000000000000109
100
AcDbArc
 50
90.0
 51
105.0
  0
ARC
  5
58
330
1F
100
AcDbEntity
  8
0
  6
Continuous
 62
     7
370
    15
100
AcDbCircle
 10
117.7307405139
 20
130.3826735486
 30
0.0
 40
0.5999999999999971
100
AcDbArc
 50
255.0
 51
270.0
  0
LINE
  5
59
330
1F
100
AcDbEntity
  8
0
  6
Continuous
 62
     7
370
    15
100
AcDbLine
 10
117.7307405139
 20
81.8418118252
 30
0.0
 11
118.2187295608
 21
81.8418118252
 31
0.0
  0
LINE
  5
5A
330
1F
100
AcDbEntity
  8
0
  6
Continuous
 62
     7
370
    15
100
AcDbLine
 10
118.2187295608
 20
129.7826735486
 30
0.0
 11
117.7307405139
 21
129.7826735486
 31
0.0
  0
ARC
  5
5B
330
1F
100
AcDbEntity
  8
0
  6
Continuous
 62
     7
370
    15
100
AcDbCircle
 10
147.6687363134
 20
87.8122426869
 30
0.0
 40
3.0
100
AcDbArc
 50
90.0
 51
180.0
  0
ARC
  5
5C
330
1F
100
AcDbEntity
  8
0
  6
Continuous
 62
     7
370
    15
100
AcDbCircle
 10
147.6687363134
 20
123.8122426869
 30
0.0
 40
3.0
100
AcDbArc
 50
180.0
 51
270.0
  0
LINE
  5
5D
330
1F
100
AcDbEntity
  8
0
  6
Continuous
 62
     7
370
    15
100
AcDbLine
 10
165.6001221049
 20
90.8122426869
 30
0.0
 11
201.8756545049
 21
93.6671890027
 31
0.0
  0
LINE
  5
5E
330
1F
100
AcDbEntity
  8
0
  6
Continuous
 62
     7
370
    15
100
AcDbLine
 10
201.8756545049
 20
117.957296371
 30
0.0
 11
165.7057889954
 21
120.8039265223
 31
0.0
  0
LINE
  5
5F
330
1F
100
AcDbEntity
  8
0
  6
Continuous
 62
     7
370
    15
100
AcDbLine
 10
159.1677236897
 20
90.8122426869
 30
0.0
 11
165.6001221049
 21
90.8122426869
 31
0.0
  0
LINE
  5
60
330
1F
100
AcDbEntity
  8
0
  6
Continuous
 62
     7
370
    15
100
AcDbLine
 10
147.6687363134
 20
90.8122426869
 30
0.0
 11
152.173586682
 21
90.8122426869
 31
0.0
  0
LINE
  5
61
330
1F
100
AcDbEntity
  8
0
  6
Continuous
 62
     7
370
    15
100
AcDbLine
 10
152.1698632013
 20
120.8122426869
 30
0.0
 11
147.6687363134
 21
120.8122426869
 31
0.0
  0
LINE
  5
62
330
1F
100
AcDbEntity
  8
0
  6
Continuous
 62
     7
370
    15
100
AcDbLine
 10
165.7187363134
 20
120.8122426869
 30
0.0
 11
159.1589741538
 21
120.8122426869
 31
0.0
  0
ARC
  5
63
330
1F
100
AcDbEntity
  8
0
  6
Continuous
 62
     7
370
    15
100
AcDbCircle
 10
201.7187363134
 20
95.6610236702
 30
0.0
 40
2.000000000000028
100
AcDbArc
 50
274.5
 51
0.0
  0
ARC
  5
64
330
1F
100
AcDbEntity
  8
0
  6
Continuous
 62
     7
370
    15
100
AcDbCircle
 10
201.7187363134
 20
115.9634617036
 30
0.0
 40
2.000000000000028
100
AcDbArc
 50
0.0
 51
85.5
  0
LINE
  5
65
330
1F
100
AcDbEntity
  8
0
  6
Continuous
 62
     7
370
    15
100
AcDbLine
 10
88.1020729534
 20
84.9422426869
 30
0.0
 11
95.5187363134
 21
84.9422426869
 31
0.0
  0
ARC
  5
66
330
1F
100
AcDbEntity
  8
0
  6
Continuous
 62
     7
370
    15
100
AcDbCircle
 10
95.5187363134
 20
83.5422426869
 30
0.0
 40
1.399999999999991
100
AcDbArc
 50
42.2465410162
 51
90.0
  0
LINE
  5
67
330
1F
100
AcDbEntity
  8
0
  6
Continuous
 62
     7
370
    15
100
AcDbLine
 10
86.8298967486
 20
86.0810822518
 30
0.0
 11
87.9598997716
 21
84.9510792287
 31
0.0
  0
LINE
  5
68
330
1F
100
AcDbEntity
  8
0
  6
Continuous
 62
     7
370
    15
100
AcDbLine
 10
87.9598997716
 20
126.6734061451
 30
0.0
 11
86.8286370868
 21
125.5421434603
 31
0.0
  0
ARC
  5
69
330
1F
100
AcDbEntity
  8
0
  6
Continuous
 62
     7
370
    15
100
AcDbCircle
 10
91.5187363134
 20
128.0822426869
 30
0.0
 40
1.40000000000002
100
AcDbArc
 50
270.0
 51
301.7485287426
  0
LINE
  5
6A
330
1F
100
AcDbEntity
  8
0
  6
Continuous
 62
     7
370
    15
100
AcDbLine
 10
91.5187363134
 20
126.6822426869
 30
0.0
 11
88.0930020473
 21
126.6822426869
 31
0.0
  0
LINE
  5
6B
330
1F
100
AcDbEntity
  8
0
  6
Continuous
 62
     7
370
    15
100
AcDbLine
 10
165.7187363134
 20
120.80265176
 30
0.0
 11
165.7187363134
 21
120.8122426869
 31
0.0
  0
LINE
  5
6C
330
1F
100
AcDbEntity
  8
0
  6
Continuous
 62
     7
370
    15
100
AcDbLine
 10
203.7960585206
 20
115.0296456048
 30
0.0
 11
203.7187363134
 21
115.1766109472
 31
0.0
  0
LINE
  5
6D
330
1F
100
AcDbEntity
  8
0
  6
Continuous
 62
     7
370
    15
100
AcDbLine
 10
203.7187363134
 20
96.4478744265
 30
0.0
 11
203.7960585206
 21
96.594839769
 31
0.0
  0
LINE
  5
6E
330
1F
100
AcDbEntity
  8
0
  6
Continuous
 62
     7
370
    15
100
AcDbLine
 10
134.8087363134
 20
78.3144055278
 30
0.0
 11
134.8087363134
 21
125.6622426869
 31
0.0
  0
SPLINE
  5
6F
330
1F
100
AcDbEntity
  8
0
  6
Continuous
 62
     7
370
    15
100
AcDbSpline
210
0.0
220
0.0
230
1.0
 70
     8
 71
     3
 72
     8
 73
     4
 74
     0
 42
0.00000001
 43
0.00000001
 40
0.0
 40
0.0
 40
0.0
 40
0.0
 40
1.0
 40
1.0
 40
1.0
 40
1.0
 10
134.8087363134426
 20
78.31440552783579
 30
0.0
 10
134.3163971906614
 20
77.41713549362909
 30
0.0
 10
133.8222831426192
 20
76.52085107857684
 30
0.0
 10
133.3268034819535
 20
75.62532499064349
 30
0.0
  0
LINE
  5
70
330
1F
100
AcDbEntity
  8
0
  6
Continuous
 62
     7
370
    15
100
AcDbLine
 10
133.326803482
 20
75.6253249906
 30
0.0
 11
133.326803482
 21
125.6622426869
 31
0.0
  0
SPLINE
  5
71
330
1F
100
AcDbEntity
  8
0
  6
Continuous
 62
     7
370
    15
100
AcDbSpline
210
0.0
220
0.0
230
1.0
 70
    24
 71
     3
 72
     8
 73
     4
 74
     0
 42
0.00000001
 43
0.00000001
 40
0.0
 40
0.0
 40
0.0
 40
0.0
 40
1.0
 40
1.0
 40
1.0
 40
1.0
 10
133.3268034819535
 20
125.6622426868907
 30
0.0
 10
133.833483590104
 20
125.6622426868907
 30
0.0
 10
134.3287843190777
 20
125.6622426868907
 30
0.0
 10
134.8087363134426
 20
125.6622426868907
 30
0.0
  0
LINE
  5
72
330
1F
100
AcDbEntity
  8
0
  6
Continuous
 62
     7
370
    15
100
AcDbLine
 10
140.1106691449
 20
75.6253249906
 30
0.0
 11
140.1106691449
 21
125.6622426869
 31
0.0
  0
SPLINE
  5
73
330
1F
100
AcDbEntity
  8
0
  6
Continuous
 62
     7
370
    15
100
AcDbSpline
210
0.0
220
0.0
230
1.0
 70
     8
 71
     3
 72
     8
 73
     4
 74
     0
 42
0.00000001
 43
0.00000001
 40
0.0
 40
0.0
 40
0.0
 40
0.0
 40
1.0
 40
1.0
 40
1.0
 40
1.0
 10
140.1106691449316
 20
75.62532499064349
 30
0.0
 10
139.6151894842659
 20
76.52085107857685
 30
0.0
 10
139.1210754362237
 20
77.4171354936291
 30
0.0
 10
138.6287363134425
 20
78.3144055278358
 30
0.0
  0
LINE
  5
74
330
1F
100
AcDbEntity
  8
0
  6
Continuous
 62
     7
370
    15
100
AcDbLine
 10
138.6287363134
 20
78.3144055278
 30
0.0
 11
138.6287363134
 21
125.6622426869
 31
0.0
  0
SPLINE
  5
75
330
1F
100
AcDbEntity
  8
0
  6
Continuous
 62
     7
370
    15
100
AcDbSpline
210
0.0
220
0.0
230
1.0
 70
    24
 71
     3
 72
     8
 73
     4
 74
     0
 42
0.00000001
 43
0.00000001
 40
0.0
 40
0.0
 40
0.0
 40
0.0
 40
1.0
 40
1.0
 40
1.0
 40
1.0
 10
138.6287363134425
 20
125.6622426868907
 30
0.0
 10
139.1086883078075
 20
125.6622426868907
 30
0.0
 10
139.6039890367811
 20
125.6622426868907
 30
0.0
 10
140.1106691449316
 20
125.6622426868907
 30
0.0
  0
LINE
  5
76
330
1F
100
AcDbEntity
  8
0
  6
Continuous
 62
     7
370
    15
100
AcDbLine
 10
144.6687363134
 20
76.2519652863
 30
0.0
 11
144.6687363134
 21
125.6622426869
 31
0.0
  0
SPLINE
  5
77
330
1F
100
AcDbEntity
  8
0
  6
Continuous
 62
     7
370
    15
100
AcDbSpline
210
0.0
220
0.0
230
1.0
 70
     8
 71
     3
 72
    10
 73
     6
 74
     0
 42
0.00000001
 43
0.00000001
 40
0.0
 40
0.0
 40
0.0
 40
0.0
 40
0.5
 40
0.5
 40
1.0
 40
1.0
 40
1.0
 40
1.0
 10
144.6687363134426
 20
76.2519652862978
 30
0.0
 10
144.6687363134426
 20
76.09207801810415
 30
0.0
 10
144.6074266622067
 20
75.93095076258955
 30
0.0
 10
144.3883270246716
 20
75.69685176423471
 30
0.0
 10
144.2302788183582
 20
75.62532499064349
 30
0.0
 10
144.0687363134425
 20
75.62532499064349
 30
0.0
  0
SPLINE
  5
78
330
1F
100
AcDbEntity
  8
0
  6
Continuous
 62
     7
370
    15
100
AcDbSpline
210
0.0
220
0.0
230
1.0
 70
    24
 71
     3
 72
    12
 73
     8
 74
     0
 42
0.00000001
 43
0.00000001
 40
0.0
 40
0.0
 40
0.0
 40
0.0
 40
0.2500000000000033
 40
0.2500000000000033
 40
0.5000000000000067
 40
0.5000000000000067
 40
1.0
 40
1.0
 40
1.0
 40
1.0
 10
144.0687363134425
 20
125.6622426868907
 30
0.0
 10
144.1589753811296
 20
125.6622426868907
 30
0.0
 10
144.2498734952361
 20
125.6622426868907
 30
0.0
 10
144.4044705317247
 20
125.6622426868907
 30
0.0
 10
144.4694489478327
 20
125.6622426868907
 30
0.0
 10
144.621283975769
 20
125.6622426868907
 30
0.0
 10
144.6687363134426
 20
125.6622426868907
 30
0.0
 10
144.6687363134426
 20
125.6622426868907
 30
0.0
  0
SPLINE
  5
79
330
1F
100
AcDbEntity
  8
0
  6
Continuous
 62
     7
370
    15
100
AcDbSpline
210
0.0
220
0.0
230
1.0
 70
     8
 71
     3
 72
    70
 73
    66
 74
     0
 42
0.00000001
 43
0.00000001
 40
-0.0312499999999998
 40
-0.0312499999999998
 40
0.0
 40
0.0
 40
0.0312500000000003
 40
0.0312500000000003
 40
0.0625000000000006
 40
0.0625000000000006
 40
0.0937500000000009
 40
0.0937500000000009
 40
0.1250000000000012
 40
0.1250000000000012
 40
0.1562500000000014
 40
0.1562500000000014
 40
0.1875000000000017
 40
0.1875000000000017
 40
0.2187500000000021
 40
0.2187500000000021
 40
0.2500000000000023
 40
0.2500000000000023
 40
0.2812500000000024
 40
0.2812500000000024
 40
0.3125000000000026
 40
0.3125000000000026
 40
0.3437500000000027
 40
0.3437500000000027
 40
0.3750000000000028
 40
0.3750000000000028
 40
0.4062500000000029
 40
0.4062500000000029
 40
0.4375000000000031
 40
0.4375000000000031
 40
0.4687500000000032
 40
0.4687500000000032
 40
0.5000000000000033
 40
0.5000000000000033
 40
0.5312500000000032
 40
0.5312500000000032
 40
0.562500000000003
 40
0.562500000000003
 40
0.5937500000000029
 40
0.5937500000000029
 40
0.6250000000000027
 40
0.6250000000000027
 40
0.6562500000000026
 40
0.6562500000000026
 40
0.6875000000000024
 40
0.6875000000000024
 40
0.7187500000000022
 40
0.7187500000000022
 40
0.7500000000000021
 40
0.7500000000000021
 40
0.7812500000000019
 40
0.7812500000000019
 40
0.8125000000000016
 40
0.8125000000000016
 40
0.8437500000000013
 40
0.8437500000000013
 40
0.875000000000001
 40
0.875000000000001
 40
0.9062500000000008
 40
0.9062500000000008
 40
0.9375000000000006
 40
0.9375000000000006
 40
0.9687500000000002
 40
0.9687500000000002
 40
1.0
 40
1.0
 40
1.03125
 40
1.03125
 10
126.4541909747824
 20
130.8712060816698
 30
0.0
 10
126.9832816521027
 20
130.8712060816698
 30
0.0
 10
127.2433523194798
 20
130.8871065220846
 30
0.0
 10
127.7549269993152
 20
130.9490508722589
 30
0.0
 10
128.0091022830554
 20
130.9958531063502
 30
0.0
 10
128.4933729131171
 20
131.1168300898053
 30
0.0
 10
128.7230140049983
 20
131.1904324176121
 30
0.0
 10
129.1576183532318
 20
131.3622566885902
 30
0.0
 10
129.3631841298784
 20
131.4612601115176
 30
0.0
 10
129.7317412704736
 20
131.6743565254305
 30
0.0
 10
129.8972222532091
 20
131.7892562415601
 30
0.0
 10
130.1896467626442
 20
132.0346231402504
 30
0.0
 10
130.3137477392707
 20
132.1630630407207
 30
0.0
 10
130.5133269360204
 20
132.4239551888067
 30
0.0
 10
130.5902605218787
 20
132.5583363601461
 30
0.0
 10
130.693117580399
 20
132.8276563112524
 30
0.0
 10
130.7185904898582
 20
132.9603375754705
 30
0.0
 10
130.718880900426
 20
133.2215240496016
 30
0.0
 10
130.6928562666502
 20
133.3512890877663
 30
0.0
 10
130.5907079821582
 20
133.596871722039
 30
0.0
 10
130.5151315345751
 20
133.7135332593479
 30
0.0
 10
130.3146340034301
 20
133.9354384495024
 30
0.0
 10
130.1895051619218
 20
134.0400497034254
 30
0.0
 10
129.9001463609002
 20
134.2300961150335
 30
0.0
 10
129.7347353738447
 20
134.3168557864831
 30
0.0
 10
129.3617448156969
 20
134.4743601622347
 30
0.0
 10
129.1600117826078
 20
134.5426854270219
 30
0.0
 10
128.7271525317799
 20
134.6609151506411
 30
0.0
 10
128.4932339988905
 20
134.711210066745
 30
0.0
 10
128.0090502637479
 20
134.7910756036346
 30
0.0
 10
127.7597346377924
 20
134.8208167314342
 30
0.0
 10
127.2467021133647
 20
134.8609694729424
 30
0.0
 10
126.9814082904601
 20
134.8711677423523
 30
0.0
 10
126.4590736705903
 20
134.871244200737
 30
0.0
 10
126.1993200081086
 20
134.861453189128
 30
0.0
 10
125.6827081924633
 20
134.8213863503892
 30
0.0
 10
125.4303421519631
 20
134.7912891835324
 30
0.0
 10
124.9488170304302
 20
134.7120669737022
 30
0.0
 10
124.7159662983167
 20
134.6623094942388
 30
0.0
 10
124.2788764498779
 20
134.5432175517884
 30
0.0
 10
124.0775554612207
 20
134.4749022902411
 30
0.0
 10
123.7084694359208
 20
134.3195013233076
 30
0.0
 10
123.5394846848691
 20
134.2313489812407
 30
0.0
 10
123.2490286282099
 20
134.0409095921243
 30
0.0
 10
123.1259568168478
 20
133.9382850144253
 30
0.0
 10
122.9246205754258
 20
133.7166446678171
 30
0.0
 10
122.8474080294835
 20
133.5978905922696
 30
0.0
 10
122.7452044865835
 20
133.353224653352
 30
0.0
 10
122.7189761351311
 20
133.2260679279034
 30
0.0
 10
122.718499735814
 20
132.9616197820479
 30
0.0
 10
122.744242148312
 20
132.8287191017907
 30
0.0
 10
122.8455529246759
 20
132.5619268283086
 30
0.0
 10
122.9223855640668
 20
132.4265629268401
 30
0.0
 10
123.122789403282
 20
132.1639831315375
 30
0.0
 10
123.245460901574
 20
132.0370079717838
 30
0.0
 10
123.5354081907383
 20
131.7929285857014
 30
0.0
 10
123.7039791701035
 20
131.6755034609475
 30
0.0
 10
124.0722487642166
 20
131.462306999999
 30
0.0
 10
124.273310621487
 20
131.3651328815742
 30
0.0
 10
124.7103415400719
 20
131.19177799436
 30
0.0
 10
124.9424897532015
 20
131.1173784427033
 30
0.0
 10
125.4235000347004
 20
130.9969255631986
 30
0.0
 10
125.6756001175308
 20
130.9500671879327
 30
0.0
 10
126.1926696037898
 20
130.8871096909489
 30
0.0
 10
126.4541909747824
 20
130.8712060816698
 30
0.0
 10
126.9832816521027
 20
130.8712060816698
 30
0.0
  0
LINE
  5
7A
330
1F
100
AcDbEntity
  8
0
  6
Continuous
 62
     7
370
    15
100
AcDbLine
 10
123.6687363134
 20
125.6622426869
 30
0.0
 11
133.326803482
 21
125.6622426869
 31
0.0
  0
LINE
  5
7B
330
1F
100
AcDbEntity
  8
0
  6
Continuous
 62
     7
370
    15
100
AcDbLine
 10
133.326803482
 20
75.6253249906
 30
0.0
 11
131.6687363134
 21
75.6253249906
 31
0.0
  0
SPLINE
  5
7C
330
1F
100
AcDbEntity
  8
0
  6
Continuous
 62
     7
370
    15
100
AcDbSpline
210
0.0
220
0.0
230
1.0
 70
     8
 71
     3
 72
    28
 73
    24
 74
     0
 42
0.00000001
 43
0.00000001
 40
0.0
 40
0.0
 40
0.0
 40
0.0
 40
0.1250000000000001
 40
0.1250000000000001
 40
0.1875000000000001
 40
0.1875000000000001
 40
0.2500000000000001
 40
0.2500000000000001
 40
0.3749999999999999
 40
0.3749999999999999
 40
0.4375
 40
0.4375
 40
0.4999999999999999
 40
0.4999999999999999
 40
0.6249999999999999
 40
0.6249999999999999
 40
0.7499999999999997
 40
0.7499999999999997
 40
0.8124999999999998
 40
0.8124999999999998
 40
0.8749999999999998
 40
0.8749999999999998
 40
1.0
 40
1.0
 40
1.0
 40
1.0
 10
131.6687363134426
 20
75.62532499064349
 30
0.0
 10
131.1370285559496
 20
75.6253249906435
 30
0.0
 10
130.6147899906393
 20
75.60954027669328
 30
0.0
 10
129.8449195043643
 20
75.56454486261707
 30
0.0
 10
129.5905599321729
 20
75.54598986754135
 30
0.0
 10
129.0864383514744
 20
75.50213714509484
 30
0.0
 10
128.8367155340465
 20
75.47679253814265
 30
0.0
 10
128.1111255826001
 20
75.39339046039254
 30
0.0
 10
127.6527653210186
 20
75.32752490124145
 30
0.0
 10
127.0022673776247
 20
75.21855456074967
 30
0.0
 10
126.7905853268322
 20
75.18031492498301
 30
0.0
 10
126.3865138376942
 20
75.10255618756365
 30
0.0
 10
126.1940073238734
 20
75.06305522538831
 30
0.0
 10
125.6441723528521
 20
74.9441474830223
 30
0.0
 10
125.3142435745433
 20
74.8643298015977
 30
0.0
 10
124.7297723059746
 20
74.71098663980163
 30
0.0
 10
124.4834951679612
 20
74.63965288653237
 30
0.0
 10
124.1836523752631
 20
74.54570937945776
 30
0.0
 10
124.0951955181909
 20
74.51651558609782
 30
0.0
 10
123.9418341648858
 20
74.46304901183443
 30
0.0
 10
123.8767459506595
 20
74.43868967755924
 30
0.0
 10
123.7211519347187
 20
74.37509953211449
 30
0.0
 10
123.6687363134426
 20
74.34499659702524
 30
0.0
 10
123.6687363134426
 20
74.32811970402834
 30
0.0
  0
LINE
  5
7D
330
1F
100
AcDbEntity
  8
0
  6
Continuous
 62
     7
370
    15
100
AcDbLine
 10
123.6687363134
 20
74.328119704
 30
0.0
 11
123.6687363134
 21
74.3122426869
 31
0.0
  0
SPLINE
  5
7E
330
1F
100
AcDbEntity
  8
0
  6
Continuous
 62
     7
370
    15
100
AcDbSpline
210
0.0
220
0.0
230
1.0
 70
     8
 71
     3
 72
    22
 73
    18
 74
     0
 42
0.00000001
 43
0.00000001
 40
0.0
 40
0.0
 40
0.0
 40
0.0
 40
0.0515773377536172
 40
0.1565264849943629
 40
0.2100197540385886
 40
0.2615951369298746
 40
0.3664424119934943
 40
0.4198226601719804
 40
0.4724528789006786
 40
0.5794488992297344
 40
0.6339397336480286
 40
0.6872670452602943
 40
0.7409741315029978
 40
0.7958968813361827
 40
0.8512481408256359
 40
0.9034470736265863
 40
1.0
 40
1.0
 40
1.0
 40
1.0
 10
131.6687363134426
 20
136.2794381600549
 30
0.0
 10
131.4519261174401
 20
136.2808347811234
 30
0.0
 10
130.7939522985253
 20
136.2850732353796
 30
0.0
 10
129.9188573211944
 20
136.324605559734
 30
0.0
 10
129.0740318263375
 20
136.3875788065758
 30
0.0
 10
128.2543065427333
 20
136.465592839831
 30
0.0
 10
127.4785165647049
 20
136.5624759677061
 30
0.0
 10
126.7610281033985
 20
136.6707353796221
 30
0.0
 10
126.0817633562264
 20
136.7844537519266
 30
0.0
 10
125.4734483783174
 20
136.9009539368674
 30
0.0
 10
124.9533564375943
 20
137.0100541882844
 30
0.0
 10
124.6094662598781
 20
137.0860580860144
 30
0.0
 10
124.3145125321506
 20
137.1540915419361
 30
0.0
 10
124.0687382448094
 20
137.2128045926946
 30
0.0
 10
123.882835935836
 20
137.2584199726283
 30
0.0
 10
123.7112393301123
 20
137.3013794241889
 30
0.0
 10
123.691110054936
 20
137.3065404459909
 30
0.0
 10
123.6780444002623
 20
137.3098903991332
 30
0.0
  0
LINE
  5
7F
330
1F
100
AcDbEntity
  8
0
  6
Continuous
 62
     7
370
    15
100
AcDbLine
 10
133.326803482
 20
136.2794381601
 30
0.0
 11
131.6687363134
 21
136.2794381601
 31
0.0
  0
LINE
  5
80
330
1F
100
AcDbEntity
  8
0
  6
Continuous
 62
     7
370
    15
100
AcDbLine
 10
133.326803482
 20
130.2709323493
 30
0.0
 11
133.326803482
 21
136.2794381601
 31
0.0
  0
LINE
  5
81
330
1F
100
AcDbEntity
  8
0
  6
Continuous
 62
     7
370
    15
100
AcDbLine
 10
130.9143566591
 20
130.2709323493
 30
0.0
 11
133.326803482
 21
130.2709323493
 31
0.0
  0
SPLINE
  5
82
330
1F
100
AcDbEntity
  8
0
  6
Continuous
 62
     7
370
    15
100
AcDbSpline
210
0.0
220
0.0
230
1.0
 70
     8
 71
     3
 72
    20
 73
    16
 74
     0
 42
0.00000001
 43
0.00000001
 40
0.0
 40
0.0
 40
0.0
 40
0.0
 40
0.2499999999999997
 40
0.2499999999999997
 40
0.3749999999999997
 40
0.3749999999999997
 40
0.4999999999999998
 40
0.4999999999999998
 40
0.6249999999999998
 40
0.6249999999999998
 40
0.7499999999999999
 40
0.7499999999999999
 40
0.8749999999999999
 40
0.8749999999999999
 40
1.0
 40
1.0
 40
1.0
 40
1.0
 10
123.6687363134426
 20
125.6622426868907
 30
0.0
 10
123.9171100477306
 20
126.3161051151881
 30
0.0
 10
124.2366801400759
 20
126.9198908971852
 30
0.0
 10
124.8589863732806
 20
127.7467296333538
 30
0.0
 10
125.0904106337113
 20
128.0091582713067
 30
0.0
 10
125.611624973361
 20
128.5058209254117
 30
0.0
 10
125.8982454559961
 20
128.7364078044332
 30
0.0
 10
126.5177301973037
 20
129.1529620290159
 30
0.0
 10
126.8520305767907
 20
129.3404598309834
 30
0.0
 10
127.5772910494155
 20
129.6718568086198
 30
0.0
 10
127.959206106806
 20
129.8113607961151
 30
0.0
 10
128.7539942829776
 20
130.036814303586
 30
0.0
 10
129.168152477184
 20
130.1234404151296
 30
0.0
 10
130.0336988177654
 20
130.2414212039838
 30
0.0
 10
130.4715864327772
 20
130.2709323492581
 30
0.0
 10
130.9143566591318
 20
130.2709323492581
 30
0.0
  0
SPLINE
  5
83
330
1F
100
AcDbEntity
  8
0
  6
Continuous
 62
     7
370
    15
100
AcDbSpline
210
0.0
220
0.0
230
1.0
 70
     8
 71
     3
 72
    70
 73
    66
 74
     0
 42
0.00000001
 43
0.00000001
 40
-0.0312499999999998
 40
-0.0312499999999998
 40
0.0
 40
0.0
 40
0.0312500000000001
 40
0.0312500000000001
 40
0.0625000000000002
 40
0.0625000000000002
 40
0.0937500000000003
 40
0.0937500000000003
 40
0.1250000000000004
 40
0.1250000000000004
 40
0.1562500000000005
 40
0.1562500000000005
 40
0.1875000000000006
 40
0.1875000000000006
 40
0.2187500000000007
 40
0.2187500000000007
 40
0.2500000000000008
 40
0.2500000000000008
 40
0.2812500000000009
 40
0.2812500000000009
 40
0.3125000000000011
 40
0.3125000000000011
 40
0.3437500000000012
 40
0.3437500000000012
 40
0.3750000000000012
 40
0.3750000000000012
 40
0.4062500000000013
 40
0.4062500000000013
 40
0.4375000000000014
 40
0.4375000000000014
 40
0.4687500000000016
 40
0.4687500000000016
 40
0.5000000000000017
 40
0.5000000000000017
 40
0.5312500000000018
 40
0.5312500000000018
 40
0.5625000000000019
 40
0.5625000000000019
 40
0.593750000000002
 40
0.593750000000002
 40
0.6250000000000021
 40
0.6250000000000021
 40
0.6562500000000022
 40
0.6562500000000022
 40
0.6875000000000023
 40
0.6875000000000023
 40
0.7187500000000021
 40
0.7187500000000021
 40
0.7500000000000018
 40
0.7500000000000018
 40
0.7812500000000016
 40
0.7812500000000016
 40
0.8125000000000013
 40
0.8125000000000013
 40
0.8437500000000011
 40
0.8437500000000011
 40
0.8750000000000009
 40
0.8750000000000009
 40
0.9062500000000007
 40
0.9062500000000007
 40
0.9375000000000004
 40
0.9375000000000004
 40
0.9687500000000002
 40
0.9687500000000002
 40
1.0
 40
1.0
 40
1.03125
 40
1.03125
 10
126.4541909747824
 20
116.433149572874
 30
0.0
 10
126.9832816521027
 20
116.433149572874
 30
0.0
 10
127.2433523194798
 20
116.4578268676592
 30
0.0
 10
127.7549269993152
 20
116.5542985407011
 30
0.0
 10
128.0091022830554
 20
116.6272794566812
 30
0.0
 10
128.4933729131171
 20
116.8170200596198
 30
0.0
 10
128.7230140049983
 20
116.9328807180135
 30
0.0
 10
129.1576183532318
 20
117.2054985639712
 30
0.0
 10
129.3631841298784
 20
117.363537646025
 30
0.0
 10
129.7317412704736
 20
117.7070804969957
 30
0.0
 10
129.8972222532091
 20
117.8938429410973
 30
0.0
 10
130.1896467626442
 20
118.2973861154941
 30
0.0
 10
130.3137477392707
 20
118.5108831119233
 30
0.0
 10
130.5133269360204
 20
118.9502664258458
 30
0.0
 10
130.5902605218787
 20
119.1794064129914
 30
0.0
 10
130.693117580399
 20
119.6453805357514
 30
0.0
 10
130.7185904898582
 20
119.8782629814276
 30
0.0
 10
130.718880900426
 20
120.3436605165074
 30
0.0
 10
130.6928562666502
 20
120.5785362739017
 30
0.0
 10
130.5907079821582
 20
121.030029421148
 30
0.0
 10
130.5151315345751
 20
121.2480758965594
 30
0.0
 10
130.3146340034301
 20
121.6691704215972
 30
0.0
 10
130.1895051619218
 20
121.8710918061155
 30
0.0
 10
129.9001463609002
 20
122.2431212886344
 30
0.0
 10
129.7347353738447
 20
122.4157495922148
 30
0.0
 10
129.3617448156969
 20
122.7330675967608
 30
0.0
 10
129.1600117826078
 20
122.8728545302624
 30
0.0
 10
128.7271525317799
 20
123.1170307838142
 30
0.0
 10
128.4932339988905
 20
123.2222602948557
 30
0.0
 10
128.0090502637479
 20
123.3904174412309
 30
0.0
 10
127.7597346377924
 20
123.4536683318247
 30
0.0
 10
127.2467021133647
 20
123.5392475409273
 30
0.0
 10
126.98140829046
 20
123.5611197058497
 30
0.0
 10
126.4590736705903
 20
123.5612833554936
 30
0.0
 10
126.1993200081086
 20
123.5402816633976
 30
0.0
 10
125.6827081924633
 20
123.45487930832
 30
0.0
 10
125.4303421519631
 20
123.390873125033
 30
0.0
 10
124.9488170304302
 20
123.2240586049919
 30
0.0
 10
124.7159662983167
 20
123.1199254415927
 30
0.0
 10
124.2788764498779
 20
122.8739387890977
 30
0.0
 10
124.0775554612207
 20
122.7341889581489
 30
0.0
 10
123.7084694359208
 20
122.4210508884243
 30
0.0
 10
123.5394846848691
 20
122.2455947291542
 30
0.0
 10
123.2490286282099
 20
121.872754465054
 30
0.0
 10
123.1259568168478
 20
121.6746326549431
 30
0.0
 10
122.9246205754258
 20
121.2539213122094
 30
0.0
 10
122.8474080294835
 20
121.0319312915419
 30
0.0
 10
122.7452044865835
 20
120.5820663518335
 30
0.0
 10
122.7189761351311
 20
120.3518109387167
 30
0.0
 10
122.718499735814
 20
119.8804949961676
 30
0.0
 10
122.744242148312
 20
119.6472575804535
 30
0.0
 10
122.8455529246759
 20
119.1855810409554
 30
0.0
 10
122.9223855640668
 20
118.9546836538433
 30
0.0
 10
123.122789403282
 20
118.5124076400516
 30
0.0
 10
123.245460901574
 20
118.3013452087657
 30
0.0
 10
123.5354081907383
 20
117.8998466980331
 30
0.0
 10
123.7039791701035
 20
117.7089401759572
 30
0.0
 10
124.0722487642167
 20
117.3652148439601
 30
0.0
 10
124.273310621487
 20
117.210077657746
 30
0.0
 10
124.7103415400719
 20
116.9350002976663
 30
0.0
 10
124.9424897532015
 20
116.8178840682443
 30
0.0
 10
125.4235000347004
 20
116.6289575831797
 30
0.0
 10
125.6756001175308
 20
116.5558826127854
 30
0.0
 10
126.1926696037898
 20
116.4578305536509
 30
0.0
 10
126.4541909747824
 20
116.433149572874
 30
0.0
 10
126.9832816521027
 20
116.433149572874
 30
0.0
  0
LINE
  5
84
330
1F
100
AcDbEntity
  8
0
  6
Continuous
 62
     7
370
    15
100
AcDbLine
 10
144.0687363134
 20
75.6253249906
 30
0.0
 11
140.1106691449
 21
75.6253249906
 31
0.0
  0
LINE
  5
85
330
1F
100
AcDbEntity
  8
0
  6
Continuous
 62
     7
370
    15
100
AcDbLine
 10
140.1106691449
 20
125.6622426869
 30
0.0
 11
144.0687363134
 21
125.6622426869
 31
0.0
  0
LINE
  5
86
330
1F
100
AcDbEntity
  8
0
  6
Continuous
 62
     7
370
    15
100
AcDbLine
 10
118.7187363134
 20
74.6122426869
 30
0.0
 11
118.7187363134
 21
137.0122426816
 31
0.0
  0
ARC
  5
87
330
1F
100
AcDbEntity
  8
0
  6
Continuous
 62
     7
370
    15
100
AcDbCircle
 10
126.7194704828
 20
117.7200191889
 30
0.0
 40
4.109680457923298
100
AcDbArc
 50
19.5371822557
 51
160.7883515075
  0
SPLINE
  5
88
330
1F
100
AcDbEntity
  8
0
  6
Continuous
 62
     7
370
    15
100
AcDbSpline
210
0.0
220
0.0
230
1.0
 70
     8
 71
     3
 72
    10
 73
     6
 74
     0
 42
0.00000001
 43
0.00000001
 40
0.0
 40
0.0
 40
0.0
 40
0.0
 40
0.5
 40
0.5
 40
1.0
 40
1.0
 40
1.0
 40
1.0
 10
135.2030338451335
 20
132.2122426868907
 30
0.0
 10
135.081493581465
 20
132.2869688541024
 30
0.0
 10
134.9801592211161
 20
132.3959138700192
 30
0.0
 10
134.8445202782276
 20
132.6463443507808
 30
0.0
 10
134.8087363134426
 20
132.7887637128797
 30
0.0
 10
134.8087363134426
 20
132.9318965379264
 30
0.0
  0
SPLINE
  5
89
330
1F
100
AcDbEntity
  8
0
  6
Continuous
 62
     7
370
    15
100
AcDbSpline
210
0.0
220
0.0
230
1.0
 70
    24
 71
     3
 72
    12
 73
     8
 74
     0
 42
0.00000001
 43
0.00000001
 40
0.0
 40
0.0
 40
0.0
 40
0.0
 40
0.2500000000000037
 40
0.2500000000000037
 40
0.5000000000000074
 40
0.5000000000000074
 40
1.0
 40
1.0
 40
1.0
 40
1.0
 10
135.6087363134426
 20
132.2122426868907
 30
0.0
 10
135.5588596311251
 20
132.2122426868907
 30
0.0
 10
135.5108564377215
 20
132.2122426868907
 30
0.0
 10
135.4278083350096
 20
132.2122426868907
 30
0.0
 10
135.3916787555417
 20
132.2122426868907
 30
0.0
 10
135.2957667245975
 20
132.2122426868907
 30
0.0
 10
135.2460080566287
 20
132.2122426868907
 30
0.0
 10
135.2030338451335
 20
132.2122426868907
 30
0.0
  0
SPLINE
  5
8A
330
1F
100
AcDbEntity
  8
0
  6
Continuous
 62
     7
370
    15
100
AcDbSpline
210
0.0
220
0.0
230
1.0
 70
    24
 71
     3
 72
    14
 73
    10
 74
     0
 42
0.00000001
 43
0.00000001
 40
0.0
 40
0.0
 40
0.0
 40
0.0
 40
0.1249999999999991
 40
0.1249999999999991
 40
0.2499999999999982
 40
0.2499999999999982
 40
0.4999999999999998
 40
0.4999999999999998
 40
1.0
 40
1.0
 40
1.0
 40
1.0
 10
135.6087363134426
 20
79.41224268689065
 30
0.0
 10
135.5402984655561
 20
79.41224268689065
 30
0.0
 10
135.4747484267911
 20
79.41224268689066
 30
0.0
 10
135.3703217873831
 20
79.41224268689066
 30
0.0
 10
135.3277771776217
 20
79.41224268689066
 30
0.0
 10
135.2151677170814
 20
79.41224268689065
 30
0.0
 10
135.1596286700619
 20
79.41224268689065
 30
0.0
 10
135.0170169745981
 20
79.41224268689065
 30
0.0
 10
134.9536116196024
 20
79.41224268689065
 30
0.0
 10
134.9064111157748
 20
79.41224268689065
 30
0.0
  0
SPLINE
  5
8B
330
1F
100
AcDbEntity
  8
0
  6
Continuous
 62
     7
370
    15
100
AcDbSpline
210
0.0
220
0.0
230
1.0
 70
     8
 71
     3
 72
    10
 73
     6
 74
     0
 42
0.00000001
 43
0.00000001
 40
0.0
 40
0.0
 40
0.0
 40
0.0
 40
0.5
 40
0.5
 40
1.0
 40
1.0
 40
1.0
 40
1.0
 10
134.8087363134426
 20
125.948109318352
 30
0.0
 10
134.8087363134426
 20
125.9003378103587
 30
0.0
 10
134.8108975570397
 20
125.8526280882971
 30
0.0
 10
134.8195689308999
 20
125.7573329707488
 30
0.0
 10
134.8260981138559
 20
125.7096404067821
 30
0.0
 10
134.8348839366027
 20
125.6622426868907
 30
0.0
  0
SPLINE
  5
8C
330
1F
100
AcDbEntity
  8
0
  6
Continuous
 62
     7
370
    15
100
AcDbSpline
210
0.0
220
0.0
230
1.0
 70
    24
 71
     3
 72
    14
 73
    10
 74
     0
 42
0.00000001
 43
0.00000001
 40
0.0
 40
0.0
 40
0.0
 40
0.0
 40
0.5000000000000013
 40
0.5000000000000013
 40
0.750000000000002
 40
0.750000000000002
 40
0.875000000000001
 40
0.875000000000001
 40
1.0
 40
1.0
 40
1.0
 40
1.0
 10
138.5310615111103
 20
79.41224268689065
 30
0.0
 10
138.4842768060621
 20
79.41224268689065
 30
0.0
 10
138.4222256092824
 20
79.41224268689066
 30
0.0
 10
138.2788339707318
 20
79.41224268689065
 30
0.0
 10
138.2226903171807
 20
79.41224268689065
 30
0.0
 10
138.1097392950445
 20
79.41224268689065
 30
0.0
 10
138.0667385330063
 20
79.41224268689065
 30
0.0
 10
137.9626758226999
 20
79.41224268689065
 30
0.0
 10
137.897343584343
 20
79.41224268689066
 30
0.0
 10
137.8287363134426
 20
79.41224268689065
 30
0.0
  0
SPLINE
  5
8D
330
1F
100
AcDbEntity
  8
0
  6
Continuous
 62
     7
370
    15
100
AcDbSpline
210
0.0
220
0.0
230
1.0
 70
    24
 71
     3
 72
    12
 73
     8
 74
     0
 42
0.00000001
 43
0.00000001
 40
0.0
 40
0.0
 40
0.0
 40
0.0
 40
0.5000000000000017
 40
0.5000000000000017
 40
0.7500000000000008
 40
0.7500000000000008
 40
1.0
 40
1.0
 40
1.0
 40
1.0
 10
138.2344387817516
 20
132.2122426868907
 30
0.0
 10
138.1913532321406
 20
132.2122426868907
 30
0.0
 10
138.1422010303913
 20
132.2122426868907
 30
0.0
 10
138.0457284361034
 20
132.2122426868907
 30
0.0
 10
138.0096268509688
 20
132.2122426868907
 30
0.0
 10
137.9265210931075
 20
132.2122426868907
 30
0.0
 10
137.8785244961413
 20
132.2122426868907
 30
0.0
 10
137.8287363134426
 20
132.2122426868907
 30
0.0
  0
SPLINE
  5
8E
330
1F
100
AcDbEntity
  8
0
  6
Continuous
 62
     7
370
    15
100
AcDbSpline
210
0.0
220
0.0
230
1.0
 70
     8
 71
     3
 72
    10
 73
     6
 74
     0
 42
0.00000001
 43
0.00000001
 40
0.0
 40
0.0
 40
0.0
 40
0.0
 40
0.5
 40
0.5
 40
1.0
 40
1.0
 40
1.0
 40
1.0
 10
138.6287363134425
 20
132.9318965379264
 30
0.0
 10
138.6287363134425
 20
132.7881264801084
 30
0.0
 10
138.5926872547237
 20
132.6457071176133
 30
0.0
 10
138.4571783939497
 20
132.395812824256
 30
0.0
 10
138.3573024008535
 20
132.2877824880078
 30
0.0
 10
138.2344387817516
 20
132.2122426868906
 30
0.0
  0
SPLINE
  5
8F
330
1F
100
AcDbEntity
  8
0
  6
Continuous
 62
     7
370
    15
100
AcDbSpline
210
0.0
220
0.0
230
1.0
 70
     8
 71
     3
 72
    10
 73
     6
 74
     0
 42
0.00000001
 43
0.00000001
 40
0.0
 40
0.0
 40
0.0
 40
0.0
 40
0.5
 40
0.5
 40
1.0
 40
1.0
 40
1.0
 40
1.0
 10
138.6025886902824
 20
125.6622426868907
 30
0.0
 10
138.6112783331941
 20
125.7091215362088
 30
0.0
 10
138.6178173979446
 20
125.7565440016101
 30
0.0
 10
138.6265760323376
 20
125.8524808001968
 30
0.0
 10
138.6287363134425
 20
125.9003960882073
 30
0.0
 10
138.6287363134425
 20
125.9481093183519
 30
0.0
  0
LINE
  5
90
330
1F
100
AcDbEntity
  8
0
  6
Continuous
 62
     7
370
    15
100
AcDbLine
 10
137.8287363134
 20
132.2122426869
 30
0.0
 11
135.6087363134
 21
132.2122426869
 31
0.0
  0
LINE
  5
91
330
1F
100
AcDbEntity
  8
0
  6
Continuous
 62
     7
370
    15
100
AcDbLine
 10
137.8287363134
 20
79.4122426869
 30
0.0
 11
135.6087363134
 21
79.4122426869
 31
0.0
  0
LINE
  5
92
330
1F
100
AcDbEntity
  8
0
  6
Continuous
 62
     7
370
    15
100
AcDbLine
 10
96.9187363134
 20
82.5837957931
 30
0.0
 11
96.9187363134
 21
83.8485051557
 31
0.0
  0
SPLINE
  5
93
330
1F
100
AcDbEntity
  8
0
  6
Continuous
 62
     7
370
    15
100
AcDbSpline
210
0.0
220
0.0
230
1.0
 70
     8
 71
     3
 72
    14
 73
    10
 74
     0
 42
0.00000001
 43
0.00000001
 40
0.0
 40
0.0
 40
0.0
 40
0.0
 40
0.25
 40
0.25
 40
0.5
 40
0.5
 40
0.75
 40
0.75
 40
1.0
 40
1.0
 40
1.0
 40
1.0
 10
96.14044919552684
 20
84.97909136333071
 30
0.0
 10
96.19707587072892
 20
84.87139390949385
 30
0.0
 10
96.29159853101865
 20
84.76860432777453
 30
0.0
 10
96.47464350658089
 20
84.57024701555437
 30
0.0
 10
96.5662700835356
 20
84.47418750687613
 30
0.0
 10
96.7251234012288
 20
84.28665846416689
 30
0.0
 10
96.7930140088505
 20
84.19524949138332
 30
0.0
 10
96.88993103455807
 20
84.01687327047318
 30
0.0
 10
96.91873631344313
 20
83.929651364227
 30
0.0
 10
96.91873631344313
 20
83.84850515569275
 30
0.0
  0
SPLINE
  5
94
330
1F
100
AcDbEntity
  8
0
  6
Continuous
 62
     7
370
    15
100
AcDbSpline
210
0.0
220
0.0
230
1.0
 70
     8
 71
     3
 72
    14
 73
    10
 74
     0
 42
0.00000001
 43
0.00000001
 40
0.0
 40
0.0
 40
0.0
 40
0.0
 40
0.1250000000000025
 40
0.1250000000000025
 40
0.250000000000005
 40
0.250000000000005
 40
0.5000000000000046
 40
0.5000000000000046
 40
1.0
 40
1.0
 40
1.0
 40
1.0
 10
95.51873631344257
 20
85.42577322561003
 30
0.0
 10
95.56728072209974
 20
85.43152153889032
 30
0.0
 10
95.62019607688462
 20
85.42842065023407
 30
0.0
 10
95.71549142186767
 20
85.40622580607176
 30
0.0
 10
95.75574241915263
 20
85.38899357897589
 30
0.0
 10
95.86001243266558
 20
85.33266566252384
 30
0.0
 10
95.91033440781894
 20
85.28847931657805
 30
0.0
 10
96.03801735534431
 20
85.15747141772741
 30
0.0
 10
96.09410280240657
 20
85.06723689749712
 30
0.0
 10
96.1404491955283
 20
84.97909136333124
 30
0.0
  0
SPLINE
  5
95
330
1F
100
AcDbEntity
  8
0
  6
Continuous
 62
     7
370
    15
100
AcDbSpline
210
0.0
220
0.0
230
1.0
 70
     8
 71
     3
 72
     8
 73
     4
 74
     0
 42
0.00000001
 43
0.00000001
 40
0.0
 40
0.0
 40
0.0
 40
0.0
 40
1.0
 40
1.0
 40
1.0
 40
1.0
 10
93.25021122049633
 20
85.11592793902723
 30
0.0
 10
93.98478824697928
 20
85.23455295009619
 30
0.0
 10
94.74826331637495
 20
85.33453882223247
 30
0.0
 10
95.51873631344257
 20
85.42577322561003
 30
0.0
  0
SPLINE
  5
96
330
1F
100
AcDbEntity
  8
0
  6
Continuous
 62
     7
370
    15
100
AcDbSpline
210
0.0
220
0.0
230
1.0
 70
     8
 71
     3
 72
    14
 73
    10
 74
     0
 42
0.00000001
 43
0.00000001
 40
0.0
 40
0.0
 40
0.0
 40
0.0
 40
0.4999999999999989
 40
0.4999999999999989
 40
0.7499999999999983
 40
0.7499999999999983
 40
0.8749999999999991
 40
0.8749999999999991
 40
1.0
 40
1.0
 40
1.0
 40
1.0
 10
87.96873631344256
 20
84.94230492149559
 30
0.0
 10
88.86088244399615
 20
84.94158269529494
 30
0.0
 10
89.7508588797897
 20
84.9461689017524
 30
0.0
 10
91.07745404686531
 20
84.97389390614393
 30
0.0
 10
91.51830097536407
 20
84.9865004437681
 30
0.0
 10
92.17474121278649
 20
85.01751659177556
 30
0.0
 10
92.39275486937836
 20
85.02985976440233
 30
0.0
 10
92.82546372306112
 20
85.06288381956558
 30
0.0
 10
93.04074018822591
 20
85.08210098470403
 30
0.0
 10
93.25021122049631
 20
85.11592793902723
 30
0.0
  0
SPLINE
  5
97
330
1F
100
AcDbEntity
  8
0
  6
Continuous
 62
     7
370
    15
100
AcDbSpline
210
0.0
220
0.0
230
1.0
 70
     8
 71
     3
 72
     8
 73
     4
 74
     0
 42
0.00000001
 43
0.00000001
 40
0.0000005163856998
 40
0.0000005163856998
 40
0.0000005163856998
 40
0.0000005163856998
 40
0.000026289209185
 40
0.000026289209185
 40
0.000026289209185
 40
0.000026289209185
 10
87.95869138303495
 20
84.95228879459236
 30
0.0
 10
87.96201912124278
 20
84.94895454772325
 30
0.0
 10
87.96536757421839
 20
84.94562659044794
 30
0.0
 10
87.96873631344255
 20
84.94230492149558
 30
0.0
  0
SPLINE
  5
98
330
1F
100
AcDbEntity
  8
0
  6
Continuous
 62
     7
370
    15
100
AcDbSpline
210
0.0
220
0.0
230
1.0
 70
     8
 71
     3
 72
     8
 73
     4
 74
     0
 42
0.00000001
 43
0.00000001
 40
0.0000005099763573
 40
0.0000005099763573
 40
0.0000005099763573
 40
0.0000005099763573
 40
0.0000262827998699
 40
0.0000262827998699
 40
0.0000262827998699
 40
0.0000262827998699
 10
87.96873631344255
 20
126.6821804522857
 30
0.0
 10
87.96536757421481
 20
126.6788587833298
 30
0.0
 10
87.96201912123566
 20
126.675530826051
 30
0.0
 10
87.95869138302433
 20
126.6721965791783
 30
0.0
  0
SPLINE
  5
99
330
1F
100
AcDbEntity
  8
0
  6
Continuous
 62
     7
370
    15
100
AcDbSpline
210
0.0
220
0.0
230
1.0
 70
     8
 71
     3
 72
    10
 73
     6
 74
     0
 42
0.00000001
 43
0.00000001
 40
0.0
 40
0.0
 40
0.0
 40
0.0
 40
0.5
 40
0.5
 40
1.0
 40
1.0
 40
1.0
 40
1.0
 10
91.51873631344257
 20
126.6353300787184
 30
0.0
 10
90.93115076635198
 20
126.6563955989548
 30
0.0
 10
90.3404043728916
 20
126.667154084827
 30
0.0
 10
89.15638520759272
 20
126.6805188653627
 30
0.0
 10
88.56297121938728
 20
126.6826615080273
 30
0.0
 10
87.96873631344256
 20
126.6821804522857
 30
0.0
  0
SPLINE
  5
9A
330
1F
100
AcDbEntity
  8
0
  6
Continuous
 62
     7
370
    15
100
AcDbSpline
210
0.0
220
0.0
230
1.0
 70
     8
 71
     3
 72
    18
 73
    14
 74
     0
 42
0.00000001
 43
0.00000001
 40
0.0
 40
0.0
 40
0.0
 40
0.0
 40
0.2499999999999991
 40
0.2499999999999991
 40
0.499999999999999
 40
0.499999999999999
 40
0.7499999999999989
 40
0.7499999999999989
 40
0.8749999999999999
 40
0.8749999999999999
 40
0.9374999999999999
 40
0.9374999999999999
 40
1.0
 40
1.0
 40
1.0
 40
1.0
 10
92.91873631344258
 20
127.6563503592537
 30
0.0
 10
92.91873631344258
 20
127.5731434503964
 30
0.0
 10
92.8828872135043
 20
127.4844067950829
 30
0.0
 10
92.7580154774704
 20
127.3022816045226
 30
0.0
 10
92.66761505982252
 20
127.207151555896
 30
0.0
 10
92.44537240508035
 20
127.0179700467717
 30
0.0
 10
92.31560761863457
 20
126.923024878677
 30
0.0
 10
92.07497016132305
 20
126.7847461710971
 30
0.0
 10
91.98720286318563
 20
126.7390357377947
 30
0.0
 10
91.83267877597878
 20
126.6812124325732
 30
0.0
 10
91.77606788992404
 20
126.6634976685354
 30
0.0
 10
91.65202385901743
 20
126.6389583653024
 30
0.0
 10
91.58430918399915
 20
126.6329792267641
 30
0.0
 10
91.51873631344257
 20
126.6353300787184
 30
0.0
  0
LINE
  5
9B
330
1F
100
AcDbEntity
  8
0
  6
Continuous
 62
     7
370
    15
100
AcDbLine
 10
92.9187363134
 20
127.6563503593
 30
0.0
 11
92.9187363134
 21
128.8402887791
 31
0.0
  0
LINE
  5
9C
330
1F
100
AcDbEntity
  8
0
  6
Continuous
 62
     7
370
    15
100
AcDbLine
 10
116.7187363134
 20
81.5918118252
 30
0.0
 11
116.7187363134
 21
130.0326735486
 31
0.0
  0
SPLINE
  5
9D
330
1F
100
AcDbEntity
  8
0
  6
Continuous
 62
     7
370
    15
100
AcDbSpline
210
0.0
220
0.0
230
1.0
 70
     8
 71
     3
 72
    24
 73
    20
 74
     0
 42
0.00000001
 43
0.00000001
 40
0.0
 40
0.0
 40
0.0
 40
0.0
 40
0.0010489762969683
 40
0.0637843125636769
 40
0.1272220590447979
 40
0.190378892448547
 40
0.2526748653693617
 40
0.3146354154430339
 40
0.3770891997149997
 40
0.4393540298511558
 40
0.5008133242537859
 40
0.56218451045969
 40
0.6248438451115955
 40
0.6874304766618995
 40
0.749674317467912
 40
0.8119848426969831
 40
0.8750960525413152
 40
0.9384412526965837
 40
1.0
 40
1.0
 40
1.0
 40
1.0
 10
105.4876421454183
 20
82.15473425831051
 30
0.0
 10
105.487195685314
 20
82.15467597249163
 30
0.0
 10
105.4600481216201
 20
82.15113183054892
 30
0.0
 10
105.5556598992325
 20
82.16396557523198
 30
0.0
 10
105.7892201571276
 20
82.19321226043189
 30
0.0
 10
106.1847744644457
 20
82.23982658349478
 30
0.0
 10
106.7118147682845
 20
82.29000972515416
 30
0.0
 10
107.3553451802726
 20
82.33438618760458
 30
0.0
 10
108.0940190355173
 20
82.36133096854212
 30
0.0
 10
108.8915335409492
 20
82.36480281924827
 30
0.0
 10
109.7181124233956
 20
82.33717557521817
 30
0.0
 10
110.543635441004
 20
82.27869668624551
 30
0.0
 10
111.3357619890053
 20
82.19325165688458
 30
0.0
 10
112.0683342630025
 20
82.09151741704802
 30
0.0
 10
112.7039744997327
 20
81.98367429507633
 30
0.0
 10
113.225885606744
 20
81.88204413833719
 30
0.0
 10
113.6075143838573
 20
81.79955898165875
 30
0.0
 10
113.8583288540933
 20
81.74340977530893
 30
0.0
 10
113.8874504100773
 20
81.7365603166952
 30
0.0
 10
113.9018029308933
 20
81.73318456996704
 30
0.0
  0
SPLINE
  5
9E
330
1F
100
AcDbEntity
  8
0
  6
Continuous
 62
     7
370
    15
100
AcDbSpline
210
0.0
220
0.0
230
1.0
 70
     8
 71
     3
 72
    24
 73
    20
 74
     0
 42
0.00000001
 43
0.00000001
 40
0.0
 40
0.0
 40
0.0
 40
0.0
 40
0.0614384276252095
 40
0.1250736755369691
 40
0.1884253490731512
 40
0.2508623904037511
 40
0.3129665632512957
 40
0.3753451453465188
 40
0.4377328972324856
 40
0.4990927322917281
 40
0.5605807588449117
 40
0.622946989302896
 40
0.6854686282028133
 40
0.7475477813740252
 40
0.8098225060806654
 40
0.8730684085990508
 40
0.9364041844531371
 40
0.9991757196257861
 40
1.0
 40
1.0
 40
1.0
 40
1.0
 10
113.9017481600903
 20
129.8912716613481
 30
0.0
 10
113.8871474357866
 20
129.8879036044954
 30
0.0
 10
113.8574239170583
 20
129.8810470610216
 30
0.0
 10
113.6046861014096
 20
129.8247084404955
 30
0.0
 10
113.2216901849606
 20
129.7418513583656
 30
0.0
 10
112.6993346005223
 20
129.6399443284143
 30
0.0
 10
112.0645501225225
 20
129.5321051893706
 30
0.0
 10
111.3343265183504
 20
129.4306382373954
 30
0.0
 10
110.5438579331169
 20
129.3455785237049
 30
0.0
 10
109.7193744182882
 20
129.2873742298185
 30
0.0
 10
108.8923379594045
 20
129.2597907909916
 30
0.0
 10
108.0940136917522
 20
129.2632837684847
 30
0.0
 10
107.3541897274639
 20
129.2902396883379
 30
0.0
 10
106.7099354944881
 20
129.3345936303371
 30
0.0
 10
106.1825282392729
 20
129.3847990800949
 30
0.0
 10
105.7878636371231
 20
129.4314089352931
 30
0.0
 10
105.5553343579388
 20
129.4606045278407
 30
0.0
 10
105.4599543253854
 20
129.4733825967819
 30
0.0
 10
105.4868879622872
 20
129.4698283382741
 30
0.0
 10
105.4872370555115
 20
129.4697822706907
 30
0.0
  0
SPLINE
  5
9F
330
1F
100
AcDbEntity
  8
0
  6
Continuous
 62
     7
370
    15
100
AcDbSpline
210
0.0
220
0.0
230
1.0
 70
     8
 71
     3
 72
    10
 73
     6
 74
     0
 42
0.00000001
 43
0.00000001
 40
0.0
 40
0.0
 40
0.0
 40
0.0
 40
0.0840381716606348
 40
0.7011125076933074
 40
1.0
 40
1.0
 40
1.0
 40
1.0
 10
86.83228327597823
 20
86.08346877920732
 30
0.0
 10
86.83295783331315
 20
86.08126315237142
 30
0.0
 10
86.83858552100935
 20
86.06286207900921
 30
0.0
 10
86.86490700113619
 20
86.07709664173238
 30
0.0
 10
86.8773420179809
 20
86.12278241728337
 30
0.0
 10
86.88139968816596
 20
86.13769014210992
 30
0.0
  0
LINE
  5
A0
330
1F
100
AcDbEntity
  8
0
  6
Continuous
 62
     7
370
    15
100
AcDbLine
 10
86.8187363134
 20
86.1215649404
 30
0.0
 11
86.8187363134
 21
125.5029204334
 31
0.0
  0
SPLINE
  5
A1
330
1F
100
AcDbEntity
  8
0
  6
Continuous
 62
     7
370
    15
100
AcDbSpline
210
0.0
220
0.0
230
1.0
 70
     8
 71
     3
 72
    10
 73
     6
 74
     0
 42
0.00000001
 43
0.00000001
 40
0.0
 40
0.0
 40
0.0
 40
0.0
 40
0.3981552638809415
 40
0.8068145697130351
 40
1.0
 40
1.0
 40
1.0
 40
1.0
 10
86.88139968816597
 20
125.4867952316714
 30
0.0
 10
86.87573618344148
 20
125.5056370162223
 30
0.0
 10
86.8642597606942
 20
125.5438176650146
 30
0.0
 10
86.84074553272
 20
125.5574009488822
 30
0.0
 10
86.8357295769022
 20
125.5417006547621
 30
0.0
 10
86.83411951117459
 20
125.5366610359148
 30
0.0
  0
SPLINE
  5
A2
330
1F
100
AcDbEntity
  8
0
  6
Continuous
 62
     7
370
    15
100
AcDbSpline
210
0.0
220
0.0
230
1.0
 70
     8
 71
     3
 72
    26
 73
    22
 74
     0
 42
0.00000001
 43
0.00000001
 40
0.0
 40
0.0
 40
0.0
 40
0.0
 40
0.2500000000000165
 40
0.2500000000000165
 40
0.3750000000000256
 40
0.3750000000000256
 40
0.4375000000000291
 40
0.4375000000000291
 40
0.4687500000000291
 40
0.4687500000000291
 40
0.5000000000000292
 40
0.5000000000000292
 40
0.5312500000000293
 40
0.5312500000000293
 40
0.5625000000000293
 40
0.5625000000000293
 40
0.625000000000026
 40
0.625000000000026
 40
0.7500000000000173
 40
0.7500000000000173
 40
1.0
 40
1.0
 40
1.0
 40
1.0
 10
87.64288995954708
 20
126.2023620204885
 30
0.0
 10
87.60428943667861
 20
126.0845873241331
 30
0.0
 10
87.55799243412434
 20
125.9601976379711
 30
0.0
 10
87.46405308569041
 20
125.7549783056176
 30
0.0
 10
87.42874161877695
 20
125.6834054391712
 30
0.0
 10
87.36256164303128
 20
125.5674522065707
 30
0.0
 10
87.33802327636306
 20
125.5268676717605
 30
0.0
 10
87.29465053080926
 20
125.4627259898888
 30
0.0
 10
87.27914212938407
 20
125.4408595646037
 30
0.0
 10
87.24409948479705
 20
125.3952652962605
 30
0.0
 10
87.22454919407727
 20
125.3715950052931
 30
0.0
 10
87.18262191370667
 20
125.3269784459532
 30
0.0
 10
87.15996980347502
 20
125.3060984334352
 30
0.0
 10
87.11899608938839
 20
125.2752250196844
 30
0.0
 10
87.10139678949297
 20
125.265386149852
 30
0.0
 10
87.05676980363683
 20
125.2463965341558
 30
0.0
 10
87.0362105809835
 20
125.2460722095024
 30
0.0
 10
86.9850851414868
 20
125.2552956503786
 30
0.0
 10
86.96417372849828
 20
125.2765425465956
 30
0.0
 10
86.91272382093734
 20
125.3505114254264
 30
0.0
 10
86.89505852163279
 20
125.4166295187411
 30
0.0
 10
86.88139968816597
 20
125.4867952316714
 30
0.0
  0
SPLINE
  5
A3
330
1F
100
AcDbEntity
  8
0
  6
Continuous
 62
     7
370
    15
100
AcDbSpline
210
0.0
220
0.0
230
1.0
 70
     8
 71
     3
 72
    10
 73
     6
 74
     0
 42
0.00000001
 43
0.00000001
 40
0.0
 40
0.0
 40
0.0
 40
0.0
 40
0.5
 40
0.5
 40
1.0
 40
1.0
 40
1.0
 40
1.0
 10
87.95869138302434
 20
126.6721965791783
 30
0.0
 10
87.89113212810611
 20
126.6045051863685
 30
0.0
 10
87.82749547276963
 20
126.5297980216149
 30
0.0
 10
87.71727471819776
 20
126.3708318891883
 30
0.0
 10
87.67045842497514
 20
126.2864766231803
 30
0.0
 10
87.64288995954706
 20
126.2023620204885
 30
0.0
  0
SPLINE
  5
A4
330
1F
100
AcDbEntity
  8
0
  6
Continuous
 62
     7
370
    15
100
AcDbSpline
210
0.0
220
0.0
230
1.0
 70
     8
 71
     3
 72
    10
 73
     6
 74
     0
 42
0.00000001
 43
0.00000001
 40
0.0
 40
0.0
 40
0.0
 40
0.0
 40
0.5
 40
0.5
 40
1.0
 40
1.0
 40
1.0
 40
1.0
 10
87.6428899595471
 20
85.42212335329269
 30
0.0
 10
87.6703673743011
 20
85.3382865568248
 30
0.0
 10
87.7170760045905
 20
85.25397606923565
 30
0.0
 10
87.82735446733646
 20
85.09485483874896
 30
0.0
 10
87.89124200595036
 20
85.01987009465931
 30
0.0
 10
87.95869138303497
 20
84.95228879459236
 30
0.0
  0
SPLINE
  5
A5
330
1F
100
AcDbEntity
  8
0
  6
Continuous
 62
     7
370
    15
100
AcDbSpline
210
0.0
220
0.0
230
1.0
 70
     8
 71
     3
 72
    24
 73
    20
 74
     0
 42
0.00000001
 43
0.00000001
 40
0.0
 40
0.0
 40
0.0
 40
0.0
 40
0.25
 40
0.25
 40
0.374999999999999
 40
0.374999999999999
 40
0.4374999999999993
 40
0.4374999999999993
 40
0.4687499999999994
 40
0.4687499999999994
 40
0.4999999999999995
 40
0.4999999999999995
 40
0.5624999999999971
 40
0.5624999999999971
 40
0.6249999999999947
 40
0.6249999999999947
 40
0.7499999999999947
 40
0.7499999999999947
 40
1.0
 40
1.0
 40
1.0
 40
1.0
 10
86.88139968816597
 20
86.13769014210992
 30
0.0
 10
86.8951528068362
 20
86.20834020010021
 30
0.0
 10
86.91292537424205
 20
86.27493831286512
 30
0.0
 10
86.96517646579741
 20
86.34903633309833
 30
0.0
 10
86.98621154137898
 20
86.37029414025989
 30
0.0
 10
87.03911194900742
 20
86.37844006640613
 30
0.0
 10
87.06021762188533
 20
86.37750026301036
 30
0.0
 10
87.10626979056329
 20
86.35648427143302
 30
0.0
 10
87.12464026254668
 20
86.3455754653254
 30
0.0
 10
87.16619189761239
 20
86.31294055437802
 30
0.0
 10
87.18875857036932
 20
86.29144857400667
 30
0.0
 10
87.25153958682932
 20
86.22298263042035
 30
0.0
 10
87.28466934779722
 20
86.17690817221525
 30
0.0
 10
87.34158703428223
 20
86.09190028388059
 30
0.0
 10
87.36577305978601
 20
86.0516199826992
 30
0.0
 10
87.43098101016577
 20
85.93668375623325
 30
0.0
 10
87.46569707035701
 20
85.86610077108625
 30
0.0
 10
87.55891234068788
 20
85.66189501200765
 30
0.0
 10
87.60458487604855
 20
85.53899662968028
 30
0.0
 10
87.6428899595471
 20
85.42212335329272
 30
0.0
  0
LINE
  5
A6
330
1F
100
AcDbEntity
  8
0
  6
Continuous
 62
     7
370
    15
100
AcDbLine
 10
138.6287363134
 20
125.9481093184
 30
0.0
 11
138.6287363134
 21
126.8623863545
 31
0.0
  0
SPLINE
  5
A7
330
1F
100
AcDbEntity
  8
0
  6
Continuous
 62
     7
370
    15
100
AcDbSpline
210
0.0
220
0.0
230
1.0
 70
     8
 71
     3
 72
     8
 73
     4
 74
     0
 42
0.00000001
 43
0.00000001
 40
0.0
 40
0.0
 40
0.0
 40
0.0
 40
1.0
 40
1.0
 40
1.0
 40
1.0
 10
138.6287363134425
 20
126.862386354474
 30
0.0
 10
139.1080144640324
 20
128.0033975843266
 30
0.0
 10
139.6035823031723
 20
129.1397819950944
 30
0.0
 10
140.1106691449316
 20
130.2709323492581
 30
0.0
  0
LINE
  5
A8
330
1F
100
AcDbEntity
  8
0
  6
Continuous
 62
     7
370
    15
100
AcDbLine
 10
140.1106691449
 20
130.2709323493
 30
0.0
 11
144.0687363134
 21
130.2709323493
 31
0.0
  0
SPLINE
  5
A9
330
1F
100
AcDbEntity
  8
0
  6
Continuous
 62
     7
370
    15
100
AcDbSpline
210
0.0
220
0.0
230
1.0
 70
     8
 71
     3
 72
    12
 73
     8
 74
     0
 42
0.00000001
 43
0.00000001
 40
0.0
 40
0.0
 40
0.0
 40
0.0
 40
0.250000000000002
 40
0.250000000000002
 40
0.500000000000004
 40
0.500000000000004
 40
1.0
 40
1.0
 40
1.0
 40
1.0
 10
144.0687363134425
 20
130.2709323492581
 30
0.0
 10
144.1599360352682
 20
130.2709323492581
 30
0.0
 10
144.2505310444043
 20
130.2427126506702
 30
0.0
 10
144.4039437708509
 20
130.1482696434221
 30
0.0
 10
144.4691526381746
 20
130.0819826667168
 30
0.0
 10
144.6219371675145
 20
129.8563578434285
 30
0.0
 10
144.6687363134426
 20
129.673931580396
 30
0.0
 10
144.6687363134426
 20
129.493194948149
 30
0.0
  0
LINE
  5
AA
330
1F
100
AcDbEntity
  8
0
  6
Continuous
 62
     7
370
    15
100
AcDbLine
 10
144.6687363134
 20
129.4931949481
 30
0.0
 11
144.6687363134
 21
125.6622426869
 31
0.0
  0
SPLINE
  5
AB
330
1F
100
AcDbEntity
  8
0
  6
Continuous
 62
     7
370
    15
100
AcDbSpline
210
0.0
220
0.0
230
1.0
 70
     8
 71
     3
 72
    10
 73
     6
 74
     0
 42
0.00000001
 43
0.00000001
 40
0.0
 40
0.0
 40
0.0
 40
0.0
 40
0.5
 40
0.5
 40
1.0
 40
1.0
 40
1.0
 40
1.0
 10
144.6687363134426
 20
135.6586830106546
 30
0.0
 10
144.6687363134425
 20
135.8190882770054
 30
0.0
 10
144.6064984823357
 20
135.978150089994
 30
0.0
 10
144.3873635585931
 20
136.2090625556243
 30
0.0
 10
144.2297748636013
 20
136.2794381600549
 30
0.0
 10
144.0687363134425
 20
136.2794381600549
 30
0.0
  0
LINE
  5
AC
330
1F
100
AcDbEntity
  8
0
  6
Continuous
 62
     7
370
    15
100
AcDbLine
 10
144.6687363134
 20
129.4931949481
 30
0.0
 11
144.6687363134
 21
135.6586830107
 31
0.0
  0
SPLINE
  5
AD
330
1F
100
AcDbEntity
  8
0
  6
Continuous
 62
     7
370
    15
100
AcDbSpline
210
0.0
220
0.0
230
1.0
 70
     8
 71
     3
 72
     8
 73
     4
 74
     0
 42
0.00000001
 43
0.00000001
 40
0.0
 40
0.0
 40
0.0
 40
0.0
 40
1.0
 40
1.0
 40
1.0
 40
1.0
 10
140.1106691449316
 20
136.2794381600549
 30
0.0
 10
139.6155291155673
 20
135.3927585118747
 30
0.0
 10
139.1214464102883
 20
134.5054958761887
 30
0.0
 10
138.6287363134425
 20
133.6174768780622
 30
0.0
  0
LINE
  5
AE
330
1F
100
AcDbEntity
  8
0
  6
Continuous
 62
     7
370
    15
100
AcDbLine
 10
140.1106691449
 20
130.2709323493
 30
0.0
 11
140.1106691449
 21
136.2794381601
 31
0.0
  0
LINE
  5
AF
330
1F
100
AcDbEntity
  8
0
  6
Continuous
 62
     7
370
    15
100
AcDbLine
 10
138.6287363134
 20
126.8623863545
 30
0.0
 11
138.6287363134
 21
133.6174768781
 31
0.0
  0
LINE
  5
B0
330
1F
100
AcDbEntity
  8
0
  6
Continuous
 62
     7
370
    15
100
AcDbLine
 10
144.0687363134
 20
136.2794381601
 30
0.0
 11
140.1106691449
 21
136.2794381601
 31
0.0
  0
SPLINE
  5
B1
330
1F
100
AcDbEntity
  8
0
  6
Continuous
 62
     7
370
    15
100
AcDbSpline
210
0.0
220
0.0
230
1.0
 70
     8
 71
     3
 72
     8
 73
     4
 74
     0
 42
0.00000001
 43
0.00000001
 40
0.0
 40
0.0
 40
0.0
 40
0.0
 40
1.0
 40
1.0
 40
1.0
 40
1.0
 10
133.3268034819535
 20
130.2709323492581
 30
0.0
 10
133.8338903237128
 20
129.1397819950944
 30
0.0
 10
134.3294581628527
 20
128.0033975843266
 30
0.0
 10
134.8087363134426
 20
126.862386354474
 30
0.0
  0
LINE
  5
B2
330
1F
100
AcDbEntity
  8
0
  6
Continuous
 62
     7
370
    15
100
AcDbLine
 10
134.8087363134
 20
126.8623863545
 30
0.0
 11
134.8087363134
 21
125.9481093184
 31
0.0
  0
SPLINE
  5
B3
330
1F
100
AcDbEntity
  8
0
  6
Continuous
 62
     7
370
    15
100
AcDbSpline
210
0.0
220
0.0
230
1.0
 70
     8
 71
     3
 72
     8
 73
     4
 74
     0
 42
0.00000001
 43
0.00000001
 40
0.0
 40
0.0
 40
0.0
 40
0.0
 40
1.0
 40
1.0
 40
1.0
 40
1.0
 10
134.8087363134426
 20
133.6174768780623
 30
0.0
 10
134.3160262165968
 20
134.5054958761887
 30
0.0
 10
133.8219435113178
 20
135.3927585118747
 30
0.0
 10
133.3268034819535
 20
136.2794381600549
 30
0.0
  0
LINE
  5
B4
330
1F
100
AcDbEntity
  8
0
  6
Continuous
 62
     7
370
    15
100
AcDbLine
 10
134.8087363134
 20
126.8623863545
 30
0.0
 11
134.8087363134
 21
133.6174768781
 31
0.0
  0
ARC
  5
B5
330
1F
100
AcDbEntity
  8
0
  6
Continuous
 62
     7
370
    15
100
AcDbCircle
 10
126.718559428
 20
124.4934625072
 30
0.0
 40
7.272528589261642
100
AcDbArc
 50
70.9560776415
 51
108.9969075428
  0
SPLINE
  5
B6
330
1F
100
AcDbEntity
  8
0
  6
Continuous
 62
     7
370
    15
100
AcDbSpline
210
0.0
220
0.0
230
1.0
 70
     8
 71
     3
 72
     9
 73
     5
 74
     0
 42
0.00000001
 43
0.00000001
 40
0.0
 40
0.0
 40
0.0
 40
0.0
 40
0.682961742192495
 40
1.0
 40
1.0
 40
1.0
 40
1.0
 10
165.7056884516232
 20
120.8026489928114
 30
0.0
 10
165.701874306925
 20
120.8025154569674
 30
0.0
 10
165.6962895948357
 20
120.8023199323343
 30
0.0
 10
165.6232716021155
 20
120.8012007407291
 30
0.0
 10
165.6001221049149
 20
120.8008459141724
 30
0.0
  0
LINE
  5
B7
330
1F
100
AcDbEntity
  8
0
  6
Continuous
 62
     7
370
    15
100
AcDbLine
 10
165.6001221049
 20
90.8122426869
 30
0.0
 11
165.6001221049
 21
120.8008459142
 31
0.0
  0
SPLINE
  5
B8
330
1F
100
AcDbEntity
  8
0
  6
Continuous
 62
     7
370
    15
100
AcDbSpline
210
0.0
220
0.0
230
1.0
 70
     8
 71
     3
 72
    10
 73
     6
 74
     0
 42
0.00000001
 43
0.00000001
 40
0.0
 40
0.0
 40
0.0
 40
0.0
 40
0.5
 40
0.5
 40
1.0
 40
1.0
 40
1.0
 40
1.0
 10
165.6001221049149
 20
120.8008459141724
 30
0.0
 10
165.6388174115232
 20
120.8044121668736
 30
0.0
 10
165.6685938081121
 20
120.8072981679875
 30
0.0
 10
165.7086803610889
 20
120.8112271655625
 30
0.0
 10
165.7187363134425
 20
120.8122426868907
 30
0.0
 10
165.7187363134425
 20
120.8122426868907
 30
0.0
  0
LINE
  5
B9
330
1F
100
AcDbEntity
  8
0
  6
Continuous
 62
     7
370
    15
100
AcDbLine
 10
153.3423128748
 20
120.6473373989
 30
0.0
 11
153.514477981
 21
120.6286939374
 31
0.0
  0
SPLINE
  5
BA
330
1F
100
AcDbEntity
  8
0
  6
Continuous
 62
     7
370
    15
100
AcDbSpline
210
0.0
220
0.0
230
1.0
 70
     8
 71
     3
 72
    37
 73
    33
 74
     0
 42
0.00000001
 43
0.00000001
 40
0.0
 40
0.0
 40
0.0
 40
0.0
 40
0.0260745690363595
 40
0.0485613789562393
 40
0.0686516358259718
 40
0.1094511196058719
 40
0.1301874919269451
 40
0.1516489175492179
 40
0.1951472409224607
 40
0.2172029083284292
 40
0.2418582355108153
 40
0.2918187188911581
 40
0.3171485545383653
 40
0.345575068218709
 40
0.4032428283255149
 40
0.4325284642472575
 40
0.463659298283078
 40
0.5269199854930227
 40
0.5591193170383679
 40
0.5911186074605729
 40
0.6233445310618151
 40
0.6563033069143744
 40
0.6895250809470392
 40
0.7206642780458483
 40
0.7842158098972063
 40
0.8167789331396237
 40
0.8395613286466252
 40
0.8858326780637173
 40
0.9093994472971447
 40
0.9321878521921779
 40
0.9787112702307836
 40
1.0
 40
1.0
 40
1.0
 40
1.0
 10
159.1589741538246
 20
120.8106227640624
 30
0.0
 10
159.1604400113979
 20
120.810864528282
 30
0.0
 10
159.1631700302532
 20
120.8113147909063
 30
0.0
 10
159.123648824927
 20
120.8047790412423
 30
0.0
 10
159.0579657428761
 20
120.7940493310826
 30
0.0
 10
158.9599310834377
 20
120.7783360539401
 30
0.0
 10
158.8316886264487
 20
120.7585784901081
 30
0.0
 10
158.6799501626183
 20
120.7358937038783
 30
0.0
 10
158.4979404350451
 20
120.7100769637965
 30
0.0
 10
158.2854878896721
 20
120.6821671705784
 30
0.0
 10
158.0412305679066
 20
120.6519691163636
 30
0.0
 10
157.7640110355815
 20
120.6213394563618
 30
0.0
 10
157.4571925203542
 20
120.5923248323216
 30
0.0
 10
157.1145918872993
 20
120.5639059167548
 30
0.0
 10
156.741340328077
 20
120.540205177185
 30
0.0
 10
156.3486050773807
 20
120.5237847041364
 30
0.0
 10
155.9315245511598
 20
120.5126594362964
 30
0.0
 10
155.4988505963974
 20
120.5115983527997
 30
0.0
 10
155.0677851287313
 20
120.5211374114066
 30
0.0
 10
154.7457291688438
 20
120.5334840840491
 30
0.0
 10
154.4276651892775
 20
120.5507299734996
 30
0.0
 10
154.1147113254414
 20
120.5725688235447
 30
0.0
 10
153.8169150586142
 20
120.5978451979965
 30
0.0
 10
153.4442484938352
 20
120.6346081302018
 30
0.0
 10
153.1048683023505
 20
120.6747733857485
 30
0.0
 10
152.8307291913023
 20
120.7114392117394
 30
0.0
 10
152.6205566025959
 20
120.7412070143355
 30
0.0
 10
152.4589802825788
 20
120.7656356256255
 30
0.0
 10
152.33401127316
 20
120.7853082500478
 30
0.0
 10
152.23542784338
 20
120.8011819153208
 30
0.0
 10
152.1760120249696
 20
120.8110340319813
 30
0.0
 10
152.171332329891
 20
120.8118115398347
 30
0.0
 10
152.1698632013182
 20
120.8120556281746
 30
0.0
  0
SPLINE
  5
BB
330
1F
100
AcDbEntity
  8
0
  6
Continuous
 62
     7
370
    15
100
AcDbSpline
210
0.0
220
0.0
230
1.0
 70
     8
 71
     3
 72
     9
 73
     5
 74
     0
 42
0.00000001
 43
0.00000001
 40
0.0
 40
0.0
 40
0.0
 40
0.0
 40
0.3625033216873065
 40
1.0
 40
1.0
 40
1.0
 40
1.0
 10
153.0799545829971
 20
120.6792947030363
 30
0.0
 10
153.1093203987156
 20
120.675437854881
 30
0.0
 10
153.1903288032232
 20
120.6647983712554
 30
0.0
 10
153.283143691709
 20
120.6541351604023
 30
0.0
 10
153.3423128748167
 20
120.6473373989033
 30
0.0
  0
SPLINE
  5
BC
330
1F
100
AcDbEntity
  8
0
  6
Continuous
 62
     7
370
    15
100
AcDbSpline
210
0.0
220
0.0
230
1.0
 70
     8
 71
     3
 72
    60
 73
    56
 74
     0
 42
0.00000001
 43
0.00000001
 40
-0.0312500000000004
 40
-0.0312500000000004
 40
0.0
 40
0.0
 40
0.0625000000000009
 40
0.0625000000000009
 40
0.0937500000000014
 40
0.0937500000000014
 40
0.1250000000000019
 40
0.1250000000000019
 40
0.1875000000000019
 40
0.1875000000000019
 40
0.2500000000000018
 40
0.2500000000000018
 40
0.2812500000000014
 40
0.2812500000000014
 40
0.312500000000001
 40
0.312500000000001
 40
0.3437500000000006
 40
0.3437500000000006
 40
0.3750000000000002
 40
0.3750000000000002
 40
0.4062499999999997
 40
0.4062499999999997
 40
0.4374999999999993
 40
0.4374999999999993
 40
0.4687499999999989
 40
0.4687499999999989
 40
0.4999999999999985
 40
0.4999999999999985
 40
0.5624999999999977
 40
0.5624999999999977
 40
0.5937499999999973
 40
0.5937499999999973
 40
0.6249999999999969
 40
0.6249999999999969
 40
0.6562499999999964
 40
0.6562499999999964
 40
0.687499999999996
 40
0.687499999999996
 40
0.7499999999999962
 40
0.7499999999999962
 40
0.7812499999999967
 40
0.7812499999999967
 40
0.8124999999999971
 40
0.8124999999999971
 40
0.8437499999999977
 40
0.8437499999999977
 40
0.8749999999999981
 40
0.8749999999999981
 40
0.9062499999999986
 40
0.9062499999999986
 40
0.937499999999999
 40
0.937499999999999
 40
0.9687499999999996
 40
0.9687499999999996
 40
1.0
 40
1.0
 40
1.062500000000001
 40
1.062500000000001
 10
153.1726031680675
 20
107.9009164745467
 30
0.0
 10
153.6817322921046
 20
108.2891932680403
 30
0.0
 10
154.0589504476342
 20
108.4800412105098
 30
0.0
 10
154.6690355173452
 20
108.6733264305211
 30
0.0
 10
154.8753368169119
 20
108.7204388240778
 30
0.0
 10
155.2935327355108
 20
108.7818973743999
 30
0.0
 10
155.5066405592283
 20
108.7962039654559
 30
0.0
 10
156.1465563527004
 20
108.7880696329769
 30
0.0
 10
156.5636798530435
 20
108.7167296655971
 30
0.0
 10
157.3703071126359
 20
108.4380308161544
 30
0.0
 10
157.739876117154
 20
108.2385631714869
 30
0.0
 10
158.2374265653012
 20
107.8362121955473
 30
0.0
 10
158.3886858395606
 20
107.6882055573454
 30
0.0
 10
158.6585747506253
 20
107.3640885547424
 30
0.0
 10
158.7787689074576
 20
107.185013975129
 30
0.0
 10
158.9727717727227
 20
106.8088076652996
 30
0.0
 10
159.0473259319177
 20
106.6120507668058
 30
0.0
 10
159.1474495112288
 20
106.1995648736442
 30
0.0
 10
159.1717923119288
 20
105.9840745336553
 30
0.0
 10
159.1650469312905
 20
105.5609446633108
 30
0.0
 10
159.1340291237354
 20
105.3469327411247
 30
0.0
 10
159.0207942921826
 20
104.9362827048295
 30
0.0
 10
158.9397463584115
 20
104.7402834445507
 30
0.0
 10
158.7319518227455
 20
104.365641052841
 30
0.0
 10
158.6085547900892
 20
104.1930667965212
 30
0.0
 10
158.3283359335494
 20
103.8747057132656
 30
0.0
 10
158.1704747236557
 20
103.7285840436596
 30
0.0
 10
157.666808893481
 20
103.3423005033106
 30
0.0
 10
157.2809639332557
 20
103.1459359796276
 30
0.0
 10
156.6761466310874
 20
102.9532502286092
 30
0.0
 10
156.4676605389093
 20
102.9050474749605
 30
0.0
 10
156.0452875176282
 20
102.842600093505
 30
0.0
 10
155.8339116478512
 20
102.828498620113
 30
0.0
 10
155.4107934933643
 20
102.8333701804892
 30
0.0
 10
155.1978491307891
 20
102.8525590913942
 30
0.0
 10
154.7769472917702
 20
102.9250401899981
 30
0.0
 10
154.5720856150791
 20
102.9775866677758
 30
0.0
 10
153.9740513866884
 20
103.1838000551156
 30
0.0
 10
153.5922529025328
 20
103.3902061717114
 30
0.0
 10
153.1024453462946
 20
103.786351585184
 30
0.0
 10
152.9512959678444
 20
103.933334741169
 30
0.0
 10
152.6771905166532
 20
104.2623791649955
 30
0.0
 10
152.5593001166741
 20
104.4384504034479
 30
0.0
 10
152.3648487833618
 20
104.815255839303
 30
0.0
 10
152.2881841486351
 20
105.0184833413144
 30
0.0
 10
152.1892169057529
 20
105.4303358965844
 30
0.0
 10
152.1652908940119
 20
105.6415560641045
 30
0.0
 10
152.1729764661917
 20
106.0719430964004
 30
0.0
 10
152.2042858041126
 20
106.2820290158527
 30
0.0
 10
152.3183080999946
 20
106.6926600529244
 30
0.0
 10
152.4016269773974
 20
106.8923077976523
 30
0.0
 10
152.6084413899237
 20
107.2630008048029
 30
0.0
 10
152.7341778877275
 20
107.4383198015778
 30
0.0
 10
153.0160139075547
 20
107.7566269754996
 30
0.0
 10
153.1726031680675
 20
107.9009164745467
 30
0.0
 10
153.6817322921046
 20
108.2891932680403
 30
0.0
  0
SPLINE
  5
BD
330
1F
100
AcDbEntity
  8
0
  6
Continuous
 62
     7
370
    15
100
AcDbSpline
210
0.0
220
0.0
230
1.0
 70
     8
 71
     3
 72
     9
 73
     5
 74
     0
 42
0.00000001
 43
0.00000001
 40
0.0
 40
0.0
 40
0.0
 40
0.0
 40
0.8306961451677372
 40
1.0
 40
1.0
 40
1.0
 40
1.0
 10
153.3423128751243
 20
90.97714797491291
 30
0.0
 10
153.2704027182662
 20
90.96894092348231
 30
0.0
 10
153.1838365806041
 20
90.95906119612549
 30
0.0
 10
153.1109905648024
 20
90.94935253839273
 30
0.0
 10
153.098657453518
 20
90.94770882521333
 30
0.0
  0
SPLINE
  5
BE
330
1F
100
AcDbEntity
  8
0
  6
Continuous
 62
     7
370
    15
100
AcDbSpline
210
0.0
220
0.0
230
1.0
 70
     8
 71
     3
 72
    39
 73
    35
 74
     0
 42
0.00000001
 43
0.00000001
 40
0.0
 40
0.0
 40
0.0
 40
0.0
 40
0.0060930915915702
 40
0.0287231216978999
 40
0.0488575597471493
 40
0.0897791026067259
 40
0.1105983631044335
 40
0.1315246787516555
 40
0.1739506973677858
 40
0.1954697364836915
 40
0.2192513009537061
 40
0.2674372844787139
 40
0.2918637061366409
 40
0.3194211748210415
 40
0.3753053589442872
 40
0.4036706937147586
 40
0.4343190429066361
 40
0.4965752772228838
 40
0.5282468941304261
 40
0.5601856082085992
 40
0.5923465560573508
 40
0.6252194849322179
 40
0.6583446550624817
 40
0.6898805263369174
 40
0.7216586971763902
 40
0.7542539956277853
 40
0.7871589908225305
 40
0.8110125140027769
 40
0.8594545121918962
 40
0.8841254510707369
 40
0.907985826541588
 40
0.9567347565320057
 40
0.9817327968062015
 40
1.0
 40
1.0
 40
1.0
 40
1.0
 10
152.173586681958
 20
90.8130459953685
 30
0.0
 10
152.171938163071
 20
90.81277304620745
 30
0.0
 10
152.1641669671355
 20
90.81148635096383
 30
0.0
 10
152.1837230297224
 20
90.81473301819167
 30
0.0
 10
152.225538474399
 20
90.82163455020772
 30
0.0
 10
152.3043213030232
 20
90.83447930466573
 30
0.0
 10
152.4133631545174
 20
90.85167843230724
 30
0.0
 10
152.5446686821877
 20
90.87187693285918
 30
0.0
 10
152.7057383518522
 20
90.89560342048968
 30
0.0
 10
152.8970521992676
 20
90.92199575957139
 30
0.0
 10
153.1181224914643
 20
90.95096597808671
 30
0.0
 10
153.3716508831368
 20
90.98121834913073
 30
0.0
 10
153.6555190126402
 20
91.01096870189336
 30
0.0
 10
153.9752870903196
 20
91.04107431985126
 30
0.0
 10
154.3271971467905
 20
91.0678863859977
 30
0.0
 10
154.7021640986345
 20
91.0887977759364
 30
0.0
 10
155.1058212704048
 20
91.10548058258854
 30
0.0
 10
155.5299357622846
 20
91.11307823439371
 30
0.0
 10
155.9580790616816
 20
91.11032668787085
 30
0.0
 10
156.2820110634838
 20
91.1029714160303
 30
0.0
 10
156.6057159627552
 20
91.09036919609319
 30
0.0
 10
156.9266519393449
 20
91.07272194780116
 30
0.0
 10
157.2362533199408
 20
91.05082879973737
 30
0.0
 10
157.5308284446388
 20
91.02567612602095
 30
0.0
 10
157.8100814445652
 20
90.99803813094692
 30
0.0
 10
158.0764043850759
 20
90.96824846119792
 30
0.0
 10
158.3023764930661
 20
90.94025734299679
 30
0.0
 10
158.5458801462596
 20
90.90785634547265
 30
0.0
 10
158.7414596371663
 20
90.8796108561066
 30
0.0
 10
158.9003054675162
 20
90.85540115032414
 30
0.0
 10
159.0334340658558
 20
90.83447626835667
 30
0.0
 10
159.1231662356646
 20
90.81979652053212
 30
0.0
 10
159.1644696389783
 20
90.81295254867265
 30
0.0
 10
159.1667576562181
 20
90.81257164976256
 30
0.0
 10
159.1677236897471
 20
90.81241082880724
 30
0.0
  0
LINE
  5
BF
330
1F
100
AcDbEntity
  8
0
  6
Continuous
 62
     7
370
    15
100
AcDbLine
 10
153.4114990981
 20
90.9846898368
 30
0.0
 11
153.3423128751
 21
90.9771479749
 31
0.0
  0
CIRCLE
  5
C0
330
1F
100
AcDbEntity
  8
0
  6
Continuous
 62
     7
370
    15
100
AcDbCircle
 10
155.6687363134
 20
105.8122426869
 30
0.0
 40
2.5
  0
LINE
  5
C1
330
1F
100
AcDbEntity
  8
0
  6
Continuous
 62
     7
370
    15
100
AcDbLine
 10
203.7187363134
 20
95.6610236702
 30
0.0
 11
203.7187363134
 21
115.963461696
 31
0.0
  0
LINE
  5
C2
330
1F
100
AcDbEntity
  8
0
  6
Continuous
 62
     7
370
    15
100
AcDbLine
 10
203.7481811753
 20
113.8110857951
 30
0.0
 11
203.7187363134
 21
113.0616640179
 31
0.0
  0
LINE
  5
C3
330
1F
100
AcDbEntity
  8
0
  6
Continuous
 62
     7
370
    15
100
AcDbLine
 10
203.7960585206
 20
115.0296456048
 30
0.0
 11
203.7481811753
 21
113.8110857951
 31
0.0
  0
LINE
  5
C4
330
1F
100
AcDbEntity
  8
0
  6
Continuous
 62
     7
370
    15
100
AcDbLine
 10
203.7187363134
 20
98.5628213558
 30
0.0
 11
203.7960585206
 21
96.594839769
 31
0.0
  0
LINE
  5
C5
330
1F
100
AcDbEntity
  8
0
  6
HIDDEN
 62
     7
370
     0
100
AcDbLine
 10
161.7187363134
 20
102.633818885
 30
0.0
 11
161.7187363134
 21
109.8122426869
 31
0.0
  0
LINE
  5
C6
330
1F
100
AcDbEntity
  8
0
  6
HIDDEN
 62
     7
370
     0
100
AcDbLine
 10
161.7187363134
 20
101.8122426869
 30
0.0
 11
161.7187363134
 21
102.633818885
 31
0.0
  0
LINE
  5
C7
330
1F
100
AcDbEntity
  8
0
  6
HIDDEN
 62
     7
370
     0
100
AcDbLine
 10
146.2187363134
 20
102.633818885
 30
0.0
 11
146.2187363134
 21
109.8122426869
 31
0.0
  0
LINE
  5
C8
330
1F
100
AcDbEntity
  8
0
  6
HIDDEN
 62
     7
370
     0
100
AcDbLine
 10
146.2187363134
 20
101.8122426869
 30
0.0
 11
146.2187363134
 21
102.633818885
 31
0.0
  0
LINE
  5
C9
330
1F
100
AcDbEntity
  8
0
  6
HIDDEN
 62
     7
370
     0
100
AcDbLine
 10
145.7187363134
 20
103.0311218602
 30
0.0
 11
145.7187363134
 21
109.3122426869
 31
0.0
  0
LINE
  5
CA
330
1F
100
AcDbEntity
  8
0
  6
HIDDEN
 62
     7
370
     0
100
AcDbLine
 10
145.7187363134
 20
102.3122426869
 30
0.0
 11
145.7187363134
 21
103.0311218602
 31
0.0
  0
LINE
  5
CB
330
1F
100
AcDbEntity
  8
0
  6
HIDDEN
 62
     7
370
     0
100
AcDbLine
 10
165.7187363134
 20
107.0539975993
 30
0.0
 11
163.7187363134
 21
107.0539975993
 31
0.0
  0
LINE
  5
CC
330
1F
100
AcDbEntity
  8
0
  6
HIDDEN
 62
     7
370
     0
100
AcDbLine
 10
165.7187363134
 20
102.3122426869
 30
0.0
 11
165.7187363134
 21
107.0539975993
 31
0.0
  0
LINE
  5
CD
330
1F
100
AcDbEntity
  8
0
  6
HIDDEN
 62
     7
370
     0
100
AcDbLine
 10
163.7187363134
 20
102.9812758735
 30
0.0
 11
165.7187363134
 21
102.9812758735
 31
0.0
  0
LINE
  5
CE
330
1F
100
AcDbEntity
  8
0
  6
HIDDEN
 62
     7
370
     0
100
AcDbLine
 10
165.7187363134
 20
104.5704877745
 30
0.0
 11
163.7187363134
 21
104.5704877745
 31
0.0
  0
LINE
  5
CF
330
1F
100
AcDbEntity
  8
0
  6
HIDDEN
 62
     7
370
     0
100
AcDbLine
 10
165.7187363134
 20
108.6432095003
 30
0.0
 11
165.7187363134
 21
109.3122426869
 31
0.0
  0
LINE
  5
D0
330
1F
100
AcDbEntity
  8
0
  6
HIDDEN
 62
     7
370
     0
100
AcDbLine
 10
163.7187363134
 20
108.6432095003
 30
0.0
 11
165.7187363134
 21
108.6432095003
 31
0.0
  0
LINE
  5
D1
330
1F
100
AcDbEntity
  8
0
  6
HIDDEN
 62
     7
370
     0
100
AcDbLine
 10
163.7187363134
 20
107.0539975993
 30
0.0
 11
163.7187363134
 21
108.6432095003
 31
0.0
  0
LINE
  5
D2
330
1F
100
AcDbEntity
  8
0
  6
HIDDEN
 62
     7
370
     0
100
AcDbLine
 10
163.7187363134
 20
106.0692089643
 30
0.0
 11
163.7187363134
 21
107.0539975993
 31
0.0
  0
LINE
  5
D3
330
1F
100
AcDbEntity
  8
0
  6
HIDDEN
 62
     7
370
     0
100
AcDbLine
 10
163.7187363134
 20
106.0692089643
 30
0.0
 11
165.7187363134
 21
106.0692089643
 31
0.0
  0
LINE
  5
D4
330
1F
100
AcDbEntity
  8
0
  6
HIDDEN
 62
     7
370
     0
100
AcDbLine
 10
150.7187363134
 20
104.9240789378
 30
0.0
 11
150.7187363134
 21
106.0692089643
 31
0.0
  0
LINE
  5
D5
330
1F
100
AcDbEntity
  8
0
  6
HIDDEN
 62
     7
370
     0
100
AcDbLine
 10
160.7187363134
 20
106.0692089643
 30
0.0
 11
160.7187363134
 21
104.9240789378
 31
0.0
  0
LINE
  5
D6
330
1F
100
AcDbEntity
  8
0
  6
HIDDEN
 62
     7
370
     0
100
AcDbLine
 10
160.7187363134
 20
107.2143389907
 30
0.0
 11
160.7187363134
 21
106.0692089643
 31
0.0
  0
LINE
  5
D7
330
1F
100
AcDbEntity
  8
0
  6
HIDDEN
 62
     7
370
     0
100
AcDbLine
 10
150.7187363134
 20
106.0692089643
 30
0.0
 11
150.7187363134
 21
107.2143389907
 31
0.0
  0
LINE
  5
D8
330
1F
100
AcDbEntity
  8
0
  6
HIDDEN
 62
     7
370
     0
100
AcDbLine
 10
150.7187363134
 20
104.2230307859
 30
0.0
 11
150.7187363134
 21
104.9240789378
 31
0.0
  0
LINE
  5
D9
330
1F
100
AcDbEntity
  8
0
  6
HIDDEN
 62
     7
370
     0
100
AcDbLine
 10
150.7187363134
 20
104.9240789378
 30
0.0
 11
145.7187363134
 21
104.9240789378
 31
0.0
  0
LINE
  5
DA
330
1F
100
AcDbEntity
  8
0
  6
HIDDEN
 62
     7
370
     0
100
AcDbLine
 10
160.7187363134
 20
104.9240789378
 30
0.0
 11
160.7187363134
 21
104.2230307859
 31
0.0
  0
LINE
  5
DB
330
1F
100
AcDbEntity
  8
0
  6
HIDDEN
 62
     7
370
     0
100
AcDbLine
 10
160.7187363134
 20
104.9240789378
 30
0.0
 11
165.7187363134
 21
104.9240789378
 31
0.0
  0
LINE
  5
DC
330
1F
100
AcDbEntity
  8
0
  6
HIDDEN
 62
     7
370
     0
100
AcDbLine
 10
165.7187363134
 20
107.6584208652
 30
0.0
 11
165.7187363134
 21
108.6432095003
 31
0.0
  0
LINE
  5
DD
330
1F
100
AcDbEntity
  8
0
  6
HIDDEN
 62
     7
370
     0
100
AcDbLine
 10
165.7187363134
 20
107.6584208652
 30
0.0
 11
163.7187363134
 21
107.6584208652
 31
0.0
  0
LINE
  5
DE
330
1F
100
AcDbEntity
  8
0
  6
HIDDEN
 62
     7
370
     0
100
AcDbLine
 10
160.7187363134
 20
107.6584208652
 30
0.0
 11
160.7187363134
 21
107.2143389907
 31
0.0
  0
LINE
  5
DF
330
1F
100
AcDbEntity
  8
0
  6
HIDDEN
 62
     7
370
     0
100
AcDbLine
 10
160.7187363134
 20
107.2143389907
 30
0.0
 11
163.7187363134
 21
107.2143389907
 31
0.0
  0
LINE
  5
E0
330
1F
100
AcDbEntity
  8
0
  6
HIDDEN
 62
     7
370
     0
100
AcDbLine
 10
150.7187363134
 20
107.2143389907
 30
0.0
 11
150.7187363134
 21
107.6584208652
 31
0.0
  0
LINE
  5
E1
330
1F
100
AcDbEntity
  8
0
  6
HIDDEN
 62
     7
370
     0
100
AcDbLine
 10
150.7187363134
 20
107.2143389907
 30
0.0
 11
145.7187363134
 21
107.2143389907
 31
0.0
  0
LINE
  5
E2
330
1F
100
AcDbEntity
  8
0
  6
HIDDEN
 62
     7
370
     0
100
AcDbLine
 10
150.7187363134
 20
103.521982634
 30
0.0
 11
150.7187363134
 21
104.2230307859
 31
0.0
  0
LINE
  5
E3
330
1F
100
AcDbEntity
  8
0
  6
HIDDEN
 62
     7
370
     0
100
AcDbLine
 10
160.7187363134
 20
104.2230307859
 30
0.0
 11
160.7187363134
 21
103.521982634
 31
0.0
  0
LINE
  5
E4
330
1F
100
AcDbEntity
  8
0
  6
HIDDEN
 62
     7
370
     0
100
AcDbLine
 10
150.7187363134
 20
107.6584208652
 30
0.0
 11
150.7187363134
 21
108.1025027397
 31
0.0
  0
LINE
  5
E5
330
1F
100
AcDbEntity
  8
0
  6
HIDDEN
 62
     7
370
     0
100
AcDbLine
 10
160.7187363134
 20
108.1025027397
 30
0.0
 11
160.7187363134
 21
107.6584208652
 31
0.0
  0
LINE
  5
E6
330
1F
100
AcDbEntity
  8
0
  6
HIDDEN
 62
     7
370
     0
100
AcDbLine
 10
150.7187363134
 20
104.4101463831
 30
0.0
 11
145.7187363134
 21
104.4101463831
 31
0.0
  0
LINE
  5
E7
330
1F
100
AcDbEntity
  8
0
  6
HIDDEN
 62
     7
370
     0
100
AcDbLine
 10
150.7187363134
 20
103.521982634
 30
0.0
 11
145.7187363134
 21
103.521982634
 31
0.0
  0
LINE
  5
E8
330
1F
100
AcDbEntity
  8
0
  6
HIDDEN
 62
     7
370
     0
100
AcDbLine
 10
160.7187363134
 20
104.4101463831
 30
0.0
 11
163.7187363134
 21
104.4101463831
 31
0.0
  0
LINE
  5
E9
330
1F
100
AcDbEntity
  8
0
  6
HIDDEN
 62
     7
370
     0
100
AcDbLine
 10
163.7187363134
 20
103.9660645086
 30
0.0
 11
163.7187363134
 21
104.4101463831
 31
0.0
  0
LINE
  5
EA
330
1F
100
AcDbEntity
  8
0
  6
HIDDEN
 62
     7
370
     0
100
AcDbLine
 10
165.7187363134
 20
103.9660645086
 30
0.0
 11
163.7187363134
 21
103.9660645086
 31
0.0
  0
LINE
  5
EB
330
1F
100
AcDbEntity
  8
0
  6
HIDDEN
 62
     7
370
     0
100
AcDbLine
 10
160.7187363134
 20
103.521982634
 30
0.0
 11
165.7187363134
 21
103.521982634
 31
0.0
  0
LINE
  5
EC
330
1F
100
AcDbEntity
  8
0
  6
HIDDEN
 62
     7
370
     0
100
AcDbLine
 10
150.7187363134
 20
106.7004064359
 30
0.0
 11
145.7187363134
 21
106.7004064359
 31
0.0
  0
LINE
  5
ED
330
1F
100
AcDbEntity
  8
0
  6
HIDDEN
 62
     7
370
     0
100
AcDbLine
 10
150.7187363134
 20
108.1025027397
 30
0.0
 11
145.7187363134
 21
108.1025027397
 31
0.0
  0
LINE
  5
EE
330
1F
100
AcDbEntity
  8
0
  6
HIDDEN
 62
     7
370
     0
100
AcDbLine
 10
160.7187363134
 20
106.7004064359
 30
0.0
 11
165.7187363134
 21
106.7004064359
 31
0.0
  0
LINE
  5
EF
330
1F
100
AcDbEntity
  8
0
  6
HIDDEN
 62
     7
370
     0
100
AcDbLine
 10
160.7187363134
 20
108.1025027397
 30
0.0
 11
165.7187363134
 21
108.1025027397
 31
0.0
  0
LINE
  5
F0
330
1F
100
AcDbEntity
  8
0
  6
HIDDEN
 62
     7
370
     0
100
AcDbLine
 10
165.7187363134
 20
107.0539975993
 30
0.0
 11
165.7187363134
 21
107.6584208652
 31
0.0
  0
LINE
  5
F1
330
1F
100
AcDbEntity
  8
0
  6
HIDDEN
 62
     7
370
     0
100
AcDbLine
 10
163.7187363134
 20
102.9812758735
 30
0.0
 11
163.7187363134
 21
103.9660645086
 31
0.0
  0
LINE
  5
F2
330
1F
100
AcDbEntity
  8
0
  6
HIDDEN
 62
     7
370
     0
100
AcDbLine
 10
163.7187363134
 20
105.5552764095
 30
0.0
 11
165.7187363134
 21
105.5552764095
 31
0.0
  0
LINE
  5
F3
330
1F
100
AcDbEntity
  8
0
  6
HIDDEN
 62
     7
370
     0
100
AcDbLine
 10
163.7187363134
 20
104.4101463831
 30
0.0
 11
163.7187363134
 21
105.5552764095
 31
0.0
  0
LINE
  5
F4
330
1F
100
AcDbEntity
  8
0
  6
HIDDEN
 62
     7
370
     0
100
AcDbLine
 10
133.326803482
 20
130.2709323493
 30
0.0
 11
133.326803482
 21
125.6622426869
 31
0.0
  0
ARC
  5
F5
330
1F
100
AcDbEntity
  8
0
  6
HIDDEN
 62
     7
370
     0
100
AcDbCircle
 10
127.009932867
 20
118.3001633446
 30
0.0
 40
3.669578197119157
100
AcDbArc
 50
265.4485521482
 51
12.4994723526
  0
ARC
  5
F6
330
1F
100
AcDbEntity
  8
0
  6
HIDDEN
 62
     7
370
     0
100
AcDbCircle
 10
126.4283159709
 20
118.3020301124
 30
0.0
 40
3.671377598166407
100
AcDbArc
 50
167.8884118876
 51
274.5370606286
  0
LINE
  5
F7
330
1F
100
AcDbEntity
  8
0
  6
HIDDEN
 62
     7
370
     0
100
AcDbLine
 10
106.713886518
 20
82.2876430641
 30
0.0
 11
106.4650216993
 21
82.2643800976
 31
0.0
  0
LINE
  5
F8
330
1F
100
AcDbEntity
  8
0
  6
HIDDEN
 62
     7
370
     0
100
AcDbLine
 10
106.3324609381
 20
129.3723290151
 30
0.0
 11
106.7137937977
 21
129.3368257169
 31
0.0
  0
SPLINE
  5
F9
330
1F
100
AcDbEntity
  8
0
  6
HIDDEN
 62
     7
370
     0
100
AcDbSpline
210
0.0
220
0.0
230
1.0
 70
     8
 71
     3
 72
    32
 73
    28
 74
     0
 42
0.00000001
 43
0.00000001
 40
0.0
 40
0.0
 40
0.0
 40
0.0
 40
0.0346246159901393
 40
0.0694870388940023
 40
0.105100760954932
 40
0.1409753874086758
 40
0.1756005721189328
 40
0.210469240812561
 40
0.2461122854708169
 40
0.2820258067991321
 40
0.3162663828049037
 40
0.3859338563640312
 40
0.4214461814158482
 40
0.4553763558770598
 40
0.5243713305904967
 40
0.5595124638219118
 40
0.593798734303577
 40
0.6635059787021123
 40
0.6990055363805018
 40
0.7337623601246063
 40
0.7687606633024604
 40
0.8045245907686109
 40
0.8405553812432468
 40
0.875170121130555
 40
0.9456085132854553
 40
0.9815233266320907
 40
1.0
 40
1.0
 40
1.0
 40
1.0
 10
112.4737383150442
 20
85.9747142110742
 30
0.0
 10
112.4017400131978
 20
85.98450215398252
 30
0.0
 10
112.2572489146646
 20
86.00414526481894
 30
0.0
 10
112.0159289804061
 20
86.03359448344067
 30
0.0
 10
111.7566307294205
 20
86.06214486553108
 30
0.0
 10
111.4826433102878
 20
86.08857608448592
 30
0.0
 10
111.1980155292663
 20
86.11202856183722
 30
0.0
 10
110.9034305702982
 20
86.13202601829583
 30
0.0
 10
110.5964996613299
 20
86.14818169679958
 30
0.0
 10
110.2847681955774
 20
86.15962368449506
 30
0.0
 10
109.867502646892
 20
86.16831481219292
 30
0.0
 10
109.4468596535344
 20
86.16702675573272
 30
0.0
 10
109.0334561003689
 20
86.15579894436524
 30
0.0
 10
108.6286121373017
 20
86.13850067228438
 30
0.0
 10
108.2379740527395
 20
86.11278502851616
 30
0.0
 10
107.8691929746982
 20
86.08069171761925
 30
0.0
 10
107.5157751924498
 20
86.0451335091168
 30
0.0
 10
107.1903341021289
 20
86.0058850527812
 30
0.0
 10
106.9009568964115
 20
85.96625353540887
 30
0.0
 10
106.7030430194362
 20
85.93711779226662
 30
0.0
 10
106.5257160553987
 20
85.90938355995387
 30
0.0
 10
106.3691067268862
 20
85.88360301569949
 30
0.0
 10
106.2374592071835
 20
85.8609963789653
 30
0.0
 10
106.0955980116118
 20
85.83581033365864
 30
0.0
 10
106.0067794237962
 20
85.81936478453503
 30
0.0
 10
105.9699564852458
 20
85.81247195371886
 30
0.0
 10
105.971372632419
 20
85.81273693962805
 30
0.0
 10
105.9718536946282
 20
85.81282695478276
 30
0.0
  0
SPLINE
  5
FA
330
1F
100
AcDbEntity
  8
0
  6
HIDDEN
 62
     7
370
     0
100
AcDbSpline
210
0.0
220
0.0
230
1.0
 70
     8
 71
     3
 72
    30
 73
    26
 74
     0
 42
0.00000001
 43
0.00000001
 40
0.0
 40
0.0
 40
0.0
 40
0.0
 40
0.0156161600804337
 40
0.0849748372628082
 40
0.1203204532886746
 40
0.15431851909124
 40
0.2234436946574013
 40
0.2586467089786606
 40
0.2931107206687011
 40
0.3631864361325603
 40
0.3988795186727328
 40
0.4336750628309723
 40
0.4687145712104809
 40
0.5045294144990544
 40
0.5406151111978532
 40
0.5750767863722916
 40
0.6452033649630275
 40
0.6809575734718859
 40
0.7149323277721685
 40
0.784033058295527
 40
0.8192378401372485
 40
0.8533347063218409
 40
0.9226550151093995
 40
0.9579547149334489
 40
1.0
 40
1.0
 40
1.0
 40
1.0
 10
105.9718536946282
 20
125.8116584189985
 30
0.0
 10
105.9712559555431
 20
125.8117706718802
 30
0.0
 10
105.9680033773664
 20
125.8123814923575
 30
0.0
 10
106.0183242798147
 20
125.8029223579004
 30
0.0
 10
106.118629308856
 20
125.7846175218043
 30
0.0
 10
106.2532462969257
 20
125.7606342164305
 30
0.0
 10
106.4353049419558
 20
125.729535422284
 30
0.0
 10
106.6622275156211
 20
125.6936162782417
 30
0.0
 10
106.9188139209984
 20
125.6552972571026
 30
0.0
 10
107.2168505794711
 20
125.6150521217944
 30
0.0
 10
107.5493998334709
 20
125.576391098392
 30
0.0
 10
107.8145975388751
 20
125.5489884396608
 30
0.0
 10
108.0936553641341
 20
125.5239436030486
 30
0.0
 10
108.3881063800282
 20
125.5017759057531
 30
0.0
 10
108.6909713133445
 20
125.4836138184831
 30
0.0
 10
109.1013573002132
 20
125.4653557134887
 30
0.0
 10
109.522198139168
 20
125.4565084794843
 30
0.0
 10
109.942102056397
 20
125.4579738739254
 30
0.0
 10
110.3567165772507
 20
125.4660172670928
 30
0.0
 10
110.7629376967266
 20
125.483524052692
 30
0.0
 10
111.1524681964485
 20
125.5090893657199
 30
0.0
 10
111.5292888976869
 20
125.539273601434
 30
0.0
 10
111.8824260573908
 20
125.5751711762815
 30
0.0
 10
112.2241775452124
 20
125.6159894541401
 30
0.0
 10
112.385851306222
 20
125.6378743677066
 30
0.0
 10
112.4737383150442
 20
125.6497711627071
 30
0.0
  0
SPLINE
  5
FB
330
1F
100
AcDbEntity
  8
0
  6
HIDDEN
 62
     7
370
     0
100
AcDbSpline
210
0.0
220
0.0
230
1.0
 70
     8
 71
     3
 72
    15
 73
    11
 74
     0
 42
0.00000001
 43
0.00000001
 40
0.0
 40
0.0
 40
0.0
 40
0.0
 40
0.110060662173418
 40
0.2208954364920621
 40
0.3341579545068919
 40
0.4482549450807876
 40
0.5583385682697616
 40
0.7822124059829495
 40
0.8962632428942918
 40
1.0
 40
1.0
 40
1.0
 40
1.0
 10
112.4737383150442
 20
125.6497711627071
 30
0.0
 10
112.5413323012023
 20
125.658839416779
 30
0.0
 10
112.6769956961138
 20
125.6770397065271
 30
0.0
 10
112.8574411253519
 20
125.69776076215
 30
0.0
 10
113.0195898819957
 20
125.7145004463418
 30
0.0
 10
113.1576410954466
 20
125.7270825625351
 30
0.0
 10
113.3092814842535
 20
125.7394613412245
 30
0.0
 10
113.4107291756604
 20
125.7464187580009
 30
0.0
 10
113.4621507781211
 20
125.7497159031611
 30
0.0
 10
113.4661057846256
 20
125.7499612159275
 30
0.0
 10
113.4679896364169
 20
125.7500780634963
 30
0.0
  0
SPLINE
  5
FC
330
1F
100
AcDbEntity
  8
0
  6
HIDDEN
 62
     7
370
     0
100
AcDbSpline
210
0.0
220
0.0
230
1.0
 70
     8
 71
     3
 72
    17
 73
    13
 74
     0
 42
0.00000001
 43
0.00000001
 40
0.0
 40
0.0
 40
0.0
 40
0.0
 40
0.0069567676752298
 40
0.1183009685241854
 40
0.2320592237073458
 40
0.346652212149678
 40
0.4573723676311865
 40
0.568864990308391
 40
0.6828017342049362
 40
0.797588112976049
 40
0.898496428190463
 40
1.0
 40
1.0
 40
1.0
 40
1.0
 10
113.4679834149393
 20
85.87440770331052
 30
0.0
 10
113.4682326531448
 20
85.87439196363208
 30
0.0
 10
113.4724709894635
 20
85.87412430783398
 30
0.0
 10
113.4565493964043
 20
85.87512128475295
 30
0.0
 10
113.4175361620153
 20
85.87763767050336
 30
0.0
 10
113.3490833207749
 20
85.88233532461615
 30
0.0
 10
113.2563315333232
 20
85.88928517977537
 30
0.0
 10
113.1390399131506
 20
85.89901466741586
 30
0.0
 10
112.9962032843572
 20
85.91226167349814
 30
0.0
 10
112.8346538903884
 20
85.9292487622279
 30
0.0
 10
112.6608505503828
 20
85.94954140262928
 30
0.0
 10
112.5362312210945
 20
85.96630684022362
 30
0.0
 10
112.4737383150442
 20
85.9747142110742
 30
0.0
  0
LINE
  5
FD
330
1F
100
AcDbEntity
  8
0
  6
HIDDEN
 62
     7
370
     0
100
AcDbLine
 10
99.7227109097
 20
88.8122426869
 30
0.0
 11
99.7227109097
 21
122.8122426869
 31
0.0
  0
LWPOLYLINE
  5
FE
330
1F
100
AcDbEntity
  8
0
  6
HIDDEN
 62
     7
370
     0
100
AcDbPolyline
 90
       14
 70
   128
 43
0.0
 10
126.7187363134
 20
127.7578451015
 10
127.4990976015
 20
127.7962745407
 10
128.2494700429
 20
127.9100860365
 10
128.9410172455
 20
128.0949058769
 10
129.5471634382
 20
128.3436315392
 10
130.0446147627
 20
128.6467046355
 10
130.4142544435
 20
128.9924782368
 10
130.6418774351
 20
129.3676644575
 10
130.7187363134
 20
129.7578451015
 10
130.6418774351
 20
130.1480257456
 10
130.4142544435
 20
130.5232119663
 10
130.0446147627
 20
130.8689855676
 10
129.5471634382
 20
131.1720586639
 10
129.0915337524
 20
131.3679563022
  0
LWPOLYLINE
  5
FF
330
1F
100
AcDbEntity
  8
0
  6
HIDDEN
 62
     7
370
     0
100
AcDbPolyline
 90
       14
 70
   128
 43
0.0
 10
124.3512268594
 20
131.3699011633
 10
123.8903091887
 20
131.1720586639
 10
123.3928578642
 20
130.8689855676
 10
123.0232181834
 20
130.5232119663
 10
122.7955951918
 20
130.1480257456
 10
122.7187363134
 20
129.7578451015
 10
122.7955951918
 20
129.3676644575
 10
123.0232181834
 20
128.9924782368
 10
123.3928578642
 20
128.6467046355
 10
123.8903091887
 20
128.3436315392
 10
124.4964553814
 20
128.0949058769
 10
125.188002584
 20
127.9100860365
 10
125.9383750254
 20
127.7962745407
 10
126.7187363134
 20
127.7578451015
  0
SPLINE
  5
100
330
1F
100
AcDbEntity
  8
0
  6
HIDDEN
 62
     7
370
     0
100
AcDbSpline
210
0.0
220
0.0
230
1.0
 70
     8
 71
     3
 72
    11
 73
     7
 74
     0
 42
0.00000001
 43
0.00000001
 40
0.0
 40
0.0
 40
0.0
 40
0.0
 40
0.0005779865010845
 40
0.0005779865010845
 40
0.0005779865010845
 40
0.0011559733324421
 40
0.0011559733324421
 40
0.0011559733324421
 40
0.0011559733324421
 10
86.81873631344259
 20
107.8120832950505
 30
0.0
 10
86.98540356824854
 20
107.8100996557095
 30
0.0
 10
87.15206999792619
 20
107.8080620487009
 30
0.0
 10
87.31873633637802
 20
107.8059505852945
 30
0.0
 10
87.48540276520441
 20
107.8038391207432
 30
0.0
 10
87.65206913884214
 20
107.8016535575868
 30
0.0
 10
87.81873631344256
 20
107.7993709802552
 30
0.0
  0
SPLINE
  5
101
330
1F
100
AcDbEntity
  8
0
  6
HIDDEN
 62
     7
370
     0
100
AcDbSpline
210
0.0
220
0.0
230
1.0
 70
     8
 71
     3
 72
     8
 73
     4
 74
     0
 42
0.00000001
 43
0.00000001
 40
0.0
 40
0.0
 40
0.0
 40
0.0
 40
0.0011564765856722
 40
0.0011564765856722
 40
0.0011564765856722
 40
0.0011564765856722
 10
87.81873631344256
 20
103.8155423846744
 30
0.0
 10
87.4854283828737
 20
103.8146672290911
 30
0.0
 10
87.1520931504815
 20
103.8136123778396
 30
0.0
 10
86.81873631344256
 20
103.812441290802
 30
0.0
  0
LINE
  5
102
330
1F
100
AcDbEntity
  8
0
  6
HIDDEN
 62
     7
370
     0
100
AcDbLine
 10
126.378562282
 20
88.8122426869
 30
0.0
 11
126.378562282
 21
122.8122426869
 31
0.0
  0
LINE
  5
103
330
1F
100
AcDbEntity
  8
0
  6
HIDDEN
 62
     7
370
     0
100
AcDbLine
 10
128.6687363134
 20
90.0872426869
 30
0.0
 11
128.6687363134
 21
121.5372426606
 31
0.0
  0
SPLINE
  5
104
330
1F
100
AcDbEntity
  8
0
  6
HIDDEN
 62
     7
370
     0
100
AcDbSpline
210
0.0
220
0.0
230
1.0
 70
     8
 71
     3
 72
    16
 73
    12
 74
     0
 42
0.00000001
 43
0.00000001
 40
0.0
 40
0.0
 40
0.0
 40
0.0
 40
0.124999999999998
 40
0.124999999999998
 40
0.249999999999996
 40
0.249999999999996
 40
0.4999999999999973
 40
0.4999999999999973
 40
0.7499999999999987
 40
0.7499999999999987
 40
1.0
 40
1.0
 40
1.0
 40
1.0
 10
95.51873631344257
 20
90.010752250859
 30
0.0
 10
95.61385806810839
 20
90.010752250859
 30
0.0
 10
95.70718813683646
 20
90.00693641746619
 30
0.0
 10
95.89044989757447
 20
89.99216586473638
 30
0.0
 10
95.98132761313147
 20
89.9810078167608
 30
0.0
 10
96.2381293106512
 20
89.93853654661908
 30
0.0
 10
96.39319667552321
 20
89.89749034941629
 30
0.0
 10
96.64694313707784
 20
89.8023442328344
 30
0.0
 10
96.74781358874569
 20
89.74758149875281
 30
0.0
 10
96.88306000344053
 20
89.63632037484895
 30
0.0
 10
96.91873631344255
 20
89.57915063752026
 30
0.0
 10
96.91873631344255
 20
89.52472906448652
 30
0.0
  0
SPLINE
  5
105
330
1F
100
AcDbEntity
  8
0
  6
HIDDEN
 62
     7
370
     0
100
AcDbSpline
210
0.0
220
0.0
230
1.0
 70
     8
 71
     3
 72
     8
 73
     4
 74
     0
 42
0.00000001
 43
0.00000001
 40
0.0
 40
0.0
 40
0.0
 40
0.0
 40
1.0
 40
1.0
 40
1.0
 40
1.0
 10
88.11873631675776
 20
92.15555519694124
 30
0.0
 10
88.11873631675968
 20
91.27165805462431
 30
0.0
 10
88.1052556908499
 20
90.55707480956237
 30
0.0
 10
88.10390432266058
 20
90.010752250859
 30
0.0
  0
SPLINE
  5
106
330
1F
100
AcDbEntity
  8
0
  6
HIDDEN
 62
     7
370
     0
100
AcDbSpline
210
0.0
220
0.0
230
1.0
 70
     8
 71
     3
 72
    10
 73
     6
 74
     0
 42
0.00000001
 43
0.00000001
 40
0.0
 40
0.0
 40
0.0
 40
0.0
 40
0.5
 40
0.5
 40
1.0
 40
1.0
 40
1.0
 40
1.0
 10
87.81873631344256
 20
93.18046546264443
 30
0.0
 10
87.91012742913547
 20
93.00582667502702
 30
0.0
 10
87.98277926286852
 20
92.83222484777144
 30
0.0
 10
88.09027815587667
 20
92.48861142876473
 30
0.0
 10
88.11873631675213
 20
92.32028560223328
 30
0.0
 10
88.11873631675776
 20
92.15555519700072
 30
0.0
  0
LINE
  5
107
330
1F
100
AcDbEntity
  8
0
  6
HIDDEN
 62
     7
370
     0
100
AcDbLine
 10
87.8187363134
 20
96.2114158945
 30
0.0
 11
87.8187363134
 21
93.1804654626
 31
0.0
  0
SPLINE
  5
108
330
1F
100
AcDbEntity
  8
0
  6
HIDDEN
 62
     7
370
     0
100
AcDbSpline
210
0.0
220
0.0
230
1.0
 70
     8
 71
     3
 72
    10
 73
     6
 74
     0
 42
0.00000001
 43
0.00000001
 40
0.0
 40
0.0
 40
0.0
 40
0.0
 40
0.5
 40
0.5
 40
1.0
 40
1.0
 40
1.0
 40
1.0
 10
88.11873631663028
 20
97.57925631124782
 30
0.0
 10
88.11873631663025
 20
97.337272343641
 30
0.0
 10
88.09058628755967
 20
97.10292991467601
 30
0.0
 10
87.98699637341727
 20
96.64755489239832
 30
0.0
 10
87.91036766382577
 20
96.42595032929096
 30
0.0
 10
87.81873631344256
 20
96.21141589449302
 30
0.0
  0
LINE
  5
109
330
1F
100
AcDbEntity
  8
0
  6
HIDDEN
 62
     7
370
     0
100
AcDbLine
 10
88.1187363166
 20
109.4168763085
 30
0.0
 11
88.1187363166
 21
97.5792563112
 31
0.0
  0
SPLINE
  5
10A
330
1F
100
AcDbEntity
  8
0
  6
HIDDEN
 62
     7
370
     0
100
AcDbSpline
210
0.0
220
0.0
230
1.0
 70
     8
 71
     3
 72
     8
 73
     4
 74
     0
 42
0.00000001
 43
0.00000001
 40
0.0
 40
0.0
 40
0.0
 40
0.0
 40
1.0
 40
1.0
 40
1.0
 40
1.0
 10
87.81873631344256
 20
115.419182007959
 30
0.0
 10
87.99976778000146
 20
114.9870745222963
 30
0.0
 10
88.11873631663599
 20
114.5329291161967
 30
0.0
 10
88.11873631663028
 20
114.0452290625026
 30
0.0
  0
LINE
  5
10B
330
1F
100
AcDbEntity
  8
0
  6
HIDDEN
 62
     7
370
     0
100
AcDbLine
 10
87.8187363134
 20
118.4523849939
 30
0.0
 11
87.8187363134
 21
115.419182008
 31
0.0
  0
SPLINE
  5
10C
330
1F
100
AcDbEntity
  8
0
  6
HIDDEN
 62
     7
370
     0
100
AcDbSpline
210
0.0
220
0.0
230
1.0
 70
     8
 71
     3
 72
    10
 73
     6
 74
     0
 42
0.00000001
 43
0.00000001
 40
0.0
 40
0.0
 40
0.0
 40
0.0
 40
0.5
 40
0.5
 40
1.0
 40
1.0
 40
1.0
 40
1.0
 10
88.11873631683576
 20
119.4689301768105
 30
0.0
 10
88.11873631683397
 20
119.3042938302045
 30
0.0
 10
88.09157764607849
 20
119.137138606374
 30
0.0
 10
87.98581265076005
 20
118.7985155985724
 30
0.0
 10
87.90939786246294
 20
118.6262438212813
 30
0.0
 10
87.81873631344259
 20
118.4523849939373
 30
0.0
  0
SPLINE
  5
10D
330
1F
100
AcDbEntity
  8
0
  6
HIDDEN
 62
     7
370
     0
100
AcDbSpline
210
0.0
220
0.0
230
1.0
 70
     8
 71
     3
 72
    18
 73
    14
 74
     0
 42
0.00000001
 43
0.00000001
 40
0.0
 40
0.0
 40
0.0
 40
0.0
 40
0.2500000000000033
 40
0.2500000000000033
 40
0.3750000000000029
 40
0.3750000000000029
 40
0.5000000000000026
 40
0.5000000000000026
 40
0.6250000000000022
 40
0.6250000000000022
 40
0.7500000000000018
 40
0.7500000000000018
 40
1.0
 40
1.0
 40
1.0
 40
1.0
 10
92.91873631344257
 20
122.0997563092948
 30
0.0
 10
92.91873631344255
 20
122.0452817887426
 30
0.0
 10
92.88382562205038
 20
121.9889007293901
 30
0.0
 10
92.78181632071733
 20
121.9048238885366
 30
0.0
 10
92.74017996603922
 20
121.8774901845457
 30
0.0
 10
92.64177417055049
 20
121.8245362689467
 30
0.0
 10
92.5842309588462
 20
121.7986489152295
 30
0.0
 10
92.45693278527324
 20
121.7508713703963
 30
0.0
 10
92.38734548051578
 20
121.7289234522184
 30
0.0
 10
92.23591123536083
 20
121.6894908873057
 30
0.0
 10
92.15322733226687
 20
121.6719346380798
 30
0.0
 10
91.89711587022882
 20
121.6294958726593
 30
0.0
 10
91.70920086634085
 20
121.6137331229223
 30
0.0
 10
91.51873631344257
 20
121.6137331229223
 30
0.0
  0
LINE
  5
10E
330
1F
100
AcDbEntity
  8
0
  6
HIDDEN
 62
     7
370
     0
100
AcDbLine
 10
91.5187363134
 20
121.6137331229
 30
0.0
 11
88.1187363168
 21
121.6137331229
 31
0.0
  0
LINE
  5
10F
330
1F
100
AcDbEntity
  8
0
  6
HIDDEN
 62
     7
370
     0
100
AcDbLine
 10
88.0497673268
 20
90.0107522509
 30
0.0
 11
95.5187363134
 21
90.0107522509
 31
0.0
  0
SPLINE
  5
110
330
1F
100
AcDbEntity
  8
0
  6
HIDDEN
 62
     7
370
     0
100
AcDbSpline
210
0.0
220
0.0
230
1.0
 70
     8
 71
     3
 72
    22
 73
    18
 74
     0
 42
0.00000001
 43
0.00000001
 40
0.0
 40
0.0
 40
0.0
 40
0.0
 40
0.1249999999999998
 40
0.1249999999999998
 40
0.2499999999999995
 40
0.2499999999999995
 40
0.4999999999999992
 40
0.4999999999999992
 40
0.5624999999999993
 40
0.5624999999999993
 40
0.6249999999999994
 40
0.6249999999999994
 40
0.7499999999999996
 40
0.7499999999999996
 40
0.8749999999999998
 40
0.8749999999999998
 40
1.0
 40
1.0
 40
1.0
 40
1.0
 10
88.04976732680049
 20
90.010752250859
 30
0.0
 10
88.03668493407211
 20
90.26585796100667
 30
0.0
 10
88.02346537063228
 20
90.55901622011058
 30
0.0
 10
88.00101819283816
 20
91.22131668573539
 30
0.0
 10
87.9915397258137
 20
91.59159060634677
 30
0.0
 10
87.97234176487714
 20
92.81414740946056
 30
0.0
 10
87.97345553787403
 20
93.75128633559241
 30
0.0
 10
87.99236633082711
 20
95.07115756510741
 30
0.0
 10
87.99699585868612
 20
95.34265947408373
 30
0.0
 10
88.00747707843206
 20
95.90104430888603
 30
0.0
 10
88.0132723397165
 20
96.18816716482563
 30
0.0
 10
88.03158156062142
 20
97.06075641919732
 30
0.0
 10
88.04561649490178
 20
97.66121209555317
 30
0.0
 10
88.07507366703861
 20
98.89868658804924
 30
0.0
 10
88.09062935802017
 20
99.5357027446927
 30
0.0
 10
88.11442390801707
 20
100.8471913423773
 30
0.0
 10
88.12244296016243
 20
101.5233139540378
 30
0.0
 10
88.11873631344255
 20
102.2076090653226
 30
0.0
  0
LINE
  5
111
330
1F
100
AcDbEntity
  8
0
  6
HIDDEN
 62
     7
370
     0
100
AcDbLine
 10
88.1187363168
 20
109.4168763085
 30
0.0
 11
88.1187363168
 21
121.6137331229
 31
0.0
  0
SPLINE
  5
112
330
1F
100
AcDbEntity
  8
0
  6
HIDDEN
 62
     7
370
     0
100
AcDbSpline
210
0.0
220
0.0
230
1.0
 70
     8
 71
     3
 72
    10
 73
     6
 74
     0
 42
0.00000001
 43
0.00000001
 40
0.0
 40
0.0
 40
0.0
 40
0.0
 40
0.5
 40
0.5
 40
1.0
 40
1.0
 40
1.0
 40
1.0
 10
88.11873631344257
 20
102.2076090653075
 30
0.0
 10
88.11873631344238
 20
102.4815242133818
 30
0.0
 10
88.09297708357467
 20
102.7524657921119
 30
0.0
 10
87.98977115084156
 20
103.2881568737148
 30
0.0
 10
87.91243298696631
 20
103.5539036772368
 30
0.0
 10
87.81873631344256
 20
103.8155423846744
 30
0.0
  0
SPLINE
  5
113
330
1F
100
AcDbEntity
  8
0
  6
HIDDEN
 62
     7
370
     0
100
AcDbSpline
210
0.0
220
0.0
230
1.0
 70
     8
 71
     3
 72
    10
 73
     6
 74
     0
 42
0.00000001
 43
0.00000001
 40
0.0
 40
0.0
 40
0.0
 40
0.0
 40
0.5
 40
0.5
 40
1.0
 40
1.0
 40
1.0
 40
1.0
 10
87.81873631344256
 20
107.7993709802552
 30
0.0
 10
87.91196689483358
 20
108.0632647883253
 30
0.0
 10
87.98699650707032
 20
108.3294450989636
 30
0.0
 10
88.09206360624846
 20
108.8677676739217
 30
0.0
 10
88.11873631683466
 20
109.1405157901673
 30
0.0
 10
88.11873631683584
 20
109.4168763084578
 30
0.0
  0
LINE
  5
114
330
1F
100
AcDbEntity
  8
0
  6
HIDDEN
 62
     7
370
     0
100
AcDbLine
 10
87.8187363134
 20
103.8155423847
 30
0.0
 11
87.8187363134
 21
107.7993709803
 31
0.0
  0
LINE
  5
115
330
1F
100
AcDbEntity
  8
0
  6
HIDDEN
 62
     7
370
     0
100
AcDbLine
 10
87.9687363134
 20
87.8222426869
 30
0.0
 11
87.9687363134
 21
84.9423049215
 31
0.0
  0
LINE
  5
116
330
1F
100
AcDbEntity
  8
0
  6
HIDDEN
 62
     7
370
     0
100
AcDbLine
 10
96.9187363134
 20
87.8222426869
 30
0.0
 11
96.9187363134
 21
83.8485051557
 31
0.0
  0
LINE
  5
117
330
1F
100
AcDbEntity
  8
0
  6
HIDDEN
 62
     7
370
     0
100
AcDbLine
 10
87.9687363134
 20
123.8022426869
 30
0.0
 11
87.9687363134
 21
126.6821804523
 31
0.0
  0
LINE
  5
118
330
1F
100
AcDbEntity
  8
0
  6
HIDDEN
 62
     7
370
     0
100
AcDbLine
 10
92.9187363134
 20
123.8022426869
 30
0.0
 11
92.9187363134
 21
127.6563503593
 31
0.0
  0
LINE
  5
119
330
1F
100
AcDbEntity
  8
0
  6
HIDDEN
 62
     7
370
     0
100
AcDbLine
 10
137.5187363134
 20
96.3122426869
 30
0.0
 11
137.5187363134
 21
115.3122426869
 31
0.0
  0
LINE
  5
11A
330
1F
100
AcDbEntity
  8
0
  6
HIDDEN
 62
     7
370
     0
100
AcDbLine
 10
140.5187363134
 20
96.3122426869
 30
0.0
 11
140.5187363134
 21
115.3122426869
 31
0.0
  0
LINE
  5
11B
330
1F
100
AcDbEntity
  8
0
  6
HIDDEN
 62
     7
370
     0
100
AcDbLine
 10
129.1687363134
 20
97.3122426869
 30
0.0
 11
129.1687363134
 21
114.3122426869
 31
0.0
  0
LINE
  5
11C
330
1F
100
AcDbEntity
  8
0
  6
HIDDEN
 62
     7
370
     0
100
AcDbLine
 10
134.9064111158
 20
79.4122426869
 30
0.0
 11
131.6687363134
 21
79.4122426869
 31
0.0
  0
LINE
  5
11D
330
1F
100
AcDbEntity
  8
0
  6
HIDDEN
 62
     7
370
     0
100
AcDbLine
 10
144.6687363134
 20
79.4122426869
 30
0.0
 11
138.5310615111
 21
79.4122426869
 31
0.0
  0
LINE
  5
11E
330
1F
100
AcDbEntity
  8
0
  6
HIDDEN
 62
     7
370
     0
100
AcDbLine
 10
123.6687363134
 20
74.328119704
 30
0.0
 11
123.6687363134
 21
79.4122426869
 31
0.0
  0
LINE
  5
11F
330
1F
100
AcDbEntity
  8
0
  6
HIDDEN
 62
     7
370
     0
100
AcDbLine
 10
131.6687363134
 20
79.4122426869
 30
0.0
 11
123.6687363134
 21
79.4122426869
 31
0.0
  0
LINE
  5
120
330
1F
100
AcDbEntity
  8
0
  6
HIDDEN
 62
     7
370
     0
100
AcDbLine
 10
131.6687363134
 20
132.2122426869
 30
0.0
 11
123.6687363134
 21
132.2122426869
 31
0.0
  0
LINE
  5
121
330
1F
100
AcDbEntity
  8
0
  6
HIDDEN
 62
     7
370
     0
100
AcDbLine
 10
144.6687363134
 20
132.2122426869
 30
0.0
 11
138.2344387818
 21
132.2122426869
 31
0.0
  0
LINE
  5
122
330
1F
100
AcDbEntity
  8
0
  6
HIDDEN
 62
     7
370
     0
100
AcDbLine
 10
135.2030338451
 20
132.2122426869
 30
0.0
 11
131.6687363134
 21
132.2122426869
 31
0.0
  0
SPLINE
  5
123
330
1F
100
AcDbEntity
  8
0
  6
HIDDEN
 62
     7
370
     0
100
AcDbSpline
210
0.0
220
0.0
230
1.0
 70
     8
 71
     3
 72
    11
 73
     7
 74
     0
 42
0.00000001
 43
0.00000001
 40
0.0
 40
0.0
 40
0.0
 40
0.0
 40
0.0008203708524183
 40
0.0008203708524183
 40
0.0008203708524183
 40
0.0016409967870154
 40
0.0016409967870154
 40
0.0016409967870154
 40
0.0016409967870154
 10
87.96873631344256
 20
89.96020993624792
 30
0.0
 10
87.7775780131439
 20
89.9190309076288
 30
0.0
 10
87.58615094307171
 20
89.8802769353988
 30
0.0
 10
87.39450531955109
 20
89.84390917612025
 30
0.0
 10
87.20279991447063
 20
89.80753007235421
 30
0.0
 10
87.01086096241167
 20
89.77353582158666
 30
0.0
 10
86.81873631534087
 20
89.74188769619545
 30
0.0
  0
ELLIPSE
  5
124
330
1F
100
AcDbEntity
  8
0
  6
HIDDEN
 62
     7
370
     0
100
AcDbEllipse
 10
82.5763044448
 20
105.8122426869
 30
0.0
 11
20.19992453366628
 21
-1.421085471520200E-14
 31
0.0
210
0.0
220
0.0
230
1.0
 40
0.8164965809
 41
1.300566354718001
 42
1.359198697209605
  0
LINE
  5
125
330
1F
100
AcDbEntity
  8
0
  6
HIDDEN
 62
     7
370
     0
100
AcDbLine
 10
96.9187363134
 20
87.8222426869
 30
0.0
 11
96.9187363134
 21
89.5247290645
 31
0.0
  0
LINE
  5
126
330
1F
100
AcDbEntity
  8
0
  6
HIDDEN
 62
     7
370
     0
100
AcDbLine
 10
87.9687363134
 20
87.8222426869
 30
0.0
 11
87.9687363134
 21
89.9602099362
 31
0.0
  0
LINE
  5
127
330
1F
100
AcDbEntity
  8
0
  6
HIDDEN
 62
     7
370
     0
100
AcDbLine
 10
88.0497673268
 20
90.0107522509
 30
0.0
 11
87.9687363134
 21
89.9602099362
 31
0.0
  0
LINE
  5
128
330
1F
100
AcDbEntity
  8
0
  6
HIDDEN
 62
     7
370
     0
100
AcDbLine
 10
87.9687363134
 20
123.8022426869
 30
0.0
 11
87.9687363134
 21
121.7068671379
 31
0.0
  0
SPLINE
  5
129
330
1F
100
AcDbEntity
  8
0
  6
HIDDEN
 62
     7
370
     0
100
AcDbSpline
210
0.0
220
0.0
230
1.0
 70
     8
 71
     3
 72
     8
 73
     4
 74
     0
 42
0.00000001
 43
0.00000001
 40
0.0
 40
0.0
 40
0.0
 40
0.0
 40
1.0
 40
1.0
 40
1.0
 40
1.0
 10
87.96873631344256
 20
121.7068671379493
 30
0.0
 10
88.0187418123863
 20
121.6758313637302
 30
0.0
 10
88.0687418830507
 20
121.6447867187026
 30
0.0
 10
88.11873631683582
 20
121.6137331229223
 30
0.0
  0
LINE
  5
12A
330
1F
100
AcDbEntity
  8
0
  6
HIDDEN
 62
     7
370
     0
100
AcDbLine
 10
92.9187363134
 20
123.8022426869
 30
0.0
 11
92.9187363134
 21
122.0997563093
 31
0.0
  0
LINE
  5
12B
330
1F
100
AcDbEntity
  8
0
  6
HIDDEN
 62
     7
370
     0
100
AcDbLine
 10
200.2187363134
 20
100.8122426869
 30
0.0
 11
200.2187363134
 21
110.8122426869
 31
0.0
  0
SPLINE
  5
12C
330
1F
100
AcDbEntity
  8
0
  6
HIDDEN
 62
     7
370
     0
100
AcDbSpline
210
0.0
220
0.0
230
1.0
 70
     8
 71
     3
 72
    22
 73
    18
 74
     0
 42
0.00000001
 43
0.00000001
 40
0.0
 40
0.0
 40
0.0
 40
0.0
 40
0.051286995857031
 40
0.155656426376448
 40
0.2088586429033653
 40
0.2601432036745082
 40
0.3643861688498727
 40
0.4174483086647924
 40
0.4700395706407882
 40
0.5769431835100589
 40
0.6313795770200064
 40
0.6848509439664235
 40
0.738705306027023
 40
0.7937899671105638
 40
0.8493103513462383
 40
0.9013915633377882
 40
1.0
 40
1.0
 40
1.0
 40
1.0
 10
164.2187363134425
 20
110.8955486977462
 30
0.0
 10
164.2592016652536
 20
110.8958402930567
 30
0.0
 10
164.3820143188262
 20
110.8967252870641
 30
0.0
 10
164.5453448411199
 20
110.9049792565181
 30
0.0
 10
164.7029995513463
 20
110.9181164007489
 30
0.0
 10
164.855946404767
 20
110.9343810369992
 30
0.0
 10
165.0006869006998
 20
110.9545610878253
 30
0.0
 10
165.1348068369506
 20
110.9771322211979
 30
0.0
 10
165.2621688472286
 20
111.0009061617417
 30
0.0
 10
165.3764873171439
 20
111.0253087037071
 30
0.0
 10
165.4744906400508
 20
111.0482152631352
 30
0.0
 10
165.5394789671887
 20
111.0642172714712
 30
0.0
 10
165.5953772821527
 20
111.0785811037405
 30
0.0
 10
165.6420436842984
 20
111.091000178455
 30
0.0
 10
165.6773973544747
 20
111.1006640949459
 30
0.0
 10
165.7103945305537
 20
111.1098665420463
 30
0.0
 10
165.7146106403714
 20
111.1110702195976
 30
0.0
 10
165.7173695823533
 20
111.1118578832669
 30
0.0
  0
LINE
  5
12D
330
1F
100
AcDbEntity
  8
0
  6
HIDDEN
 62
     7
370
     0
100
AcDbLine
 10
164.2979680174
 20
110.8964937224
 30
0.0
 11
164.0882178767
 21
110.8977586224
 31
0.0
  0
SPLINE
  5
12E
330
1F
100
AcDbEntity
  8
0
  6
HIDDEN
 62
     7
370
     0
100
AcDbSpline
210
0.0
220
0.0
230
1.0
 70
     8
 71
     3
 72
    22
 73
    18
 74
     0
 42
0.00000001
 43
0.00000001
 40
0.0
 40
0.0
 40
0.0
 40
0.0
 40
0.0185292619282737
 40
0.1225369515972662
 40
0.1755497608391904
 40
0.2262894980307145
 40
0.3294118740604136
 40
0.3818964063556184
 40
0.4341318580642133
 40
0.5402936936287849
 40
0.5943367328052345
 40
0.6478308143221763
 40
0.7017026749392121
 40
0.7567861350072694
 40
0.812298792286851
 40
0.9523061372319328
 40
1.0
 40
1.0
 40
1.0
 40
1.0
 10
162.7198639278407
 20
111.1119236972407
 30
0.0
 10
162.719590450024
 20
111.1120011455095
 30
0.0
 10
162.717781897793
 20
111.1125133232102
 30
0.0
 10
162.7361063061485
 20
111.1073114994762
 30
0.0
 10
162.7737183563113
 20
111.0969125581282
 30
0.0
 10
162.824555101463
 20
111.0831573075393
 30
0.0
 10
162.8934692000309
 20
111.065201906373
 30
0.0
 10
162.9799064111252
 20
111.0441812922607
 30
0.0
 10
163.0786076774345
 20
111.0214186078987
 30
0.0
 10
163.194124553915
 20
110.9971324147038
 30
0.0
 10
163.323995780166
 20
110.9733707013694
 30
0.0
 10
163.4285281550717
 20
110.9562375676229
 30
0.0
 10
163.5394908832234
 20
110.9403136373152
 30
0.0
 10
163.6570435793
 20
110.9260112992857
 30
0.0
 10
163.8427481097972
 20
110.9078107664798
 30
0.0
 10
164.0330680722388
 20
110.8968121133602
 30
0.0
 10
164.181117702321
 20
110.8958046808931
 30
0.0
 10
164.2187363134425
 20
110.8955486977462
 30
0.0
  0
SPLINE
  5
12F
330
1F
100
AcDbEntity
  8
0
  6
HIDDEN
 62
     7
370
     0
100
AcDbSpline
210
0.0
220
0.0
230
1.0
 70
     8
 71
     3
 72
    37
 73
    33
 74
     0
 42
0.00000001
 43
0.00000001
 40
0.0
 40
0.0
 40
0.0
 40
0.0
 40
0.0256675009747429
 40
0.0778979268457164
 40
0.1045211839754693
 40
0.1301876164824335
 40
0.1823614414837862
 40
0.2089213497285822
 40
0.2351875296626879
 40
0.2885778105280722
 40
0.315763082924959
 40
0.3425066318812726
 40
0.3694413187298961
 40
0.3969905064442132
 40
0.4247577465367377
 40
0.4508133863225254
 40
0.5038654447428051
 40
0.5309337138590117
 40
0.5561966351348582
 40
0.6075673959175855
 40
0.633728778690492
 40
0.6593308020249881
 40
0.7113501012091665
 40
0.7378190731164689
 40
0.7643470335866497
 40
0.8182901143037694
 40
0.8457724925798167
 40
0.8724068763365103
 40
0.9266324577484175
 40
0.954301856819046
 40
0.9800818326390673
 40
1.0
 40
1.0
 40
1.0
 40
1.0
 10
165.7187363134425
 20
100.5122426868907
 30
0.0
 10
165.7177460315111
 20
100.5125228828586
 30
0.0
 10
165.7147406392241
 20
100.5133732455423
 30
0.0
 10
165.6866167973535
 20
100.5213092456342
 30
0.0
 10
165.6400676183061
 20
100.5340147611079
 30
0.0
 10
165.580640915299
 20
100.5498131611718
 30
0.0
 10
165.5029255967234
 20
100.5695566417851
 30
0.0
 10
165.4080223159767
 20
100.5918411634347
 30
0.0
 10
165.3012776214936
 20
100.615436060774
 30
0.0
 10
165.1783415433787
 20
100.639884056551
 30
0.0
 10
165.0419005561209
 20
100.6630724711668
 30
0.0
 10
164.933083910725
 20
100.6793818120383
 30
0.0
 10
164.8185099513561
 20
100.694120054327
 30
0.0
 10
164.6978613754294
 20
100.7069029073831
 30
0.0
 10
164.5747120660787
 20
100.7169850029165
 30
0.0
 10
164.4094412060047
 20
100.726524132751
 30
0.0
 10
164.241363139494
 20
100.7301166052813
 30
0.0
 10
164.0751729201974
 20
100.7274063776864
 30
0.0
 10
163.9130643861477
 20
100.7208452920895
 30
0.0
 10
163.7558159940592
 20
100.7088939802245
 30
0.0
 10
163.6053463482838
 20
100.6924579608329
 30
0.0
 10
163.4595796646313
 20
100.6734219812023
 30
0.0
 10
163.3230179182752
 20
100.6512922798145
 30
0.0
 10
163.1980853279538
 20
100.6277396053376
 30
0.0
 10
163.0802696772441
 20
100.6035383893768
 30
0.0
 10
162.9767576289764
 20
100.5797324127865
 30
0.0
 10
162.891296148748
 20
100.5585773018568
 30
0.0
 10
162.8182898024967
 20
100.539732218713
 30
0.0
 10
162.7643190213618
 20
100.5250104545944
 30
0.0
 10
162.733642041214
 20
100.5164526482193
 30
0.0
 10
162.718927943726
 20
100.5122981699523
 30
0.0
 10
162.722172786652
 20
100.5132138785727
 30
0.0
 10
162.7235870962926
 20
100.5136130028321
 30
0.0
  0
LINE
  5
130
330
1F
100
AcDbEntity
  8
0
  6
HIDDEN
 62
     7
370
     0
100
AcDbLine
 10
162.2187363134
 20
100.9122426869
 30
0.0
 11
162.2187363134
 21
110.7122426287
 31
0.0
  0
LINE
  5
131
330
1F
100
AcDbEntity
  8
0
  6
HIDDEN
 62
     7
370
     0
100
AcDbLine
 10
172.7187363134
 20
100.8122426869
 30
0.0
 11
172.7187363134
 21
110.8122426869
 31
0.0
  0
SPLINE
  5
132
330
1F
100
AcDbEntity
  8
0
  6
HIDDEN
 62
     7
370
     0
100
AcDbSpline
210
0.0
220
0.0
230
1.0
 70
     8
 71
     3
 72
    20
 73
    16
 74
     0
 42
0.00000001
 43
0.00000001
 40
0.0
 40
0.0
 40
0.0
 40
0.0
 40
0.1118661302795558
 40
0.1773855366899903
 40
0.2490073263894449
 40
0.3297560342953474
 40
0.3985286552727817
 40
0.499808717659404
 40
0.6137742071640819
 40
0.678940346595062
 40
0.7494670772571127
 40
0.8296132968847548
 40
0.8980571902419693
 40
0.9994679267283042
 40
1.0
 40
1.0
 40
1.0
 40
1.0
 10
113.4673783090132
 20
82.21230191370312
 30
0.0
 10
113.4240824818016
 20
82.22572161979252
 30
0.0
 10
113.3554285154298
 20
82.24700117742937
 30
0.0
 10
112.910391940767
 20
82.35027824144255
 30
0.0
 10
112.383841221289
 20
82.46357987871718
 30
0.0
 10
111.6984139496981
 20
82.58651322137695
 30
0.0
 10
110.8050971296978
 20
82.70854755499124
 30
0.0
 10
109.6917375774674
 20
82.82628392007082
 30
0.0
 10
108.5809633499222
 20
82.8382593676506
 30
0.0
 10
107.6962155459907
 20
82.81120117625004
 30
0.0
 10
107.029017104207
 20
82.7632687606112
 30
0.0
 10
106.487752177409
 20
82.70697668485558
 30
0.0
 10
106.1001434219181
 20
82.66188831439075
 30
0.0
 10
105.9062312641925
 20
82.6230189675213
 30
0.0
 10
105.9694107519529
 20
82.63373883779447
 30
0.0
 10
105.9697405066147
 20
82.63379478834618
 30
0.0
  0
LINE
  5
133
330
1F
100
AcDbEntity
  8
0
  6
HIDDEN
 62
     7
370
     0
100
AcDbLine
 10
106.8787482301
 20
82.7445808308
 30
0.0
 11
107.0625935389
 21
82.7627701729
 31
0.0
  0
SPLINE
  5
134
330
1F
100
AcDbEntity
  8
0
  6
HIDDEN
 62
     7
370
     0
100
AcDbSpline
210
0.0
220
0.0
230
1.0
 70
     8
 71
     3
 72
    27
 73
    23
 74
     0
 42
0.00000001
 43
0.00000001
 40
0.0
 40
0.0
 40
0.0
 40
0.0
 40
0.0008036143549561
 40
0.0456860745775809
 40
0.1022676756510439
 40
0.170545687967071
 40
0.2091373160931531
 40
0.2506645077711876
 40
0.3211102047613862
 40
0.3862038649259416
 40
0.4266829685652542
 40
0.464814177969134
 40
0.5006184538961909
 40
0.5452101673642743
 40
0.6017043591032739
 40
0.6701102558954746
 40
0.7088475418348626
 40
0.7505762397942916
 40
0.8222407435043778
 40
0.8877800935168535
 40
0.9472537807999637
 40
1.0
 40
1.0
 40
1.0
 40
1.0
 10
105.9694007483653
 20
128.9906577003004
 30
0.0
 10
105.9691797907352
 20
128.9907053309532
 30
0.0
 10
105.9566181849051
 20
128.9934131690374
 30
0.0
 10
106.0056963173414
 20
128.9815808150377
 30
0.0
 10
106.1507988675213
 20
128.9581370628462
 30
0.0
 10
106.4238516338857
 20
128.9242327762852
 30
0.0
 10
106.7523780179091
 20
128.8906640013065
 30
0.0
 10
107.1451058083426
 20
128.8524806569988
 30
0.0
 10
107.6948337726555
 20
128.8135119869407
 30
0.0
 10
108.3208564207822
 20
128.7940508818775
 30
0.0
 10
108.8640479307406
 20
128.7918652041467
 30
0.0
 10
109.3091168276882
 20
128.8003800853055
 30
0.0
 10
109.7755646241065
 20
128.8201634822298
 30
0.0
 10
110.3128052733914
 20
128.8643258677744
 30
0.0
 10
110.9610187035049
 20
128.9367414876187
 30
0.0
 10
111.546557336177
 20
129.0176435814734
 30
0.0
 10
112.0275269442099
 20
129.0958095683212
 30
0.0
 10
112.4729418687886
 20
129.1805817143196
 30
0.0
 10
112.9114414128835
 20
129.2743647123927
 30
0.0
 10
113.2504673075539
 20
129.3522686395069
 30
0.0
 10
113.4378127475265
 20
129.4024615082436
 30
0.0
 10
113.4583027691175
 20
129.4091280876823
 30
0.0
 10
113.4679336020429
 20
129.4122615501081
 30
0.0
  0
LINE
  5
135
330
1F
100
AcDbEntity
  8
0
  6
HIDDEN
 62
     7
370
     0
100
AcDbLine
 10
161.4187363134
 20
102.6122426869
 30
0.0
 11
161.4187363134
 21
109.0122426869
 31
0.0
  0
LINE
  5
136
330
1F
100
AcDbEntity
  8
0
  6
HIDDEN
 62
     7
370
     0
100
AcDbLine
 10
158.1687363134
 20
91.3895929561
 30
0.0
 11
153.1687363134
 21
91.3895929561
 31
0.0
  0
LINE
  5
137
330
1F
100
AcDbEntity
  8
0
  6
HIDDEN
 62
     7
370
     0
100
AcDbLine
 10
155.6687363134
 20
120.2348924177
 30
0.0
 11
158.1687363134
 21
120.2348924177
 31
0.0
  0
LINE
  5
138
330
1F
100
AcDbEntity
  8
0
  6
HIDDEN
 62
     7
370
     0
100
AcDbLine
 10
153.1687363134
 20
120.2348924177
 30
0.0
 11
155.6687363134
 21
120.2348924177
 31
0.0
  0
LINE
  5
139
330
1F
100
AcDbEntity
  8
0
  6
HIDDEN
 62
     7
370
     0
100
AcDbLine
 10
155.6687363134
 20
111.8122426869
 30
0.0
 11
158.1687363134
 21
111.8122426869
 31
0.0
  0
LINE
  5
13A
330
1F
100
AcDbEntity
  8
0
  6
HIDDEN
 62
     7
370
     0
100
AcDbLine
 10
153.1687363134
 20
111.8122426869
 30
0.0
 11
155.6687363134
 21
111.8122426869
 31
0.0
  0
LINE
  5
13B
330
1F
100
AcDbEntity
  8
0
  6
HIDDEN
 62
     7
370
     0
100
AcDbLine
 10
158.1687363134
 20
99.8122426869
 30
0.0
 11
153.1687363134
 21
99.8122426869
 31
0.0
  0
SPLINE
  5
13C
330
1F
100
AcDbEntity
  8
0
  6
HIDDEN
 62
     7
370
     0
100
AcDbSpline
210
0.0
220
0.0
230
1.0
 70
     8
 71
     3
 72
    30
 73
    26
 74
     0
 42
0.00000001
 43
0.00000001
 40
0.0
 40
0.0
 40
0.0
 40
0.0
 40
0.0412274297564295
 40
0.0838627324950376
 40
0.1250516510534611
 40
0.167247327986198
 40
0.2244849111414907
 40
0.283361199704747
 40
0.3419130967478414
 40
0.4019328869320852
 40
0.434645318231787
 40
0.4680030772970315
 40
0.5007963769266184
 40
0.5349012334331563
 40
0.5631174209943229
 40
0.5919349488450885
 40
0.6414698556812086
 40
0.6923287517706367
 40
0.7450260126139316
 40
0.7988519530009861
 40
0.8464596455547787
 40
0.8953104661842542
 40
0.9429925514063198
 40
0.9925828888811898
 40
1.0
 40
1.0
 40
1.0
 40
1.0
 10
165.7187363134425
 20
114.0543023049283
 30
0.0
 10
165.7167946426025
 20
114.0567070414388
 30
0.0
 10
165.7128449949234
 20
114.06159863366
 30
0.0
 10
165.6817524907543
 20
114.1003197234764
 30
0.0
 10
165.6347337029597
 20
114.1596216433026
 30
0.0
 10
165.5665089913518
 20
114.2473253306503
 30
0.0
 10
165.4744624818368
 20
114.3695617022082
 30
0.0
 10
165.3618334258225
 20
114.5287845718145
 30
0.0
 10
165.2451208426946
 20
114.7122390855637
 30
0.0
 10
165.1529426251869
 20
114.8876656551759
 30
0.0
 10
165.0919267419231
 20
115.0471733238689
 30
0.0
 10
165.0580759663775
 20
115.179753008236
 30
0.0
 10
165.0439411534775
 20
115.3197235581905
 30
0.0
 10
165.0534772237502
 20
115.4531687058846
 30
0.0
 10
165.0812994372859
 20
115.5765091561494
 30
0.0
 10
165.1293124429577
 20
115.7136186297436
 30
0.0
 10
165.2053588463855
 20
115.8669851884314
 30
0.0
 10
165.3067818559735
 20
116.0299739348116
 30
0.0
 10
165.4129058670148
 20
116.17928654742
 30
0.0
 10
165.5111612160374
 20
116.3065167508092
 30
0.0
 10
165.5951286331875
 20
116.4100521040632
 30
0.0
 10
165.6604876343967
 20
116.4881294638224
 30
0.0
 10
165.7032969127197
 20
116.5383153207496
 30
0.0
 10
165.7211820692256
 20
116.5590745179502
 30
0.0
 10
165.7177416607759
 20
116.555074828075
 30
0.0
 10
165.7172940369584
 20
116.5545544374071
 30
0.0
  0
SPLINE
  5
13D
330
1F
100
AcDbEntity
  8
0
  6
HIDDEN
 62
     7
370
     0
100
AcDbSpline
210
0.0
220
0.0
230
1.0
 70
     8
 71
     3
 72
    10
 73
     6
 74
     0
 42
0.00000001
 43
0.00000001
 40
0.0
 40
0.0
 40
0.0
 40
0.0
 40
0.3423669106478215
 40
0.8122407951438924
 40
1.0
 40
1.0
 40
1.0
 40
1.0
 10
162.7218310961971
 20
116.5487407659915
 30
0.0
 10
162.7223916531287
 20
116.5488872239387
 30
0.0
 10
162.723721534007
 20
116.549234684852
 30
0.0
 10
162.7556182833974
 20
116.558640477597
 30
0.0
 10
162.7868354284366
 20
116.5732815019505
 30
0.0
 10
162.795748158689
 20
116.577461624781
 30
0.0
  0
SPLINE
  5
13E
330
1F
100
AcDbEntity
  8
0
  6
HIDDEN
 62
     7
370
     0
100
AcDbSpline
210
0.0
220
0.0
230
1.0
 70
     8
 71
     3
 72
    27
 73
    23
 74
     0
 42
0.00000001
 43
0.00000001
 40
0.0
 40
0.0
 40
0.0
 40
0.0
 40
0.0467304405877567
 40
0.0910017877376079
 40
0.1364022337818721
 40
0.1840036553763355
 40
0.23258895064062
 40
0.2894125903177626
 40
0.3473775030616084
 40
0.4040360853297376
 40
0.4620065660414993
 40
0.4970481409513195
 40
0.5329040323598563
 40
0.5680166330999106
 40
0.6044030089243966
 40
0.6462246038275918
 40
0.6892124385364916
 40
0.7568103969945023
 40
0.8262506629204488
 40
0.8963429571709812
 40
0.9687562198095296
 40
1.0
 40
1.0
 40
1.0
 40
1.0
 10
162.719203067088
 20
114.1727156096697
 30
0.0
 10
162.7209344545989
 20
114.1747230611039
 30
0.0
 10
162.7243061189096
 20
114.1786323259646
 30
0.0
 10
162.7535444624357
 20
114.2127451171609
 30
0.0
 10
162.7974907656509
 20
114.2646443738364
 30
0.0
 10
162.8575263691964
 20
114.3369135174744
 30
0.0
 10
162.9344636221316
 20
114.4323328005589
 30
0.0
 10
163.0265102244662
 20
114.5519288187534
 30
0.0
 10
163.1284109707989
 20
114.6952123225862
 30
0.0
 10
163.2294133021481
 20
114.8566580699707
 30
0.0
 10
163.307653587056
 20
115.0128850350945
 30
0.0
 10
163.3587715945463
 20
115.1592548132163
 30
0.0
 10
163.3856569890913
 20
115.2865423365406
 30
0.0
 10
163.3928386970186
 20
115.4194080190579
 30
0.0
 10
163.3778354084679
 20
115.5587782139172
 30
0.0
 10
163.3395048095374
 20
115.7015980196734
 30
0.0
 10
163.2710054451395
 20
115.8694157451263
 30
0.0
 10
163.1721675228408
 20
116.0501345091294
 30
0.0
 10
163.0514667456201
 20
116.2351736119086
 30
0.0
 10
162.9330618144932
 20
116.3995544436477
 30
0.0
 10
162.8472914333836
 20
116.5117386750634
 30
0.0
 10
162.8076858675095
 20
116.5622398244356
 30
0.0
 10
162.795748158689
 20
116.5774616247811
 30
0.0
  0
LINE
  5
13F
330
1F
100
AcDbEntity
  8
0
  6
HIDDEN
 62
     7
370
     0
100
AcDbLine
 10
165.7187363134
 20
118.3122426869
 30
0.0
 11
162.7187363134
 21
118.3122426869
 31
0.0
  0
LWPOLYLINE
  5
140
330
1F
100
AcDbEntity
  8
0
  6
HIDDEN
 62
     7
370
     0
100
AcDbPolyline
 90
       32
 70
   128
 43
0.0
 10
165.717294037
 20
95.0699309364
 10
165.7122779921
 20
95.0757637819
 10
165.6863192489
 20
95.1061020492
 10
165.6453663854
 20
95.1545037617
 10
165.5896147888
 20
95.2216036139
 10
165.5456407822
 20
95.2756765617
 10
165.4972279713
 20
95.3366044098
 10
165.4445157221
 20
95.4049549298
 10
165.3891773299
 20
95.4795383022
 10
165.3335842029
 20
95.5582688355
 10
165.2776628699
 20
95.642726334
 10
165.2221220605
 20
95.7342193359
 10
165.1694242024
 20
95.8321885853
 10
165.1146933117
 20
95.9557551684
 10
165.0724008448
 20
96.0905832879
 10
165.0523235263
 20
96.207133998
 10
165.0486989616
 20
96.3294996503
 10
165.0620660018
 20
96.4475009287
 10
165.0906719257
 20
96.5645123658
 10
165.1211925555
 20
96.6522844791
 10
165.1572387517
 20
96.7371405096
 10
165.2413863956
 20
96.8995180156
 10
165.3033583518
 20
97.0026552587
 10
165.36671957
 20
97.0999560677
 10
165.4306246694
 20
97.1924207545
 10
165.4925184331
 20
97.2780413471
 10
165.574529336
 20
97.3870754332
 10
165.6441360846
 20
97.4766063472
 10
165.6856887748
 20
97.5289982993
 10
165.7116466418
 20
97.561381431
 10
165.7187363134
 20
97.5701830689
 10
165.7187363134
 20
97.5701830689
  0
LINE
  5
141
330
1F
100
AcDbEntity
  8
0
  6
HIDDEN
 62
     7
370
     0
100
AcDbLine
 10
164.2187363134
 20
93.8122426869
 30
0.0
 11
165.7187363134
 21
93.8122426869
 31
0.0
  0
LINE
  5
142
330
1F
100
AcDbEntity
  8
0
  6
HIDDEN
 62
     7
370
     0
100
AcDbLine
 10
162.7187363134
 20
93.8122426869
 30
0.0
 11
164.2187363134
 21
93.8122426869
 31
0.0
  0
SPLINE
  5
143
330
1F
100
AcDbEntity
  8
0
  6
HIDDEN
 62
     7
370
     0
100
AcDbSpline
210
0.0
220
0.0
230
1.0
 70
     8
 71
     3
 72
    12
 73
     8
 74
     0
 42
0.00000001
 43
0.00000001
 40
0.0
 40
0.0
 40
0.0
 40
0.0
 40
0.2173662585716885
 40
0.4362963003689749
 40
0.6595403743400088
 40
0.8841146563735025
 40
1.0
 40
1.0
 40
1.0
 40
1.0
 10
162.795748158689
 20
95.04702374900023
 30
0.0
 10
162.7854217530978
 20
95.05183527587202
 30
0.0
 10
162.7646946513611
 20
95.06149294485468
 30
0.0
 10
162.7421112251099
 20
95.06958015550676
 30
0.0
 10
162.7266929256972
 20
95.07444787109313
 30
0.0
 10
162.719002998211
 20
95.07654473432424
 30
0.0
 10
162.7195640933843
 20
95.07639180075832
 30
0.0
 10
162.7197550784588
 20
95.07633974536759
 30
0.0
  0
SPLINE
  5
144
330
1F
100
AcDbEntity
  8
0
  6
HIDDEN
 62
     7
370
     0
100
AcDbSpline
210
0.0
220
0.0
230
1.0
 70
     8
 71
     3
 72
    38
 73
    34
 74
     0
 42
0.00000001
 43
0.00000001
 40
0.0
 40
0.0
 40
0.0
 40
0.0
 40
0.0306210495387587
 40
0.0931401330231964
 40
0.1250490159992572
 40
0.1556539404364245
 40
0.2176146530578373
 40
0.2490029534854323
 40
0.2746933132771129
 40
0.3266267211843587
 40
0.3529740529168277
 40
0.370265645702908
 40
0.4053104489751501
 40
0.4231396800474979
 40
0.4404398328326796
 40
0.4757601752300865
 40
0.4938183451648639
 40
0.5152289497050967
 40
0.5588089774568415
 40
0.5809508812023841
 40
0.6141667193863214
 40
0.6476296377380532
 40
0.681784918270536
 40
0.7161654813265734
 40
0.7500374332551623
 40
0.7841625716417489
 40
0.8191896769377024
 40
0.8545857299841177
 40
0.8781699430828831
 40
0.9260696902460758
 40
0.9504658492787155
 40
0.9740557625385902
 40
1.0
 40
1.0
 40
1.0
 40
1.0
 10
162.795748158689
 20
95.0470237490003
 30
0.0
 10
162.8074349576586
 20
95.06192400504139
 30
0.0
 10
162.8429827271521
 20
95.10724615600128
 30
0.0
 10
162.9035415474477
 20
95.18629279519683
 30
0.0
 10
162.9697941930299
 20
95.27612344770037
 30
0.0
 10
163.0390261487608
 20
95.37299592224362
 30
0.0
 10
163.110926395199
 20
95.4794037866645
 30
0.0
 10
163.178926644954
 20
95.59038730921871
 30
0.0
 10
163.2392537172933
 20
95.69708885300489
 30
0.0
 10
163.2927432048177
 20
95.80581300615711
 30
0.0
 10
163.3334320114183
 20
95.91239348433928
 30
0.0
 10
163.3615462994463
 20
96.00312905469174
 30
0.0
 10
163.3797329665564
 20
96.08728635270825
 30
0.0
 10
163.3886344175242
 20
96.1732857160997
 30
0.0
 10
163.3909451379025
 20
96.26023373186163
 30
0.0
 10
163.382853513184
 20
96.3474695941229
 30
0.0
 10
163.3642835175389
 20
96.4370196400626
 30
0.0
 10
163.3365193268968
 20
96.5338238442128
 30
0.0
 10
163.2972719498398
 20
96.63010491053289
 30
0.0
 10
163.2460908628232
 20
96.73274838607124
 30
0.0
 10
163.1964623545221
 20
96.82026291048936
 30
0.0
 10
163.1375177883823
 20
96.91347895166095
 30
0.0
 10
163.0770535410448
 20
97.00171498450145
 30
0.0
 10
163.0170673971064
 20
97.08411607506224
 30
0.0
 10
162.9591864825931
 20
97.16008563713292
 30
0.0
 10
162.9042987162273
 20
97.22965294012177
 30
0.0
 10
162.853370792561
 20
97.29245289465699
 30
0.0
 10
162.813162245821
 20
97.34098737043092
 30
0.0
 10
162.7740351957339
 20
97.38760823919438
 30
0.0
 10
162.7466492797289
 20
97.41977753202521
 30
0.0
 10
162.729380470147
 20
97.43993561319992
 30
0.0
 10
162.7198253302314
 20
97.45104892708048
 30
0.0
 10
162.7208337388056
 20
97.44987590402269
 30
0.0
 10
162.7213619075766
 20
97.4492615160032
 30
0.0
  0
LINE
  5
145
330
1F
100
AcDbEntity
  8
0
  6
HIDDEN
 62
     7
370
     0
100
AcDbLine
 10
162.7012710579
 20
114.1728588377
 30
0.0
 11
162.7957481587
 21
116.5774616248
 31
0.0
  0
LINE
  5
146
330
1F
100
AcDbEntity
  8
0
  6
HIDDEN
 62
     7
370
     0
100
AcDbLine
 10
162.7012710579
 20
97.4516265361
 30
0.0
 11
162.7957481587
 21
95.047023749
 31
0.0
  0
SPLINE
  5
147
330
1F
100
AcDbEntity
  8
0
  6
HIDDEN
 62
     7
370
     0
100
AcDbSpline
210
0.0
220
0.0
230
1.0
 70
     8
 71
     3
 72
     8
 73
     4
 74
     0
 42
0.00000001
 43
0.00000001
 40
0.0
 40
0.0
 40
0.0
 40
0.0
 40
0.000159097695343
 40
0.000159097695343
 40
0.000159097695343
 40
0.000159097695343
 10
88.10390432266058
 20
90.010752250859
 30
0.0
 10
88.05885285215624
 20
89.98277336653523
 30
0.0
 10
88.01379681374144
 20
89.95480183616014
 30
0.0
 10
87.96873631344256
 20
89.92683749680764
 30
0.0
  0
SPLINE
  5
148
330
1F
100
AcDbEntity
  8
0
  6
HIDDEN
 62
     7
370
     0
100
AcDbSpline
210
0.0
220
0.0
230
1.0
 70
     8
 71
     3
 72
    11
 73
     7
 74
     0
 42
0.00000001
 43
0.00000001
 40
0.0
 40
0.0
 40
0.0
 40
0.0
 40
0.0008212909311456
 40
0.0008212909311456
 40
0.0008212909311456
 40
0.001642825724306
 40
0.001642825724306
 40
0.001642825724306
 40
0.001642825724306
 10
87.96873631344256
 20
89.92683749680764
 30
0.0
 10
87.77759129196039
 20
89.88355130795509
 30
0.0
 10
87.5861729562839
 20
89.8426147983178
 30
0.0
 10
87.39452688162278
 20
89.80401302693123
 30
0.0
 10
87.20282380008116
 20
89.76539977309413
 30
0.0
 10
87.01087867679566
 20
89.72911956380813
 30
0.0
 10
86.81873631344247
 20
89.69515265745662
 30
0.0
  0
LINE
  5
149
330
1F
100
AcDbEntity
  8
0
  6
HIDDEN
 62
     7
370
     0
100
AcDbLine
 10
134.8087363134
 20
125.9974506369
 30
0.0
 11
134.8087363134
 21
125.6622426869
 31
0.0
  0
LINE
  5
14A
330
1F
100
AcDbEntity
  8
0
  6
HIDDEN
 62
     7
370
     0
100
AcDbLine
 10
138.6287363134
 20
125.9974506369
 30
0.0
 11
138.6287363134
 21
125.6622426869
 31
0.0
  0
LINE
  5
14B
330
1F
100
AcDbEntity
  8
0
  6
HIDDEN
 62
     7
370
     0
100
AcDbLine
 10
140.1106691449
 20
130.2709323493
 30
0.0
 11
140.1106691449
 21
125.6622426869
 31
0.0
  0
SPLINE
  5
14C
330
1F
100
AcDbEntity
  8
0
  6
HIDDEN
 62
     7
370
     0
100
AcDbSpline
210
0.0
220
0.0
230
1.0
 70
     8
 71
     3
 72
    11
 73
     7
 74
     0
 42
0.00000001
 43
0.00000001
 40
0.0
 40
0.0
 40
0.0
 40
0.0
 40
0.0005781862223978
 40
0.0005781862223978
 40
0.0005781862223978
 40
0.0011563724723928
 40
0.0011563724723928
 40
0.0011563724723928
 40
0.0011563724723928
 10
87.81873631344256
 20
118.4523849939374
 30
0.0
 10
87.65207575916695
 20
118.516914505351
 30
0.0
 10
87.48541246226048
 20
118.5814172091948
 30
0.0
 10
87.31874587843025
 20
118.6459036576284
 30
0.0
 10
87.15207928617114
 20
118.7103901093234
 30
0.0
 10
86.98540942054525
 20
118.7748601180515
 30
0.0
 10
86.81873631344251
 20
118.8393158847841
 30
0.0
  0
SPLINE
  5
14D
330
1F
100
AcDbEntity
  8
0
  6
HIDDEN
 62
     7
370
     0
100
AcDbSpline
210
0.0
220
0.0
230
1.0
 70
     8
 71
     3
 72
    11
 73
     7
 74
     0
 42
0.00000001
 43
0.00000001
 40
0.0
 40
0.0
 40
0.0
 40
0.0
 40
0.0005778746105108
 40
0.0005778746105108
 40
0.0005778746105108
 40
0.0011557494857226
 40
0.0011557494857226
 40
0.0011557494857226
 40
0.0011557494857226
 10
86.81873631344253
 20
92.78502083140074
 30
0.0
 10
86.98540318985587
 20
92.85083295809461
 30
0.0
 10
87.15206990941732
 20
92.91669143823225
 30
0.0
 10
87.31873655746597
 20
92.98259901116288
 30
0.0
 10
87.48540328198463
 20
93.04850661433322
 30
0.0
 10
87.65206997640522
 20
93.11446372272174
 30
0.0
 10
87.81873631344256
 20
93.18046546264443
 30
0.0
  0
SPLINE
  5
14E
330
1F
100
AcDbEntity
  8
0
  6
HIDDEN
 62
     7
370
     0
100
AcDbSpline
210
0.0
220
0.0
230
1.0
 70
     8
 71
     3
 72
    11
 73
     7
 74
     0
 42
0.00000001
 43
0.00000001
 40
0.0000000000000006
 40
0.0000000000000006
 40
0.0000000000000006
 40
0.0000000000000006
 40
0.0005780486062768
 40
0.0005780486062768
 40
0.0005780486062768
 40
0.0011560973514127
 40
0.0011560973514127
 40
0.0011560973514127
 40
0.0011560973514127
 10
86.81873631344253
 20
115.7930571885824
 30
0.0
 10
86.98540616948745
 20
115.7306853270679
 30
0.0
 10
87.15207387357171
 20
115.6683314667702
 30
0.0
 10
87.31874017802535
 20
115.6060119065841
 30
0.0
 10
87.48540651871912
 20
115.5436923328472
 30
0.0
 10
87.65207147534788
 20
115.4814071285276
 30
0.0
 10
87.81873631344256
 20
115.419182007959
 30
0.0
  0
SPLINE
  5
14F
330
1F
100
AcDbEntity
  8
0
  6
HIDDEN
 62
     7
370
     0
100
AcDbSpline
210
0.0
220
0.0
230
1.0
 70
     8
 71
     3
 72
    11
 73
     7
 74
     0
 42
0.00000001
 43
0.00000001
 40
0.0
 40
0.0
 40
0.0
 40
0.0
 40
0.0005782401583533
 40
0.0005782401583533
 40
0.0005782401583533
 40
0.0011564805960993
 40
0.0011564805960993
 40
0.0011564805960993
 40
0.0011564805960993
 10
87.81873631344256
 20
96.211415894493
 30
0.0
 10
87.65208536309366
 20
96.14799043643221
 30
0.0
 10
87.48542577051101
 20
96.08463491277693
 30
0.0
 10
87.31875871808245
 20
96.02133732842698
 30
0.0
 10
87.15209158151863
 20
95.95803971212372
 30
0.0
 10
86.98541697407258
 20
95.89479991718301
 30
0.0
 10
86.8187363134425
 20
95.83159991054417
 30
0.0
  0
CIRCLE
  5
150
330
1F
100
AcDbEntity
  8
0
  6
HIDDEN
 62
     7
370
     0
100
AcDbCircle
 10
125.7187363134
 20
105.8122426869
 30
0.0
 40
5.0
  0
LINE
  5
151
330
1F
100
AcDbEntity
  8
0
  6
HIDDEN
 62
     7
370
     0
100
AcDbLine
 10
203.5863592798
 20
113.8174437947
 30
0.0
 11
203.5274695562
 21
112.3186002403
 31
0.0
  0
LINE
  5
152
330
1F
100
AcDbEntity
  8
0
  6
HIDDEN
 62
     7
370
     0
100
AcDbLine
 10
203.6452490035
 20
115.3162873491
 30
0.0
 11
203.5863592798
 21
113.8174437947
 31
0.0
  0
LINE
  5
153
330
1F
100
AcDbEntity
  8
0
  6
HIDDEN
 62
     7
370
     0
100
AcDbLine
 10
198.2524214759
 20
114.0270147818
 30
0.0
 11
198.1935317523
 21
112.5281712274
 31
0.0
  0
LINE
  5
154
330
1F
100
AcDbEntity
  8
0
  6
HIDDEN
 62
     7
370
     0
100
AcDbLine
 10
198.3113111996
 20
115.5258583362
 30
0.0
 11
198.2524214759
 21
114.0270147818
 31
0.0
  0
LINE
  5
155
330
1F
100
AcDbEntity
  8
0
  6
HIDDEN
 62
     7
370
     0
100
AcDbLine
 10
203.7187363134
 20
113.0616640179
 30
0.0
 11
203.7003038299
 21
112.5925259854
 31
0.0
  0
LINE
  5
156
330
1F
100
AcDbEntity
  8
0
  6
HIDDEN
 62
     7
370
     0
100
AcDbLine
 10
197.7528069578
 20
114.0466446897
 30
0.0
 11
197.7135471421
 21
113.0474156534
 31
0.0
  0
LINE
  5
157
330
1F
100
AcDbEntity
  8
0
  6
HIDDEN
 62
     7
370
     0
100
AcDbLine
 10
197.7920667736
 20
115.0458737259
 30
0.0
 11
197.7528069578
 21
114.0466446897
 31
0.0
  0
LINE
  5
158
330
1F
100
AcDbEntity
  8
0
  6
HIDDEN
 62
     7
370
     0
100
AcDbLine
 10
201.7497231028
 20
113.8896054266
 30
0.0
 11
203.7481811753
 21
113.8110857951
 31
0.0
  0
LINE
  5
159
330
1F
100
AcDbEntity
  8
0
  6
HIDDEN
 62
     7
370
     0
100
AcDbLine
 10
201.720278241
 20
113.1401836495
 30
0.0
 11
201.7497231028
 21
113.8896054266
 31
0.0
  0
LINE
  5
15A
330
1F
100
AcDbEntity
  8
0
  6
HIDDEN
 62
     7
370
     0
100
AcDbLine
 10
201.7791679646
 20
114.6390272038
 30
0.0
 11
201.7497231028
 21
113.8896054266
 31
0.0
  0
LINE
  5
15B
330
1F
100
AcDbEntity
  8
0
  6
HIDDEN
 62
     7
370
     0
100
AcDbLine
 10
201.720278241
 20
113.1401836495
 30
0.0
 11
203.7187363134
 21
113.0616640179
 31
0.0
  0
LINE
  5
15C
330
1F
100
AcDbEntity
  8
0
  6
HIDDEN
 62
     7
370
     0
100
AcDbLine
 10
201.7791679646
 20
114.6390272038
 30
0.0
 11
203.7776260371
 21
114.5605075723
 31
0.0
  0
LINE
  5
15D
330
1F
100
AcDbEntity
  8
0
  6
HIDDEN
 62
     7
370
     0
100
AcDbLine
 10
203.5353592831
 20
99.1050781734
 30
0.0
 11
203.6452490035
 21
96.3081980247
 31
0.0
  0
LINE
  5
15E
330
1F
100
AcDbEntity
  8
0
  6
HIDDEN
 62
     7
370
     0
100
AcDbLine
 10
203.5274695562
 20
99.3058851334
 30
0.0
 11
203.5353592831
 21
99.1050781734
 31
0.0
  0
LINE
  5
15F
330
1F
100
AcDbEntity
  8
0
  6
HIDDEN
 62
     7
370
     0
100
AcDbLine
 10
198.2014214792
 20
98.8955071864
 30
0.0
 11
198.3113111996
 21
96.0986270376
 31
0.0
  0
LINE
  5
160
330
1F
100
AcDbEntity
  8
0
  6
HIDDEN
 62
     7
370
     0
100
AcDbLine
 10
198.1935317523
 20
99.0963141463
 30
0.0
 11
198.2014214792
 21
98.8955071864
 31
0.0
  0
LINE
  5
161
330
1F
100
AcDbEntity
  8
0
  6
HIDDEN
 62
     7
370
     0
100
AcDbLine
 10
203.706718178
 20
98.8687033299
 30
0.0
 11
203.7187363134
 21
98.5628213558
 31
0.0
  0
LINE
  5
162
330
1F
100
AcDbEntity
  8
0
  6
HIDDEN
 62
     7
370
     0
100
AcDbLine
 10
203.7003038299
 20
99.0319593884
 30
0.0
 11
203.706718178
 21
98.8687033299
 31
0.0
  0
LINE
  5
163
330
1F
100
AcDbEntity
  8
0
  6
HIDDEN
 62
     7
370
     0
100
AcDbLine
 10
197.71880696
 20
98.4431984137
 30
0.0
 11
197.7920667736
 21
96.5786116479
 31
0.0
  0
LINE
  5
164
330
1F
100
AcDbEntity
  8
0
  6
HIDDEN
 62
     7
370
     0
100
AcDbLine
 10
197.7135471421
 20
98.5770697203
 30
0.0
 11
197.71880696
 21
98.4431984137
 31
0.0
  0
LINE
  5
165
330
1F
100
AcDbEntity
  8
0
  6
HIDDEN
 62
     7
370
     0
100
AcDbLine
 10
201.7497231028
 20
97.7348799471
 30
0.0
 11
201.720278241
 21
98.4843017243
 31
0.0
  0
LINE
  5
166
330
1F
100
AcDbEntity
  8
0
  6
HIDDEN
 62
     7
370
     0
100
AcDbLine
 10
201.7497231028
 20
97.7348799471
 30
0.0
 11
201.7791679646
 21
96.98545817
 31
0.0
  0
LINE
  5
167
330
1F
100
AcDbEntity
  8
0
  6
HIDDEN
 62
     7
370
     0
100
AcDbLine
 10
201.7497231028
 20
97.7348799471
 30
0.0
 11
203.7481811753
 21
97.8133995787
 31
0.0
  0
LINE
  5
168
330
1F
100
AcDbEntity
  8
0
  6
HIDDEN
 62
     7
370
     0
100
AcDbLine
 10
201.7791679646
 20
96.98545817
 30
0.0
 11
203.7776260371
 21
97.0639778015
 31
0.0
  0
LINE
  5
169
330
1F
100
AcDbEntity
  8
0
  6
HIDDEN
 62
     7
370
     0
100
AcDbLine
 10
201.720278241
 20
98.4843017243
 30
0.0
 11
203.7187363134
 21
98.5628213558
 31
0.0
  0
LINE
  5
16A
330
1F
100
AcDbEntity
  8
0
  6
HIDDEN
 62
     7
370
     0
100
AcDbLine
 10
146.2187363134
 20
101.8122426869
 30
0.0
 11
161.7187363134
 21
101.8122426869
 31
0.0
  0
LINE
  5
16B
330
1F
100
AcDbEntity
  8
0
  6
HIDDEN
 62
     7
370
     0
100
AcDbLine
 10
161.7187363134
 20
109.8122426869
 30
0.0
 11
146.2187363134
 21
109.8122426869
 31
0.0
  0
LINE
  5
16C
330
1F
100
AcDbEntity
  8
0
  6
HIDDEN
 62
     7
370
     0
100
AcDbLine
 10
161.7187363134
 20
101.8122426869
 30
0.0
 11
162.2187363134
 21
102.3122426869
 31
0.0
  0
LINE
  5
16D
330
1F
100
AcDbEntity
  8
0
  6
HIDDEN
 62
     7
370
     0
100
AcDbLine
 10
162.2187363134
 20
109.3122426869
 30
0.0
 11
161.7187363134
 21
109.8122426869
 31
0.0
  0
LINE
  5
16E
330
1F
100
AcDbEntity
  8
0
  6
HIDDEN
 62
     7
370
     0
100
AcDbLine
 10
146.2187363134
 20
109.8122426869
 30
0.0
 11
145.7187363134
 21
109.3122426869
 31
0.0
  0
LINE
  5
16F
330
1F
100
AcDbEntity
  8
0
  6
HIDDEN
 62
     7
370
     0
100
AcDbLine
 10
145.7187363134
 20
102.3122426869
 30
0.0
 11
146.2187363134
 21
101.8122426869
 31
0.0
  0
LINE
  5
170
330
1F
100
AcDbEntity
  8
0
  6
HIDDEN
 62
     7
370
     0
100
AcDbLine
 10
162.2187363134
 20
102.3122426869
 30
0.0
 11
165.7187363134
 21
102.3122426869
 31
0.0
  0
LINE
  5
171
330
1F
100
AcDbEntity
  8
0
  6
HIDDEN
 62
     7
370
     0
100
AcDbLine
 10
165.7187363134
 20
109.3122426869
 30
0.0
 11
162.2187363134
 21
109.3122426869
 31
0.0
  0
LINE
  5
172
330
1F
100
AcDbEntity
  8
0
  6
HIDDEN
 62
     7
370
     0
100
AcDbLine
 10
150.7187363134
 20
103.8122426869
 30
0.0
 11
160.7187363134
 21
103.8122426869
 31
0.0
  0
LINE
  5
173
330
1F
100
AcDbEntity
  8
0
  6
HIDDEN
 62
     7
370
     0
100
AcDbLine
 10
160.7187363134
 20
107.8122426869
 30
0.0
 11
150.7187363134
 21
107.8122426869
 31
0.0
  0
LINE
  5
174
330
1F
100
AcDbEntity
  8
0
  6
HIDDEN
 62
     7
370
     0
100
AcDbLine
 10
122.7187363134
 20
120.1129077909
 30
0.0
 11
122.7187363134
 21
118.2061833298
 31
0.0
  0
LINE
  5
175
330
1F
100
AcDbEntity
  8
0
  6
HIDDEN
 62
     7
370
     0
100
AcDbLine
 10
130.7187363134
 20
118.2061833298
 30
0.0
 11
130.7187363134
 21
120.112187147
 31
0.0
  0
LINE
  5
176
330
1F
100
AcDbEntity
  8
0
  6
HIDDEN
 62
     7
370
     0
100
AcDbLine
 10
118.7187363134
 20
80.4883115409
 30
0.0
 11
118.812897089
 21
81.1583002721
 31
0.0
  0
LINE
  5
177
330
1F
100
AcDbEntity
  8
0
  6
HIDDEN
 62
     7
370
     0
100
AcDbLine
 10
118.812897089
 20
130.4661851016
 30
0.0
 11
118.7187363134
 21
131.1361738329
 31
0.0
  0
ARC
  5
178
330
1F
100
AcDbEntity
  8
0
  6
HIDDEN
 62
     7
370
     0
100
AcDbCircle
 10
118.2187295608
 20
81.2418050725
 30
0.0
 40
0.6000067526677222
100
AcDbArc
 50
352.0
 51
0.0
  0
ARC
  5
179
330
1F
100
AcDbEntity
  8
0
  6
HIDDEN
 62
     7
370
     0
100
AcDbCircle
 10
118.2187295608
 20
81.2418050725
 30
0.0
 40
0.6000067526677242
100
AcDbArc
 50
0.0
 51
33.5571153394
  0
ARC
  5
17A
330
1F
100
AcDbEntity
  8
0
  6
HIDDEN
 62
     7
370
     0
100
AcDbCircle
 10
118.2187295608
 20
130.3826803013
 30
0.0
 40
0.6000067526677222
100
AcDbArc
 50
348.75
 51
8.0
  0
LWPOLYLINE
  5
17B
330
1F
100
AcDbEntity
  8
0
  6
HIDDEN
 62
     7
370
     0
100
AcDbPolyline
 90
        3
 70
   128
 43
0.0
 10
118.8072073519
 20
130.2656247907
 10
118.7730635189
 20
130.1530676577
 10
118.7187363134
 20
130.0510157862
  0
LINE
  5
17C
330
1F
100
AcDbEntity
  8
0
  6
HIDDEN
 62
     7
370
     0
100
AcDbLine
 10
118.8187363134
 20
81.2418050725
 30
0.0
 11
118.8187363134
 21
130.3826803013
 31
0.0
  0
ARC
  5
17D
330
1F
100
AcDbEntity
  8
0
  6
HIDDEN
 62
     7
370
     0
100
AcDbCircle
 10
101.8011718787
 20
86.4122426869
 30
0.0
 40
0.5999999999999943
100
AcDbArc
 50
210.0
 51
270.0
  0
ARC
  5
17E
330
1F
100
AcDbEntity
  8
0
  6
HIDDEN
 62
     7
370
     0
100
AcDbCircle
 10
101.8011718787
 20
125.2122426869
 30
0.0
 40
0.6000000000000085
100
AcDbArc
 50
90.0
 51
150.0
  0
LINE
  5
17F
330
1F
100
AcDbEntity
  8
0
  6
HIDDEN
 62
     7
370
     0
100
AcDbLine
 10
101.8011718787
 20
85.8122426869
 30
0.0
 11
105.9718536946
 21
85.8122426869
 31
0.0
  0
LINE
  5
180
330
1F
100
AcDbEntity
  8
0
  6
HIDDEN
 62
     7
370
     0
100
AcDbLine
 10
105.9718536946
 20
125.8122426869
 30
0.0
 11
101.8011718787
 21
125.8122426869
 31
0.0
  0
ARC
  5
181
330
1F
100
AcDbEntity
  8
0
  6
HIDDEN
 62
     7
370
     0
100
AcDbCircle
 10
112.473738315
 20
93.8122426869
 30
0.0
 40
7.999999999999996
100
AcDbArc
 50
277.1303798822
 51
321.3178125465
  0
ARC
  5
182
330
1F
100
AcDbEntity
  8
0
  6
HIDDEN
 62
     7
370
     0
100
AcDbCircle
 10
112.473738315
 20
117.8122426869
 30
0.0
 40
7.999999999999996
100
AcDbArc
 50
38.6821874535
 51
82.8533690982
  0
LINE
  5
183
330
1F
100
AcDbEntity
  8
0
  6
HIDDEN
 62
     7
370
     0
100
AcDbLine
 10
101.2815566365
 20
125.5122426869
 30
0.0
 11
99.7227109097
 21
122.8122426869
 31
0.0
  0
LINE
  5
184
330
1F
100
AcDbEntity
  8
0
  6
HIDDEN
 62
     7
370
     0
100
AcDbLine
 10
99.7227109097
 20
88.8122426869
 30
0.0
 11
101.2815566365
 21
86.1122426869
 31
0.0
  0
LINE
  5
185
330
1F
100
AcDbEntity
  8
0
  6
HIDDEN
 62
     7
370
     0
100
AcDbLine
 10
122.7187363134
 20
133.0919089248
 30
0.0
 11
122.7187363134
 21
129.7578451015
 31
0.0
  0
LINE
  5
186
330
1F
100
AcDbEntity
  8
0
  6
HIDDEN
 62
     7
370
     0
100
AcDbLine
 10
130.7187363134
 20
129.7578451015
 30
0.0
 11
130.7187363134
 21
133.0865765461
 31
0.0
  0
ARC
  5
187
330
1F
100
AcDbEntity
  8
0
  6
HIDDEN
 62
     7
370
     0
100
AcDbCircle
 10
127.1687363134
 20
90.0872426869
 30
0.0
 40
1.500000000000014
100
AcDbArc
 50
238.2116693829
 51
0.0
  0
ARC
  5
188
330
1F
100
AcDbEntity
  8
0
  6
HIDDEN
 62
     7
370
     0
100
AcDbCircle
 10
127.1687363134
 20
121.5372426869
 30
0.0
 40
1.500000000000014
100
AcDbArc
 50
0.0
 51
121.7883306171
  0
LINE
  5
189
330
1F
100
AcDbEntity
  8
0
  6
HIDDEN
 62
     7
370
     0
100
AcDbLine
 10
118.7187363134
 20
88.8122426869
 30
0.0
 11
126.378562282
 21
88.8122426869
 31
0.0
  0
LINE
  5
18A
330
1F
100
AcDbEntity
  8
0
  6
HIDDEN
 62
     7
370
     0
100
AcDbLine
 10
126.378562282
 20
122.8122426869
 30
0.0
 11
118.7187363134
 21
122.8122426869
 31
0.0
  0
LINE
  5
18B
330
1F
100
AcDbEntity
  8
0
  6
HIDDEN
 62
     7
370
     0
100
AcDbLine
 10
96.9187363134
 20
88.8122426869
 30
0.0
 11
99.7227109097
 21
88.8122426869
 31
0.0
  0
LINE
  5
18C
330
1F
100
AcDbEntity
  8
0
  6
HIDDEN
 62
     7
370
     0
100
AcDbLine
 10
99.7227109097
 20
122.8122426869
 30
0.0
 11
92.9187363134
 21
122.8122426869
 31
0.0
  0
LINE
  5
18D
330
1F
100
AcDbEntity
  8
0
  6
HIDDEN
 62
     7
370
     0
100
AcDbLine
 10
137.5187363134
 20
96.3122426869
 30
0.0
 11
140.5187363134
 21
96.3122426869
 31
0.0
  0
LINE
  5
18E
330
1F
100
AcDbEntity
  8
0
  6
HIDDEN
 62
     7
370
     0
100
AcDbLine
 10
140.5187363134
 20
115.3122426869
 30
0.0
 11
137.5187363134
 21
115.3122426869
 31
0.0
  0
LINE
  5
18F
330
1F
100
AcDbEntity
  8
0
  6
HIDDEN
 62
     7
370
     0
100
AcDbLine
 10
128.6687363134
 20
96.8122426869
 30
0.0
 11
129.1687363134
 21
97.3122426869
 31
0.0
  0
LINE
  5
190
330
1F
100
AcDbEntity
  8
0
  6
HIDDEN
 62
     7
370
     0
100
AcDbLine
 10
129.1687363134
 20
114.3122426869
 30
0.0
 11
128.6687363134
 21
114.8122426869
 31
0.0
  0
LINE
  5
191
330
1F
100
AcDbEntity
  8
0
  6
HIDDEN
 62
     7
370
     0
100
AcDbLine
 10
129.1687363134
 20
97.3122426869
 30
0.0
 11
137.5187363134
 21
97.3122426869
 31
0.0
  0
LINE
  5
192
330
1F
100
AcDbEntity
  8
0
  6
HIDDEN
 62
     7
370
     0
100
AcDbLine
 10
137.5187363134
 20
114.3122426869
 30
0.0
 11
129.1687363134
 21
114.3122426869
 31
0.0
  0
LINE
  5
193
330
1F
100
AcDbEntity
  8
0
  6
HIDDEN
 62
     7
370
     0
100
AcDbLine
 10
123.6687363134
 20
137.3122426869
 30
0.0
 11
123.6687363134
 21
132.2122426869
 31
0.0
  0
ARC
  5
194
330
1F
100
AcDbEntity
  8
0
  6
HIDDEN
 62
     7
370
     0
100
AcDbCircle
 10
203.2187363134
 20
99.7755484388
 30
0.0
 40
0.5000000000000284
100
AcDbArc
 50
0.0
 51
80.0
  0
ARC
  5
195
330
1F
100
AcDbEntity
  8
0
  6
HIDDEN
 62
     7
370
     0
100
AcDbCircle
 10
203.2187363134
 20
111.848936935
 30
0.0
 40
0.5000000000000284
100
AcDbArc
 50
280.0
 51
0.0
  0
LINE
  5
196
330
1F
100
AcDbEntity
  8
0
  6
HIDDEN
 62
     7
370
     0
100
AcDbLine
 10
203.3055604023
 20
111.3565330585
 30
0.0
 11
200.2187363134
 21
110.8122426869
 31
0.0
  0
LINE
  5
197
330
1F
100
AcDbEntity
  8
0
  6
HIDDEN
 62
     7
370
     0
100
AcDbLine
 10
200.2187363134
 20
100.8122426869
 30
0.0
 11
203.3055604023
 21
100.2679523153
 31
0.0
  0
ARC
  5
198
330
1F
100
AcDbEntity
  8
0
  6
HIDDEN
 62
     7
370
     0
100
AcDbCircle
 10
171.8239622953
 20
100.9122426869
 30
0.0
 40
0.4000000000000074
100
AcDbArc
 50
270.0
 51
290.0
  0
ARC
  5
199
330
1F
100
AcDbEntity
  8
0
  6
HIDDEN
 62
     7
370
     0
100
AcDbCircle
 10
171.8239622953
 20
110.7122426869
 30
0.0
 40
0.4000000000000074
100
AcDbArc
 50
70.0
 51
90.0
  0
LINE
  5
19A
330
1F
100
AcDbEntity
  8
0
  6
HIDDEN
 62
     7
370
     0
100
AcDbLine
 10
165.7187363134
 20
100.5122426869
 30
0.0
 11
171.8239622953
 21
100.5122426869
 31
0.0
  0
LINE
  5
19B
330
1F
100
AcDbEntity
  8
0
  6
HIDDEN
 62
     7
370
     0
100
AcDbLine
 10
162.6187363134
 20
100.5122426869
 30
0.0
 11
162.7235870963
 21
100.5122426869
 31
0.0
  0
LINE
  5
19C
330
1F
100
AcDbEntity
  8
0
  6
HIDDEN
 62
     7
370
     0
100
AcDbLine
 10
162.7198639278
 20
111.1122426869
 30
0.0
 11
162.6187363134
 21
111.1122426869
 31
0.0
  0
LINE
  5
19D
330
1F
100
AcDbEntity
  8
0
  6
HIDDEN
 62
     7
370
     0
100
AcDbLine
 10
171.8239622953
 20
111.1122426869
 30
0.0
 11
165.7173695824
 21
111.1122426869
 31
0.0
  0
ARC
  5
19E
330
1F
100
AcDbEntity
  8
0
  6
HIDDEN
 62
     7
370
     0
100
AcDbCircle
 10
162.6187363134
 20
100.9122426869
 30
0.0
 40
0.3999999999999915
100
AcDbArc
 50
180.0
 51
270.0
  0
ARC
  5
19F
330
1F
100
AcDbEntity
  8
0
  6
HIDDEN
 62
     7
370
     0
100
AcDbCircle
 10
162.6187363134
 20
110.7122426869
 30
0.0
 40
0.3999999999999915
100
AcDbArc
 50
90.0
 51
180.0
  0
LINE
  5
1A0
330
1F
100
AcDbEntity
  8
0
  6
HIDDEN
 62
     7
370
     0
100
AcDbLine
 10
171.9607703527
 20
100.5363656386
 30
0.0
 11
172.7187363134
 21
100.8122426869
 31
0.0
  0
LINE
  5
1A1
330
1F
100
AcDbEntity
  8
0
  6
HIDDEN
 62
     7
370
     0
100
AcDbLine
 10
172.7187363134
 20
110.8122426869
 30
0.0
 11
171.9607703527
 21
111.0881197352
 31
0.0
  0
LINE
  5
1A2
330
1F
100
AcDbEntity
  8
0
  6
HIDDEN
 62
     7
370
     0
100
AcDbLine
 10
172.7187363134
 20
100.8122426869
 30
0.0
 11
200.2187363134
 21
100.8122426869
 31
0.0
  0
LINE
  5
1A3
330
1F
100
AcDbEntity
  8
0
  6
HIDDEN
 62
     7
370
     0
100
AcDbLine
 10
200.2187363134
 20
110.8122426869
 30
0.0
 11
172.7187363134
 21
110.8122426869
 31
0.0
  0
LINE
  5
1A4
330
1F
100
AcDbEntity
  8
0
  6
HIDDEN
 62
     7
370
     0
100
AcDbLine
 10
113.9031741439
 20
81.7328713533
 30
0.0
 11
113.4687419944
 21
82.2119373724
 31
0.0
  0
LINE
  5
1A5
330
1F
100
AcDbEntity
  8
0
  6
HIDDEN
 62
     7
370
     0
100
AcDbLine
 10
105.9687386693
 20
82.6336253316
 30
0.0
 11
105.486304926
 21
82.1545593561
 31
0.0
  0
LINE
  5
1A6
330
1F
100
AcDbEntity
  8
0
  6
HIDDEN
 62
     7
370
     0
100
AcDbLine
 10
105.4861829978
 20
129.4699207272
 30
0.0
 11
105.9687337487
 21
128.9908004693
 31
0.0
  0
LINE
  5
1A7
330
1F
100
AcDbEntity
  8
0
  6
HIDDEN
 62
     7
370
     0
100
AcDbLine
 10
113.4687361954
 20
129.412498247
 30
0.0
 11
113.9032785858
 21
129.8916184975
 31
0.0
  0
LINE
  5
1A8
330
1F
100
AcDbEntity
  8
0
  6
HIDDEN
 62
     7
370
     0
100
AcDbLine
 10
162.2187363134
 20
109.8122426869
 30
0.0
 11
161.4187363134
 21
109.0122426869
 31
0.0
  0
LINE
  5
1A9
330
1F
100
AcDbEntity
  8
0
  6
HIDDEN
 62
     7
370
     0
100
AcDbLine
 10
161.4187363134
 20
102.6122426869
 30
0.0
 11
162.2187363134
 21
101.8122426869
 31
0.0
  0
LINE
  5
1AA
330
1F
100
AcDbEntity
  8
0
  6
HIDDEN
 62
     7
370
     0
100
AcDbLine
 10
113.4687363134
 20
125.7500788775
 30
0.0
 11
113.4687363134
 21
129.4122069409
 31
0.0
  0
LINE
  5
1AB
330
1F
100
AcDbEntity
  8
0
  6
HIDDEN
 62
     7
370
     0
100
AcDbLine
 10
105.9687363134
 20
128.9906566901
 30
0.0
 11
105.9687363134
 21
125.8116584257
 31
0.0
  0
LINE
  5
1AC
330
1F
100
AcDbEntity
  8
0
  6
HIDDEN
 62
     7
370
     0
100
AcDbLine
 10
113.4687363134
 20
82.2124212742
 30
0.0
 11
113.4687363134
 21
85.8744064963
 31
0.0
  0
LINE
  5
1AD
330
1F
100
AcDbEntity
  8
0
  6
HIDDEN
 62
     7
370
     0
100
AcDbLine
 10
105.9687363134
 20
85.8128269481
 30
0.0
 11
105.9687363134
 21
82.6339485694
 31
0.0
  0
LINE
  5
1AE
330
1F
100
AcDbEntity
  8
0
  6
HIDDEN
 62
     7
370
     0
100
AcDbLine
 10
159.1687363134
 20
90.8122426869
 30
0.0
 11
158.1687363134
 21
91.3895929561
 31
0.0
  0
LINE
  5
1AF
330
1F
100
AcDbEntity
  8
0
  6
HIDDEN
 62
     7
370
     0
100
AcDbLine
 10
153.1687363134
 20
91.3895929561
 30
0.0
 11
152.1687363134
 21
90.8122426869
 31
0.0
  0
LINE
  5
1B0
330
1F
100
AcDbEntity
  8
0
  6
HIDDEN
 62
     7
370
     0
100
AcDbLine
 10
140.5187363134
 20
102.6122426869
 30
0.0
 11
161.4187363134
 21
102.6122426869
 31
0.0
  0
LINE
  5
1B1
330
1F
100
AcDbEntity
  8
0
  6
HIDDEN
 62
     7
370
     0
100
AcDbLine
 10
161.4187363134
 20
109.0122426869
 30
0.0
 11
140.5187363134
 21
109.0122426869
 31
0.0
  0
LINE
  5
1B2
330
1F
100
AcDbEntity
  8
0
  6
HIDDEN
 62
     7
370
     0
100
AcDbLine
 10
152.1687363134
 20
120.8122426869
 30
0.0
 11
153.1687363134
 21
120.2348924177
 31
0.0
  0
LINE
  5
1B3
330
1F
100
AcDbEntity
  8
0
  6
HIDDEN
 62
     7
370
     0
100
AcDbLine
 10
158.1687363134
 20
120.2348924177
 30
0.0
 11
159.1687363134
 21
120.8122426869
 31
0.0
  0
LINE
  5
1B4
330
1F
100
AcDbEntity
  8
0
  6
HIDDEN
 62
     7
370
     0
100
AcDbLine
 10
153.1687363134
 20
120.2348924177
 30
0.0
 11
153.1687363134
 21
111.8122426869
 31
0.0
  0
LINE
  5
1B5
330
1F
100
AcDbEntity
  8
0
  6
HIDDEN
 62
     7
370
     0
100
AcDbLine
 10
158.1687363134
 20
111.8122426869
 30
0.0
 11
158.1687363134
 21
120.2348924177
 31
0.0
  0
LINE
  5
1B6
330
1F
100
AcDbEntity
  8
0
  6
HIDDEN
 62
     7
370
     0
100
AcDbLine
 10
153.1687363134
 20
111.8122426869
 30
0.0
 11
155.6687363134
 21
110.3100911393
 31
0.0
  0
LINE
  5
1B7
330
1F
100
AcDbEntity
  8
0
  6
HIDDEN
 62
     7
370
     0
100
AcDbLine
 10
155.6687363134
 20
110.3100911393
 30
0.0
 11
158.1687363134
 21
111.8122426869
 31
0.0
  0
LINE
  5
1B8
330
1F
100
AcDbEntity
  8
0
  6
HIDDEN
 62
     7
370
     0
100
AcDbLine
 10
158.1687363134
 20
99.8122426869
 30
0.0
 11
155.6687363134
 21
101.3143942345
 31
0.0
  0
LINE
  5
1B9
330
1F
100
AcDbEntity
  8
0
  6
HIDDEN
 62
     7
370
     0
100
AcDbLine
 10
155.6687363134
 20
101.3143942345
 30
0.0
 11
153.1687363134
 21
99.8122426869
 31
0.0
  0
LINE
  5
1BA
330
1F
100
AcDbEntity
  8
0
  6
HIDDEN
 62
     7
370
     0
100
AcDbLine
 10
158.1687363134
 20
91.3895929561
 30
0.0
 11
158.1687363134
 21
99.8122426869
 31
0.0
  0
LINE
  5
1BB
330
1F
100
AcDbEntity
  8
0
  6
HIDDEN
 62
     7
370
     0
100
AcDbLine
 10
153.1687363134
 20
99.8122426869
 30
0.0
 11
153.1687363134
 21
91.3895929561
 31
0.0
  0
LINE
  5
1BC
330
1F
100
AcDbEntity
  8
0
  6
HIDDEN
 62
     7
370
     0
100
AcDbLine
 10
162.7187363134
 20
114.1727156097
 30
0.0
 11
162.7187363134
 21
111.1119237334
 31
0.0
  0
LINE
  5
1BD
330
1F
100
AcDbEntity
  8
0
  6
HIDDEN
 62
     7
370
     0
100
AcDbLine
 10
162.7187363134
 20
118.3122426869
 30
0.0
 11
162.7187363134
 21
116.548740766
 31
0.0
  0
LINE
  5
1BE
330
1F
100
AcDbEntity
  8
0
  6
HIDDEN
 62
     7
370
     0
100
AcDbLine
 10
165.7187363134
 20
116.5545544374
 30
0.0
 11
165.7187363134
 21
118.3122426869
 31
0.0
  0
LINE
  5
1BF
330
1F
100
AcDbEntity
  8
0
  6
HIDDEN
 62
     7
370
     0
100
AcDbLine
 10
165.7187363134
 20
111.1118597185
 30
0.0
 11
165.7187363134
 21
114.0543023049
 31
0.0
  0
LINE
  5
1C0
330
1F
100
AcDbEntity
  8
0
  6
HIDDEN
 62
     7
370
     0
100
AcDbLine
 10
162.7187363134
 20
95.0763397454
 30
0.0
 11
162.7187363134
 21
93.8122426869
 31
0.0
  0
LINE
  5
1C1
330
1F
100
AcDbEntity
  8
0
  6
HIDDEN
 62
     7
370
     0
100
AcDbLine
 10
162.7187363134
 20
100.5136124993
 30
0.0
 11
162.7187363134
 21
97.449261516
 31
0.0
  0
LINE
  5
1C2
330
1F
100
AcDbEntity
  8
0
  6
HIDDEN
 62
     7
370
     0
100
AcDbLine
 10
165.7187363134
 20
97.5701830689
 30
0.0
 11
165.7187363134
 21
100.5122426869
 31
0.0
  0
LINE
  5
1C3
330
1F
100
AcDbEntity
  8
0
  6
HIDDEN
 62
     7
370
     0
100
AcDbLine
 10
165.7187363134
 20
93.8122426869
 30
0.0
 11
165.7187363134
 21
95.0699309364
 31
0.0
  0
LINE
  5
1C4
330
1F
100
AcDbEntity
  8
0
  6
HIDDEN
 62
     7
370
     0
100
AcDbLine
 10
162.7187363134
 20
93.8122426869
 30
0.0
 11
164.2187363134
 21
92.9109517583
 31
0.0
  0
LINE
  5
1C5
330
1F
100
AcDbEntity
  8
0
  6
HIDDEN
 62
     7
370
     0
100
AcDbLine
 10
164.2187363134
 20
92.9109517583
 30
0.0
 11
165.7187363134
 21
93.8122426869
 31
0.0
  0
LINE
  5
1C6
330
1F
100
AcDbEntity
  8
0
  6
HIDDEN
 62
     7
370
     0
100
AcDbLine
 10
165.7173628282
 20
95.068200208
 30
0.0
 11
203.7187363134
 21
96.5612782386
 31
0.0
  0
LINE
  5
1C7
330
1F
100
AcDbEntity
  8
0
  6
HIDDEN
 62
     7
370
     0
100
AcDbLine
 10
203.7187363134
 20
99.0632071351
 30
0.0
 11
165.7187363134
 21
97.5701830689
 31
0.0
  0
LINE
  5
1C8
330
1F
100
AcDbEntity
  8
0
  6
HIDDEN
 62
     7
370
     0
100
AcDbLine
 10
165.7187363134
 20
114.0543023049
 30
0.0
 11
203.7187363134
 21
112.5612782386
 31
0.0
  0
LINE
  5
1C9
330
1F
100
AcDbEntity
  8
0
  6
HIDDEN
 62
     7
370
     0
100
AcDbLine
 10
203.7187363134
 20
115.0632071351
 30
0.0
 11
165.7173628282
 21
116.5562851658
 31
0.0
  0
LINE
  5
1CA
330
1F
100
AcDbEntity
  8
0
  6
HIDDEN
 62
     7
370
     0
100
AcDbLine
 10
162.7200680877
 20
116.5498987371
 30
0.0
 11
161.999849106
 21
115.4513822295
 31
0.0
  0
LINE
  5
1CB
330
1F
100
AcDbEntity
  8
0
  6
HIDDEN
 62
     7
370
     0
100
AcDbLine
 10
161.999849106
 20
115.4513822295
 30
0.0
 11
162.7012710579
 21
114.1728588377
 31
0.0
  0
LINE
  5
1CC
330
1F
100
AcDbEntity
  8
0
  6
HIDDEN
 62
     7
370
     0
100
AcDbLine
 10
162.7012710579
 20
97.4516265361
 30
0.0
 11
161.999849106
 21
96.1731031443
 31
0.0
  0
LINE
  5
1CD
330
1F
100
AcDbEntity
  8
0
  6
HIDDEN
 62
     7
370
     0
100
AcDbLine
 10
161.999849106
 20
96.1731031443
 30
0.0
 11
162.7191701363
 21
95.0759562403
 31
0.0
  0
LINE
  5
1CE
330
1F
100
AcDbEntity
  8
0
  6
HIDDEN
 62
     7
370
     0
100
AcDbLine
 10
203.6452490035
 20
115.3162873491
 30
0.0
 11
198.3113111996
 21
115.5258583362
 31
0.0
  0
LINE
  5
1CF
330
1F
100
AcDbEntity
  8
0
  6
HIDDEN
 62
     7
370
     0
100
AcDbLine
 10
198.1935317523
 20
112.5281712274
 30
0.0
 11
203.5274695562
 21
112.3186002403
 31
0.0
  0
LINE
  5
1D0
330
1F
100
AcDbEntity
  8
0
  6
HIDDEN
 62
     7
370
     0
100
AcDbLine
 10
203.5274695562
 20
112.3186002403
 30
0.0
 11
203.7003038299
 21
112.5925259854
 31
0.0
  0
LINE
  5
1D1
330
1F
100
AcDbEntity
  8
0
  6
HIDDEN
 62
     7
370
     0
100
AcDbLine
 10
203.7187363134
 20
115.1766109472
 30
0.0
 11
203.6452490035
 21
115.3162873491
 31
0.0
  0
LINE
  5
1D2
330
1F
100
AcDbEntity
  8
0
  6
HIDDEN
 62
     7
370
     0
100
AcDbLine
 10
198.3113111996
 20
115.5258583362
 30
0.0
 11
197.7920667736
 21
115.0458737259
 31
0.0
  0
LINE
  5
1D3
330
1F
100
AcDbEntity
  8
0
  6
HIDDEN
 62
     7
370
     0
100
AcDbLine
 10
197.7135471421
 20
113.0474156534
 30
0.0
 11
198.1935317523
 21
112.5281712274
 31
0.0
  0
LINE
  5
1D4
330
1F
100
AcDbEntity
  8
0
  6
HIDDEN
 62
     7
370
     0
100
AcDbLine
 10
203.5274695562
 20
99.3058851334
 30
0.0
 11
198.1935317523
 21
99.0963141463
 31
0.0
  0
LINE
  5
1D5
330
1F
100
AcDbEntity
  8
0
  6
HIDDEN
 62
     7
370
     0
100
AcDbLine
 10
198.3113111996
 20
96.0986270376
 30
0.0
 11
203.6452490035
 21
96.3081980247
 31
0.0
  0
LINE
  5
1D6
330
1F
100
AcDbEntity
  8
0
  6
HIDDEN
 62
     7
370
     0
100
AcDbLine
 10
203.6452490035
 20
96.3081980247
 30
0.0
 11
203.7187363134
 21
96.4478744265
 31
0.0
  0
LINE
  5
1D7
330
1F
100
AcDbEntity
  8
0
  6
HIDDEN
 62
     7
370
     0
100
AcDbLine
 10
203.7003038299
 20
99.0319593884
 30
0.0
 11
203.5274695562
 21
99.3058851334
 31
0.0
  0
LINE
  5
1D8
330
1F
100
AcDbEntity
  8
0
  6
HIDDEN
 62
     7
370
     0
100
AcDbLine
 10
198.1935317523
 20
99.0963141463
 30
0.0
 11
197.7135471421
 21
98.5770697203
 31
0.0
  0
LINE
  5
1D9
330
1F
100
AcDbEntity
  8
0
  6
HIDDEN
 62
     7
370
     0
100
AcDbLine
 10
197.7920667736
 20
96.5786116479
 30
0.0
 11
198.3113111996
 21
96.0986270376
 31
0.0
  0
DIMENSION
  5
1DA
330
1F
100
AcDbEntity
  8
VERMASSUNG
100
AcDbDimension
  2
*D1
 10
82.3602383532
 20
74.3122426869
 30
0.0
 11
82.3602383532
 21
105.8122426869
 31
0.0
 70
   160
  1
HSK A %%c<>
 71
     2
 42
-1.0
  3
SLDDIMSTYLE0
100
AcDbAlignedDimension
 13
119.0187363134
 23
137.3122426869
 33
0.0
 14
119.0187363134
 24
74.3122426869
 34
0.0
 50
90.0
100
AcDbRotatedDimension
  0
DIMENSION
  5
1E7
330
1F
100
AcDbEntity
  8
VERMASSUNG
100
AcDbDimension
  2
*D2
 10
203.7187363134
 20
137.7071505959
 30
0.0
 11
182.9687363134
 21
137.7071505959
 31
0.0
 70
   160
 71
     2
 42
-1.0
  3
SLDDIMSTYLE1
100
AcDbAlignedDimension
 13
162.2187363134
 23
110.7122426869
 33
0.0
 14
203.7187363134
 24
115.9634617036
 34
0.0
 50
0.0
100
AcDbRotatedDimension
  0
DIMENSION
  5
1F2
330
1F
100
AcDbEntity
  8
VERMASSUNG
100
AcDbDimension
  2
*D3
 10
210.2304442037
 20
110.8122426869
 30
0.0
 11
210.2304442037
 21
105.8122426869
 31
0.0
 70
   160
  1
%%c<> 
 71
     2
 42
-1.0
  3
SLDDIMSTYLE2
100
AcDbAlignedDimension
 13
200.2187363134
 23
100.8122426869
 33
0.0
 14
200.2187363134
 24
110.8122426869
 34
0.0
 50
90.0
100
AcDbRotatedDimension
  0
DIMENSION
  5
1FF
330
1F
100
AcDbEntity
  8
VERMASSUNG
100
AcDbDimension
  2
*D4
 10
216.2304442037
 20
117.8122426869
 30
0.0
 11
216.2304442037
 21
105.8122426869
 31
0.0
 70
   160
  1
%%c<> 
 71
     2
 42
-1.0
  3
SLDDIMSTYLE3
100
AcDbAlignedDimension
 13
203.7187363134
 23
93.8122426869
 33
0.0
 14
203.7187363134
 24
117.8122426869
 34
0.0
 50
90.0
100
AcDbRotatedDimension
  0
DIMENSION
  5
20C
330
1F
100
AcDbEntity
  8
VERMASSUNG
100
AcDbDimension
  2
*D5
 10
203.7187363134
 20
149.7071505959
 30
0.0
 11
161.2187363134
 21
149.7071505959
 31
0.0
 70
   160
 71
     2
 42
-1.0
  3
SLDDIMSTYLE0
100
AcDbAlignedDimension
 13
118.7187363134
 23
131.1361738329
 33
0.0
 14
203.7187363134
 24
115.9634617036
 34
0.0
100
AcDbRotatedDimension
  0
DIMENSION
  5
216
330
1F
100
AcDbEntity
  8
VERMASSUNG
100
AcDbDimension
  2
*D6
 10
222.2304442037
 20
90.8122426869
 30
0.0
 11
222.2304442037
 21
105.8122426869
 31
0.0
 70
   160
  1
%%c<>
 71
     2
 42
-1.0
  3
SLDDIMSTYLE0
100
AcDbAlignedDimension
 13
165.7187363134
 23
120.8122426869
 33
0.0
 14
165.6001221049
 24
90.8122426869
 34
0.0
 50
90.0
100
AcDbRotatedDimension
  0
DIMENSION
  5
221
330
1F
100
AcDbEntity
  8
VERMASSUNG
100
AcDbDimension
  2
*D7
 10
203.7187363134
 20
143.7071505959
 30
0.0
 11
174.1937363134
 21
143.7071505959
 31
0.0
 70
   160
 71
     2
 42
-1.0
  3
SLDDIMSTYLE0
100
AcDbAlignedDimension
 13
144.6687363134
 23
135.6586830107
 33
0.0
 14
203.7187363134
 24
115.9634617036
 34
0.0
100
AcDbRotatedDimension
  0
DIMENSION
  5
22B
330
1F
100
AcDbEntity
  8
VERMASSUNG
100
AcDbDimension
  2
*D8
 10
86.8187363134
 20
155.7071505959
 30
0.0
 11
145.2687363134
 21
155.7071505959
 31
0.0
 70
   160
 71
     2
 42
-1.0
  3
SLDDIMSTYLE0
100
AcDbAlignedDimension
 13
203.7187363134
 23
115.9634617036
 33
0.0
 14
86.8187363134
 24
125.5029204334
 34
0.0
100
AcDbRotatedDimension
  0
LINE
  5
235
330
1F
100
AcDbEntity
  8
VERMASSUNG
  6
CENTERX2
370
     0
100
AcDbLine
 10
83.2885157096
 20
105.8122426869
 30
0.0
 11
205.7187363134
 21
105.8122426869
 31
0.0
  0
OLE2FRAME
  5
236
330
1F
100
AcDbEntity
  8
0
100
AcDbOle2Frame
 70
     2
  3
Bitmap Image
 10
13.8511154363
 20
38.264191557
 30
0.0
 11
51.6290888628
 21
31.9806341108
 31
0.0
 71
     2
 72
     0
 73
     1
 90
    12928
310
80552BED0767C5B32B40DDAF6807D121434000000000000000006FFBDDFB85D0
310
4940DDAF6807D121434000000000000000006FFBDDFB85D04940416F4BD60AFB
310
3F4000000000000000002BED0767C5B32B40416F4BD60AFB3F40000000000000
310
0000000000000100000000010000010000000100000000000100000000320000
310
D0CF11E0A1B11AE1000000000000000000000000000000003E000300FEFF0900
310
0600000000000000000000000100000001000000000000000010000002000000
310
01000000FEFFFFFF0000000000000000FFFFFFFFFFFFFFFFFFFFFFFFFFFFFFFF
310
FFFFFFFFFFFFFFFFFFFFFFFFFFFFFFFFFFFFFFFFFFFFFFFFFFFFFFFFFFFFFFFF
310
FFFFFFFFFFFFFFFFFFFFFFFFFFFFFFFFFFFFFFFFFFFFFFFFFFFFFFFFFFFFFFFF
310
FFFFFFFFFFFFFFFFFFFFFFFFFFFFFFFFFFFFFFFFFFFFFFFFFFFFFFFFFFFFFFFF
310
FFFFFFFFFFFFFFFFFFFFFFFFFFFFFFFFFFFFFFFFFFFFFFFFFFFFFFFFFFFFFFFF
310
FFFFFFFFFFFFFFFFFFFFFFFFFFFFFFFFFFFFFFFFFFFFFFFFFFFFFFFFFFFFFFFF
310
FFFFFFFFFFFFFFFFFFFFFFFFFFFFFFFFFFFFFFFFFFFFFFFFFFFFFFFFFFFFFFFF
310
FFFFFFFFFFFFFFFFFFFFFFFFFFFFFFFFFFFFFFFFFFFFFFFFFFFFFFFFFFFFFFFF
310
FFFFFFFFFFFFFFFFFFFFFFFFFFFFFFFFFFFFFFFFFFFFFFFFFFFFFFFFFFFFFFFF
310
FFFFFFFFFFFFFFFFFFFFFFFFFFFFFFFFFFFFFFFFFFFFFFFFFFFFFFFFFFFFFFFF
310
FFFFFFFFFFFFFFFFFFFFFFFFFFFFFFFFFFFFFFFFFFFFFFFFFFFFFFFFFFFFFFFF
310
FFFFFFFFFFFFFFFFFFFFFFFFFFFFFFFFFFFFFFFFFFFFFFFFFFFFFFFFFFFFFFFF
310
FFFFFFFFFFFFFFFFFFFFFFFFFFFFFFFFFFFFFFFFFFFFFFFFFFFFFFFFFFFFFFFF
310
FFFFFFFFFFFFFFFFFFFFFFFFFFFFFFFFFFFFFFFFFFFFFFFFFFFFFFFFFFFFFFFF
310
FDFFFFFFFEFFFFFFFEFFFFFFFEFFFFFF05000000060000000700000008000000
310
090000000A0000000B0000000C0000000D0000000E0000000F00000010000000
310
11000000120000001300000014000000150000001600000017000000FEFFFFFF
310
FFFFFFFFFFFFFFFFFFFFFFFFFFFFFFFFFFFFFFFFFFFFFFFFFFFFFFFFFFFFFFFF
310
FFFFFFFFFFFFFFFFFFFFFFFFFFFFFFFFFFFFFFFFFFFFFFFFFFFFFFFFFFFFFFFF
310
FFFFFFFFFFFFFFFFFFFFFFFFFFFFFFFFFFFFFFFFFFFFFFFFFFFFFFFFFFFFFFFF
310
FFFFFFFFFFFFFFFFFFFFFFFFFFFFFFFFFFFFFFFFFFFFFFFFFFFFFFFFFFFFFFFF
310
FFFFFFFFFFFFFFFFFFFFFFFFFFFFFFFFFFFFFFFFFFFFFFFFFFFFFFFFFFFFFFFF
310
FFFFFFFFFFFFFFFFFFFFFFFFFFFFFFFFFFFFFFFFFFFFFFFFFFFFFFFFFFFFFFFF
310
FFFFFFFFFFFFFFFFFFFFFFFFFFFFFFFFFFFFFFFFFFFFFFFFFFFFFFFFFFFFFFFF
310
FFFFFFFFFFFFFFFFFFFFFFFFFFFFFFFFFFFFFFFFFFFFFFFFFFFFFFFFFFFFFFFF
310
FFFFFFFFFFFFFFFFFFFFFFFFFFFFFFFFFFFFFFFFFFFFFFFFFFFFFFFFFFFFFFFF
310
FFFFFFFFFFFFFFFFFFFFFFFFFFFFFFFFFFFFFFFFFFFFFFFFFFFFFFFFFFFFFFFF
310
FFFFFFFFFFFFFFFFFFFFFFFFFFFFFFFFFFFFFFFFFFFFFFFFFFFFFFFFFFFFFFFF
310
FFFFFFFFFFFFFFFFFFFFFFFFFFFFFFFFFFFFFFFFFFFFFFFFFFFFFFFFFFFFFFFF
310
FFFFFFFFFFFFFFFFFFFFFFFFFFFFFFFFFFFFFFFFFFFFFFFFFFFFFFFFFFFFFFFF
310
52006F006F007400200045006E00740072007900000000000000000000000000
310
0000000000000000000000000000000000000000000000000000000000000000
310
16000500FFFFFFFFFFFFFFFF020000000A00030000000000C000000000000046
310
000000000000000000000000C0D68021C204CC0103000000C000000000000000
310
01004F006C006500000000000000000000000000000000000000000000000000
310
0000000000000000000000000000000000000000000000000000000000000000
310
0A000200FFFFFFFFFFFFFFFFFFFFFFFF00000000000000000000000000000000
310
0000000000000000000000000000000000000000000000001400000000000000
310
010043006F006D0070004F0062006A0000000000000000000000000000000000
310
0000000000000000000000000000000000000000000000000000000000000000
310
120002010100000003000000FFFFFFFF00000000000000000000000000000000
310
0000000000000000000000000000000000000000010000004D00000000000000
310
01004F006C006500310030004E00610074006900760065000000000000000000
310
0000000000000000000000000000000000000000000000000000000000000000
310
1A000200FFFFFFFFFFFFFFFFFFFFFFFF00000000000000000000000000000000
310
0000000000000000000000000000000000000000040000002426000000000000
310
FEFFFFFF02000000FEFFFFFFFFFFFFFFFFFFFFFFFFFFFFFFFFFFFFFFFFFFFFFF
310
FFFFFFFFFFFFFFFFFFFFFFFFFFFFFFFFFFFFFFFFFFFFFFFFFFFFFFFFFFFFFFFF
310
FFFFFFFFFFFFFFFFFFFFFFFFFFFFFFFFFFFFFFFFFFFFFFFFFFFFFFFFFFFFFFFF
310
FFFFFFFFFFFFFFFFFFFFFFFFFFFFFFFFFFFFFFFFFFFFFFFFFFFFFFFFFFFFFFFF
310
FFFFFFFFFFFFFFFFFFFFFFFFFFFFFFFFFFFFFFFFFFFFFFFFFFFFFFFFFFFFFFFF
310
FFFFFFFFFFFFFFFFFFFFFFFFFFFFFFFFFFFFFFFFFFFFFFFFFFFFFFFFFFFFFFFF
310
FFFFFFFFFFFFFFFFFFFFFFFFFFFFFFFFFFFFFFFFFFFFFFFFFFFFFFFFFFFFFFFF
310
FFFFFFFFFFFFFFFFFFFFFFFFFFFFFFFFFFFFFFFFFFFFFFFFFFFFFFFFFFFFFFFF
310
FFFFFFFFFFFFFFFFFFFFFFFFFFFFFFFFFFFFFFFFFFFFFFFFFFFFFFFFFFFFFFFF
310
FFFFFFFFFFFFFFFFFFFFFFFFFFFFFFFFFFFFFFFFFFFFFFFFFFFFFFFFFFFFFFFF
310
FFFFFFFFFFFFFFFFFFFFFFFFFFFFFFFFFFFFFFFFFFFFFFFFFFFFFFFFFFFFFFFF
310
FFFFFFFFFFFFFFFFFFFFFFFFFFFFFFFFFFFFFFFFFFFFFFFFFFFFFFFFFFFFFFFF
310
FFFFFFFFFFFFFFFFFFFFFFFFFFFFFFFFFFFFFFFFFFFFFFFFFFFFFFFFFFFFFFFF
310
FFFFFFFFFFFFFFFFFFFFFFFFFFFFFFFFFFFFFFFFFFFFFFFFFFFFFFFFFFFFFFFF
310
FFFFFFFFFFFFFFFFFFFFFFFFFFFFFFFFFFFFFFFFFFFFFFFFFFFFFFFFFFFFFFFF
310
FFFFFFFFFFFFFFFFFFFFFFFFFFFFFFFFFFFFFFFFFFFFFFFFFFFFFFFFFFFFFFFF
310
0100000200000000000000000000000000000000000000000000000000000000
310
00000000000000003800000041000000880DD10100000000100E710200000000
310
0100FEFF030A0000FFFFFFFF0A00030000000000C00000000000004607000000
310
5042727573680007000000504272757368000700000050427275736800F439B2
310
7100000000000000000000000000000000000000000000000000C70600000000
310
425D000000000000000000000000000000000000000000003800000041000000
310
880DD101000000006C0E2B020000000000000000000000000000000000000000
310
0000C70600000000435D00000000000000000000000000000000000000000000
310
3800000041000000880DD101000000002A0E6F04000000000000000000000000
310
00000000000000000000C706000000003D5D0000000000000000000000000000
310
00000000000000003800000041000000880DD10100000000720E040400000000
310
000000000000000000000000000000000000C706000000003E5D000000000000
310
000000000000000000000000000000003800000041000000880DD10100000000
310
860EFC0100000000000000000000000000000000000000000000C70600000000
310
3F5D000000000000000000000000000000000000000000003800000041000000
310
880DD10100000000560E44030000000000000000000000000000000000000000
310
20260000424D0E260000000000003E00000028000000B40200006E0000000100
310
01000000000000000000130B0000130B00000200000002000000000000FFFFFF
310
FFFFFFFFFFFFFFFFFFFFFFFFFFFFFFFFFFFFFFFFFFFFFFFFFFFFFFFFFFFFFFFF
310
FFFFFFFFFFFFFFFFFFFFFFFFFFFFFFFFFFFFFFFFFFFFFFFFFFFFFFFFFFFFFFFF
310
FFFFFFFFFFFFFFFFFFFFFFFFFFFFFFFFFFFFFFFFFFFFFFFFF000FFFFFFFFFFFF
310
FFFFFFFFFFFFFFFFFFFFFFFFFFFFFFFFFFFFFFFFFFFFFFFFFFFFFFFFFFFFFFFF
310
FFFFFFFFFFFFFFFFFFFFFFFFFFFFFFFFFFFFFFFFFFFFFFFFFFFFFFFFFFFFFFFF
310
FFFFFFFFFFFFFFFFFFFFFFFFFFFFFFFFF000FFFFFFFFFFFFFFFFFFFFFFFFFFFF
310
FFFFFFFFFFFFFFFFFFFFFFFFFFFFFFFFFFFFFFFFFFFFFFFFFFFFFFFFFFFFFFFF
310
FFFFFFFFFFFFFFFFFFFFFFFFFFFFFFFFFFFFFFFFFFFFFFFFFFFFFFFFFFFFFFFF
310
FFFFFFFFFFFFFFFFF000FFFFFFFFFFFFFFFFFFFFFFFFFFFFFFFFFFFFFFFFFFFF
310
FFFFFFFFFFFFFFFFFFFFFFFFFFFFFFFFFFFFFFFFFFFFFFFFFFFFFFFFFFFFFFFF
310
FFFFFFFFFFFFFFFFFFFFFFFFFFFFFFFFFFFFFFFFFFFFFFFFFFFFFFFFFFFFFFFF
310
F000FFFFFFFFFFFFFFFFFFFFFFFFFFFFFFFFFFFFFFFFFFFFFFFFFFFFFFFFFFFF
310
FFFFFFFFFFFFFFFFFFFFFFFFFFFFFFFFFFFFFFFFFFFFFFFFFFFFFFFFFFFFFFFF
310
FFFFFFFFFFFFFFFFFFFFFFFFFFFFFFFFFFFFFFFFFFFFFFFFF000FFFFFFFFFFFF
310
FFFFFFFFFFFFFFFFFFFFFFFFFFFFFFFFFFFFFFFFFFFFFFFFFFFFFFFFFFFFFFFF
310
FFFFFFFFFFFFFFFFFFFFFFFFFFFFFFFFFFFFFFFFFFFFFFFFFFFFFFFFFFFFFFFF
310
FFFFFFFFFFFFFFFFFFFFFFFFFFFFFFFFF000FFFFFFFFFFFFFFFFFFFFFFFFFFFF
310
FFFFFFFFFFFFFFFFFFFFFFFFFFFFFFFFFFFFFFFFFFFFFFFFFFFFFFFFFFFFFFFF
310
FFFFFFFFFFFFFFFFFFFFFFFFFFFFFFFFFFFFFFFFFFFFFFFFFFFFFFFFFFFFFFFF
310
FFFFFFFFFFFFFFFFF000FFFFFFFFFFFFFFFFFFFFFFFFFFFFFFFFFFFFFFFFFFFF
310
FFFFFFFFFFFFFFFFFFFFFFFFFFFFFFFFFFFFFFFFFFFFFFFFFFFFFFFFFFFFFFFF
310
FFFFFFFFFFFFFFFFFFFFFFFFFFFFFFFFFFFFFFFFFFFFFFFFFFFFFFFFFFFFFFFF
310
F000FFFFFFFFFFFFFFFFFFFFFFFFFFFFFFFFFFFFFFFFFFFFFFFFFFFFFFFFFFFF
310
FFFFFFFFFFFFFFFFFFFFFFFFFFFFFFFFFFFFFFFFFFFFFFFFFFFFFFFFFFFFFFFF
310
FFFFFFFFFFFFFFFFFFFFFFFFFFFFFFFFFFFFFFFFFFFFFFFFF000FFFFFFFFFFFF
310
FFFFFFFFFFFFFFFFFFFFFFFFFFFFFFFFFFFFFFFFFFFFFFFFFFFFFFFFFFFFFFFF
310
FFFFFFFFFFFFFFFFFFFFFFFFFFFFFFFFFFFFFFFFFFFFFFFFFFFFFFFFFFFFFFFF
310
FFFFFFFFFFFFFFFFFFFFFFFFFFFFFFFFF000FFFFFFFFFFFFFFFFFFFFFFFFFFFF
310
FFFFFFFFFFFFFFFFFFFFFFFFFFFFFFFFFFFFFFFFFFFFFFFFFFFFFFFFFFFFFFFF
310
FFFFFFFFFFFFFFFFFFFFFFFFFFFFFFFFFFFFFFFFFFFFFFFFFFFFFFFFFFFFFFFF
310
FFFFFFFFFFFFFFFFF000FFFFFFFFFFFFFFFFFFFFFFFFFFFFFFFFFFFFFFFFFFFF
310
FFFFFFFFFFFFFFFFFFFFFFFFFFFFFFFFFFFFFFFFFFFFFFFFFFFFFFFFFFFFFFFF
310
FFFFFFFFFFFFFFFFFFFFFFFFFFFFFFFFFFFFFFFFFFFFFFFFFFFFFFFFFFFFFFFF
310
F000FFFFFFFFFFFFFFFFFFFFFFFFFFFFFFFFFFFFFFFFFFFFFFFFFFFFFFFFFFFF
310
FFFFFFFFFFFFFFFFFFFFFFFFFFFFFFFFFFFFFFFFFFFFFFFFFFFFFFFFFFFFFFFF
310
FFFFFFFFFFFFFFFFFFFFFFFFFFFFFFFFFFFFFFFFFFFFFFFFF000FFFFFFFFFFFF
310
FFFFFFFFFFFFFFFFFFFFFFFFFFFFFFFFFFFFFFFFFFFFFFFFFFFFFFFFFFFFFFFF
310
FFFFFFFFFFFFFFFFFFFFFFFFFFFFFFFFFFFFFFFFFFFFFFFFFFFFFFFFFFFFFFFF
310
FFFFFFFFFFFFFFFFFFFFFFFFFFFFFFFFF000FFFFFFFFFFFFFFFFFFFFFFFFFFFF
310
FFFFFFFFFFFFFFFFFFFFFFFFFFFFFFFFFFFFFFFFFFFFFFFFFFFFFFFFFFFFFFFF
310
FFFFFFFFFFFFFFFFFFFFFFFFFFFFFFFFFFFFFFFFFFFFFFFFFFFFFFFFFFFFFFFF
310
FFFFFFFFFFFFFFFFF000FFFFFFFFFFFFFFFFFFFFFFFFFFFFFFFFFFFFFFFFFFFF
310
FFFFFFFFFFFFFFFFFFFFFFFFFFFFFFFFFFFFFFFFFFFFFFFFFFFFFFFFFFFFFFFF
310
FFFFFFFFFFFFFFFFFFFFFFFFFFFFFFFFFFFFFFFFFFFFFFFFFFFFFFFFFFFFFFFF
310
F000FFFFFFFFFFFFFFFFFFFFFFFFFFFFFFFFFFFFFFFFFFFFFFFFFFFFFFFFFFFF
310
FFFFFFFFFFFFFFFFFFFFFFFFFFFFFFFFFFFFFFFFFFFFFFFFFFFFFFFFFFFFFFFF
310
FFFFFFFFFFFFFFFFFFFFFFFFFFFFFFFFFFFFFFFFFFFFFFFFF000FFFFFFFFFFFF
310
FFFFFFFFFFFFFFFFFFFFFFFFFFFFFFFFFFFFFFFFFFFFFFFFFFFFFFFFFFFFFFFF
310
FFFFFFFFFFFFFFFFFFFFFFFFFFFFFFFFFFFFFFFFFFFFFFFFFFFFFFFFFFFFFFFF
310
FFFFFFFFFFFFFFFFFFFFFFFFFFFFFFFFF000FFFFFFFFFFFFFFFFFFFFFFFFFFFF
310
FFFFFFFFFFFFFFFFFFFFFFFFFFFFFFFFFFFFFFFFFFFFFFFFFFFFFFFFFFFFFFFF
310
FFFFFFFFFFFFFFFFFFFFFFFFFFFFFFFFFFFFFFFFFFFFFFFFFFFFFFFFFFFFFFFF
310
FFFFFFFFFFFFFFFFF000FFFFF80003FFFFFFFFFFFFFFFFFFFFFFFFFFFFFFFFFF
310
FFFFF00007FFFFFFFFFF00007FFFFFF800000000000000007FFFFFFFFFFFFFFF
310
FFFFFFFC001FFFFFFFFFFFFFFC001FFFFFFFFFFFFFFFFFFFFFFFFFFE0007FFFF
310
F000FFFF8000007FFFFFFFF8000FFFFFC0007FFFFF80007FFFFF0000007FFFFF
310
FFF8000007FFFFF800000000000000007FFFFFF0001FFFFFFFFFFFC00001FFFF
310
FFFFFFFFC00001FFFFFFFF000000000003FFFFE000007FFFF000FFFE0000000F
310
FFFFFFF0000FFFFF80007FFFFF80007FFFFC0000001FFFFFFFC0000001FFFFF8
310
00000000000000007FFFFFF0001FFFFFFFFFFE0000003FFFFFFFFFFE0000003F
310
FFFFFF000000000003FFFF0000000FFFF000FFF800000003FFFFFFF00007FFFF
310
80007FFFFF80007FFFF000000007FFFFFF000000003FFFF80000000000000000
310
7FFFFFF0001FFFFFFFFFF80000000FFFFFFFFFF80000000FFFFFFF0000000000
310
03FFFC00000003FFF000FFE000000000FFFFFFF00007FFFF80003FFFFF80007F
310
FFC000000001FFFFFC000000001FFFF800000000000000007FFFFFF0001FFFFF
310
FFFFE000000003FFFFFFFFE000000003FFFFFF000000000003FFF000000000FF
310
F000FF80000000007FFFFFF00007FFFF80003FFFFF80007FFF8000000000FFFF
310
F80000000007FFF800000000000000007FFFFFF0001FFFFFFFFFC000000001FF
310
FFFFFFC000000001FFFFFF000000000003FFC0000000007FF000FF0000000000
310
3FFFFFE00007FFFF00003FFFFF80007FFE00000000003FFFF00000000003FFF8
310
00000000000000007FFFFFF0001FFFFFFFFF8000000000FFFFFFFF8000000000
310
FFFFFF000000000003FF80000000003FF000FE00000000001FFFFFE00003FFFF
310
00003FFFFF80007FFC00000000001FFFE00000000001FFF8000001FFFE000000
310
7FFFFFF0001FFFFFFFFE00000000003FFFFFFE00000000003FFFFF0000000000
310
03FF00000000001FF000FC00000000000FFFFFE00003FFFF00001FFFFF80007F
310
F800000000001FFFC00000000000FFF8000001FFFE0000007FFFFFF0001FFFFF
310
FFFC00000000001FFFFFFC00000000001FFFFF000000000003FE00000000000F
310
F000F8000000000007FFFFE00003FFFF00001FFFFF80007FF800000000000FFF
310
800000000000FFF8000001FFFE0000007FFFFFF0001FFFFFFFF800000000000F
310
FFFFF800000000000FFFFF000000000003FC000000000007F000F80000000000
310
03FFFFC00003FFFE00001FFFFF80007FF0000000000007FF0000000000007FF8
310
000001FFFE0000007FFFFFF0001FFFFFFFF0000000000007FFFFF00000000000
310
07FFFF000000000003F8000000000003F000F0000000000003FFFFC00001FFFE
310
00001FFFFF80007FE0000000000007FE0000000000003FF8000001FFFE000000
310
7FFFFFF0001FFFFFFFF0000000000007FFFFF0000000000007FFFF0000000000
310
03F800001F800003F000E00001FFF00001FFFFC00001FFFE00000FFFFF80007F
310
E00001FFE00003FE00001FFF00003FF8000001FFFE0000007FFFFFF0001FFFFF
310
FFE000003E000003FFFFE000003E000003FFFF000000000003F00001FFF80001
310
F000E00007FFFC0001FFFFC00001FFFE00000FFFFF80007FC0000FFFFC0003FC
310
0000FFFFC0001FF8000001FFFE0000007FFFFFF0001FFFFFFFC00003FFE00001
310
FFFFC00003FFE00001FFFF0001FFFFFFFFF00007FFFE0001F000E0000FFFFF00
310
00FFFF800001FFFC00000FFFFF80007FC0001FFFFE0001FC0001FFFFE0001FF8
310
000001FFFE0000007FFFFFF0001FFFFFFF80000FFFF80000FFFF80000FFFF800
310
00FFFF0003FFFFFFFFE0000FFFFF8000F000C0003FFFFF8000FFFF800000FFFC
310
000007FFFF80007F80003FFFFF0001FC0003FFFFF0001FF8000001FFFE000000
310
7FFFFFF0001FFFFFFF80003FFFFE0000FFFF80003FFFFE0000FFFF0003FFFFFF
310
FFE0003FFFFF8000F000C0003FFFFF8000FFFF800000FFFC000007FFFF80007F
310
80007FFFFF8001F80007FFFFF8000FF8000001FFFE0000007FFFFFF0001FFFFF
310
FF00007FFFFF00007FFF00007FFFFF00007FFF0003FFFFFFFFE0003FFFFFC000
310
F000C0007FFFFFC000FFFF000000FFFC000007FFFF80007F8000FFFFFF8000F8
310
000FFFFFF8000FF8000001FFFE0000007FFFFFF0001FFFFFFF0000FFFFFF8000
310
7FFF0000FFFFFF80007FFF0003FFFFFFFFC0007FFFFFC00070008000FFFFFFC0
310
00FFFF000000FFF8000007FFFF80007F8000FFFFFF8000F8000FFFFFF8000FF8
310
000001FFFE0000007FFFFFF0001FFFFFFE0001FFFFFFC0003FFE0001FFFFFFC0
310
003FFF0003FFFFFFFFC0007FFFFFE00070008000FFFFFFC0007FFF0000007FF8
310
000003FFFF80007F0001FFFFFF8000F8000FFFFFF8000FF8000001FFFE000000
310
7FFFFFF0001FFFFFFE0001FFFFFFC0003FFE0001FFFFFFC0003FFF0003FFFFFF
310
FFC000FFFFFFE00070008000FFFFFFC0007FFF0000007FF8000003FFFF80007F
310
0001FFFFFF8000F8001FFFFFF8000FF8000001FFFE0000007FFFFFF0001FFFFF
310
FE0003FFFFFFE0003FFE0003FFFFFFE0003FFF0003FFFFFFFFC000FFFFFFE000
310
70008000FFFFFFC0007FFE0000007FF8000003FFFF80007F0001FFFFFF8000F0
310
001FFFFFF8000FF8000001FFFE0000007FFFFFF0001FFFFFFC0003FFFFFFE000
310
1FFC0003FFFFFFE0001FFF0003FFFFFFFFC000FFFFFFC00070008000FFFFFF80
310
007FFE0000007FF0000003FFFF80007F0001FFFFFF0000F0001FFFFFF8000FF8
310
000001FFFE0000007FFFFFF0001FFFFFFC0007FFFFFFF0001FFC0007FFFFFFF0
310
001FFF0003FFFFFFFFC000FFFFFFC00070008001FFFFFF0000FFFE0000003FF0
310
000001FFFF80007F0001FFFFFF0000F8001FFFFFF0000FF8000001FFFE000000
310
7FFFFFF0001FFFFFFC0007FFFFFFF0001FFC0007FFFFFFF0001FFF0003FFFFFF
310
FFC001FFFFFF80007000FFFFFFFFFE0000FFFE0008003FF0008001FFFF80007F
310
FFFFFFFFFC0000FFFFFFFFFFE0000FF8000001FFFE0000007FFFFFF0001FFFFF
310
F8000FFFFFFFF8000FF8000FFFFFFFF8000FFF0003FFFFFFFFFFFFFFFFFF0000
310
7000FFFFFFFFFC0000FFFC0008003FF0008001FFFF80007FFFFFFFFFF80001FF
310
FFFFFFFF80000FF8000001FFFE0000007FFFFFF0001FFFFFF8000FFFFFFFF800
310
0FF8000FFFFFFFF8000FFF0003FFFFFFFFFFFFFFFFFE0000F000FFFFFFFFE000
310
00FFFC000C003FE000C001FFFF80007FFFFFFFFFC00001FFFFFFFFFE00001FF8
310
000001FFFE0000007FFFFFF0001FFFFFF8000FFFFFFFF8000FF8000FFFFFFFF8
310
000FFF0003FFFFFFFFFFFFFFFFF00000F000FFFFFFFE000001FFFC000C001FE0
310
00C000FFFF80007FFFFFFFFE000001FFFFFFFFE000001FF80FFFFFFFFFFFFFC0
310
7FFFFFF0001FFFFFF8000FFFFFFFF8000FF8000FFFFFFFF8000FFF0003FFFFFF
310
FFFFFFFFFF800000F000FFFFFFC0000001FFFC001C001FE001C000FFFF80007F
310
FFFFFF80000003FFFFFFF80000001FF80FFFFFFFFFFFFFC07FFFFFF0001FFFFF
310
F8001FFFFFFFFC000FF8001FFFFFFFFC000FFF0003FFFFFFFFFFFFFFF0000001
310
F000FFFFF800000001FFF8001C001FE001C000FFFF80007FFFFFF800000003FF
310
FFFF800000003FF80FFFFFFFFFFFFFC07FFFFFF0001FFFFFF8001FFFFFFFFC00
310
0FF8001FFFFFFFFC000FFF0003FFFFFFFFFFFFFE00000001F000FFFFC0000000
310
03FFF8001E001FC001E000FFFF80007FFFFF8000000007FFFFFC000000003FF8
310
0FFFFFFFFFFFFFC07FFFFFF0001FFFFFF8001FFFFFFFFC000FF8001FFFFFFFFC
310
000FFF0003FFFFFFFFFFFFE000000003F000FFFE0000000007FFF8001E000FC0
310
01E0007FFF80007FFFFE0000000007FFFFE0000000007FF80FFFFFFFFFFFFFC0
310
7FFFFFF0001FFFFFF0001FFFFFFFFC0007F0001FFFFFFFFC0007FF0003FFFFFF
310
FFFFFF0000000003F000FFF80000000007FFF8001E000FC003E0007FFF80007F
310
FFF0000000000FFFFF8000000000FFF80FFFFFFFFFFFFFC07FFFFFF0001FFFFF
310
F0001FFFFFFFFC0007F0001FFFFFFFFC0007FF0003FFFFFFFFFFFC0000000007
310
F000FFE0000000000FFFF0003E000FC003E0007FFF80007FFFC0000000001FFF
310
FE0000000001FFF80FFFFFFFFFFFFFC07FFFFFF0001FFFFFF0001FFFFFFFFC00
310
07F0001FFFFFFFFC0007FF0003FFFFFFFFFFF0000000000FF000FFC000000000
310
1FFFF0003F000F8003F0003FFF80007FFF80000000003FFFF80000000003FFF8
310
0FFFFFFFFFFFFFC07FFFFFF0001FFFFFF0001FFFFFFFFC0007F0001FFFFFFFFC
310
0007FF0003FFFFFFFFFFE0000000001FF000FF00000000007FFFF0003F000780
310
03F0003FFF80007FFF00000000007FFFF00000000007FFF80FFFFFFFFFFFFFC0
310
7FFFFFF0001FFFFFF0001FFFFFFFFC0007F0001FFFFFFFFC0007FF0003FFFFFF
310
FFFF80000000007FF000FE0000000000FFFFE0003F00078007F0003FFF80007F
310
FE0000000001FFFFE0000000001FFFF80FFFFFFFFFFFFFC07FFFFFF0001FFFFF
310
F0001FFFFFFFFC0007F0001FFFFFFFFC0007FF0003FFFFFFFFFF0000000000FF
310
F000FC0000000003FFFFE0007F00078007F0003FFF80007FFC0000000007FFFF
310
C0000000007FFFF80FFFFFFFFFFFFFC07FFFFFF0001FFFFFF8001FFFFFFFFC00
310
0FF8001FFFFFFFFC000FFF0003FFFFFFFFFE0000000003FFF000FC000000000F
310
FFFFE0007F80070007F8001FFF80007FF8000000001FFFFF8000000001FFFFF8
310
0FFFFFFFFFFFFFC07FFFFFF0001FFFFFF8001FFFFFFFFC000FF8001FFFFFFFFC
310
000FFF0003FFFFFFFFFC000000000FFFF000F8000000007FFFFFE0007F800700
310
07F8001FFF80007FF000000000FFFFFF800000000FFFFFF80FFFFFFFFFFFFFC0
310
7FFFFFF0001FFFFFF8000FFFFFFFF8000FF8000FFFFFFFF8000FFF0003FFFFFF
310
FFFC000000007FFFF000F800000007FFFFFFC0007F8003000FF8001FFF80007F
310
F000000007FFFFFF000000007FFFFFF80FFFFFFFFFFFFFC07FFFFFF0001FFFFF
310
F8000FFFFFFFF8000FF8000FFFFFFFF8000FFF0003FFFFFFFFF80000000FFFFF
310
F000F0000000FFFFFFFFC000FF8003000FF8001FFF80007FE0000000FFFFFFFF
310
0000000FFFFFFFF8000001FFFE0000007FFFFFF0001FFFFFF8000FFFFFFFF800
310
0FF8000FFFFFFFF8000FFF0003FFFFFFFFF8000000FFFFFFF000F000000FFFFF
310
FFFFC000FFC002000FF8000FFF80007FE000001FFFFFFFFE000001FFFFFFFFF8
310
000001FFFE0000007FFFFFF0001FFFFFF8000FFFFFFFF8000FF8000FFFFFFFF8
310
000FFF0003FFFFFFFFF000001FFFFFFFF000E00000FFFFFFFFFFC000FFC00200
310
0FFC000FFF80007FE00001FFFFFFFFFE00001FFFFFFFFFF8000001FFFE000000
310
7FFFFFF0001FFFFFFC000FFFFFFFF8001FFC000FFFFFFFF8001FFF0003FFFFFF
310
FFF00001FFFFFFFFF000E00007FFFFFFFFFF8000FFC000001FFC000FFF80007F
310
C0000FFFFFFFFFFE0000FFFFFFFFFFF8000001FFFE0000007FFFFFF0001FFFFF
310
FC0007FFFFFFF0001FFC0007FFFFFFF0001FFF0003FFFFFFFFF00007FFFFFFFF
310
F000E0001FFFFFFFFFFF8000FFC000001FFC000FFF80007FC0003FFFFFFFFFFE
310
0001FFFFFFFFFFF8000001FFFE0000007FFFFFF0001FFFFFFC0007FFFFFFF000
310
1FFC0007FFFFFFF0001FFF0003FFFFFFFFF0001FFFFFFFFFF000E0003FFFFF00
310
03FF8001FFE000001FFC0007FF80007FC0007FFFFF0007FC0003FFFFF0003FF8
310
000001FFFE0000007FFFFFF0001FFFFFFC0003FFFFFFE0001FFC0003FFFFFFE0
310
001FFF0003FFFFFFFFF0003FFFFFFFFFF000E0003FFFFF0001FF8001FFE00000
310
1FFE0007FF80007FC0007FFFFE0003FC0007FFFFE0003FF8000001FFFE000000
310
7FFFFFF0001FFFFFFE0003FFFFFFE0003FFE0003FFFFFFE0003FFF0003FFFFFF
310
FFF0003FFFFF8001F000E0003FFFFF0001FF0001FFE000001FFE0007FF80007F
310
C0007FFFFE0003FC0007FFFFE0003FF8000001FFFE0000007FFFFFF0001FFFFF
310
FE0001FFFFFFC0003FFE0001FFFFFFC0003FFF0003FFFFFFFFF0003FFFFF0001
310
F000E0003FFFFF0003FF0001FFE000003FFE0007FF80007FC0007FFFFE0003FC
310
0007FFFFE0003FF8000001FFFE0000007FFFFFF0001FFFFFFF0001FFFFFFC000
310
7FFF0001FFFFFFC0007FFF0003FFFFFFFFF0003FFFFF0001F000E0003FFFFE00
310
03FF0003FFF000003FFE0003FF80007FC0007FFFFC0003FE0007FFFFE0003FF8
310
000001FFFE0000007FFFFFF0001FFFFFFF0000FFFFFF80007FFF0000FFFFFF80
310
007FFF0003FFFFFFFFF0003FFFFF0001F000E0003FFFFE0003FF0003FFF00000
310
3FFF0003FF80007FC0007FFFFC0007FE0007FFFFC0003FF8000001FFFE000000
310
7FFFFFF0001FFFFFFF80007FFFFF0000FFFF80007FFFFF0000FFFF0003FFFFFF
310
FFF0003FFFFF0003F000E0003FFFFC0003FE0003FFF000003FFF0003FF80007F
310
E0003FFFF80007FE0003FFFFC0007FF8000001FFFE0000007FFFFFF0001FFFFF
310
FF80003FFFFE0000FFFF80003FFFFE0000FFFF0003FFFFFFFFF0001FFFFE0003
310
F000F0001FFFF80003FE0003FFF000007FFF0001FF80007FE0003FFFF00007FE
310
0001FFFF80007FF8000001FFFE0000007FFFFFF0001FFFFFFFC0000FFFF80001
310
FFFFC0000FFFF80001FFFF0003FFFFFFFFF0001FFFFC0003F000F0000FFFF000
310
07FE0007FFF800007FFF0001FF80007FE0001FFFE00007FF0000FFFE00007FF8
310
000001FFFE0000007FFFFFF0001FFFFFFFC00003FFE00001FFFFC00003FFE000
310
01FFFF0003FFFFFFFFF8000FFFF80003F000F00003FFC00007FC0007FFF80000
310
7FFF8001FF80007FF00007FF80000FFF00007FF80000FFF8000001FFFE000000
310
7F80000000000001FFE000003E000003FFFFE000003E000003FFFF0003FFFFFF
310
FFF80003FFE00007F000F800000000000FFC0007FFF800007FFF8001FF80007F
310
F000000000000FFF000000000000FFF8000001FFFE0000007F80000000000001
310
FFF0000000000007FFFFF0000000000007FFFF0003FFFFFFFFFC00007E000007
310
F000F800000000000FFC0007FFF80000FFFF8000FF80007FF800000000001FFF
310
800000000001FFF8000001FFFE0000007F80000000000001FFF800000000000F
310
FFFFF800000000000FFFFF0003FFFFFFFFFC00000000000FF000FC0000000000
310
1FFC0007FFFC0000FFFF8000FF80007FF800000000003FFFC00000000001FFF8
310
000001FFFE0000007F80000000000001FFF800000000000FFFFFF80000000000
310
0FFFFF0003FFFFFFFFFE00000000001FF000FE00000000003FF8000FFFFC0000
310
FFFF8000FF80007FFC00000000003FFFC00000000003FFF8000001FFFE000000
310
7F80000000000001FFFC00000000001FFFFFFC00000000001FFFFF0003FFFFFF
310
FFFF00000000001FF000FF00000000003FF8000FFFFC0000FFFFC000FF80007F
310
FE00000000007FFFE00000000007FFF8000001FFFE0000007F80000000000001
310
FFFE00000000003FFFFFFE00000000003FFFFF0003FFFFFFFFFF80000000003F
310
F000FF80000000007FF8000FFFFC0001FFFFC0007F80007FFF0000000000FFFF
310
F0000000000FFFF800000000000000007F80000000000001FFFF8000000000FF
310
FFFFFF8000000000FFFFFF0003FFFFFFFFFFC0000000007FF000FFC000000000
310
FFF8000FFFFE0001FFFFC0007F80007FFF8000000001FFFFF8000000001FFFF8
310
00000000000000007F80000000000001FFFFC000000001FFFFFFFFC000000001
310
FFFFFF0003FFFFFFFFFFE000000000FFF000FFE000000003FFF0001FFFFE0001
310
FFFFC0007F80007FFFC000000007FFFFFE000000003FFFF80000000000000000
310
7F80000000000001FFFFE000000003FFFFFFFFE000000003FFFFFF0003FFFFFF
310
FFFFF000000003FFF000FFF80000000FFFF0001FFFFE0001FFFFE0007F80007F
310
FFF00000000FFFFFFF00000000FFFFF800000000000000007F80000000000001
310
FFFFF80000000FFFFFFFFFF80000000FFFFFFF0003FFFFFFFFFFFC0000000FFF
310
F000FFFE0000003FFFF0001FFFFE0003FFFFE0003F80007FFFFC0000003FFFFF
310
FFC0000003FFFFF800000000000000007F80000000000001FFFFFE0000003FFF
310
FFFFFFFE0000003FFFFFFF0003FFFFFFFFFFFF0000003FFFF000FFFF800000FF
310
FFF0001FFFFF0003FFFFE0003F80007FFFFF000001FFFFFFFFF800001FFFFFF8
310
00000000000000007F80000000000001FFFFFFC00001FFFFFFFFFFFFC00001FF
310
FFFFFF0003FFFFFFFFFFFFC00000FFFFF000FFFFF8000FFFFFFFFFFFFFFFFFFF
310
FFFFFFFFFFFFFFFFFFFFF0001FFFFFFFFFFF0000FFFFFFF80000000000000000
310
7FFFFFFFFFFFFFFFFFFFFFFC001FFFFFFFFFFFFFFC001FFFFFFFFFFFFFFFFFFF
310
FFFFFFFC001FFFFFF000FFFFFFFFFFFFFFFFFFFFFFFFFFFFFFFFFFFFFFFFFFFF
310
FFFFFFFFFFFFFFFFFFFFFFFFFFFFFFFFFFFFFFFFFFFFFFFFFFFFFFFFFFFFFFFF
310
FFFFFFFFFFFFFFFFFFFFFFFFFFFFFFFFFFFFFFFFFFFFFFFFFFFFFFFFFFFFFFFF
310
F000FFFFFFFFFFFFFFFFFFFFFFFFFFFFFFFFFFFFFFFFFFFFFFFFFFFFFFFFFFFF
310
FFFFFFFFFFFFFFFFFFFFFFFFFFFFFFFFFFFFFFFFFFFFFFFFFFFFFFFFFFFFFFFF
310
FFFFFFFFFFFFFFFFFFFFFFFFFFFFFFFFFFFFFFFFFFFFFFFFF000FFFFFFFFFFFF
310
FFFFFFFFFFFFFFFFFFFFFFFFFFFFFFFFFFFFFFFFFFFFFFFFFFFFFFFFFFFFFFFF
310
FFFFFFFFFFFFFFFFFFFFFFFFFFFFFFFFFFFFFFFFFFFFFFFFFFFFFFFFFFFFFFFF
310
FFFFFFFFFFFFFFFFFFFFFFFFFFFFFFFFF000FFFFFFFFFFFFFFFFFFFFFFFFFFFF
310
FFFFFFFFFFFFFFFFFFFFFFFFFFFFFFFFFFFFFFFFFFFFFFFFFFFFFFFFFFFFFFFF
310
FFFFFFFFFFFFFFFFFFFFFFFFFFFFFFFFFFFFFFFFFFFFFFFFFFFFFFFFFFFFFFFF
310
FFFFFFFFFFFFFFFFF000FFFFFFFFFFFFFFFFFFFFFFFFFFFFFFFFFFFFFFFFFFFF
310
FFFFFFFFFFFFFFFFFFFFFFFFFFFFFFFFFFFFFFFFFFFFFFFFFFFFFFFFFFFFFFFF
310
FFFFFFFFFFFFFFFFFFFFFFFFFFFFFFFFFFFFFFFFFFFFFFFFFFFFFFFFFFFFFFFF
310
F000FFFFFFFFFFFFFFFFFFFFFFFFFFFFFFFFFFFFFFFFFFFFFFFFFFFFFFFFFFFF
310
FFFFFFFFFFFFFFFFFFFFFFFFFFFFFFFFFFFFFFFFFFFFFFFFFFFFFFFFFFFFFFFF
310
FFFFFFFFFFFFFFFFFFFFFFFFFFFFFFFFFFFFFFFFFFFFFFFFF000FFFFFFFFFFFF
310
FFFFFFFFFFFFFFFFFFFFFFFFFFFFFFFFFFFFFFFFFFFFFFFFFFFFFFFFFFFFFFFF
310
FFFFFFFFFFFFFFFFFFFFFFFFFFFFFFFFFFFFFFFFFFFFFFFFFFFFFFFFFFFFFFFF
310
FFFFFFFFFFFFFFFFFFFFFFFFFFFFFFFFF000FFFFFFFFFFFFFFFFFFFFFFFFFFFF
310
FFFFFFFFFFFFFFFFFFFFFFFFFFFFFFFFFFFFFFFFFFFFFFFFFFFFFFFFFFFFFFFF
310
FFFFFFFFFFFFFFFFFFFFFFFFFFFFFFFFFFFFFFFFFFFFFFFFFFFFFFFFFFFFFFFF
310
FFFFFFFFFFFFFFFFF000FFFFFFFFFFFFFFFFFFFFFFFFFFFFFFFFFFFFFFFFFFFF
310
FFFFFFFFFFFFFFFFFFFFFFFFFFFFFFFFFFFFFFFFFFFFFFFFFFFFFFFFFFFFFFFF
310
FFFFFFFFFFFFFFFFFFFFFFFFFFFFFFFFFFFFFFFFFFFFFFFFFFFFFFFFFFFFFFFF
310
F000FFFFFFFFFFFFFFFFFFFFFFFFFFFFFFFFFFFFFFFFFFFFFFFFFFFFFFFFFFFF
310
FFFFFFFFFFFFFFFFFFFFFFFFFFFFFFFFFFFFFFFFFFFFFFFFFFFFFFFFFFFFFFFF
310
FFFFFFFFFFFFFFFFFFFFFFFFFFFFFFFFFFFFFFFFFFFFFFFFF000FFFFFFFFFFFF
310
FFFFFFFFFFFFFFFFFFFFFFFFFFFFFFFFFFFFFFFFFFFFFFFFFFFFFFFFFFFFFFFF
310
FFFFFFFFFFFFFFFFFFFFFFFFFFFFFFFFFFFFFFFFFFFFFFFFFFFFFFFFFFFFFFFF
310
FFFFFFFFFFFFFFFFFFFFFFFFFFFFFFFFF000FFFFFFFFFFFFFFFFFFFFFFFFFFFF
310
FFFFFFFFFFFFFFFFFFFFFFFFFFFFFFFFFFFFFFFFFFFFFFFFFFFFFFFFFFFFFFFF
310
FFFFFFFFFFFFFFFFFFFFFFFFFFFFFFFFFFFFFFFFFFFFFFFFFFFFFFFFFFFFFFFF
310
FFFFFFFFFFFFFFFFF000FFFFFFFFFFFFFFFFFFFFFFFFFFFFFFFFFFFFFFFFFFFF
310
FFFFFFFFFFFFFFFFFFFFFFFFFFFFFFFFFFFFFFFFFFFFFFFFFFFFFFFFFFFFFFFF
310
FFFFFFFFFFFFFFFFFFFFFFFFFFFFFFFFFFFFFFFFFFFFFFFFFFFFFFFFFFFFFFFF
310
F000FFFFFFFFFFFFFFFFFFFFFFFFFFFFFFFFFFFFFFFFFFFFFFFFFFFFFFFFFFFF
310
FFFFFFFFFFFFFFFFFFFFFFFFFFFFFFFFFFFFFFFFFFFFFFFFFFFFFFFFFFFFFFFF
310
FFFFFFFFFFFFFFFFFFFFFFFFFFFFFFFFFFFFFFFFFFFFFFFFF000FFFFFFFFFFFF
310
FFFFFFFFFFFFFFFFFFFFFFFFFFFFFFFFFFFFFFFFFFFFFFFFFFFFFFFFFFFFFFFF
310
FFFFFFFFFFFFFFFFFFFFFFFFFFFFFFFFFFFFFFFFFFFFFFFFFFFFFFFFFFFFFFFF
310
FFFFFFFFFFFFFFFFFFFFFFFFFFFFFFFFF000FFFFFFFFFFFFFFFFFFFFFFFFFFFF
310
FFFFFFFFFFFFFFFFFFFFFFFFFFFFFFFFFFFFFFFFFFFFFFFFFFFFFFFFFFFFFFFF
310
FFFFFFFFFFFFFFFFFFFFFFFFFFFFFFFFFFFFFFFFFFFFFFFFFFFFFFFFFFFFFFFF
310
FFFFFFFFFFFFFFFFF000FFFFFFFFFFFFFFFFFFFFFFFFFFFFFFFFFFFFFFFFFFFF
310
FFFFFFFFFFFFFFFFFFFFFFFFFFFFFFFFFFFFFFFFFFFFFFFFFFFFFFFFFFFFFFFF
310
FFFFFFFFFFFFFFFFFFFFFFFFFFFFFFFFFFFFFFFFFFFFFFFFFFFFFFFFFFFFFFFF
310
F000FFFFFFFFFFFFFFFFFFFFFFFFFFFFFFFFFFFFFFFFFFFFFFFFFFFFFFFFFFFF
310
FFFFFFFFFFFFFFFFFFFFFFFFFFFFFFFFFFFFFFFFFFFFFFFFFFFFFFFFFFFFFFFF
310
FFFFFFFFFFFFFFFFFFFFFFFFFFFFFFFFFFFFFFFFFFFFFFFFF000FFFFFFFFFFFF
310
FFFFFFFFFFFFFFFFFFFFFFFFFFFFFFFFFFFFFFFFFFFFFFFFFFFFFFFFFFFFFFFF
310
FFFFFFFFFFFFFFFFFFFFFFFFFFFFFFFFFFFFFFFFFFFFFFFFFFFFFFFFFFFFFFFF
310
FFFFFFFFFFFFFFFFFFFFFFFFFFFFFFFFF000FFFFFFFFFFFFFFFFFFFFFFFFFFFF
310
FFFFFFFFFFFFFFFFFFFFFFFFFFFFFFFFFFFFFFFFFFFFFFFFFFFFFFFFFFFFFFFF
310
FFFFFFFFFFFFFFFFFFFFFFFFFFFFFFFFFFFFFFFFFFFFFFFFFFFFFFFFFFFFFFFF
310
FFFFFFFFFFFFFFFFF000FFFFFFFFFFFFFFFFFFFFFFFFFFFFFFFFFFFFFFFFFFFF
310
FFFFFFFFFFFFFFFFFFFFFFFFFFFFFFFFFFFFFFFFFFFFFFFFFFFFFFFFFFFFFFFF
310
FFFFFFFFFFFFFFFFFFFFFFFFFFFFFFFFFFFFFFFFFFFFFFFFFFFFFFFFFFFFFFFF
310
F000FFFFFFFFFFFFFFFFFFFFFFFFFFFFFFFFFFFFFFFFFFFFFFFFFFFFFFFFFFFF
310
FFFFFFFFFFFFFFFFFFFFFFFFFFFFFFFFFFFFFFFFFFFFFFFFFFFFFFFFFFFFFFFF
310
FFFFFFFFFFFFFFFFFFFFFFFFFFFFFFFFFFFFFFFFFFFFFFFFF000FFFFFFFFFFFF
310
FFFFFFFFFFFFFFFFFFFFFFFFFFFFFFFFFFFFFFFFFFFFFFFFFFFFFFFFFFFFFFFF
310
FFFFFFFFFFFFFFFFFFFFFFFFFFFFFFFFFFFFFFFFFFFFFFFFFFFFFFFFFFFFFFFF
310
FFFFFFFFFFFFFFFFFFFFFFFFFFFFFFFFF0000000000000000000000000000000
310
0000000001000000010000000100000001000000010000000100000001000000
310
0100000001000000010000000100000001000000010000000100000001000000
310
0100000001000000010000000100000001000000010000000100000001000000
310
0100000001000000000000000100000001000000000000000100000001000000
310
0100000001000000010000000000000001000000010000000100000001000000
310
0100000001000000010000000000CE420000D0420000D2420000D4420000D642
310
0000D8420000DA420000DC420000DE420000E0420000E2429F0110030000E605
310
303A776400000000C0D46D64000000000000F0420000F2420000F4420000F642
310
0000F8420000FA420000FC420000FE4200000043000001430000024300000343
310
00000443000005430000064300000743000008430000094300000A4300000B43
310
00000C4300000D4300000E4300000F4300001043000011430000124300001343
310
00001443000015430000164300001743000018430000194300001A4300001B43
310
00001C4300001D4300001E4300001F4300002043000021430000224300002343
310
00002443000025430000264300002743000028430000294300002A4300002B43
310
00002C4300002D4300002E4300002F4300003043000031430000324300003343
  1
OLE
  0
ENDSEC
  0
SECTION
  2
OBJECTS
  0
DICTIONARY
  5
C
330
0
100
AcDbDictionary
281
     1
  3
ACAD_GROUP
350
D
  3
ACAD_LAYOUT
350
1A
  3
ACAD_MLEADERSTYLE
350
238
  3
ACAD_MLINESTYLE
350
17
  3
ACAD_PLOTSETTINGS
350
19
  3
ACAD_PLOTSTYLENAME
350
E
  3
ACAD_TABLESTYLE
350
237
  3
ACAD_VISUALSTYLE
350
2A
  3
AcDbVariableDictionary
350
239
  0
DICTIONARY
  5
D
102
{ACAD_REACTORS
330
C
102
}
330
C
100
AcDbDictionary
281
     1
  0
DICTIONARY
  5
1A
102
{ACAD_REACTORS
330
C
102
}
330
C
100
AcDbDictionary
281
     1
  3
Layout1
350
1E
  3
Layout2
350
26
  3
Model
350
22
  0
DICTIONARY
  5
238
102
{ACAD_REACTORS
330
C
102
}
330
C
100
AcDbDictionary
281
     1
  0
DICTIONARY
  5
17
102
{ACAD_REACTORS
330
C
102
}
330
C
100
AcDbDictionary
281
     1
  3
Standard
350
18
  0
DICTIONARY
  5
19
102
{ACAD_REACTORS
330
C
102
}
330
C
100
AcDbDictionary
281
     1
  0
ACDBDICTIONARYWDFLT
  5
E
102
{ACAD_REACTORS
330
C
102
}
330
C
100
AcDbDictionary
281
     1
  3
Normal
350
F
100
AcDbDictionaryWithDefault
340
F
  0
DICTIONARY
  5
237
102
{ACAD_REACTORS
330
C
102
}
330
C
100
AcDbDictionary
281
     1
  0
DICTIONARY
  5
2A
102
{ACAD_REACTORS
330
C
102
}
330
C
100
AcDbDictionary
281
     1
  3
2dWireframe
350
2F
  3
3D Hidden
350
31
  3
3dWireframe
350
30
  3
Basic
350
32
  3
Brighten
350
36
  3
ColorChange
350
3A
  3
Conceptual
350
34
  3
Dim
350
35
  3
Facepattern
350
39
  3
Flat
350
2B
  3
FlatWithEdges
350
2C
  3
Gouraud
350
2D
  3
GouraudWithEdges
350
2E
  3
Linepattern
350
38
  3
Realistic
350
33
  3
Thicken
350
37
  0
DICTIONARY
  5
239
102
{ACAD_REACTORS
330
C
102
}
330
C
100
AcDbDictionary
281
     1
  3
PSOLHEIGHT
350
23B
  3
PSOLWIDTH
350
23A
  0
LAYOUT
  5
1E
102
{ACAD_REACTORS
330
1A
102
}
330
1A
100
AcDbPlotSettings
  1

  2
none_device
  4

  6

 40
0.0
 41
0.0
 42
0.0
 43
0.0
 44
0.0
 45
0.0
 46
0.0
 47
0.0
 48
0.0
 49
0.0
140
0.0
141
0.0
142
1.0
143
1.0
 70
   688
 72
     0
 73
     0
 74
     5
  7

 75
    16
147
1.0
148
0.0
149
0.0
100
AcDbLayout
  1
Layout1
 70
     1
 71
     1
 10
0.0
 20
0.0
 11
420.0
 21
297.0
 12
0.0
 22
0.0
 32
0.0
 14
1.0000000000E+20
 24
1.0000000000E+20
 34
1.0000000000E+20
 15
-1.0000000000E+20
 25
-1.0000000000E+20
 35
-1.0000000000E+20
146
0.0
 13
0.0
 23
0.0
 33
0.0
 16
1.0
 26
0.0
 36
0.0
 17
0.0
 27
1.0
 37
0.0
 76
     0
330
1B
  0
LAYOUT
  5
26
102
{ACAD_REACTORS
330
1A
102
}
330
1A
100
AcDbPlotSettings
  1

  2
none_device
  4

  6

 40
0.0
 41
0.0
 42
0.0
 43
0.0
 44
0.0
 45
0.0
 46
0.0
 47
0.0
 48
0.0
 49
0.0
140
0.0
141
0.0
142
1.0
143
1.0
 70
   688
 72
     0
 73
     0
 74
     5
  7

 75
    16
147
1.0
148
0.0
149
0.0
100
AcDbLayout
  1
Layout2
 70
     1
 71
     2
 10
0.0
 20
0.0
 11
0.0
 21
0.0
 12
0.0
 22
0.0
 32
0.0
 14
0.0
 24
0.0
 34
0.0
 15
0.0
 25
0.0
 35
0.0
146
0.0
 13
0.0
 23
0.0
 33
0.0
 16
1.0
 26
0.0
 36
0.0
 17
0.0
 27
1.0
 37
0.0
 76
     0
330
23
  0
LAYOUT
  5
22
102
{ACAD_REACTORS
330
1A
102
}
330
1A
100
AcDbPlotSettings
  1

  2
none_device
  4

  6

 40
0.0
 41
0.0
 42
0.0
 43
0.0
 44
0.0
 45
0.0
 46
0.0
 47
0.0
 48
0.0
 49
0.0
140
0.0
141
0.0
142
1.0
143
1.0
 70
  1712
 72
     0
 73
     0
 74
     0
  7

 75
     0
147
1.0
148
0.0
149
0.0
100
AcDbLayout
  1
Model
 70
     1
 71
     0
 10
0.0
 20
0.0
 11
297.0
 21
210.0
 12
0.0
 22
0.0
 32
0.0
 14
0.0
 24
0.0
 34
0.0
 15
297.0
 25
210.0
 35
0.0
146
0.0
 13
0.0
 23
0.0
 33
0.0
 16
1.0
 26
0.0
 36
0.0
 17
0.0
 27
1.0
 37
0.0
 76
     0
330
1F
331
29
  0
MLINESTYLE
  5
18
102
{ACAD_REACTORS
330
17
102
}
330
17
100
AcDbMlineStyle
  2
Standard
 70
     0
  3

 62
   256
 51
90.0
 52
90.0
 71
     2
 49
0.5
 62
   256
  6
BYLAYER
 49
-0.5
 62
   256
  6
BYLAYER
  0
ACDBPLACEHOLDER
  5
F
102
{ACAD_REACTORS
330
E
102
}
330
E
  0
VISUALSTYLE
  5
2F
102
{ACAD_REACTORS
330
2A
102
}
330
2A
100
AcDbVisualStyle
  2
2dWireframe
 70
     4
 71
     0
 72
     2
 73
     0
 90
        0
 40
-0.6
 41
-30.0
 62
     5
 63
     7
 74
     1
 91
        4
 64
     7
 65
   257
 75
     1
175
     1
 42
1.0
 92
        0
 66
   257
 43
1.0
 76
     1
 77
     6
 78
     2
 67
     7
 79
     5
170
     0
171
     0
290
     0
174
     0
 93
        1
 44
0.0
173
     0
291
     0
 45
0.0
1001
ACAD
1000
AcDbSavedByObjectVersion
1070
     0
  0
VISUALSTYLE
  5
31
102
{ACAD_REACTORS
330
2A
102
}
330
2A
100
AcDbVisualStyle
  2
3D Hidden
 70
     6
 71
     1
 72
     2
 73
     2
 90
        0
 40
-0.6
 41
-30.0
 62
     5
 63
     7
 74
     2
 91
        2
 64
     7
 65
   257
 75
     2
175
     1
 42
40.0
 92
        0
 66
   257
 43
1.0
 76
     1
 77
     6
 78
     2
 67
     7
 79
     3
170
     0
171
     0
290
     0
174
     0
 93
        1
 44
0.0
173
     0
291
     0
 45
0.0
1001
ACAD
1000
AcDbSavedByObjectVersion
1070
     0
  0
VISUALSTYLE
  5
30
102
{ACAD_REACTORS
330
2A
102
}
330
2A
100
AcDbVisualStyle
  2
3dWireframe
 70
     5
 71
     0
 72
     2
 73
     0
 90
        0
 40
-0.6
 41
-30.0
 62
     5
 63
     7
 74
     1
 91
        4
 64
     7
 65
   257
 75
     1
175
     1
 42
1.0
 92
        0
 66
   257
 43
1.0
 76
     1
 77
     6
 78
     2
 67
     7
 79
     5
170
     0
171
     0
290
     0
174
     0
 93
        1
 44
0.0
173
     0
291
     0
 45
0.0
1001
ACAD
1000
AcDbSavedByObjectVersion
1070
     0
  0
VISUALSTYLE
  5
32
102
{ACAD_REACTORS
330
2A
102
}
330
2A
100
AcDbVisualStyle
  2
Basic
 70
     7
 71
     1
 72
     0
 73
     1
 90
        0
 40
-0.6
 41
-30.0
 62
     5
 63
     7
 74
     0
 91
        4
 64
     7
 65
   257
 75
     1
175
     1
 42
1.0
 92
        8
 66
     7
 43
1.0
 76
     1
 77
     6
 78
     2
 67
     7
 79
     5
170
     0
171
     0
290
     0
174
     0
 93
        1
 44
0.0
173
     0
291
     1
 45
0.0
1001
ACAD
1000
AcDbSavedByObjectVersion
1070
     0
  0
VISUALSTYLE
  5
36
102
{ACAD_REACTORS
330
2A
102
}
330
2A
100
AcDbVisualStyle
  2
Brighten
 70
    12
 71
     2
 72
     2
 73
     0
 90
        0
 40
-0.6
 41
-30.0
 62
     5
 63
     7
 74
     1
 91
        4
 64
     7
 65
   257
 75
     1
175
     1
 42
1.0
 92
        8
 66
     7
 43
1.0
 76
     1
 77
     6
 78
     2
 67
     7
 79
     5
170
     0
171
     0
290
     0
174
     0
 93
        1
 44
50.0
173
     0
291
     1
 45
0.0
1001
ACAD
1000
AcDbSavedByObjectVersion
1070
     0
  0
VISUALSTYLE
  5
3A
102
{ACAD_REACTORS
330
2A
102
}
330
2A
100
AcDbVisualStyle
  2
ColorChange
 70
    16
 71
     2
 72
     2
 73
     3
 90
        0
 40
-0.6
 41
-30.0
 62
     5
 63
     8
 74
     1
 91
        4
 64
     7
 65
   257
 75
     1
175
     1
 42
1.0
 92
        8
 66
     8
 43
1.0
 76
     1
 77
     6
 78
     2
 67
     7
 79
     5
170
     0
171
     0
290
     0
174
     0
 93
        1
 44
0.0
173
     0
291
     1
 45
0.0
1001
ACAD
1000
AcDbSavedByObjectVersion
1070
     0
  0
VISUALSTYLE
  5
34
102
{ACAD_REACTORS
330
2A
102
}
330
2A
100
AcDbVisualStyle
  2
Conceptual
 70
     9
 71
     3
 72
     2
 73
     0
 90
        0
 40
-0.6
 41
-30.0
 62
     5
 63
     7
 74
     2
 91
        2
 64
     7
 65
   257
 75
     1
175
     1
 42
40.0
 92
        8
 66
     7
 43
1.0
 76
     1
 77
     6
 78
     2
 67
     7
 79
     3
170
     0
171
     0
290
     0
174
     0
 93
        1
 44
0.0
173
     0
291
     0
 45
0.0
1001
ACAD
1000
AcDbSavedByObjectVersion
1070
     0
  0
VISUALSTYLE
  5
35
102
{ACAD_REACTORS
330
2A
102
}
330
2A
100
AcDbVisualStyle
  2
Dim
 70
    11
 71
     2
 72
     2
 73
     0
 90
        0
 40
-0.6
 41
-30.0
 62
     5
 63
     7
 74
     1
 91
        4
 64
     7
 65
   257
 75
     1
175
     1
 42
1.0
 92
        8
 66
     7
 43
1.0
 76
     1
 77
     6
 78
     2
 67
     7
 79
     5
170
     0
171
     0
290
     0
174
     0
 93
        1
 44
-50.0
173
     0
291
     1
 45
0.0
1001
ACAD
1000
AcDbSavedByObjectVersion
1070
     0
  0
VISUALSTYLE
  5
39
102
{ACAD_REACTORS
330
2A
102
}
330
2A
100
AcDbVisualStyle
  2
Facepattern
 70
    15
 71
     2
 72
     2
 73
     0
 90
        0
 40
-0.6
 41
-30.0
 62
     5
 63
     7
 74
     1
 91
        4
 64
     7
 65
   257
 75
     1
175
     1
 42
1.0
 92
        8
 66
     7
 43
1.0
 76
     1
 77
     6
 78
     2
 67
     7
 79
     5
170
     0
171
     0
290
     0
174
     0
 93
        1
 44
0.0
173
     0
291
     1
 45
0.0
1001
ACAD
1000
AcDbSavedByObjectVersion
1070
     0
  0
VISUALSTYLE
  5
2B
102
{ACAD_REACTORS
330
2A
102
}
330
2A
100
AcDbVisualStyle
  2
Flat
 70
     0
 71
     2
 72
     1
 73
     1
 90
        2
 40
-0.6
 41
30.0
 62
     5
 63
     7
 74
     0
 91
        4
 64
     7
 65
   257
 75
     1
175
     1
 42
1.0
 92
        8
 66
     7
 43
1.0
 76
     1
 77
     6
 78
     2
 67
     7
 79
     5
170
     0
171
     0
290
     0
174
     0
 93
       13
 44
0.0
173
     0
291
     1
 45
0.0
1001
ACAD
1000
AcDbSavedByObjectVersion
1070
     0
  0
VISUALSTYLE
  5
2C
102
{ACAD_REACTORS
330
2A
102
}
330
2A
100
AcDbVisualStyle
  2
FlatWithEdges
 70
     1
 71
     2
 72
     1
 73
     1
 90
        2
 40
-0.6
 41
30.0
 62
     5
 63
     7
 74
     1
 91
        4
 64
     7
 65
   257
 75
     1
175
     1
 42
1.0
 92
        0
 66
   257
 43
1.0
 76
     1
 77
     6
 78
     2
 67
     7
 79
     5
170
     0
171
     0
290
     0
174
     0
 93
       13
 44
0.0
173
     0
291
     1
 45
0.0
1001
ACAD
1000
AcDbSavedByObjectVersion
1070
     0
  0
VISUALSTYLE
  5
2D
102
{ACAD_REACTORS
330
2A
102
}
330
2A
100
AcDbVisualStyle
  2
Gouraud
 70
     2
 71
     2
 72
     2
 73
     1
 90
        2
 40
-0.6
 41
30.0
 62
     5
 63
     7
 74
     0
 91
        4
 64
     7
 65
   257
 75
     1
175
     1
 42
1.0
 92
        0
 66
     7
 43
1.0
 76
     1
 77
     6
 78
     2
 67
     7
 79
     5
170
     0
171
     0
290
     0
174
     0
 93
       13
 44
0.0
173
     0
291
     1
 45
0.0
1001
ACAD
1000
AcDbSavedByObjectVersion
1070
     0
  0
VISUALSTYLE
  5
2E
102
{ACAD_REACTORS
330
2A
102
}
330
2A
100
AcDbVisualStyle
  2
GouraudWithEdges
 70
     3
 71
     2
 72
     2
 73
     1
 90
        2
 40
-0.6
 41
30.0
 62
     5
 63
     7
 74
     1
 91
        4
 64
     7
 65
   257
 75
     1
175
     1
 42
1.0
 92
        0
 66
   257
 43
1.0
 76
     1
 77
     6
 78
     2
 67
     7
 79
     5
170
     0
171
     0
290
     0
174
     0
 93
       13
 44
0.0
173
     0
291
     1
 45
0.0
1001
ACAD
1000
AcDbSavedByObjectVersion
1070
     0
  0
VISUALSTYLE
  5
38
102
{ACAD_REACTORS
330
2A
102
}
330
2A
100
AcDbVisualStyle
  2
Linepattern
 70
    14
 71
     2
 72
     2
 73
     0
 90
        0
 40
-0.6
 41
-30.0
 62
     5
 63
     7
 74
     1
 91
        4
 64
     7
 65
   257
 75
     7
175
     7
 42
1.0
 92
        8
 66
     7
 43
1.0
 76
     1
 77
     6
 78
     2
 67
     7
 79
     5
170
     0
171
     0
290
     0
174
     0
 93
        1
 44
0.0
173
     0
291
     1
 45
0.0
1001
ACAD
1000
AcDbSavedByObjectVersion
1070
     0
  0
VISUALSTYLE
  5
33
102
{ACAD_REACTORS
330
2A
102
}
330
2A
100
AcDbVisualStyle
  2
Realistic
 70
     8
 71
     2
 72
     2
 73
     0
 90
        0
 40
-0.6
 41
-30.0
 62
     5
 63
     7
 74
     1
 91
        0
 64
     7
 65
   257
 75
     1
175
     1
 42
1.0
 92
        8
 66
     8
 43
1.0
 76
     1
 77
     6
 78
     2
 67
     7
 79
     5
170
     0
171
     0
290
     0
174
     0
 93
       13
 44
0.0
173
     0
291
     0
 45
0.0
1001
ACAD
1000
AcDbSavedByObjectVersion
1070
     0
  0
VISUALSTYLE
  5
37
102
{ACAD_REACTORS
330
2A
102
}
330
2A
100
AcDbVisualStyle
  2
Thicken
 70
    13
 71
     2
 72
     2
 73
     0
 90
        0
 40
-0.6
 41
-30.0
 62
     5
 63
     7
 74
     1
 91
        4
 64
     7
 65
   257
 75
     1
175
     1
 42
1.0
 92
       12
 66
     7
 43
1.0
 76
     1
 77
     6
 78
     2
 67
     7
 79
     5
170
     0
171
     0
290
     0
174
     0
 93
        1
 44
0.0
173
     0
291
     1
 45
0.0
1001
ACAD
1000
AcDbSavedByObjectVersion
1070
     0
  0
DICTIONARYVAR
  5
23B
102
{ACAD_REACTORS
330
239
102
}
330
239
100
DictionaryVariables
280
     0
  1
80.000000
  0
DICTIONARYVAR
  5
23A
102
{ACAD_REACTORS
330
239
102
}
330
239
100
DictionaryVariables
280
     0
  1
5.000000
  0
ENDSEC
  0
EOF
