  0
SECTION
  2
HEADER
  9
$ACADVER
  1
AC1015
  9
$ACADMAINTVER
 70
     6
  9
$DWGCODEPAGE
  3
ANSI_1252
  9
$INSBASE
 10
0.0
 20
0.0
 30
0.0
  9
$EXTMIN
 10
0.0
 20
0.0
 30
0.0
  9
$EXTMAX
 10
297.0
 20
210.0
 30
0.0
  9
$LIMMIN
 10
0.0
 20
0.0
  9
$LIMMAX
 10
297.0
 20
210.0
  9
$ORTHOMODE
 70
     0
  9
$REGENMODE
 70
     1
  9
$FILLMODE
 70
     1
  9
$QTEXTMODE
 70
     0
  9
$MIRRTEXT
 70
     1
  9
$LTSCALE
 40
1.0
  9
$ATTMODE
 70
     1
  9
$TEXTSIZE
 40
2.0
  9
$TRACEWID
 40
1.0
  9
$TEXTSTYLE
  7
Standard
  9
$CLAYER
  8
0
  9
$CELTYPE
  6
ByLayer
  9
$CECOLOR
 62
   256
  9
$CELTSCALE
 40
1.0
  9
$DISPSILH
 70
     0
  9
$DIMSCALE
 40
1.0
  9
$DIMASZ
 40
3.0
  9
$DIMEXO
 40
0.0
  9
$DIMDLI
 40
3.75
  9
$DIMRND
 40
0.0
  9
$DIMDLE
 40
0.0
  9
$DIMEXE
 40
1.0
  9
$DIMTP
 40
0.0
  9
$DIMTM
 40
0.0
  9
$DIMTXT
 40
2.0
  9
$DIMCEN
 40
2.5
  9
$DIMTSZ
 40
0.0
  9
$DIMTOL
 70
     0
  9
$DIMLIM
 70
     0
  9
$DIMTIH
 70
     1
  9
$DIMTOH
 70
     1
  9
$DIMSE1
 70
     0
  9
$DIMSE2
 70
     0
  9
$DIMTAD
 70
     1
  9
$DIMZIN
 70
     0
  9
$DIMBLK
  1

  9
$DIMASO
 70
     1
  9
$DIMSHO
 70
     1
  9
$DIMPOST
  1

  9
$DIMAPOST
  1

  9
$DIMALT
 70
     0
  9
$DIMALTD
 70
     3
  9
$DIMALTF
 40
0.0393700787
  9
$DIMLFAC
 40
1.0
  9
$DIMTOFL
 70
     1
  9
$DIMTVP
 40
0.0
  9
$DIMTIX
 70
     0
  9
$DIMSOXD
 70
     0
  9
$DIMSAH
 70
     0
  9
$DIMBLK1
  1

  9
$DIMBLK2
  1

  9
$DIMSTYLE
  2
ISO-25
  9
$DIMCLRD
 70
     0
  9
$DIMCLRE
 70
     0
  9
$DIMCLRT
 70
     0
  9
$DIMTFAC
 40
1.0
  9
$DIMGAP
 40
1.524
  9
$DIMJUST
 70
     0
  9
$DIMSD1
 70
     0
  9
$DIMSD2
 70
     0
  9
$DIMTOLJ
 70
     0
  9
$DIMTZIN
 70
     0
  9
$DIMALTZ
 70
     0
  9
$DIMALTTZ
 70
     0
  9
$DIMUPT
 70
     0
  9
$DIMDEC
 70
     2
  9
$DIMTDEC
 70
     3
  9
$DIMALTU
 70
     2
  9
$DIMALTTD
 70
     3
  9
$DIMTXSTY
  7
Standard
  9
$DIMAUNIT
 70
     0
  9
$DIMADEC
 70
     2
  9
$DIMALTRND
 40
0.0
  9
$DIMAZIN
 70
     0
  9
$DIMDSEP
 70
    44
  9
$DIMATFIT
 70
     3
  9
$DIMFRAC
 70
     0
  9
$DIMLDRBLK
  1

  9
$DIMLUNIT
 70
     2
  9
$DIMLWD
 70
    -2
  9
$DIMLWE
 70
    -2
  9
$DIMTMOVE
 70
     0
  9
$LUNITS
 70
     2
  9
$LUPREC
 70
     2
  9
$SKETCHINC
 40
1.0
  9
$FILLETRAD
 40
10.0
  9
$AUNITS
 70
     0
  9
$AUPREC
 70
     2
  9
$MENU
  1
.
  9
$ELEVATION
 40
0.0
  9
$PELEVATION
 40
0.0
  9
$THICKNESS
 40
0.0
  9
$LIMCHECK
 70
     0
  9
$CHAMFERA
 40
10.0
  9
$CHAMFERB
 40
10.0
  9
$CHAMFERC
 40
20.0
  9
$CHAMFERD
 40
0.0
  9
$SKPOLY
 70
     0
  9
$TDCREATE
 40
2455679.503190417
  9
$TDUCREATE
 40
2455679.419857083
  9
$TDUPDATE
 40
2455679.503190428
  9
$TDUUPDATE
 40
2455679.419857095
  9
$TDINDWG
 40
0.0000000116
  9
$TDUSRTIMER
 40
0.0000000116
  9
$USRTIMER
 70
     1
  9
$ANGBASE
 50
0.0
  9
$ANGDIR
 70
     0
  9
$PDMODE
 70
     0
  9
$PDSIZE
 40
-1.0
  9
$PLINEWID
 40
0.0
  9
$SPLFRAME
 70
     0
  9
$SPLINETYPE
 70
     6
  9
$SPLINESEGS
 70
     8
  9
$HANDSEED
  5
23B
  9
$SURFTAB1
 70
     6
  9
$SURFTAB2
 70
     6
  9
$SURFTYPE
 70
     6
  9
$SURFU
 70
     6
  9
$SURFV
 70
     6
  9
$UCSBASE
  2

  9
$UCSNAME
  2

  9
$UCSORG
 10
0.0
 20
0.0
 30
0.0
  9
$UCSXDIR
 10
1.0
 20
0.0
 30
0.0
  9
$UCSYDIR
 10
0.0
 20
1.0
 30
0.0
  9
$UCSORTHOREF
  2

  9
$UCSORTHOVIEW
 70
     0
  9
$UCSORGTOP
 10
0.0
 20
0.0
 30
0.0
  9
$UCSORGBOTTOM
 10
0.0
 20
0.0
 30
0.0
  9
$UCSORGLEFT
 10
0.0
 20
0.0
 30
0.0
  9
$UCSORGRIGHT
 10
0.0
 20
0.0
 30
0.0
  9
$UCSORGFRONT
 10
0.0
 20
0.0
 30
0.0
  9
$UCSORGBACK
 10
0.0
 20
0.0
 30
0.0
  9
$PUCSBASE
  2

  9
$PUCSNAME
  2

  9
$PUCSORG
 10
0.0
 20
0.0
 30
0.0
  9
$PUCSXDIR
 10
1.0
 20
0.0
 30
0.0
  9
$PUCSYDIR
 10
0.0
 20
1.0
 30
0.0
  9
$PUCSORTHOREF
  2

  9
$PUCSORTHOVIEW
 70
     0
  9
$PUCSORGTOP
 10
0.0
 20
0.0
 30
0.0
  9
$PUCSORGBOTTOM
 10
0.0
 20
0.0
 30
0.0
  9
$PUCSORGLEFT
 10
0.0
 20
0.0
 30
0.0
  9
$PUCSORGRIGHT
 10
0.0
 20
0.0
 30
0.0
  9
$PUCSORGFRONT
 10
0.0
 20
0.0
 30
0.0
  9
$PUCSORGBACK
 10
0.0
 20
0.0
 30
0.0
  9
$USERI1
 70
     0
  9
$USERI2
 70
     0
  9
$USERI3
 70
     0
  9
$USERI4
 70
     0
  9
$USERI5
 70
     0
  9
$USERR1
 40
0.0
  9
$USERR2
 40
0.0
  9
$USERR3
 40
0.0
  9
$USERR4
 40
0.0
  9
$USERR5
 40
0.0
  9
$WORLDVIEW
 70
     1
  9
$SHADEDGE
 70
     3
  9
$SHADEDIF
 70
    70
  9
$TILEMODE
 70
     1
  9
$MAXACTVP
 70
    64
  9
$PINSBASE
 10
0.0
 20
0.0
 30
0.0
  9
$PLIMCHECK
 70
     0
  9
$PEXTMIN
 10
1.0000000000E+20
 20
1.0000000000E+20
 30
1.0000000000E+20
  9
$PEXTMAX
 10
-1.0000000000E+20
 20
-1.0000000000E+20
 30
-1.0000000000E+20
  9
$PLIMMIN
 10
0.0
 20
0.0
  9
$PLIMMAX
 10
420.0
 20
297.0
  9
$UNITMODE
 70
     0
  9
$VISRETAIN
 70
     1
  9
$PLINEGEN
 70
     0
  9
$PSLTSCALE
 70
     1
  9
$TREEDEPTH
 70
  3020
  9
$CMLSTYLE
  2
Standard
  9
$CMLJUST
 70
     0
  9
$CMLSCALE
 40
20.0
  9
$PROXYGRAPHICS
 70
     1
  9
$MEASUREMENT
 70
     1
  9
$CELWEIGHT
370
    -1
  9
$ENDCAPS
280
     0
  9
$JOINSTYLE
280
     0
  9
$LWDISPLAY
290
     1
  9
$INSUNITS
 70
     4
  9
$HYPERLINKBASE
  1

  9
$STYLESHEET
  1

  9
$XEDIT
290
     1
  9
$CEPSNTYPE
380
     0
  9
$PSTYLEMODE
290
     1
  9
$FINGERPRINTGUID
  2
{DEEB8BFB-CF95-4990-B34A-D5EFFC8ABCED}
  9
$VERSIONGUID
  2
{FAEB1C32-E019-11D5-929B-00C0DF256EC4}
  9
$EXTNAMES
290
     1
  9
$PSVPSCALE
 40
0.0
  9
$OLESTARTUP
290
     0
  0
ENDSEC
  0
SECTION
  2
CLASSES
  0
CLASS
  1
ACDBDICTIONARYWDFLT
  2
AcDbDictionaryWithDefault
  3
ObjectDBX Classes
 90
        0
280
     0
281
     0
  0
CLASS
  1
VISUALSTYLE
  2
AcDbVisualStyle
  3
ObjectDBX Classes
 90
     4095
280
     0
281
     0
  0
CLASS
  1
DICTIONARYVAR
  2
AcDbDictionaryVar
  3
ObjectDBX Classes
 90
        0
280
     0
281
     0
  0
CLASS
  1
ACDBPLACEHOLDER
  2
AcDbPlaceHolder
  3
ObjectDBX Classes
 90
        0
280
     0
281
     0
  0
CLASS
  1
LAYOUT
  2
AcDbLayout
  3
ObjectDBX Classes
 90
        0
280
     0
281
     0
  0
ENDSEC
  0
SECTION
  2
TABLES
  0
TABLE
  2
VPORT
  5
8
330
0
100
AcDbSymbolTable
 70
     1
  0
VPORT
  5
29
330
8
100
AcDbSymbolTableRecord
100
AcDbViewportTableRecord
  2
*Active
 70
     0
 10
0.0
 20
0.0
 11
1.0
 21
1.0
 12
148.5
 22
105.0
 13
0.0
 23
0.0
 14
10.0
 24
10.0
 15
10.0
 25
10.0
 16
0.0
 26
0.0
 36
1.0
 17
0.0
 27
0.0
 37
0.0
 40
210.0
 41
1.4142857143
 42
50.0
 43
0.0
 44
0.0
 50
0.0
 51
0.0
 71
     0
 72
  2000
 73
     1
 74
     3
 75
     0
 76
     0
 77
     0
 78
     0
281
     0
 65
     1
110
0.0
120
0.0
130
0.0
111
1.0
121
0.0
131
0.0
112
0.0
122
1.0
132
0.0
 79
     0
146
0.0
  0
ENDTAB
  0
TABLE
  2
LTYPE
  5
5
330
0
100
AcDbSymbolTable
 70
     6
  0
LTYPE
  5
14
330
5
100
AcDbSymbolTableRecord
100
AcDbLinetypeTableRecord
  2
ByBlock
 70
     0
  3

 72
    65
 73
     0
 40
0.0
  0
LTYPE
  5
15
330
5
100
AcDbSymbolTableRecord
100
AcDbLinetypeTableRecord
  2
ByLayer
 70
     0
  3

 72
    65
 73
     0
 40
0.0
  0
LTYPE
  5
16
330
5
100
AcDbSymbolTableRecord
100
AcDbLinetypeTableRecord
  2
Continuous
 70
     0
  3
Solid line
 72
    65
 73
     0
 40
0.0
  0
LTYPE
  5
3B
330
5
100
AcDbSymbolTableRecord
100
AcDbLinetypeTableRecord
  2
HIDDEN
 70
     0
  3
Hidden __ __ __ __ __ __ __ __ __ __ __ __ __ __
 72
    65
 73
     2
 40
1.905
 49
1.27
 74
     0
 49
-0.635
 74
     0
  0
LTYPE
  5
3C
330
5
100
AcDbSymbolTableRecord
100
AcDbLinetypeTableRecord
  2
PHANTOM
 70
     0
  3
Phantom ______  __  __  ______  __  __  ______
 72
    65
 73
     6
 40
12.7
 49
6.35
 74
     0
 49
-1.27
 74
     0
 49
1.27
 74
     0
 49
-1.27
 74
     0
 49
1.27
 74
     0
 49
-1.27
 74
     0
  0
LTYPE
  5
3D
330
5
100
AcDbSymbolTableRecord
100
AcDbLinetypeTableRecord
  2
CENTER
 70
     0
  3
Center ____ _ ____ _ ____ _ ____ _ ____ _ ____
 72
    65
 73
     4
 40
10.16
 49
6.35
 74
     0
 49
-1.27
 74
     0
 49
1.27
 74
     0
 49
-1.27
 74
     0
  0
LTYPE
  5
3E
330
5
100
AcDbSymbolTableRecord
100
AcDbLinetypeTableRecord
  2
CENTERX2
 70
     0
  3
Center (2x) ________  __  ________  __  _____
 72
    65
 73
     4
 40
20.32
 49
12.7
 74
     0
 49
-2.54
 74
     0
 49
2.54
 74
     0
 49
-2.54
 74
     0
  0
LTYPE
  5
3F
330
5
100
AcDbSymbolTableRecord
100
AcDbLinetypeTableRecord
  2
DOT2
 70
     0
  3
Dot (.5x) ........................................
 72
    65
 73
     2
 40
0.635
 49
0.0
 74
     0
 49
-0.635
 74
     0
  0
ENDTAB
  0
TABLE
  2
LAYER
  5
2
330
0
100
AcDbSymbolTable
 70
     5
  0
LAYER
  5
10
330
2
100
AcDbSymbolTableRecord
100
AcDbLayerTableRecord
  2
0
 70
     0
 62
     7
  6
Continuous
370
    -3
390
F
  0
LAYER
  5
40
330
2
100
AcDbSymbolTableRecord
100
AcDbLayerTableRecord
  2
FORMAT
 70
     0
 62
     7
  6
Continuous
370
    -3
390
F
  0
LAYER
  5
41
330
2
100
AcDbSymbolTableRecord
100
AcDbLayerTableRecord
  2
VERMASSUNG
 70
     0
 62
     7
  6
Continuous
370
    -3
390
F
  0
LAYER
  5
42
330
2
100
AcDbSymbolTableRecord
100
AcDbLayerTableRecord
  2
KOPF_DÜNN
 70
     0
 62
     7
  6
Continuous
370
    -3
390
F
  0
LAYER
  5
43
330
2
100
AcDbSymbolTableRecord
100
AcDbLayerTableRecord
  2
KOPF_DICK
 70
     0
 62
     7
  6
Continuous
370
    15
390
F
  0
ENDTAB
  0
TABLE
  2
STYLE
  5
3
330
0
100
AcDbSymbolTable
 70
     3
  0
STYLE
  5
11
330
3
100
AcDbSymbolTableRecord
100
AcDbTextStyleTableRecord
  2
Standard
 70
     0
 40
0.0
 41
1.0
 50
0.0
 71
     0
 42
2.5
  3
txt
  4

  0
STYLE
  5
44
330
3
100
AcDbSymbolTableRecord
100
AcDbTextStyleTableRecord
  2
SLDTEXTSTYLE0
 70
     0
 40
0.0
 41
0.7
 50
0.0
 71
     0
 42
0.2
  3
TXT
  4

  0
STYLE
  5
48
330
3
100
AcDbSymbolTableRecord
100
AcDbTextStyleTableRecord
  2
SLDTEXTSTYLE1
 70
     0
 40
0.0
 41
0.6473684211
 50
0.0
 71
     0
 42
0.2
  3
TXT
  4

  0
ENDTAB
  0
TABLE
  2
VIEW
  5
6
330
0
100
AcDbSymbolTable
 70
     0
  0
ENDTAB
  0
TABLE
  2
UCS
  5
7
330
0
100
AcDbSymbolTable
 70
     0
  0
ENDTAB
  0
TABLE
  2
APPID
  5
9
330
0
100
AcDbSymbolTable
 70
     1
  0
APPID
  5
12
330
9
100
AcDbSymbolTableRecord
100
AcDbRegAppTableRecord
  2
ACAD
 70
     0
  0
ENDTAB
  0
TABLE
  2
DIMSTYLE
  5
A
330
0
100
AcDbSymbolTable
 70
     5
100
AcDbDimStyleTable
  0
DIMSTYLE
105
27
330
A
100
AcDbSymbolTableRecord
100
AcDbDimStyleTableRecord
  2
ISO-25
 70
     0
 41
2.5
 42
0.625
 43
3.75
 44
1.25
 73
     0
 74
     0
 77
     1
 78
     8
140
2.5
141
2.5
143
0.0393700787
147
0.625
171
     3
172
     1
271
     2
272
     2
274
     3
278
    44
283
     0
284
     8
340
11
  0
DIMSTYLE
105
1DC
102
{ACAD_REACTORS
330
1DB
330
20B
330
215
330
21F
330
229
102
}
330
A
100
AcDbSymbolTableRecord
100
AcDbDimStyleTableRecord
  2
SLDDIMSTYLE0
 70
     0
 41
3.0
 44
0.0
 45
0.000000001
 73
     0
 74
     0
 77
     1
 78
    12
140
2.0
147
0.5
173
     1
271
     2
272
     3
284
    12
340
44
  0
DIMSTYLE
105
1E9
102
{ACAD_REACTORS
330
1E8
102
}
330
A
100
AcDbSymbolTableRecord
100
AcDbDimStyleTableRecord
  2
SLDDIMSTYLE1
 70
     0
 41
3.0
 44
0.0
 45
0.000000001
 73
     0
 74
     0
 77
     1
 78
    12
140
2.0
147
0.5
173
     1
271
     2
272
     2
284
    12
340
44
  0
DIMSTYLE
105
1F4
102
{ACAD_REACTORS
330
1F3
102
}
330
A
100
AcDbSymbolTableRecord
100
AcDbDimStyleTableRecord
  2
SLDDIMSTYLE2
 70
     0
 41
3.0
 44
0.0
 45
0.000000001
 73
     0
 74
     0
 77
     1
 78
    12
140
2.0
147
0.5
173
     1
271
     2
272
     2
284
    12
340
44
  0
DIMSTYLE
105
200
102
{ACAD_REACTORS
330
1FF
102
}
330
A
100
AcDbSymbolTableRecord
100
AcDbDimStyleTableRecord
  2
SLDDIMSTYLE3
 70
     0
 41
3.0
 44
0.0
 45
0.000000001
 73
     0
 74
     0
 77
     1
 78
    12
140
2.0
147
0.5
173
     1
271
     2
272
     3
284
    12
340
44
  0
ENDTAB
  0
TABLE
  2
BLOCK_RECORD
  5
1
330
0
100
AcDbSymbolTable
 70
     9
  0
BLOCK_RECORD
  5
1F
330
1
100
AcDbSymbolTableRecord
100
AcDbBlockTableRecord
  2
*Model_Space
340
22
  0
BLOCK_RECORD
  5
1B
330
1
100
AcDbSymbolTableRecord
100
AcDbBlockTableRecord
  2
*Paper_Space
340
1E
  0
BLOCK_RECORD
  5
23
330
1
100
AcDbSymbolTableRecord
100
AcDbBlockTableRecord
  2
*Paper_Space0
340
26
  0
BLOCK_RECORD
  5
1DD
330
1
100
AcDbSymbolTableRecord
100
AcDbBlockTableRecord
  2
*D1
340
0
  0
BLOCK_RECORD
  5
1EA
330
1
100
AcDbSymbolTableRecord
100
AcDbBlockTableRecord
  2
*D2
340
0
  0
BLOCK_RECORD
  5
1F5
330
1
100
AcDbSymbolTableRecord
100
AcDbBlockTableRecord
  2
*D3
340
0
  0
BLOCK_RECORD
  5
201
330
1
100
AcDbSymbolTableRecord
100
AcDbBlockTableRecord
  2
*D4
340
0
  0
BLOCK_RECORD
  5
20C
330
1
100
AcDbSymbolTableRecord
100
AcDbBlockTableRecord
  2
*D5
340
0
  0
BLOCK_RECORD
  5
216
330
1
100
AcDbSymbolTableRecord
100
AcDbBlockTableRecord
  2
*D6
340
0
  0
BLOCK_RECORD
  5
220
330
1
100
AcDbSymbolTableRecord
100
AcDbBlockTableRecord
  2
*D7
340
0
  0
BLOCK_RECORD
  5
22A
330
1
100
AcDbSymbolTableRecord
100
AcDbBlockTableRecord
  2
*D8
340
0
  0
ENDTAB
  0
ENDSEC
  0
SECTION
  2
BLOCKS
  0
BLOCK
  5
20
330
1F
100
AcDbEntity
  8
0
100
AcDbBlockBegin
  2
*Model_Space
 70
     0
 10
0.0
 20
0.0
 30
0.0
  3
*Model_Space
  1

  0
ENDBLK
  5
21
330
1F
100
AcDbEntity
  8
0
100
AcDbBlockEnd
  0
BLOCK
  5
1C
330
1B
100
AcDbEntity
 67
     1
  8
0
100
AcDbBlockBegin
  2
*Paper_Space
 70
     0
 10
0.0
 20
0.0
 30
0.0
  3
*Paper_Space
  1

  0
ENDBLK
  5
1D
330
1B
100
AcDbEntity
 67
     1
  8
0
100
AcDbBlockEnd
  0
BLOCK
  5
24
330
23
100
AcDbEntity
  8
0
100
AcDbBlockBegin
  2
*Paper_Space0
 70
     0
 10
0.0
 20
0.0
 30
0.0
  3
*Paper_Space0
  1

  0
ENDBLK
  5
25
330
23
100
AcDbEntity
  8
0
100
AcDbBlockEnd
  0
BLOCK
  5
1DE
330
1DD
100
AcDbEntity
  8
0
100
AcDbBlockBegin
  2
*D1
 70
     1
 10
0.0
 20
0.0
 30
0.0
  3
*D1
  1

  0
SOLID
  5
1E0
330
1DD
100
AcDbEntity
  8
VERMASSUNG
100
AcDbTrace
 10
61.4739978332
 20
139.632936078
 30
0.0
 11
61.0239978332
 21
136.632936078
 31
0.0
 12
61.9239978332
 22
136.632936078
 32
0.0
 13
61.9239978332
 23
136.632936078
 33
0.0
  0
SOLID
  5
1E1
330
1DD
100
AcDbEntity
  8
VERMASSUNG
100
AcDbTrace
 10
61.4739978332
 20
76.632936078
 30
0.0
 11
61.9239978332
 21
79.632936078
 31
0.0
 12
61.0239978332
 22
79.632936078
 32
0.0
 13
61.0239978332
 23
79.632936078
 33
0.0
  0
LINE
  5
1E2
330
1DD
100
AcDbEntity
  8
VERMASSUNG
100
AcDbLine
 10
99.0822766111
 20
139.632936078
 30
0.0
 11
60.4739978332
 21
139.632936078
 31
0.0
  0
LINE
  5
1E3
330
1DD
100
AcDbEntity
  8
VERMASSUNG
100
AcDbLine
 10
99.0822766111
 20
76.632936078
 30
0.0
 11
60.4739978332
 21
76.632936078
 31
0.0
  0
LINE
  5
1E4
330
1DD
100
AcDbEntity
  8
VERMASSUNG
100
AcDbLine
 10
61.4739978332
 20
139.632936078
 30
0.0
 11
61.4739978332
 21
76.632936078
 31
0.0
  0
MTEXT
  5
1E5
330
1DD
100
AcDbEntity
  8
VERMASSUNG
100
AcDbMText
 10
58.6958623441
 20
100.4293943662
 30
0.0
 40
2.0
 41
0.0
 71
     1
 72
     1
  1
HSK A 
  7
SLDTEXTSTYLE0
 11
-7.044195017643634E-15
 21
1.0
 31
0.0
 73
     1
 44
1.0
  0
MTEXT
  5
1E6
330
1DD
100
AcDbEntity
  8
VERMASSUNG
100
AcDbMText
 10
58.8958623536
 20
109.4293949101
 30
0.0
 40
2.0
 41
0.0
 71
     1
 72
     1
  1
%%c
  7
SLDTEXTSTYLE0
 11
-7.044195017643634E-15
 21
1.0
 31
0.0
 73
     1
 44
1.0
  0
MTEXT
  5
1E7
330
1DD
100
AcDbEntity
  8
VERMASSUNG
100
AcDbMText
 10
58.89586247
 20
113.0377215601
 30
0.0
 40
2.0
 41
0.0
 71
     1
 72
     1
  1
63
  7
SLDTEXTSTYLE0
 11
-7.044195017643634E-15
 21
1.0
 31
0.0
 73
     1
 44
1.0
  0
ENDBLK
  5
1DF
330
1DD
100
AcDbEntity
  8
0
100
AcDbBlockEnd
  0
BLOCK
  5
1EB
330
1EA
100
AcDbEntity
  8
0
100
AcDbBlockBegin
  2
*D2
 70
     1
 10
0.0
 20
0.0
 30
0.0
  3
*D2
  1

  0
SOLID
  5
1ED
330
1EA
100
AcDbEntity
  8
VERMASSUNG
100
AcDbTrace
 10
187.2822766111
 20
140.9561213434
 30
0.0
 11
190.2822766111
 21
140.5061213434
 31
0.0
 12
190.2822766111
 22
141.4061213434
 32
0.0
 13
190.2822766111
 23
141.4061213434
 33
0.0
  0
SOLID
  5
1EE
330
1EA
100
AcDbEntity
  8
VERMASSUNG
100
AcDbTrace
 10
228.7822766111
 20
140.9561213434
 30
0.0
 11
225.7822766111
 21
141.4061213434
 31
0.0
 12
225.7822766111
 22
140.5061213434
 32
0.0
 13
225.7822766111
 23
140.5061213434
 33
0.0
  0
LINE
  5
1EF
330
1EA
100
AcDbEntity
  8
VERMASSUNG
100
AcDbLine
 10
187.2822766111
 20
113.032936078
 30
0.0
 11
187.2822766111
 21
141.9561213434
 31
0.0
  0
LINE
  5
1F0
330
1EA
100
AcDbEntity
  8
VERMASSUNG
100
AcDbLine
 10
228.7822766111
 20
118.2841550947
 30
0.0
 11
228.7822766111
 21
141.9561213434
 31
0.0
  0
LINE
  5
1F1
330
1EA
100
AcDbEntity
  8
VERMASSUNG
100
AcDbLine
 10
187.2822766111
 20
140.9561213434
 30
0.0
 11
228.7822766111
 21
140.9561213434
 31
0.0
  0
MTEXT
  5
1F2
330
1EA
100
AcDbEntity
  8
VERMASSUNG
100
AcDbMText
 10
205.7324694605
 20
143.5342567066
 30
0.0
 40
2.0
 41
0.0
 71
     1
 72
     1
  1
41.5
  7
SLDTEXTSTYLE0
 73
     1
 44
1.0
  0
ENDBLK
  5
1EC
330
1EA
100
AcDbEntity
  8
0
100
AcDbBlockEnd
  0
BLOCK
  5
1F6
330
1F5
100
AcDbEntity
  8
0
100
AcDbBlockBegin
  2
*D3
 70
     1
 10
0.0
 20
0.0
 30
0.0
  3
*D3
  1

  0
SOLID
  5
1F8
330
1F5
100
AcDbEntity
  8
VERMASSUNG
100
AcDbTrace
 10
238.8706111966
 20
103.132936078
 30
0.0
 11
239.3206111966
 21
106.132936078
 31
0.0
 12
238.4206111966
 22
106.132936078
 32
0.0
 13
238.4206111966
 23
106.132936078
 33
0.0
  0
SOLID
  5
1F9
330
1F5
100
AcDbEntity
  8
VERMASSUNG
100
AcDbTrace
 10
238.8706111966
 20
113.132936078
 30
0.0
 11
238.4206111966
 21
110.132936078
 31
0.0
 12
239.3206111966
 22
110.132936078
 32
0.0
 13
239.3206111966
 23
110.132936078
 33
0.0
  0
LINE
  5
1FA
330
1F5
100
AcDbEntity
  8
VERMASSUNG
100
AcDbLine
 10
225.2822766111
 20
103.132936078
 30
0.0
 11
239.8706111966
 21
103.132936078
 31
0.0
  0
LINE
  5
1FB
330
1F5
100
AcDbEntity
  8
VERMASSUNG
100
AcDbLine
 10
225.2822766111
 20
113.132936078
 30
0.0
 11
239.8706111966
 21
113.132936078
 31
0.0
  0
LINE
  5
1FC
330
1F5
100
AcDbEntity
  8
VERMASSUNG
100
AcDbLine
 10
238.8706111966
 20
103.132936078
 30
0.0
 11
238.8706111966
 21
113.132936078
 31
0.0
  0
MTEXT
  5
1FD
330
1F5
100
AcDbEntity
  8
VERMASSUNG
100
AcDbMText
 10
236.292475717
 20
105.1287984832
 30
0.0
 40
2.0
 41
0.0
 71
     1
 72
     1
  1
%%c
  7
SLDTEXTSTYLE0
 11
6.123233995736766E-17
 21
1.0
 31
0.0
 73
     1
 44
1.0
  0
MTEXT
  5
1FE
330
1F5
100
AcDbEntity
  8
VERMASSUNG
100
AcDbMText
 10
236.2924758334
 20
108.7374767064
 30
0.0
 40
2.0
 41
0.0
 71
     1
 72
     1
  1
10
  7
SLDTEXTSTYLE0
 11
6.123233995736766E-17
 21
1.0
 31
0.0
 73
     1
 44
1.0
  0
ENDBLK
  5
1F7
330
1F5
100
AcDbEntity
  8
0
100
AcDbBlockEnd
  0
BLOCK
  5
202
330
201
100
AcDbEntity
  8
0
100
AcDbBlockBegin
  2
*D4
 70
     1
 10
0.0
 20
0.0
 30
0.0
  3
*D4
  1

  0
SOLID
  5
204
330
201
100
AcDbEntity
  8
VERMASSUNG
100
AcDbTrace
 10
244.8706111966
 20
96.132936078
 30
0.0
 11
245.3206111966
 21
99.132936078
 31
0.0
 12
244.4206111966
 22
99.132936078
 32
0.0
 13
244.4206111966
 23
99.132936078
 33
0.0
  0
SOLID
  5
205
330
201
100
AcDbEntity
  8
VERMASSUNG
100
AcDbTrace
 10
244.8706111966
 20
120.132936078
 30
0.0
 11
244.4206111966
 21
117.132936078
 31
0.0
 12
245.3206111966
 22
117.132936078
 32
0.0
 13
245.3206111966
 23
117.132936078
 33
0.0
  0
LINE
  5
206
330
201
100
AcDbEntity
  8
VERMASSUNG
100
AcDbLine
 10
228.7822766111
 20
96.132936078
 30
0.0
 11
245.8706111966
 21
96.132936078
 31
0.0
  0
LINE
  5
207
330
201
100
AcDbEntity
  8
VERMASSUNG
100
AcDbLine
 10
228.7822766111
 20
120.132936078
 30
0.0
 11
245.8706111966
 21
120.132936078
 31
0.0
  0
LINE
  5
208
330
201
100
AcDbEntity
  8
VERMASSUNG
100
AcDbLine
 10
244.8706111966
 20
96.132936078
 30
0.0
 11
244.8706111966
 21
120.132936078
 31
0.0
  0
MTEXT
  5
209
330
201
100
AcDbEntity
  8
VERMASSUNG
100
AcDbMText
 10
242.292475717
 20
104.8294290358
 30
0.0
 40
2.0
 41
0.0
 71
     1
 72
     1
  1
%%c
  7
SLDTEXTSTYLE0
 11
6.123233995736766E-17
 21
1.0
 31
0.0
 73
     1
 44
1.0
  0
MTEXT
  5
20A
330
201
100
AcDbEntity
  8
VERMASSUNG
100
AcDbMText
 10
242.2924758334
 20
108.4381072589
 30
0.0
 40
2.0
 41
0.0
 71
     1
 72
     1
  1
24
  7
SLDTEXTSTYLE0
 11
6.123233995736766E-17
 21
1.0
 31
0.0
 73
     1
 44
1.0
  0
ENDBLK
  5
203
330
201
100
AcDbEntity
  8
0
100
AcDbBlockEnd
  0
BLOCK
  5
20D
330
20C
100
AcDbEntity
  8
0
100
AcDbBlockBegin
  2
*D5
 70
     1
 10
0.0
 20
0.0
 30
0.0
  3
*D5
  1

  0
SOLID
  5
20F
330
20C
100
AcDbEntity
  8
VERMASSUNG
100
AcDbTrace
 10
98.7822766111
 20
152.9561213434
 30
0.0
 11
101.7822766111
 21
152.5061213434
 31
0.0
 12
101.7822766111
 22
153.4061213434
 32
0.0
 13
101.7822766111
 23
153.4061213434
 33
0.0
  0
SOLID
  5
210
330
20C
100
AcDbEntity
  8
VERMASSUNG
100
AcDbTrace
 10
228.7822766111
 20
152.9561213434
 30
0.0
 11
225.7822766111
 21
153.4061213434
 31
0.0
 12
225.7822766111
 22
152.5061213434
 32
0.0
 13
225.7822766111
 23
152.5061213434
 33
0.0
  0
LINE
  5
211
330
20C
100
AcDbEntity
  8
VERMASSUNG
100
AcDbLine
 10
98.7822766111
 20
139.332936078
 30
0.0
 11
98.7822766111
 21
153.9561213434
 31
0.0
  0
LINE
  5
212
330
20C
100
AcDbEntity
  8
VERMASSUNG
100
AcDbLine
 10
228.7822766111
 20
118.2841550947
 30
0.0
 11
228.7822766111
 21
153.9561213434
 31
0.0
  0
LINE
  5
213
330
20C
100
AcDbEntity
  8
VERMASSUNG
100
AcDbLine
 10
98.7822766111
 20
152.9561213434
 30
0.0
 11
228.7822766111
 21
152.9561213434
 31
0.0
  0
MTEXT
  5
214
330
20C
100
AcDbEntity
  8
VERMASSUNG
100
AcDbMText
 10
161.8827890705
 20
155.5342567066
 30
0.0
 40
2.0
 41
0.0
 71
     1
 72
     1
  1
130
  7
SLDTEXTSTYLE0
 73
     1
 44
1.0
  0
ENDBLK
  5
20E
330
20C
100
AcDbEntity
  8
0
100
AcDbBlockEnd
  0
BLOCK
  5
217
330
216
100
AcDbEntity
  8
0
100
AcDbBlockBegin
  2
*D6
 70
     1
 10
0.0
 20
0.0
 30
0.0
  3
*D6
  1

  0
SOLID
  5
219
330
216
100
AcDbEntity
  8
VERMASSUNG
100
AcDbTrace
 10
124.7322766111
 20
146.9561213434
 30
0.0
 11
127.7322766111
 21
146.5061213434
 31
0.0
 12
127.7322766111
 22
147.4061213434
 32
0.0
 13
127.7322766111
 23
147.4061213434
 33
0.0
  0
SOLID
  5
21A
330
216
100
AcDbEntity
  8
VERMASSUNG
100
AcDbTrace
 10
228.7822766111
 20
146.9561213434
 30
0.0
 11
225.7822766111
 21
147.4061213434
 31
0.0
 12
225.7822766111
 22
146.5061213434
 32
0.0
 13
225.7822766111
 23
146.5061213434
 33
0.0
  0
LINE
  5
21B
330
216
100
AcDbEntity
  8
VERMASSUNG
100
AcDbLine
 10
124.7322766111
 20
137.9793764018
 30
0.0
 11
124.7322766111
 21
147.9561213434
 31
0.0
  0
LINE
  5
21C
330
216
100
AcDbEntity
  8
VERMASSUNG
100
AcDbLine
 10
228.7822766111
 20
118.2841550947
 30
0.0
 11
228.7822766111
 21
147.9561213434
 31
0.0
  0
LINE
  5
21D
330
216
100
AcDbEntity
  8
VERMASSUNG
100
AcDbLine
 10
124.7322766111
 20
146.9561213434
 30
0.0
 11
228.7822766111
 21
146.9561213434
 31
0.0
  0
MTEXT
  5
21E
330
216
100
AcDbEntity
  8
VERMASSUNG
100
AcDbMText
 10
173.0580913457
 20
149.5342567066
 30
0.0
 40
2.0
 41
0.0
 71
     1
 72
     1
  1
104.05
  7
SLDTEXTSTYLE0
 73
     1
 44
1.0
  0
ENDBLK
  5
218
330
216
100
AcDbEntity
  8
0
100
AcDbBlockEnd
  0
BLOCK
  5
221
330
220
100
AcDbEntity
  8
0
100
AcDbBlockBegin
  2
*D7
 70
     1
 10
0.0
 20
0.0
 30
0.0
  3
*D7
  1

  0
SOLID
  5
223
330
220
100
AcDbEntity
  8
VERMASSUNG
100
AcDbTrace
 10
66.8822766111
 20
158.9561213434
 30
0.0
 11
69.8822766111
 21
158.5061213434
 31
0.0
 12
69.8822766111
 22
159.4061213434
 32
0.0
 13
69.8822766111
 23
159.4061213434
 33
0.0
  0
SOLID
  5
224
330
220
100
AcDbEntity
  8
VERMASSUNG
100
AcDbTrace
 10
228.7822766111
 20
158.9561213434
 30
0.0
 11
225.7822766111
 21
159.4061213434
 31
0.0
 12
225.7822766111
 22
158.5061213434
 32
0.0
 13
225.7822766111
 23
158.5061213434
 33
0.0
  0
LINE
  5
225
330
220
100
AcDbEntity
  8
VERMASSUNG
100
AcDbLine
 10
66.8822766111
 20
127.8236138245
 30
0.0
 11
66.8822766111
 21
159.9561213434
 31
0.0
  0
LINE
  5
226
330
220
100
AcDbEntity
  8
VERMASSUNG
100
AcDbLine
 10
228.7822766111
 20
118.2841550947
 30
0.0
 11
228.7822766111
 21
159.9561213434
 31
0.0
  0
LINE
  5
227
330
220
100
AcDbEntity
  8
VERMASSUNG
100
AcDbLine
 10
66.8822766111
 20
158.9561213434
 30
0.0
 11
228.7822766111
 21
158.9561213434
 31
0.0
  0
MTEXT
  5
228
330
220
100
AcDbEntity
  8
VERMASSUNG
100
AcDbMText
 10
145.1333101972
 20
161.5342567066
 30
0.0
 40
2.0
 41
0.0
 71
     1
 72
     1
  1
161.9
  7
SLDTEXTSTYLE0
 73
     1
 44
1.0
  0
ENDBLK
  5
222
330
220
100
AcDbEntity
  8
0
100
AcDbBlockEnd
  0
BLOCK
  5
22B
330
22A
100
AcDbEntity
  8
0
100
AcDbBlockBegin
  2
*D8
 70
     1
 10
0.0
 20
0.0
 30
0.0
  3
*D8
  1

  0
SOLID
  5
22D
330
22A
100
AcDbEntity
  8
VERMASSUNG
100
AcDbTrace
 10
250.8706111966
 20
124.132936078
 30
0.0
 11
250.4206111966
 21
121.132936078
 31
0.0
 12
251.3206111966
 22
121.132936078
 32
0.0
 13
251.3206111966
 23
121.132936078
 33
0.0
  0
SOLID
  5
22E
330
22A
100
AcDbEntity
  8
VERMASSUNG
100
AcDbTrace
 10
250.8706111966
 20
92.132936078
 30
0.0
 11
251.3206111966
 21
95.132936078
 31
0.0
 12
250.4206111966
 22
95.132936078
 32
0.0
 13
250.4206111966
 23
95.132936078
 33
0.0
  0
LINE
  5
22F
330
22A
100
AcDbEntity
  8
VERMASSUNG
100
AcDbLine
 10
177.9574576664
 20
124.132936078
 30
0.0
 11
251.8706111966
 21
124.132936078
 31
0.0
  0
LINE
  5
230
330
22A
100
AcDbEntity
  8
VERMASSUNG
100
AcDbLine
 10
177.9574576664
 20
92.132936078
 30
0.0
 11
251.8706111966
 21
92.132936078
 31
0.0
  0
LINE
  5
231
330
22A
100
AcDbEntity
  8
VERMASSUNG
100
AcDbLine
 10
250.8706111966
 20
124.132936078
 30
0.0
 11
250.8706111966
 21
92.132936078
 31
0.0
  0
MTEXT
  5
232
330
22A
100
AcDbEntity
  8
VERMASSUNG
100
AcDbMText
 10
248.292475717
 20
104.9292188516
 30
0.0
 40
2.0
 41
0.0
 71
     1
 72
     1
  1
%%c
  7
SLDTEXTSTYLE0
 11
-7.044195017643634E-15
 21
1.0
 31
0.0
 73
     1
 44
1.0
  0
MTEXT
  5
233
330
22A
100
AcDbEntity
  8
VERMASSUNG
100
AcDbMText
 10
248.2924758334
 20
108.5378970748
 30
0.0
 40
2.0
 41
0.0
 71
     1
 72
     1
  1
32
  7
SLDTEXTSTYLE0
 11
-7.044195017643634E-15
 21
1.0
 31
0.0
 73
     1
 44
1.0
  0
ENDBLK
  5
22C
330
22A
100
AcDbEntity
  8
0
100
AcDbBlockEnd
  0
ENDSEC
  0
SECTION
  2
ENTITIES
  0
MTEXT
  5
45
330
1F
100
AcDbEntity
  8
KOPF_DÜNN
100
AcDbMText
 10
13.8892156294
 20
23.8442973028
 30
0.0
 40
3.0
 41
0.0
 71
     1
 72
     1
  1
HA6.S10.K21.130
  7
SLDTEXTSTYLE0
 73
     1
 44
1.0
  0
MTEXT
  5
46
330
1F
100
AcDbEntity
  8
VERMASSUNG
100
AcDbMText
 10
13.9329988022
 20
28.8834360957
 30
0.0
 40
3.0
 41
0.0
 71
     1
 72
     1
  1
Schrumpffutter_Heat shrink chuck
  7
SLDTEXTSTYLE0
 73
     1
 44
1.0
  0
MTEXT
  5
47
330
1F
100
AcDbEntity
  8
VERMASSUNG
100
AcDbMText
 10
98.8601118557
 20
13.8365368179
 30
0.0
 40
2.0
 41
0.0
 71
     1
 72
     1
  1
Datum: 27.04.2011
  7
SLDTEXTSTYLE0
 73
     1
 44
1.0
  0
MTEXT
  5
49
330
1F
100
AcDbEntity
  8
VERMASSUNG
100
AcDbMText
 10
13.933048693
 20
18.0482802738
 30
0.0
 40
2.0
 41
0.0
 71
     1
 72
     1
  1
DIN 69 893 HSK A 63
  7
SLDTEXTSTYLE1
 73
     1
 44
1.0
  0
MTEXT
  5
4A
330
1F
100
AcDbEntity
  8
VERMASSUNG
100
AcDbMText
 10
13.9808475933
 20
13.9090973692
 30
0.0
 40
2.0
 41
0.0
 71
     1
 72
     1
  1
Gewicht: 1192g
  7
SLDTEXTSTYLE0
 73
     1
 44
1.0
  0
LINE
  5
4B
330
1F
100
AcDbEntity
  8
0
  6
Continuous
 62
     7
370
    15
100
AcDbLine
 10
99.0822766111
 20
76.632936078
 30
0.0
 11
103.7322766111
 21
76.632936078
 31
0.0
  0
LINE
  5
4C
330
1F
100
AcDbEntity
  8
0
  6
Continuous
 62
     7
370
    15
100
AcDbLine
 10
103.7602649702
 20
139.632936078
 30
0.0
 11
99.0822766111
 21
139.632936078
 31
0.0
  0
ARC
  5
4D
330
1F
100
AcDbEntity
  8
0
  6
Continuous
 62
     7
370
    15
100
AcDbCircle
 10
99.0822766111
 20
76.932936078
 30
0.0
 40
0.3000000000000114
100
AcDbArc
 50
180.0
 51
270.0
  0
ARC
  5
4E
330
1F
100
AcDbEntity
  8
0
  6
Continuous
 62
     7
370
    15
100
AcDbCircle
 10
99.0822766111
 20
139.332936078
 30
0.0
 40
0.3000000000000114
100
AcDbArc
 50
90.0
 51
180.0
  0
ARC
  5
4F
330
1F
100
AcDbEntity
  8
0
  6
Continuous
 62
     7
370
    15
100
AcDbCircle
 10
98.2822698584
 20
83.5624984636
 30
0.0
 40
0.6000067526677164
100
AcDbArc
 50
33.5571153394
 51
90.0
  0
ARC
  5
50
330
1F
100
AcDbEntity
  8
0
  6
Continuous
 62
     7
370
    15
100
AcDbCircle
 10
98.2822698584
 20
132.7033736924
 30
0.0
 40
0.6000067526677321
100
AcDbArc
 50
270.0
 51
326.4428846606
  0
LINE
  5
51
330
1F
100
AcDbEntity
  8
0
  6
Continuous
 62
     7
370
    15
100
AcDbLine
 10
96.7822766111
 20
83.9125052163
 30
0.0
 11
97.6389893845
 21
84.1420607121
 31
0.0
  0
LINE
  5
52
330
1F
100
AcDbEntity
  8
0
  6
Continuous
 62
     7
370
    15
100
AcDbLine
 10
97.6389893845
 20
132.123811444
 30
0.0
 11
96.7822766111
 21
132.3533669397
 31
0.0
  0
LINE
  5
53
330
1F
100
AcDbEntity
  8
0
  6
Continuous
 62
     7
370
    15
100
AcDbLine
 10
85.5518544286
 20
131.7907205378
 30
0.0
 11
72.9822766111
 21
131.1609821702
 31
0.0
  0
LINE
  5
54
330
1F
100
AcDbEntity
  8
0
  6
Continuous
 62
     7
370
    15
100
AcDbLine
 10
96.7822766111
 20
132.3533669397
 30
0.0
 11
93.9636672536
 21
132.2121540461
 31
0.0
  0
LINE
  5
55
330
1F
100
AcDbEntity
  8
0
  6
Continuous
 62
     7
370
    15
100
AcDbLine
 10
93.9638887288
 20
84.053707014
 30
0.0
 11
96.7822766111
 21
83.9125052163
 31
0.0
  0
LINE
  5
56
330
1F
100
AcDbEntity
  8
0
  6
Continuous
 62
     7
370
    15
100
AcDbLine
 10
76.9822766111
 20
84.9044891842
 30
0.0
 11
85.5525533803
 21
84.4751166006
 31
0.0
  0
ARC
  5
57
330
1F
100
AcDbEntity
  8
0
  6
Continuous
 62
     7
370
    15
100
AcDbCircle
 10
97.7942808116
 20
83.5625052163
 30
0.0
 40
0.6000000000000071
100
AcDbArc
 50
90.0
 51
105.0
  0
ARC
  5
58
330
1F
100
AcDbEntity
  8
0
  6
Continuous
 62
     7
370
    15
100
AcDbCircle
 10
97.7942808116
 20
132.7033669397
 30
0.0
 40
0.6000000000000227
100
AcDbArc
 50
255.0
 51
270.0
  0
LINE
  5
59
330
1F
100
AcDbEntity
  8
0
  6
Continuous
 62
     7
370
    15
100
AcDbLine
 10
97.7942808116
 20
84.1625052163
 30
0.0
 11
98.2822698584
 21
84.1625052163
 31
0.0
  0
LINE
  5
5A
330
1F
100
AcDbEntity
  8
0
  6
Continuous
 62
     7
370
    15
100
AcDbLine
 10
98.2822698584
 20
132.1033669397
 30
0.0
 11
97.7942808116
 21
132.1033669397
 31
0.0
  0
ARC
  5
5B
330
1F
100
AcDbEntity
  8
0
  6
Continuous
 62
     7
370
    15
100
AcDbCircle
 10
127.7322766111
 20
86.1169772765
 30
0.0
 40
2.999999999999996
100
AcDbArc
 50
104.3250519401
 51
180.0
  0
ARC
  5
5C
330
1F
100
AcDbEntity
  8
0
  6
Continuous
 62
     7
370
    15
100
AcDbCircle
 10
127.7322766111
 20
130.1488948795
 30
0.0
 40
2.999999999999996
100
AcDbArc
 50
180.0
 51
255.6749480599
  0
ARC
  5
5D
330
1F
100
AcDbEntity
  8
0
  6
Continuous
 62
     7
370
    15
100
AcDbCircle
 10
151.7322766111
 20
-7.867063922
 30
0.0
 40
100.0
100
AcDbArc
 50
90.0
 51
104.3250519401
  0
ARC
  5
5E
330
1F
100
AcDbEntity
  8
0
  6
Continuous
 62
     7
370
    15
100
AcDbCircle
 10
151.7322766111
 20
224.132936078
 30
0.0
 40
100.0
100
AcDbArc
 50
255.6749480599
 51
270.0
  0
LINE
  5
5F
330
1F
100
AcDbEntity
  8
0
  6
Continuous
 62
     7
370
    15
100
AcDbLine
 10
177.9574576664
 20
92.132936078
 30
0.0
 11
226.9391948026
 21
95.9878823939
 31
0.0
  0
LINE
  5
60
330
1F
100
AcDbEntity
  8
0
  6
Continuous
 62
     7
370
    15
100
AcDbLine
 10
226.9391948026
 20
120.2779897622
 30
0.0
 11
177.9574576664
 21
124.132936078
 31
0.0
  0
LINE
  5
61
330
1F
100
AcDbEntity
  8
0
  6
Continuous
 62
     7
370
    15
100
AcDbLine
 10
164.2305626394
 20
92.132936078
 30
0.0
 11
177.9574576664
 21
92.132936078
 31
0.0
  0
LINE
  5
62
330
1F
100
AcDbEntity
  8
0
  6
Continuous
 62
     7
370
    15
100
AcDbLine
 10
151.7322766111
 20
92.132936078
 30
0.0
 11
157.2379454604
 21
92.132936078
 31
0.0
  0
LINE
  5
63
330
1F
100
AcDbEntity
  8
0
  6
Continuous
 62
     7
370
    15
100
AcDbLine
 10
157.2332090073
 20
124.132936078
 30
0.0
 11
151.7322766111
 21
124.132936078
 31
0.0
  0
LINE
  5
64
330
1F
100
AcDbEntity
  8
0
  6
Continuous
 62
     7
370
    15
100
AcDbLine
 10
177.9574576664
 20
124.132936078
 30
0.0
 11
164.2227056485
 21
124.132936078
 31
0.0
  0
ARC
  5
65
330
1F
100
AcDbEntity
  8
0
  6
Continuous
 62
     7
370
    15
100
AcDbCircle
 10
226.7822766111
 20
97.9817170613
 30
0.0
 40
2.0
100
AcDbArc
 50
274.5
 51
0.0
  0
ARC
  5
66
330
1F
100
AcDbEntity
  8
0
  6
Continuous
 62
     7
370
    15
100
AcDbCircle
 10
226.7822766111
 20
118.2841550947
 30
0.0
 40
2.0
100
AcDbArc
 50
0.0
 51
85.5
  0
LINE
  5
67
330
1F
100
AcDbEntity
  8
0
  6
Continuous
 62
     7
370
    15
100
AcDbLine
 10
68.1656132511
 20
87.262936078
 30
0.0
 11
75.5822766111
 21
87.262936078
 31
0.0
  0
ARC
  5
68
330
1F
100
AcDbEntity
  8
0
  6
Continuous
 62
     7
370
    15
100
AcDbCircle
 10
75.5822766111
 20
85.862936078
 30
0.0
 40
1.400000000000006
100
AcDbArc
 50
42.2465410162
 51
90.0
  0
LINE
  5
69
330
1F
100
AcDbEntity
  8
0
  6
Continuous
 62
     7
370
    15
100
AcDbLine
 10
66.8934370462
 20
88.4017756429
 30
0.0
 11
68.0234400693
 21
87.2717726198
 31
0.0
  0
LINE
  5
6A
330
1F
100
AcDbEntity
  8
0
  6
Continuous
 62
     7
370
    15
100
AcDbLine
 10
68.0234400693
 20
128.9940995362
 30
0.0
 11
66.8934442303
 21
127.8641036972
 31
0.0
  0
ARC
  5
6B
330
1F
100
AcDbEntity
  8
0
  6
Continuous
 62
     7
370
    15
100
AcDbCircle
 10
71.5822766111
 20
130.402936078
 30
0.0
 40
1.399999999999991
100
AcDbArc
 50
270.0
 51
301.7485287426
  0
LINE
  5
6C
330
1F
100
AcDbEntity
  8
0
  6
Continuous
 62
     7
370
    15
100
AcDbLine
 10
71.5822766111
 20
129.002936078
 30
0.0
 11
68.1799320152
 21
129.002936078
 31
0.0
  0
LINE
  5
6D
330
1F
100
AcDbEntity
  8
0
  6
Continuous
 62
     7
370
    15
100
AcDbLine
 10
228.7822766111
 20
98.7685678177
 30
0.0
 11
228.8595988182
 21
98.9155331601
 31
0.0
  0
LINE
  5
6E
330
1F
100
AcDbEntity
  8
0
  6
Continuous
 62
     7
370
    15
100
AcDbLine
 10
228.8007090946
 20
117.3526527795
 30
0.0
 11
228.7822766111
 21
117.387687168
 31
0.0
  0
SPLINE
  5
6F
330
1F
100
AcDbEntity
  8
0
  6
Continuous
 62
     7
370
    15
100
AcDbSpline
210
0.0
220
0.0
230
1.0
 70
     8
 71
     3
 72
    70
 73
    66
 74
     0
 42
0.00000001
 43
0.00000001
 40
-0.0312500000000002
 40
-0.0312500000000002
 40
0.0
 40
0.0
 40
0.0312499999999999
 40
0.0312499999999999
 40
0.0624999999999999
 40
0.0624999999999999
 40
0.0937499999999998
 40
0.0937499999999998
 40
0.1249999999999998
 40
0.1249999999999998
 40
0.1562499999999997
 40
0.1562499999999997
 40
0.1874999999999997
 40
0.1874999999999997
 40
0.2187499999999996
 40
0.2187499999999996
 40
0.2499999999999996
 40
0.2499999999999996
 40
0.2812499999999995
 40
0.2812499999999995
 40
0.3124999999999994
 40
0.3124999999999994
 40
0.3437499999999994
 40
0.3437499999999994
 40
0.3749999999999993
 40
0.3749999999999993
 40
0.4062499999999993
 40
0.4062499999999993
 40
0.4374999999999992
 40
0.4374999999999992
 40
0.4687499999999992
 40
0.4687499999999992
 40
0.4999999999999991
 40
0.4999999999999991
 40
0.5312499999999991
 40
0.5312499999999991
 40
0.562499999999999
 40
0.562499999999999
 40
0.5937499999999989
 40
0.5937499999999989
 40
0.6249999999999989
 40
0.6249999999999989
 40
0.6562499999999989
 40
0.6562499999999989
 40
0.6874999999999988
 40
0.6874999999999988
 40
0.7187499999999987
 40
0.7187499999999987
 40
0.7499999999999987
 40
0.7499999999999987
 40
0.7812499999999988
 40
0.7812499999999988
 40
0.812499999999999
 40
0.812499999999999
 40
0.8437499999999991
 40
0.8437499999999991
 40
0.8749999999999993
 40
0.8749999999999993
 40
0.9062499999999994
 40
0.9062499999999994
 40
0.9374999999999997
 40
0.9374999999999997
 40
0.9687499999999998
 40
0.9687499999999998
 40
1.0
 40
1.0
 40
1.03125
 40
1.03125
 10
106.517731272447
 20
118.7538429639899
 30
0.0
 10
107.0468219497672
 20
118.7538429639899
 30
0.0
 10
107.3068926171444
 20
118.7785202587751
 30
0.0
 10
107.8184672969798
 20
118.874991931817
 30
0.0
 10
108.07264258072
 20
118.9479728477971
 30
0.0
 10
108.5569132107817
 20
119.1377134507357
 30
0.0
 10
108.7865543026628
 20
119.2535741091295
 30
0.0
 10
109.2211586508963
 20
119.5261919550872
 30
0.0
 10
109.4267244275429
 20
119.6842310371409
 30
0.0
 10
109.7952815681382
 20
120.0277738881116
 30
0.0
 10
109.9607625508736
 20
120.2145363322133
 30
0.0
 10
110.2531870603087
 20
120.6180795066101
 30
0.0
 10
110.3772880369353
 20
120.8315765030392
 30
0.0
 10
110.576867233685
 20
121.2709598169617
 30
0.0
 10
110.6538008195432
 20
121.5000998041074
 30
0.0
 10
110.7566578780636
 20
121.9660739268674
 30
0.0
 10
110.7821307875227
 20
122.1989563725435
 30
0.0
 10
110.7824211980905
 20
122.6643539076234
 30
0.0
 10
110.7563965643148
 20
122.8992296650177
 30
0.0
 10
110.6542482798228
 20
123.350722812264
 30
0.0
 10
110.5786718322396
 20
123.5687692876753
 30
0.0
 10
110.3781743010947
 20
123.9898638127131
 30
0.0
 10
110.2530454595863
 20
124.1917851972315
 30
0.0
 10
109.9636866585647
 20
124.5638146797504
 30
0.0
 10
109.7982756715092
 20
124.7364429833307
 30
0.0
 10
109.4252851133614
 20
125.0537609878767
 30
0.0
 10
109.2235520802723
 20
125.1935479213784
 30
0.0
 10
108.7906928294445
 20
125.4377241749302
 30
0.0
 10
108.5567742965551
 20
125.5429536859717
 30
0.0
 10
108.0725905614125
 20
125.7111108323468
 30
0.0
 10
107.823274935457
 20
125.7743617229407
 30
0.0
 10
107.3102424110292
 20
125.8599409320432
 30
0.0
 10
107.0449485881246
 20
125.8818130969657
 30
0.0
 10
106.5226139682548
 20
125.8819767466096
 30
0.0
 10
106.2628603057731
 20
125.8609750545136
 30
0.0
 10
105.7462484901279
 20
125.775572699436
 30
0.0
 10
105.4938824496276
 20
125.711566516149
 30
0.0
 10
105.0123573280948
 20
125.5447519961078
 30
0.0
 10
104.7795065959812
 20
125.4406188327087
 30
0.0
 10
104.3424167475424
 20
125.1946321802137
 30
0.0
 10
104.1410957588852
 20
125.0548823492648
 30
0.0
 10
103.7720097335853
 20
124.7417442795402
 30
0.0
 10
103.6030249825337
 20
124.5662881202702
 30
0.0
 10
103.3125689258744
 20
124.1934478561699
 30
0.0
 10
103.1894971145123
 20
123.995326046059
 30
0.0
 10
102.9881608730903
 20
123.5746147033253
 30
0.0
 10
102.9109483271481
 20
123.3526246826578
 30
0.0
 10
102.808744784248
 20
122.9027597429494
 30
0.0
 10
102.7825164327957
 20
122.6725043298327
 30
0.0
 10
102.7820400334786
 20
122.2011883872836
 30
0.0
 10
102.8077824459765
 20
121.9679509715695
 30
0.0
 10
102.9090932223404
 20
121.5062744320714
 30
0.0
 10
102.9859258617313
 20
121.2753770449592
 30
0.0
 10
103.1863297009465
 20
120.8331010311676
 30
0.0
 10
103.3090011992386
 20
120.6220385998817
 30
0.0
 10
103.5989484884028
 20
120.220540089149
 30
0.0
 10
103.767519467768
 20
120.0296335670731
 30
0.0
 10
104.1357890618812
 20
119.685908235076
 30
0.0
 10
104.3368509191515
 20
119.5307710488619
 30
0.0
 10
104.7738818377364
 20
119.2556936887822
 30
0.0
 10
105.006030050866
 20
119.1385774593602
 30
0.0
 10
105.4870403323649
 20
118.9496509742957
 30
0.0
 10
105.7391404151953
 20
118.8765760039014
 30
0.0
 10
106.2562099014543
 20
118.7785239447669
 30
0.0
 10
106.517731272447
 20
118.7538429639899
 30
0.0
 10
107.0468219497672
 20
118.7538429639899
 30
0.0
  0
LINE
  5
70
330
1F
100
AcDbEntity
  8
0
  6
Continuous
 62
     7
370
    15
100
AcDbLine
 10
103.7322766111
 20
127.982936078
 30
0.0
 11
113.3903437796
 21
127.982936078
 31
0.0
  0
LINE
  5
71
330
1F
100
AcDbEntity
  8
0
  6
Continuous
 62
     7
370
    15
100
AcDbLine
 10
113.3903437796
 20
77.9460183818
 30
0.0
 11
113.3903437796
 21
127.982936078
 31
0.0
  0
LINE
  5
72
330
1F
100
AcDbEntity
  8
0
  6
Continuous
 62
     7
370
    15
100
AcDbLine
 10
113.3903437796
 20
77.9460183818
 30
0.0
 11
111.7322766111
 21
77.9460183818
 31
0.0
  0
SPLINE
  5
73
330
1F
100
AcDbEntity
  8
0
  6
Continuous
 62
     7
370
    15
100
AcDbSpline
210
0.0
220
0.0
230
1.0
 70
     8
 71
     3
 72
    28
 73
    24
 74
     0
 42
0.00000001
 43
0.00000001
 40
0.0
 40
0.0
 40
0.0
 40
0.0
 40
0.1250000000000001
 40
0.1250000000000001
 40
0.1875000000000001
 40
0.1875000000000001
 40
0.2500000000000001
 40
0.2500000000000001
 40
0.3749999999999999
 40
0.3749999999999999
 40
0.4375
 40
0.4375
 40
0.4999999999999999
 40
0.4999999999999999
 40
0.6249999999999999
 40
0.6249999999999999
 40
0.7499999999999997
 40
0.7499999999999997
 40
0.8124999999999998
 40
0.8124999999999998
 40
0.8749999999999998
 40
0.8749999999999998
 40
1.0
 40
1.0
 40
1.0
 40
1.0
 10
111.7322766111071
 20
77.94601838175943
 30
0.0
 10
111.2005688536142
 20
77.94601838175943
 30
0.0
 10
110.6783302883038
 20
77.93023366780923
 30
0.0
 10
109.9084598020288
 20
77.88523825373304
 30
0.0
 10
109.6541002298375
 20
77.86668325865728
 30
0.0
 10
109.149978649139
 20
77.82283053621077
 30
0.0
 10
108.9002558317111
 20
77.79748592925858
 30
0.0
 10
108.1746658802646
 20
77.71408385150849
 30
0.0
 10
107.7163056186831
 20
77.64821829235741
 30
0.0
 10
107.0658076752892
 20
77.5392479518656
 30
0.0
 10
106.8541256244968
 20
77.50100831609896
 30
0.0
 10
106.4500541353588
 20
77.4232495786796
 30
0.0
 10
106.2575476215379
 20
77.38374861650423
 30
0.0
 10
105.7077126505166
 20
77.26484087413824
 30
0.0
 10
105.3777838722078
 20
77.18502319271364
 30
0.0
 10
104.7933126036391
 20
77.03168003091758
 30
0.0
 10
104.5470354656257
 20
76.96034627764833
 30
0.0
 10
104.2471926729276
 20
76.8664027705737
 30
0.0
 10
104.1587358158554
 20
76.83720897721378
 30
0.0
 10
104.0053744625503
 20
76.78374240295035
 30
0.0
 10
103.9402862483241
 20
76.75938306867518
 30
0.0
 10
103.7846922323833
 20
76.69579292323044
 30
0.0
 10
103.7322766111071
 20
76.6656899881412
 30
0.0
 10
103.7322766111071
 20
76.64881309514426
 30
0.0
  0
LINE
  5
74
330
1F
100
AcDbEntity
  8
0
  6
Continuous
 62
     7
370
    15
100
AcDbLine
 10
103.7322766111
 20
76.6488130951
 30
0.0
 11
103.7322766111
 21
76.632936078
 31
0.0
  0
SPLINE
  5
75
330
1F
100
AcDbEntity
  8
0
  6
Continuous
 62
     7
370
    15
100
AcDbSpline
210
0.0
220
0.0
230
1.0
 70
     8
 71
     3
 72
    17
 73
    13
 74
     0
 42
0.00000001
 43
0.00000001
 40
0.0
 40
0.0
 40
0.0
 40
0.0
 40
0.1034796923964056
 40
0.210023918880785
 40
0.3134862136955583
 40
0.4198361274354882
 40
0.5254127712915682
 40
0.633961069541979
 40
0.7409508756305031
 40
0.8511696089308174
 40
0.9558996534551937
 40
1.0
 40
1.0
 40
1.0
 40
1.0
 10
111.7322766111071
 20
138.6001315511708
 30
0.0
 10
111.2970282619971
 20
138.6055797477042
 30
0.0
 10
110.4136417554321
 20
138.616637488216
 30
0.0
 10
109.1328141702034
 20
138.7029958811176
 30
0.0
 10
107.9153976343294
 20
138.8308660576553
 30
0.0
 10
106.8075917820828
 20
138.9898113562485
 30
0.0
 10
105.8193529781346
 20
139.1643050439641
 30
0.0
 10
104.9946294206031
 20
139.3334708946039
 30
0.0
 10
104.3456759199438
 20
139.4813546771323
 30
0.0
 10
103.9286411044821
 20
139.5831452613631
 30
0.0
 10
103.7300443915175
 20
139.6334967839663
 30
0.0
 10
103.7533571129508
 20
139.6275910997439
 30
0.0
 10
103.7602649701883
 20
139.6258411700493
 30
0.0
  0
LINE
  5
76
330
1F
100
AcDbEntity
  8
0
  6
Continuous
 62
     7
370
    15
100
AcDbLine
 10
113.3903437796
 20
138.6001315512
 30
0.0
 11
111.7322766111
 21
138.6001315512
 31
0.0
  0
LINE
  5
77
330
1F
100
AcDbEntity
  8
0
  6
Continuous
 62
     7
370
    15
100
AcDbLine
 10
113.3903437796
 20
132.5916257404
 30
0.0
 11
113.3903437796
 21
138.6001315512
 31
0.0
  0
LINE
  5
78
330
1F
100
AcDbEntity
  8
0
  6
Continuous
 62
     7
370
    15
100
AcDbLine
 10
110.9778969568
 20
132.5916257404
 30
0.0
 11
113.3903437796
 21
132.5916257404
 31
0.0
  0
SPLINE
  5
79
330
1F
100
AcDbEntity
  8
0
  6
Continuous
 62
     7
370
    15
100
AcDbSpline
210
0.0
220
0.0
230
1.0
 70
     8
 71
     3
 72
    20
 73
    16
 74
     0
 42
0.00000001
 43
0.00000001
 40
0.0
 40
0.0
 40
0.0
 40
0.0
 40
0.2499999999999997
 40
0.2499999999999997
 40
0.3749999999999997
 40
0.3749999999999997
 40
0.4999999999999998
 40
0.4999999999999998
 40
0.6249999999999998
 40
0.6249999999999998
 40
0.7499999999999999
 40
0.7499999999999999
 40
0.8749999999999999
 40
0.8749999999999999
 40
1.0
 40
1.0
 40
1.0
 40
1.0
 10
103.7322766111071
 20
127.9829360780066
 30
0.0
 10
103.9806503453951
 20
128.636798506304
 30
0.0
 10
104.3002204377404
 20
129.2405842883012
 30
0.0
 10
104.9225266709451
 20
130.0674230244697
 30
0.0
 10
105.1539509313759
 20
130.3298516624227
 30
0.0
 10
105.6751652710256
 20
130.8265143165276
 30
0.0
 10
105.9617857536606
 20
131.0571011955492
 30
0.0
 10
106.5812704949683
 20
131.4736554201318
 30
0.0
 10
106.9155708744552
 20
131.6611532220993
 30
0.0
 10
107.64083134708
 20
131.9925501997357
 30
0.0
 10
108.0227464044705
 20
132.132054187231
 30
0.0
 10
108.8175345806422
 20
132.357507694702
 30
0.0
 10
109.2316927748485
 20
132.4441338062456
 30
0.0
 10
110.0972391154299
 20
132.5621145950997
 30
0.0
 10
110.5351267304417
 20
132.591625740374
 30
0.0
 10
110.9778969567964
 20
132.591625740374
 30
0.0
  0
SPLINE
  5
7A
330
1F
100
AcDbEntity
  8
0
  6
Continuous
 62
     7
370
    15
100
AcDbSpline
210
0.0
220
0.0
230
1.0
 70
     8
 71
     3
 72
    70
 73
    66
 74
     0
 42
0.00000001
 43
0.00000001
 40
-0.0312499999999998
 40
-0.0312499999999998
 40
0.0
 40
0.0
 40
0.0312500000000003
 40
0.0312500000000003
 40
0.0625000000000006
 40
0.0625000000000006
 40
0.0937500000000009
 40
0.0937500000000009
 40
0.1250000000000012
 40
0.1250000000000012
 40
0.1562500000000014
 40
0.1562500000000014
 40
0.1875000000000017
 40
0.1875000000000017
 40
0.2187500000000021
 40
0.2187500000000021
 40
0.2500000000000023
 40
0.2500000000000023
 40
0.2812500000000024
 40
0.2812500000000024
 40
0.3125000000000026
 40
0.3125000000000026
 40
0.3437500000000027
 40
0.3437500000000027
 40
0.3750000000000028
 40
0.3750000000000028
 40
0.4062500000000029
 40
0.4062500000000029
 40
0.4375000000000031
 40
0.4375000000000031
 40
0.4687500000000032
 40
0.4687500000000032
 40
0.5000000000000033
 40
0.5000000000000033
 40
0.5312500000000032
 40
0.5312500000000032
 40
0.562500000000003
 40
0.562500000000003
 40
0.5937500000000029
 40
0.5937500000000029
 40
0.6250000000000027
 40
0.6250000000000027
 40
0.6562500000000026
 40
0.6562500000000026
 40
0.6875000000000024
 40
0.6875000000000024
 40
0.7187500000000022
 40
0.7187500000000022
 40
0.7500000000000021
 40
0.7500000000000021
 40
0.7812500000000019
 40
0.7812500000000019
 40
0.8125000000000016
 40
0.8125000000000016
 40
0.8437500000000013
 40
0.8437500000000013
 40
0.875000000000001
 40
0.875000000000001
 40
0.9062500000000008
 40
0.9062500000000008
 40
0.9375000000000006
 40
0.9375000000000006
 40
0.9687500000000002
 40
0.9687500000000002
 40
1.0
 40
1.0
 40
1.03125
 40
1.03125
 10
106.517731272447
 20
133.1918994727858
 30
0.0
 10
107.0468219497672
 20
133.1918994727858
 30
0.0
 10
107.3068926171444
 20
133.2077999132005
 30
0.0
 10
107.8184672969798
 20
133.2697442633748
 30
0.0
 10
108.07264258072
 20
133.3165464974661
 30
0.0
 10
108.5569132107817
 20
133.4375234809212
 30
0.0
 10
108.7865543026628
 20
133.511125808728
 30
0.0
 10
109.2211586508963
 20
133.6829500797062
 30
0.0
 10
109.4267244275429
 20
133.7819535026335
 30
0.0
 10
109.7952815681382
 20
133.9950499165464
 30
0.0
 10
109.9607625508736
 20
134.1099496326761
 30
0.0
 10
110.2531870603087
 20
134.3553165313664
 30
0.0
 10
110.3772880369352
 20
134.4837564318367
 30
0.0
 10
110.576867233685
 20
134.7446485799226
 30
0.0
 10
110.6538008195432
 20
134.8790297512621
 30
0.0
 10
110.7566578780636
 20
135.1483497023684
 30
0.0
 10
110.7821307875227
 20
135.2810309665865
 30
0.0
 10
110.7824211980905
 20
135.5422174407175
 30
0.0
 10
110.7563965643148
 20
135.6719824788823
 30
0.0
 10
110.6542482798228
 20
135.9175651131549
 30
0.0
 10
110.5786718322396
 20
136.0342266504638
 30
0.0
 10
110.3781743010947
 20
136.2561318406184
 30
0.0
 10
110.2530454595863
 20
136.3607430945414
 30
0.0
 10
109.9636866585647
 20
136.5507895061494
 30
0.0
 10
109.7982756715092
 20
136.6375491775991
 30
0.0
 10
109.4252851133614
 20
136.7950535533506
 30
0.0
 10
109.2235520802723
 20
136.8633788181379
 30
0.0
 10
108.7906928294445
 20
136.9816085417571
 30
0.0
 10
108.5567742965551
 20
137.0319034578609
 30
0.0
 10
108.0725905614124
 20
137.1117689947505
 30
0.0
 10
107.823274935457
 20
137.1415101225502
 30
0.0
 10
107.3102424110292
 20
137.1816628640584
 30
0.0
 10
107.0449485881246
 20
137.1918611334682
 30
0.0
 10
106.5226139682548
 20
137.1919375918529
 30
0.0
 10
106.2628603057731
 20
137.1821465802439
 30
0.0
 10
105.7462484901279
 20
137.1420797415051
 30
0.0
 10
105.4938824496276
 20
137.1119825746483
 30
0.0
 10
105.0123573280948
 20
137.0327603648181
 30
0.0
 10
104.7795065959812
 20
136.9830028853548
 30
0.0
 10
104.3424167475424
 20
136.8639109429043
 30
0.0
 10
104.1410957588852
 20
136.7955956813571
 30
0.0
 10
103.7720097335854
 20
136.6401947144235
 30
0.0
 10
103.6030249825337
 20
136.5520423723566
 30
0.0
 10
103.3125689258744
 20
136.3616029832403
 30
0.0
 10
103.1894971145123
 20
136.2589784055412
 30
0.0
 10
102.9881608730903
 20
136.0373380589331
 30
0.0
 10
102.9109483271481
 20
135.9185839833856
 30
0.0
 10
102.808744784248
 20
135.6739180444679
 30
0.0
 10
102.7825164327957
 20
135.5467613190194
 30
0.0
 10
102.7820400334786
 20
135.2823131731638
 30
0.0
 10
102.8077824459765
 20
135.1494124929067
 30
0.0
 10
102.9090932223404
 20
134.8826202194246
 30
0.0
 10
102.9859258617313
 20
134.747256317956
 30
0.0
 10
103.1863297009465
 20
134.4846765226535
 30
0.0
 10
103.3090011992386
 20
134.3577013628997
 30
0.0
 10
103.5989484884028
 20
134.1136219768173
 30
0.0
 10
103.767519467768
 20
133.9961968520634
 30
0.0
 10
104.1357890618812
 20
133.783000391115
 30
0.0
 10
104.3368509191515
 20
133.6858262726901
 30
0.0
 10
104.7738818377364
 20
133.5124713854759
 30
0.0
 10
105.006030050866
 20
133.4380718338193
 30
0.0
 10
105.4870403323649
 20
133.3176189543146
 30
0.0
 10
105.7391404151953
 20
133.2707605790486
 30
0.0
 10
106.2562099014543
 20
133.2078030820649
 30
0.0
 10
106.517731272447
 20
133.1918994727858
 30
0.0
 10
107.0468219497672
 20
133.1918994727858
 30
0.0
  0
LINE
  5
7B
330
1F
100
AcDbEntity
  8
0
  6
Continuous
 62
     7
370
    15
100
AcDbLine
 10
124.7322766111
 20
78.5726586774
 30
0.0
 11
124.7322766111
 21
127.982936078
 31
0.0
  0
SPLINE
  5
7C
330
1F
100
AcDbEntity
  8
0
  6
Continuous
 62
     7
370
    15
100
AcDbSpline
210
0.0
220
0.0
230
1.0
 70
     8
 71
     3
 72
    10
 73
     6
 74
     0
 42
0.00000001
 43
0.00000001
 40
0.0
 40
0.0
 40
0.0
 40
0.0
 40
0.5
 40
0.5
 40
1.0
 40
1.0
 40
1.0
 40
1.0
 10
124.7322766111071
 20
78.57265867741376
 30
0.0
 10
124.7322766111071
 20
78.4127714092201
 30
0.0
 10
124.6709669598713
 20
78.25164415370548
 30
0.0
 10
124.4518673223362
 20
78.01754515535066
 30
0.0
 10
124.2938191160227
 20
77.94601838175943
 30
0.0
 10
124.1322766111071
 20
77.94601838175943
 30
0.0
  0
SPLINE
  5
7D
330
1F
100
AcDbEntity
  8
0
  6
Continuous
 62
     7
370
    15
100
AcDbSpline
210
0.0
220
0.0
230
1.0
 70
    24
 71
     3
 72
    12
 73
     8
 74
     0
 42
0.00000001
 43
0.00000001
 40
0.0
 40
0.0
 40
0.0
 40
0.0
 40
0.2500000000000033
 40
0.2500000000000033
 40
0.5000000000000067
 40
0.5000000000000067
 40
1.0
 40
1.0
 40
1.0
 40
1.0
 10
124.1322766111071
 20
127.9829360780066
 30
0.0
 10
124.2225156787941
 20
127.9829360780066
 30
0.0
 10
124.3134137929006
 20
127.9829360780066
 30
0.0
 10
124.4680108293892
 20
127.9829360780066
 30
0.0
 10
124.5329892454973
 20
127.9829360780066
 30
0.0
 10
124.6848242734335
 20
127.9829360780066
 30
0.0
 10
124.7322766111071
 20
127.9829360780066
 30
0.0
 10
124.7322766111071
 20
127.9829360780066
 30
0.0
  0
LINE
  5
7E
330
1F
100
AcDbEntity
  8
0
  6
Continuous
 62
     7
370
    15
100
AcDbLine
 10
120.1742094426
 20
77.9460183818
 30
0.0
 11
120.1742094426
 21
127.982936078
 31
0.0
  0
SPLINE
  5
7F
330
1F
100
AcDbEntity
  8
0
  6
Continuous
 62
     7
370
    15
100
AcDbSpline
210
0.0
220
0.0
230
1.0
 70
     8
 71
     3
 72
     8
 73
     4
 74
     0
 42
0.00000001
 43
0.00000001
 40
0.0
 40
0.0
 40
0.0
 40
0.0
 40
1.0
 40
1.0
 40
1.0
 40
1.0
 10
120.1742094425962
 20
77.94601838175943
 30
0.0
 10
119.6787297819304
 20
78.84154446969279
 30
0.0
 10
119.1846157338883
 20
79.73782888474506
 30
0.0
 10
118.6922766111071
 20
80.63509891895175
 30
0.0
  0
LINE
  5
80
330
1F
100
AcDbEntity
  8
0
  6
Continuous
 62
     7
370
    15
100
AcDbLine
 10
118.6922766111
 20
80.635098919
 30
0.0
 11
118.6922766111
 21
127.982936078
 31
0.0
  0
SPLINE
  5
81
330
1F
100
AcDbEntity
  8
0
  6
Continuous
 62
     7
370
    15
100
AcDbSpline
210
0.0
220
0.0
230
1.0
 70
    24
 71
     3
 72
     8
 73
     4
 74
     0
 42
0.00000001
 43
0.00000001
 40
0.0
 40
0.0
 40
0.0
 40
0.0
 40
1.0
 40
1.0
 40
1.0
 40
1.0
 10
118.6922766111071
 20
127.9829360780066
 30
0.0
 10
119.172228605472
 20
127.9829360780066
 30
0.0
 10
119.6675293344456
 20
127.9829360780066
 30
0.0
 10
120.1742094425962
 20
127.9829360780066
 30
0.0
  0
LINE
  5
82
330
1F
100
AcDbEntity
  8
0
  6
Continuous
 62
     7
370
    15
100
AcDbLine
 10
124.1322766111
 20
77.9460183818
 30
0.0
 11
120.1742094426
 21
77.9460183818
 31
0.0
  0
LINE
  5
83
330
1F
100
AcDbEntity
  8
0
  6
Continuous
 62
     7
370
    15
100
AcDbLine
 10
120.1742094426
 20
127.982936078
 30
0.0
 11
124.1322766111
 21
127.982936078
 31
0.0
  0
LINE
  5
84
330
1F
100
AcDbEntity
  8
0
  6
Continuous
 62
     7
370
    15
100
AcDbLine
 10
98.7822766111
 20
76.932936078
 30
0.0
 11
98.7822766111
 21
139.3329360743
 31
0.0
  0
LINE
  5
85
330
1F
100
AcDbEntity
  8
0
  6
Continuous
 62
     7
370
    15
100
AcDbLine
 10
114.8722766111
 20
80.635098919
 30
0.0
 11
114.8722766111
 21
127.982936078
 31
0.0
  0
SPLINE
  5
86
330
1F
100
AcDbEntity
  8
0
  6
Continuous
 62
     7
370
    15
100
AcDbSpline
210
0.0
220
0.0
230
1.0
 70
     8
 71
     3
 72
     8
 73
     4
 74
     0
 42
0.00000001
 43
0.00000001
 40
0.0
 40
0.0
 40
0.0
 40
0.0
 40
1.0
 40
1.0
 40
1.0
 40
1.0
 10
114.8722766111071
 20
80.63509891895174
 30
0.0
 10
114.3799374883259
 20
79.73782888474504
 30
0.0
 10
113.8858234402838
 20
78.84154446969279
 30
0.0
 10
113.390343779618
 20
77.94601838175943
 30
0.0
  0
SPLINE
  5
87
330
1F
100
AcDbEntity
  8
0
  6
Continuous
 62
     7
370
    15
100
AcDbSpline
210
0.0
220
0.0
230
1.0
 70
    24
 71
     3
 72
     8
 73
     4
 74
     0
 42
0.00000001
 43
0.00000001
 40
0.0
 40
0.0
 40
0.0
 40
0.0
 40
1.0
 40
1.0
 40
1.0
 40
1.0
 10
113.390343779618
 20
127.9829360780066
 30
0.0
 10
113.8970238877686
 20
127.9829360780066
 30
0.0
 10
114.3923246167422
 20
127.9829360780066
 30
0.0
 10
114.8722766111071
 20
127.9829360780066
 30
0.0
  0
ARC
  5
88
330
1F
100
AcDbEntity
  8
0
  6
Continuous
 62
     7
370
    15
100
AcDbCircle
 10
106.7794143923
 20
120.0277718616
 30
0.0
 40
4.11782523805868
100
AcDbArc
 50
19.7823364131
 51
158.9347445832
  0
SPLINE
  5
89
330
1F
100
AcDbEntity
  8
0
  6
Continuous
 62
     7
370
    15
100
AcDbSpline
210
0.0
220
0.0
230
1.0
 70
    24
 71
     3
 72
    14
 73
    10
 74
     0
 42
0.00000001
 43
0.00000001
 40
0.0
 40
0.0
 40
0.0
 40
0.0
 40
0.4999999999999984
 40
0.4999999999999984
 40
0.7499999999999992
 40
0.7499999999999992
 40
0.8749999999999996
 40
0.8749999999999996
 40
1.0
 40
1.0
 40
1.0
 40
1.0
 10
118.5946018087748
 20
81.7329360780066
 30
0.0
 10
118.5478171037266
 20
81.7329360780066
 30
0.0
 10
118.485765906947
 20
81.7329360780066
 30
0.0
 10
118.3423742683964
 20
81.73293607800659
 30
0.0
 10
118.2862306148452
 20
81.7329360780066
 30
0.0
 10
118.173279592709
 20
81.7329360780066
 30
0.0
 10
118.1302788306709
 20
81.7329360780066
 30
0.0
 10
118.0262161203644
 20
81.7329360780066
 30
0.0
 10
117.9608838820075
 20
81.7329360780066
 30
0.0
 10
117.8922766111071
 20
81.7329360780066
 30
0.0
  0
SPLINE
  5
8A
330
1F
100
AcDbEntity
  8
0
  6
Continuous
 62
     7
370
    15
100
AcDbSpline
210
0.0
220
0.0
230
1.0
 70
    24
 71
     3
 72
    12
 73
     8
 74
     0
 42
0.00000001
 43
0.00000001
 40
0.0
 40
0.0
 40
0.0
 40
0.0
 40
0.5000000000000017
 40
0.5000000000000017
 40
0.7500000000000008
 40
0.7500000000000008
 40
1.0
 40
1.0
 40
1.0
 40
1.0
 10
118.2979790794161
 20
134.5329360780066
 30
0.0
 10
118.2548935298052
 20
134.5329360780066
 30
0.0
 10
118.2057413280559
 20
134.5329360780066
 30
0.0
 10
118.1092687337679
 20
134.5329360780066
 30
0.0
 10
118.0731671486334
 20
134.5329360780066
 30
0.0
 10
117.9900613907721
 20
134.5329360780066
 30
0.0
 10
117.9420647938058
 20
134.5329360780066
 30
0.0
 10
117.8922766111071
 20
134.5329360780066
 30
0.0
  0
SPLINE
  5
8B
330
1F
100
AcDbEntity
  8
0
  6
Continuous
 62
     7
370
    15
100
AcDbSpline
210
0.0
220
0.0
230
1.0
 70
     8
 71
     3
 72
    10
 73
     6
 74
     0
 42
0.00000001
 43
0.00000001
 40
0.0
 40
0.0
 40
0.0
 40
0.0
 40
0.5
 40
0.5
 40
1.0
 40
1.0
 40
1.0
 40
1.0
 10
118.6922766111071
 20
135.2525899290424
 30
0.0
 10
118.6922766111071
 20
135.1088198712244
 30
0.0
 10
118.6562275523882
 20
134.9664005087292
 30
0.0
 10
118.5207186916142
 20
134.716506215372
 30
0.0
 10
118.420842698518
 20
134.6084758791238
 30
0.0
 10
118.2979790794161
 20
134.5329360780066
 30
0.0
  0
SPLINE
  5
8C
330
1F
100
AcDbEntity
  8
0
  6
Continuous
 62
     7
370
    15
100
AcDbSpline
210
0.0
220
0.0
230
1.0
 70
     8
 71
     3
 72
    10
 73
     6
 74
     0
 42
0.00000001
 43
0.00000001
 40
0.0
 40
0.0
 40
0.0
 40
0.0
 40
0.5
 40
0.5
 40
1.0
 40
1.0
 40
1.0
 40
1.0
 10
118.666128987947
 20
127.9829360780066
 30
0.0
 10
118.6748186308586
 20
128.0298149273248
 30
0.0
 10
118.6813576956091
 20
128.0772373927261
 30
0.0
 10
118.6901163300022
 20
128.1731741913129
 30
0.0
 10
118.6922766111071
 20
128.2210894793234
 30
0.0
 10
118.6922766111071
 20
128.268802709468
 30
0.0
  0
SPLINE
  5
8D
330
1F
100
AcDbEntity
  8
0
  6
Continuous
 62
     7
370
    15
100
AcDbSpline
210
0.0
220
0.0
230
1.0
 70
     8
 71
     3
 72
    10
 73
     6
 74
     0
 42
0.00000001
 43
0.00000001
 40
0.0
 40
0.0
 40
0.0
 40
0.0
 40
0.5
 40
0.5
 40
1.0
 40
1.0
 40
1.0
 40
1.0
 10
115.266574142798
 20
134.5329360780066
 30
0.0
 10
115.1450338791295
 20
134.6076622452184
 30
0.0
 10
115.0436995187806
 20
134.7166072611352
 30
0.0
 10
114.9080605758922
 20
134.9670377418967
 30
0.0
 10
114.8722766111071
 20
135.1094571039957
 30
0.0
 10
114.8722766111071
 20
135.2525899290424
 30
0.0
  0
SPLINE
  5
8E
330
1F
100
AcDbEntity
  8
0
  6
Continuous
 62
     7
370
    15
100
AcDbSpline
210
0.0
220
0.0
230
1.0
 70
    24
 71
     3
 72
    12
 73
     8
 74
     0
 42
0.00000001
 43
0.00000001
 40
0.0
 40
0.0
 40
0.0
 40
0.0
 40
0.2500000000000037
 40
0.2500000000000037
 40
0.5000000000000074
 40
0.5000000000000074
 40
1.0
 40
1.0
 40
1.0
 40
1.0
 10
115.6722766111071
 20
134.5329360780066
 30
0.0
 10
115.6223999287896
 20
134.5329360780066
 30
0.0
 10
115.5743967353861
 20
134.5329360780066
 30
0.0
 10
115.4913486326741
 20
134.5329360780066
 30
0.0
 10
115.4552190532062
 20
134.5329360780066
 30
0.0
 10
115.359307022262
 20
134.5329360780066
 30
0.0
 10
115.3095483542932
 20
134.5329360780066
 30
0.0
 10
115.266574142798
 20
134.5329360780066
 30
0.0
  0
SPLINE
  5
8F
330
1F
100
AcDbEntity
  8
0
  6
Continuous
 62
     7
370
    15
100
AcDbSpline
210
0.0
220
0.0
230
1.0
 70
    24
 71
     3
 72
    14
 73
    10
 74
     0
 42
0.00000001
 43
0.00000001
 40
0.0
 40
0.0
 40
0.0
 40
0.0
 40
0.1249999999999991
 40
0.1249999999999991
 40
0.2499999999999982
 40
0.2499999999999982
 40
0.4999999999999998
 40
0.4999999999999998
 40
1.0
 40
1.0
 40
1.0
 40
1.0
 10
115.6722766111071
 20
81.7329360780066
 30
0.0
 10
115.6038387632206
 20
81.7329360780066
 30
0.0
 10
115.5382887244556
 20
81.7329360780066
 30
0.0
 10
115.4338620850476
 20
81.7329360780066
 30
0.0
 10
115.3913174752862
 20
81.7329360780066
 30
0.0
 10
115.278708014746
 20
81.73293607800659
 30
0.0
 10
115.2231689677265
 20
81.7329360780066
 30
0.0
 10
115.0805572722627
 20
81.73293607800659
 30
0.0
 10
115.0171519172669
 20
81.73293607800659
 30
0.0
 10
114.9699514134394
 20
81.7329360780066
 30
0.0
  0
SPLINE
  5
90
330
1F
100
AcDbEntity
  8
0
  6
Continuous
 62
     7
370
    15
100
AcDbSpline
210
0.0
220
0.0
230
1.0
 70
     8
 71
     3
 72
    10
 73
     6
 74
     0
 42
0.00000001
 43
0.00000001
 40
0.0
 40
0.0
 40
0.0
 40
0.0
 40
0.5
 40
0.5
 40
1.0
 40
1.0
 40
1.0
 40
1.0
 10
114.8722766111071
 20
128.268802709468
 30
0.0
 10
114.8722766111071
 20
128.2210312014747
 30
0.0
 10
114.8744378547043
 20
128.173321479413
 30
0.0
 10
114.8831092285644
 20
128.0780263618647
 30
0.0
 10
114.8896384115204
 20
128.0303337978981
 30
0.0
 10
114.8984242342672
 20
127.9829360780066
 30
0.0
  0
LINE
  5
91
330
1F
100
AcDbEntity
  8
0
  6
Continuous
 62
     7
370
    15
100
AcDbLine
 10
117.8922766111
 20
134.532936078
 30
0.0
 11
115.6722766111
 21
134.532936078
 31
0.0
  0
LINE
  5
92
330
1F
100
AcDbEntity
  8
0
  6
Continuous
 62
     7
370
    15
100
AcDbLine
 10
117.8922766111
 20
81.732936078
 30
0.0
 11
115.6722766111
 21
81.732936078
 31
0.0
  0
LINE
  5
93
330
1F
100
AcDbEntity
  8
0
  6
Continuous
 62
     7
370
    15
100
AcDbLine
 10
96.7822766111
 20
83.9125052163
 30
0.0
 11
96.7822766111
 21
132.3533669397
 31
0.0
  0
LINE
  5
94
330
1F
100
AcDbEntity
  8
0
  6
Continuous
 62
     7
370
    15
100
AcDbLine
 10
76.9822766111
 20
84.9044891842
 30
0.0
 11
76.9822766111
 21
86.1691985468
 31
0.0
  0
SPLINE
  5
95
330
1F
100
AcDbEntity
  8
0
  6
Continuous
 62
     7
370
    15
100
AcDbSpline
210
0.0
220
0.0
230
1.0
 70
     8
 71
     3
 72
    14
 73
    10
 74
     0
 42
0.00000001
 43
0.00000001
 40
0.0
 40
0.0
 40
0.0
 40
0.0
 40
0.25
 40
0.25
 40
0.5
 40
0.5
 40
0.75
 40
0.75
 40
1.0
 40
1.0
 40
1.0
 40
1.0
 10
76.20398949319137
 20
87.29978475444665
 30
0.0
 10
76.26061616839345
 20
87.19208730060978
 30
0.0
 10
76.3551388286832
 20
87.08929771889048
 30
0.0
 10
76.53818380424543
 20
86.89094040667032
 30
0.0
 10
76.62981038120014
 20
86.79488089799207
 30
0.0
 10
76.78866369889334
 20
86.60735185528283
 30
0.0
 10
76.85655430651502
 20
86.51594288249927
 30
0.0
 10
76.95347133222262
 20
86.33756666158912
 30
0.0
 10
76.98227661110768
 20
86.25034475534295
 30
0.0
 10
76.98227661110766
 20
86.16919854680869
 30
0.0
  0
SPLINE
  5
96
330
1F
100
AcDbEntity
  8
0
  6
Continuous
 62
     7
370
    15
100
AcDbSpline
210
0.0
220
0.0
230
1.0
 70
     8
 71
     3
 72
    14
 73
    10
 74
     0
 42
0.00000001
 43
0.00000001
 40
0.0
 40
0.0
 40
0.0
 40
0.0
 40
0.1250000000000022
 40
0.1250000000000022
 40
0.2500000000000044
 40
0.2500000000000044
 40
0.5000000000000029
 40
0.5000000000000029
 40
1.0
 40
1.0
 40
1.0
 40
1.0
 10
75.5822766111071
 20
87.74646661672597
 30
0.0
 10
75.63082101976426
 20
87.75221493000626
 30
0.0
 10
75.68373637454917
 20
87.74911404135003
 30
0.0
 10
75.77903171953221
 20
87.7269191971877
 30
0.0
 10
75.81928271681717
 20
87.70968697009184
 30
0.0
 10
75.92355273033013
 20
87.65335905363978
 30
0.0
 10
75.97387470548345
 20
87.60917270769397
 30
0.0
 10
76.10155765300884
 20
87.47816480884335
 30
0.0
 10
76.15764310007111
 20
87.38793028861305
 30
0.0
 10
76.20398949319285
 20
87.29978475444717
 30
0.0
  0
SPLINE
  5
97
330
1F
100
AcDbEntity
  8
0
  6
Continuous
 62
     7
370
    15
100
AcDbSpline
210
0.0
220
0.0
230
1.0
 70
     8
 71
     3
 72
     8
 73
     4
 74
     0
 42
0.00000001
 43
0.00000001
 40
0.0
 40
0.0
 40
0.0
 40
0.0
 40
1.0
 40
1.0
 40
1.0
 40
1.0
 10
73.31375151816088
 20
87.43662133014318
 30
0.0
 10
74.04832854464384
 20
87.55524634121213
 30
0.0
 10
74.81180361403948
 20
87.65523221334843
 30
0.0
 10
75.5822766111071
 20
87.74646661672597
 30
0.0
  0
SPLINE
  5
98
330
1F
100
AcDbEntity
  8
0
  6
Continuous
 62
     7
370
    15
100
AcDbSpline
210
0.0
220
0.0
230
1.0
 70
     8
 71
     3
 72
    14
 73
    10
 74
     0
 42
0.00000001
 43
0.00000001
 40
0.0
 40
0.0
 40
0.0
 40
0.0
 40
0.5000000000000001
 40
0.5000000000000001
 40
0.7499999999999991
 40
0.7499999999999991
 40
0.8749999999999997
 40
0.8749999999999997
 40
1.0
 40
1.0
 40
1.0
 40
1.0
 10
68.0322766111071
 20
87.26299831261153
 30
0.0
 10
68.92442274166068
 20
87.26227608641088
 30
0.0
 10
69.81439917745428
 20
87.26686229286834
 30
0.0
 10
71.14099434452989
 20
87.2945872972599
 30
0.0
 10
71.58184127302862
 20
87.30719383488406
 30
0.0
 10
72.23828151045103
 20
87.3382099828915
 30
0.0
 10
72.45629516704292
 20
87.35055315551827
 30
0.0
 10
72.88900402072568
 20
87.38357721068155
 30
0.0
 10
73.10428048589047
 20
87.40279437582
 30
0.0
 10
73.31375151816088
 20
87.43662133014318
 30
0.0
  0
SPLINE
  5
99
330
1F
100
AcDbEntity
  8
0
  6
Continuous
 62
     7
370
    15
100
AcDbSpline
210
0.0
220
0.0
230
1.0
 70
     8
 71
     3
 72
     8
 73
     4
 74
     0
 42
0.00000001
 43
0.00000001
 40
0.0000005163856712
 40
0.0000005163856712
 40
0.0000005163856712
 40
0.0000005163856712
 40
0.000026289209185
 40
0.000026289209185
 40
0.000026289209185
 40
0.000026289209185
 10
68.0222316806884
 20
87.2729821857194
 30
0.0
 10
68.02555941889989
 20
87.26964793884657
 30
0.0
 10
68.02890787187918
 20
87.26631998156756
 30
0.0
 10
68.03227661110706
 20
87.26299831261151
 30
0.0
  0
SPLINE
  5
9A
330
1F
100
AcDbEntity
  8
0
  6
Continuous
 62
     7
370
    15
100
AcDbSpline
210
0.0
220
0.0
230
1.0
 70
     8
 71
     3
 72
     8
 73
     4
 74
     0
 42
0.00000001
 43
0.00000001
 40
0.0000005099763573
 40
0.0000005099763573
 40
0.0000005099763573
 40
0.0000005099763573
 40
0.0000262827998699
 40
0.0000262827998699
 40
0.0000262827998699
 40
0.0000262827998699
 10
68.03227661110708
 20
129.0028738434017
 30
0.0
 10
68.02890787187934
 20
128.9995521744458
 30
0.0
 10
68.0255594189002
 20
128.9962242171669
 30
0.0
 10
68.02223168068889
 20
128.9928899702943
 30
0.0
  0
SPLINE
  5
9B
330
1F
100
AcDbEntity
  8
0
  6
Continuous
 62
     7
370
    15
100
AcDbSpline
210
0.0
220
0.0
230
1.0
 70
     8
 71
     3
 72
    10
 73
     6
 74
     0
 42
0.00000001
 43
0.00000001
 40
0.0
 40
0.0
 40
0.0
 40
0.0
 40
0.5
 40
0.5
 40
1.0
 40
1.0
 40
1.0
 40
1.0
 10
71.5822766111071
 20
128.9560234698343
 30
0.0
 10
70.99469106401651
 20
128.9770889900708
 30
0.0
 10
70.40394467055611
 20
128.987847475943
 30
0.0
 10
69.21992550525727
 20
129.0012122564787
 30
0.0
 10
68.62651151705181
 20
129.0033548991432
 30
0.0
 10
68.0322766111071
 20
129.0028738434017
 30
0.0
  0
SPLINE
  5
9C
330
1F
100
AcDbEntity
  8
0
  6
Continuous
 62
     7
370
    15
100
AcDbSpline
210
0.0
220
0.0
230
1.0
 70
     8
 71
     3
 72
    18
 73
    14
 74
     0
 42
0.00000001
 43
0.00000001
 40
0.0
 40
0.0
 40
0.0
 40
0.0
 40
0.249999999999999
 40
0.249999999999999
 40
0.499999999999998
 40
0.499999999999998
 40
0.749999999999997
 40
0.749999999999997
 40
0.874999999999998
 40
0.874999999999998
 40
0.937499999999999
 40
0.937499999999999
 40
1.0
 40
1.0
 40
1.0
 40
1.0
 10
72.98227661110711
 20
129.9770437503696
 30
0.0
 10
72.98227661110712
 20
129.8938368415124
 30
0.0
 10
72.94642751116884
 20
129.8051001861988
 30
0.0
 10
72.82155577513491
 20
129.6229749956386
 30
0.0
 10
72.73115535748704
 20
129.527844947012
 30
0.0
 10
72.50891270274487
 20
129.3386634378876
 30
0.0
 10
72.3791479162991
 20
129.2437182697929
 30
0.0
 10
72.13851045898758
 20
129.105439562213
 30
0.0
 10
72.05074316085015
 20
129.0597291289106
 30
0.0
 10
71.89621907364332
 20
129.0019058236892
 30
0.0
 10
71.83960818758858
 20
128.9841910596513
 30
0.0
 10
71.71556415668199
 20
128.9596517564184
 30
0.0
 10
71.6478494816637
 20
128.9536726178801
 30
0.0
 10
71.58227661110709
 20
128.9560234698343
 30
0.0
  0
LINE
  5
9D
330
1F
100
AcDbEntity
  8
0
  6
Continuous
 62
     7
370
    15
100
AcDbLine
 10
72.9822766111
 20
129.9770437504
 30
0.0
 11
72.9822766111
 21
131.1609821702
 31
0.0
  0
SPLINE
  5
9E
330
1F
100
AcDbEntity
  8
0
  6
Continuous
 62
     7
370
    15
100
AcDbSpline
210
0.0
220
0.0
230
1.0
 70
     8
 71
     3
 72
    18
 73
    14
 74
     0
 42
0.00000001
 43
0.00000001
 40
0.0
 40
0.0
 40
0.0
 40
0.0
 40
0.0010671296451825
 40
0.1270947795731591
 40
0.2524053457512679
 40
0.3766468878986963
 40
0.4391415999051271
 40
0.5008278021400229
 40
0.5624255708816985
 40
0.6253162439161283
 40
0.7499985144706796
 40
0.8752758950341297
 40
1.0
 40
1.0
 40
1.0
 40
1.0
 10
85.55257745117977
 20
84.47559705509025
 30
0.0
 10
85.55166561854128
 20
84.47548227655362
 30
0.0
 10
85.44306665990446
 20
84.46181219168783
 30
0.0
 10
85.83070772755411
 20
84.51273169230325
 30
0.0
 10
86.69667240938934
 20
84.6123148653498
 30
0.0
 10
87.89707633415911
 20
84.68143874849343
 30
0.0
 10
88.95465224864792
 20
84.68539097763232
 30
0.0
 10
89.78178633555771
 20
84.65790203917697
 30
0.0
 10
90.60705820319295
 20
84.59936186276975
 30
0.0
 10
91.66142342319067
 20
84.48584070303305
 30
0.0
 10
92.8232597046638
 20
84.30268987878539
 30
0.0
 10
93.77549448604708
 20
84.09808666915032
 30
0.0
 10
93.901199546855
 20
84.06880131837427
 30
0.0
 10
93.96391297900023
 20
84.05419104853358
 30
0.0
  0
SPLINE
  5
9F
330
1F
100
AcDbEntity
  8
0
  6
Continuous
 62
     7
370
    15
100
AcDbSpline
210
0.0
220
0.0
230
1.0
 70
     8
 71
     3
 72
    18
 73
    14
 74
     0
 42
0.00000001
 43
0.00000001
 40
0.0
 40
0.0
 40
0.0
 40
0.0
 40
0.1248907792210118
 40
0.2505384020341681
 40
0.3748721840485256
 40
0.4374907653350248
 40
0.499077626589441
 40
0.5607931536355697
 40
0.6233901338664959
 40
0.7478191038417357
 40
0.8731940995934964
 40
0.9991614644710061
 40
1.0
 40
1.0
 40
1.0
 40
1.0
 10
93.9636942134763
 20
132.2116159269253
 30
0.0
 10
93.89995346076466
 20
132.1969546343272
 30
0.0
 10
93.77208568358814
 20
132.1675432010557
 30
0.0
 10
92.82008646252787
 20
131.9625900969932
 30
0.0
 10
91.659542757324
 20
131.7793263211824
 30
0.0
 10
90.60727830523658
 20
131.6662987289331
 30
0.0
 10
89.78305119016758
 20
131.608035081392
 30
0.0
 10
88.95544742064763
 20
131.580588693388
 30
0.0
 10
87.89663022816234
 20
131.584573499317
 30
0.0
 10
86.69441153012836
 20
131.6536629756983
 30
0.0
 10
85.82922759044102
 20
131.7532891922554
 30
0.0
 10
85.44308716891075
 20
131.8041052658548
 30
0.0
 10
85.55115870969115
 20
131.7904330857925
 30
0.0
 10
85.55187335961143
 20
131.7903426751041
 30
0.0
  0
SPLINE
  5
A0
330
1F
100
AcDbEntity
  8
0
  6
Continuous
 62
     7
370
    15
100
AcDbSpline
210
0.0
220
0.0
230
1.0
 70
     8
 71
     3
 72
    10
 73
     6
 74
     0
 42
0.00000001
 43
0.00000001
 40
0.0
 40
0.0
 40
0.0
 40
0.0
 40
0.5
 40
0.5
 40
1.0
 40
1.0
 40
1.0
 40
1.0
 10
66.88227661110643
 20
88.4422583315291
 30
0.0
 10
66.88227661110639
 20
88.4133840666697
 30
0.0
 10
66.89247052086749
 20
88.39588051029118
 30
0.0
 10
66.91922112567565
 20
88.39534894746343
 30
0.0
 10
66.936108577607
 20
88.413016404643
 30
0.0
 10
66.94493998583052
 20
88.45838353322586
 30
0.0
  0
LINE
  5
A1
330
1F
100
AcDbEntity
  8
0
  6
Continuous
 62
     7
370
    15
100
AcDbLine
 10
66.8822766111
 20
88.4422583315
 30
0.0
 11
66.8822766111
 21
127.8236138245
 31
0.0
  0
SPLINE
  5
A2
330
1F
100
AcDbEntity
  8
0
  6
Continuous
 62
     7
370
    15
100
AcDbSpline
210
0.0
220
0.0
230
1.0
 70
     8
 71
     3
 72
    10
 73
     6
 74
     0
 42
0.00000001
 43
0.00000001
 40
0.0
 40
0.0
 40
0.0
 40
0.0
 40
0.5
 40
0.5
 40
1.0
 40
1.0
 40
1.0
 40
1.0
 10
66.94493998583052
 20
127.8074886227873
 30
0.0
 10
66.93603569672176
 20
127.8532301420005
 30
0.0
 10
66.91952031652878
 20
127.8704209814695
 30
0.0
 10
66.89241237046717
 20
127.8700977045338
 30
0.0
 10
66.8822766111071
 20
127.8522201622373
 30
0.0
 10
66.8822766111071
 20
127.8236138244848
 30
0.0
  0
SPLINE
  5
A3
330
1F
100
AcDbEntity
  8
0
  6
Continuous
 62
     7
370
    15
100
AcDbSpline
210
0.0
220
0.0
230
1.0
 70
     8
 71
     3
 72
    26
 73
    22
 74
     0
 42
0.00000001
 43
0.00000001
 40
0.0
 40
0.0
 40
0.0
 40
0.0
 40
0.2499999999999842
 40
0.2499999999999842
 40
0.3749999999999759
 40
0.3749999999999759
 40
0.4374999999999711
 40
0.4374999999999711
 40
0.4687499999999716
 40
0.4687499999999716
 40
0.4999999999999721
 40
0.4999999999999721
 40
0.5312499999999726
 40
0.5312499999999726
 40
0.562499999999973
 40
0.562499999999973
 40
0.624999999999976
 40
0.624999999999976
 40
0.749999999999984
 40
0.749999999999984
 40
1.0
 40
1.0
 40
1.0
 40
1.0
 10
67.70643025721161
 20
128.5230554116044
 30
0.0
 10
67.66782973434314
 20
128.405280715249
 30
0.0
 10
67.62153273178888
 20
128.2808910290871
 30
0.0
 10
67.52759338335495
 20
128.0756716967336
 30
0.0
 10
67.4922819164415
 20
128.0040988302871
 30
0.0
 10
67.42610194069582
 20
127.8881455976867
 30
0.0
 10
67.4015635740276
 20
127.8475610628765
 30
0.0
 10
67.35819082847378
 20
127.7834193810047
 30
0.0
 10
67.34268242704859
 20
127.7615529557196
 30
0.0
 10
67.30763978246155
 20
127.7159586873764
 30
0.0
 10
67.28808949174179
 20
127.692288396409
 30
0.0
 10
67.2461622113712
 20
127.6476718370691
 30
0.0
 10
67.22351010113955
 20
127.6267918245512
 30
0.0
 10
67.18253638705295
 20
127.5959184108004
 30
0.0
 10
67.16493708715751
 20
127.586079540968
 30
0.0
 10
67.12031010130137
 20
127.5670899252718
 30
0.0
 10
67.09975087864802
 20
127.5667656006184
 30
0.0
 10
67.04862543915137
 20
127.5759890414946
 30
0.0
 10
67.02771402616281
 20
127.5972359377115
 30
0.0
 10
66.97626411860189
 20
127.6712048165423
 30
0.0
 10
66.95859881929732
 20
127.7373229098571
 30
0.0
 10
66.94493998583052
 20
127.8074886227873
 30
0.0
  0
SPLINE
  5
A4
330
1F
100
AcDbEntity
  8
0
  6
Continuous
 62
     7
370
    15
100
AcDbSpline
210
0.0
220
0.0
230
1.0
 70
     8
 71
     3
 72
    10
 73
     6
 74
     0
 42
0.00000001
 43
0.00000001
 40
0.0
 40
0.0
 40
0.0
 40
0.0
 40
0.5
 40
0.5
 40
1.0
 40
1.0
 40
1.0
 40
1.0
 10
68.02223168068889
 20
128.9928899702943
 30
0.0
 10
67.95467242577067
 20
128.9251985774845
 30
0.0
 10
67.89103577043414
 20
128.8504914127309
 30
0.0
 10
67.78081501586229
 20
128.6915252803042
 30
0.0
 10
67.73399872263967
 20
128.6071700142962
 30
0.0
 10
67.7064302572116
 20
128.5230554116044
 30
0.0
  0
SPLINE
  5
A5
330
1F
100
AcDbEntity
  8
0
  6
Continuous
 62
     7
370
    15
100
AcDbSpline
210
0.0
220
0.0
230
1.0
 70
     8
 71
     3
 72
    10
 73
     6
 74
     0
 42
0.00000001
 43
0.00000001
 40
0.0
 40
0.0
 40
0.0
 40
0.0
 40
0.5
 40
0.5
 40
1.0
 40
1.0
 40
1.0
 40
1.0
 10
67.70643025721164
 20
87.74281674440863
 30
0.0
 10
67.73390767196486
 20
87.65897994794304
 30
0.0
 10
67.78061630225251
 20
87.5746694603562
 30
0.0
 10
67.89089476499447
 20
87.41554822987335
 30
0.0
 10
67.95478230360611
 20
87.34056348578527
 30
0.0
 10
68.02223168068844
 20
87.2729821857194
 30
0.0
  0
SPLINE
  5
A6
330
1F
100
AcDbEntity
  8
0
  6
Continuous
 62
     7
370
    15
100
AcDbSpline
210
0.0
220
0.0
230
1.0
 70
     8
 71
     3
 72
    24
 73
    20
 74
     0
 42
0.00000001
 43
0.00000001
 40
0.0
 40
0.0
 40
0.0
 40
0.0
 40
0.2499999999999937
 40
0.2499999999999937
 40
0.3749999999999912
 40
0.3749999999999912
 40
0.4374999999999901
 40
0.4374999999999901
 40
0.4687499999999891
 40
0.4687499999999891
 40
0.4999999999999881
 40
0.4999999999999881
 40
0.5624999999999888
 40
0.5624999999999888
 40
0.6249999999999893
 40
0.6249999999999893
 40
0.749999999999992
 40
0.749999999999992
 40
1.0
 40
1.0
 40
1.0
 40
1.0
 10
66.94493998583052
 20
88.45838353322586
 30
0.0
 10
66.95869310450072
 20
88.52903359121612
 30
0.0
 10
66.9764656719066
 20
88.59563170398106
 30
0.0
 10
67.02871676346194
 20
88.66972972421426
 30
0.0
 10
67.04975183904351
 20
88.69098753137581
 30
0.0
 10
67.10265224667195
 20
88.69913345752207
 30
0.0
 10
67.12375791954986
 20
88.69819365412629
 30
0.0
 10
67.16981008822782
 20
88.67717766254894
 30
0.0
 10
67.1881805602112
 20
88.66626885644132
 30
0.0
 10
67.2297321952769
 20
88.63363394549397
 30
0.0
 10
67.25229886803383
 20
88.6121419651226
 30
0.0
 10
67.31507988449387
 20
88.5436760215363
 30
0.0
 10
67.34820964546172
 20
88.49760156333122
 30
0.0
 10
67.40512733194674
 20
88.41259367499653
 30
0.0
 10
67.42931335745054
 20
88.37231337381516
 30
0.0
 10
67.49452130783028
 20
88.25737714734922
 30
0.0
 10
67.52923736802154
 20
88.18679416220219
 30
0.0
 10
67.62245263835241
 20
87.98258840312359
 30
0.0
 10
67.6681251737131
 20
87.85969002079622
 30
0.0
 10
67.70643025721164
 20
87.74281674440864
 30
0.0
  0
SPLINE
  5
A7
330
1F
100
AcDbEntity
  8
0
  6
Continuous
 62
     7
370
    15
100
AcDbSpline
210
0.0
220
0.0
230
1.0
 70
     8
 71
     3
 72
     8
 73
     4
 74
     0
 42
0.00000001
 43
0.00000001
 40
0.0
 40
0.0
 40
0.0
 40
0.0
 40
1.0
 40
1.0
 40
1.0
 40
1.0
 10
120.1742094425962
 20
138.6001315511708
 30
0.0
 10
119.6790694132318
 20
137.7134519029906
 30
0.0
 10
119.1849867079529
 20
136.8261892673046
 30
0.0
 10
118.6922766111071
 20
135.9381702691782
 30
0.0
  0
LINE
  5
A8
330
1F
100
AcDbEntity
  8
0
  6
Continuous
 62
     7
370
    15
100
AcDbLine
 10
120.1742094426
 20
132.5916257404
 30
0.0
 11
120.1742094426
 21
138.6001315512
 31
0.0
  0
SPLINE
  5
A9
330
1F
100
AcDbEntity
  8
0
  6
Continuous
 62
     7
370
    15
100
AcDbSpline
210
0.0
220
0.0
230
1.0
 70
     8
 71
     3
 72
     8
 73
     4
 74
     0
 42
0.00000001
 43
0.00000001
 40
0.0
 40
0.0
 40
0.0
 40
0.0
 40
1.0
 40
1.0
 40
1.0
 40
1.0
 10
118.6922766111071
 20
129.1830797455899
 30
0.0
 10
119.1715547616969
 20
130.3240909754425
 30
0.0
 10
119.6671226008369
 20
131.4604753862104
 30
0.0
 10
120.1742094425962
 20
132.591625740374
 30
0.0
  0
LINE
  5
AA
330
1F
100
AcDbEntity
  8
0
  6
Continuous
 62
     7
370
    15
100
AcDbLine
 10
118.6922766111
 20
129.1830797456
 30
0.0
 11
118.6922766111
 21
135.9381702692
 31
0.0
  0
LINE
  5
AB
330
1F
100
AcDbEntity
  8
0
  6
Continuous
 62
     7
370
    15
100
AcDbLine
 10
118.6922766111
 20
128.2688027095
 30
0.0
 11
118.6922766111
 21
129.1830797456
 31
0.0
  0
LINE
  5
AC
330
1F
100
AcDbEntity
  8
0
  6
Continuous
 62
     7
370
    15
100
AcDbLine
 10
120.1742094426
 20
132.5916257404
 30
0.0
 11
124.1322766111
 21
132.5916257404
 31
0.0
  0
SPLINE
  5
AD
330
1F
100
AcDbEntity
  8
0
  6
Continuous
 62
     7
370
    15
100
AcDbSpline
210
0.0
220
0.0
230
1.0
 70
     8
 71
     3
 72
    12
 73
     8
 74
     0
 42
0.00000001
 43
0.00000001
 40
0.0
 40
0.0
 40
0.0
 40
0.0
 40
0.25
 40
0.25
 40
0.5
 40
0.5
 40
1.0
 40
1.0
 40
1.0
 40
1.0
 10
124.1322766111071
 20
132.5916257403741
 30
0.0
 10
124.2234763329327
 20
132.5916257403741
 30
0.0
 10
124.3140713420688
 20
132.5634060417862
 30
0.0
 10
124.4674840685154
 20
132.4689630345381
 30
0.0
 10
124.5326929358391
 20
132.4026760578327
 30
0.0
 10
124.685477465179
 20
132.1770512345444
 30
0.0
 10
124.7322766111071
 20
131.9946249715119
 30
0.0
 10
124.7322766111071
 20
131.813888339265
 30
0.0
  0
LINE
  5
AE
330
1F
100
AcDbEntity
  8
0
  6
Continuous
 62
     7
370
    15
100
AcDbLine
 10
124.7322766111
 20
131.8138883393
 30
0.0
 11
124.7322766111
 21
127.982936078
 31
0.0
  0
SPLINE
  5
AF
330
1F
100
AcDbEntity
  8
0
  6
Continuous
 62
     7
370
    15
100
AcDbSpline
210
0.0
220
0.0
230
1.0
 70
     8
 71
     3
 72
    10
 73
     6
 74
     0
 42
0.00000001
 43
0.00000001
 40
0.0
 40
0.0
 40
0.0
 40
0.0
 40
0.5
 40
0.5
 40
1.0
 40
1.0
 40
1.0
 40
1.0
 10
124.7322766111071
 20
137.9793764017705
 30
0.0
 10
124.7322766111071
 20
138.1397816681213
 30
0.0
 10
124.6700387800002
 20
138.2988434811099
 30
0.0
 10
124.4509038562577
 20
138.5297559467402
 30
0.0
 10
124.2933151612658
 20
138.6001315511708
 30
0.0
 10
124.1322766111071
 20
138.6001315511708
 30
0.0
  0
LINE
  5
B0
330
1F
100
AcDbEntity
  8
0
  6
Continuous
 62
     7
370
    15
100
AcDbLine
 10
124.7322766111
 20
131.8138883393
 30
0.0
 11
124.7322766111
 21
137.9793764018
 31
0.0
  0
LINE
  5
B1
330
1F
100
AcDbEntity
  8
0
  6
Continuous
 62
     7
370
    15
100
AcDbLine
 10
124.1322766111
 20
138.6001315512
 30
0.0
 11
120.1742094426
 21
138.6001315512
 31
0.0
  0
SPLINE
  5
B2
330
1F
100
AcDbEntity
  8
0
  6
Continuous
 62
     7
370
    15
100
AcDbSpline
210
0.0
220
0.0
230
1.0
 70
     8
 71
     3
 72
     8
 73
     4
 74
     0
 42
0.00000001
 43
0.00000001
 40
0.0
 40
0.0
 40
0.0
 40
0.0
 40
1.0
 40
1.0
 40
1.0
 40
1.0
 10
114.8722766111071
 20
135.9381702691782
 30
0.0
 10
114.3795665142613
 20
136.8261892673046
 30
0.0
 10
113.8854838089824
 20
137.7134519029906
 30
0.0
 10
113.390343779618
 20
138.6001315511708
 30
0.0
  0
LINE
  5
B3
330
1F
100
AcDbEntity
  8
0
  6
Continuous
 62
     7
370
    15
100
AcDbLine
 10
114.8722766111
 20
129.1830797456
 30
0.0
 11
114.8722766111
 21
135.9381702692
 31
0.0
  0
SPLINE
  5
B4
330
1F
100
AcDbEntity
  8
0
  6
Continuous
 62
     7
370
    15
100
AcDbSpline
210
0.0
220
0.0
230
1.0
 70
     8
 71
     3
 72
     8
 73
     4
 74
     0
 42
0.00000001
 43
0.00000001
 40
0.0
 40
0.0
 40
0.0
 40
0.0
 40
1.0
 40
1.0
 40
1.0
 40
1.0
 10
113.390343779618
 20
132.591625740374
 30
0.0
 10
113.8974306213773
 20
131.4604753862104
 30
0.0
 10
114.3929984605173
 20
130.3240909754425
 30
0.0
 10
114.8722766111071
 20
129.1830797455899
 30
0.0
  0
LINE
  5
B5
330
1F
100
AcDbEntity
  8
0
  6
Continuous
 62
     7
370
    15
100
AcDbLine
 10
114.8722766111
 20
129.1830797456
 30
0.0
 11
114.8722766111
 21
128.2688027095
 31
0.0
  0
ARC
  5
B6
330
1F
100
AcDbEntity
  8
0
  6
Continuous
 62
     7
370
    15
100
AcDbCircle
 10
106.7821265328
 20
126.863221154
 30
0.0
 40
7.226153047389745
100
AcDbArc
 50
70.8273481302
 51
109.12768509
  0
LINE
  5
B7
330
1F
100
AcDbEntity
  8
0
  6
Continuous
 62
     7
370
    15
100
AcDbLine
 10
177.9574576664
 20
92.132936078
 30
0.0
 11
177.9574576664
 21
124.132936078
 31
0.0
  0
SPLINE
  5
B8
330
1F
100
AcDbEntity
  8
0
  6
Continuous
 62
     7
370
    15
100
AcDbSpline
210
0.0
220
0.0
230
1.0
 70
     8
 71
     3
 72
    58
 73
    54
 74
     0
 42
0.00000001
 43
0.00000001
 40
-0.0312500000000012
 40
-0.0312500000000012
 40
0.0
 40
0.0
 40
0.062499999999998
 40
0.062499999999998
 40
0.093749999999997
 40
0.093749999999997
 40
0.124999999999996
 40
0.124999999999996
 40
0.187499999999993
 40
0.187499999999993
 40
0.24999999999999
 40
0.24999999999999
 40
0.2812499999999893
 40
0.2812499999999893
 40
0.3124999999999886
 40
0.3124999999999886
 40
0.343749999999988
 40
0.343749999999988
 40
0.3749999999999873
 40
0.3749999999999873
 40
0.4062499999999866
 40
0.4062499999999866
 40
0.4374999999999859
 40
0.4374999999999859
 40
0.4687499999999852
 40
0.4687499999999852
 40
0.4999999999999846
 40
0.4999999999999846
 40
0.5624999999999848
 40
0.5624999999999848
 40
0.5937499999999849
 40
0.5937499999999849
 40
0.624999999999986
 40
0.624999999999986
 40
0.6562499999999871
 40
0.6562499999999871
 40
0.6874999999999882
 40
0.6874999999999882
 40
0.7499999999999905
 40
0.7499999999999905
 40
0.8124999999999928
 40
0.8124999999999928
 40
0.8437499999999939
 40
0.8437499999999939
 40
0.8749999999999951
 40
0.8749999999999951
 40
0.9062499999999963
 40
0.9062499999999963
 40
0.9374999999999976
 40
0.9374999999999976
 40
0.9687499999999988
 40
0.9687499999999988
 40
1.0
 40
1.0
 40
1.062499999999998
 40
1.062499999999998
 10
158.2311660257942
 20
110.2355468011317
 30
0.0
 10
158.7400784663669
 20
110.6281927730088
 30
0.0
 10
159.1181288270967
 20
110.8215940694052
 30
0.0
 10
159.7296696117462
 20
111.0173051750475
 30
0.0
 10
159.9365700972422
 20
111.0650275562684
 30
0.0
 10
160.3561863952526
 20
111.1272811124229
 30
0.0
 10
160.5703131775177
 20
111.1417630440069
 30
0.0
 10
161.212024278943
 20
111.13343485434
 30
0.0
 10
161.6315327604363
 20
111.0608316965134
 30
0.0
 10
162.4391110559291
 20
110.7786582729036
 30
0.0
 10
162.810003136113
 20
110.576084427627
 30
0.0
 10
163.3068204895343
 20
110.1692355620077
 30
0.0
 10
163.4567707244526
 20
110.0204984622872
 30
0.0
 10
163.7241792969224
 20
109.695565392341
 30
0.0
 10
163.8423384548263
 20
109.5181777556886
 30
0.0
 10
164.0374626681084
 20
109.1360460023795
 30
0.0
 10
164.1118374554704
 20
108.9369255021408
 30
0.0
 10
164.2113080306731
 20
108.5214933950533
 30
0.0
 10
164.2353027909719
 20
108.3055326842595
 30
0.0
 10
164.2286234994968
 20
107.8805582162031
 30
0.0
 10
164.1978834177655
 20
107.6655484861219
 30
0.0
 10
164.0857347612572
 20
107.2531623517173
 30
0.0
 10
164.0053849493532
 20
107.0560280255813
 30
0.0
 10
163.7989336198328
 20
106.6787537451962
 30
0.0
 10
163.6761511777609
 20
106.5047169502439
 30
0.0
 10
163.3969002627747
 20
106.1833940762032
 30
0.0
 10
163.2392807543054
 20
106.0356525716514
 30
0.0
 10
162.7358175908233
 20
105.6449230969028
 30
0.0
 10
162.349291408849
 20
105.4459572153261
 30
0.0
 10
161.7428094309942
 20
105.2507314221276
 30
0.0
 10
161.5337412579658
 20
105.2018990590224
 30
0.0
 10
161.1098075524789
 20
105.1386079652326
 30
0.0
 10
160.8976543776785
 20
105.1243324165861
 30
0.0
 10
160.4729877681326
 20
105.1293147589901
 30
0.0
 10
160.2592136525592
 20
105.1488027949571
 30
0.0
 10
159.8369565930884
 20
105.2223232340449
 30
0.0
 10
159.6314866468858
 20
105.2756054169701
 30
0.0
 10
159.0318479696359
 20
105.4846829621042
 30
0.0
 10
158.6495894537865
 20
105.693841528091
 30
0.0
 10
157.9970057082338
 20
106.2282661299706
 30
0.0
 10
157.715645295118
 20
106.5632414186634
 30
0.0
 10
157.4261223086274
 20
107.1324732291072
 30
0.0
 10
157.3502592423789
 20
107.3367639160547
 30
0.0
 10
157.2524185701918
 20
107.7503561915307
 30
0.0
 10
157.2288157461994
 20
107.9625808948267
 30
0.0
 10
157.2365526912181
 20
108.3942666966937
 30
0.0
 10
157.2675611418123
 20
108.6051305437582
 30
0.0
 10
157.3805530148337
 20
109.0175226083073
 30
0.0
 10
157.4632074480681
 20
109.2183558237986
 30
0.0
 10
157.6686690136864
 20
109.5915207892998
 30
0.0
 10
157.7936768092783
 20
109.7681847906741
 30
0.0
 10
158.0747894795598
 20
110.0896862305649
 30
0.0
 10
158.2311660257942
 20
110.2355468011317
 30
0.0
 10
158.7400784663669
 20
110.6281927730088
 30
0.0
  0
CIRCLE
  5
B9
330
1F
100
AcDbEntity
  8
0
  6
Continuous
 62
     7
370
    15
100
AcDbCircle
 10
160.7322766111
 20
108.132936078
 30
0.0
 40
2.500000000000014
  0
LINE
  5
BA
330
1F
100
AcDbEntity
  8
0
  6
Continuous
 62
     7
370
    15
100
AcDbLine
 10
158.4008035047
 20
123.9762788533
 30
0.0
 11
158.5917819257
 21
123.9565468937
 31
0.0
  0
SPLINE
  5
BB
330
1F
100
AcDbEntity
  8
0
  6
Continuous
 62
     7
370
    15
100
AcDbSpline
210
0.0
220
0.0
230
1.0
 70
     8
 71
     3
 72
    37
 73
    33
 74
     0
 42
0.00000001
 43
0.00000001
 40
0.0
 40
0.0
 40
0.0
 40
0.0
 40
0.0251317373170024
 40
0.047372880727535
 40
0.0677699174412434
 40
0.1091979698190492
 40
0.1302579031238009
 40
0.151929648584486
 40
0.1958620350880859
 40
0.2181430073780065
 40
0.2428499203121998
 40
0.2929229362111074
 40
0.3183150073273743
 40
0.3466093306246793
 40
0.4040139222779774
 40
0.433168948319739
 40
0.4640584902499745
 40
0.5268292558838278
 40
0.5587794483355758
 40
0.5905243101487504
 40
0.6224940480519967
 40
0.6551907413969575
 40
0.6881481156267656
 40
0.7190467111909211
 40
0.7820971640480413
 40
0.8143938879246975
 40
0.8374106400369622
 40
0.8841630796393294
 40
0.9079764644651079
 40
0.9309989822618228
 40
0.9779924738159277
 40
0.9999999999999999
 40
0.9999999999999999
 40
0.9999999999999999
 40
0.9999999999999999
 10
164.2227056485488
 20
124.131419765462
 30
0.0
 10
164.2242965906502
 20
124.1316706038957
 30
0.0
 10
164.227295488397
 20
124.1321434299103
 30
0.0
 10
164.1896068095658
 20
124.1261911436375
 30
0.0
 10
164.1252200237618
 20
124.1161430773688
 30
0.0
 10
164.0271058431229
 20
124.101118510549
 30
0.0
 10
163.8980861905128
 20
124.0821395900902
 30
0.0
 10
163.7454056027179
 20
124.0603554896091
 30
0.0
 10
163.5619644897955
 20
124.0355396333082
 30
0.0
 10
163.3478085789407
 20
124.0087432752521
 30
0.0
 10
163.1022927846857
 20
123.9798570177577
 30
0.0
 10
162.823839505457
 20
123.9506121905254
 30
0.0
 10
162.5159844840651
 20
123.9229873605686
 30
0.0
 10
162.1732950375003
 20
123.8960423983486
 30
0.0
 10
161.8004452475621
 20
123.873628479034
 30
0.0
 10
161.4084179665396
 20
123.8581390537039
 30
0.0
 10
160.9927538279191
 20
123.8476788299321
 30
0.0
 10
160.5619001583274
 20
123.8467050465408
 30
0.0
 10
160.1326879350065
 20
123.8557101462554
 30
0.0
 10
159.8120539302934
 20
123.867352628877
 30
0.0
 10
159.4954278779866
 20
123.8836095607731
 30
0.0
 10
159.183900687428
 20
123.9041976590125
 30
0.0
 10
158.8874488837338
 20
123.9280347471043
 30
0.0
 10
158.5164472169088
 20
123.9627211792201
 30
0.0
 10
158.1785558152331
 20
124.0006476930393
 30
0.0
 10
157.904330797767
 20
124.0354655118424
 30
0.0
 10
157.6920540935321
 20
124.0640367700978
 30
0.0
 10
157.5279619434814
 20
124.08765488263
 30
0.0
 10
157.4010324818979
 20
124.1066979215024
 30
0.0
 10
157.3008109451371
 20
124.1220872871067
 30
0.0
 10
157.2400350189895
 20
124.1317055608145
 30
0.0
 10
157.2348596614216
 20
124.1325264998633
 30
0.0
 10
157.2332090072585
 20
124.1327883342276
 30
0.0
  0
SPLINE
  5
BC
330
1F
100
AcDbEntity
  8
0
  6
Continuous
 62
     7
370
    15
100
AcDbSpline
210
0.0
220
0.0
230
1.0
 70
     8
 71
     3
 72
     9
 73
     5
 74
     0
 42
0.00000001
 43
0.00000001
 40
0.0
 40
0.0
 40
0.0
 40
0.0
 40
0.3464450194768087
 40
0.9999999999999999
 40
0.9999999999999999
 40
0.9999999999999999
 40
0.9999999999999999
 10
158.1502016030953
 20
124.0053221928756
 30
0.0
 10
158.1770166633787
 20
124.001973208675
 30
0.0
 10
158.2544172862075
 20
123.9923064967515
 30
0.0
 10
158.3429454695414
 20
123.9826136570021
 30
0.0
 10
158.4008035046758
 20
123.9762788533085
 30
0.0
  0
SPLINE
  5
BD
330
1F
100
AcDbEntity
  8
0
  6
Continuous
 62
     7
370
    15
100
AcDbSpline
210
0.0
220
0.0
230
1.0
 70
     8
 71
     3
 72
     9
 73
     5
 74
     0
 42
0.00000001
 43
0.00000001
 40
0.0
 40
0.0
 40
0.0
 40
0.0
 40
0.891117364599109
 40
1.0
 40
1.0
 40
1.0
 40
1.0
 10
158.4008035049799
 20
92.28959330273776
 30
0.0
 10
158.3288542413335
 20
92.28178225490858
 30
0.0
 10
158.2481137390105
 20
92.27301680140101
 30
0.0
 10
158.1802625360232
 20
92.2644199366776
 30
0.0
 10
158.1728747182268
 20
92.26348388739032
 30
0.0
  0
SPLINE
  5
BE
330
1F
100
AcDbEntity
  8
0
  6
Continuous
 62
     7
370
    15
100
AcDbSpline
210
0.0
220
0.0
230
1.0
 70
     8
 71
     3
 72
    39
 73
    35
 74
     0
 42
0.00000001
 43
0.00000001
 40
0.0
 40
0.0
 40
0.0
 40
0.0
 40
0.007354874802269
 40
0.0302069816342671
 40
0.0506451808966309
 40
0.0921837666616769
 40
0.1133172922718236
 40
0.1345512863631244
 40
0.1776065331299072
 40
0.1994485873239964
 40
0.2234438886943236
 40
0.2720714035444562
 40
0.2967273404786671
 40
0.3243192663365315
 40
0.3802821684946779
 40
0.4086932008979551
 40
0.4391904142527936
 40
0.5011443059730825
 40
0.532665151239298
 40
0.5643637983364904
 40
0.5962835925282715
 40
0.6289127703121061
 40
0.6617936472317483
 40
0.6930298603733756
 40
0.7245065330845777
 40
0.7567931442254768
 40
0.7893859654179771
 40
0.8132580700255928
 40
0.8617439508450453
 40
0.8864391636806186
 40
0.9103177071104818
 40
0.959088039213079
 40
0.9840843179895391
 40
1.0
 40
1.0
 40
1.0
 40
1.0
 10
157.2379454604389
 20
92.13383259300178
 30
0.0
 10
157.23602879795
 20
92.13352957453338
 30
0.0
 10
157.2281569319894
 20
92.13228505663795
 30
0.0
 10
157.2487313398464
 20
92.13554614326331
 30
0.0
 10
157.2926895880122
 20
92.14246780642644
 30
0.0
 10
157.3740494950204
 20
92.15511397899084
 30
0.0
 10
157.4863531305091
 20
92.17197770573551
 30
0.0
 10
157.6213512046959
 20
92.19172683056226
 30
0.0
 10
157.7867479774522
 20
92.21485463646187
 30
0.0
 10
157.9827883638916
 20
92.24045699386285
 30
0.0
 10
158.2085766909575
 20
92.26841011233658
 30
0.0
 10
158.4669942559358
 20
92.2974362955708
 30
0.0
 10
158.7555574962487
 20
92.32575798859847
 30
0.0
 10
159.0791776994949
 20
92.35417265743241
 30
0.0
 10
159.4343442206927
 20
92.37919941087796
 30
0.0
 10
159.8117538245787
 20
92.39838666463137
 30
0.0
 10
160.2164318005733
 20
92.41337173484935
 30
0.0
 10
160.6404111903738
 20
92.41962253245548
 30
0.0
 10
161.0675170071025
 20
92.41606557627682
 30
0.0
 10
161.3899808730806
 20
92.40841510791853
 30
0.0
 10
161.7115924024055
 20
92.39586106841564
 30
0.0
 10
162.0300976948441
 20
92.37860597820739
 30
0.0
 10
162.3367507520748
 20
92.35744697366192
 30
0.0
 10
162.6279004086368
 20
92.3333367877645
 30
0.0
 10
162.9032819014772
 20
92.30701507842184
 30
0.0
 10
163.1654447583858
 20
92.27878127893497
 30
0.0
 10
163.3880364321067
 20
92.25229559218256
 30
0.0
 10
163.6283717748649
 20
92.22161376955928
 30
0.0
 10
163.8211144542458
 20
92.19492948967442
 30
0.0
 10
163.9766042042801
 20
92.1722338762084
 30
0.0
 10
164.1061478487927
 20
92.15274471330753
 30
0.0
 10
164.1918004384588
 20
92.13934476241003
 30
0.0
 10
164.2292930606068
 20
92.13340992090896
 30
0.0
 10
164.2302070692682
 20
92.13326443978964
 30
0.0
 10
164.230562639398
 20
92.1332078443298
 30
0.0
  0
LINE
  5
BF
330
1F
100
AcDbEntity
  8
0
  6
Continuous
 62
     7
370
    15
100
AcDbLine
 10
158.5190362443
 20
92.3019929818
 30
0.0
 11
158.400803505
 21
92.2895933027
 31
0.0
  0
LINE
  5
C0
330
1F
100
AcDbEntity
  8
0
  6
Continuous
 62
     7
370
    15
100
AcDbLine
 10
228.7822766111
 20
97.9817170613
 30
0.0
 11
228.7822766111
 21
118.2841550947
 31
0.0
  0
LINE
  5
C1
330
1F
100
AcDbEntity
  8
0
  6
Continuous
 62
     7
370
    15
100
AcDbLine
 10
228.8117214729
 20
100.1340929698
 30
0.0
 11
228.8595988182
 21
98.9155331601
 31
0.0
  0
LINE
  5
C2
330
1F
100
AcDbEntity
  8
0
  6
Continuous
 62
     7
370
    15
100
AcDbLine
 10
228.7822766111
 20
100.883514747
 30
0.0
 11
228.8117214729
 21
100.1340929698
 31
0.0
  0
LINE
  5
C3
330
1F
100
AcDbEntity
  8
0
  6
Continuous
 62
     7
370
    15
100
AcDbLine
 10
228.8007090946
 20
117.3526527795
 30
0.0
 11
228.7822766111
 21
116.883514747
 31
0.0
  0
LINE
  5
C4
330
1F
100
AcDbEntity
  8
0
  6
HIDDEN
 62
     7
370
     0
100
AcDbLine
 10
113.3903437796
 20
132.5916257404
 30
0.0
 11
113.3903437796
 21
127.982936078
 31
0.0
  0
ARC
  5
C5
330
1F
100
AcDbEntity
  8
0
  6
HIDDEN
 62
     7
370
     0
100
AcDbCircle
 10
107.084521921
 20
120.6109171659
 30
0.0
 40
3.660565765032643
100
AcDbArc
 50
265.2638146341
 51
12.7924708268
  0
ARC
  5
C6
330
1F
100
AcDbEntity
  8
0
  6
HIDDEN
 62
     7
370
     0
100
AcDbCircle
 10
106.4993634184
 20
120.6228068325
 30
0.0
 40
3.670874462837168
100
AcDbArc
 50
166.0486690848
 51
274.4201516687
  0
LINE
  5
C7
330
1F
100
AcDbEntity
  8
0
  6
HIDDEN
 62
     7
370
     0
100
AcDbLine
 10
69.8135574202
 20
128.9945115421
 30
0.0
 11
68.1731650125
 21
129.0022124366
 31
0.0
  0
LINE
  5
C8
330
1F
100
AcDbEntity
  8
0
  6
HIDDEN
 62
     7
370
     0
100
AcDbLine
 10
86.7774268157
 20
84.6083364552
 30
0.0
 11
86.2432813866
 21
84.5537218557
 31
0.0
  0
LINE
  5
C9
330
1F
100
AcDbEntity
  8
0
  6
HIDDEN
 62
     7
370
     0
100
AcDbLine
 10
86.0056277145
 20
131.7362692585
 30
0.0
 11
86.7773340954
 21
131.657519108
 31
0.0
  0
SPLINE
  5
CA
330
1F
100
AcDbEntity
  8
0
  6
HIDDEN
 62
     7
370
     0
100
AcDbSpline
210
0.0
220
0.0
230
1.0
 70
     8
 71
     3
 72
    12
 73
     8
 74
     0
 42
0.00000001
 43
0.00000001
 40
0.0
 40
0.0
 40
0.0
 40
0.0
 40
0.2208160623186398
 40
0.4480844750868688
 40
0.6689349144552311
 40
0.8961259338159431
 40
1.0
 40
1.0
 40
1.0
 40
1.0
 10
92.53727861270869
 20
127.970464553823
 30
0.0
 10
92.66932183569381
 20
127.9875216421455
 30
0.0
 10
92.93726664749232
 20
128.0221342350303
 30
0.0
 10
93.23242251084918
 20
128.049106165004
 30
0.0
 10
93.43351566626077
 20
128.0646159506361
 30
0.0
 10
93.53084841981916
 20
128.0707252575535
 30
0.0
 10
93.52218887186672
 20
128.0701799450857
 30
0.0
 10
93.51947187603596
 20
128.0700088493531
 30
0.0
  0
SPLINE
  5
CB
330
1F
100
AcDbEntity
  8
0
  6
HIDDEN
 62
     7
370
     0
100
AcDbSpline
210
0.0
220
0.0
230
1.0
 70
     8
 71
     3
 72
    17
 73
    13
 74
     0
 42
0.00000001
 43
0.00000001
 40
0.0
 40
0.0
 40
0.0
 40
0.0
 40
0.0069727214565626
 40
0.118315133500182
 40
0.2320715610949062
 40
0.346662708538357
 40
0.4573810852401587
 40
0.5688719167275493
 40
0.6828068301681398
 40
0.7975913648334502
 40
0.8984980589007246
 40
1.0
 40
1.0
 40
1.0
 40
1.0
 10
93.53152208451618
 20
88.19510119727664
 30
0.0
 10
93.53177192905218
 20
88.19508541931849
 30
0.0
 10
93.53601136265289
 20
88.19481769440851
 30
0.0
 10
93.52009015997876
 20
88.19581464660938
 30
0.0
 10
93.48107633253878
 20
88.19833106960388
 30
0.0
 10
93.41262365131945
 20
88.2030287136672
 30
0.0
 10
93.31987182224458
 20
88.20997857144039
 30
0.0
 10
93.20258021322215
 20
88.21970805838062
 30
0.0
 10
93.05974358136287
 20
88.23295506465544
 30
0.0
 10
92.89819418820555
 20
88.24994215333427
 30
0.0
 10
92.72439084801096
 20
88.2702347937475
 30
0.0
 10
92.59977151874693
 20
88.28700023134033
 30
0.0
 10
92.53727861270869
 20
88.29540760219014
 30
0.0
  0
SPLINE
  5
CC
330
1F
100
AcDbEntity
  8
0
  6
HIDDEN
 62
     7
370
     0
100
AcDbSpline
210
0.0
220
0.0
230
1.0
 70
     8
 71
     3
 72
    32
 73
    28
 74
     0
 42
0.00000001
 43
0.00000001
 40
0.0
 40
0.0
 40
0.0
 40
0.0
 40
0.0346246159901393
 40
0.0694870388940023
 40
0.105100760954932
 40
0.1409753874086758
 40
0.1756005721189328
 40
0.210469240812561
 40
0.2461122854708169
 40
0.2820258067991321
 40
0.3162663828049037
 40
0.3859338563640312
 40
0.4214461814158482
 40
0.4553763558770598
 40
0.5243713305904967
 40
0.5595124638219118
 40
0.593798734303577
 40
0.6635059787021123
 40
0.6990055363805018
 40
0.7337623601246063
 40
0.7687606633024604
 40
0.8045245907686109
 40
0.8405553812432468
 40
0.875170121130555
 40
0.9456085132854553
 40
0.9815233266320907
 40
1.0
 40
1.0
 40
1.0
 40
1.0
 10
92.53727861270869
 20
88.29540760219014
 30
0.0
 10
92.46528031086228
 20
88.30519554509847
 30
0.0
 10
92.32078921232912
 20
88.3248386559349
 30
0.0
 10
92.07946927807065
 20
88.3542878745566
 30
0.0
 10
91.82017102708501
 20
88.38283825664703
 30
0.0
 10
91.54618360795239
 20
88.40926947560186
 30
0.0
 10
91.26155582693085
 20
88.43272195295317
 30
0.0
 10
90.9669708679627
 20
88.45271940941177
 30
0.0
 10
90.66003995899437
 20
88.4688750879155
 30
0.0
 10
90.34830849324192
 20
88.48031707561103
 30
0.0
 10
89.93104294455651
 20
88.48900820330886
 30
0.0
 10
89.51039995119895
 20
88.48772014684866
 30
0.0
 10
89.09699639803348
 20
88.47649233548118
 30
0.0
 10
88.69215243496619
 20
88.45919406340033
 30
0.0
 10
88.301514350404
 20
88.4334784196321
 30
0.0
 10
87.93273327236274
 20
88.40138510873518
 30
0.0
 10
87.57931549011433
 20
88.36582690023275
 30
0.0
 10
87.25387439979343
 20
88.32657844389715
 30
0.0
 10
86.96449719407609
 20
88.2869469265248
 30
0.0
 10
86.76658331710078
 20
88.25781118338256
 30
0.0
 10
86.58925635306328
 20
88.2300769510698
 30
0.0
 10
86.43264702455076
 20
88.20429640681543
 30
0.0
 10
86.30099950484806
 20
88.18168977008125
 30
0.0
 10
86.15913830927636
 20
88.1565037247746
 30
0.0
 10
86.07031972146072
 20
88.14005817565099
 30
0.0
 10
86.03349678291032
 20
88.1331653448348
 30
0.0
 10
86.03491293008351
 20
88.133430330744
 30
0.0
 10
86.03539399229268
 20
88.1335203458987
 30
0.0
  0
SPLINE
  5
CD
330
1F
100
AcDbEntity
  8
0
  6
HIDDEN
 62
     7
370
     0
100
AcDbSpline
210
0.0
220
0.0
230
1.0
 70
     8
 71
     3
 72
    22
 73
    18
 74
     0
 42
0.00000001
 43
0.00000001
 40
0.0
 40
0.0
 40
0.0
 40
0.0
 40
0.0499040281125884
 40
0.1203075863893544
 40
0.1885125365560131
 40
0.258644416829719
 40
0.3277839407293157
 40
0.3988873214655099
 40
0.4686969488930336
 40
0.5405663748364754
 40
0.609708789122301
 40
0.6809159691092499
 40
0.7490773369981711
 40
0.8192056085539694
 40
0.8876078379088254
 40
0.9579332867310426
 40
1.0
 40
1.0
 40
1.0
 40
1.0
 10
86.0422487527685
 20
128.1310712699249
 30
0.0
 10
86.043499686794
 20
128.1308322395292
 30
0.0
 10
86.04651541235829
 20
128.1302559900545
 30
0.0
 10
86.1714087394118
 20
128.107057955231
 30
0.0
 10
86.39589056728937
 20
128.0673779189134
 30
0.0
 10
86.71491872946687
 20
128.0151664975141
 30
0.0
 10
87.12245396046356
 20
127.9558366858419
 30
0.0
 10
87.60424051429649
 20
127.896361909326
 30
0.0
 10
88.15466019609177
 20
127.842755552964
 30
0.0
 10
88.74755508204002
 20
127.8022816344896
 30
0.0
 10
89.37450765235718
 20
127.7790823861233
 30
0.0
 10
90.00271862618521
 20
127.7761042829084
 30
0.0
 10
90.62697871866224
 20
127.7932386086077
 30
0.0
 10
91.21959700849052
 20
127.8279244642978
 30
0.0
 10
91.77642309201867
 20
127.8768808279615
 30
0.0
 10
92.21422993665156
 20
127.9267809925847
 30
0.0
 10
92.44929664342446
 20
127.9585673815764
 30
0.0
 10
92.53727861270869
 20
127.970464553823
 30
0.0
  0
LINE
  5
CE
330
1F
100
AcDbEntity
  8
0
  6
HIDDEN
 62
     7
370
     0
100
AcDbLine
 10
79.7862512073
 20
91.132936078
 30
0.0
 11
79.7862512073
 21
125.132936078
 31
0.0
  0
LWPOLYLINE
  5
CF
330
1F
100
AcDbEntity
  8
0
  6
HIDDEN
 62
     7
370
     0
100
AcDbPolyline
 90
       13
 70
   128
 43
0.0
 10
106.7822766111
 20
130.0785384926
 10
107.642158372
 20
130.1252973812
 10
108.4618330173
 20
130.2633876533
 10
109.2029734719
 20
130.4863523612
 10
109.8309248316
 20
130.7837659231
 10
110.3163247889
 20
131.1417216112
 10
110.6364765812
 20
131.5434818156
 10
110.7764102665
 20
131.9702606755
 10
110.7295827013
 20
132.4021024858
 10
110.4981834904
 20
132.8188148033
 10
110.0930326037
 20
133.2009126234
 10
109.5330744465
 20
133.5305294765
 10
109.1553096874
 20
133.6885628728
  0
LWPOLYLINE
  5
D0
330
1F
100
AcDbEntity
  8
0
  6
HIDDEN
 62
     7
370
     0
100
AcDbPolyline
 90
       13
 70
   128
 43
0.0
 10
104.4143007621
 20
133.6904232883
 10
104.0314787757
 20
133.5305294765
 10
103.4715206185
 20
133.2009126234
 10
103.0663697318
 20
132.8188148033
 10
102.8349705209
 20
132.4021024858
 10
102.7881429557
 20
131.9702606755
 10
102.928076641
 20
131.5434818156
 10
103.2482284333
 20
131.1417216112
 10
103.7336283906
 20
130.7837659231
 10
104.3615797503
 20
130.4863523612
 10
105.1027202049
 20
130.2633876533
 10
105.9223948503
 20
130.1252973812
 10
106.7822766111
 20
130.0785384926
  0
SPLINE
  5
D1
330
1F
100
AcDbEntity
  8
0
  6
HIDDEN
 62
     7
370
     0
100
AcDbSpline
210
0.0
220
0.0
230
1.0
 70
     8
 71
     3
 72
    11
 73
     7
 74
     0
 42
0.00000001
 43
0.00000001
 40
0.0
 40
0.0
 40
0.0
 40
0.0
 40
0.0005779865010845
 40
0.0005779865010845
 40
0.0005779865010845
 40
0.0011559733324421
 40
0.0011559733324421
 40
0.0011559733324421
 40
0.0011559733324421
 10
66.8822766111071
 20
110.1327766861665
 30
0.0
 10
67.04894386591306
 20
110.1307930468254
 30
0.0
 10
67.21561029559072
 20
110.1287554398169
 30
0.0
 10
67.38227663404255
 20
110.1266439764105
 30
0.0
 10
67.54894306286896
 20
110.1245325118591
 30
0.0
 10
67.71560943650665
 20
110.1223469487028
 30
0.0
 10
67.8822766111071
 20
110.1200643713711
 30
0.0
  0
SPLINE
  5
D2
330
1F
100
AcDbEntity
  8
0
  6
HIDDEN
 62
     7
370
     0
100
AcDbSpline
210
0.0
220
0.0
230
1.0
 70
     8
 71
     3
 72
     8
 73
     4
 74
     0
 42
0.00000001
 43
0.00000001
 40
0.0
 40
0.0
 40
0.0
 40
0.0
 40
0.0011564765856722
 40
0.0011564765856722
 40
0.0011564765856722
 40
0.0011564765856722
 10
67.8822766111071
 20
106.1362357757903
 30
0.0
 10
67.54896868053825
 20
106.1353606202071
 30
0.0
 10
67.21563344814605
 20
106.1343057689555
 30
0.0
 10
66.8822766111071
 20
106.1331346819179
 30
0.0
  0
LINE
  5
D3
330
1F
100
AcDbEntity
  8
0
  6
HIDDEN
 62
     7
370
     0
100
AcDbLine
 10
106.4421025796
 20
91.132936078
 30
0.0
 11
106.4421025796
 21
125.132936078
 31
0.0
  0
LINE
  5
D4
330
1F
100
AcDbEntity
  8
0
  6
HIDDEN
 62
     7
370
     0
100
AcDbLine
 10
108.7322766111
 20
92.407936078
 30
0.0
 11
108.7322766111
 21
123.8579360771
 31
0.0
  0
SPLINE
  5
D5
330
1F
100
AcDbEntity
  8
0
  6
HIDDEN
 62
     7
370
     0
100
AcDbSpline
210
0.0
220
0.0
230
1.0
 70
     8
 71
     3
 72
    16
 73
    12
 74
     0
 42
0.00000001
 43
0.00000001
 40
0.0
 40
0.0
 40
0.0
 40
0.0
 40
0.124999999999998
 40
0.124999999999998
 40
0.249999999999996
 40
0.249999999999996
 40
0.4999999999999973
 40
0.4999999999999973
 40
0.7499999999999987
 40
0.7499999999999987
 40
1.0
 40
1.0
 40
1.0
 40
1.0
 10
75.5822766111071
 20
92.33144564197494
 30
0.0
 10
75.67739836577292
 20
92.33144564197494
 30
0.0
 10
75.770728434501
 20
92.32762980858215
 30
0.0
 10
75.953990195239
 20
92.31285925585233
 30
0.0
 10
76.04486791079601
 20
92.30170120787676
 30
0.0
 10
76.30166960831575
 20
92.25922993773503
 30
0.0
 10
76.45673697318774
 20
92.21818374053223
 30
0.0
 10
76.71048343474236
 20
92.12303762395034
 30
0.0
 10
76.81135388641022
 20
92.06827488986876
 30
0.0
 10
76.94660030110506
 20
91.95701376596487
 30
0.0
 10
76.9822766111071
 20
91.8998440286362
 30
0.0
 10
76.9822766111071
 20
91.84542245560249
 30
0.0
  0
SPLINE
  5
D6
330
1F
100
AcDbEntity
  8
0
  6
HIDDEN
 62
     7
370
     0
100
AcDbSpline
210
0.0
220
0.0
230
1.0
 70
     8
 71
     3
 72
     8
 73
     4
 74
     0
 42
0.00000001
 43
0.00000001
 40
0.0
 40
0.0
 40
0.0
 40
0.0
 40
1.0
 40
1.0
 40
1.0
 40
1.0
 10
68.18227661442229
 20
94.47624858805719
 30
0.0
 10
68.18227661442423
 20
93.59235144574025
 30
0.0
 10
68.16879598851443
 20
92.8777682006783
 30
0.0
 10
68.16744462032511
 20
92.33144564197494
 30
0.0
  0
LINE
  5
D7
330
1F
100
AcDbEntity
  8
0
  6
HIDDEN
 62
     7
370
     0
100
AcDbLine
 10
67.8822766111
 20
98.5321092856
 30
0.0
 11
67.8822766111
 21
95.5011588538
 31
0.0
  0
SPLINE
  5
D8
330
1F
100
AcDbEntity
  8
0
  6
HIDDEN
 62
     7
370
     0
100
AcDbSpline
210
0.0
220
0.0
230
1.0
 70
     8
 71
     3
 72
    10
 73
     6
 74
     0
 42
0.00000001
 43
0.00000001
 40
0.0
 40
0.0
 40
0.0
 40
0.0
 40
0.5
 40
0.5
 40
1.0
 40
1.0
 40
1.0
 40
1.0
 10
68.1822766142948
 20
99.89994970236377
 30
0.0
 10
68.18227661429478
 20
99.65796573475696
 30
0.0
 10
68.1541265852242
 20
99.42362330579193
 30
0.0
 10
68.0505366710818
 20
98.96824828351424
 30
0.0
 10
67.9739079614903
 20
98.7466437204069
 30
0.0
 10
67.8822766111071
 20
98.53210928560895
 30
0.0
  0
LINE
  5
D9
330
1F
100
AcDbEntity
  8
0
  6
HIDDEN
 62
     7
370
     0
100
AcDbLine
 10
68.1822766143
 20
111.7375696996
 30
0.0
 11
68.1822766143
 21
99.8999497023
 31
0.0
  0
SPLINE
  5
DA
330
1F
100
AcDbEntity
  8
0
  6
HIDDEN
 62
     7
370
     0
100
AcDbSpline
210
0.0
220
0.0
230
1.0
 70
     8
 71
     3
 72
     8
 73
     4
 74
     0
 42
0.00000001
 43
0.00000001
 40
0.0
 40
0.0
 40
0.0
 40
0.0
 40
1.0
 40
1.0
 40
1.0
 40
1.0
 10
67.88227661110709
 20
117.7398753990749
 30
0.0
 10
68.06330807766601
 20
117.3077679134122
 30
0.0
 10
68.18227661430053
 20
116.8536225073126
 30
0.0
 10
68.18227661429482
 20
116.3659224536185
 30
0.0
  0
LINE
  5
DB
330
1F
100
AcDbEntity
  8
0
  6
HIDDEN
 62
     7
370
     0
100
AcDbLine
 10
67.8822766111
 20
120.7730783851
 30
0.0
 11
67.8822766111
 21
117.7398753991
 31
0.0
  0
SPLINE
  5
DC
330
1F
100
AcDbEntity
  8
0
  6
HIDDEN
 62
     7
370
     0
100
AcDbSpline
210
0.0
220
0.0
230
1.0
 70
     8
 71
     3
 72
    10
 73
     6
 74
     0
 42
0.00000001
 43
0.00000001
 40
0.0
 40
0.0
 40
0.0
 40
0.0
 40
0.5
 40
0.5
 40
1.0
 40
1.0
 40
1.0
 40
1.0
 10
68.18227661450031
 20
121.7896235679264
 30
0.0
 10
68.18227661449852
 20
121.6249872213204
 30
0.0
 10
68.15511794374304
 20
121.4578319974899
 30
0.0
 10
68.04935294842463
 20
121.1192089896883
 30
0.0
 10
67.97293816012747
 20
120.9469372123973
 30
0.0
 10
67.88227661110713
 20
120.7730783850533
 30
0.0
  0
SPLINE
  5
DD
330
1F
100
AcDbEntity
  8
0
  6
HIDDEN
 62
     7
370
     0
100
AcDbSpline
210
0.0
220
0.0
230
1.0
 70
     8
 71
     3
 72
    18
 73
    14
 74
     0
 42
0.00000001
 43
0.00000001
 40
0.0
 40
0.0
 40
0.0
 40
0.0
 40
0.2500000000000033
 40
0.2500000000000033
 40
0.3750000000000029
 40
0.3750000000000029
 40
0.5000000000000026
 40
0.5000000000000026
 40
0.6250000000000022
 40
0.6250000000000022
 40
0.7500000000000018
 40
0.7500000000000018
 40
1.0
 40
1.0
 40
1.0
 40
1.0
 10
72.9822766111071
 20
124.4204497004107
 30
0.0
 10
72.9822766111071
 20
124.3659751798585
 30
0.0
 10
72.94736591971493
 20
124.309594120506
 30
0.0
 10
72.84535661838187
 20
124.2255172796526
 30
0.0
 10
72.80372026370377
 20
124.1981835756616
 30
0.0
 10
72.70531446821502
 20
124.1452296600627
 30
0.0
 10
72.64777125651072
 20
124.1193423063455
 30
0.0
 10
72.52047308293778
 20
124.0715647615122
 30
0.0
 10
72.45088577818032
 20
124.0496168433343
 30
0.0
 10
72.29945153302536
 20
124.0101842784216
 30
0.0
 10
72.21676762993141
 20
123.9926280291958
 30
0.0
 10
71.96065616789336
 20
123.9501892637753
 30
0.0
 10
71.77274116400538
 20
123.9344265140383
 30
0.0
 10
71.58227661110709
 20
123.9344265140383
 30
0.0
  0
LINE
  5
DE
330
1F
100
AcDbEntity
  8
0
  6
HIDDEN
 62
     7
370
     0
100
AcDbLine
 10
71.5822766111
 20
123.934426514
 30
0.0
 11
68.1822766145
 21
123.934426514
 31
0.0
  0
LINE
  5
DF
330
1F
100
AcDbEntity
  8
0
  6
HIDDEN
 62
     7
370
     0
100
AcDbLine
 10
68.1133076245
 20
92.331445642
 30
0.0
 11
75.5822766111
 21
92.331445642
 31
0.0
  0
SPLINE
  5
E0
330
1F
100
AcDbEntity
  8
0
  6
HIDDEN
 62
     7
370
     0
100
AcDbSpline
210
0.0
220
0.0
230
1.0
 70
     8
 71
     3
 72
    22
 73
    18
 74
     0
 42
0.00000001
 43
0.00000001
 40
0.0
 40
0.0
 40
0.0
 40
0.0
 40
0.1249999999999998
 40
0.1249999999999998
 40
0.2499999999999995
 40
0.2499999999999995
 40
0.4999999999999992
 40
0.4999999999999992
 40
0.5624999999999993
 40
0.5624999999999993
 40
0.6249999999999994
 40
0.6249999999999994
 40
0.7499999999999996
 40
0.7499999999999996
 40
0.8749999999999998
 40
0.8749999999999998
 40
1.0
 40
1.0
 40
1.0
 40
1.0
 10
68.11330762446502
 20
92.33144564197494
 30
0.0
 10
68.10022523173664
 20
92.58655135212261
 30
0.0
 10
68.08700566829681
 20
92.87970961122652
 30
0.0
 10
68.06455849050269
 20
93.54201007685133
 30
0.0
 10
68.05508002347824
 20
93.91228399746271
 30
0.0
 10
68.03588206254169
 20
95.1348408005765
 30
0.0
 10
68.03699583553858
 20
96.07197972670836
 30
0.0
 10
68.05590662849164
 20
97.39185095622335
 30
0.0
 10
68.06053615635066
 20
97.66335286519967
 30
0.0
 10
68.0710173760966
 20
98.22173770000198
 30
0.0
 10
68.07681263738102
 20
98.50886055594158
 30
0.0
 10
68.09512185828596
 20
99.38144981031326
 30
0.0
 10
68.10915679256632
 20
99.98190548666912
 30
0.0
 10
68.13861396470314
 20
101.2193799791652
 30
0.0
 10
68.15416965568471
 20
101.8563961358086
 30
0.0
 10
68.1779642056816
 20
103.1678847334932
 30
0.0
 10
68.18598325782696
 20
103.8440073451537
 30
0.0
 10
68.1822766111071
 20
104.5283024564385
 30
0.0
  0
LINE
  5
E1
330
1F
100
AcDbEntity
  8
0
  6
HIDDEN
 62
     7
370
     0
100
AcDbLine
 10
68.1822766145
 20
111.7375696996
 30
0.0
 11
68.1822766145
 21
123.934426514
 31
0.0
  0
SPLINE
  5
E2
330
1F
100
AcDbEntity
  8
0
  6
HIDDEN
 62
     7
370
     0
100
AcDbSpline
210
0.0
220
0.0
230
1.0
 70
     8
 71
     3
 72
    10
 73
     6
 74
     0
 42
0.00000001
 43
0.00000001
 40
0.0
 40
0.0
 40
0.0
 40
0.0
 40
0.5
 40
0.5
 40
1.0
 40
1.0
 40
1.0
 40
1.0
 10
68.1822766111071
 20
104.5283024564234
 30
0.0
 10
68.18227661110691
 20
104.8022176044978
 30
0.0
 10
68.15651738123923
 20
105.0731591832279
 30
0.0
 10
68.05331144850607
 20
105.6088502648307
 30
0.0
 10
67.97597328463085
 20
105.8745970683527
 30
0.0
 10
67.88227661110709
 20
106.1362357757903
 30
0.0
  0
SPLINE
  5
E3
330
1F
100
AcDbEntity
  8
0
  6
HIDDEN
 62
     7
370
     0
100
AcDbSpline
210
0.0
220
0.0
230
1.0
 70
     8
 71
     3
 72
    10
 73
     6
 74
     0
 42
0.00000001
 43
0.00000001
 40
0.0
 40
0.0
 40
0.0
 40
0.0
 40
0.5
 40
0.5
 40
1.0
 40
1.0
 40
1.0
 40
1.0
 10
67.88227661110709
 20
110.1200643713711
 30
0.0
 10
67.9755071924981
 20
110.3839581794412
 30
0.0
 10
68.05053680473486
 20
110.6501384900795
 30
0.0
 10
68.15560390391299
 20
111.1884610650377
 30
0.0
 10
68.18227661449919
 20
111.4612091812832
 30
0.0
 10
68.18227661450038
 20
111.7375696995737
 30
0.0
  0
LINE
  5
E4
330
1F
100
AcDbEntity
  8
0
  6
HIDDEN
 62
     7
370
     0
100
AcDbLine
 10
67.8822766111
 20
106.1362357758
 30
0.0
 11
67.8822766111
 21
110.1200643714
 31
0.0
  0
LINE
  5
E5
330
1F
100
AcDbEntity
  8
0
  6
HIDDEN
 62
     7
370
     0
100
AcDbLine
 10
68.0322766111
 20
90.142936078
 30
0.0
 11
68.0322766111
 21
87.2629983126
 31
0.0
  0
LINE
  5
E6
330
1F
100
AcDbEntity
  8
0
  6
HIDDEN
 62
     7
370
     0
100
AcDbLine
 10
76.9822766111
 20
90.142936078
 30
0.0
 11
76.9822766111
 21
86.1691985468
 31
0.0
  0
LINE
  5
E7
330
1F
100
AcDbEntity
  8
0
  6
HIDDEN
 62
     7
370
     0
100
AcDbLine
 10
68.0322766111
 20
126.122936078
 30
0.0
 11
68.0322766111
 21
129.0028738434
 31
0.0
  0
LINE
  5
E8
330
1F
100
AcDbEntity
  8
0
  6
HIDDEN
 62
     7
370
     0
100
AcDbLine
 10
72.9822766111
 20
126.122936078
 30
0.0
 11
72.9822766111
 21
129.9770437504
 31
0.0
  0
LINE
  5
E9
330
1F
100
AcDbEntity
  8
0
  6
HIDDEN
 62
     7
370
     0
100
AcDbLine
 10
117.5822766111
 20
98.632936078
 30
0.0
 11
117.5822766111
 21
117.632936078
 31
0.0
  0
LINE
  5
EA
330
1F
100
AcDbEntity
  8
0
  6
HIDDEN
 62
     7
370
     0
100
AcDbLine
 10
120.5822766111
 20
98.632936078
 30
0.0
 11
120.5822766111
 21
117.632936078
 31
0.0
  0
LINE
  5
EB
330
1F
100
AcDbEntity
  8
0
  6
HIDDEN
 62
     7
370
     0
100
AcDbLine
 10
109.2322766111
 20
99.632936078
 30
0.0
 11
109.2322766111
 21
116.632936078
 31
0.0
  0
LINE
  5
EC
330
1F
100
AcDbEntity
  8
0
  6
HIDDEN
 62
     7
370
     0
100
AcDbLine
 10
114.9699514134
 20
81.732936078
 30
0.0
 11
111.7322766111
 21
81.732936078
 31
0.0
  0
LINE
  5
ED
330
1F
100
AcDbEntity
  8
0
  6
HIDDEN
 62
     7
370
     0
100
AcDbLine
 10
103.7322766111
 20
76.6488130951
 30
0.0
 11
103.7322766111
 21
81.732936078
 31
0.0
  0
LINE
  5
EE
330
1F
100
AcDbEntity
  8
0
  6
HIDDEN
 62
     7
370
     0
100
AcDbLine
 10
111.7322766111
 20
81.732936078
 30
0.0
 11
103.7322766111
 21
81.732936078
 31
0.0
  0
LINE
  5
EF
330
1F
100
AcDbEntity
  8
0
  6
HIDDEN
 62
     7
370
     0
100
AcDbLine
 10
124.7322766111
 20
81.732936078
 30
0.0
 11
118.5946018088
 21
81.732936078
 31
0.0
  0
LINE
  5
F0
330
1F
100
AcDbEntity
  8
0
  6
HIDDEN
 62
     7
370
     0
100
AcDbLine
 10
115.2665741428
 20
134.532936078
 30
0.0
 11
111.7322766111
 21
134.532936078
 31
0.0
  0
LINE
  5
F1
330
1F
100
AcDbEntity
  8
0
  6
HIDDEN
 62
     7
370
     0
100
AcDbLine
 10
124.7322766111
 20
134.532936078
 30
0.0
 11
118.2979790794
 21
134.532936078
 31
0.0
  0
LINE
  5
F2
330
1F
100
AcDbEntity
  8
0
  6
HIDDEN
 62
     7
370
     0
100
AcDbLine
 10
111.7322766111
 20
134.532936078
 30
0.0
 11
103.7322766111
 21
134.532936078
 31
0.0
  0
SPLINE
  5
F3
330
1F
100
AcDbEntity
  8
0
  6
HIDDEN
 62
     7
370
     0
100
AcDbSpline
210
0.0
220
0.0
230
1.0
 70
     8
 71
     3
 72
    11
 73
     7
 74
     0
 42
0.00000001
 43
0.00000001
 40
0.0
 40
0.0
 40
0.0
 40
0.0
 40
0.0008203708524183
 40
0.0008203708524183
 40
0.0008203708524183
 40
0.0016409967870154
 40
0.0016409967870154
 40
0.0016409967870154
 40
0.0016409967870154
 10
68.0322766111071
 20
92.28090332736387
 30
0.0
 10
67.84111831080844
 20
92.23972429874473
 30
0.0
 10
67.64969124073625
 20
92.20097032651474
 30
0.0
 10
67.4580456172156
 20
92.16460256723619
 30
0.0
 10
67.26634021213515
 20
92.12822346347016
 30
0.0
 10
67.07440126007621
 20
92.0942292127026
 30
0.0
 10
66.88227661300542
 20
92.06258108731139
 30
0.0
  0
ELLIPSE
  5
F4
330
1F
100
AcDbEntity
  8
0
  6
HIDDEN
 62
     7
370
     0
100
AcDbEllipse
 10
62.6398447425
 20
108.132936078
 30
0.0
 11
20.19992453366649
 21
-1.421085471520200E-14
 31
0.0
210
0.0
220
0.0
230
1.0
 40
0.8164965809
 41
1.300566354717996
 42
1.3591986972096
  0
LINE
  5
F5
330
1F
100
AcDbEntity
  8
0
  6
HIDDEN
 62
     7
370
     0
100
AcDbLine
 10
76.9822766111
 20
90.142936078
 30
0.0
 11
76.9822766111
 21
91.8454224556
 31
0.0
  0
LINE
  5
F6
330
1F
100
AcDbEntity
  8
0
  6
HIDDEN
 62
     7
370
     0
100
AcDbLine
 10
68.0322766111
 20
90.142936078
 30
0.0
 11
68.0322766111
 21
92.2809033274
 31
0.0
  0
LINE
  5
F7
330
1F
100
AcDbEntity
  8
0
  6
HIDDEN
 62
     7
370
     0
100
AcDbLine
 10
68.1133076245
 20
92.331445642
 30
0.0
 11
68.0322766111
 21
92.2809033274
 31
0.0
  0
LINE
  5
F8
330
1F
100
AcDbEntity
  8
0
  6
HIDDEN
 62
     7
370
     0
100
AcDbLine
 10
72.9822766111
 20
126.122936078
 30
0.0
 11
72.9822766111
 21
124.4204497004
 31
0.0
  0
LINE
  5
F9
330
1F
100
AcDbEntity
  8
0
  6
HIDDEN
 62
     7
370
     0
100
AcDbLine
 10
68.0322766111
 20
126.122936078
 30
0.0
 11
68.0322766111
 21
124.0275605291
 31
0.0
  0
SPLINE
  5
FA
330
1F
100
AcDbEntity
  8
0
  6
HIDDEN
 62
     7
370
     0
100
AcDbSpline
210
0.0
220
0.0
230
1.0
 70
     8
 71
     3
 72
     8
 73
     4
 74
     0
 42
0.00000001
 43
0.00000001
 40
0.0
 40
0.0
 40
0.0
 40
0.0
 40
1.0
 40
1.0
 40
1.0
 40
1.0
 10
68.0322766111071
 20
124.0275605290652
 30
0.0
 10
68.08228211005083
 20
123.9965247548461
 30
0.0
 10
68.13228218071524
 20
123.9654801098186
 30
0.0
 10
68.18227661450035
 20
123.9344265140383
 30
0.0
  0
LINE
  5
FB
330
1F
100
AcDbEntity
  8
0
  6
HIDDEN
 62
     7
370
     0
100
AcDbLine
 10
225.2822766111
 20
103.132936078
 30
0.0
 11
225.2822766111
 21
113.132936078
 31
0.0
  0
SPLINE
  5
FC
330
1F
100
AcDbEntity
  8
0
  6
HIDDEN
 62
     7
370
     0
100
AcDbSpline
210
0.0
220
0.0
230
1.0
 70
     8
 71
     3
 72
    22
 73
    18
 74
     0
 42
0.00000001
 43
0.00000001
 40
0.0
 40
0.0
 40
0.0
 40
0.0
 40
0.0512869958570309
 40
0.1556564263764449
 40
0.208858642903362
 40
0.2601432036745012
 40
0.3643861688498753
 40
0.4174483086647923
 40
0.4700395706407861
 40
0.5769431835100552
 40
0.6313795770200021
 40
0.6848509439664217
 40
0.7387053060270181
 40
0.7937899671105608
 40
0.8493103513462336
 40
0.9013915633377857
 40
1.0
 40
1.0
 40
1.0
 40
1.0
 10
189.2822766111071
 20
113.2162420888621
 30
0.0
 10
189.3227419629181
 20
113.2165336841727
 30
0.0
 10
189.4455546164907
 20
113.21741867818
 30
0.0
 10
189.6088851387844
 20
113.2256726476341
 30
0.0
 10
189.7665398490108
 20
113.2388097918649
 30
0.0
 10
189.9194867024315
 20
113.2550744281151
 30
0.0
 10
190.0642271983643
 20
113.2752544789412
 30
0.0
 10
190.1983471346152
 20
113.2978256123139
 30
0.0
 10
190.3257091448931
 20
113.3215995528577
 30
0.0
 10
190.4400276148084
 20
113.3460020948231
 30
0.0
 10
190.5380309377153
 20
113.3689086542511
 30
0.0
 10
190.6030192648532
 20
113.3849106625872
 30
0.0
 10
190.6589175798173
 20
113.3992744948564
 30
0.0
 10
190.7055839819629
 20
113.411693569571
 30
0.0
 10
190.7409376521392
 20
113.4213574860619
 30
0.0
 10
190.7739348282182
 20
113.4305599331622
 30
0.0
 10
190.7781509380359
 20
113.4317636107136
 30
0.0
 10
190.7809098800179
 20
113.4325512743829
 30
0.0
  0
LINE
  5
FD
330
1F
100
AcDbEntity
  8
0
  6
HIDDEN
 62
     7
370
     0
100
AcDbLine
 10
189.3615083151
 20
113.2171871135
 30
0.0
 11
189.1468955967
 21
113.2184813373
 31
0.0
  0
SPLINE
  5
FE
330
1F
100
AcDbEntity
  8
0
  6
HIDDEN
 62
     7
370
     0
100
AcDbSpline
210
0.0
220
0.0
230
1.0
 70
     8
 71
     3
 72
    23
 73
    19
 74
     0
 42
0.00000001
 43
0.00000001
 40
0.0
 40
0.0
 40
0.0
 40
0.0
 40
0.0185255143338814
 40
0.1225121681604457
 40
0.1755142554153186
 40
0.2262437303548887
 40
0.3293452495992882
 40
0.3818191667529137
 40
0.4340440536971693
 40
0.540184417737354
 40
0.5942165265599034
 40
0.6476997887511486
 40
0.701560753635614
 40
0.7566330729217695
 40
0.8121345026131347
 40
0.8584306691705881
 40
0.95231578344737
 40
1.0
 40
1.0
 40
1.0
 40
1.0
 10
187.7834042255053
 20
113.4326170883566
 30
0.0
 10
187.7831307476889
 20
113.4326945366253
 30
0.0
 10
187.7813221954602
 20
113.4332067143248
 30
0.0
 10
187.7996466037543
 20
113.4280048906215
 30
0.0
 10
187.8372586540754
 20
113.4176059491943
 30
0.0
 10
187.8880953986117
 20
113.4038506989135
 30
0.0
 10
187.9570095010062
 20
113.3858952958317
 30
0.0
 10
188.0434467030298
 20
113.3648746862597
 30
0.0
 10
188.1421480063996
 20
113.3421119833476
 30
0.0
 10
188.2576646510741
 20
113.3178259061798
 30
0.0
 10
188.3875364259682
 20
113.2940639182301
 30
0.0
 10
188.4920671379077
 20
113.2769316168572
 30
0.0
 10
188.6030361825215
 20
113.2610045249358
 30
0.0
 10
188.7205646815579
 20
113.2467142983845
 30
0.0
 10
188.8369197496355
 20
113.2352758167586
 30
0.0
 10
188.9858254621353
 20
113.2240341196606
 30
0.0
 10
189.1329462240655
 20
113.2172408168324
 30
0.0
 10
189.2446514114103
 20
113.2164937277956
 30
0.0
 10
189.2822766111071
 20
113.2162420888621
 30
0.0
  0
SPLINE
  5
FF
330
1F
100
AcDbEntity
  8
0
  6
HIDDEN
 62
     7
370
     0
100
AcDbSpline
210
0.0
220
0.0
230
1.0
 70
     8
 71
     3
 72
    26
 73
    22
 74
     0
 42
0.00000001
 43
0.00000001
 40
0.0
 40
0.0
 40
0.0
 40
0.0
 40
0.0515002071229709
 40
0.1045293690368004
 40
0.1560200192976403
 40
0.2089406319056947
 40
0.2616328246352753
 40
0.3157930593095692
 40
0.3694519113851883
 40
0.4247430590262238
 40
0.4770253680685972
 40
0.530925052656729
 40
0.5816085817981921
 40
0.6337302604790942
 40
0.6850879945363625
 40
0.7378326729494339
 40
0.7910524461529184
 40
0.845795508871029
 40
0.8992376035135335
 40
0.9543306614834867
 40
1.0
 40
1.0
 40
1.0
 40
1.0
 10
190.7822766111071
 20
102.8329360780066
 30
0.0
 10
190.7784411376494
 20
102.8340280975557
 30
0.0
 10
190.7706563219585
 20
102.8362445568831
 30
0.0
 10
190.7081688587668
 20
102.8536203695552
 30
0.0
 10
190.6097378452913
 20
102.8795514978695
 30
0.0
 10
190.4754878237436
 20
102.9121604494925
 30
0.0
 10
190.3067458901263
 20
102.9484645472652
 30
0.0
 10
190.1085082723516
 20
102.9843437075318
 30
0.0
 10
189.8829095334722
 20
103.0160582409054
 30
0.0
 10
189.6416065930005
 20
103.0389545521512
 30
0.0
 10
189.3890679537266
 20
103.0505912561499
 30
0.0
 10
189.1403718948403
 20
103.0496590257864
 30
0.0
 10
188.896366190339
 20
103.0368116883452
 30
0.0
 10
188.6670435676594
 20
103.0141313987641
 30
0.0
 10
188.4518112239354
 20
102.983561561169
 30
0.0
 10
188.2576228207144
 20
102.9484160307148
 30
0.0
 10
188.0877149723085
 20
102.9118851110986
 30
0.0
 10
187.9502597125199
 20
102.8784172189804
 30
0.0
 10
187.8503904542649
 20
102.8519991217597
 30
0.0
 10
187.7913786275141
 20
102.8355245811601
 30
0.0
 10
187.7865362754613
 20
102.8341438277578
 30
0.0
 10
187.7843415379122
 20
102.8335180179643
 30
0.0
  0
LINE
  5
100
330
1F
100
AcDbEntity
  8
0
  6
HIDDEN
 62
     7
370
     0
100
AcDbLine
 10
187.2822766111
 20
103.232936078
 30
0.0
 11
187.2822766111
 21
113.032935886
 31
0.0
  0
LINE
  5
101
330
1F
100
AcDbEntity
  8
0
  6
HIDDEN
 62
     7
370
     0
100
AcDbLine
 10
197.7822766111
 20
103.132936078
 30
0.0
 11
197.7822766111
 21
113.132936078
 31
0.0
  0
SPLINE
  5
102
330
1F
100
AcDbEntity
  8
0
  6
HIDDEN
 62
     7
370
     0
100
AcDbSpline
210
0.0
220
0.0
230
1.0
 70
     8
 71
     3
 72
    20
 73
    16
 74
     0
 42
0.00000001
 43
0.00000001
 40
0.0
 40
0.0
 40
0.0
 40
0.0
 40
0.1119595197684167
 40
0.177476763464755
 40
0.2490961890179855
 40
0.3298422315094334
 40
0.3986125823882006
 40
0.4998893016461228
 40
0.6138510293005642
 40
0.6790150176761717
 40
0.7495394203320147
 40
0.8296829944178317
 40
0.8981246285223357
 40
0.9995320175861916
 40
1.0
 40
1.0
 40
1.0
 40
1.0
 10
93.53111706096996
 20
84.5329423162388
 30
0.0
 10
93.48779332267141
 20
84.54637163427583
 30
0.0
 10
93.41911710049463
 20
84.5676596132318
 30
0.0
 10
92.97393797444435
 20
84.67097042488031
 30
0.0
 10
92.44737969077448
 20
84.78427365494221
 30
0.0
 10
91.76195466964514
 20
84.90720652273481
 30
0.0
 10
90.86863727234626
 20
85.0292409819193
 30
0.0
 10
89.7552778852086
 20
85.14697728970386
 30
0.0
 10
88.64450380457302
 20
85.15895279207945
 30
0.0
 10
87.7597555026677
 20
85.13189450194812
 30
0.0
 10
87.09255890804464
 20
85.0839624375411
 30
0.0
 10
86.55128640582626
 20
85.02766892517785
 30
0.0
 10
86.16370644674109
 20
84.98258601453976
 30
0.0
 10
85.9697699266655
 20
84.94371283983759
 30
0.0
 10
86.03287238689545
 20
84.95441889707779
 30
0.0
 10
86.03316225913076
 20
84.95446807723229
 30
0.0
  0
LINE
  5
103
330
1F
100
AcDbEntity
  8
0
  6
HIDDEN
 62
     7
370
     0
100
AcDbLine
 10
86.942288524
 20
85.0652742215
 30
0.0
 11
87.1261338366
 21
85.083463564
 31
0.0
  0
LINE
  5
104
330
1F
100
AcDbEntity
  8
0
  6
HIDDEN
 62
     7
370
     0
100
AcDbLine
 10
87.1261311382
 20
131.1823391608
 30
0.0
 11
86.9520578577
 21
131.1995486867
 31
0.0
  0
SPLINE
  5
105
330
1F
100
AcDbEntity
  8
0
  6
HIDDEN
 62
     7
370
     0
100
AcDbSpline
210
0.0
220
0.0
230
1.0
 70
     8
 71
     3
 72
    20
 73
    16
 74
     0
 42
0.00000001
 43
0.00000001
 40
0.0
 40
0.0
 40
0.0
 40
0.0
 40
0.0004889684280515
 40
0.1018319933920969
 40
0.1702475582146014
 40
0.2503692056770022
 40
0.3209568221778694
 40
0.3861816196697952
 40
0.5002554836816518
 40
0.6012243489253606
 40
0.6697680558604869
 40
0.7502401907580438
 40
0.8220490693851532
 40
0.8877204546109767
 40
1.0
 40
1.0
 40
1.0
 40
1.0
 10
86.0331956438922
 20
131.3113375321991
 30
0.0
 10
86.0328920028953
 20
131.3113891193493
 30
0.0
 10
85.96965608373297
 20
131.3221325989619
 30
0.0
 10
86.16286011752227
 20
131.2832766082992
 30
0.0
 10
86.54980717242964
 20
131.2382531178968
 30
0.0
 10
87.09081409575266
 20
131.1819901558069
 30
0.0
 10
87.75831435721048
 20
131.1340589632161
 30
0.0
 10
88.64414220856071
 20
131.1069855074892
 30
0.0
 10
89.75494878063704
 20
131.1188115110604
 30
0.0
 10
90.86701914665477
 20
131.2362605862118
 30
0.0
 10
91.7581194528584
 20
131.3579649744526
 30
0.0
 10
92.44360390369619
 20
131.4807860200316
 30
0.0
 10
92.97159180324907
 20
131.5942242717183
 30
0.0
 10
93.41897575473298
 20
131.697964827359
 30
0.0
 10
93.487786221084
 20
131.7193876206326
 30
0.0
 10
93.5312027283942
 20
131.7329045012772
 30
0.0
  0
LINE
  5
106
330
1F
100
AcDbEntity
  8
0
  6
HIDDEN
 62
     7
370
     0
100
AcDbLine
 10
166.8822766111
 20
103.932936078
 30
0.0
 11
166.8822766111
 21
112.332936078
 31
0.0
  0
LINE
  5
107
330
1F
100
AcDbEntity
  8
0
  6
HIDDEN
 62
     7
370
     0
100
AcDbLine
 10
167.3028790444
 20
104.632936078
 30
0.0
 11
167.3028790444
 21
111.632936078
 31
0.0
  0
LINE
  5
108
330
1F
100
AcDbEntity
  8
0
  6
HIDDEN
 62
     7
370
     0
100
AcDbLine
 10
186.7822766111
 20
104.632936078
 30
0.0
 11
186.7822766111
 21
111.632936078
 31
0.0
  0
LINE
  5
109
330
1F
100
AcDbEntity
  8
0
  6
HIDDEN
 62
     7
370
     0
100
AcDbLine
 10
163.2322766111
 20
92.7102863472
 30
0.0
 11
158.2322766111
 21
92.7102863472
 31
0.0
  0
LINE
  5
10A
330
1F
100
AcDbEntity
  8
0
  6
HIDDEN
 62
     7
370
     0
100
AcDbLine
 10
160.7322766111
 20
123.5555858088
 30
0.0
 11
163.2322766111
 21
123.5555858088
 31
0.0
  0
LINE
  5
10B
330
1F
100
AcDbEntity
  8
0
  6
HIDDEN
 62
     7
370
     0
100
AcDbLine
 10
158.2322766111
 20
123.5555858088
 30
0.0
 11
160.7322766111
 21
123.5555858088
 31
0.0
  0
LINE
  5
10C
330
1F
100
AcDbEntity
  8
0
  6
HIDDEN
 62
     7
370
     0
100
AcDbLine
 10
160.7322766111
 20
115.132936078
 30
0.0
 11
163.2322766111
 21
115.132936078
 31
0.0
  0
LINE
  5
10D
330
1F
100
AcDbEntity
  8
0
  6
HIDDEN
 62
     7
370
     0
100
AcDbLine
 10
158.2322766111
 20
115.132936078
 30
0.0
 11
160.7322766111
 21
115.132936078
 31
0.0
  0
LINE
  5
10E
330
1F
100
AcDbEntity
  8
0
  6
HIDDEN
 62
     7
370
     0
100
AcDbLine
 10
163.2322766111
 20
101.132936078
 30
0.0
 11
158.2322766111
 21
101.132936078
 31
0.0
  0
SPLINE
  5
10F
330
1F
100
AcDbEntity
  8
0
  6
HIDDEN
 62
     7
370
     0
100
AcDbSpline
210
0.0
220
0.0
230
1.0
 70
     8
 71
     3
 72
    38
 73
    34
 74
     0
 42
0.00000001
 43
0.00000001
 40
0.0
 40
0.0
 40
0.0
 40
0.0
 40
0.0412109573778133
 40
0.0838292252235529
 40
0.1250016867904715
 40
0.1671805044823952
 40
0.1957047649687107
 40
0.2244486798612199
 40
0.2538059251313702
 40
0.2833463960160663
 40
0.3125495788893471
 40
0.341915754520317
 40
0.3718291143422009
 40
0.4019711128476063
 40
0.4346704739278675
 40
0.4680149049336073
 40
0.5007951020328938
 40
0.5348863319778834
 40
0.5630912457893313
 40
0.5918972596254638
 40
0.6165801861752568
 40
0.6414588260572528
 40
0.6668274527541307
 40
0.6923300807193322
 40
0.745006286424395
 40
0.7988107207104259
 40
0.8463993916579364
 40
0.8952306939905392
 40
0.9189836306848405
 40
0.9429470508870417
 40
0.9676306796504691
 40
0.9925858523805811
 40
1.0
 40
1.0
 40
1.0
 40
1.0
 10
190.7822766111071
 20
116.3749956960443
 30
0.0
 10
190.7803350781662
 20
116.3774002769574
 30
0.0
 10
190.7763857109943
 20
116.3822915526705
 30
0.0
 10
190.7452910725862
 20
116.4210150506382
 30
0.0
 10
190.6982802486211
 20
116.4803079845416
 30
0.0
 10
190.6439537072669
 20
116.5501411716323
 30
0.0
 10
190.5889442459253
 20
116.6226152914006
 30
0.0
 10
190.5372506432137
 20
116.6924210835962
 30
0.0
 10
190.4821791670389
 20
116.7691937798548
 30
0.0
 10
190.425095728913
 20
116.8521450065584
 30
0.0
 10
190.3674518635195
 20
116.9405629257589
 30
0.0
 10
190.3102934067725
 20
117.034723464102
 30
0.0
 10
190.254863181146
 20
117.1354713940172
 30
0.0
 10
190.202018461827
 20
117.246115897969
 30
0.0
 10
190.1554705048847
 20
117.3678735493068
 30
0.0
 10
190.1216153182902
 20
117.500444698866
 30
0.0
 10
190.107481819088
 20
117.6404170192925
 30
0.0
 10
190.1170170602947
 20
117.7738635696075
 30
0.0
 10
190.1448409818088
 20
117.8971977487811
 30
0.0
 10
190.1816560172336
 20
118.0023679856177
 30
0.0
 10
190.2243852082698
 20
118.0978274156522
 30
0.0
 10
190.2697487130103
 20
118.1844300157287
 30
0.0
 10
190.3185322757365
 20
118.2673954091214
 30
0.0
 10
190.3873848276629
 20
118.374695897582
 30
0.0
 10
190.4764628253994
 20
118.4999939534266
 30
0.0
 10
190.5746745341173
 20
118.6271801993412
 30
0.0
 10
190.6587506177504
 20
118.7308395670859
 30
0.0
 10
190.7129370921577
 20
118.795583390973
 30
0.0
 10
190.7457314244053
 20
118.8342593904127
 30
0.0
 10
190.7648039437065
 20
118.8565873663515
 30
0.0
 10
190.7767696979396
 20
118.8705274832539
 30
0.0
 10
190.7833839864232
 20
118.87821228225
 30
0.0
 10
190.7813094941751
 20
118.8758002916105
 30
0.0
 10
190.7808343346229
 20
118.8752478285231
 30
0.0
  0
SPLINE
  5
110
330
1F
100
AcDbEntity
  8
0
  6
HIDDEN
 62
     7
370
     0
100
AcDbSpline
210
0.0
220
0.0
230
1.0
 70
     8
 71
     3
 72
    10
 73
     6
 74
     0
 42
0.00000001
 43
0.00000001
 40
0.0
 40
0.0
 40
0.0
 40
0.0
 40
0.3423669106477224
 40
0.8122407951438976
 40
0.9999999999999999
 40
0.9999999999999999
 40
0.9999999999999999
 40
0.9999999999999999
 10
187.7853713938617
 20
118.8694341571075
 30
0.0
 10
187.7859319507932
 20
118.8695806150546
 30
0.0
 10
187.7872618316715
 20
118.8699280759679
 30
0.0
 10
187.8191585810619
 20
118.8793338687129
 30
0.0
 10
187.8503757261011
 20
118.8939748930665
 30
0.0
 10
187.8592884563535
 20
118.898155015897
 30
0.0
  0
SPLINE
  5
111
330
1F
100
AcDbEntity
  8
0
  6
HIDDEN
 62
     7
370
     0
100
AcDbSpline
210
0.0
220
0.0
230
1.0
 70
     8
 71
     3
 72
    27
 73
    23
 74
     0
 42
0.00000001
 43
0.00000001
 40
0.0
 40
0.0
 40
0.0
 40
0.0
 40
0.046730440587731
 40
0.091001787737581
 40
0.1364022337818449
 40
0.1840036553763034
 40
0.2325889506405834
 40
0.2894125903177222
 40
0.3473775030615653
 40
0.404036085329703
 40
0.4620065660414727
 40
0.4970481409512942
 40
0.532904032359832
 40
0.5680166330998878
 40
0.6044030089243757
 40
0.6462246038275686
 40
0.6892124385364685
 40
0.7568103969944703
 40
0.8262506629204115
 40
0.896342957170937
 40
0.9687562198094786
 40
1.0
 40
1.0
 40
1.0
 40
1.0
 10
187.7827433647526
 20
116.4934090007856
 30
0.0
 10
187.7844747522634
 20
116.4954164522199
 30
0.0
 10
187.7878464165742
 20
116.4993257170806
 30
0.0
 10
187.8170847601002
 20
116.5334385082768
 30
0.0
 10
187.8610310633154
 20
116.5853377649523
 30
0.0
 10
187.921066666861
 20
116.6576069085903
 30
0.0
 10
187.998003919796
 20
116.7530261916748
 30
0.0
 10
188.0900505221306
 20
116.8726222098693
 30
0.0
 10
188.1919512684633
 20
117.0159057137021
 30
0.0
 10
188.2929535998126
 20
117.1773514610866
 30
0.0
 10
188.3711938847205
 20
117.3335784262104
 30
0.0
 10
188.4223118922108
 20
117.4799482043322
 30
0.0
 10
188.4491972867559
 20
117.6072357276565
 30
0.0
 10
188.4563789946831
 20
117.7401014101738
 30
0.0
 10
188.4413757061324
 20
117.8794716050331
 30
0.0
 10
188.403045107202
 20
118.0222914107893
 30
0.0
 10
188.334545742804
 20
118.1901091362422
 30
0.0
 10
188.2357078205054
 20
118.3708279002453
 30
0.0
 10
188.1150070432847
 20
118.5558670030245
 30
0.0
 10
187.9966021121578
 20
118.7202478347636
 30
0.0
 10
187.9108317310481
 20
118.8324320661794
 30
0.0
 10
187.8712261651741
 20
118.8829332155515
 30
0.0
 10
187.8592884563535
 20
118.898155015897
 30
0.0
  0
LINE
  5
112
330
1F
100
AcDbEntity
  8
0
  6
HIDDEN
 62
     7
370
     0
100
AcDbLine
 10
190.7822766111
 20
119.532936078
 30
0.0
 11
187.7822766111
 21
119.532936078
 31
0.0
  0
LWPOLYLINE
  5
113
330
1F
100
AcDbEntity
  8
0
  6
HIDDEN
 62
     7
370
     0
100
AcDbPolyline
 90
       18
 70
   128
 43
0.0
 10
190.7790574286
 20
97.3927043413
 10
190.7498595466
 20
97.4267954404
 10
190.6531550864
 20
97.542297005
 10
190.560768269
 20
97.6572978009
 10
190.4527176276
 20
97.8002316933
 10
190.3412031675
 20
97.9634197251
 10
190.2329645
 20
98.1528819764
 10
190.1359411424
 20
98.411276679
 10
190.1122392593
 20
98.6501930414
 10
190.1542122233
 20
98.8852057569
 10
190.2207790494
 20
99.0578339007
 10
190.3049266933
 20
99.2202114067
 10
190.4302598676
 20
99.4206494588
 10
190.5560587307
 20
99.5987347383
 10
190.7076763823
 20
99.7972997383
 10
190.7751869395
 20
99.8820748221
 10
190.7822766111
 20
99.89087646
 10
190.7822766111
 20
99.89087646
  0
LINE
  5
114
330
1F
100
AcDbEntity
  8
0
  6
HIDDEN
 62
     7
370
     0
100
AcDbLine
 10
189.2822766111
 20
97.132936078
 30
0.0
 11
190.7822766111
 21
97.132936078
 31
0.0
  0
LINE
  5
115
330
1F
100
AcDbEntity
  8
0
  6
HIDDEN
 62
     7
370
     0
100
AcDbLine
 10
187.7822766111
 20
97.132936078
 30
0.0
 11
189.2822766111
 21
97.132936078
 31
0.0
  0
SPLINE
  5
116
330
1F
100
AcDbEntity
  8
0
  6
HIDDEN
 62
     7
370
     0
100
AcDbSpline
210
0.0
220
0.0
230
1.0
 70
     8
 71
     3
 72
     9
 73
     5
 74
     0
 42
0.00000001
 43
0.00000001
 40
0.0
 40
0.0
 40
0.0
 40
0.0
 40
0.8844958450004421
 40
1.0
 40
1.0
 40
1.0
 40
1.0
 10
187.8592884563535
 20
97.3677171401162
 30
0.0
 10
187.8157400688187
 20
97.38425802640795
 30
0.0
 10
187.7665048035758
 20
97.4029589466952
 30
0.0
 10
187.7871659139228
 20
97.39569273443948
 30
0.0
 10
187.7895523580148
 20
97.39485345673283
 30
0.0
  0
SPLINE
  5
117
330
1F
100
AcDbEntity
  8
0
  6
HIDDEN
 62
     7
370
     0
100
AcDbSpline
210
0.0
220
0.0
230
1.0
 70
     8
 71
     3
 72
    17
 73
    13
 74
     0
 42
0.00000001
 43
0.00000001
 40
0.0
 40
0.0
 40
0.0
 40
0.0
 40
0.1250020474046755
 40
0.2491126808702283
 40
0.3531939411940591
 40
0.4233917031003294
 40
0.4940211291524749
 40
0.5812001629487422
 40
0.7163993277611115
 40
0.8545987210208527
 40
0.9504966716084762
 40
1.0
 40
1.0
 40
1.0
 40
1.0
 10
187.8592884563535
 20
97.36771714011618
 30
0.0
 10
187.9141342231725
 20
97.43810055027345
 30
0.0
 10
188.0234346409682
 20
97.57836545278582
 30
0.0
 10
188.2382477218846
 20
97.88906420458571
 30
0.0
 10
188.3975568305768
 20
98.1980184766703
 30
0.0
 10
188.4656340127187
 20
98.49371066553348
 30
0.0
 10
188.4369847471869
 20
98.77887734890325
 30
0.0
 10
188.2971078753214
 20
99.10138619044648
 30
0.0
 10
188.0718095835585
 20
99.42399301578956
 30
0.0
 10
187.8796111642904
 20
99.65953870741815
 30
0.0
 10
187.7854195680315
 20
99.76936834708349
 30
0.0
 10
187.7909117815589
 20
99.7629638650496
 30
0.0
 10
187.7927816609145
 20
99.7607833947021
 30
0.0
  0
LINE
  5
118
330
1F
100
AcDbEntity
  8
0
  6
HIDDEN
 62
     7
370
     0
100
AcDbLine
 10
187.7648113555
 20
99.7723199272
 30
0.0
 11
187.8592884564
 21
97.3677171401
 31
0.0
  0
LINE
  5
119
330
1F
100
AcDbEntity
  8
0
  6
HIDDEN
 62
     7
370
     0
100
AcDbLine
 10
187.7648113555
 20
116.4935522288
 30
0.0
 11
187.8592884564
 21
118.8981550159
 31
0.0
  0
SPLINE
  5
11A
330
1F
100
AcDbEntity
  8
0
  6
HIDDEN
 62
     7
370
     0
100
AcDbSpline
210
0.0
220
0.0
230
1.0
 70
     8
 71
     3
 72
     8
 73
     4
 74
     0
 42
0.00000001
 43
0.00000001
 40
0.0
 40
0.0
 40
0.0
 40
0.0
 40
0.000159097695343
 40
0.000159097695343
 40
0.000159097695343
 40
0.000159097695343
 10
68.16744462032511
 20
92.33144564197494
 30
0.0
 10
68.12239314982077
 20
92.30346675765117
 30
0.0
 10
68.07733711140597
 20
92.2754952272761
 30
0.0
 10
68.0322766111071
 20
92.24753088792357
 30
0.0
  0
SPLINE
  5
11B
330
1F
100
AcDbEntity
  8
0
  6
HIDDEN
 62
     7
370
     0
100
AcDbSpline
210
0.0
220
0.0
230
1.0
 70
     8
 71
     3
 72
    11
 73
     7
 74
     0
 42
0.00000001
 43
0.00000001
 40
0.0
 40
0.0
 40
0.0
 40
0.0
 40
0.0008212909311457
 40
0.0008212909311457
 40
0.0008212909311457
 40
0.001642825724306
 40
0.001642825724306
 40
0.001642825724306
 40
0.001642825724306
 10
68.0322766111071
 20
92.24753088792357
 30
0.0
 10
67.84113158962491
 20
92.20424469907103
 30
0.0
 10
67.64971325394843
 20
92.16330818943375
 30
0.0
 10
67.45806717928728
 20
92.12470641804715
 30
0.0
 10
67.26636409774568
 20
92.08609316421007
 30
0.0
 10
67.07441897446017
 20
92.04981295492406
 30
0.0
 10
66.88227661110699
 20
92.01584604857254
 30
0.0
  0
LINE
  5
11C
330
1F
100
AcDbEntity
  8
0
  6
HIDDEN
 62
     7
370
     0
100
AcDbLine
 10
114.8722766111
 20
128.2688027095
 30
0.0
 11
114.8722766111
 21
127.982936078
 31
0.0
  0
LINE
  5
11D
330
1F
100
AcDbEntity
  8
0
  6
HIDDEN
 62
     7
370
     0
100
AcDbLine
 10
118.6922766111
 20
128.2770438205
 30
0.0
 11
118.6922766111
 21
127.982936078
 31
0.0
  0
LINE
  5
11E
330
1F
100
AcDbEntity
  8
0
  6
HIDDEN
 62
     7
370
     0
100
AcDbLine
 10
120.1742094426
 20
132.5916257404
 30
0.0
 11
120.1742094426
 21
127.982936078
 31
0.0
  0
SPLINE
  5
11F
330
1F
100
AcDbEntity
  8
0
  6
HIDDEN
 62
     7
370
     0
100
AcDbSpline
210
0.0
220
0.0
230
1.0
 70
     8
 71
     3
 72
    24
 73
    20
 74
     0
 42
0.00000001
 43
0.00000001
 40
0.0
 40
0.0
 40
0.0
 40
0.0
 40
0.2499999999999937
 40
0.2499999999999937
 40
0.3749999999999912
 40
0.3749999999999912
 40
0.4374999999999901
 40
0.4374999999999901
 40
0.4687499999999891
 40
0.4687499999999891
 40
0.4999999999999881
 40
0.4999999999999881
 40
0.5624999999999888
 40
0.5624999999999888
 40
0.6249999999999893
 40
0.6249999999999893
 40
0.749999999999992
 40
0.749999999999992
 40
1.0
 40
1.0
 40
1.0
 40
1.0
 10
66.94493998583052
 20
88.45838353322586
 30
0.0
 10
66.95869310450072
 20
88.52903359121612
 30
0.0
 10
66.9764656719066
 20
88.59563170398106
 30
0.0
 10
67.02871676346194
 20
88.66972972421426
 30
0.0
 10
67.04975183904351
 20
88.69098753137581
 30
0.0
 10
67.10265224667195
 20
88.69913345752207
 30
0.0
 10
67.12375791954986
 20
88.69819365412629
 30
0.0
 10
67.16981008822782
 20
88.67717766254894
 30
0.0
 10
67.1881805602112
 20
88.66626885644132
 30
0.0
 10
67.2297321952769
 20
88.63363394549397
 30
0.0
 10
67.25229886803383
 20
88.6121419651226
 30
0.0
 10
67.31507988449387
 20
88.5436760215363
 30
0.0
 10
67.34820964546172
 20
88.49760156333122
 30
0.0
 10
67.40512733194674
 20
88.41259367499653
 30
0.0
 10
67.42931335745054
 20
88.37231337381516
 30
0.0
 10
67.49452130783028
 20
88.25737714734922
 30
0.0
 10
67.52923736802154
 20
88.18679416220219
 30
0.0
 10
67.62245263835241
 20
87.98258840312359
 30
0.0
 10
67.6681251737131
 20
87.85969002079622
 30
0.0
 10
67.70643025721164
 20
87.74281674440864
 30
0.0
  0
SPLINE
  5
120
330
1F
100
AcDbEntity
  8
0
  6
HIDDEN
 62
     7
370
     0
100
AcDbSpline
210
0.0
220
0.0
230
1.0
 70
     8
 71
     3
 72
    11
 73
     7
 74
     0
 42
0.00000001
 43
0.00000001
 40
0.0
 40
0.0
 40
0.0
 40
0.0
 40
0.0005781862223978
 40
0.0005781862223978
 40
0.0005781862223978
 40
0.0011563724723928
 40
0.0011563724723928
 40
0.0011563724723928
 40
0.0011563724723928
 10
67.8822766111071
 20
120.7730783850533
 30
0.0
 10
67.7156160568315
 20
120.8376078964669
 30
0.0
 10
67.548952759925
 20
120.9021106003107
 30
0.0
 10
67.38228617609478
 20
120.9665970487444
 30
0.0
 10
67.21561958383568
 20
121.0310835004393
 30
0.0
 10
67.0489497182098
 20
121.0955535091675
 30
0.0
 10
66.88227661110705
 20
121.1600092759001
 30
0.0
  0
SPLINE
  5
121
330
1F
100
AcDbEntity
  8
0
  6
HIDDEN
 62
     7
370
     0
100
AcDbSpline
210
0.0
220
0.0
230
1.0
 70
     8
 71
     3
 72
    11
 73
     7
 74
     0
 42
0.00000001
 43
0.00000001
 40
0.0
 40
0.0
 40
0.0
 40
0.0
 40
0.0005778746105108
 40
0.0005778746105108
 40
0.0005778746105108
 40
0.0011557494857226
 40
0.0011557494857226
 40
0.0011557494857226
 40
0.0011557494857226
 10
66.88227661110707
 20
95.1057142225167
 30
0.0
 10
67.04894348752042
 20
95.17152634921055
 30
0.0
 10
67.21561020708187
 20
95.23738482934819
 30
0.0
 10
67.38227685513051
 20
95.3032924022788
 30
0.0
 10
67.54894357964918
 20
95.36920000544916
 30
0.0
 10
67.71561027406976
 20
95.43515711383765
 30
0.0
 10
67.8822766111071
 20
95.50115885376037
 30
0.0
  0
SPLINE
  5
122
330
1F
100
AcDbEntity
  8
0
  6
HIDDEN
 62
     7
370
     0
100
AcDbSpline
210
0.0
220
0.0
230
1.0
 70
     8
 71
     3
 72
    11
 73
     7
 74
     0
 42
0.00000001
 43
0.00000001
 40
0.0000000000000006
 40
0.0000000000000006
 40
0.0000000000000006
 40
0.0000000000000006
 40
0.0005780486062768
 40
0.0005780486062768
 40
0.0005780486062768
 40
0.0011560973514127
 40
0.0011560973514127
 40
0.0011560973514127
 40
0.0011560973514127
 10
66.88227661110707
 20
118.1137505796983
 30
0.0
 10
67.04894646715198
 20
118.0513787181838
 30
0.0
 10
67.21561417123625
 20
117.9890248578861
 30
0.0
 10
67.3822804756899
 20
117.9267052977001
 30
0.0
 10
67.54894681638363
 20
117.8643857239632
 30
0.0
 10
67.71561177301241
 20
117.8021005196436
 30
0.0
 10
67.88227661110709
 20
117.7398753990749
 30
0.0
  0
SPLINE
  5
123
330
1F
100
AcDbEntity
  8
0
  6
HIDDEN
 62
     7
370
     0
100
AcDbSpline
210
0.0
220
0.0
230
1.0
 70
     8
 71
     3
 72
    11
 73
     7
 74
     0
 42
0.00000001
 43
0.00000001
 40
0.0
 40
0.0
 40
0.0
 40
0.0
 40
0.0005782401583533
 40
0.0005782401583533
 40
0.0005782401583533
 40
0.0011564805960992
 40
0.0011564805960992
 40
0.0011564805960992
 40
0.0011564805960992
 10
67.8822766111071
 20
98.53210928560894
 30
0.0
 10
67.71562566075819
 20
98.46868382754816
 30
0.0
 10
67.54896606817553
 20
98.40532830389289
 30
0.0
 10
67.38229901574698
 20
98.3420307195429
 30
0.0
 10
67.21563187918316
 20
98.27873310323965
 30
0.0
 10
67.0489572717371
 20
98.21549330829893
 30
0.0
 10
66.88227661110703
 20
98.15229330166008
 30
0.0
  0
CIRCLE
  5
124
330
1F
100
AcDbEntity
  8
0
  6
HIDDEN
 62
     7
370
     0
100
AcDbCircle
 10
105.7822766111
 20
108.132936078
 30
0.0
 40
5.0
  0
LINE
  5
125
330
1F
100
AcDbEntity
  8
0
  6
HIDDEN
 62
     7
370
     0
100
AcDbLine
 10
187.7822766111
 20
104.632936078
 30
0.0
 11
187.7822766111
 21
111.632936078
 31
0.0
  0
LINE
  5
126
330
1F
100
AcDbEntity
  8
0
  6
HIDDEN
 62
     7
370
     0
100
AcDbLine
 10
171.7822766111
 20
104.132936078
 30
0.0
 11
171.7822766111
 21
112.132936078
 31
0.0
  0
LINE
  5
127
330
1F
100
AcDbEntity
  8
0
  6
HIDDEN
 62
     7
370
     0
100
AcDbLine
 10
171.2822766111
 20
104.632936078
 30
0.0
 11
171.2822766111
 21
111.632936078
 31
0.0
  0
LINE
  5
128
330
1F
100
AcDbEntity
  8
0
  6
HIDDEN
 62
     7
370
     0
100
AcDbLine
 10
191.2822766111
 20
106.7077828195
 30
0.0
 11
189.2822766111
 21
106.7077828195
 31
0.0
  0
LINE
  5
129
330
1F
100
AcDbEntity
  8
0
  6
HIDDEN
 62
     7
370
     0
100
AcDbLine
 10
191.2822766111
 20
104.632936078
 30
0.0
 11
191.2822766111
 21
106.7077828195
 31
0.0
  0
LINE
  5
12A
330
1F
100
AcDbEntity
  8
0
  6
HIDDEN
 62
     7
370
     0
100
AcDbLine
 10
189.2822766111
 20
107.5748671605
 30
0.0
 11
191.2822766111
 21
107.5748671605
 31
0.0
  0
LINE
  5
12B
330
1F
100
AcDbEntity
  8
0
  6
HIDDEN
 62
     7
370
     0
100
AcDbLine
 10
191.2822766111
 20
109.5580893366
 30
0.0
 11
189.2822766111
 21
109.5580893366
 31
0.0
  0
LINE
  5
12C
330
1F
100
AcDbEntity
  8
0
  6
HIDDEN
 62
     7
370
     0
100
AcDbLine
 10
191.2822766111
 20
108.6910049955
 30
0.0
 11
191.2822766111
 21
111.632936078
 31
0.0
  0
LINE
  5
12D
330
1F
100
AcDbEntity
  8
0
  6
HIDDEN
 62
     7
370
     0
100
AcDbLine
 10
189.2822766111
 20
108.6910049955
 30
0.0
 11
191.2822766111
 21
108.6910049955
 31
0.0
  0
LINE
  5
12E
330
1F
100
AcDbEntity
  8
0
  6
HIDDEN
 62
     7
370
     0
100
AcDbLine
 10
189.2822766111
 20
106.7077828195
 30
0.0
 11
189.2822766111
 21
108.6910049955
 31
0.0
  0
LINE
  5
12F
330
1F
100
AcDbEntity
  8
0
  6
HIDDEN
 62
     7
370
     0
100
AcDbLine
 10
189.2822766111
 20
108.9006669519
 30
0.0
 11
189.2822766111
 21
108.6910049955
 31
0.0
  0
LINE
  5
130
330
1F
100
AcDbEntity
  8
0
  6
HIDDEN
 62
     7
370
     0
100
AcDbLine
 10
189.2822766111
 20
106.9174447758
 30
0.0
 11
191.2822766111
 21
106.9174447758
 31
0.0
  0
LINE
  5
131
330
1F
100
AcDbEntity
  8
0
  6
HIDDEN
 62
     7
370
     0
100
AcDbLine
 10
191.2822766111
 20
106.9174447758
 30
0.0
 11
191.2822766111
 21
106.7077828195
 31
0.0
  0
LINE
  5
132
330
1F
100
AcDbEntity
  8
0
  6
HIDDEN
 62
     7
370
     0
100
AcDbLine
 10
191.2822766111
 20
108.9006669519
 30
0.0
 11
189.2822766111
 21
108.9006669519
 31
0.0
  0
LINE
  5
133
330
1F
100
AcDbEntity
  8
0
  6
HIDDEN
 62
     7
370
     0
100
AcDbLine
 10
186.2822766111
 20
108.9006669519
 30
0.0
 11
186.2822766111
 21
107.8344291258
 31
0.0
  0
LINE
  5
134
330
1F
100
AcDbEntity
  8
0
  6
HIDDEN
 62
     7
370
     0
100
AcDbLine
 10
176.282276611
 20
107.8344291258
 30
0.0
 11
176.282276611
 21
108.9006669519
 31
0.0
  0
LINE
  5
135
330
1F
100
AcDbEntity
  8
0
  6
HIDDEN
 62
     7
370
     0
100
AcDbLine
 10
186.2822766111
 20
107.8344291258
 30
0.0
 11
186.2822766111
 21
106.9174447758
 31
0.0
  0
LINE
  5
136
330
1F
100
AcDbEntity
  8
0
  6
HIDDEN
 62
     7
370
     0
100
AcDbLine
 10
186.2822766111
 20
107.8344291258
 30
0.0
 11
189.2822766111
 21
107.8344291258
 31
0.0
  0
LINE
  5
137
330
1F
100
AcDbEntity
  8
0
  6
HIDDEN
 62
     7
370
     0
100
AcDbLine
 10
176.282276611
 20
106.9174447758
 30
0.0
 11
176.282276611
 21
107.8344291258
 31
0.0
  0
LINE
  5
138
330
1F
100
AcDbEntity
  8
0
  6
HIDDEN
 62
     7
370
     0
100
AcDbLine
 10
176.282276611
 20
107.8344291258
 30
0.0
 11
171.2822766111
 21
107.8344291258
 31
0.0
  0
LINE
  5
139
330
1F
100
AcDbEntity
  8
0
  6
HIDDEN
 62
     7
370
     0
100
AcDbLine
 10
186.2822766111
 20
109.9669047779
 30
0.0
 11
186.2822766111
 21
108.9006669519
 31
0.0
  0
LINE
  5
13A
330
1F
100
AcDbEntity
  8
0
  6
HIDDEN
 62
     7
370
     0
100
AcDbLine
 10
176.282276611
 20
108.9006669519
 30
0.0
 11
176.282276611
 21
109.9669047779
 31
0.0
  0
LINE
  5
13B
330
1F
100
AcDbEntity
  8
0
  6
HIDDEN
 62
     7
370
     0
100
AcDbLine
 10
176.282276611
 20
106.0004604258
 30
0.0
 11
176.282276611
 21
106.9174447758
 31
0.0
  0
LINE
  5
13C
330
1F
100
AcDbEntity
  8
0
  6
HIDDEN
 62
     7
370
     0
100
AcDbLine
 10
186.2822766111
 20
106.9174447758
 30
0.0
 11
186.2822766111
 21
106.0004604258
 31
0.0
  0
LINE
  5
13D
330
1F
100
AcDbEntity
  8
0
  6
HIDDEN
 62
     7
370
     0
100
AcDbLine
 10
186.2822766111
 20
110.1161582541
 30
0.0
 11
186.2822766111
 21
109.9669047779
 31
0.0
  0
LINE
  5
13E
330
1F
100
AcDbEntity
  8
0
  6
HIDDEN
 62
     7
370
     0
100
AcDbLine
 10
186.2822766111
 20
109.9669047779
 30
0.0
 11
191.2822766111
 21
109.9669047779
 31
0.0
  0
LINE
  5
13F
330
1F
100
AcDbEntity
  8
0
  6
HIDDEN
 62
     7
370
     0
100
AcDbLine
 10
176.282276611
 20
109.9669047779
 30
0.0
 11
176.282276611
 21
110.1161582541
 31
0.0
  0
LINE
  5
140
330
1F
100
AcDbEntity
  8
0
  6
HIDDEN
 62
     7
370
     0
100
AcDbLine
 10
176.282276611
 20
109.9669047779
 30
0.0
 11
171.282276611
 21
109.9669047779
 31
0.0
  0
LINE
  5
141
330
1F
100
AcDbEntity
  8
0
  6
HIDDEN
 62
     7
370
     0
100
AcDbLine
 10
176.282276611
 20
106.2989673781
 30
0.0
 11
171.282276611
 21
106.2989673781
 31
0.0
  0
LINE
  5
142
330
1F
100
AcDbEntity
  8
0
  6
HIDDEN
 62
     7
370
     0
100
AcDbLine
 10
176.282276611
 20
106.0004604258
 30
0.0
 11
171.282276611
 21
106.0004604258
 31
0.0
  0
LINE
  5
143
330
1F
100
AcDbEntity
  8
0
  6
HIDDEN
 62
     7
370
     0
100
AcDbLine
 10
186.2822766111
 20
106.2989673781
 30
0.0
 11
191.2822766111
 21
106.2989673781
 31
0.0
  0
LINE
  5
144
330
1F
100
AcDbEntity
  8
0
  6
HIDDEN
 62
     7
370
     0
100
AcDbLine
 10
186.2822766111
 20
106.0004604258
 30
0.0
 11
191.2822766111
 21
106.0004604258
 31
0.0
  0
LINE
  5
145
330
1F
100
AcDbEntity
  8
0
  6
HIDDEN
 62
     7
370
     0
100
AcDbLine
 10
176.282276611
 20
110.1161582541
 30
0.0
 11
176.282276611
 21
110.2654117302
 31
0.0
  0
LINE
  5
146
330
1F
100
AcDbEntity
  8
0
  6
HIDDEN
 62
     7
370
     0
100
AcDbLine
 10
186.2822766111
 20
110.2654117302
 30
0.0
 11
186.2822766111
 21
110.1161582541
 31
0.0
  0
LINE
  5
147
330
1F
100
AcDbEntity
  8
0
  6
HIDDEN
 62
     7
370
     0
100
AcDbLine
 10
189.2822766111
 20
109.3484273802
 30
0.0
 11
191.2822766111
 21
109.3484273802
 31
0.0
  0
LINE
  5
148
330
1F
100
AcDbEntity
  8
0
  6
HIDDEN
 62
     7
370
     0
100
AcDbLine
 10
189.2822766111
 20
108.9006669519
 30
0.0
 11
189.2822766111
 21
109.3484273802
 31
0.0
  0
LINE
  5
149
330
1F
100
AcDbEntity
  8
0
  6
HIDDEN
 62
     7
370
     0
100
AcDbLine
 10
186.2822766111
 20
108.4314430302
 30
0.0
 11
189.2822766111
 21
108.4314430302
 31
0.0
  0
LINE
  5
14A
330
1F
100
AcDbEntity
  8
0
  6
HIDDEN
 62
     7
370
     0
100
AcDbLine
 10
186.2822766111
 20
110.2654117302
 30
0.0
 11
191.2822766111
 21
110.2654117302
 31
0.0
  0
LINE
  5
14B
330
1F
100
AcDbEntity
  8
0
  6
HIDDEN
 62
     7
370
     0
100
AcDbLine
 10
176.282276611
 20
108.4314430302
 30
0.0
 11
171.282276611
 21
108.4314430302
 31
0.0
  0
LINE
  5
14C
330
1F
100
AcDbEntity
  8
0
  6
HIDDEN
 62
     7
370
     0
100
AcDbLine
 10
176.282276611
 20
110.2654117302
 30
0.0
 11
171.282276611
 21
110.2654117302
 31
0.0
  0
LINE
  5
14D
330
1F
100
AcDbEntity
  8
0
  6
HIDDEN
 62
     7
370
     0
100
AcDbLine
 10
191.2822766111
 20
107.3652052041
 30
0.0
 11
189.2822766111
 21
107.3652052041
 31
0.0
  0
LINE
  5
14E
330
1F
100
AcDbEntity
  8
0
  6
HIDDEN
 62
     7
370
     0
100
AcDbLine
 10
191.2822766111
 20
106.9174447758
 30
0.0
 11
191.2822766111
 21
107.3652052041
 31
0.0
  0
LINE
  5
14F
330
1F
100
AcDbEntity
  8
0
  6
HIDDEN
 62
     7
370
     0
100
AcDbLine
 10
189.2822766111
 20
109.5580893366
 30
0.0
 11
189.2822766111
 21
109.3484273802
 31
0.0
  0
LINE
  5
150
330
1F
100
AcDbEntity
  8
0
  6
HIDDEN
 62
     7
370
     0
100
AcDbLine
 10
191.2822766111
 20
107.5748671605
 30
0.0
 11
191.2822766111
 21
107.3652052041
 31
0.0
  0
LINE
  5
151
330
1F
100
AcDbEntity
  8
0
  6
HIDDEN
 62
     7
370
     0
100
AcDbLine
 10
228.7638441276
 20
101.3526527795
 30
0.0
 11
228.7822766111
 21
100.883514747
 31
0.0
  0
LINE
  5
152
330
1F
100
AcDbEntity
  8
0
  6
HIDDEN
 62
     7
370
     0
100
AcDbLine
 10
228.6498995775
 20
100.1277349702
 30
0.0
 11
228.7087893011
 21
98.6288914158
 31
0.0
  0
LINE
  5
153
330
1F
100
AcDbEntity
  8
0
  6
HIDDEN
 62
     7
370
     0
100
AcDbLine
 10
228.5910098539
 20
101.6265785246
 30
0.0
 11
228.6498995775
 21
100.1277349702
 31
0.0
  0
LINE
  5
154
330
1F
100
AcDbEntity
  8
0
  6
HIDDEN
 62
     7
370
     0
100
AcDbLine
 10
223.3159617736
 20
99.9181639831
 30
0.0
 11
223.3748514972
 21
98.4193204287
 31
0.0
  0
LINE
  5
155
330
1F
100
AcDbEntity
  8
0
  6
HIDDEN
 62
     7
370
     0
100
AcDbLine
 10
223.25707205
 20
101.4170075375
 30
0.0
 11
223.3159617736
 21
99.9181639831
 31
0.0
  0
LINE
  5
156
330
1F
100
AcDbEntity
  8
0
  6
HIDDEN
 62
     7
370
     0
100
AcDbLine
 10
222.8163472555
 20
99.8985340752
 30
0.0
 11
222.8556070712
 21
98.899305039
 31
0.0
  0
LINE
  5
157
330
1F
100
AcDbEntity
  8
0
  6
HIDDEN
 62
     7
370
     0
100
AcDbLine
 10
222.7770874397
 20
100.8977631115
 30
0.0
 11
222.8163472555
 21
99.8985340752
 31
0.0
  0
LINE
  5
158
330
1F
100
AcDbEntity
  8
0
  6
HIDDEN
 62
     7
370
     0
100
AcDbLine
 10
226.8132634004
 20
100.0555733383
 30
0.0
 11
228.8117214729
 21
100.1340929698
 31
0.0
  0
LINE
  5
159
330
1F
100
AcDbEntity
  8
0
  6
HIDDEN
 62
     7
370
     0
100
AcDbLine
 10
226.7838185386
 20
100.8049951154
 30
0.0
 11
226.8132634004
 21
100.0555733383
 31
0.0
  0
LINE
  5
15A
330
1F
100
AcDbEntity
  8
0
  6
HIDDEN
 62
     7
370
     0
100
AcDbLine
 10
226.8427082623
 20
99.3061515611
 30
0.0
 11
226.8132634004
 21
100.0555733383
 31
0.0
  0
LINE
  5
15B
330
1F
100
AcDbEntity
  8
0
  6
HIDDEN
 62
     7
370
     0
100
AcDbLine
 10
226.8427082623
 20
99.3061515611
 30
0.0
 11
228.8411663347
 21
99.3846711926
 31
0.0
  0
LINE
  5
15C
330
1F
100
AcDbEntity
  8
0
  6
HIDDEN
 62
     7
370
     0
100
AcDbLine
 10
226.7838185386
 20
100.8049951154
 30
0.0
 11
228.7822766111
 21
100.883514747
 31
0.0
  0
LINE
  5
15D
330
1F
100
AcDbEntity
  8
0
  6
HIDDEN
 62
     7
370
     0
100
AcDbLine
 10
228.6498995775
 20
117.6392945237
 30
0.0
 11
228.5321201302
 21
114.641607415
 31
0.0
  0
LINE
  5
15E
330
1F
100
AcDbEntity
  8
0
  6
HIDDEN
 62
     7
370
     0
100
AcDbLine
 10
223.3159617736
 20
117.8488655108
 30
0.0
 11
223.1981823263
 21
114.8511784021
 31
0.0
  0
LINE
  5
15F
330
1F
100
AcDbEntity
  8
0
  6
HIDDEN
 62
     7
370
     0
100
AcDbLine
 10
228.7822766111
 20
116.883514747
 30
0.0
 11
228.704954404
 21
114.9155331601
 31
0.0
  0
LINE
  5
160
330
1F
100
AcDbEntity
  8
0
  6
HIDDEN
 62
     7
370
     0
100
AcDbLine
 10
222.7967173476
 20
117.3688809006
 30
0.0
 11
222.7181977161
 21
115.3704228281
 31
0.0
  0
LINE
  5
161
330
1F
100
AcDbEntity
  8
0
  6
HIDDEN
 62
     7
370
     0
100
AcDbLine
 10
226.7543736768
 20
116.2126126013
 30
0.0
 11
226.724928815
 21
115.4631908241
 31
0.0
  0
LINE
  5
162
330
1F
100
AcDbEntity
  8
0
  6
HIDDEN
 62
     7
370
     0
100
AcDbLine
 10
226.7543736768
 20
116.2126126013
 30
0.0
 11
228.7528317493
 21
116.1340929698
 31
0.0
  0
LINE
  5
163
330
1F
100
AcDbEntity
  8
0
  6
HIDDEN
 62
     7
370
     0
100
AcDbLine
 10
226.7838185386
 20
116.9620343785
 30
0.0
 11
226.7543736768
 21
116.2126126013
 31
0.0
  0
LINE
  5
164
330
1F
100
AcDbEntity
  8
0
  6
HIDDEN
 62
     7
370
     0
100
AcDbLine
 10
226.7838185386
 20
116.9620343785
 30
0.0
 11
228.7822766111
 21
116.883514747
 31
0.0
  0
LINE
  5
165
330
1F
100
AcDbEntity
  8
0
  6
HIDDEN
 62
     7
370
     0
100
AcDbLine
 10
226.724928815
 20
115.4631908241
 30
0.0
 11
228.7233868875
 21
115.3846711926
 31
0.0
  0
LINE
  5
166
330
1F
100
AcDbEntity
  8
0
  6
HIDDEN
 62
     7
370
     0
100
AcDbLine
 10
102.7822766111
 20
122.4335665837
 30
0.0
 11
102.7822766111
 21
120.5268767209
 31
0.0
  0
LINE
  5
167
330
1F
100
AcDbEntity
  8
0
  6
HIDDEN
 62
     7
370
     0
100
AcDbLine
 10
110.7822766111
 20
120.5268767209
 30
0.0
 11
110.7822766111
 21
122.4307712278
 31
0.0
  0
LINE
  5
168
330
1F
100
AcDbEntity
  8
0
  6
HIDDEN
 62
     7
370
     0
100
AcDbLine
 10
98.7822766111
 20
82.809004932
 30
0.0
 11
98.8764373866
 21
83.4789936632
 31
0.0
  0
LINE
  5
169
330
1F
100
AcDbEntity
  8
0
  6
HIDDEN
 62
     7
370
     0
100
AcDbLine
 10
98.8764373866
 20
132.7868784928
 30
0.0
 11
98.7822766111
 21
133.456867224
 31
0.0
  0
ARC
  5
16A
330
1F
100
AcDbEntity
  8
0
  6
HIDDEN
 62
     7
370
     0
100
AcDbCircle
 10
98.2822698584
 20
83.5624984636
 30
0.0
 40
0.6000067526677242
100
AcDbArc
 50
352.0
 51
0.0
  0
ARC
  5
16B
330
1F
100
AcDbEntity
  8
0
  6
HIDDEN
 62
     7
370
     0
100
AcDbCircle
 10
98.2822698584
 20
83.5624984636
 30
0.0
 40
0.6000067526677242
100
AcDbArc
 50
0.0
 51
33.5571153394
  0
ARC
  5
16C
330
1F
100
AcDbEntity
  8
0
  6
HIDDEN
 62
     7
370
     0
100
AcDbCircle
 10
98.2822698584
 20
132.7033736924
 30
0.0
 40
0.6000067526677308
100
AcDbArc
 50
348.75
 51
8.0
  0
LWPOLYLINE
  5
16D
330
1F
100
AcDbEntity
  8
0
  6
HIDDEN
 62
     7
370
     0
100
AcDbPolyline
 90
        3
 70
   128
 43
0.0
 10
98.8707476496
 20
132.5863181818
 10
98.8366038166
 20
132.4737610488
 10
98.7822766111
 20
132.3717091774
  0
LINE
  5
16E
330
1F
100
AcDbEntity
  8
0
  6
HIDDEN
 62
     7
370
     0
100
AcDbLine
 10
98.8822766111
 20
83.5624984636
 30
0.0
 11
98.8822766111
 21
132.7033736924
 31
0.0
  0
ARC
  5
16F
330
1F
100
AcDbEntity
  8
0
  6
HIDDEN
 62
     7
370
     0
100
AcDbCircle
 10
81.8647121764
 20
88.732936078
 30
0.0
 40
0.6000000000000155
100
AcDbArc
 50
210.0
 51
270.0
  0
ARC
  5
170
330
1F
100
AcDbEntity
  8
0
  6
HIDDEN
 62
     7
370
     0
100
AcDbCircle
 10
81.8647121764
 20
127.532936078
 30
0.0
 40
0.6000000000000084
100
AcDbArc
 50
90.0
 51
150.0
  0
ARC
  5
171
330
1F
100
AcDbEntity
  8
0
  6
HIDDEN
 62
     7
370
     0
100
AcDbCircle
 10
92.5372786127
 20
96.132936078
 30
0.0
 40
8.000000000000014
100
AcDbArc
 50
277.1438835928
 51
321.3178125465
  0
ARC
  5
172
330
1F
100
AcDbEntity
  8
0
  6
HIDDEN
 62
     7
370
     0
100
AcDbCircle
 10
92.5372786127
 20
120.132936078
 30
0.0
 40
8.000000000000018
100
AcDbArc
 50
38.6821874535
 51
82.9570627496
  0
LINE
  5
173
330
1F
100
AcDbEntity
  8
0
  6
HIDDEN
 62
     7
370
     0
100
AcDbLine
 10
81.8647121764
 20
88.132936078
 30
0.0
 11
86.0353939923
 21
88.132936078
 31
0.0
  0
LINE
  5
174
330
1F
100
AcDbEntity
  8
0
  6
HIDDEN
 62
     7
370
     0
100
AcDbLine
 10
86.0422487528
 20
128.132936078
 30
0.0
 11
81.8647121764
 21
128.132936078
 31
0.0
  0
LINE
  5
175
330
1F
100
AcDbEntity
  8
0
  6
HIDDEN
 62
     7
370
     0
100
AcDbLine
 10
81.3450969341
 20
127.832936078
 30
0.0
 11
79.7862512073
 21
125.132936078
 31
0.0
  0
LINE
  5
176
330
1F
100
AcDbEntity
  8
0
  6
HIDDEN
 62
     7
370
     0
100
AcDbLine
 10
79.7862512073
 20
91.132936078
 30
0.0
 11
81.3450969341
 21
88.432936078
 31
0.0
  0
LINE
  5
177
330
1F
100
AcDbEntity
  8
0
  6
HIDDEN
 62
     7
370
     0
100
AcDbLine
 10
102.7822766111
 20
135.412602316
 30
0.0
 11
102.7822766111
 21
132.0785384926
 31
0.0
  0
LINE
  5
178
330
1F
100
AcDbEntity
  8
0
  6
HIDDEN
 62
     7
370
     0
100
AcDbLine
 10
110.7822766111
 20
132.0785384926
 30
0.0
 11
110.7822766111
 21
135.4072699372
 31
0.0
  0
ARC
  5
179
330
1F
100
AcDbEntity
  8
0
  6
HIDDEN
 62
     7
370
     0
100
AcDbCircle
 10
107.2322766111
 20
92.407936078
 30
0.0
 40
1.500000000000001
100
AcDbArc
 50
238.2116693829
 51
0.0
  0
ARC
  5
17A
330
1F
100
AcDbEntity
  8
0
  6
HIDDEN
 62
     7
370
     0
100
AcDbCircle
 10
107.2322766111
 20
123.857936078
 30
0.0
 40
1.500000000000001
100
AcDbArc
 50
0.0
 51
121.7883306171
  0
LINE
  5
17B
330
1F
100
AcDbEntity
  8
0
  6
HIDDEN
 62
     7
370
     0
100
AcDbLine
 10
76.9822766111
 20
91.132936078
 30
0.0
 11
79.7862512073
 21
91.132936078
 31
0.0
  0
LINE
  5
17C
330
1F
100
AcDbEntity
  8
0
  6
HIDDEN
 62
     7
370
     0
100
AcDbLine
 10
79.7862512073
 20
125.132936078
 30
0.0
 11
72.9822766111
 21
125.132936078
 31
0.0
  0
LINE
  5
17D
330
1F
100
AcDbEntity
  8
0
  6
HIDDEN
 62
     7
370
     0
100
AcDbLine
 10
98.7822766111
 20
91.132936078
 30
0.0
 11
106.4421025796
 21
91.132936078
 31
0.0
  0
LINE
  5
17E
330
1F
100
AcDbEntity
  8
0
  6
HIDDEN
 62
     7
370
     0
100
AcDbLine
 10
106.4421025796
 20
125.132936078
 30
0.0
 11
98.7822766111
 21
125.132936078
 31
0.0
  0
LINE
  5
17F
330
1F
100
AcDbEntity
  8
0
  6
HIDDEN
 62
     7
370
     0
100
AcDbLine
 10
117.5822766111
 20
98.632936078
 30
0.0
 11
120.5822766111
 21
98.632936078
 31
0.0
  0
LINE
  5
180
330
1F
100
AcDbEntity
  8
0
  6
HIDDEN
 62
     7
370
     0
100
AcDbLine
 10
120.5822766111
 20
117.632936078
 30
0.0
 11
117.5822766111
 21
117.632936078
 31
0.0
  0
LINE
  5
181
330
1F
100
AcDbEntity
  8
0
  6
HIDDEN
 62
     7
370
     0
100
AcDbLine
 10
108.7322766111
 20
99.132936078
 30
0.0
 11
109.2322766111
 21
99.632936078
 31
0.0
  0
LINE
  5
182
330
1F
100
AcDbEntity
  8
0
  6
HIDDEN
 62
     7
370
     0
100
AcDbLine
 10
109.2322766111
 20
116.632936078
 30
0.0
 11
108.7322766111
 21
117.132936078
 31
0.0
  0
LINE
  5
183
330
1F
100
AcDbEntity
  8
0
  6
HIDDEN
 62
     7
370
     0
100
AcDbLine
 10
109.2322766111
 20
99.632936078
 30
0.0
 11
117.5822766111
 21
99.632936078
 31
0.0
  0
LINE
  5
184
330
1F
100
AcDbEntity
  8
0
  6
HIDDEN
 62
     7
370
     0
100
AcDbLine
 10
117.5822766111
 20
116.632936078
 30
0.0
 11
109.2322766111
 21
116.632936078
 31
0.0
  0
LINE
  5
185
330
1F
100
AcDbEntity
  8
0
  6
HIDDEN
 62
     7
370
     0
100
AcDbLine
 10
103.7322766111
 20
139.632936078
 30
0.0
 11
103.7322766111
 21
134.532936078
 31
0.0
  0
ARC
  5
186
330
1F
100
AcDbEntity
  8
0
  6
HIDDEN
 62
     7
370
     0
100
AcDbCircle
 10
228.2822766111
 20
102.0962418299
 30
0.0
 40
0.5
100
AcDbArc
 50
360.0
 51
80.0
  0
ARC
  5
187
330
1F
100
AcDbEntity
  8
0
  6
HIDDEN
 62
     7
370
     0
100
AcDbCircle
 10
228.2822766111
 20
114.1696303261
 30
0.0
 40
0.5
100
AcDbArc
 50
280.0
 51
0.0
  0
LINE
  5
188
330
1F
100
AcDbEntity
  8
0
  6
HIDDEN
 62
     7
370
     0
100
AcDbLine
 10
228.3691006999
 20
113.6772264496
 30
0.0
 11
225.2822766111
 21
113.132936078
 31
0.0
  0
LINE
  5
189
330
1F
100
AcDbEntity
  8
0
  6
HIDDEN
 62
     7
370
     0
100
AcDbLine
 10
225.2822766111
 20
103.132936078
 30
0.0
 11
228.3691006999
 21
102.5886457064
 31
0.0
  0
LINE
  5
18A
330
1F
100
AcDbEntity
  8
0
  6
HIDDEN
 62
     7
370
     0
100
AcDbLine
 10
190.7822766111
 20
102.832936078
 30
0.0
 11
196.887502593
 21
102.832936078
 31
0.0
  0
LINE
  5
18B
330
1F
100
AcDbEntity
  8
0
  6
HIDDEN
 62
     7
370
     0
100
AcDbLine
 10
187.6822766111
 20
102.832936078
 30
0.0
 11
187.7843415379
 21
102.832936078
 31
0.0
  0
LINE
  5
18C
330
1F
100
AcDbEntity
  8
0
  6
HIDDEN
 62
     7
370
     0
100
AcDbLine
 10
187.7834042255
 20
113.432936078
 30
0.0
 11
187.6822766111
 21
113.432936078
 31
0.0
  0
LINE
  5
18D
330
1F
100
AcDbEntity
  8
0
  6
HIDDEN
 62
     7
370
     0
100
AcDbLine
 10
196.887502593
 20
113.432936078
 30
0.0
 11
190.78090988
 21
113.432936078
 31
0.0
  0
ARC
  5
18E
330
1F
100
AcDbEntity
  8
0
  6
HIDDEN
 62
     7
370
     0
100
AcDbCircle
 10
187.6822766111
 20
103.232936078
 30
0.0
 40
0.4000000000000057
100
AcDbArc
 50
180.0
 51
270.0
  0
ARC
  5
18F
330
1F
100
AcDbEntity
  8
0
  6
HIDDEN
 62
     7
370
     0
100
AcDbCircle
 10
187.6822766111
 20
113.032936078
 30
0.0
 40
0.4000000000000057
100
AcDbArc
 50
90.0
 51
180.0
  0
ARC
  5
190
330
1F
100
AcDbEntity
  8
0
  6
HIDDEN
 62
     7
370
     0
100
AcDbCircle
 10
196.887502593
 20
103.232936078
 30
0.0
 40
0.4000000000000057
100
AcDbArc
 50
270.0
 51
290.0
  0
ARC
  5
191
330
1F
100
AcDbEntity
  8
0
  6
HIDDEN
 62
     7
370
     0
100
AcDbCircle
 10
196.887502593
 20
113.032936078
 30
0.0
 40
0.4000000000000057
100
AcDbArc
 50
70.0
 51
90.0
  0
LINE
  5
192
330
1F
100
AcDbEntity
  8
0
  6
HIDDEN
 62
     7
370
     0
100
AcDbLine
 10
197.0243106503
 20
102.8570590297
 30
0.0
 11
197.7822766111
 21
103.132936078
 31
0.0
  0
LINE
  5
193
330
1F
100
AcDbEntity
  8
0
  6
HIDDEN
 62
     7
370
     0
100
AcDbLine
 10
197.7822766111
 20
113.132936078
 30
0.0
 11
197.0243106503
 21
113.4088131263
 31
0.0
  0
LINE
  5
194
330
1F
100
AcDbEntity
  8
0
  6
HIDDEN
 62
     7
370
     0
100
AcDbLine
 10
197.7822766111
 20
103.132936078
 30
0.0
 11
225.2822766111
 21
103.132936078
 31
0.0
  0
LINE
  5
195
330
1F
100
AcDbEntity
  8
0
  6
HIDDEN
 62
     7
370
     0
100
AcDbLine
 10
225.2822766111
 20
113.132936078
 30
0.0
 11
197.7822766111
 21
113.132936078
 31
0.0
  0
LINE
  5
196
330
1F
100
AcDbEntity
  8
0
  6
HIDDEN
 62
     7
370
     0
100
AcDbLine
 10
93.9667144416
 20
84.0535647445
 30
0.0
 11
93.5322822921
 21
84.5326307636
 31
0.0
  0
LINE
  5
197
330
1F
100
AcDbEntity
  8
0
  6
HIDDEN
 62
     7
370
     0
100
AcDbLine
 10
86.032278967
 20
84.9543187227
 30
0.0
 11
85.5498452237
 21
84.4752527473
 31
0.0
  0
LINE
  5
198
330
1F
100
AcDbEntity
  8
0
  6
HIDDEN
 62
     7
370
     0
100
AcDbLine
 10
85.5497232954
 20
131.7906141183
 30
0.0
 11
86.0322740464
 21
131.3114938604
 31
0.0
  0
LINE
  5
199
330
1F
100
AcDbEntity
  8
0
  6
HIDDEN
 62
     7
370
     0
100
AcDbLine
 10
93.5322764931
 20
131.7331916381
 30
0.0
 11
93.9668188834
 21
132.2123118887
 31
0.0
  0
LINE
  5
19A
330
1F
100
AcDbEntity
  8
0
  6
HIDDEN
 62
     7
370
     0
100
AcDbLine
 10
120.5822766111
 20
103.932936078
 30
0.0
 11
166.8822766111
 21
103.932936078
 31
0.0
  0
LINE
  5
19B
330
1F
100
AcDbEntity
  8
0
  6
HIDDEN
 62
     7
370
     0
100
AcDbLine
 10
166.8822766111
 20
112.332936078
 30
0.0
 11
120.5822766111
 21
112.332936078
 31
0.0
  0
LINE
  5
19C
330
1F
100
AcDbEntity
  8
0
  6
HIDDEN
 62
     7
370
     0
100
AcDbLine
 10
166.8822766111
 20
103.932936078
 30
0.0
 11
167.3028790444
 21
104.632936078
 31
0.0
  0
LINE
  5
19D
330
1F
100
AcDbEntity
  8
0
  6
HIDDEN
 62
     7
370
     0
100
AcDbLine
 10
167.3028790444
 20
111.632936078
 30
0.0
 11
166.8822766111
 21
112.332936078
 31
0.0
  0
LINE
  5
19E
330
1F
100
AcDbEntity
  8
0
  6
HIDDEN
 62
     7
370
     0
100
AcDbLine
 10
187.2822766111
 20
112.132936078
 30
0.0
 11
186.7822766111
 21
111.632936078
 31
0.0
  0
LINE
  5
19F
330
1F
100
AcDbEntity
  8
0
  6
HIDDEN
 62
     7
370
     0
100
AcDbLine
 10
186.7822766111
 20
104.632936078
 30
0.0
 11
187.2822766111
 21
104.132936078
 31
0.0
  0
LINE
  5
1A0
330
1F
100
AcDbEntity
  8
0
  6
HIDDEN
 62
     7
370
     0
100
AcDbLine
 10
93.5322766111
 20
84.5331146653
 30
0.0
 11
93.5322766111
 21
88.1950998874
 31
0.0
  0
LINE
  5
1A1
330
1F
100
AcDbEntity
  8
0
  6
HIDDEN
 62
     7
370
     0
100
AcDbLine
 10
86.0322766111
 20
88.1335203392
 30
0.0
 11
86.0322766111
 21
84.9546419605
 31
0.0
  0
LINE
  5
1A2
330
1F
100
AcDbEntity
  8
0
  6
HIDDEN
 62
     7
370
     0
100
AcDbLine
 10
93.5322766111
 20
128.070008904
 30
0.0
 11
93.5322766111
 21
131.7326382165
 31
0.0
  0
LINE
  5
1A3
330
1F
100
AcDbEntity
  8
0
  6
HIDDEN
 62
     7
370
     0
100
AcDbLine
 10
86.0322766111
 20
131.3112386692
 30
0.0
 11
86.0322766111
 21
128.1310738324
 31
0.0
  0
LINE
  5
1A4
330
1F
100
AcDbEntity
  8
0
  6
HIDDEN
 62
     7
370
     0
100
AcDbLine
 10
167.3028790444
 20
104.632936078
 30
0.0
 11
186.7822766111
 21
104.632936078
 31
0.0
  0
LINE
  5
1A5
330
1F
100
AcDbEntity
  8
0
  6
HIDDEN
 62
     7
370
     0
100
AcDbLine
 10
186.7822766111
 20
111.632936078
 30
0.0
 11
167.3028790444
 21
111.632936078
 31
0.0
  0
LINE
  5
1A6
330
1F
100
AcDbEntity
  8
0
  6
HIDDEN
 62
     7
370
     0
100
AcDbLine
 10
164.2322766111
 20
92.132936078
 30
0.0
 11
163.2322766111
 21
92.7102863472
 31
0.0
  0
LINE
  5
1A7
330
1F
100
AcDbEntity
  8
0
  6
HIDDEN
 62
     7
370
     0
100
AcDbLine
 10
158.2322766111
 20
92.7102863472
 30
0.0
 11
157.2322766111
 21
92.132936078
 31
0.0
  0
LINE
  5
1A8
330
1F
100
AcDbEntity
  8
0
  6
HIDDEN
 62
     7
370
     0
100
AcDbLine
 10
157.2322766111
 20
124.132936078
 30
0.0
 11
158.2322766111
 21
123.5555858088
 31
0.0
  0
LINE
  5
1A9
330
1F
100
AcDbEntity
  8
0
  6
HIDDEN
 62
     7
370
     0
100
AcDbLine
 10
163.2322766111
 20
123.5555858088
 30
0.0
 11
164.2322766111
 21
124.132936078
 31
0.0
  0
LINE
  5
1AA
330
1F
100
AcDbEntity
  8
0
  6
HIDDEN
 62
     7
370
     0
100
AcDbLine
 10
158.2322766111
 20
123.5555858088
 30
0.0
 11
158.2322766111
 21
115.132936078
 31
0.0
  0
LINE
  5
1AB
330
1F
100
AcDbEntity
  8
0
  6
HIDDEN
 62
     7
370
     0
100
AcDbLine
 10
163.2322766111
 20
115.132936078
 30
0.0
 11
163.2322766111
 21
123.5555858088
 31
0.0
  0
LINE
  5
1AC
330
1F
100
AcDbEntity
  8
0
  6
HIDDEN
 62
     7
370
     0
100
AcDbLine
 10
158.2322766111
 20
115.132936078
 30
0.0
 11
160.7322766111
 21
113.6307845304
 31
0.0
  0
LINE
  5
1AD
330
1F
100
AcDbEntity
  8
0
  6
HIDDEN
 62
     7
370
     0
100
AcDbLine
 10
160.7322766111
 20
113.6307845304
 30
0.0
 11
163.2322766111
 21
115.132936078
 31
0.0
  0
LINE
  5
1AE
330
1F
100
AcDbEntity
  8
0
  6
HIDDEN
 62
     7
370
     0
100
AcDbLine
 10
163.2322766111
 20
92.7102863472
 30
0.0
 11
163.2322766111
 21
101.132936078
 31
0.0
  0
LINE
  5
1AF
330
1F
100
AcDbEntity
  8
0
  6
HIDDEN
 62
     7
370
     0
100
AcDbLine
 10
158.2322766111
 20
101.132936078
 30
0.0
 11
158.2322766111
 21
92.7102863472
 31
0.0
  0
LINE
  5
1B0
330
1F
100
AcDbEntity
  8
0
  6
HIDDEN
 62
     7
370
     0
100
AcDbLine
 10
163.2322766111
 20
101.132936078
 30
0.0
 11
160.7322766111
 21
102.6350876256
 31
0.0
  0
LINE
  5
1B1
330
1F
100
AcDbEntity
  8
0
  6
HIDDEN
 62
     7
370
     0
100
AcDbLine
 10
160.7322766111
 20
102.6350876256
 30
0.0
 11
158.2322766111
 21
101.132936078
 31
0.0
  0
LINE
  5
1B2
330
1F
100
AcDbEntity
  8
0
  6
HIDDEN
 62
     7
370
     0
100
AcDbLine
 10
187.7822766111
 20
116.4934090008
 30
0.0
 11
187.7822766111
 21
113.4326171245
 31
0.0
  0
LINE
  5
1B3
330
1F
100
AcDbEntity
  8
0
  6
HIDDEN
 62
     7
370
     0
100
AcDbLine
 10
187.7822766111
 20
119.532936078
 30
0.0
 11
187.7822766111
 21
118.8694341571
 31
0.0
  0
LINE
  5
1B4
330
1F
100
AcDbEntity
  8
0
  6
HIDDEN
 62
     7
370
     0
100
AcDbLine
 10
190.7822766111
 20
118.8752478285
 30
0.0
 11
190.7822766111
 21
119.532936078
 31
0.0
  0
LINE
  5
1B5
330
1F
100
AcDbEntity
  8
0
  6
HIDDEN
 62
     7
370
     0
100
AcDbLine
 10
190.7822766111
 20
113.4325531096
 30
0.0
 11
190.7822766111
 21
116.374995696
 31
0.0
  0
LINE
  5
1B6
330
1F
100
AcDbEntity
  8
0
  6
HIDDEN
 62
     7
370
     0
100
AcDbLine
 10
187.7822766111
 20
97.3948534567
 30
0.0
 11
187.7822766111
 21
97.132936078
 31
0.0
  0
LINE
  5
1B7
330
1F
100
AcDbEntity
  8
0
  6
HIDDEN
 62
     7
370
     0
100
AcDbLine
 10
187.7822766111
 20
102.8335159239
 30
0.0
 11
187.7822766111
 21
99.7607833947
 31
0.0
  0
LINE
  5
1B8
330
1F
100
AcDbEntity
  8
0
  6
HIDDEN
 62
     7
370
     0
100
AcDbLine
 10
190.7822766111
 20
99.89087646
 30
0.0
 11
190.7822766111
 21
102.832936078
 31
0.0
  0
LINE
  5
1B9
330
1F
100
AcDbEntity
  8
0
  6
HIDDEN
 62
     7
370
     0
100
AcDbLine
 10
190.7822766111
 20
97.132936078
 30
0.0
 11
190.7822766111
 21
97.3927043413
 31
0.0
  0
LINE
  5
1BA
330
1F
100
AcDbEntity
  8
0
  6
HIDDEN
 62
     7
370
     0
100
AcDbLine
 10
187.7822766111
 20
97.132936078
 30
0.0
 11
189.2822766111
 21
96.2316451495
 31
0.0
  0
LINE
  5
1BB
330
1F
100
AcDbEntity
  8
0
  6
HIDDEN
 62
     7
370
     0
100
AcDbLine
 10
189.2822766111
 20
96.2316451495
 30
0.0
 11
190.7822766111
 21
97.132936078
 31
0.0
  0
LINE
  5
1BC
330
1F
100
AcDbEntity
  8
0
  6
HIDDEN
 62
     7
370
     0
100
AcDbLine
 10
190.7792219144
 20
97.3888275441
 30
0.0
 11
228.7822766111
 21
98.8819716298
 31
0.0
  0
LINE
  5
1BD
330
1F
100
AcDbEntity
  8
0
  6
HIDDEN
 62
     7
370
     0
100
AcDbLine
 10
228.7822766111
 20
101.3839005263
 30
0.0
 11
190.7822766111
 21
99.89087646
 31
0.0
  0
LINE
  5
1BE
330
1F
100
AcDbEntity
  8
0
  6
HIDDEN
 62
     7
370
     0
100
AcDbLine
 10
190.7822766111
 20
116.374995696
 30
0.0
 11
228.7822766111
 21
114.8819716298
 31
0.0
  0
LINE
  5
1BF
330
1F
100
AcDbEntity
  8
0
  6
HIDDEN
 62
     7
370
     0
100
AcDbLine
 10
228.7822766111
 20
117.3839005263
 30
0.0
 11
190.7809031258
 21
118.8769785569
 31
0.0
  0
LINE
  5
1C0
330
1F
100
AcDbEntity
  8
0
  6
HIDDEN
 62
     7
370
     0
100
AcDbLine
 10
187.7648113555
 20
99.7723199272
 30
0.0
 11
187.0633894037
 21
98.4937965354
 31
0.0
  0
LINE
  5
1C1
330
1F
100
AcDbEntity
  8
0
  6
HIDDEN
 62
     7
370
     0
100
AcDbLine
 10
187.0633894037
 20
98.4937965354
 30
0.0
 11
187.7856154313
 21
97.3922187742
 31
0.0
  0
LINE
  5
1C2
330
1F
100
AcDbEntity
  8
0
  6
HIDDEN
 62
     7
370
     0
100
AcDbLine
 10
187.7836083854
 20
118.8705921282
 30
0.0
 11
187.0633894037
 21
117.7720756206
 31
0.0
  0
LINE
  5
1C3
330
1F
100
AcDbEntity
  8
0
  6
HIDDEN
 62
     7
370
     0
100
AcDbLine
 10
187.0633894037
 20
117.7720756206
 30
0.0
 11
187.7648113555
 21
116.4935522288
 31
0.0
  0
LINE
  5
1C4
330
1F
100
AcDbEntity
  8
0
  6
HIDDEN
 62
     7
370
     0
100
AcDbLine
 10
68.1799320152
 20
129.002936078
 30
0.0
 11
68.1731650125
 21
129.002936078
 31
0.0
  0
LINE
  5
1C5
330
1F
100
AcDbEntity
  8
0
  6
HIDDEN
 62
     7
370
     0
100
AcDbLine
 10
187.2822766111
 20
104.132936078
 30
0.0
 11
187.7822766111
 21
104.632936078
 31
0.0
  0
LINE
  5
1C6
330
1F
100
AcDbEntity
  8
0
  6
HIDDEN
 62
     7
370
     0
100
AcDbLine
 10
187.7822766111
 20
111.632936078
 30
0.0
 11
187.2822766111
 21
112.132936078
 31
0.0
  0
LINE
  5
1C7
330
1F
100
AcDbEntity
  8
0
  6
HIDDEN
 62
     7
370
     0
100
AcDbLine
 10
171.7822766111
 20
104.132936078
 30
0.0
 11
187.2822766111
 21
104.132936078
 31
0.0
  0
LINE
  5
1C8
330
1F
100
AcDbEntity
  8
0
  6
HIDDEN
 62
     7
370
     0
100
AcDbLine
 10
187.2822766111
 20
112.132936078
 30
0.0
 11
171.7822766111
 21
112.132936078
 31
0.0
  0
LINE
  5
1C9
330
1F
100
AcDbEntity
  8
0
  6
HIDDEN
 62
     7
370
     0
100
AcDbLine
 10
171.7822766111
 20
112.132936078
 30
0.0
 11
171.2822766111
 21
111.632936078
 31
0.0
  0
LINE
  5
1CA
330
1F
100
AcDbEntity
  8
0
  6
HIDDEN
 62
     7
370
     0
100
AcDbLine
 10
171.2822766111
 20
104.632936078
 30
0.0
 11
171.7822766111
 21
104.132936078
 31
0.0
  0
LINE
  5
1CB
330
1F
100
AcDbEntity
  8
0
  6
HIDDEN
 62
     7
370
     0
100
AcDbLine
 10
187.7822766111
 20
104.632936078
 30
0.0
 11
191.2822766111
 21
104.632936078
 31
0.0
  0
LINE
  5
1CC
330
1F
100
AcDbEntity
  8
0
  6
HIDDEN
 62
     7
370
     0
100
AcDbLine
 10
191.2822766111
 20
111.632936078
 30
0.0
 11
187.7822766111
 21
111.632936078
 31
0.0
  0
LINE
  5
1CD
330
1F
100
AcDbEntity
  8
0
  6
HIDDEN
 62
     7
370
     0
100
AcDbLine
 10
176.282276611
 20
106.132936078
 30
0.0
 11
186.2822766111
 21
106.132936078
 31
0.0
  0
LINE
  5
1CE
330
1F
100
AcDbEntity
  8
0
  6
HIDDEN
 62
     7
370
     0
100
AcDbLine
 10
186.2822766111
 20
110.132936078
 30
0.0
 11
176.282276611
 21
110.132936078
 31
0.0
  0
LINE
  5
1CF
330
1F
100
AcDbEntity
  8
0
  6
HIDDEN
 62
     7
370
     0
100
AcDbLine
 10
228.7087893011
 20
98.6288914158
 30
0.0
 11
228.7822766111
 21
98.7685678177
 31
0.0
  0
LINE
  5
1D0
330
1F
100
AcDbEntity
  8
0
  6
HIDDEN
 62
     7
370
     0
100
AcDbLine
 10
228.7638441276
 20
101.3526527795
 30
0.0
 11
228.5910098539
 21
101.6265785246
 31
0.0
  0
LINE
  5
1D1
330
1F
100
AcDbEntity
  8
0
  6
HIDDEN
 62
     7
370
     0
100
AcDbLine
 10
228.5910098539
 20
101.6265785246
 30
0.0
 11
223.25707205
 21
101.4170075375
 31
0.0
  0
LINE
  5
1D2
330
1F
100
AcDbEntity
  8
0
  6
HIDDEN
 62
     7
370
     0
100
AcDbLine
 10
223.3748514972
 20
98.4193204287
 30
0.0
 11
228.7087893011
 21
98.6288914158
 31
0.0
  0
LINE
  5
1D3
330
1F
100
AcDbEntity
  8
0
  6
HIDDEN
 62
     7
370
     0
100
AcDbLine
 10
223.25707205
 20
101.4170075375
 30
0.0
 11
222.7770874397
 21
100.8977631115
 31
0.0
  0
LINE
  5
1D4
330
1F
100
AcDbEntity
  8
0
  6
HIDDEN
 62
     7
370
     0
100
AcDbLine
 10
222.8556070712
 20
98.899305039
 30
0.0
 11
223.3748514972
 21
98.4193204287
 31
0.0
  0
LINE
  5
1D5
330
1F
100
AcDbEntity
  8
0
  6
HIDDEN
 62
     7
370
     0
100
AcDbLine
 10
228.6498995775
 20
117.6392945237
 30
0.0
 11
223.3159617736
 21
117.8488655108
 31
0.0
  0
LINE
  5
1D6
330
1F
100
AcDbEntity
  8
0
  6
HIDDEN
 62
     7
370
     0
100
AcDbLine
 10
223.1981823263
 20
114.8511784021
 30
0.0
 11
228.5321201302
 21
114.641607415
 31
0.0
  0
LINE
  5
1D7
330
1F
100
AcDbEntity
  8
0
  6
HIDDEN
 62
     7
370
     0
100
AcDbLine
 10
228.5321201302
 20
114.641607415
 30
0.0
 11
228.704954404
 21
114.9155331601
 31
0.0
  0
LINE
  5
1D8
330
1F
100
AcDbEntity
  8
0
  6
HIDDEN
 62
     7
370
     0
100
AcDbLine
 10
228.7822766111
 20
117.387687168
 30
0.0
 11
228.6498995775
 21
117.6392945237
 31
0.0
  0
LINE
  5
1D9
330
1F
100
AcDbEntity
  8
0
  6
HIDDEN
 62
     7
370
     0
100
AcDbLine
 10
223.3159617736
 20
117.8488655108
 30
0.0
 11
222.7967173476
 21
117.3688809006
 31
0.0
  0
LINE
  5
1DA
330
1F
100
AcDbEntity
  8
0
  6
HIDDEN
 62
     7
370
     0
100
AcDbLine
 10
222.7181977161
 20
115.3704228281
 30
0.0
 11
223.1981823263
 21
114.8511784021
 31
0.0
  0
DIMENSION
  5
1DB
330
1F
100
AcDbEntity
  8
VERMASSUNG
100
AcDbDimension
  2
*D1
 10
61.4739978332
 20
76.632936078
 30
0.0
 11
61.4739978332
 21
108.132936078
 31
0.0
 70
   160
  1
HSK A %%c<>
 71
     2
 42
-1.0
  3
SLDDIMSTYLE0
100
AcDbAlignedDimension
 13
99.0822766111
 23
139.632936078
 33
0.0
 14
99.0822766111
 24
76.632936078
 34
0.0
 50
90.0
100
AcDbRotatedDimension
  0
DIMENSION
  5
1E8
330
1F
100
AcDbEntity
  8
VERMASSUNG
100
AcDbDimension
  2
*D2
 10
228.7822766111
 20
140.9561213434
 30
0.0
 11
208.0322766111
 21
140.9561213434
 31
0.0
 70
   160
 71
     2
 42
-1.0
  3
SLDDIMSTYLE1
100
AcDbAlignedDimension
 13
187.2822766111
 23
113.032936078
 33
0.0
 14
228.7822766111
 24
118.2841550947
 34
0.0
100
AcDbRotatedDimension
  0
DIMENSION
  5
1F3
330
1F
100
AcDbEntity
  8
VERMASSUNG
100
AcDbDimension
  2
*D3
 10
238.8706111966
 20
113.132936078
 30
0.0
 11
238.8706111966
 21
108.132936078
 31
0.0
 70
   160
  1
%%c<>
 71
     2
 42
-1.0
  3
SLDDIMSTYLE2
100
AcDbAlignedDimension
 13
225.2822766111
 23
103.132936078
 33
0.0
 14
225.2822766111
 24
113.132936078
 34
0.0
 50
90.0
100
AcDbRotatedDimension
  0
DIMENSION
  5
1FF
330
1F
100
AcDbEntity
  8
VERMASSUNG
100
AcDbDimension
  2
*D4
 10
244.8706111966
 20
120.132936078
 30
0.0
 11
244.8706111966
 21
108.132936078
 31
0.0
 70
   160
  1
%%c<>
 71
     2
 42
-1.0
  3
SLDDIMSTYLE3
100
AcDbAlignedDimension
 13
228.7822766111
 23
96.132936078
 33
0.0
 14
228.7822766111
 24
120.132936078
 34
0.0
 50
90.0
100
AcDbRotatedDimension
  0
DIMENSION
  5
20B
330
1F
100
AcDbEntity
  8
VERMASSUNG
100
AcDbDimension
  2
*D5
 10
228.7822766111
 20
152.9561213434
 30
0.0
 11
163.7822766111
 21
152.9561213434
 31
0.0
 70
   160
 71
     2
 42
-1.0
  3
SLDDIMSTYLE0
100
AcDbAlignedDimension
 13
98.7822766111
 23
139.332936078
 33
0.0
 14
228.7822766111
 24
118.2841550947
 34
0.0
100
AcDbRotatedDimension
  0
DIMENSION
  5
215
330
1F
100
AcDbEntity
  8
VERMASSUNG
100
AcDbDimension
  2
*D6
 10
228.7822766111
 20
146.9561213434
 30
0.0
 11
176.7572766111
 21
146.9561213434
 31
0.0
 70
   160
 71
     2
 42
-1.0
  3
SLDDIMSTYLE0
100
AcDbAlignedDimension
 13
124.7322766111
 23
137.9793764018
 33
0.0
 14
228.7822766111
 24
118.2841550947
 34
0.0
100
AcDbRotatedDimension
  0
DIMENSION
  5
21F
330
1F
100
AcDbEntity
  8
VERMASSUNG
100
AcDbDimension
  2
*D7
 10
228.7822766111
 20
158.9561213434
 30
0.0
 11
147.8322766111
 21
158.9561213434
 31
0.0
 70
   160
 71
     2
 42
-1.0
  3
SLDDIMSTYLE0
100
AcDbAlignedDimension
 13
66.8822766111
 23
127.8236138245
 33
0.0
 14
228.7822766111
 24
118.2841550947
 34
0.0
100
AcDbRotatedDimension
  0
DIMENSION
  5
229
330
1F
100
AcDbEntity
  8
VERMASSUNG
100
AcDbDimension
  2
*D8
 10
250.8706111966
 20
92.132936078
 30
0.0
 11
250.8706111966
 21
108.132936078
 31
0.0
 70
   160
  1
%%c<>
 71
     2
 42
-1.0
  3
SLDDIMSTYLE0
100
AcDbAlignedDimension
 13
177.9574576664
 23
124.132936078
 33
0.0
 14
177.9574576664
 24
92.132936078
 34
0.0
 50
90.0
100
AcDbRotatedDimension
  0
LINE
  5
234
330
1F
100
AcDbEntity
  8
VERMASSUNG
  6
CENTERX2
370
     0
100
AcDbLine
 10
64.7369727688
 20
108.132936078
 30
0.0
 11
230.1884073673
 21
108.132936078
 31
0.0
  0
OLE2FRAME
  5
235
330
1F
100
AcDbEntity
  8
0
100
AcDbOle2Frame
 70
     2
  3
Bitmap Image
 10
13.8511154363
 20
38.264191557
 30
0.0
 11
51.6290888628
 21
31.9806341108
 31
0.0
 71
     2
 72
     0
 73
     1
 90
    12928
310
80552BED0767C5B32B40DDAF6807D121434000000000000000006FFBDDFB85D0
310
4940DDAF6807D121434000000000000000006FFBDDFB85D04940416F4BD60AFB
310
3F4000000000000000002BED0767C5B32B40416F4BD60AFB3F40000000000000
310
0000000000000100000000010000010000000100000000000100000000320000
310
D0CF11E0A1B11AE1000000000000000000000000000000003E000300FEFF0900
310
0600000000000000000000000100000001000000000000000010000002000000
310
01000000FEFFFFFF0000000000000000FFFFFFFFFFFFFFFFFFFFFFFFFFFFFFFF
310
FFFFFFFFFFFFFFFFFFFFFFFFFFFFFFFFFFFFFFFFFFFFFFFFFFFFFFFFFFFFFFFF
310
FFFFFFFFFFFFFFFFFFFFFFFFFFFFFFFFFFFFFFFFFFFFFFFFFFFFFFFFFFFFFFFF
310
FFFFFFFFFFFFFFFFFFFFFFFFFFFFFFFFFFFFFFFFFFFFFFFFFFFFFFFFFFFFFFFF
310
FFFFFFFFFFFFFFFFFFFFFFFFFFFFFFFFFFFFFFFFFFFFFFFFFFFFFFFFFFFFFFFF
310
FFFFFFFFFFFFFFFFFFFFFFFFFFFFFFFFFFFFFFFFFFFFFFFFFFFFFFFFFFFFFFFF
310
FFFFFFFFFFFFFFFFFFFFFFFFFFFFFFFFFFFFFFFFFFFFFFFFFFFFFFFFFFFFFFFF
310
FFFFFFFFFFFFFFFFFFFFFFFFFFFFFFFFFFFFFFFFFFFFFFFFFFFFFFFFFFFFFFFF
310
FFFFFFFFFFFFFFFFFFFFFFFFFFFFFFFFFFFFFFFFFFFFFFFFFFFFFFFFFFFFFFFF
310
FFFFFFFFFFFFFFFFFFFFFFFFFFFFFFFFFFFFFFFFFFFFFFFFFFFFFFFFFFFFFFFF
310
FFFFFFFFFFFFFFFFFFFFFFFFFFFFFFFFFFFFFFFFFFFFFFFFFFFFFFFFFFFFFFFF
310
FFFFFFFFFFFFFFFFFFFFFFFFFFFFFFFFFFFFFFFFFFFFFFFFFFFFFFFFFFFFFFFF
310
FFFFFFFFFFFFFFFFFFFFFFFFFFFFFFFFFFFFFFFFFFFFFFFFFFFFFFFFFFFFFFFF
310
FFFFFFFFFFFFFFFFFFFFFFFFFFFFFFFFFFFFFFFFFFFFFFFFFFFFFFFFFFFFFFFF
310
FDFFFFFFFEFFFFFFFEFFFFFFFEFFFFFF05000000060000000700000008000000
310
090000000A0000000B0000000C0000000D0000000E0000000F00000010000000
310
11000000120000001300000014000000150000001600000017000000FEFFFFFF
310
FFFFFFFFFFFFFFFFFFFFFFFFFFFFFFFFFFFFFFFFFFFFFFFFFFFFFFFFFFFFFFFF
310
FFFFFFFFFFFFFFFFFFFFFFFFFFFFFFFFFFFFFFFFFFFFFFFFFFFFFFFFFFFFFFFF
310
FFFFFFFFFFFFFFFFFFFFFFFFFFFFFFFFFFFFFFFFFFFFFFFFFFFFFFFFFFFFFFFF
310
FFFFFFFFFFFFFFFFFFFFFFFFFFFFFFFFFFFFFFFFFFFFFFFFFFFFFFFFFFFFFFFF
310
FFFFFFFFFFFFFFFFFFFFFFFFFFFFFFFFFFFFFFFFFFFFFFFFFFFFFFFFFFFFFFFF
310
FFFFFFFFFFFFFFFFFFFFFFFFFFFFFFFFFFFFFFFFFFFFFFFFFFFFFFFFFFFFFFFF
310
FFFFFFFFFFFFFFFFFFFFFFFFFFFFFFFFFFFFFFFFFFFFFFFFFFFFFFFFFFFFFFFF
310
FFFFFFFFFFFFFFFFFFFFFFFFFFFFFFFFFFFFFFFFFFFFFFFFFFFFFFFFFFFFFFFF
310
FFFFFFFFFFFFFFFFFFFFFFFFFFFFFFFFFFFFFFFFFFFFFFFFFFFFFFFFFFFFFFFF
310
FFFFFFFFFFFFFFFFFFFFFFFFFFFFFFFFFFFFFFFFFFFFFFFFFFFFFFFFFFFFFFFF
310
FFFFFFFFFFFFFFFFFFFFFFFFFFFFFFFFFFFFFFFFFFFFFFFFFFFFFFFFFFFFFFFF
310
FFFFFFFFFFFFFFFFFFFFFFFFFFFFFFFFFFFFFFFFFFFFFFFFFFFFFFFFFFFFFFFF
310
FFFFFFFFFFFFFFFFFFFFFFFFFFFFFFFFFFFFFFFFFFFFFFFFFFFFFFFFFFFFFFFF
310
52006F006F007400200045006E00740072007900000000000000000000000000
310
0000000000000000000000000000000000000000000000000000000000000000
310
16000500FFFFFFFFFFFFFFFF020000000A00030000000000C000000000000046
310
00000000000000000000000000A83583C204CC0103000000C000000000000000
310
01004F006C006500000000000000000000000000000000000000000000000000
310
0000000000000000000000000000000000000000000000000000000000000000
310
0A000200FFFFFFFFFFFFFFFFFFFFFFFF00000000000000000000000000000000
310
0000000000000000000000000000000000000000000000001400000000000000
310
010043006F006D0070004F0062006A0000000000000000000000000000000000
310
0000000000000000000000000000000000000000000000000000000000000000
310
120002010100000003000000FFFFFFFF00000000000000000000000000000000
310
0000000000000000000000000000000000000000010000004D00000000000000
310
01004F006C006500310030004E00610074006900760065000000000000000000
310
0000000000000000000000000000000000000000000000000000000000000000
310
1A000200FFFFFFFFFFFFFFFFFFFFFFFF00000000000000000000000000000000
310
0000000000000000000000000000000000000000040000002426000000000000
310
FEFFFFFF02000000FEFFFFFFFFFFFFFFFFFFFFFFFFFFFFFFFFFFFFFFFFFFFFFF
310
FFFFFFFFFFFFFFFFFFFFFFFFFFFFFFFFFFFFFFFFFFFFFFFFFFFFFFFFFFFFFFFF
310
FFFFFFFFFFFFFFFFFFFFFFFFFFFFFFFFFFFFFFFFFFFFFFFFFFFFFFFFFFFFFFFF
310
FFFFFFFFFFFFFFFFFFFFFFFFFFFFFFFFFFFFFFFFFFFFFFFFFFFFFFFFFFFFFFFF
310
FFFFFFFFFFFFFFFFFFFFFFFFFFFFFFFFFFFFFFFFFFFFFFFFFFFFFFFFFFFFFFFF
310
FFFFFFFFFFFFFFFFFFFFFFFFFFFFFFFFFFFFFFFFFFFFFFFFFFFFFFFFFFFFFFFF
310
FFFFFFFFFFFFFFFFFFFFFFFFFFFFFFFFFFFFFFFFFFFFFFFFFFFFFFFFFFFFFFFF
310
FFFFFFFFFFFFFFFFFFFFFFFFFFFFFFFFFFFFFFFFFFFFFFFFFFFFFFFFFFFFFFFF
310
FFFFFFFFFFFFFFFFFFFFFFFFFFFFFFFFFFFFFFFFFFFFFFFFFFFFFFFFFFFFFFFF
310
FFFFFFFFFFFFFFFFFFFFFFFFFFFFFFFFFFFFFFFFFFFFFFFFFFFFFFFFFFFFFFFF
310
FFFFFFFFFFFFFFFFFFFFFFFFFFFFFFFFFFFFFFFFFFFFFFFFFFFFFFFFFFFFFFFF
310
FFFFFFFFFFFFFFFFFFFFFFFFFFFFFFFFFFFFFFFFFFFFFFFFFFFFFFFFFFFFFFFF
310
FFFFFFFFFFFFFFFFFFFFFFFFFFFFFFFFFFFFFFFFFFFFFFFFFFFFFFFFFFFFFFFF
310
FFFFFFFFFFFFFFFFFFFFFFFFFFFFFFFFFFFFFFFFFFFFFFFFFFFFFFFFFFFFFFFF
310
FFFFFFFFFFFFFFFFFFFFFFFFFFFFFFFFFFFFFFFFFFFFFFFFFFFFFFFFFFFFFFFF
310
FFFFFFFFFFFFFFFFFFFFFFFFFFFFFFFFFFFFFFFFFFFFFFFFFFFFFFFFFFFFFFFF
310
0100000200000000000000000000000000000000000000000000000000000000
310
00000000000000003800000041000000C60DEF0100000000380E540100000000
310
0100FEFF030A0000FFFFFFFF0A00030000000000C00000000000004607000000
310
5042727573680007000000504272757368000700000050427275736800F439B2
310
7100000000000000000000000000000000000000000000000000C70600000000
310
425D000000000000000000000000000000000000000000003800000041000000
310
C60DEF0100000000040EC2030000000000000000000000000000000000000000
310
0000C70600000000435D00000000000000000000000000000000000000000000
310
3800000041000000C60DEF0100000000780EE903000000000000000000000000
310
00000000000000000000C706000000003D5D0000000000000000000000000000
310
00000000000000003800000041000000C60DEF01000000003A0EA30300000000
310
000000000000000000000000000000000000C706000000003E5D000000000000
310
000000000000000000000000000000003800000041000000C60DEF0100000000
310
400E1A0300000000000000000000000000000000000000000000C70600000000
310
3F5D000000000000000000000000000000000000000000003800000041000000
310
C60DEF01000000001C0E5D030000000000000000000000000000000000000000
310
20260000424D0E260000000000003E00000028000000B40200006E0000000100
310
01000000000000000000130B0000130B00000200000002000000000000FFFFFF
310
FFFFFFFFFFFFFFFFFFFFFFFFFFFFFFFFFFFFFFFFFFFFFFFFFFFFFFFFFFFFFFFF
310
FFFFFFFFFFFFFFFFFFFFFFFFFFFFFFFFFFFFFFFFFFFFFFFFFFFFFFFFFFFFFFFF
310
FFFFFFFFFFFFFFFFFFFFFFFFFFFFFFFFFFFFFFFFFFFFFFFFF000FFFFFFFFFFFF
310
FFFFFFFFFFFFFFFFFFFFFFFFFFFFFFFFFFFFFFFFFFFFFFFFFFFFFFFFFFFFFFFF
310
FFFFFFFFFFFFFFFFFFFFFFFFFFFFFFFFFFFFFFFFFFFFFFFFFFFFFFFFFFFFFFFF
310
FFFFFFFFFFFFFFFFFFFFFFFFFFFFFFFFF000FFFFFFFFFFFFFFFFFFFFFFFFFFFF
310
FFFFFFFFFFFFFFFFFFFFFFFFFFFFFFFFFFFFFFFFFFFFFFFFFFFFFFFFFFFFFFFF
310
FFFFFFFFFFFFFFFFFFFFFFFFFFFFFFFFFFFFFFFFFFFFFFFFFFFFFFFFFFFFFFFF
310
FFFFFFFFFFFFFFFFF000FFFFFFFFFFFFFFFFFFFFFFFFFFFFFFFFFFFFFFFFFFFF
310
FFFFFFFFFFFFFFFFFFFFFFFFFFFFFFFFFFFFFFFFFFFFFFFFFFFFFFFFFFFFFFFF
310
FFFFFFFFFFFFFFFFFFFFFFFFFFFFFFFFFFFFFFFFFFFFFFFFFFFFFFFFFFFFFFFF
310
F000FFFFFFFFFFFFFFFFFFFFFFFFFFFFFFFFFFFFFFFFFFFFFFFFFFFFFFFFFFFF
310
FFFFFFFFFFFFFFFFFFFFFFFFFFFFFFFFFFFFFFFFFFFFFFFFFFFFFFFFFFFFFFFF
310
FFFFFFFFFFFFFFFFFFFFFFFFFFFFFFFFFFFFFFFFFFFFFFFFF000FFFFFFFFFFFF
310
FFFFFFFFFFFFFFFFFFFFFFFFFFFFFFFFFFFFFFFFFFFFFFFFFFFFFFFFFFFFFFFF
310
FFFFFFFFFFFFFFFFFFFFFFFFFFFFFFFFFFFFFFFFFFFFFFFFFFFFFFFFFFFFFFFF
310
FFFFFFFFFFFFFFFFFFFFFFFFFFFFFFFFF000FFFFFFFFFFFFFFFFFFFFFFFFFFFF
310
FFFFFFFFFFFFFFFFFFFFFFFFFFFFFFFFFFFFFFFFFFFFFFFFFFFFFFFFFFFFFFFF
310
FFFFFFFFFFFFFFFFFFFFFFFFFFFFFFFFFFFFFFFFFFFFFFFFFFFFFFFFFFFFFFFF
310
FFFFFFFFFFFFFFFFF000FFFFFFFFFFFFFFFFFFFFFFFFFFFFFFFFFFFFFFFFFFFF
310
FFFFFFFFFFFFFFFFFFFFFFFFFFFFFFFFFFFFFFFFFFFFFFFFFFFFFFFFFFFFFFFF
310
FFFFFFFFFFFFFFFFFFFFFFFFFFFFFFFFFFFFFFFFFFFFFFFFFFFFFFFFFFFFFFFF
310
F000FFFFFFFFFFFFFFFFFFFFFFFFFFFFFFFFFFFFFFFFFFFFFFFFFFFFFFFFFFFF
310
FFFFFFFFFFFFFFFFFFFFFFFFFFFFFFFFFFFFFFFFFFFFFFFFFFFFFFFFFFFFFFFF
310
FFFFFFFFFFFFFFFFFFFFFFFFFFFFFFFFFFFFFFFFFFFFFFFFF000FFFFFFFFFFFF
310
FFFFFFFFFFFFFFFFFFFFFFFFFFFFFFFFFFFFFFFFFFFFFFFFFFFFFFFFFFFFFFFF
310
FFFFFFFFFFFFFFFFFFFFFFFFFFFFFFFFFFFFFFFFFFFFFFFFFFFFFFFFFFFFFFFF
310
FFFFFFFFFFFFFFFFFFFFFFFFFFFFFFFFF000FFFFFFFFFFFFFFFFFFFFFFFFFFFF
310
FFFFFFFFFFFFFFFFFFFFFFFFFFFFFFFFFFFFFFFFFFFFFFFFFFFFFFFFFFFFFFFF
310
FFFFFFFFFFFFFFFFFFFFFFFFFFFFFFFFFFFFFFFFFFFFFFFFFFFFFFFFFFFFFFFF
310
FFFFFFFFFFFFFFFFF000FFFFFFFFFFFFFFFFFFFFFFFFFFFFFFFFFFFFFFFFFFFF
310
FFFFFFFFFFFFFFFFFFFFFFFFFFFFFFFFFFFFFFFFFFFFFFFFFFFFFFFFFFFFFFFF
310
FFFFFFFFFFFFFFFFFFFFFFFFFFFFFFFFFFFFFFFFFFFFFFFFFFFFFFFFFFFFFFFF
310
F000FFFFFFFFFFFFFFFFFFFFFFFFFFFFFFFFFFFFFFFFFFFFFFFFFFFFFFFFFFFF
310
FFFFFFFFFFFFFFFFFFFFFFFFFFFFFFFFFFFFFFFFFFFFFFFFFFFFFFFFFFFFFFFF
310
FFFFFFFFFFFFFFFFFFFFFFFFFFFFFFFFFFFFFFFFFFFFFFFFF000FFFFFFFFFFFF
310
FFFFFFFFFFFFFFFFFFFFFFFFFFFFFFFFFFFFFFFFFFFFFFFFFFFFFFFFFFFFFFFF
310
FFFFFFFFFFFFFFFFFFFFFFFFFFFFFFFFFFFFFFFFFFFFFFFFFFFFFFFFFFFFFFFF
310
FFFFFFFFFFFFFFFFFFFFFFFFFFFFFFFFF000FFFFFFFFFFFFFFFFFFFFFFFFFFFF
310
FFFFFFFFFFFFFFFFFFFFFFFFFFFFFFFFFFFFFFFFFFFFFFFFFFFFFFFFFFFFFFFF
310
FFFFFFFFFFFFFFFFFFFFFFFFFFFFFFFFFFFFFFFFFFFFFFFFFFFFFFFFFFFFFFFF
310
FFFFFFFFFFFFFFFFF000FFFFFFFFFFFFFFFFFFFFFFFFFFFFFFFFFFFFFFFFFFFF
310
FFFFFFFFFFFFFFFFFFFFFFFFFFFFFFFFFFFFFFFFFFFFFFFFFFFFFFFFFFFFFFFF
310
FFFFFFFFFFFFFFFFFFFFFFFFFFFFFFFFFFFFFFFFFFFFFFFFFFFFFFFFFFFFFFFF
310
F000FFFFFFFFFFFFFFFFFFFFFFFFFFFFFFFFFFFFFFFFFFFFFFFFFFFFFFFFFFFF
310
FFFFFFFFFFFFFFFFFFFFFFFFFFFFFFFFFFFFFFFFFFFFFFFFFFFFFFFFFFFFFFFF
310
FFFFFFFFFFFFFFFFFFFFFFFFFFFFFFFFFFFFFFFFFFFFFFFFF000FFFFFFFFFFFF
310
FFFFFFFFFFFFFFFFFFFFFFFFFFFFFFFFFFFFFFFFFFFFFFFFFFFFFFFFFFFFFFFF
310
FFFFFFFFFFFFFFFFFFFFFFFFFFFFFFFFFFFFFFFFFFFFFFFFFFFFFFFFFFFFFFFF
310
FFFFFFFFFFFFFFFFFFFFFFFFFFFFFFFFF000FFFFFFFFFFFFFFFFFFFFFFFFFFFF
310
FFFFFFFFFFFFFFFFFFFFFFFFFFFFFFFFFFFFFFFFFFFFFFFFFFFFFFFFFFFFFFFF
310
FFFFFFFFFFFFFFFFFFFFFFFFFFFFFFFFFFFFFFFFFFFFFFFFFFFFFFFFFFFFFFFF
310
FFFFFFFFFFFFFFFFF000FFFFF80003FFFFFFFFFFFFFFFFFFFFFFFFFFFFFFFFFF
310
FFFFF00007FFFFFFFFFF00007FFFFFF800000000000000007FFFFFFFFFFFFFFF
310
FFFFFFFC001FFFFFFFFFFFFFFC001FFFFFFFFFFFFFFFFFFFFFFFFFFE0007FFFF
310
F000FFFF8000007FFFFFFFF8000FFFFFC0007FFFFF80007FFFFF0000007FFFFF
310
FFF8000007FFFFF800000000000000007FFFFFF0001FFFFFFFFFFFC00001FFFF
310
FFFFFFFFC00001FFFFFFFF000000000003FFFFE000007FFFF000FFFE0000000F
310
FFFFFFF0000FFFFF80007FFFFF80007FFFFC0000001FFFFFFFC0000001FFFFF8
310
00000000000000007FFFFFF0001FFFFFFFFFFE0000003FFFFFFFFFFE0000003F
310
FFFFFF000000000003FFFF0000000FFFF000FFF800000003FFFFFFF00007FFFF
310
80007FFFFF80007FFFF000000007FFFFFF000000003FFFF80000000000000000
310
7FFFFFF0001FFFFFFFFFF80000000FFFFFFFFFF80000000FFFFFFF0000000000
310
03FFFC00000003FFF000FFE000000000FFFFFFF00007FFFF80003FFFFF80007F
310
FFC000000001FFFFFC000000001FFFF800000000000000007FFFFFF0001FFFFF
310
FFFFE000000003FFFFFFFFE000000003FFFFFF000000000003FFF000000000FF
310
F000FF80000000007FFFFFF00007FFFF80003FFFFF80007FFF8000000000FFFF
310
F80000000007FFF800000000000000007FFFFFF0001FFFFFFFFFC000000001FF
310
FFFFFFC000000001FFFFFF000000000003FFC0000000007FF000FF0000000000
310
3FFFFFE00007FFFF00003FFFFF80007FFE00000000003FFFF00000000003FFF8
310
00000000000000007FFFFFF0001FFFFFFFFF8000000000FFFFFFFF8000000000
310
FFFFFF000000000003FF80000000003FF000FE00000000001FFFFFE00003FFFF
310
00003FFFFF80007FFC00000000001FFFE00000000001FFF8000001FFFE000000
310
7FFFFFF0001FFFFFFFFE00000000003FFFFFFE00000000003FFFFF0000000000
310
03FF00000000001FF000FC00000000000FFFFFE00003FFFF00001FFFFF80007F
310
F800000000001FFFC00000000000FFF8000001FFFE0000007FFFFFF0001FFFFF
310
FFFC00000000001FFFFFFC00000000001FFFFF000000000003FE00000000000F
310
F000F8000000000007FFFFE00003FFFF00001FFFFF80007FF800000000000FFF
310
800000000000FFF8000001FFFE0000007FFFFFF0001FFFFFFFF800000000000F
310
FFFFF800000000000FFFFF000000000003FC000000000007F000F80000000000
310
03FFFFC00003FFFE00001FFFFF80007FF0000000000007FF0000000000007FF8
310
000001FFFE0000007FFFFFF0001FFFFFFFF0000000000007FFFFF00000000000
310
07FFFF000000000003F8000000000003F000F0000000000003FFFFC00001FFFE
310
00001FFFFF80007FE0000000000007FE0000000000003FF8000001FFFE000000
310
7FFFFFF0001FFFFFFFF0000000000007FFFFF0000000000007FFFF0000000000
310
03F800001F800003F000E00001FFF00001FFFFC00001FFFE00000FFFFF80007F
310
E00001FFE00003FE00001FFF00003FF8000001FFFE0000007FFFFFF0001FFFFF
310
FFE000003E000003FFFFE000003E000003FFFF000000000003F00001FFF80001
310
F000E00007FFFC0001FFFFC00001FFFE00000FFFFF80007FC0000FFFFC0003FC
310
0000FFFFC0001FF8000001FFFE0000007FFFFFF0001FFFFFFFC00003FFE00001
310
FFFFC00003FFE00001FFFF0001FFFFFFFFF00007FFFE0001F000E0000FFFFF00
310
00FFFF800001FFFC00000FFFFF80007FC0001FFFFE0001FC0001FFFFE0001FF8
310
000001FFFE0000007FFFFFF0001FFFFFFF80000FFFF80000FFFF80000FFFF800
310
00FFFF0003FFFFFFFFE0000FFFFF8000F000C0003FFFFF8000FFFF800000FFFC
310
000007FFFF80007F80003FFFFF0001FC0003FFFFF0001FF8000001FFFE000000
310
7FFFFFF0001FFFFFFF80003FFFFE0000FFFF80003FFFFE0000FFFF0003FFFFFF
310
FFE0003FFFFF8000F000C0003FFFFF8000FFFF800000FFFC000007FFFF80007F
310
80007FFFFF8001F80007FFFFF8000FF8000001FFFE0000007FFFFFF0001FFFFF
310
FF00007FFFFF00007FFF00007FFFFF00007FFF0003FFFFFFFFE0003FFFFFC000
310
F000C0007FFFFFC000FFFF000000FFFC000007FFFF80007F8000FFFFFF8000F8
310
000FFFFFF8000FF8000001FFFE0000007FFFFFF0001FFFFFFF0000FFFFFF8000
310
7FFF0000FFFFFF80007FFF0003FFFFFFFFC0007FFFFFC00070008000FFFFFFC0
310
00FFFF000000FFF8000007FFFF80007F8000FFFFFF8000F8000FFFFFF8000FF8
310
000001FFFE0000007FFFFFF0001FFFFFFE0001FFFFFFC0003FFE0001FFFFFFC0
310
003FFF0003FFFFFFFFC0007FFFFFE00070008000FFFFFFC0007FFF0000007FF8
310
000003FFFF80007F0001FFFFFF8000F8000FFFFFF8000FF8000001FFFE000000
310
7FFFFFF0001FFFFFFE0001FFFFFFC0003FFE0001FFFFFFC0003FFF0003FFFFFF
310
FFC000FFFFFFE00070008000FFFFFFC0007FFF0000007FF8000003FFFF80007F
310
0001FFFFFF8000F8001FFFFFF8000FF8000001FFFE0000007FFFFFF0001FFFFF
310
FE0003FFFFFFE0003FFE0003FFFFFFE0003FFF0003FFFFFFFFC000FFFFFFE000
310
70008000FFFFFFC0007FFE0000007FF8000003FFFF80007F0001FFFFFF8000F0
310
001FFFFFF8000FF8000001FFFE0000007FFFFFF0001FFFFFFC0003FFFFFFE000
310
1FFC0003FFFFFFE0001FFF0003FFFFFFFFC000FFFFFFC00070008000FFFFFF80
310
007FFE0000007FF0000003FFFF80007F0001FFFFFF0000F0001FFFFFF8000FF8
310
000001FFFE0000007FFFFFF0001FFFFFFC0007FFFFFFF0001FFC0007FFFFFFF0
310
001FFF0003FFFFFFFFC000FFFFFFC00070008001FFFFFF0000FFFE0000003FF0
310
000001FFFF80007F0001FFFFFF0000F8001FFFFFF0000FF8000001FFFE000000
310
7FFFFFF0001FFFFFFC0007FFFFFFF0001FFC0007FFFFFFF0001FFF0003FFFFFF
310
FFC001FFFFFF80007000FFFFFFFFFE0000FFFE0008003FF0008001FFFF80007F
310
FFFFFFFFFC0000FFFFFFFFFFE0000FF8000001FFFE0000007FFFFFF0001FFFFF
310
F8000FFFFFFFF8000FF8000FFFFFFFF8000FFF0003FFFFFFFFFFFFFFFFFF0000
310
7000FFFFFFFFFC0000FFFC0008003FF0008001FFFF80007FFFFFFFFFF80001FF
310
FFFFFFFF80000FF8000001FFFE0000007FFFFFF0001FFFFFF8000FFFFFFFF800
310
0FF8000FFFFFFFF8000FFF0003FFFFFFFFFFFFFFFFFE0000F000FFFFFFFFE000
310
00FFFC000C003FE000C001FFFF80007FFFFFFFFFC00001FFFFFFFFFE00001FF8
310
000001FFFE0000007FFFFFF0001FFFFFF8000FFFFFFFF8000FF8000FFFFFFFF8
310
000FFF0003FFFFFFFFFFFFFFFFF00000F000FFFFFFFE000001FFFC000C001FE0
310
00C000FFFF80007FFFFFFFFE000001FFFFFFFFE000001FF80FFFFFFFFFFFFFC0
310
7FFFFFF0001FFFFFF8000FFFFFFFF8000FF8000FFFFFFFF8000FFF0003FFFFFF
310
FFFFFFFFFF800000F000FFFFFFC0000001FFFC001C001FE001C000FFFF80007F
310
FFFFFF80000003FFFFFFF80000001FF80FFFFFFFFFFFFFC07FFFFFF0001FFFFF
310
F8001FFFFFFFFC000FF8001FFFFFFFFC000FFF0003FFFFFFFFFFFFFFF0000001
310
F000FFFFF800000001FFF8001C001FE001C000FFFF80007FFFFFF800000003FF
310
FFFF800000003FF80FFFFFFFFFFFFFC07FFFFFF0001FFFFFF8001FFFFFFFFC00
310
0FF8001FFFFFFFFC000FFF0003FFFFFFFFFFFFFE00000001F000FFFFC0000000
310
03FFF8001E001FC001E000FFFF80007FFFFF8000000007FFFFFC000000003FF8
310
0FFFFFFFFFFFFFC07FFFFFF0001FFFFFF8001FFFFFFFFC000FF8001FFFFFFFFC
310
000FFF0003FFFFFFFFFFFFE000000003F000FFFE0000000007FFF8001E000FC0
310
01E0007FFF80007FFFFE0000000007FFFFE0000000007FF80FFFFFFFFFFFFFC0
310
7FFFFFF0001FFFFFF0001FFFFFFFFC0007F0001FFFFFFFFC0007FF0003FFFFFF
310
FFFFFF0000000003F000FFF80000000007FFF8001E000FC003E0007FFF80007F
310
FFF0000000000FFFFF8000000000FFF80FFFFFFFFFFFFFC07FFFFFF0001FFFFF
310
F0001FFFFFFFFC0007F0001FFFFFFFFC0007FF0003FFFFFFFFFFFC0000000007
310
F000FFE0000000000FFFF0003E000FC003E0007FFF80007FFFC0000000001FFF
310
FE0000000001FFF80FFFFFFFFFFFFFC07FFFFFF0001FFFFFF0001FFFFFFFFC00
310
07F0001FFFFFFFFC0007FF0003FFFFFFFFFFF0000000000FF000FFC000000000
310
1FFFF0003F000F8003F0003FFF80007FFF80000000003FFFF80000000003FFF8
310
0FFFFFFFFFFFFFC07FFFFFF0001FFFFFF0001FFFFFFFFC0007F0001FFFFFFFFC
310
0007FF0003FFFFFFFFFFE0000000001FF000FF00000000007FFFF0003F000780
310
03F0003FFF80007FFF00000000007FFFF00000000007FFF80FFFFFFFFFFFFFC0
310
7FFFFFF0001FFFFFF0001FFFFFFFFC0007F0001FFFFFFFFC0007FF0003FFFFFF
310
FFFF80000000007FF000FE0000000000FFFFE0003F00078007F0003FFF80007F
310
FE0000000001FFFFE0000000001FFFF80FFFFFFFFFFFFFC07FFFFFF0001FFFFF
310
F0001FFFFFFFFC0007F0001FFFFFFFFC0007FF0003FFFFFFFFFF0000000000FF
310
F000FC0000000003FFFFE0007F00078007F0003FFF80007FFC0000000007FFFF
310
C0000000007FFFF80FFFFFFFFFFFFFC07FFFFFF0001FFFFFF8001FFFFFFFFC00
310
0FF8001FFFFFFFFC000FFF0003FFFFFFFFFE0000000003FFF000FC000000000F
310
FFFFE0007F80070007F8001FFF80007FF8000000001FFFFF8000000001FFFFF8
310
0FFFFFFFFFFFFFC07FFFFFF0001FFFFFF8001FFFFFFFFC000FF8001FFFFFFFFC
310
000FFF0003FFFFFFFFFC000000000FFFF000F8000000007FFFFFE0007F800700
310
07F8001FFF80007FF000000000FFFFFF800000000FFFFFF80FFFFFFFFFFFFFC0
310
7FFFFFF0001FFFFFF8000FFFFFFFF8000FF8000FFFFFFFF8000FFF0003FFFFFF
310
FFFC000000007FFFF000F800000007FFFFFFC0007F8003000FF8001FFF80007F
310
F000000007FFFFFF000000007FFFFFF80FFFFFFFFFFFFFC07FFFFFF0001FFFFF
310
F8000FFFFFFFF8000FF8000FFFFFFFF8000FFF0003FFFFFFFFF80000000FFFFF
310
F000F0000000FFFFFFFFC000FF8003000FF8001FFF80007FE0000000FFFFFFFF
310
0000000FFFFFFFF8000001FFFE0000007FFFFFF0001FFFFFF8000FFFFFFFF800
310
0FF8000FFFFFFFF8000FFF0003FFFFFFFFF8000000FFFFFFF000F000000FFFFF
310
FFFFC000FFC002000FF8000FFF80007FE000001FFFFFFFFE000001FFFFFFFFF8
310
000001FFFE0000007FFFFFF0001FFFFFF8000FFFFFFFF8000FF8000FFFFFFFF8
310
000FFF0003FFFFFFFFF000001FFFFFFFF000E00000FFFFFFFFFFC000FFC00200
310
0FFC000FFF80007FE00001FFFFFFFFFE00001FFFFFFFFFF8000001FFFE000000
310
7FFFFFF0001FFFFFFC000FFFFFFFF8001FFC000FFFFFFFF8001FFF0003FFFFFF
310
FFF00001FFFFFFFFF000E00007FFFFFFFFFF8000FFC000001FFC000FFF80007F
310
C0000FFFFFFFFFFE0000FFFFFFFFFFF8000001FFFE0000007FFFFFF0001FFFFF
310
FC0007FFFFFFF0001FFC0007FFFFFFF0001FFF0003FFFFFFFFF00007FFFFFFFF
310
F000E0001FFFFFFFFFFF8000FFC000001FFC000FFF80007FC0003FFFFFFFFFFE
310
0001FFFFFFFFFFF8000001FFFE0000007FFFFFF0001FFFFFFC0007FFFFFFF000
310
1FFC0007FFFFFFF0001FFF0003FFFFFFFFF0001FFFFFFFFFF000E0003FFFFF00
310
03FF8001FFE000001FFC0007FF80007FC0007FFFFF0007FC0003FFFFF0003FF8
310
000001FFFE0000007FFFFFF0001FFFFFFC0003FFFFFFE0001FFC0003FFFFFFE0
310
001FFF0003FFFFFFFFF0003FFFFFFFFFF000E0003FFFFF0001FF8001FFE00000
310
1FFE0007FF80007FC0007FFFFE0003FC0007FFFFE0003FF8000001FFFE000000
310
7FFFFFF0001FFFFFFE0003FFFFFFE0003FFE0003FFFFFFE0003FFF0003FFFFFF
310
FFF0003FFFFF8001F000E0003FFFFF0001FF0001FFE000001FFE0007FF80007F
310
C0007FFFFE0003FC0007FFFFE0003FF8000001FFFE0000007FFFFFF0001FFFFF
310
FE0001FFFFFFC0003FFE0001FFFFFFC0003FFF0003FFFFFFFFF0003FFFFF0001
310
F000E0003FFFFF0003FF0001FFE000003FFE0007FF80007FC0007FFFFE0003FC
310
0007FFFFE0003FF8000001FFFE0000007FFFFFF0001FFFFFFF0001FFFFFFC000
310
7FFF0001FFFFFFC0007FFF0003FFFFFFFFF0003FFFFF0001F000E0003FFFFE00
310
03FF0003FFF000003FFE0003FF80007FC0007FFFFC0003FE0007FFFFE0003FF8
310
000001FFFE0000007FFFFFF0001FFFFFFF0000FFFFFF80007FFF0000FFFFFF80
310
007FFF0003FFFFFFFFF0003FFFFF0001F000E0003FFFFE0003FF0003FFF00000
310
3FFF0003FF80007FC0007FFFFC0007FE0007FFFFC0003FF8000001FFFE000000
310
7FFFFFF0001FFFFFFF80007FFFFF0000FFFF80007FFFFF0000FFFF0003FFFFFF
310
FFF0003FFFFF0003F000E0003FFFFC0003FE0003FFF000003FFF0003FF80007F
310
E0003FFFF80007FE0003FFFFC0007FF8000001FFFE0000007FFFFFF0001FFFFF
310
FF80003FFFFE0000FFFF80003FFFFE0000FFFF0003FFFFFFFFF0001FFFFE0003
310
F000F0001FFFF80003FE0003FFF000007FFF0001FF80007FE0003FFFF00007FE
310
0001FFFF80007FF8000001FFFE0000007FFFFFF0001FFFFFFFC0000FFFF80001
310
FFFFC0000FFFF80001FFFF0003FFFFFFFFF0001FFFFC0003F000F0000FFFF000
310
07FE0007FFF800007FFF0001FF80007FE0001FFFE00007FF0000FFFE00007FF8
310
000001FFFE0000007FFFFFF0001FFFFFFFC00003FFE00001FFFFC00003FFE000
310
01FFFF0003FFFFFFFFF8000FFFF80003F000F00003FFC00007FC0007FFF80000
310
7FFF8001FF80007FF00007FF80000FFF00007FF80000FFF8000001FFFE000000
310
7F80000000000001FFE000003E000003FFFFE000003E000003FFFF0003FFFFFF
310
FFF80003FFE00007F000F800000000000FFC0007FFF800007FFF8001FF80007F
310
F000000000000FFF000000000000FFF8000001FFFE0000007F80000000000001
310
FFF0000000000007FFFFF0000000000007FFFF0003FFFFFFFFFC00007E000007
310
F000F800000000000FFC0007FFF80000FFFF8000FF80007FF800000000001FFF
310
800000000001FFF8000001FFFE0000007F80000000000001FFF800000000000F
310
FFFFF800000000000FFFFF0003FFFFFFFFFC00000000000FF000FC0000000000
310
1FFC0007FFFC0000FFFF8000FF80007FF800000000003FFFC00000000001FFF8
310
000001FFFE0000007F80000000000001FFF800000000000FFFFFF80000000000
310
0FFFFF0003FFFFFFFFFE00000000001FF000FE00000000003FF8000FFFFC0000
310
FFFF8000FF80007FFC00000000003FFFC00000000003FFF8000001FFFE000000
310
7F80000000000001FFFC00000000001FFFFFFC00000000001FFFFF0003FFFFFF
310
FFFF00000000001FF000FF00000000003FF8000FFFFC0000FFFFC000FF80007F
310
FE00000000007FFFE00000000007FFF8000001FFFE0000007F80000000000001
310
FFFE00000000003FFFFFFE00000000003FFFFF0003FFFFFFFFFF80000000003F
310
F000FF80000000007FF8000FFFFC0001FFFFC0007F80007FFF0000000000FFFF
310
F0000000000FFFF800000000000000007F80000000000001FFFF8000000000FF
310
FFFFFF8000000000FFFFFF0003FFFFFFFFFFC0000000007FF000FFC000000000
310
FFF8000FFFFE0001FFFFC0007F80007FFF8000000001FFFFF8000000001FFFF8
310
00000000000000007F80000000000001FFFFC000000001FFFFFFFFC000000001
310
FFFFFF0003FFFFFFFFFFE000000000FFF000FFE000000003FFF0001FFFFE0001
310
FFFFC0007F80007FFFC000000007FFFFFE000000003FFFF80000000000000000
310
7F80000000000001FFFFE000000003FFFFFFFFE000000003FFFFFF0003FFFFFF
310
FFFFF000000003FFF000FFF80000000FFFF0001FFFFE0001FFFFE0007F80007F
310
FFF00000000FFFFFFF00000000FFFFF800000000000000007F80000000000001
310
FFFFF80000000FFFFFFFFFF80000000FFFFFFF0003FFFFFFFFFFFC0000000FFF
310
F000FFFE0000003FFFF0001FFFFE0003FFFFE0003F80007FFFFC0000003FFFFF
310
FFC0000003FFFFF800000000000000007F80000000000001FFFFFE0000003FFF
310
FFFFFFFE0000003FFFFFFF0003FFFFFFFFFFFF0000003FFFF000FFFF800000FF
310
FFF0001FFFFF0003FFFFE0003F80007FFFFF000001FFFFFFFFF800001FFFFFF8
310
00000000000000007F80000000000001FFFFFFC00001FFFFFFFFFFFFC00001FF
310
FFFFFF0003FFFFFFFFFFFFC00000FFFFF000FFFFF8000FFFFFFFFFFFFFFFFFFF
310
FFFFFFFFFFFFFFFFFFFFF0001FFFFFFFFFFF0000FFFFFFF80000000000000000
310
7FFFFFFFFFFFFFFFFFFFFFFC001FFFFFFFFFFFFFFC001FFFFFFFFFFFFFFFFFFF
310
FFFFFFFC001FFFFFF000FFFFFFFFFFFFFFFFFFFFFFFFFFFFFFFFFFFFFFFFFFFF
310
FFFFFFFFFFFFFFFFFFFFFFFFFFFFFFFFFFFFFFFFFFFFFFFFFFFFFFFFFFFFFFFF
310
FFFFFFFFFFFFFFFFFFFFFFFFFFFFFFFFFFFFFFFFFFFFFFFFFFFFFFFFFFFFFFFF
310
F000FFFFFFFFFFFFFFFFFFFFFFFFFFFFFFFFFFFFFFFFFFFFFFFFFFFFFFFFFFFF
310
FFFFFFFFFFFFFFFFFFFFFFFFFFFFFFFFFFFFFFFFFFFFFFFFFFFFFFFFFFFFFFFF
310
FFFFFFFFFFFFFFFFFFFFFFFFFFFFFFFFFFFFFFFFFFFFFFFFF000FFFFFFFFFFFF
310
FFFFFFFFFFFFFFFFFFFFFFFFFFFFFFFFFFFFFFFFFFFFFFFFFFFFFFFFFFFFFFFF
310
FFFFFFFFFFFFFFFFFFFFFFFFFFFFFFFFFFFFFFFFFFFFFFFFFFFFFFFFFFFFFFFF
310
FFFFFFFFFFFFFFFFFFFFFFFFFFFFFFFFF000FFFFFFFFFFFFFFFFFFFFFFFFFFFF
310
FFFFFFFFFFFFFFFFFFFFFFFFFFFFFFFFFFFFFFFFFFFFFFFFFFFFFFFFFFFFFFFF
310
FFFFFFFFFFFFFFFFFFFFFFFFFFFFFFFFFFFFFFFFFFFFFFFFFFFFFFFFFFFFFFFF
310
FFFFFFFFFFFFFFFFF000FFFFFFFFFFFFFFFFFFFFFFFFFFFFFFFFFFFFFFFFFFFF
310
FFFFFFFFFFFFFFFFFFFFFFFFFFFFFFFFFFFFFFFFFFFFFFFFFFFFFFFFFFFFFFFF
310
FFFFFFFFFFFFFFFFFFFFFFFFFFFFFFFFFFFFFFFFFFFFFFFFFFFFFFFFFFFFFFFF
310
F000FFFFFFFFFFFFFFFFFFFFFFFFFFFFFFFFFFFFFFFFFFFFFFFFFFFFFFFFFFFF
310
FFFFFFFFFFFFFFFFFFFFFFFFFFFFFFFFFFFFFFFFFFFFFFFFFFFFFFFFFFFFFFFF
310
FFFFFFFFFFFFFFFFFFFFFFFFFFFFFFFFFFFFFFFFFFFFFFFFF000FFFFFFFFFFFF
310
FFFFFFFFFFFFFFFFFFFFFFFFFFFFFFFFFFFFFFFFFFFFFFFFFFFFFFFFFFFFFFFF
310
FFFFFFFFFFFFFFFFFFFFFFFFFFFFFFFFFFFFFFFFFFFFFFFFFFFFFFFFFFFFFFFF
310
FFFFFFFFFFFFFFFFFFFFFFFFFFFFFFFFF000FFFFFFFFFFFFFFFFFFFFFFFFFFFF
310
FFFFFFFFFFFFFFFFFFFFFFFFFFFFFFFFFFFFFFFFFFFFFFFFFFFFFFFFFFFFFFFF
310
FFFFFFFFFFFFFFFFFFFFFFFFFFFFFFFFFFFFFFFFFFFFFFFFFFFFFFFFFFFFFFFF
310
FFFFFFFFFFFFFFFFF000FFFFFFFFFFFFFFFFFFFFFFFFFFFFFFFFFFFFFFFFFFFF
310
FFFFFFFFFFFFFFFFFFFFFFFFFFFFFFFFFFFFFFFFFFFFFFFFFFFFFFFFFFFFFFFF
310
FFFFFFFFFFFFFFFFFFFFFFFFFFFFFFFFFFFFFFFFFFFFFFFFFFFFFFFFFFFFFFFF
310
F000FFFFFFFFFFFFFFFFFFFFFFFFFFFFFFFFFFFFFFFFFFFFFFFFFFFFFFFFFFFF
310
FFFFFFFFFFFFFFFFFFFFFFFFFFFFFFFFFFFFFFFFFFFFFFFFFFFFFFFFFFFFFFFF
310
FFFFFFFFFFFFFFFFFFFFFFFFFFFFFFFFFFFFFFFFFFFFFFFFF000FFFFFFFFFFFF
310
FFFFFFFFFFFFFFFFFFFFFFFFFFFFFFFFFFFFFFFFFFFFFFFFFFFFFFFFFFFFFFFF
310
FFFFFFFFFFFFFFFFFFFFFFFFFFFFFFFFFFFFFFFFFFFFFFFFFFFFFFFFFFFFFFFF
310
FFFFFFFFFFFFFFFFFFFFFFFFFFFFFFFFF000FFFFFFFFFFFFFFFFFFFFFFFFFFFF
310
FFFFFFFFFFFFFFFFFFFFFFFFFFFFFFFFFFFFFFFFFFFFFFFFFFFFFFFFFFFFFFFF
310
FFFFFFFFFFFFFFFFFFFFFFFFFFFFFFFFFFFFFFFFFFFFFFFFFFFFFFFFFFFFFFFF
310
FFFFFFFFFFFFFFFFF000FFFFFFFFFFFFFFFFFFFFFFFFFFFFFFFFFFFFFFFFFFFF
310
FFFFFFFFFFFFFFFFFFFFFFFFFFFFFFFFFFFFFFFFFFFFFFFFFFFFFFFFFFFFFFFF
310
FFFFFFFFFFFFFFFFFFFFFFFFFFFFFFFFFFFFFFFFFFFFFFFFFFFFFFFFFFFFFFFF
310
F000FFFFFFFFFFFFFFFFFFFFFFFFFFFFFFFFFFFFFFFFFFFFFFFFFFFFFFFFFFFF
310
FFFFFFFFFFFFFFFFFFFFFFFFFFFFFFFFFFFFFFFFFFFFFFFFFFFFFFFFFFFFFFFF
310
FFFFFFFFFFFFFFFFFFFFFFFFFFFFFFFFFFFFFFFFFFFFFFFFF000FFFFFFFFFFFF
310
FFFFFFFFFFFFFFFFFFFFFFFFFFFFFFFFFFFFFFFFFFFFFFFFFFFFFFFFFFFFFFFF
310
FFFFFFFFFFFFFFFFFFFFFFFFFFFFFFFFFFFFFFFFFFFFFFFFFFFFFFFFFFFFFFFF
310
FFFFFFFFFFFFFFFFFFFFFFFFFFFFFFFFF000FFFFFFFFFFFFFFFFFFFFFFFFFFFF
310
FFFFFFFFFFFFFFFFFFFFFFFFFFFFFFFFFFFFFFFFFFFFFFFFFFFFFFFFFFFFFFFF
310
FFFFFFFFFFFFFFFFFFFFFFFFFFFFFFFFFFFFFFFFFFFFFFFFFFFFFFFFFFFFFFFF
310
FFFFFFFFFFFFFFFFF000FFFFFFFFFFFFFFFFFFFFFFFFFFFFFFFFFFFFFFFFFFFF
310
FFFFFFFFFFFFFFFFFFFFFFFFFFFFFFFFFFFFFFFFFFFFFFFFFFFFFFFFFFFFFFFF
310
FFFFFFFFFFFFFFFFFFFFFFFFFFFFFFFFFFFFFFFFFFFFFFFFFFFFFFFFFFFFFFFF
310
F000FFFFFFFFFFFFFFFFFFFFFFFFFFFFFFFFFFFFFFFFFFFFFFFFFFFFFFFFFFFF
310
FFFFFFFFFFFFFFFFFFFFFFFFFFFFFFFFFFFFFFFFFFFFFFFFFFFFFFFFFFFFFFFF
310
FFFFFFFFFFFFFFFFFFFFFFFFFFFFFFFFFFFFFFFFFFFFFFFFF000FFFFFFFFFFFF
310
FFFFFFFFFFFFFFFFFFFFFFFFFFFFFFFFFFFFFFFFFFFFFFFFFFFFFFFFFFFFFFFF
310
FFFFFFFFFFFFFFFFFFFFFFFFFFFFFFFFFFFFFFFFFFFFFFFFFFFFFFFFFFFFFFFF
310
FFFFFFFFFFFFFFFFFFFFFFFFFFFFFFFFF000FFFFFFFFFFFFFFFFFFFFFFFFFFFF
310
FFFFFFFFFFFFFFFFFFFFFFFFFFFFFFFFFFFFFFFFFFFFFFFFFFFFFFFFFFFFFFFF
310
FFFFFFFFFFFFFFFFFFFFFFFFFFFFFFFFFFFFFFFFFFFFFFFFFFFFFFFFFFFFFFFF
310
FFFFFFFFFFFFFFFFF000FFFFFFFFFFFFFFFFFFFFFFFFFFFFFFFFFFFFFFFFFFFF
310
FFFFFFFFFFFFFFFFFFFFFFFFFFFFFFFFFFFFFFFFFFFFFFFFFFFFFFFFFFFFFFFF
310
FFFFFFFFFFFFFFFFFFFFFFFFFFFFFFFFFFFFFFFFFFFFFFFFFFFFFFFFFFFFFFFF
310
F000FFFFFFFFFFFFFFFFFFFFFFFFFFFFFFFFFFFFFFFFFFFFFFFFFFFFFFFFFFFF
310
FFFFFFFFFFFFFFFFFFFFFFFFFFFFFFFFFFFFFFFFFFFFFFFFFFFFFFFFFFFFFFFF
310
FFFFFFFFFFFFFFFFFFFFFFFFFFFFFFFFFFFFFFFFFFFFFFFFF000FFFFFFFFFFFF
310
FFFFFFFFFFFFFFFFFFFFFFFFFFFFFFFFFFFFFFFFFFFFFFFFFFFFFFFFFFFFFFFF
310
FFFFFFFFFFFFFFFFFFFFFFFFFFFFFFFFFFFFFFFFFFFFFFFFFFFFFFFFFFFFFFFF
310
FFFFFFFFFFFFFFFFFFFFFFFFFFFFFFFFF0000000000000000000000000000000
310
0000000000000000010000000100000001000000010000000100000001000000
310
0100000001000000010000000000000001000000000000000100000000000000
310
0100000000000000010000000100000001000000010000000100000000000000
310
0100000001000000010000000100000001000000010000000100000001000000
310
0100000001000000000000000100000001000000010000000100000001000000
310
0100000001000000010000000100000001000000010000000100000001000000
310
0100000001000000010000000100000001000000010000000100000001000000
310
0100000001000000010000000100000000000000010000000100000001000000
310
0100000001000000010000000100000001000000010000000100000001000000
310
0100000001000000010000000100000000000000010000000100000001000000
310
0100000001000000010000000100000001000000010000000100000001000000
310
0100000001000000010000000100000001000000010000000100000001000000
310
0100000001000000010000000100000001000000010000000100000001000000
310
0100000001000000010000000100000000000000010000000100000001000000
310
0100000001000000010000000100000001000000010000000100000001000000
  1
OLE
  0
ENDSEC
  0
SECTION
  2
OBJECTS
  0
DICTIONARY
  5
C
330
0
100
AcDbDictionary
281
     1
  3
ACAD_GROUP
350
D
  3
ACAD_LAYOUT
350
1A
  3
ACAD_MLEADERSTYLE
350
237
  3
ACAD_MLINESTYLE
350
17
  3
ACAD_PLOTSETTINGS
350
19
  3
ACAD_PLOTSTYLENAME
350
E
  3
ACAD_TABLESTYLE
350
236
  3
ACAD_VISUALSTYLE
350
2A
  3
AcDbVariableDictionary
350
238
  0
DICTIONARY
  5
D
102
{ACAD_REACTORS
330
C
102
}
330
C
100
AcDbDictionary
281
     1
  0
DICTIONARY
  5
1A
102
{ACAD_REACTORS
330
C
102
}
330
C
100
AcDbDictionary
281
     1
  3
Layout1
350
1E
  3
Layout2
350
26
  3
Model
350
22
  0
DICTIONARY
  5
237
102
{ACAD_REACTORS
330
C
102
}
330
C
100
AcDbDictionary
281
     1
  0
DICTIONARY
  5
17
102
{ACAD_REACTORS
330
C
102
}
330
C
100
AcDbDictionary
281
     1
  3
Standard
350
18
  0
DICTIONARY
  5
19
102
{ACAD_REACTORS
330
C
102
}
330
C
100
AcDbDictionary
281
     1
  0
ACDBDICTIONARYWDFLT
  5
E
102
{ACAD_REACTORS
330
C
102
}
330
C
100
AcDbDictionary
281
     1
  3
Normal
350
F
100
AcDbDictionaryWithDefault
340
F
  0
DICTIONARY
  5
236
102
{ACAD_REACTORS
330
C
102
}
330
C
100
AcDbDictionary
281
     1
  0
DICTIONARY
  5
2A
102
{ACAD_REACTORS
330
C
102
}
330
C
100
AcDbDictionary
281
     1
  3
2dWireframe
350
2F
  3
3D Hidden
350
31
  3
3dWireframe
350
30
  3
Basic
350
32
  3
Brighten
350
36
  3
ColorChange
350
3A
  3
Conceptual
350
34
  3
Dim
350
35
  3
Facepattern
350
39
  3
Flat
350
2B
  3
FlatWithEdges
350
2C
  3
Gouraud
350
2D
  3
GouraudWithEdges
350
2E
  3
Linepattern
350
38
  3
Realistic
350
33
  3
Thicken
350
37
  0
DICTIONARY
  5
238
102
{ACAD_REACTORS
330
C
102
}
330
C
100
AcDbDictionary
281
     1
  3
PSOLHEIGHT
350
23A
  3
PSOLWIDTH
350
239
  0
LAYOUT
  5
1E
102
{ACAD_REACTORS
330
1A
102
}
330
1A
100
AcDbPlotSettings
  1

  2
none_device
  4

  6

 40
0.0
 41
0.0
 42
0.0
 43
0.0
 44
0.0
 45
0.0
 46
0.0
 47
0.0
 48
0.0
 49
0.0
140
0.0
141
0.0
142
1.0
143
1.0
 70
   688
 72
     0
 73
     0
 74
     5
  7

 75
    16
147
1.0
148
0.0
149
0.0
100
AcDbLayout
  1
Layout1
 70
     1
 71
     1
 10
0.0
 20
0.0
 11
420.0
 21
297.0
 12
0.0
 22
0.0
 32
0.0
 14
1.0000000000E+20
 24
1.0000000000E+20
 34
1.0000000000E+20
 15
-1.0000000000E+20
 25
-1.0000000000E+20
 35
-1.0000000000E+20
146
0.0
 13
0.0
 23
0.0
 33
0.0
 16
1.0
 26
0.0
 36
0.0
 17
0.0
 27
1.0
 37
0.0
 76
     0
330
1B
  0
LAYOUT
  5
26
102
{ACAD_REACTORS
330
1A
102
}
330
1A
100
AcDbPlotSettings
  1

  2
none_device
  4

  6

 40
0.0
 41
0.0
 42
0.0
 43
0.0
 44
0.0
 45
0.0
 46
0.0
 47
0.0
 48
0.0
 49
0.0
140
0.0
141
0.0
142
1.0
143
1.0
 70
   688
 72
     0
 73
     0
 74
     5
  7

 75
    16
147
1.0
148
0.0
149
0.0
100
AcDbLayout
  1
Layout2
 70
     1
 71
     2
 10
0.0
 20
0.0
 11
0.0
 21
0.0
 12
0.0
 22
0.0
 32
0.0
 14
0.0
 24
0.0
 34
0.0
 15
0.0
 25
0.0
 35
0.0
146
0.0
 13
0.0
 23
0.0
 33
0.0
 16
1.0
 26
0.0
 36
0.0
 17
0.0
 27
1.0
 37
0.0
 76
     0
330
23
  0
LAYOUT
  5
22
102
{ACAD_REACTORS
330
1A
102
}
330
1A
100
AcDbPlotSettings
  1

  2
none_device
  4

  6

 40
0.0
 41
0.0
 42
0.0
 43
0.0
 44
0.0
 45
0.0
 46
0.0
 47
0.0
 48
0.0
 49
0.0
140
0.0
141
0.0
142
1.0
143
1.0
 70
  1712
 72
     0
 73
     0
 74
     0
  7

 75
     0
147
1.0
148
0.0
149
0.0
100
AcDbLayout
  1
Model
 70
     1
 71
     0
 10
0.0
 20
0.0
 11
297.0
 21
210.0
 12
0.0
 22
0.0
 32
0.0
 14
0.0
 24
0.0
 34
0.0
 15
297.0
 25
210.0
 35
0.0
146
0.0
 13
0.0
 23
0.0
 33
0.0
 16
1.0
 26
0.0
 36
0.0
 17
0.0
 27
1.0
 37
0.0
 76
     0
330
1F
331
29
  0
MLINESTYLE
  5
18
102
{ACAD_REACTORS
330
17
102
}
330
17
100
AcDbMlineStyle
  2
Standard
 70
     0
  3

 62
   256
 51
90.0
 52
90.0
 71
     2
 49
0.5
 62
   256
  6
BYLAYER
 49
-0.5
 62
   256
  6
BYLAYER
  0
ACDBPLACEHOLDER
  5
F
102
{ACAD_REACTORS
330
E
102
}
330
E
  0
VISUALSTYLE
  5
2F
102
{ACAD_REACTORS
330
2A
102
}
330
2A
100
AcDbVisualStyle
  2
2dWireframe
 70
     4
 71
     0
 72
     2
 73
     0
 90
        0
 40
-0.6
 41
-30.0
 62
     5
 63
     7
 74
     1
 91
        4
 64
     7
 65
   257
 75
     1
175
     1
 42
1.0
 92
        0
 66
   257
 43
1.0
 76
     1
 77
     6
 78
     2
 67
     7
 79
     5
170
     0
171
     0
290
     0
174
     0
 93
        1
 44
0.0
173
     0
291
     0
 45
0.0
1001
ACAD
1000
AcDbSavedByObjectVersion
1070
     0
  0
VISUALSTYLE
  5
31
102
{ACAD_REACTORS
330
2A
102
}
330
2A
100
AcDbVisualStyle
  2
3D Hidden
 70
     6
 71
     1
 72
     2
 73
     2
 90
        0
 40
-0.6
 41
-30.0
 62
     5
 63
     7
 74
     2
 91
        2
 64
     7
 65
   257
 75
     2
175
     1
 42
40.0
 92
        0
 66
   257
 43
1.0
 76
     1
 77
     6
 78
     2
 67
     7
 79
     3
170
     0
171
     0
290
     0
174
     0
 93
        1
 44
0.0
173
     0
291
     0
 45
0.0
1001
ACAD
1000
AcDbSavedByObjectVersion
1070
     0
  0
VISUALSTYLE
  5
30
102
{ACAD_REACTORS
330
2A
102
}
330
2A
100
AcDbVisualStyle
  2
3dWireframe
 70
     5
 71
     0
 72
     2
 73
     0
 90
        0
 40
-0.6
 41
-30.0
 62
     5
 63
     7
 74
     1
 91
        4
 64
     7
 65
   257
 75
     1
175
     1
 42
1.0
 92
        0
 66
   257
 43
1.0
 76
     1
 77
     6
 78
     2
 67
     7
 79
     5
170
     0
171
     0
290
     0
174
     0
 93
        1
 44
0.0
173
     0
291
     0
 45
0.0
1001
ACAD
1000
AcDbSavedByObjectVersion
1070
     0
  0
VISUALSTYLE
  5
32
102
{ACAD_REACTORS
330
2A
102
}
330
2A
100
AcDbVisualStyle
  2
Basic
 70
     7
 71
     1
 72
     0
 73
     1
 90
        0
 40
-0.6
 41
-30.0
 62
     5
 63
     7
 74
     0
 91
        4
 64
     7
 65
   257
 75
     1
175
     1
 42
1.0
 92
        8
 66
     7
 43
1.0
 76
     1
 77
     6
 78
     2
 67
     7
 79
     5
170
     0
171
     0
290
     0
174
     0
 93
        1
 44
0.0
173
     0
291
     1
 45
0.0
1001
ACAD
1000
AcDbSavedByObjectVersion
1070
     0
  0
VISUALSTYLE
  5
36
102
{ACAD_REACTORS
330
2A
102
}
330
2A
100
AcDbVisualStyle
  2
Brighten
 70
    12
 71
     2
 72
     2
 73
     0
 90
        0
 40
-0.6
 41
-30.0
 62
     5
 63
     7
 74
     1
 91
        4
 64
     7
 65
   257
 75
     1
175
     1
 42
1.0
 92
        8
 66
     7
 43
1.0
 76
     1
 77
     6
 78
     2
 67
     7
 79
     5
170
     0
171
     0
290
     0
174
     0
 93
        1
 44
50.0
173
     0
291
     1
 45
0.0
1001
ACAD
1000
AcDbSavedByObjectVersion
1070
     0
  0
VISUALSTYLE
  5
3A
102
{ACAD_REACTORS
330
2A
102
}
330
2A
100
AcDbVisualStyle
  2
ColorChange
 70
    16
 71
     2
 72
     2
 73
     3
 90
        0
 40
-0.6
 41
-30.0
 62
     5
 63
     8
 74
     1
 91
        4
 64
     7
 65
   257
 75
     1
175
     1
 42
1.0
 92
        8
 66
     8
 43
1.0
 76
     1
 77
     6
 78
     2
 67
     7
 79
     5
170
     0
171
     0
290
     0
174
     0
 93
        1
 44
0.0
173
     0
291
     1
 45
0.0
1001
ACAD
1000
AcDbSavedByObjectVersion
1070
     0
  0
VISUALSTYLE
  5
34
102
{ACAD_REACTORS
330
2A
102
}
330
2A
100
AcDbVisualStyle
  2
Conceptual
 70
     9
 71
     3
 72
     2
 73
     0
 90
        0
 40
-0.6
 41
-30.0
 62
     5
 63
     7
 74
     2
 91
        2
 64
     7
 65
   257
 75
     1
175
     1
 42
40.0
 92
        8
 66
     7
 43
1.0
 76
     1
 77
     6
 78
     2
 67
     7
 79
     3
170
     0
171
     0
290
     0
174
     0
 93
        1
 44
0.0
173
     0
291
     0
 45
0.0
1001
ACAD
1000
AcDbSavedByObjectVersion
1070
     0
  0
VISUALSTYLE
  5
35
102
{ACAD_REACTORS
330
2A
102
}
330
2A
100
AcDbVisualStyle
  2
Dim
 70
    11
 71
     2
 72
     2
 73
     0
 90
        0
 40
-0.6
 41
-30.0
 62
     5
 63
     7
 74
     1
 91
        4
 64
     7
 65
   257
 75
     1
175
     1
 42
1.0
 92
        8
 66
     7
 43
1.0
 76
     1
 77
     6
 78
     2
 67
     7
 79
     5
170
     0
171
     0
290
     0
174
     0
 93
        1
 44
-50.0
173
     0
291
     1
 45
0.0
1001
ACAD
1000
AcDbSavedByObjectVersion
1070
     0
  0
VISUALSTYLE
  5
39
102
{ACAD_REACTORS
330
2A
102
}
330
2A
100
AcDbVisualStyle
  2
Facepattern
 70
    15
 71
     2
 72
     2
 73
     0
 90
        0
 40
-0.6
 41
-30.0
 62
     5
 63
     7
 74
     1
 91
        4
 64
     7
 65
   257
 75
     1
175
     1
 42
1.0
 92
        8
 66
     7
 43
1.0
 76
     1
 77
     6
 78
     2
 67
     7
 79
     5
170
     0
171
     0
290
     0
174
     0
 93
        1
 44
0.0
173
     0
291
     1
 45
0.0
1001
ACAD
1000
AcDbSavedByObjectVersion
1070
     0
  0
VISUALSTYLE
  5
2B
102
{ACAD_REACTORS
330
2A
102
}
330
2A
100
AcDbVisualStyle
  2
Flat
 70
     0
 71
     2
 72
     1
 73
     1
 90
        2
 40
-0.6
 41
30.0
 62
     5
 63
     7
 74
     0
 91
        4
 64
     7
 65
   257
 75
     1
175
     1
 42
1.0
 92
        8
 66
     7
 43
1.0
 76
     1
 77
     6
 78
     2
 67
     7
 79
     5
170
     0
171
     0
290
     0
174
     0
 93
       13
 44
0.0
173
     0
291
     1
 45
0.0
1001
ACAD
1000
AcDbSavedByObjectVersion
1070
     0
  0
VISUALSTYLE
  5
2C
102
{ACAD_REACTORS
330
2A
102
}
330
2A
100
AcDbVisualStyle
  2
FlatWithEdges
 70
     1
 71
     2
 72
     1
 73
     1
 90
        2
 40
-0.6
 41
30.0
 62
     5
 63
     7
 74
     1
 91
        4
 64
     7
 65
   257
 75
     1
175
     1
 42
1.0
 92
        0
 66
   257
 43
1.0
 76
     1
 77
     6
 78
     2
 67
     7
 79
     5
170
     0
171
     0
290
     0
174
     0
 93
       13
 44
0.0
173
     0
291
     1
 45
0.0
1001
ACAD
1000
AcDbSavedByObjectVersion
1070
     0
  0
VISUALSTYLE
  5
2D
102
{ACAD_REACTORS
330
2A
102
}
330
2A
100
AcDbVisualStyle
  2
Gouraud
 70
     2
 71
     2
 72
     2
 73
     1
 90
        2
 40
-0.6
 41
30.0
 62
     5
 63
     7
 74
     0
 91
        4
 64
     7
 65
   257
 75
     1
175
     1
 42
1.0
 92
        0
 66
     7
 43
1.0
 76
     1
 77
     6
 78
     2
 67
     7
 79
     5
170
     0
171
     0
290
     0
174
     0
 93
       13
 44
0.0
173
     0
291
     1
 45
0.0
1001
ACAD
1000
AcDbSavedByObjectVersion
1070
     0
  0
VISUALSTYLE
  5
2E
102
{ACAD_REACTORS
330
2A
102
}
330
2A
100
AcDbVisualStyle
  2
GouraudWithEdges
 70
     3
 71
     2
 72
     2
 73
     1
 90
        2
 40
-0.6
 41
30.0
 62
     5
 63
     7
 74
     1
 91
        4
 64
     7
 65
   257
 75
     1
175
     1
 42
1.0
 92
        0
 66
   257
 43
1.0
 76
     1
 77
     6
 78
     2
 67
     7
 79
     5
170
     0
171
     0
290
     0
174
     0
 93
       13
 44
0.0
173
     0
291
     1
 45
0.0
1001
ACAD
1000
AcDbSavedByObjectVersion
1070
     0
  0
VISUALSTYLE
  5
38
102
{ACAD_REACTORS
330
2A
102
}
330
2A
100
AcDbVisualStyle
  2
Linepattern
 70
    14
 71
     2
 72
     2
 73
     0
 90
        0
 40
-0.6
 41
-30.0
 62
     5
 63
     7
 74
     1
 91
        4
 64
     7
 65
   257
 75
     7
175
     7
 42
1.0
 92
        8
 66
     7
 43
1.0
 76
     1
 77
     6
 78
     2
 67
     7
 79
     5
170
     0
171
     0
290
     0
174
     0
 93
        1
 44
0.0
173
     0
291
     1
 45
0.0
1001
ACAD
1000
AcDbSavedByObjectVersion
1070
     0
  0
VISUALSTYLE
  5
33
102
{ACAD_REACTORS
330
2A
102
}
330
2A
100
AcDbVisualStyle
  2
Realistic
 70
     8
 71
     2
 72
     2
 73
     0
 90
        0
 40
-0.6
 41
-30.0
 62
     5
 63
     7
 74
     1
 91
        0
 64
     7
 65
   257
 75
     1
175
     1
 42
1.0
 92
        8
 66
     8
 43
1.0
 76
     1
 77
     6
 78
     2
 67
     7
 79
     5
170
     0
171
     0
290
     0
174
     0
 93
       13
 44
0.0
173
     0
291
     0
 45
0.0
1001
ACAD
1000
AcDbSavedByObjectVersion
1070
     0
  0
VISUALSTYLE
  5
37
102
{ACAD_REACTORS
330
2A
102
}
330
2A
100
AcDbVisualStyle
  2
Thicken
 70
    13
 71
     2
 72
     2
 73
     0
 90
        0
 40
-0.6
 41
-30.0
 62
     5
 63
     7
 74
     1
 91
        4
 64
     7
 65
   257
 75
     1
175
     1
 42
1.0
 92
       12
 66
     7
 43
1.0
 76
     1
 77
     6
 78
     2
 67
     7
 79
     5
170
     0
171
     0
290
     0
174
     0
 93
        1
 44
0.0
173
     0
291
     1
 45
0.0
1001
ACAD
1000
AcDbSavedByObjectVersion
1070
     0
  0
DICTIONARYVAR
  5
23A
102
{ACAD_REACTORS
330
238
102
}
330
238
100
DictionaryVariables
280
     0
  1
80.000000
  0
DICTIONARYVAR
  5
239
102
{ACAD_REACTORS
330
238
102
}
330
238
100
DictionaryVariables
280
     0
  1
5.000000
  0
ENDSEC
  0
EOF
