  0
SECTION
  2
HEADER
  9
$ACADVER
  1
AC1015
  9
$ACADMAINTVER
 70
     6
  9
$DWGCODEPAGE
  3
ANSI_1252
  9
$INSBASE
 10
0.0
 20
0.0
 30
0.0
  9
$EXTMIN
 10
0.0
 20
0.0
 30
0.0
  9
$EXTMAX
 10
297.0
 20
210.0
 30
0.0
  9
$LIMMIN
 10
0.0
 20
0.0
  9
$LIMMAX
 10
297.0
 20
210.0
  9
$ORTHOMODE
 70
     0
  9
$REGENMODE
 70
     1
  9
$FILLMODE
 70
     1
  9
$QTEXTMODE
 70
     0
  9
$MIRRTEXT
 70
     1
  9
$LTSCALE
 40
1.0
  9
$ATTMODE
 70
     1
  9
$TEXTSIZE
 40
2.0
  9
$TRACEWID
 40
1.0
  9
$TEXTSTYLE
  7
Standard
  9
$CLAYER
  8
0
  9
$CELTYPE
  6
ByLayer
  9
$CECOLOR
 62
   256
  9
$CELTSCALE
 40
1.0
  9
$DISPSILH
 70
     0
  9
$DIMSCALE
 40
1.0
  9
$DIMASZ
 40
3.0
  9
$DIMEXO
 40
0.0
  9
$DIMDLI
 40
3.75
  9
$DIMRND
 40
0.0
  9
$DIMDLE
 40
0.0
  9
$DIMEXE
 40
1.0
  9
$DIMTP
 40
0.0
  9
$DIMTM
 40
0.0
  9
$DIMTXT
 40
2.0
  9
$DIMCEN
 40
2.5
  9
$DIMTSZ
 40
0.0
  9
$DIMTOL
 70
     0
  9
$DIMLIM
 70
     0
  9
$DIMTIH
 70
     1
  9
$DIMTOH
 70
     1
  9
$DIMSE1
 70
     0
  9
$DIMSE2
 70
     0
  9
$DIMTAD
 70
     1
  9
$DIMZIN
 70
     0
  9
$DIMBLK
  1

  9
$DIMASO
 70
     1
  9
$DIMSHO
 70
     1
  9
$DIMPOST
  1

  9
$DIMAPOST
  1

  9
$DIMALT
 70
     0
  9
$DIMALTD
 70
     3
  9
$DIMALTF
 40
0.0393700787
  9
$DIMLFAC
 40
1.0
  9
$DIMTOFL
 70
     1
  9
$DIMTVP
 40
0.0
  9
$DIMTIX
 70
     0
  9
$DIMSOXD
 70
     0
  9
$DIMSAH
 70
     0
  9
$DIMBLK1
  1

  9
$DIMBLK2
  1

  9
$DIMSTYLE
  2
ISO-25
  9
$DIMCLRD
 70
     0
  9
$DIMCLRE
 70
     0
  9
$DIMCLRT
 70
     0
  9
$DIMTFAC
 40
1.0
  9
$DIMGAP
 40
1.524
  9
$DIMJUST
 70
     0
  9
$DIMSD1
 70
     0
  9
$DIMSD2
 70
     0
  9
$DIMTOLJ
 70
     0
  9
$DIMTZIN
 70
     0
  9
$DIMALTZ
 70
     0
  9
$DIMALTTZ
 70
     0
  9
$DIMUPT
 70
     0
  9
$DIMDEC
 70
     2
  9
$DIMTDEC
 70
     3
  9
$DIMALTU
 70
     2
  9
$DIMALTTD
 70
     3
  9
$DIMTXSTY
  7
Standard
  9
$DIMAUNIT
 70
     0
  9
$DIMADEC
 70
     2
  9
$DIMALTRND
 40
0.0
  9
$DIMAZIN
 70
     0
  9
$DIMDSEP
 70
    44
  9
$DIMATFIT
 70
     3
  9
$DIMFRAC
 70
     0
  9
$DIMLDRBLK
  1

  9
$DIMLUNIT
 70
     2
  9
$DIMLWD
 70
    -2
  9
$DIMLWE
 70
    -2
  9
$DIMTMOVE
 70
     0
  9
$LUNITS
 70
     2
  9
$LUPREC
 70
     2
  9
$SKETCHINC
 40
1.0
  9
$FILLETRAD
 40
10.0
  9
$AUNITS
 70
     0
  9
$AUPREC
 70
     2
  9
$MENU
  1
.
  9
$ELEVATION
 40
0.0
  9
$PELEVATION
 40
0.0
  9
$THICKNESS
 40
0.0
  9
$LIMCHECK
 70
     0
  9
$CHAMFERA
 40
10.0
  9
$CHAMFERB
 40
10.0
  9
$CHAMFERC
 40
20.0
  9
$CHAMFERD
 40
0.0
  9
$SKPOLY
 70
     0
  9
$TDCREATE
 40
2455679.505114815
  9
$TDUCREATE
 40
2455679.421781482
  9
$TDUPDATE
 40
2455679.505114826
  9
$TDUUPDATE
 40
2455679.421781493
  9
$TDINDWG
 40
0.0000000116
  9
$TDUSRTIMER
 40
0.0000000116
  9
$USRTIMER
 70
     1
  9
$ANGBASE
 50
0.0
  9
$ANGDIR
 70
     0
  9
$PDMODE
 70
     0
  9
$PDSIZE
 40
-1.0
  9
$PLINEWID
 40
0.0
  9
$SPLFRAME
 70
     0
  9
$SPLINETYPE
 70
     6
  9
$SPLINESEGS
 70
     8
  9
$HANDSEED
  5
238
  9
$SURFTAB1
 70
     6
  9
$SURFTAB2
 70
     6
  9
$SURFTYPE
 70
     6
  9
$SURFU
 70
     6
  9
$SURFV
 70
     6
  9
$UCSBASE
  2

  9
$UCSNAME
  2

  9
$UCSORG
 10
0.0
 20
0.0
 30
0.0
  9
$UCSXDIR
 10
1.0
 20
0.0
 30
0.0
  9
$UCSYDIR
 10
0.0
 20
1.0
 30
0.0
  9
$UCSORTHOREF
  2

  9
$UCSORTHOVIEW
 70
     0
  9
$UCSORGTOP
 10
0.0
 20
0.0
 30
0.0
  9
$UCSORGBOTTOM
 10
0.0
 20
0.0
 30
0.0
  9
$UCSORGLEFT
 10
0.0
 20
0.0
 30
0.0
  9
$UCSORGRIGHT
 10
0.0
 20
0.0
 30
0.0
  9
$UCSORGFRONT
 10
0.0
 20
0.0
 30
0.0
  9
$UCSORGBACK
 10
0.0
 20
0.0
 30
0.0
  9
$PUCSBASE
  2

  9
$PUCSNAME
  2

  9
$PUCSORG
 10
0.0
 20
0.0
 30
0.0
  9
$PUCSXDIR
 10
1.0
 20
0.0
 30
0.0
  9
$PUCSYDIR
 10
0.0
 20
1.0
 30
0.0
  9
$PUCSORTHOREF
  2

  9
$PUCSORTHOVIEW
 70
     0
  9
$PUCSORGTOP
 10
0.0
 20
0.0
 30
0.0
  9
$PUCSORGBOTTOM
 10
0.0
 20
0.0
 30
0.0
  9
$PUCSORGLEFT
 10
0.0
 20
0.0
 30
0.0
  9
$PUCSORGRIGHT
 10
0.0
 20
0.0
 30
0.0
  9
$PUCSORGFRONT
 10
0.0
 20
0.0
 30
0.0
  9
$PUCSORGBACK
 10
0.0
 20
0.0
 30
0.0
  9
$USERI1
 70
     0
  9
$USERI2
 70
     0
  9
$USERI3
 70
     0
  9
$USERI4
 70
     0
  9
$USERI5
 70
     0
  9
$USERR1
 40
0.0
  9
$USERR2
 40
0.0
  9
$USERR3
 40
0.0
  9
$USERR4
 40
0.0
  9
$USERR5
 40
0.0
  9
$WORLDVIEW
 70
     1
  9
$SHADEDGE
 70
     3
  9
$SHADEDIF
 70
    70
  9
$TILEMODE
 70
     1
  9
$MAXACTVP
 70
    64
  9
$PINSBASE
 10
0.0
 20
0.0
 30
0.0
  9
$PLIMCHECK
 70
     0
  9
$PEXTMIN
 10
1.0000000000E+20
 20
1.0000000000E+20
 30
1.0000000000E+20
  9
$PEXTMAX
 10
-1.0000000000E+20
 20
-1.0000000000E+20
 30
-1.0000000000E+20
  9
$PLIMMIN
 10
0.0
 20
0.0
  9
$PLIMMAX
 10
420.0
 20
297.0
  9
$UNITMODE
 70
     0
  9
$VISRETAIN
 70
     1
  9
$PLINEGEN
 70
     0
  9
$PSLTSCALE
 70
     1
  9
$TREEDEPTH
 70
  3020
  9
$CMLSTYLE
  2
Standard
  9
$CMLJUST
 70
     0
  9
$CMLSCALE
 40
20.0
  9
$PROXYGRAPHICS
 70
     1
  9
$MEASUREMENT
 70
     1
  9
$CELWEIGHT
370
    -1
  9
$ENDCAPS
280
     0
  9
$JOINSTYLE
280
     0
  9
$LWDISPLAY
290
     1
  9
$INSUNITS
 70
     4
  9
$HYPERLINKBASE
  1

  9
$STYLESHEET
  1

  9
$XEDIT
290
     1
  9
$CEPSNTYPE
380
     0
  9
$PSTYLEMODE
290
     1
  9
$FINGERPRINTGUID
  2
{16704103-1411-440F-8B1F-35BE96D2FB58}
  9
$VERSIONGUID
  2
{FAEB1C32-E019-11D5-929B-00C0DF256EC4}
  9
$EXTNAMES
290
     1
  9
$PSVPSCALE
 40
0.0
  9
$OLESTARTUP
290
     0
  0
ENDSEC
  0
SECTION
  2
CLASSES
  0
CLASS
  1
ACDBDICTIONARYWDFLT
  2
AcDbDictionaryWithDefault
  3
ObjectDBX Classes
 90
        0
280
     0
281
     0
  0
CLASS
  1
VISUALSTYLE
  2
AcDbVisualStyle
  3
ObjectDBX Classes
 90
     4095
280
     0
281
     0
  0
CLASS
  1
DICTIONARYVAR
  2
AcDbDictionaryVar
  3
ObjectDBX Classes
 90
        0
280
     0
281
     0
  0
CLASS
  1
ACDBPLACEHOLDER
  2
AcDbPlaceHolder
  3
ObjectDBX Classes
 90
        0
280
     0
281
     0
  0
CLASS
  1
LAYOUT
  2
AcDbLayout
  3
ObjectDBX Classes
 90
        0
280
     0
281
     0
  0
ENDSEC
  0
SECTION
  2
TABLES
  0
TABLE
  2
VPORT
  5
8
330
0
100
AcDbSymbolTable
 70
     1
  0
VPORT
  5
29
330
8
100
AcDbSymbolTableRecord
100
AcDbViewportTableRecord
  2
*Active
 70
     0
 10
0.0
 20
0.0
 11
1.0
 21
1.0
 12
148.5
 22
105.0
 13
0.0
 23
0.0
 14
10.0
 24
10.0
 15
10.0
 25
10.0
 16
0.0
 26
0.0
 36
1.0
 17
0.0
 27
0.0
 37
0.0
 40
210.0
 41
1.4142857143
 42
50.0
 43
0.0
 44
0.0
 50
0.0
 51
0.0
 71
     0
 72
  2000
 73
     1
 74
     3
 75
     0
 76
     0
 77
     0
 78
     0
281
     0
 65
     1
110
0.0
120
0.0
130
0.0
111
1.0
121
0.0
131
0.0
112
0.0
122
1.0
132
0.0
 79
     0
146
0.0
  0
ENDTAB
  0
TABLE
  2
LTYPE
  5
5
330
0
100
AcDbSymbolTable
 70
     6
  0
LTYPE
  5
14
330
5
100
AcDbSymbolTableRecord
100
AcDbLinetypeTableRecord
  2
ByBlock
 70
     0
  3

 72
    65
 73
     0
 40
0.0
  0
LTYPE
  5
15
330
5
100
AcDbSymbolTableRecord
100
AcDbLinetypeTableRecord
  2
ByLayer
 70
     0
  3

 72
    65
 73
     0
 40
0.0
  0
LTYPE
  5
16
330
5
100
AcDbSymbolTableRecord
100
AcDbLinetypeTableRecord
  2
Continuous
 70
     0
  3
Solid line
 72
    65
 73
     0
 40
0.0
  0
LTYPE
  5
3B
330
5
100
AcDbSymbolTableRecord
100
AcDbLinetypeTableRecord
  2
HIDDEN
 70
     0
  3
Hidden __ __ __ __ __ __ __ __ __ __ __ __ __ __
 72
    65
 73
     2
 40
1.905
 49
1.27
 74
     0
 49
-0.635
 74
     0
  0
LTYPE
  5
3C
330
5
100
AcDbSymbolTableRecord
100
AcDbLinetypeTableRecord
  2
PHANTOM
 70
     0
  3
Phantom ______  __  __  ______  __  __  ______
 72
    65
 73
     6
 40
12.7
 49
6.35
 74
     0
 49
-1.27
 74
     0
 49
1.27
 74
     0
 49
-1.27
 74
     0
 49
1.27
 74
     0
 49
-1.27
 74
     0
  0
LTYPE
  5
3D
330
5
100
AcDbSymbolTableRecord
100
AcDbLinetypeTableRecord
  2
CENTER
 70
     0
  3
Center ____ _ ____ _ ____ _ ____ _ ____ _ ____
 72
    65
 73
     4
 40
10.16
 49
6.35
 74
     0
 49
-1.27
 74
     0
 49
1.27
 74
     0
 49
-1.27
 74
     0
  0
LTYPE
  5
3E
330
5
100
AcDbSymbolTableRecord
100
AcDbLinetypeTableRecord
  2
CENTERX2
 70
     0
  3
Center (2x) ________  __  ________  __  _____
 72
    65
 73
     4
 40
20.32
 49
12.7
 74
     0
 49
-2.54
 74
     0
 49
2.54
 74
     0
 49
-2.54
 74
     0
  0
LTYPE
  5
3F
330
5
100
AcDbSymbolTableRecord
100
AcDbLinetypeTableRecord
  2
DOT2
 70
     0
  3
Dot (.5x) ........................................
 72
    65
 73
     2
 40
0.635
 49
0.0
 74
     0
 49
-0.635
 74
     0
  0
ENDTAB
  0
TABLE
  2
LAYER
  5
2
330
0
100
AcDbSymbolTable
 70
     5
  0
LAYER
  5
10
330
2
100
AcDbSymbolTableRecord
100
AcDbLayerTableRecord
  2
0
 70
     0
 62
     7
  6
Continuous
370
    -3
390
F
  0
LAYER
  5
40
330
2
100
AcDbSymbolTableRecord
100
AcDbLayerTableRecord
  2
FORMAT
 70
     0
 62
     7
  6
Continuous
370
    -3
390
F
  0
LAYER
  5
41
330
2
100
AcDbSymbolTableRecord
100
AcDbLayerTableRecord
  2
VERMASSUNG
 70
     0
 62
     7
  6
Continuous
370
    -3
390
F
  0
LAYER
  5
42
330
2
100
AcDbSymbolTableRecord
100
AcDbLayerTableRecord
  2
KOPF_DÜNN
 70
     0
 62
     7
  6
Continuous
370
    -3
390
F
  0
LAYER
  5
43
330
2
100
AcDbSymbolTableRecord
100
AcDbLayerTableRecord
  2
KOPF_DICK
 70
     0
 62
     7
  6
Continuous
370
    15
390
F
  0
ENDTAB
  0
TABLE
  2
STYLE
  5
3
330
0
100
AcDbSymbolTable
 70
     3
  0
STYLE
  5
11
330
3
100
AcDbSymbolTableRecord
100
AcDbTextStyleTableRecord
  2
Standard
 70
     0
 40
0.0
 41
1.0
 50
0.0
 71
     0
 42
2.5
  3
txt
  4

  0
STYLE
  5
44
330
3
100
AcDbSymbolTableRecord
100
AcDbTextStyleTableRecord
  2
SLDTEXTSTYLE0
 70
     0
 40
0.0
 41
0.7
 50
0.0
 71
     0
 42
0.2
  3
TXT
  4

  0
STYLE
  5
48
330
3
100
AcDbSymbolTableRecord
100
AcDbTextStyleTableRecord
  2
SLDTEXTSTYLE1
 70
     0
 40
0.0
 41
0.6473684211
 50
0.0
 71
     0
 42
0.2
  3
TXT
  4

  0
ENDTAB
  0
TABLE
  2
VIEW
  5
6
330
0
100
AcDbSymbolTable
 70
     0
  0
ENDTAB
  0
TABLE
  2
UCS
  5
7
330
0
100
AcDbSymbolTable
 70
     0
  0
ENDTAB
  0
TABLE
  2
APPID
  5
9
330
0
100
AcDbSymbolTable
 70
     1
  0
APPID
  5
12
330
9
100
AcDbSymbolTableRecord
100
AcDbRegAppTableRecord
  2
ACAD
 70
     0
  0
ENDTAB
  0
TABLE
  2
DIMSTYLE
  5
A
330
0
100
AcDbSymbolTable
 70
     5
100
AcDbDimStyleTable
  0
DIMSTYLE
105
27
330
A
100
AcDbSymbolTableRecord
100
AcDbDimStyleTableRecord
  2
ISO-25
 70
     0
 41
2.5
 42
0.625
 43
3.75
 44
1.25
 73
     0
 74
     0
 77
     1
 78
     8
140
2.5
141
2.5
143
0.0393700787
147
0.625
171
     3
172
     1
271
     2
272
     2
274
     3
278
    44
283
     0
284
     8
340
11
  0
DIMSTYLE
105
1D8
102
{ACAD_REACTORS
330
1D7
330
208
330
212
330
21D
330
227
102
}
330
A
100
AcDbSymbolTableRecord
100
AcDbDimStyleTableRecord
  2
SLDDIMSTYLE0
 70
     0
 41
3.0
 44
0.0
 45
0.000000001
 73
     0
 74
     0
 77
     1
 78
    12
140
2.0
147
0.5
173
     1
271
     2
272
     3
284
    12
340
44
  0
DIMSTYLE
105
1E5
102
{ACAD_REACTORS
330
1E4
102
}
330
A
100
AcDbSymbolTableRecord
100
AcDbDimStyleTableRecord
  2
SLDDIMSTYLE1
 70
     0
 41
3.0
 44
0.0
 45
0.000000001
 73
     0
 74
     0
 77
     1
 78
    12
140
2.0
147
0.5
173
     1
271
     2
272
     2
284
    12
340
44
  0
DIMSTYLE
105
1F0
102
{ACAD_REACTORS
330
1EF
102
}
330
A
100
AcDbSymbolTableRecord
100
AcDbDimStyleTableRecord
  2
SLDDIMSTYLE2
 70
     0
 41
3.0
 44
0.0
 45
0.000000001
 73
     0
 74
     0
 77
     1
 78
    12
140
2.0
147
0.5
173
     1
271
     2
272
     2
284
    12
340
44
  0
DIMSTYLE
105
1FD
102
{ACAD_REACTORS
330
1FC
102
}
330
A
100
AcDbSymbolTableRecord
100
AcDbDimStyleTableRecord
  2
SLDDIMSTYLE3
 70
     0
 41
3.0
 44
0.0
 45
0.000000001
 73
     0
 74
     0
 77
     1
 78
    12
140
2.0
147
0.5
173
     1
271
     2
272
     3
284
    12
340
44
  0
ENDTAB
  0
TABLE
  2
BLOCK_RECORD
  5
1
330
0
100
AcDbSymbolTable
 70
     9
  0
BLOCK_RECORD
  5
1F
330
1
100
AcDbSymbolTableRecord
100
AcDbBlockTableRecord
  2
*Model_Space
340
22
  0
BLOCK_RECORD
  5
1B
330
1
100
AcDbSymbolTableRecord
100
AcDbBlockTableRecord
  2
*Paper_Space
340
1E
  0
BLOCK_RECORD
  5
23
330
1
100
AcDbSymbolTableRecord
100
AcDbBlockTableRecord
  2
*Paper_Space0
340
26
  0
BLOCK_RECORD
  5
1D9
330
1
100
AcDbSymbolTableRecord
100
AcDbBlockTableRecord
  2
*D1
340
0
  0
BLOCK_RECORD
  5
1E6
330
1
100
AcDbSymbolTableRecord
100
AcDbBlockTableRecord
  2
*D2
340
0
  0
BLOCK_RECORD
  5
1F1
330
1
100
AcDbSymbolTableRecord
100
AcDbBlockTableRecord
  2
*D3
340
0
  0
BLOCK_RECORD
  5
1FE
330
1
100
AcDbSymbolTableRecord
100
AcDbBlockTableRecord
  2
*D4
340
0
  0
BLOCK_RECORD
  5
209
330
1
100
AcDbSymbolTableRecord
100
AcDbBlockTableRecord
  2
*D5
340
0
  0
BLOCK_RECORD
  5
213
330
1
100
AcDbSymbolTableRecord
100
AcDbBlockTableRecord
  2
*D6
340
0
  0
BLOCK_RECORD
  5
21E
330
1
100
AcDbSymbolTableRecord
100
AcDbBlockTableRecord
  2
*D7
340
0
  0
BLOCK_RECORD
  5
228
330
1
100
AcDbSymbolTableRecord
100
AcDbBlockTableRecord
  2
*D8
340
0
  0
ENDTAB
  0
ENDSEC
  0
SECTION
  2
BLOCKS
  0
BLOCK
  5
20
330
1F
100
AcDbEntity
  8
0
100
AcDbBlockBegin
  2
*Model_Space
 70
     0
 10
0.0
 20
0.0
 30
0.0
  3
*Model_Space
  1

  0
ENDBLK
  5
21
330
1F
100
AcDbEntity
  8
0
100
AcDbBlockEnd
  0
BLOCK
  5
1C
330
1B
100
AcDbEntity
 67
     1
  8
0
100
AcDbBlockBegin
  2
*Paper_Space
 70
     0
 10
0.0
 20
0.0
 30
0.0
  3
*Paper_Space
  1

  0
ENDBLK
  5
1D
330
1B
100
AcDbEntity
 67
     1
  8
0
100
AcDbBlockEnd
  0
BLOCK
  5
24
330
23
100
AcDbEntity
  8
0
100
AcDbBlockBegin
  2
*Paper_Space0
 70
     0
 10
0.0
 20
0.0
 30
0.0
  3
*Paper_Space0
  1

  0
ENDBLK
  5
25
330
23
100
AcDbEntity
  8
0
100
AcDbBlockEnd
  0
BLOCK
  5
1DA
330
1D9
100
AcDbEntity
  8
0
100
AcDbBlockBegin
  2
*D1
 70
     1
 10
0.0
 20
0.0
 30
0.0
  3
*D1
  1

  0
SOLID
  5
1DC
330
1D9
100
AcDbEntity
  8
VERMASSUNG
100
AcDbTrace
 10
46.8536294691
 20
136.3839653304
 30
0.0
 11
46.4036294691
 21
133.3839653304
 31
0.0
 12
47.3036294691
 22
133.3839653304
 32
0.0
 13
47.3036294691
 23
133.3839653304
 33
0.0
  0
SOLID
  5
1DD
330
1D9
100
AcDbEntity
  8
VERMASSUNG
100
AcDbTrace
 10
46.8536294691
 20
73.3839653304
 30
0.0
 11
47.3036294691
 21
76.3839653304
 31
0.0
 12
46.4036294691
 22
76.3839653304
 32
0.0
 13
46.4036294691
 23
76.3839653304
 33
0.0
  0
LINE
  5
1DE
330
1D9
100
AcDbEntity
  8
VERMASSUNG
100
AcDbLine
 10
84.3143459502
 20
136.3839653304
 30
0.0
 11
45.8536294691
 21
136.3839653304
 31
0.0
  0
LINE
  5
1DF
330
1D9
100
AcDbEntity
  8
VERMASSUNG
100
AcDbLine
 10
84.3143459502
 20
73.3839653304
 30
0.0
 11
45.8536294691
 21
73.3839653304
 31
0.0
  0
LINE
  5
1E0
330
1D9
100
AcDbEntity
  8
VERMASSUNG
100
AcDbLine
 10
46.8536294691
 20
136.3839653304
 30
0.0
 11
46.8536294691
 21
73.3839653304
 31
0.0
  0
MTEXT
  5
1E1
330
1D9
100
AcDbEntity
  8
VERMASSUNG
100
AcDbMText
 10
44.0754939801
 20
97.1804236186
 30
0.0
 40
2.0
 41
0.0
 71
     1
 72
     1
  1
HSK A 
  7
SLDTEXTSTYLE0
 11
-7.044195017643634E-15
 21
1.0
 31
0.0
 73
     1
 44
1.0
  0
MTEXT
  5
1E2
330
1D9
100
AcDbEntity
  8
VERMASSUNG
100
AcDbMText
 10
44.2754939896
 20
106.1804241625
 30
0.0
 40
2.0
 41
0.0
 71
     1
 72
     1
  1
%%c
  7
SLDTEXTSTYLE0
 11
-7.044195017643634E-15
 21
1.0
 31
0.0
 73
     1
 44
1.0
  0
MTEXT
  5
1E3
330
1D9
100
AcDbEntity
  8
VERMASSUNG
100
AcDbMText
 10
44.275494106
 20
109.7887508126
 30
0.0
 40
2.0
 41
0.0
 71
     1
 72
     1
  1
63
  7
SLDTEXTSTYLE0
 11
-7.044195017643634E-15
 21
1.0
 31
0.0
 73
     1
 44
1.0
  0
ENDBLK
  5
1DB
330
1D9
100
AcDbEntity
  8
0
100
AcDbBlockEnd
  0
BLOCK
  5
1E7
330
1E6
100
AcDbEntity
  8
0
100
AcDbBlockBegin
  2
*D2
 70
     1
 10
0.0
 20
0.0
 30
0.0
  3
*D2
  1

  0
SOLID
  5
1E9
330
1E6
100
AcDbEntity
  8
VERMASSUNG
100
AcDbTrace
 10
202.5143459502
 20
141.318851571
 30
0.0
 11
205.5143459502
 21
140.868851571
 31
0.0
 12
205.5143459502
 22
141.768851571
 32
0.0
 13
205.5143459502
 23
141.768851571
 33
0.0
  0
SOLID
  5
1EA
330
1E6
100
AcDbEntity
  8
VERMASSUNG
100
AcDbTrace
 10
244.0143459502
 20
141.318851571
 30
0.0
 11
241.0143459502
 21
141.768851571
 31
0.0
 12
241.0143459502
 22
140.868851571
 32
0.0
 13
241.0143459502
 23
140.868851571
 33
0.0
  0
LINE
  5
1EB
330
1E6
100
AcDbEntity
  8
VERMASSUNG
100
AcDbLine
 10
202.5143459502
 20
109.7839653304
 30
0.0
 11
202.5143459502
 21
142.318851571
 31
0.0
  0
LINE
  5
1EC
330
1E6
100
AcDbEntity
  8
VERMASSUNG
100
AcDbLine
 10
244.0143459502
 20
115.0351843471
 30
0.0
 11
244.0143459502
 21
142.318851571
 31
0.0
  0
LINE
  5
1ED
330
1E6
100
AcDbEntity
  8
VERMASSUNG
100
AcDbLine
 10
202.5143459502
 20
141.318851571
 30
0.0
 11
244.0143459502
 21
141.318851571
 31
0.0
  0
MTEXT
  5
1EE
330
1E6
100
AcDbEntity
  8
VERMASSUNG
100
AcDbMText
 10
220.9645387996
 20
143.8969869341
 30
0.0
 40
2.0
 41
0.0
 71
     1
 72
     1
  1
41.5
  7
SLDTEXTSTYLE0
 73
     1
 44
1.0
  0
ENDBLK
  5
1E8
330
1E6
100
AcDbEntity
  8
0
100
AcDbBlockEnd
  0
BLOCK
  5
1F2
330
1F1
100
AcDbEntity
  8
0
100
AcDbBlockBegin
  2
*D3
 70
     1
 10
0.0
 20
0.0
 30
0.0
  3
*D3
  1

  0
SOLID
  5
1F4
330
1F1
100
AcDbEntity
  8
VERMASSUNG
100
AcDbTrace
 10
251.3067172264
 20
99.8839653304
 30
0.0
 11
251.7567172264
 21
102.8839653304
 31
0.0
 12
250.8567172264
 22
102.8839653304
 32
0.0
 13
250.8567172264
 23
102.8839653304
 33
0.0
  0
SOLID
  5
1F5
330
1F1
100
AcDbEntity
  8
VERMASSUNG
100
AcDbTrace
 10
251.3067172264
 20
109.8839653304
 30
0.0
 11
250.8567172264
 21
106.8839653304
 31
0.0
 12
251.7567172264
 22
106.8839653304
 32
0.0
 13
251.7567172264
 23
106.8839653304
 33
0.0
  0
LINE
  5
1F6
330
1F1
100
AcDbEntity
  8
VERMASSUNG
100
AcDbLine
 10
240.5143459502
 20
99.8839653304
 30
0.0
 11
252.3067172264
 21
99.8839653304
 31
0.0
  0
LINE
  5
1F7
330
1F1
100
AcDbEntity
  8
VERMASSUNG
100
AcDbLine
 10
240.5143459502
 20
109.8839653304
 30
0.0
 11
252.3067172264
 21
109.8839653304
 31
0.0
  0
LINE
  5
1F8
330
1F1
100
AcDbEntity
  8
VERMASSUNG
100
AcDbLine
 10
251.3067172264
 20
99.8839653304
 30
0.0
 11
251.3067172264
 21
109.8839653304
 31
0.0
  0
MTEXT
  5
1F9
330
1F1
100
AcDbEntity
  8
VERMASSUNG
100
AcDbMText
 10
248.7285817469
 20
101.279928494
 30
0.0
 40
2.0
 41
0.0
 71
     1
 72
     1
  1
%%c
  7
SLDTEXTSTYLE0
 11
6.123233995736766E-17
 21
1.0
 31
0.0
 73
     1
 44
1.0
  0
MTEXT
  5
1FA
330
1F1
100
AcDbEntity
  8
VERMASSUNG
100
AcDbMText
 10
248.7285818633
 20
104.8886067172
 30
0.0
 40
2.0
 41
0.0
 71
     1
 72
     1
  1
10
  7
SLDTEXTSTYLE0
 11
6.123233995736766E-17
 21
1.0
 31
0.0
 73
     1
 44
1.0
  0
MTEXT
  5
1FB
330
1F1
100
AcDbEntity
  8
VERMASSUNG
100
AcDbMText
 10
248.7285818633
 20
107.2882036836
 30
0.0
 40
2.0
 41
0.0
 71
     1
 72
     1
  1
 
  7
SLDTEXTSTYLE0
 11
6.123233995736766E-17
 21
1.0
 31
0.0
 73
     1
 44
1.0
  0
ENDBLK
  5
1F3
330
1F1
100
AcDbEntity
  8
0
100
AcDbBlockEnd
  0
BLOCK
  5
1FF
330
1FE
100
AcDbEntity
  8
0
100
AcDbBlockBegin
  2
*D4
 70
     1
 10
0.0
 20
0.0
 30
0.0
  3
*D4
  1

  0
SOLID
  5
201
330
1FE
100
AcDbEntity
  8
VERMASSUNG
100
AcDbTrace
 10
257.3067172264
 20
92.8839653304
 30
0.0
 11
257.7567172264
 21
95.8839653304
 31
0.0
 12
256.8567172264
 22
95.8839653304
 32
0.0
 13
256.8567172264
 23
95.8839653304
 33
0.0
  0
SOLID
  5
202
330
1FE
100
AcDbEntity
  8
VERMASSUNG
100
AcDbTrace
 10
257.3067172264
 20
116.8839653304
 30
0.0
 11
256.8567172264
 21
113.8839653304
 31
0.0
 12
257.7567172264
 22
113.8839653304
 32
0.0
 13
257.7567172264
 23
113.8839653304
 33
0.0
  0
LINE
  5
203
330
1FE
100
AcDbEntity
  8
VERMASSUNG
100
AcDbLine
 10
244.0143459502
 20
92.8839653304
 30
0.0
 11
258.3067172264
 21
92.8839653304
 31
0.0
  0
LINE
  5
204
330
1FE
100
AcDbEntity
  8
VERMASSUNG
100
AcDbLine
 10
244.0143459502
 20
116.8839653304
 30
0.0
 11
258.3067172264
 21
116.8839653304
 31
0.0
  0
LINE
  5
205
330
1FE
100
AcDbEntity
  8
VERMASSUNG
100
AcDbLine
 10
257.3067172264
 20
92.8839653304
 30
0.0
 11
257.3067172264
 21
116.8839653304
 31
0.0
  0
MTEXT
  5
206
330
1FE
100
AcDbEntity
  8
VERMASSUNG
100
AcDbMText
 10
254.7285817469
 20
101.5804582882
 30
0.0
 40
2.0
 41
0.0
 71
     1
 72
     1
  1
%%c
  7
SLDTEXTSTYLE0
 11
6.123233995736766E-17
 21
1.0
 31
0.0
 73
     1
 44
1.0
  0
MTEXT
  5
207
330
1FE
100
AcDbEntity
  8
VERMASSUNG
100
AcDbMText
 10
254.7285818633
 20
105.1891365114
 30
0.0
 40
2.0
 41
0.0
 71
     1
 72
     1
  1
24
  7
SLDTEXTSTYLE0
 11
6.123233995736766E-17
 21
1.0
 31
0.0
 73
     1
 44
1.0
  0
ENDBLK
  5
200
330
1FE
100
AcDbEntity
  8
0
100
AcDbBlockEnd
  0
BLOCK
  5
20A
330
209
100
AcDbEntity
  8
0
100
AcDbBlockBegin
  2
*D5
 70
     1
 10
0.0
 20
0.0
 30
0.0
  3
*D5
  1

  0
SOLID
  5
20C
330
209
100
AcDbEntity
  8
VERMASSUNG
100
AcDbTrace
 10
84.0143459502
 20
153.318851571
 30
0.0
 11
87.0143459502
 21
152.868851571
 31
0.0
 12
87.0143459502
 22
153.768851571
 32
0.0
 13
87.0143459502
 23
153.768851571
 33
0.0
  0
SOLID
  5
20D
330
209
100
AcDbEntity
  8
VERMASSUNG
100
AcDbTrace
 10
244.0143459502
 20
153.318851571
 30
0.0
 11
241.0143459502
 21
153.768851571
 31
0.0
 12
241.0143459502
 22
152.868851571
 32
0.0
 13
241.0143459502
 23
152.868851571
 33
0.0
  0
LINE
  5
20E
330
209
100
AcDbEntity
  8
VERMASSUNG
100
AcDbLine
 10
84.0143459502
 20
136.0839653304
 30
0.0
 11
84.0143459502
 21
154.318851571
 31
0.0
  0
LINE
  5
20F
330
209
100
AcDbEntity
  8
VERMASSUNG
100
AcDbLine
 10
244.0143459502
 20
115.0351843471
 30
0.0
 11
244.0143459502
 21
154.318851571
 31
0.0
  0
LINE
  5
210
330
209
100
AcDbEntity
  8
VERMASSUNG
100
AcDbLine
 10
84.0143459502
 20
153.318851571
 30
0.0
 11
244.0143459502
 21
153.318851571
 31
0.0
  0
MTEXT
  5
211
330
209
100
AcDbEntity
  8
VERMASSUNG
100
AcDbMText
 10
162.1148584096
 20
155.8969869341
 30
0.0
 40
2.0
 41
0.0
 71
     1
 72
     1
  1
160
  7
SLDTEXTSTYLE0
 73
     1
 44
1.0
  0
ENDBLK
  5
20B
330
209
100
AcDbEntity
  8
0
100
AcDbBlockEnd
  0
BLOCK
  5
214
330
213
100
AcDbEntity
  8
0
100
AcDbBlockBegin
  2
*D6
 70
     1
 10
0.0
 20
0.0
 30
0.0
  3
*D6
  1

  0
SOLID
  5
216
330
213
100
AcDbEntity
  8
VERMASSUNG
100
AcDbTrace
 10
263.3067172264
 20
120.8839653304
 30
0.0
 11
262.8567172264
 21
117.8839653304
 31
0.0
 12
263.7567172264
 22
117.8839653304
 32
0.0
 13
263.7567172264
 23
117.8839653304
 33
0.0
  0
SOLID
  5
217
330
213
100
AcDbEntity
  8
VERMASSUNG
100
AcDbTrace
 10
263.3067172264
 20
88.8839653304
 30
0.0
 11
263.7567172264
 21
91.8839653304
 31
0.0
 12
262.8567172264
 22
91.8839653304
 32
0.0
 13
262.8567172264
 23
91.8839653304
 33
0.0
  0
LINE
  5
218
330
213
100
AcDbEntity
  8
VERMASSUNG
100
AcDbLine
 10
193.1895270055
 20
120.8839653304
 30
0.0
 11
264.3067172264
 21
120.8839653304
 31
0.0
  0
LINE
  5
219
330
213
100
AcDbEntity
  8
VERMASSUNG
100
AcDbLine
 10
193.1895270055
 20
88.8839653304
 30
0.0
 11
264.3067172264
 21
88.8839653304
 31
0.0
  0
LINE
  5
21A
330
213
100
AcDbEntity
  8
VERMASSUNG
100
AcDbLine
 10
263.3067172264
 20
120.8839653304
 30
0.0
 11
263.3067172264
 21
88.8839653304
 31
0.0
  0
MTEXT
  5
21B
330
213
100
AcDbEntity
  8
VERMASSUNG
100
AcDbMText
 10
260.7285817469
 20
101.680248104
 30
0.0
 40
2.0
 41
0.0
 71
     1
 72
     1
  1
%%c
  7
SLDTEXTSTYLE0
 11
-7.044195017643634E-15
 21
1.0
 31
0.0
 73
     1
 44
1.0
  0
MTEXT
  5
21C
330
213
100
AcDbEntity
  8
VERMASSUNG
100
AcDbMText
 10
260.7285818633
 20
105.2889263272
 30
0.0
 40
2.0
 41
0.0
 71
     1
 72
     1
  1
32
  7
SLDTEXTSTYLE0
 11
-7.044195017643634E-15
 21
1.0
 31
0.0
 73
     1
 44
1.0
  0
ENDBLK
  5
215
330
213
100
AcDbEntity
  8
0
100
AcDbBlockEnd
  0
BLOCK
  5
21F
330
21E
100
AcDbEntity
  8
0
100
AcDbBlockBegin
  2
*D7
 70
     1
 10
0.0
 20
0.0
 30
0.0
  3
*D7
  1

  0
SOLID
  5
221
330
21E
100
AcDbEntity
  8
VERMASSUNG
100
AcDbTrace
 10
109.9643459502
 20
147.318851571
 30
0.0
 11
112.9643459502
 21
146.868851571
 31
0.0
 12
112.9643459502
 22
147.768851571
 32
0.0
 13
112.9643459502
 23
147.768851571
 33
0.0
  0
SOLID
  5
222
330
21E
100
AcDbEntity
  8
VERMASSUNG
100
AcDbTrace
 10
244.0143459502
 20
147.318851571
 30
0.0
 11
241.0143459502
 21
147.768851571
 31
0.0
 12
241.0143459502
 22
146.868851571
 32
0.0
 13
241.0143459502
 23
146.868851571
 33
0.0
  0
LINE
  5
223
330
21E
100
AcDbEntity
  8
VERMASSUNG
100
AcDbLine
 10
109.9643459502
 20
134.7304056542
 30
0.0
 11
109.9643459502
 21
148.318851571
 31
0.0
  0
LINE
  5
224
330
21E
100
AcDbEntity
  8
VERMASSUNG
100
AcDbLine
 10
244.0143459502
 20
115.0351843471
 30
0.0
 11
244.0143459502
 21
148.318851571
 31
0.0
  0
LINE
  5
225
330
21E
100
AcDbEntity
  8
VERMASSUNG
100
AcDbLine
 10
109.9643459502
 20
147.318851571
 30
0.0
 11
244.0143459502
 21
147.318851571
 31
0.0
  0
MTEXT
  5
226
330
21E
100
AcDbEntity
  8
VERMASSUNG
100
AcDbMText
 10
173.2901606848
 20
149.8969869341
 30
0.0
 40
2.0
 41
0.0
 71
     1
 72
     1
  1
134.05
  7
SLDTEXTSTYLE0
 73
     1
 44
1.0
  0
ENDBLK
  5
220
330
21E
100
AcDbEntity
  8
0
100
AcDbBlockEnd
  0
BLOCK
  5
229
330
228
100
AcDbEntity
  8
0
100
AcDbBlockBegin
  2
*D8
 70
     1
 10
0.0
 20
0.0
 30
0.0
  3
*D8
  1

  0
SOLID
  5
22B
330
228
100
AcDbEntity
  8
VERMASSUNG
100
AcDbTrace
 10
244.0143459502
 20
159.318851571
 30
0.0
 11
241.0143459502
 21
159.768851571
 31
0.0
 12
241.0143459502
 22
158.868851571
 32
0.0
 13
241.0143459502
 23
158.868851571
 33
0.0
  0
SOLID
  5
22C
330
228
100
AcDbEntity
  8
VERMASSUNG
100
AcDbTrace
 10
52.1143459502
 20
159.318851571
 30
0.0
 11
55.1143459502
 21
158.868851571
 31
0.0
 12
55.1143459502
 22
159.768851571
 32
0.0
 13
55.1143459502
 23
159.768851571
 33
0.0
  0
LINE
  5
22D
330
228
100
AcDbEntity
  8
VERMASSUNG
100
AcDbLine
 10
244.0143459502
 20
115.0351843471
 30
0.0
 11
244.0143459502
 21
160.318851571
 31
0.0
  0
LINE
  5
22E
330
228
100
AcDbEntity
  8
VERMASSUNG
100
AcDbLine
 10
52.1143459502
 20
124.5746430769
 30
0.0
 11
52.1143459502
 21
160.318851571
 31
0.0
  0
LINE
  5
22F
330
228
100
AcDbEntity
  8
VERMASSUNG
100
AcDbLine
 10
244.0143459502
 20
159.318851571
 30
0.0
 11
52.1143459502
 21
159.318851571
 31
0.0
  0
MTEXT
  5
230
330
228
100
AcDbEntity
  8
VERMASSUNG
100
AcDbMText
 10
145.3653795364
 20
161.8969869341
 30
0.0
 40
2.0
 41
0.0
 71
     1
 72
     1
  1
191.9
  7
SLDTEXTSTYLE0
 73
     1
 44
1.0
  0
ENDBLK
  5
22A
330
228
100
AcDbEntity
  8
0
100
AcDbBlockEnd
  0
ENDSEC
  0
SECTION
  2
ENTITIES
  0
MTEXT
  5
45
330
1F
100
AcDbEntity
  8
KOPF_DÜNN
100
AcDbMText
 10
13.8892156294
 20
23.8442973028
 30
0.0
 40
3.0
 41
0.0
 71
     1
 72
     1
  1
HA6.S10.K21.160
  7
SLDTEXTSTYLE0
 73
     1
 44
1.0
  0
MTEXT
  5
46
330
1F
100
AcDbEntity
  8
VERMASSUNG
100
AcDbMText
 10
13.9329988022
 20
28.8834360957
 30
0.0
 40
3.0
 41
0.0
 71
     1
 72
     1
  1
Schrumpffutter_Heat shrink chuck
  7
SLDTEXTSTYLE0
 73
     1
 44
1.0
  0
MTEXT
  5
47
330
1F
100
AcDbEntity
  8
VERMASSUNG
100
AcDbMText
 10
98.8601118557
 20
13.8365368179
 30
0.0
 40
2.0
 41
0.0
 71
     1
 72
     1
  1
Datum: 27.04.2011
  7
SLDTEXTSTYLE0
 73
     1
 44
1.0
  0
MTEXT
  5
49
330
1F
100
AcDbEntity
  8
VERMASSUNG
100
AcDbMText
 10
13.933048693
 20
18.0482802738
 30
0.0
 40
2.0
 41
0.0
 71
     1
 72
     1
  1
DIN 69 893 HSK A 63
  7
SLDTEXTSTYLE1
 73
     1
 44
1.0
  0
MTEXT
  5
4A
330
1F
100
AcDbEntity
  8
VERMASSUNG
100
AcDbMText
 10
13.9808475933
 20
13.9090973692
 30
0.0
 40
2.0
 41
0.0
 71
     1
 72
     1
  1
Gewicht: 1368g
  7
SLDTEXTSTYLE0
 73
     1
 44
1.0
  0
LINE
  5
4B
330
1F
100
AcDbEntity
  8
0
  6
Continuous
 62
     7
370
    15
100
AcDbLine
 10
84.3143459502
 20
73.3839653304
 30
0.0
 11
88.9643459502
 21
73.3839653304
 31
0.0
  0
LINE
  5
4C
330
1F
100
AcDbEntity
  8
0
  6
Continuous
 62
     7
370
    15
100
AcDbLine
 10
88.9923343093
 20
136.3839653304
 30
0.0
 11
84.3143459502
 21
136.3839653304
 31
0.0
  0
ARC
  5
4D
330
1F
100
AcDbEntity
  8
0
  6
Continuous
 62
     7
370
    15
100
AcDbCircle
 10
84.3143459502
 20
73.6839653304
 30
0.0
 40
0.2999999999999972
100
AcDbArc
 50
180.0
 51
270.0
  0
ARC
  5
4E
330
1F
100
AcDbEntity
  8
0
  6
Continuous
 62
     7
370
    15
100
AcDbCircle
 10
84.3143459502
 20
136.0839653304
 30
0.0
 40
0.3000000000000398
100
AcDbArc
 50
90.0
 51
180.0
  0
ARC
  5
4F
330
1F
100
AcDbEntity
  8
0
  6
Continuous
 62
     7
370
    15
100
AcDbCircle
 10
83.5143391976
 20
80.3135277161
 30
0.0
 40
0.6000067526677282
100
AcDbArc
 50
33.5571153394
 51
90.0
  0
ARC
  5
50
330
1F
100
AcDbEntity
  8
0
  6
Continuous
 62
     7
370
    15
100
AcDbCircle
 10
83.5143391976
 20
129.4544029448
 30
0.0
 40
0.6000067526677282
100
AcDbArc
 50
270.0
 51
326.4428846606
  0
LINE
  5
51
330
1F
100
AcDbEntity
  8
0
  6
Continuous
 62
     7
370
    15
100
AcDbLine
 10
70.7839239478
 20
128.5417497993
 30
0.0
 11
58.2143459502
 21
127.9120114226
 31
0.0
  0
LINE
  5
52
330
1F
100
AcDbEntity
  8
0
  6
Continuous
 62
     7
370
    15
100
AcDbLine
 10
82.0143459502
 20
129.1043961922
 30
0.0
 11
79.1957361576
 21
128.9631832767
 31
0.0
  0
LINE
  5
53
330
1F
100
AcDbEntity
  8
0
  6
Continuous
 62
     7
370
    15
100
AcDbLine
 10
79.1959580679
 20
80.8047362664
 30
0.0
 11
82.0143459502
 21
80.6635344687
 31
0.0
  0
LINE
  5
54
330
1F
100
AcDbEntity
  8
0
  6
Continuous
 62
     7
370
    15
100
AcDbLine
 10
62.2143459502
 20
81.6555184367
 30
0.0
 11
70.7846227194
 21
81.226145853
 31
0.0
  0
LINE
  5
55
330
1F
100
AcDbEntity
  8
0
  6
Continuous
 62
     7
370
    15
100
AcDbLine
 10
82.0143459502
 20
80.6635344687
 30
0.0
 11
82.8710587236
 21
80.8930899645
 31
0.0
  0
LINE
  5
56
330
1F
100
AcDbEntity
  8
0
  6
Continuous
 62
     7
370
    15
100
AcDbLine
 10
82.8710587236
 20
128.8748406964
 30
0.0
 11
82.0143459502
 21
129.1043961922
 31
0.0
  0
ARC
  5
57
330
1F
100
AcDbEntity
  8
0
  6
Continuous
 62
     7
370
    15
100
AcDbCircle
 10
83.0263501507
 20
80.3135344687
 30
0.0
 40
0.6000000000000085
100
AcDbArc
 50
90.0
 51
105.0
  0
ARC
  5
58
330
1F
100
AcDbEntity
  8
0
  6
Continuous
 62
     7
370
    15
100
AcDbCircle
 10
83.0263501507
 20
129.4543961922
 30
0.0
 40
0.6000000000000227
100
AcDbArc
 50
255.0
 51
270.0
  0
LINE
  5
59
330
1F
100
AcDbEntity
  8
0
  6
Continuous
 62
     7
370
    15
100
AcDbLine
 10
83.0263501507
 20
80.9135344687
 30
0.0
 11
83.5143391976
 21
80.9135344687
 31
0.0
  0
LINE
  5
5A
330
1F
100
AcDbEntity
  8
0
  6
Continuous
 62
     7
370
    15
100
AcDbLine
 10
83.5143391976
 20
128.8543961922
 30
0.0
 11
83.0263501507
 21
128.8543961922
 31
0.0
  0
ARC
  5
5B
330
1F
100
AcDbEntity
  8
0
  6
Continuous
 62
     7
370
    15
100
AcDbCircle
 10
112.9643459502
 20
82.8680065289
 30
0.0
 40
3.000000000000014
100
AcDbArc
 50
104.3250519401
 51
180.0
  0
ARC
  5
5C
330
1F
100
AcDbEntity
  8
0
  6
Continuous
 62
     7
370
    15
100
AcDbCircle
 10
112.9643459502
 20
126.899924132
 30
0.0
 40
3.000000000000014
100
AcDbArc
 50
180.0
 51
255.6749480599
  0
ARC
  5
5D
330
1F
100
AcDbEntity
  8
0
  6
Continuous
 62
     7
370
    15
100
AcDbCircle
 10
136.9643459502
 20
-11.1160346696
 30
0.0
 40
100.0
100
AcDbArc
 50
90.0
 51
104.3250519401
  0
ARC
  5
5E
330
1F
100
AcDbEntity
  8
0
  6
Continuous
 62
     7
370
    15
100
AcDbCircle
 10
136.9643459502
 20
220.8839653304
 30
0.0
 40
100.0
100
AcDbArc
 50
255.6749480599
 51
270.0
  0
LINE
  5
5F
330
1F
100
AcDbEntity
  8
0
  6
Continuous
 62
     7
370
    15
100
AcDbLine
 10
159.4626319785
 20
88.8839653304
 30
0.0
 11
193.1895270055
 21
88.8839653304
 31
0.0
  0
LINE
  5
60
330
1F
100
AcDbEntity
  8
0
  6
Continuous
 62
     7
370
    15
100
AcDbLine
 10
136.9643459502
 20
88.8839653304
 30
0.0
 11
152.4700147996
 21
88.8839653304
 31
0.0
  0
LINE
  5
61
330
1F
100
AcDbEntity
  8
0
  6
Continuous
 62
     7
370
    15
100
AcDbLine
 10
152.4652783464
 20
120.8839653304
 30
0.0
 11
136.9643459502
 21
120.8839653304
 31
0.0
  0
LINE
  5
62
330
1F
100
AcDbEntity
  8
0
  6
Continuous
 62
     7
370
    15
100
AcDbLine
 10
193.1895270055
 20
120.8839653304
 30
0.0
 11
159.4547749877
 21
120.8839653304
 31
0.0
  0
LINE
  5
63
330
1F
100
AcDbEntity
  8
0
  6
Continuous
 62
     7
370
    15
100
AcDbLine
 10
193.1895270055
 20
88.8839653304
 30
0.0
 11
242.1712641417
 21
92.7389116463
 31
0.0
  0
LINE
  5
64
330
1F
100
AcDbEntity
  8
0
  6
Continuous
 62
     7
370
    15
100
AcDbLine
 10
242.1712641417
 20
117.0290190146
 30
0.0
 11
193.1895270055
 21
120.8839653304
 31
0.0
  0
ARC
  5
65
330
1F
100
AcDbEntity
  8
0
  6
Continuous
 62
     7
370
    15
100
AcDbCircle
 10
242.0143459502
 20
94.7327463138
 30
0.0
 40
2.0
100
AcDbArc
 50
274.5
 51
0.0
  0
ARC
  5
66
330
1F
100
AcDbEntity
  8
0
  6
Continuous
 62
     7
370
    15
100
AcDbCircle
 10
242.0143459502
 20
115.0351843471
 30
0.0
 40
2.0
100
AcDbArc
 50
0.0
 51
85.5
  0
LINE
  5
67
330
1F
100
AcDbEntity
  8
0
  6
Continuous
 62
     7
370
    15
100
AcDbLine
 10
53.3976825902
 20
84.0139653304
 30
0.0
 11
60.8143459502
 21
84.0139653304
 31
0.0
  0
ARC
  5
68
330
1F
100
AcDbEntity
  8
0
  6
Continuous
 62
     7
370
    15
100
AcDbCircle
 10
60.8143459502
 20
82.6139653304
 30
0.0
 40
1.400000000000006
100
AcDbArc
 50
42.2465410162
 51
90.0
  0
LINE
  5
69
330
1F
100
AcDbEntity
  8
0
  6
Continuous
 62
     7
370
    15
100
AcDbLine
 10
52.1255063853
 20
85.1528048953
 30
0.0
 11
53.2555094084
 21
84.0228018723
 31
0.0
  0
LINE
  5
6A
330
1F
100
AcDbEntity
  8
0
  6
Continuous
 62
     7
370
    15
100
AcDbLine
 10
53.2555094084
 20
125.7451287886
 30
0.0
 11
52.1242467236
 21
124.6138661038
 31
0.0
  0
ARC
  5
6B
330
1F
100
AcDbEntity
  8
0
  6
Continuous
 62
     7
370
    15
100
AcDbCircle
 10
56.8143459502
 20
127.1539653304
 30
0.0
 40
1.400000000000024
100
AcDbArc
 50
270.0
 51
301.7485287426
  0
LINE
  5
6C
330
1F
100
AcDbEntity
  8
0
  6
Continuous
 62
     7
370
    15
100
AcDbLine
 10
56.8143459502
 20
125.7539653304
 30
0.0
 11
53.3886116841
 21
125.7539653304
 31
0.0
  0
LINE
  5
6D
330
1F
100
AcDbEntity
  8
0
  6
Continuous
 62
     7
370
    15
100
AcDbLine
 10
244.0143459502
 20
95.5195970701
 30
0.0
 11
244.0916681574
 21
95.6665624125
 31
0.0
  0
LINE
  5
6E
330
1F
100
AcDbEntity
  8
0
  6
Continuous
 62
     7
370
    15
100
AcDbLine
 10
244.0327784337
 20
114.1036820319
 30
0.0
 11
244.0143459502
 21
114.1387164205
 31
0.0
  0
SPLINE
  5
6F
330
1F
100
AcDbEntity
  8
0
  6
Continuous
 62
     7
370
    15
100
AcDbSpline
210
0.0
220
0.0
230
1.0
 70
     8
 71
     3
 72
    70
 73
    66
 74
     0
 42
0.00000001
 43
0.00000001
 40
-0.0312499999999998
 40
-0.0312499999999998
 40
0.0
 40
0.0
 40
0.03125
 40
0.03125
 40
0.0625000000000001
 40
0.0625000000000001
 40
0.0937500000000001
 40
0.0937500000000001
 40
0.1250000000000002
 40
0.1250000000000002
 40
0.1562500000000002
 40
0.1562500000000002
 40
0.1875000000000003
 40
0.1875000000000003
 40
0.2187500000000003
 40
0.2187500000000003
 40
0.2500000000000004
 40
0.2500000000000004
 40
0.2812500000000004
 40
0.2812500000000004
 40
0.3125000000000005
 40
0.3125000000000005
 40
0.3437500000000006
 40
0.3437500000000006
 40
0.3750000000000006
 40
0.3750000000000006
 40
0.4062500000000006
 40
0.4062500000000006
 40
0.4375000000000007
 40
0.4375000000000007
 40
0.4687500000000007
 40
0.4687500000000007
 40
0.5000000000000008
 40
0.5000000000000008
 40
0.5312500000000009
 40
0.5312500000000009
 40
0.5625000000000011
 40
0.5625000000000011
 40
0.5937500000000012
 40
0.5937500000000012
 40
0.6250000000000014
 40
0.6250000000000014
 40
0.6562500000000016
 40
0.6562500000000016
 40
0.6875000000000018
 40
0.6875000000000018
 40
0.7187500000000016
 40
0.7187500000000016
 40
0.7500000000000014
 40
0.7500000000000014
 40
0.7812500000000012
 40
0.7812500000000012
 40
0.812500000000001
 40
0.812500000000001
 40
0.8437500000000009
 40
0.8437500000000009
 40
0.8750000000000007
 40
0.8750000000000007
 40
0.9062500000000006
 40
0.9062500000000006
 40
0.9375000000000003
 40
0.9375000000000003
 40
0.9687500000000002
 40
0.9687500000000002
 40
1.0
 40
1.0
 40
1.03125
 40
1.03125
 10
91.74980061155833
 20
115.5048722164276
 30
0.0
 10
92.2788912888786
 20
115.5048722164276
 30
0.0
 10
92.53896195625572
 20
115.5295495112128
 30
0.0
 10
93.05053663609112
 20
115.6260211842547
 30
0.0
 10
93.30471191983132
 20
115.6990021002348
 30
0.0
 10
93.78898254989302
 20
115.8887427031734
 30
0.0
 10
94.01862364177418
 20
116.0046033615672
 30
0.0
 10
94.45322799000768
 20
116.2772212075248
 30
0.0
 10
94.65879376665428
 20
116.4352602895786
 30
0.0
 10
95.02735090724953
 20
116.7788031405493
 30
0.0
 10
95.192831889985
 20
116.9655655846509
 30
0.0
 10
95.48525639942011
 20
117.3691087590477
 30
0.0
 10
95.60935737604662
 20
117.5826057554769
 30
0.0
 10
95.80893657279634
 20
118.0219890693994
 30
0.0
 10
95.8858701586546
 20
118.251129056545
 30
0.0
 10
95.98872721717497
 20
118.717103179305
 30
0.0
 10
96.0142001266341
 20
118.9499856249812
 30
0.0
 10
96.01449053720188
 20
119.415383160061
 30
0.0
 10
95.98846590342613
 20
119.6502589174554
 30
0.0
 10
95.88631761893414
 20
120.1017520647016
 30
0.0
 10
95.81074117135097
 20
120.319798540113
 30
0.0
 10
95.61024364020604
 20
120.7408930651508
 30
0.0
 10
95.48511479869768
 20
120.9428144496691
 30
0.0
 10
95.19575599767607
 20
121.314843932188
 30
0.0
 10
95.03034501062061
 20
121.4874722357684
 30
0.0
 10
94.65735445247277
 20
121.8047902403144
 30
0.0
 10
94.45562141938369
 20
121.944577173816
 30
0.0
 10
94.02276216855581
 20
122.1887534273678
 30
0.0
 10
93.78884363566644
 20
122.2939829384093
 30
0.0
 10
93.30465990052382
 20
122.4621400847845
 30
0.0
 10
93.05534427456831
 20
122.5253909753783
 30
0.0
 10
92.54231175014057
 20
122.6109701844809
 30
0.0
 10
92.27701792723595
 20
122.6328423494033
 30
0.0
 10
91.7546833073662
 20
122.6330059990473
 30
0.0
 10
91.49492964488446
 20
122.6120043069513
 30
0.0
 10
90.97831782923922
 20
122.5266019518736
 30
0.0
 10
90.72595178873895
 20
122.4625957685867
 30
0.0
 10
90.24442666720611
 20
122.2957812485455
 30
0.0
 10
90.01157593509255
 20
122.1916480851464
 30
0.0
 10
89.57448608665379
 20
121.9456614326514
 30
0.0
 10
89.37316509799662
 20
121.8059116017025
 30
0.0
 10
89.00407907269671
 20
121.4927735319779
 30
0.0
 10
88.83509432164502
 20
121.3173173727078
 30
0.0
 10
88.5446382649858
 20
120.9444771086076
 30
0.0
 10
88.42156645362367
 20
120.7463552984967
 30
0.0
 10
88.22023021220166
 20
120.325643955763
 30
0.0
 10
88.14301766625942
 20
120.1036539350955
 30
0.0
 10
88.04081412335935
 20
119.6537889953871
 30
0.0
 10
88.01458577190705
 20
119.4235335822703
 30
0.0
 10
88.01410937258994
 20
118.9522176397213
 30
0.0
 10
88.03985178508792
 20
118.7189802240071
 30
0.0
 10
88.14116256145176
 20
118.2573036845091
 30
0.0
 10
88.2179952008427
 20
118.0264062973969
 30
0.0
 10
88.41839904005788
 20
117.5841302836053
 30
0.0
 10
88.54107053834991
 20
117.3730678523194
 30
0.0
 10
88.83101782751416
 20
116.9715693415867
 30
0.0
 10
88.99958880687939
 20
116.7806628195108
 30
0.0
 10
89.36785840099256
 20
116.4369374875137
 30
0.0
 10
89.56892025826286
 20
116.2818003012996
 30
0.0
 10
90.00595117684779
 20
116.0067229412199
 30
0.0
 10
90.2380993899774
 20
115.8896067117979
 30
0.0
 10
90.71910967147626
 20
115.7006802267333
 30
0.0
 10
90.9712097543067
 20
115.627605256339
 30
0.0
 10
91.4882792405657
 20
115.5295531972045
 30
0.0
 10
91.74980061155833
 20
115.5048722164276
 30
0.0
 10
92.2788912888786
 20
115.5048722164276
 30
0.0
  0
LINE
  5
70
330
1F
100
AcDbEntity
  8
0
  6
Continuous
 62
     7
370
    15
100
AcDbLine
 10
88.9643459502
 20
124.7339653304
 30
0.0
 11
98.6224131187
 21
124.7339653304
 31
0.0
  0
LINE
  5
71
330
1F
100
AcDbEntity
  8
0
  6
Continuous
 62
     7
370
    15
100
AcDbLine
 10
98.6224131187
 20
74.6970476342
 30
0.0
 11
98.6224131187
 21
124.7339653304
 31
0.0
  0
LINE
  5
72
330
1F
100
AcDbEntity
  8
0
  6
Continuous
 62
     7
370
    15
100
AcDbLine
 10
98.6224131187
 20
74.6970476342
 30
0.0
 11
96.9643459502
 21
74.6970476342
 31
0.0
  0
SPLINE
  5
73
330
1F
100
AcDbEntity
  8
0
  6
Continuous
 62
     7
370
    15
100
AcDbSpline
210
0.0
220
0.0
230
1.0
 70
     8
 71
     3
 72
    28
 73
    24
 74
     0
 42
0.00000001
 43
0.00000001
 40
0.0
 40
0.0
 40
0.0
 40
0.0
 40
0.1250000000000001
 40
0.1250000000000001
 40
0.1875000000000001
 40
0.1875000000000001
 40
0.2500000000000001
 40
0.2500000000000001
 40
0.3750000000000001
 40
0.3750000000000001
 40
0.4375000000000003
 40
0.4375000000000003
 40
0.5000000000000003
 40
0.5000000000000003
 40
0.6250000000000002
 40
0.6250000000000002
 40
0.75
 40
0.75
 40
0.8125000000000001
 40
0.8125000000000001
 40
0.8750000000000001
 40
0.8750000000000001
 40
1.0
 40
1.0
 40
1.0
 40
1.0
 10
96.96434595021846
 20
74.69704763419713
 30
0.0
 10
96.43263819272552
 20
74.69704763419712
 30
0.0
 10
95.9103996274152
 20
74.68126292024691
 30
0.0
 10
95.14052914114018
 20
74.6362675061707
 30
0.0
 10
94.88616956894886
 20
74.617712511095
 30
0.0
 10
94.38204798825033
 20
74.57385978864849
 30
0.0
 10
94.13232517082243
 20
74.54851518169627
 30
0.0
 10
93.406735219376
 20
74.46511310394617
 30
0.0
 10
92.94837495779447
 20
74.39924754479509
 30
0.0
 10
92.2978770144006
 20
74.2902772043033
 30
0.0
 10
92.08619496360814
 20
74.25203756853665
 30
0.0
 10
91.68212347447013
 20
74.17427883111729
 30
0.0
 10
91.48961696064927
 20
74.13477786894194
 30
0.0
 10
90.93978198962799
 20
74.01587012657595
 30
0.0
 10
90.60985321131918
 20
73.93605244515133
 30
0.0
 10
90.02538194275049
 20
73.78270928335527
 30
0.0
 10
89.77910480473706
 20
73.71137553008602
 30
0.0
 10
89.47926201203899
 20
73.61743202301139
 30
0.0
 10
89.39080515496681
 20
73.58823822965147
 30
0.0
 10
89.23744380166168
 20
73.53477165538804
 30
0.0
 10
89.17235558743545
 20
73.51041232111288
 30
0.0
 10
89.01676157149465
 20
73.44682217566815
 30
0.0
 10
88.96434595021846
 20
73.41671924057889
 30
0.0
 10
88.96434595021846
 20
73.39984234758195
 30
0.0
  0
LINE
  5
74
330
1F
100
AcDbEntity
  8
0
  6
Continuous
 62
     7
370
    15
100
AcDbLine
 10
88.9643459502
 20
73.3998423476
 30
0.0
 11
88.9643459502
 21
73.3839653304
 31
0.0
  0
SPLINE
  5
75
330
1F
100
AcDbEntity
  8
0
  6
Continuous
 62
     7
370
    15
100
AcDbSpline
210
0.0
220
0.0
230
1.0
 70
     8
 71
     3
 72
    17
 73
    13
 74
     0
 42
0.00000001
 43
0.00000001
 40
0.0
 40
0.0
 40
0.0
 40
0.0
 40
0.1034796923964057
 40
0.2100239188807852
 40
0.3134862136955586
 40
0.4198361274354886
 40
0.5254127712915686
 40
0.6339610695419797
 40
0.7409508756305039
 40
0.8511696089308182
 40
0.9558996534551946
 40
1.0
 40
1.0
 40
1.0
 40
1.0
 10
96.96434595021846
 20
135.3511608036085
 30
0.0
 10
96.52909760110842
 20
135.3566090001418
 30
0.0
 10
95.64571109454346
 20
135.3676667406536
 30
0.0
 10
94.36488350931478
 20
135.4540251335553
 30
0.0
 10
93.14746697344073
 20
135.581895310093
 30
0.0
 10
92.03966112119419
 20
135.7408406086862
 30
0.0
 10
91.05142231724598
 20
135.9153342964017
 30
0.0
 10
90.22669875971445
 20
136.0845001470416
 30
0.0
 10
89.57774525905515
 20
136.2323839295699
 30
0.0
 10
89.16071044359342
 20
136.3341745138007
 30
0.0
 10
88.9621137306289
 20
136.3845260364039
 30
0.0
 10
88.98542645206219
 20
136.3786203521816
 30
0.0
 10
88.99233430929971
 20
136.376870422487
 30
0.0
  0
LINE
  5
76
330
1F
100
AcDbEntity
  8
0
  6
Continuous
 62
     7
370
    15
100
AcDbLine
 10
98.6224131187
 20
135.3511608036
 30
0.0
 11
96.9643459502
 21
135.3511608036
 31
0.0
  0
LINE
  5
77
330
1F
100
AcDbEntity
  8
0
  6
Continuous
 62
     7
370
    15
100
AcDbLine
 10
98.6224131187
 20
129.3426549928
 30
0.0
 11
98.6224131187
 21
135.3511608036
 31
0.0
  0
LINE
  5
78
330
1F
100
AcDbEntity
  8
0
  6
Continuous
 62
     7
370
    15
100
AcDbLine
 10
96.2099662959
 20
129.3426549928
 30
0.0
 11
98.6224131187
 21
129.3426549928
 31
0.0
  0
SPLINE
  5
79
330
1F
100
AcDbEntity
  8
0
  6
Continuous
 62
     7
370
    15
100
AcDbSpline
210
0.0
220
0.0
230
1.0
 70
     8
 71
     3
 72
    20
 73
    16
 74
     0
 42
0.00000001
 43
0.00000001
 40
0.0
 40
0.0
 40
0.0
 40
0.0
 40
0.25
 40
0.25
 40
0.375
 40
0.375
 40
0.5
 40
0.5
 40
0.625
 40
0.625
 40
0.75
 40
0.75
 40
0.875
 40
0.875
 40
1.0
 40
1.0
 40
1.0
 40
1.0
 10
88.96434595021846
 20
124.7339653304443
 30
0.0
 10
89.21271968450652
 20
125.3878277587417
 30
0.0
 10
89.5322897768518
 20
125.9916135407388
 30
0.0
 10
90.15459601005648
 20
126.8184522769074
 30
0.0
 10
90.38602027048722
 20
127.0808809148604
 30
0.0
 10
90.90723461013694
 20
127.5775435689653
 30
0.0
 10
91.19385509277201
 20
127.8081304479868
 30
0.0
 10
91.81333983407963
 20
128.2246846725695
 30
0.0
 10
92.14764021356659
 20
128.412182474537
 30
0.0
 10
92.87290068619137
 20
128.7435794521734
 30
0.0
 10
93.25481574358186
 20
128.8830834396687
 30
0.0
 10
94.04960391975354
 20
129.1085369471396
 30
0.0
 10
94.4637621139599
 20
129.1951630586832
 30
0.0
 10
95.32930845454129
 20
129.3131438475374
 30
0.0
 10
95.76719606955312
 20
129.3426549928117
 30
0.0
 10
96.20996629590773
 20
129.3426549928117
 30
0.0
  0
SPLINE
  5
7A
330
1F
100
AcDbEntity
  8
0
  6
Continuous
 62
     7
370
    15
100
AcDbSpline
210
0.0
220
0.0
230
1.0
 70
     8
 71
     3
 72
    70
 73
    66
 74
     0
 42
0.00000001
 43
0.00000001
 40
-0.03125
 40
-0.03125
 40
0.0
 40
0.0
 40
0.0312499999999998
 40
0.0312499999999998
 40
0.0624999999999997
 40
0.0624999999999997
 40
0.0937499999999995
 40
0.0937499999999995
 40
0.1249999999999994
 40
0.1249999999999994
 40
0.1562499999999992
 40
0.1562499999999992
 40
0.1874999999999991
 40
0.1874999999999991
 40
0.2187499999999989
 40
0.2187499999999989
 40
0.2499999999999988
 40
0.2499999999999988
 40
0.2812499999999988
 40
0.2812499999999988
 40
0.3124999999999988
 40
0.3124999999999988
 40
0.3437499999999988
 40
0.3437499999999988
 40
0.3749999999999988
 40
0.3749999999999988
 40
0.4062499999999988
 40
0.4062499999999988
 40
0.4374999999999988
 40
0.4374999999999988
 40
0.4687499999999989
 40
0.4687499999999989
 40
0.4999999999999989
 40
0.4999999999999989
 40
0.5312499999999991
 40
0.5312499999999991
 40
0.5624999999999992
 40
0.5624999999999992
 40
0.5937499999999994
 40
0.5937499999999994
 40
0.6249999999999996
 40
0.6249999999999996
 40
0.6562499999999998
 40
0.6562499999999998
 40
0.6875
 40
0.6875
 40
0.7187500000000001
 40
0.7187500000000001
 40
0.7500000000000003
 40
0.7500000000000003
 40
0.7812500000000003
 40
0.7812500000000003
 40
0.8125000000000002
 40
0.8125000000000002
 40
0.8437500000000002
 40
0.8437500000000002
 40
0.8750000000000001
 40
0.8750000000000001
 40
0.9062500000000001
 40
0.9062500000000001
 40
0.9375000000000001
 40
0.9375000000000001
 40
0.96875
 40
0.96875
 40
1.0
 40
1.0
 40
1.03125
 40
1.03125
 10
91.74980061155833
 20
129.9429287252234
 30
0.0
 10
92.27889128887861
 20
129.9429287252234
 30
0.0
 10
92.53896195625572
 20
129.9588291656382
 30
0.0
 10
93.05053663609114
 20
130.0207735158125
 30
0.0
 10
93.30471191983132
 20
130.0675757499038
 30
0.0
 10
93.78898254989302
 20
130.1885527333588
 30
0.0
 10
94.01862364177418
 20
130.2621550611657
 30
0.0
 10
94.45322799000768
 20
130.4339793321438
 30
0.0
 10
94.65879376665428
 20
130.5329827550713
 30
0.0
 10
95.02735090724953
 20
130.7460791689841
 30
0.0
 10
95.192831889985
 20
130.8609788851138
 30
0.0
 10
95.48525639942012
 20
131.106345783804
 30
0.0
 10
95.60935737604662
 20
131.2347856842743
 30
0.0
 10
95.80893657279634
 20
131.4956778323603
 30
0.0
 10
95.8858701586546
 20
131.6300590036998
 30
0.0
 10
95.98872721717497
 20
131.899378954806
 30
0.0
 10
96.0142001266341
 20
132.0320602190242
 30
0.0
 10
96.01449053720188
 20
132.2932466931552
 30
0.0
 10
95.98846590342613
 20
132.4230117313199
 30
0.0
 10
95.88631761893414
 20
132.6685943655926
 30
0.0
 10
95.81074117135097
 20
132.7852559029015
 30
0.0
 10
95.61024364020604
 20
133.007161093056
 30
0.0
 10
95.48511479869768
 20
133.111772346979
 30
0.0
 10
95.19575599767607
 20
133.3018187585871
 30
0.0
 10
95.03034501062061
 20
133.3885784300368
 30
0.0
 10
94.65735445247279
 20
133.5460828057883
 30
0.0
 10
94.45562141938369
 20
133.6144080705755
 30
0.0
 10
94.02276216855581
 20
133.7326377941947
 30
0.0
 10
93.78884363566644
 20
133.7829327102986
 30
0.0
 10
93.30465990052382
 20
133.8627982471882
 30
0.0
 10
93.05534427456831
 20
133.8925393749878
 30
0.0
 10
92.54231175014057
 20
133.932692116496
 30
0.0
 10
92.27701792723595
 20
133.9428903859059
 30
0.0
 10
91.75468330736621
 20
133.9429668442906
 30
0.0
 10
91.49492964488446
 20
133.9331758326816
 30
0.0
 10
90.97831782923923
 20
133.8931089939428
 30
0.0
 10
90.72595178873895
 20
133.863011827086
 30
0.0
 10
90.24442666720611
 20
133.7837896172558
 30
0.0
 10
90.01157593509255
 20
133.7340321377924
 30
0.0
 10
89.57448608665379
 20
133.614940195342
 30
0.0
 10
89.37316509799662
 20
133.5466249337948
 30
0.0
 10
89.00407907269671
 20
133.3912239668612
 30
0.0
 10
88.83509432164502
 20
133.3030716247943
 30
0.0
 10
88.5446382649858
 20
133.1126322356779
 30
0.0
 10
88.42156645362367
 20
133.0100076579789
 30
0.0
 10
88.22023021220166
 20
132.7883673113708
 30
0.0
 10
88.14301766625942
 20
132.6696132358233
 30
0.0
 10
88.04081412335935
 20
132.4249472969056
 30
0.0
 10
88.01458577190705
 20
132.297790571457
 30
0.0
 10
88.01410937258994
 20
132.0333424256015
 30
0.0
 10
88.03985178508792
 20
131.9004417453443
 30
0.0
 10
88.14116256145176
 20
131.6336494718623
 30
0.0
 10
88.2179952008427
 20
131.4982855703937
 30
0.0
 10
88.41839904005788
 20
131.2357057750911
 30
0.0
 10
88.54107053834991
 20
131.1087306153374
 30
0.0
 10
88.83101782751416
 20
130.8646512292549
 30
0.0
 10
88.9995888068794
 20
130.7472261045011
 30
0.0
 10
89.36785840099256
 20
130.5340296435527
 30
0.0
 10
89.56892025826288
 20
130.4368555251278
 30
0.0
 10
90.00595117684779
 20
130.2635006379136
 30
0.0
 10
90.2380993899774
 20
130.1891010862569
 30
0.0
 10
90.71910967147628
 20
130.0686482067523
 30
0.0
 10
90.9712097543067
 20
130.0217898314863
 30
0.0
 10
91.48827924056572
 20
129.9588323345025
 30
0.0
 10
91.74980061155833
 20
129.9429287252234
 30
0.0
 10
92.27889128887861
 20
129.9429287252234
 30
0.0
  0
LINE
  5
7B
330
1F
100
AcDbEntity
  8
0
  6
Continuous
 62
     7
370
    15
100
AcDbLine
 10
109.9643459502
 20
75.3236879299
 30
0.0
 11
109.9643459502
 21
124.7339653304
 31
0.0
  0
SPLINE
  5
7C
330
1F
100
AcDbEntity
  8
0
  6
Continuous
 62
     7
370
    15
100
AcDbSpline
210
0.0
220
0.0
230
1.0
 70
     8
 71
     3
 72
    10
 73
     6
 74
     0
 42
0.00000001
 43
0.00000001
 40
0.0
 40
0.0
 40
0.0
 40
0.0
 40
0.5
 40
0.5
 40
1.0
 40
1.0
 40
1.0
 40
1.0
 10
109.9643459502185
 20
75.32368792985145
 30
0.0
 10
109.9643459502184
 20
75.16380066165779
 30
0.0
 10
109.9030362989826
 20
75.00267340614317
 30
0.0
 10
109.6839366614475
 20
74.76857440778835
 30
0.0
 10
109.5258884551341
 20
74.69704763419713
 30
0.0
 10
109.3643459502185
 20
74.69704763419713
 30
0.0
  0
SPLINE
  5
7D
330
1F
100
AcDbEntity
  8
0
  6
Continuous
 62
     7
370
    15
100
AcDbSpline
210
0.0
220
0.0
230
1.0
 70
    24
 71
     3
 72
    12
 73
     8
 74
     0
 42
0.00000001
 43
0.00000001
 40
0.0
 40
0.0
 40
0.0
 40
0.0
 40
0.2500000000000013
 40
0.2500000000000013
 40
0.5000000000000027
 40
0.5000000000000027
 40
1.0
 40
1.0
 40
1.0
 40
1.0
 10
109.3643459502184
 20
124.7339653304443
 30
0.0
 10
109.4545850179055
 20
124.7339653304443
 30
0.0
 10
109.545483132012
 20
124.7339653304443
 30
0.0
 10
109.7000801685005
 20
124.7339653304443
 30
0.0
 10
109.7650585846086
 20
124.7339653304443
 30
0.0
 10
109.9168936125449
 20
124.7339653304443
 30
0.0
 10
109.9643459502185
 20
124.7339653304443
 30
0.0
 10
109.9643459502184
 20
124.7339653304443
 30
0.0
  0
LINE
  5
7E
330
1F
100
AcDbEntity
  8
0
  6
Continuous
 62
     7
370
    15
100
AcDbLine
 10
105.4062787817
 20
74.6970476342
 30
0.0
 11
105.4062787817
 21
124.7339653304
 31
0.0
  0
SPLINE
  5
7F
330
1F
100
AcDbEntity
  8
0
  6
Continuous
 62
     7
370
    15
100
AcDbSpline
210
0.0
220
0.0
230
1.0
 70
     8
 71
     3
 72
     8
 73
     4
 74
     0
 42
0.00000001
 43
0.00000001
 40
0.0
 40
0.0
 40
0.0
 40
0.0
 40
1.0
 40
1.0
 40
1.0
 40
1.0
 10
105.4062787817075
 20
74.69704763419713
 30
0.0
 10
104.9107991210418
 20
75.5925737221305
 30
0.0
 10
104.4166850729996
 20
76.48885813718275
 30
0.0
 10
103.9243459502185
 20
77.38612817138944
 30
0.0
  0
LINE
  5
80
330
1F
100
AcDbEntity
  8
0
  6
Continuous
 62
     7
370
    15
100
AcDbLine
 10
103.9243459502
 20
77.3861281714
 30
0.0
 11
103.9243459502
 21
124.7339653304
 31
0.0
  0
SPLINE
  5
81
330
1F
100
AcDbEntity
  8
0
  6
Continuous
 62
     7
370
    15
100
AcDbSpline
210
0.0
220
0.0
230
1.0
 70
    24
 71
     3
 72
     8
 73
     4
 74
     0
 42
0.00000001
 43
0.00000001
 40
0.0
 40
0.0
 40
0.0
 40
0.0
 40
1.0
 40
1.0
 40
1.0
 40
1.0
 10
103.9243459502185
 20
124.7339653304443
 30
0.0
 10
104.4042979445833
 20
124.7339653304443
 30
0.0
 10
104.899598673557
 20
124.7339653304443
 30
0.0
 10
105.4062787817075
 20
124.7339653304443
 30
0.0
  0
LINE
  5
82
330
1F
100
AcDbEntity
  8
0
  6
Continuous
 62
     7
370
    15
100
AcDbLine
 10
109.3643459502
 20
74.6970476342
 30
0.0
 11
105.4062787817
 21
74.6970476342
 31
0.0
  0
LINE
  5
83
330
1F
100
AcDbEntity
  8
0
  6
Continuous
 62
     7
370
    15
100
AcDbLine
 10
105.4062787817
 20
124.7339653304
 30
0.0
 11
109.3643459502
 21
124.7339653304
 31
0.0
  0
LINE
  5
84
330
1F
100
AcDbEntity
  8
0
  6
Continuous
 62
     7
370
    15
100
AcDbLine
 10
84.0143459502
 20
73.6839653304
 30
0.0
 11
84.0143459502
 21
136.0839653304
 31
0.0
  0
LINE
  5
85
330
1F
100
AcDbEntity
  8
0
  6
Continuous
 62
     7
370
    15
100
AcDbLine
 10
100.1043459502
 20
77.3861281714
 30
0.0
 11
100.1043459502
 21
124.7339653304
 31
0.0
  0
SPLINE
  5
86
330
1F
100
AcDbEntity
  8
0
  6
Continuous
 62
     7
370
    15
100
AcDbSpline
210
0.0
220
0.0
230
1.0
 70
     8
 71
     3
 72
     8
 73
     4
 74
     0
 42
0.00000001
 43
0.00000001
 40
0.0
 40
0.0
 40
0.0
 40
0.0
 40
1.0
 40
1.0
 40
1.0
 40
1.0
 10
100.1043459502185
 20
77.38612817138942
 30
0.0
 10
99.61200682743728
 20
76.48885813718272
 30
0.0
 10
99.11789277939515
 20
75.59257372213048
 30
0.0
 10
98.62241311872941
 20
74.69704763419713
 30
0.0
  0
SPLINE
  5
87
330
1F
100
AcDbEntity
  8
0
  6
Continuous
 62
     7
370
    15
100
AcDbSpline
210
0.0
220
0.0
230
1.0
 70
    24
 71
     3
 72
     8
 73
     4
 74
     0
 42
0.00000001
 43
0.00000001
 40
0.0
 40
0.0
 40
0.0
 40
0.0
 40
1.0
 40
1.0
 40
1.0
 40
1.0
 10
98.62241311872938
 20
124.7339653304443
 30
0.0
 10
99.12909322687993
 20
124.7339653304443
 30
0.0
 10
99.62439395585356
 20
124.7339653304443
 30
0.0
 10
100.1043459502185
 20
124.7339653304443
 30
0.0
  0
ARC
  5
88
330
1F
100
AcDbEntity
  8
0
  6
Continuous
 62
     7
370
    15
100
AcDbCircle
 10
92.011622366
 20
116.7911835707
 30
0.0
 40
4.113520338565315
100
AcDbArc
 50
19.6206971925
 51
159.0963838037
  0
SPLINE
  5
89
330
1F
100
AcDbEntity
  8
0
  6
Continuous
 62
     7
370
    15
100
AcDbSpline
210
0.0
220
0.0
230
1.0
 70
    24
 71
     3
 72
    14
 73
    10
 74
     0
 42
0.00000001
 43
0.00000001
 40
0.0
 40
0.0
 40
0.0
 40
0.0
 40
0.4999999999999989
 40
0.4999999999999989
 40
0.7499999999999994
 40
0.7499999999999994
 40
0.8749999999999997
 40
0.8749999999999997
 40
1.0
 40
1.0
 40
1.0
 40
1.0
 10
103.8266711478862
 20
78.48396533044428
 30
0.0
 10
103.779886442838
 20
78.48396533044429
 30
0.0
 10
103.7178352460583
 20
78.48396533044429
 30
0.0
 10
103.5744436075076
 20
78.48396533044429
 30
0.0
 10
103.5182999539565
 20
78.48396533044429
 30
0.0
 10
103.4053489318204
 20
78.48396533044428
 30
0.0
 10
103.3623481697823
 20
78.48396533044428
 30
0.0
 10
103.2582854594758
 20
78.48396533044428
 30
0.0
 10
103.1929532211189
 20
78.48396533044428
 30
0.0
 10
103.1243459502185
 20
78.48396533044428
 30
0.0
  0
SPLINE
  5
8A
330
1F
100
AcDbEntity
  8
0
  6
Continuous
 62
     7
370
    15
100
AcDbSpline
210
0.0
220
0.0
230
1.0
 70
    24
 71
     3
 72
    12
 73
     8
 74
     0
 42
0.00000001
 43
0.00000001
 40
0.0
 40
0.0
 40
0.0
 40
0.0
 40
0.4999999999999983
 40
0.4999999999999983
 40
0.7499999999999991
 40
0.7499999999999991
 40
1.0
 40
1.0
 40
1.0
 40
1.0
 10
103.5300484185275
 20
131.2839653304443
 30
0.0
 10
103.4869628689165
 20
131.2839653304443
 30
0.0
 10
103.4378106671661
 20
131.2839653304443
 30
0.0
 10
103.341338072879
 20
131.2839653304443
 30
0.0
 10
103.3052364877442
 20
131.2839653304443
 30
0.0
 10
103.2221307298836
 20
131.2839653304443
 30
0.0
 10
103.1741341329162
 20
131.2839653304443
 30
0.0
 10
103.1243459502185
 20
131.2839653304443
 30
0.0
  0
SPLINE
  5
8B
330
1F
100
AcDbEntity
  8
0
  6
Continuous
 62
     7
370
    15
100
AcDbSpline
210
0.0
220
0.0
230
1.0
 70
     8
 71
     3
 72
    10
 73
     6
 74
     0
 42
0.00000001
 43
0.00000001
 40
0.0
 40
0.0
 40
0.0
 40
0.0
 40
0.5
 40
0.5
 40
1.0
 40
1.0
 40
1.0
 40
1.0
 10
103.9243459502185
 20
132.00361918148
 30
0.0
 10
103.9243459502185
 20
131.8598491236621
 30
0.0
 10
103.8882968914996
 20
131.7174297611669
 30
0.0
 10
103.7527880307256
 20
131.4675354678097
 30
0.0
 10
103.6529120376294
 20
131.3595051315615
 30
0.0
 10
103.5300484185275
 20
131.2839653304443
 30
0.0
  0
SPLINE
  5
8C
330
1F
100
AcDbEntity
  8
0
  6
Continuous
 62
     7
370
    15
100
AcDbSpline
210
0.0
220
0.0
230
1.0
 70
     8
 71
     3
 72
    10
 73
     6
 74
     0
 42
0.00000001
 43
0.00000001
 40
0.0
 40
0.0
 40
0.0
 40
0.0
 40
0.5
 40
0.5
 40
1.0
 40
1.0
 40
1.0
 40
1.0
 10
103.8981983270583
 20
124.7339653304443
 30
0.0
 10
103.90688796997
 20
124.7808441797625
 30
0.0
 10
103.9134270347205
 20
124.8282666451638
 30
0.0
 10
103.9221856691135
 20
124.9242034437506
 30
0.0
 10
103.9243459502185
 20
124.9721187317611
 30
0.0
 10
103.9243459502185
 20
125.0198319619057
 30
0.0
  0
SPLINE
  5
8D
330
1F
100
AcDbEntity
  8
0
  6
Continuous
 62
     7
370
    15
100
AcDbSpline
210
0.0
220
0.0
230
1.0
 70
     8
 71
     3
 72
    10
 73
     6
 74
     0
 42
0.00000001
 43
0.00000001
 40
0.0
 40
0.0
 40
0.0
 40
0.0
 40
0.5
 40
0.5
 40
1.0
 40
1.0
 40
1.0
 40
1.0
 10
100.4986434819094
 20
131.2839653304443
 30
0.0
 10
100.3771032182409
 20
131.3586914976561
 30
0.0
 10
100.275768857892
 20
131.4676365135728
 30
0.0
 10
100.1401299150035
 20
131.7180669943344
 30
0.0
 10
100.1043459502185
 20
131.8604863564333
 30
0.0
 10
100.1043459502185
 20
132.0036191814801
 30
0.0
  0
SPLINE
  5
8E
330
1F
100
AcDbEntity
  8
0
  6
Continuous
 62
     7
370
    15
100
AcDbSpline
210
0.0
220
0.0
230
1.0
 70
    24
 71
     3
 72
    12
 73
     8
 74
     0
 42
0.00000001
 43
0.00000001
 40
0.0
 40
0.0
 40
0.0
 40
0.0
 40
0.2500000000000021
 40
0.2500000000000021
 40
0.5000000000000041
 40
0.5000000000000041
 40
1.0
 40
1.0
 40
1.0
 40
1.0
 10
100.9043459502185
 20
131.2839653304443
 30
0.0
 10
100.8544692679007
 20
131.2839653304443
 30
0.0
 10
100.8064660744975
 20
131.2839653304443
 30
0.0
 10
100.7234179717854
 20
131.2839653304443
 30
0.0
 10
100.6872883923176
 20
131.2839653304443
 30
0.0
 10
100.5913763613733
 20
131.2839653304443
 30
0.0
 10
100.5416176934046
 20
131.2839653304443
 30
0.0
 10
100.4986434819094
 20
131.2839653304443
 30
0.0
  0
SPLINE
  5
8F
330
1F
100
AcDbEntity
  8
0
  6
Continuous
 62
     7
370
    15
100
AcDbSpline
210
0.0
220
0.0
230
1.0
 70
    24
 71
     3
 72
    14
 73
    10
 74
     0
 42
0.00000001
 43
0.00000001
 40
0.0
 40
0.0
 40
0.0
 40
0.0
 40
0.1249999999999991
 40
0.1249999999999991
 40
0.2499999999999982
 40
0.2499999999999982
 40
0.4999999999999998
 40
0.4999999999999998
 40
1.0
 40
1.0
 40
1.0
 40
1.0
 10
100.9043459502185
 20
78.48396533044428
 30
0.0
 10
100.835908102332
 20
78.48396533044428
 30
0.0
 10
100.7703580635669
 20
78.48396533044429
 30
0.0
 10
100.6659314241591
 20
78.48396533044429
 30
0.0
 10
100.6233868143975
 20
78.48396533044429
 30
0.0
 10
100.5107773538574
 20
78.48396533044428
 30
0.0
 10
100.4552383068378
 20
78.48396533044428
 30
0.0
 10
100.312626611374
 20
78.48396533044428
 30
0.0
 10
100.2492212563783
 20
78.48396533044428
 30
0.0
 10
100.2020207525508
 20
78.48396533044428
 30
0.0
  0
SPLINE
  5
90
330
1F
100
AcDbEntity
  8
0
  6
Continuous
 62
     7
370
    15
100
AcDbSpline
210
0.0
220
0.0
230
1.0
 70
     8
 71
     3
 72
    10
 73
     6
 74
     0
 42
0.00000001
 43
0.00000001
 40
0.0
 40
0.0
 40
0.0
 40
0.0
 40
0.5
 40
0.5
 40
1.0
 40
1.0
 40
1.0
 40
1.0
 10
100.1043459502185
 20
125.0198319619057
 30
0.0
 10
100.1043459502185
 20
124.9720604539123
 30
0.0
 10
100.1065071938156
 20
124.9243507318507
 30
0.0
 10
100.1151785676758
 20
124.8290556143024
 30
0.0
 10
100.1217077506318
 20
124.7813630503358
 30
0.0
 10
100.1304935733786
 20
124.7339653304443
 30
0.0
  0
LINE
  5
91
330
1F
100
AcDbEntity
  8
0
  6
Continuous
 62
     7
370
    15
100
AcDbLine
 10
103.1243459502
 20
131.2839653304
 30
0.0
 11
100.9043459502
 21
131.2839653304
 31
0.0
  0
LINE
  5
92
330
1F
100
AcDbEntity
  8
0
  6
Continuous
 62
     7
370
    15
100
AcDbLine
 10
103.1243459502
 20
78.4839653304
 30
0.0
 11
100.9043459502
 21
78.4839653304
 31
0.0
  0
LINE
  5
93
330
1F
100
AcDbEntity
  8
0
  6
Continuous
 62
     7
370
    15
100
AcDbLine
 10
62.2143459502
 20
81.6555184367
 30
0.0
 11
62.2143459502
 21
82.9202277992
 31
0.0
  0
SPLINE
  5
94
330
1F
100
AcDbEntity
  8
0
  6
Continuous
 62
     7
370
    15
100
AcDbSpline
210
0.0
220
0.0
230
1.0
 70
     8
 71
     3
 72
    14
 73
    10
 74
     0
 42
0.00000001
 43
0.00000001
 40
0.0
 40
0.0
 40
0.0
 40
0.0
 40
0.25
 40
0.25
 40
0.5
 40
0.5
 40
0.75
 40
0.75
 40
1.0
 40
1.0
 40
1.0
 40
1.0
 10
61.43605883230276
 20
84.05081400688432
 30
0.0
 10
61.49268550750484
 20
83.94311655304746
 30
0.0
 10
61.58720816779456
 20
83.84032697132815
 30
0.0
 10
61.7702531433568
 20
83.641969659108
 30
0.0
 10
61.86187972031151
 20
83.54591015042975
 30
0.0
 10
62.02073303800471
 20
83.3583811077205
 30
0.0
 10
62.08862364562641
 20
83.26697213493695
 30
0.0
 10
62.185540671334
 20
83.0885959140268
 30
0.0
 10
62.21434595021905
 20
83.00137400778063
 30
0.0
 10
62.21434595021905
 20
82.92022779924638
 30
0.0
  0
SPLINE
  5
95
330
1F
100
AcDbEntity
  8
0
  6
Continuous
 62
     7
370
    15
100
AcDbSpline
210
0.0
220
0.0
230
1.0
 70
     8
 71
     3
 72
    14
 73
    10
 74
     0
 42
0.00000001
 43
0.00000001
 40
0.0
 40
0.0
 40
0.0
 40
0.0
 40
0.1250000000000004
 40
0.1250000000000004
 40
0.2500000000000009
 40
0.2500000000000009
 40
0.5000000000000018
 40
0.5000000000000018
 40
1.0
 40
1.0
 40
1.0
 40
1.0
 10
60.81434595021848
 20
84.49749586916363
 30
0.0
 10
60.86289035887564
 20
84.50324418244392
 30
0.0
 10
60.91580571366054
 20
84.50014329378769
 30
0.0
 10
61.01110105864358
 20
84.47794844962536
 30
0.0
 10
61.05135205592854
 20
84.46071622252951
 30
0.0
 10
61.1556220694415
 20
84.40438830607745
 30
0.0
 10
61.20594404459482
 20
84.36020196013165
 30
0.0
 10
61.33362699212019
 20
84.22919406128102
 30
0.0
 10
61.38971243918247
 20
84.13895954105074
 30
0.0
 10
61.43605883230421
 20
84.05081400688485
 30
0.0
  0
SPLINE
  5
96
330
1F
100
AcDbEntity
  8
0
  6
Continuous
 62
     7
370
    15
100
AcDbSpline
210
0.0
220
0.0
230
1.0
 70
     8
 71
     3
 72
     8
 73
     4
 74
     0
 42
0.00000001
 43
0.00000001
 40
0.0
 40
0.0
 40
0.0
 40
0.0
 40
1.0
 40
1.0
 40
1.0
 40
1.0
 10
58.5458208572722
 20
84.18765058258084
 30
0.0
 10
59.28039788375516
 20
84.3062755936498
 30
0.0
 10
60.04387295315083
 20
84.40626146578609
 30
0.0
 10
60.81434595021848
 20
84.49749586916363
 30
0.0
  0
SPLINE
  5
97
330
1F
100
AcDbEntity
  8
0
  6
Continuous
 62
     7
370
    15
100
AcDbSpline
210
0.0
220
0.0
230
1.0
 70
     8
 71
     3
 72
    14
 73
    10
 74
     0
 42
0.00000001
 43
0.00000001
 40
0.0
 40
0.0
 40
0.0
 40
0.0
 40
0.5000000000000001
 40
0.5000000000000001
 40
0.7500000000000002
 40
0.7500000000000002
 40
0.8750000000000001
 40
0.8750000000000001
 40
1.0
 40
1.0
 40
1.0
 40
1.0
 10
53.26434595021848
 20
84.0140275650492
 30
0.0
 10
54.15649208077205
 20
84.01330533884855
 30
0.0
 10
55.04646851656562
 20
84.01789154530601
 30
0.0
 10
56.37306368364121
 20
84.04561654969757
 30
0.0
 10
56.81391061213994
 20
84.05822308732174
 30
0.0
 10
57.47035084956235
 20
84.08923923532919
 30
0.0
 10
57.68836450615424
 20
84.10158240795596
 30
0.0
 10
58.12107335983699
 20
84.13460646311921
 30
0.0
 10
58.33634982500178
 20
84.15382362825767
 30
0.0
 10
58.54582085727218
 20
84.18765058258084
 30
0.0
  0
SPLINE
  5
98
330
1F
100
AcDbEntity
  8
0
  6
Continuous
 62
     7
370
    15
100
AcDbSpline
210
0.0
220
0.0
230
1.0
 70
     8
 71
     3
 72
     8
 73
     4
 74
     0
 42
0.00000001
 43
0.00000001
 40
0.0000005163856712
 40
0.0000005163856712
 40
0.0000005163856712
 40
0.0000005163856712
 40
0.000026289209185
 40
0.000026289209185
 40
0.000026289209185
 40
0.000026289209185
 10
53.25430101979979
 20
84.02401143815707
 30
0.0
 10
53.25762875801126
 20
84.02067719128425
 30
0.0
 10
53.26097721099056
 20
84.01734923400524
 30
0.0
 10
53.26434595021845
 20
84.01402756504919
 30
0.0
  0
SPLINE
  5
99
330
1F
100
AcDbEntity
  8
0
  6
Continuous
 62
     7
370
    15
100
AcDbSpline
210
0.0
220
0.0
230
1.0
 70
     8
 71
     3
 72
     8
 73
     4
 74
     0
 42
0.00000001
 43
0.00000001
 40
0.0000005099763573
 40
0.0000005099763573
 40
0.0000005099763573
 40
0.0000005099763573
 40
0.0000262827998699
 40
0.0000262827998699
 40
0.0000262827998699
 40
0.0000262827998699
 10
53.26434595021845
 20
125.7539030958394
 30
0.0
 10
53.26097721099071
 20
125.7505814268835
 30
0.0
 10
53.25762875801157
 20
125.7472534696046
 30
0.0
 10
53.25430101980025
 20
125.7439192227319
 30
0.0
  0
SPLINE
  5
9A
330
1F
100
AcDbEntity
  8
0
  6
Continuous
 62
     7
370
    15
100
AcDbSpline
210
0.0
220
0.0
230
1.0
 70
     8
 71
     3
 72
    10
 73
     6
 74
     0
 42
0.00000001
 43
0.00000001
 40
0.0
 40
0.0
 40
0.0
 40
0.0
 40
0.5
 40
0.5
 40
1.0
 40
1.0
 40
1.0
 40
1.0
 10
56.81434595021847
 20
125.707052722272
 30
0.0
 10
56.22676040312788
 20
125.7281182425084
 30
0.0
 10
55.6360140096675
 20
125.7388767283807
 30
0.0
 10
54.45199484436863
 20
125.7522415089163
 30
0.0
 10
53.85858085616317
 20
125.7543841515809
 30
0.0
 10
53.26434595021846
 20
125.7539030958394
 30
0.0
  0
SPLINE
  5
9B
330
1F
100
AcDbEntity
  8
0
  6
Continuous
 62
     7
370
    15
100
AcDbSpline
210
0.0
220
0.0
230
1.0
 70
     8
 71
     3
 72
    18
 73
    14
 74
     0
 42
0.00000001
 43
0.00000001
 40
0.0
 40
0.0
 40
0.0
 40
0.0
 40
0.2499999999999984
 40
0.2499999999999984
 40
0.4999999999999976
 40
0.4999999999999976
 40
0.7499999999999967
 40
0.7499999999999967
 40
0.8749999999999979
 40
0.8749999999999979
 40
0.937499999999999
 40
0.937499999999999
 40
1.0
 40
1.0
 40
1.0
 40
1.0
 10
58.21434595021849
 20
126.7280730028073
 30
0.0
 10
58.21434595021849
 20
126.6448660939501
 30
0.0
 10
58.17849685028022
 20
126.5561294386365
 30
0.0
 10
58.05362511424627
 20
126.3740042480763
 30
0.0
 10
57.96322469659842
 20
126.2788741994496
 30
0.0
 10
57.74098204185623
 20
126.0896926903253
 30
0.0
 10
57.61121725541048
 20
125.9947475222306
 30
0.0
 10
57.37057979809895
 20
125.8564688146507
 30
0.0
 10
57.28281249996152
 20
125.8107583813483
 30
0.0
 10
57.12828841275469
 20
125.7529350761268
 30
0.0
 10
57.07167752669995
 20
125.735220312089
 30
0.0
 10
56.94763349579336
 20
125.710681008856
 30
0.0
 10
56.87991882077506
 20
125.7047018703178
 30
0.0
 10
56.81434595021847
 20
125.707052722272
 30
0.0
  0
LINE
  5
9C
330
1F
100
AcDbEntity
  8
0
  6
Continuous
 62
     7
370
    15
100
AcDbLine
 10
58.2143459502
 20
126.7280730028
 30
0.0
 11
58.2143459502
 21
127.9120114226
 31
0.0
  0
LINE
  5
9D
330
1F
100
AcDbEntity
  8
0
  6
Continuous
 62
     7
370
    15
100
AcDbLine
 10
82.0143459502
 20
80.6635344687
 30
0.0
 11
82.0143459502
 21
129.1043961922
 31
0.0
  0
SPLINE
  5
9E
330
1F
100
AcDbEntity
  8
0
  6
Continuous
 62
     7
370
    15
100
AcDbSpline
210
0.0
220
0.0
230
1.0
 70
     8
 71
     3
 72
    18
 73
    14
 74
     0
 42
0.00000001
 43
0.00000001
 40
0.0
 40
0.0
 40
0.0
 40
0.0
 40
0.0010671296451831
 40
0.1270947795731633
 40
0.2524053457512758
 40
0.3766468878987075
 40
0.4391415999050405
 40
0.5008278021400039
 40
0.5624255708808992
 40
0.6253162439161173
 40
0.7499985144706733
 40
0.8752758950341271
 40
0.9999999999999999
 40
0.9999999999999999
 40
0.9999999999999999
 40
0.9999999999999999
 10
70.78464679029115
 20
81.22662630752794
 30
0.0
 10
70.78373495765264
 20
81.2265115289913
 30
0.0
 10
70.6751359990158
 20
81.21284144412532
 30
0.0
 10
71.06277706666545
 20
81.26376094474105
 30
0.0
 10
71.92874174850088
 20
81.36334411778734
 30
0.0
 10
73.12914567326958
 20
81.43246800093148
 30
0.0
 10
74.18672158775962
 20
81.43642023006934
 30
0.0
 10
75.01385567466518
 20
81.40893129161493
 30
0.0
 10
75.83912754230093
 20
81.3503911152078
 30
0.0
 10
76.89349276229906
 20
81.23686995547118
 30
0.0
 10
78.05532904377519
 20
81.05371913122309
 30
0.0
 10
79.00756382515844
 20
80.849115921588
 30
0.0
 10
79.13326888596636
 20
80.81983057081193
 30
0.0
 10
79.19598231811158
 20
80.80522030097127
 30
0.0
  0
SPLINE
  5
9F
330
1F
100
AcDbEntity
  8
0
  6
Continuous
 62
     7
370
    15
100
AcDbSpline
210
0.0
220
0.0
230
1.0
 70
     8
 71
     3
 72
    18
 73
    14
 74
     0
 42
0.00000001
 43
0.00000001
 40
0.0
 40
0.0
 40
0.0
 40
0.0
 40
0.1249080880615186
 40
0.2505384005827851
 40
0.3748721824256792
 40
0.4374907636253189
 40
0.4990776247952343
 40
0.5607931517551704
 40
0.6233901319009026
 40
0.747819101704548
 40
0.8731940972834111
 40
0.9991614619872062
 40
1.0
 40
1.0
 40
1.0
 40
1.0
 10
79.19576312111721
 20
128.962645085762
 30
0.0
 10
79.13200554351677
 20
128.9479796749209
 30
0.0
 10
79.00412173899338
 20
128.9185640571411
 30
0.0
 10
78.0520913916072
 20
128.7136090041717
 30
0.0
 10
76.89161211553399
 20
128.5303555980615
 30
0.0
 10
75.83934763920634
 20
128.417327977027
 30
0.0
 10
75.01512053688798
 20
128.3590643342447
 30
0.0
 10
74.18751673422027
 20
128.3316179485128
 30
0.0
 10
73.12869970347893
 20
128.3356027357501
 30
0.0
 10
71.92647977720429
 20
128.4046923580166
 30
0.0
 10
71.06130095847803
 20
128.5043179652776
 30
0.0
 10
70.67514775642623
 20
128.5551355597662
 30
0.0
 10
70.7832281696055
 20
128.541462323823
 30
0.0
 10
70.78394288030073
 20
128.5413719058862
 30
0.0
  0
SPLINE
  5
A0
330
1F
100
AcDbEntity
  8
0
  6
Continuous
 62
     7
370
    15
100
AcDbSpline
210
0.0
220
0.0
230
1.0
 70
     8
 71
     3
 72
    10
 73
     6
 74
     0
 42
0.00000001
 43
0.00000001
 40
0.0
 40
0.0
 40
0.0
 40
0.0
 40
0.5
 40
0.5
 40
1.0
 40
1.0
 40
1.0
 40
1.0
 10
52.1143459502178
 20
85.19328758396678
 30
0.0
 10
52.11434595021777
 20
85.16441331910738
 30
0.0
 10
52.12453985997886
 20
85.14690976272885
 30
0.0
 10
52.151290464787
 20
85.14637819990114
 30
0.0
 10
52.16817791671835
 20
85.16404565708068
 30
0.0
 10
52.17700932494188
 20
85.20941278566355
 30
0.0
  0
LINE
  5
A1
330
1F
100
AcDbEntity
  8
0
  6
Continuous
 62
     7
370
    15
100
AcDbLine
 10
52.1143459502
 20
85.193287584
 30
0.0
 11
52.1143459502
 21
124.5746430769
 31
0.0
  0
SPLINE
  5
A2
330
1F
100
AcDbEntity
  8
0
  6
Continuous
 62
     7
370
    15
100
AcDbSpline
210
0.0
220
0.0
230
1.0
 70
     8
 71
     3
 72
    10
 73
     6
 74
     0
 42
0.00000001
 43
0.00000001
 40
0.0
 40
0.0
 40
0.0
 40
0.0
 40
0.5
 40
0.5
 40
1.0
 40
1.0
 40
1.0
 40
1.0
 10
52.17700932494188
 20
124.558517875225
 30
0.0
 10
52.16810503583312
 20
124.6042593944382
 30
0.0
 10
52.15158965564014
 20
124.6214502339072
 30
0.0
 10
52.12448170957853
 20
124.6211269569715
 30
0.0
 10
52.11434595021846
 20
124.603249414675
 30
0.0
 10
52.11434595021846
 20
124.5746430769224
 30
0.0
  0
SPLINE
  5
A3
330
1F
100
AcDbEntity
  8
0
  6
Continuous
 62
     7
370
    15
100
AcDbSpline
210
0.0
220
0.0
230
1.0
 70
     8
 71
     3
 72
    26
 73
    22
 74
     0
 42
0.00000001
 43
0.00000001
 40
0.0
 40
0.0
 40
0.0
 40
0.0
 40
0.2499999999999942
 40
0.2499999999999942
 40
0.3749999999999899
 40
0.3749999999999899
 40
0.4374999999999888
 40
0.4374999999999888
 40
0.4687499999999888
 40
0.4687499999999888
 40
0.4999999999999888
 40
0.4999999999999888
 40
0.5312499999999887
 40
0.5312499999999887
 40
0.5624999999999887
 40
0.5624999999999887
 40
0.6249999999999912
 40
0.6249999999999912
 40
0.7499999999999942
 40
0.7499999999999942
 40
1.0
 40
1.0
 40
1.0
 40
1.0
 10
52.93849959632299
 20
125.2740846640421
 30
0.0
 10
52.89989907345452
 20
125.1563099676867
 30
0.0
 10
52.85360207090024
 20
125.0319202815247
 30
0.0
 10
52.75966272246632
 20
124.8267009491712
 30
0.0
 10
52.72435125555286
 20
124.7551280827248
 30
0.0
 10
52.65817127980718
 20
124.6391748501243
 30
0.0
 10
52.63363291313894
 20
124.5985903153141
 30
0.0
 10
52.59026016758514
 20
124.5344486334424
 30
0.0
 10
52.57475176615997
 20
124.5125822081573
 30
0.0
 10
52.53970912157293
 20
124.4669879398141
 30
0.0
 10
52.52015883085315
 20
124.4433176488467
 30
0.0
 10
52.47823155048253
 20
124.3987010895068
 30
0.0
 10
52.45557944025089
 20
124.3778210769889
 30
0.0
 10
52.41460572616427
 20
124.346947663238
 30
0.0
 10
52.39700642626887
 20
124.3371087934056
 30
0.0
 10
52.35237944041273
 20
124.3181191777095
 30
0.0
 10
52.33182021775939
 20
124.317794853056
 30
0.0
 10
52.28069477826272
 20
124.3270182939323
 30
0.0
 10
52.25978336527419
 20
124.3482651901492
 30
0.0
 10
52.20833345771325
 20
124.42223406898
 30
0.0
 10
52.19066815840868
 20
124.4883521622947
 30
0.0
 10
52.17700932494188
 20
124.558517875225
 30
0.0
  0
SPLINE
  5
A4
330
1F
100
AcDbEntity
  8
0
  6
Continuous
 62
     7
370
    15
100
AcDbSpline
210
0.0
220
0.0
230
1.0
 70
     8
 71
     3
 72
    10
 73
     6
 74
     0
 42
0.00000001
 43
0.00000001
 40
0.0
 40
0.0
 40
0.0
 40
0.0
 40
0.5
 40
0.5
 40
1.0
 40
1.0
 40
1.0
 40
1.0
 10
53.25430101980027
 20
125.7439192227319
 30
0.0
 10
53.18674176488203
 20
125.6762278299222
 30
0.0
 10
53.12310510954554
 20
125.6015206651685
 30
0.0
 10
53.01288435497367
 20
125.4425545327419
 30
0.0
 10
52.96606806175105
 20
125.3581992667339
 30
0.0
 10
52.93849959632299
 20
125.2740846640421
 30
0.0
  0
SPLINE
  5
A5
330
1F
100
AcDbEntity
  8
0
  6
Continuous
 62
     7
370
    15
100
AcDbSpline
210
0.0
220
0.0
230
1.0
 70
     8
 71
     3
 72
    10
 73
     6
 74
     0
 42
0.00000001
 43
0.00000001
 40
0.0
 40
0.0
 40
0.0
 40
0.0
 40
0.5
 40
0.5
 40
1.0
 40
1.0
 40
1.0
 40
1.0
 10
52.93849959632302
 20
84.49384599684632
 30
0.0
 10
52.96597701107623
 20
84.41000920038071
 30
0.0
 10
53.01268564136388
 20
84.32569871279388
 30
0.0
 10
53.12296410410585
 20
84.16657748231101
 30
0.0
 10
53.18685164271747
 20
84.09159273822294
 30
0.0
 10
53.2543010197998
 20
84.02401143815707
 30
0.0
  0
SPLINE
  5
A6
330
1F
100
AcDbEntity
  8
0
  6
Continuous
 62
     7
370
    15
100
AcDbSpline
210
0.0
220
0.0
230
1.0
 70
     8
 71
     3
 72
    24
 73
    20
 74
     0
 42
0.00000001
 43
0.00000001
 40
0.0
 40
0.0
 40
0.0
 40
0.0
 40
0.2499999999999893
 40
0.2499999999999893
 40
0.3749999999999847
 40
0.3749999999999847
 40
0.4374999999999823
 40
0.4374999999999823
 40
0.4687499999999816
 40
0.4687499999999816
 40
0.4999999999999808
 40
0.4999999999999808
 40
0.5624999999999839
 40
0.5624999999999839
 40
0.624999999999987
 40
0.624999999999987
 40
0.7499999999999907
 40
0.7499999999999907
 40
1.0
 40
1.0
 40
1.0
 40
1.0
 10
52.17700932494188
 20
85.20941278566355
 30
0.0
 10
52.19076244361209
 20
85.28006284365384
 30
0.0
 10
52.20853501101796
 20
85.34666095641875
 30
0.0
 10
52.26078610257334
 20
85.42075897665195
 30
0.0
 10
52.28182117815487
 20
85.44201678381351
 30
0.0
 10
52.33472158578331
 20
85.45016270995976
 30
0.0
 10
52.35582725866122
 20
85.44922290656399
 30
0.0
 10
52.40187942733917
 20
85.42820691498663
 30
0.0
 10
52.42024989932256
 20
85.41729810887904
 30
0.0
 10
52.46180153438827
 20
85.38466319793166
 30
0.0
 10
52.4843682071452
 20
85.36317121756029
 30
0.0
 10
52.54714922360523
 20
85.29470527397397
 30
0.0
 10
52.5802789845731
 20
85.24863081576889
 30
0.0
 10
52.63719667105812
 20
85.16362292743422
 30
0.0
 10
52.66138269656187
 20
85.12334262625284
 30
0.0
 10
52.72659064694166
 20
85.00840639978689
 30
0.0
 10
52.76130670713292
 20
84.93782341463988
 30
0.0
 10
52.85452197746379
 20
84.73361765556128
 30
0.0
 10
52.90019451282446
 20
84.61071927323391
 30
0.0
 10
52.93849959632302
 20
84.49384599684633
 30
0.0
  0
LINE
  5
A7
330
1F
100
AcDbEntity
  8
0
  6
Continuous
 62
     7
370
    15
100
AcDbLine
 10
109.3643459502
 20
135.3511608036
 30
0.0
 11
105.4062787817
 21
135.3511608036
 31
0.0
  0
LINE
  5
A8
330
1F
100
AcDbEntity
  8
0
  6
Continuous
 62
     7
370
    15
100
AcDbLine
 10
105.4062787817
 20
129.3426549928
 30
0.0
 11
109.3643459502
 21
129.3426549928
 31
0.0
  0
LINE
  5
A9
330
1F
100
AcDbEntity
  8
0
  6
Continuous
 62
     7
370
    15
100
AcDbLine
 10
105.4062787817
 20
129.3426549928
 30
0.0
 11
105.4062787817
 21
135.3511608036
 31
0.0
  0
SPLINE
  5
AA
330
1F
100
AcDbEntity
  8
0
  6
Continuous
 62
     7
370
    15
100
AcDbSpline
210
0.0
220
0.0
230
1.0
 70
     8
 71
     3
 72
     8
 73
     4
 74
     0
 42
0.00000001
 43
0.00000001
 40
0.0
 40
0.0
 40
0.0
 40
0.0
 40
1.0
 40
1.0
 40
1.0
 40
1.0
 10
105.4062787817075
 20
135.3511608036085
 30
0.0
 10
104.9111387523432
 20
134.4644811554282
 30
0.0
 10
104.4170560470642
 20
133.5772185197422
 30
0.0
 10
103.9243459502185
 20
132.6891995216159
 30
0.0
  0
SPLINE
  5
AB
330
1F
100
AcDbEntity
  8
0
  6
Continuous
 62
     7
370
    15
100
AcDbSpline
210
0.0
220
0.0
230
1.0
 70
     8
 71
     3
 72
     8
 73
     4
 74
     0
 42
0.00000001
 43
0.00000001
 40
0.0
 40
0.0
 40
0.0
 40
0.0
 40
1.0
 40
1.0
 40
1.0
 40
1.0
 10
103.9243459502185
 20
125.9341089980276
 30
0.0
 10
104.4036241008083
 20
127.0751202278802
 30
0.0
 10
104.8991919399482
 20
128.211504638648
 30
0.0
 10
105.4062787817075
 20
129.3426549928117
 30
0.0
  0
LINE
  5
AC
330
1F
100
AcDbEntity
  8
0
  6
Continuous
 62
     7
370
    15
100
AcDbLine
 10
103.9243459502
 20
125.934108998
 30
0.0
 11
103.9243459502
 21
132.6891995216
 31
0.0
  0
LINE
  5
AD
330
1F
100
AcDbEntity
  8
0
  6
Continuous
 62
     7
370
    15
100
AcDbLine
 10
103.9243459502
 20
125.0198319619
 30
0.0
 11
103.9243459502
 21
125.934108998
 31
0.0
  0
SPLINE
  5
AE
330
1F
100
AcDbEntity
  8
0
  6
Continuous
 62
     7
370
    15
100
AcDbSpline
210
0.0
220
0.0
230
1.0
 70
     8
 71
     3
 72
    12
 73
     8
 74
     0
 42
0.00000001
 43
0.00000001
 40
0.0
 40
0.0
 40
0.0
 40
0.0
 40
0.25
 40
0.25
 40
0.5
 40
0.5
 40
1.0
 40
1.0
 40
1.0
 40
1.0
 10
109.3643459502185
 20
129.3426549928117
 30
0.0
 10
109.4555456720441
 20
129.3426549928117
 30
0.0
 10
109.5461406811801
 20
129.3144352942238
 30
0.0
 10
109.6995534076268
 20
129.2199922869757
 30
0.0
 10
109.7647622749505
 20
129.1537053102704
 30
0.0
 10
109.9175468042904
 20
128.9280804869821
 30
0.0
 10
109.9643459502185
 20
128.7456542239496
 30
0.0
 10
109.9643459502185
 20
128.5649175917027
 30
0.0
  0
LINE
  5
AF
330
1F
100
AcDbEntity
  8
0
  6
Continuous
 62
     7
370
    15
100
AcDbLine
 10
109.9643459502
 20
128.5649175917
 30
0.0
 11
109.9643459502
 21
124.7339653304
 31
0.0
  0
SPLINE
  5
B0
330
1F
100
AcDbEntity
  8
0
  6
Continuous
 62
     7
370
    15
100
AcDbSpline
210
0.0
220
0.0
230
1.0
 70
     8
 71
     3
 72
     8
 73
     4
 74
     0
 42
0.00000001
 43
0.00000001
 40
0.0
 40
0.0
 40
0.0
 40
0.0
 40
1.0
 40
1.0
 40
1.0
 40
1.0
 10
100.1043459502185
 20
132.6891995216159
 30
0.0
 10
99.6116358533727
 20
133.5772185197423
 30
0.0
 10
99.11755314809373
 20
134.4644811554282
 30
0.0
 10
98.62241311872941
 20
135.3511608036085
 30
0.0
  0
LINE
  5
B1
330
1F
100
AcDbEntity
  8
0
  6
Continuous
 62
     7
370
    15
100
AcDbLine
 10
100.1043459502
 20
125.934108998
 30
0.0
 11
100.1043459502
 21
132.6891995216
 31
0.0
  0
SPLINE
  5
B2
330
1F
100
AcDbEntity
  8
0
  6
Continuous
 62
     7
370
    15
100
AcDbSpline
210
0.0
220
0.0
230
1.0
 70
     8
 71
     3
 72
     8
 73
     4
 74
     0
 42
0.00000001
 43
0.00000001
 40
0.0
 40
0.0
 40
0.0
 40
0.0
 40
1.0
 40
1.0
 40
1.0
 40
1.0
 10
98.62241311872941
 20
129.3426549928117
 30
0.0
 10
99.12949996048869
 20
128.211504638648
 30
0.0
 10
99.62506779962862
 20
127.0751202278802
 30
0.0
 10
100.1043459502185
 20
125.9341089980276
 30
0.0
  0
LINE
  5
B3
330
1F
100
AcDbEntity
  8
0
  6
Continuous
 62
     7
370
    15
100
AcDbLine
 10
100.1043459502
 20
125.934108998
 30
0.0
 11
100.1043459502
 21
125.0198319619
 31
0.0
  0
SPLINE
  5
B4
330
1F
100
AcDbEntity
  8
0
  6
Continuous
 62
     7
370
    15
100
AcDbSpline
210
0.0
220
0.0
230
1.0
 70
     8
 71
     3
 72
    10
 73
     6
 74
     0
 42
0.00000001
 43
0.00000001
 40
0.0
 40
0.0
 40
0.0
 40
0.0
 40
0.5
 40
0.5
 40
1.0
 40
1.0
 40
1.0
 40
1.0
 10
109.9643459502185
 20
134.7304056542082
 30
0.0
 10
109.9643459502184
 20
134.8908109205589
 30
0.0
 10
109.9021081191116
 20
135.0498727335476
 30
0.0
 10
109.682973195369
 20
135.2807851991779
 30
0.0
 10
109.5253845003772
 20
135.3511608036085
 30
0.0
 10
109.3643459502185
 20
135.3511608036085
 30
0.0
  0
LINE
  5
B5
330
1F
100
AcDbEntity
  8
0
  6
Continuous
 62
     7
370
    15
100
AcDbLine
 10
109.9643459502
 20
128.5649175917
 30
0.0
 11
109.9643459502
 21
134.7304056542
 31
0.0
  0
ARC
  5
B6
330
1F
100
AcDbEntity
  8
0
  6
Continuous
 62
     7
370
    15
100
AcDbCircle
 10
92.0142991802
 20
123.6527871805
 30
0.0
 40
7.189493853401755
100
AcDbArc
 50
70.6167057305
 51
109.3684161953
  0
LINE
  5
B7
330
1F
100
AcDbEntity
  8
0
  6
Continuous
 62
     7
370
    15
100
AcDbLine
 10
193.1895270055
 20
88.8839653304
 30
0.0
 11
193.1895270055
 21
120.8839653304
 31
0.0
  0
LINE
  5
B8
330
1F
100
AcDbEntity
  8
0
  6
Continuous
 62
     7
370
    15
100
AcDbLine
 10
153.6328728438
 20
120.7273081057
 30
0.0
 11
153.7568760363
 21
120.714496051
 31
0.0
  0
SPLINE
  5
B9
330
1F
100
AcDbEntity
  8
0
  6
Continuous
 62
     7
370
    15
100
AcDbSpline
210
0.0
220
0.0
230
1.0
 70
     8
 71
     3
 72
    37
 73
    33
 74
     0
 42
0.00000001
 43
0.00000001
 40
0.0
 40
0.0
 40
0.0
 40
0.0
 40
0.0251302166236492
 40
0.0473700142474381
 40
0.0882617970212024
 40
0.1302176618106951
 40
0.1736530388852174
 40
0.2180676314290907
 40
0.2427730493755816
 40
0.2928430354122307
 40
0.3182335700826384
 40
0.3465261813220466
 40
0.4039272994876255
 40
0.4330805613913289
 40
0.463968234229887
 40
0.4950591884081375
 40
0.526787778040997
 40
0.558736037222288
 40
0.590478978189336
 40
0.6224467816394517
 40
0.655141496544021
 40
0.6880968765599301
 40
0.7189936024845826
 40
0.7501350588704339
 40
0.782110349105235
 40
0.8144051187432068
 40
0.8374204781375122
 40
0.8841700888019839
 40
0.9079820327064477
 40
0.9310031574363281
 40
0.9779938054667527
 40
1.0
 40
1.0
 40
1.0
 40
1.0
 10
159.4547749876602
 20
120.8824490178997
 30
0.0
 10
159.4563377291329
 20
120.8826952816453
 30
0.0
 10
159.4592834691932
 20
120.883159484454
 30
0.0
 10
159.4106567853819
 20
120.8754817024289
 30
0.0
 10
159.3163294944907
 20
120.860793921976
 30
0.0
 10
159.1358570594536
 20
120.8337610201791
 30
0.0
 10
158.8920924152229
 20
120.7994300693022
 30
0.0
 10
158.6358280606665
 20
120.7663539665134
 30
0.0
 10
158.334381806362
 20
120.7308892190678
 30
0.0
 10
158.0559057948472
 20
120.7016409565563
 30
0.0
 10
157.7480542426207
 20
120.6740167306044
 30
0.0
 10
157.405365528039
 20
120.6470714835498
 30
0.0
 10
157.0325046965291
 20
120.6246584082351
 30
0.0
 10
156.6405050152659
 20
120.6091671176371
 30
0.0
 10
156.3319637350998
 20
120.6014109406721
 30
0.0
 10
156.0123132108782
 20
120.5982074495984
 30
0.0
 10
155.6886943514419
 20
120.5999498809798
 30
0.0
 10
155.3647380786115
 20
120.6067379607293
 30
0.0
 10
155.044128056349
 20
120.6183823230178
 30
0.0
 10
154.7274973377419
 20
120.6346384837145
 30
0.0
 10
154.4159644596916
 20
120.6552278003377
 30
0.0
 10
154.1195399494935
 20
120.6790608420754
 30
0.0
 10
153.8417186591219
 20
120.7050404644393
 30
0.0
 10
153.5825605647592
 20
120.7323674896707
 30
0.0
 10
153.3387096565915
 20
120.7608117400996
 30
0.0
 10
153.1363866968818
 20
120.7864957839128
 30
0.0
 10
152.9241303242207
 20
120.8150654997021
 30
0.0
 10
152.7600301527316
 20
120.8386842207852
 30
0.0
 10
152.6331020237112
 20
120.857727158562
 30
0.0
 10
152.5328801648343
 20
120.8731165486038
 30
0.0
 10
152.4721043740232
 20
120.8827348120442
 30
0.0
 10
152.4669290043832
 20
120.8835557520089
 30
0.0
 10
152.4652783463699
 20
120.8838175866652
 30
0.0
  0
SPLINE
  5
BA
330
1F
100
AcDbEntity
  8
0
  6
Continuous
 62
     7
370
    15
100
AcDbSpline
210
0.0
220
0.0
230
1.0
 70
     8
 71
     3
 72
    58
 73
    54
 74
     0
 42
0.00000001
 43
0.00000001
 40
-0.031249999999999
 40
-0.031249999999999
 40
0.0
 40
0.0
 40
0.0625000000000011
 40
0.0625000000000011
 40
0.0937500000000016
 40
0.0937500000000016
 40
0.1250000000000021
 40
0.1250000000000021
 40
0.1875000000000052
 40
0.1875000000000052
 40
0.2500000000000083
 40
0.2500000000000083
 40
0.2812500000000091
 40
0.2812500000000091
 40
0.3125000000000098
 40
0.3125000000000098
 40
0.3437500000000106
 40
0.3437500000000106
 40
0.3750000000000113
 40
0.3750000000000113
 40
0.4062500000000121
 40
0.4062500000000121
 40
0.4375000000000128
 40
0.4375000000000128
 40
0.4687500000000136
 40
0.4687500000000136
 40
0.5000000000000143
 40
0.5000000000000143
 40
0.5625000000000143
 40
0.5625000000000143
 40
0.5937500000000132
 40
0.5937500000000132
 40
0.6250000000000122
 40
0.6250000000000122
 40
0.6562500000000112
 40
0.6562500000000112
 40
0.6875000000000101
 40
0.6875000000000101
 40
0.7500000000000081
 40
0.7500000000000081
 40
0.8125000000000061
 40
0.8125000000000061
 40
0.8437500000000051
 40
0.8437500000000051
 40
0.8750000000000041
 40
0.8750000000000041
 40
0.9062500000000031
 40
0.9062500000000031
 40
0.937500000000002
 40
0.937500000000002
 40
0.968750000000001
 40
0.968750000000001
 40
1.0
 40
1.0
 40
1.062500000000001
 40
1.062500000000001
 10
153.4632353649055
 20
106.9865760535694
 30
0.0
 10
153.9721478054782
 20
107.3792220254464
 30
0.0
 10
154.3501981662081
 20
107.5726233218429
 30
0.0
 10
154.9617389508576
 20
107.7683344274852
 30
0.0
 10
155.1686394363535
 20
107.8160568087061
 30
0.0
 10
155.588255734364
 20
107.8783103648606
 30
0.0
 10
155.802382516629
 20
107.8927922964446
 30
0.0
 10
156.4440936180544
 20
107.8844641067777
 30
0.0
 10
156.8636020995477
 20
107.811860948951
 30
0.0
 10
157.6711803950406
 20
107.5296875253412
 30
0.0
 10
158.0420724752243
 20
107.3271136800646
 30
0.0
 10
158.5388898286457
 20
106.9202648144454
 30
0.0
 10
158.688840063564
 20
106.7715277147249
 30
0.0
 10
158.9562486360338
 20
106.4465946447787
 30
0.0
 10
159.0744077939376
 20
106.2692070081263
 30
0.0
 10
159.2695320072198
 20
105.8870752548172
 30
0.0
 10
159.3439067945818
 20
105.6879547545785
 30
0.0
 10
159.4433773697845
 20
105.272522647491
 30
0.0
 10
159.4673721300833
 20
105.0565619366972
 30
0.0
 10
159.4606928386082
 20
104.6315874686407
 30
0.0
 10
159.4299527568768
 20
104.4165777385595
 30
0.0
 10
159.3178041003686
 20
104.0041916041549
 30
0.0
 10
159.2374542884645
 20
103.8070572780189
 30
0.0
 10
159.0310029589442
 20
103.4297829976339
 30
0.0
 10
158.9082205168723
 20
103.2557462026816
 30
0.0
 10
158.6289696018861
 20
102.9344233286408
 30
0.0
 10
158.4713500934168
 20
102.7866818240891
 30
0.0
 10
157.9678869299347
 20
102.3959523493405
 30
0.0
 10
157.5813607479604
 20
102.1969864677638
 30
0.0
 10
156.9748787701056
 20
102.0017606745652
 30
0.0
 10
156.7658105970771
 20
101.95292831146
 30
0.0
 10
156.3418768915902
 20
101.8896372176703
 30
0.0
 10
156.1297237167899
 20
101.8753616690238
 30
0.0
 10
155.705057107244
 20
101.8803440114278
 30
0.0
 10
155.4912829916705
 20
101.8998320473948
 30
0.0
 10
155.0690259321998
 20
101.9733524864826
 30
0.0
 10
154.8635559859972
 20
102.0266346694078
 30
0.0
 10
154.2639173087473
 20
102.2357122145419
 30
0.0
 10
153.8816587928978
 20
102.4448707805286
 30
0.0
 10
153.2290750473451
 20
102.9792953824083
 30
0.0
 10
152.9477146342294
 20
103.314270671101
 30
0.0
 10
152.6581916477386
 20
103.8835024815448
 30
0.0
 10
152.5823285814903
 20
104.0877931684923
 30
0.0
 10
152.4844879093031
 20
104.5013854439683
 30
0.0
 10
152.4608850853107
 20
104.7136101472644
 30
0.0
 10
152.4686220303295
 20
105.1452959491314
 30
0.0
 10
152.4996304809237
 20
105.3561597961958
 30
0.0
 10
152.612622353945
 20
105.768551860745
 30
0.0
 10
152.6952767871795
 20
105.9693850762362
 30
0.0
 10
152.9007383527977
 20
106.3425500417374
 30
0.0
 10
153.0257461483896
 20
106.5192140431117
 30
0.0
 10
153.3068588186711
 20
106.8407154830026
 30
0.0
 10
153.4632353649055
 20
106.9865760535694
 30
0.0
 10
153.9721478054782
 20
107.3792220254464
 30
0.0
  0
SPLINE
  5
BB
330
1F
100
AcDbEntity
  8
0
  6
Continuous
 62
     7
370
    15
100
AcDbSpline
210
0.0
220
0.0
230
1.0
 70
     8
 71
     3
 72
     9
 73
     5
 74
     0
 42
0.00000001
 43
0.00000001
 40
0.0
 40
0.0
 40
0.0
 40
0.0
 40
0.8911173645968758
 40
0.9999999999999999
 40
0.9999999999999999
 40
0.9999999999999999
 40
0.9999999999999999
 10
153.6328728440913
 20
89.04062255517545
 30
0.0
 10
153.5609235804448
 20
89.03281150734628
 30
0.0
 10
153.4801830781216
 20
89.0240460538387
 30
0.0
 10
153.4123318751342
 20
89.01544918911524
 30
0.0
 10
153.4049440573377
 20
89.01451313982795
 30
0.0
  0
SPLINE
  5
BC
330
1F
100
AcDbEntity
  8
0
  6
Continuous
 62
     7
370
    15
100
AcDbSpline
210
0.0
220
0.0
230
1.0
 70
     8
 71
     3
 72
    39
 73
    35
 74
     0
 42
0.00000001
 43
0.00000001
 40
0.0
 40
0.0
 40
0.0
 40
0.0
 40
0.0073547206358401
 40
0.0302063484620349
 40
0.0506441193168067
 40
0.0921818343864808
 40
0.1133149170142147
 40
0.1558761277433882
 40
0.199414675929337
 40
0.2234094743312195
 40
0.2720359698940721
 40
0.2966913900121753
 40
0.3242827375123103
 40
0.3802444666252293
 40
0.4086549035013847
 40
0.4391514776004075
 40
0.4698453318575599
 40
0.5011547625482439
 40
0.5326749471021711
 40
0.5643729297601492
 40
0.5962920548772227
 40
0.6289205487168765
 40
0.6618007364164401
 40
0.6930362948119871
 40
0.724512307736805
 40
0.7567982421141035
 40
0.7893903801244968
 40
0.8132619843460108
 40
0.8617468488469918
 40
0.8864415440431899
 40
0.9103195869519868
 40
0.9590888967736928
 40
0.9840846516000986
 40
1.0
 40
1.0
 40
1.0
 40
1.0
 10
152.4700147995502
 20
88.88486184543947
 30
0.0
 10
152.4680981343915
 20
88.8845588265065
 30
0.0
 10
152.4602262574661
 20
88.88331430670301
 30
0.0
 10
152.4808008734508
 20
88.88657542954553
 30
0.0
 10
152.52475803278
 20
88.89349690323586
 30
0.0
 10
152.6061245614661
 20
88.90614422806486
 30
0.0
 10
152.7469549577667
 20
88.92729111687842
 30
0.0
 10
152.9296156039634
 20
88.95373694415804
 30
0.0
 10
153.16302529985
 20
88.98506993001801
 30
0.0
 10
153.4406333238082
 20
89.01943749482528
 30
0.0
 10
153.6990655232729
 20
89.04846585733728
 30
0.0
 10
153.9876266368526
 20
89.07678716429518
 30
0.0
 10
154.3112458292138
 20
89.10520202819419
 30
0.0
 10
154.6664229090132
 20
89.13022815792571
 30
0.0
 10
155.0438063718202
 20
89.1494168107861
 30
0.0
 10
155.3439060489558
 20
89.16052160401469
 30
0.0
 10
155.6576833197827
 20
89.16750414070718
 30
0.0
 10
155.9769711528279
 20
89.16977512355805
 30
0.0
 10
156.2996051393831
 20
89.16709641813964
 30
0.0
 10
156.6220451291602
 20
89.15944393046074
 30
0.0
 10
156.9436631411524
 20
89.14689043922696
 30
0.0
 10
157.2621666515555
 20
89.12963519830375
 30
0.0
 10
157.5688201882443
 20
89.10847623430828
 30
0.0
 10
157.8599697221101
 20
89.08436603803383
 30
0.0
 10
158.1353512476804
 20
89.05804433145933
 30
0.0
 10
158.3975140955393
 20
89.02981053120706
 30
0.0
 10
158.6201057715808
 20
89.00332484465093
 30
0.0
 10
158.8604411137879
 20
88.97264302198104
 30
0.0
 10
159.0531837933881
 20
88.94595874211473
 30
0.0
 10
159.2086735433859
 20
88.92326312864562
 30
0.0
 10
159.3382171879074
 20
88.90377396574549
 30
0.0
 10
159.4238697775696
 20
88.89037401484768
 30
0.0
 10
159.4613623997182
 20
88.88443917334665
 30
0.0
 10
159.4622764083796
 20
88.88429369222733
 30
0.0
 10
159.4626319785094
 20
88.8842370967675
 30
0.0
  0
LINE
  5
BD
330
1F
100
AcDbEntity
  8
0
  6
Continuous
 62
     7
370
    15
100
AcDbLine
 10
153.7511055835
 20
89.0530222342
 30
0.0
 11
153.6328728441
 21
89.0406225552
 31
0.0
  0
CIRCLE
  5
BE
330
1F
100
AcDbEntity
  8
0
  6
Continuous
 62
     7
370
    15
100
AcDbCircle
 10
155.9643459502
 20
104.8839653304
 30
0.0
 40
2.5
  0
LINE
  5
BF
330
1F
100
AcDbEntity
  8
0
  6
Continuous
 62
     7
370
    15
100
AcDbLine
 10
244.0143459502
 20
94.7327463138
 30
0.0
 11
244.0143459502
 21
115.0351841975
 31
0.0
  0
LINE
  5
C0
330
1F
100
AcDbEntity
  8
0
  6
Continuous
 62
     7
370
    15
100
AcDbLine
 10
244.043790812
 20
96.8851222222
 30
0.0
 11
244.0916681574
 21
95.6665624125
 31
0.0
  0
LINE
  5
C1
330
1F
100
AcDbEntity
  8
0
  6
Continuous
 62
     7
370
    15
100
AcDbLine
 10
244.0143459502
 20
97.6345439994
 30
0.0
 11
244.043790812
 21
96.8851222222
 31
0.0
  0
LINE
  5
C2
330
1F
100
AcDbEntity
  8
0
  6
Continuous
 62
     7
370
    15
100
AcDbLine
 10
244.0327784337
 20
114.1036820319
 30
0.0
 11
244.0143459502
 21
113.6345439994
 31
0.0
  0
LINE
  5
C3
330
1F
100
AcDbEntity
  8
0
  6
HIDDEN
 62
     7
370
     0
100
AcDbLine
 10
98.6224131187
 20
129.3426549928
 30
0.0
 11
98.6224131187
 21
124.7339653304
 31
0.0
  0
ARC
  5
C4
330
1F
100
AcDbEntity
  8
0
  6
HIDDEN
 62
     7
370
     0
100
AcDbCircle
 10
92.295318422
 20
117.3804202775
 30
0.0
 40
3.677290312352996
100
AcDbArc
 50
265.6179031648
 51
12.4383822962
  0
ARC
  5
C5
330
1F
100
AcDbEntity
  8
0
  6
HIDDEN
 62
     7
370
     0
100
AcDbCircle
 10
91.7302563939
 20
117.372840769
 30
0.0
 40
3.669972981963943
100
AcDbArc
 50
166.0291606888
 51
274.4396600647
  0
LINE
  5
C6
330
1F
100
AcDbEntity
  8
0
  6
HIDDEN
 62
     7
370
     0
100
AcDbLine
 10
72.0094961548
 20
81.3593657076
 30
0.0
 11
71.4753507257
 21
81.3047511081
 31
0.0
  0
LINE
  5
C7
330
1F
100
AcDbEntity
  8
0
  6
HIDDEN
 62
     7
370
     0
100
AcDbLine
 10
71.2355595286
 20
128.4875156984
 30
0.0
 11
72.0094034345
 21
128.4085483604
 31
0.0
  0
SPLINE
  5
C8
330
1F
100
AcDbEntity
  8
0
  6
HIDDEN
 62
     7
370
     0
100
AcDbSpline
210
0.0
220
0.0
230
1.0
 70
     8
 71
     3
 72
    12
 73
     8
 74
     0
 42
0.00000001
 43
0.00000001
 40
0.0
 40
0.0
 40
0.0
 40
0.0
 40
0.2208161107544601
 40
0.4480845733738268
 40
0.6689350611855505
 40
0.896126130380425
 40
1.0
 40
1.0
 40
1.0
 40
1.0
 10
77.76934795182007
 20
124.7214938062607
 30
0.0
 10
77.90139117467365
 20
124.7385508945749
 30
0.0
 10
78.16933598620531
 20
124.7731634874429
 30
0.0
 10
78.46449185158917
 20
124.8001354175439
 30
0.0
 10
78.66558499939119
 20
124.8156452026982
 30
0.0
 10
78.7629177380075
 20
124.8217545086784
 30
0.0
 10
78.75425820547706
 20
124.82120919718
 30
0.0
 10
78.75154121842233
 20
124.8210381019995
 30
0.0
  0
SPLINE
  5
C9
330
1F
100
AcDbEntity
  8
0
  6
HIDDEN
 62
     7
370
     0
100
AcDbSpline
210
0.0
220
0.0
230
1.0
 70
     8
 71
     3
 72
    13
 73
     9
 74
     0
 42
0.00000001
 43
0.00000001
 40
0.0
 40
0.0
 40
0.0
 40
0.0
 40
0.1180750907488117
 40
0.3464352951463178
 40
0.568666670248952
 40
0.7973952304757383
 40
0.8983997033241076
 40
0.9999999999999999
 40
0.9999999999999999
 40
0.9999999999999999
 40
0.9999999999999999
 10
78.75154118428888
 20
84.9468925610645
 30
0.0
 10
78.75367233036583
 20
84.94675583986702
 30
0.0
 10
78.75992516672181
 20
84.94635469642431
 30
0.0
 10
78.65493208634831
 20
84.95307991457692
 30
0.0
 10
78.44631589029572
 20
84.96906359543848
 30
0.0
 10
78.19254414314679
 20
84.99367764470989
 30
0.0
 10
77.95646558422166
 20
85.02126706095251
 30
0.0
 10
77.83184266041503
 20
85.03803049066872
 30
0.0
 10
77.76934795182007
 20
85.04643685462781
 30
0.0
  0
SPLINE
  5
CA
330
1F
100
AcDbEntity
  8
0
  6
HIDDEN
 62
     7
370
     0
100
AcDbSpline
210
0.0
220
0.0
230
1.0
 70
     8
 71
     3
 72
    22
 73
    18
 74
     0
 42
0.00000001
 43
0.00000001
 40
0.0
 40
0.0
 40
0.0
 40
0.0
 40
0.049904028112587
 40
0.120307586389353
 40
0.1885125365560117
 40
0.2586444168297176
 40
0.3277839407293142
 40
0.3988873214655086
 40
0.4686969488930325
 40
0.5405663748364741
 40
0.6097087891222995
 40
0.6809159691092483
 40
0.7490773369981696
 40
0.8192056085539678
 40
0.8876078379088238
 40
0.9579332867310412
 40
1.0
 40
1.0
 40
1.0
 40
1.0
 10
71.27431809187986
 20
124.8821005223626
 30
0.0
 10
71.27556902590536
 20
124.8818614919669
 30
0.0
 10
71.27858475146965
 20
124.8812852424922
 30
0.0
 10
71.40347807852316
 20
124.8580872076687
 30
0.0
 10
71.62795990640073
 20
124.8184071713511
 30
0.0
 10
71.94698806857825
 20
124.7661957499518
 30
0.0
 10
72.35452329957491
 20
124.7068659382796
 30
0.0
 10
72.83630985340785
 20
124.6473911617636
 30
0.0
 10
73.38672953520313
 20
124.5937848054016
 30
0.0
 10
73.97962442115137
 20
124.5533108869273
 30
0.0
 10
74.60657699146856
 20
124.530111638561
 30
0.0
 10
75.23478796529656
 20
124.5271335353461
 30
0.0
 10
75.85904805777359
 20
124.5442678610454
 30
0.0
 10
76.45166634760189
 20
124.5789537167354
 30
0.0
 10
77.00849243113005
 20
124.6279100803992
 30
0.0
 10
77.44629927576293
 20
124.6778102450224
 30
0.0
 10
77.68136598253584
 20
124.7095966340141
 30
0.0
 10
77.76934795182007
 20
124.7214938062607
 30
0.0
  0
SPLINE
  5
CB
330
1F
100
AcDbEntity
  8
0
  6
HIDDEN
 62
     7
370
     0
100
AcDbSpline
210
0.0
220
0.0
230
1.0
 70
     8
 71
     3
 72
    22
 73
    18
 74
     0
 42
0.00000001
 43
0.00000001
 40
0.0
 40
0.0
 40
0.0
 40
0.0
 40
0.069470503305567
 40
0.1409377255045835
 40
0.2104135489148408
 40
0.2819466223559928
 40
0.3506518733998512
 40
0.4213897814436844
 40
0.4894670043894698
 40
0.5594810940348492
 40
0.6282706827033765
 40
0.6989997382187427
 40
0.7687375408512301
 40
0.8405098102584778
 40
0.9099666189318144
 40
0.9814998892127903
 40
1.0
 40
1.0
 40
1.0
 40
1.0
 10
77.76934795182007
 20
85.04643685462781
 30
0.0
 10
77.62117409736071
 20
85.06616319443715
 30
0.0
 10
77.32056758044959
 20
85.10618284785792
 30
0.0
 10
76.78567271776883
 20
85.16155651138777
 30
0.0
 10
76.20003416510008
 20
85.2060128965156
 30
0.0
 10
75.58580150552673
 20
85.23369787196778
 30
0.0
 10
74.95188486015847
 20
85.24195112543761
 30
0.0
 10
74.32973615958667
 20
85.22997107055714
 30
0.0
 10
73.72373868972602
 20
85.19922031679617
 30
0.0
 10
73.15924976859951
 20
85.15375434604597
 30
0.0
 10
72.63987353101786
 20
85.0976731942464
 30
0.0
 10
72.18700803333641
 20
85.037683031928
 30
0.0
 10
71.80829288967074
 20
84.97970311756907
 30
0.0
 10
71.52020776859563
 20
84.93078430942256
 30
0.0
 10
71.337749872043
 20
84.89774894689681
 30
0.0
 10
71.25709192070894
 20
84.88260915064116
 30
0.0
 10
71.2713817994078
 20
84.88528110401418
 30
0.0
 10
71.27431809187986
 20
84.88583013852596
 30
0.0
  0
LINE
  5
CC
330
1F
100
AcDbEntity
  8
0
  6
HIDDEN
 62
     7
370
     0
100
AcDbLine
 10
65.0183205464
 20
87.8839653304
 30
0.0
 11
65.0183205464
 21
121.8839653304
 31
0.0
  0
LWPOLYLINE
  5
CD
330
1F
100
AcDbEntity
  8
0
  6
HIDDEN
 62
     7
370
     0
100
AcDbPolyline
 90
       12
 70
   128
 43
0.0
 10
92.0143459502
 20
126.8295677451
 10
92.9368094332
 20
126.8834780039
 10
93.809542671
 20
127.0423024644
 10
94.585496389
 20
127.2974788588
 10
95.2228387212
 20
127.6352505617
 10
95.6872103777
 20
128.037408213
 10
95.9535769623
 20
128.4822713898
 10
96.0075785833
 20
128.9458574029
 10
95.8463039995
 20
129.4031742105
 10
95.4784475654
 20
129.8295677451
 10
94.9238405165
 20
130.2020510208
 10
94.400392273
 20
130.4347766836
  0
LWPOLYLINE
  5
CE
330
1F
100
AcDbEntity
  8
0
  6
HIDDEN
 62
     7
370
     0
100
AcDbPolyline
 90
       12
 70
   128
 43
0.0
 10
89.6299672564
 20
130.4353960551
 10
89.1048513839
 20
130.2020510208
 10
88.5502443351
 20
129.8295677451
 10
88.182387901
 20
129.4031742105
 10
88.0211133171
 20
128.9458574029
 10
88.0751149382
 20
128.4822713898
 10
88.3414815227
 20
128.037408213
 10
88.8058531792
 20
127.6352505617
 10
89.4431955115
 20
127.2974788588
 10
90.2191492294
 20
127.0423024644
 10
91.0918824672
 20
126.8834780039
 10
92.0143459502
 20
126.8295677451
  0
SPLINE
  5
CF
330
1F
100
AcDbEntity
  8
0
  6
HIDDEN
 62
     7
370
     0
100
AcDbSpline
210
0.0
220
0.0
230
1.0
 70
     8
 71
     3
 72
    11
 73
     7
 74
     0
 42
0.00000001
 43
0.00000001
 40
0.0
 40
0.0
 40
0.0
 40
0.0
 40
0.000577986501074
 40
0.000577986501074
 40
0.000577986501074
 40
0.0011559733324211
 40
0.0011559733324211
 40
0.0011559733324211
 40
0.0011559733324211
 10
52.11434595021846
 20
106.8838059490709
 30
0.0
 10
52.2810132050245
 20
106.8818223095963
 30
0.0
 10
52.44767963470218
 20
106.8797847024622
 30
0.0
 10
52.61434597315398
 20
106.8776732389256
 30
0.0
 10
52.78101240198038
 20
106.875561774244
 30
0.0
 10
52.94767877561804
 20
106.8733762109589
 30
0.0
 10
53.11434595021846
 20
106.8710936334983
 30
0.0
  0
SPLINE
  5
D0
330
1F
100
AcDbEntity
  8
0
  6
HIDDEN
 62
     7
370
     0
100
AcDbSpline
210
0.0
220
0.0
230
1.0
 70
     8
 71
     3
 72
    11
 73
     7
 74
     0
 42
0.00000001
 43
0.00000001
 40
0.0
 40
0.0
 40
0.0
 40
0.0
 40
0.0005782382535738
 40
0.0005782382535738
 40
0.0005782382535738
 40
0.0011564766069466
 40
0.0011564766069466
 40
0.0011564766069466
 40
0.0011564766069466
 10
53.11434595021846
 20
102.8872650282272
 30
0.0
 10
52.94769199624982
 20
102.8868274504654
 30
0.0
 10
52.78103132404782
 20
102.8863473857928
 30
0.0
 10
52.61436443538239
 20
102.8858278464233
 30
0.0
 10
52.44769751698637
 20
102.8853083069611
 30
0.0
 10
52.28102438715318
 20
102.8847494779389
 30
0.0
 10
52.11434595021849
 20
102.8841639343556
 30
0.0
  0
LINE
  5
D1
330
1F
100
AcDbEntity
  8
0
  6
HIDDEN
 62
     7
370
     0
100
AcDbLine
 10
91.6741719188
 20
87.8839653304
 30
0.0
 11
91.6741719188
 21
121.8839653304
 31
0.0
  0
LINE
  5
D2
330
1F
100
AcDbEntity
  8
0
  6
HIDDEN
 62
     7
370
     0
100
AcDbLine
 10
93.9643459502
 20
89.1589653304
 30
0.0
 11
93.9643459502
 21
120.6089653304
 31
0.0
  0
SPLINE
  5
D3
330
1F
100
AcDbEntity
  8
0
  6
HIDDEN
 62
     7
370
     0
100
AcDbSpline
210
0.0
220
0.0
230
1.0
 70
     8
 71
     3
 72
    16
 73
    12
 74
     0
 42
0.00000001
 43
0.00000001
 40
0.0
 40
0.0
 40
0.0
 40
0.0
 40
0.1249999999999985
 40
0.1249999999999985
 40
0.249999999999997
 40
0.249999999999997
 40
0.499999999999998
 40
0.499999999999998
 40
0.749999999999999
 40
0.749999999999999
 40
1.0
 40
1.0
 40
1.0
 40
1.0
 10
60.81434595021848
 20
89.08247489441261
 30
0.0
 10
60.9094677048843
 20
89.08247489441261
 30
0.0
 10
61.00279777361238
 20
89.07865906101982
 30
0.0
 10
61.18605953435037
 20
89.06388850829
 30
0.0
 10
61.27693724990738
 20
89.05273046031442
 30
0.0
 10
61.53373894742711
 20
89.0102591901727
 30
0.0
 10
61.68880631229911
 20
88.9692129929699
 30
0.0
 10
61.94255277385374
 20
88.874066876388
 30
0.0
 10
62.0434232255216
 20
88.81930414230645
 30
0.0
 10
62.17866964021646
 20
88.70804301840256
 30
0.0
 10
62.21434595021847
 20
88.65087328107387
 30
0.0
 10
62.21434595021847
 20
88.59645170804015
 30
0.0
  0
SPLINE
  5
D4
330
1F
100
AcDbEntity
  8
0
  6
HIDDEN
 62
     7
370
     0
100
AcDbSpline
210
0.0
220
0.0
230
1.0
 70
     8
 71
     3
 72
     8
 73
     4
 74
     0
 42
0.00000001
 43
0.00000001
 40
0.0
 40
0.0
 40
0.0
 40
0.0
 40
1.0
 40
1.0
 40
1.0
 40
1.0
 10
53.41434595044907
 20
91.22727784049486
 30
0.0
 10
53.41434595045099
 20
90.34338069817794
 30
0.0
 10
53.40086532453881
 20
89.62879745311598
 30
0.0
 10
53.39951395634769
 20
89.08247489441263
 30
0.0
  0
LINE
  5
D5
330
1F
100
AcDbEntity
  8
0
  6
HIDDEN
 62
     7
370
     0
100
AcDbLine
 10
53.1143459502
 20
95.2831385456
 30
0.0
 11
53.1143459502
 21
92.2521881001
 31
0.0
  0
LINE
  5
D6
330
1F
100
AcDbEntity
  8
0
  6
HIDDEN
 62
     7
370
     0
100
AcDbLine
 10
53.4143459502
 20
108.488598952
 30
0.0
 11
53.4143459502
 21
96.6509789548
 31
0.0
  0
SPLINE
  5
D7
330
1F
100
AcDbEntity
  8
0
  6
HIDDEN
 62
     7
370
     0
100
AcDbSpline
210
0.0
220
0.0
230
1.0
 70
     8
 71
     3
 72
     8
 73
     4
 74
     0
 42
0.00000001
 43
0.00000001
 40
0.0
 40
0.0
 40
0.0
 40
0.0
 40
1.0
 40
1.0
 40
1.0
 40
1.0
 10
53.11434595021846
 20
114.490904643776
 30
0.0
 10
53.29537741490221
 20
114.05879716035
 30
0.0
 10
53.41434595021613
 20
113.6046517567567
 30
0.0
 10
53.41434595021038
 20
113.1169517060562
 30
0.0
  0
LINE
  5
D8
330
1F
100
AcDbEntity
  8
0
  6
HIDDEN
 62
     7
370
     0
100
AcDbLine
 10
53.1143459502
 20
117.5241076441
 30
0.0
 11
53.1143459502
 21
114.4909046438
 31
0.0
  0
SPLINE
  5
D9
330
1F
100
AcDbEntity
  8
0
  6
HIDDEN
 62
     7
370
     0
100
AcDbSpline
210
0.0
220
0.0
230
1.0
 70
     8
 71
     3
 72
    10
 73
     6
 74
     0
 42
0.00000001
 43
0.00000001
 40
0.0
 40
0.0
 40
0.0
 40
0.0
 40
0.5
 40
0.5
 40
1.0
 40
1.0
 40
1.0
 40
1.0
 10
53.41434595023046
 20
118.5406528203641
 30
0.0
 10
53.41434595022868
 20
118.3760164747936
 30
0.0
 10
53.38718727981341
 20
118.2088612520304
 30
0.0
 10
53.28142228578992
 20
117.8702382464153
 30
0.0
 10
53.20500749829021
 20
117.6979664702796
 30
0.0
 10
53.11434595021846
 20
117.5241076440523
 30
0.0
  0
SPLINE
  5
DA
330
1F
100
AcDbEntity
  8
0
  6
HIDDEN
 62
     7
370
     0
100
AcDbSpline
210
0.0
220
0.0
230
1.0
 70
     8
 71
     3
 72
    18
 73
    14
 74
     0
 42
0.00000001
 43
0.00000001
 40
0.0
 40
0.0
 40
0.0
 40
0.0
 40
0.2499999999999999
 40
0.2499999999999999
 40
0.3749999999999992
 40
0.3749999999999992
 40
0.4999999999999984
 40
0.4999999999999984
 40
0.6249999999999978
 40
0.6249999999999978
 40
0.749999999999997
 40
0.749999999999997
 40
1.0
 40
1.0
 40
1.0
 40
1.0
 10
58.21434595021847
 20
121.1714789528484
 30
0.0
 10
58.21434595021846
 20
121.1170044322962
 30
0.0
 10
58.1794352588263
 20
121.0606233729437
 30
0.0
 10
58.07742595749325
 20
120.9765465320902
 30
0.0
 10
58.03578960281514
 20
120.9492128280993
 30
0.0
 10
57.93738380732638
 20
120.8962589125004
 30
0.0
 10
57.87984059562211
 20
120.8703715587832
 30
0.0
 10
57.75254242204914
 20
120.8225940139499
 30
0.0
 10
57.68295511729168
 20
120.800646095772
 30
0.0
 10
57.53152087213674
 20
120.7612135308593
 30
0.0
 10
57.44883696904278
 20
120.7436572816334
 30
0.0
 10
57.19272550700473
 20
120.7012185162129
 30
0.0
 10
57.00481050311674
 20
120.6854557664759
 30
0.0
 10
56.81434595021847
 20
120.6854557664759
 30
0.0
  0
LINE
  5
DB
330
1F
100
AcDbEntity
  8
0
  6
HIDDEN
 62
     7
370
     0
100
AcDbLine
 10
56.8143459502
 20
120.6854557665
 30
0.0
 11
53.4143459502
 21
120.6854557665
 31
0.0
  0
LINE
  5
DC
330
1F
100
AcDbEntity
  8
0
  6
HIDDEN
 62
     7
370
     0
100
AcDbLine
 10
53.3453769636
 20
89.0824748944
 30
0.0
 11
60.8143459502
 21
89.0824748944
 31
0.0
  0
SPLINE
  5
DD
330
1F
100
AcDbEntity
  8
0
  6
HIDDEN
 62
     7
370
     0
100
AcDbSpline
210
0.0
220
0.0
230
1.0
 70
     8
 71
     3
 72
    22
 73
    18
 74
     0
 42
0.00000001
 43
0.00000001
 40
0.0
 40
0.0
 40
0.0
 40
0.0
 40
0.1250000000000001
 40
0.1250000000000001
 40
0.2500000000000001
 40
0.2500000000000001
 40
0.5
 40
0.5
 40
0.5625
 40
0.5625
 40
0.6249999999999999
 40
0.6249999999999999
 40
0.75
 40
0.75
 40
0.875
 40
0.875
 40
1.0
 40
1.0
 40
1.0
 40
1.0
 10
53.34537696357634
 20
89.08247489441263
 30
0.0
 10
53.33229457084798
 20
89.33758060456029
 30
0.0
 10
53.31907500740818
 20
89.63073886366419
 30
0.0
 10
53.29662782961406
 20
90.293039329289
 30
0.0
 10
53.28714936258959
 20
90.66331324990038
 30
0.0
 10
53.26795140165305
 20
91.88587005301417
 30
0.0
 10
53.26906517464994
 20
92.82300897914604
 30
0.0
 10
53.28797596760301
 20
94.14288020866103
 30
0.0
 10
53.292605495462
 20
94.41438211763733
 30
0.0
 10
53.30308671520796
 20
94.97276695243963
 30
0.0
 10
53.30888197649239
 20
95.25988980837926
 30
0.0
 10
53.32719119739732
 20
96.13247906275093
 30
0.0
 10
53.3412261316777
 20
96.7329347391068
 30
0.0
 10
53.37068330381452
 20
97.97040923160286
 30
0.0
 10
53.38623899479608
 20
98.60742538824631
 30
0.0
 10
53.41003354479297
 20
99.91891398593087
 30
0.0
 10
53.41805259693832
 20
100.5950365975914
 30
0.0
 10
53.41434595021846
 20
101.2793317088762
 30
0.0
  0
LINE
  5
DE
330
1F
100
AcDbEntity
  8
0
  6
HIDDEN
 62
     7
370
     0
100
AcDbLine
 10
53.4143459502
 20
108.488598952
 30
0.0
 11
53.4143459502
 21
120.6854557665
 31
0.0
  0
SPLINE
  5
DF
330
1F
100
AcDbEntity
  8
0
  6
HIDDEN
 62
     7
370
     0
100
AcDbSpline
210
0.0
220
0.0
230
1.0
 70
     8
 71
     3
 72
    10
 73
     6
 74
     0
 42
0.00000001
 43
0.00000001
 40
0.0
 40
0.0
 40
0.0
 40
0.0
 40
0.5
 40
0.5
 40
1.0
 40
1.0
 40
1.0
 40
1.0
 10
53.41434595021842
 20
101.2793317088611
 30
0.0
 10
53.41434595021824
 20
101.5532468569354
 30
0.0
 10
53.38858672034957
 20
101.8241884356652
 30
0.0
 10
53.28538078761623
 20
102.3598795172677
 30
0.0
 10
53.20804262374176
 20
102.6256263207897
 30
0.0
 10
53.11434595021846
 20
102.8872650282272
 30
0.0
  0
SPLINE
  5
E0
330
1F
100
AcDbEntity
  8
0
  6
HIDDEN
 62
     7
370
     0
100
AcDbSpline
210
0.0
220
0.0
230
1.0
 70
     8
 71
     3
 72
    10
 73
     6
 74
     0
 42
0.00000001
 43
0.00000001
 40
0.0
 40
0.0
 40
0.0
 40
0.0
 40
0.5
 40
0.5
 40
1.0
 40
1.0
 40
1.0
 40
1.0
 10
53.11434595021845
 20
106.8710936334983
 30
0.0
 10
53.20757653054055
 20
107.1349874400658
 30
0.0
 10
53.28260614204977
 20
107.4011677491314
 30
0.0
 10
53.38767323999613
 20
107.9394903208822
 30
0.0
 10
53.41434595022923
 20
108.2122384354624
 30
0.0
 10
53.41434595023043
 20
108.4885989520114
 30
0.0
  0
LINE
  5
E1
330
1F
100
AcDbEntity
  8
0
  6
HIDDEN
 62
     7
370
     0
100
AcDbLine
 10
53.1143459502
 20
102.8872650282
 30
0.0
 11
53.1143459502
 21
106.8710936335
 31
0.0
  0
LINE
  5
E2
330
1F
100
AcDbEntity
  8
0
  6
HIDDEN
 62
     7
370
     0
100
AcDbLine
 10
53.2643459502
 20
86.8939653304
 30
0.0
 11
53.2643459502
 21
84.014027565
 31
0.0
  0
LINE
  5
E3
330
1F
100
AcDbEntity
  8
0
  6
HIDDEN
 62
     7
370
     0
100
AcDbLine
 10
62.2143459502
 20
86.8939653304
 30
0.0
 11
62.2143459502
 21
82.9202277992
 31
0.0
  0
LINE
  5
E4
330
1F
100
AcDbEntity
  8
0
  6
HIDDEN
 62
     7
370
     0
100
AcDbLine
 10
53.2643459502
 20
122.8739653304
 30
0.0
 11
53.2643459502
 21
125.7539030958
 31
0.0
  0
LINE
  5
E5
330
1F
100
AcDbEntity
  8
0
  6
HIDDEN
 62
     7
370
     0
100
AcDbLine
 10
58.2143459502
 20
122.8739653304
 30
0.0
 11
58.2143459502
 21
126.7280730028
 31
0.0
  0
LINE
  5
E6
330
1F
100
AcDbEntity
  8
0
  6
HIDDEN
 62
     7
370
     0
100
AcDbLine
 10
102.8143459502
 20
95.3839653304
 30
0.0
 11
102.8143459502
 21
114.3839653304
 31
0.0
  0
LINE
  5
E7
330
1F
100
AcDbEntity
  8
0
  6
HIDDEN
 62
     7
370
     0
100
AcDbLine
 10
105.8143459502
 20
95.3839653304
 30
0.0
 11
105.8143459502
 21
114.3839653304
 31
0.0
  0
LINE
  5
E8
330
1F
100
AcDbEntity
  8
0
  6
HIDDEN
 62
     7
370
     0
100
AcDbLine
 10
109.9643459502
 20
78.4839653304
 30
0.0
 11
103.8266711479
 21
78.4839653304
 31
0.0
  0
LINE
  5
E9
330
1F
100
AcDbEntity
  8
0
  6
HIDDEN
 62
     7
370
     0
100
AcDbLine
 10
94.4643459502
 20
96.3839653304
 30
0.0
 11
94.4643459502
 21
113.3839653304
 31
0.0
  0
LINE
  5
EA
330
1F
100
AcDbEntity
  8
0
  6
HIDDEN
 62
     7
370
     0
100
AcDbLine
 10
100.2020207526
 20
78.4839653304
 30
0.0
 11
96.9643459502
 21
78.4839653304
 31
0.0
  0
LINE
  5
EB
330
1F
100
AcDbEntity
  8
0
  6
HIDDEN
 62
     7
370
     0
100
AcDbLine
 10
88.9643459502
 20
73.3998423476
 30
0.0
 11
88.9643459502
 21
78.4839653304
 31
0.0
  0
LINE
  5
EC
330
1F
100
AcDbEntity
  8
0
  6
HIDDEN
 62
     7
370
     0
100
AcDbLine
 10
96.9643459502
 20
78.4839653304
 30
0.0
 11
88.9643459502
 21
78.4839653304
 31
0.0
  0
LINE
  5
ED
330
1F
100
AcDbEntity
  8
0
  6
HIDDEN
 62
     7
370
     0
100
AcDbLine
 10
109.9643459502
 20
131.2839653304
 30
0.0
 11
103.5300484185
 21
131.2839653304
 31
0.0
  0
LINE
  5
EE
330
1F
100
AcDbEntity
  8
0
  6
HIDDEN
 62
     7
370
     0
100
AcDbLine
 10
100.4986434819
 20
131.2839653304
 30
0.0
 11
96.9643459502
 21
131.2839653304
 31
0.0
  0
LINE
  5
EF
330
1F
100
AcDbEntity
  8
0
  6
HIDDEN
 62
     7
370
     0
100
AcDbLine
 10
96.9643459502
 20
131.2839653304
 30
0.0
 11
88.9643459502
 21
131.2839653304
 31
0.0
  0
SPLINE
  5
F0
330
1F
100
AcDbEntity
  8
0
  6
HIDDEN
 62
     7
370
     0
100
AcDbSpline
210
0.0
220
0.0
230
1.0
 70
     8
 71
     3
 72
    11
 73
     7
 74
     0
 42
0.00000001
 43
0.00000001
 40
0.0
 40
0.0
 40
0.0
 40
0.0
 40
0.0008203708524183
 40
0.0008203708524183
 40
0.0008203708524183
 40
0.0016409967870155
 40
0.0016409967870155
 40
0.0016409967870155
 40
0.0016409967870155
 10
53.26434595021848
 20
89.03193257980158
 30
0.0
 10
53.07318764991981
 20
88.99075355118242
 30
0.0
 10
52.88176057984763
 20
88.95199957895242
 30
0.0
 10
52.690114956327
 20
88.91563181967388
 30
0.0
 10
52.49840955124655
 20
88.87925271590784
 30
0.0
 10
52.3064705991876
 20
88.8452584651403
 30
0.0
 10
52.11434595211678
 20
88.81361033974908
 30
0.0
  0
ELLIPSE
  5
F1
330
1F
100
AcDbEntity
  8
0
  6
HIDDEN
 62
     7
370
     0
100
AcDbEllipse
 10
47.8719140861
 20
104.8839653304
 30
0.0
 11
20.19992452871121
 21
-1.421085471520200E-14
 31
0.0
210
0.0
220
0.0
230
1.0
 40
0.8164965809
 41
1.3005663548785
 42
1.359198697382092
  0
LINE
  5
F2
330
1F
100
AcDbEntity
  8
0
  6
HIDDEN
 62
     7
370
     0
100
AcDbLine
 10
62.2143459502
 20
86.8939653304
 30
0.0
 11
62.2143459502
 21
88.596451708
 31
0.0
  0
LINE
  5
F3
330
1F
100
AcDbEntity
  8
0
  6
HIDDEN
 62
     7
370
     0
100
AcDbLine
 10
53.2643459502
 20
86.8939653304
 30
0.0
 11
53.2643459502
 21
89.0319325798
 31
0.0
  0
LINE
  5
F4
330
1F
100
AcDbEntity
  8
0
  6
HIDDEN
 62
     7
370
     0
100
AcDbLine
 10
53.3453769636
 20
89.0824748944
 30
0.0
 11
53.2643459502
 21
89.0319325798
 31
0.0
  0
LINE
  5
F5
330
1F
100
AcDbEntity
  8
0
  6
HIDDEN
 62
     7
370
     0
100
AcDbLine
 10
58.2143459502
 20
122.8739653304
 30
0.0
 11
58.2143459502
 21
121.1714789528
 31
0.0
  0
LINE
  5
F6
330
1F
100
AcDbEntity
  8
0
  6
HIDDEN
 62
     7
370
     0
100
AcDbLine
 10
53.2643459502
 20
122.8739653304
 30
0.0
 11
53.2643459502
 21
120.7785897794
 31
0.0
  0
SPLINE
  5
F7
330
1F
100
AcDbEntity
  8
0
  6
HIDDEN
 62
     7
370
     0
100
AcDbSpline
210
0.0
220
0.0
230
1.0
 70
     8
 71
     3
 72
     8
 73
     4
 74
     0
 42
0.00000001
 43
0.00000001
 40
0.0
 40
0.0
 40
0.0
 40
0.0
 40
1.0
 40
1.0
 40
1.0
 40
1.0
 10
53.26434595021846
 20
120.7785897793917
 30
0.0
 10
53.31435144803486
 20
120.7475540058759
 30
0.0
 10
53.36435151757217
 20
120.7165093615521
 30
0.0
 10
53.41434595023046
 20
120.6854557664759
 30
0.0
  0
LINE
  5
F8
330
1F
100
AcDbEntity
  8
0
  6
HIDDEN
 62
     7
370
     0
100
AcDbLine
 10
240.5143459502
 20
99.8839653304
 30
0.0
 11
240.5143459502
 21
109.8839653304
 31
0.0
  0
SPLINE
  5
F9
330
1F
100
AcDbEntity
  8
0
  6
HIDDEN
 62
     7
370
     0
100
AcDbSpline
210
0.0
220
0.0
230
1.0
 70
     8
 71
     3
 72
    17
 73
    13
 74
     0
 42
0.00000001
 43
0.00000001
 40
0.0
 40
0.0
 40
0.0
 40
0.0
 40
0.1029003775096868
 40
0.2088649274801665
 40
0.3117436565763863
 40
0.4174672306314366
 40
0.5229650528762577
 40
0.6314095129410042
 40
0.738691209971357
 40
0.8492405839286671
 40
0.9537383451346102
 40
1.0
 40
1.0
 40
1.0
 40
1.0
 10
204.5143459502185
 20
109.9672713412998
 30
0.0
 10
204.5955824564618
 20
109.9684091230827
 30
0.0
 10
204.7604745335937
 20
109.97071856757
 30
0.0
 10
204.9994931642228
 20
109.988741313898
 30
0.0
 10
205.2266287774193
 20
110.0153926007598
 30
0.0
 10
205.433731873206
 20
110.0485448470314
 30
0.0
 10
205.6189899035162
 20
110.0850134845578
 30
0.0
 10
205.7743418133049
 20
110.1205211219079
 30
0.0
 10
205.8970661749821
 20
110.1516755268249
 30
0.0
 10
205.9763206310274
 20
110.1732246042222
 30
0.0
 10
206.0143827489873
 20
110.1839744715963
 30
0.0
 10
206.0102898122227
 20
110.182819094791
 30
0.0
 10
206.0090338639515
 20
110.1824645587732
 30
0.0
  0
LINE
  5
FA
330
1F
100
AcDbEntity
  8
0
  6
HIDDEN
 62
     7
370
     0
100
AcDbLine
 10
204.624740797
 20
109.9699036555
 30
0.0
 11
204.4989403586
 21
109.9676108941
 31
0.0
  0
SPLINE
  5
FB
330
1F
100
AcDbEntity
  8
0
  6
HIDDEN
 62
     7
370
     0
100
AcDbSpline
210
0.0
220
0.0
230
1.0
 70
     8
 71
     3
 72
    17
 73
    13
 74
     0
 42
0.00000001
 43
0.00000001
 40
0.0
 40
0.0
 40
0.0
 40
0.0
 40
0.0699347432071672
 40
0.1755084928048092
 40
0.2772783482571685
 40
0.3818405248814604
 40
0.4866085079501073
 40
0.5942644635702304
 40
0.701573217752679
 40
0.8121002947477611
 40
0.9049416487452187
 40
1.0
 40
1.0
 40
1.0
 40
1.0
 10
203.0186057137525
 20
110.1827622773239
 30
0.0
 10
203.0186936293672
 20
110.1827354826819
 30
0.0
 10
203.0189142627222
 20
110.1826682387483
 30
0.0
 10
203.0652163703593
 20
110.1696603093609
 30
0.0
 10
203.1500287695282
 20
110.1468716411902
 30
0.0
 10
203.2716679249924
 20
110.1163807482591
 30
0.0
 10
203.4284075545276
 20
110.08105774282
 30
0.0
 10
203.6165359196959
 20
110.0446667685632
 30
0.0
 10
203.8339059489412
 20
110.010892903662
 30
0.0
 10
204.0611310163489
 20
109.9858432695787
 30
0.0
 10
204.2909844751933
 20
109.9701507109395
 30
0.0
 10
204.4393087739959
 20
109.9682386512043
 30
0.0
 10
204.5143459502185
 20
109.9672713412998
 30
0.0
  0
SPLINE
  5
FC
330
1F
100
AcDbEntity
  8
0
  6
HIDDEN
 62
     7
370
     0
100
AcDbSpline
210
0.0
220
0.0
230
1.0
 70
     8
 71
     3
 72
    26
 73
    22
 74
     0
 42
0.00000001
 43
0.00000001
 40
0.0
 40
0.0
 40
0.0
 40
0.0
 40
0.0515002071229698
 40
0.104529369036799
 40
0.1560200192976385
 40
0.2089406319056926
 40
0.2616328246352728
 40
0.3157930593095639
 40
0.3694519113851828
 40
0.4247430590262179
 40
0.4770253680685906
 40
0.5309250526567216
 40
0.5816085817981838
 40
0.6337302604790848
 40
0.6850879945363517
 40
0.7378326729494215
 40
0.7910524461529069
 40
0.845795508871017
 40
0.8992376035135204
 40
0.9543306614834732
 40
1.0
 40
1.0
 40
1.0
 40
1.0
 10
206.0143459502185
 20
99.58396533044429
 30
0.0
 10
206.0105104767608
 20
99.58505734999336
 30
0.0
 10
206.0027256610699
 20
99.58727380932078
 30
0.0
 10
205.9402381978782
 20
99.60464962199286
 30
0.0
 10
205.8418071844028
 20
99.6305807503072
 30
0.0
 10
205.707557162855
 20
99.66318970193022
 30
0.0
 10
205.5388152292377
 20
99.6994937997029
 30
0.0
 10
205.340577611463
 20
99.73537295996944
 30
0.0
 10
205.1149788725837
 20
99.76708749334306
 30
0.0
 10
204.873675932112
 20
99.78998380458893
 30
0.0
 10
204.6211372928379
 20
99.80162050858758
 30
0.0
 10
204.3724412339517
 20
99.80068827822407
 30
0.0
 10
204.1284355294504
 20
99.78784094078287
 30
0.0
 10
203.8991129067709
 20
99.76516065120184
 30
0.0
 10
203.6838805630468
 20
99.73459081360669
 30
0.0
 10
203.4896921598258
 20
99.6994452831525
 30
0.0
 10
203.31978431142
 20
99.66291436353629
 30
0.0
 10
203.1823290516313
 20
99.62944647141809
 30
0.0
 10
203.0824597933763
 20
99.60302837419734
 30
0.0
 10
203.0234479666256
 20
99.5865538335978
 30
0.0
 10
203.0186056145728
 20
99.5851730801955
 30
0.0
 10
203.0164108770236
 20
99.584547270402
 30
0.0
  0
LINE
  5
FD
330
1F
100
AcDbEntity
  8
0
  6
HIDDEN
 62
     7
370
     0
100
AcDbLine
 10
202.5143459502
 20
99.9839653304
 30
0.0
 11
202.5143459502
 21
109.7839653304
 31
0.0
  0
LINE
  5
FE
330
1F
100
AcDbEntity
  8
0
  6
HIDDEN
 62
     7
370
     0
100
AcDbLine
 10
213.0143459502
 20
99.8839653304
 30
0.0
 11
213.0143459502
 21
109.8839653304
 31
0.0
  0
SPLINE
  5
FF
330
1F
100
AcDbEntity
  8
0
  6
HIDDEN
 62
     7
370
     0
100
AcDbSpline
210
0.0
220
0.0
230
1.0
 70
     8
 71
     3
 72
    20
 73
    16
 74
     0
 42
0.00000001
 43
0.00000001
 40
0.0
 40
0.0
 40
0.0
 40
0.0
 40
0.1119595197697403
 40
0.1774767634657198
 40
0.2490961890178592
 40
0.329842231515121
 40
0.3986125823958296
 40
0.4998893016460016
 40
0.6138510292917251
 40
0.6790150176695212
 40
0.7495394203319203
 40
0.8296829944361284
 40
0.898124628546775
 40
0.9995320175861881
 40
0.9999999999999999
 40
0.9999999999999999
 40
0.9999999999999999
 40
0.9999999999999999
 10
78.76318640008141
 20
81.28397156867636
 30
0.0
 10
78.71986266178179
 20
81.29740088671741
 30
0.0
 10
78.65118643960373
 20
81.3186888656796
 30
0.0
 10
78.20600731355032
 20
81.42199967732468
 30
0.0
 10
77.67944902986855
 20
81.53530290738323
 30
0.0
 10
76.99402400871165
 20
81.65823577517433
 30
0.0
 10
76.10070661140317
 20
81.78027023435658
 30
0.0
 10
74.9873472243237
 20
81.89800654214304
 30
0.0
 10
73.87657314374574
 20
81.90998204450874
 30
0.0
 10
72.99182484182911
 20
81.88292375437959
 30
0.0
 10
72.3246282471154
 20
81.8349916899766
 30
0.0
 10
71.78335574483535
 20
81.77869817761575
 30
0.0
 10
71.39577578581357
 20
81.73361526698203
 30
0.0
 10
71.20183926579524
 20
81.69474209227646
 30
0.0
 10
71.26494172600678
 20
81.70544814951549
 30
0.0
 10
71.26523159824211
 20
81.70549732967
 30
0.0
  0
LINE
  5
100
330
1F
100
AcDbEntity
  8
0
  6
HIDDEN
 62
     7
370
     0
100
AcDbLine
 10
72.1743578646
 20
81.8163034741
 30
0.0
 11
72.3582031757
 21
81.8344928164
 31
0.0
  0
LINE
  5
101
330
1F
100
AcDbEntity
  8
0
  6
HIDDEN
 62
     7
370
     0
100
AcDbLine
 10
72.3582004773
 20
127.9333684132
 30
0.0
 11
72.1841271969
 21
127.9505779392
 31
0.0
  0
SPLINE
  5
102
330
1F
100
AcDbEntity
  8
0
  6
HIDDEN
 62
     7
370
     0
100
AcDbSpline
210
0.0
220
0.0
230
1.0
 70
     8
 71
     3
 72
    20
 73
    16
 74
     0
 42
0.00000001
 43
0.00000001
 40
0.0
 40
0.0
 40
0.0
 40
0.0
 40
0.0004889684280482
 40
0.1018319933902445
 40
0.1702475582132129
 40
0.2503692056770098
 40
0.3209568221784361
 40
0.3861816196705448
 40
0.5002554836816774
 40
0.6012243489286591
 40
0.6697680558629565
 40
0.750240190758037
 40
0.8220490693851168
 40
0.8877204546109287
 40
1.0
 40
1.0
 40
1.0
 40
1.0
 10
71.2652649830037
 20
128.0623667846368
 30
0.0
 10
71.26496134200676
 20
128.062418371787
 30
0.0
 10
71.20172542283478
 20
128.0731618514
 30
0.0
 10
71.3949294566341
 20
128.0343058607432
 30
0.0
 10
71.78187651153247
 20
127.9892823703381
 30
0.0
 10
72.32288343486134
 20
127.9330194082449
 30
0.0
 10
72.9903836963259
 20
127.8850882156508
 30
0.0
 10
73.87621154767729
 20
127.8580147599221
 30
0.0
 10
74.98701811976407
 20
127.8698407634994
 30
0.0
 10
76.09908848578884
 20
127.9872898386533
 30
0.0
 10
76.99018879198853
 20
128.1089942268935
 30
0.0
 10
77.67567324281343
 20
128.2318152724706
 30
0.0
 10
78.20366114236029
 20
128.3452535241559
 30
0.0
 10
78.65104509384432
 20
128.4489940797967
 30
0.0
 10
78.71985556019531
 20
128.4704168730702
 30
0.0
 10
78.76327206750553
 20
128.4839337537148
 30
0.0
  0
LINE
  5
103
330
1F
100
AcDbEntity
  8
0
  6
HIDDEN
 62
     7
370
     0
100
AcDbLine
 10
182.1143459502
 20
100.6839653304
 30
0.0
 11
182.1143459502
 21
109.0839653304
 31
0.0
  0
LINE
  5
104
330
1F
100
AcDbEntity
  8
0
  6
HIDDEN
 62
     7
370
     0
100
AcDbLine
 10
182.5349483835
 20
101.3839653304
 30
0.0
 11
182.5349483835
 21
108.3839653304
 31
0.0
  0
LINE
  5
105
330
1F
100
AcDbEntity
  8
0
  6
HIDDEN
 62
     7
370
     0
100
AcDbLine
 10
202.0143459502
 20
101.3839653304
 30
0.0
 11
202.0143459502
 21
108.3839653304
 31
0.0
  0
LINE
  5
106
330
1F
100
AcDbEntity
  8
0
  6
HIDDEN
 62
     7
370
     0
100
AcDbLine
 10
158.4643459502
 20
89.4613155996
 30
0.0
 11
153.4643459502
 21
89.4613155996
 31
0.0
  0
LINE
  5
107
330
1F
100
AcDbEntity
  8
0
  6
HIDDEN
 62
     7
370
     0
100
AcDbLine
 10
155.9643459502
 20
120.3066150613
 30
0.0
 11
158.4643459502
 21
120.3066150613
 31
0.0
  0
LINE
  5
108
330
1F
100
AcDbEntity
  8
0
  6
HIDDEN
 62
     7
370
     0
100
AcDbLine
 10
153.4643459502
 20
120.3066150613
 30
0.0
 11
155.9643459502
 21
120.3066150613
 31
0.0
  0
LINE
  5
109
330
1F
100
AcDbEntity
  8
0
  6
HIDDEN
 62
     7
370
     0
100
AcDbLine
 10
155.9643459502
 20
111.8839653304
 30
0.0
 11
158.4643459502
 21
111.8839653304
 31
0.0
  0
LINE
  5
10A
330
1F
100
AcDbEntity
  8
0
  6
HIDDEN
 62
     7
370
     0
100
AcDbLine
 10
153.4643459502
 20
111.8839653304
 30
0.0
 11
155.9643459502
 21
111.8839653304
 31
0.0
  0
LINE
  5
10B
330
1F
100
AcDbEntity
  8
0
  6
HIDDEN
 62
     7
370
     0
100
AcDbLine
 10
158.4643459502
 20
97.8839653304
 30
0.0
 11
153.4643459502
 21
97.8839653304
 31
0.0
  0
LWPOLYLINE
  5
10C
330
1F
100
AcDbEntity
  8
0
  6
HIDDEN
 62
     7
370
     0
100
AcDbPolyline
 90
       18
 70
   128
 43
0.0
 10
206.0111267677
 20
94.1437335937
 10
205.9819288857
 20
94.1778246928
 10
205.8852244255
 20
94.2933262574
 10
205.7928376081
 20
94.4083270533
 10
205.6847869667
 20
94.5512609458
 10
205.5732725066
 20
94.7144489776
 10
205.4650338392
 20
94.9039112288
 10
205.3680104816
 20
95.1623059314
 10
205.3443085984
 20
95.4012222939
 10
205.3862815624
 20
95.6362350094
 10
205.4528483885
 20
95.8088631531
 10
205.5369960324
 20
95.9712406591
 10
205.6623292067
 20
96.1716787113
 10
205.7881280698
 20
96.3497639907
 10
205.9397457214
 20
96.5483289907
 10
206.0072562786
 20
96.6331040745
 10
206.0143459502
 20
96.6419057124
 10
206.0143459502
 20
96.6419057124
  0
LINE
  5
10D
330
1F
100
AcDbEntity
  8
0
  6
HIDDEN
 62
     7
370
     0
100
AcDbLine
 10
204.5143459502
 20
93.8839653304
 30
0.0
 11
206.0143459502
 21
93.8839653304
 31
0.0
  0
LINE
  5
10E
330
1F
100
AcDbEntity
  8
0
  6
HIDDEN
 62
     7
370
     0
100
AcDbLine
 10
203.0143459502
 20
93.8839653304
 30
0.0
 11
204.5143459502
 21
93.8839653304
 31
0.0
  0
SPLINE
  5
10F
330
1F
100
AcDbEntity
  8
0
  6
HIDDEN
 62
     7
370
     0
100
AcDbSpline
210
0.0
220
0.0
230
1.0
 70
     8
 71
     3
 72
     9
 73
     5
 74
     0
 42
0.00000001
 43
0.00000001
 40
0.0
 40
0.0
 40
0.0
 40
0.0
 40
0.8844958450006738
 40
1.0
 40
1.0
 40
1.0
 40
1.0
 10
203.0913577954649
 20
94.11874639255386
 30
0.0
 10
203.0478094079301
 20
94.1352872788456
 30
0.0
 10
202.9985741426871
 20
94.15398819913281
 30
0.0
 10
203.0192352530342
 20
94.14672198687711
 30
0.0
 10
203.0216216971262
 20
94.14588270917046
 30
0.0
  0
SPLINE
  5
110
330
1F
100
AcDbEntity
  8
0
  6
HIDDEN
 62
     7
370
     0
100
AcDbSpline
210
0.0
220
0.0
230
1.0
 70
     8
 71
     3
 72
    17
 73
    13
 74
     0
 42
0.00000001
 43
0.00000001
 40
0.0
 40
0.0
 40
0.0
 40
0.0
 40
0.1250020474046656
 40
0.2491126808702079
 40
0.3531939411940622
 40
0.4233917031003246
 40
0.4940211291524622
 40
0.5812001629487056
 40
0.7163993277610581
 40
0.8545987210207858
 40
0.9504966716084127
 40
1.0
 40
1.0
 40
1.0
 40
1.0
 10
203.0913577954649
 20
94.11874639255385
 30
0.0
 10
203.1462035622839
 20
94.18912980271108
 30
0.0
 10
203.2555039800796
 20
94.32939470522344
 30
0.0
 10
203.470317060996
 20
94.6400934570233
 30
0.0
 10
203.6296261696882
 20
94.94904772910789
 30
0.0
 10
203.6977033518302
 20
95.2447399179711
 30
0.0
 10
203.6690540862984
 20
95.52990660134084
 30
0.0
 10
203.529177214433
 20
95.85241544288407
 30
0.0
 10
203.30387892267
 20
96.17502226822711
 30
0.0
 10
203.1116805034019
 20
96.41056795985573
 30
0.0
 10
203.0174889071429
 20
96.52039759952113
 30
0.0
 10
203.0229811206703
 20
96.51399311748727
 30
0.0
 10
203.0248510000259
 20
96.51181264713979
 30
0.0
  0
SPLINE
  5
111
330
1F
100
AcDbEntity
  8
0
  6
HIDDEN
 62
     7
370
     0
100
AcDbSpline
210
0.0
220
0.0
230
1.0
 70
     8
 71
     3
 72
    23
 73
    19
 74
     0
 42
0.00000001
 43
0.00000001
 40
0.0
 40
0.0
 40
0.0
 40
0.0
 40
0.0836711452412594
 40
0.1669670145748521
 40
0.224309982645294
 40
0.2832946732816732
 40
0.3419543751334537
 40
0.4020846727875629
 40
0.4681027110220938
 40
0.534790078737804
 40
0.5917868126990763
 40
0.6414129224069138
 40
0.6923654590757258
 40
0.7987982992318465
 40
0.8951124472230967
 40
0.942882323931596
 40
0.9925639663361749
 40
1.0
 40
1.0
 40
1.0
 40
1.0
 10
206.0143459502185
 20
113.126024948482
 30
0.0
 10
206.0061441280433
 20
113.1361411747811
 30
0.0
 10
205.9897772699262
 20
113.1563282547961
 30
0.0
 10
205.8852055895904
 20
113.2883371684808
 30
0.0
 10
205.7702354047298
 20
113.4410785345798
 30
0.0
 10
205.6574157563206
 20
113.6005443790337
 30
0.0
 10
205.5406758167107
 20
113.7840196263848
 30
0.0
 10
205.4285971077533
 20
113.9975794020635
 30
0.0
 10
205.3427148301813
 20
114.2498444420366
 30
0.0
 10
205.3383277610028
 20
114.5222152140773
 30
0.0
 10
205.4085480999227
 20
114.752239562205
 30
0.0
 10
205.5009226972317
 20
114.9386676594005
 30
0.0
 10
205.6379332791292
 20
115.1586356800412
 30
0.0
 10
205.809763953454
 20
115.3845477159788
 30
0.0
 10
205.9429772862987
 20
115.544469103683
 30
0.0
 10
205.9974654879194
 20
115.6083512838287
 30
0.0
 10
206.0205332774283
 20
115.6351769811022
 30
0.0
 10
206.01221031691
 20
115.6254618590611
 30
0.0
 10
206.0111267676682
 20
115.6241970671522
 30
0.0
  0
SPLINE
  5
112
330
1F
100
AcDbEntity
  8
0
  6
HIDDEN
 62
     7
370
     0
100
AcDbSpline
210
0.0
220
0.0
230
1.0
 70
     8
 71
     3
 72
     9
 73
     5
 74
     0
 42
0.00000001
 43
0.00000001
 40
0.0
 40
0.0
 40
0.0
 40
0.0
 40
0.8118227762721584
 40
1.0
 40
1.0
 40
1.0
 40
1.0
 10
203.0216216971262
 20
115.6220479517181
 30
0.0
 10
203.0270429904822
 20
115.6222934278806
 30
0.0
 10
203.033720917629
 20
115.622595804421
 30
0.0
 10
203.0822295716285
 20
115.6449733280621
 30
0.0
 10
203.0913577954649
 20
115.6491842683347
 30
0.0
  0
SPLINE
  5
113
330
1F
100
AcDbEntity
  8
0
  6
HIDDEN
 62
     7
370
     0
100
AcDbSpline
210
0.0
220
0.0
230
1.0
 70
     8
 71
     3
 72
    18
 73
    14
 74
     0
 42
0.00000001
 43
0.00000001
 40
0.0
 40
0.0
 40
0.0
 40
0.0
 40
0.0466971613279819
 40
0.1363769787593156
 40
0.2326306798296313
 40
0.3475043521259657
 40
0.4621478747803833
 40
0.533052483602777
 40
0.6044611993155027
 40
0.689271942414716
 40
0.8263072955290774
 40
0.9686572885092685
 40
1.0
 40
1.0
 40
1.0
 40
1.0
 10
203.0248510000259
 20
113.2561180137488
 30
0.0
 10
203.0227150660899
 20
113.2536280404688
 30
0.0
 10
203.0164771662106
 20
113.2463561844617
 30
0.0
 10
203.0904865483545
 20
113.3326359469582
 30
0.0
 10
203.2300188094038
 20
113.5017164768883
 30
0.0
 10
203.4249741474377
 20
113.7597758375869
 30
0.0
 10
203.6017121674001
 20
114.0551822561562
 30
0.0
 10
203.6921184652772
 20
114.3574539768078
 30
0.0
 10
203.6828649857731
 20
114.6436964994897
 30
0.0
 10
203.5598808615096
 20
114.9785963258166
 30
0.0
 10
203.3423278920241
 20
115.3210406653928
 30
0.0
 10
203.1695917952411
 20
115.549416404075
 30
0.0
 10
203.1033170253972
 20
115.6339332670828
 30
0.0
 10
203.0913577954649
 20
115.6491842683348
 30
0.0
  0
LINE
  5
114
330
1F
100
AcDbEntity
  8
0
  6
HIDDEN
 62
     7
370
     0
100
AcDbLine
 10
206.0143459502
 20
116.3839653304
 30
0.0
 11
203.0143459502
 21
116.3839653304
 31
0.0
  0
LINE
  5
115
330
1F
100
AcDbEntity
  8
0
  6
HIDDEN
 62
     7
370
     0
100
AcDbLine
 10
202.9968806947
 20
96.5233491796
 30
0.0
 11
203.0913577955
 21
94.1187463926
 31
0.0
  0
LINE
  5
116
330
1F
100
AcDbEntity
  8
0
  6
HIDDEN
 62
     7
370
     0
100
AcDbLine
 10
202.9968806947
 20
113.2445814813
 30
0.0
 11
203.0913577955
 21
115.6491842683
 31
0.0
  0
SPLINE
  5
117
330
1F
100
AcDbEntity
  8
0
  6
HIDDEN
 62
     7
370
     0
100
AcDbSpline
210
0.0
220
0.0
230
1.0
 70
     8
 71
     3
 72
     8
 73
     4
 74
     0
 42
0.00000001
 43
0.00000001
 40
0.0
 40
0.0
 40
0.0
 40
0.0
 40
0.0001590976916942
 40
0.0001590976916942
 40
0.0001590976916942
 40
0.0001590976916942
 10
53.39951395634769
 20
89.08247489441263
 30
0.0
 10
53.35446248687274
 20
89.0544960107367
 30
0.0
 10
53.30940644948753
 20
89.02652448100916
 30
0.0
 10
53.26434595021848
 20
88.99856014230384
 30
0.0
  0
SPLINE
  5
118
330
1F
100
AcDbEntity
  8
0
  6
HIDDEN
 62
     7
370
     0
100
AcDbSpline
210
0.0
220
0.0
230
1.0
 70
     8
 71
     3
 72
    11
 73
     7
 74
     0
 42
0.00000001
 43
0.00000001
 40
0.0
 40
0.0
 40
0.0
 40
0.0
 40
0.0008212909311266
 40
0.0008212909311266
 40
0.0008212909311266
 40
0.0016428257242681
 40
0.0016428257242681
 40
0.0016428257242681
 40
0.0016428257242681
 10
53.26434595021848
 20
88.99856014230384
 30
0.0
 10
53.07320092873594
 20
88.95527395349451
 30
0.0
 10
52.88178259305928
 20
88.91433744390118
 30
0.0
 10
52.69013651839816
 20
88.87573567255933
 30
0.0
 10
52.49843343685656
 20
88.83712241876697
 30
0.0
 10
52.30648831357128
 20
88.80084220952652
 30
0.0
 10
52.11434595021849
 20
88.76687530322135
 30
0.0
  0
LINE
  5
119
330
1F
100
AcDbEntity
  8
0
  6
HIDDEN
 62
     7
370
     0
100
AcDbLine
 10
100.1043459502
 20
125.0198319619
 30
0.0
 11
100.1043459502
 21
124.7339653304
 31
0.0
  0
LINE
  5
11A
330
1F
100
AcDbEntity
  8
0
  6
HIDDEN
 62
     7
370
     0
100
AcDbLine
 10
103.9243459502
 20
125.0650792337
 30
0.0
 11
103.9243459502
 21
124.7339653304
 31
0.0
  0
LINE
  5
11B
330
1F
100
AcDbEntity
  8
0
  6
HIDDEN
 62
     7
370
     0
100
AcDbLine
 10
105.4062787817
 20
129.3426549928
 30
0.0
 11
105.4062787817
 21
124.7339653304
 31
0.0
  0
SPLINE
  5
11C
330
1F
100
AcDbEntity
  8
0
  6
HIDDEN
 62
     7
370
     0
100
AcDbSpline
210
0.0
220
0.0
230
1.0
 70
     8
 71
     3
 72
    24
 73
    20
 74
     0
 42
0.00000001
 43
0.00000001
 40
0.0
 40
0.0
 40
0.0
 40
0.0
 40
0.2500000000000047
 40
0.2500000000000047
 40
0.3750000000000068
 40
0.3750000000000068
 40
0.437500000000008
 40
0.437500000000008
 40
0.4687500000000068
 40
0.4687500000000068
 40
0.5000000000000056
 40
0.5000000000000056
 40
0.5625000000000058
 40
0.5625000000000058
 40
0.625000000000006
 40
0.625000000000006
 40
0.7500000000000029
 40
0.7500000000000029
 40
1.0
 40
1.0
 40
1.0
 40
1.0
 10
52.17700932494188
 20
85.20941278566353
 30
0.0
 10
52.19076244361212
 20
85.28006284365381
 30
0.0
 10
52.20853501101796
 20
85.34666095641873
 30
0.0
 10
52.26078610257333
 20
85.42075897665194
 30
0.0
 10
52.28182117815489
 20
85.44201678381349
 30
0.0
 10
52.33472158578331
 20
85.45016270995973
 30
0.0
 10
52.35582725866121
 20
85.44922290656397
 30
0.0
 10
52.40187942733915
 20
85.42820691498665
 30
0.0
 10
52.42024989932253
 20
85.41729810887905
 30
0.0
 10
52.46180153438824
 20
85.38466319793169
 30
0.0
 10
52.48436820714515
 20
85.36317121756032
 30
0.0
 10
52.5471492236052
 20
85.294705273974
 30
0.0
 10
52.58027898457308
 20
85.24863081576893
 30
0.0
 10
52.63719667105811
 20
85.16362292743423
 30
0.0
 10
52.66138269656189
 20
85.12334262625286
 30
0.0
 10
52.72659064694166
 20
85.0084063997869
 30
0.0
 10
52.7613067071329
 20
84.9378234146399
 30
0.0
 10
52.85452197746379
 20
84.73361765556128
 30
0.0
 10
52.90019451282446
 20
84.6107192732339
 30
0.0
 10
52.93849959632302
 20
84.49384599684633
 30
0.0
  0
SPLINE
  5
11D
330
1F
100
AcDbEntity
  8
0
  6
HIDDEN
 62
     7
370
     0
100
AcDbSpline
210
0.0
220
0.0
230
1.0
 70
     8
 71
     3
 72
    11
 73
     7
 74
     0
 42
0.00000001
 43
0.00000001
 40
0.0
 40
0.0
 40
0.0
 40
0.0
 40
0.0005781862223847
 40
0.0005781862223847
 40
0.0005781862223847
 40
0.0011563724723663
 40
0.0011563724723663
 40
0.0011563724723663
 40
0.0011563724723663
 10
53.11434595021876
 20
117.524107644057
 30
0.0
 10
52.94768539594344
 20
117.5886371555618
 30
0.0
 10
52.78102209903707
 20
117.653139859496
 30
0.0
 10
52.61435551520675
 20
117.7176263080281
 30
0.0
 10
52.44768892294761
 20
117.7821127598215
 30
0.0
 10
52.28101905732152
 20
117.8465827686514
 30
0.0
 10
52.11434595021846
 20
117.9110385354883
 30
0.0
  0
SPLINE
  5
11E
330
1F
100
AcDbEntity
  8
0
  6
HIDDEN
 62
     7
370
     0
100
AcDbSpline
210
0.0
220
0.0
230
1.0
 70
     8
 71
     3
 72
     8
 73
     4
 74
     0
 42
0.00000001
 43
0.00000001
 40
0.0
 40
0.0
 40
0.0
 40
0.0
 40
0.0011557494192644
 40
0.0011557494192644
 40
0.0011557494192644
 40
0.0011557494192644
 10
52.11434595021846
 20
91.8567434679935
 30
0.0
 10
52.44767976023271
 20
91.98836774425914
 30
0.0
 10
52.78101337189538
 20
92.12018465790065
 30
0.0
 10
53.11434595021846
 20
92.25218810012751
 30
0.0
  0
SPLINE
  5
11F
330
1F
100
AcDbEntity
  8
0
  6
HIDDEN
 62
     7
370
     0
100
AcDbSpline
210
0.0
220
0.0
230
1.0
 70
     8
 71
     3
 72
    11
 73
     7
 74
     0
 42
0.00000001
 43
0.00000001
 40
0.0000000000000006
 40
0.0000000000000006
 40
0.0000000000000006
 40
0.0000000000000006
 40
0.0005780486062644
 40
0.0005780486062644
 40
0.0005780486062644
 40
0.0011560973513878
 40
0.0011560973513878
 40
0.0011560973513878
 40
0.0011560973513878
 10
52.11434595021846
 20
114.8647798237316
 30
0.0
 10
52.28101580626368
 20
114.8024079623355
 30
0.0
 10
52.44768351034811
 20
114.7400541021529
 30
0.0
 10
52.61434981480176
 20
114.6777345420781
 30
0.0
 10
52.78101615549549
 20
114.6154149684525
 30
0.0
 10
52.94768111212412
 20
114.5531297642405
 30
0.0
 10
53.11434595021846
 20
114.490904643776
 30
0.0
  0
SPLINE
  5
120
330
1F
100
AcDbEntity
  8
0
  6
HIDDEN
 62
     7
370
     0
100
AcDbSpline
210
0.0
220
0.0
230
1.0
 70
     8
 71
     3
 72
    11
 73
     7
 74
     0
 42
0.00000001
 43
0.00000001
 40
0.0
 40
0.0
 40
0.0
 40
0.0
 40
0.000578240158334
 40
0.000578240158334
 40
0.000578240158334
 40
0.0011564805960605
 40
0.0011564805960605
 40
0.0011564805960605
 40
0.0011564805960605
 10
53.11434595021846
 20
95.28313854563321
 30
0.0
 10
52.94769499986976
 20
95.21971308770212
 30
0.0
 10
52.78103540728718
 20
95.15635756418051
 30
0.0
 10
52.61436835485863
 20
95.09305997996762
 30
0.0
 10
52.44770121829481
 20
95.02976236380142
 30
0.0
 10
52.28102661084868
 20
94.96652256900124
 30
0.0
 10
52.11434595021848
 20
94.90332256250595
 30
0.0
  0
CIRCLE
  5
121
330
1F
100
AcDbEntity
  8
0
  6
HIDDEN
 62
     7
370
     0
100
AcDbCircle
 10
91.0143459502
 20
104.8839653304
 30
0.0
 40
5.000000000000014
  0
LINE
  5
122
330
1F
100
AcDbEntity
  8
0
  6
HIDDEN
 62
     7
370
     0
100
AcDbLine
 10
187.0143459502
 20
100.8839653304
 30
0.0
 11
187.0143459502
 21
108.8839653304
 31
0.0
  0
LINE
  5
123
330
1F
100
AcDbEntity
  8
0
  6
HIDDEN
 62
     7
370
     0
100
AcDbLine
 10
203.0143459502
 20
101.3839653304
 30
0.0
 11
203.0143459502
 21
108.3839653304
 31
0.0
  0
LINE
  5
124
330
1F
100
AcDbEntity
  8
0
  6
HIDDEN
 62
     7
370
     0
100
AcDbLine
 10
186.5143459502
 20
101.3839653304
 30
0.0
 11
186.5143459502
 21
108.3839653304
 31
0.0
  0
LINE
  5
125
330
1F
100
AcDbEntity
  8
0
  6
HIDDEN
 62
     7
370
     0
100
AcDbLine
 10
206.5143459502
 20
103.4588120719
 30
0.0
 11
204.5143459502
 21
103.4588120719
 31
0.0
  0
LINE
  5
126
330
1F
100
AcDbEntity
  8
0
  6
HIDDEN
 62
     7
370
     0
100
AcDbLine
 10
206.5143459502
 20
101.3839653304
 30
0.0
 11
206.5143459502
 21
103.4588120719
 31
0.0
  0
LINE
  5
127
330
1F
100
AcDbEntity
  8
0
  6
HIDDEN
 62
     7
370
     0
100
AcDbLine
 10
204.5143459502
 20
104.3258964129
 30
0.0
 11
206.5143459502
 21
104.3258964129
 31
0.0
  0
LINE
  5
128
330
1F
100
AcDbEntity
  8
0
  6
HIDDEN
 62
     7
370
     0
100
AcDbLine
 10
206.5143459502
 20
106.309118589
 30
0.0
 11
204.5143459502
 21
106.309118589
 31
0.0
  0
LINE
  5
129
330
1F
100
AcDbEntity
  8
0
  6
HIDDEN
 62
     7
370
     0
100
AcDbLine
 10
206.5143459502
 20
105.442034248
 30
0.0
 11
206.5143459502
 21
108.3839653304
 31
0.0
  0
LINE
  5
12A
330
1F
100
AcDbEntity
  8
0
  6
HIDDEN
 62
     7
370
     0
100
AcDbLine
 10
204.5143459502
 20
105.442034248
 30
0.0
 11
206.5143459502
 21
105.442034248
 31
0.0
  0
LINE
  5
12B
330
1F
100
AcDbEntity
  8
0
  6
HIDDEN
 62
     7
370
     0
100
AcDbLine
 10
204.5143459502
 20
103.4588120719
 30
0.0
 11
204.5143459502
 21
105.442034248
 31
0.0
  0
LINE
  5
12C
330
1F
100
AcDbEntity
  8
0
  6
HIDDEN
 62
     7
370
     0
100
AcDbLine
 10
204.5143459502
 20
105.6516962043
 30
0.0
 11
204.5143459502
 21
105.442034248
 31
0.0
  0
LINE
  5
12D
330
1F
100
AcDbEntity
  8
0
  6
HIDDEN
 62
     7
370
     0
100
AcDbLine
 10
204.5143459502
 20
103.6684740282
 30
0.0
 11
206.5143459502
 21
103.6684740282
 31
0.0
  0
LINE
  5
12E
330
1F
100
AcDbEntity
  8
0
  6
HIDDEN
 62
     7
370
     0
100
AcDbLine
 10
206.5143459502
 20
103.6684740282
 30
0.0
 11
206.5143459502
 21
103.4588120719
 31
0.0
  0
LINE
  5
12F
330
1F
100
AcDbEntity
  8
0
  6
HIDDEN
 62
     7
370
     0
100
AcDbLine
 10
206.5143459502
 20
105.6516962043
 30
0.0
 11
204.5143459502
 21
105.6516962043
 31
0.0
  0
LINE
  5
130
330
1F
100
AcDbEntity
  8
0
  6
HIDDEN
 62
     7
370
     0
100
AcDbLine
 10
201.5143459502
 20
105.6516962043
 30
0.0
 11
201.5143459502
 21
104.5854583782
 31
0.0
  0
LINE
  5
131
330
1F
100
AcDbEntity
  8
0
  6
HIDDEN
 62
     7
370
     0
100
AcDbLine
 10
191.5143459502
 20
104.5854583782
 30
0.0
 11
191.5143459502
 21
105.6516962043
 31
0.0
  0
LINE
  5
132
330
1F
100
AcDbEntity
  8
0
  6
HIDDEN
 62
     7
370
     0
100
AcDbLine
 10
201.5143459502
 20
104.5854583782
 30
0.0
 11
201.5143459502
 21
103.6684740282
 31
0.0
  0
LINE
  5
133
330
1F
100
AcDbEntity
  8
0
  6
HIDDEN
 62
     7
370
     0
100
AcDbLine
 10
201.5143459502
 20
104.5854583782
 30
0.0
 11
204.5143459502
 21
104.5854583782
 31
0.0
  0
LINE
  5
134
330
1F
100
AcDbEntity
  8
0
  6
HIDDEN
 62
     7
370
     0
100
AcDbLine
 10
191.5143459502
 20
103.6684740282
 30
0.0
 11
191.5143459502
 21
104.5854583782
 31
0.0
  0
LINE
  5
135
330
1F
100
AcDbEntity
  8
0
  6
HIDDEN
 62
     7
370
     0
100
AcDbLine
 10
191.5143459502
 20
104.5854583782
 30
0.0
 11
186.5143459502
 21
104.5854583782
 31
0.0
  0
LINE
  5
136
330
1F
100
AcDbEntity
  8
0
  6
HIDDEN
 62
     7
370
     0
100
AcDbLine
 10
201.5143459502
 20
106.7179340304
 30
0.0
 11
201.5143459502
 21
105.6516962043
 31
0.0
  0
LINE
  5
137
330
1F
100
AcDbEntity
  8
0
  6
HIDDEN
 62
     7
370
     0
100
AcDbLine
 10
191.5143459502
 20
105.6516962043
 30
0.0
 11
191.5143459502
 21
106.7179340304
 31
0.0
  0
LINE
  5
138
330
1F
100
AcDbEntity
  8
0
  6
HIDDEN
 62
     7
370
     0
100
AcDbLine
 10
191.5143459502
 20
102.7514896783
 30
0.0
 11
191.5143459502
 21
103.6684740282
 31
0.0
  0
LINE
  5
139
330
1F
100
AcDbEntity
  8
0
  6
HIDDEN
 62
     7
370
     0
100
AcDbLine
 10
201.5143459502
 20
103.6684740282
 30
0.0
 11
201.5143459502
 21
102.7514896783
 31
0.0
  0
LINE
  5
13A
330
1F
100
AcDbEntity
  8
0
  6
HIDDEN
 62
     7
370
     0
100
AcDbLine
 10
201.5143459502
 20
106.8671875065
 30
0.0
 11
201.5143459502
 21
106.7179340304
 31
0.0
  0
LINE
  5
13B
330
1F
100
AcDbEntity
  8
0
  6
HIDDEN
 62
     7
370
     0
100
AcDbLine
 10
201.5143459502
 20
106.7179340304
 30
0.0
 11
206.5143459502
 21
106.7179340304
 31
0.0
  0
LINE
  5
13C
330
1F
100
AcDbEntity
  8
0
  6
HIDDEN
 62
     7
370
     0
100
AcDbLine
 10
191.5143459502
 20
106.7179340304
 30
0.0
 11
191.5143459502
 21
106.8671875065
 31
0.0
  0
LINE
  5
13D
330
1F
100
AcDbEntity
  8
0
  6
HIDDEN
 62
     7
370
     0
100
AcDbLine
 10
191.5143459502
 20
106.7179340304
 30
0.0
 11
186.5143459502
 21
106.7179340304
 31
0.0
  0
LINE
  5
13E
330
1F
100
AcDbEntity
  8
0
  6
HIDDEN
 62
     7
370
     0
100
AcDbLine
 10
191.5143459502
 20
103.0499966305
 30
0.0
 11
186.5143459502
 21
103.0499966305
 31
0.0
  0
LINE
  5
13F
330
1F
100
AcDbEntity
  8
0
  6
HIDDEN
 62
     7
370
     0
100
AcDbLine
 10
191.5143459502
 20
102.7514896783
 30
0.0
 11
186.5143459502
 21
102.7514896783
 31
0.0
  0
LINE
  5
140
330
1F
100
AcDbEntity
  8
0
  6
HIDDEN
 62
     7
370
     0
100
AcDbLine
 10
201.5143459502
 20
103.0499966305
 30
0.0
 11
206.5143459502
 21
103.0499966305
 31
0.0
  0
LINE
  5
141
330
1F
100
AcDbEntity
  8
0
  6
HIDDEN
 62
     7
370
     0
100
AcDbLine
 10
201.5143459502
 20
102.7514896783
 30
0.0
 11
206.5143459502
 21
102.7514896783
 31
0.0
  0
LINE
  5
142
330
1F
100
AcDbEntity
  8
0
  6
HIDDEN
 62
     7
370
     0
100
AcDbLine
 10
191.5143459502
 20
106.8671875065
 30
0.0
 11
191.5143459502
 21
107.0164409826
 31
0.0
  0
LINE
  5
143
330
1F
100
AcDbEntity
  8
0
  6
HIDDEN
 62
     7
370
     0
100
AcDbLine
 10
201.5143459502
 20
107.0164409826
 30
0.0
 11
201.5143459502
 21
106.8671875065
 31
0.0
  0
LINE
  5
144
330
1F
100
AcDbEntity
  8
0
  6
HIDDEN
 62
     7
370
     0
100
AcDbLine
 10
204.5143459502
 20
106.0994566326
 30
0.0
 11
206.5143459502
 21
106.0994566326
 31
0.0
  0
LINE
  5
145
330
1F
100
AcDbEntity
  8
0
  6
HIDDEN
 62
     7
370
     0
100
AcDbLine
 10
204.5143459502
 20
105.6516962043
 30
0.0
 11
204.5143459502
 21
106.0994566326
 31
0.0
  0
LINE
  5
146
330
1F
100
AcDbEntity
  8
0
  6
HIDDEN
 62
     7
370
     0
100
AcDbLine
 10
201.5143459502
 20
105.1824722827
 30
0.0
 11
204.5143459502
 21
105.1824722827
 31
0.0
  0
LINE
  5
147
330
1F
100
AcDbEntity
  8
0
  6
HIDDEN
 62
     7
370
     0
100
AcDbLine
 10
201.5143459502
 20
107.0164409826
 30
0.0
 11
206.5143459502
 21
107.0164409826
 31
0.0
  0
LINE
  5
148
330
1F
100
AcDbEntity
  8
0
  6
HIDDEN
 62
     7
370
     0
100
AcDbLine
 10
191.5143459502
 20
105.1824722827
 30
0.0
 11
186.5143459502
 21
105.1824722827
 31
0.0
  0
LINE
  5
149
330
1F
100
AcDbEntity
  8
0
  6
HIDDEN
 62
     7
370
     0
100
AcDbLine
 10
191.5143459502
 20
107.0164409826
 30
0.0
 11
186.5143459502
 21
107.0164409826
 31
0.0
  0
LINE
  5
14A
330
1F
100
AcDbEntity
  8
0
  6
HIDDEN
 62
     7
370
     0
100
AcDbLine
 10
206.5143459502
 20
104.1162344566
 30
0.0
 11
204.5143459502
 21
104.1162344566
 31
0.0
  0
LINE
  5
14B
330
1F
100
AcDbEntity
  8
0
  6
HIDDEN
 62
     7
370
     0
100
AcDbLine
 10
206.5143459502
 20
103.6684740282
 30
0.0
 11
206.5143459502
 21
104.1162344566
 31
0.0
  0
LINE
  5
14C
330
1F
100
AcDbEntity
  8
0
  6
HIDDEN
 62
     7
370
     0
100
AcDbLine
 10
204.5143459502
 20
106.309118589
 30
0.0
 11
204.5143459502
 21
106.0994566326
 31
0.0
  0
LINE
  5
14D
330
1F
100
AcDbEntity
  8
0
  6
HIDDEN
 62
     7
370
     0
100
AcDbLine
 10
206.5143459502
 20
104.3258964129
 30
0.0
 11
206.5143459502
 21
104.1162344566
 31
0.0
  0
LINE
  5
14E
330
1F
100
AcDbEntity
  8
0
  6
HIDDEN
 62
     7
370
     0
100
AcDbLine
 10
243.9959134667
 20
98.1036820319
 30
0.0
 11
244.0143459502
 21
97.6345439994
 31
0.0
  0
LINE
  5
14F
330
1F
100
AcDbEntity
  8
0
  6
HIDDEN
 62
     7
370
     0
100
AcDbLine
 10
243.8819689166
 20
96.8787642226
 30
0.0
 11
243.9408586402
 21
95.3799206683
 31
0.0
  0
LINE
  5
150
330
1F
100
AcDbEntity
  8
0
  6
HIDDEN
 62
     7
370
     0
100
AcDbLine
 10
243.823079193
 20
98.377607777
 30
0.0
 11
243.8819689166
 21
96.8787642226
 31
0.0
  0
LINE
  5
151
330
1F
100
AcDbEntity
  8
0
  6
HIDDEN
 62
     7
370
     0
100
AcDbLine
 10
238.5480311127
 20
96.6691932355
 30
0.0
 11
238.6069208364
 21
95.1703496812
 31
0.0
  0
LINE
  5
152
330
1F
100
AcDbEntity
  8
0
  6
HIDDEN
 62
     7
370
     0
100
AcDbLine
 10
238.4891413891
 20
98.1680367899
 30
0.0
 11
238.5480311127
 21
96.6691932355
 31
0.0
  0
LINE
  5
153
330
1F
100
AcDbEntity
  8
0
  6
HIDDEN
 62
     7
370
     0
100
AcDbLine
 10
238.0484165946
 20
96.6495633277
 30
0.0
 11
238.0876764104
 21
95.6503342914
 31
0.0
  0
LINE
  5
154
330
1F
100
AcDbEntity
  8
0
  6
HIDDEN
 62
     7
370
     0
100
AcDbLine
 10
238.0091567788
 20
97.6487923639
 30
0.0
 11
238.0484165946
 21
96.6495633277
 31
0.0
  0
LINE
  5
155
330
1F
100
AcDbEntity
  8
0
  6
HIDDEN
 62
     7
370
     0
100
AcDbLine
 10
242.0453327396
 20
96.8066025907
 30
0.0
 11
244.043790812
 21
96.8851222222
 31
0.0
  0
LINE
  5
156
330
1F
100
AcDbEntity
  8
0
  6
HIDDEN
 62
     7
370
     0
100
AcDbLine
 10
242.0158878777
 20
97.5560243679
 30
0.0
 11
242.0453327396
 21
96.8066025907
 31
0.0
  0
LINE
  5
157
330
1F
100
AcDbEntity
  8
0
  6
HIDDEN
 62
     7
370
     0
100
AcDbLine
 10
242.0747776014
 20
96.0571808135
 30
0.0
 11
242.0453327396
 21
96.8066025907
 31
0.0
  0
LINE
  5
158
330
1F
100
AcDbEntity
  8
0
  6
HIDDEN
 62
     7
370
     0
100
AcDbLine
 10
242.0747776014
 20
96.0571808135
 30
0.0
 11
244.0732356739
 21
96.135700445
 31
0.0
  0
LINE
  5
159
330
1F
100
AcDbEntity
  8
0
  6
HIDDEN
 62
     7
370
     0
100
AcDbLine
 10
242.0158878777
 20
97.5560243679
 30
0.0
 11
244.0143459502
 21
97.6345439994
 31
0.0
  0
LINE
  5
15A
330
1F
100
AcDbEntity
  8
0
  6
HIDDEN
 62
     7
370
     0
100
AcDbLine
 10
243.8819689166
 20
114.3903237762
 30
0.0
 11
243.7641894693
 21
111.3926366674
 31
0.0
  0
LINE
  5
15B
330
1F
100
AcDbEntity
  8
0
  6
HIDDEN
 62
     7
370
     0
100
AcDbLine
 10
238.5480311127
 20
114.5998947633
 30
0.0
 11
238.4302516654
 21
111.6022076545
 31
0.0
  0
LINE
  5
15C
330
1F
100
AcDbEntity
  8
0
  6
HIDDEN
 62
     7
370
     0
100
AcDbLine
 10
244.0143459502
 20
113.6345439994
 30
0.0
 11
243.9370237431
 21
111.6665624125
 31
0.0
  0
LINE
  5
15D
330
1F
100
AcDbEntity
  8
0
  6
HIDDEN
 62
     7
370
     0
100
AcDbLine
 10
238.0287866867
 20
114.119910153
 30
0.0
 11
237.9502670552
 21
112.1214520805
 31
0.0
  0
LINE
  5
15E
330
1F
100
AcDbEntity
  8
0
  6
HIDDEN
 62
     7
370
     0
100
AcDbLine
 10
241.9864430159
 20
112.9636418537
 30
0.0
 11
241.9569981541
 21
112.2142200766
 31
0.0
  0
LINE
  5
15F
330
1F
100
AcDbEntity
  8
0
  6
HIDDEN
 62
     7
370
     0
100
AcDbLine
 10
241.9864430159
 20
112.9636418537
 30
0.0
 11
243.9849010884
 21
112.8851222222
 31
0.0
  0
LINE
  5
160
330
1F
100
AcDbEntity
  8
0
  6
HIDDEN
 62
     7
370
     0
100
AcDbLine
 10
242.0158878777
 20
113.7130636309
 30
0.0
 11
241.9864430159
 21
112.9636418537
 31
0.0
  0
LINE
  5
161
330
1F
100
AcDbEntity
  8
0
  6
HIDDEN
 62
     7
370
     0
100
AcDbLine
 10
242.0158878777
 20
113.7130636309
 30
0.0
 11
244.0143459502
 21
113.6345439994
 31
0.0
  0
LINE
  5
162
330
1F
100
AcDbEntity
  8
0
  6
HIDDEN
 62
     7
370
     0
100
AcDbLine
 10
241.9569981541
 20
112.2142200766
 30
0.0
 11
243.9554562266
 21
112.135700445
 31
0.0
  0
LINE
  5
163
330
1F
100
AcDbEntity
  8
0
  6
HIDDEN
 62
     7
370
     0
100
AcDbLine
 10
88.0143459502
 20
119.1845958362
 30
0.0
 11
88.0143459502
 21
117.2779059733
 31
0.0
  0
LINE
  5
164
330
1F
100
AcDbEntity
  8
0
  6
HIDDEN
 62
     7
370
     0
100
AcDbLine
 10
96.0143459502
 20
117.2779059733
 30
0.0
 11
96.0143459502
 21
119.1818004802
 31
0.0
  0
LINE
  5
165
330
1F
100
AcDbEntity
  8
0
  6
HIDDEN
 62
     7
370
     0
100
AcDbLine
 10
84.0143459502
 20
79.5600341845
 30
0.0
 11
84.1085067257
 21
80.2300229157
 31
0.0
  0
LINE
  5
166
330
1F
100
AcDbEntity
  8
0
  6
HIDDEN
 62
     7
370
     0
100
AcDbLine
 10
84.1085067257
 20
129.5379077452
 30
0.0
 11
84.0143459502
 21
130.2078964764
 31
0.0
  0
ARC
  5
167
330
1F
100
AcDbEntity
  8
0
  6
HIDDEN
 62
     7
370
     0
100
AcDbCircle
 10
83.5143391976
 20
80.3135277161
 30
0.0
 40
0.6000067526677242
100
AcDbArc
 50
352.0
 51
0.0
  0
ARC
  5
168
330
1F
100
AcDbEntity
  8
0
  6
HIDDEN
 62
     7
370
     0
100
AcDbCircle
 10
83.5143391976
 20
80.3135277161
 30
0.0
 40
0.6000067526677282
100
AcDbArc
 50
0.0
 51
33.5571153394
  0
ARC
  5
169
330
1F
100
AcDbEntity
  8
0
  6
HIDDEN
 62
     7
370
     0
100
AcDbCircle
 10
83.5143391976
 20
129.4544029448
 30
0.0
 40
0.6000067526677183
100
AcDbArc
 50
348.75
 51
8.0
  0
LWPOLYLINE
  5
16A
330
1F
100
AcDbEntity
  8
0
  6
HIDDEN
 62
     7
370
     0
100
AcDbPolyline
 90
        3
 70
   128
 43
0.0
 10
84.1028169887
 20
129.3373474342
 10
84.0686731557
 20
129.2247903013
 10
84.0143459502
 20
129.1227384298
  0
LINE
  5
16B
330
1F
100
AcDbEntity
  8
0
  6
HIDDEN
 62
     7
370
     0
100
AcDbLine
 10
84.1143459502
 20
80.3135277161
 30
0.0
 11
84.1143459502
 21
129.4544029448
 31
0.0
  0
ARC
  5
16C
330
1F
100
AcDbEntity
  8
0
  6
HIDDEN
 62
     7
370
     0
100
AcDbCircle
 10
77.7693479518
 20
92.8839653304
 30
0.0
 40
8.000000000000007
100
AcDbArc
 50
277.0401385679
 51
321.3178125465
  0
ARC
  5
16D
330
1F
100
AcDbEntity
  8
0
  6
HIDDEN
 62
     7
370
     0
100
AcDbCircle
 10
77.7693479518
 20
116.8839653304
 30
0.0
 40
8.000000000000016
100
AcDbArc
 50
38.6821874535
 51
82.9413729517
  0
ARC
  5
16E
330
1F
100
AcDbEntity
  8
0
  6
HIDDEN
 62
     7
370
     0
100
AcDbCircle
 10
67.0967815155
 20
85.4839653304
 30
0.0
 40
0.6000000000000085
100
AcDbArc
 50
210.0
 51
270.0
  0
ARC
  5
16F
330
1F
100
AcDbEntity
  8
0
  6
HIDDEN
 62
     7
370
     0
100
AcDbCircle
 10
67.0967815155
 20
124.2839653304
 30
0.0
 40
0.6000000000000085
100
AcDbArc
 50
90.0
 51
150.0
  0
LINE
  5
170
330
1F
100
AcDbEntity
  8
0
  6
HIDDEN
 62
     7
370
     0
100
AcDbLine
 10
67.0967815155
 20
84.8839653304
 30
0.0
 11
71.2743180919
 21
84.8839653304
 31
0.0
  0
LINE
  5
171
330
1F
100
AcDbEntity
  8
0
  6
HIDDEN
 62
     7
370
     0
100
AcDbLine
 10
71.2743180919
 20
124.8839653304
 30
0.0
 11
67.0967815155
 21
124.8839653304
 31
0.0
  0
LINE
  5
172
330
1F
100
AcDbEntity
  8
0
  6
HIDDEN
 62
     7
370
     0
100
AcDbLine
 10
66.5771662732
 20
124.5839653304
 30
0.0
 11
65.0183205464
 21
121.8839653304
 31
0.0
  0
LINE
  5
173
330
1F
100
AcDbEntity
  8
0
  6
HIDDEN
 62
     7
370
     0
100
AcDbLine
 10
65.0183205464
 20
87.8839653304
 30
0.0
 11
66.5771662732
 21
85.1839653304
 31
0.0
  0
LINE
  5
174
330
1F
100
AcDbEntity
  8
0
  6
HIDDEN
 62
     7
370
     0
100
AcDbLine
 10
88.0143459502
 20
132.1636975676
 30
0.0
 11
88.0143459502
 21
128.8295677451
 31
0.0
  0
LINE
  5
175
330
1F
100
AcDbEntity
  8
0
  6
HIDDEN
 62
     7
370
     0
100
AcDbLine
 10
96.0143459502
 20
128.8295677451
 30
0.0
 11
96.0143459502
 21
132.1623228782
 31
0.0
  0
ARC
  5
176
330
1F
100
AcDbEntity
  8
0
  6
HIDDEN
 62
     7
370
     0
100
AcDbCircle
 10
92.4643459502
 20
89.1589653304
 30
0.0
 40
1.5
100
AcDbArc
 50
238.2116693829
 51
0.0
  0
ARC
  5
177
330
1F
100
AcDbEntity
  8
0
  6
HIDDEN
 62
     7
370
     0
100
AcDbCircle
 10
92.4643459502
 20
120.6089653304
 30
0.0
 40
1.500000000000001
100
AcDbArc
 50
0.0
 51
121.7883306171
  0
LINE
  5
178
330
1F
100
AcDbEntity
  8
0
  6
HIDDEN
 62
     7
370
     0
100
AcDbLine
 10
62.2143459502
 20
87.8839653304
 30
0.0
 11
65.0183205464
 21
87.8839653304
 31
0.0
  0
LINE
  5
179
330
1F
100
AcDbEntity
  8
0
  6
HIDDEN
 62
     7
370
     0
100
AcDbLine
 10
65.0183205464
 20
121.8839653304
 30
0.0
 11
58.2143459502
 21
121.8839653304
 31
0.0
  0
LINE
  5
17A
330
1F
100
AcDbEntity
  8
0
  6
HIDDEN
 62
     7
370
     0
100
AcDbLine
 10
84.0143459502
 20
87.8839653304
 30
0.0
 11
91.6741719188
 21
87.8839653304
 31
0.0
  0
LINE
  5
17B
330
1F
100
AcDbEntity
  8
0
  6
HIDDEN
 62
     7
370
     0
100
AcDbLine
 10
91.6741719188
 20
121.8839653304
 30
0.0
 11
84.0143459502
 21
121.8839653304
 31
0.0
  0
LINE
  5
17C
330
1F
100
AcDbEntity
  8
0
  6
HIDDEN
 62
     7
370
     0
100
AcDbLine
 10
102.8143459502
 20
95.3839653304
 30
0.0
 11
105.8143459502
 21
95.3839653304
 31
0.0
  0
LINE
  5
17D
330
1F
100
AcDbEntity
  8
0
  6
HIDDEN
 62
     7
370
     0
100
AcDbLine
 10
105.8143459502
 20
114.3839653304
 30
0.0
 11
102.8143459502
 21
114.3839653304
 31
0.0
  0
LINE
  5
17E
330
1F
100
AcDbEntity
  8
0
  6
HIDDEN
 62
     7
370
     0
100
AcDbLine
 10
93.9643459502
 20
95.8839653304
 30
0.0
 11
94.4643459502
 21
96.3839653304
 31
0.0
  0
LINE
  5
17F
330
1F
100
AcDbEntity
  8
0
  6
HIDDEN
 62
     7
370
     0
100
AcDbLine
 10
94.4643459502
 20
113.3839653304
 30
0.0
 11
93.9643459502
 21
113.8839653304
 31
0.0
  0
LINE
  5
180
330
1F
100
AcDbEntity
  8
0
  6
HIDDEN
 62
     7
370
     0
100
AcDbLine
 10
94.4643459502
 20
96.3839653304
 30
0.0
 11
102.8143459502
 21
96.3839653304
 31
0.0
  0
LINE
  5
181
330
1F
100
AcDbEntity
  8
0
  6
HIDDEN
 62
     7
370
     0
100
AcDbLine
 10
102.8143459502
 20
113.3839653304
 30
0.0
 11
94.4643459502
 21
113.3839653304
 31
0.0
  0
LINE
  5
182
330
1F
100
AcDbEntity
  8
0
  6
HIDDEN
 62
     7
370
     0
100
AcDbLine
 10
88.9643459502
 20
136.3839653304
 30
0.0
 11
88.9643459502
 21
131.2839653304
 31
0.0
  0
ARC
  5
183
330
1F
100
AcDbEntity
  8
0
  6
HIDDEN
 62
     7
370
     0
100
AcDbCircle
 10
243.5143459502
 20
98.8472710824
 30
0.0
 40
0.5
100
AcDbArc
 50
0.0
 51
80.0
  0
ARC
  5
184
330
1F
100
AcDbEntity
  8
0
  6
HIDDEN
 62
     7
370
     0
100
AcDbCircle
 10
243.5143459502
 20
110.9206595785
 30
0.0
 40
0.5
100
AcDbArc
 50
280.0
 51
0.0
  0
LINE
  5
185
330
1F
100
AcDbEntity
  8
0
  6
HIDDEN
 62
     7
370
     0
100
AcDbLine
 10
243.6011700391
 20
110.428255702
 30
0.0
 11
240.5143459502
 21
109.8839653304
 31
0.0
  0
LINE
  5
186
330
1F
100
AcDbEntity
  8
0
  6
HIDDEN
 62
     7
370
     0
100
AcDbLine
 10
240.5143459502
 20
99.8839653304
 30
0.0
 11
243.6011700391
 21
99.3396749589
 31
0.0
  0
ARC
  5
187
330
1F
100
AcDbEntity
  8
0
  6
HIDDEN
 62
     7
370
     0
100
AcDbCircle
 10
212.1195719321
 20
99.9839653304
 30
0.0
 40
0.4000000000000074
100
AcDbArc
 50
270.0
 51
290.0
  0
ARC
  5
188
330
1F
100
AcDbEntity
  8
0
  6
HIDDEN
 62
     7
370
     0
100
AcDbCircle
 10
212.1195719321
 20
109.7839653304
 30
0.0
 40
0.4000000000000074
100
AcDbArc
 50
70.0
 51
90.0
  0
LINE
  5
189
330
1F
100
AcDbEntity
  8
0
  6
HIDDEN
 62
     7
370
     0
100
AcDbLine
 10
206.0143459502
 20
99.5839653304
 30
0.0
 11
212.1195719321
 21
99.5839653304
 31
0.0
  0
LINE
  5
18A
330
1F
100
AcDbEntity
  8
0
  6
HIDDEN
 62
     7
370
     0
100
AcDbLine
 10
202.9143459502
 20
99.5839653304
 30
0.0
 11
203.016410877
 21
99.5839653304
 31
0.0
  0
LINE
  5
18B
330
1F
100
AcDbEntity
  8
0
  6
HIDDEN
 62
     7
370
     0
100
AcDbLine
 10
203.0186057138
 20
110.1839653304
 30
0.0
 11
202.9143459502
 21
110.1839653304
 31
0.0
  0
LINE
  5
18C
330
1F
100
AcDbEntity
  8
0
  6
HIDDEN
 62
     7
370
     0
100
AcDbLine
 10
212.1195719321
 20
110.1839653304
 30
0.0
 11
206.009033864
 21
110.1839653304
 31
0.0
  0
ARC
  5
18D
330
1F
100
AcDbEntity
  8
0
  6
HIDDEN
 62
     7
370
     0
100
AcDbCircle
 10
202.9143459502
 20
99.9839653304
 30
0.0
 40
0.3999999999999915
100
AcDbArc
 50
180.0
 51
270.0
  0
ARC
  5
18E
330
1F
100
AcDbEntity
  8
0
  6
HIDDEN
 62
     7
370
     0
100
AcDbCircle
 10
202.9143459502
 20
109.7839653304
 30
0.0
 40
0.4000000000000057
100
AcDbArc
 50
90.0
 51
180.0
  0
LINE
  5
18F
330
1F
100
AcDbEntity
  8
0
  6
HIDDEN
 62
     7
370
     0
100
AcDbLine
 10
212.2563799894
 20
99.6080882821
 30
0.0
 11
213.0143459502
 21
99.8839653304
 31
0.0
  0
LINE
  5
190
330
1F
100
AcDbEntity
  8
0
  6
HIDDEN
 62
     7
370
     0
100
AcDbLine
 10
213.0143459502
 20
109.8839653304
 30
0.0
 11
212.2563799894
 21
110.1598423788
 31
0.0
  0
LINE
  5
191
330
1F
100
AcDbEntity
  8
0
  6
HIDDEN
 62
     7
370
     0
100
AcDbLine
 10
213.0143459502
 20
99.8839653304
 30
0.0
 11
240.5143459502
 21
99.8839653304
 31
0.0
  0
LINE
  5
192
330
1F
100
AcDbEntity
  8
0
  6
HIDDEN
 62
     7
370
     0
100
AcDbLine
 10
240.5143459502
 20
109.8839653304
 30
0.0
 11
213.0143459502
 21
109.8839653304
 31
0.0
  0
LINE
  5
193
330
1F
100
AcDbEntity
  8
0
  6
HIDDEN
 62
     7
370
     0
100
AcDbLine
 10
79.1987837807
 20
80.8045939969
 30
0.0
 11
78.7643516312
 21
81.283660016
 31
0.0
  0
LINE
  5
194
330
1F
100
AcDbEntity
  8
0
  6
HIDDEN
 62
     7
370
     0
100
AcDbLine
 10
71.2643483061
 20
81.7053479751
 30
0.0
 11
70.7819145628
 21
81.2262819997
 31
0.0
  0
LINE
  5
195
330
1F
100
AcDbEntity
  8
0
  6
HIDDEN
 62
     7
370
     0
100
AcDbLine
 10
70.7817926345
 20
128.5416433708
 30
0.0
 11
71.2643433855
 21
128.0625231129
 31
0.0
  0
LINE
  5
196
330
1F
100
AcDbEntity
  8
0
  6
HIDDEN
 62
     7
370
     0
100
AcDbLine
 10
78.7643458322
 20
128.4842208905
 30
0.0
 11
79.1988882226
 21
128.9633411411
 31
0.0
  0
LINE
  5
197
330
1F
100
AcDbEntity
  8
0
  6
HIDDEN
 62
     7
370
     0
100
AcDbLine
 10
105.8143459502
 20
100.6839653304
 30
0.0
 11
182.1143459502
 21
100.6839653304
 31
0.0
  0
LINE
  5
198
330
1F
100
AcDbEntity
  8
0
  6
HIDDEN
 62
     7
370
     0
100
AcDbLine
 10
182.1143459502
 20
109.0839653304
 30
0.0
 11
105.8143459502
 21
109.0839653304
 31
0.0
  0
LINE
  5
199
330
1F
100
AcDbEntity
  8
0
  6
HIDDEN
 62
     7
370
     0
100
AcDbLine
 10
182.1143459502
 20
100.6839653304
 30
0.0
 11
182.5349483835
 21
101.3839653304
 31
0.0
  0
LINE
  5
19A
330
1F
100
AcDbEntity
  8
0
  6
HIDDEN
 62
     7
370
     0
100
AcDbLine
 10
182.5349483835
 20
108.3839653304
 30
0.0
 11
182.1143459502
 21
109.0839653304
 31
0.0
  0
LINE
  5
19B
330
1F
100
AcDbEntity
  8
0
  6
HIDDEN
 62
     7
370
     0
100
AcDbLine
 10
202.5143459502
 20
108.8839653304
 30
0.0
 11
202.0143459502
 21
108.3839653304
 31
0.0
  0
LINE
  5
19C
330
1F
100
AcDbEntity
  8
0
  6
HIDDEN
 62
     7
370
     0
100
AcDbLine
 10
202.0143459502
 20
101.3839653304
 30
0.0
 11
202.5143459502
 21
100.8839653304
 31
0.0
  0
LINE
  5
19D
330
1F
100
AcDbEntity
  8
0
  6
HIDDEN
 62
     7
370
     0
100
AcDbLine
 10
78.7643459502
 20
81.1836004706
 30
0.0
 11
78.7643459502
 21
84.9468925044
 31
0.0
  0
LINE
  5
19E
330
1F
100
AcDbEntity
  8
0
  6
HIDDEN
 62
     7
370
     0
100
AcDbLine
 10
71.2643459502
 20
84.885827576
 30
0.0
 11
71.2643459502
 21
81.7056712129
 31
0.0
  0
LINE
  5
19F
330
1F
100
AcDbEntity
  8
0
  6
HIDDEN
 62
     7
370
     0
100
AcDbLine
 10
78.7643459502
 20
124.8210381565
 30
0.0
 11
78.7643459502
 21
128.5842513912
 31
0.0
  0
LINE
  5
1A0
330
1F
100
AcDbEntity
  8
0
  6
HIDDEN
 62
     7
370
     0
100
AcDbLine
 10
71.2643459502
 20
128.0622679216
 30
0.0
 11
71.2643459502
 21
124.8821030849
 31
0.0
  0
LINE
  5
1A1
330
1F
100
AcDbEntity
  8
0
  6
HIDDEN
 62
     7
370
     0
100
AcDbLine
 10
182.5349483835
 20
101.3839653304
 30
0.0
 11
202.0143459502
 21
101.3839653304
 31
0.0
  0
LINE
  5
1A2
330
1F
100
AcDbEntity
  8
0
  6
HIDDEN
 62
     7
370
     0
100
AcDbLine
 10
202.0143459502
 20
108.3839653304
 30
0.0
 11
182.5349483835
 21
108.3839653304
 31
0.0
  0
LINE
  5
1A3
330
1F
100
AcDbEntity
  8
0
  6
HIDDEN
 62
     7
370
     0
100
AcDbLine
 10
159.4643459502
 20
88.8839653304
 30
0.0
 11
158.4643459502
 21
89.4613155996
 31
0.0
  0
LINE
  5
1A4
330
1F
100
AcDbEntity
  8
0
  6
HIDDEN
 62
     7
370
     0
100
AcDbLine
 10
153.4643459502
 20
89.4613155996
 30
0.0
 11
152.4643459502
 21
88.8839653304
 31
0.0
  0
LINE
  5
1A5
330
1F
100
AcDbEntity
  8
0
  6
HIDDEN
 62
     7
370
     0
100
AcDbLine
 10
152.4643459502
 20
120.8839653304
 30
0.0
 11
153.4643459502
 21
120.3066150613
 31
0.0
  0
LINE
  5
1A6
330
1F
100
AcDbEntity
  8
0
  6
HIDDEN
 62
     7
370
     0
100
AcDbLine
 10
158.4643459502
 20
120.3066150613
 30
0.0
 11
159.4643459502
 21
120.8839653304
 31
0.0
  0
LINE
  5
1A7
330
1F
100
AcDbEntity
  8
0
  6
HIDDEN
 62
     7
370
     0
100
AcDbLine
 10
153.4643459502
 20
120.3066150613
 30
0.0
 11
153.4643459502
 21
111.8839653304
 31
0.0
  0
LINE
  5
1A8
330
1F
100
AcDbEntity
  8
0
  6
HIDDEN
 62
     7
370
     0
100
AcDbLine
 10
158.4643459502
 20
111.8839653304
 30
0.0
 11
158.4643459502
 21
120.3066150613
 31
0.0
  0
LINE
  5
1A9
330
1F
100
AcDbEntity
  8
0
  6
HIDDEN
 62
     7
370
     0
100
AcDbLine
 10
153.4643459502
 20
111.8839653304
 30
0.0
 11
155.9643459502
 21
110.3818137829
 31
0.0
  0
LINE
  5
1AA
330
1F
100
AcDbEntity
  8
0
  6
HIDDEN
 62
     7
370
     0
100
AcDbLine
 10
155.9643459502
 20
110.3818137829
 30
0.0
 11
158.4643459502
 21
111.8839653304
 31
0.0
  0
LINE
  5
1AB
330
1F
100
AcDbEntity
  8
0
  6
HIDDEN
 62
     7
370
     0
100
AcDbLine
 10
158.4643459502
 20
89.4613155996
 30
0.0
 11
158.4643459502
 21
97.8839653304
 31
0.0
  0
LINE
  5
1AC
330
1F
100
AcDbEntity
  8
0
  6
HIDDEN
 62
     7
370
     0
100
AcDbLine
 10
153.4643459502
 20
97.8839653304
 30
0.0
 11
153.4643459502
 21
89.4613155996
 31
0.0
  0
LINE
  5
1AD
330
1F
100
AcDbEntity
  8
0
  6
HIDDEN
 62
     7
370
     0
100
AcDbLine
 10
158.4643459502
 20
97.8839653304
 30
0.0
 11
155.9643459502
 21
99.386116878
 31
0.0
  0
LINE
  5
1AE
330
1F
100
AcDbEntity
  8
0
  6
HIDDEN
 62
     7
370
     0
100
AcDbLine
 10
155.9643459502
 20
99.386116878
 30
0.0
 11
153.4643459502
 21
97.8839653304
 31
0.0
  0
LINE
  5
1AF
330
1F
100
AcDbEntity
  8
0
  6
HIDDEN
 62
     7
370
     0
100
AcDbLine
 10
203.0143459502
 20
94.1458827092
 30
0.0
 11
203.0143459502
 21
93.8839653304
 31
0.0
  0
LINE
  5
1B0
330
1F
100
AcDbEntity
  8
0
  6
HIDDEN
 62
     7
370
     0
100
AcDbLine
 10
203.0143459502
 20
99.5845451763
 30
0.0
 11
203.0143459502
 21
96.5118126471
 31
0.0
  0
LINE
  5
1B1
330
1F
100
AcDbEntity
  8
0
  6
HIDDEN
 62
     7
370
     0
100
AcDbLine
 10
206.0143459502
 20
96.6419057124
 30
0.0
 11
206.0143459502
 21
99.5839653304
 31
0.0
  0
LINE
  5
1B2
330
1F
100
AcDbEntity
  8
0
  6
HIDDEN
 62
     7
370
     0
100
AcDbLine
 10
206.0143459502
 20
93.8839653304
 30
0.0
 11
206.0143459502
 21
94.1437335937
 31
0.0
  0
LINE
  5
1B3
330
1F
100
AcDbEntity
  8
0
  6
HIDDEN
 62
     7
370
     0
100
AcDbLine
 10
203.0143459502
 20
93.8839653304
 30
0.0
 11
204.5143459502
 21
92.9826744019
 31
0.0
  0
LINE
  5
1B4
330
1F
100
AcDbEntity
  8
0
  6
HIDDEN
 62
     7
370
     0
100
AcDbLine
 10
204.5143459502
 20
92.9826744019
 30
0.0
 11
206.0143459502
 21
93.8839653304
 31
0.0
  0
LINE
  5
1B5
330
1F
100
AcDbEntity
  8
0
  6
HIDDEN
 62
     7
370
     0
100
AcDbLine
 10
203.0143459502
 20
113.2561180137
 30
0.0
 11
203.0143459502
 21
110.1827632403
 31
0.0
  0
LINE
  5
1B6
330
1F
100
AcDbEntity
  8
0
  6
HIDDEN
 62
     7
370
     0
100
AcDbLine
 10
203.0143459502
 20
116.3839653304
 30
0.0
 11
203.0143459502
 21
115.6220479517
 31
0.0
  0
LINE
  5
1B7
330
1F
100
AcDbEntity
  8
0
  6
HIDDEN
 62
     7
370
     0
100
AcDbLine
 10
206.0143459502
 20
115.6241970672
 30
0.0
 11
206.0143459502
 21
116.3839653304
 31
0.0
  0
LINE
  5
1B8
330
1F
100
AcDbEntity
  8
0
  6
HIDDEN
 62
     7
370
     0
100
AcDbLine
 10
206.0143459502
 20
110.1824647578
 30
0.0
 11
206.0143459502
 21
113.1260249485
 31
0.0
  0
LINE
  5
1B9
330
1F
100
AcDbEntity
  8
0
  6
HIDDEN
 62
     7
370
     0
100
AcDbLine
 10
206.0112912535
 20
94.1398567965
 30
0.0
 11
244.0143459502
 21
95.6330008822
 31
0.0
  0
LINE
  5
1BA
330
1F
100
AcDbEntity
  8
0
  6
HIDDEN
 62
     7
370
     0
100
AcDbLine
 10
244.0143459502
 20
98.1349297787
 30
0.0
 11
206.0143459502
 21
96.6419057124
 31
0.0
  0
LINE
  5
1BB
330
1F
100
AcDbEntity
  8
0
  6
HIDDEN
 62
     7
370
     0
100
AcDbLine
 10
206.0143459502
 20
113.1260249485
 30
0.0
 11
244.0143459502
 21
111.6330008822
 31
0.0
  0
LINE
  5
1BC
330
1F
100
AcDbEntity
  8
0
  6
HIDDEN
 62
     7
370
     0
100
AcDbLine
 10
244.0143459502
 20
114.1349297787
 30
0.0
 11
206.0112912535
 21
115.6280738643
 31
0.0
  0
LINE
  5
1BD
330
1F
100
AcDbEntity
  8
0
  6
HIDDEN
 62
     7
370
     0
100
AcDbLine
 10
202.9968806947
 20
96.5233491796
 30
0.0
 11
202.2954587428
 21
95.2448257878
 31
0.0
  0
LINE
  5
1BE
330
1F
100
AcDbEntity
  8
0
  6
HIDDEN
 62
     7
370
     0
100
AcDbLine
 10
202.2954587428
 20
95.2448257878
 30
0.0
 11
203.0176847704
 21
94.1432480266
 31
0.0
  0
LINE
  5
1BF
330
1F
100
AcDbEntity
  8
0
  6
HIDDEN
 62
     7
370
     0
100
AcDbLine
 10
203.0176847704
 20
115.6246826343
 30
0.0
 11
202.2954587428
 21
114.5231048731
 31
0.0
  0
LINE
  5
1C0
330
1F
100
AcDbEntity
  8
0
  6
HIDDEN
 62
     7
370
     0
100
AcDbLine
 10
202.2954587428
 20
114.5231048731
 30
0.0
 11
202.9968806947
 21
113.2445814813
 31
0.0
  0
LINE
  5
1C1
330
1F
100
AcDbEntity
  8
0
  6
HIDDEN
 62
     7
370
     0
100
AcDbLine
 10
187.0143459502
 20
100.8839653304
 30
0.0
 11
202.5143459502
 21
100.8839653304
 31
0.0
  0
LINE
  5
1C2
330
1F
100
AcDbEntity
  8
0
  6
HIDDEN
 62
     7
370
     0
100
AcDbLine
 10
202.5143459502
 20
108.8839653304
 30
0.0
 11
187.0143459502
 21
108.8839653304
 31
0.0
  0
LINE
  5
1C3
330
1F
100
AcDbEntity
  8
0
  6
HIDDEN
 62
     7
370
     0
100
AcDbLine
 10
202.5143459502
 20
100.8839653304
 30
0.0
 11
203.0143459502
 21
101.3839653304
 31
0.0
  0
LINE
  5
1C4
330
1F
100
AcDbEntity
  8
0
  6
HIDDEN
 62
     7
370
     0
100
AcDbLine
 10
203.0143459502
 20
108.3839653304
 30
0.0
 11
202.5143459502
 21
108.8839653304
 31
0.0
  0
LINE
  5
1C5
330
1F
100
AcDbEntity
  8
0
  6
HIDDEN
 62
     7
370
     0
100
AcDbLine
 10
187.0143459502
 20
108.8839653304
 30
0.0
 11
186.5143459502
 21
108.3839653304
 31
0.0
  0
LINE
  5
1C6
330
1F
100
AcDbEntity
  8
0
  6
HIDDEN
 62
     7
370
     0
100
AcDbLine
 10
186.5143459502
 20
101.3839653304
 30
0.0
 11
187.0143459502
 21
100.8839653304
 31
0.0
  0
LINE
  5
1C7
330
1F
100
AcDbEntity
  8
0
  6
HIDDEN
 62
     7
370
     0
100
AcDbLine
 10
203.0143459502
 20
101.3839653304
 30
0.0
 11
206.5143459502
 21
101.3839653304
 31
0.0
  0
LINE
  5
1C8
330
1F
100
AcDbEntity
  8
0
  6
HIDDEN
 62
     7
370
     0
100
AcDbLine
 10
206.5143459502
 20
108.3839653304
 30
0.0
 11
203.0143459502
 21
108.3839653304
 31
0.0
  0
LINE
  5
1C9
330
1F
100
AcDbEntity
  8
0
  6
HIDDEN
 62
     7
370
     0
100
AcDbLine
 10
191.5143459502
 20
102.8839653304
 30
0.0
 11
201.5143459502
 21
102.8839653304
 31
0.0
  0
LINE
  5
1CA
330
1F
100
AcDbEntity
  8
0
  6
HIDDEN
 62
     7
370
     0
100
AcDbLine
 10
201.5143459502
 20
106.8839653304
 30
0.0
 11
191.5143459502
 21
106.8839653304
 31
0.0
  0
LINE
  5
1CB
330
1F
100
AcDbEntity
  8
0
  6
HIDDEN
 62
     7
370
     0
100
AcDbLine
 10
243.9408586402
 20
95.3799206683
 30
0.0
 11
244.0143459502
 21
95.5195970701
 31
0.0
  0
LINE
  5
1CC
330
1F
100
AcDbEntity
  8
0
  6
HIDDEN
 62
     7
370
     0
100
AcDbLine
 10
243.9959134667
 20
98.1036820319
 30
0.0
 11
243.823079193
 21
98.377607777
 31
0.0
  0
LINE
  5
1CD
330
1F
100
AcDbEntity
  8
0
  6
HIDDEN
 62
     7
370
     0
100
AcDbLine
 10
243.823079193
 20
98.377607777
 30
0.0
 11
238.4891413891
 21
98.1680367899
 31
0.0
  0
LINE
  5
1CE
330
1F
100
AcDbEntity
  8
0
  6
HIDDEN
 62
     7
370
     0
100
AcDbLine
 10
238.6069208364
 20
95.1703496812
 30
0.0
 11
243.9408586402
 21
95.3799206683
 31
0.0
  0
LINE
  5
1CF
330
1F
100
AcDbEntity
  8
0
  6
HIDDEN
 62
     7
370
     0
100
AcDbLine
 10
238.4891413891
 20
98.1680367899
 30
0.0
 11
238.0091567788
 21
97.6487923639
 31
0.0
  0
LINE
  5
1D0
330
1F
100
AcDbEntity
  8
0
  6
HIDDEN
 62
     7
370
     0
100
AcDbLine
 10
238.0876764104
 20
95.6503342914
 30
0.0
 11
238.6069208364
 21
95.1703496812
 31
0.0
  0
LINE
  5
1D1
330
1F
100
AcDbEntity
  8
0
  6
HIDDEN
 62
     7
370
     0
100
AcDbLine
 10
243.8819689166
 20
114.3903237762
 30
0.0
 11
238.5480311127
 21
114.5998947633
 31
0.0
  0
LINE
  5
1D2
330
1F
100
AcDbEntity
  8
0
  6
HIDDEN
 62
     7
370
     0
100
AcDbLine
 10
238.4302516654
 20
111.6022076545
 30
0.0
 11
243.7641894693
 21
111.3926366674
 31
0.0
  0
LINE
  5
1D3
330
1F
100
AcDbEntity
  8
0
  6
HIDDEN
 62
     7
370
     0
100
AcDbLine
 10
243.7641894693
 20
111.3926366674
 30
0.0
 11
243.9370237431
 21
111.6665624125
 31
0.0
  0
LINE
  5
1D4
330
1F
100
AcDbEntity
  8
0
  6
HIDDEN
 62
     7
370
     0
100
AcDbLine
 10
244.0143459502
 20
114.1387164205
 30
0.0
 11
243.8819689166
 21
114.3903237762
 31
0.0
  0
LINE
  5
1D5
330
1F
100
AcDbEntity
  8
0
  6
HIDDEN
 62
     7
370
     0
100
AcDbLine
 10
238.5480311127
 20
114.5998947633
 30
0.0
 11
238.0287866867
 21
114.119910153
 31
0.0
  0
LINE
  5
1D6
330
1F
100
AcDbEntity
  8
0
  6
HIDDEN
 62
     7
370
     0
100
AcDbLine
 10
237.9502670552
 20
112.1214520805
 30
0.0
 11
238.4302516654
 21
111.6022076545
 31
0.0
  0
DIMENSION
  5
1D7
330
1F
100
AcDbEntity
  8
VERMASSUNG
100
AcDbDimension
  2
*D1
 10
46.8536294691
 20
73.3839653304
 30
0.0
 11
46.8536294691
 21
104.8839653304
 31
0.0
 70
   160
  1
HSK A %%c<>
 71
     2
 42
-1.0
  3
SLDDIMSTYLE0
100
AcDbAlignedDimension
 13
84.3143459502
 23
136.3839653304
 33
0.0
 14
84.3143459502
 24
73.3839653304
 34
0.0
 50
90.0
100
AcDbRotatedDimension
  0
DIMENSION
  5
1E4
330
1F
100
AcDbEntity
  8
VERMASSUNG
100
AcDbDimension
  2
*D2
 10
244.0143459502
 20
141.318851571
 30
0.0
 11
223.2643459502
 21
141.318851571
 31
0.0
 70
   160
 71
     2
 42
-1.0
  3
SLDDIMSTYLE1
100
AcDbAlignedDimension
 13
202.5143459502
 23
109.7839653304
 33
0.0
 14
244.0143459502
 24
115.0351843471
 34
0.0
 50
0.0
100
AcDbRotatedDimension
  0
DIMENSION
  5
1EF
330
1F
100
AcDbEntity
  8
VERMASSUNG
100
AcDbDimension
  2
*D3
 10
251.3067172264
 20
109.8839653304
 30
0.0
 11
251.3067172264
 21
104.8839653304
 31
0.0
 70
   160
  1
%%c<> 
 71
     2
 42
-1.0
  3
SLDDIMSTYLE2
100
AcDbAlignedDimension
 13
240.5143459502
 23
99.8839653304
 33
0.0
 14
240.5143459502
 24
109.8839653304
 34
0.0
 50
90.0
100
AcDbRotatedDimension
  0
DIMENSION
  5
1FC
330
1F
100
AcDbEntity
  8
VERMASSUNG
100
AcDbDimension
  2
*D4
 10
257.3067172264
 20
116.8839653304
 30
0.0
 11
257.3067172264
 21
104.8839653304
 31
0.0
 70
   160
  1
%%c<>
 71
     2
 42
-1.0
  3
SLDDIMSTYLE3
100
AcDbAlignedDimension
 13
244.0143459502
 23
92.8839653304
 33
0.0
 14
244.0143459502
 24
116.8839653304
 34
0.0
 50
90.0
100
AcDbRotatedDimension
  0
DIMENSION
  5
208
330
1F
100
AcDbEntity
  8
VERMASSUNG
100
AcDbDimension
  2
*D5
 10
244.0143459502
 20
153.318851571
 30
0.0
 11
164.0143459502
 21
153.318851571
 31
0.0
 70
   160
 71
     2
 42
-1.0
  3
SLDDIMSTYLE0
100
AcDbAlignedDimension
 13
84.0143459502
 23
136.0839653304
 33
0.0
 14
244.0143459502
 24
115.0351843471
 34
0.0
100
AcDbRotatedDimension
  0
DIMENSION
  5
212
330
1F
100
AcDbEntity
  8
VERMASSUNG
100
AcDbDimension
  2
*D6
 10
263.3067172264
 20
88.8839653304
 30
0.0
 11
263.3067172264
 21
104.8839653304
 31
0.0
 70
   160
  1
%%c<>
 71
     2
 42
-1.0
  3
SLDDIMSTYLE0
100
AcDbAlignedDimension
 13
193.1895270055
 23
120.8839653304
 33
0.0
 14
193.1895270055
 24
88.8839653304
 34
0.0
 50
90.0
100
AcDbRotatedDimension
  0
DIMENSION
  5
21D
330
1F
100
AcDbEntity
  8
VERMASSUNG
100
AcDbDimension
  2
*D7
 10
244.0143459502
 20
147.318851571
 30
0.0
 11
176.9893459502
 21
147.318851571
 31
0.0
 70
   160
 71
     2
 42
-1.0
  3
SLDDIMSTYLE0
100
AcDbAlignedDimension
 13
109.9643459502
 23
134.7304056542
 33
0.0
 14
244.0143459502
 24
115.0351843471
 34
0.0
100
AcDbRotatedDimension
  0
DIMENSION
  5
227
330
1F
100
AcDbEntity
  8
VERMASSUNG
100
AcDbDimension
  2
*D8
 10
52.1143459502
 20
159.318851571
 30
0.0
 11
148.0643459502
 21
159.318851571
 31
0.0
 70
   160
 71
     2
 42
-1.0
  3
SLDDIMSTYLE0
100
AcDbAlignedDimension
 13
244.0143459502
 23
115.0351843471
 33
0.0
 14
52.1143459502
 24
124.5746430769
 34
0.0
100
AcDbRotatedDimension
  0
LINE
  5
231
330
1F
100
AcDbEntity
  8
VERMASSUNG
  6
CENTERX2
370
     0
100
AcDbLine
 10
49.9690421079
 20
104.8839653304
 30
0.0
 11
245.9691224269
 21
104.8839653304
 31
0.0
  0
OLE2FRAME
  5
232
330
1F
100
AcDbEntity
  8
0
100
AcDbOle2Frame
 70
     2
  3
Bitmap Image
 10
13.8511154363
 20
38.264191557
 30
0.0
 11
51.6290888628
 21
31.9806341108
 31
0.0
 71
     2
 72
     0
 73
     1
 90
    12928
310
80552BED0767C5B32B40DDAF6807D121434000000000000000006FFBDDFB85D0
310
4940DDAF6807D121434000000000000000006FFBDDFB85D04940416F4BD60AFB
310
3F4000000000000000002BED0767C5B32B40416F4BD60AFB3F40000000000000
310
0000000000000100000000010000010000000100000000000100000000320000
310
D0CF11E0A1B11AE1000000000000000000000000000000003E000300FEFF0900
310
0600000000000000000000000100000001000000000000000010000002000000
310
01000000FEFFFFFF0000000000000000FFFFFFFFFFFFFFFFFFFFFFFFFFFFFFFF
310
FFFFFFFFFFFFFFFFFFFFFFFFFFFFFFFFFFFFFFFFFFFFFFFFFFFFFFFFFFFFFFFF
310
FFFFFFFFFFFFFFFFFFFFFFFFFFFFFFFFFFFFFFFFFFFFFFFFFFFFFFFFFFFFFFFF
310
FFFFFFFFFFFFFFFFFFFFFFFFFFFFFFFFFFFFFFFFFFFFFFFFFFFFFFFFFFFFFFFF
310
FFFFFFFFFFFFFFFFFFFFFFFFFFFFFFFFFFFFFFFFFFFFFFFFFFFFFFFFFFFFFFFF
310
FFFFFFFFFFFFFFFFFFFFFFFFFFFFFFFFFFFFFFFFFFFFFFFFFFFFFFFFFFFFFFFF
310
FFFFFFFFFFFFFFFFFFFFFFFFFFFFFFFFFFFFFFFFFFFFFFFFFFFFFFFFFFFFFFFF
310
FFFFFFFFFFFFFFFFFFFFFFFFFFFFFFFFFFFFFFFFFFFFFFFFFFFFFFFFFFFFFFFF
310
FFFFFFFFFFFFFFFFFFFFFFFFFFFFFFFFFFFFFFFFFFFFFFFFFFFFFFFFFFFFFFFF
310
FFFFFFFFFFFFFFFFFFFFFFFFFFFFFFFFFFFFFFFFFFFFFFFFFFFFFFFFFFFFFFFF
310
FFFFFFFFFFFFFFFFFFFFFFFFFFFFFFFFFFFFFFFFFFFFFFFFFFFFFFFFFFFFFFFF
310
FFFFFFFFFFFFFFFFFFFFFFFFFFFFFFFFFFFFFFFFFFFFFFFFFFFFFFFFFFFFFFFF
310
FFFFFFFFFFFFFFFFFFFFFFFFFFFFFFFFFFFFFFFFFFFFFFFFFFFFFFFFFFFFFFFF
310
FFFFFFFFFFFFFFFFFFFFFFFFFFFFFFFFFFFFFFFFFFFFFFFFFFFFFFFFFFFFFFFF
310
FDFFFFFFFEFFFFFFFEFFFFFFFEFFFFFF05000000060000000700000008000000
310
090000000A0000000B0000000C0000000D0000000E0000000F00000010000000
310
11000000120000001300000014000000150000001600000017000000FEFFFFFF
310
FFFFFFFFFFFFFFFFFFFFFFFFFFFFFFFFFFFFFFFFFFFFFFFFFFFFFFFFFFFFFFFF
310
FFFFFFFFFFFFFFFFFFFFFFFFFFFFFFFFFFFFFFFFFFFFFFFFFFFFFFFFFFFFFFFF
310
FFFFFFFFFFFFFFFFFFFFFFFFFFFFFFFFFFFFFFFFFFFFFFFFFFFFFFFFFFFFFFFF
310
FFFFFFFFFFFFFFFFFFFFFFFFFFFFFFFFFFFFFFFFFFFFFFFFFFFFFFFFFFFFFFFF
310
FFFFFFFFFFFFFFFFFFFFFFFFFFFFFFFFFFFFFFFFFFFFFFFFFFFFFFFFFFFFFFFF
310
FFFFFFFFFFFFFFFFFFFFFFFFFFFFFFFFFFFFFFFFFFFFFFFFFFFFFFFFFFFFFFFF
310
FFFFFFFFFFFFFFFFFFFFFFFFFFFFFFFFFFFFFFFFFFFFFFFFFFFFFFFFFFFFFFFF
310
FFFFFFFFFFFFFFFFFFFFFFFFFFFFFFFFFFFFFFFFFFFFFFFFFFFFFFFFFFFFFFFF
310
FFFFFFFFFFFFFFFFFFFFFFFFFFFFFFFFFFFFFFFFFFFFFFFFFFFFFFFFFFFFFFFF
310
FFFFFFFFFFFFFFFFFFFFFFFFFFFFFFFFFFFFFFFFFFFFFFFFFFFFFFFFFFFFFFFF
310
FFFFFFFFFFFFFFFFFFFFFFFFFFFFFFFFFFFFFFFFFFFFFFFFFFFFFFFFFFFFFFFF
310
FFFFFFFFFFFFFFFFFFFFFFFFFFFFFFFFFFFFFFFFFFFFFFFFFFFFFFFFFFFFFFFF
310
FFFFFFFFFFFFFFFFFFFFFFFFFFFFFFFFFFFFFFFFFFFFFFFFFFFFFFFFFFFFFFFF
310
52006F006F007400200045006E00740072007900000000000000000000000000
310
0000000000000000000000000000000000000000000000000000000000000000
310
16000500FFFFFFFFFFFFFFFF020000000A00030000000000C000000000000046
310
000000000000000000000000C0414BE6C204CC0103000000C000000000000000
310
01004F006C006500000000000000000000000000000000000000000000000000
310
0000000000000000000000000000000000000000000000000000000000000000
310
0A000200FFFFFFFFFFFFFFFFFFFFFFFF00000000000000000000000000000000
310
0000000000000000000000000000000000000000000000001400000000000000
310
010043006F006D0070004F0062006A0000000000000000000000000000000000
310
0000000000000000000000000000000000000000000000000000000000000000
310
120002010100000003000000FFFFFFFF00000000000000000000000000000000
310
0000000000000000000000000000000000000000010000004D00000000000000
310
01004F006C006500310030004E00610074006900760065000000000000000000
310
0000000000000000000000000000000000000000000000000000000000000000
310
1A000200FFFFFFFFFFFFFFFFFFFFFFFF00000000000000000000000000000000
310
0000000000000000000000000000000000000000040000002426000000000000
310
FEFFFFFF02000000FEFFFFFFFFFFFFFFFFFFFFFFFFFFFFFFFFFFFFFFFFFFFFFF
310
FFFFFFFFFFFFFFFFFFFFFFFFFFFFFFFFFFFFFFFFFFFFFFFFFFFFFFFFFFFFFFFF
310
FFFFFFFFFFFFFFFFFFFFFFFFFFFFFFFFFFFFFFFFFFFFFFFFFFFFFFFFFFFFFFFF
310
FFFFFFFFFFFFFFFFFFFFFFFFFFFFFFFFFFFFFFFFFFFFFFFFFFFFFFFFFFFFFFFF
310
FFFFFFFFFFFFFFFFFFFFFFFFFFFFFFFFFFFFFFFFFFFFFFFFFFFFFFFFFFFFFFFF
310
FFFFFFFFFFFFFFFFFFFFFFFFFFFFFFFFFFFFFFFFFFFFFFFFFFFFFFFFFFFFFFFF
310
FFFFFFFFFFFFFFFFFFFFFFFFFFFFFFFFFFFFFFFFFFFFFFFFFFFFFFFFFFFFFFFF
310
FFFFFFFFFFFFFFFFFFFFFFFFFFFFFFFFFFFFFFFFFFFFFFFFFFFFFFFFFFFFFFFF
310
FFFFFFFFFFFFFFFFFFFFFFFFFFFFFFFFFFFFFFFFFFFFFFFFFFFFFFFFFFFFFFFF
310
FFFFFFFFFFFFFFFFFFFFFFFFFFFFFFFFFFFFFFFFFFFFFFFFFFFFFFFFFFFFFFFF
310
FFFFFFFFFFFFFFFFFFFFFFFFFFFFFFFFFFFFFFFFFFFFFFFFFFFFFFFFFFFFFFFF
310
FFFFFFFFFFFFFFFFFFFFFFFFFFFFFFFFFFFFFFFFFFFFFFFFFFFFFFFFFFFFFFFF
310
FFFFFFFFFFFFFFFFFFFFFFFFFFFFFFFFFFFFFFFFFFFFFFFFFFFFFFFFFFFFFFFF
310
FFFFFFFFFFFFFFFFFFFFFFFFFFFFFFFFFFFFFFFFFFFFFFFFFFFFFFFFFFFFFFFF
310
FFFFFFFFFFFFFFFFFFFFFFFFFFFFFFFFFFFFFFFFFFFFFFFFFFFFFFFFFFFFFFFF
310
FFFFFFFFFFFFFFFFFFFFFFFFFFFFFFFFFFFFFFFFFFFFFFFFFFFFFFFFFFFFFFFF
310
0100000200000000000000000000000000000000000000000000000000000000
310
00000000000000003800000041000000AA0DBB0200000000320ED50300000000
310
0100FEFF030A0000FFFFFFFF0A00030000000000C00000000000004607000000
310
5042727573680007000000504272757368000700000050427275736800F439B2
310
7100000000000000000000000000000000000000000000000000C70600000000
310
425D000000000000000000000000000000000000000000003800000041000000
310
AA0DBB02000000002E0E86010000000000000000000000000000000000000000
310
0000C70600000000435D00000000000000000000000000000000000000000000
310
3800000041000000AA0DBB0200000000780E0304000000000000000000000000
310
00000000000000000000C706000000003D5D0000000000000000000000000000
310
00000000000000003800000041000000AA0DBB02000000003A0EBD0300000000
310
000000000000000000000000000000000000C706000000003E5D000000000000
310
000000000000000000000000000000003800000041000000AA0DBB0200000000
310
400E340300000000000000000000000000000000000000000000C70600000000
310
3F5D000000000000000000000000000000000000000000003800000041000000
310
AA0DBB02000000001C0E77030000000000000000000000000000000000000000
310
20260000424D0E260000000000003E00000028000000B40200006E0000000100
310
01000000000000000000130B0000130B00000200000002000000000000FFFFFF
310
FFFFFFFFFFFFFFFFFFFFFFFFFFFFFFFFFFFFFFFFFFFFFFFFFFFFFFFFFFFFFFFF
310
FFFFFFFFFFFFFFFFFFFFFFFFFFFFFFFFFFFFFFFFFFFFFFFFFFFFFFFFFFFFFFFF
310
FFFFFFFFFFFFFFFFFFFFFFFFFFFFFFFFFFFFFFFFFFFFFFFFF000FFFFFFFFFFFF
310
FFFFFFFFFFFFFFFFFFFFFFFFFFFFFFFFFFFFFFFFFFFFFFFFFFFFFFFFFFFFFFFF
310
FFFFFFFFFFFFFFFFFFFFFFFFFFFFFFFFFFFFFFFFFFFFFFFFFFFFFFFFFFFFFFFF
310
FFFFFFFFFFFFFFFFFFFFFFFFFFFFFFFFF000FFFFFFFFFFFFFFFFFFFFFFFFFFFF
310
FFFFFFFFFFFFFFFFFFFFFFFFFFFFFFFFFFFFFFFFFFFFFFFFFFFFFFFFFFFFFFFF
310
FFFFFFFFFFFFFFFFFFFFFFFFFFFFFFFFFFFFFFFFFFFFFFFFFFFFFFFFFFFFFFFF
310
FFFFFFFFFFFFFFFFF000FFFFFFFFFFFFFFFFFFFFFFFFFFFFFFFFFFFFFFFFFFFF
310
FFFFFFFFFFFFFFFFFFFFFFFFFFFFFFFFFFFFFFFFFFFFFFFFFFFFFFFFFFFFFFFF
310
FFFFFFFFFFFFFFFFFFFFFFFFFFFFFFFFFFFFFFFFFFFFFFFFFFFFFFFFFFFFFFFF
310
F000FFFFFFFFFFFFFFFFFFFFFFFFFFFFFFFFFFFFFFFFFFFFFFFFFFFFFFFFFFFF
310
FFFFFFFFFFFFFFFFFFFFFFFFFFFFFFFFFFFFFFFFFFFFFFFFFFFFFFFFFFFFFFFF
310
FFFFFFFFFFFFFFFFFFFFFFFFFFFFFFFFFFFFFFFFFFFFFFFFF000FFFFFFFFFFFF
310
FFFFFFFFFFFFFFFFFFFFFFFFFFFFFFFFFFFFFFFFFFFFFFFFFFFFFFFFFFFFFFFF
310
FFFFFFFFFFFFFFFFFFFFFFFFFFFFFFFFFFFFFFFFFFFFFFFFFFFFFFFFFFFFFFFF
310
FFFFFFFFFFFFFFFFFFFFFFFFFFFFFFFFF000FFFFFFFFFFFFFFFFFFFFFFFFFFFF
310
FFFFFFFFFFFFFFFFFFFFFFFFFFFFFFFFFFFFFFFFFFFFFFFFFFFFFFFFFFFFFFFF
310
FFFFFFFFFFFFFFFFFFFFFFFFFFFFFFFFFFFFFFFFFFFFFFFFFFFFFFFFFFFFFFFF
310
FFFFFFFFFFFFFFFFF000FFFFFFFFFFFFFFFFFFFFFFFFFFFFFFFFFFFFFFFFFFFF
310
FFFFFFFFFFFFFFFFFFFFFFFFFFFFFFFFFFFFFFFFFFFFFFFFFFFFFFFFFFFFFFFF
310
FFFFFFFFFFFFFFFFFFFFFFFFFFFFFFFFFFFFFFFFFFFFFFFFFFFFFFFFFFFFFFFF
310
F000FFFFFFFFFFFFFFFFFFFFFFFFFFFFFFFFFFFFFFFFFFFFFFFFFFFFFFFFFFFF
310
FFFFFFFFFFFFFFFFFFFFFFFFFFFFFFFFFFFFFFFFFFFFFFFFFFFFFFFFFFFFFFFF
310
FFFFFFFFFFFFFFFFFFFFFFFFFFFFFFFFFFFFFFFFFFFFFFFFF000FFFFFFFFFFFF
310
FFFFFFFFFFFFFFFFFFFFFFFFFFFFFFFFFFFFFFFFFFFFFFFFFFFFFFFFFFFFFFFF
310
FFFFFFFFFFFFFFFFFFFFFFFFFFFFFFFFFFFFFFFFFFFFFFFFFFFFFFFFFFFFFFFF
310
FFFFFFFFFFFFFFFFFFFFFFFFFFFFFFFFF000FFFFFFFFFFFFFFFFFFFFFFFFFFFF
310
FFFFFFFFFFFFFFFFFFFFFFFFFFFFFFFFFFFFFFFFFFFFFFFFFFFFFFFFFFFFFFFF
310
FFFFFFFFFFFFFFFFFFFFFFFFFFFFFFFFFFFFFFFFFFFFFFFFFFFFFFFFFFFFFFFF
310
FFFFFFFFFFFFFFFFF000FFFFFFFFFFFFFFFFFFFFFFFFFFFFFFFFFFFFFFFFFFFF
310
FFFFFFFFFFFFFFFFFFFFFFFFFFFFFFFFFFFFFFFFFFFFFFFFFFFFFFFFFFFFFFFF
310
FFFFFFFFFFFFFFFFFFFFFFFFFFFFFFFFFFFFFFFFFFFFFFFFFFFFFFFFFFFFFFFF
310
F000FFFFFFFFFFFFFFFFFFFFFFFFFFFFFFFFFFFFFFFFFFFFFFFFFFFFFFFFFFFF
310
FFFFFFFFFFFFFFFFFFFFFFFFFFFFFFFFFFFFFFFFFFFFFFFFFFFFFFFFFFFFFFFF
310
FFFFFFFFFFFFFFFFFFFFFFFFFFFFFFFFFFFFFFFFFFFFFFFFF000FFFFFFFFFFFF
310
FFFFFFFFFFFFFFFFFFFFFFFFFFFFFFFFFFFFFFFFFFFFFFFFFFFFFFFFFFFFFFFF
310
FFFFFFFFFFFFFFFFFFFFFFFFFFFFFFFFFFFFFFFFFFFFFFFFFFFFFFFFFFFFFFFF
310
FFFFFFFFFFFFFFFFFFFFFFFFFFFFFFFFF000FFFFFFFFFFFFFFFFFFFFFFFFFFFF
310
FFFFFFFFFFFFFFFFFFFFFFFFFFFFFFFFFFFFFFFFFFFFFFFFFFFFFFFFFFFFFFFF
310
FFFFFFFFFFFFFFFFFFFFFFFFFFFFFFFFFFFFFFFFFFFFFFFFFFFFFFFFFFFFFFFF
310
FFFFFFFFFFFFFFFFF000FFFFFFFFFFFFFFFFFFFFFFFFFFFFFFFFFFFFFFFFFFFF
310
FFFFFFFFFFFFFFFFFFFFFFFFFFFFFFFFFFFFFFFFFFFFFFFFFFFFFFFFFFFFFFFF
310
FFFFFFFFFFFFFFFFFFFFFFFFFFFFFFFFFFFFFFFFFFFFFFFFFFFFFFFFFFFFFFFF
310
F000FFFFFFFFFFFFFFFFFFFFFFFFFFFFFFFFFFFFFFFFFFFFFFFFFFFFFFFFFFFF
310
FFFFFFFFFFFFFFFFFFFFFFFFFFFFFFFFFFFFFFFFFFFFFFFFFFFFFFFFFFFFFFFF
310
FFFFFFFFFFFFFFFFFFFFFFFFFFFFFFFFFFFFFFFFFFFFFFFFF000FFFFFFFFFFFF
310
FFFFFFFFFFFFFFFFFFFFFFFFFFFFFFFFFFFFFFFFFFFFFFFFFFFFFFFFFFFFFFFF
310
FFFFFFFFFFFFFFFFFFFFFFFFFFFFFFFFFFFFFFFFFFFFFFFFFFFFFFFFFFFFFFFF
310
FFFFFFFFFFFFFFFFFFFFFFFFFFFFFFFFF000FFFFFFFFFFFFFFFFFFFFFFFFFFFF
310
FFFFFFFFFFFFFFFFFFFFFFFFFFFFFFFFFFFFFFFFFFFFFFFFFFFFFFFFFFFFFFFF
310
FFFFFFFFFFFFFFFFFFFFFFFFFFFFFFFFFFFFFFFFFFFFFFFFFFFFFFFFFFFFFFFF
310
FFFFFFFFFFFFFFFFF000FFFFF80003FFFFFFFFFFFFFFFFFFFFFFFFFFFFFFFFFF
310
FFFFF00007FFFFFFFFFF00007FFFFFF800000000000000007FFFFFFFFFFFFFFF
310
FFFFFFFC001FFFFFFFFFFFFFFC001FFFFFFFFFFFFFFFFFFFFFFFFFFE0007FFFF
310
F000FFFF8000007FFFFFFFF8000FFFFFC0007FFFFF80007FFFFF0000007FFFFF
310
FFF8000007FFFFF800000000000000007FFFFFF0001FFFFFFFFFFFC00001FFFF
310
FFFFFFFFC00001FFFFFFFF000000000003FFFFE000007FFFF000FFFE0000000F
310
FFFFFFF0000FFFFF80007FFFFF80007FFFFC0000001FFFFFFFC0000001FFFFF8
310
00000000000000007FFFFFF0001FFFFFFFFFFE0000003FFFFFFFFFFE0000003F
310
FFFFFF000000000003FFFF0000000FFFF000FFF800000003FFFFFFF00007FFFF
310
80007FFFFF80007FFFF000000007FFFFFF000000003FFFF80000000000000000
310
7FFFFFF0001FFFFFFFFFF80000000FFFFFFFFFF80000000FFFFFFF0000000000
310
03FFFC00000003FFF000FFE000000000FFFFFFF00007FFFF80003FFFFF80007F
310
FFC000000001FFFFFC000000001FFFF800000000000000007FFFFFF0001FFFFF
310
FFFFE000000003FFFFFFFFE000000003FFFFFF000000000003FFF000000000FF
310
F000FF80000000007FFFFFF00007FFFF80003FFFFF80007FFF8000000000FFFF
310
F80000000007FFF800000000000000007FFFFFF0001FFFFFFFFFC000000001FF
310
FFFFFFC000000001FFFFFF000000000003FFC0000000007FF000FF0000000000
310
3FFFFFE00007FFFF00003FFFFF80007FFE00000000003FFFF00000000003FFF8
310
00000000000000007FFFFFF0001FFFFFFFFF8000000000FFFFFFFF8000000000
310
FFFFFF000000000003FF80000000003FF000FE00000000001FFFFFE00003FFFF
310
00003FFFFF80007FFC00000000001FFFE00000000001FFF8000001FFFE000000
310
7FFFFFF0001FFFFFFFFE00000000003FFFFFFE00000000003FFFFF0000000000
310
03FF00000000001FF000FC00000000000FFFFFE00003FFFF00001FFFFF80007F
310
F800000000001FFFC00000000000FFF8000001FFFE0000007FFFFFF0001FFFFF
310
FFFC00000000001FFFFFFC00000000001FFFFF000000000003FE00000000000F
310
F000F8000000000007FFFFE00003FFFF00001FFFFF80007FF800000000000FFF
310
800000000000FFF8000001FFFE0000007FFFFFF0001FFFFFFFF800000000000F
310
FFFFF800000000000FFFFF000000000003FC000000000007F000F80000000000
310
03FFFFC00003FFFE00001FFFFF80007FF0000000000007FF0000000000007FF8
310
000001FFFE0000007FFFFFF0001FFFFFFFF0000000000007FFFFF00000000000
310
07FFFF000000000003F8000000000003F000F0000000000003FFFFC00001FFFE
310
00001FFFFF80007FE0000000000007FE0000000000003FF8000001FFFE000000
310
7FFFFFF0001FFFFFFFF0000000000007FFFFF0000000000007FFFF0000000000
310
03F800001F800003F000E00001FFF00001FFFFC00001FFFE00000FFFFF80007F
310
E00001FFE00003FE00001FFF00003FF8000001FFFE0000007FFFFFF0001FFFFF
310
FFE000003E000003FFFFE000003E000003FFFF000000000003F00001FFF80001
310
F000E00007FFFC0001FFFFC00001FFFE00000FFFFF80007FC0000FFFFC0003FC
310
0000FFFFC0001FF8000001FFFE0000007FFFFFF0001FFFFFFFC00003FFE00001
310
FFFFC00003FFE00001FFFF0001FFFFFFFFF00007FFFE0001F000E0000FFFFF00
310
00FFFF800001FFFC00000FFFFF80007FC0001FFFFE0001FC0001FFFFE0001FF8
310
000001FFFE0000007FFFFFF0001FFFFFFF80000FFFF80000FFFF80000FFFF800
310
00FFFF0003FFFFFFFFE0000FFFFF8000F000C0003FFFFF8000FFFF800000FFFC
310
000007FFFF80007F80003FFFFF0001FC0003FFFFF0001FF8000001FFFE000000
310
7FFFFFF0001FFFFFFF80003FFFFE0000FFFF80003FFFFE0000FFFF0003FFFFFF
310
FFE0003FFFFF8000F000C0003FFFFF8000FFFF800000FFFC000007FFFF80007F
310
80007FFFFF8001F80007FFFFF8000FF8000001FFFE0000007FFFFFF0001FFFFF
310
FF00007FFFFF00007FFF00007FFFFF00007FFF0003FFFFFFFFE0003FFFFFC000
310
F000C0007FFFFFC000FFFF000000FFFC000007FFFF80007F8000FFFFFF8000F8
310
000FFFFFF8000FF8000001FFFE0000007FFFFFF0001FFFFFFF0000FFFFFF8000
310
7FFF0000FFFFFF80007FFF0003FFFFFFFFC0007FFFFFC00070008000FFFFFFC0
310
00FFFF000000FFF8000007FFFF80007F8000FFFFFF8000F8000FFFFFF8000FF8
310
000001FFFE0000007FFFFFF0001FFFFFFE0001FFFFFFC0003FFE0001FFFFFFC0
310
003FFF0003FFFFFFFFC0007FFFFFE00070008000FFFFFFC0007FFF0000007FF8
310
000003FFFF80007F0001FFFFFF8000F8000FFFFFF8000FF8000001FFFE000000
310
7FFFFFF0001FFFFFFE0001FFFFFFC0003FFE0001FFFFFFC0003FFF0003FFFFFF
310
FFC000FFFFFFE00070008000FFFFFFC0007FFF0000007FF8000003FFFF80007F
310
0001FFFFFF8000F8001FFFFFF8000FF8000001FFFE0000007FFFFFF0001FFFFF
310
FE0003FFFFFFE0003FFE0003FFFFFFE0003FFF0003FFFFFFFFC000FFFFFFE000
310
70008000FFFFFFC0007FFE0000007FF8000003FFFF80007F0001FFFFFF8000F0
310
001FFFFFF8000FF8000001FFFE0000007FFFFFF0001FFFFFFC0003FFFFFFE000
310
1FFC0003FFFFFFE0001FFF0003FFFFFFFFC000FFFFFFC00070008000FFFFFF80
310
007FFE0000007FF0000003FFFF80007F0001FFFFFF0000F0001FFFFFF8000FF8
310
000001FFFE0000007FFFFFF0001FFFFFFC0007FFFFFFF0001FFC0007FFFFFFF0
310
001FFF0003FFFFFFFFC000FFFFFFC00070008001FFFFFF0000FFFE0000003FF0
310
000001FFFF80007F0001FFFFFF0000F8001FFFFFF0000FF8000001FFFE000000
310
7FFFFFF0001FFFFFFC0007FFFFFFF0001FFC0007FFFFFFF0001FFF0003FFFFFF
310
FFC001FFFFFF80007000FFFFFFFFFE0000FFFE0008003FF0008001FFFF80007F
310
FFFFFFFFFC0000FFFFFFFFFFE0000FF8000001FFFE0000007FFFFFF0001FFFFF
310
F8000FFFFFFFF8000FF8000FFFFFFFF8000FFF0003FFFFFFFFFFFFFFFFFF0000
310
7000FFFFFFFFFC0000FFFC0008003FF0008001FFFF80007FFFFFFFFFF80001FF
310
FFFFFFFF80000FF8000001FFFE0000007FFFFFF0001FFFFFF8000FFFFFFFF800
310
0FF8000FFFFFFFF8000FFF0003FFFFFFFFFFFFFFFFFE0000F000FFFFFFFFE000
310
00FFFC000C003FE000C001FFFF80007FFFFFFFFFC00001FFFFFFFFFE00001FF8
310
000001FFFE0000007FFFFFF0001FFFFFF8000FFFFFFFF8000FF8000FFFFFFFF8
310
000FFF0003FFFFFFFFFFFFFFFFF00000F000FFFFFFFE000001FFFC000C001FE0
310
00C000FFFF80007FFFFFFFFE000001FFFFFFFFE000001FF80FFFFFFFFFFFFFC0
310
7FFFFFF0001FFFFFF8000FFFFFFFF8000FF8000FFFFFFFF8000FFF0003FFFFFF
310
FFFFFFFFFF800000F000FFFFFFC0000001FFFC001C001FE001C000FFFF80007F
310
FFFFFF80000003FFFFFFF80000001FF80FFFFFFFFFFFFFC07FFFFFF0001FFFFF
310
F8001FFFFFFFFC000FF8001FFFFFFFFC000FFF0003FFFFFFFFFFFFFFF0000001
310
F000FFFFF800000001FFF8001C001FE001C000FFFF80007FFFFFF800000003FF
310
FFFF800000003FF80FFFFFFFFFFFFFC07FFFFFF0001FFFFFF8001FFFFFFFFC00
310
0FF8001FFFFFFFFC000FFF0003FFFFFFFFFFFFFE00000001F000FFFFC0000000
310
03FFF8001E001FC001E000FFFF80007FFFFF8000000007FFFFFC000000003FF8
310
0FFFFFFFFFFFFFC07FFFFFF0001FFFFFF8001FFFFFFFFC000FF8001FFFFFFFFC
310
000FFF0003FFFFFFFFFFFFE000000003F000FFFE0000000007FFF8001E000FC0
310
01E0007FFF80007FFFFE0000000007FFFFE0000000007FF80FFFFFFFFFFFFFC0
310
7FFFFFF0001FFFFFF0001FFFFFFFFC0007F0001FFFFFFFFC0007FF0003FFFFFF
310
FFFFFF0000000003F000FFF80000000007FFF8001E000FC003E0007FFF80007F
310
FFF0000000000FFFFF8000000000FFF80FFFFFFFFFFFFFC07FFFFFF0001FFFFF
310
F0001FFFFFFFFC0007F0001FFFFFFFFC0007FF0003FFFFFFFFFFFC0000000007
310
F000FFE0000000000FFFF0003E000FC003E0007FFF80007FFFC0000000001FFF
310
FE0000000001FFF80FFFFFFFFFFFFFC07FFFFFF0001FFFFFF0001FFFFFFFFC00
310
07F0001FFFFFFFFC0007FF0003FFFFFFFFFFF0000000000FF000FFC000000000
310
1FFFF0003F000F8003F0003FFF80007FFF80000000003FFFF80000000003FFF8
310
0FFFFFFFFFFFFFC07FFFFFF0001FFFFFF0001FFFFFFFFC0007F0001FFFFFFFFC
310
0007FF0003FFFFFFFFFFE0000000001FF000FF00000000007FFFF0003F000780
310
03F0003FFF80007FFF00000000007FFFF00000000007FFF80FFFFFFFFFFFFFC0
310
7FFFFFF0001FFFFFF0001FFFFFFFFC0007F0001FFFFFFFFC0007FF0003FFFFFF
310
FFFF80000000007FF000FE0000000000FFFFE0003F00078007F0003FFF80007F
310
FE0000000001FFFFE0000000001FFFF80FFFFFFFFFFFFFC07FFFFFF0001FFFFF
310
F0001FFFFFFFFC0007F0001FFFFFFFFC0007FF0003FFFFFFFFFF0000000000FF
310
F000FC0000000003FFFFE0007F00078007F0003FFF80007FFC0000000007FFFF
310
C0000000007FFFF80FFFFFFFFFFFFFC07FFFFFF0001FFFFFF8001FFFFFFFFC00
310
0FF8001FFFFFFFFC000FFF0003FFFFFFFFFE0000000003FFF000FC000000000F
310
FFFFE0007F80070007F8001FFF80007FF8000000001FFFFF8000000001FFFFF8
310
0FFFFFFFFFFFFFC07FFFFFF0001FFFFFF8001FFFFFFFFC000FF8001FFFFFFFFC
310
000FFF0003FFFFFFFFFC000000000FFFF000F8000000007FFFFFE0007F800700
310
07F8001FFF80007FF000000000FFFFFF800000000FFFFFF80FFFFFFFFFFFFFC0
310
7FFFFFF0001FFFFFF8000FFFFFFFF8000FF8000FFFFFFFF8000FFF0003FFFFFF
310
FFFC000000007FFFF000F800000007FFFFFFC0007F8003000FF8001FFF80007F
310
F000000007FFFFFF000000007FFFFFF80FFFFFFFFFFFFFC07FFFFFF0001FFFFF
310
F8000FFFFFFFF8000FF8000FFFFFFFF8000FFF0003FFFFFFFFF80000000FFFFF
310
F000F0000000FFFFFFFFC000FF8003000FF8001FFF80007FE0000000FFFFFFFF
310
0000000FFFFFFFF8000001FFFE0000007FFFFFF0001FFFFFF8000FFFFFFFF800
310
0FF8000FFFFFFFF8000FFF0003FFFFFFFFF8000000FFFFFFF000F000000FFFFF
310
FFFFC000FFC002000FF8000FFF80007FE000001FFFFFFFFE000001FFFFFFFFF8
310
000001FFFE0000007FFFFFF0001FFFFFF8000FFFFFFFF8000FF8000FFFFFFFF8
310
000FFF0003FFFFFFFFF000001FFFFFFFF000E00000FFFFFFFFFFC000FFC00200
310
0FFC000FFF80007FE00001FFFFFFFFFE00001FFFFFFFFFF8000001FFFE000000
310
7FFFFFF0001FFFFFFC000FFFFFFFF8001FFC000FFFFFFFF8001FFF0003FFFFFF
310
FFF00001FFFFFFFFF000E00007FFFFFFFFFF8000FFC000001FFC000FFF80007F
310
C0000FFFFFFFFFFE0000FFFFFFFFFFF8000001FFFE0000007FFFFFF0001FFFFF
310
FC0007FFFFFFF0001FFC0007FFFFFFF0001FFF0003FFFFFFFFF00007FFFFFFFF
310
F000E0001FFFFFFFFFFF8000FFC000001FFC000FFF80007FC0003FFFFFFFFFFE
310
0001FFFFFFFFFFF8000001FFFE0000007FFFFFF0001FFFFFFC0007FFFFFFF000
310
1FFC0007FFFFFFF0001FFF0003FFFFFFFFF0001FFFFFFFFFF000E0003FFFFF00
310
03FF8001FFE000001FFC0007FF80007FC0007FFFFF0007FC0003FFFFF0003FF8
310
000001FFFE0000007FFFFFF0001FFFFFFC0003FFFFFFE0001FFC0003FFFFFFE0
310
001FFF0003FFFFFFFFF0003FFFFFFFFFF000E0003FFFFF0001FF8001FFE00000
310
1FFE0007FF80007FC0007FFFFE0003FC0007FFFFE0003FF8000001FFFE000000
310
7FFFFFF0001FFFFFFE0003FFFFFFE0003FFE0003FFFFFFE0003FFF0003FFFFFF
310
FFF0003FFFFF8001F000E0003FFFFF0001FF0001FFE000001FFE0007FF80007F
310
C0007FFFFE0003FC0007FFFFE0003FF8000001FFFE0000007FFFFFF0001FFFFF
310
FE0001FFFFFFC0003FFE0001FFFFFFC0003FFF0003FFFFFFFFF0003FFFFF0001
310
F000E0003FFFFF0003FF0001FFE000003FFE0007FF80007FC0007FFFFE0003FC
310
0007FFFFE0003FF8000001FFFE0000007FFFFFF0001FFFFFFF0001FFFFFFC000
310
7FFF0001FFFFFFC0007FFF0003FFFFFFFFF0003FFFFF0001F000E0003FFFFE00
310
03FF0003FFF000003FFE0003FF80007FC0007FFFFC0003FE0007FFFFE0003FF8
310
000001FFFE0000007FFFFFF0001FFFFFFF0000FFFFFF80007FFF0000FFFFFF80
310
007FFF0003FFFFFFFFF0003FFFFF0001F000E0003FFFFE0003FF0003FFF00000
310
3FFF0003FF80007FC0007FFFFC0007FE0007FFFFC0003FF8000001FFFE000000
310
7FFFFFF0001FFFFFFF80007FFFFF0000FFFF80007FFFFF0000FFFF0003FFFFFF
310
FFF0003FFFFF0003F000E0003FFFFC0003FE0003FFF000003FFF0003FF80007F
310
E0003FFFF80007FE0003FFFFC0007FF8000001FFFE0000007FFFFFF0001FFFFF
310
FF80003FFFFE0000FFFF80003FFFFE0000FFFF0003FFFFFFFFF0001FFFFE0003
310
F000F0001FFFF80003FE0003FFF000007FFF0001FF80007FE0003FFFF00007FE
310
0001FFFF80007FF8000001FFFE0000007FFFFFF0001FFFFFFFC0000FFFF80001
310
FFFFC0000FFFF80001FFFF0003FFFFFFFFF0001FFFFC0003F000F0000FFFF000
310
07FE0007FFF800007FFF0001FF80007FE0001FFFE00007FF0000FFFE00007FF8
310
000001FFFE0000007FFFFFF0001FFFFFFFC00003FFE00001FFFFC00003FFE000
310
01FFFF0003FFFFFFFFF8000FFFF80003F000F00003FFC00007FC0007FFF80000
310
7FFF8001FF80007FF00007FF80000FFF00007FF80000FFF8000001FFFE000000
310
7F80000000000001FFE000003E000003FFFFE000003E000003FFFF0003FFFFFF
310
FFF80003FFE00007F000F800000000000FFC0007FFF800007FFF8001FF80007F
310
F000000000000FFF000000000000FFF8000001FFFE0000007F80000000000001
310
FFF0000000000007FFFFF0000000000007FFFF0003FFFFFFFFFC00007E000007
310
F000F800000000000FFC0007FFF80000FFFF8000FF80007FF800000000001FFF
310
800000000001FFF8000001FFFE0000007F80000000000001FFF800000000000F
310
FFFFF800000000000FFFFF0003FFFFFFFFFC00000000000FF000FC0000000000
310
1FFC0007FFFC0000FFFF8000FF80007FF800000000003FFFC00000000001FFF8
310
000001FFFE0000007F80000000000001FFF800000000000FFFFFF80000000000
310
0FFFFF0003FFFFFFFFFE00000000001FF000FE00000000003FF8000FFFFC0000
310
FFFF8000FF80007FFC00000000003FFFC00000000003FFF8000001FFFE000000
310
7F80000000000001FFFC00000000001FFFFFFC00000000001FFFFF0003FFFFFF
310
FFFF00000000001FF000FF00000000003FF8000FFFFC0000FFFFC000FF80007F
310
FE00000000007FFFE00000000007FFF8000001FFFE0000007F80000000000001
310
FFFE00000000003FFFFFFE00000000003FFFFF0003FFFFFFFFFF80000000003F
310
F000FF80000000007FF8000FFFFC0001FFFFC0007F80007FFF0000000000FFFF
310
F0000000000FFFF800000000000000007F80000000000001FFFF8000000000FF
310
FFFFFF8000000000FFFFFF0003FFFFFFFFFFC0000000007FF000FFC000000000
310
FFF8000FFFFE0001FFFFC0007F80007FFF8000000001FFFFF8000000001FFFF8
310
00000000000000007F80000000000001FFFFC000000001FFFFFFFFC000000001
310
FFFFFF0003FFFFFFFFFFE000000000FFF000FFE000000003FFF0001FFFFE0001
310
FFFFC0007F80007FFFC000000007FFFFFE000000003FFFF80000000000000000
310
7F80000000000001FFFFE000000003FFFFFFFFE000000003FFFFFF0003FFFFFF
310
FFFFF000000003FFF000FFF80000000FFFF0001FFFFE0001FFFFE0007F80007F
310
FFF00000000FFFFFFF00000000FFFFF800000000000000007F80000000000001
310
FFFFF80000000FFFFFFFFFF80000000FFFFFFF0003FFFFFFFFFFFC0000000FFF
310
F000FFFE0000003FFFF0001FFFFE0003FFFFE0003F80007FFFFC0000003FFFFF
310
FFC0000003FFFFF800000000000000007F80000000000001FFFFFE0000003FFF
310
FFFFFFFE0000003FFFFFFF0003FFFFFFFFFFFF0000003FFFF000FFFF800000FF
310
FFF0001FFFFF0003FFFFE0003F80007FFFFF000001FFFFFFFFF800001FFFFFF8
310
00000000000000007F80000000000001FFFFFFC00001FFFFFFFFFFFFC00001FF
310
FFFFFF0003FFFFFFFFFFFFC00000FFFFF000FFFFF8000FFFFFFFFFFFFFFFFFFF
310
FFFFFFFFFFFFFFFFFFFFF0001FFFFFFFFFFF0000FFFFFFF80000000000000000
310
7FFFFFFFFFFFFFFFFFFFFFFC001FFFFFFFFFFFFFFC001FFFFFFFFFFFFFFFFFFF
310
FFFFFFFC001FFFFFF000FFFFFFFFFFFFFFFFFFFFFFFFFFFFFFFFFFFFFFFFFFFF
310
FFFFFFFFFFFFFFFFFFFFFFFFFFFFFFFFFFFFFFFFFFFFFFFFFFFFFFFFFFFFFFFF
310
FFFFFFFFFFFFFFFFFFFFFFFFFFFFFFFFFFFFFFFFFFFFFFFFFFFFFFFFFFFFFFFF
310
F000FFFFFFFFFFFFFFFFFFFFFFFFFFFFFFFFFFFFFFFFFFFFFFFFFFFFFFFFFFFF
310
FFFFFFFFFFFFFFFFFFFFFFFFFFFFFFFFFFFFFFFFFFFFFFFFFFFFFFFFFFFFFFFF
310
FFFFFFFFFFFFFFFFFFFFFFFFFFFFFFFFFFFFFFFFFFFFFFFFF000FFFFFFFFFFFF
310
FFFFFFFFFFFFFFFFFFFFFFFFFFFFFFFFFFFFFFFFFFFFFFFFFFFFFFFFFFFFFFFF
310
FFFFFFFFFFFFFFFFFFFFFFFFFFFFFFFFFFFFFFFFFFFFFFFFFFFFFFFFFFFFFFFF
310
FFFFFFFFFFFFFFFFFFFFFFFFFFFFFFFFF000FFFFFFFFFFFFFFFFFFFFFFFFFFFF
310
FFFFFFFFFFFFFFFFFFFFFFFFFFFFFFFFFFFFFFFFFFFFFFFFFFFFFFFFFFFFFFFF
310
FFFFFFFFFFFFFFFFFFFFFFFFFFFFFFFFFFFFFFFFFFFFFFFFFFFFFFFFFFFFFFFF
310
FFFFFFFFFFFFFFFFF000FFFFFFFFFFFFFFFFFFFFFFFFFFFFFFFFFFFFFFFFFFFF
310
FFFFFFFFFFFFFFFFFFFFFFFFFFFFFFFFFFFFFFFFFFFFFFFFFFFFFFFFFFFFFFFF
310
FFFFFFFFFFFFFFFFFFFFFFFFFFFFFFFFFFFFFFFFFFFFFFFFFFFFFFFFFFFFFFFF
310
F000FFFFFFFFFFFFFFFFFFFFFFFFFFFFFFFFFFFFFFFFFFFFFFFFFFFFFFFFFFFF
310
FFFFFFFFFFFFFFFFFFFFFFFFFFFFFFFFFFFFFFFFFFFFFFFFFFFFFFFFFFFFFFFF
310
FFFFFFFFFFFFFFFFFFFFFFFFFFFFFFFFFFFFFFFFFFFFFFFFF000FFFFFFFFFFFF
310
FFFFFFFFFFFFFFFFFFFFFFFFFFFFFFFFFFFFFFFFFFFFFFFFFFFFFFFFFFFFFFFF
310
FFFFFFFFFFFFFFFFFFFFFFFFFFFFFFFFFFFFFFFFFFFFFFFFFFFFFFFFFFFFFFFF
310
FFFFFFFFFFFFFFFFFFFFFFFFFFFFFFFFF000FFFFFFFFFFFFFFFFFFFFFFFFFFFF
310
FFFFFFFFFFFFFFFFFFFFFFFFFFFFFFFFFFFFFFFFFFFFFFFFFFFFFFFFFFFFFFFF
310
FFFFFFFFFFFFFFFFFFFFFFFFFFFFFFFFFFFFFFFFFFFFFFFFFFFFFFFFFFFFFFFF
310
FFFFFFFFFFFFFFFFF000FFFFFFFFFFFFFFFFFFFFFFFFFFFFFFFFFFFFFFFFFFFF
310
FFFFFFFFFFFFFFFFFFFFFFFFFFFFFFFFFFFFFFFFFFFFFFFFFFFFFFFFFFFFFFFF
310
FFFFFFFFFFFFFFFFFFFFFFFFFFFFFFFFFFFFFFFFFFFFFFFFFFFFFFFFFFFFFFFF
310
F000FFFFFFFFFFFFFFFFFFFFFFFFFFFFFFFFFFFFFFFFFFFFFFFFFFFFFFFFFFFF
310
FFFFFFFFFFFFFFFFFFFFFFFFFFFFFFFFFFFFFFFFFFFFFFFFFFFFFFFFFFFFFFFF
310
FFFFFFFFFFFFFFFFFFFFFFFFFFFFFFFFFFFFFFFFFFFFFFFFF000FFFFFFFFFFFF
310
FFFFFFFFFFFFFFFFFFFFFFFFFFFFFFFFFFFFFFFFFFFFFFFFFFFFFFFFFFFFFFFF
310
FFFFFFFFFFFFFFFFFFFFFFFFFFFFFFFFFFFFFFFFFFFFFFFFFFFFFFFFFFFFFFFF
310
FFFFFFFFFFFFFFFFFFFFFFFFFFFFFFFFF000FFFFFFFFFFFFFFFFFFFFFFFFFFFF
310
FFFFFFFFFFFFFFFFFFFFFFFFFFFFFFFFFFFFFFFFFFFFFFFFFFFFFFFFFFFFFFFF
310
FFFFFFFFFFFFFFFFFFFFFFFFFFFFFFFFFFFFFFFFFFFFFFFFFFFFFFFFFFFFFFFF
310
FFFFFFFFFFFFFFFFF000FFFFFFFFFFFFFFFFFFFFFFFFFFFFFFFFFFFFFFFFFFFF
310
FFFFFFFFFFFFFFFFFFFFFFFFFFFFFFFFFFFFFFFFFFFFFFFFFFFFFFFFFFFFFFFF
310
FFFFFFFFFFFFFFFFFFFFFFFFFFFFFFFFFFFFFFFFFFFFFFFFFFFFFFFFFFFFFFFF
310
F000FFFFFFFFFFFFFFFFFFFFFFFFFFFFFFFFFFFFFFFFFFFFFFFFFFFFFFFFFFFF
310
FFFFFFFFFFFFFFFFFFFFFFFFFFFFFFFFFFFFFFFFFFFFFFFFFFFFFFFFFFFFFFFF
310
FFFFFFFFFFFFFFFFFFFFFFFFFFFFFFFFFFFFFFFFFFFFFFFFF000FFFFFFFFFFFF
310
FFFFFFFFFFFFFFFFFFFFFFFFFFFFFFFFFFFFFFFFFFFFFFFFFFFFFFFFFFFFFFFF
310
FFFFFFFFFFFFFFFFFFFFFFFFFFFFFFFFFFFFFFFFFFFFFFFFFFFFFFFFFFFFFFFF
310
FFFFFFFFFFFFFFFFFFFFFFFFFFFFFFFFF000FFFFFFFFFFFFFFFFFFFFFFFFFFFF
310
FFFFFFFFFFFFFFFFFFFFFFFFFFFFFFFFFFFFFFFFFFFFFFFFFFFFFFFFFFFFFFFF
310
FFFFFFFFFFFFFFFFFFFFFFFFFFFFFFFFFFFFFFFFFFFFFFFFFFFFFFFFFFFFFFFF
310
FFFFFFFFFFFFFFFFF000FFFFFFFFFFFFFFFFFFFFFFFFFFFFFFFFFFFFFFFFFFFF
310
FFFFFFFFFFFFFFFFFFFFFFFFFFFFFFFFFFFFFFFFFFFFFFFFFFFFFFFFFFFFFFFF
310
FFFFFFFFFFFFFFFFFFFFFFFFFFFFFFFFFFFFFFFFFFFFFFFFFFFFFFFFFFFFFFFF
310
F000FFFFFFFFFFFFFFFFFFFFFFFFFFFFFFFFFFFFFFFFFFFFFFFFFFFFFFFFFFFF
310
FFFFFFFFFFFFFFFFFFFFFFFFFFFFFFFFFFFFFFFFFFFFFFFFFFFFFFFFFFFFFFFF
310
FFFFFFFFFFFFFFFFFFFFFFFFFFFFFFFFFFFFFFFFFFFFFFFFF000FFFFFFFFFFFF
310
FFFFFFFFFFFFFFFFFFFFFFFFFFFFFFFFFFFFFFFFFFFFFFFFFFFFFFFFFFFFFFFF
310
FFFFFFFFFFFFFFFFFFFFFFFFFFFFFFFFFFFFFFFFFFFFFFFFFFFFFFFFFFFFFFFF
310
FFFFFFFFFFFFFFFFFFFFFFFFFFFFFFFFF000FFFFFFFFFFFFFFFFFFFFFFFFFFFF
310
FFFFFFFFFFFFFFFFFFFFFFFFFFFFFFFFFFFFFFFFFFFFFFFFFFFFFFFFFFFFFFFF
310
FFFFFFFFFFFFFFFFFFFFFFFFFFFFFFFFFFFFFFFFFFFFFFFFFFFFFFFFFFFFFFFF
310
FFFFFFFFFFFFFFFFF000FFFFFFFFFFFFFFFFFFFFFFFFFFFFFFFFFFFFFFFFFFFF
310
FFFFFFFFFFFFFFFFFFFFFFFFFFFFFFFFFFFFFFFFFFFFFFFFFFFFFFFFFFFFFFFF
310
FFFFFFFFFFFFFFFFFFFFFFFFFFFFFFFFFFFFFFFFFFFFFFFFFFFFFFFFFFFFFFFF
310
F000FFFFFFFFFFFFFFFFFFFFFFFFFFFFFFFFFFFFFFFFFFFFFFFFFFFFFFFFFFFF
310
FFFFFFFFFFFFFFFFFFFFFFFFFFFFFFFFFFFFFFFFFFFFFFFFFFFFFFFFFFFFFFFF
310
FFFFFFFFFFFFFFFFFFFFFFFFFFFFFFFFFFFFFFFFFFFFFFFFF000FFFFFFFFFFFF
310
FFFFFFFFFFFFFFFFFFFFFFFFFFFFFFFFFFFFFFFFFFFFFFFFFFFFFFFFFFFFFFFF
310
FFFFFFFFFFFFFFFFFFFFFFFFFFFFFFFFFFFFFFFFFFFFFFFFFFFFFFFFFFFFFFFF
310
FFFFFFFFFFFFFFFFFFFFFFFFFFFFFFFFF0000000000000000000000000000000
310
0000000000750067005C005A0065006900630068006E0075006E00670065006E
310
005C00570061006C0074006500720020004D0065006900650072005C00530063
310
006800720075006D00700066006600750074007400650072005C004B00610074
310
0061006C006F0067007A0065006900630068006E0075006E00670065006E005C
310
004800450034002D005300310030002E004B00300031002E003000360033002E
310
0053004C004400440052005700040000000040A24405000000C61157DA0ADFC5
310
010040C01DFFFEFF012A00030000000050724809000000FFFEFF012A00030000
310
000050724809000000FFFEFF535A003A005C005A0065006900630068006E0075
310
006E00670065006E002D005700650072006B007A006500750067005C005A0065
310
006900630068006E0075006E00670065006E005C00570061006C007400650072
310
0020004D0065006900650072005C00530063006800720075006D007000660066
310
00750074007400650072005C004B006100740061006C006F0067007A00650069
310
00630068006E0075006E00670065006E005C00040000000040A24405000000FF
310
FEFF012A00030000000050724809000000FFFEFF012A00030000000050724809
310
000000FFFEFF012A00040000000040A244050000001C0C0000D4981E00010000
  1
OLE
  0
ENDSEC
  0
SECTION
  2
OBJECTS
  0
DICTIONARY
  5
C
330
0
100
AcDbDictionary
281
     1
  3
ACAD_GROUP
350
D
  3
ACAD_LAYOUT
350
1A
  3
ACAD_MLEADERSTYLE
350
234
  3
ACAD_MLINESTYLE
350
17
  3
ACAD_PLOTSETTINGS
350
19
  3
ACAD_PLOTSTYLENAME
350
E
  3
ACAD_TABLESTYLE
350
233
  3
ACAD_VISUALSTYLE
350
2A
  3
AcDbVariableDictionary
350
235
  0
DICTIONARY
  5
D
102
{ACAD_REACTORS
330
C
102
}
330
C
100
AcDbDictionary
281
     1
  0
DICTIONARY
  5
1A
102
{ACAD_REACTORS
330
C
102
}
330
C
100
AcDbDictionary
281
     1
  3
Layout1
350
1E
  3
Layout2
350
26
  3
Model
350
22
  0
DICTIONARY
  5
234
102
{ACAD_REACTORS
330
C
102
}
330
C
100
AcDbDictionary
281
     1
  0
DICTIONARY
  5
17
102
{ACAD_REACTORS
330
C
102
}
330
C
100
AcDbDictionary
281
     1
  3
Standard
350
18
  0
DICTIONARY
  5
19
102
{ACAD_REACTORS
330
C
102
}
330
C
100
AcDbDictionary
281
     1
  0
ACDBDICTIONARYWDFLT
  5
E
102
{ACAD_REACTORS
330
C
102
}
330
C
100
AcDbDictionary
281
     1
  3
Normal
350
F
100
AcDbDictionaryWithDefault
340
F
  0
DICTIONARY
  5
233
102
{ACAD_REACTORS
330
C
102
}
330
C
100
AcDbDictionary
281
     1
  0
DICTIONARY
  5
2A
102
{ACAD_REACTORS
330
C
102
}
330
C
100
AcDbDictionary
281
     1
  3
2dWireframe
350
2F
  3
3D Hidden
350
31
  3
3dWireframe
350
30
  3
Basic
350
32
  3
Brighten
350
36
  3
ColorChange
350
3A
  3
Conceptual
350
34
  3
Dim
350
35
  3
Facepattern
350
39
  3
Flat
350
2B
  3
FlatWithEdges
350
2C
  3
Gouraud
350
2D
  3
GouraudWithEdges
350
2E
  3
Linepattern
350
38
  3
Realistic
350
33
  3
Thicken
350
37
  0
DICTIONARY
  5
235
102
{ACAD_REACTORS
330
C
102
}
330
C
100
AcDbDictionary
281
     1
  3
PSOLHEIGHT
350
237
  3
PSOLWIDTH
350
236
  0
LAYOUT
  5
1E
102
{ACAD_REACTORS
330
1A
102
}
330
1A
100
AcDbPlotSettings
  1

  2
none_device
  4

  6

 40
0.0
 41
0.0
 42
0.0
 43
0.0
 44
0.0
 45
0.0
 46
0.0
 47
0.0
 48
0.0
 49
0.0
140
0.0
141
0.0
142
1.0
143
1.0
 70
   688
 72
     0
 73
     0
 74
     5
  7

 75
    16
147
1.0
148
0.0
149
0.0
100
AcDbLayout
  1
Layout1
 70
     1
 71
     1
 10
0.0
 20
0.0
 11
420.0
 21
297.0
 12
0.0
 22
0.0
 32
0.0
 14
1.0000000000E+20
 24
1.0000000000E+20
 34
1.0000000000E+20
 15
-1.0000000000E+20
 25
-1.0000000000E+20
 35
-1.0000000000E+20
146
0.0
 13
0.0
 23
0.0
 33
0.0
 16
1.0
 26
0.0
 36
0.0
 17
0.0
 27
1.0
 37
0.0
 76
     0
330
1B
  0
LAYOUT
  5
26
102
{ACAD_REACTORS
330
1A
102
}
330
1A
100
AcDbPlotSettings
  1

  2
none_device
  4

  6

 40
0.0
 41
0.0
 42
0.0
 43
0.0
 44
0.0
 45
0.0
 46
0.0
 47
0.0
 48
0.0
 49
0.0
140
0.0
141
0.0
142
1.0
143
1.0
 70
   688
 72
     0
 73
     0
 74
     5
  7

 75
    16
147
1.0
148
0.0
149
0.0
100
AcDbLayout
  1
Layout2
 70
     1
 71
     2
 10
0.0
 20
0.0
 11
0.0
 21
0.0
 12
0.0
 22
0.0
 32
0.0
 14
0.0
 24
0.0
 34
0.0
 15
0.0
 25
0.0
 35
0.0
146
0.0
 13
0.0
 23
0.0
 33
0.0
 16
1.0
 26
0.0
 36
0.0
 17
0.0
 27
1.0
 37
0.0
 76
     0
330
23
  0
LAYOUT
  5
22
102
{ACAD_REACTORS
330
1A
102
}
330
1A
100
AcDbPlotSettings
  1

  2
none_device
  4

  6

 40
0.0
 41
0.0
 42
0.0
 43
0.0
 44
0.0
 45
0.0
 46
0.0
 47
0.0
 48
0.0
 49
0.0
140
0.0
141
0.0
142
1.0
143
1.0
 70
  1712
 72
     0
 73
     0
 74
     0
  7

 75
     0
147
1.0
148
0.0
149
0.0
100
AcDbLayout
  1
Model
 70
     1
 71
     0
 10
0.0
 20
0.0
 11
297.0
 21
210.0
 12
0.0
 22
0.0
 32
0.0
 14
0.0
 24
0.0
 34
0.0
 15
297.0
 25
210.0
 35
0.0
146
0.0
 13
0.0
 23
0.0
 33
0.0
 16
1.0
 26
0.0
 36
0.0
 17
0.0
 27
1.0
 37
0.0
 76
     0
330
1F
331
29
  0
MLINESTYLE
  5
18
102
{ACAD_REACTORS
330
17
102
}
330
17
100
AcDbMlineStyle
  2
Standard
 70
     0
  3

 62
   256
 51
90.0
 52
90.0
 71
     2
 49
0.5
 62
   256
  6
BYLAYER
 49
-0.5
 62
   256
  6
BYLAYER
  0
ACDBPLACEHOLDER
  5
F
102
{ACAD_REACTORS
330
E
102
}
330
E
  0
VISUALSTYLE
  5
2F
102
{ACAD_REACTORS
330
2A
102
}
330
2A
100
AcDbVisualStyle
  2
2dWireframe
 70
     4
 71
     0
 72
     2
 73
     0
 90
        0
 40
-0.6
 41
-30.0
 62
     5
 63
     7
 74
     1
 91
        4
 64
     7
 65
   257
 75
     1
175
     1
 42
1.0
 92
        0
 66
   257
 43
1.0
 76
     1
 77
     6
 78
     2
 67
     7
 79
     5
170
     0
171
     0
290
     0
174
     0
 93
        1
 44
0.0
173
     0
291
     0
 45
0.0
1001
ACAD
1000
AcDbSavedByObjectVersion
1070
     0
  0
VISUALSTYLE
  5
31
102
{ACAD_REACTORS
330
2A
102
}
330
2A
100
AcDbVisualStyle
  2
3D Hidden
 70
     6
 71
     1
 72
     2
 73
     2
 90
        0
 40
-0.6
 41
-30.0
 62
     5
 63
     7
 74
     2
 91
        2
 64
     7
 65
   257
 75
     2
175
     1
 42
40.0
 92
        0
 66
   257
 43
1.0
 76
     1
 77
     6
 78
     2
 67
     7
 79
     3
170
     0
171
     0
290
     0
174
     0
 93
        1
 44
0.0
173
     0
291
     0
 45
0.0
1001
ACAD
1000
AcDbSavedByObjectVersion
1070
     0
  0
VISUALSTYLE
  5
30
102
{ACAD_REACTORS
330
2A
102
}
330
2A
100
AcDbVisualStyle
  2
3dWireframe
 70
     5
 71
     0
 72
     2
 73
     0
 90
        0
 40
-0.6
 41
-30.0
 62
     5
 63
     7
 74
     1
 91
        4
 64
     7
 65
   257
 75
     1
175
     1
 42
1.0
 92
        0
 66
   257
 43
1.0
 76
     1
 77
     6
 78
     2
 67
     7
 79
     5
170
     0
171
     0
290
     0
174
     0
 93
        1
 44
0.0
173
     0
291
     0
 45
0.0
1001
ACAD
1000
AcDbSavedByObjectVersion
1070
     0
  0
VISUALSTYLE
  5
32
102
{ACAD_REACTORS
330
2A
102
}
330
2A
100
AcDbVisualStyle
  2
Basic
 70
     7
 71
     1
 72
     0
 73
     1
 90
        0
 40
-0.6
 41
-30.0
 62
     5
 63
     7
 74
     0
 91
        4
 64
     7
 65
   257
 75
     1
175
     1
 42
1.0
 92
        8
 66
     7
 43
1.0
 76
     1
 77
     6
 78
     2
 67
     7
 79
     5
170
     0
171
     0
290
     0
174
     0
 93
        1
 44
0.0
173
     0
291
     1
 45
0.0
1001
ACAD
1000
AcDbSavedByObjectVersion
1070
     0
  0
VISUALSTYLE
  5
36
102
{ACAD_REACTORS
330
2A
102
}
330
2A
100
AcDbVisualStyle
  2
Brighten
 70
    12
 71
     2
 72
     2
 73
     0
 90
        0
 40
-0.6
 41
-30.0
 62
     5
 63
     7
 74
     1
 91
        4
 64
     7
 65
   257
 75
     1
175
     1
 42
1.0
 92
        8
 66
     7
 43
1.0
 76
     1
 77
     6
 78
     2
 67
     7
 79
     5
170
     0
171
     0
290
     0
174
     0
 93
        1
 44
50.0
173
     0
291
     1
 45
0.0
1001
ACAD
1000
AcDbSavedByObjectVersion
1070
     0
  0
VISUALSTYLE
  5
3A
102
{ACAD_REACTORS
330
2A
102
}
330
2A
100
AcDbVisualStyle
  2
ColorChange
 70
    16
 71
     2
 72
     2
 73
     3
 90
        0
 40
-0.6
 41
-30.0
 62
     5
 63
     8
 74
     1
 91
        4
 64
     7
 65
   257
 75
     1
175
     1
 42
1.0
 92
        8
 66
     8
 43
1.0
 76
     1
 77
     6
 78
     2
 67
     7
 79
     5
170
     0
171
     0
290
     0
174
     0
 93
        1
 44
0.0
173
     0
291
     1
 45
0.0
1001
ACAD
1000
AcDbSavedByObjectVersion
1070
     0
  0
VISUALSTYLE
  5
34
102
{ACAD_REACTORS
330
2A
102
}
330
2A
100
AcDbVisualStyle
  2
Conceptual
 70
     9
 71
     3
 72
     2
 73
     0
 90
        0
 40
-0.6
 41
-30.0
 62
     5
 63
     7
 74
     2
 91
        2
 64
     7
 65
   257
 75
     1
175
     1
 42
40.0
 92
        8
 66
     7
 43
1.0
 76
     1
 77
     6
 78
     2
 67
     7
 79
     3
170
     0
171
     0
290
     0
174
     0
 93
        1
 44
0.0
173
     0
291
     0
 45
0.0
1001
ACAD
1000
AcDbSavedByObjectVersion
1070
     0
  0
VISUALSTYLE
  5
35
102
{ACAD_REACTORS
330
2A
102
}
330
2A
100
AcDbVisualStyle
  2
Dim
 70
    11
 71
     2
 72
     2
 73
     0
 90
        0
 40
-0.6
 41
-30.0
 62
     5
 63
     7
 74
     1
 91
        4
 64
     7
 65
   257
 75
     1
175
     1
 42
1.0
 92
        8
 66
     7
 43
1.0
 76
     1
 77
     6
 78
     2
 67
     7
 79
     5
170
     0
171
     0
290
     0
174
     0
 93
        1
 44
-50.0
173
     0
291
     1
 45
0.0
1001
ACAD
1000
AcDbSavedByObjectVersion
1070
     0
  0
VISUALSTYLE
  5
39
102
{ACAD_REACTORS
330
2A
102
}
330
2A
100
AcDbVisualStyle
  2
Facepattern
 70
    15
 71
     2
 72
     2
 73
     0
 90
        0
 40
-0.6
 41
-30.0
 62
     5
 63
     7
 74
     1
 91
        4
 64
     7
 65
   257
 75
     1
175
     1
 42
1.0
 92
        8
 66
     7
 43
1.0
 76
     1
 77
     6
 78
     2
 67
     7
 79
     5
170
     0
171
     0
290
     0
174
     0
 93
        1
 44
0.0
173
     0
291
     1
 45
0.0
1001
ACAD
1000
AcDbSavedByObjectVersion
1070
     0
  0
VISUALSTYLE
  5
2B
102
{ACAD_REACTORS
330
2A
102
}
330
2A
100
AcDbVisualStyle
  2
Flat
 70
     0
 71
     2
 72
     1
 73
     1
 90
        2
 40
-0.6
 41
30.0
 62
     5
 63
     7
 74
     0
 91
        4
 64
     7
 65
   257
 75
     1
175
     1
 42
1.0
 92
        8
 66
     7
 43
1.0
 76
     1
 77
     6
 78
     2
 67
     7
 79
     5
170
     0
171
     0
290
     0
174
     0
 93
       13
 44
0.0
173
     0
291
     1
 45
0.0
1001
ACAD
1000
AcDbSavedByObjectVersion
1070
     0
  0
VISUALSTYLE
  5
2C
102
{ACAD_REACTORS
330
2A
102
}
330
2A
100
AcDbVisualStyle
  2
FlatWithEdges
 70
     1
 71
     2
 72
     1
 73
     1
 90
        2
 40
-0.6
 41
30.0
 62
     5
 63
     7
 74
     1
 91
        4
 64
     7
 65
   257
 75
     1
175
     1
 42
1.0
 92
        0
 66
   257
 43
1.0
 76
     1
 77
     6
 78
     2
 67
     7
 79
     5
170
     0
171
     0
290
     0
174
     0
 93
       13
 44
0.0
173
     0
291
     1
 45
0.0
1001
ACAD
1000
AcDbSavedByObjectVersion
1070
     0
  0
VISUALSTYLE
  5
2D
102
{ACAD_REACTORS
330
2A
102
}
330
2A
100
AcDbVisualStyle
  2
Gouraud
 70
     2
 71
     2
 72
     2
 73
     1
 90
        2
 40
-0.6
 41
30.0
 62
     5
 63
     7
 74
     0
 91
        4
 64
     7
 65
   257
 75
     1
175
     1
 42
1.0
 92
        0
 66
     7
 43
1.0
 76
     1
 77
     6
 78
     2
 67
     7
 79
     5
170
     0
171
     0
290
     0
174
     0
 93
       13
 44
0.0
173
     0
291
     1
 45
0.0
1001
ACAD
1000
AcDbSavedByObjectVersion
1070
     0
  0
VISUALSTYLE
  5
2E
102
{ACAD_REACTORS
330
2A
102
}
330
2A
100
AcDbVisualStyle
  2
GouraudWithEdges
 70
     3
 71
     2
 72
     2
 73
     1
 90
        2
 40
-0.6
 41
30.0
 62
     5
 63
     7
 74
     1
 91
        4
 64
     7
 65
   257
 75
     1
175
     1
 42
1.0
 92
        0
 66
   257
 43
1.0
 76
     1
 77
     6
 78
     2
 67
     7
 79
     5
170
     0
171
     0
290
     0
174
     0
 93
       13
 44
0.0
173
     0
291
     1
 45
0.0
1001
ACAD
1000
AcDbSavedByObjectVersion
1070
     0
  0
VISUALSTYLE
  5
38
102
{ACAD_REACTORS
330
2A
102
}
330
2A
100
AcDbVisualStyle
  2
Linepattern
 70
    14
 71
     2
 72
     2
 73
     0
 90
        0
 40
-0.6
 41
-30.0
 62
     5
 63
     7
 74
     1
 91
        4
 64
     7
 65
   257
 75
     7
175
     7
 42
1.0
 92
        8
 66
     7
 43
1.0
 76
     1
 77
     6
 78
     2
 67
     7
 79
     5
170
     0
171
     0
290
     0
174
     0
 93
        1
 44
0.0
173
     0
291
     1
 45
0.0
1001
ACAD
1000
AcDbSavedByObjectVersion
1070
     0
  0
VISUALSTYLE
  5
33
102
{ACAD_REACTORS
330
2A
102
}
330
2A
100
AcDbVisualStyle
  2
Realistic
 70
     8
 71
     2
 72
     2
 73
     0
 90
        0
 40
-0.6
 41
-30.0
 62
     5
 63
     7
 74
     1
 91
        0
 64
     7
 65
   257
 75
     1
175
     1
 42
1.0
 92
        8
 66
     8
 43
1.0
 76
     1
 77
     6
 78
     2
 67
     7
 79
     5
170
     0
171
     0
290
     0
174
     0
 93
       13
 44
0.0
173
     0
291
     0
 45
0.0
1001
ACAD
1000
AcDbSavedByObjectVersion
1070
     0
  0
VISUALSTYLE
  5
37
102
{ACAD_REACTORS
330
2A
102
}
330
2A
100
AcDbVisualStyle
  2
Thicken
 70
    13
 71
     2
 72
     2
 73
     0
 90
        0
 40
-0.6
 41
-30.0
 62
     5
 63
     7
 74
     1
 91
        4
 64
     7
 65
   257
 75
     1
175
     1
 42
1.0
 92
       12
 66
     7
 43
1.0
 76
     1
 77
     6
 78
     2
 67
     7
 79
     5
170
     0
171
     0
290
     0
174
     0
 93
        1
 44
0.0
173
     0
291
     1
 45
0.0
1001
ACAD
1000
AcDbSavedByObjectVersion
1070
     0
  0
DICTIONARYVAR
  5
237
102
{ACAD_REACTORS
330
235
102
}
330
235
100
DictionaryVariables
280
     0
  1
80.000000
  0
DICTIONARYVAR
  5
236
102
{ACAD_REACTORS
330
235
102
}
330
235
100
DictionaryVariables
280
     0
  1
5.000000
  0
ENDSEC
  0
EOF
