  0
SECTION
  2
HEADER
  9
$ACADVER
  1
AC1015
  9
$ACADMAINTVER
 70
     6
  9
$DWGCODEPAGE
  3
ANSI_1252
  9
$INSBASE
 10
0.0
 20
0.0
 30
0.0
  9
$EXTMIN
 10
0.0
 20
0.0
 30
0.0
  9
$EXTMAX
 10
297.0
 20
210.0
 30
0.0
  9
$LIMMIN
 10
0.0
 20
0.0
  9
$LIMMAX
 10
297.0
 20
210.0
  9
$ORTHOMODE
 70
     0
  9
$REGENMODE
 70
     1
  9
$FILLMODE
 70
     1
  9
$QTEXTMODE
 70
     0
  9
$MIRRTEXT
 70
     1
  9
$LTSCALE
 40
1.0
  9
$ATTMODE
 70
     1
  9
$TEXTSIZE
 40
2.0
  9
$TRACEWID
 40
1.0
  9
$TEXTSTYLE
  7
Standard
  9
$CLAYER
  8
0
  9
$CELTYPE
  6
ByLayer
  9
$CECOLOR
 62
   256
  9
$CELTSCALE
 40
1.0
  9
$DISPSILH
 70
     0
  9
$DIMSCALE
 40
1.0
  9
$DIMASZ
 40
3.0
  9
$DIMEXO
 40
0.0
  9
$DIMDLI
 40
3.75
  9
$DIMRND
 40
0.0
  9
$DIMDLE
 40
0.0
  9
$DIMEXE
 40
1.0
  9
$DIMTP
 40
0.0
  9
$DIMTM
 40
0.0
  9
$DIMTXT
 40
2.0
  9
$DIMCEN
 40
2.5
  9
$DIMTSZ
 40
0.0
  9
$DIMTOL
 70
     0
  9
$DIMLIM
 70
     0
  9
$DIMTIH
 70
     1
  9
$DIMTOH
 70
     1
  9
$DIMSE1
 70
     0
  9
$DIMSE2
 70
     0
  9
$DIMTAD
 70
     1
  9
$DIMZIN
 70
     0
  9
$DIMBLK
  1

  9
$DIMASO
 70
     1
  9
$DIMSHO
 70
     1
  9
$DIMPOST
  1

  9
$DIMAPOST
  1

  9
$DIMALT
 70
     0
  9
$DIMALTD
 70
     3
  9
$DIMALTF
 40
0.0393700787
  9
$DIMLFAC
 40
1.0
  9
$DIMTOFL
 70
     1
  9
$DIMTVP
 40
0.0
  9
$DIMTIX
 70
     0
  9
$DIMSOXD
 70
     0
  9
$DIMSAH
 70
     0
  9
$DIMBLK1
  1

  9
$DIMBLK2
  1

  9
$DIMSTYLE
  2
ISO-25
  9
$DIMCLRD
 70
     0
  9
$DIMCLRE
 70
     0
  9
$DIMCLRT
 70
     0
  9
$DIMTFAC
 40
1.0
  9
$DIMGAP
 40
1.524
  9
$DIMJUST
 70
     0
  9
$DIMSD1
 70
     0
  9
$DIMSD2
 70
     0
  9
$DIMTOLJ
 70
     0
  9
$DIMTZIN
 70
     0
  9
$DIMALTZ
 70
     0
  9
$DIMALTTZ
 70
     0
  9
$DIMUPT
 70
     0
  9
$DIMDEC
 70
     2
  9
$DIMTDEC
 70
     3
  9
$DIMALTU
 70
     2
  9
$DIMALTTD
 70
     3
  9
$DIMTXSTY
  7
Standard
  9
$DIMAUNIT
 70
     0
  9
$DIMADEC
 70
     2
  9
$DIMALTRND
 40
0.0
  9
$DIMAZIN
 70
     0
  9
$DIMDSEP
 70
    44
  9
$DIMATFIT
 70
     3
  9
$DIMFRAC
 70
     0
  9
$DIMLDRBLK
  1

  9
$DIMLUNIT
 70
     2
  9
$DIMLWD
 70
    -2
  9
$DIMLWE
 70
    -2
  9
$DIMTMOVE
 70
     0
  9
$LUNITS
 70
     2
  9
$LUPREC
 70
     2
  9
$SKETCHINC
 40
1.0
  9
$FILLETRAD
 40
10.0
  9
$AUNITS
 70
     0
  9
$AUPREC
 70
     2
  9
$MENU
  1
.
  9
$ELEVATION
 40
0.0
  9
$PELEVATION
 40
0.0
  9
$THICKNESS
 40
0.0
  9
$LIMCHECK
 70
     0
  9
$CHAMFERA
 40
10.0
  9
$CHAMFERB
 40
10.0
  9
$CHAMFERC
 40
20.0
  9
$CHAMFERD
 40
0.0
  9
$SKPOLY
 70
     0
  9
$TDCREATE
 40
2455679.507242847
  9
$TDUCREATE
 40
2455679.423909514
  9
$TDUPDATE
 40
2455679.507242859
  9
$TDUUPDATE
 40
2455679.423909525
  9
$TDINDWG
 40
0.0000000116
  9
$TDUSRTIMER
 40
0.0000000116
  9
$USRTIMER
 70
     1
  9
$ANGBASE
 50
0.0
  9
$ANGDIR
 70
     0
  9
$PDMODE
 70
     0
  9
$PDSIZE
 40
-1.0
  9
$PLINEWID
 40
0.0
  9
$SPLFRAME
 70
     0
  9
$SPLINETYPE
 70
     6
  9
$SPLINESEGS
 70
     8
  9
$HANDSEED
  5
227
  9
$SURFTAB1
 70
     6
  9
$SURFTAB2
 70
     6
  9
$SURFTYPE
 70
     6
  9
$SURFU
 70
     6
  9
$SURFV
 70
     6
  9
$UCSBASE
  2

  9
$UCSNAME
  2

  9
$UCSORG
 10
0.0
 20
0.0
 30
0.0
  9
$UCSXDIR
 10
1.0
 20
0.0
 30
0.0
  9
$UCSYDIR
 10
0.0
 20
1.0
 30
0.0
  9
$UCSORTHOREF
  2

  9
$UCSORTHOVIEW
 70
     0
  9
$UCSORGTOP
 10
0.0
 20
0.0
 30
0.0
  9
$UCSORGBOTTOM
 10
0.0
 20
0.0
 30
0.0
  9
$UCSORGLEFT
 10
0.0
 20
0.0
 30
0.0
  9
$UCSORGRIGHT
 10
0.0
 20
0.0
 30
0.0
  9
$UCSORGFRONT
 10
0.0
 20
0.0
 30
0.0
  9
$UCSORGBACK
 10
0.0
 20
0.0
 30
0.0
  9
$PUCSBASE
  2

  9
$PUCSNAME
  2

  9
$PUCSORG
 10
0.0
 20
0.0
 30
0.0
  9
$PUCSXDIR
 10
1.0
 20
0.0
 30
0.0
  9
$PUCSYDIR
 10
0.0
 20
1.0
 30
0.0
  9
$PUCSORTHOREF
  2

  9
$PUCSORTHOVIEW
 70
     0
  9
$PUCSORGTOP
 10
0.0
 20
0.0
 30
0.0
  9
$PUCSORGBOTTOM
 10
0.0
 20
0.0
 30
0.0
  9
$PUCSORGLEFT
 10
0.0
 20
0.0
 30
0.0
  9
$PUCSORGRIGHT
 10
0.0
 20
0.0
 30
0.0
  9
$PUCSORGFRONT
 10
0.0
 20
0.0
 30
0.0
  9
$PUCSORGBACK
 10
0.0
 20
0.0
 30
0.0
  9
$USERI1
 70
     0
  9
$USERI2
 70
     0
  9
$USERI3
 70
     0
  9
$USERI4
 70
     0
  9
$USERI5
 70
     0
  9
$USERR1
 40
0.0
  9
$USERR2
 40
0.0
  9
$USERR3
 40
0.0
  9
$USERR4
 40
0.0
  9
$USERR5
 40
0.0
  9
$WORLDVIEW
 70
     1
  9
$SHADEDGE
 70
     3
  9
$SHADEDIF
 70
    70
  9
$TILEMODE
 70
     1
  9
$MAXACTVP
 70
    64
  9
$PINSBASE
 10
0.0
 20
0.0
 30
0.0
  9
$PLIMCHECK
 70
     0
  9
$PEXTMIN
 10
1.0000000000E+20
 20
1.0000000000E+20
 30
1.0000000000E+20
  9
$PEXTMAX
 10
-1.0000000000E+20
 20
-1.0000000000E+20
 30
-1.0000000000E+20
  9
$PLIMMIN
 10
0.0
 20
0.0
  9
$PLIMMAX
 10
420.0
 20
297.0
  9
$UNITMODE
 70
     0
  9
$VISRETAIN
 70
     1
  9
$PLINEGEN
 70
     0
  9
$PSLTSCALE
 70
     1
  9
$TREEDEPTH
 70
  3020
  9
$CMLSTYLE
  2
Standard
  9
$CMLJUST
 70
     0
  9
$CMLSCALE
 40
20.0
  9
$PROXYGRAPHICS
 70
     1
  9
$MEASUREMENT
 70
     1
  9
$CELWEIGHT
370
    -1
  9
$ENDCAPS
280
     0
  9
$JOINSTYLE
280
     0
  9
$LWDISPLAY
290
     1
  9
$INSUNITS
 70
     4
  9
$HYPERLINKBASE
  1

  9
$STYLESHEET
  1

  9
$XEDIT
290
     1
  9
$CEPSNTYPE
380
     0
  9
$PSTYLEMODE
290
     1
  9
$FINGERPRINTGUID
  2
{16830A2C-518A-438D-9CFC-F37DF853D180}
  9
$VERSIONGUID
  2
{FAEB1C32-E019-11D5-929B-00C0DF256EC4}
  9
$EXTNAMES
290
     1
  9
$PSVPSCALE
 40
0.0
  9
$OLESTARTUP
290
     0
  0
ENDSEC
  0
SECTION
  2
CLASSES
  0
CLASS
  1
ACDBDICTIONARYWDFLT
  2
AcDbDictionaryWithDefault
  3
ObjectDBX Classes
 90
        0
280
     0
281
     0
  0
CLASS
  1
VISUALSTYLE
  2
AcDbVisualStyle
  3
ObjectDBX Classes
 90
     4095
280
     0
281
     0
  0
CLASS
  1
DICTIONARYVAR
  2
AcDbDictionaryVar
  3
ObjectDBX Classes
 90
        0
280
     0
281
     0
  0
CLASS
  1
ACDBPLACEHOLDER
  2
AcDbPlaceHolder
  3
ObjectDBX Classes
 90
        0
280
     0
281
     0
  0
CLASS
  1
LAYOUT
  2
AcDbLayout
  3
ObjectDBX Classes
 90
        0
280
     0
281
     0
  0
ENDSEC
  0
SECTION
  2
TABLES
  0
TABLE
  2
VPORT
  5
8
330
0
100
AcDbSymbolTable
 70
     1
  0
VPORT
  5
29
330
8
100
AcDbSymbolTableRecord
100
AcDbViewportTableRecord
  2
*Active
 70
     0
 10
0.0
 20
0.0
 11
1.0
 21
1.0
 12
148.5
 22
105.0
 13
0.0
 23
0.0
 14
10.0
 24
10.0
 15
10.0
 25
10.0
 16
0.0
 26
0.0
 36
1.0
 17
0.0
 27
0.0
 37
0.0
 40
210.0
 41
1.4142857143
 42
50.0
 43
0.0
 44
0.0
 50
0.0
 51
0.0
 71
     0
 72
  2000
 73
     1
 74
     3
 75
     0
 76
     0
 77
     0
 78
     0
281
     0
 65
     1
110
0.0
120
0.0
130
0.0
111
1.0
121
0.0
131
0.0
112
0.0
122
1.0
132
0.0
 79
     0
146
0.0
  0
ENDTAB
  0
TABLE
  2
LTYPE
  5
5
330
0
100
AcDbSymbolTable
 70
     6
  0
LTYPE
  5
14
330
5
100
AcDbSymbolTableRecord
100
AcDbLinetypeTableRecord
  2
ByBlock
 70
     0
  3

 72
    65
 73
     0
 40
0.0
  0
LTYPE
  5
15
330
5
100
AcDbSymbolTableRecord
100
AcDbLinetypeTableRecord
  2
ByLayer
 70
     0
  3

 72
    65
 73
     0
 40
0.0
  0
LTYPE
  5
16
330
5
100
AcDbSymbolTableRecord
100
AcDbLinetypeTableRecord
  2
Continuous
 70
     0
  3
Solid line
 72
    65
 73
     0
 40
0.0
  0
LTYPE
  5
3B
330
5
100
AcDbSymbolTableRecord
100
AcDbLinetypeTableRecord
  2
HIDDEN
 70
     0
  3
Hidden __ __ __ __ __ __ __ __ __ __ __ __ __ __
 72
    65
 73
     2
 40
1.905
 49
1.27
 74
     0
 49
-0.635
 74
     0
  0
LTYPE
  5
3C
330
5
100
AcDbSymbolTableRecord
100
AcDbLinetypeTableRecord
  2
PHANTOM
 70
     0
  3
Phantom ______  __  __  ______  __  __  ______
 72
    65
 73
     6
 40
12.7
 49
6.35
 74
     0
 49
-1.27
 74
     0
 49
1.27
 74
     0
 49
-1.27
 74
     0
 49
1.27
 74
     0
 49
-1.27
 74
     0
  0
LTYPE
  5
3D
330
5
100
AcDbSymbolTableRecord
100
AcDbLinetypeTableRecord
  2
CENTER
 70
     0
  3
Center ____ _ ____ _ ____ _ ____ _ ____ _ ____
 72
    65
 73
     4
 40
10.16
 49
6.35
 74
     0
 49
-1.27
 74
     0
 49
1.27
 74
     0
 49
-1.27
 74
     0
  0
LTYPE
  5
3E
330
5
100
AcDbSymbolTableRecord
100
AcDbLinetypeTableRecord
  2
CENTERX2
 70
     0
  3
Center (2x) ________  __  ________  __  _____
 72
    65
 73
     4
 40
20.32
 49
12.7
 74
     0
 49
-2.54
 74
     0
 49
2.54
 74
     0
 49
-2.54
 74
     0
  0
LTYPE
  5
3F
330
5
100
AcDbSymbolTableRecord
100
AcDbLinetypeTableRecord
  2
DOT2
 70
     0
  3
Dot (.5x) ........................................
 72
    65
 73
     2
 40
0.635
 49
0.0
 74
     0
 49
-0.635
 74
     0
  0
ENDTAB
  0
TABLE
  2
LAYER
  5
2
330
0
100
AcDbSymbolTable
 70
     5
  0
LAYER
  5
10
330
2
100
AcDbSymbolTableRecord
100
AcDbLayerTableRecord
  2
0
 70
     0
 62
     7
  6
Continuous
370
    -3
390
F
  0
LAYER
  5
40
330
2
100
AcDbSymbolTableRecord
100
AcDbLayerTableRecord
  2
FORMAT
 70
     0
 62
     7
  6
Continuous
370
    -3
390
F
  0
LAYER
  5
41
330
2
100
AcDbSymbolTableRecord
100
AcDbLayerTableRecord
  2
VERMASSUNG
 70
     0
 62
     7
  6
Continuous
370
    -3
390
F
  0
LAYER
  5
42
330
2
100
AcDbSymbolTableRecord
100
AcDbLayerTableRecord
  2
KOPF_DÜNN
 70
     0
 62
     7
  6
Continuous
370
    -3
390
F
  0
LAYER
  5
43
330
2
100
AcDbSymbolTableRecord
100
AcDbLayerTableRecord
  2
KOPF_DICK
 70
     0
 62
     7
  6
Continuous
370
    15
390
F
  0
ENDTAB
  0
TABLE
  2
STYLE
  5
3
330
0
100
AcDbSymbolTable
 70
     3
  0
STYLE
  5
11
330
3
100
AcDbSymbolTableRecord
100
AcDbTextStyleTableRecord
  2
Standard
 70
     0
 40
0.0
 41
1.0
 50
0.0
 71
     0
 42
2.5
  3
txt
  4

  0
STYLE
  5
44
330
3
100
AcDbSymbolTableRecord
100
AcDbTextStyleTableRecord
  2
SLDTEXTSTYLE0
 70
     0
 40
0.0
 41
0.7
 50
0.0
 71
     0
 42
0.2
  3
TXT
  4

  0
STYLE
  5
48
330
3
100
AcDbSymbolTableRecord
100
AcDbTextStyleTableRecord
  2
SLDTEXTSTYLE1
 70
     0
 40
0.0
 41
0.6473684211
 50
0.0
 71
     0
 42
0.2
  3
TXT
  4

  0
ENDTAB
  0
TABLE
  2
VIEW
  5
6
330
0
100
AcDbSymbolTable
 70
     0
  0
ENDTAB
  0
TABLE
  2
UCS
  5
7
330
0
100
AcDbSymbolTable
 70
     0
  0
ENDTAB
  0
TABLE
  2
APPID
  5
9
330
0
100
AcDbSymbolTable
 70
     1
  0
APPID
  5
12
330
9
100
AcDbSymbolTableRecord
100
AcDbRegAppTableRecord
  2
ACAD
 70
     0
  0
ENDTAB
  0
TABLE
  2
DIMSTYLE
  5
A
330
0
100
AcDbSymbolTable
 70
     5
100
AcDbDimStyleTable
  0
DIMSTYLE
105
27
330
A
100
AcDbSymbolTableRecord
100
AcDbDimStyleTableRecord
  2
ISO-25
 70
     0
 41
2.5
 42
0.625
 43
3.75
 44
1.25
 73
     0
 74
     0
 77
     1
 78
     8
140
2.5
141
2.5
143
0.0393700787
147
0.625
171
     3
172
     1
271
     2
272
     2
274
     3
278
    44
283
     0
284
     8
340
11
  0
DIMSTYLE
105
1C8
102
{ACAD_REACTORS
330
1C7
330
1F7
330
201
330
20B
330
215
102
}
330
A
100
AcDbSymbolTableRecord
100
AcDbDimStyleTableRecord
  2
SLDDIMSTYLE0
 70
     0
 41
3.0
 44
0.0
 45
0.000000001
 73
     0
 74
     0
 77
     1
 78
    12
140
2.0
147
0.5
173
     1
271
     2
272
     3
284
    12
340
44
  0
DIMSTYLE
105
1D5
102
{ACAD_REACTORS
330
1D4
102
}
330
A
100
AcDbSymbolTableRecord
100
AcDbDimStyleTableRecord
  2
SLDDIMSTYLE1
 70
     0
 41
3.0
 44
0.0
 45
0.000000001
 73
     0
 74
     0
 77
     1
 78
    12
140
2.0
147
0.5
173
     1
271
     2
272
     2
284
    12
340
44
  0
DIMSTYLE
105
1E0
102
{ACAD_REACTORS
330
1DF
102
}
330
A
100
AcDbSymbolTableRecord
100
AcDbDimStyleTableRecord
  2
SLDDIMSTYLE2
 70
     0
 41
3.0
 44
0.0
 45
0.000000001
 73
     0
 74
     0
 77
     1
 78
    12
140
2.0
147
0.5
173
     1
271
     2
272
     2
284
    12
340
44
  0
DIMSTYLE
105
1EC
102
{ACAD_REACTORS
330
1EB
102
}
330
A
100
AcDbSymbolTableRecord
100
AcDbDimStyleTableRecord
  2
SLDDIMSTYLE3
 70
     0
 41
3.0
 44
0.0
 45
0.000000001
 73
     0
 74
     0
 77
     1
 78
    12
140
2.0
147
0.5
173
     1
271
     2
272
     3
284
    12
340
44
  0
ENDTAB
  0
TABLE
  2
BLOCK_RECORD
  5
1
330
0
100
AcDbSymbolTable
 70
     9
  0
BLOCK_RECORD
  5
1F
330
1
100
AcDbSymbolTableRecord
100
AcDbBlockTableRecord
  2
*Model_Space
340
22
  0
BLOCK_RECORD
  5
1B
330
1
100
AcDbSymbolTableRecord
100
AcDbBlockTableRecord
  2
*Paper_Space
340
1E
  0
BLOCK_RECORD
  5
23
330
1
100
AcDbSymbolTableRecord
100
AcDbBlockTableRecord
  2
*Paper_Space0
340
26
  0
BLOCK_RECORD
  5
1C9
330
1
100
AcDbSymbolTableRecord
100
AcDbBlockTableRecord
  2
*D1
340
0
  0
BLOCK_RECORD
  5
1D6
330
1
100
AcDbSymbolTableRecord
100
AcDbBlockTableRecord
  2
*D2
340
0
  0
BLOCK_RECORD
  5
1E1
330
1
100
AcDbSymbolTableRecord
100
AcDbBlockTableRecord
  2
*D3
340
0
  0
BLOCK_RECORD
  5
1ED
330
1
100
AcDbSymbolTableRecord
100
AcDbBlockTableRecord
  2
*D4
340
0
  0
BLOCK_RECORD
  5
1F8
330
1
100
AcDbSymbolTableRecord
100
AcDbBlockTableRecord
  2
*D5
340
0
  0
BLOCK_RECORD
  5
202
330
1
100
AcDbSymbolTableRecord
100
AcDbBlockTableRecord
  2
*D6
340
0
  0
BLOCK_RECORD
  5
20C
330
1
100
AcDbSymbolTableRecord
100
AcDbBlockTableRecord
  2
*D7
340
0
  0
BLOCK_RECORD
  5
216
330
1
100
AcDbSymbolTableRecord
100
AcDbBlockTableRecord
  2
*D8
340
0
  0
ENDTAB
  0
ENDSEC
  0
SECTION
  2
BLOCKS
  0
BLOCK
  5
20
330
1F
100
AcDbEntity
  8
0
100
AcDbBlockBegin
  2
*Model_Space
 70
     0
 10
0.0
 20
0.0
 30
0.0
  3
*Model_Space
  1

  0
ENDBLK
  5
21
330
1F
100
AcDbEntity
  8
0
100
AcDbBlockEnd
  0
BLOCK
  5
1C
330
1B
100
AcDbEntity
 67
     1
  8
0
100
AcDbBlockBegin
  2
*Paper_Space
 70
     0
 10
0.0
 20
0.0
 30
0.0
  3
*Paper_Space
  1

  0
ENDBLK
  5
1D
330
1B
100
AcDbEntity
 67
     1
  8
0
100
AcDbBlockEnd
  0
BLOCK
  5
24
330
23
100
AcDbEntity
  8
0
100
AcDbBlockBegin
  2
*Paper_Space0
 70
     0
 10
0.0
 20
0.0
 30
0.0
  3
*Paper_Space0
  1

  0
ENDBLK
  5
25
330
23
100
AcDbEntity
  8
0
100
AcDbBlockEnd
  0
BLOCK
  5
1CA
330
1C9
100
AcDbEntity
  8
0
100
AcDbBlockBegin
  2
*D1
 70
     1
 10
0.0
 20
0.0
 30
0.0
  3
*D1
  1

  0
SOLID
  5
1CC
330
1C9
100
AcDbEntity
  8
VERMASSUNG
100
AcDbTrace
 10
79.5754062839
 20
141.4894907909
 30
0.0
 11
79.1254062839
 21
138.4894907909
 31
0.0
 12
80.0254062839
 22
138.4894907909
 32
0.0
 13
80.0254062839
 23
138.4894907909
 33
0.0
  0
SOLID
  5
1CD
330
1C9
100
AcDbEntity
  8
VERMASSUNG
100
AcDbTrace
 10
79.5754062839
 20
78.4894907909
 30
0.0
 11
80.0254062839
 21
81.4894907909
 31
0.0
 12
79.1254062839
 22
81.4894907909
 32
0.0
 13
79.1254062839
 23
81.4894907909
 33
0.0
  0
LINE
  5
1CE
330
1C9
100
AcDbEntity
  8
VERMASSUNG
100
AcDbLine
 10
116.3062746138
 20
141.4894907909
 30
0.0
 11
78.5754062839
 21
141.4894907909
 31
0.0
  0
LINE
  5
1CF
330
1C9
100
AcDbEntity
  8
VERMASSUNG
100
AcDbLine
 10
116.3062746138
 20
78.4894907909
 30
0.0
 11
78.5754062839
 21
78.4894907909
 31
0.0
  0
LINE
  5
1D0
330
1C9
100
AcDbEntity
  8
VERMASSUNG
100
AcDbLine
 10
79.5754062839
 20
141.4894907909
 30
0.0
 11
79.5754062839
 21
78.4894907909
 31
0.0
  0
MTEXT
  5
1D1
330
1C9
100
AcDbEntity
  8
VERMASSUNG
100
AcDbMText
 10
76.7972707948
 20
102.2859490791
 30
0.0
 40
2.0
 41
0.0
 71
     1
 72
     1
  1
HSK A 
  7
SLDTEXTSTYLE0
 11
-7.044195017643634E-15
 21
1.0
 31
0.0
 73
     1
 44
1.0
  0
MTEXT
  5
1D2
330
1C9
100
AcDbEntity
  8
VERMASSUNG
100
AcDbMText
 10
76.9972708043
 20
111.285949623
 30
0.0
 40
2.0
 41
0.0
 71
     1
 72
     1
  1
%%c
  7
SLDTEXTSTYLE0
 11
-7.044195017643634E-15
 21
1.0
 31
0.0
 73
     1
 44
1.0
  0
MTEXT
  5
1D3
330
1C9
100
AcDbEntity
  8
VERMASSUNG
100
AcDbMText
 10
76.9972709207
 20
114.894276273
 30
0.0
 40
2.0
 41
0.0
 71
     1
 72
     1
  1
63
  7
SLDTEXTSTYLE0
 11
-7.044195017643634E-15
 21
1.0
 31
0.0
 73
     1
 44
1.0
  0
ENDBLK
  5
1CB
330
1C9
100
AcDbEntity
  8
0
100
AcDbBlockEnd
  0
BLOCK
  5
1D7
330
1D6
100
AcDbEntity
  8
0
100
AcDbBlockBegin
  2
*D2
 70
     1
 10
0.0
 20
0.0
 30
0.0
  3
*D2
  1

  0
SOLID
  5
1D9
330
1D6
100
AcDbEntity
  8
VERMASSUNG
100
AcDbTrace
 10
159.5062746138
 20
145.4894907909
 30
0.0
 11
162.5062746138
 21
145.0394907909
 31
0.0
 12
162.5062746138
 22
145.9394907909
 32
0.0
 13
162.5062746138
 23
145.9394907909
 33
0.0
  0
SOLID
  5
1DA
330
1D6
100
AcDbEntity
  8
VERMASSUNG
100
AcDbTrace
 10
206.0062746138
 20
145.4894907909
 30
0.0
 11
203.0062746138
 21
145.9394907909
 31
0.0
 12
203.0062746138
 22
145.0394907909
 32
0.0
 13
203.0062746138
 23
145.0394907909
 33
0.0
  0
LINE
  5
1DB
330
1D6
100
AcDbEntity
  8
VERMASSUNG
100
AcDbLine
 10
159.5062746138
 20
115.8894907909
 30
0.0
 11
159.5062746138
 21
146.4894907909
 31
0.0
  0
LINE
  5
1DC
330
1D6
100
AcDbEntity
  8
VERMASSUNG
100
AcDbLine
 10
206.0062746138
 20
120.1407098076
 30
0.0
 11
206.0062746138
 21
146.4894907909
 31
0.0
  0
LINE
  5
1DD
330
1D6
100
AcDbEntity
  8
VERMASSUNG
100
AcDbLine
 10
159.5062746138
 20
145.4894907909
 30
0.0
 11
206.0062746138
 21
145.4894907909
 31
0.0
  0
MTEXT
  5
1DE
330
1D6
100
AcDbEntity
  8
VERMASSUNG
100
AcDbMText
 10
180.2568878316
 20
148.067626154
 30
0.0
 40
2.0
 41
0.0
 71
     1
 72
     1
  1
46.5
  7
SLDTEXTSTYLE0
 73
     1
 44
1.0
  0
ENDBLK
  5
1D8
330
1D6
100
AcDbEntity
  8
0
100
AcDbBlockEnd
  0
BLOCK
  5
1E2
330
1E1
100
AcDbEntity
  8
0
100
AcDbBlockBegin
  2
*D3
 70
     1
 10
0.0
 20
0.0
 30
0.0
  3
*D3
  1

  0
SOLID
  5
1E4
330
1E1
100
AcDbEntity
  8
VERMASSUNG
100
AcDbTrace
 10
216.0769490552
 20
103.9894907909
 30
0.0
 11
216.5269490552
 21
106.9894907909
 31
0.0
 12
215.6269490552
 22
106.9894907909
 32
0.0
 13
215.6269490552
 23
106.9894907909
 33
0.0
  0
SOLID
  5
1E5
330
1E1
100
AcDbEntity
  8
VERMASSUNG
100
AcDbTrace
 10
216.0769490552
 20
115.9894907909
 30
0.0
 11
215.6269490552
 21
112.9894907909
 31
0.0
 12
216.5269490552
 22
112.9894907909
 32
0.0
 13
216.5269490552
 23
112.9894907909
 33
0.0
  0
LINE
  5
1E6
330
1E1
100
AcDbEntity
  8
VERMASSUNG
100
AcDbLine
 10
202.5062746138
 20
103.9894907909
 30
0.0
 11
217.0769490552
 21
103.9894907909
 31
0.0
  0
LINE
  5
1E7
330
1E1
100
AcDbEntity
  8
VERMASSUNG
100
AcDbLine
 10
202.5062746138
 20
115.9894907909
 30
0.0
 11
217.0769490552
 21
115.9894907909
 31
0.0
  0
LINE
  5
1E8
330
1E1
100
AcDbEntity
  8
VERMASSUNG
100
AcDbLine
 10
216.0769490552
 20
103.9894907909
 30
0.0
 11
216.0769490552
 21
115.9894907909
 31
0.0
  0
MTEXT
  5
1E9
330
1E1
100
AcDbEntity
  8
VERMASSUNG
100
AcDbMText
 10
213.4988135757
 20
106.9853531961
 30
0.0
 40
2.0
 41
0.0
 71
     1
 72
     1
  1
%%c
  7
SLDTEXTSTYLE0
 11
6.123233995736766E-17
 21
1.0
 31
0.0
 73
     1
 44
1.0
  0
MTEXT
  5
1EA
330
1E1
100
AcDbEntity
  8
VERMASSUNG
100
AcDbMText
 10
213.4988136921
 20
110.5940314193
 30
0.0
 40
2.0
 41
0.0
 71
     1
 72
     1
  1
12
  7
SLDTEXTSTYLE0
 11
6.123233995736766E-17
 21
1.0
 31
0.0
 73
     1
 44
1.0
  0
ENDBLK
  5
1E3
330
1E1
100
AcDbEntity
  8
0
100
AcDbBlockEnd
  0
BLOCK
  5
1EE
330
1ED
100
AcDbEntity
  8
0
100
AcDbBlockBegin
  2
*D4
 70
     1
 10
0.0
 20
0.0
 30
0.0
  3
*D4
  1

  0
SOLID
  5
1F0
330
1ED
100
AcDbEntity
  8
VERMASSUNG
100
AcDbTrace
 10
222.0769490552
 20
97.9894907909
 30
0.0
 11
222.5269490552
 21
100.9894907909
 31
0.0
 12
221.6269490552
 22
100.9894907909
 32
0.0
 13
221.6269490552
 23
100.9894907909
 33
0.0
  0
SOLID
  5
1F1
330
1ED
100
AcDbEntity
  8
VERMASSUNG
100
AcDbTrace
 10
222.0769490552
 20
121.9894907909
 30
0.0
 11
221.6269490552
 21
118.9894907909
 31
0.0
 12
222.5269490552
 22
118.9894907909
 32
0.0
 13
222.5269490552
 23
118.9894907909
 33
0.0
  0
LINE
  5
1F2
330
1ED
100
AcDbEntity
  8
VERMASSUNG
100
AcDbLine
 10
206.0062746138
 20
97.9894907909
 30
0.0
 11
223.0769490552
 21
97.9894907909
 31
0.0
  0
LINE
  5
1F3
330
1ED
100
AcDbEntity
  8
VERMASSUNG
100
AcDbLine
 10
206.0062746138
 20
121.9894907909
 30
0.0
 11
223.0769490552
 21
121.9894907909
 31
0.0
  0
LINE
  5
1F4
330
1ED
100
AcDbEntity
  8
VERMASSUNG
100
AcDbLine
 10
222.0769490552
 20
97.9894907909
 30
0.0
 11
222.0769490552
 21
121.9894907909
 31
0.0
  0
MTEXT
  5
1F5
330
1ED
100
AcDbEntity
  8
VERMASSUNG
100
AcDbMText
 10
219.4988135757
 20
106.6859837486
 30
0.0
 40
2.0
 41
0.0
 71
     1
 72
     1
  1
%%c
  7
SLDTEXTSTYLE0
 11
6.123233995736766E-17
 21
1.0
 31
0.0
 73
     1
 44
1.0
  0
MTEXT
  5
1F6
330
1ED
100
AcDbEntity
  8
VERMASSUNG
100
AcDbMText
 10
219.4988136921
 20
110.2946619718
 30
0.0
 40
2.0
 41
0.0
 71
     1
 72
     1
  1
24
  7
SLDTEXTSTYLE0
 11
6.123233995736766E-17
 21
1.0
 31
0.0
 73
     1
 44
1.0
  0
ENDBLK
  5
1EF
330
1ED
100
AcDbEntity
  8
0
100
AcDbBlockEnd
  0
BLOCK
  5
1F9
330
1F8
100
AcDbEntity
  8
0
100
AcDbBlockBegin
  2
*D5
 70
     1
 10
0.0
 20
0.0
 30
0.0
  3
*D5
  1

  0
SOLID
  5
1FB
330
1F8
100
AcDbEntity
  8
VERMASSUNG
100
AcDbTrace
 10
116.0062746138
 20
157.4894907909
 30
0.0
 11
119.0062746138
 21
157.0394907909
 31
0.0
 12
119.0062746138
 22
157.9394907909
 32
0.0
 13
119.0062746138
 23
157.9394907909
 33
0.0
  0
SOLID
  5
1FC
330
1F8
100
AcDbEntity
  8
VERMASSUNG
100
AcDbTrace
 10
206.0062746138
 20
157.4894907909
 30
0.0
 11
203.0062746138
 21
157.9394907909
 31
0.0
 12
203.0062746138
 22
157.0394907909
 32
0.0
 13
203.0062746138
 23
157.0394907909
 33
0.0
  0
LINE
  5
1FD
330
1F8
100
AcDbEntity
  8
VERMASSUNG
100
AcDbLine
 10
116.0062746138
 20
135.3134219369
 30
0.0
 11
116.0062746138
 21
158.4894907909
 31
0.0
  0
LINE
  5
1FE
330
1F8
100
AcDbEntity
  8
VERMASSUNG
100
AcDbLine
 10
206.0062746138
 20
120.1407098076
 30
0.0
 11
206.0062746138
 21
158.4894907909
 31
0.0
  0
LINE
  5
1FF
330
1F8
100
AcDbEntity
  8
VERMASSUNG
100
AcDbLine
 10
116.0062746138
 20
157.4894907909
 30
0.0
 11
206.0062746138
 21
157.4894907909
 31
0.0
  0
MTEXT
  5
200
330
1F8
100
AcDbEntity
  8
VERMASSUNG
100
AcDbMText
 10
159.6068964989
 20
160.067626154
 30
0.0
 40
2.0
 41
0.0
 71
     1
 72
     1
  1
90
  7
SLDTEXTSTYLE0
 73
     1
 44
1.0
  0
ENDBLK
  5
1FA
330
1F8
100
AcDbEntity
  8
0
100
AcDbBlockEnd
  0
BLOCK
  5
203
330
202
100
AcDbEntity
  8
0
100
AcDbBlockBegin
  2
*D6
 70
     1
 10
0.0
 20
0.0
 30
0.0
  3
*D6
  1

  0
SOLID
  5
205
330
202
100
AcDbEntity
  8
VERMASSUNG
100
AcDbTrace
 10
206.0062746138
 20
151.4894907909
 30
0.0
 11
203.0062746138
 21
151.9394907909
 31
0.0
 12
203.0062746138
 22
151.0394907909
 32
0.0
 13
203.0062746138
 23
151.0394907909
 33
0.0
  0
SOLID
  5
206
330
202
100
AcDbEntity
  8
VERMASSUNG
100
AcDbTrace
 10
141.9562746138
 20
151.4894907909
 30
0.0
 11
144.9562746138
 21
151.0394907909
 31
0.0
 12
144.9562746138
 22
151.9394907909
 32
0.0
 13
144.9562746138
 23
151.9394907909
 33
0.0
  0
LINE
  5
207
330
202
100
AcDbEntity
  8
VERMASSUNG
100
AcDbLine
 10
206.0062746138
 20
120.1274214394
 30
0.0
 11
206.0062746138
 21
152.4894907909
 31
0.0
  0
LINE
  5
208
330
202
100
AcDbEntity
  8
VERMASSUNG
100
AcDbLine
 10
141.9562746138
 20
139.8359311147
 30
0.0
 11
141.9562746138
 21
152.4894907909
 31
0.0
  0
LINE
  5
209
330
202
100
AcDbEntity
  8
VERMASSUNG
100
AcDbLine
 10
206.0062746138
 20
151.4894907909
 30
0.0
 11
141.9562746138
 21
151.4894907909
 31
0.0
  0
MTEXT
  5
20A
330
202
100
AcDbEntity
  8
VERMASSUNG
100
AcDbMText
 10
170.7821987741
 20
154.067626154
 30
0.0
 40
2.0
 41
0.0
 71
     1
 72
     1
  1
64.05
  7
SLDTEXTSTYLE0
 73
     1
 44
1.0
  0
ENDBLK
  5
204
330
202
100
AcDbEntity
  8
0
100
AcDbBlockEnd
  0
BLOCK
  5
20D
330
20C
100
AcDbEntity
  8
0
100
AcDbBlockBegin
  2
*D7
 70
     1
 10
0.0
 20
0.0
 30
0.0
  3
*D7
  1

  0
SOLID
  5
20F
330
20C
100
AcDbEntity
  8
VERMASSUNG
100
AcDbTrace
 10
206.0062746138
 20
163.4894907909
 30
0.0
 11
203.0062746138
 21
163.9394907909
 31
0.0
 12
203.0062746138
 22
163.0394907909
 32
0.0
 13
203.0062746138
 23
163.0394907909
 33
0.0
  0
SOLID
  5
210
330
20C
100
AcDbEntity
  8
VERMASSUNG
100
AcDbTrace
 10
84.1062746138
 20
163.4894907909
 30
0.0
 11
87.1062746138
 21
163.0394907909
 31
0.0
 12
87.1062746138
 22
163.9394907909
 32
0.0
 13
87.1062746138
 23
163.9394907909
 33
0.0
  0
LINE
  5
211
330
20C
100
AcDbEntity
  8
VERMASSUNG
100
AcDbLine
 10
206.0062746138
 20
120.1274214394
 30
0.0
 11
206.0062746138
 21
164.4894907909
 31
0.0
  0
LINE
  5
212
330
20C
100
AcDbEntity
  8
VERMASSUNG
100
AcDbLine
 10
84.1062746138
 20
129.6801685374
 30
0.0
 11
84.1062746138
 21
164.4894907909
 31
0.0
  0
LINE
  5
213
330
20C
100
AcDbEntity
  8
VERMASSUNG
100
AcDbLine
 10
206.0062746138
 20
163.4894907909
 30
0.0
 11
84.1062746138
 21
163.4894907909
 31
0.0
  0
MTEXT
  5
214
330
20C
100
AcDbEntity
  8
VERMASSUNG
100
AcDbMText
 10
142.3573081999
 20
166.067626154
 30
0.0
 40
2.0
 41
0.0
 71
     1
 72
     1
  1
121.9
  7
SLDTEXTSTYLE0
 73
     1
 44
1.0
  0
ENDBLK
  5
20E
330
20C
100
AcDbEntity
  8
0
100
AcDbBlockEnd
  0
BLOCK
  5
217
330
216
100
AcDbEntity
  8
0
100
AcDbBlockBegin
  2
*D8
 70
     1
 10
0.0
 20
0.0
 30
0.0
  3
*D8
  1

  0
SOLID
  5
219
330
216
100
AcDbEntity
  8
VERMASSUNG
100
AcDbTrace
 10
228.0769490552
 20
124.9894907909
 30
0.0
 11
227.6269490552
 21
121.9894907909
 31
0.0
 12
228.5269490552
 22
121.9894907909
 32
0.0
 13
228.5269490552
 23
121.9894907909
 33
0.0
  0
SOLID
  5
21A
330
216
100
AcDbEntity
  8
VERMASSUNG
100
AcDbTrace
 10
228.0769490552
 20
94.9894907909
 30
0.0
 11
228.5269490552
 21
97.9894907909
 31
0.0
 12
227.6269490552
 22
97.9894907909
 32
0.0
 13
227.6269490552
 23
97.9894907909
 33
0.0
  0
LINE
  5
21B
330
216
100
AcDbEntity
  8
VERMASSUNG
100
AcDbLine
 10
167.8876604053
 20
124.9894907909
 30
0.0
 11
229.0769490552
 21
124.9894907909
 31
0.0
  0
LINE
  5
21C
330
216
100
AcDbEntity
  8
VERMASSUNG
100
AcDbLine
 10
167.8876604053
 20
94.9894907909
 30
0.0
 11
229.0769490552
 21
94.9894907909
 31
0.0
  0
LINE
  5
21D
330
216
100
AcDbEntity
  8
VERMASSUNG
100
AcDbLine
 10
228.0769490552
 20
124.9894907909
 30
0.0
 11
228.0769490552
 21
94.9894907909
 31
0.0
  0
MTEXT
  5
21E
330
216
100
AcDbEntity
  8
VERMASSUNG
100
AcDbMText
 10
225.4988135757
 20
106.7857735645
 30
0.0
 40
2.0
 41
0.0
 71
     1
 72
     1
  1
%%c
  7
SLDTEXTSTYLE0
 11
-7.044195017643634E-15
 21
1.0
 31
0.0
 73
     1
 44
1.0
  0
MTEXT
  5
21F
330
216
100
AcDbEntity
  8
VERMASSUNG
100
AcDbMText
 10
225.4988136921
 20
110.3944517876
 30
0.0
 40
2.0
 41
0.0
 71
     1
 72
     1
  1
30
  7
SLDTEXTSTYLE0
 11
-7.044195017643634E-15
 21
1.0
 31
0.0
 73
     1
 44
1.0
  0
ENDBLK
  5
218
330
216
100
AcDbEntity
  8
0
100
AcDbBlockEnd
  0
ENDSEC
  0
SECTION
  2
ENTITIES
  0
MTEXT
  5
45
330
1F
100
AcDbEntity
  8
KOPF_DÜNN
100
AcDbMText
 10
13.8892156294
 20
23.8442973028
 30
0.0
 40
3.0
 41
0.0
 71
     1
 72
     1
  1
HA6.S12.K21.090
  7
SLDTEXTSTYLE0
 73
     1
 44
1.0
  0
MTEXT
  5
46
330
1F
100
AcDbEntity
  8
VERMASSUNG
100
AcDbMText
 10
13.9329988022
 20
28.8834360957
 30
0.0
 40
3.0
 41
0.0
 71
     1
 72
     1
  1
Schrumpffutter_Heat shrink chuck
  7
SLDTEXTSTYLE0
 73
     1
 44
1.0
  0
MTEXT
  5
47
330
1F
100
AcDbEntity
  8
VERMASSUNG
100
AcDbMText
 10
98.8601118557
 20
13.8365368179
 30
0.0
 40
2.0
 41
0.0
 71
     1
 72
     1
  1
Datum: 27.04.2011
  7
SLDTEXTSTYLE0
 73
     1
 44
1.0
  0
MTEXT
  5
49
330
1F
100
AcDbEntity
  8
VERMASSUNG
100
AcDbMText
 10
13.933048693
 20
18.0482802738
 30
0.0
 40
2.0
 41
0.0
 71
     1
 72
     1
  1
DIN 69 893 HSK A 63
  7
SLDTEXTSTYLE1
 73
     1
 44
1.0
  0
MTEXT
  5
4A
330
1F
100
AcDbEntity
  8
VERMASSUNG
100
AcDbMText
 10
13.9808475933
 20
13.9090973692
 30
0.0
 40
2.0
 41
0.0
 71
     1
 72
     1
  1
Gewicht: 900g
  7
SLDTEXTSTYLE0
 73
     1
 44
1.0
  0
LINE
  5
4B
330
1F
100
AcDbEntity
  8
0
  6
Continuous
 62
     7
370
    15
100
AcDbLine
 10
116.3062746138
 20
78.4894907909
 30
0.0
 11
120.9562746138
 21
78.4894907909
 31
0.0
  0
LINE
  5
4C
330
1F
100
AcDbEntity
  8
0
  6
Continuous
 62
     7
370
    15
100
AcDbLine
 10
120.9655827006
 20
141.4894907909
 30
0.0
 11
116.3062746138
 21
141.4894907909
 31
0.0
  0
ARC
  5
4D
330
1F
100
AcDbEntity
  8
0
  6
Continuous
 62
     7
370
    15
100
AcDbCircle
 10
116.3062746138
 20
78.7894907909
 30
0.0
 40
0.3000000000000114
100
AcDbArc
 50
180.0
 51
270.0
  0
ARC
  5
4E
330
1F
100
AcDbEntity
  8
0
  6
Continuous
 62
     7
370
    15
100
AcDbCircle
 10
116.3062746138
 20
141.1894907909
 30
0.0
 40
0.2999999999999972
100
AcDbArc
 50
90.0
 51
180.0
  0
ARC
  5
4F
330
1F
100
AcDbEntity
  8
0
  6
Continuous
 62
     7
370
    15
100
AcDbCircle
 10
115.5062678611
 20
85.4190531765
 30
0.0
 40
0.6000067526677242
100
AcDbArc
 50
33.5571153394
 51
90.0
  0
ARC
  5
50
330
1F
100
AcDbEntity
  8
0
  6
Continuous
 62
     7
370
    15
100
AcDbCircle
 10
115.5062678611
 20
134.5599284053
 30
0.0
 40
0.6000067526677242
100
AcDbArc
 50
270.0
 51
326.4428846606
  0
LINE
  5
51
330
1F
100
AcDbEntity
  8
0
  6
Continuous
 62
     7
370
    15
100
AcDbLine
 10
102.774765815
 20
133.647220811
 30
0.0
 11
90.2062746138
 21
133.0175368831
 31
0.0
  0
LINE
  5
52
330
1F
100
AcDbEntity
  8
0
  6
Continuous
 62
     7
370
    15
100
AcDbLine
 10
114.0062746138
 20
134.2099216526
 30
0.0
 11
111.1892729564
 21
134.0687893051
 31
0.0
  0
LINE
  5
53
330
1F
100
AcDbEntity
  8
0
  6
Continuous
 62
     7
370
    15
100
AcDbLine
 10
111.1893290465
 20
85.9101894666
 30
0.0
 11
114.0062746138
 21
85.7690599292
 31
0.0
  0
LINE
  5
54
330
1F
100
AcDbEntity
  8
0
  6
Continuous
 62
     7
370
    15
100
AcDbLine
 10
94.2062746138
 20
86.7610438971
 30
0.0
 11
102.7751683336
 21
86.3317406045
 31
0.0
  0
LINE
  5
55
330
1F
100
AcDbEntity
  8
0
  6
Continuous
 62
     7
370
    15
100
AcDbLine
 10
114.0062746138
 20
85.7690599292
 30
0.0
 11
114.8629873872
 21
85.9986154249
 31
0.0
  0
LINE
  5
56
330
1F
100
AcDbEntity
  8
0
  6
Continuous
 62
     7
370
    15
100
AcDbLine
 10
114.8629873872
 20
133.9803661568
 30
0.0
 11
114.0062746138
 21
134.2099216526
 31
0.0
  0
ARC
  5
57
330
1F
100
AcDbEntity
  8
0
  6
Continuous
 62
     7
370
    15
100
AcDbCircle
 10
115.0182788142
 20
85.4190599292
 30
0.0
 40
0.6000000000000085
100
AcDbArc
 50
90.0
 51
105.0
  0
ARC
  5
58
330
1F
100
AcDbEntity
  8
0
  6
Continuous
 62
     7
370
    15
100
AcDbCircle
 10
115.0182788142
 20
134.5599216526
 30
0.0
 40
0.6000000000000227
100
AcDbArc
 50
255.0
 51
270.0
  0
LINE
  5
59
330
1F
100
AcDbEntity
  8
0
  6
Continuous
 62
     7
370
    15
100
AcDbLine
 10
115.0182788142
 20
86.0190599292
 30
0.0
 11
115.5062678611
 21
86.0190599292
 31
0.0
  0
LINE
  5
5A
330
1F
100
AcDbEntity
  8
0
  6
Continuous
 62
     7
370
    15
100
AcDbLine
 10
115.5062678611
 20
133.9599216526
 30
0.0
 11
115.0182788142
 21
133.9599216526
 31
0.0
  0
ARC
  5
5B
330
1F
100
AcDbEntity
  8
0
  6
Continuous
 62
     7
370
    15
100
AcDbCircle
 10
144.9562746138
 20
91.9894907909
 30
0.0
 40
3.0
100
AcDbArc
 50
90.0
 51
180.0
  0
ARC
  5
5C
330
1F
100
AcDbEntity
  8
0
  6
Continuous
 62
     7
370
    15
100
AcDbCircle
 10
144.9562746138
 20
127.9894907909
 30
0.0
 40
3.0
100
AcDbArc
 50
180.0
 51
270.0
  0
LINE
  5
5D
330
1F
100
AcDbEntity
  8
0
  6
Continuous
 62
     7
370
    15
100
AcDbLine
 10
156.4552619901
 20
94.9894907909
 30
0.0
 11
167.8876604053
 21
94.9894907909
 31
0.0
  0
LINE
  5
5E
330
1F
100
AcDbEntity
  8
0
  6
Continuous
 62
     7
370
    15
100
AcDbLine
 10
144.9562746138
 20
94.9894907909
 30
0.0
 11
149.4611249823
 21
94.9894907909
 31
0.0
  0
LINE
  5
5F
330
1F
100
AcDbEntity
  8
0
  6
Continuous
 62
     7
370
    15
100
AcDbLine
 10
149.4574015017
 20
124.9894907909
 30
0.0
 11
144.9562746138
 21
124.9894907909
 31
0.0
  0
LINE
  5
60
330
1F
100
AcDbEntity
  8
0
  6
Continuous
 62
     7
370
    15
100
AcDbLine
 10
167.8876604053
 20
124.9894907909
 30
0.0
 11
156.4465124542
 21
124.9894907909
 31
0.0
  0
LINE
  5
61
330
1F
100
AcDbEntity
  8
0
  6
Continuous
 62
     7
370
    15
100
AcDbLine
 10
167.8876604053
 20
94.9894907909
 30
0.0
 11
204.1631928052
 21
97.8444371067
 31
0.0
  0
LINE
  5
62
330
1F
100
AcDbEntity
  8
0
  6
Continuous
 62
     7
370
    15
100
AcDbLine
 10
204.1631928052
 20
122.134544475
 30
0.0
 11
167.8876604053
 21
124.9894907909
 31
0.0
  0
ARC
  5
63
330
1F
100
AcDbEntity
  8
0
  6
Continuous
 62
     7
370
    15
100
AcDbCircle
 10
204.0062746138
 20
99.8382717742
 30
0.0
 40
2.000000000000028
100
AcDbArc
 50
274.5
 51
0.0
  0
ARC
  5
64
330
1F
100
AcDbEntity
  8
0
  6
Continuous
 62
     7
370
    15
100
AcDbCircle
 10
204.0062746138
 20
120.1407098076
 30
0.0
 40
2.000000000000028
100
AcDbArc
 50
0.0
 51
85.5
  0
LINE
  5
65
330
1F
100
AcDbEntity
  8
0
  6
Continuous
 62
     7
370
    15
100
AcDbLine
 10
85.3896112538
 20
89.1194907909
 30
0.0
 11
92.8062746138
 21
89.1194907909
 31
0.0
  0
ARC
  5
66
330
1F
100
AcDbEntity
  8
0
  6
Continuous
 62
     7
370
    15
100
AcDbCircle
 10
92.8062746138
 20
87.7194907909
 30
0.0
 40
1.399999999999997
100
AcDbArc
 50
42.2465410162
 51
90.0
  0
LINE
  5
67
330
1F
100
AcDbEntity
  8
0
  6
Continuous
 62
     7
370
    15
100
AcDbLine
 10
84.1174350489
 20
90.2583303558
 30
0.0
 11
85.247438072
 21
89.1283273327
 31
0.0
  0
LINE
  5
68
330
1F
100
AcDbEntity
  8
0
  6
Continuous
 62
     7
370
    15
100
AcDbLine
 10
85.247438072
 20
130.8506542491
 30
0.0
 11
84.1161753872
 21
129.7193915643
 31
0.0
  0
ARC
  5
69
330
1F
100
AcDbEntity
  8
0
  6
Continuous
 62
     7
370
    15
100
AcDbCircle
 10
88.8062746138
 20
132.2594907909
 30
0.0
 40
1.399999999999984
100
AcDbArc
 50
270.0
 51
301.7485287426
  0
LINE
  5
6A
330
1F
100
AcDbEntity
  8
0
  6
Continuous
 62
     7
370
    15
100
AcDbLine
 10
88.8062746138
 20
130.8594907909
 30
0.0
 11
85.3971630152
 21
130.8594907909
 31
0.0
  0
LINE
  5
6B
330
1F
100
AcDbEntity
  8
0
  6
Continuous
 62
     7
370
    15
100
AcDbLine
 10
206.0247070973
 20
120.2092074924
 30
0.0
 11
206.0032910727
 21
120.2499126598
 31
0.0
  0
LINE
  5
6C
330
1F
100
AcDbEntity
  8
0
  6
Continuous
 62
     7
370
    15
100
AcDbLine
 10
206.0032910727
 20
99.729068922
 30
0.0
 11
206.0247070973
 21
99.7697740894
 31
0.0
  0
LINE
  5
6D
330
1F
100
AcDbEntity
  8
0
  6
Continuous
 62
     7
370
    15
100
AcDbLine
 10
132.0962746138
 20
82.4916536318
 30
0.0
 11
132.0962746138
 21
129.8394907909
 31
0.0
  0
SPLINE
  5
6E
330
1F
100
AcDbEntity
  8
0
  6
Continuous
 62
     7
370
    15
100
AcDbSpline
210
0.0
220
0.0
230
1.0
 70
     8
 71
     3
 72
     8
 73
     4
 74
     0
 42
0.00000001
 43
0.00000001
 40
0.0
 40
0.0
 40
0.0
 40
0.0
 40
1.0
 40
1.0
 40
1.0
 40
1.0
 10
132.0962746137821
 20
82.49165363184449
 30
0.0
 10
131.6039354910009
 20
81.59438359763779
 30
0.0
 10
131.1098214429588
 20
80.69809918258554
 30
0.0
 10
130.614341782293
 20
79.80257309465219
 30
0.0
  0
LINE
  5
6F
330
1F
100
AcDbEntity
  8
0
  6
Continuous
 62
     7
370
    15
100
AcDbLine
 10
130.6143417823
 20
79.8025730947
 30
0.0
 11
130.6143417823
 21
129.8394907909
 31
0.0
  0
SPLINE
  5
70
330
1F
100
AcDbEntity
  8
0
  6
Continuous
 62
     7
370
    15
100
AcDbSpline
210
0.0
220
0.0
230
1.0
 70
    24
 71
     3
 72
     8
 73
     4
 74
     0
 42
0.00000001
 43
0.00000001
 40
0.0
 40
0.0
 40
0.0
 40
0.0
 40
1.0
 40
1.0
 40
1.0
 40
1.0
 10
130.614341782293
 20
129.8394907908994
 30
0.0
 10
131.1210218904436
 20
129.8394907908994
 30
0.0
 10
131.6163226194172
 20
129.8394907908994
 30
0.0
 10
132.0962746137821
 20
129.8394907908994
 30
0.0
  0
LINE
  5
71
330
1F
100
AcDbEntity
  8
0
  6
Continuous
 62
     7
370
    15
100
AcDbLine
 10
141.3562746138
 20
79.8025730947
 30
0.0
 11
137.3982074453
 21
79.8025730947
 31
0.0
  0
LINE
  5
72
330
1F
100
AcDbEntity
  8
0
  6
Continuous
 62
     7
370
    15
100
AcDbLine
 10
137.3982074453
 20
79.8025730947
 30
0.0
 11
137.3982074453
 21
129.8394907909
 31
0.0
  0
LINE
  5
73
330
1F
100
AcDbEntity
  8
0
  6
Continuous
 62
     7
370
    15
100
AcDbLine
 10
137.3982074453
 20
129.8394907909
 30
0.0
 11
141.3562746138
 21
129.8394907909
 31
0.0
  0
SPLINE
  5
74
330
1F
100
AcDbEntity
  8
0
  6
Continuous
 62
     7
370
    15
100
AcDbSpline
210
0.0
220
0.0
230
1.0
 70
     8
 71
     3
 72
     8
 73
     4
 74
     0
 42
0.00000001
 43
0.00000001
 40
0.0
 40
0.0
 40
0.0
 40
0.0
 40
1.0
 40
1.0
 40
1.0
 40
1.0
 10
137.3982074452711
 20
79.80257309465219
 30
0.0
 10
136.9027277846054
 20
80.69809918258555
 30
0.0
 10
136.4086137365633
 20
81.59438359763779
 30
0.0
 10
135.9162746137821
 20
82.49165363184449
 30
0.0
  0
LINE
  5
75
330
1F
100
AcDbEntity
  8
0
  6
Continuous
 62
     7
370
    15
100
AcDbLine
 10
135.9162746138
 20
82.4916536318
 30
0.0
 11
135.9162746138
 21
129.8394907909
 31
0.0
  0
SPLINE
  5
76
330
1F
100
AcDbEntity
  8
0
  6
Continuous
 62
     7
370
    15
100
AcDbSpline
210
0.0
220
0.0
230
1.0
 70
    24
 71
     3
 72
     8
 73
     4
 74
     0
 42
0.00000001
 43
0.00000001
 40
0.0
 40
0.0
 40
0.0
 40
0.0
 40
1.0
 40
1.0
 40
1.0
 40
1.0
 10
135.9162746137821
 20
129.8394907908994
 30
0.0
 10
136.396226608147
 20
129.8394907908994
 30
0.0
 10
136.8915273371206
 20
129.8394907908994
 30
0.0
 10
137.3982074452712
 20
129.8394907908994
 30
0.0
  0
SPLINE
  5
77
330
1F
100
AcDbEntity
  8
0
  6
Continuous
 62
     7
370
    15
100
AcDbSpline
210
0.0
220
0.0
230
1.0
 70
     8
 71
     3
 72
    70
 73
    66
 74
     0
 42
0.00000001
 43
0.00000001
 40
-0.0312499999999998
 40
-0.0312499999999998
 40
0.0
 40
0.0
 40
0.0312500000000003
 40
0.0312500000000003
 40
0.0625000000000006
 40
0.0625000000000006
 40
0.0937500000000009
 40
0.0937500000000009
 40
0.1250000000000012
 40
0.1250000000000012
 40
0.1562500000000014
 40
0.1562500000000014
 40
0.1875000000000017
 40
0.1875000000000017
 40
0.2187500000000021
 40
0.2187500000000021
 40
0.2500000000000023
 40
0.2500000000000023
 40
0.2812500000000024
 40
0.2812500000000024
 40
0.3125000000000026
 40
0.3125000000000026
 40
0.3437500000000027
 40
0.3437500000000027
 40
0.3750000000000028
 40
0.3750000000000028
 40
0.4062500000000029
 40
0.4062500000000029
 40
0.4375000000000031
 40
0.4375000000000031
 40
0.4687500000000032
 40
0.4687500000000032
 40
0.5000000000000033
 40
0.5000000000000033
 40
0.5312500000000032
 40
0.5312500000000032
 40
0.562500000000003
 40
0.562500000000003
 40
0.5937500000000029
 40
0.5937500000000029
 40
0.6250000000000027
 40
0.6250000000000027
 40
0.6562500000000026
 40
0.6562500000000026
 40
0.6875000000000024
 40
0.6875000000000024
 40
0.7187500000000022
 40
0.7187500000000022
 40
0.7500000000000021
 40
0.7500000000000021
 40
0.7812500000000019
 40
0.7812500000000019
 40
0.8125000000000016
 40
0.8125000000000016
 40
0.8437500000000013
 40
0.8437500000000013
 40
0.875000000000001
 40
0.875000000000001
 40
0.9062500000000008
 40
0.9062500000000008
 40
0.9375000000000006
 40
0.9375000000000006
 40
0.9687500000000002
 40
0.9687500000000002
 40
1.0
 40
1.0
 40
1.03125
 40
1.03125
 10
123.741729275122
 20
135.0484541856785
 30
0.0
 10
124.2708199524422
 20
135.0484541856785
 30
0.0
 10
124.5308906198194
 20
135.0643546260933
 30
0.0
 10
125.0424652996548
 20
135.1262989762676
 30
0.0
 10
125.296640583395
 20
135.1731012103589
 30
0.0
 10
125.7809112134567
 20
135.294078193814
 30
0.0
 10
126.0105523053378
 20
135.3676805216208
 30
0.0
 10
126.4451566535713
 20
135.5395047925989
 30
0.0
 10
126.6507224302179
 20
135.6385082155263
 30
0.0
 10
127.0192795708132
 20
135.8516046294392
 30
0.0
 10
127.1847605535487
 20
135.9665043455688
 30
0.0
 10
127.4771850629838
 20
136.2118712442591
 30
0.0
 10
127.6012860396102
 20
136.3403111447294
 30
0.0
 10
127.80086523636
 20
136.6012032928154
 30
0.0
 10
127.8777988222182
 20
136.7355844641548
 30
0.0
 10
127.9806558807386
 20
137.0049044152611
 30
0.0
 10
128.0061287901977
 20
137.1375856794792
 30
0.0
 10
128.0064192007655
 20
137.3987721536103
 30
0.0
 10
127.9803945669898
 20
137.528537191775
 30
0.0
 10
127.8782462824978
 20
137.7741198260476
 30
0.0
 10
127.8026698349146
 20
137.8907813633565
 30
0.0
 10
127.6021723037697
 20
138.1126865535111
 30
0.0
 10
127.4770434622613
 20
138.2172978074341
 30
0.0
 10
127.1876846612397
 20
138.4073442190422
 30
0.0
 10
127.0222736741842
 20
138.4941038904918
 30
0.0
 10
126.6492831160364
 20
138.6516082662434
 30
0.0
 10
126.4475500829473
 20
138.7199335310306
 30
0.0
 10
126.0146908321194
 20
138.8381632546498
 30
0.0
 10
125.7807722992301
 20
138.8884581707537
 30
0.0
 10
125.2965885640875
 20
138.9683237076433
 30
0.0
 10
125.047272938132
 20
138.9980648354429
 30
0.0
 10
124.5342404137042
 20
139.0382175769511
 30
0.0
 10
124.2689465907996
 20
139.048415846361
 30
0.0
 10
123.7466119709298
 20
139.0484923047457
 30
0.0
 10
123.4868583084481
 20
139.0387012931367
 30
0.0
 10
122.9702464928029
 20
138.9986344543979
 30
0.0
 10
122.7178804523026
 20
138.9685372875411
 30
0.0
 10
122.2363553307698
 20
138.8893150777108
 30
0.0
 10
122.0035045986562
 20
138.8395575982475
 30
0.0
 10
121.5664147502174
 20
138.7204656557971
 30
0.0
 10
121.3650937615602
 20
138.6521503942498
 30
0.0
 10
120.9960077362604
 20
138.4967494273163
 30
0.0
 10
120.8270229852087
 20
138.4085970852494
 30
0.0
 10
120.5365669285494
 20
138.2181576961331
 30
0.0
 10
120.4134951171873
 20
138.115533118434
 30
0.0
 10
120.2121588757653
 20
137.8938927718258
 30
0.0
 10
120.1349463298231
 20
137.7751386962783
 30
0.0
 10
120.032742786923
 20
137.5304727573607
 30
0.0
 10
120.0065144354707
 20
137.4033160319121
 30
0.0
 10
120.0060380361536
 20
137.1388678860566
 30
0.0
 10
120.0317804486515
 20
137.0059672057994
 30
0.0
 10
120.1330912250154
 20
136.7391749323174
 30
0.0
 10
120.2099238644063
 20
136.6038110308488
 30
0.0
 10
120.4103277036215
 20
136.3412312355462
 30
0.0
 10
120.5329992019136
 20
136.2142560757925
 30
0.0
 10
120.8229464910778
 20
135.97017668971
 30
0.0
 10
120.991517470443
 20
135.8527515649562
 30
0.0
 10
121.3597870645562
 20
135.6395551040078
 30
0.0
 10
121.5608489218265
 20
135.5423809855829
 30
0.0
 10
121.9978798404114
 20
135.3690260983687
 30
0.0
 10
122.230028053541
 20
135.294626546712
 30
0.0
 10
122.7110383350399
 20
135.1741736672074
 30
0.0
 10
122.9631384178703
 20
135.1273152919414
 30
0.0
 10
123.4802079041293
 20
135.0643577949576
 30
0.0
 10
123.741729275122
 20
135.0484541856785
 30
0.0
 10
124.2708199524422
 20
135.0484541856785
 30
0.0
  0
LINE
  5
78
330
1F
100
AcDbEntity
  8
0
  6
Continuous
 62
     7
370
    15
100
AcDbLine
 10
120.9562746138
 20
129.8394907909
 30
0.0
 11
130.6143417823
 21
129.8394907909
 31
0.0
  0
LINE
  5
79
330
1F
100
AcDbEntity
  8
0
  6
Continuous
 62
     7
370
    15
100
AcDbLine
 10
130.6143417823
 20
79.8025730947
 30
0.0
 11
128.9562746138
 21
79.8025730947
 31
0.0
  0
SPLINE
  5
7A
330
1F
100
AcDbEntity
  8
0
  6
Continuous
 62
     7
370
    15
100
AcDbSpline
210
0.0
220
0.0
230
1.0
 70
     8
 71
     3
 72
    28
 73
    24
 74
     0
 42
0.00000001
 43
0.00000001
 40
0.0
 40
0.0
 40
0.0
 40
0.0
 40
0.1250000000000001
 40
0.1250000000000001
 40
0.1875000000000001
 40
0.1875000000000001
 40
0.2500000000000001
 40
0.2500000000000001
 40
0.3749999999999999
 40
0.3749999999999999
 40
0.4375
 40
0.4375
 40
0.4999999999999999
 40
0.4999999999999999
 40
0.6249999999999999
 40
0.6249999999999999
 40
0.7499999999999997
 40
0.7499999999999997
 40
0.8124999999999998
 40
0.8124999999999998
 40
0.8749999999999998
 40
0.8749999999999998
 40
1.0
 40
1.0
 40
1.0
 40
1.0
 10
128.9562746137821
 20
79.80257309465219
 30
0.0
 10
128.4245668562892
 20
79.80257309465219
 30
0.0
 10
127.9023282909788
 20
79.78678838070198
 30
0.0
 10
127.1324578047038
 20
79.74179296662578
 30
0.0
 10
126.8780982325125
 20
79.72323797155003
 30
0.0
 10
126.373976651814
 20
79.67938524910353
 30
0.0
 10
126.1242538343861
 20
79.65404064215134
 30
0.0
 10
125.3986638829396
 20
79.57063856440125
 30
0.0
 10
124.9403036213581
 20
79.50477300525016
 30
0.0
 10
124.2898056779642
 20
79.39580266475836
 30
0.0
 10
124.0781236271718
 20
79.35756302899172
 30
0.0
 10
123.6740521380338
 20
79.27980429157236
 30
0.0
 10
123.4815456242129
 20
79.240303329397
 30
0.0
 10
122.9317106531916
 20
79.121395587031
 30
0.0
 10
122.6017818748828
 20
79.0415779056064
 30
0.0
 10
122.0173106063141
 20
78.88823474381033
 30
0.0
 10
121.7710334683007
 20
78.81690099054109
 30
0.0
 10
121.4711906756026
 20
78.72295748346646
 30
0.0
 10
121.3827338185304
 20
78.69376369010652
 30
0.0
 10
121.2293724652253
 20
78.64029711584311
 30
0.0
 10
121.1642842509991
 20
78.61593778156794
 30
0.0
 10
121.0086902350583
 20
78.5523476361232
 30
0.0
 10
120.9562746137821
 20
78.52224470103394
 30
0.0
 10
120.9562746137821
 20
78.50536780803702
 30
0.0
  0
LINE
  5
7B
330
1F
100
AcDbEntity
  8
0
  6
Continuous
 62
     7
370
    15
100
AcDbLine
 10
120.9562746138
 20
78.505367808
 30
0.0
 11
120.9562746138
 21
78.4894907909
 31
0.0
  0
SPLINE
  5
7C
330
1F
100
AcDbEntity
  8
0
  6
Continuous
 62
     7
370
    15
100
AcDbSpline
210
0.0
220
0.0
230
1.0
 70
     8
 71
     3
 72
    22
 73
    18
 74
     0
 42
0.00000001
 43
0.00000001
 40
0.0
 40
0.0
 40
0.0
 40
0.0
 40
0.0515773377536172
 40
0.1565264849943629
 40
0.2100197540385886
 40
0.2615951369298746
 40
0.3664424119934943
 40
0.4198226601719804
 40
0.4724528789006786
 40
0.5794488992297344
 40
0.6339397336480286
 40
0.6872670452602943
 40
0.7409741315029978
 40
0.7958968813361827
 40
0.8512481408256359
 40
0.9034470736265863
 40
1.0
 40
1.0
 40
1.0
 40
1.0
 10
128.9562746137821
 20
140.4566862640636
 30
0.0
 10
128.7394644177796
 20
140.4580828851321
 30
0.0
 10
128.0814905988649
 20
140.4623213393883
 30
0.0
 10
127.206395621534
 20
140.5018536637426
 30
0.0
 10
126.3615701266771
 20
140.5648269105845
 30
0.0
 10
125.5418448430729
 20
140.6428409438397
 30
0.0
 10
124.7660548650444
 20
140.7397240717148
 30
0.0
 10
124.048566403738
 20
140.8479834836308
 30
0.0
 10
123.3693016565659
 20
140.9617018559353
 30
0.0
 10
122.760986678657
 20
141.0782020408761
 30
0.0
 10
122.2408947379338
 20
141.1873022922931
 30
0.0
 10
121.8970045602177
 20
141.2633061900231
 30
0.0
 10
121.6020508324901
 20
141.3313396459448
 30
0.0
 10
121.356276545149
 20
141.3900526967033
 30
0.0
 10
121.1703742361756
 20
141.4356680766371
 30
0.0
 10
120.9987776304518
 20
141.4786275281976
 30
0.0
 10
120.9786483552756
 20
141.4837885499996
 30
0.0
 10
120.9655827006019
 20
141.4871385031419
 30
0.0
  0
LINE
  5
7D
330
1F
100
AcDbEntity
  8
0
  6
Continuous
 62
     7
370
    15
100
AcDbLine
 10
130.6143417823
 20
140.4566862641
 30
0.0
 11
128.9562746138
 21
140.4566862641
 31
0.0
  0
LINE
  5
7E
330
1F
100
AcDbEntity
  8
0
  6
Continuous
 62
     7
370
    15
100
AcDbLine
 10
130.6143417823
 20
134.4481804533
 30
0.0
 11
130.6143417823
 21
140.4566862641
 31
0.0
  0
LINE
  5
7F
330
1F
100
AcDbEntity
  8
0
  6
Continuous
 62
     7
370
    15
100
AcDbLine
 10
128.2018949595
 20
134.4481804533
 30
0.0
 11
130.6143417823
 21
134.4481804533
 31
0.0
  0
SPLINE
  5
80
330
1F
100
AcDbEntity
  8
0
  6
Continuous
 62
     7
370
    15
100
AcDbSpline
210
0.0
220
0.0
230
1.0
 70
     8
 71
     3
 72
    20
 73
    16
 74
     0
 42
0.00000001
 43
0.00000001
 40
0.0
 40
0.0
 40
0.0
 40
0.0
 40
0.2499999999999997
 40
0.2499999999999997
 40
0.3749999999999997
 40
0.3749999999999997
 40
0.4999999999999998
 40
0.4999999999999998
 40
0.6249999999999998
 40
0.6249999999999998
 40
0.7499999999999999
 40
0.7499999999999999
 40
0.8749999999999999
 40
0.8749999999999999
 40
1.0
 40
1.0
 40
1.0
 40
1.0
 10
120.9562746137821
 20
129.8394907908994
 30
0.0
 10
121.2046483480702
 20
130.4933532191968
 30
0.0
 10
121.5242184404154
 20
131.0971390011939
 30
0.0
 10
122.1465246736201
 20
131.9239777373625
 30
0.0
 10
122.3779489340509
 20
132.1864063753154
 30
0.0
 10
122.8991632737006
 20
132.6830690294204
 30
0.0
 10
123.1857837563357
 20
132.9136559084419
 30
0.0
 10
123.8052684976433
 20
133.3302101330246
 30
0.0
 10
124.1395688771302
 20
133.5177079349921
 30
0.0
 10
124.864829349755
 20
133.8491049126285
 30
0.0
 10
125.2467444071455
 20
133.9886089001238
 30
0.0
 10
126.0415325833172
 20
134.2140624075947
 30
0.0
 10
126.4556907775236
 20
134.3006885191383
 30
0.0
 10
127.3212371181049
 20
134.4186693079924
 30
0.0
 10
127.7591247331167
 20
134.4481804532668
 30
0.0
 10
128.2018949594714
 20
134.4481804532668
 30
0.0
  0
SPLINE
  5
81
330
1F
100
AcDbEntity
  8
0
  6
Continuous
 62
     7
370
    15
100
AcDbSpline
210
0.0
220
0.0
230
1.0
 70
     8
 71
     3
 72
    70
 73
    66
 74
     0
 42
0.00000001
 43
0.00000001
 40
-0.0312500000000001
 40
-0.0312500000000001
 40
0.0
 40
0.0
 40
0.0312499999999999
 40
0.0312499999999999
 40
0.0624999999999999
 40
0.0624999999999999
 40
0.0937499999999998
 40
0.0937499999999998
 40
0.1249999999999998
 40
0.1249999999999998
 40
0.1562499999999997
 40
0.1562499999999997
 40
0.1874999999999997
 40
0.1874999999999997
 40
0.2187499999999996
 40
0.2187499999999996
 40
0.2499999999999996
 40
0.2499999999999996
 40
0.2812499999999995
 40
0.2812499999999995
 40
0.3124999999999994
 40
0.3124999999999994
 40
0.3437499999999994
 40
0.3437499999999994
 40
0.3749999999999993
 40
0.3749999999999993
 40
0.4062499999999993
 40
0.4062499999999993
 40
0.4374999999999992
 40
0.4374999999999992
 40
0.4687499999999992
 40
0.4687499999999992
 40
0.4999999999999991
 40
0.4999999999999991
 40
0.5312499999999991
 40
0.5312499999999991
 40
0.5624999999999992
 40
0.5624999999999992
 40
0.5937499999999992
 40
0.5937499999999992
 40
0.6249999999999993
 40
0.6249999999999993
 40
0.6562499999999993
 40
0.6562499999999993
 40
0.6874999999999994
 40
0.6874999999999994
 40
0.7187499999999994
 40
0.7187499999999994
 40
0.7499999999999996
 40
0.7499999999999996
 40
0.7812499999999996
 40
0.7812499999999996
 40
0.8124999999999997
 40
0.8124999999999997
 40
0.8437499999999997
 40
0.8437499999999997
 40
0.8749999999999998
 40
0.8749999999999998
 40
0.9062499999999998
 40
0.9062499999999998
 40
0.9374999999999999
 40
0.9374999999999999
 40
0.9687499999999999
 40
0.9687499999999999
 40
1.0
 40
1.0
 40
1.03125
 40
1.03125
 10
123.7417292751219
 20
120.6103976768827
 30
0.0
 10
124.2708199524422
 20
120.6103976768827
 30
0.0
 10
124.5308906198193
 20
120.6350749716679
 30
0.0
 10
125.0424652996548
 20
120.7315466447098
 30
0.0
 10
125.296640583395
 20
120.8045275606898
 30
0.0
 10
125.7809112134567
 20
120.9942681636285
 30
0.0
 10
126.0105523053378
 20
121.1101288220222
 30
0.0
 10
126.4451566535713
 20
121.3827466679799
 30
0.0
 10
126.6507224302179
 20
121.5407857500337
 30
0.0
 10
127.0192795708132
 20
121.8843286010043
 30
0.0
 10
127.1847605535487
 20
122.071091045106
 30
0.0
 10
127.4771850629838
 20
122.4746342195028
 30
0.0
 10
127.6012860396102
 20
122.688131215932
 30
0.0
 10
127.80086523636
 20
123.1275145298545
 30
0.0
 10
127.8777988222182
 20
123.3566545170001
 30
0.0
 10
127.9806558807386
 20
123.8226286397601
 30
0.0
 10
128.0061287901977
 20
124.0555110854363
 30
0.0
 10
128.0064192007655
 20
124.5209086205161
 30
0.0
 10
127.9803945669898
 20
124.7557843779104
 30
0.0
 10
127.8782462824978
 20
125.2072775251567
 30
0.0
 10
127.8026698349146
 20
125.4253240005681
 30
0.0
 10
127.6021723037697
 20
125.8464185256059
 30
0.0
 10
127.4770434622613
 20
126.0483399101242
 30
0.0
 10
127.1876846612397
 20
126.4203693926431
 30
0.0
 10
127.0222736741842
 20
126.5929976962234
 30
0.0
 10
126.6492831160364
 20
126.9103157007695
 30
0.0
 10
126.4475500829473
 20
127.0501026342711
 30
0.0
 10
126.0146908321194
 20
127.2942788878229
 30
0.0
 10
125.7807722992301
 20
127.3995083988644
 30
0.0
 10
125.2965885640875
 20
127.5676655452395
 30
0.0
 10
125.047272938132
 20
127.6309164358334
 30
0.0
 10
124.5342404137042
 20
127.716495644936
 30
0.0
 10
124.2689465907996
 20
127.7383678098584
 30
0.0
 10
123.7466119709298
 20
127.7385314595023
 30
0.0
 10
123.4868583084481
 20
127.7175297674064
 30
0.0
 10
122.9702464928029
 20
127.6321274123287
 30
0.0
 10
122.7178804523026
 20
127.5681212290418
 30
0.0
 10
122.2363553307698
 20
127.4013067090006
 30
0.0
 10
122.0035045986562
 20
127.2971735456014
 30
0.0
 10
121.5664147502174
 20
127.0511868931064
 30
0.0
 10
121.3650937615602
 20
126.9114370621576
 30
0.0
 10
120.9960077362604
 20
126.598298992433
 30
0.0
 10
120.8270229852086
 20
126.4228428331629
 30
0.0
 10
120.5365669285494
 20
126.0500025690627
 30
0.0
 10
120.4134951171873
 20
125.8518807589518
 30
0.0
 10
120.2121588757653
 20
125.4311694162181
 30
0.0
 10
120.1349463298231
 20
125.2091793955505
 30
0.0
 10
120.032742786923
 20
124.7593144558422
 30
0.0
 10
120.0065144354707
 20
124.5290590427254
 30
0.0
 10
120.0060380361536
 20
124.0577431001763
 30
0.0
 10
120.0317804486515
 20
123.8245056844622
 30
0.0
 10
120.1330912250154
 20
123.3628291449641
 30
0.0
 10
120.2099238644063
 20
123.131931757852
 30
0.0
 10
120.4103277036215
 20
122.6896557440603
 30
0.0
 10
120.5329992019136
 20
122.4785933127744
 30
0.0
 10
120.8229464910778
 20
122.0770948020418
 30
0.0
 10
120.991517470443
 20
121.8861882799658
 30
0.0
 10
121.3597870645562
 20
121.5424629479687
 30
0.0
 10
121.5608489218265
 20
121.3873257617547
 30
0.0
 10
121.9978798404114
 20
121.1122484016749
 30
0.0
 10
122.230028053541
 20
120.9951321722529
 30
0.0
 10
122.7110383350399
 20
120.8062056871884
 30
0.0
 10
122.9631384178703
 20
120.7331307167941
 30
0.0
 10
123.4802079041293
 20
120.6350786576596
 30
0.0
 10
123.7417292751219
 20
120.6103976768827
 30
0.0
 10
124.2708199524422
 20
120.6103976768827
 30
0.0
  0
LINE
  5
82
330
1F
100
AcDbEntity
  8
0
  6
Continuous
 62
     7
370
    15
100
AcDbLine
 10
141.9562746138
 20
80.4292133903
 30
0.0
 11
141.9562746138
 21
129.8394907909
 31
0.0
  0
SPLINE
  5
83
330
1F
100
AcDbEntity
  8
0
  6
Continuous
 62
     7
370
    15
100
AcDbSpline
210
0.0
220
0.0
230
1.0
 70
     8
 71
     3
 72
    10
 73
     6
 74
     0
 42
0.00000001
 43
0.00000001
 40
0.0
 40
0.0
 40
0.0
 40
0.0
 40
0.5
 40
0.5
 40
1.0
 40
1.0
 40
1.0
 40
1.0
 10
141.9562746137821
 20
80.42921339030651
 30
0.0
 10
141.9562746137821
 20
80.26932612211284
 30
0.0
 10
141.8949649625463
 20
80.10819886659824
 30
0.0
 10
141.6758653250112
 20
79.8740998682434
 30
0.0
 10
141.5178171186977
 20
79.80257309465219
 30
0.0
 10
141.3562746137821
 20
79.80257309465219
 30
0.0
  0
SPLINE
  5
84
330
1F
100
AcDbEntity
  8
0
  6
Continuous
 62
     7
370
    15
100
AcDbSpline
210
0.0
220
0.0
230
1.0
 70
    24
 71
     3
 72
    12
 73
     8
 74
     0
 42
0.00000001
 43
0.00000001
 40
0.0
 40
0.0
 40
0.0
 40
0.0
 40
0.2500000000000033
 40
0.2500000000000033
 40
0.5000000000000067
 40
0.5000000000000067
 40
1.0
 40
1.0
 40
1.0
 40
1.0
 10
141.3562746137821
 20
129.8394907908994
 30
0.0
 10
141.4465136814691
 20
129.8394907908994
 30
0.0
 10
141.5374117955756
 20
129.8394907908994
 30
0.0
 10
141.6920088320642
 20
129.8394907908994
 30
0.0
 10
141.7569872481723
 20
129.8394907908994
 30
0.0
 10
141.9088222761085
 20
129.8394907908994
 30
0.0
 10
141.9562746137821
 20
129.8394907908994
 30
0.0
 10
141.9562746137821
 20
129.8394907908994
 30
0.0
  0
LINE
  5
85
330
1F
100
AcDbEntity
  8
0
  6
Continuous
 62
     7
370
    15
100
AcDbLine
 10
116.0062746138
 20
78.7894907909
 30
0.0
 11
116.0062746138
 21
141.1894907909
 31
0.0
  0
ARC
  5
86
330
1F
100
AcDbEntity
  8
0
  6
Continuous
 62
     7
370
    15
100
AcDbCircle
 10
124.0069534895
 20
121.899087568
 30
0.0
 40
4.108195122389067
100
AcDbArc
 50
19.2970083696
 51
161.0019013516
  0
SPLINE
  5
87
330
1F
100
AcDbEntity
  8
0
  6
Continuous
 62
     7
370
    15
100
AcDbSpline
210
0.0
220
0.0
230
1.0
 70
     8
 71
     3
 72
    10
 73
     6
 74
     0
 42
0.00000001
 43
0.00000001
 40
0.0
 40
0.0
 40
0.0
 40
0.0
 40
0.5
 40
0.5
 40
1.0
 40
1.0
 40
1.0
 40
1.0
 10
132.490572145473
 20
136.3894907908993
 30
0.0
 10
132.3690318818045
 20
136.4642169581111
 30
0.0
 10
132.2676975214556
 20
136.5731619740279
 30
0.0
 10
132.1320585785672
 20
136.8235924547895
 30
0.0
 10
132.0962746137821
 20
136.9660118168885
 30
0.0
 10
132.0962746137821
 20
137.1091446419351
 30
0.0
  0
SPLINE
  5
88
330
1F
100
AcDbEntity
  8
0
  6
Continuous
 62
     7
370
    15
100
AcDbSpline
210
0.0
220
0.0
230
1.0
 70
    24
 71
     3
 72
    12
 73
     8
 74
     0
 42
0.00000001
 43
0.00000001
 40
0.0
 40
0.0
 40
0.0
 40
0.0
 40
0.2500000000000037
 40
0.2500000000000037
 40
0.5000000000000074
 40
0.5000000000000074
 40
1.0
 40
1.0
 40
1.0
 40
1.0
 10
132.8962746137821
 20
136.3894907908993
 30
0.0
 10
132.8463979314646
 20
136.3894907908993
 30
0.0
 10
132.798394738061
 20
136.3894907908993
 30
0.0
 10
132.7153466353491
 20
136.3894907908993
 30
0.0
 10
132.6792170558812
 20
136.3894907908993
 30
0.0
 10
132.583305024937
 20
136.3894907908993
 30
0.0
 10
132.5335463569682
 20
136.3894907908993
 30
0.0
 10
132.490572145473
 20
136.3894907908993
 30
0.0
  0
SPLINE
  5
89
330
1F
100
AcDbEntity
  8
0
  6
Continuous
 62
     7
370
    15
100
AcDbSpline
210
0.0
220
0.0
230
1.0
 70
    24
 71
     3
 72
    14
 73
    10
 74
     0
 42
0.00000001
 43
0.00000001
 40
0.0
 40
0.0
 40
0.0
 40
0.0
 40
0.1249999999999991
 40
0.1249999999999991
 40
0.2499999999999982
 40
0.2499999999999982
 40
0.4999999999999998
 40
0.4999999999999998
 40
1.0
 40
1.0
 40
1.0
 40
1.0
 10
132.8962746137821
 20
83.58949079089936
 30
0.0
 10
132.8278367658956
 20
83.58949079089936
 30
0.0
 10
132.7622867271306
 20
83.58949079089936
 30
0.0
 10
132.6578600877226
 20
83.58949079089936
 30
0.0
 10
132.6153154779612
 20
83.58949079089936
 30
0.0
 10
132.502706017421
 20
83.58949079089935
 30
0.0
 10
132.4471669704015
 20
83.58949079089936
 30
0.0
 10
132.3045552749377
 20
83.58949079089935
 30
0.0
 10
132.2411499199419
 20
83.58949079089935
 30
0.0
 10
132.1939494161144
 20
83.58949079089936
 30
0.0
  0
SPLINE
  5
8A
330
1F
100
AcDbEntity
  8
0
  6
Continuous
 62
     7
370
    15
100
AcDbSpline
210
0.0
220
0.0
230
1.0
 70
     8
 71
     3
 72
    10
 73
     6
 74
     0
 42
0.00000001
 43
0.00000001
 40
0.0
 40
0.0
 40
0.0
 40
0.0
 40
0.5
 40
0.5
 40
1.0
 40
1.0
 40
1.0
 40
1.0
 10
132.0962746137821
 20
130.1253574223607
 30
0.0
 10
132.0962746137821
 20
130.0775859143674
 30
0.0
 10
132.0984358573792
 20
130.0298761923058
 30
0.0
 10
132.1071072312394
 20
129.9345810747575
 30
0.0
 10
132.1136364141954
 20
129.8868885107908
 30
0.0
 10
132.1224222369422
 20
129.8394907908994
 30
0.0
  0
SPLINE
  5
8B
330
1F
100
AcDbEntity
  8
0
  6
Continuous
 62
     7
370
    15
100
AcDbSpline
210
0.0
220
0.0
230
1.0
 70
    24
 71
     3
 72
    14
 73
    10
 74
     0
 42
0.00000001
 43
0.00000001
 40
0.0
 40
0.0
 40
0.0
 40
0.0
 40
0.5000000000000013
 40
0.5000000000000013
 40
0.750000000000002
 40
0.750000000000002
 40
0.875000000000001
 40
0.875000000000001
 40
1.0
 40
1.0
 40
1.0
 40
1.0
 10
135.8185998114498
 20
83.58949079089936
 30
0.0
 10
135.7718151064016
 20
83.58949079089935
 30
0.0
 10
135.709763909622
 20
83.58949079089936
 30
0.0
 10
135.5663722710714
 20
83.58949079089936
 30
0.0
 10
135.5102286175202
 20
83.58949079089935
 30
0.0
 10
135.397277595384
 20
83.58949079089935
 30
0.0
 10
135.3542768333459
 20
83.58949079089936
 30
0.0
 10
135.2502141230394
 20
83.58949079089935
 30
0.0
 10
135.1848818846825
 20
83.58949079089936
 30
0.0
 10
135.1162746137821
 20
83.58949079089936
 30
0.0
  0
SPLINE
  5
8C
330
1F
100
AcDbEntity
  8
0
  6
Continuous
 62
     7
370
    15
100
AcDbSpline
210
0.0
220
0.0
230
1.0
 70
    24
 71
     3
 72
    12
 73
     8
 74
     0
 42
0.00000001
 43
0.00000001
 40
0.0
 40
0.0
 40
0.0
 40
0.0
 40
0.5000000000000017
 40
0.5000000000000017
 40
0.7500000000000008
 40
0.7500000000000008
 40
1.0
 40
1.0
 40
1.0
 40
1.0
 10
135.5219770820911
 20
136.3894907908993
 30
0.0
 10
135.4788915324802
 20
136.3894907908993
 30
0.0
 10
135.4297393307309
 20
136.3894907908993
 30
0.0
 10
135.3332667364429
 20
136.3894907908993
 30
0.0
 10
135.2971651513083
 20
136.3894907908993
 30
0.0
 10
135.2140593934471
 20
136.3894907908993
 30
0.0
 10
135.1660627964808
 20
136.3894907908993
 30
0.0
 10
135.1162746137821
 20
136.3894907908993
 30
0.0
  0
SPLINE
  5
8D
330
1F
100
AcDbEntity
  8
0
  6
Continuous
 62
     7
370
    15
100
AcDbSpline
210
0.0
220
0.0
230
1.0
 70
     8
 71
     3
 72
    10
 73
     6
 74
     0
 42
0.00000001
 43
0.00000001
 40
0.0
 40
0.0
 40
0.0
 40
0.0
 40
0.5
 40
0.5
 40
1.0
 40
1.0
 40
1.0
 40
1.0
 10
135.9162746137821
 20
137.1091446419351
 30
0.0
 10
135.9162746137821
 20
136.9653745841171
 30
0.0
 10
135.8802255550632
 20
136.822955221622
 30
0.0
 10
135.7447166942892
 20
136.5730609282647
 30
0.0
 10
135.644840701193
 20
136.4650305920165
 30
0.0
 10
135.5219770820911
 20
136.3894907908993
 30
0.0
  0
SPLINE
  5
8E
330
1F
100
AcDbEntity
  8
0
  6
Continuous
 62
     7
370
    15
100
AcDbSpline
210
0.0
220
0.0
230
1.0
 70
     8
 71
     3
 72
    10
 73
     6
 74
     0
 42
0.00000001
 43
0.00000001
 40
0.0
 40
0.0
 40
0.0
 40
0.0
 40
0.5
 40
0.5
 40
1.0
 40
1.0
 40
1.0
 40
1.0
 10
135.890126990622
 20
129.8394907908994
 30
0.0
 10
135.8988166335336
 20
129.8863696402175
 30
0.0
 10
135.9053556982841
 20
129.9337921056187
 30
0.0
 10
135.9141143326772
 20
130.0297289042055
 30
0.0
 10
135.9162746137821
 20
130.077644192216
 30
0.0
 10
135.9162746137821
 20
130.1253574223605
 30
0.0
  0
LINE
  5
8F
330
1F
100
AcDbEntity
  8
0
  6
Continuous
 62
     7
370
    15
100
AcDbLine
 10
135.1162746138
 20
136.3894907909
 30
0.0
 11
132.8962746138
 21
136.3894907909
 31
0.0
  0
LINE
  5
90
330
1F
100
AcDbEntity
  8
0
  6
Continuous
 62
     7
370
    15
100
AcDbLine
 10
135.1162746138
 20
83.5894907909
 30
0.0
 11
132.8962746138
 21
83.5894907909
 31
0.0
  0
LINE
  5
91
330
1F
100
AcDbEntity
  8
0
  6
Continuous
 62
     7
370
    15
100
AcDbLine
 10
94.2062746138
 20
86.7610438971
 30
0.0
 11
94.2062746138
 21
88.0257532597
 31
0.0
  0
SPLINE
  5
92
330
1F
100
AcDbEntity
  8
0
  6
Continuous
 62
     7
370
    15
100
AcDbSpline
210
0.0
220
0.0
230
1.0
 70
     8
 71
     3
 72
    14
 73
    10
 74
     0
 42
0.00000001
 43
0.00000001
 40
0.0
 40
0.0
 40
0.0
 40
0.0
 40
0.25
 40
0.25
 40
0.5
 40
0.5
 40
0.75
 40
0.75
 40
1.0
 40
1.0
 40
1.0
 40
1.0
 10
93.42798749586638
 20
89.15633946733941
 30
0.0
 10
93.48461417106846
 20
89.04864201350254
 30
0.0
 10
93.5791368313582
 20
88.94585243178322
 30
0.0
 10
93.76218180692044
 20
88.74749511956308
 30
0.0
 10
93.85380838387513
 20
88.65143561088483
 30
0.0
 10
94.01266170156835
 20
88.46390656817559
 30
0.0
 10
94.08055230919004
 20
88.37249759539203
 30
0.0
 10
94.17746933489762
 20
88.19412137448188
 30
0.0
 10
94.20627461378267
 20
88.1068994682357
 30
0.0
 10
94.20627461378267
 20
88.02575325970145
 30
0.0
  0
SPLINE
  5
93
330
1F
100
AcDbEntity
  8
0
  6
Continuous
 62
     7
370
    15
100
AcDbSpline
210
0.0
220
0.0
230
1.0
 70
     8
 71
     3
 72
    14
 73
    10
 74
     0
 42
0.00000001
 43
0.00000001
 40
0.0
 40
0.0
 40
0.0
 40
0.0
 40
0.1250000000000025
 40
0.1250000000000025
 40
0.250000000000005
 40
0.250000000000005
 40
0.5000000000000046
 40
0.5000000000000046
 40
1.0
 40
1.0
 40
1.0
 40
1.0
 10
92.80627461378211
 20
89.60302132961873
 30
0.0
 10
92.85481902243926
 20
89.60876964289902
 30
0.0
 10
92.90773437722416
 20
89.60566875424279
 30
0.0
 10
93.0030297222072
 20
89.58347391008046
 30
0.0
 10
93.04328071949216
 20
89.5662416829846
 30
0.0
 10
93.14755073300512
 20
89.50991376653255
 30
0.0
 10
93.19787270815846
 20
89.46572742058673
 30
0.0
 10
93.32555565568384
 20
89.3347195217361
 30
0.0
 10
93.3816411027461
 20
89.24448500150582
 30
0.0
 10
93.42798749586784
 20
89.15633946733993
 30
0.0
  0
SPLINE
  5
94
330
1F
100
AcDbEntity
  8
0
  6
Continuous
 62
     7
370
    15
100
AcDbSpline
210
0.0
220
0.0
230
1.0
 70
     8
 71
     3
 72
     8
 73
     4
 74
     0
 42
0.00000001
 43
0.00000001
 40
0.0
 40
0.0
 40
0.0
 40
0.0
 40
1.0
 40
1.0
 40
1.0
 40
1.0
 10
90.53774952083586
 20
89.29317604303593
 30
0.0
 10
91.27232654731883
 20
89.41180105410488
 30
0.0
 10
92.03580161671447
 20
89.51178692624117
 30
0.0
 10
92.80627461378211
 20
89.60302132961873
 30
0.0
  0
SPLINE
  5
95
330
1F
100
AcDbEntity
  8
0
  6
Continuous
 62
     7
370
    15
100
AcDbSpline
210
0.0
220
0.0
230
1.0
 70
     8
 71
     3
 72
    14
 73
    10
 74
     0
 42
0.00000001
 43
0.00000001
 40
0.0
 40
0.0
 40
0.0
 40
0.0
 40
0.4999999999999989
 40
0.4999999999999989
 40
0.7499999999999983
 40
0.7499999999999983
 40
0.8749999999999991
 40
0.8749999999999991
 40
1.0
 40
1.0
 40
1.0
 40
1.0
 10
85.2562746137821
 20
89.11955302550429
 30
0.0
 10
86.14842074433568
 20
89.11883079930364
 30
0.0
 10
87.03839718012925
 20
89.1234170057611
 30
0.0
 10
88.36499234720486
 20
89.15114201015264
 30
0.0
 10
88.80583927570359
 20
89.16374854777679
 30
0.0
 10
89.46227951312602
 20
89.19476469578424
 30
0.0
 10
89.6802931697179
 20
89.20710786841103
 30
0.0
 10
90.11300202340065
 20
89.24013192357428
 30
0.0
 10
90.32827848856545
 20
89.25934908871274
 30
0.0
 10
90.53774952083585
 20
89.29317604303594
 30
0.0
  0
SPLINE
  5
96
330
1F
100
AcDbEntity
  8
0
  6
Continuous
 62
     7
370
    15
100
AcDbSpline
210
0.0
220
0.0
230
1.0
 70
     8
 71
     3
 72
     8
 73
     4
 74
     0
 42
0.00000001
 43
0.00000001
 40
0.0000005163856998
 40
0.0000005163856998
 40
0.0000005163856998
 40
0.0000005163856998
 40
0.000026289209185
 40
0.000026289209185
 40
0.000026289209185
 40
0.000026289209185
 10
85.2462296833745
 20
89.12953689860106
 30
0.0
 10
85.24955742158232
 20
89.12620265173194
 30
0.0
 10
85.25290587455791
 20
89.12287469445664
 30
0.0
 10
85.25627461378207
 20
89.11955302550427
 30
0.0
  0
SPLINE
  5
97
330
1F
100
AcDbEntity
  8
0
  6
Continuous
 62
     7
370
    15
100
AcDbSpline
210
0.0
220
0.0
230
1.0
 70
     8
 71
     3
 72
     8
 73
     4
 74
     0
 42
0.00000001
 43
0.00000001
 40
0.0000005099763573
 40
0.0000005099763573
 40
0.0000005099763573
 40
0.0000005099763573
 40
0.0000262827998699
 40
0.0000262827998699
 40
0.0000262827998699
 40
0.0000262827998699
 10
85.25627461378207
 20
130.8594285562944
 30
0.0
 10
85.25290587455433
 20
130.8561068873385
 30
0.0
 10
85.24955742157519
 20
130.8527789300597
 30
0.0
 10
85.24622968336386
 20
130.849444683187
 30
0.0
  0
SPLINE
  5
98
330
1F
100
AcDbEntity
  8
0
  6
Continuous
 62
     7
370
    15
100
AcDbSpline
210
0.0
220
0.0
230
1.0
 70
     8
 71
     3
 72
    10
 73
     6
 74
     0
 42
0.00000001
 43
0.00000001
 40
0.0
 40
0.0
 40
0.0
 40
0.0
 40
0.5
 40
0.5
 40
1.0
 40
1.0
 40
1.0
 40
1.0
 10
88.8062746137821
 20
130.8125781827271
 30
0.0
 10
88.2186890666915
 20
130.8336437029635
 30
0.0
 10
87.62794267323112
 20
130.8444021888357
 30
0.0
 10
86.44392350793225
 20
130.8577669693714
 30
0.0
 10
85.85050951972681
 20
130.859909612036
 30
0.0
 10
85.2562746137821
 20
130.8594285562944
 30
0.0
  0
SPLINE
  5
99
330
1F
100
AcDbEntity
  8
0
  6
Continuous
 62
     7
370
    15
100
AcDbSpline
210
0.0
220
0.0
230
1.0
 70
     8
 71
     3
 72
    18
 73
    14
 74
     0
 42
0.00000001
 43
0.00000001
 40
0.0
 40
0.0
 40
0.0
 40
0.0
 40
0.2499999999999991
 40
0.2499999999999991
 40
0.499999999999999
 40
0.499999999999999
 40
0.7499999999999989
 40
0.7499999999999989
 40
0.8749999999999999
 40
0.8749999999999999
 40
0.9374999999999999
 40
0.9374999999999999
 40
1.0
 40
1.0
 40
1.0
 40
1.0
 10
90.20627461378211
 20
131.8335984632623
 30
0.0
 10
90.20627461378211
 20
131.7503915544052
 30
0.0
 10
90.17042551384384
 20
131.6616548990916
 30
0.0
 10
90.04555377780993
 20
131.4795297085313
 30
0.0
 10
89.95515336016206
 20
131.3843996599047
 30
0.0
 10
89.73291070541988
 20
131.1952181507804
 30
0.0
 10
89.60314591897412
 20
131.1002729826857
 30
0.0
 10
89.36250846166259
 20
130.9619942751058
 30
0.0
 10
89.27474116352515
 20
130.9162838418034
 30
0.0
 10
89.12021707631833
 20
130.8584605365819
 30
0.0
 10
89.06360619026357
 20
130.840745772544
 30
0.0
 10
88.93956215935698
 20
130.8162064693111
 30
0.0
 10
88.87184748433869
 20
130.8102273307728
 30
0.0
 10
88.8062746137821
 20
130.8125781827271
 30
0.0
  0
LINE
  5
9A
330
1F
100
AcDbEntity
  8
0
  6
Continuous
 62
     7
370
    15
100
AcDbLine
 10
90.2062746138
 20
131.8335984633
 30
0.0
 11
90.2062746138
 21
133.0175368831
 31
0.0
  0
LINE
  5
9B
330
1F
100
AcDbEntity
  8
0
  6
Continuous
 62
     7
370
    15
100
AcDbLine
 10
114.0062746138
 20
85.7690599292
 30
0.0
 11
114.0062746138
 21
134.2099216526
 31
0.0
  0
SPLINE
  5
9C
330
1F
100
AcDbEntity
  8
0
  6
Continuous
 62
     7
370
    15
100
AcDbSpline
210
0.0
220
0.0
230
1.0
 70
     8
 71
     3
 72
    24
 73
    20
 74
     0
 42
0.00000001
 43
0.00000001
 40
0.0
 40
0.0
 40
0.0
 40
0.0
 40
0.0010489762969683
 40
0.0637843125636769
 40
0.1272220590447979
 40
0.190378892448547
 40
0.2526748653693617
 40
0.3146354154430339
 40
0.3770891997149997
 40
0.4393540298511558
 40
0.5008133242537859
 40
0.56218451045969
 40
0.6248438451115955
 40
0.6874304766618995
 40
0.749674317467912
 40
0.8119848426969831
 40
0.8750960525413152
 40
0.9384412526965837
 40
1.0
 40
1.0
 40
1.0
 40
1.0
 10
102.7751804457578
 20
86.33198236231922
 30
0.0
 10
102.7747339856536
 20
86.33192407650031
 30
0.0
 10
102.7475864219596
 20
86.32837993455762
 30
0.0
 10
102.843198199572
 20
86.34121367924067
 30
0.0
 10
103.0767584574671
 20
86.37046036444059
 30
0.0
 10
103.4723127647852
 20
86.41707468750349
 30
0.0
 10
103.999353068624
 20
86.46725782916288
 30
0.0
 10
104.6428834806122
 20
86.51163429161328
 30
0.0
 10
105.3815573358568
 20
86.5385790725508
 30
0.0
 10
106.1790718412887
 20
86.54205092325698
 30
0.0
 10
107.0056507237351
 20
86.51442367922685
 30
0.0
 10
107.8311737413435
 20
86.45594479025421
 30
0.0
 10
108.6233002893448
 20
86.37049976089328
 30
0.0
 10
109.3558725633421
 20
86.26876552105672
 30
0.0
 10
109.9915128000722
 20
86.16092239908501
 30
0.0
 10
110.5134239070836
 20
86.0592922423459
 30
0.0
 10
110.8950526841969
 20
85.97680708566746
 30
0.0
 10
111.1458671544328
 20
85.92065787931763
 30
0.0
 10
111.1749887104168
 20
85.9138084207039
 30
0.0
 10
111.1893412312328
 20
85.91043267397573
 30
0.0
  0
SPLINE
  5
9D
330
1F
100
AcDbEntity
  8
0
  6
Continuous
 62
     7
370
    15
100
AcDbSpline
210
0.0
220
0.0
230
1.0
 70
     8
 71
     3
 72
    24
 73
    20
 74
     0
 42
0.00000001
 43
0.00000001
 40
0.0
 40
0.0
 40
0.0
 40
0.0
 40
0.0614384276252095
 40
0.1250736755369691
 40
0.1884253490731512
 40
0.2508623904037511
 40
0.3129665632512957
 40
0.3753451453465188
 40
0.4377328972324856
 40
0.4990927322917281
 40
0.5605807588449117
 40
0.622946989302896
 40
0.6854686282028133
 40
0.7475477813740252
 40
0.8098225060806654
 40
0.8730684085990508
 40
0.9364041844531371
 40
0.9991757196257861
 40
1.0
 40
1.0
 40
1.0
 40
1.0
 10
111.1892864604298
 20
134.0685197653567
 30
0.0
 10
111.1746857361262
 20
134.0651517085041
 30
0.0
 10
111.1449622173978
 20
134.0582951650303
 30
0.0
 10
110.8922244017491
 20
134.0019565445043
 30
0.0
 10
110.5092284853001
 20
133.9190994623743
 30
0.0
 10
109.9868729008619
 20
133.817192432423
 30
0.0
 10
109.3520884228621
 20
133.7093532933793
 30
0.0
 10
108.6218648186899
 20
133.6078863414041
 30
0.0
 10
107.8313962334565
 20
133.5228266277135
 30
0.0
 10
107.0069127186277
 20
133.4646223338272
 30
0.0
 10
106.179876259744
 20
133.4370388950003
 30
0.0
 10
105.3815519920917
 20
133.4405318724934
 30
0.0
 10
104.6417280278034
 20
133.4674877923466
 30
0.0
 10
103.9974737948277
 20
133.5118417343458
 30
0.0
 10
103.4700665396124
 20
133.5620471841036
 30
0.0
 10
103.0754019374626
 20
133.6086570393018
 30
0.0
 10
102.8428726582784
 20
133.6378526318494
 30
0.0
 10
102.747492625725
 20
133.6506307007906
 30
0.0
 10
102.7744262626267
 20
133.6470764422828
 30
0.0
 10
102.7747753558511
 20
133.6470303746994
 30
0.0
  0
SPLINE
  5
9E
330
1F
100
AcDbEntity
  8
0
  6
Continuous
 62
     7
370
    15
100
AcDbSpline
210
0.0
220
0.0
230
1.0
 70
     8
 71
     3
 72
    10
 73
     6
 74
     0
 42
0.00000001
 43
0.00000001
 40
0.0
 40
0.0
 40
0.0
 40
0.0
 40
0.0840381716606348
 40
0.7011125076933074
 40
1.0
 40
1.0
 40
1.0
 40
1.0
 10
84.11982157631778
 20
90.26071688321602
 30
0.0
 10
84.1204961336527
 20
90.25851125638013
 30
0.0
 10
84.12612382134887
 20
90.2401101830179
 30
0.0
 10
84.15244530147572
 20
90.25434474574108
 30
0.0
 10
84.16488031832044
 20
90.30003052129207
 30
0.0
 10
84.1689379885055
 20
90.31493824611864
 30
0.0
  0
LINE
  5
9F
330
1F
100
AcDbEntity
  8
0
  6
Continuous
 62
     7
370
    15
100
AcDbLine
 10
84.1062746138
 20
90.2988130444
 30
0.0
 11
84.1062746138
 21
129.6801685374
 31
0.0
  0
SPLINE
  5
A0
330
1F
100
AcDbEntity
  8
0
  6
Continuous
 62
     7
370
    15
100
AcDbSpline
210
0.0
220
0.0
230
1.0
 70
     8
 71
     3
 72
    10
 73
     6
 74
     0
 42
0.00000001
 43
0.00000001
 40
0.0
 40
0.0
 40
0.0
 40
0.0
 40
0.5
 40
0.5
 40
1.0
 40
1.0
 40
1.0
 40
1.0
 10
84.1689379885055
 20
129.6640433356801
 30
0.0
 10
84.16003369939676
 20
129.7097848548933
 30
0.0
 10
84.14351831920378
 20
129.7269756943623
 30
0.0
 10
84.11641037314216
 20
129.7266524174265
 30
0.0
 10
84.1062746137821
 20
129.7087748751301
 30
0.0
 10
84.1062746137821
 20
129.6801685373775
 30
0.0
  0
SPLINE
  5
A1
330
1F
100
AcDbEntity
  8
0
  6
Continuous
 62
     7
370
    15
100
AcDbSpline
210
0.0
220
0.0
230
1.0
 70
     8
 71
     3
 72
    26
 73
    22
 74
     0
 42
0.00000001
 43
0.00000001
 40
0.0
 40
0.0
 40
0.0
 40
0.0
 40
0.2500000000000165
 40
0.2500000000000165
 40
0.3750000000000256
 40
0.3750000000000256
 40
0.4375000000000291
 40
0.4375000000000291
 40
0.4687500000000291
 40
0.4687500000000291
 40
0.5000000000000292
 40
0.5000000000000292
 40
0.5312500000000293
 40
0.5312500000000293
 40
0.5625000000000293
 40
0.5625000000000293
 40
0.625000000000026
 40
0.625000000000026
 40
0.7500000000000173
 40
0.7500000000000173
 40
1.0
 40
1.0
 40
1.0
 40
1.0
 10
84.93042825988661
 20
130.3796101244972
 30
0.0
 10
84.89182773701815
 20
130.2618354281418
 30
0.0
 10
84.84553073446388
 20
130.1374457419798
 30
0.0
 10
84.75159138602994
 20
129.9322264096263
 30
0.0
 10
84.7162799191165
 20
129.8606535431799
 30
0.0
 10
84.65009994337083
 20
129.7447003105794
 30
0.0
 10
84.6255615767026
 20
129.7041157757692
 30
0.0
 10
84.5821888311488
 20
129.6399740938975
 30
0.0
 10
84.56668042972359
 20
129.6181076686124
 30
0.0
 10
84.53163778513658
 20
129.5725134002692
 30
0.0
 10
84.51208749441682
 20
129.5488431093018
 30
0.0
 10
84.47016021404622
 20
129.5042265499619
 30
0.0
 10
84.44750810381457
 20
129.4833465374439
 30
0.0
 10
84.40653438972792
 20
129.4524731236931
 30
0.0
 10
84.3889350898325
 20
129.4426342538607
 30
0.0
 10
84.34430810397636
 20
129.4236446381645
 30
0.0
 10
84.32374888132301
 20
129.4233203135111
 30
0.0
 10
84.27262344182635
 20
129.4325437543873
 30
0.0
 10
84.25171202883783
 20
129.4537906506043
 30
0.0
 10
84.2002621212769
 20
129.527759529435
 30
0.0
 10
84.18259682197234
 20
129.5938776227498
 30
0.0
 10
84.1689379885055
 20
129.6640433356801
 30
0.0
  0
SPLINE
  5
A2
330
1F
100
AcDbEntity
  8
0
  6
Continuous
 62
     7
370
    15
100
AcDbSpline
210
0.0
220
0.0
230
1.0
 70
     8
 71
     3
 72
    10
 73
     6
 74
     0
 42
0.00000001
 43
0.00000001
 40
0.0
 40
0.0
 40
0.0
 40
0.0
 40
0.5
 40
0.5
 40
1.0
 40
1.0
 40
1.0
 40
1.0
 10
85.2462296833639
 20
130.849444683187
 30
0.0
 10
85.17867042844564
 20
130.7817532903772
 30
0.0
 10
85.11503377310915
 20
130.7070461256236
 30
0.0
 10
85.0048130185373
 20
130.548079993197
 30
0.0
 10
84.95799672531467
 20
130.463724727189
 30
0.0
 10
84.93042825988661
 20
130.3796101244972
 30
0.0
  0
SPLINE
  5
A3
330
1F
100
AcDbEntity
  8
0
  6
Continuous
 62
     7
370
    15
100
AcDbSpline
210
0.0
220
0.0
230
1.0
 70
     8
 71
     3
 72
    10
 73
     6
 74
     0
 42
0.00000001
 43
0.00000001
 40
0.0
 40
0.0
 40
0.0
 40
0.0
 40
0.5
 40
0.5
 40
1.0
 40
1.0
 40
1.0
 40
1.0
 10
84.93042825988664
 20
89.59937145730139
 30
0.0
 10
84.95790567464063
 20
89.51553466083351
 30
0.0
 10
85.00461430493003
 20
89.43122417324437
 30
0.0
 10
85.114892767676
 20
89.27210294275766
 30
0.0
 10
85.1787803062899
 20
89.19711819866801
 30
0.0
 10
85.24622968337451
 20
89.12953689860106
 30
0.0
  0
SPLINE
  5
A4
330
1F
100
AcDbEntity
  8
0
  6
Continuous
 62
     7
370
    15
100
AcDbSpline
210
0.0
220
0.0
230
1.0
 70
     8
 71
     3
 72
    24
 73
    20
 74
     0
 42
0.00000001
 43
0.00000001
 40
0.0
 40
0.0
 40
0.0
 40
0.0
 40
0.25
 40
0.25
 40
0.374999999999999
 40
0.374999999999999
 40
0.4374999999999993
 40
0.4374999999999993
 40
0.4687499999999994
 40
0.4687499999999994
 40
0.4999999999999995
 40
0.4999999999999995
 40
0.5624999999999971
 40
0.5624999999999971
 40
0.6249999999999947
 40
0.6249999999999947
 40
0.7499999999999947
 40
0.7499999999999947
 40
1.0
 40
1.0
 40
1.0
 40
1.0
 10
84.1689379885055
 20
90.31493824611861
 30
0.0
 10
84.18269110717574
 20
90.3855883041089
 30
0.0
 10
84.2004636745816
 20
90.45218641687383
 30
0.0
 10
84.25271476613696
 20
90.52628443710702
 30
0.0
 10
84.27374984171851
 20
90.54754224426858
 30
0.0
 10
84.32665024934697
 20
90.55568817041483
 30
0.0
 10
84.34775592222488
 20
90.55474836701906
 30
0.0
 10
84.39380809090282
 20
90.53373237544172
 30
0.0
 10
84.41217856288623
 20
90.5228235693341
 30
0.0
 10
84.45373019795194
 20
90.49018865838673
 30
0.0
 10
84.47629687070885
 20
90.46869667801535
 30
0.0
 10
84.53907788716886
 20
90.40023073442904
 30
0.0
 10
84.57220764813675
 20
90.35415627622395
 30
0.0
 10
84.62912533462178
 20
90.26914838788929
 30
0.0
 10
84.65331136012554
 20
90.2288680867079
 30
0.0
 10
84.71851931050531
 20
90.11393186024196
 30
0.0
 10
84.75323537069654
 20
90.04334887509495
 30
0.0
 10
84.84645064102742
 20
89.83914311601634
 30
0.0
 10
84.8921231763881
 20
89.71624473368898
 30
0.0
 10
84.93042825988664
 20
89.5993714573014
 30
0.0
  0
SPLINE
  5
A5
330
1F
100
AcDbEntity
  8
0
  6
Continuous
 62
     7
370
    15
100
AcDbSpline
210
0.0
220
0.0
230
1.0
 70
     8
 71
     3
 72
     8
 73
     4
 74
     0
 42
0.00000001
 43
0.00000001
 40
0.0
 40
0.0
 40
0.0
 40
0.0
 40
1.0
 40
1.0
 40
1.0
 40
1.0
 10
132.0962746137821
 20
137.794724982071
 30
0.0
 10
131.6035645169363
 20
138.6827439801974
 30
0.0
 10
131.1094818116574
 20
139.5700066158833
 30
0.0
 10
130.614341782293
 20
140.4566862640636
 30
0.0
  0
LINE
  5
A6
330
1F
100
AcDbEntity
  8
0
  6
Continuous
 62
     7
370
    15
100
AcDbLine
 10
132.0962746138
 20
131.0396344585
 30
0.0
 11
132.0962746138
 21
137.7947249821
 31
0.0
  0
SPLINE
  5
A7
330
1F
100
AcDbEntity
  8
0
  6
Continuous
 62
     7
370
    15
100
AcDbSpline
210
0.0
220
0.0
230
1.0
 70
     8
 71
     3
 72
     8
 73
     4
 74
     0
 42
0.00000001
 43
0.00000001
 40
0.0
 40
0.0
 40
0.0
 40
0.0
 40
1.0
 40
1.0
 40
1.0
 40
1.0
 10
130.614341782293
 20
134.4481804532668
 30
0.0
 10
131.1214286240523
 20
133.3170300991031
 30
0.0
 10
131.6169964631922
 20
132.1806456883353
 30
0.0
 10
132.0962746137821
 20
131.0396344584827
 30
0.0
  0
SPLINE
  5
A8
330
1F
100
AcDbEntity
  8
0
  6
Continuous
 62
     7
370
    15
100
AcDbSpline
210
0.0
220
0.0
230
1.0
 70
     8
 71
     3
 72
     8
 73
     4
 74
     0
 42
0.00000001
 43
0.00000001
 40
0.0
 40
0.0
 40
0.0
 40
0.0
 40
1.0
 40
1.0
 40
1.0
 40
1.0
 10
137.3982074452711
 20
140.4566862640636
 30
0.0
 10
136.9030674159068
 20
139.5700066158833
 30
0.0
 10
136.4089847106278
 20
138.6827439801973
 30
0.0
 10
135.9162746137821
 20
137.794724982071
 30
0.0
  0
LINE
  5
A9
330
1F
100
AcDbEntity
  8
0
  6
Continuous
 62
     7
370
    15
100
AcDbLine
 10
137.3982074453
 20
134.4481804533
 30
0.0
 11
137.3982074453
 21
140.4566862641
 31
0.0
  0
SPLINE
  5
AA
330
1F
100
AcDbEntity
  8
0
  6
Continuous
 62
     7
370
    15
100
AcDbSpline
210
0.0
220
0.0
230
1.0
 70
     8
 71
     3
 72
     8
 73
     4
 74
     0
 42
0.00000001
 43
0.00000001
 40
0.0
 40
0.0
 40
0.0
 40
0.0
 40
1.0
 40
1.0
 40
1.0
 40
1.0
 10
135.9162746137821
 20
131.0396344584827
 30
0.0
 10
136.3955527643719
 20
132.1806456883353
 30
0.0
 10
136.8911206035119
 20
133.3170300991031
 30
0.0
 10
137.3982074452711
 20
134.4481804532668
 30
0.0
  0
LINE
  5
AB
330
1F
100
AcDbEntity
  8
0
  6
Continuous
 62
     7
370
    15
100
AcDbLine
 10
135.9162746138
 20
131.0396344585
 30
0.0
 11
135.9162746138
 21
137.7947249821
 31
0.0
  0
LINE
  5
AC
330
1F
100
AcDbEntity
  8
0
  6
Continuous
 62
     7
370
    15
100
AcDbLine
 10
135.9162746138
 20
130.1253574224
 30
0.0
 11
135.9162746138
 21
131.0396344585
 31
0.0
  0
LINE
  5
AD
330
1F
100
AcDbEntity
  8
0
  6
Continuous
 62
     7
370
    15
100
AcDbLine
 10
137.3982074453
 20
134.4481804533
 30
0.0
 11
141.3562746138
 21
134.4481804533
 31
0.0
  0
SPLINE
  5
AE
330
1F
100
AcDbEntity
  8
0
  6
Continuous
 62
     7
370
    15
100
AcDbSpline
210
0.0
220
0.0
230
1.0
 70
     8
 71
     3
 72
    12
 73
     8
 74
     0
 42
0.00000001
 43
0.00000001
 40
0.0
 40
0.0
 40
0.0
 40
0.0
 40
0.250000000000002
 40
0.250000000000002
 40
0.500000000000004
 40
0.500000000000004
 40
1.0
 40
1.0
 40
1.0
 40
1.0
 10
141.3562746137821
 20
134.4481804532668
 30
0.0
 10
141.4474743356078
 20
134.4481804532668
 30
0.0
 10
141.5380693447438
 20
134.4199607546789
 30
0.0
 10
141.6914820711904
 20
134.3255177474308
 30
0.0
 10
141.7566909385141
 20
134.2592307707255
 30
0.0
 10
141.909475467854
 20
134.0336059474372
 30
0.0
 10
141.9562746137821
 20
133.8511796844046
 30
0.0
 10
141.9562746137821
 20
133.6704430521577
 30
0.0
  0
LINE
  5
AF
330
1F
100
AcDbEntity
  8
0
  6
Continuous
 62
     7
370
    15
100
AcDbLine
 10
141.9562746138
 20
133.6704430522
 30
0.0
 11
141.9562746138
 21
129.8394907909
 31
0.0
  0
LINE
  5
B0
330
1F
100
AcDbEntity
  8
0
  6
Continuous
 62
     7
370
    15
100
AcDbLine
 10
141.3562746138
 20
140.4566862641
 30
0.0
 11
137.3982074453
 21
140.4566862641
 31
0.0
  0
SPLINE
  5
B1
330
1F
100
AcDbEntity
  8
0
  6
Continuous
 62
     7
370
    15
100
AcDbSpline
210
0.0
220
0.0
230
1.0
 70
     8
 71
     3
 72
    10
 73
     6
 74
     0
 42
0.00000001
 43
0.00000001
 40
0.0
 40
0.0
 40
0.0
 40
0.0
 40
0.5
 40
0.5
 40
1.0
 40
1.0
 40
1.0
 40
1.0
 10
141.9562746137821
 20
139.8359311146633
 30
0.0
 10
141.9562746137821
 20
139.9963363810141
 30
0.0
 10
141.8940367826752
 20
140.1553981940027
 30
0.0
 10
141.6749018589327
 20
140.386310659633
 30
0.0
 10
141.5173131639408
 20
140.4566862640636
 30
0.0
 10
141.3562746137821
 20
140.4566862640636
 30
0.0
  0
LINE
  5
B2
330
1F
100
AcDbEntity
  8
0
  6
Continuous
 62
     7
370
    15
100
AcDbLine
 10
141.9562746138
 20
133.6704430522
 30
0.0
 11
141.9562746138
 21
139.8359311147
 31
0.0
  0
LINE
  5
B3
330
1F
100
AcDbEntity
  8
0
  6
Continuous
 62
     7
370
    15
100
AcDbLine
 10
132.0962746138
 20
131.0396344585
 30
0.0
 11
132.0962746138
 21
130.1253574224
 31
0.0
  0
ARC
  5
B4
330
1F
100
AcDbEntity
  8
0
  6
Continuous
 62
     7
370
    15
100
AcDbCircle
 10
124.0060846777
 20
128.6696937961
 30
0.0
 40
7.273530068710217
100
AcDbArc
 50
70.9723758722
 51
108.9770211267
  0
LINE
  5
B5
330
1F
100
AcDbEntity
  8
0
  6
Continuous
 62
     7
370
    15
100
AcDbLine
 10
167.8876604053
 20
94.9894907909
 30
0.0
 11
167.8876604053
 21
124.9894907909
 31
0.0
  0
LINE
  5
B6
330
1F
100
AcDbEntity
  8
0
  6
Continuous
 62
     7
370
    15
100
AcDbLine
 10
150.6298511752
 20
124.8245855029
 30
0.0
 11
150.8020162814
 21
124.8059420414
 31
0.0
  0
SPLINE
  5
B7
330
1F
100
AcDbEntity
  8
0
  6
Continuous
 62
     7
370
    15
100
AcDbSpline
210
0.0
220
0.0
230
1.0
 70
     8
 71
     3
 72
    37
 73
    33
 74
     0
 42
0.00000001
 43
0.00000001
 40
0.0
 40
0.0
 40
0.0
 40
0.0
 40
0.0260745690363598
 40
0.0485613789562396
 40
0.068651635825972
 40
0.1094511196058722
 40
0.1301874919269453
 40
0.151648917549218
 40
0.1951472409224606
 40
0.2172029083284291
 40
0.2418582355108151
 40
0.291818718891158
 40
0.3171485545383646
 40
0.3455750682187088
 40
0.4032428283255154
 40
0.4325284642472587
 40
0.4636592982830791
 40
0.5269199854930238
 40
0.559119317038369
 40
0.5911186074605741
 40
0.6233445310618162
 40
0.6563033069143764
 40
0.6895250809470405
 40
0.7206642780458504
 40
0.7842158098972074
 40
0.8167789331396245
 40
0.8395613286466261
 40
0.8858326780637185
 40
0.9093994472971457
 40
0.9321878521921791
 40
0.978711270230785
 40
0.9999999999999999
 40
0.9999999999999999
 40
0.9999999999999999
 40
0.9999999999999999
 10
156.4465124541641
 20
124.9878708680711
 30
0.0
 10
156.4479783117374
 20
124.9881126322907
 30
0.0
 10
156.4507083305927
 20
124.988562894915
 30
0.0
 10
156.4111871252666
 20
124.982027145251
 30
0.0
 10
156.3455040432156
 20
124.9712974350913
 30
0.0
 10
156.2474693837772
 20
124.9555841579488
 30
0.0
 10
156.1192269267882
 20
124.9358265941168
 30
0.0
 10
155.9674884629578
 20
124.913141807887
 30
0.0
 10
155.7854787353846
 20
124.8873250678052
 30
0.0
 10
155.5730261900116
 20
124.8594152745871
 30
0.0
 10
155.3287688682462
 20
124.8292172203723
 30
0.0
 10
155.051549335921
 20
124.7985875603705
 30
0.0
 10
154.7447308206937
 20
124.7695729363303
 30
0.0
 10
154.4021301876388
 20
124.7411540207635
 30
0.0
 10
154.0288786284165
 20
124.7174532811937
 30
0.0
 10
153.6361433777203
 20
124.7010328081451
 30
0.0
 10
153.2190628514993
 20
124.6899075403051
 30
0.0
 10
152.7863888967369
 20
124.6888464568084
 30
0.0
 10
152.3553234290708
 20
124.6983855154153
 30
0.0
 10
152.0332674691833
 20
124.7107321880578
 30
0.0
 10
151.715203489617
 20
124.7279780775083
 30
0.0
 10
151.402249625781
 20
124.7498169275534
 30
0.0
 10
151.1044533589537
 20
124.7750933020052
 30
0.0
 10
150.7317867941747
 20
124.8118562342105
 30
0.0
 10
150.3924066026901
 20
124.8520214897572
 30
0.0
 10
150.1182674916419
 20
124.8886873157481
 30
0.0
 10
149.9080949029354
 20
124.9184551183443
 30
0.0
 10
149.7465185829183
 20
124.9428837296342
 30
0.0
 10
149.6215495734995
 20
124.9625563540565
 30
0.0
 10
149.5229661437195
 20
124.9784300193295
 30
0.0
 10
149.4635503253091
 20
124.9882821359899
 30
0.0
 10
149.4588706302306
 20
124.9890596438434
 30
0.0
 10
149.4574015016578
 20
124.9893037321833
 30
0.0
  0
SPLINE
  5
B8
330
1F
100
AcDbEntity
  8
0
  6
Continuous
 62
     7
370
    15
100
AcDbSpline
210
0.0
220
0.0
230
1.0
 70
     8
 71
     3
 72
     9
 73
     5
 74
     0
 42
0.00000001
 43
0.00000001
 40
0.0
 40
0.0
 40
0.0
 40
0.0
 40
0.362503321687565
 40
1.0
 40
1.0
 40
1.0
 40
1.0
 10
150.3674928833365
 20
124.856542807045
 30
0.0
 10
150.3968586990551
 20
124.8526859588897
 30
0.0
 10
150.4778671035627
 20
124.8420464752641
 30
0.0
 10
150.5706819920486
 20
124.831383264411
 30
0.0
 10
150.6298511751563
 20
124.824585502912
 30
0.0
  0
SPLINE
  5
B9
330
1F
100
AcDbEntity
  8
0
  6
Continuous
 62
     7
370
    15
100
AcDbSpline
210
0.0
220
0.0
230
1.0
 70
     8
 71
     3
 72
    60
 73
    56
 74
     0
 42
0.00000001
 43
0.00000001
 40
-0.0312500000000006
 40
-0.0312500000000006
 40
0.0
 40
0.0
 40
0.0625000000000003
 40
0.0625000000000003
 40
0.0937500000000005
 40
0.0937500000000005
 40
0.1250000000000006
 40
0.1250000000000006
 40
0.1874999999999999
 40
0.1874999999999999
 40
0.2499999999999992
 40
0.2499999999999992
 40
0.2812499999999989
 40
0.2812499999999989
 40
0.3124999999999986
 40
0.3124999999999986
 40
0.3437499999999983
 40
0.3437499999999983
 40
0.3749999999999981
 40
0.3749999999999981
 40
0.4062499999999978
 40
0.4062499999999978
 40
0.4374999999999974
 40
0.4374999999999974
 40
0.4687499999999972
 40
0.4687499999999972
 40
0.4999999999999969
 40
0.4999999999999969
 40
0.5624999999999962
 40
0.5624999999999962
 40
0.5937499999999959
 40
0.5937499999999959
 40
0.6249999999999956
 40
0.6249999999999956
 40
0.6562499999999953
 40
0.6562499999999953
 40
0.687499999999995
 40
0.687499999999995
 40
0.7499999999999953
 40
0.7499999999999953
 40
0.7812499999999958
 40
0.7812499999999958
 40
0.8124999999999964
 40
0.8124999999999964
 40
0.843749999999997
 40
0.843749999999997
 40
0.8749999999999976
 40
0.8749999999999976
 40
0.9062499999999982
 40
0.9062499999999982
 40
0.9374999999999988
 40
0.9374999999999988
 40
0.9687499999999994
 40
0.9687499999999994
 40
1.0
 40
1.0
 40
1.0625
 40
1.0625
 10
150.460141468407
 20
112.0781645785554
 30
0.0
 10
150.9692705924441
 20
112.4664413720489
 30
0.0
 10
151.3464887479738
 20
112.6572893145185
 30
0.0
 10
151.9565738176847
 20
112.8505745345298
 30
0.0
 10
152.1628751172515
 20
112.8976869280865
 30
0.0
 10
152.5810710358503
 20
112.9591454784086
 30
0.0
 10
152.7941788595678
 20
112.9734520694646
 30
0.0
 10
153.4340946530399
 20
112.9653177369856
 30
0.0
 10
153.851218153383
 20
112.8939777696058
 30
0.0
 10
154.6578454129755
 20
112.6152789201631
 30
0.0
 10
155.0274144174936
 20
112.4158112754956
 30
0.0
 10
155.5249648656408
 20
112.013460299556
 30
0.0
 10
155.6762241399001
 20
111.8654536613541
 30
0.0
 10
155.9461130509648
 20
111.541336658751
 30
0.0
 10
156.0663072077972
 20
111.3622620791377
 30
0.0
 10
156.2603100730623
 20
110.9860557693083
 30
0.0
 10
156.3348642322572
 20
110.7892988708145
 30
0.0
 10
156.4349878115683
 20
110.3768129776529
 30
0.0
 10
156.4593306122684
 20
110.161322637664
 30
0.0
 10
156.4525852316301
 20
109.7381927673195
 30
0.0
 10
156.4215674240749
 20
109.5241808451334
 30
0.0
 10
156.3083325925222
 20
109.1135308088382
 30
0.0
 10
156.2272846587511
 20
108.9175315485594
 30
0.0
 10
156.0194901230851
 20
108.5428891568497
 30
0.0
 10
155.8960930904288
 20
108.3703149005299
 30
0.0
 10
155.6158742338889
 20
108.0519538172743
 30
0.0
 10
155.4580130239952
 20
107.9058321476683
 30
0.0
 10
154.9543471938205
 20
107.5195486073193
 30
0.0
 10
154.5685022335952
 20
107.3231840836363
 30
0.0
 10
153.9636849314269
 20
107.1304983326179
 30
0.0
 10
153.7551988392488
 20
107.0822955789692
 30
0.0
 10
153.3328258179677
 20
107.0198481975137
 30
0.0
 10
153.1214499481907
 20
107.0057467241217
 30
0.0
 10
152.6983317937039
 20
107.0106182844979
 30
0.0
 10
152.4853874311286
 20
107.0298071954029
 30
0.0
 10
152.0644855921097
 20
107.1022882940068
 30
0.0
 10
151.8596239154187
 20
107.1548347717845
 30
0.0
 10
151.261589687028
 20
107.3610481591243
 30
0.0
 10
150.8797912028723
 20
107.5674542757201
 30
0.0
 10
150.3899836466341
 20
107.9635996891927
 30
0.0
 10
150.238834268184
 20
108.1105828451777
 30
0.0
 10
149.9647288169928
 20
108.4396272690041
 30
0.0
 10
149.8468384170136
 20
108.6156985074566
 30
0.0
 10
149.6523870837013
 20
108.9925039433117
 30
0.0
 10
149.5757224489747
 20
109.1957314453231
 30
0.0
 10
149.4767552060924
 20
109.6075840005931
 30
0.0
 10
149.4528291943515
 20
109.8188041681132
 30
0.0
 10
149.4605147665313
 20
110.2491912004091
 30
0.0
 10
149.4918241044522
 20
110.4592771198614
 30
0.0
 10
149.6058464003341
 20
110.8699081569331
 30
0.0
 10
149.6891652777369
 20
111.069555901661
 30
0.0
 10
149.8959796902633
 20
111.4402489088116
 30
0.0
 10
150.0217161880671
 20
111.6155679055865
 30
0.0
 10
150.3035522078943
 20
111.9338750795083
 30
0.0
 10
150.460141468407
 20
112.0781645785554
 30
0.0
 10
150.9692705924441
 20
112.4664413720489
 30
0.0
  0
SPLINE
  5
BA
330
1F
100
AcDbEntity
  8
0
  6
Continuous
 62
     7
370
    15
100
AcDbSpline
210
0.0
220
0.0
230
1.0
 70
     8
 71
     3
 72
     9
 73
     5
 74
     0
 42
0.00000001
 43
0.00000001
 40
0.0
 40
0.0
 40
0.0
 40
0.0
 40
0.830696145167787
 40
1.0
 40
1.0
 40
1.0
 40
1.0
 10
150.6298511754639
 20
95.1543960789216
 30
0.0
 10
150.5579410186058
 20
95.14618902749099
 30
0.0
 10
150.4713748809436
 20
95.13630930013419
 30
0.0
 10
150.3985288651419
 20
95.12660064240143
 30
0.0
 10
150.3861957538575
 20
95.12495692922202
 30
0.0
  0
SPLINE
  5
BB
330
1F
100
AcDbEntity
  8
0
  6
Continuous
 62
     7
370
    15
100
AcDbSpline
210
0.0
220
0.0
230
1.0
 70
     8
 71
     3
 72
    39
 73
    35
 74
     0
 42
0.00000001
 43
0.00000001
 40
0.0
 40
0.0
 40
0.0
 40
0.0
 40
0.0060930915915703
 40
0.0287231216979
 40
0.0488575597471494
 40
0.089779102606726
 40
0.1105983631044337
 40
0.1315246787516559
 40
0.173950697367786
 40
0.1954697364836921
 40
0.2192513009537077
 40
0.2674372844787146
 40
0.2918637061366416
 40
0.3194211748210422
 40
0.3753053589442878
 40
0.4036706937147592
 40
0.4343190429066366
 40
0.4965752772228843
 40
0.5282468941304267
 40
0.5601856082085998
 40
0.5923465560573506
 40
0.6252194849322176
 40
0.6583446550624816
 40
0.6898805263369173
 40
0.7216586971763901
 40
0.7542539956277851
 40
0.7871589908225305
 40
0.8110125140027779
 40
0.8594545121918976
 40
0.8841254510707376
 40
0.9079858265415884
 40
0.9567347565320063
 40
0.9817327968062022
 40
1.0
 40
1.0
 40
1.0
 40
1.0
 10
149.4611249822975
 20
94.9902940993772
 30
0.0
 10
149.4594764634106
 20
94.99002115021615
 30
0.0
 10
149.4517052674751
 20
94.98873445497254
 30
0.0
 10
149.4712613300619
 20
94.99198112220039
 30
0.0
 10
149.5130767747386
 20
94.99888265421643
 30
0.0
 10
149.5918596033628
 20
95.01172740867443
 30
0.0
 10
149.700901454857
 20
95.02892653631594
 30
0.0
 10
149.8322069825272
 20
95.04912503686789
 30
0.0
 10
149.9932766521918
 20
95.07285152449838
 30
0.0
 10
150.1845904996072
 20
95.09924386358007
 30
0.0
 10
150.4056607918039
 20
95.12821408209543
 30
0.0
 10
150.6591891834763
 20
95.15846645313943
 30
0.0
 10
150.9430573129797
 20
95.18821680590207
 30
0.0
 10
151.2628253906592
 20
95.21832242385996
 30
0.0
 10
151.61473544713
 20
95.2451344900064
 30
0.0
 10
151.989702398974
 20
95.2660458799451
 30
0.0
 10
152.3933595707443
 20
95.28272868659725
 30
0.0
 10
152.8174740626242
 20
95.29032633840241
 30
0.0
 10
153.2456173620211
 20
95.28757479187955
 30
0.0
 10
153.5695493638234
 20
95.280219520039
 30
0.0
 10
153.8932542630947
 20
95.26761730010189
 30
0.0
 10
154.2141902396845
 20
95.24997005180985
 30
0.0
 10
154.5237916202803
 20
95.22807690374607
 30
0.0
 10
154.8183667449784
 20
95.20292423002965
 30
0.0
 10
155.0976197449048
 20
95.17528623495562
 30
0.0
 10
155.3639426854155
 20
95.1454965652066
 30
0.0
 10
155.5899147934057
 20
95.11750544700548
 30
0.0
 10
155.8334184465992
 20
95.08510444948135
 30
0.0
 10
156.0289979375059
 20
95.05685896011532
 30
0.0
 10
156.1878437678558
 20
95.03264925433284
 30
0.0
 10
156.3209723661953
 20
95.01172437236538
 30
0.0
 10
156.4107045360042
 20
94.99704462454082
 30
0.0
 10
156.4520079393179
 20
94.99020065268135
 30
0.0
 10
156.4542959565576
 20
94.98981975377127
 30
0.0
 10
156.4552619900866
 20
94.98965893281594
 30
0.0
  0
LINE
  5
BC
330
1F
100
AcDbEntity
  8
0
  6
Continuous
 62
     7
370
    15
100
AcDbLine
 10
150.6990373984
 20
95.1619379408
 30
0.0
 11
150.6298511755
 21
95.1543960789
 31
0.0
  0
CIRCLE
  5
BD
330
1F
100
AcDbEntity
  8
0
  6
Continuous
 62
     7
370
    15
100
AcDbCircle
 10
152.9562746138
 20
109.9894907909
 30
0.0
 40
2.5
  0
SPLINE
  5
BE
330
1F
100
AcDbEntity
  8
0
  6
Continuous
 62
     7
370
    15
100
AcDbSpline
210
0.0
220
0.0
230
1.0
 70
     8
 71
     3
 72
    10
 73
     6
 74
     0
 42
0.00000001
 43
0.00000001
 40
0.0
 40
0.0
 40
0.0
 40
0.0
 40
0.0650913207388933
 40
0.4645438964963189
 40
1.0
 40
1.0
 40
1.0
 40
1.0
 10
206.0038821847647
 20
120.2381392948153
 30
0.0
 10
206.0038495812181
 20
120.2388975081703
 30
0.0
 10
206.0036168961474
 20
120.2443087270909
 30
0.0
 10
206.0050408298472
 20
120.2185568681087
 30
0.0
 10
206.0058253122577
 20
120.1606098169761
 30
0.0
 10
206.0062746137821
 20
120.1274214394402
 30
0.0
  0
LINE
  5
BF
330
1F
100
AcDbEntity
  8
0
  6
Continuous
 62
     7
370
    15
100
AcDbLine
 10
206.0062746138
 20
99.8515601424
 30
0.0
 11
206.0062746138
 21
120.1274214394
 31
0.0
  0
SPLINE
  5
C0
330
1F
100
AcDbEntity
  8
0
  6
Continuous
 62
     7
370
    15
100
AcDbSpline
210
0.0
220
0.0
230
1.0
 70
     8
 71
     3
 72
     9
 73
     5
 74
     0
 42
0.00000001
 43
0.00000001
 40
0.0
 40
0.0
 40
0.0
 40
0.0
 40
0.6762853039760147
 40
1.0
 40
1.0
 40
1.0
 40
1.0
 10
206.0062746137821
 20
99.85156014235857
 30
0.0
 10
206.0054789491414
 20
99.80871509690614
 30
0.0
 10
206.0043024269902
 20
99.74536159033056
 30
0.0
 10
206.003984865139
 20
99.74194531650873
 30
0.0
 10
206.0038820657009
 20
99.74083941846695
 30
0.0
  0
LINE
  5
C1
330
1F
100
AcDbEntity
  8
0
  6
Continuous
 62
     7
370
    15
100
AcDbLine
 10
206.0247070973
 20
120.2092074924
 30
0.0
 11
206.0062746138
 21
119.7400694599
 31
0.0
  0
LINE
  5
C2
330
1F
100
AcDbEntity
  8
0
  6
Continuous
 62
     7
370
    15
100
AcDbLine
 10
206.0062746138
 20
100.2389121219
 30
0.0
 11
206.0247070973
 21
99.7697740894
 31
0.0
  0
LINE
  5
C3
330
1F
100
AcDbEntity
  8
0
  6
HIDDEN
 62
     7
370
     0
100
AcDbLine
 10
159.0062746138
 20
104.9894907909
 30
0.0
 11
159.0062746138
 21
114.9894907909
 31
0.0
  0
LINE
  5
C4
330
1F
100
AcDbEntity
  8
0
  6
HIDDEN
 62
     7
370
     0
100
AcDbLine
 10
143.5062746138
 20
104.9894907909
 30
0.0
 11
143.5062746138
 21
114.9894907909
 31
0.0
  0
LINE
  5
C5
330
1F
100
AcDbEntity
  8
0
  6
HIDDEN
 62
     7
370
     0
100
AcDbLine
 10
143.0062746138
 20
105.4894907909
 30
0.0
 11
143.0062746138
 21
114.4894907909
 31
0.0
  0
LINE
  5
C6
330
1F
100
AcDbEntity
  8
0
  6
HIDDEN
 62
     7
370
     0
100
AcDbLine
 10
161.0062746138
 20
114.3769729846
 30
0.0
 11
161.0062746138
 21
114.4894907909
 31
0.0
  0
LINE
  5
C7
330
1F
100
AcDbEntity
  8
0
  6
HIDDEN
 62
     7
370
     0
100
AcDbLine
 10
163.0062746138
 20
114.3769729846
 30
0.0
 11
161.0062746138
 21
114.3769729846
 31
0.0
  0
LINE
  5
C8
330
1F
100
AcDbEntity
  8
0
  6
HIDDEN
 62
     7
370
     0
100
AcDbLine
 10
163.0062746138
 20
105.6020085972
 30
0.0
 11
163.0062746138
 21
114.3769729846
 31
0.0
  0
LINE
  5
C9
330
1F
100
AcDbEntity
  8
0
  6
HIDDEN
 62
     7
370
     0
100
AcDbLine
 10
161.0062746138
 20
105.6020085972
 30
0.0
 11
163.0062746138
 21
105.6020085972
 31
0.0
  0
LINE
  5
CA
330
1F
100
AcDbEntity
  8
0
  6
HIDDEN
 62
     7
370
     0
100
AcDbLine
 10
161.0062746138
 20
105.4894907909
 30
0.0
 11
161.0062746138
 21
105.6020085972
 31
0.0
  0
LINE
  5
CB
330
1F
100
AcDbEntity
  8
0
  6
HIDDEN
 62
     7
370
     0
100
AcDbLine
 10
157.0062746138
 20
108.5461151179
 30
0.0
 11
157.0062746138
 21
107.8244272814
 31
0.0
  0
LINE
  5
CC
330
1F
100
AcDbEntity
  8
0
  6
HIDDEN
 62
     7
370
     0
100
AcDbLine
 10
157.0062746138
 20
108.5461151179
 30
0.0
 11
163.0062746138
 21
108.5461151179
 31
0.0
  0
LINE
  5
CD
330
1F
100
AcDbEntity
  8
0
  6
HIDDEN
 62
     7
370
     0
100
AcDbLine
 10
157.0062746138
 20
109.9894907909
 30
0.0
 11
157.0062746138
 21
108.5461151179
 31
0.0
  0
LINE
  5
CE
330
1F
100
AcDbEntity
  8
0
  6
HIDDEN
 62
     7
370
     0
100
AcDbLine
 10
157.0062746138
 20
111.4328664639
 30
0.0
 11
157.0062746138
 21
109.9894907909
 31
0.0
  0
LINE
  5
CF
330
1F
100
AcDbEntity
  8
0
  6
HIDDEN
 62
     7
370
     0
100
AcDbLine
 10
149.0062746137
 20
108.5461151179
 30
0.0
 11
143.0062746137
 21
108.5461151179
 31
0.0
  0
LINE
  5
D0
330
1F
100
AcDbEntity
  8
0
  6
HIDDEN
 62
     7
370
     0
100
AcDbLine
 10
157.0062746138
 20
112.1545543004
 30
0.0
 11
157.0062746138
 21
111.4328664639
 31
0.0
  0
LINE
  5
D1
330
1F
100
AcDbEntity
  8
0
  6
HIDDEN
 62
     7
370
     0
100
AcDbLine
 10
157.0062746138
 20
111.4328664639
 30
0.0
 11
163.0062746138
 21
111.4328664639
 31
0.0
  0
LINE
  5
D2
330
1F
100
AcDbEntity
  8
0
  6
HIDDEN
 62
     7
370
     0
100
AcDbLine
 10
149.0062746137
 20
108.5461151179
 30
0.0
 11
149.0062746137
 21
109.9894907909
 31
0.0
  0
LINE
  5
D3
330
1F
100
AcDbEntity
  8
0
  6
HIDDEN
 62
     7
370
     0
100
AcDbLine
 10
149.0062746137
 20
107.8244272814
 30
0.0
 11
149.0062746137
 21
108.5461151179
 31
0.0
  0
LINE
  5
D4
330
1F
100
AcDbEntity
  8
0
  6
HIDDEN
 62
     7
370
     0
100
AcDbLine
 10
149.0062746137
 20
111.4328664639
 30
0.0
 11
143.0062746137
 21
111.4328664639
 31
0.0
  0
LINE
  5
D5
330
1F
100
AcDbEntity
  8
0
  6
HIDDEN
 62
     7
370
     0
100
AcDbLine
 10
149.0062746137
 20
111.4328664639
 30
0.0
 11
149.0062746137
 21
112.1545543004
 31
0.0
  0
LINE
  5
D6
330
1F
100
AcDbEntity
  8
0
  6
HIDDEN
 62
     7
370
     0
100
AcDbLine
 10
149.0062746137
 20
109.9894907909
 30
0.0
 11
149.0062746137
 21
111.4328664639
 31
0.0
  0
LINE
  5
D7
330
1F
100
AcDbEntity
  8
0
  6
HIDDEN
 62
     7
370
     0
100
AcDbLine
 10
149.0062746137
 20
112.1545543004
 30
0.0
 11
149.0062746137
 21
112.8762421368
 31
0.0
  0
LINE
  5
D8
330
1F
100
AcDbEntity
  8
0
  6
HIDDEN
 62
     7
370
     0
100
AcDbLine
 10
157.0062746138
 20
107.8244272814
 30
0.0
 11
157.0062746138
 21
107.102739445
 31
0.0
  0
LINE
  5
D9
330
1F
100
AcDbEntity
  8
0
  6
HIDDEN
 62
     7
370
     0
100
AcDbLine
 10
157.0062746138
 20
112.8762421368
 30
0.0
 11
157.0062746138
 21
112.1545543004
 31
0.0
  0
LINE
  5
DA
330
1F
100
AcDbEntity
  8
0
  6
HIDDEN
 62
     7
370
     0
100
AcDbLine
 10
149.0062746137
 20
107.102739445
 30
0.0
 11
149.0062746137
 21
107.8244272814
 31
0.0
  0
LINE
  5
DB
330
1F
100
AcDbEntity
  8
0
  6
HIDDEN
 62
     7
370
     0
100
AcDbLine
 10
163.0062746138
 20
107.6800897141
 30
0.0
 11
161.0062746138
 21
107.6800897141
 31
0.0
  0
LINE
  5
DC
330
1F
100
AcDbEntity
  8
0
  6
HIDDEN
 62
     7
370
     0
100
AcDbLine
 10
161.0062746138
 20
107.6800897141
 30
0.0
 11
161.0062746138
 21
105.6020085972
 31
0.0
  0
LINE
  5
DD
330
1F
100
AcDbEntity
  8
0
  6
HIDDEN
 62
     7
370
     0
100
AcDbLine
 10
161.0062746138
 20
112.2988918677
 30
0.0
 11
163.0062746138
 21
112.2988918677
 31
0.0
  0
LINE
  5
DE
330
1F
100
AcDbEntity
  8
0
  6
HIDDEN
 62
     7
370
     0
100
AcDbLine
 10
161.0062746138
 20
114.3769729846
 30
0.0
 11
161.0062746138
 21
112.2988918677
 31
0.0
  0
LINE
  5
DF
330
1F
100
AcDbEntity
  8
0
  6
HIDDEN
 62
     7
370
     0
100
AcDbLine
 10
149.0062746137
 20
107.102739445
 30
0.0
 11
143.0062746138
 21
107.102739445
 31
0.0
  0
LINE
  5
E0
330
1F
100
AcDbEntity
  8
0
  6
HIDDEN
 62
     7
370
     0
100
AcDbLine
 10
149.0062746137
 20
112.8762421368
 30
0.0
 11
143.0062746137
 21
112.8762421368
 31
0.0
  0
LINE
  5
E1
330
1F
100
AcDbEntity
  8
0
  6
HIDDEN
 62
     7
370
     0
100
AcDbLine
 10
157.0062746138
 20
112.8762421368
 30
0.0
 11
161.0062746138
 21
112.8762421368
 31
0.0
  0
LINE
  5
E2
330
1F
100
AcDbEntity
  8
0
  6
HIDDEN
 62
     7
370
     0
100
AcDbLine
 10
157.0062746138
 20
107.102739445
 30
0.0
 11
161.0062746138
 21
107.102739445
 31
0.0
  0
LINE
  5
E3
330
1F
100
AcDbEntity
  8
0
  6
HIDDEN
 62
     7
370
     0
100
AcDbLine
 10
130.6143417823
 20
134.4481804533
 30
0.0
 11
130.6143417823
 21
129.8394907909
 31
0.0
  0
ARC
  5
E4
330
1F
100
AcDbEntity
  8
0
  6
HIDDEN
 62
     7
370
     0
100
AcDbCircle
 10
124.2969459661
 20
122.4786749134
 30
0.0
 40
3.670796053662388
100
AcDbArc
 50
265.4582888564
 51
12.2366932069
  0
ARC
  5
E5
330
1F
100
AcDbEntity
  8
0
  6
HIDDEN
 62
     7
370
     0
100
AcDbCircle
 10
123.7163192799
 20
122.4803949454
 30
0.0
 40
3.672454085234281
100
AcDbArc
 50
168.1193583736
 51
274.5284503322
  0
LINE
  5
E6
330
1F
100
AcDbEntity
  8
0
  6
HIDDEN
 62
     7
370
     0
100
AcDbLine
 10
104.0014248184
 20
86.4648911681
 30
0.0
 11
103.7525599996
 21
86.4416282016
 31
0.0
  0
LINE
  5
E7
330
1F
100
AcDbEntity
  8
0
  6
HIDDEN
 62
     7
370
     0
100
AcDbLine
 10
103.6199992384
 20
133.5495771191
 30
0.0
 11
104.0013320981
 21
133.5140738209
 31
0.0
  0
SPLINE
  5
E8
330
1F
100
AcDbEntity
  8
0
  6
HIDDEN
 62
     7
370
     0
100
AcDbSpline
210
0.0
220
0.0
230
1.0
 70
     8
 71
     3
 72
    32
 73
    28
 74
     0
 42
0.00000001
 43
0.00000001
 40
0.0
 40
0.0
 40
0.0
 40
0.0
 40
0.0346246159901393
 40
0.0694870388940023
 40
0.105100760954932
 40
0.1409753874086758
 40
0.1756005721189328
 40
0.210469240812561
 40
0.2461122854708169
 40
0.2820258067991321
 40
0.3162663828049037
 40
0.3859338563640312
 40
0.4214461814158482
 40
0.4553763558770598
 40
0.5243713305904967
 40
0.5595124638219118
 40
0.593798734303577
 40
0.6635059787021123
 40
0.6990055363805018
 40
0.7337623601246063
 40
0.7687606633024604
 40
0.8045245907686109
 40
0.8405553812432468
 40
0.875170121130555
 40
0.9456085132854553
 40
0.9815233266320907
 40
1.0
 40
1.0
 40
1.0
 40
1.0
 10
109.7612766153837
 20
90.1519623150829
 30
0.0
 10
109.6892783135373
 20
90.16175025799123
 30
0.0
 10
109.5447872150041
 20
90.18139336882764
 30
0.0
 10
109.3034672807457
 20
90.21084258744936
 30
0.0
 10
109.04416902976
 20
90.23939296953978
 30
0.0
 10
108.7701816106274
 20
90.26582418849462
 30
0.0
 10
108.4855538296058
 20
90.28927666584592
 30
0.0
 10
108.1909688706377
 20
90.30927412230453
 30
0.0
 10
107.8840379616694
 20
90.32542980080827
 30
0.0
 10
107.5723064959169
 20
90.33687178850377
 30
0.0
 10
107.1550409472315
 20
90.3455629162016
 30
0.0
 10
106.734397953874
 20
90.34427485974142
 30
0.0
 10
106.3209944007085
 20
90.33304704837394
 30
0.0
 10
105.9161504376412
 20
90.31574877629309
 30
0.0
 10
105.525512353079
 20
90.29003313252484
 30
0.0
 10
105.1567312750377
 20
90.25793982162794
 30
0.0
 10
104.8033134927893
 20
90.22238161312549
 30
0.0
 10
104.4778724024684
 20
90.18313315678989
 30
0.0
 10
104.1884951967511
 20
90.14350163941756
 30
0.0
 10
103.9905813197758
 20
90.1143658962753
 30
0.0
 10
103.8132543557383
 20
90.08663166396256
 30
0.0
 10
103.6566450272258
 20
90.06085111970819
 30
0.0
 10
103.5249975075231
 20
90.038244482974
 30
0.0
 10
103.3831363119513
 20
90.01305843766735
 30
0.0
 10
103.2943177241357
 20
89.99661288854374
 30
0.0
 10
103.2574947855853
 20
89.98972005772755
 30
0.0
 10
103.2589109327585
 20
89.98998504363675
 30
0.0
 10
103.2593919949677
 20
89.99007505879146
 30
0.0
  0
SPLINE
  5
E9
330
1F
100
AcDbEntity
  8
0
  6
HIDDEN
 62
     7
370
     0
100
AcDbSpline
210
0.0
220
0.0
230
1.0
 70
     8
 71
     3
 72
    30
 73
    26
 74
     0
 42
0.00000001
 43
0.00000001
 40
0.0
 40
0.0
 40
0.0
 40
0.0
 40
0.0156161600804337
 40
0.0849748372628082
 40
0.1203204532886746
 40
0.15431851909124
 40
0.2234436946574013
 40
0.2586467089786606
 40
0.2931107206687011
 40
0.3631864361325603
 40
0.3988795186727328
 40
0.4336750628309723
 40
0.4687145712104809
 40
0.5045294144990544
 40
0.5406151111978532
 40
0.5750767863722916
 40
0.6452033649630275
 40
0.6809575734718859
 40
0.7149323277721685
 40
0.784033058295527
 40
0.8192378401372485
 40
0.8533347063218409
 40
0.9226550151093995
 40
0.9579547149334489
 40
1.0
 40
1.0
 40
1.0
 40
1.0
 10
103.2593919949677
 20
129.9889065230072
 30
0.0
 10
103.2587942558826
 20
129.989018775889
 30
0.0
 10
103.2555416777059
 20
129.9896295963662
 30
0.0
 10
103.3058625801543
 20
129.9801704619091
 30
0.0
 10
103.4061676091956
 20
129.9618656258129
 30
0.0
 10
103.5407845972652
 20
129.9378823204392
 30
0.0
 10
103.7228432422953
 20
129.9067835262927
 30
0.0
 10
103.9497658159606
 20
129.8708643822504
 30
0.0
 10
104.206352221338
 20
129.8325453611113
 30
0.0
 10
104.5043888798107
 20
129.7923002258031
 30
0.0
 10
104.8369381338104
 20
129.7536392024007
 30
0.0
 10
105.1021358392147
 20
129.7262365436695
 30
0.0
 10
105.3811936644736
 20
129.7011917070573
 30
0.0
 10
105.6756446803678
 20
129.6790240097617
 30
0.0
 10
105.978509613684
 20
129.6608619224918
 30
0.0
 10
106.3888956005528
 20
129.6426038174974
 30
0.0
 10
106.8097364395076
 20
129.633756583493
 30
0.0
 10
107.2296403567365
 20
129.6352219779342
 30
0.0
 10
107.6442548775902
 20
129.6432653711014
 30
0.0
 10
108.0504759970661
 20
129.6607721567007
 30
0.0
 10
108.4400064967881
 20
129.6863374697286
 30
0.0
 10
108.8168271980264
 20
129.7165217054428
 30
0.0
 10
109.1699643577304
 20
129.7524192802902
 30
0.0
 10
109.511715845552
 20
129.7932375581488
 30
0.0
 10
109.6733896065616
 20
129.8151224717153
 30
0.0
 10
109.7612766153837
 20
129.8270192667158
 30
0.0
  0
SPLINE
  5
EA
330
1F
100
AcDbEntity
  8
0
  6
HIDDEN
 62
     7
370
     0
100
AcDbSpline
210
0.0
220
0.0
230
1.0
 70
     8
 71
     3
 72
    15
 73
    11
 74
     0
 42
0.00000001
 43
0.00000001
 40
0.0
 40
0.0
 40
0.0
 40
0.0
 40
0.1100575907867116
 40
0.2208892721160375
 40
0.3341486293921865
 40
0.4482424359403533
 40
0.5583229871018638
 40
0.7821905773228462
 40
0.896238231496438
 40
1.0
 40
1.0
 40
1.0
 40
1.0
 10
109.7612766153837
 20
129.8270192667158
 30
0.0
 10
109.8288706014631
 20
129.8360875207826
 30
0.0
 10
109.9645339962165
 20
129.8542878105205
 30
0.0
 10
110.1449794266552
 20
129.8750088662209
 30
0.0
 10
110.3071281786217
 20
129.8917485501109
 30
0.0
 10
110.4451794095454
 20
129.9043306674314
 30
0.0
 10
110.5968197137851
 20
129.9167094406657
 30
0.0
 10
110.698267929679
 20
129.923666891275
 30
0.0
 10
110.749691564424
 20
129.9269641662741
 30
0.0
 10
110.7536466219264
 20
129.9272094810729
 30
0.0
 10
110.7555307633741
 20
129.9273263460692
 30
0.0
  0
SPLINE
  5
EB
330
1F
100
AcDbEntity
  8
0
  6
HIDDEN
 62
     7
370
     0
100
AcDbSpline
210
0.0
220
0.0
230
1.0
 70
     8
 71
     3
 72
    17
 73
    13
 74
     0
 42
0.00000001
 43
0.00000001
 40
0.0
 40
0.0
 40
0.0
 40
0.0
 40
0.006924940840381
 40
0.1182727102484651
 40
0.2320346113607075
 40
0.3466312724851539
 40
0.4573549765252631
 40
0.5688511725184858
 40
0.6827915680646403
 40
0.7975816257159882
 40
0.8984931750215058
 40
1.0
 40
1.0
 40
1.0
 40
1.0
 10
110.7555249630597
 20
90.05165560214918
 30
0.0
 10
110.7557729921253
 20
90.05163993880797
 30
0.0
 10
110.7600091394774
 20
90.05137242088104
 30
0.0
 10
110.7440867668942
 20
90.052369447157
 30
0.0
 10
110.7050747160992
 20
90.05488575857672
 30
0.0
 10
110.6366215554934
 20
90.0595834327459
 30
0.0
 10
110.543869851112
 20
90.06653328268824
 30
0.0
 10
110.4265782086861
 20
90.07626277172623
 30
0.0
 10
110.2837415860116
 20
90.08950977742425
 30
0.0
 10
110.1221921904234
 20
90.10649686625574
 30
0.0
 10
109.9483888507948
 20
90.12678950663341
 30
0.0
 10
109.8237695214583
 20
90.14355494423079
 30
0.0
 10
109.7612766153837
 20
90.1519623150829
 30
0.0
  0
LINE
  5
EC
330
1F
100
AcDbEntity
  8
0
  6
HIDDEN
 62
     7
370
     0
100
AcDbLine
 10
97.01024921
 20
92.9894907909
 30
0.0
 11
97.01024921
 21
126.9894907909
 31
0.0
  0
LWPOLYLINE
  5
ED
330
1F
100
AcDbEntity
  8
0
  6
HIDDEN
 62
     7
370
     0
100
AcDbPolyline
 90
       14
 70
   128
 43
0.0
 10
124.0062746138
 20
131.9350932055
 10
124.7866359018
 20
131.9735226447
 10
125.5370083432
 20
132.0873341405
 10
126.2285555459
 20
132.2721539809
 10
126.8347017385
 20
132.5208796432
 10
127.332153063
 20
132.8239527395
 10
127.7017927438
 20
133.1697263408
 10
127.9294157354
 20
133.5449125615
 10
128.0062746138
 20
133.9350932055
 10
127.9294157354
 20
134.3252738496
 10
127.7017927438
 20
134.7004600703
 10
127.332153063
 20
135.0462336716
 10
126.8347017385
 20
135.3493067679
 10
126.3774299091
 20
135.5458090841
  0
LWPOLYLINE
  5
EE
330
1F
100
AcDbEntity
  8
0
  6
HIDDEN
 62
     7
370
     0
100
AcDbPolyline
 90
       14
 70
   128
 43
0.0
 10
121.6408132795
 20
135.547900748
 10
121.177847489
 20
135.3493067679
 10
120.6803961646
 20
135.0462336716
 10
120.3107564837
 20
134.7004600703
 10
120.0831334922
 20
134.3252738496
 10
120.0062746138
 20
133.9350932055
 10
120.0831334922
 20
133.5449125615
 10
120.3107564837
 20
133.1697263408
 10
120.6803961646
 20
132.8239527395
 10
121.177847489
 20
132.5208796432
 10
121.7839936817
 20
132.2721539809
 10
122.4755408843
 20
132.0873341405
 10
123.2259133257
 20
131.9735226447
 10
124.0062746138
 20
131.9350932055
  0
SPLINE
  5
EF
330
1F
100
AcDbEntity
  8
0
  6
HIDDEN
 62
     7
370
     0
100
AcDbSpline
210
0.0
220
0.0
230
1.0
 70
     8
 71
     3
 72
    11
 73
     7
 74
     0
 42
0.00000001
 43
0.00000001
 40
0.0
 40
0.0
 40
0.0
 40
0.0
 40
0.0005779865010845
 40
0.0005779865010845
 40
0.0005779865010845
 40
0.0011559733324421
 40
0.0011559733324421
 40
0.0011559733324421
 40
0.0011559733324421
 10
84.10627461378212
 20
111.9893313990592
 30
0.0
 10
84.27294186858808
 20
111.9873477597182
 30
0.0
 10
84.43960829826572
 20
111.9853101527096
 30
0.0
 10
84.60627463671754
 20
111.9831986893032
 30
0.0
 10
84.77294106554396
 20
111.9810872247519
 30
0.0
 10
84.93960743918166
 20
111.9789016615955
 30
0.0
 10
85.1062746137821
 20
111.9766190842639
 30
0.0
  0
SPLINE
  5
F0
330
1F
100
AcDbEntity
  8
0
  6
HIDDEN
 62
     7
370
     0
100
AcDbSpline
210
0.0
220
0.0
230
1.0
 70
     8
 71
     3
 72
     8
 73
     4
 74
     0
 42
0.00000001
 43
0.00000001
 40
0.0
 40
0.0
 40
0.0
 40
0.0
 40
0.0011564765856722
 40
0.0011564765856722
 40
0.0011564765856722
 40
0.0011564765856722
 10
85.10627461378209
 20
107.9927904886831
 30
0.0
 10
84.77296668321324
 20
107.9919153330998
 30
0.0
 10
84.43963145082105
 20
107.9908604818483
 30
0.0
 10
84.10627461378209
 20
107.9896893948107
 30
0.0
  0
LINE
  5
F1
330
1F
100
AcDbEntity
  8
0
  6
HIDDEN
 62
     7
370
     0
100
AcDbLine
 10
123.6661005823
 20
92.9894907909
 30
0.0
 11
123.6661005823
 21
126.9894907909
 31
0.0
  0
LINE
  5
F2
330
1F
100
AcDbEntity
  8
0
  6
HIDDEN
 62
     7
370
     0
100
AcDbLine
 10
125.9562746138
 20
94.2644907909
 30
0.0
 11
125.9562746138
 21
125.7144907903
 31
0.0
  0
SPLINE
  5
F3
330
1F
100
AcDbEntity
  8
0
  6
HIDDEN
 62
     7
370
     0
100
AcDbSpline
210
0.0
220
0.0
230
1.0
 70
     8
 71
     3
 72
    16
 73
    12
 74
     0
 42
0.00000001
 43
0.00000001
 40
0.0
 40
0.0
 40
0.0
 40
0.0
 40
0.124999999999998
 40
0.124999999999998
 40
0.249999999999996
 40
0.249999999999996
 40
0.4999999999999973
 40
0.4999999999999973
 40
0.7499999999999987
 40
0.7499999999999987
 40
1.0
 40
1.0
 40
1.0
 40
1.0
 10
92.80627461378211
 20
94.1880003548677
 30
0.0
 10
92.90139636844793
 20
94.1880003548677
 30
0.0
 10
92.994726437176
 20
94.18418452147489
 30
0.0
 10
93.177988197914
 20
94.16941396874509
 30
0.0
 10
93.26886591347102
 20
94.1582559207695
 30
0.0
 10
93.52566761099075
 20
94.11578465062779
 30
0.0
 10
93.68073497586273
 20
94.07473845342498
 30
0.0
 10
93.93448143741736
 20
93.9795923368431
 30
0.0
 10
94.03535188908522
 20
93.92482960276152
 30
0.0
 10
94.17059830378007
 20
93.81356847885763
 30
0.0
 10
94.2062746137821
 20
93.75639874152895
 30
0.0
 10
94.2062746137821
 20
93.70197716849523
 30
0.0
  0
SPLINE
  5
F4
330
1F
100
AcDbEntity
  8
0
  6
HIDDEN
 62
     7
370
     0
100
AcDbSpline
210
0.0
220
0.0
230
1.0
 70
     8
 71
     3
 72
     8
 73
     4
 74
     0
 42
0.00000001
 43
0.00000001
 40
0.0
 40
0.0
 40
0.0
 40
0.0
 40
1.0
 40
1.0
 40
1.0
 40
1.0
 10
85.4062746170973
 20
96.33280330094993
 30
0.0
 10
85.40627461709923
 20
95.44890615863301
 30
0.0
 10
85.39279399118944
 20
94.73432291357106
 30
0.0
 10
85.39144262300012
 20
94.1880003548677
 30
0.0
  0
SPLINE
  5
F5
330
1F
100
AcDbEntity
  8
0
  6
HIDDEN
 62
     7
370
     0
100
AcDbSpline
210
0.0
220
0.0
230
1.0
 70
     8
 71
     3
 72
    10
 73
     6
 74
     0
 42
0.00000001
 43
0.00000001
 40
0.0
 40
0.0
 40
0.0
 40
0.0
 40
0.5
 40
0.5
 40
1.0
 40
1.0
 40
1.0
 40
1.0
 10
85.10627461378209
 20
97.35771356665315
 30
0.0
 10
85.197665729475
 20
97.18307477903572
 30
0.0
 10
85.27031756320807
 20
97.00947295178014
 30
0.0
 10
85.37781645621621
 20
96.66585953277342
 30
0.0
 10
85.40627461709167
 20
96.49753370624198
 30
0.0
 10
85.4062746170973
 20
96.3328033010094
 30
0.0
  0
LINE
  5
F6
330
1F
100
AcDbEntity
  8
0
  6
HIDDEN
 62
     7
370
     0
100
AcDbLine
 10
85.1062746138
 20
100.3886639985
 30
0.0
 11
85.1062746138
 21
97.3577135667
 31
0.0
  0
SPLINE
  5
F7
330
1F
100
AcDbEntity
  8
0
  6
HIDDEN
 62
     7
370
     0
100
AcDbSpline
210
0.0
220
0.0
230
1.0
 70
     8
 71
     3
 72
    10
 73
     6
 74
     0
 42
0.00000001
 43
0.00000001
 40
0.0
 40
0.0
 40
0.0
 40
0.0
 40
0.5
 40
0.5
 40
1.0
 40
1.0
 40
1.0
 40
1.0
 10
85.40627461696981
 20
101.7565044152565
 30
0.0
 10
85.40627461696978
 20
101.5145204476497
 30
0.0
 10
85.37812458789921
 20
101.2801780186847
 30
0.0
 10
85.27453467375682
 20
100.824802996407
 30
0.0
 10
85.1979059641653
 20
100.6031984332997
 30
0.0
 10
85.1062746137821
 20
100.3886639985017
 30
0.0
  0
LINE
  5
F8
330
1F
100
AcDbEntity
  8
0
  6
HIDDEN
 62
     7
370
     0
100
AcDbLine
 10
85.406274617
 20
113.5941244125
 30
0.0
 11
85.406274617
 21
101.7565044152
 31
0.0
  0
SPLINE
  5
F9
330
1F
100
AcDbEntity
  8
0
  6
HIDDEN
 62
     7
370
     0
100
AcDbSpline
210
0.0
220
0.0
230
1.0
 70
     8
 71
     3
 72
     8
 73
     4
 74
     0
 42
0.00000001
 43
0.00000001
 40
0.0
 40
0.0
 40
0.0
 40
0.0
 40
1.0
 40
1.0
 40
1.0
 40
1.0
 10
85.10627461378209
 20
119.5964301119677
 30
0.0
 10
85.28730608034101
 20
119.164322626305
 30
0.0
 10
85.40627461697554
 20
118.7101772202054
 30
0.0
 10
85.40627461696982
 20
118.2224771665113
 30
0.0
  0
LINE
  5
FA
330
1F
100
AcDbEntity
  8
0
  6
HIDDEN
 62
     7
370
     0
100
AcDbLine
 10
85.1062746138
 20
122.6296330979
 30
0.0
 11
85.1062746138
 21
119.596430112
 31
0.0
  0
SPLINE
  5
FB
330
1F
100
AcDbEntity
  8
0
  6
HIDDEN
 62
     7
370
     0
100
AcDbSpline
210
0.0
220
0.0
230
1.0
 70
     8
 71
     3
 72
    10
 73
     6
 74
     0
 42
0.00000001
 43
0.00000001
 40
0.0
 40
0.0
 40
0.0
 40
0.0
 40
0.5
 40
0.5
 40
1.0
 40
1.0
 40
1.0
 40
1.0
 10
85.40627461717531
 20
123.6461782808192
 30
0.0
 10
85.40627461717352
 20
123.4815419342132
 30
0.0
 10
85.37911594641803
 20
123.3143867103827
 30
0.0
 10
85.2733509510996
 20
122.9757637025811
 30
0.0
 10
85.19693616280247
 20
122.80349192529
 30
0.0
 10
85.10627461378212
 20
122.629633097946
 30
0.0
  0
SPLINE
  5
FC
330
1F
100
AcDbEntity
  8
0
  6
HIDDEN
 62
     7
370
     0
100
AcDbSpline
210
0.0
220
0.0
230
1.0
 70
     8
 71
     3
 72
    18
 73
    14
 74
     0
 42
0.00000001
 43
0.00000001
 40
0.0
 40
0.0
 40
0.0
 40
0.0
 40
0.2500000000000033
 40
0.2500000000000033
 40
0.3750000000000029
 40
0.3750000000000029
 40
0.5000000000000026
 40
0.5000000000000026
 40
0.6250000000000022
 40
0.6250000000000022
 40
0.7500000000000018
 40
0.7500000000000018
 40
1.0
 40
1.0
 40
1.0
 40
1.0
 10
90.20627461378211
 20
126.2770044133035
 30
0.0
 10
90.2062746137821
 20
126.2225298927513
 30
0.0
 10
90.17136392238992
 20
126.1661488333988
 30
0.0
 10
90.06935462105687
 20
126.0820719925453
 30
0.0
 10
90.02771826637876
 20
126.0547382885544
 30
0.0
 10
89.92931247089003
 20
126.0017843729554
 30
0.0
 10
89.87176925918574
 20
125.9758970192382
 30
0.0
 10
89.74447108561279
 20
125.928119474405
 30
0.0
 10
89.67488378085532
 20
125.9061715562271
 30
0.0
 10
89.52344953570037
 20
125.8667389913144
 30
0.0
 10
89.44076563260641
 20
125.8491827420885
 30
0.0
 10
89.18465417056836
 20
125.806743976668
 30
0.0
 10
88.99673916668038
 20
125.790981226931
 30
0.0
 10
88.8062746137821
 20
125.790981226931
 30
0.0
  0
LINE
  5
FD
330
1F
100
AcDbEntity
  8
0
  6
HIDDEN
 62
     7
370
     0
100
AcDbLine
 10
88.8062746138
 20
125.7909812269
 30
0.0
 11
85.4062746172
 21
125.7909812269
 31
0.0
  0
LINE
  5
FE
330
1F
100
AcDbEntity
  8
0
  6
HIDDEN
 62
     7
370
     0
100
AcDbLine
 10
85.3373056271
 20
94.1880003549
 30
0.0
 11
92.8062746138
 21
94.1880003549
 31
0.0
  0
SPLINE
  5
FF
330
1F
100
AcDbEntity
  8
0
  6
HIDDEN
 62
     7
370
     0
100
AcDbSpline
210
0.0
220
0.0
230
1.0
 70
     8
 71
     3
 72
    22
 73
    18
 74
     0
 42
0.00000001
 43
0.00000001
 40
0.0
 40
0.0
 40
0.0
 40
0.0
 40
0.1249999999999998
 40
0.1249999999999998
 40
0.2499999999999995
 40
0.2499999999999995
 40
0.4999999999999992
 40
0.4999999999999992
 40
0.5624999999999993
 40
0.5624999999999993
 40
0.6249999999999994
 40
0.6249999999999994
 40
0.7499999999999996
 40
0.7499999999999996
 40
0.8749999999999998
 40
0.8749999999999998
 40
1.0
 40
1.0
 40
1.0
 40
1.0
 10
85.33730562714003
 20
94.1880003548677
 30
0.0
 10
85.32422323441166
 20
94.44310606501537
 30
0.0
 10
85.31100367097183
 20
94.73626432411928
 30
0.0
 10
85.28855649317771
 20
95.39856478974409
 30
0.0
 10
85.27907802615324
 20
95.76883871035547
 30
0.0
 10
85.25988006521668
 20
96.99139551346924
 30
0.0
 10
85.26099383821358
 20
97.92853443960112
 30
0.0
 10
85.27990463116664
 20
99.24840566911611
 30
0.0
 10
85.28453415902565
 20
99.51990757809243
 30
0.0
 10
85.29501537877161
 20
100.0782924128947
 30
0.0
 10
85.30081064005603
 20
100.3654152688343
 30
0.0
 10
85.31911986096097
 20
101.238004523206
 30
0.0
 10
85.33315479524133
 20
101.8384601995619
 30
0.0
 10
85.36261196737814
 20
103.0759346920579
 30
0.0
 10
85.37816765835971
 20
103.7129508487014
 30
0.0
 10
85.40196220835661
 20
105.024439446386
 30
0.0
 10
85.40998126050198
 20
105.7005620580465
 30
0.0
 10
85.4062746137821
 20
106.3848571693313
 30
0.0
  0
LINE
  5
100
330
1F
100
AcDbEntity
  8
0
  6
HIDDEN
 62
     7
370
     0
100
AcDbLine
 10
85.4062746172
 20
113.5941244125
 30
0.0
 11
85.4062746172
 21
125.7909812269
 31
0.0
  0
SPLINE
  5
101
330
1F
100
AcDbEntity
  8
0
  6
HIDDEN
 62
     7
370
     0
100
AcDbSpline
210
0.0
220
0.0
230
1.0
 70
     8
 71
     3
 72
    10
 73
     6
 74
     0
 42
0.00000001
 43
0.00000001
 40
0.0
 40
0.0
 40
0.0
 40
0.0
 40
0.5
 40
0.5
 40
1.0
 40
1.0
 40
1.0
 40
1.0
 10
85.4062746137821
 20
106.3848571693162
 30
0.0
 10
85.40627461378192
 20
106.6587723173905
 30
0.0
 10
85.38051538391422
 20
106.9297138961206
 30
0.0
 10
85.27730945118108
 20
107.4654049777235
 30
0.0
 10
85.19997128730586
 20
107.7311517812455
 30
0.0
 10
85.10627461378209
 20
107.9927904886831
 30
0.0
  0
SPLINE
  5
102
330
1F
100
AcDbEntity
  8
0
  6
HIDDEN
 62
     7
370
     0
100
AcDbSpline
210
0.0
220
0.0
230
1.0
 70
     8
 71
     3
 72
    10
 73
     6
 74
     0
 42
0.00000001
 43
0.00000001
 40
0.0
 40
0.0
 40
0.0
 40
0.0
 40
0.5
 40
0.5
 40
1.0
 40
1.0
 40
1.0
 40
1.0
 10
85.10627461378209
 20
111.9766190842639
 30
0.0
 10
85.1995051951731
 20
112.240512892334
 30
0.0
 10
85.27453480740986
 20
112.5066932029723
 30
0.0
 10
85.379601906588
 20
113.0450157779304
 30
0.0
 10
85.40627461717419
 20
113.317763894176
 30
0.0
 10
85.40627461717537
 20
113.5941244124665
 30
0.0
  0
LINE
  5
103
330
1F
100
AcDbEntity
  8
0
  6
HIDDEN
 62
     7
370
     0
100
AcDbLine
 10
85.1062746138
 20
107.9927904887
 30
0.0
 11
85.1062746138
 21
111.9766190843
 31
0.0
  0
LINE
  5
104
330
1F
100
AcDbEntity
  8
0
  6
HIDDEN
 62
     7
370
     0
100
AcDbLine
 10
85.2562746138
 20
91.9994907909
 30
0.0
 11
85.2562746138
 21
89.1195530255
 31
0.0
  0
LINE
  5
105
330
1F
100
AcDbEntity
  8
0
  6
HIDDEN
 62
     7
370
     0
100
AcDbLine
 10
94.2062746138
 20
91.9994907909
 30
0.0
 11
94.2062746138
 21
88.0257532597
 31
0.0
  0
LINE
  5
106
330
1F
100
AcDbEntity
  8
0
  6
HIDDEN
 62
     7
370
     0
100
AcDbLine
 10
85.2562746138
 20
127.9794907909
 30
0.0
 11
85.2562746138
 21
130.8594285563
 31
0.0
  0
LINE
  5
107
330
1F
100
AcDbEntity
  8
0
  6
HIDDEN
 62
     7
370
     0
100
AcDbLine
 10
90.2062746138
 20
127.9794907909
 30
0.0
 11
90.2062746138
 21
131.8335984633
 31
0.0
  0
LINE
  5
108
330
1F
100
AcDbEntity
  8
0
  6
HIDDEN
 62
     7
370
     0
100
AcDbLine
 10
137.8062746138
 20
100.4894907909
 30
0.0
 11
137.8062746138
 21
119.4894907909
 31
0.0
  0
LINE
  5
109
330
1F
100
AcDbEntity
  8
0
  6
HIDDEN
 62
     7
370
     0
100
AcDbLine
 10
134.8062746138
 20
100.4894907909
 30
0.0
 11
134.8062746138
 21
119.4894907909
 31
0.0
  0
LINE
  5
10A
330
1F
100
AcDbEntity
  8
0
  6
HIDDEN
 62
     7
370
     0
100
AcDbLine
 10
126.4562746138
 20
101.4894907909
 30
0.0
 11
126.4562746138
 21
118.4894907909
 31
0.0
  0
LINE
  5
10B
330
1F
100
AcDbEntity
  8
0
  6
HIDDEN
 62
     7
370
     0
100
AcDbLine
 10
132.1939494161
 20
83.5894907909
 30
0.0
 11
128.9562746138
 21
83.5894907909
 31
0.0
  0
LINE
  5
10C
330
1F
100
AcDbEntity
  8
0
  6
HIDDEN
 62
     7
370
     0
100
AcDbLine
 10
141.9562746138
 20
83.5894907909
 30
0.0
 11
135.8185998114
 21
83.5894907909
 31
0.0
  0
LINE
  5
10D
330
1F
100
AcDbEntity
  8
0
  6
HIDDEN
 62
     7
370
     0
100
AcDbLine
 10
120.9562746138
 20
78.505367808
 30
0.0
 11
120.9562746138
 21
83.5894907909
 31
0.0
  0
LINE
  5
10E
330
1F
100
AcDbEntity
  8
0
  6
HIDDEN
 62
     7
370
     0
100
AcDbLine
 10
128.9562746138
 20
83.5894907909
 30
0.0
 11
120.9562746138
 21
83.5894907909
 31
0.0
  0
LINE
  5
10F
330
1F
100
AcDbEntity
  8
0
  6
HIDDEN
 62
     7
370
     0
100
AcDbLine
 10
141.9562746138
 20
136.3894907909
 30
0.0
 11
135.5219770821
 21
136.3894907909
 31
0.0
  0
LINE
  5
110
330
1F
100
AcDbEntity
  8
0
  6
HIDDEN
 62
     7
370
     0
100
AcDbLine
 10
128.9562746138
 20
136.3894907909
 30
0.0
 11
120.9562746138
 21
136.3894907909
 31
0.0
  0
LINE
  5
111
330
1F
100
AcDbEntity
  8
0
  6
HIDDEN
 62
     7
370
     0
100
AcDbLine
 10
132.4905721455
 20
136.3894907909
 30
0.0
 11
128.9562746138
 21
136.3894907909
 31
0.0
  0
SPLINE
  5
112
330
1F
100
AcDbEntity
  8
0
  6
HIDDEN
 62
     7
370
     0
100
AcDbSpline
210
0.0
220
0.0
230
1.0
 70
     8
 71
     3
 72
    11
 73
     7
 74
     0
 42
0.00000001
 43
0.00000001
 40
0.0
 40
0.0
 40
0.0
 40
0.0
 40
0.0008203708524183
 40
0.0008203708524183
 40
0.0008203708524183
 40
0.0016409967870154
 40
0.0016409967870154
 40
0.0016409967870154
 40
0.0016409967870154
 10
85.2562746137821
 20
94.13745804025662
 30
0.0
 10
85.06511631348344
 20
94.09627901163749
 30
0.0
 10
84.87368924341126
 20
94.05752503940748
 30
0.0
 10
84.68204361989064
 20
94.02115728012895
 30
0.0
 10
84.49033821481018
 20
93.98477817636291
 30
0.0
 10
84.29839926275122
 20
93.95078392559536
 30
0.0
 10
84.1062746156804
 20
93.91913580020416
 30
0.0
  0
ELLIPSE
  5
113
330
1F
100
AcDbEntity
  8
0
  6
HIDDEN
 62
     7
370
     0
100
AcDbEllipse
 10
79.8638427452
 20
109.9894907909
 30
0.0
 11
20.19992453366626
 21
-1.421085471520200E-14
 31
0.0
210
0.0
220
0.0
230
1.0
 40
0.8164965809
 41
1.300566354718001
 42
1.359198697209605
  0
LINE
  5
114
330
1F
100
AcDbEntity
  8
0
  6
HIDDEN
 62
     7
370
     0
100
AcDbLine
 10
202.5062746138
 20
103.9894907909
 30
0.0
 11
202.5062746138
 21
115.9894907909
 31
0.0
  0
SPLINE
  5
115
330
1F
100
AcDbEntity
  8
0
  6
HIDDEN
 62
     7
370
     0
100
AcDbSpline
210
0.0
220
0.0
230
1.0
 70
     8
 71
     3
 72
    17
 73
    13
 74
     0
 42
0.00000001
 43
0.00000001
 40
0.0
 40
0.0
 40
0.0
 40
0.0
 40
0.1037687820445087
 40
0.210602412874052
 40
0.3143559180242188
 40
0.4210186355765065
 40
0.5266328029869486
 40
0.63523096105305
 40
0.7420769577904252
 40
0.8521325120066482
 40
0.9569843285680553
 40
1.0
 40
1.0
 40
1.0
 40
1.0
 10
161.6075133698014
 20
116.1083142072107
 30
0.0
 10
161.6893083306582
 20
116.1092721752182
 30
0.0
 10
161.8553140963421
 20
116.1112164051673
 30
0.0
 10
162.0960361119497
 20
116.126405982069
 30
0.0
 10
162.3248649823326
 20
116.1489115887718
 30
0.0
 10
162.5328806385274
 20
116.1768761930878
 30
0.0
 10
162.7181891397185
 20
116.2075451321358
 30
0.0
 10
162.8724648053159
 20
116.2372136951867
 30
0.0
 10
162.9936228056775
 20
116.2631024844592
 30
0.0
 10
163.0712898944886
 20
116.2808782799138
 30
0.0
 10
163.1081220560454
 20
116.2896345973831
 30
0.0
 10
163.1036154046362
 20
116.2885642988328
 30
0.0
 10
163.1023043886793
 20
116.2882529416075
 30
0.0
  0
LINE
  5
116
330
1F
100
AcDbEntity
  8
0
  6
HIDDEN
 62
     7
370
     0
100
AcDbLine
 10
161.7078964064
 20
116.1103168262
 30
0.0
 11
161.5812591638
 21
116.1087534399
 31
0.0
  0
SPLINE
  5
117
330
1F
100
AcDbEntity
  8
0
  6
HIDDEN
 62
     7
370
     0
100
AcDbSpline
210
0.0
220
0.0
230
1.0
 70
     8
 71
     3
 72
    17
 73
    13
 74
     0
 42
0.00000001
 43
0.00000001
 40
0.0
 40
0.0
 40
0.0
 40
0.0
 40
0.0821226100939132
 40
0.1885270672755718
 40
0.2915213507943827
 40
0.3973795741053672
 40
0.5026494428257582
 40
0.6108736476404989
 40
0.7177583927959047
 40
0.8278323811871239
 40
0.913082121788185
 40
1.0
 40
1.0
 40
1.0
 40
1.0
 10
160.1107622880727
 20
116.2887197111844
 30
0.0
 10
160.1118954567538
 20
116.2884470068582
 30
0.0
 10
160.1144968471375
 20
116.2878209655428
 30
0.0
 10
160.1667203906177
 20
116.2755236331615
 30
0.0
 10
160.2574909538525
 20
116.2551825622068
 30
0.0
 10
160.3852066517738
 20
116.2286628660028
 30
0.0
 10
160.548068886647
 20
116.1985274642656
 30
0.0
 10
160.7411163751439
 20
116.1682180344374
 30
0.0
 10
160.9620121643499
 20
116.1408010938743
 30
0.0
 10
161.1853518872468
 20
116.1216100786216
 30
0.0
 10
161.4033482101574
 20
116.1103081541993
 30
0.0
 10
161.5390201400189
 20
116.1089831355896
 30
0.0
 10
161.6075133698014
 20
116.1083142072107
 30
0.0
  0
SPLINE
  5
118
330
1F
100
AcDbEntity
  8
0
  6
HIDDEN
 62
     7
370
     0
100
AcDbSpline
210
0.0
220
0.0
230
1.0
 70
     8
 71
     3
 72
    26
 73
    22
 74
     0
 42
0.00000001
 43
0.00000001
 40
0.0
 40
0.0
 40
0.0
 40
0.0
 40
0.0519111261485146
 40
0.1053531762961742
 40
0.15725730649823
 40
0.2106199625145114
 40
0.2633999566746214
 40
0.3176692172864121
 40
0.3711038661191962
 40
0.4261427701719372
 40
0.4785856815712757
 40
0.5326182109985023
 40
0.5839595099027834
 40
0.6367655693078492
 40
0.6886125762382544
 40
0.7418897763437632
 40
0.7950462581831136
 40
0.8497328180665606
 40
0.9029973160868547
 40
0.9578785649270103
 40
1.0
 40
1.0
 40
1.0
 40
1.0
 10
163.1075133698014
 20
103.6894907908994
 30
0.0
 10
163.1036293760806
 20
103.6904213122864
 30
0.0
 10
163.095746844809
 20
103.6923097972992
 30
0.0
 10
163.0324324671231
 20
103.7071109210025
 30
0.0
 10
162.9325704176342
 20
103.7291826044806
 30
0.0
 10
162.7964969744313
 20
103.7568262488577
 30
0.0
 10
162.6258346230788
 20
103.7874061310803
 30
0.0
 10
162.4264081267206
 20
103.8173212629391
 30
0.0
 10
162.2004192544064
 20
103.8435008068902
 30
0.0
 10
161.9592557198788
 20
103.8622362392101
 30
0.0
 10
161.7067825729499
 20
103.8715979109267
 30
0.0
 10
161.4570218362953
 20
103.8705046953024
 30
0.0
 10
161.2112847732461
 20
103.8593896568685
 30
0.0
 10
160.9799699121367
 20
103.8399257308985
 30
0.0
 10
160.7634238999081
 20
103.8138399633975
 30
0.0
 10
160.5695577241356
 20
103.7841146002163
 30
0.0
 10
160.401336502966
 20
103.7535157840363
 30
0.0
 10
160.2666776688917
 20
103.7258105589064
 30
0.0
 10
160.1701805096259
 20
103.7042668906588
 30
0.0
 10
160.1149881828653
 20
103.6912782677271
 30
0.0
 10
160.1119425920238
 20
103.6905459569856
 30
0.0
 10
160.1106201063799
 20
103.690227965997
 30
0.0
  0
LINE
  5
119
330
1F
100
AcDbEntity
  8
0
  6
HIDDEN
 62
     7
370
     0
100
AcDbLine
 10
159.5062746138
 20
104.0894907909
 30
0.0
 11
159.5062746138
 21
115.8894905859
 31
0.0
  0
LINE
  5
11A
330
1F
100
AcDbEntity
  8
0
  6
HIDDEN
 62
     7
370
     0
100
AcDbLine
 10
170.0062746138
 20
103.9894907909
 30
0.0
 11
170.0062746138
 21
115.9894907909
 31
0.0
  0
LINE
  5
11B
330
1F
100
AcDbEntity
  8
0
  6
HIDDEN
 62
     7
370
     0
100
AcDbLine
 10
85.2562746138
 20
91.9994907909
 30
0.0
 11
85.2562746138
 21
94.1374580403
 31
0.0
  0
LINE
  5
11C
330
1F
100
AcDbEntity
  8
0
  6
HIDDEN
 62
     7
370
     0
100
AcDbLine
 10
85.3373056271
 20
94.1880003549
 30
0.0
 11
85.2562746138
 21
94.1374580403
 31
0.0
  0
LINE
  5
11D
330
1F
100
AcDbEntity
  8
0
  6
HIDDEN
 62
     7
370
     0
100
AcDbLine
 10
94.2062746138
 20
91.9994907909
 30
0.0
 11
94.2062746138
 21
93.7019771685
 31
0.0
  0
LINE
  5
11E
330
1F
100
AcDbEntity
  8
0
  6
HIDDEN
 62
     7
370
     0
100
AcDbLine
 10
90.2062746138
 20
127.9794907909
 30
0.0
 11
90.2062746138
 21
126.2770044133
 31
0.0
  0
LINE
  5
11F
330
1F
100
AcDbEntity
  8
0
  6
HIDDEN
 62
     7
370
     0
100
AcDbLine
 10
85.2562746138
 20
127.9794907909
 30
0.0
 11
85.2562746138
 21
125.884115242
 31
0.0
  0
SPLINE
  5
120
330
1F
100
AcDbEntity
  8
0
  6
HIDDEN
 62
     7
370
     0
100
AcDbSpline
210
0.0
220
0.0
230
1.0
 70
     8
 71
     3
 72
     8
 73
     4
 74
     0
 42
0.00000001
 43
0.00000001
 40
0.0
 40
0.0
 40
0.0
 40
0.0
 40
1.0
 40
1.0
 40
1.0
 40
1.0
 10
85.2562746137821
 20
125.884115241958
 30
0.0
 10
85.30628011272584
 20
125.8530794677389
 30
0.0
 10
85.35628018339025
 20
125.8220348227113
 30
0.0
 10
85.40627461717537
 20
125.790981226931
 30
0.0
  0
SPLINE
  5
121
330
1F
100
AcDbEntity
  8
0
  6
HIDDEN
 62
     7
370
     0
100
AcDbSpline
210
0.0
220
0.0
230
1.0
 70
     8
 71
     3
 72
    20
 73
    16
 74
     0
 42
0.00000001
 43
0.00000001
 40
0.0
 40
0.0
 40
0.0
 40
0.0
 40
0.1118788084249386
 40
0.1773981012687094
 40
0.2490197668240648
 40
0.329768334765919
 40
0.3985408365377998
 40
0.4998207233727893
 40
0.6137860153378202
 40
0.6789520418144643
 40
0.749478650230513
 40
0.8296247309384172
 40
0.8980685056598711
 40
0.9994790663680719
 40
1.0
 40
1.0
 40
1.0
 40
1.0
 10
110.7549429214558
 20
86.38954299221004
 30
0.0
 10
110.7116433933221
 20
86.40296397277025
 30
0.0
 10
110.6429864762089
 20
86.42424464693963
 30
0.0
 10
110.1979310019911
 20
86.52752618525027
 30
0.0
 10
109.6713792791402
 20
86.64082803381524
 30
0.0
 10
108.9859523059663
 20
86.76376131346252
 30
0.0
 10
108.0926354098001
 20
86.88579566381219
 30
0.0
 10
106.979275877161
 20
87.0035320208529
 30
0.0
 10
105.8685016779082
 20
87.01550747736911
 30
0.0
 10
104.9837537870185
 20
86.98844926890949
 30
0.0
 10
104.316555666236
 20
86.94051691426895
 30
0.0
 10
103.7752894233122
 20
86.88422458893754
 30
0.0
 10
103.387685670665
 20
86.83913716701238
 30
0.0
 10
103.1937692830014
 20
86.8002671556983
 30
0.0
 10
103.2569353810777
 20
86.81098462486014
 30
0.0
 10
103.2572581993106
 20
86.8110393978248
 30
0.0
  0
LINE
  5
122
330
1F
100
AcDbEntity
  8
0
  6
HIDDEN
 62
     7
370
     0
100
AcDbLine
 10
104.1662865304
 20
86.9218289348
 30
0.0
 11
104.3501318393
 21
86.9400182769
 31
0.0
  0
SPLINE
  5
123
330
1F
100
AcDbEntity
  8
0
  6
HIDDEN
 62
     7
370
     0
100
AcDbSpline
210
0.0
220
0.0
230
1.0
 70
     8
 71
     3
 72
    27
 73
    23
 74
     0
 42
0.00000001
 43
0.00000001
 40
0.0
 40
0.0
 40
0.0
 40
0.0
 40
0.0007986283682315
 40
0.0456810375302914
 40
0.1022625742336531
 40
0.1705405088731476
 40
0.2091320930954347
 40
0.2506592375300281
 40
0.321104854377626
 40
0.3861984404883295
 40
0.4266774980765591
 40
0.4648086641004396
 40
0.5006128992947348
 40
0.5452045620330216
 40
0.6016986895013611
 40
0.6701045084715413
 40
0.7088417503414266
 40
0.7505704008281706
 40
0.8222348230090799
 40
0.8877740984606644
 40
0.9472477180834891
 40
1.0
 40
1.0
 40
1.0
 40
1.0
 10
103.2569350028821
 20
133.1679066753712
 30
0.0
 10
103.256715437416
 20
133.1679540055738
 30
0.0
 10
103.2441564316292
 20
133.1706612632286
 30
0.0
 10
103.2932360374716
 20
133.1588285899479
 30
0.0
 10
103.4383366466292
 20
133.1353852876731
 30
0.0
 10
103.711390013987
 20
133.1014808618056
 30
0.0
 10
104.039916300985
 20
133.0679121093168
 30
0.0
 10
104.432644117261
 20
133.029728759019
 30
0.0
 10
104.9823720703997
 20
132.9907600915509
 30
0.0
 10
105.6083947215192
 20
132.9712989857944
 30
0.0
 10
106.1515862309994
 20
132.9691133081734
 30
0.0
 10
106.5966551280521
 20
132.9776281893111
 30
0.0
 10
107.0631029244197
 20
132.9974115862349
 30
0.0
 10
107.6003435738401
 20
133.0415739718099
 30
0.0
 10
108.2485570032824
 20
133.113989591484
 30
0.0
 10
108.8340956386036
 20
133.1948916860161
 30
0.0
 10
109.3150652402953
 20
133.2730576712414
 30
0.0
 10
109.7604801920587
 20
133.3578298241957
 30
0.0
 10
110.1989795632678
 20
133.4516127780309
 30
0.0
 10
110.538006086909
 20
133.5295168660858
 30
0.0
 10
110.7253559696645
 20
133.5797109493112
 30
0.0
 10
110.7458462273996
 20
133.5863776668464
 30
0.0
 10
110.7554777637718
 20
133.5895113869418
 30
0.0
  0
LINE
  5
124
330
1F
100
AcDbEntity
  8
0
  6
HIDDEN
 62
     7
370
     0
100
AcDbLine
 10
155.4562746138
 20
95.5668410601
 30
0.0
 11
150.4562746138
 21
95.5668410601
 31
0.0
  0
LINE
  5
125
330
1F
100
AcDbEntity
  8
0
  6
HIDDEN
 62
     7
370
     0
100
AcDbLine
 10
152.9562746138
 20
124.4121405217
 30
0.0
 11
155.4562746138
 21
124.4121405217
 31
0.0
  0
LINE
  5
126
330
1F
100
AcDbEntity
  8
0
  6
HIDDEN
 62
     7
370
     0
100
AcDbLine
 10
150.4562746138
 20
124.4121405217
 30
0.0
 11
152.9562746138
 21
124.4121405217
 31
0.0
  0
LINE
  5
127
330
1F
100
AcDbEntity
  8
0
  6
HIDDEN
 62
     7
370
     0
100
AcDbLine
 10
152.9562746138
 20
116.9894907909
 30
0.0
 11
155.4562746138
 21
116.9894907909
 31
0.0
  0
LINE
  5
128
330
1F
100
AcDbEntity
  8
0
  6
HIDDEN
 62
     7
370
     0
100
AcDbLine
 10
150.4562746138
 20
116.9894907909
 30
0.0
 11
152.9562746138
 21
116.9894907909
 31
0.0
  0
LINE
  5
129
330
1F
100
AcDbEntity
  8
0
  6
HIDDEN
 62
     7
370
     0
100
AcDbLine
 10
155.4562746138
 20
102.9894907909
 30
0.0
 11
150.4562746138
 21
102.9894907909
 31
0.0
  0
SPLINE
  5
12A
330
1F
100
AcDbEntity
  8
0
  6
HIDDEN
 62
     7
370
     0
100
AcDbSpline
210
0.0
220
0.0
230
1.0
 70
     8
 71
     3
 72
    30
 73
    26
 74
     0
 42
0.00000001
 43
0.00000001
 40
0.0
 40
0.0
 40
0.0
 40
0.0
 40
0.0412274297564295
 40
0.0838627324950376
 40
0.1250516510534609
 40
0.1672473279861985
 40
0.2244849111414914
 40
0.2833611997047474
 40
0.3419130967478428
 40
0.4019328869320871
 40
0.4346453182317889
 40
0.4680030772970355
 40
0.5007963769266242
 40
0.5349012334331624
 40
0.56311742099433
 40
0.5919349488450965
 40
0.6414698556812184
 40
0.6923287517706488
 40
0.7450260126139456
 40
0.7988519530010006
 40
0.8464596455547917
 40
0.8953104661842651
 40
0.9429925514063291
 40
0.9925828888811968
 40
1.0
 40
1.0
 40
1.0
 40
1.0
 10
163.1075133698014
 20
119.4240232624181
 30
0.0
 10
163.1055716989614
 20
119.4264279989285
 30
0.0
 10
163.1016220512822
 20
119.4313195911497
 30
0.0
 10
163.0705295471131
 20
119.4700406809661
 30
0.0
 10
163.0235107593186
 20
119.5293426007923
 30
0.0
 10
162.9552860477106
 20
119.6170462881401
 30
0.0
 10
162.8632395381957
 20
119.7392826596979
 30
0.0
 10
162.7506104821814
 20
119.8985055293043
 30
0.0
 10
162.6338978990535
 20
120.0819600430534
 30
0.0
 10
162.5417196815457
 20
120.2573866126656
 30
0.0
 10
162.480703798282
 20
120.4168942813586
 30
0.0
 10
162.4468530227365
 20
120.5494739657258
 30
0.0
 10
162.4327182098364
 20
120.6894445156803
 30
0.0
 10
162.4422542801091
 20
120.8228896633743
 30
0.0
 10
162.4700764936448
 20
120.9462301136392
 30
0.0
 10
162.5180894993166
 20
121.0833395872333
 30
0.0
 10
162.5941359027443
 20
121.2367061459212
 30
0.0
 10
162.6955589123324
 20
121.3996948923014
 30
0.0
 10
162.8016829233737
 20
121.5490075049097
 30
0.0
 10
162.8999382723963
 20
121.6762377082989
 30
0.0
 10
162.9839056895464
 20
121.7797730615529
 30
0.0
 10
163.0492646907556
 20
121.8578504213121
 30
0.0
 10
163.0920739690786
 20
121.9080362782394
 30
0.0
 10
163.1099591255845
 20
121.92879547544
 30
0.0
 10
163.1065187171348
 20
121.9247957855647
 30
0.0
 10
163.1060710933173
 20
121.9242753948968
 30
0.0
  0
SPLINE
  5
12B
330
1F
100
AcDbEntity
  8
0
  6
HIDDEN
 62
     7
370
     0
100
AcDbSpline
210
0.0
220
0.0
230
1.0
 70
     8
 71
     3
 72
    30
 73
    26
 74
     0
 42
0.00000001
 43
0.00000001
 40
0.0
 40
0.0
 40
0.0
 40
0.0
 40
0.0178590956920482
 40
0.0558582307175945
 40
0.0949113292982946
 40
0.1341185000269201
 40
0.1741482108318398
 40
0.2324405218924864
 40
0.2924037867412493
 40
0.351928753910258
 40
0.4130762523967665
 40
0.4446381357153564
 40
0.4768674806197361
 40
0.5085009424992214
 40
0.541332353190641
 40
0.57629680941495
 40
0.6122579963132607
 40
0.6673037133981996
 40
0.7238417359881412
 40
0.781343443668355
 40
0.8404922212410895
 40
0.8843594075500162
 40
0.929392025273597
 40
0.9643093283993239
 40
1.0
 40
1.0
 40
1.0
 40
1.0
 10
160.1102667014758
 20
122.0404062117916
 30
0.0
 10
160.1095675701441
 20
122.0412738651669
 30
0.0
 10
160.1073808838806
 20
122.0439876410073
 30
0.0
 10
160.1238663703024
 20
122.0235316231839
 30
0.0
 10
160.1558387896274
 20
121.9835619230294
 30
0.0
 10
160.2038824433676
 20
121.9227291578858
 30
0.0
 10
160.2728091255662
 20
121.8336829721602
 30
0.0
 10
160.3666470094987
 20
121.7082906842688
 30
0.0
 10
160.4822283597122
 20
121.5429539085356
 30
0.0
 10
160.6005270328468
 20
121.3527029148601
 30
0.0
 10
160.6906345543006
 20
121.1725208782516
 30
0.0
 10
160.7461604979657
 20
121.0113804473216
 30
0.0
 10
160.7738689131039
 20
120.881615908534
 30
0.0
 10
160.7818589302561
 20
120.7459812886578
 30
0.0
 10
160.7669258704789
 20
120.6072468227052
 30
0.0
 10
160.7292137055132
 20
120.4688304300275
 30
0.0
 10
160.6639651039002
 20
120.3121603402286
 30
0.0
 10
160.5703122072924
 20
120.1455602837341
 30
0.0
 10
160.4558660827502
 20
119.9764504495105
 30
0.0
 10
160.3421084413737
 20
119.8254723341657
 30
0.0
 10
160.2484780158257
 20
119.7091371928601
 30
0.0
 10
160.1786742834977
 20
119.625301756827
 30
0.0
 10
160.1363680024749
 20
119.5755012062642
 30
0.0
 10
160.111824810463
 20
119.5468959317974
 30
0.0
 10
160.1089609725518
 20
119.5435731643068
 30
0.0
 10
160.1075133698014
 20
119.5418935834411
 30
0.0
  0
LINE
  5
12C
330
1F
100
AcDbEntity
  8
0
  6
HIDDEN
 62
     7
370
     0
100
AcDbLine
 10
163.1075133698
 20
123.4394907909
 30
0.0
 11
160.1075133698
 21
123.4394907909
 31
0.0
  0
LWPOLYLINE
  5
12D
330
1F
100
AcDbEntity
  8
0
  6
HIDDEN
 62
     7
370
     0
100
AcDbPolyline
 90
       15
 70
   128
 43
0.0
 10
163.1042941873
 20
98.0567862007
 10
163.0750963053
 20
98.0908772998
 10
162.9783918451
 20
98.2063788644
 10
162.7779543863
 20
98.4643135527
 10
162.5582012587
 20
98.8169638358
 10
162.4611779011
 20
99.0753585384
 10
162.437476018
 20
99.3142749008
 10
162.479448982
 20
99.5492876163
 10
162.630163452
 20
99.8842932661
 10
162.7554966263
 20
100.0847313182
 10
162.8812954894
 20
100.2628165977
 10
163.0329131409
 20
100.4613815977
 10
163.1004236982
 20
100.5461566815
 10
163.1075133698
 20
100.5549583194
 10
163.1075133698
 20
100.5549583194
  0
LINE
  5
12E
330
1F
100
AcDbEntity
  8
0
  6
HIDDEN
 62
     7
370
     0
100
AcDbLine
 10
161.6075133698
 20
96.9894907909
 30
0.0
 11
163.1075133698
 21
96.9894907909
 31
0.0
  0
LINE
  5
12F
330
1F
100
AcDbEntity
  8
0
  6
HIDDEN
 62
     7
370
     0
100
AcDbLine
 10
160.1075133698
 20
96.9894907909
 30
0.0
 11
161.6075133698
 21
96.9894907909
 31
0.0
  0
SPLINE
  5
130
330
1F
100
AcDbEntity
  8
0
  6
HIDDEN
 62
     7
370
     0
100
AcDbSpline
210
0.0
220
0.0
230
1.0
 70
     8
 71
     3
 72
    18
 73
    14
 74
     0
 42
0.00000001
 43
0.00000001
 40
0.0
 40
0.0
 40
0.0
 40
0.0
 40
0.085895597964485
 40
0.1714488721960287
 40
0.2865829369661098
 40
0.4035160784692583
 40
0.4663607632706577
 40
0.5296876429235426
 40
0.6028293764061291
 40
0.7212192063948115
 40
0.8450568831036434
 40
0.9312578401073109
 40
1.0
 40
1.0
 40
1.0
 40
1.0
 10
160.1075133698014
 20
100.4370879983576
 30
0.0
 10
160.1161377836007
 20
100.4271306519784
 30
0.0
 10
160.1333522399206
 20
100.4072556426971
 30
0.0
 10
160.2702255349646
 20
100.2450747743334
 30
0.0
 10
160.47642656408
 20
99.98198761629513
 30
0.0
 10
160.6811488559076
 20
99.66051725663114
 30
0.0
 10
160.7829633349596
 20
99.33936645229366
 30
0.0
 10
160.7793270931897
 20
99.05432316562889
 30
0.0
 10
160.6631616733906
 20
98.72206608288477
 30
0.0
 10
160.4494567814181
 20
98.38004073928434
 30
0.0
 10
160.2453884125322
 20
98.1078520067789
 30
0.0
 10
160.1233078634078
 20
97.9546632239213
 30
0.0
 10
160.1173051078189
 20
97.94729665603153
 30
0.0
 10
160.1146419215298
 20
97.94402839992644
 30
0.0
  0
LINE
  5
131
330
1F
100
AcDbEntity
  8
0
  6
HIDDEN
 62
     7
370
     0
100
AcDbLine
 10
159.992664177
 20
119.5464060205
 30
0.0
 11
160.0908137164
 21
122.0444786111
 31
0.0
  0
LINE
  5
132
330
1F
100
AcDbEntity
  8
0
  6
HIDDEN
 62
     7
370
     0
100
AcDbLine
 10
159.992664177
 20
100.4325755613
 30
0.0
 11
160.0908137164
 21
97.9345029707
 31
0.0
  0
SPLINE
  5
133
330
1F
100
AcDbEntity
  8
0
  6
HIDDEN
 62
     7
370
     0
100
AcDbSpline
210
0.0
220
0.0
230
1.0
 70
     8
 71
     3
 72
     8
 73
     4
 74
     0
 42
0.00000001
 43
0.00000001
 40
0.0
 40
0.0
 40
0.0
 40
0.0
 40
0.000159097695343
 40
0.000159097695343
 40
0.000159097695343
 40
0.000159097695343
 10
85.39144262300012
 20
94.1880003548677
 30
0.0
 10
85.34639115249577
 20
94.16002147054392
 30
0.0
 10
85.30133511408097
 20
94.13204994016886
 30
0.0
 10
85.2562746137821
 20
94.10408560081633
 30
0.0
  0
SPLINE
  5
134
330
1F
100
AcDbEntity
  8
0
  6
HIDDEN
 62
     7
370
     0
100
AcDbSpline
210
0.0
220
0.0
230
1.0
 70
     8
 71
     3
 72
    11
 73
     7
 74
     0
 42
0.00000001
 43
0.00000001
 40
0.0
 40
0.0
 40
0.0
 40
0.0
 40
0.0008212909311456
 40
0.0008212909311456
 40
0.0008212909311456
 40
0.001642825724306
 40
0.001642825724306
 40
0.001642825724306
 40
0.001642825724306
 10
85.2562746137821
 20
94.10408560081633
 30
0.0
 10
85.06512959229993
 20
94.06079941196377
 30
0.0
 10
84.87371125662345
 20
94.0198629023265
 30
0.0
 10
84.6820651819623
 20
93.98126113093991
 30
0.0
 10
84.49036210042071
 20
93.94264787710283
 30
0.0
 10
84.29841697713519
 20
93.90636766781682
 30
0.0
 10
84.10627461378202
 20
93.8724007614653
 30
0.0
  0
LINE
  5
135
330
1F
100
AcDbEntity
  8
0
  6
HIDDEN
 62
     7
370
     0
100
AcDbLine
 10
132.0962746138
 20
130.1732574459
 30
0.0
 11
132.0962746138
 21
129.8394907909
 31
0.0
  0
LINE
  5
136
330
1F
100
AcDbEntity
  8
0
  6
HIDDEN
 62
     7
370
     0
100
AcDbLine
 10
135.9162746138
 20
130.1732574458
 30
0.0
 11
135.9162746138
 21
129.8394907909
 31
0.0
  0
LINE
  5
137
330
1F
100
AcDbEntity
  8
0
  6
HIDDEN
 62
     7
370
     0
100
AcDbLine
 10
137.3982074453
 20
134.4481804533
 30
0.0
 11
137.3982074453
 21
129.8394907909
 31
0.0
  0
SPLINE
  5
138
330
1F
100
AcDbEntity
  8
0
  6
HIDDEN
 62
     7
370
     0
100
AcDbSpline
210
0.0
220
0.0
230
1.0
 70
     8
 71
     3
 72
    11
 73
     7
 74
     0
 42
0.00000001
 43
0.00000001
 40
0.0
 40
0.0
 40
0.0
 40
0.0
 40
0.0005781862223978
 40
0.0005781862223978
 40
0.0005781862223978
 40
0.0011563724723928
 40
0.0011563724723928
 40
0.0011563724723928
 40
0.0011563724723928
 10
85.10627461378209
 20
122.6296330979461
 30
0.0
 10
84.93961405950648
 20
122.6941626093597
 30
0.0
 10
84.7729507626
 20
122.7586653132035
 30
0.0
 10
84.60628417876978
 20
122.8231517616371
 30
0.0
 10
84.43961758651069
 20
122.8876382133321
 30
0.0
 10
84.2729477208848
 20
122.9521082220602
 30
0.0
 10
84.10627461378206
 20
123.0165639887928
 30
0.0
  0
SPLINE
  5
139
330
1F
100
AcDbEntity
  8
0
  6
HIDDEN
 62
     7
370
     0
100
AcDbSpline
210
0.0
220
0.0
230
1.0
 70
     8
 71
     3
 72
    11
 73
     7
 74
     0
 42
0.00000001
 43
0.00000001
 40
0.0
 40
0.0
 40
0.0
 40
0.0
 40
0.0005778746105108
 40
0.0005778746105108
 40
0.0005778746105108
 40
0.0011557494857226
 40
0.0011557494857226
 40
0.0011557494857226
 40
0.0011557494857226
 10
84.10627461378208
 20
96.96226893540945
 30
0.0
 10
84.27294149019541
 20
97.02808106210331
 30
0.0
 10
84.43960820975687
 20
97.09393954224093
 30
0.0
 10
84.6062748578055
 20
97.15984711517157
 30
0.0
 10
84.77294158232417
 20
97.22575471834193
 30
0.0
 10
84.93960827674475
 20
97.29171182673043
 30
0.0
 10
85.10627461378209
 20
97.35771356665315
 30
0.0
  0
SPLINE
  5
13A
330
1F
100
AcDbEntity
  8
0
  6
HIDDEN
 62
     7
370
     0
100
AcDbSpline
210
0.0
220
0.0
230
1.0
 70
     8
 71
     3
 72
    11
 73
     7
 74
     0
 42
0.00000001
 43
0.00000001
 40
0.0000000000000006
 40
0.0000000000000006
 40
0.0000000000000006
 40
0.0000000000000006
 40
0.0005780486062768
 40
0.0005780486062768
 40
0.0005780486062768
 40
0.0011560973514127
 40
0.0011560973514127
 40
0.0011560973514127
 40
0.0011560973514127
 10
84.10627461378208
 20
119.9703052925911
 30
0.0
 10
84.272944469827
 20
119.9079334310766
 30
0.0
 10
84.43961217391124
 20
119.8455795707789
 30
0.0
 10
84.6062784783649
 20
119.7832600105928
 30
0.0
 10
84.77294481905864
 20
119.7209404368559
 30
0.0
 10
84.93960977568743
 20
119.6586552325363
 30
0.0
 10
85.1062746137821
 20
119.5964301119677
 30
0.0
  0
SPLINE
  5
13B
330
1F
100
AcDbEntity
  8
0
  6
HIDDEN
 62
     7
370
     0
100
AcDbSpline
210
0.0
220
0.0
230
1.0
 70
     8
 71
     3
 72
    11
 73
     7
 74
     0
 42
0.00000001
 43
0.00000001
 40
0.0
 40
0.0
 40
0.0
 40
0.0
 40
0.0005782401583533
 40
0.0005782401583533
 40
0.0005782401583533
 40
0.0011564805960993
 40
0.0011564805960993
 40
0.0011564805960993
 40
0.0011564805960993
 10
85.10627461378209
 20
100.3886639985017
 30
0.0
 10
84.9396236634332
 20
100.3252385404409
 30
0.0
 10
84.77296407085055
 20
100.2618830167856
 30
0.0
 10
84.606297018422
 20
100.1985854324357
 30
0.0
 10
84.43962988185818
 20
100.1352878161324
 30
0.0
 10
84.27295527441211
 20
100.0720480211917
 30
0.0
 10
84.10627461378205
 20
100.0088480145529
 30
0.0
  0
CIRCLE
  5
13C
330
1F
100
AcDbEntity
  8
0
  6
HIDDEN
 62
     7
370
     0
100
AcDbCircle
 10
123.0062746138
 20
109.9894907909
 30
0.0
 40
5.0
  0
LINE
  5
13D
330
1F
100
AcDbEntity
  8
0
  6
HIDDEN
 62
     7
370
     0
100
AcDbLine
 10
205.7640078598
 20
117.6989690879
 30
0.0
 11
205.7561181329
 21
117.4981621279
 31
0.0
  0
LINE
  5
13E
330
1F
100
AcDbEntity
  8
0
  6
HIDDEN
 62
     7
370
     0
100
AcDbLine
 10
205.8738975802
 20
120.4958492366
 30
0.0
 11
205.7640078598
 21
117.6989690879
 31
0.0
  0
LINE
  5
13F
330
1F
100
AcDbEntity
  8
0
  6
HIDDEN
 62
     7
370
     0
100
AcDbLine
 10
200.4300700559
 20
117.908540075
 30
0.0
 11
200.422180329
 21
117.707733115
 31
0.0
  0
LINE
  5
140
330
1F
100
AcDbEntity
  8
0
  6
HIDDEN
 62
     7
370
     0
100
AcDbLine
 10
200.5399597763
 20
120.7054202237
 30
0.0
 11
200.4300700559
 21
117.908540075
 31
0.0
  0
LINE
  5
141
330
1F
100
AcDbEntity
  8
0
  6
HIDDEN
 62
     7
370
     0
100
AcDbLine
 10
199.9474555367
 20
118.3608488476
 30
0.0
 11
199.9421957188
 21
118.226977541
 31
0.0
  0
LINE
  5
142
330
1F
100
AcDbEntity
  8
0
  6
HIDDEN
 62
     7
370
     0
100
AcDbLine
 10
200.0207153503
 20
120.2254356135
 30
0.0
 11
199.9474555367
 21
118.3608488476
 31
0.0
  0
LINE
  5
143
330
1F
100
AcDbEntity
  8
0
  6
HIDDEN
 62
     7
370
     0
100
AcDbLine
 10
205.9353667547
 20
117.9353439314
 30
0.0
 11
205.9289524066
 21
117.772087873
 31
0.0
  0
LINE
  5
144
330
1F
100
AcDbEntity
  8
0
  6
HIDDEN
 62
     7
370
     0
100
AcDbLine
 10
206.0062746138
 20
119.7400694599
 30
0.0
 11
205.9353667547
 21
117.9353439314
 31
0.0
  0
LINE
  5
145
330
1F
100
AcDbEntity
  8
0
  6
HIDDEN
 62
     7
370
     0
100
AcDbLine
 10
203.9783716795
 20
119.0691673142
 30
0.0
 11
203.9489268177
 21
118.319745537
 31
0.0
  0
LINE
  5
146
330
1F
100
AcDbEntity
  8
0
  6
HIDDEN
 62
     7
370
     0
100
AcDbLine
 10
203.9783716795
 20
119.0691673142
 30
0.0
 11
204.0078165413
 21
119.8185890914
 31
0.0
  0
LINE
  5
147
330
1F
100
AcDbEntity
  8
0
  6
HIDDEN
 62
     7
370
     0
100
AcDbLine
 10
203.9783716795
 20
119.0691673142
 30
0.0
 11
205.976829752
 21
118.9906476827
 31
0.0
  0
LINE
  5
148
330
1F
100
AcDbEntity
  8
0
  6
HIDDEN
 62
     7
370
     0
100
AcDbLine
 10
203.9489268177
 20
118.319745537
 30
0.0
 11
205.9473848901
 21
118.2412259055
 31
0.0
  0
LINE
  5
149
330
1F
100
AcDbEntity
  8
0
  6
HIDDEN
 62
     7
370
     0
100
AcDbLine
 10
204.0078165413
 20
119.8185890914
 30
0.0
 11
206.0062746138
 21
119.7400694599
 31
0.0
  0
LINE
  5
14A
330
1F
100
AcDbEntity
  8
0
  6
HIDDEN
 62
     7
370
     0
100
AcDbLine
 10
205.7561181329
 20
102.4808194539
 30
0.0
 11
205.8738975802
 21
99.4831323452
 31
0.0
  0
LINE
  5
14B
330
1F
100
AcDbEntity
  8
0
  6
HIDDEN
 62
     7
370
     0
100
AcDbLine
 10
200.422180329
 20
102.2712484668
 30
0.0
 11
200.5399597763
 21
99.2735613581
 31
0.0
  0
LINE
  5
14C
330
1F
100
AcDbEntity
  8
0
  6
HIDDEN
 62
     7
370
     0
100
AcDbLine
 10
205.9289524066
 20
102.2068937088
 30
0.0
 11
206.0062746138
 21
100.2389121219
 31
0.0
  0
LINE
  5
14D
330
1F
100
AcDbEntity
  8
0
  6
HIDDEN
 62
     7
370
     0
100
AcDbLine
 10
199.9421957188
 20
101.7520040408
 30
0.0
 11
200.0207153503
 21
99.7535459683
 31
0.0
  0
LINE
  5
14E
330
1F
100
AcDbEntity
  8
0
  6
HIDDEN
 62
     7
370
     0
100
AcDbLine
 10
203.9783716795
 20
100.9098142676
 30
0.0
 11
205.976829752
 21
100.9883338991
 31
0.0
  0
LINE
  5
14F
330
1F
100
AcDbEntity
  8
0
  6
HIDDEN
 62
     7
370
     0
100
AcDbLine
 10
203.9489268177
 20
101.6592360448
 30
0.0
 11
203.9783716795
 21
100.9098142676
 31
0.0
  0
LINE
  5
150
330
1F
100
AcDbEntity
  8
0
  6
HIDDEN
 62
     7
370
     0
100
AcDbLine
 10
204.0078165413
 20
100.1603924904
 30
0.0
 11
203.9783716795
 21
100.9098142676
 31
0.0
  0
LINE
  5
151
330
1F
100
AcDbEntity
  8
0
  6
HIDDEN
 62
     7
370
     0
100
AcDbLine
 10
204.0078165413
 20
100.1603924904
 30
0.0
 11
206.0062746138
 21
100.2389121219
 31
0.0
  0
LINE
  5
152
330
1F
100
AcDbEntity
  8
0
  6
HIDDEN
 62
     7
370
     0
100
AcDbLine
 10
203.9489268177
 20
101.6592360448
 30
0.0
 11
205.9473848901
 21
101.7377556763
 31
0.0
  0
LINE
  5
153
330
1F
100
AcDbEntity
  8
0
  6
HIDDEN
 62
     7
370
     0
100
AcDbLine
 10
159.0062746138
 20
104.9894907909
 30
0.0
 11
159.5062746138
 21
105.4894907909
 31
0.0
  0
LINE
  5
154
330
1F
100
AcDbEntity
  8
0
  6
HIDDEN
 62
     7
370
     0
100
AcDbLine
 10
159.5062746138
 20
114.4894907909
 30
0.0
 11
159.0062746138
 21
114.9894907909
 31
0.0
  0
LINE
  5
155
330
1F
100
AcDbEntity
  8
0
  6
HIDDEN
 62
     7
370
     0
100
AcDbLine
 10
143.5062746138
 20
104.9894907909
 30
0.0
 11
159.0062746138
 21
104.9894907909
 31
0.0
  0
LINE
  5
156
330
1F
100
AcDbEntity
  8
0
  6
HIDDEN
 62
     7
370
     0
100
AcDbLine
 10
159.0062746138
 20
114.9894907909
 30
0.0
 11
143.5062746138
 21
114.9894907909
 31
0.0
  0
LINE
  5
157
330
1F
100
AcDbEntity
  8
0
  6
HIDDEN
 62
     7
370
     0
100
AcDbLine
 10
143.5062746138
 20
114.9894907909
 30
0.0
 11
143.0062746138
 21
114.4894907909
 31
0.0
  0
LINE
  5
158
330
1F
100
AcDbEntity
  8
0
  6
HIDDEN
 62
     7
370
     0
100
AcDbLine
 10
143.0062746138
 20
105.4894907909
 30
0.0
 11
143.5062746138
 21
104.9894907909
 31
0.0
  0
LINE
  5
159
330
1F
100
AcDbEntity
  8
0
  6
HIDDEN
 62
     7
370
     0
100
AcDbLine
 10
159.5062746138
 20
105.4894907909
 30
0.0
 11
161.0062746138
 21
105.4894907909
 31
0.0
  0
LINE
  5
15A
330
1F
100
AcDbEntity
  8
0
  6
HIDDEN
 62
     7
370
     0
100
AcDbLine
 10
161.0062746138
 20
114.4894907909
 30
0.0
 11
159.5062746138
 21
114.4894907909
 31
0.0
  0
LINE
  5
15B
330
1F
100
AcDbEntity
  8
0
  6
HIDDEN
 62
     7
370
     0
100
AcDbLine
 10
149.0062746137
 20
107.4894907909
 30
0.0
 11
157.0062746138
 21
107.4894907909
 31
0.0
  0
LINE
  5
15C
330
1F
100
AcDbEntity
  8
0
  6
HIDDEN
 62
     7
370
     0
100
AcDbLine
 10
157.0062746138
 20
112.4894907909
 30
0.0
 11
149.0062746137
 21
112.4894907909
 31
0.0
  0
LINE
  5
15D
330
1F
100
AcDbEntity
  8
0
  6
HIDDEN
 62
     7
370
     0
100
AcDbLine
 10
120.0062746138
 20
124.2901558949
 30
0.0
 11
120.0062746138
 21
122.3834314338
 31
0.0
  0
LINE
  5
15E
330
1F
100
AcDbEntity
  8
0
  6
HIDDEN
 62
     7
370
     0
100
AcDbLine
 10
128.0062746138
 20
122.3834314338
 30
0.0
 11
128.0062746138
 21
124.2894352511
 31
0.0
  0
LINE
  5
15F
330
1F
100
AcDbEntity
  8
0
  6
HIDDEN
 62
     7
370
     0
100
AcDbLine
 10
116.0062746138
 20
84.6655596449
 30
0.0
 11
116.1004353893
 21
85.3355483761
 31
0.0
  0
LINE
  5
160
330
1F
100
AcDbEntity
  8
0
  6
HIDDEN
 62
     7
370
     0
100
AcDbLine
 10
116.1004353893
 20
134.6434332057
 30
0.0
 11
116.0062746138
 21
135.3134219369
 31
0.0
  0
ARC
  5
161
330
1F
100
AcDbEntity
  8
0
  6
HIDDEN
 62
     7
370
     0
100
AcDbCircle
 10
115.5062678611
 20
85.4190531765
 30
0.0
 40
0.6000067526677343
100
AcDbArc
 50
352.0
 51
0.0
  0
ARC
  5
162
330
1F
100
AcDbEntity
  8
0
  6
HIDDEN
 62
     7
370
     0
100
AcDbCircle
 10
115.5062678611
 20
85.4190531765
 30
0.0
 40
0.6000067526677242
100
AcDbArc
 50
0.0
 51
33.5571153394
  0
ARC
  5
163
330
1F
100
AcDbEntity
  8
0
  6
HIDDEN
 62
     7
370
     0
100
AcDbCircle
 10
115.5062678611
 20
134.5599284053
 30
0.0
 40
0.6000067526677323
100
AcDbArc
 50
348.75
 51
8.0
  0
LWPOLYLINE
  5
164
330
1F
100
AcDbEntity
  8
0
  6
HIDDEN
 62
     7
370
     0
100
AcDbPolyline
 90
        3
 70
   128
 43
0.0
 10
116.0947456523
 20
134.4428728947
 10
116.0606018193
 20
134.3303157617
 10
116.0062746138
 20
134.2282638903
  0
LINE
  5
165
330
1F
100
AcDbEntity
  8
0
  6
HIDDEN
 62
     7
370
     0
100
AcDbLine
 10
116.1062746138
 20
85.4190531765
 30
0.0
 11
116.1062746138
 21
134.5599284053
 31
0.0
  0
ARC
  5
166
330
1F
100
AcDbEntity
  8
0
  6
HIDDEN
 62
     7
370
     0
100
AcDbCircle
 10
99.0887101791
 20
90.5894907909
 30
0.0
 40
0.6000000000000155
100
AcDbArc
 50
210.0
 51
270.0
  0
ARC
  5
167
330
1F
100
AcDbEntity
  8
0
  6
HIDDEN
 62
     7
370
     0
100
AcDbCircle
 10
99.0887101791
 20
129.3894907909
 30
0.0
 40
0.6000000000000013
100
AcDbArc
 50
90.0
 51
150.0
  0
LINE
  5
168
330
1F
100
AcDbEntity
  8
0
  6
HIDDEN
 62
     7
370
     0
100
AcDbLine
 10
99.0887101791
 20
89.9894907909
 30
0.0
 11
103.259391995
 21
89.9894907909
 31
0.0
  0
LINE
  5
169
330
1F
100
AcDbEntity
  8
0
  6
HIDDEN
 62
     7
370
     0
100
AcDbLine
 10
103.259391995
 20
129.9894907909
 30
0.0
 11
99.0887101791
 21
129.9894907909
 31
0.0
  0
ARC
  5
16A
330
1F
100
AcDbEntity
  8
0
  6
HIDDEN
 62
     7
370
     0
100
AcDbCircle
 10
109.7612766154
 20
97.9894907909
 30
0.0
 40
7.999999999999993
100
AcDbArc
 50
277.1303153994
 51
321.3178125465
  0
ARC
  5
16B
330
1F
100
AcDbEntity
  8
0
  6
HIDDEN
 62
     7
370
     0
100
AcDbCircle
 10
109.7612766154
 20
121.9894907909
 30
0.0
 40
8.0
100
AcDbArc
 50
38.6821874535
 51
82.8514032064
  0
LINE
  5
16C
330
1F
100
AcDbEntity
  8
0
  6
HIDDEN
 62
     7
370
     0
100
AcDbLine
 10
98.5690949368
 20
129.6894907909
 30
0.0
 11
97.01024921
 21
126.9894907909
 31
0.0
  0
LINE
  5
16D
330
1F
100
AcDbEntity
  8
0
  6
HIDDEN
 62
     7
370
     0
100
AcDbLine
 10
97.01024921
 20
92.9894907909
 30
0.0
 11
98.5690949368
 21
90.2894907909
 31
0.0
  0
LINE
  5
16E
330
1F
100
AcDbEntity
  8
0
  6
HIDDEN
 62
     7
370
     0
100
AcDbLine
 10
120.0062746138
 20
137.2691570289
 30
0.0
 11
120.0062746138
 21
133.9350932055
 31
0.0
  0
LINE
  5
16F
330
1F
100
AcDbEntity
  8
0
  6
HIDDEN
 62
     7
370
     0
100
AcDbLine
 10
128.0062746138
 20
133.9350932055
 30
0.0
 11
128.0062746138
 21
137.2638246501
 31
0.0
  0
ARC
  5
170
330
1F
100
AcDbEntity
  8
0
  6
HIDDEN
 62
     7
370
     0
100
AcDbCircle
 10
124.4562746138
 20
94.2644907909
 30
0.0
 40
1.500000000000014
100
AcDbArc
 50
238.2116693829
 51
0.0
  0
ARC
  5
171
330
1F
100
AcDbEntity
  8
0
  6
HIDDEN
 62
     7
370
     0
100
AcDbCircle
 10
124.4562746138
 20
125.7144907909
 30
0.0
 40
1.500000000000014
100
AcDbArc
 50
0.0
 51
121.7883306171
  0
LINE
  5
172
330
1F
100
AcDbEntity
  8
0
  6
HIDDEN
 62
     7
370
     0
100
AcDbLine
 10
94.2062746138
 20
92.9894907909
 30
0.0
 11
97.01024921
 21
92.9894907909
 31
0.0
  0
LINE
  5
173
330
1F
100
AcDbEntity
  8
0
  6
HIDDEN
 62
     7
370
     0
100
AcDbLine
 10
97.01024921
 20
126.9894907909
 30
0.0
 11
90.2062746138
 21
126.9894907909
 31
0.0
  0
LINE
  5
174
330
1F
100
AcDbEntity
  8
0
  6
HIDDEN
 62
     7
370
     0
100
AcDbLine
 10
116.0062746138
 20
92.9894907909
 30
0.0
 11
123.6661005823
 21
92.9894907909
 31
0.0
  0
LINE
  5
175
330
1F
100
AcDbEntity
  8
0
  6
HIDDEN
 62
     7
370
     0
100
AcDbLine
 10
123.6661005823
 20
126.9894907909
 30
0.0
 11
116.0062746138
 21
126.9894907909
 31
0.0
  0
LINE
  5
176
330
1F
100
AcDbEntity
  8
0
  6
HIDDEN
 62
     7
370
     0
100
AcDbLine
 10
134.8062746138
 20
100.4894907909
 30
0.0
 11
137.8062746138
 21
100.4894907909
 31
0.0
  0
LINE
  5
177
330
1F
100
AcDbEntity
  8
0
  6
HIDDEN
 62
     7
370
     0
100
AcDbLine
 10
137.8062746138
 20
119.4894907909
 30
0.0
 11
134.8062746138
 21
119.4894907909
 31
0.0
  0
LINE
  5
178
330
1F
100
AcDbEntity
  8
0
  6
HIDDEN
 62
     7
370
     0
100
AcDbLine
 10
125.9562746138
 20
100.9894907909
 30
0.0
 11
126.4562746138
 21
101.4894907909
 31
0.0
  0
LINE
  5
179
330
1F
100
AcDbEntity
  8
0
  6
HIDDEN
 62
     7
370
     0
100
AcDbLine
 10
126.4562746138
 20
118.4894907909
 30
0.0
 11
125.9562746138
 21
118.9894907909
 31
0.0
  0
LINE
  5
17A
330
1F
100
AcDbEntity
  8
0
  6
HIDDEN
 62
     7
370
     0
100
AcDbLine
 10
126.4562746138
 20
101.4894907909
 30
0.0
 11
134.8062746138
 21
101.4894907909
 31
0.0
  0
LINE
  5
17B
330
1F
100
AcDbEntity
  8
0
  6
HIDDEN
 62
     7
370
     0
100
AcDbLine
 10
134.8062746138
 20
118.4894907909
 30
0.0
 11
126.4562746138
 21
118.4894907909
 31
0.0
  0
LINE
  5
17C
330
1F
100
AcDbEntity
  8
0
  6
HIDDEN
 62
     7
370
     0
100
AcDbLine
 10
120.9562746138
 20
141.4894907909
 30
0.0
 11
120.9562746138
 21
136.3894907909
 31
0.0
  0
ARC
  5
17D
330
1F
100
AcDbEntity
  8
0
  6
HIDDEN
 62
     7
370
     0
100
AcDbCircle
 10
205.5062746138
 20
102.9527965428
 30
0.0
 40
0.5
100
AcDbArc
 50
0.0
 51
80.0
  0
ARC
  5
17E
330
1F
100
AcDbEntity
  8
0
  6
HIDDEN
 62
     7
370
     0
100
AcDbCircle
 10
205.5062746138
 20
117.026185039
 30
0.0
 40
0.5
100
AcDbArc
 50
280.0
 51
0.0
  0
LINE
  5
17F
330
1F
100
AcDbEntity
  8
0
  6
HIDDEN
 62
     7
370
     0
100
AcDbLine
 10
205.5930987026
 20
116.5337811625
 30
0.0
 11
202.5062746138
 21
115.9894907909
 31
0.0
  0
LINE
  5
180
330
1F
100
AcDbEntity
  8
0
  6
HIDDEN
 62
     7
370
     0
100
AcDbLine
 10
202.5062746138
 20
103.9894907909
 30
0.0
 11
205.5930987026
 21
103.4452004193
 31
0.0
  0
ARC
  5
181
330
1F
100
AcDbEntity
  8
0
  6
HIDDEN
 62
     7
370
     0
100
AcDbCircle
 10
169.1115005957
 20
104.0894907909
 30
0.0
 40
0.3999999999999915
100
AcDbArc
 50
270.0
 51
290.0
  0
ARC
  5
182
330
1F
100
AcDbEntity
  8
0
  6
HIDDEN
 62
     7
370
     0
100
AcDbCircle
 10
169.1115005957
 20
115.8894907909
 30
0.0
 40
0.3999999999999977
100
AcDbArc
 50
70.0
 51
90.0
  0
LINE
  5
183
330
1F
100
AcDbEntity
  8
0
  6
HIDDEN
 62
     7
370
     0
100
AcDbLine
 10
163.1075133698
 20
103.6894907909
 30
0.0
 11
169.1115005957
 21
103.6894907909
 31
0.0
  0
LINE
  5
184
330
1F
100
AcDbEntity
  8
0
  6
HIDDEN
 62
     7
370
     0
100
AcDbLine
 10
159.9062746138
 20
103.6894907909
 30
0.0
 11
160.1106201064
 21
103.6894907909
 31
0.0
  0
LINE
  5
185
330
1F
100
AcDbEntity
  8
0
  6
HIDDEN
 62
     7
370
     0
100
AcDbLine
 10
160.1107622881
 20
116.2894907909
 30
0.0
 11
159.9062746138
 21
116.2894907909
 31
0.0
  0
LINE
  5
186
330
1F
100
AcDbEntity
  8
0
  6
HIDDEN
 62
     7
370
     0
100
AcDbLine
 10
169.1115005957
 20
116.2894907909
 30
0.0
 11
163.1023043887
 21
116.2894907909
 31
0.0
  0
ARC
  5
187
330
1F
100
AcDbEntity
  8
0
  6
HIDDEN
 62
     7
370
     0
100
AcDbCircle
 10
159.9062746138
 20
104.0894907909
 30
0.0
 40
0.4000000000000057
100
AcDbArc
 50
180.0
 51
270.0
  0
ARC
  5
188
330
1F
100
AcDbEntity
  8
0
  6
HIDDEN
 62
     7
370
     0
100
AcDbCircle
 10
159.9062746138
 20
115.8894907909
 30
0.0
 40
0.4000000000000057
100
AcDbArc
 50
90.0
 51
180.0
  0
LINE
  5
189
330
1F
100
AcDbEntity
  8
0
  6
HIDDEN
 62
     7
370
     0
100
AcDbLine
 10
169.248308653
 20
103.7136137426
 30
0.0
 11
170.0062746138
 21
103.9894907909
 31
0.0
  0
LINE
  5
18A
330
1F
100
AcDbEntity
  8
0
  6
HIDDEN
 62
     7
370
     0
100
AcDbLine
 10
170.0062746138
 20
115.9894907909
 30
0.0
 11
169.248308653
 21
116.2653678392
 31
0.0
  0
LINE
  5
18B
330
1F
100
AcDbEntity
  8
0
  6
HIDDEN
 62
     7
370
     0
100
AcDbLine
 10
170.0062746138
 20
103.9894907909
 30
0.0
 11
202.5062746138
 21
103.9894907909
 31
0.0
  0
LINE
  5
18C
330
1F
100
AcDbEntity
  8
0
  6
HIDDEN
 62
     7
370
     0
100
AcDbLine
 10
202.5062746138
 20
115.9894907909
 30
0.0
 11
170.0062746138
 21
115.9894907909
 31
0.0
  0
LINE
  5
18D
330
1F
100
AcDbEntity
  8
0
  6
HIDDEN
 62
     7
370
     0
100
AcDbLine
 10
159.5062746138
 20
114.9894907909
 30
0.0
 11
159.0062746138
 21
114.4894907909
 31
0.0
  0
LINE
  5
18E
330
1F
100
AcDbEntity
  8
0
  6
HIDDEN
 62
     7
370
     0
100
AcDbLine
 10
159.0062746138
 20
105.4894907909
 30
0.0
 11
159.5062746138
 21
104.9894907909
 31
0.0
  0
LINE
  5
18F
330
1F
100
AcDbEntity
  8
0
  6
HIDDEN
 62
     7
370
     0
100
AcDbLine
 10
137.8062746138
 20
105.4894907909
 30
0.0
 11
159.0062746138
 21
105.4894907909
 31
0.0
  0
LINE
  5
190
330
1F
100
AcDbEntity
  8
0
  6
HIDDEN
 62
     7
370
     0
100
AcDbLine
 10
159.0062746138
 20
114.4894907909
 30
0.0
 11
137.8062746138
 21
114.4894907909
 31
0.0
  0
LINE
  5
191
330
1F
100
AcDbEntity
  8
0
  6
HIDDEN
 62
     7
370
     0
100
AcDbLine
 10
111.1907124443
 20
85.9101194574
 30
0.0
 11
110.7562802948
 21
86.3891854765
 31
0.0
  0
LINE
  5
192
330
1F
100
AcDbEntity
  8
0
  6
HIDDEN
 62
     7
370
     0
100
AcDbLine
 10
103.2562769697
 20
86.8108734356
 30
0.0
 11
102.7738432264
 21
86.3318074601
 31
0.0
  0
LINE
  5
193
330
1F
100
AcDbEntity
  8
0
  6
HIDDEN
 62
     7
370
     0
100
AcDbLine
 10
102.7737212981
 20
133.6471688312
 30
0.0
 11
103.2562720491
 21
133.1680485733
 31
0.0
  0
LINE
  5
194
330
1F
100
AcDbEntity
  8
0
  6
HIDDEN
 62
     7
370
     0
100
AcDbLine
 10
110.7562744958
 20
133.589746351
 30
0.0
 11
111.1908168861
 21
134.0688666016
 31
0.0
  0
LINE
  5
195
330
1F
100
AcDbEntity
  8
0
  6
HIDDEN
 62
     7
370
     0
100
AcDbLine
 10
110.7562746138
 20
86.3896693782
 30
0.0
 11
110.7562746138
 21
90.0516546003
 31
0.0
  0
LINE
  5
196
330
1F
100
AcDbEntity
  8
0
  6
HIDDEN
 62
     7
370
     0
100
AcDbLine
 10
103.2562746138
 20
89.9900750521
 30
0.0
 11
103.2562746138
 21
86.8111966734
 31
0.0
  0
LINE
  5
197
330
1F
100
AcDbEntity
  8
0
  6
HIDDEN
 62
     7
370
     0
100
AcDbLine
 10
110.7562746138
 20
129.9273269815
 30
0.0
 11
110.7562746138
 21
133.5894550449
 31
0.0
  0
LINE
  5
198
330
1F
100
AcDbEntity
  8
0
  6
HIDDEN
 62
     7
370
     0
100
AcDbLine
 10
103.2562746138
 20
133.1679047941
 30
0.0
 11
103.2562746138
 21
129.9889065297
 31
0.0
  0
LINE
  5
199
330
1F
100
AcDbEntity
  8
0
  6
HIDDEN
 62
     7
370
     0
100
AcDbLine
 10
156.4562746138
 20
94.9894907909
 30
0.0
 11
155.4562746138
 21
95.5668410601
 31
0.0
  0
LINE
  5
19A
330
1F
100
AcDbEntity
  8
0
  6
HIDDEN
 62
     7
370
     0
100
AcDbLine
 10
150.4562746138
 20
95.5668410601
 30
0.0
 11
149.4562746138
 21
94.9894907909
 31
0.0
  0
LINE
  5
19B
330
1F
100
AcDbEntity
  8
0
  6
HIDDEN
 62
     7
370
     0
100
AcDbLine
 10
149.4562746138
 20
124.9894907909
 30
0.0
 11
150.4562746138
 21
124.4121405217
 31
0.0
  0
LINE
  5
19C
330
1F
100
AcDbEntity
  8
0
  6
HIDDEN
 62
     7
370
     0
100
AcDbLine
 10
155.4562746138
 20
124.4121405217
 30
0.0
 11
156.4562746138
 21
124.9894907909
 31
0.0
  0
LINE
  5
19D
330
1F
100
AcDbEntity
  8
0
  6
HIDDEN
 62
     7
370
     0
100
AcDbLine
 10
150.4562746138
 20
124.4121405217
 30
0.0
 11
150.4562746138
 21
116.9894907909
 31
0.0
  0
LINE
  5
19E
330
1F
100
AcDbEntity
  8
0
  6
HIDDEN
 62
     7
370
     0
100
AcDbLine
 10
155.4562746138
 20
116.9894907909
 30
0.0
 11
155.4562746138
 21
124.4121405217
 31
0.0
  0
LINE
  5
19F
330
1F
100
AcDbEntity
  8
0
  6
HIDDEN
 62
     7
370
     0
100
AcDbLine
 10
150.4562746138
 20
116.9894907909
 30
0.0
 11
152.9562746138
 21
115.4873392433
 31
0.0
  0
LINE
  5
1A0
330
1F
100
AcDbEntity
  8
0
  6
HIDDEN
 62
     7
370
     0
100
AcDbLine
 10
152.9562746138
 20
115.4873392433
 30
0.0
 11
155.4562746138
 21
116.9894907909
 31
0.0
  0
LINE
  5
1A1
330
1F
100
AcDbEntity
  8
0
  6
HIDDEN
 62
     7
370
     0
100
AcDbLine
 10
155.4562746138
 20
102.9894907909
 30
0.0
 11
152.9562746138
 21
104.4916423385
 31
0.0
  0
LINE
  5
1A2
330
1F
100
AcDbEntity
  8
0
  6
HIDDEN
 62
     7
370
     0
100
AcDbLine
 10
152.9562746138
 20
104.4916423385
 30
0.0
 11
150.4562746138
 21
102.9894907909
 31
0.0
  0
LINE
  5
1A3
330
1F
100
AcDbEntity
  8
0
  6
HIDDEN
 62
     7
370
     0
100
AcDbLine
 10
155.4562746138
 20
95.5668410601
 30
0.0
 11
155.4562746138
 21
102.9894907909
 31
0.0
  0
LINE
  5
1A4
330
1F
100
AcDbEntity
  8
0
  6
HIDDEN
 62
     7
370
     0
100
AcDbLine
 10
150.4562746138
 20
102.9894907909
 30
0.0
 11
150.4562746138
 21
95.5668410601
 31
0.0
  0
LINE
  5
1A5
330
1F
100
AcDbEntity
  8
0
  6
HIDDEN
 62
     7
370
     0
100
AcDbLine
 10
160.1075133698
 20
119.5418935834
 30
0.0
 11
160.1075133698
 21
116.2887213875
 31
0.0
  0
LINE
  5
1A6
330
1F
100
AcDbEntity
  8
0
  6
HIDDEN
 62
     7
370
     0
100
AcDbLine
 10
160.1075133698
 20
123.4394907909
 30
0.0
 11
160.1075133698
 21
122.0404062118
 31
0.0
  0
LINE
  5
1A7
330
1F
100
AcDbEntity
  8
0
  6
HIDDEN
 62
     7
370
     0
100
AcDbLine
 10
163.1075133698
 20
121.9242753949
 30
0.0
 11
163.1075133698
 21
123.4394907909
 31
0.0
  0
LINE
  5
1A8
330
1F
100
AcDbEntity
  8
0
  6
HIDDEN
 62
     7
370
     0
100
AcDbLine
 10
163.1075133698
 20
116.2882532934
 30
0.0
 11
163.1075133698
 21
119.4240232624
 31
0.0
  0
LINE
  5
1A9
330
1F
100
AcDbEntity
  8
0
  6
HIDDEN
 62
     7
370
     0
100
AcDbLine
 10
160.1075133698
 20
97.9440283999
 30
0.0
 11
160.1075133698
 21
96.9894907909
 31
0.0
  0
LINE
  5
1AA
330
1F
100
AcDbEntity
  8
0
  6
HIDDEN
 62
     7
370
     0
100
AcDbLine
 10
160.1075133698
 20
103.6902261709
 30
0.0
 11
160.1075133698
 21
100.4370879984
 31
0.0
  0
LINE
  5
1AB
330
1F
100
AcDbEntity
  8
0
  6
HIDDEN
 62
     7
370
     0
100
AcDbLine
 10
163.1075133698
 20
100.5549583194
 30
0.0
 11
163.1075133698
 21
103.6894907909
 31
0.0
  0
LINE
  5
1AC
330
1F
100
AcDbEntity
  8
0
  6
HIDDEN
 62
     7
370
     0
100
AcDbLine
 10
163.1075133698
 20
96.9894907909
 30
0.0
 11
163.1075133698
 21
98.0567862007
 31
0.0
  0
LINE
  5
1AD
330
1F
100
AcDbEntity
  8
0
  6
HIDDEN
 62
     7
370
     0
100
AcDbLine
 10
160.1075133698
 20
96.9894907909
 30
0.0
 11
161.6075133698
 21
96.0881998624
 31
0.0
  0
LINE
  5
1AE
330
1F
100
AcDbEntity
  8
0
  6
HIDDEN
 62
     7
370
     0
100
AcDbLine
 10
161.6075133698
 20
96.0881998624
 30
0.0
 11
163.1075133698
 21
96.9894907909
 31
0.0
  0
LINE
  5
1AF
330
1F
100
AcDbEntity
  8
0
  6
HIDDEN
 62
     7
370
     0
100
AcDbLine
 10
163.1044586731
 20
98.0529094035
 30
0.0
 11
206.0769490552
 21
99.741303149
 31
0.0
  0
LINE
  5
1B0
330
1F
100
AcDbEntity
  8
0
  6
HIDDEN
 62
     7
370
     0
100
AcDbLine
 10
206.0062746138
 20
102.2404552392
 30
0.0
 11
163.1075133698
 21
100.5549583194
 31
0.0
  0
LINE
  5
1B1
330
1F
100
AcDbEntity
  8
0
  6
HIDDEN
 62
     7
370
     0
100
AcDbLine
 10
159.992664177
 20
119.5464060205
 30
0.0
 11
160.1075133698
 21
119.5418935834
 31
0.0
  0
LINE
  5
1B2
330
1F
100
AcDbEntity
  8
0
  6
HIDDEN
 62
     7
370
     0
100
AcDbLine
 10
160.1103962995
 20
122.0437092093
 30
0.0
 11
160.0908137164
 21
122.0444786111
 31
0.0
  0
LINE
  5
1B3
330
1F
100
AcDbEntity
  8
0
  6
HIDDEN
 62
     7
370
     0
100
AcDbLine
 10
160.0908137164
 20
97.9345029707
 30
0.0
 11
160.1149621757
 21
97.9354517662
 31
0.0
  0
LINE
  5
1B4
330
1F
100
AcDbEntity
  8
0
  6
HIDDEN
 62
     7
370
     0
100
AcDbLine
 10
160.1075133698
 20
100.4370879984
 30
0.0
 11
159.992664177
 21
100.4325755613
 31
0.0
  0
LINE
  5
1B5
330
1F
100
AcDbEntity
  8
0
  6
HIDDEN
 62
     7
370
     0
100
AcDbLine
 10
163.1075133698
 20
119.4240232624
 30
0.0
 11
206.0062746138
 21
117.7385263426
 31
0.0
  0
LINE
  5
1B6
330
1F
100
AcDbEntity
  8
0
  6
HIDDEN
 62
     7
370
     0
100
AcDbLine
 10
206.0769490552
 20
120.2376784328
 30
0.0
 11
163.1061398845
 21
121.9260061233
 31
0.0
  0
LINE
  5
1B7
330
1F
100
AcDbEntity
  8
0
  6
HIDDEN
 62
     7
370
     0
100
AcDbLine
 10
160.0908137164
 20
122.0444786111
 30
0.0
 11
159.2912422251
 21
120.8249294123
 31
0.0
  0
LINE
  5
1B8
330
1F
100
AcDbEntity
  8
0
  6
HIDDEN
 62
     7
370
     0
100
AcDbLine
 10
159.2912422251
 20
120.8249294123
 30
0.0
 11
159.992664177
 21
119.5464060205
 31
0.0
  0
LINE
  5
1B9
330
1F
100
AcDbEntity
  8
0
  6
HIDDEN
 62
     7
370
     0
100
AcDbLine
 10
159.992664177
 20
100.4325755613
 30
0.0
 11
159.2912422251
 21
99.1540521695
 31
0.0
  0
LINE
  5
1BA
330
1F
100
AcDbEntity
  8
0
  6
HIDDEN
 62
     7
370
     0
100
AcDbLine
 10
159.2912422251
 20
99.1540521695
 30
0.0
 11
160.0908137164
 21
97.9345029707
 31
0.0
  0
LINE
  5
1BB
330
1F
100
AcDbEntity
  8
0
  6
HIDDEN
 62
     7
370
     0
100
AcDbLine
 10
205.8738975802
 20
120.4958492366
 30
0.0
 11
200.5399597763
 21
120.7054202237
 31
0.0
  0
LINE
  5
1BC
330
1F
100
AcDbEntity
  8
0
  6
HIDDEN
 62
     7
370
     0
100
AcDbLine
 10
200.422180329
 20
117.707733115
 30
0.0
 11
205.7561181329
 21
117.4981621279
 31
0.0
  0
LINE
  5
1BD
330
1F
100
AcDbEntity
  8
0
  6
HIDDEN
 62
     7
370
     0
100
AcDbLine
 10
200.5399597763
 20
120.7054202237
 30
0.0
 11
200.0207153503
 21
120.2254356135
 31
0.0
  0
LINE
  5
1BE
330
1F
100
AcDbEntity
  8
0
  6
HIDDEN
 62
     7
370
     0
100
AcDbLine
 10
199.9421957188
 20
118.226977541
 30
0.0
 11
200.422180329
 21
117.707733115
 31
0.0
  0
LINE
  5
1BF
330
1F
100
AcDbEntity
  8
0
  6
HIDDEN
 62
     7
370
     0
100
AcDbLine
 10
205.7561181329
 20
117.4981621279
 30
0.0
 11
205.9289524066
 21
117.772087873
 31
0.0
  0
LINE
  5
1C0
330
1F
100
AcDbEntity
  8
0
  6
HIDDEN
 62
     7
370
     0
100
AcDbLine
 10
206.0032910727
 20
120.2499126598
 30
0.0
 11
205.8738975802
 21
120.4958492366
 31
0.0
  0
LINE
  5
1C1
330
1F
100
AcDbEntity
  8
0
  6
HIDDEN
 62
     7
370
     0
100
AcDbLine
 10
205.7561181329
 20
102.4808194539
 30
0.0
 11
200.422180329
 21
102.2712484668
 31
0.0
  0
LINE
  5
1C2
330
1F
100
AcDbEntity
  8
0
  6
HIDDEN
 62
     7
370
     0
100
AcDbLine
 10
200.5399597763
 20
99.2735613581
 30
0.0
 11
205.8738975802
 21
99.4831323452
 31
0.0
  0
LINE
  5
1C3
330
1F
100
AcDbEntity
  8
0
  6
HIDDEN
 62
     7
370
     0
100
AcDbLine
 10
205.8738975802
 20
99.4831323452
 30
0.0
 11
206.0032910727
 21
99.729068922
 31
0.0
  0
LINE
  5
1C4
330
1F
100
AcDbEntity
  8
0
  6
HIDDEN
 62
     7
370
     0
100
AcDbLine
 10
205.9289524066
 20
102.2068937088
 30
0.0
 11
205.7561181329
 21
102.4808194539
 31
0.0
  0
LINE
  5
1C5
330
1F
100
AcDbEntity
  8
0
  6
HIDDEN
 62
     7
370
     0
100
AcDbLine
 10
200.422180329
 20
102.2712484668
 30
0.0
 11
199.9421957188
 21
101.7520040408
 31
0.0
  0
LINE
  5
1C6
330
1F
100
AcDbEntity
  8
0
  6
HIDDEN
 62
     7
370
     0
100
AcDbLine
 10
200.0207153503
 20
99.7535459683
 30
0.0
 11
200.5399597763
 21
99.2735613581
 31
0.0
  0
DIMENSION
  5
1C7
330
1F
100
AcDbEntity
  8
VERMASSUNG
100
AcDbDimension
  2
*D1
 10
79.5754062839
 20
78.4894907909
 30
0.0
 11
79.5754062839
 21
109.9894907909
 31
0.0
 70
   160
  1
HSK A %%c<>
 71
     2
 42
-1.0
  3
SLDDIMSTYLE0
100
AcDbAlignedDimension
 13
116.3062746138
 23
141.4894907909
 33
0.0
 14
116.3062746138
 24
78.4894907909
 34
0.0
 50
90.0
100
AcDbRotatedDimension
  0
DIMENSION
  5
1D4
330
1F
100
AcDbEntity
  8
VERMASSUNG
100
AcDbDimension
  2
*D2
 10
206.0062746138
 20
145.4894907909
 30
0.0
 11
182.7562746138
 21
145.4894907909
 31
0.0
 70
   160
 71
     2
 42
-1.0
  3
SLDDIMSTYLE1
100
AcDbAlignedDimension
 13
159.5062746138
 23
115.8894907909
 33
0.0
 14
206.0062746138
 24
120.1407098076
 34
0.0
100
AcDbRotatedDimension
  0
DIMENSION
  5
1DF
330
1F
100
AcDbEntity
  8
VERMASSUNG
100
AcDbDimension
  2
*D3
 10
216.0769490552
 20
115.9894907909
 30
0.0
 11
216.0769490552
 21
109.9894907909
 31
0.0
 70
   160
  1
%%c<>
 71
     2
 42
-1.0
  3
SLDDIMSTYLE2
100
AcDbAlignedDimension
 13
202.5062746138
 23
103.9894907909
 33
0.0
 14
202.5062746138
 24
115.9894907909
 34
0.0
 50
90.0
100
AcDbRotatedDimension
  0
DIMENSION
  5
1EB
330
1F
100
AcDbEntity
  8
VERMASSUNG
100
AcDbDimension
  2
*D4
 10
222.0769490552
 20
121.9894907909
 30
0.0
 11
222.0769490552
 21
109.9894907909
 31
0.0
 70
   160
  1
%%c<>
 71
     2
 42
-1.0
  3
SLDDIMSTYLE3
100
AcDbAlignedDimension
 13
206.0062746138
 23
97.9894907909
 33
0.0
 14
206.0062746138
 24
121.9894907909
 34
0.0
 50
90.0
100
AcDbRotatedDimension
  0
DIMENSION
  5
1F7
330
1F
100
AcDbEntity
  8
VERMASSUNG
100
AcDbDimension
  2
*D5
 10
206.0062746138
 20
157.4894907909
 30
0.0
 11
161.0062746138
 21
157.4894907909
 31
0.0
 70
   160
 71
     2
 42
-1.0
  3
SLDDIMSTYLE0
100
AcDbAlignedDimension
 13
116.0062746138
 23
135.3134219369
 33
0.0
 14
206.0062746138
 24
120.1407098076
 34
0.0
100
AcDbRotatedDimension
  0
DIMENSION
  5
201
330
1F
100
AcDbEntity
  8
VERMASSUNG
100
AcDbDimension
  2
*D6
 10
141.9562746138
 20
151.4894907909
 30
0.0
 11
173.9812746138
 21
151.4894907909
 31
0.0
 70
   160
 71
     2
 42
-1.0
  3
SLDDIMSTYLE0
100
AcDbAlignedDimension
 13
206.0062746138
 23
120.1274214394
 33
0.0
 14
141.9562746138
 24
139.8359311147
 34
0.0
100
AcDbRotatedDimension
  0
DIMENSION
  5
20B
330
1F
100
AcDbEntity
  8
VERMASSUNG
100
AcDbDimension
  2
*D7
 10
84.1062746138
 20
163.4894907909
 30
0.0
 11
145.0562746138
 21
163.4894907909
 31
0.0
 70
   160
 71
     2
 42
-1.0
  3
SLDDIMSTYLE0
100
AcDbAlignedDimension
 13
206.0062746138
 23
120.1274214394
 33
0.0
 14
84.1062746138
 24
129.6801685374
 34
0.0
100
AcDbRotatedDimension
  0
DIMENSION
  5
215
330
1F
100
AcDbEntity
  8
VERMASSUNG
100
AcDbDimension
  2
*D8
 10
228.0769490552
 20
94.9894907909
 30
0.0
 11
228.0769490552
 21
109.9894907909
 31
0.0
 70
   160
  1
%%c<>
 71
     2
 42
-1.0
  3
SLDDIMSTYLE0
100
AcDbAlignedDimension
 13
167.8876604053
 23
124.9894907909
 33
0.0
 14
167.8876604053
 24
94.9894907909
 34
0.0
 50
90.0
100
AcDbRotatedDimension
  0
LINE
  5
220
330
1F
100
AcDbEntity
  8
VERMASSUNG
  6
CENTERX2
370
     0
100
AcDbLine
 10
80.7357529794
 20
109.9894907909
 30
0.0
 11
208.0769490552
 21
109.9894907909
 31
0.0
  0
OLE2FRAME
  5
221
330
1F
100
AcDbEntity
  8
0
100
AcDbOle2Frame
 70
     2
  3
Bitmap Image
 10
13.8511154363
 20
38.264191557
 30
0.0
 11
51.6290888628
 21
31.9806341108
 31
0.0
 71
     2
 72
     0
 73
     1
 90
    12928
310
80552BED0767C5B32B40DDAF6807D121434000000000000000006FFBDDFB85D0
310
4940DDAF6807D121434000000000000000006FFBDDFB85D04940416F4BD60AFB
310
3F4000000000000000002BED0767C5B32B40416F4BD60AFB3F40000000000000
310
0000000000000100000000010000010000000100000000000100000000320000
310
D0CF11E0A1B11AE1000000000000000000000000000000003E000300FEFF0900
310
0600000000000000000000000100000001000000000000000010000002000000
310
01000000FEFFFFFF0000000000000000FFFFFFFFFFFFFFFFFFFFFFFFFFFFFFFF
310
FFFFFFFFFFFFFFFFFFFFFFFFFFFFFFFFFFFFFFFFFFFFFFFFFFFFFFFFFFFFFFFF
310
FFFFFFFFFFFFFFFFFFFFFFFFFFFFFFFFFFFFFFFFFFFFFFFFFFFFFFFFFFFFFFFF
310
FFFFFFFFFFFFFFFFFFFFFFFFFFFFFFFFFFFFFFFFFFFFFFFFFFFFFFFFFFFFFFFF
310
FFFFFFFFFFFFFFFFFFFFFFFFFFFFFFFFFFFFFFFFFFFFFFFFFFFFFFFFFFFFFFFF
310
FFFFFFFFFFFFFFFFFFFFFFFFFFFFFFFFFFFFFFFFFFFFFFFFFFFFFFFFFFFFFFFF
310
FFFFFFFFFFFFFFFFFFFFFFFFFFFFFFFFFFFFFFFFFFFFFFFFFFFFFFFFFFFFFFFF
310
FFFFFFFFFFFFFFFFFFFFFFFFFFFFFFFFFFFFFFFFFFFFFFFFFFFFFFFFFFFFFFFF
310
FFFFFFFFFFFFFFFFFFFFFFFFFFFFFFFFFFFFFFFFFFFFFFFFFFFFFFFFFFFFFFFF
310
FFFFFFFFFFFFFFFFFFFFFFFFFFFFFFFFFFFFFFFFFFFFFFFFFFFFFFFFFFFFFFFF
310
FFFFFFFFFFFFFFFFFFFFFFFFFFFFFFFFFFFFFFFFFFFFFFFFFFFFFFFFFFFFFFFF
310
FFFFFFFFFFFFFFFFFFFFFFFFFFFFFFFFFFFFFFFFFFFFFFFFFFFFFFFFFFFFFFFF
310
FFFFFFFFFFFFFFFFFFFFFFFFFFFFFFFFFFFFFFFFFFFFFFFFFFFFFFFFFFFFFFFF
310
FFFFFFFFFFFFFFFFFFFFFFFFFFFFFFFFFFFFFFFFFFFFFFFFFFFFFFFFFFFFFFFF
310
FDFFFFFFFEFFFFFFFEFFFFFFFEFFFFFF05000000060000000700000008000000
310
090000000A0000000B0000000C0000000D0000000E0000000F00000010000000
310
11000000120000001300000014000000150000001600000017000000FEFFFFFF
310
FFFFFFFFFFFFFFFFFFFFFFFFFFFFFFFFFFFFFFFFFFFFFFFFFFFFFFFFFFFFFFFF
310
FFFFFFFFFFFFFFFFFFFFFFFFFFFFFFFFFFFFFFFFFFFFFFFFFFFFFFFFFFFFFFFF
310
FFFFFFFFFFFFFFFFFFFFFFFFFFFFFFFFFFFFFFFFFFFFFFFFFFFFFFFFFFFFFFFF
310
FFFFFFFFFFFFFFFFFFFFFFFFFFFFFFFFFFFFFFFFFFFFFFFFFFFFFFFFFFFFFFFF
310
FFFFFFFFFFFFFFFFFFFFFFFFFFFFFFFFFFFFFFFFFFFFFFFFFFFFFFFFFFFFFFFF
310
FFFFFFFFFFFFFFFFFFFFFFFFFFFFFFFFFFFFFFFFFFFFFFFFFFFFFFFFFFFFFFFF
310
FFFFFFFFFFFFFFFFFFFFFFFFFFFFFFFFFFFFFFFFFFFFFFFFFFFFFFFFFFFFFFFF
310
FFFFFFFFFFFFFFFFFFFFFFFFFFFFFFFFFFFFFFFFFFFFFFFFFFFFFFFFFFFFFFFF
310
FFFFFFFFFFFFFFFFFFFFFFFFFFFFFFFFFFFFFFFFFFFFFFFFFFFFFFFFFFFFFFFF
310
FFFFFFFFFFFFFFFFFFFFFFFFFFFFFFFFFFFFFFFFFFFFFFFFFFFFFFFFFFFFFFFF
310
FFFFFFFFFFFFFFFFFFFFFFFFFFFFFFFFFFFFFFFFFFFFFFFFFFFFFFFFFFFFFFFF
310
FFFFFFFFFFFFFFFFFFFFFFFFFFFFFFFFFFFFFFFFFFFFFFFFFFFFFFFFFFFFFFFF
310
FFFFFFFFFFFFFFFFFFFFFFFFFFFFFFFFFFFFFFFFFFFFFFFFFFFFFFFFFFFFFFFF
310
52006F006F007400200045006E00740072007900000000000000000000000000
310
0000000000000000000000000000000000000000000000000000000000000000
310
16000500FFFFFFFFFFFFFFFF020000000A00030000000000C000000000000046
310
00000000000000000000000020EEDF53C304CC0103000000C000000000000000
310
01004F006C006500000000000000000000000000000000000000000000000000
310
0000000000000000000000000000000000000000000000000000000000000000
310
0A000200FFFFFFFFFFFFFFFFFFFFFFFF00000000000000000000000000000000
310
0000000000000000000000000000000000000000000000001400000000000000
310
010043006F006D0070004F0062006A0000000000000000000000000000000000
310
0000000000000000000000000000000000000000000000000000000000000000
310
120002010100000003000000FFFFFFFF00000000000000000000000000000000
310
0000000000000000000000000000000000000000010000004D00000000000000
310
01004F006C006500310030004E00610074006900760065000000000000000000
310
0000000000000000000000000000000000000000000000000000000000000000
310
1A000200FFFFFFFFFFFFFFFFFFFFFFFF00000000000000000000000000000000
310
0000000000000000000000000000000000000000040000002426000000000000
310
FEFFFFFF02000000FEFFFFFFFFFFFFFFFFFFFFFFFFFFFFFFFFFFFFFFFFFFFFFF
310
FFFFFFFFFFFFFFFFFFFFFFFFFFFFFFFFFFFFFFFFFFFFFFFFFFFFFFFFFFFFFFFF
310
FFFFFFFFFFFFFFFFFFFFFFFFFFFFFFFFFFFFFFFFFFFFFFFFFFFFFFFFFFFFFFFF
310
FFFFFFFFFFFFFFFFFFFFFFFFFFFFFFFFFFFFFFFFFFFFFFFFFFFFFFFFFFFFFFFF
310
FFFFFFFFFFFFFFFFFFFFFFFFFFFFFFFFFFFFFFFFFFFFFFFFFFFFFFFFFFFFFFFF
310
FFFFFFFFFFFFFFFFFFFFFFFFFFFFFFFFFFFFFFFFFFFFFFFFFFFFFFFFFFFFFFFF
310
FFFFFFFFFFFFFFFFFFFFFFFFFFFFFFFFFFFFFFFFFFFFFFFFFFFFFFFFFFFFFFFF
310
FFFFFFFFFFFFFFFFFFFFFFFFFFFFFFFFFFFFFFFFFFFFFFFFFFFFFFFFFFFFFFFF
310
FFFFFFFFFFFFFFFFFFFFFFFFFFFFFFFFFFFFFFFFFFFFFFFFFFFFFFFFFFFFFFFF
310
FFFFFFFFFFFFFFFFFFFFFFFFFFFFFFFFFFFFFFFFFFFFFFFFFFFFFFFFFFFFFFFF
310
FFFFFFFFFFFFFFFFFFFFFFFFFFFFFFFFFFFFFFFFFFFFFFFFFFFFFFFFFFFFFFFF
310
FFFFFFFFFFFFFFFFFFFFFFFFFFFFFFFFFFFFFFFFFFFFFFFFFFFFFFFFFFFFFFFF
310
FFFFFFFFFFFFFFFFFFFFFFFFFFFFFFFFFFFFFFFFFFFFFFFFFFFFFFFFFFFFFFFF
310
FFFFFFFFFFFFFFFFFFFFFFFFFFFFFFFFFFFFFFFFFFFFFFFFFFFFFFFFFFFFFFFF
310
FFFFFFFFFFFFFFFFFFFFFFFFFFFFFFFFFFFFFFFFFFFFFFFFFFFFFFFFFFFFFFFF
310
FFFFFFFFFFFFFFFFFFFFFFFFFFFFFFFFFFFFFFFFFFFFFFFFFFFFFFFFFFFFFFFF
310
0100000200000000000000000000000000000000000000000000000000000000
310
000000000000000038000000410000006E0DF301000000006A0EB10200000000
310
0100FEFF030A0000FFFFFFFF0A00030000000000C00000000000004607000000
310
5042727573680007000000504272757368000700000050427275736800F439B2
310
7100000000000000000000000000000000000000000000000000C70600000000
310
425D000000000000000000000000000000000000000000003800000041000000
310
6E0DF301000000006C0E7A020000000000000000000000000000000000000000
310
0000C70600000000435D00000000000000000000000000000000000000000000
310
38000000410000006E0DF301000000003A0ED503000000000000000000000000
310
00000000000000000000C706000000003D5D0000000000000000000000000000
310
000000000000000038000000410000006E0DF30100000000400E4C0300000000
310
000000000000000000000000000000000000C706000000003E5D000000000000
310
0000000000000000000000000000000038000000410000006E0DF30100000000
310
1C0E8F0300000000000000000000000000000000000000000000C70600000000
310
3F5D000000000000000000000000000000000000000000003800000041000000
310
6E0DF30100000000080E1F020000000000000000000000000000000000000000
310
20260000424D0E260000000000003E00000028000000B40200006E0000000100
310
01000000000000000000130B0000130B00000200000002000000000000FFFFFF
310
FFFFFFFFFFFFFFFFFFFFFFFFFFFFFFFFFFFFFFFFFFFFFFFFFFFFFFFFFFFFFFFF
310
FFFFFFFFFFFFFFFFFFFFFFFFFFFFFFFFFFFFFFFFFFFFFFFFFFFFFFFFFFFFFFFF
310
FFFFFFFFFFFFFFFFFFFFFFFFFFFFFFFFFFFFFFFFFFFFFFFFF000FFFFFFFFFFFF
310
FFFFFFFFFFFFFFFFFFFFFFFFFFFFFFFFFFFFFFFFFFFFFFFFFFFFFFFFFFFFFFFF
310
FFFFFFFFFFFFFFFFFFFFFFFFFFFFFFFFFFFFFFFFFFFFFFFFFFFFFFFFFFFFFFFF
310
FFFFFFFFFFFFFFFFFFFFFFFFFFFFFFFFF000FFFFFFFFFFFFFFFFFFFFFFFFFFFF
310
FFFFFFFFFFFFFFFFFFFFFFFFFFFFFFFFFFFFFFFFFFFFFFFFFFFFFFFFFFFFFFFF
310
FFFFFFFFFFFFFFFFFFFFFFFFFFFFFFFFFFFFFFFFFFFFFFFFFFFFFFFFFFFFFFFF
310
FFFFFFFFFFFFFFFFF000FFFFFFFFFFFFFFFFFFFFFFFFFFFFFFFFFFFFFFFFFFFF
310
FFFFFFFFFFFFFFFFFFFFFFFFFFFFFFFFFFFFFFFFFFFFFFFFFFFFFFFFFFFFFFFF
310
FFFFFFFFFFFFFFFFFFFFFFFFFFFFFFFFFFFFFFFFFFFFFFFFFFFFFFFFFFFFFFFF
310
F000FFFFFFFFFFFFFFFFFFFFFFFFFFFFFFFFFFFFFFFFFFFFFFFFFFFFFFFFFFFF
310
FFFFFFFFFFFFFFFFFFFFFFFFFFFFFFFFFFFFFFFFFFFFFFFFFFFFFFFFFFFFFFFF
310
FFFFFFFFFFFFFFFFFFFFFFFFFFFFFFFFFFFFFFFFFFFFFFFFF000FFFFFFFFFFFF
310
FFFFFFFFFFFFFFFFFFFFFFFFFFFFFFFFFFFFFFFFFFFFFFFFFFFFFFFFFFFFFFFF
310
FFFFFFFFFFFFFFFFFFFFFFFFFFFFFFFFFFFFFFFFFFFFFFFFFFFFFFFFFFFFFFFF
310
FFFFFFFFFFFFFFFFFFFFFFFFFFFFFFFFF000FFFFFFFFFFFFFFFFFFFFFFFFFFFF
310
FFFFFFFFFFFFFFFFFFFFFFFFFFFFFFFFFFFFFFFFFFFFFFFFFFFFFFFFFFFFFFFF
310
FFFFFFFFFFFFFFFFFFFFFFFFFFFFFFFFFFFFFFFFFFFFFFFFFFFFFFFFFFFFFFFF
310
FFFFFFFFFFFFFFFFF000FFFFFFFFFFFFFFFFFFFFFFFFFFFFFFFFFFFFFFFFFFFF
310
FFFFFFFFFFFFFFFFFFFFFFFFFFFFFFFFFFFFFFFFFFFFFFFFFFFFFFFFFFFFFFFF
310
FFFFFFFFFFFFFFFFFFFFFFFFFFFFFFFFFFFFFFFFFFFFFFFFFFFFFFFFFFFFFFFF
310
F000FFFFFFFFFFFFFFFFFFFFFFFFFFFFFFFFFFFFFFFFFFFFFFFFFFFFFFFFFFFF
310
FFFFFFFFFFFFFFFFFFFFFFFFFFFFFFFFFFFFFFFFFFFFFFFFFFFFFFFFFFFFFFFF
310
FFFFFFFFFFFFFFFFFFFFFFFFFFFFFFFFFFFFFFFFFFFFFFFFF000FFFFFFFFFFFF
310
FFFFFFFFFFFFFFFFFFFFFFFFFFFFFFFFFFFFFFFFFFFFFFFFFFFFFFFFFFFFFFFF
310
FFFFFFFFFFFFFFFFFFFFFFFFFFFFFFFFFFFFFFFFFFFFFFFFFFFFFFFFFFFFFFFF
310
FFFFFFFFFFFFFFFFFFFFFFFFFFFFFFFFF000FFFFFFFFFFFFFFFFFFFFFFFFFFFF
310
FFFFFFFFFFFFFFFFFFFFFFFFFFFFFFFFFFFFFFFFFFFFFFFFFFFFFFFFFFFFFFFF
310
FFFFFFFFFFFFFFFFFFFFFFFFFFFFFFFFFFFFFFFFFFFFFFFFFFFFFFFFFFFFFFFF
310
FFFFFFFFFFFFFFFFF000FFFFFFFFFFFFFFFFFFFFFFFFFFFFFFFFFFFFFFFFFFFF
310
FFFFFFFFFFFFFFFFFFFFFFFFFFFFFFFFFFFFFFFFFFFFFFFFFFFFFFFFFFFFFFFF
310
FFFFFFFFFFFFFFFFFFFFFFFFFFFFFFFFFFFFFFFFFFFFFFFFFFFFFFFFFFFFFFFF
310
F000FFFFFFFFFFFFFFFFFFFFFFFFFFFFFFFFFFFFFFFFFFFFFFFFFFFFFFFFFFFF
310
FFFFFFFFFFFFFFFFFFFFFFFFFFFFFFFFFFFFFFFFFFFFFFFFFFFFFFFFFFFFFFFF
310
FFFFFFFFFFFFFFFFFFFFFFFFFFFFFFFFFFFFFFFFFFFFFFFFF000FFFFFFFFFFFF
310
FFFFFFFFFFFFFFFFFFFFFFFFFFFFFFFFFFFFFFFFFFFFFFFFFFFFFFFFFFFFFFFF
310
FFFFFFFFFFFFFFFFFFFFFFFFFFFFFFFFFFFFFFFFFFFFFFFFFFFFFFFFFFFFFFFF
310
FFFFFFFFFFFFFFFFFFFFFFFFFFFFFFFFF000FFFFFFFFFFFFFFFFFFFFFFFFFFFF
310
FFFFFFFFFFFFFFFFFFFFFFFFFFFFFFFFFFFFFFFFFFFFFFFFFFFFFFFFFFFFFFFF
310
FFFFFFFFFFFFFFFFFFFFFFFFFFFFFFFFFFFFFFFFFFFFFFFFFFFFFFFFFFFFFFFF
310
FFFFFFFFFFFFFFFFF000FFFFFFFFFFFFFFFFFFFFFFFFFFFFFFFFFFFFFFFFFFFF
310
FFFFFFFFFFFFFFFFFFFFFFFFFFFFFFFFFFFFFFFFFFFFFFFFFFFFFFFFFFFFFFFF
310
FFFFFFFFFFFFFFFFFFFFFFFFFFFFFFFFFFFFFFFFFFFFFFFFFFFFFFFFFFFFFFFF
310
F000FFFFFFFFFFFFFFFFFFFFFFFFFFFFFFFFFFFFFFFFFFFFFFFFFFFFFFFFFFFF
310
FFFFFFFFFFFFFFFFFFFFFFFFFFFFFFFFFFFFFFFFFFFFFFFFFFFFFFFFFFFFFFFF
310
FFFFFFFFFFFFFFFFFFFFFFFFFFFFFFFFFFFFFFFFFFFFFFFFF000FFFFFFFFFFFF
310
FFFFFFFFFFFFFFFFFFFFFFFFFFFFFFFFFFFFFFFFFFFFFFFFFFFFFFFFFFFFFFFF
310
FFFFFFFFFFFFFFFFFFFFFFFFFFFFFFFFFFFFFFFFFFFFFFFFFFFFFFFFFFFFFFFF
310
FFFFFFFFFFFFFFFFFFFFFFFFFFFFFFFFF000FFFFFFFFFFFFFFFFFFFFFFFFFFFF
310
FFFFFFFFFFFFFFFFFFFFFFFFFFFFFFFFFFFFFFFFFFFFFFFFFFFFFFFFFFFFFFFF
310
FFFFFFFFFFFFFFFFFFFFFFFFFFFFFFFFFFFFFFFFFFFFFFFFFFFFFFFFFFFFFFFF
310
FFFFFFFFFFFFFFFFF000FFFFF80003FFFFFFFFFFFFFFFFFFFFFFFFFFFFFFFFFF
310
FFFFF00007FFFFFFFFFF00007FFFFFF800000000000000007FFFFFFFFFFFFFFF
310
FFFFFFFC001FFFFFFFFFFFFFFC001FFFFFFFFFFFFFFFFFFFFFFFFFFE0007FFFF
310
F000FFFF8000007FFFFFFFF8000FFFFFC0007FFFFF80007FFFFF0000007FFFFF
310
FFF8000007FFFFF800000000000000007FFFFFF0001FFFFFFFFFFFC00001FFFF
310
FFFFFFFFC00001FFFFFFFF000000000003FFFFE000007FFFF000FFFE0000000F
310
FFFFFFF0000FFFFF80007FFFFF80007FFFFC0000001FFFFFFFC0000001FFFFF8
310
00000000000000007FFFFFF0001FFFFFFFFFFE0000003FFFFFFFFFFE0000003F
310
FFFFFF000000000003FFFF0000000FFFF000FFF800000003FFFFFFF00007FFFF
310
80007FFFFF80007FFFF000000007FFFFFF000000003FFFF80000000000000000
310
7FFFFFF0001FFFFFFFFFF80000000FFFFFFFFFF80000000FFFFFFF0000000000
310
03FFFC00000003FFF000FFE000000000FFFFFFF00007FFFF80003FFFFF80007F
310
FFC000000001FFFFFC000000001FFFF800000000000000007FFFFFF0001FFFFF
310
FFFFE000000003FFFFFFFFE000000003FFFFFF000000000003FFF000000000FF
310
F000FF80000000007FFFFFF00007FFFF80003FFFFF80007FFF8000000000FFFF
310
F80000000007FFF800000000000000007FFFFFF0001FFFFFFFFFC000000001FF
310
FFFFFFC000000001FFFFFF000000000003FFC0000000007FF000FF0000000000
310
3FFFFFE00007FFFF00003FFFFF80007FFE00000000003FFFF00000000003FFF8
310
00000000000000007FFFFFF0001FFFFFFFFF8000000000FFFFFFFF8000000000
310
FFFFFF000000000003FF80000000003FF000FE00000000001FFFFFE00003FFFF
310
00003FFFFF80007FFC00000000001FFFE00000000001FFF8000001FFFE000000
310
7FFFFFF0001FFFFFFFFE00000000003FFFFFFE00000000003FFFFF0000000000
310
03FF00000000001FF000FC00000000000FFFFFE00003FFFF00001FFFFF80007F
310
F800000000001FFFC00000000000FFF8000001FFFE0000007FFFFFF0001FFFFF
310
FFFC00000000001FFFFFFC00000000001FFFFF000000000003FE00000000000F
310
F000F8000000000007FFFFE00003FFFF00001FFFFF80007FF800000000000FFF
310
800000000000FFF8000001FFFE0000007FFFFFF0001FFFFFFFF800000000000F
310
FFFFF800000000000FFFFF000000000003FC000000000007F000F80000000000
310
03FFFFC00003FFFE00001FFFFF80007FF0000000000007FF0000000000007FF8
310
000001FFFE0000007FFFFFF0001FFFFFFFF0000000000007FFFFF00000000000
310
07FFFF000000000003F8000000000003F000F0000000000003FFFFC00001FFFE
310
00001FFFFF80007FE0000000000007FE0000000000003FF8000001FFFE000000
310
7FFFFFF0001FFFFFFFF0000000000007FFFFF0000000000007FFFF0000000000
310
03F800001F800003F000E00001FFF00001FFFFC00001FFFE00000FFFFF80007F
310
E00001FFE00003FE00001FFF00003FF8000001FFFE0000007FFFFFF0001FFFFF
310
FFE000003E000003FFFFE000003E000003FFFF000000000003F00001FFF80001
310
F000E00007FFFC0001FFFFC00001FFFE00000FFFFF80007FC0000FFFFC0003FC
310
0000FFFFC0001FF8000001FFFE0000007FFFFFF0001FFFFFFFC00003FFE00001
310
FFFFC00003FFE00001FFFF0001FFFFFFFFF00007FFFE0001F000E0000FFFFF00
310
00FFFF800001FFFC00000FFFFF80007FC0001FFFFE0001FC0001FFFFE0001FF8
310
000001FFFE0000007FFFFFF0001FFFFFFF80000FFFF80000FFFF80000FFFF800
310
00FFFF0003FFFFFFFFE0000FFFFF8000F000C0003FFFFF8000FFFF800000FFFC
310
000007FFFF80007F80003FFFFF0001FC0003FFFFF0001FF8000001FFFE000000
310
7FFFFFF0001FFFFFFF80003FFFFE0000FFFF80003FFFFE0000FFFF0003FFFFFF
310
FFE0003FFFFF8000F000C0003FFFFF8000FFFF800000FFFC000007FFFF80007F
310
80007FFFFF8001F80007FFFFF8000FF8000001FFFE0000007FFFFFF0001FFFFF
310
FF00007FFFFF00007FFF00007FFFFF00007FFF0003FFFFFFFFE0003FFFFFC000
310
F000C0007FFFFFC000FFFF000000FFFC000007FFFF80007F8000FFFFFF8000F8
310
000FFFFFF8000FF8000001FFFE0000007FFFFFF0001FFFFFFF0000FFFFFF8000
310
7FFF0000FFFFFF80007FFF0003FFFFFFFFC0007FFFFFC00070008000FFFFFFC0
310
00FFFF000000FFF8000007FFFF80007F8000FFFFFF8000F8000FFFFFF8000FF8
310
000001FFFE0000007FFFFFF0001FFFFFFE0001FFFFFFC0003FFE0001FFFFFFC0
310
003FFF0003FFFFFFFFC0007FFFFFE00070008000FFFFFFC0007FFF0000007FF8
310
000003FFFF80007F0001FFFFFF8000F8000FFFFFF8000FF8000001FFFE000000
310
7FFFFFF0001FFFFFFE0001FFFFFFC0003FFE0001FFFFFFC0003FFF0003FFFFFF
310
FFC000FFFFFFE00070008000FFFFFFC0007FFF0000007FF8000003FFFF80007F
310
0001FFFFFF8000F8001FFFFFF8000FF8000001FFFE0000007FFFFFF0001FFFFF
310
FE0003FFFFFFE0003FFE0003FFFFFFE0003FFF0003FFFFFFFFC000FFFFFFE000
310
70008000FFFFFFC0007FFE0000007FF8000003FFFF80007F0001FFFFFF8000F0
310
001FFFFFF8000FF8000001FFFE0000007FFFFFF0001FFFFFFC0003FFFFFFE000
310
1FFC0003FFFFFFE0001FFF0003FFFFFFFFC000FFFFFFC00070008000FFFFFF80
310
007FFE0000007FF0000003FFFF80007F0001FFFFFF0000F0001FFFFFF8000FF8
310
000001FFFE0000007FFFFFF0001FFFFFFC0007FFFFFFF0001FFC0007FFFFFFF0
310
001FFF0003FFFFFFFFC000FFFFFFC00070008001FFFFFF0000FFFE0000003FF0
310
000001FFFF80007F0001FFFFFF0000F8001FFFFFF0000FF8000001FFFE000000
310
7FFFFFF0001FFFFFFC0007FFFFFFF0001FFC0007FFFFFFF0001FFF0003FFFFFF
310
FFC001FFFFFF80007000FFFFFFFFFE0000FFFE0008003FF0008001FFFF80007F
310
FFFFFFFFFC0000FFFFFFFFFFE0000FF8000001FFFE0000007FFFFFF0001FFFFF
310
F8000FFFFFFFF8000FF8000FFFFFFFF8000FFF0003FFFFFFFFFFFFFFFFFF0000
310
7000FFFFFFFFFC0000FFFC0008003FF0008001FFFF80007FFFFFFFFFF80001FF
310
FFFFFFFF80000FF8000001FFFE0000007FFFFFF0001FFFFFF8000FFFFFFFF800
310
0FF8000FFFFFFFF8000FFF0003FFFFFFFFFFFFFFFFFE0000F000FFFFFFFFE000
310
00FFFC000C003FE000C001FFFF80007FFFFFFFFFC00001FFFFFFFFFE00001FF8
310
000001FFFE0000007FFFFFF0001FFFFFF8000FFFFFFFF8000FF8000FFFFFFFF8
310
000FFF0003FFFFFFFFFFFFFFFFF00000F000FFFFFFFE000001FFFC000C001FE0
310
00C000FFFF80007FFFFFFFFE000001FFFFFFFFE000001FF80FFFFFFFFFFFFFC0
310
7FFFFFF0001FFFFFF8000FFFFFFFF8000FF8000FFFFFFFF8000FFF0003FFFFFF
310
FFFFFFFFFF800000F000FFFFFFC0000001FFFC001C001FE001C000FFFF80007F
310
FFFFFF80000003FFFFFFF80000001FF80FFFFFFFFFFFFFC07FFFFFF0001FFFFF
310
F8001FFFFFFFFC000FF8001FFFFFFFFC000FFF0003FFFFFFFFFFFFFFF0000001
310
F000FFFFF800000001FFF8001C001FE001C000FFFF80007FFFFFF800000003FF
310
FFFF800000003FF80FFFFFFFFFFFFFC07FFFFFF0001FFFFFF8001FFFFFFFFC00
310
0FF8001FFFFFFFFC000FFF0003FFFFFFFFFFFFFE00000001F000FFFFC0000000
310
03FFF8001E001FC001E000FFFF80007FFFFF8000000007FFFFFC000000003FF8
310
0FFFFFFFFFFFFFC07FFFFFF0001FFFFFF8001FFFFFFFFC000FF8001FFFFFFFFC
310
000FFF0003FFFFFFFFFFFFE000000003F000FFFE0000000007FFF8001E000FC0
310
01E0007FFF80007FFFFE0000000007FFFFE0000000007FF80FFFFFFFFFFFFFC0
310
7FFFFFF0001FFFFFF0001FFFFFFFFC0007F0001FFFFFFFFC0007FF0003FFFFFF
310
FFFFFF0000000003F000FFF80000000007FFF8001E000FC003E0007FFF80007F
310
FFF0000000000FFFFF8000000000FFF80FFFFFFFFFFFFFC07FFFFFF0001FFFFF
310
F0001FFFFFFFFC0007F0001FFFFFFFFC0007FF0003FFFFFFFFFFFC0000000007
310
F000FFE0000000000FFFF0003E000FC003E0007FFF80007FFFC0000000001FFF
310
FE0000000001FFF80FFFFFFFFFFFFFC07FFFFFF0001FFFFFF0001FFFFFFFFC00
310
07F0001FFFFFFFFC0007FF0003FFFFFFFFFFF0000000000FF000FFC000000000
310
1FFFF0003F000F8003F0003FFF80007FFF80000000003FFFF80000000003FFF8
310
0FFFFFFFFFFFFFC07FFFFFF0001FFFFFF0001FFFFFFFFC0007F0001FFFFFFFFC
310
0007FF0003FFFFFFFFFFE0000000001FF000FF00000000007FFFF0003F000780
310
03F0003FFF80007FFF00000000007FFFF00000000007FFF80FFFFFFFFFFFFFC0
310
7FFFFFF0001FFFFFF0001FFFFFFFFC0007F0001FFFFFFFFC0007FF0003FFFFFF
310
FFFF80000000007FF000FE0000000000FFFFE0003F00078007F0003FFF80007F
310
FE0000000001FFFFE0000000001FFFF80FFFFFFFFFFFFFC07FFFFFF0001FFFFF
310
F0001FFFFFFFFC0007F0001FFFFFFFFC0007FF0003FFFFFFFFFF0000000000FF
310
F000FC0000000003FFFFE0007F00078007F0003FFF80007FFC0000000007FFFF
310
C0000000007FFFF80FFFFFFFFFFFFFC07FFFFFF0001FFFFFF8001FFFFFFFFC00
310
0FF8001FFFFFFFFC000FFF0003FFFFFFFFFE0000000003FFF000FC000000000F
310
FFFFE0007F80070007F8001FFF80007FF8000000001FFFFF8000000001FFFFF8
310
0FFFFFFFFFFFFFC07FFFFFF0001FFFFFF8001FFFFFFFFC000FF8001FFFFFFFFC
310
000FFF0003FFFFFFFFFC000000000FFFF000F8000000007FFFFFE0007F800700
310
07F8001FFF80007FF000000000FFFFFF800000000FFFFFF80FFFFFFFFFFFFFC0
310
7FFFFFF0001FFFFFF8000FFFFFFFF8000FF8000FFFFFFFF8000FFF0003FFFFFF
310
FFFC000000007FFFF000F800000007FFFFFFC0007F8003000FF8001FFF80007F
310
F000000007FFFFFF000000007FFFFFF80FFFFFFFFFFFFFC07FFFFFF0001FFFFF
310
F8000FFFFFFFF8000FF8000FFFFFFFF8000FFF0003FFFFFFFFF80000000FFFFF
310
F000F0000000FFFFFFFFC000FF8003000FF8001FFF80007FE0000000FFFFFFFF
310
0000000FFFFFFFF8000001FFFE0000007FFFFFF0001FFFFFF8000FFFFFFFF800
310
0FF8000FFFFFFFF8000FFF0003FFFFFFFFF8000000FFFFFFF000F000000FFFFF
310
FFFFC000FFC002000FF8000FFF80007FE000001FFFFFFFFE000001FFFFFFFFF8
310
000001FFFE0000007FFFFFF0001FFFFFF8000FFFFFFFF8000FF8000FFFFFFFF8
310
000FFF0003FFFFFFFFF000001FFFFFFFF000E00000FFFFFFFFFFC000FFC00200
310
0FFC000FFF80007FE00001FFFFFFFFFE00001FFFFFFFFFF8000001FFFE000000
310
7FFFFFF0001FFFFFFC000FFFFFFFF8001FFC000FFFFFFFF8001FFF0003FFFFFF
310
FFF00001FFFFFFFFF000E00007FFFFFFFFFF8000FFC000001FFC000FFF80007F
310
C0000FFFFFFFFFFE0000FFFFFFFFFFF8000001FFFE0000007FFFFFF0001FFFFF
310
FC0007FFFFFFF0001FFC0007FFFFFFF0001FFF0003FFFFFFFFF00007FFFFFFFF
310
F000E0001FFFFFFFFFFF8000FFC000001FFC000FFF80007FC0003FFFFFFFFFFE
310
0001FFFFFFFFFFF8000001FFFE0000007FFFFFF0001FFFFFFC0007FFFFFFF000
310
1FFC0007FFFFFFF0001FFF0003FFFFFFFFF0001FFFFFFFFFF000E0003FFFFF00
310
03FF8001FFE000001FFC0007FF80007FC0007FFFFF0007FC0003FFFFF0003FF8
310
000001FFFE0000007FFFFFF0001FFFFFFC0003FFFFFFE0001FFC0003FFFFFFE0
310
001FFF0003FFFFFFFFF0003FFFFFFFFFF000E0003FFFFF0001FF8001FFE00000
310
1FFE0007FF80007FC0007FFFFE0003FC0007FFFFE0003FF8000001FFFE000000
310
7FFFFFF0001FFFFFFE0003FFFFFFE0003FFE0003FFFFFFE0003FFF0003FFFFFF
310
FFF0003FFFFF8001F000E0003FFFFF0001FF0001FFE000001FFE0007FF80007F
310
C0007FFFFE0003FC0007FFFFE0003FF8000001FFFE0000007FFFFFF0001FFFFF
310
FE0001FFFFFFC0003FFE0001FFFFFFC0003FFF0003FFFFFFFFF0003FFFFF0001
310
F000E0003FFFFF0003FF0001FFE000003FFE0007FF80007FC0007FFFFE0003FC
310
0007FFFFE0003FF8000001FFFE0000007FFFFFF0001FFFFFFF0001FFFFFFC000
310
7FFF0001FFFFFFC0007FFF0003FFFFFFFFF0003FFFFF0001F000E0003FFFFE00
310
03FF0003FFF000003FFE0003FF80007FC0007FFFFC0003FE0007FFFFE0003FF8
310
000001FFFE0000007FFFFFF0001FFFFFFF0000FFFFFF80007FFF0000FFFFFF80
310
007FFF0003FFFFFFFFF0003FFFFF0001F000E0003FFFFE0003FF0003FFF00000
310
3FFF0003FF80007FC0007FFFFC0007FE0007FFFFC0003FF8000001FFFE000000
310
7FFFFFF0001FFFFFFF80007FFFFF0000FFFF80007FFFFF0000FFFF0003FFFFFF
310
FFF0003FFFFF0003F000E0003FFFFC0003FE0003FFF000003FFF0003FF80007F
310
E0003FFFF80007FE0003FFFFC0007FF8000001FFFE0000007FFFFFF0001FFFFF
310
FF80003FFFFE0000FFFF80003FFFFE0000FFFF0003FFFFFFFFF0001FFFFE0003
310
F000F0001FFFF80003FE0003FFF000007FFF0001FF80007FE0003FFFF00007FE
310
0001FFFF80007FF8000001FFFE0000007FFFFFF0001FFFFFFFC0000FFFF80001
310
FFFFC0000FFFF80001FFFF0003FFFFFFFFF0001FFFFC0003F000F0000FFFF000
310
07FE0007FFF800007FFF0001FF80007FE0001FFFE00007FF0000FFFE00007FF8
310
000001FFFE0000007FFFFFF0001FFFFFFFC00003FFE00001FFFFC00003FFE000
310
01FFFF0003FFFFFFFFF8000FFFF80003F000F00003FFC00007FC0007FFF80000
310
7FFF8001FF80007FF00007FF80000FFF00007FF80000FFF8000001FFFE000000
310
7F80000000000001FFE000003E000003FFFFE000003E000003FFFF0003FFFFFF
310
FFF80003FFE00007F000F800000000000FFC0007FFF800007FFF8001FF80007F
310
F000000000000FFF000000000000FFF8000001FFFE0000007F80000000000001
310
FFF0000000000007FFFFF0000000000007FFFF0003FFFFFFFFFC00007E000007
310
F000F800000000000FFC0007FFF80000FFFF8000FF80007FF800000000001FFF
310
800000000001FFF8000001FFFE0000007F80000000000001FFF800000000000F
310
FFFFF800000000000FFFFF0003FFFFFFFFFC00000000000FF000FC0000000000
310
1FFC0007FFFC0000FFFF8000FF80007FF800000000003FFFC00000000001FFF8
310
000001FFFE0000007F80000000000001FFF800000000000FFFFFF80000000000
310
0FFFFF0003FFFFFFFFFE00000000001FF000FE00000000003FF8000FFFFC0000
310
FFFF8000FF80007FFC00000000003FFFC00000000003FFF8000001FFFE000000
310
7F80000000000001FFFC00000000001FFFFFFC00000000001FFFFF0003FFFFFF
310
FFFF00000000001FF000FF00000000003FF8000FFFFC0000FFFFC000FF80007F
310
FE00000000007FFFE00000000007FFF8000001FFFE0000007F80000000000001
310
FFFE00000000003FFFFFFE00000000003FFFFF0003FFFFFFFFFF80000000003F
310
F000FF80000000007FF8000FFFFC0001FFFFC0007F80007FFF0000000000FFFF
310
F0000000000FFFF800000000000000007F80000000000001FFFF8000000000FF
310
FFFFFF8000000000FFFFFF0003FFFFFFFFFFC0000000007FF000FFC000000000
310
FFF8000FFFFE0001FFFFC0007F80007FFF8000000001FFFFF8000000001FFFF8
310
00000000000000007F80000000000001FFFFC000000001FFFFFFFFC000000001
310
FFFFFF0003FFFFFFFFFFE000000000FFF000FFE000000003FFF0001FFFFE0001
310
FFFFC0007F80007FFFC000000007FFFFFE000000003FFFF80000000000000000
310
7F80000000000001FFFFE000000003FFFFFFFFE000000003FFFFFF0003FFFFFF
310
FFFFF000000003FFF000FFF80000000FFFF0001FFFFE0001FFFFE0007F80007F
310
FFF00000000FFFFFFF00000000FFFFF800000000000000007F80000000000001
310
FFFFF80000000FFFFFFFFFF80000000FFFFFFF0003FFFFFFFFFFFC0000000FFF
310
F000FFFE0000003FFFF0001FFFFE0003FFFFE0003F80007FFFFC0000003FFFFF
310
FFC0000003FFFFF800000000000000007F80000000000001FFFFFE0000003FFF
310
FFFFFFFE0000003FFFFFFF0003FFFFFFFFFFFF0000003FFFF000FFFF800000FF
310
FFF0001FFFFF0003FFFFE0003F80007FFFFF000001FFFFFFFFF800001FFFFFF8
310
00000000000000007F80000000000001FFFFFFC00001FFFFFFFFFFFFC00001FF
310
FFFFFF0003FFFFFFFFFFFFC00000FFFFF000FFFFF8000FFFFFFFFFFFFFFFFFFF
310
FFFFFFFFFFFFFFFFFFFFF0001FFFFFFFFFFF0000FFFFFFF80000000000000000
310
7FFFFFFFFFFFFFFFFFFFFFFC001FFFFFFFFFFFFFFC001FFFFFFFFFFFFFFFFFFF
310
FFFFFFFC001FFFFFF000FFFFFFFFFFFFFFFFFFFFFFFFFFFFFFFFFFFFFFFFFFFF
310
FFFFFFFFFFFFFFFFFFFFFFFFFFFFFFFFFFFFFFFFFFFFFFFFFFFFFFFFFFFFFFFF
310
FFFFFFFFFFFFFFFFFFFFFFFFFFFFFFFFFFFFFFFFFFFFFFFFFFFFFFFFFFFFFFFF
310
F000FFFFFFFFFFFFFFFFFFFFFFFFFFFFFFFFFFFFFFFFFFFFFFFFFFFFFFFFFFFF
310
FFFFFFFFFFFFFFFFFFFFFFFFFFFFFFFFFFFFFFFFFFFFFFFFFFFFFFFFFFFFFFFF
310
FFFFFFFFFFFFFFFFFFFFFFFFFFFFFFFFFFFFFFFFFFFFFFFFF000FFFFFFFFFFFF
310
FFFFFFFFFFFFFFFFFFFFFFFFFFFFFFFFFFFFFFFFFFFFFFFFFFFFFFFFFFFFFFFF
310
FFFFFFFFFFFFFFFFFFFFFFFFFFFFFFFFFFFFFFFFFFFFFFFFFFFFFFFFFFFFFFFF
310
FFFFFFFFFFFFFFFFFFFFFFFFFFFFFFFFF000FFFFFFFFFFFFFFFFFFFFFFFFFFFF
310
FFFFFFFFFFFFFFFFFFFFFFFFFFFFFFFFFFFFFFFFFFFFFFFFFFFFFFFFFFFFFFFF
310
FFFFFFFFFFFFFFFFFFFFFFFFFFFFFFFFFFFFFFFFFFFFFFFFFFFFFFFFFFFFFFFF
310
FFFFFFFFFFFFFFFFF000FFFFFFFFFFFFFFFFFFFFFFFFFFFFFFFFFFFFFFFFFFFF
310
FFFFFFFFFFFFFFFFFFFFFFFFFFFFFFFFFFFFFFFFFFFFFFFFFFFFFFFFFFFFFFFF
310
FFFFFFFFFFFFFFFFFFFFFFFFFFFFFFFFFFFFFFFFFFFFFFFFFFFFFFFFFFFFFFFF
310
F000FFFFFFFFFFFFFFFFFFFFFFFFFFFFFFFFFFFFFFFFFFFFFFFFFFFFFFFFFFFF
310
FFFFFFFFFFFFFFFFFFFFFFFFFFFFFFFFFFFFFFFFFFFFFFFFFFFFFFFFFFFFFFFF
310
FFFFFFFFFFFFFFFFFFFFFFFFFFFFFFFFFFFFFFFFFFFFFFFFF000FFFFFFFFFFFF
310
FFFFFFFFFFFFFFFFFFFFFFFFFFFFFFFFFFFFFFFFFFFFFFFFFFFFFFFFFFFFFFFF
310
FFFFFFFFFFFFFFFFFFFFFFFFFFFFFFFFFFFFFFFFFFFFFFFFFFFFFFFFFFFFFFFF
310
FFFFFFFFFFFFFFFFFFFFFFFFFFFFFFFFF000FFFFFFFFFFFFFFFFFFFFFFFFFFFF
310
FFFFFFFFFFFFFFFFFFFFFFFFFFFFFFFFFFFFFFFFFFFFFFFFFFFFFFFFFFFFFFFF
310
FFFFFFFFFFFFFFFFFFFFFFFFFFFFFFFFFFFFFFFFFFFFFFFFFFFFFFFFFFFFFFFF
310
FFFFFFFFFFFFFFFFF000FFFFFFFFFFFFFFFFFFFFFFFFFFFFFFFFFFFFFFFFFFFF
310
FFFFFFFFFFFFFFFFFFFFFFFFFFFFFFFFFFFFFFFFFFFFFFFFFFFFFFFFFFFFFFFF
310
FFFFFFFFFFFFFFFFFFFFFFFFFFFFFFFFFFFFFFFFFFFFFFFFFFFFFFFFFFFFFFFF
310
F000FFFFFFFFFFFFFFFFFFFFFFFFFFFFFFFFFFFFFFFFFFFFFFFFFFFFFFFFFFFF
310
FFFFFFFFFFFFFFFFFFFFFFFFFFFFFFFFFFFFFFFFFFFFFFFFFFFFFFFFFFFFFFFF
310
FFFFFFFFFFFFFFFFFFFFFFFFFFFFFFFFFFFFFFFFFFFFFFFFF000FFFFFFFFFFFF
310
FFFFFFFFFFFFFFFFFFFFFFFFFFFFFFFFFFFFFFFFFFFFFFFFFFFFFFFFFFFFFFFF
310
FFFFFFFFFFFFFFFFFFFFFFFFFFFFFFFFFFFFFFFFFFFFFFFFFFFFFFFFFFFFFFFF
310
FFFFFFFFFFFFFFFFFFFFFFFFFFFFFFFFF000FFFFFFFFFFFFFFFFFFFFFFFFFFFF
310
FFFFFFFFFFFFFFFFFFFFFFFFFFFFFFFFFFFFFFFFFFFFFFFFFFFFFFFFFFFFFFFF
310
FFFFFFFFFFFFFFFFFFFFFFFFFFFFFFFFFFFFFFFFFFFFFFFFFFFFFFFFFFFFFFFF
310
FFFFFFFFFFFFFFFFF000FFFFFFFFFFFFFFFFFFFFFFFFFFFFFFFFFFFFFFFFFFFF
310
FFFFFFFFFFFFFFFFFFFFFFFFFFFFFFFFFFFFFFFFFFFFFFFFFFFFFFFFFFFFFFFF
310
FFFFFFFFFFFFFFFFFFFFFFFFFFFFFFFFFFFFFFFFFFFFFFFFFFFFFFFFFFFFFFFF
310
F000FFFFFFFFFFFFFFFFFFFFFFFFFFFFFFFFFFFFFFFFFFFFFFFFFFFFFFFFFFFF
310
FFFFFFFFFFFFFFFFFFFFFFFFFFFFFFFFFFFFFFFFFFFFFFFFFFFFFFFFFFFFFFFF
310
FFFFFFFFFFFFFFFFFFFFFFFFFFFFFFFFFFFFFFFFFFFFFFFFF000FFFFFFFFFFFF
310
FFFFFFFFFFFFFFFFFFFFFFFFFFFFFFFFFFFFFFFFFFFFFFFFFFFFFFFFFFFFFFFF
310
FFFFFFFFFFFFFFFFFFFFFFFFFFFFFFFFFFFFFFFFFFFFFFFFFFFFFFFFFFFFFFFF
310
FFFFFFFFFFFFFFFFFFFFFFFFFFFFFFFFF000FFFFFFFFFFFFFFFFFFFFFFFFFFFF
310
FFFFFFFFFFFFFFFFFFFFFFFFFFFFFFFFFFFFFFFFFFFFFFFFFFFFFFFFFFFFFFFF
310
FFFFFFFFFFFFFFFFFFFFFFFFFFFFFFFFFFFFFFFFFFFFFFFFFFFFFFFFFFFFFFFF
310
FFFFFFFFFFFFFFFFF000FFFFFFFFFFFFFFFFFFFFFFFFFFFFFFFFFFFFFFFFFFFF
310
FFFFFFFFFFFFFFFFFFFFFFFFFFFFFFFFFFFFFFFFFFFFFFFFFFFFFFFFFFFFFFFF
310
FFFFFFFFFFFFFFFFFFFFFFFFFFFFFFFFFFFFFFFFFFFFFFFFFFFFFFFFFFFFFFFF
310
F000FFFFFFFFFFFFFFFFFFFFFFFFFFFFFFFFFFFFFFFFFFFFFFFFFFFFFFFFFFFF
310
FFFFFFFFFFFFFFFFFFFFFFFFFFFFFFFFFFFFFFFFFFFFFFFFFFFFFFFFFFFFFFFF
310
FFFFFFFFFFFFFFFFFFFFFFFFFFFFFFFFFFFFFFFFFFFFFFFFF000FFFFFFFFFFFF
310
FFFFFFFFFFFFFFFFFFFFFFFFFFFFFFFFFFFFFFFFFFFFFFFFFFFFFFFFFFFFFFFF
310
FFFFFFFFFFFFFFFFFFFFFFFFFFFFFFFFFFFFFFFFFFFFFFFFFFFFFFFFFFFFFFFF
310
FFFFFFFFFFFFFFFFFFFFFFFFFFFFFFFFF000FFFFFFFFFFFFFFFFFFFFFFFFFFFF
310
FFFFFFFFFFFFFFFFFFFFFFFFFFFFFFFFFFFFFFFFFFFFFFFFFFFFFFFFFFFFFFFF
310
FFFFFFFFFFFFFFFFFFFFFFFFFFFFFFFFFFFFFFFFFFFFFFFFFFFFFFFFFFFFFFFF
310
FFFFFFFFFFFFFFFFF000FFFFFFFFFFFFFFFFFFFFFFFFFFFFFFFFFFFFFFFFFFFF
310
FFFFFFFFFFFFFFFFFFFFFFFFFFFFFFFFFFFFFFFFFFFFFFFFFFFFFFFFFFFFFFFF
310
FFFFFFFFFFFFFFFFFFFFFFFFFFFFFFFFFFFFFFFFFFFFFFFFFFFFFFFFFFFFFFFF
310
F000FFFFFFFFFFFFFFFFFFFFFFFFFFFFFFFFFFFFFFFFFFFFFFFFFFFFFFFFFFFF
310
FFFFFFFFFFFFFFFFFFFFFFFFFFFFFFFFFFFFFFFFFFFFFFFFFFFFFFFFFFFFFFFF
310
FFFFFFFFFFFFFFFFFFFFFFFFFFFFFFFFFFFFFFFFFFFFFFFFF000FFFFFFFFFFFF
310
FFFFFFFFFFFFFFFFFFFFFFFFFFFFFFFFFFFFFFFFFFFFFFFFFFFFFFFFFFFFFFFF
310
FFFFFFFFFFFFFFFFFFFFFFFFFFFFFFFFFFFFFFFFFFFFFFFFFFFFFFFFFFFFFFFF
310
FFFFFFFFFFFFFFFFFFFFFFFFFFFFFFFFF0000000000000000000000000000000
310
0000000000750067005C005A0065006900630068006E0075006E00670065006E
310
005C00570061006C0074006500720020004D0065006900650072005C00530063
310
006800720075006D00700066006600750074007400650072005C004B00610074
310
0061006C006F0067007A0065006900630068006E0075006E00670065006E005C
310
004800450034002D005300310030002E004B00300031002E003000360033002E
310
0053004C004400440052005700040000000040A24405000000C61157DA0ADFC5
310
010040C01DFFFEFF012A00030000000050724809000000FFFEFF012A00030000
310
000050724809000000FFFEFF535A003A005C005A0065006900630068006E0075
310
006E00670065006E002D005700650072006B007A006500750067005C005A0065
310
006900630068006E0075006E00670065006E005C00570061006C007400650072
310
0020004D0065006900650072005C00530063006800720075006D007000660066
310
00750074007400650072005C004B006100740061006C006F0067007A00650069
310
00630068006E0075006E00670065006E005C00040000000040A24405000000FF
310
FEFF012A00030000000050724809000000FFFEFF012A00030000000050724809
310
000000FFFEFF012A00040000000040A244050000001C0C0000D4981E00010000
  1
OLE
  0
ENDSEC
  0
SECTION
  2
OBJECTS
  0
DICTIONARY
  5
C
330
0
100
AcDbDictionary
281
     1
  3
ACAD_GROUP
350
D
  3
ACAD_LAYOUT
350
1A
  3
ACAD_MLEADERSTYLE
350
223
  3
ACAD_MLINESTYLE
350
17
  3
ACAD_PLOTSETTINGS
350
19
  3
ACAD_PLOTSTYLENAME
350
E
  3
ACAD_TABLESTYLE
350
222
  3
ACAD_VISUALSTYLE
350
2A
  3
AcDbVariableDictionary
350
224
  0
DICTIONARY
  5
D
102
{ACAD_REACTORS
330
C
102
}
330
C
100
AcDbDictionary
281
     1
  0
DICTIONARY
  5
1A
102
{ACAD_REACTORS
330
C
102
}
330
C
100
AcDbDictionary
281
     1
  3
Layout1
350
1E
  3
Layout2
350
26
  3
Model
350
22
  0
DICTIONARY
  5
223
102
{ACAD_REACTORS
330
C
102
}
330
C
100
AcDbDictionary
281
     1
  0
DICTIONARY
  5
17
102
{ACAD_REACTORS
330
C
102
}
330
C
100
AcDbDictionary
281
     1
  3
Standard
350
18
  0
DICTIONARY
  5
19
102
{ACAD_REACTORS
330
C
102
}
330
C
100
AcDbDictionary
281
     1
  0
ACDBDICTIONARYWDFLT
  5
E
102
{ACAD_REACTORS
330
C
102
}
330
C
100
AcDbDictionary
281
     1
  3
Normal
350
F
100
AcDbDictionaryWithDefault
340
F
  0
DICTIONARY
  5
222
102
{ACAD_REACTORS
330
C
102
}
330
C
100
AcDbDictionary
281
     1
  0
DICTIONARY
  5
2A
102
{ACAD_REACTORS
330
C
102
}
330
C
100
AcDbDictionary
281
     1
  3
2dWireframe
350
2F
  3
3D Hidden
350
31
  3
3dWireframe
350
30
  3
Basic
350
32
  3
Brighten
350
36
  3
ColorChange
350
3A
  3
Conceptual
350
34
  3
Dim
350
35
  3
Facepattern
350
39
  3
Flat
350
2B
  3
FlatWithEdges
350
2C
  3
Gouraud
350
2D
  3
GouraudWithEdges
350
2E
  3
Linepattern
350
38
  3
Realistic
350
33
  3
Thicken
350
37
  0
DICTIONARY
  5
224
102
{ACAD_REACTORS
330
C
102
}
330
C
100
AcDbDictionary
281
     1
  3
PSOLHEIGHT
350
226
  3
PSOLWIDTH
350
225
  0
LAYOUT
  5
1E
102
{ACAD_REACTORS
330
1A
102
}
330
1A
100
AcDbPlotSettings
  1

  2
none_device
  4

  6

 40
0.0
 41
0.0
 42
0.0
 43
0.0
 44
0.0
 45
0.0
 46
0.0
 47
0.0
 48
0.0
 49
0.0
140
0.0
141
0.0
142
1.0
143
1.0
 70
   688
 72
     0
 73
     0
 74
     5
  7

 75
    16
147
1.0
148
0.0
149
0.0
100
AcDbLayout
  1
Layout1
 70
     1
 71
     1
 10
0.0
 20
0.0
 11
420.0
 21
297.0
 12
0.0
 22
0.0
 32
0.0
 14
1.0000000000E+20
 24
1.0000000000E+20
 34
1.0000000000E+20
 15
-1.0000000000E+20
 25
-1.0000000000E+20
 35
-1.0000000000E+20
146
0.0
 13
0.0
 23
0.0
 33
0.0
 16
1.0
 26
0.0
 36
0.0
 17
0.0
 27
1.0
 37
0.0
 76
     0
330
1B
  0
LAYOUT
  5
26
102
{ACAD_REACTORS
330
1A
102
}
330
1A
100
AcDbPlotSettings
  1

  2
none_device
  4

  6

 40
0.0
 41
0.0
 42
0.0
 43
0.0
 44
0.0
 45
0.0
 46
0.0
 47
0.0
 48
0.0
 49
0.0
140
0.0
141
0.0
142
1.0
143
1.0
 70
   688
 72
     0
 73
     0
 74
     5
  7

 75
    16
147
1.0
148
0.0
149
0.0
100
AcDbLayout
  1
Layout2
 70
     1
 71
     2
 10
0.0
 20
0.0
 11
0.0
 21
0.0
 12
0.0
 22
0.0
 32
0.0
 14
0.0
 24
0.0
 34
0.0
 15
0.0
 25
0.0
 35
0.0
146
0.0
 13
0.0
 23
0.0
 33
0.0
 16
1.0
 26
0.0
 36
0.0
 17
0.0
 27
1.0
 37
0.0
 76
     0
330
23
  0
LAYOUT
  5
22
102
{ACAD_REACTORS
330
1A
102
}
330
1A
100
AcDbPlotSettings
  1

  2
none_device
  4

  6

 40
0.0
 41
0.0
 42
0.0
 43
0.0
 44
0.0
 45
0.0
 46
0.0
 47
0.0
 48
0.0
 49
0.0
140
0.0
141
0.0
142
1.0
143
1.0
 70
  1712
 72
     0
 73
     0
 74
     0
  7

 75
     0
147
1.0
148
0.0
149
0.0
100
AcDbLayout
  1
Model
 70
     1
 71
     0
 10
0.0
 20
0.0
 11
297.0
 21
210.0
 12
0.0
 22
0.0
 32
0.0
 14
0.0
 24
0.0
 34
0.0
 15
297.0
 25
210.0
 35
0.0
146
0.0
 13
0.0
 23
0.0
 33
0.0
 16
1.0
 26
0.0
 36
0.0
 17
0.0
 27
1.0
 37
0.0
 76
     0
330
1F
331
29
  0
MLINESTYLE
  5
18
102
{ACAD_REACTORS
330
17
102
}
330
17
100
AcDbMlineStyle
  2
Standard
 70
     0
  3

 62
   256
 51
90.0
 52
90.0
 71
     2
 49
0.5
 62
   256
  6
BYLAYER
 49
-0.5
 62
   256
  6
BYLAYER
  0
ACDBPLACEHOLDER
  5
F
102
{ACAD_REACTORS
330
E
102
}
330
E
  0
VISUALSTYLE
  5
2F
102
{ACAD_REACTORS
330
2A
102
}
330
2A
100
AcDbVisualStyle
  2
2dWireframe
 70
     4
 71
     0
 72
     2
 73
     0
 90
        0
 40
-0.6
 41
-30.0
 62
     5
 63
     7
 74
     1
 91
        4
 64
     7
 65
   257
 75
     1
175
     1
 42
1.0
 92
        0
 66
   257
 43
1.0
 76
     1
 77
     6
 78
     2
 67
     7
 79
     5
170
     0
171
     0
290
     0
174
     0
 93
        1
 44
0.0
173
     0
291
     0
 45
0.0
1001
ACAD
1000
AcDbSavedByObjectVersion
1070
     0
  0
VISUALSTYLE
  5
31
102
{ACAD_REACTORS
330
2A
102
}
330
2A
100
AcDbVisualStyle
  2
3D Hidden
 70
     6
 71
     1
 72
     2
 73
     2
 90
        0
 40
-0.6
 41
-30.0
 62
     5
 63
     7
 74
     2
 91
        2
 64
     7
 65
   257
 75
     2
175
     1
 42
40.0
 92
        0
 66
   257
 43
1.0
 76
     1
 77
     6
 78
     2
 67
     7
 79
     3
170
     0
171
     0
290
     0
174
     0
 93
        1
 44
0.0
173
     0
291
     0
 45
0.0
1001
ACAD
1000
AcDbSavedByObjectVersion
1070
     0
  0
VISUALSTYLE
  5
30
102
{ACAD_REACTORS
330
2A
102
}
330
2A
100
AcDbVisualStyle
  2
3dWireframe
 70
     5
 71
     0
 72
     2
 73
     0
 90
        0
 40
-0.6
 41
-30.0
 62
     5
 63
     7
 74
     1
 91
        4
 64
     7
 65
   257
 75
     1
175
     1
 42
1.0
 92
        0
 66
   257
 43
1.0
 76
     1
 77
     6
 78
     2
 67
     7
 79
     5
170
     0
171
     0
290
     0
174
     0
 93
        1
 44
0.0
173
     0
291
     0
 45
0.0
1001
ACAD
1000
AcDbSavedByObjectVersion
1070
     0
  0
VISUALSTYLE
  5
32
102
{ACAD_REACTORS
330
2A
102
}
330
2A
100
AcDbVisualStyle
  2
Basic
 70
     7
 71
     1
 72
     0
 73
     1
 90
        0
 40
-0.6
 41
-30.0
 62
     5
 63
     7
 74
     0
 91
        4
 64
     7
 65
   257
 75
     1
175
     1
 42
1.0
 92
        8
 66
     7
 43
1.0
 76
     1
 77
     6
 78
     2
 67
     7
 79
     5
170
     0
171
     0
290
     0
174
     0
 93
        1
 44
0.0
173
     0
291
     1
 45
0.0
1001
ACAD
1000
AcDbSavedByObjectVersion
1070
     0
  0
VISUALSTYLE
  5
36
102
{ACAD_REACTORS
330
2A
102
}
330
2A
100
AcDbVisualStyle
  2
Brighten
 70
    12
 71
     2
 72
     2
 73
     0
 90
        0
 40
-0.6
 41
-30.0
 62
     5
 63
     7
 74
     1
 91
        4
 64
     7
 65
   257
 75
     1
175
     1
 42
1.0
 92
        8
 66
     7
 43
1.0
 76
     1
 77
     6
 78
     2
 67
     7
 79
     5
170
     0
171
     0
290
     0
174
     0
 93
        1
 44
50.0
173
     0
291
     1
 45
0.0
1001
ACAD
1000
AcDbSavedByObjectVersion
1070
     0
  0
VISUALSTYLE
  5
3A
102
{ACAD_REACTORS
330
2A
102
}
330
2A
100
AcDbVisualStyle
  2
ColorChange
 70
    16
 71
     2
 72
     2
 73
     3
 90
        0
 40
-0.6
 41
-30.0
 62
     5
 63
     8
 74
     1
 91
        4
 64
     7
 65
   257
 75
     1
175
     1
 42
1.0
 92
        8
 66
     8
 43
1.0
 76
     1
 77
     6
 78
     2
 67
     7
 79
     5
170
     0
171
     0
290
     0
174
     0
 93
        1
 44
0.0
173
     0
291
     1
 45
0.0
1001
ACAD
1000
AcDbSavedByObjectVersion
1070
     0
  0
VISUALSTYLE
  5
34
102
{ACAD_REACTORS
330
2A
102
}
330
2A
100
AcDbVisualStyle
  2
Conceptual
 70
     9
 71
     3
 72
     2
 73
     0
 90
        0
 40
-0.6
 41
-30.0
 62
     5
 63
     7
 74
     2
 91
        2
 64
     7
 65
   257
 75
     1
175
     1
 42
40.0
 92
        8
 66
     7
 43
1.0
 76
     1
 77
     6
 78
     2
 67
     7
 79
     3
170
     0
171
     0
290
     0
174
     0
 93
        1
 44
0.0
173
     0
291
     0
 45
0.0
1001
ACAD
1000
AcDbSavedByObjectVersion
1070
     0
  0
VISUALSTYLE
  5
35
102
{ACAD_REACTORS
330
2A
102
}
330
2A
100
AcDbVisualStyle
  2
Dim
 70
    11
 71
     2
 72
     2
 73
     0
 90
        0
 40
-0.6
 41
-30.0
 62
     5
 63
     7
 74
     1
 91
        4
 64
     7
 65
   257
 75
     1
175
     1
 42
1.0
 92
        8
 66
     7
 43
1.0
 76
     1
 77
     6
 78
     2
 67
     7
 79
     5
170
     0
171
     0
290
     0
174
     0
 93
        1
 44
-50.0
173
     0
291
     1
 45
0.0
1001
ACAD
1000
AcDbSavedByObjectVersion
1070
     0
  0
VISUALSTYLE
  5
39
102
{ACAD_REACTORS
330
2A
102
}
330
2A
100
AcDbVisualStyle
  2
Facepattern
 70
    15
 71
     2
 72
     2
 73
     0
 90
        0
 40
-0.6
 41
-30.0
 62
     5
 63
     7
 74
     1
 91
        4
 64
     7
 65
   257
 75
     1
175
     1
 42
1.0
 92
        8
 66
     7
 43
1.0
 76
     1
 77
     6
 78
     2
 67
     7
 79
     5
170
     0
171
     0
290
     0
174
     0
 93
        1
 44
0.0
173
     0
291
     1
 45
0.0
1001
ACAD
1000
AcDbSavedByObjectVersion
1070
     0
  0
VISUALSTYLE
  5
2B
102
{ACAD_REACTORS
330
2A
102
}
330
2A
100
AcDbVisualStyle
  2
Flat
 70
     0
 71
     2
 72
     1
 73
     1
 90
        2
 40
-0.6
 41
30.0
 62
     5
 63
     7
 74
     0
 91
        4
 64
     7
 65
   257
 75
     1
175
     1
 42
1.0
 92
        8
 66
     7
 43
1.0
 76
     1
 77
     6
 78
     2
 67
     7
 79
     5
170
     0
171
     0
290
     0
174
     0
 93
       13
 44
0.0
173
     0
291
     1
 45
0.0
1001
ACAD
1000
AcDbSavedByObjectVersion
1070
     0
  0
VISUALSTYLE
  5
2C
102
{ACAD_REACTORS
330
2A
102
}
330
2A
100
AcDbVisualStyle
  2
FlatWithEdges
 70
     1
 71
     2
 72
     1
 73
     1
 90
        2
 40
-0.6
 41
30.0
 62
     5
 63
     7
 74
     1
 91
        4
 64
     7
 65
   257
 75
     1
175
     1
 42
1.0
 92
        0
 66
   257
 43
1.0
 76
     1
 77
     6
 78
     2
 67
     7
 79
     5
170
     0
171
     0
290
     0
174
     0
 93
       13
 44
0.0
173
     0
291
     1
 45
0.0
1001
ACAD
1000
AcDbSavedByObjectVersion
1070
     0
  0
VISUALSTYLE
  5
2D
102
{ACAD_REACTORS
330
2A
102
}
330
2A
100
AcDbVisualStyle
  2
Gouraud
 70
     2
 71
     2
 72
     2
 73
     1
 90
        2
 40
-0.6
 41
30.0
 62
     5
 63
     7
 74
     0
 91
        4
 64
     7
 65
   257
 75
     1
175
     1
 42
1.0
 92
        0
 66
     7
 43
1.0
 76
     1
 77
     6
 78
     2
 67
     7
 79
     5
170
     0
171
     0
290
     0
174
     0
 93
       13
 44
0.0
173
     0
291
     1
 45
0.0
1001
ACAD
1000
AcDbSavedByObjectVersion
1070
     0
  0
VISUALSTYLE
  5
2E
102
{ACAD_REACTORS
330
2A
102
}
330
2A
100
AcDbVisualStyle
  2
GouraudWithEdges
 70
     3
 71
     2
 72
     2
 73
     1
 90
        2
 40
-0.6
 41
30.0
 62
     5
 63
     7
 74
     1
 91
        4
 64
     7
 65
   257
 75
     1
175
     1
 42
1.0
 92
        0
 66
   257
 43
1.0
 76
     1
 77
     6
 78
     2
 67
     7
 79
     5
170
     0
171
     0
290
     0
174
     0
 93
       13
 44
0.0
173
     0
291
     1
 45
0.0
1001
ACAD
1000
AcDbSavedByObjectVersion
1070
     0
  0
VISUALSTYLE
  5
38
102
{ACAD_REACTORS
330
2A
102
}
330
2A
100
AcDbVisualStyle
  2
Linepattern
 70
    14
 71
     2
 72
     2
 73
     0
 90
        0
 40
-0.6
 41
-30.0
 62
     5
 63
     7
 74
     1
 91
        4
 64
     7
 65
   257
 75
     7
175
     7
 42
1.0
 92
        8
 66
     7
 43
1.0
 76
     1
 77
     6
 78
     2
 67
     7
 79
     5
170
     0
171
     0
290
     0
174
     0
 93
        1
 44
0.0
173
     0
291
     1
 45
0.0
1001
ACAD
1000
AcDbSavedByObjectVersion
1070
     0
  0
VISUALSTYLE
  5
33
102
{ACAD_REACTORS
330
2A
102
}
330
2A
100
AcDbVisualStyle
  2
Realistic
 70
     8
 71
     2
 72
     2
 73
     0
 90
        0
 40
-0.6
 41
-30.0
 62
     5
 63
     7
 74
     1
 91
        0
 64
     7
 65
   257
 75
     1
175
     1
 42
1.0
 92
        8
 66
     8
 43
1.0
 76
     1
 77
     6
 78
     2
 67
     7
 79
     5
170
     0
171
     0
290
     0
174
     0
 93
       13
 44
0.0
173
     0
291
     0
 45
0.0
1001
ACAD
1000
AcDbSavedByObjectVersion
1070
     0
  0
VISUALSTYLE
  5
37
102
{ACAD_REACTORS
330
2A
102
}
330
2A
100
AcDbVisualStyle
  2
Thicken
 70
    13
 71
     2
 72
     2
 73
     0
 90
        0
 40
-0.6
 41
-30.0
 62
     5
 63
     7
 74
     1
 91
        4
 64
     7
 65
   257
 75
     1
175
     1
 42
1.0
 92
       12
 66
     7
 43
1.0
 76
     1
 77
     6
 78
     2
 67
     7
 79
     5
170
     0
171
     0
290
     0
174
     0
 93
        1
 44
0.0
173
     0
291
     1
 45
0.0
1001
ACAD
1000
AcDbSavedByObjectVersion
1070
     0
  0
DICTIONARYVAR
  5
226
102
{ACAD_REACTORS
330
224
102
}
330
224
100
DictionaryVariables
280
     0
  1
80.000000
  0
DICTIONARYVAR
  5
225
102
{ACAD_REACTORS
330
224
102
}
330
224
100
DictionaryVariables
280
     0
  1
5.000000
  0
ENDSEC
  0
EOF
