  0
SECTION
  2
HEADER
  9
$ACADVER
  1
AC1015
  9
$ACADMAINTVER
 70
     6
  9
$DWGCODEPAGE
  3
ANSI_1252
  9
$INSBASE
 10
0.0
 20
0.0
 30
0.0
  9
$EXTMIN
 10
0.0
 20
0.0
 30
0.0
  9
$EXTMAX
 10
297.0
 20
210.0
 30
0.0
  9
$LIMMIN
 10
0.0
 20
0.0
  9
$LIMMAX
 10
297.0
 20
210.0
  9
$ORTHOMODE
 70
     0
  9
$REGENMODE
 70
     1
  9
$FILLMODE
 70
     1
  9
$QTEXTMODE
 70
     0
  9
$MIRRTEXT
 70
     1
  9
$LTSCALE
 40
1.0
  9
$ATTMODE
 70
     1
  9
$TEXTSIZE
 40
2.0
  9
$TRACEWID
 40
1.0
  9
$TEXTSTYLE
  7
Standard
  9
$CLAYER
  8
0
  9
$CELTYPE
  6
ByLayer
  9
$CECOLOR
 62
   256
  9
$CELTSCALE
 40
1.0
  9
$DISPSILH
 70
     0
  9
$DIMSCALE
 40
1.0
  9
$DIMASZ
 40
3.0
  9
$DIMEXO
 40
0.0
  9
$DIMDLI
 40
3.75
  9
$DIMRND
 40
0.0
  9
$DIMDLE
 40
0.0
  9
$DIMEXE
 40
1.0
  9
$DIMTP
 40
0.0
  9
$DIMTM
 40
0.0
  9
$DIMTXT
 40
2.0
  9
$DIMCEN
 40
2.5
  9
$DIMTSZ
 40
0.0
  9
$DIMTOL
 70
     0
  9
$DIMLIM
 70
     0
  9
$DIMTIH
 70
     1
  9
$DIMTOH
 70
     1
  9
$DIMSE1
 70
     0
  9
$DIMSE2
 70
     0
  9
$DIMTAD
 70
     1
  9
$DIMZIN
 70
     0
  9
$DIMBLK
  1

  9
$DIMASO
 70
     1
  9
$DIMSHO
 70
     1
  9
$DIMPOST
  1

  9
$DIMAPOST
  1

  9
$DIMALT
 70
     0
  9
$DIMALTD
 70
     3
  9
$DIMALTF
 40
0.0393700787
  9
$DIMLFAC
 40
1.0
  9
$DIMTOFL
 70
     1
  9
$DIMTVP
 40
0.0
  9
$DIMTIX
 70
     0
  9
$DIMSOXD
 70
     0
  9
$DIMSAH
 70
     0
  9
$DIMBLK1
  1

  9
$DIMBLK2
  1

  9
$DIMSTYLE
  2
ISO-25
  9
$DIMCLRD
 70
     0
  9
$DIMCLRE
 70
     0
  9
$DIMCLRT
 70
     0
  9
$DIMTFAC
 40
1.0
  9
$DIMGAP
 40
1.524
  9
$DIMJUST
 70
     0
  9
$DIMSD1
 70
     0
  9
$DIMSD2
 70
     0
  9
$DIMTOLJ
 70
     0
  9
$DIMTZIN
 70
     0
  9
$DIMALTZ
 70
     0
  9
$DIMALTTZ
 70
     0
  9
$DIMUPT
 70
     0
  9
$DIMDEC
 70
     2
  9
$DIMTDEC
 70
     3
  9
$DIMALTU
 70
     2
  9
$DIMALTTD
 70
     3
  9
$DIMTXSTY
  7
Standard
  9
$DIMAUNIT
 70
     0
  9
$DIMADEC
 70
     2
  9
$DIMALTRND
 40
0.0
  9
$DIMAZIN
 70
     0
  9
$DIMDSEP
 70
    44
  9
$DIMATFIT
 70
     3
  9
$DIMFRAC
 70
     0
  9
$DIMLDRBLK
  1

  9
$DIMLUNIT
 70
     2
  9
$DIMLWD
 70
    -2
  9
$DIMLWE
 70
    -2
  9
$DIMTMOVE
 70
     0
  9
$LUNITS
 70
     2
  9
$LUPREC
 70
     2
  9
$SKETCHINC
 40
1.0
  9
$FILLETRAD
 40
10.0
  9
$AUNITS
 70
     0
  9
$AUPREC
 70
     2
  9
$MENU
  1
.
  9
$ELEVATION
 40
0.0
  9
$PELEVATION
 40
0.0
  9
$THICKNESS
 40
0.0
  9
$LIMCHECK
 70
     0
  9
$CHAMFERA
 40
10.0
  9
$CHAMFERB
 40
10.0
  9
$CHAMFERC
 40
20.0
  9
$CHAMFERD
 40
0.0
  9
$SKPOLY
 70
     0
  9
$TDCREATE
 40
2455679.375621528
  9
$TDUCREATE
 40
2455679.292288194
  9
$TDUPDATE
 40
2455679.37562154
  9
$TDUUPDATE
 40
2455679.292288206
  9
$TDINDWG
 40
0.0000000116
  9
$TDUSRTIMER
 40
0.0000000116
  9
$USRTIMER
 70
     1
  9
$ANGBASE
 50
0.0
  9
$ANGDIR
 70
     0
  9
$PDMODE
 70
     0
  9
$PDSIZE
 40
-1.0
  9
$PLINEWID
 40
0.0
  9
$SPLFRAME
 70
     0
  9
$SPLINETYPE
 70
     6
  9
$SPLINESEGS
 70
     8
  9
$HANDSEED
  5
1B6
  9
$SURFTAB1
 70
     6
  9
$SURFTAB2
 70
     6
  9
$SURFTYPE
 70
     6
  9
$SURFU
 70
     6
  9
$SURFV
 70
     6
  9
$UCSBASE
  2

  9
$UCSNAME
  2

  9
$UCSORG
 10
0.0
 20
0.0
 30
0.0
  9
$UCSXDIR
 10
1.0
 20
0.0
 30
0.0
  9
$UCSYDIR
 10
0.0
 20
1.0
 30
0.0
  9
$UCSORTHOREF
  2

  9
$UCSORTHOVIEW
 70
     0
  9
$UCSORGTOP
 10
0.0
 20
0.0
 30
0.0
  9
$UCSORGBOTTOM
 10
0.0
 20
0.0
 30
0.0
  9
$UCSORGLEFT
 10
0.0
 20
0.0
 30
0.0
  9
$UCSORGRIGHT
 10
0.0
 20
0.0
 30
0.0
  9
$UCSORGFRONT
 10
0.0
 20
0.0
 30
0.0
  9
$UCSORGBACK
 10
0.0
 20
0.0
 30
0.0
  9
$PUCSBASE
  2

  9
$PUCSNAME
  2

  9
$PUCSORG
 10
0.0
 20
0.0
 30
0.0
  9
$PUCSXDIR
 10
1.0
 20
0.0
 30
0.0
  9
$PUCSYDIR
 10
0.0
 20
1.0
 30
0.0
  9
$PUCSORTHOREF
  2

  9
$PUCSORTHOVIEW
 70
     0
  9
$PUCSORGTOP
 10
0.0
 20
0.0
 30
0.0
  9
$PUCSORGBOTTOM
 10
0.0
 20
0.0
 30
0.0
  9
$PUCSORGLEFT
 10
0.0
 20
0.0
 30
0.0
  9
$PUCSORGRIGHT
 10
0.0
 20
0.0
 30
0.0
  9
$PUCSORGFRONT
 10
0.0
 20
0.0
 30
0.0
  9
$PUCSORGBACK
 10
0.0
 20
0.0
 30
0.0
  9
$USERI1
 70
     0
  9
$USERI2
 70
     0
  9
$USERI3
 70
     0
  9
$USERI4
 70
     0
  9
$USERI5
 70
     0
  9
$USERR1
 40
0.0
  9
$USERR2
 40
0.0
  9
$USERR3
 40
0.0
  9
$USERR4
 40
0.0
  9
$USERR5
 40
0.0
  9
$WORLDVIEW
 70
     1
  9
$SHADEDGE
 70
     3
  9
$SHADEDIF
 70
    70
  9
$TILEMODE
 70
     1
  9
$MAXACTVP
 70
    64
  9
$PINSBASE
 10
0.0
 20
0.0
 30
0.0
  9
$PLIMCHECK
 70
     0
  9
$PEXTMIN
 10
1.0000000000E+20
 20
1.0000000000E+20
 30
1.0000000000E+20
  9
$PEXTMAX
 10
-1.0000000000E+20
 20
-1.0000000000E+20
 30
-1.0000000000E+20
  9
$PLIMMIN
 10
0.0
 20
0.0
  9
$PLIMMAX
 10
420.0
 20
297.0
  9
$UNITMODE
 70
     0
  9
$VISRETAIN
 70
     1
  9
$PLINEGEN
 70
     0
  9
$PSLTSCALE
 70
     1
  9
$TREEDEPTH
 70
  3020
  9
$CMLSTYLE
  2
Standard
  9
$CMLJUST
 70
     0
  9
$CMLSCALE
 40
20.0
  9
$PROXYGRAPHICS
 70
     1
  9
$MEASUREMENT
 70
     1
  9
$CELWEIGHT
370
    -1
  9
$ENDCAPS
280
     0
  9
$JOINSTYLE
280
     0
  9
$LWDISPLAY
290
     1
  9
$INSUNITS
 70
     4
  9
$HYPERLINKBASE
  1

  9
$STYLESHEET
  1

  9
$XEDIT
290
     1
  9
$CEPSNTYPE
380
     0
  9
$PSTYLEMODE
290
     1
  9
$FINGERPRINTGUID
  2
{44F69338-55A3-4E72-A3A5-EA416B5202F5}
  9
$VERSIONGUID
  2
{FAEB1C32-E019-11D5-929B-00C0DF256EC4}
  9
$EXTNAMES
290
     1
  9
$PSVPSCALE
 40
0.0
  9
$OLESTARTUP
290
     0
  0
ENDSEC
  0
SECTION
  2
CLASSES
  0
CLASS
  1
ACDBDICTIONARYWDFLT
  2
AcDbDictionaryWithDefault
  3
ObjectDBX Classes
 90
        0
280
     0
281
     0
  0
CLASS
  1
VISUALSTYLE
  2
AcDbVisualStyle
  3
ObjectDBX Classes
 90
     4095
280
     0
281
     0
  0
CLASS
  1
DICTIONARYVAR
  2
AcDbDictionaryVar
  3
ObjectDBX Classes
 90
        0
280
     0
281
     0
  0
CLASS
  1
ACDBPLACEHOLDER
  2
AcDbPlaceHolder
  3
ObjectDBX Classes
 90
        0
280
     0
281
     0
  0
CLASS
  1
LAYOUT
  2
AcDbLayout
  3
ObjectDBX Classes
 90
        0
280
     0
281
     0
  0
ENDSEC
  0
SECTION
  2
TABLES
  0
TABLE
  2
VPORT
  5
8
330
0
100
AcDbSymbolTable
 70
     1
  0
VPORT
  5
29
330
8
100
AcDbSymbolTableRecord
100
AcDbViewportTableRecord
  2
*Active
 70
     0
 10
0.0
 20
0.0
 11
1.0
 21
1.0
 12
148.5
 22
105.0
 13
0.0
 23
0.0
 14
10.0
 24
10.0
 15
10.0
 25
10.0
 16
0.0
 26
0.0
 36
1.0
 17
0.0
 27
0.0
 37
0.0
 40
210.0
 41
1.4142857143
 42
50.0
 43
0.0
 44
0.0
 50
0.0
 51
0.0
 71
     0
 72
  2000
 73
     1
 74
     3
 75
     0
 76
     0
 77
     0
 78
     0
281
     0
 65
     1
110
0.0
120
0.0
130
0.0
111
1.0
121
0.0
131
0.0
112
0.0
122
1.0
132
0.0
 79
     0
146
0.0
  0
ENDTAB
  0
TABLE
  2
LTYPE
  5
5
330
0
100
AcDbSymbolTable
 70
     6
  0
LTYPE
  5
14
330
5
100
AcDbSymbolTableRecord
100
AcDbLinetypeTableRecord
  2
ByBlock
 70
     0
  3

 72
    65
 73
     0
 40
0.0
  0
LTYPE
  5
15
330
5
100
AcDbSymbolTableRecord
100
AcDbLinetypeTableRecord
  2
ByLayer
 70
     0
  3

 72
    65
 73
     0
 40
0.0
  0
LTYPE
  5
16
330
5
100
AcDbSymbolTableRecord
100
AcDbLinetypeTableRecord
  2
Continuous
 70
     0
  3
Solid line
 72
    65
 73
     0
 40
0.0
  0
LTYPE
  5
3B
330
5
100
AcDbSymbolTableRecord
100
AcDbLinetypeTableRecord
  2
HIDDEN
 70
     0
  3
Hidden __ __ __ __ __ __ __ __ __ __ __ __ __ __
 72
    65
 73
     2
 40
1.905
 49
1.27
 74
     0
 49
-0.635
 74
     0
  0
LTYPE
  5
3C
330
5
100
AcDbSymbolTableRecord
100
AcDbLinetypeTableRecord
  2
PHANTOM
 70
     0
  3
Phantom ______  __  __  ______  __  __  ______
 72
    65
 73
     6
 40
12.7
 49
6.35
 74
     0
 49
-1.27
 74
     0
 49
1.27
 74
     0
 49
-1.27
 74
     0
 49
1.27
 74
     0
 49
-1.27
 74
     0
  0
LTYPE
  5
3D
330
5
100
AcDbSymbolTableRecord
100
AcDbLinetypeTableRecord
  2
CENTER
 70
     0
  3
Center ____ _ ____ _ ____ _ ____ _ ____ _ ____
 72
    65
 73
     4
 40
10.16
 49
6.35
 74
     0
 49
-1.27
 74
     0
 49
1.27
 74
     0
 49
-1.27
 74
     0
  0
LTYPE
  5
3E
330
5
100
AcDbSymbolTableRecord
100
AcDbLinetypeTableRecord
  2
CENTERX2
 70
     0
  3
Center (2x) ________  __  ________  __  _____
 72
    65
 73
     4
 40
20.32
 49
12.7
 74
     0
 49
-2.54
 74
     0
 49
2.54
 74
     0
 49
-2.54
 74
     0
  0
LTYPE
  5
3F
330
5
100
AcDbSymbolTableRecord
100
AcDbLinetypeTableRecord
  2
DOT2
 70
     0
  3
Dot (.5x) ........................................
 72
    65
 73
     2
 40
0.635
 49
0.0
 74
     0
 49
-0.635
 74
     0
  0
ENDTAB
  0
TABLE
  2
LAYER
  5
2
330
0
100
AcDbSymbolTable
 70
     5
  0
LAYER
  5
10
330
2
100
AcDbSymbolTableRecord
100
AcDbLayerTableRecord
  2
0
 70
     0
 62
     7
  6
Continuous
370
    -3
390
F
  0
LAYER
  5
40
330
2
100
AcDbSymbolTableRecord
100
AcDbLayerTableRecord
  2
FORMAT
 70
     0
 62
     7
  6
Continuous
370
    -3
390
F
  0
LAYER
  5
41
330
2
100
AcDbSymbolTableRecord
100
AcDbLayerTableRecord
  2
VERMASSUNG
 70
     0
 62
     7
  6
Continuous
370
    -3
390
F
  0
LAYER
  5
42
330
2
100
AcDbSymbolTableRecord
100
AcDbLayerTableRecord
  2
KOPF_DÜNN
 70
     0
 62
     7
  6
Continuous
370
    -3
390
F
  0
LAYER
  5
43
330
2
100
AcDbSymbolTableRecord
100
AcDbLayerTableRecord
  2
KOPF_DICK
 70
     0
 62
     7
  6
Continuous
370
    15
390
F
  0
ENDTAB
  0
TABLE
  2
STYLE
  5
3
330
0
100
AcDbSymbolTable
 70
     3
  0
STYLE
  5
11
330
3
100
AcDbSymbolTableRecord
100
AcDbTextStyleTableRecord
  2
Standard
 70
     0
 40
0.0
 41
1.0
 50
0.0
 71
     0
 42
2.5
  3
txt
  4

  0
STYLE
  5
44
330
3
100
AcDbSymbolTableRecord
100
AcDbTextStyleTableRecord
  2
SLDTEXTSTYLE0
 70
     0
 40
0.0
 41
0.7
 50
0.0
 71
     0
 42
0.2
  3
TXT
  4

  0
STYLE
  5
48
330
3
100
AcDbSymbolTableRecord
100
AcDbTextStyleTableRecord
  2
SLDTEXTSTYLE1
 70
     0
 40
0.0
 41
0.6473684211
 50
0.0
 71
     0
 42
0.2
  3
TXT
  4

  0
ENDTAB
  0
TABLE
  2
VIEW
  5
6
330
0
100
AcDbSymbolTable
 70
     0
  0
ENDTAB
  0
TABLE
  2
UCS
  5
7
330
0
100
AcDbSymbolTable
 70
     0
  0
ENDTAB
  0
TABLE
  2
APPID
  5
9
330
0
100
AcDbSymbolTable
 70
     1
  0
APPID
  5
12
330
9
100
AcDbSymbolTableRecord
100
AcDbRegAppTableRecord
  2
ACAD
 70
     0
  0
ENDTAB
  0
TABLE
  2
DIMSTYLE
  5
A
330
0
100
AcDbSymbolTable
 70
     5
100
AcDbDimStyleTable
  0
DIMSTYLE
105
27
330
A
100
AcDbSymbolTableRecord
100
AcDbDimStyleTableRecord
  2
ISO-25
 70
     0
 41
2.5
 42
0.625
 43
3.75
 44
1.25
 73
     0
 74
     0
 77
     1
 78
     8
140
2.5
141
2.5
143
0.0393700787
147
0.625
171
     3
172
     1
271
     2
272
     2
274
     3
278
    44
283
     0
284
     8
340
11
  0
DIMSTYLE
105
157
102
{ACAD_REACTORS
330
156
330
191
330
19B
330
1A5
102
}
330
A
100
AcDbSymbolTableRecord
100
AcDbDimStyleTableRecord
  2
SLDDIMSTYLE0
 70
     0
 41
3.0
 44
0.0
 45
0.000000001
 73
     0
 74
     0
 77
     1
 78
    12
140
2.0
147
0.5
173
     1
271
     2
272
     3
284
    12
340
44
  0
DIMSTYLE
105
164
102
{ACAD_REACTORS
330
163
102
}
330
A
100
AcDbSymbolTableRecord
100
AcDbDimStyleTableRecord
  2
SLDDIMSTYLE1
 70
     0
 41
3.0
 44
0.0
 45
0.000000001
 73
     0
 74
     0
 77
     1
 78
    12
140
2.0
147
0.5
173
     1
271
     2
272
     2
284
    12
340
44
  0
DIMSTYLE
105
16F
102
{ACAD_REACTORS
330
16E
102
}
330
A
100
AcDbSymbolTableRecord
100
AcDbDimStyleTableRecord
  2
SLDDIMSTYLE2
 70
     0
 41
3.0
 44
0.0
 45
0.000000001
 73
     0
 74
     0
 77
     1
 78
    12
140
2.0
147
0.5
173
     1
271
     2
272
     2
284
    12
340
44
  0
DIMSTYLE
105
17B
102
{ACAD_REACTORS
330
17A
330
186
102
}
330
A
100
AcDbSymbolTableRecord
100
AcDbDimStyleTableRecord
  2
SLDDIMSTYLE3
 70
     0
 41
3.0
 44
0.0
 45
0.000000001
 73
     0
 74
     0
 77
     1
 78
    12
140
2.0
147
0.5
173
     1
271
     2
272
     3
284
    12
340
44
  0
ENDTAB
  0
TABLE
  2
BLOCK_RECORD
  5
1
330
0
100
AcDbSymbolTable
 70
     9
  0
BLOCK_RECORD
  5
1F
330
1
100
AcDbSymbolTableRecord
100
AcDbBlockTableRecord
  2
*Model_Space
340
22
  0
BLOCK_RECORD
  5
1B
330
1
100
AcDbSymbolTableRecord
100
AcDbBlockTableRecord
  2
*Paper_Space
340
1E
  0
BLOCK_RECORD
  5
23
330
1
100
AcDbSymbolTableRecord
100
AcDbBlockTableRecord
  2
*Paper_Space0
340
26
  0
BLOCK_RECORD
  5
158
330
1
100
AcDbSymbolTableRecord
100
AcDbBlockTableRecord
  2
*D1
340
0
  0
BLOCK_RECORD
  5
165
330
1
100
AcDbSymbolTableRecord
100
AcDbBlockTableRecord
  2
*D2
340
0
  0
BLOCK_RECORD
  5
170
330
1
100
AcDbSymbolTableRecord
100
AcDbBlockTableRecord
  2
*D3
340
0
  0
BLOCK_RECORD
  5
17C
330
1
100
AcDbSymbolTableRecord
100
AcDbBlockTableRecord
  2
*D4
340
0
  0
BLOCK_RECORD
  5
187
330
1
100
AcDbSymbolTableRecord
100
AcDbBlockTableRecord
  2
*D5
340
0
  0
BLOCK_RECORD
  5
192
330
1
100
AcDbSymbolTableRecord
100
AcDbBlockTableRecord
  2
*D6
340
0
  0
BLOCK_RECORD
  5
19C
330
1
100
AcDbSymbolTableRecord
100
AcDbBlockTableRecord
  2
*D7
340
0
  0
BLOCK_RECORD
  5
1A6
330
1
100
AcDbSymbolTableRecord
100
AcDbBlockTableRecord
  2
*D8
340
0
  0
ENDTAB
  0
ENDSEC
  0
SECTION
  2
BLOCKS
  0
BLOCK
  5
20
330
1F
100
AcDbEntity
  8
0
100
AcDbBlockBegin
  2
*Model_Space
 70
     0
 10
0.0
 20
0.0
 30
0.0
  3
*Model_Space
  1

  0
ENDBLK
  5
21
330
1F
100
AcDbEntity
  8
0
100
AcDbBlockEnd
  0
BLOCK
  5
1C
330
1B
100
AcDbEntity
 67
     1
  8
0
100
AcDbBlockBegin
  2
*Paper_Space
 70
     0
 10
0.0
 20
0.0
 30
0.0
  3
*Paper_Space
  1

  0
ENDBLK
  5
1D
330
1B
100
AcDbEntity
 67
     1
  8
0
100
AcDbBlockEnd
  0
BLOCK
  5
24
330
23
100
AcDbEntity
  8
0
100
AcDbBlockBegin
  2
*Paper_Space0
 70
     0
 10
0.0
 20
0.0
 30
0.0
  3
*Paper_Space0
  1

  0
ENDBLK
  5
25
330
23
100
AcDbEntity
  8
0
100
AcDbBlockEnd
  0
BLOCK
  5
159
330
158
100
AcDbEntity
  8
0
100
AcDbBlockBegin
  2
*D1
 70
     1
 10
0.0
 20
0.0
 30
0.0
  3
*D1
  1

  0
SOLID
  5
15B
330
158
100
AcDbEntity
  8
VERMASSUNG
100
AcDbTrace
 10
79.1112676056
 20
138.7046587216
 30
0.0
 11
78.6612676056
 21
135.7046587216
 31
0.0
 12
79.5612676056
 22
135.7046587216
 32
0.0
 13
79.5612676056
 23
135.7046587216
 33
0.0
  0
SOLID
  5
15C
330
158
100
AcDbEntity
  8
VERMASSUNG
100
AcDbTrace
 10
79.1112676056
 20
75.7046587216
 30
0.0
 11
79.5612676056
 21
78.7046587216
 31
0.0
 12
78.6612676056
 22
78.7046587216
 32
0.0
 13
78.6612676056
 23
78.7046587216
 33
0.0
  0
LINE
  5
15D
330
158
100
AcDbEntity
  8
VERMASSUNG
100
AcDbLine
 10
117.5019585301
 20
138.7046587216
 30
0.0
 11
78.1112676056
 21
138.7046587216
 31
0.0
  0
LINE
  5
15E
330
158
100
AcDbEntity
  8
VERMASSUNG
100
AcDbLine
 10
117.5019585301
 20
75.7046587216
 30
0.0
 11
78.1112676056
 21
75.7046587216
 31
0.0
  0
LINE
  5
15F
330
158
100
AcDbEntity
  8
VERMASSUNG
100
AcDbLine
 10
79.1112676056
 20
138.7046587216
 30
0.0
 11
79.1112676056
 21
75.7046587216
 31
0.0
  0
MTEXT
  5
160
330
158
100
AcDbEntity
  8
VERMASSUNG
100
AcDbMText
 10
76.3331321166
 20
99.5011170098
 30
0.0
 40
2.0
 41
0.0
 71
     1
 72
     1
  1
HSK A 
  7
SLDTEXTSTYLE0
 11
-7.044195017643634E-15
 21
1.0
 31
0.0
 73
     1
 44
1.0
  0
MTEXT
  5
161
330
158
100
AcDbEntity
  8
VERMASSUNG
100
AcDbMText
 10
76.5331321261
 20
108.5011175536
 30
0.0
 40
2.0
 41
0.0
 71
     1
 72
     1
  1
%%c
  7
SLDTEXTSTYLE0
 11
-7.044195017643634E-15
 21
1.0
 31
0.0
 73
     1
 44
1.0
  0
MTEXT
  5
162
330
158
100
AcDbEntity
  8
VERMASSUNG
100
AcDbMText
 10
76.5331322425
 20
112.1094442037
 30
0.0
 40
2.0
 41
0.0
 71
     1
 72
     1
  1
63
  7
SLDTEXTSTYLE0
 11
-7.044195017643634E-15
 21
1.0
 31
0.0
 73
     1
 44
1.0
  0
ENDBLK
  5
15A
330
158
100
AcDbEntity
  8
0
100
AcDbBlockEnd
  0
BLOCK
  5
166
330
165
100
AcDbEntity
  8
0
100
AcDbBlockBegin
  2
*D2
 70
     1
 10
0.0
 20
0.0
 30
0.0
  3
*D2
  1

  0
SOLID
  5
168
330
165
100
AcDbEntity
  8
VERMASSUNG
100
AcDbTrace
 10
160.7019585301
 20
142.4791982665
 30
0.0
 11
163.7019585301
 21
142.0291982665
 31
0.0
 12
163.7019585301
 22
142.9291982665
 32
0.0
 13
163.7019585301
 23
142.9291982665
 33
0.0
  0
SOLID
  5
169
330
165
100
AcDbEntity
  8
VERMASSUNG
100
AcDbTrace
 10
207.2019585301
 20
142.4791982665
 30
0.0
 11
204.2019585301
 21
142.9291982665
 31
0.0
 12
204.2019585301
 22
142.0291982665
 32
0.0
 13
204.2019585301
 23
142.0291982665
 33
0.0
  0
LINE
  5
16A
330
165
100
AcDbEntity
  8
VERMASSUNG
100
AcDbLine
 10
160.7019585301
 20
114.1046587216
 30
0.0
 11
160.7019585301
 21
143.4791982665
 31
0.0
  0
LINE
  5
16B
330
165
100
AcDbEntity
  8
VERMASSUNG
100
AcDbLine
 10
207.2019585301
 20
118.8558777382
 30
0.0
 11
207.2019585301
 21
143.4791982665
 31
0.0
  0
LINE
  5
16C
330
165
100
AcDbEntity
  8
VERMASSUNG
100
AcDbLine
 10
160.7019585301
 20
142.4791982665
 30
0.0
 11
207.2019585301
 21
142.4791982665
 31
0.0
  0
MTEXT
  5
16D
330
165
100
AcDbEntity
  8
VERMASSUNG
100
AcDbMText
 10
181.4525717478
 20
145.0573336297
 30
0.0
 40
2.0
 41
0.0
 71
     1
 72
     1
  1
46.5
  7
SLDTEXTSTYLE0
 73
     1
 44
1.0
  0
ENDBLK
  5
167
330
165
100
AcDbEntity
  8
0
100
AcDbBlockEnd
  0
BLOCK
  5
171
330
170
100
AcDbEntity
  8
0
100
AcDbBlockBegin
  2
*D3
 70
     1
 10
0.0
 20
0.0
 30
0.0
  3
*D3
  1

  0
SOLID
  5
173
330
170
100
AcDbEntity
  8
VERMASSUNG
100
AcDbTrace
 10
217.2019585301
 20
100.2046587216
 30
0.0
 11
217.6519585301
 21
103.2046587216
 31
0.0
 12
216.7519585301
 22
103.2046587216
 32
0.0
 13
216.7519585301
 23
103.2046587216
 33
0.0
  0
SOLID
  5
174
330
170
100
AcDbEntity
  8
VERMASSUNG
100
AcDbTrace
 10
217.2019585301
 20
114.2046587216
 30
0.0
 11
216.7519585301
 21
111.2046587216
 31
0.0
 12
217.6519585301
 22
111.2046587216
 32
0.0
 13
217.6519585301
 23
111.2046587216
 33
0.0
  0
LINE
  5
175
330
170
100
AcDbEntity
  8
VERMASSUNG
100
AcDbLine
 10
203.7019585301
 20
100.2046587216
 30
0.0
 11
218.2019585301
 21
100.2046587216
 31
0.0
  0
LINE
  5
176
330
170
100
AcDbEntity
  8
VERMASSUNG
100
AcDbLine
 10
203.7019585301
 20
114.2046587216
 30
0.0
 11
218.2019585301
 21
114.2046587216
 31
0.0
  0
LINE
  5
177
330
170
100
AcDbEntity
  8
VERMASSUNG
100
AcDbLine
 10
217.2019585301
 20
100.2046587216
 30
0.0
 11
217.2019585301
 21
114.2046587216
 31
0.0
  0
MTEXT
  5
178
330
170
100
AcDbEntity
  8
VERMASSUNG
100
AcDbMText
 10
214.6238230505
 20
104.1007313109
 30
0.0
 40
2.0
 41
0.0
 71
     1
 72
     1
  1
%%c
  7
SLDTEXTSTYLE0
 11
6.123233995736766E-17
 21
1.0
 31
0.0
 73
     1
 44
1.0
  0
MTEXT
  5
179
330
170
100
AcDbEntity
  8
VERMASSUNG
100
AcDbMText
 10
214.6238231669
 20
107.7094095341
 30
0.0
 40
2.0
 41
0.0
 71
     1
 72
     1
  1
14
  7
SLDTEXTSTYLE0
 11
6.123233995736766E-17
 21
1.0
 31
0.0
 73
     1
 44
1.0
  0
ENDBLK
  5
172
330
170
100
AcDbEntity
  8
0
100
AcDbBlockEnd
  0
BLOCK
  5
17D
330
17C
100
AcDbEntity
  8
0
100
AcDbBlockBegin
  2
*D4
 70
     1
 10
0.0
 20
0.0
 30
0.0
  3
*D4
  1

  0
SOLID
  5
17F
330
17C
100
AcDbEntity
  8
VERMASSUNG
100
AcDbTrace
 10
223.2019585301
 20
93.7046587216
 30
0.0
 11
223.6519585301
 21
96.7046587216
 31
0.0
 12
222.7519585301
 22
96.7046587216
 32
0.0
 13
222.7519585301
 23
96.7046587216
 33
0.0
  0
SOLID
  5
180
330
17C
100
AcDbEntity
  8
VERMASSUNG
100
AcDbTrace
 10
223.2019585301
 20
120.7046587216
 30
0.0
 11
222.7519585301
 21
117.7046587216
 31
0.0
 12
223.6519585301
 22
117.7046587216
 32
0.0
 13
223.6519585301
 23
117.7046587216
 33
0.0
  0
LINE
  5
181
330
17C
100
AcDbEntity
  8
VERMASSUNG
100
AcDbLine
 10
207.2019585301
 20
93.7046587216
 30
0.0
 11
224.2019585301
 21
93.7046587216
 31
0.0
  0
LINE
  5
182
330
17C
100
AcDbEntity
  8
VERMASSUNG
100
AcDbLine
 10
207.2019585301
 20
120.7046587216
 30
0.0
 11
224.2019585301
 21
120.7046587216
 31
0.0
  0
LINE
  5
183
330
17C
100
AcDbEntity
  8
VERMASSUNG
100
AcDbLine
 10
223.2019585301
 20
93.7046587216
 30
0.0
 11
223.2019585301
 21
120.7046587216
 31
0.0
  0
MTEXT
  5
184
330
17C
100
AcDbEntity
  8
VERMASSUNG
100
AcDbMText
 10
220.6238230505
 20
104.0009414951
 30
0.0
 40
2.0
 41
0.0
 71
     1
 72
     1
  1
%%c
  7
SLDTEXTSTYLE0
 11
6.123233995736766E-17
 21
1.0
 31
0.0
 73
     1
 44
1.0
  0
MTEXT
  5
185
330
17C
100
AcDbEntity
  8
VERMASSUNG
100
AcDbMText
 10
220.6238231669
 20
107.6096197183
 30
0.0
 40
2.0
 41
0.0
 71
     1
 72
     1
  1
27
  7
SLDTEXTSTYLE0
 11
6.123233995736766E-17
 21
1.0
 31
0.0
 73
     1
 44
1.0
  0
ENDBLK
  5
17E
330
17C
100
AcDbEntity
  8
0
100
AcDbBlockEnd
  0
BLOCK
  5
188
330
187
100
AcDbEntity
  8
0
100
AcDbBlockBegin
  2
*D5
 70
     1
 10
0.0
 20
0.0
 30
0.0
  3
*D5
  1

  0
SOLID
  5
18A
330
187
100
AcDbEntity
  8
VERMASSUNG
100
AcDbTrace
 10
229.2019585301
 20
90.2046587216
 30
0.0
 11
229.6519585301
 21
93.2046587216
 31
0.0
 12
228.7519585301
 22
93.2046587216
 32
0.0
 13
228.7519585301
 23
93.2046587216
 33
0.0
  0
SOLID
  5
18B
330
187
100
AcDbEntity
  8
VERMASSUNG
100
AcDbTrace
 10
229.2019585301
 20
124.2046587216
 30
0.0
 11
228.7519585301
 21
121.2046587216
 31
0.0
 12
229.6519585301
 22
121.2046587216
 32
0.0
 13
229.6519585301
 23
121.2046587216
 33
0.0
  0
LINE
  5
18C
330
187
100
AcDbEntity
  8
VERMASSUNG
100
AcDbLine
 10
146.1519585301
 20
90.2046587216
 30
0.0
 11
230.2019585301
 21
90.2046587216
 31
0.0
  0
LINE
  5
18D
330
187
100
AcDbEntity
  8
VERMASSUNG
100
AcDbLine
 10
146.1519585301
 20
124.2046587216
 30
0.0
 11
230.2019585301
 21
124.2046587216
 31
0.0
  0
LINE
  5
18E
330
187
100
AcDbEntity
  8
VERMASSUNG
100
AcDbLine
 10
229.2019585301
 20
90.2046587216
 30
0.0
 11
229.2019585301
 21
124.2046587216
 31
0.0
  0
MTEXT
  5
18F
330
187
100
AcDbEntity
  8
VERMASSUNG
100
AcDbMText
 10
226.6238230505
 20
103.9011516793
 30
0.0
 40
2.0
 41
0.0
 71
     1
 72
     1
  1
%%c
  7
SLDTEXTSTYLE0
 11
6.123233995736766E-17
 21
1.0
 31
0.0
 73
     1
 44
1.0
  0
MTEXT
  5
190
330
187
100
AcDbEntity
  8
VERMASSUNG
100
AcDbMText
 10
226.6238231669
 20
107.5098299025
 30
0.0
 40
2.0
 41
0.0
 71
     1
 72
     1
  1
34
  7
SLDTEXTSTYLE0
 11
6.123233995736766E-17
 21
1.0
 31
0.0
 73
     1
 44
1.0
  0
ENDBLK
  5
189
330
187
100
AcDbEntity
  8
0
100
AcDbBlockEnd
  0
BLOCK
  5
193
330
192
100
AcDbEntity
  8
0
100
AcDbBlockBegin
  2
*D6
 70
     1
 10
0.0
 20
0.0
 30
0.0
  3
*D6
  1

  0
SOLID
  5
195
330
192
100
AcDbEntity
  8
VERMASSUNG
100
AcDbTrace
 10
117.2019585301
 20
154.4791982665
 30
0.0
 11
120.2019585301
 21
154.0291982665
 31
0.0
 12
120.2019585301
 22
154.9291982665
 32
0.0
 13
120.2019585301
 23
154.9291982665
 33
0.0
  0
SOLID
  5
196
330
192
100
AcDbEntity
  8
VERMASSUNG
100
AcDbTrace
 10
207.2019585301
 20
154.4791982665
 30
0.0
 11
204.2019585301
 21
154.9291982665
 31
0.0
 12
204.2019585301
 22
154.0291982665
 32
0.0
 13
204.2019585301
 23
154.0291982665
 33
0.0
  0
LINE
  5
197
330
192
100
AcDbEntity
  8
VERMASSUNG
100
AcDbLine
 10
117.2019585301
 20
138.4046587216
 30
0.0
 11
117.2019585301
 21
155.4791982665
 31
0.0
  0
LINE
  5
198
330
192
100
AcDbEntity
  8
VERMASSUNG
100
AcDbLine
 10
207.2019585301
 20
118.8558777382
 30
0.0
 11
207.2019585301
 21
155.4791982665
 31
0.0
  0
LINE
  5
199
330
192
100
AcDbEntity
  8
VERMASSUNG
100
AcDbLine
 10
117.2019585301
 20
154.4791982665
 30
0.0
 11
207.2019585301
 21
154.4791982665
 31
0.0
  0
MTEXT
  5
19A
330
192
100
AcDbEntity
  8
VERMASSUNG
100
AcDbMText
 10
160.8025804152
 20
157.0573336297
 30
0.0
 40
2.0
 41
0.0
 71
     1
 72
     1
  1
90
  7
SLDTEXTSTYLE0
 73
     1
 44
1.0
  0
ENDBLK
  5
194
330
192
100
AcDbEntity
  8
0
100
AcDbBlockEnd
  0
BLOCK
  5
19D
330
19C
100
AcDbEntity
  8
0
100
AcDbBlockBegin
  2
*D7
 70
     1
 10
0.0
 20
0.0
 30
0.0
  3
*D7
  1

  0
SOLID
  5
19F
330
19C
100
AcDbEntity
  8
VERMASSUNG
100
AcDbTrace
 10
143.1519585301
 20
148.4791982665
 30
0.0
 11
146.1519585301
 21
148.0291982665
 31
0.0
 12
146.1519585301
 22
148.9291982665
 32
0.0
 13
146.1519585301
 23
148.9291982665
 33
0.0
  0
SOLID
  5
1A0
330
19C
100
AcDbEntity
  8
VERMASSUNG
100
AcDbTrace
 10
207.2019585301
 20
148.4791982665
 30
0.0
 11
204.2019585301
 21
148.9291982665
 31
0.0
 12
204.2019585301
 22
148.0291982665
 32
0.0
 13
204.2019585301
 23
148.0291982665
 33
0.0
  0
LINE
  5
1A1
330
19C
100
AcDbEntity
  8
VERMASSUNG
100
AcDbLine
 10
143.1519585301
 20
137.0510990453
 30
0.0
 11
143.1519585301
 21
149.4791982665
 31
0.0
  0
LINE
  5
1A2
330
19C
100
AcDbEntity
  8
VERMASSUNG
100
AcDbLine
 10
207.2019585301
 20
118.8558777382
 30
0.0
 11
207.2019585301
 21
149.4791982665
 31
0.0
  0
LINE
  5
1A3
330
19C
100
AcDbEntity
  8
VERMASSUNG
100
AcDbLine
 10
143.1519585301
 20
148.4791982665
 30
0.0
 11
207.2019585301
 21
148.4791982665
 31
0.0
  0
MTEXT
  5
1A4
330
19C
100
AcDbEntity
  8
VERMASSUNG
100
AcDbMText
 10
171.9778826904
 20
151.0573336297
 30
0.0
 40
2.0
 41
0.0
 71
     1
 72
     1
  1
64.05
  7
SLDTEXTSTYLE0
 73
     1
 44
1.0
  0
ENDBLK
  5
19E
330
19C
100
AcDbEntity
  8
0
100
AcDbBlockEnd
  0
BLOCK
  5
1A7
330
1A6
100
AcDbEntity
  8
0
100
AcDbBlockBegin
  2
*D8
 70
     1
 10
0.0
 20
0.0
 30
0.0
  3
*D8
  1

  0
SOLID
  5
1A9
330
1A6
100
AcDbEntity
  8
VERMASSUNG
100
AcDbTrace
 10
85.3019585301
 20
160.4791982665
 30
0.0
 11
88.3019585301
 21
160.0291982665
 31
0.0
 12
88.3019585301
 22
160.9291982665
 32
0.0
 13
88.3019585301
 23
160.9291982665
 33
0.0
  0
SOLID
  5
1AA
330
1A6
100
AcDbEntity
  8
VERMASSUNG
100
AcDbTrace
 10
207.2019585301
 20
160.4791982665
 30
0.0
 11
204.2019585301
 21
160.9291982665
 31
0.0
 12
204.2019585301
 22
160.0291982665
 32
0.0
 13
204.2019585301
 23
160.0291982665
 33
0.0
  0
LINE
  5
1AB
330
1A6
100
AcDbEntity
  8
VERMASSUNG
100
AcDbLine
 10
85.3019585301
 20
126.895336468
 30
0.0
 11
85.3019585301
 21
161.4791982665
 31
0.0
  0
LINE
  5
1AC
330
1A6
100
AcDbEntity
  8
VERMASSUNG
100
AcDbLine
 10
207.2019585301
 20
118.8558777382
 30
0.0
 11
207.2019585301
 21
161.4791982665
 31
0.0
  0
LINE
  5
1AD
330
1A6
100
AcDbEntity
  8
VERMASSUNG
100
AcDbLine
 10
85.3019585301
 20
160.4791982665
 30
0.0
 11
207.2019585301
 21
160.4791982665
 31
0.0
  0
MTEXT
  5
1AE
330
1A6
100
AcDbEntity
  8
VERMASSUNG
100
AcDbMText
 10
143.5529921162
 20
163.0573336297
 30
0.0
 40
2.0
 41
0.0
 71
     1
 72
     1
  1
121.9
  7
SLDTEXTSTYLE0
 73
     1
 44
1.0
  0
ENDBLK
  5
1A8
330
1A6
100
AcDbEntity
  8
0
100
AcDbBlockEnd
  0
ENDSEC
  0
SECTION
  2
ENTITIES
  0
MTEXT
  5
45
330
1F
100
AcDbEntity
  8
KOPF_DÜNN
100
AcDbMText
 10
13.8892156294
 20
23.8442973028
 30
0.0
 40
3.0
 41
0.0
 71
     1
 72
     1
  1
HA6.S14.K01.090
  7
SLDTEXTSTYLE0
 73
     1
 44
1.0
  0
MTEXT
  5
46
330
1F
100
AcDbEntity
  8
VERMASSUNG
100
AcDbMText
 10
13.9329988022
 20
28.8834360957
 30
0.0
 40
3.0
 41
0.0
 71
     1
 72
     1
  1
Schrumpffutter_Heat shrink chuck
  7
SLDTEXTSTYLE0
 73
     1
 44
1.0
  0
MTEXT
  5
47
330
1F
100
AcDbEntity
  8
VERMASSUNG
100
AcDbMText
 10
98.8601118557
 20
13.8365368179
 30
0.0
 40
2.0
 41
0.0
 71
     1
 72
     1
  1
Datum: 27.04.2011
  7
SLDTEXTSTYLE0
 73
     1
 44
1.0
  0
MTEXT
  5
49
330
1F
100
AcDbEntity
  8
VERMASSUNG
100
AcDbMText
 10
13.933048693
 20
18.0482802738
 30
0.0
 40
2.0
 41
0.0
 71
     1
 72
     1
  1
DIN 69 893 HSK A 63
  7
SLDTEXTSTYLE1
 73
     1
 44
1.0
  0
MTEXT
  5
4A
330
1F
100
AcDbEntity
  8
VERMASSUNG
100
AcDbMText
 10
13.9808475933
 20
13.9090973692
 30
0.0
 40
2.0
 41
0.0
 71
     1
 72
     1
  1
Gewicht: 973g
  7
SLDTEXTSTYLE0
 73
     1
 44
1.0
  0
ARC
  5
4B
330
1F
100
AcDbEntity
  8
0
  6
Continuous
 62
     7
370
    15
100
AcDbCircle
 10
117.5019585301
 20
76.0046587216
 30
0.0
 40
0.3000000000000114
100
AcDbArc
 50
180.0
 51
270.0
  0
ARC
  5
4C
330
1F
100
AcDbEntity
  8
0
  6
Continuous
 62
     7
370
    15
100
AcDbCircle
 10
117.5019585301
 20
138.4046587216
 30
0.0
 40
0.3000000000000114
100
AcDbArc
 50
90.0
 51
180.0
  0
LINE
  5
4D
330
1F
100
AcDbEntity
  8
0
  6
Continuous
 62
     7
370
    15
100
AcDbLine
 10
117.5019585301
 20
75.7046587216
 30
0.0
 11
122.1519585301
 21
75.7046587216
 31
0.0
  0
LINE
  5
4E
330
1F
100
AcDbEntity
  8
0
  6
Continuous
 62
     7
370
    15
100
AcDbLine
 10
122.1799468891
 20
138.7046587216
 30
0.0
 11
117.5019585301
 21
138.7046587216
 31
0.0
  0
ARC
  5
4F
330
1F
100
AcDbEntity
  8
0
  6
Continuous
 62
     7
370
    15
100
AcDbCircle
 10
116.7019517774
 20
82.6342211072
 30
0.0
 40
0.6000067526677242
100
AcDbArc
 50
33.5571153394
 51
90.0
  0
ARC
  5
50
330
1F
100
AcDbEntity
  8
0
  6
Continuous
 62
     7
370
    15
100
AcDbCircle
 10
116.7019517774
 20
131.775096336
 30
0.0
 40
0.6000067526677242
100
AcDbArc
 50
270.0
 51
326.4428846606
  0
LINE
  5
51
330
1F
100
AcDbEntity
  8
0
  6
Continuous
 62
     7
370
    15
100
AcDbLine
 10
103.9704497312
 20
130.8623887417
 30
0.0
 11
91.4019585301
 21
130.2327048137
 31
0.0
  0
LINE
  5
52
330
1F
100
AcDbEntity
  8
0
  6
Continuous
 62
     7
370
    15
100
AcDbLine
 10
115.2019585301
 20
131.4250895833
 30
0.0
 11
112.3849568727
 21
131.2839572357
 31
0.0
  0
LINE
  5
53
330
1F
100
AcDbEntity
  8
0
  6
Continuous
 62
     7
370
    15
100
AcDbLine
 10
112.3850129628
 20
83.1253573973
 30
0.0
 11
115.2019585301
 21
82.9842278598
 31
0.0
  0
LINE
  5
54
330
1F
100
AcDbEntity
  8
0
  6
Continuous
 62
     7
370
    15
100
AcDbLine
 10
95.4019585301
 20
83.9762118278
 30
0.0
 11
103.9708522499
 21
83.5469085352
 31
0.0
  0
LINE
  5
55
330
1F
100
AcDbEntity
  8
0
  6
Continuous
 62
     7
370
    15
100
AcDbLine
 10
115.2019585301
 20
82.9842278598
 30
0.0
 11
116.0586713034
 21
83.2137833556
 31
0.0
  0
LINE
  5
56
330
1F
100
AcDbEntity
  8
0
  6
Continuous
 62
     7
370
    15
100
AcDbLine
 10
116.0586713034
 20
131.1955340875
 30
0.0
 11
115.2019585301
 21
131.4250895833
 31
0.0
  0
ARC
  5
57
330
1F
100
AcDbEntity
  8
0
  6
Continuous
 62
     7
370
    15
100
AcDbCircle
 10
116.2139627305
 20
82.6342278598
 30
0.0
 40
0.6000000000000109
100
AcDbArc
 50
90.0
 51
105.0
  0
ARC
  5
58
330
1F
100
AcDbEntity
  8
0
  6
Continuous
 62
     7
370
    15
100
AcDbCircle
 10
116.2139627305
 20
131.7750895833
 30
0.0
 40
0.5999999999999971
100
AcDbArc
 50
255.0
 51
270.0
  0
LINE
  5
59
330
1F
100
AcDbEntity
  8
0
  6
Continuous
 62
     7
370
    15
100
AcDbLine
 10
116.2139627305
 20
83.2342278598
 30
0.0
 11
116.7019517774
 21
83.2342278598
 31
0.0
  0
LINE
  5
5A
330
1F
100
AcDbEntity
  8
0
  6
Continuous
 62
     7
370
    15
100
AcDbLine
 10
116.7019517774
 20
131.1750895833
 30
0.0
 11
116.2139627305
 21
131.1750895833
 31
0.0
  0
ARC
  5
5B
330
1F
100
AcDbEntity
  8
0
  6
Continuous
 62
     7
370
    15
100
AcDbCircle
 10
146.1519585301
 20
87.2046587216
 30
0.0
 40
3.000000000000014
100
AcDbArc
 50
90.0
 51
180.0
  0
ARC
  5
5C
330
1F
100
AcDbEntity
  8
0
  6
Continuous
 62
     7
370
    15
100
AcDbCircle
 10
146.1519585301
 20
127.2046587216
 30
0.0
 40
3.000000000000014
100
AcDbArc
 50
182.6577405905
 51
270.0
  0
LINE
  5
5D
330
1F
100
AcDbEntity
  8
0
  6
Continuous
 62
     7
370
    15
100
AcDbLine
 10
162.7302419534
 20
90.2046587216
 30
0.0
 11
205.3588767215
 21
93.5596050374
 31
0.0
  0
LINE
  5
5E
330
1F
100
AcDbEntity
  8
0
  6
Continuous
 62
     7
370
    15
100
AcDbLine
 10
205.3588767215
 20
120.8497124057
 30
0.0
 11
162.7302419534
 21
124.2046587216
 31
0.0
  0
LINE
  5
5F
330
1F
100
AcDbEntity
  8
0
  6
Continuous
 62
     7
370
    15
100
AcDbLine
 10
146.1519585301
 20
90.2046587216
 30
0.0
 11
162.7302419534
 21
90.2046587216
 31
0.0
  0
LINE
  5
60
330
1F
100
AcDbEntity
  8
0
  6
Continuous
 62
     7
370
    15
100
AcDbLine
 10
162.7302419534
 20
124.2046587216
 30
0.0
 11
146.1519585301
 21
124.2046587216
 31
0.0
  0
ARC
  5
61
330
1F
100
AcDbEntity
  8
0
  6
Continuous
 62
     7
370
    15
100
AcDbCircle
 10
205.2019585301
 20
95.5534397049
 30
0.0
 40
2.000000000000028
100
AcDbArc
 50
274.5
 51
0.0
  0
ARC
  5
62
330
1F
100
AcDbEntity
  8
0
  6
Continuous
 62
     7
370
    15
100
AcDbCircle
 10
205.2019585301
 20
118.8558777382
 30
0.0
 40
2.000000000000028
100
AcDbArc
 50
0.0
 51
85.5
  0
LINE
  5
63
330
1F
100
AcDbEntity
  8
0
  6
Continuous
 62
     7
370
    15
100
AcDbLine
 10
86.58529517
 20
86.3346587216
 30
0.0
 11
94.0019585301
 21
86.3346587216
 31
0.0
  0
ARC
  5
64
330
1F
100
AcDbEntity
  8
0
  6
Continuous
 62
     7
370
    15
100
AcDbCircle
 10
94.0019585301
 20
84.9346587216
 30
0.0
 40
1.399999999999997
100
AcDbArc
 50
42.2465410162
 51
90.0
  0
LINE
  5
65
330
1F
100
AcDbEntity
  8
0
  6
Continuous
 62
     7
370
    15
100
AcDbLine
 10
85.3131189652
 20
87.4734982865
 30
0.0
 11
86.4431219882
 21
86.3434952634
 31
0.0
  0
LINE
  5
66
330
1F
100
AcDbEntity
  8
0
  6
Continuous
 62
     7
370
    15
100
AcDbLine
 10
86.4431219882
 20
128.0658221797
 30
0.0
 11
85.3118593034
 21
126.9345594949
 31
0.0
  0
ARC
  5
67
330
1F
100
AcDbEntity
  8
0
  6
Continuous
 62
     7
370
    15
100
AcDbCircle
 10
90.0019585301
 20
129.4746587216
 30
0.0
 40
1.400000000000008
100
AcDbArc
 50
270.0
 51
301.7485287426
  0
LINE
  5
68
330
1F
100
AcDbEntity
  8
0
  6
Continuous
 62
     7
370
    15
100
AcDbLine
 10
90.0019585301
 20
128.0746587216
 30
0.0
 11
86.5928469315
 21
128.0746587216
 31
0.0
  0
LINE
  5
69
330
1F
100
AcDbEntity
  8
0
  6
Continuous
 62
     7
370
    15
100
AcDbLine
 10
138.5938913615
 20
77.0177410253
 30
0.0
 11
138.5938913615
 21
127.0546587216
 31
0.0
  0
SPLINE
  5
6A
330
1F
100
AcDbEntity
  8
0
  6
Continuous
 62
     7
370
    15
100
AcDbSpline
210
0.0
220
0.0
230
1.0
 70
     8
 71
     3
 72
     8
 73
     4
 74
     0
 42
0.00000001
 43
0.00000001
 40
0.0
 40
0.0
 40
0.0
 40
0.0
 40
1.0
 40
1.0
 40
1.0
 40
1.0
 10
138.5938913615438
 20
77.01774102531311
 30
0.0
 10
138.098411700878
 20
77.91326711324648
 30
0.0
 10
137.6042976528359
 20
78.80955152829871
 30
0.0
 10
137.1119585300547
 20
79.70682156250541
 30
0.0
  0
LINE
  5
6B
330
1F
100
AcDbEntity
  8
0
  6
Continuous
 62
     7
370
    15
100
AcDbLine
 10
137.1119585301
 20
79.7068215625
 30
0.0
 11
137.1119585301
 21
127.0546587216
 31
0.0
  0
SPLINE
  5
6C
330
1F
100
AcDbEntity
  8
0
  6
Continuous
 62
     7
370
    15
100
AcDbSpline
210
0.0
220
0.0
230
1.0
 70
    24
 71
     3
 72
     8
 73
     4
 74
     0
 42
0.00000001
 43
0.00000001
 40
0.0
 40
0.0
 40
0.0
 40
0.0
 40
1.0
 40
1.0
 40
1.0
 40
1.0
 10
137.1119585300547
 20
127.0546587215603
 30
0.0
 10
137.5919105244196
 20
127.0546587215603
 30
0.0
 10
138.0872112533933
 20
127.0546587215603
 30
0.0
 10
138.5938913615438
 20
127.0546587215603
 30
0.0
  0
LINE
  5
6D
330
1F
100
AcDbEntity
  8
0
  6
Continuous
 62
     7
370
    15
100
AcDbLine
 10
117.2019585301
 20
76.0046587216
 30
0.0
 11
117.2019585301
 21
138.4046587216
 31
0.0
  0
LINE
  5
6E
330
1F
100
AcDbEntity
  8
0
  6
Continuous
 62
     7
370
    15
100
AcDbLine
 10
142.5519585301
 20
77.0177410253
 30
0.0
 11
138.5938913615
 21
77.0177410253
 31
0.0
  0
LINE
  5
6F
330
1F
100
AcDbEntity
  8
0
  6
Continuous
 62
     7
370
    15
100
AcDbLine
 10
138.5938913615
 20
127.0546587216
 30
0.0
 11
142.5519585301
 21
127.0546587216
 31
0.0
  0
LINE
  5
70
330
1F
100
AcDbEntity
  8
0
  6
Continuous
 62
     7
370
    15
100
AcDbLine
 10
143.1519585301
 20
77.644381321
 30
0.0
 11
143.1519585301
 21
127.0546587216
 31
0.0
  0
SPLINE
  5
71
330
1F
100
AcDbEntity
  8
0
  6
Continuous
 62
     7
370
    15
100
AcDbSpline
210
0.0
220
0.0
230
1.0
 70
     8
 71
     3
 72
    10
 73
     6
 74
     0
 42
0.00000001
 43
0.00000001
 40
0.0
 40
0.0
 40
0.0
 40
0.0
 40
0.5
 40
0.5
 40
1.0
 40
1.0
 40
1.0
 40
1.0
 10
143.1519585300547
 20
77.64438132096743
 30
0.0
 10
143.1519585300547
 20
77.48449405277377
 30
0.0
 10
143.0906488788189
 20
77.32336679725917
 30
0.0
 10
142.8715492412838
 20
77.08926779890433
 30
0.0
 10
142.7135010349704
 20
77.01774102531311
 30
0.0
 10
142.5519585300547
 20
77.01774102531311
 30
0.0
  0
SPLINE
  5
72
330
1F
100
AcDbEntity
  8
0
  6
Continuous
 62
     7
370
    15
100
AcDbSpline
210
0.0
220
0.0
230
1.0
 70
    24
 71
     3
 72
    12
 73
     8
 74
     0
 42
0.00000001
 43
0.00000001
 40
0.0
 40
0.0
 40
0.0
 40
0.0
 40
0.250000000000002
 40
0.250000000000002
 40
0.500000000000004
 40
0.500000000000004
 40
1.0
 40
1.0
 40
1.0
 40
1.0
 10
142.5519585300547
 20
127.0546587215603
 30
0.0
 10
142.6421975977418
 20
127.0546587215603
 30
0.0
 10
142.7330957118483
 20
127.0546587215603
 30
0.0
 10
142.8876927483368
 20
127.0546587215603
 30
0.0
 10
142.9526711644449
 20
127.0546587215603
 30
0.0
 10
143.1045061923812
 20
127.0546587215603
 30
0.0
 10
143.1519585300547
 20
127.0546587215603
 30
0.0
 10
143.1519585300547
 20
127.0546587215603
 30
0.0
  0
LINE
  5
73
330
1F
100
AcDbEntity
  8
0
  6
Continuous
 62
     7
370
    15
100
AcDbLine
 10
122.1519585301
 20
127.0546587216
 30
0.0
 11
131.8100256986
 21
127.0546587216
 31
0.0
  0
LINE
  5
74
330
1F
100
AcDbEntity
  8
0
  6
Continuous
 62
     7
370
    15
100
AcDbLine
 10
131.8100256986
 20
77.0177410253
 30
0.0
 11
131.8100256986
 21
127.0546587216
 31
0.0
  0
LINE
  5
75
330
1F
100
AcDbEntity
  8
0
  6
Continuous
 62
     7
370
    15
100
AcDbLine
 10
131.8100256986
 20
77.0177410253
 30
0.0
 11
130.1519585301
 21
77.0177410253
 31
0.0
  0
SPLINE
  5
76
330
1F
100
AcDbEntity
  8
0
  6
Continuous
 62
     7
370
    15
100
AcDbSpline
210
0.0
220
0.0
230
1.0
 70
     8
 71
     3
 72
    28
 73
    24
 74
     0
 42
0.00000001
 43
0.00000001
 40
0.0
 40
0.0
 40
0.0
 40
0.0
 40
0.1249999999999999
 40
0.1249999999999999
 40
0.1874999999999998
 40
0.1874999999999998
 40
0.2499999999999997
 40
0.2499999999999997
 40
0.3749999999999993
 40
0.3749999999999993
 40
0.4374999999999993
 40
0.4374999999999993
 40
0.4999999999999992
 40
0.4999999999999992
 40
0.6249999999999992
 40
0.6249999999999992
 40
0.7499999999999992
 40
0.7499999999999992
 40
0.8124999999999993
 40
0.8124999999999993
 40
0.8749999999999996
 40
0.8749999999999996
 40
1.0
 40
1.0
 40
1.0
 40
1.0
 10
130.1519585300547
 20
77.01774102531311
 30
0.0
 10
129.6202507725618
 20
77.01774102531311
 30
0.0
 10
129.0980122072515
 20
77.00195631136289
 30
0.0
 10
128.3281417209765
 20
76.95696089728669
 30
0.0
 10
128.0737821487851
 20
76.93840590221096
 30
0.0
 10
127.5696605680866
 20
76.89455317976447
 30
0.0
 10
127.3199377506587
 20
76.86920857281227
 30
0.0
 10
126.5943477992123
 20
76.78580649506216
 30
0.0
 10
126.1359875376308
 20
76.71994093591107
 30
0.0
 10
125.4854895942369
 20
76.6109705954193
 30
0.0
 10
125.2738075434444
 20
76.57273095965265
 30
0.0
 10
124.8697360543064
 20
76.49497222223329
 30
0.0
 10
124.6772295404855
 20
76.45547126005795
 30
0.0
 10
124.1273945694643
 20
76.33656351769193
 30
0.0
 10
123.7974657911555
 20
76.2567458362673
 30
0.0
 10
123.2129945225868
 20
76.10340267447125
 30
0.0
 10
122.9667173845733
 20
76.032068921202
 30
0.0
 10
122.6668745918753
 20
75.93812541412738
 30
0.0
 10
122.5784177348031
 20
75.90893162076745
 30
0.0
 10
122.425056381498
 20
75.85546504650405
 30
0.0
 10
122.3599681672717
 20
75.83110571222888
 30
0.0
 10
122.2043741513309
 20
75.76751556678413
 30
0.0
 10
122.1519585300547
 20
75.73741263169487
 30
0.0
 10
122.1519585300547
 20
75.72053573869795
 30
0.0
  0
LINE
  5
77
330
1F
100
AcDbEntity
  8
0
  6
Continuous
 62
     7
370
    15
100
AcDbLine
 10
122.1519585301
 20
75.7205357387
 30
0.0
 11
122.1519585301
 21
75.7046587216
 31
0.0
  0
SPLINE
  5
78
330
1F
100
AcDbEntity
  8
0
  6
Continuous
 62
     7
370
    15
100
AcDbSpline
210
0.0
220
0.0
230
1.0
 70
     8
 71
     3
 72
    17
 73
    13
 74
     0
 42
0.00000001
 43
0.00000001
 40
0.0
 40
0.0
 40
0.0
 40
0.0
 40
0.1034796923964057
 40
0.210023918880785
 40
0.3134862136955584
 40
0.4198361274354883
 40
0.5254127712915682
 40
0.6339610695419791
 40
0.7409508756305032
 40
0.8511696089308174
 40
0.9558996534551938
 40
0.9999999999999999
 40
0.9999999999999999
 40
0.9999999999999999
 40
0.9999999999999999
 10
130.1519585300547
 20
137.6718541947245
 30
0.0
 10
129.7167101809447
 20
137.6773023912579
 30
0.0
 10
128.8333236743798
 20
137.6883601317697
 30
0.0
 10
127.5524960891511
 20
137.7747185246712
 30
0.0
 10
126.335079553277
 20
137.902588701209
 30
0.0
 10
125.2272737010305
 20
138.0615339998022
 30
0.0
 10
124.2390348970822
 20
138.2360276875177
 30
0.0
 10
123.4143113395507
 20
138.4051935381576
 30
0.0
 10
122.7653578388914
 20
138.553077320686
 30
0.0
 10
122.3483230234297
 20
138.6548679049167
 30
0.0
 10
122.1497263104652
 20
138.7052194275199
 30
0.0
 10
122.1730390318985
 20
138.6993137432976
 30
0.0
 10
122.179946889136
 20
138.697563813603
 30
0.0
  0
LINE
  5
79
330
1F
100
AcDbEntity
  8
0
  6
Continuous
 62
     7
370
    15
100
AcDbLine
 10
131.8100256986
 20
137.6718541947
 30
0.0
 11
130.1519585301
 21
137.6718541947
 31
0.0
  0
LINE
  5
7A
330
1F
100
AcDbEntity
  8
0
  6
Continuous
 62
     7
370
    15
100
AcDbLine
 10
131.8100256986
 20
131.6633483839
 30
0.0
 11
131.8100256986
 21
137.6718541947
 31
0.0
  0
LINE
  5
7B
330
1F
100
AcDbEntity
  8
0
  6
Continuous
 62
     7
370
    15
100
AcDbLine
 10
129.3975788757
 20
131.6633483839
 30
0.0
 11
131.8100256986
 21
131.6633483839
 31
0.0
  0
SPLINE
  5
7C
330
1F
100
AcDbEntity
  8
0
  6
Continuous
 62
     7
370
    15
100
AcDbSpline
210
0.0
220
0.0
230
1.0
 70
     8
 71
     3
 72
    20
 73
    16
 74
     0
 42
0.00000001
 43
0.00000001
 40
0.0
 40
0.0
 40
0.0
 40
0.0
 40
0.2499999999999995
 40
0.2499999999999995
 40
0.3749999999999996
 40
0.3749999999999996
 40
0.4999999999999997
 40
0.4999999999999997
 40
0.6249999999999998
 40
0.6249999999999998
 40
0.7499999999999998
 40
0.7499999999999998
 40
0.8749999999999999
 40
0.8749999999999999
 40
1.0
 40
1.0
 40
1.0
 40
1.0
 10
122.1519585300547
 20
127.0546587215603
 30
0.0
 10
122.4003322643428
 20
127.7085211498577
 30
0.0
 10
122.7199023566881
 20
128.3123069318548
 30
0.0
 10
123.3422085898927
 20
129.1391456680234
 30
0.0
 10
123.5736328503235
 20
129.4015743059763
 30
0.0
 10
124.0948471899732
 20
129.8982369600813
 30
0.0
 10
124.3814676726083
 20
130.1288238391028
 30
0.0
 10
125.0009524139159
 20
130.5453780636855
 30
0.0
 10
125.3352527934028
 20
130.732875865653
 30
0.0
 10
126.0605132660277
 20
131.0642728432894
 30
0.0
 10
126.4424283234181
 20
131.2037768307847
 30
0.0
 10
127.2372164995898
 20
131.4292303382556
 30
0.0
 10
127.6513746937962
 20
131.5158564497993
 30
0.0
 10
128.5169210343776
 20
131.6338372386534
 30
0.0
 10
128.9548086493894
 20
131.6633483839277
 30
0.0
 10
129.397578875744
 20
131.6633483839277
 30
0.0
  0
SPLINE
  5
7D
330
1F
100
AcDbEntity
  8
0
  6
Continuous
 62
     7
370
    15
100
AcDbSpline
210
0.0
220
0.0
230
1.0
 70
     8
 71
     3
 72
    70
 73
    66
 74
     0
 42
0.00000001
 43
0.00000001
 40
-0.0312500000000002
 40
-0.0312500000000002
 40
0.0
 40
0.0
 40
0.0312499999999995
 40
0.0312499999999995
 40
0.0624999999999991
 40
0.0624999999999991
 40
0.0937499999999988
 40
0.0937499999999988
 40
0.1249999999999985
 40
0.1249999999999985
 40
0.1562499999999982
 40
0.1562499999999982
 40
0.1874999999999979
 40
0.1874999999999979
 40
0.2187499999999976
 40
0.2187499999999976
 40
0.2499999999999973
 40
0.2499999999999973
 40
0.2812499999999973
 40
0.2812499999999973
 40
0.3124999999999972
 40
0.3124999999999972
 40
0.3437499999999971
 40
0.3437499999999971
 40
0.3749999999999971
 40
0.3749999999999971
 40
0.406249999999997
 40
0.406249999999997
 40
0.4374999999999969
 40
0.4374999999999969
 40
0.4687499999999968
 40
0.4687499999999968
 40
0.4999999999999968
 40
0.4999999999999968
 40
0.5312499999999969
 40
0.5312499999999969
 40
0.562499999999997
 40
0.562499999999997
 40
0.5937499999999971
 40
0.5937499999999971
 40
0.6249999999999971
 40
0.6249999999999971
 40
0.6562499999999972
 40
0.6562499999999972
 40
0.6874999999999973
 40
0.6874999999999973
 40
0.7187499999999974
 40
0.7187499999999974
 40
0.7499999999999976
 40
0.7499999999999976
 40
0.7812499999999979
 40
0.7812499999999979
 40
0.8124999999999982
 40
0.8124999999999982
 40
0.8437499999999986
 40
0.8437499999999986
 40
0.8749999999999988
 40
0.8749999999999988
 40
0.9062499999999991
 40
0.9062499999999991
 40
0.9374999999999994
 40
0.9374999999999994
 40
0.9687499999999998
 40
0.9687499999999998
 40
1.0
 40
1.0
 40
1.03125
 40
1.03125
 10
121.2019585300548
 20
121.269648156636
 30
0.0
 10
121.2019585300548
 20
121.7410707700759
 30
0.0
 10
121.2279436054387
 20
121.9712843299921
 30
0.0
 10
121.3297085080228
 20
122.4213471180542
 30
0.0
 10
121.4067428938287
 20
122.6435080585452
 30
0.0
 10
121.6076091812659
 20
123.0642922760177
 30
0.0
 10
121.7304882298572
 20
123.262559573662
 30
0.0
 10
122.020752891921
 20
123.6358464621285
 30
0.0
 10
122.1895264677728
 20
123.8113575076435
 30
0.0
 10
122.5581644890592
 20
124.1246568579463
 30
0.0
 10
122.7593575370117
 20
124.2645891484891
 30
0.0
 10
123.1964950622659
 20
124.5110459074806
 30
0.0
 10
123.4289097298892
 20
124.6151762454305
 30
0.0
 10
123.9100939520016
 20
124.7822982241147
 30
0.0
 10
124.1624289579596
 20
124.8465099908748
 30
0.0
 10
124.6788738236473
 20
124.9322949374077
 30
0.0
 10
124.9385790716996
 20
124.9534962440035
 30
0.0
 10
125.4608861288527
 20
124.9537383264087
 30
0.0
 10
125.7261924441668
 20
124.9320772845615
 30
0.0
 10
126.239398534296
 20
124.8468837948396
 30
0.0
 10
126.4888659726078
 20
124.7838075790773
 30
0.0
 10
126.9734685820996
 20
124.6159201735329
 30
0.0
 10
127.2073382408841
 20
124.5109240715852
 30
0.0
 10
127.6404805621393
 20
124.2670562943155
 30
0.0
 10
127.8426574779051
 20
124.1271979576257
 30
0.0
 10
128.2159322702148
 20
123.8101362586823
 30
0.0
 10
128.3812545643647
 20
123.6378931959627
 30
0.0
 10
128.6709695516999
 20
123.2661251939508
 30
0.0
 10
128.7963728173306
 20
123.0641718984663
 30
0.0
 10
128.9971882653425
 20
122.64346285833
 30
0.0
 10
129.0729728224485
 20
122.4255611120337
 30
0.0
 10
129.1755825411807
 20
121.9742445567909
 30
0.0
 10
129.2018600740389
 20
121.7393953052122
 30
0.0
 10
129.2020564208603
 20
121.2740030402641
 30
0.0
 10
129.1768231746427
 20
121.0410912084711
 30
0.0
 10
129.0744226887255
 20
120.5749911381606
 30
0.0
 10
128.9977343916664
 20
120.3458385184848
 30
0.0
 10
128.7985182813499
 20
119.9061686063891
 30
0.0
 10
128.6744116473454
 20
119.692281185725
 30
0.0
 10
128.3825352993439
 20
119.2887984635813
 30
0.0
 10
128.217262995162
 20
119.1019255062037
 30
0.0
 10
127.8488798919783
 20
118.7579774827777
 30
0.0
 10
127.6433699853507
 20
118.5997453711453
 30
0.0
 10
127.2092656414185
 20
118.3269560219286
 30
0.0
 10
126.9797803537912
 20
118.2109169520091
 30
0.0
 10
126.4955676764306
 20
118.0207363964094
 30
0.0
 10
126.2415743506587
 20
117.9475878753565
 30
0.0
 10
125.7301962145325
 20
117.8507015873077
 30
0.0
 10
125.4700661904654
 20
117.8257934398953
 30
0.0
 10
124.9410619765735
 20
117.8253408598577
 30
0.0
 10
124.6809742457863
 20
117.8497878678974
 30
0.0
 10
124.1692567230776
 20
117.9458299982122
 30
0.0
 10
123.9149456053444
 20
118.0186206592034
 30
0.0
 10
123.4305677593788
 20
118.2079286750876
 30
0.0
 10
123.200803002616
 20
118.3235969829438
 30
0.0
 10
122.7658409457428
 20
118.5959252986116
 30
0.0
 10
122.560164683613
 20
118.7537799925589
 30
0.0
 10
122.191321838487
 20
119.0969929088518
 30
0.0
 10
122.0256381208327
 20
119.2836420454308
 30
0.0
 10
121.7327367038326
 20
119.6871052428421
 30
0.0
 10
121.6085259719069
 20
119.9003675021975
 30
0.0
 10
121.4085174199851
 20
120.3396148257662
 30
0.0
 10
121.3313798703988
 20
120.5685558288353
 30
0.0
 10
121.227946840128
 20
121.0351181408532
 30
0.0
 10
121.2019585300548
 20
121.269648156636
 30
0.0
 10
121.2019585300548
 20
121.7410707700759
 30
0.0
  0
SPLINE
  5
7E
330
1F
100
AcDbEntity
  8
0
  6
Continuous
 62
     7
370
    15
100
AcDbSpline
210
0.0
220
0.0
230
1.0
 70
     8
 71
     3
 72
    70
 73
    66
 74
     0
 42
0.00000001
 43
0.00000001
 40
-0.0312499999999998
 40
-0.0312499999999998
 40
0.0
 40
0.0
 40
0.0312500000000001
 40
0.0312500000000001
 40
0.0625000000000001
 40
0.0625000000000001
 40
0.0937500000000002
 40
0.0937500000000002
 40
0.1250000000000002
 40
0.1250000000000002
 40
0.1562500000000003
 40
0.1562500000000003
 40
0.1875000000000003
 40
0.1875000000000003
 40
0.2187500000000004
 40
0.2187500000000004
 40
0.2500000000000004
 40
0.2500000000000004
 40
0.2812500000000007
 40
0.2812500000000007
 40
0.312500000000001
 40
0.312500000000001
 40
0.3437500000000013
 40
0.3437500000000013
 40
0.3750000000000016
 40
0.3750000000000016
 40
0.4062500000000018
 40
0.4062500000000018
 40
0.4375000000000021
 40
0.4375000000000021
 40
0.4687500000000024
 40
0.4687500000000024
 40
0.5000000000000027
 40
0.5000000000000027
 40
0.5312500000000027
 40
0.5312500000000027
 40
0.5625000000000026
 40
0.5625000000000026
 40
0.5937500000000026
 40
0.5937500000000026
 40
0.6250000000000024
 40
0.6250000000000024
 40
0.6562500000000024
 40
0.6562500000000024
 40
0.6875000000000023
 40
0.6875000000000023
 40
0.7187500000000023
 40
0.7187500000000023
 40
0.7500000000000022
 40
0.7500000000000022
 40
0.781250000000002
 40
0.781250000000002
 40
0.8125000000000017
 40
0.8125000000000017
 40
0.8437500000000013
 40
0.8437500000000013
 40
0.8750000000000011
 40
0.8750000000000011
 40
0.9062500000000008
 40
0.9062500000000008
 40
0.9375000000000006
 40
0.9375000000000006
 40
0.9687500000000002
 40
0.9687500000000002
 40
1.0
 40
1.0
 40
1.03125
 40
1.03125
 10
121.2019585300548
 20
134.3521864487507
 30
0.0
 10
121.2019585300548
 20
134.6167314327895
 30
0.0
 10
121.2279436054387
 20
134.7438835269444
 30
0.0
 10
121.3297085080228
 20
134.9886925226823
 30
0.0
 10
121.4067428938287
 20
135.1075545217553
 30
0.0
 10
121.6076091812659
 20
135.3292643481008
 30
0.0
 10
121.7304882298572
 20
135.4319796870263
 30
0.0
 10
122.020752891921
 20
135.6226717076042
 30
0.0
 10
122.1895264677728
 20
135.7108614049151
 30
0.0
 10
122.5581644890592
 20
135.8663605210122
 30
0.0
 10
122.7593575370117
 20
135.9347731784762
 30
0.0
 10
123.1964950622659
 20
136.0541037978214
 30
0.0
 10
123.4289097298892
 20
136.1038634900036
 30
0.0
 10
123.9100939520016
 20
136.1832374670764
 30
0.0
 10
124.1624289579596
 20
136.2134331513162
 30
0.0
 10
124.6788738236473
 20
136.2536810391591
 30
0.0
 10
124.9385790716996
 20
136.2635653239419
 30
0.0
 10
125.4608861288527
 20
136.2636784267239
 30
0.0
 10
125.7261924441668
 20
136.2535788209927
 30
0.0
 10
126.239398534296
 20
136.2136086310163
 30
0.0
 10
126.4888659726078
 20
136.1839514672451
 30
0.0
 10
126.9734685820996
 20
136.1042196402846
 30
0.0
 10
127.2073382408841
 20
136.0540405869714
 30
0.0
 10
127.6404805621393
 20
135.9359719123853
 30
0.0
 10
127.8426574779051
 20
135.8676187519846
 30
0.0
 10
128.2159322702148
 20
135.7102582398802
 30
0.0
 10
128.3812545643647
 20
135.6237028228119
 30
0.0
 10
128.6709695516999
 20
135.433815402568
 30
0.0
 10
128.7963728173306
 20
135.3292013821166
 30
0.0
 10
128.9971882653425
 20
135.1075302451752
 30
0.0
 10
129.0729728224485
 20
134.9909639606303
 30
0.0
 10
129.1755825411807
 20
134.7455141369582
 30
0.0
 10
129.2018600740389
 20
134.615783581481
 30
0.0
 10
129.2020564208603
 20
134.3546378471776
 30
0.0
 10
129.1768231746427
 20
134.2219586851448
 30
0.0
 10
129.0744226887256
 20
133.9526014318297
 30
0.0
 10
128.9977343916664
 20
133.818229993483
 30
0.0
 10
128.7985182813499
 20
133.5571978635789
 30
0.0
 10
128.6744116473454
 20
133.4285352262851
 30
0.0
 10
128.3825352993439
 20
133.183227504947
 30
0.0
 10
128.217262995162
 20
133.0682708972176
 30
0.0
 10
127.8488798919783
 20
132.8549397175326
 30
0.0
 10
127.6433699853507
 20
132.7558215299966
 30
0.0
 10
127.2092656414186
 20
132.5838992677255
 30
0.0
 10
126.9797803537912
 20
132.5101877789378
 30
0.0
 10
126.4955676764307
 20
132.3889353076111
 30
0.0
 10
126.2415743506587
 20
132.3420269769272
 30
0.0
 10
125.7301962145325
 20
132.2798177435523
 30
0.0
 10
125.4700661904654
 20
132.2637687519
 30
0.0
 10
124.9410619765735
 20
132.2634774661059
 30
0.0
 10
124.6809742457864
 20
132.2792297067524
 30
0.0
 10
124.1692567230776
 20
132.34089958455
 30
0.0
 10
123.9149456053444
 20
132.3875812603902
 30
0.0
 10
123.4305677593788
 20
132.5082875488474
 30
0.0
 10
123.200803002616
 20
132.5817717632888
 30
0.0
 10
122.7658409457428
 20
132.7534242108126
 30
0.0
 10
122.5601646836131
 20
132.85231909111
 30
0.0
 10
122.191321838487
 20
133.0652282047289
 30
0.0
 10
122.0256381208327
 20
133.180069154413
 30
0.0
 10
121.7327367038326
 20
133.4254111605728
 30
0.0
 10
121.6085259719069
 20
133.5537232402542
 30
0.0
 10
121.4085174199851
 20
133.8145646681606
 30
0.0
 10
121.3313798703988
 20
133.9488479402429
 30
0.0
 10
121.227946840128
 20
134.2185405213835
 30
0.0
 10
121.2019585300548
 20
134.3521864487507
 30
0.0
 10
121.2019585300548
 20
134.6167314327895
 30
0.0
  0
LINE
  5
7F
330
1F
100
AcDbEntity
  8
0
  6
Continuous
 62
     7
370
    15
100
AcDbLine
 10
133.2919585301
 20
79.7068215625
 30
0.0
 11
133.2919585301
 21
127.0546587216
 31
0.0
  0
SPLINE
  5
80
330
1F
100
AcDbEntity
  8
0
  6
Continuous
 62
     7
370
    15
100
AcDbSpline
210
0.0
220
0.0
230
1.0
 70
     8
 71
     3
 72
     8
 73
     4
 74
     0
 42
0.00000001
 43
0.00000001
 40
0.0
 40
0.0
 40
0.0
 40
0.0
 40
1.0
 40
1.0
 40
1.0
 40
1.0
 10
133.2919585300547
 20
79.70682156250541
 30
0.0
 10
132.7996194072736
 20
78.80955152829871
 30
0.0
 10
132.3055053592314
 20
77.91326711324648
 30
0.0
 10
131.8100256985657
 20
77.01774102531311
 30
0.0
  0
SPLINE
  5
81
330
1F
100
AcDbEntity
  8
0
  6
Continuous
 62
     7
370
    15
100
AcDbSpline
210
0.0
220
0.0
230
1.0
 70
    24
 71
     3
 72
     8
 73
     4
 74
     0
 42
0.00000001
 43
0.00000001
 40
0.0
 40
0.0
 40
0.0
 40
0.0
 40
1.0
 40
1.0
 40
1.0
 40
1.0
 10
131.8100256985657
 20
127.0546587215603
 30
0.0
 10
132.3167058067162
 20
127.0546587215603
 30
0.0
 10
132.8120065356899
 20
127.0546587215603
 30
0.0
 10
133.2919585300547
 20
127.0546587215603
 30
0.0
  0
ARC
  5
82
330
1F
100
AcDbEntity
  8
0
  6
Continuous
 62
     7
370
    15
100
AcDbCircle
 10
125.3707789923
 20
119.2641992939
 30
0.0
 40
3.902079821083323
100
AcDbArc
 50
18.4970012835
 51
92.4796315096
  0
ARC
  5
83
330
1F
100
AcDbEntity
  8
0
  6
Continuous
 62
     7
370
    15
100
AcDbCircle
 10
125.0794130822
 20
119.1955274457
 30
0.0
 40
3.968990306288436
100
AcDbArc
 50
88.23067015
 51
160.5038200929
  0
SPLINE
  5
84
330
1F
100
AcDbEntity
  8
0
  6
Continuous
 62
     7
370
    15
100
AcDbSpline
210
0.0
220
0.0
230
1.0
 70
    24
 71
     3
 72
    14
 73
    10
 74
     0
 42
0.00000001
 43
0.00000001
 40
0.0
 40
0.0
 40
0.0
 40
0.0
 40
0.4999999999999984
 40
0.4999999999999984
 40
0.7499999999999992
 40
0.7499999999999992
 40
0.8749999999999996
 40
0.8749999999999996
 40
1.0
 40
1.0
 40
1.0
 40
1.0
 10
137.0142837277224
 20
80.80465872156029
 30
0.0
 10
136.9674990226742
 20
80.80465872156029
 30
0.0
 10
136.9054478258946
 20
80.80465872156029
 30
0.0
 10
136.762056187344
 20
80.80465872156027
 30
0.0
 10
136.7059125337929
 20
80.80465872156029
 30
0.0
 10
136.5929615116567
 20
80.80465872156029
 30
0.0
 10
136.5499607496185
 20
80.80465872156029
 30
0.0
 10
136.4458980393121
 20
80.80465872156029
 30
0.0
 10
136.3805658009551
 20
80.80465872156029
 30
0.0
 10
136.3119585300547
 20
80.80465872156029
 30
0.0
  0
SPLINE
  5
85
330
1F
100
AcDbEntity
  8
0
  6
Continuous
 62
     7
370
    15
100
AcDbSpline
210
0.0
220
0.0
230
1.0
 70
    24
 71
     3
 72
    12
 73
     8
 74
     0
 42
0.00000001
 43
0.00000001
 40
0.0
 40
0.0
 40
0.0
 40
0.0
 40
0.5000000000000017
 40
0.5000000000000017
 40
0.7500000000000008
 40
0.7500000000000008
 40
1.0
 40
1.0
 40
1.0
 40
1.0
 10
136.7176609983638
 20
133.6046587215603
 30
0.0
 10
136.6745754487528
 20
133.6046587215603
 30
0.0
 10
136.6254232470035
 20
133.6046587215603
 30
0.0
 10
136.5289506527156
 20
133.6046587215603
 30
0.0
 10
136.492849067581
 20
133.6046587215603
 30
0.0
 10
136.4097433097197
 20
133.6046587215603
 30
0.0
 10
136.3617467127534
 20
133.6046587215603
 30
0.0
 10
136.3119585300547
 20
133.6046587215603
 30
0.0
  0
SPLINE
  5
86
330
1F
100
AcDbEntity
  8
0
  6
Continuous
 62
     7
370
    15
100
AcDbSpline
210
0.0
220
0.0
230
1.0
 70
     8
 71
     3
 72
    10
 73
     6
 74
     0
 42
0.00000001
 43
0.00000001
 40
0.0
 40
0.0
 40
0.0
 40
0.0
 40
0.5
 40
0.5
 40
1.0
 40
1.0
 40
1.0
 40
1.0
 10
137.1119585300547
 20
134.3243125725961
 30
0.0
 10
137.1119585300547
 20
134.180542514778
 30
0.0
 10
137.0759094713358
 20
134.0381231522829
 30
0.0
 10
136.9404006105619
 20
133.7882288589257
 30
0.0
 10
136.8405246174657
 20
133.6801985226774
 30
0.0
 10
136.7176609983638
 20
133.6046587215602
 30
0.0
  0
SPLINE
  5
87
330
1F
100
AcDbEntity
  8
0
  6
Continuous
 62
     7
370
    15
100
AcDbSpline
210
0.0
220
0.0
230
1.0
 70
     8
 71
     3
 72
    10
 73
     6
 74
     0
 42
0.00000001
 43
0.00000001
 40
0.0
 40
0.0
 40
0.0
 40
0.0
 40
0.5
 40
0.5
 40
1.0
 40
1.0
 40
1.0
 40
1.0
 10
137.0858109068946
 20
127.0546587215603
 30
0.0
 10
137.0945005498063
 20
127.1015375708784
 30
0.0
 10
137.1010396145568
 20
127.1489600362797
 30
0.0
 10
137.1097982489498
 20
127.2448968348664
 30
0.0
 10
137.1119585300547
 20
127.2928121228769
 30
0.0
 10
137.1119585300547
 20
127.3405253530215
 30
0.0
  0
SPLINE
  5
88
330
1F
100
AcDbEntity
  8
0
  6
Continuous
 62
     7
370
    15
100
AcDbSpline
210
0.0
220
0.0
230
1.0
 70
     8
 71
     3
 72
    10
 73
     6
 74
     0
 42
0.00000001
 43
0.00000001
 40
0.0
 40
0.0
 40
0.0
 40
0.0
 40
0.5
 40
0.5
 40
1.0
 40
1.0
 40
1.0
 40
1.0
 10
133.6862560617457
 20
133.6046587215603
 30
0.0
 10
133.5647157980772
 20
133.6793848887721
 30
0.0
 10
133.4633814377282
 20
133.7883299046888
 30
0.0
 10
133.3277424948398
 20
134.0387603854504
 30
0.0
 10
133.2919585300547
 20
134.1811797475494
 30
0.0
 10
133.2919585300547
 20
134.3243125725961
 30
0.0
  0
SPLINE
  5
89
330
1F
100
AcDbEntity
  8
0
  6
Continuous
 62
     7
370
    15
100
AcDbSpline
210
0.0
220
0.0
230
1.0
 70
    24
 71
     3
 72
    12
 73
     8
 74
     0
 42
0.00000001
 43
0.00000001
 40
0.0
 40
0.0
 40
0.0
 40
0.0
 40
0.2499999999999992
 40
0.2499999999999992
 40
0.4999999999999983
 40
0.4999999999999983
 40
1.0
 40
1.0
 40
1.0
 40
1.0
 10
134.0919585300547
 20
133.6046587215603
 30
0.0
 10
134.0420818477374
 20
133.6046587215603
 30
0.0
 10
133.9940786543336
 20
133.6046587215603
 30
0.0
 10
133.9110305516217
 20
133.6046587215603
 30
0.0
 10
133.8749009721539
 20
133.6046587215603
 30
0.0
 10
133.7789889412097
 20
133.6046587215603
 30
0.0
 10
133.7292302732409
 20
133.6046587215603
 30
0.0
 10
133.6862560617457
 20
133.6046587215603
 30
0.0
  0
SPLINE
  5
8A
330
1F
100
AcDbEntity
  8
0
  6
Continuous
 62
     7
370
    15
100
AcDbSpline
210
0.0
220
0.0
230
1.0
 70
    24
 71
     3
 72
    14
 73
    10
 74
     0
 42
0.00000001
 43
0.00000001
 40
0.0
 40
0.0
 40
0.0
 40
0.0
 40
0.1250000000000012
 40
0.1250000000000012
 40
0.2500000000000024
 40
0.2500000000000024
 40
0.5000000000000013
 40
0.5000000000000013
 40
1.0
 40
1.0
 40
1.0
 40
1.0
 10
134.0919585300547
 20
80.80465872156029
 30
0.0
 10
134.0235206821683
 20
80.80465872156029
 30
0.0
 10
133.9579706434033
 20
80.80465872156029
 30
0.0
 10
133.8535440039953
 20
80.80465872156029
 30
0.0
 10
133.8109993942339
 20
80.80465872156027
 30
0.0
 10
133.6983899336936
 20
80.80465872156027
 30
0.0
 10
133.6428508866742
 20
80.80465872156027
 30
0.0
 10
133.5002391912103
 20
80.80465872156029
 30
0.0
 10
133.4368338362146
 20
80.80465872156027
 30
0.0
 10
133.389633332387
 20
80.80465872156029
 30
0.0
  0
SPLINE
  5
8B
330
1F
100
AcDbEntity
  8
0
  6
Continuous
 62
     7
370
    15
100
AcDbSpline
210
0.0
220
0.0
230
1.0
 70
     8
 71
     3
 72
    10
 73
     6
 74
     0
 42
0.00000001
 43
0.00000001
 40
0.0
 40
0.0
 40
0.0
 40
0.0
 40
0.5
 40
0.5
 40
1.0
 40
1.0
 40
1.0
 40
1.0
 10
133.2919585300547
 20
127.3405253530216
 30
0.0
 10
133.2919585300547
 20
127.2927538450284
 30
0.0
 10
133.2941197736519
 20
127.2450441229667
 30
0.0
 10
133.3027911475121
 20
127.1497490054184
 30
0.0
 10
133.309320330468
 20
127.1020564414518
 30
0.0
 10
133.3181061532149
 20
127.0546587215603
 30
0.0
  0
LINE
  5
8C
330
1F
100
AcDbEntity
  8
0
  6
Continuous
 62
     7
370
    15
100
AcDbLine
 10
136.3119585301
 20
133.6046587216
 30
0.0
 11
134.0919585301
 21
133.6046587216
 31
0.0
  0
LINE
  5
8D
330
1F
100
AcDbEntity
  8
0
  6
Continuous
 62
     7
370
    15
100
AcDbLine
 10
136.3119585301
 20
80.8046587216
 30
0.0
 11
134.0919585301
 21
80.8046587216
 31
0.0
  0
LINE
  5
8E
330
1F
100
AcDbEntity
  8
0
  6
Continuous
 62
     7
370
    15
100
AcDbLine
 10
95.4019585301
 20
83.9762118278
 30
0.0
 11
95.4019585301
 21
85.2409211904
 31
0.0
  0
SPLINE
  5
8F
330
1F
100
AcDbEntity
  8
0
  6
Continuous
 62
     7
370
    15
100
AcDbSpline
210
0.0
220
0.0
230
1.0
 70
     8
 71
     3
 72
    14
 73
    10
 74
     0
 42
0.00000001
 43
0.00000001
 40
0.0
 40
0.0
 40
0.0
 40
0.0
 40
0.25
 40
0.25
 40
0.5
 40
0.5
 40
0.75
 40
0.75
 40
1.0
 40
1.0
 40
1.0
 40
1.0
 10
94.62367141213903
 20
86.37150739800033
 30
0.0
 10
94.6802980873411
 20
86.26380994416347
 30
0.0
 10
94.77482074763083
 20
86.16102036244415
 30
0.0
 10
94.95786572319307
 20
85.962663050224
 30
0.0
 10
95.04949230014778
 20
85.86660354154576
 30
0.0
 10
95.20834561784099
 20
85.67907449883651
 30
0.0
 10
95.2762362254627
 20
85.58766552605296
 30
0.0
 10
95.37315325117027
 20
85.4092893051428
 30
0.0
 10
95.40195853005531
 20
85.32206739889662
 30
0.0
 10
95.40195853005531
 20
85.24092119036236
 30
0.0
  0
SPLINE
  5
90
330
1F
100
AcDbEntity
  8
0
  6
Continuous
 62
     7
370
    15
100
AcDbSpline
210
0.0
220
0.0
230
1.0
 70
     8
 71
     3
 72
    14
 73
    10
 74
     0
 42
0.00000001
 43
0.00000001
 40
0.0
 40
0.0
 40
0.0
 40
0.0
 40
0.125
 40
0.125
 40
0.25
 40
0.25
 40
0.5
 40
0.5
 40
1.0
 40
1.0
 40
1.0
 40
1.0
 10
94.00195853005475
 20
86.81818926027965
 30
0.0
 10
94.05050293871192
 20
86.82393757355995
 30
0.0
 10
94.10341829349682
 20
86.8208366849037
 30
0.0
 10
94.19871363847986
 20
86.79864184074137
 30
0.0
 10
94.23896463576482
 20
86.78140961364551
 30
0.0
 10
94.34323464927778
 20
86.72508169719345
 30
0.0
 10
94.39355662443111
 20
86.68089535124766
 30
0.0
 10
94.52123957195647
 20
86.54988745239703
 30
0.0
 10
94.57732501901874
 20
86.45965293216673
 30
0.0
 10
94.62367141214048
 20
86.37150739800086
 30
0.0
  0
SPLINE
  5
91
330
1F
100
AcDbEntity
  8
0
  6
Continuous
 62
     7
370
    15
100
AcDbSpline
210
0.0
220
0.0
230
1.0
 70
     8
 71
     3
 72
     8
 73
     4
 74
     0
 42
0.00000001
 43
0.00000001
 40
0.0
 40
0.0
 40
0.0
 40
0.0
 40
1.0
 40
1.0
 40
1.0
 40
1.0
 10
91.73343343710847
 20
86.50834397369685
 30
0.0
 10
92.46801046359144
 20
86.62696898476581
 30
0.0
 10
93.23148553298712
 20
86.7269548569021
 30
0.0
 10
94.00195853005475
 20
86.81818926027965
 30
0.0
  0
SPLINE
  5
92
330
1F
100
AcDbEntity
  8
0
  6
Continuous
 62
     7
370
    15
100
AcDbSpline
210
0.0
220
0.0
230
1.0
 70
     8
 71
     3
 72
    14
 73
    10
 74
     0
 42
0.00000001
 43
0.00000001
 40
0.0
 40
0.0
 40
0.0
 40
0.0
 40
0.5000000000000002
 40
0.5000000000000002
 40
0.7500000000000002
 40
0.7500000000000002
 40
0.8750000000000001
 40
0.8750000000000001
 40
1.0
 40
1.0
 40
1.0
 40
1.0
 10
86.45195853005474
 20
86.3347209561652
 30
0.0
 10
87.34410466060831
 20
86.33399872996456
 30
0.0
 10
88.2340810964019
 20
86.33858493642202
 30
0.0
 10
89.56067626347748
 20
86.36630994081355
 30
0.0
 10
90.00152319197622
 20
86.37891647843773
 30
0.0
 10
90.65796342939863
 20
86.40993262644517
 30
0.0
 10
90.87597708599051
 20
86.42227579907195
 30
0.0
 10
91.30868593967328
 20
86.45529985423522
 30
0.0
 10
91.52396240483807
 20
86.47451701937366
 30
0.0
 10
91.73343343710846
 20
86.50834397369685
 30
0.0
  0
SPLINE
  5
93
330
1F
100
AcDbEntity
  8
0
  6
Continuous
 62
     7
370
    15
100
AcDbSpline
210
0.0
220
0.0
230
1.0
 70
     8
 71
     3
 72
     8
 73
     4
 74
     0
 42
0.00000001
 43
0.00000001
 40
0.0000005163856998
 40
0.0000005163856998
 40
0.0000005163856998
 40
0.0000005163856998
 40
0.000026289209185
 40
0.000026289209185
 40
0.000026289209185
 40
0.000026289209185
 10
86.44191359964714
 20
86.34470482926199
 30
0.0
 10
86.44524133785497
 20
86.34137058239287
 30
0.0
 10
86.44858979083055
 20
86.33804262511755
 30
0.0
 10
86.45195853005472
 20
86.3347209561652
 30
0.0
  0
SPLINE
  5
94
330
1F
100
AcDbEntity
  8
0
  6
Continuous
 62
     7
370
    15
100
AcDbSpline
210
0.0
220
0.0
230
1.0
 70
     8
 71
     3
 72
     8
 73
     4
 74
     0
 42
0.00000001
 43
0.00000001
 40
0.0000005099763573
 40
0.0000005099763573
 40
0.0000005099763573
 40
0.0000005099763573
 40
0.0000262827998699
 40
0.0000262827998699
 40
0.0000262827998699
 40
0.0000262827998699
 10
86.45195853005472
 20
128.0745964869554
 30
0.0
 10
86.44858979082699
 20
128.0712748179995
 30
0.0
 10
86.44524133784783
 20
128.0679468607206
 30
0.0
 10
86.44191359963651
 20
128.0646126138479
 30
0.0
  0
SPLINE
  5
95
330
1F
100
AcDbEntity
  8
0
  6
Continuous
 62
     7
370
    15
100
AcDbSpline
210
0.0
220
0.0
230
1.0
 70
     8
 71
     3
 72
    10
 73
     6
 74
     0
 42
0.00000001
 43
0.00000001
 40
0.0
 40
0.0
 40
0.0
 40
0.0
 40
0.5
 40
0.5
 40
1.0
 40
1.0
 40
1.0
 40
1.0
 10
90.00195853005474
 20
128.027746113388
 30
0.0
 10
89.41437298296417
 20
128.0488116336244
 30
0.0
 10
88.82362658950377
 20
128.0595701194966
 30
0.0
 10
87.63960742420491
 20
128.0729349000323
 30
0.0
 10
87.04619343599946
 20
128.0750775426969
 30
0.0
 10
86.45195853005474
 20
128.0745964869554
 30
0.0
  0
SPLINE
  5
96
330
1F
100
AcDbEntity
  8
0
  6
Continuous
 62
     7
370
    15
100
AcDbSpline
210
0.0
220
0.0
230
1.0
 70
     8
 71
     3
 72
    18
 73
    14
 74
     0
 42
0.00000001
 43
0.00000001
 40
0.0
 40
0.0
 40
0.0
 40
0.0
 40
0.2500000000000008
 40
0.2500000000000008
 40
0.5000000000000009
 40
0.5000000000000009
 40
0.7500000000000009
 40
0.7500000000000009
 40
0.875000000000001
 40
0.875000000000001
 40
0.9375000000000006
 40
0.9375000000000006
 40
1.0
 40
1.0
 40
1.0
 40
1.0
 10
91.40195853005476
 20
129.0487663939233
 30
0.0
 10
91.40195853005477
 20
128.9655594850661
 30
0.0
 10
91.3661094301165
 20
128.8768228297525
 30
0.0
 10
91.24123769408257
 20
128.6946976391923
 30
0.0
 10
91.1508372764347
 20
128.5995675905656
 30
0.0
 10
90.92859462169253
 20
128.4103860814413
 30
0.0
 10
90.79882983524676
 20
128.3154409133466
 30
0.0
 10
90.55819237793524
 20
128.1771622057667
 30
0.0
 10
90.47042507979782
 20
128.1314517724643
 30
0.0
 10
90.31590099259097
 20
128.0736284672428
 30
0.0
 10
90.25929010653623
 20
128.055913703205
 30
0.0
 10
90.13524607562962
 20
128.031374399972
 30
0.0
 10
90.06753140061134
 20
128.0253952614337
 30
0.0
 10
90.00195853005474
 20
128.027746113388
 30
0.0
  0
LINE
  5
97
330
1F
100
AcDbEntity
  8
0
  6
Continuous
 62
     7
370
    15
100
AcDbLine
 10
91.4019585301
 20
129.0487663939
 30
0.0
 11
91.4019585301
 21
130.2327048137
 31
0.0
  0
LINE
  5
98
330
1F
100
AcDbEntity
  8
0
  6
Continuous
 62
     7
370
    15
100
AcDbLine
 10
115.2019585301
 20
82.9842278598
 30
0.0
 11
115.2019585301
 21
131.4250895833
 31
0.0
  0
SPLINE
  5
99
330
1F
100
AcDbEntity
  8
0
  6
Continuous
 62
     7
370
    15
100
AcDbSpline
210
0.0
220
0.0
230
1.0
 70
     8
 71
     3
 72
    24
 73
    20
 74
     0
 42
0.00000001
 43
0.00000001
 40
0.0
 40
0.0
 40
0.0
 40
0.0
 40
0.0010489762969682
 40
0.0637843125639767
 40
0.1272220590447889
 40
0.19037889244876
 40
0.2526748653693632
 40
0.3146354154433589
 40
0.3770891997149993
 40
0.4393540298512636
 40
0.5008133242537819
 40
0.5621845104587263
 40
0.6248438451115537
 40
0.6874304766616293
 40
0.7496743174679374
 40
0.8119848426977089
 40
0.875096052541316
 40
0.9384412526965075
 40
0.9999999999999999
 40
0.9999999999999999
 40
0.9999999999999999
 40
0.9999999999999999
 10
103.9708643620304
 20
83.54715029298012
 30
0.0
 10
103.9704179019262
 20
83.54709200716124
 30
0.0
 10
103.9432703382325
 20
83.54354786521864
 30
0.0
 10
104.0388821158461
 20
83.5563816099015
 30
0.0
 10
104.2724423737406
 20
83.58562829510163
 30
0.0
 10
104.6679966810577
 20
83.63224261816453
 30
0.0
 10
105.1950369848984
 20
83.68242575982393
 30
0.0
 10
105.8385673968863
 20
83.7268022222742
 30
0.0
 10
106.5772412521312
 20
83.75374700321183
 30
0.0
 10
107.3747557575619
 20
83.7572188539177
 30
0.0
 10
108.201334640004
 20
83.7295916098881
 30
0.0
 10
109.0268576576112
 20
83.67111272091485
 30
0.0
 10
109.8189842056123
 20
83.5856676915548
 30
0.0
 10
110.5515564796178
 20
83.48393345171846
 30
0.0
 10
111.1871967163459
 20
83.37609032974555
 30
0.0
 10
111.7091078233556
 20
83.27446017300643
 30
0.0
 10
112.0907366004711
 20
83.1919750163282
 30
0.0
 10
112.341551070705
 20
83.13582580997858
 30
0.0
 10
112.3706726266893
 20
83.12897635136481
 30
0.0
 10
112.3850251475054
 20
83.12560060463666
 30
0.0
  0
SPLINE
  5
9A
330
1F
100
AcDbEntity
  8
0
  6
Continuous
 62
     7
370
    15
100
AcDbSpline
210
0.0
220
0.0
230
1.0
 70
     8
 71
     3
 72
    24
 73
    20
 74
     0
 42
0.00000001
 43
0.00000001
 40
0.0
 40
0.0
 40
0.0
 40
0.0
 40
0.061438427625136
 40
0.1250736755369643
 40
0.1884253490730172
 40
0.2508623904037476
 40
0.3129665632512369
 40
0.3753451453465166
 40
0.4377328972325402
 40
0.4990927322917273
 40
0.5605807588448041
 40
0.6229469893028856
 40
0.6854686282026866
 40
0.7475477813740222
 40
0.8098225060807238
 40
0.8730684085990468
 40
0.9364041844533111
 40
0.9991757196257863
 40
1.0
 40
1.0
 40
1.0
 40
1.0
 10
112.3849703767025
 20
131.2836876960177
 30
0.0
 10
112.3703696523988
 20
131.280319639165
 30
0.0
 10
112.3406461336703
 20
131.2734630956912
 30
0.0
 10
112.0879083180221
 20
131.2171244751653
 30
0.0
 10
111.7049124015731
 20
131.1342673930353
 30
0.0
 10
111.182556817135
 20
131.032360363084
 30
0.0
 10
110.5477723391351
 20
130.9245212240402
 30
0.0
 10
109.8175487349625
 20
130.8230542720651
 30
0.0
 10
109.0270801497289
 20
130.7379945583744
 30
0.0
 10
108.2025966349005
 20
130.679790264488
 30
0.0
 10
107.3755601760173
 20
130.6522068256614
 30
0.0
 10
106.5772359083653
 20
130.6556998031542
 30
0.0
 10
105.8374119440761
 20
130.6826557230073
 30
0.0
 10
105.1931577111006
 20
130.7270096650067
 30
0.0
 10
104.6657504558849
 20
130.7772151147645
 30
0.0
 10
104.271085853735
 20
130.8238249699628
 30
0.0
 10
104.0385565745501
 20
130.8530205625101
 30
0.0
 10
103.9431765419979
 20
130.865798631452
 30
0.0
 10
103.9701101788993
 20
130.8622443729437
 30
0.0
 10
103.9704592721237
 20
130.8621983053603
 30
0.0
  0
SPLINE
  5
9B
330
1F
100
AcDbEntity
  8
0
  6
Continuous
 62
     7
370
    15
100
AcDbSpline
210
0.0
220
0.0
230
1.0
 70
     8
 71
     3
 72
    10
 73
     6
 74
     0
 42
0.00000001
 43
0.00000001
 40
0.0
 40
0.0
 40
0.0
 40
0.0
 40
0.0840381716606348
 40
0.7011125076933074
 40
1.0
 40
1.0
 40
1.0
 40
1.0
 10
85.31550549259042
 20
87.47588481387695
 30
0.0
 10
85.31618004992534
 20
87.47367918704104
 30
0.0
 10
85.32180773762151
 20
87.45527811367883
 30
0.0
 10
85.34812921774837
 20
87.469512676402
 30
0.0
 10
85.36056423459308
 20
87.515198451953
 30
0.0
 10
85.36462190477815
 20
87.53010617677955
 30
0.0
  0
LINE
  5
9C
330
1F
100
AcDbEntity
  8
0
  6
Continuous
 62
     7
370
    15
100
AcDbLine
 10
85.3019585301
 20
87.5139809751
 30
0.0
 11
85.3019585301
 21
126.895336468
 31
0.0
  0
SPLINE
  5
9D
330
1F
100
AcDbEntity
  8
0
  6
Continuous
 62
     7
370
    15
100
AcDbSpline
210
0.0
220
0.0
230
1.0
 70
     8
 71
     3
 72
    10
 73
     6
 74
     0
 42
0.00000001
 43
0.00000001
 40
0.0
 40
0.0
 40
0.0
 40
0.0
 40
0.3981552638809415
 40
0.8068145697130351
 40
1.0
 40
1.0
 40
1.0
 40
1.0
 10
85.36462190477815
 20
126.879211266341
 30
0.0
 10
85.35895840005367
 20
126.8980530508919
 30
0.0
 10
85.34748197730639
 20
126.9362336996842
 30
0.0
 10
85.32396774933218
 20
126.9498169835518
 30
0.0
 10
85.31895179351439
 20
126.9341166894317
 30
0.0
 10
85.31734172778678
 20
126.9290770705845
 30
0.0
  0
SPLINE
  5
9E
330
1F
100
AcDbEntity
  8
0
  6
Continuous
 62
     7
370
    15
100
AcDbSpline
210
0.0
220
0.0
230
1.0
 70
     8
 71
     3
 72
    26
 73
    22
 74
     0
 42
0.00000001
 43
0.00000001
 40
0.0
 40
0.0
 40
0.0
 40
0.0
 40
0.2500000000000165
 40
0.2500000000000165
 40
0.3750000000000256
 40
0.3750000000000256
 40
0.4375000000000291
 40
0.4375000000000291
 40
0.4687500000000291
 40
0.4687500000000291
 40
0.5000000000000292
 40
0.5000000000000292
 40
0.5312500000000293
 40
0.5312500000000293
 40
0.5625000000000293
 40
0.5625000000000293
 40
0.625000000000026
 40
0.625000000000026
 40
0.7500000000000173
 40
0.7500000000000173
 40
1.0
 40
1.0
 40
1.0
 40
1.0
 10
86.12611217615925
 20
127.5947780551581
 30
0.0
 10
86.08751165329079
 20
127.4770033588027
 30
0.0
 10
86.04121465073652
 20
127.3526136726408
 30
0.0
 10
85.94727530230259
 20
127.1473943402873
 30
0.0
 10
85.91196383538914
 20
127.0758214738408
 30
0.0
 10
85.84578385964348
 20
126.9598682412404
 30
0.0
 10
85.82124549297524
 20
126.9192837064301
 30
0.0
 10
85.77787274742145
 20
126.8551420245584
 30
0.0
 10
85.76236434599623
 20
126.8332755992733
 30
0.0
 10
85.72732170140924
 20
126.7876813309302
 30
0.0
 10
85.70777141068946
 20
126.7640110399627
 30
0.0
 10
85.66584413031886
 20
126.7193944806228
 30
0.0
 10
85.64319202008721
 20
126.6985144681049
 30
0.0
 10
85.60221830600057
 20
126.667641054354
 30
0.0
 10
85.58461900610514
 20
126.6578021845216
 30
0.0
 10
85.539992020249
 20
126.6388125688255
 30
0.0
 10
85.51943279759567
 20
126.638488244172
 30
0.0
 10
85.468307358099
 20
126.6477116850482
 30
0.0
 10
85.44739594511047
 20
126.6689585812652
 30
0.0
 10
85.39594603754954
 20
126.742927460096
 30
0.0
 10
85.37828073824498
 20
126.8090455534107
 30
0.0
 10
85.36462190477815
 20
126.879211266341
 30
0.0
  0
SPLINE
  5
9F
330
1F
100
AcDbEntity
  8
0
  6
Continuous
 62
     7
370
    15
100
AcDbSpline
210
0.0
220
0.0
230
1.0
 70
     8
 71
     3
 72
    10
 73
     6
 74
     0
 42
0.00000001
 43
0.00000001
 40
0.0
 40
0.0
 40
0.0
 40
0.0
 40
0.5
 40
0.5
 40
1.0
 40
1.0
 40
1.0
 40
1.0
 10
86.44191359963654
 20
128.0646126138479
 30
0.0
 10
86.37435434471828
 20
127.9969212210382
 30
0.0
 10
86.3107176893818
 20
127.9222140562845
 30
0.0
 10
86.20049693480995
 20
127.7632479238579
 30
0.0
 10
86.15368064158731
 20
127.6788926578499
 30
0.0
 10
86.12611217615925
 20
127.5947780551581
 30
0.0
  0
SPLINE
  5
A0
330
1F
100
AcDbEntity
  8
0
  6
Continuous
 62
     7
370
    15
100
AcDbSpline
210
0.0
220
0.0
230
1.0
 70
     8
 71
     3
 72
    10
 73
     6
 74
     0
 42
0.00000001
 43
0.00000001
 40
0.0
 40
0.0
 40
0.0
 40
0.0
 40
0.5
 40
0.5
 40
1.0
 40
1.0
 40
1.0
 40
1.0
 10
86.12611217615928
 20
86.81453938796231
 30
0.0
 10
86.15358959091327
 20
86.73070259149443
 30
0.0
 10
86.20029822120267
 20
86.64639210390528
 30
0.0
 10
86.31057668394864
 20
86.48727087341858
 30
0.0
 10
86.37446422256254
 20
86.41228612932893
 30
0.0
 10
86.44191359964715
 20
86.34470482926199
 30
0.0
  0
SPLINE
  5
A1
330
1F
100
AcDbEntity
  8
0
  6
Continuous
 62
     7
370
    15
100
AcDbSpline
210
0.0
220
0.0
230
1.0
 70
     8
 71
     3
 72
    24
 73
    20
 74
     0
 42
0.00000001
 43
0.00000001
 40
0.0
 40
0.0
 40
0.0
 40
0.0
 40
0.249999999999999
 40
0.249999999999999
 40
0.3749999999999983
 40
0.3749999999999983
 40
0.4374999999999987
 40
0.4374999999999987
 40
0.4687499999999975
 40
0.4687499999999975
 40
0.4999999999999963
 40
0.4999999999999963
 40
0.5624999999999984
 40
0.5624999999999984
 40
0.6250000000000006
 40
0.6250000000000006
 40
0.7500000000000001
 40
0.7500000000000001
 40
1.0
 40
1.0
 40
1.0
 40
1.0
 10
85.36462190477815
 20
87.53010617677953
 30
0.0
 10
85.37837502344838
 20
87.60075623476982
 30
0.0
 10
85.39614759085426
 20
87.66735434753475
 30
0.0
 10
85.4483986824096
 20
87.74145236776795
 30
0.0
 10
85.46943375799115
 20
87.76271017492951
 30
0.0
 10
85.52233416561961
 20
87.77085610107575
 30
0.0
 10
85.54343983849752
 20
87.76991629767997
 30
0.0
 10
85.58949200717547
 20
87.74890030610263
 30
0.0
 10
85.60786247915888
 20
87.73799149999502
 30
0.0
 10
85.64941411422458
 20
87.70535658904764
 30
0.0
 10
85.67198078698149
 20
87.68386460867626
 30
0.0
 10
85.73476180344153
 20
87.61539866508996
 30
0.0
 10
85.76789156440942
 20
87.56932420688486
 30
0.0
 10
85.82480925089442
 20
87.4843163185502
 30
0.0
 10
85.8489952763982
 20
87.44403601736882
 30
0.0
 10
85.91420322677796
 20
87.32909979090287
 30
0.0
 10
85.9489192869692
 20
87.25851680575586
 30
0.0
 10
86.04213455730007
 20
87.05431104667727
 30
0.0
 10
86.08780709266075
 20
86.9314126643499
 30
0.0
 10
86.12611217615928
 20
86.81453938796233
 30
0.0
  0
LINE
  5
A2
330
1F
100
AcDbEntity
  8
0
  6
Continuous
 62
     7
370
    15
100
AcDbLine
 10
142.5519585301
 20
137.6718541947
 30
0.0
 11
138.5938913615
 21
137.6718541947
 31
0.0
  0
LINE
  5
A3
330
1F
100
AcDbEntity
  8
0
  6
Continuous
 62
     7
370
    15
100
AcDbLine
 10
138.5938913615
 20
131.6633483839
 30
0.0
 11
142.5519585301
 21
131.6633483839
 31
0.0
  0
LINE
  5
A4
330
1F
100
AcDbEntity
  8
0
  6
Continuous
 62
     7
370
    15
100
AcDbLine
 10
138.5938913615
 20
131.6633483839
 30
0.0
 11
138.5938913615
 21
137.6718541947
 31
0.0
  0
SPLINE
  5
A5
330
1F
100
AcDbEntity
  8
0
  6
Continuous
 62
     7
370
    15
100
AcDbSpline
210
0.0
220
0.0
230
1.0
 70
     8
 71
     3
 72
     8
 73
     4
 74
     0
 42
0.00000001
 43
0.00000001
 40
0.0
 40
0.0
 40
0.0
 40
0.0
 40
1.0
 40
1.0
 40
1.0
 40
1.0
 10
138.5938913615438
 20
137.6718541947245
 30
0.0
 10
138.0987513321795
 20
136.7851745465443
 30
0.0
 10
137.6046686269005
 20
135.8979119108583
 30
0.0
 10
137.1119585300547
 20
135.0098929127319
 30
0.0
  0
SPLINE
  5
A6
330
1F
100
AcDbEntity
  8
0
  6
Continuous
 62
     7
370
    15
100
AcDbSpline
210
0.0
220
0.0
230
1.0
 70
     8
 71
     3
 72
     8
 73
     4
 74
     0
 42
0.00000001
 43
0.00000001
 40
0.0
 40
0.0
 40
0.0
 40
0.0
 40
1.0
 40
1.0
 40
1.0
 40
1.0
 10
137.1119585300547
 20
128.2548023891436
 30
0.0
 10
137.5912366806446
 20
129.3958136189962
 30
0.0
 10
138.0868045197845
 20
130.532198029764
 30
0.0
 10
138.5938913615438
 20
131.6633483839277
 30
0.0
  0
LINE
  5
A7
330
1F
100
AcDbEntity
  8
0
  6
Continuous
 62
     7
370
    15
100
AcDbLine
 10
137.1119585301
 20
128.2548023891
 30
0.0
 11
137.1119585301
 21
135.0098929127
 31
0.0
  0
SPLINE
  5
A8
330
1F
100
AcDbEntity
  8
0
  6
Continuous
 62
     7
370
    15
100
AcDbSpline
210
0.0
220
0.0
230
1.0
 70
     8
 71
     3
 72
    10
 73
     6
 74
     0
 42
0.00000001
 43
0.00000001
 40
0.0
 40
0.0
 40
0.0
 40
0.0
 40
0.5
 40
0.5
 40
1.0
 40
1.0
 40
1.0
 40
1.0
 10
143.1519585300547
 20
137.0510990453242
 30
0.0
 10
143.1519585300547
 20
137.211504311675
 30
0.0
 10
143.0897206989479
 20
137.3705661246636
 30
0.0
 10
142.8705857752053
 20
137.6014785902939
 30
0.0
 10
142.7129970802135
 20
137.6718541947245
 30
0.0
 10
142.5519585300547
 20
137.6718541947245
 30
0.0
  0
SPLINE
  5
A9
330
1F
100
AcDbEntity
  8
0
  6
Continuous
 62
     7
370
    15
100
AcDbSpline
210
0.0
220
0.0
230
1.0
 70
     8
 71
     3
 72
    12
 73
     8
 74
     0
 42
0.00000001
 43
0.00000001
 40
0.0
 40
0.0
 40
0.0
 40
0.0
 40
0.250000000000002
 40
0.250000000000002
 40
0.500000000000004
 40
0.500000000000004
 40
1.0
 40
1.0
 40
1.0
 40
1.0
 10
142.5519585300547
 20
131.6633483839277
 30
0.0
 10
142.6431582518804
 20
131.6633483839277
 30
0.0
 10
142.7337532610164
 20
131.6351286853398
 30
0.0
 10
142.8871659874631
 20
131.5406856780917
 30
0.0
 10
142.9523748547868
 20
131.4743987013864
 30
0.0
 10
143.1051593841267
 20
131.2487738780981
 30
0.0
 10
143.1519585300547
 20
131.0663476150656
 30
0.0
 10
143.1519585300547
 20
130.8856109828187
 30
0.0
  0
LINE
  5
AA
330
1F
100
AcDbEntity
  8
0
  6
Continuous
 62
     7
370
    15
100
AcDbLine
 10
143.1519585301
 20
130.8856109828
 30
0.0
 11
143.1519585301
 21
137.0510990453
 31
0.0
  0
LINE
  5
AB
330
1F
100
AcDbEntity
  8
0
  6
Continuous
 62
     7
370
    15
100
AcDbLine
 10
137.1119585301
 20
127.340525353
 30
0.0
 11
137.1119585301
 21
128.2548023891
 31
0.0
  0
LINE
  5
AC
330
1F
100
AcDbEntity
  8
0
  6
Continuous
 62
     7
370
    15
100
AcDbLine
 10
143.1519585301
 20
130.8856109828
 30
0.0
 11
143.1519585301
 21
127.0546587216
 31
0.0
  0
SPLINE
  5
AD
330
1F
100
AcDbEntity
  8
0
  6
Continuous
 62
     7
370
    15
100
AcDbSpline
210
0.0
220
0.0
230
1.0
 70
     8
 71
     3
 72
     8
 73
     4
 74
     0
 42
0.00000001
 43
0.00000001
 40
0.0
 40
0.0
 40
0.0
 40
0.0
 40
1.0
 40
1.0
 40
1.0
 40
1.0
 10
133.2919585300547
 20
135.0098929127319
 30
0.0
 10
132.799248433209
 20
135.8979119108583
 30
0.0
 10
132.30516572793
 20
136.7851745465443
 30
0.0
 10
131.8100256985657
 20
137.6718541947245
 30
0.0
  0
SPLINE
  5
AE
330
1F
100
AcDbEntity
  8
0
  6
Continuous
 62
     7
370
    15
100
AcDbSpline
210
0.0
220
0.0
230
1.0
 70
     8
 71
     3
 72
     8
 73
     4
 74
     0
 42
0.00000001
 43
0.00000001
 40
0.0
 40
0.0
 40
0.0
 40
0.0
 40
1.0
 40
1.0
 40
1.0
 40
1.0
 10
131.8100256985657
 20
131.6633483839277
 30
0.0
 10
132.317112540325
 20
130.532198029764
 30
0.0
 10
132.8126803794649
 20
129.3958136189962
 30
0.0
 10
133.2919585300547
 20
128.2548023891436
 30
0.0
  0
LINE
  5
AF
330
1F
100
AcDbEntity
  8
0
  6
Continuous
 62
     7
370
    15
100
AcDbLine
 10
133.2919585301
 20
128.2548023891
 30
0.0
 11
133.2919585301
 21
135.0098929127
 31
0.0
  0
LINE
  5
B0
330
1F
100
AcDbEntity
  8
0
  6
Continuous
 62
     7
370
    15
100
AcDbLine
 10
133.2919585301
 20
128.2548023891
 30
0.0
 11
133.2919585301
 21
127.340525353
 31
0.0
  0
ARC
  5
B1
330
1F
100
AcDbEntity
  8
0
  6
Continuous
 62
     7
370
    15
100
AcDbCircle
 10
125.2960086819
 20
126.3063090863
 30
0.0
 40
6.844598241892255
100
AcDbArc
 50
70.594371188
 51
90.7873137562
  0
ARC
  5
B2
330
1F
100
AcDbEntity
  8
0
  6
Continuous
 62
     7
370
    15
100
AcDbCircle
 10
125.1075500257
 20
126.3098045457
 30
0.0
 40
6.841108048566632
100
AcDbArc
 50
89.2092829818
 51
109.4591264345
  0
LINE
  5
B3
330
1F
100
AcDbEntity
  8
0
  6
Continuous
 62
     7
370
    15
100
AcDbLine
 10
162.7302419534
 20
90.2046587216
 30
0.0
 11
162.7302419534
 21
124.2046587216
 31
0.0
  0
LINE
  5
B4
330
1F
100
AcDbEntity
  8
0
  6
Continuous
 62
     7
370
    15
100
AcDbLine
 10
207.2019585301
 20
95.5534397049
 30
0.0
 11
207.2019585301
 21
118.8558776857
 31
0.0
  0
LINE
  5
B5
330
1F
100
AcDbEntity
  8
0
  6
HIDDEN
 62
     7
370
     0
100
AcDbLine
 10
160.2019585301
 20
102.2046587216
 30
0.0
 11
160.2019585301
 21
112.2046587216
 31
0.0
  0
LINE
  5
B6
330
1F
100
AcDbEntity
  8
0
  6
HIDDEN
 62
     7
370
     0
100
AcDbLine
 10
144.7019585301
 20
102.2046587216
 30
0.0
 11
144.7019585301
 21
112.2046587216
 31
0.0
  0
LINE
  5
B7
330
1F
100
AcDbEntity
  8
0
  6
HIDDEN
 62
     7
370
     0
100
AcDbLine
 10
144.2019585301
 20
102.7046587216
 30
0.0
 11
144.2019585301
 21
111.7046587216
 31
0.0
  0
LINE
  5
B8
330
1F
100
AcDbEntity
  8
0
  6
HIDDEN
 62
     7
370
     0
100
AcDbLine
 10
164.2019585301
 20
106.2046587216
 30
0.0
 11
162.2019585301
 21
106.2046587216
 31
0.0
  0
LINE
  5
B9
330
1F
100
AcDbEntity
  8
0
  6
HIDDEN
 62
     7
370
     0
100
AcDbLine
 10
164.2019585301
 20
102.7046587216
 30
0.0
 11
164.2019585301
 21
106.2046587216
 31
0.0
  0
LINE
  5
BA
330
1F
100
AcDbEntity
  8
0
  6
HIDDEN
 62
     7
370
     0
100
AcDbLine
 10
164.2019585301
 20
108.2046587216
 30
0.0
 11
164.2019585301
 21
111.7046587216
 31
0.0
  0
LINE
  5
BB
330
1F
100
AcDbEntity
  8
0
  6
HIDDEN
 62
     7
370
     0
100
AcDbLine
 10
162.2019585301
 20
108.2046587216
 30
0.0
 11
164.2019585301
 21
108.2046587216
 31
0.0
  0
LINE
  5
BC
330
1F
100
AcDbEntity
  8
0
  6
HIDDEN
 62
     7
370
     0
100
AcDbLine
 10
162.2019585301
 20
106.2046587216
 30
0.0
 11
162.2019585301
 21
108.2046587216
 31
0.0
  0
LINE
  5
BD
330
1F
100
AcDbEntity
  8
0
  6
HIDDEN
 62
     7
370
     0
100
AcDbLine
 10
158.2019585301
 20
107.2046587216
 30
0.0
 11
162.2019585301
 21
107.2046587216
 31
0.0
  0
LINE
  5
BE
330
1F
100
AcDbEntity
  8
0
  6
HIDDEN
 62
     7
370
     0
100
AcDbLine
 10
158.2019585301
 20
108.4546587216
 30
0.0
 11
158.2019585301
 21
107.2046587216
 31
0.0
  0
LINE
  5
BF
330
1F
100
AcDbEntity
  8
0
  6
HIDDEN
 62
     7
370
     0
100
AcDbLine
 10
158.2019585301
 20
107.2046587216
 30
0.0
 11
158.2019585301
 21
105.9546587216
 31
0.0
  0
LINE
  5
C0
330
1F
100
AcDbEntity
  8
0
  6
HIDDEN
 62
     7
370
     0
100
AcDbLine
 10
150.20195853
 20
107.2046587216
 30
0.0
 11
144.2019585301
 21
107.2046587216
 31
0.0
  0
LINE
  5
C1
330
1F
100
AcDbEntity
  8
0
  6
HIDDEN
 62
     7
370
     0
100
AcDbLine
 10
150.20195853
 20
107.2046587216
 30
0.0
 11
150.20195853
 21
108.4546587216
 31
0.0
  0
LINE
  5
C2
330
1F
100
AcDbEntity
  8
0
  6
HIDDEN
 62
     7
370
     0
100
AcDbLine
 10
150.20195853
 20
105.9546587216
 30
0.0
 11
150.20195853
 21
107.2046587216
 31
0.0
  0
LINE
  5
C3
330
1F
100
AcDbEntity
  8
0
  6
HIDDEN
 62
     7
370
     0
100
AcDbLine
 10
158.2019585301
 20
109.7046587216
 30
0.0
 11
158.2019585301
 21
108.4546587216
 31
0.0
  0
LINE
  5
C4
330
1F
100
AcDbEntity
  8
0
  6
HIDDEN
 62
     7
370
     0
100
AcDbLine
 10
158.2019585301
 20
105.9546587216
 30
0.0
 11
158.2019585301
 21
104.7046587216
 31
0.0
  0
LINE
  5
C5
330
1F
100
AcDbEntity
  8
0
  6
HIDDEN
 62
     7
370
     0
100
AcDbLine
 10
150.20195853
 20
104.7046587216
 30
0.0
 11
150.20195853
 21
105.9546587216
 31
0.0
  0
LINE
  5
C6
330
1F
100
AcDbEntity
  8
0
  6
HIDDEN
 62
     7
370
     0
100
AcDbLine
 10
150.20195853
 20
108.4546587216
 30
0.0
 11
150.20195853
 21
109.7046587216
 31
0.0
  0
LINE
  5
C7
330
1F
100
AcDbEntity
  8
0
  6
HIDDEN
 62
     7
370
     0
100
AcDbLine
 10
150.20195853
 20
109.7046587216
 30
0.0
 11
144.20195853
 21
109.7046587216
 31
0.0
  0
LINE
  5
C8
330
1F
100
AcDbEntity
  8
0
  6
HIDDEN
 62
     7
370
     0
100
AcDbLine
 10
158.2019585301
 20
109.7046587216
 30
0.0
 11
164.2019585301
 21
109.7046587216
 31
0.0
  0
LINE
  5
C9
330
1F
100
AcDbEntity
  8
0
  6
HIDDEN
 62
     7
370
     0
100
AcDbLine
 10
158.2019585301
 20
104.7046587216
 30
0.0
 11
164.2019585301
 21
104.7046587216
 31
0.0
  0
LINE
  5
CA
330
1F
100
AcDbEntity
  8
0
  6
HIDDEN
 62
     7
370
     0
100
AcDbLine
 10
150.20195853
 20
104.7046587216
 30
0.0
 11
144.20195853
 21
104.7046587216
 31
0.0
  0
LINE
  5
CB
330
1F
100
AcDbEntity
  8
0
  6
HIDDEN
 62
     7
370
     0
100
AcDbLine
 10
131.8100256986
 20
131.6633483839
 30
0.0
 11
131.8100256986
 21
127.0546587216
 31
0.0
  0
LWPOLYLINE
  5
CC
330
1F
100
AcDbEntity
  8
0
  6
HIDDEN
 62
     7
370
     0
100
AcDbPolyline
 90
       21
 70
   128
 43
0.0
 10
129.0712783876
 20
120.5021537177
 10
129.1250996517
 20
120.2939063633
 10
129.2019585301
 20
119.5985993644
 10
129.1250996517
 20
118.9032923656
 10
128.8974766601
 20
118.2347056247
 10
128.5278369793
 20
117.6185325554
 10
128.0303856548
 20
117.0784523431
 10
127.4242394621
 20
116.6352199675
 10
126.7326922595
 20
116.3058686003
 10
125.9823198181
 20
116.1030550298
 10
125.2019585301
 20
116.0345732677
 10
124.421597242
 20
116.1030550298
 10
123.6712248006
 20
116.3058686003
 10
122.979677598
 20
116.6352199675
 10
122.3735314053
 20
117.0784523431
 10
121.8760800808
 20
117.6185325554
 10
121.5064404
 20
118.2347056247
 10
121.2788174084
 20
118.9032923656
 10
121.2019585301
 20
119.5985993644
 10
121.2788174084
 20
120.2939063633
 10
121.3379898164
 20
120.5201541845
  0
LINE
  5
CD
330
1F
100
AcDbEntity
  8
0
  6
HIDDEN
 62
     7
370
     0
100
AcDbLine
 10
105.1971087346
 20
83.6800590987
 30
0.0
 11
104.9454511404
 21
83.6565374773
 31
0.0
  0
LINE
  5
CE
330
1F
100
AcDbEntity
  8
0
  6
HIDDEN
 62
     7
370
     0
100
AcDbLine
 10
104.8227595218
 20
130.7640897541
 30
0.0
 11
105.1970160143
 21
130.7292417515
 31
0.0
  0
SPLINE
  5
CF
330
1F
100
AcDbEntity
  8
0
  6
HIDDEN
 62
     7
370
     0
100
AcDbSpline
210
0.0
220
0.0
230
1.0
 70
     8
 71
     3
 72
    15
 73
    11
 74
     0
 42
0.00000001
 43
0.00000001
 40
0.0
 40
0.0
 40
0.0
 40
0.0
 40
0.1100576356031887
 40
0.2208893620642086
 40
0.3341487654606238
 40
0.4482426184688524
 40
0.5583232144561896
 40
0.7821908958381419
 40
0.8962385964530019
 40
1.0
 40
1.0
 40
1.0
 40
1.0
 10
110.9569605316563
 20
127.0421871973767
 30
0.0
 10
111.0245545177369
 20
127.0512554514436
 30
0.0
 10
111.1602179124926
 20
127.0694557411817
 30
0.0
 10
111.3406633429138
 20
127.0901767968809
 30
0.0
 10
111.5028120949485
 20
127.1069164807754
 30
0.0
 10
111.6408633256173
 20
127.1194985980794
 30
0.0
 10
111.7925036310909
 20
127.1318773713932
 30
0.0
 10
111.8939518393325
 20
127.138834821509
 30
0.0
 10
111.9453754444211
 20
127.1421320946133
 30
0.0
 10
111.9493305011792
 20
127.1423774093825
 30
0.0
 10
111.9512146384007
 20
127.1424942741245
 30
0.0
  0
SPLINE
  5
D0
330
1F
100
AcDbEntity
  8
0
  6
HIDDEN
 62
     7
370
     0
100
AcDbSpline
210
0.0
220
0.0
230
1.0
 70
     8
 71
     3
 72
    12
 73
     8
 74
     0
 42
0.00000001
 43
0.00000001
 40
0.0
 40
0.0
 40
0.0
 40
0.0
 40
0.118105946153188
 40
0.346496730681715
 40
0.5687578651926728
 40
0.7975170548776802
 40
1.0
 40
1.0
 40
1.0
 40
1.0
 10
111.9391539887241
 20
87.26758593786619
 30
0.0
 10
111.9412768629809
 20
87.26745190074516
 30
0.0
 10
111.9475049066451
 20
87.26705866547002
 30
0.0
 10
111.8428396865036
 20
87.27368195029463
 30
0.0
 10
111.6328658542453
 20
87.29008634322669
 30
0.0
 10
111.337407438385
 20
87.31768805139548
 30
0.0
 10
111.0785179902087
 20
87.35133285750399
 30
0.0
 10
110.9569605316563
 20
87.36713024574381
 30
0.0
  0
SPLINE
  5
D1
330
1F
100
AcDbEntity
  8
0
  6
HIDDEN
 62
     7
370
     0
100
AcDbSpline
210
0.0
220
0.0
230
1.0
 70
     8
 71
     3
 72
    22
 73
    18
 74
     0
 42
0.00000001
 43
0.00000001
 40
0.0
 40
0.0
 40
0.0
 40
0.0
 40
0.0694705033055671
 40
0.1409377255045836
 40
0.2104135489148412
 40
0.281946622355993
 40
0.3506518733998515
 40
0.4213897814436845
 40
0.4894670043894701
 40
0.5594810940348496
 40
0.6282706827033768
 40
0.6989997382187428
 40
0.7687375408512301
 40
0.8405098102584778
 40
0.9099666189318144
 40
0.9814998892127906
 40
1.0
 40
1.0
 40
1.0
 40
1.0
 10
110.9569605316563
 20
87.36713024574381
 30
0.0
 10
110.808786677197
 20
87.38685658555313
 30
0.0
 10
110.5081801602858
 20
87.4268762389739
 30
0.0
 10
109.9732852976051
 20
87.48224990250378
 30
0.0
 10
109.3876467449363
 20
87.52670628763158
 30
0.0
 10
108.773414085363
 20
87.55439126308376
 30
0.0
 10
108.1394974399947
 20
87.56264451655362
 30
0.0
 10
107.517348739423
 20
87.55066446167315
 30
0.0
 10
106.9113512695623
 20
87.51991370791217
 30
0.0
 10
106.3468623484358
 20
87.47444773716197
 30
0.0
 10
105.8274861108541
 20
87.41836658536238
 30
0.0
 10
105.3746206131727
 20
87.35837642304398
 30
0.0
 10
104.995905469507
 20
87.30039650868505
 30
0.0
 10
104.7078203484319
 20
87.25147770053857
 30
0.0
 10
104.5253624518793
 20
87.21844233801279
 30
0.0
 10
104.4447045005452
 20
87.20330254175717
 30
0.0
 10
104.4589943792441
 20
87.20597449513016
 30
0.0
 10
104.4619306717161
 20
87.20652352964196
 30
0.0
  0
SPLINE
  5
D2
330
1F
100
AcDbEntity
  8
0
  6
HIDDEN
 62
     7
370
     0
100
AcDbSpline
210
0.0
220
0.0
230
1.0
 70
     8
 71
     3
 72
    30
 73
    26
 74
     0
 42
0.00000001
 43
0.00000001
 40
0.0
 40
0.0
 40
0.0
 40
0.0
 40
0.0156161600804338
 40
0.0849748372628083
 40
0.1203204532886746
 40
0.15431851909124
 40
0.2234436946574014
 40
0.2586467089786606
 40
0.2931107206687012
 40
0.3631864361325605
 40
0.3988795186727329
 40
0.4336750628309725
 40
0.468714571210481
 40
0.5045294144990545
 40
0.5406151111978533
 40
0.575076786372292
 40
0.6452033649630279
 40
0.6809575734718862
 40
0.7149323277721686
 40
0.7840330582955269
 40
0.8192378401372485
 40
0.8533347063218408
 40
0.9226550151093995
 40
0.9579547149334489
 40
1.0
 40
1.0
 40
1.0
 40
1.0
 10
104.4550759112403
 20
127.2040744536682
 30
0.0
 10
104.4544781721552
 20
127.2041867065499
 30
0.0
 10
104.4512255939786
 20
127.2047975270272
 30
0.0
 10
104.5015464964269
 20
127.19533839257
 30
0.0
 10
104.6018515254682
 20
127.1770335564739
 30
0.0
 10
104.7364685135379
 20
127.1530502511001
 30
0.0
 10
104.918527158568
 20
127.1219514569537
 30
0.0
 10
105.1454497322332
 20
127.0860323129113
 30
0.0
 10
105.4020361376106
 20
127.0477132917722
 30
0.0
 10
105.7000727960833
 20
127.007468156464
 30
0.0
 10
106.032622050083
 20
126.9688071330616
 30
0.0
 10
106.2978197554873
 20
126.9414044743304
 30
0.0
 10
106.5768775807463
 20
126.9163596377183
 30
0.0
 10
106.8713285966404
 20
126.8941919404227
 30
0.0
 10
107.1741935299567
 20
126.8760298531527
 30
0.0
 10
107.5845795168254
 20
126.8577717481583
 30
0.0
 10
108.0054203557802
 20
126.8489245141539
 30
0.0
 10
108.4253242730092
 20
126.8503899085951
 30
0.0
 10
108.8399387938629
 20
126.8584333017624
 30
0.0
 10
109.2461599133387
 20
126.8759400873616
 30
0.0
 10
109.6356904130607
 20
126.9015054003895
 30
0.0
 10
110.0125111142991
 20
126.9316896361037
 30
0.0
 10
110.365648274003
 20
126.9675872109511
 30
0.0
 10
110.7073997618246
 20
127.0084054888098
 30
0.0
 10
110.8690735228342
 20
127.0302904023762
 30
0.0
 10
110.9569605316563
 20
127.0421871973767
 30
0.0
  0
LINE
  5
D3
330
1F
100
AcDbEntity
  8
0
  6
HIDDEN
 62
     7
370
     0
100
AcDbLine
 10
98.2059331263
 20
90.2046587216
 30
0.0
 11
98.2059331263
 21
124.2046587216
 31
0.0
  0
LWPOLYLINE
  5
D4
330
1F
100
AcDbEntity
  8
0
  6
HIDDEN
 62
     7
370
     0
100
AcDbPolyline
 90
       27
 70
   128
 43
0.0
 10
127.5701524142
 20
132.7620658489
 10
128.0303856548
 20
132.5644746986
 10
128.5278369793
 20
132.2614016022
 10
128.8974766601
 20
131.9156280009
 10
129.1250996517
 20
131.5404417802
 10
129.2019585301
 20
131.1502611362
 10
129.1250996517
 20
130.7600804922
 10
128.8974766601
 20
130.3848942715
 10
128.5278369793
 20
130.0391206702
 10
128.0303856548
 20
129.7360475738
 10
127.4242394621
 20
129.4873219116
 10
126.7326922595
 20
129.3025020712
 10
125.9823198181
 20
129.1886905754
 10
125.2019585301
 20
129.1502611362
 10
124.421597242
 20
129.1886905754
 10
123.6712248006
 20
129.3025020712
 10
122.979677598
 20
129.4873219116
 10
122.3735314053
 20
129.7360475738
 10
121.8760800808
 20
130.0391206702
 10
121.5064404
 20
130.3848942715
 10
121.2788174084
 20
130.7600804922
 10
121.2019585301
 20
131.1502611362
 10
121.2788174084
 20
131.5404417802
 10
121.5064404
 20
131.9156280009
 10
121.8760800808
 20
132.2614016022
 10
122.3735314053
 20
132.5644746986
 10
122.8285421864
 20
132.7601442732
  0
SPLINE
  5
D5
330
1F
100
AcDbEntity
  8
0
  6
HIDDEN
 62
     7
370
     0
100
AcDbSpline
210
0.0
220
0.0
230
1.0
 70
     8
 71
     3
 72
    11
 73
     7
 74
     0
 42
0.00000001
 43
0.00000001
 40
0.0
 40
0.0
 40
0.0
 40
0.0
 40
0.0005779865010846
 40
0.0005779865010846
 40
0.0005779865010846
 40
0.0011559733324422
 40
0.0011559733324422
 40
0.0011559733324422
 40
0.0011559733324422
 10
85.30195853005475
 20
109.2044993297202
 30
0.0
 10
85.4686257848607
 20
109.2025156903795
 30
0.0
 10
85.63529221453838
 20
109.2004780833713
 30
0.0
 10
85.80195855299019
 20
109.1983666199652
 30
0.0
 10
85.96862498181659
 20
109.1962551554141
 30
0.0
 10
86.1352913554543
 20
109.194069592258
 30
0.0
 10
86.30195853005473
 20
109.1917870149267
 30
0.0
  0
SPLINE
  5
D6
330
1F
100
AcDbEntity
  8
0
  6
HIDDEN
 62
     7
370
     0
100
AcDbSpline
210
0.0
220
0.0
230
1.0
 70
     8
 71
     3
 72
    11
 73
     7
 74
     0
 42
0.00000001
 43
0.00000001
 40
0.0
 40
0.0
 40
0.0
 40
0.0
 40
0.0005782382535738
 40
0.0005782382535738
 40
0.0005782382535738
 40
0.0011564766069467
 40
0.0011564766069467
 40
0.0011564766069467
 40
0.0011564766069467
 10
86.30195853005473
 20
105.207958419342
 30
0.0
 10
86.13530457608611
 20
105.2075208415804
 30
0.0
 10
85.96864390388416
 20
105.207040776908
 30
0.0
 10
85.80197701521875
 20
105.2065212375387
 30
0.0
 10
85.63531009682269
 20
105.2060016980767
 30
0.0
 10
85.46863696698945
 20
105.2054428690547
 30
0.0
 10
85.30195853005473
 20
105.2048573254716
 30
0.0
  0
LINE
  5
D7
330
1F
100
AcDbEntity
  8
0
  6
HIDDEN
 62
     7
370
     0
100
AcDbLine
 10
124.8617844986
 20
90.2046587216
 30
0.0
 11
124.8617844986
 21
124.2046587216
 31
0.0
  0
LINE
  5
D8
330
1F
100
AcDbEntity
  8
0
  6
HIDDEN
 62
     7
370
     0
100
AcDbLine
 10
127.1519585301
 20
91.4796587216
 30
0.0
 11
127.1519585301
 21
122.9296587207
 31
0.0
  0
SPLINE
  5
D9
330
1F
100
AcDbEntity
  8
0
  6
HIDDEN
 62
     7
370
     0
100
AcDbSpline
210
0.0
220
0.0
230
1.0
 70
     8
 71
     3
 72
    16
 73
    12
 74
     0
 42
0.00000001
 43
0.00000001
 40
0.0
 40
0.0
 40
0.0
 40
0.0
 40
0.124999999999998
 40
0.124999999999998
 40
0.249999999999996
 40
0.249999999999996
 40
0.4999999999999973
 40
0.4999999999999973
 40
0.7499999999999987
 40
0.7499999999999987
 40
1.0
 40
1.0
 40
1.0
 40
1.0
 10
94.00195853005475
 20
91.40316828552862
 30
0.0
 10
94.09708028472058
 20
91.40316828552862
 30
0.0
 10
94.19041035344864
 20
91.39935245213582
 30
0.0
 10
94.37367211418665
 20
91.38458189940602
 30
0.0
 10
94.46454982974366
 20
91.37342385143043
 30
0.0
 10
94.7213515272634
 20
91.3309525812887
 30
0.0
 10
94.87641889213538
 20
91.28990638408591
 30
0.0
 10
95.13016535369002
 20
91.19476026750402
 30
0.0
 10
95.23103580535786
 20
91.13999753342245
 30
0.0
 10
95.36628222005271
 20
91.02873640951856
 30
0.0
 10
95.40195853005474
 20
90.97156667218988
 30
0.0
 10
95.40195853005474
 20
90.91714509915616
 30
0.0
  0
LINE
  5
DA
330
1F
100
AcDbEntity
  8
0
  6
HIDDEN
 62
     7
370
     0
100
AcDbLine
 10
86.4519585301
 20
91.4031682855
 30
0.0
 11
86.5329895434
 21
91.4031682855
 31
0.0
  0
LINE
  5
DB
330
1F
100
AcDbEntity
  8
0
  6
HIDDEN
 62
     7
370
     0
100
AcDbLine
 10
86.3019585301
 20
91.4635151799
 30
0.0
 11
86.4519585301
 21
91.4031682855
 31
0.0
  0
LINE
  5
DC
330
1F
100
AcDbEntity
  8
0
  6
HIDDEN
 62
     7
370
     0
100
AcDbLine
 10
86.3019585301
 20
92.73530534
 30
0.0
 11
86.3019585301
 21
91.4635151799
 31
0.0
  0
SPLINE
  5
DD
330
1F
100
AcDbEntity
  8
0
  6
HIDDEN
 62
     7
370
     0
100
AcDbSpline
210
0.0
220
0.0
230
1.0
 70
     8
 71
     3
 72
     8
 73
     4
 74
     0
 42
0.00000001
 43
0.00000001
 40
0.0
 40
0.0
 40
0.0
 40
0.0
 40
1.0
 40
1.0
 40
1.0
 40
1.0
 10
86.60195853344791
 20
93.65076598167846
 30
0.0
 10
86.60195853344807
 20
93.31315678571904
 30
0.0
 10
86.49050691227454
 20
93.01057516971905
 30
0.0
 10
86.30195853005473
 20
92.73530534004362
 30
0.0
  0
LINE
  5
DE
330
1F
100
AcDbEntity
  8
0
  6
HIDDEN
 62
     7
370
     0
100
AcDbLine
 10
86.6019585334
 20
110.8092923431
 30
0.0
 11
86.6019585334
 21
93.6507659817
 31
0.0
  0
SPLINE
  5
DF
330
1F
100
AcDbEntity
  8
0
  6
HIDDEN
 62
     7
370
     0
100
AcDbSpline
210
0.0
220
0.0
230
1.0
 70
     8
 71
     3
 72
    10
 73
     6
 74
     0
 42
0.00000001
 43
0.00000001
 40
0.0
 40
0.0
 40
0.0
 40
0.0
 40
0.5
 40
0.5
 40
1.0
 40
1.0
 40
1.0
 40
1.0
 10
86.30195853005475
 20
121.6743343558074
 30
0.0
 10
86.39384945950748
 20
121.5364202788284
 30
0.0
 10
86.46967668881834
 20
121.3919337399477
 30
0.0
 10
86.5740977925351
 20
121.0874738541475
 30
0.0
 10
86.60195853344815
 20
120.9274158476043
 30
0.0
 10
86.60195853344791
 20
120.7585514614411
 30
0.0
  0
LINE
  5
E0
330
1F
100
AcDbEntity
  8
0
  6
HIDDEN
 62
     7
370
     0
100
AcDbLine
 10
86.3019585301
 20
122.9458022632
 30
0.0
 11
86.3019585301
 21
121.6743343558
 31
0.0
  0
LINE
  5
E1
330
1F
100
AcDbEntity
  8
0
  6
HIDDEN
 62
     7
370
     0
100
AcDbLine
 10
86.4519585301
 20
123.0061491576
 30
0.0
 11
86.3019585301
 21
122.9458022632
 31
0.0
  0
LINE
  5
E2
330
1F
100
AcDbEntity
  8
0
  6
HIDDEN
 62
     7
370
     0
100
AcDbLine
 10
86.6019585334
 20
123.0061491576
 30
0.0
 11
86.4519585301
 21
123.0061491576
 31
0.0
  0
SPLINE
  5
E3
330
1F
100
AcDbEntity
  8
0
  6
HIDDEN
 62
     7
370
     0
100
AcDbSpline
210
0.0
220
0.0
230
1.0
 70
     8
 71
     3
 72
    18
 73
    14
 74
     0
 42
0.00000001
 43
0.00000001
 40
0.0
 40
0.0
 40
0.0
 40
0.0
 40
0.2500000000000033
 40
0.2500000000000033
 40
0.3750000000000029
 40
0.3750000000000029
 40
0.5000000000000026
 40
0.5000000000000026
 40
0.6250000000000022
 40
0.6250000000000022
 40
0.7500000000000018
 40
0.7500000000000018
 40
1.0
 40
1.0
 40
1.0
 40
1.0
 10
91.40195853005476
 20
123.4921723439644
 30
0.0
 10
91.40195853005474
 20
123.4376978234122
 30
0.0
 10
91.36704783866256
 20
123.3813167640597
 30
0.0
 10
91.26503853732952
 20
123.2972399232062
 30
0.0
 10
91.2234021826514
 20
123.2699062192153
 30
0.0
 10
91.12499638716267
 20
123.2169523036163
 30
0.0
 10
91.0674531754584
 20
123.1910649498992
 30
0.0
 10
90.94015500188543
 20
123.1432874050659
 30
0.0
 10
90.87056769712797
 20
123.121339486888
 30
0.0
 10
90.71913345197301
 20
123.0819069219753
 30
0.0
 10
90.63644954887906
 20
123.0643506727495
 30
0.0
 10
90.38033808684101
 20
123.0219119073289
 30
0.0
 10
90.19242308295303
 20
123.0061491575919
 30
0.0
 10
90.00195853005474
 20
123.0061491575919
 30
0.0
  0
LINE
  5
E4
330
1F
100
AcDbEntity
  8
0
  6
HIDDEN
 62
     7
370
     0
100
AcDbLine
 10
90.0019585301
 20
123.0061491576
 30
0.0
 11
86.6019585334
 21
123.0061491576
 31
0.0
  0
LINE
  5
E5
330
1F
100
AcDbEntity
  8
0
  6
HIDDEN
 62
     7
370
     0
100
AcDbLine
 10
86.5329895434
 20
91.4031682855
 30
0.0
 11
94.0019585301
 21
91.4031682855
 31
0.0
  0
SPLINE
  5
E6
330
1F
100
AcDbEntity
  8
0
  6
HIDDEN
 62
     7
370
     0
100
AcDbSpline
210
0.0
220
0.0
230
1.0
 70
     8
 71
     3
 72
    22
 73
    18
 74
     0
 42
0.00000001
 43
0.00000001
 40
0.0
 40
0.0
 40
0.0
 40
0.0
 40
0.125
 40
0.125
 40
0.25
 40
0.25
 40
0.5000000000000001
 40
0.5000000000000001
 40
0.5625000000000001
 40
0.5625000000000001
 40
0.6250000000000001
 40
0.6250000000000001
 40
0.75
 40
0.75
 40
0.875
 40
0.875
 40
1.0
 40
1.0
 40
1.0
 40
1.0
 10
86.53298954341264
 20
91.40316828552862
 30
0.0
 10
86.51990715068426
 20
91.6582739956763
 30
0.0
 10
86.50668758724441
 20
91.9514322547802
 30
0.0
 10
86.48424040945032
 20
92.613732720405
 30
0.0
 10
86.47476194242587
 20
92.98400664101639
 30
0.0
 10
86.45556398148936
 20
94.20656344413017
 30
0.0
 10
86.45667775448624
 20
95.14370237026203
 30
0.0
 10
86.4755885474393
 20
96.46357359977704
 30
0.0
 10
86.4802180752983
 20
96.73507550875334
 30
0.0
 10
86.49069929504424
 20
97.29346034355564
 30
0.0
 10
86.49649455632867
 20
97.58058319949525
 30
0.0
 10
86.5148037772336
 20
98.45317245386694
 30
0.0
 10
86.52883871151397
 20
99.05362813022279
 30
0.0
 10
86.55829588365081
 20
100.2911026227189
 30
0.0
 10
86.57385157463237
 20
100.9281187793623
 30
0.0
 10
86.59764612462926
 20
102.2396073770469
 30
0.0
 10
86.60566517677462
 20
102.9157299887074
 30
0.0
 10
86.60195853005473
 20
103.6000250999922
 30
0.0
  0
LINE
  5
E7
330
1F
100
AcDbEntity
  8
0
  6
HIDDEN
 62
     7
370
     0
100
AcDbLine
 10
86.6019585334
 20
110.8092923431
 30
0.0
 11
86.6019585334
 21
123.0061491576
 31
0.0
  0
SPLINE
  5
E8
330
1F
100
AcDbEntity
  8
0
  6
HIDDEN
 62
     7
370
     0
100
AcDbSpline
210
0.0
220
0.0
230
1.0
 70
     8
 71
     3
 72
    10
 73
     6
 74
     0
 42
0.00000001
 43
0.00000001
 40
0.0
 40
0.0
 40
0.0
 40
0.0
 40
0.5
 40
0.5
 40
1.0
 40
1.0
 40
1.0
 40
1.0
 10
86.60195853005473
 20
103.6000250999771
 30
0.0
 10
86.60195853005456
 20
103.8739402480512
 30
0.0
 10
86.57619930018573
 20
104.1448818267808
 30
0.0
 10
86.4729933674523
 20
104.680572908383
 30
0.0
 10
86.3956552035779
 20
104.9463197119047
 30
0.0
 10
86.30195853005473
 20
105.2079584193421
 30
0.0
  0
SPLINE
  5
E9
330
1F
100
AcDbEntity
  8
0
  6
HIDDEN
 62
     7
370
     0
100
AcDbSpline
210
0.0
220
0.0
230
1.0
 70
     8
 71
     3
 72
    10
 73
     6
 74
     0
 42
0.00000001
 43
0.00000001
 40
0.0
 40
0.0
 40
0.0
 40
0.0
 40
0.5
 40
0.5
 40
1.0
 40
1.0
 40
1.0
 40
1.0
 10
86.30195853005473
 20
109.1917870149267
 30
0.0
 10
86.3951891114455
 20
109.4556808229965
 30
0.0
 10
86.47021872368208
 20
109.7218611336345
 30
0.0
 10
86.5752858228599
 20
110.260183708592
 30
0.0
 10
86.60195853344597
 20
110.5329318248373
 30
0.0
 10
86.60195853344716
 20
110.8092923431274
 30
0.0
  0
LINE
  5
EA
330
1F
100
AcDbEntity
  8
0
  6
HIDDEN
 62
     7
370
     0
100
AcDbLine
 10
86.3019585301
 20
105.2079584193
 30
0.0
 11
86.3019585301
 21
109.1917870149
 31
0.0
  0
LINE
  5
EB
330
1F
100
AcDbEntity
  8
0
  6
HIDDEN
 62
     7
370
     0
100
AcDbLine
 10
86.4519585301
 20
89.2146587216
 30
0.0
 11
86.4519585301
 21
86.3347209562
 31
0.0
  0
LINE
  5
EC
330
1F
100
AcDbEntity
  8
0
  6
HIDDEN
 62
     7
370
     0
100
AcDbLine
 10
95.4019585301
 20
89.2146587216
 30
0.0
 11
95.4019585301
 21
85.2409211904
 31
0.0
  0
LINE
  5
ED
330
1F
100
AcDbEntity
  8
0
  6
HIDDEN
 62
     7
370
     0
100
AcDbLine
 10
86.4519585301
 20
125.1946587216
 30
0.0
 11
86.4519585301
 21
128.074596487
 31
0.0
  0
LINE
  5
EE
330
1F
100
AcDbEntity
  8
0
  6
HIDDEN
 62
     7
370
     0
100
AcDbLine
 10
91.4019585301
 20
125.1946587216
 30
0.0
 11
91.4019585301
 21
129.0487663939
 31
0.0
  0
LINE
  5
EF
330
1F
100
AcDbEntity
  8
0
  6
HIDDEN
 62
     7
370
     0
100
AcDbLine
 10
136.0019585301
 20
97.7046587216
 30
0.0
 11
136.0019585301
 21
116.7046587216
 31
0.0
  0
LINE
  5
F0
330
1F
100
AcDbEntity
  8
0
  6
HIDDEN
 62
     7
370
     0
100
AcDbLine
 10
139.0019585301
 20
97.7046587216
 30
0.0
 11
139.0019585301
 21
116.7046587216
 31
0.0
  0
LINE
  5
F1
330
1F
100
AcDbEntity
  8
0
  6
HIDDEN
 62
     7
370
     0
100
AcDbLine
 10
127.6519585301
 20
98.7046587216
 30
0.0
 11
127.6519585301
 21
115.7046587216
 31
0.0
  0
LINE
  5
F2
330
1F
100
AcDbEntity
  8
0
  6
HIDDEN
 62
     7
370
     0
100
AcDbLine
 10
122.1519585301
 20
75.7205357387
 30
0.0
 11
122.1519585301
 21
80.8046587216
 31
0.0
  0
LINE
  5
F3
330
1F
100
AcDbEntity
  8
0
  6
HIDDEN
 62
     7
370
     0
100
AcDbLine
 10
130.1519585301
 20
80.8046587216
 30
0.0
 11
122.1519585301
 21
80.8046587216
 31
0.0
  0
LINE
  5
F4
330
1F
100
AcDbEntity
  8
0
  6
HIDDEN
 62
     7
370
     0
100
AcDbLine
 10
133.3896333324
 20
80.8046587216
 30
0.0
 11
130.1519585301
 21
80.8046587216
 31
0.0
  0
LINE
  5
F5
330
1F
100
AcDbEntity
  8
0
  6
HIDDEN
 62
     7
370
     0
100
AcDbLine
 10
143.1519585301
 20
80.8046587216
 30
0.0
 11
137.0142837277
 21
80.8046587216
 31
0.0
  0
LINE
  5
F6
330
1F
100
AcDbEntity
  8
0
  6
HIDDEN
 62
     7
370
     0
100
AcDbLine
 10
130.1519585301
 20
133.6046587216
 30
0.0
 11
122.1519585301
 21
133.6046587216
 31
0.0
  0
LINE
  5
F7
330
1F
100
AcDbEntity
  8
0
  6
HIDDEN
 62
     7
370
     0
100
AcDbLine
 10
143.1519585301
 20
133.6046587216
 30
0.0
 11
136.7176609984
 21
133.6046587216
 31
0.0
  0
LINE
  5
F8
330
1F
100
AcDbEntity
  8
0
  6
HIDDEN
 62
     7
370
     0
100
AcDbLine
 10
133.6862560617
 20
133.6046587216
 30
0.0
 11
130.1519585301
 21
133.6046587216
 31
0.0
  0
LINE
  5
F9
330
1F
100
AcDbEntity
  8
0
  6
HIDDEN
 62
     7
370
     0
100
AcDbLine
 10
203.7019585301
 20
100.2046587216
 30
0.0
 11
203.7019585301
 21
114.2046587216
 31
0.0
  0
SPLINE
  5
FA
330
1F
100
AcDbEntity
  8
0
  6
HIDDEN
 62
     7
370
     0
100
AcDbSpline
210
0.0
220
0.0
230
1.0
 70
     8
 71
     3
 72
    11
 73
     7
 74
     0
 42
0.00000001
 43
0.00000001
 40
0.0
 40
0.0
 40
0.0
 40
0.0
 40
0.0008203708524183
 40
0.0008203708524183
 40
0.0008203708524183
 40
0.0016409967870154
 40
0.0016409967870154
 40
0.0016409967870154
 40
0.0016409967870154
 10
86.45195853005474
 20
91.35262597091756
 30
0.0
 10
86.26080022975607
 20
91.31144694229843
 30
0.0
 10
86.06937315968389
 20
91.27269297006842
 30
0.0
 10
85.87772753616326
 20
91.23632521078987
 30
0.0
 10
85.68602213108281
 20
91.19994610702383
 30
0.0
 10
85.49408317902385
 20
91.16595185625629
 30
0.0
 10
85.30195853195303
 20
91.13430373086507
 30
0.0
  0
ELLIPSE
  5
FB
330
1F
100
AcDbEntity
  8
0
  6
HIDDEN
 62
     7
370
     0
100
AcDbEllipse
 10
81.0595266614
 20
107.2046587216
 30
0.0
 11
20.19992453367506
 21
-1.421085471520200E-14
 31
0.0
210
0.0
220
0.0
230
1.0
 40
0.8164965809
 41
1.300566354717479
 42
1.359198697209065
  0
LINE
  5
FC
330
1F
100
AcDbEntity
  8
0
  6
HIDDEN
 62
     7
370
     0
100
AcDbLine
 10
160.7019585301
 20
100.3046587216
 30
0.0
 11
160.7019585301
 21
114.1046587216
 31
0.0
  0
LINE
  5
FD
330
1F
100
AcDbEntity
  8
0
  6
HIDDEN
 62
     7
370
     0
100
AcDbLine
 10
171.2019585301
 20
100.2046587216
 30
0.0
 11
171.2019585301
 21
114.2046587216
 31
0.0
  0
LINE
  5
FE
330
1F
100
AcDbEntity
  8
0
  6
HIDDEN
 62
     7
370
     0
100
AcDbLine
 10
86.4519585301
 20
89.2146587216
 30
0.0
 11
86.4519585301
 21
91.3526259709
 31
0.0
  0
LINE
  5
FF
330
1F
100
AcDbEntity
  8
0
  6
HIDDEN
 62
     7
370
     0
100
AcDbLine
 10
86.5329895434
 20
91.4031682855
 30
0.0
 11
86.4519585301
 21
91.3526259709
 31
0.0
  0
LINE
  5
100
330
1F
100
AcDbEntity
  8
0
  6
HIDDEN
 62
     7
370
     0
100
AcDbLine
 10
95.4019585301
 20
89.2146587216
 30
0.0
 11
95.4019585301
 21
90.9171450992
 31
0.0
  0
LINE
  5
101
330
1F
100
AcDbEntity
  8
0
  6
HIDDEN
 62
     7
370
     0
100
AcDbLine
 10
86.4519585301
 20
125.1946587216
 30
0.0
 11
86.4519585301
 21
123.0992831726
 31
0.0
  0
SPLINE
  5
102
330
1F
100
AcDbEntity
  8
0
  6
HIDDEN
 62
     7
370
     0
100
AcDbSpline
210
0.0
220
0.0
230
1.0
 70
     8
 71
     3
 72
     8
 73
     4
 74
     0
 42
0.00000001
 43
0.00000001
 40
0.0
 40
0.0
 40
0.0
 40
0.0
 40
1.0
 40
1.0
 40
1.0
 40
1.0
 10
86.45195853005474
 20
123.0992831726185
 30
0.0
 10
86.5019640289982
 20
123.0682473983995
 30
0.0
 10
86.55196409966233
 20
123.0372027533721
 30
0.0
 10
86.60195853344717
 20
123.0061491575919
 30
0.0
  0
LINE
  5
103
330
1F
100
AcDbEntity
  8
0
  6
HIDDEN
 62
     7
370
     0
100
AcDbLine
 10
91.4019585301
 20
125.1946587216
 30
0.0
 11
91.4019585301
 21
123.492172344
 31
0.0
  0
SPLINE
  5
104
330
1F
100
AcDbEntity
  8
0
  6
HIDDEN
 62
     7
370
     0
100
AcDbSpline
210
0.0
220
0.0
230
1.0
 70
     8
 71
     3
 72
    20
 73
    16
 74
     0
 42
0.00000001
 43
0.00000001
 40
0.0
 40
0.0
 40
0.0
 40
0.0
 40
0.1118786269510154
 40
0.1773979215610288
 40
0.2490195889742125
 40
0.3297681587315146
 40
0.3985406621494461
 40
0.4998205517609191
 40
0.6137858465292498
 40
0.6789518746357313
 40
0.7494784848311067
 40
0.8296245672851178
 40
0.8980683436267622
 40
0.9994789071886779
 40
1.0
 40
1.0
 40
1.0
 40
1.0
 10
111.9506264601803
 20
83.60471102367336
 30
0.0
 10
111.9073269847977
 20
83.61813198615019
 30
0.0
 10
111.8386701095133
 20
83.63941264460681
 30
0.0
 10
111.3936149038429
 20
83.74269411905242
 30
0.0
 10
110.8670631940461
 20
83.85599596471923
 30
0.0
 10
110.1816362162648
 20
83.9789292452332
 30
0.0
 10
109.2883193206523
 20
84.10096359523648
 30
0.0
 10
108.1749597866207
 20
84.2186999519285
 30
0.0
 10
107.0641855864741
 20
84.2306754078932
 30
0.0
 10
106.1794376976966
 20
84.20361719939875
 30
0.0
 10
105.5122395740685
 20
84.15568484375929
 30
0.0
 10
104.9709733519412
 20
84.09939252200712
 30
0.0
 10
104.5833695287376
 20
84.05430508656542
 30
0.0
 10
104.38945320236
 20
84.01543508500744
 30
0.0
 10
104.4526194926967
 20
84.02615258862825
 30
0.0
 10
104.4529424100414
 20
84.02620737841869
 30
0.0
  0
LINE
  5
105
330
1F
100
AcDbEntity
  8
0
  6
HIDDEN
 62
     7
370
     0
100
AcDbLine
 10
105.3619704152
 20
84.1369968623
 30
0.0
 11
105.545815761
 21
84.155186208
 31
0.0
  0
SPLINE
  5
106
330
1F
100
AcDbEntity
  8
0
  6
HIDDEN
 62
     7
370
     0
100
AcDbSpline
210
0.0
220
0.0
230
1.0
 70
     8
 71
     3
 72
    27
 73
    23
 74
     0
 42
0.00000001
 43
0.00000001
 40
0.0
 40
0.0
 40
0.0
 40
0.0
 40
0.0007986994278639
 40
0.0456811094994186
 40
0.102262647185251
 40
0.1705405828807478
 40
0.2091321676595086
 40
0.2506593126691519
 40
0.321104930689354
 40
0.386198517870619
 40
0.4266775761166628
 40
0.4648087427533156
 40
0.5006129785156129
 40
0.545204642133675
 40
0.6016987705746808
 40
0.6701045906112484
 40
0.7088418330504622
 40
0.750570484130236
 40
0.8222349075335305
 40
0.8877741841532816
 40
0.9472478048911116
 40
1.0
 40
1.0
 40
1.0
 40
1.0
 10
104.4526189768139
 20
130.3830745936183
 30
0.0
 10
104.4523993915043
 20
130.3831219281032
 30
0.0
 10
104.4398403483644
 20
130.3858291940836
 30
0.0
 10
104.4889199327949
 20
130.3739965254553
 30
0.0
 10
104.6340205692344
 20
130.3505532168633
 30
0.0
 10
104.9070739273781
 20
130.3166487930366
 30
0.0
 10
105.2356002147175
 20
130.2830800402616
 30
0.0
 10
105.6283280296123
 20
130.2448966900368
 30
0.0
 10
106.1780559820366
 20
130.2059280224472
 30
0.0
 10
106.8040786327633
 20
130.1864669165541
 30
0.0
 10
107.3472701419968
 20
130.1842812387876
 30
0.0
 10
107.792339038826
 20
130.1927961197883
 30
0.0
 10
108.2587868356553
 20
130.2125795165917
 30
0.0
 10
108.7960274858831
 20
130.2567419020286
 30
0.0
 10
109.4442409160844
 20
130.3291575216088
 30
0.0
 10
110.0297795513935
 20
130.4100596160471
 30
0.0
 10
110.5107491528881
 20
130.488225601199
 30
0.0
 10
110.9561641044953
 20
130.5729977540531
 30
0.0
 10
111.394663479125
 20
130.6667807086236
 30
0.0
 10
111.7336899950768
 20
130.7446847945515
 30
0.0
 10
111.9210398151067
 20
130.7948788605416
 30
0.0
 10
111.9415300695924
 20
130.8015455762633
 30
0.0
 10
111.9511615959423
 20
130.8046792927423
 30
0.0
  0
ELLIPSE
  5
107
330
1F
100
AcDbEntity
  8
0
  6
HIDDEN
 62
     7
370
     0
100
AcDbEllipse
 10
81.2095266657
 20
107.2046587216
 30
0.0
 11
19.9401169077032
 21
-1.421085471520200E-14
 31
0.0
210
0.0
220
0.0
230
1.0
 40
0.8164965809
 41
1.312549137476569
 42
1.364091388456587
  0
LINE
  5
108
330
1F
100
AcDbEntity
  8
0
  6
HIDDEN
 62
     7
370
     0
100
AcDbLine
 10
86.4519585301
 20
123.0992831726
 30
0.0
 11
86.4519585301
 21
123.0061491576
 31
0.0
  0
LINE
  5
109
330
1F
100
AcDbEntity
  8
0
  6
HIDDEN
 62
     7
370
     0
100
AcDbLine
 10
86.4519585301
 20
91.3526259709
 30
0.0
 11
86.4519585301
 21
91.4031682855
 31
0.0
  0
ELLIPSE
  5
10A
330
1F
100
AcDbEntity
  8
0
  6
HIDDEN
 62
     7
370
     0
100
AcDbEllipse
 10
81.2095266657
 20
107.2046587216
 30
0.0
 11
19.9401169077032
 21
-1.421085471520200E-14
 31
0.0
210
0.0
220
0.0
230
1.0
 40
0.8164965809
 41
4.919093918723012
 42
4.970636169703031
  0
LWPOLYLINE
  5
10B
330
1F
100
AcDbEntity
  8
0
  6
HIDDEN
 62
     7
370
     0
100
AcDbPolyline
 90
        3
 70
   128
 43
0.0
 10
85.3019585301
 20
122.1973009749
 10
85.8019687657
 20
121.9358252917
 10
86.3019585301
 20
121.6743343558
  0
SPLINE
  5
10C
330
1F
100
AcDbEntity
  8
0
  6
HIDDEN
 62
     7
370
     0
100
AcDbSpline
210
0.0
220
0.0
230
1.0
 70
     8
 71
     3
 72
    11
 73
     7
 74
     0
 42
0.00000001
 43
0.00000001
 40
0.0
 40
0.0
 40
0.0
 40
0.0
 40
0.0005781292547901
 40
0.0005781292547901
 40
0.0005781292547901
 40
0.0011562593522366
 40
0.0011562593522366
 40
0.0011562593522366
 40
0.0011562593522366
 10
86.30195853005475
 20
92.73530534004364
 30
0.0
 10
86.13531036611424
 20
92.64795233401473
 30
0.0
 10
85.96865255920768
 20
92.56066415737793
 30
0.0
 10
85.8019858103878
 20
92.47343969531101
 30
0.0
 10
85.63531881807022
 20
92.38621510581041
 30
0.0
 10
85.46864282212952
 20
92.29905421628351
 30
0.0
 10
85.30195853005468
 20
92.21195536414632
 30
0.0
  0
LINE
  5
10D
330
1F
100
AcDbEntity
  8
0
  6
HIDDEN
 62
     7
370
     0
100
AcDbLine
 10
133.2919585301
 20
127.340525353
 30
0.0
 11
133.2919585301
 21
127.0546587216
 31
0.0
  0
LINE
  5
10E
330
1F
100
AcDbEntity
  8
0
  6
HIDDEN
 62
     7
370
     0
100
AcDbLine
 10
137.1119585301
 20
127.340525353
 30
0.0
 11
137.1119585301
 21
127.0546587216
 31
0.0
  0
LINE
  5
10F
330
1F
100
AcDbEntity
  8
0
  6
HIDDEN
 62
     7
370
     0
100
AcDbLine
 10
138.5938913615
 20
131.6633483839
 30
0.0
 11
138.5938913615
 21
127.0546587216
 31
0.0
  0
CIRCLE
  5
110
330
1F
100
AcDbEntity
  8
0
  6
HIDDEN
 62
     7
370
     0
100
AcDbCircle
 10
124.2019585301
 20
107.2046587216
 30
0.0
 40
5.0
  0
LINE
  5
111
330
1F
100
AcDbEntity
  8
0
  6
HIDDEN
 62
     7
370
     0
100
AcDbLine
 10
160.2019585301
 20
102.2046587216
 30
0.0
 11
160.7019585301
 21
102.7046587216
 31
0.0
  0
LINE
  5
112
330
1F
100
AcDbEntity
  8
0
  6
HIDDEN
 62
     7
370
     0
100
AcDbLine
 10
160.7019585301
 20
111.7046587216
 30
0.0
 11
160.2019585301
 21
112.2046587216
 31
0.0
  0
LINE
  5
113
330
1F
100
AcDbEntity
  8
0
  6
HIDDEN
 62
     7
370
     0
100
AcDbLine
 10
144.7019585301
 20
102.2046587216
 30
0.0
 11
160.2019585301
 21
102.2046587216
 31
0.0
  0
LINE
  5
114
330
1F
100
AcDbEntity
  8
0
  6
HIDDEN
 62
     7
370
     0
100
AcDbLine
 10
160.2019585301
 20
112.2046587216
 30
0.0
 11
144.7019585301
 21
112.2046587216
 31
0.0
  0
LINE
  5
115
330
1F
100
AcDbEntity
  8
0
  6
HIDDEN
 62
     7
370
     0
100
AcDbLine
 10
144.7019585301
 20
112.2046587216
 30
0.0
 11
144.2019585301
 21
111.7046587216
 31
0.0
  0
LINE
  5
116
330
1F
100
AcDbEntity
  8
0
  6
HIDDEN
 62
     7
370
     0
100
AcDbLine
 10
144.2019585301
 20
102.7046587216
 30
0.0
 11
144.7019585301
 21
102.2046587216
 31
0.0
  0
LINE
  5
117
330
1F
100
AcDbEntity
  8
0
  6
HIDDEN
 62
     7
370
     0
100
AcDbLine
 10
160.7019585301
 20
102.7046587216
 30
0.0
 11
164.2019585301
 21
102.7046587216
 31
0.0
  0
LINE
  5
118
330
1F
100
AcDbEntity
  8
0
  6
HIDDEN
 62
     7
370
     0
100
AcDbLine
 10
164.2019585301
 20
111.7046587216
 30
0.0
 11
160.7019585301
 21
111.7046587216
 31
0.0
  0
LINE
  5
119
330
1F
100
AcDbEntity
  8
0
  6
HIDDEN
 62
     7
370
     0
100
AcDbLine
 10
150.20195853
 20
104.7046587216
 30
0.0
 11
158.2019585301
 21
104.7046587216
 31
0.0
  0
LINE
  5
11A
330
1F
100
AcDbEntity
  8
0
  6
HIDDEN
 62
     7
370
     0
100
AcDbLine
 10
158.2019585301
 20
109.7046587216
 30
0.0
 11
150.20195853
 21
109.7046587216
 31
0.0
  0
LINE
  5
11B
330
1F
100
AcDbEntity
  8
0
  6
HIDDEN
 62
     7
370
     0
100
AcDbLine
 10
129.2019585301
 20
119.5985993644
 30
0.0
 11
129.2019585301
 21
121.5024917018
 31
0.0
  0
LINE
  5
11C
330
1F
100
AcDbEntity
  8
0
  6
HIDDEN
 62
     7
370
     0
100
AcDbLine
 10
121.2019585301
 20
121.5053594634
 30
0.0
 11
121.2019585301
 21
119.5985993644
 31
0.0
  0
LINE
  5
11D
330
1F
100
AcDbEntity
  8
0
  6
HIDDEN
 62
     7
370
     0
100
AcDbLine
 10
117.2019585301
 20
81.8807275756
 30
0.0
 11
117.2961193056
 21
82.5507163068
 31
0.0
  0
LINE
  5
11E
330
1F
100
AcDbEntity
  8
0
  6
HIDDEN
 62
     7
370
     0
100
AcDbLine
 10
117.2961193056
 20
131.8586011363
 30
0.0
 11
117.2019585301
 21
132.5285898675
 31
0.0
  0
ARC
  5
11F
330
1F
100
AcDbEntity
  8
0
  6
HIDDEN
 62
     7
370
     0
100
AcDbCircle
 10
116.7019517774
 20
82.6342211072
 30
0.0
 40
0.6000067526677203
100
AcDbArc
 50
352.0
 51
0.0
  0
ARC
  5
120
330
1F
100
AcDbEntity
  8
0
  6
HIDDEN
 62
     7
370
     0
100
AcDbCircle
 10
116.7019517774
 20
82.6342211072
 30
0.0
 40
0.6000067526677124
100
AcDbArc
 50
0.0
 51
33.5571153394
  0
ARC
  5
121
330
1F
100
AcDbEntity
  8
0
  6
HIDDEN
 62
     7
370
     0
100
AcDbCircle
 10
116.7019517774
 20
131.775096336
 30
0.0
 40
0.6000067526677183
100
AcDbArc
 50
348.75
 51
8.0
  0
LWPOLYLINE
  5
122
330
1F
100
AcDbEntity
  8
0
  6
HIDDEN
 62
     7
370
     0
100
AcDbPolyline
 90
        3
 70
   128
 43
0.0
 10
117.2904295685
 20
131.6580408254
 10
117.2562857355
 20
131.5454836924
 10
117.2019585301
 20
131.4434318209
  0
LINE
  5
123
330
1F
100
AcDbEntity
  8
0
  6
HIDDEN
 62
     7
370
     0
100
AcDbLine
 10
117.3019585301
 20
82.6342211072
 30
0.0
 11
117.3019585301
 21
131.775096336
 31
0.0
  0
ARC
  5
124
330
1F
100
AcDbEntity
  8
0
  6
HIDDEN
 62
     7
370
     0
100
AcDbCircle
 10
110.9569605317
 20
95.2046587216
 30
0.0
 40
8.000000000000002
100
AcDbArc
 50
277.0469061746
 51
321.3178125465
  0
ARC
  5
125
330
1F
100
AcDbEntity
  8
0
  6
HIDDEN
 62
     7
370
     0
100
AcDbCircle
 10
110.9569605317
 20
119.2046587216
 30
0.0
 40
7.999999999999999
100
AcDbArc
 50
38.6821874535
 51
82.8514228101
  0
ARC
  5
126
330
1F
100
AcDbEntity
  8
0
  6
HIDDEN
 62
     7
370
     0
100
AcDbCircle
 10
100.2843940954
 20
87.8046587216
 30
0.0
 40
0.6000000000000084
100
AcDbArc
 50
210.0
 51
270.0
  0
ARC
  5
127
330
1F
100
AcDbEntity
  8
0
  6
HIDDEN
 62
     7
370
     0
100
AcDbCircle
 10
100.2843940954
 20
126.6046587216
 30
0.0
 40
0.6000000000000013
100
AcDbArc
 50
90.0
 51
150.0
  0
LINE
  5
128
330
1F
100
AcDbEntity
  8
0
  6
HIDDEN
 62
     7
370
     0
100
AcDbLine
 10
100.2843940954
 20
87.2046587216
 30
0.0
 11
104.4619306717
 21
87.2046587216
 31
0.0
  0
LINE
  5
129
330
1F
100
AcDbEntity
  8
0
  6
HIDDEN
 62
     7
370
     0
100
AcDbLine
 10
104.4550759112
 20
127.2046587216
 30
0.0
 11
100.2843940954
 21
127.2046587216
 31
0.0
  0
LINE
  5
12A
330
1F
100
AcDbEntity
  8
0
  6
HIDDEN
 62
     7
370
     0
100
AcDbLine
 10
143.155185488
 20
127.0655496488
 30
0.0
 11
143.1519585301
 21
127.2046587216
 31
0.0
  0
LINE
  5
12B
330
1F
100
AcDbEntity
  8
0
  6
HIDDEN
 62
     7
370
     0
100
AcDbLine
 10
99.7647788531
 20
126.9046587216
 30
0.0
 11
98.2059331263
 21
124.2046587216
 31
0.0
  0
LINE
  5
12C
330
1F
100
AcDbEntity
  8
0
  6
HIDDEN
 62
     7
370
     0
100
AcDbLine
 10
98.2059331263
 20
90.2046587216
 30
0.0
 11
99.7647788531
 21
87.5046587216
 31
0.0
  0
LINE
  5
12D
330
1F
100
AcDbEntity
  8
0
  6
HIDDEN
 62
     7
370
     0
100
AcDbLine
 10
129.2019585301
 20
131.1502611362
 30
0.0
 11
129.2019585301
 21
134.4789884422
 31
0.0
  0
LINE
  5
12E
330
1F
100
AcDbEntity
  8
0
  6
HIDDEN
 62
     7
370
     0
100
AcDbLine
 10
121.2019585301
 20
134.4844589408
 30
0.0
 11
121.2019585301
 21
131.1502611362
 31
0.0
  0
ARC
  5
12F
330
1F
100
AcDbEntity
  8
0
  6
HIDDEN
 62
     7
370
     0
100
AcDbCircle
 10
125.6519585301
 20
91.4796587216
 30
0.0
 40
1.5
100
AcDbArc
 50
238.2116693829
 51
0.0
  0
ARC
  5
130
330
1F
100
AcDbEntity
  8
0
  6
HIDDEN
 62
     7
370
     0
100
AcDbCircle
 10
125.6519585301
 20
122.9296587216
 30
0.0
 40
1.5
100
AcDbArc
 50
0.0
 51
121.7883306171
  0
LINE
  5
131
330
1F
100
AcDbEntity
  8
0
  6
HIDDEN
 62
     7
370
     0
100
AcDbLine
 10
95.4019585301
 20
90.2046587216
 30
0.0
 11
98.2059331263
 21
90.2046587216
 31
0.0
  0
LINE
  5
132
330
1F
100
AcDbEntity
  8
0
  6
HIDDEN
 62
     7
370
     0
100
AcDbLine
 10
98.2059331263
 20
124.2046587216
 30
0.0
 11
91.4019585301
 21
124.2046587216
 31
0.0
  0
LINE
  5
133
330
1F
100
AcDbEntity
  8
0
  6
HIDDEN
 62
     7
370
     0
100
AcDbLine
 10
117.2019585301
 20
90.2046587216
 30
0.0
 11
124.8617844986
 21
90.2046587216
 31
0.0
  0
LINE
  5
134
330
1F
100
AcDbEntity
  8
0
  6
HIDDEN
 62
     7
370
     0
100
AcDbLine
 10
124.8617844986
 20
124.2046587216
 30
0.0
 11
117.2019585301
 21
124.2046587216
 31
0.0
  0
LINE
  5
135
330
1F
100
AcDbEntity
  8
0
  6
HIDDEN
 62
     7
370
     0
100
AcDbLine
 10
136.0019585301
 20
97.7046587216
 30
0.0
 11
139.0019585301
 21
97.7046587216
 31
0.0
  0
LINE
  5
136
330
1F
100
AcDbEntity
  8
0
  6
HIDDEN
 62
     7
370
     0
100
AcDbLine
 10
139.0019585301
 20
116.7046587216
 30
0.0
 11
136.0019585301
 21
116.7046587216
 31
0.0
  0
LINE
  5
137
330
1F
100
AcDbEntity
  8
0
  6
HIDDEN
 62
     7
370
     0
100
AcDbLine
 10
127.1519585301
 20
98.2046587216
 30
0.0
 11
127.6519585301
 21
98.7046587216
 31
0.0
  0
LINE
  5
138
330
1F
100
AcDbEntity
  8
0
  6
HIDDEN
 62
     7
370
     0
100
AcDbLine
 10
127.6519585301
 20
115.7046587216
 30
0.0
 11
127.1519585301
 21
116.2046587216
 31
0.0
  0
LINE
  5
139
330
1F
100
AcDbEntity
  8
0
  6
HIDDEN
 62
     7
370
     0
100
AcDbLine
 10
127.6519585301
 20
98.7046587216
 30
0.0
 11
136.0019585301
 21
98.7046587216
 31
0.0
  0
LINE
  5
13A
330
1F
100
AcDbEntity
  8
0
  6
HIDDEN
 62
     7
370
     0
100
AcDbLine
 10
136.0019585301
 20
115.7046587216
 30
0.0
 11
127.6519585301
 21
115.7046587216
 31
0.0
  0
ARC
  5
13B
330
1F
100
AcDbEntity
  8
0
  6
HIDDEN
 62
     7
370
     0
100
AcDbCircle
 10
206.7019585301
 20
99.1679644735
 30
0.0
 40
0.5000000000000284
100
AcDbArc
 50
0.0
 51
80.0
  0
ARC
  5
13C
330
1F
100
AcDbEntity
  8
0
  6
HIDDEN
 62
     7
370
     0
100
AcDbCircle
 10
206.7019585301
 20
115.2413529696
 30
0.0
 40
0.5000000000000284
100
AcDbArc
 50
280.0
 51
0.0
  0
LINE
  5
13D
330
1F
100
AcDbEntity
  8
0
  6
HIDDEN
 62
     7
370
     0
100
AcDbLine
 10
122.1519585301
 20
138.7046587216
 30
0.0
 11
122.1519585301
 21
133.6046587216
 31
0.0
  0
LINE
  5
13E
330
1F
100
AcDbEntity
  8
0
  6
HIDDEN
 62
     7
370
     0
100
AcDbLine
 10
206.7887826189
 20
114.7489490931
 30
0.0
 11
203.7019585301
 21
114.2046587216
 31
0.0
  0
LINE
  5
13F
330
1F
100
AcDbEntity
  8
0
  6
HIDDEN
 62
     7
370
     0
100
AcDbLine
 10
203.7019585301
 20
100.2046587216
 30
0.0
 11
206.7887826189
 21
99.66036835
 31
0.0
  0
ARC
  5
140
330
1F
100
AcDbEntity
  8
0
  6
HIDDEN
 62
     7
370
     0
100
AcDbCircle
 10
170.3071845119
 20
100.3046587216
 30
0.0
 40
0.4000000000000074
100
AcDbArc
 50
270.0
 51
290.0
  0
ARC
  5
141
330
1F
100
AcDbEntity
  8
0
  6
HIDDEN
 62
     7
370
     0
100
AcDbCircle
 10
170.3071845119
 20
114.1046587216
 30
0.0
 40
0.4000000000000074
100
AcDbArc
 50
70.0
 51
90.0
  0
LINE
  5
142
330
1F
100
AcDbEntity
  8
0
  6
HIDDEN
 62
     7
370
     0
100
AcDbLine
 10
161.1019585301
 20
99.9046587216
 30
0.0
 11
170.3071845119
 21
99.9046587216
 31
0.0
  0
LINE
  5
143
330
1F
100
AcDbEntity
  8
0
  6
HIDDEN
 62
     7
370
     0
100
AcDbLine
 10
170.3071845119
 20
114.5046587216
 30
0.0
 11
161.1019585301
 21
114.5046587216
 31
0.0
  0
ARC
  5
144
330
1F
100
AcDbEntity
  8
0
  6
HIDDEN
 62
     7
370
     0
100
AcDbCircle
 10
161.1019585301
 20
100.3046587216
 30
0.0
 40
0.4000000000000057
100
AcDbArc
 50
180.0
 51
270.0
  0
ARC
  5
145
330
1F
100
AcDbEntity
  8
0
  6
HIDDEN
 62
     7
370
     0
100
AcDbCircle
 10
161.1019585301
 20
114.1046587216
 30
0.0
 40
0.4000000000000057
100
AcDbArc
 50
90.0
 51
180.0
  0
LINE
  5
146
330
1F
100
AcDbEntity
  8
0
  6
HIDDEN
 62
     7
370
     0
100
AcDbLine
 10
170.4439925693
 20
99.9287816732
 30
0.0
 11
171.2019585301
 21
100.2046587216
 31
0.0
  0
LINE
  5
147
330
1F
100
AcDbEntity
  8
0
  6
HIDDEN
 62
     7
370
     0
100
AcDbLine
 10
171.2019585301
 20
114.2046587216
 30
0.0
 11
170.4439925693
 21
114.4805357699
 31
0.0
  0
LINE
  5
148
330
1F
100
AcDbEntity
  8
0
  6
HIDDEN
 62
     7
370
     0
100
AcDbLine
 10
171.2019585301
 20
100.2046587216
 30
0.0
 11
203.7019585301
 21
100.2046587216
 31
0.0
  0
LINE
  5
149
330
1F
100
AcDbEntity
  8
0
  6
HIDDEN
 62
     7
370
     0
100
AcDbLine
 10
203.7019585301
 20
114.2046587216
 30
0.0
 11
171.2019585301
 21
114.2046587216
 31
0.0
  0
LINE
  5
14A
330
1F
100
AcDbEntity
  8
0
  6
HIDDEN
 62
     7
370
     0
100
AcDbLine
 10
160.7019585301
 20
112.2046587216
 30
0.0
 11
160.2019585301
 21
111.7046587216
 31
0.0
  0
LINE
  5
14B
330
1F
100
AcDbEntity
  8
0
  6
HIDDEN
 62
     7
370
     0
100
AcDbLine
 10
160.2019585301
 20
102.7046587216
 30
0.0
 11
160.7019585301
 21
102.2046587216
 31
0.0
  0
LINE
  5
14C
330
1F
100
AcDbEntity
  8
0
  6
HIDDEN
 62
     7
370
     0
100
AcDbLine
 10
139.0019585301
 20
102.7046587216
 30
0.0
 11
160.2019585301
 21
102.7046587216
 31
0.0
  0
LINE
  5
14D
330
1F
100
AcDbEntity
  8
0
  6
HIDDEN
 62
     7
370
     0
100
AcDbLine
 10
160.2019585301
 20
111.7046587216
 30
0.0
 11
139.0019585301
 21
111.7046587216
 31
0.0
  0
LINE
  5
14E
330
1F
100
AcDbEntity
  8
0
  6
HIDDEN
 62
     7
370
     0
100
AcDbLine
 10
112.3863963605
 20
83.125287388
 30
0.0
 11
111.951964211
 21
83.6043534071
 31
0.0
  0
LINE
  5
14F
330
1F
100
AcDbEntity
  8
0
  6
HIDDEN
 62
     7
370
     0
100
AcDbLine
 10
104.451960886
 20
84.0260413662
 30
0.0
 11
103.9695271426
 21
83.5469753908
 31
0.0
  0
LINE
  5
150
330
1F
100
AcDbEntity
  8
0
  6
HIDDEN
 62
     7
370
     0
100
AcDbLine
 10
103.9694052144
 20
130.8623367619
 30
0.0
 11
104.4519559653
 21
130.383216504
 31
0.0
  0
LINE
  5
151
330
1F
100
AcDbEntity
  8
0
  6
HIDDEN
 62
     7
370
     0
100
AcDbLine
 10
111.9519584121
 20
130.8049142817
 30
0.0
 11
112.3865008024
 21
131.2840345322
 31
0.0
  0
LINE
  5
152
330
1F
100
AcDbEntity
  8
0
  6
HIDDEN
 62
     7
370
     0
100
AcDbLine
 10
111.9519585301
 20
83.6048373088
 30
0.0
 11
111.9519585301
 21
87.2675858955
 31
0.0
  0
LINE
  5
153
330
1F
100
AcDbEntity
  8
0
  6
HIDDEN
 62
     7
370
     0
100
AcDbLine
 10
104.4519585301
 20
87.2065209671
 30
0.0
 11
104.4519585301
 21
84.0263646038
 31
0.0
  0
LINE
  5
154
330
1F
100
AcDbEntity
  8
0
  6
HIDDEN
 62
     7
370
     0
100
AcDbLine
 10
111.9519585301
 20
127.1424949122
 30
0.0
 11
111.9519585301
 21
130.8046229756
 31
0.0
  0
LINE
  5
155
330
1F
100
AcDbEntity
  8
0
  6
HIDDEN
 62
     7
370
     0
100
AcDbLine
 10
104.4519585301
 20
130.3830727248
 30
0.0
 11
104.4519585301
 21
127.2040744603
 31
0.0
  0
DIMENSION
  5
156
330
1F
100
AcDbEntity
  8
VERMASSUNG
100
AcDbDimension
  2
*D1
 10
79.1112676056
 20
75.7046587216
 30
0.0
 11
79.1112676056
 21
107.2046587216
 31
0.0
 70
   160
  1
HSK A %%c<>
 71
     2
 42
-1.0
  3
SLDDIMSTYLE0
100
AcDbAlignedDimension
 13
117.5019585301
 23
138.7046587216
 33
0.0
 14
117.5019585301
 24
75.7046587216
 34
0.0
 50
90.0
100
AcDbRotatedDimension
  0
DIMENSION
  5
163
330
1F
100
AcDbEntity
  8
VERMASSUNG
100
AcDbDimension
  2
*D2
 10
207.2019585301
 20
142.4791982665
 30
0.0
 11
183.9519585301
 21
142.4791982665
 31
0.0
 70
   160
 71
     2
 42
-1.0
  3
SLDDIMSTYLE1
100
AcDbAlignedDimension
 13
160.7019585301
 23
114.1046587216
 33
0.0
 14
207.2019585301
 24
118.8558777382
 34
0.0
100
AcDbRotatedDimension
  0
DIMENSION
  5
16E
330
1F
100
AcDbEntity
  8
VERMASSUNG
100
AcDbDimension
  2
*D3
 10
217.2019585301
 20
114.2046587216
 30
0.0
 11
217.2019585301
 21
107.2046587216
 31
0.0
 70
   160
  1
%%c<>
 71
     2
 42
-1.0
  3
SLDDIMSTYLE2
100
AcDbAlignedDimension
 13
203.7019585301
 23
100.2046587216
 33
0.0
 14
203.7019585301
 24
114.2046587216
 34
0.0
 50
90.0
100
AcDbRotatedDimension
  0
DIMENSION
  5
17A
330
1F
100
AcDbEntity
  8
VERMASSUNG
100
AcDbDimension
  2
*D4
 10
223.2019585301
 20
120.7046587216
 30
0.0
 11
223.2019585301
 21
107.2046587216
 31
0.0
 70
   160
  1
%%c<>
 71
     2
 42
-1.0
  3
SLDDIMSTYLE3
100
AcDbAlignedDimension
 13
207.2019585301
 23
93.7046587216
 33
0.0
 14
207.2019585301
 24
120.7046587216
 34
0.0
 50
90.0
100
AcDbRotatedDimension
  0
DIMENSION
  5
186
330
1F
100
AcDbEntity
  8
VERMASSUNG
100
AcDbDimension
  2
*D5
 10
229.2019585301
 20
124.2046587216
 30
0.0
 11
229.2019585301
 21
107.2046587216
 31
0.0
 70
   160
  1
%%c<>
 71
     2
 42
-1.0
  3
SLDDIMSTYLE3
100
AcDbAlignedDimension
 13
146.1519585301
 23
90.2046587216
 33
0.0
 14
146.1519585301
 24
124.2046587216
 34
0.0
 50
90.0
100
AcDbRotatedDimension
  0
DIMENSION
  5
191
330
1F
100
AcDbEntity
  8
VERMASSUNG
100
AcDbDimension
  2
*D6
 10
207.2019585301
 20
154.4791982665
 30
0.0
 11
162.2019585301
 21
154.4791982665
 31
0.0
 70
   160
 71
     2
 42
-1.0
  3
SLDDIMSTYLE0
100
AcDbAlignedDimension
 13
117.2019585301
 23
138.4046587216
 33
0.0
 14
207.2019585301
 24
118.8558777382
 34
0.0
100
AcDbRotatedDimension
  0
DIMENSION
  5
19B
330
1F
100
AcDbEntity
  8
VERMASSUNG
100
AcDbDimension
  2
*D7
 10
207.2019585301
 20
148.4791982665
 30
0.0
 11
175.1769585301
 21
148.4791982665
 31
0.0
 70
   160
 71
     2
 42
-1.0
  3
SLDDIMSTYLE0
100
AcDbAlignedDimension
 13
143.1519585301
 23
137.0510990453
 33
0.0
 14
207.2019585301
 24
118.8558777382
 34
0.0
100
AcDbRotatedDimension
  0
DIMENSION
  5
1A5
330
1F
100
AcDbEntity
  8
VERMASSUNG
100
AcDbDimension
  2
*D8
 10
207.2019585301
 20
160.4791982665
 30
0.0
 11
146.2519585301
 21
160.4791982665
 31
0.0
 70
   160
 71
     2
 42
-1.0
  3
SLDDIMSTYLE0
100
AcDbAlignedDimension
 13
85.3019585301
 23
126.895336468
 33
0.0
 14
207.2019585301
 24
118.8558777382
 34
0.0
100
AcDbRotatedDimension
  0
LINE
  5
1AF
330
1F
100
AcDbEntity
  8
VERMASSUNG
  6
CENTERX2
370
     0
100
AcDbLine
 10
81.6640303359
 20
107.2046587216
 30
0.0
 11
209.2019585301
 21
107.2046587216
 31
0.0
  0
OLE2FRAME
  5
1B0
330
1F
100
AcDbEntity
  8
0
100
AcDbOle2Frame
 70
     2
  3
Bitmap Image
 10
13.8511154363
 20
38.264191557
 30
0.0
 11
51.6290888628
 21
31.9806341108
 31
0.0
 71
     2
 72
     0
 73
     1
 90
    12928
310
80552BED0767C5B32B40DDAF6807D121434000000000000000006FFBDDFB85D0
310
4940DDAF6807D121434000000000000000006FFBDDFB85D04940416F4BD60AFB
310
3F4000000000000000002BED0767C5B32B40416F4BD60AFB3F40000000000000
310
0000000000000100000000010000010000000100000000000100000000320000
310
D0CF11E0A1B11AE1000000000000000000000000000000003E000300FEFF0900
310
0600000000000000000000000100000001000000000000000010000002000000
310
01000000FEFFFFFF0000000000000000FFFFFFFFFFFFFFFFFFFFFFFFFFFFFFFF
310
FFFFFFFFFFFFFFFFFFFFFFFFFFFFFFFFFFFFFFFFFFFFFFFFFFFFFFFFFFFFFFFF
310
FFFFFFFFFFFFFFFFFFFFFFFFFFFFFFFFFFFFFFFFFFFFFFFFFFFFFFFFFFFFFFFF
310
FFFFFFFFFFFFFFFFFFFFFFFFFFFFFFFFFFFFFFFFFFFFFFFFFFFFFFFFFFFFFFFF
310
FFFFFFFFFFFFFFFFFFFFFFFFFFFFFFFFFFFFFFFFFFFFFFFFFFFFFFFFFFFFFFFF
310
FFFFFFFFFFFFFFFFFFFFFFFFFFFFFFFFFFFFFFFFFFFFFFFFFFFFFFFFFFFFFFFF
310
FFFFFFFFFFFFFFFFFFFFFFFFFFFFFFFFFFFFFFFFFFFFFFFFFFFFFFFFFFFFFFFF
310
FFFFFFFFFFFFFFFFFFFFFFFFFFFFFFFFFFFFFFFFFFFFFFFFFFFFFFFFFFFFFFFF
310
FFFFFFFFFFFFFFFFFFFFFFFFFFFFFFFFFFFFFFFFFFFFFFFFFFFFFFFFFFFFFFFF
310
FFFFFFFFFFFFFFFFFFFFFFFFFFFFFFFFFFFFFFFFFFFFFFFFFFFFFFFFFFFFFFFF
310
FFFFFFFFFFFFFFFFFFFFFFFFFFFFFFFFFFFFFFFFFFFFFFFFFFFFFFFFFFFFFFFF
310
FFFFFFFFFFFFFFFFFFFFFFFFFFFFFFFFFFFFFFFFFFFFFFFFFFFFFFFFFFFFFFFF
310
FFFFFFFFFFFFFFFFFFFFFFFFFFFFFFFFFFFFFFFFFFFFFFFFFFFFFFFFFFFFFFFF
310
FFFFFFFFFFFFFFFFFFFFFFFFFFFFFFFFFFFFFFFFFFFFFFFFFFFFFFFFFFFFFFFF
310
FDFFFFFFFEFFFFFFFEFFFFFFFEFFFFFF05000000060000000700000008000000
310
090000000A0000000B0000000C0000000D0000000E0000000F00000010000000
310
11000000120000001300000014000000150000001600000017000000FEFFFFFF
310
FFFFFFFFFFFFFFFFFFFFFFFFFFFFFFFFFFFFFFFFFFFFFFFFFFFFFFFFFFFFFFFF
310
FFFFFFFFFFFFFFFFFFFFFFFFFFFFFFFFFFFFFFFFFFFFFFFFFFFFFFFFFFFFFFFF
310
FFFFFFFFFFFFFFFFFFFFFFFFFFFFFFFFFFFFFFFFFFFFFFFFFFFFFFFFFFFFFFFF
310
FFFFFFFFFFFFFFFFFFFFFFFFFFFFFFFFFFFFFFFFFFFFFFFFFFFFFFFFFFFFFFFF
310
FFFFFFFFFFFFFFFFFFFFFFFFFFFFFFFFFFFFFFFFFFFFFFFFFFFFFFFFFFFFFFFF
310
FFFFFFFFFFFFFFFFFFFFFFFFFFFFFFFFFFFFFFFFFFFFFFFFFFFFFFFFFFFFFFFF
310
FFFFFFFFFFFFFFFFFFFFFFFFFFFFFFFFFFFFFFFFFFFFFFFFFFFFFFFFFFFFFFFF
310
FFFFFFFFFFFFFFFFFFFFFFFFFFFFFFFFFFFFFFFFFFFFFFFFFFFFFFFFFFFFFFFF
310
FFFFFFFFFFFFFFFFFFFFFFFFFFFFFFFFFFFFFFFFFFFFFFFFFFFFFFFFFFFFFFFF
310
FFFFFFFFFFFFFFFFFFFFFFFFFFFFFFFFFFFFFFFFFFFFFFFFFFFFFFFFFFFFFFFF
310
FFFFFFFFFFFFFFFFFFFFFFFFFFFFFFFFFFFFFFFFFFFFFFFFFFFFFFFFFFFFFFFF
310
FFFFFFFFFFFFFFFFFFFFFFFFFFFFFFFFFFFFFFFFFFFFFFFFFFFFFFFFFFFFFFFF
310
FFFFFFFFFFFFFFFFFFFFFFFFFFFFFFFFFFFFFFFFFFFFFFFFFFFFFFFFFFFFFFFF
310
52006F006F007400200045006E00740072007900000000000000000000000000
310
0000000000000000000000000000000000000000000000000000000000000000
310
16000500FFFFFFFFFFFFFFFF020000000A00030000000000C000000000000046
310
000000000000000000000000103291D9A804CC0103000000C000000000000000
310
01004F006C006500000000000000000000000000000000000000000000000000
310
0000000000000000000000000000000000000000000000000000000000000000
310
0A000200FFFFFFFFFFFFFFFFFFFFFFFF00000000000000000000000000000000
310
0000000000000000000000000000000000000000000000001400000000000000
310
010043006F006D0070004F0062006A0000000000000000000000000000000000
310
0000000000000000000000000000000000000000000000000000000000000000
310
120002010100000003000000FFFFFFFF00000000000000000000000000000000
310
0000000000000000000000000000000000000000010000004D00000000000000
310
01004F006C006500310030004E00610074006900760065000000000000000000
310
0000000000000000000000000000000000000000000000000000000000000000
310
1A000200FFFFFFFFFFFFFFFFFFFFFFFF00000000000000000000000000000000
310
0000000000000000000000000000000000000000040000002426000000000000
310
FEFFFFFF02000000FEFFFFFFFFFFFFFFFFFFFFFFFFFFFFFFFFFFFFFFFFFFFFFF
310
FFFFFFFFFFFFFFFFFFFFFFFFFFFFFFFFFFFFFFFFFFFFFFFFFFFFFFFFFFFFFFFF
310
FFFFFFFFFFFFFFFFFFFFFFFFFFFFFFFFFFFFFFFFFFFFFFFFFFFFFFFFFFFFFFFF
310
FFFFFFFFFFFFFFFFFFFFFFFFFFFFFFFFFFFFFFFFFFFFFFFFFFFFFFFFFFFFFFFF
310
FFFFFFFFFFFFFFFFFFFFFFFFFFFFFFFFFFFFFFFFFFFFFFFFFFFFFFFFFFFFFFFF
310
FFFFFFFFFFFFFFFFFFFFFFFFFFFFFFFFFFFFFFFFFFFFFFFFFFFFFFFFFFFFFFFF
310
FFFFFFFFFFFFFFFFFFFFFFFFFFFFFFFFFFFFFFFFFFFFFFFFFFFFFFFFFFFFFFFF
310
FFFFFFFFFFFFFFFFFFFFFFFFFFFFFFFFFFFFFFFFFFFFFFFFFFFFFFFFFFFFFFFF
310
FFFFFFFFFFFFFFFFFFFFFFFFFFFFFFFFFFFFFFFFFFFFFFFFFFFFFFFFFFFFFFFF
310
FFFFFFFFFFFFFFFFFFFFFFFFFFFFFFFFFFFFFFFFFFFFFFFFFFFFFFFFFFFFFFFF
310
FFFFFFFFFFFFFFFFFFFFFFFFFFFFFFFFFFFFFFFFFFFFFFFFFFFFFFFFFFFFFFFF
310
FFFFFFFFFFFFFFFFFFFFFFFFFFFFFFFFFFFFFFFFFFFFFFFFFFFFFFFFFFFFFFFF
310
FFFFFFFFFFFFFFFFFFFFFFFFFFFFFFFFFFFFFFFFFFFFFFFFFFFFFFFFFFFFFFFF
310
FFFFFFFFFFFFFFFFFFFFFFFFFFFFFFFFFFFFFFFFFFFFFFFFFFFFFFFFFFFFFFFF
310
FFFFFFFFFFFFFFFFFFFFFFFFFFFFFFFFFFFFFFFFFFFFFFFFFFFFFFFFFFFFFFFF
310
FFFFFFFFFFFFFFFFFFFFFFFFFFFFFFFFFFFFFFFFFFFFFFFFFFFFFFFFFFFFFFFF
310
010000020000000000000000000000000000000000000000DB00820000000004
310
6041653100000000C80225000000000000000000000000000000000000000000
310
0100FEFF030A0000FFFFFFFF0A00030000000000C00000000000004607000000
310
5042727573680007000000504272757368000700000050427275736800F439B2
310
7100000000000000000000000000000000000000000000000000000000000000
310
0000000000000000000000000000000000000000000000000000000000000000
310
0000000000000000000000000000000000000000000000000000000000000000
310
0000000000000000000000000000000000000000000000000000000000000000
310
0000000000000000000000000000000000000000000000000000000000000000
310
0000000000000000000000000000000000000000000000000000000000000000
310
0000000000000000000000000000000000000000000000000000000000000000
310
0000000000000000000000000000000000000000000000000000000000000000
310
0000000000000000000000000000000000000000000000000000000000000000
310
0000000000000000000000000000000000000000000000000000000000000000
310
0000000000000000000000000000000000000000000000000000000000000000
310
0000000000000000000000000000000000000000000000000000000000000000
310
20260000424D0E260000000000003E00000028000000B40200006E0000000100
310
01000000000000000000130B0000130B00000200000002000000000000FFFFFF
310
FFFFFFFFFFFFFFFFFFFFFFFFFFFFFFFFFFFFFFFFFFFFFFFFFFFFFFFFFFFFFFFF
310
FFFFFFFFFFFFFFFFFFFFFFFFFFFFFFFFFFFFFFFFFFFFFFFFFFFFFFFFFFFFFFFF
310
FFFFFFFFFFFFFFFFFFFFFFFFFFFFFFFFFFFFFFFFFFFFFFFFF000FFFFFFFFFFFF
310
FFFFFFFFFFFFFFFFFFFFFFFFFFFFFFFFFFFFFFFFFFFFFFFFFFFFFFFFFFFFFFFF
310
FFFFFFFFFFFFFFFFFFFFFFFFFFFFFFFFFFFFFFFFFFFFFFFFFFFFFFFFFFFFFFFF
310
FFFFFFFFFFFFFFFFFFFFFFFFFFFFFFFFF000FFFFFFFFFFFFFFFFFFFFFFFFFFFF
310
FFFFFFFFFFFFFFFFFFFFFFFFFFFFFFFFFFFFFFFFFFFFFFFFFFFFFFFFFFFFFFFF
310
FFFFFFFFFFFFFFFFFFFFFFFFFFFFFFFFFFFFFFFFFFFFFFFFFFFFFFFFFFFFFFFF
310
FFFFFFFFFFFFFFFFF000FFFFFFFFFFFFFFFFFFFFFFFFFFFFFFFFFFFFFFFFFFFF
310
FFFFFFFFFFFFFFFFFFFFFFFFFFFFFFFFFFFFFFFFFFFFFFFFFFFFFFFFFFFFFFFF
310
FFFFFFFFFFFFFFFFFFFFFFFFFFFFFFFFFFFFFFFFFFFFFFFFFFFFFFFFFFFFFFFF
310
F000FFFFFFFFFFFFFFFFFFFFFFFFFFFFFFFFFFFFFFFFFFFFFFFFFFFFFFFFFFFF
310
FFFFFFFFFFFFFFFFFFFFFFFFFFFFFFFFFFFFFFFFFFFFFFFFFFFFFFFFFFFFFFFF
310
FFFFFFFFFFFFFFFFFFFFFFFFFFFFFFFFFFFFFFFFFFFFFFFFF000FFFFFFFFFFFF
310
FFFFFFFFFFFFFFFFFFFFFFFFFFFFFFFFFFFFFFFFFFFFFFFFFFFFFFFFFFFFFFFF
310
FFFFFFFFFFFFFFFFFFFFFFFFFFFFFFFFFFFFFFFFFFFFFFFFFFFFFFFFFFFFFFFF
310
FFFFFFFFFFFFFFFFFFFFFFFFFFFFFFFFF000FFFFFFFFFFFFFFFFFFFFFFFFFFFF
310
FFFFFFFFFFFFFFFFFFFFFFFFFFFFFFFFFFFFFFFFFFFFFFFFFFFFFFFFFFFFFFFF
310
FFFFFFFFFFFFFFFFFFFFFFFFFFFFFFFFFFFFFFFFFFFFFFFFFFFFFFFFFFFFFFFF
310
FFFFFFFFFFFFFFFFF000FFFFFFFFFFFFFFFFFFFFFFFFFFFFFFFFFFFFFFFFFFFF
310
FFFFFFFFFFFFFFFFFFFFFFFFFFFFFFFFFFFFFFFFFFFFFFFFFFFFFFFFFFFFFFFF
310
FFFFFFFFFFFFFFFFFFFFFFFFFFFFFFFFFFFFFFFFFFFFFFFFFFFFFFFFFFFFFFFF
310
F000FFFFFFFFFFFFFFFFFFFFFFFFFFFFFFFFFFFFFFFFFFFFFFFFFFFFFFFFFFFF
310
FFFFFFFFFFFFFFFFFFFFFFFFFFFFFFFFFFFFFFFFFFFFFFFFFFFFFFFFFFFFFFFF
310
FFFFFFFFFFFFFFFFFFFFFFFFFFFFFFFFFFFFFFFFFFFFFFFFF000FFFFFFFFFFFF
310
FFFFFFFFFFFFFFFFFFFFFFFFFFFFFFFFFFFFFFFFFFFFFFFFFFFFFFFFFFFFFFFF
310
FFFFFFFFFFFFFFFFFFFFFFFFFFFFFFFFFFFFFFFFFFFFFFFFFFFFFFFFFFFFFFFF
310
FFFFFFFFFFFFFFFFFFFFFFFFFFFFFFFFF000FFFFFFFFFFFFFFFFFFFFFFFFFFFF
310
FFFFFFFFFFFFFFFFFFFFFFFFFFFFFFFFFFFFFFFFFFFFFFFFFFFFFFFFFFFFFFFF
310
FFFFFFFFFFFFFFFFFFFFFFFFFFFFFFFFFFFFFFFFFFFFFFFFFFFFFFFFFFFFFFFF
310
FFFFFFFFFFFFFFFFF000FFFFFFFFFFFFFFFFFFFFFFFFFFFFFFFFFFFFFFFFFFFF
310
FFFFFFFFFFFFFFFFFFFFFFFFFFFFFFFFFFFFFFFFFFFFFFFFFFFFFFFFFFFFFFFF
310
FFFFFFFFFFFFFFFFFFFFFFFFFFFFFFFFFFFFFFFFFFFFFFFFFFFFFFFFFFFFFFFF
310
F000FFFFFFFFFFFFFFFFFFFFFFFFFFFFFFFFFFFFFFFFFFFFFFFFFFFFFFFFFFFF
310
FFFFFFFFFFFFFFFFFFFFFFFFFFFFFFFFFFFFFFFFFFFFFFFFFFFFFFFFFFFFFFFF
310
FFFFFFFFFFFFFFFFFFFFFFFFFFFFFFFFFFFFFFFFFFFFFFFFF000FFFFFFFFFFFF
310
FFFFFFFFFFFFFFFFFFFFFFFFFFFFFFFFFFFFFFFFFFFFFFFFFFFFFFFFFFFFFFFF
310
FFFFFFFFFFFFFFFFFFFFFFFFFFFFFFFFFFFFFFFFFFFFFFFFFFFFFFFFFFFFFFFF
310
FFFFFFFFFFFFFFFFFFFFFFFFFFFFFFFFF000FFFFFFFFFFFFFFFFFFFFFFFFFFFF
310
FFFFFFFFFFFFFFFFFFFFFFFFFFFFFFFFFFFFFFFFFFFFFFFFFFFFFFFFFFFFFFFF
310
FFFFFFFFFFFFFFFFFFFFFFFFFFFFFFFFFFFFFFFFFFFFFFFFFFFFFFFFFFFFFFFF
310
FFFFFFFFFFFFFFFFF000FFFFFFFFFFFFFFFFFFFFFFFFFFFFFFFFFFFFFFFFFFFF
310
FFFFFFFFFFFFFFFFFFFFFFFFFFFFFFFFFFFFFFFFFFFFFFFFFFFFFFFFFFFFFFFF
310
FFFFFFFFFFFFFFFFFFFFFFFFFFFFFFFFFFFFFFFFFFFFFFFFFFFFFFFFFFFFFFFF
310
F000FFFFFFFFFFFFFFFFFFFFFFFFFFFFFFFFFFFFFFFFFFFFFFFFFFFFFFFFFFFF
310
FFFFFFFFFFFFFFFFFFFFFFFFFFFFFFFFFFFFFFFFFFFFFFFFFFFFFFFFFFFFFFFF
310
FFFFFFFFFFFFFFFFFFFFFFFFFFFFFFFFFFFFFFFFFFFFFFFFF000FFFFFFFFFFFF
310
FFFFFFFFFFFFFFFFFFFFFFFFFFFFFFFFFFFFFFFFFFFFFFFFFFFFFFFFFFFFFFFF
310
FFFFFFFFFFFFFFFFFFFFFFFFFFFFFFFFFFFFFFFFFFFFFFFFFFFFFFFFFFFFFFFF
310
FFFFFFFFFFFFFFFFFFFFFFFFFFFFFFFFF000FFFFFFFFFFFFFFFFFFFFFFFFFFFF
310
FFFFFFFFFFFFFFFFFFFFFFFFFFFFFFFFFFFFFFFFFFFFFFFFFFFFFFFFFFFFFFFF
310
FFFFFFFFFFFFFFFFFFFFFFFFFFFFFFFFFFFFFFFFFFFFFFFFFFFFFFFFFFFFFFFF
310
FFFFFFFFFFFFFFFFF000FFFFF80003FFFFFFFFFFFFFFFFFFFFFFFFFFFFFFFFFF
310
FFFFF00007FFFFFFFFFF00007FFFFFF800000000000000007FFFFFFFFFFFFFFF
310
FFFFFFFC001FFFFFFFFFFFFFFC001FFFFFFFFFFFFFFFFFFFFFFFFFFE0007FFFF
310
F000FFFF8000007FFFFFFFF8000FFFFFC0007FFFFF80007FFFFF0000007FFFFF
310
FFF8000007FFFFF800000000000000007FFFFFF0001FFFFFFFFFFFC00001FFFF
310
FFFFFFFFC00001FFFFFFFF000000000003FFFFE000007FFFF000FFFE0000000F
310
FFFFFFF0000FFFFF80007FFFFF80007FFFFC0000001FFFFFFFC0000001FFFFF8
310
00000000000000007FFFFFF0001FFFFFFFFFFE0000003FFFFFFFFFFE0000003F
310
FFFFFF000000000003FFFF0000000FFFF000FFF800000003FFFFFFF00007FFFF
310
80007FFFFF80007FFFF000000007FFFFFF000000003FFFF80000000000000000
310
7FFFFFF0001FFFFFFFFFF80000000FFFFFFFFFF80000000FFFFFFF0000000000
310
03FFFC00000003FFF000FFE000000000FFFFFFF00007FFFF80003FFFFF80007F
310
FFC000000001FFFFFC000000001FFFF800000000000000007FFFFFF0001FFFFF
310
FFFFE000000003FFFFFFFFE000000003FFFFFF000000000003FFF000000000FF
310
F000FF80000000007FFFFFF00007FFFF80003FFFFF80007FFF8000000000FFFF
310
F80000000007FFF800000000000000007FFFFFF0001FFFFFFFFFC000000001FF
310
FFFFFFC000000001FFFFFF000000000003FFC0000000007FF000FF0000000000
310
3FFFFFE00007FFFF00003FFFFF80007FFE00000000003FFFF00000000003FFF8
310
00000000000000007FFFFFF0001FFFFFFFFF8000000000FFFFFFFF8000000000
310
FFFFFF000000000003FF80000000003FF000FE00000000001FFFFFE00003FFFF
310
00003FFFFF80007FFC00000000001FFFE00000000001FFF8000001FFFE000000
310
7FFFFFF0001FFFFFFFFE00000000003FFFFFFE00000000003FFFFF0000000000
310
03FF00000000001FF000FC00000000000FFFFFE00003FFFF00001FFFFF80007F
310
F800000000001FFFC00000000000FFF8000001FFFE0000007FFFFFF0001FFFFF
310
FFFC00000000001FFFFFFC00000000001FFFFF000000000003FE00000000000F
310
F000F8000000000007FFFFE00003FFFF00001FFFFF80007FF800000000000FFF
310
800000000000FFF8000001FFFE0000007FFFFFF0001FFFFFFFF800000000000F
310
FFFFF800000000000FFFFF000000000003FC000000000007F000F80000000000
310
03FFFFC00003FFFE00001FFFFF80007FF0000000000007FF0000000000007FF8
310
000001FFFE0000007FFFFFF0001FFFFFFFF0000000000007FFFFF00000000000
310
07FFFF000000000003F8000000000003F000F0000000000003FFFFC00001FFFE
310
00001FFFFF80007FE0000000000007FE0000000000003FF8000001FFFE000000
310
7FFFFFF0001FFFFFFFF0000000000007FFFFF0000000000007FFFF0000000000
310
03F800001F800003F000E00001FFF00001FFFFC00001FFFE00000FFFFF80007F
310
E00001FFE00003FE00001FFF00003FF8000001FFFE0000007FFFFFF0001FFFFF
310
FFE000003E000003FFFFE000003E000003FFFF000000000003F00001FFF80001
310
F000E00007FFFC0001FFFFC00001FFFE00000FFFFF80007FC0000FFFFC0003FC
310
0000FFFFC0001FF8000001FFFE0000007FFFFFF0001FFFFFFFC00003FFE00001
310
FFFFC00003FFE00001FFFF0001FFFFFFFFF00007FFFE0001F000E0000FFFFF00
310
00FFFF800001FFFC00000FFFFF80007FC0001FFFFE0001FC0001FFFFE0001FF8
310
000001FFFE0000007FFFFFF0001FFFFFFF80000FFFF80000FFFF80000FFFF800
310
00FFFF0003FFFFFFFFE0000FFFFF8000F000C0003FFFFF8000FFFF800000FFFC
310
000007FFFF80007F80003FFFFF0001FC0003FFFFF0001FF8000001FFFE000000
310
7FFFFFF0001FFFFFFF80003FFFFE0000FFFF80003FFFFE0000FFFF0003FFFFFF
310
FFE0003FFFFF8000F000C0003FFFFF8000FFFF800000FFFC000007FFFF80007F
310
80007FFFFF8001F80007FFFFF8000FF8000001FFFE0000007FFFFFF0001FFFFF
310
FF00007FFFFF00007FFF00007FFFFF00007FFF0003FFFFFFFFE0003FFFFFC000
310
F000C0007FFFFFC000FFFF000000FFFC000007FFFF80007F8000FFFFFF8000F8
310
000FFFFFF8000FF8000001FFFE0000007FFFFFF0001FFFFFFF0000FFFFFF8000
310
7FFF0000FFFFFF80007FFF0003FFFFFFFFC0007FFFFFC00070008000FFFFFFC0
310
00FFFF000000FFF8000007FFFF80007F8000FFFFFF8000F8000FFFFFF8000FF8
310
000001FFFE0000007FFFFFF0001FFFFFFE0001FFFFFFC0003FFE0001FFFFFFC0
310
003FFF0003FFFFFFFFC0007FFFFFE00070008000FFFFFFC0007FFF0000007FF8
310
000003FFFF80007F0001FFFFFF8000F8000FFFFFF8000FF8000001FFFE000000
310
7FFFFFF0001FFFFFFE0001FFFFFFC0003FFE0001FFFFFFC0003FFF0003FFFFFF
310
FFC000FFFFFFE00070008000FFFFFFC0007FFF0000007FF8000003FFFF80007F
310
0001FFFFFF8000F8001FFFFFF8000FF8000001FFFE0000007FFFFFF0001FFFFF
310
FE0003FFFFFFE0003FFE0003FFFFFFE0003FFF0003FFFFFFFFC000FFFFFFE000
310
70008000FFFFFFC0007FFE0000007FF8000003FFFF80007F0001FFFFFF8000F0
310
001FFFFFF8000FF8000001FFFE0000007FFFFFF0001FFFFFFC0003FFFFFFE000
310
1FFC0003FFFFFFE0001FFF0003FFFFFFFFC000FFFFFFC00070008000FFFFFF80
310
007FFE0000007FF0000003FFFF80007F0001FFFFFF0000F0001FFFFFF8000FF8
310
000001FFFE0000007FFFFFF0001FFFFFFC0007FFFFFFF0001FFC0007FFFFFFF0
310
001FFF0003FFFFFFFFC000FFFFFFC00070008001FFFFFF0000FFFE0000003FF0
310
000001FFFF80007F0001FFFFFF0000F8001FFFFFF0000FF8000001FFFE000000
310
7FFFFFF0001FFFFFFC0007FFFFFFF0001FFC0007FFFFFFF0001FFF0003FFFFFF
310
FFC001FFFFFF80007000FFFFFFFFFE0000FFFE0008003FF0008001FFFF80007F
310
FFFFFFFFFC0000FFFFFFFFFFE0000FF8000001FFFE0000007FFFFFF0001FFFFF
310
F8000FFFFFFFF8000FF8000FFFFFFFF8000FFF0003FFFFFFFFFFFFFFFFFF0000
310
7000FFFFFFFFFC0000FFFC0008003FF0008001FFFF80007FFFFFFFFFF80001FF
310
FFFFFFFF80000FF8000001FFFE0000007FFFFFF0001FFFFFF8000FFFFFFFF800
310
0FF8000FFFFFFFF8000FFF0003FFFFFFFFFFFFFFFFFE0000F000FFFFFFFFE000
310
00FFFC000C003FE000C001FFFF80007FFFFFFFFFC00001FFFFFFFFFE00001FF8
310
000001FFFE0000007FFFFFF0001FFFFFF8000FFFFFFFF8000FF8000FFFFFFFF8
310
000FFF0003FFFFFFFFFFFFFFFFF00000F000FFFFFFFE000001FFFC000C001FE0
310
00C000FFFF80007FFFFFFFFE000001FFFFFFFFE000001FF80FFFFFFFFFFFFFC0
310
7FFFFFF0001FFFFFF8000FFFFFFFF8000FF8000FFFFFFFF8000FFF0003FFFFFF
310
FFFFFFFFFF800000F000FFFFFFC0000001FFFC001C001FE001C000FFFF80007F
310
FFFFFF80000003FFFFFFF80000001FF80FFFFFFFFFFFFFC07FFFFFF0001FFFFF
310
F8001FFFFFFFFC000FF8001FFFFFFFFC000FFF0003FFFFFFFFFFFFFFF0000001
310
F000FFFFF800000001FFF8001C001FE001C000FFFF80007FFFFFF800000003FF
310
FFFF800000003FF80FFFFFFFFFFFFFC07FFFFFF0001FFFFFF8001FFFFFFFFC00
310
0FF8001FFFFFFFFC000FFF0003FFFFFFFFFFFFFE00000001F000FFFFC0000000
310
03FFF8001E001FC001E000FFFF80007FFFFF8000000007FFFFFC000000003FF8
310
0FFFFFFFFFFFFFC07FFFFFF0001FFFFFF8001FFFFFFFFC000FF8001FFFFFFFFC
310
000FFF0003FFFFFFFFFFFFE000000003F000FFFE0000000007FFF8001E000FC0
310
01E0007FFF80007FFFFE0000000007FFFFE0000000007FF80FFFFFFFFFFFFFC0
310
7FFFFFF0001FFFFFF0001FFFFFFFFC0007F0001FFFFFFFFC0007FF0003FFFFFF
310
FFFFFF0000000003F000FFF80000000007FFF8001E000FC003E0007FFF80007F
310
FFF0000000000FFFFF8000000000FFF80FFFFFFFFFFFFFC07FFFFFF0001FFFFF
310
F0001FFFFFFFFC0007F0001FFFFFFFFC0007FF0003FFFFFFFFFFFC0000000007
310
F000FFE0000000000FFFF0003E000FC003E0007FFF80007FFFC0000000001FFF
310
FE0000000001FFF80FFFFFFFFFFFFFC07FFFFFF0001FFFFFF0001FFFFFFFFC00
310
07F0001FFFFFFFFC0007FF0003FFFFFFFFFFF0000000000FF000FFC000000000
310
1FFFF0003F000F8003F0003FFF80007FFF80000000003FFFF80000000003FFF8
310
0FFFFFFFFFFFFFC07FFFFFF0001FFFFFF0001FFFFFFFFC0007F0001FFFFFFFFC
310
0007FF0003FFFFFFFFFFE0000000001FF000FF00000000007FFFF0003F000780
310
03F0003FFF80007FFF00000000007FFFF00000000007FFF80FFFFFFFFFFFFFC0
310
7FFFFFF0001FFFFFF0001FFFFFFFFC0007F0001FFFFFFFFC0007FF0003FFFFFF
310
FFFF80000000007FF000FE0000000000FFFFE0003F00078007F0003FFF80007F
310
FE0000000001FFFFE0000000001FFFF80FFFFFFFFFFFFFC07FFFFFF0001FFFFF
310
F0001FFFFFFFFC0007F0001FFFFFFFFC0007FF0003FFFFFFFFFF0000000000FF
310
F000FC0000000003FFFFE0007F00078007F0003FFF80007FFC0000000007FFFF
310
C0000000007FFFF80FFFFFFFFFFFFFC07FFFFFF0001FFFFFF8001FFFFFFFFC00
310
0FF8001FFFFFFFFC000FFF0003FFFFFFFFFE0000000003FFF000FC000000000F
310
FFFFE0007F80070007F8001FFF80007FF8000000001FFFFF8000000001FFFFF8
310
0FFFFFFFFFFFFFC07FFFFFF0001FFFFFF8001FFFFFFFFC000FF8001FFFFFFFFC
310
000FFF0003FFFFFFFFFC000000000FFFF000F8000000007FFFFFE0007F800700
310
07F8001FFF80007FF000000000FFFFFF800000000FFFFFF80FFFFFFFFFFFFFC0
310
7FFFFFF0001FFFFFF8000FFFFFFFF8000FF8000FFFFFFFF8000FFF0003FFFFFF
310
FFFC000000007FFFF000F800000007FFFFFFC0007F8003000FF8001FFF80007F
310
F000000007FFFFFF000000007FFFFFF80FFFFFFFFFFFFFC07FFFFFF0001FFFFF
310
F8000FFFFFFFF8000FF8000FFFFFFFF8000FFF0003FFFFFFFFF80000000FFFFF
310
F000F0000000FFFFFFFFC000FF8003000FF8001FFF80007FE0000000FFFFFFFF
310
0000000FFFFFFFF8000001FFFE0000007FFFFFF0001FFFFFF8000FFFFFFFF800
310
0FF8000FFFFFFFF8000FFF0003FFFFFFFFF8000000FFFFFFF000F000000FFFFF
310
FFFFC000FFC002000FF8000FFF80007FE000001FFFFFFFFE000001FFFFFFFFF8
310
000001FFFE0000007FFFFFF0001FFFFFF8000FFFFFFFF8000FF8000FFFFFFFF8
310
000FFF0003FFFFFFFFF000001FFFFFFFF000E00000FFFFFFFFFFC000FFC00200
310
0FFC000FFF80007FE00001FFFFFFFFFE00001FFFFFFFFFF8000001FFFE000000
310
7FFFFFF0001FFFFFFC000FFFFFFFF8001FFC000FFFFFFFF8001FFF0003FFFFFF
310
FFF00001FFFFFFFFF000E00007FFFFFFFFFF8000FFC000001FFC000FFF80007F
310
C0000FFFFFFFFFFE0000FFFFFFFFFFF8000001FFFE0000007FFFFFF0001FFFFF
310
FC0007FFFFFFF0001FFC0007FFFFFFF0001FFF0003FFFFFFFFF00007FFFFFFFF
310
F000E0001FFFFFFFFFFF8000FFC000001FFC000FFF80007FC0003FFFFFFFFFFE
310
0001FFFFFFFFFFF8000001FFFE0000007FFFFFF0001FFFFFFC0007FFFFFFF000
310
1FFC0007FFFFFFF0001FFF0003FFFFFFFFF0001FFFFFFFFFF000E0003FFFFF00
310
03FF8001FFE000001FFC0007FF80007FC0007FFFFF0007FC0003FFFFF0003FF8
310
000001FFFE0000007FFFFFF0001FFFFFFC0003FFFFFFE0001FFC0003FFFFFFE0
310
001FFF0003FFFFFFFFF0003FFFFFFFFFF000E0003FFFFF0001FF8001FFE00000
310
1FFE0007FF80007FC0007FFFFE0003FC0007FFFFE0003FF8000001FFFE000000
310
7FFFFFF0001FFFFFFE0003FFFFFFE0003FFE0003FFFFFFE0003FFF0003FFFFFF
310
FFF0003FFFFF8001F000E0003FFFFF0001FF0001FFE000001FFE0007FF80007F
310
C0007FFFFE0003FC0007FFFFE0003FF8000001FFFE0000007FFFFFF0001FFFFF
310
FE0001FFFFFFC0003FFE0001FFFFFFC0003FFF0003FFFFFFFFF0003FFFFF0001
310
F000E0003FFFFF0003FF0001FFE000003FFE0007FF80007FC0007FFFFE0003FC
310
0007FFFFE0003FF8000001FFFE0000007FFFFFF0001FFFFFFF0001FFFFFFC000
310
7FFF0001FFFFFFC0007FFF0003FFFFFFFFF0003FFFFF0001F000E0003FFFFE00
310
03FF0003FFF000003FFE0003FF80007FC0007FFFFC0003FE0007FFFFE0003FF8
310
000001FFFE0000007FFFFFF0001FFFFFFF0000FFFFFF80007FFF0000FFFFFF80
310
007FFF0003FFFFFFFFF0003FFFFF0001F000E0003FFFFE0003FF0003FFF00000
310
3FFF0003FF80007FC0007FFFFC0007FE0007FFFFC0003FF8000001FFFE000000
310
7FFFFFF0001FFFFFFF80007FFFFF0000FFFF80007FFFFF0000FFFF0003FFFFFF
310
FFF0003FFFFF0003F000E0003FFFFC0003FE0003FFF000003FFF0003FF80007F
310
E0003FFFF80007FE0003FFFFC0007FF8000001FFFE0000007FFFFFF0001FFFFF
310
FF80003FFFFE0000FFFF80003FFFFE0000FFFF0003FFFFFFFFF0001FFFFE0003
310
F000F0001FFFF80003FE0003FFF000007FFF0001FF80007FE0003FFFF00007FE
310
0001FFFF80007FF8000001FFFE0000007FFFFFF0001FFFFFFFC0000FFFF80001
310
FFFFC0000FFFF80001FFFF0003FFFFFFFFF0001FFFFC0003F000F0000FFFF000
310
07FE0007FFF800007FFF0001FF80007FE0001FFFE00007FF0000FFFE00007FF8
310
000001FFFE0000007FFFFFF0001FFFFFFFC00003FFE00001FFFFC00003FFE000
310
01FFFF0003FFFFFFFFF8000FFFF80003F000F00003FFC00007FC0007FFF80000
310
7FFF8001FF80007FF00007FF80000FFF00007FF80000FFF8000001FFFE000000
310
7F80000000000001FFE000003E000003FFFFE000003E000003FFFF0003FFFFFF
310
FFF80003FFE00007F000F800000000000FFC0007FFF800007FFF8001FF80007F
310
F000000000000FFF000000000000FFF8000001FFFE0000007F80000000000001
310
FFF0000000000007FFFFF0000000000007FFFF0003FFFFFFFFFC00007E000007
310
F000F800000000000FFC0007FFF80000FFFF8000FF80007FF800000000001FFF
310
800000000001FFF8000001FFFE0000007F80000000000001FFF800000000000F
310
FFFFF800000000000FFFFF0003FFFFFFFFFC00000000000FF000FC0000000000
310
1FFC0007FFFC0000FFFF8000FF80007FF800000000003FFFC00000000001FFF8
310
000001FFFE0000007F80000000000001FFF800000000000FFFFFF80000000000
310
0FFFFF0003FFFFFFFFFE00000000001FF000FE00000000003FF8000FFFFC0000
310
FFFF8000FF80007FFC00000000003FFFC00000000003FFF8000001FFFE000000
310
7F80000000000001FFFC00000000001FFFFFFC00000000001FFFFF0003FFFFFF
310
FFFF00000000001FF000FF00000000003FF8000FFFFC0000FFFFC000FF80007F
310
FE00000000007FFFE00000000007FFF8000001FFFE0000007F80000000000001
310
FFFE00000000003FFFFFFE00000000003FFFFF0003FFFFFFFFFF80000000003F
310
F000FF80000000007FF8000FFFFC0001FFFFC0007F80007FFF0000000000FFFF
310
F0000000000FFFF800000000000000007F80000000000001FFFF8000000000FF
310
FFFFFF8000000000FFFFFF0003FFFFFFFFFFC0000000007FF000FFC000000000
310
FFF8000FFFFE0001FFFFC0007F80007FFF8000000001FFFFF8000000001FFFF8
310
00000000000000007F80000000000001FFFFC000000001FFFFFFFFC000000001
310
FFFFFF0003FFFFFFFFFFE000000000FFF000FFE000000003FFF0001FFFFE0001
310
FFFFC0007F80007FFFC000000007FFFFFE000000003FFFF80000000000000000
310
7F80000000000001FFFFE000000003FFFFFFFFE000000003FFFFFF0003FFFFFF
310
FFFFF000000003FFF000FFF80000000FFFF0001FFFFE0001FFFFE0007F80007F
310
FFF00000000FFFFFFF00000000FFFFF800000000000000007F80000000000001
310
FFFFF80000000FFFFFFFFFF80000000FFFFFFF0003FFFFFFFFFFFC0000000FFF
310
F000FFFE0000003FFFF0001FFFFE0003FFFFE0003F80007FFFFC0000003FFFFF
310
FFC0000003FFFFF800000000000000007F80000000000001FFFFFE0000003FFF
310
FFFFFFFE0000003FFFFFFF0003FFFFFFFFFFFF0000003FFFF000FFFF800000FF
310
FFF0001FFFFF0003FFFFE0003F80007FFFFF000001FFFFFFFFF800001FFFFFF8
310
00000000000000007F80000000000001FFFFFFC00001FFFFFFFFFFFFC00001FF
310
FFFFFF0003FFFFFFFFFFFFC00000FFFFF000FFFFF8000FFFFFFFFFFFFFFFFFFF
310
FFFFFFFFFFFFFFFFFFFFF0001FFFFFFFFFFF0000FFFFFFF80000000000000000
310
7FFFFFFFFFFFFFFFFFFFFFFC001FFFFFFFFFFFFFFC001FFFFFFFFFFFFFFFFFFF
310
FFFFFFFC001FFFFFF000FFFFFFFFFFFFFFFFFFFFFFFFFFFFFFFFFFFFFFFFFFFF
310
FFFFFFFFFFFFFFFFFFFFFFFFFFFFFFFFFFFFFFFFFFFFFFFFFFFFFFFFFFFFFFFF
310
FFFFFFFFFFFFFFFFFFFFFFFFFFFFFFFFFFFFFFFFFFFFFFFFFFFFFFFFFFFFFFFF
310
F000FFFFFFFFFFFFFFFFFFFFFFFFFFFFFFFFFFFFFFFFFFFFFFFFFFFFFFFFFFFF
310
FFFFFFFFFFFFFFFFFFFFFFFFFFFFFFFFFFFFFFFFFFFFFFFFFFFFFFFFFFFFFFFF
310
FFFFFFFFFFFFFFFFFFFFFFFFFFFFFFFFFFFFFFFFFFFFFFFFF000FFFFFFFFFFFF
310
FFFFFFFFFFFFFFFFFFFFFFFFFFFFFFFFFFFFFFFFFFFFFFFFFFFFFFFFFFFFFFFF
310
FFFFFFFFFFFFFFFFFFFFFFFFFFFFFFFFFFFFFFFFFFFFFFFFFFFFFFFFFFFFFFFF
310
FFFFFFFFFFFFFFFFFFFFFFFFFFFFFFFFF000FFFFFFFFFFFFFFFFFFFFFFFFFFFF
310
FFFFFFFFFFFFFFFFFFFFFFFFFFFFFFFFFFFFFFFFFFFFFFFFFFFFFFFFFFFFFFFF
310
FFFFFFFFFFFFFFFFFFFFFFFFFFFFFFFFFFFFFFFFFFFFFFFFFFFFFFFFFFFFFFFF
310
FFFFFFFFFFFFFFFFF000FFFFFFFFFFFFFFFFFFFFFFFFFFFFFFFFFFFFFFFFFFFF
310
FFFFFFFFFFFFFFFFFFFFFFFFFFFFFFFFFFFFFFFFFFFFFFFFFFFFFFFFFFFFFFFF
310
FFFFFFFFFFFFFFFFFFFFFFFFFFFFFFFFFFFFFFFFFFFFFFFFFFFFFFFFFFFFFFFF
310
F000FFFFFFFFFFFFFFFFFFFFFFFFFFFFFFFFFFFFFFFFFFFFFFFFFFFFFFFFFFFF
310
FFFFFFFFFFFFFFFFFFFFFFFFFFFFFFFFFFFFFFFFFFFFFFFFFFFFFFFFFFFFFFFF
310
FFFFFFFFFFFFFFFFFFFFFFFFFFFFFFFFFFFFFFFFFFFFFFFFF000FFFFFFFFFFFF
310
FFFFFFFFFFFFFFFFFFFFFFFFFFFFFFFFFFFFFFFFFFFFFFFFFFFFFFFFFFFFFFFF
310
FFFFFFFFFFFFFFFFFFFFFFFFFFFFFFFFFFFFFFFFFFFFFFFFFFFFFFFFFFFFFFFF
310
FFFFFFFFFFFFFFFFFFFFFFFFFFFFFFFFF000FFFFFFFFFFFFFFFFFFFFFFFFFFFF
310
FFFFFFFFFFFFFFFFFFFFFFFFFFFFFFFFFFFFFFFFFFFFFFFFFFFFFFFFFFFFFFFF
310
FFFFFFFFFFFFFFFFFFFFFFFFFFFFFFFFFFFFFFFFFFFFFFFFFFFFFFFFFFFFFFFF
310
FFFFFFFFFFFFFFFFF000FFFFFFFFFFFFFFFFFFFFFFFFFFFFFFFFFFFFFFFFFFFF
310
FFFFFFFFFFFFFFFFFFFFFFFFFFFFFFFFFFFFFFFFFFFFFFFFFFFFFFFFFFFFFFFF
310
FFFFFFFFFFFFFFFFFFFFFFFFFFFFFFFFFFFFFFFFFFFFFFFFFFFFFFFFFFFFFFFF
310
F000FFFFFFFFFFFFFFFFFFFFFFFFFFFFFFFFFFFFFFFFFFFFFFFFFFFFFFFFFFFF
310
FFFFFFFFFFFFFFFFFFFFFFFFFFFFFFFFFFFFFFFFFFFFFFFFFFFFFFFFFFFFFFFF
310
FFFFFFFFFFFFFFFFFFFFFFFFFFFFFFFFFFFFFFFFFFFFFFFFF000FFFFFFFFFFFF
310
FFFFFFFFFFFFFFFFFFFFFFFFFFFFFFFFFFFFFFFFFFFFFFFFFFFFFFFFFFFFFFFF
310
FFFFFFFFFFFFFFFFFFFFFFFFFFFFFFFFFFFFFFFFFFFFFFFFFFFFFFFFFFFFFFFF
310
FFFFFFFFFFFFFFFFFFFFFFFFFFFFFFFFF000FFFFFFFFFFFFFFFFFFFFFFFFFFFF
310
FFFFFFFFFFFFFFFFFFFFFFFFFFFFFFFFFFFFFFFFFFFFFFFFFFFFFFFFFFFFFFFF
310
FFFFFFFFFFFFFFFFFFFFFFFFFFFFFFFFFFFFFFFFFFFFFFFFFFFFFFFFFFFFFFFF
310
FFFFFFFFFFFFFFFFF000FFFFFFFFFFFFFFFFFFFFFFFFFFFFFFFFFFFFFFFFFFFF
310
FFFFFFFFFFFFFFFFFFFFFFFFFFFFFFFFFFFFFFFFFFFFFFFFFFFFFFFFFFFFFFFF
310
FFFFFFFFFFFFFFFFFFFFFFFFFFFFFFFFFFFFFFFFFFFFFFFFFFFFFFFFFFFFFFFF
310
F000FFFFFFFFFFFFFFFFFFFFFFFFFFFFFFFFFFFFFFFFFFFFFFFFFFFFFFFFFFFF
310
FFFFFFFFFFFFFFFFFFFFFFFFFFFFFFFFFFFFFFFFFFFFFFFFFFFFFFFFFFFFFFFF
310
FFFFFFFFFFFFFFFFFFFFFFFFFFFFFFFFFFFFFFFFFFFFFFFFF000FFFFFFFFFFFF
310
FFFFFFFFFFFFFFFFFFFFFFFFFFFFFFFFFFFFFFFFFFFFFFFFFFFFFFFFFFFFFFFF
310
FFFFFFFFFFFFFFFFFFFFFFFFFFFFFFFFFFFFFFFFFFFFFFFFFFFFFFFFFFFFFFFF
310
FFFFFFFFFFFFFFFFFFFFFFFFFFFFFFFFF000FFFFFFFFFFFFFFFFFFFFFFFFFFFF
310
FFFFFFFFFFFFFFFFFFFFFFFFFFFFFFFFFFFFFFFFFFFFFFFFFFFFFFFFFFFFFFFF
310
FFFFFFFFFFFFFFFFFFFFFFFFFFFFFFFFFFFFFFFFFFFFFFFFFFFFFFFFFFFFFFFF
310
FFFFFFFFFFFFFFFFF000FFFFFFFFFFFFFFFFFFFFFFFFFFFFFFFFFFFFFFFFFFFF
310
FFFFFFFFFFFFFFFFFFFFFFFFFFFFFFFFFFFFFFFFFFFFFFFFFFFFFFFFFFFFFFFF
310
FFFFFFFFFFFFFFFFFFFFFFFFFFFFFFFFFFFFFFFFFFFFFFFFFFFFFFFFFFFFFFFF
310
F000FFFFFFFFFFFFFFFFFFFFFFFFFFFFFFFFFFFFFFFFFFFFFFFFFFFFFFFFFFFF
310
FFFFFFFFFFFFFFFFFFFFFFFFFFFFFFFFFFFFFFFFFFFFFFFFFFFFFFFFFFFFFFFF
310
FFFFFFFFFFFFFFFFFFFFFFFFFFFFFFFFFFFFFFFFFFFFFFFFF000FFFFFFFFFFFF
310
FFFFFFFFFFFFFFFFFFFFFFFFFFFFFFFFFFFFFFFFFFFFFFFFFFFFFFFFFFFFFFFF
310
FFFFFFFFFFFFFFFFFFFFFFFFFFFFFFFFFFFFFFFFFFFFFFFFFFFFFFFFFFFFFFFF
310
FFFFFFFFFFFFFFFFFFFFFFFFFFFFFFFFF000FFFFFFFFFFFFFFFFFFFFFFFFFFFF
310
FFFFFFFFFFFFFFFFFFFFFFFFFFFFFFFFFFFFFFFFFFFFFFFFFFFFFFFFFFFFFFFF
310
FFFFFFFFFFFFFFFFFFFFFFFFFFFFFFFFFFFFFFFFFFFFFFFFFFFFFFFFFFFFFFFF
310
FFFFFFFFFFFFFFFFF000FFFFFFFFFFFFFFFFFFFFFFFFFFFFFFFFFFFFFFFFFFFF
310
FFFFFFFFFFFFFFFFFFFFFFFFFFFFFFFFFFFFFFFFFFFFFFFFFFFFFFFFFFFFFFFF
310
FFFFFFFFFFFFFFFFFFFFFFFFFFFFFFFFFFFFFFFFFFFFFFFFFFFFFFFFFFFFFFFF
310
F000FFFFFFFFFFFFFFFFFFFFFFFFFFFFFFFFFFFFFFFFFFFFFFFFFFFFFFFFFFFF
310
FFFFFFFFFFFFFFFFFFFFFFFFFFFFFFFFFFFFFFFFFFFFFFFFFFFFFFFFFFFFFFFF
310
FFFFFFFFFFFFFFFFFFFFFFFFFFFFFFFFFFFFFFFFFFFFFFFFF000FFFFFFFFFFFF
310
FFFFFFFFFFFFFFFFFFFFFFFFFFFFFFFFFFFFFFFFFFFFFFFFFFFFFFFFFFFFFFFF
310
FFFFFFFFFFFFFFFFFFFFFFFFFFFFFFFFFFFFFFFFFFFFFFFFFFFFFFFFFFFFFFFF
310
FFFFFFFFFFFFFFFFFFFFFFFFFFFFFFFFF0000000000000000000000000000000
310
0000000001000000010000000100000001000000010000000100000001000000
310
0000000001000000000000000100000000000000010000000000000001000000
310
0000000001000000000000000100000000000000010000000000000001000000
310
0000000001000000000000000100000000000000010000000100000001000000
310
0100000001000000010000000100000001000000000000000100000001000000
310
0100000001000000010000000100000001000000010000000000000001000000
310
0000000001000000000000000100000000000000010000000100000001000000
310
0100000001000000010000000100000001000000000000000100000001000000
310
0100000001000000010000000100000001000000010000000000000001000000
310
0000000001000000000000000100000001000000010000000100000001000000
310
0100000001000000010000000000000001000000010000000100000001000000
310
0100000001000000010000000100000000000000010000000000000001000000
310
0000000001000000000000000100000000000000010000000000000001000000
310
0000000001000000000000000100000000000000010000000000000001000000
310
0000000001000000000000000100000000000000010000000000000001000000
  1
OLE
  0
ENDSEC
  0
SECTION
  2
OBJECTS
  0
DICTIONARY
  5
C
330
0
100
AcDbDictionary
281
     1
  3
ACAD_GROUP
350
D
  3
ACAD_LAYOUT
350
1A
  3
ACAD_MLEADERSTYLE
350
1B2
  3
ACAD_MLINESTYLE
350
17
  3
ACAD_PLOTSETTINGS
350
19
  3
ACAD_PLOTSTYLENAME
350
E
  3
ACAD_TABLESTYLE
350
1B1
  3
ACAD_VISUALSTYLE
350
2A
  3
AcDbVariableDictionary
350
1B3
  0
DICTIONARY
  5
D
102
{ACAD_REACTORS
330
C
102
}
330
C
100
AcDbDictionary
281
     1
  0
DICTIONARY
  5
1A
102
{ACAD_REACTORS
330
C
102
}
330
C
100
AcDbDictionary
281
     1
  3
Layout1
350
1E
  3
Layout2
350
26
  3
Model
350
22
  0
DICTIONARY
  5
1B2
102
{ACAD_REACTORS
330
C
102
}
330
C
100
AcDbDictionary
281
     1
  0
DICTIONARY
  5
17
102
{ACAD_REACTORS
330
C
102
}
330
C
100
AcDbDictionary
281
     1
  3
Standard
350
18
  0
DICTIONARY
  5
19
102
{ACAD_REACTORS
330
C
102
}
330
C
100
AcDbDictionary
281
     1
  0
ACDBDICTIONARYWDFLT
  5
E
102
{ACAD_REACTORS
330
C
102
}
330
C
100
AcDbDictionary
281
     1
  3
Normal
350
F
100
AcDbDictionaryWithDefault
340
F
  0
DICTIONARY
  5
1B1
102
{ACAD_REACTORS
330
C
102
}
330
C
100
AcDbDictionary
281
     1
  0
DICTIONARY
  5
2A
102
{ACAD_REACTORS
330
C
102
}
330
C
100
AcDbDictionary
281
     1
  3
2dWireframe
350
2F
  3
3D Hidden
350
31
  3
3dWireframe
350
30
  3
Basic
350
32
  3
Brighten
350
36
  3
ColorChange
350
3A
  3
Conceptual
350
34
  3
Dim
350
35
  3
Facepattern
350
39
  3
Flat
350
2B
  3
FlatWithEdges
350
2C
  3
Gouraud
350
2D
  3
GouraudWithEdges
350
2E
  3
Linepattern
350
38
  3
Realistic
350
33
  3
Thicken
350
37
  0
DICTIONARY
  5
1B3
102
{ACAD_REACTORS
330
C
102
}
330
C
100
AcDbDictionary
281
     1
  3
PSOLHEIGHT
350
1B5
  3
PSOLWIDTH
350
1B4
  0
LAYOUT
  5
1E
102
{ACAD_REACTORS
330
1A
102
}
330
1A
100
AcDbPlotSettings
  1

  2
none_device
  4

  6

 40
0.0
 41
0.0
 42
0.0
 43
0.0
 44
0.0
 45
0.0
 46
0.0
 47
0.0
 48
0.0
 49
0.0
140
0.0
141
0.0
142
1.0
143
1.0
 70
   688
 72
     0
 73
     0
 74
     5
  7

 75
    16
147
1.0
148
0.0
149
0.0
100
AcDbLayout
  1
Layout1
 70
     1
 71
     1
 10
0.0
 20
0.0
 11
420.0
 21
297.0
 12
0.0
 22
0.0
 32
0.0
 14
1.0000000000E+20
 24
1.0000000000E+20
 34
1.0000000000E+20
 15
-1.0000000000E+20
 25
-1.0000000000E+20
 35
-1.0000000000E+20
146
0.0
 13
0.0
 23
0.0
 33
0.0
 16
1.0
 26
0.0
 36
0.0
 17
0.0
 27
1.0
 37
0.0
 76
     0
330
1B
  0
LAYOUT
  5
26
102
{ACAD_REACTORS
330
1A
102
}
330
1A
100
AcDbPlotSettings
  1

  2
none_device
  4

  6

 40
0.0
 41
0.0
 42
0.0
 43
0.0
 44
0.0
 45
0.0
 46
0.0
 47
0.0
 48
0.0
 49
0.0
140
0.0
141
0.0
142
1.0
143
1.0
 70
   688
 72
     0
 73
     0
 74
     5
  7

 75
    16
147
1.0
148
0.0
149
0.0
100
AcDbLayout
  1
Layout2
 70
     1
 71
     2
 10
0.0
 20
0.0
 11
0.0
 21
0.0
 12
0.0
 22
0.0
 32
0.0
 14
0.0
 24
0.0
 34
0.0
 15
0.0
 25
0.0
 35
0.0
146
0.0
 13
0.0
 23
0.0
 33
0.0
 16
1.0
 26
0.0
 36
0.0
 17
0.0
 27
1.0
 37
0.0
 76
     0
330
23
  0
LAYOUT
  5
22
102
{ACAD_REACTORS
330
1A
102
}
330
1A
100
AcDbPlotSettings
  1

  2
none_device
  4

  6

 40
0.0
 41
0.0
 42
0.0
 43
0.0
 44
0.0
 45
0.0
 46
0.0
 47
0.0
 48
0.0
 49
0.0
140
0.0
141
0.0
142
1.0
143
1.0
 70
  1712
 72
     0
 73
     0
 74
     0
  7

 75
     0
147
1.0
148
0.0
149
0.0
100
AcDbLayout
  1
Model
 70
     1
 71
     0
 10
0.0
 20
0.0
 11
297.0
 21
210.0
 12
0.0
 22
0.0
 32
0.0
 14
0.0
 24
0.0
 34
0.0
 15
297.0
 25
210.0
 35
0.0
146
0.0
 13
0.0
 23
0.0
 33
0.0
 16
1.0
 26
0.0
 36
0.0
 17
0.0
 27
1.0
 37
0.0
 76
     0
330
1F
331
29
  0
MLINESTYLE
  5
18
102
{ACAD_REACTORS
330
17
102
}
330
17
100
AcDbMlineStyle
  2
Standard
 70
     0
  3

 62
   256
 51
90.0
 52
90.0
 71
     2
 49
0.5
 62
   256
  6
BYLAYER
 49
-0.5
 62
   256
  6
BYLAYER
  0
ACDBPLACEHOLDER
  5
F
102
{ACAD_REACTORS
330
E
102
}
330
E
  0
VISUALSTYLE
  5
2F
102
{ACAD_REACTORS
330
2A
102
}
330
2A
100
AcDbVisualStyle
  2
2dWireframe
 70
     4
 71
     0
 72
     2
 73
     0
 90
        0
 40
-0.6
 41
-30.0
 62
     5
 63
     7
 74
     1
 91
        4
 64
     7
 65
   257
 75
     1
175
     1
 42
1.0
 92
        0
 66
   257
 43
1.0
 76
     1
 77
     6
 78
     2
 67
     7
 79
     5
170
     0
171
     0
290
     0
174
     0
 93
        1
 44
0.0
173
     0
291
     0
 45
0.0
1001
ACAD
1000
AcDbSavedByObjectVersion
1070
     0
  0
VISUALSTYLE
  5
31
102
{ACAD_REACTORS
330
2A
102
}
330
2A
100
AcDbVisualStyle
  2
3D Hidden
 70
     6
 71
     1
 72
     2
 73
     2
 90
        0
 40
-0.6
 41
-30.0
 62
     5
 63
     7
 74
     2
 91
        2
 64
     7
 65
   257
 75
     2
175
     1
 42
40.0
 92
        0
 66
   257
 43
1.0
 76
     1
 77
     6
 78
     2
 67
     7
 79
     3
170
     0
171
     0
290
     0
174
     0
 93
        1
 44
0.0
173
     0
291
     0
 45
0.0
1001
ACAD
1000
AcDbSavedByObjectVersion
1070
     0
  0
VISUALSTYLE
  5
30
102
{ACAD_REACTORS
330
2A
102
}
330
2A
100
AcDbVisualStyle
  2
3dWireframe
 70
     5
 71
     0
 72
     2
 73
     0
 90
        0
 40
-0.6
 41
-30.0
 62
     5
 63
     7
 74
     1
 91
        4
 64
     7
 65
   257
 75
     1
175
     1
 42
1.0
 92
        0
 66
   257
 43
1.0
 76
     1
 77
     6
 78
     2
 67
     7
 79
     5
170
     0
171
     0
290
     0
174
     0
 93
        1
 44
0.0
173
     0
291
     0
 45
0.0
1001
ACAD
1000
AcDbSavedByObjectVersion
1070
     0
  0
VISUALSTYLE
  5
32
102
{ACAD_REACTORS
330
2A
102
}
330
2A
100
AcDbVisualStyle
  2
Basic
 70
     7
 71
     1
 72
     0
 73
     1
 90
        0
 40
-0.6
 41
-30.0
 62
     5
 63
     7
 74
     0
 91
        4
 64
     7
 65
   257
 75
     1
175
     1
 42
1.0
 92
        8
 66
     7
 43
1.0
 76
     1
 77
     6
 78
     2
 67
     7
 79
     5
170
     0
171
     0
290
     0
174
     0
 93
        1
 44
0.0
173
     0
291
     1
 45
0.0
1001
ACAD
1000
AcDbSavedByObjectVersion
1070
     0
  0
VISUALSTYLE
  5
36
102
{ACAD_REACTORS
330
2A
102
}
330
2A
100
AcDbVisualStyle
  2
Brighten
 70
    12
 71
     2
 72
     2
 73
     0
 90
        0
 40
-0.6
 41
-30.0
 62
     5
 63
     7
 74
     1
 91
        4
 64
     7
 65
   257
 75
     1
175
     1
 42
1.0
 92
        8
 66
     7
 43
1.0
 76
     1
 77
     6
 78
     2
 67
     7
 79
     5
170
     0
171
     0
290
     0
174
     0
 93
        1
 44
50.0
173
     0
291
     1
 45
0.0
1001
ACAD
1000
AcDbSavedByObjectVersion
1070
     0
  0
VISUALSTYLE
  5
3A
102
{ACAD_REACTORS
330
2A
102
}
330
2A
100
AcDbVisualStyle
  2
ColorChange
 70
    16
 71
     2
 72
     2
 73
     3
 90
        0
 40
-0.6
 41
-30.0
 62
     5
 63
     8
 74
     1
 91
        4
 64
     7
 65
   257
 75
     1
175
     1
 42
1.0
 92
        8
 66
     8
 43
1.0
 76
     1
 77
     6
 78
     2
 67
     7
 79
     5
170
     0
171
     0
290
     0
174
     0
 93
        1
 44
0.0
173
     0
291
     1
 45
0.0
1001
ACAD
1000
AcDbSavedByObjectVersion
1070
     0
  0
VISUALSTYLE
  5
34
102
{ACAD_REACTORS
330
2A
102
}
330
2A
100
AcDbVisualStyle
  2
Conceptual
 70
     9
 71
     3
 72
     2
 73
     0
 90
        0
 40
-0.6
 41
-30.0
 62
     5
 63
     7
 74
     2
 91
        2
 64
     7
 65
   257
 75
     1
175
     1
 42
40.0
 92
        8
 66
     7
 43
1.0
 76
     1
 77
     6
 78
     2
 67
     7
 79
     3
170
     0
171
     0
290
     0
174
     0
 93
        1
 44
0.0
173
     0
291
     0
 45
0.0
1001
ACAD
1000
AcDbSavedByObjectVersion
1070
     0
  0
VISUALSTYLE
  5
35
102
{ACAD_REACTORS
330
2A
102
}
330
2A
100
AcDbVisualStyle
  2
Dim
 70
    11
 71
     2
 72
     2
 73
     0
 90
        0
 40
-0.6
 41
-30.0
 62
     5
 63
     7
 74
     1
 91
        4
 64
     7
 65
   257
 75
     1
175
     1
 42
1.0
 92
        8
 66
     7
 43
1.0
 76
     1
 77
     6
 78
     2
 67
     7
 79
     5
170
     0
171
     0
290
     0
174
     0
 93
        1
 44
-50.0
173
     0
291
     1
 45
0.0
1001
ACAD
1000
AcDbSavedByObjectVersion
1070
     0
  0
VISUALSTYLE
  5
39
102
{ACAD_REACTORS
330
2A
102
}
330
2A
100
AcDbVisualStyle
  2
Facepattern
 70
    15
 71
     2
 72
     2
 73
     0
 90
        0
 40
-0.6
 41
-30.0
 62
     5
 63
     7
 74
     1
 91
        4
 64
     7
 65
   257
 75
     1
175
     1
 42
1.0
 92
        8
 66
     7
 43
1.0
 76
     1
 77
     6
 78
     2
 67
     7
 79
     5
170
     0
171
     0
290
     0
174
     0
 93
        1
 44
0.0
173
     0
291
     1
 45
0.0
1001
ACAD
1000
AcDbSavedByObjectVersion
1070
     0
  0
VISUALSTYLE
  5
2B
102
{ACAD_REACTORS
330
2A
102
}
330
2A
100
AcDbVisualStyle
  2
Flat
 70
     0
 71
     2
 72
     1
 73
     1
 90
        2
 40
-0.6
 41
30.0
 62
     5
 63
     7
 74
     0
 91
        4
 64
     7
 65
   257
 75
     1
175
     1
 42
1.0
 92
        8
 66
     7
 43
1.0
 76
     1
 77
     6
 78
     2
 67
     7
 79
     5
170
     0
171
     0
290
     0
174
     0
 93
       13
 44
0.0
173
     0
291
     1
 45
0.0
1001
ACAD
1000
AcDbSavedByObjectVersion
1070
     0
  0
VISUALSTYLE
  5
2C
102
{ACAD_REACTORS
330
2A
102
}
330
2A
100
AcDbVisualStyle
  2
FlatWithEdges
 70
     1
 71
     2
 72
     1
 73
     1
 90
        2
 40
-0.6
 41
30.0
 62
     5
 63
     7
 74
     1
 91
        4
 64
     7
 65
   257
 75
     1
175
     1
 42
1.0
 92
        0
 66
   257
 43
1.0
 76
     1
 77
     6
 78
     2
 67
     7
 79
     5
170
     0
171
     0
290
     0
174
     0
 93
       13
 44
0.0
173
     0
291
     1
 45
0.0
1001
ACAD
1000
AcDbSavedByObjectVersion
1070
     0
  0
VISUALSTYLE
  5
2D
102
{ACAD_REACTORS
330
2A
102
}
330
2A
100
AcDbVisualStyle
  2
Gouraud
 70
     2
 71
     2
 72
     2
 73
     1
 90
        2
 40
-0.6
 41
30.0
 62
     5
 63
     7
 74
     0
 91
        4
 64
     7
 65
   257
 75
     1
175
     1
 42
1.0
 92
        0
 66
     7
 43
1.0
 76
     1
 77
     6
 78
     2
 67
     7
 79
     5
170
     0
171
     0
290
     0
174
     0
 93
       13
 44
0.0
173
     0
291
     1
 45
0.0
1001
ACAD
1000
AcDbSavedByObjectVersion
1070
     0
  0
VISUALSTYLE
  5
2E
102
{ACAD_REACTORS
330
2A
102
}
330
2A
100
AcDbVisualStyle
  2
GouraudWithEdges
 70
     3
 71
     2
 72
     2
 73
     1
 90
        2
 40
-0.6
 41
30.0
 62
     5
 63
     7
 74
     1
 91
        4
 64
     7
 65
   257
 75
     1
175
     1
 42
1.0
 92
        0
 66
   257
 43
1.0
 76
     1
 77
     6
 78
     2
 67
     7
 79
     5
170
     0
171
     0
290
     0
174
     0
 93
       13
 44
0.0
173
     0
291
     1
 45
0.0
1001
ACAD
1000
AcDbSavedByObjectVersion
1070
     0
  0
VISUALSTYLE
  5
38
102
{ACAD_REACTORS
330
2A
102
}
330
2A
100
AcDbVisualStyle
  2
Linepattern
 70
    14
 71
     2
 72
     2
 73
     0
 90
        0
 40
-0.6
 41
-30.0
 62
     5
 63
     7
 74
     1
 91
        4
 64
     7
 65
   257
 75
     7
175
     7
 42
1.0
 92
        8
 66
     7
 43
1.0
 76
     1
 77
     6
 78
     2
 67
     7
 79
     5
170
     0
171
     0
290
     0
174
     0
 93
        1
 44
0.0
173
     0
291
     1
 45
0.0
1001
ACAD
1000
AcDbSavedByObjectVersion
1070
     0
  0
VISUALSTYLE
  5
33
102
{ACAD_REACTORS
330
2A
102
}
330
2A
100
AcDbVisualStyle
  2
Realistic
 70
     8
 71
     2
 72
     2
 73
     0
 90
        0
 40
-0.6
 41
-30.0
 62
     5
 63
     7
 74
     1
 91
        0
 64
     7
 65
   257
 75
     1
175
     1
 42
1.0
 92
        8
 66
     8
 43
1.0
 76
     1
 77
     6
 78
     2
 67
     7
 79
     5
170
     0
171
     0
290
     0
174
     0
 93
       13
 44
0.0
173
     0
291
     0
 45
0.0
1001
ACAD
1000
AcDbSavedByObjectVersion
1070
     0
  0
VISUALSTYLE
  5
37
102
{ACAD_REACTORS
330
2A
102
}
330
2A
100
AcDbVisualStyle
  2
Thicken
 70
    13
 71
     2
 72
     2
 73
     0
 90
        0
 40
-0.6
 41
-30.0
 62
     5
 63
     7
 74
     1
 91
        4
 64
     7
 65
   257
 75
     1
175
     1
 42
1.0
 92
       12
 66
     7
 43
1.0
 76
     1
 77
     6
 78
     2
 67
     7
 79
     5
170
     0
171
     0
290
     0
174
     0
 93
        1
 44
0.0
173
     0
291
     1
 45
0.0
1001
ACAD
1000
AcDbSavedByObjectVersion
1070
     0
  0
DICTIONARYVAR
  5
1B5
102
{ACAD_REACTORS
330
1B3
102
}
330
1B3
100
DictionaryVariables
280
     0
  1
80.000000
  0
DICTIONARYVAR
  5
1B4
102
{ACAD_REACTORS
330
1B3
102
}
330
1B3
100
DictionaryVariables
280
     0
  1
5.000000
  0
ENDSEC
  0
EOF
