  0
SECTION
  2
HEADER
  9
$ACADVER
  1
AC1015
  9
$ACADMAINTVER
 70
     6
  9
$DWGCODEPAGE
  3
ANSI_1252
  9
$INSBASE
 10
0.0
 20
0.0
 30
0.0
  9
$EXTMIN
 10
0.0
 20
0.0
 30
0.0
  9
$EXTMAX
 10
297.0
 20
210.0
 30
0.0
  9
$LIMMIN
 10
0.0
 20
0.0
  9
$LIMMAX
 10
297.0
 20
210.0
  9
$ORTHOMODE
 70
     0
  9
$REGENMODE
 70
     1
  9
$FILLMODE
 70
     1
  9
$QTEXTMODE
 70
     0
  9
$MIRRTEXT
 70
     1
  9
$LTSCALE
 40
1.0
  9
$ATTMODE
 70
     1
  9
$TEXTSIZE
 40
2.0
  9
$TRACEWID
 40
1.0
  9
$TEXTSTYLE
  7
Standard
  9
$CLAYER
  8
0
  9
$CELTYPE
  6
ByLayer
  9
$CECOLOR
 62
   256
  9
$CELTSCALE
 40
1.0
  9
$DISPSILH
 70
     0
  9
$DIMSCALE
 40
1.0
  9
$DIMASZ
 40
3.0
  9
$DIMEXO
 40
0.0
  9
$DIMDLI
 40
3.75
  9
$DIMRND
 40
0.0
  9
$DIMDLE
 40
0.0
  9
$DIMEXE
 40
1.0
  9
$DIMTP
 40
0.0
  9
$DIMTM
 40
0.0
  9
$DIMTXT
 40
2.0
  9
$DIMCEN
 40
2.5
  9
$DIMTSZ
 40
0.0
  9
$DIMTOL
 70
     0
  9
$DIMLIM
 70
     0
  9
$DIMTIH
 70
     1
  9
$DIMTOH
 70
     1
  9
$DIMSE1
 70
     0
  9
$DIMSE2
 70
     0
  9
$DIMTAD
 70
     1
  9
$DIMZIN
 70
     0
  9
$DIMBLK
  1

  9
$DIMASO
 70
     1
  9
$DIMSHO
 70
     1
  9
$DIMPOST
  1

  9
$DIMAPOST
  1

  9
$DIMALT
 70
     0
  9
$DIMALTD
 70
     3
  9
$DIMALTF
 40
0.0393700787
  9
$DIMLFAC
 40
1.0
  9
$DIMTOFL
 70
     1
  9
$DIMTVP
 40
0.0
  9
$DIMTIX
 70
     0
  9
$DIMSOXD
 70
     0
  9
$DIMSAH
 70
     0
  9
$DIMBLK1
  1

  9
$DIMBLK2
  1

  9
$DIMSTYLE
  2
ISO-25
  9
$DIMCLRD
 70
     0
  9
$DIMCLRE
 70
     0
  9
$DIMCLRT
 70
     0
  9
$DIMTFAC
 40
1.0
  9
$DIMGAP
 40
1.524
  9
$DIMJUST
 70
     0
  9
$DIMSD1
 70
     0
  9
$DIMSD2
 70
     0
  9
$DIMTOLJ
 70
     0
  9
$DIMTZIN
 70
     0
  9
$DIMALTZ
 70
     0
  9
$DIMALTTZ
 70
     0
  9
$DIMUPT
 70
     0
  9
$DIMDEC
 70
     2
  9
$DIMTDEC
 70
     3
  9
$DIMALTU
 70
     2
  9
$DIMALTTD
 70
     3
  9
$DIMTXSTY
  7
Standard
  9
$DIMAUNIT
 70
     0
  9
$DIMADEC
 70
     2
  9
$DIMALTRND
 40
0.0
  9
$DIMAZIN
 70
     0
  9
$DIMDSEP
 70
    44
  9
$DIMATFIT
 70
     3
  9
$DIMFRAC
 70
     0
  9
$DIMLDRBLK
  1

  9
$DIMLUNIT
 70
     2
  9
$DIMLWD
 70
    -2
  9
$DIMLWE
 70
    -2
  9
$DIMTMOVE
 70
     0
  9
$LUNITS
 70
     2
  9
$LUPREC
 70
     2
  9
$SKETCHINC
 40
1.0
  9
$FILLETRAD
 40
10.0
  9
$AUNITS
 70
     0
  9
$AUPREC
 70
     2
  9
$MENU
  1
.
  9
$ELEVATION
 40
0.0
  9
$PELEVATION
 40
0.0
  9
$THICKNESS
 40
0.0
  9
$LIMCHECK
 70
     0
  9
$CHAMFERA
 40
10.0
  9
$CHAMFERB
 40
10.0
  9
$CHAMFERC
 40
20.0
  9
$CHAMFERD
 40
0.0
  9
$SKPOLY
 70
     0
  9
$TDCREATE
 40
2455679.51434544
  9
$TDUCREATE
 40
2455679.431012107
  9
$TDUPDATE
 40
2455679.514345451
  9
$TDUUPDATE
 40
2455679.431012118
  9
$TDINDWG
 40
0.0000000116
  9
$TDUSRTIMER
 40
0.0000000116
  9
$USRTIMER
 70
     1
  9
$ANGBASE
 50
0.0
  9
$ANGDIR
 70
     0
  9
$PDMODE
 70
     0
  9
$PDSIZE
 40
-1.0
  9
$PLINEWID
 40
0.0
  9
$SPLFRAME
 70
     0
  9
$SPLINETYPE
 70
     6
  9
$SPLINESEGS
 70
     8
  9
$HANDSEED
  5
238
  9
$SURFTAB1
 70
     6
  9
$SURFTAB2
 70
     6
  9
$SURFTYPE
 70
     6
  9
$SURFU
 70
     6
  9
$SURFV
 70
     6
  9
$UCSBASE
  2

  9
$UCSNAME
  2

  9
$UCSORG
 10
0.0
 20
0.0
 30
0.0
  9
$UCSXDIR
 10
1.0
 20
0.0
 30
0.0
  9
$UCSYDIR
 10
0.0
 20
1.0
 30
0.0
  9
$UCSORTHOREF
  2

  9
$UCSORTHOVIEW
 70
     0
  9
$UCSORGTOP
 10
0.0
 20
0.0
 30
0.0
  9
$UCSORGBOTTOM
 10
0.0
 20
0.0
 30
0.0
  9
$UCSORGLEFT
 10
0.0
 20
0.0
 30
0.0
  9
$UCSORGRIGHT
 10
0.0
 20
0.0
 30
0.0
  9
$UCSORGFRONT
 10
0.0
 20
0.0
 30
0.0
  9
$UCSORGBACK
 10
0.0
 20
0.0
 30
0.0
  9
$PUCSBASE
  2

  9
$PUCSNAME
  2

  9
$PUCSORG
 10
0.0
 20
0.0
 30
0.0
  9
$PUCSXDIR
 10
1.0
 20
0.0
 30
0.0
  9
$PUCSYDIR
 10
0.0
 20
1.0
 30
0.0
  9
$PUCSORTHOREF
  2

  9
$PUCSORTHOVIEW
 70
     0
  9
$PUCSORGTOP
 10
0.0
 20
0.0
 30
0.0
  9
$PUCSORGBOTTOM
 10
0.0
 20
0.0
 30
0.0
  9
$PUCSORGLEFT
 10
0.0
 20
0.0
 30
0.0
  9
$PUCSORGRIGHT
 10
0.0
 20
0.0
 30
0.0
  9
$PUCSORGFRONT
 10
0.0
 20
0.0
 30
0.0
  9
$PUCSORGBACK
 10
0.0
 20
0.0
 30
0.0
  9
$USERI1
 70
     0
  9
$USERI2
 70
     0
  9
$USERI3
 70
     0
  9
$USERI4
 70
     0
  9
$USERI5
 70
     0
  9
$USERR1
 40
0.0
  9
$USERR2
 40
0.0
  9
$USERR3
 40
0.0
  9
$USERR4
 40
0.0
  9
$USERR5
 40
0.0
  9
$WORLDVIEW
 70
     1
  9
$SHADEDGE
 70
     3
  9
$SHADEDIF
 70
    70
  9
$TILEMODE
 70
     1
  9
$MAXACTVP
 70
    64
  9
$PINSBASE
 10
0.0
 20
0.0
 30
0.0
  9
$PLIMCHECK
 70
     0
  9
$PEXTMIN
 10
1.0000000000E+20
 20
1.0000000000E+20
 30
1.0000000000E+20
  9
$PEXTMAX
 10
-1.0000000000E+20
 20
-1.0000000000E+20
 30
-1.0000000000E+20
  9
$PLIMMIN
 10
0.0
 20
0.0
  9
$PLIMMAX
 10
420.0
 20
297.0
  9
$UNITMODE
 70
     0
  9
$VISRETAIN
 70
     1
  9
$PLINEGEN
 70
     0
  9
$PSLTSCALE
 70
     1
  9
$TREEDEPTH
 70
  3020
  9
$CMLSTYLE
  2
Standard
  9
$CMLJUST
 70
     0
  9
$CMLSCALE
 40
20.0
  9
$PROXYGRAPHICS
 70
     1
  9
$MEASUREMENT
 70
     1
  9
$CELWEIGHT
370
    -1
  9
$ENDCAPS
280
     0
  9
$JOINSTYLE
280
     0
  9
$LWDISPLAY
290
     1
  9
$INSUNITS
 70
     4
  9
$HYPERLINKBASE
  1

  9
$STYLESHEET
  1

  9
$XEDIT
290
     1
  9
$CEPSNTYPE
380
     0
  9
$PSTYLEMODE
290
     1
  9
$FINGERPRINTGUID
  2
{84D22027-29E1-4A45-BC71-D5D091114EFC}
  9
$VERSIONGUID
  2
{FAEB1C32-E019-11D5-929B-00C0DF256EC4}
  9
$EXTNAMES
290
     1
  9
$PSVPSCALE
 40
0.0
  9
$OLESTARTUP
290
     0
  0
ENDSEC
  0
SECTION
  2
CLASSES
  0
CLASS
  1
ACDBDICTIONARYWDFLT
  2
AcDbDictionaryWithDefault
  3
ObjectDBX Classes
 90
        0
280
     0
281
     0
  0
CLASS
  1
VISUALSTYLE
  2
AcDbVisualStyle
  3
ObjectDBX Classes
 90
     4095
280
     0
281
     0
  0
CLASS
  1
DICTIONARYVAR
  2
AcDbDictionaryVar
  3
ObjectDBX Classes
 90
        0
280
     0
281
     0
  0
CLASS
  1
ACDBPLACEHOLDER
  2
AcDbPlaceHolder
  3
ObjectDBX Classes
 90
        0
280
     0
281
     0
  0
CLASS
  1
LAYOUT
  2
AcDbLayout
  3
ObjectDBX Classes
 90
        0
280
     0
281
     0
  0
ENDSEC
  0
SECTION
  2
TABLES
  0
TABLE
  2
VPORT
  5
8
330
0
100
AcDbSymbolTable
 70
     1
  0
VPORT
  5
29
330
8
100
AcDbSymbolTableRecord
100
AcDbViewportTableRecord
  2
*Active
 70
     0
 10
0.0
 20
0.0
 11
1.0
 21
1.0
 12
148.5
 22
105.0
 13
0.0
 23
0.0
 14
10.0
 24
10.0
 15
10.0
 25
10.0
 16
0.0
 26
0.0
 36
1.0
 17
0.0
 27
0.0
 37
0.0
 40
210.0
 41
1.4142857143
 42
50.0
 43
0.0
 44
0.0
 50
0.0
 51
0.0
 71
     0
 72
  2000
 73
     1
 74
     3
 75
     0
 76
     0
 77
     0
 78
     0
281
     0
 65
     1
110
0.0
120
0.0
130
0.0
111
1.0
121
0.0
131
0.0
112
0.0
122
1.0
132
0.0
 79
     0
146
0.0
  0
ENDTAB
  0
TABLE
  2
LTYPE
  5
5
330
0
100
AcDbSymbolTable
 70
     6
  0
LTYPE
  5
14
330
5
100
AcDbSymbolTableRecord
100
AcDbLinetypeTableRecord
  2
ByBlock
 70
     0
  3

 72
    65
 73
     0
 40
0.0
  0
LTYPE
  5
15
330
5
100
AcDbSymbolTableRecord
100
AcDbLinetypeTableRecord
  2
ByLayer
 70
     0
  3

 72
    65
 73
     0
 40
0.0
  0
LTYPE
  5
16
330
5
100
AcDbSymbolTableRecord
100
AcDbLinetypeTableRecord
  2
Continuous
 70
     0
  3
Solid line
 72
    65
 73
     0
 40
0.0
  0
LTYPE
  5
3B
330
5
100
AcDbSymbolTableRecord
100
AcDbLinetypeTableRecord
  2
HIDDEN
 70
     0
  3
Hidden __ __ __ __ __ __ __ __ __ __ __ __ __ __
 72
    65
 73
     2
 40
1.905
 49
1.27
 74
     0
 49
-0.635
 74
     0
  0
LTYPE
  5
3C
330
5
100
AcDbSymbolTableRecord
100
AcDbLinetypeTableRecord
  2
PHANTOM
 70
     0
  3
Phantom ______  __  __  ______  __  __  ______
 72
    65
 73
     6
 40
12.7
 49
6.35
 74
     0
 49
-1.27
 74
     0
 49
1.27
 74
     0
 49
-1.27
 74
     0
 49
1.27
 74
     0
 49
-1.27
 74
     0
  0
LTYPE
  5
3D
330
5
100
AcDbSymbolTableRecord
100
AcDbLinetypeTableRecord
  2
CENTER
 70
     0
  3
Center ____ _ ____ _ ____ _ ____ _ ____ _ ____
 72
    65
 73
     4
 40
10.16
 49
6.35
 74
     0
 49
-1.27
 74
     0
 49
1.27
 74
     0
 49
-1.27
 74
     0
  0
LTYPE
  5
3E
330
5
100
AcDbSymbolTableRecord
100
AcDbLinetypeTableRecord
  2
CENTERX2
 70
     0
  3
Center (2x) ________  __  ________  __  _____
 72
    65
 73
     4
 40
20.32
 49
12.7
 74
     0
 49
-2.54
 74
     0
 49
2.54
 74
     0
 49
-2.54
 74
     0
  0
LTYPE
  5
3F
330
5
100
AcDbSymbolTableRecord
100
AcDbLinetypeTableRecord
  2
DOT2
 70
     0
  3
Dot (.5x) ........................................
 72
    65
 73
     2
 40
0.635
 49
0.0
 74
     0
 49
-0.635
 74
     0
  0
ENDTAB
  0
TABLE
  2
LAYER
  5
2
330
0
100
AcDbSymbolTable
 70
     5
  0
LAYER
  5
10
330
2
100
AcDbSymbolTableRecord
100
AcDbLayerTableRecord
  2
0
 70
     0
 62
     7
  6
Continuous
370
    -3
390
F
  0
LAYER
  5
40
330
2
100
AcDbSymbolTableRecord
100
AcDbLayerTableRecord
  2
FORMAT
 70
     0
 62
     7
  6
Continuous
370
    -3
390
F
  0
LAYER
  5
41
330
2
100
AcDbSymbolTableRecord
100
AcDbLayerTableRecord
  2
VERMASSUNG
 70
     0
 62
     7
  6
Continuous
370
    -3
390
F
  0
LAYER
  5
42
330
2
100
AcDbSymbolTableRecord
100
AcDbLayerTableRecord
  2
KOPF_DÜNN
 70
     0
 62
     7
  6
Continuous
370
    -3
390
F
  0
LAYER
  5
43
330
2
100
AcDbSymbolTableRecord
100
AcDbLayerTableRecord
  2
KOPF_DICK
 70
     0
 62
     7
  6
Continuous
370
    15
390
F
  0
ENDTAB
  0
TABLE
  2
STYLE
  5
3
330
0
100
AcDbSymbolTable
 70
     3
  0
STYLE
  5
11
330
3
100
AcDbSymbolTableRecord
100
AcDbTextStyleTableRecord
  2
Standard
 70
     0
 40
0.0
 41
1.0
 50
0.0
 71
     0
 42
2.5
  3
txt
  4

  0
STYLE
  5
44
330
3
100
AcDbSymbolTableRecord
100
AcDbTextStyleTableRecord
  2
SLDTEXTSTYLE0
 70
     0
 40
0.0
 41
0.7
 50
0.0
 71
     0
 42
0.2
  3
TXT
  4

  0
STYLE
  5
48
330
3
100
AcDbSymbolTableRecord
100
AcDbTextStyleTableRecord
  2
SLDTEXTSTYLE1
 70
     0
 40
0.0
 41
0.6473684211
 50
0.0
 71
     0
 42
0.2
  3
TXT
  4

  0
ENDTAB
  0
TABLE
  2
VIEW
  5
6
330
0
100
AcDbSymbolTable
 70
     0
  0
ENDTAB
  0
TABLE
  2
UCS
  5
7
330
0
100
AcDbSymbolTable
 70
     0
  0
ENDTAB
  0
TABLE
  2
APPID
  5
9
330
0
100
AcDbSymbolTable
 70
     1
  0
APPID
  5
12
330
9
100
AcDbSymbolTableRecord
100
AcDbRegAppTableRecord
  2
ACAD
 70
     0
  0
ENDTAB
  0
TABLE
  2
DIMSTYLE
  5
A
330
0
100
AcDbSymbolTable
 70
     5
100
AcDbDimStyleTable
  0
DIMSTYLE
105
27
330
A
100
AcDbSymbolTableRecord
100
AcDbDimStyleTableRecord
  2
ISO-25
 70
     0
 41
2.5
 42
0.625
 43
3.75
 44
1.25
 73
     0
 74
     0
 77
     1
 78
     8
140
2.5
141
2.5
143
0.0393700787
147
0.625
171
     3
172
     1
271
     2
272
     2
274
     3
278
    44
283
     0
284
     8
340
11
  0
DIMSTYLE
105
1D8
102
{ACAD_REACTORS
330
1D7
330
208
330
212
330
21C
330
226
102
}
330
A
100
AcDbSymbolTableRecord
100
AcDbDimStyleTableRecord
  2
SLDDIMSTYLE0
 70
     0
 41
3.0
 44
0.0
 45
0.000000001
 73
     0
 74
     0
 77
     1
 78
    12
140
2.0
147
0.5
173
     1
271
     2
272
     3
284
    12
340
44
  0
DIMSTYLE
105
1E5
102
{ACAD_REACTORS
330
1E4
102
}
330
A
100
AcDbSymbolTableRecord
100
AcDbDimStyleTableRecord
  2
SLDDIMSTYLE1
 70
     0
 41
3.0
 44
0.0
 45
0.000000001
 73
     0
 74
     0
 77
     1
 78
    12
140
2.0
147
0.5
173
     1
271
     2
272
     2
284
    12
340
44
  0
DIMSTYLE
105
1F0
102
{ACAD_REACTORS
330
1EF
102
}
330
A
100
AcDbSymbolTableRecord
100
AcDbDimStyleTableRecord
  2
SLDDIMSTYLE2
 70
     0
 41
3.0
 44
0.0
 45
0.000000001
 73
     0
 74
     0
 77
     1
 78
    12
140
2.0
147
0.5
173
     1
271
     2
272
     2
284
    12
340
44
  0
DIMSTYLE
105
1FD
102
{ACAD_REACTORS
330
1FC
102
}
330
A
100
AcDbSymbolTableRecord
100
AcDbDimStyleTableRecord
  2
SLDDIMSTYLE3
 70
     0
 41
3.0
 44
0.0
 45
0.000000001
 73
     0
 74
     0
 77
     1
 78
    12
140
2.0
147
0.5
173
     1
271
     2
272
     3
284
    12
340
44
  0
ENDTAB
  0
TABLE
  2
BLOCK_RECORD
  5
1
330
0
100
AcDbSymbolTable
 70
     9
  0
BLOCK_RECORD
  5
1F
330
1
100
AcDbSymbolTableRecord
100
AcDbBlockTableRecord
  2
*Model_Space
340
22
  0
BLOCK_RECORD
  5
1B
330
1
100
AcDbSymbolTableRecord
100
AcDbBlockTableRecord
  2
*Paper_Space
340
1E
  0
BLOCK_RECORD
  5
23
330
1
100
AcDbSymbolTableRecord
100
AcDbBlockTableRecord
  2
*Paper_Space0
340
26
  0
BLOCK_RECORD
  5
1D9
330
1
100
AcDbSymbolTableRecord
100
AcDbBlockTableRecord
  2
*D1
340
0
  0
BLOCK_RECORD
  5
1E6
330
1
100
AcDbSymbolTableRecord
100
AcDbBlockTableRecord
  2
*D2
340
0
  0
BLOCK_RECORD
  5
1F1
330
1
100
AcDbSymbolTableRecord
100
AcDbBlockTableRecord
  2
*D3
340
0
  0
BLOCK_RECORD
  5
1FE
330
1
100
AcDbSymbolTableRecord
100
AcDbBlockTableRecord
  2
*D4
340
0
  0
BLOCK_RECORD
  5
209
330
1
100
AcDbSymbolTableRecord
100
AcDbBlockTableRecord
  2
*D5
340
0
  0
BLOCK_RECORD
  5
213
330
1
100
AcDbSymbolTableRecord
100
AcDbBlockTableRecord
  2
*D6
340
0
  0
BLOCK_RECORD
  5
21D
330
1
100
AcDbSymbolTableRecord
100
AcDbBlockTableRecord
  2
*D7
340
0
  0
BLOCK_RECORD
  5
227
330
1
100
AcDbSymbolTableRecord
100
AcDbBlockTableRecord
  2
*D8
340
0
  0
ENDTAB
  0
ENDSEC
  0
SECTION
  2
BLOCKS
  0
BLOCK
  5
20
330
1F
100
AcDbEntity
  8
0
100
AcDbBlockBegin
  2
*Model_Space
 70
     0
 10
0.0
 20
0.0
 30
0.0
  3
*Model_Space
  1

  0
ENDBLK
  5
21
330
1F
100
AcDbEntity
  8
0
100
AcDbBlockEnd
  0
BLOCK
  5
1C
330
1B
100
AcDbEntity
 67
     1
  8
0
100
AcDbBlockBegin
  2
*Paper_Space
 70
     0
 10
0.0
 20
0.0
 30
0.0
  3
*Paper_Space
  1

  0
ENDBLK
  5
1D
330
1B
100
AcDbEntity
 67
     1
  8
0
100
AcDbBlockEnd
  0
BLOCK
  5
24
330
23
100
AcDbEntity
  8
0
100
AcDbBlockBegin
  2
*Paper_Space0
 70
     0
 10
0.0
 20
0.0
 30
0.0
  3
*Paper_Space0
  1

  0
ENDBLK
  5
25
330
23
100
AcDbEntity
  8
0
100
AcDbBlockEnd
  0
BLOCK
  5
1DA
330
1D9
100
AcDbEntity
  8
0
100
AcDbBlockBegin
  2
*D1
 70
     1
 10
0.0
 20
0.0
 30
0.0
  3
*D1
  1

  0
SOLID
  5
1DC
330
1D9
100
AcDbEntity
  8
VERMASSUNG
100
AcDbTrace
 10
80.5036836403
 20
140.3291440953
 30
0.0
 11
80.0536836403
 21
137.3291440953
 31
0.0
 12
80.9536836403
 22
137.3291440953
 32
0.0
 13
80.9536836403
 23
137.3291440953
 33
0.0
  0
SOLID
  5
1DD
330
1D9
100
AcDbEntity
  8
VERMASSUNG
100
AcDbTrace
 10
80.5036836403
 20
77.3291440953
 30
0.0
 11
80.9536836403
 21
80.3291440953
 31
0.0
 12
80.0536836403
 22
80.3291440953
 32
0.0
 13
80.0536836403
 23
80.3291440953
 33
0.0
  0
LINE
  5
1DE
330
1D9
100
AcDbEntity
  8
VERMASSUNG
100
AcDbLine
 10
116.9828749917
 20
140.3291440953
 30
0.0
 11
79.5036836403
 21
140.3291440953
 31
0.0
  0
LINE
  5
1DF
330
1D9
100
AcDbEntity
  8
VERMASSUNG
100
AcDbLine
 10
116.9828749917
 20
77.3291440953
 30
0.0
 11
79.5036836403
 21
77.3291440953
 31
0.0
  0
LINE
  5
1E0
330
1D9
100
AcDbEntity
  8
VERMASSUNG
100
AcDbLine
 10
80.5036836403
 20
140.3291440953
 30
0.0
 11
80.5036836403
 21
77.3291440953
 31
0.0
  0
MTEXT
  5
1E1
330
1D9
100
AcDbEntity
  8
VERMASSUNG
100
AcDbMText
 10
77.7255481513
 20
101.1256023835
 30
0.0
 40
2.0
 41
0.0
 71
     1
 72
     1
  1
HSK A 
  7
SLDTEXTSTYLE0
 11
-7.044195017643634E-15
 21
1.0
 31
0.0
 73
     1
 44
1.0
  0
MTEXT
  5
1E2
330
1D9
100
AcDbEntity
  8
VERMASSUNG
100
AcDbMText
 10
77.9255481608
 20
110.1256029274
 30
0.0
 40
2.0
 41
0.0
 71
     1
 72
     1
  1
%%c
  7
SLDTEXTSTYLE0
 11
-7.044195017643634E-15
 21
1.0
 31
0.0
 73
     1
 44
1.0
  0
MTEXT
  5
1E3
330
1D9
100
AcDbEntity
  8
VERMASSUNG
100
AcDbMText
 10
77.9255482772
 20
113.7339295775
 30
0.0
 40
2.0
 41
0.0
 71
     1
 72
     1
  1
63
  7
SLDTEXTSTYLE0
 11
-7.044195017643634E-15
 21
1.0
 31
0.0
 73
     1
 44
1.0
  0
ENDBLK
  5
1DB
330
1D9
100
AcDbEntity
  8
0
100
AcDbBlockEnd
  0
BLOCK
  5
1E7
330
1E6
100
AcDbEntity
  8
0
100
AcDbBlockBegin
  2
*D2
 70
     1
 10
0.0
 20
0.0
 30
0.0
  3
*D2
  1

  0
SOLID
  5
1E9
330
1E6
100
AcDbEntity
  8
VERMASSUNG
100
AcDbTrace
 10
160.1828749917
 20
142.4791982665
 30
0.0
 11
163.1828749917
 21
142.0291982665
 31
0.0
 12
163.1828749917
 22
142.9291982665
 32
0.0
 13
163.1828749917
 23
142.9291982665
 33
0.0
  0
SOLID
  5
1EA
330
1E6
100
AcDbEntity
  8
VERMASSUNG
100
AcDbTrace
 10
206.6828749917
 20
142.4791982665
 30
0.0
 11
203.6828749917
 21
142.9291982665
 31
0.0
 12
203.6828749917
 22
142.0291982665
 32
0.0
 13
203.6828749917
 23
142.0291982665
 33
0.0
  0
LINE
  5
1EB
330
1E6
100
AcDbEntity
  8
VERMASSUNG
100
AcDbLine
 10
160.1828749917
 20
115.7291440953
 30
0.0
 11
160.1828749917
 21
143.4791982665
 31
0.0
  0
LINE
  5
1EC
330
1E6
100
AcDbEntity
  8
VERMASSUNG
100
AcDbLine
 10
206.6828749917
 20
120.480363112
 30
0.0
 11
206.6828749917
 21
143.4791982665
 31
0.0
  0
LINE
  5
1ED
330
1E6
100
AcDbEntity
  8
VERMASSUNG
100
AcDbLine
 10
160.1828749917
 20
142.4791982665
 30
0.0
 11
206.6828749917
 21
142.4791982665
 31
0.0
  0
MTEXT
  5
1EE
330
1E6
100
AcDbEntity
  8
VERMASSUNG
100
AcDbMText
 10
180.9334882094
 20
145.0573336296
 30
0.0
 40
2.0
 41
0.0
 71
     1
 72
     1
  1
46.5
  7
SLDTEXTSTYLE0
 73
     1
 44
1.0
  0
ENDBLK
  5
1E8
330
1E6
100
AcDbEntity
  8
0
100
AcDbBlockEnd
  0
BLOCK
  5
1F2
330
1F1
100
AcDbEntity
  8
0
100
AcDbBlockBegin
  2
*D3
 70
     1
 10
0.0
 20
0.0
 30
0.0
  3
*D3
  1

  0
SOLID
  5
1F4
330
1F1
100
AcDbEntity
  8
VERMASSUNG
100
AcDbTrace
 10
213.7114842904
 20
101.8291440953
 30
0.0
 11
214.1614842904
 21
104.8291440953
 31
0.0
 12
213.2614842904
 22
104.8291440953
 32
0.0
 13
213.2614842904
 23
104.8291440953
 33
0.0
  0
SOLID
  5
1F5
330
1F1
100
AcDbEntity
  8
VERMASSUNG
100
AcDbTrace
 10
213.7114842904
 20
115.8291440953
 30
0.0
 11
213.2614842904
 21
112.8291440953
 31
0.0
 12
214.1614842904
 22
112.8291440953
 32
0.0
 13
214.1614842904
 23
112.8291440953
 33
0.0
  0
LINE
  5
1F6
330
1F1
100
AcDbEntity
  8
VERMASSUNG
100
AcDbLine
 10
203.1828749917
 20
101.8291440953
 30
0.0
 11
214.7114842904
 21
101.8291440953
 31
0.0
  0
LINE
  5
1F7
330
1F1
100
AcDbEntity
  8
VERMASSUNG
100
AcDbLine
 10
203.1828749917
 20
115.8291440953
 30
0.0
 11
214.7114842904
 21
115.8291440953
 31
0.0
  0
LINE
  5
1F8
330
1F1
100
AcDbEntity
  8
VERMASSUNG
100
AcDbLine
 10
213.7114842904
 20
101.8291440953
 30
0.0
 11
213.7114842904
 21
115.8291440953
 31
0.0
  0
MTEXT
  5
1F9
330
1F1
100
AcDbEntity
  8
VERMASSUNG
100
AcDbMText
 10
211.1333488108
 20
105.1253174431
 30
0.0
 40
2.0
 41
0.0
 71
     1
 72
     1
  1
%%c
  7
SLDTEXTSTYLE0
 11
6.123233995736766E-17
 21
1.0
 31
0.0
 73
     1
 44
1.0
  0
MTEXT
  5
1FA
330
1F1
100
AcDbEntity
  8
VERMASSUNG
100
AcDbMText
 10
211.1333489272
 20
108.7339956663
 30
0.0
 40
2.0
 41
0.0
 71
     1
 72
     1
  1
14
  7
SLDTEXTSTYLE0
 11
6.123233995736766E-17
 21
1.0
 31
0.0
 73
     1
 44
1.0
  0
MTEXT
  5
1FB
330
1F1
100
AcDbEntity
  8
VERMASSUNG
100
AcDbMText
 10
211.1333489272
 20
111.3331722644
 30
0.0
 40
2.0
 41
0.0
 71
     1
 72
     1
  1
 
  7
SLDTEXTSTYLE0
 11
6.123233995736766E-17
 21
1.0
 31
0.0
 73
     1
 44
1.0
  0
ENDBLK
  5
1F3
330
1F1
100
AcDbEntity
  8
0
100
AcDbBlockEnd
  0
BLOCK
  5
1FF
330
1FE
100
AcDbEntity
  8
0
100
AcDbBlockBegin
  2
*D4
 70
     1
 10
0.0
 20
0.0
 30
0.0
  3
*D4
  1

  0
SOLID
  5
201
330
1FE
100
AcDbEntity
  8
VERMASSUNG
100
AcDbTrace
 10
219.7114842904
 20
95.3291440953
 30
0.0
 11
220.1614842904
 21
98.3291440953
 31
0.0
 12
219.2614842904
 22
98.3291440953
 32
0.0
 13
219.2614842904
 23
98.3291440953
 33
0.0
  0
SOLID
  5
202
330
1FE
100
AcDbEntity
  8
VERMASSUNG
100
AcDbTrace
 10
219.7114842904
 20
122.3291440953
 30
0.0
 11
219.2614842904
 21
119.3291440953
 31
0.0
 12
220.1614842904
 22
119.3291440953
 32
0.0
 13
220.1614842904
 23
119.3291440953
 33
0.0
  0
LINE
  5
203
330
1FE
100
AcDbEntity
  8
VERMASSUNG
100
AcDbLine
 10
206.6828749917
 20
95.3291440953
 30
0.0
 11
220.7114842904
 21
95.3291440953
 31
0.0
  0
LINE
  5
204
330
1FE
100
AcDbEntity
  8
VERMASSUNG
100
AcDbLine
 10
206.6828749917
 20
122.3291440953
 30
0.0
 11
220.7114842904
 21
122.3291440953
 31
0.0
  0
LINE
  5
205
330
1FE
100
AcDbEntity
  8
VERMASSUNG
100
AcDbLine
 10
219.7114842904
 20
95.3291440953
 30
0.0
 11
219.7114842904
 21
122.3291440953
 31
0.0
  0
MTEXT
  5
206
330
1FE
100
AcDbEntity
  8
VERMASSUNG
100
AcDbMText
 10
217.1333488108
 20
105.6254268689
 30
0.0
 40
2.0
 41
0.0
 71
     1
 72
     1
  1
%%c
  7
SLDTEXTSTYLE0
 11
6.123233995736766E-17
 21
1.0
 31
0.0
 73
     1
 44
1.0
  0
MTEXT
  5
207
330
1FE
100
AcDbEntity
  8
VERMASSUNG
100
AcDbMText
 10
217.1333489272
 20
109.2341050921
 30
0.0
 40
2.0
 41
0.0
 71
     1
 72
     1
  1
27
  7
SLDTEXTSTYLE0
 11
6.123233995736766E-17
 21
1.0
 31
0.0
 73
     1
 44
1.0
  0
ENDBLK
  5
200
330
1FE
100
AcDbEntity
  8
0
100
AcDbBlockEnd
  0
BLOCK
  5
20A
330
209
100
AcDbEntity
  8
0
100
AcDbBlockBegin
  2
*D5
 70
     1
 10
0.0
 20
0.0
 30
0.0
  3
*D5
  1

  0
SOLID
  5
20C
330
209
100
AcDbEntity
  8
VERMASSUNG
100
AcDbTrace
 10
116.6828749917
 20
154.4791982665
 30
0.0
 11
119.6828749917
 21
154.0291982665
 31
0.0
 12
119.6828749917
 22
154.9291982665
 32
0.0
 13
119.6828749917
 23
154.9291982665
 33
0.0
  0
SOLID
  5
20D
330
209
100
AcDbEntity
  8
VERMASSUNG
100
AcDbTrace
 10
206.6828749917
 20
154.4791982665
 30
0.0
 11
203.6828749917
 21
154.9291982665
 31
0.0
 12
203.6828749917
 22
154.0291982665
 32
0.0
 13
203.6828749917
 23
154.0291982665
 33
0.0
  0
LINE
  5
20E
330
209
100
AcDbEntity
  8
VERMASSUNG
100
AcDbLine
 10
116.6828749917
 20
140.0291440953
 30
0.0
 11
116.6828749917
 21
155.4791982665
 31
0.0
  0
LINE
  5
20F
330
209
100
AcDbEntity
  8
VERMASSUNG
100
AcDbLine
 10
206.6828749917
 20
120.480363112
 30
0.0
 11
206.6828749917
 21
155.4791982665
 31
0.0
  0
LINE
  5
210
330
209
100
AcDbEntity
  8
VERMASSUNG
100
AcDbLine
 10
116.6828749917
 20
154.4791982665
 30
0.0
 11
206.6828749917
 21
154.4791982665
 31
0.0
  0
MTEXT
  5
211
330
209
100
AcDbEntity
  8
VERMASSUNG
100
AcDbMText
 10
160.2834968768
 20
157.0573336297
 30
0.0
 40
2.0
 41
0.0
 71
     1
 72
     1
  1
90
  7
SLDTEXTSTYLE0
 73
     1
 44
1.0
  0
ENDBLK
  5
20B
330
209
100
AcDbEntity
  8
0
100
AcDbBlockEnd
  0
BLOCK
  5
214
330
213
100
AcDbEntity
  8
0
100
AcDbBlockBegin
  2
*D6
 70
     1
 10
0.0
 20
0.0
 30
0.0
  3
*D6
  1

  0
SOLID
  5
216
330
213
100
AcDbEntity
  8
VERMASSUNG
100
AcDbTrace
 10
142.6328749917
 20
148.4791982665
 30
0.0
 11
145.6328749917
 21
148.0291982665
 31
0.0
 12
145.6328749917
 22
148.9291982665
 32
0.0
 13
145.6328749917
 23
148.9291982665
 33
0.0
  0
SOLID
  5
217
330
213
100
AcDbEntity
  8
VERMASSUNG
100
AcDbTrace
 10
206.6828749917
 20
148.4791982665
 30
0.0
 11
203.6828749917
 21
148.9291982665
 31
0.0
 12
203.6828749917
 22
148.0291982665
 32
0.0
 13
203.6828749917
 23
148.0291982665
 33
0.0
  0
LINE
  5
218
330
213
100
AcDbEntity
  8
VERMASSUNG
100
AcDbLine
 10
142.6328749917
 20
138.6755844191
 30
0.0
 11
142.6328749917
 21
149.4791982665
 31
0.0
  0
LINE
  5
219
330
213
100
AcDbEntity
  8
VERMASSUNG
100
AcDbLine
 10
206.6828749917
 20
120.480363112
 30
0.0
 11
206.6828749917
 21
149.4791982665
 31
0.0
  0
LINE
  5
21A
330
213
100
AcDbEntity
  8
VERMASSUNG
100
AcDbLine
 10
142.6328749917
 20
148.4791982665
 30
0.0
 11
206.6828749917
 21
148.4791982665
 31
0.0
  0
MTEXT
  5
21B
330
213
100
AcDbEntity
  8
VERMASSUNG
100
AcDbMText
 10
171.458799152
 20
151.0573336297
 30
0.0
 40
2.0
 41
0.0
 71
     1
 72
     1
  1
64.05
  7
SLDTEXTSTYLE0
 73
     1
 44
1.0
  0
ENDBLK
  5
215
330
213
100
AcDbEntity
  8
0
100
AcDbBlockEnd
  0
BLOCK
  5
21E
330
21D
100
AcDbEntity
  8
0
100
AcDbBlockBegin
  2
*D7
 70
     1
 10
0.0
 20
0.0
 30
0.0
  3
*D7
  1

  0
SOLID
  5
220
330
21D
100
AcDbEntity
  8
VERMASSUNG
100
AcDbTrace
 10
84.7828749917
 20
160.4791982665
 30
0.0
 11
87.7828749917
 21
160.0291982665
 31
0.0
 12
87.7828749917
 22
160.9291982665
 32
0.0
 13
87.7828749917
 23
160.9291982665
 33
0.0
  0
SOLID
  5
221
330
21D
100
AcDbEntity
  8
VERMASSUNG
100
AcDbTrace
 10
206.6828749917
 20
160.4791982665
 30
0.0
 11
203.6828749917
 21
160.9291982665
 31
0.0
 12
203.6828749917
 22
160.0291982665
 32
0.0
 13
203.6828749917
 23
160.0291982665
 33
0.0
  0
LINE
  5
222
330
21D
100
AcDbEntity
  8
VERMASSUNG
100
AcDbLine
 10
84.7828749917
 20
128.5198218418
 30
0.0
 11
84.7828749917
 21
161.4791982665
 31
0.0
  0
LINE
  5
223
330
21D
100
AcDbEntity
  8
VERMASSUNG
100
AcDbLine
 10
206.6828749917
 20
120.480363112
 30
0.0
 11
206.6828749917
 21
161.4791982665
 31
0.0
  0
LINE
  5
224
330
21D
100
AcDbEntity
  8
VERMASSUNG
100
AcDbLine
 10
84.7828749917
 20
160.4791982665
 30
0.0
 11
206.6828749917
 21
160.4791982665
 31
0.0
  0
MTEXT
  5
225
330
21D
100
AcDbEntity
  8
VERMASSUNG
100
AcDbMText
 10
143.0339085778
 20
163.0573336297
 30
0.0
 40
2.0
 41
0.0
 71
     1
 72
     1
  1
121.9
  7
SLDTEXTSTYLE0
 73
     1
 44
1.0
  0
ENDBLK
  5
21F
330
21D
100
AcDbEntity
  8
0
100
AcDbBlockEnd
  0
BLOCK
  5
228
330
227
100
AcDbEntity
  8
0
100
AcDbBlockBegin
  2
*D8
 70
     1
 10
0.0
 20
0.0
 30
0.0
  3
*D8
  1

  0
SOLID
  5
22A
330
227
100
AcDbEntity
  8
VERMASSUNG
100
AcDbTrace
 10
225.7114842904
 20
125.8291440953
 30
0.0
 11
225.2614842904
 21
122.8291440953
 31
0.0
 12
226.1614842904
 22
122.8291440953
 32
0.0
 13
226.1614842904
 23
122.8291440953
 33
0.0
  0
SOLID
  5
22B
330
227
100
AcDbEntity
  8
VERMASSUNG
100
AcDbTrace
 10
225.7114842904
 20
91.8291440953
 30
0.0
 11
226.1614842904
 21
94.8291440953
 31
0.0
 12
225.2614842904
 22
94.8291440953
 32
0.0
 13
225.2614842904
 23
94.8291440953
 33
0.0
  0
LINE
  5
22C
330
227
100
AcDbEntity
  8
VERMASSUNG
100
AcDbLine
 10
162.2111584151
 20
125.8291440953
 30
0.0
 11
226.7114842904
 21
125.8291440953
 31
0.0
  0
LINE
  5
22D
330
227
100
AcDbEntity
  8
VERMASSUNG
100
AcDbLine
 10
162.2111584151
 20
91.8291440953
 30
0.0
 11
226.7114842904
 21
91.8291440953
 31
0.0
  0
LINE
  5
22E
330
227
100
AcDbEntity
  8
VERMASSUNG
100
AcDbLine
 10
225.7114842904
 20
125.8291440953
 30
0.0
 11
225.7114842904
 21
91.8291440953
 31
0.0
  0
MTEXT
  5
22F
330
227
100
AcDbEntity
  8
VERMASSUNG
100
AcDbMText
 10
223.1333488108
 20
105.5256370531
 30
0.0
 40
2.0
 41
0.0
 71
     1
 72
     1
  1
%%c
  7
SLDTEXTSTYLE0
 11
-7.044195017643634E-15
 21
1.0
 31
0.0
 73
     1
 44
1.0
  0
MTEXT
  5
230
330
227
100
AcDbEntity
  8
VERMASSUNG
100
AcDbMText
 10
223.1333489272
 20
109.1343152763
 30
0.0
 40
2.0
 41
0.0
 71
     1
 72
     1
  1
34
  7
SLDTEXTSTYLE0
 11
-7.044195017643634E-15
 21
1.0
 31
0.0
 73
     1
 44
1.0
  0
ENDBLK
  5
229
330
227
100
AcDbEntity
  8
0
100
AcDbBlockEnd
  0
ENDSEC
  0
SECTION
  2
ENTITIES
  0
MTEXT
  5
45
330
1F
100
AcDbEntity
  8
KOPF_DÜNN
100
AcDbMText
 10
13.8892156294
 20
23.8442973028
 30
0.0
 40
3.0
 41
0.0
 71
     1
 72
     1
  1
HA6.S14.K21.090
  7
SLDTEXTSTYLE0
 73
     1
 44
1.0
  0
MTEXT
  5
46
330
1F
100
AcDbEntity
  8
VERMASSUNG
100
AcDbMText
 10
13.9329988022
 20
28.8834360957
 30
0.0
 40
3.0
 41
0.0
 71
     1
 72
     1
  1
Schrumpffutter_Heat shrink chuck
  7
SLDTEXTSTYLE0
 73
     1
 44
1.0
  0
MTEXT
  5
47
330
1F
100
AcDbEntity
  8
VERMASSUNG
100
AcDbMText
 10
98.8601118557
 20
13.8365368179
 30
0.0
 40
2.0
 41
0.0
 71
     1
 72
     1
  1
Datum: 27.04.2011
  7
SLDTEXTSTYLE0
 73
     1
 44
1.0
  0
MTEXT
  5
49
330
1F
100
AcDbEntity
  8
VERMASSUNG
100
AcDbMText
 10
13.933048693
 20
18.0482802738
 30
0.0
 40
2.0
 41
0.0
 71
     1
 72
     1
  1
DIN 69 893 HSK A 63
  7
SLDTEXTSTYLE1
 73
     1
 44
1.0
  0
MTEXT
  5
4A
330
1F
100
AcDbEntity
  8
VERMASSUNG
100
AcDbMText
 10
13.9808475933
 20
13.9090973692
 30
0.0
 40
2.0
 41
0.0
 71
     1
 72
     1
  1
Gewicht: 963g
  7
SLDTEXTSTYLE0
 73
     1
 44
1.0
  0
LINE
  5
4B
330
1F
100
AcDbEntity
  8
0
  6
Continuous
 62
     7
370
    15
100
AcDbLine
 10
116.9828749917
 20
77.3291440953
 30
0.0
 11
121.6328749917
 21
77.3291440953
 31
0.0
  0
LINE
  5
4C
330
1F
100
AcDbEntity
  8
0
  6
Continuous
 62
     7
370
    15
100
AcDbLine
 10
121.6421830785
 20
140.3291440953
 30
0.0
 11
116.9828749917
 21
140.3291440953
 31
0.0
  0
ARC
  5
4D
330
1F
100
AcDbEntity
  8
0
  6
Continuous
 62
     7
370
    15
100
AcDbCircle
 10
116.9828749917
 20
77.6291440953
 30
0.0
 40
0.3000000000000114
100
AcDbArc
 50
180.0
 51
270.0
  0
ARC
  5
4E
330
1F
100
AcDbEntity
  8
0
  6
Continuous
 62
     7
370
    15
100
AcDbCircle
 10
116.9828749917
 20
140.0291440953
 30
0.0
 40
0.3000000000000114
100
AcDbArc
 50
90.0
 51
180.0
  0
ARC
  5
4F
330
1F
100
AcDbEntity
  8
0
  6
Continuous
 62
     7
370
    15
100
AcDbCircle
 10
116.182868239
 20
84.258706481
 30
0.0
 40
0.6000067526677242
100
AcDbArc
 50
33.5571153394
 51
90.0
  0
ARC
  5
50
330
1F
100
AcDbEntity
  8
0
  6
Continuous
 62
     7
370
    15
100
AcDbCircle
 10
116.182868239
 20
133.3995817097
 30
0.0
 40
0.6000067526677242
100
AcDbArc
 50
270.0
 51
326.4428846606
  0
LINE
  5
51
330
1F
100
AcDbEntity
  8
0
  6
Continuous
 62
     7
370
    15
100
AcDbLine
 10
114.6828749917
 20
84.6087132336
 30
0.0
 11
115.539587765
 21
84.8382687294
 31
0.0
  0
LINE
  5
52
330
1F
100
AcDbEntity
  8
0
  6
Continuous
 62
     7
370
    15
100
AcDbLine
 10
115.539587765
 20
132.8200194613
 30
0.0
 11
114.6828749917
 21
133.0495749571
 31
0.0
  0
LINE
  5
53
330
1F
100
AcDbEntity
  8
0
  6
Continuous
 62
     7
370
    15
100
AcDbLine
 10
103.417808559
 20
132.4851928713
 30
0.0
 11
90.8828749917
 21
131.8571901875
 31
0.0
  0
LINE
  5
54
330
1F
100
AcDbEntity
  8
0
  6
Continuous
 62
     7
370
    15
100
AcDbLine
 10
114.6828749917
 20
133.0495749571
 30
0.0
 11
111.8976209354
 21
132.9100331707
 31
0.0
  0
LINE
  5
55
330
1F
100
AcDbEntity
  8
0
  6
Continuous
 62
     7
370
    15
100
AcDbLine
 10
111.8992620166
 20
84.7481728015
 30
0.0
 11
114.6828749917
 21
84.6087132336
 31
0.0
  0
LINE
  5
56
330
1F
100
AcDbEntity
  8
0
  6
Continuous
 62
     7
370
    15
100
AcDbLine
 10
94.8828749917
 20
85.6006972016
 30
0.0
 11
103.4176093471
 21
85.1731053
 31
0.0
  0
ARC
  5
57
330
1F
100
AcDbEntity
  8
0
  6
Continuous
 62
     7
370
    15
100
AcDbCircle
 10
115.6948791921
 20
84.2587132336
 30
0.0
 40
0.6000000000000085
100
AcDbArc
 50
90.0
 51
105.0
  0
ARC
  5
58
330
1F
100
AcDbEntity
  8
0
  6
Continuous
 62
     7
370
    15
100
AcDbCircle
 10
115.6948791921
 20
133.3995749571
 30
0.0
 40
0.5999999999999943
100
AcDbArc
 50
255.0
 51
270.0
  0
LINE
  5
59
330
1F
100
AcDbEntity
  8
0
  6
Continuous
 62
     7
370
    15
100
AcDbLine
 10
115.6948791921
 20
84.8587132336
 30
0.0
 11
116.182868239
 21
84.8587132336
 31
0.0
  0
LINE
  5
5A
330
1F
100
AcDbEntity
  8
0
  6
Continuous
 62
     7
370
    15
100
AcDbLine
 10
116.182868239
 20
132.7995749571
 30
0.0
 11
115.6948791921
 21
132.7995749571
 31
0.0
  0
ARC
  5
5B
330
1F
100
AcDbEntity
  8
0
  6
Continuous
 62
     7
370
    15
100
AcDbCircle
 10
145.6328749917
 20
88.8291440953
 30
0.0
 40
3.0
100
AcDbArc
 50
90.0
 51
180.0
  0
ARC
  5
5C
330
1F
100
AcDbEntity
  8
0
  6
Continuous
 62
     7
370
    15
100
AcDbCircle
 10
145.6328749917
 20
128.8291440953
 30
0.0
 40
3.0
100
AcDbArc
 50
182.6577405905
 51
270.0
  0
LINE
  5
5D
330
1F
100
AcDbEntity
  8
0
  6
Continuous
 62
     7
370
    15
100
AcDbLine
 10
162.2111584151
 20
91.8291440953
 30
0.0
 11
204.8397931831
 21
95.1840904112
 31
0.0
  0
LINE
  5
5E
330
1F
100
AcDbEntity
  8
0
  6
Continuous
 62
     7
370
    15
100
AcDbLine
 10
204.8397931831
 20
122.4741977795
 30
0.0
 11
162.2111584151
 21
125.8291440953
 31
0.0
  0
LINE
  5
5F
330
1F
100
AcDbEntity
  8
0
  6
Continuous
 62
     7
370
    15
100
AcDbLine
 10
157.1316529218
 20
91.8291440953
 30
0.0
 11
162.2111584151
 21
91.8291440953
 31
0.0
  0
LINE
  5
60
330
1F
100
AcDbEntity
  8
0
  6
Continuous
 62
     7
370
    15
100
AcDbLine
 10
145.6328749917
 20
91.8291440953
 30
0.0
 11
150.1432298957
 21
91.8291440953
 31
0.0
  0
LINE
  5
61
330
1F
100
AcDbEntity
  8
0
  6
Continuous
 62
     7
370
    15
100
AcDbLine
 10
150.1348725937
 20
125.8291440953
 30
0.0
 11
145.6328749917
 21
125.8291440953
 31
0.0
  0
LINE
  5
62
330
1F
100
AcDbEntity
  8
0
  6
Continuous
 62
     7
370
    15
100
AcDbLine
 10
162.2111584151
 20
125.8291440953
 30
0.0
 11
157.1288816216
 21
125.8291440953
 31
0.0
  0
ARC
  5
63
330
1F
100
AcDbEntity
  8
0
  6
Continuous
 62
     7
370
    15
100
AcDbCircle
 10
204.6828749917
 20
97.1779250787
 30
0.0
 40
2.000000000000019
100
AcDbArc
 50
274.5
 51
0.0
  0
ARC
  5
64
330
1F
100
AcDbEntity
  8
0
  6
Continuous
 62
     7
370
    15
100
AcDbCircle
 10
204.6828749917
 20
120.480363112
 30
0.0
 40
2.000000000000019
100
AcDbArc
 50
0.0
 51
85.5
  0
LINE
  5
65
330
1F
100
AcDbEntity
  8
0
  6
Continuous
 62
     7
370
    15
100
AcDbLine
 10
86.0662116317
 20
87.9591440953
 30
0.0
 11
93.4828749917
 21
87.9591440953
 31
0.0
  0
ARC
  5
66
330
1F
100
AcDbEntity
  8
0
  6
Continuous
 62
     7
370
    15
100
AcDbCircle
 10
93.4828749917
 20
86.5591440953
 30
0.0
 40
1.399999999999997
100
AcDbArc
 50
42.2465410162
 51
90.0
  0
LINE
  5
67
330
1F
100
AcDbEntity
  8
0
  6
Continuous
 62
     7
370
    15
100
AcDbLine
 10
84.7940354268
 20
89.0979836602
 30
0.0
 11
85.9240384498
 21
87.9679806372
 31
0.0
  0
LINE
  5
68
330
1F
100
AcDbEntity
  8
0
  6
Continuous
 62
     7
370
    15
100
AcDbLine
 10
85.9240384498
 20
129.6903075535
 30
0.0
 11
84.7940426109
 21
128.5603117145
 31
0.0
  0
ARC
  5
69
330
1F
100
AcDbEntity
  8
0
  6
Continuous
 62
     7
370
    15
100
AcDbCircle
 10
89.4828749917
 20
131.0991440953
 30
0.0
 40
1.400000000000034
100
AcDbArc
 50
270.0
 51
302.5610026528
  0
LINE
  5
6A
330
1F
100
AcDbEntity
  8
0
  6
Continuous
 62
     7
370
    15
100
AcDbLine
 10
89.4828749917
 20
129.6991440953
 30
0.0
 11
86.0737633931
 21
129.6991440953
 31
0.0
  0
LINE
  5
6B
330
1F
100
AcDbEntity
  8
0
  6
Continuous
 62
     7
370
    15
100
AcDbLine
 10
206.7013074752
 20
120.0488607968
 30
0.0
 11
206.6828749917
 21
120.0838951854
 31
0.0
  0
LINE
  5
6C
330
1F
100
AcDbEntity
  8
0
  6
Continuous
 62
     7
370
    15
100
AcDbLine
 10
206.6828749917
 20
97.464775835
 30
0.0
 11
206.7601971988
 21
97.6117411774
 31
0.0
  0
LINE
  5
6D
330
1F
100
AcDbEntity
  8
0
  6
Continuous
 62
     7
370
    15
100
AcDbLine
 10
132.7728749917
 20
81.3313069363
 30
0.0
 11
132.7728749917
 21
128.6791440953
 31
0.0
  0
SPLINE
  5
6E
330
1F
100
AcDbEntity
  8
0
  6
Continuous
 62
     7
370
    15
100
AcDbSpline
210
0.0
220
0.0
230
1.0
 70
     8
 71
     3
 72
     8
 73
     4
 74
     0
 42
0.00000001
 43
0.00000001
 40
0.0
 40
0.0
 40
0.0
 40
0.0
 40
1.0
 40
1.0
 40
1.0
 40
1.0
 10
132.7728749916658
 20
81.33130693628654
 30
0.0
 10
132.2805358688846
 20
80.43403690207984
 30
0.0
 10
131.7864218208424
 20
79.53775248702759
 30
0.0
 10
131.2909421601767
 20
78.64222639909424
 30
0.0
  0
LINE
  5
6F
330
1F
100
AcDbEntity
  8
0
  6
Continuous
 62
     7
370
    15
100
AcDbLine
 10
131.2909421602
 20
78.6422263991
 30
0.0
 11
131.2909421602
 21
128.6791440953
 31
0.0
  0
SPLINE
  5
70
330
1F
100
AcDbEntity
  8
0
  6
Continuous
 62
     7
370
    15
100
AcDbSpline
210
0.0
220
0.0
230
1.0
 70
    24
 71
     3
 72
     8
 73
     4
 74
     0
 42
0.00000001
 43
0.00000001
 40
0.0
 40
0.0
 40
0.0
 40
0.0
 40
1.0
 40
1.0
 40
1.0
 40
1.0
 10
131.2909421601767
 20
128.6791440953414
 30
0.0
 10
131.7976222683272
 20
128.6791440953414
 30
0.0
 10
132.2929229973008
 20
128.6791440953414
 30
0.0
 10
132.7728749916658
 20
128.6791440953414
 30
0.0
  0
LINE
  5
71
330
1F
100
AcDbEntity
  8
0
  6
Continuous
 62
     7
370
    15
100
AcDbLine
 10
142.0328749917
 20
78.6422263991
 30
0.0
 11
138.0748078232
 21
78.6422263991
 31
0.0
  0
LINE
  5
72
330
1F
100
AcDbEntity
  8
0
  6
Continuous
 62
     7
370
    15
100
AcDbLine
 10
138.0748078232
 20
78.6422263991
 30
0.0
 11
138.0748078232
 21
128.6791440953
 31
0.0
  0
LINE
  5
73
330
1F
100
AcDbEntity
  8
0
  6
Continuous
 62
     7
370
    15
100
AcDbLine
 10
138.0748078232
 20
128.6791440953
 30
0.0
 11
142.0328749917
 21
128.6791440953
 31
0.0
  0
SPLINE
  5
74
330
1F
100
AcDbEntity
  8
0
  6
Continuous
 62
     7
370
    15
100
AcDbSpline
210
0.0
220
0.0
230
1.0
 70
     8
 71
     3
 72
     8
 73
     4
 74
     0
 42
0.00000001
 43
0.00000001
 40
0.0
 40
0.0
 40
0.0
 40
0.0
 40
1.0
 40
1.0
 40
1.0
 40
1.0
 10
138.0748078231548
 20
78.64222639909424
 30
0.0
 10
137.5793281624891
 20
79.5377524870276
 30
0.0
 10
137.0852141144469
 20
80.43403690207984
 30
0.0
 10
136.5928749916658
 20
81.33130693628654
 30
0.0
  0
LINE
  5
75
330
1F
100
AcDbEntity
  8
0
  6
Continuous
 62
     7
370
    15
100
AcDbLine
 10
136.5928749917
 20
81.3313069363
 30
0.0
 11
136.5928749917
 21
128.6791440953
 31
0.0
  0
SPLINE
  5
76
330
1F
100
AcDbEntity
  8
0
  6
Continuous
 62
     7
370
    15
100
AcDbSpline
210
0.0
220
0.0
230
1.0
 70
    24
 71
     3
 72
     8
 73
     4
 74
     0
 42
0.00000001
 43
0.00000001
 40
0.0
 40
0.0
 40
0.0
 40
0.0
 40
1.0
 40
1.0
 40
1.0
 40
1.0
 10
136.5928749916658
 20
128.6791440953414
 30
0.0
 10
137.0728269860307
 20
128.6791440953414
 30
0.0
 10
137.5681277150043
 20
128.6791440953414
 30
0.0
 10
138.0748078231549
 20
128.6791440953414
 30
0.0
  0
SPLINE
  5
77
330
1F
100
AcDbEntity
  8
0
  6
Continuous
 62
     7
370
    15
100
AcDbSpline
210
0.0
220
0.0
230
1.0
 70
     8
 71
     3
 72
    70
 73
    66
 74
     0
 42
0.00000001
 43
0.00000001
 40
-0.0312499999999997
 40
-0.0312499999999997
 40
0.0
 40
0.0
 40
0.0312500000000002
 40
0.0312500000000002
 40
0.0625000000000004
 40
0.0625000000000004
 40
0.0937500000000006
 40
0.0937500000000006
 40
0.1250000000000009
 40
0.1250000000000009
 40
0.1562500000000011
 40
0.1562500000000011
 40
0.1875000000000013
 40
0.1875000000000013
 40
0.2187500000000015
 40
0.2187500000000015
 40
0.2500000000000017
 40
0.2500000000000017
 40
0.2812500000000019
 40
0.2812500000000019
 40
0.3125000000000022
 40
0.3125000000000022
 40
0.3437500000000024
 40
0.3437500000000024
 40
0.3750000000000026
 40
0.3750000000000026
 40
0.4062500000000028
 40
0.4062500000000028
 40
0.437500000000003
 40
0.437500000000003
 40
0.4687500000000032
 40
0.4687500000000032
 40
0.5000000000000034
 40
0.5000000000000034
 40
0.5312500000000034
 40
0.5312500000000034
 40
0.5625000000000034
 40
0.5625000000000034
 40
0.5937500000000034
 40
0.5937500000000034
 40
0.6250000000000034
 40
0.6250000000000034
 40
0.6562500000000034
 40
0.6562500000000034
 40
0.6875000000000034
 40
0.6875000000000034
 40
0.7187500000000031
 40
0.7187500000000031
 40
0.7500000000000027
 40
0.7500000000000027
 40
0.7812500000000023
 40
0.7812500000000023
 40
0.812500000000002
 40
0.812500000000002
 40
0.8437500000000017
 40
0.8437500000000017
 40
0.8750000000000013
 40
0.8750000000000013
 40
0.906250000000001
 40
0.906250000000001
 40
0.9375000000000007
 40
0.9375000000000007
 40
0.9687500000000003
 40
0.9687500000000003
 40
1.0
 40
1.0
 40
1.03125
 40
1.03125
 10
124.4183296530056
 20
119.4500509813248
 30
0.0
 10
124.9474203303259
 20
119.4500509813248
 30
0.0
 10
125.207490997703
 20
119.4747282761099
 30
0.0
 10
125.7190656775384
 20
119.5711999491518
 30
0.0
 10
125.9732409612786
 20
119.6441808651319
 30
0.0
 10
126.4575115913403
 20
119.8339214680705
 30
0.0
 10
126.6871526832215
 20
119.9497821264643
 30
0.0
 10
127.121757031455
 20
120.222399972422
 30
0.0
 10
127.3273228081016
 20
120.3804390544757
 30
0.0
 10
127.6958799486968
 20
120.7239819054464
 30
0.0
 10
127.8613609314323
 20
120.9107443495481
 30
0.0
 10
128.1537854408674
 20
121.3142875239449
 30
0.0
 10
128.2778864174939
 20
121.5277845203741
 30
0.0
 10
128.4774656142436
 20
121.9671678342965
 30
0.0
 10
128.5543992001019
 20
122.1963078214422
 30
0.0
 10
128.6572562586223
 20
122.6622819442022
 30
0.0
 10
128.6827291680814
 20
122.8951643898783
 30
0.0
 10
128.6830195786492
 20
123.3605619249582
 30
0.0
 10
128.6569949448734
 20
123.5954376823525
 30
0.0
 10
128.5548466603815
 20
124.0469308295988
 30
0.0
 10
128.4792702127983
 20
124.2649773050101
 30
0.0
 10
128.2787726816534
 20
124.6860718300479
 30
0.0
 10
128.153643840145
 20
124.8879932145663
 30
0.0
 10
127.8642850391234
 20
125.2600226970852
 30
0.0
 10
127.6988740520679
 20
125.4326510006655
 30
0.0
 10
127.3258834939201
 20
125.7499690052115
 30
0.0
 10
127.124150460831
 20
125.8897559387132
 30
0.0
 10
126.6912912100031
 20
126.133932192265
 30
0.0
 10
126.4573726771137
 20
126.2391617033065
 30
0.0
 10
125.9731889419711
 20
126.4073188496816
 30
0.0
 10
125.7238733160156
 20
126.4705697402755
 30
0.0
 10
125.2108407915879
 20
126.5561489493781
 30
0.0
 10
124.9455469686832
 20
126.5780211143004
 30
0.0
 10
124.4232123488135
 20
126.5781847639444
 30
0.0
 10
124.1634586863318
 20
126.5571830718484
 30
0.0
 10
123.6468468706865
 20
126.4717807167707
 30
0.0
 10
123.3944808301863
 20
126.4077745334838
 30
0.0
 10
122.9129557086534
 20
126.2409600134426
 30
0.0
 10
122.6801049765399
 20
126.1368268500435
 30
0.0
 10
122.2430151281011
 20
125.8908401975485
 30
0.0
 10
122.0416941394439
 20
125.7510903665997
 30
0.0
 10
121.672608114144
 20
125.437952296875
 30
0.0
 10
121.5036233630923
 20
125.2624961376049
 30
0.0
 10
121.2131673064331
 20
124.8896558735047
 30
0.0
 10
121.090095495071
 20
124.6915340633938
 30
0.0
 10
120.888759253649
 20
124.2708227206601
 30
0.0
 10
120.8115467077067
 20
124.0488326999926
 30
0.0
 10
120.7093431648067
 20
123.5989677602842
 30
0.0
 10
120.6831148133543
 20
123.3687123471675
 30
0.0
 10
120.6826384140372
 20
122.8973964046184
 30
0.0
 10
120.7083808265352
 20
122.6641589889043
 30
0.0
 10
120.8096916028991
 20
122.2024824494062
 30
0.0
 10
120.88652424229
 20
121.9715850622941
 30
0.0
 10
121.0869280815052
 20
121.5293090485024
 30
0.0
 10
121.2095995797972
 20
121.3182466172165
 30
0.0
 10
121.4995468689615
 20
120.9167481064838
 30
0.0
 10
121.6681178483267
 20
120.7258415844079
 30
0.0
 10
122.0363874424399
 20
120.3821162524108
 30
0.0
 10
122.2374492997102
 20
120.2269790661967
 30
0.0
 10
122.6744802182951
 20
119.951901706117
 30
0.0
 10
122.9066284314247
 20
119.834785476695
 30
0.0
 10
123.3876387129236
 20
119.6458589916304
 30
0.0
 10
123.639738795754
 20
119.5727840212362
 30
0.0
 10
124.156808282013
 20
119.4747319621016
 30
0.0
 10
124.4183296530056
 20
119.4500509813248
 30
0.0
 10
124.9474203303259
 20
119.4500509813248
 30
0.0
  0
LINE
  5
78
330
1F
100
AcDbEntity
  8
0
  6
Continuous
 62
     7
370
    15
100
AcDbLine
 10
121.6328749917
 20
128.6791440953
 30
0.0
 11
131.2909421602
 21
128.6791440953
 31
0.0
  0
LINE
  5
79
330
1F
100
AcDbEntity
  8
0
  6
Continuous
 62
     7
370
    15
100
AcDbLine
 10
131.2909421602
 20
78.6422263991
 30
0.0
 11
129.6328749917
 21
78.6422263991
 31
0.0
  0
SPLINE
  5
7A
330
1F
100
AcDbEntity
  8
0
  6
Continuous
 62
     7
370
    15
100
AcDbSpline
210
0.0
220
0.0
230
1.0
 70
     8
 71
     3
 72
    28
 73
    24
 74
     0
 42
0.00000001
 43
0.00000001
 40
0.0
 40
0.0
 40
0.0
 40
0.0
 40
0.1250000000000001
 40
0.1250000000000001
 40
0.1875000000000001
 40
0.1875000000000001
 40
0.2500000000000001
 40
0.2500000000000001
 40
0.3749999999999999
 40
0.3749999999999999
 40
0.4375
 40
0.4375
 40
0.4999999999999999
 40
0.4999999999999999
 40
0.6249999999999999
 40
0.6249999999999999
 40
0.7499999999999997
 40
0.7499999999999997
 40
0.8124999999999998
 40
0.8124999999999998
 40
0.8749999999999998
 40
0.8749999999999998
 40
1.0
 40
1.0
 40
1.0
 40
1.0
 10
129.6328749916657
 20
78.64222639909424
 30
0.0
 10
129.1011672341728
 20
78.64222639909424
 30
0.0
 10
128.5789286688625
 20
78.62644168514403
 30
0.0
 10
127.8090581825875
 20
78.58144627106783
 30
0.0
 10
127.5546986103961
 20
78.56289127599209
 30
0.0
 10
127.0505770296977
 20
78.51903855354558
 30
0.0
 10
126.8008542122697
 20
78.4936939465934
 30
0.0
 10
126.0752642608233
 20
78.4102918688433
 30
0.0
 10
125.6169039992418
 20
78.34442630969221
 30
0.0
 10
124.9664060558479
 20
78.23545596920042
 30
0.0
 10
124.7547240050554
 20
78.19721633343377
 30
0.0
 10
124.3506525159174
 20
78.11945759601441
 30
0.0
 10
124.1581460020966
 20
78.07995663383905
 30
0.0
 10
123.6083110310753
 20
77.96104889147306
 30
0.0
 10
123.2783822527665
 20
77.88123121004844
 30
0.0
 10
122.6939109841978
 20
77.72788804825238
 30
0.0
 10
122.4476338461844
 20
77.65655429498314
 30
0.0
 10
122.1477910534863
 20
77.56261078790851
 30
0.0
 10
122.0593341964141
 20
77.53341699454857
 30
0.0
 10
121.905972843109
 20
77.47995042028516
 30
0.0
 10
121.8408846288827
 20
77.45559108600997
 30
0.0
 10
121.685290612942
 20
77.39200094056525
 30
0.0
 10
121.6328749916658
 20
77.361898005476
 30
0.0
 10
121.6328749916658
 20
77.34502111247907
 30
0.0
  0
LINE
  5
7B
330
1F
100
AcDbEntity
  8
0
  6
Continuous
 62
     7
370
    15
100
AcDbLine
 10
121.6328749917
 20
77.3450211125
 30
0.0
 11
121.6328749917
 21
77.3291440953
 31
0.0
  0
SPLINE
  5
7C
330
1F
100
AcDbEntity
  8
0
  6
Continuous
 62
     7
370
    15
100
AcDbSpline
210
0.0
220
0.0
230
1.0
 70
     8
 71
     3
 72
    22
 73
    18
 74
     0
 42
0.00000001
 43
0.00000001
 40
0.0
 40
0.0
 40
0.0
 40
0.0
 40
0.0515773377536172
 40
0.1565264849943629
 40
0.2100197540385886
 40
0.2615951369298746
 40
0.3664424119934943
 40
0.4198226601719804
 40
0.4724528789006786
 40
0.5794488992297344
 40
0.6339397336480286
 40
0.6872670452602943
 40
0.7409741315029978
 40
0.7958968813361827
 40
0.8512481408256359
 40
0.9034470736265863
 40
1.0
 40
1.0
 40
1.0
 40
1.0
 10
129.6328749916657
 20
139.2963395685057
 30
0.0
 10
129.4160647956633
 20
139.2977361895742
 30
0.0
 10
128.7580909767485
 20
139.3019746438304
 30
0.0
 10
127.8829959994176
 20
139.3415069681847
 30
0.0
 10
127.0381705045608
 20
139.4044802150266
 30
0.0
 10
126.2184452209565
 20
139.4824942482817
 30
0.0
 10
125.4426552429281
 20
139.5793773761569
 30
0.0
 10
124.7251667816217
 20
139.6876367880728
 30
0.0
 10
124.0459020344496
 20
139.8013551603773
 30
0.0
 10
123.4375870565407
 20
139.9178553453181
 30
0.0
 10
122.9174951158175
 20
140.0269555967352
 30
0.0
 10
122.5736049381014
 20
140.1029594944652
 30
0.0
 10
122.2786512103738
 20
140.1709929503868
 30
0.0
 10
122.0328769230326
 20
140.2297060011454
 30
0.0
 10
121.8469746140592
 20
140.2753213810791
 30
0.0
 10
121.6753780083355
 20
140.3182808326396
 30
0.0
 10
121.6552487331593
 20
140.3234418544417
 30
0.0
 10
121.6421830784855
 20
140.326791807584
 30
0.0
  0
LINE
  5
7D
330
1F
100
AcDbEntity
  8
0
  6
Continuous
 62
     7
370
    15
100
AcDbLine
 10
131.2909421602
 20
139.2963395685
 30
0.0
 11
129.6328749917
 21
139.2963395685
 31
0.0
  0
LINE
  5
7E
330
1F
100
AcDbEntity
  8
0
  6
Continuous
 62
     7
370
    15
100
AcDbLine
 10
131.2909421602
 20
133.2878337577
 30
0.0
 11
131.2909421602
 21
139.2963395685
 31
0.0
  0
LINE
  5
7F
330
1F
100
AcDbEntity
  8
0
  6
Continuous
 62
     7
370
    15
100
AcDbLine
 10
128.8784953374
 20
133.2878337577
 30
0.0
 11
131.2909421602
 21
133.2878337577
 31
0.0
  0
SPLINE
  5
80
330
1F
100
AcDbEntity
  8
0
  6
Continuous
 62
     7
370
    15
100
AcDbSpline
210
0.0
220
0.0
230
1.0
 70
     8
 71
     3
 72
    20
 73
    16
 74
     0
 42
0.00000001
 43
0.00000001
 40
0.0
 40
0.0
 40
0.0
 40
0.0
 40
0.2499999999999997
 40
0.2499999999999997
 40
0.3749999999999997
 40
0.3749999999999997
 40
0.4999999999999998
 40
0.4999999999999998
 40
0.6249999999999998
 40
0.6249999999999998
 40
0.7499999999999999
 40
0.7499999999999999
 40
0.8749999999999999
 40
0.8749999999999999
 40
1.0
 40
1.0
 40
1.0
 40
1.0
 10
121.6328749916657
 20
128.6791440953414
 30
0.0
 10
121.8812487259538
 20
129.3330065236388
 30
0.0
 10
122.2008188182991
 20
129.9367923056359
 30
0.0
 10
122.8231250515038
 20
130.7636310418046
 30
0.0
 10
123.0545493119345
 20
131.0260596797575
 30
0.0
 10
123.5757636515842
 20
131.5227223338624
 30
0.0
 10
123.8623841342193
 20
131.753309212884
 30
0.0
 10
124.4818688755269
 20
132.1698634374666
 30
0.0
 10
124.8161692550139
 20
132.3573612394341
 30
0.0
 10
125.5414297276387
 20
132.6887582170705
 30
0.0
 10
125.9233447850291
 20
132.8282622045658
 30
0.0
 10
126.7181329612008
 20
133.0537157120368
 30
0.0
 10
127.1322911554072
 20
133.1403418235804
 30
0.0
 10
127.9978374959886
 20
133.2583226124345
 30
0.0
 10
128.4357251110004
 20
133.2878337577089
 30
0.0
 10
128.878495337355
 20
133.2878337577089
 30
0.0
  0
SPLINE
  5
81
330
1F
100
AcDbEntity
  8
0
  6
Continuous
 62
     7
370
    15
100
AcDbSpline
210
0.0
220
0.0
230
1.0
 70
     8
 71
     3
 72
    70
 73
    66
 74
     0
 42
0.00000001
 43
0.00000001
 40
-0.03125
 40
-0.03125
 40
0.0
 40
0.0
 40
0.0312500000000002
 40
0.0312500000000002
 40
0.0625000000000004
 40
0.0625000000000004
 40
0.0937500000000006
 40
0.0937500000000006
 40
0.1250000000000008
 40
0.1250000000000008
 40
0.1562500000000011
 40
0.1562500000000011
 40
0.1875000000000012
 40
0.1875000000000012
 40
0.2187500000000014
 40
0.2187500000000014
 40
0.2500000000000017
 40
0.2500000000000017
 40
0.2812500000000017
 40
0.2812500000000017
 40
0.3125000000000017
 40
0.3125000000000017
 40
0.3437500000000018
 40
0.3437500000000018
 40
0.3750000000000018
 40
0.3750000000000018
 40
0.4062500000000019
 40
0.4062500000000019
 40
0.4375000000000019
 40
0.4375000000000019
 40
0.4687500000000019
 40
0.4687500000000019
 40
0.500000000000002
 40
0.500000000000002
 40
0.5312500000000018
 40
0.5312500000000018
 40
0.5625000000000016
 40
0.5625000000000016
 40
0.5937500000000013
 40
0.5937500000000013
 40
0.625000000000001
 40
0.625000000000001
 40
0.6562500000000008
 40
0.6562500000000008
 40
0.6875000000000006
 40
0.6875000000000006
 40
0.7187500000000003
 40
0.7187500000000003
 40
0.7500000000000001
 40
0.7500000000000001
 40
0.7812500000000001
 40
0.7812500000000001
 40
0.8125000000000001
 40
0.8125000000000001
 40
0.8437500000000001
 40
0.8437500000000001
 40
0.875
 40
0.875
 40
0.90625
 40
0.90625
 40
0.9375
 40
0.9375
 40
0.96875
 40
0.96875
 40
1.0
 40
1.0
 40
1.03125
 40
1.03125
 10
124.4183296530056
 20
133.8881074901206
 30
0.0
 10
124.9474203303259
 20
133.8881074901206
 30
0.0
 10
125.207490997703
 20
133.9040079305354
 30
0.0
 10
125.7190656775384
 20
133.9659522807096
 30
0.0
 10
125.9732409612786
 20
134.0127545148009
 30
0.0
 10
126.4575115913403
 20
134.133731498256
 30
0.0
 10
126.6871526832215
 20
134.2073338260628
 30
0.0
 10
127.121757031455
 20
134.379158097041
 30
0.0
 10
127.3273228081016
 20
134.4781615199684
 30
0.0
 10
127.6958799486968
 20
134.6912579338812
 30
0.0
 10
127.8613609314323
 20
134.8061576500109
 30
0.0
 10
128.1537854408674
 20
135.0515245487012
 30
0.0
 10
128.2778864174939
 20
135.1799644491714
 30
0.0
 10
128.4774656142436
 20
135.4408565972574
 30
0.0
 10
128.5543992001019
 20
135.5752377685969
 30
0.0
 10
128.6572562586223
 20
135.8445577197032
 30
0.0
 10
128.6827291680814
 20
135.9772389839213
 30
0.0
 10
128.6830195786492
 20
136.2384254580523
 30
0.0
 10
128.6569949448734
 20
136.3681904962171
 30
0.0
 10
128.5548466603814
 20
136.6137731304897
 30
0.0
 10
128.4792702127983
 20
136.7304346677986
 30
0.0
 10
128.2787726816533
 20
136.9523398579531
 30
0.0
 10
128.153643840145
 20
137.0569511118761
 30
0.0
 10
127.8642850391234
 20
137.2469975234842
 30
0.0
 10
127.6988740520679
 20
137.3337571949339
 30
0.0
 10
127.3258834939201
 20
137.4912615706855
 30
0.0
 10
127.124150460831
 20
137.5595868354727
 30
0.0
 10
126.6912912100031
 20
137.6778165590919
 30
0.0
 10
126.4573726771137
 20
137.7281114751957
 30
0.0
 10
125.9731889419711
 20
137.8079770120854
 30
0.0
 10
125.7238733160156
 20
137.837718139885
 30
0.0
 10
125.2108407915879
 20
137.8778708813932
 30
0.0
 10
124.9455469686832
 20
137.888069150803
 30
0.0
 10
124.4232123488135
 20
137.8881456091877
 30
0.0
 10
124.1634586863318
 20
137.8783545975787
 30
0.0
 10
123.6468468706865
 20
137.8382877588399
 30
0.0
 10
123.3944808301863
 20
137.8081905919831
 30
0.0
 10
122.9129557086534
 20
137.7289683821529
 30
0.0
 10
122.6801049765399
 20
137.6792109026896
 30
0.0
 10
122.2430151281011
 20
137.5601189602392
 30
0.0
 10
122.0416941394439
 20
137.4918036986919
 30
0.0
 10
121.672608114144
 20
137.3364027317583
 30
0.0
 10
121.5036233630923
 20
137.2482503896914
 30
0.0
 10
121.2131673064331
 20
137.0578110005751
 30
0.0
 10
121.090095495071
 20
136.955186422876
 30
0.0
 10
120.888759253649
 20
136.7335460762679
 30
0.0
 10
120.8115467077067
 20
136.6147920007204
 30
0.0
 10
120.7093431648067
 20
136.3701260618027
 30
0.0
 10
120.6831148133543
 20
136.2429693363542
 30
0.0
 10
120.6826384140372
 20
135.9785211904986
 30
0.0
 10
120.7083808265352
 20
135.8456205102415
 30
0.0
 10
120.8096916028991
 20
135.5788282367594
 30
0.0
 10
120.88652424229
 20
135.4434643352908
 30
0.0
 10
121.0869280815052
 20
135.1808845399883
 30
0.0
 10
121.2095995797972
 20
135.0539093802345
 30
0.0
 10
121.4995468689615
 20
134.8098299941521
 30
0.0
 10
121.6681178483267
 20
134.6924048693982
 30
0.0
 10
122.0363874424399
 20
134.4792084084498
 30
0.0
 10
122.2374492997102
 20
134.3820342900249
 30
0.0
 10
122.6744802182951
 20
134.2086794028108
 30
0.0
 10
122.9066284314247
 20
134.134279851154
 30
0.0
 10
123.3876387129236
 20
134.0138269716494
 30
0.0
 10
123.639738795754
 20
133.9669685963834
 30
0.0
 10
124.156808282013
 20
133.9040110993997
 30
0.0
 10
124.4183296530056
 20
133.8881074901206
 30
0.0
 10
124.9474203303259
 20
133.8881074901206
 30
0.0
  0
LINE
  5
82
330
1F
100
AcDbEntity
  8
0
  6
Continuous
 62
     7
370
    15
100
AcDbLine
 10
142.6328749917
 20
79.2688666947
 30
0.0
 11
142.6328749917
 21
128.6791440953
 31
0.0
  0
SPLINE
  5
83
330
1F
100
AcDbEntity
  8
0
  6
Continuous
 62
     7
370
    15
100
AcDbSpline
210
0.0
220
0.0
230
1.0
 70
     8
 71
     3
 72
    10
 73
     6
 74
     0
 42
0.00000001
 43
0.00000001
 40
0.0
 40
0.0
 40
0.0
 40
0.0
 40
0.5
 40
0.5
 40
1.0
 40
1.0
 40
1.0
 40
1.0
 10
142.6328749916658
 20
79.26886669474855
 30
0.0
 10
142.6328749916658
 20
79.1089794265549
 30
0.0
 10
142.5715653404299
 20
78.9478521710403
 30
0.0
 10
142.3524657028948
 20
78.71375317268546
 30
0.0
 10
142.1944174965814
 20
78.64222639909424
 30
0.0
 10
142.0328749916658
 20
78.64222639909424
 30
0.0
  0
SPLINE
  5
84
330
1F
100
AcDbEntity
  8
0
  6
Continuous
 62
     7
370
    15
100
AcDbSpline
210
0.0
220
0.0
230
1.0
 70
    24
 71
     3
 72
    12
 73
     8
 74
     0
 42
0.00000001
 43
0.00000001
 40
0.0
 40
0.0
 40
0.0
 40
0.0
 40
0.2500000000000033
 40
0.2500000000000033
 40
0.5000000000000067
 40
0.5000000000000067
 40
1.0
 40
1.0
 40
1.0
 40
1.0
 10
142.0328749916658
 20
128.6791440953414
 30
0.0
 10
142.1231140593528
 20
128.6791440953414
 30
0.0
 10
142.2140121734593
 20
128.6791440953414
 30
0.0
 10
142.3686092099478
 20
128.6791440953414
 30
0.0
 10
142.4335876260559
 20
128.6791440953414
 30
0.0
 10
142.5854226539922
 20
128.6791440953414
 30
0.0
 10
142.6328749916658
 20
128.6791440953414
 30
0.0
 10
142.6328749916658
 20
128.6791440953414
 30
0.0
  0
LINE
  5
85
330
1F
100
AcDbEntity
  8
0
  6
Continuous
 62
     7
370
    15
100
AcDbLine
 10
116.6828749917
 20
77.6291440953
 30
0.0
 11
116.6828749917
 21
140.0291440953
 31
0.0
  0
ARC
  5
86
330
1F
100
AcDbEntity
  8
0
  6
Continuous
 62
     7
370
    15
100
AcDbCircle
 10
124.6840353925
 20
120.7348369598
 30
0.0
 40
4.11137916058292
100
AcDbArc
 50
19.894358827
 51
160.6243712582
  0
SPLINE
  5
87
330
1F
100
AcDbEntity
  8
0
  6
Continuous
 62
     7
370
    15
100
AcDbSpline
210
0.0
220
0.0
230
1.0
 70
     8
 71
     3
 72
    10
 73
     6
 74
     0
 42
0.00000001
 43
0.00000001
 40
0.0
 40
0.0
 40
0.0
 40
0.0
 40
0.5
 40
0.5
 40
1.0
 40
1.0
 40
1.0
 40
1.0
 10
133.1671725233567
 20
135.2291440953414
 30
0.0
 10
133.0456322596882
 20
135.3038702625532
 30
0.0
 10
132.9442978993393
 20
135.4128152784699
 30
0.0
 10
132.8086589564509
 20
135.6632457592316
 30
0.0
 10
132.7728749916658
 20
135.8056651213305
 30
0.0
 10
132.7728749916658
 20
135.9487979463772
 30
0.0
  0
SPLINE
  5
88
330
1F
100
AcDbEntity
  8
0
  6
Continuous
 62
     7
370
    15
100
AcDbSpline
210
0.0
220
0.0
230
1.0
 70
    24
 71
     3
 72
    12
 73
     8
 74
     0
 42
0.00000001
 43
0.00000001
 40
0.0
 40
0.0
 40
0.0
 40
0.0
 40
0.2499999999999988
 40
0.2499999999999988
 40
0.4999999999999976
 40
0.4999999999999976
 40
1.0
 40
1.0
 40
1.0
 40
1.0
 10
133.5728749916658
 20
135.2291440953414
 30
0.0
 10
133.5229983093483
 20
135.2291440953414
 30
0.0
 10
133.4749951159447
 20
135.2291440953414
 30
0.0
 10
133.3919470132328
 20
135.2291440953414
 30
0.0
 10
133.3558174337649
 20
135.2291440953414
 30
0.0
 10
133.2599054028207
 20
135.2291440953414
 30
0.0
 10
133.2101467348519
 20
135.2291440953414
 30
0.0
 10
133.1671725233567
 20
135.2291440953414
 30
0.0
  0
SPLINE
  5
89
330
1F
100
AcDbEntity
  8
0
  6
Continuous
 62
     7
370
    15
100
AcDbSpline
210
0.0
220
0.0
230
1.0
 70
    24
 71
     3
 72
    14
 73
    10
 74
     0
 42
0.00000001
 43
0.00000001
 40
0.0
 40
0.0
 40
0.0
 40
0.0
 40
0.1250000000000017
 40
0.1250000000000017
 40
0.2500000000000034
 40
0.2500000000000034
 40
0.5000000000000032
 40
0.5000000000000032
 40
1.0
 40
1.0
 40
1.0
 40
1.0
 10
133.5728749916658
 20
82.42914409534141
 30
0.0
 10
133.5044371437793
 20
82.42914409534141
 30
0.0
 10
133.4388871050143
 20
82.42914409534141
 30
0.0
 10
133.3344604656063
 20
82.42914409534141
 30
0.0
 10
133.2919158558449
 20
82.42914409534141
 30
0.0
 10
133.1793063953046
 20
82.42914409534141
 30
0.0
 10
133.1237673482852
 20
82.4291440953414
 30
0.0
 10
132.9811556528213
 20
82.42914409534141
 30
0.0
 10
132.9177502978256
 20
82.42914409534141
 30
0.0
 10
132.870549793998
 20
82.42914409534141
 30
0.0
  0
SPLINE
  5
8A
330
1F
100
AcDbEntity
  8
0
  6
Continuous
 62
     7
370
    15
100
AcDbSpline
210
0.0
220
0.0
230
1.0
 70
     8
 71
     3
 72
    10
 73
     6
 74
     0
 42
0.00000001
 43
0.00000001
 40
0.0
 40
0.0
 40
0.0
 40
0.0
 40
0.5
 40
0.5
 40
1.0
 40
1.0
 40
1.0
 40
1.0
 10
132.7728749916658
 20
128.9650107268028
 30
0.0
 10
132.7728749916658
 20
128.9172392188095
 30
0.0
 10
132.7750362352629
 20
128.8695294967478
 30
0.0
 10
132.7837076091231
 20
128.7742343791996
 30
0.0
 10
132.7902367920791
 20
128.7265418152329
 30
0.0
 10
132.7990226148259
 20
128.6791440953414
 30
0.0
  0
SPLINE
  5
8B
330
1F
100
AcDbEntity
  8
0
  6
Continuous
 62
     7
370
    15
100
AcDbSpline
210
0.0
220
0.0
230
1.0
 70
    24
 71
     3
 72
    14
 73
    10
 74
     0
 42
0.00000001
 43
0.00000001
 40
0.0
 40
0.0
 40
0.0
 40
0.0
 40
0.5000000000000013
 40
0.5000000000000013
 40
0.750000000000002
 40
0.750000000000002
 40
0.875000000000001
 40
0.875000000000001
 40
1.0
 40
1.0
 40
1.0
 40
1.0
 10
136.4952001893335
 20
82.42914409534141
 30
0.0
 10
136.4484154842853
 20
82.4291440953414
 30
0.0
 10
136.3863642875056
 20
82.42914409534141
 30
0.0
 10
136.2429726489551
 20
82.42914409534141
 30
0.0
 10
136.1868289954039
 20
82.4291440953414
 30
0.0
 10
136.0738779732677
 20
82.4291440953414
 30
0.0
 10
136.0308772112296
 20
82.42914409534141
 30
0.0
 10
135.9268145009231
 20
82.4291440953414
 30
0.0
 10
135.8614822625662
 20
82.42914409534141
 30
0.0
 10
135.7928749916658
 20
82.42914409534141
 30
0.0
  0
SPLINE
  5
8C
330
1F
100
AcDbEntity
  8
0
  6
Continuous
 62
     7
370
    15
100
AcDbSpline
210
0.0
220
0.0
230
1.0
 70
    24
 71
     3
 72
    12
 73
     8
 74
     0
 42
0.00000001
 43
0.00000001
 40
0.0
 40
0.0
 40
0.0
 40
0.0
 40
0.5000000000000017
 40
0.5000000000000017
 40
0.7500000000000008
 40
0.7500000000000008
 40
1.0
 40
1.0
 40
1.0
 40
1.0
 10
136.1985774599748
 20
135.2291440953414
 30
0.0
 10
136.1554919103638
 20
135.2291440953414
 30
0.0
 10
136.1063397086145
 20
135.2291440953414
 30
0.0
 10
136.0098671143266
 20
135.2291440953414
 30
0.0
 10
135.973765529192
 20
135.2291440953414
 30
0.0
 10
135.8906597713308
 20
135.2291440953414
 30
0.0
 10
135.8426631743645
 20
135.2291440953414
 30
0.0
 10
135.7928749916658
 20
135.2291440953414
 30
0.0
  0
SPLINE
  5
8D
330
1F
100
AcDbEntity
  8
0
  6
Continuous
 62
     7
370
    15
100
AcDbSpline
210
0.0
220
0.0
230
1.0
 70
     8
 71
     3
 72
    10
 73
     6
 74
     0
 42
0.00000001
 43
0.00000001
 40
0.0
 40
0.0
 40
0.0
 40
0.0
 40
0.5
 40
0.5
 40
1.0
 40
1.0
 40
1.0
 40
1.0
 10
136.5928749916658
 20
135.9487979463772
 30
0.0
 10
136.5928749916658
 20
135.8050278885592
 30
0.0
 10
136.5568259329469
 20
135.662608526064
 30
0.0
 10
136.4213170721729
 20
135.4127142327068
 30
0.0
 10
136.3214410790767
 20
135.3046838964586
 30
0.0
 10
136.1985774599748
 20
135.2291440953414
 30
0.0
  0
SPLINE
  5
8E
330
1F
100
AcDbEntity
  8
0
  6
Continuous
 62
     7
370
    15
100
AcDbSpline
210
0.0
220
0.0
230
1.0
 70
     8
 71
     3
 72
    10
 73
     6
 74
     0
 42
0.00000001
 43
0.00000001
 40
0.0
 40
0.0
 40
0.0
 40
0.0
 40
0.5
 40
0.5
 40
1.0
 40
1.0
 40
1.0
 40
1.0
 10
136.5667273685056
 20
128.6791440953414
 30
0.0
 10
136.5754170114173
 20
128.7260229446595
 30
0.0
 10
136.5819560761678
 20
128.7734454100608
 30
0.0
 10
136.5907147105608
 20
128.8693822086476
 30
0.0
 10
136.5928749916658
 20
128.917297496658
 30
0.0
 10
136.5928749916658
 20
128.9650107268026
 30
0.0
  0
LINE
  5
8F
330
1F
100
AcDbEntity
  8
0
  6
Continuous
 62
     7
370
    15
100
AcDbLine
 10
135.7928749917
 20
135.2291440953
 30
0.0
 11
133.5728749917
 21
135.2291440953
 31
0.0
  0
LINE
  5
90
330
1F
100
AcDbEntity
  8
0
  6
Continuous
 62
     7
370
    15
100
AcDbLine
 10
135.7928749917
 20
82.4291440953
 30
0.0
 11
133.5728749917
 21
82.4291440953
 31
0.0
  0
LINE
  5
91
330
1F
100
AcDbEntity
  8
0
  6
Continuous
 62
     7
370
    15
100
AcDbLine
 10
114.6828749917
 20
84.6087132336
 30
0.0
 11
114.6828749917
 21
133.0495749571
 31
0.0
  0
LINE
  5
92
330
1F
100
AcDbEntity
  8
0
  6
Continuous
 62
     7
370
    15
100
AcDbLine
 10
94.8828749917
 20
85.6006972016
 30
0.0
 11
94.8828749917
 21
86.8654065641
 31
0.0
  0
SPLINE
  5
93
330
1F
100
AcDbEntity
  8
0
  6
Continuous
 62
     7
370
    15
100
AcDbSpline
210
0.0
220
0.0
230
1.0
 70
     8
 71
     3
 72
    14
 73
    10
 74
     0
 42
0.00000001
 43
0.00000001
 40
0.0
 40
0.0
 40
0.0
 40
0.0
 40
0.25
 40
0.25
 40
0.5
 40
0.5
 40
0.75
 40
0.75
 40
1.0
 40
1.0
 40
1.0
 40
1.0
 10
94.10458787375005
 20
87.99599277178146
 30
0.0
 10
94.16121454895213
 20
87.8882953179446
 30
0.0
 10
94.25573720924187
 20
87.78550573622528
 30
0.0
 10
94.4387821848041
 20
87.58714842400512
 30
0.0
 10
94.5304087617588
 20
87.49108891532688
 30
0.0
 10
94.689262079452
 20
87.30355987261764
 30
0.0
 10
94.75715268707371
 20
87.21215089983409
 30
0.0
 10
94.8540697127813
 20
87.03377467892392
 30
0.0
 10
94.88287499166634
 20
86.94655277267775
 30
0.0
 10
94.88287499166634
 20
86.8654065641435
 30
0.0
  0
SPLINE
  5
94
330
1F
100
AcDbEntity
  8
0
  6
Continuous
 62
     7
370
    15
100
AcDbSpline
210
0.0
220
0.0
230
1.0
 70
     8
 71
     3
 72
    14
 73
    10
 74
     0
 42
0.00000001
 43
0.00000001
 40
0.0
 40
0.0
 40
0.0
 40
0.0
 40
0.1250000000000022
 40
0.1250000000000022
 40
0.2500000000000044
 40
0.2500000000000044
 40
0.5000000000000029
 40
0.5000000000000029
 40
1.0
 40
1.0
 40
1.0
 40
1.0
 10
93.48287499166577
 20
88.44267463406078
 30
0.0
 10
93.53141940032293
 20
88.44842294734107
 30
0.0
 10
93.58433475510783
 20
88.44532205868482
 30
0.0
 10
93.67963010009089
 20
88.42312721452248
 30
0.0
 10
93.71988109737585
 20
88.40589498742663
 30
0.0
 10
93.8241511108888
 20
88.34956707097457
 30
0.0
 10
93.87447308604213
 20
88.30538072502877
 30
0.0
 10
94.00215603356752
 20
88.17437282617816
 30
0.0
 10
94.05824148062977
 20
88.08413830594787
 30
0.0
 10
94.1045878737515
 20
87.995992771782
 30
0.0
  0
SPLINE
  5
95
330
1F
100
AcDbEntity
  8
0
  6
Continuous
 62
     7
370
    15
100
AcDbSpline
210
0.0
220
0.0
230
1.0
 70
     8
 71
     3
 72
     8
 73
     4
 74
     0
 42
0.00000001
 43
0.00000001
 40
0.0
 40
0.0
 40
0.0
 40
0.0
 40
1.0
 40
1.0
 40
1.0
 40
1.0
 10
91.21434989871955
 20
88.13282934747798
 30
0.0
 10
91.9489269252025
 20
88.25145435854695
 30
0.0
 10
92.71240199459815
 20
88.35144023068322
 30
0.0
 10
93.48287499166577
 20
88.44267463406078
 30
0.0
  0
SPLINE
  5
96
330
1F
100
AcDbEntity
  8
0
  6
Continuous
 62
     7
370
    15
100
AcDbSpline
210
0.0
220
0.0
230
1.0
 70
     8
 71
     3
 72
    14
 73
    10
 74
     0
 42
0.00000001
 43
0.00000001
 40
0.0
 40
0.0
 40
0.0
 40
0.0
 40
0.4999999999999991
 40
0.4999999999999991
 40
0.7499999999999996
 40
0.7499999999999996
 40
0.8749999999999998
 40
0.8749999999999998
 40
1.0
 40
1.0
 40
1.0
 40
1.0
 10
85.93287499166577
 20
87.95920632994633
 30
0.0
 10
86.82502112221935
 20
87.95848410374568
 30
0.0
 10
87.71499755801294
 20
87.96307031020315
 30
0.0
 10
89.04159272508855
 20
87.99079531459468
 30
0.0
 10
89.48243965358729
 20
88.00340185221886
 30
0.0
 10
90.13887989100971
 20
88.0344180002263
 30
0.0
 10
90.3568935476016
 20
88.04676117285308
 30
0.0
 10
90.78960240128437
 20
88.07978522801635
 30
0.0
 10
91.00487886644916
 20
88.09900239315479
 30
0.0
 10
91.21434989871956
 20
88.13282934747798
 30
0.0
  0
SPLINE
  5
97
330
1F
100
AcDbEntity
  8
0
  6
Continuous
 62
     7
370
    15
100
AcDbSpline
210
0.0
220
0.0
230
1.0
 70
     8
 71
     3
 72
     8
 73
     4
 74
     0
 42
0.00000001
 43
0.00000001
 40
0.0000005163856906
 40
0.0000005163856906
 40
0.0000005163856906
 40
0.0000005163856906
 40
0.000026289209185
 40
0.000026289209185
 40
0.000026289209185
 40
0.000026289209185
 10
85.92283006125461
 20
87.96919020304667
 30
0.0
 10
85.92615779946361
 20
87.96585595617637
 30
0.0
 10
85.92950625244039
 20
87.96252799889986
 30
0.0
 10
85.93287499166574
 20
87.95920632994631
 30
0.0
  0
SPLINE
  5
98
330
1F
100
AcDbEntity
  8
0
  6
Continuous
 62
     7
370
    15
100
AcDbSpline
210
0.0
220
0.0
230
1.0
 70
     8
 71
     3
 72
     8
 73
     4
 74
     0
 42
0.00000001
 43
0.00000001
 40
0.0000005099763573
 40
0.0000005099763573
 40
0.0000005099763573
 40
0.0000005099763573
 40
0.0000262827998699
 40
0.0000262827998699
 40
0.0000262827998699
 40
0.0000262827998699
 10
85.93287499166574
 20
129.6990818607365
 30
0.0
 10
85.929506252438
 20
129.6957601917806
 30
0.0
 10
85.92615779945886
 20
129.6924322345017
 30
0.0
 10
85.92283006124752
 20
129.689097987629
 30
0.0
  0
SPLINE
  5
99
330
1F
100
AcDbEntity
  8
0
  6
Continuous
 62
     7
370
    15
100
AcDbSpline
210
0.0
220
0.0
230
1.0
 70
     8
 71
     3
 72
    10
 73
     6
 74
     0
 42
0.00000001
 43
0.00000001
 40
0.0
 40
0.0
 40
0.0
 40
0.0
 40
0.5
 40
0.5
 40
1.0
 40
1.0
 40
1.0
 40
1.0
 10
89.48287499166577
 20
129.6522314871691
 30
0.0
 10
88.89528944457517
 20
129.6732970074056
 30
0.0
 10
88.30454305111479
 20
129.6840554932778
 30
0.0
 10
87.12052388581593
 20
129.6974202738135
 30
0.0
 10
86.52710989761047
 20
129.699562916478
 30
0.0
 10
85.93287499166577
 20
129.6990818607365
 30
0.0
  0
SPLINE
  5
9A
330
1F
100
AcDbEntity
  8
0
  6
Continuous
 62
     7
370
    15
100
AcDbSpline
210
0.0
220
0.0
230
1.0
 70
     8
 71
     3
 72
    18
 73
    14
 74
     0
 42
0.00000001
 43
0.00000001
 40
0.0
 40
0.0
 40
0.0
 40
0.0
 40
0.2499999999999992
 40
0.2499999999999992
 40
0.4999999999999976
 40
0.4999999999999976
 40
0.749999999999996
 40
0.749999999999996
 40
0.8749999999999962
 40
0.8749999999999962
 40
0.9374999999999981
 40
0.9374999999999981
 40
1.0
 40
1.0
 40
1.0
 40
1.0
 10
90.88287499166577
 20
130.6732517677044
 30
0.0
 10
90.88287499166579
 20
130.5900448588472
 30
0.0
 10
90.84702589172753
 20
130.5013082035336
 30
0.0
 10
90.7221541556936
 20
130.3191830129734
 30
0.0
 10
90.63175373804573
 20
130.2240529643468
 30
0.0
 10
90.40951108330356
 20
130.0348714552224
 30
0.0
 10
90.27974629685777
 20
129.9399262871277
 30
0.0
 10
90.03910883954626
 20
129.8016475795478
 30
0.0
 10
89.95134154140882
 20
129.7559371462454
 30
0.0
 10
89.79681745420201
 20
129.6981138410239
 30
0.0
 10
89.74020656814727
 20
129.6803990769861
 30
0.0
 10
89.61616253724065
 20
129.6558597737531
 30
0.0
 10
89.54844786222236
 20
129.6498806352149
 30
0.0
 10
89.48287499166577
 20
129.6522314871691
 30
0.0
  0
LINE
  5
9B
330
1F
100
AcDbEntity
  8
0
  6
Continuous
 62
     7
370
    15
100
AcDbLine
 10
90.8828749917
 20
130.6732517677
 30
0.0
 11
90.8828749917
 21
131.8571901875
 31
0.0
  0
SPLINE
  5
9C
330
1F
100
AcDbEntity
  8
0
  6
Continuous
 62
     7
370
    15
100
AcDbSpline
210
0.0
220
0.0
230
1.0
 70
     8
 71
     3
 72
    24
 73
    20
 74
     0
 42
0.00000001
 43
0.00000001
 40
0.0
 40
0.0
 40
0.0
 40
0.0
 40
0.0002348621470601
 40
0.0630508201807478
 40
0.1257294548603994
 40
0.1889845605116526
 40
0.2519220670044493
 40
0.3139428406275422
 40
0.3756077779148196
 40
0.4379156996794489
 40
0.5000356233459112
 40
0.5615349300297039
 40
0.6230440422098553
 40
0.6858270918653682
 40
0.7486655124095256
 40
0.8110992999929468
 40
0.8736197084862527
 40
0.9369239561106452
 40
1.0
 40
1.0
 40
1.0
 40
1.0
 10
103.4176121717372
 20
85.17316167949595
 30
0.0
 10
103.4175068049311
 20
85.17314812355225
 30
0.0
 10
103.3892201541119
 20
85.16950891059682
 30
0.0
 10
103.4831801108948
 20
85.18250105153416
 30
0.0
 10
103.710014039024
 20
85.21228452191531
 30
0.0
 10
104.1141215419955
 20
85.2588196640833
 30
0.0
 10
104.6419949895827
 20
85.31070111775803
 30
0.0
 10
105.2884009634067
 20
85.35641097567236
 30
0.0
 10
106.0267762764823
 20
85.3854659783476
 30
0.0
 10
106.8326726872499
 20
85.38803827116953
 30
0.0
 10
107.6686382712147
 20
85.36174232470121
 30
0.0
 10
108.5000255531592
 20
85.30338710033085
 30
0.0
 10
109.2978746992614
 20
85.21813351877553
 30
0.0
 10
110.0317751221508
 20
85.11416366843392
 30
0.0
 10
110.6799850862229
 20
85.00463185374377
 30
0.0
 10
111.2091155301486
 20
84.90126608553412
 30
0.0
 10
111.6001555865433
 20
84.8172003058891
 30
0.0
 10
111.8484409252614
 20
84.75949105945294
 30
0.0
 10
111.8823449345882
 20
84.75199843061637
 30
0.0
 10
111.899266329172
 20
84.74825888088371
 30
0.0
  0
SPLINE
  5
9D
330
1F
100
AcDbEntity
  8
0
  6
Continuous
 62
     7
370
    15
100
AcDbSpline
210
0.0
220
0.0
230
1.0
 70
     8
 71
     3
 72
    23
 73
    19
 74
     0
 42
0.00000001
 43
0.00000001
 40
0.0
 40
0.0
 40
0.0
 40
0.0
 40
0.0639855529091855
 40
0.1263746900770326
 40
0.189533935383169
 40
0.2518260121100275
 40
0.3144770442637063
 40
0.3769821894395736
 40
0.4384591593228438
 40
0.4999575481857088
 40
0.562134312789164
 40
0.6244969956976932
 40
0.6862674004779328
 40
0.7482793217759853
 40
0.8113334967604279
 40
0.8745025459527578
 40
0.9372165732141678
 40
1.0
 40
1.0
 40
1.0
 40
1.0
 10
111.8976209354378
 20
132.9100331706807
 30
0.0
 10
111.8818543505269
 20
132.9062304691806
 30
0.0
 10
111.8507145511333
 20
132.8987199421682
 30
0.0
 10
111.5994042445431
 20
132.8405332184898
 30
0.0
 10
111.2060292717431
 20
132.756519259667
 30
0.0
 10
110.6771426839644
 20
132.6528051437894
 30
0.0
 10
110.0304828432296
 20
132.5435181954578
 30
0.0
 10
109.2978710457286
 20
132.4399260811584
 30
0.0
 10
108.5009427281646
 20
132.354981660507
 30
0.0
 10
107.6693932952995
 20
132.2966720442392
 30
0.0
 10
106.832842045132
 20
132.2703498511786
 30
0.0
 10
106.0259273178817
 20
132.2728823043997
 30
0.0
 10
105.2866347869381
 20
132.3019395566428
 30
0.0
 10
104.6401141430829
 20
132.3476654714937
 30
0.0
 10
104.1110638129114
 20
132.3998640250336
 30
0.0
 10
103.7146802495895
 20
132.4454698281447
 30
0.0
 10
103.4621217760324
 20
132.4785600602662
 30
0.0
 10
103.4325876378152
 20
132.4829299840297
 30
0.0
 10
103.4178124025842
 20
132.4851161541855
 30
0.0
  0
SPLINE
  5
9E
330
1F
100
AcDbEntity
  8
0
  6
Continuous
 62
     7
370
    15
100
AcDbSpline
210
0.0
220
0.0
230
1.0
 70
     8
 71
     3
 72
    10
 73
     6
 74
     0
 42
0.00000001
 43
0.00000001
 40
0.0
 40
0.0
 40
0.0
 40
0.0
 40
0.0840381716605785
 40
0.7011125076932526
 40
1.0
 40
1.0
 40
1.0
 40
1.0
 10
84.79642195420142
 20
89.10037018765806
 30
0.0
 10
84.79709651153635
 20
89.09816456082216
 30
0.0
 10
84.80272419923257
 20
89.07976348745994
 30
0.0
 10
84.8290456793594
 20
89.09399805018312
 30
0.0
 10
84.8414806962041
 20
89.1396838257341
 30
0.0
 10
84.84553836638916
 20
89.15459155056065
 30
0.0
  0
LINE
  5
9F
330
1F
100
AcDbEntity
  8
0
  6
Continuous
 62
     7
370
    15
100
AcDbLine
 10
84.7828749917
 20
89.1384663489
 30
0.0
 11
84.7828749917
 21
128.5198218418
 31
0.0
  0
SPLINE
  5
A0
330
1F
100
AcDbEntity
  8
0
  6
Continuous
 62
     7
370
    15
100
AcDbSpline
210
0.0
220
0.0
230
1.0
 70
     8
 71
     3
 72
    10
 73
     6
 74
     0
 42
0.00000001
 43
0.00000001
 40
0.0
 40
0.0
 40
0.0
 40
0.0
 40
0.5
 40
0.5
 40
1.0
 40
1.0
 40
1.0
 40
1.0
 10
84.84553836638916
 20
128.5036966401221
 30
0.0
 10
84.83663407728042
 20
128.5494381593354
 30
0.0
 10
84.82011869708744
 20
128.5666289988043
 30
0.0
 10
84.79301075102583
 20
128.5663057218686
 30
0.0
 10
84.78287499166578
 20
128.5484281795721
 30
0.0
 10
84.78287499166578
 20
128.5198218418196
 30
0.0
  0
SPLINE
  5
A1
330
1F
100
AcDbEntity
  8
0
  6
Continuous
 62
     7
370
    15
100
AcDbSpline
210
0.0
220
0.0
230
1.0
 70
     8
 71
     3
 72
    26
 73
    22
 74
     0
 42
0.00000001
 43
0.00000001
 40
0.0
 40
0.0
 40
0.0
 40
0.0
 40
0.2500000000000017
 40
0.2500000000000017
 40
0.3750000000000002
 40
0.3750000000000002
 40
0.4374999999999983
 40
0.4374999999999983
 40
0.4687499999999978
 40
0.4687499999999978
 40
0.4999999999999973
 40
0.4999999999999973
 40
0.5312499999999968
 40
0.5312499999999968
 40
0.5624999999999963
 40
0.5624999999999963
 40
0.624999999999998
 40
0.624999999999998
 40
0.7499999999999996
 40
0.7499999999999996
 40
1.0
 40
1.0
 40
1.0
 40
1.0
 10
85.60702863777028
 20
129.2192634289393
 30
0.0
 10
85.5684281149018
 20
129.1014887325838
 30
0.0
 10
85.52213111234755
 20
128.9770990464219
 30
0.0
 10
85.42819176391365
 20
128.7718797140684
 30
0.0
 10
85.39288029700018
 20
128.700306847622
 30
0.0
 10
85.32670032125453
 20
128.5843536150216
 30
0.0
 10
85.3021619545863
 20
128.5437690802113
 30
0.0
 10
85.25878920903249
 20
128.4796273983396
 30
0.0
 10
85.24328080760729
 20
128.4577609730545
 30
0.0
 10
85.20823816302025
 20
128.4121667047113
 30
0.0
 10
85.1886878723005
 20
128.3884964137439
 30
0.0
 10
85.14676059192993
 20
128.343879854404
 30
0.0
 10
85.1241084816983
 20
128.3229998418861
 30
0.0
 10
85.08313476761167
 20
128.2921264281352
 30
0.0
 10
85.06553546771623
 20
128.2822875583028
 30
0.0
 10
85.02090848186008
 20
128.2632979426066
 30
0.0
 10
85.00034925920673
 20
128.2629736179532
 30
0.0
 10
84.94922381971006
 20
128.2721970588294
 30
0.0
 10
84.92831240672152
 20
128.2934439550463
 30
0.0
 10
84.87686249916054
 20
128.3674128338771
 30
0.0
 10
84.859197199856
 20
128.4335309271919
 30
0.0
 10
84.84553836638916
 20
128.5036966401221
 30
0.0
  0
SPLINE
  5
A2
330
1F
100
AcDbEntity
  8
0
  6
Continuous
 62
     7
370
    15
100
AcDbSpline
210
0.0
220
0.0
230
1.0
 70
     8
 71
     3
 72
    10
 73
     6
 74
     0
 42
0.00000001
 43
0.00000001
 40
0.0
 40
0.0
 40
0.0
 40
0.0
 40
0.5
 40
0.5
 40
1.0
 40
1.0
 40
1.0
 40
1.0
 10
85.92283006124755
 20
129.689097987629
 30
0.0
 10
85.8552708063293
 20
129.6214065948193
 30
0.0
 10
85.79163415099282
 20
129.5466994300656
 30
0.0
 10
85.68141339642098
 20
129.387733297639
 30
0.0
 10
85.63459710319835
 20
129.303378031631
 30
0.0
 10
85.60702863777028
 20
129.2192634289393
 30
0.0
  0
SPLINE
  5
A3
330
1F
100
AcDbEntity
  8
0
  6
Continuous
 62
     7
370
    15
100
AcDbSpline
210
0.0
220
0.0
230
1.0
 70
     8
 71
     3
 72
    10
 73
     6
 74
     0
 42
0.00000001
 43
0.00000001
 40
0.0
 40
0.0
 40
0.0
 40
0.0
 40
0.5
 40
0.5
 40
1.0
 40
1.0
 40
1.0
 40
1.0
 10
85.60702863777031
 20
88.43902476174344
 30
0.0
 10
85.63450605252405
 20
88.35518796527627
 30
0.0
 10
85.6812146828129
 20
88.27087747768789
 30
0.0
 10
85.79149314555758
 20
88.1117562472024
 30
0.0
 10
85.85538068417074
 20
88.03677150311326
 30
0.0
 10
85.92283006125463
 20
87.96919020304667
 30
0.0
  0
SPLINE
  5
A4
330
1F
100
AcDbEntity
  8
0
  6
Continuous
 62
     7
370
    15
100
AcDbSpline
210
0.0
220
0.0
230
1.0
 70
     8
 71
     3
 72
    24
 73
    20
 74
     0
 42
0.00000001
 43
0.00000001
 40
0.0
 40
0.0
 40
0.0
 40
0.0
 40
0.2499999999999911
 40
0.2499999999999911
 40
0.3749999999999872
 40
0.3749999999999872
 40
0.4374999999999852
 40
0.4374999999999852
 40
0.4687499999999848
 40
0.4687499999999848
 40
0.4999999999999843
 40
0.4999999999999843
 40
0.5624999999999862
 40
0.5624999999999862
 40
0.6249999999999881
 40
0.6249999999999881
 40
0.7499999999999918
 40
0.7499999999999918
 40
1.0
 40
1.0
 40
1.0
 40
1.0
 10
84.84553836638918
 20
89.15459155056065
 30
0.0
 10
84.85929148505939
 20
89.22524160855093
 30
0.0
 10
84.87706405246526
 20
89.29183972131585
 30
0.0
 10
84.92931514402063
 20
89.36593774154905
 30
0.0
 10
84.95035021960217
 20
89.38719554871061
 30
0.0
 10
85.0032506272306
 20
89.39534147485685
 30
0.0
 10
85.02435630010854
 20
89.39440167146108
 30
0.0
 10
85.0704084687865
 20
89.37338567988375
 30
0.0
 10
85.08877894076986
 20
89.36247687377616
 30
0.0
 10
85.13033057583554
 20
89.32984196282878
 30
0.0
 10
85.15289724859248
 20
89.30834998245743
 30
0.0
 10
85.21567826505253
 20
89.23988403887112
 30
0.0
 10
85.2488080260204
 20
89.19380958066603
 30
0.0
 10
85.30572571250543
 20
89.10880169233134
 30
0.0
 10
85.32991173800919
 20
89.06852139114997
 30
0.0
 10
85.39511968838895
 20
88.95358516468401
 30
0.0
 10
85.4298357485802
 20
88.883002179537
 30
0.0
 10
85.5230510189111
 20
88.6787964204584
 30
0.0
 10
85.56872355427176
 20
88.55589803813103
 30
0.0
 10
85.60702863777031
 20
88.43902476174347
 30
0.0
  0
LINE
  5
A5
330
1F
100
AcDbEntity
  8
0
  6
Continuous
 62
     7
370
    15
100
AcDbLine
 10
136.5928749917
 20
128.9650107268
 30
0.0
 11
136.5928749917
 21
129.8792877629
 31
0.0
  0
SPLINE
  5
A6
330
1F
100
AcDbEntity
  8
0
  6
Continuous
 62
     7
370
    15
100
AcDbSpline
210
0.0
220
0.0
230
1.0
 70
     8
 71
     3
 72
     8
 73
     4
 74
     0
 42
0.00000001
 43
0.00000001
 40
0.0
 40
0.0
 40
0.0
 40
0.0
 40
1.0
 40
1.0
 40
1.0
 40
1.0
 10
136.5928749916658
 20
129.8792877629247
 30
0.0
 10
137.0721531422556
 20
131.0202989927773
 30
0.0
 10
137.5677209813956
 20
132.1566834035452
 30
0.0
 10
138.0748078231548
 20
133.2878337577088
 30
0.0
  0
LINE
  5
A7
330
1F
100
AcDbEntity
  8
0
  6
Continuous
 62
     7
370
    15
100
AcDbLine
 10
138.0748078232
 20
133.2878337577
 30
0.0
 11
142.0328749917
 21
133.2878337577
 31
0.0
  0
SPLINE
  5
A8
330
1F
100
AcDbEntity
  8
0
  6
Continuous
 62
     7
370
    15
100
AcDbSpline
210
0.0
220
0.0
230
1.0
 70
     8
 71
     3
 72
    12
 73
     8
 74
     0
 42
0.00000001
 43
0.00000001
 40
0.0
 40
0.0
 40
0.0
 40
0.0
 40
0.250000000000002
 40
0.250000000000002
 40
0.500000000000004
 40
0.500000000000004
 40
1.0
 40
1.0
 40
1.0
 40
1.0
 10
142.0328749916658
 20
133.2878337577089
 30
0.0
 10
142.1240747134914
 20
133.2878337577089
 30
0.0
 10
142.2146697226274
 20
133.259614059121
 30
0.0
 10
142.3680824490741
 20
133.1651710518729
 30
0.0
 10
142.4332913163978
 20
133.0988840751675
 30
0.0
 10
142.5860758457377
 20
132.8732592518792
 30
0.0
 10
142.6328749916658
 20
132.6908329888467
 30
0.0
 10
142.6328749916658
 20
132.5100963565998
 30
0.0
  0
LINE
  5
A9
330
1F
100
AcDbEntity
  8
0
  6
Continuous
 62
     7
370
    15
100
AcDbLine
 10
142.6328749917
 20
132.5100963566
 30
0.0
 11
142.6328749917
 21
128.6791440953
 31
0.0
  0
SPLINE
  5
AA
330
1F
100
AcDbEntity
  8
0
  6
Continuous
 62
     7
370
    15
100
AcDbSpline
210
0.0
220
0.0
230
1.0
 70
     8
 71
     3
 72
    10
 73
     6
 74
     0
 42
0.00000001
 43
0.00000001
 40
0.0
 40
0.0
 40
0.0
 40
0.0
 40
0.5
 40
0.5
 40
1.0
 40
1.0
 40
1.0
 40
1.0
 10
142.6328749916658
 20
138.6755844191053
 30
0.0
 10
142.6328749916658
 20
138.8359896854561
 30
0.0
 10
142.5706371605589
 20
138.9950514984447
 30
0.0
 10
142.3515022368163
 20
139.225963964075
 30
0.0
 10
142.1939135418245
 20
139.2963395685057
 30
0.0
 10
142.0328749916658
 20
139.2963395685057
 30
0.0
  0
LINE
  5
AB
330
1F
100
AcDbEntity
  8
0
  6
Continuous
 62
     7
370
    15
100
AcDbLine
 10
142.6328749917
 20
132.5100963566
 30
0.0
 11
142.6328749917
 21
138.6755844191
 31
0.0
  0
SPLINE
  5
AC
330
1F
100
AcDbEntity
  8
0
  6
Continuous
 62
     7
370
    15
100
AcDbSpline
210
0.0
220
0.0
230
1.0
 70
     8
 71
     3
 72
     8
 73
     4
 74
     0
 42
0.00000001
 43
0.00000001
 40
0.0
 40
0.0
 40
0.0
 40
0.0
 40
1.0
 40
1.0
 40
1.0
 40
1.0
 10
132.7728749916658
 20
136.634378286513
 30
0.0
 10
132.28016489482
 20
137.5223972846394
 30
0.0
 10
131.786082189541
 20
138.4096599203254
 30
0.0
 10
131.2909421601767
 20
139.2963395685057
 30
0.0
  0
LINE
  5
AD
330
1F
100
AcDbEntity
  8
0
  6
Continuous
 62
     7
370
    15
100
AcDbLine
 10
132.7728749917
 20
129.8792877629
 30
0.0
 11
132.7728749917
 21
136.6343782865
 31
0.0
  0
SPLINE
  5
AE
330
1F
100
AcDbEntity
  8
0
  6
Continuous
 62
     7
370
    15
100
AcDbSpline
210
0.0
220
0.0
230
1.0
 70
     8
 71
     3
 72
     8
 73
     4
 74
     0
 42
0.00000001
 43
0.00000001
 40
0.0
 40
0.0
 40
0.0
 40
0.0
 40
1.0
 40
1.0
 40
1.0
 40
1.0
 10
131.2909421601767
 20
133.2878337577088
 30
0.0
 10
131.798029001936
 20
132.1566834035452
 30
0.0
 10
132.2935968410759
 20
131.0202989927773
 30
0.0
 10
132.7728749916658
 20
129.8792877629247
 30
0.0
  0
SPLINE
  5
AF
330
1F
100
AcDbEntity
  8
0
  6
Continuous
 62
     7
370
    15
100
AcDbSpline
210
0.0
220
0.0
230
1.0
 70
     8
 71
     3
 72
     8
 73
     4
 74
     0
 42
0.00000001
 43
0.00000001
 40
0.0
 40
0.0
 40
0.0
 40
0.0
 40
1.0
 40
1.0
 40
1.0
 40
1.0
 10
138.0748078231548
 20
139.2963395685057
 30
0.0
 10
137.5796677937905
 20
138.4096599203254
 30
0.0
 10
137.0855850885115
 20
137.5223972846394
 30
0.0
 10
136.5928749916658
 20
136.634378286513
 30
0.0
  0
LINE
  5
B0
330
1F
100
AcDbEntity
  8
0
  6
Continuous
 62
     7
370
    15
100
AcDbLine
 10
138.0748078232
 20
133.2878337577
 30
0.0
 11
138.0748078232
 21
139.2963395685
 31
0.0
  0
LINE
  5
B1
330
1F
100
AcDbEntity
  8
0
  6
Continuous
 62
     7
370
    15
100
AcDbLine
 10
136.5928749917
 20
129.8792877629
 30
0.0
 11
136.5928749917
 21
136.6343782865
 31
0.0
  0
LINE
  5
B2
330
1F
100
AcDbEntity
  8
0
  6
Continuous
 62
     7
370
    15
100
AcDbLine
 10
132.7728749917
 20
129.8792877629
 30
0.0
 11
132.7728749917
 21
128.9650107268
 31
0.0
  0
LINE
  5
B3
330
1F
100
AcDbEntity
  8
0
  6
Continuous
 62
     7
370
    15
100
AcDbLine
 10
142.0328749917
 20
139.2963395685
 30
0.0
 11
138.0748078232
 21
139.2963395685
 31
0.0
  0
ARC
  5
B4
330
1F
100
AcDbEntity
  8
0
  6
Continuous
 62
     7
370
    15
100
AcDbCircle
 10
124.6828166674
 20
127.5180534518
 30
0.0
 40
7.264955148875517
100
AcDbArc
 50
70.8355321671
 51
109.1492374421
  0
SPLINE
  5
B5
330
1F
100
AcDbEntity
  8
0
  6
Continuous
 62
     7
370
    15
100
AcDbSpline
210
0.0
220
0.0
230
1.0
 70
     8
 71
     3
 72
    66
 73
    62
 74
     0
 42
0.00000001
 43
0.00000001
 40
-0.0625000000000006
 40
-0.0625000000000006
 40
0.0
 40
0.0
 40
0.0624999999999991
 40
0.0624999999999991
 40
0.0937499999999991
 40
0.0937499999999991
 40
0.1249999999999991
 40
0.1249999999999991
 40
0.1562499999999992
 40
0.1562499999999992
 40
0.1874999999999992
 40
0.1874999999999992
 40
0.2187499999999992
 40
0.2187499999999992
 40
0.2499999999999992
 40
0.2499999999999992
 40
0.2812499999999993
 40
0.2812499999999993
 40
0.3124999999999993
 40
0.3124999999999993
 40
0.3437499999999994
 40
0.3437499999999994
 40
0.3749999999999994
 40
0.3749999999999994
 40
0.4062499999999994
 40
0.4062499999999994
 40
0.4374999999999995
 40
0.4374999999999995
 40
0.4687499999999996
 40
0.4687499999999996
 40
0.4999999999999996
 40
0.4999999999999996
 40
0.5312499999999996
 40
0.5312499999999996
 40
0.5624999999999996
 40
0.5624999999999996
 40
0.5937499999999996
 40
0.5937499999999996
 40
0.6249999999999996
 40
0.6249999999999996
 40
0.6562499999999996
 40
0.6562499999999996
 40
0.6874999999999996
 40
0.6874999999999996
 40
0.7187499999999996
 40
0.7187499999999996
 40
0.7499999999999994
 40
0.7499999999999994
 40
0.7812499999999994
 40
0.7812499999999994
 40
0.8124999999999994
 40
0.8124999999999994
 40
0.8437499999999994
 40
0.8437499999999994
 40
0.8749999999999994
 40
0.8749999999999994
 40
0.9062499999999994
 40
0.9062499999999994
 40
0.9374999999999994
 40
0.9374999999999994
 40
1.0
 40
1.0
 40
1.062499999999999
 40
1.062499999999999
 10
150.9574728112728
 20
110.811879595672
 30
0.0
 10
151.6357188235613
 20
111.3407853125812
 30
0.0
 10
152.0145132162668
 20
111.5365586757997
 30
0.0
 10
152.6273931518897
 20
111.7345420592123
 30
0.0
 10
152.8348471151439
 20
111.7828392033118
 30
0.0
 10
153.2557798115818
 20
111.8458489494585
 30
0.0
 10
153.470827030011
 20
111.8605023687236
 30
0.0
 10
153.899759951314
 20
111.8548507881316
 30
0.0
 10
154.1115804468345
 20
111.8348527083484
 30
0.0
 10
154.5300353848966
 20
111.7611357152744
 30
0.0
 10
154.7380162112144
 20
111.7069416257962
 30
0.0
 10
155.1422774452087
 20
111.5642649214628
 30
0.0
 10
155.3357340856922
 20
111.4770504317156
 30
0.0
 10
155.7051882456781
 20
111.2704424934181
 30
0.0
 10
155.8821281710077
 20
111.1503254134562
 30
0.0
 10
156.2123560565602
 20
110.8768239638185
 30
0.0
 10
156.3618792887419
 20
110.7268274384516
 30
0.0
 10
156.6284731103033
 20
110.3990534307506
 30
0.0
 10
156.7466262995962
 20
110.2192361262874
 30
0.0
 10
156.9397480476229
 20
109.836054556008
 30
0.0
 10
157.0130956031425
 20
109.6369790669717
 30
0.0
 10
157.1113493432385
 20
109.2231489385301
 30
0.0
 10
157.1356908427413
 20
109.0054234807424
 30
0.0
 10
157.1295207469925
 20
108.5783262490137
 30
0.0
 10
157.0999284036934
 20
108.3655650261182
 30
0.0
 10
156.9885998744911
 20
107.9484238252595
 30
0.0
 10
156.9088569706946
 20
107.7503010721154
 30
0.0
 10
156.7055778555123
 20
107.3729774632829
 30
0.0
 10
156.5819864267744
 20
107.1949692338143
 30
0.0
 10
156.3043749393734
 20
106.8712188843951
 30
0.0
 10
156.147628803467
 20
106.7221914952646
 30
0.0
 10
155.8111088264358
 20
106.4577133013455
 30
0.0
 10
155.6320609953123
 20
106.3422525950173
 30
0.0
 10
155.2537416972009
 20
106.142531674918
 30
0.0
 10
155.0540218346513
 20
106.0585570336141
 30
0.0
 10
154.6483969523216
 20
105.9264761924141
 30
0.0
 10
154.4408326766653
 20
105.8773937651544
 30
0.0
 10
154.0162174667961
 20
105.8129331604859
 30
0.0
 10
153.8005161970896
 20
105.7980898853605
 30
0.0
 10
153.3742718249369
 20
105.8029626229312
 30
0.0
 10
153.1620144339812
 20
105.8223782273256
 30
0.0
 10
152.7392789273902
 20
105.8962084763922
 30
0.0
 10
152.5300861951732
 20
105.9507635073999
 30
0.0
 10
152.1289536690585
 20
106.0918463969035
 30
0.0
 10
151.9351151000242
 20
106.1786299435413
 30
0.0
 10
151.5617323076701
 20
106.3869513611611
 30
0.0
 10
151.3828277651209
 20
106.5087259296931
 30
0.0
 10
151.0561813706751
 20
106.7790507447418
 30
0.0
 10
150.9062946745973
 20
106.92861966449
 30
0.0
 10
150.6364570734407
 20
107.2601043516047
 30
0.0
 10
150.5175057186613
 20
107.4419250696645
 30
0.0
 10
150.3257972591065
 20
107.8229802344008
 30
0.0
 10
150.2505995452071
 20
108.0271443941346
 30
0.0
 10
150.1527030631187
 20
108.4452180137693
 30
0.0
 10
150.1296474621311
 20
108.6571877776164
 30
0.0
 10
150.1368203907942
 20
109.087170183111
 30
0.0
 10
150.1678110814303
 20
109.302637557714
 30
0.0
 10
150.2793338189831
 20
109.7154923897547
 30
0.0
 10
150.3613214481449
 20
109.9178279354096
 30
0.0
 10
150.6680169557058
 20
110.4821261532591
 30
0.0
 10
150.9574728112728
 20
110.811879595672
 30
0.0
 10
151.6357188235613
 20
111.3407853125812
 30
0.0
  0
CIRCLE
  5
B6
330
1F
100
AcDbEntity
  8
0
  6
Continuous
 62
     7
370
    15
100
AcDbCircle
 10
153.6328749917
 20
108.8291440953
 30
0.0
 40
2.5
  0
LINE
  5
B7
330
1F
100
AcDbEntity
  8
0
  6
Continuous
 62
     7
370
    15
100
AcDbLine
 10
162.2111584151
 20
91.8291440953
 30
0.0
 11
162.2111584151
 21
125.8291440953
 31
0.0
  0
LINE
  5
B8
330
1F
100
AcDbEntity
  8
0
  6
Continuous
 62
     7
370
    15
100
AcDbLine
 10
151.2965958168
 20
91.9783238045
 30
0.0
 11
151.2351546391
 21
91.9716670624
 31
0.0
  0
SPLINE
  5
B9
330
1F
100
AcDbEntity
  8
0
  6
Continuous
 62
     7
370
    15
100
AcDbSpline
210
0.0
220
0.0
230
1.0
 70
     8
 71
     3
 72
    37
 73
    33
 74
     0
 42
0.00000001
 43
0.00000001
 40
0.0
 40
0.0
 40
0.0
 40
0.0
 40
0.0243233406197277
 40
0.0473846717985462
 40
0.0680695455676992
 40
0.1100860600096842
 40
0.131448056519221
 40
0.1533430675181564
 40
0.1977346139040901
 40
0.2202529371221361
 40
0.2450549321275045
 40
0.2953283104322653
 40
0.3208270291703508
 40
0.3490477819293849
 40
0.4063088942459451
 40
0.435394696733276
 40
0.4660896597116244
 40
0.5284668779915372
 40
0.5602179851337432
 40
0.5917307544983506
 40
0.6234670090947061
 40
0.6559258483608695
 40
0.6886437795376106
 40
0.7192999382127259
 40
0.7818494183889634
 40
0.8138830978441083
 40
0.8370548201545837
 40
0.8841268542439955
 40
0.9081044387475637
 40
0.9312816497571372
 40
0.9785815619411152
 40
1.0
 40
1.0
 40
1.0
 40
1.0
 10
150.1432298957115
 20
91.83071343023019
 30
0.0
 10
150.1411605930281
 20
91.83040085103944
 30
0.0
 10
150.1371293528281
 20
91.82979191073817
 30
0.0
 10
150.1747556871199
 20
91.83547839766862
 30
0.0
 10
150.2398990209556
 20
91.8452030163155
 30
0.0
 10
150.3392812451383
 20
91.85975678022442
 30
0.0
 10
150.4701336703018
 20
91.87814613675475
 30
0.0
 10
150.6248777974606
 20
91.89922412731516
 30
0.0
 10
150.8108438213631
 20
91.9232133649817
 30
0.0
 10
151.0277847182159
 20
91.94904877849949
 30
0.0
 10
151.2757804288528
 20
91.97678162520548
 30
0.0
 10
151.5567036817059
 20
92.00476233501168
 30
0.0
 10
151.8667887502122
 20
92.03106466921992
 30
0.0
 10
152.2108104220317
 20
92.05656957045578
 30
0.0
 10
152.5844358483554
 20
92.07764374608624
 30
0.0
 10
152.9767367135217
 20
92.0920487681027
 30
0.0
 10
153.3917641184753
 20
92.10161604012553
 30
0.0
 10
153.8213229683105
 20
92.10217066331624
 30
0.0
 10
154.2488743928899
 20
92.0932965569064
 30
0.0
 10
154.5679922364423
 20
92.0820343930362
 30
0.0
 10
154.8828670455619
 20
92.06643564000368
 30
0.0
 10
155.1925194762663
 20
92.0467672877009
 30
0.0
 10
155.4869675283443
 20
92.024064897231
 30
0.0
 10
155.8551389690158
 20
91.99110635510921
 30
0.0
 10
156.19006108468
 20
91.95516094825165
 30
0.0
 10
156.4625041417216
 20
91.92210723652138
 30
0.0
 10
156.6748014053141
 20
91.89479803617218
 30
0.0
 10
156.8392762419625
 20
91.87215578632994
 30
0.0
 10
156.9661082624795
 20
91.85395095856937
 30
0.0
 10
157.0658974174908
 20
91.83928934145591
 30
0.0
 10
157.1256903952259
 20
91.83023403122799
 30
0.0
 10
157.1302360973806
 20
91.82954433016158
 30
0.0
 10
157.1316529218488
 20
91.82932936109556
 30
0.0
  0
SPLINE
  5
BA
330
1F
100
AcDbEntity
  8
0
  6
Continuous
 62
     7
370
    15
100
AcDbSpline
210
0.0
220
0.0
230
1.0
 70
     8
 71
     3
 72
     9
 73
     5
 74
     0
 42
0.00000001
 43
0.00000001
 40
0.0
 40
0.0
 40
0.0
 40
0.0
 40
0.1017170788012989
 40
1.0
 40
1.0
 40
1.0
 40
1.0
 10
151.5874657820463
 20
92.00640161721174
 30
0.0
 10
151.576816689806
 20
92.00554900239976
 30
0.0
 10
151.4721234331201
 20
91.99716678358236
 30
0.0
 10
151.3796569127796
 20
91.98724045546986
 30
0.0
 10
151.296595816775
 20
91.97832380445618
 30
0.0
  0
SPLINE
  5
BB
330
1F
100
AcDbEntity
  8
0
  6
Continuous
 62
     7
370
    15
100
AcDbSpline
210
0.0
220
0.0
230
1.0
 70
     8
 71
     3
 72
    37
 73
    33
 74
     0
 42
0.00000001
 43
0.00000001
 40
0.0
 40
0.0
 40
0.0
 40
0.0
 40
0.0392082674721534
 40
0.0617722852704617
 40
0.0824993429531825
 40
0.1245821907564981
 40
0.1459656004379281
 40
0.168264362624566
 40
0.2134680386877027
 40
0.236394767778351
 40
0.2617822342811131
 40
0.3132472624548515
 40
0.3393544177005677
 40
0.3681000854996985
 40
0.4264410736046851
 40
0.4560857751342156
 40
0.4870369945912185
 40
0.5499505762700443
 40
0.5819857289179783
 40
0.6134814457590136
 40
0.6452036883143566
 40
0.6776635973566101
 40
0.7103905437966898
 40
0.7406864992394617
 40
0.8025359961814195
 40
0.8342375053655087
 40
0.8568043247967109
 40
0.9026526567983083
 40
0.9260082882235718
 40
0.9485799697760546
 40
0.9946195106363283
 40
1.0
 40
1.0
 40
1.0
 40
1.0
 10
157.1288816215707
 20
125.8285402438017
 30
0.0
 10
157.1247826589957
 20
125.8279132172517
 30
0.0
 10
157.1183247790173
 20
125.8269253423615
 30
0.0
 10
157.0596077438467
 20
125.8181101768526
 30
0.0
 10
156.9783284907209
 20
125.8060966326418
 30
0.0
 10
156.8645630186422
 20
125.7896882280623
 30
0.0
 10
156.7195100359921
 20
125.7697156854611
 30
0.0
 10
156.5495416884107
 20
125.7471258556666
 30
0.0
 10
156.3480321769487
 20
125.7219565725776
 30
0.0
 10
156.115575437169
 20
125.6954040659033
 30
0.0
 10
155.8509519153579
 20
125.6672466394442
 30
0.0
 10
155.5533882011524
 20
125.6394999434003
 30
0.0
 10
155.2276579633372
 20
125.6142290410344
 30
0.0
 10
154.8687443328275
 20
125.5904279438316
 30
0.0
 10
154.4818698149762
 20
125.5719685429035
 30
0.0
 10
154.0792476224829
 20
125.5609517845325
 30
0.0
 10
153.6572717101585
 20
125.5553151630986
 30
0.0
 10
153.224472396264
 20
125.5590993072657
 30
0.0
 10
152.797754222471
 20
125.5722241643961
 30
0.0
 10
152.4820680167303
 20
125.586473298599
 30
0.0
 10
152.1731919746558
 20
125.604719733521
 30
0.0
 10
151.8712259000421
 20
125.6266585754273
 30
0.0
 10
151.5871974409783
 20
125.6510142037615
 30
0.0
 10
151.2366174888469
 20
125.6852112249864
 30
0.0
 10
150.9231426083834
 20
125.7210403221024
 30
0.0
 10
150.6745655627217
 20
125.7526126828136
 30
0.0
 10
150.485654934505
 20
125.7778363186634
 30
0.0
 10
150.344454839799
 20
125.7978080305246
 30
0.0
 10
150.2406389476969
 20
125.8129892783465
 30
0.0
 10
150.1648233976314
 20
125.8242776049956
 30
0.0
 10
150.1287442830424
 20
125.8297709513192
 30
0.0
 10
150.1342920830184
 20
125.8289292191524
 30
0.0
 10
150.1348725937382
 20
125.828841141978
 30
0.0
  0
SPLINE
  5
BC
330
1F
100
AcDbEntity
  8
0
  6
Continuous
 62
     7
370
    15
100
AcDbSpline
210
0.0
220
0.0
230
1.0
 70
     8
 71
     3
 72
     9
 73
     5
 74
     0
 42
0.00000001
 43
0.00000001
 40
0.0
 40
0.0
 40
0.0
 40
0.0
 40
0.3854829157792971
 40
0.9999999999999999
 40
0.9999999999999999
 40
0.9999999999999999
 40
0.9999999999999999
 10
150.8910744927621
 20
125.7258697159483
 30
0.0
 10
150.9390385224146
 20
125.720018175539
 30
0.0
 10
151.063464346982
 20
125.7048384096667
 30
0.0
 10
151.2078613753185
 20
125.6894319307775
 30
0.0
 10
151.296595816142
 20
125.6799643862925
 30
0.0
  0
LINE
  5
BD
330
1F
100
AcDbEntity
  8
0
  6
Continuous
 62
     7
370
    15
100
AcDbLine
 10
206.6828749917
 20
97.1779250787
 30
0.0
 11
206.6828749917
 21
120.4803630594
 31
0.0
  0
LINE
  5
BE
330
1F
100
AcDbEntity
  8
0
  6
Continuous
 62
     7
370
    15
100
AcDbLine
 10
206.7013074752
 20
120.0488607968
 30
0.0
 11
206.6828749917
 21
119.5797227643
 31
0.0
  0
LINE
  5
BF
330
1F
100
AcDbEntity
  8
0
  6
Continuous
 62
     7
370
    15
100
AcDbLine
 10
206.6828749917
 20
99.5797227643
 30
0.0
 11
206.7601971988
 21
97.6117411774
 31
0.0
  0
LINE
  5
C0
330
1F
100
AcDbEntity
  8
0
  6
HIDDEN
 62
     7
370
     0
100
AcDbLine
 10
159.6828749917
 20
104.8561143429
 30
0.0
 11
159.6828749917
 21
113.8291440953
 31
0.0
  0
LINE
  5
C1
330
1F
100
AcDbEntity
  8
0
  6
HIDDEN
 62
     7
370
     0
100
AcDbLine
 10
159.6828749917
 20
103.8291440953
 30
0.0
 11
159.6828749917
 21
104.8561143429
 31
0.0
  0
LINE
  5
C2
330
1F
100
AcDbEntity
  8
0
  6
HIDDEN
 62
     7
370
     0
100
AcDbLine
 10
144.1828749917
 20
104.8561143429
 30
0.0
 11
144.1828749917
 21
113.8291440953
 31
0.0
  0
LINE
  5
C3
330
1F
100
AcDbEntity
  8
0
  6
HIDDEN
 62
     7
370
     0
100
AcDbLine
 10
144.1828749917
 20
103.8291440953
 30
0.0
 11
144.1828749917
 21
104.8561143429
 31
0.0
  0
LINE
  5
C4
330
1F
100
AcDbEntity
  8
0
  6
HIDDEN
 62
     7
370
     0
100
AcDbLine
 10
143.6828749917
 20
105.2534173182
 30
0.0
 11
143.6828749917
 21
113.3291440953
 31
0.0
  0
LINE
  5
C5
330
1F
100
AcDbEntity
  8
0
  6
HIDDEN
 62
     7
370
     0
100
AcDbLine
 10
143.6828749917
 20
104.3291440953
 30
0.0
 11
143.6828749917
 21
105.2534173182
 31
0.0
  0
LINE
  5
C6
330
1F
100
AcDbEntity
  8
0
  6
HIDDEN
 62
     7
370
     0
100
AcDbLine
 10
163.6828749917
 20
110.6982905042
 30
0.0
 11
161.6828749917
 21
110.6982905042
 31
0.0
  0
LINE
  5
C7
330
1F
100
AcDbEntity
  8
0
  6
HIDDEN
 62
     7
370
     0
100
AcDbLine
 10
163.6828749917
 20
104.3291440953
 30
0.0
 11
163.6828749917
 21
110.6982905042
 31
0.0
  0
LINE
  5
C8
330
1F
100
AcDbEntity
  8
0
  6
HIDDEN
 62
     7
370
     0
100
AcDbLine
 10
161.6828749917
 20
105.3707857856
 30
0.0
 11
163.6828749917
 21
105.3707857856
 31
0.0
  0
LINE
  5
C9
330
1F
100
AcDbEntity
  8
0
  6
HIDDEN
 62
     7
370
     0
100
AcDbLine
 10
163.6828749917
 20
106.9599976865
 30
0.0
 11
161.6828749917
 21
106.9599976865
 31
0.0
  0
LINE
  5
CA
330
1F
100
AcDbEntity
  8
0
  6
HIDDEN
 62
     7
370
     0
100
AcDbLine
 10
163.6828749917
 20
112.2875024051
 30
0.0
 11
163.6828749917
 21
113.3291440953
 31
0.0
  0
LINE
  5
CB
330
1F
100
AcDbEntity
  8
0
  6
HIDDEN
 62
     7
370
     0
100
AcDbLine
 10
161.6828749917
 20
112.2875024051
 30
0.0
 11
163.6828749917
 21
112.2875024051
 31
0.0
  0
LINE
  5
CC
330
1F
100
AcDbEntity
  8
0
  6
HIDDEN
 62
     7
370
     0
100
AcDbLine
 10
161.6828749917
 20
110.6982905042
 30
0.0
 11
161.6828749917
 21
112.2875024051
 31
0.0
  0
LINE
  5
CD
330
1F
100
AcDbEntity
  8
0
  6
HIDDEN
 62
     7
370
     0
100
AcDbLine
 10
161.6828749917
 20
109.4366344487
 30
0.0
 11
161.6828749917
 21
110.6982905042
 31
0.0
  0
LINE
  5
CE
330
1F
100
AcDbEntity
  8
0
  6
HIDDEN
 62
     7
370
     0
100
AcDbLine
 10
161.6828749917
 20
109.4366344487
 30
0.0
 11
163.6828749917
 21
109.4366344487
 31
0.0
  0
LINE
  5
CF
330
1F
100
AcDbEntity
  8
0
  6
HIDDEN
 62
     7
370
     0
100
AcDbLine
 10
157.6828749917
 20
109.1503519421
 30
0.0
 11
157.6828749917
 21
107.718939409
 31
0.0
  0
LINE
  5
D0
330
1F
100
AcDbEntity
  8
0
  6
HIDDEN
 62
     7
370
     0
100
AcDbLine
 10
149.6828749916
 20
107.718939409
 30
0.0
 11
149.6828749916
 21
109.1503519421
 31
0.0
  0
LINE
  5
D1
330
1F
100
AcDbEntity
  8
0
  6
HIDDEN
 62
     7
370
     0
100
AcDbLine
 10
157.6828749917
 20
110.5817644751
 30
0.0
 11
157.6828749917
 21
109.1503519421
 31
0.0
  0
LINE
  5
D2
330
1F
100
AcDbEntity
  8
0
  6
HIDDEN
 62
     7
370
     0
100
AcDbLine
 10
149.6828749916
 20
109.1503519421
 30
0.0
 11
149.6828749916
 21
110.5817644751
 31
0.0
  0
LINE
  5
D3
330
1F
100
AcDbEntity
  8
0
  6
HIDDEN
 62
     7
370
     0
100
AcDbLine
 10
163.6828749917
 20
111.0258463496
 30
0.0
 11
161.6828749917
 21
111.0258463496
 31
0.0
  0
LINE
  5
D4
330
1F
100
AcDbEntity
  8
0
  6
HIDDEN
 62
     7
370
     0
100
AcDbLine
 10
163.6828749917
 20
111.0258463496
 30
0.0
 11
163.6828749917
 21
112.2875024051
 31
0.0
  0
LINE
  5
D5
330
1F
100
AcDbEntity
  8
0
  6
HIDDEN
 62
     7
370
     0
100
AcDbLine
 10
149.6828749916
 20
106.8426292191
 30
0.0
 11
149.6828749916
 21
107.718939409
 31
0.0
  0
LINE
  5
D6
330
1F
100
AcDbEntity
  8
0
  6
HIDDEN
 62
     7
370
     0
100
AcDbLine
 10
149.6828749916
 20
107.718939409
 30
0.0
 11
143.6828749916
 21
107.718939409
 31
0.0
  0
LINE
  5
D7
330
1F
100
AcDbEntity
  8
0
  6
HIDDEN
 62
     7
370
     0
100
AcDbLine
 10
157.6828749917
 20
107.718939409
 30
0.0
 11
157.6828749917
 21
106.8426292191
 31
0.0
  0
LINE
  5
D8
330
1F
100
AcDbEntity
  8
0
  6
HIDDEN
 62
     7
370
     0
100
AcDbLine
 10
157.6828749917
 20
107.718939409
 30
0.0
 11
163.6828749917
 21
107.718939409
 31
0.0
  0
LINE
  5
D9
330
1F
100
AcDbEntity
  8
0
  6
HIDDEN
 62
     7
370
     0
100
AcDbLine
 10
157.6828749917
 20
111.1368668183
 30
0.0
 11
157.6828749917
 21
110.5817644751
 31
0.0
  0
LINE
  5
DA
330
1F
100
AcDbEntity
  8
0
  6
HIDDEN
 62
     7
370
     0
100
AcDbLine
 10
157.6828749917
 20
110.5817644751
 30
0.0
 11
161.6828749917
 21
110.5817644751
 31
0.0
  0
LINE
  5
DB
330
1F
100
AcDbEntity
  8
0
  6
HIDDEN
 62
     7
370
     0
100
AcDbLine
 10
149.6828749916
 20
110.5817644751
 30
0.0
 11
149.6828749916
 21
111.1368668183
 31
0.0
  0
LINE
  5
DC
330
1F
100
AcDbEntity
  8
0
  6
HIDDEN
 62
     7
370
     0
100
AcDbLine
 10
149.6828749916
 20
110.5817644751
 30
0.0
 11
143.6828749917
 21
110.5817644751
 31
0.0
  0
LINE
  5
DD
330
1F
100
AcDbEntity
  8
0
  6
HIDDEN
 62
     7
370
     0
100
AcDbLine
 10
157.6828749917
 20
106.8426292191
 30
0.0
 11
157.6828749917
 21
105.9663190293
 31
0.0
  0
LINE
  5
DE
330
1F
100
AcDbEntity
  8
0
  6
HIDDEN
 62
     7
370
     0
100
AcDbLine
 10
149.6828749916
 20
105.9663190293
 30
0.0
 11
149.6828749916
 21
106.8426292191
 31
0.0
  0
LINE
  5
DF
330
1F
100
AcDbEntity
  8
0
  6
HIDDEN
 62
     7
370
     0
100
AcDbLine
 10
157.6828749917
 20
111.6919691614
 30
0.0
 11
157.6828749917
 21
111.1368668183
 31
0.0
  0
LINE
  5
E0
330
1F
100
AcDbEntity
  8
0
  6
HIDDEN
 62
     7
370
     0
100
AcDbLine
 10
149.6828749916
 20
111.1368668183
 30
0.0
 11
149.6828749916
 21
111.6919691614
 31
0.0
  0
LINE
  5
E1
330
1F
100
AcDbEntity
  8
0
  6
HIDDEN
 62
     7
370
     0
100
AcDbLine
 10
157.6828749917
 20
107.0765237156
 30
0.0
 11
161.6828749917
 21
107.0765237156
 31
0.0
  0
LINE
  5
E2
330
1F
100
AcDbEntity
  8
0
  6
HIDDEN
 62
     7
370
     0
100
AcDbLine
 10
161.6828749917
 20
106.6324418411
 30
0.0
 11
161.6828749917
 21
107.0765237156
 31
0.0
  0
LINE
  5
E3
330
1F
100
AcDbEntity
  8
0
  6
HIDDEN
 62
     7
370
     0
100
AcDbLine
 10
163.6828749917
 20
106.6324418411
 30
0.0
 11
161.6828749917
 21
106.6324418411
 31
0.0
  0
LINE
  5
E4
330
1F
100
AcDbEntity
  8
0
  6
HIDDEN
 62
     7
370
     0
100
AcDbLine
 10
157.6828749917
 20
105.9663190293
 30
0.0
 11
163.6828749917
 21
105.9663190293
 31
0.0
  0
LINE
  5
E5
330
1F
100
AcDbEntity
  8
0
  6
HIDDEN
 62
     7
370
     0
100
AcDbLine
 10
149.6828749916
 20
107.0765237156
 30
0.0
 11
143.6828749916
 21
107.0765237156
 31
0.0
  0
LINE
  5
E6
330
1F
100
AcDbEntity
  8
0
  6
HIDDEN
 62
     7
370
     0
100
AcDbLine
 10
149.6828749916
 20
105.9663190293
 30
0.0
 11
143.6828749916
 21
105.9663190293
 31
0.0
  0
LINE
  5
E7
330
1F
100
AcDbEntity
  8
0
  6
HIDDEN
 62
     7
370
     0
100
AcDbLine
 10
149.6828749916
 20
109.9393487817
 30
0.0
 11
143.6828749916
 21
109.9393487817
 31
0.0
  0
LINE
  5
E8
330
1F
100
AcDbEntity
  8
0
  6
HIDDEN
 62
     7
370
     0
100
AcDbLine
 10
149.6828749916
 20
111.6919691614
 30
0.0
 11
143.6828749916
 21
111.6919691614
 31
0.0
  0
LINE
  5
E9
330
1F
100
AcDbEntity
  8
0
  6
HIDDEN
 62
     7
370
     0
100
AcDbLine
 10
157.6828749917
 20
109.9393487817
 30
0.0
 11
163.6828749917
 21
109.9393487817
 31
0.0
  0
LINE
  5
EA
330
1F
100
AcDbEntity
  8
0
  6
HIDDEN
 62
     7
370
     0
100
AcDbLine
 10
157.6828749917
 20
111.6919691614
 30
0.0
 11
163.6828749917
 21
111.6919691614
 31
0.0
  0
LINE
  5
EB
330
1F
100
AcDbEntity
  8
0
  6
HIDDEN
 62
     7
370
     0
100
AcDbLine
 10
163.6828749917
 20
111.0258463496
 30
0.0
 11
163.6828749917
 21
110.6982905042
 31
0.0
  0
LINE
  5
EC
330
1F
100
AcDbEntity
  8
0
  6
HIDDEN
 62
     7
370
     0
100
AcDbLine
 10
161.6828749917
 20
108.221653742
 30
0.0
 11
163.6828749917
 21
108.221653742
 31
0.0
  0
LINE
  5
ED
330
1F
100
AcDbEntity
  8
0
  6
HIDDEN
 62
     7
370
     0
100
AcDbLine
 10
161.6828749917
 20
107.0765237156
 30
0.0
 11
161.6828749917
 21
108.221653742
 31
0.0
  0
LINE
  5
EE
330
1F
100
AcDbEntity
  8
0
  6
HIDDEN
 62
     7
370
     0
100
AcDbLine
 10
161.6828749917
 20
105.3707857856
 30
0.0
 11
161.6828749917
 21
106.6324418411
 31
0.0
  0
LINE
  5
EF
330
1F
100
AcDbEntity
  8
0
  6
HIDDEN
 62
     7
370
     0
100
AcDbLine
 10
131.2909421602
 20
133.2878337577
 30
0.0
 11
131.2909421602
 21
128.6791440953
 31
0.0
  0
ARC
  5
F0
330
1F
100
AcDbEntity
  8
0
  6
HIDDEN
 62
     7
370
     0
100
AcDbCircle
 10
124.9748637819
 20
121.3151559217
 30
0.0
 40
3.667738373485026
100
AcDbArc
 50
265.4338489491
 51
12.8985060603
  0
ARC
  5
F1
330
1F
100
AcDbEntity
  8
0
  6
HIDDEN
 62
     7
370
     0
100
AcDbCircle
 10
124.3921164832
 20
121.3181186553
 30
0.0
 40
3.670594052051862
100
AcDbArc
 50
167.7197944756
 51
274.5433263535
  0
LINE
  5
F2
330
1F
100
AcDbEntity
  8
0
  6
HIDDEN
 62
     7
370
     0
100
AcDbLine
 10
104.1350749632
 20
85.2604179522
 30
0.0
 11
103.7899470387
 21
85.2207584762
 31
0.0
  0
SPLINE
  5
F3
330
1F
100
AcDbEntity
  8
0
  6
HIDDEN
 62
     7
370
     0
100
AcDbSpline
210
0.0
220
0.0
230
1.0
 70
     8
 71
     3
 72
     9
 73
     5
 74
     0
 42
0.00000001
 43
0.00000001
 40
0.0
 40
0.0
 40
0.0
 40
0.0
 40
0.1060684194944048
 40
1.0
 40
1.0
 40
1.0
 40
1.0
 10
104.7376688294817
 20
85.31491795225926
 30
0.0
 10
104.7119080570407
 20
85.31321610175124
 30
0.0
 10
104.4690386660962
 20
85.29717126469107
 30
0.0
 10
104.2927051035145
 20
85.27776543561482
 30
0.0
 10
104.1350749632196
 20
85.26041795215767
 30
0.0
  0
LINE
  5
F4
330
1F
100
AcDbEntity
  8
0
  6
HIDDEN
 62
     7
370
     0
100
AcDbLine
 10
104.1349617094
 20
132.3978567319
 30
0.0
 11
104.623882731
 21
132.3521907267
 31
0.0
  0
SPLINE
  5
F5
330
1F
100
AcDbEntity
  8
0
  6
HIDDEN
 62
     7
370
     0
100
AcDbSpline
210
0.0
220
0.0
230
1.0
 70
     8
 71
     3
 72
    11
 73
     7
 74
     0
 42
0.00000001
 43
0.00000001
 40
0.0
 40
0.0
 40
0.0
 40
0.0
 40
0.0016990902190155
 40
0.3391261869095498
 40
0.6676059651777011
 40
1.0
 40
1.0
 40
1.0
 40
1.0
 10
103.4178124025842
 20
132.4851161541855
 30
0.0
 10
103.4176768606894
 20
132.4851349884551
 30
0.0
 10
103.3906236733672
 20
132.4888941732137
 30
0.0
 10
103.4843816200657
 20
132.4754642205688
 30
0.0
 10
103.7047339746796
 20
132.4454476671344
 30
0.0
 10
103.9909873192467
 20
132.4137828922462
 30
0.0
 10
104.1349617093607
 20
132.397856731944
 30
0.0
  0
SPLINE
  5
F6
330
1F
100
AcDbEntity
  8
0
  6
HIDDEN
 62
     7
370
     0
100
AcDbSpline
210
0.0
220
0.0
230
1.0
 70
     8
 71
     3
 72
    15
 73
    11
 74
     0
 42
0.00000001
 43
0.00000001
 40
0.0
 40
0.0
 40
0.0
 40
0.0
 40
0.1100575659143031
 40
0.2208892221962804
 40
0.3341485538764393
 40
0.4482423346400345
 40
0.5583228609239476
 40
0.7821904005520892
 40
0.8962380289515404
 40
1.0
 40
1.0
 40
1.0
 40
1.0
 10
110.4378769932674
 20
128.6666725711579
 30
0.0
 10
110.5054709793461
 20
128.6757408252246
 30
0.0
 10
110.6411343740982
 20
128.6939411149624
 30
0.0
 10
110.8215798045467
 20
128.7146621706635
 30
0.0
 10
110.9837285564753
 20
128.7314018545511
 30
0.0
 10
111.1217797875405
 20
128.7439839718806
 30
0.0
 10
111.2734200910954
 20
128.7563627450707
 30
0.0
 10
111.3748683112363
 20
128.763320195954
 30
0.0
 10
111.42629196244
 20
128.7666174720046
 30
0.0
 10
111.4302470203554
 20
128.7668627868199
 30
0.0
 10
111.4321311641487
 20
128.7669796519573
 30
0.0
  0
SPLINE
  5
F7
330
1F
100
AcDbEntity
  8
0
  6
HIDDEN
 62
     7
370
     0
100
AcDbSpline
210
0.0
220
0.0
230
1.0
 70
     8
 71
     3
 72
    17
 73
    13
 74
     0
 42
0.00000001
 43
0.00000001
 40
0.0
 40
0.0
 40
0.0
 40
0.0
 40
0.0069245937163938
 40
0.1182724020454853
 40
0.2320343429225816
 40
0.3466310441036679
 40
0.4573547868466461
 40
0.5688510218127578
 40
0.6827914571861582
 40
0.7975815549617468
 40
0.8984931395403475
 40
1.0
 40
1.0
 40
1.0
 40
1.0
 10
111.4321253763646
 20
88.8913089043536
 30
0.0
 10
111.4323733922459
 20
88.89129324184475
 30
0.0
 10
111.436609515724
 20
88.89102572542147
 30
0.0
 10
111.4206871346335
 20
88.89202275223613
 30
0.0
 10
111.3816750967512
 20
88.8945390628449
 30
0.0
 10
111.3132219326612
 20
88.89923673723291
 30
0.0
 10
111.220470229186
 20
88.90618658711833
 30
0.0
 10
111.1031785865174
 20
88.91591607617158
 30
0.0
 10
110.9603419639096
 20
88.92916308186541
 30
0.0
 10
110.7987925683038
 20
88.94615017069799
 30
0.0
 10
110.6249892286793
 20
88.96644281107544
 30
0.0
 10
110.5003698993422
 20
88.98320824867282
 30
0.0
 10
110.4378769932674
 20
88.99161561952494
 30
0.0
  0
SPLINE
  5
F8
330
1F
100
AcDbEntity
  8
0
  6
HIDDEN
 62
     7
370
     0
100
AcDbSpline
210
0.0
220
0.0
230
1.0
 70
     8
 71
     3
 72
    32
 73
    28
 74
     0
 42
0.00000001
 43
0.00000001
 40
0.0
 40
0.0
 40
0.0
 40
0.0
 40
0.0346246159901395
 40
0.0694870388940025
 40
0.1051007609549321
 40
0.140975387408676
 40
0.175600572118933
 40
0.2104692408125612
 40
0.2461122854708171
 40
0.2820258067991323
 40
0.3162663828049038
 40
0.3859338563640312
 40
0.4214461814158482
 40
0.4553763558770599
 40
0.5243713305904967
 40
0.559512463821912
 40
0.5937987343035772
 40
0.6635059787021125
 40
0.6990055363805021
 40
0.7337623601246066
 40
0.7687606633024606
 40
0.804524590768611
 40
0.8405553812432469
 40
0.8751701211305551
 40
0.9456085132854551
 40
0.9815233266320906
 40
1.0
 40
1.0
 40
1.0
 40
1.0
 10
110.4378769932674
 20
88.99161561952494
 30
0.0
 10
110.3658786914209
 20
89.00140356243325
 30
0.0
 10
110.2213875928878
 20
89.02104667326968
 30
0.0
 10
109.9800676586293
 20
89.05049589189142
 30
0.0
 10
109.7207694076437
 20
89.07904627398183
 30
0.0
 10
109.446781988511
 20
89.10547749293666
 30
0.0
 10
109.1621542074895
 20
89.12892997028798
 30
0.0
 10
108.8675692485214
 20
89.14892742674658
 30
0.0
 10
108.5606383395531
 20
89.16508310525032
 30
0.0
 10
108.2489068738006
 20
89.17652509294581
 30
0.0
 10
107.8316413251152
 20
89.18521622064367
 30
0.0
 10
107.4109983317576
 20
89.18392816418347
 30
0.0
 10
106.9975947785921
 20
89.172700352816
 30
0.0
 10
106.5927508155249
 20
89.15540208073512
 30
0.0
 10
106.2021127309627
 20
89.1296864369669
 30
0.0
 10
105.8333316529214
 20
89.09759312607
 30
0.0
 10
105.479913870673
 20
89.06203491756753
 30
0.0
 10
105.1544727803521
 20
89.02278646123195
 30
0.0
 10
104.8650955746348
 20
88.98315494385962
 30
0.0
 10
104.6671816976595
 20
88.95401920071737
 30
0.0
 10
104.489854733622
 20
88.9262849684046
 30
0.0
 10
104.3332454051094
 20
88.90050442415023
 30
0.0
 10
104.2015978854067
 20
88.87789778741605
 30
0.0
 10
104.059736689835
 20
88.8527117421094
 30
0.0
 10
103.9709181020194
 20
88.83626619298579
 30
0.0
 10
103.934095163469
 20
88.82937336216959
 30
0.0
 10
103.9355113106422
 20
88.8296383480788
 30
0.0
 10
103.9359923728514
 20
88.82972836323353
 30
0.0
  0
SPLINE
  5
F9
330
1F
100
AcDbEntity
  8
0
  6
HIDDEN
 62
     7
370
     0
100
AcDbSpline
210
0.0
220
0.0
230
1.0
 70
     8
 71
     3
 72
    30
 73
    26
 74
     0
 42
0.00000001
 43
0.00000001
 40
0.0
 40
0.0
 40
0.0
 40
0.0
 40
0.0156161600804337
 40
0.0849748372628082
 40
0.1203204532886746
 40
0.1543185190912401
 40
0.2234436946574015
 40
0.2586467089786608
 40
0.2931107206687012
 40
0.3631864361325605
 40
0.3988795186727329
 40
0.4336750628309725
 40
0.468714571210481
 40
0.5045294144990545
 40
0.5406151111978533
 40
0.575076786372292
 40
0.6452033649630279
 40
0.6809575734718862
 40
0.7149323277721686
 40
0.7840330582955269
 40
0.8192378401372485
 40
0.8533347063218409
 40
0.9226550151093995
 40
0.9579547149334489
 40
1.0
 40
1.0
 40
1.0
 40
1.0
 10
103.9359923728513
 20
128.8285598274493
 30
0.0
 10
103.9353946337663
 20
128.828672080331
 30
0.0
 10
103.9321420555896
 20
128.8292829008083
 30
0.0
 10
103.982462958038
 20
128.8198237663511
 30
0.0
 10
104.0827679870792
 20
128.801518930255
 30
0.0
 10
104.2173849751489
 20
128.7775356248812
 30
0.0
 10
104.399443620179
 20
128.7464368307348
 30
0.0
 10
104.6263661938443
 20
128.7105176866924
 30
0.0
 10
104.8829525992216
 20
128.6721986655533
 30
0.0
 10
105.1809892576943
 20
128.6319535302451
 30
0.0
 10
105.5135385116941
 20
128.5932925068428
 30
0.0
 10
105.7787362170983
 20
128.5658898481116
 30
0.0
 10
106.0577940423573
 20
128.5408450114994
 30
0.0
 10
106.3522450582515
 20
128.5186773142038
 30
0.0
 10
106.6551099915677
 20
128.5005152269338
 30
0.0
 10
107.0654959784365
 20
128.4822571219394
 30
0.0
 10
107.4863368173912
 20
128.473409887935
 30
0.0
 10
107.9062407346202
 20
128.4748752823762
 30
0.0
 10
108.3208552554739
 20
128.4829186755435
 30
0.0
 10
108.7270763749498
 20
128.5004254611428
 30
0.0
 10
109.1166068746717
 20
128.5259907741706
 30
0.0
 10
109.4934275759101
 20
128.5561750098848
 30
0.0
 10
109.8465647356141
 20
128.5920725847323
 30
0.0
 10
110.1883162234356
 20
128.6328908625909
 30
0.0
 10
110.3499899844452
 20
128.6547757761574
 30
0.0
 10
110.4378769932674
 20
128.6666725711579
 30
0.0
  0
LINE
  5
FA
330
1F
100
AcDbEntity
  8
0
  6
HIDDEN
 62
     7
370
     0
100
AcDbLine
 10
97.6868495879
 20
91.8291440953
 30
0.0
 11
97.6868495879
 21
125.8291440953
 31
0.0
  0
LWPOLYLINE
  5
FB
330
1F
100
AcDbEntity
  8
0
  6
HIDDEN
 62
     7
370
     0
100
AcDbPolyline
 90
       14
 70
   128
 43
0.0
 10
124.6828749917
 20
130.77474651
 10
125.4632362797
 20
130.8131759492
 10
126.2136087211
 20
130.926987445
 10
126.9051559237
 20
131.1118072854
 10
127.5113021164
 20
131.3605329476
 10
128.0087534409
 20
131.6636060439
 10
128.3783931217
 20
132.0093796453
 10
128.6060161133
 20
132.3845658659
 10
128.6828749917
 20
132.77474651
 10
128.6060161133
 20
133.164927154
 10
128.3783931217
 20
133.5401133747
 10
128.0087534409
 20
133.885886976
 10
127.5113021164
 20
134.1889600724
 10
127.0677628667
 20
134.380385777
  0
LWPOLYLINE
  5
FC
330
1F
100
AcDbEntity
  8
0
  6
HIDDEN
 62
     7
370
     0
100
AcDbPolyline
 90
       14
 70
   128
 43
0.0
 10
122.2996947007
 20
134.3810195021
 10
121.8544478669
 20
134.1889600724
 10
121.3569965425
 20
133.885886976
 10
120.9873568616
 20
133.5401133747
 10
120.7597338701
 20
133.164927154
 10
120.6828749917
 20
132.77474651
 10
120.7597338701
 20
132.3845658659
 10
120.9873568616
 20
132.0093796453
 10
121.3569965425
 20
131.6636060439
 10
121.8544478669
 20
131.3605329476
 10
122.4605940596
 20
131.1118072854
 10
123.1521412622
 20
130.926987445
 10
123.9025137036
 20
130.8131759492
 10
124.6828749917
 20
130.77474651
  0
SPLINE
  5
FD
330
1F
100
AcDbEntity
  8
0
  6
HIDDEN
 62
     7
370
     0
100
AcDbSpline
210
0.0
220
0.0
230
1.0
 70
     8
 71
     3
 72
     8
 73
     4
 74
     0
 42
0.00000001
 43
0.00000001
 40
0.0
 40
0.0
 40
0.0
 40
0.0
 40
0.0011559732291309
 40
0.0011559732291309
 40
0.0011559732291309
 40
0.0011559732291309
 10
84.78287499166578
 20
110.8289847139681
 30
0.0
 10
85.11620956673308
 20
110.8250174341699
 30
0.0
 10
85.44954075775982
 20
110.8208375516002
 30
0.0
 10
85.78287499166576
 20
110.8162723981934
 30
0.0
  0
SPLINE
  5
FE
330
1F
100
AcDbEntity
  8
0
  6
HIDDEN
 62
     7
370
     0
100
AcDbSpline
210
0.0
220
0.0
230
1.0
 70
     8
 71
     3
 72
     8
 73
     4
 74
     0
 42
0.00000001
 43
0.00000001
 40
0.0
 40
0.0
 40
0.0
 40
0.0
 40
0.0011564765856722
 40
0.0011564765856722
 40
0.0011564765856722
 40
0.0011564765856722
 10
85.78287499166578
 20
106.8324437931253
 30
0.0
 10
85.44956706109693
 20
106.831568637542
 30
0.0
 10
85.11623182870473
 20
106.8305137862903
 30
0.0
 10
84.78287499166576
 20
106.8293426992527
 30
0.0
  0
LINE
  5
FF
330
1F
100
AcDbEntity
  8
0
  6
HIDDEN
 62
     7
370
     0
100
AcDbLine
 10
124.3427009602
 20
91.8291440953
 30
0.0
 11
124.3427009602
 21
125.8291440953
 31
0.0
  0
LINE
  5
100
330
1F
100
AcDbEntity
  8
0
  6
HIDDEN
 62
     7
370
     0
100
AcDbLine
 10
126.6328749917
 20
93.1041440953
 30
0.0
 11
126.6328749917
 21
124.5541440949
 31
0.0
  0
SPLINE
  5
101
330
1F
100
AcDbEntity
  8
0
  6
HIDDEN
 62
     7
370
     0
100
AcDbSpline
210
0.0
220
0.0
230
1.0
 70
     8
 71
     3
 72
    16
 73
    12
 74
     0
 42
0.00000001
 43
0.00000001
 40
0.0
 40
0.0
 40
0.0
 40
0.0
 40
0.124999999999998
 40
0.124999999999998
 40
0.249999999999996
 40
0.249999999999996
 40
0.4999999999999973
 40
0.4999999999999973
 40
0.7499999999999987
 40
0.7499999999999987
 40
1.0
 40
1.0
 40
1.0
 40
1.0
 10
93.48287499166577
 20
93.02765365930975
 30
0.0
 10
93.5779967463316
 20
93.02765365930975
 30
0.0
 10
93.67132681505967
 20
93.02383782591694
 30
0.0
 10
93.85458857579768
 20
93.00906727318714
 30
0.0
 10
93.94546629135468
 20
92.99790922521156
 30
0.0
 10
94.20226798887441
 20
92.95543795506983
 30
0.0
 10
94.35733535374641
 20
92.91439175786704
 30
0.0
 10
94.61108181530103
 20
92.81924564128515
 30
0.0
 10
94.7119522669689
 20
92.76448290720357
 30
0.0
 10
94.84719868166373
 20
92.65322178329968
 30
0.0
 10
94.88287499166577
 20
92.596052045971
 30
0.0
 10
94.88287499166577
 20
92.54163047293729
 30
0.0
  0
SPLINE
  5
102
330
1F
100
AcDbEntity
  8
0
  6
HIDDEN
 62
     7
370
     0
100
AcDbSpline
210
0.0
220
0.0
230
1.0
 70
     8
 71
     3
 72
     8
 73
     4
 74
     0
 42
0.00000001
 43
0.00000001
 40
0.0
 40
0.0
 40
0.0
 40
0.0
 40
1.0
 40
1.0
 40
1.0
 40
1.0
 10
86.08287499168517
 20
95.17245660539199
 30
0.0
 10
86.08287499168709
 20
94.28855946307505
 30
0.0
 10
86.06939436577737
 20
93.5739762180131
 30
0.0
 10
86.06804299758625
 20
93.02765365930975
 30
0.0
  0
SPLINE
  5
103
330
1F
100
AcDbEntity
  8
0
  6
HIDDEN
 62
     7
370
     0
100
AcDbSpline
210
0.0
220
0.0
230
1.0
 70
     8
 71
     3
 72
    10
 73
     6
 74
     0
 42
0.00000001
 43
0.00000001
 40
0.0
 40
0.0
 40
0.0
 40
0.0
 40
0.5
 40
0.5
 40
1.0
 40
1.0
 40
1.0
 40
1.0
 10
85.78287499166578
 20
96.19736686471425
 30
0.0
 10
85.87426610631057
 20
96.02272807816345
 30
0.0
 10
85.94691793935483
 20
95.84912625201241
 30
0.0
 10
86.05441683118171
 20
95.50551283516204
 30
0.0
 10
86.08287499167956
 20
95.33718700967304
 30
0.0
 10
86.08287499168519
 20
95.17245660545147
 30
0.0
  0
LINE
  5
104
330
1F
100
AcDbEntity
  8
0
  6
HIDDEN
 62
     7
370
     0
100
AcDbLine
 10
85.7828749917
 20
99.2283173103
 30
0.0
 11
85.7828749917
 21
96.1973668647
 31
0.0
  0
SPLINE
  5
105
330
1F
100
AcDbEntity
  8
0
  6
HIDDEN
 62
     7
370
     0
100
AcDbSpline
210
0.0
220
0.0
230
1.0
 70
     8
 71
     3
 72
    10
 73
     6
 74
     0
 42
0.00000001
 43
0.00000001
 40
0.0
 40
0.0
 40
0.0
 40
0.0
 40
0.5
 40
0.5
 40
1.0
 40
1.0
 40
1.0
 40
1.0
 10
86.08287499177895
 20
100.5961577196986
 30
0.0
 10
86.08287499177894
 20
100.354173753475
 30
0.0
 10
86.05472496301789
 20
100.1198313258078
 30
0.0
 10
85.95113504999304
 20
99.6644563059834
 30
0.0
 10
85.87450634119253
 20
99.44285174405817
 30
0.0
 10
85.78287499166578
 20
99.2283173103123
 30
0.0
  0
LINE
  5
106
330
1F
100
AcDbEntity
  8
0
  6
HIDDEN
 62
     7
370
     0
100
AcDbLine
 10
86.0828749918
 20
112.4337777169
 30
0.0
 11
86.0828749918
 21
100.5961577197
 31
0.0
  0
SPLINE
  5
107
330
1F
100
AcDbEntity
  8
0
  6
HIDDEN
 62
     7
370
     0
100
AcDbSpline
210
0.0
220
0.0
230
1.0
 70
     8
 71
     3
 72
     8
 73
     4
 74
     0
 42
0.00000001
 43
0.00000001
 40
0.0
 40
0.0
 40
0.0
 40
0.0
 40
1.0
 40
1.0
 40
1.0
 40
1.0
 10
85.78287499166578
 20
118.4360834088959
 30
0.0
 10
85.9639064564201
 20
118.0039759254078
 30
0.0
 10
86.08287499178464
 20
117.5498305217432
 30
0.0
 10
86.08287499177894
 20
117.0621304709533
 30
0.0
  0
LINE
  5
108
330
1F
100
AcDbEntity
  8
0
  6
HIDDEN
 62
     7
370
     0
100
AcDbLine
 10
85.7828749917
 20
121.4692864088
 30
0.0
 11
85.7828749917
 21
118.4360834089
 31
0.0
  0
SPLINE
  5
109
330
1F
100
AcDbEntity
  8
0
  6
HIDDEN
 62
     7
370
     0
100
AcDbSpline
210
0.0
220
0.0
230
1.0
 70
     8
 71
     3
 72
    10
 73
     6
 74
     0
 42
0.00000001
 43
0.00000001
 40
0.0
 40
0.0
 40
0.0
 40
0.0
 40
0.5
 40
0.5
 40
1.0
 40
1.0
 40
1.0
 40
1.0
 10
86.08287499176872
 20
122.4858315852612
 30
0.0
 10
86.08287499176693
 20
122.3211952396686
 30
0.0
 10
86.0557163213424
 20
122.1540400168827
 30
0.0
 10
85.94995132728369
 20
121.8154170112217
 30
0.0
 10
85.87353653976331
 20
121.6431452350656
 30
0.0
 10
85.78287499166579
 20
121.4692864088157
 30
0.0
  0
SPLINE
  5
10A
330
1F
100
AcDbEntity
  8
0
  6
HIDDEN
 62
     7
370
     0
100
AcDbSpline
210
0.0
220
0.0
230
1.0
 70
     8
 71
     3
 72
    18
 73
    14
 74
     0
 42
0.00000001
 43
0.00000001
 40
0.0
 40
0.0
 40
0.0
 40
0.0
 40
0.2500000000000023
 40
0.2500000000000023
 40
0.3750000000000014
 40
0.3750000000000014
 40
0.5000000000000006
 40
0.5000000000000006
 40
0.6249999999999997
 40
0.6249999999999997
 40
0.7499999999999988
 40
0.7499999999999988
 40
1.0
 40
1.0
 40
1.0
 40
1.0
 10
90.88287499166577
 20
125.1166577177455
 30
0.0
 10
90.88287499166577
 20
125.0621831971933
 30
0.0
 10
90.84796430027359
 20
125.0058021378408
 30
0.0
 10
90.74595499894055
 20
124.9217252969874
 30
0.0
 10
90.70431864426243
 20
124.8943915929965
 30
0.0
 10
90.60591284877367
 20
124.8414376773975
 30
0.0
 10
90.54836963706941
 20
124.8155503236803
 30
0.0
 10
90.42107146349646
 20
124.767772778847
 30
0.0
 10
90.35148415873898
 20
124.7458248606691
 30
0.0
 10
90.20004991358405
 20
124.7063922957564
 30
0.0
 10
90.11736601049009
 20
124.6888360465306
 30
0.0
 10
89.86125454845202
 20
124.6463972811101
 30
0.0
 10
89.67333954456404
 20
124.6306345313731
 30
0.0
 10
89.48287499166577
 20
124.6306345313731
 30
0.0
  0
LINE
  5
10B
330
1F
100
AcDbEntity
  8
0
  6
HIDDEN
 62
     7
370
     0
100
AcDbLine
 10
89.4828749917
 20
124.6306345314
 30
0.0
 11
86.0828749918
 21
124.6306345314
 31
0.0
  0
LINE
  5
10C
330
1F
100
AcDbEntity
  8
0
  6
HIDDEN
 62
     7
370
     0
100
AcDbLine
 10
86.013906005
 20
93.0276536593
 30
0.0
 11
93.4828749917
 21
93.0276536593
 31
0.0
  0
SPLINE
  5
10D
330
1F
100
AcDbEntity
  8
0
  6
HIDDEN
 62
     7
370
     0
100
AcDbSpline
210
0.0
220
0.0
230
1.0
 70
     8
 71
     3
 72
    22
 73
    18
 74
     0
 42
0.00000001
 43
0.00000001
 40
0.0
 40
0.0
 40
0.0
 40
0.0
 40
0.1249999999999998
 40
0.1249999999999998
 40
0.2499999999999994
 40
0.2499999999999994
 40
0.4999999999999989
 40
0.4999999999999989
 40
0.5624999999999989
 40
0.5624999999999989
 40
0.6249999999999989
 40
0.6249999999999989
 40
0.7499999999999992
 40
0.7499999999999992
 40
0.8749999999999996
 40
0.8749999999999996
 40
1.0
 40
1.0
 40
1.0
 40
1.0
 10
86.01390600502366
 20
93.02765365930975
 30
0.0
 10
86.0008236122953
 20
93.28275936945741
 30
0.0
 10
85.98760404885547
 20
93.57591762856133
 30
0.0
 10
85.96515687106137
 20
94.23821809418611
 30
0.0
 10
85.9556784040369
 20
94.60849201479752
 30
0.0
 10
85.93648044310038
 20
95.8310488179113
 30
0.0
 10
85.93759421609727
 20
96.76818774404316
 30
0.0
 10
85.95650500905033
 20
98.08805897355816
 30
0.0
 10
85.96113453690933
 20
98.35956088253447
 30
0.0
 10
85.97161575665528
 20
98.91794571733676
 30
0.0
 10
85.97741101793972
 20
99.20506857327638
 30
0.0
 10
85.99572023884464
 20
100.0776578276481
 30
0.0
 10
86.009755173125
 20
100.6781135040039
 30
0.0
 10
86.03921234526184
 20
101.9155879965
 30
0.0
 10
86.0547680362434
 20
102.5526041531434
 30
0.0
 10
86.07856258624031
 20
103.864092750828
 30
0.0
 10
86.08658163838565
 20
104.5402153624885
 30
0.0
 10
86.08287499166578
 20
105.2245104737733
 30
0.0
  0
LINE
  5
10E
330
1F
100
AcDbEntity
  8
0
  6
HIDDEN
 62
     7
370
     0
100
AcDbLine
 10
86.0828749918
 20
112.4337777169
 30
0.0
 11
86.0828749918
 21
124.6306345314
 31
0.0
  0
SPLINE
  5
10F
330
1F
100
AcDbEntity
  8
0
  6
HIDDEN
 62
     7
370
     0
100
AcDbSpline
210
0.0
220
0.0
230
1.0
 70
     8
 71
     3
 72
    10
 73
     6
 74
     0
 42
0.00000001
 43
0.00000001
 40
0.0
 40
0.0
 40
0.0
 40
0.0
 40
0.5
 40
0.5
 40
1.0
 40
1.0
 40
1.0
 40
1.0
 10
86.08287499166575
 20
105.2245104737582
 30
0.0
 10
86.08287499166558
 20
105.4984256218326
 30
0.0
 10
86.05711576179776
 20
105.7693672005627
 30
0.0
 10
85.95390982906466
 20
106.3050582821656
 30
0.0
 10
85.87657166518953
 20
106.5708050856877
 30
0.0
 10
85.78287499166578
 20
106.8324437931253
 30
0.0
  0
SPLINE
  5
110
330
1F
100
AcDbEntity
  8
0
  6
HIDDEN
 62
     7
370
     0
100
AcDbSpline
210
0.0
220
0.0
230
1.0
 70
     8
 71
     3
 72
    10
 73
     6
 74
     0
 42
0.00000001
 43
0.00000001
 40
0.0
 40
0.0
 40
0.0
 40
0.0
 40
0.5
 40
0.5
 40
1.0
 40
1.0
 40
1.0
 40
1.0
 10
85.78287499166576
 20
110.8162723981934
 30
0.0
 10
85.87610557201651
 20
111.0801662047912
 30
0.0
 10
85.95113518354447
 20
111.3463465138892
 30
0.0
 10
86.05620228152281
 20
111.8846690857069
 30
0.0
 10
86.0828749917675
 20
112.157417200322
 30
0.0
 10
86.0828749917687
 20
112.4337777169086
 30
0.0
  0
LINE
  5
111
330
1F
100
AcDbEntity
  8
0
  6
HIDDEN
 62
     7
370
     0
100
AcDbLine
 10
85.7828749917
 20
106.8324437931
 30
0.0
 11
85.7828749917
 21
110.8162723982
 31
0.0
  0
LINE
  5
112
330
1F
100
AcDbEntity
  8
0
  6
HIDDEN
 62
     7
370
     0
100
AcDbLine
 10
85.9328749917
 20
90.8391440953
 30
0.0
 11
85.9328749917
 21
87.9592063299
 31
0.0
  0
LINE
  5
113
330
1F
100
AcDbEntity
  8
0
  6
HIDDEN
 62
     7
370
     0
100
AcDbLine
 10
94.8828749917
 20
90.8391440953
 30
0.0
 11
94.8828749917
 21
86.8654065641
 31
0.0
  0
LINE
  5
114
330
1F
100
AcDbEntity
  8
0
  6
HIDDEN
 62
     7
370
     0
100
AcDbLine
 10
85.9328749917
 20
126.8191440953
 30
0.0
 11
85.9328749917
 21
129.6990818607
 31
0.0
  0
LINE
  5
115
330
1F
100
AcDbEntity
  8
0
  6
HIDDEN
 62
     7
370
     0
100
AcDbLine
 10
90.8828749917
 20
126.8191440953
 30
0.0
 11
90.8828749917
 21
130.6732517677
 31
0.0
  0
LINE
  5
116
330
1F
100
AcDbEntity
  8
0
  6
HIDDEN
 62
     7
370
     0
100
AcDbLine
 10
138.4828749917
 20
99.3291440953
 30
0.0
 11
138.4828749917
 21
118.3291440953
 31
0.0
  0
LINE
  5
117
330
1F
100
AcDbEntity
  8
0
  6
HIDDEN
 62
     7
370
     0
100
AcDbLine
 10
135.4828749917
 20
99.3291440953
 30
0.0
 11
135.4828749917
 21
118.3291440953
 31
0.0
  0
LINE
  5
118
330
1F
100
AcDbEntity
  8
0
  6
HIDDEN
 62
     7
370
     0
100
AcDbLine
 10
127.1328749917
 20
100.3291440953
 30
0.0
 11
127.1328749917
 21
117.3291440953
 31
0.0
  0
LINE
  5
119
330
1F
100
AcDbEntity
  8
0
  6
HIDDEN
 62
     7
370
     0
100
AcDbLine
 10
142.6328749917
 20
82.4291440953
 30
0.0
 11
136.4952001893
 21
82.4291440953
 31
0.0
  0
LINE
  5
11A
330
1F
100
AcDbEntity
  8
0
  6
HIDDEN
 62
     7
370
     0
100
AcDbLine
 10
121.6328749917
 20
77.3450211125
 30
0.0
 11
121.6328749917
 21
82.4291440953
 31
0.0
  0
LINE
  5
11B
330
1F
100
AcDbEntity
  8
0
  6
HIDDEN
 62
     7
370
     0
100
AcDbLine
 10
129.6328749917
 20
82.4291440953
 30
0.0
 11
121.6328749917
 21
82.4291440953
 31
0.0
  0
LINE
  5
11C
330
1F
100
AcDbEntity
  8
0
  6
HIDDEN
 62
     7
370
     0
100
AcDbLine
 10
132.870549794
 20
82.4291440953
 30
0.0
 11
129.6328749917
 21
82.4291440953
 31
0.0
  0
LINE
  5
11D
330
1F
100
AcDbEntity
  8
0
  6
HIDDEN
 62
     7
370
     0
100
AcDbLine
 10
142.6328749917
 20
135.2291440953
 30
0.0
 11
136.19857746
 21
135.2291440953
 31
0.0
  0
LINE
  5
11E
330
1F
100
AcDbEntity
  8
0
  6
HIDDEN
 62
     7
370
     0
100
AcDbLine
 10
133.1671725234
 20
135.2291440953
 30
0.0
 11
129.6328749917
 21
135.2291440953
 31
0.0
  0
LINE
  5
11F
330
1F
100
AcDbEntity
  8
0
  6
HIDDEN
 62
     7
370
     0
100
AcDbLine
 10
129.6328749917
 20
135.2291440953
 30
0.0
 11
121.6328749917
 21
135.2291440953
 31
0.0
  0
LINE
  5
120
330
1F
100
AcDbEntity
  8
0
  6
HIDDEN
 62
     7
370
     0
100
AcDbLine
 10
203.1828749917
 20
101.8291440953
 30
0.0
 11
203.1828749917
 21
115.8291440953
 31
0.0
  0
SPLINE
  5
121
330
1F
100
AcDbEntity
  8
0
  6
HIDDEN
 62
     7
370
     0
100
AcDbSpline
210
0.0
220
0.0
230
1.0
 70
     8
 71
     3
 72
    11
 73
     7
 74
     0
 42
0.00000001
 43
0.00000001
 40
0.0
 40
0.0
 40
0.0
 40
0.0
 40
0.0008203708524183
 40
0.0008203708524183
 40
0.0008203708524183
 40
0.0016409967870154
 40
0.0016409967870154
 40
0.0016409967870154
 40
0.0016409967870154
 10
85.93287499166577
 20
92.97711134469868
 30
0.0
 10
85.74171669136712
 20
92.93593231607954
 30
0.0
 10
85.55028962129492
 20
92.89717834384955
 30
0.0
 10
85.3586439977743
 20
92.86081058457098
 30
0.0
 10
85.16693859269384
 20
92.82443148080496
 30
0.0
 10
84.97499964063489
 20
92.79043723003741
 30
0.0
 10
84.78287499356408
 20
92.75878910464618
 30
0.0
  0
ELLIPSE
  5
122
330
1F
100
AcDbEntity
  8
0
  6
HIDDEN
 62
     7
370
     0
100
AcDbEllipse
 10
80.5404431289
 20
108.8291440953
 30
0.0
 11
20.19992452774783
 21
-1.421085471520200E-14
 31
0.0
210
0.0
220
0.0
230
1.0
 40
0.816496581
 41
1.300566354935773
 42
1.359198697441322
  0
SPLINE
  5
123
330
1F
100
AcDbEntity
  8
0
  6
HIDDEN
 62
     7
370
     0
100
AcDbSpline
210
0.0
220
0.0
230
1.0
 70
     8
 71
     3
 72
    22
 73
    18
 74
     0
 42
0.00000001
 43
0.00000001
 40
0.0
 40
0.0
 40
0.0
 40
0.0
 40
0.0519896521095956
 40
0.1577624224973393
 40
0.2116693902382883
 40
0.2636577677428042
 40
0.3693637946841193
 40
0.4231965442254726
 40
0.4758778662678947
 40
0.5829963374881162
 40
0.6375598122718704
 40
0.690686674876394
 40
0.7441886946285355
 40
0.7988855239645611
 40
0.8540006550865822
 40
0.9063802635437752
 40
1.0
 40
1.0
 40
1.0
 40
1.0
 10
162.1828749916658
 20
115.9733725351381
 30
0.0
 10
162.2237918283905
 20
115.9735846587092
 30
0.0
 10
162.3479538302639
 20
115.9742283469644
 30
0.0
 10
162.5130990964193
 20
115.9802325008583
 30
0.0
 10
162.6725681557211
 20
115.9898080812162
 30
0.0
 10
162.82733248043
 20
116.0016811567817
 30
0.0
 10
162.9738130527095
 20
116.0164448565253
 30
0.0
 10
163.1089146638872
 20
116.0329194380347
 30
0.0
 10
163.2362628103225
 20
116.0501572472044
 30
0.0
 10
163.3499374077298
 20
116.0677674070168
 30
0.0
 10
163.4467556493859
 20
116.0842037531647
 30
0.0
 10
163.5105133784251
 20
116.0956093808413
 30
0.0
 10
163.5649796717757
 20
116.1057787001483
 30
0.0
 10
163.610241032925
 20
116.1145313711497
 30
0.0
 10
163.6443981876776
 20
116.1213157570375
 30
0.0
 10
163.6754266945356
 20
116.1276040548045
 30
0.0
 10
163.678589468994
 20
116.1282610668578
 30
0.0
 10
163.6806175473491
 20
116.1286823652912
 30
0.0
  0
LINE
  5
124
330
1F
100
AcDbEntity
  8
0
  6
HIDDEN
 62
     7
370
     0
100
AcDbLine
 10
162.2329071004
 20
115.9738019148
 30
0.0
 11
162.019797395
 21
115.9755738057
 31
0.0
  0
SPLINE
  5
125
330
1F
100
AcDbEntity
  8
0
  6
HIDDEN
 62
     7
370
     0
100
AcDbSpline
210
0.0
220
0.0
230
1.0
 70
     8
 71
     3
 72
    22
 73
    18
 74
     0
 42
0.00000001
 43
0.00000001
 40
0.0
 40
0.0
 40
0.0
 40
0.0
 40
0.0376721330528802
 40
0.1430662431782229
 40
0.1967734955662865
 40
0.2484870893492911
 40
0.3536217529557705
 40
0.4071562454380072
 40
0.4597476028158922
 40
0.5666778545003298
 40
0.6211411373875101
 40
0.6742797430535536
 40
0.7277924195767529
 40
0.7824962506643766
 40
0.8376172464396371
 40
0.9181180281337609
 40
1.0
 40
1.0
 40
1.0
 40
1.0
 10
160.6838649575518
 20
116.1289408088908
 30
0.0
 10
160.6840262137416
 20
116.1289077934392
 30
0.0
 10
160.6846386111662
 20
116.1287824117248
 30
0.0
 10
160.7085829669218
 20
116.1238623143078
 30
0.0
 10
160.752120413364
 20
116.1151993464265
 30
0.0
 10
160.8090007719411
 20
116.1041686378135
 30
0.0
 10
160.8846382306287
 20
116.090140047645
 30
0.0
 10
160.9779294637289
 20
116.0741489570709
 30
0.0
 10
161.0830630723131
 20
116.0571819198412
 30
0.0
 10
161.2046029379835
 20
116.0395175423469
 30
0.0
 10
161.3396725988734
 20
116.022709534868
 30
0.0
 10
161.4471768202953
 20
116.0108772988233
 30
0.0
 10
161.560109506685
 20
116.0001565024971
 30
0.0
 10
161.6790691361978
 20
115.9907608212034
 30
0.0
 10
161.8221270567831
 20
115.9819524543052
 30
0.0
 10
161.9905035309103
 20
115.9748802099924
 30
0.0
 10
162.1183885845108
 20
115.973877935129
 30
0.0
 10
162.1828749916658
 20
115.9733725351381
 30
0.0
  0
SPLINE
  5
126
330
1F
100
AcDbEntity
  8
0
  6
HIDDEN
 62
     7
370
     0
100
AcDbSpline
210
0.0
220
0.0
230
1.0
 70
     8
 71
     3
 72
    26
 73
    22
 74
     0
 42
0.00000001
 43
0.00000001
 40
0.0
 40
0.0
 40
0.0
 40
0.0
 40
0.0521675313773427
 40
0.105867106994019
 40
0.1580293172808945
 40
0.2116685396222562
 40
0.2644949400434212
 40
0.3188230729221825
 40
0.3721231133667955
 40
0.4270098375194372
 40
0.479563767853945
 40
0.5336917363108968
 40
0.5854388236877888
 40
0.6386677931082626
 40
0.6908047157252121
 40
0.7443985914560033
 40
0.7975064192743778
 40
0.852147125074531
 40
0.9053126420558092
 40
0.9600738457980499
 40
1.0
 40
1.0
 40
1.0
 40
1.0
 10
163.6828749916658
 20
101.5291440953414
 30
0.0
 10
163.6789604528092
 20
101.5299535824384
 30
0.0
 10
163.6710164138062
 20
101.5315963294661
 30
0.0
 10
163.6071808595901
 20
101.5444695301855
 30
0.0
 10
163.5064152284777
 20
101.5636568944797
 30
0.0
 10
163.3691977659048
 20
101.5876259342488
 30
0.0
 10
163.1973503866189
 20
101.6140325720039
 30
0.0
 10
162.9972118188861
 20
101.6397017974381
 30
0.0
 10
162.771001627254
 20
101.6620290257745
 30
0.0
 10
162.5299092715622
 20
101.6779236903864
 30
0.0
 10
162.2774353845871
 20
101.6857800131893
 30
0.0
 10
162.0269774747843
 20
101.684670584729
 30
0.0
 10
161.7801555179134
 20
101.6749098137057
 30
0.0
 10
161.5476422318484
 20
101.6579048412759
 30
0.0
 10
161.3303427592645
 20
101.6351976162683
 30
0.0
 10
161.1367463921713
 20
101.6094668219463
 30
0.0
 10
160.9696307013182
 20
101.5831406142658
 30
0.0
 10
160.8367169393917
 20
101.5594752622256
 30
0.0
 10
160.7422994009508
 20
101.5412471085749
 30
0.0
 10
160.6893765284814
 20
101.530485464071
 30
0.0
 10
160.6873726510642
 20
101.5300683105788
 30
0.0
 10
160.6865276901265
 20
101.5298924123912
 30
0.0
  0
LINE
  5
127
330
1F
100
AcDbEntity
  8
0
  6
HIDDEN
 62
     7
370
     0
100
AcDbLine
 10
160.1828749917
 20
101.9291440953
 30
0.0
 11
160.1828749917
 21
115.7291440953
 31
0.0
  0
LINE
  5
128
330
1F
100
AcDbEntity
  8
0
  6
HIDDEN
 62
     7
370
     0
100
AcDbLine
 10
170.6828749917
 20
101.8291440953
 30
0.0
 11
170.6828749917
 21
115.8291440953
 31
0.0
  0
LINE
  5
129
330
1F
100
AcDbEntity
  8
0
  6
HIDDEN
 62
     7
370
     0
100
AcDbLine
 10
85.9328749917
 20
90.8391440953
 30
0.0
 11
85.9328749917
 21
92.9771113447
 31
0.0
  0
LINE
  5
12A
330
1F
100
AcDbEntity
  8
0
  6
HIDDEN
 62
     7
370
     0
100
AcDbLine
 10
86.013906005
 20
93.0276536593
 30
0.0
 11
85.9328749917
 21
92.9771113447
 31
0.0
  0
LINE
  5
12B
330
1F
100
AcDbEntity
  8
0
  6
HIDDEN
 62
     7
370
     0
100
AcDbLine
 10
94.8828749917
 20
90.8391440953
 30
0.0
 11
94.8828749917
 21
92.5416304729
 31
0.0
  0
LINE
  5
12C
330
1F
100
AcDbEntity
  8
0
  6
HIDDEN
 62
     7
370
     0
100
AcDbLine
 10
90.8828749917
 20
126.8191440953
 30
0.0
 11
90.8828749917
 21
125.1166577177
 31
0.0
  0
LINE
  5
12D
330
1F
100
AcDbEntity
  8
0
  6
HIDDEN
 62
     7
370
     0
100
AcDbLine
 10
85.9328749917
 20
126.8191440953
 30
0.0
 11
85.9328749917
 21
124.7237685443
 31
0.0
  0
SPLINE
  5
12E
330
1F
100
AcDbEntity
  8
0
  6
HIDDEN
 62
     7
370
     0
100
AcDbSpline
210
0.0
220
0.0
230
1.0
 70
     8
 71
     3
 72
     8
 73
     4
 74
     0
 42
0.00000001
 43
0.00000001
 40
0.0
 40
0.0
 40
0.0
 40
0.0
 40
1.0
 40
1.0
 40
1.0
 40
1.0
 10
85.93287499166577
 20
124.7237685443387
 30
0.0
 10
85.98288048951248
 20
124.6927327708063
 30
0.0
 10
86.03288055908013
 20
124.6616881264659
 30
0.0
 10
86.0828749917687
 20
124.6306345313731
 30
0.0
  0
SPLINE
  5
12F
330
1F
100
AcDbEntity
  8
0
  6
HIDDEN
 62
     7
370
     0
100
AcDbSpline
210
0.0
220
0.0
230
1.0
 70
     8
 71
     3
 72
    10
 73
     6
 74
     0
 42
0.00000001
 43
0.00000001
 40
0.0
 40
0.0
 40
0.0
 40
0.0
 40
0.3912555118073754
 40
0.726423002749578
 40
0.9999999999999999
 40
0.9999999999999999
 40
0.9999999999999999
 40
0.9999999999999999
 10
104.5685869635782
 20
85.75328647747902
 30
0.0
 10
104.7619003503764
 20
85.77312958734848
 30
0.0
 10
105.1208148874801
 20
85.80997121901946
 30
0.0
 10
105.7804101723294
 20
85.85055790353766
 30
0.0
 10
106.2307650199447
 20
85.8635066002469
 30
0.0
 10
106.4331598330354
 20
85.86932589821627
 30
0.0
  0
SPLINE
  5
130
330
1F
100
AcDbEntity
  8
0
  6
HIDDEN
 62
     7
370
     0
100
AcDbSpline
210
0.0
220
0.0
230
1.0
 70
     8
 71
     3
 72
    48
 73
    44
 74
     0
 42
0.00000001
 43
0.00000001
 40
0.0
 40
0.0
 40
0.0
 40
0.0
 40
0.0185094663223306
 40
0.0635197193600977
 40
0.1165460605412635
 40
0.1657177676222164
 40
0.2153183370959019
 40
0.2673536092880412
 40
0.2943483301744864
 40
0.3080910040860869
 40
0.3150236813555586
 40
0.3185053490028433
 40
0.3202500138436797
 40
0.321123303833879
 40
0.3215601881964786
 40
0.3217786902164166
 40
0.3218879561856335
 40
0.321942592910002
 40
0.3219699122071198
 40
0.3219835720894114
 40
0.3219904020889901
 40
0.3219938171033876
 40
0.3219955246142387
 40
0.3219963783705769
 40
0.3219972321275242
 40
0.334304802396467
 40
0.3558624580735897
 40
0.3866640528735661
 40
0.4267006161959771
 40
0.4847540974342772
 40
0.5311724675112709
 40
0.6318584557833292
 40
0.6845899004421472
 40
0.7025310545912121
 40
0.7206448674540495
 40
0.7389336556583763
 40
0.7748892676188278
 40
0.8049917924141232
 40
0.8431624044120585
 40
0.9011956733513554
 40
0.9473329257193456
 40
0.99404432754951
 40
1.0
 40
1.0
 40
1.0
 40
1.0
 10
110.7140777060882
 20
85.41793104965664
 30
0.0
 10
110.7676566695153
 20
85.40619927408008
 30
0.0
 10
110.9515258671049
 20
85.365938843053
 30
0.0
 10
111.1866518678976
 20
85.30736501989753
 30
0.0
 10
111.3889520792272
 20
85.2564038313088
 30
0.0
 10
111.4544348019869
 20
85.23836320962543
 30
0.0
 10
111.3878069724542
 20
85.25790843429736
 30
0.0
 10
111.2156581493696
 20
85.30044031189374
 30
0.0
 10
111.0319476038624
 20
85.3439656209358
 30
0.0
 10
110.9226020074881
 20
85.36946589077645
 30
0.0
 10
110.8634725406229
 20
85.38316956983172
 30
0.0
 10
110.8327844031039
 20
85.3902614426838
 30
0.0
 10
110.8171585055659
 20
85.39386764351187
 30
0.0
 10
110.8092749808922
 20
85.39568583633758
 30
0.0
 10
110.8053155606719
 20
85.3965987095718
 30
0.0
 10
110.8033314343485
 20
85.39705609081604
 30
0.0
 10
110.802338266921
 20
85.39728501765104
 30
0.0
 10
110.8018414071141
 20
85.3973995401286
 30
0.0
 10
110.801592908184
 20
85.39745681613303
 30
0.0
 10
110.801468641462
 20
85.3974854578271
 30
0.0
 10
110.8014065037866
 20
85.39749977959669
 30
0.0
 10
110.8013754338703
 20
85.39750694071266
 30
0.0
 10
110.8013598986425
 20
85.39751052132776
 30
0.0
 10
110.8013510212909
 20
85.39751256741121
 30
0.0
 10
110.7693529152015
 20
85.4048875902274
 30
0.0
 10
110.6783767987605
 20
85.42661501711821
 30
0.0
 10
110.4892706964121
 20
85.46866063879544
 30
0.0
 10
110.1870614989337
 20
85.52945648967491
 30
0.0
 10
109.711819690652
 20
85.61557510508352
 30
0.0
 10
109.1076334881617
 20
85.70833264905627
 30
0.0
 10
108.1819335192816
 20
85.82023809133439
 30
0.0
 10
107.2119711956098
 20
85.87341123531364
 30
0.0
 10
106.4312086240425
 20
85.87367060121368
 30
0.0
 10
106.0479178791352
 20
85.86426580484876
 30
0.0
 10
105.8209637539628
 20
85.85556338408645
 30
0.0
 10
105.5305815520571
 20
85.84020506088652
 30
0.0
 10
105.2146444410342
 20
85.81554083386693
 30
0.0
 10
104.8649496436387
 20
85.78540107935093
 30
0.0
 10
104.4987197483257
 20
85.7472833551719
 30
0.0
 10
104.1829754795625
 20
85.70684515849135
 30
0.0
 10
103.9932972084627
 20
85.67701548132695
 30
0.0
 10
103.9166030268447
 20
85.66713043982239
 30
0.0
 10
103.9375737516507
 20
85.67067200056547
 30
0.0
 10
103.9399451529427
 20
85.67107248561307
 30
0.0
  0
LINE
  5
131
330
1F
100
AcDbEntity
  8
0
  6
HIDDEN
 62
     7
370
     0
100
AcDbLine
 10
104.2909315584
 20
85.7191446164
 30
0.0
 11
104.5685869636
 21
85.7532864775
 31
0.0
  0
LINE
  5
132
330
1F
100
AcDbEntity
  8
0
  6
HIDDEN
 62
     7
370
     0
100
AcDbLine
 10
104.5685847606
 20
131.9049299679
 30
0.0
 11
104.198533152
 21
131.9504517124
 31
0.0
  0
SPLINE
  5
133
330
1F
100
AcDbEntity
  8
0
  6
HIDDEN
 62
     7
370
     0
100
AcDbSpline
210
0.0
220
0.0
230
1.0
 70
     8
 71
     3
 72
    34
 73
    30
 74
     0
 42
0.00000001
 43
0.00000001
 40
0.0
 40
0.0
 40
0.0
 40
0.0
 40
0.0071369154437569
 40
0.0630173988533343
 40
0.0888594381368914
 40
0.118302254443479
 40
0.1513473697033274
 40
0.1879954669231287
 40
0.2385646259074294
 40
0.2770415983233506
 40
0.2923692412204354
 40
0.304371754035534
 40
0.3130489057966409
 40
0.3781322644304934
 40
0.4413954167699745
 40
0.5029196899028318
 40
0.5627935563216024
 40
0.5888641163734156
 40
0.618392297538595
 40
0.6513813642418915
 40
0.6878333203680514
 40
0.7406874959770867
 40
0.7796905687257412
 40
0.7945899133735187
 40
0.8056800215734045
 40
0.8129606061718699
 40
0.87844765436119
 40
0.9409971173833278
 40
1.0
 40
1.0
 40
1.0
 40
1.0
 10
103.939938224677
 20
131.9871924452417
 30
0.0
 10
103.9375502721872
 20
131.9875951292839
 30
0.0
 10
103.9164651751762
 20
131.9911507411025
 30
0.0
 10
103.9761201630242
 20
131.9835429471296
 30
0.0
 10
104.0745229126259
 20
131.9681130736917
 30
0.0
 10
104.1860169896817
 20
131.9518035209758
 30
0.0
 10
104.3455453606197
 20
131.9306615783394
 30
0.0
 10
104.5855757192547
 20
131.9015341188992
 30
0.0
 10
104.8930305134162
 20
131.8700141156268
 30
0.0
 10
105.1904653815653
 20
131.8447027162777
 30
0.0
 10
105.3920153293112
 20
131.8292251707991
 30
0.0
 10
105.506018574578
 20
131.8210037828233
 30
0.0
 10
105.7838706682116
 20
131.8027873537992
 30
0.0
 10
106.2645739999159
 20
131.7846269022156
 30
0.0
 10
106.9870440986753
 20
131.7849195494887
 30
0.0
 10
107.7154831784842
 20
131.8122255639801
 30
0.0
 10
108.2950777627791
 20
131.8567073797075
 30
0.0
 10
108.7345901711774
 20
131.9049729257001
 30
0.0
 10
109.0630761381562
 20
131.9465074914662
 30
0.0
 10
109.4158342904222
 20
131.9967818724277
 30
0.0
 10
109.8274365350927
 20
132.0634071142812
 30
0.0
 10
110.2207078909813
 20
132.1349092058745
 30
0.0
 10
110.5067304376827
 20
132.1934985503567
 30
0.0
 10
110.6644163052883
 20
132.2287407569073
 30
0.0
 10
110.7409553177526
 20
132.2465979538324
 30
0.0
 10
110.9263673333225
 20
132.2900330797285
 30
0.0
 10
111.1750789915137
 20
132.3472543955913
 30
0.0
 10
111.3927959797475
 20
132.4014598785638
 30
0.0
 10
111.4192415456456
 20
132.4094135753662
 30
0.0
 10
111.4320785222767
 20
132.4132743897037
 30
0.0
  0
SPLINE
  5
134
330
1F
100
AcDbEntity
  8
0
  6
HIDDEN
 62
     7
370
     0
100
AcDbSpline
210
0.0
220
0.0
230
1.0
 70
     8
 71
     3
 72
    10
 73
     6
 74
     0
 42
0.00000001
 43
0.00000001
 40
0.0
 40
0.0
 40
0.0
 40
0.0
 40
0.2531204725606483
 40
0.5890296664221084
 40
1.0
 40
1.0
 40
1.0
 40
1.0
 10
106.3011217617197
 20
131.7888334546964
 30
0.0
 10
106.1272178528852
 20
131.7946752667992
 30
0.0
 10
105.7225308657995
 20
131.8082695865292
 30
0.0
 10
105.1064127990648
 20
131.8491607032663
 30
0.0
 10
104.7594828863475
 20
131.885135075623
 30
0.0
 10
104.5685847605863
 20
131.9049299679243
 30
0.0
  0
LINE
  5
135
330
1F
100
AcDbEntity
  8
0
  6
HIDDEN
 62
     7
370
     0
100
AcDbLine
 10
153.6328749917
 20
125.2517938262
 30
0.0
 11
156.1328749917
 21
125.2517938262
 31
0.0
  0
LINE
  5
136
330
1F
100
AcDbEntity
  8
0
  6
HIDDEN
 62
     7
370
     0
100
AcDbLine
 10
151.1328749917
 20
125.2517938262
 30
0.0
 11
153.6328749917
 21
125.2517938262
 31
0.0
  0
LINE
  5
137
330
1F
100
AcDbEntity
  8
0
  6
HIDDEN
 62
     7
370
     0
100
AcDbLine
 10
156.1328749917
 20
92.4064943645
 30
0.0
 11
151.1328749917
 21
92.4064943645
 31
0.0
  0
LINE
  5
138
330
1F
100
AcDbEntity
  8
0
  6
HIDDEN
 62
     7
370
     0
100
AcDbLine
 10
153.6328749917
 20
115.8291440953
 30
0.0
 11
156.1328749917
 21
115.8291440953
 31
0.0
  0
LINE
  5
139
330
1F
100
AcDbEntity
  8
0
  6
HIDDEN
 62
     7
370
     0
100
AcDbLine
 10
151.1328749917
 20
115.8291440953
 30
0.0
 11
153.6328749917
 21
115.8291440953
 31
0.0
  0
LINE
  5
13A
330
1F
100
AcDbEntity
  8
0
  6
HIDDEN
 62
     7
370
     0
100
AcDbLine
 10
156.1328749917
 20
101.8291440953
 30
0.0
 11
151.1328749917
 21
101.8291440953
 31
0.0
  0
SPLINE
  5
13B
330
1F
100
AcDbEntity
  8
0
  6
HIDDEN
 62
     7
370
     0
100
AcDbSpline
210
0.0
220
0.0
230
1.0
 70
     8
 71
     3
 72
    30
 73
    26
 74
     0
 42
0.00000001
 43
0.00000001
 40
0.0
 40
0.0
 40
0.0
 40
0.0
 40
0.0412274297564295
 40
0.0838627324950381
 40
0.1250516510534614
 40
0.1672473279861986
 40
0.2244849111414911
 40
0.2833611997047477
 40
0.341913096747843
 40
0.4019328869320863
 40
0.4346453182317882
 40
0.468003077297034
 40
0.5007963769266219
 40
0.5349012334331606
 40
0.5631174209943296
 40
0.5919349488450971
 40
0.6414698556812196
 40
0.6923287517706491
 40
0.7450260126139441
 40
0.7988519530009971
 40
0.8464596455547886
 40
0.8953104661842619
 40
0.9429925514063264
 40
0.9925828888811945
 40
1.0
 40
1.0
 40
1.0
 40
1.0
 10
163.6828749916658
 20
119.2676542484175
 30
0.0
 10
163.6809333208257
 20
119.2700589849279
 30
0.0
 10
163.6769836731466
 20
119.2749505771491
 30
0.0
 10
163.6458911689775
 20
119.3136716669655
 30
0.0
 10
163.5988723811829
 20
119.3729735867917
 30
0.0
 10
163.530647669575
 20
119.4606772741394
 30
0.0
 10
163.43860116006
 20
119.5829136456973
 30
0.0
 10
163.3259721040457
 20
119.7421365153036
 30
0.0
 10
163.2092595209179
 20
119.9255910290528
 30
0.0
 10
163.1170813034101
 20
120.101017598665
 30
0.0
 10
163.0560654201464
 20
120.260525267358
 30
0.0
 10
163.0222146446008
 20
120.3931049517252
 30
0.0
 10
163.0080798317007
 20
120.5330755016796
 30
0.0
 10
163.0176159019734
 20
120.6665206493737
 30
0.0
 10
163.0454381155091
 20
120.7898610996385
 30
0.0
 10
163.0934511211809
 20
120.9269705732327
 30
0.0
 10
163.1694975246087
 20
121.0803371319205
 30
0.0
 10
163.2709205341967
 20
121.2433258783007
 30
0.0
 10
163.377044545238
 20
121.3926384909091
 30
0.0
 10
163.4752998942606
 20
121.5198686942983
 30
0.0
 10
163.5592673114108
 20
121.6234040475523
 30
0.0
 10
163.6246263126199
 20
121.7014814073115
 30
0.0
 10
163.6674355909429
 20
121.7516672642387
 30
0.0
 10
163.6853207474489
 20
121.7724264614393
 30
0.0
 10
163.6818803389991
 20
121.768426771564
 30
0.0
 10
163.6814327151816
 20
121.7679063808962
 30
0.0
  0
SPLINE
  5
13C
330
1F
100
AcDbEntity
  8
0
  6
HIDDEN
 62
     7
370
     0
100
AcDbSpline
210
0.0
220
0.0
230
1.0
 70
     8
 71
     3
 72
    10
 73
     6
 74
     0
 42
0.00000001
 43
0.00000001
 40
0.0
 40
0.0
 40
0.0
 40
0.0
 40
0.3026314160088013
 40
0.7588357203613787
 40
1.0
 40
1.0
 40
1.0
 40
1.0
 10
160.6864038426749
 20
121.7561527491936
 30
0.0
 10
160.6864903319609
 20
121.7561822239274
 30
0.0
 10
160.6867072002574
 20
121.7562561305995
 30
0.0
 10
160.7176846197225
 20
121.7647717102575
 30
0.0
 10
160.7517748190053
 20
121.780647788175
 30
0.0
 10
160.7635639052094
 20
121.7861380597221
 30
0.0
  0
SPLINE
  5
13D
330
1F
100
AcDbEntity
  8
0
  6
HIDDEN
 62
     7
370
     0
100
AcDbSpline
210
0.0
220
0.0
230
1.0
 70
     8
 71
     3
 72
    28
 73
    24
 74
     0
 42
0.00000001
 43
0.00000001
 40
0.0
 40
0.0
 40
0.0
 40
0.0
 40
0.0009226336077074
 40
0.0497723604003209
 40
0.0941872649950263
 40
0.139724758110633
 40
0.1876965976085821
 40
0.2366559380810977
 40
0.2940345438251635
 40
0.3525705444224879
 40
0.4083427951639105
 40
0.4653815754032198
 40
0.5004134615345441
 40
0.5362690999382856
 40
0.5713704329916103
 40
0.6077333217656342
 40
0.6500257938007385
 40
0.6934941368970063
 40
0.7617653176676336
 40
0.8319032389476968
 40
0.9025101008985125
 40
0.9755069217528255
 40
1.0
 40
1.0
 40
1.0
 40
1.0
 10
160.6830678821197
 20
119.3857489637285
 30
0.0
 10
160.6830037407237
 20
119.3856743458437
 30
0.0
 10
160.679543571216
 20
119.3816490120352
 30
0.0
 10
160.691637322174
 20
119.3956919327638
 30
0.0
 10
160.7193798927635
 20
119.4280933163469
 30
0.0
 10
160.7651345252619
 20
119.4821650513122
 30
0.0
 10
160.8259110746114
 20
119.5554460555579
 30
0.0
 10
160.9039845445818
 20
119.6524968314665
 30
0.0
 10
160.9970218623238
 20
119.7738396200429
 30
0.0
 10
161.098871608977
 20
119.9179920501296
 30
0.0
 10
161.1984119091212
 20
120.0787897472104
 30
0.0
 10
161.2747418051761
 20
120.2332847932106
 30
0.0
 10
161.3245575952848
 20
120.3785373820779
 30
0.0
 10
161.3505285816964
 20
120.5056323013305
 30
0.0
 10
161.3567811696574
 20
120.6380715400277
 30
0.0
 10
161.3409611944887
 20
120.7773646758832
 30
0.0
 10
161.3017629866632
 20
120.9205034376787
 30
0.0
 10
161.2320991728531
 20
121.0890387395339
 30
0.0
 10
161.1321612955714
 20
121.270344975158
 30
0.0
 10
161.0107458538352
 20
121.4555616519335
 30
0.0
 10
160.8921146687848
 20
121.6197200421695
 30
0.0
 10
160.8103211227827
 20
121.7264752838158
 30
0.0
 10
160.7729523314762
 20
121.7741583141011
 30
0.0
 10
160.7635639052094
 20
121.786138059722
 30
0.0
  0
LINE
  5
13E
330
1F
100
AcDbEntity
  8
0
  6
HIDDEN
 62
     7
370
     0
100
AcDbLine
 10
163.6828749917
 20
123.2791440953
 30
0.0
 11
160.6828749917
 21
123.2791440953
 31
0.0
  0
LWPOLYLINE
  5
13F
330
1F
100
AcDbEntity
  8
0
  6
HIDDEN
 62
     7
370
     0
100
AcDbPolyline
 90
       14
 70
   128
 43
0.0
 10
163.6796558091
 20
95.8924618236
 10
163.6504579272
 20
95.9265529227
 10
163.553753467
 20
96.0420544873
 10
163.3533160081
 20
96.2999891756
 10
163.1335628806
 20
96.6526394587
 10
163.036539523
 20
96.9110341613
 10
163.0128376398
 20
97.1499505237
 10
163.0548106039
 20
97.3849632392
 10
163.2055250738
 20
97.719968889
 10
163.4566571113
 20
98.0984922206
 10
163.6082747628
 20
98.2970572206
 10
163.6757853201
 20
98.3818323044
 10
163.6828749917
 20
98.3906339423
 10
163.6828749917
 20
98.3906339423
  0
LINE
  5
140
330
1F
100
AcDbEntity
  8
0
  6
HIDDEN
 62
     7
370
     0
100
AcDbLine
 10
162.1828749917
 20
94.8291440953
 30
0.0
 11
163.6828749917
 21
94.8291440953
 31
0.0
  0
LINE
  5
141
330
1F
100
AcDbEntity
  8
0
  6
HIDDEN
 62
     7
370
     0
100
AcDbLine
 10
160.6828749917
 20
94.8291440953
 30
0.0
 11
162.1828749917
 21
94.8291440953
 31
0.0
  0
SPLINE
  5
142
330
1F
100
AcDbEntity
  8
0
  6
HIDDEN
 62
     7
370
     0
100
AcDbSpline
210
0.0
220
0.0
230
1.0
 70
     8
 71
     3
 72
     9
 73
     5
 74
     0
 42
0.00000001
 43
0.00000001
 40
0.0
 40
0.0
 40
0.0
 40
0.0
 40
0.8578782661609943
 40
1.0
 40
1.0
 40
1.0
 40
1.0
 10
160.7635639052094
 20
95.87215013096078
 30
0.0
 10
160.7197821215029
 20
95.8887504810949
 30
0.0
 10
160.6687471606775
 20
95.90810095398709
 30
0.0
 10
160.688802974556
 20
95.9012325773364
 30
0.0
 10
160.691653341598
 20
95.90025643173814
 30
0.0
  0
SPLINE
  5
143
330
1F
100
AcDbEntity
  8
0
  6
HIDDEN
 62
     7
370
     0
100
AcDbSpline
210
0.0
220
0.0
230
1.0
 70
     8
 71
     3
 72
    17
 73
    13
 74
     0
 42
0.00000001
 43
0.00000001
 40
0.0
 40
0.0
 40
0.0
 40
0.0
 40
0.126322595788559
 40
0.25175731864729
 40
0.3532748327458233
 40
0.4234157276009138
 40
0.4939618323526659
 40
0.582308584474306
 40
0.718759672898977
 40
0.8578865023618207
 40
0.9536613334114982
 40
1.0
 40
1.0
 40
1.0
 40
1.0
 10
160.7635639052094
 20
95.87215013096079
 30
0.0
 10
160.8195761099592
 20
95.94416413977703
 30
0.0
 10
160.9312068312194
 20
96.08768599864517
 30
0.0
 10
161.1458377222835
 20
96.39997679911032
 30
0.0
 10
161.3019263279579
 20
96.70853454880493
 30
0.0
 10
161.3666171996147
 20
97.00086999910631
 30
0.0
 10
161.3355318618187
 20
97.28589284610285
 30
0.0
 10
161.1933341848362
 20
97.6085393028393
 30
0.0
 10
160.9664844585051
 20
97.93142712412283
 30
0.0
 10
160.775787285133
 20
98.16452722462957
 30
0.0
 10
160.6847586432435
 20
98.2705860627539
 30
0.0
 10
160.6911806377645
 20
98.26310349769446
 30
0.0
 10
160.6932746447933
 20
98.26066367253162
 30
0.0
  0
LINE
  5
144
330
1F
100
AcDbEntity
  8
0
  6
HIDDEN
 62
     7
370
     0
100
AcDbLine
 10
160.6692645549
 20
98.2722288657
 30
0.0
 11
160.7635639052
 21
95.872150131
 31
0.0
  0
LINE
  5
145
330
1F
100
AcDbEntity
  8
0
  6
HIDDEN
 62
     7
370
     0
100
AcDbLine
 10
160.6692645549
 20
119.386059325
 30
0.0
 11
160.7635639052
 21
121.7861380597
 31
0.0
  0
SPLINE
  5
146
330
1F
100
AcDbEntity
  8
0
  6
HIDDEN
 62
     7
370
     0
100
AcDbSpline
210
0.0
220
0.0
230
1.0
 70
     8
 71
     3
 72
     8
 73
     4
 74
     0
 42
0.00000001
 43
0.00000001
 40
0.0
 40
0.0
 40
0.0
 40
0.0
 40
0.0001590976914557
 40
0.0001590976914557
 40
0.0001590976914557
 40
0.0001590976914557
 10
86.06804299758625
 20
93.02765365930975
 30
0.0
 10
86.02299152818087
 20
92.99967477567249
 30
0.0
 10
85.97793549086525
 20
92.97170324598358
 30
0.0
 10
85.93287499166577
 20
92.94373890731688
 30
0.0
  0
SPLINE
  5
147
330
1F
100
AcDbEntity
  8
0
  6
HIDDEN
 62
     7
370
     0
100
AcDbSpline
210
0.0
220
0.0
230
1.0
 70
     8
 71
     3
 72
    11
 73
     7
 74
     0
 42
0.00000001
 43
0.00000001
 40
0.0
 40
0.0
 40
0.0
 40
0.0
 40
0.0008212909311348
 40
0.0008212909311348
 40
0.0008212909311348
 40
0.0016428257242845
 40
0.0016428257242845
 40
0.0016428257242845
 40
0.0016428257242845
 10
85.93287499166577
 20
92.94373890731688
 30
0.0
 10
85.7417299701834
 20
92.90045271848872
 30
0.0
 10
85.55031163450683
 20
92.85951620887633
 30
0.0
 10
85.3586655598457
 20
92.82091443751519
 30
0.0
 10
85.16696247830409
 20
92.78230118370351
 30
0.0
 10
84.97501735501872
 20
92.74602097444348
 30
0.0
 10
84.78287499166578
 20
92.71205406811848
 30
0.0
  0
LINE
  5
148
330
1F
100
AcDbEntity
  8
0
  6
HIDDEN
 62
     7
370
     0
100
AcDbLine
 10
132.7728749917
 20
129.0128959712
 30
0.0
 11
132.7728749917
 21
128.6791440953
 31
0.0
  0
LINE
  5
149
330
1F
100
AcDbEntity
  8
0
  6
HIDDEN
 62
     7
370
     0
100
AcDbLine
 10
136.5928749917
 20
129.0128959712
 30
0.0
 11
136.5928749917
 21
128.6791440953
 31
0.0
  0
LINE
  5
14A
330
1F
100
AcDbEntity
  8
0
  6
HIDDEN
 62
     7
370
     0
100
AcDbLine
 10
138.0748078232
 20
133.2878337577
 30
0.0
 11
138.0748078232
 21
128.6791440953
 31
0.0
  0
SPLINE
  5
14B
330
1F
100
AcDbEntity
  8
0
  6
HIDDEN
 62
     7
370
     0
100
AcDbSpline
210
0.0
220
0.0
230
1.0
 70
     8
 71
     3
 72
     8
 73
     4
 74
     0
 42
0.00000001
 43
0.00000001
 40
0.0
 40
0.0
 40
0.0
 40
0.0
 40
0.0011563724678169
 40
0.0011563724678169
 40
0.0011563724678169
 40
0.0011563724678169
 10
85.78287499166576
 20
121.4692864088158
 30
0.0
 10
85.44955387646863
 20
121.5983454344414
 30
0.0
 10
85.11622119566064
 20
121.7273057706137
 30
0.0
 10
84.78287499166576
 20
121.8562173003854
 30
0.0
  0
SPLINE
  5
14C
330
1F
100
AcDbEntity
  8
0
  6
HIDDEN
 62
     7
370
     0
100
AcDbSpline
210
0.0
220
0.0
230
1.0
 70
     8
 71
     3
 72
     8
 73
     4
 74
     0
 42
0.00000001
 43
0.00000001
 40
0.0
 40
0.0
 40
0.0
 40
0.0
 40
0.0011557494192845
 40
0.0011557494192845
 40
0.0011557494192845
 40
0.0011557494192845
 10
84.78287499166576
 20
95.80192223289065
 30
0.0
 10
85.11620880167986
 20
95.93354650904799
 30
0.0
 10
85.44954241334251
 20
96.06536342258535
 30
0.0
 10
85.78287499166579
 20
96.19736686471425
 30
0.0
  0
SPLINE
  5
14D
330
1F
100
AcDbEntity
  8
0
  6
HIDDEN
 62
     7
370
     0
100
AcDbSpline
210
0.0
220
0.0
230
1.0
 70
     8
 71
     3
 72
     8
 73
     4
 74
     0
 42
0.00000001
 43
0.00000001
 40
0.0000000000000006
 40
0.0000000000000006
 40
0.0000000000000006
 40
0.0000000000000006
 40
0.0011560973009421
 40
0.0011560973009421
 40
0.0011560973009421
 40
0.0011560973009421
 10
84.78287499166578
 20
118.8099585886286
 30
0.0
 10
85.11621472925252
 20
118.6852148563722
 30
0.0
 10
85.44954536246114
 20
118.5605336322115
 30
0.0
 10
85.78287499166576
 20
118.4360834088959
 30
0.0
  0
SPLINE
  5
14E
330
1F
100
AcDbEntity
  8
0
  6
HIDDEN
 62
     7
370
     0
100
AcDbSpline
210
0.0
220
0.0
230
1.0
 70
     8
 71
     3
 72
     8
 73
     4
 74
     0
 42
0.00000001
 43
0.00000001
 40
0.0
 40
0.0
 40
0.0
 40
0.0
 40
0.0011564805411611
 40
0.0011564805411611
 40
0.0011564805411611
 40
0.0011564805411611
 10
85.78287499166576
 20
99.22831731031229
 30
0.0
 10
85.44957302626432
 20
99.10146636989316
 30
0.0
 10
85.11623620935765
 20
98.97490130104678
 30
0.0
 10
84.78287499166578
 20
98.84850132740301
 30
0.0
  0
CIRCLE
  5
14F
330
1F
100
AcDbEntity
  8
0
  6
HIDDEN
 62
     7
370
     0
100
AcDbCircle
 10
123.6828749917
 20
108.8291440953
 30
0.0
 40
5.0
  0
LINE
  5
150
330
1F
100
AcDbEntity
  8
0
  6
HIDDEN
 62
     7
370
     0
100
AcDbLine
 10
201.1576704305
 20
119.0462299738
 30
0.0
 11
201.0987807069
 21
117.5473864194
 31
0.0
  0
LINE
  5
151
330
1F
100
AcDbEntity
  8
0
  6
HIDDEN
 62
     7
370
     0
100
AcDbLine
 10
201.2165601542
 20
120.5450735281
 30
0.0
 11
201.1576704305
 21
119.0462299738
 31
0.0
  0
LINE
  5
152
330
1F
100
AcDbEntity
  8
0
  6
HIDDEN
 62
     7
370
     0
100
AcDbLine
 10
200.6580559124
 20
119.0658598817
 30
0.0
 11
200.6187960966
 21
118.0666308454
 31
0.0
  0
LINE
  5
153
330
1F
100
AcDbEntity
  8
0
  6
HIDDEN
 62
     7
370
     0
100
AcDbLine
 10
200.6973157282
 20
120.0650889179
 30
0.0
 11
200.6580559124
 21
119.0658598817
 31
0.0
  0
LINE
  5
154
330
1F
100
AcDbEntity
  8
0
  6
HIDDEN
 62
     7
370
     0
100
AcDbLine
 10
206.4916082344
 20
118.8366589867
 30
0.0
 11
206.4327185108
 21
117.3378154323
 31
0.0
  0
LINE
  5
155
330
1F
100
AcDbEntity
  8
0
  6
HIDDEN
 62
     7
370
     0
100
AcDbLine
 10
206.5504979581
 20
120.3355025411
 30
0.0
 11
206.4916082344
 21
118.8366589867
 31
0.0
  0
LINE
  5
156
330
1F
100
AcDbEntity
  8
0
  6
HIDDEN
 62
     7
370
     0
100
AcDbLine
 10
206.6534301298
 20
118.8303009871
 30
0.0
 11
206.6055527845
 21
117.6117411774
 31
0.0
  0
LINE
  5
157
330
1F
100
AcDbEntity
  8
0
  6
HIDDEN
 62
     7
370
     0
100
AcDbLine
 10
206.6828749917
 20
119.5797227643
 30
0.0
 11
206.6534301298
 21
118.8303009871
 31
0.0
  0
LINE
  5
158
330
1F
100
AcDbEntity
  8
0
  6
HIDDEN
 62
     7
370
     0
100
AcDbLine
 10
204.6844169192
 20
119.6582423958
 30
0.0
 11
204.6549720574
 21
118.9088206186
 31
0.0
  0
LINE
  5
159
330
1F
100
AcDbEntity
  8
0
  6
HIDDEN
 62
     7
370
     0
100
AcDbLine
 10
204.6255271955
 20
118.1593988415
 30
0.0
 11
204.6549720574
 21
118.9088206186
 31
0.0
  0
LINE
  5
15A
330
1F
100
AcDbEntity
  8
0
  6
HIDDEN
 62
     7
370
     0
100
AcDbLine
 10
204.6549720574
 20
118.9088206186
 30
0.0
 11
206.6534301298
 21
118.8303009871
 31
0.0
  0
LINE
  5
15B
330
1F
100
AcDbEntity
  8
0
  6
HIDDEN
 62
     7
370
     0
100
AcDbLine
 10
204.6844169192
 20
119.6582423958
 30
0.0
 11
206.6828749917
 21
119.5797227643
 31
0.0
  0
LINE
  5
15C
330
1F
100
AcDbEntity
  8
0
  6
HIDDEN
 62
     7
370
     0
100
AcDbLine
 10
204.6255271955
 20
118.1593988415
 30
0.0
 11
206.623985268
 21
118.0808792099
 31
0.0
  0
LINE
  5
15D
330
1F
100
AcDbEntity
  8
0
  6
HIDDEN
 62
     7
370
     0
100
AcDbLine
 10
206.6644425082
 20
100.0488607968
 30
0.0
 11
206.6828749917
 21
99.5797227643
 31
0.0
  0
LINE
  5
15E
330
1F
100
AcDbEntity
  8
0
  6
HIDDEN
 62
     7
370
     0
100
AcDbLine
 10
206.4916082344
 20
100.3227865419
 30
0.0
 11
206.6093876817
 21
97.3250994332
 31
0.0
  0
LINE
  5
15F
330
1F
100
AcDbEntity
  8
0
  6
HIDDEN
 62
     7
370
     0
100
AcDbLine
 10
201.1576704305
 20
100.1132155548
 30
0.0
 11
201.2754498778
 21
97.1155284461
 31
0.0
  0
LINE
  5
160
330
1F
100
AcDbEntity
  8
0
  6
HIDDEN
 62
     7
370
     0
100
AcDbLine
 10
200.6776858203
 20
99.5939711288
 30
0.0
 11
200.7562054518
 21
97.5955130563
 31
0.0
  0
LINE
  5
161
330
1F
100
AcDbEntity
  8
0
  6
HIDDEN
 62
     7
370
     0
100
AcDbLine
 10
204.713861781
 20
98.7517813556
 30
0.0
 11
204.7433066428
 21
98.0023595784
 31
0.0
  0
LINE
  5
162
330
1F
100
AcDbEntity
  8
0
  6
HIDDEN
 62
     7
370
     0
100
AcDbLine
 10
204.6844169192
 20
99.5012031328
 30
0.0
 11
204.713861781
 21
98.7517813556
 31
0.0
  0
LINE
  5
163
330
1F
100
AcDbEntity
  8
0
  6
HIDDEN
 62
     7
370
     0
100
AcDbLine
 10
204.713861781
 20
98.7517813556
 30
0.0
 11
206.7123198535
 21
98.8303009871
 31
0.0
  0
LINE
  5
164
330
1F
100
AcDbEntity
  8
0
  6
HIDDEN
 62
     7
370
     0
100
AcDbLine
 10
204.6844169192
 20
99.5012031328
 30
0.0
 11
206.6828749917
 21
99.5797227643
 31
0.0
  0
LINE
  5
165
330
1F
100
AcDbEntity
  8
0
  6
HIDDEN
 62
     7
370
     0
100
AcDbLine
 10
204.7433066428
 20
98.0023595784
 30
0.0
 11
206.7417647153
 21
98.0808792099
 31
0.0
  0
LINE
  5
166
330
1F
100
AcDbEntity
  8
0
  6
HIDDEN
 62
     7
370
     0
100
AcDbLine
 10
159.6828749917
 20
103.8291440953
 30
0.0
 11
160.1828749917
 21
104.3291440953
 31
0.0
  0
LINE
  5
167
330
1F
100
AcDbEntity
  8
0
  6
HIDDEN
 62
     7
370
     0
100
AcDbLine
 10
160.1828749917
 20
113.3291440953
 30
0.0
 11
159.6828749917
 21
113.8291440953
 31
0.0
  0
LINE
  5
168
330
1F
100
AcDbEntity
  8
0
  6
HIDDEN
 62
     7
370
     0
100
AcDbLine
 10
144.1828749917
 20
103.8291440953
 30
0.0
 11
159.6828749917
 21
103.8291440953
 31
0.0
  0
LINE
  5
169
330
1F
100
AcDbEntity
  8
0
  6
HIDDEN
 62
     7
370
     0
100
AcDbLine
 10
159.6828749917
 20
113.8291440953
 30
0.0
 11
144.1828749917
 21
113.8291440953
 31
0.0
  0
LINE
  5
16A
330
1F
100
AcDbEntity
  8
0
  6
HIDDEN
 62
     7
370
     0
100
AcDbLine
 10
144.1828749917
 20
113.8291440953
 30
0.0
 11
143.6828749917
 21
113.3291440953
 31
0.0
  0
LINE
  5
16B
330
1F
100
AcDbEntity
  8
0
  6
HIDDEN
 62
     7
370
     0
100
AcDbLine
 10
143.6828749917
 20
104.3291440953
 30
0.0
 11
144.1828749917
 21
103.8291440953
 31
0.0
  0
LINE
  5
16C
330
1F
100
AcDbEntity
  8
0
  6
HIDDEN
 62
     7
370
     0
100
AcDbLine
 10
160.1828749917
 20
104.3291440953
 30
0.0
 11
163.6828749917
 21
104.3291440953
 31
0.0
  0
LINE
  5
16D
330
1F
100
AcDbEntity
  8
0
  6
HIDDEN
 62
     7
370
     0
100
AcDbLine
 10
163.6828749917
 20
113.3291440953
 30
0.0
 11
160.1828749917
 21
113.3291440953
 31
0.0
  0
LINE
  5
16E
330
1F
100
AcDbEntity
  8
0
  6
HIDDEN
 62
     7
370
     0
100
AcDbLine
 10
149.6828749916
 20
106.3291440953
 30
0.0
 11
157.6828749917
 21
106.3291440953
 31
0.0
  0
LINE
  5
16F
330
1F
100
AcDbEntity
  8
0
  6
HIDDEN
 62
     7
370
     0
100
AcDbLine
 10
157.6828749917
 20
111.3291440953
 30
0.0
 11
149.6828749916
 21
111.3291440953
 31
0.0
  0
LINE
  5
170
330
1F
100
AcDbEntity
  8
0
  6
HIDDEN
 62
     7
370
     0
100
AcDbLine
 10
120.6828749917
 20
123.1297746011
 30
0.0
 11
120.6828749917
 21
121.2230847382
 31
0.0
  0
LINE
  5
171
330
1F
100
AcDbEntity
  8
0
  6
HIDDEN
 62
     7
370
     0
100
AcDbLine
 10
128.6828749917
 20
121.2230847382
 30
0.0
 11
128.6828749917
 21
123.1269792451
 31
0.0
  0
LINE
  5
172
330
1F
100
AcDbEntity
  8
0
  6
HIDDEN
 62
     7
370
     0
100
AcDbLine
 10
116.6828749917
 20
83.5052129494
 30
0.0
 11
116.7770357672
 21
84.1752016806
 31
0.0
  0
LINE
  5
173
330
1F
100
AcDbEntity
  8
0
  6
HIDDEN
 62
     7
370
     0
100
AcDbLine
 10
116.7770357672
 20
133.4830865101
 30
0.0
 11
116.6828749917
 21
134.1530752413
 31
0.0
  0
ARC
  5
174
330
1F
100
AcDbEntity
  8
0
  6
HIDDEN
 62
     7
370
     0
100
AcDbCircle
 10
116.182868239
 20
84.258706481
 30
0.0
 40
0.6000067526677242
100
AcDbArc
 50
352.0
 51
0.0
  0
ARC
  5
175
330
1F
100
AcDbEntity
  8
0
  6
HIDDEN
 62
     7
370
     0
100
AcDbCircle
 10
116.182868239
 20
84.258706481
 30
0.0
 40
0.6000067526677242
100
AcDbArc
 50
0.0
 51
33.5571153394
  0
ARC
  5
176
330
1F
100
AcDbEntity
  8
0
  6
HIDDEN
 62
     7
370
     0
100
AcDbCircle
 10
116.182868239
 20
133.3995817097
 30
0.0
 40
0.6000067526677222
100
AcDbArc
 50
348.75
 51
8.0
  0
LWPOLYLINE
  5
177
330
1F
100
AcDbEntity
  8
0
  6
HIDDEN
 62
     7
370
     0
100
AcDbPolyline
 90
        3
 70
   128
 43
0.0
 10
116.7713460302
 20
133.2825261991
 10
116.7372021972
 20
133.1699690662
 10
116.6828749917
 20
133.0679171947
  0
LINE
  5
178
330
1F
100
AcDbEntity
  8
0
  6
HIDDEN
 62
     7
370
     0
100
AcDbLine
 10
116.7828749917
 20
84.258706481
 30
0.0
 11
116.7828749917
 21
133.3995817097
 31
0.0
  0
ARC
  5
179
330
1F
100
AcDbEntity
  8
0
  6
HIDDEN
 62
     7
370
     0
100
AcDbCircle
 10
110.4378769933
 20
96.8291440953
 30
0.0
 40
8.000000000000004
100
AcDbArc
 50
277.1303250003
 51
321.3178125465
  0
ARC
  5
17A
330
1F
100
AcDbEntity
  8
0
  6
HIDDEN
 62
     7
370
     0
100
AcDbCircle
 10
110.4378769933
 20
120.8291440953
 30
0.0
 40
7.999999999999993
100
AcDbArc
 50
38.6821874535
 51
82.8513924474
  0
LINE
  5
17B
330
1F
100
AcDbEntity
  8
0
  6
HIDDEN
 62
     7
370
     0
100
AcDbLine
 10
99.765310557
 20
88.8291440953
 30
0.0
 11
103.9359923729
 21
88.8291440953
 31
0.0
  0
LINE
  5
17C
330
1F
100
AcDbEntity
  8
0
  6
HIDDEN
 62
     7
370
     0
100
AcDbLine
 10
103.9359923729
 20
128.8291440953
 30
0.0
 11
99.765310557
 21
128.8291440953
 31
0.0
  0
LINE
  5
17D
330
1F
100
AcDbEntity
  8
0
  6
HIDDEN
 62
     7
370
     0
100
AcDbLine
 10
142.6361019496
 20
128.6900350226
 30
0.0
 11
142.6328749917
 21
128.8291440953
 31
0.0
  0
ARC
  5
17E
330
1F
100
AcDbEntity
  8
0
  6
HIDDEN
 62
     7
370
     0
100
AcDbCircle
 10
99.765310557
 20
89.4291440953
 30
0.0
 40
0.6000000000000032
100
AcDbArc
 50
210.0
 51
270.0
  0
ARC
  5
17F
330
1F
100
AcDbEntity
  8
0
  6
HIDDEN
 62
     7
370
     0
100
AcDbCircle
 10
99.765310557
 20
128.2291440953
 30
0.0
 40
0.6000000000000032
100
AcDbArc
 50
90.0
 51
150.0
  0
LINE
  5
180
330
1F
100
AcDbEntity
  8
0
  6
HIDDEN
 62
     7
370
     0
100
AcDbLine
 10
99.2456953147
 20
128.5291440953
 30
0.0
 11
97.6868495879
 21
125.8291440953
 31
0.0
  0
LINE
  5
181
330
1F
100
AcDbEntity
  8
0
  6
HIDDEN
 62
     7
370
     0
100
AcDbLine
 10
97.6868495879
 20
91.8291440953
 30
0.0
 11
99.2456953147
 21
89.1291440953
 31
0.0
  0
LINE
  5
182
330
1F
100
AcDbEntity
  8
0
  6
HIDDEN
 62
     7
370
     0
100
AcDbLine
 10
120.6828749917
 20
136.1088763324
 30
0.0
 11
120.6828749917
 21
132.77474651
 31
0.0
  0
LINE
  5
183
330
1F
100
AcDbEntity
  8
0
  6
HIDDEN
 62
     7
370
     0
100
AcDbLine
 10
128.6828749917
 20
132.77474651
 30
0.0
 11
128.6828749917
 21
136.1075016431
 31
0.0
  0
ARC
  5
184
330
1F
100
AcDbEntity
  8
0
  6
HIDDEN
 62
     7
370
     0
100
AcDbCircle
 10
125.1328749917
 20
93.1041440953
 30
0.0
 40
1.5
100
AcDbArc
 50
238.2116693829
 51
0.0
  0
ARC
  5
185
330
1F
100
AcDbEntity
  8
0
  6
HIDDEN
 62
     7
370
     0
100
AcDbCircle
 10
125.1328749917
 20
124.5541440953
 30
0.0
 40
1.5
100
AcDbArc
 50
0.0
 51
121.7883306171
  0
LINE
  5
186
330
1F
100
AcDbEntity
  8
0
  6
HIDDEN
 62
     7
370
     0
100
AcDbLine
 10
94.8828749917
 20
91.8291440953
 30
0.0
 11
97.6868495879
 21
91.8291440953
 31
0.0
  0
LINE
  5
187
330
1F
100
AcDbEntity
  8
0
  6
HIDDEN
 62
     7
370
     0
100
AcDbLine
 10
97.6868495879
 20
125.8291440953
 30
0.0
 11
90.8828749917
 21
125.8291440953
 31
0.0
  0
LINE
  5
188
330
1F
100
AcDbEntity
  8
0
  6
HIDDEN
 62
     7
370
     0
100
AcDbLine
 10
116.6828749917
 20
91.8291440953
 30
0.0
 11
124.3427009602
 21
91.8291440953
 31
0.0
  0
LINE
  5
189
330
1F
100
AcDbEntity
  8
0
  6
HIDDEN
 62
     7
370
     0
100
AcDbLine
 10
124.3427009602
 20
125.8291440953
 30
0.0
 11
116.6828749917
 21
125.8291440953
 31
0.0
  0
LINE
  5
18A
330
1F
100
AcDbEntity
  8
0
  6
HIDDEN
 62
     7
370
     0
100
AcDbLine
 10
135.4828749917
 20
99.3291440953
 30
0.0
 11
138.4828749917
 21
99.3291440953
 31
0.0
  0
LINE
  5
18B
330
1F
100
AcDbEntity
  8
0
  6
HIDDEN
 62
     7
370
     0
100
AcDbLine
 10
138.4828749917
 20
118.3291440953
 30
0.0
 11
135.4828749917
 21
118.3291440953
 31
0.0
  0
LINE
  5
18C
330
1F
100
AcDbEntity
  8
0
  6
HIDDEN
 62
     7
370
     0
100
AcDbLine
 10
126.6328749917
 20
99.8291440953
 30
0.0
 11
127.1328749917
 21
100.3291440953
 31
0.0
  0
LINE
  5
18D
330
1F
100
AcDbEntity
  8
0
  6
HIDDEN
 62
     7
370
     0
100
AcDbLine
 10
127.1328749917
 20
117.3291440953
 30
0.0
 11
126.6328749917
 21
117.8291440953
 31
0.0
  0
LINE
  5
18E
330
1F
100
AcDbEntity
  8
0
  6
HIDDEN
 62
     7
370
     0
100
AcDbLine
 10
127.1328749917
 20
100.3291440953
 30
0.0
 11
135.4828749917
 21
100.3291440953
 31
0.0
  0
LINE
  5
18F
330
1F
100
AcDbEntity
  8
0
  6
HIDDEN
 62
     7
370
     0
100
AcDbLine
 10
135.4828749917
 20
117.3291440953
 30
0.0
 11
127.1328749917
 21
117.3291440953
 31
0.0
  0
ARC
  5
190
330
1F
100
AcDbEntity
  8
0
  6
HIDDEN
 62
     7
370
     0
100
AcDbCircle
 10
206.1828749917
 20
100.7924498473
 30
0.0
 40
0.5
100
AcDbArc
 50
0.0
 51
80.0
  0
ARC
  5
191
330
1F
100
AcDbEntity
  8
0
  6
HIDDEN
 62
     7
370
     0
100
AcDbCircle
 10
206.1828749917
 20
116.8658383434
 30
0.0
 40
0.5
100
AcDbArc
 50
280.0
 51
0.0
  0
LINE
  5
192
330
1F
100
AcDbEntity
  8
0
  6
HIDDEN
 62
     7
370
     0
100
AcDbLine
 10
121.6328749917
 20
140.3291440953
 30
0.0
 11
121.6328749917
 21
135.2291440953
 31
0.0
  0
LINE
  5
193
330
1F
100
AcDbEntity
  8
0
  6
HIDDEN
 62
     7
370
     0
100
AcDbLine
 10
206.2696990805
 20
116.3734344669
 30
0.0
 11
203.1828749917
 21
115.8291440953
 31
0.0
  0
LINE
  5
194
330
1F
100
AcDbEntity
  8
0
  6
HIDDEN
 62
     7
370
     0
100
AcDbLine
 10
203.1828749917
 20
101.8291440953
 30
0.0
 11
206.2696990805
 21
101.2848537238
 31
0.0
  0
LINE
  5
195
330
1F
100
AcDbEntity
  8
0
  6
HIDDEN
 62
     7
370
     0
100
AcDbLine
 10
163.6828749917
 20
101.5291440953
 30
0.0
 11
169.7881009735
 21
101.5291440953
 31
0.0
  0
LINE
  5
196
330
1F
100
AcDbEntity
  8
0
  6
HIDDEN
 62
     7
370
     0
100
AcDbLine
 10
160.5828749917
 20
101.5291440953
 30
0.0
 11
160.6865276901
 21
101.5291440953
 31
0.0
  0
LINE
  5
197
330
1F
100
AcDbEntity
  8
0
  6
HIDDEN
 62
     7
370
     0
100
AcDbLine
 10
160.6838649576
 20
116.1291440953
 30
0.0
 11
160.5828749917
 21
116.1291440953
 31
0.0
  0
LINE
  5
198
330
1F
100
AcDbEntity
  8
0
  6
HIDDEN
 62
     7
370
     0
100
AcDbLine
 10
169.7881009735
 20
116.1291440953
 30
0.0
 11
163.6806175473
 21
116.1291440953
 31
0.0
  0
ARC
  5
199
330
1F
100
AcDbEntity
  8
0
  6
HIDDEN
 62
     7
370
     0
100
AcDbCircle
 10
169.7881009735
 20
101.9291440953
 30
0.0
 40
0.3999999999999915
100
AcDbArc
 50
270.0
 51
290.0
  0
ARC
  5
19A
330
1F
100
AcDbEntity
  8
0
  6
HIDDEN
 62
     7
370
     0
100
AcDbCircle
 10
169.7881009735
 20
115.7291440953
 30
0.0
 40
0.3999999999999915
100
AcDbArc
 50
70.0
 51
90.0
  0
ARC
  5
19B
330
1F
100
AcDbEntity
  8
0
  6
HIDDEN
 62
     7
370
     0
100
AcDbCircle
 10
160.5828749917
 20
101.9291440953
 30
0.0
 40
0.4000000000000057
100
AcDbArc
 50
180.0
 51
270.0
  0
ARC
  5
19C
330
1F
100
AcDbEntity
  8
0
  6
HIDDEN
 62
     7
370
     0
100
AcDbCircle
 10
160.5828749917
 20
115.7291440953
 30
0.0
 40
0.4000000000000057
100
AcDbArc
 50
90.0
 51
180.0
  0
LINE
  5
19D
330
1F
100
AcDbEntity
  8
0
  6
HIDDEN
 62
     7
370
     0
100
AcDbLine
 10
169.9249090309
 20
101.553267047
 30
0.0
 11
170.6828749917
 21
101.8291440953
 31
0.0
  0
LINE
  5
19E
330
1F
100
AcDbEntity
  8
0
  6
HIDDEN
 62
     7
370
     0
100
AcDbLine
 10
170.6828749917
 20
115.8291440953
 30
0.0
 11
169.9249090309
 21
116.1050211437
 31
0.0
  0
LINE
  5
19F
330
1F
100
AcDbEntity
  8
0
  6
HIDDEN
 62
     7
370
     0
100
AcDbLine
 10
170.6828749917
 20
101.8291440953
 30
0.0
 11
203.1828749917
 21
101.8291440953
 31
0.0
  0
LINE
  5
1A0
330
1F
100
AcDbEntity
  8
0
  6
HIDDEN
 62
     7
370
     0
100
AcDbLine
 10
203.1828749917
 20
115.8291440953
 30
0.0
 11
170.6828749917
 21
115.8291440953
 31
0.0
  0
LINE
  5
1A1
330
1F
100
AcDbEntity
  8
0
  6
HIDDEN
 62
     7
370
     0
100
AcDbLine
 10
160.1828749917
 20
113.8291440953
 30
0.0
 11
159.6828749917
 21
113.3291440953
 31
0.0
  0
LINE
  5
1A2
330
1F
100
AcDbEntity
  8
0
  6
HIDDEN
 62
     7
370
     0
100
AcDbLine
 10
159.6828749917
 20
104.3291440953
 30
0.0
 11
160.1828749917
 21
103.8291440953
 31
0.0
  0
LINE
  5
1A3
330
1F
100
AcDbEntity
  8
0
  6
HIDDEN
 62
     7
370
     0
100
AcDbLine
 10
138.4828749917
 20
104.3291440953
 30
0.0
 11
159.6828749917
 21
104.3291440953
 31
0.0
  0
LINE
  5
1A4
330
1F
100
AcDbEntity
  8
0
  6
HIDDEN
 62
     7
370
     0
100
AcDbLine
 10
159.6828749917
 20
113.3291440953
 30
0.0
 11
138.4828749917
 21
113.3291440953
 31
0.0
  0
LINE
  5
1A5
330
1F
100
AcDbEntity
  8
0
  6
HIDDEN
 62
     7
370
     0
100
AcDbLine
 10
111.8988337553
 20
84.7490616933
 30
0.0
 11
111.4316437482
 21
85.2445245842
 31
0.0
  0
LINE
  5
1A6
330
1F
100
AcDbEntity
  8
0
  6
HIDDEN
 62
     7
370
     0
100
AcDbLine
 10
103.9350773289
 20
85.669571903
 30
0.0
 11
103.4183320205
 21
85.1741064815
 31
0.0
  0
LINE
  5
1A7
330
1F
100
AcDbEntity
  8
0
  6
HIDDEN
 62
     7
370
     0
100
AcDbLine
 10
103.4174370232
 20
132.4842509826
 30
0.0
 11
103.9343883061
 21
131.988724672
 31
0.0
  0
LINE
  5
1A8
330
1F
100
AcDbEntity
  8
0
  6
HIDDEN
 62
     7
370
     0
100
AcDbLine
 10
111.4305098875
 20
132.4134696259
 30
0.0
 11
111.8976859496
 21
132.908993083
 31
0.0
  0
LINE
  5
1A9
330
1F
100
AcDbEntity
  8
0
  6
HIDDEN
 62
     7
370
     0
100
AcDbLine
 10
111.4328749917
 20
128.766980286
 30
0.0
 11
111.4328749917
 21
132.4134769973
 31
0.0
  0
LINE
  5
1AA
330
1F
100
AcDbEntity
  8
0
  6
HIDDEN
 62
     7
370
     0
100
AcDbLine
 10
103.9328749917
 20
131.9873409929
 30
0.0
 11
103.9328749917
 21
128.8285598341
 31
0.0
  0
LINE
  5
1AB
330
1F
100
AcDbEntity
  8
0
  6
HIDDEN
 62
     7
370
     0
100
AcDbLine
 10
111.4328749917
 20
85.2444959994
 30
0.0
 11
111.4328749917
 21
88.8913079047
 31
0.0
  0
LINE
  5
1AC
330
1F
100
AcDbEntity
  8
0
  6
HIDDEN
 62
     7
370
     0
100
AcDbLine
 10
103.9328749917
 20
88.8297283566
 30
0.0
 11
103.9328749917
 21
85.6709468312
 31
0.0
  0
LINE
  5
1AD
330
1F
100
AcDbEntity
  8
0
  6
HIDDEN
 62
     7
370
     0
100
AcDbLine
 10
150.1328749917
 20
125.8291440953
 30
0.0
 11
151.1328749917
 21
125.2517938262
 31
0.0
  0
LINE
  5
1AE
330
1F
100
AcDbEntity
  8
0
  6
HIDDEN
 62
     7
370
     0
100
AcDbLine
 10
156.1328749917
 20
125.2517938262
 30
0.0
 11
157.1328749917
 21
125.8291440953
 31
0.0
  0
LINE
  5
1AF
330
1F
100
AcDbEntity
  8
0
  6
HIDDEN
 62
     7
370
     0
100
AcDbLine
 10
157.1328749917
 20
91.8291440953
 30
0.0
 11
156.1328749917
 21
92.4064943645
 31
0.0
  0
LINE
  5
1B0
330
1F
100
AcDbEntity
  8
0
  6
HIDDEN
 62
     7
370
     0
100
AcDbLine
 10
151.1328749917
 20
92.4064943645
 30
0.0
 11
150.1328749917
 21
91.8291440953
 31
0.0
  0
LINE
  5
1B1
330
1F
100
AcDbEntity
  8
0
  6
HIDDEN
 62
     7
370
     0
100
AcDbLine
 10
151.1328749917
 20
125.2517938262
 30
0.0
 11
151.1328749917
 21
115.8291440953
 31
0.0
  0
LINE
  5
1B2
330
1F
100
AcDbEntity
  8
0
  6
HIDDEN
 62
     7
370
     0
100
AcDbLine
 10
156.1328749917
 20
115.8291440953
 30
0.0
 11
156.1328749917
 21
125.2517938262
 31
0.0
  0
LINE
  5
1B3
330
1F
100
AcDbEntity
  8
0
  6
HIDDEN
 62
     7
370
     0
100
AcDbLine
 10
151.1328749917
 20
115.8291440953
 30
0.0
 11
153.6328749917
 21
114.3269925478
 31
0.0
  0
LINE
  5
1B4
330
1F
100
AcDbEntity
  8
0
  6
HIDDEN
 62
     7
370
     0
100
AcDbLine
 10
153.6328749917
 20
114.3269925478
 30
0.0
 11
156.1328749917
 21
115.8291440953
 31
0.0
  0
LINE
  5
1B5
330
1F
100
AcDbEntity
  8
0
  6
HIDDEN
 62
     7
370
     0
100
AcDbLine
 10
156.1328749917
 20
101.8291440953
 30
0.0
 11
153.6328749917
 21
103.3312956429
 31
0.0
  0
LINE
  5
1B6
330
1F
100
AcDbEntity
  8
0
  6
HIDDEN
 62
     7
370
     0
100
AcDbLine
 10
153.6328749917
 20
103.3312956429
 30
0.0
 11
151.1328749917
 21
101.8291440953
 31
0.0
  0
LINE
  5
1B7
330
1F
100
AcDbEntity
  8
0
  6
HIDDEN
 62
     7
370
     0
100
AcDbLine
 10
156.1328749917
 20
92.4064943645
 30
0.0
 11
156.1328749917
 21
101.8291440953
 31
0.0
  0
LINE
  5
1B8
330
1F
100
AcDbEntity
  8
0
  6
HIDDEN
 62
     7
370
     0
100
AcDbLine
 10
151.1328749917
 20
101.8291440953
 30
0.0
 11
151.1328749917
 21
92.4064943645
 31
0.0
  0
LINE
  5
1B9
330
1F
100
AcDbEntity
  8
0
  6
HIDDEN
 62
     7
370
     0
100
AcDbLine
 10
160.6828749917
 20
119.3857489637
 30
0.0
 11
160.6828749917
 21
116.1289408757
 31
0.0
  0
LINE
  5
1BA
330
1F
100
AcDbEntity
  8
0
  6
HIDDEN
 62
     7
370
     0
100
AcDbLine
 10
160.6828749917
 20
123.2791440953
 30
0.0
 11
160.6828749917
 21
121.7561527492
 31
0.0
  0
LINE
  5
1BB
330
1F
100
AcDbEntity
  8
0
  6
HIDDEN
 62
     7
370
     0
100
AcDbLine
 10
163.6828749917
 20
121.7679063809
 30
0.0
 11
163.6828749917
 21
123.2791440953
 31
0.0
  0
LINE
  5
1BC
330
1F
100
AcDbEntity
  8
0
  6
HIDDEN
 62
     7
370
     0
100
AcDbLine
 10
163.6828749917
 20
116.128684151
 30
0.0
 11
163.6828749917
 21
119.2676542484
 31
0.0
  0
LINE
  5
1BD
330
1F
100
AcDbEntity
  8
0
  6
HIDDEN
 62
     7
370
     0
100
AcDbLine
 10
160.6828749917
 20
95.9002564317
 30
0.0
 11
160.6828749917
 21
94.8291440953
 31
0.0
  0
LINE
  5
1BE
330
1F
100
AcDbEntity
  8
0
  6
HIDDEN
 62
     7
370
     0
100
AcDbLine
 10
160.6828749917
 20
101.5298910545
 30
0.0
 11
160.6828749917
 21
98.2606636725
 31
0.0
  0
LINE
  5
1BF
330
1F
100
AcDbEntity
  8
0
  6
HIDDEN
 62
     7
370
     0
100
AcDbLine
 10
163.6828749917
 20
98.3906339423
 30
0.0
 11
163.6828749917
 21
101.5291440953
 31
0.0
  0
LINE
  5
1C0
330
1F
100
AcDbEntity
  8
0
  6
HIDDEN
 62
     7
370
     0
100
AcDbLine
 10
163.6828749917
 20
94.8291440953
 30
0.0
 11
163.6828749917
 21
95.8924618236
 31
0.0
  0
LINE
  5
1C1
330
1F
100
AcDbEntity
  8
0
  6
HIDDEN
 62
     7
370
     0
100
AcDbLine
 10
160.6828749917
 20
94.8291440953
 30
0.0
 11
162.1828749917
 21
93.9278531668
 31
0.0
  0
LINE
  5
1C2
330
1F
100
AcDbEntity
  8
0
  6
HIDDEN
 62
     7
370
     0
100
AcDbLine
 10
162.1828749917
 20
93.9278531668
 30
0.0
 11
163.6828749917
 21
94.8291440953
 31
0.0
  0
LINE
  5
1C3
330
1F
100
AcDbEntity
  8
0
  6
HIDDEN
 62
     7
370
     0
100
AcDbLine
 10
163.679820295
 20
95.8885850264
 30
0.0
 11
206.6828749917
 21
97.5781796471
 31
0.0
  0
LINE
  5
1C4
330
1F
100
AcDbEntity
  8
0
  6
HIDDEN
 62
     7
370
     0
100
AcDbLine
 10
206.6828749917
 20
100.0801085436
 30
0.0
 11
163.6828749917
 21
98.3906339423
 31
0.0
  0
LINE
  5
1C5
330
1F
100
AcDbEntity
  8
0
  6
HIDDEN
 62
     7
370
     0
100
AcDbLine
 10
163.6828749917
 20
119.2676542484
 30
0.0
 11
206.6828749917
 21
117.5781796471
 31
0.0
  0
LINE
  5
1C6
330
1F
100
AcDbEntity
  8
0
  6
HIDDEN
 62
     7
370
     0
100
AcDbLine
 10
206.6828749917
 20
120.0801085436
 30
0.0
 11
163.6815015064
 21
121.7696371093
 31
0.0
  0
LINE
  5
1C7
330
1F
100
AcDbEntity
  8
0
  6
HIDDEN
 62
     7
370
     0
100
AcDbLine
 10
160.6692645549
 20
98.2722288657
 30
0.0
 11
159.967842603
 21
96.9937054739
 31
0.0
  0
LINE
  5
1C8
330
1F
100
AcDbEntity
  8
0
  6
HIDDEN
 62
     7
370
     0
100
AcDbLine
 10
159.967842603
 20
96.9937054739
 30
0.0
 11
160.6868414283
 21
95.8970500143
 31
0.0
  0
LINE
  5
1C9
330
1F
100
AcDbEntity
  8
0
  6
HIDDEN
 62
     7
370
     0
100
AcDbLine
 10
160.6843786192
 20
121.7574817682
 30
0.0
 11
159.967842603
 21
120.6645827168
 31
0.0
  0
LINE
  5
1CA
330
1F
100
AcDbEntity
  8
0
  6
HIDDEN
 62
     7
370
     0
100
AcDbLine
 10
159.967842603
 20
120.6645827168
 30
0.0
 11
160.6692645549
 21
119.386059325
 31
0.0
  0
LINE
  5
1CB
330
1F
100
AcDbEntity
  8
0
  6
HIDDEN
 62
     7
370
     0
100
AcDbLine
 10
201.2165601542
 20
120.5450735281
 30
0.0
 11
200.6973157282
 21
120.0650889179
 31
0.0
  0
LINE
  5
1CC
330
1F
100
AcDbEntity
  8
0
  6
HIDDEN
 62
     7
370
     0
100
AcDbLine
 10
200.6187960966
 20
118.0666308454
 30
0.0
 11
201.0987807069
 21
117.5473864194
 31
0.0
  0
LINE
  5
1CD
330
1F
100
AcDbEntity
  8
0
  6
HIDDEN
 62
     7
370
     0
100
AcDbLine
 10
206.5504979581
 20
120.3355025411
 30
0.0
 11
201.2165601542
 21
120.5450735281
 31
0.0
  0
LINE
  5
1CE
330
1F
100
AcDbEntity
  8
0
  6
HIDDEN
 62
     7
370
     0
100
AcDbLine
 10
201.0987807069
 20
117.5473864194
 30
0.0
 11
206.4327185108
 21
117.3378154323
 31
0.0
  0
LINE
  5
1CF
330
1F
100
AcDbEntity
  8
0
  6
HIDDEN
 62
     7
370
     0
100
AcDbLine
 10
206.4327185108
 20
117.3378154323
 30
0.0
 11
206.6055527845
 21
117.6117411774
 31
0.0
  0
LINE
  5
1D0
330
1F
100
AcDbEntity
  8
0
  6
HIDDEN
 62
     7
370
     0
100
AcDbLine
 10
206.6828749917
 20
120.0838951854
 30
0.0
 11
206.5504979581
 21
120.3355025411
 31
0.0
  0
LINE
  5
1D1
330
1F
100
AcDbEntity
  8
0
  6
HIDDEN
 62
     7
370
     0
100
AcDbLine
 10
206.6093876817
 20
97.3250994332
 30
0.0
 11
206.6828749917
 21
97.464775835
 31
0.0
  0
LINE
  5
1D2
330
1F
100
AcDbEntity
  8
0
  6
HIDDEN
 62
     7
370
     0
100
AcDbLine
 10
206.6644425082
 20
100.0488607968
 30
0.0
 11
206.4916082344
 21
100.3227865419
 31
0.0
  0
LINE
  5
1D3
330
1F
100
AcDbEntity
  8
0
  6
HIDDEN
 62
     7
370
     0
100
AcDbLine
 10
206.4916082344
 20
100.3227865419
 30
0.0
 11
201.1576704305
 21
100.1132155548
 31
0.0
  0
LINE
  5
1D4
330
1F
100
AcDbEntity
  8
0
  6
HIDDEN
 62
     7
370
     0
100
AcDbLine
 10
201.2754498778
 20
97.1155284461
 30
0.0
 11
206.6093876817
 21
97.3250994332
 31
0.0
  0
LINE
  5
1D5
330
1F
100
AcDbEntity
  8
0
  6
HIDDEN
 62
     7
370
     0
100
AcDbLine
 10
201.1576704305
 20
100.1132155548
 30
0.0
 11
200.6776858203
 21
99.5939711288
 31
0.0
  0
LINE
  5
1D6
330
1F
100
AcDbEntity
  8
0
  6
HIDDEN
 62
     7
370
     0
100
AcDbLine
 10
200.7562054518
 20
97.5955130563
 30
0.0
 11
201.2754498778
 21
97.1155284461
 31
0.0
  0
DIMENSION
  5
1D7
330
1F
100
AcDbEntity
  8
VERMASSUNG
100
AcDbDimension
  2
*D1
 10
80.5036836403
 20
77.3291440953
 30
0.0
 11
80.5036836403
 21
108.8291440953
 31
0.0
 70
   160
  1
HSK A %%c<>
 71
     2
 42
-1.0
  3
SLDDIMSTYLE0
100
AcDbAlignedDimension
 13
116.9828749917
 23
140.3291440953
 33
0.0
 14
116.9828749917
 24
77.3291440953
 34
0.0
 50
90.0
100
AcDbRotatedDimension
  0
DIMENSION
  5
1E4
330
1F
100
AcDbEntity
  8
VERMASSUNG
100
AcDbDimension
  2
*D2
 10
206.6828749917
 20
142.4791982665
 30
0.0
 11
183.4328749917
 21
142.4791982665
 31
0.0
 70
   160
 71
     2
 42
-1.0
  3
SLDDIMSTYLE1
100
AcDbAlignedDimension
 13
160.1828749917
 23
115.7291440953
 33
0.0
 14
206.6828749917
 24
120.480363112
 34
0.0
 50
0.0
100
AcDbRotatedDimension
  0
DIMENSION
  5
1EF
330
1F
100
AcDbEntity
  8
VERMASSUNG
100
AcDbDimension
  2
*D3
 10
213.7114842904
 20
115.8291440953
 30
0.0
 11
213.7114842904
 21
108.8291440953
 31
0.0
 70
   160
  1
%%c<> 
 71
     2
 42
-1.0
  3
SLDDIMSTYLE2
100
AcDbAlignedDimension
 13
203.1828749917
 23
101.8291440953
 33
0.0
 14
203.1828749917
 24
115.8291440953
 34
0.0
 50
90.0
100
AcDbRotatedDimension
  0
DIMENSION
  5
1FC
330
1F
100
AcDbEntity
  8
VERMASSUNG
100
AcDbDimension
  2
*D4
 10
219.7114842904
 20
122.3291440953
 30
0.0
 11
219.7114842904
 21
108.8291440953
 31
0.0
 70
   160
  1
%%c<>
 71
     2
 42
-1.0
  3
SLDDIMSTYLE3
100
AcDbAlignedDimension
 13
206.6828749917
 23
95.3291440953
 33
0.0
 14
206.6828749917
 24
122.3291440953
 34
0.0
 50
90.0
100
AcDbRotatedDimension
  0
DIMENSION
  5
208
330
1F
100
AcDbEntity
  8
VERMASSUNG
100
AcDbDimension
  2
*D5
 10
206.6828749917
 20
154.4791982665
 30
0.0
 11
161.6828749917
 21
154.4791982665
 31
0.0
 70
   160
 71
     2
 42
-1.0
  3
SLDDIMSTYLE0
100
AcDbAlignedDimension
 13
116.6828749917
 23
140.0291440953
 33
0.0
 14
206.6828749917
 24
120.480363112
 34
0.0
100
AcDbRotatedDimension
  0
DIMENSION
  5
212
330
1F
100
AcDbEntity
  8
VERMASSUNG
100
AcDbDimension
  2
*D6
 10
206.6828749917
 20
148.4791982665
 30
0.0
 11
174.6578749917
 21
148.4791982665
 31
0.0
 70
   160
 71
     2
 42
-1.0
  3
SLDDIMSTYLE0
100
AcDbAlignedDimension
 13
142.6328749917
 23
138.6755844191
 33
0.0
 14
206.6828749917
 24
120.480363112
 34
0.0
100
AcDbRotatedDimension
  0
DIMENSION
  5
21C
330
1F
100
AcDbEntity
  8
VERMASSUNG
100
AcDbDimension
  2
*D7
 10
206.6828749917
 20
160.4791982665
 30
0.0
 11
145.7328749917
 21
160.4791982665
 31
0.0
 70
   160
 71
     2
 42
-1.0
  3
SLDDIMSTYLE0
100
AcDbAlignedDimension
 13
84.7828749917
 23
128.5198218418
 33
0.0
 14
206.6828749917
 24
120.480363112
 34
0.0
100
AcDbRotatedDimension
  0
DIMENSION
  5
226
330
1F
100
AcDbEntity
  8
VERMASSUNG
100
AcDbDimension
  2
*D8
 10
225.7114842904
 20
91.8291440953
 30
0.0
 11
225.7114842904
 21
108.8291440953
 31
0.0
 70
   160
  1
%%c<>
 71
     2
 42
-1.0
  3
SLDDIMSTYLE0
100
AcDbAlignedDimension
 13
162.2111584151
 23
125.8291440953
 33
0.0
 14
162.2111584151
 24
91.8291440953
 34
0.0
 50
90.0
100
AcDbRotatedDimension
  0
LINE
  5
231
330
1F
100
AcDbEntity
  8
VERMASSUNG
  6
CENTERX2
370
     0
100
AcDbLine
 10
82.5923076923
 20
108.8291440953
 30
0.0
 11
208.6828749917
 21
108.8291440953
 31
0.0
  0
OLE2FRAME
  5
232
330
1F
100
AcDbEntity
  8
0
100
AcDbOle2Frame
 70
     2
  3
Bitmap Image
 10
13.8511154363
 20
38.264191557
 30
0.0
 11
51.6290888628
 21
31.9806341108
 31
0.0
 71
     2
 72
     0
 73
     1
 90
    12928
310
80552BED0767C5B32B40DDAF6807D121434000000000000000006FFBDDFB85D0
310
4940DDAF6807D121434000000000000000006FFBDDFB85D04940416F4BD60AFB
310
3F4000000000000000002BED0767C5B32B40416F4BD60AFB3F40000000000000
310
0000000000000100000000010000010000000100000000000100000000320000
310
D0CF11E0A1B11AE1000000000000000000000000000000003E000300FEFF0900
310
0600000000000000000000000100000001000000000000000010000002000000
310
01000000FEFFFFFF0000000000000000FFFFFFFFFFFFFFFFFFFFFFFFFFFFFFFF
310
FFFFFFFFFFFFFFFFFFFFFFFFFFFFFFFFFFFFFFFFFFFFFFFFFFFFFFFFFFFFFFFF
310
FFFFFFFFFFFFFFFFFFFFFFFFFFFFFFFFFFFFFFFFFFFFFFFFFFFFFFFFFFFFFFFF
310
FFFFFFFFFFFFFFFFFFFFFFFFFFFFFFFFFFFFFFFFFFFFFFFFFFFFFFFFFFFFFFFF
310
FFFFFFFFFFFFFFFFFFFFFFFFFFFFFFFFFFFFFFFFFFFFFFFFFFFFFFFFFFFFFFFF
310
FFFFFFFFFFFFFFFFFFFFFFFFFFFFFFFFFFFFFFFFFFFFFFFFFFFFFFFFFFFFFFFF
310
FFFFFFFFFFFFFFFFFFFFFFFFFFFFFFFFFFFFFFFFFFFFFFFFFFFFFFFFFFFFFFFF
310
FFFFFFFFFFFFFFFFFFFFFFFFFFFFFFFFFFFFFFFFFFFFFFFFFFFFFFFFFFFFFFFF
310
FFFFFFFFFFFFFFFFFFFFFFFFFFFFFFFFFFFFFFFFFFFFFFFFFFFFFFFFFFFFFFFF
310
FFFFFFFFFFFFFFFFFFFFFFFFFFFFFFFFFFFFFFFFFFFFFFFFFFFFFFFFFFFFFFFF
310
FFFFFFFFFFFFFFFFFFFFFFFFFFFFFFFFFFFFFFFFFFFFFFFFFFFFFFFFFFFFFFFF
310
FFFFFFFFFFFFFFFFFFFFFFFFFFFFFFFFFFFFFFFFFFFFFFFFFFFFFFFFFFFFFFFF
310
FFFFFFFFFFFFFFFFFFFFFFFFFFFFFFFFFFFFFFFFFFFFFFFFFFFFFFFFFFFFFFFF
310
FFFFFFFFFFFFFFFFFFFFFFFFFFFFFFFFFFFFFFFFFFFFFFFFFFFFFFFFFFFFFFFF
310
FDFFFFFFFEFFFFFFFEFFFFFFFEFFFFFF05000000060000000700000008000000
310
090000000A0000000B0000000C0000000D0000000E0000000F00000010000000
310
11000000120000001300000014000000150000001600000017000000FEFFFFFF
310
FFFFFFFFFFFFFFFFFFFFFFFFFFFFFFFFFFFFFFFFFFFFFFFFFFFFFFFFFFFFFFFF
310
FFFFFFFFFFFFFFFFFFFFFFFFFFFFFFFFFFFFFFFFFFFFFFFFFFFFFFFFFFFFFFFF
310
FFFFFFFFFFFFFFFFFFFFFFFFFFFFFFFFFFFFFFFFFFFFFFFFFFFFFFFFFFFFFFFF
310
FFFFFFFFFFFFFFFFFFFFFFFFFFFFFFFFFFFFFFFFFFFFFFFFFFFFFFFFFFFFFFFF
310
FFFFFFFFFFFFFFFFFFFFFFFFFFFFFFFFFFFFFFFFFFFFFFFFFFFFFFFFFFFFFFFF
310
FFFFFFFFFFFFFFFFFFFFFFFFFFFFFFFFFFFFFFFFFFFFFFFFFFFFFFFFFFFFFFFF
310
FFFFFFFFFFFFFFFFFFFFFFFFFFFFFFFFFFFFFFFFFFFFFFFFFFFFFFFFFFFFFFFF
310
FFFFFFFFFFFFFFFFFFFFFFFFFFFFFFFFFFFFFFFFFFFFFFFFFFFFFFFFFFFFFFFF
310
FFFFFFFFFFFFFFFFFFFFFFFFFFFFFFFFFFFFFFFFFFFFFFFFFFFFFFFFFFFFFFFF
310
FFFFFFFFFFFFFFFFFFFFFFFFFFFFFFFFFFFFFFFFFFFFFFFFFFFFFFFFFFFFFFFF
310
FFFFFFFFFFFFFFFFFFFFFFFFFFFFFFFFFFFFFFFFFFFFFFFFFFFFFFFFFFFFFFFF
310
FFFFFFFFFFFFFFFFFFFFFFFFFFFFFFFFFFFFFFFFFFFFFFFFFFFFFFFFFFFFFFFF
310
FFFFFFFFFFFFFFFFFFFFFFFFFFFFFFFFFFFFFFFFFFFFFFFFFFFFFFFFFFFFFFFF
310
52006F006F007400200045006E00740072007900000000000000000000000000
310
0000000000000000000000000000000000000000000000000000000000000000
310
16000500FFFFFFFFFFFFFFFF020000000A00030000000000C000000000000046
310
00000000000000000000000030C7A5C1C404CC0103000000C000000000000000
310
01004F006C006500000000000000000000000000000000000000000000000000
310
0000000000000000000000000000000000000000000000000000000000000000
310
0A000200FFFFFFFFFFFFFFFFFFFFFFFF00000000000000000000000000000000
310
0000000000000000000000000000000000000000000000001400000000000000
310
010043006F006D0070004F0062006A0000000000000000000000000000000000
310
0000000000000000000000000000000000000000000000000000000000000000
310
120002010100000003000000FFFFFFFF00000000000000000000000000000000
310
0000000000000000000000000000000000000000010000004D00000000000000
310
01004F006C006500310030004E00610074006900760065000000000000000000
310
0000000000000000000000000000000000000000000000000000000000000000
310
1A000200FFFFFFFFFFFFFFFFFFFFFFFF00000000000000000000000000000000
310
0000000000000000000000000000000000000000040000002426000000000000
310
FEFFFFFF02000000FEFFFFFFFFFFFFFFFFFFFFFFFFFFFFFFFFFFFFFFFFFFFFFF
310
FFFFFFFFFFFFFFFFFFFFFFFFFFFFFFFFFFFFFFFFFFFFFFFFFFFFFFFFFFFFFFFF
310
FFFFFFFFFFFFFFFFFFFFFFFFFFFFFFFFFFFFFFFFFFFFFFFFFFFFFFFFFFFFFFFF
310
FFFFFFFFFFFFFFFFFFFFFFFFFFFFFFFFFFFFFFFFFFFFFFFFFFFFFFFFFFFFFFFF
310
FFFFFFFFFFFFFFFFFFFFFFFFFFFFFFFFFFFFFFFFFFFFFFFFFFFFFFFFFFFFFFFF
310
FFFFFFFFFFFFFFFFFFFFFFFFFFFFFFFFFFFFFFFFFFFFFFFFFFFFFFFFFFFFFFFF
310
FFFFFFFFFFFFFFFFFFFFFFFFFFFFFFFFFFFFFFFFFFFFFFFFFFFFFFFFFFFFFFFF
310
FFFFFFFFFFFFFFFFFFFFFFFFFFFFFFFFFFFFFFFFFFFFFFFFFFFFFFFFFFFFFFFF
310
FFFFFFFFFFFFFFFFFFFFFFFFFFFFFFFFFFFFFFFFFFFFFFFFFFFFFFFFFFFFFFFF
310
FFFFFFFFFFFFFFFFFFFFFFFFFFFFFFFFFFFFFFFFFFFFFFFFFFFFFFFFFFFFFFFF
310
FFFFFFFFFFFFFFFFFFFFFFFFFFFFFFFFFFFFFFFFFFFFFFFFFFFFFFFFFFFFFFFF
310
FFFFFFFFFFFFFFFFFFFFFFFFFFFFFFFFFFFFFFFFFFFFFFFFFFFFFFFFFFFFFFFF
310
FFFFFFFFFFFFFFFFFFFFFFFFFFFFFFFFFFFFFFFFFFFFFFFFFFFFFFFFFFFFFFFF
310
FFFFFFFFFFFFFFFFFFFFFFFFFFFFFFFFFFFFFFFFFFFFFFFFFFFFFFFFFFFFFFFF
310
FFFFFFFFFFFFFFFFFFFFFFFFFFFFFFFFFFFFFFFFFFFFFFFFFFFFFFFFFFFFFFFF
310
FFFFFFFFFFFFFFFFFFFFFFFFFFFFFFFFFFFFFFFFFFFFFFFFFFFFFFFFFFFFFFFF
310
0100000200000000000000000000000000000000000000000000000000000000
310
00000000000000003800000041000000D20D5902000000006C0ECB0200000000
310
0100FEFF030A0000FFFFFFFF0A00030000000000C00000000000004607000000
310
5042727573680007000000504272757368000700000050427275736800F439B2
310
7100000000000000000000000000000000000000000000000000C70600000000
310
425D000000000000000000000000000000000000000000003800000041000000
310
D20D5902000000006A0E07030000000000000000000000000000000000000000
310
0000C70600000000435D00000000000000000000000000000000000000000000
310
3800000041000000D20D5902000000003E0E5F04000000000000000000000000
310
00000000000000000000C706000000003D5D0000000000000000000000000000
310
00000000000000003800000041000000D20D5902000000000E0EA60300000000
310
000000000000000000000000000000000000C706000000003E5D000000000000
310
000000000000000000000000000000003800000041000000D20D590200000000
310
940EEE0200000000000000000000000000000000000000000000C70600000000
310
3F5D000000000000000000000000000000000000000000003800000041000000
310
D20D590200000000740EFF020000000000000000000000000000000000000000
310
20260000424D0E260000000000003E00000028000000B40200006E0000000100
310
01000000000000000000130B0000130B00000200000002000000000000FFFFFF
310
FFFFFFFFFFFFFFFFFFFFFFFFFFFFFFFFFFFFFFFFFFFFFFFFFFFFFFFFFFFFFFFF
310
FFFFFFFFFFFFFFFFFFFFFFFFFFFFFFFFFFFFFFFFFFFFFFFFFFFFFFFFFFFFFFFF
310
FFFFFFFFFFFFFFFFFFFFFFFFFFFFFFFFFFFFFFFFFFFFFFFFF000FFFFFFFFFFFF
310
FFFFFFFFFFFFFFFFFFFFFFFFFFFFFFFFFFFFFFFFFFFFFFFFFFFFFFFFFFFFFFFF
310
FFFFFFFFFFFFFFFFFFFFFFFFFFFFFFFFFFFFFFFFFFFFFFFFFFFFFFFFFFFFFFFF
310
FFFFFFFFFFFFFFFFFFFFFFFFFFFFFFFFF000FFFFFFFFFFFFFFFFFFFFFFFFFFFF
310
FFFFFFFFFFFFFFFFFFFFFFFFFFFFFFFFFFFFFFFFFFFFFFFFFFFFFFFFFFFFFFFF
310
FFFFFFFFFFFFFFFFFFFFFFFFFFFFFFFFFFFFFFFFFFFFFFFFFFFFFFFFFFFFFFFF
310
FFFFFFFFFFFFFFFFF000FFFFFFFFFFFFFFFFFFFFFFFFFFFFFFFFFFFFFFFFFFFF
310
FFFFFFFFFFFFFFFFFFFFFFFFFFFFFFFFFFFFFFFFFFFFFFFFFFFFFFFFFFFFFFFF
310
FFFFFFFFFFFFFFFFFFFFFFFFFFFFFFFFFFFFFFFFFFFFFFFFFFFFFFFFFFFFFFFF
310
F000FFFFFFFFFFFFFFFFFFFFFFFFFFFFFFFFFFFFFFFFFFFFFFFFFFFFFFFFFFFF
310
FFFFFFFFFFFFFFFFFFFFFFFFFFFFFFFFFFFFFFFFFFFFFFFFFFFFFFFFFFFFFFFF
310
FFFFFFFFFFFFFFFFFFFFFFFFFFFFFFFFFFFFFFFFFFFFFFFFF000FFFFFFFFFFFF
310
FFFFFFFFFFFFFFFFFFFFFFFFFFFFFFFFFFFFFFFFFFFFFFFFFFFFFFFFFFFFFFFF
310
FFFFFFFFFFFFFFFFFFFFFFFFFFFFFFFFFFFFFFFFFFFFFFFFFFFFFFFFFFFFFFFF
310
FFFFFFFFFFFFFFFFFFFFFFFFFFFFFFFFF000FFFFFFFFFFFFFFFFFFFFFFFFFFFF
310
FFFFFFFFFFFFFFFFFFFFFFFFFFFFFFFFFFFFFFFFFFFFFFFFFFFFFFFFFFFFFFFF
310
FFFFFFFFFFFFFFFFFFFFFFFFFFFFFFFFFFFFFFFFFFFFFFFFFFFFFFFFFFFFFFFF
310
FFFFFFFFFFFFFFFFF000FFFFFFFFFFFFFFFFFFFFFFFFFFFFFFFFFFFFFFFFFFFF
310
FFFFFFFFFFFFFFFFFFFFFFFFFFFFFFFFFFFFFFFFFFFFFFFFFFFFFFFFFFFFFFFF
310
FFFFFFFFFFFFFFFFFFFFFFFFFFFFFFFFFFFFFFFFFFFFFFFFFFFFFFFFFFFFFFFF
310
F000FFFFFFFFFFFFFFFFFFFFFFFFFFFFFFFFFFFFFFFFFFFFFFFFFFFFFFFFFFFF
310
FFFFFFFFFFFFFFFFFFFFFFFFFFFFFFFFFFFFFFFFFFFFFFFFFFFFFFFFFFFFFFFF
310
FFFFFFFFFFFFFFFFFFFFFFFFFFFFFFFFFFFFFFFFFFFFFFFFF000FFFFFFFFFFFF
310
FFFFFFFFFFFFFFFFFFFFFFFFFFFFFFFFFFFFFFFFFFFFFFFFFFFFFFFFFFFFFFFF
310
FFFFFFFFFFFFFFFFFFFFFFFFFFFFFFFFFFFFFFFFFFFFFFFFFFFFFFFFFFFFFFFF
310
FFFFFFFFFFFFFFFFFFFFFFFFFFFFFFFFF000FFFFFFFFFFFFFFFFFFFFFFFFFFFF
310
FFFFFFFFFFFFFFFFFFFFFFFFFFFFFFFFFFFFFFFFFFFFFFFFFFFFFFFFFFFFFFFF
310
FFFFFFFFFFFFFFFFFFFFFFFFFFFFFFFFFFFFFFFFFFFFFFFFFFFFFFFFFFFFFFFF
310
FFFFFFFFFFFFFFFFF000FFFFFFFFFFFFFFFFFFFFFFFFFFFFFFFFFFFFFFFFFFFF
310
FFFFFFFFFFFFFFFFFFFFFFFFFFFFFFFFFFFFFFFFFFFFFFFFFFFFFFFFFFFFFFFF
310
FFFFFFFFFFFFFFFFFFFFFFFFFFFFFFFFFFFFFFFFFFFFFFFFFFFFFFFFFFFFFFFF
310
F000FFFFFFFFFFFFFFFFFFFFFFFFFFFFFFFFFFFFFFFFFFFFFFFFFFFFFFFFFFFF
310
FFFFFFFFFFFFFFFFFFFFFFFFFFFFFFFFFFFFFFFFFFFFFFFFFFFFFFFFFFFFFFFF
310
FFFFFFFFFFFFFFFFFFFFFFFFFFFFFFFFFFFFFFFFFFFFFFFFF000FFFFFFFFFFFF
310
FFFFFFFFFFFFFFFFFFFFFFFFFFFFFFFFFFFFFFFFFFFFFFFFFFFFFFFFFFFFFFFF
310
FFFFFFFFFFFFFFFFFFFFFFFFFFFFFFFFFFFFFFFFFFFFFFFFFFFFFFFFFFFFFFFF
310
FFFFFFFFFFFFFFFFFFFFFFFFFFFFFFFFF000FFFFFFFFFFFFFFFFFFFFFFFFFFFF
310
FFFFFFFFFFFFFFFFFFFFFFFFFFFFFFFFFFFFFFFFFFFFFFFFFFFFFFFFFFFFFFFF
310
FFFFFFFFFFFFFFFFFFFFFFFFFFFFFFFFFFFFFFFFFFFFFFFFFFFFFFFFFFFFFFFF
310
FFFFFFFFFFFFFFFFF000FFFFFFFFFFFFFFFFFFFFFFFFFFFFFFFFFFFFFFFFFFFF
310
FFFFFFFFFFFFFFFFFFFFFFFFFFFFFFFFFFFFFFFFFFFFFFFFFFFFFFFFFFFFFFFF
310
FFFFFFFFFFFFFFFFFFFFFFFFFFFFFFFFFFFFFFFFFFFFFFFFFFFFFFFFFFFFFFFF
310
F000FFFFFFFFFFFFFFFFFFFFFFFFFFFFFFFFFFFFFFFFFFFFFFFFFFFFFFFFFFFF
310
FFFFFFFFFFFFFFFFFFFFFFFFFFFFFFFFFFFFFFFFFFFFFFFFFFFFFFFFFFFFFFFF
310
FFFFFFFFFFFFFFFFFFFFFFFFFFFFFFFFFFFFFFFFFFFFFFFFF000FFFFFFFFFFFF
310
FFFFFFFFFFFFFFFFFFFFFFFFFFFFFFFFFFFFFFFFFFFFFFFFFFFFFFFFFFFFFFFF
310
FFFFFFFFFFFFFFFFFFFFFFFFFFFFFFFFFFFFFFFFFFFFFFFFFFFFFFFFFFFFFFFF
310
FFFFFFFFFFFFFFFFFFFFFFFFFFFFFFFFF000FFFFFFFFFFFFFFFFFFFFFFFFFFFF
310
FFFFFFFFFFFFFFFFFFFFFFFFFFFFFFFFFFFFFFFFFFFFFFFFFFFFFFFFFFFFFFFF
310
FFFFFFFFFFFFFFFFFFFFFFFFFFFFFFFFFFFFFFFFFFFFFFFFFFFFFFFFFFFFFFFF
310
FFFFFFFFFFFFFFFFF000FFFFF80003FFFFFFFFFFFFFFFFFFFFFFFFFFFFFFFFFF
310
FFFFF00007FFFFFFFFFF00007FFFFFF800000000000000007FFFFFFFFFFFFFFF
310
FFFFFFFC001FFFFFFFFFFFFFFC001FFFFFFFFFFFFFFFFFFFFFFFFFFE0007FFFF
310
F000FFFF8000007FFFFFFFF8000FFFFFC0007FFFFF80007FFFFF0000007FFFFF
310
FFF8000007FFFFF800000000000000007FFFFFF0001FFFFFFFFFFFC00001FFFF
310
FFFFFFFFC00001FFFFFFFF000000000003FFFFE000007FFFF000FFFE0000000F
310
FFFFFFF0000FFFFF80007FFFFF80007FFFFC0000001FFFFFFFC0000001FFFFF8
310
00000000000000007FFFFFF0001FFFFFFFFFFE0000003FFFFFFFFFFE0000003F
310
FFFFFF000000000003FFFF0000000FFFF000FFF800000003FFFFFFF00007FFFF
310
80007FFFFF80007FFFF000000007FFFFFF000000003FFFF80000000000000000
310
7FFFFFF0001FFFFFFFFFF80000000FFFFFFFFFF80000000FFFFFFF0000000000
310
03FFFC00000003FFF000FFE000000000FFFFFFF00007FFFF80003FFFFF80007F
310
FFC000000001FFFFFC000000001FFFF800000000000000007FFFFFF0001FFFFF
310
FFFFE000000003FFFFFFFFE000000003FFFFFF000000000003FFF000000000FF
310
F000FF80000000007FFFFFF00007FFFF80003FFFFF80007FFF8000000000FFFF
310
F80000000007FFF800000000000000007FFFFFF0001FFFFFFFFFC000000001FF
310
FFFFFFC000000001FFFFFF000000000003FFC0000000007FF000FF0000000000
310
3FFFFFE00007FFFF00003FFFFF80007FFE00000000003FFFF00000000003FFF8
310
00000000000000007FFFFFF0001FFFFFFFFF8000000000FFFFFFFF8000000000
310
FFFFFF000000000003FF80000000003FF000FE00000000001FFFFFE00003FFFF
310
00003FFFFF80007FFC00000000001FFFE00000000001FFF8000001FFFE000000
310
7FFFFFF0001FFFFFFFFE00000000003FFFFFFE00000000003FFFFF0000000000
310
03FF00000000001FF000FC00000000000FFFFFE00003FFFF00001FFFFF80007F
310
F800000000001FFFC00000000000FFF8000001FFFE0000007FFFFFF0001FFFFF
310
FFFC00000000001FFFFFFC00000000001FFFFF000000000003FE00000000000F
310
F000F8000000000007FFFFE00003FFFF00001FFFFF80007FF800000000000FFF
310
800000000000FFF8000001FFFE0000007FFFFFF0001FFFFFFFF800000000000F
310
FFFFF800000000000FFFFF000000000003FC000000000007F000F80000000000
310
03FFFFC00003FFFE00001FFFFF80007FF0000000000007FF0000000000007FF8
310
000001FFFE0000007FFFFFF0001FFFFFFFF0000000000007FFFFF00000000000
310
07FFFF000000000003F8000000000003F000F0000000000003FFFFC00001FFFE
310
00001FFFFF80007FE0000000000007FE0000000000003FF8000001FFFE000000
310
7FFFFFF0001FFFFFFFF0000000000007FFFFF0000000000007FFFF0000000000
310
03F800001F800003F000E00001FFF00001FFFFC00001FFFE00000FFFFF80007F
310
E00001FFE00003FE00001FFF00003FF8000001FFFE0000007FFFFFF0001FFFFF
310
FFE000003E000003FFFFE000003E000003FFFF000000000003F00001FFF80001
310
F000E00007FFFC0001FFFFC00001FFFE00000FFFFF80007FC0000FFFFC0003FC
310
0000FFFFC0001FF8000001FFFE0000007FFFFFF0001FFFFFFFC00003FFE00001
310
FFFFC00003FFE00001FFFF0001FFFFFFFFF00007FFFE0001F000E0000FFFFF00
310
00FFFF800001FFFC00000FFFFF80007FC0001FFFFE0001FC0001FFFFE0001FF8
310
000001FFFE0000007FFFFFF0001FFFFFFF80000FFFF80000FFFF80000FFFF800
310
00FFFF0003FFFFFFFFE0000FFFFF8000F000C0003FFFFF8000FFFF800000FFFC
310
000007FFFF80007F80003FFFFF0001FC0003FFFFF0001FF8000001FFFE000000
310
7FFFFFF0001FFFFFFF80003FFFFE0000FFFF80003FFFFE0000FFFF0003FFFFFF
310
FFE0003FFFFF8000F000C0003FFFFF8000FFFF800000FFFC000007FFFF80007F
310
80007FFFFF8001F80007FFFFF8000FF8000001FFFE0000007FFFFFF0001FFFFF
310
FF00007FFFFF00007FFF00007FFFFF00007FFF0003FFFFFFFFE0003FFFFFC000
310
F000C0007FFFFFC000FFFF000000FFFC000007FFFF80007F8000FFFFFF8000F8
310
000FFFFFF8000FF8000001FFFE0000007FFFFFF0001FFFFFFF0000FFFFFF8000
310
7FFF0000FFFFFF80007FFF0003FFFFFFFFC0007FFFFFC00070008000FFFFFFC0
310
00FFFF000000FFF8000007FFFF80007F8000FFFFFF8000F8000FFFFFF8000FF8
310
000001FFFE0000007FFFFFF0001FFFFFFE0001FFFFFFC0003FFE0001FFFFFFC0
310
003FFF0003FFFFFFFFC0007FFFFFE00070008000FFFFFFC0007FFF0000007FF8
310
000003FFFF80007F0001FFFFFF8000F8000FFFFFF8000FF8000001FFFE000000
310
7FFFFFF0001FFFFFFE0001FFFFFFC0003FFE0001FFFFFFC0003FFF0003FFFFFF
310
FFC000FFFFFFE00070008000FFFFFFC0007FFF0000007FF8000003FFFF80007F
310
0001FFFFFF8000F8001FFFFFF8000FF8000001FFFE0000007FFFFFF0001FFFFF
310
FE0003FFFFFFE0003FFE0003FFFFFFE0003FFF0003FFFFFFFFC000FFFFFFE000
310
70008000FFFFFFC0007FFE0000007FF8000003FFFF80007F0001FFFFFF8000F0
310
001FFFFFF8000FF8000001FFFE0000007FFFFFF0001FFFFFFC0003FFFFFFE000
310
1FFC0003FFFFFFE0001FFF0003FFFFFFFFC000FFFFFFC00070008000FFFFFF80
310
007FFE0000007FF0000003FFFF80007F0001FFFFFF0000F0001FFFFFF8000FF8
310
000001FFFE0000007FFFFFF0001FFFFFFC0007FFFFFFF0001FFC0007FFFFFFF0
310
001FFF0003FFFFFFFFC000FFFFFFC00070008001FFFFFF0000FFFE0000003FF0
310
000001FFFF80007F0001FFFFFF0000F8001FFFFFF0000FF8000001FFFE000000
310
7FFFFFF0001FFFFFFC0007FFFFFFF0001FFC0007FFFFFFF0001FFF0003FFFFFF
310
FFC001FFFFFF80007000FFFFFFFFFE0000FFFE0008003FF0008001FFFF80007F
310
FFFFFFFFFC0000FFFFFFFFFFE0000FF8000001FFFE0000007FFFFFF0001FFFFF
310
F8000FFFFFFFF8000FF8000FFFFFFFF8000FFF0003FFFFFFFFFFFFFFFFFF0000
310
7000FFFFFFFFFC0000FFFC0008003FF0008001FFFF80007FFFFFFFFFF80001FF
310
FFFFFFFF80000FF8000001FFFE0000007FFFFFF0001FFFFFF8000FFFFFFFF800
310
0FF8000FFFFFFFF8000FFF0003FFFFFFFFFFFFFFFFFE0000F000FFFFFFFFE000
310
00FFFC000C003FE000C001FFFF80007FFFFFFFFFC00001FFFFFFFFFE00001FF8
310
000001FFFE0000007FFFFFF0001FFFFFF8000FFFFFFFF8000FF8000FFFFFFFF8
310
000FFF0003FFFFFFFFFFFFFFFFF00000F000FFFFFFFE000001FFFC000C001FE0
310
00C000FFFF80007FFFFFFFFE000001FFFFFFFFE000001FF80FFFFFFFFFFFFFC0
310
7FFFFFF0001FFFFFF8000FFFFFFFF8000FF8000FFFFFFFF8000FFF0003FFFFFF
310
FFFFFFFFFF800000F000FFFFFFC0000001FFFC001C001FE001C000FFFF80007F
310
FFFFFF80000003FFFFFFF80000001FF80FFFFFFFFFFFFFC07FFFFFF0001FFFFF
310
F8001FFFFFFFFC000FF8001FFFFFFFFC000FFF0003FFFFFFFFFFFFFFF0000001
310
F000FFFFF800000001FFF8001C001FE001C000FFFF80007FFFFFF800000003FF
310
FFFF800000003FF80FFFFFFFFFFFFFC07FFFFFF0001FFFFFF8001FFFFFFFFC00
310
0FF8001FFFFFFFFC000FFF0003FFFFFFFFFFFFFE00000001F000FFFFC0000000
310
03FFF8001E001FC001E000FFFF80007FFFFF8000000007FFFFFC000000003FF8
310
0FFFFFFFFFFFFFC07FFFFFF0001FFFFFF8001FFFFFFFFC000FF8001FFFFFFFFC
310
000FFF0003FFFFFFFFFFFFE000000003F000FFFE0000000007FFF8001E000FC0
310
01E0007FFF80007FFFFE0000000007FFFFE0000000007FF80FFFFFFFFFFFFFC0
310
7FFFFFF0001FFFFFF0001FFFFFFFFC0007F0001FFFFFFFFC0007FF0003FFFFFF
310
FFFFFF0000000003F000FFF80000000007FFF8001E000FC003E0007FFF80007F
310
FFF0000000000FFFFF8000000000FFF80FFFFFFFFFFFFFC07FFFFFF0001FFFFF
310
F0001FFFFFFFFC0007F0001FFFFFFFFC0007FF0003FFFFFFFFFFFC0000000007
310
F000FFE0000000000FFFF0003E000FC003E0007FFF80007FFFC0000000001FFF
310
FE0000000001FFF80FFFFFFFFFFFFFC07FFFFFF0001FFFFFF0001FFFFFFFFC00
310
07F0001FFFFFFFFC0007FF0003FFFFFFFFFFF0000000000FF000FFC000000000
310
1FFFF0003F000F8003F0003FFF80007FFF80000000003FFFF80000000003FFF8
310
0FFFFFFFFFFFFFC07FFFFFF0001FFFFFF0001FFFFFFFFC0007F0001FFFFFFFFC
310
0007FF0003FFFFFFFFFFE0000000001FF000FF00000000007FFFF0003F000780
310
03F0003FFF80007FFF00000000007FFFF00000000007FFF80FFFFFFFFFFFFFC0
310
7FFFFFF0001FFFFFF0001FFFFFFFFC0007F0001FFFFFFFFC0007FF0003FFFFFF
310
FFFF80000000007FF000FE0000000000FFFFE0003F00078007F0003FFF80007F
310
FE0000000001FFFFE0000000001FFFF80FFFFFFFFFFFFFC07FFFFFF0001FFFFF
310
F0001FFFFFFFFC0007F0001FFFFFFFFC0007FF0003FFFFFFFFFF0000000000FF
310
F000FC0000000003FFFFE0007F00078007F0003FFF80007FFC0000000007FFFF
310
C0000000007FFFF80FFFFFFFFFFFFFC07FFFFFF0001FFFFFF8001FFFFFFFFC00
310
0FF8001FFFFFFFFC000FFF0003FFFFFFFFFE0000000003FFF000FC000000000F
310
FFFFE0007F80070007F8001FFF80007FF8000000001FFFFF8000000001FFFFF8
310
0FFFFFFFFFFFFFC07FFFFFF0001FFFFFF8001FFFFFFFFC000FF8001FFFFFFFFC
310
000FFF0003FFFFFFFFFC000000000FFFF000F8000000007FFFFFE0007F800700
310
07F8001FFF80007FF000000000FFFFFF800000000FFFFFF80FFFFFFFFFFFFFC0
310
7FFFFFF0001FFFFFF8000FFFFFFFF8000FF8000FFFFFFFF8000FFF0003FFFFFF
310
FFFC000000007FFFF000F800000007FFFFFFC0007F8003000FF8001FFF80007F
310
F000000007FFFFFF000000007FFFFFF80FFFFFFFFFFFFFC07FFFFFF0001FFFFF
310
F8000FFFFFFFF8000FF8000FFFFFFFF8000FFF0003FFFFFFFFF80000000FFFFF
310
F000F0000000FFFFFFFFC000FF8003000FF8001FFF80007FE0000000FFFFFFFF
310
0000000FFFFFFFF8000001FFFE0000007FFFFFF0001FFFFFF8000FFFFFFFF800
310
0FF8000FFFFFFFF8000FFF0003FFFFFFFFF8000000FFFFFFF000F000000FFFFF
310
FFFFC000FFC002000FF8000FFF80007FE000001FFFFFFFFE000001FFFFFFFFF8
310
000001FFFE0000007FFFFFF0001FFFFFF8000FFFFFFFF8000FF8000FFFFFFFF8
310
000FFF0003FFFFFFFFF000001FFFFFFFF000E00000FFFFFFFFFFC000FFC00200
310
0FFC000FFF80007FE00001FFFFFFFFFE00001FFFFFFFFFF8000001FFFE000000
310
7FFFFFF0001FFFFFFC000FFFFFFFF8001FFC000FFFFFFFF8001FFF0003FFFFFF
310
FFF00001FFFFFFFFF000E00007FFFFFFFFFF8000FFC000001FFC000FFF80007F
310
C0000FFFFFFFFFFE0000FFFFFFFFFFF8000001FFFE0000007FFFFFF0001FFFFF
310
FC0007FFFFFFF0001FFC0007FFFFFFF0001FFF0003FFFFFFFFF00007FFFFFFFF
310
F000E0001FFFFFFFFFFF8000FFC000001FFC000FFF80007FC0003FFFFFFFFFFE
310
0001FFFFFFFFFFF8000001FFFE0000007FFFFFF0001FFFFFFC0007FFFFFFF000
310
1FFC0007FFFFFFF0001FFF0003FFFFFFFFF0001FFFFFFFFFF000E0003FFFFF00
310
03FF8001FFE000001FFC0007FF80007FC0007FFFFF0007FC0003FFFFF0003FF8
310
000001FFFE0000007FFFFFF0001FFFFFFC0003FFFFFFE0001FFC0003FFFFFFE0
310
001FFF0003FFFFFFFFF0003FFFFFFFFFF000E0003FFFFF0001FF8001FFE00000
310
1FFE0007FF80007FC0007FFFFE0003FC0007FFFFE0003FF8000001FFFE000000
310
7FFFFFF0001FFFFFFE0003FFFFFFE0003FFE0003FFFFFFE0003FFF0003FFFFFF
310
FFF0003FFFFF8001F000E0003FFFFF0001FF0001FFE000001FFE0007FF80007F
310
C0007FFFFE0003FC0007FFFFE0003FF8000001FFFE0000007FFFFFF0001FFFFF
310
FE0001FFFFFFC0003FFE0001FFFFFFC0003FFF0003FFFFFFFFF0003FFFFF0001
310
F000E0003FFFFF0003FF0001FFE000003FFE0007FF80007FC0007FFFFE0003FC
310
0007FFFFE0003FF8000001FFFE0000007FFFFFF0001FFFFFFF0001FFFFFFC000
310
7FFF0001FFFFFFC0007FFF0003FFFFFFFFF0003FFFFF0001F000E0003FFFFE00
310
03FF0003FFF000003FFE0003FF80007FC0007FFFFC0003FE0007FFFFE0003FF8
310
000001FFFE0000007FFFFFF0001FFFFFFF0000FFFFFF80007FFF0000FFFFFF80
310
007FFF0003FFFFFFFFF0003FFFFF0001F000E0003FFFFE0003FF0003FFF00000
310
3FFF0003FF80007FC0007FFFFC0007FE0007FFFFC0003FF8000001FFFE000000
310
7FFFFFF0001FFFFFFF80007FFFFF0000FFFF80007FFFFF0000FFFF0003FFFFFF
310
FFF0003FFFFF0003F000E0003FFFFC0003FE0003FFF000003FFF0003FF80007F
310
E0003FFFF80007FE0003FFFFC0007FF8000001FFFE0000007FFFFFF0001FFFFF
310
FF80003FFFFE0000FFFF80003FFFFE0000FFFF0003FFFFFFFFF0001FFFFE0003
310
F000F0001FFFF80003FE0003FFF000007FFF0001FF80007FE0003FFFF00007FE
310
0001FFFF80007FF8000001FFFE0000007FFFFFF0001FFFFFFFC0000FFFF80001
310
FFFFC0000FFFF80001FFFF0003FFFFFFFFF0001FFFFC0003F000F0000FFFF000
310
07FE0007FFF800007FFF0001FF80007FE0001FFFE00007FF0000FFFE00007FF8
310
000001FFFE0000007FFFFFF0001FFFFFFFC00003FFE00001FFFFC00003FFE000
310
01FFFF0003FFFFFFFFF8000FFFF80003F000F00003FFC00007FC0007FFF80000
310
7FFF8001FF80007FF00007FF80000FFF00007FF80000FFF8000001FFFE000000
310
7F80000000000001FFE000003E000003FFFFE000003E000003FFFF0003FFFFFF
310
FFF80003FFE00007F000F800000000000FFC0007FFF800007FFF8001FF80007F
310
F000000000000FFF000000000000FFF8000001FFFE0000007F80000000000001
310
FFF0000000000007FFFFF0000000000007FFFF0003FFFFFFFFFC00007E000007
310
F000F800000000000FFC0007FFF80000FFFF8000FF80007FF800000000001FFF
310
800000000001FFF8000001FFFE0000007F80000000000001FFF800000000000F
310
FFFFF800000000000FFFFF0003FFFFFFFFFC00000000000FF000FC0000000000
310
1FFC0007FFFC0000FFFF8000FF80007FF800000000003FFFC00000000001FFF8
310
000001FFFE0000007F80000000000001FFF800000000000FFFFFF80000000000
310
0FFFFF0003FFFFFFFFFE00000000001FF000FE00000000003FF8000FFFFC0000
310
FFFF8000FF80007FFC00000000003FFFC00000000003FFF8000001FFFE000000
310
7F80000000000001FFFC00000000001FFFFFFC00000000001FFFFF0003FFFFFF
310
FFFF00000000001FF000FF00000000003FF8000FFFFC0000FFFFC000FF80007F
310
FE00000000007FFFE00000000007FFF8000001FFFE0000007F80000000000001
310
FFFE00000000003FFFFFFE00000000003FFFFF0003FFFFFFFFFF80000000003F
310
F000FF80000000007FF8000FFFFC0001FFFFC0007F80007FFF0000000000FFFF
310
F0000000000FFFF800000000000000007F80000000000001FFFF8000000000FF
310
FFFFFF8000000000FFFFFF0003FFFFFFFFFFC0000000007FF000FFC000000000
310
FFF8000FFFFE0001FFFFC0007F80007FFF8000000001FFFFF8000000001FFFF8
310
00000000000000007F80000000000001FFFFC000000001FFFFFFFFC000000001
310
FFFFFF0003FFFFFFFFFFE000000000FFF000FFE000000003FFF0001FFFFE0001
310
FFFFC0007F80007FFFC000000007FFFFFE000000003FFFF80000000000000000
310
7F80000000000001FFFFE000000003FFFFFFFFE000000003FFFFFF0003FFFFFF
310
FFFFF000000003FFF000FFF80000000FFFF0001FFFFE0001FFFFE0007F80007F
310
FFF00000000FFFFFFF00000000FFFFF800000000000000007F80000000000001
310
FFFFF80000000FFFFFFFFFF80000000FFFFFFF0003FFFFFFFFFFFC0000000FFF
310
F000FFFE0000003FFFF0001FFFFE0003FFFFE0003F80007FFFFC0000003FFFFF
310
FFC0000003FFFFF800000000000000007F80000000000001FFFFFE0000003FFF
310
FFFFFFFE0000003FFFFFFF0003FFFFFFFFFFFF0000003FFFF000FFFF800000FF
310
FFF0001FFFFF0003FFFFE0003F80007FFFFF000001FFFFFFFFF800001FFFFFF8
310
00000000000000007F80000000000001FFFFFFC00001FFFFFFFFFFFFC00001FF
310
FFFFFF0003FFFFFFFFFFFFC00000FFFFF000FFFFF8000FFFFFFFFFFFFFFFFFFF
310
FFFFFFFFFFFFFFFFFFFFF0001FFFFFFFFFFF0000FFFFFFF80000000000000000
310
7FFFFFFFFFFFFFFFFFFFFFFC001FFFFFFFFFFFFFFC001FFFFFFFFFFFFFFFFFFF
310
FFFFFFFC001FFFFFF000FFFFFFFFFFFFFFFFFFFFFFFFFFFFFFFFFFFFFFFFFFFF
310
FFFFFFFFFFFFFFFFFFFFFFFFFFFFFFFFFFFFFFFFFFFFFFFFFFFFFFFFFFFFFFFF
310
FFFFFFFFFFFFFFFFFFFFFFFFFFFFFFFFFFFFFFFFFFFFFFFFFFFFFFFFFFFFFFFF
310
F000FFFFFFFFFFFFFFFFFFFFFFFFFFFFFFFFFFFFFFFFFFFFFFFFFFFFFFFFFFFF
310
FFFFFFFFFFFFFFFFFFFFFFFFFFFFFFFFFFFFFFFFFFFFFFFFFFFFFFFFFFFFFFFF
310
FFFFFFFFFFFFFFFFFFFFFFFFFFFFFFFFFFFFFFFFFFFFFFFFF000FFFFFFFFFFFF
310
FFFFFFFFFFFFFFFFFFFFFFFFFFFFFFFFFFFFFFFFFFFFFFFFFFFFFFFFFFFFFFFF
310
FFFFFFFFFFFFFFFFFFFFFFFFFFFFFFFFFFFFFFFFFFFFFFFFFFFFFFFFFFFFFFFF
310
FFFFFFFFFFFFFFFFFFFFFFFFFFFFFFFFF000FFFFFFFFFFFFFFFFFFFFFFFFFFFF
310
FFFFFFFFFFFFFFFFFFFFFFFFFFFFFFFFFFFFFFFFFFFFFFFFFFFFFFFFFFFFFFFF
310
FFFFFFFFFFFFFFFFFFFFFFFFFFFFFFFFFFFFFFFFFFFFFFFFFFFFFFFFFFFFFFFF
310
FFFFFFFFFFFFFFFFF000FFFFFFFFFFFFFFFFFFFFFFFFFFFFFFFFFFFFFFFFFFFF
310
FFFFFFFFFFFFFFFFFFFFFFFFFFFFFFFFFFFFFFFFFFFFFFFFFFFFFFFFFFFFFFFF
310
FFFFFFFFFFFFFFFFFFFFFFFFFFFFFFFFFFFFFFFFFFFFFFFFFFFFFFFFFFFFFFFF
310
F000FFFFFFFFFFFFFFFFFFFFFFFFFFFFFFFFFFFFFFFFFFFFFFFFFFFFFFFFFFFF
310
FFFFFFFFFFFFFFFFFFFFFFFFFFFFFFFFFFFFFFFFFFFFFFFFFFFFFFFFFFFFFFFF
310
FFFFFFFFFFFFFFFFFFFFFFFFFFFFFFFFFFFFFFFFFFFFFFFFF000FFFFFFFFFFFF
310
FFFFFFFFFFFFFFFFFFFFFFFFFFFFFFFFFFFFFFFFFFFFFFFFFFFFFFFFFFFFFFFF
310
FFFFFFFFFFFFFFFFFFFFFFFFFFFFFFFFFFFFFFFFFFFFFFFFFFFFFFFFFFFFFFFF
310
FFFFFFFFFFFFFFFFFFFFFFFFFFFFFFFFF000FFFFFFFFFFFFFFFFFFFFFFFFFFFF
310
FFFFFFFFFFFFFFFFFFFFFFFFFFFFFFFFFFFFFFFFFFFFFFFFFFFFFFFFFFFFFFFF
310
FFFFFFFFFFFFFFFFFFFFFFFFFFFFFFFFFFFFFFFFFFFFFFFFFFFFFFFFFFFFFFFF
310
FFFFFFFFFFFFFFFFF000FFFFFFFFFFFFFFFFFFFFFFFFFFFFFFFFFFFFFFFFFFFF
310
FFFFFFFFFFFFFFFFFFFFFFFFFFFFFFFFFFFFFFFFFFFFFFFFFFFFFFFFFFFFFFFF
310
FFFFFFFFFFFFFFFFFFFFFFFFFFFFFFFFFFFFFFFFFFFFFFFFFFFFFFFFFFFFFFFF
310
F000FFFFFFFFFFFFFFFFFFFFFFFFFFFFFFFFFFFFFFFFFFFFFFFFFFFFFFFFFFFF
310
FFFFFFFFFFFFFFFFFFFFFFFFFFFFFFFFFFFFFFFFFFFFFFFFFFFFFFFFFFFFFFFF
310
FFFFFFFFFFFFFFFFFFFFFFFFFFFFFFFFFFFFFFFFFFFFFFFFF000FFFFFFFFFFFF
310
FFFFFFFFFFFFFFFFFFFFFFFFFFFFFFFFFFFFFFFFFFFFFFFFFFFFFFFFFFFFFFFF
310
FFFFFFFFFFFFFFFFFFFFFFFFFFFFFFFFFFFFFFFFFFFFFFFFFFFFFFFFFFFFFFFF
310
FFFFFFFFFFFFFFFFFFFFFFFFFFFFFFFFF000FFFFFFFFFFFFFFFFFFFFFFFFFFFF
310
FFFFFFFFFFFFFFFFFFFFFFFFFFFFFFFFFFFFFFFFFFFFFFFFFFFFFFFFFFFFFFFF
310
FFFFFFFFFFFFFFFFFFFFFFFFFFFFFFFFFFFFFFFFFFFFFFFFFFFFFFFFFFFFFFFF
310
FFFFFFFFFFFFFFFFF000FFFFFFFFFFFFFFFFFFFFFFFFFFFFFFFFFFFFFFFFFFFF
310
FFFFFFFFFFFFFFFFFFFFFFFFFFFFFFFFFFFFFFFFFFFFFFFFFFFFFFFFFFFFFFFF
310
FFFFFFFFFFFFFFFFFFFFFFFFFFFFFFFFFFFFFFFFFFFFFFFFFFFFFFFFFFFFFFFF
310
F000FFFFFFFFFFFFFFFFFFFFFFFFFFFFFFFFFFFFFFFFFFFFFFFFFFFFFFFFFFFF
310
FFFFFFFFFFFFFFFFFFFFFFFFFFFFFFFFFFFFFFFFFFFFFFFFFFFFFFFFFFFFFFFF
310
FFFFFFFFFFFFFFFFFFFFFFFFFFFFFFFFFFFFFFFFFFFFFFFFF000FFFFFFFFFFFF
310
FFFFFFFFFFFFFFFFFFFFFFFFFFFFFFFFFFFFFFFFFFFFFFFFFFFFFFFFFFFFFFFF
310
FFFFFFFFFFFFFFFFFFFFFFFFFFFFFFFFFFFFFFFFFFFFFFFFFFFFFFFFFFFFFFFF
310
FFFFFFFFFFFFFFFFFFFFFFFFFFFFFFFFF000FFFFFFFFFFFFFFFFFFFFFFFFFFFF
310
FFFFFFFFFFFFFFFFFFFFFFFFFFFFFFFFFFFFFFFFFFFFFFFFFFFFFFFFFFFFFFFF
310
FFFFFFFFFFFFFFFFFFFFFFFFFFFFFFFFFFFFFFFFFFFFFFFFFFFFFFFFFFFFFFFF
310
FFFFFFFFFFFFFFFFF000FFFFFFFFFFFFFFFFFFFFFFFFFFFFFFFFFFFFFFFFFFFF
310
FFFFFFFFFFFFFFFFFFFFFFFFFFFFFFFFFFFFFFFFFFFFFFFFFFFFFFFFFFFFFFFF
310
FFFFFFFFFFFFFFFFFFFFFFFFFFFFFFFFFFFFFFFFFFFFFFFFFFFFFFFFFFFFFFFF
310
F000FFFFFFFFFFFFFFFFFFFFFFFFFFFFFFFFFFFFFFFFFFFFFFFFFFFFFFFFFFFF
310
FFFFFFFFFFFFFFFFFFFFFFFFFFFFFFFFFFFFFFFFFFFFFFFFFFFFFFFFFFFFFFFF
310
FFFFFFFFFFFFFFFFFFFFFFFFFFFFFFFFFFFFFFFFFFFFFFFFF000FFFFFFFFFFFF
310
FFFFFFFFFFFFFFFFFFFFFFFFFFFFFFFFFFFFFFFFFFFFFFFFFFFFFFFFFFFFFFFF
310
FFFFFFFFFFFFFFFFFFFFFFFFFFFFFFFFFFFFFFFFFFFFFFFFFFFFFFFFFFFFFFFF
310
FFFFFFFFFFFFFFFFFFFFFFFFFFFFFFFFF000FFFFFFFFFFFFFFFFFFFFFFFFFFFF
310
FFFFFFFFFFFFFFFFFFFFFFFFFFFFFFFFFFFFFFFFFFFFFFFFFFFFFFFFFFFFFFFF
310
FFFFFFFFFFFFFFFFFFFFFFFFFFFFFFFFFFFFFFFFFFFFFFFFFFFFFFFFFFFFFFFF
310
FFFFFFFFFFFFFFFFF000FFFFFFFFFFFFFFFFFFFFFFFFFFFFFFFFFFFFFFFFFFFF
310
FFFFFFFFFFFFFFFFFFFFFFFFFFFFFFFFFFFFFFFFFFFFFFFFFFFFFFFFFFFFFFFF
310
FFFFFFFFFFFFFFFFFFFFFFFFFFFFFFFFFFFFFFFFFFFFFFFFFFFFFFFFFFFFFFFF
310
F000FFFFFFFFFFFFFFFFFFFFFFFFFFFFFFFFFFFFFFFFFFFFFFFFFFFFFFFFFFFF
310
FFFFFFFFFFFFFFFFFFFFFFFFFFFFFFFFFFFFFFFFFFFFFFFFFFFFFFFFFFFFFFFF
310
FFFFFFFFFFFFFFFFFFFFFFFFFFFFFFFFFFFFFFFFFFFFFFFFF000FFFFFFFFFFFF
310
FFFFFFFFFFFFFFFFFFFFFFFFFFFFFFFFFFFFFFFFFFFFFFFFFFFFFFFFFFFFFFFF
310
FFFFFFFFFFFFFFFFFFFFFFFFFFFFFFFFFFFFFFFFFFFFFFFFFFFFFFFFFFFFFFFF
310
FFFFFFFFFFFFFFFFFFFFFFFFFFFFFFFFF0000000000000000000000000000000
310
0000000001000000010000000100000001000000010000000000000001000000
310
0100000001000000010000000000000001000000010000000100000001000000
310
010000000100000001000000000000750074007400650072005C004B00610074
310
0061006C006F0067007A0065006900630068006E0075006EF6140A0300000005
310
301B876400000000C0D46D6400000000004B00300031002E003000360033002E
310
0053004C004400440052005700040000000040A24405000000C61157DA0ADFC5
310
010040C01DFFFEFF012A00030000000050724809000000FFFEFF012A00030000
310
000050724809000000FFFEFF535A003A005C005A0065006900630068006E0075
310
006E00670065006E002D005700650072006B007A006500750067005C005A0065
310
006900630068006E0075006E00670065006E005C00570061006C007400650072
310
0020004D0065006900650072005C00530063006800720075006D007000660066
310
00750074007400650072005C004B006100740061006C006F0067007A00650069
310
00630068006E0075006E00670065006E005C00040000000040A24405000000FF
310
FEFF012A00030000000050724809000000FFFEFF012A00030000000050724809
310
000000FFFEFF012A00040000000040A244050000001C0C0000D4981E00010000
  1
OLE
  0
ENDSEC
  0
SECTION
  2
OBJECTS
  0
DICTIONARY
  5
C
330
0
100
AcDbDictionary
281
     1
  3
ACAD_GROUP
350
D
  3
ACAD_LAYOUT
350
1A
  3
ACAD_MLEADERSTYLE
350
234
  3
ACAD_MLINESTYLE
350
17
  3
ACAD_PLOTSETTINGS
350
19
  3
ACAD_PLOTSTYLENAME
350
E
  3
ACAD_TABLESTYLE
350
233
  3
ACAD_VISUALSTYLE
350
2A
  3
AcDbVariableDictionary
350
235
  0
DICTIONARY
  5
D
102
{ACAD_REACTORS
330
C
102
}
330
C
100
AcDbDictionary
281
     1
  0
DICTIONARY
  5
1A
102
{ACAD_REACTORS
330
C
102
}
330
C
100
AcDbDictionary
281
     1
  3
Layout1
350
1E
  3
Layout2
350
26
  3
Model
350
22
  0
DICTIONARY
  5
234
102
{ACAD_REACTORS
330
C
102
}
330
C
100
AcDbDictionary
281
     1
  0
DICTIONARY
  5
17
102
{ACAD_REACTORS
330
C
102
}
330
C
100
AcDbDictionary
281
     1
  3
Standard
350
18
  0
DICTIONARY
  5
19
102
{ACAD_REACTORS
330
C
102
}
330
C
100
AcDbDictionary
281
     1
  0
ACDBDICTIONARYWDFLT
  5
E
102
{ACAD_REACTORS
330
C
102
}
330
C
100
AcDbDictionary
281
     1
  3
Normal
350
F
100
AcDbDictionaryWithDefault
340
F
  0
DICTIONARY
  5
233
102
{ACAD_REACTORS
330
C
102
}
330
C
100
AcDbDictionary
281
     1
  0
DICTIONARY
  5
2A
102
{ACAD_REACTORS
330
C
102
}
330
C
100
AcDbDictionary
281
     1
  3
2dWireframe
350
2F
  3
3D Hidden
350
31
  3
3dWireframe
350
30
  3
Basic
350
32
  3
Brighten
350
36
  3
ColorChange
350
3A
  3
Conceptual
350
34
  3
Dim
350
35
  3
Facepattern
350
39
  3
Flat
350
2B
  3
FlatWithEdges
350
2C
  3
Gouraud
350
2D
  3
GouraudWithEdges
350
2E
  3
Linepattern
350
38
  3
Realistic
350
33
  3
Thicken
350
37
  0
DICTIONARY
  5
235
102
{ACAD_REACTORS
330
C
102
}
330
C
100
AcDbDictionary
281
     1
  3
PSOLHEIGHT
350
237
  3
PSOLWIDTH
350
236
  0
LAYOUT
  5
1E
102
{ACAD_REACTORS
330
1A
102
}
330
1A
100
AcDbPlotSettings
  1

  2
none_device
  4

  6

 40
0.0
 41
0.0
 42
0.0
 43
0.0
 44
0.0
 45
0.0
 46
0.0
 47
0.0
 48
0.0
 49
0.0
140
0.0
141
0.0
142
1.0
143
1.0
 70
   688
 72
     0
 73
     0
 74
     5
  7

 75
    16
147
1.0
148
0.0
149
0.0
100
AcDbLayout
  1
Layout1
 70
     1
 71
     1
 10
0.0
 20
0.0
 11
420.0
 21
297.0
 12
0.0
 22
0.0
 32
0.0
 14
1.0000000000E+20
 24
1.0000000000E+20
 34
1.0000000000E+20
 15
-1.0000000000E+20
 25
-1.0000000000E+20
 35
-1.0000000000E+20
146
0.0
 13
0.0
 23
0.0
 33
0.0
 16
1.0
 26
0.0
 36
0.0
 17
0.0
 27
1.0
 37
0.0
 76
     0
330
1B
  0
LAYOUT
  5
26
102
{ACAD_REACTORS
330
1A
102
}
330
1A
100
AcDbPlotSettings
  1

  2
none_device
  4

  6

 40
0.0
 41
0.0
 42
0.0
 43
0.0
 44
0.0
 45
0.0
 46
0.0
 47
0.0
 48
0.0
 49
0.0
140
0.0
141
0.0
142
1.0
143
1.0
 70
   688
 72
     0
 73
     0
 74
     5
  7

 75
    16
147
1.0
148
0.0
149
0.0
100
AcDbLayout
  1
Layout2
 70
     1
 71
     2
 10
0.0
 20
0.0
 11
0.0
 21
0.0
 12
0.0
 22
0.0
 32
0.0
 14
0.0
 24
0.0
 34
0.0
 15
0.0
 25
0.0
 35
0.0
146
0.0
 13
0.0
 23
0.0
 33
0.0
 16
1.0
 26
0.0
 36
0.0
 17
0.0
 27
1.0
 37
0.0
 76
     0
330
23
  0
LAYOUT
  5
22
102
{ACAD_REACTORS
330
1A
102
}
330
1A
100
AcDbPlotSettings
  1

  2
none_device
  4

  6

 40
0.0
 41
0.0
 42
0.0
 43
0.0
 44
0.0
 45
0.0
 46
0.0
 47
0.0
 48
0.0
 49
0.0
140
0.0
141
0.0
142
1.0
143
1.0
 70
  1712
 72
     0
 73
     0
 74
     0
  7

 75
     0
147
1.0
148
0.0
149
0.0
100
AcDbLayout
  1
Model
 70
     1
 71
     0
 10
0.0
 20
0.0
 11
297.0
 21
210.0
 12
0.0
 22
0.0
 32
0.0
 14
0.0
 24
0.0
 34
0.0
 15
297.0
 25
210.0
 35
0.0
146
0.0
 13
0.0
 23
0.0
 33
0.0
 16
1.0
 26
0.0
 36
0.0
 17
0.0
 27
1.0
 37
0.0
 76
     0
330
1F
331
29
  0
MLINESTYLE
  5
18
102
{ACAD_REACTORS
330
17
102
}
330
17
100
AcDbMlineStyle
  2
Standard
 70
     0
  3

 62
   256
 51
90.0
 52
90.0
 71
     2
 49
0.5
 62
   256
  6
BYLAYER
 49
-0.5
 62
   256
  6
BYLAYER
  0
ACDBPLACEHOLDER
  5
F
102
{ACAD_REACTORS
330
E
102
}
330
E
  0
VISUALSTYLE
  5
2F
102
{ACAD_REACTORS
330
2A
102
}
330
2A
100
AcDbVisualStyle
  2
2dWireframe
 70
     4
 71
     0
 72
     2
 73
     0
 90
        0
 40
-0.6
 41
-30.0
 62
     5
 63
     7
 74
     1
 91
        4
 64
     7
 65
   257
 75
     1
175
     1
 42
1.0
 92
        0
 66
   257
 43
1.0
 76
     1
 77
     6
 78
     2
 67
     7
 79
     5
170
     0
171
     0
290
     0
174
     0
 93
        1
 44
0.0
173
     0
291
     0
 45
0.0
1001
ACAD
1000
AcDbSavedByObjectVersion
1070
     0
  0
VISUALSTYLE
  5
31
102
{ACAD_REACTORS
330
2A
102
}
330
2A
100
AcDbVisualStyle
  2
3D Hidden
 70
     6
 71
     1
 72
     2
 73
     2
 90
        0
 40
-0.6
 41
-30.0
 62
     5
 63
     7
 74
     2
 91
        2
 64
     7
 65
   257
 75
     2
175
     1
 42
40.0
 92
        0
 66
   257
 43
1.0
 76
     1
 77
     6
 78
     2
 67
     7
 79
     3
170
     0
171
     0
290
     0
174
     0
 93
        1
 44
0.0
173
     0
291
     0
 45
0.0
1001
ACAD
1000
AcDbSavedByObjectVersion
1070
     0
  0
VISUALSTYLE
  5
30
102
{ACAD_REACTORS
330
2A
102
}
330
2A
100
AcDbVisualStyle
  2
3dWireframe
 70
     5
 71
     0
 72
     2
 73
     0
 90
        0
 40
-0.6
 41
-30.0
 62
     5
 63
     7
 74
     1
 91
        4
 64
     7
 65
   257
 75
     1
175
     1
 42
1.0
 92
        0
 66
   257
 43
1.0
 76
     1
 77
     6
 78
     2
 67
     7
 79
     5
170
     0
171
     0
290
     0
174
     0
 93
        1
 44
0.0
173
     0
291
     0
 45
0.0
1001
ACAD
1000
AcDbSavedByObjectVersion
1070
     0
  0
VISUALSTYLE
  5
32
102
{ACAD_REACTORS
330
2A
102
}
330
2A
100
AcDbVisualStyle
  2
Basic
 70
     7
 71
     1
 72
     0
 73
     1
 90
        0
 40
-0.6
 41
-30.0
 62
     5
 63
     7
 74
     0
 91
        4
 64
     7
 65
   257
 75
     1
175
     1
 42
1.0
 92
        8
 66
     7
 43
1.0
 76
     1
 77
     6
 78
     2
 67
     7
 79
     5
170
     0
171
     0
290
     0
174
     0
 93
        1
 44
0.0
173
     0
291
     1
 45
0.0
1001
ACAD
1000
AcDbSavedByObjectVersion
1070
     0
  0
VISUALSTYLE
  5
36
102
{ACAD_REACTORS
330
2A
102
}
330
2A
100
AcDbVisualStyle
  2
Brighten
 70
    12
 71
     2
 72
     2
 73
     0
 90
        0
 40
-0.6
 41
-30.0
 62
     5
 63
     7
 74
     1
 91
        4
 64
     7
 65
   257
 75
     1
175
     1
 42
1.0
 92
        8
 66
     7
 43
1.0
 76
     1
 77
     6
 78
     2
 67
     7
 79
     5
170
     0
171
     0
290
     0
174
     0
 93
        1
 44
50.0
173
     0
291
     1
 45
0.0
1001
ACAD
1000
AcDbSavedByObjectVersion
1070
     0
  0
VISUALSTYLE
  5
3A
102
{ACAD_REACTORS
330
2A
102
}
330
2A
100
AcDbVisualStyle
  2
ColorChange
 70
    16
 71
     2
 72
     2
 73
     3
 90
        0
 40
-0.6
 41
-30.0
 62
     5
 63
     8
 74
     1
 91
        4
 64
     7
 65
   257
 75
     1
175
     1
 42
1.0
 92
        8
 66
     8
 43
1.0
 76
     1
 77
     6
 78
     2
 67
     7
 79
     5
170
     0
171
     0
290
     0
174
     0
 93
        1
 44
0.0
173
     0
291
     1
 45
0.0
1001
ACAD
1000
AcDbSavedByObjectVersion
1070
     0
  0
VISUALSTYLE
  5
34
102
{ACAD_REACTORS
330
2A
102
}
330
2A
100
AcDbVisualStyle
  2
Conceptual
 70
     9
 71
     3
 72
     2
 73
     0
 90
        0
 40
-0.6
 41
-30.0
 62
     5
 63
     7
 74
     2
 91
        2
 64
     7
 65
   257
 75
     1
175
     1
 42
40.0
 92
        8
 66
     7
 43
1.0
 76
     1
 77
     6
 78
     2
 67
     7
 79
     3
170
     0
171
     0
290
     0
174
     0
 93
        1
 44
0.0
173
     0
291
     0
 45
0.0
1001
ACAD
1000
AcDbSavedByObjectVersion
1070
     0
  0
VISUALSTYLE
  5
35
102
{ACAD_REACTORS
330
2A
102
}
330
2A
100
AcDbVisualStyle
  2
Dim
 70
    11
 71
     2
 72
     2
 73
     0
 90
        0
 40
-0.6
 41
-30.0
 62
     5
 63
     7
 74
     1
 91
        4
 64
     7
 65
   257
 75
     1
175
     1
 42
1.0
 92
        8
 66
     7
 43
1.0
 76
     1
 77
     6
 78
     2
 67
     7
 79
     5
170
     0
171
     0
290
     0
174
     0
 93
        1
 44
-50.0
173
     0
291
     1
 45
0.0
1001
ACAD
1000
AcDbSavedByObjectVersion
1070
     0
  0
VISUALSTYLE
  5
39
102
{ACAD_REACTORS
330
2A
102
}
330
2A
100
AcDbVisualStyle
  2
Facepattern
 70
    15
 71
     2
 72
     2
 73
     0
 90
        0
 40
-0.6
 41
-30.0
 62
     5
 63
     7
 74
     1
 91
        4
 64
     7
 65
   257
 75
     1
175
     1
 42
1.0
 92
        8
 66
     7
 43
1.0
 76
     1
 77
     6
 78
     2
 67
     7
 79
     5
170
     0
171
     0
290
     0
174
     0
 93
        1
 44
0.0
173
     0
291
     1
 45
0.0
1001
ACAD
1000
AcDbSavedByObjectVersion
1070
     0
  0
VISUALSTYLE
  5
2B
102
{ACAD_REACTORS
330
2A
102
}
330
2A
100
AcDbVisualStyle
  2
Flat
 70
     0
 71
     2
 72
     1
 73
     1
 90
        2
 40
-0.6
 41
30.0
 62
     5
 63
     7
 74
     0
 91
        4
 64
     7
 65
   257
 75
     1
175
     1
 42
1.0
 92
        8
 66
     7
 43
1.0
 76
     1
 77
     6
 78
     2
 67
     7
 79
     5
170
     0
171
     0
290
     0
174
     0
 93
       13
 44
0.0
173
     0
291
     1
 45
0.0
1001
ACAD
1000
AcDbSavedByObjectVersion
1070
     0
  0
VISUALSTYLE
  5
2C
102
{ACAD_REACTORS
330
2A
102
}
330
2A
100
AcDbVisualStyle
  2
FlatWithEdges
 70
     1
 71
     2
 72
     1
 73
     1
 90
        2
 40
-0.6
 41
30.0
 62
     5
 63
     7
 74
     1
 91
        4
 64
     7
 65
   257
 75
     1
175
     1
 42
1.0
 92
        0
 66
   257
 43
1.0
 76
     1
 77
     6
 78
     2
 67
     7
 79
     5
170
     0
171
     0
290
     0
174
     0
 93
       13
 44
0.0
173
     0
291
     1
 45
0.0
1001
ACAD
1000
AcDbSavedByObjectVersion
1070
     0
  0
VISUALSTYLE
  5
2D
102
{ACAD_REACTORS
330
2A
102
}
330
2A
100
AcDbVisualStyle
  2
Gouraud
 70
     2
 71
     2
 72
     2
 73
     1
 90
        2
 40
-0.6
 41
30.0
 62
     5
 63
     7
 74
     0
 91
        4
 64
     7
 65
   257
 75
     1
175
     1
 42
1.0
 92
        0
 66
     7
 43
1.0
 76
     1
 77
     6
 78
     2
 67
     7
 79
     5
170
     0
171
     0
290
     0
174
     0
 93
       13
 44
0.0
173
     0
291
     1
 45
0.0
1001
ACAD
1000
AcDbSavedByObjectVersion
1070
     0
  0
VISUALSTYLE
  5
2E
102
{ACAD_REACTORS
330
2A
102
}
330
2A
100
AcDbVisualStyle
  2
GouraudWithEdges
 70
     3
 71
     2
 72
     2
 73
     1
 90
        2
 40
-0.6
 41
30.0
 62
     5
 63
     7
 74
     1
 91
        4
 64
     7
 65
   257
 75
     1
175
     1
 42
1.0
 92
        0
 66
   257
 43
1.0
 76
     1
 77
     6
 78
     2
 67
     7
 79
     5
170
     0
171
     0
290
     0
174
     0
 93
       13
 44
0.0
173
     0
291
     1
 45
0.0
1001
ACAD
1000
AcDbSavedByObjectVersion
1070
     0
  0
VISUALSTYLE
  5
38
102
{ACAD_REACTORS
330
2A
102
}
330
2A
100
AcDbVisualStyle
  2
Linepattern
 70
    14
 71
     2
 72
     2
 73
     0
 90
        0
 40
-0.6
 41
-30.0
 62
     5
 63
     7
 74
     1
 91
        4
 64
     7
 65
   257
 75
     7
175
     7
 42
1.0
 92
        8
 66
     7
 43
1.0
 76
     1
 77
     6
 78
     2
 67
     7
 79
     5
170
     0
171
     0
290
     0
174
     0
 93
        1
 44
0.0
173
     0
291
     1
 45
0.0
1001
ACAD
1000
AcDbSavedByObjectVersion
1070
     0
  0
VISUALSTYLE
  5
33
102
{ACAD_REACTORS
330
2A
102
}
330
2A
100
AcDbVisualStyle
  2
Realistic
 70
     8
 71
     2
 72
     2
 73
     0
 90
        0
 40
-0.6
 41
-30.0
 62
     5
 63
     7
 74
     1
 91
        0
 64
     7
 65
   257
 75
     1
175
     1
 42
1.0
 92
        8
 66
     8
 43
1.0
 76
     1
 77
     6
 78
     2
 67
     7
 79
     5
170
     0
171
     0
290
     0
174
     0
 93
       13
 44
0.0
173
     0
291
     0
 45
0.0
1001
ACAD
1000
AcDbSavedByObjectVersion
1070
     0
  0
VISUALSTYLE
  5
37
102
{ACAD_REACTORS
330
2A
102
}
330
2A
100
AcDbVisualStyle
  2
Thicken
 70
    13
 71
     2
 72
     2
 73
     0
 90
        0
 40
-0.6
 41
-30.0
 62
     5
 63
     7
 74
     1
 91
        4
 64
     7
 65
   257
 75
     1
175
     1
 42
1.0
 92
       12
 66
     7
 43
1.0
 76
     1
 77
     6
 78
     2
 67
     7
 79
     5
170
     0
171
     0
290
     0
174
     0
 93
        1
 44
0.0
173
     0
291
     1
 45
0.0
1001
ACAD
1000
AcDbSavedByObjectVersion
1070
     0
  0
DICTIONARYVAR
  5
237
102
{ACAD_REACTORS
330
235
102
}
330
235
100
DictionaryVariables
280
     0
  1
80.000000
  0
DICTIONARYVAR
  5
236
102
{ACAD_REACTORS
330
235
102
}
330
235
100
DictionaryVariables
280
     0
  1
5.000000
  0
ENDSEC
  0
EOF
