  0
SECTION
  2
HEADER
  9
$ACADVER
  1
AC1015
  9
$ACADMAINTVER
 70
     6
  9
$DWGCODEPAGE
  3
ANSI_1252
  9
$INSBASE
 10
0.0
 20
0.0
 30
0.0
  9
$EXTMIN
 10
0.0
 20
0.0
 30
0.0
  9
$EXTMAX
 10
297.0
 20
210.0
 30
0.0
  9
$LIMMIN
 10
0.0
 20
0.0
  9
$LIMMAX
 10
297.0
 20
210.0
  9
$ORTHOMODE
 70
     0
  9
$REGENMODE
 70
     1
  9
$FILLMODE
 70
     1
  9
$QTEXTMODE
 70
     0
  9
$MIRRTEXT
 70
     1
  9
$LTSCALE
 40
1.0
  9
$ATTMODE
 70
     1
  9
$TEXTSIZE
 40
2.0
  9
$TRACEWID
 40
1.0
  9
$TEXTSTYLE
  7
Standard
  9
$CLAYER
  8
0
  9
$CELTYPE
  6
ByLayer
  9
$CECOLOR
 62
   256
  9
$CELTSCALE
 40
1.0
  9
$DISPSILH
 70
     0
  9
$DIMSCALE
 40
1.0
  9
$DIMASZ
 40
3.0
  9
$DIMEXO
 40
0.0
  9
$DIMDLI
 40
3.75
  9
$DIMRND
 40
0.0
  9
$DIMDLE
 40
0.0
  9
$DIMEXE
 40
1.0
  9
$DIMTP
 40
0.0
  9
$DIMTM
 40
0.0
  9
$DIMTXT
 40
2.0
  9
$DIMCEN
 40
2.5
  9
$DIMTSZ
 40
0.0
  9
$DIMTOL
 70
     0
  9
$DIMLIM
 70
     0
  9
$DIMTIH
 70
     1
  9
$DIMTOH
 70
     1
  9
$DIMSE1
 70
     0
  9
$DIMSE2
 70
     0
  9
$DIMTAD
 70
     1
  9
$DIMZIN
 70
     0
  9
$DIMBLK
  1

  9
$DIMASO
 70
     1
  9
$DIMSHO
 70
     1
  9
$DIMPOST
  1

  9
$DIMAPOST
  1

  9
$DIMALT
 70
     0
  9
$DIMALTD
 70
     3
  9
$DIMALTF
 40
0.0393700787
  9
$DIMLFAC
 40
1.0
  9
$DIMTOFL
 70
     1
  9
$DIMTVP
 40
0.0
  9
$DIMTIX
 70
     0
  9
$DIMSOXD
 70
     0
  9
$DIMSAH
 70
     0
  9
$DIMBLK1
  1

  9
$DIMBLK2
  1

  9
$DIMSTYLE
  2
ISO-25
  9
$DIMCLRD
 70
     0
  9
$DIMCLRE
 70
     0
  9
$DIMCLRT
 70
     0
  9
$DIMTFAC
 40
1.0
  9
$DIMGAP
 40
1.524
  9
$DIMJUST
 70
     0
  9
$DIMSD1
 70
     0
  9
$DIMSD2
 70
     0
  9
$DIMTOLJ
 70
     0
  9
$DIMTZIN
 70
     0
  9
$DIMALTZ
 70
     0
  9
$DIMALTTZ
 70
     0
  9
$DIMUPT
 70
     0
  9
$DIMDEC
 70
     2
  9
$DIMTDEC
 70
     3
  9
$DIMALTU
 70
     2
  9
$DIMALTTD
 70
     3
  9
$DIMTXSTY
  7
Standard
  9
$DIMAUNIT
 70
     0
  9
$DIMADEC
 70
     2
  9
$DIMALTRND
 40
0.0
  9
$DIMAZIN
 70
     0
  9
$DIMDSEP
 70
    44
  9
$DIMATFIT
 70
     3
  9
$DIMFRAC
 70
     0
  9
$DIMLDRBLK
  1

  9
$DIMLUNIT
 70
     2
  9
$DIMLWD
 70
    -2
  9
$DIMLWE
 70
    -2
  9
$DIMTMOVE
 70
     0
  9
$LUNITS
 70
     2
  9
$LUPREC
 70
     2
  9
$SKETCHINC
 40
1.0
  9
$FILLETRAD
 40
10.0
  9
$AUNITS
 70
     0
  9
$AUPREC
 70
     2
  9
$MENU
  1
.
  9
$ELEVATION
 40
0.0
  9
$PELEVATION
 40
0.0
  9
$THICKNESS
 40
0.0
  9
$LIMCHECK
 70
     0
  9
$CHAMFERA
 40
10.0
  9
$CHAMFERB
 40
10.0
  9
$CHAMFERC
 40
20.0
  9
$CHAMFERD
 40
0.0
  9
$SKPOLY
 70
     0
  9
$TDCREATE
 40
2455680.396046736
  9
$TDUCREATE
 40
2455680.312713403
  9
$TDUPDATE
 40
2455680.396046747
  9
$TDUUPDATE
 40
2455680.312713414
  9
$TDINDWG
 40
0.0000000116
  9
$TDUSRTIMER
 40
0.0000000116
  9
$USRTIMER
 70
     1
  9
$ANGBASE
 50
0.0
  9
$ANGDIR
 70
     0
  9
$PDMODE
 70
     0
  9
$PDSIZE
 40
-1.0
  9
$PLINEWID
 40
0.0
  9
$SPLFRAME
 70
     0
  9
$SPLINETYPE
 70
     6
  9
$SPLINESEGS
 70
     8
  9
$HANDSEED
  5
23D
  9
$SURFTAB1
 70
     6
  9
$SURFTAB2
 70
     6
  9
$SURFTYPE
 70
     6
  9
$SURFU
 70
     6
  9
$SURFV
 70
     6
  9
$UCSBASE
  2

  9
$UCSNAME
  2

  9
$UCSORG
 10
0.0
 20
0.0
 30
0.0
  9
$UCSXDIR
 10
1.0
 20
0.0
 30
0.0
  9
$UCSYDIR
 10
0.0
 20
1.0
 30
0.0
  9
$UCSORTHOREF
  2

  9
$UCSORTHOVIEW
 70
     0
  9
$UCSORGTOP
 10
0.0
 20
0.0
 30
0.0
  9
$UCSORGBOTTOM
 10
0.0
 20
0.0
 30
0.0
  9
$UCSORGLEFT
 10
0.0
 20
0.0
 30
0.0
  9
$UCSORGRIGHT
 10
0.0
 20
0.0
 30
0.0
  9
$UCSORGFRONT
 10
0.0
 20
0.0
 30
0.0
  9
$UCSORGBACK
 10
0.0
 20
0.0
 30
0.0
  9
$PUCSBASE
  2

  9
$PUCSNAME
  2

  9
$PUCSORG
 10
0.0
 20
0.0
 30
0.0
  9
$PUCSXDIR
 10
1.0
 20
0.0
 30
0.0
  9
$PUCSYDIR
 10
0.0
 20
1.0
 30
0.0
  9
$PUCSORTHOREF
  2

  9
$PUCSORTHOVIEW
 70
     0
  9
$PUCSORGTOP
 10
0.0
 20
0.0
 30
0.0
  9
$PUCSORGBOTTOM
 10
0.0
 20
0.0
 30
0.0
  9
$PUCSORGLEFT
 10
0.0
 20
0.0
 30
0.0
  9
$PUCSORGRIGHT
 10
0.0
 20
0.0
 30
0.0
  9
$PUCSORGFRONT
 10
0.0
 20
0.0
 30
0.0
  9
$PUCSORGBACK
 10
0.0
 20
0.0
 30
0.0
  9
$USERI1
 70
     0
  9
$USERI2
 70
     0
  9
$USERI3
 70
     0
  9
$USERI4
 70
     0
  9
$USERI5
 70
     0
  9
$USERR1
 40
0.0
  9
$USERR2
 40
0.0
  9
$USERR3
 40
0.0
  9
$USERR4
 40
0.0
  9
$USERR5
 40
0.0
  9
$WORLDVIEW
 70
     1
  9
$SHADEDGE
 70
     3
  9
$SHADEDIF
 70
    70
  9
$TILEMODE
 70
     1
  9
$MAXACTVP
 70
    64
  9
$PINSBASE
 10
0.0
 20
0.0
 30
0.0
  9
$PLIMCHECK
 70
     0
  9
$PEXTMIN
 10
1.0000000000E+20
 20
1.0000000000E+20
 30
1.0000000000E+20
  9
$PEXTMAX
 10
-1.0000000000E+20
 20
-1.0000000000E+20
 30
-1.0000000000E+20
  9
$PLIMMIN
 10
0.0
 20
0.0
  9
$PLIMMAX
 10
420.0
 20
297.0
  9
$UNITMODE
 70
     0
  9
$VISRETAIN
 70
     1
  9
$PLINEGEN
 70
     0
  9
$PSLTSCALE
 70
     1
  9
$TREEDEPTH
 70
  3020
  9
$CMLSTYLE
  2
Standard
  9
$CMLJUST
 70
     0
  9
$CMLSCALE
 40
20.0
  9
$PROXYGRAPHICS
 70
     1
  9
$MEASUREMENT
 70
     1
  9
$CELWEIGHT
370
    -1
  9
$ENDCAPS
280
     0
  9
$JOINSTYLE
280
     0
  9
$LWDISPLAY
290
     1
  9
$INSUNITS
 70
     4
  9
$HYPERLINKBASE
  1

  9
$STYLESHEET
  1

  9
$XEDIT
290
     1
  9
$CEPSNTYPE
380
     0
  9
$PSTYLEMODE
290
     1
  9
$FINGERPRINTGUID
  2
{ACCCE6AD-1852-46A9-9C8F-82F4DD41CE7E}
  9
$VERSIONGUID
  2
{FAEB1C32-E019-11D5-929B-00C0DF256EC4}
  9
$EXTNAMES
290
     1
  9
$PSVPSCALE
 40
0.0
  9
$OLESTARTUP
290
     0
  0
ENDSEC
  0
SECTION
  2
CLASSES
  0
CLASS
  1
ACDBDICTIONARYWDFLT
  2
AcDbDictionaryWithDefault
  3
ObjectDBX Classes
 90
        0
280
     0
281
     0
  0
CLASS
  1
VISUALSTYLE
  2
AcDbVisualStyle
  3
ObjectDBX Classes
 90
     4095
280
     0
281
     0
  0
CLASS
  1
DICTIONARYVAR
  2
AcDbDictionaryVar
  3
ObjectDBX Classes
 90
        0
280
     0
281
     0
  0
CLASS
  1
ACDBPLACEHOLDER
  2
AcDbPlaceHolder
  3
ObjectDBX Classes
 90
        0
280
     0
281
     0
  0
CLASS
  1
LAYOUT
  2
AcDbLayout
  3
ObjectDBX Classes
 90
        0
280
     0
281
     0
  0
ENDSEC
  0
SECTION
  2
TABLES
  0
TABLE
  2
VPORT
  5
8
330
0
100
AcDbSymbolTable
 70
     1
  0
VPORT
  5
29
330
8
100
AcDbSymbolTableRecord
100
AcDbViewportTableRecord
  2
*Active
 70
     0
 10
0.0
 20
0.0
 11
1.0
 21
1.0
 12
148.5
 22
105.0
 13
0.0
 23
0.0
 14
10.0
 24
10.0
 15
10.0
 25
10.0
 16
0.0
 26
0.0
 36
1.0
 17
0.0
 27
0.0
 37
0.0
 40
210.0
 41
1.4142857143
 42
50.0
 43
0.0
 44
0.0
 50
0.0
 51
0.0
 71
     0
 72
  2000
 73
     1
 74
     3
 75
     0
 76
     0
 77
     0
 78
     0
281
     0
 65
     1
110
0.0
120
0.0
130
0.0
111
1.0
121
0.0
131
0.0
112
0.0
122
1.0
132
0.0
 79
     0
146
0.0
  0
ENDTAB
  0
TABLE
  2
LTYPE
  5
5
330
0
100
AcDbSymbolTable
 70
     6
  0
LTYPE
  5
14
330
5
100
AcDbSymbolTableRecord
100
AcDbLinetypeTableRecord
  2
ByBlock
 70
     0
  3

 72
    65
 73
     0
 40
0.0
  0
LTYPE
  5
15
330
5
100
AcDbSymbolTableRecord
100
AcDbLinetypeTableRecord
  2
ByLayer
 70
     0
  3

 72
    65
 73
     0
 40
0.0
  0
LTYPE
  5
16
330
5
100
AcDbSymbolTableRecord
100
AcDbLinetypeTableRecord
  2
Continuous
 70
     0
  3
Solid line
 72
    65
 73
     0
 40
0.0
  0
LTYPE
  5
3B
330
5
100
AcDbSymbolTableRecord
100
AcDbLinetypeTableRecord
  2
HIDDEN
 70
     0
  3
Hidden __ __ __ __ __ __ __ __ __ __ __ __ __ __
 72
    65
 73
     2
 40
1.905
 49
1.27
 74
     0
 49
-0.635
 74
     0
  0
LTYPE
  5
3C
330
5
100
AcDbSymbolTableRecord
100
AcDbLinetypeTableRecord
  2
PHANTOM
 70
     0
  3
Phantom ______  __  __  ______  __  __  ______
 72
    65
 73
     6
 40
12.7
 49
6.35
 74
     0
 49
-1.27
 74
     0
 49
1.27
 74
     0
 49
-1.27
 74
     0
 49
1.27
 74
     0
 49
-1.27
 74
     0
  0
LTYPE
  5
3D
330
5
100
AcDbSymbolTableRecord
100
AcDbLinetypeTableRecord
  2
CENTER
 70
     0
  3
Center ____ _ ____ _ ____ _ ____ _ ____ _ ____
 72
    65
 73
     4
 40
10.16
 49
6.35
 74
     0
 49
-1.27
 74
     0
 49
1.27
 74
     0
 49
-1.27
 74
     0
  0
LTYPE
  5
3E
330
5
100
AcDbSymbolTableRecord
100
AcDbLinetypeTableRecord
  2
CENTERX2
 70
     0
  3
Center (2x) ________  __  ________  __  _____
 72
    65
 73
     4
 40
20.32
 49
12.7
 74
     0
 49
-2.54
 74
     0
 49
2.54
 74
     0
 49
-2.54
 74
     0
  0
LTYPE
  5
3F
330
5
100
AcDbSymbolTableRecord
100
AcDbLinetypeTableRecord
  2
DOT2
 70
     0
  3
Dot (.5x) ........................................
 72
    65
 73
     2
 40
0.635
 49
0.0
 74
     0
 49
-0.635
 74
     0
  0
ENDTAB
  0
TABLE
  2
LAYER
  5
2
330
0
100
AcDbSymbolTable
 70
     5
  0
LAYER
  5
10
330
2
100
AcDbSymbolTableRecord
100
AcDbLayerTableRecord
  2
0
 70
     0
 62
     7
  6
Continuous
370
    -3
390
F
  0
LAYER
  5
40
330
2
100
AcDbSymbolTableRecord
100
AcDbLayerTableRecord
  2
FORMAT
 70
     0
 62
     7
  6
Continuous
370
    -3
390
F
  0
LAYER
  5
41
330
2
100
AcDbSymbolTableRecord
100
AcDbLayerTableRecord
  2
VERMASSUNG
 70
     0
 62
     7
  6
Continuous
370
    -3
390
F
  0
LAYER
  5
42
330
2
100
AcDbSymbolTableRecord
100
AcDbLayerTableRecord
  2
KOPF_DÜNN
 70
     0
 62
     7
  6
Continuous
370
    -3
390
F
  0
LAYER
  5
43
330
2
100
AcDbSymbolTableRecord
100
AcDbLayerTableRecord
  2
KOPF_DICK
 70
     0
 62
     7
  6
Continuous
370
    15
390
F
  0
ENDTAB
  0
TABLE
  2
STYLE
  5
3
330
0
100
AcDbSymbolTable
 70
     3
  0
STYLE
  5
11
330
3
100
AcDbSymbolTableRecord
100
AcDbTextStyleTableRecord
  2
Standard
 70
     0
 40
0.0
 41
1.0
 50
0.0
 71
     0
 42
2.5
  3
txt
  4

  0
STYLE
  5
44
330
3
100
AcDbSymbolTableRecord
100
AcDbTextStyleTableRecord
  2
SLDTEXTSTYLE0
 70
     0
 40
0.0
 41
0.7
 50
0.0
 71
     0
 42
0.2
  3
TXT
  4

  0
STYLE
  5
48
330
3
100
AcDbSymbolTableRecord
100
AcDbTextStyleTableRecord
  2
SLDTEXTSTYLE1
 70
     0
 40
0.0
 41
0.6473684211
 50
0.0
 71
     0
 42
0.2
  3
TXT
  4

  0
ENDTAB
  0
TABLE
  2
VIEW
  5
6
330
0
100
AcDbSymbolTable
 70
     0
  0
ENDTAB
  0
TABLE
  2
UCS
  5
7
330
0
100
AcDbSymbolTable
 70
     0
  0
ENDTAB
  0
TABLE
  2
APPID
  5
9
330
0
100
AcDbSymbolTable
 70
     1
  0
APPID
  5
12
330
9
100
AcDbSymbolTableRecord
100
AcDbRegAppTableRecord
  2
ACAD
 70
     0
  0
ENDTAB
  0
TABLE
  2
DIMSTYLE
  5
A
330
0
100
AcDbSymbolTable
 70
     5
100
AcDbDimStyleTable
  0
DIMSTYLE
105
27
330
A
100
AcDbSymbolTableRecord
100
AcDbDimStyleTableRecord
  2
ISO-25
 70
     0
 41
2.5
 42
0.625
 43
3.75
 44
1.25
 73
     0
 74
     0
 77
     1
 78
     8
140
2.5
141
2.5
143
0.0393700787
147
0.625
171
     3
172
     1
271
     2
272
     2
274
     3
278
    44
283
     0
284
     8
340
11
  0
DIMSTYLE
105
1DE
102
{ACAD_REACTORS
330
1DD
330
218
330
222
330
22C
102
}
330
A
100
AcDbSymbolTableRecord
100
AcDbDimStyleTableRecord
  2
SLDDIMSTYLE0
 70
     0
 41
3.0
 44
0.0
 45
0.000000001
 73
     0
 74
     0
 77
     1
 78
    12
140
2.0
147
0.5
173
     1
271
     2
272
     3
284
    12
340
44
  0
DIMSTYLE
105
1EB
102
{ACAD_REACTORS
330
1EA
102
}
330
A
100
AcDbSymbolTableRecord
100
AcDbDimStyleTableRecord
  2
SLDDIMSTYLE1
 70
     0
 41
3.0
 44
0.0
 45
0.000000001
 73
     0
 74
     0
 77
     1
 78
    12
140
2.0
147
0.5
173
     1
271
     2
272
     2
284
    12
340
44
  0
DIMSTYLE
105
1F6
102
{ACAD_REACTORS
330
1F5
102
}
330
A
100
AcDbSymbolTableRecord
100
AcDbDimStyleTableRecord
  2
SLDDIMSTYLE2
 70
     0
 41
3.0
 44
0.0
 45
0.000000001
 73
     0
 74
     0
 77
     1
 78
    12
140
2.0
147
0.5
173
     1
271
     2
272
     2
284
    12
340
44
  0
DIMSTYLE
105
202
102
{ACAD_REACTORS
330
201
330
20D
102
}
330
A
100
AcDbSymbolTableRecord
100
AcDbDimStyleTableRecord
  2
SLDDIMSTYLE3
 70
     0
 41
3.0
 44
0.0
 45
0.000000001
 73
     0
 74
     0
 77
     1
 78
    12
140
2.0
147
0.5
173
     1
271
     2
272
     3
284
    12
340
44
  0
ENDTAB
  0
TABLE
  2
BLOCK_RECORD
  5
1
330
0
100
AcDbSymbolTable
 70
     9
  0
BLOCK_RECORD
  5
1F
330
1
100
AcDbSymbolTableRecord
100
AcDbBlockTableRecord
  2
*Model_Space
340
22
  0
BLOCK_RECORD
  5
1B
330
1
100
AcDbSymbolTableRecord
100
AcDbBlockTableRecord
  2
*Paper_Space
340
1E
  0
BLOCK_RECORD
  5
23
330
1
100
AcDbSymbolTableRecord
100
AcDbBlockTableRecord
  2
*Paper_Space0
340
26
  0
BLOCK_RECORD
  5
1DF
330
1
100
AcDbSymbolTableRecord
100
AcDbBlockTableRecord
  2
*D1
340
0
  0
BLOCK_RECORD
  5
1EC
330
1
100
AcDbSymbolTableRecord
100
AcDbBlockTableRecord
  2
*D2
340
0
  0
BLOCK_RECORD
  5
1F7
330
1
100
AcDbSymbolTableRecord
100
AcDbBlockTableRecord
  2
*D3
340
0
  0
BLOCK_RECORD
  5
203
330
1
100
AcDbSymbolTableRecord
100
AcDbBlockTableRecord
  2
*D4
340
0
  0
BLOCK_RECORD
  5
20E
330
1
100
AcDbSymbolTableRecord
100
AcDbBlockTableRecord
  2
*D5
340
0
  0
BLOCK_RECORD
  5
219
330
1
100
AcDbSymbolTableRecord
100
AcDbBlockTableRecord
  2
*D6
340
0
  0
BLOCK_RECORD
  5
223
330
1
100
AcDbSymbolTableRecord
100
AcDbBlockTableRecord
  2
*D7
340
0
  0
BLOCK_RECORD
  5
22D
330
1
100
AcDbSymbolTableRecord
100
AcDbBlockTableRecord
  2
*D8
340
0
  0
ENDTAB
  0
ENDSEC
  0
SECTION
  2
BLOCKS
  0
BLOCK
  5
20
330
1F
100
AcDbEntity
  8
0
100
AcDbBlockBegin
  2
*Model_Space
 70
     0
 10
0.0
 20
0.0
 30
0.0
  3
*Model_Space
  1

  0
ENDBLK
  5
21
330
1F
100
AcDbEntity
  8
0
100
AcDbBlockEnd
  0
BLOCK
  5
1C
330
1B
100
AcDbEntity
 67
     1
  8
0
100
AcDbBlockBegin
  2
*Paper_Space
 70
     0
 10
0.0
 20
0.0
 30
0.0
  3
*Paper_Space
  1

  0
ENDBLK
  5
1D
330
1B
100
AcDbEntity
 67
     1
  8
0
100
AcDbBlockEnd
  0
BLOCK
  5
24
330
23
100
AcDbEntity
  8
0
100
AcDbBlockBegin
  2
*Paper_Space0
 70
     0
 10
0.0
 20
0.0
 30
0.0
  3
*Paper_Space0
  1

  0
ENDBLK
  5
25
330
23
100
AcDbEntity
  8
0
100
AcDbBlockEnd
  0
BLOCK
  5
1E0
330
1DF
100
AcDbEntity
  8
0
100
AcDbBlockBegin
  2
*D1
 70
     1
 10
0.0
 20
0.0
 30
0.0
  3
*D1
  1

  0
SOLID
  5
1E2
330
1DF
100
AcDbEntity
  8
VERMASSUNG
100
AcDbTrace
 10
61.4739978332
 20
139.4008667389
 30
0.0
 11
61.0239978332
 21
136.4008667389
 31
0.0
 12
61.9239978332
 22
136.4008667389
 32
0.0
 13
61.9239978332
 23
136.4008667389
 33
0.0
  0
SOLID
  5
1E3
330
1DF
100
AcDbEntity
  8
VERMASSUNG
100
AcDbTrace
 10
61.4739978332
 20
76.4008667389
 30
0.0
 11
61.9239978332
 21
79.4008667389
 31
0.0
 12
61.0239978332
 22
79.4008667389
 32
0.0
 13
61.0239978332
 23
79.4008667389
 33
0.0
  0
LINE
  5
1E4
330
1DF
100
AcDbEntity
  8
VERMASSUNG
100
AcDbLine
 10
97.679083009
 20
139.4008667389
 30
0.0
 11
60.4739978332
 21
139.4008667389
 31
0.0
  0
LINE
  5
1E5
330
1DF
100
AcDbEntity
  8
VERMASSUNG
100
AcDbLine
 10
97.679083009
 20
76.4008667389
 30
0.0
 11
60.4739978332
 21
76.4008667389
 31
0.0
  0
LINE
  5
1E6
330
1DF
100
AcDbEntity
  8
VERMASSUNG
100
AcDbLine
 10
61.4739978332
 20
139.4008667389
 30
0.0
 11
61.4739978332
 21
76.4008667389
 31
0.0
  0
MTEXT
  5
1E7
330
1DF
100
AcDbEntity
  8
VERMASSUNG
100
AcDbMText
 10
58.6958623441
 20
100.1973250271
 30
0.0
 40
2.0
 41
0.0
 71
     1
 72
     1
  1
HSK A 
  7
SLDTEXTSTYLE0
 11
-7.044195017643634E-15
 21
1.0
 31
0.0
 73
     1
 44
1.0
  0
MTEXT
  5
1E8
330
1DF
100
AcDbEntity
  8
VERMASSUNG
100
AcDbMText
 10
58.8958623536
 20
109.197325571
 30
0.0
 40
2.0
 41
0.0
 71
     1
 72
     1
  1
%%c
  7
SLDTEXTSTYLE0
 11
-7.044195017643634E-15
 21
1.0
 31
0.0
 73
     1
 44
1.0
  0
MTEXT
  5
1E9
330
1DF
100
AcDbEntity
  8
VERMASSUNG
100
AcDbMText
 10
58.89586247
 20
112.805652221
 30
0.0
 40
2.0
 41
0.0
 71
     1
 72
     1
  1
63
  7
SLDTEXTSTYLE0
 11
-7.044195017643634E-15
 21
1.0
 31
0.0
 73
     1
 44
1.0
  0
ENDBLK
  5
1E1
330
1DF
100
AcDbEntity
  8
0
100
AcDbBlockEnd
  0
BLOCK
  5
1ED
330
1EC
100
AcDbEntity
  8
0
100
AcDbBlockBegin
  2
*D2
 70
     1
 10
0.0
 20
0.0
 30
0.0
  3
*D2
  1

  0
SOLID
  5
1EF
330
1EC
100
AcDbEntity
  8
VERMASSUNG
100
AcDbTrace
 10
180.879083009
 20
138.0698808234
 30
0.0
 11
183.879083009
 21
137.6198808234
 31
0.0
 12
183.879083009
 22
138.5198808234
 32
0.0
 13
183.879083009
 23
138.5198808234
 33
0.0
  0
SOLID
  5
1F0
330
1EC
100
AcDbEntity
  8
VERMASSUNG
100
AcDbTrace
 10
227.379083009
 20
138.0698808234
 30
0.0
 11
224.379083009
 21
138.5198808234
 31
0.0
 12
224.379083009
 22
137.6198808234
 32
0.0
 13
224.379083009
 23
137.6198808234
 33
0.0
  0
LINE
  5
1F1
330
1EC
100
AcDbEntity
  8
VERMASSUNG
100
AcDbLine
 10
180.879083009
 20
114.8008667389
 30
0.0
 11
180.879083009
 21
139.0698808234
 31
0.0
  0
LINE
  5
1F2
330
1EC
100
AcDbEntity
  8
VERMASSUNG
100
AcDbLine
 10
227.379083009
 20
119.5520857556
 30
0.0
 11
227.379083009
 21
139.0698808234
 31
0.0
  0
LINE
  5
1F3
330
1EC
100
AcDbEntity
  8
VERMASSUNG
100
AcDbLine
 10
180.879083009
 20
138.0698808234
 30
0.0
 11
227.379083009
 21
138.0698808234
 31
0.0
  0
MTEXT
  5
1F4
330
1EC
100
AcDbEntity
  8
VERMASSUNG
100
AcDbMText
 10
201.6296962268
 20
140.6480161865
 30
0.0
 40
2.0
 41
0.0
 71
     1
 72
     1
  1
46.5
  7
SLDTEXTSTYLE0
 73
     1
 44
1.0
  0
ENDBLK
  5
1EE
330
1EC
100
AcDbEntity
  8
0
100
AcDbBlockEnd
  0
BLOCK
  5
1F8
330
1F7
100
AcDbEntity
  8
0
100
AcDbBlockBegin
  2
*D3
 70
     1
 10
0.0
 20
0.0
 30
0.0
  3
*D3
  1

  0
SOLID
  5
1FA
330
1F7
100
AcDbEntity
  8
VERMASSUNG
100
AcDbTrace
 10
234.3656554713
 20
100.9008667389
 30
0.0
 11
234.8156554713
 21
103.9008667389
 31
0.0
 12
233.9156554713
 22
103.9008667389
 32
0.0
 13
233.9156554713
 23
103.9008667389
 33
0.0
  0
SOLID
  5
1FB
330
1F7
100
AcDbEntity
  8
VERMASSUNG
100
AcDbTrace
 10
234.3656554713
 20
114.9008667389
 30
0.0
 11
233.9156554713
 21
111.9008667389
 31
0.0
 12
234.8156554713
 22
111.9008667389
 32
0.0
 13
234.8156554713
 23
111.9008667389
 33
0.0
  0
LINE
  5
1FC
330
1F7
100
AcDbEntity
  8
VERMASSUNG
100
AcDbLine
 10
223.879083009
 20
100.9008667389
 30
0.0
 11
235.3656554713
 21
100.9008667389
 31
0.0
  0
LINE
  5
1FD
330
1F7
100
AcDbEntity
  8
VERMASSUNG
100
AcDbLine
 10
223.879083009
 20
114.9008667389
 30
0.0
 11
235.3656554713
 21
114.9008667389
 31
0.0
  0
LINE
  5
1FE
330
1F7
100
AcDbEntity
  8
VERMASSUNG
100
AcDbLine
 10
234.3656554713
 20
100.9008667389
 30
0.0
 11
234.3656554713
 21
114.9008667389
 31
0.0
  0
MTEXT
  5
1FF
330
1F7
100
AcDbEntity
  8
VERMASSUNG
100
AcDbMText
 10
231.7875199917
 20
104.7969393283
 30
0.0
 40
2.0
 41
0.0
 71
     1
 72
     1
  1
%%c
  7
SLDTEXTSTYLE0
 11
6.123233995736766E-17
 21
1.0
 31
0.0
 73
     1
 44
1.0
  0
MTEXT
  5
200
330
1F7
100
AcDbEntity
  8
VERMASSUNG
100
AcDbMText
 10
231.7875201082
 20
108.4056175515
 30
0.0
 40
2.0
 41
0.0
 71
     1
 72
     1
  1
14
  7
SLDTEXTSTYLE0
 11
6.123233995736766E-17
 21
1.0
 31
0.0
 73
     1
 44
1.0
  0
ENDBLK
  5
1F9
330
1F7
100
AcDbEntity
  8
0
100
AcDbBlockEnd
  0
BLOCK
  5
204
330
203
100
AcDbEntity
  8
0
100
AcDbBlockBegin
  2
*D4
 70
     1
 10
0.0
 20
0.0
 30
0.0
  3
*D4
  1

  0
SOLID
  5
206
330
203
100
AcDbEntity
  8
VERMASSUNG
100
AcDbTrace
 10
240.3656554713
 20
94.4008667389
 30
0.0
 11
240.8156554713
 21
97.4008667389
 31
0.0
 12
239.9156554713
 22
97.4008667389
 32
0.0
 13
239.9156554713
 23
97.4008667389
 33
0.0
  0
SOLID
  5
207
330
203
100
AcDbEntity
  8
VERMASSUNG
100
AcDbTrace
 10
240.3656554713
 20
121.4008667389
 30
0.0
 11
239.9156554713
 21
118.4008667389
 31
0.0
 12
240.8156554713
 22
118.4008667389
 32
0.0
 13
240.8156554713
 23
118.4008667389
 33
0.0
  0
LINE
  5
208
330
203
100
AcDbEntity
  8
VERMASSUNG
100
AcDbLine
 10
227.379083009
 20
94.4008667389
 30
0.0
 11
241.3656554713
 21
94.4008667389
 31
0.0
  0
LINE
  5
209
330
203
100
AcDbEntity
  8
VERMASSUNG
100
AcDbLine
 10
227.379083009
 20
121.4008667389
 30
0.0
 11
241.3656554713
 21
121.4008667389
 31
0.0
  0
LINE
  5
20A
330
203
100
AcDbEntity
  8
VERMASSUNG
100
AcDbLine
 10
240.3656554713
 20
94.4008667389
 30
0.0
 11
240.3656554713
 21
121.4008667389
 31
0.0
  0
MTEXT
  5
20B
330
203
100
AcDbEntity
  8
VERMASSUNG
100
AcDbMText
 10
237.7875199917
 20
104.6971495125
 30
0.0
 40
2.0
 41
0.0
 71
     1
 72
     1
  1
%%c
  7
SLDTEXTSTYLE0
 11
6.123233995736766E-17
 21
1.0
 31
0.0
 73
     1
 44
1.0
  0
MTEXT
  5
20C
330
203
100
AcDbEntity
  8
VERMASSUNG
100
AcDbMText
 10
237.7875201082
 20
108.3058277356
 30
0.0
 40
2.0
 41
0.0
 71
     1
 72
     1
  1
27
  7
SLDTEXTSTYLE0
 11
6.123233995736766E-17
 21
1.0
 31
0.0
 73
     1
 44
1.0
  0
ENDBLK
  5
205
330
203
100
AcDbEntity
  8
0
100
AcDbBlockEnd
  0
BLOCK
  5
20F
330
20E
100
AcDbEntity
  8
0
100
AcDbBlockBegin
  2
*D5
 70
     1
 10
0.0
 20
0.0
 30
0.0
  3
*D5
  1

  0
SOLID
  5
211
330
20E
100
AcDbEntity
  8
VERMASSUNG
100
AcDbTrace
 10
246.3656554713
 20
90.9008667389
 30
0.0
 11
246.8156554713
 21
93.9008667389
 31
0.0
 12
245.9156554713
 22
93.9008667389
 32
0.0
 13
245.9156554713
 23
93.9008667389
 33
0.0
  0
SOLID
  5
212
330
20E
100
AcDbEntity
  8
VERMASSUNG
100
AcDbTrace
 10
246.3656554713
 20
124.9008667389
 30
0.0
 11
245.9156554713
 21
121.9008667389
 31
0.0
 12
246.8156554713
 22
121.9008667389
 32
0.0
 13
246.8156554713
 23
121.9008667389
 33
0.0
  0
LINE
  5
213
330
20E
100
AcDbEntity
  8
VERMASSUNG
100
AcDbLine
 10
167.379083009
 20
90.9008667389
 30
0.0
 11
247.3656554713
 21
90.9008667389
 31
0.0
  0
LINE
  5
214
330
20E
100
AcDbEntity
  8
VERMASSUNG
100
AcDbLine
 10
167.379083009
 20
124.9008667389
 30
0.0
 11
247.3656554713
 21
124.9008667389
 31
0.0
  0
LINE
  5
215
330
20E
100
AcDbEntity
  8
VERMASSUNG
100
AcDbLine
 10
246.3656554713
 20
90.9008667389
 30
0.0
 11
246.3656554713
 21
124.9008667389
 31
0.0
  0
MTEXT
  5
216
330
20E
100
AcDbEntity
  8
VERMASSUNG
100
AcDbMText
 10
243.7875199917
 20
104.5973596966
 30
0.0
 40
2.0
 41
0.0
 71
     1
 72
     1
  1
%%c
  7
SLDTEXTSTYLE0
 11
6.123233995736766E-17
 21
1.0
 31
0.0
 73
     1
 44
1.0
  0
MTEXT
  5
217
330
20E
100
AcDbEntity
  8
VERMASSUNG
100
AcDbMText
 10
243.7875201082
 20
108.2060379198
 30
0.0
 40
2.0
 41
0.0
 71
     1
 72
     1
  1
34
  7
SLDTEXTSTYLE0
 11
6.123233995736766E-17
 21
1.0
 31
0.0
 73
     1
 44
1.0
  0
ENDBLK
  5
210
330
20E
100
AcDbEntity
  8
0
100
AcDbBlockEnd
  0
BLOCK
  5
21A
330
219
100
AcDbEntity
  8
0
100
AcDbBlockBegin
  2
*D6
 70
     1
 10
0.0
 20
0.0
 30
0.0
  3
*D6
  1

  0
SOLID
  5
21C
330
219
100
AcDbEntity
  8
VERMASSUNG
100
AcDbTrace
 10
97.379083009
 20
150.0698808234
 30
0.0
 11
100.379083009
 21
149.6198808234
 31
0.0
 12
100.379083009
 22
150.5198808234
 32
0.0
 13
100.379083009
 23
150.5198808234
 33
0.0
  0
SOLID
  5
21D
330
219
100
AcDbEntity
  8
VERMASSUNG
100
AcDbTrace
 10
227.379083009
 20
150.0698808234
 30
0.0
 11
224.379083009
 21
150.5198808234
 31
0.0
 12
224.379083009
 22
149.6198808234
 32
0.0
 13
224.379083009
 23
149.6198808234
 33
0.0
  0
LINE
  5
21E
330
219
100
AcDbEntity
  8
VERMASSUNG
100
AcDbLine
 10
97.379083009
 20
139.1008667389
 30
0.0
 11
97.379083009
 21
151.0698808234
 31
0.0
  0
LINE
  5
21F
330
219
100
AcDbEntity
  8
VERMASSUNG
100
AcDbLine
 10
227.379083009
 20
119.5520857556
 30
0.0
 11
227.379083009
 21
151.0698808234
 31
0.0
  0
LINE
  5
220
330
219
100
AcDbEntity
  8
VERMASSUNG
100
AcDbLine
 10
97.379083009
 20
150.0698808234
 30
0.0
 11
227.379083009
 21
150.0698808234
 31
0.0
  0
MTEXT
  5
221
330
219
100
AcDbEntity
  8
VERMASSUNG
100
AcDbMText
 10
160.4795954684
 20
152.6480161865
 30
0.0
 40
2.0
 41
0.0
 71
     1
 72
     1
  1
130
  7
SLDTEXTSTYLE0
 73
     1
 44
1.0
  0
ENDBLK
  5
21B
330
219
100
AcDbEntity
  8
0
100
AcDbBlockEnd
  0
BLOCK
  5
224
330
223
100
AcDbEntity
  8
0
100
AcDbBlockBegin
  2
*D7
 70
     1
 10
0.0
 20
0.0
 30
0.0
  3
*D7
  1

  0
SOLID
  5
226
330
223
100
AcDbEntity
  8
VERMASSUNG
100
AcDbTrace
 10
123.329083009
 20
144.0698808234
 30
0.0
 11
126.329083009
 21
143.6198808234
 31
0.0
 12
126.329083009
 22
144.5198808234
 32
0.0
 13
126.329083009
 23
144.5198808234
 33
0.0
  0
SOLID
  5
227
330
223
100
AcDbEntity
  8
VERMASSUNG
100
AcDbTrace
 10
227.379083009
 20
144.0698808234
 30
0.0
 11
224.379083009
 21
144.5198808234
 31
0.0
 12
224.379083009
 22
143.6198808234
 32
0.0
 13
224.379083009
 23
143.6198808234
 33
0.0
  0
LINE
  5
228
330
223
100
AcDbEntity
  8
VERMASSUNG
100
AcDbLine
 10
123.329083009
 20
137.7473070627
 30
0.0
 11
123.329083009
 21
145.0698808234
 31
0.0
  0
LINE
  5
229
330
223
100
AcDbEntity
  8
VERMASSUNG
100
AcDbLine
 10
227.379083009
 20
119.5003144987
 30
0.0
 11
227.379083009
 21
145.0698808234
 31
0.0
  0
LINE
  5
22A
330
223
100
AcDbEntity
  8
VERMASSUNG
100
AcDbLine
 10
123.329083009
 20
144.0698808234
 30
0.0
 11
227.379083009
 21
144.0698808234
 31
0.0
  0
MTEXT
  5
22B
330
223
100
AcDbEntity
  8
VERMASSUNG
100
AcDbMText
 10
171.6548977436
 20
146.6480161865
 30
0.0
 40
2.0
 41
0.0
 71
     1
 72
     1
  1
104.05
  7
SLDTEXTSTYLE0
 73
     1
 44
1.0
  0
ENDBLK
  5
225
330
223
100
AcDbEntity
  8
0
100
AcDbBlockEnd
  0
BLOCK
  5
22E
330
22D
100
AcDbEntity
  8
0
100
AcDbBlockBegin
  2
*D8
 70
     1
 10
0.0
 20
0.0
 30
0.0
  3
*D8
  1

  0
SOLID
  5
230
330
22D
100
AcDbEntity
  8
VERMASSUNG
100
AcDbTrace
 10
65.479083009
 20
156.0698808234
 30
0.0
 11
68.479083009
 21
155.6198808234
 31
0.0
 12
68.479083009
 22
156.5198808234
 32
0.0
 13
68.479083009
 23
156.5198808234
 33
0.0
  0
SOLID
  5
231
330
22D
100
AcDbEntity
  8
VERMASSUNG
100
AcDbTrace
 10
227.379083009
 20
156.0698808234
 30
0.0
 11
224.379083009
 21
156.5198808234
 31
0.0
 12
224.379083009
 22
155.6198808234
 32
0.0
 13
224.379083009
 23
155.6198808234
 33
0.0
  0
LINE
  5
232
330
22D
100
AcDbEntity
  8
VERMASSUNG
100
AcDbLine
 10
65.479083009
 20
127.5915444854
 30
0.0
 11
65.479083009
 21
157.0698808234
 31
0.0
  0
LINE
  5
233
330
22D
100
AcDbEntity
  8
VERMASSUNG
100
AcDbLine
 10
227.379083009
 20
119.5003144987
 30
0.0
 11
227.379083009
 21
157.0698808234
 31
0.0
  0
LINE
  5
234
330
22D
100
AcDbEntity
  8
VERMASSUNG
100
AcDbLine
 10
65.479083009
 20
156.0698808234
 30
0.0
 11
227.379083009
 21
156.0698808234
 31
0.0
  0
MTEXT
  5
235
330
22D
100
AcDbEntity
  8
VERMASSUNG
100
AcDbMText
 10
143.7301165951
 20
158.6480161865
 30
0.0
 40
2.0
 41
0.0
 71
     1
 72
     1
  1
161.9
  7
SLDTEXTSTYLE0
 73
     1
 44
1.0
  0
ENDBLK
  5
22F
330
22D
100
AcDbEntity
  8
0
100
AcDbBlockEnd
  0
ENDSEC
  0
SECTION
  2
ENTITIES
  0
MTEXT
  5
45
330
1F
100
AcDbEntity
  8
KOPF_DÜNN
100
AcDbMText
 10
13.8892156294
 20
23.8442973028
 30
0.0
 40
3.0
 41
0.0
 71
     1
 72
     1
  1
HA6.S14.K21.130
  7
SLDTEXTSTYLE0
 73
     1
 44
1.0
  0
MTEXT
  5
46
330
1F
100
AcDbEntity
  8
VERMASSUNG
100
AcDbMText
 10
13.9329988022
 20
28.8834360957
 30
0.0
 40
3.0
 41
0.0
 71
     1
 72
     1
  1
Schrumpffutter_Heat shrink chuck
  7
SLDTEXTSTYLE0
 73
     1
 44
1.0
  0
MTEXT
  5
47
330
1F
100
AcDbEntity
  8
VERMASSUNG
100
AcDbMText
 10
98.8601118557
 20
13.8365368179
 30
0.0
 40
2.0
 41
0.0
 71
     1
 72
     1
  1
Datum: 27.04.2011
  7
SLDTEXTSTYLE0
 73
     1
 44
1.0
  0
MTEXT
  5
49
330
1F
100
AcDbEntity
  8
VERMASSUNG
100
AcDbMText
 10
13.933048693
 20
18.0482802738
 30
0.0
 40
2.0
 41
0.0
 71
     1
 72
     1
  1
DIN 69 893 HSK A 63
  7
SLDTEXTSTYLE1
 73
     1
 44
1.0
  0
MTEXT
  5
4A
330
1F
100
AcDbEntity
  8
VERMASSUNG
100
AcDbMText
 10
13.9808475933
 20
13.9090973692
 30
0.0
 40
2.0
 41
0.0
 71
     1
 72
     1
  1
Gewicht: 1252g
  7
SLDTEXTSTYLE0
 73
     1
 44
1.0
  0
LINE
  5
4B
330
1F
100
AcDbEntity
  8
0
  6
Continuous
 62
     7
370
    15
100
AcDbLine
 10
97.6790830232
 20
76.4008662323
 30
0.0
 11
102.3290829822
 21
76.4008662323
 31
0.0
  0
LINE
  5
4C
330
1F
100
AcDbEntity
  8
0
  6
Continuous
 62
     7
370
    15
100
AcDbLine
 10
102.3570715539
 20
139.4008672455
 30
0.0
 11
97.6790830232
 21
139.4008672455
 31
0.0
  0
ARC
  5
4D
330
1F
100
AcDbEntity
  8
0
  6
Continuous
 62
     7
370
    15
100
AcDbCircle
 10
97.679083009
 20
76.7008667389
 30
0.0
 40
0.3000000000000114
100
AcDbArc
 50
180.0
 51
270.0
  0
ARC
  5
4E
330
1F
100
AcDbEntity
  8
0
  6
Continuous
 62
     7
370
    15
100
AcDbCircle
 10
97.679083009
 20
139.1008667389
 30
0.0
 40
0.3000000000000114
100
AcDbArc
 50
90.0
 51
180.0
  0
ARC
  5
4F
330
1F
100
AcDbEntity
  8
0
  6
Continuous
 62
     7
370
    15
100
AcDbCircle
 10
96.8790762563
 20
83.3304291245
 30
0.0
 40
0.6000067526677242
100
AcDbArc
 50
33.5571153394
 51
90.0
  0
ARC
  5
50
330
1F
100
AcDbEntity
  8
0
  6
Continuous
 62
     7
370
    15
100
AcDbCircle
 10
96.8790762563
 20
132.4713043533
 30
0.0
 40
0.6000067526677242
100
AcDbArc
 50
270.0
 51
326.4428846606
  0
LINE
  5
51
330
1F
100
AcDbEntity
  8
0
  6
Continuous
 62
     7
370
    15
100
AcDbLine
 10
95.379082914
 20
83.6804355154
 30
0.0
 11
96.2357958402
 21
83.9099916289
 31
0.0
  0
LINE
  5
52
330
1F
100
AcDbEntity
  8
0
  6
Continuous
 62
     7
370
    15
100
AcDbLine
 10
96.2357958402
 20
131.8917418489
 30
0.0
 11
95.379082914
 21
132.1212979624
 31
0.0
  0
LINE
  5
53
330
1F
100
AcDbEntity
  8
0
  6
Continuous
 62
     7
370
    15
100
AcDbLine
 10
84.1486604973
 20
131.5586506048
 30
0.0
 11
71.5790821328
 21
130.9289126316
 31
0.0
  0
LINE
  5
54
330
1F
100
AcDbEntity
  8
0
  6
Continuous
 62
     7
370
    15
100
AcDbLine
 10
95.379082914
 20
132.1212979624
 30
0.0
 11
92.560473559
 21
131.9800852457
 31
0.0
  0
LINE
  5
55
330
1F
100
AcDbEntity
  8
0
  6
Continuous
 62
     7
370
    15
100
AcDbLine
 10
92.5606952138
 20
83.8216370562
 30
0.0
 11
95.379082914
 21
83.6804355154
 31
0.0
  0
LINE
  5
56
330
1F
100
AcDbEntity
  8
0
  6
Continuous
 62
     7
370
    15
100
AcDbLine
 10
75.5790827885
 20
84.6724207172
 30
0.0
 11
84.1493599206
 21
84.2430474827
 31
0.0
  0
ARC
  5
57
330
1F
100
AcDbEntity
  8
0
  6
Continuous
 62
     7
370
    15
100
AcDbCircle
 10
96.3910872094
 20
83.3304358772
 30
0.0
 40
0.6000000000000085
100
AcDbArc
 50
90.0
 51
105.0
  0
ARC
  5
58
330
1F
100
AcDbEntity
  8
0
  6
Continuous
 62
     7
370
    15
100
AcDbCircle
 10
96.3910872094
 20
132.4712976006
 30
0.0
 40
0.6000000000000227
100
AcDbArc
 50
255.0
 51
270.0
  0
LINE
  5
59
330
1F
100
AcDbEntity
  8
0
  6
Continuous
 62
     7
370
    15
100
AcDbLine
 10
96.3910872438
 20
83.930436022
 30
0.0
 11
96.8790762332
 21
83.930436022
 31
0.0
  0
LINE
  5
5A
330
1F
100
AcDbEntity
  8
0
  6
Continuous
 62
     7
370
    15
100
AcDbLine
 10
96.8790762332
 20
131.8712974558
 30
0.0
 11
96.3910872438
 21
131.8712974558
 31
0.0
  0
ARC
  5
5B
330
1F
100
AcDbEntity
  8
0
  6
Continuous
 62
     7
370
    15
100
AcDbCircle
 10
126.329083009
 20
84.8849079374
 30
0.0
 40
3.000000000000014
100
AcDbArc
 50
104.3250519401
 51
180.0
  0
ARC
  5
5C
330
1F
100
AcDbEntity
  8
0
  6
Continuous
 62
     7
370
    15
100
AcDbCircle
 10
126.329083009
 20
130.9168255404
 30
0.0
 40
3.000000000000016
100
AcDbArc
 50
180.0
 51
255.6749480599
  0
ARC
  5
5D
330
1F
100
AcDbEntity
  8
0
  6
Continuous
 62
     7
370
    15
100
AcDbCircle
 10
150.329083009
 20
-9.0991332611
 30
0.0
 40
100.0
100
AcDbArc
 50
90.0
 51
104.3250519401
  0
ARC
  5
5E
330
1F
100
AcDbEntity
  8
0
  6
Continuous
 62
     7
370
    15
100
AcDbCircle
 10
150.329083009
 20
224.9008667389
 30
0.0
 40
100.0
100
AcDbArc
 50
255.6749480599
 51
270.0
  0
LINE
  5
5F
330
1F
100
AcDbEntity
  8
0
  6
Continuous
 62
     7
370
    15
100
AcDbLine
 10
162.8238430335
 20
90.900865815
 30
0.0
 11
182.9073673203
 21
90.900865815
 31
0.0
  0
LINE
  5
60
330
1F
100
AcDbEntity
  8
0
  6
Continuous
 62
     7
370
    15
100
AcDbLine
 10
150.3290815368
 20
90.900865815
 30
0.0
 11
155.8705067351
 21
90.900865815
 31
0.0
  0
LINE
  5
61
330
1F
100
AcDbEntity
  8
0
  6
Continuous
 62
     7
370
    15
100
AcDbLine
 10
155.8564959183
 20
124.9008676628
 30
0.0
 11
150.3290815368
 21
124.9008676628
 31
0.0
  0
LINE
  5
62
330
1F
100
AcDbEntity
  8
0
  6
Continuous
 62
     7
370
    15
100
AcDbLine
 10
182.9073673203
 20
124.9008676628
 30
0.0
 11
162.7955159261
 21
124.9008676628
 31
0.0
  0
LINE
  5
63
330
1F
100
AcDbEntity
  8
0
  6
Continuous
 62
     7
370
    15
100
AcDbLine
 10
182.9073673203
 20
90.900865815
 30
0.0
 11
225.535998316
 21
94.2558128977
 31
0.0
  0
LINE
  5
64
330
1F
100
AcDbEntity
  8
0
  6
Continuous
 62
     7
370
    15
100
AcDbLine
 10
225.535998316
 20
121.5459205801
 30
0.0
 11
182.9073673203
 21
124.9008676628
 31
0.0
  0
ARC
  5
65
330
1F
100
AcDbEntity
  8
0
  6
Continuous
 62
     7
370
    15
100
AcDbCircle
 10
225.379083009
 20
96.2496477222
 30
0.0
 40
2.000000000000017
100
AcDbArc
 50
274.5
 51
334.6108581548
  0
ARC
  5
66
330
1F
100
AcDbEntity
  8
0
  6
Continuous
 62
     7
370
    15
100
AcDbCircle
 10
225.379083009
 20
119.5520857556
 30
0.0
 40
2.000000000000017
100
AcDbArc
 50
25.3891418452
 51
85.5
  0
LINE
  5
67
330
1F
100
AcDbEntity
  8
0
  6
Continuous
 62
     7
370
    15
100
AcDbLine
 10
66.7624196126
 20
87.0308666149
 30
0.0
 11
74.179083304
 21
87.0308666149
 31
0.0
  0
ARC
  5
68
330
1F
100
AcDbEntity
  8
0
  6
Continuous
 62
     7
370
    15
100
AcDbCircle
 10
74.179083009
 20
85.6308667389
 30
0.0
 40
1.399999999999997
100
AcDbArc
 50
42.2465410162
 51
90.0
  0
LINE
  5
69
330
1F
100
AcDbEntity
  8
0
  6
Continuous
 62
     7
370
    15
100
AcDbLine
 10
65.4801150873
 20
88.1798336873
 30
0.0
 11
66.620245771
 21
87.0397030035
 31
0.0
  0
LINE
  5
6A
330
1F
100
AcDbEntity
  8
0
  6
Continuous
 62
     7
370
    15
100
AcDbLine
 10
66.620245771
 20
128.7620304743
 30
0.0
 11
65.4889850035
 21
127.6307678441
 31
0.0
  0
ARC
  5
6B
330
1F
100
AcDbEntity
  8
0
  6
Continuous
 62
     7
370
    15
100
AcDbCircle
 10
70.179083009
 20
130.1708667389
 30
0.0
 40
1.399999999999984
100
AcDbArc
 50
270.0
 51
301.7485287426
  0
LINE
  5
6C
330
1F
100
AcDbEntity
  8
0
  6
Continuous
 62
     7
370
    15
100
AcDbLine
 10
70.1790826484
 20
128.7708668629
 30
0.0
 11
66.7533485308
 21
128.7708668629
 31
0.0
  0
LINE
  5
6D
330
1F
100
AcDbEntity
  8
0
  6
Continuous
 62
     7
370
    15
100
AcDbLine
 10
227.1859144881
 20
95.392119571
 30
0.0
 11
227.3056006148
 21
95.3968218187
 31
0.0
  0
LINE
  5
6E
330
1F
100
AcDbEntity
  8
0
  6
Continuous
 62
     7
370
    15
100
AcDbLine
 10
227.3056006148
 20
95.3968218187
 30
0.0
 11
227.4564003661
 21
95.6834642807
 31
0.0
  0
LINE
  5
6F
330
1F
100
AcDbEntity
  8
0
  6
Continuous
 62
     7
370
    15
100
AcDbLine
 10
227.2467112257
 20
120.4072250644
 30
0.0
 11
227.1859144881
 21
120.4096139068
 31
0.0
  0
LINE
  5
70
330
1F
100
AcDbEntity
  8
0
  6
Continuous
 62
     7
370
    15
100
AcDbLine
 10
227.397510977
 20
120.1205835337
 30
0.0
 11
227.2467112257
 21
120.4072250644
 31
0.0
  0
LINE
  5
71
330
1F
100
AcDbEntity
  8
0
  6
Continuous
 62
     7
370
    15
100
AcDbLine
 10
118.7710149302
 20
77.7139491061
 30
0.0
 11
118.7710149302
 21
127.750867478
 31
0.0
  0
SPLINE
  5
72
330
1F
100
AcDbEntity
  8
0
  6
Continuous
 62
     7
370
    15
100
AcDbSpline
210
0.0
220
0.0
230
1.0
 70
     8
 71
     3
 72
     8
 73
     4
 74
     0
 42
0.00000001
 43
0.00000001
 40
0.0
 40
0.0
 40
0.0
 40
0.0
 40
1.0
 40
1.0
 40
1.0
 40
1.0
 10
118.7710158404897
 20
77.71394904264781
 30
0.0
 10
118.275536179824
 20
78.60947513058117
 30
0.0
 10
117.7814221317819
 20
79.50575954563342
 30
0.0
 10
117.2890830090007
 20
80.40302957984012
 30
0.0
  0
LINE
  5
73
330
1F
100
AcDbEntity
  8
0
  6
Continuous
 62
     7
370
    15
100
AcDbLine
 10
117.2890832736
 20
80.4030294189
 30
0.0
 11
117.2890832736
 21
127.750867478
 31
0.0
  0
SPLINE
  5
74
330
1F
100
AcDbEntity
  8
0
  6
Continuous
 62
     7
370
    15
100
AcDbSpline
210
0.0
220
0.0
230
1.0
 70
    24
 71
     3
 72
     8
 73
     4
 74
     0
 42
0.00000001
 43
0.00000001
 40
0.0
 40
0.0
 40
0.0
 40
0.0
 40
1.0
 40
1.0
 40
1.0
 40
1.0
 10
117.2890830090007
 20
127.750866738895
 30
0.0
 10
117.7690350033656
 20
127.750866738895
 30
0.0
 10
118.2643357323392
 20
127.750866738895
 30
0.0
 10
118.7710158404897
 20
127.750866738895
 30
0.0
  0
LINE
  5
75
330
1F
100
AcDbEntity
  8
0
  6
Continuous
 62
     7
370
    15
100
AcDbLine
 10
122.7290837183
 20
77.7139491061
 30
0.0
 11
118.7710149302
 21
77.7139491061
 31
0.0
  0
LINE
  5
76
330
1F
100
AcDbEntity
  8
0
  6
Continuous
 62
     7
370
    15
100
AcDbLine
 10
118.7710149302
 20
127.750867478
 30
0.0
 11
122.7290837183
 21
127.750867478
 31
0.0
  0
LINE
  5
77
330
1F
100
AcDbEntity
  8
0
  6
Continuous
 62
     7
370
    15
100
AcDbLine
 10
123.3290826991
 20
78.3405895004
 30
0.0
 11
123.3290826991
 21
127.750867478
 31
0.0
  0
SPLINE
  5
78
330
1F
100
AcDbEntity
  8
0
  6
Continuous
 62
     7
370
    15
100
AcDbSpline
210
0.0
220
0.0
230
1.0
 70
     8
 71
     3
 72
    10
 73
     6
 74
     0
 42
0.00000001
 43
0.00000001
 40
0.0
 40
0.0
 40
0.0
 40
0.0
 40
0.5
 40
0.5
 40
1.0
 40
1.0
 40
1.0
 40
1.0
 10
123.3290830090007
 20
78.34058933830212
 30
0.0
 10
123.3290830090007
 20
78.18070207010847
 30
0.0
 10
123.2677733577648
 20
78.01957481459385
 30
0.0
 10
123.0486737202297
 20
77.78547581623903
 30
0.0
 10
122.8906255139163
 20
77.71394904264781
 30
0.0
 10
122.7290830090007
 20
77.71394904264781
 30
0.0
  0
SPLINE
  5
79
330
1F
100
AcDbEntity
  8
0
  6
Continuous
 62
     7
370
    15
100
AcDbSpline
210
0.0
220
0.0
230
1.0
 70
    24
 71
     3
 72
    12
 73
     8
 74
     0
 42
0.00000001
 43
0.00000001
 40
0.0
 40
0.0
 40
0.0
 40
0.0
 40
0.2500000000000033
 40
0.2500000000000033
 40
0.5000000000000067
 40
0.5000000000000067
 40
1.0
 40
1.0
 40
1.0
 40
1.0
 10
122.7290830090007
 20
127.750866738895
 30
0.0
 10
122.8193220766877
 20
127.750866738895
 30
0.0
 10
122.9102201907942
 20
127.750866738895
 30
0.0
 10
123.0648172272828
 20
127.750866738895
 30
0.0
 10
123.1297956433908
 20
127.750866738895
 30
0.0
 10
123.2816306713271
 20
127.750866738895
 30
0.0
 10
123.3290830090007
 20
127.750866738895
 30
0.0
 10
123.3290830090007
 20
127.750866738895
 30
0.0
  0
SPLINE
  5
7A
330
1F
100
AcDbEntity
  8
0
  6
Continuous
 62
     7
370
    15
100
AcDbSpline
210
0.0
220
0.0
230
1.0
 70
     8
 71
     3
 72
    70
 73
    66
 74
     0
 42
0.00000001
 43
0.00000001
 40
-0.0312500000000001
 40
-0.0312500000000001
 40
0.0
 40
0.0
 40
0.0312500000000001
 40
0.0312500000000001
 40
0.0625000000000001
 40
0.0625000000000001
 40
0.0937500000000002
 40
0.0937500000000002
 40
0.1250000000000002
 40
0.1250000000000002
 40
0.1562500000000003
 40
0.1562500000000003
 40
0.1875000000000003
 40
0.1875000000000003
 40
0.2187500000000004
 40
0.2187500000000004
 40
0.2500000000000004
 40
0.2500000000000004
 40
0.2812500000000005
 40
0.2812500000000005
 40
0.3125000000000006
 40
0.3125000000000006
 40
0.3437500000000006
 40
0.3437500000000006
 40
0.3750000000000007
 40
0.3750000000000007
 40
0.4062500000000007
 40
0.4062500000000007
 40
0.4375000000000008
 40
0.4375000000000008
 40
0.4687500000000008
 40
0.4687500000000008
 40
0.5000000000000009
 40
0.5000000000000009
 40
0.5312500000000007
 40
0.5312500000000007
 40
0.5625000000000006
 40
0.5625000000000006
 40
0.5937500000000003
 40
0.5937500000000003
 40
0.6250000000000002
 40
0.6250000000000002
 40
0.65625
 40
0.65625
 40
0.6874999999999999
 40
0.6874999999999999
 40
0.7187499999999997
 40
0.7187499999999997
 40
0.7499999999999996
 40
0.7499999999999996
 40
0.7812499999999996
 40
0.7812499999999996
 40
0.8124999999999997
 40
0.8124999999999997
 40
0.8437499999999997
 40
0.8437499999999997
 40
0.8749999999999998
 40
0.8749999999999998
 40
0.9062499999999998
 40
0.9062499999999998
 40
0.9374999999999999
 40
0.9374999999999999
 40
0.9687499999999999
 40
0.9687499999999999
 40
1.0
 40
1.0
 40
1.03125
 40
1.03125
 10
105.1145376703405
 20
118.5217736248783
 30
0.0
 10
105.6436283476608
 20
118.5217736248783
 30
0.0
 10
105.9036990150379
 20
118.5464509196635
 30
0.0
 10
106.4152736948733
 20
118.6429225927054
 30
0.0
 10
106.6694489786135
 20
118.7159035086855
 30
0.0
 10
107.1537196086752
 20
118.9056441116241
 30
0.0
 10
107.3833607005564
 20
119.0215047700179
 30
0.0
 10
107.8179650487899
 20
119.2941226159756
 30
0.0
 10
108.0235308254365
 20
119.4521616980293
 30
0.0
 10
108.3920879660317
 20
119.795704549
 30
0.0
 10
108.5575689487672
 20
119.9824669931016
 30
0.0
 10
108.8499934582023
 20
120.3860101674984
 30
0.0
 10
108.9740944348288
 20
120.5995071639276
 30
0.0
 10
109.1736736315785
 20
121.0388904778501
 30
0.0
 10
109.2506072174368
 20
121.2680304649957
 30
0.0
 10
109.3534642759572
 20
121.7340045877557
 30
0.0
 10
109.3789371854163
 20
121.9668870334319
 30
0.0
 10
109.3792275959841
 20
122.4322845685117
 30
0.0
 10
109.3532029622084
 20
122.6671603259061
 30
0.0
 10
109.2510546777164
 20
123.1186534731523
 30
0.0
 10
109.1754782301332
 20
123.3366999485637
 30
0.0
 10
108.9749806989883
 20
123.7577944736015
 30
0.0
 10
108.8498518574799
 20
123.9597158581198
 30
0.0
 10
108.5604930564583
 20
124.3317453406387
 30
0.0
 10
108.3950820694028
 20
124.5043736442191
 30
0.0
 10
108.022091511255
 20
124.8216916487651
 30
0.0
 10
107.8203584781659
 20
124.9614785822667
 30
0.0
 10
107.387499227338
 20
125.2056548358185
 30
0.0
 10
107.1535806944486
 20
125.31088434686
 30
0.0
 10
106.669396959306
 20
125.4790414932352
 30
0.0
 10
106.4200813333505
 20
125.542292383829
 30
0.0
 10
105.9070488089228
 20
125.6278715929316
 30
0.0
 10
105.6417549860182
 20
125.649743757854
 30
0.0
 10
105.1194203661484
 20
125.649907407498
 30
0.0
 10
104.8596667036667
 20
125.628905715402
 30
0.0
 10
104.3430548880214
 20
125.5435033603243
 30
0.0
 10
104.0906888475212
 20
125.4794971770374
 30
0.0
 10
103.6091637259883
 20
125.3126826569962
 30
0.0
 10
103.3763129938748
 20
125.208549493597
 30
0.0
 10
102.939223145436
 20
124.9625628411021
 30
0.0
 10
102.7379021567788
 20
124.8228130101532
 30
0.0
 10
102.3688161314789
 20
124.5096749404286
 30
0.0
 10
102.1998313804272
 20
124.3342187811585
 30
0.0
 10
101.909375323768
 20
123.9613785170583
 30
0.0
 10
101.7863035124059
 20
123.7632567069474
 30
0.0
 10
101.5849672709839
 20
123.3425453642137
 30
0.0
 10
101.5077547250417
 20
123.1205553435462
 30
0.0
 10
101.4055511821416
 20
122.6706904038378
 30
0.0
 10
101.3793228306893
 20
122.440434990721
 30
0.0
 10
101.3788464313722
 20
121.9691190481719
 30
0.0
 10
101.4045888438701
 20
121.7358816324578
 30
0.0
 10
101.505899620234
 20
121.2742050929598
 30
0.0
 10
101.5827322596249
 20
121.0433077058476
 30
0.0
 10
101.7831360988401
 20
120.601031692056
 30
0.0
 10
101.9058075971321
 20
120.38996926077
 30
0.0
 10
102.1957548862964
 20
119.9884707500374
 30
0.0
 10
102.3643258656616
 20
119.7975642279615
 30
0.0
 10
102.7325954597748
 20
119.4538388959644
 30
0.0
 10
102.9336573170451
 20
119.2987017097503
 30
0.0
 10
103.37068823563
 20
119.0236243496706
 30
0.0
 10
103.6028364487596
 20
118.9065081202486
 30
0.0
 10
104.0838467302585
 20
118.717581635184
 30
0.0
 10
104.3359468130889
 20
118.6445066647897
 30
0.0
 10
104.8530162993479
 20
118.5464546056552
 30
0.0
 10
105.1145376703405
 20
118.5217736248783
 30
0.0
 10
105.6436283476608
 20
118.5217736248783
 30
0.0
  0
LINE
  5
7B
330
1F
100
AcDbEntity
  8
0
  6
Continuous
 62
     7
370
    15
100
AcDbLine
 10
102.3290829822
 20
127.750867478
 30
0.0
 11
111.9871504694
 21
127.750867478
 31
0.0
  0
LINE
  5
7C
330
1F
100
AcDbEntity
  8
0
  6
Continuous
 62
     7
370
    15
100
AcDbLine
 10
111.9871504694
 20
77.7139491061
 30
0.0
 11
111.9871504694
 21
127.750867478
 31
0.0
  0
LINE
  5
7D
330
1F
100
AcDbEntity
  8
0
  6
Continuous
 62
     7
370
    15
100
AcDbLine
 10
111.9871504694
 20
77.7139491061
 30
0.0
 11
110.3290833622
 21
77.7139491061
 31
0.0
  0
SPLINE
  5
7E
330
1F
100
AcDbEntity
  8
0
  6
Continuous
 62
     7
370
    15
100
AcDbSpline
210
0.0
220
0.0
230
1.0
 70
     8
 71
     3
 72
    28
 73
    24
 74
     0
 42
0.00000001
 43
0.00000001
 40
0.0
 40
0.0
 40
0.0
 40
0.0
 40
0.1250000000000001
 40
0.1250000000000001
 40
0.1875000000000001
 40
0.1875000000000001
 40
0.2500000000000001
 40
0.2500000000000001
 40
0.3749999999999999
 40
0.3749999999999999
 40
0.4375
 40
0.4375
 40
0.4999999999999999
 40
0.4999999999999999
 40
0.6249999999999999
 40
0.6249999999999999
 40
0.7499999999999997
 40
0.7499999999999997
 40
0.8124999999999998
 40
0.8124999999999998
 40
0.8749999999999998
 40
0.8749999999999998
 40
1.0
 40
1.0
 40
1.0
 40
1.0
 10
110.3290830090007
 20
77.71394904264781
 30
0.0
 10
109.7973752515077
 20
77.71394904264781
 30
0.0
 10
109.2751366861974
 20
77.6981643286976
 30
0.0
 10
108.5052661999224
 20
77.6531689146214
 30
0.0
 10
108.2509066277311
 20
77.63461391954566
 30
0.0
 10
107.7467850470326
 20
77.59076119709916
 30
0.0
 10
107.4970622296047
 20
77.56541659014695
 30
0.0
 10
106.7714722781582
 20
77.48201451239686
 30
0.0
 10
106.3131120165767
 20
77.41614895324578
 30
0.0
 10
105.6626140731828
 20
77.30717861275397
 30
0.0
 10
105.4509320223903
 20
77.26893897698733
 30
0.0
 10
105.0468605332524
 20
77.19118023956797
 30
0.0
 10
104.8543540194315
 20
77.1516792773926
 30
0.0
 10
104.3045190484102
 20
77.03277153502663
 30
0.0
 10
103.9745902701014
 20
76.95295385360201
 30
0.0
 10
103.3901190015327
 20
76.79961069180595
 30
0.0
 10
103.1438418635193
 20
76.72827693853671
 30
0.0
 10
102.8439990708212
 20
76.63433343146207
 30
0.0
 10
102.755542213749
 20
76.60513963810214
 30
0.0
 10
102.6021808604439
 20
76.55167306383872
 30
0.0
 10
102.5370926462177
 20
76.52731372956355
 30
0.0
 10
102.3814986302769
 20
76.46372358411882
 30
0.0
 10
102.3290830090007
 20
76.43362064902956
 30
0.0
 10
102.3290830090007
 20
76.41674375603263
 30
0.0
  0
LINE
  5
7F
330
1F
100
AcDbEntity
  8
0
  6
Continuous
 62
     7
370
    15
100
AcDbLine
 10
102.3290829822
 20
76.4167434195
 30
0.0
 11
102.3290829822
 21
76.4008662323
 31
0.0
  0
SPLINE
  5
80
330
1F
100
AcDbEntity
  8
0
  6
Continuous
 62
     7
370
    15
100
AcDbSpline
210
0.0
220
0.0
230
1.0
 70
     8
 71
     3
 72
    17
 73
    13
 74
     0
 42
0.00000001
 43
0.00000001
 40
0.0
 40
0.0
 40
0.0
 40
0.0
 40
0.1034797280380778
 40
0.2100239090909901
 40
0.3134862262879433
 40
0.4198361712144981
 40
0.5254127947779869
 40
0.6339610881168427
 40
0.7409508662120068
 40
0.8511696072047016
 40
0.9558996557845765
 40
1.0
 40
1.0
 40
1.0
 40
1.0
 10
110.3290833621582
 20
138.3680621752534
 30
0.0
 10
109.8938348704323
 20
138.3735101668911
 30
0.0
 10
109.0104484198553
 20
138.3845674872197
 30
0.0
 10
107.7296205576325
 20
138.4709262475947
 30
0.0
 10
106.5122043621906
 20
138.5987973907278
 30
0.0
 10
105.4043977458648
 20
138.7577417980462
 30
0.0
 10
104.416159266536
 20
138.9322363710308
 30
0.0
 10
103.5914361667201
 20
139.1014028042177
 30
0.0
 10
102.9424825092215
 20
139.2492836126854
 30
0.0
 10
102.5254472057419
 20
139.351074364208
 30
0.0
 10
102.3268504628639
 20
139.4014312638425
 30
0.0
 10
102.3501635798518
 20
139.3955216588669
 30
0.0
 10
102.3570715538522
 20
139.3937705675159
 30
0.0
  0
LINE
  5
81
330
1F
100
AcDbEntity
  8
0
  6
Continuous
 62
     7
370
    15
100
AcDbLine
 10
111.9871504694
 20
138.3680621753
 30
0.0
 11
110.3290833622
 21
138.3680621753
 31
0.0
  0
LINE
  5
82
330
1F
100
AcDbEntity
  8
0
  6
Continuous
 62
     7
370
    15
100
AcDbLine
 10
111.9871504694
 20
132.359556354
 30
0.0
 11
111.9871504694
 21
138.3680621753
 31
0.0
  0
LINE
  5
83
330
1F
100
AcDbEntity
  8
0
  6
Continuous
 62
     7
370
    15
100
AcDbLine
 10
109.5747036948
 20
132.359556354
 30
0.0
 11
111.9871504694
 21
132.359556354
 31
0.0
  0
SPLINE
  5
84
330
1F
100
AcDbEntity
  8
0
  6
Continuous
 62
     7
370
    15
100
AcDbSpline
210
0.0
220
0.0
230
1.0
 70
     8
 71
     3
 72
    20
 73
    16
 74
     0
 42
0.00000001
 43
0.00000001
 40
0.0
 40
0.0
 40
0.0
 40
0.0
 40
0.2499999999999997
 40
0.2499999999999997
 40
0.3749999999999997
 40
0.3749999999999997
 40
0.4999999999999998
 40
0.4999999999999998
 40
0.6249999999999998
 40
0.6249999999999998
 40
0.7499999999999999
 40
0.7499999999999999
 40
0.8749999999999999
 40
0.8749999999999999
 40
1.0
 40
1.0
 40
1.0
 40
1.0
 10
102.3290830090007
 20
127.750866738895
 30
0.0
 10
102.5774567432887
 20
128.4047291671924
 30
0.0
 10
102.897026835634
 20
129.0085149491895
 30
0.0
 10
103.5193330688387
 20
129.8353536853581
 30
0.0
 10
103.7507573292694
 20
130.097782323311
 30
0.0
 10
104.2719716689192
 20
130.594444977416
 30
0.0
 10
104.5585921515542
 20
130.8250318564375
 30
0.0
 10
105.1780768928619
 20
131.2415860810202
 30
0.0
 10
105.5123772723488
 20
131.4290838829877
 30
0.0
 10
106.2376377449736
 20
131.7604808606241
 30
0.0
 10
106.6195528023641
 20
131.8999848481194
 30
0.0
 10
107.4143409785357
 20
132.1254383555903
 30
0.0
 10
107.8284991727421
 20
132.212064467134
 30
0.0
 10
108.6940455133235
 20
132.3300452559881
 30
0.0
 10
109.1319331283353
 20
132.3595564012624
 30
0.0
 10
109.57470335469
 20
132.3595564012624
 30
0.0
  0
SPLINE
  5
85
330
1F
100
AcDbEntity
  8
0
  6
Continuous
 62
     7
370
    15
100
AcDbSpline
210
0.0
220
0.0
230
1.0
 70
     8
 71
     3
 72
    70
 73
    66
 74
     0
 42
0.00000001
 43
0.00000001
 40
-0.0312500000000001
 40
-0.0312500000000001
 40
0.0
 40
0.0
 40
0.0312499999999998
 40
0.0312499999999998
 40
0.0624999999999996
 40
0.0624999999999996
 40
0.0937499999999995
 40
0.0937499999999995
 40
0.1249999999999993
 40
0.1249999999999993
 40
0.1562499999999991
 40
0.1562499999999991
 40
0.1874999999999989
 40
0.1874999999999989
 40
0.2187499999999987
 40
0.2187499999999987
 40
0.2499999999999986
 40
0.2499999999999986
 40
0.2812499999999986
 40
0.2812499999999986
 40
0.3124999999999985
 40
0.3124999999999985
 40
0.3437499999999985
 40
0.3437499999999985
 40
0.3749999999999985
 40
0.3749999999999985
 40
0.4062499999999985
 40
0.4062499999999985
 40
0.4374999999999984
 40
0.4374999999999984
 40
0.4687499999999984
 40
0.4687499999999984
 40
0.4999999999999984
 40
0.4999999999999984
 40
0.5312499999999984
 40
0.5312499999999984
 40
0.5624999999999986
 40
0.5624999999999986
 40
0.5937499999999986
 40
0.5937499999999986
 40
0.6249999999999986
 40
0.6249999999999986
 40
0.6562499999999987
 40
0.6562499999999987
 40
0.6874999999999987
 40
0.6874999999999987
 40
0.7187499999999988
 40
0.7187499999999988
 40
0.7499999999999988
 40
0.7499999999999988
 40
0.7812499999999989
 40
0.7812499999999989
 40
0.8124999999999991
 40
0.8124999999999991
 40
0.8437499999999992
 40
0.8437499999999992
 40
0.8749999999999993
 40
0.8749999999999993
 40
0.9062499999999996
 40
0.9062499999999996
 40
0.9374999999999997
 40
0.9374999999999997
 40
0.9687499999999999
 40
0.9687499999999999
 40
1.0
 40
1.0
 40
1.03125
 40
1.03125
 10
105.1145376703405
 20
132.9598301336741
 30
0.0
 10
105.6436283476608
 20
132.9598301336741
 30
0.0
 10
105.9036990150379
 20
132.9757305740889
 30
0.0
 10
106.4152736948734
 20
133.0376749242632
 30
0.0
 10
106.6694489786135
 20
133.0844771583545
 30
0.0
 10
107.1537196086752
 20
133.2054541418096
 30
0.0
 10
107.3833607005564
 20
133.2790564696164
 30
0.0
 10
107.8179650487899
 20
133.4508807405945
 30
0.0
 10
108.0235308254365
 20
133.5498841635219
 30
0.0
 10
108.3920879660317
 20
133.7629805774348
 30
0.0
 10
108.5575689487672
 20
133.8778802935645
 30
0.0
 10
108.8499934582023
 20
134.1232471922548
 30
0.0
 10
108.9740944348288
 20
134.251687092725
 30
0.0
 10
109.1736736315785
 20
134.512579240811
 30
0.0
 10
109.2506072174368
 20
134.6469604121504
 30
0.0
 10
109.3534642759572
 20
134.9162803632568
 30
0.0
 10
109.3789371854163
 20
135.0489616274749
 30
0.0
 10
109.3792275959841
 20
135.3101481016059
 30
0.0
 10
109.3532029622084
 20
135.4399131397706
 30
0.0
 10
109.2510546777163
 20
135.6854957740433
 30
0.0
 10
109.1754782301332
 20
135.8021573113522
 30
0.0
 10
108.9749806989883
 20
136.0240625015067
 30
0.0
 10
108.8498518574799
 20
136.1286737554297
 30
0.0
 10
108.5604930564583
 20
136.3187201670378
 30
0.0
 10
108.3950820694028
 20
136.4054798384875
 30
0.0
 10
108.022091511255
 20
136.562984214239
 30
0.0
 10
107.8203584781659
 20
136.6313094790262
 30
0.0
 10
107.387499227338
 20
136.7495392026454
 30
0.0
 10
107.1535806944486
 20
136.7998341187493
 30
0.0
 10
106.669396959306
 20
136.8796996556389
 30
0.0
 10
106.4200813333505
 20
136.9094407834385
 30
0.0
 10
105.9070488089228
 20
136.9495935249467
 30
0.0
 10
105.6417549860182
 20
136.9597917943566
 30
0.0
 10
105.1194203661484
 20
136.9598682527413
 30
0.0
 10
104.8596667036667
 20
136.9500772411322
 30
0.0
 10
104.3430548880215
 20
136.9100104023935
 30
0.0
 10
104.0906888475212
 20
136.8799132355367
 30
0.0
 10
103.6091637259883
 20
136.8006910257065
 30
0.0
 10
103.3763129938748
 20
136.7509335462431
 30
0.0
 10
102.939223145436
 20
136.6318416037927
 30
0.0
 10
102.7379021567788
 20
136.5635263422454
 30
0.0
 10
102.3688161314789
 20
136.4081253753119
 30
0.0
 10
102.1998313804272
 20
136.319973033245
 30
0.0
 10
101.909375323768
 20
136.1295336441287
 30
0.0
 10
101.7863035124059
 20
136.0269090664296
 30
0.0
 10
101.5849672709839
 20
135.8052687198215
 30
0.0
 10
101.5077547250417
 20
135.686514644274
 30
0.0
 10
101.4055511821416
 20
135.4418487053563
 30
0.0
 10
101.3793228306893
 20
135.3146919799078
 30
0.0
 10
101.3788464313722
 20
135.0502438340522
 30
0.0
 10
101.4045888438701
 20
134.917343153795
 30
0.0
 10
101.505899620234
 20
134.650550880313
 30
0.0
 10
101.5827322596249
 20
134.5151869788444
 30
0.0
 10
101.7831360988401
 20
134.2526071835418
 30
0.0
 10
101.9058075971321
 20
134.1256320237881
 30
0.0
 10
102.1957548862964
 20
133.8815526377057
 30
0.0
 10
102.3643258656616
 20
133.7641275129518
 30
0.0
 10
102.7325954597748
 20
133.5509310520034
 30
0.0
 10
102.9336573170451
 20
133.4537569335785
 30
0.0
 10
103.37068823563
 20
133.2804020463643
 30
0.0
 10
103.6028364487596
 20
133.2060024947076
 30
0.0
 10
104.0838467302585
 20
133.085549615203
 30
0.0
 10
104.3359468130889
 20
133.038691239937
 30
0.0
 10
104.8530162993479
 20
132.9757337429533
 30
0.0
 10
105.1145376703405
 20
132.9598301336741
 30
0.0
 10
105.6436283476608
 20
132.9598301336741
 30
0.0
  0
LINE
  5
86
330
1F
100
AcDbEntity
  8
0
  6
Continuous
 62
     7
370
    15
100
AcDbLine
 10
113.4690830573
 20
80.4030294189
 30
0.0
 11
113.4690830573
 21
127.750867478
 31
0.0
  0
SPLINE
  5
87
330
1F
100
AcDbEntity
  8
0
  6
Continuous
 62
     7
370
    15
100
AcDbSpline
210
0.0
220
0.0
230
1.0
 70
     8
 71
     3
 72
     8
 73
     4
 74
     0
 42
0.00000001
 43
0.00000001
 40
0.0
 40
0.0
 40
0.0
 40
0.0
 40
1.0
 40
1.0
 40
1.0
 40
1.0
 10
113.4690830090007
 20
80.40302957984011
 30
0.0
 10
112.9767438862195
 20
79.50575954563341
 30
0.0
 10
112.4826298381774
 20
78.60947513058117
 30
0.0
 10
111.9871501775116
 20
77.71394904264781
 30
0.0
  0
SPLINE
  5
88
330
1F
100
AcDbEntity
  8
0
  6
Continuous
 62
     7
370
    15
100
AcDbSpline
210
0.0
220
0.0
230
1.0
 70
    24
 71
     3
 72
     8
 73
     4
 74
     0
 42
0.00000001
 43
0.00000001
 40
0.0
 40
0.0
 40
0.0
 40
0.0
 40
1.0
 40
1.0
 40
1.0
 40
1.0
 10
111.9871501775116
 20
127.750866738895
 30
0.0
 10
112.4938302856622
 20
127.750866738895
 30
0.0
 10
112.9891310146358
 20
127.750866738895
 30
0.0
 10
113.4690830090007
 20
127.750866738895
 30
0.0
  0
LINE
  5
89
330
1F
100
AcDbEntity
  8
0
  6
Continuous
 62
     7
370
    15
100
AcDbLine
 10
97.379083009
 20
76.7008675853
 30
0.0
 11
97.379083009
 21
139.1008658925
 31
0.0
  0
ARC
  5
8A
330
1F
100
AcDbEntity
  8
0
  6
Continuous
 62
     7
370
    15
100
AcDbCircle
 10
105.3762205988
 20
119.7957036486
 30
0.0
 40
4.117824501448566
100
AcDbArc
 50
19.78231745
 51
158.934757955
  0
SPLINE
  5
8B
330
1F
100
AcDbEntity
  8
0
  6
Continuous
 62
     7
370
    15
100
AcDbSpline
210
0.0
220
0.0
230
1.0
 70
     8
 71
     3
 72
    10
 73
     6
 74
     0
 42
0.00000001
 43
0.00000001
 40
0.0
 40
0.0
 40
0.0
 40
0.0
 40
0.5
 40
0.5
 40
1.0
 40
1.0
 40
1.0
 40
1.0
 10
113.8633805406916
 20
134.300866738895
 30
0.0
 10
113.7418402770231
 20
134.3755929061067
 30
0.0
 10
113.6405059166742
 20
134.4845379220235
 30
0.0
 10
113.5048669737858
 20
134.7349684027851
 30
0.0
 10
113.4690830090007
 20
134.877387764884
 30
0.0
 10
113.4690830090007
 20
135.0205205899308
 30
0.0
  0
SPLINE
  5
8C
330
1F
100
AcDbEntity
  8
0
  6
Continuous
 62
     7
370
    15
100
AcDbSpline
210
0.0
220
0.0
230
1.0
 70
    24
 71
     3
 72
    12
 73
     8
 74
     0
 42
0.00000001
 43
0.00000001
 40
0.0
 40
0.0
 40
0.0
 40
0.0
 40
0.2500000000000037
 40
0.2500000000000037
 40
0.5000000000000074
 40
0.5000000000000074
 40
1.0
 40
1.0
 40
1.0
 40
1.0
 10
114.2690830090007
 20
134.300866738895
 30
0.0
 10
114.2192063266832
 20
134.300866738895
 30
0.0
 10
114.1712031332796
 20
134.300866738895
 30
0.0
 10
114.0881550305677
 20
134.300866738895
 30
0.0
 10
114.0520254510998
 20
134.300866738895
 30
0.0
 10
113.9561134201556
 20
134.300866738895
 30
0.0
 10
113.9063547521868
 20
134.300866738895
 30
0.0
 10
113.8633805406916
 20
134.300866738895
 30
0.0
  0
SPLINE
  5
8D
330
1F
100
AcDbEntity
  8
0
  6
Continuous
 62
     7
370
    15
100
AcDbSpline
210
0.0
220
0.0
230
1.0
 70
    24
 71
     3
 72
    14
 73
    10
 74
     0
 42
0.00000001
 43
0.00000001
 40
0.0
 40
0.0
 40
0.0
 40
0.0
 40
0.1249999999999991
 40
0.1249999999999991
 40
0.2499999999999982
 40
0.2499999999999982
 40
0.4999999999999998
 40
0.4999999999999998
 40
1.0
 40
1.0
 40
1.0
 40
1.0
 10
114.2690830090007
 20
81.50086673889498
 30
0.0
 10
114.2006451611142
 20
81.50086673889498
 30
0.0
 10
114.1350951223492
 20
81.50086673889498
 30
0.0
 10
114.0306684829412
 20
81.50086673889498
 30
0.0
 10
113.9881238731798
 20
81.50086673889498
 30
0.0
 10
113.8755144126395
 20
81.50086673889497
 30
0.0
 10
113.8199753656201
 20
81.50086673889498
 30
0.0
 10
113.6773636701563
 20
81.50086673889497
 30
0.0
 10
113.6139583151605
 20
81.50086673889497
 30
0.0
 10
113.566757811333
 20
81.50086673889498
 30
0.0
  0
SPLINE
  5
8E
330
1F
100
AcDbEntity
  8
0
  6
Continuous
 62
     7
370
    15
100
AcDbSpline
210
0.0
220
0.0
230
1.0
 70
     8
 71
     3
 72
    10
 73
     6
 74
     0
 42
0.00000001
 43
0.00000001
 40
0.0
 40
0.0
 40
0.0
 40
0.0
 40
0.5
 40
0.5
 40
1.0
 40
1.0
 40
1.0
 40
1.0
 10
113.4690830090007
 20
128.0367333703563
 30
0.0
 10
113.4690830090007
 20
127.9889618623631
 30
0.0
 10
113.4712442525978
 20
127.9412521403014
 30
0.0
 10
113.479915626458
 20
127.8459570227531
 30
0.0
 10
113.486444809414
 20
127.7982644587864
 30
0.0
 10
113.4952306321608
 20
127.750866738895
 30
0.0
  0
SPLINE
  5
8F
330
1F
100
AcDbEntity
  8
0
  6
Continuous
 62
     7
370
    15
100
AcDbSpline
210
0.0
220
0.0
230
1.0
 70
    24
 71
     3
 72
    14
 73
    10
 74
     0
 42
0.00000001
 43
0.00000001
 40
0.0
 40
0.0
 40
0.0
 40
0.0
 40
0.4999999999999984
 40
0.4999999999999984
 40
0.7499999999999992
 40
0.7499999999999992
 40
0.8749999999999996
 40
0.8749999999999996
 40
1.0
 40
1.0
 40
1.0
 40
1.0
 10
117.1914082066684
 20
81.50086673889498
 30
0.0
 10
117.1446235016202
 20
81.50086673889498
 30
0.0
 10
117.0825723048406
 20
81.50086673889498
 30
0.0
 10
116.93918066629
 20
81.50086673889497
 30
0.0
 10
116.8830370127388
 20
81.50086673889498
 30
0.0
 10
116.7700859906026
 20
81.50086673889498
 30
0.0
 10
116.7270852285645
 20
81.50086673889498
 30
0.0
 10
116.623022518258
 20
81.50086673889498
 30
0.0
 10
116.5576902799011
 20
81.50086673889498
 30
0.0
 10
116.4890830090007
 20
81.50086673889498
 30
0.0
  0
SPLINE
  5
90
330
1F
100
AcDbEntity
  8
0
  6
Continuous
 62
     7
370
    15
100
AcDbSpline
210
0.0
220
0.0
230
1.0
 70
    24
 71
     3
 72
    12
 73
     8
 74
     0
 42
0.00000001
 43
0.00000001
 40
0.0
 40
0.0
 40
0.0
 40
0.0
 40
0.5000000000000017
 40
0.5000000000000017
 40
0.7500000000000008
 40
0.7500000000000008
 40
1.0
 40
1.0
 40
1.0
 40
1.0
 10
116.8947854773097
 20
134.300866738895
 30
0.0
 10
116.8516999276988
 20
134.300866738895
 30
0.0
 10
116.8025477259494
 20
134.300866738895
 30
0.0
 10
116.7060751316615
 20
134.300866738895
 30
0.0
 10
116.6699735465269
 20
134.300866738895
 30
0.0
 10
116.5868677886657
 20
134.300866738895
 30
0.0
 10
116.5388711916994
 20
134.300866738895
 30
0.0
 10
116.4890830090007
 20
134.300866738895
 30
0.0
  0
SPLINE
  5
91
330
1F
100
AcDbEntity
  8
0
  6
Continuous
 62
     7
370
    15
100
AcDbSpline
210
0.0
220
0.0
230
1.0
 70
     8
 71
     3
 72
    10
 73
     6
 74
     0
 42
0.00000001
 43
0.00000001
 40
0.0
 40
0.0
 40
0.0
 40
0.0
 40
0.5
 40
0.5
 40
1.0
 40
1.0
 40
1.0
 40
1.0
 10
117.2890830090007
 20
135.0205205899308
 30
0.0
 10
117.2890830090007
 20
134.8767505321127
 30
0.0
 10
117.2530339502818
 20
134.7343311696176
 30
0.0
 10
117.1175250895078
 20
134.4844368762604
 30
0.0
 10
117.0176490964116
 20
134.3764065400121
 30
0.0
 10
116.8947854773097
 20
134.3008667388949
 30
0.0
  0
SPLINE
  5
92
330
1F
100
AcDbEntity
  8
0
  6
Continuous
 62
     7
370
    15
100
AcDbSpline
210
0.0
220
0.0
230
1.0
 70
     8
 71
     3
 72
    10
 73
     6
 74
     0
 42
0.00000001
 43
0.00000001
 40
0.0
 40
0.0
 40
0.0
 40
0.0
 40
0.5
 40
0.5
 40
1.0
 40
1.0
 40
1.0
 40
1.0
 10
117.2629353858405
 20
127.750866738895
 30
0.0
 10
117.2716250287522
 20
127.7977455882132
 30
0.0
 10
117.2781640935027
 20
127.8451680536145
 30
0.0
 10
117.2869227278957
 20
127.9411048522012
 30
0.0
 10
117.2890830090007
 20
127.9890201402118
 30
0.0
 10
117.2890830090007
 20
128.0367333703563
 30
0.0
  0
LINE
  5
93
330
1F
100
AcDbEntity
  8
0
  6
Continuous
 62
     7
370
    15
100
AcDbLine
 10
116.48908277
 20
134.3008665958
 30
0.0
 11
114.2690835609
 21
134.3008665958
 31
0.0
  0
LINE
  5
94
330
1F
100
AcDbEntity
  8
0
  6
Continuous
 62
     7
370
    15
100
AcDbLine
 10
116.48908277
 20
81.5008668819
 30
0.0
 11
114.2690835609
 21
81.5008668819
 31
0.0
  0
LINE
  5
95
330
1F
100
AcDbEntity
  8
0
  6
Continuous
 62
     7
370
    15
100
AcDbLine
 10
95.379082914
 20
83.6804355154
 30
0.0
 11
95.379082914
 21
132.1212979624
 31
0.0
  0
LINE
  5
96
330
1F
100
AcDbEntity
  8
0
  6
Continuous
 62
     7
370
    15
100
AcDbLine
 10
75.5790827885
 20
84.6724207172
 30
0.0
 11
75.5790827885
 21
85.9371288339
 31
0.0
  0
SPLINE
  5
97
330
1F
100
AcDbEntity
  8
0
  6
Continuous
 62
     7
370
    15
100
AcDbSpline
210
0.0
220
0.0
230
1.0
 70
     8
 71
     3
 72
    14
 73
    10
 74
     0
 42
0.00000001
 43
0.00000001
 40
0.0
 40
0.0
 40
0.0
 40
0.0
 40
0.25
 40
0.25
 40
0.5
 40
0.5
 40
0.75
 40
0.75
 40
1.0
 40
1.0
 40
1.0
 40
1.0
 10
74.80079589108496
 20
87.06771541533502
 30
0.0
 10
74.85742256628704
 20
86.96001796149815
 30
0.0
 10
74.95194522657678
 20
86.85722837977885
 30
0.0
 10
75.13499020213901
 20
86.65887106755869
 30
0.0
 10
75.22661677909373
 20
86.56281155888044
 30
0.0
 10
75.38547009678692
 20
86.3752825161712
 30
0.0
 10
75.45336070440861
 20
86.28387354338766
 30
0.0
 10
75.5502777301162
 20
86.10549732247749
 30
0.0
 10
75.57908300900127
 20
86.01827541623132
 30
0.0
 10
75.57908300900125
 20
85.93712920769705
 30
0.0
  0
SPLINE
  5
98
330
1F
100
AcDbEntity
  8
0
  6
Continuous
 62
     7
370
    15
100
AcDbSpline
210
0.0
220
0.0
230
1.0
 70
     8
 71
     3
 72
    14
 73
    10
 74
     0
 42
0.00000001
 43
0.00000001
 40
0.0
 40
0.0
 40
0.0
 40
0.0
 40
0.1250000000000022
 40
0.1250000000000022
 40
0.2500000000000044
 40
0.2500000000000044
 40
0.5000000000000029
 40
0.5000000000000029
 40
1.0
 40
1.0
 40
1.0
 40
1.0
 10
74.17908300900068
 20
87.51439727761434
 30
0.0
 10
74.22762741765784
 20
87.52014559089463
 30
0.0
 10
74.28054277244276
 20
87.5170447022384
 30
0.0
 10
74.37583811742579
 20
87.49484985807607
 30
0.0
 10
74.41608911471076
 20
87.4776176309802
 30
0.0
 10
74.52035912822372
 20
87.42128971452814
 30
0.0
 10
74.57068110337704
 20
87.37710336858234
 30
0.0
 10
74.69836405090243
 20
87.24609546973173
 30
0.0
 10
74.7544494979647
 20
87.15586094950142
 30
0.0
 10
74.80079589108642
 20
87.06771541533554
 30
0.0
  0
SPLINE
  5
99
330
1F
100
AcDbEntity
  8
0
  6
Continuous
 62
     7
370
    15
100
AcDbSpline
210
0.0
220
0.0
230
1.0
 70
     8
 71
     3
 72
     8
 73
     4
 74
     0
 42
0.00000001
 43
0.00000001
 40
0.0
 40
0.0
 40
0.0
 40
0.0
 40
1.0
 40
1.0
 40
1.0
 40
1.0
 10
71.91055791605447
 20
87.20455199103155
 30
0.0
 10
72.64513494253742
 20
87.32317700210051
 30
0.0
 10
73.40861001193306
 20
87.4231628742368
 30
0.0
 10
74.17908300900068
 20
87.51439727761434
 30
0.0
  0
SPLINE
  5
9A
330
1F
100
AcDbEntity
  8
0
  6
Continuous
 62
     7
370
    15
100
AcDbSpline
210
0.0
220
0.0
230
1.0
 70
     8
 71
     3
 72
    14
 73
    10
 74
     0
 42
0.00000001
 43
0.00000001
 40
0.0
 40
0.0
 40
0.0
 40
0.0
 40
0.5000000000000001
 40
0.5000000000000001
 40
0.7499999999999991
 40
0.7499999999999991
 40
0.8749999999999997
 40
0.8749999999999997
 40
1.0
 40
1.0
 40
1.0
 40
1.0
 10
66.62908300900068
 20
87.0309289734999
 30
0.0
 10
67.52122913955426
 20
87.03020674729925
 30
0.0
 10
68.41120557534785
 20
87.0347929537567
 30
0.0
 10
69.73780074242347
 20
87.06251795814826
 30
0.0
 10
70.1786476709222
 20
87.07512449577243
 30
0.0
 10
70.83508790834462
 20
87.10614064377988
 30
0.0
 10
71.05310156493651
 20
87.11848381640665
 30
0.0
 10
71.48581041861927
 20
87.15150787156992
 30
0.0
 10
71.70108688378406
 20
87.17072503670836
 30
0.0
 10
71.91055791605447
 20
87.20455199103155
 30
0.0
  0
SPLINE
  5
9B
330
1F
100
AcDbEntity
  8
0
  6
Continuous
 62
     7
370
    15
100
AcDbSpline
210
0.0
220
0.0
230
1.0
 70
     8
 71
     3
 72
     8
 73
     4
 74
     0
 42
0.00000001
 43
0.00000001
 40
0.0000005163856712
 40
0.0000005163856712
 40
0.0000005163856712
 40
0.0000005163856712
 40
0.000026289209185
 40
0.000026289209185
 40
0.000026289209185
 40
0.000026289209185
 10
66.619038078582
 20
87.04091284660777
 30
0.0
 10
66.62236581679348
 20
87.03757859973494
 30
0.0
 10
66.62571426977276
 20
87.03425064245593
 30
0.0
 10
66.62908300900065
 20
87.03092897349988
 30
0.0
  0
SPLINE
  5
9C
330
1F
100
AcDbEntity
  8
0
  6
Continuous
 62
     7
370
    15
100
AcDbSpline
210
0.0
220
0.0
230
1.0
 70
     8
 71
     3
 72
     8
 73
     4
 74
     0
 42
0.00000001
 43
0.00000001
 40
0.0000005099763573
 40
0.0000005099763573
 40
0.0000005099763573
 40
0.0000005099763573
 40
0.0000262827998699
 40
0.0000262827998699
 40
0.0000262827998699
 40
0.0000262827998699
 10
66.62908300900067
 20
128.7708045042901
 30
0.0
 10
66.62571426977293
 20
128.7674828353342
 30
0.0
 10
66.62236581679379
 20
128.7641548780553
 30
0.0
 10
66.61903807858246
 20
128.7608206311826
 30
0.0
  0
SPLINE
  5
9D
330
1F
100
AcDbEntity
  8
0
  6
Continuous
 62
     7
370
    15
100
AcDbSpline
210
0.0
220
0.0
230
1.0
 70
     8
 71
     3
 72
    10
 73
     6
 74
     0
 42
0.00000001
 43
0.00000001
 40
0.0
 40
0.0
 40
0.0
 40
0.0
 40
0.5
 40
0.5
 40
1.0
 40
1.0
 40
1.0
 40
1.0
 10
70.17908300900069
 20
128.7239541307227
 30
0.0
 10
69.5914974619101
 20
128.7450196509591
 30
0.0
 10
69.0007510684497
 20
128.7557781368313
 30
0.0
 10
67.81673190315085
 20
128.769142917367
 30
0.0
 10
67.22331791494538
 20
128.7712855600316
 30
0.0
 10
66.62908300900068
 20
128.7708045042901
 30
0.0
  0
SPLINE
  5
9E
330
1F
100
AcDbEntity
  8
0
  6
Continuous
 62
     7
370
    15
100
AcDbSpline
210
0.0
220
0.0
230
1.0
 70
     8
 71
     3
 72
    18
 73
    14
 74
     0
 42
0.00000001
 43
0.00000001
 40
0.0
 40
0.0
 40
0.0
 40
0.0
 40
0.249999999999999
 40
0.249999999999999
 40
0.499999999999998
 40
0.499999999999998
 40
0.749999999999997
 40
0.749999999999997
 40
0.874999999999998
 40
0.874999999999998
 40
0.937499999999999
 40
0.937499999999999
 40
1.0
 40
1.0
 40
1.0
 40
1.0
 10
71.5790830090007
 20
129.744974411258
 30
0.0
 10
71.5790830090007
 20
129.6617675024008
 30
0.0
 10
71.54323390906242
 20
129.5730308470872
 30
0.0
 10
71.4183621730285
 20
129.3909056565269
 30
0.0
 10
71.32796175538063
 20
129.2957756079003
 30
0.0
 10
71.10571910063845
 20
129.106594098776
 30
0.0
 10
70.97595431419268
 20
129.0116489306813
 30
0.0
 10
70.73531685688117
 20
128.8733702231013
 30
0.0
 10
70.64754955874373
 20
128.827659789799
 30
0.0
 10
70.49302547153691
 20
128.7698364845775
 30
0.0
 10
70.43641458548217
 20
128.7521217205397
 30
0.0
 10
70.31237055457558
 20
128.7275824173067
 30
0.0
 10
70.24465587955727
 20
128.7216032787685
 30
0.0
 10
70.17908300900068
 20
128.7239541307227
 30
0.0
  0
LINE
  5
9F
330
1F
100
AcDbEntity
  8
0
  6
Continuous
 62
     7
370
    15
100
AcDbLine
 10
71.5790821328
 20
129.7449743966
 30
0.0
 11
71.5790821328
 21
130.9289126316
 31
0.0
  0
SPLINE
  5
A0
330
1F
100
AcDbEntity
  8
0
  6
Continuous
 62
     7
370
    15
100
AcDbSpline
210
0.0
220
0.0
230
1.0
 70
     8
 71
     3
 72
    18
 73
    14
 74
     0
 42
0.00000001
 43
0.00000001
 40
0.0
 40
0.0
 40
0.0
 40
0.0
 40
0.001067142096085
 40
0.1270947925777493
 40
0.2524053537361832
 40
0.3766468838452861
 40
0.4391416358858051
 40
0.5008278334298175
 40
0.5624255844801763
 40
0.6253162510714301
 40
0.7499985254815132
 40
0.8752758926324193
 40
1.0
 40
1.0
 40
1.0
 40
1.0
 10
84.14938413494434
 20
84.24352804515699
 30
0.0
 10
84.14847205966161
 20
84.24341287726494
 30
0.0
 10
84.03984545848108
 20
84.2296965789352
 30
0.0
 10
84.42752693052383
 20
84.28068284031684
 30
0.0
 10
85.29347539063338
 20
84.38023987619135
 30
0.0
 10
86.49388318435619
 20
84.44937050581044
 30
0.0
 10
87.55145873421392
 20
84.45332120607716
 30
0.0
 10
88.37859309833718
 20
84.42583433815291
 30
0.0
 10
89.20386473438502
 20
84.3672918493406
 30
0.0
 10
90.25822994149381
 20
84.25377324738089
 30
0.0
 10
91.42006614774722
 20
84.07061909154737
 30
0.0
 10
92.37230086842037
 20
83.86601894288121
 30
0.0
 10
92.498005971129
 20
83.83673227287211
 30
0.0
 10
92.56071942814793
 20
83.82212134394983
 30
0.0
  0
SPLINE
  5
A1
330
1F
100
AcDbEntity
  8
0
  6
Continuous
 62
     7
370
    15
100
AcDbSpline
210
0.0
220
0.0
230
1.0
 70
     8
 71
     3
 72
    18
 73
    14
 74
     0
 42
0.00000001
 43
0.00000001
 40
0.0
 40
0.0
 40
0.0
 40
0.0
 40
0.1248907819469273
 40
0.2505384063477967
 40
0.3748721756041158
 40
0.4374907331267689
 40
0.4990776026247599
 40
0.5607931145009658
 40
0.6233901196104445
 40
0.7478191009174896
 40
0.8731941046696081
 40
0.9991614615322162
 40
0.9999999999999999
 40
0.9999999999999999
 40
0.9999999999999999
 40
0.9999999999999999
 10
92.5605005673429
 20
131.9795469412599
 30
0.0
 10
92.49675973537519
 20
131.9648854750329
 30
0.0
 10
92.36889179979563
 20
131.9354736935869
 30
0.0
 10
91.41689296320709
 20
131.7305197342293
 30
0.0
 10
90.25634889235447
 20
131.5472584723656
 30
0.0
 10
89.20408512069109
 20
131.4342279179906
 30
0.0
 10
88.37985782167281
 20
131.3759671105179
 30
0.0
 10
87.55225407634815
 20
131.3485199743958
 30
0.0
 10
86.49343674665391
 20
131.3525047682704
 30
0.0
 10
85.29121700702808
 20
131.4215975527663
 30
0.0
 10
84.42603623602918
 20
131.5212062899535
 30
0.0
 10
84.0398874883915
 20
131.5720638955968
 30
0.0
 10
84.14796536075511
 20
131.5583630881734
 30
0.0
 10
84.14868005507793
 20
131.5582724878583
 30
0.0
  0
SPLINE
  5
A2
330
1F
100
AcDbEntity
  8
0
  6
Continuous
 62
     7
370
    15
100
AcDbSpline
210
0.0
220
0.0
230
1.0
 70
     8
 71
     3
 72
     9
 73
     5
 74
     0
 42
0.00000001
 43
0.00000001
 40
0.0
 40
0.0
 40
0.0
 40
0.0
 40
0.7009339503679092
 40
0.9999999999999999
 40
0.9999999999999999
 40
0.9999999999999999
 40
0.9999999999999999
 10
65.49986657642927
 20
88.19958703909258
 30
0.0
 10
65.5090072473791
 20
88.18175775533167
 30
0.0
 10
65.52204794963791
 20
88.15632128767086
 30
0.0
 10
65.53721141290619
 20
88.21020064714442
 30
0.0
 10
65.54174628996458
 20
88.22631413433889
 30
0.0
  0
LINE
  5
A3
330
1F
100
AcDbEntity
  8
0
  6
Continuous
 62
     7
370
    15
100
AcDbLine
 10
65.4790831819
 20
88.2101892153
 30
0.0
 11
65.4790831819
 21
127.5915442625
 31
0.0
  0
SPLINE
  5
A4
330
1F
100
AcDbEntity
  8
0
  6
Continuous
 62
     7
370
    15
100
AcDbSpline
210
0.0
220
0.0
230
1.0
 70
     8
 71
     3
 72
    10
 73
     6
 74
     0
 42
0.00000001
 43
0.00000001
 40
0.0
 40
0.0
 40
0.0
 40
0.0
 40
0.5
 40
0.5
 40
1.0
 40
1.0
 40
1.0
 40
1.0
 10
65.54174638372409
 20
127.5754192836757
 30
0.0
 10
65.53284209461533
 20
127.6211608028889
 30
0.0
 10
65.51632671442235
 20
127.6383516423579
 30
0.0
 10
65.48921876836076
 20
127.6380283654222
 30
0.0
 10
65.47908300900069
 20
127.6201508231257
 30
0.0
 10
65.47908300900069
 20
127.5915444853731
 30
0.0
  0
SPLINE
  5
A5
330
1F
100
AcDbEntity
  8
0
  6
Continuous
 62
     7
370
    15
100
AcDbSpline
210
0.0
220
0.0
230
1.0
 70
     8
 71
     3
 72
    26
 73
    22
 74
     0
 42
0.00000001
 43
0.00000001
 40
0.0
 40
0.0
 40
0.0
 40
0.0
 40
0.2499999999999842
 40
0.2499999999999842
 40
0.3749999999999759
 40
0.3749999999999759
 40
0.4374999999999711
 40
0.4374999999999711
 40
0.4687499999999716
 40
0.4687499999999716
 40
0.4999999999999721
 40
0.4999999999999721
 40
0.5312499999999726
 40
0.5312499999999726
 40
0.562499999999973
 40
0.562499999999973
 40
0.624999999999976
 40
0.624999999999976
 40
0.749999999999984
 40
0.749999999999984
 40
1.0
 40
1.0
 40
1.0
 40
1.0
 10
66.3032366551052
 20
128.2909860724928
 30
0.0
 10
66.26463613223672
 20
128.1732113761373
 30
0.0
 10
66.21833912968246
 20
128.0488216899755
 30
0.0
 10
66.12439978124854
 20
127.843602357622
 30
0.0
 10
66.08908831433507
 20
127.7720294911755
 30
0.0
 10
66.0229083385894
 20
127.6560762585751
 30
0.0
 10
65.99836997192118
 20
127.6154917237648
 30
0.0
 10
65.95499722636735
 20
127.5513500418931
 30
0.0
 10
65.93948882494217
 20
127.529483616608
 30
0.0
 10
65.90444618035514
 20
127.4838893482648
 30
0.0
 10
65.88489588963536
 20
127.4602190572974
 30
0.0
 10
65.84296860926477
 20
127.4156024979575
 30
0.0
 10
65.82031649903314
 20
127.3947224854396
 30
0.0
 10
65.77934278494654
 20
127.3638490716887
 30
0.0
 10
65.7617434850511
 20
127.3540102018563
 30
0.0
 10
65.71711649919496
 20
127.3350205861602
 30
0.0
 10
65.69655727654161
 20
127.3346962615067
 30
0.0
 10
65.64543183704495
 20
127.343919702383
 30
0.0
 10
65.6245204240564
 20
127.3651665985999
 30
0.0
 10
65.57307051649546
 20
127.4391354774307
 30
0.0
 10
65.5554052171909
 20
127.5052535707454
 30
0.0
 10
65.54174638372409
 20
127.5754192836757
 30
0.0
  0
SPLINE
  5
A6
330
1F
100
AcDbEntity
  8
0
  6
Continuous
 62
     7
370
    15
100
AcDbSpline
210
0.0
220
0.0
230
1.0
 70
     8
 71
     3
 72
    10
 73
     6
 74
     0
 42
0.00000001
 43
0.00000001
 40
0.0
 40
0.0
 40
0.0
 40
0.0
 40
0.5
 40
0.5
 40
1.0
 40
1.0
 40
1.0
 40
1.0
 10
66.61903807858248
 20
128.7608206311826
 30
0.0
 10
66.55147882366424
 20
128.6931292383729
 30
0.0
 10
66.48784216832773
 20
128.6184220736192
 30
0.0
 10
66.37762141375588
 20
128.4594559411926
 30
0.0
 10
66.33080512053326
 20
128.3751006751846
 30
0.0
 10
66.30323665510518
 20
128.2909860724928
 30
0.0
  0
SPLINE
  5
A7
330
1F
100
AcDbEntity
  8
0
  6
Continuous
 62
     7
370
    15
100
AcDbSpline
210
0.0
220
0.0
230
1.0
 70
     8
 71
     3
 72
    10
 73
     6
 74
     0
 42
0.00000001
 43
0.00000001
 40
0.0
 40
0.0
 40
0.0
 40
0.0
 40
0.5
 40
0.5
 40
1.0
 40
1.0
 40
1.0
 40
1.0
 10
66.30323665510522
 20
87.51074740529701
 30
0.0
 10
66.33071406985843
 20
87.4269106088314
 30
0.0
 10
66.3774227001461
 20
87.34260012124457
 30
0.0
 10
66.48770116288804
 20
87.18347889076172
 30
0.0
 10
66.55158870149968
 20
87.10849414667364
 30
0.0
 10
66.61903807858202
 20
87.04091284660777
 30
0.0
  0
SPLINE
  5
A8
330
1F
100
AcDbEntity
  8
0
  6
Continuous
 62
     7
370
    15
100
AcDbSpline
210
0.0
220
0.0
230
1.0
 70
     8
 71
     3
 72
    24
 73
    20
 74
     0
 42
0.00000001
 43
0.00000001
 40
0.0
 40
0.0
 40
0.0
 40
0.0
 40
0.2499999999999937
 40
0.2499999999999937
 40
0.3749999999999912
 40
0.3749999999999912
 40
0.4374999999999901
 40
0.4374999999999901
 40
0.4687499999999891
 40
0.4687499999999891
 40
0.4999999999999881
 40
0.4999999999999881
 40
0.5624999999999888
 40
0.5624999999999888
 40
0.6249999999999893
 40
0.6249999999999893
 40
0.749999999999992
 40
0.749999999999992
 40
1.0
 40
1.0
 40
1.0
 40
1.0
 10
65.54174638372409
 20
88.22631419411422
 30
0.0
 10
65.55549950239431
 20
88.2969642521045
 30
0.0
 10
65.57327206980018
 20
88.36356236486944
 30
0.0
 10
65.62552316135553
 20
88.43766038510263
 30
0.0
 10
65.64655823693708
 20
88.45891819226419
 30
0.0
 10
65.69945864456552
 20
88.46706411841043
 30
0.0
 10
65.72056431744345
 20
88.46612431501467
 30
0.0
 10
65.7666164861214
 20
88.44510832343731
 30
0.0
 10
65.78498695810478
 20
88.4341995173297
 30
0.0
 10
65.82653859317047
 20
88.40156460638234
 30
0.0
 10
65.8491052659274
 20
88.38007262601097
 30
0.0
 10
65.91188628238746
 20
88.31160668242467
 30
0.0
 10
65.9450160433553
 20
88.26553222421958
 30
0.0
 10
66.00193372984033
 20
88.1805243358849
 30
0.0
 10
66.02611975534411
 20
88.14024403470353
 30
0.0
 10
66.09132770572386
 20
88.02530780823759
 30
0.0
 10
66.12604376591511
 20
87.95472482309057
 30
0.0
 10
66.219259036246
 20
87.75051906401197
 30
0.0
 10
66.26493157160668
 20
87.62762068168459
 30
0.0
 10
66.30323665510522
 20
87.51074740529702
 30
0.0
  0
SPLINE
  5
A9
330
1F
100
AcDbEntity
  8
0
  6
Continuous
 62
     7
370
    15
100
AcDbSpline
210
0.0
220
0.0
230
1.0
 70
     8
 71
     3
 72
     8
 73
     4
 74
     0
 42
0.00000001
 43
0.00000001
 40
0.0
 40
0.0
 40
0.0
 40
0.0
 40
1.0
 40
1.0
 40
1.0
 40
1.0
 10
111.9871501775116
 20
132.3595564012624
 30
0.0
 10
112.4942370192709
 20
131.2284060470987
 30
0.0
 10
112.9898048584108
 20
130.0920216363309
 30
0.0
 10
113.4690830090007
 20
128.9510104064783
 30
0.0
  0
LINE
  5
AA
330
1F
100
AcDbEntity
  8
0
  6
Continuous
 62
     7
370
    15
100
AcDbLine
 10
113.4690830573
 20
128.9510107258
 30
0.0
 11
113.4690830573
 21
128.036733217
 31
0.0
  0
LINE
  5
AB
330
1F
100
AcDbEntity
  8
0
  6
Continuous
 62
     7
370
    15
100
AcDbLine
 10
122.7290837183
 20
138.3680621753
 30
0.0
 11
118.7710149302
 21
138.3680621753
 31
0.0
  0
LINE
  5
AC
330
1F
100
AcDbEntity
  8
0
  6
Continuous
 62
     7
370
    15
100
AcDbLine
 10
118.7710149302
 20
132.359556354
 30
0.0
 11
122.7290837183
 21
132.359556354
 31
0.0
  0
LINE
  5
AD
330
1F
100
AcDbEntity
  8
0
  6
Continuous
 62
     7
370
    15
100
AcDbLine
 10
118.7710149302
 20
132.359556354
 30
0.0
 11
118.7710149302
 21
138.3680621753
 31
0.0
  0
LINE
  5
AE
330
1F
100
AcDbEntity
  8
0
  6
Continuous
 62
     7
370
    15
100
AcDbLine
 10
117.2890832736
 20
128.036733217
 30
0.0
 11
117.2890832736
 21
128.9510107258
 31
0.0
  0
SPLINE
  5
AF
330
1F
100
AcDbEntity
  8
0
  6
Continuous
 62
     7
370
    15
100
AcDbSpline
210
0.0
220
0.0
230
1.0
 70
     8
 71
     3
 72
     8
 73
     4
 74
     0
 42
0.00000001
 43
0.00000001
 40
0.0
 40
0.0
 40
0.0
 40
0.0
 40
1.0
 40
1.0
 40
1.0
 40
1.0
 10
117.2890830090007
 20
128.9510104064783
 30
0.0
 10
117.7683611595905
 20
130.0920216363309
 30
0.0
 10
118.2639289987304
 20
131.2284060470987
 30
0.0
 10
118.7710158404897
 20
132.3595564012624
 30
0.0
  0
SPLINE
  5
B0
330
1F
100
AcDbEntity
  8
0
  6
Continuous
 62
     7
370
    15
100
AcDbSpline
210
0.0
220
0.0
230
1.0
 70
     8
 71
     3
 72
    12
 73
     8
 74
     0
 42
0.00000001
 43
0.00000001
 40
0.0
 40
0.0
 40
0.0
 40
0.0
 40
0.25
 40
0.25
 40
0.5
 40
0.5
 40
1.0
 40
1.0
 40
1.0
 40
1.0
 10
122.7290830090007
 20
132.3595564012624
 30
0.0
 10
122.8202827308263
 20
132.3595564012624
 30
0.0
 10
122.9108777399624
 20
132.3313367026745
 30
0.0
 10
123.064290466409
 20
132.2368936954264
 30
0.0
 10
123.1294993337327
 20
132.1706067187211
 30
0.0
 10
123.2822838630726
 20
131.9449818954328
 30
0.0
 10
123.3290830090007
 20
131.7625556324003
 30
0.0
 10
123.3290830090007
 20
131.5818190001534
 30
0.0
  0
LINE
  5
B1
330
1F
100
AcDbEntity
  8
0
  6
Continuous
 62
     7
370
    15
100
AcDbLine
 10
123.3290826991
 20
131.5818181852
 30
0.0
 11
123.3290826991
 21
127.750867478
 31
0.0
  0
SPLINE
  5
B2
330
1F
100
AcDbEntity
  8
0
  6
Continuous
 62
     7
370
    15
100
AcDbSpline
210
0.0
220
0.0
230
1.0
 70
     8
 71
     3
 72
    10
 73
     6
 74
     0
 42
0.00000001
 43
0.00000001
 40
0.0
 40
0.0
 40
0.0
 40
0.0
 40
0.5
 40
0.5
 40
1.0
 40
1.0
 40
1.0
 40
1.0
 10
123.3290830090007
 20
137.7473070626589
 30
0.0
 10
123.3290830090007
 20
137.9077123290097
 30
0.0
 10
123.2668451778938
 20
138.0667741419983
 30
0.0
 10
123.0477102541512
 20
138.2976866076286
 30
0.0
 10
122.8901215591594
 20
138.3680622120592
 30
0.0
 10
122.7290830090007
 20
138.3680622120592
 30
0.0
  0
LINE
  5
B3
330
1F
100
AcDbEntity
  8
0
  6
Continuous
 62
     7
370
    15
100
AcDbLine
 10
123.3290826991
 20
131.5818181852
 30
0.0
 11
123.3290826991
 21
137.7473077396
 31
0.0
  0
SPLINE
  5
B4
330
1F
100
AcDbEntity
  8
0
  6
Continuous
 62
     7
370
    15
100
AcDbSpline
210
0.0
220
0.0
230
1.0
 70
     8
 71
     3
 72
     8
 73
     4
 74
     0
 42
0.00000001
 43
0.00000001
 40
0.0
 40
0.0
 40
0.0
 40
0.0
 40
1.0
 40
1.0
 40
1.0
 40
1.0
 10
113.4690830090007
 20
135.7061009300666
 30
0.0
 10
112.9763729121549
 20
136.594119928193
 30
0.0
 10
112.4822902068759
 20
137.481382563879
 30
0.0
 10
111.9871501775116
 20
138.3680622120592
 30
0.0
  0
LINE
  5
B5
330
1F
100
AcDbEntity
  8
0
  6
Continuous
 62
     7
370
    15
100
AcDbLine
 10
113.4690830573
 20
128.9510107258
 30
0.0
 11
113.4690830573
 21
135.7061001131
 31
0.0
  0
SPLINE
  5
B6
330
1F
100
AcDbEntity
  8
0
  6
Continuous
 62
     7
370
    15
100
AcDbSpline
210
0.0
220
0.0
230
1.0
 70
     8
 71
     3
 72
     8
 73
     4
 74
     0
 42
0.00000001
 43
0.00000001
 40
0.0
 40
0.0
 40
0.0
 40
0.0
 40
1.0
 40
1.0
 40
1.0
 40
1.0
 10
118.7710158404897
 20
138.3680622120592
 30
0.0
 10
118.2758758111254
 20
137.481382563879
 30
0.0
 10
117.7817931058464
 20
136.594119928193
 30
0.0
 10
117.2890830090007
 20
135.7061009300666
 30
0.0
  0
LINE
  5
B7
330
1F
100
AcDbEntity
  8
0
  6
Continuous
 62
     7
370
    15
100
AcDbLine
 10
117.2890832736
 20
128.9510107258
 30
0.0
 11
117.2890832736
 21
135.7061001131
 31
0.0
  0
ARC
  5
B8
330
1F
100
AcDbEntity
  8
0
  6
Continuous
 62
     7
370
    15
100
AcDbCircle
 10
105.3789349351
 20
126.631176434
 30
0.0
 40
7.226129587108454
100
AcDbArc
 50
70.8273038412
 51
109.1277655246
  0
LINE
  5
B9
330
1F
100
AcDbEntity
  8
0
  6
Continuous
 62
     7
370
    15
100
AcDbLine
 10
182.9073673203
 20
90.900865815
 30
0.0
 11
182.9073673203
 21
124.9008676628
 31
0.0
  0
LINE
  5
BA
330
1F
100
AcDbEntity
  8
0
  6
Continuous
 62
     7
370
    15
100
AcDbLine
 10
156.9928025916
 20
124.7516865501
 30
0.0
 11
157.1196151986
 21
124.7414233753
 31
0.0
  0
SPLINE
  5
BB
330
1F
100
AcDbEntity
  8
0
  6
Continuous
 62
     7
370
    15
100
AcDbSpline
210
0.0
220
0.0
230
1.0
 70
     8
 71
     3
 72
    17
 73
    13
 74
     0
 42
0.00000001
 43
0.00000001
 40
0.0
 40
0.0
 40
0.0
 40
0.0
 40
0.0616426066796256
 40
0.145910078045686
 40
0.2364538733640351
 40
0.3395410248925489
 40
0.4563771607528352
 40
0.5823363707449902
 40
0.7106791354561516
 40
0.8344200819198637
 40
0.9262284699848754
 40
1.0
 40
1.0
 40
1.0
 40
1.0
 10
162.7955159261188
 20
124.8958105811868
 30
0.0
 10
162.7936560044188
 20
124.8954924956984
 30
0.0
 10
162.7892535085637
 20
124.8947395768823
 30
0.0
 10
162.4348037895193
 20
124.8425175576415
 30
0.0
 10
161.818073454059
 20
124.76421074106
 30
0.0
 10
160.910412980608
 20
124.6774581938169
 30
0.0
 10
159.7561415112369
 20
124.6210411067638
 30
0.0
 10
158.4703046969576
 20
124.6327764176681
 30
0.0
 10
157.248745614454
 20
124.7176959374552
 30
0.0
 10
156.3750882448784
 20
124.8209768072345
 30
0.0
 10
155.8924067115378
 20
124.8910975638001
 30
0.0
 10
155.8675641369271
 20
124.8950112575433
 30
0.0
 10
155.85649591827
 20
124.8967549422775
 30
0.0
  0
SPLINE
  5
BC
330
1F
100
AcDbEntity
  8
0
  6
Continuous
 62
     7
370
    15
100
AcDbSpline
210
0.0
220
0.0
230
1.0
 70
     8
 71
     3
 72
     9
 73
     5
 74
     0
 42
0.00000001
 43
0.00000001
 40
0.0
 40
0.0
 40
0.0
 40
0.0
 40
0.227154496386105
 40
1.0
 40
1.0
 40
1.0
 40
1.0
 10
156.3975310041865
 20
124.8218170026336
 30
0.0
 10
156.4310624852037
 20
124.8172151300221
 30
0.0
 10
156.5786777935096
 20
124.7969563515928
 30
0.0
 10
156.8122710745962
 20
124.7714212435529
 30
0.0
 10
156.9928025915584
 20
124.7516865501199
 30
0.0
  0
SPLINE
  5
BD
330
1F
100
AcDbEntity
  8
0
  6
Continuous
 62
     7
370
    15
100
AcDbSpline
210
0.0
220
0.0
230
1.0
 70
     8
 71
     3
 72
    66
 73
    62
 74
     0
 42
0.00000001
 43
0.00000001
 40
-0.0624999999999996
 40
-0.0624999999999996
 40
0.0
 40
0.0
 40
0.0624999999999981
 40
0.0624999999999981
 40
0.0937499999999977
 40
0.0937499999999977
 40
0.1249999999999972
 40
0.1249999999999972
 40
0.1562499999999968
 40
0.1562499999999968
 40
0.1874999999999973
 40
0.1874999999999973
 40
0.2187499999999979
 40
0.2187499999999979
 40
0.2499999999999984
 40
0.2499999999999984
 40
0.281249999999999
 40
0.281249999999999
 40
0.3124999999999996
 40
0.3124999999999996
 40
0.3437500000000002
 40
0.3437500000000002
 40
0.3750000000000007
 40
0.3750000000000007
 40
0.4062500000000012
 40
0.4062500000000012
 40
0.4375000000000017
 40
0.4375000000000017
 40
0.4687500000000023
 40
0.4687500000000023
 40
0.5000000000000028
 40
0.5000000000000028
 40
0.5312500000000033
 40
0.5312500000000033
 40
0.5625000000000038
 40
0.5625000000000038
 40
0.5937500000000043
 40
0.5937500000000043
 40
0.6250000000000048
 40
0.6250000000000048
 40
0.6562500000000043
 40
0.6562500000000043
 40
0.6875000000000039
 40
0.6875000000000039
 40
0.7187500000000033
 40
0.7187500000000033
 40
0.7500000000000029
 40
0.7500000000000029
 40
0.7812500000000026
 40
0.7812500000000026
 40
0.8125000000000021
 40
0.8125000000000021
 40
0.8437500000000018
 40
0.8437500000000018
 40
0.8750000000000012
 40
0.8750000000000012
 40
0.9062500000000008
 40
0.9062500000000008
 40
0.9375000000000004
 40
0.9375000000000004
 40
1.0
 40
1.0
 40
1.062499999999998
 40
1.062499999999998
 10
156.6536808286077
 20
109.8836022392256
 30
0.0
 10
157.3319268408962
 20
110.4125079561347
 30
0.0
 10
157.7107212336018
 20
110.6082813193533
 30
0.0
 10
158.3236011692247
 20
110.8062647027658
 30
0.0
 10
158.5310551324788
 20
110.8545618468653
 30
0.0
 10
158.9519878289167
 20
110.917571593012
 30
0.0
 10
159.1670350473459
 20
110.9322250122772
 30
0.0
 10
159.5959679686489
 20
110.9265734316852
 30
0.0
 10
159.8077884641694
 20
110.906575351902
 30
0.0
 10
160.2262434022315
 20
110.832858358828
 30
0.0
 10
160.4342242285493
 20
110.7786642693497
 30
0.0
 10
160.8384854625436
 20
110.6359875650163
 30
0.0
 10
161.0319421030271
 20
110.5487730752691
 30
0.0
 10
161.401396263013
 20
110.3421651369717
 30
0.0
 10
161.5783361883426
 20
110.2220480570098
 30
0.0
 10
161.9085640738951
 20
109.9485466073721
 30
0.0
 10
162.0580873060768
 20
109.7985500820052
 30
0.0
 10
162.3246811276382
 20
109.4707760743042
 30
0.0
 10
162.4428343169311
 20
109.290958769841
 30
0.0
 10
162.6359560649578
 20
108.9077771995616
 30
0.0
 10
162.7093036204775
 20
108.7087017105253
 30
0.0
 10
162.8075573605734
 20
108.2948715820837
 30
0.0
 10
162.8318988600763
 20
108.077146124296
 30
0.0
 10
162.8257287643274
 20
107.6500488925673
 30
0.0
 10
162.7961364210283
 20
107.4372876696717
 30
0.0
 10
162.684807891826
 20
107.0201464688131
 30
0.0
 10
162.6050649880295
 20
106.8220237156689
 30
0.0
 10
162.4017858728473
 20
106.4447001068364
 30
0.0
 10
162.2781944441093
 20
106.2666918773678
 30
0.0
 10
162.0005829567083
 20
105.9429415279487
 30
0.0
 10
161.843836820802
 20
105.7939141388182
 30
0.0
 10
161.5073168437706
 20
105.5294359448991
 30
0.0
 10
161.3282690126472
 20
105.4139752385708
 30
0.0
 10
160.9499497145358
 20
105.2142543184716
 30
0.0
 10
160.7502298519862
 20
105.1302796771677
 30
0.0
 10
160.3446049696565
 20
104.9981988359677
 30
0.0
 10
160.1370406940002
 20
104.949116408708
 30
0.0
 10
159.712425484131
 20
104.8846558040395
 30
0.0
 10
159.4967242144245
 20
104.869812528914
 30
0.0
 10
159.0704798422718
 20
104.8746852664848
 30
0.0
 10
158.8582224513162
 20
104.8941008708792
 30
0.0
 10
158.4354869447251
 20
104.9679311199457
 30
0.0
 10
158.2262942125082
 20
105.0224861509535
 30
0.0
 10
157.8251616863935
 20
105.163569040457
 30
0.0
 10
157.631323117359
 20
105.2503525870948
 30
0.0
 10
157.257940325005
 20
105.4586740047146
 30
0.0
 10
157.0790357824558
 20
105.5804485732466
 30
0.0
 10
156.75238938801
 20
105.8507733882953
 30
0.0
 10
156.6025026919323
 20
106.0003423080436
 30
0.0
 10
156.3326650907756
 20
106.3318269951582
 30
0.0
 10
156.2137137359962
 20
106.5136477132181
 30
0.0
 10
156.0220052764414
 20
106.8947028779543
 30
0.0
 10
155.946807562542
 20
107.0988670376882
 30
0.0
 10
155.8489110804536
 20
107.5169406573229
 30
0.0
 10
155.825855479466
 20
107.72891042117
 30
0.0
 10
155.8330284081292
 20
108.1588928266646
 30
0.0
 10
155.8640190987652
 20
108.3743602012676
 30
0.0
 10
155.975541836318
 20
108.7872150333083
 30
0.0
 10
156.0575294654798
 20
108.9895505789632
 30
0.0
 10
156.3642249730407
 20
109.5538487968127
 30
0.0
 10
156.6536808286077
 20
109.8836022392256
 30
0.0
 10
157.3319268408962
 20
110.4125079561347
 30
0.0
  0
LINE
  5
BE
330
1F
100
AcDbEntity
  8
0
  6
Continuous
 62
     7
370
    15
100
AcDbLine
 10
156.9928025916
 20
91.0500469277
 30
0.0
 11
156.8415334537
 21
91.031982995
 31
0.0
  0
SPLINE
  5
BF
330
1F
100
AcDbEntity
  8
0
  6
Continuous
 62
     7
370
    15
100
AcDbSpline
210
0.0
220
0.0
230
1.0
 70
     8
 71
     3
 72
    17
 73
    13
 74
     0
 42
0.00000001
 43
0.00000001
 40
0.0
 40
0.0
 40
0.0
 40
0.0
 40
0.0473409492602024
 40
0.1314478758949679
 40
0.2203408780863688
 40
0.321018040988343
 40
0.435668745930604
 40
0.5605288373282932
 40
0.688875570988785
 40
0.8139986410430254
 40
0.908237041949655
 40
1.0
 40
1.0
 40
1.0
 40
1.0
 10
155.8705067350825
 20
90.90711871478895
 30
0.0
 10
155.8632516392757
 20
90.90603623885939
 30
0.0
 10
155.8431069875921
 20
90.90303061341523
 30
0.0
 10
156.1459841504158
 20
90.94828878284035
 30
0.0
 10
156.7132930931671
 20
91.02263835733423
 30
0.0
 10
157.5745962261739
 20
91.11052762576533
 30
0.0
 10
158.691475272492
 20
91.17504671194166
 30
0.0
 10
159.9678289784298
 20
91.17664387914401
 30
0.0
 10
161.2157575622471
 20
91.10215100927522
 30
0.0
 10
162.1519042924869
 20
90.99817631481115
 30
0.0
 10
162.7268490422713
 20
90.91672049702082
 30
0.0
 10
162.7917998407848
 20
90.90662622724571
 30
0.0
 10
162.8238430335483
 20
90.90164626334051
 30
0.0
  0
LINE
  5
C0
330
1F
100
AcDbEntity
  8
0
  6
Continuous
 62
     7
370
    15
100
AcDbLine
 10
157.1804678156
 20
91.0650971005
 30
0.0
 11
156.9928025916
 21
91.0500469277
 31
0.0
  0
CIRCLE
  5
C1
330
1F
100
AcDbEntity
  8
0
  6
Continuous
 62
     7
370
    15
100
AcDbCircle
 10
159.329083009
 20
107.9008667389
 30
0.0
 40
2.5
  0
SPLINE
  5
C2
330
1F
100
AcDbEntity
  8
0
  6
Continuous
 62
     7
370
    15
100
AcDbSpline
210
0.0
220
0.0
230
1.0
 70
     8
 71
     3
 72
     9
 73
     5
 74
     0
 42
0.00000001
 43
0.00000001
 40
0.0
 40
0.0
 40
0.0
 40
0.0
 40
0.8535318000672214
 40
1.0
 40
1.0
 40
1.0
 40
1.0
 10
227.3612266495189
 20
119.7394062424097
 30
0.0
 10
227.3692695523252
 20
119.6768193678185
 30
0.0
 10
227.3786926374471
 20
119.6034924284046
 30
0.0
 10
227.3790289775061
 20
119.5134959406486
 30
0.0
 10
227.3790782406291
 20
119.5003143170867
 30
0.0
  0
LINE
  5
C3
330
1F
100
AcDbEntity
  8
0
  6
Continuous
 62
     7
370
    15
100
AcDbLine
 10
227.3790782406
 20
96.3014191607
 30
0.0
 11
227.3790782406
 21
119.5003143171
 31
0.0
  0
SPLINE
  5
C4
330
1F
100
AcDbEntity
  8
0
  6
Continuous
 62
     7
370
    15
100
AcDbSpline
210
0.0
220
0.0
230
1.0
 70
     8
 71
     3
 72
    11
 73
     7
 74
     0
 42
0.00000001
 43
0.00000001
 40
0.0
 40
0.0
 40
0.0
 40
0.0
 40
0.1247314611717214
 40
0.4579171886491795
 40
0.8199691823363082
 40
1.0
 40
1.0
 40
1.0
 40
1.0
 10
227.3790782406291
 20
96.30141916070322
 30
0.0
 10
227.3783310288401
 20
96.26002119835947
 30
0.0
 10
227.3755878466588
 20
96.10803998725066
 30
0.0
 10
227.3452981709275
 20
95.88386402913055
 30
0.0
 10
227.3025417930653
 20
95.70571566647334
 30
0.0
 10
227.2965379020466
 20
95.6850609898681
 30
0.0
 10
227.2945439531764
 20
95.6782013768349
 30
0.0
  0
LWPOLYLINE
  5
C5
330
1F
100
AcDbEntity
  8
0
  6
Continuous
 62
     7
370
    15
100
AcDbPolyline
 90
        4
 70
   128
 43
0.0
 10
227.2935008719
 20
95.7047990182
 10
227.2957956507
 20
95.6462262789
 10
227.304229708
 20
95.4315228978
 10
227.3056006148
 20
95.3968218187
  0
LWPOLYLINE
  5
C6
330
1F
100
AcDbEntity
  8
0
  6
Continuous
 62
     7
370
    15
100
AcDbPolyline
 90
        8
 70
   128
 43
0.0
 10
227.3790782406
 20
97.6514457384
 10
227.3793762639
 20
97.6438359017
 10
227.3961400702
 20
97.2174103031
 10
227.4147814228
 20
96.7429694379
 10
227.4324691012
 20
96.2927438909
 10
227.446505995
 20
95.9352752784
 10
227.4547761395
 20
95.724985435
 10
227.4564003661
 20
95.6834642807
  0
LWPOLYLINE
  5
C7
330
1F
100
AcDbEntity
  8
0
  6
Continuous
 62
     7
370
    15
100
AcDbPolyline
 90
        3
 70
   128
 43
0.0
 10
227.2467112257
 20
120.4072250644
 10
227.2460108712
 20
120.3894870946
 10
227.2411381915
 20
120.2656034971
  0
LWPOLYLINE
  5
C8
330
1F
100
AcDbEntity
  8
0
  6
Continuous
 62
     7
370
    15
100
AcDbPolyline
 90
        3
 70
   128
 43
0.0
 10
227.3911034777
 20
119.957327343
 10
227.3787802174
 20
119.6438357824
 10
227.3770516827
 20
119.5996417323
  0
LWPOLYLINE
  5
C9
330
1F
100
AcDbEntity
  8
0
  6
Continuous
 62
     7
370
    15
100
AcDbPolyline
 90
        3
 70
   128
 43
0.0
 10
227.397510977
 20
120.1205835337
 10
227.3971086457
 20
120.1101583088
 10
227.3911034777
 20
119.957327343
  0
LINE
  5
CA
330
1F
100
AcDbEntity
  8
0
  6
HIDDEN
 62
     7
370
     0
100
AcDbLine
 10
164.8790856912
 20
102.9008668507
 30
0.0
 11
164.8790856912
 21
112.9008666271
 31
0.0
  0
LINE
  5
CB
330
1F
100
AcDbEntity
  8
0
  6
HIDDEN
 62
     7
370
     0
100
AcDbLine
 10
164.3790846779
 20
103.4008669326
 30
0.0
 11
164.3790846779
 21
112.4008665452
 31
0.0
  0
LINE
  5
CC
330
1F
100
AcDbEntity
  8
0
  6
HIDDEN
 62
     7
370
     0
100
AcDbLine
 10
184.3790805056
 20
106.2440779883
 30
0.0
 11
182.3790839031
 21
106.2440779883
 31
0.0
  0
LINE
  5
CD
330
1F
100
AcDbEntity
  8
0
  6
HIDDEN
 62
     7
370
     0
100
AcDbLine
 10
184.3790805056
 20
103.4008669326
 30
0.0
 11
184.3790805056
 21
106.2440779883
 31
0.0
  0
LINE
  5
CE
330
1F
100
AcDbEntity
  8
0
  6
HIDDEN
 62
     7
370
     0
100
AcDbLine
 10
182.3790839031
 20
107.581004379
 30
0.0
 11
184.3790805056
 21
107.581004379
 31
0.0
  0
LINE
  5
CF
330
1F
100
AcDbEntity
  8
0
  6
HIDDEN
 62
     7
370
     0
100
AcDbLine
 10
184.3790805056
 20
109.5576554894
 30
0.0
 11
182.3790839031
 21
109.5576554894
 31
0.0
  0
LINE
  5
D0
330
1F
100
AcDbEntity
  8
0
  6
HIDDEN
 62
     7
370
     0
100
AcDbLine
 10
184.3790805056
 20
108.2207290988
 30
0.0
 11
184.3790805056
 21
112.4008665452
 31
0.0
  0
LINE
  5
D1
330
1F
100
AcDbEntity
  8
0
  6
HIDDEN
 62
     7
370
     0
100
AcDbLine
 10
182.3790839031
 20
108.2207290988
 30
0.0
 11
184.3790805056
 21
108.2207290988
 31
0.0
  0
LINE
  5
D2
330
1F
100
AcDbEntity
  8
0
  6
HIDDEN
 62
     7
370
     0
100
AcDbLine
 10
182.3790839031
 20
106.2440779883
 30
0.0
 11
182.3790839031
 21
108.2207290988
 31
0.0
  0
LINE
  5
D3
330
1F
100
AcDbEntity
  8
0
  6
HIDDEN
 62
     7
370
     0
100
AcDbLine
 10
182.3790839031
 20
108.5373391056
 30
0.0
 11
182.3790839031
 21
108.2207290988
 31
0.0
  0
LINE
  5
D4
330
1F
100
AcDbEntity
  8
0
  6
HIDDEN
 62
     7
370
     0
100
AcDbLine
 10
182.3790839031
 20
106.5606879661
 30
0.0
 11
184.3790805056
 21
106.5606879661
 31
0.0
  0
LINE
  5
D5
330
1F
100
AcDbEntity
  8
0
  6
HIDDEN
 62
     7
370
     0
100
AcDbLine
 10
184.3790805056
 20
106.5606879661
 30
0.0
 11
184.3790805056
 21
106.2440779883
 31
0.0
  0
LINE
  5
D6
330
1F
100
AcDbEntity
  8
0
  6
HIDDEN
 62
     7
370
     0
100
AcDbLine
 10
184.3790805056
 20
108.5373391056
 30
0.0
 11
182.3790839031
 21
108.5373391056
 31
0.0
  0
LINE
  5
D7
330
1F
100
AcDbEntity
  8
0
  6
HIDDEN
 62
     7
370
     0
100
AcDbLine
 10
178.3790832474
 20
108.8064112942
 30
0.0
 11
178.3790832474
 21
107.4610502351
 31
0.0
  0
LINE
  5
D8
330
1F
100
AcDbEntity
  8
0
  6
HIDDEN
 62
     7
370
     0
100
AcDbLine
 10
170.3790819361
 20
107.4610502351
 30
0.0
 11
170.3790819361
 21
108.8064112942
 31
0.0
  0
LINE
  5
D9
330
1F
100
AcDbEntity
  8
0
  6
HIDDEN
 62
     7
370
     0
100
AcDbLine
 10
178.3790832474
 20
107.4610502351
 30
0.0
 11
178.3790832474
 21
106.3355974279
 31
0.0
  0
LINE
  5
DA
330
1F
100
AcDbEntity
  8
0
  6
HIDDEN
 62
     7
370
     0
100
AcDbLine
 10
178.3790832474
 20
107.4610502351
 30
0.0
 11
182.3790839031
 21
107.4610502351
 31
0.0
  0
LINE
  5
DB
330
1F
100
AcDbEntity
  8
0
  6
HIDDEN
 62
     7
370
     0
100
AcDbLine
 10
170.3790819361
 20
106.3355974279
 30
0.0
 11
170.3790819361
 21
107.4610502351
 31
0.0
  0
LINE
  5
DC
330
1F
100
AcDbEntity
  8
0
  6
HIDDEN
 62
     7
370
     0
100
AcDbLine
 10
170.3790819361
 20
107.4610502351
 30
0.0
 11
164.3790846779
 21
107.4610502351
 31
0.0
  0
LINE
  5
DD
330
1F
100
AcDbEntity
  8
0
  6
HIDDEN
 62
     7
370
     0
100
AcDbLine
 10
178.3790832474
 20
110.1517723532
 30
0.0
 11
178.3790832474
 21
108.8064112942
 31
0.0
  0
LINE
  5
DE
330
1F
100
AcDbEntity
  8
0
  6
HIDDEN
 62
     7
370
     0
100
AcDbLine
 10
170.3790819361
 20
108.8064112942
 30
0.0
 11
170.3790819361
 21
110.1517723532
 31
0.0
  0
LINE
  5
DF
330
1F
100
AcDbEntity
  8
0
  6
HIDDEN
 62
     7
370
     0
100
AcDbLine
 10
178.3790832474
 20
106.3355974279
 30
0.0
 11
178.3790832474
 21
105.2101447372
 31
0.0
  0
LINE
  5
E0
330
1F
100
AcDbEntity
  8
0
  6
HIDDEN
 62
     7
370
     0
100
AcDbLine
 10
170.3790819361
 20
105.2101447372
 30
0.0
 11
170.3790819361
 21
106.3355974279
 31
0.0
  0
LINE
  5
E1
330
1F
100
AcDbEntity
  8
0
  6
HIDDEN
 62
     7
370
     0
100
AcDbLine
 10
170.3790819361
 20
110.1517723532
 30
0.0
 11
170.3790819361
 21
110.3716806633
 31
0.0
  0
LINE
  5
E2
330
1F
100
AcDbEntity
  8
0
  6
HIDDEN
 62
     7
370
     0
100
AcDbLine
 10
170.3790819361
 20
110.1517723532
 30
0.0
 11
164.3790846779
 21
110.1517723532
 31
0.0
  0
LINE
  5
E3
330
1F
100
AcDbEntity
  8
0
  6
HIDDEN
 62
     7
370
     0
100
AcDbLine
 10
178.3790832474
 20
110.3716806633
 30
0.0
 11
178.3790832474
 21
110.1517723532
 31
0.0
  0
LINE
  5
E4
330
1F
100
AcDbEntity
  8
0
  6
HIDDEN
 62
     7
370
     0
100
AcDbLine
 10
178.3790832474
 20
110.1517723532
 30
0.0
 11
184.3790805056
 21
110.1517723532
 31
0.0
  0
LINE
  5
E5
330
1F
100
AcDbEntity
  8
0
  6
HIDDEN
 62
     7
370
     0
100
AcDbLine
 10
170.3790819361
 20
105.6499611245
 30
0.0
 11
164.3790846779
 21
105.6499611245
 31
0.0
  0
LINE
  5
E6
330
1F
100
AcDbEntity
  8
0
  6
HIDDEN
 62
     7
370
     0
100
AcDbLine
 10
170.3790819361
 20
105.2101447372
 30
0.0
 11
164.3790846779
 21
105.2101447372
 31
0.0
  0
LINE
  5
E7
330
1F
100
AcDbEntity
  8
0
  6
HIDDEN
 62
     7
370
     0
100
AcDbLine
 10
178.3790832474
 20
105.6499611245
 30
0.0
 11
184.3790805056
 21
105.6499611245
 31
0.0
  0
LINE
  5
E8
330
1F
100
AcDbEntity
  8
0
  6
HIDDEN
 62
     7
370
     0
100
AcDbLine
 10
178.3790832474
 20
105.2101447372
 30
0.0
 11
184.3790805056
 21
105.2101447372
 31
0.0
  0
LINE
  5
E9
330
1F
100
AcDbEntity
  8
0
  6
HIDDEN
 62
     7
370
     0
100
AcDbLine
 10
170.3790819361
 20
110.3716806633
 30
0.0
 11
170.3790819361
 21
110.5915887406
 31
0.0
  0
LINE
  5
EA
330
1F
100
AcDbEntity
  8
0
  6
HIDDEN
 62
     7
370
     0
100
AcDbLine
 10
178.3790832474
 20
110.5915887406
 30
0.0
 11
178.3790832474
 21
110.3716806633
 31
0.0
  0
LINE
  5
EB
330
1F
100
AcDbEntity
  8
0
  6
HIDDEN
 62
     7
370
     0
100
AcDbLine
 10
182.3790839031
 20
109.2410455117
 30
0.0
 11
184.3790805056
 21
109.2410455117
 31
0.0
  0
LINE
  5
EC
330
1F
100
AcDbEntity
  8
0
  6
HIDDEN
 62
     7
370
     0
100
AcDbLine
 10
182.3790839031
 20
108.5373391056
 30
0.0
 11
182.3790839031
 21
109.2410455117
 31
0.0
  0
LINE
  5
ED
330
1F
100
AcDbEntity
  8
0
  6
HIDDEN
 62
     7
370
     0
100
AcDbLine
 10
178.3790832474
 20
108.3406832427
 30
0.0
 11
182.3790839031
 21
108.3406832427
 31
0.0
  0
LINE
  5
EE
330
1F
100
AcDbEntity
  8
0
  6
HIDDEN
 62
     7
370
     0
100
AcDbLine
 10
178.3790832474
 20
110.5915887406
 30
0.0
 11
184.3790805056
 21
110.5915887406
 31
0.0
  0
LINE
  5
EF
330
1F
100
AcDbEntity
  8
0
  6
HIDDEN
 62
     7
370
     0
100
AcDbLine
 10
170.3790819361
 20
108.3406832427
 30
0.0
 11
164.3790846779
 21
108.3406832427
 31
0.0
  0
LINE
  5
F0
330
1F
100
AcDbEntity
  8
0
  6
HIDDEN
 62
     7
370
     0
100
AcDbLine
 10
170.3790819361
 20
110.5915887406
 30
0.0
 11
164.3790846779
 21
110.5915887406
 31
0.0
  0
LINE
  5
F1
330
1F
100
AcDbEntity
  8
0
  6
HIDDEN
 62
     7
370
     0
100
AcDbLine
 10
184.3790805056
 20
107.2643943721
 30
0.0
 11
182.3790839031
 21
107.2643943721
 31
0.0
  0
LINE
  5
F2
330
1F
100
AcDbEntity
  8
0
  6
HIDDEN
 62
     7
370
     0
100
AcDbLine
 10
184.3790805056
 20
107.2643943721
 30
0.0
 11
184.3790805056
 21
106.5606879661
 31
0.0
  0
LINE
  5
F3
330
1F
100
AcDbEntity
  8
0
  6
HIDDEN
 62
     7
370
     0
100
AcDbLine
 10
182.3790839031
 20
109.5576554894
 30
0.0
 11
182.3790839031
 21
109.2410455117
 31
0.0
  0
LINE
  5
F4
330
1F
100
AcDbEntity
  8
0
  6
HIDDEN
 62
     7
370
     0
100
AcDbLine
 10
184.3790805056
 20
107.581004379
 30
0.0
 11
184.3790805056
 21
107.2643943721
 31
0.0
  0
LINE
  5
F5
330
1F
100
AcDbEntity
  8
0
  6
HIDDEN
 62
     7
370
     0
100
AcDbLine
 10
111.9871504694
 20
132.359556354
 30
0.0
 11
111.9871504694
 21
127.750867478
 31
0.0
  0
ARC
  5
F6
330
1F
100
AcDbEntity
  8
0
  6
HIDDEN
 62
     7
370
     0
100
AcDbCircle
 10
105.6813299575
 20
120.3788463593
 30
0.0
 40
3.660563989378777
100
AcDbArc
 50
265.263792563
 51
12.79249418
  0
ARC
  5
F7
330
1F
100
AcDbEntity
  8
0
  6
HIDDEN
 62
     7
370
     0
100
AcDbCircle
 10
105.0961687054
 20
120.390736742
 30
0.0
 40
3.670873411245052
100
AcDbArc
 50
166.0486534931
 51
274.4201762762
  0
LINE
  5
F8
330
1F
100
AcDbEntity
  8
0
  6
HIDDEN
 62
     7
370
     0
100
AcDbLine
 10
85.374233508
 20
84.3762675891
 30
0.0
 11
84.8400874152
 21
84.3216529707
 31
0.0
  0
LINE
  5
F9
330
1F
100
AcDbEntity
  8
0
  6
HIDDEN
 62
     7
370
     0
100
AcDbLine
 10
84.6024343833
 20
131.5041998992
 30
0.0
 11
85.3741403758
 21
131.4254491249
 31
0.0
  0
SPLINE
  5
FA
330
1F
100
AcDbEntity
  8
0
  6
HIDDEN
 62
     7
370
     0
100
AcDbSpline
210
0.0
220
0.0
230
1.0
 70
     8
 71
     3
 72
    15
 73
    11
 74
     0
 42
0.00000001
 43
0.00000001
 40
0.0
 40
0.0
 40
0.0
 40
0.0
 40
0.1409172263352446
 40
0.281889861653346
 40
0.4212989542022905
 40
0.5593768841673977
 40
0.6988856533029646
 40
0.840367202775075
 40
0.9813164473602943
 40
1.0
 40
1.0
 40
1.0
 40
1.0
 10
91.13408504941668
 20
88.06333827171663
 30
0.0
 10
90.818043329804
 20
88.1036915934913
 30
0.0
 10
90.18583562223562
 20
88.18441410406113
 30
0.0
 10
88.9516724499214
 20
88.2609720504439
 30
0.0
 10
87.68095032610574
 20
88.25629398242896
 30
0.0
 10
86.49239085956928
 20
88.17549751720574
 30
0.0
 10
85.49926818027886
 20
88.05110297035151
 30
0.0
 10
84.8598596489651
 20
87.94469602359028
 30
0.0
 10
84.57883966061169
 20
87.89161896428072
 30
0.0
 10
84.6454002291005
 20
87.90387345624264
 30
0.0
 10
84.65319053226318
 20
87.90530773196558
 30
0.0
  0
SPLINE
  5
FB
330
1F
100
AcDbEntity
  8
0
  6
HIDDEN
 62
     7
370
     0
100
AcDbSpline
210
0.0
220
0.0
230
1.0
 70
     8
 71
     3
 72
    15
 73
    11
 74
     0
 42
0.00000001
 43
0.00000001
 40
0.0
 40
0.0
 40
0.0
 40
0.0
 40
0.1201202497733958
 40
0.2584739452442804
 40
0.3987302041697883
 40
0.5404022600041716
 40
0.680739511736143
 40
0.8190355942651634
 40
0.9577823154231621
 40
1.0
 40
1.0
 40
1.0
 40
1.0
 10
84.65319053226318
 20
127.8964257458244
 30
0.0
 10
84.67389978106665
 20
127.8924012417501
 30
0.0
 10
84.71846180330166
 20
127.8837413409615
 30
0.0
 10
85.28090127303011
 20
127.7844484222503
 30
0.0
 10
86.17436352847736
 20
127.660532410539
 30
0.0
 10
87.33334235232954
 20
127.5608210350053
 30
0.0
 10
88.60637922114927
 20
127.5336839773073
 30
0.0
 10
89.84066456787637
 20
127.5890213394374
 30
0.0
 10
90.66862764557223
 20
127.6755010752288
 30
0.0
 10
91.04603795821856
 20
127.7264979943659
 30
0.0
 10
91.13408504941668
 20
127.7383952060733
 30
0.0
  0
SPLINE
  5
FC
330
1F
100
AcDbEntity
  8
0
  6
HIDDEN
 62
     7
370
     0
100
AcDbSpline
210
0.0
220
0.0
230
1.0
 70
     8
 71
     3
 72
    10
 73
     6
 74
     0
 42
0.00000001
 43
0.00000001
 40
0.0
 40
0.0
 40
0.0
 40
0.0
 40
0.4474971913018269
 40
0.8949777274716751
 40
1.0
 40
1.0
 40
1.0
 40
1.0
 10
91.13408504941668
 20
127.7383952060733
 30
0.0
 10
91.38079488661265
 20
127.7679072998919
 30
0.0
 10
91.87420537885777
 20
127.8269303891361
 30
0.0
 10
92.16322310688489
 20
127.8408714240966
 30
0.0
 10
92.10281659488382
 20
127.8369781454175
 30
0.0
 10
92.0913342475256
 20
127.8362380931173
 30
0.0
  0
SPLINE
  5
FD
330
1F
100
AcDbEntity
  8
0
  6
HIDDEN
 62
     7
370
     0
100
AcDbSpline
210
0.0
220
0.0
230
1.0
 70
     8
 71
     3
 72
    10
 73
     6
 74
     0
 42
0.00000001
 43
0.00000001
 40
0.0
 40
0.0
 40
0.0
 40
0.0
 40
0.3454359735265966
 40
0.7966850064867932
 40
1.0
 40
1.0
 40
1.0
 40
1.0
 10
92.09134542339649
 20
87.96549538467268
 30
0.0
 10
92.08178536220288
 20
87.96605062437038
 30
0.0
 10
92.05973682644589
 20
87.96733118336272
 30
0.0
 10
91.64281143445032
 20
87.99728924940214
 30
0.0
 10
91.25465181846381
 20
88.04768483314245
 30
0.0
 10
91.13408504941668
 20
88.06333827171663
 30
0.0
  0
LINE
  5
FE
330
1F
100
AcDbEntity
  8
0
  6
HIDDEN
 62
     7
370
     0
100
AcDbLine
 10
78.3830585047
 20
90.900865815
 30
0.0
 11
78.3830585047
 21
124.9008676628
 31
0.0
  0
LWPOLYLINE
  5
FF
330
1F
100
AcDbEntity
  8
0
  6
HIDDEN
 62
     7
370
     0
100
AcDbPolyline
 90
       13
 70
   128
 43
0.0
 10
105.379083389
 20
129.8464699307
 10
106.2389651402
 20
129.8932279119
 10
107.0586398333
 20
130.0313188354
 10
107.7997798189
 20
130.2542830477
 10
108.4277315154
 20
130.5516971866
 10
108.9131312534
 20
130.9096528808
 10
109.2332827016
 20
131.3114124009
 10
109.3732167124
 20
131.7381909708
 10
109.326388882
 20
132.1700340727
 10
109.0949896812
 20
132.5867450455
 10
108.6898392155
 20
132.9688424835
 10
108.1298805862
 20
133.2984598944
 10
107.7521156608
 20
133.4564941594
  0
LWPOLYLINE
  5
100
330
1F
100
AcDbEntity
  8
0
  6
HIDDEN
 62
     7
370
     0
100
AcDbPolyline
 90
       13
 70
   128
 43
0.0
 10
103.0111072674
 20
133.4583530793
 10
102.6282852604
 20
133.2984598944
 10
102.0683270968
 20
132.9688424835
 10
101.6631761655
 20
132.5867450455
 10
101.4317769646
 20
132.1700340727
 10
101.3849491342
 20
131.7381909708
 10
101.524883145
 20
131.3114124009
 10
101.8450350589
 20
130.9096528808
 10
102.3304347969
 20
130.5516971866
 10
102.9583860277
 20
130.2542830477
 10
103.699526479
 20
130.0313188354
 10
104.5192011721
 20
129.8932279119
 10
105.379083389
 20
129.8464699307
  0
SPLINE
  5
101
330
1F
100
AcDbEntity
  8
0
  6
HIDDEN
 62
     7
370
     0
100
AcDbSpline
210
0.0
220
0.0
230
1.0
 70
     8
 71
     3
 72
    11
 73
     7
 74
     0
 42
0.00000001
 43
0.00000001
 40
0.0
 40
0.0
 40
0.0
 40
0.0
 40
0.0005779865010845
 40
0.0005779865010845
 40
0.0005779865010845
 40
0.0011559733324421
 40
0.0011559733324421
 40
0.0011559733324421
 40
0.0011559733324421
 10
65.47908300900069
 20
109.9007073470549
 30
0.0
 10
65.64575026380665
 20
109.8987237077138
 30
0.0
 10
65.81241669348431
 20
109.8966861007052
 30
0.0
 10
65.97908303193614
 20
109.8945746372988
 30
0.0
 10
66.14574946076254
 20
109.8924631727475
 30
0.0
 10
66.31241583440024
 20
109.8902776095911
 30
0.0
 10
66.47908300900069
 20
109.8879950322595
 30
0.0
  0
SPLINE
  5
102
330
1F
100
AcDbEntity
  8
0
  6
HIDDEN
 62
     7
370
     0
100
AcDbSpline
210
0.0
220
0.0
230
1.0
 70
     8
 71
     3
 72
     8
 73
     4
 74
     0
 42
0.00000001
 43
0.00000001
 40
0.0
 40
0.0
 40
0.0
 40
0.0
 40
0.0011564765856722
 40
0.0011564765856722
 40
0.0011564765856722
 40
0.0011564765856722
 10
66.47908300900069
 20
105.9041664366787
 30
0.0
 10
66.14577507843184
 20
105.9032912810954
 30
0.0
 10
65.81243984603962
 20
105.9022364298438
 30
0.0
 10
65.47908300900069
 20
105.9010653428063
 30
0.0
  0
LINE
  5
103
330
1F
100
AcDbEntity
  8
0
  6
HIDDEN
 62
     7
370
     0
100
AcDbLine
 10
105.038908971
 20
90.900865815
 30
0.0
 11
105.038908971
 21
124.9008676628
 31
0.0
  0
LINE
  5
104
330
1F
100
AcDbEntity
  8
0
  6
HIDDEN
 62
     7
370
     0
100
AcDbLine
 10
107.3290828704
 20
92.1758669088
 30
0.0
 11
107.3290828704
 21
123.625866569
 31
0.0
  0
SPLINE
  5
105
330
1F
100
AcDbEntity
  8
0
  6
HIDDEN
 62
     7
370
     0
100
AcDbSpline
210
0.0
220
0.0
230
1.0
 70
     8
 71
     3
 72
    16
 73
    12
 74
     0
 42
0.00000001
 43
0.00000001
 40
0.0
 40
0.0
 40
0.0
 40
0.0
 40
0.124999999999998
 40
0.124999999999998
 40
0.249999999999996
 40
0.249999999999996
 40
0.4999999999999973
 40
0.4999999999999973
 40
0.7499999999999987
 40
0.7499999999999987
 40
1.0
 40
1.0
 40
1.0
 40
1.0
 10
74.17908300900068
 20
92.09937630286332
 30
0.0
 10
74.2742047636665
 20
92.09937630286332
 30
0.0
 10
74.36753483239458
 20
92.09556046947051
 30
0.0
 10
74.55079659313259
 20
92.08078991674071
 30
0.0
 10
74.64167430868959
 20
92.06963186876513
 30
0.0
 10
74.89847600620934
 20
92.0271605986234
 30
0.0
 10
75.05354337108133
 20
91.9861144014206
 30
0.0
 10
75.30728983263595
 20
91.8909682848387
 30
0.0
 10
75.4081602843038
 20
91.83620555075714
 30
0.0
 10
75.54340669899864
 20
91.72494442685326
 30
0.0
 10
75.57908300900068
 20
91.66777468952456
 30
0.0
 10
75.57908300900068
 20
91.61335311649086
 30
0.0
  0
SPLINE
  5
106
330
1F
100
AcDbEntity
  8
0
  6
HIDDEN
 62
     7
370
     0
100
AcDbSpline
210
0.0
220
0.0
230
1.0
 70
     8
 71
     3
 72
     8
 73
     4
 74
     0
 42
0.00000001
 43
0.00000001
 40
0.0
 40
0.0
 40
0.0
 40
0.0
 40
1.0
 40
1.0
 40
1.0
 40
1.0
 10
66.77908301231588
 20
94.24417924894556
 30
0.0
 10
66.7790830123178
 20
93.36028210662863
 30
0.0
 10
66.765602386408
 20
92.64569886156667
 30
0.0
 10
66.7642510182187
 20
92.09937630286332
 30
0.0
  0
LINE
  5
107
330
1F
100
AcDbEntity
  8
0
  6
HIDDEN
 62
     7
370
     0
100
AcDbLine
 10
66.4790833458
 20
98.3000401998
 30
0.0
 11
66.4790833458
 21
95.2690890649
 31
0.0
  0
SPLINE
  5
108
330
1F
100
AcDbEntity
  8
0
  6
HIDDEN
 62
     7
370
     0
100
AcDbSpline
210
0.0
220
0.0
230
1.0
 70
     8
 71
     3
 72
    10
 73
     6
 74
     0
 42
0.00000001
 43
0.00000001
 40
0.0
 40
0.0
 40
0.0
 40
0.0
 40
0.5
 40
0.5
 40
1.0
 40
1.0
 40
1.0
 40
1.0
 10
66.7790830121884
 20
99.66788036325214
 30
0.0
 10
66.77908301218837
 20
99.42589639564532
 30
0.0
 10
66.75093298311779
 20
99.1915539666803
 30
0.0
 10
66.64734306897537
 20
98.73617894440262
 30
0.0
 10
66.57071435938389
 20
98.51457438129526
 30
0.0
 10
66.47908300900069
 20
98.30003994649734
 30
0.0
  0
LINE
  5
109
330
1F
100
AcDbEntity
  8
0
  6
HIDDEN
 62
     7
370
     0
100
AcDbLine
 10
66.7790828361
 20
111.5055004725
 30
0.0
 11
66.7790828361
 21
99.6678801844
 31
0.0
  0
SPLINE
  5
10A
330
1F
100
AcDbEntity
  8
0
  6
HIDDEN
 62
     7
370
     0
100
AcDbSpline
210
0.0
220
0.0
230
1.0
 70
     8
 71
     3
 72
     8
 73
     4
 74
     0
 42
0.00000001
 43
0.00000001
 40
0.0
 40
0.0
 40
0.0
 40
0.0
 40
1.0
 40
1.0
 40
1.0
 40
1.0
 10
66.47908300900068
 20
117.5078060599633
 30
0.0
 10
66.66011447555958
 20
117.0756985743006
 30
0.0
 10
66.7790830121941
 20
116.621553168201
 30
0.0
 10
66.77908301218841
 20
116.1338531145069
 30
0.0
  0
LINE
  5
10B
330
1F
100
AcDbEntity
  8
0
  6
HIDDEN
 62
     7
370
     0
100
AcDbLine
 10
66.4790833458
 20
120.5410086209
 30
0.0
 11
66.4790833458
 21
117.5078064794
 31
0.0
  0
SPLINE
  5
10C
330
1F
100
AcDbEntity
  8
0
  6
HIDDEN
 62
     7
370
     0
100
AcDbSpline
210
0.0
220
0.0
230
1.0
 70
     8
 71
     3
 72
    10
 73
     6
 74
     0
 42
0.00000001
 43
0.00000001
 40
0.0
 40
0.0
 40
0.0
 40
0.0
 40
0.5
 40
0.5
 40
1.0
 40
1.0
 40
1.0
 40
1.0
 10
66.7790830123939
 20
121.5575542288148
 30
0.0
 10
66.7790830123921
 20
121.3929178822088
 30
0.0
 10
66.75192434163661
 20
121.2257626583783
 30
0.0
 10
66.6461593463182
 20
120.8871396505767
 30
0.0
 10
66.56974455802104
 20
120.7148678732857
 30
0.0
 10
66.47908300900072
 20
120.5410090459417
 30
0.0
  0
SPLINE
  5
10D
330
1F
100
AcDbEntity
  8
0
  6
HIDDEN
 62
     7
370
     0
100
AcDbSpline
210
0.0
220
0.0
230
1.0
 70
     8
 71
     3
 72
    18
 73
    14
 74
     0
 42
0.00000001
 43
0.00000001
 40
0.0
 40
0.0
 40
0.0
 40
0.0
 40
0.2500000000000033
 40
0.2500000000000033
 40
0.3750000000000029
 40
0.3750000000000029
 40
0.5000000000000026
 40
0.5000000000000026
 40
0.6250000000000022
 40
0.6250000000000022
 40
0.7500000000000018
 40
0.7500000000000018
 40
1.0
 40
1.0
 40
1.0
 40
1.0
 10
71.57908300900068
 20
124.1883803612991
 30
0.0
 10
71.57908300900068
 20
124.1339058407469
 30
0.0
 10
71.54417231760851
 20
124.0775247813944
 30
0.0
 10
71.44216301627546
 20
123.9934479405409
 30
0.0
 10
71.40052666159735
 20
123.96611423655
 30
0.0
 10
71.3021208661086
 20
123.913160320951
 30
0.0
 10
71.24457765440431
 20
123.8872729672339
 30
0.0
 10
71.11727948083137
 20
123.8394954224006
 30
0.0
 10
71.0476921760739
 20
123.8175475042227
 30
0.0
 10
70.89625793091895
 20
123.77811493931
 30
0.0
 10
70.813574027825
 20
123.7605586900842
 30
0.0
 10
70.55746256578695
 20
123.7181199246636
 30
0.0
 10
70.36954756189897
 20
123.7023571749266
 30
0.0
 10
70.17908300900068
 20
123.7023571749266
 30
0.0
  0
LINE
  5
10E
330
1F
100
AcDbEntity
  8
0
  6
HIDDEN
 62
     7
370
     0
100
AcDbLine
 10
70.1790826484
 20
123.7023579547
 30
0.0
 11
66.7790828361
 21
123.7023579547
 31
0.0
  0
LINE
  5
10F
330
1F
100
AcDbEntity
  8
0
  6
HIDDEN
 62
     7
370
     0
100
AcDbLine
 10
66.7101146742
 20
92.0993755231
 30
0.0
 11
74.179083304
 21
92.0993755231
 31
0.0
  0
SPLINE
  5
110
330
1F
100
AcDbEntity
  8
0
  6
HIDDEN
 62
     7
370
     0
100
AcDbSpline
210
0.0
220
0.0
230
1.0
 70
     8
 71
     3
 72
    22
 73
    18
 74
     0
 42
0.00000001
 43
0.00000001
 40
0.0
 40
0.0
 40
0.0
 40
0.0
 40
0.1249999999999998
 40
0.1249999999999998
 40
0.2499999999999995
 40
0.2499999999999995
 40
0.4999999999999992
 40
0.4999999999999992
 40
0.5624999999999993
 40
0.5624999999999993
 40
0.6249999999999994
 40
0.6249999999999994
 40
0.7499999999999996
 40
0.7499999999999996
 40
0.8749999999999998
 40
0.8749999999999998
 40
1.0
 40
1.0
 40
1.0
 40
1.0
 10
66.7101140223586
 20
92.09937630286332
 30
0.0
 10
66.69703162963023
 20
92.35448201301098
 30
0.0
 10
66.6838120661904
 20
92.64764027211488
 30
0.0
 10
66.66136488839628
 20
93.3099407377397
 30
0.0
 10
66.65188642137181
 20
93.68021465835108
 30
0.0
 10
66.63268846043528
 20
94.90277146146487
 30
0.0
 10
66.63380223343215
 20
95.83991038759673
 30
0.0
 10
66.65271302638523
 20
97.15978161711172
 30
0.0
 10
66.65734255424424
 20
97.43128352608804
 30
0.0
 10
66.6678237739902
 20
97.98966836089035
 30
0.0
 10
66.67361903527461
 20
98.27679121682995
 30
0.0
 10
66.69192825617955
 20
99.14938047120162
 30
0.0
 10
66.70596319045991
 20
99.74983614755749
 30
0.0
 10
66.73542036259673
 20
100.9873106400536
 30
0.0
 10
66.7509760535783
 20
101.624326796697
 30
0.0
 10
66.77477060357519
 20
102.9358153943816
 30
0.0
 10
66.78278965572055
 20
103.6119380060421
 30
0.0
 10
66.77908300900067
 20
104.2962331173269
 30
0.0
  0
LINE
  5
111
330
1F
100
AcDbEntity
  8
0
  6
HIDDEN
 62
     7
370
     0
100
AcDbLine
 10
66.7790828361
 20
111.5055004725
 30
0.0
 11
66.7790828361
 21
123.7023579547
 31
0.0
  0
SPLINE
  5
112
330
1F
100
AcDbEntity
  8
0
  6
HIDDEN
 62
     7
370
     0
100
AcDbSpline
210
0.0
220
0.0
230
1.0
 70
     8
 71
     3
 72
    10
 73
     6
 74
     0
 42
0.00000001
 43
0.00000001
 40
0.0
 40
0.0
 40
0.0
 40
0.0
 40
0.5
 40
0.5
 40
1.0
 40
1.0
 40
1.0
 40
1.0
 10
66.77908300900067
 20
104.2962331173118
 30
0.0
 10
66.7790830090005
 20
104.5701482653862
 30
0.0
 10
66.7533237791328
 20
104.8410898441163
 30
0.0
 10
66.65011784639965
 20
105.3767809257191
 30
0.0
 10
66.57277968252444
 20
105.6425277292411
 30
0.0
 10
66.47908300900068
 20
105.9041664366787
 30
0.0
  0
SPLINE
  5
113
330
1F
100
AcDbEntity
  8
0
  6
HIDDEN
 62
     7
370
     0
100
AcDbSpline
210
0.0
220
0.0
230
1.0
 70
     8
 71
     3
 72
    10
 73
     6
 74
     0
 42
0.00000001
 43
0.00000001
 40
0.0
 40
0.0
 40
0.0
 40
0.0
 40
0.5
 40
0.5
 40
1.0
 40
1.0
 40
1.0
 40
1.0
 10
66.47908300900068
 20
109.8879950322595
 30
0.0
 10
66.57231359039169
 20
110.1518888403296
 30
0.0
 10
66.64734320262843
 20
110.4180691509679
 30
0.0
 10
66.75241030180658
 20
110.9563917259261
 30
0.0
 10
66.77908301239277
 20
111.2291398421716
 30
0.0
 10
66.77908301239397
 20
111.5055003604621
 30
0.0
  0
LINE
  5
114
330
1F
100
AcDbEntity
  8
0
  6
HIDDEN
 62
     7
370
     0
100
AcDbLine
 10
66.4790833458
 20
105.9041665526
 30
0.0
 11
66.4790833458
 21
109.8879950246
 31
0.0
  0
SPLINE
  5
115
330
1F
100
AcDbEntity
  8
0
  6
HIDDEN
 62
     7
370
     0
100
AcDbSpline
210
0.0
220
0.0
230
1.0
 70
     8
 71
     3
 72
    11
 73
     7
 74
     0
 42
0.00000001
 43
0.00000001
 40
0.0
 40
0.0
 40
0.0
 40
0.0
 40
0.0593555301131378
 40
0.4495220799345397
 40
0.8430649130574479
 40
1.0
 40
1.0
 40
1.0
 40
1.0
 10
227.2883152677974
 20
120.1466745356117
 30
0.0
 10
227.2875394793393
 20
120.1495288049359
 30
0.0
 10
227.2816641373014
 20
120.171145275733
 30
0.0
 10
227.3062086834804
 20
120.0770171168775
 30
0.0
 10
227.3464956942339
 20
119.9325012262051
 30
0.0
 10
227.3579586805594
 20
119.7822431393425
 30
0.0
 10
227.3612266495189
 20
119.7394062424097
 30
0.0
  0
LINE
  5
116
330
1F
100
AcDbEntity
  8
0
  6
HIDDEN
 62
     7
370
     0
100
AcDbLine
 10
227.2945439532
 20
95.6782013768
 30
0.0
 11
227.2871976807
 21
95.6510924393
 31
0.0
  0
LINE
  5
117
330
1F
100
AcDbEntity
  8
0
  6
HIDDEN
 62
     7
370
     0
100
AcDbLine
 10
66.6290821596
 20
89.9108661929
 30
0.0
 11
66.6290821596
 21
87.0309280822
 31
0.0
  0
LINE
  5
118
330
1F
100
AcDbEntity
  8
0
  6
HIDDEN
 62
     7
370
     0
100
AcDbLine
 10
75.5790827885
 20
89.9108661929
 30
0.0
 11
75.5790827885
 21
85.9371288339
 31
0.0
  0
LINE
  5
119
330
1F
100
AcDbEntity
  8
0
  6
HIDDEN
 62
     7
370
     0
100
AcDbLine
 10
66.6290821596
 20
125.8908672849
 30
0.0
 11
66.6290821596
 21
128.7708053956
 31
0.0
  0
LINE
  5
11A
330
1F
100
AcDbEntity
  8
0
  6
HIDDEN
 62
     7
370
     0
100
AcDbLine
 10
71.5790821328
 20
125.8908672849
 30
0.0
 11
71.5790821328
 21
129.7449743966
 31
0.0
  0
LINE
  5
11B
330
1F
100
AcDbEntity
  8
0
  6
HIDDEN
 62
     7
370
     0
100
AcDbLine
 10
116.1790827378
 20
98.4008670444
 30
0.0
 11
116.1790827378
 21
117.4008664334
 31
0.0
  0
LINE
  5
11C
330
1F
100
AcDbEntity
  8
0
  6
HIDDEN
 62
     7
370
     0
100
AcDbLine
 10
119.1790832295
 20
98.4008670444
 30
0.0
 11
119.1790832295
 21
117.4008664334
 31
0.0
  0
LINE
  5
11D
330
1F
100
AcDbEntity
  8
0
  6
HIDDEN
 62
     7
370
     0
100
AcDbLine
 10
107.8290829524
 20
99.400866277
 30
0.0
 11
107.8290829524
 21
116.4008672008
 31
0.0
  0
LINE
  5
11E
330
1F
100
AcDbEntity
  8
0
  6
HIDDEN
 62
     7
370
     0
100
AcDbLine
 10
123.3290826991
 20
81.5008668819
 30
0.0
 11
117.1914080247
 21
81.5008668819
 31
0.0
  0
LINE
  5
11F
330
1F
100
AcDbEntity
  8
0
  6
HIDDEN
 62
     7
370
     0
100
AcDbLine
 10
113.5667583063
 20
81.5008668819
 30
0.0
 11
110.3290833622
 21
81.5008668819
 31
0.0
  0
LINE
  5
120
330
1F
100
AcDbEntity
  8
0
  6
HIDDEN
 62
     7
370
     0
100
AcDbLine
 10
102.3290829822
 20
76.4167434195
 30
0.0
 11
102.3290829822
 21
81.5008668819
 31
0.0
  0
LINE
  5
121
330
1F
100
AcDbEntity
  8
0
  6
HIDDEN
 62
     7
370
     0
100
AcDbLine
 10
110.3290833622
 20
81.5008668819
 30
0.0
 11
102.3290829822
 21
81.5008668819
 31
0.0
  0
LINE
  5
122
330
1F
100
AcDbEntity
  8
0
  6
HIDDEN
 62
     7
370
     0
100
AcDbLine
 10
110.3290833622
 20
134.3008665958
 30
0.0
 11
102.3290829822
 21
134.3008665958
 31
0.0
  0
LINE
  5
123
330
1F
100
AcDbEntity
  8
0
  6
HIDDEN
 62
     7
370
     0
100
AcDbLine
 10
123.3290826991
 20
134.3008665958
 30
0.0
 11
116.8947855099
 21
134.3008665958
 31
0.0
  0
LINE
  5
124
330
1F
100
AcDbEntity
  8
0
  6
HIDDEN
 62
     7
370
     0
100
AcDbLine
 10
113.863380821
 20
134.3008665958
 30
0.0
 11
110.3290833622
 21
134.3008665958
 31
0.0
  0
LINE
  5
125
330
1F
100
AcDbEntity
  8
0
  6
HIDDEN
 62
     7
370
     0
100
AcDbLine
 10
223.8790785983
 20
100.9008665228
 30
0.0
 11
223.8790785983
 21
114.900866955
 31
0.0
  0
SPLINE
  5
126
330
1F
100
AcDbEntity
  8
0
  6
HIDDEN
 62
     7
370
     0
100
AcDbSpline
210
0.0
220
0.0
230
1.0
 70
     8
 71
     3
 72
    11
 73
     7
 74
     0
 42
0.00000001
 43
0.00000001
 40
0.0
 40
0.0
 40
0.0
 40
0.0
 40
0.0008203708524183
 40
0.0008203708524183
 40
0.0008203708524183
 40
0.0016409967870154
 40
0.0016409967870154
 40
0.0016409967870154
 40
0.0016409967870154
 10
66.62908300900068
 20
92.04883398825224
 30
0.0
 10
66.43792470870203
 20
92.0076549596331
 30
0.0
 10
66.24649763862983
 20
91.9689009874031
 30
0.0
 10
66.05485201510919
 20
91.93253322812456
 30
0.0
 10
65.86314661002874
 20
91.89615412435853
 30
0.0
 10
65.6712076579698
 20
91.86215987359098
 30
0.0
 10
65.479083010899
 20
91.83051174819975
 30
0.0
  0
ELLIPSE
  5
127
330
1F
100
AcDbEntity
  8
0
  6
HIDDEN
 62
     7
370
     0
100
AcDbEllipse
 10
61.2366511404
 20
107.9008667389
 30
0.0
 11
20.19992453366649
 21
-1.421085471520200E-14
 31
0.0
210
0.0
220
0.0
230
1.0
 40
0.8164965809
 41
1.300566354717996
 42
1.359198697209599
  0
SPLINE
  5
128
330
1F
100
AcDbEntity
  8
0
  6
HIDDEN
 62
     7
370
     0
100
AcDbSpline
210
0.0
220
0.0
230
1.0
 70
     8
 71
     3
 72
     9
 73
     5
 74
     0
 42
0.00000001
 43
0.00000001
 40
0.0
 40
0.0
 40
0.0
 40
0.0
 40
0.8043892326262108
 40
1.0
 40
1.0
 40
1.0
 40
1.0
 10
181.3711097552737
 20
100.6024749608729
 30
0.0
 10
181.3636008405492
 20
100.6041111659666
 30
0.0
 10
181.354265913601
 20
100.6061452621818
 30
0.0
 10
181.2913811254139
 20
100.6183662635558
 30
0.0
 10
181.2790801837405
 20
100.6207568230126
 30
0.0
  0
SPLINE
  5
129
330
1F
100
AcDbEntity
  8
0
  6
HIDDEN
 62
     7
370
     0
100
AcDbSpline
210
0.0
220
0.0
230
1.0
 70
     8
 71
     3
 72
     9
 73
     5
 74
     0
 42
0.00000001
 43
0.00000001
 40
0.0
 40
0.0
 40
0.0
 40
0.0
 40
0.9014669005555003
 40
1.0
 40
1.0
 40
1.0
 40
1.0
 10
181.2790801837405
 20
115.1809766547773
 30
0.0
 10
181.3366110953597
 20
115.1924391152352
 30
0.0
 10
181.4004303122202
 20
115.2051544578072
 30
0.0
 10
181.3737396672489
 20
115.1997873542642
 30
0.0
 10
181.3711097552737
 20
115.199258516917
 30
0.0
  0
SPLINE
  5
12A
330
1F
100
AcDbEntity
  8
0
  6
HIDDEN
 62
     7
370
     0
100
AcDbSpline
210
0.0
220
0.0
230
1.0
 70
     8
 71
     3
 72
    12
 73
     8
 74
     0
 42
0.00000001
 43
0.00000001
 40
0.0
 40
0.0
 40
0.0
 40
0.0
 40
0.2499999999999937
 40
0.2499999999999937
 40
0.4999999999999873
 40
0.4999999999999873
 40
1.0
 40
1.0
 40
1.0
 40
1.0
 10
180.8790830089998
 20
114.7096845511045
 30
0.0
 10
180.8790830089981
 20
114.7877921991532
 30
0.0
 10
180.9024500659985
 20
114.8648681474347
 30
0.0
 10
180.970108881433
 20
114.9888567243906
 30
0.0
 10
181.0134942300386
 20
115.0371600007689
 30
0.0
 10
181.1425779578288
 20
115.1455112198457
 30
0.0
 10
181.2230187334895
 20
115.1701951994733
 30
0.0
 10
181.2790830090007
 20
115.1809766281755
 30
0.0
  0
LINE
  5
12B
330
1F
100
AcDbEntity
  8
0
  6
HIDDEN
 62
     7
370
     0
100
AcDbLine
 10
180.8790808632
 20
101.0920488866
 30
0.0
 11
180.8790808632
 21
114.7096845912
 31
0.0
  0
SPLINE
  5
12C
330
1F
100
AcDbEntity
  8
0
  6
HIDDEN
 62
     7
370
     0
100
AcDbSpline
210
0.0
220
0.0
230
1.0
 70
     8
 71
     3
 72
    14
 73
    10
 74
     0
 42
0.00000001
 43
0.00000001
 40
0.0
 40
0.0
 40
0.0
 40
0.0
 40
0.25
 40
0.25
 40
0.5
 40
0.5
 40
0.75
 40
0.75
 40
1.0
 40
1.0
 40
1.0
 40
1.0
 10
181.2790830090007
 20
100.6207568496144
 30
0.0
 10
181.2510353180439
 20
100.6261505549206
 30
0.0
 10
181.2178268658593
 20
100.6352120294702
 30
0.0
 10
181.1427966975369
 20
100.6678998301563
 30
0.0
 10
181.0999750344473
 20
100.6920780034108
 30
0.0
 10
181.0141004048785
 20
100.763970400858
 30
0.0
 10
180.97045533707
 20
100.8123309308061
 30
0.0
 10
180.9023876731884
 20
100.9368909630539
 30
0.0
 10
180.8790830090001
 20
101.0138782522931
 30
0.0
 10
180.879083009
 20
101.0920489266759
 30
0.0
  0
LINE
  5
12D
330
1F
100
AcDbEntity
  8
0
  6
HIDDEN
 62
     7
370
     0
100
AcDbLine
 10
188.3790811613
 20
100.9008665228
 30
0.0
 11
188.3790811613
 21
114.900866955
 31
0.0
  0
LINE
  5
12E
330
1F
100
AcDbEntity
  8
0
  6
HIDDEN
 62
     7
370
     0
100
AcDbLine
 10
66.6290821596
 20
89.9108661929
 30
0.0
 11
66.6290821596
 21
92.0488345096
 31
0.0
  0
LINE
  5
12F
330
1F
100
AcDbEntity
  8
0
  6
HIDDEN
 62
     7
370
     0
100
AcDbLine
 10
66.7101146742
 20
92.0993755231
 30
0.0
 11
66.6290821596
 21
92.0488345096
 31
0.0
  0
LINE
  5
130
330
1F
100
AcDbEntity
  8
0
  6
HIDDEN
 62
     7
370
     0
100
AcDbLine
 10
75.5790827885
 20
89.9108661929
 30
0.0
 11
75.5790827885
 21
91.6133536616
 31
0.0
  0
LINE
  5
131
330
1F
100
AcDbEntity
  8
0
  6
HIDDEN
 62
     7
370
     0
100
AcDbLine
 10
66.6290821596
 20
125.8908672849
 30
0.0
 11
66.6290821596
 21
123.7954920748
 31
0.0
  0
SPLINE
  5
132
330
1F
100
AcDbEntity
  8
0
  6
HIDDEN
 62
     7
370
     0
100
AcDbSpline
210
0.0
220
0.0
230
1.0
 70
     8
 71
     3
 72
     8
 73
     4
 74
     0
 42
0.00000001
 43
0.00000001
 40
0.0
 40
0.0
 40
0.0
 40
0.0
 40
1.0
 40
1.0
 40
1.0
 40
1.0
 10
66.62908300900068
 20
123.7954911899536
 30
0.0
 10
66.6790885079444
 20
123.7644554157345
 30
0.0
 10
66.72908857860882
 20
123.7334107707069
 30
0.0
 10
66.77908301239394
 20
123.7023571749266
 30
0.0
  0
LINE
  5
133
330
1F
100
AcDbEntity
  8
0
  6
HIDDEN
 62
     7
370
     0
100
AcDbLine
 10
71.5790821328
 20
125.8908672849
 30
0.0
 11
71.5790821328
 21
124.1883798162
 31
0.0
  0
LINE
  5
134
330
1F
100
AcDbEntity
  8
0
  6
HIDDEN
 62
     7
370
     0
100
AcDbLine
 10
150.3790823832
 20
102.4008667687
 30
0.0
 11
150.3790823832
 21
113.4008667091
 31
0.0
  0
SPLINE
  5
135
330
1F
100
AcDbEntity
  8
0
  6
HIDDEN
 62
     7
370
     0
100
AcDbSpline
210
0.0
220
0.0
230
1.0
 70
     8
 71
     3
 72
    14
 73
    10
 74
     0
 42
0.00000001
 43
0.00000001
 40
0.0
 40
0.0
 40
0.0
 40
0.0
 40
0.0408454466243038
 40
0.2109634328620909
 40
0.3824592275878471
 40
0.5594484742111917
 40
0.7380285275811482
 40
0.9112545321015398
 40
1.0
 40
1.0
 40
1.0
 40
1.0
 10
178.3941483213862
 20
113.3968080053125
 30
0.0
 10
178.389526396396
 20
113.3980523303125
 30
0.0
 10
178.3656545271189
 20
113.4044791684376
 30
0.0
 10
178.484174833903
 20
113.3720468432297
 30
0.0
 10
178.7423146825609
 20
113.310000299395
 30
0.0
 10
179.1427164479753
 20
113.236977277207
 30
0.0
 10
179.6261412860902
 20
113.1905233690505
 30
0.0
 10
180.0582506538329
 20
113.1899614895975
 30
0.0
 10
180.2978971813913
 20
113.2093660751152
 30
0.0
 10
180.3790798499545
 20
113.2159395733867
 30
0.0
  0
SPLINE
  5
136
330
1F
100
AcDbEntity
  8
0
  6
HIDDEN
 62
     7
370
     0
100
AcDbSpline
210
0.0
220
0.0
230
1.0
 70
     8
 71
     3
 72
    13
 73
     9
 74
     0
 42
0.00000001
 43
0.00000001
 40
0.0
 40
0.0
 40
0.0
 40
0.0
 40
0.1703091717800667
 40
0.3406697106622988
 40
0.5109243827518817
 40
0.6867087250209076
 40
0.8657852135026868
 40
1.0
 40
1.0
 40
1.0
 40
1.0
 10
180.3790798499545
 20
102.5857939044032
 30
0.0
 10
180.2202039256022
 20
102.5967830878534
 30
0.0
 10
179.9024041581875
 20
102.6187647692112
 30
0.0
 10
179.4083825224834
 20
102.5951034008695
 30
0.0
 10
178.9653985226396
 20
102.5359073127041
 30
0.0
 10
178.6189718931692
 20
102.4638587014525
 30
0.0
 10
178.4065539883491
 20
102.4084952097962
 30
0.0
 10
178.3978689948835
 20
102.4059960982708
 30
0.0
 10
178.3941483213862
 20
102.4049254724775
 30
0.0
  0
LINE
  5
137
330
1F
100
AcDbEntity
  8
0
  6
HIDDEN
 62
     7
370
     0
100
AcDbLine
 10
180.37907985
 20
102.5857939044
 30
0.0
 11
180.37907985
 21
113.2159395734
 31
0.0
  0
LINE
  5
138
330
1F
100
AcDbEntity
  8
0
  6
HIDDEN
 62
     7
370
     0
100
AcDbLine
 10
149.5979635134
 20
103.7008668887
 30
0.0
 11
149.5979635134
 21
112.1008665891
 31
0.0
  0
SPLINE
  5
139
330
1F
100
AcDbEntity
  8
0
  6
HIDDEN
 62
     7
370
     0
100
AcDbSpline
210
0.0
220
0.0
230
1.0
 70
     8
 71
     3
 72
    20
 73
    16
 74
     0
 42
0.00000001
 43
0.00000001
 40
0.0
 40
0.0
 40
0.0
 40
0.0
 40
0.1119595197270015
 40
0.1774767654920859
 40
0.249096185325418
 40
0.3298422369283467
 40
0.3986125725171922
 40
0.4998892967520781
 40
0.6138510411462624
 40
0.6790150058045442
 40
0.7495394119902732
 40
0.8296829969661308
 40
0.8981246339666275
 40
0.9995320129300933
 40
0.9999999999999999
 40
0.9999999999999999
 40
0.9999999999999999
 40
0.9999999999999999
 10
92.1279235831758
 20
84.30087330136637
 30
0.0
 10
92.08459966670843
 20
84.3143016695838
 30
0.0
 10
92.01592316129086
 20
84.33558814314924
 30
0.0
 10
91.57074465192066
 20
84.43890305681556
 30
0.0
 10
91.04418594522107
 20
84.55220329953372
 30
0.0
 10
90.35876094852013
 20
84.67513795282586
 30
0.0
 10
89.46544377073151
 20
84.79717263997127
 30
0.0
 10
88.35208412012503
 20
84.91490827715447
 30
0.0
 10
87.24130999147367
 20
84.92688214939707
 30
0.0
 10
86.35656171421105
 20
84.89982661080276
 30
0.0
 10
85.6893654441531
 20
84.85189354460249
 30
0.0
 10
85.14809095414586
 20
84.7955964351984
 30
0.0
 10
84.76051853693711
 20
84.75052474084872
 30
0.0
 10
84.56655583181411
 20
84.71162031829395
 30
0.0
 10
84.62967896508667
 20
84.72234992304593
 30
0.0
 10
84.62996893518772
 20
84.72239921186308
 30
0.0
  0
LINE
  5
13A
330
1F
100
AcDbEntity
  8
0
  6
HIDDEN
 62
     7
370
     0
100
AcDbLine
 10
85.5390952989
 20
84.8332042465
 30
0.0
 11
85.7229402378
 21
84.851394839
 31
0.0
  0
LINE
  5
13B
330
1F
100
AcDbEntity
  8
0
  6
HIDDEN
 62
     7
370
     0
100
AcDbLine
 10
85.7229374438
 20
130.9502697209
 30
0.0
 11
85.5488639414
 21
130.9674786994
 31
0.0
  0
SPLINE
  5
13C
330
1F
100
AcDbEntity
  8
0
  6
HIDDEN
 62
     7
370
     0
100
AcDbSpline
210
0.0
220
0.0
230
1.0
 70
     8
 71
     3
 72
    20
 73
    16
 74
     0
 42
0.00000001
 43
0.00000001
 40
0.0
 40
0.0
 40
0.0
 40
0.0
 40
0.0004889697591047
 40
0.1018319945141926
 40
0.1702475571949642
 40
0.2503691863856972
 40
0.3209567830713191
 40
0.3861815969282947
 40
0.5002554405931924
 40
0.6012243594512068
 40
0.6697680251707869
 40
0.7502401868573377
 40
0.8220490723920678
 40
0.8877204424947721
 40
1.0
 40
1.0
 40
1.0
 40
1.0
 10
84.6300024628004
 20
131.0792690733467
 30
0.0
 10
84.6296987189451
 20
131.0793202456497
 30
0.0
 10
84.56644155010575
 20
131.0899773007958
 30
0.0
 10
84.759673601531
 20
131.0512355398564
 30
0.0
 10
85.146611946682
 20
131.0061751270247
 30
0.0
 10
85.6876207650771
 20
130.9499227190994
 30
0.0
 10
86.35512043317142
 20
130.9019896529407
 30
0.0
 10
87.24094825034861
 20
130.8749165796086
 30
0.0
 10
88.35175506916423
 20
130.8867418686676
 30
0.0
 10
89.46382518663515
 20
131.0041928439307
 30
0.0
 10
90.35492611162655
 20
131.1258939717907
 30
0.0
 10
91.04040998868584
 20
131.2487170897608
 30
0.0
 10
91.56839852670377
 20
131.3621560864393
 30
0.0
 10
92.0157819103327
 20
131.4658947387755
 30
0.0
 10
92.08459260687971
 20
131.4873184809735
 30
0.0
 10
92.12800926485266
 20
131.5008359620367
 30
0.0
  0
LINE
  5
13D
330
1F
100
AcDbEntity
  8
0
  6
HIDDEN
 62
     7
370
     0
100
AcDbLine
 10
159.3290811493
 20
124.3235165844
 30
0.0
 11
161.8290862157
 21
124.3235165844
 31
0.0
  0
LINE
  5
13E
330
1F
100
AcDbEntity
  8
0
  6
HIDDEN
 62
     7
370
     0
100
AcDbLine
 10
156.8290835335
 20
124.3235165844
 30
0.0
 11
159.3290811493
 21
124.3235165844
 31
0.0
  0
LINE
  5
13F
330
1F
100
AcDbEntity
  8
0
  6
HIDDEN
 62
     7
370
     0
100
AcDbLine
 10
161.8290862157
 20
91.4782168934
 30
0.0
 11
156.8290835335
 21
91.4782168934
 31
0.0
  0
LINE
  5
140
330
1F
100
AcDbEntity
  8
0
  6
HIDDEN
 62
     7
370
     0
100
AcDbLine
 10
159.3290811493
 20
115.9008671189
 30
0.0
 11
161.8290862157
 21
115.9008671189
 31
0.0
  0
LINE
  5
141
330
1F
100
AcDbEntity
  8
0
  6
HIDDEN
 62
     7
370
     0
100
AcDbLine
 10
156.8290835335
 20
115.9008671189
 30
0.0
 11
159.3290811493
 21
115.9008671189
 31
0.0
  0
LINE
  5
142
330
1F
100
AcDbEntity
  8
0
  6
HIDDEN
 62
     7
370
     0
100
AcDbLine
 10
161.8290862157
 20
99.9008663589
 30
0.0
 11
156.8290835335
 21
99.9008663589
 31
0.0
  0
SPLINE
  5
143
330
1F
100
AcDbEntity
  8
0
  6
HIDDEN
 62
     7
370
     0
100
AcDbSpline
210
0.0
220
0.0
230
1.0
 70
     8
 71
     3
 72
    19
 73
    15
 74
     0
 42
0.00000001
 43
0.00000001
 40
0.0
 40
0.0
 40
0.0
 40
0.0
 40
0.0838018191866543
 40
0.1672278344678069
 40
0.2833474011140505
 40
0.4019421714353917
 40
0.4680629111273022
 40
0.5348545894179301
 40
0.5919407597924211
 40
0.6923720833014039
 40
0.7989709433105192
 40
0.8954357068074006
 40
0.992552322219703
 40
1.0
 40
1.0
 40
1.0
 40
1.0
 10
181.3790818765124
 20
119.4572471672688
 30
0.0
 10
181.3708480301916
 20
119.4674049792637
 30
0.0
 10
181.3544172617079
 20
119.4876750511944
 30
0.0
 10
181.2230901918785
 20
119.6534668699121
 30
0.0
 10
181.0226327510607
 20
119.9236223094455
 30
0.0
 10
180.8194416183816
 20
120.2529912724047
 30
0.0
 10
180.7074411340782
 20
120.5809717735136
 30
0.0
 10
180.7030070171807
 20
120.8534889036858
 30
0.0
 10
180.7940502128196
 20
121.1505444566374
 30
0.0
 10
180.9693456331222
 20
121.4455590291628
 30
0.0
 10
181.1767305665943
 20
121.7185048028519
 30
0.0
 10
181.3258847780682
 20
121.8976849558018
 30
0.0
 10
181.3916374478917
 20
121.9738163846589
 30
0.0
 10
181.3769120539862
 20
121.9566426072566
 30
0.0
 10
181.3758632256946
 20
121.9554193908368
 30
0.0
  0
SPLINE
  5
144
330
1F
100
AcDbEntity
  8
0
  6
HIDDEN
 62
     7
370
     0
100
AcDbSpline
210
0.0
220
0.0
230
1.0
 70
     8
 71
     3
 72
     9
 73
     5
 74
     0
 42
0.00000001
 43
0.00000001
 40
0.0
 40
0.0
 40
0.0
 40
0.0
 40
0.7277419872225914
 40
1.0
 40
1.0
 40
1.0
 40
1.0
 10
178.3886721446475
 20
121.9441922971998
 30
0.0
 10
178.3919639047741
 20
121.9438168248836
 30
0.0
 10
178.3964871563995
 20
121.943300883351
 30
0.0
 10
178.44796354726
 20
121.9665837266545
 30
0.0
 10
178.4619784071406
 20
121.9729226673041
 30
0.0
  0
SPLINE
  5
145
330
1F
100
AcDbEntity
  8
0
  6
HIDDEN
 62
     7
370
     0
100
AcDbSpline
210
0.0
220
0.0
230
1.0
 70
     8
 71
     3
 72
    18
 73
    14
 74
     0
 42
0.00000001
 43
0.00000001
 40
0.0
 40
0.0
 40
0.0
 40
0.0
 40
0.0515453810389843
 40
0.141691379463366
 40
0.2391512726393057
 40
0.3558394208925094
 40
0.4675636868535978
 40
0.5384544320582895
 40
0.6098182969196884
 40
0.6961678277824326
 40
0.8353919117490868
 40
0.9794689335109809
 40
1.0
 40
1.0
 40
1.0
 40
1.0
 10
178.3893799498042
 20
119.5870977485571
 30
0.0
 10
178.3876974676973
 20
119.5851323386048
 30
0.0
 10
178.3830725487262
 20
119.5797296887117
 30
0.0
 10
178.4606401258735
 20
119.6702542954492
 30
0.0
 10
178.6037742951686
 20
119.8442217205603
 30
0.0
 10
178.7988478693069
 20
120.1041420745617
 30
0.0
 10
178.9720433204693
 20
120.3994629312897
 30
0.0
 10
179.0579913026622
 20
120.6980536082528
 30
0.0
 10
179.0455799050399
 20
120.9843104518053
 30
0.0
 10
178.9193002698705
 20
121.3200025063231
 30
0.0
 10
178.6988792881696
 20
121.663806134423
 30
0.0
 10
178.5329020837611
 20
121.8823796631725
 30
0.0
 10
178.4698435112154
 20
121.9628818715548
 30
0.0
 10
178.4619784071406
 20
121.9729226673041
 30
0.0
  0
LINE
  5
146
330
1F
100
AcDbEntity
  8
0
  6
HIDDEN
 62
     7
370
     0
100
AcDbLine
 10
181.3790818765
 20
122.9008664036
 30
0.0
 11
178.3790832474
 21
122.9008664036
 31
0.0
  0
SPLINE
  5
147
330
1F
100
AcDbEntity
  8
0
  6
HIDDEN
 62
     7
370
     0
100
AcDbSpline
210
0.0
220
0.0
230
1.0
 70
     8
 71
     3
 72
     8
 73
     4
 74
     0
 42
0.00000001
 43
0.00000001
 40
0.0
 40
0.0
 40
0.0
 40
0.0
 40
1.0
 40
1.0
 40
1.0
 40
1.0
 10
180.3790830090007
 20
113.2159396452623
 30
0.0
 10
180.5575780363881
 20
113.4174364418615
 30
0.0
 10
180.7246210961222
 20
113.6123617617858
 30
0.0
 10
180.8790830090007
 20
113.7957798001708
 30
0.0
  0
LWPOLYLINE
  5
148
330
1F
100
AcDbEntity
  8
0
  6
HIDDEN
 62
     7
370
     0
100
AcDbPolyline
 90
       14
 70
   128
 43
0.0
 10
181.3758632257
 20
93.846314087
 10
181.3466644003
 20
93.8804051498
 10
181.2499633148
 20
93.9959068442
 10
181.049520345
 20
94.2538412878
 10
180.8297729208
 20
94.6064921686
 10
180.7327440097
 20
94.8648866856
 10
180.7090437129
 20
95.103802591
 10
180.7510202839
 20
95.3388153235
 10
180.9017306282
 20
95.6738213668
 10
181.1528673484
 20
96.0523443887
 10
181.304479213
 20
96.2509098122
 10
181.3719963744
 20
96.3356843809
 10
181.3790818765
 20
96.3444863105
 10
181.3790818765
 20
96.3444863105
  0
LINE
  5
149
330
1F
100
AcDbEntity
  8
0
  6
HIDDEN
 62
     7
370
     0
100
AcDbLine
 10
179.8790862873
 20
93.4008671561
 30
0.0
 11
181.3790818765
 21
93.4008671561
 31
0.0
  0
LINE
  5
14A
330
1F
100
AcDbEntity
  8
0
  6
HIDDEN
 62
     7
370
     0
100
AcDbLine
 10
178.3790832474
 20
93.4008671561
 30
0.0
 11
179.8790862873
 21
93.4008671561
 31
0.0
  0
SPLINE
  5
14B
330
1F
100
AcDbEntity
  8
0
  6
HIDDEN
 62
     7
370
     0
100
AcDbSpline
210
0.0
220
0.0
230
1.0
 70
     8
 71
     3
 72
     9
 73
     5
 74
     0
 42
0.00000001
 43
0.00000001
 40
0.0
 40
0.0
 40
0.0
 40
0.0
 40
0.8426286582900393
 40
1.0
 40
1.0
 40
1.0
 40
1.0
 10
178.4619784071406
 20
93.82881081048588
 30
0.0
 10
178.4180607774365
 20
93.84545896950829
 30
0.0
 10
178.3659409862662
 20
93.86521637849101
 30
0.0
 10
178.3855813191154
 20
93.85858480085967
 30
0.0
 10
178.3886721446475
 20
93.85754118059019
 30
0.0
  0
SPLINE
  5
14C
330
1F
100
AcDbEntity
  8
0
  6
HIDDEN
 62
     7
370
     0
100
AcDbSpline
210
0.0
220
0.0
230
1.0
 70
     8
 71
     3
 72
    17
 73
    13
 74
     0
 42
0.00000001
 43
0.00000001
 40
0.0
 40
0.0
 40
0.0
 40
0.0
 40
0.1271065087485513
 40
0.2533274779691868
 40
0.3533701551931616
 40
0.4234657657031805
 40
0.4939503431809315
 40
0.5830110383927033
 40
0.7201922042955099
 40
0.8598524551492941
 40
0.9555603122770652
 40
1.0
 40
1.0
 40
1.0
 40
1.0
 10
178.4619784071406
 20
93.82881081048588
 30
0.0
 10
178.5186775231146
 20
93.90178758795874
 30
0.0
 10
178.6316807374597
 20
94.04723272030904
 30
0.0
 10
178.846194645478
 20
94.36049212321852
 30
0.0
 10
179.0003681206196
 20
94.6688602415359
 30
0.0
 10
179.0630260615046
 20
94.95923475508134
 30
0.0
 10
179.0304662990609
 20
95.24414348275322
 30
0.0
 10
178.88689276022
 20
95.56684035882951
 30
0.0
 10
178.6591410769618
 20
95.88985712204415
 30
0.0
 10
178.4693988213491
 20
96.12144755689735
 30
0.0
 10
178.3802364149988
 20
96.22529009211989
 30
0.0
 10
178.3871786283705
 20
96.21720078507653
 30
0.0
 10
178.3893799498042
 20
96.21463572923282
 30
0.0
  0
SPLINE
  5
14D
330
1F
100
AcDbEntity
  8
0
  6
HIDDEN
 62
     7
370
     0
100
AcDbSpline
210
0.0
220
0.0
230
1.0
 70
     8
 71
     3
 72
     8
 73
     4
 74
     0
 42
0.00000001
 43
0.00000001
 40
0.0
 40
0.0
 40
0.0
 40
0.0
 40
1.0
 40
1.0
 40
1.0
 40
1.0
 10
180.8790830090007
 20
102.0059536776192
 30
0.0
 10
180.7254508654273
 20
102.1883863944099
 30
0.0
 10
180.5572085249097
 20
102.384714164519
 30
0.0
 10
180.3790830090007
 20
102.5857938325276
 30
0.0
  0
LWPOLYLINE
  5
14E
330
1F
100
AcDbEntity
  8
0
  6
HIDDEN
 62
     7
370
     0
100
AcDbPolyline
 90
        8
 70
   128
 43
0.0
 10
178.3677881672
 20
96.226172022
 10
178.3714911058
 20
96.1318867872
 10
178.3820411279
 20
95.8632663483
 10
178.3978512599
 20
95.4608642155
 10
178.4165373161
 20
94.9854324231
 10
178.4352606251
 20
94.5087480018
 10
178.4512123182
 20
94.1027770409
 10
178.4619784071
 20
93.8288108105
  0
LWPOLYLINE
  5
14F
330
1F
100
AcDbEntity
  8
0
  6
HIDDEN
 62
     7
370
     0
100
AcDbPolyline
 90
        8
 70
   128
 43
0.0
 10
178.3677881672
 20
119.5755614558
 10
178.3714911058
 20
119.6698466906
 10
178.3820411279
 20
119.9384671295
 10
178.3978512599
 20
120.3408692623
 10
178.4165373161
 20
120.8163010547
 10
178.4352606251
 20
121.292985476
 10
178.4512123182
 20
121.6989564369
 10
178.4619784071
 20
121.9729226673
  0
SPLINE
  5
150
330
1F
100
AcDbEntity
  8
0
  6
HIDDEN
 62
     7
370
     0
100
AcDbSpline
210
0.0
220
0.0
230
1.0
 70
     8
 71
     3
 72
     8
 73
     4
 74
     0
 42
0.00000001
 43
0.00000001
 40
0.0
 40
0.0
 40
0.0
 40
0.0
 40
0.000159097695343
 40
0.000159097695343
 40
0.000159097695343
 40
0.000159097695343
 10
66.7642510182187
 20
92.09937630286332
 30
0.0
 10
66.71919954771435
 20
92.07139741853953
 30
0.0
 10
66.67414350929955
 20
92.04342588816446
 30
0.0
 10
66.62908300900068
 20
92.01546154881194
 30
0.0
  0
SPLINE
  5
151
330
1F
100
AcDbEntity
  8
0
  6
HIDDEN
 62
     7
370
     0
100
AcDbSpline
210
0.0
220
0.0
230
1.0
 70
     8
 71
     3
 72
    11
 73
     7
 74
     0
 42
0.00000001
 43
0.00000001
 40
0.0
 40
0.0
 40
0.0
 40
0.0
 40
0.0008212909311457
 40
0.0008212909311457
 40
0.0008212909311457
 40
0.001642825724306
 40
0.001642825724306
 40
0.001642825724306
 40
0.001642825724306
 10
66.62908300900068
 20
92.01546154881194
 30
0.0
 10
66.43793798751848
 20
91.9721753599594
 30
0.0
 10
66.24651965184202
 20
91.93123885032212
 30
0.0
 10
66.05487357718087
 20
91.89263707893552
 30
0.0
 10
65.86317049563927
 20
91.85402382509844
 30
0.0
 10
65.67122537235376
 20
91.81774361581243
 30
0.0
 10
65.47908300900058
 20
91.78377670946092
 30
0.0
  0
LINE
  5
152
330
1F
100
AcDbEntity
  8
0
  6
HIDDEN
 62
     7
370
     0
100
AcDbLine
 10
113.4690830573
 20
128.036733217
 30
0.0
 11
113.4690830573
 21
127.750867478
 31
0.0
  0
LINE
  5
153
330
1F
100
AcDbEntity
  8
0
  6
HIDDEN
 62
     7
370
     0
100
AcDbLine
 10
117.2890832736
 20
128.0449418942
 30
0.0
 11
117.2890832736
 21
127.750867478
 31
0.0
  0
LINE
  5
154
330
1F
100
AcDbEntity
  8
0
  6
HIDDEN
 62
     7
370
     0
100
AcDbLine
 10
118.7710149302
 20
132.359556354
 30
0.0
 11
118.7710149302
 21
127.750867478
 31
0.0
  0
SPLINE
  5
155
330
1F
100
AcDbEntity
  8
0
  6
HIDDEN
 62
     7
370
     0
100
AcDbSpline
210
0.0
220
0.0
230
1.0
 70
     8
 71
     3
 72
    24
 73
    20
 74
     0
 42
0.00000001
 43
0.00000001
 40
0.0
 40
0.0
 40
0.0
 40
0.0
 40
0.2499999999999937
 40
0.2499999999999937
 40
0.3749999999999912
 40
0.3749999999999912
 40
0.4374999999999901
 40
0.4374999999999901
 40
0.4687499999999891
 40
0.4687499999999891
 40
0.4999999999999881
 40
0.4999999999999881
 40
0.5624999999999888
 40
0.5624999999999888
 40
0.6249999999999893
 40
0.6249999999999893
 40
0.749999999999992
 40
0.749999999999992
 40
1.0
 40
1.0
 40
1.0
 40
1.0
 10
65.54174638372409
 20
88.22631419411422
 30
0.0
 10
65.55549950239431
 20
88.2969642521045
 30
0.0
 10
65.57327206980018
 20
88.36356236486944
 30
0.0
 10
65.62552316135553
 20
88.43766038510263
 30
0.0
 10
65.64655823693708
 20
88.45891819226419
 30
0.0
 10
65.69945864456552
 20
88.46706411841043
 30
0.0
 10
65.72056431744345
 20
88.46612431501467
 30
0.0
 10
65.7666164861214
 20
88.44510832343731
 30
0.0
 10
65.78498695810478
 20
88.4341995173297
 30
0.0
 10
65.82653859317047
 20
88.40156460638234
 30
0.0
 10
65.8491052659274
 20
88.38007262601097
 30
0.0
 10
65.91188628238746
 20
88.31160668242467
 30
0.0
 10
65.9450160433553
 20
88.26553222421958
 30
0.0
 10
66.00193372984033
 20
88.1805243358849
 30
0.0
 10
66.02611975534411
 20
88.14024403470353
 30
0.0
 10
66.09132770572386
 20
88.02530780823759
 30
0.0
 10
66.12604376591511
 20
87.95472482309057
 30
0.0
 10
66.219259036246
 20
87.75051906401197
 30
0.0
 10
66.26493157160668
 20
87.62762068168459
 30
0.0
 10
66.30323665510522
 20
87.51074740529702
 30
0.0
  0
SPLINE
  5
156
330
1F
100
AcDbEntity
  8
0
  6
HIDDEN
 62
     7
370
     0
100
AcDbSpline
210
0.0
220
0.0
230
1.0
 70
     8
 71
     3
 72
    11
 73
     7
 74
     0
 42
0.00000001
 43
0.00000001
 40
0.0
 40
0.0
 40
0.0
 40
0.0
 40
0.0005781862223978
 40
0.0005781862223978
 40
0.0005781862223978
 40
0.0011563724723928
 40
0.0011563724723928
 40
0.0011563724723928
 40
0.0011563724723928
 10
66.47908300900069
 20
120.5410090459417
 30
0.0
 10
66.31242245472507
 20
120.6055385573553
 30
0.0
 10
66.14575915781859
 20
120.6700412611991
 30
0.0
 10
65.97909257398835
 20
120.7345277096327
 30
0.0
 10
65.81242598172926
 20
120.7990141613277
 30
0.0
 10
65.64575611610337
 20
120.8634841700558
 30
0.0
 10
65.47908300900063
 20
120.9279399367884
 30
0.0
  0
SPLINE
  5
157
330
1F
100
AcDbEntity
  8
0
  6
HIDDEN
 62
     7
370
     0
100
AcDbSpline
210
0.0
220
0.0
230
1.0
 70
     8
 71
     3
 72
    11
 73
     7
 74
     0
 42
0.00000001
 43
0.00000001
 40
0.0
 40
0.0
 40
0.0
 40
0.0
 40
0.0005778746105108
 40
0.0005778746105108
 40
0.0005778746105108
 40
0.0011557494857226
 40
0.0011557494857226
 40
0.0011557494857226
 40
0.0011557494857226
 10
65.47908300900066
 20
94.87364488340506
 30
0.0
 10
65.64574988541399
 20
94.93945701009892
 30
0.0
 10
65.81241660497544
 20
95.00531549023655
 30
0.0
 10
65.9790832530241
 20
95.07122306316718
 30
0.0
 10
66.14574997754276
 20
95.13713066633753
 30
0.0
 10
66.31241667196335
 20
95.20308777472603
 30
0.0
 10
66.47908300900069
 20
95.26908951464874
 30
0.0
  0
SPLINE
  5
158
330
1F
100
AcDbEntity
  8
0
  6
HIDDEN
 62
     7
370
     0
100
AcDbSpline
210
0.0
220
0.0
230
1.0
 70
     8
 71
     3
 72
    11
 73
     7
 74
     0
 42
0.00000001
 43
0.00000001
 40
0.0000000000000006
 40
0.0000000000000006
 40
0.0000000000000006
 40
0.0000000000000006
 40
0.0005780486062768
 40
0.0005780486062768
 40
0.0005780486062768
 40
0.0011560973514127
 40
0.0011560973514127
 40
0.0011560973514127
 40
0.0011560973514127
 10
65.47908300900066
 20
117.8816812405867
 30
0.0
 10
65.64575286504557
 20
117.8193093790722
 30
0.0
 10
65.81242056912984
 20
117.7569555187745
 30
0.0
 10
65.97908687358347
 20
117.6946359585884
 30
0.0
 10
66.14575321427722
 20
117.6323163848515
 30
0.0
 10
66.312418170906
 20
117.570031180532
 30
0.0
 10
66.47908300900068
 20
117.5078060599633
 30
0.0
  0
SPLINE
  5
159
330
1F
100
AcDbEntity
  8
0
  6
HIDDEN
 62
     7
370
     0
100
AcDbSpline
210
0.0
220
0.0
230
1.0
 70
     8
 71
     3
 72
    11
 73
     7
 74
     0
 42
0.00000001
 43
0.00000001
 40
0.0
 40
0.0
 40
0.0
 40
0.0
 40
0.0005782401583533
 40
0.0005782401583533
 40
0.0005782401583533
 40
0.0011564805960992
 40
0.0011564805960992
 40
0.0011564805960992
 40
0.0011564805960992
 10
66.47908300900069
 20
98.30003994649732
 30
0.0
 10
66.31243205865177
 20
98.23661448843653
 30
0.0
 10
66.14577246606912
 20
98.17325896478125
 30
0.0
 10
65.97910541364057
 20
98.10996138043127
 30
0.0
 10
65.81243827707675
 20
98.04666376412801
 30
0.0
 10
65.64576366963068
 20
97.9834239691873
 30
0.0
 10
65.47908300900062
 20
97.92022396254846
 30
0.0
  0
CIRCLE
  5
15A
330
1F
100
AcDbEntity
  8
0
  6
HIDDEN
 62
     7
370
     0
100
AcDbCircle
 10
104.379083009
 20
107.9008667389
 30
0.0
 40
5.000000000000014
  0
LWPOLYLINE
  5
15B
330
1F
100
AcDbEntity
  8
0
  6
HIDDEN
 62
     7
370
     0
100
AcDbPolyline
 90
        8
 70
   128
 43
0.0
 10
227.1878218367
 20
98.3945089052
 10
227.1911596968
 20
98.3093068594
 10
227.2019779398
 20
98.0338952163
 10
227.2188460543
 20
97.6047585377
 10
227.2394692614
 20
97.0798558215
 10
227.2610759451
 20
96.5300774792
 10
227.2807305767
 20
96.0296732033
 10
227.2935008719
 20
95.7047990182
  0
LWPOLYLINE
  5
15C
330
1F
100
AcDbEntity
  8
0
  6
HIDDEN
 62
     7
370
     0
100
AcDbPolyline
 90
       10
 70
   128
 43
0.0
 10
221.8538766816
 20
98.1849380428
 10
221.8572294428
 20
98.0997359971
 10
221.8680476859
 20
97.8243234226
 10
221.8849083497
 20
97.3951876754
 10
221.9055315568
 20
96.8702849591
 10
221.92713079
 20
96.3205056855
 10
221.9467928722
 20
95.8201023409
 10
221.9618579462
 20
95.4366554165
 10
221.9702920034
 20
95.2219520355
 10
221.9716554596
 20
95.1872509563
  0
LWPOLYLINE
  5
15D
330
1F
100
AcDbEntity
  8
0
  6
HIDDEN
 62
     7
370
     0
100
AcDbPolyline
 90
       10
 70
   128
 43
0.0
 10
221.3738953783
 20
97.6656940425
 10
221.3742306545
 20
97.6571454326
 10
221.3791554882
 20
97.5318220103
 10
221.389251025
 20
97.2747564906
 10
221.4029898956
 20
96.9250839794
 10
221.418278487
 20
96.536038875
 10
221.4327847674
 20
96.1668504993
 10
221.444303365
 20
95.8737232381
 10
221.4510759428
 20
95.7012832755
 10
221.4524170473
 20
95.6672359848
  0
LWPOLYLINE
  5
15E
330
1F
100
AcDbEntity
  8
0
  6
HIDDEN
 62
     7
370
     0
100
AcDbPolyline
 90
        4
 70
   128
 43
0.0
 10
227.3606455042
 20
98.1205836529
 10
227.3610627367
 20
98.110158428
 10
227.3670679047
 20
97.9573274622
 10
227.3790782406
 20
97.6514457384
  0
LINE
  5
15F
330
1F
100
AcDbEntity
  8
0
  6
HIDDEN
 62
     7
370
     0
100
AcDbLine
 10
225.4100686028
 20
96.8235036949
 30
0.0
 11
225.3806239083
 21
97.5729259321
 31
0.0
  0
LINE
  5
160
330
1F
100
AcDbEntity
  8
0
  6
HIDDEN
 62
     7
370
     0
100
AcDbLine
 10
225.4395132973
 20
96.0740823889
 30
0.0
 11
225.4100686028
 21
96.8235036949
 31
0.0
  0
LINE
  5
161
330
1F
100
AcDbEntity
  8
0
  6
HIDDEN
 62
     7
370
     0
100
AcDbLine
 10
225.4100686028
 20
96.8235036949
 30
0.0
 11
227.4085229351
 21
96.9020235011
 31
0.0
  0
LINE
  5
162
330
1F
100
AcDbEntity
  8
0
  6
HIDDEN
 62
     7
370
     0
100
AcDbLine
 10
225.4395132973
 20
96.0740823889
 30
0.0
 11
227.4379676297
 21
96.1526021952
 31
0.0
  0
LINE
  5
163
330
1F
100
AcDbEntity
  8
0
  6
HIDDEN
 62
     7
370
     0
100
AcDbLine
 10
225.3806239083
 20
97.5729259321
 30
0.0
 11
227.3790782406
 21
97.6514457384
 31
0.0
  0
LWPOLYLINE
  5
164
330
1F
100
AcDbEntity
  8
0
  6
HIDDEN
 62
     7
370
     0
100
AcDbPolyline
 90
       10
 70
   128
 43
0.0
 10
227.2411381915
 20
120.2656034971
 10
227.2388136103
 20
120.2064179475
 10
227.224732013
 20
119.8480422268
 10
227.2056734278
 20
119.3627598355
 10
227.1841859534
 20
118.8161116684
 10
227.1632051184
 20
118.2819245974
 10
227.1455323412
 20
117.8323435256
 10
227.13358161
 20
117.5280878911
 10
227.1289473488
 20
117.410248577
 10
227.1289324477
 20
117.4095379779
  0
LWPOLYLINE
  5
165
330
1F
100
AcDbEntity
  8
0
  6
HIDDEN
 62
     7
370
     0
100
AcDbPolyline
 90
        9
 70
   128
 43
0.0
 10
221.9048759057
 20
120.4159888098
 10
221.8907943084
 20
120.0576130891
 10
221.8717282727
 20
119.5723306978
 10
221.8502556994
 20
119.0256825307
 10
221.8292674139
 20
118.4914954597
 10
221.8116020873
 20
118.0419153193
 10
221.7996439054
 20
117.7376596848
 10
221.7950170948
 20
117.6198203707
 10
221.7949872925
 20
117.6191088403
  0
LWPOLYLINE
  5
166
330
1F
100
AcDbEntity
  8
0
  6
HIDDEN
 62
     7
370
     0
100
AcDbPolyline
 90
        3
 70
   128
 43
0.0
 10
221.9127660706
 20
120.6167959267
 10
221.9120731666
 20
120.599057957
 10
221.9048759057
 20
120.4159888098
  0
LWPOLYLINE
  5
167
330
1F
100
AcDbEntity
  8
0
  6
HIDDEN
 62
     7
370
     0
100
AcDbPolyline
 90
        7
 70
   128
 43
0.0
 10
227.3770516827
 20
119.5996417323
 10
227.3620313122
 20
119.2174101839
 10
227.3433899596
 20
118.7429693187
 10
227.3257022812
 20
118.2927437717
 10
227.3116504862
 20
117.9352751592
 10
227.3033952429
 20
117.7249853158
 10
227.3017561152
 20
117.6834641615
  0
LWPOLYLINE
  5
168
330
1F
100
AcDbEntity
  8
0
  6
HIDDEN
 62
     7
370
     0
100
AcDbPolyline
 90
        8
 70
   128
 43
0.0
 10
221.3882675483
 20
120.0029397974
 10
221.378164561
 20
119.7458742777
 10
221.3644256904
 20
119.3962017665
 10
221.349137099
 20
119.0071566621
 10
221.3346308186
 20
118.6379682863
 10
221.3231196716
 20
118.3448410252
 10
221.3163396432
 20
118.1724010626
 10
221.3150059893
 20
118.1383537719
  0
LWPOLYLINE
  5
169
330
1F
100
AcDbEntity
  8
0
  6
HIDDEN
 62
     7
370
     0
100
AcDbPolyline
 90
        3
 70
   128
 43
0.0
 10
221.3935202076
 20
120.1368118295
 10
221.3931849315
 20
120.1282632196
 10
221.3882675483
 20
120.0029397974
  0
LINE
  5
16A
330
1F
100
AcDbEntity
  8
0
  6
HIDDEN
 62
     7
370
     0
100
AcDbLine
 10
225.3511792138
 20
118.9805431882
 30
0.0
 11
225.3806239083
 21
119.7299654255
 31
0.0
  0
LINE
  5
16B
330
1F
100
AcDbEntity
  8
0
  6
HIDDEN
 62
     7
370
     0
100
AcDbLine
 10
225.3511792138
 20
118.9805431882
 30
0.0
 11
225.3217345192
 21
118.2311218822
 31
0.0
  0
LINE
  5
16C
330
1F
100
AcDbEntity
  8
0
  6
HIDDEN
 62
     7
370
     0
100
AcDbLine
 10
225.3511792138
 20
118.9805431882
 30
0.0
 11
227.3496335461
 21
118.9020233819
 31
0.0
  0
LINE
  5
16D
330
1F
100
AcDbEntity
  8
0
  6
HIDDEN
 62
     7
370
     0
100
AcDbLine
 10
225.3217345192
 20
118.2311218822
 30
0.0
 11
227.3201888516
 21
118.152602076
 31
0.0
  0
LINE
  5
16E
330
1F
100
AcDbEntity
  8
0
  6
HIDDEN
 62
     7
370
     0
100
AcDbLine
 10
225.3806239083
 20
119.7299654255
 30
0.0
 11
227.3790782406
 21
119.6514456192
 31
0.0
  0
LINE
  5
16F
330
1F
100
AcDbEntity
  8
0
  6
HIDDEN
 62
     7
370
     0
100
AcDbLine
 10
164.8790856912
 20
102.9008668507
 30
0.0
 11
180.37907985
 21
102.9008668507
 31
0.0
  0
LINE
  5
170
330
1F
100
AcDbEntity
  8
0
  6
HIDDEN
 62
     7
370
     0
100
AcDbLine
 10
180.37907985
 20
112.9008666271
 30
0.0
 11
164.8790856912
 21
112.9008666271
 31
0.0
  0
LINE
  5
171
330
1F
100
AcDbEntity
  8
0
  6
HIDDEN
 62
     7
370
     0
100
AcDbLine
 10
180.37907985
 20
102.9008668507
 30
0.0
 11
180.8790808632
 21
103.4008669326
 31
0.0
  0
LINE
  5
172
330
1F
100
AcDbEntity
  8
0
  6
HIDDEN
 62
     7
370
     0
100
AcDbLine
 10
180.8790808632
 20
112.4008665452
 30
0.0
 11
180.37907985
 21
112.9008666271
 31
0.0
  0
LINE
  5
173
330
1F
100
AcDbEntity
  8
0
  6
HIDDEN
 62
     7
370
     0
100
AcDbLine
 10
164.8790856912
 20
112.9008666271
 30
0.0
 11
164.3790846779
 21
112.4008665452
 31
0.0
  0
LINE
  5
174
330
1F
100
AcDbEntity
  8
0
  6
HIDDEN
 62
     7
370
     0
100
AcDbLine
 10
164.3790846779
 20
103.4008669326
 30
0.0
 11
164.8790856912
 21
102.9008668507
 31
0.0
  0
LINE
  5
175
330
1F
100
AcDbEntity
  8
0
  6
HIDDEN
 62
     7
370
     0
100
AcDbLine
 10
180.8790808632
 20
103.4008669326
 30
0.0
 11
184.3790805056
 21
103.4008669326
 31
0.0
  0
LINE
  5
176
330
1F
100
AcDbEntity
  8
0
  6
HIDDEN
 62
     7
370
     0
100
AcDbLine
 10
184.3790805056
 20
112.4008665452
 30
0.0
 11
180.8790808632
 21
112.4008665452
 31
0.0
  0
LINE
  5
177
330
1F
100
AcDbEntity
  8
0
  6
HIDDEN
 62
     7
370
     0
100
AcDbLine
 10
170.3790819361
 20
105.4008667948
 30
0.0
 11
178.3790832474
 21
105.4008667948
 31
0.0
  0
LINE
  5
178
330
1F
100
AcDbEntity
  8
0
  6
HIDDEN
 62
     7
370
     0
100
AcDbLine
 10
178.3790832474
 20
110.400866683
 30
0.0
 11
170.3790819361
 21
110.400866683
 31
0.0
  0
LINE
  5
179
330
1F
100
AcDbEntity
  8
0
  6
HIDDEN
 62
     7
370
     0
100
AcDbLine
 10
101.379083199
 20
122.2014971668
 30
0.0
 11
101.379083199
 21
120.294806979
 31
0.0
  0
LINE
  5
17A
330
1F
100
AcDbEntity
  8
0
  6
HIDDEN
 62
     7
370
     0
100
AcDbLine
 10
109.3790831133
 20
120.294806979
 30
0.0
 11
109.3790831133
 21
122.1987022677
 31
0.0
  0
LINE
  5
17B
330
1F
100
AcDbEntity
  8
0
  6
HIDDEN
 62
     7
370
     0
100
AcDbLine
 10
97.379083009
 20
82.5769356111
 30
0.0
 11
97.4732437813
 21
83.2469234834
 31
0.0
  0
LINE
  5
17C
330
1F
100
AcDbEntity
  8
0
  6
HIDDEN
 62
     7
370
     0
100
AcDbLine
 10
97.4732437813
 20
132.5548099944
 30
0.0
 11
97.379083009
 21
133.2247978667
 31
0.0
  0
ARC
  5
17D
330
1F
100
AcDbEntity
  8
0
  6
HIDDEN
 62
     7
370
     0
100
AcDbCircle
 10
96.8790762563
 20
83.3304291245
 30
0.0
 40
0.6000067526677242
100
AcDbArc
 50
352.0
 51
0.0
  0
ARC
  5
17E
330
1F
100
AcDbEntity
  8
0
  6
HIDDEN
 62
     7
370
     0
100
AcDbCircle
 10
96.8790762563
 20
83.3304291245
 30
0.0
 40
0.6000067526677242
100
AcDbArc
 50
0.0
 51
33.5571153394
  0
ARC
  5
17F
330
1F
100
AcDbEntity
  8
0
  6
HIDDEN
 62
     7
370
     0
100
AcDbCircle
 10
96.8790762563
 20
132.4713043533
 30
0.0
 40
0.6000067526677169
100
AcDbArc
 50
348.75
 51
8.0
  0
LWPOLYLINE
  5
180
330
1F
100
AcDbEntity
  8
0
  6
HIDDEN
 62
     7
370
     0
100
AcDbPolyline
 90
        3
 70
   128
 43
0.0
 10
97.4675540479
 20
132.354249678
 10
97.4334102162
 20
132.2416918943
 10
97.379083009
 20
132.1396394292
  0
LINE
  5
181
330
1F
100
AcDbEntity
  8
0
  6
HIDDEN
 62
     7
370
     0
100
AcDbLine
 10
97.4790830065
 20
83.3304295907
 30
0.0
 11
97.4790830065
 21
132.4713038871
 31
0.0
  0
ARC
  5
182
330
1F
100
AcDbEntity
  8
0
  6
HIDDEN
 62
     7
370
     0
100
AcDbCircle
 10
80.4615185743
 20
88.5008667389
 30
0.0
 40
0.6000000000000085
100
AcDbArc
 50
210.0
 51
270.0
  0
ARC
  5
183
330
1F
100
AcDbEntity
  8
0
  6
HIDDEN
 62
     7
370
     0
100
AcDbCircle
 10
80.4615185743
 20
127.3008667389
 30
0.0
 40
0.5999999999999962
100
AcDbArc
 50
90.0
 51
150.0
  0
LINE
  5
184
330
1F
100
AcDbEntity
  8
0
  6
HIDDEN
 62
     7
370
     0
100
AcDbLine
 10
80.4615190341
 20
87.9008671859
 30
0.0
 11
84.6531905323
 21
87.9008671859
 31
0.0
  0
LINE
  5
185
330
1F
100
AcDbEntity
  8
0
  6
HIDDEN
 62
     7
370
     0
100
AcDbLine
 10
84.6531905323
 20
127.9008662919
 30
0.0
 11
80.4615190341
 21
127.9008662919
 31
0.0
  0
ARC
  5
186
330
1F
100
AcDbEntity
  8
0
  6
HIDDEN
 62
     7
370
     0
100
AcDbCircle
 10
91.1340850106
 20
95.9008667389
 30
0.0
 40
8.000000000000012
100
AcDbArc
 50
276.8812309627
 51
321.3178125465
  0
ARC
  5
187
330
1F
100
AcDbEntity
  8
0
  6
HIDDEN
 62
     7
370
     0
100
AcDbCircle
 10
91.1340850106
 20
119.9008667389
 30
0.0
 40
8.000000000000014
100
AcDbArc
 50
38.6821874535
 51
83.1303582578
  0
LINE
  5
188
330
1F
100
AcDbEntity
  8
0
  6
HIDDEN
 62
     7
370
     0
100
AcDbLine
 10
79.9419025048
 20
127.6008668015
 30
0.0
 11
78.3830585047
 21
124.9008676628
 31
0.0
  0
LINE
  5
189
330
1F
100
AcDbEntity
  8
0
  6
HIDDEN
 62
     7
370
     0
100
AcDbLine
 10
78.3830585047
 20
90.900865815
 30
0.0
 11
79.9419025048
 21
88.2008666763
 31
0.0
  0
LINE
  5
18A
330
1F
100
AcDbEntity
  8
0
  6
HIDDEN
 62
     7
370
     0
100
AcDbLine
 10
101.379083199
 20
135.1805324325
 30
0.0
 11
101.379083199
 21
131.8464683959
 31
0.0
  0
LINE
  5
18B
330
1F
100
AcDbEntity
  8
0
  6
HIDDEN
 62
     7
370
     0
100
AcDbLine
 10
109.3790831133
 20
131.8464683959
 30
0.0
 11
109.3790831133
 21
135.1751996795
 31
0.0
  0
ARC
  5
18C
330
1F
100
AcDbEntity
  8
0
  6
HIDDEN
 62
     7
370
     0
100
AcDbCircle
 10
105.829083009
 20
92.1758667389
 30
0.0
 40
1.5
100
AcDbArc
 50
238.2116693829
 51
0.0
  0
ARC
  5
18D
330
1F
100
AcDbEntity
  8
0
  6
HIDDEN
 62
     7
370
     0
100
AcDbCircle
 10
105.829083009
 20
123.6258667389
 30
0.0
 40
1.500000000000001
100
AcDbArc
 50
0.0
 51
121.7883306171
  0
LINE
  5
18E
330
1F
100
AcDbEntity
  8
0
  6
HIDDEN
 62
     7
370
     0
100
AcDbLine
 10
75.5790827885
 20
90.900865815
 30
0.0
 11
78.3830585047
 21
90.900865815
 31
0.0
  0
LINE
  5
18F
330
1F
100
AcDbEntity
  8
0
  6
HIDDEN
 62
     7
370
     0
100
AcDbLine
 10
78.3830585047
 20
124.9008676628
 30
0.0
 11
71.5790821328
 21
124.9008676628
 31
0.0
  0
LINE
  5
190
330
1F
100
AcDbEntity
  8
0
  6
HIDDEN
 62
     7
370
     0
100
AcDbLine
 10
97.379083009
 20
90.900865815
 30
0.0
 11
105.038908971
 21
90.900865815
 31
0.0
  0
LINE
  5
191
330
1F
100
AcDbEntity
  8
0
  6
HIDDEN
 62
     7
370
     0
100
AcDbLine
 10
105.038908971
 20
124.9008676628
 30
0.0
 11
97.379083009
 21
124.9008676628
 31
0.0
  0
LINE
  5
192
330
1F
100
AcDbEntity
  8
0
  6
HIDDEN
 62
     7
370
     0
100
AcDbLine
 10
227.1859144881
 20
95.392119571
 30
0.0
 11
227.2872721865
 21
95.6506258467
 31
0.0
  0
LINE
  5
193
330
1F
100
AcDbEntity
  8
0
  6
HIDDEN
 62
     7
370
     0
100
AcDbLine
 10
227.288330169
 20
120.1477083037
 30
0.0
 11
227.1859144881
 21
120.4096139068
 31
0.0
  0
LINE
  5
194
330
1F
100
AcDbEntity
  8
0
  6
HIDDEN
 62
     7
370
     0
100
AcDbLine
 10
116.1790827378
 20
98.4008670444
 30
0.0
 11
119.1790832295
 21
98.4008670444
 31
0.0
  0
LINE
  5
195
330
1F
100
AcDbEntity
  8
0
  6
HIDDEN
 62
     7
370
     0
100
AcDbLine
 10
119.1790832295
 20
117.4008664334
 30
0.0
 11
116.1790827378
 21
117.4008664334
 31
0.0
  0
LINE
  5
196
330
1F
100
AcDbEntity
  8
0
  6
HIDDEN
 62
     7
370
     0
100
AcDbLine
 10
107.3290828704
 20
98.9008671263
 30
0.0
 11
107.8290829524
 21
99.400866277
 31
0.0
  0
LINE
  5
197
330
1F
100
AcDbEntity
  8
0
  6
HIDDEN
 62
     7
370
     0
100
AcDbLine
 10
107.8290829524
 20
116.4008672008
 30
0.0
 11
107.3290828704
 21
116.9008663515
 31
0.0
  0
LINE
  5
198
330
1F
100
AcDbEntity
  8
0
  6
HIDDEN
 62
     7
370
     0
100
AcDbLine
 10
107.8290829524
 20
99.400866277
 30
0.0
 11
116.1790827378
 21
99.400866277
 31
0.0
  0
LINE
  5
199
330
1F
100
AcDbEntity
  8
0
  6
HIDDEN
 62
     7
370
     0
100
AcDbLine
 10
116.1790827378
 20
116.4008672008
 30
0.0
 11
107.8290829524
 21
116.4008672008
 31
0.0
  0
ARC
  5
19A
330
1F
100
AcDbEntity
  8
0
  6
HIDDEN
 62
     7
370
     0
100
AcDbCircle
 10
226.879083009
 20
99.8641724908
 30
0.0
 40
0.5
100
AcDbArc
 50
0.0
 51
80.0
  0
ARC
  5
19B
330
1F
100
AcDbEntity
  8
0
  6
HIDDEN
 62
     7
370
     0
100
AcDbCircle
 10
226.879083009
 20
115.937560987
 30
0.0
 40
0.5000000000000014
100
AcDbArc
 50
280.0
 51
0.0
  0
LINE
  5
19C
330
1F
100
AcDbEntity
  8
0
  6
HIDDEN
 62
     7
370
     0
100
AcDbLine
 10
102.3290829822
 20
139.4008672455
 30
0.0
 11
102.3290829822
 21
134.3008665958
 31
0.0
  0
LINE
  5
19D
330
1F
100
AcDbEntity
  8
0
  6
HIDDEN
 62
     7
370
     0
100
AcDbLine
 10
226.9659137442
 20
115.4451570133
 30
0.0
 11
223.8790785983
 21
114.900866955
 31
0.0
  0
LINE
  5
19E
330
1F
100
AcDbEntity
  8
0
  6
HIDDEN
 62
     7
370
     0
100
AcDbLine
 10
223.8790785983
 20
100.9008665228
 30
0.0
 11
226.9659137442
 21
100.3565764645
 31
0.0
  0
LINE
  5
19F
330
1F
100
AcDbEntity
  8
0
  6
HIDDEN
 62
     7
370
     0
100
AcDbLine
 10
181.3711097553
 20
100.6008665668
 30
0.0
 11
187.484311135
 21
100.6008665668
 31
0.0
  0
LINE
  5
1A0
330
1F
100
AcDbEntity
  8
0
  6
HIDDEN
 62
     7
370
     0
100
AcDbLine
 10
187.484311135
 20
115.200866911
 30
0.0
 11
181.3711097553
 21
115.200866911
 31
0.0
  0
ARC
  5
1A1
330
1F
100
AcDbEntity
  8
0
  6
HIDDEN
 62
     7
370
     0
100
AcDbCircle
 10
187.4843089909
 20
101.0008667389
 30
0.0
 40
0.4000000000000057
100
AcDbArc
 50
270.0
 51
290.0
  0
ARC
  5
1A2
330
1F
100
AcDbEntity
  8
0
  6
HIDDEN
 62
     7
370
     0
100
AcDbCircle
 10
187.4843089909
 20
114.8008667389
 30
0.0
 40
0.4000000000000057
100
AcDbArc
 50
70.0
 51
90.0
  0
LINE
  5
1A3
330
1F
100
AcDbEntity
  8
0
  6
HIDDEN
 62
     7
370
     0
100
AcDbLine
 10
187.621118696
 20
100.6249896841
 30
0.0
 11
188.3790811613
 21
100.9008665228
 31
0.0
  0
LINE
  5
1A4
330
1F
100
AcDbEntity
  8
0
  6
HIDDEN
 62
     7
370
     0
100
AcDbLine
 10
188.3790811613
 20
114.900866955
 30
0.0
 11
187.621118696
 21
115.1767437937
 31
0.0
  0
LINE
  5
1A5
330
1F
100
AcDbEntity
  8
0
  6
HIDDEN
 62
     7
370
     0
100
AcDbLine
 10
188.3790811613
 20
100.9008665228
 30
0.0
 11
223.8790785983
 21
100.9008665228
 31
0.0
  0
LINE
  5
1A6
330
1F
100
AcDbEntity
  8
0
  6
HIDDEN
 62
     7
370
     0
100
AcDbLine
 10
223.8790785983
 20
114.900866955
 30
0.0
 11
188.3790811613
 21
114.900866955
 31
0.0
  0
LINE
  5
1A7
330
1F
100
AcDbEntity
  8
0
  6
HIDDEN
 62
     7
370
     0
100
AcDbLine
 10
150.3790823832
 20
102.4008667687
 30
0.0
 11
178.3941483214
 21
102.4008667687
 31
0.0
  0
LINE
  5
1A8
330
1F
100
AcDbEntity
  8
0
  6
HIDDEN
 62
     7
370
     0
100
AcDbLine
 10
178.3941483214
 20
113.4008667091
 30
0.0
 11
150.3790823832
 21
113.4008667091
 31
0.0
  0
LINE
  5
1A9
330
1F
100
AcDbEntity
  8
0
  6
HIDDEN
 62
     7
370
     0
100
AcDbLine
 10
150.3790823832
 20
113.4008667091
 30
0.0
 11
149.5979635134
 21
112.1008665891
 31
0.0
  0
LINE
  5
1AA
330
1F
100
AcDbEntity
  8
0
  6
HIDDEN
 62
     7
370
     0
100
AcDbLine
 10
149.5979635134
 20
103.7008668887
 30
0.0
 11
150.3790823832
 21
102.4008667687
 31
0.0
  0
LINE
  5
1AB
330
1F
100
AcDbEntity
  8
0
  6
HIDDEN
 62
     7
370
     0
100
AcDbLine
 10
92.5635208465
 20
83.8214954952
 30
0.0
 11
92.1290886677
 21
84.3005622396
 31
0.0
  0
LINE
  5
1AC
330
1F
100
AcDbEntity
  8
0
  6
HIDDEN
 62
     7
370
     0
100
AcDbLine
 10
84.6290851101
 20
84.7222502003
 30
0.0
 11
84.1466516345
 21
84.2431834558
 31
0.0
  0
LINE
  5
1AD
330
1F
100
AcDbEntity
  8
0
  6
HIDDEN
 62
     7
370
     0
100
AcDbLine
 10
84.1465296313
 20
131.5585444341
 30
0.0
 11
84.6290804535
 21
131.0794236729
 31
0.0
  0
LINE
  5
1AE
330
1F
100
AcDbEntity
  8
0
  6
HIDDEN
 62
     7
370
     0
100
AcDbLine
 10
92.1290830798
 20
131.5011228094
 30
0.0
 11
92.5636251546
 21
131.9802417079
 31
0.0
  0
LINE
  5
1AF
330
1F
100
AcDbEntity
  8
0
  6
HIDDEN
 62
     7
370
     0
100
AcDbLine
 10
119.1790832295
 20
103.7008668887
 30
0.0
 11
149.5979635134
 21
103.7008668887
 31
0.0
  0
LINE
  5
1B0
330
1F
100
AcDbEntity
  8
0
  6
HIDDEN
 62
     7
370
     0
100
AcDbLine
 10
149.5979635134
 20
112.1008665891
 30
0.0
 11
119.1790832295
 21
112.1008665891
 31
0.0
  0
LINE
  5
1B1
330
1F
100
AcDbEntity
  8
0
  6
HIDDEN
 62
     7
370
     0
100
AcDbLine
 10
92.1290830798
 20
127.8362678954
 30
0.0
 11
92.1290830798
 21
131.5005696038
 31
0.0
  0
LINE
  5
1B2
330
1F
100
AcDbEntity
  8
0
  6
HIDDEN
 62
     7
370
     0
100
AcDbLine
 10
84.6290832474
 20
131.0791684905
 30
0.0
 11
84.6290832474
 21
127.8964890758
 31
0.0
  0
LINE
  5
1B3
330
1F
100
AcDbEntity
  8
0
  6
HIDDEN
 62
     7
370
     0
100
AcDbLine
 10
92.1290830798
 20
84.3010446647
 30
0.0
 11
92.1290830798
 21
87.9654655824
 31
0.0
  0
LINE
  5
1B4
330
1F
100
AcDbEntity
  8
0
  6
HIDDEN
 62
     7
370
     0
100
AcDbLine
 10
84.6290832474
 20
87.905244402
 30
0.0
 11
84.6290832474
 21
84.7225724379
 31
0.0
  0
LINE
  5
1B5
330
1F
100
AcDbEntity
  8
0
  6
HIDDEN
 62
     7
370
     0
100
AcDbLine
 10
155.829081507
 20
124.9008676628
 30
0.0
 11
156.8290835335
 21
124.3235165844
 31
0.0
  0
LINE
  5
1B6
330
1F
100
AcDbEntity
  8
0
  6
HIDDEN
 62
     7
370
     0
100
AcDbLine
 10
161.8290862157
 20
124.3235165844
 30
0.0
 11
162.8290807917
 21
124.9008676628
 31
0.0
  0
LINE
  5
1B7
330
1F
100
AcDbEntity
  8
0
  6
HIDDEN
 62
     7
370
     0
100
AcDbLine
 10
162.8290807917
 20
90.900865815
 30
0.0
 11
161.8290862157
 21
91.4782168934
 31
0.0
  0
LINE
  5
1B8
330
1F
100
AcDbEntity
  8
0
  6
HIDDEN
 62
     7
370
     0
100
AcDbLine
 10
156.8290835335
 20
91.4782168934
 30
0.0
 11
155.829081507
 21
90.900865815
 31
0.0
  0
LINE
  5
1B9
330
1F
100
AcDbEntity
  8
0
  6
HIDDEN
 62
     7
370
     0
100
AcDbLine
 10
156.8290835335
 20
124.3235165844
 30
0.0
 11
156.8290835335
 21
115.9008671189
 31
0.0
  0
LINE
  5
1BA
330
1F
100
AcDbEntity
  8
0
  6
HIDDEN
 62
     7
370
     0
100
AcDbLine
 10
161.8290862157
 20
115.9008671189
 30
0.0
 11
161.8290862157
 21
124.3235165844
 31
0.0
  0
LINE
  5
1BB
330
1F
100
AcDbEntity
  8
0
  6
HIDDEN
 62
     7
370
     0
100
AcDbLine
 10
156.8290835335
 20
115.9008671189
 30
0.0
 11
159.3290811493
 21
114.3987150522
 31
0.0
  0
LINE
  5
1BC
330
1F
100
AcDbEntity
  8
0
  6
HIDDEN
 62
     7
370
     0
100
AcDbLine
 10
159.3290811493
 20
114.3987150522
 30
0.0
 11
161.8290862157
 21
115.9008671189
 31
0.0
  0
LINE
  5
1BD
330
1F
100
AcDbEntity
  8
0
  6
HIDDEN
 62
     7
370
     0
100
AcDbLine
 10
161.8290862157
 20
99.9008663589
 30
0.0
 11
159.3290811493
 21
101.4030184256
 31
0.0
  0
LINE
  5
1BE
330
1F
100
AcDbEntity
  8
0
  6
HIDDEN
 62
     7
370
     0
100
AcDbLine
 10
159.3290811493
 20
101.4030184256
 30
0.0
 11
156.8290835335
 21
99.9008663589
 31
0.0
  0
LINE
  5
1BF
330
1F
100
AcDbEntity
  8
0
  6
HIDDEN
 62
     7
370
     0
100
AcDbLine
 10
161.8290862157
 20
91.4782168934
 30
0.0
 11
161.8290862157
 21
99.9008663589
 31
0.0
  0
LINE
  5
1C0
330
1F
100
AcDbEntity
  8
0
  6
HIDDEN
 62
     7
370
     0
100
AcDbLine
 10
156.8290835335
 20
99.9008663589
 30
0.0
 11
156.8290835335
 21
91.4782168934
 31
0.0
  0
LINE
  5
1C1
330
1F
100
AcDbEntity
  8
0
  6
HIDDEN
 62
     7
370
     0
100
AcDbLine
 10
178.3790832474
 20
119.5870977486
 30
0.0
 11
178.3790832474
 21
113.3968382733
 31
0.0
  0
LINE
  5
1C2
330
1F
100
AcDbEntity
  8
0
  6
HIDDEN
 62
     7
370
     0
100
AcDbLine
 10
178.3790832474
 20
122.9008664036
 30
0.0
 11
178.3790832474
 21
121.9441922972
 31
0.0
  0
LINE
  5
1C3
330
1F
100
AcDbEntity
  8
0
  6
HIDDEN
 62
     7
370
     0
100
AcDbLine
 10
181.3790818765
 20
121.9554193908
 30
0.0
 11
181.3790818765
 21
122.9008664036
 31
0.0
  0
LINE
  5
1C4
330
1F
100
AcDbEntity
  8
0
  6
HIDDEN
 62
     7
370
     0
100
AcDbLine
 10
181.3790818765
 20
115.1992841283
 30
0.0
 11
181.3790818765
 21
119.4572471673
 31
0.0
  0
LINE
  5
1C5
330
1F
100
AcDbEntity
  8
0
  6
HIDDEN
 62
     7
370
     0
100
AcDbLine
 10
178.3790832474
 20
93.8575411806
 30
0.0
 11
178.3790832474
 21
93.4008671561
 31
0.0
  0
LINE
  5
1C6
330
1F
100
AcDbEntity
  8
0
  6
HIDDEN
 62
     7
370
     0
100
AcDbLine
 10
178.3790832474
 20
102.4048952045
 30
0.0
 11
178.3790832474
 21
96.2146357292
 31
0.0
  0
LINE
  5
1C7
330
1F
100
AcDbEntity
  8
0
  6
HIDDEN
 62
     7
370
     0
100
AcDbLine
 10
181.3790818765
 20
96.3444863105
 30
0.0
 11
181.3790818765
 21
100.6024493495
 31
0.0
  0
LINE
  5
1C8
330
1F
100
AcDbEntity
  8
0
  6
HIDDEN
 62
     7
370
     0
100
AcDbLine
 10
181.3790818765
 20
93.4008671561
 30
0.0
 11
181.3790818765
 21
93.846314087
 31
0.0
  0
LINE
  5
1C9
330
1F
100
AcDbEntity
  8
0
  6
HIDDEN
 62
     7
370
     0
100
AcDbLine
 10
178.3790832474
 20
93.4008671561
 30
0.0
 11
179.8790862873
 21
92.4995760093
 31
0.0
  0
LINE
  5
1CA
330
1F
100
AcDbEntity
  8
0
  6
HIDDEN
 62
     7
370
     0
100
AcDbLine
 10
179.8790862873
 20
92.4995760093
 30
0.0
 11
181.3790818765
 21
93.4008671561
 31
0.0
  0
LINE
  5
1CB
330
1F
100
AcDbEntity
  8
0
  6
HIDDEN
 62
     7
370
     0
100
AcDbLine
 10
181.3760271385
 20
93.8424369911
 30
0.0
 11
227.2873615935
 21
95.646298922
 31
0.0
  0
LINE
  5
1CC
330
1F
100
AcDbEntity
  8
0
  6
HIDDEN
 62
     7
370
     0
100
AcDbLine
 10
227.3790782406
 20
98.1518313879
 30
0.0
 11
181.3790818765
 21
96.3444863105
 31
0.0
  0
LINE
  5
1CD
330
1F
100
AcDbEntity
  8
0
  6
HIDDEN
 62
     7
370
     0
100
AcDbLine
 10
181.3790818765
 20
119.4572471673
 30
0.0
 11
227.3790782406
 21
117.6499020899
 31
0.0
  0
LINE
  5
1CE
330
1F
100
AcDbEntity
  8
0
  6
HIDDEN
 62
     7
370
     0
100
AcDbLine
 10
227.2886281922
 20
120.1553851957
 30
0.0
 11
181.3760271385
 21
121.9592964867
 31
0.0
  0
LINE
  5
1CF
330
1F
100
AcDbEntity
  8
0
  6
HIDDEN
 62
     7
370
     0
100
AcDbLine
 10
178.3677881672
 20
96.226172022
 30
0.0
 11
177.6663607075
 21
94.9476486662
 31
0.0
  0
LINE
  5
1D0
330
1F
100
AcDbEntity
  8
0
  6
HIDDEN
 62
     7
370
     0
100
AcDbLine
 10
177.6663607075
 20
94.9476486662
 30
0.0
 11
178.3833747818
 21
93.8540189186
 31
0.0
  0
LINE
  5
1D1
330
1F
100
AcDbEntity
  8
0
  6
HIDDEN
 62
     7
370
     0
100
AcDbLine
 10
178.3833747818
 20
121.9477145592
 30
0.0
 11
177.6663607075
 21
120.8540848115
 31
0.0
  0
LINE
  5
1D2
330
1F
100
AcDbEntity
  8
0
  6
HIDDEN
 62
     7
370
     0
100
AcDbLine
 10
177.6663607075
 20
120.8540848115
 30
0.0
 11
178.3677881672
 21
119.5755614558
 31
0.0
  0
LINE
  5
1D3
330
1F
100
AcDbEntity
  8
0
  6
HIDDEN
 62
     7
370
     0
100
AcDbLine
 10
227.1878218367
 20
98.3945089052
 30
0.0
 11
221.8538766816
 21
98.1849380428
 31
0.0
  0
LINE
  5
1D4
330
1F
100
AcDbEntity
  8
0
  6
HIDDEN
 62
     7
370
     0
100
AcDbLine
 10
221.9716554596
 20
95.1872509563
 30
0.0
 11
227.1859144881
 21
95.392119571
 31
0.0
  0
LINE
  5
1D5
330
1F
100
AcDbEntity
  8
0
  6
HIDDEN
 62
     7
370
     0
100
AcDbLine
 10
221.8538766816
 20
98.1849380428
 30
0.0
 11
221.3738953783
 21
97.6656940425
 31
0.0
  0
LINE
  5
1D6
330
1F
100
AcDbEntity
  8
0
  6
HIDDEN
 62
     7
370
     0
100
AcDbLine
 10
221.4524170473
 20
95.6672359848
 30
0.0
 11
221.9716554596
 21
95.1872509563
 31
0.0
  0
LINE
  5
1D7
330
1F
100
AcDbEntity
  8
0
  6
HIDDEN
 62
     7
370
     0
100
AcDbLine
 10
227.3606455042
 20
98.1205836529
 30
0.0
 11
227.1878218367
 21
98.3945089052
 31
0.0
  0
LINE
  5
1D8
330
1F
100
AcDbEntity
  8
0
  6
HIDDEN
 62
     7
370
     0
100
AcDbLine
 10
227.1859144881
 20
120.4096139068
 30
0.0
 11
221.9127660706
 21
120.6167959267
 31
0.0
  0
LINE
  5
1D9
330
1F
100
AcDbEntity
  8
0
  6
HIDDEN
 62
     7
370
     0
100
AcDbLine
 10
221.7949872925
 20
117.6191088403
 30
0.0
 11
227.1289324477
 21
117.4095379779
 31
0.0
  0
LINE
  5
1DA
330
1F
100
AcDbEntity
  8
0
  6
HIDDEN
 62
     7
370
     0
100
AcDbLine
 10
227.1289324477
 20
117.4095379779
 30
0.0
 11
227.3017561152
 21
117.6834641615
 31
0.0
  0
LINE
  5
1DB
330
1F
100
AcDbEntity
  8
0
  6
HIDDEN
 62
     7
370
     0
100
AcDbLine
 10
221.9127660706
 20
120.6167959267
 30
0.0
 11
221.3935202076
 21
120.1368118295
 31
0.0
  0
LINE
  5
1DC
330
1F
100
AcDbEntity
  8
0
  6
HIDDEN
 62
     7
370
     0
100
AcDbLine
 10
221.3150059893
 20
118.1383537719
 30
0.0
 11
221.7949872925
 21
117.6191088403
 31
0.0
  0
DIMENSION
  5
1DD
330
1F
100
AcDbEntity
  8
VERMASSUNG
100
AcDbDimension
  2
*D1
 10
61.4739978332
 20
76.4008667389
 30
0.0
 11
61.4739978332
 21
107.9008667389
 31
0.0
 70
   160
  1
HSK A %%c<>
 71
     2
 42
-1.0
  3
SLDDIMSTYLE0
100
AcDbAlignedDimension
 13
97.679083009
 23
139.4008667389
 33
0.0
 14
97.679083009
 24
76.4008667389
 34
0.0
 50
90.0
100
AcDbRotatedDimension
  0
DIMENSION
  5
1EA
330
1F
100
AcDbEntity
  8
VERMASSUNG
100
AcDbDimension
  2
*D2
 10
227.379083009
 20
138.0698808234
 30
0.0
 11
204.129083009
 21
138.0698808234
 31
0.0
 70
   160
 71
     2
 42
-1.0
  3
SLDDIMSTYLE1
100
AcDbAlignedDimension
 13
180.879083009
 23
114.8008667389
 33
0.0
 14
227.379083009
 24
119.5520857556
 34
0.0
 50
0.0
100
AcDbRotatedDimension
  0
DIMENSION
  5
1F5
330
1F
100
AcDbEntity
  8
VERMASSUNG
100
AcDbDimension
  2
*D3
 10
234.3656554713
 20
114.9008667389
 30
0.0
 11
234.3656554713
 21
107.9008667389
 31
0.0
 70
   160
  1
%%c<>
 71
     2
 42
-1.0
  3
SLDDIMSTYLE2
100
AcDbAlignedDimension
 13
223.879083009
 23
100.9008667389
 33
0.0
 14
223.879083009
 24
114.9008667389
 34
0.0
 50
90.0
100
AcDbRotatedDimension
  0
DIMENSION
  5
201
330
1F
100
AcDbEntity
  8
VERMASSUNG
100
AcDbDimension
  2
*D4
 10
240.3656554713
 20
121.4008667389
 30
0.0
 11
240.3656554713
 21
107.9008667389
 31
0.0
 70
   160
  1
%%c<>
 71
     2
 42
-1.0
  3
SLDDIMSTYLE3
100
AcDbAlignedDimension
 13
227.379083009
 23
94.4008667389
 33
0.0
 14
227.379083009
 24
121.4008667389
 34
0.0
 50
90.0
100
AcDbRotatedDimension
  0
DIMENSION
  5
20D
330
1F
100
AcDbEntity
  8
VERMASSUNG
100
AcDbDimension
  2
*D5
 10
246.3656554713
 20
124.9008667389
 30
0.0
 11
246.3656554713
 21
107.9008667389
 31
0.0
 70
   160
  1
%%c<>
 71
     2
 42
-1.0
  3
SLDDIMSTYLE3
100
AcDbAlignedDimension
 13
167.379083009
 23
90.9008667389
 33
0.0
 14
167.379083009
 24
124.9008667389
 34
0.0
 50
90.0
100
AcDbRotatedDimension
  0
DIMENSION
  5
218
330
1F
100
AcDbEntity
  8
VERMASSUNG
100
AcDbDimension
  2
*D6
 10
227.379083009
 20
150.0698808234
 30
0.0
 11
162.379083009
 21
150.0698808234
 31
0.0
 70
   160
 71
     2
 42
-1.0
  3
SLDDIMSTYLE0
100
AcDbAlignedDimension
 13
97.379083009
 23
139.1008667389
 33
0.0
 14
227.379083009
 24
119.5520857556
 34
0.0
100
AcDbRotatedDimension
  0
DIMENSION
  5
222
330
1F
100
AcDbEntity
  8
VERMASSUNG
100
AcDbDimension
  2
*D7
 10
227.379083009
 20
144.0698808234
 30
0.0
 11
175.354083009
 21
144.0698808234
 31
0.0
 70
   160
 71
     2
 42
-1.0
  3
SLDDIMSTYLE0
100
AcDbAlignedDimension
 13
123.329083009
 23
137.7473070627
 33
0.0
 14
227.379083009
 24
119.5003144987
 34
0.0
100
AcDbRotatedDimension
  0
DIMENSION
  5
22C
330
1F
100
AcDbEntity
  8
VERMASSUNG
100
AcDbDimension
  2
*D8
 10
227.379083009
 20
156.0698808234
 30
0.0
 11
146.429083009
 21
156.0698808234
 31
0.0
 70
   160
 71
     2
 42
-1.0
  3
SLDDIMSTYLE0
100
AcDbAlignedDimension
 13
65.479083009
 23
127.5915444854
 33
0.0
 14
227.379083009
 24
119.5003144987
 34
0.0
100
AcDbRotatedDimension
  0
LINE
  5
236
330
1F
100
AcDbEntity
  8
VERMASSUNG
  6
CENTERX2
370
     0
100
AcDbLine
 10
63.3337791667
 20
107.9008667389
 30
0.0
 11
229.7242686891
 21
107.9008667389
 31
0.0
  0
OLE2FRAME
  5
237
330
1F
100
AcDbEntity
  8
0
100
AcDbOle2Frame
 70
     2
  3
Bitmap Image
 10
13.8511154363
 20
38.264191557
 30
0.0
 11
51.6290888628
 21
31.9806341108
 31
0.0
 71
     2
 72
     0
 73
     1
 90
    12928
310
80552BED0767C5B32B40DDAF6807D121434000000000000000006FFBDDFB85D0
310
4940DDAF6807D121434000000000000000006FFBDDFB85D04940416F4BD60AFB
310
3F4000000000000000002BED0767C5B32B40416F4BD60AFB3F40000000000000
310
0000000000000100000000010000010000000100000000000100000000320000
310
D0CF11E0A1B11AE1000000000000000000000000000000003E000300FEFF0900
310
0600000000000000000000000100000001000000000000000010000002000000
310
01000000FEFFFFFF0000000000000000FFFFFFFFFFFFFFFFFFFFFFFFFFFFFFFF
310
FFFFFFFFFFFFFFFFFFFFFFFFFFFFFFFFFFFFFFFFFFFFFFFFFFFFFFFFFFFFFFFF
310
FFFFFFFFFFFFFFFFFFFFFFFFFFFFFFFFFFFFFFFFFFFFFFFFFFFFFFFFFFFFFFFF
310
FFFFFFFFFFFFFFFFFFFFFFFFFFFFFFFFFFFFFFFFFFFFFFFFFFFFFFFFFFFFFFFF
310
FFFFFFFFFFFFFFFFFFFFFFFFFFFFFFFFFFFFFFFFFFFFFFFFFFFFFFFFFFFFFFFF
310
FFFFFFFFFFFFFFFFFFFFFFFFFFFFFFFFFFFFFFFFFFFFFFFFFFFFFFFFFFFFFFFF
310
FFFFFFFFFFFFFFFFFFFFFFFFFFFFFFFFFFFFFFFFFFFFFFFFFFFFFFFFFFFFFFFF
310
FFFFFFFFFFFFFFFFFFFFFFFFFFFFFFFFFFFFFFFFFFFFFFFFFFFFFFFFFFFFFFFF
310
FFFFFFFFFFFFFFFFFFFFFFFFFFFFFFFFFFFFFFFFFFFFFFFFFFFFFFFFFFFFFFFF
310
FFFFFFFFFFFFFFFFFFFFFFFFFFFFFFFFFFFFFFFFFFFFFFFFFFFFFFFFFFFFFFFF
310
FFFFFFFFFFFFFFFFFFFFFFFFFFFFFFFFFFFFFFFFFFFFFFFFFFFFFFFFFFFFFFFF
310
FFFFFFFFFFFFFFFFFFFFFFFFFFFFFFFFFFFFFFFFFFFFFFFFFFFFFFFFFFFFFFFF
310
FFFFFFFFFFFFFFFFFFFFFFFFFFFFFFFFFFFFFFFFFFFFFFFFFFFFFFFFFFFFFFFF
310
FFFFFFFFFFFFFFFFFFFFFFFFFFFFFFFFFFFFFFFFFFFFFFFFFFFFFFFFFFFFFFFF
310
FDFFFFFFFEFFFFFFFEFFFFFFFEFFFFFF05000000060000000700000008000000
310
090000000A0000000B0000000C0000000D0000000E0000000F00000010000000
310
11000000120000001300000014000000150000001600000017000000FEFFFFFF
310
FFFFFFFFFFFFFFFFFFFFFFFFFFFFFFFFFFFFFFFFFFFFFFFFFFFFFFFFFFFFFFFF
310
FFFFFFFFFFFFFFFFFFFFFFFFFFFFFFFFFFFFFFFFFFFFFFFFFFFFFFFFFFFFFFFF
310
FFFFFFFFFFFFFFFFFFFFFFFFFFFFFFFFFFFFFFFFFFFFFFFFFFFFFFFFFFFFFFFF
310
FFFFFFFFFFFFFFFFFFFFFFFFFFFFFFFFFFFFFFFFFFFFFFFFFFFFFFFFFFFFFFFF
310
FFFFFFFFFFFFFFFFFFFFFFFFFFFFFFFFFFFFFFFFFFFFFFFFFFFFFFFFFFFFFFFF
310
FFFFFFFFFFFFFFFFFFFFFFFFFFFFFFFFFFFFFFFFFFFFFFFFFFFFFFFFFFFFFFFF
310
FFFFFFFFFFFFFFFFFFFFFFFFFFFFFFFFFFFFFFFFFFFFFFFFFFFFFFFFFFFFFFFF
310
FFFFFFFFFFFFFFFFFFFFFFFFFFFFFFFFFFFFFFFFFFFFFFFFFFFFFFFFFFFFFFFF
310
FFFFFFFFFFFFFFFFFFFFFFFFFFFFFFFFFFFFFFFFFFFFFFFFFFFFFFFFFFFFFFFF
310
FFFFFFFFFFFFFFFFFFFFFFFFFFFFFFFFFFFFFFFFFFFFFFFFFFFFFFFFFFFFFFFF
310
FFFFFFFFFFFFFFFFFFFFFFFFFFFFFFFFFFFFFFFFFFFFFFFFFFFFFFFFFFFFFFFF
310
FFFFFFFFFFFFFFFFFFFFFFFFFFFFFFFFFFFFFFFFFFFFFFFFFFFFFFFFFFFFFFFF
310
FFFFFFFFFFFFFFFFFFFFFFFFFFFFFFFFFFFFFFFFFFFFFFFFFFFFFFFFFFFFFFFF
310
52006F006F007400200045006E00740072007900000000000000000000000000
310
0000000000000000000000000000000000000000000000000000000000000000
310
16000500FFFFFFFFFFFFFFFF020000000A00030000000000C000000000000046
310
00000000000000000000000020C4DF1F7605CC0103000000C000000000000000
310
01004F006C006500000000000000000000000000000000000000000000000000
310
0000000000000000000000000000000000000000000000000000000000000000
310
0A000200FFFFFFFFFFFFFFFFFFFFFFFF00000000000000000000000000000000
310
0000000000000000000000000000000000000000000000001400000000000000
310
010043006F006D0070004F0062006A0000000000000000000000000000000000
310
0000000000000000000000000000000000000000000000000000000000000000
310
120002010100000003000000FFFFFFFF00000000000000000000000000000000
310
0000000000000000000000000000000000000000010000004D00000000000000
310
01004F006C006500310030004E00610074006900760065000000000000000000
310
0000000000000000000000000000000000000000000000000000000000000000
310
1A000200FFFFFFFFFFFFFFFFFFFFFFFF00000000000000000000000000000000
310
0000000000000000000000000000000000000000040000002426000000000000
310
FEFFFFFF02000000FEFFFFFFFFFFFFFFFFFFFFFFFFFFFFFFFFFFFFFFFFFFFFFF
310
FFFFFFFFFFFFFFFFFFFFFFFFFFFFFFFFFFFFFFFFFFFFFFFFFFFFFFFFFFFFFFFF
310
FFFFFFFFFFFFFFFFFFFFFFFFFFFFFFFFFFFFFFFFFFFFFFFFFFFFFFFFFFFFFFFF
310
FFFFFFFFFFFFFFFFFFFFFFFFFFFFFFFFFFFFFFFFFFFFFFFFFFFFFFFFFFFFFFFF
310
FFFFFFFFFFFFFFFFFFFFFFFFFFFFFFFFFFFFFFFFFFFFFFFFFFFFFFFFFFFFFFFF
310
FFFFFFFFFFFFFFFFFFFFFFFFFFFFFFFFFFFFFFFFFFFFFFFFFFFFFFFFFFFFFFFF
310
FFFFFFFFFFFFFFFFFFFFFFFFFFFFFFFFFFFFFFFFFFFFFFFFFFFFFFFFFFFFFFFF
310
FFFFFFFFFFFFFFFFFFFFFFFFFFFFFFFFFFFFFFFFFFFFFFFFFFFFFFFFFFFFFFFF
310
FFFFFFFFFFFFFFFFFFFFFFFFFFFFFFFFFFFFFFFFFFFFFFFFFFFFFFFFFFFFFFFF
310
FFFFFFFFFFFFFFFFFFFFFFFFFFFFFFFFFFFFFFFFFFFFFFFFFFFFFFFFFFFFFFFF
310
FFFFFFFFFFFFFFFFFFFFFFFFFFFFFFFFFFFFFFFFFFFFFFFFFFFFFFFFFFFFFFFF
310
FFFFFFFFFFFFFFFFFFFFFFFFFFFFFFFFFFFFFFFFFFFFFFFFFFFFFFFFFFFFFFFF
310
FFFFFFFFFFFFFFFFFFFFFFFFFFFFFFFFFFFFFFFFFFFFFFFFFFFFFFFFFFFFFFFF
310
FFFFFFFFFFFFFFFFFFFFFFFFFFFFFFFFFFFFFFFFFFFFFFFFFFFFFFFFFFFFFFFF
310
FFFFFFFFFFFFFFFFFFFFFFFFFFFFFFFFFFFFFFFFFFFFFFFFFFFFFFFFFFFFFFFF
310
FFFFFFFFFFFFFFFFFFFFFFFFFFFFFFFFFFFFFFFFFFFFFFFFFFFFFFFFFFFFFFFF
310
0100000200000000000000000000000000000000000000000000000000000000
310
0000000000000000000000000000000000000000000000000000000000000000
310
0100FEFF030A0000FFFFFFFF0A00030000000000C00000000000004607000000
310
5042727573680007000000504272757368000700000050427275736800F439B2
310
7100000000000000000000000000000000000000000000000000000000000000
310
0000000000000000000000000000000000000000000000000000000000000000
310
0000000000000000000000000000000000000000000000000000000000000000
310
0000000000000000000000000000000000000000000000000000000000000000
310
0000000000000000000000000000000000000000000000000000000000000000
310
0000000000000000000000000000000000000000000000000000000000000000
310
0000000000000000000000000000000000000000000000000000000000000000
310
0000000000000000000000000000000000000000000000000000000000000000
310
0000000000000000000000000000000000000000000000000000000000000000
310
0000000000000000000000000000000000000000000000000000000000000000
310
0000000000000000000000000000000000000000000000000000000000000000
310
0000000000000000000000000000000000000000000000000000000000000000
310
20260000424D0E260000000000003E00000028000000B40200006E0000000100
310
01000000000000000000130B0000130B00000200000002000000000000FFFFFF
310
FFFFFFFFFFFFFFFFFFFFFFFFFFFFFFFFFFFFFFFFFFFFFFFFFFFFFFFFFFFFFFFF
310
FFFFFFFFFFFFFFFFFFFFFFFFFFFFFFFFFFFFFFFFFFFFFFFFFFFFFFFFFFFFFFFF
310
FFFFFFFFFFFFFFFFFFFFFFFFFFFFFFFFFFFFFFFFFFFFFFFFF000FFFFFFFFFFFF
310
FFFFFFFFFFFFFFFFFFFFFFFFFFFFFFFFFFFFFFFFFFFFFFFFFFFFFFFFFFFFFFFF
310
FFFFFFFFFFFFFFFFFFFFFFFFFFFFFFFFFFFFFFFFFFFFFFFFFFFFFFFFFFFFFFFF
310
FFFFFFFFFFFFFFFFFFFFFFFFFFFFFFFFF000FFFFFFFFFFFFFFFFFFFFFFFFFFFF
310
FFFFFFFFFFFFFFFFFFFFFFFFFFFFFFFFFFFFFFFFFFFFFFFFFFFFFFFFFFFFFFFF
310
FFFFFFFFFFFFFFFFFFFFFFFFFFFFFFFFFFFFFFFFFFFFFFFFFFFFFFFFFFFFFFFF
310
FFFFFFFFFFFFFFFFF000FFFFFFFFFFFFFFFFFFFFFFFFFFFFFFFFFFFFFFFFFFFF
310
FFFFFFFFFFFFFFFFFFFFFFFFFFFFFFFFFFFFFFFFFFFFFFFFFFFFFFFFFFFFFFFF
310
FFFFFFFFFFFFFFFFFFFFFFFFFFFFFFFFFFFFFFFFFFFFFFFFFFFFFFFFFFFFFFFF
310
F000FFFFFFFFFFFFFFFFFFFFFFFFFFFFFFFFFFFFFFFFFFFFFFFFFFFFFFFFFFFF
310
FFFFFFFFFFFFFFFFFFFFFFFFFFFFFFFFFFFFFFFFFFFFFFFFFFFFFFFFFFFFFFFF
310
FFFFFFFFFFFFFFFFFFFFFFFFFFFFFFFFFFFFFFFFFFFFFFFFF000FFFFFFFFFFFF
310
FFFFFFFFFFFFFFFFFFFFFFFFFFFFFFFFFFFFFFFFFFFFFFFFFFFFFFFFFFFFFFFF
310
FFFFFFFFFFFFFFFFFFFFFFFFFFFFFFFFFFFFFFFFFFFFFFFFFFFFFFFFFFFFFFFF
310
FFFFFFFFFFFFFFFFFFFFFFFFFFFFFFFFF000FFFFFFFFFFFFFFFFFFFFFFFFFFFF
310
FFFFFFFFFFFFFFFFFFFFFFFFFFFFFFFFFFFFFFFFFFFFFFFFFFFFFFFFFFFFFFFF
310
FFFFFFFFFFFFFFFFFFFFFFFFFFFFFFFFFFFFFFFFFFFFFFFFFFFFFFFFFFFFFFFF
310
FFFFFFFFFFFFFFFFF000FFFFFFFFFFFFFFFFFFFFFFFFFFFFFFFFFFFFFFFFFFFF
310
FFFFFFFFFFFFFFFFFFFFFFFFFFFFFFFFFFFFFFFFFFFFFFFFFFFFFFFFFFFFFFFF
310
FFFFFFFFFFFFFFFFFFFFFFFFFFFFFFFFFFFFFFFFFFFFFFFFFFFFFFFFFFFFFFFF
310
F000FFFFFFFFFFFFFFFFFFFFFFFFFFFFFFFFFFFFFFFFFFFFFFFFFFFFFFFFFFFF
310
FFFFFFFFFFFFFFFFFFFFFFFFFFFFFFFFFFFFFFFFFFFFFFFFFFFFFFFFFFFFFFFF
310
FFFFFFFFFFFFFFFFFFFFFFFFFFFFFFFFFFFFFFFFFFFFFFFFF000FFFFFFFFFFFF
310
FFFFFFFFFFFFFFFFFFFFFFFFFFFFFFFFFFFFFFFFFFFFFFFFFFFFFFFFFFFFFFFF
310
FFFFFFFFFFFFFFFFFFFFFFFFFFFFFFFFFFFFFFFFFFFFFFFFFFFFFFFFFFFFFFFF
310
FFFFFFFFFFFFFFFFFFFFFFFFFFFFFFFFF000FFFFFFFFFFFFFFFFFFFFFFFFFFFF
310
FFFFFFFFFFFFFFFFFFFFFFFFFFFFFFFFFFFFFFFFFFFFFFFFFFFFFFFFFFFFFFFF
310
FFFFFFFFFFFFFFFFFFFFFFFFFFFFFFFFFFFFFFFFFFFFFFFFFFFFFFFFFFFFFFFF
310
FFFFFFFFFFFFFFFFF000FFFFFFFFFFFFFFFFFFFFFFFFFFFFFFFFFFFFFFFFFFFF
310
FFFFFFFFFFFFFFFFFFFFFFFFFFFFFFFFFFFFFFFFFFFFFFFFFFFFFFFFFFFFFFFF
310
FFFFFFFFFFFFFFFFFFFFFFFFFFFFFFFFFFFFFFFFFFFFFFFFFFFFFFFFFFFFFFFF
310
F000FFFFFFFFFFFFFFFFFFFFFFFFFFFFFFFFFFFFFFFFFFFFFFFFFFFFFFFFFFFF
310
FFFFFFFFFFFFFFFFFFFFFFFFFFFFFFFFFFFFFFFFFFFFFFFFFFFFFFFFFFFFFFFF
310
FFFFFFFFFFFFFFFFFFFFFFFFFFFFFFFFFFFFFFFFFFFFFFFFF000FFFFFFFFFFFF
310
FFFFFFFFFFFFFFFFFFFFFFFFFFFFFFFFFFFFFFFFFFFFFFFFFFFFFFFFFFFFFFFF
310
FFFFFFFFFFFFFFFFFFFFFFFFFFFFFFFFFFFFFFFFFFFFFFFFFFFFFFFFFFFFFFFF
310
FFFFFFFFFFFFFFFFFFFFFFFFFFFFFFFFF000FFFFFFFFFFFFFFFFFFFFFFFFFFFF
310
FFFFFFFFFFFFFFFFFFFFFFFFFFFFFFFFFFFFFFFFFFFFFFFFFFFFFFFFFFFFFFFF
310
FFFFFFFFFFFFFFFFFFFFFFFFFFFFFFFFFFFFFFFFFFFFFFFFFFFFFFFFFFFFFFFF
310
FFFFFFFFFFFFFFFFF000FFFFFFFFFFFFFFFFFFFFFFFFFFFFFFFFFFFFFFFFFFFF
310
FFFFFFFFFFFFFFFFFFFFFFFFFFFFFFFFFFFFFFFFFFFFFFFFFFFFFFFFFFFFFFFF
310
FFFFFFFFFFFFFFFFFFFFFFFFFFFFFFFFFFFFFFFFFFFFFFFFFFFFFFFFFFFFFFFF
310
F000FFFFFFFFFFFFFFFFFFFFFFFFFFFFFFFFFFFFFFFFFFFFFFFFFFFFFFFFFFFF
310
FFFFFFFFFFFFFFFFFFFFFFFFFFFFFFFFFFFFFFFFFFFFFFFFFFFFFFFFFFFFFFFF
310
FFFFFFFFFFFFFFFFFFFFFFFFFFFFFFFFFFFFFFFFFFFFFFFFF000FFFFFFFFFFFF
310
FFFFFFFFFFFFFFFFFFFFFFFFFFFFFFFFFFFFFFFFFFFFFFFFFFFFFFFFFFFFFFFF
310
FFFFFFFFFFFFFFFFFFFFFFFFFFFFFFFFFFFFFFFFFFFFFFFFFFFFFFFFFFFFFFFF
310
FFFFFFFFFFFFFFFFFFFFFFFFFFFFFFFFF000FFFFFFFFFFFFFFFFFFFFFFFFFFFF
310
FFFFFFFFFFFFFFFFFFFFFFFFFFFFFFFFFFFFFFFFFFFFFFFFFFFFFFFFFFFFFFFF
310
FFFFFFFFFFFFFFFFFFFFFFFFFFFFFFFFFFFFFFFFFFFFFFFFFFFFFFFFFFFFFFFF
310
FFFFFFFFFFFFFFFFF000FFFFF80003FFFFFFFFFFFFFFFFFFFFFFFFFFFFFFFFFF
310
FFFFF00007FFFFFFFFFF00007FFFFFF800000000000000007FFFFFFFFFFFFFFF
310
FFFFFFFC001FFFFFFFFFFFFFFC001FFFFFFFFFFFFFFFFFFFFFFFFFFE0007FFFF
310
F000FFFF8000007FFFFFFFF8000FFFFFC0007FFFFF80007FFFFF0000007FFFFF
310
FFF8000007FFFFF800000000000000007FFFFFF0001FFFFFFFFFFFC00001FFFF
310
FFFFFFFFC00001FFFFFFFF000000000003FFFFE000007FFFF000FFFE0000000F
310
FFFFFFF0000FFFFF80007FFFFF80007FFFFC0000001FFFFFFFC0000001FFFFF8
310
00000000000000007FFFFFF0001FFFFFFFFFFE0000003FFFFFFFFFFE0000003F
310
FFFFFF000000000003FFFF0000000FFFF000FFF800000003FFFFFFF00007FFFF
310
80007FFFFF80007FFFF000000007FFFFFF000000003FFFF80000000000000000
310
7FFFFFF0001FFFFFFFFFF80000000FFFFFFFFFF80000000FFFFFFF0000000000
310
03FFFC00000003FFF000FFE000000000FFFFFFF00007FFFF80003FFFFF80007F
310
FFC000000001FFFFFC000000001FFFF800000000000000007FFFFFF0001FFFFF
310
FFFFE000000003FFFFFFFFE000000003FFFFFF000000000003FFF000000000FF
310
F000FF80000000007FFFFFF00007FFFF80003FFFFF80007FFF8000000000FFFF
310
F80000000007FFF800000000000000007FFFFFF0001FFFFFFFFFC000000001FF
310
FFFFFFC000000001FFFFFF000000000003FFC0000000007FF000FF0000000000
310
3FFFFFE00007FFFF00003FFFFF80007FFE00000000003FFFF00000000003FFF8
310
00000000000000007FFFFFF0001FFFFFFFFF8000000000FFFFFFFF8000000000
310
FFFFFF000000000003FF80000000003FF000FE00000000001FFFFFE00003FFFF
310
00003FFFFF80007FFC00000000001FFFE00000000001FFF8000001FFFE000000
310
7FFFFFF0001FFFFFFFFE00000000003FFFFFFE00000000003FFFFF0000000000
310
03FF00000000001FF000FC00000000000FFFFFE00003FFFF00001FFFFF80007F
310
F800000000001FFFC00000000000FFF8000001FFFE0000007FFFFFF0001FFFFF
310
FFFC00000000001FFFFFFC00000000001FFFFF000000000003FE00000000000F
310
F000F8000000000007FFFFE00003FFFF00001FFFFF80007FF800000000000FFF
310
800000000000FFF8000001FFFE0000007FFFFFF0001FFFFFFFF800000000000F
310
FFFFF800000000000FFFFF000000000003FC000000000007F000F80000000000
310
03FFFFC00003FFFE00001FFFFF80007FF0000000000007FF0000000000007FF8
310
000001FFFE0000007FFFFFF0001FFFFFFFF0000000000007FFFFF00000000000
310
07FFFF000000000003F8000000000003F000F0000000000003FFFFC00001FFFE
310
00001FFFFF80007FE0000000000007FE0000000000003FF8000001FFFE000000
310
7FFFFFF0001FFFFFFFF0000000000007FFFFF0000000000007FFFF0000000000
310
03F800001F800003F000E00001FFF00001FFFFC00001FFFE00000FFFFF80007F
310
E00001FFE00003FE00001FFF00003FF8000001FFFE0000007FFFFFF0001FFFFF
310
FFE000003E000003FFFFE000003E000003FFFF000000000003F00001FFF80001
310
F000E00007FFFC0001FFFFC00001FFFE00000FFFFF80007FC0000FFFFC0003FC
310
0000FFFFC0001FF8000001FFFE0000007FFFFFF0001FFFFFFFC00003FFE00001
310
FFFFC00003FFE00001FFFF0001FFFFFFFFF00007FFFE0001F000E0000FFFFF00
310
00FFFF800001FFFC00000FFFFF80007FC0001FFFFE0001FC0001FFFFE0001FF8
310
000001FFFE0000007FFFFFF0001FFFFFFF80000FFFF80000FFFF80000FFFF800
310
00FFFF0003FFFFFFFFE0000FFFFF8000F000C0003FFFFF8000FFFF800000FFFC
310
000007FFFF80007F80003FFFFF0001FC0003FFFFF0001FF8000001FFFE000000
310
7FFFFFF0001FFFFFFF80003FFFFE0000FFFF80003FFFFE0000FFFF0003FFFFFF
310
FFE0003FFFFF8000F000C0003FFFFF8000FFFF800000FFFC000007FFFF80007F
310
80007FFFFF8001F80007FFFFF8000FF8000001FFFE0000007FFFFFF0001FFFFF
310
FF00007FFFFF00007FFF00007FFFFF00007FFF0003FFFFFFFFE0003FFFFFC000
310
F000C0007FFFFFC000FFFF000000FFFC000007FFFF80007F8000FFFFFF8000F8
310
000FFFFFF8000FF8000001FFFE0000007FFFFFF0001FFFFFFF0000FFFFFF8000
310
7FFF0000FFFFFF80007FFF0003FFFFFFFFC0007FFFFFC00070008000FFFFFFC0
310
00FFFF000000FFF8000007FFFF80007F8000FFFFFF8000F8000FFFFFF8000FF8
310
000001FFFE0000007FFFFFF0001FFFFFFE0001FFFFFFC0003FFE0001FFFFFFC0
310
003FFF0003FFFFFFFFC0007FFFFFE00070008000FFFFFFC0007FFF0000007FF8
310
000003FFFF80007F0001FFFFFF8000F8000FFFFFF8000FF8000001FFFE000000
310
7FFFFFF0001FFFFFFE0001FFFFFFC0003FFE0001FFFFFFC0003FFF0003FFFFFF
310
FFC000FFFFFFE00070008000FFFFFFC0007FFF0000007FF8000003FFFF80007F
310
0001FFFFFF8000F8001FFFFFF8000FF8000001FFFE0000007FFFFFF0001FFFFF
310
FE0003FFFFFFE0003FFE0003FFFFFFE0003FFF0003FFFFFFFFC000FFFFFFE000
310
70008000FFFFFFC0007FFE0000007FF8000003FFFF80007F0001FFFFFF8000F0
310
001FFFFFF8000FF8000001FFFE0000007FFFFFF0001FFFFFFC0003FFFFFFE000
310
1FFC0003FFFFFFE0001FFF0003FFFFFFFFC000FFFFFFC00070008000FFFFFF80
310
007FFE0000007FF0000003FFFF80007F0001FFFFFF0000F0001FFFFFF8000FF8
310
000001FFFE0000007FFFFFF0001FFFFFFC0007FFFFFFF0001FFC0007FFFFFFF0
310
001FFF0003FFFFFFFFC000FFFFFFC00070008001FFFFFF0000FFFE0000003FF0
310
000001FFFF80007F0001FFFFFF0000F8001FFFFFF0000FF8000001FFFE000000
310
7FFFFFF0001FFFFFFC0007FFFFFFF0001FFC0007FFFFFFF0001FFF0003FFFFFF
310
FFC001FFFFFF80007000FFFFFFFFFE0000FFFE0008003FF0008001FFFF80007F
310
FFFFFFFFFC0000FFFFFFFFFFE0000FF8000001FFFE0000007FFFFFF0001FFFFF
310
F8000FFFFFFFF8000FF8000FFFFFFFF8000FFF0003FFFFFFFFFFFFFFFFFF0000
310
7000FFFFFFFFFC0000FFFC0008003FF0008001FFFF80007FFFFFFFFFF80001FF
310
FFFFFFFF80000FF8000001FFFE0000007FFFFFF0001FFFFFF8000FFFFFFFF800
310
0FF8000FFFFFFFF8000FFF0003FFFFFFFFFFFFFFFFFE0000F000FFFFFFFFE000
310
00FFFC000C003FE000C001FFFF80007FFFFFFFFFC00001FFFFFFFFFE00001FF8
310
000001FFFE0000007FFFFFF0001FFFFFF8000FFFFFFFF8000FF8000FFFFFFFF8
310
000FFF0003FFFFFFFFFFFFFFFFF00000F000FFFFFFFE000001FFFC000C001FE0
310
00C000FFFF80007FFFFFFFFE000001FFFFFFFFE000001FF80FFFFFFFFFFFFFC0
310
7FFFFFF0001FFFFFF8000FFFFFFFF8000FF8000FFFFFFFF8000FFF0003FFFFFF
310
FFFFFFFFFF800000F000FFFFFFC0000001FFFC001C001FE001C000FFFF80007F
310
FFFFFF80000003FFFFFFF80000001FF80FFFFFFFFFFFFFC07FFFFFF0001FFFFF
310
F8001FFFFFFFFC000FF8001FFFFFFFFC000FFF0003FFFFFFFFFFFFFFF0000001
310
F000FFFFF800000001FFF8001C001FE001C000FFFF80007FFFFFF800000003FF
310
FFFF800000003FF80FFFFFFFFFFFFFC07FFFFFF0001FFFFFF8001FFFFFFFFC00
310
0FF8001FFFFFFFFC000FFF0003FFFFFFFFFFFFFE00000001F000FFFFC0000000
310
03FFF8001E001FC001E000FFFF80007FFFFF8000000007FFFFFC000000003FF8
310
0FFFFFFFFFFFFFC07FFFFFF0001FFFFFF8001FFFFFFFFC000FF8001FFFFFFFFC
310
000FFF0003FFFFFFFFFFFFE000000003F000FFFE0000000007FFF8001E000FC0
310
01E0007FFF80007FFFFE0000000007FFFFE0000000007FF80FFFFFFFFFFFFFC0
310
7FFFFFF0001FFFFFF0001FFFFFFFFC0007F0001FFFFFFFFC0007FF0003FFFFFF
310
FFFFFF0000000003F000FFF80000000007FFF8001E000FC003E0007FFF80007F
310
FFF0000000000FFFFF8000000000FFF80FFFFFFFFFFFFFC07FFFFFF0001FFFFF
310
F0001FFFFFFFFC0007F0001FFFFFFFFC0007FF0003FFFFFFFFFFFC0000000007
310
F000FFE0000000000FFFF0003E000FC003E0007FFF80007FFFC0000000001FFF
310
FE0000000001FFF80FFFFFFFFFFFFFC07FFFFFF0001FFFFFF0001FFFFFFFFC00
310
07F0001FFFFFFFFC0007FF0003FFFFFFFFFFF0000000000FF000FFC000000000
310
1FFFF0003F000F8003F0003FFF80007FFF80000000003FFFF80000000003FFF8
310
0FFFFFFFFFFFFFC07FFFFFF0001FFFFFF0001FFFFFFFFC0007F0001FFFFFFFFC
310
0007FF0003FFFFFFFFFFE0000000001FF000FF00000000007FFFF0003F000780
310
03F0003FFF80007FFF00000000007FFFF00000000007FFF80FFFFFFFFFFFFFC0
310
7FFFFFF0001FFFFFF0001FFFFFFFFC0007F0001FFFFFFFFC0007FF0003FFFFFF
310
FFFF80000000007FF000FE0000000000FFFFE0003F00078007F0003FFF80007F
310
FE0000000001FFFFE0000000001FFFF80FFFFFFFFFFFFFC07FFFFFF0001FFFFF
310
F0001FFFFFFFFC0007F0001FFFFFFFFC0007FF0003FFFFFFFFFF0000000000FF
310
F000FC0000000003FFFFE0007F00078007F0003FFF80007FFC0000000007FFFF
310
C0000000007FFFF80FFFFFFFFFFFFFC07FFFFFF0001FFFFFF8001FFFFFFFFC00
310
0FF8001FFFFFFFFC000FFF0003FFFFFFFFFE0000000003FFF000FC000000000F
310
FFFFE0007F80070007F8001FFF80007FF8000000001FFFFF8000000001FFFFF8
310
0FFFFFFFFFFFFFC07FFFFFF0001FFFFFF8001FFFFFFFFC000FF8001FFFFFFFFC
310
000FFF0003FFFFFFFFFC000000000FFFF000F8000000007FFFFFE0007F800700
310
07F8001FFF80007FF000000000FFFFFF800000000FFFFFF80FFFFFFFFFFFFFC0
310
7FFFFFF0001FFFFFF8000FFFFFFFF8000FF8000FFFFFFFF8000FFF0003FFFFFF
310
FFFC000000007FFFF000F800000007FFFFFFC0007F8003000FF8001FFF80007F
310
F000000007FFFFFF000000007FFFFFF80FFFFFFFFFFFFFC07FFFFFF0001FFFFF
310
F8000FFFFFFFF8000FF8000FFFFFFFF8000FFF0003FFFFFFFFF80000000FFFFF
310
F000F0000000FFFFFFFFC000FF8003000FF8001FFF80007FE0000000FFFFFFFF
310
0000000FFFFFFFF8000001FFFE0000007FFFFFF0001FFFFFF8000FFFFFFFF800
310
0FF8000FFFFFFFF8000FFF0003FFFFFFFFF8000000FFFFFFF000F000000FFFFF
310
FFFFC000FFC002000FF8000FFF80007FE000001FFFFFFFFE000001FFFFFFFFF8
310
000001FFFE0000007FFFFFF0001FFFFFF8000FFFFFFFF8000FF8000FFFFFFFF8
310
000FFF0003FFFFFFFFF000001FFFFFFFF000E00000FFFFFFFFFFC000FFC00200
310
0FFC000FFF80007FE00001FFFFFFFFFE00001FFFFFFFFFF8000001FFFE000000
310
7FFFFFF0001FFFFFFC000FFFFFFFF8001FFC000FFFFFFFF8001FFF0003FFFFFF
310
FFF00001FFFFFFFFF000E00007FFFFFFFFFF8000FFC000001FFC000FFF80007F
310
C0000FFFFFFFFFFE0000FFFFFFFFFFF8000001FFFE0000007FFFFFF0001FFFFF
310
FC0007FFFFFFF0001FFC0007FFFFFFF0001FFF0003FFFFFFFFF00007FFFFFFFF
310
F000E0001FFFFFFFFFFF8000FFC000001FFC000FFF80007FC0003FFFFFFFFFFE
310
0001FFFFFFFFFFF8000001FFFE0000007FFFFFF0001FFFFFFC0007FFFFFFF000
310
1FFC0007FFFFFFF0001FFF0003FFFFFFFFF0001FFFFFFFFFF000E0003FFFFF00
310
03FF8001FFE000001FFC0007FF80007FC0007FFFFF0007FC0003FFFFF0003FF8
310
000001FFFE0000007FFFFFF0001FFFFFFC0003FFFFFFE0001FFC0003FFFFFFE0
310
001FFF0003FFFFFFFFF0003FFFFFFFFFF000E0003FFFFF0001FF8001FFE00000
310
1FFE0007FF80007FC0007FFFFE0003FC0007FFFFE0003FF8000001FFFE000000
310
7FFFFFF0001FFFFFFE0003FFFFFFE0003FFE0003FFFFFFE0003FFF0003FFFFFF
310
FFF0003FFFFF8001F000E0003FFFFF0001FF0001FFE000001FFE0007FF80007F
310
C0007FFFFE0003FC0007FFFFE0003FF8000001FFFE0000007FFFFFF0001FFFFF
310
FE0001FFFFFFC0003FFE0001FFFFFFC0003FFF0003FFFFFFFFF0003FFFFF0001
310
F000E0003FFFFF0003FF0001FFE000003FFE0007FF80007FC0007FFFFE0003FC
310
0007FFFFE0003FF8000001FFFE0000007FFFFFF0001FFFFFFF0001FFFFFFC000
310
7FFF0001FFFFFFC0007FFF0003FFFFFFFFF0003FFFFF0001F000E0003FFFFE00
310
03FF0003FFF000003FFE0003FF80007FC0007FFFFC0003FE0007FFFFE0003FF8
310
000001FFFE0000007FFFFFF0001FFFFFFF0000FFFFFF80007FFF0000FFFFFF80
310
007FFF0003FFFFFFFFF0003FFFFF0001F000E0003FFFFE0003FF0003FFF00000
310
3FFF0003FF80007FC0007FFFFC0007FE0007FFFFC0003FF8000001FFFE000000
310
7FFFFFF0001FFFFFFF80007FFFFF0000FFFF80007FFFFF0000FFFF0003FFFFFF
310
FFF0003FFFFF0003F000E0003FFFFC0003FE0003FFF000003FFF0003FF80007F
310
E0003FFFF80007FE0003FFFFC0007FF8000001FFFE0000007FFFFFF0001FFFFF
310
FF80003FFFFE0000FFFF80003FFFFE0000FFFF0003FFFFFFFFF0001FFFFE0003
310
F000F0001FFFF80003FE0003FFF000007FFF0001FF80007FE0003FFFF00007FE
310
0001FFFF80007FF8000001FFFE0000007FFFFFF0001FFFFFFFC0000FFFF80001
310
FFFFC0000FFFF80001FFFF0003FFFFFFFFF0001FFFFC0003F000F0000FFFF000
310
07FE0007FFF800007FFF0001FF80007FE0001FFFE00007FF0000FFFE00007FF8
310
000001FFFE0000007FFFFFF0001FFFFFFFC00003FFE00001FFFFC00003FFE000
310
01FFFF0003FFFFFFFFF8000FFFF80003F000F00003FFC00007FC0007FFF80000
310
7FFF8001FF80007FF00007FF80000FFF00007FF80000FFF8000001FFFE000000
310
7F80000000000001FFE000003E000003FFFFE000003E000003FFFF0003FFFFFF
310
FFF80003FFE00007F000F800000000000FFC0007FFF800007FFF8001FF80007F
310
F000000000000FFF000000000000FFF8000001FFFE0000007F80000000000001
310
FFF0000000000007FFFFF0000000000007FFFF0003FFFFFFFFFC00007E000007
310
F000F800000000000FFC0007FFF80000FFFF8000FF80007FF800000000001FFF
310
800000000001FFF8000001FFFE0000007F80000000000001FFF800000000000F
310
FFFFF800000000000FFFFF0003FFFFFFFFFC00000000000FF000FC0000000000
310
1FFC0007FFFC0000FFFF8000FF80007FF800000000003FFFC00000000001FFF8
310
000001FFFE0000007F80000000000001FFF800000000000FFFFFF80000000000
310
0FFFFF0003FFFFFFFFFE00000000001FF000FE00000000003FF8000FFFFC0000
310
FFFF8000FF80007FFC00000000003FFFC00000000003FFF8000001FFFE000000
310
7F80000000000001FFFC00000000001FFFFFFC00000000001FFFFF0003FFFFFF
310
FFFF00000000001FF000FF00000000003FF8000FFFFC0000FFFFC000FF80007F
310
FE00000000007FFFE00000000007FFF8000001FFFE0000007F80000000000001
310
FFFE00000000003FFFFFFE00000000003FFFFF0003FFFFFFFFFF80000000003F
310
F000FF80000000007FF8000FFFFC0001FFFFC0007F80007FFF0000000000FFFF
310
F0000000000FFFF800000000000000007F80000000000001FFFF8000000000FF
310
FFFFFF8000000000FFFFFF0003FFFFFFFFFFC0000000007FF000FFC000000000
310
FFF8000FFFFE0001FFFFC0007F80007FFF8000000001FFFFF8000000001FFFF8
310
00000000000000007F80000000000001FFFFC000000001FFFFFFFFC000000001
310
FFFFFF0003FFFFFFFFFFE000000000FFF000FFE000000003FFF0001FFFFE0001
310
FFFFC0007F80007FFFC000000007FFFFFE000000003FFFF80000000000000000
310
7F80000000000001FFFFE000000003FFFFFFFFE000000003FFFFFF0003FFFFFF
310
FFFFF000000003FFF000FFF80000000FFFF0001FFFFE0001FFFFE0007F80007F
310
FFF00000000FFFFFFF00000000FFFFF800000000000000007F80000000000001
310
FFFFF80000000FFFFFFFFFF80000000FFFFFFF0003FFFFFFFFFFFC0000000FFF
310
F000FFFE0000003FFFF0001FFFFE0003FFFFE0003F80007FFFFC0000003FFFFF
310
FFC0000003FFFFF800000000000000007F80000000000001FFFFFE0000003FFF
310
FFFFFFFE0000003FFFFFFF0003FFFFFFFFFFFF0000003FFFF000FFFF800000FF
310
FFF0001FFFFF0003FFFFE0003F80007FFFFF000001FFFFFFFFF800001FFFFFF8
310
00000000000000007F80000000000001FFFFFFC00001FFFFFFFFFFFFC00001FF
310
FFFFFF0003FFFFFFFFFFFFC00000FFFFF000FFFFF8000FFFFFFFFFFFFFFFFFFF
310
FFFFFFFFFFFFFFFFFFFFF0001FFFFFFFFFFF0000FFFFFFF80000000000000000
310
7FFFFFFFFFFFFFFFFFFFFFFC001FFFFFFFFFFFFFFC001FFFFFFFFFFFFFFFFFFF
310
FFFFFFFC001FFFFFF000FFFFFFFFFFFFFFFFFFFFFFFFFFFFFFFFFFFFFFFFFFFF
310
FFFFFFFFFFFFFFFFFFFFFFFFFFFFFFFFFFFFFFFFFFFFFFFFFFFFFFFFFFFFFFFF
310
FFFFFFFFFFFFFFFFFFFFFFFFFFFFFFFFFFFFFFFFFFFFFFFFFFFFFFFFFFFFFFFF
310
F000FFFFFFFFFFFFFFFFFFFFFFFFFFFFFFFFFFFFFFFFFFFFFFFFFFFFFFFFFFFF
310
FFFFFFFFFFFFFFFFFFFFFFFFFFFFFFFFFFFFFFFFFFFFFFFFFFFFFFFFFFFFFFFF
310
FFFFFFFFFFFFFFFFFFFFFFFFFFFFFFFFFFFFFFFFFFFFFFFFF000FFFFFFFFFFFF
310
FFFFFFFFFFFFFFFFFFFFFFFFFFFFFFFFFFFFFFFFFFFFFFFFFFFFFFFFFFFFFFFF
310
FFFFFFFFFFFFFFFFFFFFFFFFFFFFFFFFFFFFFFFFFFFFFFFFFFFFFFFFFFFFFFFF
310
FFFFFFFFFFFFFFFFFFFFFFFFFFFFFFFFF000FFFFFFFFFFFFFFFFFFFFFFFFFFFF
310
FFFFFFFFFFFFFFFFFFFFFFFFFFFFFFFFFFFFFFFFFFFFFFFFFFFFFFFFFFFFFFFF
310
FFFFFFFFFFFFFFFFFFFFFFFFFFFFFFFFFFFFFFFFFFFFFFFFFFFFFFFFFFFFFFFF
310
FFFFFFFFFFFFFFFFF000FFFFFFFFFFFFFFFFFFFFFFFFFFFFFFFFFFFFFFFFFFFF
310
FFFFFFFFFFFFFFFFFFFFFFFFFFFFFFFFFFFFFFFFFFFFFFFFFFFFFFFFFFFFFFFF
310
FFFFFFFFFFFFFFFFFFFFFFFFFFFFFFFFFFFFFFFFFFFFFFFFFFFFFFFFFFFFFFFF
310
F000FFFFFFFFFFFFFFFFFFFFFFFFFFFFFFFFFFFFFFFFFFFFFFFFFFFFFFFFFFFF
310
FFFFFFFFFFFFFFFFFFFFFFFFFFFFFFFFFFFFFFFFFFFFFFFFFFFFFFFFFFFFFFFF
310
FFFFFFFFFFFFFFFFFFFFFFFFFFFFFFFFFFFFFFFFFFFFFFFFF000FFFFFFFFFFFF
310
FFFFFFFFFFFFFFFFFFFFFFFFFFFFFFFFFFFFFFFFFFFFFFFFFFFFFFFFFFFFFFFF
310
FFFFFFFFFFFFFFFFFFFFFFFFFFFFFFFFFFFFFFFFFFFFFFFFFFFFFFFFFFFFFFFF
310
FFFFFFFFFFFFFFFFFFFFFFFFFFFFFFFFF000FFFFFFFFFFFFFFFFFFFFFFFFFFFF
310
FFFFFFFFFFFFFFFFFFFFFFFFFFFFFFFFFFFFFFFFFFFFFFFFFFFFFFFFFFFFFFFF
310
FFFFFFFFFFFFFFFFFFFFFFFFFFFFFFFFFFFFFFFFFFFFFFFFFFFFFFFFFFFFFFFF
310
FFFFFFFFFFFFFFFFF000FFFFFFFFFFFFFFFFFFFFFFFFFFFFFFFFFFFFFFFFFFFF
310
FFFFFFFFFFFFFFFFFFFFFFFFFFFFFFFFFFFFFFFFFFFFFFFFFFFFFFFFFFFFFFFF
310
FFFFFFFFFFFFFFFFFFFFFFFFFFFFFFFFFFFFFFFFFFFFFFFFFFFFFFFFFFFFFFFF
310
F000FFFFFFFFFFFFFFFFFFFFFFFFFFFFFFFFFFFFFFFFFFFFFFFFFFFFFFFFFFFF
310
FFFFFFFFFFFFFFFFFFFFFFFFFFFFFFFFFFFFFFFFFFFFFFFFFFFFFFFFFFFFFFFF
310
FFFFFFFFFFFFFFFFFFFFFFFFFFFFFFFFFFFFFFFFFFFFFFFFF000FFFFFFFFFFFF
310
FFFFFFFFFFFFFFFFFFFFFFFFFFFFFFFFFFFFFFFFFFFFFFFFFFFFFFFFFFFFFFFF
310
FFFFFFFFFFFFFFFFFFFFFFFFFFFFFFFFFFFFFFFFFFFFFFFFFFFFFFFFFFFFFFFF
310
FFFFFFFFFFFFFFFFFFFFFFFFFFFFFFFFF000FFFFFFFFFFFFFFFFFFFFFFFFFFFF
310
FFFFFFFFFFFFFFFFFFFFFFFFFFFFFFFFFFFFFFFFFFFFFFFFFFFFFFFFFFFFFFFF
310
FFFFFFFFFFFFFFFFFFFFFFFFFFFFFFFFFFFFFFFFFFFFFFFFFFFFFFFFFFFFFFFF
310
FFFFFFFFFFFFFFFFF000FFFFFFFFFFFFFFFFFFFFFFFFFFFFFFFFFFFFFFFFFFFF
310
FFFFFFFFFFFFFFFFFFFFFFFFFFFFFFFFFFFFFFFFFFFFFFFFFFFFFFFFFFFFFFFF
310
FFFFFFFFFFFFFFFFFFFFFFFFFFFFFFFFFFFFFFFFFFFFFFFFFFFFFFFFFFFFFFFF
310
F000FFFFFFFFFFFFFFFFFFFFFFFFFFFFFFFFFFFFFFFFFFFFFFFFFFFFFFFFFFFF
310
FFFFFFFFFFFFFFFFFFFFFFFFFFFFFFFFFFFFFFFFFFFFFFFFFFFFFFFFFFFFFFFF
310
FFFFFFFFFFFFFFFFFFFFFFFFFFFFFFFFFFFFFFFFFFFFFFFFF000FFFFFFFFFFFF
310
FFFFFFFFFFFFFFFFFFFFFFFFFFFFFFFFFFFFFFFFFFFFFFFFFFFFFFFFFFFFFFFF
310
FFFFFFFFFFFFFFFFFFFFFFFFFFFFFFFFFFFFFFFFFFFFFFFFFFFFFFFFFFFFFFFF
310
FFFFFFFFFFFFFFFFFFFFFFFFFFFFFFFFF000FFFFFFFFFFFFFFFFFFFFFFFFFFFF
310
FFFFFFFFFFFFFFFFFFFFFFFFFFFFFFFFFFFFFFFFFFFFFFFFFFFFFFFFFFFFFFFF
310
FFFFFFFFFFFFFFFFFFFFFFFFFFFFFFFFFFFFFFFFFFFFFFFFFFFFFFFFFFFFFFFF
310
FFFFFFFFFFFFFFFFF000FFFFFFFFFFFFFFFFFFFFFFFFFFFFFFFFFFFFFFFFFFFF
310
FFFFFFFFFFFFFFFFFFFFFFFFFFFFFFFFFFFFFFFFFFFFFFFFFFFFFFFFFFFFFFFF
310
FFFFFFFFFFFFFFFFFFFFFFFFFFFFFFFFFFFFFFFFFFFFFFFFFFFFFFFFFFFFFFFF
310
F000FFFFFFFFFFFFFFFFFFFFFFFFFFFFFFFFFFFFFFFFFFFFFFFFFFFFFFFFFFFF
310
FFFFFFFFFFFFFFFFFFFFFFFFFFFFFFFFFFFFFFFFFFFFFFFFFFFFFFFFFFFFFFFF
310
FFFFFFFFFFFFFFFFFFFFFFFFFFFFFFFFFFFFFFFFFFFFFFFFF000FFFFFFFFFFFF
310
FFFFFFFFFFFFFFFFFFFFFFFFFFFFFFFFFFFFFFFFFFFFFFFFFFFFFFFFFFFFFFFF
310
FFFFFFFFFFFFFFFFFFFFFFFFFFFFFFFFFFFFFFFFFFFFFFFFFFFFFFFFFFFFFFFF
310
FFFFFFFFFFFFFFFFFFFFFFFFFFFFFFFFF000FFFFFFFFFFFFFFFFFFFFFFFFFFFF
310
FFFFFFFFFFFFFFFFFFFFFFFFFFFFFFFFFFFFFFFFFFFFFFFFFFFFFFFFFFFFFFFF
310
FFFFFFFFFFFFFFFFFFFFFFFFFFFFFFFFFFFFFFFFFFFFFFFFFFFFFFFFFFFFFFFF
310
FFFFFFFFFFFFFFFFF000FFFFFFFFFFFFFFFFFFFFFFFFFFFFFFFFFFFFFFFFFFFF
310
FFFFFFFFFFFFFFFFFFFFFFFFFFFFFFFFFFFFFFFFFFFFFFFFFFFFFFFFFFFFFFFF
310
FFFFFFFFFFFFFFFFFFFFFFFFFFFFFFFFFFFFFFFFFFFFFFFFFFFFFFFFFFFFFFFF
310
F000FFFFFFFFFFFFFFFFFFFFFFFFFFFFFFFFFFFFFFFFFFFFFFFFFFFFFFFFFFFF
310
FFFFFFFFFFFFFFFFFFFFFFFFFFFFFFFFFFFFFFFFFFFFFFFFFFFFFFFFFFFFFFFF
310
FFFFFFFFFFFFFFFFFFFFFFFFFFFFFFFFFFFFFFFFFFFFFFFFF000FFFFFFFFFFFF
310
FFFFFFFFFFFFFFFFFFFFFFFFFFFFFFFFFFFFFFFFFFFFFFFFFFFFFFFFFFFFFFFF
310
FFFFFFFFFFFFFFFFFFFFFFFFFFFFFFFFFFFFFFFFFFFFFFFFFFFFFFFFFFFFFFFF
310
FFFFFFFFFFFFFFFFFFFFFFFFFFFFFFFFF0000000000000000000000000000000
310
00000000FFFFFFFFFFFFFFFFFFFFFFFFFFFFFFFFFFFFFFFFFFFFFFFFFFFFFFFF
310
FFFFFFFFFFFFFFFFFFFFFFFFFFFFFFFFFFFFFFFFFFFFFFFFFFFFFFFFFFFFFFFF
310
FFFFFFFFFFFFFFFFFFFFFFFFFFFFFFFFFFFFFFFFFFFFFFFFFFFFFFFFFFFFFFFF
310
FFFFFFFFFFFFFFFFFFFFFFFFFFFFFFFFFFFFFFFFFFFFFFFFFFFFFFFFFFFFFFFF
310
FFFFFFFFFFFFFFFFFFFFFFFFFFFFFFFFFFFFFFFFFFFFFFFFFFFFFFFFFFFFFFFF
310
FFFFFFFFFFFFFFFFFFFFFFFFFFFFFFFFFFFFFFFFFFFFFFFFFFFFFFFFFFFFFFFF
310
FFFFFFFFFFFFFFFFFFFFFFFFFFFFFFFFFFFFFFFFFFFFFFFFFFFFFFFFFFFFFFFF
310
FFFFFFFFFFFFFFFFFFFFFFFFFFFFFFFFFFFFFFFFFFFFFFFFFFFFFFFFFFFFFFFF
310
FFFFFFFFFFFFFFFFFFFFFFFFFFFFFFFFFFFFFFFFFFFFFFFFFFFFFFFFFFFFFFFF
310
FFFFFFFFFFFFFFFFFFFFFFFFFFFFFFFFFFFFFFFFFFFFFFFFFFFFFFFFFFFFFFFF
310
FFFFFFFFFFFFFFFFFFFFFFFFFFFFFFFFFFFFFFFFFFFFFFFFFFFFFFFFFFFFFFFF
310
FFFFFFFFFFFFFFFFFFFFFFFFFFFFFFFFFFFFFFFFFFFFFFFFFFFFFFFFFFFFFFFF
310
FFFFFFFFFFFFFFFFFFFFFFFFFFFFFFFFFFFFFFFFFFFFFFFFFFFFFFFFFFFFFFFF
310
FFFFFFFFFFFFFFFFFFFFFFFFFFFFFFFFFFFFFFFFFFFFFFFFFFFFFFFFFFFFFFFF
310
FFFFFFFFFFFFFFFFFFFFFFFFFFFFFFFFFFFFFFFFFFFFFFFFFFFFFFFFFFFFFFFF
  1
OLE
  0
ENDSEC
  0
SECTION
  2
OBJECTS
  0
DICTIONARY
  5
C
330
0
100
AcDbDictionary
281
     1
  3
ACAD_GROUP
350
D
  3
ACAD_LAYOUT
350
1A
  3
ACAD_MLEADERSTYLE
350
239
  3
ACAD_MLINESTYLE
350
17
  3
ACAD_PLOTSETTINGS
350
19
  3
ACAD_PLOTSTYLENAME
350
E
  3
ACAD_TABLESTYLE
350
238
  3
ACAD_VISUALSTYLE
350
2A
  3
AcDbVariableDictionary
350
23A
  0
DICTIONARY
  5
D
102
{ACAD_REACTORS
330
C
102
}
330
C
100
AcDbDictionary
281
     1
  0
DICTIONARY
  5
1A
102
{ACAD_REACTORS
330
C
102
}
330
C
100
AcDbDictionary
281
     1
  3
Layout1
350
1E
  3
Layout2
350
26
  3
Model
350
22
  0
DICTIONARY
  5
239
102
{ACAD_REACTORS
330
C
102
}
330
C
100
AcDbDictionary
281
     1
  0
DICTIONARY
  5
17
102
{ACAD_REACTORS
330
C
102
}
330
C
100
AcDbDictionary
281
     1
  3
Standard
350
18
  0
DICTIONARY
  5
19
102
{ACAD_REACTORS
330
C
102
}
330
C
100
AcDbDictionary
281
     1
  0
ACDBDICTIONARYWDFLT
  5
E
102
{ACAD_REACTORS
330
C
102
}
330
C
100
AcDbDictionary
281
     1
  3
Normal
350
F
100
AcDbDictionaryWithDefault
340
F
  0
DICTIONARY
  5
238
102
{ACAD_REACTORS
330
C
102
}
330
C
100
AcDbDictionary
281
     1
  0
DICTIONARY
  5
2A
102
{ACAD_REACTORS
330
C
102
}
330
C
100
AcDbDictionary
281
     1
  3
2dWireframe
350
2F
  3
3D Hidden
350
31
  3
3dWireframe
350
30
  3
Basic
350
32
  3
Brighten
350
36
  3
ColorChange
350
3A
  3
Conceptual
350
34
  3
Dim
350
35
  3
Facepattern
350
39
  3
Flat
350
2B
  3
FlatWithEdges
350
2C
  3
Gouraud
350
2D
  3
GouraudWithEdges
350
2E
  3
Linepattern
350
38
  3
Realistic
350
33
  3
Thicken
350
37
  0
DICTIONARY
  5
23A
102
{ACAD_REACTORS
330
C
102
}
330
C
100
AcDbDictionary
281
     1
  3
PSOLHEIGHT
350
23C
  3
PSOLWIDTH
350
23B
  0
LAYOUT
  5
1E
102
{ACAD_REACTORS
330
1A
102
}
330
1A
100
AcDbPlotSettings
  1

  2
none_device
  4

  6

 40
0.0
 41
0.0
 42
0.0
 43
0.0
 44
0.0
 45
0.0
 46
0.0
 47
0.0
 48
0.0
 49
0.0
140
0.0
141
0.0
142
1.0
143
1.0
 70
   688
 72
     0
 73
     0
 74
     5
  7

 75
    16
147
1.0
148
0.0
149
0.0
100
AcDbLayout
  1
Layout1
 70
     1
 71
     1
 10
0.0
 20
0.0
 11
420.0
 21
297.0
 12
0.0
 22
0.0
 32
0.0
 14
1.0000000000E+20
 24
1.0000000000E+20
 34
1.0000000000E+20
 15
-1.0000000000E+20
 25
-1.0000000000E+20
 35
-1.0000000000E+20
146
0.0
 13
0.0
 23
0.0
 33
0.0
 16
1.0
 26
0.0
 36
0.0
 17
0.0
 27
1.0
 37
0.0
 76
     0
330
1B
  0
LAYOUT
  5
26
102
{ACAD_REACTORS
330
1A
102
}
330
1A
100
AcDbPlotSettings
  1

  2
none_device
  4

  6

 40
0.0
 41
0.0
 42
0.0
 43
0.0
 44
0.0
 45
0.0
 46
0.0
 47
0.0
 48
0.0
 49
0.0
140
0.0
141
0.0
142
1.0
143
1.0
 70
   688
 72
     0
 73
     0
 74
     5
  7

 75
    16
147
1.0
148
0.0
149
0.0
100
AcDbLayout
  1
Layout2
 70
     1
 71
     2
 10
0.0
 20
0.0
 11
0.0
 21
0.0
 12
0.0
 22
0.0
 32
0.0
 14
0.0
 24
0.0
 34
0.0
 15
0.0
 25
0.0
 35
0.0
146
0.0
 13
0.0
 23
0.0
 33
0.0
 16
1.0
 26
0.0
 36
0.0
 17
0.0
 27
1.0
 37
0.0
 76
     0
330
23
  0
LAYOUT
  5
22
102
{ACAD_REACTORS
330
1A
102
}
330
1A
100
AcDbPlotSettings
  1

  2
none_device
  4

  6

 40
0.0
 41
0.0
 42
0.0
 43
0.0
 44
0.0
 45
0.0
 46
0.0
 47
0.0
 48
0.0
 49
0.0
140
0.0
141
0.0
142
1.0
143
1.0
 70
  1712
 72
     0
 73
     0
 74
     0
  7

 75
     0
147
1.0
148
0.0
149
0.0
100
AcDbLayout
  1
Model
 70
     1
 71
     0
 10
0.0
 20
0.0
 11
297.0
 21
210.0
 12
0.0
 22
0.0
 32
0.0
 14
0.0
 24
0.0
 34
0.0
 15
297.0
 25
210.0
 35
0.0
146
0.0
 13
0.0
 23
0.0
 33
0.0
 16
1.0
 26
0.0
 36
0.0
 17
0.0
 27
1.0
 37
0.0
 76
     0
330
1F
331
29
  0
MLINESTYLE
  5
18
102
{ACAD_REACTORS
330
17
102
}
330
17
100
AcDbMlineStyle
  2
Standard
 70
     0
  3

 62
   256
 51
90.0
 52
90.0
 71
     2
 49
0.5
 62
   256
  6
BYLAYER
 49
-0.5
 62
   256
  6
BYLAYER
  0
ACDBPLACEHOLDER
  5
F
102
{ACAD_REACTORS
330
E
102
}
330
E
  0
VISUALSTYLE
  5
2F
102
{ACAD_REACTORS
330
2A
102
}
330
2A
100
AcDbVisualStyle
  2
2dWireframe
 70
     4
 71
     0
 72
     2
 73
     0
 90
        0
 40
-0.6
 41
-30.0
 62
     5
 63
     7
 74
     1
 91
        4
 64
     7
 65
   257
 75
     1
175
     1
 42
1.0
 92
        0
 66
   257
 43
1.0
 76
     1
 77
     6
 78
     2
 67
     7
 79
     5
170
     0
171
     0
290
     0
174
     0
 93
        1
 44
0.0
173
     0
291
     0
 45
0.0
1001
ACAD
1000
AcDbSavedByObjectVersion
1070
     0
  0
VISUALSTYLE
  5
31
102
{ACAD_REACTORS
330
2A
102
}
330
2A
100
AcDbVisualStyle
  2
3D Hidden
 70
     6
 71
     1
 72
     2
 73
     2
 90
        0
 40
-0.6
 41
-30.0
 62
     5
 63
     7
 74
     2
 91
        2
 64
     7
 65
   257
 75
     2
175
     1
 42
40.0
 92
        0
 66
   257
 43
1.0
 76
     1
 77
     6
 78
     2
 67
     7
 79
     3
170
     0
171
     0
290
     0
174
     0
 93
        1
 44
0.0
173
     0
291
     0
 45
0.0
1001
ACAD
1000
AcDbSavedByObjectVersion
1070
     0
  0
VISUALSTYLE
  5
30
102
{ACAD_REACTORS
330
2A
102
}
330
2A
100
AcDbVisualStyle
  2
3dWireframe
 70
     5
 71
     0
 72
     2
 73
     0
 90
        0
 40
-0.6
 41
-30.0
 62
     5
 63
     7
 74
     1
 91
        4
 64
     7
 65
   257
 75
     1
175
     1
 42
1.0
 92
        0
 66
   257
 43
1.0
 76
     1
 77
     6
 78
     2
 67
     7
 79
     5
170
     0
171
     0
290
     0
174
     0
 93
        1
 44
0.0
173
     0
291
     0
 45
0.0
1001
ACAD
1000
AcDbSavedByObjectVersion
1070
     0
  0
VISUALSTYLE
  5
32
102
{ACAD_REACTORS
330
2A
102
}
330
2A
100
AcDbVisualStyle
  2
Basic
 70
     7
 71
     1
 72
     0
 73
     1
 90
        0
 40
-0.6
 41
-30.0
 62
     5
 63
     7
 74
     0
 91
        4
 64
     7
 65
   257
 75
     1
175
     1
 42
1.0
 92
        8
 66
     7
 43
1.0
 76
     1
 77
     6
 78
     2
 67
     7
 79
     5
170
     0
171
     0
290
     0
174
     0
 93
        1
 44
0.0
173
     0
291
     1
 45
0.0
1001
ACAD
1000
AcDbSavedByObjectVersion
1070
     0
  0
VISUALSTYLE
  5
36
102
{ACAD_REACTORS
330
2A
102
}
330
2A
100
AcDbVisualStyle
  2
Brighten
 70
    12
 71
     2
 72
     2
 73
     0
 90
        0
 40
-0.6
 41
-30.0
 62
     5
 63
     7
 74
     1
 91
        4
 64
     7
 65
   257
 75
     1
175
     1
 42
1.0
 92
        8
 66
     7
 43
1.0
 76
     1
 77
     6
 78
     2
 67
     7
 79
     5
170
     0
171
     0
290
     0
174
     0
 93
        1
 44
50.0
173
     0
291
     1
 45
0.0
1001
ACAD
1000
AcDbSavedByObjectVersion
1070
     0
  0
VISUALSTYLE
  5
3A
102
{ACAD_REACTORS
330
2A
102
}
330
2A
100
AcDbVisualStyle
  2
ColorChange
 70
    16
 71
     2
 72
     2
 73
     3
 90
        0
 40
-0.6
 41
-30.0
 62
     5
 63
     8
 74
     1
 91
        4
 64
     7
 65
   257
 75
     1
175
     1
 42
1.0
 92
        8
 66
     8
 43
1.0
 76
     1
 77
     6
 78
     2
 67
     7
 79
     5
170
     0
171
     0
290
     0
174
     0
 93
        1
 44
0.0
173
     0
291
     1
 45
0.0
1001
ACAD
1000
AcDbSavedByObjectVersion
1070
     0
  0
VISUALSTYLE
  5
34
102
{ACAD_REACTORS
330
2A
102
}
330
2A
100
AcDbVisualStyle
  2
Conceptual
 70
     9
 71
     3
 72
     2
 73
     0
 90
        0
 40
-0.6
 41
-30.0
 62
     5
 63
     7
 74
     2
 91
        2
 64
     7
 65
   257
 75
     1
175
     1
 42
40.0
 92
        8
 66
     7
 43
1.0
 76
     1
 77
     6
 78
     2
 67
     7
 79
     3
170
     0
171
     0
290
     0
174
     0
 93
        1
 44
0.0
173
     0
291
     0
 45
0.0
1001
ACAD
1000
AcDbSavedByObjectVersion
1070
     0
  0
VISUALSTYLE
  5
35
102
{ACAD_REACTORS
330
2A
102
}
330
2A
100
AcDbVisualStyle
  2
Dim
 70
    11
 71
     2
 72
     2
 73
     0
 90
        0
 40
-0.6
 41
-30.0
 62
     5
 63
     7
 74
     1
 91
        4
 64
     7
 65
   257
 75
     1
175
     1
 42
1.0
 92
        8
 66
     7
 43
1.0
 76
     1
 77
     6
 78
     2
 67
     7
 79
     5
170
     0
171
     0
290
     0
174
     0
 93
        1
 44
-50.0
173
     0
291
     1
 45
0.0
1001
ACAD
1000
AcDbSavedByObjectVersion
1070
     0
  0
VISUALSTYLE
  5
39
102
{ACAD_REACTORS
330
2A
102
}
330
2A
100
AcDbVisualStyle
  2
Facepattern
 70
    15
 71
     2
 72
     2
 73
     0
 90
        0
 40
-0.6
 41
-30.0
 62
     5
 63
     7
 74
     1
 91
        4
 64
     7
 65
   257
 75
     1
175
     1
 42
1.0
 92
        8
 66
     7
 43
1.0
 76
     1
 77
     6
 78
     2
 67
     7
 79
     5
170
     0
171
     0
290
     0
174
     0
 93
        1
 44
0.0
173
     0
291
     1
 45
0.0
1001
ACAD
1000
AcDbSavedByObjectVersion
1070
     0
  0
VISUALSTYLE
  5
2B
102
{ACAD_REACTORS
330
2A
102
}
330
2A
100
AcDbVisualStyle
  2
Flat
 70
     0
 71
     2
 72
     1
 73
     1
 90
        2
 40
-0.6
 41
30.0
 62
     5
 63
     7
 74
     0
 91
        4
 64
     7
 65
   257
 75
     1
175
     1
 42
1.0
 92
        8
 66
     7
 43
1.0
 76
     1
 77
     6
 78
     2
 67
     7
 79
     5
170
     0
171
     0
290
     0
174
     0
 93
       13
 44
0.0
173
     0
291
     1
 45
0.0
1001
ACAD
1000
AcDbSavedByObjectVersion
1070
     0
  0
VISUALSTYLE
  5
2C
102
{ACAD_REACTORS
330
2A
102
}
330
2A
100
AcDbVisualStyle
  2
FlatWithEdges
 70
     1
 71
     2
 72
     1
 73
     1
 90
        2
 40
-0.6
 41
30.0
 62
     5
 63
     7
 74
     1
 91
        4
 64
     7
 65
   257
 75
     1
175
     1
 42
1.0
 92
        0
 66
   257
 43
1.0
 76
     1
 77
     6
 78
     2
 67
     7
 79
     5
170
     0
171
     0
290
     0
174
     0
 93
       13
 44
0.0
173
     0
291
     1
 45
0.0
1001
ACAD
1000
AcDbSavedByObjectVersion
1070
     0
  0
VISUALSTYLE
  5
2D
102
{ACAD_REACTORS
330
2A
102
}
330
2A
100
AcDbVisualStyle
  2
Gouraud
 70
     2
 71
     2
 72
     2
 73
     1
 90
        2
 40
-0.6
 41
30.0
 62
     5
 63
     7
 74
     0
 91
        4
 64
     7
 65
   257
 75
     1
175
     1
 42
1.0
 92
        0
 66
     7
 43
1.0
 76
     1
 77
     6
 78
     2
 67
     7
 79
     5
170
     0
171
     0
290
     0
174
     0
 93
       13
 44
0.0
173
     0
291
     1
 45
0.0
1001
ACAD
1000
AcDbSavedByObjectVersion
1070
     0
  0
VISUALSTYLE
  5
2E
102
{ACAD_REACTORS
330
2A
102
}
330
2A
100
AcDbVisualStyle
  2
GouraudWithEdges
 70
     3
 71
     2
 72
     2
 73
     1
 90
        2
 40
-0.6
 41
30.0
 62
     5
 63
     7
 74
     1
 91
        4
 64
     7
 65
   257
 75
     1
175
     1
 42
1.0
 92
        0
 66
   257
 43
1.0
 76
     1
 77
     6
 78
     2
 67
     7
 79
     5
170
     0
171
     0
290
     0
174
     0
 93
       13
 44
0.0
173
     0
291
     1
 45
0.0
1001
ACAD
1000
AcDbSavedByObjectVersion
1070
     0
  0
VISUALSTYLE
  5
38
102
{ACAD_REACTORS
330
2A
102
}
330
2A
100
AcDbVisualStyle
  2
Linepattern
 70
    14
 71
     2
 72
     2
 73
     0
 90
        0
 40
-0.6
 41
-30.0
 62
     5
 63
     7
 74
     1
 91
        4
 64
     7
 65
   257
 75
     7
175
     7
 42
1.0
 92
        8
 66
     7
 43
1.0
 76
     1
 77
     6
 78
     2
 67
     7
 79
     5
170
     0
171
     0
290
     0
174
     0
 93
        1
 44
0.0
173
     0
291
     1
 45
0.0
1001
ACAD
1000
AcDbSavedByObjectVersion
1070
     0
  0
VISUALSTYLE
  5
33
102
{ACAD_REACTORS
330
2A
102
}
330
2A
100
AcDbVisualStyle
  2
Realistic
 70
     8
 71
     2
 72
     2
 73
     0
 90
        0
 40
-0.6
 41
-30.0
 62
     5
 63
     7
 74
     1
 91
        0
 64
     7
 65
   257
 75
     1
175
     1
 42
1.0
 92
        8
 66
     8
 43
1.0
 76
     1
 77
     6
 78
     2
 67
     7
 79
     5
170
     0
171
     0
290
     0
174
     0
 93
       13
 44
0.0
173
     0
291
     0
 45
0.0
1001
ACAD
1000
AcDbSavedByObjectVersion
1070
     0
  0
VISUALSTYLE
  5
37
102
{ACAD_REACTORS
330
2A
102
}
330
2A
100
AcDbVisualStyle
  2
Thicken
 70
    13
 71
     2
 72
     2
 73
     0
 90
        0
 40
-0.6
 41
-30.0
 62
     5
 63
     7
 74
     1
 91
        4
 64
     7
 65
   257
 75
     1
175
     1
 42
1.0
 92
       12
 66
     7
 43
1.0
 76
     1
 77
     6
 78
     2
 67
     7
 79
     5
170
     0
171
     0
290
     0
174
     0
 93
        1
 44
0.0
173
     0
291
     1
 45
0.0
1001
ACAD
1000
AcDbSavedByObjectVersion
1070
     0
  0
DICTIONARYVAR
  5
23C
102
{ACAD_REACTORS
330
23A
102
}
330
23A
100
DictionaryVariables
280
     0
  1
80.000000
  0
DICTIONARYVAR
  5
23B
102
{ACAD_REACTORS
330
23A
102
}
330
23A
100
DictionaryVariables
280
     0
  1
5.000000
  0
ENDSEC
  0
EOF
