  0
SECTION
  2
HEADER
  9
$ACADVER
  1
AC1015
  9
$ACADMAINTVER
 70
     6
  9
$DWGCODEPAGE
  3
ANSI_1252
  9
$INSBASE
 10
0.0
 20
0.0
 30
0.0
  9
$EXTMIN
 10
0.0
 20
0.0
 30
0.0
  9
$EXTMAX
 10
297.0
 20
210.0
 30
0.0
  9
$LIMMIN
 10
0.0
 20
0.0
  9
$LIMMAX
 10
297.0
 20
210.0
  9
$ORTHOMODE
 70
     0
  9
$REGENMODE
 70
     1
  9
$FILLMODE
 70
     1
  9
$QTEXTMODE
 70
     0
  9
$MIRRTEXT
 70
     1
  9
$LTSCALE
 40
1.0
  9
$ATTMODE
 70
     1
  9
$TEXTSIZE
 40
2.0
  9
$TRACEWID
 40
1.0
  9
$TEXTSTYLE
  7
Standard
  9
$CLAYER
  8
0
  9
$CELTYPE
  6
ByLayer
  9
$CECOLOR
 62
   256
  9
$CELTSCALE
 40
1.0
  9
$DISPSILH
 70
     0
  9
$DIMSCALE
 40
1.0
  9
$DIMASZ
 40
3.0
  9
$DIMEXO
 40
0.0
  9
$DIMDLI
 40
3.75
  9
$DIMRND
 40
0.0
  9
$DIMDLE
 40
0.0
  9
$DIMEXE
 40
1.0
  9
$DIMTP
 40
0.0
  9
$DIMTM
 40
0.0
  9
$DIMTXT
 40
2.0
  9
$DIMCEN
 40
2.5
  9
$DIMTSZ
 40
0.0
  9
$DIMTOL
 70
     0
  9
$DIMLIM
 70
     0
  9
$DIMTIH
 70
     1
  9
$DIMTOH
 70
     1
  9
$DIMSE1
 70
     0
  9
$DIMSE2
 70
     0
  9
$DIMTAD
 70
     1
  9
$DIMZIN
 70
     0
  9
$DIMBLK
  1

  9
$DIMASO
 70
     1
  9
$DIMSHO
 70
     1
  9
$DIMPOST
  1

  9
$DIMAPOST
  1

  9
$DIMALT
 70
     0
  9
$DIMALTD
 70
     3
  9
$DIMALTF
 40
0.0393700787
  9
$DIMLFAC
 40
1.0
  9
$DIMTOFL
 70
     1
  9
$DIMTVP
 40
0.0
  9
$DIMTIX
 70
     0
  9
$DIMSOXD
 70
     0
  9
$DIMSAH
 70
     0
  9
$DIMBLK1
  1

  9
$DIMBLK2
  1

  9
$DIMSTYLE
  2
ISO-25
  9
$DIMCLRD
 70
     0
  9
$DIMCLRE
 70
     0
  9
$DIMCLRT
 70
     0
  9
$DIMTFAC
 40
1.0
  9
$DIMGAP
 40
1.524
  9
$DIMJUST
 70
     0
  9
$DIMSD1
 70
     0
  9
$DIMSD2
 70
     0
  9
$DIMTOLJ
 70
     0
  9
$DIMTZIN
 70
     0
  9
$DIMALTZ
 70
     0
  9
$DIMALTTZ
 70
     0
  9
$DIMUPT
 70
     0
  9
$DIMDEC
 70
     2
  9
$DIMTDEC
 70
     3
  9
$DIMALTU
 70
     2
  9
$DIMALTTD
 70
     3
  9
$DIMTXSTY
  7
Standard
  9
$DIMAUNIT
 70
     0
  9
$DIMADEC
 70
     2
  9
$DIMALTRND
 40
0.0
  9
$DIMAZIN
 70
     0
  9
$DIMDSEP
 70
    44
  9
$DIMATFIT
 70
     3
  9
$DIMFRAC
 70
     0
  9
$DIMLDRBLK
  1

  9
$DIMLUNIT
 70
     2
  9
$DIMLWD
 70
    -2
  9
$DIMLWE
 70
    -2
  9
$DIMTMOVE
 70
     0
  9
$LUNITS
 70
     2
  9
$LUPREC
 70
     2
  9
$SKETCHINC
 40
1.0
  9
$FILLETRAD
 40
10.0
  9
$AUNITS
 70
     0
  9
$AUPREC
 70
     2
  9
$MENU
  1
.
  9
$ELEVATION
 40
0.0
  9
$PELEVATION
 40
0.0
  9
$THICKNESS
 40
0.0
  9
$LIMCHECK
 70
     0
  9
$CHAMFERA
 40
10.0
  9
$CHAMFERB
 40
10.0
  9
$CHAMFERC
 40
20.0
  9
$CHAMFERD
 40
0.0
  9
$SKPOLY
 70
     0
  9
$TDCREATE
 40
2455679.379135995
  9
$TDUCREATE
 40
2455679.295802662
  9
$TDUPDATE
 40
2455679.379136007
  9
$TDUUPDATE
 40
2455679.295802674
  9
$TDINDWG
 40
0.0000000116
  9
$TDUSRTIMER
 40
0.0000000116
  9
$USRTIMER
 70
     1
  9
$ANGBASE
 50
0.0
  9
$ANGDIR
 70
     0
  9
$PDMODE
 70
     0
  9
$PDSIZE
 40
-1.0
  9
$PLINEWID
 40
0.0
  9
$SPLFRAME
 70
     0
  9
$SPLINETYPE
 70
     6
  9
$SPLINESEGS
 70
     8
  9
$HANDSEED
  5
1BB
  9
$SURFTAB1
 70
     6
  9
$SURFTAB2
 70
     6
  9
$SURFTYPE
 70
     6
  9
$SURFU
 70
     6
  9
$SURFV
 70
     6
  9
$UCSBASE
  2

  9
$UCSNAME
  2

  9
$UCSORG
 10
0.0
 20
0.0
 30
0.0
  9
$UCSXDIR
 10
1.0
 20
0.0
 30
0.0
  9
$UCSYDIR
 10
0.0
 20
1.0
 30
0.0
  9
$UCSORTHOREF
  2

  9
$UCSORTHOVIEW
 70
     0
  9
$UCSORGTOP
 10
0.0
 20
0.0
 30
0.0
  9
$UCSORGBOTTOM
 10
0.0
 20
0.0
 30
0.0
  9
$UCSORGLEFT
 10
0.0
 20
0.0
 30
0.0
  9
$UCSORGRIGHT
 10
0.0
 20
0.0
 30
0.0
  9
$UCSORGFRONT
 10
0.0
 20
0.0
 30
0.0
  9
$UCSORGBACK
 10
0.0
 20
0.0
 30
0.0
  9
$PUCSBASE
  2

  9
$PUCSNAME
  2

  9
$PUCSORG
 10
0.0
 20
0.0
 30
0.0
  9
$PUCSXDIR
 10
1.0
 20
0.0
 30
0.0
  9
$PUCSYDIR
 10
0.0
 20
1.0
 30
0.0
  9
$PUCSORTHOREF
  2

  9
$PUCSORTHOVIEW
 70
     0
  9
$PUCSORGTOP
 10
0.0
 20
0.0
 30
0.0
  9
$PUCSORGBOTTOM
 10
0.0
 20
0.0
 30
0.0
  9
$PUCSORGLEFT
 10
0.0
 20
0.0
 30
0.0
  9
$PUCSORGRIGHT
 10
0.0
 20
0.0
 30
0.0
  9
$PUCSORGFRONT
 10
0.0
 20
0.0
 30
0.0
  9
$PUCSORGBACK
 10
0.0
 20
0.0
 30
0.0
  9
$USERI1
 70
     0
  9
$USERI2
 70
     0
  9
$USERI3
 70
     0
  9
$USERI4
 70
     0
  9
$USERI5
 70
     0
  9
$USERR1
 40
0.0
  9
$USERR2
 40
0.0
  9
$USERR3
 40
0.0
  9
$USERR4
 40
0.0
  9
$USERR5
 40
0.0
  9
$WORLDVIEW
 70
     1
  9
$SHADEDGE
 70
     3
  9
$SHADEDIF
 70
    70
  9
$TILEMODE
 70
     1
  9
$MAXACTVP
 70
    64
  9
$PINSBASE
 10
0.0
 20
0.0
 30
0.0
  9
$PLIMCHECK
 70
     0
  9
$PEXTMIN
 10
1.0000000000E+20
 20
1.0000000000E+20
 30
1.0000000000E+20
  9
$PEXTMAX
 10
-1.0000000000E+20
 20
-1.0000000000E+20
 30
-1.0000000000E+20
  9
$PLIMMIN
 10
0.0
 20
0.0
  9
$PLIMMAX
 10
420.0
 20
297.0
  9
$UNITMODE
 70
     0
  9
$VISRETAIN
 70
     1
  9
$PLINEGEN
 70
     0
  9
$PSLTSCALE
 70
     1
  9
$TREEDEPTH
 70
  3020
  9
$CMLSTYLE
  2
Standard
  9
$CMLJUST
 70
     0
  9
$CMLSCALE
 40
20.0
  9
$PROXYGRAPHICS
 70
     1
  9
$MEASUREMENT
 70
     1
  9
$CELWEIGHT
370
    -1
  9
$ENDCAPS
280
     0
  9
$JOINSTYLE
280
     0
  9
$LWDISPLAY
290
     1
  9
$INSUNITS
 70
     4
  9
$HYPERLINKBASE
  1

  9
$STYLESHEET
  1

  9
$XEDIT
290
     1
  9
$CEPSNTYPE
380
     0
  9
$PSTYLEMODE
290
     1
  9
$FINGERPRINTGUID
  2
{5AB934BE-3EF1-4168-8CAD-F5B0F38B0AF7}
  9
$VERSIONGUID
  2
{FAEB1C32-E019-11D5-929B-00C0DF256EC4}
  9
$EXTNAMES
290
     1
  9
$PSVPSCALE
 40
0.0
  9
$OLESTARTUP
290
     0
  0
ENDSEC
  0
SECTION
  2
CLASSES
  0
CLASS
  1
ACDBDICTIONARYWDFLT
  2
AcDbDictionaryWithDefault
  3
ObjectDBX Classes
 90
        0
280
     0
281
     0
  0
CLASS
  1
VISUALSTYLE
  2
AcDbVisualStyle
  3
ObjectDBX Classes
 90
     4095
280
     0
281
     0
  0
CLASS
  1
DICTIONARYVAR
  2
AcDbDictionaryVar
  3
ObjectDBX Classes
 90
        0
280
     0
281
     0
  0
CLASS
  1
ACDBPLACEHOLDER
  2
AcDbPlaceHolder
  3
ObjectDBX Classes
 90
        0
280
     0
281
     0
  0
CLASS
  1
LAYOUT
  2
AcDbLayout
  3
ObjectDBX Classes
 90
        0
280
     0
281
     0
  0
ENDSEC
  0
SECTION
  2
TABLES
  0
TABLE
  2
VPORT
  5
8
330
0
100
AcDbSymbolTable
 70
     1
  0
VPORT
  5
29
330
8
100
AcDbSymbolTableRecord
100
AcDbViewportTableRecord
  2
*Active
 70
     0
 10
0.0
 20
0.0
 11
1.0
 21
1.0
 12
148.5
 22
105.0
 13
0.0
 23
0.0
 14
10.0
 24
10.0
 15
10.0
 25
10.0
 16
0.0
 26
0.0
 36
1.0
 17
0.0
 27
0.0
 37
0.0
 40
210.0
 41
1.4142857143
 42
50.0
 43
0.0
 44
0.0
 50
0.0
 51
0.0
 71
     0
 72
  2000
 73
     1
 74
     3
 75
     0
 76
     0
 77
     0
 78
     0
281
     0
 65
     1
110
0.0
120
0.0
130
0.0
111
1.0
121
0.0
131
0.0
112
0.0
122
1.0
132
0.0
 79
     0
146
0.0
  0
ENDTAB
  0
TABLE
  2
LTYPE
  5
5
330
0
100
AcDbSymbolTable
 70
     6
  0
LTYPE
  5
14
330
5
100
AcDbSymbolTableRecord
100
AcDbLinetypeTableRecord
  2
ByBlock
 70
     0
  3

 72
    65
 73
     0
 40
0.0
  0
LTYPE
  5
15
330
5
100
AcDbSymbolTableRecord
100
AcDbLinetypeTableRecord
  2
ByLayer
 70
     0
  3

 72
    65
 73
     0
 40
0.0
  0
LTYPE
  5
16
330
5
100
AcDbSymbolTableRecord
100
AcDbLinetypeTableRecord
  2
Continuous
 70
     0
  3
Solid line
 72
    65
 73
     0
 40
0.0
  0
LTYPE
  5
3B
330
5
100
AcDbSymbolTableRecord
100
AcDbLinetypeTableRecord
  2
HIDDEN
 70
     0
  3
Hidden __ __ __ __ __ __ __ __ __ __ __ __ __ __
 72
    65
 73
     2
 40
1.905
 49
1.27
 74
     0
 49
-0.635
 74
     0
  0
LTYPE
  5
3C
330
5
100
AcDbSymbolTableRecord
100
AcDbLinetypeTableRecord
  2
PHANTOM
 70
     0
  3
Phantom ______  __  __  ______  __  __  ______
 72
    65
 73
     6
 40
12.7
 49
6.35
 74
     0
 49
-1.27
 74
     0
 49
1.27
 74
     0
 49
-1.27
 74
     0
 49
1.27
 74
     0
 49
-1.27
 74
     0
  0
LTYPE
  5
3D
330
5
100
AcDbSymbolTableRecord
100
AcDbLinetypeTableRecord
  2
CENTER
 70
     0
  3
Center ____ _ ____ _ ____ _ ____ _ ____ _ ____
 72
    65
 73
     4
 40
10.16
 49
6.35
 74
     0
 49
-1.27
 74
     0
 49
1.27
 74
     0
 49
-1.27
 74
     0
  0
LTYPE
  5
3E
330
5
100
AcDbSymbolTableRecord
100
AcDbLinetypeTableRecord
  2
CENTERX2
 70
     0
  3
Center (2x) ________  __  ________  __  _____
 72
    65
 73
     4
 40
20.32
 49
12.7
 74
     0
 49
-2.54
 74
     0
 49
2.54
 74
     0
 49
-2.54
 74
     0
  0
LTYPE
  5
3F
330
5
100
AcDbSymbolTableRecord
100
AcDbLinetypeTableRecord
  2
DOT2
 70
     0
  3
Dot (.5x) ........................................
 72
    65
 73
     2
 40
0.635
 49
0.0
 74
     0
 49
-0.635
 74
     0
  0
ENDTAB
  0
TABLE
  2
LAYER
  5
2
330
0
100
AcDbSymbolTable
 70
     5
  0
LAYER
  5
10
330
2
100
AcDbSymbolTableRecord
100
AcDbLayerTableRecord
  2
0
 70
     0
 62
     7
  6
Continuous
370
    -3
390
F
  0
LAYER
  5
40
330
2
100
AcDbSymbolTableRecord
100
AcDbLayerTableRecord
  2
FORMAT
 70
     0
 62
     7
  6
Continuous
370
    -3
390
F
  0
LAYER
  5
41
330
2
100
AcDbSymbolTableRecord
100
AcDbLayerTableRecord
  2
VERMASSUNG
 70
     0
 62
     7
  6
Continuous
370
    -3
390
F
  0
LAYER
  5
42
330
2
100
AcDbSymbolTableRecord
100
AcDbLayerTableRecord
  2
KOPF_DÜNN
 70
     0
 62
     7
  6
Continuous
370
    -3
390
F
  0
LAYER
  5
43
330
2
100
AcDbSymbolTableRecord
100
AcDbLayerTableRecord
  2
KOPF_DICK
 70
     0
 62
     7
  6
Continuous
370
    15
390
F
  0
ENDTAB
  0
TABLE
  2
STYLE
  5
3
330
0
100
AcDbSymbolTable
 70
     3
  0
STYLE
  5
11
330
3
100
AcDbSymbolTableRecord
100
AcDbTextStyleTableRecord
  2
Standard
 70
     0
 40
0.0
 41
1.0
 50
0.0
 71
     0
 42
2.5
  3
txt
  4

  0
STYLE
  5
44
330
3
100
AcDbSymbolTableRecord
100
AcDbTextStyleTableRecord
  2
SLDTEXTSTYLE0
 70
     0
 40
0.0
 41
0.7
 50
0.0
 71
     0
 42
0.2
  3
TXT
  4

  0
STYLE
  5
48
330
3
100
AcDbSymbolTableRecord
100
AcDbTextStyleTableRecord
  2
SLDTEXTSTYLE1
 70
     0
 40
0.0
 41
0.6473684211
 50
0.0
 71
     0
 42
0.2
  3
TXT
  4

  0
ENDTAB
  0
TABLE
  2
VIEW
  5
6
330
0
100
AcDbSymbolTable
 70
     0
  0
ENDTAB
  0
TABLE
  2
UCS
  5
7
330
0
100
AcDbSymbolTable
 70
     0
  0
ENDTAB
  0
TABLE
  2
APPID
  5
9
330
0
100
AcDbSymbolTable
 70
     1
  0
APPID
  5
12
330
9
100
AcDbSymbolTableRecord
100
AcDbRegAppTableRecord
  2
ACAD
 70
     0
  0
ENDTAB
  0
TABLE
  2
DIMSTYLE
  5
A
330
0
100
AcDbSymbolTable
 70
     5
100
AcDbDimStyleTable
  0
DIMSTYLE
105
27
330
A
100
AcDbSymbolTableRecord
100
AcDbDimStyleTableRecord
  2
ISO-25
 70
     0
 41
2.5
 42
0.625
 43
3.75
 44
1.25
 73
     0
 74
     0
 77
     1
 78
     8
140
2.5
141
2.5
143
0.0393700787
147
0.625
171
     3
172
     1
271
     2
272
     2
274
     3
278
    44
283
     0
284
     8
340
11
  0
DIMSTYLE
105
15C
102
{ACAD_REACTORS
330
15B
102
}
330
A
100
AcDbSymbolTableRecord
100
AcDbDimStyleTableRecord
  2
SLDDIMSTYLE0
 70
     0
 41
3.0
 44
0.0
 45
0.000000001
 73
     0
 74
     0
 77
     1
 78
    12
140
2.0
147
0.5
173
     1
271
     2
272
     2
284
    12
340
44
  0
DIMSTYLE
105
167
102
{ACAD_REACTORS
330
166
102
}
330
A
100
AcDbSymbolTableRecord
100
AcDbDimStyleTableRecord
  2
SLDDIMSTYLE1
 70
     0
 41
3.0
 44
0.0
 45
0.000000001
 73
     0
 74
     0
 77
     1
 78
    12
140
2.0
147
0.5
173
     1
271
     2
272
     2
284
    12
340
44
  0
DIMSTYLE
105
173
102
{ACAD_REACTORS
330
172
330
17E
102
}
330
A
100
AcDbSymbolTableRecord
100
AcDbDimStyleTableRecord
  2
SLDDIMSTYLE2
 70
     0
 41
3.0
 44
0.0
 45
0.000000001
 73
     0
 74
     0
 77
     1
 78
    12
140
2.0
147
0.5
173
     1
271
     2
272
     3
284
    12
340
44
  0
DIMSTYLE
105
18A
102
{ACAD_REACTORS
330
189
330
194
330
19E
330
1A8
102
}
330
A
100
AcDbSymbolTableRecord
100
AcDbDimStyleTableRecord
  2
SLDDIMSTYLE3
 70
     0
 41
3.0
 44
0.0
 45
0.000000001
 73
     0
 74
     0
 77
     1
 78
    12
140
2.0
147
0.5
173
     1
271
     2
272
     3
284
    12
340
44
  0
ENDTAB
  0
TABLE
  2
BLOCK_RECORD
  5
1
330
0
100
AcDbSymbolTable
 70
     9
  0
BLOCK_RECORD
  5
1F
330
1
100
AcDbSymbolTableRecord
100
AcDbBlockTableRecord
  2
*Model_Space
340
22
  0
BLOCK_RECORD
  5
1B
330
1
100
AcDbSymbolTableRecord
100
AcDbBlockTableRecord
  2
*Paper_Space
340
1E
  0
BLOCK_RECORD
  5
23
330
1
100
AcDbSymbolTableRecord
100
AcDbBlockTableRecord
  2
*Paper_Space0
340
26
  0
BLOCK_RECORD
  5
15D
330
1
100
AcDbSymbolTableRecord
100
AcDbBlockTableRecord
  2
*D1
340
0
  0
BLOCK_RECORD
  5
168
330
1
100
AcDbSymbolTableRecord
100
AcDbBlockTableRecord
  2
*D2
340
0
  0
BLOCK_RECORD
  5
174
330
1
100
AcDbSymbolTableRecord
100
AcDbBlockTableRecord
  2
*D3
340
0
  0
BLOCK_RECORD
  5
17F
330
1
100
AcDbSymbolTableRecord
100
AcDbBlockTableRecord
  2
*D4
340
0
  0
BLOCK_RECORD
  5
18B
330
1
100
AcDbSymbolTableRecord
100
AcDbBlockTableRecord
  2
*D5
340
0
  0
BLOCK_RECORD
  5
195
330
1
100
AcDbSymbolTableRecord
100
AcDbBlockTableRecord
  2
*D6
340
0
  0
BLOCK_RECORD
  5
19F
330
1
100
AcDbSymbolTableRecord
100
AcDbBlockTableRecord
  2
*D7
340
0
  0
BLOCK_RECORD
  5
1A9
330
1
100
AcDbSymbolTableRecord
100
AcDbBlockTableRecord
  2
*D8
340
0
  0
ENDTAB
  0
ENDSEC
  0
SECTION
  2
BLOCKS
  0
BLOCK
  5
20
330
1F
100
AcDbEntity
  8
0
100
AcDbBlockBegin
  2
*Model_Space
 70
     0
 10
0.0
 20
0.0
 30
0.0
  3
*Model_Space
  1

  0
ENDBLK
  5
21
330
1F
100
AcDbEntity
  8
0
100
AcDbBlockEnd
  0
BLOCK
  5
1C
330
1B
100
AcDbEntity
 67
     1
  8
0
100
AcDbBlockBegin
  2
*Paper_Space
 70
     0
 10
0.0
 20
0.0
 30
0.0
  3
*Paper_Space
  1

  0
ENDBLK
  5
1D
330
1B
100
AcDbEntity
 67
     1
  8
0
100
AcDbBlockEnd
  0
BLOCK
  5
24
330
23
100
AcDbEntity
  8
0
100
AcDbBlockBegin
  2
*Paper_Space0
 70
     0
 10
0.0
 20
0.0
 30
0.0
  3
*Paper_Space0
  1

  0
ENDBLK
  5
25
330
23
100
AcDbEntity
  8
0
100
AcDbBlockEnd
  0
BLOCK
  5
15E
330
15D
100
AcDbEntity
  8
0
100
AcDbBlockBegin
  2
*D1
 70
     1
 10
0.0
 20
0.0
 30
0.0
  3
*D1
  1

  0
SOLID
  5
160
330
15D
100
AcDbEntity
  8
VERMASSUNG
100
AcDbTrace
 10
162.1561922438
 20
142.3354112903
 30
0.0
 11
165.1561922438
 21
141.8854112903
 31
0.0
 12
165.1561922438
 22
142.7854112903
 32
0.0
 13
165.1561922438
 23
142.7854112903
 33
0.0
  0
SOLID
  5
161
330
15D
100
AcDbEntity
  8
VERMASSUNG
100
AcDbTrace
 10
211.6561922438
 20
142.3354112903
 30
0.0
 11
208.6561922438
 21
142.7854112903
 31
0.0
 12
208.6561922438
 22
141.8854112903
 32
0.0
 13
208.6561922438
 23
141.8854112903
 33
0.0
  0
LINE
  5
162
330
15D
100
AcDbEntity
  8
VERMASSUNG
100
AcDbLine
 10
162.1561922438
 20
117.6639758065
 30
0.0
 11
162.1561922438
 21
143.3354112903
 31
0.0
  0
LINE
  5
163
330
15D
100
AcDbEntity
  8
VERMASSUNG
100
AcDbLine
 10
211.6561922438
 20
121.4151948231
 30
0.0
 11
211.6561922438
 21
143.3354112903
 31
0.0
  0
LINE
  5
164
330
15D
100
AcDbEntity
  8
VERMASSUNG
100
AcDbLine
 10
162.1561922438
 20
142.3354112903
 30
0.0
 11
211.6561922438
 21
142.3354112903
 31
0.0
  0
MTEXT
  5
165
330
15D
100
AcDbEntity
  8
VERMASSUNG
100
AcDbMText
 10
184.4068054615
 20
144.9135466535
 30
0.0
 40
2.0
 41
0.0
 71
     1
 72
     1
  1
49.5
  7
SLDTEXTSTYLE0
 73
     1
 44
1.0
  0
ENDBLK
  5
15F
330
15D
100
AcDbEntity
  8
0
100
AcDbBlockEnd
  0
BLOCK
  5
169
330
168
100
AcDbEntity
  8
0
100
AcDbBlockBegin
  2
*D2
 70
     1
 10
0.0
 20
0.0
 30
0.0
  3
*D2
  1

  0
SOLID
  5
16B
330
168
100
AcDbEntity
  8
VERMASSUNG
100
AcDbTrace
 10
221.6561922438
 20
101.7639758065
 30
0.0
 11
222.1061922438
 21
104.7639758065
 31
0.0
 12
221.2061922438
 22
104.7639758065
 32
0.0
 13
221.2061922438
 23
104.7639758065
 33
0.0
  0
SOLID
  5
16C
330
168
100
AcDbEntity
  8
VERMASSUNG
100
AcDbTrace
 10
221.6561922438
 20
117.7639758065
 30
0.0
 11
221.2061922438
 21
114.7639758065
 31
0.0
 12
222.1061922438
 22
114.7639758065
 32
0.0
 13
222.1061922438
 23
114.7639758065
 33
0.0
  0
LINE
  5
16D
330
168
100
AcDbEntity
  8
VERMASSUNG
100
AcDbLine
 10
208.1561922438
 20
101.7639758065
 30
0.0
 11
222.6561922438
 21
101.7639758065
 31
0.0
  0
LINE
  5
16E
330
168
100
AcDbEntity
  8
VERMASSUNG
100
AcDbLine
 10
208.1561922438
 20
117.7639758065
 30
0.0
 11
222.6561922438
 21
117.7639758065
 31
0.0
  0
LINE
  5
16F
330
168
100
AcDbEntity
  8
VERMASSUNG
100
AcDbLine
 10
221.6561922438
 20
101.7639758065
 30
0.0
 11
221.6561922438
 21
117.7639758065
 31
0.0
  0
MTEXT
  5
170
330
168
100
AcDbEntity
  8
VERMASSUNG
100
AcDbMText
 10
219.0780567642
 20
106.7598382117
 30
0.0
 40
2.0
 41
0.0
 71
     1
 72
     1
  1
%%c
  7
SLDTEXTSTYLE0
 11
6.123233995736766E-17
 21
1.0
 31
0.0
 73
     1
 44
1.0
  0
MTEXT
  5
171
330
168
100
AcDbEntity
  8
VERMASSUNG
100
AcDbMText
 10
219.0780568806
 20
110.3685164348
 30
0.0
 40
2.0
 41
0.0
 71
     1
 72
     1
  1
16
  7
SLDTEXTSTYLE0
 11
6.123233995736766E-17
 21
1.0
 31
0.0
 73
     1
 44
1.0
  0
ENDBLK
  5
16A
330
168
100
AcDbEntity
  8
0
100
AcDbBlockEnd
  0
BLOCK
  5
175
330
174
100
AcDbEntity
  8
0
100
AcDbBlockBegin
  2
*D3
 70
     1
 10
0.0
 20
0.0
 30
0.0
  3
*D3
  1

  0
SOLID
  5
177
330
174
100
AcDbEntity
  8
VERMASSUNG
100
AcDbTrace
 10
227.6561922438
 20
96.2639758065
 30
0.0
 11
228.1061922438
 21
99.2639758065
 31
0.0
 12
227.2061922438
 22
99.2639758065
 32
0.0
 13
227.2061922438
 23
99.2639758065
 33
0.0
  0
SOLID
  5
178
330
174
100
AcDbEntity
  8
VERMASSUNG
100
AcDbTrace
 10
227.6561922438
 20
123.2639758065
 30
0.0
 11
227.2061922438
 21
120.2639758065
 31
0.0
 12
228.1061922438
 22
120.2639758065
 32
0.0
 13
228.1061922438
 23
120.2639758065
 33
0.0
  0
LINE
  5
179
330
174
100
AcDbEntity
  8
VERMASSUNG
100
AcDbLine
 10
211.6561922438
 20
96.2639758065
 30
0.0
 11
228.6561922438
 21
96.2639758065
 31
0.0
  0
LINE
  5
17A
330
174
100
AcDbEntity
  8
VERMASSUNG
100
AcDbLine
 10
211.6561922438
 20
123.2639758065
 30
0.0
 11
228.6561922438
 21
123.2639758065
 31
0.0
  0
LINE
  5
17B
330
174
100
AcDbEntity
  8
VERMASSUNG
100
AcDbLine
 10
227.6561922438
 20
96.2639758065
 30
0.0
 11
227.6561922438
 21
123.2639758065
 31
0.0
  0
MTEXT
  5
17C
330
174
100
AcDbEntity
  8
VERMASSUNG
100
AcDbMText
 10
225.0780567642
 20
106.56025858
 30
0.0
 40
2.0
 41
0.0
 71
     1
 72
     1
  1
%%c
  7
SLDTEXTSTYLE0
 11
6.123233995736766E-17
 21
1.0
 31
0.0
 73
     1
 44
1.0
  0
MTEXT
  5
17D
330
174
100
AcDbEntity
  8
VERMASSUNG
100
AcDbMText
 10
225.0780568806
 20
110.1689368032
 30
0.0
 40
2.0
 41
0.0
 71
     1
 72
     1
  1
27
  7
SLDTEXTSTYLE0
 11
6.123233995736766E-17
 21
1.0
 31
0.0
 73
     1
 44
1.0
  0
ENDBLK
  5
176
330
174
100
AcDbEntity
  8
0
100
AcDbBlockEnd
  0
BLOCK
  5
180
330
17F
100
AcDbEntity
  8
0
100
AcDbBlockBegin
  2
*D4
 70
     1
 10
0.0
 20
0.0
 30
0.0
  3
*D4
  1

  0
SOLID
  5
182
330
17F
100
AcDbEntity
  8
VERMASSUNG
100
AcDbTrace
 10
233.6561922438
 20
92.7639758065
 30
0.0
 11
234.1061922438
 21
95.7639758065
 31
0.0
 12
233.2061922438
 22
95.7639758065
 32
0.0
 13
233.2061922438
 23
95.7639758065
 33
0.0
  0
SOLID
  5
183
330
17F
100
AcDbEntity
  8
VERMASSUNG
100
AcDbTrace
 10
233.6561922438
 20
126.7639758065
 30
0.0
 11
233.2061922438
 21
123.7639758065
 31
0.0
 12
234.1061922438
 22
123.7639758065
 32
0.0
 13
234.1061922438
 23
123.7639758065
 33
0.0
  0
LINE
  5
184
330
17F
100
AcDbEntity
  8
VERMASSUNG
100
AcDbLine
 10
145.6061922438
 20
92.7639758065
 30
0.0
 11
234.6561922438
 21
92.7639758065
 31
0.0
  0
LINE
  5
185
330
17F
100
AcDbEntity
  8
VERMASSUNG
100
AcDbLine
 10
145.6061922438
 20
126.7639758065
 30
0.0
 11
234.6561922438
 21
126.7639758065
 31
0.0
  0
LINE
  5
186
330
17F
100
AcDbEntity
  8
VERMASSUNG
100
AcDbLine
 10
233.6561922438
 20
92.7639758065
 30
0.0
 11
233.6561922438
 21
126.7639758065
 31
0.0
  0
MTEXT
  5
187
330
17F
100
AcDbEntity
  8
VERMASSUNG
100
AcDbMText
 10
231.0780567642
 20
106.4604687642
 30
0.0
 40
2.0
 41
0.0
 71
     1
 72
     1
  1
%%c
  7
SLDTEXTSTYLE0
 11
6.123233995736766E-17
 21
1.0
 31
0.0
 73
     1
 44
1.0
  0
MTEXT
  5
188
330
17F
100
AcDbEntity
  8
VERMASSUNG
100
AcDbMText
 10
231.0780568806
 20
110.0691469874
 30
0.0
 40
2.0
 41
0.0
 71
     1
 72
     1
  1
34
  7
SLDTEXTSTYLE0
 11
6.123233995736766E-17
 21
1.0
 31
0.0
 73
     1
 44
1.0
  0
ENDBLK
  5
181
330
17F
100
AcDbEntity
  8
0
100
AcDbBlockEnd
  0
BLOCK
  5
18C
330
18B
100
AcDbEntity
  8
0
100
AcDbBlockBegin
  2
*D5
 70
     1
 10
0.0
 20
0.0
 30
0.0
  3
*D5
  1

  0
SOLID
  5
18E
330
18B
100
AcDbEntity
  8
VERMASSUNG
100
AcDbTrace
 10
116.6561922438
 20
154.3354112903
 30
0.0
 11
119.6561922438
 21
153.8854112903
 31
0.0
 12
119.6561922438
 22
154.7854112903
 32
0.0
 13
119.6561922438
 23
154.7854112903
 33
0.0
  0
SOLID
  5
18F
330
18B
100
AcDbEntity
  8
VERMASSUNG
100
AcDbTrace
 10
211.6561922438
 20
154.3354112903
 30
0.0
 11
208.6561922438
 21
154.7854112903
 31
0.0
 12
208.6561922438
 22
153.8854112903
 32
0.0
 13
208.6561922438
 23
153.8854112903
 33
0.0
  0
LINE
  5
190
330
18B
100
AcDbEntity
  8
VERMASSUNG
100
AcDbLine
 10
116.6561922438
 20
140.9639758065
 30
0.0
 11
116.6561922438
 21
155.3354112903
 31
0.0
  0
LINE
  5
191
330
18B
100
AcDbEntity
  8
VERMASSUNG
100
AcDbLine
 10
211.6561922438
 20
121.4151948231
 30
0.0
 11
211.6561922438
 21
155.3354112903
 31
0.0
  0
LINE
  5
192
330
18B
100
AcDbEntity
  8
VERMASSUNG
100
AcDbLine
 10
116.6561922438
 20
154.3354112903
 30
0.0
 11
211.6561922438
 21
154.3354112903
 31
0.0
  0
MTEXT
  5
193
330
18B
100
AcDbEntity
  8
VERMASSUNG
100
AcDbMText
 10
162.7568141289
 20
156.9135466535
 30
0.0
 40
2.0
 41
0.0
 71
     1
 72
     1
  1
95
  7
SLDTEXTSTYLE0
 73
     1
 44
1.0
  0
ENDBLK
  5
18D
330
18B
100
AcDbEntity
  8
0
100
AcDbBlockEnd
  0
BLOCK
  5
196
330
195
100
AcDbEntity
  8
0
100
AcDbBlockBegin
  2
*D6
 70
     1
 10
0.0
 20
0.0
 30
0.0
  3
*D6
  1

  0
SOLID
  5
198
330
195
100
AcDbEntity
  8
VERMASSUNG
100
AcDbTrace
 10
142.6061922438
 20
148.3354112903
 30
0.0
 11
145.6061922438
 21
147.8854112903
 31
0.0
 12
145.6061922438
 22
148.7854112903
 32
0.0
 13
145.6061922438
 23
148.7854112903
 33
0.0
  0
SOLID
  5
199
330
195
100
AcDbEntity
  8
VERMASSUNG
100
AcDbTrace
 10
211.6561922438
 20
148.3354112903
 30
0.0
 11
208.6561922438
 21
148.7854112903
 31
0.0
 12
208.6561922438
 22
147.8854112903
 32
0.0
 13
208.6561922438
 23
147.8854112903
 33
0.0
  0
LINE
  5
19A
330
195
100
AcDbEntity
  8
VERMASSUNG
100
AcDbLine
 10
142.6061922438
 20
139.6104161302
 30
0.0
 11
142.6061922438
 21
149.3354112903
 31
0.0
  0
LINE
  5
19B
330
195
100
AcDbEntity
  8
VERMASSUNG
100
AcDbLine
 10
211.6561922438
 20
121.4151948231
 30
0.0
 11
211.6561922438
 21
149.3354112903
 31
0.0
  0
LINE
  5
19C
330
195
100
AcDbEntity
  8
VERMASSUNG
100
AcDbLine
 10
142.6061922438
 20
148.3354112903
 30
0.0
 11
211.6561922438
 21
148.3354112903
 31
0.0
  0
MTEXT
  5
19D
330
195
100
AcDbEntity
  8
VERMASSUNG
100
AcDbMText
 10
174.0319062199
 20
150.9135466535
 30
0.0
 40
2.0
 41
0.0
 71
     1
 72
     1
  1
69.05
  7
SLDTEXTSTYLE0
 73
     1
 44
1.0
  0
ENDBLK
  5
197
330
195
100
AcDbEntity
  8
0
100
AcDbBlockEnd
  0
BLOCK
  5
1A0
330
19F
100
AcDbEntity
  8
0
100
AcDbBlockBegin
  2
*D7
 70
     1
 10
0.0
 20
0.0
 30
0.0
  3
*D7
  1

  0
SOLID
  5
1A2
330
19F
100
AcDbEntity
  8
VERMASSUNG
100
AcDbTrace
 10
84.7561922438
 20
160.3354112903
 30
0.0
 11
87.7561922438
 21
159.8854112903
 31
0.0
 12
87.7561922438
 22
160.7854112903
 32
0.0
 13
87.7561922438
 23
160.7854112903
 33
0.0
  0
SOLID
  5
1A3
330
19F
100
AcDbEntity
  8
VERMASSUNG
100
AcDbTrace
 10
211.6561922438
 20
160.3354112903
 30
0.0
 11
208.6561922438
 21
160.7854112903
 31
0.0
 12
208.6561922438
 22
159.8854112903
 32
0.0
 13
208.6561922438
 23
159.8854112903
 33
0.0
  0
LINE
  5
1A4
330
19F
100
AcDbEntity
  8
VERMASSUNG
100
AcDbLine
 10
84.7561922438
 20
129.4546535529
 30
0.0
 11
84.7561922438
 21
161.3354112903
 31
0.0
  0
LINE
  5
1A5
330
19F
100
AcDbEntity
  8
VERMASSUNG
100
AcDbLine
 10
211.6561922438
 20
121.4151948231
 30
0.0
 11
211.6561922438
 21
161.3354112903
 31
0.0
  0
LINE
  5
1A6
330
19F
100
AcDbEntity
  8
VERMASSUNG
100
AcDbLine
 10
84.7561922438
 20
160.3354112903
 30
0.0
 11
211.6561922438
 21
160.3354112903
 31
0.0
  0
MTEXT
  5
1A7
330
19F
100
AcDbEntity
  8
VERMASSUNG
100
AcDbMText
 10
145.3064858516
 20
162.9135466535
 30
0.0
 40
2.0
 41
0.0
 71
     1
 72
     1
  1
126.9
  7
SLDTEXTSTYLE0
 73
     1
 44
1.0
  0
ENDBLK
  5
1A1
330
19F
100
AcDbEntity
  8
0
100
AcDbBlockEnd
  0
BLOCK
  5
1AA
330
1A9
100
AcDbEntity
  8
0
100
AcDbBlockBegin
  2
*D8
 70
     1
 10
0.0
 20
0.0
 30
0.0
  3
*D8
  1

  0
SOLID
  5
1AC
330
1A9
100
AcDbEntity
  8
VERMASSUNG
100
AcDbTrace
 10
78.9948145161
 20
141.2639758065
 30
0.0
 11
78.5448145161
 21
138.2639758065
 31
0.0
 12
79.4448145161
 22
138.2639758065
 32
0.0
 13
79.4448145161
 23
138.2639758065
 33
0.0
  0
SOLID
  5
1AD
330
1A9
100
AcDbEntity
  8
VERMASSUNG
100
AcDbTrace
 10
78.9948145161
 20
78.2639758065
 30
0.0
 11
79.4448145161
 21
81.2639758065
 31
0.0
 12
78.5448145161
 22
81.2639758065
 32
0.0
 13
78.5448145161
 23
81.2639758065
 33
0.0
  0
LINE
  5
1AE
330
1A9
100
AcDbEntity
  8
VERMASSUNG
100
AcDbLine
 10
116.9561922438
 20
141.2639758065
 30
0.0
 11
77.9948145161
 21
141.2639758065
 31
0.0
  0
LINE
  5
1AF
330
1A9
100
AcDbEntity
  8
VERMASSUNG
100
AcDbLine
 10
116.9561922438
 20
78.2639758065
 30
0.0
 11
77.9948145161
 21
78.2639758065
 31
0.0
  0
LINE
  5
1B0
330
1A9
100
AcDbEntity
  8
VERMASSUNG
100
AcDbLine
 10
78.9948145161
 20
141.2639758065
 30
0.0
 11
78.9948145161
 21
78.2639758065
 31
0.0
  0
MTEXT
  5
1B1
330
1A9
100
AcDbEntity
  8
VERMASSUNG
100
AcDbMText
 10
76.2166790271
 20
102.0604340946
 30
0.0
 40
2.0
 41
0.0
 71
     1
 72
     1
  1
HSK A 
  7
SLDTEXTSTYLE0
 11
-7.044195017643634E-15
 21
1.0
 31
0.0
 73
     1
 44
1.0
  0
MTEXT
  5
1B2
330
1A9
100
AcDbEntity
  8
VERMASSUNG
100
AcDbMText
 10
76.4166790366
 20
111.0604346385
 30
0.0
 40
2.0
 41
0.0
 71
     1
 72
     1
  1
%%c
  7
SLDTEXTSTYLE0
 11
-7.044195017643634E-15
 21
1.0
 31
0.0
 73
     1
 44
1.0
  0
MTEXT
  5
1B3
330
1A9
100
AcDbEntity
  8
VERMASSUNG
100
AcDbMText
 10
76.416679153
 20
114.6687612886
 30
0.0
 40
2.0
 41
0.0
 71
     1
 72
     1
  1
63
  7
SLDTEXTSTYLE0
 11
-7.044195017643634E-15
 21
1.0
 31
0.0
 73
     1
 44
1.0
  0
ENDBLK
  5
1AB
330
1A9
100
AcDbEntity
  8
0
100
AcDbBlockEnd
  0
ENDSEC
  0
SECTION
  2
ENTITIES
  0
MTEXT
  5
45
330
1F
100
AcDbEntity
  8
KOPF_DÜNN
100
AcDbMText
 10
13.8892156294
 20
23.8442973028
 30
0.0
 40
3.0
 41
0.0
 71
     1
 72
     1
  1
HA6.S16.K01.095
  7
SLDTEXTSTYLE0
 73
     1
 44
1.0
  0
MTEXT
  5
46
330
1F
100
AcDbEntity
  8
VERMASSUNG
100
AcDbMText
 10
13.9329988022
 20
28.8834360957
 30
0.0
 40
3.0
 41
0.0
 71
     1
 72
     1
  1
Schrumpffutter_Heat shrink chuck
  7
SLDTEXTSTYLE0
 73
     1
 44
1.0
  0
MTEXT
  5
47
330
1F
100
AcDbEntity
  8
VERMASSUNG
100
AcDbMText
 10
98.8601118557
 20
13.8365368179
 30
0.0
 40
2.0
 41
0.0
 71
     1
 72
     1
  1
Datum: 17.03.2011
  7
SLDTEXTSTYLE0
 73
     1
 44
1.0
  0
MTEXT
  5
49
330
1F
100
AcDbEntity
  8
VERMASSUNG
100
AcDbMText
 10
13.933048693
 20
18.0482802738
 30
0.0
 40
2.0
 41
0.0
 71
     1
 72
     1
  1
DIN 69 893 HSK A 63
  7
SLDTEXTSTYLE1
 73
     1
 44
1.0
  0
MTEXT
  5
4A
330
1F
100
AcDbEntity
  8
VERMASSUNG
100
AcDbMText
 10
13.9808475933
 20
13.9090973692
 30
0.0
 40
2.0
 41
0.0
 71
     1
 72
     1
  1
Gewicht: 983.84g
  7
SLDTEXTSTYLE0
 73
     1
 44
1.0
  0
ARC
  5
4B
330
1F
100
AcDbEntity
  8
0
  6
Continuous
 62
     7
370
    15
100
AcDbCircle
 10
116.9561922438
 20
78.5639758065
 30
0.0
 40
0.3000000000000114
100
AcDbArc
 50
180.0
 51
270.0
  0
ARC
  5
4C
330
1F
100
AcDbEntity
  8
0
  6
Continuous
 62
     7
370
    15
100
AcDbCircle
 10
116.9561922438
 20
140.9639758065
 30
0.0
 40
0.2999999999999972
100
AcDbArc
 50
90.0
 51
180.0
  0
LINE
  5
4D
330
1F
100
AcDbEntity
  8
0
  6
Continuous
 62
     7
370
    15
100
AcDbLine
 10
116.956192258
 20
78.2639752998
 30
0.0
 11
121.6061922169
 21
78.2639752998
 31
0.0
  0
LINE
  5
4E
330
1F
100
AcDbEntity
  8
0
  6
Continuous
 62
     7
370
    15
100
AcDbLine
 10
121.6341807886
 20
141.2639763131
 30
0.0
 11
116.956192258
 21
141.2639763131
 31
0.0
  0
ARC
  5
4F
330
1F
100
AcDbEntity
  8
0
  6
Continuous
 62
     7
370
    15
100
AcDbCircle
 10
116.1561854911
 20
85.1935381921
 30
0.0
 40
0.6000067526677242
100
AcDbArc
 50
33.5571153394
 51
90.0
  0
ARC
  5
50
330
1F
100
AcDbEntity
  8
0
  6
Continuous
 62
     7
370
    15
100
AcDbCircle
 10
116.1561854911
 20
134.3344134208
 30
0.0
 40
0.6000067526677242
100
AcDbArc
 50
270.0
 51
326.4428846606
  0
LINE
  5
51
330
1F
100
AcDbEntity
  8
0
  6
Continuous
 62
     7
370
    15
100
AcDbLine
 10
103.4246838099
 20
133.4217056557
 30
0.0
 11
90.8561913676
 21
132.7920216992
 31
0.0
  0
LINE
  5
52
330
1F
100
AcDbEntity
  8
0
  6
Continuous
 62
     7
370
    15
100
AcDbLine
 10
114.6561921488
 20
133.98440703
 30
0.0
 11
111.8391907222
 21
133.843274407
 31
0.0
  0
LINE
  5
53
330
1F
100
AcDbEntity
  8
0
  6
Continuous
 62
     7
370
    15
100
AcDbLine
 10
111.8392466015
 20
85.6846753433
 30
0.0
 11
114.6561921488
 21
85.5435445829
 31
0.0
  0
LINE
  5
54
330
1F
100
AcDbEntity
  8
0
  6
Continuous
 62
     7
370
    15
100
AcDbLine
 10
94.8561920232
 20
86.5355297848
 30
0.0
 11
103.4250861413
 21
86.1062254681
 31
0.0
  0
LINE
  5
55
330
1F
100
AcDbEntity
  8
0
  6
Continuous
 62
     7
370
    15
100
AcDbLine
 10
114.6561921488
 20
85.5435445829
 30
0.0
 11
115.5129050749
 21
85.7731006964
 31
0.0
  0
LINE
  5
56
330
1F
100
AcDbEntity
  8
0
  6
Continuous
 62
     7
370
    15
100
AcDbLine
 10
115.5129050749
 20
133.7548509165
 30
0.0
 11
114.6561921488
 21
133.98440703
 31
0.0
  0
ARC
  5
57
330
1F
100
AcDbEntity
  8
0
  6
Continuous
 62
     7
370
    15
100
AcDbCircle
 10
115.6681964442
 20
85.1935449447
 30
0.0
 40
0.6000000000000109
100
AcDbArc
 50
90.0
 51
105.0
  0
ARC
  5
58
330
1F
100
AcDbEntity
  8
0
  6
Continuous
 62
     7
370
    15
100
AcDbCircle
 10
115.6681964442
 20
134.3344066682
 30
0.0
 40
0.6000000000000245
100
AcDbArc
 50
255.0
 51
270.0
  0
LINE
  5
59
330
1F
100
AcDbEntity
  8
0
  6
Continuous
 62
     7
370
    15
100
AcDbLine
 10
115.6681964786
 20
85.7935450896
 30
0.0
 11
116.1561854679
 21
85.7935450896
 31
0.0
  0
LINE
  5
5A
330
1F
100
AcDbEntity
  8
0
  6
Continuous
 62
     7
370
    15
100
AcDbLine
 10
116.1561854679
 20
133.7344065233
 30
0.0
 11
115.6681964786
 21
133.7344065233
 31
0.0
  0
ARC
  5
5B
330
1F
100
AcDbEntity
  8
0
  6
Continuous
 62
     7
370
    15
100
AcDbCircle
 10
145.6061922438
 20
89.7639758065
 30
0.0
 40
3.0
100
AcDbArc
 50
90.0
 51
180.0
  0
ARC
  5
5C
330
1F
100
AcDbEntity
  8
0
  6
Continuous
 62
     7
370
    15
100
AcDbCircle
 10
145.6061922438
 20
129.7639758065
 30
0.0
 40
3.000000000000014
100
AcDbArc
 50
182.6577405905
 51
270.0
  0
LINE
  5
5D
330
1F
100
AcDbEntity
  8
0
  6
Continuous
 62
     7
370
    15
100
AcDbLine
 10
167.184476406
 20
92.7639748826
 30
0.0
 11
209.8131111271
 21
96.1189219653
 31
0.0
  0
LINE
  5
5E
330
1F
100
AcDbEntity
  8
0
  6
Continuous
 62
     7
370
    15
100
AcDbLine
 10
209.8131111271
 20
123.4090296476
 30
0.0
 11
167.184476406
 21
126.7639767303
 31
0.0
  0
LINE
  5
5F
330
1F
100
AcDbEntity
  8
0
  6
Continuous
 62
     7
370
    15
100
AcDbLine
 10
145.6061924255
 20
92.7639748826
 30
0.0
 11
167.184476406
 21
92.7639748826
 31
0.0
  0
LINE
  5
60
330
1F
100
AcDbEntity
  8
0
  6
Continuous
 62
     7
370
    15
100
AcDbLine
 10
167.184476406
 20
126.7639767303
 30
0.0
 11
145.6061924255
 21
126.7639767303
 31
0.0
  0
ARC
  5
61
330
1F
100
AcDbEntity
  8
0
  6
Continuous
 62
     7
370
    15
100
AcDbCircle
 10
209.6561922438
 20
98.1127567898
 30
0.0
 40
2.000000000000033
100
AcDbArc
 50
274.5
 51
0.0
  0
ARC
  5
62
330
1F
100
AcDbEntity
  8
0
  6
Continuous
 62
     7
370
    15
100
AcDbCircle
 10
209.6561922438
 20
121.4151948231
 30
0.0
 40
2.000000000000028
100
AcDbArc
 50
0.0
 51
85.5
  0
LINE
  5
63
330
1F
100
AcDbEntity
  8
0
  6
Continuous
 62
     7
370
    15
100
AcDbLine
 10
86.0395288474
 20
88.8939756825
 30
0.0
 11
93.4561925388
 21
88.8939756825
 31
0.0
  0
ARC
  5
64
330
1F
100
AcDbEntity
  8
0
  6
Continuous
 62
     7
370
    15
100
AcDbCircle
 10
93.4561922438
 20
87.4939758065
 30
0.0
 40
1.399999999999997
100
AcDbArc
 50
42.2465410162
 51
90.0
  0
LINE
  5
65
330
1F
100
AcDbEntity
  8
0
  6
Continuous
 62
     7
370
    15
100
AcDbLine
 10
84.7673533863
 20
90.0328155532
 30
0.0
 11
85.8973550058
 21
88.9028120711
 31
0.0
  0
LINE
  5
66
330
1F
100
AcDbEntity
  8
0
  6
Continuous
 62
     7
370
    15
100
AcDbLine
 10
85.8973550058
 20
130.6251395418
 30
0.0
 11
84.7660942382
 21
129.4938769116
 31
0.0
  0
ARC
  5
67
330
1F
100
AcDbEntity
  8
0
  6
Continuous
 62
     7
370
    15
100
AcDbCircle
 10
89.4561922438
 20
132.0339758065
 30
0.0
 40
1.4
100
AcDbArc
 50
270.0
 51
302.5610026528
  0
LINE
  5
68
330
1F
100
AcDbEntity
  8
0
  6
Continuous
 62
     7
370
    15
100
AcDbLine
 10
89.4561918831
 20
130.6339759304
 30
0.0
 11
86.0470800108
 21
130.6339759304
 31
0.0
  0
LINE
  5
69
330
1F
100
AcDbEntity
  8
0
  6
Continuous
 62
     7
370
    15
100
AcDbLine
 10
116.6561922438
 20
78.5639766528
 30
0.0
 11
116.6561922438
 21
140.9639749601
 31
0.0
  0
LINE
  5
6A
330
1F
100
AcDbEntity
  8
0
  6
Continuous
 62
     7
370
    15
100
AcDbLine
 10
142.6061919338
 20
80.203698568
 30
0.0
 11
142.6061919338
 21
129.6139765455
 31
0.0
  0
SPLINE
  5
6B
330
1F
100
AcDbEntity
  8
0
  6
Continuous
 62
     7
370
    15
100
AcDbSpline
210
0.0
220
0.0
230
1.0
 70
     8
 71
     3
 72
    10
 73
     6
 74
     0
 42
0.00000001
 43
0.00000001
 40
0.0
 40
0.0
 40
0.0
 40
0.0
 40
0.5
 40
0.5
 40
1.0
 40
1.0
 40
1.0
 40
1.0
 10
142.6061922437512
 20
80.20369840585879
 30
0.0
 10
142.6061922437512
 20
80.04381113766512
 30
0.0
 10
142.5448825925154
 20
79.88268388215052
 30
0.0
 10
142.3257829549803
 20
79.64858488379568
 30
0.0
 10
142.1677347486668
 20
79.57705811020446
 30
0.0
 10
142.0061922437512
 20
79.57705811020446
 30
0.0
  0
SPLINE
  5
6C
330
1F
100
AcDbEntity
  8
0
  6
Continuous
 62
     7
370
    15
100
AcDbSpline
210
0.0
220
0.0
230
1.0
 70
    24
 71
     3
 72
    12
 73
     8
 74
     0
 42
0.00000001
 43
0.00000001
 40
0.0
 40
0.0
 40
0.0
 40
0.0
 40
0.2500000000000033
 40
0.2500000000000033
 40
0.5000000000000067
 40
0.5000000000000067
 40
1.0
 40
1.0
 40
1.0
 40
1.0
 10
142.0061922437512
 20
129.6139758064516
 30
0.0
 10
142.0964313114382
 20
129.6139758064516
 30
0.0
 10
142.1873294255447
 20
129.6139758064516
 30
0.0
 10
142.3419264620333
 20
129.6139758064516
 30
0.0
 10
142.4069048781414
 20
129.6139758064516
 30
0.0
 10
142.5587399060776
 20
129.6139758064516
 30
0.0
 10
142.6061922437512
 20
129.6139758064516
 30
0.0
 10
142.6061922437512
 20
129.6139758064516
 30
0.0
  0
LINE
  5
6D
330
1F
100
AcDbEntity
  8
0
  6
Continuous
 62
     7
370
    15
100
AcDbLine
 10
142.006192953
 20
79.5770581736
 30
0.0
 11
138.048124165
 21
79.5770581736
 31
0.0
  0
LINE
  5
6E
330
1F
100
AcDbEntity
  8
0
  6
Continuous
 62
     7
370
    15
100
AcDbLine
 10
138.048124165
 20
79.5770581736
 30
0.0
 11
138.048124165
 21
129.6139765455
 31
0.0
  0
LINE
  5
6F
330
1F
100
AcDbEntity
  8
0
  6
Continuous
 62
     7
370
    15
100
AcDbLine
 10
138.048124165
 20
129.6139765455
 30
0.0
 11
142.006192953
 21
129.6139765455
 31
0.0
  0
SPLINE
  5
70
330
1F
100
AcDbEntity
  8
0
  6
Continuous
 62
     7
370
    15
100
AcDbSpline
210
0.0
220
0.0
230
1.0
 70
     8
 71
     3
 72
     8
 73
     4
 74
     0
 42
0.00000001
 43
0.00000001
 40
0.0
 40
0.0
 40
0.0
 40
0.0
 40
1.0
 40
1.0
 40
1.0
 40
1.0
 10
138.0481250752403
 20
79.57705811020446
 30
0.0
 10
137.5526454145745
 20
80.47258419813782
 30
0.0
 10
137.0585313665324
 20
81.36886861319006
 30
0.0
 10
136.5661922437512
 20
82.26613864739676
 30
0.0
  0
LINE
  5
71
330
1F
100
AcDbEntity
  8
0
  6
Continuous
 62
     7
370
    15
100
AcDbLine
 10
136.5661925084
 20
82.2661384865
 30
0.0
 11
136.5661925084
 21
129.6139765455
 31
0.0
  0
SPLINE
  5
72
330
1F
100
AcDbEntity
  8
0
  6
Continuous
 62
     7
370
    15
100
AcDbSpline
210
0.0
220
0.0
230
1.0
 70
    24
 71
     3
 72
     8
 73
     4
 74
     0
 42
0.00000001
 43
0.00000001
 40
0.0
 40
0.0
 40
0.0
 40
0.0
 40
1.0
 40
1.0
 40
1.0
 40
1.0
 10
136.5661922437512
 20
129.6139758064516
 30
0.0
 10
137.0461442381161
 20
129.6139758064516
 30
0.0
 10
137.5414449670897
 20
129.6139758064516
 30
0.0
 10
138.0481250752403
 20
129.6139758064516
 30
0.0
  0
LINE
  5
73
330
1F
100
AcDbEntity
  8
0
  6
Continuous
 62
     7
370
    15
100
AcDbLine
 10
121.6061922169
 20
129.6139765455
 30
0.0
 11
131.2642597041
 21
129.6139765455
 31
0.0
  0
LINE
  5
74
330
1F
100
AcDbEntity
  8
0
  6
Continuous
 62
     7
370
    15
100
AcDbLine
 10
131.2642597041
 20
79.5770581736
 30
0.0
 11
131.2642597041
 21
129.6139765455
 31
0.0
  0
LINE
  5
75
330
1F
100
AcDbEntity
  8
0
  6
Continuous
 62
     7
370
    15
100
AcDbLine
 10
131.2642597041
 20
79.5770581736
 30
0.0
 11
129.6061925969
 21
79.5770581736
 31
0.0
  0
SPLINE
  5
76
330
1F
100
AcDbEntity
  8
0
  6
Continuous
 62
     7
370
    15
100
AcDbSpline
210
0.0
220
0.0
230
1.0
 70
     8
 71
     3
 72
    28
 73
    24
 74
     0
 42
0.00000001
 43
0.00000001
 40
0.0
 40
0.0
 40
0.0
 40
0.0
 40
0.1250000000000001
 40
0.1250000000000001
 40
0.1875000000000001
 40
0.1875000000000001
 40
0.2500000000000001
 40
0.2500000000000001
 40
0.3749999999999999
 40
0.3749999999999999
 40
0.4375
 40
0.4375
 40
0.4999999999999999
 40
0.4999999999999999
 40
0.6249999999999999
 40
0.6249999999999999
 40
0.7499999999999997
 40
0.7499999999999997
 40
0.8124999999999998
 40
0.8124999999999998
 40
0.8749999999999998
 40
0.8749999999999998
 40
1.0
 40
1.0
 40
1.0
 40
1.0
 10
129.6061922437512
 20
79.57705811020446
 30
0.0
 10
129.0744844862583
 20
79.57705811020446
 30
0.0
 10
128.5522459209479
 20
79.56127339625425
 30
0.0
 10
127.7823754346729
 20
79.51627798217805
 30
0.0
 10
127.5280158624816
 20
79.4977229871023
 30
0.0
 10
127.0238942817831
 20
79.4538702646558
 30
0.0
 10
126.7741714643552
 20
79.42852565770362
 30
0.0
 10
126.0485815129088
 20
79.34512357995352
 30
0.0
 10
125.5902212513272
 20
79.27925802080243
 30
0.0
 10
124.9397233079333
 20
79.17028768031064
 30
0.0
 10
124.7280412571409
 20
79.13204804454399
 30
0.0
 10
124.3239697680029
 20
79.05428930712463
 30
0.0
 10
124.131463254182
 20
79.01478834494927
 30
0.0
 10
123.5816282831607
 20
78.89588060258328
 30
0.0
 10
123.2516995048519
 20
78.81606292115868
 30
0.0
 10
122.6672282362832
 20
78.6627197593626
 30
0.0
 10
122.4209510982698
 20
78.59138600609336
 30
0.0
 10
122.1211083055717
 20
78.49744249901873
 30
0.0
 10
122.0326514484995
 20
78.4682487056588
 30
0.0
 10
121.8792900951944
 20
78.41478213139538
 30
0.0
 10
121.8142018809682
 20
78.39042279712021
 30
0.0
 10
121.6586078650274
 20
78.32683265167547
 30
0.0
 10
121.6061922437512
 20
78.29672971658621
 30
0.0
 10
121.6061922437512
 20
78.2798528235893
 30
0.0
  0
LINE
  5
77
330
1F
100
AcDbEntity
  8
0
  6
Continuous
 62
     7
370
    15
100
AcDbLine
 10
121.6061922169
 20
78.2798524871
 30
0.0
 11
121.6061922169
 21
78.2639752998
 31
0.0
  0
SPLINE
  5
78
330
1F
100
AcDbEntity
  8
0
  6
Continuous
 62
     7
370
    15
100
AcDbSpline
210
0.0
220
0.0
230
1.0
 70
     8
 71
     3
 72
    17
 73
    13
 74
     0
 42
0.00000001
 43
0.00000001
 40
0.0
 40
0.0
 40
0.0
 40
0.0
 40
0.1034797280380778
 40
0.2100239090909901
 40
0.3134862262879433
 40
0.4198361712144981
 40
0.5254127947779869
 40
0.6339610881168427
 40
0.7409508662120068
 40
0.8511696072047016
 40
0.9558996557845765
 40
1.0
 40
1.0
 40
1.0
 40
1.0
 10
129.6061925969087
 20
140.2311712428101
 30
0.0
 10
129.1709441051828
 20
140.2366192344477
 30
0.0
 10
128.2875576546058
 20
140.2476765547763
 30
0.0
 10
127.0067297923831
 20
140.3340353151514
 30
0.0
 10
125.7893135969411
 20
140.4619064582844
 30
0.0
 10
124.6815069806153
 20
140.6208508656029
 30
0.0
 10
123.6932685012865
 20
140.7953454385874
 30
0.0
 10
122.8685454014707
 20
140.9645118717744
 30
0.0
 10
122.219591743972
 20
141.112392680242
 30
0.0
 10
121.8025564404924
 20
141.2141834317646
 30
0.0
 10
121.6039596976144
 20
141.2645403313991
 30
0.0
 10
121.6272728146023
 20
141.2586307264236
 30
0.0
 10
121.6341807886027
 20
141.2568796350726
 30
0.0
  0
LINE
  5
79
330
1F
100
AcDbEntity
  8
0
  6
Continuous
 62
     7
370
    15
100
AcDbLine
 10
131.2642597041
 20
140.2311712428
 30
0.0
 11
129.6061925969
 21
140.2311712428
 31
0.0
  0
LINE
  5
7A
330
1F
100
AcDbEntity
  8
0
  6
Continuous
 62
     7
370
    15
100
AcDbLine
 10
131.2642597041
 20
134.2226654216
 30
0.0
 11
131.2642597041
 21
140.2311712428
 31
0.0
  0
LINE
  5
7B
330
1F
100
AcDbEntity
  8
0
  6
Continuous
 62
     7
370
    15
100
AcDbLine
 10
128.8518129296
 20
134.2226654216
 30
0.0
 11
131.2642597041
 21
134.2226654216
 31
0.0
  0
SPLINE
  5
7C
330
1F
100
AcDbEntity
  8
0
  6
Continuous
 62
     7
370
    15
100
AcDbSpline
210
0.0
220
0.0
230
1.0
 70
     8
 71
     3
 72
    20
 73
    16
 74
     0
 42
0.00000001
 43
0.00000001
 40
0.0
 40
0.0
 40
0.0
 40
0.0
 40
0.2499999999999997
 40
0.2499999999999997
 40
0.3749999999999997
 40
0.3749999999999997
 40
0.4999999999999998
 40
0.4999999999999998
 40
0.6249999999999998
 40
0.6249999999999998
 40
0.7499999999999999
 40
0.7499999999999999
 40
0.8749999999999999
 40
0.8749999999999999
 40
1.0
 40
1.0
 40
1.0
 40
1.0
 10
121.6061922437512
 20
129.6139758064516
 30
0.0
 10
121.8545659780393
 20
130.267838234749
 30
0.0
 10
122.1741360703845
 20
130.8716240167462
 30
0.0
 10
122.7964423035892
 20
131.6984627529148
 30
0.0
 10
123.02786656402
 20
131.9608913908677
 30
0.0
 10
123.5490809036697
 20
132.4575540449727
 30
0.0
 10
123.8357013863048
 20
132.6881409239942
 30
0.0
 10
124.4551861276124
 20
133.1046951485768
 30
0.0
 10
124.7894865070993
 20
133.2921929505443
 30
0.0
 10
125.5147469797241
 20
133.6235899281807
 30
0.0
 10
125.8966620371146
 20
133.763093915676
 30
0.0
 10
126.6914502132863
 20
133.988547423147
 30
0.0
 10
127.1056084074927
 20
134.0751735346906
 30
0.0
 10
127.9711547480741
 20
134.1931543235447
 30
0.0
 10
128.4090423630859
 20
134.2226654688191
 30
0.0
 10
128.8518125894405
 20
134.2226654688191
 30
0.0
  0
SPLINE
  5
7D
330
1F
100
AcDbEntity
  8
0
  6
Continuous
 62
     7
370
    15
100
AcDbSpline
210
0.0
220
0.0
230
1.0
 70
     8
 71
     3
 72
    70
 73
    66
 74
     0
 42
0.00000001
 43
0.00000001
 40
-0.0312500000000002
 40
-0.0312500000000002
 40
0.0
 40
0.0
 40
0.0312499999999995
 40
0.0312499999999995
 40
0.0624999999999991
 40
0.0624999999999991
 40
0.0937499999999988
 40
0.0937499999999988
 40
0.1249999999999985
 40
0.1249999999999985
 40
0.1562499999999982
 40
0.1562499999999982
 40
0.1874999999999979
 40
0.1874999999999979
 40
0.2187499999999976
 40
0.2187499999999976
 40
0.2499999999999973
 40
0.2499999999999973
 40
0.2812499999999973
 40
0.2812499999999973
 40
0.3124999999999972
 40
0.3124999999999972
 40
0.3437499999999971
 40
0.3437499999999971
 40
0.3749999999999971
 40
0.3749999999999971
 40
0.406249999999997
 40
0.406249999999997
 40
0.4374999999999969
 40
0.4374999999999969
 40
0.4687499999999968
 40
0.4687499999999968
 40
0.4999999999999968
 40
0.4999999999999968
 40
0.5312499999999969
 40
0.5312499999999969
 40
0.562499999999997
 40
0.562499999999997
 40
0.5937499999999971
 40
0.5937499999999971
 40
0.6249999999999971
 40
0.6249999999999971
 40
0.6562499999999972
 40
0.6562499999999972
 40
0.6874999999999973
 40
0.6874999999999973
 40
0.7187499999999974
 40
0.7187499999999974
 40
0.7499999999999976
 40
0.7499999999999976
 40
0.7812499999999979
 40
0.7812499999999979
 40
0.8124999999999982
 40
0.8124999999999982
 40
0.8437499999999986
 40
0.8437499999999986
 40
0.8749999999999988
 40
0.8749999999999988
 40
0.9062499999999991
 40
0.9062499999999991
 40
0.9374999999999994
 40
0.9374999999999994
 40
0.9687499999999998
 40
0.9687499999999998
 40
1.0
 40
1.0
 40
1.03125
 40
1.03125
 10
120.6561922437512
 20
123.8289652415273
 30
0.0
 10
120.6561922437512
 20
124.3003878549673
 30
0.0
 10
120.6821773191351
 20
124.5306014148834
 30
0.0
 10
120.7839422217192
 20
124.9806642029455
 30
0.0
 10
120.8609766075252
 20
125.2028251434366
 30
0.0
 10
121.0618428949623
 20
125.623609360909
 30
0.0
 10
121.1847219435537
 20
125.8218766585533
 30
0.0
 10
121.4749866056174
 20
126.1951635470198
 30
0.0
 10
121.6437601814693
 20
126.3706745925349
 30
0.0
 10
122.0123982027557
 20
126.6839739428377
 30
0.0
 10
122.2135912507081
 20
126.8239062333804
 30
0.0
 10
122.6507287759623
 20
127.0703629923719
 30
0.0
 10
122.8831434435857
 20
127.1744933303219
 30
0.0
 10
123.364327665698
 20
127.3416153090061
 30
0.0
 10
123.616662671656
 20
127.4058270757661
 30
0.0
 10
124.1331075373438
 20
127.4916120222991
 30
0.0
 10
124.3928127853961
 20
127.5128133288949
 30
0.0
 10
124.9151198425492
 20
127.5130554113001
 30
0.0
 10
125.1804261578632
 20
127.4913943694528
 30
0.0
 10
125.6936322479925
 20
127.4062008797309
 30
0.0
 10
125.9430996863042
 20
127.3431246639686
 30
0.0
 10
126.4277022957961
 20
127.1752372584242
 30
0.0
 10
126.6615719545805
 20
127.0702411564765
 30
0.0
 10
127.0947142758358
 20
126.8263733792068
 30
0.0
 10
127.2968911916016
 20
126.6865150425171
 30
0.0
 10
127.6701659839112
 20
126.3694533435737
 30
0.0
 10
127.8354882780611
 20
126.1972102808541
 30
0.0
 10
128.1252032653964
 20
125.8254422788421
 30
0.0
 10
128.250606531027
 20
125.6234889833576
 30
0.0
 10
128.451421979039
 20
125.2027799432214
 30
0.0
 10
128.5272065361449
 20
124.9848781969251
 30
0.0
 10
128.6298162548772
 20
124.5335616416822
 30
0.0
 10
128.6560937877354
 20
124.2987123901035
 30
0.0
 10
128.6562901345568
 20
123.8333201251554
 30
0.0
 10
128.6310568883392
 20
123.6004082933625
 30
0.0
 10
128.528656402422
 20
123.134308223052
 30
0.0
 10
128.4519681053629
 20
122.9051556033761
 30
0.0
 10
128.2527519950464
 20
122.4654856912804
 30
0.0
 10
128.1286453610419
 20
122.2515982706163
 30
0.0
 10
127.8367690130403
 20
121.8481155484727
 30
0.0
 10
127.6714967088585
 20
121.6612425910951
 30
0.0
 10
127.3031136056748
 20
121.3172945676691
 30
0.0
 10
127.0976036990472
 20
121.1590624560367
 30
0.0
 10
126.663499355115
 20
120.8862731068199
 30
0.0
 10
126.4340140674877
 20
120.7702340369005
 30
0.0
 10
125.9498013901271
 20
120.5800534813007
 30
0.0
 10
125.6958080643551
 20
120.5069049602479
 30
0.0
 10
125.1844299282289
 20
120.4100186721991
 30
0.0
 10
124.9242999041618
 20
120.3851105247867
 30
0.0
 10
124.3952956902699
 20
120.3846579447491
 30
0.0
 10
124.1352079594828
 20
120.4091049527888
 30
0.0
 10
123.623490436774
 20
120.5051470831036
 30
0.0
 10
123.3691793190408
 20
120.5779377440947
 30
0.0
 10
122.8848014730752
 20
120.7672457599789
 30
0.0
 10
122.6550367163125
 20
120.8829140678352
 30
0.0
 10
122.2200746594393
 20
121.155242383503
 30
0.0
 10
122.0143983973095
 20
121.3130970774503
 30
0.0
 10
121.6455555521835
 20
121.6563099937432
 30
0.0
 10
121.4798718345292
 20
121.8429591303221
 30
0.0
 10
121.186970417529
 20
122.2464223277335
 30
0.0
 10
121.0627596856033
 20
122.4596845870889
 30
0.0
 10
120.8627511336816
 20
122.8989319106575
 30
0.0
 10
120.7856135840953
 20
123.1278729137266
 30
0.0
 10
120.6821805538245
 20
123.5944352257445
 30
0.0
 10
120.6561922437512
 20
123.8289652415273
 30
0.0
 10
120.6561922437512
 20
124.3003878549673
 30
0.0
  0
SPLINE
  5
7E
330
1F
100
AcDbEntity
  8
0
  6
Continuous
 62
     7
370
    15
100
AcDbSpline
210
0.0
220
0.0
230
1.0
 70
     8
 71
     3
 72
    70
 73
    66
 74
     0
 42
0.00000001
 43
0.00000001
 40
-0.0312499999999998
 40
-0.0312499999999998
 40
0.0
 40
0.0
 40
0.0312500000000001
 40
0.0312500000000001
 40
0.0625000000000001
 40
0.0625000000000001
 40
0.0937500000000002
 40
0.0937500000000002
 40
0.1250000000000002
 40
0.1250000000000002
 40
0.1562500000000003
 40
0.1562500000000003
 40
0.1875000000000003
 40
0.1875000000000003
 40
0.2187500000000004
 40
0.2187500000000004
 40
0.2500000000000004
 40
0.2500000000000004
 40
0.2812500000000007
 40
0.2812500000000007
 40
0.312500000000001
 40
0.312500000000001
 40
0.3437500000000013
 40
0.3437500000000013
 40
0.3750000000000016
 40
0.3750000000000016
 40
0.4062500000000018
 40
0.4062500000000018
 40
0.4375000000000021
 40
0.4375000000000021
 40
0.4687500000000024
 40
0.4687500000000024
 40
0.5000000000000027
 40
0.5000000000000027
 40
0.5312500000000027
 40
0.5312500000000027
 40
0.5625000000000026
 40
0.5625000000000026
 40
0.5937500000000026
 40
0.5937500000000026
 40
0.6250000000000024
 40
0.6250000000000024
 40
0.6562500000000024
 40
0.6562500000000024
 40
0.6875000000000023
 40
0.6875000000000023
 40
0.7187500000000023
 40
0.7187500000000023
 40
0.7500000000000022
 40
0.7500000000000022
 40
0.781250000000002
 40
0.781250000000002
 40
0.8125000000000017
 40
0.8125000000000017
 40
0.8437500000000013
 40
0.8437500000000013
 40
0.8750000000000011
 40
0.8750000000000011
 40
0.9062500000000008
 40
0.9062500000000008
 40
0.9375000000000006
 40
0.9375000000000006
 40
0.9687500000000002
 40
0.9687500000000002
 40
1.0
 40
1.0
 40
1.03125
 40
1.03125
 10
120.6561922437512
 20
136.911503533642
 30
0.0
 10
120.6561922437512
 20
137.1760485176809
 30
0.0
 10
120.6821773191351
 20
137.3032006118358
 30
0.0
 10
120.7839422217192
 20
137.5480096075736
 30
0.0
 10
120.8609766075252
 20
137.6668716066467
 30
0.0
 10
121.0618428949623
 20
137.8885814329922
 30
0.0
 10
121.1847219435537
 20
137.9912967719177
 30
0.0
 10
121.4749866056174
 20
138.1819887924955
 30
0.0
 10
121.6437601814693
 20
138.2701784898064
 30
0.0
 10
122.0123982027557
 20
138.4256776059035
 30
0.0
 10
122.2135912507081
 20
138.4940902633676
 30
0.0
 10
122.6507287759623
 20
138.6134208827127
 30
0.0
 10
122.8831434435857
 20
138.663180574895
 30
0.0
 10
123.364327665698
 20
138.7425545519677
 30
0.0
 10
123.616662671656
 20
138.7727502362075
 30
0.0
 10
124.1331075373438
 20
138.8129981240505
 30
0.0
 10
124.3928127853961
 20
138.8228824088332
 30
0.0
 10
124.9151198425492
 20
138.8229955116153
 30
0.0
 10
125.1804261578632
 20
138.812895905884
 30
0.0
 10
125.6936322479925
 20
138.7729257159077
 30
0.0
 10
125.9430996863042
 20
138.7432685521364
 30
0.0
 10
126.4277022957961
 20
138.6635367251759
 30
0.0
 10
126.6615719545805
 20
138.6133576718628
 30
0.0
 10
127.0947142758358
 20
138.4952889972766
 30
0.0
 10
127.2968911916016
 20
138.4269358368759
 30
0.0
 10
127.6701659839112
 20
138.2695753247716
 30
0.0
 10
127.8354882780611
 20
138.1830199077032
 30
0.0
 10
128.1252032653964
 20
137.9931324874593
 30
0.0
 10
128.250606531027
 20
137.8885184670079
 30
0.0
 10
128.451421979039
 20
137.6668473300666
 30
0.0
 10
128.5272065361449
 20
137.5502810455217
 30
0.0
 10
128.6298162548772
 20
137.3048312218496
 30
0.0
 10
128.6560937877354
 20
137.1751006663723
 30
0.0
 10
128.6562901345568
 20
136.913954932069
 30
0.0
 10
128.6310568883392
 20
136.7812757700362
 30
0.0
 10
128.528656402422
 20
136.511918516721
 30
0.0
 10
128.4519681053629
 20
136.3775470783744
 30
0.0
 10
128.2527519950464
 20
136.1165149484703
 30
0.0
 10
128.1286453610419
 20
135.9878523111765
 30
0.0
 10
127.8367690130403
 20
135.7425445898384
 30
0.0
 10
127.6714967088585
 20
135.6275879821089
 30
0.0
 10
127.3031136056748
 20
135.4142568024239
 30
0.0
 10
127.0976036990472
 20
135.3151386148879
 30
0.0
 10
126.663499355115
 20
135.1432163526169
 30
0.0
 10
126.4340140674877
 20
135.0695048638291
 30
0.0
 10
125.9498013901271
 20
134.9482523925025
 30
0.0
 10
125.6958080643551
 20
134.9013440618185
 30
0.0
 10
125.1844299282289
 20
134.8391348284436
 30
0.0
 10
124.9242999041618
 20
134.8230858367913
 30
0.0
 10
124.3952956902699
 20
134.8227945509972
 30
0.0
 10
124.1352079594828
 20
134.8385467916438
 30
0.0
 10
123.6234904367741
 20
134.9002166694414
 30
0.0
 10
123.3691793190409
 20
134.9468983452815
 30
0.0
 10
122.8848014730753
 20
135.0676046337388
 30
0.0
 10
122.6550367163125
 20
135.1410888481801
 30
0.0
 10
122.2200746594393
 20
135.3127412957039
 30
0.0
 10
122.0143983973095
 20
135.4116361760014
 30
0.0
 10
121.6455555521835
 20
135.6245452896202
 30
0.0
 10
121.4798718345292
 20
135.7393862393043
 30
0.0
 10
121.186970417529
 20
135.9847282454641
 30
0.0
 10
121.0627596856033
 20
136.1130403251456
 30
0.0
 10
120.8627511336816
 20
136.373881753052
 30
0.0
 10
120.7856135840953
 20
136.5081650251343
 30
0.0
 10
120.6821805538245
 20
136.7778576062749
 30
0.0
 10
120.6561922437512
 20
136.911503533642
 30
0.0
 10
120.6561922437512
 20
137.1760485176809
 30
0.0
  0
LINE
  5
7F
330
1F
100
AcDbEntity
  8
0
  6
Continuous
 62
     7
370
    15
100
AcDbLine
 10
132.746192292
 20
82.2661384865
 30
0.0
 11
132.746192292
 21
129.6139765455
 31
0.0
  0
SPLINE
  5
80
330
1F
100
AcDbEntity
  8
0
  6
Continuous
 62
     7
370
    15
100
AcDbSpline
210
0.0
220
0.0
230
1.0
 70
     8
 71
     3
 72
     8
 73
     4
 74
     0
 42
0.00000001
 43
0.00000001
 40
0.0
 40
0.0
 40
0.0
 40
0.0
 40
1.0
 40
1.0
 40
1.0
 40
1.0
 10
132.7461922437512
 20
82.26613864739676
 30
0.0
 10
132.25385312097
 20
81.36886861319006
 30
0.0
 10
131.7597390729279
 20
80.47258419813781
 30
0.0
 10
131.2642594122622
 20
79.57705811020446
 30
0.0
  0
SPLINE
  5
81
330
1F
100
AcDbEntity
  8
0
  6
Continuous
 62
     7
370
    15
100
AcDbSpline
210
0.0
220
0.0
230
1.0
 70
    24
 71
     3
 72
     8
 73
     4
 74
     0
 42
0.00000001
 43
0.00000001
 40
0.0
 40
0.0
 40
0.0
 40
0.0
 40
1.0
 40
1.0
 40
1.0
 40
1.0
 10
131.2642594122621
 20
129.6139758064516
 30
0.0
 10
131.7709395204127
 20
129.6139758064516
 30
0.0
 10
132.2662402493863
 20
129.6139758064516
 30
0.0
 10
132.7461922437512
 20
129.6139758064516
 30
0.0
  0
ARC
  5
82
330
1F
100
AcDbEntity
  8
0
  6
Continuous
 62
     7
370
    15
100
AcDbCircle
 10
124.8328221832
 20
121.8369129368
 30
0.0
 40
3.889042400290559
100
AcDbArc
 50
17.7618822233
 51
92.6031114248
  0
ARC
  5
83
330
1F
100
AcDbEntity
  8
0
  6
Continuous
 62
     7
370
    15
100
AcDbCircle
 10
124.5269905598
 20
121.7690700238
 30
0.0
 40
3.954983190349207
100
AcDbArc
 50
88.1279186396
 51
161.5829606158
  0
SPLINE
  5
84
330
1F
100
AcDbEntity
  8
0
  6
Continuous
 62
     7
370
    15
100
AcDbSpline
210
0.0
220
0.0
230
1.0
 70
     8
 71
     3
 72
    10
 73
     6
 74
     0
 42
0.00000001
 43
0.00000001
 40
0.0
 40
0.0
 40
0.0
 40
0.0
 40
0.5
 40
0.5
 40
1.0
 40
1.0
 40
1.0
 40
1.0
 10
133.1404897754421
 20
136.1639758064516
 30
0.0
 10
133.0189495117737
 20
136.2387019736634
 30
0.0
 10
132.9176151514247
 20
136.3476469895802
 30
0.0
 10
132.7819762085363
 20
136.5980774703418
 30
0.0
 10
132.7461922437512
 20
136.7404968324407
 30
0.0
 10
132.7461922437512
 20
136.8836296574874
 30
0.0
  0
SPLINE
  5
85
330
1F
100
AcDbEntity
  8
0
  6
Continuous
 62
     7
370
    15
100
AcDbSpline
210
0.0
220
0.0
230
1.0
 70
    24
 71
     3
 72
    12
 73
     8
 74
     0
 42
0.00000001
 43
0.00000001
 40
0.0
 40
0.0
 40
0.0
 40
0.0
 40
0.2500000000000037
 40
0.2500000000000037
 40
0.5000000000000074
 40
0.5000000000000074
 40
1.0
 40
1.0
 40
1.0
 40
1.0
 10
133.5461922437512
 20
136.1639758064516
 30
0.0
 10
133.4963155614338
 20
136.1639758064516
 30
0.0
 10
133.4483123680301
 20
136.1639758064516
 30
0.0
 10
133.3652642653182
 20
136.1639758064516
 30
0.0
 10
133.3291346858503
 20
136.1639758064516
 30
0.0
 10
133.2332226549061
 20
136.1639758064516
 30
0.0
 10
133.1834639869373
 20
136.1639758064516
 30
0.0
 10
133.1404897754421
 20
136.1639758064516
 30
0.0
  0
SPLINE
  5
86
330
1F
100
AcDbEntity
  8
0
  6
Continuous
 62
     7
370
    15
100
AcDbSpline
210
0.0
220
0.0
230
1.0
 70
    24
 71
     3
 72
    14
 73
    10
 74
     0
 42
0.00000001
 43
0.00000001
 40
0.0
 40
0.0
 40
0.0
 40
0.0
 40
0.1249999999999991
 40
0.1249999999999991
 40
0.2499999999999982
 40
0.2499999999999982
 40
0.4999999999999998
 40
0.4999999999999998
 40
1.0
 40
1.0
 40
1.0
 40
1.0
 10
133.5461922437512
 20
83.36397580645163
 30
0.0
 10
133.4777543958647
 20
83.36397580645163
 30
0.0
 10
133.4122043570997
 20
83.36397580645163
 30
0.0
 10
133.3077777176917
 20
83.36397580645163
 30
0.0
 10
133.2652331079303
 20
83.36397580645163
 30
0.0
 10
133.1526236473901
 20
83.36397580645162
 30
0.0
 10
133.0970846003706
 20
83.36397580645163
 30
0.0
 10
132.9544729049068
 20
83.36397580645162
 30
0.0
 10
132.891067549911
 20
83.36397580645162
 30
0.0
 10
132.8438670460835
 20
83.36397580645163
 30
0.0
  0
SPLINE
  5
87
330
1F
100
AcDbEntity
  8
0
  6
Continuous
 62
     7
370
    15
100
AcDbSpline
210
0.0
220
0.0
230
1.0
 70
     8
 71
     3
 72
    10
 73
     6
 74
     0
 42
0.00000001
 43
0.00000001
 40
0.0
 40
0.0
 40
0.0
 40
0.0
 40
0.5
 40
0.5
 40
1.0
 40
1.0
 40
1.0
 40
1.0
 10
132.7461922437512
 20
129.899842437913
 30
0.0
 10
132.7461922437512
 20
129.8520709299197
 30
0.0
 10
132.7483534873484
 20
129.8043612078581
 30
0.0
 10
132.7570248612085
 20
129.7090660903097
 30
0.0
 10
132.7635540441645
 20
129.6613735263431
 30
0.0
 10
132.7723398669113
 20
129.6139758064516
 30
0.0
  0
SPLINE
  5
88
330
1F
100
AcDbEntity
  8
0
  6
Continuous
 62
     7
370
    15
100
AcDbSpline
210
0.0
220
0.0
230
1.0
 70
    24
 71
     3
 72
    14
 73
    10
 74
     0
 42
0.00000001
 43
0.00000001
 40
0.0
 40
0.0
 40
0.0
 40
0.0
 40
0.5000000000000013
 40
0.5000000000000013
 40
0.750000000000002
 40
0.750000000000002
 40
0.875000000000001
 40
0.875000000000001
 40
1.0
 40
1.0
 40
1.0
 40
1.0
 10
136.4685174414189
 20
83.36397580645163
 30
0.0
 10
136.4217327363707
 20
83.36397580645162
 30
0.0
 10
136.3596815395911
 20
83.36397580645163
 30
0.0
 10
136.2162899010405
 20
83.36397580645163
 30
0.0
 10
136.1601462474893
 20
83.36397580645162
 30
0.0
 10
136.0471952253531
 20
83.36397580645162
 30
0.0
 10
136.004194463315
 20
83.36397580645163
 30
0.0
 10
135.9001317530085
 20
83.36397580645162
 30
0.0
 10
135.8347995146516
 20
83.36397580645163
 30
0.0
 10
135.7661922437512
 20
83.36397580645163
 30
0.0
  0
SPLINE
  5
89
330
1F
100
AcDbEntity
  8
0
  6
Continuous
 62
     7
370
    15
100
AcDbSpline
210
0.0
220
0.0
230
1.0
 70
    24
 71
     3
 72
    12
 73
     8
 74
     0
 42
0.00000001
 43
0.00000001
 40
0.0
 40
0.0
 40
0.0
 40
0.0
 40
0.5000000000000017
 40
0.5000000000000017
 40
0.7500000000000008
 40
0.7500000000000008
 40
1.0
 40
1.0
 40
1.0
 40
1.0
 10
136.1718947120602
 20
136.1639758064516
 30
0.0
 10
136.1288091624493
 20
136.1639758064516
 30
0.0
 10
136.0796569607
 20
136.1639758064516
 30
0.0
 10
135.983184366412
 20
136.1639758064516
 30
0.0
 10
135.9470827812775
 20
136.1639758064516
 30
0.0
 10
135.8639770234162
 20
136.1639758064516
 30
0.0
 10
135.8159804264499
 20
136.1639758064516
 30
0.0
 10
135.7661922437512
 20
136.1639758064516
 30
0.0
  0
SPLINE
  5
8A
330
1F
100
AcDbEntity
  8
0
  6
Continuous
 62
     7
370
    15
100
AcDbSpline
210
0.0
220
0.0
230
1.0
 70
     8
 71
     3
 72
    10
 73
     6
 74
     0
 42
0.00000001
 43
0.00000001
 40
0.0
 40
0.0
 40
0.0
 40
0.0
 40
0.5
 40
0.5
 40
1.0
 40
1.0
 40
1.0
 40
1.0
 10
136.5661922437512
 20
136.8836296574874
 30
0.0
 10
136.5661922437512
 20
136.7398595996694
 30
0.0
 10
136.5301431850323
 20
136.5974402371742
 30
0.0
 10
136.3946343242583
 20
136.347545943817
 30
0.0
 10
136.2947583311621
 20
136.2395156075688
 30
0.0
 10
136.1718947120602
 20
136.1639758064516
 30
0.0
  0
SPLINE
  5
8B
330
1F
100
AcDbEntity
  8
0
  6
Continuous
 62
     7
370
    15
100
AcDbSpline
210
0.0
220
0.0
230
1.0
 70
     8
 71
     3
 72
    10
 73
     6
 74
     0
 42
0.00000001
 43
0.00000001
 40
0.0
 40
0.0
 40
0.0
 40
0.0
 40
0.5
 40
0.5
 40
1.0
 40
1.0
 40
1.0
 40
1.0
 10
136.5400446205911
 20
129.6139758064516
 30
0.0
 10
136.5487342635027
 20
129.6608546557698
 30
0.0
 10
136.5552733282532
 20
129.708277121171
 30
0.0
 10
136.5640319626463
 20
129.8042139197578
 30
0.0
 10
136.5661922437512
 20
129.8521292077683
 30
0.0
 10
136.5661922437512
 20
129.8998424379128
 30
0.0
  0
LINE
  5
8C
330
1F
100
AcDbEntity
  8
0
  6
Continuous
 62
     7
370
    15
100
AcDbLine
 10
135.7661920047
 20
136.1639756634
 30
0.0
 11
133.5461927957
 21
136.1639756634
 31
0.0
  0
LINE
  5
8D
330
1F
100
AcDbEntity
  8
0
  6
Continuous
 62
     7
370
    15
100
AcDbLine
 10
135.7661920047
 20
83.3639759495
 30
0.0
 11
133.5461927957
 21
83.3639759495
 31
0.0
  0
LINE
  5
8E
330
1F
100
AcDbEntity
  8
0
  6
Continuous
 62
     7
370
    15
100
AcDbLine
 10
94.8561920232
 20
86.5355297848
 30
0.0
 11
94.8561920232
 21
87.8002379014
 31
0.0
  0
SPLINE
  5
8F
330
1F
100
AcDbEntity
  8
0
  6
Continuous
 62
     7
370
    15
100
AcDbSpline
210
0.0
220
0.0
230
1.0
 70
     8
 71
     3
 72
    14
 73
    10
 74
     0
 42
0.00000001
 43
0.00000001
 40
0.0
 40
0.0
 40
0.0
 40
0.0
 40
0.25
 40
0.25
 40
0.5
 40
0.5
 40
0.75
 40
0.75
 40
1.0
 40
1.0
 40
1.0
 40
1.0
 10
94.0779051258355
 20
88.93082448289168
 30
0.0
 10
94.13453180103757
 20
88.82312702905482
 30
0.0
 10
94.2290544613273
 20
88.7203374473355
 30
0.0
 10
94.41209943688952
 20
88.52198013511536
 30
0.0
 10
94.50372601384424
 20
88.4259206264371
 30
0.0
 10
94.66257933153744
 20
88.23839158372786
 30
0.0
 10
94.73046993915915
 20
88.1469826109443
 30
0.0
 10
94.82738696486673
 20
87.96860639003415
 30
0.0
 10
94.85619224375178
 20
87.88138448378797
 30
0.0
 10
94.85619224375178
 20
87.8002382752537
 30
0.0
  0
SPLINE
  5
90
330
1F
100
AcDbEntity
  8
0
  6
Continuous
 62
     7
370
    15
100
AcDbSpline
210
0.0
220
0.0
230
1.0
 70
     8
 71
     3
 72
    14
 73
    10
 74
     0
 42
0.00000001
 43
0.00000001
 40
0.0
 40
0.0
 40
0.0
 40
0.0
 40
0.1249999999999975
 40
0.1249999999999975
 40
0.249999999999995
 40
0.249999999999995
 40
0.4999999999999953
 40
0.4999999999999953
 40
1.0
 40
1.0
 40
1.0
 40
1.0
 10
93.4561922437512
 20
89.377506345171
 30
0.0
 10
93.50473665240837
 20
89.38325465845129
 30
0.0
 10
93.55765200719328
 20
89.38015376979506
 30
0.0
 10
93.65294735217633
 20
89.35795892563273
 30
0.0
 10
93.69319834946127
 20
89.34072669853687
 30
0.0
 10
93.79746836297424
 20
89.2843987820848
 30
0.0
 10
93.84779033812757
 20
89.240212436139
 30
0.0
 10
93.97547328565295
 20
89.10920453728838
 30
0.0
 10
94.03155873271521
 20
89.01897001705808
 30
0.0
 10
94.07790512583693
 20
88.9308244828922
 30
0.0
  0
SPLINE
  5
91
330
1F
100
AcDbEntity
  8
0
  6
Continuous
 62
     7
370
    15
100
AcDbSpline
210
0.0
220
0.0
230
1.0
 70
     8
 71
     3
 72
     8
 73
     4
 74
     0
 42
0.00000001
 43
0.00000001
 40
0.0
 40
0.0
 40
0.0
 40
0.0
 40
1.0
 40
1.0
 40
1.0
 40
1.0
 10
91.18766715080498
 20
89.06766105858821
 30
0.0
 10
91.92224417728794
 20
89.18628606965717
 30
0.0
 10
92.68571924668359
 20
89.28627194179344
 30
0.0
 10
93.4561922437512
 20
89.377506345171
 30
0.0
  0
SPLINE
  5
92
330
1F
100
AcDbEntity
  8
0
  6
Continuous
 62
     7
370
    15
100
AcDbSpline
210
0.0
220
0.0
230
1.0
 70
     8
 71
     3
 72
    14
 73
    10
 74
     0
 42
0.00000001
 43
0.00000001
 40
0.0
 40
0.0
 40
0.0
 40
0.0
 40
0.500000000000001
 40
0.500000000000001
 40
0.7500000000000004
 40
0.7500000000000004
 40
0.8750000000000003
 40
0.8750000000000003
 40
1.0
 40
1.0
 40
1.0
 40
1.0
 10
85.9061922437512
 20
88.89403804105656
 30
0.0
 10
86.79833837430479
 20
88.89331581485591
 30
0.0
 10
87.68831481009838
 20
88.89790202131337
 30
0.0
 10
89.01490997717399
 20
88.9256270257049
 30
0.0
 10
89.45575690567273
 20
88.93823356332908
 30
0.0
 10
90.11219714309514
 20
88.96924971133653
 30
0.0
 10
90.33021079968702
 20
88.9815928839633
 30
0.0
 10
90.7629196533698
 20
89.01461693912658
 30
0.0
 10
90.97819611853458
 20
89.03383410426503
 30
0.0
 10
91.187667150805
 20
89.06766105858821
 30
0.0
  0
SPLINE
  5
93
330
1F
100
AcDbEntity
  8
0
  6
Continuous
 62
     7
370
    15
100
AcDbSpline
210
0.0
220
0.0
230
1.0
 70
     8
 71
     3
 72
     8
 73
     4
 74
     0
 42
0.00000001
 43
0.00000001
 40
0.0000005163856998
 40
0.0000005163856998
 40
0.0000005163856998
 40
0.0000005163856998
 40
0.000026289209185
 40
0.000026289209185
 40
0.000026289209185
 40
0.000026289209185
 10
85.89614731334359
 20
88.90402191415333
 30
0.0
 10
85.89947505155143
 20
88.90068766728422
 30
0.0
 10
85.90282350452702
 20
88.89735971000891
 30
0.0
 10
85.90619224375118
 20
88.89403804105655
 30
0.0
  0
SPLINE
  5
94
330
1F
100
AcDbEntity
  8
0
  6
Continuous
 62
     7
370
    15
100
AcDbSpline
210
0.0
220
0.0
230
1.0
 70
     8
 71
     3
 72
     8
 73
     4
 74
     0
 42
0.00000001
 43
0.00000001
 40
0.0000005099763573
 40
0.0000005099763573
 40
0.0000005099763573
 40
0.0000005099763573
 40
0.0000262827998699
 40
0.0000262827998699
 40
0.0000262827998699
 40
0.0000262827998699
 10
85.90619224375118
 20
130.6339135718467
 30
0.0
 10
85.90282350452344
 20
130.6305919028908
 30
0.0
 10
85.8994750515443
 20
130.6272639456119
 30
0.0
 10
85.89614731333296
 20
130.6239296987393
 30
0.0
  0
SPLINE
  5
95
330
1F
100
AcDbEntity
  8
0
  6
Continuous
 62
     7
370
    15
100
AcDbSpline
210
0.0
220
0.0
230
1.0
 70
     8
 71
     3
 72
    10
 73
     6
 74
     0
 42
0.00000001
 43
0.00000001
 40
0.0
 40
0.0
 40
0.0
 40
0.0
 40
0.5
 40
0.5
 40
1.0
 40
1.0
 40
1.0
 40
1.0
 10
89.4561922437512
 20
130.5870631982794
 30
0.0
 10
88.86860669666062
 20
130.6081287185158
 30
0.0
 10
88.27786030320023
 20
130.618887204388
 30
0.0
 10
87.09384113790138
 20
130.6322519849237
 30
0.0
 10
86.50042714969591
 20
130.6343946275883
 30
0.0
 10
85.9061922437512
 20
130.6339135718467
 30
0.0
  0
SPLINE
  5
96
330
1F
100
AcDbEntity
  8
0
  6
Continuous
 62
     7
370
    15
100
AcDbSpline
210
0.0
220
0.0
230
1.0
 70
     8
 71
     3
 72
    18
 73
    14
 74
     0
 42
0.00000001
 43
0.00000001
 40
0.0
 40
0.0
 40
0.0
 40
0.0
 40
0.2500000000000009
 40
0.2500000000000009
 40
0.500000000000001
 40
0.500000000000001
 40
0.7500000000000011
 40
0.7500000000000011
 40
0.875000000000001
 40
0.875000000000001
 40
0.9375000000000006
 40
0.9375000000000006
 40
1.0
 40
1.0
 40
1.0
 40
1.0
 10
90.85619224375121
 20
131.6080834788146
 30
0.0
 10
90.85619224375121
 20
131.5248765699574
 30
0.0
 10
90.82034314381295
 20
131.4361399146439
 30
0.0
 10
90.69547140777904
 20
131.2540147240836
 30
0.0
 10
90.60507099013115
 20
131.158884675457
 30
0.0
 10
90.38282833538898
 20
130.9697031663327
 30
0.0
 10
90.25306354894322
 20
130.874757998238
 30
0.0
 10
90.0124260916317
 20
130.7364792906581
 30
0.0
 10
89.92465879349425
 20
130.6907688573556
 30
0.0
 10
89.77013470628745
 20
130.6329455521342
 30
0.0
 10
89.7135238202327
 20
130.6152307880963
 30
0.0
 10
89.58947978932609
 20
130.5906914848634
 30
0.0
 10
89.5217651143078
 20
130.5847123463251
 30
0.0
 10
89.4561922437512
 20
130.5870631982794
 30
0.0
  0
LINE
  5
97
330
1F
100
AcDbEntity
  8
0
  6
Continuous
 62
     7
370
    15
100
AcDbLine
 10
90.8561913676
 20
131.6080834641
 30
0.0
 11
90.8561913676
 21
132.7920216992
 31
0.0
  0
LINE
  5
98
330
1F
100
AcDbEntity
  8
0
  6
Continuous
 62
     7
370
    15
100
AcDbLine
 10
114.6561921488
 20
85.5435445829
 30
0.0
 11
114.6561921488
 21
133.98440703
 31
0.0
  0
SPLINE
  5
99
330
1F
100
AcDbEntity
  8
0
  6
Continuous
 62
     7
370
    15
100
AcDbSpline
210
0.0
220
0.0
230
1.0
 70
     8
 71
     3
 72
    24
 73
    20
 74
     0
 42
0.00000001
 43
0.00000001
 40
0.0
 40
0.0
 40
0.0
 40
0.0
 40
0.0010489815523775
 40
0.0637843212772741
 40
0.1272220630088516
 40
0.1903789073370505
 40
0.2526748662763491
 40
0.3146354150030102
 40
0.3770891884518245
 40
0.4393540587943444
 40
0.5008133488401828
 40
0.5621845177353679
 40
0.6248438462901906
 40
0.6874304788646655
 40
0.7496743245911356
 40
0.811984857412469
 40
0.8750960476811308
 40
0.9384412548145236
 40
1.0
 40
1.0
 40
1.0
 40
1.0
 10
103.4250982484781
 20
86.10646761200506
 30
0.0
 10
103.4246515827274
 20
86.10640896703859
 30
0.0
 10
103.3974916468038
 20
86.10284300405789
 30
0.0
 10
103.4931215699356
 20
86.1157076135331
 30
0.0
 10
103.7266747459561
 20
86.14494209587316
 30
0.0
 10
104.1222306981905
 20
86.19156130661457
 30
0.0
 10
104.6492706985605
 20
86.24174210603974
 30
0.0
 10
105.2928011403968
 20
86.28612077948279
 30
0.0
 10
106.0314749746665
 20
86.31306397599359
 30
0.0
 10
106.8289896447854
 20
86.31653572429572
 30
0.0
 10
107.6555686945499
 20
86.2889102780023
 30
0.0
 10
108.4810915159686
 20
86.23042913502366
 30
0.0
 10
109.2732179868842
 20
86.14498607162507
 30
0.0
 10
110.0057903657216
 20
86.04325090313256
 30
0.0
 10
110.6414305475423
 20
85.93540725208463
 30
0.0
 10
111.1633414780885
 20
85.83377585680981
 30
0.0
 10
111.5449703157275
 20
85.7512938925173
 30
0.0
 10
111.7957849916609
 20
85.69514178501039
 30
0.0
 10
111.8249063073681
 20
85.68829293409752
 30
0.0
 10
111.8392587087118
 20
85.68491748712141
 30
0.0
  0
SPLINE
  5
9A
330
1F
100
AcDbEntity
  8
0
  6
Continuous
 62
     7
370
    15
100
AcDbSpline
210
0.0
220
0.0
230
1.0
 70
     8
 71
     3
 72
    24
 73
    20
 74
     0
 42
0.00000001
 43
0.00000001
 40
0.0
 40
0.0
 40
0.0
 40
0.0
 40
0.061438429114026
 40
0.1250736777967296
 40
0.1884253375120635
 40
0.2508623992448768
 40
0.3129665476325514
 40
0.3753451442328022
 40
0.4377328732174486
 40
0.499092717251918
 40
0.560580729454827
 40
0.622946985474185
 40
0.6854686070210457
 40
0.7475477863222202
 40
0.8098225081553685
 40
0.873068419947611
 40
0.936404185690527
 40
0.9991757203144552
 40
1.0
 40
1.0
 40
1.0
 40
1.0
 10
111.8392042263412
 20
133.8430043234595
 30
0.0
 10
111.824603417889
 20
133.8396361655865
 30
0.0
 10
111.794879728038
 20
133.8327794165021
 30
0.0
 10
111.542141728052
 20
133.776441596606
 30
0.0
 10
111.1591464290309
 20
133.6935837837208
 30
0.0
 10
110.6367904721479
 20
133.5916770354997
 30
0.0
 10
110.0020061274463
 20
133.4838384656107
 30
0.0
 10
109.2717823908321
 20
133.3823722123817
 30
0.0
 10
108.481314295921
 20
133.2973101338144
 30
0.0
 10
107.6568305684633
 20
133.2391087768578
 30
0.0
 10
106.8297941879832
 20
133.2115243291733
 30
0.0
 10
106.0314697289928
 20
133.2150182577075
 30
0.0
 10
105.2916459779932
 20
133.2419719163811
 30
0.0
 10
104.6473911065336
 20
133.2863274169945
 30
0.0
 10
104.119984249436
 20
133.3365326007173
 30
0.0
 10
103.7253190091229
 20
133.3831400607625
 30
0.0
 10
103.4927903235347
 20
133.4123432376009
 30
0.0
 10
103.3974110948685
 20
133.4251013763181
 30
0.0
 10
103.4243440391953
 20
133.4215615463993
 30
0.0
 10
103.4246931231581
 20
133.4215156658657
 30
0.0
  0
SPLINE
  5
9B
330
1F
100
AcDbEntity
  8
0
  6
Continuous
 62
     7
370
    15
100
AcDbSpline
210
0.0
220
0.0
230
1.0
 70
     8
 71
     3
 72
    10
 73
     6
 74
     0
 42
0.00000001
 43
0.00000001
 40
0.0
 40
0.0
 40
0.0
 40
0.0
 40
0.0840381292075977
 40
0.7011132487654212
 40
1.0
 40
1.0
 40
1.0
 40
1.0
 10
84.76973757212988
 20
90.03520160160143
 30
0.0
 10
84.77041252633374
 20
90.03299630386482
 30
0.0
 10
84.77604353381933
 20
90.01459794736662
 30
0.0
 10
84.80236475235034
 20
90.02883001001565
 30
0.0
 10
84.8147983333185
 20
90.07451558135784
 30
0.0
 10
84.8188555247151
 20
90.08942320189554
 30
0.0
  0
LINE
  5
9C
330
1F
100
AcDbEntity
  8
0
  6
Continuous
 62
     7
370
    15
100
AcDbLine
 10
84.7561924166
 20
90.0732982828
 30
0.0
 11
84.7561924166
 21
129.4546533301
 31
0.0
  0
SPLINE
  5
9D
330
1F
100
AcDbEntity
  8
0
  6
Continuous
 62
     7
370
    15
100
AcDbSpline
210
0.0
220
0.0
230
1.0
 70
     8
 71
     3
 72
    10
 73
     6
 74
     0
 42
0.00000001
 43
0.00000001
 40
0.0
 40
0.0
 40
0.0
 40
0.0
 40
0.5
 40
0.5
 40
1.0
 40
1.0
 40
1.0
 40
1.0
 10
84.8188556184746
 20
129.4385283512324
 30
0.0
 10
84.80995132936586
 20
129.4842698704455
 30
0.0
 10
84.79343594917287
 20
129.5014607099145
 30
0.0
 10
84.76632800311127
 20
129.5011374329788
 30
0.0
 10
84.7561922437512
 20
129.4832598906824
 30
0.0
 10
84.7561922437512
 20
129.4546535529298
 30
0.0
  0
SPLINE
  5
9E
330
1F
100
AcDbEntity
  8
0
  6
Continuous
 62
     7
370
    15
100
AcDbSpline
210
0.0
220
0.0
230
1.0
 70
     8
 71
     3
 72
    26
 73
    22
 74
     0
 42
0.00000001
 43
0.00000001
 40
0.0
 40
0.0
 40
0.0
 40
0.0
 40
0.2500000000000165
 40
0.2500000000000165
 40
0.3750000000000256
 40
0.3750000000000256
 40
0.4375000000000291
 40
0.4375000000000291
 40
0.4687500000000291
 40
0.4687500000000291
 40
0.5000000000000292
 40
0.5000000000000292
 40
0.5312500000000293
 40
0.5312500000000293
 40
0.5625000000000293
 40
0.5625000000000293
 40
0.625000000000026
 40
0.625000000000026
 40
0.7500000000000173
 40
0.7500000000000173
 40
1.0
 40
1.0
 40
1.0
 40
1.0
 10
85.58034588985572
 20
130.1540951400495
 30
0.0
 10
85.54174536698724
 20
130.036320443694
 30
0.0
 10
85.49544836443299
 20
129.9119307575321
 30
0.0
 10
85.40150901599905
 20
129.7067114251786
 30
0.0
 10
85.3661975490856
 20
129.6351385587322
 30
0.0
 10
85.30001757333994
 20
129.5191853261317
 30
0.0
 10
85.27547920667169
 20
129.4786007913215
 30
0.0
 10
85.23210646111791
 20
129.4144591094497
 30
0.0
 10
85.2165980596927
 20
129.3925926841647
 30
0.0
 10
85.18155541510569
 20
129.3469984158215
 30
0.0
 10
85.16200512438591
 20
129.3233281248541
 30
0.0
 10
85.12007784401531
 20
129.2787115655141
 30
0.0
 10
85.09742573378368
 20
129.2578315529962
 30
0.0
 10
85.05645201969702
 20
129.2269581392454
 30
0.0
 10
85.03885271980161
 20
129.217119269413
 30
0.0
 10
84.99422573394547
 20
129.1981296537168
 30
0.0
 10
84.97366651129212
 20
129.1978053290634
 30
0.0
 10
84.92254107179546
 20
129.2070287699396
 30
0.0
 10
84.90162965880693
 20
129.2282756661565
 30
0.0
 10
84.85017975124599
 20
129.3022445449873
 30
0.0
 10
84.83251445194144
 20
129.3683626383021
 30
0.0
 10
84.8188556184746
 20
129.4385283512324
 30
0.0
  0
SPLINE
  5
9F
330
1F
100
AcDbEntity
  8
0
  6
Continuous
 62
     7
370
    15
100
AcDbSpline
210
0.0
220
0.0
230
1.0
 70
     8
 71
     3
 72
    10
 73
     6
 74
     0
 42
0.00000001
 43
0.00000001
 40
0.0
 40
0.0
 40
0.0
 40
0.0
 40
0.5
 40
0.5
 40
1.0
 40
1.0
 40
1.0
 40
1.0
 10
85.89614731333299
 20
130.6239296987393
 30
0.0
 10
85.82858805841474
 20
130.5562383059295
 30
0.0
 10
85.76495140307826
 20
130.4815311411759
 30
0.0
 10
85.65473064850642
 20
130.3225650087493
 30
0.0
 10
85.60791435528378
 20
130.2382097427412
 30
0.0
 10
85.58034588985572
 20
130.1540951400495
 30
0.0
  0
SPLINE
  5
A0
330
1F
100
AcDbEntity
  8
0
  6
Continuous
 62
     7
370
    15
100
AcDbSpline
210
0.0
220
0.0
230
1.0
 70
     8
 71
     3
 72
    10
 73
     6
 74
     0
 42
0.00000001
 43
0.00000001
 40
0.0
 40
0.0
 40
0.0
 40
0.0
 40
0.5
 40
0.5
 40
1.0
 40
1.0
 40
1.0
 40
1.0
 10
85.58034588985575
 20
89.37385647285366
 30
0.0
 10
85.60782330460972
 20
89.29001967638578
 30
0.0
 10
85.65453193489914
 20
89.20570918879663
 30
0.0
 10
85.76481039764509
 20
89.04658795830993
 30
0.0
 10
85.82869793625899
 20
88.97160321422028
 30
0.0
 10
85.8961473133436
 20
88.90402191415333
 30
0.0
  0
SPLINE
  5
A1
330
1F
100
AcDbEntity
  8
0
  6
Continuous
 62
     7
370
    15
100
AcDbSpline
210
0.0
220
0.0
230
1.0
 70
     8
 71
     3
 72
    24
 73
    20
 74
     0
 42
0.00000001
 43
0.00000001
 40
0.0
 40
0.0
 40
0.0
 40
0.0
 40
0.25
 40
0.25
 40
0.374999999999999
 40
0.374999999999999
 40
0.4374999999999993
 40
0.4374999999999993
 40
0.4687499999999994
 40
0.4687499999999994
 40
0.4999999999999995
 40
0.4999999999999995
 40
0.5624999999999971
 40
0.5624999999999971
 40
0.6249999999999947
 40
0.6249999999999947
 40
0.7499999999999947
 40
0.7499999999999947
 40
1.0
 40
1.0
 40
1.0
 40
1.0
 10
84.8188556184746
 20
90.08942326167089
 30
0.0
 10
84.83260873714485
 20
90.16007331966117
 30
0.0
 10
84.85038130455071
 20
90.2266714324261
 30
0.0
 10
84.90263239610607
 20
90.3007694526593
 30
0.0
 10
84.92366747168761
 20
90.32202725982086
 30
0.0
 10
84.97656787931606
 20
90.3301731859671
 30
0.0
 10
84.99767355219399
 20
90.32923338257133
 30
0.0
 10
85.04372572087193
 20
90.30821739099399
 30
0.0
 10
85.06209619285534
 20
90.29730858488637
 30
0.0
 10
85.10364782792104
 20
90.264673673939
 30
0.0
 10
85.12621450067795
 20
90.24318169356762
 30
0.0
 10
85.18899551713795
 20
90.17471574998132
 30
0.0
 10
85.22212527810585
 20
90.12864129177622
 30
0.0
 10
85.27904296459087
 20
90.04363340344156
 30
0.0
 10
85.30322899009465
 20
90.00335310226018
 30
0.0
 10
85.36843694047441
 20
89.88841687579422
 30
0.0
 10
85.40315300066564
 20
89.81783389064722
 30
0.0
 10
85.49636827099653
 20
89.61362813156862
 30
0.0
 10
85.5420408063572
 20
89.49072974924125
 30
0.0
 10
85.58034588985575
 20
89.37385647285367
 30
0.0
  0
SPLINE
  5
A2
330
1F
100
AcDbEntity
  8
0
  6
Continuous
 62
     7
370
    15
100
AcDbSpline
210
0.0
220
0.0
230
1.0
 70
     8
 71
     3
 72
     8
 73
     4
 74
     0
 42
0.00000001
 43
0.00000001
 40
0.0
 40
0.0
 40
0.0
 40
0.0
 40
1.0
 40
1.0
 40
1.0
 40
1.0
 10
138.0481250752403
 20
140.2311712796159
 30
0.0
 10
137.5529850458759
 20
139.3444916314356
 30
0.0
 10
137.0589023405969
 20
138.4572289957496
 30
0.0
 10
136.5661922437512
 20
137.5692099976232
 30
0.0
  0
LINE
  5
A3
330
1F
100
AcDbEntity
  8
0
  6
Continuous
 62
     7
370
    15
100
AcDbLine
 10
138.048124165
 20
134.2226654216
 30
0.0
 11
138.048124165
 21
140.2311712428
 31
0.0
  0
SPLINE
  5
A4
330
1F
100
AcDbEntity
  8
0
  6
Continuous
 62
     7
370
    15
100
AcDbSpline
210
0.0
220
0.0
230
1.0
 70
     8
 71
     3
 72
     8
 73
     4
 74
     0
 42
0.00000001
 43
0.00000001
 40
0.0
 40
0.0
 40
0.0
 40
0.0
 40
1.0
 40
1.0
 40
1.0
 40
1.0
 10
136.5661922437512
 20
130.8141194740349
 30
0.0
 10
137.045470394341
 20
131.9551307038875
 30
0.0
 10
137.541038233481
 20
133.0915151146554
 30
0.0
 10
138.0481250752403
 20
134.2226654688191
 30
0.0
  0
LINE
  5
A5
330
1F
100
AcDbEntity
  8
0
  6
Continuous
 62
     7
370
    15
100
AcDbLine
 10
136.5661925084
 20
130.8141197934
 30
0.0
 11
136.5661925084
 21
137.5692091807
 31
0.0
  0
SPLINE
  5
A6
330
1F
100
AcDbEntity
  8
0
  6
Continuous
 62
     7
370
    15
100
AcDbSpline
210
0.0
220
0.0
230
1.0
 70
     8
 71
     3
 72
     8
 73
     4
 74
     0
 42
0.00000001
 43
0.00000001
 40
0.0
 40
0.0
 40
0.0
 40
0.0
 40
1.0
 40
1.0
 40
1.0
 40
1.0
 10
132.7461922437512
 20
137.5692099976232
 30
0.0
 10
132.2534821469054
 20
138.4572289957496
 30
0.0
 10
131.7593994416265
 20
139.3444916314356
 30
0.0
 10
131.2642594122622
 20
140.2311712796159
 30
0.0
  0
LINE
  5
A7
330
1F
100
AcDbEntity
  8
0
  6
Continuous
 62
     7
370
    15
100
AcDbLine
 10
132.746192292
 20
130.8141197934
 30
0.0
 11
132.746192292
 21
137.5692091807
 31
0.0
  0
SPLINE
  5
A8
330
1F
100
AcDbEntity
  8
0
  6
Continuous
 62
     7
370
    15
100
AcDbSpline
210
0.0
220
0.0
230
1.0
 70
     8
 71
     3
 72
     8
 73
     4
 74
     0
 42
0.00000001
 43
0.00000001
 40
0.0
 40
0.0
 40
0.0
 40
0.0
 40
1.0
 40
1.0
 40
1.0
 40
1.0
 10
131.2642594122622
 20
134.2226654688191
 30
0.0
 10
131.7713462540214
 20
133.0915151146554
 30
0.0
 10
132.2669140931613
 20
131.9551307038876
 30
0.0
 10
132.7461922437512
 20
130.814119474035
 30
0.0
  0
SPLINE
  5
A9
330
1F
100
AcDbEntity
  8
0
  6
Continuous
 62
     7
370
    15
100
AcDbSpline
210
0.0
220
0.0
230
1.0
 70
     8
 71
     3
 72
    10
 73
     6
 74
     0
 42
0.00000001
 43
0.00000001
 40
0.0
 40
0.0
 40
0.0
 40
0.0
 40
0.5
 40
0.5
 40
1.0
 40
1.0
 40
1.0
 40
1.0
 10
142.6061922437512
 20
139.6104161302155
 30
0.0
 10
142.6061922437512
 20
139.7708213965664
 30
0.0
 10
142.5439544126443
 20
139.9298832095549
 30
0.0
 10
142.3248194889018
 20
140.1607956751853
 30
0.0
 10
142.1672307939099
 20
140.2311712796159
 30
0.0
 10
142.0061922437512
 20
140.2311712796159
 30
0.0
  0
SPLINE
  5
AA
330
1F
100
AcDbEntity
  8
0
  6
Continuous
 62
     7
370
    15
100
AcDbSpline
210
0.0
220
0.0
230
1.0
 70
     8
 71
     3
 72
    12
 73
     8
 74
     0
 42
0.00000001
 43
0.00000001
 40
0.0
 40
0.0
 40
0.0
 40
0.0
 40
0.250000000000002
 40
0.250000000000002
 40
0.500000000000004
 40
0.500000000000004
 40
1.0
 40
1.0
 40
1.0
 40
1.0
 10
142.0061922437512
 20
134.2226654688191
 30
0.0
 10
142.0973919655769
 20
134.2226654688191
 30
0.0
 10
142.1879869747129
 20
134.1944457702312
 30
0.0
 10
142.3413997011596
 20
134.1000027629831
 30
0.0
 10
142.4066085684832
 20
134.0337157862778
 30
0.0
 10
142.5593930978231
 20
133.8080909629895
 30
0.0
 10
142.6061922437512
 20
133.6256646999569
 30
0.0
 10
142.6061922437512
 20
133.44492806771
 30
0.0
  0
LINE
  5
AB
330
1F
100
AcDbEntity
  8
0
  6
Continuous
 62
     7
370
    15
100
AcDbLine
 10
142.6061919338
 20
133.4449272527
 30
0.0
 11
142.6061919338
 21
139.6104168072
 31
0.0
  0
LINE
  5
AC
330
1F
100
AcDbEntity
  8
0
  6
Continuous
 62
     7
370
    15
100
AcDbLine
 10
138.048124165
 20
134.2226654216
 30
0.0
 11
142.006192953
 21
134.2226654216
 31
0.0
  0
LINE
  5
AD
330
1F
100
AcDbEntity
  8
0
  6
Continuous
 62
     7
370
    15
100
AcDbLine
 10
136.5661925084
 20
129.8998422845
 30
0.0
 11
136.5661925084
 21
130.8141197934
 31
0.0
  0
LINE
  5
AE
330
1F
100
AcDbEntity
  8
0
  6
Continuous
 62
     7
370
    15
100
AcDbLine
 10
142.6061919338
 20
133.4449272527
 30
0.0
 11
142.6061919338
 21
129.6139765455
 31
0.0
  0
LINE
  5
AF
330
1F
100
AcDbEntity
  8
0
  6
Continuous
 62
     7
370
    15
100
AcDbLine
 10
132.746192292
 20
130.8141197934
 30
0.0
 11
132.746192292
 21
129.8998422845
 31
0.0
  0
LINE
  5
B0
330
1F
100
AcDbEntity
  8
0
  6
Continuous
 62
     7
370
    15
100
AcDbLine
 10
142.006192953
 20
140.2311712428
 30
0.0
 11
138.048124165
 21
140.2311712428
 31
0.0
  0
ARC
  5
B1
330
1F
100
AcDbEntity
  8
0
  6
Continuous
 62
     7
370
    15
100
AcDbCircle
 10
124.7554773751
 20
128.9012661086
 30
0.0
 40
6.809035572698185
100
AcDbArc
 50
70.3965700029
 51
90.8354779117
  0
ARC
  5
B2
330
1F
100
AcDbEntity
  8
0
  6
Continuous
 62
     7
370
    15
100
AcDbCircle
 10
124.556789528
 20
128.9024203319
 30
0.0
 40
6.807883199153169
100
AcDbArc
 50
89.1633845529
 51
109.6226642604
  0
LINE
  5
B3
330
1F
100
AcDbEntity
  8
0
  6
Continuous
 62
     7
370
    15
100
AcDbLine
 10
167.184476406
 20
92.7639748826
 30
0.0
 11
167.184476406
 21
126.7639767303
 31
0.0
  0
LINE
  5
B4
330
1F
100
AcDbEntity
  8
0
  6
Continuous
 62
     7
370
    15
100
AcDbLine
 10
211.6561910517
 20
98.1127569377
 30
0.0
 11
211.6561910517
 21
121.4151946752
 31
0.0
  0
LINE
  5
B5
330
1F
100
AcDbEntity
  8
0
  6
HIDDEN
 62
     7
370
     0
100
AcDbLine
 10
161.6561940319
 20
103.7639757543
 30
0.0
 11
161.6561940319
 21
115.7639758586
 31
0.0
  0
LINE
  5
B6
330
1F
100
AcDbEntity
  8
0
  6
HIDDEN
 62
     7
370
     0
100
AcDbLine
 10
146.6561915732
 20
103.7639757543
 30
0.0
 11
146.6561915732
 21
115.7639758586
 31
0.0
  0
LINE
  5
B7
330
1F
100
AcDbEntity
  8
0
  6
HIDDEN
 62
     7
370
     0
100
AcDbLine
 10
146.1561924226
 20
104.2639758363
 30
0.0
 11
146.1561924226
 21
115.2639757766
 31
0.0
  0
LINE
  5
B8
330
1F
100
AcDbEntity
  8
0
  6
HIDDEN
 62
     7
370
     0
100
AcDbLine
 10
166.1561919755
 20
108.2639757934
 30
0.0
 11
164.1561916477
 21
108.2639757934
 31
0.0
  0
LINE
  5
B9
330
1F
100
AcDbEntity
  8
0
  6
HIDDEN
 62
     7
370
     0
100
AcDbLine
 10
166.1561919755
 20
104.2639758363
 30
0.0
 11
166.1561919755
 21
108.2639757934
 31
0.0
  0
LINE
  5
BA
330
1F
100
AcDbEntity
  8
0
  6
HIDDEN
 62
     7
370
     0
100
AcDbLine
 10
166.1561919755
 20
111.2639758195
 30
0.0
 11
166.1561919755
 21
115.2639757766
 31
0.0
  0
LINE
  5
BB
330
1F
100
AcDbEntity
  8
0
  6
HIDDEN
 62
     7
370
     0
100
AcDbLine
 10
164.1561916477
 20
111.2639758195
 30
0.0
 11
166.1561919755
 21
111.2639758195
 31
0.0
  0
LINE
  5
BC
330
1F
100
AcDbEntity
  8
0
  6
HIDDEN
 62
     7
370
     0
100
AcDbLine
 10
164.1561916477
 20
108.2639757934
 30
0.0
 11
164.1561916477
 21
111.2639758195
 31
0.0
  0
LINE
  5
BD
330
1F
100
AcDbEntity
  8
0
  6
HIDDEN
 62
     7
370
     0
100
AcDbLine
 10
153.1561917073
 20
108.2639757934
 30
0.0
 11
153.1561917073
 21
109.7639758065
 31
0.0
  0
LINE
  5
BE
330
1F
100
AcDbEntity
  8
0
  6
HIDDEN
 62
     7
370
     0
100
AcDbLine
 10
159.1561926908
 20
111.2639758195
 30
0.0
 11
159.1561926908
 21
109.7639758065
 31
0.0
  0
LINE
  5
BF
330
1F
100
AcDbEntity
  8
0
  6
HIDDEN
 62
     7
370
     0
100
AcDbLine
 10
153.1561917073
 20
109.7639758065
 30
0.0
 11
146.1561924226
 21
109.7639758065
 31
0.0
  0
LINE
  5
C0
330
1F
100
AcDbEntity
  8
0
  6
HIDDEN
 62
     7
370
     0
100
AcDbLine
 10
153.1561917073
 20
109.7639758065
 30
0.0
 11
153.1561917073
 21
111.2639758195
 31
0.0
  0
LINE
  5
C1
330
1F
100
AcDbEntity
  8
0
  6
HIDDEN
 62
     7
370
     0
100
AcDbLine
 10
159.1561926908
 20
109.7639758065
 30
0.0
 11
159.1561926908
 21
108.2639757934
 31
0.0
  0
LINE
  5
C2
330
1F
100
AcDbEntity
  8
0
  6
HIDDEN
 62
     7
370
     0
100
AcDbLine
 10
159.1561926908
 20
109.7639758065
 30
0.0
 11
164.1561916477
 21
109.7639758065
 31
0.0
  0
LINE
  5
C3
330
1F
100
AcDbEntity
  8
0
  6
HIDDEN
 62
     7
370
     0
100
AcDbLine
 10
159.1561926908
 20
112.7639758325
 30
0.0
 11
159.1561926908
 21
111.2639758195
 31
0.0
  0
LINE
  5
C4
330
1F
100
AcDbEntity
  8
0
  6
HIDDEN
 62
     7
370
     0
100
AcDbLine
 10
159.1561926908
 20
108.2639757934
 30
0.0
 11
159.1561926908
 21
106.7639757804
 31
0.0
  0
LINE
  5
C5
330
1F
100
AcDbEntity
  8
0
  6
HIDDEN
 62
     7
370
     0
100
AcDbLine
 10
153.1561917073
 20
106.7639757804
 30
0.0
 11
153.1561917073
 21
108.2639757934
 31
0.0
  0
LINE
  5
C6
330
1F
100
AcDbEntity
  8
0
  6
HIDDEN
 62
     7
370
     0
100
AcDbLine
 10
153.1561917073
 20
111.2639758195
 30
0.0
 11
153.1561917073
 21
112.7639758325
 31
0.0
  0
LINE
  5
C7
330
1F
100
AcDbEntity
  8
0
  6
HIDDEN
 62
     7
370
     0
100
AcDbLine
 10
153.1561917073
 20
112.7639758325
 30
0.0
 11
146.1561924226
 21
112.7639758325
 31
0.0
  0
LINE
  5
C8
330
1F
100
AcDbEntity
  8
0
  6
HIDDEN
 62
     7
370
     0
100
AcDbLine
 10
159.1561926908
 20
106.7639757804
 30
0.0
 11
166.1561919755
 21
106.7639757804
 31
0.0
  0
LINE
  5
C9
330
1F
100
AcDbEntity
  8
0
  6
HIDDEN
 62
     7
370
     0
100
AcDbLine
 10
159.1561926908
 20
112.7639758325
 30
0.0
 11
166.1561919755
 21
112.7639758325
 31
0.0
  0
LINE
  5
CA
330
1F
100
AcDbEntity
  8
0
  6
HIDDEN
 62
     7
370
     0
100
AcDbLine
 10
153.1561917073
 20
106.7639757804
 30
0.0
 11
146.1561924226
 21
106.7639757804
 31
0.0
  0
LINE
  5
CB
330
1F
100
AcDbEntity
  8
0
  6
HIDDEN
 62
     7
370
     0
100
AcDbLine
 10
131.2642597041
 20
134.2226654216
 30
0.0
 11
131.2642597041
 21
129.6139765455
 31
0.0
  0
LWPOLYLINE
  5
CC
330
1F
100
AcDbEntity
  8
0
  6
HIDDEN
 62
     7
370
     0
100
AcDbPolyline
 90
       20
 70
   128
 43
0.0
 10
128.5364838696
 20
123.0233112275
 10
128.6100658036
 20
122.6976090967
 10
128.6510579667
 20
121.9774015172
 10
128.5285005725
 20
121.2645839824
 10
128.2474106557
 20
120.5883404165
 10
127.819295638
 20
119.9763543828
 10
127.2616820789
 20
119.4536831155
 10
126.5974004201
 20
119.0417218878
 10
125.8536443493
 20
118.7573388144
 10
125.0608653209
 20
118.6121763586
 10
124.2515189952
 20
118.6121763586
 10
123.4587399668
 20
118.7573388144
 10
122.7149843617
 20
119.0417218878
 10
122.0507022372
 20
119.4536831155
 10
121.4930891438
 20
119.9763543828
 10
121.0649741261
 20
120.5883404165
 10
120.7838837436
 20
121.2645839824
 10
120.6613263494
 20
121.9774015172
 10
120.7023189782
 20
122.6976090967
 10
120.7745733119
 20
123.0185726582
  0
LINE
  5
CD
330
1F
100
AcDbEntity
  8
0
  6
HIDDEN
 62
     7
370
     0
100
AcDbLine
 10
104.6513427428
 20
86.2393766566
 30
0.0
 11
104.4024775184
 21
86.2161140814
 31
0.0
  0
LINE
  5
CE
330
1F
100
AcDbEntity
  8
0
  6
HIDDEN
 62
     7
370
     0
100
AcDbLine
 10
104.2699167884
 20
133.3240620717
 30
0.0
 11
104.6512496105
 21
133.2885581925
 31
0.0
  0
SPLINE
  5
CF
330
1F
100
AcDbEntity
  8
0
  6
HIDDEN
 62
     7
370
     0
100
AcDbSpline
210
0.0
220
0.0
230
1.0
 70
     8
 71
     3
 72
    22
 73
    18
 74
     0
 42
0.00000001
 43
0.00000001
 40
0.0
 40
0.0
 40
0.0
 40
0.0
 40
0.0694705205686055
 40
0.1409377331649949
 40
0.2104135932234474
 40
0.2819466554347119
 40
0.3506518590239928
 40
0.4213898075947659
 40
0.4894670079785227
 40
0.559481139205132
 40
0.6282707070598401
 40
0.6989997640116924
 40
0.7687375463058662
 40
0.8405098058647738
 40
0.9099666327908917
 40
0.9814998906941905
 40
1.0
 40
1.0
 40
1.0
 40
1.0
 10
110.4111942841672
 20
89.92644733927328
 30
0.0
 10
110.2630203714381
 20
89.94617346617791
 30
0.0
 10
109.962413794673
 20
89.98619267990063
 30
0.0
 10
109.4275188161162
 20
90.04156567192155
 30
0.0
 10
108.8418803532655
 20
90.0860247690953
 30
0.0
 10
108.2276476567064
 20
90.11370889284343
 30
0.0
 10
107.5937310595126
 20
90.12196145798113
 30
0.0
 10
106.9715824441069
 20
90.10998052773266
 30
0.0
 10
106.365584749671
 20
90.07923265642678
 30
0.0
 10
105.8010957343051
 20
90.03376363258698
 30
0.0
 10
105.2817197899271
 20
89.97768272074035
 30
0.0
 10
104.8288539708743
 20
89.9176940759362
 30
0.0
 10
104.4501391234465
 20
89.85971354005576
 30
0.0
 10
104.1620544286414
 20
89.81079376892005
 30
0.0
 10
103.979595296333
 20
89.77775853183317
 30
0.0
 10
103.8989388117335
 20
89.76261975639227
 30
0.0
 10
103.9132280017899
 20
89.76529172383704
 30
0.0
 10
103.9161641529762
 20
89.76584076128084
 30
0.0
  0
SPLINE
  5
D0
330
1F
100
AcDbEntity
  8
0
  6
HIDDEN
 62
     7
370
     0
100
AcDbSpline
210
0.0
220
0.0
230
1.0
 70
     8
 71
     3
 72
    30
 73
    26
 74
     0
 42
0.00000001
 43
0.00000001
 40
0.0
 40
0.0
 40
0.0
 40
0.0
 40
0.0156161599134492
 40
0.0849748354430979
 40
0.1203204707274447
 40
0.1543185374002934
 40
0.2234436738941646
 40
0.2586467327159568
 40
0.2931107352539268
 40
0.3631864008633959
 40
0.3988795402369778
 40
0.4336750588357229
 40
0.4687146119081173
 40
0.5045294366644589
 40
0.5406150942464
 40
0.5750767691290661
 40
0.6452033550959662
 40
0.6809575540931957
 40
0.7149323054552074
 40
0.7840330493487319
 40
0.8192378352640541
 40
0.8533346902847149
 40
0.9226550316361518
 40
0.9579547206872956
 40
1.0
 40
1.0
 40
1.0
 40
1.0
 10
103.909309618827
 20
129.7633923514851
 30
0.0
 10
103.9087117996505
 20
129.763504187304
 30
0.0
 10
103.9054587856936
 20
129.7641127383412
 30
0.0
 10
103.9557797044768
 20
129.7546564587716
 30
0.0
 10
104.056085651768
 20
129.736350940979
 30
0.0
 10
104.1907027926788
 20
129.7123674805981
 30
0.0
 10
104.3727601354928
 20
129.6812678477399
 30
0.0
 10
104.5996839271443
 20
129.6453490479761
 30
0.0
 10
104.8562697010883
 20
129.6070288559798
 30
0.0
 10
105.1543063856277
 20
129.5667867262644
 30
0.0
 10
105.48685603985
 20
129.5281240718427
 30
0.0
 10
105.7520534477351
 20
129.500721328197
 30
0.0
 10
106.0311116240463
 20
129.475675316231
 30
0.0
 10
106.3255625736578
 20
129.4535103563495
 30
0.0
 10
106.6284272781093
 20
129.4353463280033
 30
0.0
 10
107.0388131799648
 20
129.41708984174
 30
0.0
 10
107.4596540376409
 20
129.4082416925128
 30
0.0
 10
107.8795579246722
 20
129.4097077517554
 30
0.0
 10
108.2941725005272
 20
129.4177494926437
 30
0.0
 10
108.7003936107426
 20
129.4352575574122
 30
0.0
 10
109.0899242042955
 20
129.4608224594969
 30
0.0
 10
109.4667449311293
 20
129.4910062057039
 30
0.0
 10
109.8198819969734
 20
129.5269057927223
 30
0.0
 10
110.1616337869657
 20
129.5677226479386
 30
0.0
 10
110.3233073669821
 20
129.5896075072234
 30
0.0
 10
110.4111942841672
 20
129.60150427363
 30
0.0
  0
SPLINE
  5
D1
330
1F
100
AcDbEntity
  8
0
  6
HIDDEN
 62
     7
370
     0
100
AcDbSpline
210
0.0
220
0.0
230
1.0
 70
     8
 71
     3
 72
    15
 73
    11
 74
     0
 42
0.00000001
 43
0.00000001
 40
0.0
 40
0.0
 40
0.0
 40
0.0
 40
0.1100544707655662
 40
0.220883012580302
 40
0.3341391370123754
 40
0.4482297160879501
 40
0.5583072266301214
 40
0.7821684842501263
 40
0.8962129084113103
 40
1.0
 40
1.0
 40
1.0
 40
1.0
 10
110.4111942841672
 20
129.60150427363
 30
0.0
 10
110.478788340119
 20
129.6105722240321
 30
0.0
 10
110.6144518766141
 20
129.6287719045067
 30
0.0
 10
110.7948972408715
 20
129.6494936967394
 30
0.0
 10
110.9570454990426
 20
129.6662334224975
 30
0.0
 10
111.0950968893974
 20
129.6788140623848
 30
0.0
 10
111.2467373966954
 20
129.6911968603636
 30
0.0
 10
111.348186084979
 20
129.6981514179677
 30
0.0
 10
111.3996113709303
 20
129.7014507589905
 30
0.0
 10
111.4035668408117
 20
129.7016950475178
 30
0.0
 10
111.4054514474236
 20
129.7018114402064
 30
0.0
  0
SPLINE
  5
D2
330
1F
100
AcDbEntity
  8
0
  6
HIDDEN
 62
     7
370
     0
100
AcDbSpline
210
0.0
220
0.0
230
1.0
 70
     8
 71
     3
 72
    13
 73
     9
 74
     0
 42
0.00000001
 43
0.00000001
 40
0.0
 40
0.0
 40
0.0
 40
0.0
 40
0.1180961449212076
 40
0.3464509273395664
 40
0.5686770080251284
 40
0.7974001115623104
 40
0.8984021682883852
 40
0.9999999999999999
 40
0.9999999999999999
 40
0.9999999999999999
 40
0.9999999999999999
 10
111.3933880261146
 20
89.82690385720808
 30
0.0
 10
111.3955199469955
 20
89.8267668851437
 30
0.0
 10
111.4017742236841
 20
89.82636505916746
 30
0.0
 10
111.2967786027407
 20
89.83308907806837
 30
0.0
 10
111.0881620756409
 20
89.84907427712932
 30
0.0
 10
110.8343901133751
 20
89.87368886926437
 30
0.0
 10
110.5983120306377
 20
89.90127689426176
 30
0.0
 10
110.4736890237952
 20
89.91804075872714
 30
0.0
 10
110.4111942841672
 20
89.92644733927328
 30
0.0
  0
LINE
  5
D3
330
1F
100
AcDbEntity
  8
0
  6
HIDDEN
 62
     7
370
     0
100
AcDbLine
 10
97.6601677394
 20
92.7639748826
 30
0.0
 11
97.6601677394
 21
126.7639767303
 31
0.0
  0
LWPOLYLINE
  5
D4
330
1F
100
AcDbEntity
  8
0
  6
HIDDEN
 62
     7
370
     0
100
AcDbPolyline
 90
       26
 70
   128
 43
0.0
 10
127.0399630449
 20
135.3156320675
 10
127.5553634769
 20
135.0875120535
 10
128.0507693446
 20
134.7675058915
 10
128.4072004638
 20
134.4041895046
 10
128.6100658036
 20
134.0124342515
 10
128.6510579667
 20
133.6082793697
 10
128.5285005725
 20
133.2082725986
 10
128.2474106557
 20
132.8287903144
 10
127.819295638
 20
132.4853669777
 10
127.2616820789
 20
132.192061834
 10
126.5974004201
 20
131.9608852192
 10
125.8536443493
 20
131.8012993707
 10
125.0608653209
 20
131.7198403104
 10
124.2515189952
 20
131.7198403104
 10
123.4587399668
 20
131.8012993707
 10
122.7149843617
 20
131.9608852192
 10
122.0507022372
 20
132.192061834
 10
121.4930891438
 20
132.4853669777
 10
121.0649741261
 20
132.8287903144
 10
120.7838837436
 20
133.2082725986
 10
120.6613263494
 20
133.6082793697
 10
120.7023189782
 20
134.0124342515
 10
120.9051838524
 20
134.4041895046
 10
121.2616154372
 20
134.7675058915
 10
121.7570213049
 20
135.0875120535
 10
122.2705376714
 20
135.3149335756
  0
SPLINE
  5
D5
330
1F
100
AcDbEntity
  8
0
  6
HIDDEN
 62
     7
370
     0
100
AcDbSpline
210
0.0
220
0.0
230
1.0
 70
     8
 71
     3
 72
     8
 73
     4
 74
     0
 42
0.00000001
 43
0.00000001
 40
0.0
 40
0.0
 40
0.0
 40
0.0
 40
0.0011559732291308
 40
0.0011559732291308
 40
0.0011559732291308
 40
0.0011559732291308
 10
84.7561922437512
 20
111.7638164250843
 30
0.0
 10
85.08952681881853
 20
111.759849145285
 30
0.0
 10
85.42285800984527
 20
111.7556692627084
 30
0.0
 10
85.7561922437512
 20
111.7511041093006
 30
0.0
  0
SPLINE
  5
D6
330
1F
100
AcDbEntity
  8
0
  6
HIDDEN
 62
     7
370
     0
100
AcDbSpline
210
0.0
220
0.0
230
1.0
 70
     8
 71
     3
 72
    11
 73
     7
 74
     0
 42
0.00000001
 43
0.00000001
 40
0.0
 40
0.0
 40
0.0
 40
0.0
 40
0.0005782382535738
 40
0.0005782382535738
 40
0.0005782382535738
 40
0.0011564766069467
 40
0.0011564766069467
 40
0.0011564766069467
 40
0.0011564766069467
 10
85.7561922437512
 20
107.7672755042334
 30
0.0
 10
85.58953828978258
 20
107.7668379264718
 30
0.0
 10
85.42287761758061
 20
107.7663578617993
 30
0.0
 10
85.2562107289152
 20
107.76583832243
 30
0.0
 10
85.08954381051915
 20
107.765318782968
 30
0.0
 10
84.9228706806859
 20
107.7647599539461
 30
0.0
 10
84.7561922437512
 20
107.764174410363
 30
0.0
  0
LINE
  5
D7
330
1F
100
AcDbEntity
  8
0
  6
HIDDEN
 62
     7
370
     0
100
AcDbLine
 10
124.3160182058
 20
92.7639748826
 30
0.0
 11
124.3160182058
 21
126.7639767303
 31
0.0
  0
LINE
  5
D8
330
1F
100
AcDbEntity
  8
0
  6
HIDDEN
 62
     7
370
     0
100
AcDbLine
 10
126.6061921052
 20
94.0389759763
 30
0.0
 11
126.6061921052
 21
125.4889756366
 31
0.0
  0
SPLINE
  5
D9
330
1F
100
AcDbEntity
  8
0
  6
HIDDEN
 62
     7
370
     0
100
AcDbSpline
210
0.0
220
0.0
230
1.0
 70
     8
 71
     3
 72
    16
 73
    12
 74
     0
 42
0.00000001
 43
0.00000001
 40
0.0
 40
0.0
 40
0.0
 40
0.0
 40
0.124999999999998
 40
0.124999999999998
 40
0.249999999999996
 40
0.249999999999996
 40
0.4999999999999973
 40
0.4999999999999973
 40
0.7499999999999987
 40
0.7499999999999987
 40
1.0
 40
1.0
 40
1.0
 40
1.0
 10
93.4561922437512
 20
93.96248537041997
 30
0.0
 10
93.55131399841704
 20
93.96248537041997
 30
0.0
 10
93.64464406714511
 20
93.95866953702716
 30
0.0
 10
93.82790582788311
 20
93.94389898429736
 30
0.0
 10
93.91878354344011
 20
93.93274093632178
 30
0.0
 10
94.17558524095986
 20
93.89026966618006
 30
0.0
 10
94.33065260583184
 20
93.84922346897726
 30
0.0
 10
94.58439906738647
 20
93.75407735239537
 30
0.0
 10
94.68526951905433
 20
93.69931461831379
 30
0.0
 10
94.82051593374916
 20
93.5880534944099
 30
0.0
 10
94.85619224375121
 20
93.53088375708123
 30
0.0
 10
94.85619224375121
 20
93.4764621840475
 30
0.0
  0
SPLINE
  5
DA
330
1F
100
AcDbEntity
  8
0
  6
HIDDEN
 62
     7
370
     0
100
AcDbSpline
210
0.0
220
0.0
230
1.0
 70
     8
 71
     3
 72
     8
 73
     4
 74
     0
 42
0.00000001
 43
0.00000001
 40
0.0
 40
0.0
 40
0.0
 40
0.0
 40
1.0
 40
1.0
 40
1.0
 40
1.0
 10
86.05619224375226
 20
96.1072883165022
 30
0.0
 10
86.05619224375415
 20
95.22339117418527
 30
0.0
 10
86.04271161784466
 20
94.50880792912334
 30
0.0
 10
86.0413602496536
 20
93.96248537041998
 30
0.0
  0
SPLINE
  5
DB
330
1F
100
AcDbEntity
  8
0
  6
HIDDEN
 62
     7
370
     0
100
AcDbSpline
210
0.0
220
0.0
230
1.0
 70
     8
 71
     3
 72
    10
 73
     6
 74
     0
 42
0.00000001
 43
0.00000001
 40
0.0
 40
0.0
 40
0.0
 40
0.0
 40
0.5
 40
0.5
 40
1.0
 40
1.0
 40
1.0
 40
1.0
 10
85.7561922437512
 20
97.13219857579753
 30
0.0
 10
85.84758335839037
 20
96.95755978925109
 30
0.0
 10
85.9202351914307
 20
96.78395796310465
 30
0.0
 10
86.02773408325099
 20
96.44034454626343
 30
0.0
 10
86.0561922437467
 20
96.27201872077887
 30
0.0
 10
86.0561922437523
 20
96.1072883165617
 30
0.0
  0
LINE
  5
DC
330
1F
100
AcDbEntity
  8
0
  6
HIDDEN
 62
     7
370
     0
100
AcDbLine
 10
85.7561925805
 20
100.1631492674
 30
0.0
 11
85.7561925805
 21
97.1321981325
 31
0.0
  0
SPLINE
  5
DD
330
1F
100
AcDbEntity
  8
0
  6
HIDDEN
 62
     7
370
     0
100
AcDbSpline
210
0.0
220
0.0
230
1.0
 70
     8
 71
     3
 72
    10
 73
     6
 74
     0
 42
0.00000001
 43
0.00000001
 40
0.0
 40
0.0
 40
0.0
 40
0.0
 40
0.5
 40
0.5
 40
1.0
 40
1.0
 40
1.0
 40
1.0
 10
86.05619224371465
 20
101.5309894308088
 30
0.0
 10
86.05619224371465
 20
101.2890054646368
 30
0.0
 10
86.02804221496847
 20
101.0546630370176
 30
0.0
 10
85.92445230199776
 20
100.5992880172828
 30
0.0
 10
85.84782359323609
 20
100.3776834554007
 30
0.0
 10
85.75619224375122
 20
100.1631490216913
 30
0.0
  0
LINE
  5
DE
330
1F
100
AcDbEntity
  8
0
  6
HIDDEN
 62
     7
370
     0
100
AcDbLine
 10
86.0561920709
 20
113.3686095401
 30
0.0
 11
86.0561920709
 21
101.5309892519
 31
0.0
  0
SPLINE
  5
DF
330
1F
100
AcDbEntity
  8
0
  6
HIDDEN
 62
     7
370
     0
100
AcDbSpline
210
0.0
220
0.0
230
1.0
 70
     8
 71
     3
 72
     8
 73
     4
 74
     0
 42
0.00000001
 43
0.00000001
 40
0.0
 40
0.0
 40
0.0
 40
0.0
 40
1.0
 40
1.0
 40
1.0
 40
1.0
 10
85.75619224375122
 20
119.3709151197308
 30
0.0
 10
85.93722370841819
 20
118.9388076363194
 30
0.0
 10
86.05619224372039
 20
118.484662232743
 30
0.0
 10
86.05619224371468
 20
117.9969621820636
 30
0.0
  0
LINE
  5
E0
330
1F
100
AcDbEntity
  8
0
  6
HIDDEN
 62
     7
370
     0
100
AcDbLine
 10
85.7561925805
 20
122.4041176885
 30
0.0
 11
85.7561925805
 21
119.3709155469
 31
0.0
  0
SPLINE
  5
E1
330
1F
100
AcDbEntity
  8
0
  6
HIDDEN
 62
     7
370
     0
100
AcDbSpline
210
0.0
220
0.0
230
1.0
 70
     8
 71
     3
 72
    10
 73
     6
 74
     0
 42
0.00000001
 43
0.00000001
 40
0.0
 40
0.0
 40
0.0
 40
0.0
 40
0.5
 40
0.5
 40
1.0
 40
1.0
 40
1.0
 40
1.0
 10
86.05619224385634
 20
123.4206632963715
 30
0.0
 10
86.05619224385455
 20
123.2560269507782
 30
0.0
 10
86.02903357342967
 20
123.0888717279918
 30
0.0
 10
85.92326857937017
 20
122.7502487223296
 30
0.0
 10
85.84685379184937
 20
122.577976946173
 30
0.0
 10
85.75619224375123
 20
122.4041181199225
 30
0.0
  0
SPLINE
  5
E2
330
1F
100
AcDbEntity
  8
0
  6
HIDDEN
 62
     7
370
     0
100
AcDbSpline
210
0.0
220
0.0
230
1.0
 70
     8
 71
     3
 72
    18
 73
    14
 74
     0
 42
0.00000001
 43
0.00000001
 40
0.0
 40
0.0
 40
0.0
 40
0.0
 40
0.2500000000000033
 40
0.2500000000000033
 40
0.3750000000000029
 40
0.3750000000000029
 40
0.5000000000000026
 40
0.5000000000000026
 40
0.6250000000000022
 40
0.6250000000000022
 40
0.7500000000000018
 40
0.7500000000000018
 40
1.0
 40
1.0
 40
1.0
 40
1.0
 10
90.85619224375121
 20
126.0514894288557
 30
0.0
 10
90.8561922437512
 20
125.9970149083036
 30
0.0
 10
90.82128155235903
 20
125.9406338489511
 30
0.0
 10
90.71927225102598
 20
125.8565570080976
 30
0.0
 10
90.67763589634787
 20
125.8292233041067
 30
0.0
 10
90.57923010085912
 20
125.7762693885077
 30
0.0
 10
90.52168688915485
 20
125.7503820347905
 30
0.0
 10
90.3943887155819
 20
125.7026044899573
 30
0.0
 10
90.32480141082442
 20
125.6806565717794
 30
0.0
 10
90.17336716566948
 20
125.6412240068667
 30
0.0
 10
90.09068326257552
 20
125.6236677576408
 30
0.0
 10
89.83457180053747
 20
125.5812289922203
 30
0.0
 10
89.64665679664948
 20
125.5654662424833
 30
0.0
 10
89.4561922437512
 20
125.5654662424833
 30
0.0
  0
LINE
  5
E3
330
1F
100
AcDbEntity
  8
0
  6
HIDDEN
 62
     7
370
     0
100
AcDbLine
 10
89.4561918831
 20
125.5654670223
 30
0.0
 11
86.0561920709
 21
125.5654670223
 31
0.0
  0
LINE
  5
E4
330
1F
100
AcDbEntity
  8
0
  6
HIDDEN
 62
     7
370
     0
100
AcDbLine
 10
85.987223909
 20
93.9624845906
 30
0.0
 11
93.4561925388
 21
93.9624845906
 31
0.0
  0
SPLINE
  5
E5
330
1F
100
AcDbEntity
  8
0
  6
HIDDEN
 62
     7
370
     0
100
AcDbSpline
210
0.0
220
0.0
230
1.0
 70
     8
 71
     3
 72
    22
 73
    18
 74
     0
 42
0.00000001
 43
0.00000001
 40
0.0
 40
0.0
 40
0.0
 40
0.0
 40
0.125
 40
0.125
 40
0.2499999999999999
 40
0.2499999999999999
 40
0.5000000000000003
 40
0.5000000000000003
 40
0.5625000000000004
 40
0.5625000000000004
 40
0.6250000000000006
 40
0.6250000000000006
 40
0.7500000000000004
 40
0.7500000000000004
 40
0.8750000000000002
 40
0.8750000000000002
 40
1.0
 40
1.0
 40
1.0
 40
1.0
 10
85.9872232571091
 20
93.96248537041997
 30
0.0
 10
85.97414086438071
 20
94.21759108056764
 30
0.0
 10
85.9609213009409
 20
94.51074933967155
 30
0.0
 10
85.93847412314679
 20
95.17304980529636
 30
0.0
 10
85.92899565612232
 20
95.54332372590774
 30
0.0
 10
85.90979769518582
 20
96.76588052902152
 30
0.0
 10
85.91091146818269
 20
97.7030194551534
 30
0.0
 10
85.92982226113574
 20
99.02289068466838
 30
0.0
 10
85.93445178899474
 20
99.29439259364469
 30
0.0
 10
85.94493300874068
 20
99.85277742844697
 30
0.0
 10
85.95072827002512
 20
100.1399002843866
 30
0.0
 10
85.96903749093005
 20
101.0124895387583
 30
0.0
 10
85.98307242521042
 20
101.6129452151141
 30
0.0
 10
86.01252959734725
 20
102.8504197076102
 30
0.0
 10
86.02808528832881
 20
103.4874358642537
 30
0.0
 10
86.05187983832572
 20
104.7989244619382
 30
0.0
 10
86.05989889047108
 20
105.4750470735987
 30
0.0
 10
86.05619224375118
 20
106.1593421848835
 30
0.0
  0
LINE
  5
E6
330
1F
100
AcDbEntity
  8
0
  6
HIDDEN
 62
     7
370
     0
100
AcDbLine
 10
86.0561920709
 20
113.3686095401
 30
0.0
 11
86.0561920709
 21
125.5654670223
 31
0.0
  0
SPLINE
  5
E7
330
1F
100
AcDbEntity
  8
0
  6
HIDDEN
 62
     7
370
     0
100
AcDbSpline
210
0.0
220
0.0
230
1.0
 70
     8
 71
     3
 72
    10
 73
     6
 74
     0
 42
0.00000001
 43
0.00000001
 40
0.0
 40
0.0
 40
0.0
 40
0.0
 40
0.5
 40
0.5
 40
1.0
 40
1.0
 40
1.0
 40
1.0
 10
86.05619224375118
 20
106.1593421848685
 30
0.0
 10
86.05619224375101
 20
106.4332573329425
 30
0.0
 10
86.03043301388219
 20
106.7041989116722
 30
0.0
 10
85.92722708114879
 20
107.2398899932743
 30
0.0
 10
85.84988891727438
 20
107.5056367967961
 30
0.0
 10
85.75619224375122
 20
107.7672755042334
 30
0.0
  0
SPLINE
  5
E8
330
1F
100
AcDbEntity
  8
0
  6
HIDDEN
 62
     7
370
     0
100
AcDbSpline
210
0.0
220
0.0
230
1.0
 70
     8
 71
     3
 72
    10
 73
     6
 74
     0
 42
0.00000001
 43
0.00000001
 40
0.0
 40
0.0
 40
0.0
 40
0.0
 40
0.5
 40
0.5
 40
1.0
 40
1.0
 40
1.0
 40
1.0
 10
85.7561922437512
 20
111.7511041093007
 30
0.0
 10
85.84942282410232
 20
112.0149979158989
 30
0.0
 10
85.92445243563104
 20
112.2811782249973
 30
0.0
 10
86.02951953361054
 20
112.8195007968159
 30
0.0
 10
86.05619224385516
 20
113.0922489114316
 30
0.0
 10
86.05619224385633
 20
113.3686094280187
 30
0.0
  0
LINE
  5
E9
330
1F
100
AcDbEntity
  8
0
  6
HIDDEN
 62
     7
370
     0
100
AcDbLine
 10
85.7561925805
 20
107.7672756202
 30
0.0
 11
85.7561925805
 21
111.7511040921
 31
0.0
  0
LINE
  5
EA
330
1F
100
AcDbEntity
  8
0
  6
HIDDEN
 62
     7
370
     0
100
AcDbLine
 10
85.9061913944
 20
91.7739752605
 30
0.0
 11
85.9061913944
 21
88.8940371498
 31
0.0
  0
LINE
  5
EB
330
1F
100
AcDbEntity
  8
0
  6
HIDDEN
 62
     7
370
     0
100
AcDbLine
 10
94.8561920232
 20
91.7739752605
 30
0.0
 11
94.8561920232
 21
87.8002379014
 31
0.0
  0
LINE
  5
EC
330
1F
100
AcDbEntity
  8
0
  6
HIDDEN
 62
     7
370
     0
100
AcDbLine
 10
85.9061913944
 20
127.7539763524
 30
0.0
 11
85.9061913944
 21
130.6339144631
 31
0.0
  0
LINE
  5
ED
330
1F
100
AcDbEntity
  8
0
  6
HIDDEN
 62
     7
370
     0
100
AcDbLine
 10
90.8561913676
 20
127.7539763524
 30
0.0
 11
90.8561913676
 21
131.6080834641
 31
0.0
  0
LINE
  5
EE
330
1F
100
AcDbEntity
  8
0
  6
HIDDEN
 62
     7
370
     0
100
AcDbLine
 10
135.4561919726
 20
100.2639761119
 30
0.0
 11
135.4561919726
 21
119.263975501
 31
0.0
  0
LINE
  5
EF
330
1F
100
AcDbEntity
  8
0
  6
HIDDEN
 62
     7
370
     0
100
AcDbLine
 10
138.4561924643
 20
100.2639761119
 30
0.0
 11
138.4561924643
 21
119.263975501
 31
0.0
  0
LINE
  5
F0
330
1F
100
AcDbEntity
  8
0
  6
HIDDEN
 62
     7
370
     0
100
AcDbLine
 10
127.1061921871
 20
101.2639753445
 30
0.0
 11
127.1061921871
 21
118.2639762684
 31
0.0
  0
LINE
  5
F1
330
1F
100
AcDbEntity
  8
0
  6
HIDDEN
 62
     7
370
     0
100
AcDbLine
 10
121.6061922169
 20
78.2798524871
 30
0.0
 11
121.6061922169
 21
83.3639759495
 31
0.0
  0
LINE
  5
F2
330
1F
100
AcDbEntity
  8
0
  6
HIDDEN
 62
     7
370
     0
100
AcDbLine
 10
129.6061925969
 20
83.3639759495
 30
0.0
 11
121.6061922169
 21
83.3639759495
 31
0.0
  0
LINE
  5
F3
330
1F
100
AcDbEntity
  8
0
  6
HIDDEN
 62
     7
370
     0
100
AcDbLine
 10
132.843867541
 20
83.3639759495
 30
0.0
 11
129.6061925969
 21
83.3639759495
 31
0.0
  0
LINE
  5
F4
330
1F
100
AcDbEntity
  8
0
  6
HIDDEN
 62
     7
370
     0
100
AcDbLine
 10
142.6061919338
 20
83.3639759495
 30
0.0
 11
136.4685172594
 21
83.3639759495
 31
0.0
  0
LINE
  5
F5
330
1F
100
AcDbEntity
  8
0
  6
HIDDEN
 62
     7
370
     0
100
AcDbLine
 10
208.1561914093
 20
101.7639754265
 30
0.0
 11
208.1561914093
 21
117.7639761864
 31
0.0
  0
LINE
  5
F6
330
1F
100
AcDbEntity
  8
0
  6
HIDDEN
 62
     7
370
     0
100
AcDbLine
 10
162.1561913199
 20
101.8639761879
 30
0.0
 11
162.1561913199
 21
117.663975425
 31
0.0
  0
LINE
  5
F7
330
1F
100
AcDbEntity
  8
0
  6
HIDDEN
 62
     7
370
     0
100
AcDbLine
 10
172.6561939723
 20
101.7639754265
 30
0.0
 11
172.6561939723
 21
117.7639761864
 31
0.0
  0
LINE
  5
F8
330
1F
100
AcDbEntity
  8
0
  6
HIDDEN
 62
     7
370
     0
100
AcDbLine
 10
133.1404900557
 20
136.1639756634
 30
0.0
 11
129.6061925969
 21
136.1639756634
 31
0.0
  0
LINE
  5
F9
330
1F
100
AcDbEntity
  8
0
  6
HIDDEN
 62
     7
370
     0
100
AcDbLine
 10
142.6061919338
 20
136.1639756634
 30
0.0
 11
136.1718947447
 21
136.1639756634
 31
0.0
  0
LINE
  5
FA
330
1F
100
AcDbEntity
  8
0
  6
HIDDEN
 62
     7
370
     0
100
AcDbLine
 10
129.6061925969
 20
136.1639756634
 30
0.0
 11
121.6061922169
 21
136.1639756634
 31
0.0
  0
SPLINE
  5
FB
330
1F
100
AcDbEntity
  8
0
  6
HIDDEN
 62
     7
370
     0
100
AcDbSpline
210
0.0
220
0.0
230
1.0
 70
     8
 71
     3
 72
    11
 73
     7
 74
     0
 42
0.00000001
 43
0.00000001
 40
0.0
 40
0.0
 40
0.0
 40
0.0
 40
0.0008203708524183
 40
0.0008203708524183
 40
0.0008203708524183
 40
0.0016409967870154
 40
0.0016409967870154
 40
0.0016409967870154
 40
0.0016409967870154
 10
85.9061922437512
 20
93.9119430558089
 30
0.0
 10
85.71503394345254
 20
93.87076402718978
 30
0.0
 10
85.52360687338034
 20
93.83201005495977
 30
0.0
 10
85.3319612498597
 20
93.79564229568122
 30
0.0
 10
85.14025584477925
 20
93.75926319191518
 30
0.0
 10
84.94831689272031
 20
93.72526894114765
 30
0.0
 10
84.75619224564952
 20
93.69362081575643
 30
0.0
  0
ELLIPSE
  5
FC
330
1F
100
AcDbEntity
  8
0
  6
HIDDEN
 62
     7
370
     0
100
AcDbEllipse
 10
80.513760381
 20
109.7639758065
 30
0.0
 11
20.19992452772428
 21
-1.421085471520200E-14
 31
0.0
210
0.0
220
0.0
230
1.0
 40
0.816496581
 41
1.300566354937166
 42
1.359198697442763
  0
LINE
  5
FD
330
1F
100
AcDbEntity
  8
0
  6
HIDDEN
 62
     7
370
     0
100
AcDbLine
 10
94.8561920232
 20
91.7739752605
 30
0.0
 11
94.8561920232
 21
93.4764627292
 31
0.0
  0
LINE
  5
FE
330
1F
100
AcDbEntity
  8
0
  6
HIDDEN
 62
     7
370
     0
100
AcDbLine
 10
85.9061913944
 20
91.7739752605
 30
0.0
 11
85.9061913944
 21
93.9119435771
 31
0.0
  0
LINE
  5
FF
330
1F
100
AcDbEntity
  8
0
  6
HIDDEN
 62
     7
370
     0
100
AcDbLine
 10
85.987223909
 20
93.9624845906
 30
0.0
 11
85.9061913944
 21
93.9119435771
 31
0.0
  0
LINE
  5
100
330
1F
100
AcDbEntity
  8
0
  6
HIDDEN
 62
     7
370
     0
100
AcDbLine
 10
85.9061913944
 20
127.7539763524
 30
0.0
 11
85.9061913944
 21
125.6586011424
 31
0.0
  0
SPLINE
  5
101
330
1F
100
AcDbEntity
  8
0
  6
HIDDEN
 62
     7
370
     0
100
AcDbSpline
210
0.0
220
0.0
230
1.0
 70
     8
 71
     3
 72
     8
 73
     4
 74
     0
 42
0.00000001
 43
0.00000001
 40
0.0
 40
0.0
 40
0.0
 40
0.0
 40
1.0
 40
1.0
 40
1.0
 40
1.0
 10
85.9061922437512
 20
125.6586002554502
 30
0.0
 10
85.95619774159866
 20
125.6275644819174
 30
0.0
 10
86.00619781116703
 20
125.5965198375765
 30
0.0
 10
86.05619224385636
 20
125.5654662424833
 30
0.0
  0
LINE
  5
102
330
1F
100
AcDbEntity
  8
0
  6
HIDDEN
 62
     7
370
     0
100
AcDbLine
 10
90.8561913676
 20
127.7539763524
 30
0.0
 11
90.8561913676
 21
126.0514888837
 31
0.0
  0
LINE
  5
103
330
1F
100
AcDbEntity
  8
0
  6
HIDDEN
 62
     7
370
     0
100
AcDbLine
 10
138.8750734187
 20
105.5639759562
 30
0.0
 11
138.8750734187
 21
113.9639756567
 31
0.0
  0
LINE
  5
104
330
1F
100
AcDbEntity
  8
0
  6
HIDDEN
 62
     7
370
     0
100
AcDbLine
 10
139.6561922885
 20
104.2639758363
 30
0.0
 11
139.6561922885
 21
115.2639757766
 31
0.0
  0
SPLINE
  5
105
330
1F
100
AcDbEntity
  8
0
  6
HIDDEN
 62
     7
370
     0
100
AcDbSpline
210
0.0
220
0.0
230
1.0
 70
     8
 71
     3
 72
    20
 73
    16
 74
     0
 42
0.00000001
 43
0.00000001
 40
0.0
 40
0.0
 40
0.0
 40
0.0
 40
0.1118915819919484
 40
0.1774107625360986
 40
0.2490322973508004
 40
0.3297807334521685
 40
0.3985530998865431
 40
0.4998328149078029
 40
0.6137979246876161
 40
0.678963813692277
 40
0.7494903025227068
 40
0.8296362542056603
 40
0.8980799123449418
 40
0.9994902859531251
 40
1.0
 40
1.0
 40
1.0
 40
1.0
 10
111.4048870659434
 20
86.16402148447115
 30
0.0
 10
111.3615836842377
 20
86.17744269725803
 30
0.0
 10
111.2929235953192
 20
86.19872282890236
 30
0.0
 10
110.8478496740304
 20
86.30201301829815
 30
0.0
 10
110.3212965227082
 20
86.41531208200618
 30
0.0
 10
109.6358698727717
 20
86.53824708693101
 30
0.0
 10
108.7425531207009
 20
86.66028168061113
 30
0.0
 10
107.6291933390874
 20
86.77801736310752
 30
0.0
 10
106.5184191395621
 20
86.78999118374982
 30
0.0
 10
105.6336711400691
 20
86.76293574446464
 30
0.0
 10
104.9664738332695
 20
86.71500232291712
 30
0.0
 10
104.4252035969727
 20
86.65870666749078
 30
0.0
 10
104.0376150097706
 20
86.61362944712411
 30
0.0
 10
103.8436594431782
 20
86.5747341697782
 30
0.0
 10
103.9068394990071
 20
86.58546763862712
 30
0.0
 10
103.9071554697119
 20
86.58552131793577
 30
0.0
  0
LINE
  5
106
330
1F
100
AcDbEntity
  8
0
  6
HIDDEN
 62
     7
370
     0
100
AcDbLine
 10
104.8162045336
 20
86.6963133141
 30
0.0
 11
105.0000494725
 21
86.7145039066
 31
0.0
  0
SPLINE
  5
107
330
1F
100
AcDbEntity
  8
0
  6
HIDDEN
 62
     7
370
     0
100
AcDbSpline
210
0.0
220
0.0
230
1.0
 70
     8
 71
     3
 72
    27
 73
    23
 74
     0
 42
0.00000001
 43
0.00000001
 40
0.0
 40
0.0
 40
0.0
 40
0.0
 40
0.0007935996338343
 40
0.0456759573634647
 40
0.1022574284305613
 40
0.1705352833148191
 40
0.2091268081686882
 40
0.2506539049614215
 40
0.3210994219502624
 40
0.3861929503943534
 40
0.4266719833377555
 40
0.4648031144142737
 40
0.5006072554098858
 40
0.5451989323687303
 40
0.6016929900902441
 40
0.6700986901657313
 40
0.7088359250791788
 40
0.7505645175382853
 40
0.8222288651490457
 40
0.8877680510042406
 40
0.9472416065287892
 40
1.0
 40
1.0
 40
1.0
 40
1.0
 10
103.9068481332623
 20
132.9423930420645
 30
0.0
 10
103.9066301508424
 20
132.9424397888619
 30
0.0
 10
103.8940840819013
 20
132.9451303202482
 30
0.0
 10
103.9431495451254
 20
132.9333204716797
 30
0.0
 10
104.0882564303499
 20
132.9098694295096
 30
0.0
 10
104.3613077061079
 20
132.8759650130564
 30
0.0
 10
104.6898337103701
 20
132.8423966579631
 30
0.0
 10
105.0825616266041
 20
132.8042138268625
 30
0.0
 10
105.6322894634587
 20
132.7652456550748
 30
0.0
 10
106.2583120844906
 20
132.7457840496856
 30
0.0
 10
106.801503926635
 20
132.743598889883
 30
0.0
 10
107.2465726755926
 20
132.7521136119176
 30
0.0
 10
107.7130205301881
 20
132.7718971618891
 30
0.0
 10
108.2502614557444
 20
132.8160570437352
 30
0.0
 10
108.898474425383
 20
132.8884768786564
 30
0.0
 10
109.4840135701713
 20
132.9693745389717
 30
0.0
 10
109.9649827145258
 20
133.0475438952672
 30
0.0
 10
110.410397796139
 20
133.1323144750941
 30
0.0
 10
110.8488973461018
 20
133.2260991032591
 30
0.0
 10
111.1879240754315
 20
133.3040018605649
 30
0.0
 10
111.3752784552278
 20
133.3541963784551
 30
0.0
 10
111.3957689237404
 20
133.3608644809721
 30
0.0
 10
111.4054011560046
 20
133.3639990463026
 30
0.0
  0
SPLINE
  5
108
330
1F
100
AcDbEntity
  8
0
  6
HIDDEN
 62
     7
370
     0
100
AcDbSpline
210
0.0
220
0.0
230
1.0
 70
     8
 71
     3
 72
     8
 73
     4
 74
     0
 42
0.00000001
 43
0.00000001
 40
0.0
 40
0.0
 40
0.0
 40
0.0
 40
0.000159097691435
 40
0.000159097691435
 40
0.000159097691435
 40
0.000159097691435
 10
86.04136024965358
 20
93.96248537041997
 30
0.0
 10
85.99630878025421
 20
93.93450648678608
 30
0.0
 10
85.95125274294463
 20
93.90653495710052
 30
0.0
 10
85.9061922437512
 20
93.87857061843717
 30
0.0
  0
SPLINE
  5
109
330
1F
100
AcDbEntity
  8
0
  6
HIDDEN
 62
     7
370
     0
100
AcDbSpline
210
0.0
220
0.0
230
1.0
 70
     8
 71
     3
 72
    11
 73
     7
 74
     0
 42
0.00000001
 43
0.00000001
 40
0.0
 40
0.0
 40
0.0
 40
0.0
 40
0.0008212909311356
 40
0.0008212909311356
 40
0.0008212909311356
 40
0.0016428257242859
 40
0.0016428257242859
 40
0.0016428257242859
 40
0.0016428257242859
 10
85.9061922437512
 20
93.87857061843717
 30
0.0
 10
85.71504722226886
 20
93.83528442960737
 30
0.0
 10
85.52362888659229
 20
93.79434791999334
 30
0.0
 10
85.33198281193116
 20
93.75574614863051
 30
0.0
 10
85.14027973038957
 20
93.71713289481717
 30
0.0
 10
84.94833460710416
 20
93.68085268555542
 30
0.0
 10
84.75619224375117
 20
93.64688577922871
 30
0.0
  0
LINE
  5
10A
330
1F
100
AcDbEntity
  8
0
  6
HIDDEN
 62
     7
370
     0
100
AcDbLine
 10
132.746192292
 20
129.9454770907
 30
0.0
 11
132.746192292
 21
129.6139765455
 31
0.0
  0
LINE
  5
10B
330
1F
100
AcDbEntity
  8
0
  6
HIDDEN
 62
     7
370
     0
100
AcDbLine
 10
136.5661925084
 20
129.9454770907
 30
0.0
 11
136.5661925084
 21
129.6139765455
 31
0.0
  0
LINE
  5
10C
330
1F
100
AcDbEntity
  8
0
  6
HIDDEN
 62
     7
370
     0
100
AcDbLine
 10
138.048124165
 20
134.2226654216
 30
0.0
 11
138.048124165
 21
129.6139765455
 31
0.0
  0
SPLINE
  5
10D
330
1F
100
AcDbEntity
  8
0
  6
HIDDEN
 62
     7
370
     0
100
AcDbSpline
210
0.0
220
0.0
230
1.0
 70
     8
 71
     3
 72
     8
 73
     4
 74
     0
 42
0.00000001
 43
0.00000001
 40
0.0000000000000004
 40
0.0000000000000004
 40
0.0000000000000004
 40
0.0000000000000004
 40
0.001156372467817
 40
0.001156372467817
 40
0.001156372467817
 40
0.001156372467817
 10
85.7561922437515
 20
122.4041181199273
 30
0.0
 10
85.42287112855425
 20
122.5331771455541
 30
0.0
 10
85.08953844774618
 20
122.6621374817228
 30
0.0
 10
84.7561922437512
 20
122.7910490114956
 30
0.0
  0
SPLINE
  5
10E
330
1F
100
AcDbEntity
  8
0
  6
HIDDEN
 62
     7
370
     0
100
AcDbSpline
210
0.0
220
0.0
230
1.0
 70
     8
 71
     3
 72
    11
 73
     7
 74
     0
 42
0.00000001
 43
0.00000001
 40
0.0
 40
0.0
 40
0.0
 40
0.0
 40
0.000577874610501
 40
0.000577874610501
 40
0.000577874610501
 40
0.001155749485703
 40
0.001155749485703
 40
0.001155749485703
 40
0.001155749485703
 10
84.7561922437512
 20
96.73675394400091
 30
0.0
 10
84.92285912016432
 20
96.80256607078393
 30
0.0
 10
85.08952583972562
 20
96.86842455101149
 30
0.0
 10
85.25619248777424
 20
96.93433212403383
 30
0.0
 10
85.42285921229286
 20
97.00023972729588
 30
0.0
 10
85.58952590671355
 20
97.06619683577789
 30
0.0
 10
85.75619224375122
 20
97.1321985757975
 30
0.0
  0
SPLINE
  5
10F
330
1F
100
AcDbEntity
  8
0
  6
HIDDEN
 62
     7
370
     0
100
AcDbSpline
210
0.0
220
0.0
230
1.0
 70
     8
 71
     3
 72
    11
 73
     7
 74
     0
 42
0.00000001
 43
0.00000001
 40
0.0000000000000006
 40
0.0000000000000006
 40
0.0000000000000006
 40
0.0000000000000006
 40
0.000578048606266
 40
0.000578048606266
 40
0.000578048606266
 40
0.001156097351391
 40
0.001156097351391
 40
0.001156097351391
 40
0.001156097351391
 10
84.7561922437512
 20
119.7447902997389
 30
0.0
 10
84.9228620997964
 20
119.6824184383337
 30
0.0
 10
85.08952980388085
 20
119.6200645781423
 30
0.0
 10
85.25619610833449
 20
119.5577450180587
 30
0.0
 10
85.42286244902823
 20
119.4954254444244
 30
0.0
 10
85.58952740565684
 20
119.4331402402038
 30
0.0
 10
85.75619224375122
 20
119.3709151197308
 30
0.0
  0
SPLINE
  5
110
330
1F
100
AcDbEntity
  8
0
  6
HIDDEN
 62
     7
370
     0
100
AcDbSpline
210
0.0
220
0.0
230
1.0
 70
     8
 71
     3
 72
    11
 73
     7
 74
     0
 42
0.00000001
 43
0.00000001
 40
0.0
 40
0.0
 40
0.0
 40
0.0
 40
0.0005782401583357
 40
0.0005782401583357
 40
0.0005782401583357
 40
0.001156480596064
 40
0.001156480596064
 40
0.001156480596064
 40
0.001156480596064
 10
85.7561922437512
 20
100.1631490216913
 30
0.0
 10
85.58954129340249
 20
100.0997235637522
 30
0.0
 10
85.42288170081991
 20
100.0363680402224
 30
0.0
 10
85.25621464839134
 20
99.97307045600107
 30
0.0
 10
85.08954751182755
 20
99.90977283982646
 30
0.0
 10
84.92287290438139
 20
99.84653304501758
 30
0.0
 10
84.7561922437512
 20
99.78333303851332
 30
0.0
  0
CIRCLE
  5
111
330
1F
100
AcDbEntity
  8
0
  6
HIDDEN
 62
     7
370
     0
100
AcDbCircle
 10
123.6561922438
 20
109.7639758065
 30
0.0
 40
5.0
  0
LINE
  5
112
330
1F
100
AcDbEntity
  8
0
  6
HIDDEN
 62
     7
370
     0
100
AcDbLine
 10
146.6561915732
 20
103.7639757543
 30
0.0
 11
161.6561940319
 21
103.7639757543
 31
0.0
  0
LINE
  5
113
330
1F
100
AcDbEntity
  8
0
  6
HIDDEN
 62
     7
370
     0
100
AcDbLine
 10
161.6561940319
 20
115.7639758586
 30
0.0
 11
146.6561915732
 21
115.7639758586
 31
0.0
  0
LINE
  5
114
330
1F
100
AcDbEntity
  8
0
  6
HIDDEN
 62
     7
370
     0
100
AcDbLine
 10
161.6561940319
 20
103.7639757543
 30
0.0
 11
162.1561913199
 21
104.2639758363
 31
0.0
  0
LINE
  5
115
330
1F
100
AcDbEntity
  8
0
  6
HIDDEN
 62
     7
370
     0
100
AcDbLine
 10
162.1561913199
 20
115.2639757766
 30
0.0
 11
161.6561940319
 21
115.7639758586
 31
0.0
  0
LINE
  5
116
330
1F
100
AcDbEntity
  8
0
  6
HIDDEN
 62
     7
370
     0
100
AcDbLine
 10
146.6561915732
 20
115.7639758586
 30
0.0
 11
146.1561924226
 21
115.2639757766
 31
0.0
  0
LINE
  5
117
330
1F
100
AcDbEntity
  8
0
  6
HIDDEN
 62
     7
370
     0
100
AcDbLine
 10
146.1561924226
 20
104.2639758363
 30
0.0
 11
146.6561915732
 21
103.7639757543
 31
0.0
  0
LINE
  5
118
330
1F
100
AcDbEntity
  8
0
  6
HIDDEN
 62
     7
370
     0
100
AcDbLine
 10
162.1561913199
 20
104.2639758363
 30
0.0
 11
166.1561919755
 21
104.2639758363
 31
0.0
  0
LINE
  5
119
330
1F
100
AcDbEntity
  8
0
  6
HIDDEN
 62
     7
370
     0
100
AcDbLine
 10
166.1561919755
 20
115.2639757766
 30
0.0
 11
162.1561913199
 21
115.2639757766
 31
0.0
  0
LINE
  5
11A
330
1F
100
AcDbEntity
  8
0
  6
HIDDEN
 62
     7
370
     0
100
AcDbLine
 10
153.1561917073
 20
106.7639757804
 30
0.0
 11
159.1561926908
 21
106.7639757804
 31
0.0
  0
LINE
  5
11B
330
1F
100
AcDbEntity
  8
0
  6
HIDDEN
 62
     7
370
     0
100
AcDbLine
 10
159.1561926908
 20
112.7639758325
 30
0.0
 11
153.1561917073
 21
112.7639758325
 31
0.0
  0
LINE
  5
11C
330
1F
100
AcDbEntity
  8
0
  6
HIDDEN
 62
     7
370
     0
100
AcDbLine
 10
128.6561923481
 20
122.1579160466
 30
0.0
 11
128.6561923481
 21
124.0639952867
 31
0.0
  0
LINE
  5
11D
330
1F
100
AcDbEntity
  8
0
  6
HIDDEN
 62
     7
370
     0
100
AcDbLine
 10
120.6561924337
 20
124.0646760835
 30
0.0
 11
120.6561924337
 21
122.1579160466
 31
0.0
  0
LINE
  5
11E
330
1F
100
AcDbEntity
  8
0
  6
HIDDEN
 62
     7
370
     0
100
AcDbLine
 10
116.6561922438
 20
84.4400446787
 30
0.0
 11
116.750353016
 21
85.1100325509
 31
0.0
  0
LINE
  5
11F
330
1F
100
AcDbEntity
  8
0
  6
HIDDEN
 62
     7
370
     0
100
AcDbLine
 10
116.750353016
 20
134.417919062
 30
0.0
 11
116.6561922438
 21
135.0879069342
 31
0.0
  0
ARC
  5
120
330
1F
100
AcDbEntity
  8
0
  6
HIDDEN
 62
     7
370
     0
100
AcDbCircle
 10
116.1561854911
 20
85.1935381921
 30
0.0
 40
0.60000675266771
100
AcDbArc
 50
352.0
 51
0.0
  0
ARC
  5
121
330
1F
100
AcDbEntity
  8
0
  6
HIDDEN
 62
     7
370
     0
100
AcDbCircle
 10
116.1561854911
 20
85.1935381921
 30
0.0
 40
0.6000067526677124
100
AcDbArc
 50
0.0
 51
33.5571153394
  0
ARC
  5
122
330
1F
100
AcDbEntity
  8
0
  6
HIDDEN
 62
     7
370
     0
100
AcDbCircle
 10
116.1561854911
 20
134.3344134208
 30
0.0
 40
0.6000067526677042
100
AcDbArc
 50
348.75
 51
8.0
  0
LWPOLYLINE
  5
123
330
1F
100
AcDbEntity
  8
0
  6
HIDDEN
 62
     7
370
     0
100
AcDbPolyline
 90
        3
 70
   128
 43
0.0
 10
116.7446632827
 20
134.2173587456
 10
116.7105194509
 20
134.1048009618
 10
116.6561922438
 20
134.0027484967
  0
LINE
  5
124
330
1F
100
AcDbEntity
  8
0
  6
HIDDEN
 62
     7
370
     0
100
AcDbLine
 10
116.7561922412
 20
85.1935386582
 30
0.0
 11
116.7561922412
 21
134.3344129547
 31
0.0
  0
LINE
  5
125
330
1F
100
AcDbEntity
  8
0
  6
HIDDEN
 62
     7
370
     0
100
AcDbLine
 10
99.7386282689
 20
89.7639762535
 30
0.0
 11
103.916164153
 21
89.7639762535
 31
0.0
  0
LINE
  5
126
330
1F
100
AcDbEntity
  8
0
  6
HIDDEN
 62
     7
370
     0
100
AcDbLine
 10
103.9093096188
 20
129.7639753594
 30
0.0
 11
99.7386282689
 21
129.7639753594
 31
0.0
  0
ARC
  5
127
330
1F
100
AcDbEntity
  8
0
  6
HIDDEN
 62
     7
370
     0
100
AcDbCircle
 10
99.738627809
 20
90.3639758065
 30
0.0
 40
0.5999999999999962
100
AcDbArc
 50
210.0
 51
270.0
  0
ARC
  5
128
330
1F
100
AcDbEntity
  8
0
  6
HIDDEN
 62
     7
370
     0
100
AcDbCircle
 10
99.738627809
 20
129.1639758065
 30
0.0
 40
0.5999999999999943
100
AcDbArc
 50
90.0
 51
150.0
  0
ARC
  5
129
330
1F
100
AcDbEntity
  8
0
  6
HIDDEN
 62
     7
370
     0
100
AcDbCircle
 10
110.4111942454
 20
97.7639758065
 30
0.0
 40
8.000000000000004
100
AcDbArc
 50
277.0501761091
 51
321.3178125465
  0
ARC
  5
12A
330
1F
100
AcDbEntity
  8
0
  6
HIDDEN
 62
     7
370
     0
100
AcDbCircle
 10
110.4111942454
 20
121.7639758065
 30
0.0
 40
7.999999999999999
100
AcDbArc
 50
38.6821874535
 51
82.8507911168
  0
LINE
  5
12B
330
1F
100
AcDbEntity
  8
0
  6
HIDDEN
 62
     7
370
     0
100
AcDbLine
 10
142.6094198979
 20
129.6248674317
 30
0.0
 11
142.6061919338
 21
129.7639753594
 31
0.0
  0
LINE
  5
12C
330
1F
100
AcDbEntity
  8
0
  6
HIDDEN
 62
     7
370
     0
100
AcDbLine
 10
99.2190117395
 20
129.463975869
 30
0.0
 11
97.6601677394
 21
126.7639767303
 31
0.0
  0
LINE
  5
12D
330
1F
100
AcDbEntity
  8
0
  6
HIDDEN
 62
     7
370
     0
100
AcDbLine
 10
97.6601677394
 20
92.7639748826
 30
0.0
 11
99.2190117395
 21
90.0639757439
 31
0.0
  0
LINE
  5
12E
330
1F
100
AcDbEntity
  8
0
  6
HIDDEN
 62
     7
370
     0
100
AcDbLine
 10
128.6561923481
 20
133.7095774635
 30
0.0
 11
128.6561923481
 21
137.0424754842
 31
0.0
  0
LINE
  5
12F
330
1F
100
AcDbEntity
  8
0
  6
HIDDEN
 62
     7
370
     0
100
AcDbLine
 10
120.6561924337
 20
137.0437756105
 30
0.0
 11
120.6561924337
 21
133.7095774635
 31
0.0
  0
ARC
  5
130
330
1F
100
AcDbEntity
  8
0
  6
HIDDEN
 62
     7
370
     0
100
AcDbCircle
 10
125.1061922438
 20
94.0389758065
 30
0.0
 40
1.500000000000001
100
AcDbArc
 50
238.2116693829
 51
0.0
  0
ARC
  5
131
330
1F
100
AcDbEntity
  8
0
  6
HIDDEN
 62
     7
370
     0
100
AcDbCircle
 10
125.1061922438
 20
125.4889758065
 30
0.0
 40
1.5
100
AcDbArc
 50
0.0
 51
121.7883306171
  0
LINE
  5
132
330
1F
100
AcDbEntity
  8
0
  6
HIDDEN
 62
     7
370
     0
100
AcDbLine
 10
116.6561922438
 20
92.7639748826
 30
0.0
 11
124.3160182058
 21
92.7639748826
 31
0.0
  0
LINE
  5
133
330
1F
100
AcDbEntity
  8
0
  6
HIDDEN
 62
     7
370
     0
100
AcDbLine
 10
124.3160182058
 20
126.7639767303
 30
0.0
 11
116.6561922438
 21
126.7639767303
 31
0.0
  0
LINE
  5
134
330
1F
100
AcDbEntity
  8
0
  6
HIDDEN
 62
     7
370
     0
100
AcDbLine
 10
94.8561920232
 20
92.7639748826
 30
0.0
 11
97.6601677394
 21
92.7639748826
 31
0.0
  0
LINE
  5
135
330
1F
100
AcDbEntity
  8
0
  6
HIDDEN
 62
     7
370
     0
100
AcDbLine
 10
97.6601677394
 20
126.7639767303
 30
0.0
 11
90.8561913676
 21
126.7639767303
 31
0.0
  0
LINE
  5
136
330
1F
100
AcDbEntity
  8
0
  6
HIDDEN
 62
     7
370
     0
100
AcDbLine
 10
135.4561919726
 20
100.2639761119
 30
0.0
 11
138.4561924643
 21
100.2639761119
 31
0.0
  0
LINE
  5
137
330
1F
100
AcDbEntity
  8
0
  6
HIDDEN
 62
     7
370
     0
100
AcDbLine
 10
138.4561924643
 20
119.263975501
 30
0.0
 11
135.4561919726
 21
119.263975501
 31
0.0
  0
ARC
  5
138
330
1F
100
AcDbEntity
  8
0
  6
HIDDEN
 62
     7
370
     0
100
AcDbCircle
 10
211.1561922438
 20
100.7272815584
 30
0.0
 40
0.5000000000000284
100
AcDbArc
 50
0.0
 51
80.0
  0
ARC
  5
139
330
1F
100
AcDbEntity
  8
0
  6
HIDDEN
 62
     7
370
     0
100
AcDbCircle
 10
211.1561922438
 20
118.8006700545
 30
0.0
 40
0.5000000000000284
100
AcDbArc
 50
280.0
 51
0.0
  0
LINE
  5
13A
330
1F
100
AcDbEntity
  8
0
  6
HIDDEN
 62
     7
370
     0
100
AcDbLine
 10
126.6061921052
 20
100.7639761939
 30
0.0
 11
127.1061921871
 21
101.2639753445
 31
0.0
  0
LINE
  5
13B
330
1F
100
AcDbEntity
  8
0
  6
HIDDEN
 62
     7
370
     0
100
AcDbLine
 10
127.1061921871
 20
118.2639762684
 30
0.0
 11
126.6061921052
 21
118.763975419
 31
0.0
  0
LINE
  5
13C
330
1F
100
AcDbEntity
  8
0
  6
HIDDEN
 62
     7
370
     0
100
AcDbLine
 10
211.2430191047
 20
118.3082662447
 30
0.0
 11
208.1561914093
 21
117.7639761864
 31
0.0
  0
LINE
  5
13D
330
1F
100
AcDbEntity
  8
0
  6
HIDDEN
 62
     7
370
     0
100
AcDbLine
 10
208.1561914093
 20
101.7639754265
 30
0.0
 11
211.2430191047
 21
101.2196853682
 31
0.0
  0
LINE
  5
13E
330
1F
100
AcDbEntity
  8
0
  6
HIDDEN
 62
     7
370
     0
100
AcDbLine
 10
127.1061921871
 20
101.2639753445
 30
0.0
 11
135.4561919726
 21
101.2639753445
 31
0.0
  0
LINE
  5
13F
330
1F
100
AcDbEntity
  8
0
  6
HIDDEN
 62
     7
370
     0
100
AcDbLine
 10
135.4561919726
 20
118.2639762684
 30
0.0
 11
127.1061921871
 21
118.2639762684
 31
0.0
  0
LINE
  5
140
330
1F
100
AcDbEntity
  8
0
  6
HIDDEN
 62
     7
370
     0
100
AcDbLine
 10
162.5561906404
 20
101.4639759361
 30
0.0
 11
171.7614164955
 21
101.4639759361
 31
0.0
  0
LINE
  5
141
330
1F
100
AcDbEntity
  8
0
  6
HIDDEN
 62
     7
370
     0
100
AcDbLine
 10
171.7614164955
 20
118.0639756768
 30
0.0
 11
162.5561906404
 21
118.0639756768
 31
0.0
  0
ARC
  5
142
330
1F
100
AcDbEntity
  8
0
  6
HIDDEN
 62
     7
370
     0
100
AcDbCircle
 10
162.5561922438
 20
101.8639758065
 30
0.0
 40
0.4000000000000341
100
AcDbArc
 50
180.0
 51
270.0
  0
ARC
  5
143
330
1F
100
AcDbEntity
  8
0
  6
HIDDEN
 62
     7
370
     0
100
AcDbCircle
 10
162.5561922438
 20
117.6639758065
 30
0.0
 40
0.4000000000000341
100
AcDbArc
 50
90.0
 51
180.0
  0
ARC
  5
144
330
1F
100
AcDbEntity
  8
0
  6
HIDDEN
 62
     7
370
     0
100
AcDbCircle
 10
171.7614182256
 20
101.8639758065
 30
0.0
 40
0.4000000000000038
100
AcDbArc
 50
270.0
 51
290.0
  0
ARC
  5
145
330
1F
100
AcDbEntity
  8
0
  6
HIDDEN
 62
     7
370
     0
100
AcDbCircle
 10
171.7614182256
 20
117.6639758065
 30
0.0
 40
0.4000000000000038
100
AcDbArc
 50
70.0
 51
90.0
  0
LINE
  5
146
330
1F
100
AcDbEntity
  8
0
  6
HIDDEN
 62
     7
370
     0
100
AcDbLine
 10
171.8982277817
 20
101.4880990534
 30
0.0
 11
172.6561939723
 21
101.7639754265
 31
0.0
  0
LINE
  5
147
330
1F
100
AcDbEntity
  8
0
  6
HIDDEN
 62
     7
370
     0
100
AcDbLine
 10
172.6561939723
 20
117.7639761864
 30
0.0
 11
171.8982277817
 21
118.0398525595
 31
0.0
  0
LINE
  5
148
330
1F
100
AcDbEntity
  8
0
  6
HIDDEN
 62
     7
370
     0
100
AcDbLine
 10
172.6561939723
 20
101.7639754265
 30
0.0
 11
208.1561914093
 21
101.7639754265
 31
0.0
  0
LINE
  5
149
330
1F
100
AcDbEntity
  8
0
  6
HIDDEN
 62
     7
370
     0
100
AcDbLine
 10
208.1561914093
 20
117.7639761864
 30
0.0
 11
172.6561939723
 21
117.7639761864
 31
0.0
  0
LINE
  5
14A
330
1F
100
AcDbEntity
  8
0
  6
HIDDEN
 62
     7
370
     0
100
AcDbLine
 10
121.6061922169
 20
141.2639763131
 30
0.0
 11
121.6061922169
 21
136.1639756634
 31
0.0
  0
LINE
  5
14B
330
1F
100
AcDbEntity
  8
0
  6
HIDDEN
 62
     7
370
     0
100
AcDbLine
 10
162.1561913199
 20
115.7639758586
 30
0.0
 11
161.6561940319
 21
115.2639757766
 31
0.0
  0
LINE
  5
14C
330
1F
100
AcDbEntity
  8
0
  6
HIDDEN
 62
     7
370
     0
100
AcDbLine
 10
161.6561940319
 20
104.2639758363
 30
0.0
 11
162.1561913199
 21
103.7639757543
 31
0.0
  0
LINE
  5
14D
330
1F
100
AcDbEntity
  8
0
  6
HIDDEN
 62
     7
370
     0
100
AcDbLine
 10
139.6561922885
 20
115.2639757766
 30
0.0
 11
138.8750734187
 21
113.9639756567
 31
0.0
  0
LINE
  5
14E
330
1F
100
AcDbEntity
  8
0
  6
HIDDEN
 62
     7
370
     0
100
AcDbLine
 10
138.8750734187
 20
105.5639759562
 30
0.0
 11
139.6561922885
 21
104.2639758363
 31
0.0
  0
LINE
  5
14F
330
1F
100
AcDbEntity
  8
0
  6
HIDDEN
 62
     7
370
     0
100
AcDbLine
 10
139.6561922885
 20
104.2639758363
 30
0.0
 11
161.6561940319
 21
104.2639758363
 31
0.0
  0
LINE
  5
150
330
1F
100
AcDbEntity
  8
0
  6
HIDDEN
 62
     7
370
     0
100
AcDbLine
 10
161.6561940319
 20
115.2639757766
 30
0.0
 11
139.6561922885
 21
115.2639757766
 31
0.0
  0
LINE
  5
151
330
1F
100
AcDbEntity
  8
0
  6
HIDDEN
 62
     7
370
     0
100
AcDbLine
 10
111.8406300812
 20
85.6846045627
 30
0.0
 11
111.4061979025
 21
86.1636713072
 31
0.0
  0
LINE
  5
152
330
1F
100
AcDbEntity
  8
0
  6
HIDDEN
 62
     7
370
     0
100
AcDbLine
 10
103.9061943448
 20
86.5853592678
 30
0.0
 11
103.4237608693
 21
86.1062925234
 31
0.0
  0
LINE
  5
153
330
1F
100
AcDbEntity
  8
0
  6
HIDDEN
 62
     7
370
     0
100
AcDbLine
 10
103.423638866
 20
133.4216535016
 30
0.0
 11
103.9061896882
 21
132.9425327405
 31
0.0
  0
LINE
  5
154
330
1F
100
AcDbEntity
  8
0
  6
HIDDEN
 62
     7
370
     0
100
AcDbLine
 10
111.4061923145
 20
133.3642318769
 30
0.0
 11
111.8407343893
 21
133.8433507755
 31
0.0
  0
LINE
  5
155
330
1F
100
AcDbEntity
  8
0
  6
HIDDEN
 62
     7
370
     0
100
AcDbLine
 10
138.4561924643
 20
105.5639759562
 30
0.0
 11
138.8750734187
 21
105.5639759562
 31
0.0
  0
LINE
  5
156
330
1F
100
AcDbEntity
  8
0
  6
HIDDEN
 62
     7
370
     0
100
AcDbLine
 10
138.8750734187
 20
113.9639756567
 30
0.0
 11
138.4561924643
 21
113.9639756567
 31
0.0
  0
LINE
  5
157
330
1F
100
AcDbEntity
  8
0
  6
HIDDEN
 62
     7
370
     0
100
AcDbLine
 10
111.4061923145
 20
86.1641537323
 30
0.0
 11
111.4061923145
 21
89.8269038572
 31
0.0
  0
LINE
  5
158
330
1F
100
AcDbEntity
  8
0
  6
HIDDEN
 62
     7
370
     0
100
AcDbLine
 10
103.9061924822
 20
89.7658388986
 30
0.0
 11
103.9061924822
 21
86.5856815054
 31
0.0
  0
LINE
  5
159
330
1F
100
AcDbEntity
  8
0
  6
HIDDEN
 62
     7
370
     0
100
AcDbLine
 10
111.4061923145
 20
129.7018114402
 30
0.0
 11
111.4061923145
 21
133.3639394417
 31
0.0
  0
LINE
  5
15A
330
1F
100
AcDbEntity
  8
0
  6
HIDDEN
 62
     7
370
     0
100
AcDbLine
 10
103.9061924822
 20
132.9423893168
 30
0.0
 11
103.9061924822
 21
129.7633923515
 31
0.0
  0
DIMENSION
  5
15B
330
1F
100
AcDbEntity
  8
VERMASSUNG
100
AcDbDimension
  2
*D1
 10
211.6561922438
 20
142.3354112903
 30
0.0
 11
186.9061922438
 21
142.3354112903
 31
0.0
 70
   160
 71
     2
 42
-1.0
  3
SLDDIMSTYLE0
100
AcDbAlignedDimension
 13
162.1561922438
 23
117.6639758065
 33
0.0
 14
211.6561922438
 24
121.4151948231
 34
0.0
100
AcDbRotatedDimension
  0
DIMENSION
  5
166
330
1F
100
AcDbEntity
  8
VERMASSUNG
100
AcDbDimension
  2
*D2
 10
221.6561922438
 20
117.7639758065
 30
0.0
 11
221.6561922438
 21
109.7639758065
 31
0.0
 70
   160
  1
%%c<>
 71
     2
 42
-1.0
  3
SLDDIMSTYLE1
100
AcDbAlignedDimension
 13
208.1561922438
 23
101.7639758065
 33
0.0
 14
208.1561922438
 24
117.7639758065
 34
0.0
 50
90.0
100
AcDbRotatedDimension
  0
DIMENSION
  5
172
330
1F
100
AcDbEntity
  8
VERMASSUNG
100
AcDbDimension
  2
*D3
 10
227.6561922438
 20
123.2639758065
 30
0.0
 11
227.6561922438
 21
109.7639758065
 31
0.0
 70
   160
  1
%%c<>
 71
     2
 42
-1.0
  3
SLDDIMSTYLE2
100
AcDbAlignedDimension
 13
211.6561922438
 23
96.2639758065
 33
0.0
 14
211.6561922438
 24
123.2639758065
 34
0.0
 50
90.0
100
AcDbRotatedDimension
  0
DIMENSION
  5
17E
330
1F
100
AcDbEntity
  8
VERMASSUNG
100
AcDbDimension
  2
*D4
 10
233.6561922438
 20
126.7639758065
 30
0.0
 11
233.6561922438
 21
109.7639758065
 31
0.0
 70
   160
  1
%%c<>
 71
     2
 42
-1.0
  3
SLDDIMSTYLE2
100
AcDbAlignedDimension
 13
145.6061922438
 23
92.7639758065
 33
0.0
 14
145.6061922438
 24
126.7639758065
 34
0.0
 50
90.0
100
AcDbRotatedDimension
  0
DIMENSION
  5
189
330
1F
100
AcDbEntity
  8
VERMASSUNG
100
AcDbDimension
  2
*D5
 10
211.6561922438
 20
154.3354112903
 30
0.0
 11
164.1561922438
 21
154.3354112903
 31
0.0
 70
   160
 71
     2
 42
-1.0
  3
SLDDIMSTYLE3
100
AcDbAlignedDimension
 13
116.6561922438
 23
140.9639758065
 33
0.0
 14
211.6561922438
 24
121.4151948231
 34
0.0
100
AcDbRotatedDimension
  0
DIMENSION
  5
194
330
1F
100
AcDbEntity
  8
VERMASSUNG
100
AcDbDimension
  2
*D6
 10
211.6561922438
 20
148.3354112903
 30
0.0
 11
177.1311922438
 21
148.3354112903
 31
0.0
 70
   160
 71
     2
 42
-1.0
  3
SLDDIMSTYLE3
100
AcDbAlignedDimension
 13
142.6061922438
 23
139.6104161302
 33
0.0
 14
211.6561922438
 24
121.4151948231
 34
0.0
100
AcDbRotatedDimension
  0
DIMENSION
  5
19E
330
1F
100
AcDbEntity
  8
VERMASSUNG
100
AcDbDimension
  2
*D7
 10
211.6561922438
 20
160.3354112903
 30
0.0
 11
148.2061922438
 21
160.3354112903
 31
0.0
 70
   160
 71
     2
 42
-1.0
  3
SLDDIMSTYLE3
100
AcDbAlignedDimension
 13
84.7561922438
 23
129.4546535529
 33
0.0
 14
211.6561922438
 24
121.4151948231
 34
0.0
100
AcDbRotatedDimension
  0
DIMENSION
  5
1A8
330
1F
100
AcDbEntity
  8
VERMASSUNG
100
AcDbDimension
  2
*D8
 10
78.9948145161
 20
78.2639758065
 30
0.0
 11
78.9948145161
 21
109.7639758065
 31
0.0
 70
   160
  1
HSK A %%c<>
 71
     2
 42
-1.0
  3
SLDDIMSTYLE3
100
AcDbAlignedDimension
 13
116.9561922438
 23
141.2639758065
 33
0.0
 14
116.9561922438
 24
78.2639758065
 34
0.0
 50
90.0
100
AcDbRotatedDimension
  0
LINE
  5
1B4
330
1F
100
AcDbEntity
  8
VERMASSUNG
  6
CENTERX2
370
     0
100
AcDbLine
 10
81.1935725806
 20
109.7639758065
 30
0.0
 11
214.3405887097
 21
109.7639758065
 31
0.0
  0
OLE2FRAME
  5
1B5
330
1F
100
AcDbEntity
  8
0
100
AcDbOle2Frame
 70
     2
  3
Bitmap Image
 10
13.8511154363
 20
38.264191557
 30
0.0
 11
51.6290888628
 21
31.9806341108
 31
0.0
 71
     2
 72
     0
 73
     1
 90
    12928
310
80552BED0767C5B32B40DDAF6807D121434000000000000000006FFBDDFB85D0
310
4940DDAF6807D121434000000000000000006FFBDDFB85D04940416F4BD60AFB
310
3F4000000000000000002BED0767C5B32B40416F4BD60AFB3F40000000000000
310
0000000000000100000000010000010000000100000000000100000000320000
310
D0CF11E0A1B11AE1000000000000000000000000000000003E000300FEFF0900
310
0600000000000000000000000100000001000000000000000010000002000000
310
01000000FEFFFFFF0000000000000000FFFFFFFFFFFFFFFFFFFFFFFFFFFFFFFF
310
FFFFFFFFFFFFFFFFFFFFFFFFFFFFFFFFFFFFFFFFFFFFFFFFFFFFFFFFFFFFFFFF
310
FFFFFFFFFFFFFFFFFFFFFFFFFFFFFFFFFFFFFFFFFFFFFFFFFFFFFFFFFFFFFFFF
310
FFFFFFFFFFFFFFFFFFFFFFFFFFFFFFFFFFFFFFFFFFFFFFFFFFFFFFFFFFFFFFFF
310
FFFFFFFFFFFFFFFFFFFFFFFFFFFFFFFFFFFFFFFFFFFFFFFFFFFFFFFFFFFFFFFF
310
FFFFFFFFFFFFFFFFFFFFFFFFFFFFFFFFFFFFFFFFFFFFFFFFFFFFFFFFFFFFFFFF
310
FFFFFFFFFFFFFFFFFFFFFFFFFFFFFFFFFFFFFFFFFFFFFFFFFFFFFFFFFFFFFFFF
310
FFFFFFFFFFFFFFFFFFFFFFFFFFFFFFFFFFFFFFFFFFFFFFFFFFFFFFFFFFFFFFFF
310
FFFFFFFFFFFFFFFFFFFFFFFFFFFFFFFFFFFFFFFFFFFFFFFFFFFFFFFFFFFFFFFF
310
FFFFFFFFFFFFFFFFFFFFFFFFFFFFFFFFFFFFFFFFFFFFFFFFFFFFFFFFFFFFFFFF
310
FFFFFFFFFFFFFFFFFFFFFFFFFFFFFFFFFFFFFFFFFFFFFFFFFFFFFFFFFFFFFFFF
310
FFFFFFFFFFFFFFFFFFFFFFFFFFFFFFFFFFFFFFFFFFFFFFFFFFFFFFFFFFFFFFFF
310
FFFFFFFFFFFFFFFFFFFFFFFFFFFFFFFFFFFFFFFFFFFFFFFFFFFFFFFFFFFFFFFF
310
FFFFFFFFFFFFFFFFFFFFFFFFFFFFFFFFFFFFFFFFFFFFFFFFFFFFFFFFFFFFFFFF
310
FDFFFFFFFEFFFFFFFEFFFFFFFEFFFFFF05000000060000000700000008000000
310
090000000A0000000B0000000C0000000D0000000E0000000F00000010000000
310
11000000120000001300000014000000150000001600000017000000FEFFFFFF
310
FFFFFFFFFFFFFFFFFFFFFFFFFFFFFFFFFFFFFFFFFFFFFFFFFFFFFFFFFFFFFFFF
310
FFFFFFFFFFFFFFFFFFFFFFFFFFFFFFFFFFFFFFFFFFFFFFFFFFFFFFFFFFFFFFFF
310
FFFFFFFFFFFFFFFFFFFFFFFFFFFFFFFFFFFFFFFFFFFFFFFFFFFFFFFFFFFFFFFF
310
FFFFFFFFFFFFFFFFFFFFFFFFFFFFFFFFFFFFFFFFFFFFFFFFFFFFFFFFFFFFFFFF
310
FFFFFFFFFFFFFFFFFFFFFFFFFFFFFFFFFFFFFFFFFFFFFFFFFFFFFFFFFFFFFFFF
310
FFFFFFFFFFFFFFFFFFFFFFFFFFFFFFFFFFFFFFFFFFFFFFFFFFFFFFFFFFFFFFFF
310
FFFFFFFFFFFFFFFFFFFFFFFFFFFFFFFFFFFFFFFFFFFFFFFFFFFFFFFFFFFFFFFF
310
FFFFFFFFFFFFFFFFFFFFFFFFFFFFFFFFFFFFFFFFFFFFFFFFFFFFFFFFFFFFFFFF
310
FFFFFFFFFFFFFFFFFFFFFFFFFFFFFFFFFFFFFFFFFFFFFFFFFFFFFFFFFFFFFFFF
310
FFFFFFFFFFFFFFFFFFFFFFFFFFFFFFFFFFFFFFFFFFFFFFFFFFFFFFFFFFFFFFFF
310
FFFFFFFFFFFFFFFFFFFFFFFFFFFFFFFFFFFFFFFFFFFFFFFFFFFFFFFFFFFFFFFF
310
FFFFFFFFFFFFFFFFFFFFFFFFFFFFFFFFFFFFFFFFFFFFFFFFFFFFFFFFFFFFFFFF
310
FFFFFFFFFFFFFFFFFFFFFFFFFFFFFFFFFFFFFFFFFFFFFFFFFFFFFFFFFFFFFFFF
310
52006F006F007400200045006E00740072007900000000000000000000000000
310
0000000000000000000000000000000000000000000000000000000000000000
310
16000500FFFFFFFFFFFFFFFF020000000A00030000000000C000000000000046
310
000000000000000000000000201F988EA904CC0103000000C000000000000000
310
01004F006C006500000000000000000000000000000000000000000000000000
310
0000000000000000000000000000000000000000000000000000000000000000
310
0A000200FFFFFFFFFFFFFFFFFFFFFFFF00000000000000000000000000000000
310
0000000000000000000000000000000000000000000000001400000000000000
310
010043006F006D0070004F0062006A0000000000000000000000000000000000
310
0000000000000000000000000000000000000000000000000000000000000000
310
120002010100000003000000FFFFFFFF00000000000000000000000000000000
310
0000000000000000000000000000000000000000010000004D00000000000000
310
01004F006C006500310030004E00610074006900760065000000000000000000
310
0000000000000000000000000000000000000000000000000000000000000000
310
1A000200FFFFFFFFFFFFFFFFFFFFFFFF00000000000000000000000000000000
310
0000000000000000000000000000000000000000040000002426000000000000
310
FEFFFFFF02000000FEFFFFFFFFFFFFFFFFFFFFFFFFFFFFFFFFFFFFFFFFFFFFFF
310
FFFFFFFFFFFFFFFFFFFFFFFFFFFFFFFFFFFFFFFFFFFFFFFFFFFFFFFFFFFFFFFF
310
FFFFFFFFFFFFFFFFFFFFFFFFFFFFFFFFFFFFFFFFFFFFFFFFFFFFFFFFFFFFFFFF
310
FFFFFFFFFFFFFFFFFFFFFFFFFFFFFFFFFFFFFFFFFFFFFFFFFFFFFFFFFFFFFFFF
310
FFFFFFFFFFFFFFFFFFFFFFFFFFFFFFFFFFFFFFFFFFFFFFFFFFFFFFFFFFFFFFFF
310
FFFFFFFFFFFFFFFFFFFFFFFFFFFFFFFFFFFFFFFFFFFFFFFFFFFFFFFFFFFFFFFF
310
FFFFFFFFFFFFFFFFFFFFFFFFFFFFFFFFFFFFFFFFFFFFFFFFFFFFFFFFFFFFFFFF
310
FFFFFFFFFFFFFFFFFFFFFFFFFFFFFFFFFFFFFFFFFFFFFFFFFFFFFFFFFFFFFFFF
310
FFFFFFFFFFFFFFFFFFFFFFFFFFFFFFFFFFFFFFFFFFFFFFFFFFFFFFFFFFFFFFFF
310
FFFFFFFFFFFFFFFFFFFFFFFFFFFFFFFFFFFFFFFFFFFFFFFFFFFFFFFFFFFFFFFF
310
FFFFFFFFFFFFFFFFFFFFFFFFFFFFFFFFFFFFFFFFFFFFFFFFFFFFFFFFFFFFFFFF
310
FFFFFFFFFFFFFFFFFFFFFFFFFFFFFFFFFFFFFFFFFFFFFFFFFFFFFFFFFFFFFFFF
310
FFFFFFFFFFFFFFFFFFFFFFFFFFFFFFFFFFFFFFFFFFFFFFFFFFFFFFFFFFFFFFFF
310
FFFFFFFFFFFFFFFFFFFFFFFFFFFFFFFFFFFFFFFFFFFFFFFFFFFFFFFFFFFFFFFF
310
FFFFFFFFFFFFFFFFFFFFFFFFFFFFFFFFFFFFFFFFFFFFFFFFFFFFFFFFFFFFFFFF
310
FFFFFFFFFFFFFFFFFFFFFFFFFFFFFFFFFFFFFFFFFFFFFFFFFFFFFFFFFFFFFFFF
310
0100000200000000000000000000000000000000000000002D01820000000005
310
D0D0533100000000C80225000000000000000000000000000000000000000000
310
0100FEFF030A0000FFFFFFFF0A00030000000000C00000000000004607000000
310
5042727573680007000000504272757368000700000050427275736800F439B2
310
7100000000000000000000000000000000000000000000000000000000000000
310
0000000000000000000000000000000000000000000000000000000000000000
310
0000000000000000000000000000000000000000000000000000000000000000
310
0000000000000000000000000000000000000000000000000000000000000000
310
0000000000000000000000000000000000000000000000000000000000000000
310
0000000000000000000000000000000000000000000000000000000000000000
310
0000000000000000000000000000000000000000000000000000000000000000
310
0000000000000000000000000000000000000000000000000000000000000000
310
0000000000000000000000000000000000000000000000000000000000000000
310
0000000000000000000000000000000000000000000000000000000000000000
310
0000000000000000000000000000000000000000000000000000000000000000
310
0000000000000000000000000000000000000000000000000000000000000000
310
20260000424D0E260000000000003E00000028000000B40200006E0000000100
310
01000000000000000000130B0000130B00000200000002000000000000FFFFFF
310
FFFFFFFFFFFFFFFFFFFFFFFFFFFFFFFFFFFFFFFFFFFFFFFFFFFFFFFFFFFFFFFF
310
FFFFFFFFFFFFFFFFFFFFFFFFFFFFFFFFFFFFFFFFFFFFFFFFFFFFFFFFFFFFFFFF
310
FFFFFFFFFFFFFFFFFFFFFFFFFFFFFFFFFFFFFFFFFFFFFFFFF000FFFFFFFFFFFF
310
FFFFFFFFFFFFFFFFFFFFFFFFFFFFFFFFFFFFFFFFFFFFFFFFFFFFFFFFFFFFFFFF
310
FFFFFFFFFFFFFFFFFFFFFFFFFFFFFFFFFFFFFFFFFFFFFFFFFFFFFFFFFFFFFFFF
310
FFFFFFFFFFFFFFFFFFFFFFFFFFFFFFFFF000FFFFFFFFFFFFFFFFFFFFFFFFFFFF
310
FFFFFFFFFFFFFFFFFFFFFFFFFFFFFFFFFFFFFFFFFFFFFFFFFFFFFFFFFFFFFFFF
310
FFFFFFFFFFFFFFFFFFFFFFFFFFFFFFFFFFFFFFFFFFFFFFFFFFFFFFFFFFFFFFFF
310
FFFFFFFFFFFFFFFFF000FFFFFFFFFFFFFFFFFFFFFFFFFFFFFFFFFFFFFFFFFFFF
310
FFFFFFFFFFFFFFFFFFFFFFFFFFFFFFFFFFFFFFFFFFFFFFFFFFFFFFFFFFFFFFFF
310
FFFFFFFFFFFFFFFFFFFFFFFFFFFFFFFFFFFFFFFFFFFFFFFFFFFFFFFFFFFFFFFF
310
F000FFFFFFFFFFFFFFFFFFFFFFFFFFFFFFFFFFFFFFFFFFFFFFFFFFFFFFFFFFFF
310
FFFFFFFFFFFFFFFFFFFFFFFFFFFFFFFFFFFFFFFFFFFFFFFFFFFFFFFFFFFFFFFF
310
FFFFFFFFFFFFFFFFFFFFFFFFFFFFFFFFFFFFFFFFFFFFFFFFF000FFFFFFFFFFFF
310
FFFFFFFFFFFFFFFFFFFFFFFFFFFFFFFFFFFFFFFFFFFFFFFFFFFFFFFFFFFFFFFF
310
FFFFFFFFFFFFFFFFFFFFFFFFFFFFFFFFFFFFFFFFFFFFFFFFFFFFFFFFFFFFFFFF
310
FFFFFFFFFFFFFFFFFFFFFFFFFFFFFFFFF000FFFFFFFFFFFFFFFFFFFFFFFFFFFF
310
FFFFFFFFFFFFFFFFFFFFFFFFFFFFFFFFFFFFFFFFFFFFFFFFFFFFFFFFFFFFFFFF
310
FFFFFFFFFFFFFFFFFFFFFFFFFFFFFFFFFFFFFFFFFFFFFFFFFFFFFFFFFFFFFFFF
310
FFFFFFFFFFFFFFFFF000FFFFFFFFFFFFFFFFFFFFFFFFFFFFFFFFFFFFFFFFFFFF
310
FFFFFFFFFFFFFFFFFFFFFFFFFFFFFFFFFFFFFFFFFFFFFFFFFFFFFFFFFFFFFFFF
310
FFFFFFFFFFFFFFFFFFFFFFFFFFFFFFFFFFFFFFFFFFFFFFFFFFFFFFFFFFFFFFFF
310
F000FFFFFFFFFFFFFFFFFFFFFFFFFFFFFFFFFFFFFFFFFFFFFFFFFFFFFFFFFFFF
310
FFFFFFFFFFFFFFFFFFFFFFFFFFFFFFFFFFFFFFFFFFFFFFFFFFFFFFFFFFFFFFFF
310
FFFFFFFFFFFFFFFFFFFFFFFFFFFFFFFFFFFFFFFFFFFFFFFFF000FFFFFFFFFFFF
310
FFFFFFFFFFFFFFFFFFFFFFFFFFFFFFFFFFFFFFFFFFFFFFFFFFFFFFFFFFFFFFFF
310
FFFFFFFFFFFFFFFFFFFFFFFFFFFFFFFFFFFFFFFFFFFFFFFFFFFFFFFFFFFFFFFF
310
FFFFFFFFFFFFFFFFFFFFFFFFFFFFFFFFF000FFFFFFFFFFFFFFFFFFFFFFFFFFFF
310
FFFFFFFFFFFFFFFFFFFFFFFFFFFFFFFFFFFFFFFFFFFFFFFFFFFFFFFFFFFFFFFF
310
FFFFFFFFFFFFFFFFFFFFFFFFFFFFFFFFFFFFFFFFFFFFFFFFFFFFFFFFFFFFFFFF
310
FFFFFFFFFFFFFFFFF000FFFFFFFFFFFFFFFFFFFFFFFFFFFFFFFFFFFFFFFFFFFF
310
FFFFFFFFFFFFFFFFFFFFFFFFFFFFFFFFFFFFFFFFFFFFFFFFFFFFFFFFFFFFFFFF
310
FFFFFFFFFFFFFFFFFFFFFFFFFFFFFFFFFFFFFFFFFFFFFFFFFFFFFFFFFFFFFFFF
310
F000FFFFFFFFFFFFFFFFFFFFFFFFFFFFFFFFFFFFFFFFFFFFFFFFFFFFFFFFFFFF
310
FFFFFFFFFFFFFFFFFFFFFFFFFFFFFFFFFFFFFFFFFFFFFFFFFFFFFFFFFFFFFFFF
310
FFFFFFFFFFFFFFFFFFFFFFFFFFFFFFFFFFFFFFFFFFFFFFFFF000FFFFFFFFFFFF
310
FFFFFFFFFFFFFFFFFFFFFFFFFFFFFFFFFFFFFFFFFFFFFFFFFFFFFFFFFFFFFFFF
310
FFFFFFFFFFFFFFFFFFFFFFFFFFFFFFFFFFFFFFFFFFFFFFFFFFFFFFFFFFFFFFFF
310
FFFFFFFFFFFFFFFFFFFFFFFFFFFFFFFFF000FFFFFFFFFFFFFFFFFFFFFFFFFFFF
310
FFFFFFFFFFFFFFFFFFFFFFFFFFFFFFFFFFFFFFFFFFFFFFFFFFFFFFFFFFFFFFFF
310
FFFFFFFFFFFFFFFFFFFFFFFFFFFFFFFFFFFFFFFFFFFFFFFFFFFFFFFFFFFFFFFF
310
FFFFFFFFFFFFFFFFF000FFFFFFFFFFFFFFFFFFFFFFFFFFFFFFFFFFFFFFFFFFFF
310
FFFFFFFFFFFFFFFFFFFFFFFFFFFFFFFFFFFFFFFFFFFFFFFFFFFFFFFFFFFFFFFF
310
FFFFFFFFFFFFFFFFFFFFFFFFFFFFFFFFFFFFFFFFFFFFFFFFFFFFFFFFFFFFFFFF
310
F000FFFFFFFFFFFFFFFFFFFFFFFFFFFFFFFFFFFFFFFFFFFFFFFFFFFFFFFFFFFF
310
FFFFFFFFFFFFFFFFFFFFFFFFFFFFFFFFFFFFFFFFFFFFFFFFFFFFFFFFFFFFFFFF
310
FFFFFFFFFFFFFFFFFFFFFFFFFFFFFFFFFFFFFFFFFFFFFFFFF000FFFFFFFFFFFF
310
FFFFFFFFFFFFFFFFFFFFFFFFFFFFFFFFFFFFFFFFFFFFFFFFFFFFFFFFFFFFFFFF
310
FFFFFFFFFFFFFFFFFFFFFFFFFFFFFFFFFFFFFFFFFFFFFFFFFFFFFFFFFFFFFFFF
310
FFFFFFFFFFFFFFFFFFFFFFFFFFFFFFFFF000FFFFFFFFFFFFFFFFFFFFFFFFFFFF
310
FFFFFFFFFFFFFFFFFFFFFFFFFFFFFFFFFFFFFFFFFFFFFFFFFFFFFFFFFFFFFFFF
310
FFFFFFFFFFFFFFFFFFFFFFFFFFFFFFFFFFFFFFFFFFFFFFFFFFFFFFFFFFFFFFFF
310
FFFFFFFFFFFFFFFFF000FFFFF80003FFFFFFFFFFFFFFFFFFFFFFFFFFFFFFFFFF
310
FFFFF00007FFFFFFFFFF00007FFFFFF800000000000000007FFFFFFFFFFFFFFF
310
FFFFFFFC001FFFFFFFFFFFFFFC001FFFFFFFFFFFFFFFFFFFFFFFFFFE0007FFFF
310
F000FFFF8000007FFFFFFFF8000FFFFFC0007FFFFF80007FFFFF0000007FFFFF
310
FFF8000007FFFFF800000000000000007FFFFFF0001FFFFFFFFFFFC00001FFFF
310
FFFFFFFFC00001FFFFFFFF000000000003FFFFE000007FFFF000FFFE0000000F
310
FFFFFFF0000FFFFF80007FFFFF80007FFFFC0000001FFFFFFFC0000001FFFFF8
310
00000000000000007FFFFFF0001FFFFFFFFFFE0000003FFFFFFFFFFE0000003F
310
FFFFFF000000000003FFFF0000000FFFF000FFF800000003FFFFFFF00007FFFF
310
80007FFFFF80007FFFF000000007FFFFFF000000003FFFF80000000000000000
310
7FFFFFF0001FFFFFFFFFF80000000FFFFFFFFFF80000000FFFFFFF0000000000
310
03FFFC00000003FFF000FFE000000000FFFFFFF00007FFFF80003FFFFF80007F
310
FFC000000001FFFFFC000000001FFFF800000000000000007FFFFFF0001FFFFF
310
FFFFE000000003FFFFFFFFE000000003FFFFFF000000000003FFF000000000FF
310
F000FF80000000007FFFFFF00007FFFF80003FFFFF80007FFF8000000000FFFF
310
F80000000007FFF800000000000000007FFFFFF0001FFFFFFFFFC000000001FF
310
FFFFFFC000000001FFFFFF000000000003FFC0000000007FF000FF0000000000
310
3FFFFFE00007FFFF00003FFFFF80007FFE00000000003FFFF00000000003FFF8
310
00000000000000007FFFFFF0001FFFFFFFFF8000000000FFFFFFFF8000000000
310
FFFFFF000000000003FF80000000003FF000FE00000000001FFFFFE00003FFFF
310
00003FFFFF80007FFC00000000001FFFE00000000001FFF8000001FFFE000000
310
7FFFFFF0001FFFFFFFFE00000000003FFFFFFE00000000003FFFFF0000000000
310
03FF00000000001FF000FC00000000000FFFFFE00003FFFF00001FFFFF80007F
310
F800000000001FFFC00000000000FFF8000001FFFE0000007FFFFFF0001FFFFF
310
FFFC00000000001FFFFFFC00000000001FFFFF000000000003FE00000000000F
310
F000F8000000000007FFFFE00003FFFF00001FFFFF80007FF800000000000FFF
310
800000000000FFF8000001FFFE0000007FFFFFF0001FFFFFFFF800000000000F
310
FFFFF800000000000FFFFF000000000003FC000000000007F000F80000000000
310
03FFFFC00003FFFE00001FFFFF80007FF0000000000007FF0000000000007FF8
310
000001FFFE0000007FFFFFF0001FFFFFFFF0000000000007FFFFF00000000000
310
07FFFF000000000003F8000000000003F000F0000000000003FFFFC00001FFFE
310
00001FFFFF80007FE0000000000007FE0000000000003FF8000001FFFE000000
310
7FFFFFF0001FFFFFFFF0000000000007FFFFF0000000000007FFFF0000000000
310
03F800001F800003F000E00001FFF00001FFFFC00001FFFE00000FFFFF80007F
310
E00001FFE00003FE00001FFF00003FF8000001FFFE0000007FFFFFF0001FFFFF
310
FFE000003E000003FFFFE000003E000003FFFF000000000003F00001FFF80001
310
F000E00007FFFC0001FFFFC00001FFFE00000FFFFF80007FC0000FFFFC0003FC
310
0000FFFFC0001FF8000001FFFE0000007FFFFFF0001FFFFFFFC00003FFE00001
310
FFFFC00003FFE00001FFFF0001FFFFFFFFF00007FFFE0001F000E0000FFFFF00
310
00FFFF800001FFFC00000FFFFF80007FC0001FFFFE0001FC0001FFFFE0001FF8
310
000001FFFE0000007FFFFFF0001FFFFFFF80000FFFF80000FFFF80000FFFF800
310
00FFFF0003FFFFFFFFE0000FFFFF8000F000C0003FFFFF8000FFFF800000FFFC
310
000007FFFF80007F80003FFFFF0001FC0003FFFFF0001FF8000001FFFE000000
310
7FFFFFF0001FFFFFFF80003FFFFE0000FFFF80003FFFFE0000FFFF0003FFFFFF
310
FFE0003FFFFF8000F000C0003FFFFF8000FFFF800000FFFC000007FFFF80007F
310
80007FFFFF8001F80007FFFFF8000FF8000001FFFE0000007FFFFFF0001FFFFF
310
FF00007FFFFF00007FFF00007FFFFF00007FFF0003FFFFFFFFE0003FFFFFC000
310
F000C0007FFFFFC000FFFF000000FFFC000007FFFF80007F8000FFFFFF8000F8
310
000FFFFFF8000FF8000001FFFE0000007FFFFFF0001FFFFFFF0000FFFFFF8000
310
7FFF0000FFFFFF80007FFF0003FFFFFFFFC0007FFFFFC00070008000FFFFFFC0
310
00FFFF000000FFF8000007FFFF80007F8000FFFFFF8000F8000FFFFFF8000FF8
310
000001FFFE0000007FFFFFF0001FFFFFFE0001FFFFFFC0003FFE0001FFFFFFC0
310
003FFF0003FFFFFFFFC0007FFFFFE00070008000FFFFFFC0007FFF0000007FF8
310
000003FFFF80007F0001FFFFFF8000F8000FFFFFF8000FF8000001FFFE000000
310
7FFFFFF0001FFFFFFE0001FFFFFFC0003FFE0001FFFFFFC0003FFF0003FFFFFF
310
FFC000FFFFFFE00070008000FFFFFFC0007FFF0000007FF8000003FFFF80007F
310
0001FFFFFF8000F8001FFFFFF8000FF8000001FFFE0000007FFFFFF0001FFFFF
310
FE0003FFFFFFE0003FFE0003FFFFFFE0003FFF0003FFFFFFFFC000FFFFFFE000
310
70008000FFFFFFC0007FFE0000007FF8000003FFFF80007F0001FFFFFF8000F0
310
001FFFFFF8000FF8000001FFFE0000007FFFFFF0001FFFFFFC0003FFFFFFE000
310
1FFC0003FFFFFFE0001FFF0003FFFFFFFFC000FFFFFFC00070008000FFFFFF80
310
007FFE0000007FF0000003FFFF80007F0001FFFFFF0000F0001FFFFFF8000FF8
310
000001FFFE0000007FFFFFF0001FFFFFFC0007FFFFFFF0001FFC0007FFFFFFF0
310
001FFF0003FFFFFFFFC000FFFFFFC00070008001FFFFFF0000FFFE0000003FF0
310
000001FFFF80007F0001FFFFFF0000F8001FFFFFF0000FF8000001FFFE000000
310
7FFFFFF0001FFFFFFC0007FFFFFFF0001FFC0007FFFFFFF0001FFF0003FFFFFF
310
FFC001FFFFFF80007000FFFFFFFFFE0000FFFE0008003FF0008001FFFF80007F
310
FFFFFFFFFC0000FFFFFFFFFFE0000FF8000001FFFE0000007FFFFFF0001FFFFF
310
F8000FFFFFFFF8000FF8000FFFFFFFF8000FFF0003FFFFFFFFFFFFFFFFFF0000
310
7000FFFFFFFFFC0000FFFC0008003FF0008001FFFF80007FFFFFFFFFF80001FF
310
FFFFFFFF80000FF8000001FFFE0000007FFFFFF0001FFFFFF8000FFFFFFFF800
310
0FF8000FFFFFFFF8000FFF0003FFFFFFFFFFFFFFFFFE0000F000FFFFFFFFE000
310
00FFFC000C003FE000C001FFFF80007FFFFFFFFFC00001FFFFFFFFFE00001FF8
310
000001FFFE0000007FFFFFF0001FFFFFF8000FFFFFFFF8000FF8000FFFFFFFF8
310
000FFF0003FFFFFFFFFFFFFFFFF00000F000FFFFFFFE000001FFFC000C001FE0
310
00C000FFFF80007FFFFFFFFE000001FFFFFFFFE000001FF80FFFFFFFFFFFFFC0
310
7FFFFFF0001FFFFFF8000FFFFFFFF8000FF8000FFFFFFFF8000FFF0003FFFFFF
310
FFFFFFFFFF800000F000FFFFFFC0000001FFFC001C001FE001C000FFFF80007F
310
FFFFFF80000003FFFFFFF80000001FF80FFFFFFFFFFFFFC07FFFFFF0001FFFFF
310
F8001FFFFFFFFC000FF8001FFFFFFFFC000FFF0003FFFFFFFFFFFFFFF0000001
310
F000FFFFF800000001FFF8001C001FE001C000FFFF80007FFFFFF800000003FF
310
FFFF800000003FF80FFFFFFFFFFFFFC07FFFFFF0001FFFFFF8001FFFFFFFFC00
310
0FF8001FFFFFFFFC000FFF0003FFFFFFFFFFFFFE00000001F000FFFFC0000000
310
03FFF8001E001FC001E000FFFF80007FFFFF8000000007FFFFFC000000003FF8
310
0FFFFFFFFFFFFFC07FFFFFF0001FFFFFF8001FFFFFFFFC000FF8001FFFFFFFFC
310
000FFF0003FFFFFFFFFFFFE000000003F000FFFE0000000007FFF8001E000FC0
310
01E0007FFF80007FFFFE0000000007FFFFE0000000007FF80FFFFFFFFFFFFFC0
310
7FFFFFF0001FFFFFF0001FFFFFFFFC0007F0001FFFFFFFFC0007FF0003FFFFFF
310
FFFFFF0000000003F000FFF80000000007FFF8001E000FC003E0007FFF80007F
310
FFF0000000000FFFFF8000000000FFF80FFFFFFFFFFFFFC07FFFFFF0001FFFFF
310
F0001FFFFFFFFC0007F0001FFFFFFFFC0007FF0003FFFFFFFFFFFC0000000007
310
F000FFE0000000000FFFF0003E000FC003E0007FFF80007FFFC0000000001FFF
310
FE0000000001FFF80FFFFFFFFFFFFFC07FFFFFF0001FFFFFF0001FFFFFFFFC00
310
07F0001FFFFFFFFC0007FF0003FFFFFFFFFFF0000000000FF000FFC000000000
310
1FFFF0003F000F8003F0003FFF80007FFF80000000003FFFF80000000003FFF8
310
0FFFFFFFFFFFFFC07FFFFFF0001FFFFFF0001FFFFFFFFC0007F0001FFFFFFFFC
310
0007FF0003FFFFFFFFFFE0000000001FF000FF00000000007FFFF0003F000780
310
03F0003FFF80007FFF00000000007FFFF00000000007FFF80FFFFFFFFFFFFFC0
310
7FFFFFF0001FFFFFF0001FFFFFFFFC0007F0001FFFFFFFFC0007FF0003FFFFFF
310
FFFF80000000007FF000FE0000000000FFFFE0003F00078007F0003FFF80007F
310
FE0000000001FFFFE0000000001FFFF80FFFFFFFFFFFFFC07FFFFFF0001FFFFF
310
F0001FFFFFFFFC0007F0001FFFFFFFFC0007FF0003FFFFFFFFFF0000000000FF
310
F000FC0000000003FFFFE0007F00078007F0003FFF80007FFC0000000007FFFF
310
C0000000007FFFF80FFFFFFFFFFFFFC07FFFFFF0001FFFFFF8001FFFFFFFFC00
310
0FF8001FFFFFFFFC000FFF0003FFFFFFFFFE0000000003FFF000FC000000000F
310
FFFFE0007F80070007F8001FFF80007FF8000000001FFFFF8000000001FFFFF8
310
0FFFFFFFFFFFFFC07FFFFFF0001FFFFFF8001FFFFFFFFC000FF8001FFFFFFFFC
310
000FFF0003FFFFFFFFFC000000000FFFF000F8000000007FFFFFE0007F800700
310
07F8001FFF80007FF000000000FFFFFF800000000FFFFFF80FFFFFFFFFFFFFC0
310
7FFFFFF0001FFFFFF8000FFFFFFFF8000FF8000FFFFFFFF8000FFF0003FFFFFF
310
FFFC000000007FFFF000F800000007FFFFFFC0007F8003000FF8001FFF80007F
310
F000000007FFFFFF000000007FFFFFF80FFFFFFFFFFFFFC07FFFFFF0001FFFFF
310
F8000FFFFFFFF8000FF8000FFFFFFFF8000FFF0003FFFFFFFFF80000000FFFFF
310
F000F0000000FFFFFFFFC000FF8003000FF8001FFF80007FE0000000FFFFFFFF
310
0000000FFFFFFFF8000001FFFE0000007FFFFFF0001FFFFFF8000FFFFFFFF800
310
0FF8000FFFFFFFF8000FFF0003FFFFFFFFF8000000FFFFFFF000F000000FFFFF
310
FFFFC000FFC002000FF8000FFF80007FE000001FFFFFFFFE000001FFFFFFFFF8
310
000001FFFE0000007FFFFFF0001FFFFFF8000FFFFFFFF8000FF8000FFFFFFFF8
310
000FFF0003FFFFFFFFF000001FFFFFFFF000E00000FFFFFFFFFFC000FFC00200
310
0FFC000FFF80007FE00001FFFFFFFFFE00001FFFFFFFFFF8000001FFFE000000
310
7FFFFFF0001FFFFFFC000FFFFFFFF8001FFC000FFFFFFFF8001FFF0003FFFFFF
310
FFF00001FFFFFFFFF000E00007FFFFFFFFFF8000FFC000001FFC000FFF80007F
310
C0000FFFFFFFFFFE0000FFFFFFFFFFF8000001FFFE0000007FFFFFF0001FFFFF
310
FC0007FFFFFFF0001FFC0007FFFFFFF0001FFF0003FFFFFFFFF00007FFFFFFFF
310
F000E0001FFFFFFFFFFF8000FFC000001FFC000FFF80007FC0003FFFFFFFFFFE
310
0001FFFFFFFFFFF8000001FFFE0000007FFFFFF0001FFFFFFC0007FFFFFFF000
310
1FFC0007FFFFFFF0001FFF0003FFFFFFFFF0001FFFFFFFFFF000E0003FFFFF00
310
03FF8001FFE000001FFC0007FF80007FC0007FFFFF0007FC0003FFFFF0003FF8
310
000001FFFE0000007FFFFFF0001FFFFFFC0003FFFFFFE0001FFC0003FFFFFFE0
310
001FFF0003FFFFFFFFF0003FFFFFFFFFF000E0003FFFFF0001FF8001FFE00000
310
1FFE0007FF80007FC0007FFFFE0003FC0007FFFFE0003FF8000001FFFE000000
310
7FFFFFF0001FFFFFFE0003FFFFFFE0003FFE0003FFFFFFE0003FFF0003FFFFFF
310
FFF0003FFFFF8001F000E0003FFFFF0001FF0001FFE000001FFE0007FF80007F
310
C0007FFFFE0003FC0007FFFFE0003FF8000001FFFE0000007FFFFFF0001FFFFF
310
FE0001FFFFFFC0003FFE0001FFFFFFC0003FFF0003FFFFFFFFF0003FFFFF0001
310
F000E0003FFFFF0003FF0001FFE000003FFE0007FF80007FC0007FFFFE0003FC
310
0007FFFFE0003FF8000001FFFE0000007FFFFFF0001FFFFFFF0001FFFFFFC000
310
7FFF0001FFFFFFC0007FFF0003FFFFFFFFF0003FFFFF0001F000E0003FFFFE00
310
03FF0003FFF000003FFE0003FF80007FC0007FFFFC0003FE0007FFFFE0003FF8
310
000001FFFE0000007FFFFFF0001FFFFFFF0000FFFFFF80007FFF0000FFFFFF80
310
007FFF0003FFFFFFFFF0003FFFFF0001F000E0003FFFFE0003FF0003FFF00000
310
3FFF0003FF80007FC0007FFFFC0007FE0007FFFFC0003FF8000001FFFE000000
310
7FFFFFF0001FFFFFFF80007FFFFF0000FFFF80007FFFFF0000FFFF0003FFFFFF
310
FFF0003FFFFF0003F000E0003FFFFC0003FE0003FFF000003FFF0003FF80007F
310
E0003FFFF80007FE0003FFFFC0007FF8000001FFFE0000007FFFFFF0001FFFFF
310
FF80003FFFFE0000FFFF80003FFFFE0000FFFF0003FFFFFFFFF0001FFFFE0003
310
F000F0001FFFF80003FE0003FFF000007FFF0001FF80007FE0003FFFF00007FE
310
0001FFFF80007FF8000001FFFE0000007FFFFFF0001FFFFFFFC0000FFFF80001
310
FFFFC0000FFFF80001FFFF0003FFFFFFFFF0001FFFFC0003F000F0000FFFF000
310
07FE0007FFF800007FFF0001FF80007FE0001FFFE00007FF0000FFFE00007FF8
310
000001FFFE0000007FFFFFF0001FFFFFFFC00003FFE00001FFFFC00003FFE000
310
01FFFF0003FFFFFFFFF8000FFFF80003F000F00003FFC00007FC0007FFF80000
310
7FFF8001FF80007FF00007FF80000FFF00007FF80000FFF8000001FFFE000000
310
7F80000000000001FFE000003E000003FFFFE000003E000003FFFF0003FFFFFF
310
FFF80003FFE00007F000F800000000000FFC0007FFF800007FFF8001FF80007F
310
F000000000000FFF000000000000FFF8000001FFFE0000007F80000000000001
310
FFF0000000000007FFFFF0000000000007FFFF0003FFFFFFFFFC00007E000007
310
F000F800000000000FFC0007FFF80000FFFF8000FF80007FF800000000001FFF
310
800000000001FFF8000001FFFE0000007F80000000000001FFF800000000000F
310
FFFFF800000000000FFFFF0003FFFFFFFFFC00000000000FF000FC0000000000
310
1FFC0007FFFC0000FFFF8000FF80007FF800000000003FFFC00000000001FFF8
310
000001FFFE0000007F80000000000001FFF800000000000FFFFFF80000000000
310
0FFFFF0003FFFFFFFFFE00000000001FF000FE00000000003FF8000FFFFC0000
310
FFFF8000FF80007FFC00000000003FFFC00000000003FFF8000001FFFE000000
310
7F80000000000001FFFC00000000001FFFFFFC00000000001FFFFF0003FFFFFF
310
FFFF00000000001FF000FF00000000003FF8000FFFFC0000FFFFC000FF80007F
310
FE00000000007FFFE00000000007FFF8000001FFFE0000007F80000000000001
310
FFFE00000000003FFFFFFE00000000003FFFFF0003FFFFFFFFFF80000000003F
310
F000FF80000000007FF8000FFFFC0001FFFFC0007F80007FFF0000000000FFFF
310
F0000000000FFFF800000000000000007F80000000000001FFFF8000000000FF
310
FFFFFF8000000000FFFFFF0003FFFFFFFFFFC0000000007FF000FFC000000000
310
FFF8000FFFFE0001FFFFC0007F80007FFF8000000001FFFFF8000000001FFFF8
310
00000000000000007F80000000000001FFFFC000000001FFFFFFFFC000000001
310
FFFFFF0003FFFFFFFFFFE000000000FFF000FFE000000003FFF0001FFFFE0001
310
FFFFC0007F80007FFFC000000007FFFFFE000000003FFFF80000000000000000
310
7F80000000000001FFFFE000000003FFFFFFFFE000000003FFFFFF0003FFFFFF
310
FFFFF000000003FFF000FFF80000000FFFF0001FFFFE0001FFFFE0007F80007F
310
FFF00000000FFFFFFF00000000FFFFF800000000000000007F80000000000001
310
FFFFF80000000FFFFFFFFFF80000000FFFFFFF0003FFFFFFFFFFFC0000000FFF
310
F000FFFE0000003FFFF0001FFFFE0003FFFFE0003F80007FFFFC0000003FFFFF
310
FFC0000003FFFFF800000000000000007F80000000000001FFFFFE0000003FFF
310
FFFFFFFE0000003FFFFFFF0003FFFFFFFFFFFF0000003FFFF000FFFF800000FF
310
FFF0001FFFFF0003FFFFE0003F80007FFFFF000001FFFFFFFFF800001FFFFFF8
310
00000000000000007F80000000000001FFFFFFC00001FFFFFFFFFFFFC00001FF
310
FFFFFF0003FFFFFFFFFFFFC00000FFFFF000FFFFF8000FFFFFFFFFFFFFFFFFFF
310
FFFFFFFFFFFFFFFFFFFFF0001FFFFFFFFFFF0000FFFFFFF80000000000000000
310
7FFFFFFFFFFFFFFFFFFFFFFC001FFFFFFFFFFFFFFC001FFFFFFFFFFFFFFFFFFF
310
FFFFFFFC001FFFFFF000FFFFFFFFFFFFFFFFFFFFFFFFFFFFFFFFFFFFFFFFFFFF
310
FFFFFFFFFFFFFFFFFFFFFFFFFFFFFFFFFFFFFFFFFFFFFFFFFFFFFFFFFFFFFFFF
310
FFFFFFFFFFFFFFFFFFFFFFFFFFFFFFFFFFFFFFFFFFFFFFFFFFFFFFFFFFFFFFFF
310
F000FFFFFFFFFFFFFFFFFFFFFFFFFFFFFFFFFFFFFFFFFFFFFFFFFFFFFFFFFFFF
310
FFFFFFFFFFFFFFFFFFFFFFFFFFFFFFFFFFFFFFFFFFFFFFFFFFFFFFFFFFFFFFFF
310
FFFFFFFFFFFFFFFFFFFFFFFFFFFFFFFFFFFFFFFFFFFFFFFFF000FFFFFFFFFFFF
310
FFFFFFFFFFFFFFFFFFFFFFFFFFFFFFFFFFFFFFFFFFFFFFFFFFFFFFFFFFFFFFFF
310
FFFFFFFFFFFFFFFFFFFFFFFFFFFFFFFFFFFFFFFFFFFFFFFFFFFFFFFFFFFFFFFF
310
FFFFFFFFFFFFFFFFFFFFFFFFFFFFFFFFF000FFFFFFFFFFFFFFFFFFFFFFFFFFFF
310
FFFFFFFFFFFFFFFFFFFFFFFFFFFFFFFFFFFFFFFFFFFFFFFFFFFFFFFFFFFFFFFF
310
FFFFFFFFFFFFFFFFFFFFFFFFFFFFFFFFFFFFFFFFFFFFFFFFFFFFFFFFFFFFFFFF
310
FFFFFFFFFFFFFFFFF000FFFFFFFFFFFFFFFFFFFFFFFFFFFFFFFFFFFFFFFFFFFF
310
FFFFFFFFFFFFFFFFFFFFFFFFFFFFFFFFFFFFFFFFFFFFFFFFFFFFFFFFFFFFFFFF
310
FFFFFFFFFFFFFFFFFFFFFFFFFFFFFFFFFFFFFFFFFFFFFFFFFFFFFFFFFFFFFFFF
310
F000FFFFFFFFFFFFFFFFFFFFFFFFFFFFFFFFFFFFFFFFFFFFFFFFFFFFFFFFFFFF
310
FFFFFFFFFFFFFFFFFFFFFFFFFFFFFFFFFFFFFFFFFFFFFFFFFFFFFFFFFFFFFFFF
310
FFFFFFFFFFFFFFFFFFFFFFFFFFFFFFFFFFFFFFFFFFFFFFFFF000FFFFFFFFFFFF
310
FFFFFFFFFFFFFFFFFFFFFFFFFFFFFFFFFFFFFFFFFFFFFFFFFFFFFFFFFFFFFFFF
310
FFFFFFFFFFFFFFFFFFFFFFFFFFFFFFFFFFFFFFFFFFFFFFFFFFFFFFFFFFFFFFFF
310
FFFFFFFFFFFFFFFFFFFFFFFFFFFFFFFFF000FFFFFFFFFFFFFFFFFFFFFFFFFFFF
310
FFFFFFFFFFFFFFFFFFFFFFFFFFFFFFFFFFFFFFFFFFFFFFFFFFFFFFFFFFFFFFFF
310
FFFFFFFFFFFFFFFFFFFFFFFFFFFFFFFFFFFFFFFFFFFFFFFFFFFFFFFFFFFFFFFF
310
FFFFFFFFFFFFFFFFF000FFFFFFFFFFFFFFFFFFFFFFFFFFFFFFFFFFFFFFFFFFFF
310
FFFFFFFFFFFFFFFFFFFFFFFFFFFFFFFFFFFFFFFFFFFFFFFFFFFFFFFFFFFFFFFF
310
FFFFFFFFFFFFFFFFFFFFFFFFFFFFFFFFFFFFFFFFFFFFFFFFFFFFFFFFFFFFFFFF
310
F000FFFFFFFFFFFFFFFFFFFFFFFFFFFFFFFFFFFFFFFFFFFFFFFFFFFFFFFFFFFF
310
FFFFFFFFFFFFFFFFFFFFFFFFFFFFFFFFFFFFFFFFFFFFFFFFFFFFFFFFFFFFFFFF
310
FFFFFFFFFFFFFFFFFFFFFFFFFFFFFFFFFFFFFFFFFFFFFFFFF000FFFFFFFFFFFF
310
FFFFFFFFFFFFFFFFFFFFFFFFFFFFFFFFFFFFFFFFFFFFFFFFFFFFFFFFFFFFFFFF
310
FFFFFFFFFFFFFFFFFFFFFFFFFFFFFFFFFFFFFFFFFFFFFFFFFFFFFFFFFFFFFFFF
310
FFFFFFFFFFFFFFFFFFFFFFFFFFFFFFFFF000FFFFFFFFFFFFFFFFFFFFFFFFFFFF
310
FFFFFFFFFFFFFFFFFFFFFFFFFFFFFFFFFFFFFFFFFFFFFFFFFFFFFFFFFFFFFFFF
310
FFFFFFFFFFFFFFFFFFFFFFFFFFFFFFFFFFFFFFFFFFFFFFFFFFFFFFFFFFFFFFFF
310
FFFFFFFFFFFFFFFFF000FFFFFFFFFFFFFFFFFFFFFFFFFFFFFFFFFFFFFFFFFFFF
310
FFFFFFFFFFFFFFFFFFFFFFFFFFFFFFFFFFFFFFFFFFFFFFFFFFFFFFFFFFFFFFFF
310
FFFFFFFFFFFFFFFFFFFFFFFFFFFFFFFFFFFFFFFFFFFFFFFFFFFFFFFFFFFFFFFF
310
F000FFFFFFFFFFFFFFFFFFFFFFFFFFFFFFFFFFFFFFFFFFFFFFFFFFFFFFFFFFFF
310
FFFFFFFFFFFFFFFFFFFFFFFFFFFFFFFFFFFFFFFFFFFFFFFFFFFFFFFFFFFFFFFF
310
FFFFFFFFFFFFFFFFFFFFFFFFFFFFFFFFFFFFFFFFFFFFFFFFF000FFFFFFFFFFFF
310
FFFFFFFFFFFFFFFFFFFFFFFFFFFFFFFFFFFFFFFFFFFFFFFFFFFFFFFFFFFFFFFF
310
FFFFFFFFFFFFFFFFFFFFFFFFFFFFFFFFFFFFFFFFFFFFFFFFFFFFFFFFFFFFFFFF
310
FFFFFFFFFFFFFFFFFFFFFFFFFFFFFFFFF000FFFFFFFFFFFFFFFFFFFFFFFFFFFF
310
FFFFFFFFFFFFFFFFFFFFFFFFFFFFFFFFFFFFFFFFFFFFFFFFFFFFFFFFFFFFFFFF
310
FFFFFFFFFFFFFFFFFFFFFFFFFFFFFFFFFFFFFFFFFFFFFFFFFFFFFFFFFFFFFFFF
310
FFFFFFFFFFFFFFFFF000FFFFFFFFFFFFFFFFFFFFFFFFFFFFFFFFFFFFFFFFFFFF
310
FFFFFFFFFFFFFFFFFFFFFFFFFFFFFFFFFFFFFFFFFFFFFFFFFFFFFFFFFFFFFFFF
310
FFFFFFFFFFFFFFFFFFFFFFFFFFFFFFFFFFFFFFFFFFFFFFFFFFFFFFFFFFFFFFFF
310
F000FFFFFFFFFFFFFFFFFFFFFFFFFFFFFFFFFFFFFFFFFFFFFFFFFFFFFFFFFFFF
310
FFFFFFFFFFFFFFFFFFFFFFFFFFFFFFFFFFFFFFFFFFFFFFFFFFFFFFFFFFFFFFFF
310
FFFFFFFFFFFFFFFFFFFFFFFFFFFFFFFFFFFFFFFFFFFFFFFFF000FFFFFFFFFFFF
310
FFFFFFFFFFFFFFFFFFFFFFFFFFFFFFFFFFFFFFFFFFFFFFFFFFFFFFFFFFFFFFFF
310
FFFFFFFFFFFFFFFFFFFFFFFFFFFFFFFFFFFFFFFFFFFFFFFFFFFFFFFFFFFFFFFF
310
FFFFFFFFFFFFFFFFFFFFFFFFFFFFFFFFF000FFFFFFFFFFFFFFFFFFFFFFFFFFFF
310
FFFFFFFFFFFFFFFFFFFFFFFFFFFFFFFFFFFFFFFFFFFFFFFFFFFFFFFFFFFFFFFF
310
FFFFFFFFFFFFFFFFFFFFFFFFFFFFFFFFFFFFFFFFFFFFFFFFFFFFFFFFFFFFFFFF
310
FFFFFFFFFFFFFFFFF000FFFFFFFFFFFFFFFFFFFFFFFFFFFFFFFFFFFFFFFFFFFF
310
FFFFFFFFFFFFFFFFFFFFFFFFFFFFFFFFFFFFFFFFFFFFFFFFFFFFFFFFFFFFFFFF
310
FFFFFFFFFFFFFFFFFFFFFFFFFFFFFFFFFFFFFFFFFFFFFFFFFFFFFFFFFFFFFFFF
310
F000FFFFFFFFFFFFFFFFFFFFFFFFFFFFFFFFFFFFFFFFFFFFFFFFFFFFFFFFFFFF
310
FFFFFFFFFFFFFFFFFFFFFFFFFFFFFFFFFFFFFFFFFFFFFFFFFFFFFFFFFFFFFFFF
310
FFFFFFFFFFFFFFFFFFFFFFFFFFFFFFFFFFFFFFFFFFFFFFFFF000FFFFFFFFFFFF
310
FFFFFFFFFFFFFFFFFFFFFFFFFFFFFFFFFFFFFFFFFFFFFFFFFFFFFFFFFFFFFFFF
310
FFFFFFFFFFFFFFFFFFFFFFFFFFFFFFFFFFFFFFFFFFFFFFFFFFFFFFFFFFFFFFFF
310
FFFFFFFFFFFFFFFFFFFFFFFFFFFFFFFFF0000000000000000000000000000000
310
00000000000000000000000042006C00610063006B0000000000000000000000
310
0000000000000000000000000000000000000000000000000000000000000000
310
0000000000000000000000000000FFFFFFFFFFFFFFFFFFFFFFFFFFFFFFFFFFFF
310
FFFFFFFFFFFFFFFFFFFFFFFFFFFFFFFFFFFFFFFFFFFFFFFFFFFFFFFFFFFFFFFF
310
FFFFFFFFFFFFFFFFFFFFFFFF6476000800000000FFFFFFFF20FF202026000000
310
1E00000008000000060000000000000011000000200000008403000000000000
310
6000000060000000200002FB200020000000002B00FFFFFF40002200E8030000
310
A80400001C020000AF0000804A20004000000000000000000100000000000000
310
616C000800000000E40100007001000002000000270000001100000000000000
310
00000000BC0200000000000003020122420065006C006C00200047006F007400
310
680069006300200053007400640020004C006900670068007400000000000000
310
00000000000000000000000000000000420065006C006C0047006F0074006800
310
690063005300740064002D0042006F006C006400000000000000000000000000
310
0000000000000000000000000000000000000000000000000000000000000000
310
0000000000000000000000000000000000000000000000000000000000000000
  1
OLE
  0
ENDSEC
  0
SECTION
  2
OBJECTS
  0
DICTIONARY
  5
C
330
0
100
AcDbDictionary
281
     1
  3
ACAD_GROUP
350
D
  3
ACAD_LAYOUT
350
1A
  3
ACAD_MLEADERSTYLE
350
1B7
  3
ACAD_MLINESTYLE
350
17
  3
ACAD_PLOTSETTINGS
350
19
  3
ACAD_PLOTSTYLENAME
350
E
  3
ACAD_TABLESTYLE
350
1B6
  3
ACAD_VISUALSTYLE
350
2A
  3
AcDbVariableDictionary
350
1B8
  0
DICTIONARY
  5
D
102
{ACAD_REACTORS
330
C
102
}
330
C
100
AcDbDictionary
281
     1
  0
DICTIONARY
  5
1A
102
{ACAD_REACTORS
330
C
102
}
330
C
100
AcDbDictionary
281
     1
  3
Layout1
350
1E
  3
Layout2
350
26
  3
Model
350
22
  0
DICTIONARY
  5
1B7
102
{ACAD_REACTORS
330
C
102
}
330
C
100
AcDbDictionary
281
     1
  0
DICTIONARY
  5
17
102
{ACAD_REACTORS
330
C
102
}
330
C
100
AcDbDictionary
281
     1
  3
Standard
350
18
  0
DICTIONARY
  5
19
102
{ACAD_REACTORS
330
C
102
}
330
C
100
AcDbDictionary
281
     1
  0
ACDBDICTIONARYWDFLT
  5
E
102
{ACAD_REACTORS
330
C
102
}
330
C
100
AcDbDictionary
281
     1
  3
Normal
350
F
100
AcDbDictionaryWithDefault
340
F
  0
DICTIONARY
  5
1B6
102
{ACAD_REACTORS
330
C
102
}
330
C
100
AcDbDictionary
281
     1
  0
DICTIONARY
  5
2A
102
{ACAD_REACTORS
330
C
102
}
330
C
100
AcDbDictionary
281
     1
  3
2dWireframe
350
2F
  3
3D Hidden
350
31
  3
3dWireframe
350
30
  3
Basic
350
32
  3
Brighten
350
36
  3
ColorChange
350
3A
  3
Conceptual
350
34
  3
Dim
350
35
  3
Facepattern
350
39
  3
Flat
350
2B
  3
FlatWithEdges
350
2C
  3
Gouraud
350
2D
  3
GouraudWithEdges
350
2E
  3
Linepattern
350
38
  3
Realistic
350
33
  3
Thicken
350
37
  0
DICTIONARY
  5
1B8
102
{ACAD_REACTORS
330
C
102
}
330
C
100
AcDbDictionary
281
     1
  3
PSOLHEIGHT
350
1BA
  3
PSOLWIDTH
350
1B9
  0
LAYOUT
  5
1E
102
{ACAD_REACTORS
330
1A
102
}
330
1A
100
AcDbPlotSettings
  1

  2
none_device
  4

  6

 40
0.0
 41
0.0
 42
0.0
 43
0.0
 44
0.0
 45
0.0
 46
0.0
 47
0.0
 48
0.0
 49
0.0
140
0.0
141
0.0
142
1.0
143
1.0
 70
   688
 72
     0
 73
     0
 74
     5
  7

 75
    16
147
1.0
148
0.0
149
0.0
100
AcDbLayout
  1
Layout1
 70
     1
 71
     1
 10
0.0
 20
0.0
 11
420.0
 21
297.0
 12
0.0
 22
0.0
 32
0.0
 14
1.0000000000E+20
 24
1.0000000000E+20
 34
1.0000000000E+20
 15
-1.0000000000E+20
 25
-1.0000000000E+20
 35
-1.0000000000E+20
146
0.0
 13
0.0
 23
0.0
 33
0.0
 16
1.0
 26
0.0
 36
0.0
 17
0.0
 27
1.0
 37
0.0
 76
     0
330
1B
  0
LAYOUT
  5
26
102
{ACAD_REACTORS
330
1A
102
}
330
1A
100
AcDbPlotSettings
  1

  2
none_device
  4

  6

 40
0.0
 41
0.0
 42
0.0
 43
0.0
 44
0.0
 45
0.0
 46
0.0
 47
0.0
 48
0.0
 49
0.0
140
0.0
141
0.0
142
1.0
143
1.0
 70
   688
 72
     0
 73
     0
 74
     5
  7

 75
    16
147
1.0
148
0.0
149
0.0
100
AcDbLayout
  1
Layout2
 70
     1
 71
     2
 10
0.0
 20
0.0
 11
0.0
 21
0.0
 12
0.0
 22
0.0
 32
0.0
 14
0.0
 24
0.0
 34
0.0
 15
0.0
 25
0.0
 35
0.0
146
0.0
 13
0.0
 23
0.0
 33
0.0
 16
1.0
 26
0.0
 36
0.0
 17
0.0
 27
1.0
 37
0.0
 76
     0
330
23
  0
LAYOUT
  5
22
102
{ACAD_REACTORS
330
1A
102
}
330
1A
100
AcDbPlotSettings
  1

  2
none_device
  4

  6

 40
0.0
 41
0.0
 42
0.0
 43
0.0
 44
0.0
 45
0.0
 46
0.0
 47
0.0
 48
0.0
 49
0.0
140
0.0
141
0.0
142
1.0
143
1.0
 70
  1712
 72
     0
 73
     0
 74
     0
  7

 75
     0
147
1.0
148
0.0
149
0.0
100
AcDbLayout
  1
Model
 70
     1
 71
     0
 10
0.0
 20
0.0
 11
297.0
 21
210.0
 12
0.0
 22
0.0
 32
0.0
 14
0.0
 24
0.0
 34
0.0
 15
297.0
 25
210.0
 35
0.0
146
0.0
 13
0.0
 23
0.0
 33
0.0
 16
1.0
 26
0.0
 36
0.0
 17
0.0
 27
1.0
 37
0.0
 76
     0
330
1F
331
29
  0
MLINESTYLE
  5
18
102
{ACAD_REACTORS
330
17
102
}
330
17
100
AcDbMlineStyle
  2
Standard
 70
     0
  3

 62
   256
 51
90.0
 52
90.0
 71
     2
 49
0.5
 62
   256
  6
BYLAYER
 49
-0.5
 62
   256
  6
BYLAYER
  0
ACDBPLACEHOLDER
  5
F
102
{ACAD_REACTORS
330
E
102
}
330
E
  0
VISUALSTYLE
  5
2F
102
{ACAD_REACTORS
330
2A
102
}
330
2A
100
AcDbVisualStyle
  2
2dWireframe
 70
     4
 71
     0
 72
     2
 73
     0
 90
        0
 40
-0.6
 41
-30.0
 62
     5
 63
     7
 74
     1
 91
        4
 64
     7
 65
   257
 75
     1
175
     1
 42
1.0
 92
        0
 66
   257
 43
1.0
 76
     1
 77
     6
 78
     2
 67
     7
 79
     5
170
     0
171
     0
290
     0
174
     0
 93
        1
 44
0.0
173
     0
291
     0
 45
0.0
1001
ACAD
1000
AcDbSavedByObjectVersion
1070
     0
  0
VISUALSTYLE
  5
31
102
{ACAD_REACTORS
330
2A
102
}
330
2A
100
AcDbVisualStyle
  2
3D Hidden
 70
     6
 71
     1
 72
     2
 73
     2
 90
        0
 40
-0.6
 41
-30.0
 62
     5
 63
     7
 74
     2
 91
        2
 64
     7
 65
   257
 75
     2
175
     1
 42
40.0
 92
        0
 66
   257
 43
1.0
 76
     1
 77
     6
 78
     2
 67
     7
 79
     3
170
     0
171
     0
290
     0
174
     0
 93
        1
 44
0.0
173
     0
291
     0
 45
0.0
1001
ACAD
1000
AcDbSavedByObjectVersion
1070
     0
  0
VISUALSTYLE
  5
30
102
{ACAD_REACTORS
330
2A
102
}
330
2A
100
AcDbVisualStyle
  2
3dWireframe
 70
     5
 71
     0
 72
     2
 73
     0
 90
        0
 40
-0.6
 41
-30.0
 62
     5
 63
     7
 74
     1
 91
        4
 64
     7
 65
   257
 75
     1
175
     1
 42
1.0
 92
        0
 66
   257
 43
1.0
 76
     1
 77
     6
 78
     2
 67
     7
 79
     5
170
     0
171
     0
290
     0
174
     0
 93
        1
 44
0.0
173
     0
291
     0
 45
0.0
1001
ACAD
1000
AcDbSavedByObjectVersion
1070
     0
  0
VISUALSTYLE
  5
32
102
{ACAD_REACTORS
330
2A
102
}
330
2A
100
AcDbVisualStyle
  2
Basic
 70
     7
 71
     1
 72
     0
 73
     1
 90
        0
 40
-0.6
 41
-30.0
 62
     5
 63
     7
 74
     0
 91
        4
 64
     7
 65
   257
 75
     1
175
     1
 42
1.0
 92
        8
 66
     7
 43
1.0
 76
     1
 77
     6
 78
     2
 67
     7
 79
     5
170
     0
171
     0
290
     0
174
     0
 93
        1
 44
0.0
173
     0
291
     1
 45
0.0
1001
ACAD
1000
AcDbSavedByObjectVersion
1070
     0
  0
VISUALSTYLE
  5
36
102
{ACAD_REACTORS
330
2A
102
}
330
2A
100
AcDbVisualStyle
  2
Brighten
 70
    12
 71
     2
 72
     2
 73
     0
 90
        0
 40
-0.6
 41
-30.0
 62
     5
 63
     7
 74
     1
 91
        4
 64
     7
 65
   257
 75
     1
175
     1
 42
1.0
 92
        8
 66
     7
 43
1.0
 76
     1
 77
     6
 78
     2
 67
     7
 79
     5
170
     0
171
     0
290
     0
174
     0
 93
        1
 44
50.0
173
     0
291
     1
 45
0.0
1001
ACAD
1000
AcDbSavedByObjectVersion
1070
     0
  0
VISUALSTYLE
  5
3A
102
{ACAD_REACTORS
330
2A
102
}
330
2A
100
AcDbVisualStyle
  2
ColorChange
 70
    16
 71
     2
 72
     2
 73
     3
 90
        0
 40
-0.6
 41
-30.0
 62
     5
 63
     8
 74
     1
 91
        4
 64
     7
 65
   257
 75
     1
175
     1
 42
1.0
 92
        8
 66
     8
 43
1.0
 76
     1
 77
     6
 78
     2
 67
     7
 79
     5
170
     0
171
     0
290
     0
174
     0
 93
        1
 44
0.0
173
     0
291
     1
 45
0.0
1001
ACAD
1000
AcDbSavedByObjectVersion
1070
     0
  0
VISUALSTYLE
  5
34
102
{ACAD_REACTORS
330
2A
102
}
330
2A
100
AcDbVisualStyle
  2
Conceptual
 70
     9
 71
     3
 72
     2
 73
     0
 90
        0
 40
-0.6
 41
-30.0
 62
     5
 63
     7
 74
     2
 91
        2
 64
     7
 65
   257
 75
     1
175
     1
 42
40.0
 92
        8
 66
     7
 43
1.0
 76
     1
 77
     6
 78
     2
 67
     7
 79
     3
170
     0
171
     0
290
     0
174
     0
 93
        1
 44
0.0
173
     0
291
     0
 45
0.0
1001
ACAD
1000
AcDbSavedByObjectVersion
1070
     0
  0
VISUALSTYLE
  5
35
102
{ACAD_REACTORS
330
2A
102
}
330
2A
100
AcDbVisualStyle
  2
Dim
 70
    11
 71
     2
 72
     2
 73
     0
 90
        0
 40
-0.6
 41
-30.0
 62
     5
 63
     7
 74
     1
 91
        4
 64
     7
 65
   257
 75
     1
175
     1
 42
1.0
 92
        8
 66
     7
 43
1.0
 76
     1
 77
     6
 78
     2
 67
     7
 79
     5
170
     0
171
     0
290
     0
174
     0
 93
        1
 44
-50.0
173
     0
291
     1
 45
0.0
1001
ACAD
1000
AcDbSavedByObjectVersion
1070
     0
  0
VISUALSTYLE
  5
39
102
{ACAD_REACTORS
330
2A
102
}
330
2A
100
AcDbVisualStyle
  2
Facepattern
 70
    15
 71
     2
 72
     2
 73
     0
 90
        0
 40
-0.6
 41
-30.0
 62
     5
 63
     7
 74
     1
 91
        4
 64
     7
 65
   257
 75
     1
175
     1
 42
1.0
 92
        8
 66
     7
 43
1.0
 76
     1
 77
     6
 78
     2
 67
     7
 79
     5
170
     0
171
     0
290
     0
174
     0
 93
        1
 44
0.0
173
     0
291
     1
 45
0.0
1001
ACAD
1000
AcDbSavedByObjectVersion
1070
     0
  0
VISUALSTYLE
  5
2B
102
{ACAD_REACTORS
330
2A
102
}
330
2A
100
AcDbVisualStyle
  2
Flat
 70
     0
 71
     2
 72
     1
 73
     1
 90
        2
 40
-0.6
 41
30.0
 62
     5
 63
     7
 74
     0
 91
        4
 64
     7
 65
   257
 75
     1
175
     1
 42
1.0
 92
        8
 66
     7
 43
1.0
 76
     1
 77
     6
 78
     2
 67
     7
 79
     5
170
     0
171
     0
290
     0
174
     0
 93
       13
 44
0.0
173
     0
291
     1
 45
0.0
1001
ACAD
1000
AcDbSavedByObjectVersion
1070
     0
  0
VISUALSTYLE
  5
2C
102
{ACAD_REACTORS
330
2A
102
}
330
2A
100
AcDbVisualStyle
  2
FlatWithEdges
 70
     1
 71
     2
 72
     1
 73
     1
 90
        2
 40
-0.6
 41
30.0
 62
     5
 63
     7
 74
     1
 91
        4
 64
     7
 65
   257
 75
     1
175
     1
 42
1.0
 92
        0
 66
   257
 43
1.0
 76
     1
 77
     6
 78
     2
 67
     7
 79
     5
170
     0
171
     0
290
     0
174
     0
 93
       13
 44
0.0
173
     0
291
     1
 45
0.0
1001
ACAD
1000
AcDbSavedByObjectVersion
1070
     0
  0
VISUALSTYLE
  5
2D
102
{ACAD_REACTORS
330
2A
102
}
330
2A
100
AcDbVisualStyle
  2
Gouraud
 70
     2
 71
     2
 72
     2
 73
     1
 90
        2
 40
-0.6
 41
30.0
 62
     5
 63
     7
 74
     0
 91
        4
 64
     7
 65
   257
 75
     1
175
     1
 42
1.0
 92
        0
 66
     7
 43
1.0
 76
     1
 77
     6
 78
     2
 67
     7
 79
     5
170
     0
171
     0
290
     0
174
     0
 93
       13
 44
0.0
173
     0
291
     1
 45
0.0
1001
ACAD
1000
AcDbSavedByObjectVersion
1070
     0
  0
VISUALSTYLE
  5
2E
102
{ACAD_REACTORS
330
2A
102
}
330
2A
100
AcDbVisualStyle
  2
GouraudWithEdges
 70
     3
 71
     2
 72
     2
 73
     1
 90
        2
 40
-0.6
 41
30.0
 62
     5
 63
     7
 74
     1
 91
        4
 64
     7
 65
   257
 75
     1
175
     1
 42
1.0
 92
        0
 66
   257
 43
1.0
 76
     1
 77
     6
 78
     2
 67
     7
 79
     5
170
     0
171
     0
290
     0
174
     0
 93
       13
 44
0.0
173
     0
291
     1
 45
0.0
1001
ACAD
1000
AcDbSavedByObjectVersion
1070
     0
  0
VISUALSTYLE
  5
38
102
{ACAD_REACTORS
330
2A
102
}
330
2A
100
AcDbVisualStyle
  2
Linepattern
 70
    14
 71
     2
 72
     2
 73
     0
 90
        0
 40
-0.6
 41
-30.0
 62
     5
 63
     7
 74
     1
 91
        4
 64
     7
 65
   257
 75
     7
175
     7
 42
1.0
 92
        8
 66
     7
 43
1.0
 76
     1
 77
     6
 78
     2
 67
     7
 79
     5
170
     0
171
     0
290
     0
174
     0
 93
        1
 44
0.0
173
     0
291
     1
 45
0.0
1001
ACAD
1000
AcDbSavedByObjectVersion
1070
     0
  0
VISUALSTYLE
  5
33
102
{ACAD_REACTORS
330
2A
102
}
330
2A
100
AcDbVisualStyle
  2
Realistic
 70
     8
 71
     2
 72
     2
 73
     0
 90
        0
 40
-0.6
 41
-30.0
 62
     5
 63
     7
 74
     1
 91
        0
 64
     7
 65
   257
 75
     1
175
     1
 42
1.0
 92
        8
 66
     8
 43
1.0
 76
     1
 77
     6
 78
     2
 67
     7
 79
     5
170
     0
171
     0
290
     0
174
     0
 93
       13
 44
0.0
173
     0
291
     0
 45
0.0
1001
ACAD
1000
AcDbSavedByObjectVersion
1070
     0
  0
VISUALSTYLE
  5
37
102
{ACAD_REACTORS
330
2A
102
}
330
2A
100
AcDbVisualStyle
  2
Thicken
 70
    13
 71
     2
 72
     2
 73
     0
 90
        0
 40
-0.6
 41
-30.0
 62
     5
 63
     7
 74
     1
 91
        4
 64
     7
 65
   257
 75
     1
175
     1
 42
1.0
 92
       12
 66
     7
 43
1.0
 76
     1
 77
     6
 78
     2
 67
     7
 79
     5
170
     0
171
     0
290
     0
174
     0
 93
        1
 44
0.0
173
     0
291
     1
 45
0.0
1001
ACAD
1000
AcDbSavedByObjectVersion
1070
     0
  0
DICTIONARYVAR
  5
1BA
102
{ACAD_REACTORS
330
1B8
102
}
330
1B8
100
DictionaryVariables
280
     0
  1
80.000000
  0
DICTIONARYVAR
  5
1B9
102
{ACAD_REACTORS
330
1B8
102
}
330
1B8
100
DictionaryVariables
280
     0
  1
5.000000
  0
ENDSEC
  0
EOF
