  0
SECTION
  2
HEADER
  9
$ACADVER
  1
AC1015
  9
$ACADMAINTVER
 70
     6
  9
$DWGCODEPAGE
  3
ANSI_1252
  9
$INSBASE
 10
0.0
 20
0.0
 30
0.0
  9
$EXTMIN
 10
0.0
 20
0.0
 30
0.0
  9
$EXTMAX
 10
297.0
 20
210.0
 30
0.0
  9
$LIMMIN
 10
0.0
 20
0.0
  9
$LIMMAX
 10
297.0
 20
210.0
  9
$ORTHOMODE
 70
     0
  9
$REGENMODE
 70
     1
  9
$FILLMODE
 70
     1
  9
$QTEXTMODE
 70
     0
  9
$MIRRTEXT
 70
     1
  9
$LTSCALE
 40
1.0
  9
$ATTMODE
 70
     1
  9
$TEXTSIZE
 40
2.0
  9
$TRACEWID
 40
1.0
  9
$TEXTSTYLE
  7
Standard
  9
$CLAYER
  8
0
  9
$CELTYPE
  6
ByLayer
  9
$CECOLOR
 62
   256
  9
$CELTSCALE
 40
1.0
  9
$DISPSILH
 70
     0
  9
$DIMSCALE
 40
1.0
  9
$DIMASZ
 40
3.0
  9
$DIMEXO
 40
0.0
  9
$DIMDLI
 40
3.75
  9
$DIMRND
 40
0.0
  9
$DIMDLE
 40
0.0
  9
$DIMEXE
 40
1.0
  9
$DIMTP
 40
0.0
  9
$DIMTM
 40
0.0
  9
$DIMTXT
 40
2.0
  9
$DIMCEN
 40
2.5
  9
$DIMTSZ
 40
0.0
  9
$DIMTOL
 70
     0
  9
$DIMLIM
 70
     0
  9
$DIMTIH
 70
     1
  9
$DIMTOH
 70
     1
  9
$DIMSE1
 70
     0
  9
$DIMSE2
 70
     0
  9
$DIMTAD
 70
     1
  9
$DIMZIN
 70
     0
  9
$DIMBLK
  1

  9
$DIMASO
 70
     1
  9
$DIMSHO
 70
     1
  9
$DIMPOST
  1

  9
$DIMAPOST
  1

  9
$DIMALT
 70
     0
  9
$DIMALTD
 70
     3
  9
$DIMALTF
 40
0.0393700787
  9
$DIMLFAC
 40
1.0
  9
$DIMTOFL
 70
     1
  9
$DIMTVP
 40
0.0
  9
$DIMTIX
 70
     0
  9
$DIMSOXD
 70
     0
  9
$DIMSAH
 70
     0
  9
$DIMBLK1
  1

  9
$DIMBLK2
  1

  9
$DIMSTYLE
  2
ISO-25
  9
$DIMCLRD
 70
     0
  9
$DIMCLRE
 70
     0
  9
$DIMCLRT
 70
     0
  9
$DIMTFAC
 40
1.0
  9
$DIMGAP
 40
1.524
  9
$DIMJUST
 70
     0
  9
$DIMSD1
 70
     0
  9
$DIMSD2
 70
     0
  9
$DIMTOLJ
 70
     0
  9
$DIMTZIN
 70
     0
  9
$DIMALTZ
 70
     0
  9
$DIMALTTZ
 70
     0
  9
$DIMUPT
 70
     0
  9
$DIMDEC
 70
     2
  9
$DIMTDEC
 70
     3
  9
$DIMALTU
 70
     2
  9
$DIMALTTD
 70
     3
  9
$DIMTXSTY
  7
Standard
  9
$DIMAUNIT
 70
     0
  9
$DIMADEC
 70
     2
  9
$DIMALTRND
 40
0.0
  9
$DIMAZIN
 70
     0
  9
$DIMDSEP
 70
    44
  9
$DIMATFIT
 70
     3
  9
$DIMFRAC
 70
     0
  9
$DIMLDRBLK
  1

  9
$DIMLUNIT
 70
     2
  9
$DIMLWD
 70
    -2
  9
$DIMLWE
 70
    -2
  9
$DIMTMOVE
 70
     0
  9
$LUNITS
 70
     2
  9
$LUPREC
 70
     2
  9
$SKETCHINC
 40
1.0
  9
$FILLETRAD
 40
10.0
  9
$AUNITS
 70
     0
  9
$AUPREC
 70
     2
  9
$MENU
  1
.
  9
$ELEVATION
 40
0.0
  9
$PELEVATION
 40
0.0
  9
$THICKNESS
 40
0.0
  9
$LIMCHECK
 70
     0
  9
$CHAMFERA
 40
10.0
  9
$CHAMFERB
 40
10.0
  9
$CHAMFERC
 40
20.0
  9
$CHAMFERD
 40
0.0
  9
$SKPOLY
 70
     0
  9
$TDCREATE
 40
2455679.523782407
  9
$TDUCREATE
 40
2455679.440449074
  9
$TDUPDATE
 40
2455679.523782419
  9
$TDUUPDATE
 40
2455679.440449086
  9
$TDINDWG
 40
0.0000000116
  9
$TDUSRTIMER
 40
0.0000000116
  9
$USRTIMER
 70
     1
  9
$ANGBASE
 50
0.0
  9
$ANGDIR
 70
     0
  9
$PDMODE
 70
     0
  9
$PDSIZE
 40
-1.0
  9
$PLINEWID
 40
0.0
  9
$SPLFRAME
 70
     0
  9
$SPLINETYPE
 70
     6
  9
$SPLINESEGS
 70
     8
  9
$HANDSEED
  5
23F
  9
$SURFTAB1
 70
     6
  9
$SURFTAB2
 70
     6
  9
$SURFTYPE
 70
     6
  9
$SURFU
 70
     6
  9
$SURFV
 70
     6
  9
$UCSBASE
  2

  9
$UCSNAME
  2

  9
$UCSORG
 10
0.0
 20
0.0
 30
0.0
  9
$UCSXDIR
 10
1.0
 20
0.0
 30
0.0
  9
$UCSYDIR
 10
0.0
 20
1.0
 30
0.0
  9
$UCSORTHOREF
  2

  9
$UCSORTHOVIEW
 70
     0
  9
$UCSORGTOP
 10
0.0
 20
0.0
 30
0.0
  9
$UCSORGBOTTOM
 10
0.0
 20
0.0
 30
0.0
  9
$UCSORGLEFT
 10
0.0
 20
0.0
 30
0.0
  9
$UCSORGRIGHT
 10
0.0
 20
0.0
 30
0.0
  9
$UCSORGFRONT
 10
0.0
 20
0.0
 30
0.0
  9
$UCSORGBACK
 10
0.0
 20
0.0
 30
0.0
  9
$PUCSBASE
  2

  9
$PUCSNAME
  2

  9
$PUCSORG
 10
0.0
 20
0.0
 30
0.0
  9
$PUCSXDIR
 10
1.0
 20
0.0
 30
0.0
  9
$PUCSYDIR
 10
0.0
 20
1.0
 30
0.0
  9
$PUCSORTHOREF
  2

  9
$PUCSORTHOVIEW
 70
     0
  9
$PUCSORGTOP
 10
0.0
 20
0.0
 30
0.0
  9
$PUCSORGBOTTOM
 10
0.0
 20
0.0
 30
0.0
  9
$PUCSORGLEFT
 10
0.0
 20
0.0
 30
0.0
  9
$PUCSORGRIGHT
 10
0.0
 20
0.0
 30
0.0
  9
$PUCSORGFRONT
 10
0.0
 20
0.0
 30
0.0
  9
$PUCSORGBACK
 10
0.0
 20
0.0
 30
0.0
  9
$USERI1
 70
     0
  9
$USERI2
 70
     0
  9
$USERI3
 70
     0
  9
$USERI4
 70
     0
  9
$USERI5
 70
     0
  9
$USERR1
 40
0.0
  9
$USERR2
 40
0.0
  9
$USERR3
 40
0.0
  9
$USERR4
 40
0.0
  9
$USERR5
 40
0.0
  9
$WORLDVIEW
 70
     1
  9
$SHADEDGE
 70
     3
  9
$SHADEDIF
 70
    70
  9
$TILEMODE
 70
     1
  9
$MAXACTVP
 70
    64
  9
$PINSBASE
 10
0.0
 20
0.0
 30
0.0
  9
$PLIMCHECK
 70
     0
  9
$PEXTMIN
 10
1.0000000000E+20
 20
1.0000000000E+20
 30
1.0000000000E+20
  9
$PEXTMAX
 10
-1.0000000000E+20
 20
-1.0000000000E+20
 30
-1.0000000000E+20
  9
$PLIMMIN
 10
0.0
 20
0.0
  9
$PLIMMAX
 10
420.0
 20
297.0
  9
$UNITMODE
 70
     0
  9
$VISRETAIN
 70
     1
  9
$PLINEGEN
 70
     0
  9
$PSLTSCALE
 70
     1
  9
$TREEDEPTH
 70
  3020
  9
$CMLSTYLE
  2
Standard
  9
$CMLJUST
 70
     0
  9
$CMLSCALE
 40
20.0
  9
$PROXYGRAPHICS
 70
     1
  9
$MEASUREMENT
 70
     1
  9
$CELWEIGHT
370
    -1
  9
$ENDCAPS
280
     0
  9
$JOINSTYLE
280
     0
  9
$LWDISPLAY
290
     1
  9
$INSUNITS
 70
     4
  9
$HYPERLINKBASE
  1

  9
$STYLESHEET
  1

  9
$XEDIT
290
     1
  9
$CEPSNTYPE
380
     0
  9
$PSTYLEMODE
290
     1
  9
$FINGERPRINTGUID
  2
{B20ECC48-C7DF-4A49-AC72-FD751A475277}
  9
$VERSIONGUID
  2
{FAEB1C32-E019-11D5-929B-00C0DF256EC4}
  9
$EXTNAMES
290
     1
  9
$PSVPSCALE
 40
0.0
  9
$OLESTARTUP
290
     0
  0
ENDSEC
  0
SECTION
  2
CLASSES
  0
CLASS
  1
ACDBDICTIONARYWDFLT
  2
AcDbDictionaryWithDefault
  3
ObjectDBX Classes
 90
        0
280
     0
281
     0
  0
CLASS
  1
VISUALSTYLE
  2
AcDbVisualStyle
  3
ObjectDBX Classes
 90
     4095
280
     0
281
     0
  0
CLASS
  1
DICTIONARYVAR
  2
AcDbDictionaryVar
  3
ObjectDBX Classes
 90
        0
280
     0
281
     0
  0
CLASS
  1
ACDBPLACEHOLDER
  2
AcDbPlaceHolder
  3
ObjectDBX Classes
 90
        0
280
     0
281
     0
  0
CLASS
  1
LAYOUT
  2
AcDbLayout
  3
ObjectDBX Classes
 90
        0
280
     0
281
     0
  0
ENDSEC
  0
SECTION
  2
TABLES
  0
TABLE
  2
VPORT
  5
8
330
0
100
AcDbSymbolTable
 70
     1
  0
VPORT
  5
29
330
8
100
AcDbSymbolTableRecord
100
AcDbViewportTableRecord
  2
*Active
 70
     0
 10
0.0
 20
0.0
 11
1.0
 21
1.0
 12
148.5
 22
105.0
 13
0.0
 23
0.0
 14
10.0
 24
10.0
 15
10.0
 25
10.0
 16
0.0
 26
0.0
 36
1.0
 17
0.0
 27
0.0
 37
0.0
 40
210.0
 41
1.4142857143
 42
50.0
 43
0.0
 44
0.0
 50
0.0
 51
0.0
 71
     0
 72
  2000
 73
     1
 74
     3
 75
     0
 76
     0
 77
     0
 78
     0
281
     0
 65
     1
110
0.0
120
0.0
130
0.0
111
1.0
121
0.0
131
0.0
112
0.0
122
1.0
132
0.0
 79
     0
146
0.0
  0
ENDTAB
  0
TABLE
  2
LTYPE
  5
5
330
0
100
AcDbSymbolTable
 70
     6
  0
LTYPE
  5
14
330
5
100
AcDbSymbolTableRecord
100
AcDbLinetypeTableRecord
  2
ByBlock
 70
     0
  3

 72
    65
 73
     0
 40
0.0
  0
LTYPE
  5
15
330
5
100
AcDbSymbolTableRecord
100
AcDbLinetypeTableRecord
  2
ByLayer
 70
     0
  3

 72
    65
 73
     0
 40
0.0
  0
LTYPE
  5
16
330
5
100
AcDbSymbolTableRecord
100
AcDbLinetypeTableRecord
  2
Continuous
 70
     0
  3
Solid line
 72
    65
 73
     0
 40
0.0
  0
LTYPE
  5
3B
330
5
100
AcDbSymbolTableRecord
100
AcDbLinetypeTableRecord
  2
HIDDEN
 70
     0
  3
Hidden __ __ __ __ __ __ __ __ __ __ __ __ __ __
 72
    65
 73
     2
 40
1.905
 49
1.27
 74
     0
 49
-0.635
 74
     0
  0
LTYPE
  5
3C
330
5
100
AcDbSymbolTableRecord
100
AcDbLinetypeTableRecord
  2
PHANTOM
 70
     0
  3
Phantom ______  __  __  ______  __  __  ______
 72
    65
 73
     6
 40
12.7
 49
6.35
 74
     0
 49
-1.27
 74
     0
 49
1.27
 74
     0
 49
-1.27
 74
     0
 49
1.27
 74
     0
 49
-1.27
 74
     0
  0
LTYPE
  5
3D
330
5
100
AcDbSymbolTableRecord
100
AcDbLinetypeTableRecord
  2
CENTER
 70
     0
  3
Center ____ _ ____ _ ____ _ ____ _ ____ _ ____
 72
    65
 73
     4
 40
10.16
 49
6.35
 74
     0
 49
-1.27
 74
     0
 49
1.27
 74
     0
 49
-1.27
 74
     0
  0
LTYPE
  5
3E
330
5
100
AcDbSymbolTableRecord
100
AcDbLinetypeTableRecord
  2
CENTERX2
 70
     0
  3
Center (2x) ________  __  ________  __  _____
 72
    65
 73
     4
 40
20.32
 49
12.7
 74
     0
 49
-2.54
 74
     0
 49
2.54
 74
     0
 49
-2.54
 74
     0
  0
LTYPE
  5
3F
330
5
100
AcDbSymbolTableRecord
100
AcDbLinetypeTableRecord
  2
DOT2
 70
     0
  3
Dot (.5x) ........................................
 72
    65
 73
     2
 40
0.635
 49
0.0
 74
     0
 49
-0.635
 74
     0
  0
ENDTAB
  0
TABLE
  2
LAYER
  5
2
330
0
100
AcDbSymbolTable
 70
     5
  0
LAYER
  5
10
330
2
100
AcDbSymbolTableRecord
100
AcDbLayerTableRecord
  2
0
 70
     0
 62
     7
  6
Continuous
370
    -3
390
F
  0
LAYER
  5
40
330
2
100
AcDbSymbolTableRecord
100
AcDbLayerTableRecord
  2
FORMAT
 70
     0
 62
     7
  6
Continuous
370
    -3
390
F
  0
LAYER
  5
41
330
2
100
AcDbSymbolTableRecord
100
AcDbLayerTableRecord
  2
VERMASSUNG
 70
     0
 62
     7
  6
Continuous
370
    -3
390
F
  0
LAYER
  5
42
330
2
100
AcDbSymbolTableRecord
100
AcDbLayerTableRecord
  2
KOPF_DÜNN
 70
     0
 62
     7
  6
Continuous
370
    -3
390
F
  0
LAYER
  5
43
330
2
100
AcDbSymbolTableRecord
100
AcDbLayerTableRecord
  2
KOPF_DICK
 70
     0
 62
     7
  6
Continuous
370
    15
390
F
  0
ENDTAB
  0
TABLE
  2
STYLE
  5
3
330
0
100
AcDbSymbolTable
 70
     3
  0
STYLE
  5
11
330
3
100
AcDbSymbolTableRecord
100
AcDbTextStyleTableRecord
  2
Standard
 70
     0
 40
0.0
 41
1.0
 50
0.0
 71
     0
 42
2.5
  3
txt
  4

  0
STYLE
  5
44
330
3
100
AcDbSymbolTableRecord
100
AcDbTextStyleTableRecord
  2
SLDTEXTSTYLE0
 70
     0
 40
0.0
 41
0.7
 50
0.0
 71
     0
 42
0.2
  3
TXT
  4

  0
STYLE
  5
48
330
3
100
AcDbSymbolTableRecord
100
AcDbTextStyleTableRecord
  2
SLDTEXTSTYLE1
 70
     0
 40
0.0
 41
0.6473684211
 50
0.0
 71
     0
 42
0.2
  3
TXT
  4

  0
ENDTAB
  0
TABLE
  2
VIEW
  5
6
330
0
100
AcDbSymbolTable
 70
     0
  0
ENDTAB
  0
TABLE
  2
UCS
  5
7
330
0
100
AcDbSymbolTable
 70
     0
  0
ENDTAB
  0
TABLE
  2
APPID
  5
9
330
0
100
AcDbSymbolTable
 70
     1
  0
APPID
  5
12
330
9
100
AcDbSymbolTableRecord
100
AcDbRegAppTableRecord
  2
ACAD
 70
     0
  0
ENDTAB
  0
TABLE
  2
DIMSTYLE
  5
A
330
0
100
AcDbSymbolTable
 70
     5
100
AcDbDimStyleTable
  0
DIMSTYLE
105
27
330
A
100
AcDbSymbolTableRecord
100
AcDbDimStyleTableRecord
  2
ISO-25
 70
     0
 41
2.5
 42
0.625
 43
3.75
 44
1.25
 73
     0
 74
     0
 77
     1
 78
     8
140
2.5
141
2.5
143
0.0393700787
147
0.625
171
     3
172
     1
271
     2
272
     2
274
     3
278
    44
283
     0
284
     8
340
11
  0
DIMSTYLE
105
1E0
102
{ACAD_REACTORS
330
1DF
330
21A
330
224
330
22E
102
}
330
A
100
AcDbSymbolTableRecord
100
AcDbDimStyleTableRecord
  2
SLDDIMSTYLE0
 70
     0
 41
3.0
 44
0.0
 45
0.000000001
 73
     0
 74
     0
 77
     1
 78
    12
140
2.0
147
0.5
173
     1
271
     2
272
     3
284
    12
340
44
  0
DIMSTYLE
105
1ED
102
{ACAD_REACTORS
330
1EC
102
}
330
A
100
AcDbSymbolTableRecord
100
AcDbDimStyleTableRecord
  2
SLDDIMSTYLE1
 70
     0
 41
3.0
 44
0.0
 45
0.000000001
 73
     0
 74
     0
 77
     1
 78
    12
140
2.0
147
0.5
173
     1
271
     2
272
     2
284
    12
340
44
  0
DIMSTYLE
105
1F8
102
{ACAD_REACTORS
330
1F7
102
}
330
A
100
AcDbSymbolTableRecord
100
AcDbDimStyleTableRecord
  2
SLDDIMSTYLE2
 70
     0
 41
3.0
 44
0.0
 45
0.000000001
 73
     0
 74
     0
 77
     1
 78
    12
140
2.0
147
0.5
173
     1
271
     2
272
     2
284
    12
340
44
  0
DIMSTYLE
105
204
102
{ACAD_REACTORS
330
203
330
20F
102
}
330
A
100
AcDbSymbolTableRecord
100
AcDbDimStyleTableRecord
  2
SLDDIMSTYLE3
 70
     0
 41
3.0
 44
0.0
 45
0.000000001
 73
     0
 74
     0
 77
     1
 78
    12
140
2.0
147
0.5
173
     1
271
     2
272
     3
284
    12
340
44
  0
ENDTAB
  0
TABLE
  2
BLOCK_RECORD
  5
1
330
0
100
AcDbSymbolTable
 70
     9
  0
BLOCK_RECORD
  5
1F
330
1
100
AcDbSymbolTableRecord
100
AcDbBlockTableRecord
  2
*Model_Space
340
22
  0
BLOCK_RECORD
  5
1B
330
1
100
AcDbSymbolTableRecord
100
AcDbBlockTableRecord
  2
*Paper_Space
340
1E
  0
BLOCK_RECORD
  5
23
330
1
100
AcDbSymbolTableRecord
100
AcDbBlockTableRecord
  2
*Paper_Space0
340
26
  0
BLOCK_RECORD
  5
1E1
330
1
100
AcDbSymbolTableRecord
100
AcDbBlockTableRecord
  2
*D1
340
0
  0
BLOCK_RECORD
  5
1EE
330
1
100
AcDbSymbolTableRecord
100
AcDbBlockTableRecord
  2
*D2
340
0
  0
BLOCK_RECORD
  5
1F9
330
1
100
AcDbSymbolTableRecord
100
AcDbBlockTableRecord
  2
*D3
340
0
  0
BLOCK_RECORD
  5
205
330
1
100
AcDbSymbolTableRecord
100
AcDbBlockTableRecord
  2
*D4
340
0
  0
BLOCK_RECORD
  5
210
330
1
100
AcDbSymbolTableRecord
100
AcDbBlockTableRecord
  2
*D5
340
0
  0
BLOCK_RECORD
  5
21B
330
1
100
AcDbSymbolTableRecord
100
AcDbBlockTableRecord
  2
*D6
340
0
  0
BLOCK_RECORD
  5
225
330
1
100
AcDbSymbolTableRecord
100
AcDbBlockTableRecord
  2
*D7
340
0
  0
BLOCK_RECORD
  5
22F
330
1
100
AcDbSymbolTableRecord
100
AcDbBlockTableRecord
  2
*D8
340
0
  0
ENDTAB
  0
ENDSEC
  0
SECTION
  2
BLOCKS
  0
BLOCK
  5
20
330
1F
100
AcDbEntity
  8
0
100
AcDbBlockBegin
  2
*Model_Space
 70
     0
 10
0.0
 20
0.0
 30
0.0
  3
*Model_Space
  1

  0
ENDBLK
  5
21
330
1F
100
AcDbEntity
  8
0
100
AcDbBlockEnd
  0
BLOCK
  5
1C
330
1B
100
AcDbEntity
 67
     1
  8
0
100
AcDbBlockBegin
  2
*Paper_Space
 70
     0
 10
0.0
 20
0.0
 30
0.0
  3
*Paper_Space
  1

  0
ENDBLK
  5
1D
330
1B
100
AcDbEntity
 67
     1
  8
0
100
AcDbBlockEnd
  0
BLOCK
  5
24
330
23
100
AcDbEntity
  8
0
100
AcDbBlockBegin
  2
*Paper_Space0
 70
     0
 10
0.0
 20
0.0
 30
0.0
  3
*Paper_Space0
  1

  0
ENDBLK
  5
25
330
23
100
AcDbEntity
  8
0
100
AcDbBlockEnd
  0
BLOCK
  5
1E2
330
1E1
100
AcDbEntity
  8
0
100
AcDbBlockBegin
  2
*D1
 70
     1
 10
0.0
 20
0.0
 30
0.0
  3
*D1
  1

  0
SOLID
  5
1E4
330
1E1
100
AcDbEntity
  8
VERMASSUNG
100
AcDbTrace
 10
62.2637825071
 20
139.8650054171
 30
0.0
 11
61.8137825071
 21
136.8650054171
 31
0.0
 12
62.7137825071
 22
136.8650054171
 32
0.0
 13
62.7137825071
 23
136.8650054171
 33
0.0
  0
SOLID
  5
1E5
330
1E1
100
AcDbEntity
  8
VERMASSUNG
100
AcDbTrace
 10
62.2637825071
 20
76.8650054171
 30
0.0
 11
62.7137825071
 21
79.8650054171
 31
0.0
 12
61.8137825071
 22
79.8650054171
 32
0.0
 13
61.8137825071
 23
79.8650054171
 33
0.0
  0
LINE
  5
1E6
330
1E1
100
AcDbEntity
  8
VERMASSUNG
100
AcDbLine
 10
99.3035683828
 20
139.8650054171
 30
0.0
 11
61.2637825071
 21
139.8650054171
 31
0.0
  0
LINE
  5
1E7
330
1E1
100
AcDbEntity
  8
VERMASSUNG
100
AcDbLine
 10
99.3035683828
 20
76.8650054171
 30
0.0
 11
61.2637825071
 21
76.8650054171
 31
0.0
  0
LINE
  5
1E8
330
1E1
100
AcDbEntity
  8
VERMASSUNG
100
AcDbLine
 10
62.2637825071
 20
139.8650054171
 30
0.0
 11
62.2637825071
 21
76.8650054171
 31
0.0
  0
MTEXT
  5
1E9
330
1E1
100
AcDbEntity
  8
VERMASSUNG
100
AcDbMText
 10
59.485647018
 20
100.6614637053
 30
0.0
 40
2.0
 41
0.0
 71
     1
 72
     1
  1
HSK A 
  7
SLDTEXTSTYLE0
 11
-7.044195017643634E-15
 21
1.0
 31
0.0
 73
     1
 44
1.0
  0
MTEXT
  5
1EA
330
1E1
100
AcDbEntity
  8
VERMASSUNG
100
AcDbMText
 10
59.6856470275
 20
109.6614642492
 30
0.0
 40
2.0
 41
0.0
 71
     1
 72
     1
  1
%%c
  7
SLDTEXTSTYLE0
 11
-7.044195017643634E-15
 21
1.0
 31
0.0
 73
     1
 44
1.0
  0
MTEXT
  5
1EB
330
1E1
100
AcDbEntity
  8
VERMASSUNG
100
AcDbMText
 10
59.6856471439
 20
113.2697908992
 30
0.0
 40
2.0
 41
0.0
 71
     1
 72
     1
  1
63
  7
SLDTEXTSTYLE0
 11
-7.044195017643634E-15
 21
1.0
 31
0.0
 73
     1
 44
1.0
  0
ENDBLK
  5
1E3
330
1E1
100
AcDbEntity
  8
0
100
AcDbBlockEnd
  0
BLOCK
  5
1EF
330
1EE
100
AcDbEntity
  8
0
100
AcDbBlockBegin
  2
*D2
 70
     1
 10
0.0
 20
0.0
 30
0.0
  3
*D2
  1

  0
SOLID
  5
1F1
330
1EE
100
AcDbEntity
  8
VERMASSUNG
100
AcDbTrace
 10
179.5035683828
 20
140.2171121109
 30
0.0
 11
182.5035683828
 21
139.7671121109
 31
0.0
 12
182.5035683828
 22
140.6671121109
 32
0.0
 13
182.5035683828
 23
140.6671121109
 33
0.0
  0
SOLID
  5
1F2
330
1EE
100
AcDbEntity
  8
VERMASSUNG
100
AcDbTrace
 10
229.0035683828
 20
140.2171121109
 30
0.0
 11
226.0035683828
 21
140.6671121109
 31
0.0
 12
226.0035683828
 22
139.7671121109
 32
0.0
 13
226.0035683828
 23
139.7671121109
 33
0.0
  0
LINE
  5
1F3
330
1EE
100
AcDbEntity
  8
VERMASSUNG
100
AcDbLine
 10
179.5035683828
 20
116.2650054171
 30
0.0
 11
179.5035683828
 21
141.2171121109
 31
0.0
  0
LINE
  5
1F4
330
1EE
100
AcDbEntity
  8
VERMASSUNG
100
AcDbLine
 10
229.0035683828
 20
120.0162244338
 30
0.0
 11
229.0035683828
 21
141.2171121109
 31
0.0
  0
LINE
  5
1F5
330
1EE
100
AcDbEntity
  8
VERMASSUNG
100
AcDbLine
 10
179.5035683828
 20
140.2171121109
 30
0.0
 11
229.0035683828
 21
140.2171121109
 31
0.0
  0
MTEXT
  5
1F6
330
1EE
100
AcDbEntity
  8
VERMASSUNG
100
AcDbMText
 10
201.7541816005
 20
142.795247474
 30
0.0
 40
2.0
 41
0.0
 71
     1
 72
     1
  1
49.5
  7
SLDTEXTSTYLE0
 73
     1
 44
1.0
  0
ENDBLK
  5
1F0
330
1EE
100
AcDbEntity
  8
0
100
AcDbBlockEnd
  0
BLOCK
  5
1FA
330
1F9
100
AcDbEntity
  8
0
100
AcDbBlockBegin
  2
*D3
 70
     1
 10
0.0
 20
0.0
 30
0.0
  3
*D3
  1

  0
SOLID
  5
1FC
330
1F9
100
AcDbEntity
  8
VERMASSUNG
100
AcDbTrace
 10
236.9379487577
 20
100.3650054171
 30
0.0
 11
237.3879487577
 21
103.3650054171
 31
0.0
 12
236.4879487577
 22
103.3650054171
 32
0.0
 13
236.4879487577
 23
103.3650054171
 33
0.0
  0
SOLID
  5
1FD
330
1F9
100
AcDbEntity
  8
VERMASSUNG
100
AcDbTrace
 10
236.9379487577
 20
116.3650054171
 30
0.0
 11
236.4879487577
 21
113.3650054171
 31
0.0
 12
237.3879487577
 22
113.3650054171
 32
0.0
 13
237.3879487577
 23
113.3650054171
 33
0.0
  0
LINE
  5
1FE
330
1F9
100
AcDbEntity
  8
VERMASSUNG
100
AcDbLine
 10
225.5035683828
 20
100.3650054171
 30
0.0
 11
237.9379487577
 21
100.3650054171
 31
0.0
  0
LINE
  5
1FF
330
1F9
100
AcDbEntity
  8
VERMASSUNG
100
AcDbLine
 10
225.5035683828
 20
116.3650054171
 30
0.0
 11
237.9379487577
 21
116.3650054171
 31
0.0
  0
LINE
  5
200
330
1F9
100
AcDbEntity
  8
VERMASSUNG
100
AcDbLine
 10
236.9379487577
 20
100.3650054171
 30
0.0
 11
236.9379487577
 21
116.3650054171
 31
0.0
  0
MTEXT
  5
201
330
1F9
100
AcDbEntity
  8
VERMASSUNG
100
AcDbMText
 10
234.3598132781
 20
105.3608678223
 30
0.0
 40
2.0
 41
0.0
 71
     1
 72
     1
  1
%%c
  7
SLDTEXTSTYLE0
 11
6.123233995736766E-17
 21
1.0
 31
0.0
 73
     1
 44
1.0
  0
MTEXT
  5
202
330
1F9
100
AcDbEntity
  8
VERMASSUNG
100
AcDbMText
 10
234.3598133946
 20
108.9695460455
 30
0.0
 40
2.0
 41
0.0
 71
     1
 72
     1
  1
16
  7
SLDTEXTSTYLE0
 11
6.123233995736766E-17
 21
1.0
 31
0.0
 73
     1
 44
1.0
  0
ENDBLK
  5
1FB
330
1F9
100
AcDbEntity
  8
0
100
AcDbBlockEnd
  0
BLOCK
  5
206
330
205
100
AcDbEntity
  8
0
100
AcDbBlockBegin
  2
*D4
 70
     1
 10
0.0
 20
0.0
 30
0.0
  3
*D4
  1

  0
SOLID
  5
208
330
205
100
AcDbEntity
  8
VERMASSUNG
100
AcDbTrace
 10
242.9379487577
 20
94.8650054171
 30
0.0
 11
243.3879487577
 21
97.8650054171
 31
0.0
 12
242.4879487577
 22
97.8650054171
 32
0.0
 13
242.4879487577
 23
97.8650054171
 33
0.0
  0
SOLID
  5
209
330
205
100
AcDbEntity
  8
VERMASSUNG
100
AcDbTrace
 10
242.9379487577
 20
121.8650054171
 30
0.0
 11
242.4879487577
 21
118.8650054171
 31
0.0
 12
243.3879487577
 22
118.8650054171
 32
0.0
 13
243.3879487577
 23
118.8650054171
 33
0.0
  0
LINE
  5
20A
330
205
100
AcDbEntity
  8
VERMASSUNG
100
AcDbLine
 10
229.0035683828
 20
94.8650054171
 30
0.0
 11
243.9379487577
 21
94.8650054171
 31
0.0
  0
LINE
  5
20B
330
205
100
AcDbEntity
  8
VERMASSUNG
100
AcDbLine
 10
229.0035683828
 20
121.8650054171
 30
0.0
 11
243.9379487577
 21
121.8650054171
 31
0.0
  0
LINE
  5
20C
330
205
100
AcDbEntity
  8
VERMASSUNG
100
AcDbLine
 10
242.9379487577
 20
94.8650054171
 30
0.0
 11
242.9379487577
 21
121.8650054171
 31
0.0
  0
MTEXT
  5
20D
330
205
100
AcDbEntity
  8
VERMASSUNG
100
AcDbMText
 10
240.3598132781
 20
105.1612881907
 30
0.0
 40
2.0
 41
0.0
 71
     1
 72
     1
  1
%%c
  7
SLDTEXTSTYLE0
 11
6.123233995736766E-17
 21
1.0
 31
0.0
 73
     1
 44
1.0
  0
MTEXT
  5
20E
330
205
100
AcDbEntity
  8
VERMASSUNG
100
AcDbMText
 10
240.3598133946
 20
108.7699664139
 30
0.0
 40
2.0
 41
0.0
 71
     1
 72
     1
  1
27
  7
SLDTEXTSTYLE0
 11
6.123233995736766E-17
 21
1.0
 31
0.0
 73
     1
 44
1.0
  0
ENDBLK
  5
207
330
205
100
AcDbEntity
  8
0
100
AcDbBlockEnd
  0
BLOCK
  5
211
330
210
100
AcDbEntity
  8
0
100
AcDbBlockBegin
  2
*D5
 70
     1
 10
0.0
 20
0.0
 30
0.0
  3
*D5
  1

  0
SOLID
  5
213
330
210
100
AcDbEntity
  8
VERMASSUNG
100
AcDbTrace
 10
248.9379487577
 20
91.3650054171
 30
0.0
 11
249.3879487577
 21
94.3650054171
 31
0.0
 12
248.4879487577
 22
94.3650054171
 32
0.0
 13
248.4879487577
 23
94.3650054171
 33
0.0
  0
SOLID
  5
214
330
210
100
AcDbEntity
  8
VERMASSUNG
100
AcDbTrace
 10
248.9379487577
 20
125.3650054171
 30
0.0
 11
248.4879487577
 21
122.3650054171
 31
0.0
 12
249.3879487577
 22
122.3650054171
 32
0.0
 13
249.3879487577
 23
122.3650054171
 33
0.0
  0
LINE
  5
215
330
210
100
AcDbEntity
  8
VERMASSUNG
100
AcDbLine
 10
169.0035683828
 20
91.3650054171
 30
0.0
 11
249.9379487577
 21
91.3650054171
 31
0.0
  0
LINE
  5
216
330
210
100
AcDbEntity
  8
VERMASSUNG
100
AcDbLine
 10
169.0035683828
 20
125.3650054171
 30
0.0
 11
249.9379487577
 21
125.3650054171
 31
0.0
  0
LINE
  5
217
330
210
100
AcDbEntity
  8
VERMASSUNG
100
AcDbLine
 10
248.9379487577
 20
91.3650054171
 30
0.0
 11
248.9379487577
 21
125.3650054171
 31
0.0
  0
MTEXT
  5
218
330
210
100
AcDbEntity
  8
VERMASSUNG
100
AcDbMText
 10
246.3598132781
 20
105.0614983749
 30
0.0
 40
2.0
 41
0.0
 71
     1
 72
     1
  1
%%c
  7
SLDTEXTSTYLE0
 11
6.123233995736766E-17
 21
1.0
 31
0.0
 73
     1
 44
1.0
  0
MTEXT
  5
219
330
210
100
AcDbEntity
  8
VERMASSUNG
100
AcDbMText
 10
246.3598133946
 20
108.670176598
 30
0.0
 40
2.0
 41
0.0
 71
     1
 72
     1
  1
34
  7
SLDTEXTSTYLE0
 11
6.123233995736766E-17
 21
1.0
 31
0.0
 73
     1
 44
1.0
  0
ENDBLK
  5
212
330
210
100
AcDbEntity
  8
0
100
AcDbBlockEnd
  0
BLOCK
  5
21C
330
21B
100
AcDbEntity
  8
0
100
AcDbBlockBegin
  2
*D6
 70
     1
 10
0.0
 20
0.0
 30
0.0
  3
*D6
  1

  0
SOLID
  5
21E
330
21B
100
AcDbEntity
  8
VERMASSUNG
100
AcDbTrace
 10
99.0035683828
 20
152.2171121109
 30
0.0
 11
102.0035683828
 21
151.7671121109
 31
0.0
 12
102.0035683828
 22
152.6671121109
 32
0.0
 13
102.0035683828
 23
152.6671121109
 33
0.0
  0
SOLID
  5
21F
330
21B
100
AcDbEntity
  8
VERMASSUNG
100
AcDbTrace
 10
229.0035683828
 20
152.2171121109
 30
0.0
 11
226.0035683828
 21
152.6671121109
 31
0.0
 12
226.0035683828
 22
151.7671121109
 32
0.0
 13
226.0035683828
 23
151.7671121109
 33
0.0
  0
LINE
  5
220
330
21B
100
AcDbEntity
  8
VERMASSUNG
100
AcDbLine
 10
99.0035683828
 20
139.5650054171
 30
0.0
 11
99.0035683828
 21
153.2171121109
 31
0.0
  0
LINE
  5
221
330
21B
100
AcDbEntity
  8
VERMASSUNG
100
AcDbLine
 10
229.0035683828
 20
120.0162244338
 30
0.0
 11
229.0035683828
 21
153.2171121109
 31
0.0
  0
LINE
  5
222
330
21B
100
AcDbEntity
  8
VERMASSUNG
100
AcDbLine
 10
99.0035683828
 20
152.2171121109
 30
0.0
 11
229.0035683828
 21
152.2171121109
 31
0.0
  0
MTEXT
  5
223
330
21B
100
AcDbEntity
  8
VERMASSUNG
100
AcDbMText
 10
162.1040808422
 20
154.795247474
 30
0.0
 40
2.0
 41
0.0
 71
     1
 72
     1
  1
130
  7
SLDTEXTSTYLE0
 73
     1
 44
1.0
  0
ENDBLK
  5
21D
330
21B
100
AcDbEntity
  8
0
100
AcDbBlockEnd
  0
BLOCK
  5
226
330
225
100
AcDbEntity
  8
0
100
AcDbBlockBegin
  2
*D7
 70
     1
 10
0.0
 20
0.0
 30
0.0
  3
*D7
  1

  0
SOLID
  5
228
330
225
100
AcDbEntity
  8
VERMASSUNG
100
AcDbTrace
 10
124.9535683828
 20
146.2171121109
 30
0.0
 11
127.9535683828
 21
145.7671121109
 31
0.0
 12
127.9535683828
 22
146.6671121109
 32
0.0
 13
127.9535683828
 23
146.6671121109
 33
0.0
  0
SOLID
  5
229
330
225
100
AcDbEntity
  8
VERMASSUNG
100
AcDbTrace
 10
229.0035683828
 20
146.2171121109
 30
0.0
 11
226.0035683828
 21
146.6671121109
 31
0.0
 12
226.0035683828
 22
145.7671121109
 32
0.0
 13
226.0035683828
 23
145.7671121109
 33
0.0
  0
LINE
  5
22A
330
225
100
AcDbEntity
  8
VERMASSUNG
100
AcDbLine
 10
124.9535683828
 20
138.2114457409
 30
0.0
 11
124.9535683828
 21
147.2171121109
 31
0.0
  0
LINE
  5
22B
330
225
100
AcDbEntity
  8
VERMASSUNG
100
AcDbLine
 10
229.0035683828
 20
119.9644531769
 30
0.0
 11
229.0035683828
 21
147.2171121109
 31
0.0
  0
LINE
  5
22C
330
225
100
AcDbEntity
  8
VERMASSUNG
100
AcDbLine
 10
124.9535683828
 20
146.2171121109
 30
0.0
 11
229.0035683828
 21
146.2171121109
 31
0.0
  0
MTEXT
  5
22D
330
225
100
AcDbEntity
  8
VERMASSUNG
100
AcDbMText
 10
173.2793831173
 20
148.795247474
 30
0.0
 40
2.0
 41
0.0
 71
     1
 72
     1
  1
104.05
  7
SLDTEXTSTYLE0
 73
     1
 44
1.0
  0
ENDBLK
  5
227
330
225
100
AcDbEntity
  8
0
100
AcDbBlockEnd
  0
BLOCK
  5
230
330
22F
100
AcDbEntity
  8
0
100
AcDbBlockBegin
  2
*D8
 70
     1
 10
0.0
 20
0.0
 30
0.0
  3
*D8
  1

  0
SOLID
  5
232
330
22F
100
AcDbEntity
  8
VERMASSUNG
100
AcDbTrace
 10
67.1035683828
 20
158.2171121109
 30
0.0
 11
70.1035683828
 21
157.7671121109
 31
0.0
 12
70.1035683828
 22
158.6671121109
 32
0.0
 13
70.1035683828
 23
158.6671121109
 33
0.0
  0
SOLID
  5
233
330
22F
100
AcDbEntity
  8
VERMASSUNG
100
AcDbTrace
 10
229.0035683828
 20
158.2171121109
 30
0.0
 11
226.0035683828
 21
158.6671121109
 31
0.0
 12
226.0035683828
 22
157.7671121109
 32
0.0
 13
226.0035683828
 23
157.7671121109
 33
0.0
  0
LINE
  5
234
330
22F
100
AcDbEntity
  8
VERMASSUNG
100
AcDbLine
 10
67.1035683828
 20
128.0556831636
 30
0.0
 11
67.1035683828
 21
159.2171121109
 31
0.0
  0
LINE
  5
235
330
22F
100
AcDbEntity
  8
VERMASSUNG
100
AcDbLine
 10
229.0035683828
 20
119.9644531769
 30
0.0
 11
229.0035683828
 21
159.2171121109
 31
0.0
  0
LINE
  5
236
330
22F
100
AcDbEntity
  8
VERMASSUNG
100
AcDbLine
 10
67.1035683828
 20
158.2171121109
 30
0.0
 11
229.0035683828
 21
158.2171121109
 31
0.0
  0
MTEXT
  5
237
330
22F
100
AcDbEntity
  8
VERMASSUNG
100
AcDbMText
 10
145.3546019689
 20
160.795247474
 30
0.0
 40
2.0
 41
0.0
 71
     1
 72
     1
  1
161.9
  7
SLDTEXTSTYLE0
 73
     1
 44
1.0
  0
ENDBLK
  5
231
330
22F
100
AcDbEntity
  8
0
100
AcDbBlockEnd
  0
ENDSEC
  0
SECTION
  2
ENTITIES
  0
MTEXT
  5
45
330
1F
100
AcDbEntity
  8
KOPF_DÜNN
100
AcDbMText
 10
13.8892156294
 20
23.8442973028
 30
0.0
 40
3.0
 41
0.0
 71
     1
 72
     1
  1
HA6.S16.K21.130
  7
SLDTEXTSTYLE0
 73
     1
 44
1.0
  0
MTEXT
  5
46
330
1F
100
AcDbEntity
  8
VERMASSUNG
100
AcDbMText
 10
13.9329988022
 20
28.8834360957
 30
0.0
 40
3.0
 41
0.0
 71
     1
 72
     1
  1
Schrumpffutter_Heat shrink chuck
  7
SLDTEXTSTYLE0
 73
     1
 44
1.0
  0
MTEXT
  5
47
330
1F
100
AcDbEntity
  8
VERMASSUNG
100
AcDbMText
 10
98.8601118557
 20
13.8365368179
 30
0.0
 40
2.0
 41
0.0
 71
     1
 72
     1
  1
Datum: 27.04.2011
  7
SLDTEXTSTYLE0
 73
     1
 44
1.0
  0
MTEXT
  5
49
330
1F
100
AcDbEntity
  8
VERMASSUNG
100
AcDbMText
 10
13.933048693
 20
18.0482802738
 30
0.0
 40
2.0
 41
0.0
 71
     1
 72
     1
  1
DIN 69 893 HSK A 63
  7
SLDTEXTSTYLE1
 73
     1
 44
1.0
  0
MTEXT
  5
4A
330
1F
100
AcDbEntity
  8
VERMASSUNG
100
AcDbMText
 10
13.9808475933
 20
13.9090973692
 30
0.0
 40
2.0
 41
0.0
 71
     1
 72
     1
  1
Gewicht: 1236g
  7
SLDTEXTSTYLE0
 73
     1
 44
1.0
  0
ARC
  5
4B
330
1F
100
AcDbEntity
  8
0
  6
Continuous
 62
     7
370
    15
100
AcDbCircle
 10
99.3035683828
 20
77.1650054171
 30
0.0
 40
0.3000000000000114
100
AcDbArc
 50
180.0
 51
270.0
  0
ARC
  5
4C
330
1F
100
AcDbEntity
  8
0
  6
Continuous
 62
     7
370
    15
100
AcDbCircle
 10
99.3035683828
 20
139.5650054171
 30
0.0
 40
0.3000000000000114
100
AcDbArc
 50
90.0
 51
180.0
  0
LINE
  5
4D
330
1F
100
AcDbEntity
  8
0
  6
Continuous
 62
     7
370
    15
100
AcDbLine
 10
99.3035683828
 20
76.8650054171
 30
0.0
 11
103.9535683828
 21
76.8650054171
 31
0.0
  0
LINE
  5
4E
330
1F
100
AcDbEntity
  8
0
  6
Continuous
 62
     7
370
    15
100
AcDbLine
 10
103.9628764696
 20
139.8650054171
 30
0.0
 11
99.3035683828
 21
139.8650054171
 31
0.0
  0
ARC
  5
4F
330
1F
100
AcDbEntity
  8
0
  6
Continuous
 62
     7
370
    15
100
AcDbCircle
 10
98.5035616301
 20
83.7945678027
 30
0.0
 40
0.6000067526677164
100
AcDbArc
 50
33.5571153394
 51
90.0
  0
ARC
  5
50
330
1F
100
AcDbEntity
  8
0
  6
Continuous
 62
     7
370
    15
100
AcDbCircle
 10
98.5035616301
 20
132.9354430315
 30
0.0
 40
0.6000067526677321
100
AcDbArc
 50
270.0
 51
326.4428846606
  0
LINE
  5
51
330
1F
100
AcDbEntity
  8
0
  6
Continuous
 62
     7
370
    15
100
AcDbLine
 10
85.7731462003
 20
132.0227898769
 30
0.0
 11
73.2035683828
 21
131.3930515093
 31
0.0
  0
LINE
  5
52
330
1F
100
AcDbEntity
  8
0
  6
Continuous
 62
     7
370
    15
100
AcDbLine
 10
97.0035683828
 20
132.5854362788
 30
0.0
 11
94.1849590253
 21
132.4442233852
 31
0.0
  0
LINE
  5
53
330
1F
100
AcDbEntity
  8
0
  6
Continuous
 62
     7
370
    15
100
AcDbLine
 10
94.1851805004
 20
84.2857763531
 30
0.0
 11
97.0035683828
 21
84.1445745554
 31
0.0
  0
LINE
  5
54
330
1F
100
AcDbEntity
  8
0
  6
Continuous
 62
     7
370
    15
100
AcDbLine
 10
77.2035683828
 20
85.1365585233
 30
0.0
 11
85.773845152
 21
84.7071859397
 31
0.0
  0
LINE
  5
55
330
1F
100
AcDbEntity
  8
0
  6
Continuous
 62
     7
370
    15
100
AcDbLine
 10
97.0035683828
 20
84.1445745554
 30
0.0
 11
97.8602811562
 21
84.3741300512
 31
0.0
  0
LINE
  5
56
330
1F
100
AcDbEntity
  8
0
  6
Continuous
 62
     7
370
    15
100
AcDbLine
 10
97.8602811562
 20
132.3558807831
 30
0.0
 11
97.0035683828
 21
132.5854362788
 31
0.0
  0
ARC
  5
57
330
1F
100
AcDbEntity
  8
0
  6
Continuous
 62
     7
370
    15
100
AcDbCircle
 10
98.0155725832
 20
83.7945745554
 30
0.0
 40
0.6000000000000071
100
AcDbArc
 50
90.0
 51
105.0
  0
ARC
  5
58
330
1F
100
AcDbEntity
  8
0
  6
Continuous
 62
     7
370
    15
100
AcDbCircle
 10
98.0155725832
 20
132.9354362788
 30
0.0
 40
0.5999999999999943
100
AcDbArc
 50
255.0
 51
270.0
  0
LINE
  5
59
330
1F
100
AcDbEntity
  8
0
  6
Continuous
 62
     7
370
    15
100
AcDbLine
 10
98.0155725832
 20
84.3945745554
 30
0.0
 11
98.5035616301
 21
84.3945745554
 31
0.0
  0
LINE
  5
5A
330
1F
100
AcDbEntity
  8
0
  6
Continuous
 62
     7
370
    15
100
AcDbLine
 10
98.5035616301
 20
132.3354362788
 30
0.0
 11
98.0155725832
 21
132.3354362788
 31
0.0
  0
ARC
  5
5B
330
1F
100
AcDbEntity
  8
0
  6
Continuous
 62
     7
370
    15
100
AcDbCircle
 10
127.9535683828
 20
85.3490466156
 30
0.0
 40
2.999999999999996
100
AcDbArc
 50
104.3250519401
 51
180.0
  0
ARC
  5
5C
330
1F
100
AcDbEntity
  8
0
  6
Continuous
 62
     7
370
    15
100
AcDbCircle
 10
127.9535683828
 20
131.3809642186
 30
0.0
 40
3.000000000000009
100
AcDbArc
 50
180.0
 51
255.6749480599
  0
ARC
  5
5D
330
1F
100
AcDbEntity
  8
0
  6
Continuous
 62
     7
370
    15
100
AcDbCircle
 10
151.9535683828
 20
-8.6349945829
 30
0.0
 40
100.0
100
AcDbArc
 50
90.0
 51
104.3250519401
  0
ARC
  5
5E
330
1F
100
AcDbEntity
  8
0
  6
Continuous
 62
     7
370
    15
100
AcDbCircle
 10
151.9535683828
 20
225.3650054171
 30
0.0
 40
100.0
100
AcDbArc
 50
255.6749480599
 51
270.0
  0
LINE
  5
5F
330
1F
100
AcDbEntity
  8
0
  6
Continuous
 62
     7
370
    15
100
AcDbLine
 10
164.4509785303
 20
91.3650054171
 30
0.0
 11
184.5318518062
 21
91.3650054171
 31
0.0
  0
LINE
  5
60
330
1F
100
AcDbEntity
  8
0
  6
Continuous
 62
     7
370
    15
100
AcDbLine
 10
151.9535683828
 20
91.3650054171
 30
0.0
 11
157.454873814
 21
91.3650054171
 31
0.0
  0
LINE
  5
61
330
1F
100
AcDbEntity
  8
0
  6
Continuous
 62
     7
370
    15
100
AcDbLine
 10
157.4642234636
 20
125.3650054171
 30
0.0
 11
151.9535683828
 21
125.3650054171
 31
0.0
  0
LINE
  5
62
330
1F
100
AcDbEntity
  8
0
  6
Continuous
 62
     7
370
    15
100
AcDbLine
 10
184.5318518062
 20
125.3650054171
 30
0.0
 11
164.4443739886
 21
125.3650054171
 31
0.0
  0
LINE
  5
63
330
1F
100
AcDbEntity
  8
0
  6
Continuous
 62
     7
370
    15
100
AcDbLine
 10
184.5318518062
 20
91.3650054171
 30
0.0
 11
227.1604865742
 21
94.719951733
 31
0.0
  0
LINE
  5
64
330
1F
100
AcDbEntity
  8
0
  6
Continuous
 62
     7
370
    15
100
AcDbLine
 10
227.1604865742
 20
122.0100591013
 30
0.0
 11
184.5318518062
 21
125.3650054171
 31
0.0
  0
ARC
  5
65
330
1F
100
AcDbEntity
  8
0
  6
Continuous
 62
     7
370
    15
100
AcDbCircle
 10
227.0035683828
 20
96.7137864004
 30
0.0
 40
2.000000000000004
100
AcDbArc
 50
274.5
 51
334.6108581548
  0
ARC
  5
66
330
1F
100
AcDbEntity
  8
0
  6
Continuous
 62
     7
370
    15
100
AcDbCircle
 10
227.0035683828
 20
120.0162244338
 30
0.0
 40
2.000000000000004
100
AcDbArc
 50
25.3891418452
 51
85.5
  0
LINE
  5
67
330
1F
100
AcDbEntity
  8
0
  6
Continuous
 62
     7
370
    15
100
AcDbLine
 10
68.3979875092
 20
87.4950054171
 30
0.0
 11
75.8035683828
 21
87.4950054171
 31
0.0
  0
ARC
  5
68
330
1F
100
AcDbEntity
  8
0
  6
Continuous
 62
     7
370
    15
100
AcDbCircle
 10
75.8035683828
 20
86.0950054171
 30
0.0
 40
1.400000000000006
100
AcDbArc
 50
42.2465410162
 51
90.0
  0
LINE
  5
69
330
1F
100
AcDbEntity
  8
0
  6
Continuous
 62
     7
370
    15
100
AcDbLine
 10
67.1147288179
 20
88.633844982
 30
0.0
 11
68.244731841
 21
87.5038419589
 31
0.0
  0
LINE
  5
6A
330
1F
100
AcDbEntity
  8
0
  6
Continuous
 62
     7
370
    15
100
AcDbLine
 10
68.244731841
 20
129.2261688753
 30
0.0
 11
67.114736002
 21
128.0961730363
 31
0.0
  0
ARC
  5
6B
330
1F
100
AcDbEntity
  8
0
  6
Continuous
 62
     7
370
    15
100
AcDbCircle
 10
71.8035683828
 20
130.6350054171
 30
0.0
 40
1.400000000000007
100
AcDbArc
 50
270.0
 51
302.5610026528
  0
LINE
  5
6C
330
1F
100
AcDbEntity
  8
0
  6
Continuous
 62
     7
370
    15
100
AcDbLine
 10
71.8035683828
 20
129.2350054171
 30
0.0
 11
68.3944567842
 21
129.2350054171
 31
0.0
  0
LINE
  5
6D
330
1F
100
AcDbEntity
  8
0
  6
Continuous
 62
     7
370
    15
100
AcDbLine
 10
228.8104015115
 20
95.8562585322
 30
0.0
 11
228.9300810728
 21
95.8609607549
 31
0.0
  0
LINE
  5
6E
330
1F
100
AcDbEntity
  8
0
  6
Continuous
 62
     7
370
    15
100
AcDbLine
 10
228.9300810728
 20
95.8609607549
 30
0.0
 11
229.0808905899
 21
96.1476024992
 31
0.0
  0
LINE
  5
6F
330
1F
100
AcDbEntity
  8
0
  6
Continuous
 62
     7
370
    15
100
AcDbLine
 10
228.8711913492
 20
120.8713638628
 30
0.0
 11
228.8104015115
 21
120.8737523021
 31
0.0
  0
LINE
  5
70
330
1F
100
AcDbEntity
  8
0
  6
Continuous
 62
     7
370
    15
100
AcDbLine
 10
229.0220008663
 20
120.5847221186
 30
0.0
 11
228.8711913492
 21
120.8713638628
 31
0.0
  0
LINE
  5
71
330
1F
100
AcDbEntity
  8
0
  6
Continuous
 62
     7
370
    15
100
AcDbLine
 10
124.9535683828
 20
78.8047280165
 30
0.0
 11
124.9535683828
 21
128.2150054171
 31
0.0
  0
SPLINE
  5
72
330
1F
100
AcDbEntity
  8
0
  6
Continuous
 62
     7
370
    15
100
AcDbSpline
210
0.0
220
0.0
230
1.0
 70
     8
 71
     3
 72
    10
 73
     6
 74
     0
 42
0.00000001
 43
0.00000001
 40
0.0
 40
0.0
 40
0.0
 40
0.0
 40
0.5
 40
0.5
 40
1.0
 40
1.0
 40
1.0
 40
1.0
 10
124.9535683827817
 20
78.80472801652529
 30
0.0
 10
124.9535683827817
 20
78.64484074833163
 30
0.0
 10
124.8922587315459
 20
78.48371349281702
 30
0.0
 10
124.6731590940108
 20
78.2496144944622
 30
0.0
 10
124.5151108876973
 20
78.17808772087096
 30
0.0
 10
124.3535683827817
 20
78.17808772087096
 30
0.0
  0
SPLINE
  5
73
330
1F
100
AcDbEntity
  8
0
  6
Continuous
 62
     7
370
    15
100
AcDbSpline
210
0.0
220
0.0
230
1.0
 70
    24
 71
     3
 72
    12
 73
     8
 74
     0
 42
0.00000001
 43
0.00000001
 40
0.0
 40
0.0
 40
0.0
 40
0.0
 40
0.2500000000000033
 40
0.2500000000000033
 40
0.5000000000000067
 40
0.5000000000000067
 40
1.0
 40
1.0
 40
1.0
 40
1.0
 10
124.3535683827817
 20
128.2150054171181
 30
0.0
 10
124.4438074504688
 20
128.2150054171181
 30
0.0
 10
124.5347055645753
 20
128.2150054171181
 30
0.0
 10
124.6893026010638
 20
128.2150054171181
 30
0.0
 10
124.7542810171719
 20
128.2150054171181
 30
0.0
 10
124.9061160451081
 20
128.2150054171181
 30
0.0
 10
124.9535683827817
 20
128.2150054171181
 30
0.0
 10
124.9535683827817
 20
128.2150054171181
 30
0.0
  0
LINE
  5
74
330
1F
100
AcDbEntity
  8
0
  6
Continuous
 62
     7
370
    15
100
AcDbLine
 10
99.0035683828
 20
77.1650054171
 30
0.0
 11
99.0035683828
 21
139.5650054133
 31
0.0
  0
LINE
  5
75
330
1F
100
AcDbEntity
  8
0
  6
Continuous
 62
     7
370
    15
100
AcDbLine
 10
124.3535683828
 20
78.1780877209
 30
0.0
 11
120.3955012143
 21
78.1780877209
 31
0.0
  0
LINE
  5
76
330
1F
100
AcDbEntity
  8
0
  6
Continuous
 62
     7
370
    15
100
AcDbLine
 10
120.3955012143
 20
78.1780877209
 30
0.0
 11
120.3955012143
 21
128.2150054171
 31
0.0
  0
LINE
  5
77
330
1F
100
AcDbEntity
  8
0
  6
Continuous
 62
     7
370
    15
100
AcDbLine
 10
120.3955012143
 20
128.2150054171
 30
0.0
 11
124.3535683828
 21
128.2150054171
 31
0.0
  0
SPLINE
  5
78
330
1F
100
AcDbEntity
  8
0
  6
Continuous
 62
     7
370
    15
100
AcDbSpline
210
0.0
220
0.0
230
1.0
 70
     8
 71
     3
 72
    70
 73
    66
 74
     0
 42
0.00000001
 43
0.00000001
 40
-0.0312500000000002
 40
-0.0312500000000002
 40
0.0
 40
0.0
 40
0.0312499999999999
 40
0.0312499999999999
 40
0.0624999999999999
 40
0.0624999999999999
 40
0.0937499999999998
 40
0.0937499999999998
 40
0.1249999999999998
 40
0.1249999999999998
 40
0.1562499999999997
 40
0.1562499999999997
 40
0.1874999999999997
 40
0.1874999999999997
 40
0.2187499999999996
 40
0.2187499999999996
 40
0.2499999999999996
 40
0.2499999999999996
 40
0.2812499999999995
 40
0.2812499999999995
 40
0.3124999999999994
 40
0.3124999999999994
 40
0.3437499999999994
 40
0.3437499999999994
 40
0.3749999999999993
 40
0.3749999999999993
 40
0.4062499999999993
 40
0.4062499999999993
 40
0.4374999999999992
 40
0.4374999999999992
 40
0.4687499999999992
 40
0.4687499999999992
 40
0.4999999999999991
 40
0.4999999999999991
 40
0.5312499999999991
 40
0.5312499999999991
 40
0.562499999999999
 40
0.562499999999999
 40
0.5937499999999989
 40
0.5937499999999989
 40
0.6249999999999989
 40
0.6249999999999989
 40
0.6562499999999989
 40
0.6562499999999989
 40
0.6874999999999988
 40
0.6874999999999988
 40
0.7187499999999987
 40
0.7187499999999987
 40
0.7499999999999987
 40
0.7499999999999987
 40
0.7812499999999988
 40
0.7812499999999988
 40
0.812499999999999
 40
0.812499999999999
 40
0.8437499999999991
 40
0.8437499999999991
 40
0.8749999999999993
 40
0.8749999999999993
 40
0.9062499999999994
 40
0.9062499999999994
 40
0.9374999999999997
 40
0.9374999999999997
 40
0.9687499999999998
 40
0.9687499999999998
 40
1.0
 40
1.0
 40
1.03125
 40
1.03125
 10
106.7390230441216
 20
118.9859123031015
 30
0.0
 10
107.2681137214419
 20
118.9859123031015
 30
0.0
 10
107.528184388819
 20
119.0105895978867
 30
0.0
 10
108.0397590686544
 20
119.1070612709286
 30
0.0
 10
108.2939343523946
 20
119.1800421869086
 30
0.0
 10
108.7782049824563
 20
119.3697827898472
 30
0.0
 10
109.0078460743375
 20
119.485643448241
 30
0.0
 10
109.4424504225709
 20
119.7582612941987
 30
0.0
 10
109.6480161992176
 20
119.9163003762525
 30
0.0
 10
110.0165733398128
 20
120.2598432272231
 30
0.0
 10
110.1820543225483
 20
120.4466056713248
 30
0.0
 10
110.4744788319834
 20
120.8501488457216
 30
0.0
 10
110.5985798086099
 20
121.0636458421508
 30
0.0
 10
110.7981590053596
 20
121.5030291560733
 30
0.0
 10
110.8750925912179
 20
121.7321691432189
 30
0.0
 10
110.9779496497382
 20
122.1981432659789
 30
0.0
 10
111.0034225591973
 20
122.4310257116551
 30
0.0
 10
111.0037129697651
 20
122.8964232467349
 30
0.0
 10
110.9776883359894
 20
123.1312990041292
 30
0.0
 10
110.8755400514974
 20
123.5827921513755
 30
0.0
 10
110.7999636039142
 20
123.8008386267869
 30
0.0
 10
110.5994660727693
 20
124.2219331518247
 30
0.0
 10
110.4743372312609
 20
124.423854536343
 30
0.0
 10
110.1849784302393
 20
124.7958840188619
 30
0.0
 10
110.0195674431839
 20
124.9685123224422
 30
0.0
 10
109.646576885036
 20
125.2858303269883
 30
0.0
 10
109.4448438519469
 20
125.4256172604899
 30
0.0
 10
109.0119846011191
 20
125.6697935140417
 30
0.0
 10
108.7780660682297
 20
125.7750230250832
 30
0.0
 10
108.2938823330871
 20
125.9431801714583
 30
0.0
 10
108.0445667071316
 20
126.0064310620522
 30
0.0
 10
107.5315341827038
 20
126.0920102711548
 30
0.0
 10
107.2662403597992
 20
126.1138824360772
 30
0.0
 10
106.7439057399294
 20
126.1140460857211
 30
0.0
 10
106.4841520774477
 20
126.0930443936251
 30
0.0
 10
105.9675402618025
 20
126.0076420385475
 30
0.0
 10
105.7151742213022
 20
125.9436358552605
 30
0.0
 10
105.2336490997694
 20
125.7768213352193
 30
0.0
 10
105.0007983676558
 20
125.6726881718202
 30
0.0
 10
104.563708519217
 20
125.4267015193252
 30
0.0
 10
104.3623875305599
 20
125.2869516883764
 30
0.0
 10
103.99330150526
 20
124.9738136186518
 30
0.0
 10
103.8243167542083
 20
124.7983574593817
 30
0.0
 10
103.5338606975491
 20
124.4255171952815
 30
0.0
 10
103.4107888861869
 20
124.2273953851705
 30
0.0
 10
103.2094526447649
 20
123.8066840424368
 30
0.0
 10
103.1322400988227
 20
123.5846940217693
 30
0.0
 10
103.0300365559226
 20
123.1348290820609
 30
0.0
 10
103.0038082044703
 20
122.9045736689442
 30
0.0
 10
103.0033318051532
 20
122.4332577263951
 30
0.0
 10
103.0290742176512
 20
122.200020310681
 30
0.0
 10
103.130384994015
 20
121.7383437711829
 30
0.0
 10
103.207217633406
 20
121.5074463840708
 30
0.0
 10
103.4076214726211
 20
121.0651703702791
 30
0.0
 10
103.5302929709132
 20
120.8541079389932
 30
0.0
 10
103.8202402600774
 20
120.4526094282606
 30
0.0
 10
103.9888112394426
 20
120.2617029061846
 30
0.0
 10
104.3570808335558
 20
119.9179775741875
 30
0.0
 10
104.5581426908261
 20
119.7628403879735
 30
0.0
 10
104.995173609411
 20
119.4877630278937
 30
0.0
 10
105.2273218225407
 20
119.3706467984717
 30
0.0
 10
105.7083321040395
 20
119.1817203134072
 30
0.0
 10
105.96043218687
 20
119.1086453430129
 30
0.0
 10
106.477501673129
 20
119.0105932838784
 30
0.0
 10
106.7390230441216
 20
118.9859123031015
 30
0.0
 10
107.2681137214419
 20
118.9859123031015
 30
0.0
  0
LINE
  5
79
330
1F
100
AcDbEntity
  8
0
  6
Continuous
 62
     7
370
    15
100
AcDbLine
 10
103.9535683828
 20
128.2150054171
 30
0.0
 11
113.6116355513
 21
128.2150054171
 31
0.0
  0
LINE
  5
7A
330
1F
100
AcDbEntity
  8
0
  6
Continuous
 62
     7
370
    15
100
AcDbLine
 10
113.6116355513
 20
78.1780877209
 30
0.0
 11
113.6116355513
 21
128.2150054171
 31
0.0
  0
LINE
  5
7B
330
1F
100
AcDbEntity
  8
0
  6
Continuous
 62
     7
370
    15
100
AcDbLine
 10
113.6116355513
 20
78.1780877209
 30
0.0
 11
111.9535683828
 21
78.1780877209
 31
0.0
  0
SPLINE
  5
7C
330
1F
100
AcDbEntity
  8
0
  6
Continuous
 62
     7
370
    15
100
AcDbSpline
210
0.0
220
0.0
230
1.0
 70
     8
 71
     3
 72
    28
 73
    24
 74
     0
 42
0.00000001
 43
0.00000001
 40
0.0
 40
0.0
 40
0.0
 40
0.0
 40
0.1250000000000001
 40
0.1250000000000001
 40
0.1875000000000001
 40
0.1875000000000001
 40
0.2500000000000001
 40
0.2500000000000001
 40
0.3749999999999999
 40
0.3749999999999999
 40
0.4375
 40
0.4375
 40
0.4999999999999999
 40
0.4999999999999999
 40
0.6249999999999999
 40
0.6249999999999999
 40
0.7499999999999997
 40
0.7499999999999997
 40
0.8124999999999998
 40
0.8124999999999998
 40
0.8749999999999998
 40
0.8749999999999998
 40
1.0
 40
1.0
 40
1.0
 40
1.0
 10
111.9535683827817
 20
78.17808772087096
 30
0.0
 10
111.4218606252888
 20
78.17808772087098
 30
0.0
 10
110.8996220599785
 20
78.16230300692075
 30
0.0
 10
110.1297515737034
 20
78.11730759284455
 30
0.0
 10
109.8753920015121
 20
78.09875259776882
 30
0.0
 10
109.3712704208136
 20
78.0548998753223
 30
0.0
 10
109.1215476033857
 20
78.02955526837012
 30
0.0
 10
108.3959576519393
 20
77.94615319062001
 30
0.0
 10
107.9375973903577
 20
77.88028763146893
 30
0.0
 10
107.2870994469639
 20
77.77131729097714
 30
0.0
 10
107.0754173961714
 20
77.73307765521048
 30
0.0
 10
106.6713459070334
 20
77.65531891779112
 30
0.0
 10
106.4788393932125
 20
77.61581795561578
 30
0.0
 10
105.9290044221912
 20
77.49691021324978
 30
0.0
 10
105.5990756438824
 20
77.41709253182518
 30
0.0
 10
105.0146043753138
 20
77.26374937002912
 30
0.0
 10
104.7683272373003
 20
77.19241561675985
 30
0.0
 10
104.4684844446022
 20
77.09847210968523
 30
0.0
 10
104.3800275875301
 20
77.06927831632531
 30
0.0
 10
104.2266662342249
 20
77.0158117420619
 30
0.0
 10
104.1615780199987
 20
76.99145240778671
 30
0.0
 10
104.0059840040579
 20
76.92786226234196
 30
0.0
 10
103.9535683827817
 20
76.89775932725271
 30
0.0
 10
103.9535683827817
 20
76.88088243425581
 30
0.0
  0
LINE
  5
7D
330
1F
100
AcDbEntity
  8
0
  6
Continuous
 62
     7
370
    15
100
AcDbLine
 10
103.9535683828
 20
76.8808824343
 30
0.0
 11
103.9535683828
 21
76.8650054171
 31
0.0
  0
SPLINE
  5
7E
330
1F
100
AcDbEntity
  8
0
  6
Continuous
 62
     7
370
    15
100
AcDbSpline
210
0.0
220
0.0
230
1.0
 70
     8
 71
     3
 72
    22
 73
    18
 74
     0
 42
0.00000001
 43
0.00000001
 40
0.0
 40
0.0
 40
0.0
 40
0.0
 40
0.0515773377536172
 40
0.1565264849943629
 40
0.2100197540385886
 40
0.2615951369298746
 40
0.3664424119934943
 40
0.4198226601719804
 40
0.4724528789006786
 40
0.5794488992297344
 40
0.6339397336480286
 40
0.6872670452602943
 40
0.7409741315029978
 40
0.7958968813361827
 40
0.8512481408256359
 40
0.9034470736265863
 40
1.0
 40
1.0
 40
1.0
 40
1.0
 10
111.9535683827817
 20
138.8322008902824
 30
0.0
 10
111.7367581867793
 20
138.8335975113509
 30
0.0
 10
111.0787843678645
 20
138.8378359656071
 30
0.0
 10
110.2036893905336
 20
138.8773682899614
 30
0.0
 10
109.3588638956767
 20
138.9403415368033
 30
0.0
 10
108.5391386120725
 20
139.0183555700584
 30
0.0
 10
107.7633486340441
 20
139.1152386979336
 30
0.0
 10
107.0458601727376
 20
139.2234981098496
 30
0.0
 10
106.3665954255655
 20
139.337216482154
 30
0.0
 10
105.7582804476566
 20
139.4537166670948
 30
0.0
 10
105.2381885069334
 20
139.5628169185119
 30
0.0
 10
104.8942983292173
 20
139.6388208162419
 30
0.0
 10
104.5993446014898
 20
139.7068542721636
 30
0.0
 10
104.3535703141486
 20
139.7655673229221
 30
0.0
 10
104.1676680051752
 20
139.8111827028558
 30
0.0
 10
103.9960713994515
 20
139.8541421544164
 30
0.0
 10
103.9759421242752
 20
139.8593031762184
 30
0.0
 10
103.9628764696015
 20
139.8626531293607
 30
0.0
  0
LINE
  5
7F
330
1F
100
AcDbEntity
  8
0
  6
Continuous
 62
     7
370
    15
100
AcDbLine
 10
113.6116355513
 20
138.8322008903
 30
0.0
 11
111.9535683828
 21
138.8322008903
 31
0.0
  0
LINE
  5
80
330
1F
100
AcDbEntity
  8
0
  6
Continuous
 62
     7
370
    15
100
AcDbLine
 10
113.6116355513
 20
132.8236950795
 30
0.0
 11
113.6116355513
 21
138.8322008903
 31
0.0
  0
LINE
  5
81
330
1F
100
AcDbEntity
  8
0
  6
Continuous
 62
     7
370
    15
100
AcDbLine
 10
111.1991887285
 20
132.8236950795
 30
0.0
 11
113.6116355513
 21
132.8236950795
 31
0.0
  0
SPLINE
  5
82
330
1F
100
AcDbEntity
  8
0
  6
Continuous
 62
     7
370
    15
100
AcDbSpline
210
0.0
220
0.0
230
1.0
 70
     8
 71
     3
 72
    20
 73
    16
 74
     0
 42
0.00000001
 43
0.00000001
 40
0.0
 40
0.0
 40
0.0
 40
0.0
 40
0.2499999999999997
 40
0.2499999999999997
 40
0.3749999999999997
 40
0.3749999999999997
 40
0.4999999999999998
 40
0.4999999999999998
 40
0.6249999999999998
 40
0.6249999999999998
 40
0.7499999999999999
 40
0.7499999999999999
 40
0.8749999999999999
 40
0.8749999999999999
 40
1.0
 40
1.0
 40
1.0
 40
1.0
 10
103.9535683827817
 20
128.2150054171181
 30
0.0
 10
104.2019421170698
 20
128.8688678454155
 30
0.0
 10
104.521512209415
 20
129.4726536274127
 30
0.0
 10
105.1438184426197
 20
130.2994923635813
 30
0.0
 10
105.3752427030505
 20
130.5619210015342
 30
0.0
 10
105.8964570427002
 20
131.0585836556392
 30
0.0
 10
106.1830775253353
 20
131.2891705346607
 30
0.0
 10
106.8025622666429
 20
131.7057247592433
 30
0.0
 10
107.1368626461298
 20
131.8932225612108
 30
0.0
 10
107.8621231187546
 20
132.2246195388473
 30
0.0
 10
108.2440381761451
 20
132.3641235263425
 30
0.0
 10
109.0388263523168
 20
132.5895770338135
 30
0.0
 10
109.4529845465232
 20
132.6762031453571
 30
0.0
 10
110.3185308871046
 20
132.7941839342112
 30
0.0
 10
110.7564185021164
 20
132.8236950794856
 30
0.0
 10
111.199188728471
 20
132.8236950794856
 30
0.0
  0
SPLINE
  5
83
330
1F
100
AcDbEntity
  8
0
  6
Continuous
 62
     7
370
    15
100
AcDbSpline
210
0.0
220
0.0
230
1.0
 70
     8
 71
     3
 72
    70
 73
    66
 74
     0
 42
0.00000001
 43
0.00000001
 40
-0.0312499999999998
 40
-0.0312499999999998
 40
0.0
 40
0.0
 40
0.0312500000000003
 40
0.0312500000000003
 40
0.0625000000000006
 40
0.0625000000000006
 40
0.0937500000000009
 40
0.0937500000000009
 40
0.1250000000000012
 40
0.1250000000000012
 40
0.1562500000000014
 40
0.1562500000000014
 40
0.1875000000000017
 40
0.1875000000000017
 40
0.2187500000000021
 40
0.2187500000000021
 40
0.2500000000000023
 40
0.2500000000000023
 40
0.2812500000000024
 40
0.2812500000000024
 40
0.3125000000000026
 40
0.3125000000000026
 40
0.3437500000000027
 40
0.3437500000000027
 40
0.3750000000000028
 40
0.3750000000000028
 40
0.4062500000000029
 40
0.4062500000000029
 40
0.4375000000000031
 40
0.4375000000000031
 40
0.4687500000000032
 40
0.4687500000000032
 40
0.5000000000000033
 40
0.5000000000000033
 40
0.5312500000000032
 40
0.5312500000000032
 40
0.562500000000003
 40
0.562500000000003
 40
0.5937500000000029
 40
0.5937500000000029
 40
0.6250000000000027
 40
0.6250000000000027
 40
0.6562500000000026
 40
0.6562500000000026
 40
0.6875000000000024
 40
0.6875000000000024
 40
0.7187500000000022
 40
0.7187500000000022
 40
0.7500000000000021
 40
0.7500000000000021
 40
0.7812500000000019
 40
0.7812500000000019
 40
0.8125000000000016
 40
0.8125000000000016
 40
0.8437500000000013
 40
0.8437500000000013
 40
0.875000000000001
 40
0.875000000000001
 40
0.9062500000000008
 40
0.9062500000000008
 40
0.9375000000000006
 40
0.9375000000000006
 40
0.9687500000000002
 40
0.9687500000000002
 40
1.0
 40
1.0
 40
1.03125
 40
1.03125
 10
106.7390230441216
 20
133.4239688118973
 30
0.0
 10
107.2681137214419
 20
133.4239688118973
 30
0.0
 10
107.528184388819
 20
133.4398692523121
 30
0.0
 10
108.0397590686544
 20
133.5018136024864
 30
0.0
 10
108.2939343523946
 20
133.5486158365777
 30
0.0
 10
108.7782049824563
 20
133.6695928200327
 30
0.0
 10
109.0078460743375
 20
133.7431951478395
 30
0.0
 10
109.4424504225709
 20
133.9150194188177
 30
0.0
 10
109.6480161992176
 20
134.0140228417451
 30
0.0
 10
110.0165733398128
 20
134.227119255658
 30
0.0
 10
110.1820543225483
 20
134.3420189717876
 30
0.0
 10
110.4744788319834
 20
134.5873858704779
 30
0.0
 10
110.5985798086099
 20
134.7158257709482
 30
0.0
 10
110.7981590053596
 20
134.9767179190341
 30
0.0
 10
110.8750925912179
 20
135.1110990903736
 30
0.0
 10
110.9779496497382
 20
135.3804190414799
 30
0.0
 10
111.0034225591973
 20
135.513100305698
 30
0.0
 10
111.0037129697651
 20
135.7742867798291
 30
0.0
 10
110.9776883359894
 20
135.9040518179938
 30
0.0
 10
110.8755400514974
 20
136.1496344522664
 30
0.0
 10
110.7999636039142
 20
136.2662959895753
 30
0.0
 10
110.5994660727693
 20
136.4882011797299
 30
0.0
 10
110.4743372312609
 20
136.5928124336529
 30
0.0
 10
110.1849784302393
 20
136.782858845261
 30
0.0
 10
110.0195674431839
 20
136.8696185167106
 30
0.0
 10
109.646576885036
 20
137.0271228924622
 30
0.0
 10
109.4448438519469
 20
137.0954481572494
 30
0.0
 10
109.0119846011191
 20
137.2136778808686
 30
0.0
 10
108.7780660682297
 20
137.2639727969724
 30
0.0
 10
108.2938823330871
 20
137.3438383338621
 30
0.0
 10
108.0445667071316
 20
137.3735794616617
 30
0.0
 10
107.5315341827038
 20
137.4137322031699
 30
0.0
 10
107.2662403597992
 20
137.4239304725797
 30
0.0
 10
106.7439057399294
 20
137.4240069309645
 30
0.0
 10
106.4841520774477
 20
137.4142159193554
 30
0.0
 10
105.9675402618025
 20
137.3741490806167
 30
0.0
 10
105.7151742213022
 20
137.3440519137599
 30
0.0
 10
105.2336490997694
 20
137.2648297039296
 30
0.0
 10
105.0007983676558
 20
137.2150722244663
 30
0.0
 10
104.563708519217
 20
137.0959802820159
 30
0.0
 10
104.3623875305599
 20
137.0276650204686
 30
0.0
 10
103.99330150526
 20
136.8722640535351
 30
0.0
 10
103.8243167542083
 20
136.7841117114681
 30
0.0
 10
103.5338606975491
 20
136.5936723223518
 30
0.0
 10
103.4107888861869
 20
136.4910477446527
 30
0.0
 10
103.2094526447649
 20
136.2694073980446
 30
0.0
 10
103.1322400988227
 20
136.1506533224971
 30
0.0
 10
103.0300365559226
 20
135.9059873835795
 30
0.0
 10
103.0038082044703
 20
135.7788306581309
 30
0.0
 10
103.0033318051532
 20
135.5143825122753
 30
0.0
 10
103.0290742176512
 20
135.3814818320182
 30
0.0
 10
103.130384994015
 20
135.1146895585361
 30
0.0
 10
103.207217633406
 20
134.9793256570676
 30
0.0
 10
103.4076214726211
 20
134.716745861765
 30
0.0
 10
103.5302929709132
 20
134.5897707020113
 30
0.0
 10
103.8202402600774
 20
134.3456913159288
 30
0.0
 10
103.9888112394426
 20
134.228266191175
 30
0.0
 10
104.3570808335558
 20
134.0150697302265
 30
0.0
 10
104.5581426908261
 20
133.9178956118016
 30
0.0
 10
104.995173609411
 20
133.7445407245875
 30
0.0
 10
105.2273218225407
 20
133.6701411729308
 30
0.0
 10
105.7083321040395
 20
133.5496882934261
 30
0.0
 10
105.96043218687
 20
133.5028299181602
 30
0.0
 10
106.477501673129
 20
133.4398724211764
 30
0.0
 10
106.7390230441216
 20
133.4239688118973
 30
0.0
 10
107.2681137214419
 20
133.4239688118973
 30
0.0
  0
LINE
  5
84
330
1F
100
AcDbEntity
  8
0
  6
Continuous
 62
     7
370
    15
100
AcDbLine
 10
115.0935683828
 20
80.8671682581
 30
0.0
 11
115.0935683828
 21
128.2150054171
 31
0.0
  0
SPLINE
  5
85
330
1F
100
AcDbEntity
  8
0
  6
Continuous
 62
     7
370
    15
100
AcDbSpline
210
0.0
220
0.0
230
1.0
 70
     8
 71
     3
 72
     8
 73
     4
 74
     0
 42
0.00000001
 43
0.00000001
 40
0.0
 40
0.0
 40
0.0
 40
0.0
 40
1.0
 40
1.0
 40
1.0
 40
1.0
 10
115.0935683827817
 20
80.86716825806327
 30
0.0
 10
114.6012292600006
 20
79.96989822385657
 30
0.0
 10
114.1071152119584
 20
79.07361380880431
 30
0.0
 10
113.6116355512927
 20
78.17808772087096
 30
0.0
  0
SPLINE
  5
86
330
1F
100
AcDbEntity
  8
0
  6
Continuous
 62
     7
370
    15
100
AcDbSpline
210
0.0
220
0.0
230
1.0
 70
    24
 71
     3
 72
     8
 73
     4
 74
     0
 42
0.00000001
 43
0.00000001
 40
0.0
 40
0.0
 40
0.0
 40
0.0
 40
1.0
 40
1.0
 40
1.0
 40
1.0
 10
113.6116355512926
 20
128.2150054171181
 30
0.0
 10
114.1183156594432
 20
128.2150054171181
 30
0.0
 10
114.6136163884168
 20
128.2150054171181
 30
0.0
 10
115.0935683827817
 20
128.2150054171181
 30
0.0
  0
SPLINE
  5
87
330
1F
100
AcDbEntity
  8
0
  6
Continuous
 62
     7
370
    15
100
AcDbSpline
210
0.0
220
0.0
230
1.0
 70
     8
 71
     3
 72
     8
 73
     4
 74
     0
 42
0.00000001
 43
0.00000001
 40
0.0
 40
0.0
 40
0.0
 40
0.0
 40
1.0
 40
1.0
 40
1.0
 40
1.0
 10
120.3955012142708
 20
78.17808772087096
 30
0.0
 10
119.900021553605
 20
79.07361380880432
 30
0.0
 10
119.4059075055629
 20
79.96989822385659
 30
0.0
 10
118.9135683827817
 20
80.86716825806329
 30
0.0
  0
LINE
  5
88
330
1F
100
AcDbEntity
  8
0
  6
Continuous
 62
     7
370
    15
100
AcDbLine
 10
118.9135683828
 20
80.8671682581
 30
0.0
 11
118.9135683828
 21
128.2150054171
 31
0.0
  0
SPLINE
  5
89
330
1F
100
AcDbEntity
  8
0
  6
Continuous
 62
     7
370
    15
100
AcDbSpline
210
0.0
220
0.0
230
1.0
 70
    24
 71
     3
 72
     8
 73
     4
 74
     0
 42
0.00000001
 43
0.00000001
 40
0.0
 40
0.0
 40
0.0
 40
0.0
 40
1.0
 40
1.0
 40
1.0
 40
1.0
 10
118.9135683827817
 20
128.2150054171181
 30
0.0
 10
119.3935203771466
 20
128.2150054171181
 30
0.0
 10
119.8888211061202
 20
128.2150054171181
 30
0.0
 10
120.3955012142708
 20
128.2150054171181
 30
0.0
  0
ARC
  5
8A
330
1F
100
AcDbEntity
  8
0
  6
Continuous
 62
     7
370
    15
100
AcDbCircle
 10
107.000706164
 20
120.2598412007
 30
0.0
 40
4.117825238058629
100
AcDbArc
 50
19.7823364131
 51
158.9347445832
  0
SPLINE
  5
8B
330
1F
100
AcDbEntity
  8
0
  6
Continuous
 62
     7
370
    15
100
AcDbSpline
210
0.0
220
0.0
230
1.0
 70
    24
 71
     3
 72
    14
 73
    10
 74
     0
 42
0.00000001
 43
0.00000001
 40
0.0
 40
0.0
 40
0.0
 40
0.0
 40
0.4999999999999984
 40
0.4999999999999984
 40
0.7499999999999992
 40
0.7499999999999992
 40
0.8749999999999996
 40
0.8749999999999996
 40
1.0
 40
1.0
 40
1.0
 40
1.0
 10
118.8158935804494
 20
81.96500541711812
 30
0.0
 10
118.7691088754012
 20
81.96500541711814
 30
0.0
 10
118.7070576786216
 20
81.96500541711814
 30
0.0
 10
118.563666040071
 20
81.96500541711812
 30
0.0
 10
118.5075223865199
 20
81.96500541711812
 30
0.0
 10
118.3945713643837
 20
81.96500541711814
 30
0.0
 10
118.3515706023455
 20
81.96500541711814
 30
0.0
 10
118.2475078920391
 20
81.96500541711812
 30
0.0
 10
118.1821756536821
 20
81.96500541711815
 30
0.0
 10
118.1135683827817
 20
81.96500541711812
 30
0.0
  0
SPLINE
  5
8C
330
1F
100
AcDbEntity
  8
0
  6
Continuous
 62
     7
370
    15
100
AcDbSpline
210
0.0
220
0.0
230
1.0
 70
    24
 71
     3
 72
    12
 73
     8
 74
     0
 42
0.00000001
 43
0.00000001
 40
0.0
 40
0.0
 40
0.0
 40
0.0
 40
0.5000000000000017
 40
0.5000000000000017
 40
0.7500000000000008
 40
0.7500000000000008
 40
1.0
 40
1.0
 40
1.0
 40
1.0
 10
118.5192708510908
 20
134.7650054171181
 30
0.0
 10
118.4761853014798
 20
134.7650054171181
 30
0.0
 10
118.4270330997305
 20
134.7650054171181
 30
0.0
 10
118.3305605054426
 20
134.7650054171181
 30
0.0
 10
118.294458920308
 20
134.7650054171181
 30
0.0
 10
118.2113531624467
 20
134.7650054171181
 30
0.0
 10
118.1633565654804
 20
134.7650054171181
 30
0.0
 10
118.1135683827817
 20
134.7650054171181
 30
0.0
  0
SPLINE
  5
8D
330
1F
100
AcDbEntity
  8
0
  6
Continuous
 62
     7
370
    15
100
AcDbSpline
210
0.0
220
0.0
230
1.0
 70
     8
 71
     3
 72
    10
 73
     6
 74
     0
 42
0.00000001
 43
0.00000001
 40
0.0
 40
0.0
 40
0.0
 40
0.0
 40
0.5
 40
0.5
 40
1.0
 40
1.0
 40
1.0
 40
1.0
 10
118.9135683827817
 20
135.4846592681539
 30
0.0
 10
118.9135683827817
 20
135.3408892103359
 30
0.0
 10
118.8775193240628
 20
135.1984698478407
 30
0.0
 10
118.7420104632888
 20
134.9485755544835
 30
0.0
 10
118.6421344701926
 20
134.8405452182353
 30
0.0
 10
118.5192708510907
 20
134.7650054171181
 30
0.0
  0
SPLINE
  5
8E
330
1F
100
AcDbEntity
  8
0
  6
Continuous
 62
     7
370
    15
100
AcDbSpline
210
0.0
220
0.0
230
1.0
 70
     8
 71
     3
 72
    10
 73
     6
 74
     0
 42
0.00000001
 43
0.00000001
 40
0.0
 40
0.0
 40
0.0
 40
0.0
 40
0.5
 40
0.5
 40
1.0
 40
1.0
 40
1.0
 40
1.0
 10
118.8874207596216
 20
128.2150054171181
 30
0.0
 10
118.8961104025333
 20
128.2618842664363
 30
0.0
 10
118.9026494672838
 20
128.3093067318376
 30
0.0
 10
118.9114081016768
 20
128.4052435304244
 30
0.0
 10
118.9135683827817
 20
128.4531588184349
 30
0.0
 10
118.9135683827817
 20
128.5008720485795
 30
0.0
  0
SPLINE
  5
8F
330
1F
100
AcDbEntity
  8
0
  6
Continuous
 62
     7
370
    15
100
AcDbSpline
210
0.0
220
0.0
230
1.0
 70
     8
 71
     3
 72
    10
 73
     6
 74
     0
 42
0.00000001
 43
0.00000001
 40
0.0
 40
0.0
 40
0.0
 40
0.0
 40
0.5
 40
0.5
 40
1.0
 40
1.0
 40
1.0
 40
1.0
 10
115.4878659144727
 20
134.7650054171181
 30
0.0
 10
115.3663256508042
 20
134.8397315843299
 30
0.0
 10
115.2649912904552
 20
134.9486766002467
 30
0.0
 10
115.1293523475668
 20
135.1991070810083
 30
0.0
 10
115.0935683827817
 20
135.3415264431072
 30
0.0
 10
115.0935683827817
 20
135.4846592681539
 30
0.0
  0
SPLINE
  5
90
330
1F
100
AcDbEntity
  8
0
  6
Continuous
 62
     7
370
    15
100
AcDbSpline
210
0.0
220
0.0
230
1.0
 70
    24
 71
     3
 72
    12
 73
     8
 74
     0
 42
0.00000001
 43
0.00000001
 40
0.0
 40
0.0
 40
0.0
 40
0.0
 40
0.2500000000000037
 40
0.2500000000000037
 40
0.5000000000000074
 40
0.5000000000000074
 40
1.0
 40
1.0
 40
1.0
 40
1.0
 10
115.8935683827817
 20
134.7650054171181
 30
0.0
 10
115.8436917004643
 20
134.7650054171181
 30
0.0
 10
115.7956885070607
 20
134.7650054171181
 30
0.0
 10
115.7126404043487
 20
134.7650054171181
 30
0.0
 10
115.6765108248809
 20
134.7650054171181
 30
0.0
 10
115.5805987939366
 20
134.7650054171181
 30
0.0
 10
115.5308401259678
 20
134.7650054171181
 30
0.0
 10
115.4878659144727
 20
134.7650054171181
 30
0.0
  0
SPLINE
  5
91
330
1F
100
AcDbEntity
  8
0
  6
Continuous
 62
     7
370
    15
100
AcDbSpline
210
0.0
220
0.0
230
1.0
 70
    24
 71
     3
 72
    14
 73
    10
 74
     0
 42
0.00000001
 43
0.00000001
 40
0.0
 40
0.0
 40
0.0
 40
0.0
 40
0.1249999999999991
 40
0.1249999999999991
 40
0.2499999999999982
 40
0.2499999999999982
 40
0.4999999999999998
 40
0.4999999999999998
 40
1.0
 40
1.0
 40
1.0
 40
1.0
 10
115.8935683827817
 20
81.96500541711812
 30
0.0
 10
115.8251305348953
 20
81.96500541711812
 30
0.0
 10
115.7595804961302
 20
81.96500541711814
 30
0.0
 10
115.6551538567223
 20
81.96500541711814
 30
0.0
 10
115.6126092469608
 20
81.96500541711814
 30
0.0
 10
115.4999997864206
 20
81.96500541711812
 30
0.0
 10
115.4444607394011
 20
81.96500541711812
 30
0.0
 10
115.3018490439373
 20
81.96500541711812
 30
0.0
 10
115.2384436889415
 20
81.96500541711812
 30
0.0
 10
115.191243185114
 20
81.96500541711812
 30
0.0
  0
SPLINE
  5
92
330
1F
100
AcDbEntity
  8
0
  6
Continuous
 62
     7
370
    15
100
AcDbSpline
210
0.0
220
0.0
230
1.0
 70
     8
 71
     3
 72
    10
 73
     6
 74
     0
 42
0.00000001
 43
0.00000001
 40
0.0
 40
0.0
 40
0.0
 40
0.0
 40
0.5
 40
0.5
 40
1.0
 40
1.0
 40
1.0
 40
1.0
 10
115.0935683827817
 20
128.5008720485795
 30
0.0
 10
115.0935683827817
 20
128.4531005405862
 30
0.0
 10
115.0957296263789
 20
128.4053908185245
 30
0.0
 10
115.104401000239
 20
128.3100957009763
 30
0.0
 10
115.110930183195
 20
128.2624031370096
 30
0.0
 10
115.1197160059419
 20
128.2150054171181
 30
0.0
  0
LINE
  5
93
330
1F
100
AcDbEntity
  8
0
  6
Continuous
 62
     7
370
    15
100
AcDbLine
 10
118.1135683828
 20
134.7650054171
 30
0.0
 11
115.8935683828
 21
134.7650054171
 31
0.0
  0
LINE
  5
94
330
1F
100
AcDbEntity
  8
0
  6
Continuous
 62
     7
370
    15
100
AcDbLine
 10
118.1135683828
 20
81.9650054171
 30
0.0
 11
115.8935683828
 21
81.9650054171
 31
0.0
  0
LINE
  5
95
330
1F
100
AcDbEntity
  8
0
  6
Continuous
 62
     7
370
    15
100
AcDbLine
 10
77.2035683828
 20
85.1365585233
 30
0.0
 11
77.2035683828
 21
86.4012678859
 31
0.0
  0
SPLINE
  5
96
330
1F
100
AcDbEntity
  8
0
  6
Continuous
 62
     7
370
    15
100
AcDbSpline
210
0.0
220
0.0
230
1.0
 70
     8
 71
     3
 72
    14
 73
    10
 74
     0
 42
0.00000001
 43
0.00000001
 40
0.0
 40
0.0
 40
0.0
 40
0.0
 40
0.25
 40
0.25
 40
0.5
 40
0.5
 40
0.75
 40
0.75
 40
1.0
 40
1.0
 40
1.0
 40
1.0
 10
76.425281264866
 20
87.53185409355818
 30
0.0
 10
76.48190794006808
 20
87.42415663972132
 30
0.0
 10
76.57643060035782
 20
87.321367058002
 30
0.0
 10
76.75947557592005
 20
87.12300974578186
 30
0.0
 10
76.85110215287477
 20
87.0269502371036
 30
0.0
 10
77.00995547056796
 20
86.83942119439436
 30
0.0
 10
77.07784607818965
 20
86.7480122216108
 30
0.0
 10
77.17476310389725
 20
86.56963600070065
 30
0.0
 10
77.20356838278231
 20
86.48241409445448
 30
0.0
 10
77.2035683827823
 20
86.40126788592023
 30
0.0
  0
SPLINE
  5
97
330
1F
100
AcDbEntity
  8
0
  6
Continuous
 62
     7
370
    15
100
AcDbSpline
210
0.0
220
0.0
230
1.0
 70
     8
 71
     3
 72
    14
 73
    10
 74
     0
 42
0.00000001
 43
0.00000001
 40
0.0
 40
0.0
 40
0.0
 40
0.0
 40
0.1250000000000022
 40
0.1250000000000022
 40
0.2500000000000044
 40
0.2500000000000044
 40
0.5000000000000029
 40
0.5000000000000029
 40
1.0
 40
1.0
 40
1.0
 40
1.0
 10
75.80356838278172
 20
87.9785359558375
 30
0.0
 10
75.85211279143888
 20
87.9842842691178
 30
0.0
 10
75.9050281462238
 20
87.98118338046156
 30
0.0
 10
76.00032349120683
 20
87.95898853629923
 30
0.0
 10
76.0405744884918
 20
87.94175630920337
 30
0.0
 10
76.14484450200476
 20
87.88542839275131
 30
0.0
 10
76.19516647715808
 20
87.8412420468055
 30
0.0
 10
76.32284942468347
 20
87.71023414795488
 30
0.0
 10
76.37893487174574
 20
87.61999962772458
 30
0.0
 10
76.42528126486748
 20
87.5318540935587
 30
0.0
  0
SPLINE
  5
98
330
1F
100
AcDbEntity
  8
0
  6
Continuous
 62
     7
370
    15
100
AcDbSpline
210
0.0
220
0.0
230
1.0
 70
     8
 71
     3
 72
     8
 73
     4
 74
     0
 42
0.00000001
 43
0.00000001
 40
0.0
 40
0.0
 40
0.0
 40
0.0
 40
1.0
 40
1.0
 40
1.0
 40
1.0
 10
73.53504328983551
 20
87.6686906692547
 30
0.0
 10
74.26962031631847
 20
87.78731568032366
 30
0.0
 10
75.0330953857141
 20
87.88730155245996
 30
0.0
 10
75.80356838278172
 20
87.9785359558375
 30
0.0
  0
SPLINE
  5
99
330
1F
100
AcDbEntity
  8
0
  6
Continuous
 62
     7
370
    15
100
AcDbSpline
210
0.0
220
0.0
230
1.0
 70
     8
 71
     3
 72
    14
 73
    10
 74
     0
 42
0.00000001
 43
0.00000001
 40
0.0
 40
0.0
 40
0.0
 40
0.0
 40
0.5000000000000001
 40
0.5000000000000001
 40
0.7499999999999991
 40
0.7499999999999991
 40
0.8749999999999997
 40
0.8749999999999997
 40
1.0
 40
1.0
 40
1.0
 40
1.0
 10
68.25356838278172
 20
87.49506765172306
 30
0.0
 10
69.1457145133353
 20
87.49434542552241
 30
0.0
 10
70.03569094912889
 20
87.49893163197987
 30
0.0
 10
71.36228611620452
 20
87.52665663637143
 30
0.0
 10
71.80313304470324
 20
87.5392631739956
 30
0.0
 10
72.45957328212566
 20
87.57027932200303
 30
0.0
 10
72.67758693871755
 20
87.5826224946298
 30
0.0
 10
73.11029579240031
 20
87.6156465497931
 30
0.0
 10
73.3255722575651
 20
87.63486371493153
 30
0.0
 10
73.53504328983551
 20
87.66869066925472
 30
0.0
  0
SPLINE
  5
9A
330
1F
100
AcDbEntity
  8
0
  6
Continuous
 62
     7
370
    15
100
AcDbSpline
210
0.0
220
0.0
230
1.0
 70
     8
 71
     3
 72
     8
 73
     4
 74
     0
 42
0.00000001
 43
0.00000001
 40
0.0000005163856712
 40
0.0000005163856712
 40
0.0000005163856712
 40
0.0000005163856712
 40
0.000026289209185
 40
0.000026289209185
 40
0.000026289209185
 40
0.000026289209185
 10
68.24352345236304
 20
87.50505152483093
 30
0.0
 10
68.24685119057452
 20
87.50171727795811
 30
0.0
 10
68.2501996435538
 20
87.4983893206791
 30
0.0
 10
68.2535683827817
 20
87.49506765172305
 30
0.0
  0
SPLINE
  5
9B
330
1F
100
AcDbEntity
  8
0
  6
Continuous
 62
     7
370
    15
100
AcDbSpline
210
0.0
220
0.0
230
1.0
 70
     8
 71
     3
 72
     8
 73
     4
 74
     0
 42
0.00000001
 43
0.00000001
 40
0.0000005099763573
 40
0.0000005099763573
 40
0.0000005099763573
 40
0.0000005099763573
 40
0.0000262827998699
 40
0.0000262827998699
 40
0.0000262827998699
 40
0.0000262827998699
 10
68.25356838278171
 20
129.2349431825132
 30
0.0
 10
68.25019964355397
 20
129.2316215135573
 30
0.0
 10
68.24685119057483
 20
129.2282935562785
 30
0.0
 10
68.2435234523635
 20
129.2249593094058
 30
0.0
  0
SPLINE
  5
9C
330
1F
100
AcDbEntity
  8
0
  6
Continuous
 62
     7
370
    15
100
AcDbSpline
210
0.0
220
0.0
230
1.0
 70
     8
 71
     3
 72
    10
 73
     6
 74
     0
 42
0.00000001
 43
0.00000001
 40
0.0
 40
0.0
 40
0.0
 40
0.0
 40
0.5
 40
0.5
 40
1.0
 40
1.0
 40
1.0
 40
1.0
 10
71.80356838278173
 20
129.1880928089459
 30
0.0
 10
71.21598283569114
 20
129.2091583291823
 30
0.0
 10
70.62523644223074
 20
129.2199168150545
 30
0.0
 10
69.4412172769319
 20
129.2332815955902
 30
0.0
 10
68.84780328872642
 20
129.2354242382548
 30
0.0
 10
68.25356838278172
 20
129.2349431825132
 30
0.0
  0
SPLINE
  5
9D
330
1F
100
AcDbEntity
  8
0
  6
Continuous
 62
     7
370
    15
100
AcDbSpline
210
0.0
220
0.0
230
1.0
 70
     8
 71
     3
 72
    18
 73
    14
 74
     0
 42
0.00000001
 43
0.00000001
 40
0.0
 40
0.0
 40
0.0
 40
0.0
 40
0.249999999999999
 40
0.249999999999999
 40
0.499999999999998
 40
0.499999999999998
 40
0.749999999999997
 40
0.749999999999997
 40
0.874999999999998
 40
0.874999999999998
 40
0.937499999999999
 40
0.937499999999999
 40
1.0
 40
1.0
 40
1.0
 40
1.0
 10
73.20356838278174
 20
130.2091130894811
 30
0.0
 10
73.20356838278175
 20
130.1259061806239
 30
0.0
 10
73.16771928284346
 20
130.0371695253104
 30
0.0
 10
73.04284754680954
 20
129.8550443347501
 30
0.0
 10
72.95244712916167
 20
129.7599142861235
 30
0.0
 10
72.7302044744195
 20
129.5707327769992
 30
0.0
 10
72.60043968797372
 20
129.4757876089045
 30
0.0
 10
72.35980223066221
 20
129.3375089013245
 30
0.0
 10
72.27203493252478
 20
129.2917984680221
 30
0.0
 10
72.11751084531795
 20
129.2339751628007
 30
0.0
 10
72.06089995926321
 20
129.2162603987628
 30
0.0
 10
71.93685592835662
 20
129.1917210955299
 30
0.0
 10
71.86914125333831
 20
129.1857419569916
 30
0.0
 10
71.80356838278172
 20
129.1880928089459
 30
0.0
  0
LINE
  5
9E
330
1F
100
AcDbEntity
  8
0
  6
Continuous
 62
     7
370
    15
100
AcDbLine
 10
73.2035683828
 20
130.2091130895
 30
0.0
 11
73.2035683828
 21
131.3930515093
 31
0.0
  0
LINE
  5
9F
330
1F
100
AcDbEntity
  8
0
  6
Continuous
 62
     7
370
    15
100
AcDbLine
 10
97.0035683828
 20
84.1445745554
 30
0.0
 11
97.0035683828
 21
132.5854362788
 31
0.0
  0
SPLINE
  5
A0
330
1F
100
AcDbEntity
  8
0
  6
Continuous
 62
     7
370
    15
100
AcDbSpline
210
0.0
220
0.0
230
1.0
 70
     8
 71
     3
 72
    18
 73
    14
 74
     0
 42
0.00000001
 43
0.00000001
 40
0.0
 40
0.0
 40
0.0
 40
0.0
 40
0.0010671296451825
 40
0.1270947795731591
 40
0.2524053457512679
 40
0.3766468878986963
 40
0.4391415999051271
 40
0.5008278021400229
 40
0.5624255708816985
 40
0.6253162439161283
 40
0.7499985144706796
 40
0.8752758950341297
 40
1.0
 40
1.0
 40
1.0
 40
1.0
 10
85.7738692228544
 20
84.70766639420178
 30
0.0
 10
85.7729573902159
 20
84.70755161566515
 30
0.0
 10
85.66435843157909
 20
84.69388153079936
 30
0.0
 10
86.05199949922874
 20
84.7448010314148
 30
0.0
 10
86.91796418106395
 20
84.84438420446133
 30
0.0
 10
88.11836810583374
 20
84.91350808760498
 30
0.0
 10
89.17594402032255
 20
84.91746031674386
 30
0.0
 10
90.00307810723234
 20
84.8899713782885
 30
0.0
 10
90.82834997486758
 20
84.83143120188129
 30
0.0
 10
91.8827151948653
 20
84.71791004214458
 30
0.0
 10
93.04455147633841
 20
84.5347592178969
 30
0.0
 10
93.99678625772171
 20
84.33015600826185
 30
0.0
 10
94.12249131852963
 20
84.3008706574858
 30
0.0
 10
94.18520475067486
 20
84.28626038764511
 30
0.0
  0
SPLINE
  5
A1
330
1F
100
AcDbEntity
  8
0
  6
Continuous
 62
     7
370
    15
100
AcDbSpline
210
0.0
220
0.0
230
1.0
 70
     8
 71
     3
 72
    18
 73
    14
 74
     0
 42
0.00000001
 43
0.00000001
 40
0.0
 40
0.0
 40
0.0
 40
0.0
 40
0.1248907792210118
 40
0.2505384020341681
 40
0.3748721840485256
 40
0.4374907653350248
 40
0.499077626589441
 40
0.5607931536355697
 40
0.6233901338664959
 40
0.7478191038417357
 40
0.8731940995934964
 40
0.9991614644710061
 40
1.0
 40
1.0
 40
1.0
 40
1.0
 10
94.18498598515093
 20
132.4436852660368
 30
0.0
 10
94.12124523243928
 20
132.4290239734387
 30
0.0
 10
93.99337745526277
 20
132.3996125401673
 30
0.0
 10
93.0413782342025
 20
132.1946594361047
 30
0.0
 10
91.88083452899863
 20
132.0113956602939
 30
0.0
 10
90.82857007691119
 20
131.8983680680446
 30
0.0
 10
90.0043429618422
 20
131.8401044205035
 30
0.0
 10
89.17673919232226
 20
131.8126580324995
 30
0.0
 10
88.11792199983697
 20
131.8166428384285
 30
0.0
 10
86.91570330180298
 20
131.8857323148098
 30
0.0
 10
86.05051936211565
 20
131.985358531367
 30
0.0
 10
85.66437894058538
 20
132.0361746049664
 30
0.0
 10
85.77245048136578
 20
132.022502424904
 30
0.0
 10
85.77316513128606
 20
132.0224120142157
 30
0.0
  0
SPLINE
  5
A2
330
1F
100
AcDbEntity
  8
0
  6
Continuous
 62
     7
370
    15
100
AcDbSpline
210
0.0
220
0.0
230
1.0
 70
     8
 71
     3
 72
    10
 73
     6
 74
     0
 42
0.00000001
 43
0.00000001
 40
0.0
 40
0.0
 40
0.0
 40
0.0
 40
0.5
 40
0.5
 40
1.0
 40
1.0
 40
1.0
 40
1.0
 10
67.10356838278106
 20
88.67432767064062
 30
0.0
 10
67.10356838278102
 20
88.64545340578123
 30
0.0
 10
67.11376229254212
 20
88.62794984940271
 30
0.0
 10
67.14051289735028
 20
88.62741828657495
 30
0.0
 10
67.15740034928163
 20
88.64508574375452
 30
0.0
 10
67.16623175750513
 20
88.69045287233739
 30
0.0
  0
LINE
  5
A3
330
1F
100
AcDbEntity
  8
0
  6
Continuous
 62
     7
370
    15
100
AcDbLine
 10
67.1035683828
 20
88.6743276706
 30
0.0
 11
67.1035683828
 21
128.0556831636
 31
0.0
  0
SPLINE
  5
A4
330
1F
100
AcDbEntity
  8
0
  6
Continuous
 62
     7
370
    15
100
AcDbSpline
210
0.0
220
0.0
230
1.0
 70
     8
 71
     3
 72
    10
 73
     6
 74
     0
 42
0.00000001
 43
0.00000001
 40
0.0
 40
0.0
 40
0.0
 40
0.0
 40
0.5
 40
0.5
 40
1.0
 40
1.0
 40
1.0
 40
1.0
 10
67.16623175750513
 20
128.0395579618989
 30
0.0
 10
67.15732746839637
 20
128.0852994811121
 30
0.0
 10
67.1408120882034
 20
128.102490320581
 30
0.0
 10
67.1137041421418
 20
128.1021670436453
 30
0.0
 10
67.10356838278173
 20
128.0842895013489
 30
0.0
 10
67.10356838278173
 20
128.0556831635963
 30
0.0
  0
SPLINE
  5
A5
330
1F
100
AcDbEntity
  8
0
  6
Continuous
 62
     7
370
    15
100
AcDbSpline
210
0.0
220
0.0
230
1.0
 70
     8
 71
     3
 72
    26
 73
    22
 74
     0
 42
0.00000001
 43
0.00000001
 40
0.0
 40
0.0
 40
0.0
 40
0.0
 40
0.2499999999999842
 40
0.2499999999999842
 40
0.3749999999999759
 40
0.3749999999999759
 40
0.4374999999999711
 40
0.4374999999999711
 40
0.4687499999999716
 40
0.4687499999999716
 40
0.4999999999999721
 40
0.4999999999999721
 40
0.5312499999999726
 40
0.5312499999999726
 40
0.562499999999973
 40
0.562499999999973
 40
0.624999999999976
 40
0.624999999999976
 40
0.749999999999984
 40
0.749999999999984
 40
1.0
 40
1.0
 40
1.0
 40
1.0
 10
67.92772202888624
 20
128.755124750716
 30
0.0
 10
67.88912150601777
 20
128.6373500543605
 30
0.0
 10
67.8428245034635
 20
128.5129603681986
 30
0.0
 10
67.74888515502958
 20
128.3077410358451
 30
0.0
 10
67.71357368811611
 20
128.2361681693987
 30
0.0
 10
67.64739371237044
 20
128.1202149367982
 30
0.0
 10
67.62285534570222
 20
128.079630401988
 30
0.0
 10
67.5794826001484
 20
128.0154887201162
 30
0.0
 10
67.56397419872322
 20
127.9936222948312
 30
0.0
 10
67.52893155413618
 20
127.948028026488
 30
0.0
 10
67.5093812634164
 20
127.9243577355205
 30
0.0
 10
67.46745398304583
 20
127.8797411761806
 30
0.0
 10
67.44480187281418
 20
127.8588611636627
 30
0.0
 10
67.40382815872758
 20
127.8279877499119
 30
0.0
 10
67.38622885883214
 20
127.8181488800795
 30
0.0
 10
67.341601872976
 20
127.7991592643833
 30
0.0
 10
67.32104265032265
 20
127.7988349397299
 30
0.0
 10
67.269917210826
 20
127.8080583806061
 30
0.0
 10
67.24900579783744
 20
127.8293052768231
 30
0.0
 10
67.1975558902765
 20
127.9032741556538
 30
0.0
 10
67.17989059097195
 20
127.9693922489686
 30
0.0
 10
67.16623175750513
 20
128.0395579618989
 30
0.0
  0
SPLINE
  5
A6
330
1F
100
AcDbEntity
  8
0
  6
Continuous
 62
     7
370
    15
100
AcDbSpline
210
0.0
220
0.0
230
1.0
 70
     8
 71
     3
 72
    10
 73
     6
 74
     0
 42
0.00000001
 43
0.00000001
 40
0.0
 40
0.0
 40
0.0
 40
0.0
 40
0.5
 40
0.5
 40
1.0
 40
1.0
 40
1.0
 40
1.0
 10
68.24352345236352
 20
129.2249593094058
 30
0.0
 10
68.17596419744528
 20
129.1572679165961
 30
0.0
 10
68.11232754210877
 20
129.0825607518424
 30
0.0
 10
68.00210678753692
 20
128.9235946194158
 30
0.0
 10
67.9552904943143
 20
128.8392393534077
 30
0.0
 10
67.92772202888622
 20
128.755124750716
 30
0.0
  0
SPLINE
  5
A7
330
1F
100
AcDbEntity
  8
0
  6
Continuous
 62
     7
370
    15
100
AcDbSpline
210
0.0
220
0.0
230
1.0
 70
     8
 71
     3
 72
    10
 73
     6
 74
     0
 42
0.00000001
 43
0.00000001
 40
0.0
 40
0.0
 40
0.0
 40
0.0
 40
0.5
 40
0.5
 40
1.0
 40
1.0
 40
1.0
 40
1.0
 10
67.92772202888627
 20
87.97488608352016
 30
0.0
 10
67.95519944363949
 20
87.89104928705457
 30
0.0
 10
68.00190807392714
 20
87.80673879946774
 30
0.0
 10
68.11218653666909
 20
87.64761756898488
 30
0.0
 10
68.17607407528072
 20
87.5726328248968
 30
0.0
 10
68.24352345236306
 20
87.50505152483093
 30
0.0
  0
SPLINE
  5
A8
330
1F
100
AcDbEntity
  8
0
  6
Continuous
 62
     7
370
    15
100
AcDbSpline
210
0.0
220
0.0
230
1.0
 70
     8
 71
     3
 72
    24
 73
    20
 74
     0
 42
0.00000001
 43
0.00000001
 40
0.0
 40
0.0
 40
0.0
 40
0.0
 40
0.2499999999999937
 40
0.2499999999999937
 40
0.3749999999999912
 40
0.3749999999999912
 40
0.4374999999999901
 40
0.4374999999999901
 40
0.4687499999999891
 40
0.4687499999999891
 40
0.4999999999999881
 40
0.4999999999999881
 40
0.5624999999999888
 40
0.5624999999999888
 40
0.6249999999999893
 40
0.6249999999999893
 40
0.749999999999992
 40
0.749999999999992
 40
1.0
 40
1.0
 40
1.0
 40
1.0
 10
67.16623175750513
 20
88.69045287233739
 30
0.0
 10
67.17998487617535
 20
88.76110293032765
 30
0.0
 10
67.19775744358122
 20
88.82770104309259
 30
0.0
 10
67.25000853513657
 20
88.9017990633258
 30
0.0
 10
67.27104361071814
 20
88.92305687048734
 30
0.0
 10
67.32394401834657
 20
88.93120279663358
 30
0.0
 10
67.34504969122449
 20
88.9302629932378
 30
0.0
 10
67.39110185990245
 20
88.90924700166048
 30
0.0
 10
67.40947233188582
 20
88.89833819555287
 30
0.0
 10
67.45102396695152
 20
88.8657032846055
 30
0.0
 10
67.47359063970845
 20
88.84421130423414
 30
0.0
 10
67.5363716561685
 20
88.77574536064783
 30
0.0
 10
67.56950141713634
 20
88.72967090244275
 30
0.0
 10
67.62641910362137
 20
88.64466301410806
 30
0.0
 10
67.65060512912515
 20
88.60438271292668
 30
0.0
 10
67.7158130795049
 20
88.48944648646074
 30
0.0
 10
67.75052913969616
 20
88.41886350131372
 30
0.0
 10
67.84374441002704
 20
88.2146577422351
 30
0.0
 10
67.88941694538772
 20
88.09175935990775
 30
0.0
 10
67.92772202888627
 20
87.97488608352018
 30
0.0
  0
SPLINE
  5
A9
330
1F
100
AcDbEntity
  8
0
  6
Continuous
 62
     7
370
    15
100
AcDbSpline
210
0.0
220
0.0
230
1.0
 70
     8
 71
     3
 72
     8
 73
     4
 74
     0
 42
0.00000001
 43
0.00000001
 40
0.0
 40
0.0
 40
0.0
 40
0.0
 40
1.0
 40
1.0
 40
1.0
 40
1.0
 10
115.0935683827817
 20
136.1702396082898
 30
0.0
 10
114.600858285936
 20
137.0582586064161
 30
0.0
 10
114.106775580657
 20
137.9455212421021
 30
0.0
 10
113.6116355512927
 20
138.8322008902824
 30
0.0
  0
LINE
  5
AA
330
1F
100
AcDbEntity
  8
0
  6
Continuous
 62
     7
370
    15
100
AcDbLine
 10
115.0935683828
 20
129.4151490847
 30
0.0
 11
115.0935683828
 21
136.1702396083
 31
0.0
  0
SPLINE
  5
AB
330
1F
100
AcDbEntity
  8
0
  6
Continuous
 62
     7
370
    15
100
AcDbSpline
210
0.0
220
0.0
230
1.0
 70
     8
 71
     3
 72
     8
 73
     4
 74
     0
 42
0.00000001
 43
0.00000001
 40
0.0
 40
0.0
 40
0.0
 40
0.0
 40
1.0
 40
1.0
 40
1.0
 40
1.0
 10
113.6116355512927
 20
132.8236950794856
 30
0.0
 10
114.1187223930519
 20
131.6925447253219
 30
0.0
 10
114.6142902321919
 20
130.5561603145541
 30
0.0
 10
115.0935683827817
 20
129.4151490847015
 30
0.0
  0
LINE
  5
AC
330
1F
100
AcDbEntity
  8
0
  6
Continuous
 62
     7
370
    15
100
AcDbLine
 10
118.9135683828
 20
128.5008720486
 30
0.0
 11
118.9135683828
 21
129.4151490847
 31
0.0
  0
SPLINE
  5
AD
330
1F
100
AcDbEntity
  8
0
  6
Continuous
 62
     7
370
    15
100
AcDbSpline
210
0.0
220
0.0
230
1.0
 70
     8
 71
     3
 72
     8
 73
     4
 74
     0
 42
0.00000001
 43
0.00000001
 40
0.0
 40
0.0
 40
0.0
 40
0.0
 40
1.0
 40
1.0
 40
1.0
 40
1.0
 10
118.9135683827817
 20
129.4151490847015
 30
0.0
 10
119.3928465333716
 20
130.5561603145541
 30
0.0
 10
119.8884143725115
 20
131.6925447253219
 30
0.0
 10
120.3955012142708
 20
132.8236950794856
 30
0.0
  0
LINE
  5
AE
330
1F
100
AcDbEntity
  8
0
  6
Continuous
 62
     7
370
    15
100
AcDbLine
 10
120.3955012143
 20
132.8236950795
 30
0.0
 11
124.3535683828
 21
132.8236950795
 31
0.0
  0
SPLINE
  5
AF
330
1F
100
AcDbEntity
  8
0
  6
Continuous
 62
     7
370
    15
100
AcDbSpline
210
0.0
220
0.0
230
1.0
 70
     8
 71
     3
 72
    12
 73
     8
 74
     0
 42
0.00000001
 43
0.00000001
 40
0.0
 40
0.0
 40
0.0
 40
0.0
 40
0.25
 40
0.25
 40
0.5
 40
0.5
 40
1.0
 40
1.0
 40
1.0
 40
1.0
 10
124.3535683827817
 20
132.8236950794856
 30
0.0
 10
124.4447681046074
 20
132.8236950794856
 30
0.0
 10
124.5353631137434
 20
132.7954753808977
 30
0.0
 10
124.68877584019
 20
132.7010323736496
 30
0.0
 10
124.7539847075137
 20
132.6347453969443
 30
0.0
 10
124.9067692368537
 20
132.409120573656
 30
0.0
 10
124.9535683827817
 20
132.2266943106234
 30
0.0
 10
124.9535683827817
 20
132.0459576783765
 30
0.0
  0
LINE
  5
B0
330
1F
100
AcDbEntity
  8
0
  6
Continuous
 62
     7
370
    15
100
AcDbLine
 10
124.9535683828
 20
132.0459576784
 30
0.0
 11
124.9535683828
 21
128.2150054171
 31
0.0
  0
LINE
  5
B1
330
1F
100
AcDbEntity
  8
0
  6
Continuous
 62
     7
370
    15
100
AcDbLine
 10
115.0935683828
 20
129.4151490847
 30
0.0
 11
115.0935683828
 21
128.5008720486
 31
0.0
  0
SPLINE
  5
B2
330
1F
100
AcDbEntity
  8
0
  6
Continuous
 62
     7
370
    15
100
AcDbSpline
210
0.0
220
0.0
230
1.0
 70
     8
 71
     3
 72
    10
 73
     6
 74
     0
 42
0.00000001
 43
0.00000001
 40
0.0
 40
0.0
 40
0.0
 40
0.0
 40
0.5
 40
0.5
 40
1.0
 40
1.0
 40
1.0
 40
1.0
 10
124.9535683827817
 20
138.211445740882
 30
0.0
 10
124.9535683827817
 20
138.3718510072328
 30
0.0
 10
124.8913305516749
 20
138.5309128202214
 30
0.0
 10
124.6721956279323
 20
138.7618252858518
 30
0.0
 10
124.5146069329404
 20
138.8322008902824
 30
0.0
 10
124.3535683827817
 20
138.8322008902824
 30
0.0
  0
LINE
  5
B3
330
1F
100
AcDbEntity
  8
0
  6
Continuous
 62
     7
370
    15
100
AcDbLine
 10
124.9535683828
 20
132.0459576784
 30
0.0
 11
124.9535683828
 21
138.2114457409
 31
0.0
  0
LINE
  5
B4
330
1F
100
AcDbEntity
  8
0
  6
Continuous
 62
     7
370
    15
100
AcDbLine
 10
124.3535683828
 20
138.8322008903
 30
0.0
 11
120.3955012143
 21
138.8322008903
 31
0.0
  0
LINE
  5
B5
330
1F
100
AcDbEntity
  8
0
  6
Continuous
 62
     7
370
    15
100
AcDbLine
 10
120.3955012143
 20
132.8236950795
 30
0.0
 11
120.3955012143
 21
138.8322008903
 31
0.0
  0
SPLINE
  5
B6
330
1F
100
AcDbEntity
  8
0
  6
Continuous
 62
     7
370
    15
100
AcDbSpline
210
0.0
220
0.0
230
1.0
 70
     8
 71
     3
 72
     8
 73
     4
 74
     0
 42
0.00000001
 43
0.00000001
 40
0.0
 40
0.0
 40
0.0
 40
0.0
 40
1.0
 40
1.0
 40
1.0
 40
1.0
 10
120.3955012142708
 20
138.8322008902824
 30
0.0
 10
119.9003611849065
 20
137.9455212421021
 30
0.0
 10
119.4062784796275
 20
137.0582586064161
 30
0.0
 10
118.9135683827817
 20
136.1702396082897
 30
0.0
  0
LINE
  5
B7
330
1F
100
AcDbEntity
  8
0
  6
Continuous
 62
     7
370
    15
100
AcDbLine
 10
118.9135683828
 20
129.4151490847
 30
0.0
 11
118.9135683828
 21
136.1702396083
 31
0.0
  0
ARC
  5
B8
330
1F
100
AcDbEntity
  8
0
  6
Continuous
 62
     7
370
    15
100
AcDbCircle
 10
107.0035176885
 20
127.103602743
 30
0.0
 40
7.218013502891647
100
AcDbArc
 50
70.6963021116
 51
109.2888198142
  0
SPLINE
  5
B9
330
1F
100
AcDbEntity
  8
0
  6
Continuous
 62
     7
370
    15
100
AcDbSpline
210
0.0
220
0.0
230
1.0
 70
     8
 71
     3
 72
    66
 73
    62
 74
     0
 42
0.00000001
 43
0.00000001
 40
-0.0624999999999996
 40
-0.0624999999999996
 40
0.0
 40
0.0
 40
0.0624999999999981
 40
0.0624999999999981
 40
0.0937499999999977
 40
0.0937499999999977
 40
0.1249999999999972
 40
0.1249999999999972
 40
0.1562499999999968
 40
0.1562499999999968
 40
0.1874999999999973
 40
0.1874999999999973
 40
0.2187499999999979
 40
0.2187499999999979
 40
0.2499999999999984
 40
0.2499999999999984
 40
0.281249999999999
 40
0.281249999999999
 40
0.3124999999999996
 40
0.3124999999999996
 40
0.3437500000000002
 40
0.3437500000000002
 40
0.3750000000000007
 40
0.3750000000000007
 40
0.4062500000000012
 40
0.4062500000000012
 40
0.4375000000000017
 40
0.4375000000000017
 40
0.4687500000000023
 40
0.4687500000000023
 40
0.5000000000000028
 40
0.5000000000000028
 40
0.5312500000000033
 40
0.5312500000000033
 40
0.5625000000000038
 40
0.5625000000000038
 40
0.5937500000000043
 40
0.5937500000000043
 40
0.6250000000000048
 40
0.6250000000000048
 40
0.6562500000000043
 40
0.6562500000000043
 40
0.6875000000000039
 40
0.6875000000000039
 40
0.7187500000000033
 40
0.7187500000000033
 40
0.7500000000000029
 40
0.7500000000000029
 40
0.7812500000000026
 40
0.7812500000000026
 40
0.8125000000000021
 40
0.8125000000000021
 40
0.8437500000000018
 40
0.8437500000000018
 40
0.8750000000000012
 40
0.8750000000000012
 40
0.9062500000000008
 40
0.9062500000000008
 40
0.9375000000000004
 40
0.9375000000000004
 40
1.0
 40
1.0
 40
1.062499999999998
 40
1.062499999999998
 10
158.2781662023888
 20
110.3477409174487
 30
0.0
 10
158.9564122146772
 20
110.8766466343579
 30
0.0
 10
159.3352066073828
 20
111.0724199975764
 30
0.0
 10
159.9480865430057
 20
111.270403380989
 30
0.0
 10
160.1555405062599
 20
111.3187005250885
 30
0.0
 10
160.5764732026978
 20
111.3817102712352
 30
0.0
 10
160.791520421127
 20
111.3963636905003
 30
0.0
 10
161.2204533424299
 20
111.3907121099084
 30
0.0
 10
161.4322738379505
 20
111.3707140301251
 30
0.0
 10
161.8507287760126
 20
111.2969970370511
 30
0.0
 10
162.0587096023304
 20
111.2428029475729
 30
0.0
 10
162.4629708363246
 20
111.1001262432395
 30
0.0
 10
162.6564274768081
 20
111.0129117534923
 30
0.0
 10
163.0258816367941
 20
110.8063038151948
 30
0.0
 10
163.2028215621237
 20
110.686186735233
 30
0.0
 10
163.5330494476761
 20
110.4126852855952
 30
0.0
 10
163.6825726798579
 20
110.2626887602283
 30
0.0
 10
163.9491665014193
 20
109.9349147525273
 30
0.0
 10
164.0673196907121
 20
109.7550974480642
 30
0.0
 10
164.2604414387389
 20
109.3719158777847
 30
0.0
 10
164.3337889942585
 20
109.1728403887485
 30
0.0
 10
164.4320427343545
 20
108.7590102603069
 30
0.0
 10
164.4563842338573
 20
108.5412848025192
 30
0.0
 10
164.4502141381084
 20
108.1141875707905
 30
0.0
 10
164.4206217948094
 20
107.9014263478949
 30
0.0
 10
164.3092932656071
 20
107.4842851470362
 30
0.0
 10
164.2295503618105
 20
107.2861623938921
 30
0.0
 10
164.0262712466283
 20
106.9088387850596
 30
0.0
 10
163.9026798178904
 20
106.730830555591
 30
0.0
 10
163.6250683304893
 20
106.4070802061718
 30
0.0
 10
163.468322194583
 20
106.2580528170414
 30
0.0
 10
163.1318022175517
 20
105.9935746231222
 30
0.0
 10
162.9527543864283
 20
105.878113916794
 30
0.0
 10
162.5744350883169
 20
105.6783929966948
 30
0.0
 10
162.3747152257673
 20
105.5944183553908
 30
0.0
 10
161.9690903434376
 20
105.4623375141909
 30
0.0
 10
161.7615260677812
 20
105.4132550869312
 30
0.0
 10
161.3369108579121
 20
105.3487944822626
 30
0.0
 10
161.1212095882056
 20
105.3339512071372
 30
0.0
 10
160.6949652160529
 20
105.338823944708
 30
0.0
 10
160.4827078250972
 20
105.3582395491023
 30
0.0
 10
160.0599723185062
 20
105.4320697981689
 30
0.0
 10
159.8507795862892
 20
105.4866248291766
 30
0.0
 10
159.4496470601745
 20
105.6277077186802
 30
0.0
 10
159.2558084911401
 20
105.714491265318
 30
0.0
 10
158.8824256987861
 20
105.9228126829378
 30
0.0
 10
158.7035211562368
 20
106.0445872514698
 30
0.0
 10
158.376874761791
 20
106.3149120665185
 30
0.0
 10
158.2269880657133
 20
106.4644809862667
 30
0.0
 10
157.9571504645567
 20
106.7959656733814
 30
0.0
 10
157.8381991097773
 20
106.9777863914412
 30
0.0
 10
157.6464906502225
 20
107.3588415561775
 30
0.0
 10
157.5712929363231
 20
107.5630057159113
 30
0.0
 10
157.4733964542347
 20
107.9810793355461
 30
0.0
 10
157.450340853247
 20
108.1930490993932
 30
0.0
 10
157.4575137819102
 20
108.6230315048877
 30
0.0
 10
157.4885044725463
 20
108.8384988794907
 30
0.0
 10
157.600027210099
 20
109.2513537115314
 30
0.0
 10
157.6820148392609
 20
109.4536892571864
 30
0.0
 10
157.9887103468218
 20
110.0179874750358
 30
0.0
 10
158.2781662023888
 20
110.3477409174487
 30
0.0
 10
158.9564122146772
 20
110.8766466343579
 30
0.0
  0
CIRCLE
  5
BA
330
1F
100
AcDbEntity
  8
0
  6
Continuous
 62
     7
370
    15
100
AcDbCircle
 10
160.9535683828
 20
108.3650054171
 30
0.0
 40
2.5
  0
LINE
  5
BB
330
1F
100
AcDbEntity
  8
0
  6
Continuous
 62
     7
370
    15
100
AcDbLine
 10
184.5318518062
 20
91.3650054171
 30
0.0
 11
184.5318518062
 21
125.3650054171
 31
0.0
  0
LINE
  5
BC
330
1F
100
AcDbEntity
  8
0
  6
Continuous
 62
     7
370
    15
100
AcDbLine
 10
158.6172892073
 20
125.2158257081
 30
0.0
 11
158.7575780874
 21
125.2027441339
 31
0.0
  0
SPLINE
  5
BD
330
1F
100
AcDbEntity
  8
0
  6
Continuous
 62
     7
370
    15
100
AcDbSpline
210
0.0
220
0.0
230
1.0
 70
     8
 71
     3
 72
    27
 73
    23
 74
     0
 42
0.00000001
 43
0.00000001
 40
0.0
 40
0.0
 40
0.0
 40
0.0
 40
0.0168839716414424
 40
0.0618081662867348
 40
0.1033815713108976
 40
0.1460093027922906
 40
0.1907251380608322
 40
0.2364505305697983
 40
0.2873593429478857
 40
0.3394234305718998
 40
0.3970747075261631
 40
0.4561653966826066
 40
0.5182523870146171
 40
0.5820707442801674
 40
0.645261853400875
 40
0.7104123796365482
 40
0.7712161722927261
 40
0.8342450376997741
 40
0.8795057675745879
 40
0.9260191044628431
 40
0.9713185353628978
 40
1.0
 40
1.0
 40
1.0
 40
1.0
 10
164.4443739885652
 20
125.3636120600109
 30
0.0
 10
164.4467100429601
 20
125.3639659854471
 30
0.0
 10
164.4552617772064
 20
125.3652616214904
 30
0.0
 10
164.3880438090261
 20
125.355066953173
 30
0.0
 10
164.2504186099569
 20
125.334809393176
 30
0.0
 10
164.0450881849576
 20
125.3059527814742
 30
0.0
 10
163.7757386621049
 20
125.2707130728537
 30
0.0
 10
163.435277353225
 20
125.2304223767128
 30
0.0
 10
163.0277219163829
 20
125.1886078472488
 30
0.0
 10
162.543561919286
 20
125.1482844990305
 30
0.0
 10
161.9985403155636
 20
125.1152755631207
 30
0.0
 10
161.3956289745349
 20
125.0945282615084
 30
0.0
 10
160.7602281317521
 20
125.09065496394
 30
0.0
 10
160.1157795978521
 20
125.1058651901912
 30
0.0
 10
159.4846422288712
 20
125.1390929173319
 30
0.0
 10
158.9056568615111
 20
125.1854514612507
 30
0.0
 10
158.3896899225551
 20
125.2390487721599
 30
0.0
 10
158.0026264288185
 20
125.286983799565
 30
0.0
 10
157.7261304346479
 20
125.3248224565587
 30
0.0
 10
157.5543725997371
 20
125.3497835058699
 30
0.0
 10
157.4608545215956
 20
125.3638961688318
 30
0.0
 10
157.4632822598955
 20
125.3635321856365
 30
0.0
 10
157.4642234635629
 20
125.3633910739202
 30
0.0
  0
LINE
  5
BE
330
1F
100
AcDbEntity
  8
0
  6
Continuous
 62
     7
370
    15
100
AcDbLine
 10
158.5115419626
 20
125.2279162936
 30
0.0
 11
158.6172892073
 21
125.2158257081
 31
0.0
  0
LINE
  5
BF
330
1F
100
AcDbEntity
  8
0
  6
Continuous
 62
     7
370
    15
100
AcDbLine
 10
158.6172892079
 20
91.5141851262
 30
0.0
 11
158.4834867109
 21
91.4991492046
 31
0.0
  0
SPLINE
  5
C0
330
1F
100
AcDbEntity
  8
0
  6
Continuous
 62
     7
370
    15
100
AcDbSpline
210
0.0
220
0.0
230
1.0
 70
     8
 71
     3
 72
    27
 73
    23
 74
     0
 42
0.00000001
 43
0.00000001
 40
0.0
 40
0.0
 40
0.0
 40
0.0
 40
0.0014927824170709
 40
0.0473948858325559
 40
0.0888874383008966
 40
0.1314672555557528
 40
0.1753755831539941
 40
0.220286054337307
 40
0.270021657713213
 40
0.3208761300234712
 40
0.377474328510266
 40
0.4354581739774388
 40
0.4970308014203276
 40
0.5602911489147641
 40
0.6235158429561322
 40
0.6886601079860001
 40
0.7501842434781189
 40
0.8138907364254611
 40
0.8603649035403002
 40
0.9081180150797686
 40
0.9546366343018613
 40
1.0
 40
1.0
 40
1.0
 40
1.0
 10
157.4548738139759
 20
91.36520260089266
 30
0.0
 10
157.4544406153504
 20
91.36513716953203
 30
0.0
 10
157.4406868363949
 20
91.36305976573128
 30
0.0
 10
157.4893101639349
 20
91.37044978903492
 30
0.0
 10
157.6011369055473
 20
91.38710372847629
 30
0.0
 10
157.7850889347602
 20
91.41344835280533
 30
0.0
 10
158.032038764445
 20
91.44663677582994
 30
0.0
 10
158.3485189528816
 20
91.4855519354356
 30
0.0
 10
158.7318045750758
 20
91.52707670196058
 30
0.0
 10
159.1919195358988
 20
91.56860164206284
 30
0.0
 10
159.7152731795975
 20
91.60456237367879
 30
0.0
 10
160.302053831167
 20
91.63014615832591
 30
0.0
 10
160.9278205957736
 20
91.64014436390703
 30
0.0
 10
161.572409219258
 20
91.63144066488533
 30
0.0
 10
162.2119722951529
 20
91.60402859621361
 30
0.0
 10
162.8099453097116
 20
91.56152510982554
 30
0.0
 10
163.3533974523959
 20
91.5092732348843
 30
0.0
 10
163.7744711004069
 20
91.45972127105685
 30
0.0
 10
164.0869465105911
 20
91.4183762713169
 30
0.0
 10
164.2949653882521
 20
91.38877471665971
 30
0.0
 10
164.4295238874645
 20
91.36867535763267
 30
0.0
 10
164.443887180338
 20
91.36648021615311
 30
0.0
 10
164.4509785302671
 20
91.36539644542502
 30
0.0
  0
SPLINE
  5
C1
330
1F
100
AcDbEntity
  8
0
  6
Continuous
 62
     7
370
    15
100
AcDbSpline
210
0.0
220
0.0
230
1.0
 70
     8
 71
     3
 72
    10
 73
     6
 74
     0
 42
0.00000001
 43
0.00000001
 40
0.0
 40
0.0
 40
0.0
 40
0.0
 40
0.1528193873578144
 40
0.8538662091849736
 40
1.0
 40
1.0
 40
1.0
 40
1.0
 10
228.9892648379845
 20
120.2124872465262
 30
0.0
 10
228.9906950374032
 20
120.2016072308818
 30
0.0
 10
228.9986861632485
 20
120.1408160061894
 30
0.0
 10
229.0030101614591
 20
120.0533575989737
 30
0.0
 10
229.0034862587354
 20
119.9775325606217
 30
0.0
 10
229.0035683827817
 20
119.9644531769251
 30
0.0
  0
LINE
  5
C2
330
1F
100
AcDbEntity
  8
0
  6
Continuous
 62
     7
370
    15
100
AcDbLine
 10
229.0035683828
 20
96.7655576573
 30
0.0
 11
229.0035683828
 21
119.9644531769
 31
0.0
  0
SPLINE
  5
C3
330
1F
100
AcDbEntity
  8
0
  6
Continuous
 62
     7
370
    15
100
AcDbSpline
210
0.0
220
0.0
230
1.0
 70
     8
 71
     3
 72
    11
 73
     7
 74
     0
 42
0.00000001
 43
0.00000001
 40
0.0
 40
0.0
 40
0.0
 40
0.0
 40
0.1334181906050901
 40
0.4898087576207351
 40
0.877076240704355
 40
1.0
 40
1.0
 40
1.0
 40
1.0
 10
229.0035683827817
 20
96.76555765731112
 30
0.0
 10
229.0028294167223
 20
96.72419706976373
 30
0.0
 10
229.0001165029445
 20
96.57235287288793
 30
0.0
 10
228.9691405253912
 20
96.34572924796092
 30
0.0
 10
228.9320401155549
 20
96.18951235804766
 30
0.0
 10
228.9215619574568
 20
96.15125819883063
 30
0.0
 10
228.9190373853417
 20
96.14204137057281
 30
0.0
  0
LINE
  5
C4
330
1F
100
AcDbEntity
  8
0
  6
Continuous
 62
     7
370
    15
100
AcDbLine
 10
228.9179806176
 20
96.1689379052
 30
0.0
 11
228.9300810728
 21
95.8609607549
 31
0.0
  0
LINE
  5
C5
330
1F
100
AcDbEntity
  8
0
  6
Continuous
 62
     7
370
    15
100
AcDbLine
 10
229.0035683828
 20
98.1155840861
 30
0.0
 11
229.0808905899
 21
96.1476024992
 31
0.0
  0
LINE
  5
C6
330
1F
100
AcDbEntity
  8
0
  6
Continuous
 62
     7
370
    15
100
AcDbLine
 10
228.8711913492
 20
120.8713638628
 30
0.0
 11
228.8656270341
 21
120.7297425879
 31
0.0
  0
LINE
  5
C7
330
1F
100
AcDbEntity
  8
0
  6
Continuous
 62
     7
370
    15
100
AcDbLine
 10
229.0155865183
 20
120.4214660601
 30
0.0
 11
229.0015330072
 21
120.0637803187
 31
0.0
  0
LINE
  5
C8
330
1F
100
AcDbEntity
  8
0
  6
Continuous
 62
     7
370
    15
100
AcDbLine
 10
229.0220008663
 20
120.5847221186
 30
0.0
 11
229.0155865183
 21
120.4214660601
 31
0.0
  0
LINE
  5
C9
330
1F
100
AcDbEntity
  8
0
  6
HIDDEN
 62
     7
370
     0
100
AcDbLine
 10
179.0035683828
 20
102.3650054171
 30
0.0
 11
179.0035683828
 21
114.3650054171
 31
0.0
  0
LINE
  5
CA
330
1F
100
AcDbEntity
  8
0
  6
HIDDEN
 62
     7
370
     0
100
AcDbLine
 10
164.0035683828
 20
102.3650054171
 30
0.0
 11
164.0035683828
 21
114.3650054171
 31
0.0
  0
LINE
  5
CB
330
1F
100
AcDbEntity
  8
0
  6
HIDDEN
 62
     7
370
     0
100
AcDbLine
 10
163.5035683828
 20
102.8650054171
 30
0.0
 11
163.5035683828
 21
113.8650054171
 31
0.0
  0
LINE
  5
CC
330
1F
100
AcDbEntity
  8
0
  6
HIDDEN
 62
     7
370
     0
100
AcDbLine
 10
183.5035683828
 20
106.0763201606
 30
0.0
 11
181.5035683828
 21
106.0763201606
 31
0.0
  0
LINE
  5
CD
330
1F
100
AcDbEntity
  8
0
  6
HIDDEN
 62
     7
370
     0
100
AcDbLine
 10
183.5035683828
 20
102.8650054171
 30
0.0
 11
183.5035683828
 21
106.0763201606
 31
0.0
  0
LINE
  5
CE
330
1F
100
AcDbEntity
  8
0
  6
HIDDEN
 62
     7
370
     0
100
AcDbLine
 10
181.5035683828
 20
107.6887140514
 30
0.0
 11
183.5035683828
 21
107.6887140514
 31
0.0
  0
LINE
  5
CF
330
1F
100
AcDbEntity
  8
0
  6
HIDDEN
 62
     7
370
     0
100
AcDbLine
 10
183.5035683828
 20
110.6536906736
 30
0.0
 11
181.5035683828
 21
110.6536906736
 31
0.0
  0
LINE
  5
D0
330
1F
100
AcDbEntity
  8
0
  6
HIDDEN
 62
     7
370
     0
100
AcDbLine
 10
183.5035683828
 20
109.0412967828
 30
0.0
 11
183.5035683828
 21
113.8650054171
 31
0.0
  0
LINE
  5
D1
330
1F
100
AcDbEntity
  8
0
  6
HIDDEN
 62
     7
370
     0
100
AcDbLine
 10
181.5035683828
 20
109.0412967828
 30
0.0
 11
183.5035683828
 21
109.0412967828
 31
0.0
  0
LINE
  5
D2
330
1F
100
AcDbEntity
  8
0
  6
HIDDEN
 62
     7
370
     0
100
AcDbLine
 10
181.5035683828
 20
106.0763201606
 30
0.0
 11
181.5035683828
 21
109.0412967828
 31
0.0
  0
LINE
  5
D3
330
1F
100
AcDbEntity
  8
0
  6
HIDDEN
 62
     7
370
     0
100
AcDbLine
 10
181.5035683828
 20
109.451658886
 30
0.0
 11
181.5035683828
 21
109.0412967828
 31
0.0
  0
LINE
  5
D4
330
1F
100
AcDbEntity
  8
0
  6
HIDDEN
 62
     7
370
     0
100
AcDbLine
 10
181.5035683828
 20
106.4866822638
 30
0.0
 11
183.5035683828
 21
106.4866822638
 31
0.0
  0
LINE
  5
D5
330
1F
100
AcDbEntity
  8
0
  6
HIDDEN
 62
     7
370
     0
100
AcDbLine
 10
183.5035683828
 20
106.4866822638
 30
0.0
 11
183.5035683828
 21
106.0763201606
 31
0.0
  0
LINE
  5
D6
330
1F
100
AcDbEntity
  8
0
  6
HIDDEN
 62
     7
370
     0
100
AcDbLine
 10
183.5035683828
 20
109.451658886
 30
0.0
 11
181.5035683828
 21
109.451658886
 31
0.0
  0
LINE
  5
D7
330
1F
100
AcDbEntity
  8
0
  6
HIDDEN
 62
     7
370
     0
100
AcDbLine
 10
176.5035683828
 20
109.451658886
 30
0.0
 11
176.5035683828
 21
107.8372256275
 31
0.0
  0
LINE
  5
D8
330
1F
100
AcDbEntity
  8
0
  6
HIDDEN
 62
     7
370
     0
100
AcDbLine
 10
170.5035683827
 20
107.8372256275
 30
0.0
 11
170.5035683827
 21
109.451658886
 31
0.0
  0
LINE
  5
D9
330
1F
100
AcDbEntity
  8
0
  6
HIDDEN
 62
     7
370
     0
100
AcDbLine
 10
176.5035683828
 20
107.8372256275
 30
0.0
 11
176.5035683828
 21
106.4866822638
 31
0.0
  0
LINE
  5
DA
330
1F
100
AcDbEntity
  8
0
  6
HIDDEN
 62
     7
370
     0
100
AcDbLine
 10
176.5035683828
 20
107.8372256275
 30
0.0
 11
181.5035683828
 21
107.8372256275
 31
0.0
  0
LINE
  5
DB
330
1F
100
AcDbEntity
  8
0
  6
HIDDEN
 62
     7
370
     0
100
AcDbLine
 10
170.5035683827
 20
106.4866822638
 30
0.0
 11
170.5035683827
 21
107.8372256275
 31
0.0
  0
LINE
  5
DC
330
1F
100
AcDbEntity
  8
0
  6
HIDDEN
 62
     7
370
     0
100
AcDbLine
 10
170.5035683827
 20
107.8372256275
 30
0.0
 11
163.5035683828
 21
107.8372256275
 31
0.0
  0
LINE
  5
DD
330
1F
100
AcDbEntity
  8
0
  6
HIDDEN
 62
     7
370
     0
100
AcDbLine
 10
170.5035683827
 20
109.451658886
 30
0.0
 11
170.5035683827
 21
111.0660921445
 31
0.0
  0
LINE
  5
DE
330
1F
100
AcDbEntity
  8
0
  6
HIDDEN
 62
     7
370
     0
100
AcDbLine
 10
176.5035683828
 20
111.0660921445
 30
0.0
 11
176.5035683828
 21
109.451658886
 31
0.0
  0
LINE
  5
DF
330
1F
100
AcDbEntity
  8
0
  6
HIDDEN
 62
     7
370
     0
100
AcDbLine
 10
170.5035683827
 20
105.1361389001
 30
0.0
 11
170.5035683827
 21
106.4866822638
 31
0.0
  0
LINE
  5
E0
330
1F
100
AcDbEntity
  8
0
  6
HIDDEN
 62
     7
370
     0
100
AcDbLine
 10
176.5035683828
 20
106.4866822638
 30
0.0
 11
176.5035683828
 21
105.1361389001
 31
0.0
  0
LINE
  5
E1
330
1F
100
AcDbEntity
  8
0
  6
HIDDEN
 62
     7
370
     0
100
AcDbLine
 10
176.5035683828
 20
111.3299820393
 30
0.0
 11
176.5035683828
 21
111.0660921445
 31
0.0
  0
LINE
  5
E2
330
1F
100
AcDbEntity
  8
0
  6
HIDDEN
 62
     7
370
     0
100
AcDbLine
 10
176.5035683828
 20
111.0660921445
 30
0.0
 11
183.5035683828
 21
111.0660921445
 31
0.0
  0
LINE
  5
E3
330
1F
100
AcDbEntity
  8
0
  6
HIDDEN
 62
     7
370
     0
100
AcDbLine
 10
170.5035683827
 20
111.0660921445
 30
0.0
 11
170.5035683827
 21
111.3299820393
 31
0.0
  0
LINE
  5
E4
330
1F
100
AcDbEntity
  8
0
  6
HIDDEN
 62
     7
370
     0
100
AcDbLine
 10
170.5035683827
 20
111.0660921445
 30
0.0
 11
163.5035683827
 21
111.0660921445
 31
0.0
  0
LINE
  5
E5
330
1F
100
AcDbEntity
  8
0
  6
HIDDEN
 62
     7
370
     0
100
AcDbLine
 10
170.5035683827
 20
105.6639186897
 30
0.0
 11
163.5035683827
 21
105.6639186897
 31
0.0
  0
LINE
  5
E6
330
1F
100
AcDbEntity
  8
0
  6
HIDDEN
 62
     7
370
     0
100
AcDbLine
 10
170.5035683827
 20
105.1361389001
 30
0.0
 11
163.5035683827
 21
105.1361389001
 31
0.0
  0
LINE
  5
E7
330
1F
100
AcDbEntity
  8
0
  6
HIDDEN
 62
     7
370
     0
100
AcDbLine
 10
176.5035683828
 20
105.6639186897
 30
0.0
 11
183.5035683828
 21
105.6639186897
 31
0.0
  0
LINE
  5
E8
330
1F
100
AcDbEntity
  8
0
  6
HIDDEN
 62
     7
370
     0
100
AcDbLine
 10
176.5035683828
 20
105.1361389001
 30
0.0
 11
183.5035683828
 21
105.1361389001
 31
0.0
  0
LINE
  5
E9
330
1F
100
AcDbEntity
  8
0
  6
HIDDEN
 62
     7
370
     0
100
AcDbLine
 10
176.5035683828
 20
111.5938719341
 30
0.0
 11
176.5035683828
 21
111.3299820393
 31
0.0
  0
LINE
  5
EA
330
1F
100
AcDbEntity
  8
0
  6
HIDDEN
 62
     7
370
     0
100
AcDbLine
 10
170.5035683827
 20
111.3299820393
 30
0.0
 11
170.5035683827
 21
111.5938719341
 31
0.0
  0
LINE
  5
EB
330
1F
100
AcDbEntity
  8
0
  6
HIDDEN
 62
     7
370
     0
100
AcDbLine
 10
181.5035683828
 20
110.2433285704
 30
0.0
 11
183.5035683828
 21
110.2433285704
 31
0.0
  0
LINE
  5
EC
330
1F
100
AcDbEntity
  8
0
  6
HIDDEN
 62
     7
370
     0
100
AcDbLine
 10
181.5035683828
 20
109.451658886
 30
0.0
 11
181.5035683828
 21
110.2433285704
 31
0.0
  0
LINE
  5
ED
330
1F
100
AcDbEntity
  8
0
  6
HIDDEN
 62
     7
370
     0
100
AcDbLine
 10
176.5035683828
 20
108.8927852067
 30
0.0
 11
181.5035683828
 21
108.8927852067
 31
0.0
  0
LINE
  5
EE
330
1F
100
AcDbEntity
  8
0
  6
HIDDEN
 62
     7
370
     0
100
AcDbLine
 10
176.5035683828
 20
111.5938719341
 30
0.0
 11
183.5035683828
 21
111.5938719341
 31
0.0
  0
LINE
  5
EF
330
1F
100
AcDbEntity
  8
0
  6
HIDDEN
 62
     7
370
     0
100
AcDbLine
 10
170.5035683827
 20
108.8927852067
 30
0.0
 11
163.5035683827
 21
108.8927852067
 31
0.0
  0
LINE
  5
F0
330
1F
100
AcDbEntity
  8
0
  6
HIDDEN
 62
     7
370
     0
100
AcDbLine
 10
170.5035683827
 20
111.5938719341
 30
0.0
 11
163.5035683827
 21
111.5938719341
 31
0.0
  0
LINE
  5
F1
330
1F
100
AcDbEntity
  8
0
  6
HIDDEN
 62
     7
370
     0
100
AcDbLine
 10
183.5035683828
 20
107.2783519482
 30
0.0
 11
181.5035683828
 21
107.2783519482
 31
0.0
  0
LINE
  5
F2
330
1F
100
AcDbEntity
  8
0
  6
HIDDEN
 62
     7
370
     0
100
AcDbLine
 10
183.5035683828
 20
107.2783519482
 30
0.0
 11
183.5035683828
 21
106.4866822638
 31
0.0
  0
LINE
  5
F3
330
1F
100
AcDbEntity
  8
0
  6
HIDDEN
 62
     7
370
     0
100
AcDbLine
 10
181.5035683828
 20
110.6536906736
 30
0.0
 11
181.5035683828
 21
110.2433285704
 31
0.0
  0
LINE
  5
F4
330
1F
100
AcDbEntity
  8
0
  6
HIDDEN
 62
     7
370
     0
100
AcDbLine
 10
183.5035683828
 20
107.6887140514
 30
0.0
 11
183.5035683828
 21
107.2783519482
 31
0.0
  0
LINE
  5
F5
330
1F
100
AcDbEntity
  8
0
  6
HIDDEN
 62
     7
370
     0
100
AcDbLine
 10
113.6116355513
 20
132.8236950795
 30
0.0
 11
113.6116355513
 21
128.2150054171
 31
0.0
  0
ARC
  5
F6
330
1F
100
AcDbEntity
  8
0
  6
HIDDEN
 62
     7
370
     0
100
AcDbCircle
 10
107.3058136926
 20
120.842986505
 30
0.0
 40
3.660565765032609
100
AcDbArc
 50
265.2638146341
 51
12.7924708268
  0
ARC
  5
F7
330
1F
100
AcDbEntity
  8
0
  6
HIDDEN
 62
     7
370
     0
100
AcDbCircle
 10
106.7206551901
 20
120.8548761716
 30
0.0
 40
3.670874462837155
100
AcDbArc
 50
166.0486690848
 51
274.4201516687
  0
LINE
  5
F8
330
1F
100
AcDbEntity
  8
0
  6
HIDDEN
 62
     7
370
     0
100
AcDbLine
 10
86.9987185874
 20
84.8404057943
 30
0.0
 11
86.4645731582
 21
84.7857911948
 31
0.0
  0
LINE
  5
F9
330
1F
100
AcDbEntity
  8
0
  6
HIDDEN
 62
     7
370
     0
100
AcDbLine
 10
86.2269194862
 20
131.9683385976
 30
0.0
 11
86.9986258671
 21
131.8895884471
 31
0.0
  0
SPLINE
  5
FA
330
1F
100
AcDbEntity
  8
0
  6
HIDDEN
 62
     7
370
     0
100
AcDbSpline
210
0.0
220
0.0
230
1.0
 70
     8
 71
     3
 72
    15
 73
    11
 74
     0
 42
0.00000001
 43
0.00000001
 40
0.0
 40
0.0
 40
0.0
 40
0.0
 40
0.110073497728565
 40
0.2209211978812889
 40
0.3341969248598607
 40
0.4483072217158166
 40
0.5584036831377097
 40
0.7823036295888718
 40
0.8963677673997164
 40
0.9999999999999999
 40
0.9999999999999999
 40
0.9999999999999999
 40
0.9999999999999999
 10
92.75857038438332
 20
128.2025338929346
 30
0.0
 10
92.82616437087083
 20
128.2116021470277
 30
0.0
 10
92.96182776644321
 20
128.2298024368185
 30
0.0
 10
93.14227319066093
 20
128.2505234921175
 30
0.0
 10
93.30442196686242
 20
128.2672631775709
 30
0.0
 10
93.4424731072526
 20
128.2798452890513
 30
0.0
 10
93.59411384966823
 20
128.2922240905509
 30
0.0
 10
93.69555934798984
 20
128.2991813658583
 30
0.0
 10
93.74697246049828
 20
128.3024779686124
 30
0.0
 10
93.75092725397626
 20
128.3027232728909
 30
0.0
 10
93.75280989481598
 20
128.3028400475986
 30
0.0
  0
SPLINE
  5
FB
330
1F
100
AcDbEntity
  8
0
  6
HIDDEN
 62
     7
370
     0
100
AcDbSpline
210
0.0
220
0.0
230
1.0
 70
     8
 71
     3
 72
    17
 73
    13
 74
     0
 42
0.00000001
 43
0.00000001
 40
0.0
 40
0.0
 40
0.0
 40
0.0
 40
0.0069728710572609
 40
0.1183152663270182
 40
0.2320716767842061
 40
0.3466628069643692
 40
0.4573811669863204
 40
0.5688719816774894
 40
0.6828068779536546
 40
0.7975913953265431
 40
0.8984980741921084
 40
1.0
 40
1.0
 40
1.0
 40
1.0
 10
93.75281384092376
 20
88.42717053735262
 30
0.0
 10
93.75306369114612
 20
88.42715475903547
 30
0.0
 10
93.75730313503627
 20
88.42688703347744
 30
0.0
 10
93.74138193602168
 20
88.42788398544658
 30
0.0
 10
93.70236810302134
 20
88.43040040879028
 30
0.0
 10
93.63391542330237
 20
88.43509805275937
 30
0.0
 10
93.54116359383723
 20
88.44204791055706
 30
0.0
 10
93.42387198491936
 20
88.45177739749073
 30
0.0
 10
93.28103535303131
 20
88.46502440376737
 30
0.0
 10
93.1194859598816
 20
88.48201149244571
 30
0.0
 10
92.94568261968524
 20
88.50230413285907
 30
0.0
 10
92.82106329042145
 20
88.51906957045186
 30
0.0
 10
92.75857038438332
 20
88.52747694130167
 30
0.0
  0
SPLINE
  5
FC
330
1F
100
AcDbEntity
  8
0
  6
HIDDEN
 62
     7
370
     0
100
AcDbSpline
210
0.0
220
0.0
230
1.0
 70
     8
 71
     3
 72
    32
 73
    28
 74
     0
 42
0.00000001
 43
0.00000001
 40
0.0
 40
0.0
 40
0.0
 40
0.0
 40
0.0346246159901393
 40
0.0694870388940023
 40
0.105100760954932
 40
0.1409753874086758
 40
0.1756005721189328
 40
0.210469240812561
 40
0.2461122854708169
 40
0.2820258067991321
 40
0.3162663828049037
 40
0.3859338563640312
 40
0.4214461814158482
 40
0.4553763558770598
 40
0.5243713305904967
 40
0.5595124638219118
 40
0.593798734303577
 40
0.6635059787021123
 40
0.6990055363805018
 40
0.7337623601246063
 40
0.7687606633024604
 40
0.8045245907686109
 40
0.8405553812432468
 40
0.875170121130555
 40
0.9456085132854553
 40
0.9815233266320907
 40
1.0
 40
1.0
 40
1.0
 40
1.0
 10
92.75857038438332
 20
88.52747694130167
 30
0.0
 10
92.6865720825369
 20
88.53726488420999
 30
0.0
 10
92.54208098400373
 20
88.55690799504643
 30
0.0
 10
92.30076104974528
 20
88.58635721366814
 30
0.0
 10
92.04146279875964
 20
88.61490759575857
 30
0.0
 10
91.76747537962702
 20
88.6413388147134
 30
0.0
 10
91.48284759860547
 20
88.66479129206469
 30
0.0
 10
91.18826263963732
 20
88.68478874852332
 30
0.0
 10
90.881331730669
 20
88.70094442702705
 30
0.0
 10
90.56960026491655
 20
88.71238641472254
 30
0.0
 10
90.15233471623112
 20
88.72107754242039
 30
0.0
 10
89.73169172287356
 20
88.71978948596019
 30
0.0
 10
89.3182881697081
 20
88.70856167459272
 30
0.0
 10
88.9134442066408
 20
88.69126340251185
 30
0.0
 10
88.52280612207863
 20
88.66554775874363
 30
0.0
 10
88.15402504403737
 20
88.63345444784672
 30
0.0
 10
87.80060726178895
 20
88.59789623934428
 30
0.0
 10
87.47516617146806
 20
88.55864778300868
 30
0.0
 10
87.18578896575072
 20
88.51901626563634
 30
0.0
 10
86.98787508877541
 20
88.48988052249409
 30
0.0
 10
86.8105481247379
 20
88.46214629018134
 30
0.0
 10
86.65393879622539
 20
88.43636574592696
 30
0.0
 10
86.5222912765227
 20
88.41375910919277
 30
0.0
 10
86.38043008095097
 20
88.38857306388611
 30
0.0
 10
86.29161149313535
 20
88.37212751476251
 30
0.0
 10
86.25478855458495
 20
88.36523468394633
 30
0.0
 10
86.25620470175812
 20
88.36549966985554
 30
0.0
 10
86.25668576396731
 20
88.36558968501024
 30
0.0
  0
SPLINE
  5
FD
330
1F
100
AcDbEntity
  8
0
  6
HIDDEN
 62
     7
370
     0
100
AcDbSpline
210
0.0
220
0.0
230
1.0
 70
     8
 71
     3
 72
    30
 73
    26
 74
     0
 42
0.00000001
 43
0.00000001
 40
0.0
 40
0.0
 40
0.0
 40
0.0
 40
0.0156161600804337
 40
0.0849748372628082
 40
0.1203204532886746
 40
0.15431851909124
 40
0.2234436946574013
 40
0.2586467089786606
 40
0.2931107206687011
 40
0.3631864361325603
 40
0.3988795186727328
 40
0.4336750628309723
 40
0.4687145712104809
 40
0.5045294144990544
 40
0.5406151111978532
 40
0.5750767863722916
 40
0.6452033649630275
 40
0.6809575734718859
 40
0.7149323277721685
 40
0.784033058295527
 40
0.8192378401372485
 40
0.8533347063218409
 40
0.9226550151093995
 40
0.9579547149334489
 40
1.0
 40
1.0
 40
1.0
 40
1.0
 10
86.25668576396731
 20
128.364421149226
 30
0.0
 10
86.25608802488222
 20
128.3645334021077
 30
0.0
 10
86.25283544670556
 20
128.365144222585
 30
0.0
 10
86.3031563491539
 20
128.3556850881279
 30
0.0
 10
86.40346137819519
 20
128.3373802520317
 30
0.0
 10
86.53807836626487
 20
128.313396946658
 30
0.0
 10
86.72013701129494
 20
128.2822981525115
 30
0.0
 10
86.94705958496021
 20
128.2463790084692
 30
0.0
 10
87.20364599033759
 20
128.2080599873301
 30
0.0
 10
87.50168264881027
 20
128.1678148520218
 30
0.0
 10
87.83423190281002
 20
128.1291538286195
 30
0.0
 10
88.0994296082143
 20
128.1017511698883
 30
0.0
 10
88.37848743347324
 20
128.0767063332761
 30
0.0
 10
88.67293844936741
 20
128.0545386359805
 30
0.0
 10
88.97580338268365
 20
128.0363765487106
 30
0.0
 10
89.38618936955241
 20
128.0181184437162
 30
0.0
 10
89.80703020850721
 20
128.0092712097118
 30
0.0
 10
90.22693412573616
 20
128.0107366041529
 30
0.0
 10
90.64154864658988
 20
128.0187799973202
 30
0.0
 10
91.04776976606571
 20
128.0362867829195
 30
0.0
 10
91.43730026578768
 20
128.0618520959474
 30
0.0
 10
91.81412096702604
 20
128.0920363316615
 30
0.0
 10
92.16725812672999
 20
128.127933906509
 30
0.0
 10
92.5090096145516
 20
128.1687521843676
 30
0.0
 10
92.67068337556117
 20
128.1906370979341
 30
0.0
 10
92.75857038438332
 20
128.2025338929346
 30
0.0
  0
LINE
  5
FE
330
1F
100
AcDbEntity
  8
0
  6
HIDDEN
 62
     7
370
     0
100
AcDbLine
 10
80.007542979
 20
91.3650054171
 30
0.0
 11
80.007542979
 21
125.3650054171
 31
0.0
  0
LWPOLYLINE
  5
FF
330
1F
100
AcDbEntity
  8
0
  6
HIDDEN
 62
     7
370
     0
100
AcDbPolyline
 90
       13
 70
   128
 43
0.0
 10
107.0035683828
 20
130.3106078318
 10
107.8634501436
 20
130.3573667203
 10
108.683124789
 20
130.4954569924
 10
109.4242652436
 20
130.7184217003
 10
110.0522166033
 20
131.0158352622
 10
110.5376165606
 20
131.3737909504
 10
110.8577683529
 20
131.7755511547
 10
110.9977020382
 20
132.2023300146
 10
110.9508744729
 20
132.6341718249
 10
110.719475262
 20
133.0508841424
 10
110.3143243754
 20
133.4329819625
 10
109.7543662182
 20
133.7625988156
 10
109.3896147055
 20
133.9158167703
  0
LWPOLYLINE
  5
100
330
1F
100
AcDbEntity
  8
0
  6
HIDDEN
 62
     7
370
     0
100
AcDbPolyline
 90
       13
 70
   128
 43
0.0
 10
104.619189689
 20
133.9164361417
 10
104.2527705474
 20
133.7625988156
 10
103.6928123902
 20
133.4329819625
 10
103.2876615035
 20
133.0508841424
 10
103.0562622926
 20
132.6341718249
 10
103.0094347274
 20
132.2023300146
 10
103.1493684127
 20
131.7755511547
 10
103.469520205
 20
131.3737909504
 10
103.9549201623
 20
131.0158352622
 10
104.582871522
 20
130.7184217003
 10
105.3240119765
 20
130.4954569924
 10
106.1436866219
 20
130.3573667203
 10
107.0035683828
 20
130.3106078318
  0
SPLINE
  5
101
330
1F
100
AcDbEntity
  8
0
  6
HIDDEN
 62
     7
370
     0
100
AcDbSpline
210
0.0
220
0.0
230
1.0
 70
     8
 71
     3
 72
    11
 73
     7
 74
     0
 42
0.00000001
 43
0.00000001
 40
0.0
 40
0.0
 40
0.0
 40
0.0
 40
0.0005779865010845
 40
0.0005779865010845
 40
0.0005779865010845
 40
0.0011559733324421
 40
0.0011559733324421
 40
0.0011559733324421
 40
0.0011559733324421
 10
67.10356838278173
 20
110.364846025278
 30
0.0
 10
67.27023563758769
 20
110.362862385937
 30
0.0
 10
67.43690206726535
 20
110.3608247789284
 30
0.0
 10
67.60356840571718
 20
110.358713315522
 30
0.0
 10
67.77023483454359
 20
110.3566018509706
 30
0.0
 10
67.93690120818128
 20
110.3544162878143
 30
0.0
 10
68.10356838278173
 20
110.3521337104827
 30
0.0
  0
SPLINE
  5
102
330
1F
100
AcDbEntity
  8
0
  6
HIDDEN
 62
     7
370
     0
100
AcDbSpline
210
0.0
220
0.0
230
1.0
 70
     8
 71
     3
 72
     8
 73
     4
 74
     0
 42
0.00000001
 43
0.00000001
 40
0.0
 40
0.0
 40
0.0
 40
0.0
 40
0.0011564765856722
 40
0.0011564765856722
 40
0.0011564765856722
 40
0.0011564765856722
 10
68.10356838278173
 20
106.3683051149019
 30
0.0
 10
67.77026045221288
 20
106.3674299593186
 30
0.0
 10
67.43692521982067
 20
106.366375108067
 30
0.0
 10
67.10356838278173
 20
106.3652040210294
 30
0.0
  0
LINE
  5
103
330
1F
100
AcDbEntity
  8
0
  6
HIDDEN
 62
     7
370
     0
100
AcDbLine
 10
106.6633943513
 20
91.3650054171
 30
0.0
 11
106.6633943513
 21
125.3650054171
 31
0.0
  0
LINE
  5
104
330
1F
100
AcDbEntity
  8
0
  6
HIDDEN
 62
     7
370
     0
100
AcDbLine
 10
108.9535683828
 20
92.6400054171
 30
0.0
 11
108.9535683828
 21
124.0900054162
 31
0.0
  0
SPLINE
  5
105
330
1F
100
AcDbEntity
  8
0
  6
HIDDEN
 62
     7
370
     0
100
AcDbSpline
210
0.0
220
0.0
230
1.0
 70
     8
 71
     3
 72
    16
 73
    12
 74
     0
 42
0.00000001
 43
0.00000001
 40
0.0
 40
0.0
 40
0.0
 40
0.0
 40
0.124999999999998
 40
0.124999999999998
 40
0.249999999999996
 40
0.249999999999996
 40
0.4999999999999973
 40
0.4999999999999973
 40
0.7499999999999987
 40
0.7499999999999987
 40
1.0
 40
1.0
 40
1.0
 40
1.0
 10
75.80356838278172
 20
92.56351498108647
 30
0.0
 10
75.89869013744755
 20
92.56351498108647
 30
0.0
 10
75.99202020617562
 20
92.55969914769368
 30
0.0
 10
76.17528196691363
 20
92.54492859496385
 30
0.0
 10
76.26615968247063
 20
92.53377054698828
 30
0.0
 10
76.52296137999038
 20
92.49129927684656
 30
0.0
 10
76.67802874486237
 20
92.45025307964376
 30
0.0
 10
76.93177520641699
 20
92.35510696306187
 30
0.0
 10
77.03264565808485
 20
92.30034422898028
 30
0.0
 10
77.1678920727797
 20
92.18908310507642
 30
0.0
 10
77.20356838278173
 20
92.13191336774773
 30
0.0
 10
77.20356838278173
 20
92.077491794714
 30
0.0
  0
SPLINE
  5
106
330
1F
100
AcDbEntity
  8
0
  6
HIDDEN
 62
     7
370
     0
100
AcDbSpline
210
0.0
220
0.0
230
1.0
 70
     8
 71
     3
 72
     8
 73
     4
 74
     0
 42
0.00000001
 43
0.00000001
 40
0.0
 40
0.0
 40
0.0
 40
0.0
 40
1.0
 40
1.0
 40
1.0
 40
1.0
 10
68.40356838609692
 20
94.70831792716872
 30
0.0
 10
68.40356838609884
 20
93.82442078485178
 30
0.0
 10
68.39008776018905
 20
93.10983753978984
 30
0.0
 10
68.38873639199974
 20
92.56351498108647
 30
0.0
  0
LINE
  5
107
330
1F
100
AcDbEntity
  8
0
  6
HIDDEN
 62
     7
370
     0
100
AcDbLine
 10
68.1035683828
 20
98.7641786247
 30
0.0
 11
68.1035683828
 21
95.7332281929
 31
0.0
  0
SPLINE
  5
108
330
1F
100
AcDbEntity
  8
0
  6
HIDDEN
 62
     7
370
     0
100
AcDbSpline
210
0.0
220
0.0
230
1.0
 70
     8
 71
     3
 72
    10
 73
     6
 74
     0
 42
0.00000001
 43
0.00000001
 40
0.0
 40
0.0
 40
0.0
 40
0.0
 40
0.5
 40
0.5
 40
1.0
 40
1.0
 40
1.0
 40
1.0
 10
68.40356838596944
 20
100.1320190414753
 30
0.0
 10
68.40356838596941
 20
99.89003507386849
 30
0.0
 10
68.37541835689883
 20
99.65569264490348
 30
0.0
 10
68.27182844275642
 20
99.20031762262578
 30
0.0
 10
68.19519973316493
 20
98.97871305951843
 30
0.0
 10
68.10356838278173
 20
98.76417862472049
 30
0.0
  0
LINE
  5
109
330
1F
100
AcDbEntity
  8
0
  6
HIDDEN
 62
     7
370
     0
100
AcDbLine
 10
68.403568386
 20
111.9696390387
 30
0.0
 11
68.403568386
 21
100.1320190414
 31
0.0
  0
SPLINE
  5
10A
330
1F
100
AcDbEntity
  8
0
  6
HIDDEN
 62
     7
370
     0
100
AcDbSpline
210
0.0
220
0.0
230
1.0
 70
     8
 71
     3
 72
     8
 73
     4
 74
     0
 42
0.00000001
 43
0.00000001
 40
0.0
 40
0.0
 40
0.0
 40
0.0
 40
1.0
 40
1.0
 40
1.0
 40
1.0
 10
68.10356838278172
 20
117.9719447381865
 30
0.0
 10
68.28459984934062
 20
117.5398372525238
 30
0.0
 10
68.40356838597515
 20
117.0856918464241
 30
0.0
 10
68.40356838596945
 20
116.5979917927301
 30
0.0
  0
LINE
  5
10B
330
1F
100
AcDbEntity
  8
0
  6
HIDDEN
 62
     7
370
     0
100
AcDbLine
 10
68.1035683828
 20
121.0051477242
 30
0.0
 11
68.1035683828
 21
117.9719447382
 31
0.0
  0
SPLINE
  5
10C
330
1F
100
AcDbEntity
  8
0
  6
HIDDEN
 62
     7
370
     0
100
AcDbSpline
210
0.0
220
0.0
230
1.0
 70
     8
 71
     3
 72
    10
 73
     6
 74
     0
 42
0.00000001
 43
0.00000001
 40
0.0
 40
0.0
 40
0.0
 40
0.0
 40
0.5
 40
0.5
 40
1.0
 40
1.0
 40
1.0
 40
1.0
 10
68.40356838617494
 20
122.021692907038
 30
0.0
 10
68.40356838617315
 20
121.857056560432
 30
0.0
 10
68.37640971541765
 20
121.6899013366014
 30
0.0
 10
68.27064472009926
 20
121.3512783287998
 30
0.0
 10
68.19422993180208
 20
121.1790065515088
 30
0.0
 10
68.10356838278176
 20
121.0051477241648
 30
0.0
  0
SPLINE
  5
10D
330
1F
100
AcDbEntity
  8
0
  6
HIDDEN
 62
     7
370
     0
100
AcDbSpline
210
0.0
220
0.0
230
1.0
 70
     8
 71
     3
 72
    18
 73
    14
 74
     0
 42
0.00000001
 43
0.00000001
 40
0.0
 40
0.0
 40
0.0
 40
0.0
 40
0.2500000000000033
 40
0.2500000000000033
 40
0.3750000000000029
 40
0.3750000000000029
 40
0.5000000000000026
 40
0.5000000000000026
 40
0.6250000000000022
 40
0.6250000000000022
 40
0.7500000000000018
 40
0.7500000000000018
 40
1.0
 40
1.0
 40
1.0
 40
1.0
 10
73.20356838278173
 20
124.6525190395223
 30
0.0
 10
73.20356838278173
 20
124.5980445189701
 30
0.0
 10
73.16865769138955
 20
124.5416634596176
 30
0.0
 10
73.0666483900565
 20
124.4575866187641
 30
0.0
 10
73.0250120353784
 20
124.4302529147732
 30
0.0
 10
72.92660623988964
 20
124.3772989991742
 30
0.0
 10
72.86906302818535
 20
124.351411645457
 30
0.0
 10
72.74176485461241
 20
124.3036341006238
 30
0.0
 10
72.67217754985495
 20
124.2816861824459
 30
0.0
 10
72.52074330469999
 20
124.2422536175332
 30
0.0
 10
72.43805940160604
 20
124.2246973683073
 30
0.0
 10
72.18194793956799
 20
124.1822586028868
 30
0.0
 10
71.99403293568001
 20
124.1664958531498
 30
0.0
 10
71.80356838278172
 20
124.1664958531498
 30
0.0
  0
LINE
  5
10E
330
1F
100
AcDbEntity
  8
0
  6
HIDDEN
 62
     7
370
     0
100
AcDbLine
 10
71.8035683828
 20
124.1664958531
 30
0.0
 11
68.4035683862
 21
124.1664958531
 31
0.0
  0
LINE
  5
10F
330
1F
100
AcDbEntity
  8
0
  6
HIDDEN
 62
     7
370
     0
100
AcDbLine
 10
68.3345993961
 20
92.5635149811
 30
0.0
 11
75.8035683828
 21
92.5635149811
 31
0.0
  0
SPLINE
  5
110
330
1F
100
AcDbEntity
  8
0
  6
HIDDEN
 62
     7
370
     0
100
AcDbSpline
210
0.0
220
0.0
230
1.0
 70
     8
 71
     3
 72
    22
 73
    18
 74
     0
 42
0.00000001
 43
0.00000001
 40
0.0
 40
0.0
 40
0.0
 40
0.0
 40
0.1249999999999998
 40
0.1249999999999998
 40
0.2499999999999995
 40
0.2499999999999995
 40
0.4999999999999992
 40
0.4999999999999992
 40
0.5624999999999993
 40
0.5624999999999993
 40
0.6249999999999994
 40
0.6249999999999994
 40
0.7499999999999996
 40
0.7499999999999996
 40
0.8749999999999998
 40
0.8749999999999998
 40
1.0
 40
1.0
 40
1.0
 40
1.0
 10
68.33459939613965
 20
92.56351498108647
 30
0.0
 10
68.32151700341127
 20
92.81862069123414
 30
0.0
 10
68.30829743997144
 20
93.11177895033805
 30
0.0
 10
68.28585026217732
 20
93.77407941596286
 30
0.0
 10
68.27637179515287
 20
94.14435333657424
 30
0.0
 10
68.25717383421632
 20
95.36691013968804
 30
0.0
 10
68.25828760721319
 20
96.3040490658199
 30
0.0
 10
68.27719840016627
 20
97.62392029533488
 30
0.0
 10
68.28182792802528
 20
97.8954222043112
 30
0.0
 10
68.29230914777123
 20
98.45380703911351
 30
0.0
 10
68.29810440905565
 20
98.7409298950531
 30
0.0
 10
68.31641362996059
 20
99.61351914942479
 30
0.0
 10
68.33044856424095
 20
100.2139748257807
 30
0.0
 10
68.35990573637777
 20
101.4514493182767
 30
0.0
 10
68.37546142735934
 20
102.0884654749202
 30
0.0
 10
68.39925597735623
 20
103.3999540726047
 30
0.0
 10
68.40727502950159
 20
104.0760766842652
 30
0.0
 10
68.40356838278171
 20
104.76037179555
 30
0.0
  0
LINE
  5
111
330
1F
100
AcDbEntity
  8
0
  6
HIDDEN
 62
     7
370
     0
100
AcDbLine
 10
68.4035683862
 20
111.9696390387
 30
0.0
 11
68.4035683862
 21
124.1664958531
 31
0.0
  0
SPLINE
  5
112
330
1F
100
AcDbEntity
  8
0
  6
HIDDEN
 62
     7
370
     0
100
AcDbSpline
210
0.0
220
0.0
230
1.0
 70
     8
 71
     3
 72
    10
 73
     6
 74
     0
 42
0.00000001
 43
0.00000001
 40
0.0
 40
0.0
 40
0.0
 40
0.0
 40
0.5
 40
0.5
 40
1.0
 40
1.0
 40
1.0
 40
1.0
 10
68.40356838278171
 20
104.760371795535
 30
0.0
 10
68.40356838278154
 20
105.0342869436093
 30
0.0
 10
68.37780915291384
 20
105.3052285223394
 30
0.0
 10
68.2746032201807
 20
105.8409196039423
 30
0.0
 10
68.19726505630548
 20
106.1066664074643
 30
0.0
 10
68.10356838278172
 20
106.3683051149018
 30
0.0
  0
SPLINE
  5
113
330
1F
100
AcDbEntity
  8
0
  6
HIDDEN
 62
     7
370
     0
100
AcDbSpline
210
0.0
220
0.0
230
1.0
 70
     8
 71
     3
 72
    10
 73
     6
 74
     0
 42
0.00000001
 43
0.00000001
 40
0.0
 40
0.0
 40
0.0
 40
0.0
 40
0.5
 40
0.5
 40
1.0
 40
1.0
 40
1.0
 40
1.0
 10
68.10356838278172
 20
110.3521337104827
 30
0.0
 10
68.19679896417273
 20
110.6160275185528
 30
0.0
 10
68.27182857640948
 20
110.882207829191
 30
0.0
 10
68.37689567558762
 20
111.4205304041492
 30
0.0
 10
68.40356838617382
 20
111.6932785203948
 30
0.0
 10
68.40356838617501
 20
111.9696390386852
 30
0.0
  0
LINE
  5
114
330
1F
100
AcDbEntity
  8
0
  6
HIDDEN
 62
     7
370
     0
100
AcDbLine
 10
68.1035683828
 20
106.3683051149
 30
0.0
 11
68.1035683828
 21
110.3521337105
 31
0.0
  0
SPLINE
  5
115
330
1F
100
AcDbEntity
  8
0
  6
HIDDEN
 62
     7
370
     0
100
AcDbSpline
210
0.0
220
0.0
230
1.0
 70
     8
 71
     3
 72
    11
 73
     7
 74
     0
 42
0.00000001
 43
0.00000001
 40
0.0
 40
0.0
 40
0.0
 40
0.0
 40
0.0593037185346098
 40
0.4491306992700975
 40
0.8423299489307022
 40
1.0
 40
1.0
 40
1.0
 40
1.0
 10
228.9127949475523
 20
120.6108134113298
 30
0.0
 10
228.9120166706445
 20
120.613658811848
 30
0.0
 10
228.9061224693963
 20
120.6352081641654
 30
0.0
 10
228.9316655915917
 20
120.5438181705272
 30
0.0
 10
228.9684431319982
 20
120.389374035953
 30
0.0
 10
228.9846314193354
 20
120.2518495614796
 30
0.0
 10
228.9892648379845
 20
120.2124872465262
 30
0.0
  0
SPLINE
  5
116
330
1F
100
AcDbEntity
  8
0
  6
HIDDEN
 62
     7
370
     0
100
AcDbSpline
210
0.0
220
0.0
230
1.0
 70
     8
 71
     3
 72
     9
 73
     5
 74
     0
 42
0.00000001
 43
0.00000001
 40
0.0
 40
0.0
 40
0.0
 40
0.0
 40
0.2919798550477973
 40
1.0
 40
1.0
 40
1.0
 40
1.0
 10
228.9190373853417
 20
96.14204137057281
 30
0.0
 10
228.9172899322514
 20
96.13549900365767
 30
0.0
 10
228.9113050909687
 20
96.1130920916669
 30
0.0
 10
228.9111346706359
 20
96.11283741461467
 30
0.0
 10
228.9110140096072
 20
96.11265709813122
 30
0.0
  0
LINE
  5
117
330
1F
100
AcDbEntity
  8
0
  6
HIDDEN
 62
     7
370
     0
100
AcDbLine
 10
68.2535683828
 20
90.3750054171
 30
0.0
 11
68.2535683828
 21
87.4950676517
 31
0.0
  0
LINE
  5
118
330
1F
100
AcDbEntity
  8
0
  6
HIDDEN
 62
     7
370
     0
100
AcDbLine
 10
77.2035683828
 20
90.3750054171
 30
0.0
 11
77.2035683828
 21
86.4012678859
 31
0.0
  0
LINE
  5
119
330
1F
100
AcDbEntity
  8
0
  6
HIDDEN
 62
     7
370
     0
100
AcDbLine
 10
68.2535683828
 20
126.3550054171
 30
0.0
 11
68.2535683828
 21
129.2349431825
 31
0.0
  0
LINE
  5
11A
330
1F
100
AcDbEntity
  8
0
  6
HIDDEN
 62
     7
370
     0
100
AcDbLine
 10
73.2035683828
 20
126.3550054171
 30
0.0
 11
73.2035683828
 21
130.2091130895
 31
0.0
  0
LINE
  5
11B
330
1F
100
AcDbEntity
  8
0
  6
HIDDEN
 62
     7
370
     0
100
AcDbLine
 10
120.8035683828
 20
98.8650054171
 30
0.0
 11
120.8035683828
 21
117.8650054171
 31
0.0
  0
LINE
  5
11C
330
1F
100
AcDbEntity
  8
0
  6
HIDDEN
 62
     7
370
     0
100
AcDbLine
 10
117.8035683828
 20
98.8650054171
 30
0.0
 11
117.8035683828
 21
117.8650054171
 31
0.0
  0
LINE
  5
11D
330
1F
100
AcDbEntity
  8
0
  6
HIDDEN
 62
     7
370
     0
100
AcDbLine
 10
109.4535683828
 20
99.8650054171
 30
0.0
 11
109.4535683828
 21
116.8650054171
 31
0.0
  0
LINE
  5
11E
330
1F
100
AcDbEntity
  8
0
  6
HIDDEN
 62
     7
370
     0
100
AcDbLine
 10
115.1912431851
 20
81.9650054171
 30
0.0
 11
111.9535683828
 21
81.9650054171
 31
0.0
  0
LINE
  5
11F
330
1F
100
AcDbEntity
  8
0
  6
HIDDEN
 62
     7
370
     0
100
AcDbLine
 10
103.9535683828
 20
76.8808824343
 30
0.0
 11
103.9535683828
 21
81.9650054171
 31
0.0
  0
LINE
  5
120
330
1F
100
AcDbEntity
  8
0
  6
HIDDEN
 62
     7
370
     0
100
AcDbLine
 10
111.9535683828
 20
81.9650054171
 30
0.0
 11
103.9535683828
 21
81.9650054171
 31
0.0
  0
LINE
  5
121
330
1F
100
AcDbEntity
  8
0
  6
HIDDEN
 62
     7
370
     0
100
AcDbLine
 10
124.9535683828
 20
81.9650054171
 30
0.0
 11
118.8158935804
 21
81.9650054171
 31
0.0
  0
LINE
  5
122
330
1F
100
AcDbEntity
  8
0
  6
HIDDEN
 62
     7
370
     0
100
AcDbLine
 10
225.5035683828
 20
100.3650054171
 30
0.0
 11
225.5035683828
 21
116.3650054171
 31
0.0
  0
SPLINE
  5
123
330
1F
100
AcDbEntity
  8
0
  6
HIDDEN
 62
     7
370
     0
100
AcDbSpline
210
0.0
220
0.0
230
1.0
 70
     8
 71
     3
 72
    17
 73
    13
 74
     0
 42
0.00000001
 43
0.00000001
 40
0.0
 40
0.0
 40
0.0
 40
0.0
 40
0.1046541973392141
 40
0.2123747458021382
 40
0.3170201632567948
 40
0.4246419815463957
 40
0.5303635483484271
 40
0.6391062491879528
 40
0.7455195256377047
 40
0.855082902635767
 40
0.9603326369106001
 40
1.0
 40
1.0
 40
1.0
 40
1.0
 10
181.5035683827818
 20
116.5283380699016
 30
0.0
 10
181.5859326055216
 20
116.5290659164329
 30
0.0
 10
181.7530743094597
 20
116.5305429352818
 30
0.0
 10
181.9955311419531
 20
116.542095150925
 30
0.0
 10
182.2260826786956
 20
116.5592448946221
 30
0.0
 10
182.4350127406382
 20
116.580529891662
 30
0.0
 10
182.6203441316403
 20
116.6037993863871
 30
0.0
 10
182.7735065730158
 20
116.6261613615804
 30
0.0
 10
182.8930738243292
 20
116.6455658225832
 30
0.0
 10
182.9691359624529
 20
116.658787751576
 30
0.0
 10
183.0047583922419
 20
116.6652195039538
 30
0.0
 10
182.999850544345
 20
116.6643348450383
 30
0.0
 10
182.9985071460293
 20
116.6640926922002
 30
0.0
  0
LINE
  5
124
330
1F
100
AcDbEntity
  8
0
  6
HIDDEN
 62
     7
370
     0
100
AcDbLine
 10
181.5947818632
 20
116.5297118103
 30
0.0
 11
181.4787732157
 21
116.5288913117
 31
0.0
  0
SPLINE
  5
125
330
1F
100
AcDbEntity
  8
0
  6
HIDDEN
 62
     7
370
     0
100
AcDbSpline
210
0.0
220
0.0
230
1.0
 70
     8
 71
     3
 72
    16
 73
    12
 74
     0
 42
0.00000001
 43
0.00000001
 40
0.0
 40
0.0
 40
0.0
 40
0.0
 40
0.0949220059651339
 40
0.202335998418837
 40
0.3065979822133491
 40
0.4138066660735888
 40
0.5194636518291709
 40
0.6281339182912652
 40
0.7345954131155248
 40
0.8442032371576584
 40
1.0
 40
1.0
 40
1.0
 40
1.0
 10
180.0052316730471
 20
116.6647062980737
 30
0.0
 10
180.0077952202953
 20
116.6642394552027
 30
0.0
 10
180.0132596843749
 20
116.6632443317068
 30
0.0
 10
180.0721851270486
 20
116.6527589427288
 30
0.0
 10
180.1692934241215
 20
116.6364064937936
 30
0.0
 10
180.3033695926879
 20
116.6156366329399
 30
0.0
 10
180.4724434379597
 20
116.5925377577019
 30
0.0
 10
180.6702356871978
 20
116.5698286139925
 30
0.0
 10
180.8944252517603
 20
116.5500462828879
 30
0.0
 10
181.1715832900674
 20
116.5326582453338
 30
0.0
 10
181.3807715237727
 20
116.5299360451875
 30
0.0
 10
181.5035683827818
 20
116.5283380699016
 30
0.0
  0
SPLINE
  5
126
330
1F
100
AcDbEntity
  8
0
  6
HIDDEN
 62
     7
370
     0
100
AcDbSpline
210
0.0
220
0.0
230
1.0
 70
     8
 71
     3
 72
    38
 73
    34
 74
     0
 42
0.00000001
 43
0.00000001
 40
0.0
 40
0.0
 40
0.0
 40
0.0
 40
0.0260846842642816
 40
0.052352811839989
 40
0.0791978112896097
 40
0.1062411333090341
 40
0.132325350790743
 40
0.1853661583804838
 40
0.2123818799842193
 40
0.2387254603690906
 40
0.2922942340381158
 40
0.319582694001577
 40
0.3461034267219839
 40
0.3728106816256391
 40
0.4001107671821757
 40
0.4276178611709385
 40
0.4538485545196498
 40
0.5072221216573324
 40
0.5344318489031472
 40
0.5603565896039032
 40
0.6130803564955376
 40
0.6399389707507972
 40
0.6660185957121101
 40
0.7190411070475226
 40
0.7460430716371442
 40
0.7724947906407105
 40
0.8262928625727319
 40
0.8537050699251778
 40
0.880171488891623
 40
0.9340251451737207
 40
0.9614820674997181
 40
0.9875874915050689
 40
1.0
 40
1.0
 40
1.0
 40
1.0
 10
183.0035683827818
 20
100.0650054171181
 30
0.0
 10
183.0025945198016
 20
100.0651817027168
 30
0.0
 10
183.0006399450463
 20
100.0655355136613
 30
0.0
 10
182.9847075178721
 20
100.0684014435553
 30
0.0
 10
182.958942567642
 20
100.0729727517306
 30
0.0
 10
182.9227167441035
 20
100.0792685351809
 30
0.0
 10
182.8616089732044
 20
100.0895910893059
 30
0.0
 10
182.7814248411498
 20
100.1024892721672
 30
0.0
 10
182.6837429607469
 20
100.1169242330918
 30
0.0
 10
182.5746223328543
 20
100.1320406143007
 30
0.0
 10
182.4495572356967
 20
100.1475270877029
 30
0.0
 10
182.3114829198362
 20
100.1620206517565
 30
0.0
 10
182.2021361579949
 20
100.1720865797289
 30
0.0
 10
182.0877934014425
 20
100.1810723451619
 30
0.0
 10
181.9677345575966
 20
100.1887948006581
 30
0.0
 10
181.8448846871767
 20
100.1948509679296
 30
0.0
 10
181.6792709081542
 20
100.2005158684377
 30
0.0
 10
181.5105972782989
 20
100.202439182068
 30
0.0
 10
181.3432504037183
 20
100.2004151069489
 30
0.0
 10
181.1784795287628
 20
100.1959128569697
 30
0.0
 10
181.017945890831
 20
100.1878886119295
 30
0.0
 10
180.864904260421
 20
100.1769843824766
 30
0.0
 10
180.7174111358817
 20
100.1644607148412
 30
0.0
 10
180.5799081844106
 20
100.1500148622341
 30
0.0
 10
180.4555698377123
 20
100.1348381887379
 30
0.0
 10
180.3401412652176
 20
100.1195088928358
 30
0.0
 10
180.2401147448491
 20
100.1046706735472
 30
0.0
 10
180.1585911886999
 20
100.0916784383588
 30
0.0
 10
180.0898860949038
 20
100.0802738857524
 30
0.0
 10
180.0401948996644
 20
100.0715705516828
 30
0.0
 10
180.0139627831404
 20
100.0668825622381
 30
0.0
 10
180.0022296697503
 20
100.0647647398213
 30
0.0
 10
180.0060817726464
 20
100.0654583428705
 30
0.0
 10
180.0073231232801
 20
100.0656818583393
 30
0.0
  0
LINE
  5
127
330
1F
100
AcDbEntity
  8
0
  6
HIDDEN
 62
     7
370
     0
100
AcDbLine
 10
179.5035683828
 20
100.4650054171
 30
0.0
 11
179.5035683828
 21
116.2650052191
 31
0.0
  0
LINE
  5
128
330
1F
100
AcDbEntity
  8
0
  6
HIDDEN
 62
     7
370
     0
100
AcDbLine
 10
190.0035683828
 20
100.3650054171
 30
0.0
 11
190.0035683828
 21
116.3650054171
 31
0.0
  0
LINE
  5
129
330
1F
100
AcDbEntity
  8
0
  6
HIDDEN
 62
     7
370
     0
100
AcDbLine
 10
111.9535683828
 20
134.7650054171
 30
0.0
 11
103.9535683828
 21
134.7650054171
 31
0.0
  0
LINE
  5
12A
330
1F
100
AcDbEntity
  8
0
  6
HIDDEN
 62
     7
370
     0
100
AcDbLine
 10
115.4878659145
 20
134.7650054171
 30
0.0
 11
111.9535683828
 21
134.7650054171
 31
0.0
  0
LINE
  5
12B
330
1F
100
AcDbEntity
  8
0
  6
HIDDEN
 62
     7
370
     0
100
AcDbLine
 10
124.9535683828
 20
134.7650054171
 30
0.0
 11
118.5192708511
 21
134.7650054171
 31
0.0
  0
SPLINE
  5
12C
330
1F
100
AcDbEntity
  8
0
  6
HIDDEN
 62
     7
370
     0
100
AcDbSpline
210
0.0
220
0.0
230
1.0
 70
     8
 71
     3
 72
    11
 73
     7
 74
     0
 42
0.00000001
 43
0.00000001
 40
0.0
 40
0.0
 40
0.0
 40
0.0
 40
0.0008203708524183
 40
0.0008203708524183
 40
0.0008203708524183
 40
0.0016409967870154
 40
0.0016409967870154
 40
0.0016409967870154
 40
0.0016409967870154
 10
68.25356838278172
 20
92.5129726664754
 30
0.0
 10
68.06241008248307
 20
92.47179363785627
 30
0.0
 10
67.87098301241087
 20
92.43303966562627
 30
0.0
 10
67.67933738889023
 20
92.39667190634772
 30
0.0
 10
67.48763198380978
 20
92.3602928025817
 30
0.0
 10
67.29569303175084
 20
92.32629855181413
 30
0.0
 10
67.10356838468005
 20
92.29465042642293
 30
0.0
  0
ELLIPSE
  5
12D
330
1F
100
AcDbEntity
  8
0
  6
HIDDEN
 62
     7
370
     0
100
AcDbEllipse
 10
62.8611365142
 20
108.3650054171
 30
0.0
 11
20.19992453366649
 21
-1.421085471520200E-14
 31
0.0
210
0.0
220
0.0
230
1.0
 40
0.8164965809
 41
1.300566354717996
 42
1.359198697209599
  0
LINE
  5
12E
330
1F
100
AcDbEntity
  8
0
  6
HIDDEN
 62
     7
370
     0
100
AcDbLine
 10
68.2535683828
 20
90.3750054171
 30
0.0
 11
68.2535683828
 21
92.5129726665
 31
0.0
  0
LINE
  5
12F
330
1F
100
AcDbEntity
  8
0
  6
HIDDEN
 62
     7
370
     0
100
AcDbLine
 10
68.3345993961
 20
92.5635149811
 30
0.0
 11
68.2535683828
 21
92.5129726665
 31
0.0
  0
LINE
  5
130
330
1F
100
AcDbEntity
  8
0
  6
HIDDEN
 62
     7
370
     0
100
AcDbLine
 10
77.2035683828
 20
90.3750054171
 30
0.0
 11
77.2035683828
 21
92.0774917947
 31
0.0
  0
LINE
  5
131
330
1F
100
AcDbEntity
  8
0
  6
HIDDEN
 62
     7
370
     0
100
AcDbLine
 10
73.2035683828
 20
126.3550054171
 30
0.0
 11
73.2035683828
 21
124.6525190395
 31
0.0
  0
LINE
  5
132
330
1F
100
AcDbEntity
  8
0
  6
HIDDEN
 62
     7
370
     0
100
AcDbLine
 10
68.2535683828
 20
126.3550054171
 30
0.0
 11
68.2535683828
 21
124.2596298682
 31
0.0
  0
SPLINE
  5
133
330
1F
100
AcDbEntity
  8
0
  6
HIDDEN
 62
     7
370
     0
100
AcDbSpline
210
0.0
220
0.0
230
1.0
 70
     8
 71
     3
 72
     8
 73
     4
 74
     0
 42
0.00000001
 43
0.00000001
 40
0.0
 40
0.0
 40
0.0
 40
0.0
 40
1.0
 40
1.0
 40
1.0
 40
1.0
 10
68.25356838278172
 20
124.2596298681768
 30
0.0
 10
68.30357388172546
 20
124.2285940939576
 30
0.0
 10
68.35357395238987
 20
124.1975494489301
 30
0.0
 10
68.40356838617498
 20
124.1664958531498
 30
0.0
  0
LINE
  5
134
330
1F
100
AcDbEntity
  8
0
  6
HIDDEN
 62
     7
370
     0
100
AcDbLine
 10
149.0035683828
 20
102.8650054171
 30
0.0
 11
149.0035683828
 21
113.8650054171
 31
0.0
  0
LINE
  5
135
330
1F
100
AcDbEntity
  8
0
  6
HIDDEN
 62
     7
370
     0
100
AcDbLine
 10
148.222449578
 20
104.1650054171
 30
0.0
 11
148.222449578
 21
112.5650054171
 31
0.0
  0
SPLINE
  5
136
330
1F
100
AcDbEntity
  8
0
  6
HIDDEN
 62
     7
370
     0
100
AcDbSpline
210
0.0
220
0.0
230
1.0
 70
     8
 71
     3
 72
    20
 73
    16
 74
     0
 42
0.00000001
 43
0.00000001
 40
0.0
 40
0.0
 40
0.0
 40
0.0
 40
0.1119595197684167
 40
0.177476763464755
 40
0.2490961890179855
 40
0.3298422315094334
 40
0.3986125823882006
 40
0.4998893016461228
 40
0.6138510293005642
 40
0.6790150176761717
 40
0.7495394203320147
 40
0.8296829944178317
 40
0.8981246285223357
 40
0.9995320175861916
 40
1.0
 40
1.0
 40
1.0
 40
1.0
 10
93.75240883264459
 20
84.76501165535034
 30
0.0
 10
93.70908509434602
 20
84.77844097338736
 30
0.0
 10
93.64040887216926
 20
84.79972895234333
 30
0.0
 10
93.19522974611898
 20
84.90303976399184
 30
0.0
 10
92.66867146244911
 20
85.01634299405373
 30
0.0
 10
91.98324644131976
 20
85.13927586184636
 30
0.0
 10
91.08992904402088
 20
85.26131032103083
 30
0.0
 10
89.97656965688321
 20
85.37904662881539
 30
0.0
 10
88.86579557624765
 20
85.39102213119098
 30
0.0
 10
87.98104727434233
 20
85.36396384105966
 30
0.0
 10
87.31385067971927
 20
85.31603177665264
 30
0.0
 10
86.77257817750089
 20
85.2597382642894
 30
0.0
 10
86.3849982184157
 20
85.21465535365131
 30
0.0
 10
86.19106169834014
 20
85.17578217894913
 30
0.0
 10
86.25416415857006
 20
85.18648823618932
 30
0.0
 10
86.25445403080539
 20
85.18653741634382
 30
0.0
  0
LINE
  5
137
330
1F
100
AcDbEntity
  8
0
  6
HIDDEN
 62
     7
370
     0
100
AcDbLine
 10
87.1635802956
 20
85.2973435606
 30
0.0
 11
87.3474256083
 21
85.3155329031
 31
0.0
  0
LINE
  5
138
330
1F
100
AcDbEntity
  8
0
  6
HIDDEN
 62
     7
370
     0
100
AcDbLine
 10
87.3474229098
 20
131.4144084999
 30
0.0
 11
87.1733496294
 21
131.4316180259
 31
0.0
  0
SPLINE
  5
139
330
1F
100
AcDbEntity
  8
0
  6
HIDDEN
 62
     7
370
     0
100
AcDbSpline
210
0.0
220
0.0
230
1.0
 70
     8
 71
     3
 72
    20
 73
    16
 74
     0
 42
0.00000001
 43
0.00000001
 40
0.0
 40
0.0
 40
0.0
 40
0.0
 40
0.0004889684280515
 40
0.1018319933920969
 40
0.1702475582146014
 40
0.2503692056770022
 40
0.3209568221778694
 40
0.3861816196697952
 40
0.5002554836816518
 40
0.6012243489253606
 40
0.6697680558604869
 40
0.7502401907580438
 40
0.8220490693851532
 40
0.8877204546109767
 40
1.0
 40
1.0
 40
1.0
 40
1.0
 10
86.25448741556683
 20
131.5434068713106
 30
0.0
 10
86.25418377456992
 20
131.5434584584608
 30
0.0
 10
86.1909478554076
 20
131.5542019380734
 30
0.0
 10
86.3841518891969
 20
131.5153459474108
 30
0.0
 10
86.77109894410425
 20
131.4703224570083
 30
0.0
 10
87.31210586742728
 20
131.4140594949184
 30
0.0
 10
87.97960612888511
 20
131.3661283023276
 30
0.0
 10
88.86543398023534
 20
131.3390548466008
 30
0.0
 10
89.97624055231167
 20
131.3508808501719
 30
0.0
 10
91.08831091832938
 20
131.4683299253233
 30
0.0
 10
91.97941122453301
 20
131.5900343135641
 30
0.0
 10
92.66489567537081
 20
131.7128553591432
 30
0.0
 10
93.1928835749237
 20
131.8262936108298
 30
0.0
 10
93.64026752640761
 20
131.9300341664705
 30
0.0
 10
93.70907799275861
 20
131.9514569597441
 30
0.0
 10
93.75249450006882
 20
131.9649738403887
 30
0.0
  0
LINE
  5
13A
330
1F
100
AcDbEntity
  8
0
  6
HIDDEN
 62
     7
370
     0
100
AcDbLine
 10
160.9535683828
 20
124.7876551479
 30
0.0
 11
163.4535683828
 21
124.7876551479
 31
0.0
  0
LINE
  5
13B
330
1F
100
AcDbEntity
  8
0
  6
HIDDEN
 62
     7
370
     0
100
AcDbLine
 10
158.4535683828
 20
124.7876551479
 30
0.0
 11
160.9535683828
 21
124.7876551479
 31
0.0
  0
LINE
  5
13C
330
1F
100
AcDbEntity
  8
0
  6
HIDDEN
 62
     7
370
     0
100
AcDbLine
 10
163.4535683828
 20
91.9423556863
 30
0.0
 11
158.4535683828
 21
91.9423556863
 31
0.0
  0
LINE
  5
13D
330
1F
100
AcDbEntity
  8
0
  6
HIDDEN
 62
     7
370
     0
100
AcDbLine
 10
160.9535683828
 20
117.3650054171
 30
0.0
 11
163.4535683828
 21
117.3650054171
 31
0.0
  0
LINE
  5
13E
330
1F
100
AcDbEntity
  8
0
  6
HIDDEN
 62
     7
370
     0
100
AcDbLine
 10
158.4535683828
 20
117.3650054171
 30
0.0
 11
160.9535683828
 21
117.3650054171
 31
0.0
  0
LINE
  5
13F
330
1F
100
AcDbEntity
  8
0
  6
HIDDEN
 62
     7
370
     0
100
AcDbLine
 10
163.4535683828
 20
99.3650054171
 30
0.0
 11
158.4535683828
 21
99.3650054171
 31
0.0
  0
SPLINE
  5
140
330
1F
100
AcDbEntity
  8
0
  6
HIDDEN
 62
     7
370
     0
100
AcDbSpline
210
0.0
220
0.0
230
1.0
 70
     8
 71
     3
 72
    20
 73
    16
 74
     0
 42
0.00000001
 43
0.00000001
 40
0.0
 40
0.0
 40
0.0
 40
0.0
 40
0.083770007490014
 40
0.1671642956623907
 40
0.2832392399699959
 40
0.3419682516181188
 40
0.4021695966617117
 40
0.4682656389883241
 40
0.5350318016472196
 40
0.5920958805130555
 40
0.6924889590539879
 40
0.7990475557046378
 40
0.8954755043762797
 40
0.9925551802366408
 40
1.0
 40
1.0
 40
1.0
 40
1.0
 10
183.0035683827818
 20
119.9213858912172
 30
0.0
 10
182.995322604845
 20
119.9315458635372
 30
0.0
 10
182.978868032352
 20
119.9518202393875
 30
0.0
 10
182.8477209010105
 20
120.1175753843913
 30
0.0
 10
182.6841950941166
 20
120.3370700189912
 30
0.0
 10
182.5298685264492
 20
120.579390952256
 30
0.0
 10
182.4178248073745
 20
120.7929392054384
 30
0.0
 10
182.3319511029582
 20
121.0451974181822
 30
0.0
 10
182.3274926968778
 20
121.3176073529726
 30
0.0
 10
182.4185309606984
 20
121.6146938949743
 30
0.0
 10
182.5938291347591
 20
121.909694161984
 30
0.0
 10
182.8012158584866
 20
122.1826439021162
 30
0.0
 10
182.9503711221223
 20
122.3618226718998
 30
0.0
 10
183.016115116765
 20
122.4379576104604
 30
0.0
 10
183.0013974732033
 20
122.4207813960403
 30
0.0
 10
183.0003492002315
 20
122.4195580098875
 30
0.0
  0
SPLINE
  5
141
330
1F
100
AcDbEntity
  8
0
  6
HIDDEN
 62
     7
370
     0
100
AcDbSpline
210
0.0
220
0.0
230
1.0
 70
     8
 71
     3
 72
     9
 73
     5
 74
     0
 42
0.00000001
 43
0.00000001
 40
0.0
 40
0.0
 40
0.0
 40
0.0
 40
0.727743454378498
 40
1.0
 40
1.0
 40
1.0
 40
1.0
 10
180.0131609731732
 20
122.4083311088817
 30
0.0
 10
180.0164538358205
 20
122.4079553365796
 30
0.0
 10
180.0209785933122
 20
122.4074389838734
 30
0.0
 10
180.0724500006149
 20
122.4307225235573
 30
0.0
 10
180.0864634281655
 20
122.4370616196415
 30
0.0
  0
SPLINE
  5
142
330
1F
100
AcDbEntity
  8
0
  6
HIDDEN
 62
     7
370
     0
100
AcDbSpline
210
0.0
220
0.0
230
1.0
 70
     8
 71
     3
 72
    18
 73
    14
 74
     0
 42
0.00000001
 43
0.00000001
 40
0.0
 40
0.0
 40
0.0
 40
0.0
 40
0.0515453819248051
 40
0.1416915078118448
 40
0.2391516983526074
 40
0.3558391244879789
 40
0.4675642173198479
 40
0.5384545751043643
 40
0.6098185345908871
 40
0.6961678669737784
 40
0.8353916622310731
 40
0.9794688505619887
 40
1.0
 40
1.0
 40
1.0
 40
1.0
 10
180.0138649576925
 20
120.0512363654123
 30
0.0
 10
180.0121816244766
 20
120.049270920381
 30
0.0
 10
180.0075543618082
 20
120.0438681692596
 30
0.0
 10
180.0851255245061
 20
120.1343927588942
 30
0.0
 10
180.2282634787042
 20
120.3083591786547
 30
0.0
 10
180.4233264490829
 20
120.568283511112
 30
0.0
 10
180.5965350607161
 20
120.8635990610665
 30
0.0
 10
180.6824740699031
 20
121.1621932297941
 30
0.0
 10
180.670060771883
 20
121.4484484195372
 30
0.0
 10
180.54378661634
 20
121.784141738999
 30
0.0
 10
180.323367054745
 20
122.1279461889987
 30
0.0
 10
180.1573892139275
 20
122.3465182410696
 30
0.0
 10
180.0943287837871
 20
122.4270207598329
 30
0.0
 10
180.0864634281655
 20
122.4370616196415
 30
0.0
  0
LINE
  5
143
330
1F
100
AcDbEntity
  8
0
  6
HIDDEN
 62
     7
370
     0
100
AcDbLine
 10
183.0035683828
 20
123.3650054171
 30
0.0
 11
180.0035683828
 21
123.3650054171
 31
0.0
  0
LWPOLYLINE
  5
144
330
1F
100
AcDbEntity
  8
0
  6
HIDDEN
 62
     7
370
     0
100
AcDbPolyline
 90
       27
 70
   128
 43
0.0
 10
183.0021261063
 20
94.3083728105
 10
182.9971100614
 20
94.3142056561
 10
182.9711513183
 20
94.3445439234
 10
182.9301984547
 20
94.3929456359
 10
182.8744468581
 20
94.460045488
 10
182.7820600406
 20
94.575046284
 10
182.6740093993
 20
94.7179801764
 10
182.5624949392
 20
94.8811682082
 10
182.4542562717
 20
95.0706304594
 10
182.399525381
 20
95.1941970426
 10
182.3572329141
 20
95.3290251621
 10
182.3371555956
 20
95.4455758722
 10
182.333531031
 20
95.5679415245
 10
182.3468980712
 20
95.6859428028
 10
182.375503995
 20
95.80295424
 10
182.4420708211
 20
95.9755823837
 10
182.5262184649
 20
96.1379598897
 10
182.5881904211
 20
96.2410971328
 10
182.6515516393
 20
96.3383979419
 10
182.7154567388
 20
96.4308626287
 10
182.7773505024
 20
96.5164832213
 10
182.8593614053
 20
96.6255173074
 10
182.9289681539
 20
96.7150482213
 10
182.9705208441
 20
96.7674401735
 10
182.9964787112
 20
96.7998233051
 10
183.0035683828
 20
96.808624943
 10
183.0035683828
 20
96.808624943
  0
LINE
  5
145
330
1F
100
AcDbEntity
  8
0
  6
HIDDEN
 62
     7
370
     0
100
AcDbLine
 10
181.5035683828
 20
93.8650054171
 30
0.0
 11
183.0035683828
 21
93.8650054171
 31
0.0
  0
LINE
  5
146
330
1F
100
AcDbEntity
  8
0
  6
HIDDEN
 62
     7
370
     0
100
AcDbLine
 10
180.0035683828
 20
93.8650054171
 30
0.0
 11
181.5035683828
 21
93.8650054171
 31
0.0
  0
SPLINE
  5
147
330
1F
100
AcDbEntity
  8
0
  6
HIDDEN
 62
     7
370
     0
100
AcDbSpline
210
0.0
220
0.0
230
1.0
 70
     8
 71
     3
 72
    10
 73
     6
 74
     0
 42
0.00000001
 43
0.00000001
 40
0.0
 40
0.0
 40
0.0
 40
0.0
 40
0.4156311632969583
 40
0.8422636458333302
 40
1.0
 40
1.0
 40
1.0
 40
1.0
 10
180.0864634281655
 20
94.29294921459477
 30
0.0
 10
180.0667897747785
 20
94.30170709450175
 30
0.0
 10
180.0269217271153
 20
94.31945466617495
 30
0.0
 10
180.0027159108571
 20
94.32487520592663
 30
0.0
 10
180.0063113684683
 20
94.3239603206331
 30
0.0
 10
180.0072818760305
 20
94.32371336928728
 30
0.0
  0
SPLINE
  5
148
330
1F
100
AcDbEntity
  8
0
  6
HIDDEN
 62
     7
370
     0
100
AcDbSpline
210
0.0
220
0.0
230
1.0
 70
     8
 71
     3
 72
    26
 73
    22
 74
     0
 42
0.00000001
 43
0.00000001
 40
0.0
 40
0.0
 40
0.0
 40
0.0
 40
0.0625289022711767
 40
0.1271626702610192
 40
0.1895680344144804
 40
0.2532629405695766
 40
0.3027655552124205
 40
0.3532126134743139
 40
0.3878222223115428
 40
0.4232935305827306
 40
0.4579642142702698
 40
0.4938252756087304
 40
0.5377351921180077
 40
0.5828531043869709
 40
0.6504853717853657
 40
0.7200169520450682
 40
0.7886787821174245
 40
0.8598441819874312
 40
0.9070515079454934
 40
0.9555504940005453
 40
1.0
 40
1.0
 40
1.0
 40
1.0
 10
180.0864634281655
 20
94.29294921459474
 30
0.0
 10
180.1120039358756
 20
94.32567646353654
 30
0.0
 10
180.163944703141
 20
94.39223263539586
 30
0.0
 10
180.2644331575772
 20
94.52690075158942
 30
0.0
 10
180.3725555090146
 20
94.68163161039985
 30
0.0
 10
180.4737593865079
 20
94.8424607239322
 30
0.0
 10
180.5613031371477
 20
95.00705909808549
 30
0.0
 10
180.6220709899928
 20
95.15438743163293
 30
0.0
 10
180.6600716212868
 20
95.29526076545916
 30
0.0
 10
180.6766470967239
 20
95.42285207280766
 30
0.0
 10
180.673187836324
 20
95.5535181655241
 30
0.0
 10
180.6478822085123
 20
95.69124610798187
 30
0.0
 10
180.5991227434406
 20
95.83307623338104
 30
0.0
 10
180.5197600179979
 20
95.99690612989188
 30
0.0
 10
180.4136427235737
 20
96.16843167119143
 30
0.0
 10
180.2917953248744
 20
96.337734958983
 30
0.0
 10
180.1773260737379
 20
96.48364018591673
 30
0.0
 10
180.0926253052592
 20
96.58608906372157
 30
0.0
 10
180.0385923430723
 20
96.64994284433403
 30
0.0
 10
180.0087844825048
 20
96.68470348681586
 30
0.0
 10
180.0056341381014
 20
96.68835701694564
 30
0.0
 10
180.0041275913102
 20
96.69010419547253
 30
0.0
  0
LINE
  5
149
330
1F
100
AcDbEntity
  8
0
  6
HIDDEN
 62
     7
370
     0
100
AcDbLine
 10
179.9922708373
 20
120.039700094
 30
0.0
 11
180.0864634282
 21
122.4370616196
 31
0.0
  0
LINE
  5
14A
330
1F
100
AcDbEntity
  8
0
  6
HIDDEN
 62
     7
370
     0
100
AcDbLine
 10
179.9922708373
 20
96.6903107402
 30
0.0
 11
180.0864634282
 21
94.2929492146
 31
0.0
  0
SPLINE
  5
14B
330
1F
100
AcDbEntity
  8
0
  6
HIDDEN
 62
     7
370
     0
100
AcDbSpline
210
0.0
220
0.0
230
1.0
 70
     8
 71
     3
 72
     8
 73
     4
 74
     0
 42
0.00000001
 43
0.00000001
 40
0.0
 40
0.0
 40
0.0
 40
0.0
 40
0.000159097695343
 40
0.000159097695343
 40
0.000159097695343
 40
0.000159097695343
 10
68.38873639199974
 20
92.56351498108647
 30
0.0
 10
68.3436849214954
 20
92.5355360967627
 30
0.0
 10
68.2986288830806
 20
92.50756456638761
 30
0.0
 10
68.25356838278172
 20
92.4796002270351
 30
0.0
  0
SPLINE
  5
14C
330
1F
100
AcDbEntity
  8
0
  6
HIDDEN
 62
     7
370
     0
100
AcDbSpline
210
0.0
220
0.0
230
1.0
 70
     8
 71
     3
 72
    11
 73
     7
 74
     0
 42
0.00000001
 43
0.00000001
 40
0.0
 40
0.0
 40
0.0
 40
0.0
 40
0.0008212909311457
 40
0.0008212909311457
 40
0.0008212909311457
 40
0.001642825724306
 40
0.001642825724306
 40
0.001642825724306
 40
0.001642825724306
 10
68.25356838278172
 20
92.4796002270351
 30
0.0
 10
68.06242336129952
 20
92.43631403818256
 30
0.0
 10
67.87100502562306
 20
92.39537752854528
 30
0.0
 10
67.67935895096191
 20
92.35677575715869
 30
0.0
 10
67.48765586942031
 20
92.31816250332159
 30
0.0
 10
67.2957107461348
 20
92.28188229403558
 30
0.0
 10
67.10356838278162
 20
92.24791538768407
 30
0.0
  0
LINE
  5
14D
330
1F
100
AcDbEntity
  8
0
  6
HIDDEN
 62
     7
370
     0
100
AcDbLine
 10
115.0935683828
 20
128.5008720486
 30
0.0
 11
115.0935683828
 21
128.2150054171
 31
0.0
  0
LINE
  5
14E
330
1F
100
AcDbEntity
  8
0
  6
HIDDEN
 62
     7
370
     0
100
AcDbLine
 10
118.9135683828
 20
128.5090800851
 30
0.0
 11
118.9135683828
 21
128.2150054171
 31
0.0
  0
LINE
  5
14F
330
1F
100
AcDbEntity
  8
0
  6
HIDDEN
 62
     7
370
     0
100
AcDbLine
 10
120.3955012143
 20
132.8236950795
 30
0.0
 11
120.3955012143
 21
128.2150054171
 31
0.0
  0
SPLINE
  5
150
330
1F
100
AcDbEntity
  8
0
  6
HIDDEN
 62
     7
370
     0
100
AcDbSpline
210
0.0
220
0.0
230
1.0
 70
     8
 71
     3
 72
    24
 73
    20
 74
     0
 42
0.00000001
 43
0.00000001
 40
0.0
 40
0.0
 40
0.0
 40
0.0
 40
0.2499999999999937
 40
0.2499999999999937
 40
0.3749999999999912
 40
0.3749999999999912
 40
0.4374999999999901
 40
0.4374999999999901
 40
0.4687499999999891
 40
0.4687499999999891
 40
0.4999999999999881
 40
0.4999999999999881
 40
0.5624999999999888
 40
0.5624999999999888
 40
0.6249999999999893
 40
0.6249999999999893
 40
0.749999999999992
 40
0.749999999999992
 40
1.0
 40
1.0
 40
1.0
 40
1.0
 10
67.16623175750513
 20
88.69045287233739
 30
0.0
 10
67.17998487617535
 20
88.76110293032765
 30
0.0
 10
67.19775744358122
 20
88.82770104309259
 30
0.0
 10
67.25000853513657
 20
88.9017990633258
 30
0.0
 10
67.27104361071814
 20
88.92305687048734
 30
0.0
 10
67.32394401834657
 20
88.93120279663358
 30
0.0
 10
67.34504969122449
 20
88.9302629932378
 30
0.0
 10
67.39110185990245
 20
88.90924700166048
 30
0.0
 10
67.40947233188582
 20
88.89833819555287
 30
0.0
 10
67.45102396695152
 20
88.8657032846055
 30
0.0
 10
67.47359063970845
 20
88.84421130423414
 30
0.0
 10
67.5363716561685
 20
88.77574536064783
 30
0.0
 10
67.56950141713634
 20
88.72967090244275
 30
0.0
 10
67.62641910362137
 20
88.64466301410806
 30
0.0
 10
67.65060512912515
 20
88.60438271292668
 30
0.0
 10
67.7158130795049
 20
88.48944648646074
 30
0.0
 10
67.75052913969616
 20
88.41886350131372
 30
0.0
 10
67.84374441002704
 20
88.2146577422351
 30
0.0
 10
67.88941694538772
 20
88.09175935990775
 30
0.0
 10
67.92772202888627
 20
87.97488608352018
 30
0.0
  0
SPLINE
  5
151
330
1F
100
AcDbEntity
  8
0
  6
HIDDEN
 62
     7
370
     0
100
AcDbSpline
210
0.0
220
0.0
230
1.0
 70
     8
 71
     3
 72
    11
 73
     7
 74
     0
 42
0.00000001
 43
0.00000001
 40
0.0
 40
0.0
 40
0.0
 40
0.0
 40
0.0005781862223978
 40
0.0005781862223978
 40
0.0005781862223978
 40
0.0011563724723928
 40
0.0011563724723928
 40
0.0011563724723928
 40
0.0011563724723928
 10
68.10356838278173
 20
121.0051477241649
 30
0.0
 10
67.93690782850612
 20
121.0696772355785
 30
0.0
 10
67.77024453159963
 20
121.1341799394222
 30
0.0
 10
67.60357794776941
 20
121.1986663878559
 30
0.0
 10
67.4369113555103
 20
121.2631528395509
 30
0.0
 10
67.27024148988441
 20
121.327622848279
 30
0.0
 10
67.10356838278167
 20
121.3920786150116
 30
0.0
  0
SPLINE
  5
152
330
1F
100
AcDbEntity
  8
0
  6
HIDDEN
 62
     7
370
     0
100
AcDbSpline
210
0.0
220
0.0
230
1.0
 70
     8
 71
     3
 72
    11
 73
     7
 74
     0
 42
0.00000001
 43
0.00000001
 40
0.0
 40
0.0
 40
0.0
 40
0.0
 40
0.0005778746105108
 40
0.0005778746105108
 40
0.0005778746105108
 40
0.0011557494857226
 40
0.0011557494857226
 40
0.0011557494857226
 40
0.0011557494857226
 10
67.1035683827817
 20
95.33778356162823
 30
0.0
 10
67.27023525919503
 20
95.4035956883221
 30
0.0
 10
67.43690197875648
 20
95.46945416845972
 30
0.0
 10
67.60356862680514
 20
95.53536174139035
 30
0.0
 10
67.7702353513238
 20
95.6012693445607
 30
0.0
 10
67.93690204574439
 20
95.66722645294917
 30
0.0
 10
68.10356838278173
 20
95.7332281928719
 30
0.0
  0
SPLINE
  5
153
330
1F
100
AcDbEntity
  8
0
  6
HIDDEN
 62
     7
370
     0
100
AcDbSpline
210
0.0
220
0.0
230
1.0
 70
     8
 71
     3
 72
    11
 73
     7
 74
     0
 42
0.00000001
 43
0.00000001
 40
0.0000000000000006
 40
0.0000000000000006
 40
0.0000000000000006
 40
0.0000000000000006
 40
0.0005780486062768
 40
0.0005780486062768
 40
0.0005780486062768
 40
0.0011560973514127
 40
0.0011560973514127
 40
0.0011560973514127
 40
0.0011560973514127
 10
67.1035683827817
 20
118.3458199188099
 30
0.0
 10
67.27023823882661
 20
118.2834480572953
 30
0.0
 10
67.43690594291088
 20
118.2210941969977
 30
0.0
 10
67.60357224736453
 20
118.1587746368116
 30
0.0
 10
67.77023858805826
 20
118.0964550630747
 30
0.0
 10
67.93690354468704
 20
118.0341698587551
 30
0.0
 10
68.10356838278172
 20
117.9719447381865
 30
0.0
  0
SPLINE
  5
154
330
1F
100
AcDbEntity
  8
0
  6
HIDDEN
 62
     7
370
     0
100
AcDbSpline
210
0.0
220
0.0
230
1.0
 70
     8
 71
     3
 72
    11
 73
     7
 74
     0
 42
0.00000001
 43
0.00000001
 40
0.0
 40
0.0
 40
0.0
 40
0.0
 40
0.0005782401583533
 40
0.0005782401583533
 40
0.0005782401583533
 40
0.0011564805960992
 40
0.0011564805960992
 40
0.0011564805960992
 40
0.0011564805960992
 10
68.10356838278173
 20
98.76417862472047
 30
0.0
 10
67.93691743243281
 20
98.7007531666597
 30
0.0
 10
67.77025783985016
 20
98.63739764300442
 30
0.0
 10
67.60359078742161
 20
98.57410005865444
 30
0.0
 10
67.43692365085779
 20
98.51080244235118
 30
0.0
 10
67.27024904341172
 20
98.44756264741046
 30
0.0
 10
67.10356838278166
 20
98.38436264077163
 30
0.0
  0
CIRCLE
  5
155
330
1F
100
AcDbEntity
  8
0
  6
HIDDEN
 62
     7
370
     0
100
AcDbCircle
 10
106.0035683828
 20
108.3650054171
 30
0.0
 40
5.0
  0
LINE
  5
156
330
1F
100
AcDbEntity
  8
0
  6
HIDDEN
 62
     7
370
     0
100
AcDbLine
 10
228.8123016255
 20
98.8586478637
 30
0.0
 11
228.9179806176
 21
96.1689379052
 31
0.0
  0
LINE
  5
157
330
1F
100
AcDbEntity
  8
0
  6
HIDDEN
 62
     7
370
     0
100
AcDbLine
 10
223.4783638216
 20
98.6490768766
 30
0.0
 11
223.5961432689
 21
95.6513897679
 31
0.0
  0
LINE
  5
158
330
1F
100
AcDbEntity
  8
0
  6
HIDDEN
 62
     7
370
     0
100
AcDbLine
 10
222.9983792114
 20
98.1298324506
 30
0.0
 11
223.0768988429
 21
96.1313743781
 31
0.0
  0
LINE
  5
159
330
1F
100
AcDbEntity
  8
0
  6
HIDDEN
 62
     7
370
     0
100
AcDbLine
 10
228.9851358993
 20
98.5847221186
 30
0.0
 11
229.0035683828
 21
98.1155840861
 31
0.0
  0
LINE
  5
15A
330
1F
100
AcDbEntity
  8
0
  6
HIDDEN
 62
     7
370
     0
100
AcDbLine
 10
227.0345551721
 20
97.2876426774
 30
0.0
 11
227.0051103103
 21
98.0370644546
 31
0.0
  0
LINE
  5
15B
330
1F
100
AcDbEntity
  8
0
  6
HIDDEN
 62
     7
370
     0
100
AcDbLine
 10
227.0640000339
 20
96.5382209002
 30
0.0
 11
227.0345551721
 21
97.2876426774
 31
0.0
  0
LINE
  5
15C
330
1F
100
AcDbEntity
  8
0
  6
HIDDEN
 62
     7
370
     0
100
AcDbLine
 10
227.0345551721
 20
97.2876426774
 30
0.0
 11
229.0330132446
 21
97.3661623089
 31
0.0
  0
LINE
  5
15D
330
1F
100
AcDbEntity
  8
0
  6
HIDDEN
 62
     7
370
     0
100
AcDbLine
 10
227.0640000339
 20
96.5382209002
 30
0.0
 11
229.0624581064
 21
96.6167405317
 31
0.0
  0
LINE
  5
15E
330
1F
100
AcDbEntity
  8
0
  6
HIDDEN
 62
     7
370
     0
100
AcDbLine
 10
227.0051103103
 20
98.0370644546
 30
0.0
 11
229.0035683828
 21
98.1155840861
 31
0.0
  0
LINE
  5
15F
330
1F
100
AcDbEntity
  8
0
  6
HIDDEN
 62
     7
370
     0
100
AcDbLine
 10
228.8656270341
 20
120.7297425879
 30
0.0
 11
228.7534119019
 21
117.8736767541
 31
0.0
  0
LINE
  5
160
330
1F
100
AcDbEntity
  8
0
  6
HIDDEN
 62
     7
370
     0
100
AcDbLine
 10
223.5293638183
 20
120.8801278899
 30
0.0
 11
223.419474098
 21
118.0832477412
 31
0.0
  0
LINE
  5
161
330
1F
100
AcDbEntity
  8
0
  6
HIDDEN
 62
     7
370
     0
100
AcDbLine
 10
223.5372535453
 20
121.0809348499
 30
0.0
 11
223.5293638183
 21
120.8801278899
 31
0.0
  0
LINE
  5
162
330
1F
100
AcDbEntity
  8
0
  6
HIDDEN
 62
     7
370
     0
100
AcDbLine
 10
229.0015330072
 20
120.0637803187
 30
0.0
 11
228.9262461756
 21
118.1476024992
 31
0.0
  0
LINE
  5
163
330
1F
100
AcDbEntity
  8
0
  6
HIDDEN
 62
     7
370
     0
100
AcDbLine
 10
223.0127493013
 20
120.467078933
 30
0.0
 11
222.9394894878
 21
118.6024921672
 31
0.0
  0
LINE
  5
164
330
1F
100
AcDbEntity
  8
0
  6
HIDDEN
 62
     7
370
     0
100
AcDbLine
 10
223.0180091193
 20
120.6009502397
 30
0.0
 11
223.0127493013
 21
120.467078933
 31
0.0
  0
LINE
  5
165
330
1F
100
AcDbEntity
  8
0
  6
HIDDEN
 62
     7
370
     0
100
AcDbLine
 10
226.9756654485
 20
119.4446819404
 30
0.0
 11
227.0051103103
 21
120.1941037176
 31
0.0
  0
LINE
  5
166
330
1F
100
AcDbEntity
  8
0
  6
HIDDEN
 62
     7
370
     0
100
AcDbLine
 10
226.9756654485
 20
119.4446819404
 30
0.0
 11
226.9462205867
 21
118.6952601632
 31
0.0
  0
LINE
  5
167
330
1F
100
AcDbEntity
  8
0
  6
HIDDEN
 62
     7
370
     0
100
AcDbLine
 10
226.9756654485
 20
119.4446819404
 30
0.0
 11
228.974123521
 21
119.3661623089
 31
0.0
  0
LINE
  5
168
330
1F
100
AcDbEntity
  8
0
  6
HIDDEN
 62
     7
370
     0
100
AcDbLine
 10
226.9462205867
 20
118.6952601632
 30
0.0
 11
228.9446786591
 21
118.6167405317
 31
0.0
  0
LINE
  5
169
330
1F
100
AcDbEntity
  8
0
  6
HIDDEN
 62
     7
370
     0
100
AcDbLine
 10
227.0051103103
 20
120.1941037176
 30
0.0
 11
229.0035683828
 21
120.1155840861
 31
0.0
  0
LINE
  5
16A
330
1F
100
AcDbEntity
  8
0
  6
HIDDEN
 62
     7
370
     0
100
AcDbLine
 10
164.0035683828
 20
102.3650054171
 30
0.0
 11
179.0035683828
 21
102.3650054171
 31
0.0
  0
LINE
  5
16B
330
1F
100
AcDbEntity
  8
0
  6
HIDDEN
 62
     7
370
     0
100
AcDbLine
 10
179.0035683828
 20
114.3650054171
 30
0.0
 11
164.0035683828
 21
114.3650054171
 31
0.0
  0
LINE
  5
16C
330
1F
100
AcDbEntity
  8
0
  6
HIDDEN
 62
     7
370
     0
100
AcDbLine
 10
179.0035683828
 20
102.3650054171
 30
0.0
 11
179.5035683828
 21
102.8650054171
 31
0.0
  0
LINE
  5
16D
330
1F
100
AcDbEntity
  8
0
  6
HIDDEN
 62
     7
370
     0
100
AcDbLine
 10
179.5035683828
 20
113.8650054171
 30
0.0
 11
179.0035683828
 21
114.3650054171
 31
0.0
  0
LINE
  5
16E
330
1F
100
AcDbEntity
  8
0
  6
HIDDEN
 62
     7
370
     0
100
AcDbLine
 10
164.0035683828
 20
114.3650054171
 30
0.0
 11
163.5035683828
 21
113.8650054171
 31
0.0
  0
LINE
  5
16F
330
1F
100
AcDbEntity
  8
0
  6
HIDDEN
 62
     7
370
     0
100
AcDbLine
 10
163.5035683828
 20
102.8650054171
 30
0.0
 11
164.0035683828
 21
102.3650054171
 31
0.0
  0
LINE
  5
170
330
1F
100
AcDbEntity
  8
0
  6
HIDDEN
 62
     7
370
     0
100
AcDbLine
 10
179.5035683828
 20
102.8650054171
 30
0.0
 11
183.5035683828
 21
102.8650054171
 31
0.0
  0
LINE
  5
171
330
1F
100
AcDbEntity
  8
0
  6
HIDDEN
 62
     7
370
     0
100
AcDbLine
 10
183.5035683828
 20
113.8650054171
 30
0.0
 11
179.5035683828
 21
113.8650054171
 31
0.0
  0
LINE
  5
172
330
1F
100
AcDbEntity
  8
0
  6
HIDDEN
 62
     7
370
     0
100
AcDbLine
 10
170.5035683827
 20
105.3650054171
 30
0.0
 11
176.5035683828
 21
105.3650054171
 31
0.0
  0
LINE
  5
173
330
1F
100
AcDbEntity
  8
0
  6
HIDDEN
 62
     7
370
     0
100
AcDbLine
 10
176.5035683828
 20
111.3650054171
 30
0.0
 11
170.5035683827
 21
111.3650054171
 31
0.0
  0
LINE
  5
174
330
1F
100
AcDbEntity
  8
0
  6
HIDDEN
 62
     7
370
     0
100
AcDbLine
 10
103.0035683828
 20
122.6656359228
 30
0.0
 11
103.0035683828
 21
120.75894606
 31
0.0
  0
LINE
  5
175
330
1F
100
AcDbEntity
  8
0
  6
HIDDEN
 62
     7
370
     0
100
AcDbLine
 10
111.0035683828
 20
120.75894606
 30
0.0
 11
111.0035683828
 21
122.6628405669
 31
0.0
  0
LINE
  5
176
330
1F
100
AcDbEntity
  8
0
  6
HIDDEN
 62
     7
370
     0
100
AcDbLine
 10
99.0035683828
 20
83.0410742711
 30
0.0
 11
99.0977291583
 21
83.7110630024
 31
0.0
  0
LINE
  5
177
330
1F
100
AcDbEntity
  8
0
  6
HIDDEN
 62
     7
370
     0
100
AcDbLine
 10
99.0977291583
 20
133.0189478319
 30
0.0
 11
99.0035683828
 21
133.6889365631
 31
0.0
  0
ARC
  5
178
330
1F
100
AcDbEntity
  8
0
  6
HIDDEN
 62
     7
370
     0
100
AcDbCircle
 10
98.5035616301
 20
83.7945678027
 30
0.0
 40
0.6000067526677242
100
AcDbArc
 50
352.0
 51
0.0
  0
ARC
  5
179
330
1F
100
AcDbEntity
  8
0
  6
HIDDEN
 62
     7
370
     0
100
AcDbCircle
 10
98.5035616301
 20
83.7945678027
 30
0.0
 40
0.6000067526677242
100
AcDbArc
 50
0.0
 51
33.5571153394
  0
ARC
  5
17A
330
1F
100
AcDbEntity
  8
0
  6
HIDDEN
 62
     7
370
     0
100
AcDbCircle
 10
98.5035616301
 20
132.9354430315
 30
0.0
 40
0.6000067526677308
100
AcDbArc
 50
348.75
 51
8.0
  0
LWPOLYLINE
  5
17B
330
1F
100
AcDbEntity
  8
0
  6
HIDDEN
 62
     7
370
     0
100
AcDbPolyline
 90
        3
 70
   128
 43
0.0
 10
99.0920394213
 20
132.8183875209
 10
99.0578955883
 20
132.705830388
 10
99.0035683828
 20
132.6037785165
  0
LINE
  5
17C
330
1F
100
AcDbEntity
  8
0
  6
HIDDEN
 62
     7
370
     0
100
AcDbLine
 10
99.1035683828
 20
83.7945678027
 30
0.0
 11
99.1035683828
 21
132.9354430315
 31
0.0
  0
ARC
  5
17D
330
1F
100
AcDbEntity
  8
0
  6
HIDDEN
 62
     7
370
     0
100
AcDbCircle
 10
92.7585703844
 20
96.3650054171
 30
0.0
 40
8.000000000000004
100
AcDbArc
 50
277.1438661295
 51
321.3178125465
  0
ARC
  5
17E
330
1F
100
AcDbEntity
  8
0
  6
HIDDEN
 62
     7
370
     0
100
AcDbCircle
 10
92.7585703844
 20
120.3650054171
 30
0.0
 40
8.00000000000002
100
AcDbArc
 50
38.6821874535
 51
82.8732855887
  0
LINE
  5
17F
330
1F
100
AcDbEntity
  8
0
  6
HIDDEN
 62
     7
370
     0
100
AcDbLine
 10
82.0860039481
 20
88.3650054171
 30
0.0
 11
86.256685764
 21
88.3650054171
 31
0.0
  0
LINE
  5
180
330
1F
100
AcDbEntity
  8
0
  6
HIDDEN
 62
     7
370
     0
100
AcDbLine
 10
86.256685764
 20
128.3650054171
 30
0.0
 11
82.0860039481
 21
128.3650054171
 31
0.0
  0
ARC
  5
181
330
1F
100
AcDbEntity
  8
0
  6
HIDDEN
 62
     7
370
     0
100
AcDbCircle
 10
82.0860039481
 20
88.9650054171
 30
0.0
 40
0.6000000000000085
100
AcDbArc
 50
210.0
 51
270.0
  0
ARC
  5
182
330
1F
100
AcDbEntity
  8
0
  6
HIDDEN
 62
     7
370
     0
100
AcDbCircle
 10
82.0860039481
 20
127.7650054171
 30
0.0
 40
0.6000000000000085
100
AcDbArc
 50
90.0
 51
150.0
  0
LINE
  5
183
330
1F
100
AcDbEntity
  8
0
  6
HIDDEN
 62
     7
370
     0
100
AcDbLine
 10
81.5663887058
 20
128.0650054171
 30
0.0
 11
80.007542979
 21
125.3650054171
 31
0.0
  0
LINE
  5
184
330
1F
100
AcDbEntity
  8
0
  6
HIDDEN
 62
     7
370
     0
100
AcDbLine
 10
80.007542979
 20
91.3650054171
 30
0.0
 11
81.5663887058
 21
88.6650054171
 31
0.0
  0
LINE
  5
185
330
1F
100
AcDbEntity
  8
0
  6
HIDDEN
 62
     7
370
     0
100
AcDbLine
 10
103.0035683828
 20
135.6447376542
 30
0.0
 11
103.0035683828
 21
132.3106078318
 31
0.0
  0
LINE
  5
186
330
1F
100
AcDbEntity
  8
0
  6
HIDDEN
 62
     7
370
     0
100
AcDbLine
 10
111.0035683828
 20
132.3106078318
 30
0.0
 11
111.0035683828
 21
135.6433629649
 31
0.0
  0
ARC
  5
187
330
1F
100
AcDbEntity
  8
0
  6
HIDDEN
 62
     7
370
     0
100
AcDbCircle
 10
107.4535683828
 20
92.6400054171
 30
0.0
 40
1.500000000000001
100
AcDbArc
 50
238.2116693829
 51
0.0
  0
ARC
  5
188
330
1F
100
AcDbEntity
  8
0
  6
HIDDEN
 62
     7
370
     0
100
AcDbCircle
 10
107.4535683828
 20
124.0900054171
 30
0.0
 40
1.500000000000001
100
AcDbArc
 50
0.0
 51
121.7883306171
  0
LINE
  5
189
330
1F
100
AcDbEntity
  8
0
  6
HIDDEN
 62
     7
370
     0
100
AcDbLine
 10
77.2035683828
 20
91.3650054171
 30
0.0
 11
80.007542979
 21
91.3650054171
 31
0.0
  0
LINE
  5
18A
330
1F
100
AcDbEntity
  8
0
  6
HIDDEN
 62
     7
370
     0
100
AcDbLine
 10
80.007542979
 20
125.3650054171
 30
0.0
 11
73.2035683828
 21
125.3650054171
 31
0.0
  0
LINE
  5
18B
330
1F
100
AcDbEntity
  8
0
  6
HIDDEN
 62
     7
370
     0
100
AcDbLine
 10
99.0035683828
 20
91.3650054171
 30
0.0
 11
106.6633943513
 21
91.3650054171
 31
0.0
  0
LINE
  5
18C
330
1F
100
AcDbEntity
  8
0
  6
HIDDEN
 62
     7
370
     0
100
AcDbLine
 10
106.6633943513
 20
125.3650054171
 30
0.0
 11
99.0035683828
 21
125.3650054171
 31
0.0
  0
LINE
  5
18D
330
1F
100
AcDbEntity
  8
0
  6
HIDDEN
 62
     7
370
     0
100
AcDbLine
 10
228.8104015115
 20
95.8562585322
 30
0.0
 11
228.910954658
 21
96.1122237711
 31
0.0
  0
LINE
  5
18E
330
1F
100
AcDbEntity
  8
0
  6
HIDDEN
 62
     7
370
     0
100
AcDbLine
 10
228.9128178768
 20
120.6118471078
 30
0.0
 11
228.8104015115
 21
120.8737523021
 31
0.0
  0
LINE
  5
18F
330
1F
100
AcDbEntity
  8
0
  6
HIDDEN
 62
     7
370
     0
100
AcDbLine
 10
117.8035683828
 20
98.8650054171
 30
0.0
 11
120.8035683828
 21
98.8650054171
 31
0.0
  0
LINE
  5
190
330
1F
100
AcDbEntity
  8
0
  6
HIDDEN
 62
     7
370
     0
100
AcDbLine
 10
120.8035683828
 20
117.8650054171
 30
0.0
 11
117.8035683828
 21
117.8650054171
 31
0.0
  0
ARC
  5
191
330
1F
100
AcDbEntity
  8
0
  6
HIDDEN
 62
     7
370
     0
100
AcDbCircle
 10
228.5035683828
 20
99.328311169
 30
0.0
 40
0.5000000000000056
100
AcDbArc
 50
0.0
 51
80.0
  0
ARC
  5
192
330
1F
100
AcDbEntity
  8
0
  6
HIDDEN
 62
     7
370
     0
100
AcDbCircle
 10
228.5035683828
 20
117.4016996652
 30
0.0
 40
0.5
100
AcDbArc
 50
280.0
 51
0.0
  0
LINE
  5
193
330
1F
100
AcDbEntity
  8
0
  6
HIDDEN
 62
     7
370
     0
100
AcDbLine
 10
108.9535683828
 20
99.3650054171
 30
0.0
 11
109.4535683828
 21
99.8650054171
 31
0.0
  0
LINE
  5
194
330
1F
100
AcDbEntity
  8
0
  6
HIDDEN
 62
     7
370
     0
100
AcDbLine
 10
109.4535683828
 20
116.8650054171
 30
0.0
 11
108.9535683828
 21
117.3650054171
 31
0.0
  0
LINE
  5
195
330
1F
100
AcDbEntity
  8
0
  6
HIDDEN
 62
     7
370
     0
100
AcDbLine
 10
228.5903924716
 20
116.9092957887
 30
0.0
 11
225.5035683828
 21
116.3650054171
 31
0.0
  0
LINE
  5
196
330
1F
100
AcDbEntity
  8
0
  6
HIDDEN
 62
     7
370
     0
100
AcDbLine
 10
225.5035683828
 20
100.3650054171
 30
0.0
 11
228.5903924716
 21
99.8207150456
 31
0.0
  0
LINE
  5
197
330
1F
100
AcDbEntity
  8
0
  6
HIDDEN
 62
     7
370
     0
100
AcDbLine
 10
109.4535683828
 20
99.8650054171
 30
0.0
 11
117.8035683828
 21
99.8650054171
 31
0.0
  0
LINE
  5
198
330
1F
100
AcDbEntity
  8
0
  6
HIDDEN
 62
     7
370
     0
100
AcDbLine
 10
117.8035683828
 20
116.8650054171
 30
0.0
 11
109.4535683828
 21
116.8650054171
 31
0.0
  0
LINE
  5
199
330
1F
100
AcDbEntity
  8
0
  6
HIDDEN
 62
     7
370
     0
100
AcDbLine
 10
183.0035683828
 20
100.0650054171
 30
0.0
 11
189.1087943647
 21
100.0650054171
 31
0.0
  0
LINE
  5
19A
330
1F
100
AcDbEntity
  8
0
  6
HIDDEN
 62
     7
370
     0
100
AcDbLine
 10
179.9035683828
 20
100.0650054171
 30
0.0
 11
180.0073231233
 21
100.0650054171
 31
0.0
  0
LINE
  5
19B
330
1F
100
AcDbEntity
  8
0
  6
HIDDEN
 62
     7
370
     0
100
AcDbLine
 10
180.005231673
 20
116.6650054171
 30
0.0
 11
179.9035683828
 21
116.6650054171
 31
0.0
  0
LINE
  5
19C
330
1F
100
AcDbEntity
  8
0
  6
HIDDEN
 62
     7
370
     0
100
AcDbLine
 10
189.1087943647
 20
116.6650054171
 30
0.0
 11
182.998507146
 21
116.6650054171
 31
0.0
  0
ARC
  5
19D
330
1F
100
AcDbEntity
  8
0
  6
HIDDEN
 62
     7
370
     0
100
AcDbCircle
 10
179.9035683828
 20
100.4650054171
 30
0.0
 40
0.4000000000000057
100
AcDbArc
 50
180.0
 51
270.0
  0
ARC
  5
19E
330
1F
100
AcDbEntity
  8
0
  6
HIDDEN
 62
     7
370
     0
100
AcDbCircle
 10
179.9035683828
 20
116.2650054171
 30
0.0
 40
0.4000000000000199
100
AcDbArc
 50
90.0
 51
180.0
  0
ARC
  5
19F
330
1F
100
AcDbEntity
  8
0
  6
HIDDEN
 62
     7
370
     0
100
AcDbCircle
 10
189.1087943647
 20
100.4650054171
 30
0.0
 40
0.3999999999999915
100
AcDbArc
 50
270.0
 51
290.0
  0
ARC
  5
1A0
330
1F
100
AcDbEntity
  8
0
  6
HIDDEN
 62
     7
370
     0
100
AcDbCircle
 10
189.1087943647
 20
116.2650054171
 30
0.0
 40
0.4000000000000057
100
AcDbArc
 50
70.0
 51
90.0
  0
LINE
  5
1A1
330
1F
100
AcDbEntity
  8
0
  6
HIDDEN
 62
     7
370
     0
100
AcDbLine
 10
189.245602422
 20
100.0891283688
 30
0.0
 11
190.0035683828
 21
100.3650054171
 31
0.0
  0
LINE
  5
1A2
330
1F
100
AcDbEntity
  8
0
  6
HIDDEN
 62
     7
370
     0
100
AcDbLine
 10
190.0035683828
 20
116.3650054171
 30
0.0
 11
189.245602422
 21
116.6408824654
 31
0.0
  0
LINE
  5
1A3
330
1F
100
AcDbEntity
  8
0
  6
HIDDEN
 62
     7
370
     0
100
AcDbLine
 10
190.0035683828
 20
100.3650054171
 30
0.0
 11
225.5035683828
 21
100.3650054171
 31
0.0
  0
LINE
  5
1A4
330
1F
100
AcDbEntity
  8
0
  6
HIDDEN
 62
     7
370
     0
100
AcDbLine
 10
225.5035683828
 20
116.3650054171
 30
0.0
 11
190.0035683828
 21
116.3650054171
 31
0.0
  0
LINE
  5
1A5
330
1F
100
AcDbEntity
  8
0
  6
HIDDEN
 62
     7
370
     0
100
AcDbLine
 10
103.9535683828
 20
139.8650054171
 30
0.0
 11
103.9535683828
 21
134.7650054171
 31
0.0
  0
LINE
  5
1A6
330
1F
100
AcDbEntity
  8
0
  6
HIDDEN
 62
     7
370
     0
100
AcDbLine
 10
179.5035683828
 20
114.3650054171
 30
0.0
 11
179.0035683828
 21
113.8650054171
 31
0.0
  0
LINE
  5
1A7
330
1F
100
AcDbEntity
  8
0
  6
HIDDEN
 62
     7
370
     0
100
AcDbLine
 10
179.0035683828
 20
102.8650054171
 30
0.0
 11
179.5035683828
 21
102.3650054171
 31
0.0
  0
LINE
  5
1A8
330
1F
100
AcDbEntity
  8
0
  6
HIDDEN
 62
     7
370
     0
100
AcDbLine
 10
149.0035683828
 20
102.8650054171
 30
0.0
 11
179.0035683828
 21
102.8650054171
 31
0.0
  0
LINE
  5
1A9
330
1F
100
AcDbEntity
  8
0
  6
HIDDEN
 62
     7
370
     0
100
AcDbLine
 10
179.0035683828
 20
113.8650054171
 30
0.0
 11
149.0035683828
 21
113.8650054171
 31
0.0
  0
LINE
  5
1AA
330
1F
100
AcDbEntity
  8
0
  6
HIDDEN
 62
     7
370
     0
100
AcDbLine
 10
149.0035683828
 20
113.8650054171
 30
0.0
 11
148.222449578
 21
112.5650054171
 31
0.0
  0
LINE
  5
1AB
330
1F
100
AcDbEntity
  8
0
  6
HIDDEN
 62
     7
370
     0
100
AcDbLine
 10
148.222449578
 20
104.1650054171
 30
0.0
 11
149.0035683828
 21
102.8650054171
 31
0.0
  0
LINE
  5
1AC
330
1F
100
AcDbEntity
  8
0
  6
HIDDEN
 62
     7
370
     0
100
AcDbLine
 10
94.1880062133
 20
84.2856340836
 30
0.0
 11
93.7535740638
 21
84.7647001027
 31
0.0
  0
LINE
  5
1AD
330
1F
100
AcDbEntity
  8
0
  6
HIDDEN
 62
     7
370
     0
100
AcDbLine
 10
86.2535707387
 20
85.1863880618
 30
0.0
 11
85.7711369954
 21
84.7073220864
 31
0.0
  0
LINE
  5
1AE
330
1F
100
AcDbEntity
  8
0
  6
HIDDEN
 62
     7
370
     0
100
AcDbLine
 10
85.7710150671
 20
132.0226834574
 30
0.0
 11
86.2535658181
 21
131.5435631995
 31
0.0
  0
LINE
  5
1AF
330
1F
100
AcDbEntity
  8
0
  6
HIDDEN
 62
     7
370
     0
100
AcDbLine
 10
93.7535682648
 20
131.9652609772
 30
0.0
 11
94.1881106551
 21
132.4443812278
 31
0.0
  0
LINE
  5
1B0
330
1F
100
AcDbEntity
  8
0
  6
HIDDEN
 62
     7
370
     0
100
AcDbLine
 10
120.8035683828
 20
104.1650054171
 30
0.0
 11
148.222449578
 21
104.1650054171
 31
0.0
  0
LINE
  5
1B1
330
1F
100
AcDbEntity
  8
0
  6
HIDDEN
 62
     7
370
     0
100
AcDbLine
 10
148.222449578
 20
112.5650054171
 30
0.0
 11
120.8035683828
 21
112.5650054171
 31
0.0
  0
LINE
  5
1B2
330
1F
100
AcDbEntity
  8
0
  6
HIDDEN
 62
     7
370
     0
100
AcDbLine
 10
93.7535683828
 20
84.7651840044
 30
0.0
 11
93.7535683828
 21
88.4271692265
 31
0.0
  0
LINE
  5
1B3
330
1F
100
AcDbEntity
  8
0
  6
HIDDEN
 62
     7
370
     0
100
AcDbLine
 10
86.2535683828
 20
88.3655896784
 30
0.0
 11
86.2535683828
 21
85.1867112996
 31
0.0
  0
LINE
  5
1B4
330
1F
100
AcDbEntity
  8
0
  6
HIDDEN
 62
     7
370
     0
100
AcDbLine
 10
93.7535683828
 20
128.3028416077
 30
0.0
 11
93.7535683828
 21
131.9647075556
 31
0.0
  0
LINE
  5
1B5
330
1F
100
AcDbEntity
  8
0
  6
HIDDEN
 62
     7
370
     0
100
AcDbLine
 10
86.2535683828
 20
131.5433080083
 30
0.0
 11
86.2535683828
 21
128.3644211559
 31
0.0
  0
LINE
  5
1B6
330
1F
100
AcDbEntity
  8
0
  6
HIDDEN
 62
     7
370
     0
100
AcDbLine
 10
157.4535683828
 20
125.3650054171
 30
0.0
 11
158.4535683828
 21
124.7876551479
 31
0.0
  0
LINE
  5
1B7
330
1F
100
AcDbEntity
  8
0
  6
HIDDEN
 62
     7
370
     0
100
AcDbLine
 10
163.4535683828
 20
124.7876551479
 30
0.0
 11
164.4535683828
 21
125.3650054171
 31
0.0
  0
LINE
  5
1B8
330
1F
100
AcDbEntity
  8
0
  6
HIDDEN
 62
     7
370
     0
100
AcDbLine
 10
164.4535683828
 20
91.3650054171
 30
0.0
 11
163.4535683828
 21
91.9423556863
 31
0.0
  0
LINE
  5
1B9
330
1F
100
AcDbEntity
  8
0
  6
HIDDEN
 62
     7
370
     0
100
AcDbLine
 10
158.4535683828
 20
91.9423556863
 30
0.0
 11
157.4535683828
 21
91.3650054171
 31
0.0
  0
LINE
  5
1BA
330
1F
100
AcDbEntity
  8
0
  6
HIDDEN
 62
     7
370
     0
100
AcDbLine
 10
158.4535683828
 20
124.7876551479
 30
0.0
 11
158.4535683828
 21
117.3650054171
 31
0.0
  0
LINE
  5
1BB
330
1F
100
AcDbEntity
  8
0
  6
HIDDEN
 62
     7
370
     0
100
AcDbLine
 10
163.4535683828
 20
117.3650054171
 30
0.0
 11
163.4535683828
 21
124.7876551479
 31
0.0
  0
LINE
  5
1BC
330
1F
100
AcDbEntity
  8
0
  6
HIDDEN
 62
     7
370
     0
100
AcDbLine
 10
158.4535683828
 20
117.3650054171
 30
0.0
 11
160.9535683828
 21
115.8628538695
 31
0.0
  0
LINE
  5
1BD
330
1F
100
AcDbEntity
  8
0
  6
HIDDEN
 62
     7
370
     0
100
AcDbLine
 10
160.9535683828
 20
115.8628538695
 30
0.0
 11
163.4535683828
 21
117.3650054171
 31
0.0
  0
LINE
  5
1BE
330
1F
100
AcDbEntity
  8
0
  6
HIDDEN
 62
     7
370
     0
100
AcDbLine
 10
163.4535683828
 20
91.9423556863
 30
0.0
 11
163.4535683828
 21
99.3650054171
 31
0.0
  0
LINE
  5
1BF
330
1F
100
AcDbEntity
  8
0
  6
HIDDEN
 62
     7
370
     0
100
AcDbLine
 10
158.4535683828
 20
99.3650054171
 30
0.0
 11
158.4535683828
 21
91.9423556863
 31
0.0
  0
LINE
  5
1C0
330
1F
100
AcDbEntity
  8
0
  6
HIDDEN
 62
     7
370
     0
100
AcDbLine
 10
163.4535683828
 20
99.3650054171
 30
0.0
 11
160.9535683828
 21
100.8671569647
 31
0.0
  0
LINE
  5
1C1
330
1F
100
AcDbEntity
  8
0
  6
HIDDEN
 62
     7
370
     0
100
AcDbLine
 10
160.9535683828
 20
100.8671569647
 30
0.0
 11
158.4535683828
 21
99.3650054171
 31
0.0
  0
LINE
  5
1C2
330
1F
100
AcDbEntity
  8
0
  6
HIDDEN
 62
     7
370
     0
100
AcDbLine
 10
180.0035683828
 20
120.0512363654
 30
0.0
 11
180.0035683828
 21
116.6647076059
 31
0.0
  0
LINE
  5
1C3
330
1F
100
AcDbEntity
  8
0
  6
HIDDEN
 62
     7
370
     0
100
AcDbLine
 10
180.0035683828
 20
123.3650054171
 30
0.0
 11
180.0035683828
 21
122.4083311089
 31
0.0
  0
LINE
  5
1C4
330
1F
100
AcDbEntity
  8
0
  6
HIDDEN
 62
     7
370
     0
100
AcDbLine
 10
183.0035683828
 20
122.4195580099
 30
0.0
 11
183.0035683828
 21
123.3650054171
 31
0.0
  0
LINE
  5
1C5
330
1F
100
AcDbEntity
  8
0
  6
HIDDEN
 62
     7
370
     0
100
AcDbLine
 10
183.0035683828
 20
116.6640931547
 30
0.0
 11
183.0035683828
 21
119.9213858912
 31
0.0
  0
LINE
  5
1C6
330
1F
100
AcDbEntity
  8
0
  6
HIDDEN
 62
     7
370
     0
100
AcDbLine
 10
180.0035683828
 20
94.3237133693
 30
0.0
 11
180.0035683828
 21
93.8650054171
 31
0.0
  0
LINE
  5
1C7
330
1F
100
AcDbEntity
  8
0
  6
HIDDEN
 62
     7
370
     0
100
AcDbLine
 10
180.0035683828
 20
100.0656805578
 30
0.0
 11
180.0035683828
 21
96.6901041955
 31
0.0
  0
LINE
  5
1C8
330
1F
100
AcDbEntity
  8
0
  6
HIDDEN
 62
     7
370
     0
100
AcDbLine
 10
183.0035683828
 20
96.808624943
 30
0.0
 11
183.0035683828
 21
100.0650054171
 31
0.0
  0
LINE
  5
1C9
330
1F
100
AcDbEntity
  8
0
  6
HIDDEN
 62
     7
370
     0
100
AcDbLine
 10
183.0035683828
 20
93.8650054171
 30
0.0
 11
183.0035683828
 21
94.3083728105
 31
0.0
  0
LINE
  5
1CA
330
1F
100
AcDbEntity
  8
0
  6
HIDDEN
 62
     7
370
     0
100
AcDbLine
 10
180.0035683828
 20
93.8650054171
 30
0.0
 11
181.5035683828
 21
92.9637144886
 31
0.0
  0
LINE
  5
1CB
330
1F
100
AcDbEntity
  8
0
  6
HIDDEN
 62
     7
370
     0
100
AcDbLine
 10
181.5035683828
 20
92.9637144886
 30
0.0
 11
183.0035683828
 21
93.8650054171
 31
0.0
  0
LINE
  5
1CC
330
1F
100
AcDbEntity
  8
0
  6
HIDDEN
 62
     7
370
     0
100
AcDbLine
 10
183.0021948975
 20
94.3066420821
 30
0.0
 11
228.9111008902
 21
96.1104079112
 31
0.0
  0
LINE
  5
1CD
330
1F
100
AcDbEntity
  8
0
  6
HIDDEN
 62
     7
370
     0
100
AcDbLine
 10
229.0035683828
 20
98.6159698654
 30
0.0
 11
183.0035683828
 21
96.808624943
 31
0.0
  0
LINE
  5
1CE
330
1F
100
AcDbEntity
  8
0
  6
HIDDEN
 62
     7
370
     0
100
AcDbLine
 10
183.0035683828
 20
119.9213858912
 30
0.0
 11
229.0035683828
 21
118.1140409689
 31
0.0
  0
LINE
  5
1CF
330
1F
100
AcDbEntity
  8
0
  6
HIDDEN
 62
     7
370
     0
100
AcDbLine
 10
228.9131077427
 20
120.6195240736
 30
0.0
 11
183.0005136861
 21
122.4234348071
 31
0.0
  0
LINE
  5
1D0
330
1F
100
AcDbEntity
  8
0
  6
HIDDEN
 62
     7
370
     0
100
AcDbLine
 10
180.0078637723
 20
122.4118529366
 30
0.0
 11
179.2908488854
 21
121.3182234858
 31
0.0
  0
LINE
  5
1D1
330
1F
100
AcDbEntity
  8
0
  6
HIDDEN
 62
     7
370
     0
100
AcDbLine
 10
179.2908488854
 20
121.3182234858
 30
0.0
 11
179.9922708373
 21
120.039700094
 31
0.0
  0
LINE
  5
1D2
330
1F
100
AcDbEntity
  8
0
  6
HIDDEN
 62
     7
370
     0
100
AcDbLine
 10
179.9922708373
 20
96.6903107402
 30
0.0
 11
179.2908488854
 21
95.4117873484
 31
0.0
  0
LINE
  5
1D3
330
1F
100
AcDbEntity
  8
0
  6
HIDDEN
 62
     7
370
     0
100
AcDbLine
 10
179.2908488854
 20
95.4117873484
 30
0.0
 11
180.0051418377
 21
94.3223095379
 31
0.0
  0
LINE
  5
1D4
330
1F
100
AcDbEntity
  8
0
  6
HIDDEN
 62
     7
370
     0
100
AcDbLine
 10
68.3945284942
 20
87.4950054171
 30
0.0
 11
68.3979875092
 21
87.4950054171
 31
0.0
  0
LINE
  5
1D5
330
1F
100
AcDbEntity
  8
0
  6
HIDDEN
 62
     7
370
     0
100
AcDbLine
 10
228.8123016255
 20
98.8586478637
 30
0.0
 11
223.4783638216
 21
98.6490768766
 31
0.0
  0
LINE
  5
1D6
330
1F
100
AcDbEntity
  8
0
  6
HIDDEN
 62
     7
370
     0
100
AcDbLine
 10
223.5961432689
 20
95.6513897679
 30
0.0
 11
228.8104015115
 21
95.8562585322
 31
0.0
  0
LINE
  5
1D7
330
1F
100
AcDbEntity
  8
0
  6
HIDDEN
 62
     7
370
     0
100
AcDbLine
 10
223.4783638216
 20
98.6490768766
 30
0.0
 11
222.9983792114
 21
98.1298324506
 31
0.0
  0
LINE
  5
1D8
330
1F
100
AcDbEntity
  8
0
  6
HIDDEN
 62
     7
370
     0
100
AcDbLine
 10
223.0768988429
 20
96.1313743781
 30
0.0
 11
223.5961432689
 21
95.6513897679
 31
0.0
  0
LINE
  5
1D9
330
1F
100
AcDbEntity
  8
0
  6
HIDDEN
 62
     7
370
     0
100
AcDbLine
 10
228.9851358993
 20
98.5847221186
 30
0.0
 11
228.8123016255
 21
98.8586478637
 31
0.0
  0
LINE
  5
1DA
330
1F
100
AcDbEntity
  8
0
  6
HIDDEN
 62
     7
370
     0
100
AcDbLine
 10
228.8104015115
 20
120.8737523021
 30
0.0
 11
223.5372535453
 21
121.0809348499
 31
0.0
  0
LINE
  5
1DB
330
1F
100
AcDbEntity
  8
0
  6
HIDDEN
 62
     7
370
     0
100
AcDbLine
 10
223.419474098
 20
118.0832477412
 30
0.0
 11
228.7534119019
 21
117.8736767541
 31
0.0
  0
LINE
  5
1DC
330
1F
100
AcDbEntity
  8
0
  6
HIDDEN
 62
     7
370
     0
100
AcDbLine
 10
228.7534119019
 20
117.8736767541
 30
0.0
 11
228.9262461756
 21
118.1476024992
 31
0.0
  0
LINE
  5
1DD
330
1F
100
AcDbEntity
  8
0
  6
HIDDEN
 62
     7
370
     0
100
AcDbLine
 10
223.5372535453
 20
121.0809348499
 30
0.0
 11
223.0180091193
 21
120.6009502397
 31
0.0
  0
LINE
  5
1DE
330
1F
100
AcDbEntity
  8
0
  6
HIDDEN
 62
     7
370
     0
100
AcDbLine
 10
222.9394894878
 20
118.6024921672
 30
0.0
 11
223.419474098
 21
118.0832477412
 31
0.0
  0
DIMENSION
  5
1DF
330
1F
100
AcDbEntity
  8
VERMASSUNG
100
AcDbDimension
  2
*D1
 10
62.2637825071
 20
76.8650054171
 30
0.0
 11
62.2637825071
 21
108.3650054171
 31
0.0
 70
   160
  1
HSK A %%c<>
 71
     2
 42
-1.0
  3
SLDDIMSTYLE0
100
AcDbAlignedDimension
 13
99.3035683828
 23
139.8650054171
 33
0.0
 14
99.3035683828
 24
76.8650054171
 34
0.0
 50
90.0
100
AcDbRotatedDimension
  0
DIMENSION
  5
1EC
330
1F
100
AcDbEntity
  8
VERMASSUNG
100
AcDbDimension
  2
*D2
 10
229.0035683828
 20
140.2171121109
 30
0.0
 11
204.2535683828
 21
140.2171121109
 31
0.0
 70
   160
 71
     2
 42
-1.0
  3
SLDDIMSTYLE1
100
AcDbAlignedDimension
 13
179.5035683828
 23
116.2650054171
 33
0.0
 14
229.0035683828
 24
120.0162244338
 34
0.0
 50
0.0
100
AcDbRotatedDimension
  0
DIMENSION
  5
1F7
330
1F
100
AcDbEntity
  8
VERMASSUNG
100
AcDbDimension
  2
*D3
 10
236.9379487577
 20
116.3650054171
 30
0.0
 11
236.9379487577
 21
108.3650054171
 31
0.0
 70
   160
  1
%%c<>
 71
     2
 42
-1.0
  3
SLDDIMSTYLE2
100
AcDbAlignedDimension
 13
225.5035683828
 23
100.3650054171
 33
0.0
 14
225.5035683828
 24
116.3650054171
 34
0.0
 50
90.0
100
AcDbRotatedDimension
  0
DIMENSION
  5
203
330
1F
100
AcDbEntity
  8
VERMASSUNG
100
AcDbDimension
  2
*D4
 10
242.9379487577
 20
121.8650054171
 30
0.0
 11
242.9379487577
 21
108.3650054171
 31
0.0
 70
   160
  1
%%c<>
 71
     2
 42
-1.0
  3
SLDDIMSTYLE3
100
AcDbAlignedDimension
 13
229.0035683828
 23
94.8650054171
 33
0.0
 14
229.0035683828
 24
121.8650054171
 34
0.0
 50
90.0
100
AcDbRotatedDimension
  0
DIMENSION
  5
20F
330
1F
100
AcDbEntity
  8
VERMASSUNG
100
AcDbDimension
  2
*D5
 10
248.9379487577
 20
125.3650054171
 30
0.0
 11
248.9379487577
 21
108.3650054171
 31
0.0
 70
   160
  1
%%c<>
 71
     2
 42
-1.0
  3
SLDDIMSTYLE3
100
AcDbAlignedDimension
 13
169.0035683828
 23
91.3650054171
 33
0.0
 14
169.0035683828
 24
125.3650054171
 34
0.0
 50
90.0
100
AcDbRotatedDimension
  0
DIMENSION
  5
21A
330
1F
100
AcDbEntity
  8
VERMASSUNG
100
AcDbDimension
  2
*D6
 10
229.0035683828
 20
152.2171121109
 30
0.0
 11
164.0035683828
 21
152.2171121109
 31
0.0
 70
   160
 71
     2
 42
-1.0
  3
SLDDIMSTYLE0
100
AcDbAlignedDimension
 13
99.0035683828
 23
139.5650054171
 33
0.0
 14
229.0035683828
 24
120.0162244338
 34
0.0
100
AcDbRotatedDimension
  0
DIMENSION
  5
224
330
1F
100
AcDbEntity
  8
VERMASSUNG
100
AcDbDimension
  2
*D7
 10
229.0035683828
 20
146.2171121109
 30
0.0
 11
176.9785683828
 21
146.2171121109
 31
0.0
 70
   160
 71
     2
 42
-1.0
  3
SLDDIMSTYLE0
100
AcDbAlignedDimension
 13
124.9535683828
 23
138.2114457409
 33
0.0
 14
229.0035683828
 24
119.9644531769
 34
0.0
100
AcDbRotatedDimension
  0
DIMENSION
  5
22E
330
1F
100
AcDbEntity
  8
VERMASSUNG
100
AcDbDimension
  2
*D8
 10
229.0035683828
 20
158.2171121109
 30
0.0
 11
148.0535683828
 21
158.2171121109
 31
0.0
 70
   160
 71
     2
 42
-1.0
  3
SLDDIMSTYLE0
100
AcDbAlignedDimension
 13
67.1035683828
 23
128.0556831636
 33
0.0
 14
229.0035683828
 24
119.9644531769
 34
0.0
100
AcDbRotatedDimension
  0
LINE
  5
238
330
1F
100
AcDbEntity
  8
VERMASSUNG
  6
CENTERX2
370
     0
100
AcDbLine
 10
64.9582645404
 20
108.3650054171
 30
0.0
 11
230.7251877146
 21
108.3650054171
 31
0.0
  0
OLE2FRAME
  5
239
330
1F
100
AcDbEntity
  8
0
100
AcDbOle2Frame
 70
     2
  3
Bitmap Image
 10
13.8511154363
 20
38.264191557
 30
0.0
 11
51.6290888628
 21
31.9806341108
 31
0.0
 71
     2
 72
     0
 73
     1
 90
    12928
310
80552BED0767C5B32B40DDAF6807D121434000000000000000006FFBDDFB85D0
310
4940DDAF6807D121434000000000000000006FFBDDFB85D04940416F4BD60AFB
310
3F4000000000000000002BED0767C5B32B40416F4BD60AFB3F40000000000000
310
0000000000000100000000010000010000000100000000000100000000320000
310
D0CF11E0A1B11AE1000000000000000000000000000000003E000300FEFF0900
310
0600000000000000000000000100000001000000000000000010000002000000
310
01000000FEFFFFFF0000000000000000FFFFFFFFFFFFFFFFFFFFFFFFFFFFFFFF
310
FFFFFFFFFFFFFFFFFFFFFFFFFFFFFFFFFFFFFFFFFFFFFFFFFFFFFFFFFFFFFFFF
310
FFFFFFFFFFFFFFFFFFFFFFFFFFFFFFFFFFFFFFFFFFFFFFFFFFFFFFFFFFFFFFFF
310
FFFFFFFFFFFFFFFFFFFFFFFFFFFFFFFFFFFFFFFFFFFFFFFFFFFFFFFFFFFFFFFF
310
FFFFFFFFFFFFFFFFFFFFFFFFFFFFFFFFFFFFFFFFFFFFFFFFFFFFFFFFFFFFFFFF
310
FFFFFFFFFFFFFFFFFFFFFFFFFFFFFFFFFFFFFFFFFFFFFFFFFFFFFFFFFFFFFFFF
310
FFFFFFFFFFFFFFFFFFFFFFFFFFFFFFFFFFFFFFFFFFFFFFFFFFFFFFFFFFFFFFFF
310
FFFFFFFFFFFFFFFFFFFFFFFFFFFFFFFFFFFFFFFFFFFFFFFFFFFFFFFFFFFFFFFF
310
FFFFFFFFFFFFFFFFFFFFFFFFFFFFFFFFFFFFFFFFFFFFFFFFFFFFFFFFFFFFFFFF
310
FFFFFFFFFFFFFFFFFFFFFFFFFFFFFFFFFFFFFFFFFFFFFFFFFFFFFFFFFFFFFFFF
310
FFFFFFFFFFFFFFFFFFFFFFFFFFFFFFFFFFFFFFFFFFFFFFFFFFFFFFFFFFFFFFFF
310
FFFFFFFFFFFFFFFFFFFFFFFFFFFFFFFFFFFFFFFFFFFFFFFFFFFFFFFFFFFFFFFF
310
FFFFFFFFFFFFFFFFFFFFFFFFFFFFFFFFFFFFFFFFFFFFFFFFFFFFFFFFFFFFFFFF
310
FFFFFFFFFFFFFFFFFFFFFFFFFFFFFFFFFFFFFFFFFFFFFFFFFFFFFFFFFFFFFFFF
310
FDFFFFFFFEFFFFFFFEFFFFFFFEFFFFFF05000000060000000700000008000000
310
090000000A0000000B0000000C0000000D0000000E0000000F00000010000000
310
11000000120000001300000014000000150000001600000017000000FEFFFFFF
310
FFFFFFFFFFFFFFFFFFFFFFFFFFFFFFFFFFFFFFFFFFFFFFFFFFFFFFFFFFFFFFFF
310
FFFFFFFFFFFFFFFFFFFFFFFFFFFFFFFFFFFFFFFFFFFFFFFFFFFFFFFFFFFFFFFF
310
FFFFFFFFFFFFFFFFFFFFFFFFFFFFFFFFFFFFFFFFFFFFFFFFFFFFFFFFFFFFFFFF
310
FFFFFFFFFFFFFFFFFFFFFFFFFFFFFFFFFFFFFFFFFFFFFFFFFFFFFFFFFFFFFFFF
310
FFFFFFFFFFFFFFFFFFFFFFFFFFFFFFFFFFFFFFFFFFFFFFFFFFFFFFFFFFFFFFFF
310
FFFFFFFFFFFFFFFFFFFFFFFFFFFFFFFFFFFFFFFFFFFFFFFFFFFFFFFFFFFFFFFF
310
FFFFFFFFFFFFFFFFFFFFFFFFFFFFFFFFFFFFFFFFFFFFFFFFFFFFFFFFFFFFFFFF
310
FFFFFFFFFFFFFFFFFFFFFFFFFFFFFFFFFFFFFFFFFFFFFFFFFFFFFFFFFFFFFFFF
310
FFFFFFFFFFFFFFFFFFFFFFFFFFFFFFFFFFFFFFFFFFFFFFFFFFFFFFFFFFFFFFFF
310
FFFFFFFFFFFFFFFFFFFFFFFFFFFFFFFFFFFFFFFFFFFFFFFFFFFFFFFFFFFFFFFF
310
FFFFFFFFFFFFFFFFFFFFFFFFFFFFFFFFFFFFFFFFFFFFFFFFFFFFFFFFFFFFFFFF
310
FFFFFFFFFFFFFFFFFFFFFFFFFFFFFFFFFFFFFFFFFFFFFFFFFFFFFFFFFFFFFFFF
310
FFFFFFFFFFFFFFFFFFFFFFFFFFFFFFFFFFFFFFFFFFFFFFFFFFFFFFFFFFFFFFFF
310
52006F006F007400200045006E00740072007900000000000000000000000000
310
0000000000000000000000000000000000000000000000000000000000000000
310
16000500FFFFFFFFFFFFFFFF020000000A00030000000000C000000000000046
310
000000000000000000000000D07BA0A7C604CC0103000000C000000000000000
310
01004F006C006500000000000000000000000000000000000000000000000000
310
0000000000000000000000000000000000000000000000000000000000000000
310
0A000200FFFFFFFFFFFFFFFFFFFFFFFF00000000000000000000000000000000
310
0000000000000000000000000000000000000000000000001400000000000000
310
010043006F006D0070004F0062006A0000000000000000000000000000000000
310
0000000000000000000000000000000000000000000000000000000000000000
310
120002010100000003000000FFFFFFFF00000000000000000000000000000000
310
0000000000000000000000000000000000000000010000004D00000000000000
310
01004F006C006500310030004E00610074006900760065000000000000000000
310
0000000000000000000000000000000000000000000000000000000000000000
310
1A000200FFFFFFFFFFFFFFFFFFFFFFFF00000000000000000000000000000000
310
0000000000000000000000000000000000000000040000002426000000000000
310
FEFFFFFF02000000FEFFFFFFFFFFFFFFFFFFFFFFFFFFFFFFFFFFFFFFFFFFFFFF
310
FFFFFFFFFFFFFFFFFFFFFFFFFFFFFFFFFFFFFFFFFFFFFFFFFFFFFFFFFFFFFFFF
310
FFFFFFFFFFFFFFFFFFFFFFFFFFFFFFFFFFFFFFFFFFFFFFFFFFFFFFFFFFFFFFFF
310
FFFFFFFFFFFFFFFFFFFFFFFFFFFFFFFFFFFFFFFFFFFFFFFFFFFFFFFFFFFFFFFF
310
FFFFFFFFFFFFFFFFFFFFFFFFFFFFFFFFFFFFFFFFFFFFFFFFFFFFFFFFFFFFFFFF
310
FFFFFFFFFFFFFFFFFFFFFFFFFFFFFFFFFFFFFFFFFFFFFFFFFFFFFFFFFFFFFFFF
310
FFFFFFFFFFFFFFFFFFFFFFFFFFFFFFFFFFFFFFFFFFFFFFFFFFFFFFFFFFFFFFFF
310
FFFFFFFFFFFFFFFFFFFFFFFFFFFFFFFFFFFFFFFFFFFFFFFFFFFFFFFFFFFFFFFF
310
FFFFFFFFFFFFFFFFFFFFFFFFFFFFFFFFFFFFFFFFFFFFFFFFFFFFFFFFFFFFFFFF
310
FFFFFFFFFFFFFFFFFFFFFFFFFFFFFFFFFFFFFFFFFFFFFFFFFFFFFFFFFFFFFFFF
310
FFFFFFFFFFFFFFFFFFFFFFFFFFFFFFFFFFFFFFFFFFFFFFFFFFFFFFFFFFFFFFFF
310
FFFFFFFFFFFFFFFFFFFFFFFFFFFFFFFFFFFFFFFFFFFFFFFFFFFFFFFFFFFFFFFF
310
FFFFFFFFFFFFFFFFFFFFFFFFFFFFFFFFFFFFFFFFFFFFFFFFFFFFFFFFFFFFFFFF
310
FFFFFFFFFFFFFFFFFFFFFFFFFFFFFFFFFFFFFFFFFFFFFFFFFFFFFFFFFFFFFFFF
310
FFFFFFFFFFFFFFFFFFFFFFFFFFFFFFFFFFFFFFFFFFFFFFFFFFFFFFFFFFFFFFFF
310
FFFFFFFFFFFFFFFFFFFFFFFFFFFFFFFFFFFFFFFFFFFFFFFFFFFFFFFFFFFFFFFF
310
010000020000000000000000000000000000000000000000CC08020000000000
310
52090200000000003E09020000000000120902000000000058071F0000000000
310
0100FEFF030A0000FFFFFFFF0A00030000000000C00000000000004607000000
310
5042727573680007000000504272757368000700000050427275736800F439B2
310
71000000000000000000000000000000161E040000000000201E040000000000
310
241E040000000000621D0400000000006C1D040000000000701D040000000000
310
CE1C030000000000B01C040000000000B41C040000000000161C030000000000
310
021C040000000000061C040000000000E81B020000000000F21B020000000000
310
F61B020000000000EE1A290000000000681A4100000000007A1A430000000000
310
7C197A0000000000701981000000000074197B00000000002619BF0000000000
310
C61870000000000006196E000000000008180900000000002418070000000000
310
0E18090000000000420715020000000014076E02000000000807A60000000000
310
FE0A0400000000003609020000000000780B0D0000000000AE0B020000000000
310
DC0B020000000000EA0B02000000000070070200000000008007020000000000
310
C207020000000000D407020000000000FE07020000000000CC06080000000000
310
C60B020000000000960C0A00000000002E09030000000000DC06030000000000
310
20260000424D0E260000000000003E00000028000000B40200006E0000000100
310
01000000000000000000130B0000130B00000200000002000000000000FFFFFF
310
FFFFFFFFFFFFFFFFFFFFFFFFFFFFFFFFFFFFFFFFFFFFFFFFFFFFFFFFFFFFFFFF
310
FFFFFFFFFFFFFFFFFFFFFFFFFFFFFFFFFFFFFFFFFFFFFFFFFFFFFFFFFFFFFFFF
310
FFFFFFFFFFFFFFFFFFFFFFFFFFFFFFFFFFFFFFFFFFFFFFFFF000FFFFFFFFFFFF
310
FFFFFFFFFFFFFFFFFFFFFFFFFFFFFFFFFFFFFFFFFFFFFFFFFFFFFFFFFFFFFFFF
310
FFFFFFFFFFFFFFFFFFFFFFFFFFFFFFFFFFFFFFFFFFFFFFFFFFFFFFFFFFFFFFFF
310
FFFFFFFFFFFFFFFFFFFFFFFFFFFFFFFFF000FFFFFFFFFFFFFFFFFFFFFFFFFFFF
310
FFFFFFFFFFFFFFFFFFFFFFFFFFFFFFFFFFFFFFFFFFFFFFFFFFFFFFFFFFFFFFFF
310
FFFFFFFFFFFFFFFFFFFFFFFFFFFFFFFFFFFFFFFFFFFFFFFFFFFFFFFFFFFFFFFF
310
FFFFFFFFFFFFFFFFF000FFFFFFFFFFFFFFFFFFFFFFFFFFFFFFFFFFFFFFFFFFFF
310
FFFFFFFFFFFFFFFFFFFFFFFFFFFFFFFFFFFFFFFFFFFFFFFFFFFFFFFFFFFFFFFF
310
FFFFFFFFFFFFFFFFFFFFFFFFFFFFFFFFFFFFFFFFFFFFFFFFFFFFFFFFFFFFFFFF
310
F000FFFFFFFFFFFFFFFFFFFFFFFFFFFFFFFFFFFFFFFFFFFFFFFFFFFFFFFFFFFF
310
FFFFFFFFFFFFFFFFFFFFFFFFFFFFFFFFFFFFFFFFFFFFFFFFFFFFFFFFFFFFFFFF
310
FFFFFFFFFFFFFFFFFFFFFFFFFFFFFFFFFFFFFFFFFFFFFFFFF000FFFFFFFFFFFF
310
FFFFFFFFFFFFFFFFFFFFFFFFFFFFFFFFFFFFFFFFFFFFFFFFFFFFFFFFFFFFFFFF
310
FFFFFFFFFFFFFFFFFFFFFFFFFFFFFFFFFFFFFFFFFFFFFFFFFFFFFFFFFFFFFFFF
310
FFFFFFFFFFFFFFFFFFFFFFFFFFFFFFFFF000FFFFFFFFFFFFFFFFFFFFFFFFFFFF
310
FFFFFFFFFFFFFFFFFFFFFFFFFFFFFFFFFFFFFFFFFFFFFFFFFFFFFFFFFFFFFFFF
310
FFFFFFFFFFFFFFFFFFFFFFFFFFFFFFFFFFFFFFFFFFFFFFFFFFFFFFFFFFFFFFFF
310
FFFFFFFFFFFFFFFFF000FFFFFFFFFFFFFFFFFFFFFFFFFFFFFFFFFFFFFFFFFFFF
310
FFFFFFFFFFFFFFFFFFFFFFFFFFFFFFFFFFFFFFFFFFFFFFFFFFFFFFFFFFFFFFFF
310
FFFFFFFFFFFFFFFFFFFFFFFFFFFFFFFFFFFFFFFFFFFFFFFFFFFFFFFFFFFFFFFF
310
F000FFFFFFFFFFFFFFFFFFFFFFFFFFFFFFFFFFFFFFFFFFFFFFFFFFFFFFFFFFFF
310
FFFFFFFFFFFFFFFFFFFFFFFFFFFFFFFFFFFFFFFFFFFFFFFFFFFFFFFFFFFFFFFF
310
FFFFFFFFFFFFFFFFFFFFFFFFFFFFFFFFFFFFFFFFFFFFFFFFF000FFFFFFFFFFFF
310
FFFFFFFFFFFFFFFFFFFFFFFFFFFFFFFFFFFFFFFFFFFFFFFFFFFFFFFFFFFFFFFF
310
FFFFFFFFFFFFFFFFFFFFFFFFFFFFFFFFFFFFFFFFFFFFFFFFFFFFFFFFFFFFFFFF
310
FFFFFFFFFFFFFFFFFFFFFFFFFFFFFFFFF000FFFFFFFFFFFFFFFFFFFFFFFFFFFF
310
FFFFFFFFFFFFFFFFFFFFFFFFFFFFFFFFFFFFFFFFFFFFFFFFFFFFFFFFFFFFFFFF
310
FFFFFFFFFFFFFFFFFFFFFFFFFFFFFFFFFFFFFFFFFFFFFFFFFFFFFFFFFFFFFFFF
310
FFFFFFFFFFFFFFFFF000FFFFFFFFFFFFFFFFFFFFFFFFFFFFFFFFFFFFFFFFFFFF
310
FFFFFFFFFFFFFFFFFFFFFFFFFFFFFFFFFFFFFFFFFFFFFFFFFFFFFFFFFFFFFFFF
310
FFFFFFFFFFFFFFFFFFFFFFFFFFFFFFFFFFFFFFFFFFFFFFFFFFFFFFFFFFFFFFFF
310
F000FFFFFFFFFFFFFFFFFFFFFFFFFFFFFFFFFFFFFFFFFFFFFFFFFFFFFFFFFFFF
310
FFFFFFFFFFFFFFFFFFFFFFFFFFFFFFFFFFFFFFFFFFFFFFFFFFFFFFFFFFFFFFFF
310
FFFFFFFFFFFFFFFFFFFFFFFFFFFFFFFFFFFFFFFFFFFFFFFFF000FFFFFFFFFFFF
310
FFFFFFFFFFFFFFFFFFFFFFFFFFFFFFFFFFFFFFFFFFFFFFFFFFFFFFFFFFFFFFFF
310
FFFFFFFFFFFFFFFFFFFFFFFFFFFFFFFFFFFFFFFFFFFFFFFFFFFFFFFFFFFFFFFF
310
FFFFFFFFFFFFFFFFFFFFFFFFFFFFFFFFF000FFFFFFFFFFFFFFFFFFFFFFFFFFFF
310
FFFFFFFFFFFFFFFFFFFFFFFFFFFFFFFFFFFFFFFFFFFFFFFFFFFFFFFFFFFFFFFF
310
FFFFFFFFFFFFFFFFFFFFFFFFFFFFFFFFFFFFFFFFFFFFFFFFFFFFFFFFFFFFFFFF
310
FFFFFFFFFFFFFFFFF000FFFFFFFFFFFFFFFFFFFFFFFFFFFFFFFFFFFFFFFFFFFF
310
FFFFFFFFFFFFFFFFFFFFFFFFFFFFFFFFFFFFFFFFFFFFFFFFFFFFFFFFFFFFFFFF
310
FFFFFFFFFFFFFFFFFFFFFFFFFFFFFFFFFFFFFFFFFFFFFFFFFFFFFFFFFFFFFFFF
310
F000FFFFFFFFFFFFFFFFFFFFFFFFFFFFFFFFFFFFFFFFFFFFFFFFFFFFFFFFFFFF
310
FFFFFFFFFFFFFFFFFFFFFFFFFFFFFFFFFFFFFFFFFFFFFFFFFFFFFFFFFFFFFFFF
310
FFFFFFFFFFFFFFFFFFFFFFFFFFFFFFFFFFFFFFFFFFFFFFFFF000FFFFFFFFFFFF
310
FFFFFFFFFFFFFFFFFFFFFFFFFFFFFFFFFFFFFFFFFFFFFFFFFFFFFFFFFFFFFFFF
310
FFFFFFFFFFFFFFFFFFFFFFFFFFFFFFFFFFFFFFFFFFFFFFFFFFFFFFFFFFFFFFFF
310
FFFFFFFFFFFFFFFFFFFFFFFFFFFFFFFFF000FFFFFFFFFFFFFFFFFFFFFFFFFFFF
310
FFFFFFFFFFFFFFFFFFFFFFFFFFFFFFFFFFFFFFFFFFFFFFFFFFFFFFFFFFFFFFFF
310
FFFFFFFFFFFFFFFFFFFFFFFFFFFFFFFFFFFFFFFFFFFFFFFFFFFFFFFFFFFFFFFF
310
FFFFFFFFFFFFFFFFF000FFFFF80003FFFFFFFFFFFFFFFFFFFFFFFFFFFFFFFFFF
310
FFFFF00007FFFFFFFFFF00007FFFFFF800000000000000007FFFFFFFFFFFFFFF
310
FFFFFFFC001FFFFFFFFFFFFFFC001FFFFFFFFFFFFFFFFFFFFFFFFFFE0007FFFF
310
F000FFFF8000007FFFFFFFF8000FFFFFC0007FFFFF80007FFFFF0000007FFFFF
310
FFF8000007FFFFF800000000000000007FFFFFF0001FFFFFFFFFFFC00001FFFF
310
FFFFFFFFC00001FFFFFFFF000000000003FFFFE000007FFFF000FFFE0000000F
310
FFFFFFF0000FFFFF80007FFFFF80007FFFFC0000001FFFFFFFC0000001FFFFF8
310
00000000000000007FFFFFF0001FFFFFFFFFFE0000003FFFFFFFFFFE0000003F
310
FFFFFF000000000003FFFF0000000FFFF000FFF800000003FFFFFFF00007FFFF
310
80007FFFFF80007FFFF000000007FFFFFF000000003FFFF80000000000000000
310
7FFFFFF0001FFFFFFFFFF80000000FFFFFFFFFF80000000FFFFFFF0000000000
310
03FFFC00000003FFF000FFE000000000FFFFFFF00007FFFF80003FFFFF80007F
310
FFC000000001FFFFFC000000001FFFF800000000000000007FFFFFF0001FFFFF
310
FFFFE000000003FFFFFFFFE000000003FFFFFF000000000003FFF000000000FF
310
F000FF80000000007FFFFFF00007FFFF80003FFFFF80007FFF8000000000FFFF
310
F80000000007FFF800000000000000007FFFFFF0001FFFFFFFFFC000000001FF
310
FFFFFFC000000001FFFFFF000000000003FFC0000000007FF000FF0000000000
310
3FFFFFE00007FFFF00003FFFFF80007FFE00000000003FFFF00000000003FFF8
310
00000000000000007FFFFFF0001FFFFFFFFF8000000000FFFFFFFF8000000000
310
FFFFFF000000000003FF80000000003FF000FE00000000001FFFFFE00003FFFF
310
00003FFFFF80007FFC00000000001FFFE00000000001FFF8000001FFFE000000
310
7FFFFFF0001FFFFFFFFE00000000003FFFFFFE00000000003FFFFF0000000000
310
03FF00000000001FF000FC00000000000FFFFFE00003FFFF00001FFFFF80007F
310
F800000000001FFFC00000000000FFF8000001FFFE0000007FFFFFF0001FFFFF
310
FFFC00000000001FFFFFFC00000000001FFFFF000000000003FE00000000000F
310
F000F8000000000007FFFFE00003FFFF00001FFFFF80007FF800000000000FFF
310
800000000000FFF8000001FFFE0000007FFFFFF0001FFFFFFFF800000000000F
310
FFFFF800000000000FFFFF000000000003FC000000000007F000F80000000000
310
03FFFFC00003FFFE00001FFFFF80007FF0000000000007FF0000000000007FF8
310
000001FFFE0000007FFFFFF0001FFFFFFFF0000000000007FFFFF00000000000
310
07FFFF000000000003F8000000000003F000F0000000000003FFFFC00001FFFE
310
00001FFFFF80007FE0000000000007FE0000000000003FF8000001FFFE000000
310
7FFFFFF0001FFFFFFFF0000000000007FFFFF0000000000007FFFF0000000000
310
03F800001F800003F000E00001FFF00001FFFFC00001FFFE00000FFFFF80007F
310
E00001FFE00003FE00001FFF00003FF8000001FFFE0000007FFFFFF0001FFFFF
310
FFE000003E000003FFFFE000003E000003FFFF000000000003F00001FFF80001
310
F000E00007FFFC0001FFFFC00001FFFE00000FFFFF80007FC0000FFFFC0003FC
310
0000FFFFC0001FF8000001FFFE0000007FFFFFF0001FFFFFFFC00003FFE00001
310
FFFFC00003FFE00001FFFF0001FFFFFFFFF00007FFFE0001F000E0000FFFFF00
310
00FFFF800001FFFC00000FFFFF80007FC0001FFFFE0001FC0001FFFFE0001FF8
310
000001FFFE0000007FFFFFF0001FFFFFFF80000FFFF80000FFFF80000FFFF800
310
00FFFF0003FFFFFFFFE0000FFFFF8000F000C0003FFFFF8000FFFF800000FFFC
310
000007FFFF80007F80003FFFFF0001FC0003FFFFF0001FF8000001FFFE000000
310
7FFFFFF0001FFFFFFF80003FFFFE0000FFFF80003FFFFE0000FFFF0003FFFFFF
310
FFE0003FFFFF8000F000C0003FFFFF8000FFFF800000FFFC000007FFFF80007F
310
80007FFFFF8001F80007FFFFF8000FF8000001FFFE0000007FFFFFF0001FFFFF
310
FF00007FFFFF00007FFF00007FFFFF00007FFF0003FFFFFFFFE0003FFFFFC000
310
F000C0007FFFFFC000FFFF000000FFFC000007FFFF80007F8000FFFFFF8000F8
310
000FFFFFF8000FF8000001FFFE0000007FFFFFF0001FFFFFFF0000FFFFFF8000
310
7FFF0000FFFFFF80007FFF0003FFFFFFFFC0007FFFFFC00070008000FFFFFFC0
310
00FFFF000000FFF8000007FFFF80007F8000FFFFFF8000F8000FFFFFF8000FF8
310
000001FFFE0000007FFFFFF0001FFFFFFE0001FFFFFFC0003FFE0001FFFFFFC0
310
003FFF0003FFFFFFFFC0007FFFFFE00070008000FFFFFFC0007FFF0000007FF8
310
000003FFFF80007F0001FFFFFF8000F8000FFFFFF8000FF8000001FFFE000000
310
7FFFFFF0001FFFFFFE0001FFFFFFC0003FFE0001FFFFFFC0003FFF0003FFFFFF
310
FFC000FFFFFFE00070008000FFFFFFC0007FFF0000007FF8000003FFFF80007F
310
0001FFFFFF8000F8001FFFFFF8000FF8000001FFFE0000007FFFFFF0001FFFFF
310
FE0003FFFFFFE0003FFE0003FFFFFFE0003FFF0003FFFFFFFFC000FFFFFFE000
310
70008000FFFFFFC0007FFE0000007FF8000003FFFF80007F0001FFFFFF8000F0
310
001FFFFFF8000FF8000001FFFE0000007FFFFFF0001FFFFFFC0003FFFFFFE000
310
1FFC0003FFFFFFE0001FFF0003FFFFFFFFC000FFFFFFC00070008000FFFFFF80
310
007FFE0000007FF0000003FFFF80007F0001FFFFFF0000F0001FFFFFF8000FF8
310
000001FFFE0000007FFFFFF0001FFFFFFC0007FFFFFFF0001FFC0007FFFFFFF0
310
001FFF0003FFFFFFFFC000FFFFFFC00070008001FFFFFF0000FFFE0000003FF0
310
000001FFFF80007F0001FFFFFF0000F8001FFFFFF0000FF8000001FFFE000000
310
7FFFFFF0001FFFFFFC0007FFFFFFF0001FFC0007FFFFFFF0001FFF0003FFFFFF
310
FFC001FFFFFF80007000FFFFFFFFFE0000FFFE0008003FF0008001FFFF80007F
310
FFFFFFFFFC0000FFFFFFFFFFE0000FF8000001FFFE0000007FFFFFF0001FFFFF
310
F8000FFFFFFFF8000FF8000FFFFFFFF8000FFF0003FFFFFFFFFFFFFFFFFF0000
310
7000FFFFFFFFFC0000FFFC0008003FF0008001FFFF80007FFFFFFFFFF80001FF
310
FFFFFFFF80000FF8000001FFFE0000007FFFFFF0001FFFFFF8000FFFFFFFF800
310
0FF8000FFFFFFFF8000FFF0003FFFFFFFFFFFFFFFFFE0000F000FFFFFFFFE000
310
00FFFC000C003FE000C001FFFF80007FFFFFFFFFC00001FFFFFFFFFE00001FF8
310
000001FFFE0000007FFFFFF0001FFFFFF8000FFFFFFFF8000FF8000FFFFFFFF8
310
000FFF0003FFFFFFFFFFFFFFFFF00000F000FFFFFFFE000001FFFC000C001FE0
310
00C000FFFF80007FFFFFFFFE000001FFFFFFFFE000001FF80FFFFFFFFFFFFFC0
310
7FFFFFF0001FFFFFF8000FFFFFFFF8000FF8000FFFFFFFF8000FFF0003FFFFFF
310
FFFFFFFFFF800000F000FFFFFFC0000001FFFC001C001FE001C000FFFF80007F
310
FFFFFF80000003FFFFFFF80000001FF80FFFFFFFFFFFFFC07FFFFFF0001FFFFF
310
F8001FFFFFFFFC000FF8001FFFFFFFFC000FFF0003FFFFFFFFFFFFFFF0000001
310
F000FFFFF800000001FFF8001C001FE001C000FFFF80007FFFFFF800000003FF
310
FFFF800000003FF80FFFFFFFFFFFFFC07FFFFFF0001FFFFFF8001FFFFFFFFC00
310
0FF8001FFFFFFFFC000FFF0003FFFFFFFFFFFFFE00000001F000FFFFC0000000
310
03FFF8001E001FC001E000FFFF80007FFFFF8000000007FFFFFC000000003FF8
310
0FFFFFFFFFFFFFC07FFFFFF0001FFFFFF8001FFFFFFFFC000FF8001FFFFFFFFC
310
000FFF0003FFFFFFFFFFFFE000000003F000FFFE0000000007FFF8001E000FC0
310
01E0007FFF80007FFFFE0000000007FFFFE0000000007FF80FFFFFFFFFFFFFC0
310
7FFFFFF0001FFFFFF0001FFFFFFFFC0007F0001FFFFFFFFC0007FF0003FFFFFF
310
FFFFFF0000000003F000FFF80000000007FFF8001E000FC003E0007FFF80007F
310
FFF0000000000FFFFF8000000000FFF80FFFFFFFFFFFFFC07FFFFFF0001FFFFF
310
F0001FFFFFFFFC0007F0001FFFFFFFFC0007FF0003FFFFFFFFFFFC0000000007
310
F000FFE0000000000FFFF0003E000FC003E0007FFF80007FFFC0000000001FFF
310
FE0000000001FFF80FFFFFFFFFFFFFC07FFFFFF0001FFFFFF0001FFFFFFFFC00
310
07F0001FFFFFFFFC0007FF0003FFFFFFFFFFF0000000000FF000FFC000000000
310
1FFFF0003F000F8003F0003FFF80007FFF80000000003FFFF80000000003FFF8
310
0FFFFFFFFFFFFFC07FFFFFF0001FFFFFF0001FFFFFFFFC0007F0001FFFFFFFFC
310
0007FF0003FFFFFFFFFFE0000000001FF000FF00000000007FFFF0003F000780
310
03F0003FFF80007FFF00000000007FFFF00000000007FFF80FFFFFFFFFFFFFC0
310
7FFFFFF0001FFFFFF0001FFFFFFFFC0007F0001FFFFFFFFC0007FF0003FFFFFF
310
FFFF80000000007FF000FE0000000000FFFFE0003F00078007F0003FFF80007F
310
FE0000000001FFFFE0000000001FFFF80FFFFFFFFFFFFFC07FFFFFF0001FFFFF
310
F0001FFFFFFFFC0007F0001FFFFFFFFC0007FF0003FFFFFFFFFF0000000000FF
310
F000FC0000000003FFFFE0007F00078007F0003FFF80007FFC0000000007FFFF
310
C0000000007FFFF80FFFFFFFFFFFFFC07FFFFFF0001FFFFFF8001FFFFFFFFC00
310
0FF8001FFFFFFFFC000FFF0003FFFFFFFFFE0000000003FFF000FC000000000F
310
FFFFE0007F80070007F8001FFF80007FF8000000001FFFFF8000000001FFFFF8
310
0FFFFFFFFFFFFFC07FFFFFF0001FFFFFF8001FFFFFFFFC000FF8001FFFFFFFFC
310
000FFF0003FFFFFFFFFC000000000FFFF000F8000000007FFFFFE0007F800700
310
07F8001FFF80007FF000000000FFFFFF800000000FFFFFF80FFFFFFFFFFFFFC0
310
7FFFFFF0001FFFFFF8000FFFFFFFF8000FF8000FFFFFFFF8000FFF0003FFFFFF
310
FFFC000000007FFFF000F800000007FFFFFFC0007F8003000FF8001FFF80007F
310
F000000007FFFFFF000000007FFFFFF80FFFFFFFFFFFFFC07FFFFFF0001FFFFF
310
F8000FFFFFFFF8000FF8000FFFFFFFF8000FFF0003FFFFFFFFF80000000FFFFF
310
F000F0000000FFFFFFFFC000FF8003000FF8001FFF80007FE0000000FFFFFFFF
310
0000000FFFFFFFF8000001FFFE0000007FFFFFF0001FFFFFF8000FFFFFFFF800
310
0FF8000FFFFFFFF8000FFF0003FFFFFFFFF8000000FFFFFFF000F000000FFFFF
310
FFFFC000FFC002000FF8000FFF80007FE000001FFFFFFFFE000001FFFFFFFFF8
310
000001FFFE0000007FFFFFF0001FFFFFF8000FFFFFFFF8000FF8000FFFFFFFF8
310
000FFF0003FFFFFFFFF000001FFFFFFFF000E00000FFFFFFFFFFC000FFC00200
310
0FFC000FFF80007FE00001FFFFFFFFFE00001FFFFFFFFFF8000001FFFE000000
310
7FFFFFF0001FFFFFFC000FFFFFFFF8001FFC000FFFFFFFF8001FFF0003FFFFFF
310
FFF00001FFFFFFFFF000E00007FFFFFFFFFF8000FFC000001FFC000FFF80007F
310
C0000FFFFFFFFFFE0000FFFFFFFFFFF8000001FFFE0000007FFFFFF0001FFFFF
310
FC0007FFFFFFF0001FFC0007FFFFFFF0001FFF0003FFFFFFFFF00007FFFFFFFF
310
F000E0001FFFFFFFFFFF8000FFC000001FFC000FFF80007FC0003FFFFFFFFFFE
310
0001FFFFFFFFFFF8000001FFFE0000007FFFFFF0001FFFFFFC0007FFFFFFF000
310
1FFC0007FFFFFFF0001FFF0003FFFFFFFFF0001FFFFFFFFFF000E0003FFFFF00
310
03FF8001FFE000001FFC0007FF80007FC0007FFFFF0007FC0003FFFFF0003FF8
310
000001FFFE0000007FFFFFF0001FFFFFFC0003FFFFFFE0001FFC0003FFFFFFE0
310
001FFF0003FFFFFFFFF0003FFFFFFFFFF000E0003FFFFF0001FF8001FFE00000
310
1FFE0007FF80007FC0007FFFFE0003FC0007FFFFE0003FF8000001FFFE000000
310
7FFFFFF0001FFFFFFE0003FFFFFFE0003FFE0003FFFFFFE0003FFF0003FFFFFF
310
FFF0003FFFFF8001F000E0003FFFFF0001FF0001FFE000001FFE0007FF80007F
310
C0007FFFFE0003FC0007FFFFE0003FF8000001FFFE0000007FFFFFF0001FFFFF
310
FE0001FFFFFFC0003FFE0001FFFFFFC0003FFF0003FFFFFFFFF0003FFFFF0001
310
F000E0003FFFFF0003FF0001FFE000003FFE0007FF80007FC0007FFFFE0003FC
310
0007FFFFE0003FF8000001FFFE0000007FFFFFF0001FFFFFFF0001FFFFFFC000
310
7FFF0001FFFFFFC0007FFF0003FFFFFFFFF0003FFFFF0001F000E0003FFFFE00
310
03FF0003FFF000003FFE0003FF80007FC0007FFFFC0003FE0007FFFFE0003FF8
310
000001FFFE0000007FFFFFF0001FFFFFFF0000FFFFFF80007FFF0000FFFFFF80
310
007FFF0003FFFFFFFFF0003FFFFF0001F000E0003FFFFE0003FF0003FFF00000
310
3FFF0003FF80007FC0007FFFFC0007FE0007FFFFC0003FF8000001FFFE000000
310
7FFFFFF0001FFFFFFF80007FFFFF0000FFFF80007FFFFF0000FFFF0003FFFFFF
310
FFF0003FFFFF0003F000E0003FFFFC0003FE0003FFF000003FFF0003FF80007F
310
E0003FFFF80007FE0003FFFFC0007FF8000001FFFE0000007FFFFFF0001FFFFF
310
FF80003FFFFE0000FFFF80003FFFFE0000FFFF0003FFFFFFFFF0001FFFFE0003
310
F000F0001FFFF80003FE0003FFF000007FFF0001FF80007FE0003FFFF00007FE
310
0001FFFF80007FF8000001FFFE0000007FFFFFF0001FFFFFFFC0000FFFF80001
310
FFFFC0000FFFF80001FFFF0003FFFFFFFFF0001FFFFC0003F000F0000FFFF000
310
07FE0007FFF800007FFF0001FF80007FE0001FFFE00007FF0000FFFE00007FF8
310
000001FFFE0000007FFFFFF0001FFFFFFFC00003FFE00001FFFFC00003FFE000
310
01FFFF0003FFFFFFFFF8000FFFF80003F000F00003FFC00007FC0007FFF80000
310
7FFF8001FF80007FF00007FF80000FFF00007FF80000FFF8000001FFFE000000
310
7F80000000000001FFE000003E000003FFFFE000003E000003FFFF0003FFFFFF
310
FFF80003FFE00007F000F800000000000FFC0007FFF800007FFF8001FF80007F
310
F000000000000FFF000000000000FFF8000001FFFE0000007F80000000000001
310
FFF0000000000007FFFFF0000000000007FFFF0003FFFFFFFFFC00007E000007
310
F000F800000000000FFC0007FFF80000FFFF8000FF80007FF800000000001FFF
310
800000000001FFF8000001FFFE0000007F80000000000001FFF800000000000F
310
FFFFF800000000000FFFFF0003FFFFFFFFFC00000000000FF000FC0000000000
310
1FFC0007FFFC0000FFFF8000FF80007FF800000000003FFFC00000000001FFF8
310
000001FFFE0000007F80000000000001FFF800000000000FFFFFF80000000000
310
0FFFFF0003FFFFFFFFFE00000000001FF000FE00000000003FF8000FFFFC0000
310
FFFF8000FF80007FFC00000000003FFFC00000000003FFF8000001FFFE000000
310
7F80000000000001FFFC00000000001FFFFFFC00000000001FFFFF0003FFFFFF
310
FFFF00000000001FF000FF00000000003FF8000FFFFC0000FFFFC000FF80007F
310
FE00000000007FFFE00000000007FFF8000001FFFE0000007F80000000000001
310
FFFE00000000003FFFFFFE00000000003FFFFF0003FFFFFFFFFF80000000003F
310
F000FF80000000007FF8000FFFFC0001FFFFC0007F80007FFF0000000000FFFF
310
F0000000000FFFF800000000000000007F80000000000001FFFF8000000000FF
310
FFFFFF8000000000FFFFFF0003FFFFFFFFFFC0000000007FF000FFC000000000
310
FFF8000FFFFE0001FFFFC0007F80007FFF8000000001FFFFF8000000001FFFF8
310
00000000000000007F80000000000001FFFFC000000001FFFFFFFFC000000001
310
FFFFFF0003FFFFFFFFFFE000000000FFF000FFE000000003FFF0001FFFFE0001
310
FFFFC0007F80007FFFC000000007FFFFFE000000003FFFF80000000000000000
310
7F80000000000001FFFFE000000003FFFFFFFFE000000003FFFFFF0003FFFFFF
310
FFFFF000000003FFF000FFF80000000FFFF0001FFFFE0001FFFFE0007F80007F
310
FFF00000000FFFFFFF00000000FFFFF800000000000000007F80000000000001
310
FFFFF80000000FFFFFFFFFF80000000FFFFFFF0003FFFFFFFFFFFC0000000FFF
310
F000FFFE0000003FFFF0001FFFFE0003FFFFE0003F80007FFFFC0000003FFFFF
310
FFC0000003FFFFF800000000000000007F80000000000001FFFFFE0000003FFF
310
FFFFFFFE0000003FFFFFFF0003FFFFFFFFFFFF0000003FFFF000FFFF800000FF
310
FFF0001FFFFF0003FFFFE0003F80007FFFFF000001FFFFFFFFF800001FFFFFF8
310
00000000000000007F80000000000001FFFFFFC00001FFFFFFFFFFFFC00001FF
310
FFFFFF0003FFFFFFFFFFFFC00000FFFFF000FFFFF8000FFFFFFFFFFFFFFFFFFF
310
FFFFFFFFFFFFFFFFFFFFF0001FFFFFFFFFFF0000FFFFFFF80000000000000000
310
7FFFFFFFFFFFFFFFFFFFFFFC001FFFFFFFFFFFFFFC001FFFFFFFFFFFFFFFFFFF
310
FFFFFFFC001FFFFFF000FFFFFFFFFFFFFFFFFFFFFFFFFFFFFFFFFFFFFFFFFFFF
310
FFFFFFFFFFFFFFFFFFFFFFFFFFFFFFFFFFFFFFFFFFFFFFFFFFFFFFFFFFFFFFFF
310
FFFFFFFFFFFFFFFFFFFFFFFFFFFFFFFFFFFFFFFFFFFFFFFFFFFFFFFFFFFFFFFF
310
F000FFFFFFFFFFFFFFFFFFFFFFFFFFFFFFFFFFFFFFFFFFFFFFFFFFFFFFFFFFFF
310
FFFFFFFFFFFFFFFFFFFFFFFFFFFFFFFFFFFFFFFFFFFFFFFFFFFFFFFFFFFFFFFF
310
FFFFFFFFFFFFFFFFFFFFFFFFFFFFFFFFFFFFFFFFFFFFFFFFF000FFFFFFFFFFFF
310
FFFFFFFFFFFFFFFFFFFFFFFFFFFFFFFFFFFFFFFFFFFFFFFFFFFFFFFFFFFFFFFF
310
FFFFFFFFFFFFFFFFFFFFFFFFFFFFFFFFFFFFFFFFFFFFFFFFFFFFFFFFFFFFFFFF
310
FFFFFFFFFFFFFFFFFFFFFFFFFFFFFFFFF000FFFFFFFFFFFFFFFFFFFFFFFFFFFF
310
FFFFFFFFFFFFFFFFFFFFFFFFFFFFFFFFFFFFFFFFFFFFFFFFFFFFFFFFFFFFFFFF
310
FFFFFFFFFFFFFFFFFFFFFFFFFFFFFFFFFFFFFFFFFFFFFFFFFFFFFFFFFFFFFFFF
310
FFFFFFFFFFFFFFFFF000FFFFFFFFFFFFFFFFFFFFFFFFFFFFFFFFFFFFFFFFFFFF
310
FFFFFFFFFFFFFFFFFFFFFFFFFFFFFFFFFFFFFFFFFFFFFFFFFFFFFFFFFFFFFFFF
310
FFFFFFFFFFFFFFFFFFFFFFFFFFFFFFFFFFFFFFFFFFFFFFFFFFFFFFFFFFFFFFFF
310
F000FFFFFFFFFFFFFFFFFFFFFFFFFFFFFFFFFFFFFFFFFFFFFFFFFFFFFFFFFFFF
310
FFFFFFFFFFFFFFFFFFFFFFFFFFFFFFFFFFFFFFFFFFFFFFFFFFFFFFFFFFFFFFFF
310
FFFFFFFFFFFFFFFFFFFFFFFFFFFFFFFFFFFFFFFFFFFFFFFFF000FFFFFFFFFFFF
310
FFFFFFFFFFFFFFFFFFFFFFFFFFFFFFFFFFFFFFFFFFFFFFFFFFFFFFFFFFFFFFFF
310
FFFFFFFFFFFFFFFFFFFFFFFFFFFFFFFFFFFFFFFFFFFFFFFFFFFFFFFFFFFFFFFF
310
FFFFFFFFFFFFFFFFFFFFFFFFFFFFFFFFF000FFFFFFFFFFFFFFFFFFFFFFFFFFFF
310
FFFFFFFFFFFFFFFFFFFFFFFFFFFFFFFFFFFFFFFFFFFFFFFFFFFFFFFFFFFFFFFF
310
FFFFFFFFFFFFFFFFFFFFFFFFFFFFFFFFFFFFFFFFFFFFFFFFFFFFFFFFFFFFFFFF
310
FFFFFFFFFFFFFFFFF000FFFFFFFFFFFFFFFFFFFFFFFFFFFFFFFFFFFFFFFFFFFF
310
FFFFFFFFFFFFFFFFFFFFFFFFFFFFFFFFFFFFFFFFFFFFFFFFFFFFFFFFFFFFFFFF
310
FFFFFFFFFFFFFFFFFFFFFFFFFFFFFFFFFFFFFFFFFFFFFFFFFFFFFFFFFFFFFFFF
310
F000FFFFFFFFFFFFFFFFFFFFFFFFFFFFFFFFFFFFFFFFFFFFFFFFFFFFFFFFFFFF
310
FFFFFFFFFFFFFFFFFFFFFFFFFFFFFFFFFFFFFFFFFFFFFFFFFFFFFFFFFFFFFFFF
310
FFFFFFFFFFFFFFFFFFFFFFFFFFFFFFFFFFFFFFFFFFFFFFFFF000FFFFFFFFFFFF
310
FFFFFFFFFFFFFFFFFFFFFFFFFFFFFFFFFFFFFFFFFFFFFFFFFFFFFFFFFFFFFFFF
310
FFFFFFFFFFFFFFFFFFFFFFFFFFFFFFFFFFFFFFFFFFFFFFFFFFFFFFFFFFFFFFFF
310
FFFFFFFFFFFFFFFFFFFFFFFFFFFFFFFFF000FFFFFFFFFFFFFFFFFFFFFFFFFFFF
310
FFFFFFFFFFFFFFFFFFFFFFFFFFFFFFFFFFFFFFFFFFFFFFFFFFFFFFFFFFFFFFFF
310
FFFFFFFFFFFFFFFFFFFFFFFFFFFFFFFFFFFFFFFFFFFFFFFFFFFFFFFFFFFFFFFF
310
FFFFFFFFFFFFFFFFF000FFFFFFFFFFFFFFFFFFFFFFFFFFFFFFFFFFFFFFFFFFFF
310
FFFFFFFFFFFFFFFFFFFFFFFFFFFFFFFFFFFFFFFFFFFFFFFFFFFFFFFFFFFFFFFF
310
FFFFFFFFFFFFFFFFFFFFFFFFFFFFFFFFFFFFFFFFFFFFFFFFFFFFFFFFFFFFFFFF
310
F000FFFFFFFFFFFFFFFFFFFFFFFFFFFFFFFFFFFFFFFFFFFFFFFFFFFFFFFFFFFF
310
FFFFFFFFFFFFFFFFFFFFFFFFFFFFFFFFFFFFFFFFFFFFFFFFFFFFFFFFFFFFFFFF
310
FFFFFFFFFFFFFFFFFFFFFFFFFFFFFFFFFFFFFFFFFFFFFFFFF000FFFFFFFFFFFF
310
FFFFFFFFFFFFFFFFFFFFFFFFFFFFFFFFFFFFFFFFFFFFFFFFFFFFFFFFFFFFFFFF
310
FFFFFFFFFFFFFFFFFFFFFFFFFFFFFFFFFFFFFFFFFFFFFFFFFFFFFFFFFFFFFFFF
310
FFFFFFFFFFFFFFFFFFFFFFFFFFFFFFFFF000FFFFFFFFFFFFFFFFFFFFFFFFFFFF
310
FFFFFFFFFFFFFFFFFFFFFFFFFFFFFFFFFFFFFFFFFFFFFFFFFFFFFFFFFFFFFFFF
310
FFFFFFFFFFFFFFFFFFFFFFFFFFFFFFFFFFFFFFFFFFFFFFFFFFFFFFFFFFFFFFFF
310
FFFFFFFFFFFFFFFFF000FFFFFFFFFFFFFFFFFFFFFFFFFFFFFFFFFFFFFFFFFFFF
310
FFFFFFFFFFFFFFFFFFFFFFFFFFFFFFFFFFFFFFFFFFFFFFFFFFFFFFFFFFFFFFFF
310
FFFFFFFFFFFFFFFFFFFFFFFFFFFFFFFFFFFFFFFFFFFFFFFFFFFFFFFFFFFFFFFF
310
F000FFFFFFFFFFFFFFFFFFFFFFFFFFFFFFFFFFFFFFFFFFFFFFFFFFFFFFFFFFFF
310
FFFFFFFFFFFFFFFFFFFFFFFFFFFFFFFFFFFFFFFFFFFFFFFFFFFFFFFFFFFFFFFF
310
FFFFFFFFFFFFFFFFFFFFFFFFFFFFFFFFFFFFFFFFFFFFFFFFF000FFFFFFFFFFFF
310
FFFFFFFFFFFFFFFFFFFFFFFFFFFFFFFFFFFFFFFFFFFFFFFFFFFFFFFFFFFFFFFF
310
FFFFFFFFFFFFFFFFFFFFFFFFFFFFFFFFFFFFFFFFFFFFFFFFFFFFFFFFFFFFFFFF
310
FFFFFFFFFFFFFFFFFFFFFFFFFFFFFFFFF000FFFFFFFFFFFFFFFFFFFFFFFFFFFF
310
FFFFFFFFFFFFFFFFFFFFFFFFFFFFFFFFFFFFFFFFFFFFFFFFFFFFFFFFFFFFFFFF
310
FFFFFFFFFFFFFFFFFFFFFFFFFFFFFFFFFFFFFFFFFFFFFFFFFFFFFFFFFFFFFFFF
310
FFFFFFFFFFFFFFFFF000FFFFFFFFFFFFFFFFFFFFFFFFFFFFFFFFFFFFFFFFFFFF
310
FFFFFFFFFFFFFFFFFFFFFFFFFFFFFFFFFFFFFFFFFFFFFFFFFFFFFFFFFFFFFFFF
310
FFFFFFFFFFFFFFFFFFFFFFFFFFFFFFFFFFFFFFFFFFFFFFFFFFFFFFFFFFFFFFFF
310
F000FFFFFFFFFFFFFFFFFFFFFFFFFFFFFFFFFFFFFFFFFFFFFFFFFFFFFFFFFFFF
310
FFFFFFFFFFFFFFFFFFFFFFFFFFFFFFFFFFFFFFFFFFFFFFFFFFFFFFFFFFFFFFFF
310
FFFFFFFFFFFFFFFFFFFFFFFFFFFFFFFFFFFFFFFFFFFFFFFFF000FFFFFFFFFFFF
310
FFFFFFFFFFFFFFFFFFFFFFFFFFFFFFFFFFFFFFFFFFFFFFFFFFFFFFFFFFFFFFFF
310
FFFFFFFFFFFFFFFFFFFFFFFFFFFFFFFFFFFFFFFFFFFFFFFFFFFFFFFFFFFFFFFF
310
FFFFFFFFFFFFFFFFFFFFFFFFFFFFFFFFF0000000000000000000000000000000
310
000000008708CA3D63F6643EE0E4C33D464D6A3E4950C43D83D7643E8708CA3D
310
B059643E4BF8C83D456E643E87E0C43D63F6643EE0E4C33D147B6A3EC9E6C93D
310
C64D6A3E6776CA3D464D6A3EA88CF73DF3E6643E48F9F73D13C8643EA1D5F13D
310
563E6A3EC167F13D563E6A3EC167F13DA46B6A3E5FF7F13DF3E6643E48F9F73D
310
D55E643EA2FDF63D404A643EDDE5F23D13C8643EA1D5F13D0000000001000000
310
0100000001000000010000000100000001000000010000000100000001000000
310
0100000001000000010000000100000001000000010000000100000001000000
310
0100000001000000000000000100000001000000010000000100000001000000
310
0100000001000000010000000100000001000000010000000100000001000000
310
0100000001000000010000000100000001000000010000000000000001000000
310
0100000001000000010000000100000001000000010000000100000001000000
310
0100000001000000010000000100000001000000010000000100000001000000
310
0100000000000000010000000000000001000000010000000100000001000000
310
0100000001000000010000000000000001000000000000000100000000000000
310
0100000001000000010000000100000001000000010000000100000001000000
  1
OLE
  0
ENDSEC
  0
SECTION
  2
OBJECTS
  0
DICTIONARY
  5
C
330
0
100
AcDbDictionary
281
     1
  3
ACAD_GROUP
350
D
  3
ACAD_LAYOUT
350
1A
  3
ACAD_MLEADERSTYLE
350
23B
  3
ACAD_MLINESTYLE
350
17
  3
ACAD_PLOTSETTINGS
350
19
  3
ACAD_PLOTSTYLENAME
350
E
  3
ACAD_TABLESTYLE
350
23A
  3
ACAD_VISUALSTYLE
350
2A
  3
AcDbVariableDictionary
350
23C
  0
DICTIONARY
  5
D
102
{ACAD_REACTORS
330
C
102
}
330
C
100
AcDbDictionary
281
     1
  0
DICTIONARY
  5
1A
102
{ACAD_REACTORS
330
C
102
}
330
C
100
AcDbDictionary
281
     1
  3
Layout1
350
1E
  3
Layout2
350
26
  3
Model
350
22
  0
DICTIONARY
  5
23B
102
{ACAD_REACTORS
330
C
102
}
330
C
100
AcDbDictionary
281
     1
  0
DICTIONARY
  5
17
102
{ACAD_REACTORS
330
C
102
}
330
C
100
AcDbDictionary
281
     1
  3
Standard
350
18
  0
DICTIONARY
  5
19
102
{ACAD_REACTORS
330
C
102
}
330
C
100
AcDbDictionary
281
     1
  0
ACDBDICTIONARYWDFLT
  5
E
102
{ACAD_REACTORS
330
C
102
}
330
C
100
AcDbDictionary
281
     1
  3
Normal
350
F
100
AcDbDictionaryWithDefault
340
F
  0
DICTIONARY
  5
23A
102
{ACAD_REACTORS
330
C
102
}
330
C
100
AcDbDictionary
281
     1
  0
DICTIONARY
  5
2A
102
{ACAD_REACTORS
330
C
102
}
330
C
100
AcDbDictionary
281
     1
  3
2dWireframe
350
2F
  3
3D Hidden
350
31
  3
3dWireframe
350
30
  3
Basic
350
32
  3
Brighten
350
36
  3
ColorChange
350
3A
  3
Conceptual
350
34
  3
Dim
350
35
  3
Facepattern
350
39
  3
Flat
350
2B
  3
FlatWithEdges
350
2C
  3
Gouraud
350
2D
  3
GouraudWithEdges
350
2E
  3
Linepattern
350
38
  3
Realistic
350
33
  3
Thicken
350
37
  0
DICTIONARY
  5
23C
102
{ACAD_REACTORS
330
C
102
}
330
C
100
AcDbDictionary
281
     1
  3
PSOLHEIGHT
350
23E
  3
PSOLWIDTH
350
23D
  0
LAYOUT
  5
1E
102
{ACAD_REACTORS
330
1A
102
}
330
1A
100
AcDbPlotSettings
  1

  2
none_device
  4

  6

 40
0.0
 41
0.0
 42
0.0
 43
0.0
 44
0.0
 45
0.0
 46
0.0
 47
0.0
 48
0.0
 49
0.0
140
0.0
141
0.0
142
1.0
143
1.0
 70
   688
 72
     0
 73
     0
 74
     5
  7

 75
    16
147
1.0
148
0.0
149
0.0
100
AcDbLayout
  1
Layout1
 70
     1
 71
     1
 10
0.0
 20
0.0
 11
420.0
 21
297.0
 12
0.0
 22
0.0
 32
0.0
 14
1.0000000000E+20
 24
1.0000000000E+20
 34
1.0000000000E+20
 15
-1.0000000000E+20
 25
-1.0000000000E+20
 35
-1.0000000000E+20
146
0.0
 13
0.0
 23
0.0
 33
0.0
 16
1.0
 26
0.0
 36
0.0
 17
0.0
 27
1.0
 37
0.0
 76
     0
330
1B
  0
LAYOUT
  5
26
102
{ACAD_REACTORS
330
1A
102
}
330
1A
100
AcDbPlotSettings
  1

  2
none_device
  4

  6

 40
0.0
 41
0.0
 42
0.0
 43
0.0
 44
0.0
 45
0.0
 46
0.0
 47
0.0
 48
0.0
 49
0.0
140
0.0
141
0.0
142
1.0
143
1.0
 70
   688
 72
     0
 73
     0
 74
     5
  7

 75
    16
147
1.0
148
0.0
149
0.0
100
AcDbLayout
  1
Layout2
 70
     1
 71
     2
 10
0.0
 20
0.0
 11
0.0
 21
0.0
 12
0.0
 22
0.0
 32
0.0
 14
0.0
 24
0.0
 34
0.0
 15
0.0
 25
0.0
 35
0.0
146
0.0
 13
0.0
 23
0.0
 33
0.0
 16
1.0
 26
0.0
 36
0.0
 17
0.0
 27
1.0
 37
0.0
 76
     0
330
23
  0
LAYOUT
  5
22
102
{ACAD_REACTORS
330
1A
102
}
330
1A
100
AcDbPlotSettings
  1

  2
none_device
  4

  6

 40
0.0
 41
0.0
 42
0.0
 43
0.0
 44
0.0
 45
0.0
 46
0.0
 47
0.0
 48
0.0
 49
0.0
140
0.0
141
0.0
142
1.0
143
1.0
 70
  1712
 72
     0
 73
     0
 74
     0
  7

 75
     0
147
1.0
148
0.0
149
0.0
100
AcDbLayout
  1
Model
 70
     1
 71
     0
 10
0.0
 20
0.0
 11
297.0
 21
210.0
 12
0.0
 22
0.0
 32
0.0
 14
0.0
 24
0.0
 34
0.0
 15
297.0
 25
210.0
 35
0.0
146
0.0
 13
0.0
 23
0.0
 33
0.0
 16
1.0
 26
0.0
 36
0.0
 17
0.0
 27
1.0
 37
0.0
 76
     0
330
1F
331
29
  0
MLINESTYLE
  5
18
102
{ACAD_REACTORS
330
17
102
}
330
17
100
AcDbMlineStyle
  2
Standard
 70
     0
  3

 62
   256
 51
90.0
 52
90.0
 71
     2
 49
0.5
 62
   256
  6
BYLAYER
 49
-0.5
 62
   256
  6
BYLAYER
  0
ACDBPLACEHOLDER
  5
F
102
{ACAD_REACTORS
330
E
102
}
330
E
  0
VISUALSTYLE
  5
2F
102
{ACAD_REACTORS
330
2A
102
}
330
2A
100
AcDbVisualStyle
  2
2dWireframe
 70
     4
 71
     0
 72
     2
 73
     0
 90
        0
 40
-0.6
 41
-30.0
 62
     5
 63
     7
 74
     1
 91
        4
 64
     7
 65
   257
 75
     1
175
     1
 42
1.0
 92
        0
 66
   257
 43
1.0
 76
     1
 77
     6
 78
     2
 67
     7
 79
     5
170
     0
171
     0
290
     0
174
     0
 93
        1
 44
0.0
173
     0
291
     0
 45
0.0
1001
ACAD
1000
AcDbSavedByObjectVersion
1070
     0
  0
VISUALSTYLE
  5
31
102
{ACAD_REACTORS
330
2A
102
}
330
2A
100
AcDbVisualStyle
  2
3D Hidden
 70
     6
 71
     1
 72
     2
 73
     2
 90
        0
 40
-0.6
 41
-30.0
 62
     5
 63
     7
 74
     2
 91
        2
 64
     7
 65
   257
 75
     2
175
     1
 42
40.0
 92
        0
 66
   257
 43
1.0
 76
     1
 77
     6
 78
     2
 67
     7
 79
     3
170
     0
171
     0
290
     0
174
     0
 93
        1
 44
0.0
173
     0
291
     0
 45
0.0
1001
ACAD
1000
AcDbSavedByObjectVersion
1070
     0
  0
VISUALSTYLE
  5
30
102
{ACAD_REACTORS
330
2A
102
}
330
2A
100
AcDbVisualStyle
  2
3dWireframe
 70
     5
 71
     0
 72
     2
 73
     0
 90
        0
 40
-0.6
 41
-30.0
 62
     5
 63
     7
 74
     1
 91
        4
 64
     7
 65
   257
 75
     1
175
     1
 42
1.0
 92
        0
 66
   257
 43
1.0
 76
     1
 77
     6
 78
     2
 67
     7
 79
     5
170
     0
171
     0
290
     0
174
     0
 93
        1
 44
0.0
173
     0
291
     0
 45
0.0
1001
ACAD
1000
AcDbSavedByObjectVersion
1070
     0
  0
VISUALSTYLE
  5
32
102
{ACAD_REACTORS
330
2A
102
}
330
2A
100
AcDbVisualStyle
  2
Basic
 70
     7
 71
     1
 72
     0
 73
     1
 90
        0
 40
-0.6
 41
-30.0
 62
     5
 63
     7
 74
     0
 91
        4
 64
     7
 65
   257
 75
     1
175
     1
 42
1.0
 92
        8
 66
     7
 43
1.0
 76
     1
 77
     6
 78
     2
 67
     7
 79
     5
170
     0
171
     0
290
     0
174
     0
 93
        1
 44
0.0
173
     0
291
     1
 45
0.0
1001
ACAD
1000
AcDbSavedByObjectVersion
1070
     0
  0
VISUALSTYLE
  5
36
102
{ACAD_REACTORS
330
2A
102
}
330
2A
100
AcDbVisualStyle
  2
Brighten
 70
    12
 71
     2
 72
     2
 73
     0
 90
        0
 40
-0.6
 41
-30.0
 62
     5
 63
     7
 74
     1
 91
        4
 64
     7
 65
   257
 75
     1
175
     1
 42
1.0
 92
        8
 66
     7
 43
1.0
 76
     1
 77
     6
 78
     2
 67
     7
 79
     5
170
     0
171
     0
290
     0
174
     0
 93
        1
 44
50.0
173
     0
291
     1
 45
0.0
1001
ACAD
1000
AcDbSavedByObjectVersion
1070
     0
  0
VISUALSTYLE
  5
3A
102
{ACAD_REACTORS
330
2A
102
}
330
2A
100
AcDbVisualStyle
  2
ColorChange
 70
    16
 71
     2
 72
     2
 73
     3
 90
        0
 40
-0.6
 41
-30.0
 62
     5
 63
     8
 74
     1
 91
        4
 64
     7
 65
   257
 75
     1
175
     1
 42
1.0
 92
        8
 66
     8
 43
1.0
 76
     1
 77
     6
 78
     2
 67
     7
 79
     5
170
     0
171
     0
290
     0
174
     0
 93
        1
 44
0.0
173
     0
291
     1
 45
0.0
1001
ACAD
1000
AcDbSavedByObjectVersion
1070
     0
  0
VISUALSTYLE
  5
34
102
{ACAD_REACTORS
330
2A
102
}
330
2A
100
AcDbVisualStyle
  2
Conceptual
 70
     9
 71
     3
 72
     2
 73
     0
 90
        0
 40
-0.6
 41
-30.0
 62
     5
 63
     7
 74
     2
 91
        2
 64
     7
 65
   257
 75
     1
175
     1
 42
40.0
 92
        8
 66
     7
 43
1.0
 76
     1
 77
     6
 78
     2
 67
     7
 79
     3
170
     0
171
     0
290
     0
174
     0
 93
        1
 44
0.0
173
     0
291
     0
 45
0.0
1001
ACAD
1000
AcDbSavedByObjectVersion
1070
     0
  0
VISUALSTYLE
  5
35
102
{ACAD_REACTORS
330
2A
102
}
330
2A
100
AcDbVisualStyle
  2
Dim
 70
    11
 71
     2
 72
     2
 73
     0
 90
        0
 40
-0.6
 41
-30.0
 62
     5
 63
     7
 74
     1
 91
        4
 64
     7
 65
   257
 75
     1
175
     1
 42
1.0
 92
        8
 66
     7
 43
1.0
 76
     1
 77
     6
 78
     2
 67
     7
 79
     5
170
     0
171
     0
290
     0
174
     0
 93
        1
 44
-50.0
173
     0
291
     1
 45
0.0
1001
ACAD
1000
AcDbSavedByObjectVersion
1070
     0
  0
VISUALSTYLE
  5
39
102
{ACAD_REACTORS
330
2A
102
}
330
2A
100
AcDbVisualStyle
  2
Facepattern
 70
    15
 71
     2
 72
     2
 73
     0
 90
        0
 40
-0.6
 41
-30.0
 62
     5
 63
     7
 74
     1
 91
        4
 64
     7
 65
   257
 75
     1
175
     1
 42
1.0
 92
        8
 66
     7
 43
1.0
 76
     1
 77
     6
 78
     2
 67
     7
 79
     5
170
     0
171
     0
290
     0
174
     0
 93
        1
 44
0.0
173
     0
291
     1
 45
0.0
1001
ACAD
1000
AcDbSavedByObjectVersion
1070
     0
  0
VISUALSTYLE
  5
2B
102
{ACAD_REACTORS
330
2A
102
}
330
2A
100
AcDbVisualStyle
  2
Flat
 70
     0
 71
     2
 72
     1
 73
     1
 90
        2
 40
-0.6
 41
30.0
 62
     5
 63
     7
 74
     0
 91
        4
 64
     7
 65
   257
 75
     1
175
     1
 42
1.0
 92
        8
 66
     7
 43
1.0
 76
     1
 77
     6
 78
     2
 67
     7
 79
     5
170
     0
171
     0
290
     0
174
     0
 93
       13
 44
0.0
173
     0
291
     1
 45
0.0
1001
ACAD
1000
AcDbSavedByObjectVersion
1070
     0
  0
VISUALSTYLE
  5
2C
102
{ACAD_REACTORS
330
2A
102
}
330
2A
100
AcDbVisualStyle
  2
FlatWithEdges
 70
     1
 71
     2
 72
     1
 73
     1
 90
        2
 40
-0.6
 41
30.0
 62
     5
 63
     7
 74
     1
 91
        4
 64
     7
 65
   257
 75
     1
175
     1
 42
1.0
 92
        0
 66
   257
 43
1.0
 76
     1
 77
     6
 78
     2
 67
     7
 79
     5
170
     0
171
     0
290
     0
174
     0
 93
       13
 44
0.0
173
     0
291
     1
 45
0.0
1001
ACAD
1000
AcDbSavedByObjectVersion
1070
     0
  0
VISUALSTYLE
  5
2D
102
{ACAD_REACTORS
330
2A
102
}
330
2A
100
AcDbVisualStyle
  2
Gouraud
 70
     2
 71
     2
 72
     2
 73
     1
 90
        2
 40
-0.6
 41
30.0
 62
     5
 63
     7
 74
     0
 91
        4
 64
     7
 65
   257
 75
     1
175
     1
 42
1.0
 92
        0
 66
     7
 43
1.0
 76
     1
 77
     6
 78
     2
 67
     7
 79
     5
170
     0
171
     0
290
     0
174
     0
 93
       13
 44
0.0
173
     0
291
     1
 45
0.0
1001
ACAD
1000
AcDbSavedByObjectVersion
1070
     0
  0
VISUALSTYLE
  5
2E
102
{ACAD_REACTORS
330
2A
102
}
330
2A
100
AcDbVisualStyle
  2
GouraudWithEdges
 70
     3
 71
     2
 72
     2
 73
     1
 90
        2
 40
-0.6
 41
30.0
 62
     5
 63
     7
 74
     1
 91
        4
 64
     7
 65
   257
 75
     1
175
     1
 42
1.0
 92
        0
 66
   257
 43
1.0
 76
     1
 77
     6
 78
     2
 67
     7
 79
     5
170
     0
171
     0
290
     0
174
     0
 93
       13
 44
0.0
173
     0
291
     1
 45
0.0
1001
ACAD
1000
AcDbSavedByObjectVersion
1070
     0
  0
VISUALSTYLE
  5
38
102
{ACAD_REACTORS
330
2A
102
}
330
2A
100
AcDbVisualStyle
  2
Linepattern
 70
    14
 71
     2
 72
     2
 73
     0
 90
        0
 40
-0.6
 41
-30.0
 62
     5
 63
     7
 74
     1
 91
        4
 64
     7
 65
   257
 75
     7
175
     7
 42
1.0
 92
        8
 66
     7
 43
1.0
 76
     1
 77
     6
 78
     2
 67
     7
 79
     5
170
     0
171
     0
290
     0
174
     0
 93
        1
 44
0.0
173
     0
291
     1
 45
0.0
1001
ACAD
1000
AcDbSavedByObjectVersion
1070
     0
  0
VISUALSTYLE
  5
33
102
{ACAD_REACTORS
330
2A
102
}
330
2A
100
AcDbVisualStyle
  2
Realistic
 70
     8
 71
     2
 72
     2
 73
     0
 90
        0
 40
-0.6
 41
-30.0
 62
     5
 63
     7
 74
     1
 91
        0
 64
     7
 65
   257
 75
     1
175
     1
 42
1.0
 92
        8
 66
     8
 43
1.0
 76
     1
 77
     6
 78
     2
 67
     7
 79
     5
170
     0
171
     0
290
     0
174
     0
 93
       13
 44
0.0
173
     0
291
     0
 45
0.0
1001
ACAD
1000
AcDbSavedByObjectVersion
1070
     0
  0
VISUALSTYLE
  5
37
102
{ACAD_REACTORS
330
2A
102
}
330
2A
100
AcDbVisualStyle
  2
Thicken
 70
    13
 71
     2
 72
     2
 73
     0
 90
        0
 40
-0.6
 41
-30.0
 62
     5
 63
     7
 74
     1
 91
        4
 64
     7
 65
   257
 75
     1
175
     1
 42
1.0
 92
       12
 66
     7
 43
1.0
 76
     1
 77
     6
 78
     2
 67
     7
 79
     5
170
     0
171
     0
290
     0
174
     0
 93
        1
 44
0.0
173
     0
291
     1
 45
0.0
1001
ACAD
1000
AcDbSavedByObjectVersion
1070
     0
  0
DICTIONARYVAR
  5
23E
102
{ACAD_REACTORS
330
23C
102
}
330
23C
100
DictionaryVariables
280
     0
  1
80.000000
  0
DICTIONARYVAR
  5
23D
102
{ACAD_REACTORS
330
23C
102
}
330
23C
100
DictionaryVariables
280
     0
  1
5.000000
  0
ENDSEC
  0
EOF
