  0
SECTION
  2
HEADER
  9
$ACADVER
  1
AC1015
  9
$ACADMAINTVER
 70
     6
  9
$DWGCODEPAGE
  3
ANSI_1252
  9
$INSBASE
 10
0.0
 20
0.0
 30
0.0
  9
$EXTMIN
 10
0.0
 20
0.0
 30
0.0
  9
$EXTMAX
 10
297.0
 20
210.0
 30
0.0
  9
$LIMMIN
 10
0.0
 20
0.0
  9
$LIMMAX
 10
297.0
 20
210.0
  9
$ORTHOMODE
 70
     0
  9
$REGENMODE
 70
     1
  9
$FILLMODE
 70
     1
  9
$QTEXTMODE
 70
     0
  9
$MIRRTEXT
 70
     1
  9
$LTSCALE
 40
1.0
  9
$ATTMODE
 70
     1
  9
$TEXTSIZE
 40
2.0
  9
$TRACEWID
 40
1.0
  9
$TEXTSTYLE
  7
Standard
  9
$CLAYER
  8
0
  9
$CELTYPE
  6
ByLayer
  9
$CECOLOR
 62
   256
  9
$CELTSCALE
 40
1.0
  9
$DISPSILH
 70
     0
  9
$DIMSCALE
 40
1.0
  9
$DIMASZ
 40
3.0
  9
$DIMEXO
 40
0.0
  9
$DIMDLI
 40
3.75
  9
$DIMRND
 40
0.0
  9
$DIMDLE
 40
0.0
  9
$DIMEXE
 40
1.0
  9
$DIMTP
 40
0.0
  9
$DIMTM
 40
0.0
  9
$DIMTXT
 40
2.0
  9
$DIMCEN
 40
2.5
  9
$DIMTSZ
 40
0.0
  9
$DIMTOL
 70
     0
  9
$DIMLIM
 70
     0
  9
$DIMTIH
 70
     1
  9
$DIMTOH
 70
     1
  9
$DIMSE1
 70
     0
  9
$DIMSE2
 70
     0
  9
$DIMTAD
 70
     1
  9
$DIMZIN
 70
     0
  9
$DIMBLK
  1

  9
$DIMASO
 70
     1
  9
$DIMSHO
 70
     1
  9
$DIMPOST
  1

  9
$DIMAPOST
  1

  9
$DIMALT
 70
     0
  9
$DIMALTD
 70
     3
  9
$DIMALTF
 40
0.0393700787
  9
$DIMLFAC
 40
1.0
  9
$DIMTOFL
 70
     1
  9
$DIMTVP
 40
0.0
  9
$DIMTIX
 70
     0
  9
$DIMSOXD
 70
     0
  9
$DIMSAH
 70
     0
  9
$DIMBLK1
  1

  9
$DIMBLK2
  1

  9
$DIMSTYLE
  2
ISO-25
  9
$DIMCLRD
 70
     0
  9
$DIMCLRE
 70
     0
  9
$DIMCLRT
 70
     0
  9
$DIMTFAC
 40
1.0
  9
$DIMGAP
 40
1.524
  9
$DIMJUST
 70
     0
  9
$DIMSD1
 70
     0
  9
$DIMSD2
 70
     0
  9
$DIMTOLJ
 70
     0
  9
$DIMTZIN
 70
     0
  9
$DIMALTZ
 70
     0
  9
$DIMALTTZ
 70
     0
  9
$DIMUPT
 70
     0
  9
$DIMDEC
 70
     2
  9
$DIMTDEC
 70
     3
  9
$DIMALTU
 70
     2
  9
$DIMALTTD
 70
     3
  9
$DIMTXSTY
  7
Standard
  9
$DIMAUNIT
 70
     0
  9
$DIMADEC
 70
     2
  9
$DIMALTRND
 40
0.0
  9
$DIMAZIN
 70
     0
  9
$DIMDSEP
 70
    44
  9
$DIMATFIT
 70
     3
  9
$DIMFRAC
 70
     0
  9
$DIMLDRBLK
  1

  9
$DIMLUNIT
 70
     2
  9
$DIMLWD
 70
    -2
  9
$DIMLWE
 70
    -2
  9
$DIMTMOVE
 70
     0
  9
$LUNITS
 70
     2
  9
$LUPREC
 70
     2
  9
$SKETCHINC
 40
1.0
  9
$FILLETRAD
 40
10.0
  9
$AUNITS
 70
     0
  9
$AUPREC
 70
     2
  9
$MENU
  1
.
  9
$ELEVATION
 40
0.0
  9
$PELEVATION
 40
0.0
  9
$THICKNESS
 40
0.0
  9
$LIMCHECK
 70
     0
  9
$CHAMFERA
 40
10.0
  9
$CHAMFERB
 40
10.0
  9
$CHAMFERC
 40
20.0
  9
$CHAMFERD
 40
0.0
  9
$SKPOLY
 70
     0
  9
$TDCREATE
 40
2455680.351714572
  9
$TDUCREATE
 40
2455680.268381238
  9
$TDUPDATE
 40
2455680.351714583
  9
$TDUUPDATE
 40
2455680.26838125
  9
$TDINDWG
 40
0.0000000116
  9
$TDUSRTIMER
 40
0.0000000116
  9
$USRTIMER
 70
     1
  9
$ANGBASE
 50
0.0
  9
$ANGDIR
 70
     0
  9
$PDMODE
 70
     0
  9
$PDSIZE
 40
-1.0
  9
$PLINEWID
 40
0.0
  9
$SPLFRAME
 70
     0
  9
$SPLINETYPE
 70
     6
  9
$SPLINESEGS
 70
     8
  9
$HANDSEED
  5
23C
  9
$SURFTAB1
 70
     6
  9
$SURFTAB2
 70
     6
  9
$SURFTYPE
 70
     6
  9
$SURFU
 70
     6
  9
$SURFV
 70
     6
  9
$UCSBASE
  2

  9
$UCSNAME
  2

  9
$UCSORG
 10
0.0
 20
0.0
 30
0.0
  9
$UCSXDIR
 10
1.0
 20
0.0
 30
0.0
  9
$UCSYDIR
 10
0.0
 20
1.0
 30
0.0
  9
$UCSORTHOREF
  2

  9
$UCSORTHOVIEW
 70
     0
  9
$UCSORGTOP
 10
0.0
 20
0.0
 30
0.0
  9
$UCSORGBOTTOM
 10
0.0
 20
0.0
 30
0.0
  9
$UCSORGLEFT
 10
0.0
 20
0.0
 30
0.0
  9
$UCSORGRIGHT
 10
0.0
 20
0.0
 30
0.0
  9
$UCSORGFRONT
 10
0.0
 20
0.0
 30
0.0
  9
$UCSORGBACK
 10
0.0
 20
0.0
 30
0.0
  9
$PUCSBASE
  2

  9
$PUCSNAME
  2

  9
$PUCSORG
 10
0.0
 20
0.0
 30
0.0
  9
$PUCSXDIR
 10
1.0
 20
0.0
 30
0.0
  9
$PUCSYDIR
 10
0.0
 20
1.0
 30
0.0
  9
$PUCSORTHOREF
  2

  9
$PUCSORTHOVIEW
 70
     0
  9
$PUCSORGTOP
 10
0.0
 20
0.0
 30
0.0
  9
$PUCSORGBOTTOM
 10
0.0
 20
0.0
 30
0.0
  9
$PUCSORGLEFT
 10
0.0
 20
0.0
 30
0.0
  9
$PUCSORGRIGHT
 10
0.0
 20
0.0
 30
0.0
  9
$PUCSORGFRONT
 10
0.0
 20
0.0
 30
0.0
  9
$PUCSORGBACK
 10
0.0
 20
0.0
 30
0.0
  9
$USERI1
 70
     0
  9
$USERI2
 70
     0
  9
$USERI3
 70
     0
  9
$USERI4
 70
     0
  9
$USERI5
 70
     0
  9
$USERR1
 40
0.0
  9
$USERR2
 40
0.0
  9
$USERR3
 40
0.0
  9
$USERR4
 40
0.0
  9
$USERR5
 40
0.0
  9
$WORLDVIEW
 70
     1
  9
$SHADEDGE
 70
     3
  9
$SHADEDIF
 70
    70
  9
$TILEMODE
 70
     1
  9
$MAXACTVP
 70
    64
  9
$PINSBASE
 10
0.0
 20
0.0
 30
0.0
  9
$PLIMCHECK
 70
     0
  9
$PEXTMIN
 10
1.0000000000E+20
 20
1.0000000000E+20
 30
1.0000000000E+20
  9
$PEXTMAX
 10
-1.0000000000E+20
 20
-1.0000000000E+20
 30
-1.0000000000E+20
  9
$PLIMMIN
 10
0.0
 20
0.0
  9
$PLIMMAX
 10
420.0
 20
297.0
  9
$UNITMODE
 70
     0
  9
$VISRETAIN
 70
     1
  9
$PLINEGEN
 70
     0
  9
$PSLTSCALE
 70
     1
  9
$TREEDEPTH
 70
  3020
  9
$CMLSTYLE
  2
Standard
  9
$CMLJUST
 70
     0
  9
$CMLSCALE
 40
20.0
  9
$PROXYGRAPHICS
 70
     1
  9
$MEASUREMENT
 70
     1
  9
$CELWEIGHT
370
    -1
  9
$ENDCAPS
280
     0
  9
$JOINSTYLE
280
     0
  9
$LWDISPLAY
290
     1
  9
$INSUNITS
 70
     4
  9
$HYPERLINKBASE
  1

  9
$STYLESHEET
  1

  9
$XEDIT
290
     1
  9
$CEPSNTYPE
380
     0
  9
$PSTYLEMODE
290
     1
  9
$FINGERPRINTGUID
  2
{6148C3D7-C9E7-4EC4-A6BA-5C57EBFEC88B}
  9
$VERSIONGUID
  2
{FAEB1C32-E019-11D5-929B-00C0DF256EC4}
  9
$EXTNAMES
290
     1
  9
$PSVPSCALE
 40
0.0
  9
$OLESTARTUP
290
     0
  0
ENDSEC
  0
SECTION
  2
CLASSES
  0
CLASS
  1
ACDBDICTIONARYWDFLT
  2
AcDbDictionaryWithDefault
  3
ObjectDBX Classes
 90
        0
280
     0
281
     0
  0
CLASS
  1
VISUALSTYLE
  2
AcDbVisualStyle
  3
ObjectDBX Classes
 90
     4095
280
     0
281
     0
  0
CLASS
  1
DICTIONARYVAR
  2
AcDbDictionaryVar
  3
ObjectDBX Classes
 90
        0
280
     0
281
     0
  0
CLASS
  1
ACDBPLACEHOLDER
  2
AcDbPlaceHolder
  3
ObjectDBX Classes
 90
        0
280
     0
281
     0
  0
CLASS
  1
LAYOUT
  2
AcDbLayout
  3
ObjectDBX Classes
 90
        0
280
     0
281
     0
  0
ENDSEC
  0
SECTION
  2
TABLES
  0
TABLE
  2
VPORT
  5
8
330
0
100
AcDbSymbolTable
 70
     1
  0
VPORT
  5
29
330
8
100
AcDbSymbolTableRecord
100
AcDbViewportTableRecord
  2
*Active
 70
     0
 10
0.0
 20
0.0
 11
1.0
 21
1.0
 12
148.5
 22
105.0
 13
0.0
 23
0.0
 14
10.0
 24
10.0
 15
10.0
 25
10.0
 16
0.0
 26
0.0
 36
1.0
 17
0.0
 27
0.0
 37
0.0
 40
210.0
 41
1.4142857143
 42
50.0
 43
0.0
 44
0.0
 50
0.0
 51
0.0
 71
     0
 72
  2000
 73
     1
 74
     3
 75
     0
 76
     0
 77
     0
 78
     0
281
     0
 65
     1
110
0.0
120
0.0
130
0.0
111
1.0
121
0.0
131
0.0
112
0.0
122
1.0
132
0.0
 79
     0
146
0.0
  0
ENDTAB
  0
TABLE
  2
LTYPE
  5
5
330
0
100
AcDbSymbolTable
 70
     6
  0
LTYPE
  5
14
330
5
100
AcDbSymbolTableRecord
100
AcDbLinetypeTableRecord
  2
ByBlock
 70
     0
  3

 72
    65
 73
     0
 40
0.0
  0
LTYPE
  5
15
330
5
100
AcDbSymbolTableRecord
100
AcDbLinetypeTableRecord
  2
ByLayer
 70
     0
  3

 72
    65
 73
     0
 40
0.0
  0
LTYPE
  5
16
330
5
100
AcDbSymbolTableRecord
100
AcDbLinetypeTableRecord
  2
Continuous
 70
     0
  3
Solid line
 72
    65
 73
     0
 40
0.0
  0
LTYPE
  5
3B
330
5
100
AcDbSymbolTableRecord
100
AcDbLinetypeTableRecord
  2
HIDDEN
 70
     0
  3
Hidden __ __ __ __ __ __ __ __ __ __ __ __ __ __
 72
    65
 73
     2
 40
1.905
 49
1.27
 74
     0
 49
-0.635
 74
     0
  0
LTYPE
  5
3C
330
5
100
AcDbSymbolTableRecord
100
AcDbLinetypeTableRecord
  2
PHANTOM
 70
     0
  3
Phantom ______  __  __  ______  __  __  ______
 72
    65
 73
     6
 40
12.7
 49
6.35
 74
     0
 49
-1.27
 74
     0
 49
1.27
 74
     0
 49
-1.27
 74
     0
 49
1.27
 74
     0
 49
-1.27
 74
     0
  0
LTYPE
  5
3D
330
5
100
AcDbSymbolTableRecord
100
AcDbLinetypeTableRecord
  2
CENTER
 70
     0
  3
Center ____ _ ____ _ ____ _ ____ _ ____ _ ____
 72
    65
 73
     4
 40
10.16
 49
6.35
 74
     0
 49
-1.27
 74
     0
 49
1.27
 74
     0
 49
-1.27
 74
     0
  0
LTYPE
  5
3E
330
5
100
AcDbSymbolTableRecord
100
AcDbLinetypeTableRecord
  2
CENTERX2
 70
     0
  3
Center (2x) ________  __  ________  __  _____
 72
    65
 73
     4
 40
20.32
 49
12.7
 74
     0
 49
-2.54
 74
     0
 49
2.54
 74
     0
 49
-2.54
 74
     0
  0
LTYPE
  5
3F
330
5
100
AcDbSymbolTableRecord
100
AcDbLinetypeTableRecord
  2
DOT2
 70
     0
  3
Dot (.5x) ........................................
 72
    65
 73
     2
 40
0.635
 49
0.0
 74
     0
 49
-0.635
 74
     0
  0
ENDTAB
  0
TABLE
  2
LAYER
  5
2
330
0
100
AcDbSymbolTable
 70
     5
  0
LAYER
  5
10
330
2
100
AcDbSymbolTableRecord
100
AcDbLayerTableRecord
  2
0
 70
     0
 62
     7
  6
Continuous
370
    -3
390
F
  0
LAYER
  5
40
330
2
100
AcDbSymbolTableRecord
100
AcDbLayerTableRecord
  2
FORMAT
 70
     0
 62
     7
  6
Continuous
370
    -3
390
F
  0
LAYER
  5
41
330
2
100
AcDbSymbolTableRecord
100
AcDbLayerTableRecord
  2
VERMASSUNG
 70
     0
 62
     7
  6
Continuous
370
    -3
390
F
  0
LAYER
  5
42
330
2
100
AcDbSymbolTableRecord
100
AcDbLayerTableRecord
  2
KOPF_DÜNN
 70
     0
 62
     7
  6
Continuous
370
    -3
390
F
  0
LAYER
  5
43
330
2
100
AcDbSymbolTableRecord
100
AcDbLayerTableRecord
  2
KOPF_DICK
 70
     0
 62
     7
  6
Continuous
370
    15
390
F
  0
ENDTAB
  0
TABLE
  2
STYLE
  5
3
330
0
100
AcDbSymbolTable
 70
     3
  0
STYLE
  5
11
330
3
100
AcDbSymbolTableRecord
100
AcDbTextStyleTableRecord
  2
Standard
 70
     0
 40
0.0
 41
1.0
 50
0.0
 71
     0
 42
2.5
  3
txt
  4

  0
STYLE
  5
44
330
3
100
AcDbSymbolTableRecord
100
AcDbTextStyleTableRecord
  2
SLDTEXTSTYLE0
 70
     0
 40
0.0
 41
0.7
 50
0.0
 71
     0
 42
0.2
  3
TXT
  4

  0
STYLE
  5
48
330
3
100
AcDbSymbolTableRecord
100
AcDbTextStyleTableRecord
  2
SLDTEXTSTYLE1
 70
     0
 40
0.0
 41
0.6473684211
 50
0.0
 71
     0
 42
0.2
  3
TXT
  4

  0
ENDTAB
  0
TABLE
  2
VIEW
  5
6
330
0
100
AcDbSymbolTable
 70
     0
  0
ENDTAB
  0
TABLE
  2
UCS
  5
7
330
0
100
AcDbSymbolTable
 70
     0
  0
ENDTAB
  0
TABLE
  2
APPID
  5
9
330
0
100
AcDbSymbolTable
 70
     1
  0
APPID
  5
12
330
9
100
AcDbSymbolTableRecord
100
AcDbRegAppTableRecord
  2
ACAD
 70
     0
  0
ENDTAB
  0
TABLE
  2
DIMSTYLE
  5
A
330
0
100
AcDbSymbolTable
 70
     5
100
AcDbDimStyleTable
  0
DIMSTYLE
105
27
330
A
100
AcDbSymbolTableRecord
100
AcDbDimStyleTableRecord
  2
ISO-25
 70
     0
 41
2.5
 42
0.625
 43
3.75
 44
1.25
 73
     0
 74
     0
 77
     1
 78
     8
140
2.5
141
2.5
143
0.0393700787
147
0.625
171
     3
172
     1
271
     2
272
     2
274
     3
278
    44
283
     0
284
     8
340
11
  0
DIMSTYLE
105
1DB
102
{ACAD_REACTORS
330
1DA
330
20C
330
216
330
220
330
22A
102
}
330
A
100
AcDbSymbolTableRecord
100
AcDbDimStyleTableRecord
  2
SLDDIMSTYLE0
 70
     0
 41
3.0
 44
0.0
 45
0.000000001
 73
     0
 74
     0
 77
     1
 78
    12
140
2.0
147
0.5
173
     1
271
     2
272
     3
284
    12
340
44
  0
DIMSTYLE
105
1E8
102
{ACAD_REACTORS
330
1E7
102
}
330
A
100
AcDbSymbolTableRecord
100
AcDbDimStyleTableRecord
  2
SLDDIMSTYLE1
 70
     0
 41
3.0
 44
0.0
 45
0.000000001
 73
     0
 74
     0
 77
     1
 78
    12
140
2.0
147
0.5
173
     1
271
     2
272
     2
284
    12
340
44
  0
DIMSTYLE
105
1F3
102
{ACAD_REACTORS
330
1F2
102
}
330
A
100
AcDbSymbolTableRecord
100
AcDbDimStyleTableRecord
  2
SLDDIMSTYLE2
 70
     0
 41
3.0
 44
0.0
 45
0.000000001
 73
     0
 74
     0
 77
     1
 78
    12
140
2.0
147
0.5
173
     1
271
     2
272
     2
284
    12
340
44
  0
DIMSTYLE
105
200
102
{ACAD_REACTORS
330
1FF
102
}
330
A
100
AcDbSymbolTableRecord
100
AcDbDimStyleTableRecord
  2
SLDDIMSTYLE3
 70
     0
 41
3.0
 44
0.0
 45
0.000000001
 73
     0
 74
     0
 77
     1
 78
    12
140
2.0
147
0.5
173
     1
271
     2
272
     3
284
    12
340
44
  0
ENDTAB
  0
TABLE
  2
BLOCK_RECORD
  5
1
330
0
100
AcDbSymbolTable
 70
     9
  0
BLOCK_RECORD
  5
1F
330
1
100
AcDbSymbolTableRecord
100
AcDbBlockTableRecord
  2
*Model_Space
340
22
  0
BLOCK_RECORD
  5
1B
330
1
100
AcDbSymbolTableRecord
100
AcDbBlockTableRecord
  2
*Paper_Space
340
1E
  0
BLOCK_RECORD
  5
23
330
1
100
AcDbSymbolTableRecord
100
AcDbBlockTableRecord
  2
*Paper_Space0
340
26
  0
BLOCK_RECORD
  5
1DC
330
1
100
AcDbSymbolTableRecord
100
AcDbBlockTableRecord
  2
*D1
340
0
  0
BLOCK_RECORD
  5
1E9
330
1
100
AcDbSymbolTableRecord
100
AcDbBlockTableRecord
  2
*D2
340
0
  0
BLOCK_RECORD
  5
1F4
330
1
100
AcDbSymbolTableRecord
100
AcDbBlockTableRecord
  2
*D3
340
0
  0
BLOCK_RECORD
  5
201
330
1
100
AcDbSymbolTableRecord
100
AcDbBlockTableRecord
  2
*D4
340
0
  0
BLOCK_RECORD
  5
20D
330
1
100
AcDbSymbolTableRecord
100
AcDbBlockTableRecord
  2
*D5
340
0
  0
BLOCK_RECORD
  5
217
330
1
100
AcDbSymbolTableRecord
100
AcDbBlockTableRecord
  2
*D6
340
0
  0
BLOCK_RECORD
  5
221
330
1
100
AcDbSymbolTableRecord
100
AcDbBlockTableRecord
  2
*D7
340
0
  0
BLOCK_RECORD
  5
22B
330
1
100
AcDbSymbolTableRecord
100
AcDbBlockTableRecord
  2
*D8
340
0
  0
ENDTAB
  0
ENDSEC
  0
SECTION
  2
BLOCKS
  0
BLOCK
  5
20
330
1F
100
AcDbEntity
  8
0
100
AcDbBlockBegin
  2
*Model_Space
 70
     0
 10
0.0
 20
0.0
 30
0.0
  3
*Model_Space
  1

  0
ENDBLK
  5
21
330
1F
100
AcDbEntity
  8
0
100
AcDbBlockEnd
  0
BLOCK
  5
1C
330
1B
100
AcDbEntity
 67
     1
  8
0
100
AcDbBlockBegin
  2
*Paper_Space
 70
     0
 10
0.0
 20
0.0
 30
0.0
  3
*Paper_Space
  1

  0
ENDBLK
  5
1D
330
1B
100
AcDbEntity
 67
     1
  8
0
100
AcDbBlockEnd
  0
BLOCK
  5
24
330
23
100
AcDbEntity
  8
0
100
AcDbBlockBegin
  2
*Paper_Space0
 70
     0
 10
0.0
 20
0.0
 30
0.0
  3
*Paper_Space0
  1

  0
ENDBLK
  5
25
330
23
100
AcDbEntity
  8
0
100
AcDbBlockEnd
  0
BLOCK
  5
1DD
330
1DC
100
AcDbEntity
  8
0
100
AcDbBlockBegin
  2
*D1
 70
     1
 10
0.0
 20
0.0
 30
0.0
  3
*D1
  1

  0
SOLID
  5
1DF
330
1DC
100
AcDbEntity
  8
VERMASSUNG
100
AcDbTrace
 10
79.1112676056
 20
137.7763813651
 30
0.0
 11
78.6612676056
 21
134.7763813651
 31
0.0
 12
79.5612676056
 22
134.7763813651
 32
0.0
 13
79.5612676056
 23
134.7763813651
 33
0.0
  0
SOLID
  5
1E0
330
1DC
100
AcDbEntity
  8
VERMASSUNG
100
AcDbTrace
 10
79.1112676056
 20
74.7763813651
 30
0.0
 11
79.5612676056
 21
77.7763813651
 31
0.0
 12
78.6612676056
 22
77.7763813651
 32
0.0
 13
78.6612676056
 23
77.7763813651
 33
0.0
  0
LINE
  5
1E1
330
1DC
100
AcDbEntity
  8
VERMASSUNG
100
AcDbLine
 10
117.0356377219
 20
137.7763813651
 30
0.0
 11
78.1112676056
 21
137.7763813651
 31
0.0
  0
LINE
  5
1E2
330
1DC
100
AcDbEntity
  8
VERMASSUNG
100
AcDbLine
 10
117.0356377219
 20
74.7763813651
 30
0.0
 11
78.1112676056
 21
74.7763813651
 31
0.0
  0
LINE
  5
1E3
330
1DC
100
AcDbEntity
  8
VERMASSUNG
100
AcDbLine
 10
79.1112676056
 20
137.7763813651
 30
0.0
 11
79.1112676056
 21
74.7763813651
 31
0.0
  0
MTEXT
  5
1E4
330
1DC
100
AcDbEntity
  8
VERMASSUNG
100
AcDbMText
 10
76.3331321166
 20
98.5728396533
 30
0.0
 40
2.0
 41
0.0
 71
     1
 72
     1
  1
HSK A 
  7
SLDTEXTSTYLE0
 11
-7.044195017643634E-15
 21
1.0
 31
0.0
 73
     1
 44
1.0
  0
MTEXT
  5
1E5
330
1DC
100
AcDbEntity
  8
VERMASSUNG
100
AcDbMText
 10
76.5331321261
 20
107.5728401972
 30
0.0
 40
2.0
 41
0.0
 71
     1
 72
     1
  1
%%c
  7
SLDTEXTSTYLE0
 11
-7.044195017643634E-15
 21
1.0
 31
0.0
 73
     1
 44
1.0
  0
MTEXT
  5
1E6
330
1DC
100
AcDbEntity
  8
VERMASSUNG
100
AcDbMText
 10
76.5331322425
 20
111.1811668472
 30
0.0
 40
2.0
 41
0.0
 71
     1
 72
     1
  1
63
  7
SLDTEXTSTYLE0
 11
-7.044195017643634E-15
 21
1.0
 31
0.0
 73
     1
 44
1.0
  0
ENDBLK
  5
1DE
330
1DC
100
AcDbEntity
  8
0
100
AcDbBlockEnd
  0
BLOCK
  5
1EA
330
1E9
100
AcDbEntity
  8
0
100
AcDbBlockBegin
  2
*D2
 70
     1
 10
0.0
 20
0.0
 30
0.0
  3
*D2
  1

  0
SOLID
  5
1EC
330
1E9
100
AcDbEntity
  8
VERMASSUNG
100
AcDbTrace
 10
162.2356377219
 20
136.6774647887
 30
0.0
 11
165.2356377219
 21
136.2274647887
 31
0.0
 12
165.2356377219
 22
137.1274647887
 32
0.0
 13
165.2356377219
 23
137.1274647887
 33
0.0
  0
SOLID
  5
1ED
330
1E9
100
AcDbEntity
  8
VERMASSUNG
100
AcDbTrace
 10
211.7356377219
 20
136.6774647887
 30
0.0
 11
208.7356377219
 21
137.1274647887
 31
0.0
 12
208.7356377219
 22
136.2274647887
 32
0.0
 13
208.7356377219
 23
136.2274647887
 33
0.0
  0
LINE
  5
1EE
330
1E9
100
AcDbEntity
  8
VERMASSUNG
100
AcDbLine
 10
162.2356377219
 20
115.1763813651
 30
0.0
 11
162.2356377219
 21
137.6774647887
 31
0.0
  0
LINE
  5
1EF
330
1E9
100
AcDbEntity
  8
VERMASSUNG
100
AcDbLine
 10
211.7356377219
 20
120.9276003818
 30
0.0
 11
211.7356377219
 21
137.6774647887
 31
0.0
  0
LINE
  5
1F0
330
1E9
100
AcDbEntity
  8
VERMASSUNG
100
AcDbLine
 10
162.2356377219
 20
136.6774647887
 30
0.0
 11
211.7356377219
 21
136.6774647887
 31
0.0
  0
MTEXT
  5
1F1
330
1E9
100
AcDbEntity
  8
VERMASSUNG
100
AcDbMText
 10
184.4862509397
 20
139.2556001519
 30
0.0
 40
2.0
 41
0.0
 71
     1
 72
     1
  1
49.5
  7
SLDTEXTSTYLE0
 73
     1
 44
1.0
  0
ENDBLK
  5
1EB
330
1E9
100
AcDbEntity
  8
0
100
AcDbBlockEnd
  0
BLOCK
  5
1F5
330
1F4
100
AcDbEntity
  8
0
100
AcDbBlockBegin
  2
*D3
 70
     1
 10
0.0
 20
0.0
 30
0.0
  3
*D3
  1

  0
SOLID
  5
1F7
330
1F4
100
AcDbEntity
  8
VERMASSUNG
100
AcDbTrace
 10
218.5849404117
 20
97.2763813651
 30
0.0
 11
219.0349404117
 21
100.2763813651
 31
0.0
 12
218.1349404117
 22
100.2763813651
 32
0.0
 13
218.1349404117
 23
100.2763813651
 33
0.0
  0
SOLID
  5
1F8
330
1F4
100
AcDbEntity
  8
VERMASSUNG
100
AcDbTrace
 10
218.5849404117
 20
115.2763813651
 30
0.0
 11
218.1349404117
 21
112.2763813651
 31
0.0
 12
219.0349404117
 22
112.2763813651
 32
0.0
 13
219.0349404117
 23
112.2763813651
 33
0.0
  0
LINE
  5
1F9
330
1F4
100
AcDbEntity
  8
VERMASSUNG
100
AcDbLine
 10
208.2356377219
 20
97.2763813651
 30
0.0
 11
219.5849404117
 21
97.2763813651
 31
0.0
  0
LINE
  5
1FA
330
1F4
100
AcDbEntity
  8
VERMASSUNG
100
AcDbLine
 10
208.2356377219
 20
115.2763813651
 30
0.0
 11
219.5849404117
 21
115.2763813651
 31
0.0
  0
LINE
  5
1FB
330
1F4
100
AcDbEntity
  8
VERMASSUNG
100
AcDbLine
 10
218.5849404117
 20
97.2763813651
 30
0.0
 11
218.5849404117
 21
115.2763813651
 31
0.0
  0
MTEXT
  5
1FC
330
1F4
100
AcDbEntity
  8
VERMASSUNG
100
AcDbMText
 10
216.0068049322
 20
102.6723445287
 30
0.0
 40
2.0
 41
0.0
 71
     1
 72
     1
  1
%%c
  7
SLDTEXTSTYLE0
 11
6.123233995736766E-17
 21
1.0
 31
0.0
 73
     1
 44
1.0
  0
MTEXT
  5
1FD
330
1F4
100
AcDbEntity
  8
VERMASSUNG
100
AcDbMText
 10
216.0068050486
 20
106.2810227519
 30
0.0
 40
2.0
 41
0.0
 71
     1
 72
     1
  1
18
  7
SLDTEXTSTYLE0
 11
6.123233995736766E-17
 21
1.0
 31
0.0
 73
     1
 44
1.0
  0
MTEXT
  5
1FE
330
1F4
100
AcDbEntity
  8
VERMASSUNG
100
AcDbMText
 10
216.0068050486
 20
108.6806197183
 30
0.0
 40
2.0
 41
0.0
 71
     1
 72
     1
  1
 
  7
SLDTEXTSTYLE0
 11
6.123233995736766E-17
 21
1.0
 31
0.0
 73
     1
 44
1.0
  0
ENDBLK
  5
1F6
330
1F4
100
AcDbEntity
  8
0
100
AcDbBlockEnd
  0
BLOCK
  5
202
330
201
100
AcDbEntity
  8
0
100
AcDbBlockBegin
  2
*D4
 70
     1
 10
0.0
 20
0.0
 30
0.0
  3
*D4
  1

  0
SOLID
  5
204
330
201
100
AcDbEntity
  8
VERMASSUNG
100
AcDbTrace
 10
224.5849404117
 20
89.7763813651
 30
0.0
 11
225.0349404117
 21
92.7763813651
 31
0.0
 12
224.1349404117
 22
92.7763813651
 32
0.0
 13
224.1349404117
 23
92.7763813651
 33
0.0
  0
SOLID
  5
205
330
201
100
AcDbEntity
  8
VERMASSUNG
100
AcDbTrace
 10
224.5849404117
 20
122.7763813651
 30
0.0
 11
224.1349404117
 21
119.7763813651
 31
0.0
 12
225.0349404117
 22
119.7763813651
 32
0.0
 13
225.0349404117
 23
119.7763813651
 33
0.0
  0
LINE
  5
206
330
201
100
AcDbEntity
  8
VERMASSUNG
100
AcDbLine
 10
211.7356377219
 20
89.7763813651
 30
0.0
 11
225.5849404117
 21
89.7763813651
 31
0.0
  0
LINE
  5
207
330
201
100
AcDbEntity
  8
VERMASSUNG
100
AcDbLine
 10
211.7356377219
 20
122.7763813651
 30
0.0
 11
225.5849404117
 21
122.7763813651
 31
0.0
  0
LINE
  5
208
330
201
100
AcDbEntity
  8
VERMASSUNG
100
AcDbLine
 10
224.5849404117
 20
89.7763813651
 30
0.0
 11
224.5849404117
 21
122.7763813651
 31
0.0
  0
MTEXT
  5
209
330
201
100
AcDbEntity
  8
VERMASSUNG
100
AcDbMText
 10
222.0068049322
 20
102.4727648971
 30
0.0
 40
2.0
 41
0.0
 71
     1
 72
     1
  1
%%c
  7
SLDTEXTSTYLE0
 11
6.123233995736766E-17
 21
1.0
 31
0.0
 73
     1
 44
1.0
  0
MTEXT
  5
20A
330
201
100
AcDbEntity
  8
VERMASSUNG
100
AcDbMText
 10
222.0068050486
 20
106.0814431203
 30
0.0
 40
2.0
 41
0.0
 71
     1
 72
     1
  1
33
  7
SLDTEXTSTYLE0
 11
6.123233995736766E-17
 21
1.0
 31
0.0
 73
     1
 44
1.0
  0
MTEXT
  5
20B
330
201
100
AcDbEntity
  8
VERMASSUNG
100
AcDbMText
 10
222.0068050486
 20
108.8801993499
 30
0.0
 40
2.0
 41
0.0
 71
     1
 72
     1
  1
 
  7
SLDTEXTSTYLE0
 11
6.123233995736766E-17
 21
1.0
 31
0.0
 73
     1
 44
1.0
  0
ENDBLK
  5
203
330
201
100
AcDbEntity
  8
0
100
AcDbBlockEnd
  0
BLOCK
  5
20E
330
20D
100
AcDbEntity
  8
0
100
AcDbBlockBegin
  2
*D5
 70
     1
 10
0.0
 20
0.0
 30
0.0
  3
*D5
  1

  0
SOLID
  5
210
330
20D
100
AcDbEntity
  8
VERMASSUNG
100
AcDbTrace
 10
116.7356377219
 20
148.6774647887
 30
0.0
 11
119.7356377219
 21
148.2274647887
 31
0.0
 12
119.7356377219
 22
149.1274647887
 32
0.0
 13
119.7356377219
 23
149.1274647887
 33
0.0
  0
SOLID
  5
211
330
20D
100
AcDbEntity
  8
VERMASSUNG
100
AcDbTrace
 10
211.7356377219
 20
148.6774647887
 30
0.0
 11
208.7356377219
 21
149.1274647887
 31
0.0
 12
208.7356377219
 22
148.2274647887
 32
0.0
 13
208.7356377219
 23
148.2274647887
 33
0.0
  0
LINE
  5
212
330
20D
100
AcDbEntity
  8
VERMASSUNG
100
AcDbLine
 10
116.7356377219
 20
137.4763813651
 30
0.0
 11
116.7356377219
 21
149.6774647887
 31
0.0
  0
LINE
  5
213
330
20D
100
AcDbEntity
  8
VERMASSUNG
100
AcDbLine
 10
211.7356377219
 20
120.9276003818
 30
0.0
 11
211.7356377219
 21
149.6774647887
 31
0.0
  0
LINE
  5
214
330
20D
100
AcDbEntity
  8
VERMASSUNG
100
AcDbLine
 10
116.7356377219
 20
148.6774647887
 30
0.0
 11
211.7356377219
 21
148.6774647887
 31
0.0
  0
MTEXT
  5
215
330
20D
100
AcDbEntity
  8
VERMASSUNG
100
AcDbMText
 10
162.8362596071
 20
151.2556001519
 30
0.0
 40
2.0
 41
0.0
 71
     1
 72
     1
  1
95
  7
SLDTEXTSTYLE0
 73
     1
 44
1.0
  0
ENDBLK
  5
20F
330
20D
100
AcDbEntity
  8
0
100
AcDbBlockEnd
  0
BLOCK
  5
218
330
217
100
AcDbEntity
  8
0
100
AcDbBlockBegin
  2
*D6
 70
     1
 10
0.0
 20
0.0
 30
0.0
  3
*D6
  1

  0
SOLID
  5
21A
330
217
100
AcDbEntity
  8
VERMASSUNG
100
AcDbTrace
 10
142.6856377219
 20
142.6774647887
 30
0.0
 11
145.6856377219
 21
142.2274647887
 31
0.0
 12
145.6856377219
 22
143.1274647887
 32
0.0
 13
145.6856377219
 23
143.1274647887
 33
0.0
  0
SOLID
  5
21B
330
217
100
AcDbEntity
  8
VERMASSUNG
100
AcDbTrace
 10
211.7356377219
 20
142.6774647887
 30
0.0
 11
208.7356377219
 21
143.1274647887
 31
0.0
 12
208.7356377219
 22
142.2274647887
 32
0.0
 13
208.7356377219
 23
142.2274647887
 33
0.0
  0
LINE
  5
21C
330
217
100
AcDbEntity
  8
VERMASSUNG
100
AcDbLine
 10
142.6856377219
 20
136.1228216889
 30
0.0
 11
142.6856377219
 21
143.6774647887
 31
0.0
  0
LINE
  5
21D
330
217
100
AcDbEntity
  8
VERMASSUNG
100
AcDbLine
 10
211.7356377219
 20
120.9276003818
 30
0.0
 11
211.7356377219
 21
143.6774647887
 31
0.0
  0
LINE
  5
21E
330
217
100
AcDbEntity
  8
VERMASSUNG
100
AcDbLine
 10
142.6856377219
 20
142.6774647887
 30
0.0
 11
211.7356377219
 21
142.6774647887
 31
0.0
  0
MTEXT
  5
21F
330
217
100
AcDbEntity
  8
VERMASSUNG
100
AcDbMText
 10
174.1113516981
 20
145.2556001519
 30
0.0
 40
2.0
 41
0.0
 71
     1
 72
     1
  1
69.05
  7
SLDTEXTSTYLE0
 73
     1
 44
1.0
  0
ENDBLK
  5
219
330
217
100
AcDbEntity
  8
0
100
AcDbBlockEnd
  0
BLOCK
  5
222
330
221
100
AcDbEntity
  8
0
100
AcDbBlockBegin
  2
*D7
 70
     1
 10
0.0
 20
0.0
 30
0.0
  3
*D7
  1

  0
SOLID
  5
224
330
221
100
AcDbEntity
  8
VERMASSUNG
100
AcDbTrace
 10
84.8356377219
 20
154.6774647887
 30
0.0
 11
87.8356377219
 21
154.2274647887
 31
0.0
 12
87.8356377219
 22
155.1274647887
 32
0.0
 13
87.8356377219
 23
155.1274647887
 33
0.0
  0
SOLID
  5
225
330
221
100
AcDbEntity
  8
VERMASSUNG
100
AcDbTrace
 10
211.7356377219
 20
154.6774647887
 30
0.0
 11
208.7356377219
 21
155.1274647887
 31
0.0
 12
208.7356377219
 22
154.2274647887
 32
0.0
 13
208.7356377219
 23
154.2274647887
 33
0.0
  0
LINE
  5
226
330
221
100
AcDbEntity
  8
VERMASSUNG
100
AcDbLine
 10
84.8356377219
 20
125.9670591116
 30
0.0
 11
84.8356377219
 21
155.6774647887
 31
0.0
  0
LINE
  5
227
330
221
100
AcDbEntity
  8
VERMASSUNG
100
AcDbLine
 10
211.7356377219
 20
120.9276003818
 30
0.0
 11
211.7356377219
 21
155.6774647887
 31
0.0
  0
LINE
  5
228
330
221
100
AcDbEntity
  8
VERMASSUNG
100
AcDbLine
 10
84.8356377219
 20
154.6774647887
 30
0.0
 11
211.7356377219
 21
154.6774647887
 31
0.0
  0
MTEXT
  5
229
330
221
100
AcDbEntity
  8
VERMASSUNG
100
AcDbMText
 10
145.3859313297
 20
157.2556001519
 30
0.0
 40
2.0
 41
0.0
 71
     1
 72
     1
  1
126.9
  7
SLDTEXTSTYLE0
 73
     1
 44
1.0
  0
ENDBLK
  5
223
330
221
100
AcDbEntity
  8
0
100
AcDbBlockEnd
  0
BLOCK
  5
22C
330
22B
100
AcDbEntity
  8
0
100
AcDbBlockBegin
  2
*D8
 70
     1
 10
0.0
 20
0.0
 30
0.0
  3
*D8
  1

  0
SOLID
  5
22E
330
22B
100
AcDbEntity
  8
VERMASSUNG
100
AcDbTrace
 10
230.5849404117
 20
126.7763813651
 30
0.0
 11
230.1349404117
 21
123.7763813651
 31
0.0
 12
231.0349404117
 22
123.7763813651
 32
0.0
 13
231.0349404117
 23
123.7763813651
 33
0.0
  0
SOLID
  5
22F
330
22B
100
AcDbEntity
  8
VERMASSUNG
100
AcDbTrace
 10
230.5849404117
 20
85.7763813651
 30
0.0
 11
231.0349404117
 21
88.7763813651
 31
0.0
 12
230.1349404117
 22
88.7763813651
 32
0.0
 13
230.1349404117
 23
88.7763813651
 33
0.0
  0
LINE
  5
230
330
22B
100
AcDbEntity
  8
VERMASSUNG
100
AcDbLine
 10
160.9108187772
 20
126.7763813651
 30
0.0
 11
231.5849404117
 21
126.7763813651
 31
0.0
  0
LINE
  5
231
330
22B
100
AcDbEntity
  8
VERMASSUNG
100
AcDbLine
 10
160.9108187772
 20
85.7763813651
 30
0.0
 11
231.5849404117
 21
85.7763813651
 31
0.0
  0
LINE
  5
232
330
22B
100
AcDbEntity
  8
VERMASSUNG
100
AcDbLine
 10
230.5849404117
 20
126.7763813651
 30
0.0
 11
230.5849404117
 21
85.7763813651
 31
0.0
  0
MTEXT
  5
233
330
22B
100
AcDbEntity
  8
VERMASSUNG
100
AcDbMText
 10
228.0068049322
 20
103.1724539545
 30
0.0
 40
2.0
 41
0.0
 71
     1
 72
     1
  1
%%c
  7
SLDTEXTSTYLE0
 11
-7.044195017643634E-15
 21
1.0
 31
0.0
 73
     1
 44
1.0
  0
MTEXT
  5
234
330
22B
100
AcDbEntity
  8
VERMASSUNG
100
AcDbMText
 10
228.0068050486
 20
106.7811321777
 30
0.0
 40
2.0
 41
0.0
 71
     1
 72
     1
  1
41
  7
SLDTEXTSTYLE0
 11
-7.044195017643634E-15
 21
1.0
 31
0.0
 73
     1
 44
1.0
  0
ENDBLK
  5
22D
330
22B
100
AcDbEntity
  8
0
100
AcDbBlockEnd
  0
ENDSEC
  0
SECTION
  2
ENTITIES
  0
MTEXT
  5
45
330
1F
100
AcDbEntity
  8
KOPF_DÜNN
100
AcDbMText
 10
13.8892156294
 20
23.8442973028
 30
0.0
 40
3.0
 41
0.0
 71
     1
 72
     1
  1
HA6.S18.K21.095
  7
SLDTEXTSTYLE0
 73
     1
 44
1.0
  0
MTEXT
  5
46
330
1F
100
AcDbEntity
  8
VERMASSUNG
100
AcDbMText
 10
13.9329988022
 20
28.8834360957
 30
0.0
 40
3.0
 41
0.0
 71
     1
 72
     1
  1
Schrumpffutter_Heat shrink chuck
  7
SLDTEXTSTYLE0
 73
     1
 44
1.0
  0
MTEXT
  5
47
330
1F
100
AcDbEntity
  8
VERMASSUNG
100
AcDbMText
 10
98.8601118557
 20
13.8365368179
 30
0.0
 40
2.0
 41
0.0
 71
     1
 72
     1
  1
Datum: 28.04.2011
  7
SLDTEXTSTYLE0
 73
     1
 44
1.0
  0
MTEXT
  5
49
330
1F
100
AcDbEntity
  8
VERMASSUNG
100
AcDbMText
 10
13.933048693
 20
18.0482802738
 30
0.0
 40
2.0
 41
0.0
 71
     1
 72
     1
  1
DIN 69 893 HSK A 63
  7
SLDTEXTSTYLE1
 73
     1
 44
1.0
  0
MTEXT
  5
4A
330
1F
100
AcDbEntity
  8
VERMASSUNG
100
AcDbMText
 10
13.9808475933
 20
13.9090973692
 30
0.0
 40
2.0
 41
0.0
 71
     1
 72
     1
  1
Gewicht: 1140g
  7
SLDTEXTSTYLE0
 73
     1
 44
1.0
  0
LINE
  5
4B
330
1F
100
AcDbEntity
  8
0
  6
Continuous
 62
     7
370
    15
100
AcDbLine
 10
211.7540702054
 20
119.9960980666
 30
0.0
 11
211.7356377219
 21
120.0311324551
 31
0.0
  0
LINE
  5
4C
330
1F
100
AcDbEntity
  8
0
  6
Continuous
 62
     7
370
    15
100
AcDbLine
 10
211.7356377219
 20
92.4120131048
 30
0.0
 11
211.812959929
 21
92.5589784472
 31
0.0
  0
LINE
  5
4D
330
1F
100
AcDbEntity
  8
0
  6
Continuous
 62
     7
370
    15
100
AcDbLine
 10
117.0356377219
 20
74.7763813651
 30
0.0
 11
121.6856377219
 21
74.7763813651
 31
0.0
  0
LINE
  5
4E
330
1F
100
AcDbEntity
  8
0
  6
Continuous
 62
     7
370
    15
100
AcDbLine
 10
121.6949458087
 20
137.7763813651
 30
0.0
 11
117.0356377219
 21
137.7763813651
 31
0.0
  0
ARC
  5
4F
330
1F
100
AcDbEntity
  8
0
  6
Continuous
 62
     7
370
    15
100
AcDbCircle
 10
117.0356377219
 20
75.0763813651
 30
0.0
 40
0.2999999999999972
100
AcDbArc
 50
180.0
 51
270.0
  0
ARC
  5
50
330
1F
100
AcDbEntity
  8
0
  6
Continuous
 62
     7
370
    15
100
AcDbCircle
 10
117.0356377219
 20
137.4763813651
 30
0.0
 40
0.2999999999999972
100
AcDbArc
 50
90.0
 51
180.0
  0
ARC
  5
51
330
1F
100
AcDbEntity
  8
0
  6
Continuous
 62
     7
370
    15
100
AcDbCircle
 10
116.2356309692
 20
81.7059437507
 30
0.0
 40
0.6000067526677164
100
AcDbArc
 50
33.5571153394
 51
90.0
  0
ARC
  5
52
330
1F
100
AcDbEntity
  8
0
  6
Continuous
 62
     7
370
    15
100
AcDbCircle
 10
116.2356309692
 20
130.8468189795
 30
0.0
 40
0.6000067526677242
100
AcDbArc
 50
270.0
 51
326.4428846606
  0
LINE
  5
53
330
1F
100
AcDbEntity
  8
0
  6
Continuous
 62
     7
370
    15
100
AcDbLine
 10
103.5041289231
 20
129.9341113852
 30
0.0
 11
90.9356377219
 21
129.3044274573
 31
0.0
  0
LINE
  5
54
330
1F
100
AcDbEntity
  8
0
  6
Continuous
 62
     7
370
    15
100
AcDbLine
 10
114.7356377219
 20
130.4968122268
 30
0.0
 11
111.9186360645
 21
130.3556798793
 31
0.0
  0
LINE
  5
55
330
1F
100
AcDbEntity
  8
0
  6
Continuous
 62
     7
370
    15
100
AcDbLine
 10
111.9186921546
 20
82.1970800408
 30
0.0
 11
114.7356377219
 21
82.0559505034
 31
0.0
  0
LINE
  5
56
330
1F
100
AcDbEntity
  8
0
  6
Continuous
 62
     7
370
    15
100
AcDbLine
 10
94.9356377219
 20
83.0479344713
 30
0.0
 11
103.5045314418
 21
82.6186311787
 31
0.0
  0
LINE
  5
57
330
1F
100
AcDbEntity
  8
0
  6
Continuous
 62
     7
370
    15
100
AcDbLine
 10
114.7356377219
 20
82.0559505034
 30
0.0
 11
115.5923504953
 21
82.2855059992
 31
0.0
  0
LINE
  5
58
330
1F
100
AcDbEntity
  8
0
  6
Continuous
 62
     7
370
    15
100
AcDbLine
 10
115.5923504953
 20
130.2672567311
 30
0.0
 11
114.7356377219
 21
130.4968122268
 31
0.0
  0
ARC
  5
59
330
1F
100
AcDbEntity
  8
0
  6
Continuous
 62
     7
370
    15
100
AcDbCircle
 10
115.7476419223
 20
81.7059505034
 30
0.0
 40
0.6000000000000085
100
AcDbArc
 50
90.0
 51
105.0
  0
ARC
  5
5A
330
1F
100
AcDbEntity
  8
0
  6
Continuous
 62
     7
370
    15
100
AcDbCircle
 10
115.7476419223
 20
130.8468122268
 30
0.0
 40
0.5999999999999943
100
AcDbArc
 50
255.0
 51
270.0
  0
LINE
  5
5B
330
1F
100
AcDbEntity
  8
0
  6
Continuous
 62
     7
370
    15
100
AcDbLine
 10
115.7476419223
 20
82.3059505034
 30
0.0
 11
116.2356309692
 21
82.3059505034
 31
0.0
  0
LINE
  5
5C
330
1F
100
AcDbEntity
  8
0
  6
Continuous
 62
     7
370
    15
100
AcDbLine
 10
116.2356309692
 20
130.2468122268
 30
0.0
 11
115.7476419223
 21
130.2468122268
 31
0.0
  0
ARC
  5
5D
330
1F
100
AcDbEntity
  8
0
  6
Continuous
 62
     7
370
    15
100
AcDbCircle
 10
145.6856377219
 20
82.7763813651
 30
0.0
 40
3.0
100
AcDbArc
 50
90.0
 51
180.0
  0
ARC
  5
5E
330
1F
100
AcDbEntity
  8
0
  6
Continuous
 62
     7
370
    15
100
AcDbCircle
 10
145.6856377219
 20
129.7763813651
 30
0.0
 40
3.0
100
AcDbArc
 50
180.0
 51
270.0
  0
LINE
  5
5F
330
1F
100
AcDbEntity
  8
0
  6
Continuous
 62
     7
370
    15
100
AcDbLine
 10
160.9108187772
 20
85.7763813651
 30
0.0
 11
209.8925559133
 21
89.631327681
 31
0.0
  0
LINE
  5
60
330
1F
100
AcDbEntity
  8
0
  6
Continuous
 62
     7
370
    15
100
AcDbLine
 10
209.8925559133
 20
122.9214350493
 30
0.0
 11
160.9108187772
 21
126.7763813651
 31
0.0
  0
LINE
  5
61
330
1F
100
AcDbEntity
  8
0
  6
Continuous
 62
     7
370
    15
100
AcDbLine
 10
157.1843947367
 20
85.7763813651
 30
0.0
 11
160.9108187772
 21
85.7763813651
 31
0.0
  0
LINE
  5
62
330
1F
100
AcDbEntity
  8
0
  6
Continuous
 62
     7
370
    15
100
AcDbLine
 10
145.6856377219
 20
85.7763813651
 30
0.0
 11
150.1961983033
 21
85.7763813651
 31
0.0
  0
LINE
  5
63
330
1F
100
AcDbEntity
  8
0
  6
Continuous
 62
     7
370
    15
100
AcDbLine
 10
150.1888658827
 20
126.7763813651
 30
0.0
 11
145.6856377219
 21
126.7763813651
 31
0.0
  0
LINE
  5
64
330
1F
100
AcDbEntity
  8
0
  6
Continuous
 62
     7
370
    15
100
AcDbLine
 10
160.9108187772
 20
126.7763813651
 30
0.0
 11
157.1766365446
 21
126.7763813651
 31
0.0
  0
ARC
  5
65
330
1F
100
AcDbEntity
  8
0
  6
Continuous
 62
     7
370
    15
100
AcDbCircle
 10
209.7356377219
 20
91.6251623484
 30
0.0
 40
2.000000000000028
100
AcDbArc
 50
274.5
 51
0.0
  0
ARC
  5
66
330
1F
100
AcDbEntity
  8
0
  6
Continuous
 62
     7
370
    15
100
AcDbCircle
 10
209.7356377219
 20
120.9276003818
 30
0.0
 40
2.000000000000028
100
AcDbArc
 50
0.0
 51
85.5
  0
LINE
  5
67
330
1F
100
AcDbEntity
  8
0
  6
Continuous
 62
     7
370
    15
100
AcDbLine
 10
86.1189743619
 20
85.4063813651
 30
0.0
 11
93.5356377219
 21
85.4063813651
 31
0.0
  0
ARC
  5
68
330
1F
100
AcDbEntity
  8
0
  6
Continuous
 62
     7
370
    15
100
AcDbCircle
 10
93.5356377219
 20
84.0063813651
 30
0.0
 40
1.399999999999997
100
AcDbArc
 50
42.2465410162
 51
90.0
  0
LINE
  5
69
330
1F
100
AcDbEntity
  8
0
  6
Continuous
 62
     7
370
    15
100
AcDbLine
 10
84.846798157
 20
86.54522093
 30
0.0
 11
85.9768011801
 21
85.4152179069
 31
0.0
  0
LINE
  5
6A
330
1F
100
AcDbEntity
  8
0
  6
Continuous
 62
     7
370
    15
100
AcDbLine
 10
85.9768011801
 20
127.1375448233
 30
0.0
 11
84.8455384953
 21
126.0062821385
 31
0.0
  0
ARC
  5
6B
330
1F
100
AcDbEntity
  8
0
  6
Continuous
 62
     7
370
    15
100
AcDbCircle
 10
89.5356377219
 20
128.5463813651
 30
0.0
 40
1.400000000000008
100
AcDbArc
 50
270.0
 51
301.7485287426
  0
LINE
  5
6C
330
1F
100
AcDbEntity
  8
0
  6
Continuous
 62
     7
370
    15
100
AcDbLine
 10
89.5356377219
 20
127.1463813651
 30
0.0
 11
86.1099034558
 21
127.1463813651
 31
0.0
  0
LINE
  5
6D
330
1F
100
AcDbEntity
  8
0
  6
Continuous
 62
     7
370
    15
100
AcDbLine
 10
211.7540702054
 20
119.9960980666
 30
0.0
 11
211.7356377219
 21
119.5269600341
 31
0.0
  0
LINE
  5
6E
330
1F
100
AcDbEntity
  8
0
  6
Continuous
 62
     7
370
    15
100
AcDbLine
 10
211.7356377219
 20
94.5269600341
 30
0.0
 11
211.812959929
 21
92.5589784472
 31
0.0
  0
LINE
  5
6F
330
1F
100
AcDbEntity
  8
0
  6
Continuous
 62
     7
370
    15
100
AcDbLine
 10
132.8256377219
 20
78.7785442061
 30
0.0
 11
132.8256377219
 21
126.1263813651
 31
0.0
  0
SPLINE
  5
70
330
1F
100
AcDbEntity
  8
0
  6
Continuous
 62
     7
370
    15
100
AcDbSpline
210
0.0
220
0.0
230
1.0
 70
     8
 71
     3
 72
     8
 73
     4
 74
     0
 42
0.00000001
 43
0.00000001
 40
0.0
 40
0.0
 40
0.0
 40
0.0
 40
1.0
 40
1.0
 40
1.0
 40
1.0
 10
132.8256377218933
 20
78.77854420605892
 30
0.0
 10
132.3332985991122
 20
77.88127417185223
 30
0.0
 10
131.83918455107
 20
76.98498975679999
 30
0.0
 10
131.3437048904043
 20
76.08946366886663
 30
0.0
  0
LINE
  5
71
330
1F
100
AcDbEntity
  8
0
  6
Continuous
 62
     7
370
    15
100
AcDbLine
 10
131.3437048904
 20
76.0894636689
 30
0.0
 11
131.3437048904
 21
126.1263813651
 31
0.0
  0
SPLINE
  5
72
330
1F
100
AcDbEntity
  8
0
  6
Continuous
 62
     7
370
    15
100
AcDbSpline
210
0.0
220
0.0
230
1.0
 70
    24
 71
     3
 72
     8
 73
     4
 74
     0
 42
0.00000001
 43
0.00000001
 40
0.0
 40
0.0
 40
0.0
 40
0.0
 40
1.0
 40
1.0
 40
1.0
 40
1.0
 10
131.3437048904043
 20
126.1263813651138
 30
0.0
 10
131.8503849985548
 20
126.1263813651138
 30
0.0
 10
132.3456857275284
 20
126.1263813651138
 30
0.0
 10
132.8256377218933
 20
126.1263813651138
 30
0.0
  0
SPLINE
  5
73
330
1F
100
AcDbEntity
  8
0
  6
Continuous
 62
     7
370
    15
100
AcDbSpline
210
0.0
220
0.0
230
1.0
 70
     8
 71
     3
 72
    70
 73
    66
 74
     0
 42
0.00000001
 43
0.00000001
 40
-0.0312500000000001
 40
-0.0312500000000001
 40
0.0
 40
0.0
 40
0.0312499999999998
 40
0.0312499999999998
 40
0.0624999999999996
 40
0.0624999999999996
 40
0.0937499999999995
 40
0.0937499999999995
 40
0.1249999999999993
 40
0.1249999999999993
 40
0.1562499999999991
 40
0.1562499999999991
 40
0.1874999999999989
 40
0.1874999999999989
 40
0.2187499999999987
 40
0.2187499999999987
 40
0.2499999999999986
 40
0.2499999999999986
 40
0.2812499999999986
 40
0.2812499999999986
 40
0.3124999999999985
 40
0.3124999999999985
 40
0.3437499999999985
 40
0.3437499999999985
 40
0.3749999999999985
 40
0.3749999999999985
 40
0.4062499999999985
 40
0.4062499999999985
 40
0.4374999999999984
 40
0.4374999999999984
 40
0.4687499999999984
 40
0.4687499999999984
 40
0.4999999999999984
 40
0.4999999999999984
 40
0.5312499999999984
 40
0.5312499999999984
 40
0.5624999999999986
 40
0.5624999999999986
 40
0.5937499999999986
 40
0.5937499999999986
 40
0.6249999999999986
 40
0.6249999999999986
 40
0.6562499999999987
 40
0.6562499999999987
 40
0.6874999999999987
 40
0.6874999999999987
 40
0.7187499999999988
 40
0.7187499999999988
 40
0.7499999999999988
 40
0.7499999999999988
 40
0.7812499999999989
 40
0.7812499999999989
 40
0.8124999999999991
 40
0.8124999999999991
 40
0.8437499999999992
 40
0.8437499999999992
 40
0.8749999999999993
 40
0.8749999999999993
 40
0.9062499999999996
 40
0.9062499999999996
 40
0.9374999999999997
 40
0.9374999999999997
 40
0.9687499999999999
 40
0.9687499999999999
 40
1.0
 40
1.0
 40
1.03125
 40
1.03125
 10
124.4710923832332
 20
131.335344759893
 30
0.0
 10
125.0001830605535
 20
131.335344759893
 30
0.0
 10
125.2602537279306
 20
131.3512452003077
 30
0.0
 10
125.771828407766
 20
131.413189550482
 30
0.0
 10
126.0260036915062
 20
131.4599917845733
 30
0.0
 10
126.5102743215679
 20
131.5809687680284
 30
0.0
 10
126.7399154134491
 20
131.6545710958352
 30
0.0
 10
127.1745197616825
 20
131.8263953668133
 30
0.0
 10
127.3800855383292
 20
131.9253987897408
 30
0.0
 10
127.7486426789244
 20
132.1384952036536
 30
0.0
 10
127.9141236616599
 20
132.2533949197833
 30
0.0
 10
128.206548171095
 20
132.4987618184736
 30
0.0
 10
128.3306491477215
 20
132.6272017189438
 30
0.0
 10
128.5302283444712
 20
132.8880938670298
 30
0.0
 10
128.6071619303295
 20
133.0224750383693
 30
0.0
 10
128.7100189888498
 20
133.2917949894756
 30
0.0
 10
128.735491898309
 20
133.4244762536937
 30
0.0
 10
128.7357823088768
 20
133.6856627278247
 30
0.0
 10
128.709757675101
 20
133.8154277659895
 30
0.0
 10
128.607609390609
 20
134.0610104002621
 30
0.0
 10
128.5320329430259
 20
134.177671937571
 30
0.0
 10
128.3315354118809
 20
134.3995771277256
 30
0.0
 10
128.2064065703725
 20
134.5041883816485
 30
0.0
 10
127.9170477693509
 20
134.6942347932566
 30
0.0
 10
127.7516367822955
 20
134.7809944647063
 30
0.0
 10
127.3786462241477
 20
134.9384988404578
 30
0.0
 10
127.1769131910586
 20
135.0068241052451
 30
0.0
 10
126.7440539402307
 20
135.1250538288643
 30
0.0
 10
126.5101354073413
 20
135.1753487449681
 30
0.0
 10
126.0259516721987
 20
135.2552142818577
 30
0.0
 10
125.7766360462432
 20
135.2849554096574
 30
0.0
 10
125.2636035218155
 20
135.3251081511656
 30
0.0
 10
124.9983096989108
 20
135.3353064205754
 30
0.0
 10
124.4759750790411
 20
135.3353828789601
 30
0.0
 10
124.2162214165593
 20
135.3255918673511
 30
0.0
 10
123.6996096009141
 20
135.2855250286123
 30
0.0
 10
123.4472435604138
 20
135.2554278617555
 30
0.0
 10
122.965718438881
 20
135.1762056519253
 30
0.0
 10
122.7328677067674
 20
135.1264481724619
 30
0.0
 10
122.2957778583287
 20
135.0073562300116
 30
0.0
 10
122.0944568696715
 20
134.9390409684643
 30
0.0
 10
121.7253708443716
 20
134.7836400015308
 30
0.0
 10
121.5563860933199
 20
134.6954876594639
 30
0.0
 10
121.2659300366607
 20
134.5050482703475
 30
0.0
 10
121.1428582252986
 20
134.4024236926484
 30
0.0
 10
120.9415219838765
 20
134.1807833460403
 30
0.0
 10
120.8643094379343
 20
134.0620292704928
 30
0.0
 10
120.7621058950342
 20
133.8173633315751
 30
0.0
 10
120.7358775435819
 20
133.6902066061266
 30
0.0
 10
120.7354011442648
 20
133.4257584602711
 30
0.0
 10
120.7611435567628
 20
133.2928577800139
 30
0.0
 10
120.8624543331266
 20
133.0260655065318
 30
0.0
 10
120.9392869725176
 20
132.8907016050632
 30
0.0
 10
121.1396908117328
 20
132.6281218097607
 30
0.0
 10
121.2623623100248
 20
132.5011466500069
 30
0.0
 10
121.552309599189
 20
132.2570672639245
 30
0.0
 10
121.7208805785543
 20
132.1396421391707
 30
0.0
 10
122.0891501726674
 20
131.9264456782222
 30
0.0
 10
122.2902120299377
 20
131.8292715597973
 30
0.0
 10
122.7272429485227
 20
131.6559166725832
 30
0.0
 10
122.9593911616523
 20
131.5815171209265
 30
0.0
 10
123.4404014431511
 20
131.4610642414218
 30
0.0
 10
123.6925015259816
 20
131.4142058661558
 30
0.0
 10
124.2095710122406
 20
131.3512483691721
 30
0.0
 10
124.4710923832332
 20
131.335344759893
 30
0.0
 10
125.0001830605535
 20
131.335344759893
 30
0.0
  0
LINE
  5
74
330
1F
100
AcDbEntity
  8
0
  6
Continuous
 62
     7
370
    15
100
AcDbLine
 10
121.6856377219
 20
126.1263813651
 30
0.0
 11
131.3437048904
 21
126.1263813651
 31
0.0
  0
LINE
  5
75
330
1F
100
AcDbEntity
  8
0
  6
Continuous
 62
     7
370
    15
100
AcDbLine
 10
131.3437048904
 20
76.0894636689
 30
0.0
 11
129.6856377219
 21
76.0894636689
 31
0.0
  0
SPLINE
  5
76
330
1F
100
AcDbEntity
  8
0
  6
Continuous
 62
     7
370
    15
100
AcDbSpline
210
0.0
220
0.0
230
1.0
 70
     8
 71
     3
 72
    28
 73
    24
 74
     0
 42
0.00000001
 43
0.00000001
 40
0.0
 40
0.0
 40
0.0
 40
0.0
 40
0.1249999999999999
 40
0.1249999999999999
 40
0.1874999999999998
 40
0.1874999999999998
 40
0.2499999999999997
 40
0.2499999999999997
 40
0.3749999999999997
 40
0.3749999999999997
 40
0.4374999999999999
 40
0.4374999999999999
 40
0.5
 40
0.5
 40
0.6249999999999999
 40
0.6249999999999999
 40
0.7499999999999998
 40
0.7499999999999998
 40
0.8124999999999998
 40
0.8124999999999998
 40
0.8749999999999999
 40
0.8749999999999999
 40
1.0
 40
1.0
 40
1.0
 40
1.0
 10
129.6856377218933
 20
76.08946366886664
 30
0.0
 10
129.1539299644004
 20
76.08946366886663
 30
0.0
 10
128.6316913990901
 20
76.07367895491642
 30
0.0
 10
127.8618209128151
 20
76.0286835408402
 30
0.0
 10
127.6074613406237
 20
76.01012854576449
 30
0.0
 10
127.1033397599252
 20
75.966275823318
 30
0.0
 10
126.8536169424973
 20
75.94093121636578
 30
0.0
 10
126.1280269910509
 20
75.85752913861567
 30
0.0
 10
125.6696667294693
 20
75.79166357946458
 30
0.0
 10
125.0191687860755
 20
75.6826932389728
 30
0.0
 10
124.807486735283
 20
75.64445360320616
 30
0.0
 10
124.403415246145
 20
75.56669486578679
 30
0.0
 10
124.2109087323242
 20
75.52719390361146
 30
0.0
 10
123.6610737613029
 20
75.40828616124546
 30
0.0
 10
123.331144982994
 20
75.32846847982083
 30
0.0
 10
122.7466737144254
 20
75.17512531802477
 30
0.0
 10
122.5003965764119
 20
75.10379156475551
 30
0.0
 10
122.2005537837139
 20
75.00984805768091
 30
0.0
 10
122.1120969266417
 20
74.98065426432098
 30
0.0
 10
121.9587355733366
 20
74.92718769005755
 30
0.0
 10
121.8936473591103
 20
74.90282835578238
 30
0.0
 10
121.7380533431695
 20
74.83923821033765
 30
0.0
 10
121.6856377218933
 20
74.80913527524841
 30
0.0
 10
121.6856377218933
 20
74.79225838225146
 30
0.0
  0
LINE
  5
77
330
1F
100
AcDbEntity
  8
0
  6
Continuous
 62
     7
370
    15
100
AcDbLine
 10
121.6856377219
 20
74.7922583823
 30
0.0
 11
121.6856377219
 21
74.7763813651
 31
0.0
  0
SPLINE
  5
78
330
1F
100
AcDbEntity
  8
0
  6
Continuous
 62
     7
370
    15
100
AcDbSpline
210
0.0
220
0.0
230
1.0
 70
     8
 71
     3
 72
    22
 73
    18
 74
     0
 42
0.00000001
 43
0.00000001
 40
0.0
 40
0.0
 40
0.0
 40
0.0
 40
0.0515773377536172
 40
0.1565264849943629
 40
0.2100197540385886
 40
0.2615951369298746
 40
0.3664424119934943
 40
0.4198226601719804
 40
0.4724528789006786
 40
0.5794488992297344
 40
0.6339397336480286
 40
0.6872670452602943
 40
0.7409741315029978
 40
0.7958968813361827
 40
0.8512481408256359
 40
0.9034470736265863
 40
1.0
 40
1.0
 40
1.0
 40
1.0
 10
129.6856377218933
 20
136.7435768382781
 30
0.0
 10
129.4688275258909
 20
136.7449734593466
 30
0.0
 10
128.8108537069761
 20
136.7492119136028
 30
0.0
 10
127.9357587296452
 20
136.7887442379571
 30
0.0
 10
127.0909332347883
 20
136.851717484799
 30
0.0
 10
126.2712079511841
 20
136.9297315180541
 30
0.0
 10
125.4954179731557
 20
137.0266146459293
 30
0.0
 10
124.7779295118492
 20
137.1348740578453
 30
0.0
 10
124.0986647646772
 20
137.2485924301497
 30
0.0
 10
123.4903497867682
 20
137.3650926150905
 30
0.0
 10
122.9702578460451
 20
137.4741928665076
 30
0.0
 10
122.6263676683289
 20
137.5501967642376
 30
0.0
 10
122.3314139406014
 20
137.6182302201592
 30
0.0
 10
122.0856396532602
 20
137.6769432709178
 30
0.0
 10
121.8997373442868
 20
137.7225586508515
 30
0.0
 10
121.7281407385631
 20
137.765518102412
 30
0.0
 10
121.7080114633868
 20
137.7706791242141
 30
0.0
 10
121.6949458087131
 20
137.7740290773564
 30
0.0
  0
LINE
  5
79
330
1F
100
AcDbEntity
  8
0
  6
Continuous
 62
     7
370
    15
100
AcDbLine
 10
131.3437048904
 20
136.7435768383
 30
0.0
 11
129.6856377219
 21
136.7435768383
 31
0.0
  0
LINE
  5
7A
330
1F
100
AcDbEntity
  8
0
  6
Continuous
 62
     7
370
    15
100
AcDbLine
 10
131.3437048904
 20
130.7350710275
 30
0.0
 11
131.3437048904
 21
136.7435768383
 31
0.0
  0
LINE
  5
7B
330
1F
100
AcDbEntity
  8
0
  6
Continuous
 62
     7
370
    15
100
AcDbLine
 10
128.9312580676
 20
130.7350710275
 30
0.0
 11
131.3437048904
 21
130.7350710275
 31
0.0
  0
SPLINE
  5
7C
330
1F
100
AcDbEntity
  8
0
  6
Continuous
 62
     7
370
    15
100
AcDbSpline
210
0.0
220
0.0
230
1.0
 70
     8
 71
     3
 72
    20
 73
    16
 74
     0
 42
0.00000001
 43
0.00000001
 40
0.0
 40
0.0
 40
0.0
 40
0.0
 40
0.2500000000000005
 40
0.2500000000000005
 40
0.3750000000000004
 40
0.3750000000000004
 40
0.5000000000000003
 40
0.5000000000000003
 40
0.6250000000000002
 40
0.6250000000000002
 40
0.7500000000000001
 40
0.7500000000000001
 40
0.8750000000000001
 40
0.8750000000000001
 40
1.0
 40
1.0
 40
1.0
 40
1.0
 10
121.6856377218933
 20
126.1263813651138
 30
0.0
 10
121.9340114561814
 20
126.7802437934112
 30
0.0
 10
122.2535815485267
 20
127.3840295754084
 30
0.0
 10
122.8758877817313
 20
128.210868311577
 30
0.0
 10
123.1073120421621
 20
128.4732969495299
 30
0.0
 10
123.6285263818118
 20
128.9699596036348
 30
0.0
 10
123.9151468644469
 20
129.2005464826564
 30
0.0
 10
124.5346316057545
 20
129.617100707239
 30
0.0
 10
124.8689319852415
 20
129.8045985092065
 30
0.0
 10
125.5941924578662
 20
130.1359954868429
 30
0.0
 10
125.9761075152567
 20
130.2754994743382
 30
0.0
 10
126.7708956914284
 20
130.5009529818092
 30
0.0
 10
127.1850538856348
 20
130.5875790933528
 30
0.0
 10
128.0506002262162
 20
130.7055598822069
 30
0.0
 10
128.488487841228
 20
130.7350710274812
 30
0.0
 10
128.9312580675826
 20
130.7350710274812
 30
0.0
  0
SPLINE
  5
7D
330
1F
100
AcDbEntity
  8
0
  6
Continuous
 62
     7
370
    15
100
AcDbSpline
210
0.0
220
0.0
230
1.0
 70
     8
 71
     3
 72
    70
 73
    66
 74
     0
 42
0.00000001
 43
0.00000001
 40
-0.03125
 40
-0.03125
 40
0.0
 40
0.0
 40
0.0312500000000001
 40
0.0312500000000001
 40
0.0625000000000001
 40
0.0625000000000001
 40
0.0937500000000002
 40
0.0937500000000002
 40
0.1250000000000002
 40
0.1250000000000002
 40
0.1562500000000003
 40
0.1562500000000003
 40
0.1875000000000003
 40
0.1875000000000003
 40
0.2187500000000004
 40
0.2187500000000004
 40
0.2500000000000004
 40
0.2500000000000004
 40
0.2812500000000005
 40
0.2812500000000005
 40
0.3125000000000006
 40
0.3125000000000006
 40
0.3437500000000006
 40
0.3437500000000006
 40
0.3750000000000007
 40
0.3750000000000007
 40
0.4062500000000007
 40
0.4062500000000007
 40
0.4375000000000008
 40
0.4375000000000008
 40
0.4687500000000008
 40
0.4687500000000008
 40
0.5000000000000009
 40
0.5000000000000009
 40
0.5312500000000008
 40
0.5312500000000008
 40
0.5625000000000008
 40
0.5625000000000008
 40
0.5937500000000007
 40
0.5937500000000007
 40
0.6250000000000007
 40
0.6250000000000007
 40
0.6562500000000006
 40
0.6562500000000006
 40
0.6875000000000006
 40
0.6875000000000006
 40
0.7187500000000004
 40
0.7187500000000004
 40
0.7500000000000004
 40
0.7500000000000004
 40
0.7812500000000003
 40
0.7812500000000003
 40
0.8125000000000003
 40
0.8125000000000003
 40
0.8437500000000002
 40
0.8437500000000002
 40
0.8750000000000002
 40
0.8750000000000002
 40
0.9062500000000001
 40
0.9062500000000001
 40
0.9375000000000001
 40
0.9375000000000001
 40
0.96875
 40
0.96875
 40
1.0
 40
1.0
 40
1.03125
 40
1.03125
 10
124.4710923832332
 20
116.8972882510972
 30
0.0
 10
125.0001830605535
 20
116.8972882510972
 30
0.0
 10
125.2602537279306
 20
116.9219655458823
 30
0.0
 10
125.771828407766
 20
117.0184372189243
 30
0.0
 10
126.0260036915062
 20
117.0914181349043
 30
0.0
 10
126.5102743215679
 20
117.2811587378429
 30
0.0
 10
126.7399154134491
 20
117.3970193962367
 30
0.0
 10
127.1745197616826
 20
117.6696372421944
 30
0.0
 10
127.3800855383292
 20
117.8276763242481
 30
0.0
 10
127.7486426789244
 20
118.1712191752188
 30
0.0
 10
127.9141236616599
 20
118.3579816193205
 30
0.0
 10
128.206548171095
 20
118.7615247937173
 30
0.0
 10
128.3306491477215
 20
118.9750217901464
 30
0.0
 10
128.5302283444712
 20
119.4144051040689
 30
0.0
 10
128.6071619303295
 20
119.6435450912146
 30
0.0
 10
128.7100189888498
 20
120.1095192139746
 30
0.0
 10
128.735491898309
 20
120.3424016596507
 30
0.0
 10
128.7357823088768
 20
120.8077991947306
 30
0.0
 10
128.709757675101
 20
121.0426749521249
 30
0.0
 10
128.607609390609
 20
121.4941680993712
 30
0.0
 10
128.5320329430259
 20
121.7122145747825
 30
0.0
 10
128.3315354118809
 20
122.1333090998203
 30
0.0
 10
128.2064065703725
 20
122.3352304843387
 30
0.0
 10
127.9170477693509
 20
122.7072599668576
 30
0.0
 10
127.7516367822955
 20
122.8798882704379
 30
0.0
 10
127.3786462241477
 20
123.1972062749839
 30
0.0
 10
127.1769131910586
 20
123.3369932084856
 30
0.0
 10
126.7440539402307
 20
123.5811694620374
 30
0.0
 10
126.5101354073413
 20
123.6863989730789
 30
0.0
 10
126.0259516721987
 20
123.854556119454
 30
0.0
 10
125.7766360462432
 20
123.9178070100479
 30
0.0
 10
125.2636035218155
 20
124.0033862191505
 30
0.0
 10
124.9983096989108
 20
124.0252583840729
 30
0.0
 10
124.4759750790411
 20
124.0254220337168
 30
0.0
 10
124.2162214165593
 20
124.0044203416208
 30
0.0
 10
123.6996096009141
 20
123.9190179865431
 30
0.0
 10
123.4472435604138
 20
123.8550118032562
 30
0.0
 10
122.965718438881
 20
123.688197283215
 30
0.0
 10
122.7328677067674
 20
123.5840641198159
 30
0.0
 10
122.2957778583287
 20
123.3380774673209
 30
0.0
 10
122.0944568696715
 20
123.198327636372
 30
0.0
 10
121.7253708443716
 20
122.8851895666475
 30
0.0
 10
121.5563860933199
 20
122.7097334073773
 30
0.0
 10
121.2659300366607
 20
122.3368931432771
 30
0.0
 10
121.1428582252986
 20
122.1387713331662
 30
0.0
 10
120.9415219838765
 20
121.7180599904325
 30
0.0
 10
120.8643094379343
 20
121.496069969765
 30
0.0
 10
120.7621058950342
 20
121.0462050300566
 30
0.0
 10
120.7358775435819
 20
120.8159496169399
 30
0.0
 10
120.7354011442648
 20
120.3446336743908
 30
0.0
 10
120.7611435567628
 20
120.1113962586767
 30
0.0
 10
120.8624543331266
 20
119.6497197191786
 30
0.0
 10
120.9392869725176
 20
119.4188223320665
 30
0.0
 10
121.1396908117328
 20
118.9765463182748
 30
0.0
 10
121.2623623100248
 20
118.7654838869889
 30
0.0
 10
121.552309599189
 20
118.3639853762562
 30
0.0
 10
121.7208805785543
 20
118.1730788541803
 30
0.0
 10
122.0891501726674
 20
117.8293535221832
 30
0.0
 10
122.2902120299377
 20
117.6742163359691
 30
0.0
 10
122.7272429485227
 20
117.3991389758894
 30
0.0
 10
122.9593911616523
 20
117.2820227464674
 30
0.0
 10
123.4404014431511
 20
117.0930962614028
 30
0.0
 10
123.6925015259816
 20
117.0200212910086
 30
0.0
 10
124.2095710122406
 20
116.9219692318741
 30
0.0
 10
124.4710923832332
 20
116.8972882510972
 30
0.0
 10
125.0001830605535
 20
116.8972882510972
 30
0.0
  0
LINE
  5
7E
330
1F
100
AcDbEntity
  8
0
  6
Continuous
 62
     7
370
    15
100
AcDbLine
 10
138.1275705534
 20
76.0894636689
 30
0.0
 11
138.1275705534
 21
126.1263813651
 31
0.0
  0
SPLINE
  5
7F
330
1F
100
AcDbEntity
  8
0
  6
Continuous
 62
     7
370
    15
100
AcDbSpline
210
0.0
220
0.0
230
1.0
 70
     8
 71
     3
 72
     8
 73
     4
 74
     0
 42
0.00000001
 43
0.00000001
 40
0.0
 40
0.0
 40
0.0
 40
0.0
 40
1.0
 40
1.0
 40
1.0
 40
1.0
 10
138.1275705533824
 20
76.08946366886664
 30
0.0
 10
137.6320908927167
 20
76.9849897568
 30
0.0
 10
137.1379768446745
 20
77.88127417185225
 30
0.0
 10
136.6456377218933
 20
78.77854420605895
 30
0.0
  0
LINE
  5
80
330
1F
100
AcDbEntity
  8
0
  6
Continuous
 62
     7
370
    15
100
AcDbLine
 10
136.6456377219
 20
78.7785442061
 30
0.0
 11
136.6456377219
 21
126.1263813651
 31
0.0
  0
SPLINE
  5
81
330
1F
100
AcDbEntity
  8
0
  6
Continuous
 62
     7
370
    15
100
AcDbSpline
210
0.0
220
0.0
230
1.0
 70
    24
 71
     3
 72
     8
 73
     4
 74
     0
 42
0.00000001
 43
0.00000001
 40
0.0
 40
0.0
 40
0.0
 40
0.0
 40
1.0
 40
1.0
 40
1.0
 40
1.0
 10
136.6456377218933
 20
126.1263813651138
 30
0.0
 10
137.1255897162582
 20
126.1263813651138
 30
0.0
 10
137.6208904452319
 20
126.1263813651138
 30
0.0
 10
138.1275705533824
 20
126.1263813651138
 30
0.0
  0
LINE
  5
82
330
1F
100
AcDbEntity
  8
0
  6
Continuous
 62
     7
370
    15
100
AcDbLine
 10
142.6856377219
 20
76.7161039645
 30
0.0
 11
142.6856377219
 21
126.1263813651
 31
0.0
  0
SPLINE
  5
83
330
1F
100
AcDbEntity
  8
0
  6
Continuous
 62
     7
370
    15
100
AcDbSpline
210
0.0
220
0.0
230
1.0
 70
     8
 71
     3
 72
    10
 73
     6
 74
     0
 42
0.00000001
 43
0.00000001
 40
0.0
 40
0.0
 40
0.0
 40
0.0
 40
0.5
 40
0.5
 40
1.0
 40
1.0
 40
1.0
 40
1.0
 10
142.6856377218934
 20
76.71610396452095
 30
0.0
 10
142.6856377218933
 20
76.5562166963273
 30
0.0
 10
142.6243280706575
 20
76.3950894408127
 30
0.0
 10
142.4052284331224
 20
76.16099044245786
 30
0.0
 10
142.2471802268089
 20
76.08946366886664
 30
0.0
 10
142.0856377218933
 20
76.08946366886664
 30
0.0
  0
SPLINE
  5
84
330
1F
100
AcDbEntity
  8
0
  6
Continuous
 62
     7
370
    15
100
AcDbSpline
210
0.0
220
0.0
230
1.0
 70
    24
 71
     3
 72
    12
 73
     8
 74
     0
 42
0.00000001
 43
0.00000001
 40
0.0
 40
0.0
 40
0.0
 40
0.0
 40
0.2500000000000033
 40
0.2500000000000033
 40
0.5000000000000067
 40
0.5000000000000067
 40
1.0
 40
1.0
 40
1.0
 40
1.0
 10
142.0856377218933
 20
126.1263813651138
 30
0.0
 10
142.1758767895804
 20
126.1263813651138
 30
0.0
 10
142.2667749036869
 20
126.1263813651138
 30
0.0
 10
142.4213719401754
 20
126.1263813651138
 30
0.0
 10
142.4863503562835
 20
126.1263813651138
 30
0.0
 10
142.6381853842198
 20
126.1263813651138
 30
0.0
 10
142.6856377218934
 20
126.1263813651138
 30
0.0
 10
142.6856377218933
 20
126.1263813651138
 30
0.0
  0
LINE
  5
85
330
1F
100
AcDbEntity
  8
0
  6
Continuous
 62
     7
370
    15
100
AcDbLine
 10
116.7356377219
 20
75.0763813651
 30
0.0
 11
116.7356377219
 21
137.4763813579
 31
0.0
  0
LINE
  5
86
330
1F
100
AcDbEntity
  8
0
  6
Continuous
 62
     7
370
    15
100
AcDbLine
 10
142.0856377219
 20
76.0894636689
 30
0.0
 11
138.1275705534
 21
76.0894636689
 31
0.0
  0
LINE
  5
87
330
1F
100
AcDbEntity
  8
0
  6
Continuous
 62
     7
370
    15
100
AcDbLine
 10
138.1275705534
 20
126.1263813651
 30
0.0
 11
142.0856377219
 21
126.1263813651
 31
0.0
  0
ARC
  5
88
330
1F
100
AcDbEntity
  8
0
  6
Continuous
 62
     7
370
    15
100
AcDbCircle
 10
124.7355997937
 20
118.1933917831
 30
0.0
 40
4.105797355336533
100
AcDbArc
 50
19.0470706495
 51
160.9357326011
  0
SPLINE
  5
89
330
1F
100
AcDbEntity
  8
0
  6
Continuous
 62
     7
370
    15
100
AcDbSpline
210
0.0
220
0.0
230
1.0
 70
    24
 71
     3
 72
    14
 73
    10
 74
     0
 42
0.00000001
 43
0.00000001
 40
0.0
 40
0.0
 40
0.0
 40
0.0
 40
0.5000000000000013
 40
0.5000000000000013
 40
0.750000000000002
 40
0.750000000000002
 40
0.875000000000001
 40
0.875000000000001
 40
1.0
 40
1.0
 40
1.0
 40
1.0
 10
136.5479629195611
 20
79.8763813651138
 30
0.0
 10
136.5011782145129
 20
79.8763813651138
 30
0.0
 10
136.4391270177332
 20
79.87638136511382
 30
0.0
 10
136.2957353791826
 20
79.8763813651138
 30
0.0
 10
136.2395917256315
 20
79.8763813651138
 30
0.0
 10
136.1266407034953
 20
79.8763813651138
 30
0.0
 10
136.0836399414571
 20
79.8763813651138
 30
0.0
 10
135.9795772311507
 20
79.8763813651138
 30
0.0
 10
135.9142449927937
 20
79.87638136511382
 30
0.0
 10
135.8456377218934
 20
79.8763813651138
 30
0.0
  0
SPLINE
  5
8A
330
1F
100
AcDbEntity
  8
0
  6
Continuous
 62
     7
370
    15
100
AcDbSpline
210
0.0
220
0.0
230
1.0
 70
    24
 71
     3
 72
    12
 73
     8
 74
     0
 42
0.00000001
 43
0.00000001
 40
0.0
 40
0.0
 40
0.0
 40
0.0
 40
0.5000000000000017
 40
0.5000000000000017
 40
0.7500000000000008
 40
0.7500000000000008
 40
1.0
 40
1.0
 40
1.0
 40
1.0
 10
136.2513401902023
 20
132.6763813651138
 30
0.0
 10
136.2082546405914
 20
132.6763813651138
 30
0.0
 10
136.1591024388421
 20
132.6763813651138
 30
0.0
 10
136.0626298445542
 20
132.6763813651138
 30
0.0
 10
136.0265282594196
 20
132.6763813651138
 30
0.0
 10
135.9434225015583
 20
132.6763813651138
 30
0.0
 10
135.895425904592
 20
132.6763813651138
 30
0.0
 10
135.8456377218934
 20
132.6763813651138
 30
0.0
  0
SPLINE
  5
8B
330
1F
100
AcDbEntity
  8
0
  6
Continuous
 62
     7
370
    15
100
AcDbSpline
210
0.0
220
0.0
230
1.0
 70
     8
 71
     3
 72
    10
 73
     6
 74
     0
 42
0.00000001
 43
0.00000001
 40
0.0
 40
0.0
 40
0.0
 40
0.0
 40
0.5
 40
0.5
 40
1.0
 40
1.0
 40
1.0
 40
1.0
 10
136.6456377218933
 20
133.3960352161496
 30
0.0
 10
136.6456377218933
 20
133.2522651583316
 30
0.0
 10
136.6095886631745
 20
133.1098457958364
 30
0.0
 10
136.4740798024004
 20
132.8599515024792
 30
0.0
 10
136.3742038093042
 20
132.751921166231
 30
0.0
 10
136.2513401902023
 20
132.6763813651138
 30
0.0
  0
SPLINE
  5
8C
330
1F
100
AcDbEntity
  8
0
  6
Continuous
 62
     7
370
    15
100
AcDbSpline
210
0.0
220
0.0
230
1.0
 70
     8
 71
     3
 72
    10
 73
     6
 74
     0
 42
0.00000001
 43
0.00000001
 40
0.0
 40
0.0
 40
0.0
 40
0.0
 40
0.5
 40
0.5
 40
1.0
 40
1.0
 40
1.0
 40
1.0
 10
136.6194900987332
 20
126.1263813651138
 30
0.0
 10
136.6281797416449
 20
126.1732602144319
 30
0.0
 10
136.6347188063954
 20
126.2206826798332
 30
0.0
 10
136.6434774407884
 20
126.31661947842
 30
0.0
 10
136.6456377218933
 20
126.3645347664305
 30
0.0
 10
136.6456377218933
 20
126.412247996575
 30
0.0
  0
SPLINE
  5
8D
330
1F
100
AcDbEntity
  8
0
  6
Continuous
 62
     7
370
    15
100
AcDbSpline
210
0.0
220
0.0
230
1.0
 70
     8
 71
     3
 72
    10
 73
     6
 74
     0
 42
0.00000001
 43
0.00000001
 40
0.0
 40
0.0
 40
0.0
 40
0.0
 40
0.5
 40
0.5
 40
1.0
 40
1.0
 40
1.0
 40
1.0
 10
133.2199352535843
 20
132.6763813651138
 30
0.0
 10
133.0983949899158
 20
132.7511075323256
 30
0.0
 10
132.9970606295668
 20
132.8600525482424
 30
0.0
 10
132.8614216866784
 20
133.1104830290039
 30
0.0
 10
132.8256377218933
 20
133.2529023911029
 30
0.0
 10
132.8256377218933
 20
133.3960352161496
 30
0.0
  0
SPLINE
  5
8E
330
1F
100
AcDbEntity
  8
0
  6
Continuous
 62
     7
370
    15
100
AcDbSpline
210
0.0
220
0.0
230
1.0
 70
    24
 71
     3
 72
    12
 73
     8
 74
     0
 42
0.00000001
 43
0.00000001
 40
0.0
 40
0.0
 40
0.0
 40
0.0
 40
0.2500000000000037
 40
0.2500000000000037
 40
0.5000000000000074
 40
0.5000000000000074
 40
1.0
 40
1.0
 40
1.0
 40
1.0
 10
133.6256377218934
 20
132.6763813651138
 30
0.0
 10
133.5757610395759
 20
132.6763813651138
 30
0.0
 10
133.5277578461723
 20
132.6763813651138
 30
0.0
 10
133.4447097434603
 20
132.6763813651138
 30
0.0
 10
133.4085801639925
 20
132.6763813651138
 30
0.0
 10
133.3126681330482
 20
132.6763813651138
 30
0.0
 10
133.2629094650795
 20
132.6763813651138
 30
0.0
 10
133.2199352535843
 20
132.6763813651138
 30
0.0
  0
SPLINE
  5
8F
330
1F
100
AcDbEntity
  8
0
  6
Continuous
 62
     7
370
    15
100
AcDbSpline
210
0.0
220
0.0
230
1.0
 70
    24
 71
     3
 72
    14
 73
    10
 74
     0
 42
0.00000001
 43
0.00000001
 40
0.0
 40
0.0
 40
0.0
 40
0.0
 40
0.1249999999999991
 40
0.1249999999999991
 40
0.2499999999999982
 40
0.2499999999999982
 40
0.4999999999999998
 40
0.4999999999999998
 40
1.0
 40
1.0
 40
1.0
 40
1.0
 10
133.6256377218933
 20
79.8763813651138
 30
0.0
 10
133.5571998740069
 20
79.8763813651138
 30
0.0
 10
133.4916498352418
 20
79.87638136511382
 30
0.0
 10
133.3872231958339
 20
79.87638136511382
 30
0.0
 10
133.3446785860725
 20
79.87638136511382
 30
0.0
 10
133.2320691255322
 20
79.8763813651138
 30
0.0
 10
133.1765300785127
 20
79.8763813651138
 30
0.0
 10
133.0339183830489
 20
79.8763813651138
 30
0.0
 10
132.9705130280531
 20
79.8763813651138
 30
0.0
 10
132.9233125242256
 20
79.8763813651138
 30
0.0
  0
SPLINE
  5
90
330
1F
100
AcDbEntity
  8
0
  6
Continuous
 62
     7
370
    15
100
AcDbSpline
210
0.0
220
0.0
230
1.0
 70
     8
 71
     3
 72
    10
 73
     6
 74
     0
 42
0.00000001
 43
0.00000001
 40
0.0
 40
0.0
 40
0.0
 40
0.0
 40
0.5
 40
0.5
 40
1.0
 40
1.0
 40
1.0
 40
1.0
 10
132.8256377218933
 20
126.4122479965752
 30
0.0
 10
132.8256377218933
 20
126.3644764885819
 30
0.0
 10
132.8277989654905
 20
126.3167667665202
 30
0.0
 10
132.8364703393507
 20
126.2214716489719
 30
0.0
 10
132.8429995223067
 20
126.1737790850053
 30
0.0
 10
132.8517853450535
 20
126.1263813651138
 30
0.0
  0
LINE
  5
91
330
1F
100
AcDbEntity
  8
0
  6
Continuous
 62
     7
370
    15
100
AcDbLine
 10
135.8456377219
 20
132.6763813651
 30
0.0
 11
133.6256377219
 21
132.6763813651
 31
0.0
  0
LINE
  5
92
330
1F
100
AcDbEntity
  8
0
  6
Continuous
 62
     7
370
    15
100
AcDbLine
 10
135.8456377219
 20
79.8763813651
 30
0.0
 11
133.6256377219
 21
79.8763813651
 31
0.0
  0
LINE
  5
93
330
1F
100
AcDbEntity
  8
0
  6
Continuous
 62
     7
370
    15
100
AcDbLine
 10
94.9356377219
 20
83.0479344713
 30
0.0
 11
94.9356377219
 21
84.3126438339
 31
0.0
  0
SPLINE
  5
94
330
1F
100
AcDbEntity
  8
0
  6
Continuous
 62
     7
370
    15
100
AcDbSpline
210
0.0
220
0.0
230
1.0
 70
     8
 71
     3
 72
    14
 73
    10
 74
     0
 42
0.00000001
 43
0.00000001
 40
0.0
 40
0.0
 40
0.0
 40
0.0
 40
0.25
 40
0.25
 40
0.5
 40
0.5
 40
0.75
 40
0.75
 40
1.0
 40
1.0
 40
1.0
 40
1.0
 10
94.15735060397762
 20
85.44323004155385
 30
0.0
 10
94.2139772791797
 20
85.335532587717
 30
0.0
 10
94.30849993946944
 20
85.23274300599768
 30
0.0
 10
94.49154491503167
 20
85.03438569377752
 30
0.0
 10
94.58317149198639
 20
84.93832618509927
 30
0.0
 10
94.74202480967958
 20
84.75079714239003
 30
0.0
 10
94.80991541730127
 20
84.65938816960647
 30
0.0
 10
94.90683244300887
 20
84.48101194869632
 30
0.0
 10
94.93563772189393
 20
84.39379004245015
 30
0.0
 10
94.93563772189391
 20
84.3126438339159
 30
0.0
  0
SPLINE
  5
95
330
1F
100
AcDbEntity
  8
0
  6
Continuous
 62
     7
370
    15
100
AcDbSpline
210
0.0
220
0.0
230
1.0
 70
     8
 71
     3
 72
    14
 73
    10
 74
     0
 42
0.00000001
 43
0.00000001
 40
0.0
 40
0.0
 40
0.0
 40
0.0
 40
0.1250000000000025
 40
0.1250000000000025
 40
0.250000000000005
 40
0.250000000000005
 40
0.5000000000000046
 40
0.5000000000000046
 40
1.0
 40
1.0
 40
1.0
 40
1.0
 10
93.53563772189334
 20
85.88991190383318
 30
0.0
 10
93.5841821305505
 20
85.89566021711346
 30
0.0
 10
93.6370974853354
 20
85.89255932845722
 30
0.0
 10
93.73239283031843
 20
85.8703644842949
 30
0.0
 10
93.77264382760339
 20
85.85313225719904
 30
0.0
 10
93.87691384111636
 20
85.79680434074699
 30
0.0
 10
93.9272358162697
 20
85.75261799480118
 30
0.0
 10
94.05491876379509
 20
85.62161009595056
 30
0.0
 10
94.11100421085736
 20
85.53137557572028
 30
0.0
 10
94.15735060397908
 20
85.44323004155439
 30
0.0
  0
SPLINE
  5
96
330
1F
100
AcDbEntity
  8
0
  6
Continuous
 62
     7
370
    15
100
AcDbSpline
210
0.0
220
0.0
230
1.0
 70
     8
 71
     3
 72
     8
 73
     4
 74
     0
 42
0.00000001
 43
0.00000001
 40
0.0
 40
0.0
 40
0.0
 40
0.0
 40
1.0
 40
1.0
 40
1.0
 40
1.0
 10
91.2671126289471
 20
85.58006661725037
 30
0.0
 10
92.00168965543007
 20
85.69869162831934
 30
0.0
 10
92.76516472482571
 20
85.79867750045563
 30
0.0
 10
93.53563772189334
 20
85.88991190383318
 30
0.0
  0
SPLINE
  5
97
330
1F
100
AcDbEntity
  8
0
  6
Continuous
 62
     7
370
    15
100
AcDbSpline
210
0.0
220
0.0
230
1.0
 70
     8
 71
     3
 72
    14
 73
    10
 74
     0
 42
0.00000001
 43
0.00000001
 40
0.0
 40
0.0
 40
0.0
 40
0.0
 40
0.4999999999999989
 40
0.4999999999999989
 40
0.7499999999999983
 40
0.7499999999999983
 40
0.8749999999999991
 40
0.8749999999999991
 40
1.0
 40
1.0
 40
1.0
 40
1.0
 10
85.98563772189334
 20
85.40644359971873
 30
0.0
 10
86.87778385244692
 20
85.40572137351808
 30
0.0
 10
87.76776028824048
 20
85.41030757997555
 30
0.0
 10
89.0943554553161
 20
85.43803258436708
 30
0.0
 10
89.53520238381483
 20
85.45063912199124
 30
0.0
 10
90.19164262123726
 20
85.48165526999871
 30
0.0
 10
90.40965627782914
 20
85.49399844262548
 30
0.0
 10
90.8423651315119
 20
85.52702249778874
 30
0.0
 10
91.05764159667669
 20
85.54623966292718
 30
0.0
 10
91.2671126289471
 20
85.58006661725037
 30
0.0
  0
SPLINE
  5
98
330
1F
100
AcDbEntity
  8
0
  6
Continuous
 62
     7
370
    15
100
AcDbSpline
210
0.0
220
0.0
230
1.0
 70
     8
 71
     3
 72
     8
 73
     4
 74
     0
 42
0.00000001
 43
0.00000001
 40
0.0000005163856998
 40
0.0000005163856998
 40
0.0000005163856998
 40
0.0000005163856998
 40
0.000026289209185
 40
0.000026289209185
 40
0.000026289209185
 40
0.000026289209185
 10
85.97559279148572
 20
85.41642747281551
 30
0.0
 10
85.97892052969355
 20
85.4130932259464
 30
0.0
 10
85.98226898266915
 20
85.40976526867108
 30
0.0
 10
85.98563772189331
 20
85.40644359971871
 30
0.0
  0
SPLINE
  5
99
330
1F
100
AcDbEntity
  8
0
  6
Continuous
 62
     7
370
    15
100
AcDbSpline
210
0.0
220
0.0
230
1.0
 70
     8
 71
     3
 72
     8
 73
     4
 74
     0
 42
0.00000001
 43
0.00000001
 40
0.0000005099763573
 40
0.0000005099763573
 40
0.0000005099763573
 40
0.0000005099763573
 40
0.0000262827998699
 40
0.0000262827998699
 40
0.0000262827998699
 40
0.0000262827998699
 10
85.98563772189333
 20
127.1463191305089
 30
0.0
 10
85.98226898266557
 20
127.142997461553
 30
0.0
 10
85.97892052968643
 20
127.1396695042741
 30
0.0
 10
85.9755927914751
 20
127.1363352574015
 30
0.0
  0
SPLINE
  5
9A
330
1F
100
AcDbEntity
  8
0
  6
Continuous
 62
     7
370
    15
100
AcDbSpline
210
0.0
220
0.0
230
1.0
 70
     8
 71
     3
 72
    10
 73
     6
 74
     0
 42
0.00000001
 43
0.00000001
 40
0.0
 40
0.0
 40
0.0
 40
0.0
 40
0.5
 40
0.5
 40
1.0
 40
1.0
 40
1.0
 40
1.0
 10
89.53563772189334
 20
127.0994687569416
 30
0.0
 10
88.94805217480274
 20
127.120534277178
 30
0.0
 10
88.35730578134236
 20
127.1312927630502
 30
0.0
 10
87.1732866160435
 20
127.1446575435858
 30
0.0
 10
86.57987262783804
 20
127.1468001862504
 30
0.0
 10
85.98563772189334
 20
127.1463191305089
 30
0.0
  0
SPLINE
  5
9B
330
1F
100
AcDbEntity
  8
0
  6
Continuous
 62
     7
370
    15
100
AcDbSpline
210
0.0
220
0.0
230
1.0
 70
     8
 71
     3
 72
    18
 73
    14
 74
     0
 42
0.00000001
 43
0.00000001
 40
0.0
 40
0.0
 40
0.0
 40
0.0
 40
0.2499999999999991
 40
0.2499999999999991
 40
0.499999999999999
 40
0.499999999999999
 40
0.7499999999999989
 40
0.7499999999999989
 40
0.8749999999999999
 40
0.8749999999999999
 40
0.9374999999999999
 40
0.9374999999999999
 40
1.0
 40
1.0
 40
1.0
 40
1.0
 10
90.93563772189336
 20
128.1204890374768
 30
0.0
 10
90.93563772189336
 20
128.0372821286196
 30
0.0
 10
90.89978862195508
 20
127.948545473306
 30
0.0
 10
90.77491688592117
 20
127.7664202827458
 30
0.0
 10
90.6845164682733
 20
127.6712902341192
 30
0.0
 10
90.46227381353113
 20
127.4821087249948
 30
0.0
 10
90.33250902708534
 20
127.3871635569001
 30
0.0
 10
90.09187156977383
 20
127.2488848493202
 30
0.0
 10
90.0041042716364
 20
127.2031744160178
 30
0.0
 10
89.84958018442957
 20
127.1453511107964
 30
0.0
 10
89.79296929837483
 20
127.1276363467585
 30
0.0
 10
89.66892526746823
 20
127.1030970435256
 30
0.0
 10
89.60121059244992
 20
127.0971179049873
 30
0.0
 10
89.53563772189334
 20
127.0994687569416
 30
0.0
  0
LINE
  5
9C
330
1F
100
AcDbEntity
  8
0
  6
Continuous
 62
     7
370
    15
100
AcDbLine
 10
90.9356377219
 20
128.1204890375
 30
0.0
 11
90.9356377219
 21
129.3044274573
 31
0.0
  0
LINE
  5
9D
330
1F
100
AcDbEntity
  8
0
  6
Continuous
 62
     7
370
    15
100
AcDbLine
 10
114.7356377219
 20
82.0559505034
 30
0.0
 11
114.7356377219
 21
130.4968122268
 31
0.0
  0
SPLINE
  5
9E
330
1F
100
AcDbEntity
  8
0
  6
Continuous
 62
     7
370
    15
100
AcDbSpline
210
0.0
220
0.0
230
1.0
 70
     8
 71
     3
 72
    24
 73
    20
 74
     0
 42
0.00000001
 43
0.00000001
 40
0.0
 40
0.0
 40
0.0
 40
0.0
 40
0.0010489762969683
 40
0.0637843125636769
 40
0.1272220590447979
 40
0.190378892448547
 40
0.2526748653693617
 40
0.3146354154430339
 40
0.3770891997149997
 40
0.4393540298511558
 40
0.5008133242537859
 40
0.56218451045969
 40
0.6248438451115955
 40
0.6874304766618995
 40
0.749674317467912
 40
0.8119848426969831
 40
0.8750960525413152
 40
0.9384412526965837
 40
1.0
 40
1.0
 40
1.0
 40
1.0
 10
103.504543553869
 20
82.61887293653366
 30
0.0
 10
103.5040970937648
 20
82.61881465071477
 30
0.0
 10
103.4769495300708
 20
82.61527050877207
 30
0.0
 10
103.5725613076833
 20
82.62810425345512
 30
0.0
 10
103.8061215655784
 20
82.65735093865503
 30
0.0
 10
104.2016758728964
 20
82.70396526171791
 30
0.0
 10
104.7287161767352
 20
82.75414840337731
 30
0.0
 10
105.3722465887234
 20
82.79852486582773
 30
0.0
 10
106.1109204439681
 20
82.82546964676527
 30
0.0
 10
106.9084349493999
 20
82.82894149747142
 30
0.0
 10
107.7350138318463
 20
82.8013142534413
 30
0.0
 10
108.5605368494548
 20
82.74283536446865
 30
0.0
 10
109.3526633974561
 20
82.65739033510773
 30
0.0
 10
110.0852356714533
 20
82.55565609527117
 30
0.0
 10
110.7208759081835
 20
82.44781297329948
 30
0.0
 10
111.2427870151948
 20
82.34618281656034
 30
0.0
 10
111.6244157923081
 20
82.2636976598819
 30
0.0
 10
111.8752302625441
 20
82.20754845353208
 30
0.0
 10
111.904351818528
 20
82.20069899491834
 30
0.0
 10
111.918704339344
 20
82.19732324819017
 30
0.0
  0
SPLINE
  5
9F
330
1F
100
AcDbEntity
  8
0
  6
Continuous
 62
     7
370
    15
100
AcDbSpline
210
0.0
220
0.0
230
1.0
 70
     8
 71
     3
 72
    24
 73
    20
 74
     0
 42
0.00000001
 43
0.00000001
 40
0.0
 40
0.0
 40
0.0
 40
0.0
 40
0.0614384276252095
 40
0.1250736755369691
 40
0.1884253490731512
 40
0.2508623904037511
 40
0.3129665632512957
 40
0.3753451453465188
 40
0.4377328972324856
 40
0.4990927322917281
 40
0.5605807588449117
 40
0.622946989302896
 40
0.6854686282028133
 40
0.7475477813740252
 40
0.8098225060806654
 40
0.8730684085990508
 40
0.9364041844531371
 40
0.9991757196257861
 40
1.0
 40
1.0
 40
1.0
 40
1.0
 10
111.9186495685411
 20
130.3554103395712
 30
0.0
 10
111.9040488442374
 20
130.3520422827186
 30
0.0
 10
111.8743253255091
 20
130.3451857392448
 30
0.0
 10
111.6215875098603
 20
130.2888471187187
 30
0.0
 10
111.2385915934113
 20
130.2059900365888
 30
0.0
 10
110.7162360089731
 20
130.1040830066374
 30
0.0
 10
110.0814515309733
 20
129.9962438675937
 30
0.0
 10
109.3512279268012
 20
129.8947769156186
 30
0.0
 10
108.5607593415677
 20
129.809717201928
 30
0.0
 10
107.7362758267389
 20
129.7515129080416
 30
0.0
 10
106.9092393678552
 20
129.7239294692148
 30
0.0
 10
106.1109151002029
 20
129.7274224467078
 30
0.0
 10
105.3710911359147
 20
129.754378366561
 30
0.0
 10
104.7268369029389
 20
129.7987323085602
 30
0.0
 10
104.1994296477237
 20
129.848937758318
 30
0.0
 10
103.8047650455739
 20
129.8955476135162
 30
0.0
 10
103.5722357663896
 20
129.9247432060639
 30
0.0
 10
103.4768557338362
 20
129.9375212750051
 30
0.0
 10
103.5037893707379
 20
129.9339670164972
 30
0.0
 10
103.5041384639623
 20
129.9339209489139
 30
0.0
  0
SPLINE
  5
A0
330
1F
100
AcDbEntity
  8
0
  6
Continuous
 62
     7
370
    15
100
AcDbSpline
210
0.0
220
0.0
230
1.0
 70
     8
 71
     3
 72
    10
 73
     6
 74
     0
 42
0.00000001
 43
0.00000001
 40
0.0
 40
0.0
 40
0.0
 40
0.0
 40
0.0840381716606348
 40
0.7011125076933074
 40
1.0
 40
1.0
 40
1.0
 40
1.0
 10
84.849184684429
 20
86.54760745743047
 30
0.0
 10
84.84985924176391
 20
86.54540183059457
 30
0.0
 10
84.85548692946013
 20
86.52700075723236
 30
0.0
 10
84.88180840958698
 20
86.54123531995553
 30
0.0
 10
84.89424342643167
 20
86.58692109550651
 30
0.0
 10
84.89830109661672
 20
86.60182882033307
 30
0.0
  0
LINE
  5
A1
330
1F
100
AcDbEntity
  8
0
  6
Continuous
 62
     7
370
    15
100
AcDbLine
 10
84.8356377219
 20
86.5857036186
 30
0.0
 11
84.8356377219
 21
125.9670591116
 31
0.0
  0
SPLINE
  5
A2
330
1F
100
AcDbEntity
  8
0
  6
Continuous
 62
     7
370
    15
100
AcDbSpline
210
0.0
220
0.0
230
1.0
 70
     8
 71
     3
 72
    10
 73
     6
 74
     0
 42
0.00000001
 43
0.00000001
 40
0.0
 40
0.0
 40
0.0
 40
0.0
 40
0.5
 40
0.5
 40
1.0
 40
1.0
 40
1.0
 40
1.0
 10
84.89830109661675
 20
125.9509339098945
 30
0.0
 10
84.88939680750799
 20
125.9966754291077
 30
0.0
 10
84.87288142731501
 20
126.0138662685767
 30
0.0
 10
84.84577348125342
 20
126.013542991641
 30
0.0
 10
84.83563772189335
 20
125.9956654493445
 30
0.0
 10
84.83563772189335
 20
125.967059111592
 30
0.0
  0
SPLINE
  5
A3
330
1F
100
AcDbEntity
  8
0
  6
Continuous
 62
     7
370
    15
100
AcDbSpline
210
0.0
220
0.0
230
1.0
 70
     8
 71
     3
 72
    26
 73
    22
 74
     0
 42
0.00000001
 43
0.00000001
 40
0.0
 40
0.0
 40
0.0
 40
0.0
 40
0.2500000000000165
 40
0.2500000000000165
 40
0.3750000000000256
 40
0.3750000000000256
 40
0.4375000000000291
 40
0.4375000000000291
 40
0.4687500000000291
 40
0.4687500000000291
 40
0.5000000000000292
 40
0.5000000000000292
 40
0.5312500000000293
 40
0.5312500000000293
 40
0.5625000000000293
 40
0.5625000000000293
 40
0.625000000000026
 40
0.625000000000026
 40
0.7500000000000173
 40
0.7500000000000173
 40
1.0
 40
1.0
 40
1.0
 40
1.0
 10
85.65979136799785
 20
126.6665006987116
 30
0.0
 10
85.62119084512938
 20
126.5487260023562
 30
0.0
 10
85.57489384257512
 20
126.4243363161943
 30
0.0
 10
85.4809544941412
 20
126.2191169838408
 30
0.0
 10
85.44564302722773
 20
126.1475441173943
 30
0.0
 10
85.37946305148206
 20
126.0315908847939
 30
0.0
 10
85.35492468481384
 20
125.9910063499836
 30
0.0
 10
85.31155193926004
 20
125.9268646681119
 30
0.0
 10
85.29604353783485
 20
125.9049982428269
 30
0.0
 10
85.26100089324781
 20
125.8594039744837
 30
0.0
 10
85.24145060252805
 20
125.8357336835163
 30
0.0
 10
85.19952332215743
 20
125.7911171241763
 30
0.0
 10
85.1768712119258
 20
125.7702371116584
 30
0.0
 10
85.13589749783918
 20
125.7393636979076
 30
0.0
 10
85.11829819794376
 20
125.7295248280751
 30
0.0
 10
85.0736712120876
 20
125.710535212379
 30
0.0
 10
85.05311198943427
 20
125.7102108877256
 30
0.0
 10
85.0019865499376
 20
125.7194343286018
 30
0.0
 10
84.98107513694906
 20
125.7406812248187
 30
0.0
 10
84.92962522938812
 20
125.8146501036495
 30
0.0
 10
84.91195993008357
 20
125.8807681969643
 30
0.0
 10
84.89830109661675
 20
125.9509339098945
 30
0.0
  0
SPLINE
  5
A4
330
1F
100
AcDbEntity
  8
0
  6
Continuous
 62
     7
370
    15
100
AcDbSpline
210
0.0
220
0.0
230
1.0
 70
     8
 71
     3
 72
    10
 73
     6
 74
     0
 42
0.00000001
 43
0.00000001
 40
0.0
 40
0.0
 40
0.0
 40
0.0
 40
0.5
 40
0.5
 40
1.0
 40
1.0
 40
1.0
 40
1.0
 10
85.97559279147512
 20
127.1363352574015
 30
0.0
 10
85.90803353655687
 20
127.0686438645917
 30
0.0
 10
85.84439688122039
 20
126.993936699838
 30
0.0
 10
85.73417612664855
 20
126.8349705674114
 30
0.0
 10
85.68735983342592
 20
126.7506153014034
 30
0.0
 10
85.65979136799784
 20
126.6665006987116
 30
0.0
  0
SPLINE
  5
A5
330
1F
100
AcDbEntity
  8
0
  6
Continuous
 62
     7
370
    15
100
AcDbSpline
210
0.0
220
0.0
230
1.0
 70
     8
 71
     3
 72
    10
 73
     6
 74
     0
 42
0.00000001
 43
0.00000001
 40
0.0
 40
0.0
 40
0.0
 40
0.0
 40
0.5
 40
0.5
 40
1.0
 40
1.0
 40
1.0
 40
1.0
 10
85.6597913679979
 20
85.88626203151584
 30
0.0
 10
85.68726878275186
 20
85.80242523504793
 30
0.0
 10
85.73397741304129
 20
85.7181147474588
 30
0.0
 10
85.84425587578723
 20
85.55899351697211
 30
0.0
 10
85.90814341440112
 20
85.48400877288245
 30
0.0
 10
85.97559279148574
 20
85.41642747281551
 30
0.0
  0
SPLINE
  5
A6
330
1F
100
AcDbEntity
  8
0
  6
Continuous
 62
     7
370
    15
100
AcDbSpline
210
0.0
220
0.0
230
1.0
 70
     8
 71
     3
 72
    24
 73
    20
 74
     0
 42
0.00000001
 43
0.00000001
 40
0.0
 40
0.0
 40
0.0
 40
0.0
 40
0.25
 40
0.25
 40
0.374999999999999
 40
0.374999999999999
 40
0.4374999999999993
 40
0.4374999999999993
 40
0.4687499999999994
 40
0.4687499999999994
 40
0.4999999999999995
 40
0.4999999999999995
 40
0.5624999999999971
 40
0.5624999999999971
 40
0.6249999999999947
 40
0.6249999999999947
 40
0.7499999999999947
 40
0.7499999999999947
 40
1.0
 40
1.0
 40
1.0
 40
1.0
 10
84.89830109661675
 20
86.60182882033307
 30
0.0
 10
84.91205421528697
 20
86.67247887832336
 30
0.0
 10
84.92982678269284
 20
86.73907699108827
 30
0.0
 10
84.98207787424819
 20
86.81317501132148
 30
0.0
 10
85.00311294982976
 20
86.83443281848304
 30
0.0
 10
85.05601335745818
 20
86.84257874462928
 30
0.0
 10
85.0771190303361
 20
86.84163894123351
 30
0.0
 10
85.12317119901408
 20
86.82062294965615
 30
0.0
 10
85.14154167099747
 20
86.80971414354855
 30
0.0
 10
85.18309330606316
 20
86.77707923260117
 30
0.0
 10
85.20565997882008
 20
86.75558725222982
 30
0.0
 10
85.2684409952801
 20
86.6871213086435
 30
0.0
 10
85.301570756248
 20
86.6410468504384
 30
0.0
 10
85.358488442733
 20
86.55603896210373
 30
0.0
 10
85.38267446823677
 20
86.51575866092234
 30
0.0
 10
85.44788241861653
 20
86.4008224344564
 30
0.0
 10
85.48259847880777
 20
86.3302394493094
 30
0.0
 10
85.57581374913867
 20
86.1260336902308
 30
0.0
 10
85.62148628449934
 20
86.00313530790343
 30
0.0
 10
85.65979136799788
 20
85.88626203151587
 30
0.0
  0
LINE
  5
A7
330
1F
100
AcDbEntity
  8
0
  6
Continuous
 62
     7
370
    15
100
AcDbLine
 10
160.9108187772
 20
85.7763813651
 30
0.0
 11
160.9108187772
 21
126.7763813651
 31
0.0
  0
LINE
  5
A8
330
1F
100
AcDbEntity
  8
0
  6
Continuous
 62
     7
370
    15
100
AcDbLine
 10
151.3344081868
 20
126.6486243887
 30
0.0
 11
151.4197014939
 21
126.6413042186
 31
0.0
  0
SPLINE
  5
A9
330
1F
100
AcDbEntity
  8
0
  6
Continuous
 62
     7
370
    15
100
AcDbSpline
210
0.0
220
0.0
230
1.0
 70
     8
 71
     3
 72
    36
 73
    32
 74
     0
 42
0.00000001
 43
0.00000001
 40
0.0
 40
0.0
 40
0.0
 40
0.0
 40
0.0316636627240474
 40
0.0551239763724233
 40
0.0766306792665817
 40
0.1203174111506412
 40
0.1425306175384989
 40
0.1652407202479298
 40
0.2113014363857095
 40
0.2346782741540887
 40
0.2599993935861575
 40
0.3113496050206839
 40
0.3374111038804609
 40
0.3656478992863451
 40
0.4229645179695717
 40
0.452093584416756
 40
0.4823496268686076
 40
0.5438481947528157
 40
0.5751612163398158
 40
0.6059897222026036
 40
0.6370388948046286
 40
0.668803593392613
 40
0.7008255880925739
 40
0.7306398602360482
 40
0.7914651542174632
 40
0.8226064832595602
 40
0.8495084254323605
 40
0.9044878985738432
 40
0.932695432764565
 40
0.9560527454254204
 40
0.9999999999999999
 40
0.9999999999999999
 40
0.9999999999999999
 40
0.9999999999999999
 10
157.1766365446002
 20
126.7751976833144
 30
0.0
 10
157.1767652213994
 20
126.7752121937009
 30
0.0
 10
157.176989237708
 20
126.7752374551563
 30
0.0
 10
157.1294777356539
 20
126.7690214714051
 30
0.0
 10
157.054359043545
 20
126.7593357396827
 30
0.0
 10
156.9436718170439
 20
126.7453876513095
 30
0.0
 10
156.7998928746428
 20
126.7280975457368
 30
0.0
 10
156.6311570110812
 20
126.7085142030745
 30
0.0
 10
156.4297654079896
 20
126.686542210138
 30
0.0
 10
156.1967881753561
 20
126.6633201601134
 30
0.0
 10
155.9332826036316
 20
126.6388549676508
 30
0.0
 10
155.6370558643645
 20
126.6147160567293
 30
0.0
 10
155.3129666617594
 20
126.5927006361004
 30
0.0
 10
154.9579773572027
 20
126.5720156409741
 30
0.0
 10
154.5759004327674
 20
126.5557872153725
 30
0.0
 10
154.1780616672068
 20
126.5457677137751
 30
0.0
 10
153.7616899948304
 20
126.540220949293
 30
0.0
 10
153.334479168645
 20
126.5425070673518
 30
0.0
 10
152.9123969213653
 20
126.5526537928509
 30
0.0
 10
152.5995831012138
 20
126.5640052599484
 30
0.0
 10
152.2929874439172
 20
126.5787864146566
 30
0.0
 10
151.9928110675502
 20
126.5967603330154
 30
0.0
 10
151.7094132111405
 20
126.6169348672536
 30
0.0
 10
151.3580158266379
 20
126.6455620809528
 30
0.0
 10
151.0420030407612
 20
126.6759512026426
 30
0.0
 10
150.7782972810639
 20
126.7043156385053
 30
0.0
 10
150.5574924952864
 20
126.7294986736142
 30
0.0
 10
150.3868606573853
 20
126.7504526772147
 30
0.0
 10
150.2756629492107
 20
126.764633036946
 30
0.0
 10
150.2033278547928
 20
126.7740367131789
 30
0.0
 10
150.1945787237197
 20
126.7751990478072
 30
0.0
 10
150.1888658827288
 20
126.7759580069375
 30
0.0
  0
SPLINE
  5
AA
330
1F
100
AcDbEntity
  8
0
  6
Continuous
 62
     7
370
    15
100
AcDbSpline
210
0.0
220
0.0
230
1.0
 70
     8
 71
     3
 72
     9
 73
     5
 74
     0
 42
0.00000001
 43
0.00000001
 40
0.0
 40
0.0
 40
0.0
 40
0.0
 40
0.4519147939470706
 40
1.0
 40
1.0
 40
1.0
 40
1.0
 10
150.9900581548434
 20
126.6819784105369
 30
0.0
 10
151.0390167316934
 20
126.6769612219207
 30
0.0
 10
151.1473525894827
 20
126.665859154267
 30
0.0
 10
151.2681828878534
 20
126.6547261975496
 30
0.0
 10
151.3344081868334
 20
126.6486243886732
 30
0.0
  0
SPLINE
  5
AB
330
1F
100
AcDbEntity
  8
0
  6
Continuous
 62
     7
370
    15
100
AcDbSpline
210
0.0
220
0.0
230
1.0
 70
     8
 71
     3
 72
    68
 73
    64
 74
     0
 42
0.00000001
 43
0.00000001
 40
-0.0312500000000002
 40
-0.0312500000000002
 40
0.0
 40
0.0
 40
0.0312499999999998
 40
0.0312499999999998
 40
0.0624999999999996
 40
0.0624999999999996
 40
0.0937499999999993
 40
0.0937499999999993
 40
0.1249999999999991
 40
0.1249999999999991
 40
0.1562499999999989
 40
0.1562499999999989
 40
0.1874999999999987
 40
0.1874999999999987
 40
0.2187499999999984
 40
0.2187499999999984
 40
0.2499999999999982
 40
0.2499999999999982
 40
0.281249999999998
 40
0.281249999999998
 40
0.3124999999999978
 40
0.3124999999999978
 40
0.3437499999999976
 40
0.3437499999999976
 40
0.3749999999999973
 40
0.3749999999999973
 40
0.4062499999999971
 40
0.4062499999999971
 40
0.4374999999999969
 40
0.4374999999999969
 40
0.4999999999999964
 40
0.4999999999999964
 40
0.5312499999999967
 40
0.5312499999999967
 40
0.5624999999999969
 40
0.5624999999999969
 40
0.5937499999999971
 40
0.5937499999999971
 40
0.6249999999999973
 40
0.6249999999999973
 40
0.6562499999999976
 40
0.6562499999999976
 40
0.6874999999999978
 40
0.6874999999999978
 40
0.718749999999998
 40
0.718749999999998
 40
0.7499999999999982
 40
0.7499999999999982
 40
0.7812499999999984
 40
0.7812499999999984
 40
0.8124999999999987
 40
0.8124999999999987
 40
0.8437499999999989
 40
0.8437499999999989
 40
0.8749999999999991
 40
0.8749999999999991
 40
0.9062499999999993
 40
0.9062499999999993
 40
0.9374999999999996
 40
0.9374999999999996
 40
0.9687499999999998
 40
0.9687499999999998
 40
1.0
 40
1.0
 40
1.03125
 40
1.03125
 10
151.1650798356886
 20
108.4252404130028
 30
0.0
 10
151.5037365402531
 20
108.6977363982223
 30
0.0
 10
151.6832057844926
 20
108.8158607380228
 30
0.0
 10
152.0605460975576
 20
109.0194144479637
 30
0.0
 10
152.2597118186227
 20
109.1052148299841
 30
0.0
 10
152.6710380649643
 20
109.2418144859253
 30
0.0
 10
152.8801916261672
 20
109.291870586941
 30
0.0
 10
153.3051735181925
 20
109.3572070565048
 30
0.0
 10
153.5229148688627
 20
109.3723926692404
 30
0.0
 10
153.9553942466309
 20
109.3664745392916
 30
0.0
 10
154.1691395157097
 20
109.3457584565247
 30
0.0
 10
154.5917065160461
 20
109.2692293523988
 30
0.0
 10
154.8024689709331
 20
109.2126574643359
 30
0.0
 10
155.2083580754606
 20
109.065185958248
 30
0.0
 10
155.4026553389049
 20
108.9750374390844
 30
0.0
 10
155.7736820885502
 20
108.7612272317227
 30
0.0
 10
155.9522263651797
 20
108.6359698476812
 30
0.0
 10
156.2799132366975
 20
108.3555603236082
 30
0.0
 10
156.4283207923323
 20
108.2017216784443
 30
0.0
 10
156.6927243219824
 20
107.8652561989191
 30
0.0
 10
156.8099872615057
 20
107.6796954531575
 30
0.0
 10
156.9980881025089
 20
107.2919777321508
 30
0.0
 10
157.0697196464823
 20
107.0901647616008
 30
0.0
 10
157.1654541205321
 20
106.6696271617722
 30
0.0
 10
157.1886056007267
 20
106.4503443406628
 30
0.0
 10
157.1820413955937
 20
106.0200170431207
 30
0.0
 10
157.1526762983146
 20
105.8034842639475
 30
0.0
 10
157.0437836909947
 20
105.3831348033476
 30
0.0
 10
156.9656815288735
 20
105.1823162324287
 30
0.0
 10
156.6649185148685
 20
104.6060618220077
 30
0.0
 10
156.3797144601108
 20
104.2686026160391
 30
0.0
 10
155.8758516904079
 20
103.8610072445682
 30
0.0
 10
155.6965845048128
 20
103.7420600797709
 30
0.0
 10
155.3166418459575
 20
103.535993962428
 30
0.0
 10
155.1158631494606
 20
103.449345005168
 30
0.0
 10
154.7074853303361
 20
103.3129962981531
 30
0.0
 10
154.4981529371094
 20
103.2622721871616
 30
0.0
 10
154.0691634691594
 20
103.1957399554211
 30
0.0
 10
153.8520556018249
 20
103.1805923893837
 30
0.0
 10
153.4219987857829
 20
103.1859377412487
 30
0.0
 10
153.2076209793341
 20
103.206189673141
 30
0.0
 10
152.7802161051916
 20
103.283239946434
 30
0.0
 10
152.5705308743969
 20
103.3396713341224
 30
0.0
 10
152.1671308436218
 20
103.4858561123233
 30
0.0
 10
151.9721100367384
 20
103.575807217489
 30
0.0
 10
151.596419813364
 20
103.792119286769
 30
0.0
 10
151.418940791822
 20
103.9170060186411
 30
0.0
 10
151.093663457283
 20
104.1951135087243
 30
0.0
 10
150.9444329035936
 20
104.3490732327509
 30
0.0
 10
150.6761144116208
 20
104.6906943417721
 30
0.0
 10
150.5607891076489
 20
104.8741166978649
 30
0.0
 10
150.3737937640815
 20
105.2595143206847
 30
0.0
 10
150.3007185021174
 20
105.4648009306403
 30
0.0
 10
150.2048063482344
 20
105.8890978320748
 30
0.0
 10
150.1825460319722
 20
106.1032098648297
 30
0.0
 10
150.189410951181
 20
106.5353641703837
 30
0.0
 10
150.2195711820705
 20
106.7541591505667
 30
0.0
 10
150.3283615864515
 20
107.1718379498104
 30
0.0
 10
150.4079273400507
 20
107.3758957567715
 30
0.0
 10
150.6095429903731
 20
107.7602008591964
 30
0.0
 10
150.7301418885894
 20
107.9389990739834
 30
0.0
 10
151.0079905372112
 20
108.2719838394892
 30
0.0
 10
151.1650798356886
 20
108.4252404130028
 30
0.0
 10
151.5037365402531
 20
108.6977363982223
 30
0.0
  0
SPLINE
  5
AC
330
1F
100
AcDbEntity
  8
0
  6
Continuous
 62
     7
370
    15
100
AcDbSpline
210
0.0
220
0.0
230
1.0
 70
     8
 71
     3
 72
    37
 73
    33
 74
     0
 42
0.00000001
 43
0.00000001
 40
0.0
 40
0.0
 40
0.0
 40
0.0
 40
0.0253261741981315
 40
0.0489570215777731
 40
0.070455088607259
 40
0.1141316802208921
 40
0.1363445073937923
 40
0.1589123374054026
 40
0.2046871237713414
 40
0.2279203268405057
 40
0.2530328202229025
 40
0.3039583666132481
 40
0.3298030053225433
 40
0.3578513267111439
 40
0.4147803470495497
 40
0.4437088703578038
 40
0.4738681563404761
 40
0.5351642136129395
 40
0.5663699470167697
 40
0.5972052724205453
 40
0.6282601115384715
 40
0.6600249449185062
 40
0.6920442472314685
 40
0.7219902279867496
 40
0.783073310836641
 40
0.8143385949535696
 40
0.8414935015496182
 40
0.8969886549704761
 40
0.9254612725503513
 40
0.9490310386877269
 40
0.9971218824265112
 40
0.9999999999999999
 40
0.9999999999999999
 40
0.9999999999999999
 40
0.9999999999999999
 10
150.1961983033167
 20
85.77777086885867
 30
0.0
 10
150.1941599054881
 20
85.77750368272524
 30
0.0
 10
150.1902195595955
 20
85.77698719582132
 30
0.0
 10
150.2293443021013
 20
85.78211925909493
 30
0.0
 10
150.2973331959151
 20
85.79092168382032
 30
0.0
 10
150.4017383611714
 20
85.80416324613483
 30
0.0
 10
150.539345219043
 20
85.8208566081869
 30
0.0
 10
150.7016038003234
 20
85.83988789808319
 30
0.0
 10
150.8964803440404
 20
85.86144531113464
 30
0.0
 10
151.1230506772252
 20
85.88443548481119
 30
0.0
 10
151.3798070405976
 20
85.90878519451606
 30
0.0
 10
151.6693830159855
 20
85.93305188947683
 30
0.0
 10
151.9872984595084
 20
85.9554769147455
 30
0.0
 10
152.3364608120043
 20
85.97679997916546
 30
0.0
 10
152.7134322056592
 20
85.99397404472808
 30
0.0
 10
153.1073467611552
 20
86.00519224465447
 30
0.0
 10
153.5210735824796
 20
86.01211083072046
 30
0.0
 10
153.947101911667
 20
86.01132684769314
 30
0.0
 10
154.3696405969895
 20
86.00264706473406
 30
0.0
 10
154.6839097084159
 20
85.99232564419736
 30
0.0
 10
154.9929808660766
 20
85.97845829759778
 30
0.0
 10
155.2963179143848
 20
85.96126910501181
 30
0.0
 10
155.583937115271
 20
85.94167091438732
 30
0.0
 10
155.9423834179825
 20
85.91348776579095
 30
0.0
 10
156.2669613563644
 20
85.88308219984044
 30
0.0
 10
156.5404538594872
 20
85.85422702297
 30
0.0
 10
156.7718492470212
 20
85.82824059009555
 30
0.0
 10
156.9528854104626
 20
85.80625099364423
 30
0.0
 10
157.0760374735684
 20
85.7906438018641
 30
0.0
 10
157.1563563001707
 20
85.78025918110468
 30
0.0
 10
157.1917399149826
 20
85.77557800680323
 30
0.0
 10
157.1847873352584
 20
85.77649328390122
 30
0.0
 10
157.1843947366775
 20
85.77654496780907
 30
0.0
  0
SPLINE
  5
AD
330
1F
100
AcDbEntity
  8
0
  6
Continuous
 62
     7
370
    15
100
AcDbSpline
210
0.0
220
0.0
230
1.0
 70
     8
 71
     3
 72
     9
 73
     5
 74
     0
 42
0.00000001
 43
0.00000001
 40
0.0
 40
0.0
 40
0.0
 40
0.0
 40
0.369108632229193
 40
0.9999999999999999
 40
0.9999999999999999
 40
0.9999999999999999
 40
0.9999999999999999
 10
151.6438380964867
 20
85.92964444067489
 30
0.0
 10
151.6036374775452
 20
85.92668183743888
 30
0.0
 10
151.4947247742611
 20
85.91865546531612
 30
0.0
 10
151.3964247953885
 20
85.9097541221552
 30
0.0
 10
151.3344081872658
 20
85.90413834159342
 30
0.0
  0
CIRCLE
  5
AE
330
1F
100
AcDbEntity
  8
0
  6
Continuous
 62
     7
370
    15
100
AcDbCircle
 10
153.6856377219
 20
106.2763813651
 30
0.0
 40
2.5
  0
SPLINE
  5
AF
330
1F
100
AcDbEntity
  8
0
  6
Continuous
 62
     7
370
    15
100
AcDbSpline
210
0.0
220
0.0
230
1.0
 70
     8
 71
     3
 72
     8
 73
     4
 74
     0
 42
0.00000001
 43
0.00000001
 40
0.0
 40
0.0
 40
0.0
 40
0.0
 40
1.0
 40
1.0
 40
1.0
 40
1.0
 10
132.8256377218933
 20
134.0816155562854
 30
0.0
 10
132.3329276250476
 20
134.9696345544118
 30
0.0
 10
131.8388449197686
 20
135.8568971900978
 30
0.0
 10
131.3437048904043
 20
136.7435768382781
 30
0.0
  0
LINE
  5
B0
330
1F
100
AcDbEntity
  8
0
  6
Continuous
 62
     7
370
    15
100
AcDbLine
 10
132.8256377219
 20
127.3265250327
 30
0.0
 11
132.8256377219
 21
134.0816155563
 31
0.0
  0
SPLINE
  5
B1
330
1F
100
AcDbEntity
  8
0
  6
Continuous
 62
     7
370
    15
100
AcDbSpline
210
0.0
220
0.0
230
1.0
 70
     8
 71
     3
 72
     8
 73
     4
 74
     0
 42
0.00000001
 43
0.00000001
 40
0.0
 40
0.0
 40
0.0
 40
0.0
 40
1.0
 40
1.0
 40
1.0
 40
1.0
 10
131.3437048904043
 20
130.7350710274812
 30
0.0
 10
131.8507917321636
 20
129.6039206733176
 30
0.0
 10
132.3463595713035
 20
128.4675362625497
 30
0.0
 10
132.8256377218933
 20
127.3265250326972
 30
0.0
  0
SPLINE
  5
B2
330
1F
100
AcDbEntity
  8
0
  6
Continuous
 62
     7
370
    15
100
AcDbSpline
210
0.0
220
0.0
230
1.0
 70
     8
 71
     3
 72
     8
 73
     4
 74
     0
 42
0.00000001
 43
0.00000001
 40
0.0
 40
0.0
 40
0.0
 40
0.0
 40
1.0
 40
1.0
 40
1.0
 40
1.0
 10
138.1275705533824
 20
136.7435768382781
 30
0.0
 10
137.6324305240181
 20
135.8568971900978
 30
0.0
 10
137.1383478187391
 20
134.9696345544118
 30
0.0
 10
136.6456377218933
 20
134.0816155562854
 30
0.0
  0
LINE
  5
B3
330
1F
100
AcDbEntity
  8
0
  6
Continuous
 62
     7
370
    15
100
AcDbLine
 10
138.1275705534
 20
130.7350710275
 30
0.0
 11
138.1275705534
 21
136.7435768383
 31
0.0
  0
SPLINE
  5
B4
330
1F
100
AcDbEntity
  8
0
  6
Continuous
 62
     7
370
    15
100
AcDbSpline
210
0.0
220
0.0
230
1.0
 70
     8
 71
     3
 72
     8
 73
     4
 74
     0
 42
0.00000001
 43
0.00000001
 40
0.0
 40
0.0
 40
0.0
 40
0.0
 40
1.0
 40
1.0
 40
1.0
 40
1.0
 10
136.6456377218933
 20
127.3265250326971
 30
0.0
 10
137.1249158724832
 20
128.4675362625497
 30
0.0
 10
137.6204837116231
 20
129.6039206733176
 30
0.0
 10
138.1275705533824
 20
130.7350710274812
 30
0.0
  0
LINE
  5
B5
330
1F
100
AcDbEntity
  8
0
  6
Continuous
 62
     7
370
    15
100
AcDbLine
 10
136.6456377219
 20
127.3265250327
 30
0.0
 11
136.6456377219
 21
134.0816155563
 31
0.0
  0
SPLINE
  5
B6
330
1F
100
AcDbEntity
  8
0
  6
Continuous
 62
     7
370
    15
100
AcDbSpline
210
0.0
220
0.0
230
1.0
 70
     8
 71
     3
 72
    10
 73
     6
 74
     0
 42
0.00000001
 43
0.00000001
 40
0.0
 40
0.0
 40
0.0
 40
0.0
 40
0.5
 40
0.5
 40
1.0
 40
1.0
 40
1.0
 40
1.0
 10
142.6856377218933
 20
136.1228216888777
 30
0.0
 10
142.6856377218933
 20
136.2832269552285
 30
0.0
 10
142.6233998907865
 20
136.4422887682171
 30
0.0
 10
142.4042649670439
 20
136.6732012338474
 30
0.0
 10
142.246676272052
 20
136.7435768382781
 30
0.0
 10
142.0856377218933
 20
136.743576838278
 30
0.0
  0
SPLINE
  5
B7
330
1F
100
AcDbEntity
  8
0
  6
Continuous
 62
     7
370
    15
100
AcDbSpline
210
0.0
220
0.0
230
1.0
 70
     8
 71
     3
 72
    12
 73
     8
 74
     0
 42
0.00000001
 43
0.00000001
 40
0.0
 40
0.0
 40
0.0
 40
0.0
 40
0.250000000000002
 40
0.250000000000002
 40
0.500000000000004
 40
0.500000000000004
 40
1.0
 40
1.0
 40
1.0
 40
1.0
 10
142.0856377218933
 20
130.7350710274812
 30
0.0
 10
142.176837443719
 20
130.7350710274812
 30
0.0
 10
142.267432452855
 20
130.7068513288934
 30
0.0
 10
142.4208451793017
 20
130.6124083216453
 30
0.0
 10
142.4860540466254
 20
130.5461213449399
 30
0.0
 10
142.6388385759653
 20
130.3204965216516
 30
0.0
 10
142.6856377218934
 20
130.1380702586191
 30
0.0
 10
142.6856377218933
 20
129.9573336263722
 30
0.0
  0
LINE
  5
B8
330
1F
100
AcDbEntity
  8
0
  6
Continuous
 62
     7
370
    15
100
AcDbLine
 10
142.6856377219
 20
129.9573336264
 30
0.0
 11
142.6856377219
 21
136.1228216889
 31
0.0
  0
LINE
  5
B9
330
1F
100
AcDbEntity
  8
0
  6
Continuous
 62
     7
370
    15
100
AcDbLine
 10
138.1275705534
 20
130.7350710275
 30
0.0
 11
142.0856377219
 21
130.7350710275
 31
0.0
  0
LINE
  5
BA
330
1F
100
AcDbEntity
  8
0
  6
Continuous
 62
     7
370
    15
100
AcDbLine
 10
136.6456377219
 20
126.4122479966
 30
0.0
 11
136.6456377219
 21
127.3265250327
 31
0.0
  0
LINE
  5
BB
330
1F
100
AcDbEntity
  8
0
  6
Continuous
 62
     7
370
    15
100
AcDbLine
 10
142.6856377219
 20
129.9573336264
 30
0.0
 11
142.6856377219
 21
126.1263813651
 31
0.0
  0
LINE
  5
BC
330
1F
100
AcDbEntity
  8
0
  6
Continuous
 62
     7
370
    15
100
AcDbLine
 10
142.0856377219
 20
136.7435768383
 30
0.0
 11
138.1275705534
 21
136.7435768383
 31
0.0
  0
LINE
  5
BD
330
1F
100
AcDbEntity
  8
0
  6
Continuous
 62
     7
370
    15
100
AcDbLine
 10
132.8256377219
 20
127.3265250327
 30
0.0
 11
132.8256377219
 21
126.4122479966
 31
0.0
  0
ARC
  5
BE
330
1F
100
AcDbEntity
  8
0
  6
Continuous
 62
     7
370
    15
100
AcDbCircle
 10
124.7355696318
 20
124.9893240554
 30
0.0
 40
7.242267518316598
100
AcDbArc
 50
70.7755238007
 51
109.205640316
  0
LINE
  5
BF
330
1F
100
AcDbEntity
  8
0
  6
Continuous
 62
     7
370
    15
100
AcDbLine
 10
211.7356377219
 20
91.6251623484
 30
0.0
 11
211.7356377219
 21
120.9276003478
 31
0.0
  0
LINE
  5
C0
330
1F
100
AcDbEntity
  8
0
  6
HIDDEN
 62
     7
370
     0
100
AcDbLine
 10
211.5443709646
 20
118.7838962565
 30
0.0
 11
211.485481241
 21
117.2850527021
 31
0.0
  0
LINE
  5
C1
330
1F
100
AcDbEntity
  8
0
  6
HIDDEN
 62
     7
370
     0
100
AcDbLine
 10
211.6032606883
 20
120.2827398108
 30
0.0
 11
211.5443709646
 21
118.7838962565
 31
0.0
  0
LINE
  5
C2
330
1F
100
AcDbEntity
  8
0
  6
HIDDEN
 62
     7
370
     0
100
AcDbLine
 10
206.2104331608
 20
118.9934672436
 30
0.0
 11
206.1515434371
 21
117.4946236892
 31
0.0
  0
LINE
  5
C3
330
1F
100
AcDbEntity
  8
0
  6
HIDDEN
 62
     7
370
     0
100
AcDbLine
 10
206.2693228844
 20
120.4923107979
 30
0.0
 11
206.2104331608
 21
118.9934672436
 31
0.0
  0
LINE
  5
C4
330
1F
100
AcDbEntity
  8
0
  6
HIDDEN
 62
     7
370
     0
100
AcDbLine
 10
211.7061928601
 20
118.7775382569
 30
0.0
 11
211.6583155148
 21
117.5589784472
 31
0.0
  0
LINE
  5
C5
330
1F
100
AcDbEntity
  8
0
  6
HIDDEN
 62
     7
370
     0
100
AcDbLine
 10
211.7356377219
 20
119.5269600341
 30
0.0
 11
211.7061928601
 21
118.7775382569
 31
0.0
  0
LINE
  5
C6
330
1F
100
AcDbEntity
  8
0
  6
HIDDEN
 62
     7
370
     0
100
AcDbLine
 10
205.7108186426
 20
119.0130971514
 30
0.0
 11
205.6715588269
 21
118.0138681152
 31
0.0
  0
LINE
  5
C7
330
1F
100
AcDbEntity
  8
0
  6
HIDDEN
 62
     7
370
     0
100
AcDbLine
 10
205.7500784584
 20
120.0123261877
 30
0.0
 11
205.7108186426
 21
119.0130971514
 31
0.0
  0
LINE
  5
C8
330
1F
100
AcDbEntity
  8
0
  6
HIDDEN
 62
     7
370
     0
100
AcDbLine
 10
209.7077347876
 20
118.8560578884
 30
0.0
 11
211.7061928601
 21
118.7775382569
 31
0.0
  0
LINE
  5
C9
330
1F
100
AcDbEntity
  8
0
  6
HIDDEN
 62
     7
370
     0
100
AcDbLine
 10
209.7371796494
 20
119.6054796656
 30
0.0
 11
209.7077347876
 21
118.8560578884
 31
0.0
  0
LINE
  5
CA
330
1F
100
AcDbEntity
  8
0
  6
HIDDEN
 62
     7
370
     0
100
AcDbLine
 10
209.6782899258
 20
118.1066361112
 30
0.0
 11
209.7077347876
 21
118.8560578884
 31
0.0
  0
LINE
  5
CB
330
1F
100
AcDbEntity
  8
0
  6
HIDDEN
 62
     7
370
     0
100
AcDbLine
 10
209.7371796494
 20
119.6054796656
 30
0.0
 11
211.7356377219
 21
119.5269600341
 31
0.0
  0
LINE
  5
CC
330
1F
100
AcDbEntity
  8
0
  6
HIDDEN
 62
     7
370
     0
100
AcDbLine
 10
209.6782899258
 20
118.1066361112
 30
0.0
 11
211.6767479983
 21
118.0281164797
 31
0.0
  0
LINE
  5
CD
330
1F
100
AcDbEntity
  8
0
  6
HIDDEN
 62
     7
370
     0
100
AcDbLine
 10
211.7172052384
 20
94.9960980666
 30
0.0
 11
211.7356377219
 21
94.5269600341
 31
0.0
  0
LINE
  5
CE
330
1F
100
AcDbEntity
  8
0
  6
HIDDEN
 62
     7
370
     0
100
AcDbLine
 10
211.5443709646
 20
95.2700238117
 30
0.0
 11
211.6621504119
 21
92.2723367029
 31
0.0
  0
LINE
  5
CF
330
1F
100
AcDbEntity
  8
0
  6
HIDDEN
 62
     7
370
     0
100
AcDbLine
 10
206.2104331608
 20
95.0604528246
 30
0.0
 11
206.328212608
 21
92.0627657158
 31
0.0
  0
LINE
  5
D0
330
1F
100
AcDbEntity
  8
0
  6
HIDDEN
 62
     7
370
     0
100
AcDbLine
 10
205.7304485505
 20
94.5412083986
 30
0.0
 11
205.808968182
 21
92.5427503261
 31
0.0
  0
LINE
  5
D1
330
1F
100
AcDbEntity
  8
0
  6
HIDDEN
 62
     7
370
     0
100
AcDbLine
 10
209.7666245112
 20
93.6990186254
 30
0.0
 11
209.7960693731
 21
92.9495968482
 31
0.0
  0
LINE
  5
D2
330
1F
100
AcDbEntity
  8
0
  6
HIDDEN
 62
     7
370
     0
100
AcDbLine
 10
209.7371796494
 20
94.4484404025
 30
0.0
 11
209.7666245112
 21
93.6990186254
 31
0.0
  0
LINE
  5
D3
330
1F
100
AcDbEntity
  8
0
  6
HIDDEN
 62
     7
370
     0
100
AcDbLine
 10
209.7666245112
 20
93.6990186254
 30
0.0
 11
211.7650825837
 21
93.7775382569
 31
0.0
  0
LINE
  5
D4
330
1F
100
AcDbEntity
  8
0
  6
HIDDEN
 62
     7
370
     0
100
AcDbLine
 10
209.7371796494
 20
94.4484404025
 30
0.0
 11
211.7356377219
 21
94.5269600341
 31
0.0
  0
LINE
  5
D5
330
1F
100
AcDbEntity
  8
0
  6
HIDDEN
 62
     7
370
     0
100
AcDbLine
 10
209.7960693731
 20
92.9495968482
 30
0.0
 11
211.7945274455
 21
93.0281164797
 31
0.0
  0
LINE
  5
D6
330
1F
100
AcDbEntity
  8
0
  6
HIDDEN
 62
     7
370
     0
100
AcDbLine
 10
131.3437048904
 20
130.7350710275
 30
0.0
 11
131.3437048904
 21
126.1263813651
 31
0.0
  0
ARC
  5
D7
330
1F
100
AcDbEntity
  8
0
  6
HIDDEN
 62
     7
370
     0
100
AcDbCircle
 10
125.019430792
 20
118.7721505174
 30
0.0
 40
3.676823153255237
100
AcDbArc
 50
265.5732618407
 51
11.9473124457
  0
ARC
  5
D8
330
1F
100
AcDbEntity
  8
0
  6
HIDDEN
 62
     7
370
     0
100
AcDbCircle
 10
124.4730389708
 20
118.7906594221
 30
0.0
 40
3.693709867333441
100
AcDbArc
 50
168.3829076708
 51
274.0767964701
  0
LINE
  5
D9
330
1F
100
AcDbEntity
  8
0
  6
HIDDEN
 62
     7
370
     0
100
AcDbLine
 10
104.7307879265
 20
82.7517817423
 30
0.0
 11
104.4819231077
 21
82.7285187758
 31
0.0
  0
LINE
  5
DA
330
1F
100
AcDbEntity
  8
0
  6
HIDDEN
 62
     7
370
     0
100
AcDbLine
 10
104.3493623466
 20
129.8364676933
 30
0.0
 11
104.7306952062
 21
129.8009643951
 31
0.0
  0
SPLINE
  5
DB
330
1F
100
AcDbEntity
  8
0
  6
HIDDEN
 62
     7
370
     0
100
AcDbSpline
210
0.0
220
0.0
230
1.0
 70
     8
 71
     3
 72
    22
 73
    18
 74
     0
 42
0.00000001
 43
0.00000001
 40
0.0
 40
0.0
 40
0.0
 40
0.0
 40
0.069470503305567
 40
0.1409377255045835
 40
0.210413548914841
 40
0.2819466223559928
 40
0.3506518733998513
 40
0.4213897814436845
 40
0.4894670043894698
 40
0.5594810940348494
 40
0.6282706827033766
 40
0.6989997382187428
 40
0.7687375408512302
 40
0.8405098102584779
 40
0.9099666189318144
 40
0.9814998892127903
 40
1.0
 40
1.0
 40
1.0
 40
1.0
 10
110.4906397234949
 20
86.43885288929734
 30
0.0
 10
110.3424658690356
 20
86.45857922910666
 30
0.0
 10
110.0418593521245
 20
86.49859888252743
 30
0.0
 10
109.5069644894437
 20
86.55397254605731
 30
0.0
 10
108.9213259367749
 20
86.59842893118511
 30
0.0
 10
108.3070932772016
 20
86.62611390663727
 30
0.0
 10
107.6731766318333
 20
86.63436716010715
 30
0.0
 10
107.0510279312615
 20
86.62238710522665
 30
0.0
 10
106.4450304614009
 20
86.59163635146571
 30
0.0
 10
105.8805415402744
 20
86.5461703807155
 30
0.0
 10
105.3611653026927
 20
86.4900892289159
 30
0.0
 10
104.9082998050113
 20
86.43009906659752
 30
0.0
 10
104.5295846613456
 20
86.37211915223858
 30
0.0
 10
104.2414995402705
 20
86.32320034409207
 30
0.0
 10
104.0590416437179
 20
86.29016498156633
 30
0.0
 10
103.9783836923838
 20
86.27502518531068
 30
0.0
 10
103.9926735710827
 20
86.27769713868369
 30
0.0
 10
103.9956098635547
 20
86.27824617319547
 30
0.0
  0
SPLINE
  5
DC
330
1F
100
AcDbEntity
  8
0
  6
HIDDEN
 62
     7
370
     0
100
AcDbSpline
210
0.0
220
0.0
230
1.0
 70
     8
 71
     3
 72
    22
 73
    18
 74
     0
 42
0.00000001
 43
0.00000001
 40
0.0
 40
0.0
 40
0.0
 40
0.0
 40
0.0499040281125884
 40
0.1203075863893544
 40
0.1885125365560131
 40
0.258644416829719
 40
0.3277839407293157
 40
0.3988873214655099
 40
0.4686969488930336
 40
0.5405663748364754
 40
0.609708789122301
 40
0.6809159691092499
 40
0.7490773369981711
 40
0.8192056085539694
 40
0.8876078379088254
 40
0.9579332867310426
 40
1.0
 40
1.0
 40
1.0
 40
1.0
 10
103.9956098635547
 20
126.2745165570321
 30
0.0
 10
103.9968607975802
 20
126.2742775266364
 30
0.0
 10
103.9998765231445
 20
126.2737012771617
 30
0.0
 10
104.124769850198
 20
126.2505032423382
 30
0.0
 10
104.3492516780756
 20
126.2108232060206
 30
0.0
 10
104.6682798402531
 20
126.1586117846214
 30
0.0
 10
105.0758150712498
 20
126.0992819729491
 30
0.0
 10
105.5576016250827
 20
126.0398071964331
 30
0.0
 10
106.108021306878
 20
125.9862008400712
 30
0.0
 10
106.7009161928263
 20
125.9457269215968
 30
0.0
 10
107.3278687631434
 20
125.9225276732305
 30
0.0
 10
107.9560797369714
 20
125.9195495700156
 30
0.0
 10
108.5803398294485
 20
125.9366838957149
 30
0.0
 10
109.1729581192768
 20
125.9713697514049
 30
0.0
 10
109.7297842028049
 20
126.0203261150687
 30
0.0
 10
110.1675910474378
 20
126.0702262796919
 30
0.0
 10
110.4026577542107
 20
126.1020126686837
 30
0.0
 10
110.4906397234949
 20
126.1139098409303
 30
0.0
  0
SPLINE
  5
DD
330
1F
100
AcDbEntity
  8
0
  6
HIDDEN
 62
     7
370
     0
100
AcDbSpline
210
0.0
220
0.0
230
1.0
 70
     8
 71
     3
 72
    12
 73
     8
 74
     0
 42
0.00000001
 43
0.00000001
 40
0.0
 40
0.0
 40
0.0
 40
0.0
 40
0.2208214089945398
 40
0.4480953246710839
 40
0.6689511115477266
 40
0.896147631942807
 40
0.9999999999999999
 40
0.9999999999999999
 40
0.9999999999999999
 40
0.9999999999999999
 10
110.4906397234949
 20
126.1139098409303
 30
0.0
 10
110.6226829319613
 20
126.130966928341
 30
0.0
 10
110.8906277142982
 20
126.1655795193758
 30
0.0
 10
111.1857838014237
 20
126.1925514634008
 30
0.0
 10
111.3868761167914
 20
126.2080611962834
 30
0.0
 10
111.4842072210772
 20
126.21417039975
 30
0.0
 10
111.4755493754778
 20
126.2136251942925
 30
0.0
 10
111.4728333483315
 20
126.2134541595003
 30
0.0
  0
SPLINE
  5
DE
330
1F
100
AcDbEntity
  8
0
  6
HIDDEN
 62
     7
370
     0
100
AcDbSpline
210
0.0
220
0.0
230
1.0
 70
     8
 71
     3
 72
    12
 73
     8
 74
     0
 42
0.00000001
 43
0.00000001
 40
0.0
 40
0.0
 40
0.0
 40
0.0
 40
0.1181139418592429
 40
0.3465026556791958
 40
0.5687617750561461
 40
0.7975188906924283
 40
1.0
 40
1.0
 40
1.0
 40
1.0
 10
111.4728333159244
 20
86.33930857279273
 30
0.0
 10
111.4749564833544
 20
86.33917451714416
 30
0.0
 10
111.4811850719643
 20
86.33878124741231
 30
0.0
 10
111.3765191052396
 20
86.3454045794928
 30
0.0
 10
111.1665449840704
 20
86.36180899070368
 30
0.0
 10
110.8710866438305
 20
86.38941069408813
 30
0.0
 10
110.6121971863948
 20
86.42305550078245
 30
0.0
 10
110.4906397234949
 20
86.43885288929734
 30
0.0
  0
LINE
  5
DF
330
1F
100
AcDbEntity
  8
0
  6
HIDDEN
 62
     7
370
     0
100
AcDbLine
 10
97.7396123181
 20
89.2763813651
 30
0.0
 11
97.7396123181
 21
123.2763813651
 31
0.0
  0
LWPOLYLINE
  5
E0
330
1F
100
AcDbEntity
  8
0
  6
HIDDEN
 62
     7
370
     0
100
AcDbPolyline
 90
       14
 70
   128
 43
0.0
 10
124.7356377219
 20
128.2219837798
 10
125.5408318022
 20
128.2629238972
 10
126.3130611423
 20
128.3840681565
 10
127.0207105823
 20
128.5804568973
 10
127.6348088708
 20
128.8440499416
 10
128.1302147519
 20
129.1640557591
 10
128.4866462505
 20
129.5273732741
 10
128.6895110192
 20
129.9191282247
 10
128.7305037506
 20
130.3232821174
 10
128.6079461974
 20
130.7232888443
 10
128.3268558802
 20
131.1027720829
 10
127.8987406696
 20
131.4461957448
 10
127.3411276528
 20
131.7395000251
 10
127.1202313842
 20
131.8277322863
  0
LWPOLYLINE
  5
E1
330
1F
100
AcDbEntity
  8
0
  6
HIDDEN
 62
     7
370
     0
100
AcDbPolyline
 90
       14
 70
   128
 43
0.0
 10
122.3531561224
 20
131.82851587
 10
122.130147791
 20
131.7395000251
 10
121.5725347741
 20
131.4461957448
 10
121.1444195636
 20
131.1027720829
 10
120.8633292464
 20
130.7232888443
 10
120.7407716932
 20
130.3232821174
 10
120.7817644246
 20
129.9191282247
 10
120.9846291933
 20
129.5273732741
 10
121.3410606919
 20
129.1640557591
 10
121.836466573
 20
128.8440499416
 10
122.4505648615
 20
128.5804568973
 10
123.1582143014
 20
128.3840681565
 10
123.9304436415
 20
128.2629238972
 10
124.7356377219
 20
128.2219837798
  0
SPLINE
  5
E2
330
1F
100
AcDbEntity
  8
0
  6
HIDDEN
 62
     7
370
     0
100
AcDbSpline
210
0.0
220
0.0
230
1.0
 70
     8
 71
     3
 72
    11
 73
     7
 74
     0
 42
0.00000001
 43
0.00000001
 40
0.0
 40
0.0
 40
0.0
 40
0.0
 40
0.0005779865010845
 40
0.0005779865010845
 40
0.0005779865010845
 40
0.0011559733324421
 40
0.0011559733324421
 40
0.0011559733324421
 40
0.0011559733324421
 10
84.83563772189336
 20
108.2762219732737
 30
0.0
 10
85.00230497669932
 20
108.2742383339327
 30
0.0
 10
85.16897140637697
 20
108.2722007269241
 30
0.0
 10
85.3356377448288
 20
108.2700892635177
 30
0.0
 10
85.5023041736552
 20
108.2679777989663
 30
0.0
 10
85.6689705472929
 20
108.26579223581
 30
0.0
 10
85.83563772189335
 20
108.2635096584784
 30
0.0
  0
SPLINE
  5
E3
330
1F
100
AcDbEntity
  8
0
  6
HIDDEN
 62
     7
370
     0
100
AcDbSpline
210
0.0
220
0.0
230
1.0
 70
     8
 71
     3
 72
     8
 73
     4
 74
     0
 42
0.00000001
 43
0.00000001
 40
0.0
 40
0.0
 40
0.0
 40
0.0
 40
0.0011564765856722
 40
0.0011564765856722
 40
0.0011564765856722
 40
0.0011564765856722
 10
85.83563772189335
 20
104.2796810628975
 30
0.0
 10
85.5023297913245
 20
104.2788059073143
 30
0.0
 10
85.16899455893228
 20
104.2777510560627
 30
0.0
 10
84.83563772189335
 20
104.2765799690252
 30
0.0
  0
LINE
  5
E4
330
1F
100
AcDbEntity
  8
0
  6
HIDDEN
 62
     7
370
     0
100
AcDbLine
 10
124.3954636904
 20
89.2763813651
 30
0.0
 11
124.3954636904
 21
123.2763813651
 31
0.0
  0
LINE
  5
E5
330
1F
100
AcDbEntity
  8
0
  6
HIDDEN
 62
     7
370
     0
100
AcDbLine
 10
126.6856377219
 20
90.5513813651
 30
0.0
 11
126.6856377219
 21
122.001381334
 31
0.0
  0
SPLINE
  5
E6
330
1F
100
AcDbEntity
  8
0
  6
HIDDEN
 62
     7
370
     0
100
AcDbSpline
210
0.0
220
0.0
230
1.0
 70
     8
 71
     3
 72
    16
 73
    12
 74
     0
 42
0.00000001
 43
0.00000001
 40
0.0
 40
0.0
 40
0.0
 40
0.0
 40
0.124999999999998
 40
0.124999999999998
 40
0.249999999999996
 40
0.249999999999996
 40
0.4999999999999973
 40
0.4999999999999973
 40
0.7499999999999987
 40
0.7499999999999987
 40
1.0
 40
1.0
 40
1.0
 40
1.0
 10
93.53563772189334
 20
90.47489092908215
 30
0.0
 10
93.63075947655916
 20
90.47489092908215
 30
0.0
 10
93.72408954528724
 20
90.47107509568934
 30
0.0
 10
93.90735130602525
 20
90.45630454295953
 30
0.0
 10
93.99822902158225
 20
90.44514649498394
 30
0.0
 10
94.255030719102
 20
90.40267522484223
 30
0.0
 10
94.41009808397399
 20
90.36162902763944
 30
0.0
 10
94.6638445455286
 20
90.26648291105755
 30
0.0
 10
94.76471499719646
 20
90.21172017697596
 30
0.0
 10
94.8999614118913
 20
90.1004590530721
 30
0.0
 10
94.93563772189334
 20
90.04328931574341
 30
0.0
 10
94.93563772189334
 20
89.98886774270967
 30
0.0
  0
SPLINE
  5
E7
330
1F
100
AcDbEntity
  8
0
  6
HIDDEN
 62
     7
370
     0
100
AcDbSpline
210
0.0
220
0.0
230
1.0
 70
     8
 71
     3
 72
     8
 73
     4
 74
     0
 42
0.00000001
 43
0.00000001
 40
0.0
 40
0.0
 40
0.0
 40
0.0
 40
1.0
 40
1.0
 40
1.0
 40
1.0
 10
86.13563772520854
 20
92.61969387516439
 30
0.0
 10
86.13563772521046
 20
91.73579673284746
 30
0.0
 10
86.12215709930067
 20
91.02121348778552
 30
0.0
 10
86.12080573111136
 20
90.47489092908215
 30
0.0
  0
SPLINE
  5
E8
330
1F
100
AcDbEntity
  8
0
  6
HIDDEN
 62
     7
370
     0
100
AcDbSpline
210
0.0
220
0.0
230
1.0
 70
     8
 71
     3
 72
    10
 73
     6
 74
     0
 42
0.00000001
 43
0.00000001
 40
0.0
 40
0.0
 40
0.0
 40
0.0
 40
0.5
 40
0.5
 40
1.0
 40
1.0
 40
1.0
 40
1.0
 10
85.83563772189335
 20
93.64460414086759
 30
0.0
 10
85.92702883758623
 20
93.46996535325017
 30
0.0
 10
85.9996806713193
 20
93.2963635259946
 30
0.0
 10
86.10717956432745
 20
92.95275010698788
 30
0.0
 10
86.13563772520291
 20
92.78442428045642
 30
0.0
 10
86.13563772520855
 20
92.61969387522387
 30
0.0
  0
LINE
  5
E9
330
1F
100
AcDbEntity
  8
0
  6
HIDDEN
 62
     7
370
     0
100
AcDbLine
 10
85.8356377219
 20
96.6755545727
 30
0.0
 11
85.8356377219
 21
93.6446041409
 31
0.0
  0
SPLINE
  5
EA
330
1F
100
AcDbEntity
  8
0
  6
HIDDEN
 62
     7
370
     0
100
AcDbSpline
210
0.0
220
0.0
230
1.0
 70
     8
 71
     3
 72
    10
 73
     6
 74
     0
 42
0.00000001
 43
0.00000001
 40
0.0
 40
0.0
 40
0.0
 40
0.0
 40
0.5
 40
0.5
 40
1.0
 40
1.0
 40
1.0
 40
1.0
 10
86.13563772508105
 20
98.04339498947097
 30
0.0
 10
86.13563772508103
 20
97.80141102186415
 30
0.0
 10
86.10748769601045
 20
97.56706859289915
 30
0.0
 10
86.00389778186805
 20
97.11169357062147
 30
0.0
 10
85.92726907227654
 20
96.89008900751409
 30
0.0
 10
85.83563772189335
 20
96.67555457271617
 30
0.0
  0
LINE
  5
EB
330
1F
100
AcDbEntity
  8
0
  6
HIDDEN
 62
     7
370
     0
100
AcDbLine
 10
86.1356377251
 20
109.8810149867
 30
0.0
 11
86.1356377251
 21
98.0433949894
 31
0.0
  0
SPLINE
  5
EC
330
1F
100
AcDbEntity
  8
0
  6
HIDDEN
 62
     7
370
     0
100
AcDbSpline
210
0.0
220
0.0
230
1.0
 70
     8
 71
     3
 72
     8
 73
     4
 74
     0
 42
0.00000001
 43
0.00000001
 40
0.0
 40
0.0
 40
0.0
 40
0.0
 40
1.0
 40
1.0
 40
1.0
 40
1.0
 10
85.83563772189333
 20
115.8833206861821
 30
0.0
 10
86.01666918845224
 20
115.4512132005195
 30
0.0
 10
86.13563772508677
 20
114.9970677944198
 30
0.0
 10
86.13563772508107
 20
114.5093677407257
 30
0.0
  0
LINE
  5
ED
330
1F
100
AcDbEntity
  8
0
  6
HIDDEN
 62
     7
370
     0
100
AcDbLine
 10
85.8356377219
 20
118.9165236722
 30
0.0
 11
85.8356377219
 21
115.8833206862
 31
0.0
  0
SPLINE
  5
EE
330
1F
100
AcDbEntity
  8
0
  6
HIDDEN
 62
     7
370
     0
100
AcDbSpline
210
0.0
220
0.0
230
1.0
 70
     8
 71
     3
 72
    10
 73
     6
 74
     0
 42
0.00000001
 43
0.00000001
 40
0.0
 40
0.0
 40
0.0
 40
0.0
 40
0.5
 40
0.5
 40
1.0
 40
1.0
 40
1.0
 40
1.0
 10
86.13563772528656
 20
119.9330688550336
 30
0.0
 10
86.13563772528477
 20
119.7684325084276
 30
0.0
 10
86.10847905452925
 20
119.6012772845971
 30
0.0
 10
86.00271405921085
 20
119.2626542767955
 30
0.0
 10
85.9262992709137
 20
119.0903824995045
 30
0.0
 10
85.83563772189338
 20
118.9165236721605
 30
0.0
  0
SPLINE
  5
EF
330
1F
100
AcDbEntity
  8
0
  6
HIDDEN
 62
     7
370
     0
100
AcDbSpline
210
0.0
220
0.0
230
1.0
 70
     8
 71
     3
 72
    18
 73
    14
 74
     0
 42
0.00000001
 43
0.00000001
 40
0.0
 40
0.0
 40
0.0
 40
0.0
 40
0.2500000000000033
 40
0.2500000000000033
 40
0.3750000000000029
 40
0.3750000000000029
 40
0.5000000000000026
 40
0.5000000000000026
 40
0.6250000000000022
 40
0.6250000000000022
 40
0.7500000000000018
 40
0.7500000000000018
 40
1.0
 40
1.0
 40
1.0
 40
1.0
 10
90.93563772189334
 20
122.5638949875179
 30
0.0
 10
90.93563772189334
 20
122.5094204669657
 30
0.0
 10
90.90072703050117
 20
122.4530394076132
 30
0.0
 10
90.79871772916812
 20
122.3689625667598
 30
0.0
 10
90.75708137449001
 20
122.3416288627689
 30
0.0
 10
90.65867557900125
 20
122.2886749471699
 30
0.0
 10
90.60113236729697
 20
122.2627875934527
 30
0.0
 10
90.47383419372403
 20
122.2150100486194
 30
0.0
 10
90.40424688896655
 20
122.1930621304415
 30
0.0
 10
90.25281264381161
 20
122.1536295655288
 30
0.0
 10
90.17012874071766
 20
122.136073316303
 30
0.0
 10
89.91401727867961
 20
122.0936345508825
 30
0.0
 10
89.72610227479163
 20
122.0778718011455
 30
0.0
 10
89.53563772189334
 20
122.0778718011455
 30
0.0
  0
LINE
  5
F0
330
1F
100
AcDbEntity
  8
0
  6
HIDDEN
 62
     7
370
     0
100
AcDbLine
 10
89.5356377219
 20
122.0778718011
 30
0.0
 11
86.1356377253
 21
122.0778718011
 31
0.0
  0
LINE
  5
F1
330
1F
100
AcDbEntity
  8
0
  6
HIDDEN
 62
     7
370
     0
100
AcDbLine
 10
86.0666687353
 20
90.4748909291
 30
0.0
 11
93.5356377219
 21
90.4748909291
 31
0.0
  0
SPLINE
  5
F2
330
1F
100
AcDbEntity
  8
0
  6
HIDDEN
 62
     7
370
     0
100
AcDbSpline
210
0.0
220
0.0
230
1.0
 70
     8
 71
     3
 72
    22
 73
    18
 74
     0
 42
0.00000001
 43
0.00000001
 40
0.0
 40
0.0
 40
0.0
 40
0.0
 40
0.1249999999999998
 40
0.1249999999999998
 40
0.2499999999999995
 40
0.2499999999999995
 40
0.4999999999999992
 40
0.4999999999999992
 40
0.5624999999999993
 40
0.5624999999999993
 40
0.6249999999999994
 40
0.6249999999999994
 40
0.7499999999999996
 40
0.7499999999999996
 40
0.8749999999999998
 40
0.8749999999999998
 40
1.0
 40
1.0
 40
1.0
 40
1.0
 10
86.06666873525126
 20
90.47489092908215
 30
0.0
 10
86.05358634252289
 20
90.72999663922981
 30
0.0
 10
86.04036677908306
 20
91.02315489833371
 30
0.0
 10
86.01791960128894
 20
91.68545536395852
 30
0.0
 10
86.00844113426447
 20
92.0557292845699
 30
0.0
 10
85.98924317332794
 20
93.27828608768371
 30
0.0
 10
85.99035694632481
 20
94.21542501381556
 30
0.0
 10
86.00926773927789
 20
95.53529624333055
 30
0.0
 10
86.0138972671369
 20
95.80679815230687
 30
0.0
 10
86.02437848688285
 20
96.36518298710918
 30
0.0
 10
86.03017374816727
 20
96.65230584304878
 30
0.0
 10
86.04848296907221
 20
97.52489509742045
 30
0.0
 10
86.06251790335257
 20
98.12535077377632
 30
0.0
 10
86.09197507548939
 20
99.3628252662724
 30
0.0
 10
86.10753076647096
 20
99.99984142291585
 30
0.0
 10
86.13132531646785
 20
101.3113300206004
 30
0.0
 10
86.13934436861321
 20
101.9874526322609
 30
0.0
 10
86.13563772189333
 20
102.6717477435457
 30
0.0
  0
LINE
  5
F3
330
1F
100
AcDbEntity
  8
0
  6
HIDDEN
 62
     7
370
     0
100
AcDbLine
 10
86.1356377253
 20
109.8810149867
 30
0.0
 11
86.1356377253
 21
122.0778718011
 31
0.0
  0
SPLINE
  5
F4
330
1F
100
AcDbEntity
  8
0
  6
HIDDEN
 62
     7
370
     0
100
AcDbSpline
210
0.0
220
0.0
230
1.0
 70
     8
 71
     3
 72
    10
 73
     6
 74
     0
 42
0.00000001
 43
0.00000001
 40
0.0
 40
0.0
 40
0.0
 40
0.0
 40
0.5
 40
0.5
 40
1.0
 40
1.0
 40
1.0
 40
1.0
 10
86.13563772189333
 20
102.6717477435306
 30
0.0
 10
86.13563772189316
 20
102.945662891605
 30
0.0
 10
86.10987849202544
 20
103.2166044703351
 30
0.0
 10
86.00667255929233
 20
103.7522955519379
 30
0.0
 10
85.9293343954171
 20
104.0180423554599
 30
0.0
 10
85.83563772189333
 20
104.2796810628975
 30
0.0
  0
SPLINE
  5
F5
330
1F
100
AcDbEntity
  8
0
  6
HIDDEN
 62
     7
370
     0
100
AcDbSpline
210
0.0
220
0.0
230
1.0
 70
     8
 71
     3
 72
    10
 73
     6
 74
     0
 42
0.00000001
 43
0.00000001
 40
0.0
 40
0.0
 40
0.0
 40
0.0
 40
0.5
 40
0.5
 40
1.0
 40
1.0
 40
1.0
 40
1.0
 10
85.83563772189333
 20
108.2635096584783
 30
0.0
 10
85.92886830328435
 20
108.5274034665484
 30
0.0
 10
86.0038979155211
 20
108.7935837771867
 30
0.0
 10
86.10896501469924
 20
109.3319063521449
 30
0.0
 10
86.13563772528543
 20
109.6046544683905
 30
0.0
 10
86.13563772528663
 20
109.8810149866809
 30
0.0
  0
LINE
  5
F6
330
1F
100
AcDbEntity
  8
0
  6
HIDDEN
 62
     7
370
     0
100
AcDbLine
 10
85.8356377219
 20
104.2796810629
 30
0.0
 11
85.8356377219
 21
108.2635096585
 31
0.0
  0
LINE
  5
F7
330
1F
100
AcDbEntity
  8
0
  6
HIDDEN
 62
     7
370
     0
100
AcDbLine
 10
85.9856377219
 20
88.2863813651
 30
0.0
 11
85.9856377219
 21
85.4064435997
 31
0.0
  0
LINE
  5
F8
330
1F
100
AcDbEntity
  8
0
  6
HIDDEN
 62
     7
370
     0
100
AcDbLine
 10
94.9356377219
 20
88.2863813651
 30
0.0
 11
94.9356377219
 21
84.3126438339
 31
0.0
  0
LINE
  5
F9
330
1F
100
AcDbEntity
  8
0
  6
HIDDEN
 62
     7
370
     0
100
AcDbLine
 10
85.9856377219
 20
124.2663813651
 30
0.0
 11
85.9856377219
 21
127.1463191305
 31
0.0
  0
LINE
  5
FA
330
1F
100
AcDbEntity
  8
0
  6
HIDDEN
 62
     7
370
     0
100
AcDbLine
 10
90.9356377219
 20
124.2663813651
 30
0.0
 11
90.9356377219
 21
128.1204890375
 31
0.0
  0
LINE
  5
FB
330
1F
100
AcDbEntity
  8
0
  6
HIDDEN
 62
     7
370
     0
100
AcDbLine
 10
208.2356377219
 20
97.2763813651
 30
0.0
 11
208.2356377219
 21
115.2763813651
 31
0.0
  0
LINE
  5
FC
330
1F
100
AcDbEntity
  8
0
  6
HIDDEN
 62
     7
370
     0
100
AcDbLine
 10
135.5356377219
 20
96.7763813651
 30
0.0
 11
135.5356377219
 21
115.7763813651
 31
0.0
  0
LINE
  5
FD
330
1F
100
AcDbEntity
  8
0
  6
HIDDEN
 62
     7
370
     0
100
AcDbLine
 10
138.5356377219
 20
96.7763813651
 30
0.0
 11
138.5356377219
 21
115.7763813651
 31
0.0
  0
LINE
  5
FE
330
1F
100
AcDbEntity
  8
0
  6
HIDDEN
 62
     7
370
     0
100
AcDbLine
 10
162.2356377219
 20
97.3763813651
 30
0.0
 11
162.2356377219
 21
115.1763812996
 31
0.0
  0
SPLINE
  5
FF
330
1F
100
AcDbEntity
  8
0
  6
HIDDEN
 62
     7
370
     0
100
AcDbSpline
210
0.0
220
0.0
230
1.0
 70
     8
 71
     3
 72
    17
 73
    13
 74
     0
 42
0.00000001
 43
0.00000001
 40
0.0
 40
0.0
 40
0.0
 40
0.0
 40
0.1048980631687647
 40
0.2128630302536777
 40
0.3177541043257665
 40
0.4256403684454153
 40
0.5313895178943878
 40
0.6401698560489034
 40
0.7464660154123012
 40
0.8558958654811143
 40
0.9612619597807165
 40
1.0
 40
1.0
 40
1.0
 40
1.0
 10
164.2356377218934
 20
115.4546164895808
 30
0.0
 10
164.3181587060507
 20
115.4552662645745
 30
0.0
 10
164.4856133397838
 20
115.4565848120287
 30
0.0
 10
164.7285476423382
 20
115.4669006705254
 30
0.0
 10
164.9595729933882
 20
115.4822231203386
 30
0.0
 10
165.1687520665971
 20
115.5012340421665
 30
0.0
 10
165.3540846825638
 20
115.5219990076558
 30
0.0
 10
165.5069377183317
 20
115.5419176602301
 30
0.0
 10
165.6260680175631
 20
115.5591754426694
 30
0.0
 10
165.7016904064934
 20
115.5709095306522
 30
0.0
 10
165.7369876586727
 20
115.5765981800996
 30
0.0
 10
165.7319730139509
 20
115.5757914963187
 30
0.0
 10
165.7306249783129
 20
115.5755746437708
 30
0.0
  0
LINE
  5
100
330
1F
100
AcDbEntity
  8
0
  6
HIDDEN
 62
     7
370
     0
100
AcDbLine
 10
164.3243805384
 20
115.4558075638
 30
0.0
 11
164.2084385078
 21
115.4551410165
 31
0.0
  0
SPLINE
  5
101
330
1F
100
AcDbEntity
  8
0
  6
HIDDEN
 62
     7
370
     0
100
AcDbSpline
210
0.0
220
0.0
230
1.0
 70
     8
 71
     3
 72
    16
 73
    12
 74
     0
 42
0.00000001
 43
0.00000001
 40
0.0
 40
0.0
 40
0.0
 40
0.0
 40
0.0985039219621687
 40
0.2062073342757678
 40
0.3108020480291213
 40
0.4183674470984267
 40
0.5240903192058106
 40
0.632840218606856
 40
0.7391737699532006
 40
0.8486393792590533
 40
1.0
 40
1.0
 40
1.0
 40
1.0
 10
162.7367607187596
 20
115.5762012323346
 30
0.0
 10
162.7397868417722
 20
115.5757096061552
 30
0.0
 10
162.7461217038487
 20
115.5746804397839
 30
0.0
 10
162.8070169866028
 20
115.5650228403136
 30
0.0
 10
162.9059190344541
 20
115.5502032724161
 30
0.0
 10
163.0417726418447
 20
115.5315171047075
 30
0.0
 10
163.2125427449983
 20
115.5108585895285
 30
0.0
 10
163.4115947379355
 20
115.490693448996
 30
0.0
 10
163.6366177474624
 20
115.4732571908823
 30
0.0
 10
163.9109474683406
 20
115.4582662146308
 30
0.0
 10
164.1164070423305
 20
115.4559567182854
 30
0.0
 10
164.2356377218934
 20
115.4546164895808
 30
0.0
  0
SPLINE
  5
102
330
1F
100
AcDbEntity
  8
0
  6
HIDDEN
 62
     7
370
     0
100
AcDbSpline
210
0.0
220
0.0
230
1.0
 70
     8
 71
     3
 72
    38
 73
    34
 74
     0
 42
0.00000001
 43
0.00000001
 40
0.0
 40
0.0
 40
0.0
 40
0.0
 40
0.0261442002654039
 40
0.0524717936399398
 40
0.0793764312957131
 40
0.1064796487733663
 40
0.1326234735929554
 40
0.1857882005738356
 40
0.2128692274298633
 40
0.2392213140462389
 40
0.2928102018501474
 40
0.3201104915262974
 40
0.3466016604516825
 40
0.3732786769362851
 40
0.4005454458902989
 40
0.4280177011929768
 40
0.454276897608879
 40
0.5077039962002491
 40
0.5349381606377654
 40
0.5609555651724554
 40
0.6138690144228622
 40
0.6408255516617548
 40
0.6669681868761782
 40
0.7201234455930632
 40
0.747196186618819
 40
0.7736344814812837
 40
0.8274062715737729
 40
0.8548053261596285
 40
0.8812521184203107
 40
0.9350615017169049
 40
0.9624926325496687
 40
0.9886504918960061
 40
1.0
 40
1.0
 40
1.0
 40
1.0
 10
165.7356377218934
 20
96.9763813651138
 30
0.0
 10
165.7346602567879
 20
96.97653927994222
 30
0.0
 10
165.7326984699753
 20
96.97685621732049
 30
0.0
 10
165.7167068122368
 20
96.97942336416207
 30
0.0
 10
165.6908444307185
 20
96.98351776567429
 30
0.0
 10
165.6544769093032
 20
96.98915624128414
 30
0.0
 10
165.5931178281984
 20
96.99840020390899
 30
0.0
 10
165.5125803584499
 20
97.00994807981475
 30
0.0
 10
165.4144994603821
 20
97.02285646065792
 30
0.0
 10
165.3050471176252
 20
97.0363521052646
 30
0.0
 10
165.1796953583563
 20
97.05015533411391
 30
0.0
 10
165.0414054820209
 20
97.06304978121858
 30
0.0
 10
164.9319900654605
 20
97.0719898636533
 30
0.0
 10
164.8176799265377
 20
97.07995738182102
 30
0.0
 10
164.6977030145651
 20
97.08679597777386
 30
0.0
 10
164.5748888172843
 20
97.09215483233906
 30
0.0
 10
164.4092093100317
 20
97.09715907586606
 30
0.0
 10
164.2404269173809
 20
97.09882998642723
 30
0.0
 10
164.07289911546
 20
97.0969859805121
 30
0.0
 10
163.9077513685588
 20
97.09292727260694
 30
0.0
 10
163.7467627283452
 20
97.08571525575522
 30
0.0
 10
163.5933749748733
 20
97.07593151611765
 30
0.0
 10
163.4456668869755
 20
97.06470890500452
 30
0.0
 10
163.308066079588
 20
97.05177897146758
 30
0.0
 10
163.1838434452696
 20
97.03822001349396
 30
0.0
 10
163.0687751077975
 20
97.02455761457982
 30
0.0
 10
162.9692567011506
 20
97.01136328474809
 30
0.0
 10
162.8882917717032
 20
96.99983421076661
 30
0.0
 10
162.8201841367567
 20
96.98973449273713
 30
0.0
 10
162.7710757728821
 20
96.98205215009412
 30
0.0
 10
162.7454743516671
 20
96.97796700749203
 30
0.0
 10
162.7340968768414
 20
96.97613410058379
 30
0.0
 10
162.7379885008228
 20
96.97675933161193
 30
0.0
 10
162.7391660832797
 20
96.9769485228323
 30
0.0
  0
LINE
  5
103
330
1F
100
AcDbEntity
  8
0
  6
HIDDEN
 62
     7
370
     0
100
AcDbLine
 10
172.7356377219
 20
97.2763813651
 30
0.0
 11
172.7356377219
 21
115.2763813651
 31
0.0
  0
LINE
  5
104
330
1F
100
AcDbEntity
  8
0
  6
HIDDEN
 62
     7
370
     0
100
AcDbLine
 10
127.1856377219
 20
97.7763813651
 30
0.0
 11
127.1856377219
 21
114.7763813651
 31
0.0
  0
LINE
  5
105
330
1F
100
AcDbEntity
  8
0
  6
HIDDEN
 62
     7
370
     0
100
AcDbLine
 10
132.9233125242
 20
79.8763813651
 30
0.0
 11
129.6856377219
 21
79.8763813651
 31
0.0
  0
LINE
  5
106
330
1F
100
AcDbEntity
  8
0
  6
HIDDEN
 62
     7
370
     0
100
AcDbLine
 10
142.6856377219
 20
79.8763813651
 30
0.0
 11
136.5479629196
 21
79.8763813651
 31
0.0
  0
LINE
  5
107
330
1F
100
AcDbEntity
  8
0
  6
HIDDEN
 62
     7
370
     0
100
AcDbLine
 10
121.6856377219
 20
74.7922583823
 30
0.0
 11
121.6856377219
 21
79.8763813651
 31
0.0
  0
LINE
  5
108
330
1F
100
AcDbEntity
  8
0
  6
HIDDEN
 62
     7
370
     0
100
AcDbLine
 10
129.6856377219
 20
79.8763813651
 30
0.0
 11
121.6856377219
 21
79.8763813651
 31
0.0
  0
LINE
  5
109
330
1F
100
AcDbEntity
  8
0
  6
HIDDEN
 62
     7
370
     0
100
AcDbLine
 10
133.2199352536
 20
132.6763813651
 30
0.0
 11
129.6856377219
 21
132.6763813651
 31
0.0
  0
LINE
  5
10A
330
1F
100
AcDbEntity
  8
0
  6
HIDDEN
 62
     7
370
     0
100
AcDbLine
 10
142.6856377219
 20
132.6763813651
 30
0.0
 11
136.2513401902
 21
132.6763813651
 31
0.0
  0
LINE
  5
10B
330
1F
100
AcDbEntity
  8
0
  6
HIDDEN
 62
     7
370
     0
100
AcDbLine
 10
129.6856377219
 20
132.6763813651
 30
0.0
 11
121.6856377219
 21
132.6763813651
 31
0.0
  0
SPLINE
  5
10C
330
1F
100
AcDbEntity
  8
0
  6
HIDDEN
 62
     7
370
     0
100
AcDbSpline
210
0.0
220
0.0
230
1.0
 70
     8
 71
     3
 72
    11
 73
     7
 74
     0
 42
0.00000001
 43
0.00000001
 40
0.0
 40
0.0
 40
0.0
 40
0.0
 40
0.0008203708524183
 40
0.0008203708524183
 40
0.0008203708524183
 40
0.0016409967870154
 40
0.0016409967870154
 40
0.0016409967870154
 40
0.0016409967870154
 10
85.98563772189334
 20
90.42434861447107
 30
0.0
 10
85.79447942159469
 20
90.38316958585193
 30
0.0
 10
85.6030523515225
 20
90.34441561362195
 30
0.0
 10
85.41140672800188
 20
90.30804785434339
 30
0.0
 10
85.21970132292142
 20
90.27166875057736
 30
0.0
 10
85.02776237086246
 20
90.23767449980981
 30
0.0
 10
84.83563772379166
 20
90.2060263744186
 30
0.0
  0
ELLIPSE
  5
10D
330
1F
100
AcDbEntity
  8
0
  6
HIDDEN
 62
     7
370
     0
100
AcDbEllipse
 10
80.5932058533
 20
106.2763813651
 30
0.0
 11
20.19992453366628
 21
-1.421085471520200E-14
 31
0.0
210
0.0
220
0.0
230
1.0
 40
0.8164965809
 41
1.300566354718001
 42
1.359198697209605
  0
LINE
  5
10E
330
1F
100
AcDbEntity
  8
0
  6
HIDDEN
 62
     7
370
     0
100
AcDbLine
 10
94.9356377219
 20
88.2863813651
 30
0.0
 11
94.9356377219
 21
89.9888677427
 31
0.0
  0
LINE
  5
10F
330
1F
100
AcDbEntity
  8
0
  6
HIDDEN
 62
     7
370
     0
100
AcDbLine
 10
85.9856377219
 20
88.2863813651
 30
0.0
 11
85.9856377219
 21
90.4243486145
 31
0.0
  0
LINE
  5
110
330
1F
100
AcDbEntity
  8
0
  6
HIDDEN
 62
     7
370
     0
100
AcDbLine
 10
86.0666687353
 20
90.4748909291
 30
0.0
 11
85.9856377219
 21
90.4243486145
 31
0.0
  0
LINE
  5
111
330
1F
100
AcDbEntity
  8
0
  6
HIDDEN
 62
     7
370
     0
100
AcDbLine
 10
90.9356377219
 20
124.2663813651
 30
0.0
 11
90.9356377219
 21
122.5638949875
 31
0.0
  0
LINE
  5
112
330
1F
100
AcDbEntity
  8
0
  6
HIDDEN
 62
     7
370
     0
100
AcDbLine
 10
85.9856377219
 20
124.2663813651
 30
0.0
 11
85.9856377219
 21
122.1710058162
 31
0.0
  0
SPLINE
  5
113
330
1F
100
AcDbEntity
  8
0
  6
HIDDEN
 62
     7
370
     0
100
AcDbSpline
210
0.0
220
0.0
230
1.0
 70
     8
 71
     3
 72
     8
 73
     4
 74
     0
 42
0.00000001
 43
0.00000001
 40
0.0
 40
0.0
 40
0.0
 40
0.0
 40
1.0
 40
1.0
 40
1.0
 40
1.0
 10
85.98563772189334
 20
122.1710058161724
 30
0.0
 10
86.03564322083706
 20
122.1399700419533
 30
0.0
 10
86.08564329150148
 20
122.1089253969258
 30
0.0
 10
86.1356377252866
 20
122.0778718011455
 30
0.0
  0
LINE
  5
114
330
1F
100
AcDbEntity
  8
0
  6
HIDDEN
 62
     7
370
     0
100
AcDbLine
 10
161.7356377219
 20
100.7763813651
 30
0.0
 11
161.7356377219
 21
111.7763813651
 31
0.0
  0
LINE
  5
115
330
1F
100
AcDbEntity
  8
0
  6
HIDDEN
 62
     7
370
     0
100
AcDbLine
 10
139.7367565266
 20
100.7763813651
 30
0.0
 11
139.7367565266
 21
111.7763813651
 31
0.0
  0
LINE
  5
116
330
1F
100
AcDbEntity
  8
0
  6
HIDDEN
 62
     7
370
     0
100
AcDbLine
 10
138.9556377219
 20
102.0763813651
 30
0.0
 11
138.9556377219
 21
110.4763813651
 31
0.0
  0
SPLINE
  5
117
330
1F
100
AcDbEntity
  8
0
  6
HIDDEN
 62
     7
370
     0
100
AcDbSpline
210
0.0
220
0.0
230
1.0
 70
     8
 71
     3
 72
    20
 73
    16
 74
     0
 42
0.00000001
 43
0.00000001
 40
0.0
 40
0.0
 40
0.0
 40
0.0
 40
0.1118918714159509
 40
0.1774110472491152
 40
0.2490325848975096
 40
0.3297810086380183
 40
0.3985533875911826
 40
0.4998330935383316
 40
0.613798181979134
 40
0.6789640920732145
 40
0.7494905745293886
 40
0.8296365120960633
 40
0.8980801645805722
 40
0.9994905441886516
 40
0.9999999999999999
 40
0.9999999999999999
 40
0.9999999999999999
 40
0.9999999999999999
 10
111.4843331404698
 20
82.676426327638
 30
0.0
 10
111.4410297991662
 20
82.68984862133895
 30
0.0
 10
111.3723698417194
 20
82.71113044594189
 30
0.0
 10
110.9272948939808
 20
82.8144165944272
 30
0.0
 10
110.4007421374291
 20
82.92771866066458
 30
0.0
 10
109.7153154716311
 20
83.05065187539877
 30
0.0
 10
108.821998496986
 20
83.17268624298877
 30
0.0
 10
107.7086389845306
 20
83.29042259174754
 30
0.0
 10
106.5978648144599
 20
83.30239805746896
 30
0.0
 10
105.7131168339578
 20
83.27533983142882
 30
0.0
 10
105.0459190440623
 20
83.22740753965351
 30
0.0
 10
104.5046514447285
 20
83.17111495709963
 30
0.0
 10
104.1170528481506
 20
83.12602851276861
 30
0.0
 10
103.9231320998285
 20
83.08715781640721
 30
0.0
 10
103.9862844014153
 20
83.09787281150517
 30
0.0
 10
103.9866000740899
 20
83.09792637140839
 30
0.0
  0
LINE
  5
118
330
1F
100
AcDbEntity
  8
0
  6
HIDDEN
 62
     7
370
     0
100
AcDbLine
 10
104.8956496366
 20
83.2087195088
 30
0.0
 11
105.0794949474
 21
83.2269088511
 31
0.0
  0
SPLINE
  5
119
330
1F
100
AcDbEntity
  8
0
  6
HIDDEN
 62
     7
370
     0
100
AcDbSpline
210
0.0
220
0.0
230
1.0
 70
     8
 71
     3
 72
    27
 73
    23
 74
     0
 42
0.00000001
 43
0.00000001
 40
0.0
 40
0.0
 40
0.0
 40
0.0
 40
0.0007934909877929
 40
0.0456758475390298
 40
0.102257317917939
 40
0.1705351725225513
 40
0.2091267115080731
 40
0.2506538072648596
 40
0.3210993415366345
 40
0.3861928513451252
 40
0.4266718614841075
 40
0.4648029828109216
 40
0.5006071760357611
 40
0.5451987865040357
 40
0.6016928477503832
 40
0.670098586535776
 40
0.7088357829981573
 40
0.7505643845708906
 40
0.8222287227473023
 40
0.8877679213742402
 40
0.9472414712825347
 40
0.9999999999999999
 40
0.9999999999999999
 40
0.9999999999999999
 40
0.9999999999999999
 10
103.9862939423143
 20
129.4547981470986
 30
0.0
 10
103.9860758110118
 20
129.4548451677913
 30
0.0
 10
103.9735194842588
 20
129.4575518273832
 30
0.0
 10
104.0226006088543
 20
129.4457188249851
 30
0.0
 10
104.1676992175463
 20
129.4222759864058
 30
0.0
 10
104.4407532043026
 20
129.3883714169656
 30
0.0
 10
104.7692793913038
 20
129.3548026876554
 30
0.0
 10
105.1620072342138
 20
129.316619331184
 30
0.0
 10
105.711735175836
 20
129.2776506663852
 30
0.0
 10
106.33775783004
 20
129.2581895599143
 30
0.0
 10
106.8809493390276
 20
129.2560038824064
 30
0.0
 10
107.3260182361884
 20
129.2645187635223
 30
0.0
 10
107.7924660325038
 20
129.2843021604455
 30
0.0
 10
108.3297066820638
 20
129.3284645460519
 30
0.0
 10
108.9779201108147
 20
129.4008801655508
 30
0.0
 10
109.5634587488649
 20
129.4817822607807
 30
0.0
 10
110.0444283440238
 20
129.5599482443344
 30
0.0
 10
110.489843323794
 20
129.6447204044551
 30
0.0
 10
110.9283425168887
 20
129.7385033127144
 30
0.0
 10
111.2673696885226
 20
129.8164075665774
 30
0.0
 10
111.4547241490709
 20
129.8666029011963
 30
0.0
 10
111.475214650128
 20
129.8732697610232
 30
0.0
 10
111.4848469112577
 20
129.8764037465996
 30
0.0
  0
LINE
  5
11A
330
1F
100
AcDbEntity
  8
0
  6
HIDDEN
 62
     7
370
     0
100
AcDbLine
 10
153.6856377219
 20
126.1990310959
 30
0.0
 11
156.1856377219
 21
126.1990310959
 31
0.0
  0
LINE
  5
11B
330
1F
100
AcDbEntity
  8
0
  6
HIDDEN
 62
     7
370
     0
100
AcDbLine
 10
151.1856377219
 20
126.1990310959
 30
0.0
 11
153.6856377219
 21
126.1990310959
 31
0.0
  0
LINE
  5
11C
330
1F
100
AcDbEntity
  8
0
  6
HIDDEN
 62
     7
370
     0
100
AcDbLine
 10
156.1856377219
 20
86.3537316343
 30
0.0
 11
151.1856377219
 21
86.3537316343
 31
0.0
  0
LINE
  5
11D
330
1F
100
AcDbEntity
  8
0
  6
HIDDEN
 62
     7
370
     0
100
AcDbLine
 10
153.6856377219
 20
114.7763813651
 30
0.0
 11
156.1856377219
 21
114.7763813651
 31
0.0
  0
LINE
  5
11E
330
1F
100
AcDbEntity
  8
0
  6
HIDDEN
 62
     7
370
     0
100
AcDbLine
 10
151.1856377219
 20
114.7763813651
 30
0.0
 11
153.6856377219
 21
114.7763813651
 31
0.0
  0
LINE
  5
11F
330
1F
100
AcDbEntity
  8
0
  6
HIDDEN
 62
     7
370
     0
100
AcDbLine
 10
156.1856377219
 20
97.7763813651
 30
0.0
 11
151.1856377219
 21
97.7763813651
 31
0.0
  0
SPLINE
  5
120
330
1F
100
AcDbEntity
  8
0
  6
HIDDEN
 62
     7
370
     0
100
AcDbSpline
210
0.0
220
0.0
230
1.0
 70
     8
 71
     3
 72
    20
 73
    16
 74
     0
 42
0.00000001
 43
0.00000001
 40
0.0
 40
0.0
 40
0.0
 40
0.0
 40
0.0837700074900108
 40
0.1671642956623859
 40
0.2832392399699922
 40
0.3419682516181146
 40
0.402169596661708
 40
0.4682656389883207
 40
0.5350318016472171
 40
0.5920958805130524
 40
0.692488959053983
 40
0.7990475557046299
 40
0.8954755043762738
 40
0.9925551802366351
 40
1.0
 40
1.0
 40
1.0
 40
1.0
 10
165.7356377218934
 20
119.3327618392129
 30
0.0
 10
165.7273919439566
 20
119.3429218115329
 30
0.0
 10
165.7109373714636
 20
119.3631961873832
 30
0.0
 10
165.5797902401221
 20
119.5289513323869
 30
0.0
 10
165.4162644332282
 20
119.7484459669869
 30
0.0
 10
165.2619378655608
 20
119.9907669002517
 30
0.0
 10
165.1498941464862
 20
120.2043151534341
 30
0.0
 10
165.0640204420698
 20
120.4565733661779
 30
0.0
 10
165.0595620359894
 20
120.7289833009683
 30
0.0
 10
165.1506002998101
 20
121.0260698429699
 30
0.0
 10
165.3258984738708
 20
121.3210701099797
 30
0.0
 10
165.5332851975982
 20
121.5940198501118
 30
0.0
 10
165.6824404612338
 20
121.7731986198955
 30
0.0
 10
165.7481844558768
 20
121.8493335584561
 30
0.0
 10
165.7334668123149
 20
121.8321573440359
 30
0.0
 10
165.7324185393431
 20
121.8309339578831
 30
0.0
  0
SPLINE
  5
121
330
1F
100
AcDbEntity
  8
0
  6
HIDDEN
 62
     7
370
     0
100
AcDbSpline
210
0.0
220
0.0
230
1.0
 70
     8
 71
     3
 72
     9
 73
     5
 74
     0
 42
0.00000001
 43
0.00000001
 40
0.0
 40
0.0
 40
0.0
 40
0.0
 40
0.7277434543779986
 40
1.0
 40
1.0
 40
1.0
 40
1.0
 10
162.7452303122849
 20
121.8197070568773
 30
0.0
 10
162.7485231749321
 20
121.8193312845753
 30
0.0
 10
162.7530479324238
 20
121.8188149318691
 30
0.0
 10
162.8045193397266
 20
121.8420984715529
 30
0.0
 10
162.8185327672771
 20
121.8484375676371
 30
0.0
  0
SPLINE
  5
122
330
1F
100
AcDbEntity
  8
0
  6
HIDDEN
 62
     7
370
     0
100
AcDbSpline
210
0.0
220
0.0
230
1.0
 70
     8
 71
     3
 72
    18
 73
    14
 74
     0
 42
0.00000001
 43
0.00000001
 40
0.0
 40
0.0
 40
0.0
 40
0.0
 40
0.0515453819248166
 40
0.1416915078118586
 40
0.2391516983526286
 40
0.3558391244880038
 40
0.4675642173198611
 40
0.5384545751043818
 40
0.6098185345909077
 40
0.6961678669738082
 40
0.8353916622311032
 40
0.979468850562027
 40
1.0
 40
1.0
 40
1.0
 40
1.0
 10
162.7459342968041
 20
119.4626123134079
 30
0.0
 10
162.7442509635883
 20
119.4606468683767
 30
0.0
 10
162.7396237009198
 20
119.4552441172553
 30
0.0
 10
162.8171948636177
 20
119.5457687068898
 30
0.0
 10
162.9603328178159
 20
119.7197351266504
 30
0.0
 10
163.1553957881945
 20
119.9796594591077
 30
0.0
 10
163.3286043998278
 20
120.2749750090622
 30
0.0
 10
163.4145434090147
 20
120.5735691777898
 30
0.0
 10
163.4021301109946
 20
120.8598243675329
 30
0.0
 10
163.2758559554515
 20
121.1955176869947
 30
0.0
 10
163.0554363938566
 20
121.5393221369944
 30
0.0
 10
162.8894585530392
 20
121.7578941890653
 30
0.0
 10
162.8263981228988
 20
121.8383967078286
 30
0.0
 10
162.8185327672771
 20
121.8484375676371
 30
0.0
  0
LINE
  5
123
330
1F
100
AcDbEntity
  8
0
  6
HIDDEN
 62
     7
370
     0
100
AcDbLine
 10
165.7356377219
 20
122.7763813651
 30
0.0
 11
162.7356377219
 21
122.7763813651
 31
0.0
  0
LWPOLYLINE
  5
124
330
1F
100
AcDbEntity
  8
0
  6
HIDDEN
 62
     7
370
     0
100
AcDbPolyline
 90
       27
 70
   128
 43
0.0
 10
165.7341954454
 20
90.7197487585
 10
165.7291794005
 20
90.7255816041
 10
165.7032206574
 20
90.7559198714
 10
165.6622677938
 20
90.8043215839
 10
165.6065161972
 20
90.871421436
 10
165.5141293798
 20
90.9864222319
 10
165.4060787384
 20
91.1293561244
 10
165.2945642783
 20
91.2925441562
 10
165.1863256108
 20
91.4820064074
 10
165.1315947201
 20
91.6055729906
 10
165.0893022532
 20
91.7404011101
 10
165.0692249347
 20
91.8569518202
 10
165.0656003701
 20
91.9793174725
 10
165.0789674103
 20
92.0973187508
 10
165.1075733341
 20
92.214330188
 10
165.1741401602
 20
92.3869583317
 10
165.2582878041
 20
92.5493358377
 10
165.3202597602
 20
92.6524730808
 10
165.3836209784
 20
92.7497738899
 10
165.4475260779
 20
92.8422385767
 10
165.5094198415
 20
92.9278591693
 10
165.5914307444
 20
93.0368932554
 10
165.661037493
 20
93.1264241693
 10
165.7025901832
 20
93.1788161215
 10
165.7285480503
 20
93.2111992531
 10
165.7356377219
 20
93.220000891
 10
165.7356377219
 20
93.220000891
  0
LINE
  5
125
330
1F
100
AcDbEntity
  8
0
  6
HIDDEN
 62
     7
370
     0
100
AcDbLine
 10
164.2356377219
 20
90.2763813651
 30
0.0
 11
165.7356377219
 21
90.2763813651
 31
0.0
  0
LINE
  5
126
330
1F
100
AcDbEntity
  8
0
  6
HIDDEN
 62
     7
370
     0
100
AcDbLine
 10
162.7356377219
 20
90.2763813651
 30
0.0
 11
164.2356377219
 21
90.2763813651
 31
0.0
  0
SPLINE
  5
127
330
1F
100
AcDbEntity
  8
0
  6
HIDDEN
 62
     7
370
     0
100
AcDbSpline
210
0.0
220
0.0
230
1.0
 70
     8
 71
     3
 72
    10
 73
     6
 74
     0
 42
0.00000001
 43
0.00000001
 40
0.0
 40
0.0
 40
0.0
 40
0.0
 40
0.4156311632969268
 40
0.8422636458332697
 40
1.0
 40
1.0
 40
1.0
 40
1.0
 10
162.8185327672772
 20
90.70432516259048
 30
0.0
 10
162.7988591138901
 20
90.71308304249746
 30
0.0
 10
162.758991066227
 20
90.73083061417067
 30
0.0
 10
162.7347852499688
 20
90.73625115392235
 30
0.0
 10
162.7383807075799
 20
90.73533626862883
 30
0.0
 10
162.7393512151421
 20
90.73508931728301
 30
0.0
  0
SPLINE
  5
128
330
1F
100
AcDbEntity
  8
0
  6
HIDDEN
 62
     7
370
     0
100
AcDbSpline
210
0.0
220
0.0
230
1.0
 70
     8
 71
     3
 72
    26
 73
    22
 74
     0
 42
0.00000001
 43
0.00000001
 40
0.0
 40
0.0
 40
0.0
 40
0.0
 40
0.0625289022711369
 40
0.1271626702609858
 40
0.1895680344144567
 40
0.2532629405695582
 40
0.3027655552123956
 40
0.3532126134742828
 40
0.3878222223115124
 40
0.423293530582702
 40
0.4579642142702426
 40
0.4938252756087059
 40
0.5377351921179878
 40
0.5828531043869575
 40
0.6504853717853591
 40
0.7200169520450699
 40
0.7886787821174316
 40
0.8598441819874405
 40
0.9070515079455035
 40
0.9555504940005576
 40
0.9999999999999999
 40
0.9999999999999999
 40
0.9999999999999999
 40
0.9999999999999999
 10
162.8185327672771
 20
90.70432516259052
 30
0.0
 10
162.8440732749872
 20
90.7370524115323
 30
0.0
 10
162.8960140422527
 20
90.80360858339162
 30
0.0
 10
162.9965024966889
 20
90.93827669958517
 30
0.0
 10
163.1046248481263
 20
91.09300755839561
 30
0.0
 10
163.2058287256196
 20
91.25383667192796
 30
0.0
 10
163.2933724762593
 20
91.41843504608124
 30
0.0
 10
163.3541403291044
 20
91.56576337962866
 30
0.0
 10
163.3921409603984
 20
91.70663671345488
 30
0.0
 10
163.4087164358355
 20
91.83422802080337
 30
0.0
 10
163.4052571754356
 20
91.9648941135198
 30
0.0
 10
163.3799515476239
 20
92.10262205597758
 30
0.0
 10
163.3311920825522
 20
92.24445218137677
 30
0.0
 10
163.2518293571095
 20
92.40828207788758
 30
0.0
 10
163.1457120626853
 20
92.57980761918716
 30
0.0
 10
163.023864663986
 20
92.74911090697873
 30
0.0
 10
162.9093954128495
 20
92.89501613391243
 30
0.0
 10
162.8246946443708
 20
92.99746501171727
 30
0.0
 10
162.7706616821839
 20
93.06131879232971
 30
0.0
 10
162.7408538216165
 20
93.09607943481153
 30
0.0
 10
162.737703477213
 20
93.09973296494131
 30
0.0
 10
162.7361969304218
 20
93.1014801434682
 30
0.0
  0
LINE
  5
129
330
1F
100
AcDbEntity
  8
0
  6
HIDDEN
 62
     7
370
     0
100
AcDbLine
 10
162.7243401764
 20
93.1016866882
 30
0.0
 11
162.8185327673
 21
90.7043251626
 31
0.0
  0
LINE
  5
12A
330
1F
100
AcDbEntity
  8
0
  6
HIDDEN
 62
     7
370
     0
100
AcDbLine
 10
162.7243401764
 20
119.451076042
 30
0.0
 11
162.8185327673
 21
121.8484375676
 31
0.0
  0
SPLINE
  5
12B
330
1F
100
AcDbEntity
  8
0
  6
HIDDEN
 62
     7
370
     0
100
AcDbSpline
210
0.0
220
0.0
230
1.0
 70
     8
 71
     3
 72
     8
 73
     4
 74
     0
 42
0.00000001
 43
0.00000001
 40
0.0
 40
0.0
 40
0.0
 40
0.0
 40
0.000159097695343
 40
0.000159097695343
 40
0.000159097695343
 40
0.000159097695343
 10
86.12080573111136
 20
90.47489092908215
 30
0.0
 10
86.07575426060701
 20
90.44691204475836
 30
0.0
 10
86.03069822219221
 20
90.4189405143833
 30
0.0
 10
85.98563772189334
 20
90.39097617503077
 30
0.0
  0
SPLINE
  5
12C
330
1F
100
AcDbEntity
  8
0
  6
HIDDEN
 62
     7
370
     0
100
AcDbSpline
210
0.0
220
0.0
230
1.0
 70
     8
 71
     3
 72
    11
 73
     7
 74
     0
 42
0.00000001
 43
0.00000001
 40
0.0
 40
0.0
 40
0.0
 40
0.0
 40
0.0008212909311456
 40
0.0008212909311456
 40
0.0008212909311456
 40
0.001642825724306
 40
0.001642825724306
 40
0.001642825724306
 40
0.001642825724306
 10
85.98563772189335
 20
90.39097617503077
 30
0.0
 10
85.79449270041115
 20
90.34768998617822
 30
0.0
 10
85.60307436473468
 20
90.30675347654095
 30
0.0
 10
85.41142829007354
 20
90.26815170515437
 30
0.0
 10
85.21972520853194
 20
90.22953845131727
 30
0.0
 10
85.02778008524643
 20
90.19325824203126
 30
0.0
 10
84.83563772189326
 20
90.15929133567977
 30
0.0
  0
LINE
  5
12D
330
1F
100
AcDbEntity
  8
0
  6
HIDDEN
 62
     7
370
     0
100
AcDbLine
 10
132.8256377219
 20
126.4578235493
 30
0.0
 11
132.8256377219
 21
126.1263813651
 31
0.0
  0
LINE
  5
12E
330
1F
100
AcDbEntity
  8
0
  6
HIDDEN
 62
     7
370
     0
100
AcDbLine
 10
136.6456377219
 20
126.4578235493
 30
0.0
 11
136.6456377219
 21
126.1263813651
 31
0.0
  0
LINE
  5
12F
330
1F
100
AcDbEntity
  8
0
  6
HIDDEN
 62
     7
370
     0
100
AcDbLine
 10
138.1275705534
 20
130.7350710275
 30
0.0
 11
138.1275705534
 21
126.1263813651
 31
0.0
  0
SPLINE
  5
130
330
1F
100
AcDbEntity
  8
0
  6
HIDDEN
 62
     7
370
     0
100
AcDbSpline
210
0.0
220
0.0
230
1.0
 70
     8
 71
     3
 72
    11
 73
     7
 74
     0
 42
0.00000001
 43
0.00000001
 40
0.0
 40
0.0
 40
0.0
 40
0.0
 40
0.0005781862223978
 40
0.0005781862223978
 40
0.0005781862223978
 40
0.0011563724723928
 40
0.0011563724723928
 40
0.0011563724723928
 40
0.0011563724723928
 10
85.83563772189335
 20
118.9165236721606
 30
0.0
 10
85.66897716761773
 20
118.9810531835741
 30
0.0
 10
85.50231387071125
 20
119.0455558874179
 30
0.0
 10
85.33564728688101
 20
119.1100423358516
 30
0.0
 10
85.16898069462192
 20
119.1745287875465
 30
0.0
 10
85.00231082899603
 20
119.2389987962746
 30
0.0
 10
84.83563772189329
 20
119.3034545630073
 30
0.0
  0
SPLINE
  5
131
330
1F
100
AcDbEntity
  8
0
  6
HIDDEN
 62
     7
370
     0
100
AcDbSpline
210
0.0
220
0.0
230
1.0
 70
     8
 71
     3
 72
    11
 73
     7
 74
     0
 42
0.00000001
 43
0.00000001
 40
0.0
 40
0.0
 40
0.0
 40
0.0
 40
0.0005778746105108
 40
0.0005778746105108
 40
0.0005778746105108
 40
0.0011557494857226
 40
0.0011557494857226
 40
0.0011557494857226
 40
0.0011557494857226
 10
84.83563772189332
 20
93.2491595096239
 30
0.0
 10
85.00230459830665
 20
93.31497163631776
 30
0.0
 10
85.1689713178681
 20
93.3808301164554
 30
0.0
 10
85.33563796591675
 20
93.44673768938603
 30
0.0
 10
85.50230469043541
 20
93.51264529255637
 30
0.0
 10
85.668971384856
 20
93.57860240094489
 30
0.0
 10
85.83563772189335
 20
93.64460414086759
 30
0.0
  0
SPLINE
  5
132
330
1F
100
AcDbEntity
  8
0
  6
HIDDEN
 62
     7
370
     0
100
AcDbSpline
210
0.0
220
0.0
230
1.0
 70
     8
 71
     3
 72
    11
 73
     7
 74
     0
 42
0.00000001
 43
0.00000001
 40
0.0000000000000006
 40
0.0000000000000006
 40
0.0000000000000006
 40
0.0000000000000006
 40
0.0005780486062768
 40
0.0005780486062768
 40
0.0005780486062768
 40
0.0011560973514127
 40
0.0011560973514127
 40
0.0011560973514127
 40
0.0011560973514127
 10
84.83563772189332
 20
116.2571958668055
 30
0.0
 10
85.00230757793823
 20
116.194824005291
 30
0.0
 10
85.1689752820225
 20
116.1324701449933
 30
0.0
 10
85.33564158647613
 20
116.0701505848073
 30
0.0
 10
85.50230792716988
 20
116.0078310110704
 30
0.0
 10
85.66897288379867
 20
115.9455458067508
 30
0.0
 10
85.83563772189335
 20
115.8833206861821
 30
0.0
  0
SPLINE
  5
133
330
1F
100
AcDbEntity
  8
0
  6
HIDDEN
 62
     7
370
     0
100
AcDbSpline
210
0.0
220
0.0
230
1.0
 70
     8
 71
     3
 72
    11
 73
     7
 74
     0
 42
0.00000001
 43
0.00000001
 40
0.0
 40
0.0
 40
0.0
 40
0.0
 40
0.0005782401583533
 40
0.0005782401583533
 40
0.0005782401583533
 40
0.0011564805960993
 40
0.0011564805960993
 40
0.0011564805960993
 40
0.0011564805960993
 10
85.83563772189335
 20
96.67555457271615
 30
0.0
 10
85.66898677154444
 20
96.61212911465536
 30
0.0
 10
85.50232717896178
 20
96.54877359100009
 30
0.0
 10
85.33566012653324
 20
96.48547600665013
 30
0.0
 10
85.16899298996941
 20
96.42217839034686
 30
0.0
 10
85.00231838252337
 20
96.35893859540616
 30
0.0
 10
84.83563772189329
 20
96.29573858876732
 30
0.0
  0
CIRCLE
  5
134
330
1F
100
AcDbEntity
  8
0
  6
HIDDEN
 62
     7
370
     0
100
AcDbCircle
 10
123.7356377219
 20
106.2763813651
 30
0.0
 40
5.000000000000014
  0
LINE
  5
135
330
1F
100
AcDbEntity
  8
0
  6
HIDDEN
 62
     7
370
     0
100
AcDbLine
 10
161.7356377219
 20
105.0659535369
 30
0.0
 11
161.7356377219
 21
111.7763813651
 31
0.0
  0
LINE
  5
136
330
1F
100
AcDbEntity
  8
0
  6
HIDDEN
 62
     7
370
     0
100
AcDbLine
 10
161.7356377219
 20
100.7763813651
 30
0.0
 11
161.7356377219
 21
105.0659535369
 31
0.0
  0
LINE
  5
137
330
1F
100
AcDbEntity
  8
0
  6
HIDDEN
 62
     7
370
     0
100
AcDbLine
 10
161.2356377219
 20
104.9559146434
 30
0.0
 11
161.2356377219
 21
112.2763813651
 31
0.0
  0
LINE
  5
138
330
1F
100
AcDbEntity
  8
0
  6
HIDDEN
 62
     7
370
     0
100
AcDbLine
 10
161.2356377219
 20
100.2763813651
 30
0.0
 11
161.2356377219
 21
104.9559146434
 31
0.0
  0
LINE
  5
139
330
1F
100
AcDbEntity
  8
0
  6
HIDDEN
 62
     7
370
     0
100
AcDbLine
 10
146.2356377219
 20
104.9559146434
 30
0.0
 11
146.2356377219
 21
112.2763813651
 31
0.0
  0
LINE
  5
13A
330
1F
100
AcDbEntity
  8
0
  6
HIDDEN
 62
     7
370
     0
100
AcDbLine
 10
146.2356377219
 20
100.2763813651
 30
0.0
 11
146.2356377219
 21
104.9559146434
 31
0.0
  0
LINE
  5
13B
330
1F
100
AcDbEntity
  8
0
  6
HIDDEN
 62
     7
370
     0
100
AcDbLine
 10
145.7356377219
 20
105.0659535369
 30
0.0
 11
145.7356377219
 21
111.7763813651
 31
0.0
  0
LINE
  5
13C
330
1F
100
AcDbEntity
  8
0
  6
HIDDEN
 62
     7
370
     0
100
AcDbLine
 10
145.7356377219
 20
100.7763813651
 30
0.0
 11
145.7356377219
 21
105.0659535369
 31
0.0
  0
LINE
  5
13D
330
1F
100
AcDbEntity
  8
0
  6
HIDDEN
 62
     7
370
     0
100
AcDbLine
 10
165.7356377219
 20
111.1080319688
 30
0.0
 11
163.7356377219
 21
111.1080319688
 31
0.0
  0
LINE
  5
13E
330
1F
100
AcDbEntity
  8
0
  6
HIDDEN
 62
     7
370
     0
100
AcDbLine
 10
165.7356377219
 20
100.7844974006
 30
0.0
 11
165.7356377219
 21
111.1080319688
 31
0.0
  0
LINE
  5
13F
330
1F
100
AcDbEntity
  8
0
  6
HIDDEN
 62
     7
370
     0
100
AcDbLine
 10
163.7356377219
 20
100.7844974006
 30
0.0
 11
165.7356377219
 21
100.7844974006
 31
0.0
  0
LINE
  5
140
330
1F
100
AcDbEntity
  8
0
  6
HIDDEN
 62
     7
370
     0
100
AcDbLine
 10
163.7356377219
 20
100.7763813651
 30
0.0
 11
163.7356377219
 21
100.7844974006
 31
0.0
  0
LINE
  5
141
330
1F
100
AcDbEntity
  8
0
  6
HIDDEN
 62
     7
370
     0
100
AcDbLine
 10
165.7356377219
 20
101.4447307614
 30
0.0
 11
163.7356377219
 21
101.4447307614
 31
0.0
  0
LINE
  5
142
330
1F
100
AcDbEntity
  8
0
  6
HIDDEN
 62
     7
370
     0
100
AcDbLine
 10
163.7356377219
 20
111.7682653297
 30
0.0
 11
165.7356377219
 21
111.7682653297
 31
0.0
  0
LINE
  5
143
330
1F
100
AcDbEntity
  8
0
  6
HIDDEN
 62
     7
370
     0
100
AcDbLine
 10
163.7356377219
 20
111.1080319688
 30
0.0
 11
163.7356377219
 21
111.7763813651
 31
0.0
  0
LINE
  5
144
330
1F
100
AcDbEntity
  8
0
  6
HIDDEN
 62
     7
370
     0
100
AcDbLine
 10
152.7356377218
 20
107.3057329542
 30
0.0
 11
152.7356377218
 21
108.4806421096
 31
0.0
  0
LINE
  5
145
330
1F
100
AcDbEntity
  8
0
  6
HIDDEN
 62
     7
370
     0
100
AcDbLine
 10
158.7356377219
 20
108.4806421096
 30
0.0
 11
158.7356377219
 21
107.3057329542
 31
0.0
  0
LINE
  5
146
330
1F
100
AcDbEntity
  8
0
  6
HIDDEN
 62
     7
370
     0
100
AcDbLine
 10
152.7356377218
 20
105.6161480042
 30
0.0
 11
152.7356377218
 21
107.3057329542
 31
0.0
  0
LINE
  5
147
330
1F
100
AcDbEntity
  8
0
  6
HIDDEN
 62
     7
370
     0
100
AcDbLine
 10
152.7356377218
 20
107.3057329542
 30
0.0
 11
145.7356377218
 21
107.3057329542
 31
0.0
  0
LINE
  5
148
330
1F
100
AcDbEntity
  8
0
  6
HIDDEN
 62
     7
370
     0
100
AcDbLine
 10
158.7356377219
 20
107.3057329542
 30
0.0
 11
158.7356377219
 21
105.6161480042
 31
0.0
  0
LINE
  5
149
330
1F
100
AcDbEntity
  8
0
  6
HIDDEN
 62
     7
370
     0
100
AcDbLine
 10
158.7356377219
 20
107.3057329542
 30
0.0
 11
165.7356377219
 21
107.3057329542
 31
0.0
  0
LINE
  5
14A
330
1F
100
AcDbEntity
  8
0
  6
HIDDEN
 62
     7
370
     0
100
AcDbLine
 10
152.7356377218
 20
103.9265630543
 30
0.0
 11
152.7356377218
 21
105.6161480042
 31
0.0
  0
LINE
  5
14B
330
1F
100
AcDbEntity
  8
0
  6
HIDDEN
 62
     7
370
     0
100
AcDbLine
 10
158.7356377219
 20
105.6161480042
 30
0.0
 11
158.7356377219
 21
103.9265630543
 31
0.0
  0
LINE
  5
14C
330
1F
100
AcDbEntity
  8
0
  6
HIDDEN
 62
     7
370
     0
100
AcDbLine
 10
163.7356377219
 20
108.4806421096
 30
0.0
 11
163.7356377219
 21
111.1080319688
 31
0.0
  0
LINE
  5
14D
330
1F
100
AcDbEntity
  8
0
  6
HIDDEN
 62
     7
370
     0
100
AcDbLine
 10
163.7356377219
 20
108.4806421096
 30
0.0
 11
165.7356377219
 21
108.4806421096
 31
0.0
  0
LINE
  5
14E
330
1F
100
AcDbEntity
  8
0
  6
HIDDEN
 62
     7
370
     0
100
AcDbLine
 10
152.7356377218
 20
103.4118872598
 30
0.0
 11
152.7356377218
 21
103.9265630543
 31
0.0
  0
LINE
  5
14F
330
1F
100
AcDbEntity
  8
0
  6
HIDDEN
 62
     7
370
     0
100
AcDbLine
 10
152.7356377218
 20
103.9265630543
 30
0.0
 11
145.7356377218
 21
103.9265630543
 31
0.0
  0
LINE
  5
150
330
1F
100
AcDbEntity
  8
0
  6
HIDDEN
 62
     7
370
     0
100
AcDbLine
 10
158.7356377219
 20
103.9265630543
 30
0.0
 11
158.7356377219
 21
103.4118872598
 31
0.0
  0
LINE
  5
151
330
1F
100
AcDbEntity
  8
0
  6
HIDDEN
 62
     7
370
     0
100
AcDbLine
 10
158.7356377219
 20
103.9265630543
 30
0.0
 11
165.7356377219
 21
103.9265630543
 31
0.0
  0
LINE
  5
152
330
1F
100
AcDbEntity
  8
0
  6
HIDDEN
 62
     7
370
     0
100
AcDbLine
 10
158.7356377219
 20
109.655551265
 30
0.0
 11
158.7356377219
 21
108.4806421096
 31
0.0
  0
LINE
  5
153
330
1F
100
AcDbEntity
  8
0
  6
HIDDEN
 62
     7
370
     0
100
AcDbLine
 10
152.7356377218
 20
108.4806421096
 30
0.0
 11
152.7356377218
 21
109.655551265
 31
0.0
  0
LINE
  5
154
330
1F
100
AcDbEntity
  8
0
  6
HIDDEN
 62
     7
370
     0
100
AcDbLine
 10
152.7356377218
 20
102.8972114652
 30
0.0
 11
152.7356377218
 21
103.4118872598
 31
0.0
  0
LINE
  5
155
330
1F
100
AcDbEntity
  8
0
  6
HIDDEN
 62
     7
370
     0
100
AcDbLine
 10
165.7356377219
 20
103.4118872598
 30
0.0
 11
163.7356377219
 21
103.4118872598
 31
0.0
  0
LINE
  5
156
330
1F
100
AcDbEntity
  8
0
  6
HIDDEN
 62
     7
370
     0
100
AcDbLine
 10
163.7356377219
 20
100.7844974006
 30
0.0
 11
163.7356377219
 21
103.4118872598
 31
0.0
  0
LINE
  5
157
330
1F
100
AcDbEntity
  8
0
  6
HIDDEN
 62
     7
370
     0
100
AcDbLine
 10
158.7356377219
 20
103.4118872598
 30
0.0
 11
158.7356377219
 21
102.8972114652
 31
0.0
  0
LINE
  5
158
330
1F
100
AcDbEntity
  8
0
  6
HIDDEN
 62
     7
370
     0
100
AcDbLine
 10
158.7356377219
 20
108.6261996759
 30
0.0
 11
165.7356377219
 21
108.6261996759
 31
0.0
  0
LINE
  5
159
330
1F
100
AcDbEntity
  8
0
  6
HIDDEN
 62
     7
370
     0
100
AcDbLine
 10
165.7356377219
 20
109.1408754705
 30
0.0
 11
163.7356377219
 21
109.1408754705
 31
0.0
  0
LINE
  5
15A
330
1F
100
AcDbEntity
  8
0
  6
HIDDEN
 62
     7
370
     0
100
AcDbLine
 10
158.7356377219
 20
109.655551265
 30
0.0
 11
163.7356377219
 21
109.655551265
 31
0.0
  0
LINE
  5
15B
330
1F
100
AcDbEntity
  8
0
  6
HIDDEN
 62
     7
370
     0
100
AcDbLine
 10
152.7356377218
 20
108.6261996759
 30
0.0
 11
145.7356377218
 21
108.6261996759
 31
0.0
  0
LINE
  5
15C
330
1F
100
AcDbEntity
  8
0
  6
HIDDEN
 62
     7
370
     0
100
AcDbLine
 10
152.7356377218
 20
109.655551265
 30
0.0
 11
145.7356377219
 21
109.655551265
 31
0.0
  0
LINE
  5
15D
330
1F
100
AcDbEntity
  8
0
  6
HIDDEN
 62
     7
370
     0
100
AcDbLine
 10
165.7356377219
 20
111.1080319688
 30
0.0
 11
165.7356377219
 21
111.7682653297
 31
0.0
  0
LINE
  5
15E
330
1F
100
AcDbEntity
  8
0
  6
HIDDEN
 62
     7
370
     0
100
AcDbLine
 10
158.7356377219
 20
105.247029776
 30
0.0
 11
165.7356377219
 21
105.247029776
 31
0.0
  0
LINE
  5
15F
330
1F
100
AcDbEntity
  8
0
  6
HIDDEN
 62
     7
370
     0
100
AcDbLine
 10
163.7356377219
 20
104.0721206206
 30
0.0
 11
165.7356377219
 21
104.0721206206
 31
0.0
  0
LINE
  5
160
330
1F
100
AcDbEntity
  8
0
  6
HIDDEN
 62
     7
370
     0
100
AcDbLine
 10
163.7356377219
 20
103.4118872598
 30
0.0
 11
163.7356377219
 21
104.0721206206
 31
0.0
  0
LINE
  5
161
330
1F
100
AcDbEntity
  8
0
  6
HIDDEN
 62
     7
370
     0
100
AcDbLine
 10
158.7356377219
 20
102.8972114652
 30
0.0
 11
163.7356377219
 21
102.8972114652
 31
0.0
  0
LINE
  5
162
330
1F
100
AcDbEntity
  8
0
  6
HIDDEN
 62
     7
370
     0
100
AcDbLine
 10
152.7356377218
 20
105.247029776
 30
0.0
 11
145.7356377218
 21
105.247029776
 31
0.0
  0
LINE
  5
163
330
1F
100
AcDbEntity
  8
0
  6
HIDDEN
 62
     7
370
     0
100
AcDbLine
 10
152.7356377218
 20
102.8972114652
 30
0.0
 11
145.7356377218
 21
102.8972114652
 31
0.0
  0
LINE
  5
164
330
1F
100
AcDbEntity
  8
0
  6
HIDDEN
 62
     7
370
     0
100
AcDbLine
 10
211.6032606883
 20
120.2827398108
 30
0.0
 11
206.2693228844
 21
120.4923107979
 31
0.0
  0
LINE
  5
165
330
1F
100
AcDbEntity
  8
0
  6
HIDDEN
 62
     7
370
     0
100
AcDbLine
 10
206.1515434371
 20
117.4946236892
 30
0.0
 11
211.485481241
 21
117.2850527021
 31
0.0
  0
LINE
  5
166
330
1F
100
AcDbEntity
  8
0
  6
HIDDEN
 62
     7
370
     0
100
AcDbLine
 10
211.485481241
 20
117.2850527021
 30
0.0
 11
211.6583155148
 21
117.5589784472
 31
0.0
  0
LINE
  5
167
330
1F
100
AcDbEntity
  8
0
  6
HIDDEN
 62
     7
370
     0
100
AcDbLine
 10
211.7356377219
 20
120.0311324551
 30
0.0
 11
211.6032606883
 21
120.2827398108
 31
0.0
  0
LINE
  5
168
330
1F
100
AcDbEntity
  8
0
  6
HIDDEN
 62
     7
370
     0
100
AcDbLine
 10
206.2693228844
 20
120.4923107979
 30
0.0
 11
205.7500784584
 21
120.0123261877
 31
0.0
  0
LINE
  5
169
330
1F
100
AcDbEntity
  8
0
  6
HIDDEN
 62
     7
370
     0
100
AcDbLine
 10
205.6715588269
 20
118.0138681152
 30
0.0
 11
206.1515434371
 21
117.4946236892
 31
0.0
  0
LINE
  5
16A
330
1F
100
AcDbEntity
  8
0
  6
HIDDEN
 62
     7
370
     0
100
AcDbLine
 10
211.6621504119
 20
92.2723367029
 30
0.0
 11
211.7356377219
 21
92.4120131048
 31
0.0
  0
LINE
  5
16B
330
1F
100
AcDbEntity
  8
0
  6
HIDDEN
 62
     7
370
     0
100
AcDbLine
 10
211.7172052384
 20
94.9960980666
 30
0.0
 11
211.5443709646
 21
95.2700238117
 31
0.0
  0
LINE
  5
16C
330
1F
100
AcDbEntity
  8
0
  6
HIDDEN
 62
     7
370
     0
100
AcDbLine
 10
211.5443709646
 20
95.2700238117
 30
0.0
 11
206.2104331608
 21
95.0604528246
 31
0.0
  0
LINE
  5
16D
330
1F
100
AcDbEntity
  8
0
  6
HIDDEN
 62
     7
370
     0
100
AcDbLine
 10
206.328212608
 20
92.0627657158
 30
0.0
 11
211.6621504119
 21
92.2723367029
 31
0.0
  0
LINE
  5
16E
330
1F
100
AcDbEntity
  8
0
  6
HIDDEN
 62
     7
370
     0
100
AcDbLine
 10
206.2104331608
 20
95.0604528246
 30
0.0
 11
205.7304485505
 21
94.5412083986
 31
0.0
  0
LINE
  5
16F
330
1F
100
AcDbEntity
  8
0
  6
HIDDEN
 62
     7
370
     0
100
AcDbLine
 10
205.808968182
 20
92.5427503261
 30
0.0
 11
206.328212608
 21
92.0627657158
 31
0.0
  0
LINE
  5
170
330
1F
100
AcDbEntity
  8
0
  6
HIDDEN
 62
     7
370
     0
100
AcDbLine
 10
120.7356377219
 20
120.5770464691
 30
0.0
 11
120.7356377219
 21
118.670322008
 31
0.0
  0
LINE
  5
171
330
1F
100
AcDbEntity
  8
0
  6
HIDDEN
 62
     7
370
     0
100
AcDbLine
 10
128.7356377219
 20
118.670322008
 30
0.0
 11
128.7356377219
 21
120.5763258253
 31
0.0
  0
LINE
  5
172
330
1F
100
AcDbEntity
  8
0
  6
HIDDEN
 62
     7
370
     0
100
AcDbLine
 10
116.7356377219
 20
80.9524502191
 30
0.0
 11
116.8297984974
 21
81.6224389504
 31
0.0
  0
LINE
  5
173
330
1F
100
AcDbEntity
  8
0
  6
HIDDEN
 62
     7
370
     0
100
AcDbLine
 10
116.8297984974
 20
130.9303237799
 30
0.0
 11
116.7356377219
 21
131.6003125111
 31
0.0
  0
ARC
  5
174
330
1F
100
AcDbEntity
  8
0
  6
HIDDEN
 62
     7
370
     0
100
AcDbCircle
 10
116.2356309692
 20
81.7059437507
 30
0.0
 40
0.6000067526677242
100
AcDbArc
 50
352.0
 51
0.0
  0
ARC
  5
175
330
1F
100
AcDbEntity
  8
0
  6
HIDDEN
 62
     7
370
     0
100
AcDbCircle
 10
116.2356309692
 20
81.7059437507
 30
0.0
 40
0.6000067526677242
100
AcDbArc
 50
0.0
 51
33.5571153394
  0
ARC
  5
176
330
1F
100
AcDbEntity
  8
0
  6
HIDDEN
 62
     7
370
     0
100
AcDbCircle
 10
116.2356309692
 20
130.8468189795
 30
0.0
 40
0.6000067526677113
100
AcDbArc
 50
348.75
 51
8.0
  0
LWPOLYLINE
  5
177
330
1F
100
AcDbEntity
  8
0
  6
HIDDEN
 62
     7
370
     0
100
AcDbPolyline
 90
        3
 70
   128
 43
0.0
 10
116.8241087604
 20
130.7297634689
 10
116.7899649274
 20
130.617206336
 10
116.7356377219
 20
130.5151544645
  0
LINE
  5
178
330
1F
100
AcDbEntity
  8
0
  6
HIDDEN
 62
     7
370
     0
100
AcDbLine
 10
116.8356377219
 20
81.7059437507
 30
0.0
 11
116.8356377219
 21
130.8468189795
 31
0.0
  0
ARC
  5
179
330
1F
100
AcDbEntity
  8
0
  6
HIDDEN
 62
     7
370
     0
100
AcDbCircle
 10
99.8180732872
 20
86.8763813651
 30
0.0
 40
0.6000000000000032
100
AcDbArc
 50
210.0
 51
270.0
  0
ARC
  5
17A
330
1F
100
AcDbEntity
  8
0
  6
HIDDEN
 62
     7
370
     0
100
AcDbCircle
 10
99.8180732872
 20
125.6763813651
 30
0.0
 40
0.6000000000000227
100
AcDbArc
 50
90.0
 51
150.0
  0
LINE
  5
17B
330
1F
100
AcDbEntity
  8
0
  6
HIDDEN
 62
     7
370
     0
100
AcDbLine
 10
99.8180732872
 20
86.2763813651
 30
0.0
 11
103.9956098636
 21
86.2763813651
 31
0.0
  0
LINE
  5
17C
330
1F
100
AcDbEntity
  8
0
  6
HIDDEN
 62
     7
370
     0
100
AcDbLine
 10
103.9956098636
 20
126.2763813651
 30
0.0
 11
99.8180732872
 21
126.2763813651
 31
0.0
  0
ARC
  5
17D
330
1F
100
AcDbEntity
  8
0
  6
HIDDEN
 62
     7
370
     0
100
AcDbCircle
 10
110.4906397235
 20
94.2763813651
 30
0.0
 40
7.999999999999996
100
AcDbArc
 50
277.0502859866
 51
321.3178125465
  0
ARC
  5
17E
330
1F
100
AcDbEntity
  8
0
  6
HIDDEN
 62
     7
370
     0
100
AcDbCircle
 10
110.4906397235
 20
118.2763813651
 30
0.0
 40
8.000000000000007
100
AcDbArc
 50
38.6821874535
 51
82.9372116836
  0
LINE
  5
17F
330
1F
100
AcDbEntity
  8
0
  6
HIDDEN
 62
     7
370
     0
100
AcDbLine
 10
99.2984580449
 20
125.9763813651
 30
0.0
 11
97.7396123181
 21
123.2763813651
 31
0.0
  0
LINE
  5
180
330
1F
100
AcDbEntity
  8
0
  6
HIDDEN
 62
     7
370
     0
100
AcDbLine
 10
97.7396123181
 20
89.2763813651
 30
0.0
 11
99.2984580449
 21
86.5763813651
 31
0.0
  0
LINE
  5
181
330
1F
100
AcDbEntity
  8
0
  6
HIDDEN
 62
     7
370
     0
100
AcDbLine
 10
120.7356377219
 20
133.5561136022
 30
0.0
 11
120.7356377219
 21
130.2219837798
 31
0.0
  0
LINE
  5
182
330
1F
100
AcDbEntity
  8
0
  6
HIDDEN
 62
     7
370
     0
100
AcDbLine
 10
128.7356377219
 20
130.2219837798
 30
0.0
 11
128.7356377219
 21
133.5547389129
 31
0.0
  0
ARC
  5
183
330
1F
100
AcDbEntity
  8
0
  6
HIDDEN
 62
     7
370
     0
100
AcDbCircle
 10
125.1856377219
 20
90.5513813651
 30
0.0
 40
1.5
100
AcDbArc
 50
238.2116693829
 51
0.0
  0
ARC
  5
184
330
1F
100
AcDbEntity
  8
0
  6
HIDDEN
 62
     7
370
     0
100
AcDbCircle
 10
125.1856377219
 20
122.0013813651
 30
0.0
 40
1.500000000000001
100
AcDbArc
 50
0.0
 51
121.7883306171
  0
LINE
  5
185
330
1F
100
AcDbEntity
  8
0
  6
HIDDEN
 62
     7
370
     0
100
AcDbLine
 10
94.9356377219
 20
89.2763813651
 30
0.0
 11
97.7396123181
 21
89.2763813651
 31
0.0
  0
LINE
  5
186
330
1F
100
AcDbEntity
  8
0
  6
HIDDEN
 62
     7
370
     0
100
AcDbLine
 10
97.7396123181
 20
123.2763813651
 30
0.0
 11
90.9356377219
 21
123.2763813651
 31
0.0
  0
LINE
  5
187
330
1F
100
AcDbEntity
  8
0
  6
HIDDEN
 62
     7
370
     0
100
AcDbLine
 10
116.7356377219
 20
89.2763813651
 30
0.0
 11
124.3954636904
 21
89.2763813651
 31
0.0
  0
LINE
  5
188
330
1F
100
AcDbEntity
  8
0
  6
HIDDEN
 62
     7
370
     0
100
AcDbLine
 10
124.3954636904
 20
123.2763813651
 30
0.0
 11
116.7356377219
 21
123.2763813651
 31
0.0
  0
ARC
  5
189
330
1F
100
AcDbEntity
  8
0
  6
HIDDEN
 62
     7
370
     0
100
AcDbCircle
 10
211.2356377219
 20
96.239687117
 30
0.0
 40
0.5000000000000014
100
AcDbArc
 50
0.0
 51
80.0
  0
ARC
  5
18A
330
1F
100
AcDbEntity
  8
0
  6
HIDDEN
 62
     7
370
     0
100
AcDbCircle
 10
211.2356377219
 20
116.3130756132
 30
0.0
 40
0.5000000000000014
100
AcDbArc
 50
280.0
 51
0.0
  0
LINE
  5
18B
330
1F
100
AcDbEntity
  8
0
  6
HIDDEN
 62
     7
370
     0
100
AcDbLine
 10
211.3224618107
 20
115.8206717367
 30
0.0
 11
208.2356377219
 21
115.2763813651
 31
0.0
  0
LINE
  5
18C
330
1F
100
AcDbEntity
  8
0
  6
HIDDEN
 62
     7
370
     0
100
AcDbLine
 10
208.2356377219
 20
97.2763813651
 30
0.0
 11
211.3224618107
 21
96.7320909936
 31
0.0
  0
LINE
  5
18D
330
1F
100
AcDbEntity
  8
0
  6
HIDDEN
 62
     7
370
     0
100
AcDbLine
 10
135.5356377219
 20
96.7763813651
 30
0.0
 11
138.5356377219
 21
96.7763813651
 31
0.0
  0
LINE
  5
18E
330
1F
100
AcDbEntity
  8
0
  6
HIDDEN
 62
     7
370
     0
100
AcDbLine
 10
138.5356377219
 20
115.7763813651
 30
0.0
 11
135.5356377219
 21
115.7763813651
 31
0.0
  0
ARC
  5
18F
330
1F
100
AcDbEntity
  8
0
  6
HIDDEN
 62
     7
370
     0
100
AcDbCircle
 10
162.6356377219
 20
97.3763813651
 30
0.0
 40
0.4000000000000199
100
AcDbArc
 50
180.0
 51
270.0
  0
ARC
  5
190
330
1F
100
AcDbEntity
  8
0
  6
HIDDEN
 62
     7
370
     0
100
AcDbCircle
 10
162.6356377219
 20
115.1763813651
 30
0.0
 40
0.4000000000000057
100
AcDbArc
 50
90.0
 51
180.0
  0
LINE
  5
191
330
1F
100
AcDbEntity
  8
0
  6
HIDDEN
 62
     7
370
     0
100
AcDbLine
 10
165.7356377219
 20
96.9763813651
 30
0.0
 11
171.8408637038
 21
96.9763813651
 31
0.0
  0
LINE
  5
192
330
1F
100
AcDbEntity
  8
0
  6
HIDDEN
 62
     7
370
     0
100
AcDbLine
 10
162.6356377219
 20
96.9763813651
 30
0.0
 11
162.7391660833
 21
96.9763813651
 31
0.0
  0
LINE
  5
193
330
1F
100
AcDbEntity
  8
0
  6
HIDDEN
 62
     7
370
     0
100
AcDbLine
 10
162.7367607188
 20
115.5763813651
 30
0.0
 11
162.6356377219
 21
115.5763813651
 31
0.0
  0
LINE
  5
194
330
1F
100
AcDbEntity
  8
0
  6
HIDDEN
 62
     7
370
     0
100
AcDbLine
 10
171.8408637038
 20
115.5763813651
 30
0.0
 11
165.7306249783
 21
115.5763813651
 31
0.0
  0
ARC
  5
195
330
1F
100
AcDbEntity
  8
0
  6
HIDDEN
 62
     7
370
     0
100
AcDbCircle
 10
171.8408637038
 20
97.3763813651
 30
0.0
 40
0.4000000000000199
100
AcDbArc
 50
270.0
 51
290.0
  0
ARC
  5
196
330
1F
100
AcDbEntity
  8
0
  6
HIDDEN
 62
     7
370
     0
100
AcDbCircle
 10
171.8408637038
 20
115.1763813651
 30
0.0
 40
0.4000000000000111
100
AcDbArc
 50
70.0
 51
90.0
  0
LINE
  5
197
330
1F
100
AcDbEntity
  8
0
  6
HIDDEN
 62
     7
370
     0
100
AcDbLine
 10
171.9776717611
 20
97.0005043168
 30
0.0
 11
172.7356377219
 21
97.2763813651
 31
0.0
  0
LINE
  5
198
330
1F
100
AcDbEntity
  8
0
  6
HIDDEN
 62
     7
370
     0
100
AcDbLine
 10
172.7356377219
 20
115.2763813651
 30
0.0
 11
171.9776717611
 21
115.5522584134
 31
0.0
  0
LINE
  5
199
330
1F
100
AcDbEntity
  8
0
  6
HIDDEN
 62
     7
370
     0
100
AcDbLine
 10
126.6856377219
 20
97.2763813651
 30
0.0
 11
127.1856377219
 21
97.7763813651
 31
0.0
  0
LINE
  5
19A
330
1F
100
AcDbEntity
  8
0
  6
HIDDEN
 62
     7
370
     0
100
AcDbLine
 10
127.1856377219
 20
114.7763813651
 30
0.0
 11
126.6856377219
 21
115.2763813651
 31
0.0
  0
LINE
  5
19B
330
1F
100
AcDbEntity
  8
0
  6
HIDDEN
 62
     7
370
     0
100
AcDbLine
 10
172.7356377219
 20
97.2763813651
 30
0.0
 11
208.2356377219
 21
97.2763813651
 31
0.0
  0
LINE
  5
19C
330
1F
100
AcDbEntity
  8
0
  6
HIDDEN
 62
     7
370
     0
100
AcDbLine
 10
208.2356377219
 20
115.2763813651
 30
0.0
 11
172.7356377219
 21
115.2763813651
 31
0.0
  0
LINE
  5
19D
330
1F
100
AcDbEntity
  8
0
  6
HIDDEN
 62
     7
370
     0
100
AcDbLine
 10
127.1856377219
 20
97.7763813651
 30
0.0
 11
135.5356377219
 21
97.7763813651
 31
0.0
  0
LINE
  5
19E
330
1F
100
AcDbEntity
  8
0
  6
HIDDEN
 62
     7
370
     0
100
AcDbLine
 10
135.5356377219
 20
114.7763813651
 30
0.0
 11
127.1856377219
 21
114.7763813651
 31
0.0
  0
LINE
  5
19F
330
1F
100
AcDbEntity
  8
0
  6
HIDDEN
 62
     7
370
     0
100
AcDbLine
 10
121.6856377219
 20
137.7763813651
 30
0.0
 11
121.6856377219
 21
132.6763813651
 31
0.0
  0
LINE
  5
1A0
330
1F
100
AcDbEntity
  8
0
  6
HIDDEN
 62
     7
370
     0
100
AcDbLine
 10
162.2356377219
 20
112.2763813651
 30
0.0
 11
161.7356377219
 21
111.7763813651
 31
0.0
  0
LINE
  5
1A1
330
1F
100
AcDbEntity
  8
0
  6
HIDDEN
 62
     7
370
     0
100
AcDbLine
 10
161.7356377219
 20
100.7763813651
 30
0.0
 11
162.2356377219
 21
100.2763813651
 31
0.0
  0
LINE
  5
1A2
330
1F
100
AcDbEntity
  8
0
  6
HIDDEN
 62
     7
370
     0
100
AcDbLine
 10
139.7367565266
 20
100.7763813651
 30
0.0
 11
161.7356377219
 21
100.7763813651
 31
0.0
  0
LINE
  5
1A3
330
1F
100
AcDbEntity
  8
0
  6
HIDDEN
 62
     7
370
     0
100
AcDbLine
 10
161.7356377219
 20
111.7763813651
 30
0.0
 11
139.7367565266
 21
111.7763813651
 31
0.0
  0
LINE
  5
1A4
330
1F
100
AcDbEntity
  8
0
  6
HIDDEN
 62
     7
370
     0
100
AcDbLine
 10
139.7367565266
 20
111.7763813651
 30
0.0
 11
138.9556377219
 21
110.4763813651
 31
0.0
  0
LINE
  5
1A5
330
1F
100
AcDbEntity
  8
0
  6
HIDDEN
 62
     7
370
     0
100
AcDbLine
 10
138.9556377219
 20
102.0763813651
 30
0.0
 11
139.7367565266
 21
100.7763813651
 31
0.0
  0
LINE
  5
1A6
330
1F
100
AcDbEntity
  8
0
  6
HIDDEN
 62
     7
370
     0
100
AcDbLine
 10
111.9200755524
 20
82.1970100316
 30
0.0
 11
111.4856434029
 21
82.6760760507
 31
0.0
  0
LINE
  5
1A7
330
1F
100
AcDbEntity
  8
0
  6
HIDDEN
 62
     7
370
     0
100
AcDbLine
 10
103.9856400778
 20
83.0977640098
 30
0.0
 11
103.5032063345
 21
82.6186980344
 31
0.0
  0
LINE
  5
1A8
330
1F
100
AcDbEntity
  8
0
  6
HIDDEN
 62
     7
370
     0
100
AcDbLine
 10
103.5030844062
 20
129.9340594054
 30
0.0
 11
103.9856351572
 21
129.4549391475
 31
0.0
  0
LINE
  5
1A9
330
1F
100
AcDbEntity
  8
0
  6
HIDDEN
 62
     7
370
     0
100
AcDbLine
 10
111.4856376039
 20
129.8766369252
 30
0.0
 11
111.9201799942
 21
130.3557571758
 31
0.0
  0
LINE
  5
1AA
330
1F
100
AcDbEntity
  8
0
  6
HIDDEN
 62
     7
370
     0
100
AcDbLine
 10
138.5356377219
 20
102.0763813651
 30
0.0
 11
138.9556377219
 21
102.0763813651
 31
0.0
  0
LINE
  5
1AB
330
1F
100
AcDbEntity
  8
0
  6
HIDDEN
 62
     7
370
     0
100
AcDbLine
 10
138.9556377219
 20
110.4763813651
 30
0.0
 11
138.5356377219
 21
110.4763813651
 31
0.0
  0
LINE
  5
1AC
330
1F
100
AcDbEntity
  8
0
  6
HIDDEN
 62
     7
370
     0
100
AcDbLine
 10
111.4856377219
 20
82.6765599524
 30
0.0
 11
111.4856377219
 21
86.3393085391
 31
0.0
  0
LINE
  5
1AD
330
1F
100
AcDbEntity
  8
0
  6
HIDDEN
 62
     7
370
     0
100
AcDbLine
 10
103.9856377219
 20
86.2782436107
 30
0.0
 11
103.9856377219
 21
83.0980872476
 31
0.0
  0
LINE
  5
1AE
330
1F
100
AcDbEntity
  8
0
  6
HIDDEN
 62
     7
370
     0
100
AcDbLine
 10
111.4856377219
 20
126.2134541911
 30
0.0
 11
111.4856377219
 21
129.8763456191
 31
0.0
  0
LINE
  5
1AF
330
1F
100
AcDbEntity
  8
0
  6
HIDDEN
 62
     7
370
     0
100
AcDbLine
 10
103.9856377219
 20
129.4547953683
 30
0.0
 11
103.9856377219
 21
126.2745191195
 31
0.0
  0
LINE
  5
1B0
330
1F
100
AcDbEntity
  8
0
  6
HIDDEN
 62
     7
370
     0
100
AcDbLine
 10
150.1856377219
 20
126.7763813651
 30
0.0
 11
151.1856377219
 21
126.1990310959
 31
0.0
  0
LINE
  5
1B1
330
1F
100
AcDbEntity
  8
0
  6
HIDDEN
 62
     7
370
     0
100
AcDbLine
 10
156.1856377219
 20
126.1990310959
 30
0.0
 11
157.1856377219
 21
126.7763813651
 31
0.0
  0
LINE
  5
1B2
330
1F
100
AcDbEntity
  8
0
  6
HIDDEN
 62
     7
370
     0
100
AcDbLine
 10
157.1856377219
 20
85.7763813651
 30
0.0
 11
156.1856377219
 21
86.3537316343
 31
0.0
  0
LINE
  5
1B3
330
1F
100
AcDbEntity
  8
0
  6
HIDDEN
 62
     7
370
     0
100
AcDbLine
 10
151.1856377219
 20
86.3537316343
 30
0.0
 11
150.1856377219
 21
85.7763813651
 31
0.0
  0
LINE
  5
1B4
330
1F
100
AcDbEntity
  8
0
  6
HIDDEN
 62
     7
370
     0
100
AcDbLine
 10
151.1856377219
 20
126.1990310959
 30
0.0
 11
151.1856377219
 21
114.7763813651
 31
0.0
  0
LINE
  5
1B5
330
1F
100
AcDbEntity
  8
0
  6
HIDDEN
 62
     7
370
     0
100
AcDbLine
 10
156.1856377219
 20
114.7763813651
 30
0.0
 11
156.1856377219
 21
126.1990310959
 31
0.0
  0
LINE
  5
1B6
330
1F
100
AcDbEntity
  8
0
  6
HIDDEN
 62
     7
370
     0
100
AcDbLine
 10
151.1856377219
 20
114.7763813651
 30
0.0
 11
153.6856377219
 21
113.2742298175
 31
0.0
  0
LINE
  5
1B7
330
1F
100
AcDbEntity
  8
0
  6
HIDDEN
 62
     7
370
     0
100
AcDbLine
 10
153.6856377219
 20
113.2742298175
 30
0.0
 11
156.1856377219
 21
114.7763813651
 31
0.0
  0
LINE
  5
1B8
330
1F
100
AcDbEntity
  8
0
  6
HIDDEN
 62
     7
370
     0
100
AcDbLine
 10
156.1856377219
 20
86.3537316343
 30
0.0
 11
156.1856377219
 21
97.7763813651
 31
0.0
  0
LINE
  5
1B9
330
1F
100
AcDbEntity
  8
0
  6
HIDDEN
 62
     7
370
     0
100
AcDbLine
 10
151.1856377219
 20
97.7763813651
 30
0.0
 11
151.1856377219
 21
86.3537316343
 31
0.0
  0
LINE
  5
1BA
330
1F
100
AcDbEntity
  8
0
  6
HIDDEN
 62
     7
370
     0
100
AcDbLine
 10
156.1856377219
 20
97.7763813651
 30
0.0
 11
153.6856377219
 21
99.2785329127
 31
0.0
  0
LINE
  5
1BB
330
1F
100
AcDbEntity
  8
0
  6
HIDDEN
 62
     7
370
     0
100
AcDbLine
 10
153.6856377219
 20
99.2785329127
 30
0.0
 11
151.1856377219
 21
97.7763813651
 31
0.0
  0
LINE
  5
1BC
330
1F
100
AcDbEntity
  8
0
  6
HIDDEN
 62
     7
370
     0
100
AcDbLine
 10
162.7356377219
 20
119.4626123134
 30
0.0
 11
162.7356377219
 21
115.5762021569
 31
0.0
  0
LINE
  5
1BD
330
1F
100
AcDbEntity
  8
0
  6
HIDDEN
 62
     7
370
     0
100
AcDbLine
 10
162.7356377219
 20
122.7763813651
 30
0.0
 11
162.7356377219
 21
121.8197070569
 31
0.0
  0
LINE
  5
1BE
330
1F
100
AcDbEntity
  8
0
  6
HIDDEN
 62
     7
370
     0
100
AcDbLine
 10
165.7356377219
 20
121.8309339579
 30
0.0
 11
165.7356377219
 21
122.7763813651
 31
0.0
  0
LINE
  5
1BF
330
1F
100
AcDbEntity
  8
0
  6
HIDDEN
 62
     7
370
     0
100
AcDbLine
 10
165.7356377219
 20
115.5755751125
 30
0.0
 11
165.7356377219
 21
119.3327618392
 31
0.0
  0
LINE
  5
1C0
330
1F
100
AcDbEntity
  8
0
  6
HIDDEN
 62
     7
370
     0
100
AcDbLine
 10
162.7356377219
 20
90.7350893173
 30
0.0
 11
162.7356377219
 21
90.2763813651
 31
0.0
  0
LINE
  5
1C1
330
1F
100
AcDbEntity
  8
0
  6
HIDDEN
 62
     7
370
     0
100
AcDbLine
 10
162.7356377219
 20
96.9769472464
 30
0.0
 11
162.7356377219
 21
93.1014801435
 31
0.0
  0
LINE
  5
1C2
330
1F
100
AcDbEntity
  8
0
  6
HIDDEN
 62
     7
370
     0
100
AcDbLine
 10
165.7356377219
 20
93.220000891
 30
0.0
 11
165.7356377219
 21
96.9763813651
 31
0.0
  0
LINE
  5
1C3
330
1F
100
AcDbEntity
  8
0
  6
HIDDEN
 62
     7
370
     0
100
AcDbLine
 10
165.7356377219
 20
90.2763813651
 30
0.0
 11
165.7356377219
 21
90.7197487585
 31
0.0
  0
LINE
  5
1C4
330
1F
100
AcDbEntity
  8
0
  6
HIDDEN
 62
     7
370
     0
100
AcDbLine
 10
162.7356377219
 20
90.2763813651
 30
0.0
 11
164.2356377219
 21
89.3750904366
 31
0.0
  0
LINE
  5
1C5
330
1F
100
AcDbEntity
  8
0
  6
HIDDEN
 62
     7
370
     0
100
AcDbLine
 10
164.2356377219
 20
89.3750904366
 30
0.0
 11
165.7356377219
 21
90.2763813651
 31
0.0
  0
LINE
  5
1C6
330
1F
100
AcDbEntity
  8
0
  6
HIDDEN
 62
     7
370
     0
100
AcDbLine
 10
165.7342642366
 20
90.7180180301
 30
0.0
 11
211.7356377219
 21
92.5254169169
 31
0.0
  0
LINE
  5
1C7
330
1F
100
AcDbEntity
  8
0
  6
HIDDEN
 62
     7
370
     0
100
AcDbLine
 10
211.7356377219
 20
95.0273458134
 30
0.0
 11
165.7356377219
 21
93.220000891
 31
0.0
  0
LINE
  5
1C8
330
1F
100
AcDbEntity
  8
0
  6
HIDDEN
 62
     7
370
     0
100
AcDbLine
 10
165.7356377219
 20
119.3327618392
 30
0.0
 11
211.7356377219
 21
117.5254169169
 31
0.0
  0
LINE
  5
1C9
330
1F
100
AcDbEntity
  8
0
  6
HIDDEN
 62
     7
370
     0
100
AcDbLine
 10
211.7356377219
 20
120.0273458134
 30
0.0
 11
165.7325830252
 21
121.8348107551
 31
0.0
  0
LINE
  5
1CA
330
1F
100
AcDbEntity
  8
0
  6
HIDDEN
 62
     7
370
     0
100
AcDbLine
 10
162.7243401764
 20
93.1016866882
 30
0.0
 11
162.0229182245
 21
91.8231632964
 31
0.0
  0
LINE
  5
1CB
330
1F
100
AcDbEntity
  8
0
  6
HIDDEN
 62
     7
370
     0
100
AcDbLine
 10
162.0229182245
 20
91.8231632964
 30
0.0
 11
162.7372111768
 21
90.7336854859
 31
0.0
  0
LINE
  5
1CC
330
1F
100
AcDbEntity
  8
0
  6
HIDDEN
 62
     7
370
     0
100
AcDbLine
 10
162.7399331114
 20
121.8232288846
 30
0.0
 11
162.0229182245
 21
120.7295994338
 31
0.0
  0
LINE
  5
1CD
330
1F
100
AcDbEntity
  8
0
  6
HIDDEN
 62
     7
370
     0
100
AcDbLine
 10
162.0229182245
 20
120.7295994338
 30
0.0
 11
162.7243401764
 21
119.451076042
 31
0.0
  0
LINE
  5
1CE
330
1F
100
AcDbEntity
  8
0
  6
HIDDEN
 62
     7
370
     0
100
AcDbLine
 10
161.2356377219
 20
100.2763813651
 30
0.0
 11
161.7356377219
 21
100.7763813651
 31
0.0
  0
LINE
  5
1CF
330
1F
100
AcDbEntity
  8
0
  6
HIDDEN
 62
     7
370
     0
100
AcDbLine
 10
161.7356377219
 20
111.7763813651
 30
0.0
 11
161.2356377219
 21
112.2763813651
 31
0.0
  0
LINE
  5
1D0
330
1F
100
AcDbEntity
  8
0
  6
HIDDEN
 62
     7
370
     0
100
AcDbLine
 10
146.2356377219
 20
100.2763813651
 30
0.0
 11
161.2356377219
 21
100.2763813651
 31
0.0
  0
LINE
  5
1D1
330
1F
100
AcDbEntity
  8
0
  6
HIDDEN
 62
     7
370
     0
100
AcDbLine
 10
161.2356377219
 20
112.2763813651
 30
0.0
 11
146.2356377219
 21
112.2763813651
 31
0.0
  0
LINE
  5
1D2
330
1F
100
AcDbEntity
  8
0
  6
HIDDEN
 62
     7
370
     0
100
AcDbLine
 10
146.2356377219
 20
112.2763813651
 30
0.0
 11
145.7356377219
 21
111.7763813651
 31
0.0
  0
LINE
  5
1D3
330
1F
100
AcDbEntity
  8
0
  6
HIDDEN
 62
     7
370
     0
100
AcDbLine
 10
145.7356377219
 20
100.7763813651
 30
0.0
 11
146.2356377219
 21
100.2763813651
 31
0.0
  0
LINE
  5
1D4
330
1F
100
AcDbEntity
  8
0
  6
HIDDEN
 62
     7
370
     0
100
AcDbLine
 10
161.7356377219
 20
100.7763813651
 30
0.0
 11
163.7356377219
 21
100.7763813651
 31
0.0
  0
LINE
  5
1D5
330
1F
100
AcDbEntity
  8
0
  6
HIDDEN
 62
     7
370
     0
100
AcDbLine
 10
163.7356377219
 20
111.7763813651
 30
0.0
 11
161.7356377219
 21
111.7763813651
 31
0.0
  0
LINE
  5
1D6
330
1F
100
AcDbEntity
  8
0
  6
HIDDEN
 62
     7
370
     0
100
AcDbLine
 10
152.7356377218
 20
103.2763813651
 30
0.0
 11
152.8708235759
 21
103.2763813651
 31
0.0
  0
LINE
  5
1D7
330
1F
100
AcDbEntity
  8
0
  6
HIDDEN
 62
     7
370
     0
100
AcDbLine
 10
154.3949339252
 20
103.2763813651
 30
0.0
 11
158.7356377219
 21
103.2763813651
 31
0.0
  0
LINE
  5
1D8
330
1F
100
AcDbEntity
  8
0
  6
HIDDEN
 62
     7
370
     0
100
AcDbLine
 10
158.7356377219
 20
109.2763813651
 30
0.0
 11
154.2397708353
 21
109.2763813651
 31
0.0
  0
LINE
  5
1D9
330
1F
100
AcDbEntity
  8
0
  6
HIDDEN
 62
     7
370
     0
100
AcDbLine
 10
153.0832805719
 20
109.2763813651
 30
0.0
 11
152.7356377218
 21
109.2763813651
 31
0.0
  0
DIMENSION
  5
1DA
330
1F
100
AcDbEntity
  8
VERMASSUNG
100
AcDbDimension
  2
*D1
 10
79.1112676056
 20
74.7763813651
 30
0.0
 11
79.1112676056
 21
106.2763813651
 31
0.0
 70
   160
  1
HSK A %%c<>
 71
     2
 42
-1.0
  3
SLDDIMSTYLE0
100
AcDbAlignedDimension
 13
117.0356377219
 23
137.7763813651
 33
0.0
 14
117.0356377219
 24
74.7763813651
 34
0.0
 50
90.0
100
AcDbRotatedDimension
  0
DIMENSION
  5
1E7
330
1F
100
AcDbEntity
  8
VERMASSUNG
100
AcDbDimension
  2
*D2
 10
211.7356377219
 20
136.6774647887
 30
0.0
 11
186.9856377219
 21
136.6774647887
 31
0.0
 70
   160
 71
     2
 42
-1.0
  3
SLDDIMSTYLE1
100
AcDbAlignedDimension
 13
162.2356377219
 23
115.1763813651
 33
0.0
 14
211.7356377219
 24
120.9276003818
 34
0.0
100
AcDbRotatedDimension
  0
DIMENSION
  5
1F2
330
1F
100
AcDbEntity
  8
VERMASSUNG
100
AcDbDimension
  2
*D3
 10
218.5849404117
 20
115.2763813651
 30
0.0
 11
218.5849404117
 21
106.2763813651
 31
0.0
 70
   160
  1
%%c<> 
 71
     2
 42
-1.0
  3
SLDDIMSTYLE2
100
AcDbAlignedDimension
 13
208.2356377219
 23
97.2763813651
 33
0.0
 14
208.2356377219
 24
115.2763813651
 34
0.0
 50
90.0
100
AcDbRotatedDimension
  0
DIMENSION
  5
1FF
330
1F
100
AcDbEntity
  8
VERMASSUNG
100
AcDbDimension
  2
*D4
 10
224.5849404117
 20
122.7763813651
 30
0.0
 11
224.5849404117
 21
106.2763813651
 31
0.0
 70
   160
  1
%%c<> 
 71
     2
 42
-1.0
  3
SLDDIMSTYLE3
100
AcDbAlignedDimension
 13
211.7356377219
 23
89.7763813651
 33
0.0
 14
211.7356377219
 24
122.7763813651
 34
0.0
 50
90.0
100
AcDbRotatedDimension
  0
DIMENSION
  5
20C
330
1F
100
AcDbEntity
  8
VERMASSUNG
100
AcDbDimension
  2
*D5
 10
211.7356377219
 20
148.6774647887
 30
0.0
 11
164.2356377219
 21
148.6774647887
 31
0.0
 70
   160
 71
     2
 42
-1.0
  3
SLDDIMSTYLE0
100
AcDbAlignedDimension
 13
116.7356377219
 23
137.4763813651
 33
0.0
 14
211.7356377219
 24
120.9276003818
 34
0.0
100
AcDbRotatedDimension
  0
DIMENSION
  5
216
330
1F
100
AcDbEntity
  8
VERMASSUNG
100
AcDbDimension
  2
*D6
 10
211.7356377219
 20
142.6774647887
 30
0.0
 11
177.2106377219
 21
142.6774647887
 31
0.0
 70
   160
 71
     2
 42
-1.0
  3
SLDDIMSTYLE0
100
AcDbAlignedDimension
 13
142.6856377219
 23
136.1228216889
 33
0.0
 14
211.7356377219
 24
120.9276003818
 34
0.0
100
AcDbRotatedDimension
  0
DIMENSION
  5
220
330
1F
100
AcDbEntity
  8
VERMASSUNG
100
AcDbDimension
  2
*D7
 10
211.7356377219
 20
154.6774647887
 30
0.0
 11
148.2856377219
 21
154.6774647887
 31
0.0
 70
   160
 71
     2
 42
-1.0
  3
SLDDIMSTYLE0
100
AcDbAlignedDimension
 13
84.8356377219
 23
125.9670591116
 33
0.0
 14
211.7356377219
 24
120.9276003818
 34
0.0
100
AcDbRotatedDimension
  0
DIMENSION
  5
22A
330
1F
100
AcDbEntity
  8
VERMASSUNG
100
AcDbDimension
  2
*D8
 10
230.5849404117
 20
85.7763813651
 30
0.0
 11
230.5849404117
 21
106.2763813651
 31
0.0
 70
   160
  1
%%c<>
 71
     2
 42
-1.0
  3
SLDDIMSTYLE0
100
AcDbAlignedDimension
 13
160.9108187772
 23
126.7763813651
 33
0.0
 14
160.9108187772
 24
85.7763813651
 34
0.0
 50
90.0
100
AcDbRotatedDimension
  0
LINE
  5
235
330
1F
100
AcDbEntity
  8
VERMASSUNG
  6
CENTERX2
370
     0
100
AcDbLine
 10
81.1998916576
 20
106.2763813651
 30
0.0
 11
213.7356377219
 21
106.2763813651
 31
0.0
  0
OLE2FRAME
  5
236
330
1F
100
AcDbEntity
  8
0
100
AcDbOle2Frame
 70
     2
  3
Bitmap Image
 10
13.8511154363
 20
38.264191557
 30
0.0
 11
51.6290888628
 21
31.9806341108
 31
0.0
 71
     2
 72
     0
 73
     1
 90
    12928
310
80552BED0767C5B32B40DDAF6807D121434000000000000000006FFBDDFB85D0
310
4940DDAF6807D121434000000000000000006FFBDDFB85D04940416F4BD60AFB
310
3F4000000000000000002BED0767C5B32B40416F4BD60AFB3F40000000000000
310
0000000000000100000000010000010000000100000000000100000000320000
310
D0CF11E0A1B11AE1000000000000000000000000000000003E000300FEFF0900
310
0600000000000000000000000100000001000000000000000010000002000000
310
01000000FEFFFFFF0000000000000000FFFFFFFFFFFFFFFFFFFFFFFFFFFFFFFF
310
FFFFFFFFFFFFFFFFFFFFFFFFFFFFFFFFFFFFFFFFFFFFFFFFFFFFFFFFFFFFFFFF
310
FFFFFFFFFFFFFFFFFFFFFFFFFFFFFFFFFFFFFFFFFFFFFFFFFFFFFFFFFFFFFFFF
310
FFFFFFFFFFFFFFFFFFFFFFFFFFFFFFFFFFFFFFFFFFFFFFFFFFFFFFFFFFFFFFFF
310
FFFFFFFFFFFFFFFFFFFFFFFFFFFFFFFFFFFFFFFFFFFFFFFFFFFFFFFFFFFFFFFF
310
FFFFFFFFFFFFFFFFFFFFFFFFFFFFFFFFFFFFFFFFFFFFFFFFFFFFFFFFFFFFFFFF
310
FFFFFFFFFFFFFFFFFFFFFFFFFFFFFFFFFFFFFFFFFFFFFFFFFFFFFFFFFFFFFFFF
310
FFFFFFFFFFFFFFFFFFFFFFFFFFFFFFFFFFFFFFFFFFFFFFFFFFFFFFFFFFFFFFFF
310
FFFFFFFFFFFFFFFFFFFFFFFFFFFFFFFFFFFFFFFFFFFFFFFFFFFFFFFFFFFFFFFF
310
FFFFFFFFFFFFFFFFFFFFFFFFFFFFFFFFFFFFFFFFFFFFFFFFFFFFFFFFFFFFFFFF
310
FFFFFFFFFFFFFFFFFFFFFFFFFFFFFFFFFFFFFFFFFFFFFFFFFFFFFFFFFFFFFFFF
310
FFFFFFFFFFFFFFFFFFFFFFFFFFFFFFFFFFFFFFFFFFFFFFFFFFFFFFFFFFFFFFFF
310
FFFFFFFFFFFFFFFFFFFFFFFFFFFFFFFFFFFFFFFFFFFFFFFFFFFFFFFFFFFFFFFF
310
FFFFFFFFFFFFFFFFFFFFFFFFFFFFFFFFFFFFFFFFFFFFFFFFFFFFFFFFFFFFFFFF
310
FDFFFFFFFEFFFFFFFEFFFFFFFEFFFFFF05000000060000000700000008000000
310
090000000A0000000B0000000C0000000D0000000E0000000F00000010000000
310
11000000120000001300000014000000150000001600000017000000FEFFFFFF
310
FFFFFFFFFFFFFFFFFFFFFFFFFFFFFFFFFFFFFFFFFFFFFFFFFFFFFFFFFFFFFFFF
310
FFFFFFFFFFFFFFFFFFFFFFFFFFFFFFFFFFFFFFFFFFFFFFFFFFFFFFFFFFFFFFFF
310
FFFFFFFFFFFFFFFFFFFFFFFFFFFFFFFFFFFFFFFFFFFFFFFFFFFFFFFFFFFFFFFF
310
FFFFFFFFFFFFFFFFFFFFFFFFFFFFFFFFFFFFFFFFFFFFFFFFFFFFFFFFFFFFFFFF
310
FFFFFFFFFFFFFFFFFFFFFFFFFFFFFFFFFFFFFFFFFFFFFFFFFFFFFFFFFFFFFFFF
310
FFFFFFFFFFFFFFFFFFFFFFFFFFFFFFFFFFFFFFFFFFFFFFFFFFFFFFFFFFFFFFFF
310
FFFFFFFFFFFFFFFFFFFFFFFFFFFFFFFFFFFFFFFFFFFFFFFFFFFFFFFFFFFFFFFF
310
FFFFFFFFFFFFFFFFFFFFFFFFFFFFFFFFFFFFFFFFFFFFFFFFFFFFFFFFFFFFFFFF
310
FFFFFFFFFFFFFFFFFFFFFFFFFFFFFFFFFFFFFFFFFFFFFFFFFFFFFFFFFFFFFFFF
310
FFFFFFFFFFFFFFFFFFFFFFFFFFFFFFFFFFFFFFFFFFFFFFFFFFFFFFFFFFFFFFFF
310
FFFFFFFFFFFFFFFFFFFFFFFFFFFFFFFFFFFFFFFFFFFFFFFFFFFFFFFFFFFFFFFF
310
FFFFFFFFFFFFFFFFFFFFFFFFFFFFFFFFFFFFFFFFFFFFFFFFFFFFFFFFFFFFFFFF
310
FFFFFFFFFFFFFFFFFFFFFFFFFFFFFFFFFFFFFFFFFFFFFFFFFFFFFFFFFFFFFFFF
310
52006F006F007400200045006E00740072007900000000000000000000000000
310
0000000000000000000000000000000000000000000000000000000000000000
310
16000500FFFFFFFFFFFFFFFF020000000A00030000000000C000000000000046
310
000000000000000000000000803BD4346D05CC0103000000C000000000000000
310
01004F006C006500000000000000000000000000000000000000000000000000
310
0000000000000000000000000000000000000000000000000000000000000000
310
0A000200FFFFFFFFFFFFFFFFFFFFFFFF00000000000000000000000000000000
310
0000000000000000000000000000000000000000000000001400000000000000
310
010043006F006D0070004F0062006A0000000000000000000000000000000000
310
0000000000000000000000000000000000000000000000000000000000000000
310
120002010100000003000000FFFFFFFF00000000000000000000000000000000
310
0000000000000000000000000000000000000000010000004D00000000000000
310
01004F006C006500310030004E00610074006900760065000000000000000000
310
0000000000000000000000000000000000000000000000000000000000000000
310
1A000200FFFFFFFFFFFFFFFFFFFFFFFF00000000000000000000000000000000
310
0000000000000000000000000000000000000000040000002426000000000000
310
FEFFFFFF02000000FEFFFFFFFFFFFFFFFFFFFFFFFFFFFFFFFFFFFFFFFFFFFFFF
310
FFFFFFFFFFFFFFFFFFFFFFFFFFFFFFFFFFFFFFFFFFFFFFFFFFFFFFFFFFFFFFFF
310
FFFFFFFFFFFFFFFFFFFFFFFFFFFFFFFFFFFFFFFFFFFFFFFFFFFFFFFFFFFFFFFF
310
FFFFFFFFFFFFFFFFFFFFFFFFFFFFFFFFFFFFFFFFFFFFFFFFFFFFFFFFFFFFFFFF
310
FFFFFFFFFFFFFFFFFFFFFFFFFFFFFFFFFFFFFFFFFFFFFFFFFFFFFFFFFFFFFFFF
310
FFFFFFFFFFFFFFFFFFFFFFFFFFFFFFFFFFFFFFFFFFFFFFFFFFFFFFFFFFFFFFFF
310
FFFFFFFFFFFFFFFFFFFFFFFFFFFFFFFFFFFFFFFFFFFFFFFFFFFFFFFFFFFFFFFF
310
FFFFFFFFFFFFFFFFFFFFFFFFFFFFFFFFFFFFFFFFFFFFFFFFFFFFFFFFFFFFFFFF
310
FFFFFFFFFFFFFFFFFFFFFFFFFFFFFFFFFFFFFFFFFFFFFFFFFFFFFFFFFFFFFFFF
310
FFFFFFFFFFFFFFFFFFFFFFFFFFFFFFFFFFFFFFFFFFFFFFFFFFFFFFFFFFFFFFFF
310
FFFFFFFFFFFFFFFFFFFFFFFFFFFFFFFFFFFFFFFFFFFFFFFFFFFFFFFFFFFFFFFF
310
FFFFFFFFFFFFFFFFFFFFFFFFFFFFFFFFFFFFFFFFFFFFFFFFFFFFFFFFFFFFFFFF
310
FFFFFFFFFFFFFFFFFFFFFFFFFFFFFFFFFFFFFFFFFFFFFFFFFFFFFFFFFFFFFFFF
310
FFFFFFFFFFFFFFFFFFFFFFFFFFFFFFFFFFFFFFFFFFFFFFFFFFFFFFFFFFFFFFFF
310
FFFFFFFFFFFFFFFFFFFFFFFFFFFFFFFFFFFFFFFFFFFFFFFFFFFFFFFFFFFFFFFF
310
FFFFFFFFFFFFFFFFFFFFFFFFFFFFFFFFFFFFFFFFFFFFFFFFFFFFFFFFFFFFFFFF
310
0100000200000000000000000000000000000000500260012003E003B0024004
310
B002F00180030003B002800350023001B0028003800380033001500250024004
310
0100FEFF030A0000FFFFFFFF0A00030000000000C00000000000004607000000
310
5042727573680007000000504272757368000700000050427275736800F439B2
310
7100000000000000000000000003200320032003200320032003B002E0032003
310
200320032003800320032003B002B002B002B002B002B00280035002B002B002
310
B002B002F001F001500250028003B002B002B002B002B002B002B0028003B002
310
B002B002B002B002B002B0020000000038000000410000001200900000000004
310
E803250000000000E80325000000000000000000000000000000C70600000000
310
0000000000000000000000000000000000000000000000003800000041000000
310
4813DD00000000009C13EB000000000000000000000000000000000000000000
310
0000C70600000000000000000000000000000000000000000000000000000000
310
38000000410000004813DD0000000000C013E900000000000000000000000000
310
00000000000000000000C7060000000000000000000000000000000000000000
310
000000000000000038000000410000004813DD0000000000D413FF0000000000
310
0000000000000000000000000000000000000000000000000000000000000000
310
20260000424D0E260000000000003E00000028000000B40200006E0000000100
310
01000000000000000000130B0000130B00000200000002000000000000FFFFFF
310
FFFFFFFFFFFFFFFFFFFFFFFFFFFFFFFFFFFFFFFFFFFFFFFFFFFFFFFFFFFFFFFF
310
FFFFFFFFFFFFFFFFFFFFFFFFFFFFFFFFFFFFFFFFFFFFFFFFFFFFFFFFFFFFFFFF
310
FFFFFFFFFFFFFFFFFFFFFFFFFFFFFFFFFFFFFFFFFFFFFFFFF000FFFFFFFFFFFF
310
FFFFFFFFFFFFFFFFFFFFFFFFFFFFFFFFFFFFFFFFFFFFFFFFFFFFFFFFFFFFFFFF
310
FFFFFFFFFFFFFFFFFFFFFFFFFFFFFFFFFFFFFFFFFFFFFFFFFFFFFFFFFFFFFFFF
310
FFFFFFFFFFFFFFFFFFFFFFFFFFFFFFFFF000FFFFFFFFFFFFFFFFFFFFFFFFFFFF
310
FFFFFFFFFFFFFFFFFFFFFFFFFFFFFFFFFFFFFFFFFFFFFFFFFFFFFFFFFFFFFFFF
310
FFFFFFFFFFFFFFFFFFFFFFFFFFFFFFFFFFFFFFFFFFFFFFFFFFFFFFFFFFFFFFFF
310
FFFFFFFFFFFFFFFFF000FFFFFFFFFFFFFFFFFFFFFFFFFFFFFFFFFFFFFFFFFFFF
310
FFFFFFFFFFFFFFFFFFFFFFFFFFFFFFFFFFFFFFFFFFFFFFFFFFFFFFFFFFFFFFFF
310
FFFFFFFFFFFFFFFFFFFFFFFFFFFFFFFFFFFFFFFFFFFFFFFFFFFFFFFFFFFFFFFF
310
F000FFFFFFFFFFFFFFFFFFFFFFFFFFFFFFFFFFFFFFFFFFFFFFFFFFFFFFFFFFFF
310
FFFFFFFFFFFFFFFFFFFFFFFFFFFFFFFFFFFFFFFFFFFFFFFFFFFFFFFFFFFFFFFF
310
FFFFFFFFFFFFFFFFFFFFFFFFFFFFFFFFFFFFFFFFFFFFFFFFF000FFFFFFFFFFFF
310
FFFFFFFFFFFFFFFFFFFFFFFFFFFFFFFFFFFFFFFFFFFFFFFFFFFFFFFFFFFFFFFF
310
FFFFFFFFFFFFFFFFFFFFFFFFFFFFFFFFFFFFFFFFFFFFFFFFFFFFFFFFFFFFFFFF
310
FFFFFFFFFFFFFFFFFFFFFFFFFFFFFFFFF000FFFFFFFFFFFFFFFFFFFFFFFFFFFF
310
FFFFFFFFFFFFFFFFFFFFFFFFFFFFFFFFFFFFFFFFFFFFFFFFFFFFFFFFFFFFFFFF
310
FFFFFFFFFFFFFFFFFFFFFFFFFFFFFFFFFFFFFFFFFFFFFFFFFFFFFFFFFFFFFFFF
310
FFFFFFFFFFFFFFFFF000FFFFFFFFFFFFFFFFFFFFFFFFFFFFFFFFFFFFFFFFFFFF
310
FFFFFFFFFFFFFFFFFFFFFFFFFFFFFFFFFFFFFFFFFFFFFFFFFFFFFFFFFFFFFFFF
310
FFFFFFFFFFFFFFFFFFFFFFFFFFFFFFFFFFFFFFFFFFFFFFFFFFFFFFFFFFFFFFFF
310
F000FFFFFFFFFFFFFFFFFFFFFFFFFFFFFFFFFFFFFFFFFFFFFFFFFFFFFFFFFFFF
310
FFFFFFFFFFFFFFFFFFFFFFFFFFFFFFFFFFFFFFFFFFFFFFFFFFFFFFFFFFFFFFFF
310
FFFFFFFFFFFFFFFFFFFFFFFFFFFFFFFFFFFFFFFFFFFFFFFFF000FFFFFFFFFFFF
310
FFFFFFFFFFFFFFFFFFFFFFFFFFFFFFFFFFFFFFFFFFFFFFFFFFFFFFFFFFFFFFFF
310
FFFFFFFFFFFFFFFFFFFFFFFFFFFFFFFFFFFFFFFFFFFFFFFFFFFFFFFFFFFFFFFF
310
FFFFFFFFFFFFFFFFFFFFFFFFFFFFFFFFF000FFFFFFFFFFFFFFFFFFFFFFFFFFFF
310
FFFFFFFFFFFFFFFFFFFFFFFFFFFFFFFFFFFFFFFFFFFFFFFFFFFFFFFFFFFFFFFF
310
FFFFFFFFFFFFFFFFFFFFFFFFFFFFFFFFFFFFFFFFFFFFFFFFFFFFFFFFFFFFFFFF
310
FFFFFFFFFFFFFFFFF000FFFFFFFFFFFFFFFFFFFFFFFFFFFFFFFFFFFFFFFFFFFF
310
FFFFFFFFFFFFFFFFFFFFFFFFFFFFFFFFFFFFFFFFFFFFFFFFFFFFFFFFFFFFFFFF
310
FFFFFFFFFFFFFFFFFFFFFFFFFFFFFFFFFFFFFFFFFFFFFFFFFFFFFFFFFFFFFFFF
310
F000FFFFFFFFFFFFFFFFFFFFFFFFFFFFFFFFFFFFFFFFFFFFFFFFFFFFFFFFFFFF
310
FFFFFFFFFFFFFFFFFFFFFFFFFFFFFFFFFFFFFFFFFFFFFFFFFFFFFFFFFFFFFFFF
310
FFFFFFFFFFFFFFFFFFFFFFFFFFFFFFFFFFFFFFFFFFFFFFFFF000FFFFFFFFFFFF
310
FFFFFFFFFFFFFFFFFFFFFFFFFFFFFFFFFFFFFFFFFFFFFFFFFFFFFFFFFFFFFFFF
310
FFFFFFFFFFFFFFFFFFFFFFFFFFFFFFFFFFFFFFFFFFFFFFFFFFFFFFFFFFFFFFFF
310
FFFFFFFFFFFFFFFFFFFFFFFFFFFFFFFFF000FFFFFFFFFFFFFFFFFFFFFFFFFFFF
310
FFFFFFFFFFFFFFFFFFFFFFFFFFFFFFFFFFFFFFFFFFFFFFFFFFFFFFFFFFFFFFFF
310
FFFFFFFFFFFFFFFFFFFFFFFFFFFFFFFFFFFFFFFFFFFFFFFFFFFFFFFFFFFFFFFF
310
FFFFFFFFFFFFFFFFF000FFFFFFFFFFFFFFFFFFFFFFFFFFFFFFFFFFFFFFFFFFFF
310
FFFFFFFFFFFFFFFFFFFFFFFFFFFFFFFFFFFFFFFFFFFFFFFFFFFFFFFFFFFFFFFF
310
FFFFFFFFFFFFFFFFFFFFFFFFFFFFFFFFFFFFFFFFFFFFFFFFFFFFFFFFFFFFFFFF
310
F000FFFFFFFFFFFFFFFFFFFFFFFFFFFFFFFFFFFFFFFFFFFFFFFFFFFFFFFFFFFF
310
FFFFFFFFFFFFFFFFFFFFFFFFFFFFFFFFFFFFFFFFFFFFFFFFFFFFFFFFFFFFFFFF
310
FFFFFFFFFFFFFFFFFFFFFFFFFFFFFFFFFFFFFFFFFFFFFFFFF000FFFFFFFFFFFF
310
FFFFFFFFFFFFFFFFFFFFFFFFFFFFFFFFFFFFFFFFFFFFFFFFFFFFFFFFFFFFFFFF
310
FFFFFFFFFFFFFFFFFFFFFFFFFFFFFFFFFFFFFFFFFFFFFFFFFFFFFFFFFFFFFFFF
310
FFFFFFFFFFFFFFFFFFFFFFFFFFFFFFFFF000FFFFFFFFFFFFFFFFFFFFFFFFFFFF
310
FFFFFFFFFFFFFFFFFFFFFFFFFFFFFFFFFFFFFFFFFFFFFFFFFFFFFFFFFFFFFFFF
310
FFFFFFFFFFFFFFFFFFFFFFFFFFFFFFFFFFFFFFFFFFFFFFFFFFFFFFFFFFFFFFFF
310
FFFFFFFFFFFFFFFFF000FFFFF80003FFFFFFFFFFFFFFFFFFFFFFFFFFFFFFFFFF
310
FFFFF00007FFFFFFFFFF00007FFFFFF800000000000000007FFFFFFFFFFFFFFF
310
FFFFFFFC001FFFFFFFFFFFFFFC001FFFFFFFFFFFFFFFFFFFFFFFFFFE0007FFFF
310
F000FFFF8000007FFFFFFFF8000FFFFFC0007FFFFF80007FFFFF0000007FFFFF
310
FFF8000007FFFFF800000000000000007FFFFFF0001FFFFFFFFFFFC00001FFFF
310
FFFFFFFFC00001FFFFFFFF000000000003FFFFE000007FFFF000FFFE0000000F
310
FFFFFFF0000FFFFF80007FFFFF80007FFFFC0000001FFFFFFFC0000001FFFFF8
310
00000000000000007FFFFFF0001FFFFFFFFFFE0000003FFFFFFFFFFE0000003F
310
FFFFFF000000000003FFFF0000000FFFF000FFF800000003FFFFFFF00007FFFF
310
80007FFFFF80007FFFF000000007FFFFFF000000003FFFF80000000000000000
310
7FFFFFF0001FFFFFFFFFF80000000FFFFFFFFFF80000000FFFFFFF0000000000
310
03FFFC00000003FFF000FFE000000000FFFFFFF00007FFFF80003FFFFF80007F
310
FFC000000001FFFFFC000000001FFFF800000000000000007FFFFFF0001FFFFF
310
FFFFE000000003FFFFFFFFE000000003FFFFFF000000000003FFF000000000FF
310
F000FF80000000007FFFFFF00007FFFF80003FFFFF80007FFF8000000000FFFF
310
F80000000007FFF800000000000000007FFFFFF0001FFFFFFFFFC000000001FF
310
FFFFFFC000000001FFFFFF000000000003FFC0000000007FF000FF0000000000
310
3FFFFFE00007FFFF00003FFFFF80007FFE00000000003FFFF00000000003FFF8
310
00000000000000007FFFFFF0001FFFFFFFFF8000000000FFFFFFFF8000000000
310
FFFFFF000000000003FF80000000003FF000FE00000000001FFFFFE00003FFFF
310
00003FFFFF80007FFC00000000001FFFE00000000001FFF8000001FFFE000000
310
7FFFFFF0001FFFFFFFFE00000000003FFFFFFE00000000003FFFFF0000000000
310
03FF00000000001FF000FC00000000000FFFFFE00003FFFF00001FFFFF80007F
310
F800000000001FFFC00000000000FFF8000001FFFE0000007FFFFFF0001FFFFF
310
FFFC00000000001FFFFFFC00000000001FFFFF000000000003FE00000000000F
310
F000F8000000000007FFFFE00003FFFF00001FFFFF80007FF800000000000FFF
310
800000000000FFF8000001FFFE0000007FFFFFF0001FFFFFFFF800000000000F
310
FFFFF800000000000FFFFF000000000003FC000000000007F000F80000000000
310
03FFFFC00003FFFE00001FFFFF80007FF0000000000007FF0000000000007FF8
310
000001FFFE0000007FFFFFF0001FFFFFFFF0000000000007FFFFF00000000000
310
07FFFF000000000003F8000000000003F000F0000000000003FFFFC00001FFFE
310
00001FFFFF80007FE0000000000007FE0000000000003FF8000001FFFE000000
310
7FFFFFF0001FFFFFFFF0000000000007FFFFF0000000000007FFFF0000000000
310
03F800001F800003F000E00001FFF00001FFFFC00001FFFE00000FFFFF80007F
310
E00001FFE00003FE00001FFF00003FF8000001FFFE0000007FFFFFF0001FFFFF
310
FFE000003E000003FFFFE000003E000003FFFF000000000003F00001FFF80001
310
F000E00007FFFC0001FFFFC00001FFFE00000FFFFF80007FC0000FFFFC0003FC
310
0000FFFFC0001FF8000001FFFE0000007FFFFFF0001FFFFFFFC00003FFE00001
310
FFFFC00003FFE00001FFFF0001FFFFFFFFF00007FFFE0001F000E0000FFFFF00
310
00FFFF800001FFFC00000FFFFF80007FC0001FFFFE0001FC0001FFFFE0001FF8
310
000001FFFE0000007FFFFFF0001FFFFFFF80000FFFF80000FFFF80000FFFF800
310
00FFFF0003FFFFFFFFE0000FFFFF8000F000C0003FFFFF8000FFFF800000FFFC
310
000007FFFF80007F80003FFFFF0001FC0003FFFFF0001FF8000001FFFE000000
310
7FFFFFF0001FFFFFFF80003FFFFE0000FFFF80003FFFFE0000FFFF0003FFFFFF
310
FFE0003FFFFF8000F000C0003FFFFF8000FFFF800000FFFC000007FFFF80007F
310
80007FFFFF8001F80007FFFFF8000FF8000001FFFE0000007FFFFFF0001FFFFF
310
FF00007FFFFF00007FFF00007FFFFF00007FFF0003FFFFFFFFE0003FFFFFC000
310
F000C0007FFFFFC000FFFF000000FFFC000007FFFF80007F8000FFFFFF8000F8
310
000FFFFFF8000FF8000001FFFE0000007FFFFFF0001FFFFFFF0000FFFFFF8000
310
7FFF0000FFFFFF80007FFF0003FFFFFFFFC0007FFFFFC00070008000FFFFFFC0
310
00FFFF000000FFF8000007FFFF80007F8000FFFFFF8000F8000FFFFFF8000FF8
310
000001FFFE0000007FFFFFF0001FFFFFFE0001FFFFFFC0003FFE0001FFFFFFC0
310
003FFF0003FFFFFFFFC0007FFFFFE00070008000FFFFFFC0007FFF0000007FF8
310
000003FFFF80007F0001FFFFFF8000F8000FFFFFF8000FF8000001FFFE000000
310
7FFFFFF0001FFFFFFE0001FFFFFFC0003FFE0001FFFFFFC0003FFF0003FFFFFF
310
FFC000FFFFFFE00070008000FFFFFFC0007FFF0000007FF8000003FFFF80007F
310
0001FFFFFF8000F8001FFFFFF8000FF8000001FFFE0000007FFFFFF0001FFFFF
310
FE0003FFFFFFE0003FFE0003FFFFFFE0003FFF0003FFFFFFFFC000FFFFFFE000
310
70008000FFFFFFC0007FFE0000007FF8000003FFFF80007F0001FFFFFF8000F0
310
001FFFFFF8000FF8000001FFFE0000007FFFFFF0001FFFFFFC0003FFFFFFE000
310
1FFC0003FFFFFFE0001FFF0003FFFFFFFFC000FFFFFFC00070008000FFFFFF80
310
007FFE0000007FF0000003FFFF80007F0001FFFFFF0000F0001FFFFFF8000FF8
310
000001FFFE0000007FFFFFF0001FFFFFFC0007FFFFFFF0001FFC0007FFFFFFF0
310
001FFF0003FFFFFFFFC000FFFFFFC00070008001FFFFFF0000FFFE0000003FF0
310
000001FFFF80007F0001FFFFFF0000F8001FFFFFF0000FF8000001FFFE000000
310
7FFFFFF0001FFFFFFC0007FFFFFFF0001FFC0007FFFFFFF0001FFF0003FFFFFF
310
FFC001FFFFFF80007000FFFFFFFFFE0000FFFE0008003FF0008001FFFF80007F
310
FFFFFFFFFC0000FFFFFFFFFFE0000FF8000001FFFE0000007FFFFFF0001FFFFF
310
F8000FFFFFFFF8000FF8000FFFFFFFF8000FFF0003FFFFFFFFFFFFFFFFFF0000
310
7000FFFFFFFFFC0000FFFC0008003FF0008001FFFF80007FFFFFFFFFF80001FF
310
FFFFFFFF80000FF8000001FFFE0000007FFFFFF0001FFFFFF8000FFFFFFFF800
310
0FF8000FFFFFFFF8000FFF0003FFFFFFFFFFFFFFFFFE0000F000FFFFFFFFE000
310
00FFFC000C003FE000C001FFFF80007FFFFFFFFFC00001FFFFFFFFFE00001FF8
310
000001FFFE0000007FFFFFF0001FFFFFF8000FFFFFFFF8000FF8000FFFFFFFF8
310
000FFF0003FFFFFFFFFFFFFFFFF00000F000FFFFFFFE000001FFFC000C001FE0
310
00C000FFFF80007FFFFFFFFE000001FFFFFFFFE000001FF80FFFFFFFFFFFFFC0
310
7FFFFFF0001FFFFFF8000FFFFFFFF8000FF8000FFFFFFFF8000FFF0003FFFFFF
310
FFFFFFFFFF800000F000FFFFFFC0000001FFFC001C001FE001C000FFFF80007F
310
FFFFFF80000003FFFFFFF80000001FF80FFFFFFFFFFFFFC07FFFFFF0001FFFFF
310
F8001FFFFFFFFC000FF8001FFFFFFFFC000FFF0003FFFFFFFFFFFFFFF0000001
310
F000FFFFF800000001FFF8001C001FE001C000FFFF80007FFFFFF800000003FF
310
FFFF800000003FF80FFFFFFFFFFFFFC07FFFFFF0001FFFFFF8001FFFFFFFFC00
310
0FF8001FFFFFFFFC000FFF0003FFFFFFFFFFFFFE00000001F000FFFFC0000000
310
03FFF8001E001FC001E000FFFF80007FFFFF8000000007FFFFFC000000003FF8
310
0FFFFFFFFFFFFFC07FFFFFF0001FFFFFF8001FFFFFFFFC000FF8001FFFFFFFFC
310
000FFF0003FFFFFFFFFFFFE000000003F000FFFE0000000007FFF8001E000FC0
310
01E0007FFF80007FFFFE0000000007FFFFE0000000007FF80FFFFFFFFFFFFFC0
310
7FFFFFF0001FFFFFF0001FFFFFFFFC0007F0001FFFFFFFFC0007FF0003FFFFFF
310
FFFFFF0000000003F000FFF80000000007FFF8001E000FC003E0007FFF80007F
310
FFF0000000000FFFFF8000000000FFF80FFFFFFFFFFFFFC07FFFFFF0001FFFFF
310
F0001FFFFFFFFC0007F0001FFFFFFFFC0007FF0003FFFFFFFFFFFC0000000007
310
F000FFE0000000000FFFF0003E000FC003E0007FFF80007FFFC0000000001FFF
310
FE0000000001FFF80FFFFFFFFFFFFFC07FFFFFF0001FFFFFF0001FFFFFFFFC00
310
07F0001FFFFFFFFC0007FF0003FFFFFFFFFFF0000000000FF000FFC000000000
310
1FFFF0003F000F8003F0003FFF80007FFF80000000003FFFF80000000003FFF8
310
0FFFFFFFFFFFFFC07FFFFFF0001FFFFFF0001FFFFFFFFC0007F0001FFFFFFFFC
310
0007FF0003FFFFFFFFFFE0000000001FF000FF00000000007FFFF0003F000780
310
03F0003FFF80007FFF00000000007FFFF00000000007FFF80FFFFFFFFFFFFFC0
310
7FFFFFF0001FFFFFF0001FFFFFFFFC0007F0001FFFFFFFFC0007FF0003FFFFFF
310
FFFF80000000007FF000FE0000000000FFFFE0003F00078007F0003FFF80007F
310
FE0000000001FFFFE0000000001FFFF80FFFFFFFFFFFFFC07FFFFFF0001FFFFF
310
F0001FFFFFFFFC0007F0001FFFFFFFFC0007FF0003FFFFFFFFFF0000000000FF
310
F000FC0000000003FFFFE0007F00078007F0003FFF80007FFC0000000007FFFF
310
C0000000007FFFF80FFFFFFFFFFFFFC07FFFFFF0001FFFFFF8001FFFFFFFFC00
310
0FF8001FFFFFFFFC000FFF0003FFFFFFFFFE0000000003FFF000FC000000000F
310
FFFFE0007F80070007F8001FFF80007FF8000000001FFFFF8000000001FFFFF8
310
0FFFFFFFFFFFFFC07FFFFFF0001FFFFFF8001FFFFFFFFC000FF8001FFFFFFFFC
310
000FFF0003FFFFFFFFFC000000000FFFF000F8000000007FFFFFE0007F800700
310
07F8001FFF80007FF000000000FFFFFF800000000FFFFFF80FFFFFFFFFFFFFC0
310
7FFFFFF0001FFFFFF8000FFFFFFFF8000FF8000FFFFFFFF8000FFF0003FFFFFF
310
FFFC000000007FFFF000F800000007FFFFFFC0007F8003000FF8001FFF80007F
310
F000000007FFFFFF000000007FFFFFF80FFFFFFFFFFFFFC07FFFFFF0001FFFFF
310
F8000FFFFFFFF8000FF8000FFFFFFFF8000FFF0003FFFFFFFFF80000000FFFFF
310
F000F0000000FFFFFFFFC000FF8003000FF8001FFF80007FE0000000FFFFFFFF
310
0000000FFFFFFFF8000001FFFE0000007FFFFFF0001FFFFFF8000FFFFFFFF800
310
0FF8000FFFFFFFF8000FFF0003FFFFFFFFF8000000FFFFFFF000F000000FFFFF
310
FFFFC000FFC002000FF8000FFF80007FE000001FFFFFFFFE000001FFFFFFFFF8
310
000001FFFE0000007FFFFFF0001FFFFFF8000FFFFFFFF8000FF8000FFFFFFFF8
310
000FFF0003FFFFFFFFF000001FFFFFFFF000E00000FFFFFFFFFFC000FFC00200
310
0FFC000FFF80007FE00001FFFFFFFFFE00001FFFFFFFFFF8000001FFFE000000
310
7FFFFFF0001FFFFFFC000FFFFFFFF8001FFC000FFFFFFFF8001FFF0003FFFFFF
310
FFF00001FFFFFFFFF000E00007FFFFFFFFFF8000FFC000001FFC000FFF80007F
310
C0000FFFFFFFFFFE0000FFFFFFFFFFF8000001FFFE0000007FFFFFF0001FFFFF
310
FC0007FFFFFFF0001FFC0007FFFFFFF0001FFF0003FFFFFFFFF00007FFFFFFFF
310
F000E0001FFFFFFFFFFF8000FFC000001FFC000FFF80007FC0003FFFFFFFFFFE
310
0001FFFFFFFFFFF8000001FFFE0000007FFFFFF0001FFFFFFC0007FFFFFFF000
310
1FFC0007FFFFFFF0001FFF0003FFFFFFFFF0001FFFFFFFFFF000E0003FFFFF00
310
03FF8001FFE000001FFC0007FF80007FC0007FFFFF0007FC0003FFFFF0003FF8
310
000001FFFE0000007FFFFFF0001FFFFFFC0003FFFFFFE0001FFC0003FFFFFFE0
310
001FFF0003FFFFFFFFF0003FFFFFFFFFF000E0003FFFFF0001FF8001FFE00000
310
1FFE0007FF80007FC0007FFFFE0003FC0007FFFFE0003FF8000001FFFE000000
310
7FFFFFF0001FFFFFFE0003FFFFFFE0003FFE0003FFFFFFE0003FFF0003FFFFFF
310
FFF0003FFFFF8001F000E0003FFFFF0001FF0001FFE000001FFE0007FF80007F
310
C0007FFFFE0003FC0007FFFFE0003FF8000001FFFE0000007FFFFFF0001FFFFF
310
FE0001FFFFFFC0003FFE0001FFFFFFC0003FFF0003FFFFFFFFF0003FFFFF0001
310
F000E0003FFFFF0003FF0001FFE000003FFE0007FF80007FC0007FFFFE0003FC
310
0007FFFFE0003FF8000001FFFE0000007FFFFFF0001FFFFFFF0001FFFFFFC000
310
7FFF0001FFFFFFC0007FFF0003FFFFFFFFF0003FFFFF0001F000E0003FFFFE00
310
03FF0003FFF000003FFE0003FF80007FC0007FFFFC0003FE0007FFFFE0003FF8
310
000001FFFE0000007FFFFFF0001FFFFFFF0000FFFFFF80007FFF0000FFFFFF80
310
007FFF0003FFFFFFFFF0003FFFFF0001F000E0003FFFFE0003FF0003FFF00000
310
3FFF0003FF80007FC0007FFFFC0007FE0007FFFFC0003FF8000001FFFE000000
310
7FFFFFF0001FFFFFFF80007FFFFF0000FFFF80007FFFFF0000FFFF0003FFFFFF
310
FFF0003FFFFF0003F000E0003FFFFC0003FE0003FFF000003FFF0003FF80007F
310
E0003FFFF80007FE0003FFFFC0007FF8000001FFFE0000007FFFFFF0001FFFFF
310
FF80003FFFFE0000FFFF80003FFFFE0000FFFF0003FFFFFFFFF0001FFFFE0003
310
F000F0001FFFF80003FE0003FFF000007FFF0001FF80007FE0003FFFF00007FE
310
0001FFFF80007FF8000001FFFE0000007FFFFFF0001FFFFFFFC0000FFFF80001
310
FFFFC0000FFFF80001FFFF0003FFFFFFFFF0001FFFFC0003F000F0000FFFF000
310
07FE0007FFF800007FFF0001FF80007FE0001FFFE00007FF0000FFFE00007FF8
310
000001FFFE0000007FFFFFF0001FFFFFFFC00003FFE00001FFFFC00003FFE000
310
01FFFF0003FFFFFFFFF8000FFFF80003F000F00003FFC00007FC0007FFF80000
310
7FFF8001FF80007FF00007FF80000FFF00007FF80000FFF8000001FFFE000000
310
7F80000000000001FFE000003E000003FFFFE000003E000003FFFF0003FFFFFF
310
FFF80003FFE00007F000F800000000000FFC0007FFF800007FFF8001FF80007F
310
F000000000000FFF000000000000FFF8000001FFFE0000007F80000000000001
310
FFF0000000000007FFFFF0000000000007FFFF0003FFFFFFFFFC00007E000007
310
F000F800000000000FFC0007FFF80000FFFF8000FF80007FF800000000001FFF
310
800000000001FFF8000001FFFE0000007F80000000000001FFF800000000000F
310
FFFFF800000000000FFFFF0003FFFFFFFFFC00000000000FF000FC0000000000
310
1FFC0007FFFC0000FFFF8000FF80007FF800000000003FFFC00000000001FFF8
310
000001FFFE0000007F80000000000001FFF800000000000FFFFFF80000000000
310
0FFFFF0003FFFFFFFFFE00000000001FF000FE00000000003FF8000FFFFC0000
310
FFFF8000FF80007FFC00000000003FFFC00000000003FFF8000001FFFE000000
310
7F80000000000001FFFC00000000001FFFFFFC00000000001FFFFF0003FFFFFF
310
FFFF00000000001FF000FF00000000003FF8000FFFFC0000FFFFC000FF80007F
310
FE00000000007FFFE00000000007FFF8000001FFFE0000007F80000000000001
310
FFFE00000000003FFFFFFE00000000003FFFFF0003FFFFFFFFFF80000000003F
310
F000FF80000000007FF8000FFFFC0001FFFFC0007F80007FFF0000000000FFFF
310
F0000000000FFFF800000000000000007F80000000000001FFFF8000000000FF
310
FFFFFF8000000000FFFFFF0003FFFFFFFFFFC0000000007FF000FFC000000000
310
FFF8000FFFFE0001FFFFC0007F80007FFF8000000001FFFFF8000000001FFFF8
310
00000000000000007F80000000000001FFFFC000000001FFFFFFFFC000000001
310
FFFFFF0003FFFFFFFFFFE000000000FFF000FFE000000003FFF0001FFFFE0001
310
FFFFC0007F80007FFFC000000007FFFFFE000000003FFFF80000000000000000
310
7F80000000000001FFFFE000000003FFFFFFFFE000000003FFFFFF0003FFFFFF
310
FFFFF000000003FFF000FFF80000000FFFF0001FFFFE0001FFFFE0007F80007F
310
FFF00000000FFFFFFF00000000FFFFF800000000000000007F80000000000001
310
FFFFF80000000FFFFFFFFFF80000000FFFFFFF0003FFFFFFFFFFFC0000000FFF
310
F000FFFE0000003FFFF0001FFFFE0003FFFFE0003F80007FFFFC0000003FFFFF
310
FFC0000003FFFFF800000000000000007F80000000000001FFFFFE0000003FFF
310
FFFFFFFE0000003FFFFFFF0003FFFFFFFFFFFF0000003FFFF000FFFF800000FF
310
FFF0001FFFFF0003FFFFE0003F80007FFFFF000001FFFFFFFFF800001FFFFFF8
310
00000000000000007F80000000000001FFFFFFC00001FFFFFFFFFFFFC00001FF
310
FFFFFF0003FFFFFFFFFFFFC00000FFFFF000FFFFF8000FFFFFFFFFFFFFFFFFFF
310
FFFFFFFFFFFFFFFFFFFFF0001FFFFFFFFFFF0000FFFFFFF80000000000000000
310
7FFFFFFFFFFFFFFFFFFFFFFC001FFFFFFFFFFFFFFC001FFFFFFFFFFFFFFFFFFF
310
FFFFFFFC001FFFFFF000FFFFFFFFFFFFFFFFFFFFFFFFFFFFFFFFFFFFFFFFFFFF
310
FFFFFFFFFFFFFFFFFFFFFFFFFFFFFFFFFFFFFFFFFFFFFFFFFFFFFFFFFFFFFFFF
310
FFFFFFFFFFFFFFFFFFFFFFFFFFFFFFFFFFFFFFFFFFFFFFFFFFFFFFFFFFFFFFFF
310
F000FFFFFFFFFFFFFFFFFFFFFFFFFFFFFFFFFFFFFFFFFFFFFFFFFFFFFFFFFFFF
310
FFFFFFFFFFFFFFFFFFFFFFFFFFFFFFFFFFFFFFFFFFFFFFFFFFFFFFFFFFFFFFFF
310
FFFFFFFFFFFFFFFFFFFFFFFFFFFFFFFFFFFFFFFFFFFFFFFFF000FFFFFFFFFFFF
310
FFFFFFFFFFFFFFFFFFFFFFFFFFFFFFFFFFFFFFFFFFFFFFFFFFFFFFFFFFFFFFFF
310
FFFFFFFFFFFFFFFFFFFFFFFFFFFFFFFFFFFFFFFFFFFFFFFFFFFFFFFFFFFFFFFF
310
FFFFFFFFFFFFFFFFFFFFFFFFFFFFFFFFF000FFFFFFFFFFFFFFFFFFFFFFFFFFFF
310
FFFFFFFFFFFFFFFFFFFFFFFFFFFFFFFFFFFFFFFFFFFFFFFFFFFFFFFFFFFFFFFF
310
FFFFFFFFFFFFFFFFFFFFFFFFFFFFFFFFFFFFFFFFFFFFFFFFFFFFFFFFFFFFFFFF
310
FFFFFFFFFFFFFFFFF000FFFFFFFFFFFFFFFFFFFFFFFFFFFFFFFFFFFFFFFFFFFF
310
FFFFFFFFFFFFFFFFFFFFFFFFFFFFFFFFFFFFFFFFFFFFFFFFFFFFFFFFFFFFFFFF
310
FFFFFFFFFFFFFFFFFFFFFFFFFFFFFFFFFFFFFFFFFFFFFFFFFFFFFFFFFFFFFFFF
310
F000FFFFFFFFFFFFFFFFFFFFFFFFFFFFFFFFFFFFFFFFFFFFFFFFFFFFFFFFFFFF
310
FFFFFFFFFFFFFFFFFFFFFFFFFFFFFFFFFFFFFFFFFFFFFFFFFFFFFFFFFFFFFFFF
310
FFFFFFFFFFFFFFFFFFFFFFFFFFFFFFFFFFFFFFFFFFFFFFFFF000FFFFFFFFFFFF
310
FFFFFFFFFFFFFFFFFFFFFFFFFFFFFFFFFFFFFFFFFFFFFFFFFFFFFFFFFFFFFFFF
310
FFFFFFFFFFFFFFFFFFFFFFFFFFFFFFFFFFFFFFFFFFFFFFFFFFFFFFFFFFFFFFFF
310
FFFFFFFFFFFFFFFFFFFFFFFFFFFFFFFFF000FFFFFFFFFFFFFFFFFFFFFFFFFFFF
310
FFFFFFFFFFFFFFFFFFFFFFFFFFFFFFFFFFFFFFFFFFFFFFFFFFFFFFFFFFFFFFFF
310
FFFFFFFFFFFFFFFFFFFFFFFFFFFFFFFFFFFFFFFFFFFFFFFFFFFFFFFFFFFFFFFF
310
FFFFFFFFFFFFFFFFF000FFFFFFFFFFFFFFFFFFFFFFFFFFFFFFFFFFFFFFFFFFFF
310
FFFFFFFFFFFFFFFFFFFFFFFFFFFFFFFFFFFFFFFFFFFFFFFFFFFFFFFFFFFFFFFF
310
FFFFFFFFFFFFFFFFFFFFFFFFFFFFFFFFFFFFFFFFFFFFFFFFFFFFFFFFFFFFFFFF
310
F000FFFFFFFFFFFFFFFFFFFFFFFFFFFFFFFFFFFFFFFFFFFFFFFFFFFFFFFFFFFF
310
FFFFFFFFFFFFFFFFFFFFFFFFFFFFFFFFFFFFFFFFFFFFFFFFFFFFFFFFFFFFFFFF
310
FFFFFFFFFFFFFFFFFFFFFFFFFFFFFFFFFFFFFFFFFFFFFFFFF000FFFFFFFFFFFF
310
FFFFFFFFFFFFFFFFFFFFFFFFFFFFFFFFFFFFFFFFFFFFFFFFFFFFFFFFFFFFFFFF
310
FFFFFFFFFFFFFFFFFFFFFFFFFFFFFFFFFFFFFFFFFFFFFFFFFFFFFFFFFFFFFFFF
310
FFFFFFFFFFFFFFFFFFFFFFFFFFFFFFFFF000FFFFFFFFFFFFFFFFFFFFFFFFFFFF
310
FFFFFFFFFFFFFFFFFFFFFFFFFFFFFFFFFFFFFFFFFFFFFFFFFFFFFFFFFFFFFFFF
310
FFFFFFFFFFFFFFFFFFFFFFFFFFFFFFFFFFFFFFFFFFFFFFFFFFFFFFFFFFFFFFFF
310
FFFFFFFFFFFFFFFFF000FFFFFFFFFFFFFFFFFFFFFFFFFFFFFFFFFFFFFFFFFFFF
310
FFFFFFFFFFFFFFFFFFFFFFFFFFFFFFFFFFFFFFFFFFFFFFFFFFFFFFFFFFFFFFFF
310
FFFFFFFFFFFFFFFFFFFFFFFFFFFFFFFFFFFFFFFFFFFFFFFFFFFFFFFFFFFFFFFF
310
F000FFFFFFFFFFFFFFFFFFFFFFFFFFFFFFFFFFFFFFFFFFFFFFFFFFFFFFFFFFFF
310
FFFFFFFFFFFFFFFFFFFFFFFFFFFFFFFFFFFFFFFFFFFFFFFFFFFFFFFFFFFFFFFF
310
FFFFFFFFFFFFFFFFFFFFFFFFFFFFFFFFFFFFFFFFFFFFFFFFF000FFFFFFFFFFFF
310
FFFFFFFFFFFFFFFFFFFFFFFFFFFFFFFFFFFFFFFFFFFFFFFFFFFFFFFFFFFFFFFF
310
FFFFFFFFFFFFFFFFFFFFFFFFFFFFFFFFFFFFFFFFFFFFFFFFFFFFFFFFFFFFFFFF
310
FFFFFFFFFFFFFFFFFFFFFFFFFFFFFFFFF000FFFFFFFFFFFFFFFFFFFFFFFFFFFF
310
FFFFFFFFFFFFFFFFFFFFFFFFFFFFFFFFFFFFFFFFFFFFFFFFFFFFFFFFFFFFFFFF
310
FFFFFFFFFFFFFFFFFFFFFFFFFFFFFFFFFFFFFFFFFFFFFFFFFFFFFFFFFFFFFFFF
310
FFFFFFFFFFFFFFFFF000FFFFFFFFFFFFFFFFFFFFFFFFFFFFFFFFFFFFFFFFFFFF
310
FFFFFFFFFFFFFFFFFFFFFFFFFFFFFFFFFFFFFFFFFFFFFFFFFFFFFFFFFFFFFFFF
310
FFFFFFFFFFFFFFFFFFFFFFFFFFFFFFFFFFFFFFFFFFFFFFFFFFFFFFFFFFFFFFFF
310
F000FFFFFFFFFFFFFFFFFFFFFFFFFFFFFFFFFFFFFFFFFFFFFFFFFFFFFFFFFFFF
310
FFFFFFFFFFFFFFFFFFFFFFFFFFFFFFFFFFFFFFFFFFFFFFFFFFFFFFFFFFFFFFFF
310
FFFFFFFFFFFFFFFFFFFFFFFFFFFFFFFFFFFFFFFFFFFFFFFFF000FFFFFFFFFFFF
310
FFFFFFFFFFFFFFFFFFFFFFFFFFFFFFFFFFFFFFFFFFFFFFFFFFFFFFFFFFFFFFFF
310
FFFFFFFFFFFFFFFFFFFFFFFFFFFFFFFFFFFFFFFFFFFFFFFFFFFFFFFFFFFFFFFF
310
FFFFFFFFFFFFFFFFFFFFFFFFFFFFFFFFF000FFFFFFFFFFFFFFFFFFFFFFFFFFFF
310
FFFFFFFFFFFFFFFFFFFFFFFFFFFFFFFFFFFFFFFFFFFFFFFFFFFFFFFFFFFFFFFF
310
FFFFFFFFFFFFFFFFFFFFFFFFFFFFFFFFFFFFFFFFFFFFFFFFFFFFFFFFFFFFFFFF
310
FFFFFFFFFFFFFFFFF000FFFFFFFFFFFFFFFFFFFFFFFFFFFFFFFFFFFFFFFFFFFF
310
FFFFFFFFFFFFFFFFFFFFFFFFFFFFFFFFFFFFFFFFFFFFFFFFFFFFFFFFFFFFFFFF
310
FFFFFFFFFFFFFFFFFFFFFFFFFFFFFFFFFFFFFFFFFFFFFFFFFFFFFFFFFFFFFFFF
310
F000FFFFFFFFFFFFFFFFFFFFFFFFFFFFFFFFFFFFFFFFFFFFFFFFFFFFFFFFFFFF
310
FFFFFFFFFFFFFFFFFFFFFFFFFFFFFFFFFFFFFFFFFFFFFFFFFFFFFFFFFFFFFFFF
310
FFFFFFFFFFFFFFFFFFFFFFFFFFFFFFFFFFFFFFFFFFFFFFFFF000FFFFFFFFFFFF
310
FFFFFFFFFFFFFFFFFFFFFFFFFFFFFFFFFFFFFFFFFFFFFFFFFFFFFFFFFFFFFFFF
310
FFFFFFFFFFFFFFFFFFFFFFFFFFFFFFFFFFFFFFFFFFFFFFFFFFFFFFFFFFFFFFFF
310
FFFFFFFFFFFFFFFFFFFFFFFFFFFFFFFFF0000000000000000000000000000000
310
00000000000000000000000042006C00610063006B0000000000000000000000
310
0000000000000000000000000000000000000000000000000000000000000000
310
0000000000000000000000000000FFFFFFFFFFFFFFFFFFFFFFFFFFFFFFFFFFFF
310
FFFFFFFFFFFFFFFFFFFFFFFFFFFFFFFFFFFFFFFFFFFFFFFFFFFFFFFFFFFFFFFF
310
FFFFFFFFFFFFFFFFFFFFFFFF6476000800000000FFFFFFFF20FF202026000000
310
1E00000008000000060000000000000011000000200000008403000000000000
310
6000000060000000200002FB200020000000002B00FFFFFF40002200E8030000
310
A80400001C020000AF0000804A20004000000000000000000100000000000000
310
616C000800000000E40100007001000002000000270000001100000000000000
310
00000000BC0200000000000003020122420065006C006C00200047006F007400
310
680069006300200053007400640020004C006900670068007400000000000000
310
00000000000000000000000000000000420065006C006C0047006F0074006800
310
690063005300740064002D0042006F006C006400000000000000000000000000
310
0000000000000000000000000000000000000000000000000000000000000000
310
0000000000000000000000000000000000000000000000000000000000000000
  1
OLE
  0
ENDSEC
  0
SECTION
  2
OBJECTS
  0
DICTIONARY
  5
C
330
0
100
AcDbDictionary
281
     1
  3
ACAD_GROUP
350
D
  3
ACAD_LAYOUT
350
1A
  3
ACAD_MLEADERSTYLE
350
238
  3
ACAD_MLINESTYLE
350
17
  3
ACAD_PLOTSETTINGS
350
19
  3
ACAD_PLOTSTYLENAME
350
E
  3
ACAD_TABLESTYLE
350
237
  3
ACAD_VISUALSTYLE
350
2A
  3
AcDbVariableDictionary
350
239
  0
DICTIONARY
  5
D
102
{ACAD_REACTORS
330
C
102
}
330
C
100
AcDbDictionary
281
     1
  0
DICTIONARY
  5
1A
102
{ACAD_REACTORS
330
C
102
}
330
C
100
AcDbDictionary
281
     1
  3
Layout1
350
1E
  3
Layout2
350
26
  3
Model
350
22
  0
DICTIONARY
  5
238
102
{ACAD_REACTORS
330
C
102
}
330
C
100
AcDbDictionary
281
     1
  0
DICTIONARY
  5
17
102
{ACAD_REACTORS
330
C
102
}
330
C
100
AcDbDictionary
281
     1
  3
Standard
350
18
  0
DICTIONARY
  5
19
102
{ACAD_REACTORS
330
C
102
}
330
C
100
AcDbDictionary
281
     1
  0
ACDBDICTIONARYWDFLT
  5
E
102
{ACAD_REACTORS
330
C
102
}
330
C
100
AcDbDictionary
281
     1
  3
Normal
350
F
100
AcDbDictionaryWithDefault
340
F
  0
DICTIONARY
  5
237
102
{ACAD_REACTORS
330
C
102
}
330
C
100
AcDbDictionary
281
     1
  0
DICTIONARY
  5
2A
102
{ACAD_REACTORS
330
C
102
}
330
C
100
AcDbDictionary
281
     1
  3
2dWireframe
350
2F
  3
3D Hidden
350
31
  3
3dWireframe
350
30
  3
Basic
350
32
  3
Brighten
350
36
  3
ColorChange
350
3A
  3
Conceptual
350
34
  3
Dim
350
35
  3
Facepattern
350
39
  3
Flat
350
2B
  3
FlatWithEdges
350
2C
  3
Gouraud
350
2D
  3
GouraudWithEdges
350
2E
  3
Linepattern
350
38
  3
Realistic
350
33
  3
Thicken
350
37
  0
DICTIONARY
  5
239
102
{ACAD_REACTORS
330
C
102
}
330
C
100
AcDbDictionary
281
     1
  3
PSOLHEIGHT
350
23B
  3
PSOLWIDTH
350
23A
  0
LAYOUT
  5
1E
102
{ACAD_REACTORS
330
1A
102
}
330
1A
100
AcDbPlotSettings
  1

  2
none_device
  4

  6

 40
0.0
 41
0.0
 42
0.0
 43
0.0
 44
0.0
 45
0.0
 46
0.0
 47
0.0
 48
0.0
 49
0.0
140
0.0
141
0.0
142
1.0
143
1.0
 70
   688
 72
     0
 73
     0
 74
     5
  7

 75
    16
147
1.0
148
0.0
149
0.0
100
AcDbLayout
  1
Layout1
 70
     1
 71
     1
 10
0.0
 20
0.0
 11
420.0
 21
297.0
 12
0.0
 22
0.0
 32
0.0
 14
1.0000000000E+20
 24
1.0000000000E+20
 34
1.0000000000E+20
 15
-1.0000000000E+20
 25
-1.0000000000E+20
 35
-1.0000000000E+20
146
0.0
 13
0.0
 23
0.0
 33
0.0
 16
1.0
 26
0.0
 36
0.0
 17
0.0
 27
1.0
 37
0.0
 76
     0
330
1B
  0
LAYOUT
  5
26
102
{ACAD_REACTORS
330
1A
102
}
330
1A
100
AcDbPlotSettings
  1

  2
none_device
  4

  6

 40
0.0
 41
0.0
 42
0.0
 43
0.0
 44
0.0
 45
0.0
 46
0.0
 47
0.0
 48
0.0
 49
0.0
140
0.0
141
0.0
142
1.0
143
1.0
 70
   688
 72
     0
 73
     0
 74
     5
  7

 75
    16
147
1.0
148
0.0
149
0.0
100
AcDbLayout
  1
Layout2
 70
     1
 71
     2
 10
0.0
 20
0.0
 11
0.0
 21
0.0
 12
0.0
 22
0.0
 32
0.0
 14
0.0
 24
0.0
 34
0.0
 15
0.0
 25
0.0
 35
0.0
146
0.0
 13
0.0
 23
0.0
 33
0.0
 16
1.0
 26
0.0
 36
0.0
 17
0.0
 27
1.0
 37
0.0
 76
     0
330
23
  0
LAYOUT
  5
22
102
{ACAD_REACTORS
330
1A
102
}
330
1A
100
AcDbPlotSettings
  1

  2
none_device
  4

  6

 40
0.0
 41
0.0
 42
0.0
 43
0.0
 44
0.0
 45
0.0
 46
0.0
 47
0.0
 48
0.0
 49
0.0
140
0.0
141
0.0
142
1.0
143
1.0
 70
  1712
 72
     0
 73
     0
 74
     0
  7

 75
     0
147
1.0
148
0.0
149
0.0
100
AcDbLayout
  1
Model
 70
     1
 71
     0
 10
0.0
 20
0.0
 11
297.0
 21
210.0
 12
0.0
 22
0.0
 32
0.0
 14
0.0
 24
0.0
 34
0.0
 15
297.0
 25
210.0
 35
0.0
146
0.0
 13
0.0
 23
0.0
 33
0.0
 16
1.0
 26
0.0
 36
0.0
 17
0.0
 27
1.0
 37
0.0
 76
     0
330
1F
331
29
  0
MLINESTYLE
  5
18
102
{ACAD_REACTORS
330
17
102
}
330
17
100
AcDbMlineStyle
  2
Standard
 70
     0
  3

 62
   256
 51
90.0
 52
90.0
 71
     2
 49
0.5
 62
   256
  6
BYLAYER
 49
-0.5
 62
   256
  6
BYLAYER
  0
ACDBPLACEHOLDER
  5
F
102
{ACAD_REACTORS
330
E
102
}
330
E
  0
VISUALSTYLE
  5
2F
102
{ACAD_REACTORS
330
2A
102
}
330
2A
100
AcDbVisualStyle
  2
2dWireframe
 70
     4
 71
     0
 72
     2
 73
     0
 90
        0
 40
-0.6
 41
-30.0
 62
     5
 63
     7
 74
     1
 91
        4
 64
     7
 65
   257
 75
     1
175
     1
 42
1.0
 92
        0
 66
   257
 43
1.0
 76
     1
 77
     6
 78
     2
 67
     7
 79
     5
170
     0
171
     0
290
     0
174
     0
 93
        1
 44
0.0
173
     0
291
     0
 45
0.0
1001
ACAD
1000
AcDbSavedByObjectVersion
1070
     0
  0
VISUALSTYLE
  5
31
102
{ACAD_REACTORS
330
2A
102
}
330
2A
100
AcDbVisualStyle
  2
3D Hidden
 70
     6
 71
     1
 72
     2
 73
     2
 90
        0
 40
-0.6
 41
-30.0
 62
     5
 63
     7
 74
     2
 91
        2
 64
     7
 65
   257
 75
     2
175
     1
 42
40.0
 92
        0
 66
   257
 43
1.0
 76
     1
 77
     6
 78
     2
 67
     7
 79
     3
170
     0
171
     0
290
     0
174
     0
 93
        1
 44
0.0
173
     0
291
     0
 45
0.0
1001
ACAD
1000
AcDbSavedByObjectVersion
1070
     0
  0
VISUALSTYLE
  5
30
102
{ACAD_REACTORS
330
2A
102
}
330
2A
100
AcDbVisualStyle
  2
3dWireframe
 70
     5
 71
     0
 72
     2
 73
     0
 90
        0
 40
-0.6
 41
-30.0
 62
     5
 63
     7
 74
     1
 91
        4
 64
     7
 65
   257
 75
     1
175
     1
 42
1.0
 92
        0
 66
   257
 43
1.0
 76
     1
 77
     6
 78
     2
 67
     7
 79
     5
170
     0
171
     0
290
     0
174
     0
 93
        1
 44
0.0
173
     0
291
     0
 45
0.0
1001
ACAD
1000
AcDbSavedByObjectVersion
1070
     0
  0
VISUALSTYLE
  5
32
102
{ACAD_REACTORS
330
2A
102
}
330
2A
100
AcDbVisualStyle
  2
Basic
 70
     7
 71
     1
 72
     0
 73
     1
 90
        0
 40
-0.6
 41
-30.0
 62
     5
 63
     7
 74
     0
 91
        4
 64
     7
 65
   257
 75
     1
175
     1
 42
1.0
 92
        8
 66
     7
 43
1.0
 76
     1
 77
     6
 78
     2
 67
     7
 79
     5
170
     0
171
     0
290
     0
174
     0
 93
        1
 44
0.0
173
     0
291
     1
 45
0.0
1001
ACAD
1000
AcDbSavedByObjectVersion
1070
     0
  0
VISUALSTYLE
  5
36
102
{ACAD_REACTORS
330
2A
102
}
330
2A
100
AcDbVisualStyle
  2
Brighten
 70
    12
 71
     2
 72
     2
 73
     0
 90
        0
 40
-0.6
 41
-30.0
 62
     5
 63
     7
 74
     1
 91
        4
 64
     7
 65
   257
 75
     1
175
     1
 42
1.0
 92
        8
 66
     7
 43
1.0
 76
     1
 77
     6
 78
     2
 67
     7
 79
     5
170
     0
171
     0
290
     0
174
     0
 93
        1
 44
50.0
173
     0
291
     1
 45
0.0
1001
ACAD
1000
AcDbSavedByObjectVersion
1070
     0
  0
VISUALSTYLE
  5
3A
102
{ACAD_REACTORS
330
2A
102
}
330
2A
100
AcDbVisualStyle
  2
ColorChange
 70
    16
 71
     2
 72
     2
 73
     3
 90
        0
 40
-0.6
 41
-30.0
 62
     5
 63
     8
 74
     1
 91
        4
 64
     7
 65
   257
 75
     1
175
     1
 42
1.0
 92
        8
 66
     8
 43
1.0
 76
     1
 77
     6
 78
     2
 67
     7
 79
     5
170
     0
171
     0
290
     0
174
     0
 93
        1
 44
0.0
173
     0
291
     1
 45
0.0
1001
ACAD
1000
AcDbSavedByObjectVersion
1070
     0
  0
VISUALSTYLE
  5
34
102
{ACAD_REACTORS
330
2A
102
}
330
2A
100
AcDbVisualStyle
  2
Conceptual
 70
     9
 71
     3
 72
     2
 73
     0
 90
        0
 40
-0.6
 41
-30.0
 62
     5
 63
     7
 74
     2
 91
        2
 64
     7
 65
   257
 75
     1
175
     1
 42
40.0
 92
        8
 66
     7
 43
1.0
 76
     1
 77
     6
 78
     2
 67
     7
 79
     3
170
     0
171
     0
290
     0
174
     0
 93
        1
 44
0.0
173
     0
291
     0
 45
0.0
1001
ACAD
1000
AcDbSavedByObjectVersion
1070
     0
  0
VISUALSTYLE
  5
35
102
{ACAD_REACTORS
330
2A
102
}
330
2A
100
AcDbVisualStyle
  2
Dim
 70
    11
 71
     2
 72
     2
 73
     0
 90
        0
 40
-0.6
 41
-30.0
 62
     5
 63
     7
 74
     1
 91
        4
 64
     7
 65
   257
 75
     1
175
     1
 42
1.0
 92
        8
 66
     7
 43
1.0
 76
     1
 77
     6
 78
     2
 67
     7
 79
     5
170
     0
171
     0
290
     0
174
     0
 93
        1
 44
-50.0
173
     0
291
     1
 45
0.0
1001
ACAD
1000
AcDbSavedByObjectVersion
1070
     0
  0
VISUALSTYLE
  5
39
102
{ACAD_REACTORS
330
2A
102
}
330
2A
100
AcDbVisualStyle
  2
Facepattern
 70
    15
 71
     2
 72
     2
 73
     0
 90
        0
 40
-0.6
 41
-30.0
 62
     5
 63
     7
 74
     1
 91
        4
 64
     7
 65
   257
 75
     1
175
     1
 42
1.0
 92
        8
 66
     7
 43
1.0
 76
     1
 77
     6
 78
     2
 67
     7
 79
     5
170
     0
171
     0
290
     0
174
     0
 93
        1
 44
0.0
173
     0
291
     1
 45
0.0
1001
ACAD
1000
AcDbSavedByObjectVersion
1070
     0
  0
VISUALSTYLE
  5
2B
102
{ACAD_REACTORS
330
2A
102
}
330
2A
100
AcDbVisualStyle
  2
Flat
 70
     0
 71
     2
 72
     1
 73
     1
 90
        2
 40
-0.6
 41
30.0
 62
     5
 63
     7
 74
     0
 91
        4
 64
     7
 65
   257
 75
     1
175
     1
 42
1.0
 92
        8
 66
     7
 43
1.0
 76
     1
 77
     6
 78
     2
 67
     7
 79
     5
170
     0
171
     0
290
     0
174
     0
 93
       13
 44
0.0
173
     0
291
     1
 45
0.0
1001
ACAD
1000
AcDbSavedByObjectVersion
1070
     0
  0
VISUALSTYLE
  5
2C
102
{ACAD_REACTORS
330
2A
102
}
330
2A
100
AcDbVisualStyle
  2
FlatWithEdges
 70
     1
 71
     2
 72
     1
 73
     1
 90
        2
 40
-0.6
 41
30.0
 62
     5
 63
     7
 74
     1
 91
        4
 64
     7
 65
   257
 75
     1
175
     1
 42
1.0
 92
        0
 66
   257
 43
1.0
 76
     1
 77
     6
 78
     2
 67
     7
 79
     5
170
     0
171
     0
290
     0
174
     0
 93
       13
 44
0.0
173
     0
291
     1
 45
0.0
1001
ACAD
1000
AcDbSavedByObjectVersion
1070
     0
  0
VISUALSTYLE
  5
2D
102
{ACAD_REACTORS
330
2A
102
}
330
2A
100
AcDbVisualStyle
  2
Gouraud
 70
     2
 71
     2
 72
     2
 73
     1
 90
        2
 40
-0.6
 41
30.0
 62
     5
 63
     7
 74
     0
 91
        4
 64
     7
 65
   257
 75
     1
175
     1
 42
1.0
 92
        0
 66
     7
 43
1.0
 76
     1
 77
     6
 78
     2
 67
     7
 79
     5
170
     0
171
     0
290
     0
174
     0
 93
       13
 44
0.0
173
     0
291
     1
 45
0.0
1001
ACAD
1000
AcDbSavedByObjectVersion
1070
     0
  0
VISUALSTYLE
  5
2E
102
{ACAD_REACTORS
330
2A
102
}
330
2A
100
AcDbVisualStyle
  2
GouraudWithEdges
 70
     3
 71
     2
 72
     2
 73
     1
 90
        2
 40
-0.6
 41
30.0
 62
     5
 63
     7
 74
     1
 91
        4
 64
     7
 65
   257
 75
     1
175
     1
 42
1.0
 92
        0
 66
   257
 43
1.0
 76
     1
 77
     6
 78
     2
 67
     7
 79
     5
170
     0
171
     0
290
     0
174
     0
 93
       13
 44
0.0
173
     0
291
     1
 45
0.0
1001
ACAD
1000
AcDbSavedByObjectVersion
1070
     0
  0
VISUALSTYLE
  5
38
102
{ACAD_REACTORS
330
2A
102
}
330
2A
100
AcDbVisualStyle
  2
Linepattern
 70
    14
 71
     2
 72
     2
 73
     0
 90
        0
 40
-0.6
 41
-30.0
 62
     5
 63
     7
 74
     1
 91
        4
 64
     7
 65
   257
 75
     7
175
     7
 42
1.0
 92
        8
 66
     7
 43
1.0
 76
     1
 77
     6
 78
     2
 67
     7
 79
     5
170
     0
171
     0
290
     0
174
     0
 93
        1
 44
0.0
173
     0
291
     1
 45
0.0
1001
ACAD
1000
AcDbSavedByObjectVersion
1070
     0
  0
VISUALSTYLE
  5
33
102
{ACAD_REACTORS
330
2A
102
}
330
2A
100
AcDbVisualStyle
  2
Realistic
 70
     8
 71
     2
 72
     2
 73
     0
 90
        0
 40
-0.6
 41
-30.0
 62
     5
 63
     7
 74
     1
 91
        0
 64
     7
 65
   257
 75
     1
175
     1
 42
1.0
 92
        8
 66
     8
 43
1.0
 76
     1
 77
     6
 78
     2
 67
     7
 79
     5
170
     0
171
     0
290
     0
174
     0
 93
       13
 44
0.0
173
     0
291
     0
 45
0.0
1001
ACAD
1000
AcDbSavedByObjectVersion
1070
     0
  0
VISUALSTYLE
  5
37
102
{ACAD_REACTORS
330
2A
102
}
330
2A
100
AcDbVisualStyle
  2
Thicken
 70
    13
 71
     2
 72
     2
 73
     0
 90
        0
 40
-0.6
 41
-30.0
 62
     5
 63
     7
 74
     1
 91
        4
 64
     7
 65
   257
 75
     1
175
     1
 42
1.0
 92
       12
 66
     7
 43
1.0
 76
     1
 77
     6
 78
     2
 67
     7
 79
     5
170
     0
171
     0
290
     0
174
     0
 93
        1
 44
0.0
173
     0
291
     1
 45
0.0
1001
ACAD
1000
AcDbSavedByObjectVersion
1070
     0
  0
DICTIONARYVAR
  5
23B
102
{ACAD_REACTORS
330
239
102
}
330
239
100
DictionaryVariables
280
     0
  1
80.000000
  0
DICTIONARYVAR
  5
23A
102
{ACAD_REACTORS
330
239
102
}
330
239
100
DictionaryVariables
280
     0
  1
5.000000
  0
ENDSEC
  0
EOF
