  0
SECTION
  2
HEADER
  9
$ACADVER
  1
AC1015
  9
$ACADMAINTVER
 70
     6
  9
$DWGCODEPAGE
  3
ANSI_1252
  9
$INSBASE
 10
0.0
 20
0.0
 30
0.0
  9
$EXTMIN
 10
0.0
 20
0.0
 30
0.0
  9
$EXTMAX
 10
297.0
 20
210.0
 30
0.0
  9
$LIMMIN
 10
0.0
 20
0.0
  9
$LIMMAX
 10
297.0
 20
210.0
  9
$ORTHOMODE
 70
     0
  9
$REGENMODE
 70
     1
  9
$FILLMODE
 70
     1
  9
$QTEXTMODE
 70
     0
  9
$MIRRTEXT
 70
     1
  9
$LTSCALE
 40
1.0
  9
$ATTMODE
 70
     1
  9
$TEXTSIZE
 40
2.0
  9
$TRACEWID
 40
1.0
  9
$TEXTSTYLE
  7
Standard
  9
$CLAYER
  8
0
  9
$CELTYPE
  6
ByLayer
  9
$CECOLOR
 62
   256
  9
$CELTSCALE
 40
1.0
  9
$DISPSILH
 70
     0
  9
$DIMSCALE
 40
1.0
  9
$DIMASZ
 40
3.0
  9
$DIMEXO
 40
0.0
  9
$DIMDLI
 40
3.75
  9
$DIMRND
 40
0.0
  9
$DIMDLE
 40
0.0
  9
$DIMEXE
 40
1.0
  9
$DIMTP
 40
0.0
  9
$DIMTM
 40
0.0
  9
$DIMTXT
 40
2.0
  9
$DIMCEN
 40
2.5
  9
$DIMTSZ
 40
0.0
  9
$DIMTOL
 70
     0
  9
$DIMLIM
 70
     0
  9
$DIMTIH
 70
     1
  9
$DIMTOH
 70
     1
  9
$DIMSE1
 70
     0
  9
$DIMSE2
 70
     0
  9
$DIMTAD
 70
     1
  9
$DIMZIN
 70
     0
  9
$DIMBLK
  1

  9
$DIMASO
 70
     1
  9
$DIMSHO
 70
     1
  9
$DIMPOST
  1

  9
$DIMAPOST
  1

  9
$DIMALT
 70
     0
  9
$DIMALTD
 70
     3
  9
$DIMALTF
 40
0.0393700787
  9
$DIMLFAC
 40
1.0
  9
$DIMTOFL
 70
     1
  9
$DIMTVP
 40
0.0
  9
$DIMTIX
 70
     0
  9
$DIMSOXD
 70
     0
  9
$DIMSAH
 70
     0
  9
$DIMBLK1
  1

  9
$DIMBLK2
  1

  9
$DIMSTYLE
  2
ISO-25
  9
$DIMCLRD
 70
     0
  9
$DIMCLRE
 70
     0
  9
$DIMCLRT
 70
     0
  9
$DIMTFAC
 40
1.0
  9
$DIMGAP
 40
1.524
  9
$DIMJUST
 70
     0
  9
$DIMSD1
 70
     0
  9
$DIMSD2
 70
     0
  9
$DIMTOLJ
 70
     0
  9
$DIMTZIN
 70
     0
  9
$DIMALTZ
 70
     0
  9
$DIMALTTZ
 70
     0
  9
$DIMUPT
 70
     0
  9
$DIMDEC
 70
     2
  9
$DIMTDEC
 70
     3
  9
$DIMALTU
 70
     2
  9
$DIMALTTD
 70
     3
  9
$DIMTXSTY
  7
Standard
  9
$DIMAUNIT
 70
     0
  9
$DIMADEC
 70
     2
  9
$DIMALTRND
 40
0.0
  9
$DIMAZIN
 70
     0
  9
$DIMDSEP
 70
    44
  9
$DIMATFIT
 70
     3
  9
$DIMFRAC
 70
     0
  9
$DIMLDRBLK
  1

  9
$DIMLUNIT
 70
     2
  9
$DIMLWD
 70
    -2
  9
$DIMLWE
 70
    -2
  9
$DIMTMOVE
 70
     0
  9
$LUNITS
 70
     2
  9
$LUPREC
 70
     2
  9
$SKETCHINC
 40
1.0
  9
$FILLETRAD
 40
10.0
  9
$AUNITS
 70
     0
  9
$AUPREC
 70
     2
  9
$MENU
  1
.
  9
$ELEVATION
 40
0.0
  9
$PELEVATION
 40
0.0
  9
$THICKNESS
 40
0.0
  9
$LIMCHECK
 70
     0
  9
$CHAMFERA
 40
10.0
  9
$CHAMFERB
 40
10.0
  9
$CHAMFERC
 40
20.0
  9
$CHAMFERD
 40
0.0
  9
$SKPOLY
 70
     0
  9
$TDCREATE
 40
2456230.335004942
  9
$TDUCREATE
 40
2456230.293338276
  9
$TDUPDATE
 40
2456230.335006574
  9
$TDUUPDATE
 40
2456230.293339907
  9
$TDINDWG
 40
0.0000000116
  9
$TDUSRTIMER
 40
0.0000000116
  9
$USRTIMER
 70
     1
  9
$ANGBASE
 50
0.0
  9
$ANGDIR
 70
     0
  9
$PDMODE
 70
     0
  9
$PDSIZE
 40
-1.0
  9
$PLINEWID
 40
0.0
  9
$SPLFRAME
 70
     0
  9
$SPLINETYPE
 70
     6
  9
$SPLINESEGS
 70
     8
  9
$HANDSEED
  5
28E
  9
$SURFTAB1
 70
     6
  9
$SURFTAB2
 70
     6
  9
$SURFTYPE
 70
     6
  9
$SURFU
 70
     6
  9
$SURFV
 70
     6
  9
$UCSBASE
  2

  9
$UCSNAME
  2

  9
$UCSORG
 10
0.0
 20
0.0
 30
0.0
  9
$UCSXDIR
 10
1.0
 20
0.0
 30
0.0
  9
$UCSYDIR
 10
0.0
 20
1.0
 30
0.0
  9
$UCSORTHOREF
  2

  9
$UCSORTHOVIEW
 70
     0
  9
$UCSORGTOP
 10
0.0
 20
0.0
 30
0.0
  9
$UCSORGBOTTOM
 10
0.0
 20
0.0
 30
0.0
  9
$UCSORGLEFT
 10
0.0
 20
0.0
 30
0.0
  9
$UCSORGRIGHT
 10
0.0
 20
0.0
 30
0.0
  9
$UCSORGFRONT
 10
0.0
 20
0.0
 30
0.0
  9
$UCSORGBACK
 10
0.0
 20
0.0
 30
0.0
  9
$PUCSBASE
  2

  9
$PUCSNAME
  2

  9
$PUCSORG
 10
0.0
 20
0.0
 30
0.0
  9
$PUCSXDIR
 10
1.0
 20
0.0
 30
0.0
  9
$PUCSYDIR
 10
0.0
 20
1.0
 30
0.0
  9
$PUCSORTHOREF
  2

  9
$PUCSORTHOVIEW
 70
     0
  9
$PUCSORGTOP
 10
0.0
 20
0.0
 30
0.0
  9
$PUCSORGBOTTOM
 10
0.0
 20
0.0
 30
0.0
  9
$PUCSORGLEFT
 10
0.0
 20
0.0
 30
0.0
  9
$PUCSORGRIGHT
 10
0.0
 20
0.0
 30
0.0
  9
$PUCSORGFRONT
 10
0.0
 20
0.0
 30
0.0
  9
$PUCSORGBACK
 10
0.0
 20
0.0
 30
0.0
  9
$USERI1
 70
     0
  9
$USERI2
 70
     0
  9
$USERI3
 70
     0
  9
$USERI4
 70
     0
  9
$USERI5
 70
     0
  9
$USERR1
 40
0.0
  9
$USERR2
 40
0.0
  9
$USERR3
 40
0.0
  9
$USERR4
 40
0.0
  9
$USERR5
 40
0.0
  9
$WORLDVIEW
 70
     1
  9
$SHADEDGE
 70
     3
  9
$SHADEDIF
 70
    70
  9
$TILEMODE
 70
     1
  9
$MAXACTVP
 70
    64
  9
$PINSBASE
 10
0.0
 20
0.0
 30
0.0
  9
$PLIMCHECK
 70
     0
  9
$PEXTMIN
 10
1.0000000000E+20
 20
1.0000000000E+20
 30
1.0000000000E+20
  9
$PEXTMAX
 10
-1.0000000000E+20
 20
-1.0000000000E+20
 30
-1.0000000000E+20
  9
$PLIMMIN
 10
0.0
 20
0.0
  9
$PLIMMAX
 10
420.0
 20
297.0
  9
$UNITMODE
 70
     0
  9
$VISRETAIN
 70
     1
  9
$PLINEGEN
 70
     0
  9
$PSLTSCALE
 70
     1
  9
$TREEDEPTH
 70
  3020
  9
$CMLSTYLE
  2
Standard
  9
$CMLJUST
 70
     0
  9
$CMLSCALE
 40
20.0
  9
$PROXYGRAPHICS
 70
     1
  9
$MEASUREMENT
 70
     1
  9
$CELWEIGHT
370
    -1
  9
$ENDCAPS
280
     0
  9
$JOINSTYLE
280
     0
  9
$LWDISPLAY
290
     1
  9
$INSUNITS
 70
     4
  9
$HYPERLINKBASE
  1

  9
$STYLESHEET
  1

  9
$XEDIT
290
     1
  9
$CEPSNTYPE
380
     0
  9
$PSTYLEMODE
290
     1
  9
$FINGERPRINTGUID
  2
{5090BDC4-C0C4-4A34-B341-C2BA4E0FB224}
  9
$VERSIONGUID
  2
{FAEB1C32-E019-11D5-929B-00C0DF256EC4}
  9
$EXTNAMES
290
     1
  9
$PSVPSCALE
 40
0.0
  9
$OLESTARTUP
290
     0
  0
ENDSEC
  0
SECTION
  2
CLASSES
  0
CLASS
  1
ACDBDICTIONARYWDFLT
  2
AcDbDictionaryWithDefault
  3
ObjectDBX Classes
 90
        0
280
     0
281
     0
  0
CLASS
  1
VISUALSTYLE
  2
AcDbVisualStyle
  3
ObjectDBX Classes
 90
     4095
280
     0
281
     0
  0
CLASS
  1
MATERIAL
  2
AcDbMaterial
  3
ObjectDBX Classes
 90
     1153
280
     0
281
     0
  0
CLASS
  1
ACDBPLACEHOLDER
  2
AcDbPlaceHolder
  3
ObjectDBX Classes
 90
        0
280
     0
281
     0
  0
CLASS
  1
LAYOUT
  2
AcDbLayout
  3
ObjectDBX Classes
 90
        0
280
     0
281
     0
  0
ENDSEC
  0
SECTION
  2
TABLES
  0
TABLE
  2
VPORT
  5
8
330
0
100
AcDbSymbolTable
 70
     1
  0
VPORT
  5
29
330
8
100
AcDbSymbolTableRecord
100
AcDbViewportTableRecord
  2
*Active
 70
     0
 10
0.0
 20
0.0
 11
1.0
 21
1.0
 12
148.5
 22
105.0
 13
0.0
 23
0.0
 14
10.0
 24
10.0
 15
10.0
 25
10.0
 16
0.0
 26
0.0
 36
1.0
 17
0.0
 27
0.0
 37
0.0
 40
210.0
 41
1.4142857143
 42
50.0
 43
0.0
 44
0.0
 50
0.0
 51
0.0
 71
     0
 72
  2000
 73
     1
 74
     3
 75
     0
 76
     0
 77
     0
 78
     0
281
     0
 65
     1
110
0.0
120
0.0
130
0.0
111
1.0
121
0.0
131
0.0
112
0.0
122
1.0
132
0.0
 79
     0
146
0.0
  0
ENDTAB
  0
TABLE
  2
LTYPE
  5
5
330
0
100
AcDbSymbolTable
 70
     6
  0
LTYPE
  5
14
330
5
100
AcDbSymbolTableRecord
100
AcDbLinetypeTableRecord
  2
ByBlock
 70
     0
  3

 72
    65
 73
     0
 40
0.0
  0
LTYPE
  5
15
330
5
100
AcDbSymbolTableRecord
100
AcDbLinetypeTableRecord
  2
ByLayer
 70
     0
  3

 72
    65
 73
     0
 40
0.0
  0
LTYPE
  5
16
330
5
100
AcDbSymbolTableRecord
100
AcDbLinetypeTableRecord
  2
Continuous
 70
     0
  3
Solid line
 72
    65
 73
     0
 40
0.0
  0
LTYPE
  5
3F
330
5
100
AcDbSymbolTableRecord
100
AcDbLinetypeTableRecord
  2
HIDDEN
 70
     0
  3
Hidden __ __ __ __ __ __ __ __ __ __ __ __ __ __
 72
    65
 73
     2
 40
1.905
 49
1.27
 74
     0
 49
-0.635
 74
     0
  0
LTYPE
  5
40
330
5
100
AcDbSymbolTableRecord
100
AcDbLinetypeTableRecord
  2
PHANTOM
 70
     0
  3
Phantom ______  __  __  ______  __  __  ______
 72
    65
 73
     6
 40
12.7
 49
6.35
 74
     0
 49
-1.27
 74
     0
 49
1.27
 74
     0
 49
-1.27
 74
     0
 49
1.27
 74
     0
 49
-1.27
 74
     0
  0
LTYPE
  5
41
330
5
100
AcDbSymbolTableRecord
100
AcDbLinetypeTableRecord
  2
CENTER
 70
     0
  3
Center ____ _ ____ _ ____ _ ____ _ ____ _ ____
 72
    65
 73
     4
 40
10.16
 49
6.35
 74
     0
 49
-1.27
 74
     0
 49
1.27
 74
     0
 49
-1.27
 74
     0
  0
LTYPE
  5
42
330
5
100
AcDbSymbolTableRecord
100
AcDbLinetypeTableRecord
  2
CENTERX2
 70
     0
  3
Center (2x) ________  __  ________  __  _____
 72
    65
 73
     4
 40
20.32
 49
12.7
 74
     0
 49
-2.54
 74
     0
 49
2.54
 74
     0
 49
-2.54
 74
     0
  0
LTYPE
  5
43
330
5
100
AcDbSymbolTableRecord
100
AcDbLinetypeTableRecord
  2
DOT2
 70
     0
  3
Dot (.5x) ........................................
 72
    65
 73
     2
 40
0.635
 49
0.0
 74
     0
 49
-0.635
 74
     0
  0
ENDTAB
  0
TABLE
  2
LAYER
  5
2
330
0
100
AcDbSymbolTable
 70
     5
  0
LAYER
  5
10
330
2
100
AcDbSymbolTableRecord
100
AcDbLayerTableRecord
  2
0
 70
     0
 62
     7
  6
Continuous
370
    -3
390
F
  0
LAYER
  5
44
330
2
100
AcDbSymbolTableRecord
100
AcDbLayerTableRecord
  2
FORMAT
 70
     0
 62
     7
  6
Continuous
370
    -3
390
F
  0
LAYER
  5
45
330
2
100
AcDbSymbolTableRecord
100
AcDbLayerTableRecord
  2
VERMASSUNG
 70
     0
 62
     7
  6
Continuous
370
    -3
390
F
  0
LAYER
  5
46
330
2
100
AcDbSymbolTableRecord
100
AcDbLayerTableRecord
  2
KOPF_DÜNN
 70
     0
 62
     7
  6
Continuous
370
    -3
390
F
  0
LAYER
  5
47
330
2
100
AcDbSymbolTableRecord
100
AcDbLayerTableRecord
  2
KOPF_DICK
 70
     0
 62
     7
  6
Continuous
370
    15
390
F
  0
ENDTAB
  0
TABLE
  2
STYLE
  5
3
330
0
100
AcDbSymbolTable
 70
     3
  0
STYLE
  5
11
330
3
100
AcDbSymbolTableRecord
100
AcDbTextStyleTableRecord
  2
Standard
 70
     0
 40
0.0
 41
1.0
 50
0.0
 71
     0
 42
2.0
  3
txt
  4

  0
STYLE
  5
48
330
3
100
AcDbSymbolTableRecord
100
AcDbTextStyleTableRecord
  2
SLDTEXTSTYLE0
 70
     0
 40
0.0
 41
0.7
 50
0.0
 71
     0
 42
0.2
  3
TXT
  4

  0
STYLE
  5
4C
330
3
100
AcDbSymbolTableRecord
100
AcDbTextStyleTableRecord
  2
SLDTEXTSTYLE1
 70
     0
 40
0.0
 41
0.65
 50
0.0
 71
     0
 42
0.2
  3
TXT
  4

  0
ENDTAB
  0
TABLE
  2
VIEW
  5
6
330
0
100
AcDbSymbolTable
 70
     0
  0
ENDTAB
  0
TABLE
  2
UCS
  5
7
330
0
100
AcDbSymbolTable
 70
     0
  0
ENDTAB
  0
TABLE
  2
APPID
  5
9
330
0
100
AcDbSymbolTable
 70
     1
  0
APPID
  5
12
330
9
100
AcDbSymbolTableRecord
100
AcDbRegAppTableRecord
  2
ACAD
 70
     0
  0
ENDTAB
  0
TABLE
  2
DIMSTYLE
  5
A
330
0
100
AcDbSymbolTable
 70
     3
100
AcDbDimStyleTable
  0
DIMSTYLE
105
27
330
A
100
AcDbSymbolTableRecord
100
AcDbDimStyleTableRecord
  2
ISO-25
 70
     0
 41
2.5
 42
0.625
 43
3.75
 44
1.25
 73
     0
 74
     0
 77
     1
 78
     8
140
2.5
141
2.5
143
0.0393700787
147
0.625
171
     3
172
     1
178
     0
271
     2
272
     2
274
     3
278
    44
283
     0
284
     8
340
11
  0
DIMSTYLE
105
159
102
{ACAD_REACTORS
330
158
330
163
330
16D
330
1AA
330
1B4
330
1BE
330
1C8
330
1D2
330
1DC
330
282
102
}
330
A
100
AcDbSymbolTableRecord
100
AcDbDimStyleTableRecord
  2
SLDDIMSTYLE0
 70
     0
 41
3.0
 44
0.0
 45
0.000000001
 73
     0
 74
     0
 77
     1
 78
    12
 79
     3
140
2.0
147
0.5
173
     1
178
     0
271
     2
272
     3
276
     2
284
    12
340
48
  0
DIMSTYLE
105
1E7
102
{ACAD_REACTORS
330
1E6
102
}
330
A
100
AcDbSymbolTableRecord
100
AcDbDimStyleTableRecord
  2
SLDDIMSTYLE1
 70
     0
 41
3.0
 44
0.0
 45
0.000000001
 73
     0
 74
     0
 77
     1
 78
    12
 79
     3
140
2.0
141
0.0
147
0.5
173
     1
178
     0
271
     2
272
     3
276
     2
284
    12
340
48
  0
ENDTAB
  0
TABLE
  2
BLOCK_RECORD
  5
1
330
0
100
AcDbSymbolTable
 70
    13
  0
BLOCK_RECORD
  5
1F
330
1
100
AcDbSymbolTableRecord
100
AcDbBlockTableRecord
  2
*Model_Space
340
22
  0
BLOCK_RECORD
  5
1B
330
1
100
AcDbSymbolTableRecord
100
AcDbBlockTableRecord
  2
*Paper_Space
340
1E
  0
BLOCK_RECORD
  5
23
330
1
100
AcDbSymbolTableRecord
100
AcDbBlockTableRecord
  2
*Paper_Space0
340
26
  0
BLOCK_RECORD
  5
15A
330
1
100
AcDbSymbolTableRecord
100
AcDbBlockTableRecord
  2
_D
340
0
  0
BLOCK_RECORD
  5
164
330
1
100
AcDbSymbolTableRecord
100
AcDbBlockTableRecord
  2
_D_1
340
0
  0
BLOCK_RECORD
  5
16E
330
1
100
AcDbSymbolTableRecord
100
AcDbBlockTableRecord
  2
_D_2
340
0
  0
BLOCK_RECORD
  5
1AB
330
1
100
AcDbSymbolTableRecord
100
AcDbBlockTableRecord
  2
_D_3
340
0
  0
BLOCK_RECORD
  5
1B5
330
1
100
AcDbSymbolTableRecord
100
AcDbBlockTableRecord
  2
_D_4
340
0
  0
BLOCK_RECORD
  5
1BF
330
1
100
AcDbSymbolTableRecord
100
AcDbBlockTableRecord
  2
_D_5
340
0
  0
BLOCK_RECORD
  5
1C9
330
1
100
AcDbSymbolTableRecord
100
AcDbBlockTableRecord
  2
_D_6
340
0
  0
BLOCK_RECORD
  5
1D3
330
1
100
AcDbSymbolTableRecord
100
AcDbBlockTableRecord
  2
_D_7
340
0
  0
BLOCK_RECORD
  5
1DD
330
1
100
AcDbSymbolTableRecord
100
AcDbBlockTableRecord
  2
_D_8
340
0
  0
BLOCK_RECORD
  5
1E8
330
1
100
AcDbSymbolTableRecord
100
AcDbBlockTableRecord
  2
_D_9
340
0
  0
BLOCK_RECORD
  5
1EF
330
1
100
AcDbSymbolTableRecord
100
AcDbBlockTableRecord
  2
SW_CENTERMARKSYMBOL_0
340
0
102
{BLKREFS
331
1FA
102
}
  0
BLOCK_RECORD
  5
283
330
1
100
AcDbSymbolTableRecord
100
AcDbBlockTableRecord
  2
_D_10
340
0
  0
ENDTAB
  0
ENDSEC
  0
SECTION
  2
BLOCKS
  0
BLOCK
  5
20
330
1F
100
AcDbEntity
  8
0
100
AcDbBlockBegin
  2
*Model_Space
 70
     0
 10
0.0
 20
0.0
 30
0.0
  3
*Model_Space
  1

  0
ENDBLK
  5
21
330
1F
100
AcDbEntity
  8
0
100
AcDbBlockEnd
  0
BLOCK
  5
1C
330
1B
100
AcDbEntity
 67
     1
  8
0
100
AcDbBlockBegin
  2
*Paper_Space
 70
     0
 10
0.0
 20
0.0
 30
0.0
  3
*Paper_Space
  1

  0
ENDBLK
  5
1D
330
1B
100
AcDbEntity
 67
     1
  8
0
100
AcDbBlockEnd
  0
BLOCK
  5
24
330
23
100
AcDbEntity
  8
0
100
AcDbBlockBegin
  2
*Paper_Space0
 70
     0
 10
0.0
 20
0.0
 30
0.0
  3
*Paper_Space0
  1

  0
ENDBLK
  5
25
330
23
100
AcDbEntity
  8
0
100
AcDbBlockEnd
  0
BLOCK
  5
15B
330
15A
100
AcDbEntity
  8
0
100
AcDbBlockBegin
  2
_D
 70
     0
 10
0.0
 20
0.0
 30
0.0
  3
_D
  1

  0
SOLID
  5
15D
330
15A
100
AcDbEntity
  8
VERMASSUNG
100
AcDbTrace
 10
147.388448002
 20
124.2641462233
 30
0.0
 11
150.388448002
 21
123.8141462233
 31
0.0
 12
150.388448002
 22
124.7141462233
 32
0.0
 13
150.388448002
 23
124.7141462233
 33
0.0
  0
SOLID
  5
15E
330
15A
100
AcDbEntity
  8
VERMASSUNG
100
AcDbTrace
 10
269.288448002
 20
124.2641462233
 30
0.0
 11
266.288448002
 21
124.7141462233
 31
0.0
 12
266.288448002
 22
123.8141462233
 32
0.0
 13
266.288448002
 23
123.8141462233
 33
0.0
  0
LINE
  5
15F
330
15A
100
AcDbEntity
  8
VERMASSUNG
100
AcDbLine
 10
147.388448002
 20
102.7402067279
 30
0.0
 11
147.388448002
 21
125.2641462233
 31
0.0
  0
LINE
  5
160
330
15A
100
AcDbEntity
  8
VERMASSUNG
100
AcDbLine
 10
269.288448002
 20
108.7641462233
 30
0.0
 11
269.288448002
 21
125.2641462233
 31
0.0
  0
LINE
  5
161
330
15A
100
AcDbEntity
  8
VERMASSUNG
100
AcDbLine
 10
147.388448002
 20
124.2641462233
 30
0.0
 11
269.288448002
 21
124.2641462233
 31
0.0
  0
MTEXT
  5
162
330
15A
100
AcDbEntity
  8
VERMASSUNG
100
AcDbMText
 10
205.6391185621
 20
126.8422815864
 30
0.0
 40
2.0
 41
0.0
 71
     1
 72
     1
  1
121.9
  7
SLDTEXTSTYLE0
 73
     1
 44
1.0
  0
ENDBLK
  5
15C
330
15A
100
AcDbEntity
  8
0
100
AcDbBlockEnd
  0
BLOCK
  5
165
330
164
100
AcDbEntity
  8
0
100
AcDbBlockBegin
  2
_D_1
 70
     0
 10
0.0
 20
0.0
 30
0.0
  3
_D_1
  1

  0
SOLID
  5
167
330
164
100
AcDbEntity
  8
VERMASSUNG
100
AcDbTrace
 10
179.288448002
 20
118.2641462233
 30
0.0
 11
182.288448002
 21
117.8141462233
 31
0.0
 12
182.288448002
 22
118.7141462233
 32
0.0
 13
182.288448002
 23
118.7141462233
 33
0.0
  0
SOLID
  5
168
330
164
100
AcDbEntity
  8
VERMASSUNG
100
AcDbTrace
 10
269.288448002
 20
118.2641462233
 30
0.0
 11
266.288448002
 21
118.7141462233
 31
0.0
 12
266.288448002
 22
117.8141462233
 32
0.0
 13
266.288448002
 23
117.8141462233
 33
0.0
  0
LINE
  5
169
330
164
100
AcDbEntity
  8
VERMASSUNG
100
AcDbLine
 10
179.288448002
 20
113.9641462233
 30
0.0
 11
179.288448002
 21
119.2641462233
 31
0.0
  0
LINE
  5
16A
330
164
100
AcDbEntity
  8
VERMASSUNG
100
AcDbLine
 10
269.288448002
 20
108.7641462233
 30
0.0
 11
269.288448002
 21
119.2641462233
 31
0.0
  0
LINE
  5
16B
330
164
100
AcDbEntity
  8
VERMASSUNG
100
AcDbLine
 10
179.288448002
 20
118.2641462233
 30
0.0
 11
269.288448002
 21
118.2641462233
 31
0.0
  0
MTEXT
  5
16C
330
164
100
AcDbEntity
  8
VERMASSUNG
100
AcDbMText
 10
222.8894804612
 20
120.8422815864
 30
0.0
 40
2.0
 41
0.0
 71
     1
 72
     1
  1
90
  7
SLDTEXTSTYLE0
 73
     1
 44
1.0
  0
ENDBLK
  5
166
330
164
100
AcDbEntity
  8
0
100
AcDbBlockEnd
  0
BLOCK
  5
16F
330
16E
100
AcDbEntity
  8
0
100
AcDbBlockBegin
  2
_D_2
 70
     0
 10
0.0
 20
0.0
 30
0.0
  3
_D_2
  1

  0
SOLID
  5
171
330
16E
100
AcDbEntity
  8
VERMASSUNG
100
AcDbTrace
 10
141.7699891658
 20
114.2641462233
 30
0.0
 11
141.3199891658
 21
111.2641462233
 31
0.0
 12
142.2199891658
 22
111.2641462233
 32
0.0
 13
142.2199891658
 23
111.2641462233
 33
0.0
  0
SOLID
  5
172
330
16E
100
AcDbEntity
  8
VERMASSUNG
100
AcDbTrace
 10
141.7699891658
 20
51.2641462233
 30
0.0
 11
142.2199891658
 21
54.2641462233
 31
0.0
 12
141.3199891658
 22
54.2641462233
 32
0.0
 13
141.3199891658
 23
54.2641462233
 33
0.0
  0
LINE
  5
173
330
16E
100
AcDbEntity
  8
VERMASSUNG
100
AcDbLine
 10
179.588448002
 20
114.2641462233
 30
0.0
 11
140.7699891658
 21
114.2641462233
 31
0.0
  0
LINE
  5
174
330
16E
100
AcDbEntity
  8
VERMASSUNG
100
AcDbLine
 10
179.588448002
 20
51.2641462233
 30
0.0
 11
140.7699891658
 21
51.2641462233
 31
0.0
  0
LINE
  5
175
330
16E
100
AcDbEntity
  8
VERMASSUNG
100
AcDbLine
 10
141.7699891658
 20
114.2641462233
 30
0.0
 11
141.7699891658
 21
51.2641462233
 31
0.0
  0
MTEXT
  5
176
330
16E
100
AcDbEntity
  8
VERMASSUNG
100
AcDbMText
 10
138.9918536767
 20
75.1604186823
 30
0.0
 40
2.0
 41
0.0
 71
     1
 72
     1
  1
HSK T
  7
SLDTEXTSTYLE0
 11
-7.044195017643634E-15
 21
1.0
 31
0.0
 73
     1
 44
1.0
  0
MTEXT
  5
177
330
16E
100
AcDbEntity
  8
VERMASSUNG
100
AcDbMText
 10
139.1918536862
 20
83.9604186346
 30
0.0
 40
2.0
 41
0.0
 71
     1
 72
     1
  1
%%c
  7
SLDTEXTSTYLE0
 11
-7.044195017643634E-15
 21
1.0
 31
0.0
 73
     1
 44
1.0
  0
MTEXT
  5
178
330
16E
100
AcDbEntity
  8
VERMASSUNG
100
AcDbMText
 10
139.1918538026
 20
87.5699386827
 30
0.0
 40
2.0
 41
0.0
 71
     1
 72
     1
  1
63
  7
SLDTEXTSTYLE0
 11
-7.044195017643634E-15
 21
1.0
 31
0.0
 73
     1
 44
1.0
  0
ENDBLK
  5
170
330
16E
100
AcDbEntity
  8
0
100
AcDbBlockEnd
  0
BLOCK
  5
1AC
330
1AB
100
AcDbEntity
  8
0
100
AcDbBlockBegin
  2
_D_3
 70
     0
 10
0.0
 20
0.0
 30
0.0
  3
_D_3
  1

  0
SOLID
  5
1AE
330
1AB
100
AcDbEntity
  8
VERMASSUNG
100
AcDbTrace
 10
84.6676639312
 20
45.9383531961
 30
0.0
 11
87.6676639312
 21
45.4883531961
 31
0.0
 12
87.6676639312
 22
46.3883531961
 32
0.0
 13
87.6676639312
 23
46.3883531961
 33
0.0
  0
SOLID
  5
1AF
330
1AB
100
AcDbEntity
  8
VERMASSUNG
100
AcDbTrace
 10
104.6676639312
 20
45.9383531961
 30
0.0
 11
101.6676639312
 21
46.3883531961
 31
0.0
 12
101.6676639312
 22
45.4883531961
 32
0.0
 13
101.6676639312
 23
45.4883531961
 33
0.0
  0
LINE
  5
1B0
330
1AB
100
AcDbEntity
  8
VERMASSUNG
100
AcDbLine
 10
84.6676639312
 20
48.7641462233
 30
0.0
 11
84.6676639312
 21
44.9383531961
 31
0.0
  0
LINE
  5
1B1
330
1AB
100
AcDbEntity
  8
VERMASSUNG
100
AcDbLine
 10
104.6676639312
 20
52.7641462233
 30
0.0
 11
104.6676639312
 21
44.9383531961
 31
0.0
  0
LINE
  5
1B2
330
1AB
100
AcDbEntity
  8
VERMASSUNG
100
AcDbLine
 10
84.6676639312
 20
45.9383531961
 30
0.0
 11
104.6676639312
 21
45.9383531961
 31
0.0
  0
MTEXT
  5
1B3
330
1AB
100
AcDbEntity
  8
VERMASSUNG
100
AcDbMText
 10
93.2686963904
 20
48.5164885592
 30
0.0
 40
2.0
 41
0.0
 71
     1
 72
     1
  1
20
  7
SLDTEXTSTYLE0
 73
     1
 44
1.0
  0
ENDBLK
  5
1AD
330
1AB
100
AcDbEntity
  8
0
100
AcDbBlockEnd
  0
BLOCK
  5
1B6
330
1B5
100
AcDbEntity
  8
0
100
AcDbBlockBegin
  2
_D_4
 70
     0
 10
0.0
 20
0.0
 30
0.0
  3
_D_4
  1

  0
SOLID
  5
1B8
330
1B5
100
AcDbEntity
  8
VERMASSUNG
100
AcDbTrace
 10
84.6676639312
 20
39.9383531961
 30
0.0
 11
87.6676639312
 21
39.4883531961
 31
0.0
 12
87.6676639312
 22
40.3883531961
 32
0.0
 13
87.6676639312
 23
40.3883531961
 33
0.0
  0
SOLID
  5
1B9
330
1B5
100
AcDbEntity
  8
VERMASSUNG
100
AcDbTrace
 10
119.6676639312
 20
39.9383531961
 30
0.0
 11
116.6676639312
 21
40.3883531961
 31
0.0
 12
116.6676639312
 22
39.4883531961
 32
0.0
 13
116.6676639312
 23
39.4883531961
 33
0.0
  0
LINE
  5
1BA
330
1B5
100
AcDbEntity
  8
VERMASSUNG
100
AcDbLine
 10
84.6676639312
 20
48.7641462233
 30
0.0
 11
84.6676639312
 21
38.9383531961
 31
0.0
  0
LINE
  5
1BB
330
1B5
100
AcDbEntity
  8
VERMASSUNG
100
AcDbLine
 10
119.6676639312
 20
63.3992294922
 30
0.0
 11
119.6676639312
 21
38.9383531961
 31
0.0
  0
LINE
  5
1BC
330
1B5
100
AcDbEntity
  8
VERMASSUNG
100
AcDbLine
 10
84.6676639312
 20
39.9383531961
 30
0.0
 11
119.6676639312
 21
39.9383531961
 31
0.0
  0
MTEXT
  5
1BD
330
1B5
100
AcDbEntity
  8
VERMASSUNG
100
AcDbMText
 10
100.7686963904
 20
42.5164885592
 30
0.0
 40
2.0
 41
0.0
 71
     1
 72
     1
  1
35
  7
SLDTEXTSTYLE0
 73
     1
 44
1.0
  0
ENDBLK
  5
1B7
330
1B5
100
AcDbEntity
  8
0
100
AcDbBlockEnd
  0
BLOCK
  5
1C0
330
1BF
100
AcDbEntity
  8
0
100
AcDbBlockBegin
  2
_D_5
 70
     0
 10
0.0
 20
0.0
 30
0.0
  3
_D_5
  1

  0
SOLID
  5
1C2
330
1BF
100
AcDbEntity
  8
VERMASSUNG
100
AcDbTrace
 10
58.6676639312
 20
33.9383531961
 30
0.0
 11
61.6676639312
 21
33.4883531961
 31
0.0
 12
61.6676639312
 22
34.3883531961
 32
0.0
 13
61.6676639312
 23
34.3883531961
 33
0.0
  0
SOLID
  5
1C3
330
1BF
100
AcDbEntity
  8
VERMASSUNG
100
AcDbTrace
 10
119.6676639312
 20
33.9383531961
 30
0.0
 11
116.6676639312
 21
34.3883531961
 31
0.0
 12
116.6676639312
 22
33.4883531961
 32
0.0
 13
116.6676639312
 23
33.4883531961
 33
0.0
  0
LINE
  5
1C4
330
1BF
100
AcDbEntity
  8
VERMASSUNG
100
AcDbLine
 10
58.6676639312
 20
52.7641462233
 30
0.0
 11
58.6676639312
 21
32.9383531961
 31
0.0
  0
LINE
  5
1C5
330
1BF
100
AcDbEntity
  8
VERMASSUNG
100
AcDbLine
 10
119.6676639312
 20
63.3992294922
 30
0.0
 11
119.6676639312
 21
32.9383531961
 31
0.0
  0
LINE
  5
1C6
330
1BF
100
AcDbEntity
  8
VERMASSUNG
100
AcDbLine
 10
58.6676639312
 20
33.9383531961
 30
0.0
 11
119.6676639312
 21
33.9383531961
 31
0.0
  0
MTEXT
  5
1C7
330
1BF
100
AcDbEntity
  8
VERMASSUNG
100
AcDbMText
 10
87.9683728147
 20
36.5164885592
 30
0.0
 40
2.0
 41
0.0
 71
     1
 72
     1
  1
61
  7
SLDTEXTSTYLE0
 73
     1
 44
1.0
  0
ENDBLK
  5
1C1
330
1BF
100
AcDbEntity
  8
0
100
AcDbBlockEnd
  0
BLOCK
  5
1CA
330
1C9
100
AcDbEntity
  8
0
100
AcDbBlockBegin
  2
_D_6
 70
     0
 10
0.0
 20
0.0
 30
0.0
  3
_D_6
  1

  0
SOLID
  5
1CC
330
1C9
100
AcDbEntity
  8
VERMASSUNG
100
AcDbTrace
 10
48.2460455038
 20
52.7641462233
 30
0.0
 11
48.6960455038
 21
55.7641462233
 31
0.0
 12
47.7960455038
 22
55.7641462233
 32
0.0
 13
47.7960455038
 23
55.7641462233
 33
0.0
  0
SOLID
  5
1CD
330
1C9
100
AcDbEntity
  8
VERMASSUNG
100
AcDbTrace
 10
48.2460455038
 20
72.7641462233
 30
0.0
 11
47.7960455038
 21
69.7641462233
 31
0.0
 12
48.6960455038
 22
69.7641462233
 32
0.0
 13
48.6960455038
 23
69.7641462233
 33
0.0
  0
LINE
  5
1CE
330
1C9
100
AcDbEntity
  8
VERMASSUNG
100
AcDbLine
 10
58.6676639312
 20
52.7641462233
 30
0.0
 11
47.2460455038
 21
52.7641462233
 31
0.0
  0
LINE
  5
1CF
330
1C9
100
AcDbEntity
  8
VERMASSUNG
100
AcDbLine
 10
79.4176639312
 20
72.7641462233
 30
0.0
 11
47.2460455038
 21
72.7641462233
 31
0.0
  0
LINE
  5
1D0
330
1C9
100
AcDbEntity
  8
VERMASSUNG
100
AcDbLine
 10
48.2460455038
 20
52.7641462233
 30
0.0
 11
48.2460455038
 21
72.7641462233
 31
0.0
  0
MTEXT
  5
1D1
330
1C9
100
AcDbEntity
  8
VERMASSUNG
100
AcDbMText
 10
45.6679101407
 20
61.3651786825
 30
0.0
 40
2.0
 41
0.0
 71
     1
 72
     1
  1
20
  7
SLDTEXTSTYLE0
 11
-1.608122649676637E-16
 21
1.0
 31
0.0
 73
     1
 44
1.0
  0
ENDBLK
  5
1CB
330
1C9
100
AcDbEntity
  8
0
100
AcDbBlockEnd
  0
BLOCK
  5
1D4
330
1D3
100
AcDbEntity
  8
0
100
AcDbBlockBegin
  2
_D_7
 70
     0
 10
0.0
 20
0.0
 30
0.0
  3
_D_7
  1

  0
SOLID
  5
1D6
330
1D3
100
AcDbEntity
  8
VERMASSUNG
100
AcDbTrace
 10
42.2460455038
 20
82.7641462233
 30
0.0
 11
41.7960455038
 21
79.7641462233
 31
0.0
 12
42.6960455038
 22
79.7641462233
 32
0.0
 13
42.6960455038
 23
79.7641462233
 33
0.0
  0
SOLID
  5
1D7
330
1D3
100
AcDbEntity
  8
VERMASSUNG
100
AcDbTrace
 10
42.2460455038
 20
52.7641462233
 30
0.0
 11
42.6960455038
 21
55.7641462233
 31
0.0
 12
41.7960455038
 22
55.7641462233
 32
0.0
 13
41.7960455038
 23
55.7641462233
 33
0.0
  0
LINE
  5
1D8
330
1D3
100
AcDbEntity
  8
VERMASSUNG
100
AcDbLine
 10
50.6676639312
 20
82.7641462233
 30
0.0
 11
41.2460455038
 21
82.7641462233
 31
0.0
  0
LINE
  5
1D9
330
1D3
100
AcDbEntity
  8
VERMASSUNG
100
AcDbLine
 10
58.6676639312
 20
52.7641462233
 30
0.0
 11
41.2460455038
 21
52.7641462233
 31
0.0
  0
LINE
  5
1DA
330
1D3
100
AcDbEntity
  8
VERMASSUNG
100
AcDbLine
 10
42.2460455038
 20
82.7641462233
 30
0.0
 11
42.2460455038
 21
52.7641462233
 31
0.0
  0
MTEXT
  5
1DB
330
1D3
100
AcDbEntity
  8
VERMASSUNG
100
AcDbMText
 10
39.6679101407
 20
66.3651786825
 30
0.0
 40
2.0
 41
0.0
 71
     1
 72
     1
  1
30
  7
SLDTEXTSTYLE0
 11
-7.044195017643634E-15
 21
1.0
 31
0.0
 73
     1
 44
1.0
  0
ENDBLK
  5
1D5
330
1D3
100
AcDbEntity
  8
0
100
AcDbBlockEnd
  0
BLOCK
  5
1DE
330
1DD
100
AcDbEntity
  8
0
100
AcDbBlockBegin
  2
_D_8
 70
     0
 10
0.0
 20
0.0
 30
0.0
  3
_D_8
  1

  0
SOLID
  5
1E0
330
1DD
100
AcDbEntity
  8
VERMASSUNG
100
AcDbTrace
 10
36.2460455038
 20
108.7641462233
 30
0.0
 11
35.7960455038
 21
105.7641462233
 31
0.0
 12
36.6960455038
 22
105.7641462233
 32
0.0
 13
36.6960455038
 23
105.7641462233
 33
0.0
  0
SOLID
  5
1E1
330
1DD
100
AcDbEntity
  8
VERMASSUNG
100
AcDbTrace
 10
36.2460455038
 20
52.7641462233
 30
0.0
 11
36.6960455038
 21
55.7641462233
 31
0.0
 12
35.7960455038
 22
55.7641462233
 32
0.0
 13
35.7960455038
 23
55.7641462233
 33
0.0
  0
LINE
  5
1E2
330
1DD
100
AcDbEntity
  8
VERMASSUNG
100
AcDbLine
 10
73.6676639312
 20
108.7641462233
 30
0.0
 11
35.2460455038
 21
108.7641462233
 31
0.0
  0
LINE
  5
1E3
330
1DD
100
AcDbEntity
  8
VERMASSUNG
100
AcDbLine
 10
58.6676639312
 20
52.7641462233
 30
0.0
 11
35.2460455038
 21
52.7641462233
 31
0.0
  0
LINE
  5
1E4
330
1DD
100
AcDbEntity
  8
VERMASSUNG
100
AcDbLine
 10
36.2460455038
 20
108.7641462233
 30
0.0
 11
36.2460455038
 21
52.7641462233
 31
0.0
  0
MTEXT
  5
1E5
330
1DD
100
AcDbEntity
  8
VERMASSUNG
100
AcDbMText
 10
33.6679101407
 20
79.3651786825
 30
0.0
 40
2.0
 41
0.0
 71
     1
 72
     1
  1
56
  7
SLDTEXTSTYLE0
 11
-7.044195017643634E-15
 21
1.0
 31
0.0
 73
     1
 44
1.0
  0
ENDBLK
  5
1DF
330
1DD
100
AcDbEntity
  8
0
100
AcDbBlockEnd
  0
BLOCK
  5
1E9
330
1E8
100
AcDbEntity
  8
0
100
AcDbBlockBegin
  2
_D_9
 70
     0
 10
0.0
 20
0.0
 30
0.0
  3
_D_9
  1

  0
SOLID
  5
1EB
330
1E8
100
AcDbEntity
  8
VERMASSUNG
100
AcDbTrace
 10
116.1287566407
 20
58.0619267779
 30
0.0
 11
118.2104386251
 21
55.8553230266
 31
0.0
 12
118.7662385626
 22
56.5631976125
 32
0.0
 13
118.7662385626
 23
56.5631976125
 33
0.0
  0
LINE
  5
1EC
330
1E8
100
AcDbEntity
  8
VERMASSUNG
100
AcDbLine
 10
116.1287566407
 20
58.0619267779
 30
0.0
 11
128.377248303
 21
48.4448123404
 31
0.0
  0
MTEXT
  5
1ED
330
1E8
100
AcDbEntity
  8
VERMASSUNG
100
AcDbMText
 10
123.6807563087
 20
55.4085304371
 30
0.0
 40
2.0
 41
0.0
 71
     1
 72
     1
  1
%%c
  7
SLDTEXTSTYLE0
 11
0.7865273177368628
 21
-0.6175554861335587
 31
0.0
 73
     1
 44
1.0
  0
MTEXT
  5
1EE
330
1E8
100
AcDbEntity
  8
VERMASSUNG
100
AcDbMText
 10
126.5193069653
 20
53.179793294
 30
0.0
 40
2.0
 41
0.0
 71
     1
 72
     1
  1
80
  7
SLDTEXTSTYLE0
 11
0.7865273177368628
 21
-0.6175554861335587
 31
0.0
 73
     1
 44
1.0
  0
ENDBLK
  5
1EA
330
1E8
100
AcDbEntity
  8
0
100
AcDbBlockEnd
  0
BLOCK
  5
1F0
330
1EF
100
AcDbEntity
  8
0
100
AcDbBlockBegin
  2
SW_CENTERMARKSYMBOL_0
 70
     0
 10
0.0
 20
0.0
 30
0.0
  3
SW_CENTERMARKSYMBOL_0
  1

  0
LINE
  5
1F2
330
1EF
100
AcDbEntity
  8
VERMASSUNG
 62
     0
100
AcDbLine
 10
0.0
 20
0.0
 30
0.0
 11
0.0
 21
2.5
 31
0.0
  0
LINE
  5
1F3
330
1EF
100
AcDbEntity
  8
VERMASSUNG
 62
     0
100
AcDbLine
 10
0.0
 20
0.0
 30
0.0
 11
-2.5
 21
0.0
 31
0.0
  0
LINE
  5
1F4
330
1EF
100
AcDbEntity
  8
VERMASSUNG
 62
     0
100
AcDbLine
 10
0.0
 20
0.0
 30
0.0
 11
0.0
 21
-2.5
 31
0.0
  0
LINE
  5
1F5
330
1EF
100
AcDbEntity
  8
VERMASSUNG
 62
     0
100
AcDbLine
 10
0.0
 20
0.0
 30
0.0
 11
2.5
 21
0.0
 31
0.0
  0
LINE
  5
1F6
330
1EF
100
AcDbEntity
  8
VERMASSUNG
 62
     0
100
AcDbLine
 10
0.0
 20
5.0
 30
0.0
 11
0.0
 21
34.0
 31
0.0
  0
LINE
  5
1F7
330
1EF
100
AcDbEntity
  8
VERMASSUNG
 62
     0
100
AcDbLine
 10
-5.0
 20
0.0
 30
0.0
 11
-34.0
 21
0.0
 31
0.0
  0
LINE
  5
1F8
330
1EF
100
AcDbEntity
  8
VERMASSUNG
 62
     0
100
AcDbLine
 10
0.0
 20
-5.0
 30
0.0
 11
0.0
 21
-34.0
 31
0.0
  0
LINE
  5
1F9
330
1EF
100
AcDbEntity
  8
VERMASSUNG
 62
     0
100
AcDbLine
 10
5.0
 20
0.0
 30
0.0
 11
34.0
 21
0.0
 31
0.0
  0
ENDBLK
  5
1F1
330
1EF
100
AcDbEntity
  8
0
100
AcDbBlockEnd
  0
BLOCK
  5
284
330
283
100
AcDbEntity
  8
0
100
AcDbBlockBegin
  2
_D_10
 70
     0
 10
0.0
 20
0.0
 30
0.0
  3
_D_10
  1

  0
SOLID
  5
286
330
283
100
AcDbEntity
  8
VERMASSUNG
100
AcDbTrace
 10
224.288448002
 20
134.5888407367
 30
0.0
 11
227.288448002
 21
134.1388407367
 31
0.0
 12
227.288448002
 22
135.0388407367
 32
0.0
 13
227.288448002
 23
135.0388407367
 33
0.0
  0
SOLID
  5
287
330
283
100
AcDbEntity
  8
VERMASSUNG
100
AcDbTrace
 10
269.288448002
 20
134.5888407367
 30
0.0
 11
266.288448002
 21
135.0388407367
 31
0.0
 12
266.288448002
 22
134.1388407367
 32
0.0
 13
266.288448002
 23
134.1388407367
 33
0.0
  0
LINE
  5
288
330
283
100
AcDbEntity
  8
VERMASSUNG
100
AcDbLine
 10
224.288448002
 20
154.8792701214
 30
0.0
 11
224.288448002
 21
133.5888407367
 31
0.0
  0
LINE
  5
289
330
283
100
AcDbEntity
  8
VERMASSUNG
100
AcDbLine
 10
269.288448002
 20
139.8792701214
 30
0.0
 11
269.288448002
 21
133.5888407367
 31
0.0
  0
LINE
  5
28A
330
283
100
AcDbEntity
  8
VERMASSUNG
100
AcDbLine
 10
224.288448002
 20
134.5888407367
 30
0.0
 11
269.288448002
 21
134.5888407367
 31
0.0
  0
MTEXT
  5
28B
330
283
100
AcDbEntity
  8
VERMASSUNG
100
AcDbMText
 10
245.2896422491
 20
137.1669760999
 30
0.0
 40
2.0
 41
0.0
 71
     1
 72
     1
  1
45
  7
SLDTEXTSTYLE0
 73
     1
 44
1.0
  0
ENDBLK
  5
285
330
283
100
AcDbEntity
  8
0
100
AcDbBlockEnd
  0
ENDSEC
  0
SECTION
  2
ENTITIES
  0
MTEXT
  5
49
330
1F
100
AcDbEntity
  8
KOPF_DÜNN
100
AcDbMText
 10
13.8892156294
 20
23.8442973028
 30
0.0
 40
3.0
 41
0.0
 71
     1
 72
     1
  1
HA6.V20.L11.090
  7
SLDTEXTSTYLE0
 73
     1
 44
1.0
  0
MTEXT
  5
4A
330
1F
100
AcDbEntity
  8
VERMASSUNG
100
AcDbMText
 10
13.9329988022
 20
28.8834360957
 30
0.0
 40
3.0
 41
0.0
 71
     1
 72
     1
  1
Werkzeughalter axial_Tool holder axial
  7
SLDTEXTSTYLE0
 73
     1
 44
1.0
  0
MTEXT
  5
4B
330
1F
100
AcDbEntity
  8
VERMASSUNG
100
AcDbMText
 10
98.8601118557
 20
13.8365368179
 30
0.0
 40
2.0
 41
0.0
 71
     1
 72
     1
  1
Datum: 18.03.2010
  7
SLDTEXTSTYLE0
 73
     1
 44
1.0
  0
MTEXT
  5
4D
330
1F
100
AcDbEntity
  8
VERMASSUNG
100
AcDbMText
 10
13.933048693
 20
18.0482802738
 30
0.0
 40
2.0
 41
0.0
 71
     1
 72
     1
  1
DIN 69893 HSK T ø63  / 20x20
  7
SLDTEXTSTYLE1
 73
     1
 44
1.0
  0
MTEXT
  5
4E
330
1F
100
AcDbEntity
  8
VERMASSUNG
100
AcDbMText
 10
13.9808475933
 20
13.9090973692
 30
0.0
 40
2.0
 41
0.0
 71
     1
 72
     1
  1
Gewicht: 1908g
  7
SLDTEXTSTYLE0
 73
     1
 44
1.0
  0
LINE
  5
4F
330
1F
100
AcDbEntity
  8
0
  6
Continuous
 62
     7
370
    15
100
AcDbLine
 10
179.5884480163
 20
51.2641457166
 30
0.0
 11
184.2384479752
 21
51.2641457166
 31
0.0
  0
LINE
  5
50
330
1F
100
AcDbEntity
  8
0
  6
Continuous
 62
     7
370
    15
100
AcDbLine
 10
184.2664365469
 20
114.2641467299
 30
0.0
 11
179.5884480163
 21
114.2641467299
 31
0.0
  0
ARC
  5
51
330
1F
100
AcDbEntity
  8
0
  6
Continuous
 62
     7
370
    15
100
AcDbCircle
 10
179.588448002
 20
51.5641462233
 30
0.0
 40
0.3000000000000114
100
AcDbArc
 50
180.0
 51
270.0
  0
ARC
  5
52
330
1F
100
AcDbEntity
  8
0
  6
Continuous
 62
     7
370
    15
100
AcDbCircle
 10
179.588448002
 20
113.9641462233
 30
0.0
 40
0.3000000000000114
100
AcDbArc
 50
90.0
 51
180.0
  0
ARC
  5
53
330
1F
100
AcDbEntity
  8
0
  6
Continuous
 62
     7
370
    15
100
AcDbCircle
 10
206.238448002
 20
55.7641462233
 30
0.0
 40
1.000000000000013
100
AcDbArc
 50
90.0
 51
143.1139143113
  0
ARC
  5
54
330
1F
100
AcDbEntity
  8
0
  6
Continuous
 62
     7
370
    15
100
AcDbCircle
 10
206.238448002
 20
109.7641462233
 30
0.0
 40
1.000000000000007
100
AcDbArc
 50
216.9014908244
 51
270.0
  0
LINE
  5
55
330
1F
100
AcDbEntity
  8
0
  6
Continuous
 62
     7
370
    15
100
AcDbLine
 10
221.4870463869
 20
56.0229656544
 30
0.0
 11
222.360243257
 21
52.7641468938
 31
0.0
  0
ARC
  5
56
330
1F
100
AcDbEntity
  8
0
  6
Continuous
 62
     7
370
    15
100
AcDbCircle
 10
220.521121014
 20
55.7641462233
 30
0.0
 40
1.0
100
AcDbArc
 50
15.0
 51
90.0
  0
LINE
  5
57
330
1F
100
AcDbEntity
  8
0
  6
Continuous
 62
     7
370
    15
100
AcDbLine
 10
206.238447856
 20
56.7641456868
 30
0.0
 11
220.5211195907
 21
56.7641456868
 31
0.0
  0
LINE
  5
58
330
1F
100
AcDbEntity
  8
0
  6
Continuous
 62
     7
370
    15
100
AcDbLine
 10
220.5211195907
 20
108.7641467597
 30
0.0
 11
206.238447856
 21
108.7641467597
 31
0.0
  0
ARC
  5
59
330
1F
100
AcDbEntity
  8
0
  6
Continuous
 62
     7
370
    15
100
AcDbCircle
 10
178.788448002
 20
58.1937153616
 30
0.0
 40
0.6000000000000014
100
AcDbArc
 50
33.5573097619
 51
90.0
  0
ARC
  5
5A
330
1F
100
AcDbEntity
  8
0
  6
Continuous
 62
     7
370
    15
100
AcDbCircle
 10
178.788448002
 20
107.334577085
 30
0.0
 40
0.5999999999999943
100
AcDbArc
 50
270.0
 51
326.4426902381
  0
LINE
  5
5B
330
1F
100
AcDbEntity
  8
0
  6
Continuous
 62
     7
370
    15
100
AcDbLine
 10
177.288447907
 20
58.5437149998
 30
0.0
 11
178.1451608332
 21
58.7732711133
 31
0.0
  0
LINE
  5
5C
330
1F
100
AcDbEntity
  8
0
  6
Continuous
 62
     7
370
    15
100
AcDbLine
 10
178.1451608332
 20
106.7550213333
 30
0.0
 11
177.288447907
 21
106.9845774468
 31
0.0
  0
LINE
  5
5D
330
1F
100
AcDbEntity
  8
0
  6
Continuous
 62
     7
370
    15
100
AcDbLine
 10
166.0569395682
 20
106.4218760725
 30
0.0
 11
153.4884471258
 21
105.792192116
 31
0.0
  0
LINE
  5
5E
330
1F
100
AcDbEntity
  8
0
  6
Continuous
 62
     7
370
    15
100
AcDbLine
 10
177.288447907
 20
106.9845774468
 30
0.0
 11
174.4714464804
 21
106.8434448238
 31
0.0
  0
LINE
  5
5F
330
1F
100
AcDbEntity
  8
0
  6
Continuous
 62
     7
370
    15
100
AcDbLine
 10
174.4715023598
 20
58.6848457601
 30
0.0
 11
177.288447907
 21
58.5437149998
 31
0.0
  0
LINE
  5
60
330
1F
100
AcDbEntity
  8
0
  6
Continuous
 62
     7
370
    15
100
AcDbLine
 10
157.4884477815
 20
59.5357002016
 30
0.0
 11
166.0573418995
 21
59.106395885
 31
0.0
  0
ARC
  5
61
330
1F
100
AcDbEntity
  8
0
  6
Continuous
 62
     7
370
    15
100
AcDbCircle
 10
178.3004522025
 20
58.1937153616
 30
0.0
 40
0.6000000000000145
100
AcDbArc
 50
90.0
 51
105.0
  0
ARC
  5
62
330
1F
100
AcDbEntity
  8
0
  6
Continuous
 62
     7
370
    15
100
AcDbCircle
 10
178.3004522025
 20
107.334577085
 30
0.0
 40
0.6000000000000145
100
AcDbArc
 50
255.0
 51
270.0
  0
LINE
  5
63
330
1F
100
AcDbEntity
  8
0
  6
Continuous
 62
     7
370
    15
100
AcDbLine
 10
178.3004522368
 20
58.7937155064
 30
0.0
 11
178.7884479783
 21
58.7937155064
 31
0.0
  0
LINE
  5
64
330
1F
100
AcDbEntity
  8
0
  6
Continuous
 62
     7
370
    15
100
AcDbLine
 10
178.7884479783
 20
106.7345769402
 30
0.0
 11
178.3004522368
 21
106.7345769402
 31
0.0
  0
LINE
  5
65
330
1F
100
AcDbEntity
  8
0
  6
Continuous
 62
     7
370
    15
100
AcDbLine
 10
148.5384471526
 20
61.8941460993
 30
0.0
 11
156.0884482971
 21
61.8941460993
 31
0.0
  0
ARC
  5
66
330
1F
100
AcDbEntity
  8
0
  6
Continuous
 62
     7
370
    15
100
AcDbCircle
 10
156.088448002
 20
60.4941462233
 30
0.0
 40
1.400000000000003
100
AcDbArc
 50
41.1788388679
 51
90.0
  0
ARC
  5
67
330
1F
100
AcDbEntity
  8
0
  6
Continuous
 62
     7
370
    15
100
AcDbCircle
 10
152.088448002
 20
105.0341462233
 30
0.0
 40
1.400000000000003
100
AcDbArc
 50
270.0
 51
301.7485287426
  0
LINE
  5
68
330
1F
100
AcDbEntity
  8
0
  6
Continuous
 62
     7
370
    15
100
AcDbLine
 10
152.0884476414
 20
103.6341463473
 30
0.0
 11
148.6627135238
 21
103.6341463473
 31
0.0
  0
LINE
  5
69
330
1F
100
AcDbEntity
  8
0
  6
Continuous
 62
     7
370
    15
100
AcDbLine
 10
148.5213164052
 20
103.6242557015
 30
0.0
 11
147.6537335476
 21
103.1233568933
 31
0.0
  0
LINE
  5
6A
330
1F
100
AcDbEntity
  8
0
  6
Continuous
 62
     7
370
    15
100
AcDbLine
 10
148.5281616261
 20
61.900084212
 30
0.0
 11
148.5384471526
 21
61.8941460993
 31
0.0
  0
LINE
  5
6B
330
1F
100
AcDbEntity
  8
0
  6
Continuous
 62
     7
370
    15
100
AcDbLine
 10
147.6140703818
 20
62.4278349128
 30
0.0
 11
148.5281616261
 21
61.900084212
 31
0.0
  0
ARC
  5
6C
330
1F
100
AcDbEntity
  8
0
  6
Continuous
 62
     7
370
    15
100
AcDbCircle
 10
267.288448002
 20
74.7641462233
 30
0.0
 40
4.999999999999989
100
AcDbArc
 50
33.0736970771
 51
66.4218215218
  0
ARC
  5
6D
330
1F
100
AcDbEntity
  8
0
  6
Continuous
 62
     7
370
    15
100
AcDbCircle
 10
267.288448002
 20
74.7641462233
 30
0.0
 40
5.000000000000016
100
AcDbArc
 50
293.5781784782
 51
312.0072811229
  0
LINE
  5
6E
330
1F
100
AcDbEntity
  8
0
  6
Continuous
 62
     7
370
    15
100
AcDbLine
 10
200.6803799233
 20
52.5772285905
 30
0.0
 11
200.6803799233
 21
102.6141469624
 31
0.0
  0
SPLINE
  5
6F
330
1F
100
AcDbEntity
  8
0
  6
Continuous
 62
     7
370
    15
100
AcDbSpline
210
0.0
220
0.0
230
1.0
 70
     8
 71
     3
 72
     8
 73
     4
 74
     0
 42
0.00000001
 43
0.00000001
 12
1.0
 22
0.0
 32
0.0
 13
1.0
 23
0.0
 33
0.0
 40
0.0
 40
0.0
 40
0.0
 40
0.0
 40
1.0
 40
1.0
 40
1.0
 40
1.0
 10
200.6803808334995
 20
52.57722852703719
 30
0.0
 10
200.1849011728337
 20
53.47275461497055
 30
0.0
 10
199.6907871247916
 20
54.36903903002278
 30
0.0
 10
199.1984480020105
 20
55.26630906422948
 30
0.0
  0
LINE
  5
70
330
1F
100
AcDbEntity
  8
0
  6
Continuous
 62
     7
370
    15
100
AcDbLine
 10
199.1984482667
 20
55.2663089033
 30
0.0
 11
199.1984482667
 21
102.6141469624
 31
0.0
  0
SPLINE
  5
71
330
1F
100
AcDbEntity
  8
0
  6
Continuous
 62
     7
370
    15
100
AcDbSpline
210
0.0
220
0.0
230
1.0
 70
    24
 71
     3
 72
     8
 73
     4
 74
     0
 42
0.00000001
 43
0.00000001
 12
1.0
 22
0.0
 32
0.0
 13
1.0
 23
0.0
 33
0.0
 40
0.0
 40
0.0
 40
0.0
 40
0.0
 40
1.0
 40
1.0
 40
1.0
 40
1.0
 10
199.1984480020105
 20
102.6141462232844
 30
0.0
 10
199.6783999963754
 20
102.6141462232844
 30
0.0
 10
200.173700725349
 20
102.6141462232844
 30
0.0
 10
200.6803808334995
 20
102.6141462232844
 30
0.0
  0
LINE
  5
72
330
1F
100
AcDbEntity
  8
0
  6
Continuous
 62
     7
370
    15
100
AcDbLine
 10
205.2384476921
 20
53.2038689848
 30
0.0
 11
205.2384476921
 21
102.6141469624
 31
0.0
  0
SPLINE
  5
73
330
1F
100
AcDbEntity
  8
0
  6
Continuous
 62
     7
370
    15
100
AcDbSpline
210
0.0
220
0.0
230
1.0
 70
     8
 71
     3
 72
    10
 73
     6
 74
     0
 42
0.00000001
 43
0.00000001
 12
1.0
 22
0.0
 32
0.0
 13
1.0
 23
0.0
 33
0.0
 40
0.0
 40
0.0
 40
0.0
 40
0.0
 40
0.5
 40
0.5
 40
1.0
 40
1.0
 40
1.0
 40
1.0
 10
205.2384480020105
 20
53.20386882269153
 30
0.0
 10
205.2384480020105
 20
53.04398155449787
 30
0.0
 10
205.1771383507746
 20
52.88285429898327
 30
0.0
 10
204.9580387132395
 20
52.64875530062843
 30
0.0
 10
204.799990506926
 20
52.57722852703721
 30
0.0
 10
204.6384480020104
 20
52.57722852703721
 30
0.0
  0
SPLINE
  5
74
330
1F
100
AcDbEntity
  8
0
  6
Continuous
 62
     7
370
    15
100
AcDbSpline
210
0.0
220
0.0
230
1.0
 70
    24
 71
     3
 72
    12
 73
     8
 74
     0
 42
0.00000001
 43
0.00000001
 12
1.0
 22
0.0
 32
0.0
 13
1.0
 23
0.0
 33
0.0
 40
0.0
 40
0.0
 40
0.0
 40
0.0
 40
0.2500000000000006
 40
0.2500000000000006
 40
0.5000000000000012
 40
0.5000000000000012
 40
1.0
 40
1.0
 40
1.0
 40
1.0
 10
204.6384480020104
 20
102.6141462232844
 30
0.0
 10
204.7286870696975
 20
102.6141462232844
 30
0.0
 10
204.819585183804
 20
102.6141462232844
 30
0.0
 10
204.9741822202925
 20
102.6141462232844
 30
0.0
 10
205.0391606364006
 20
102.6141462232844
 30
0.0
 10
205.1909956643369
 20
102.6141462232844
 30
0.0
 10
205.2384480020104
 20
102.6141462232844
 30
0.0
 10
205.2384480020104
 20
102.6141462232844
 30
0.0
  0
LINE
  5
75
330
1F
100
AcDbEntity
  8
0
  6
Continuous
 62
     7
370
    15
100
AcDbLine
 10
184.2384479752
 20
102.6141469624
 30
0.0
 11
193.8965154624
 21
102.6141469624
 31
0.0
  0
LINE
  5
76
330
1F
100
AcDbEntity
  8
0
  6
Continuous
 62
     7
370
    15
100
AcDbLine
 10
193.8965154624
 20
52.5772285905
 30
0.0
 11
193.8965154624
 21
102.6141469624
 31
0.0
  0
LINE
  5
77
330
1F
100
AcDbEntity
  8
0
  6
Continuous
 62
     7
370
    15
100
AcDbLine
 10
193.8965154624
 20
52.5772285905
 30
0.0
 11
192.2384483552
 21
52.5772285905
 31
0.0
  0
SPLINE
  5
78
330
1F
100
AcDbEntity
  8
0
  6
Continuous
 62
     7
370
    15
100
AcDbSpline
210
0.0
220
0.0
230
1.0
 70
     8
 71
     3
 72
    28
 73
    24
 74
     0
 42
0.00000001
 43
0.00000001
 12
1.0
 22
0.0
 32
0.0
 13
1.0
 23
0.0
 33
0.0
 40
0.0
 40
0.0
 40
0.0
 40
0.0
 40
0.1250000000000001
 40
0.1250000000000001
 40
0.1875000000000001
 40
0.1875000000000001
 40
0.2500000000000001
 40
0.2500000000000001
 40
0.375
 40
0.375
 40
0.4375000000000001
 40
0.4375000000000001
 40
0.5
 40
0.5
 40
0.625
 40
0.625
 40
0.7499999999999999
 40
0.7499999999999999
 40
0.8124999999999999
 40
0.8124999999999999
 40
0.875
 40
0.875
 40
1.0
 40
1.0
 40
1.0
 40
1.0
 10
192.2384480020104
 20
52.57722852703721
 30
0.0
 10
191.7067402445175
 20
52.5772285270372
 30
0.0
 10
191.1845016792072
 20
52.56144381308699
 30
0.0
 10
190.4146311929322
 20
52.51644839901078
 30
0.0
 10
190.1602716207408
 20
52.49789340393506
 30
0.0
 10
189.6561500400423
 20
52.45404068148855
 30
0.0
 10
189.4064272226144
 20
52.42869607453636
 30
0.0
 10
188.680837271168
 20
52.34529399678625
 30
0.0
 10
188.2224770095864
 20
52.27942843763516
 30
0.0
 10
187.5719790661926
 20
52.17045809714337
 30
0.0
 10
187.3602970154001
 20
52.13221846137672
 30
0.0
 10
186.9562255262621
 20
52.05445972395739
 30
0.0
 10
186.7637190124413
 20
52.01495876178203
 30
0.0
 10
186.21388404142
 20
51.89605101941602
 30
0.0
 10
185.8839552631111
 20
51.81623333799141
 30
0.0
 10
185.2994839945425
 20
51.66289017619534
 30
0.0
 10
185.053206856529
 20
51.59155642292609
 30
0.0
 10
184.753364063831
 20
51.49761291585147
 30
0.0
 10
184.6649072067588
 20
51.46841912249155
 30
0.0
 10
184.5115458534537
 20
51.41495254822812
 30
0.0
 10
184.4464576392274
 20
51.39059321395295
 30
0.0
 10
184.2908636232866
 20
51.32700306850823
 30
0.0
 10
184.2384480020104
 20
51.29690013341897
 30
0.0
 10
184.2384480020104
 20
51.28002324042204
 30
0.0
  0
LINE
  5
79
330
1F
100
AcDbEntity
  8
0
  6
Continuous
 62
     7
370
    15
100
AcDbLine
 10
184.2384479752
 20
51.2800229039
 30
0.0
 11
184.2384479752
 21
51.2641457166
 31
0.0
  0
SPLINE
  5
7A
330
1F
100
AcDbEntity
  8
0
  6
Continuous
 62
     7
370
    15
100
AcDbSpline
210
0.0
220
0.0
230
1.0
 70
     8
 71
     3
 72
    17
 73
    13
 74
     0
 42
0.00000001
 43
0.00000001
 12
1.0
 22
0.0
 32
0.0
 13
1.0
 23
0.0
 33
0.0
 40
0.0
 40
0.0
 40
0.0
 40
0.0
 40
0.1034797280380778
 40
0.2100239090909901
 40
0.3134862262879433
 40
0.4198361712144981
 40
0.5254127947779869
 40
0.6339610881168427
 40
0.7409508662120068
 40
0.8511696072047016
 40
0.9558996557845765
 40
1.0
 40
1.0
 40
1.0
 40
1.0
 10
192.2384483551679
 20
113.2313416596428
 30
0.0
 10
191.8031998634421
 20
113.2367896512804
 30
0.0
 10
190.9198134128651
 20
113.2478469716091
 30
0.0
 10
189.6389855506423
 20
113.3342057319841
 30
0.0
 10
188.4215693552004
 20
113.4620768751171
 30
0.0
 10
187.3137627388746
 20
113.6210212824356
 30
0.0
 10
186.3255242595457
 20
113.7955158554202
 30
0.0
 10
185.5008011597299
 20
113.9646822886071
 30
0.0
 10
184.8518475022313
 20
114.1125630970748
 30
0.0
 10
184.4348121987516
 20
114.2143538485974
 30
0.0
 10
184.2362154558737
 20
114.2647107482318
 30
0.0
 10
184.2595285728616
 20
114.2588011432563
 30
0.0
 10
184.266436546862
 20
114.2570500519053
 30
0.0
  0
LINE
  5
7B
330
1F
100
AcDbEntity
  8
0
  6
Continuous
 62
     7
370
    15
100
AcDbLine
 10
193.8965154624
 20
113.2313416596
 30
0.0
 11
192.2384483552
 21
113.2313416596
 31
0.0
  0
LINE
  5
7C
330
1F
100
AcDbEntity
  8
0
  6
Continuous
 62
     7
370
    15
100
AcDbLine
 10
193.8965154624
 20
107.2228358384
 30
0.0
 11
193.8965154624
 21
113.2313416596
 31
0.0
  0
LINE
  5
7D
330
1F
100
AcDbEntity
  8
0
  6
Continuous
 62
     7
370
    15
100
AcDbLine
 10
191.4840686878
 20
107.2228358384
 30
0.0
 11
193.8965154624
 21
107.2228358384
 31
0.0
  0
SPLINE
  5
7E
330
1F
100
AcDbEntity
  8
0
  6
Continuous
 62
     7
370
    15
100
AcDbSpline
210
0.0
220
0.0
230
1.0
 70
     8
 71
     3
 72
    20
 73
    16
 74
     0
 42
0.00000001
 43
0.00000001
 12
1.0
 22
0.0
 32
0.0
 13
1.0
 23
0.0
 33
0.0
 40
0.0
 40
0.0
 40
0.0
 40
0.0
 40
0.2500000000000005
 40
0.2500000000000005
 40
0.3750000000000004
 40
0.3750000000000004
 40
0.5000000000000003
 40
0.5000000000000003
 40
0.6250000000000002
 40
0.6250000000000002
 40
0.7500000000000001
 40
0.7500000000000001
 40
0.8750000000000001
 40
0.8750000000000001
 40
1.0
 40
1.0
 40
1.0
 40
1.0
 10
184.2384480020104
 20
102.6141462232844
 30
0.0
 10
184.4868217362985
 20
103.2680086515818
 30
0.0
 10
184.8063918286438
 20
103.8717944335789
 30
0.0
 10
185.4286980618485
 20
104.6986331697475
 30
0.0
 10
185.6601223222792
 20
104.9610618077004
 30
0.0
 10
186.1813366619289
 20
105.4577244618054
 30
0.0
 10
186.467957144564
 20
105.6883113408269
 30
0.0
 10
187.0874418858716
 20
106.1048655654095
 30
0.0
 10
187.4217422653586
 20
106.292363367377
 30
0.0
 10
188.1470027379833
 20
106.6237603450135
 30
0.0
 10
188.5289177953738
 20
106.7632643325087
 30
0.0
 10
189.3237059715455
 20
106.9887178399797
 30
0.0
 10
189.7378641657519
 20
107.0753439515233
 30
0.0
 10
190.6034105063333
 20
107.1933247403774
 30
0.0
 10
191.0412981213451
 20
107.2228358856518
 30
0.0
 10
191.4840683476997
 20
107.2228358856518
 30
0.0
  0
LINE
  5
7F
330
1F
100
AcDbEntity
  8
0
  6
Continuous
 62
     7
370
    15
100
AcDbLine
 10
204.6384487113
 20
52.5772285905
 30
0.0
 11
200.6803799233
 21
52.5772285905
 31
0.0
  0
LINE
  5
80
330
1F
100
AcDbEntity
  8
0
  6
Continuous
 62
     7
370
    15
100
AcDbLine
 10
200.6803799233
 20
102.6141469624
 30
0.0
 11
204.6384487113
 21
102.6141469624
 31
0.0
  0
LINE
  5
81
330
1F
100
AcDbEntity
  8
0
  6
Continuous
 62
     7
370
    15
100
AcDbLine
 10
195.3784480503
 20
55.2663089033
 30
0.0
 11
195.3784480503
 21
102.6141469624
 31
0.0
  0
SPLINE
  5
82
330
1F
100
AcDbEntity
  8
0
  6
Continuous
 62
     7
370
    15
100
AcDbSpline
210
0.0
220
0.0
230
1.0
 70
     8
 71
     3
 72
     8
 73
     4
 74
     0
 42
0.00000001
 43
0.00000001
 12
1.0
 22
0.0
 32
0.0
 13
1.0
 23
0.0
 33
0.0
 40
0.0
 40
0.0
 40
0.0
 40
0.0
 40
1.0
 40
1.0
 40
1.0
 40
1.0
 10
195.3784480020104
 20
55.26630906422948
 30
0.0
 10
194.8861088792293
 20
54.36903903002279
 30
0.0
 10
194.3919948311871
 20
53.47275461497055
 30
0.0
 10
193.8965151705214
 20
52.5772285270372
 30
0.0
  0
SPLINE
  5
83
330
1F
100
AcDbEntity
  8
0
  6
Continuous
 62
     7
370
    15
100
AcDbSpline
210
0.0
220
0.0
230
1.0
 70
    24
 71
     3
 72
     8
 73
     4
 74
     0
 42
0.00000001
 43
0.00000001
 12
1.0
 22
0.0
 32
0.0
 13
1.0
 23
0.0
 33
0.0
 40
0.0
 40
0.0
 40
0.0
 40
0.0
 40
1.0
 40
1.0
 40
1.0
 40
1.0
 10
193.8965151705214
 20
102.6141462232844
 30
0.0
 10
194.4031952786719
 20
102.6141462232844
 30
0.0
 10
194.8984960076455
 20
102.6141462232844
 30
0.0
 10
195.3784480020104
 20
102.6141462232844
 30
0.0
  0
LINE
  5
84
330
1F
100
AcDbEntity
  8
0
  6
Continuous
 62
     7
370
    15
100
AcDbLine
 10
179.288448002
 20
51.5641470697
 30
0.0
 11
179.288448002
 21
113.9641453769
 31
0.0
  0
SPLINE
  5
85
330
1F
100
AcDbEntity
  8
0
  6
Continuous
 62
     7
370
    15
100
AcDbSpline
210
0.0
220
0.0
230
1.0
 70
    24
 71
     3
 72
    14
 73
    10
 74
     0
 42
0.00000001
 43
0.00000001
 12
1.0
 22
0.0
 32
0.0
 13
1.0
 23
0.0
 33
0.0
 40
0.0
 40
0.0
 40
0.0
 40
0.0
 40
0.5000000000000027
 40
0.5000000000000027
 40
0.7500000000000013
 40
0.7500000000000013
 40
0.8750000000000007
 40
0.8750000000000007
 40
1.0
 40
1.0
 40
1.0
 40
1.0
 10
199.1007731996782
 20
56.36414622328434
 30
0.0
 10
199.05398849463
 20
56.36414622328434
 30
0.0
 10
198.9919372978503
 20
56.36414622328435
 30
0.0
 10
198.8485456593
 20
56.36414622328435
 30
0.0
 10
198.7924020057487
 20
56.36414622328435
 30
0.0
 10
198.6794509836124
 20
56.36414622328434
 30
0.0
 10
198.6364502215742
 20
56.36414622328434
 30
0.0
 10
198.5323875112678
 20
56.36414622328434
 30
0.0
 10
198.4670552729108
 20
56.36414622328435
 30
0.0
 10
198.3984480020104
 20
56.36414622328434
 30
0.0
  0
SPLINE
  5
86
330
1F
100
AcDbEntity
  8
0
  6
Continuous
 62
     7
370
    15
100
AcDbSpline
210
0.0
220
0.0
230
1.0
 70
    24
 71
     3
 72
    12
 73
     8
 74
     0
 42
0.00000001
 43
0.00000001
 12
1.0
 22
0.0
 32
0.0
 13
1.0
 23
0.0
 33
0.0
 40
0.0
 40
0.0
 40
0.0
 40
0.0
 40
0.5000000000000024
 40
0.5000000000000024
 40
0.7500000000000012
 40
0.7500000000000012
 40
1.0
 40
1.0
 40
1.0
 40
1.0
 10
198.8041504703195
 20
109.1641462232843
 30
0.0
 10
198.7610649207087
 20
109.1641462232843
 30
0.0
 10
198.7119127189615
 20
109.1641462232843
 30
0.0
 10
198.615440124672
 20
109.1641462232843
 30
0.0
 10
198.5793385395378
 20
109.1641462232843
 30
0.0
 10
198.4962327816752
 20
109.1641462232843
 30
0.0
 10
198.4482361847112
 20
109.1641462232843
 30
0.0
 10
198.3984480020104
 20
109.1641462232843
 30
0.0
  0
SPLINE
  5
87
330
1F
100
AcDbEntity
  8
0
  6
Continuous
 62
     7
370
    15
100
AcDbSpline
210
0.0
220
0.0
230
1.0
 70
     8
 71
     3
 72
    10
 73
     6
 74
     0
 42
0.00000001
 43
0.00000001
 12
1.0
 22
0.0
 32
0.0
 13
1.0
 23
0.0
 33
0.0
 40
0.0
 40
0.0
 40
0.0
 40
0.0
 40
0.5
 40
0.5
 40
1.0
 40
1.0
 40
1.0
 40
1.0
 10
199.1984480020105
 20
109.8838000743201
 30
0.0
 10
199.1984480020105
 20
109.7400300165021
 30
0.0
 10
199.1623989432915
 20
109.597610654007
 30
0.0
 10
199.0268900825175
 20
109.3477163606497
 30
0.0
 10
198.9270140894214
 20
109.2396860244015
 30
0.0
 10
198.8041504703194
 20
109.1641462232843
 30
0.0
  0
SPLINE
  5
88
330
1F
100
AcDbEntity
  8
0
  6
Continuous
 62
     7
370
    15
100
AcDbSpline
210
0.0
220
0.0
230
1.0
 70
     8
 71
     3
 72
    10
 73
     6
 74
     0
 42
0.00000001
 43
0.00000001
 12
1.0
 22
0.0
 32
0.0
 13
1.0
 23
0.0
 33
0.0
 40
0.0
 40
0.0
 40
0.0
 40
0.0
 40
0.5
 40
0.5
 40
1.0
 40
1.0
 40
1.0
 40
1.0
 10
199.1723003788503
 20
102.6141462232844
 30
0.0
 10
199.180990021762
 20
102.6610250726025
 30
0.0
 10
199.1875290865125
 20
102.7084475380038
 30
0.0
 10
199.1962877209055
 20
102.8043843365905
 30
0.0
 10
199.1984480020105
 20
102.852299624601
 30
0.0
 10
199.1984480020105
 20
102.9000128547455
 30
0.0
  0
SPLINE
  5
89
330
1F
100
AcDbEntity
  8
0
  6
Continuous
 62
     7
370
    15
100
AcDbSpline
210
0.0
220
0.0
230
1.0
 70
     8
 71
     3
 72
    10
 73
     6
 74
     0
 42
0.00000001
 43
0.00000001
 12
1.0
 22
0.0
 32
0.0
 13
1.0
 23
0.0
 33
0.0
 40
0.0
 40
0.0
 40
0.0
 40
0.0
 40
0.5
 40
0.5
 40
1.0
 40
1.0
 40
1.0
 40
1.0
 10
195.7727455337014
 20
109.1641462232843
 30
0.0
 10
195.6512052700329
 20
109.2388723904961
 30
0.0
 10
195.549870909684
 20
109.3478174064129
 30
0.0
 10
195.4142319667955
 20
109.5982478871745
 30
0.0
 10
195.3784480020104
 20
109.7406672492734
 30
0.0
 10
195.3784480020104
 20
109.8838000743201
 30
0.0
  0
SPLINE
  5
8A
330
1F
100
AcDbEntity
  8
0
  6
Continuous
 62
     7
370
    15
100
AcDbSpline
210
0.0
220
0.0
230
1.0
 70
    24
 71
     3
 72
    12
 73
     8
 74
     0
 42
0.00000001
 43
0.00000001
 12
1.0
 22
0.0
 32
0.0
 13
1.0
 23
0.0
 33
0.0
 40
0.0
 40
0.0
 40
0.0
 40
0.0
 40
0.2500000000000012
 40
0.2500000000000012
 40
0.5000000000000024
 40
0.5000000000000024
 40
1.0
 40
1.0
 40
1.0
 40
1.0
 10
196.1784480020105
 20
109.1641462232843
 30
0.0
 10
196.1291046402008
 20
109.1641462232843
 30
0.0
 10
196.0804139418992
 20
109.1641462232843
 30
0.0
 10
195.9975628443288
 20
109.1641462232843
 30
0.0
 10
195.9613628767082
 20
109.1641462232843
 30
0.0
 10
195.8656129601588
 20
109.1641462232843
 30
0.0
 10
195.8157309903467
 20
109.1641462232843
 30
0.0
 10
195.7727455337014
 20
109.1641462232843
 30
0.0
  0
SPLINE
  5
8B
330
1F
100
AcDbEntity
  8
0
  6
Continuous
 62
     7
370
    15
100
AcDbSpline
210
0.0
220
0.0
230
1.0
 70
    24
 71
     3
 72
    14
 73
    10
 74
     0
 42
0.00000001
 43
0.00000001
 12
1.0
 22
0.0
 32
0.0
 13
1.0
 23
0.0
 33
0.0
 40
0.0
 40
0.0
 40
0.0
 40
0.0
 40
0.1250000000000007
 40
0.1250000000000007
 40
0.2500000000000014
 40
0.2500000000000014
 40
0.5000000000000002
 40
0.5000000000000002
 40
1.0
 40
1.0
 40
1.0
 40
1.0
 10
196.1784480020104
 20
56.36414622328434
 30
0.0
 10
196.1091012802793
 20
56.36414622328434
 30
0.0
 10
196.0439032268954
 20
56.36414622328435
 30
0.0
 10
195.9395240342684
 20
56.36414622328434
 30
0.0
 10
195.8966216632594
 20
56.36414622328434
 30
0.0
 10
195.7842960056547
 20
56.36414622328434
 30
0.0
 10
195.7290723113008
 20
56.36414622328434
 30
0.0
 10
195.5850149325333
 20
56.36414622328435
 30
0.0
 10
195.5229342357018
 20
56.36414622328434
 30
0.0
 10
195.4761228043427
 20
56.36414622328434
 30
0.0
  0
SPLINE
  5
8C
330
1F
100
AcDbEntity
  8
0
  6
Continuous
 62
     7
370
    15
100
AcDbSpline
210
0.0
220
0.0
230
1.0
 70
     8
 71
     3
 72
     9
 73
     5
 74
     0
 42
0.00000001
 43
0.00000001
 12
1.0
 22
0.0
 32
0.0
 13
1.0
 23
0.0
 33
0.0
 40
0.0
 40
0.0
 40
0.0
 40
0.0
 40
0.5
 40
1.0
 40
1.0
 40
1.0
 40
1.0
 10
195.3784480020104
 20
102.9000128547457
 30
0.0
 10
195.3784480020104
 20
102.851780802623
 30
0.0
 10
195.3828539767156
 20
102.7559107891834
 30
0.0
 10
195.3958731568094
 20
102.6612021592001
 30
0.0
 10
195.4045956251705
 20
102.6141462232843
 30
0.0
  0
LINE
  5
8D
330
1F
100
AcDbEntity
  8
0
  6
Continuous
 62
     7
370
    15
100
AcDbLine
 10
198.398447763
 20
109.1641460802
 30
0.0
 11
196.1784485539
 21
109.1641460802
 31
0.0
  0
LINE
  5
8E
330
1F
100
AcDbEntity
  8
0
  6
Continuous
 62
     7
370
    15
100
AcDbLine
 10
198.398447763
 20
56.3641463663
 30
0.0
 11
196.1784485539
 21
56.3641463663
 31
0.0
  0
LINE
  5
8F
330
1F
100
AcDbEntity
  8
0
  6
Continuous
 62
     7
370
    15
100
AcDbLine
 10
205.4384473523
 20
109.1641460802
 30
0.0
 11
205.4059367439
 21
109.1641460802
 31
0.0
  0
LINE
  5
90
330
1F
100
AcDbEntity
  8
0
  6
Continuous
 62
     7
370
    15
100
AcDbLine
 10
205.4384473523
 20
56.3641463663
 30
0.0
 11
205.4076541027
 21
56.3641463663
 31
0.0
  0
SPLINE
  5
91
330
1F
100
AcDbEntity
  8
0
  6
Continuous
 62
     7
370
    15
100
AcDbSpline
210
0.0
220
0.0
230
1.0
 70
     8
 71
     3
 72
     8
 73
     4
 74
     0
 42
0.00000001
 43
0.00000001
 12
1.0
 22
0.0
 32
0.0
 13
1.0
 23
0.0
 33
0.0
 40
0.0
 40
0.0
 40
0.0
 40
0.0
 40
1.0
 40
1.0
 40
1.0
 40
1.0
 10
221.8862931391831
 20
93.76414622328434
 30
0.0
 10
221.7162342730711
 20
94.95864230152138
 30
0.0
 10
221.5809666555365
 20
96.15488875856741
 30
0.0
 10
221.4870468403205
 20
97.35321546050079
 30
0.0
  0
SPLINE
  5
92
330
1F
100
AcDbEntity
  8
0
  6
Continuous
 62
     7
370
    15
100
AcDbSpline
210
0.0
220
0.0
230
1.0
 70
     8
 71
     3
 72
     8
 73
     4
 74
     0
 42
0.00000001
 43
0.00000001
 12
1.0
 22
0.0
 32
0.0
 13
1.0
 23
0.0
 33
0.0
 40
0.0
 40
0.0
 40
0.0
 40
0.0
 40
1.0
 40
1.0
 40
1.0
 40
1.0
 10
221.4870468403205
 20
89.01640652357351
 30
0.0
 10
221.5864573420704
 20
90.60321073877589
 30
0.0
 10
221.7215887272101
 20
92.18657398180585
 30
0.0
 10
221.8862931391831
 20
93.76414622328434
 30
0.0
  0
SPLINE
  5
93
330
1F
100
AcDbEntity
  8
0
  6
Continuous
 62
     7
370
    15
100
AcDbSpline
210
0.0
220
0.0
230
1.0
 70
     8
 71
     3
 72
    10
 73
     6
 74
     0
 42
0.00000001
 43
0.00000001
 12
1.0
 22
0.0
 32
0.0
 13
1.0
 23
0.0
 33
0.0
 40
0.0
 40
0.0
 40
0.0
 40
0.0
 40
0.5
 40
0.5
 40
1.0
 40
1.0
 40
1.0
 40
1.0
 10
224.9590482132338
 20
52.76414622328435
 30
0.0
 10
224.1640894805832
 20
56.69013436806399
 30
0.0
 10
223.4306056456036
 20
60.62520865571692
 30
0.0
 10
222.2162154645541
 20
68.53268881249363
 30
0.0
 10
221.7380399992373
 20
72.50549831258928
 30
0.0
 10
221.4870468403216
 20
76.51188592297794
 30
0.0
  0
SPLINE
  5
94
330
1F
100
AcDbEntity
  8
0
  6
Continuous
 62
     7
370
    15
100
AcDbSpline
210
0.0
220
0.0
230
1.0
 70
    24
 71
     3
 72
    12
 73
     8
 74
     0
 42
0.00000001
 43
0.00000001
 12
1.0
 22
0.0
 32
0.0
 13
1.0
 23
0.0
 33
0.0
 40
0.0
 40
0.0
 40
0.0
 40
0.0
 40
0.1525567329017152
 40
0.3514041251325286
 40
0.5502674075572281
 40
0.77502891275348
 40
1.0
 40
1.0
 40
1.0
 40
1.0
 10
222.3817903360425
 20
52.7641468938366
 30
0.0
 10
222.3869091179614
 20
52.7641468938366
 30
0.0
 10
222.3986998862071
 20
52.7641468938366
 30
0.0
 10
222.6988445713745
 20
52.7641468938366
 30
0.0
 10
223.2269903236266
 20
52.76414689383661
 30
0.0
 10
223.9784311398243
 20
52.7641468938366
 30
0.0
 10
224.6320733425293
 20
52.7641468938366
 30
0.0
 10
224.9590467473565
 20
52.7641468938366
 30
0.0
  0
SPLINE
  5
95
330
1F
100
AcDbEntity
  8
0
  6
Continuous
 62
     7
370
    15
100
AcDbSpline
210
0.0
220
0.0
230
1.0
 70
     8
 71
     3
 72
    12
 73
     8
 74
     0
 42
0.00000001
 43
0.00000001
 12
1.0
 22
0.0
 32
0.0
 13
1.0
 23
0.0
 33
0.0
 40
0.0
 40
0.0
 40
0.0
 40
0.0
 40
0.5000000000000004
 40
0.5000000000000004
 40
0.7500000000000002
 40
0.7500000000000002
 40
1.0
 40
1.0
 40
1.0
 40
1.0
 10
220.5211210140315
 20
82.76414622328434
 30
0.0
 10
220.72423735326
 20
81.72844686751873
 30
0.0
 10
220.9278821767405
 20
80.69243818530187
 30
0.0
 10
221.1882299372716
 20
79.1315327471621
 30
0.0
 10
221.2674389024271
 20
78.610109928096
 30
0.0
 10
221.4002831055037
 20
77.56347900573965
 30
0.0
 10
221.4541343538486
 20
77.03723959637881
 30
0.0
 10
221.4870468403216
 20
76.51188592297794
 30
0.0
  0
SPLINE
  5
96
330
1F
100
AcDbEntity
  8
0
  6
Continuous
 62
     7
370
    15
100
AcDbSpline
210
0.0
220
0.0
230
1.0
 70
     8
 71
     3
 72
    14
 73
    10
 74
     0
 42
0.00000001
 43
0.00000001
 12
1.0
 22
0.0
 32
0.0
 13
1.0
 23
0.0
 33
0.0
 40
0.0
 40
0.0
 40
0.0
 40
0.0
 40
0.5
 40
0.5
 40
0.75
 40
0.75
 40
0.875
 40
0.875
 40
1.0
 40
1.0
 40
1.0
 40
1.0
 10
221.4870468403205
 20
89.0164065235735
 30
0.0
 10
221.4212994151596
 20
87.96693700528648
 30
0.0
 10
221.2752287960582
 20
86.91845098232041
 30
0.0
 10
221.0147478128795
 20
85.35660763419806
 30
0.0
 10
220.9203037844017
 20
84.83733093929455
 30
0.0
 10
220.7732922940531
 20
84.05935470020408
 30
0.0
 10
220.7233855587843
 20
83.80018786141568
 30
0.0
 10
220.6226830326815
 20
83.28201032572346
 30
0.0
 10
220.5716660593831
 20
83.02187766809928
 30
0.0
 10
220.5211210140315
 20
82.76414622328434
 30
0.0
  0
LINE
  5
97
330
1F
100
AcDbEntity
  8
0
  6
Continuous
 62
     7
370
    15
100
AcDbLine
 10
221.8862931987
 20
93.7641461637
 30
0.0
 11
269.2884515783
 21
93.7641461637
 31
0.0
  0
LINE
  5
98
330
1F
100
AcDbEntity
  8
0
  6
Continuous
 62
     7
370
    15
100
AcDbLine
 10
269.2884515783
 20
93.7641461637
 30
0.0
 11
269.2884515783
 21
52.7641468938
 31
0.0
  0
LINE
  5
99
330
1F
100
AcDbEntity
  8
0
  6
Continuous
 62
     7
370
    15
100
AcDbLine
 10
224.9590467474
 20
52.7641468938
 30
0.0
 11
269.2884515783
 21
52.7641468938
 31
0.0
  0
CIRCLE
  5
9A
330
1F
100
AcDbEntity
  8
0
  6
Continuous
 62
     7
370
    15
100
AcDbCircle
 10
259.288448002
 20
62.7641462233
 30
0.0
 40
5.025000000000006
  0
CIRCLE
  5
9B
330
1F
100
AcDbEntity
  8
0
  6
Continuous
 62
     7
370
    15
100
AcDbCircle
 10
239.288448002
 20
62.7641462233
 30
0.0
 40
5.025000000000006
  0
SPLINE
  5
9C
330
1F
100
AcDbEntity
  8
0
  6
Continuous
 62
     7
370
    15
100
AcDbSpline
210
0.0
220
0.0
230
1.0
 70
    24
 71
     3
 72
    12
 73
     8
 74
     0
 42
0.00000001
 43
0.00000001
 12
1.0
 22
0.0
 32
0.0
 13
1.0
 23
0.0
 33
0.0
 40
0.0
 40
0.0
 40
0.0
 40
0.0
 40
0.5000000000000002
 40
0.5000000000000002
 40
0.7500000000000001
 40
0.7500000000000001
 40
1.0
 40
1.0
 40
1.0
 40
1.0
 10
220.5211210140315
 20
108.7641462232843
 30
0.0
 10
220.7242373532655
 20
108.7641462232844
 30
0.0
 10
220.9278821767405
 20
108.7641462232843
 30
0.0
 10
221.1882299372716
 20
108.7641462232843
 30
0.0
 10
221.2674389024271
 20
108.7641462232843
 30
0.0
 10
221.4002831055037
 20
108.7641462232843
 30
0.0
 10
221.4541343538486
 20
108.7641462232843
 30
0.0
 10
221.4870468403216
 20
108.7641462232843
 30
0.0
  0
SPLINE
  5
9D
330
1F
100
AcDbEntity
  8
0
  6
Continuous
 62
     7
370
    15
100
AcDbSpline
210
0.0
220
0.0
230
1.0
 70
     8
 71
     3
 72
    16
 73
    12
 74
     0
 42
0.00000001
 43
0.00000001
 12
1.0
 22
0.0
 32
0.0
 13
1.0
 23
0.0
 33
0.0
 40
0.0
 40
0.0
 40
0.0
 40
0.0
 40
0.2499999999999997
 40
0.2499999999999997
 40
0.4999999999999993
 40
0.4999999999999993
 40
0.6249999999999994
 40
0.6249999999999994
 40
0.7499999999999997
 40
0.7499999999999997
 40
1.0
 40
1.0
 40
1.0
 40
1.0
 10
221.4870468403207
 20
105.175076986068
 30
0.0
 10
221.4359083980305
 20
104.5225995429348
 30
0.0
 10
221.3366339769234
 20
103.8729326564134
 30
0.0
 10
221.1516704711811
 20
102.5728069506032
 30
0.0
 10
221.0685637298405
 20
101.9223350111476
 30
0.0
 10
221.068092807765
 20
100.941208001715
 30
0.0
 10
221.0878182336172
 20
100.613397387948
 30
0.0
 10
221.1528859128891
 20
99.96050963402087
 30
0.0
 10
221.1973160135085
 20
99.63475110502698
 30
0.0
 10
221.3362549786442
 20
98.65780093961388
 30
0.0
 10
221.4358137727423
 20
98.00690023149478
 30
0.0
 10
221.4870468403207
 20
97.35321546050079
 30
0.0
  0
SPLINE
  5
9E
330
1F
100
AcDbEntity
  8
0
  6
Continuous
 62
     7
370
    15
100
AcDbSpline
210
0.0
220
0.0
230
1.0
 70
     8
 71
     3
 72
     8
 73
     4
 74
     0
 42
0.00000001
 43
0.00000001
 12
1.0
 22
0.0
 32
0.0
 13
1.0
 23
0.0
 33
0.0
 40
0.0
 40
0.0
 40
0.0
 40
0.0
 40
1.0
 40
1.0
 40
1.0
 40
1.0
 10
221.4870468403205
 20
105.175076986068
 30
0.0
 10
221.5806565868469
 20
106.3694475091127
 30
0.0
 10
221.7157007448173
 20
107.5659026344272
 30
0.0
 10
221.8862931391831
 20
108.7641462232843
 30
0.0
  0
LINE
  5
9F
330
1F
100
AcDbEntity
  8
0
  6
Continuous
 62
     7
370
    15
100
AcDbLine
 10
221.8862931987
 20
108.7641467597
 30
0.0
 11
269.2884515783
 21
108.7641467597
 31
0.0
  0
LINE
  5
A0
330
1F
100
AcDbEntity
  8
0
  6
Continuous
 62
     7
370
    15
100
AcDbLine
 10
269.2884515783
 20
108.7641467597
 30
0.0
 11
269.2884515783
 21
93.7641461637
 31
0.0
  0
CIRCLE
  5
A1
330
1F
100
AcDbEntity
  8
0
  6
Continuous
 62
     7
370
    15
100
AcDbCircle
 10
259.288448002
 20
62.7641462233
 30
0.0
 40
4.250000000000014
  0
CIRCLE
  5
A2
330
1F
100
AcDbEntity
  8
0
  6
Continuous
 62
     7
370
    15
100
AcDbCircle
 10
239.288448002
 20
62.7641462233
 30
0.0
 40
4.250000000000014
  0
LINE
  5
A3
330
1F
100
AcDbEntity
  8
0
  6
Continuous
 62
     7
370
    15
100
AcDbLine
 10
177.288447907
 20
58.5437149998
 30
0.0
 11
177.288447907
 21
106.9845774468
 31
0.0
  0
LINE
  5
A4
330
1F
100
AcDbEntity
  8
0
  6
Continuous
 62
     7
370
    15
100
AcDbLine
 10
157.4884477815
 20
59.5357002016
 30
0.0
 11
157.4884477815
 21
60.7898303565
 31
0.0
  0
SPLINE
  5
A5
330
1F
100
AcDbEntity
  8
0
  6
Continuous
 62
     7
370
    15
100
AcDbSpline
210
0.0
220
0.0
230
1.0
 70
     8
 71
     3
 72
    12
 73
     8
 74
     0
 42
0.00000001
 43
0.00000001
 12
1.0
 22
0.0
 32
0.0
 13
1.0
 23
0.0
 33
0.0
 40
0.0
 40
0.0
 40
0.0
 40
0.0
 40
0.25
 40
0.25
 40
0.5
 40
0.5
 40
1.0
 40
1.0
 40
1.0
 40
1.0
 10
156.7637753491434
 20
61.90465333525832
 30
0.0
 10
156.8126159194785
 20
61.79875368798704
 30
0.0
 10
156.8976628346784
 20
61.69682012657954
 30
0.0
 10
157.067314243242
 20
61.50031392134131
 30
0.0
 10
157.1537762419682
 20
61.40528655974239
 30
0.0
 10
157.3791694468852
 20
61.12800806538339
 30
0.0
 10
157.4884480020104
 20
60.95329069257263
 30
0.0
 10
157.4884480020104
 20
60.78983051512727
 30
0.0
  0
SPLINE
  5
A6
330
1F
100
AcDbEntity
  8
0
  6
Continuous
 62
     7
370
    15
100
AcDbSpline
210
0.0
220
0.0
230
1.0
 70
     8
 71
     3
 72
    14
 73
    10
 74
     0
 42
0.00000001
 43
0.00000001
 12
1.0
 22
0.0
 32
0.0
 13
1.0
 23
0.0
 33
0.0
 40
0.0
 40
0.0
 40
0.0
 40
0.0
 40
0.1250000000000015
 40
0.1250000000000015
 40
0.2500000000000029
 40
0.2500000000000029
 40
0.500000000000003
 40
0.500000000000003
 40
1.0
 40
1.0
 40
1.0
 40
1.0
 10
156.0884480020104
 20
62.44124279773237
 30
0.0
 10
156.145222757231
 20
62.44771125087109
 30
0.0
 10
156.2079058581601
 20
62.44185394766227
 30
0.0
 10
156.3137936326982
 20
62.41195762632447
 30
0.0
 10
156.3576978902994
 20
62.39008268436953
 30
0.0
 10
156.470131138457
 20
62.32071139770274
 30
0.0
 10
156.5232593423193
 20
62.2682123435014
 30
0.0
 10
156.6582468040595
 20
62.11292933518308
 30
0.0
 10
156.7165075155393
 20
62.00714286134875
 30
0.0
 10
156.7637753491578
 20
61.90465333525915
 30
0.0
  0
SPLINE
  5
A7
330
1F
100
AcDbEntity
  8
0
  6
Continuous
 62
     7
370
    15
100
AcDbSpline
210
0.0
220
0.0
230
1.0
 70
     8
 71
     3
 72
    10
 73
     6
 74
     0
 42
0.00000001
 43
0.00000001
 12
1.0
 22
0.0
 32
0.0
 13
1.0
 23
0.0
 33
0.0
 40
0.0
 40
0.0
 40
0.0
 40
0.0
 40
0.5
 40
0.5
 40
1.0
 40
1.0
 40
1.0
 40
1.0
 10
153.3163216252955
 20
62.06783147542094
 30
0.0
 10
153.76326256652
 20
62.14155693509998
 30
0.0
 10
154.2233744550622
 20
62.20788558698018
 30
0.0
 10
155.1502641588068
 20
62.33091505581359
 30
0.0
 10
155.6179678908425
 20
62.38764012626394
 30
0.0
 10
156.0884480020104
 20
62.44124279773238
 30
0.0
  0
SPLINE
  5
A8
330
1F
100
AcDbEntity
  8
0
  6
Continuous
 62
     7
370
    15
100
AcDbSpline
210
0.0
220
0.0
230
1.0
 70
     8
 71
     3
 72
    14
 73
    10
 74
     0
 42
0.00000001
 43
0.00000001
 12
1.0
 22
0.0
 32
0.0
 13
1.0
 23
0.0
 33
0.0
 40
0.0
 40
0.0
 40
0.0
 40
0.0
 40
0.4999999999999978
 40
0.4999999999999978
 40
0.7499999999999978
 40
0.7499999999999978
 40
0.8749999999999989
 40
0.8749999999999989
 40
1.0
 40
1.0
 40
1.0
 40
1.0
 10
148.5384480020104
 20
61.89441069039346
 30
0.0
 10
149.3463450261085
 20
61.89582292241866
 30
0.0
 10
150.1521091944347
 20
61.90221590013582
 30
0.0
 10
151.3525498654429
 20
61.93126771177061
 30
0.0
 10
151.7513687187366
 20
61.94410064754433
 30
0.0
 10
152.3448970688853
 20
61.97455882910982
 30
0.0
 10
152.5419599672834
 20
61.98657145937174
 30
0.0
 10
152.9328990021327
 20
62.01821292665022
 30
0.0
 10
153.1272740539562
 20
62.03664699932436
 30
0.0
 10
153.3163216252955
 20
62.06783147542093
 30
0.0
  0
SPLINE
  5
A9
330
1F
100
AcDbEntity
  8
0
  6
Continuous
 62
     7
370
    15
100
AcDbSpline
210
0.0
220
0.0
230
1.0
 70
     8
 71
     3
 72
     8
 73
     4
 74
     0
 42
0.00000001
 43
0.00000001
 12
1.0
 22
0.0
 32
0.0
 13
1.0
 23
0.0
 33
0.0
 40
0.0000003409637668
 40
0.0000003409637668
 40
0.0000003409637668
 40
0.0000003409637668
 40
0.000017415394438
 40
0.000017415394438
 40
0.000017415394438
 40
0.000017415394438
 10
148.5284030715922
 20
61.90040648818516
 30
0.0
 10
148.5317417223505
 20
61.89840425308778
 30
0.0
 10
148.5350900975302
 20
61.89640566131763
 30
0.0
 10
148.5384480020104
 20
61.89441069039344
 30
0.0
  0
SPLINE
  5
AA
330
1F
100
AcDbEntity
  8
0
  6
Continuous
 62
     7
370
    15
100
AcDbSpline
210
0.0
220
0.0
230
1.0
 70
     8
 71
     3
 72
     8
 73
     4
 74
     0
 42
0.00000001
 43
0.00000001
 12
1.0
 22
0.0
 32
0.0
 13
1.0
 23
0.0
 33
0.0
 40
0.0000003292049707
 40
0.0000003292049707
 40
0.0000003292049707
 40
0.0000003292049707
 40
0.0000169050949325
 40
0.0000169050949325
 40
0.0000169050949325
 40
0.0000169050949325
 10
148.5384480020104
 20
103.6340839886794
 30
0.0
 10
148.5350914198736
 20
103.6321719945826
 30
0.0
 10
148.5317430557481
 20
103.6302567043275
 30
0.0
 10
148.528403071579
 20
103.6283380957121
 30
0.0
  0
SPLINE
  5
AB
330
1F
100
AcDbEntity
  8
0
  6
Continuous
 62
     7
370
    15
100
AcDbSpline
210
0.0
220
0.0
230
1.0
 70
     8
 71
     3
 72
    10
 73
     6
 74
     0
 42
0.00000001
 43
0.00000001
 12
1.0
 22
0.0
 32
0.0
 13
1.0
 23
0.0
 33
0.0
 40
0.0
 40
0.0
 40
0.0
 40
0.0
 40
0.5
 40
0.5
 40
1.0
 40
1.0
 40
1.0
 40
1.0
 10
152.0884480020104
 20
103.5872336151121
 30
0.0
 10
151.5008624549198
 20
103.6082991353485
 30
0.0
 10
150.9101160614595
 20
103.6190576212207
 30
0.0
 10
149.7260968961606
 20
103.6324224017564
 30
0.0
 10
149.1326829079551
 20
103.634565044421
 30
0.0
 10
148.5384480020104
 20
103.6340839886794
 30
0.0
  0
SPLINE
  5
AC
330
1F
100
AcDbEntity
  8
0
  6
Continuous
 62
     7
370
    15
100
AcDbSpline
210
0.0
220
0.0
230
1.0
 70
     8
 71
     3
 72
    18
 73
    14
 74
     0
 42
0.00000001
 43
0.00000001
 12
1.0
 22
0.0
 32
0.0
 13
1.0
 23
0.0
 33
0.0
 40
0.0
 40
0.0
 40
0.0
 40
0.0
 40
0.2500000000000003
 40
0.2500000000000003
 40
0.4999999999999999
 40
0.4999999999999999
 40
0.7499999999999996
 40
0.7499999999999996
 40
0.8749999999999993
 40
0.8749999999999993
 40
0.9374999999999997
 40
0.9374999999999997
 40
1.0
 40
1.0
 40
1.0
 40
1.0
 10
153.4884480020104
 20
104.6082538956474
 30
0.0
 10
153.4884480020105
 20
104.5250469867901
 30
0.0
 10
153.4525989020722
 20
104.4363103314766
 30
0.0
 10
153.3277271660383
 20
104.2541851409163
 30
0.0
 10
153.2373267483904
 20
104.1590550922897
 30
0.0
 10
153.0150840936482
 20
103.9698735831654
 30
0.0
 10
152.8853193072025
 20
103.8749284150707
 30
0.0
 10
152.6446818498909
 20
103.7366497074907
 30
0.0
 10
152.5569145517535
 20
103.6909392741884
 30
0.0
 10
152.4023904645467
 20
103.6331159689669
 30
0.0
 10
152.3457795784919
 20
103.615401204929
 30
0.0
 10
152.2217355475853
 20
103.5908619016961
 30
0.0
 10
152.1540208725671
 20
103.5848827631578
 30
0.0
 10
152.0884480020104
 20
103.5872336151121
 30
0.0
  0
LINE
  5
AD
330
1F
100
AcDbEntity
  8
0
  6
Continuous
 62
     7
370
    15
100
AcDbLine
 10
153.4884471258
 20
104.608253881
 30
0.0
 11
153.4884471258
 21
105.792192116
 31
0.0
  0
SPLINE
  5
AE
330
1F
100
AcDbEntity
  8
0
  6
Continuous
 62
     7
370
    15
100
AcDbSpline
210
0.0
220
0.0
230
1.0
 70
     8
 71
     3
 72
    24
 73
    20
 74
     0
 42
0.00000001
 43
0.00000001
 12
1.0
 22
0.0
 32
0.0
 13
1.0
 23
0.0
 33
0.0
 40
0.0
 40
0.0
 40
0.0
 40
0.0
 40
0.0010489815523775
 40
0.0637843212772741
 40
0.1272220630088516
 40
0.1903789073370505
 40
0.2526748662763491
 40
0.3146354150030102
 40
0.3770891884518245
 40
0.4393540587943444
 40
0.5008133488401828
 40
0.5621845177353679
 40
0.6248438462901906
 40
0.6874304788646655
 40
0.7496743245911356
 40
0.811984857412469
 40
0.8750960476811308
 40
0.9384412548145236
 40
1.0
 40
1.0
 40
1.0
 40
1.0
 10
166.0573540067373
 20
59.10663802883779
 30
0.0
 10
166.0569073409866
 20
59.1065793838713
 30
0.0
 10
166.029747405063
 20
59.10301342089061
 30
0.0
 10
166.1253773281948
 20
59.11587803036582
 30
0.0
 10
166.3589305042153
 20
59.14511251270588
 30
0.0
 10
166.7544864564497
 20
59.1917317234473
 30
0.0
 10
167.2815264568198
 20
59.24191252287246
 30
0.0
 10
167.925056898656
 20
59.28629119631551
 30
0.0
 10
168.6637307329257
 20
59.3132343928263
 30
0.0
 10
169.4612454030446
 20
59.31670614112844
 30
0.0
 10
170.2878244528092
 20
59.28908069483501
 30
0.0
 10
171.1133472742278
 20
59.23059955185637
 30
0.0
 10
171.9054737451435
 20
59.14515648845779
 30
0.0
 10
172.6380461239808
 20
59.04342131996528
 30
0.0
 10
173.2736863058016
 20
58.93557766891735
 30
0.0
 10
173.7955972363478
 20
58.83394627364252
 30
0.0
 10
174.1772260739867
 20
58.75146430935002
 30
0.0
 10
174.4280407499201
 20
58.69531220184311
 30
0.0
 10
174.4571620656274
 20
58.68846335093024
 30
0.0
 10
174.471514466971
 20
58.68508790395413
 30
0.0
  0
SPLINE
  5
AF
330
1F
100
AcDbEntity
  8
0
  6
Continuous
 62
     7
370
    15
100
AcDbSpline
210
0.0
220
0.0
230
1.0
 70
     8
 71
     3
 72
    24
 73
    20
 74
     0
 42
0.00000001
 43
0.00000001
 12
1.0
 22
0.0
 32
0.0
 13
1.0
 23
0.0
 33
0.0
 40
0.0
 40
0.0
 40
0.0
 40
0.0
 40
0.061438429114026
 40
0.1250736777967296
 40
0.1884253375120635
 40
0.2508623992448768
 40
0.3129665476325514
 40
0.3753451442328022
 40
0.4377328732174486
 40
0.499092717251918
 40
0.560580729454827
 40
0.622946985474185
 40
0.6854686070210457
 40
0.7475477863222202
 40
0.8098225081553685
 40
0.873068419947611
 40
0.936404185690527
 40
0.9991757203144552
 40
1.0
 40
1.0
 40
1.0
 40
1.0
 10
174.4714599846004
 20
106.8431747402922
 30
0.0
 10
174.4568591761482
 20
106.8398065824192
 30
0.0
 10
174.4271354862972
 20
106.8329498333348
 30
0.0
 10
174.1743974863113
 20
106.7766120134387
 30
0.0
 10
173.7914021872901
 20
106.6937542005535
 30
0.0
 10
173.2690462304072
 20
106.5918474523324
 30
0.0
 10
172.6342618857055
 20
106.4840088824434
 30
0.0
 10
171.9040381490913
 20
106.3825426292144
 30
0.0
 10
171.1135700541803
 20
106.2974805506472
 30
0.0
 10
170.2890863267226
 20
106.2392791936906
 30
0.0
 10
169.4620499462425
 20
106.211694746006
 30
0.0
 10
168.663725487252
 20
106.2151886745402
 30
0.0
 10
167.9239017362524
 20
106.2421423332139
 30
0.0
 10
167.2796468647928
 20
106.2864978338272
 30
0.0
 10
166.7522400076952
 20
106.33670301755
 30
0.0
 10
166.3575747673822
 20
106.3833104775952
 30
0.0
 10
166.125046081794
 20
106.4125136544336
 30
0.0
 10
166.0296668531277
 20
106.4252717931508
 30
0.0
 10
166.0565997974545
 20
106.421731963232
 30
0.0
 10
166.0569488814174
 20
106.4216860826984
 30
0.0
  0
SPLINE
  5
B0
330
1F
100
AcDbEntity
  8
0
  6
Continuous
 62
     7
370
    15
100
AcDbSpline
210
0.0
220
0.0
230
1.0
 70
     8
 71
     3
 72
    22
 73
    18
 74
     0
 42
0.00000001
 43
0.00000001
 12
1.0
 22
0.0
 32
0.0
 13
1.0
 23
0.0
 33
0.0
 40
0.0
 40
0.0
 40
0.0
 40
0.0
 40
0.1249999999999972
 40
0.1249999999999972
 40
0.2499999999999943
 40
0.2499999999999943
 40
0.3124999999999916
 40
0.3124999999999916
 40
0.3749999999999887
 40
0.3749999999999887
 40
0.4999999999999911
 40
0.4999999999999911
 40
0.6249999999999934
 40
0.6249999999999934
 40
0.7499999999999959
 40
0.7499999999999959
 40
1.0
 40
1.0
 40
1.0
 40
1.0
 10
148.5284030715796
 20
103.628338095713
 30
0.0
 10
148.4677833507032
 20
103.5935159190658
 30
0.0
 10
148.4055940107366
 20
103.5550121153651
 30
0.0
 10
148.2718645445072
 20
103.4690776275664
 30
0.0
 10
148.1996100027949
 20
103.4207710263642
 30
0.0
 10
148.0777120619592
 20
103.3444193081944
 30
0.0
 10
148.0339055088071
 20
103.3180048475873
 30
0.0
 10
147.9475103396322
 20
103.2694959230568
 30
0.0
 10
147.9051703633405
 20
103.2475618003304
 30
0.0
 10
147.7911996169715
 20
103.1911920103857
 30
0.0
 10
147.7327808909813
 20
103.1648351858521
 30
0.0
 10
147.6328733197938
 20
103.1126953613479
 30
0.0
 10
147.5914593289985
 20
103.0875347716354
 30
0.0
 10
147.5194343611212
 20
103.0324279283083
 30
0.0
 10
147.4890858198082
 20
103.0025715248134
 30
0.0
 10
147.4155940897761
 20
102.9051648228207
 30
0.0
 10
147.3884480020104
 20
102.8288331390104
 30
0.0
 10
147.3884480020104
 20
102.7402067279402
 30
0.0
  0
SPLINE
  5
B1
330
1F
100
AcDbEntity
  8
0
  6
Continuous
 62
     7
370
    15
100
AcDbSpline
210
0.0
220
0.0
230
1.0
 70
     8
 71
     3
 72
    22
 73
    18
 74
     0
 42
0.00000001
 43
0.00000001
 12
1.0
 22
0.0
 32
0.0
 13
1.0
 23
0.0
 33
0.0
 40
0.0
 40
0.0
 40
0.0
 40
0.0
 40
0.2499999999999932
 40
0.2499999999999932
 40
0.3749999999999905
 40
0.3749999999999905
 40
0.4999999999999878
 40
0.4999999999999878
 40
0.6249999999999851
 40
0.6249999999999851
 40
0.6874999999999837
 40
0.6874999999999837
 40
0.7499999999999858
 40
0.7499999999999858
 40
0.8749999999999929
 40
0.8749999999999929
 40
1.0
 40
1.0
 40
1.0
 40
1.0
 10
147.3884480020103
 20
62.77532378441375
 30
0.0
 10
147.3884480020103
 20
62.68725984160712
 30
0.0
 10
147.4166985829576
 20
62.61057854629914
 30
0.0
 10
147.4916943834865
 20
62.51658455928006
 30
0.0
 10
147.5224309881508
 20
62.48833790624025
 30
0.0
 10
147.5950876463696
 20
62.437058730282
 30
0.0
 10
147.6369371041688
 20
62.41405733249709
 30
0.0
 10
147.7371408381199
 20
62.36715913309472
 30
0.0
 10
147.7949208018188
 20
62.34431731184107
 30
0.0
 10
147.9096460697345
 20
62.29098305884439
 30
0.0
 10
147.9533217541154
 20
62.26910596166078
 30
0.0
 10
148.0417204683307
 20
62.21930241469499
 30
0.0
 10
148.0858583716198
 20
62.19182848889442
 30
0.0
 10
148.207122155936
 20
62.11284017199935
 30
0.0
 10
148.2762553043037
 20
62.06415551371202
 30
0.0
 10
148.4069605376867
 20
61.97617998029978
 30
0.0
 10
148.4685710402109
 20
61.9362885860299
 30
0.0
 10
148.5284030715923
 20
61.90040648818511
 30
0.0
  0
LINE
  5
B2
330
1F
100
AcDbEntity
  8
0
  6
Continuous
 62
     7
370
    15
100
AcDbLine
 10
147.3884481749
 20
62.7753244039
 30
0.0
 11
147.3884481749
 21
102.7402070608
 31
0.0
  0
SPLINE
  5
B3
330
1F
100
AcDbEntity
  8
0
  6
Continuous
 62
     7
370
    15
100
AcDbSpline
210
0.0
220
0.0
230
1.0
 70
     8
 71
     3
 72
     8
 73
     4
 74
     0
 42
0.00000001
 43
0.00000001
 12
1.0
 22
0.0
 32
0.0
 13
1.0
 23
0.0
 33
0.0
 40
0.0
 40
0.0
 40
0.0
 40
0.0
 40
1.0
 40
1.0
 40
1.0
 40
1.0
 10
200.6803808334995
 20
113.2313416964486
 30
0.0
 10
200.1852408041352
 20
112.3446620482683
 30
0.0
 10
199.6911580988562
 20
111.4573994125823
 30
0.0
 10
199.1984480020105
 20
110.569380414456
 30
0.0
  0
LINE
  5
B4
330
1F
100
AcDbEntity
  8
0
  6
Continuous
 62
     7
370
    15
100
AcDbLine
 10
200.6803799233
 20
107.2228358384
 30
0.0
 11
200.6803799233
 21
113.2313416596
 31
0.0
  0
SPLINE
  5
B5
330
1F
100
AcDbEntity
  8
0
  6
Continuous
 62
     7
370
    15
100
AcDbSpline
210
0.0
220
0.0
230
1.0
 70
     8
 71
     3
 72
     8
 73
     4
 74
     0
 42
0.00000001
 43
0.00000001
 12
1.0
 22
0.0
 32
0.0
 13
1.0
 23
0.0
 33
0.0
 40
0.0
 40
0.0
 40
0.0
 40
0.0
 40
1.0
 40
1.0
 40
1.0
 40
1.0
 10
199.1984480020105
 20
103.8142898908677
 30
0.0
 10
199.6777261526003
 20
104.9553011207203
 30
0.0
 10
200.1732939917402
 20
106.0916855314881
 30
0.0
 10
200.6803808334995
 20
107.2228358856518
 30
0.0
  0
LINE
  5
B6
330
1F
100
AcDbEntity
  8
0
  6
Continuous
 62
     7
370
    15
100
AcDbLine
 10
199.1984482667
 20
103.8142902102
 30
0.0
 11
199.1984482667
 21
110.5693795975
 31
0.0
  0
SPLINE
  5
B7
330
1F
100
AcDbEntity
  8
0
  6
Continuous
 62
     7
370
    15
100
AcDbSpline
210
0.0
220
0.0
230
1.0
 70
     8
 71
     3
 72
     8
 73
     4
 74
     0
 42
0.00000001
 43
0.00000001
 12
1.0
 22
0.0
 32
0.0
 13
1.0
 23
0.0
 33
0.0
 40
0.0
 40
0.0
 40
0.0
 40
0.0
 40
1.0
 40
1.0
 40
1.0
 40
1.0
 10
193.8965151705214
 20
107.2228358856518
 30
0.0
 10
194.4036020122807
 20
106.0916855314881
 30
0.0
 10
194.8991698514206
 20
104.9553011207203
 30
0.0
 10
195.3784480020104
 20
103.8142898908677
 30
0.0
  0
LINE
  5
B8
330
1F
100
AcDbEntity
  8
0
  6
Continuous
 62
     7
370
    15
100
AcDbLine
 10
195.3784480503
 20
103.8142902102
 30
0.0
 11
195.3784480503
 21
102.9000127014
 31
0.0
  0
SPLINE
  5
B9
330
1F
100
AcDbEntity
  8
0
  6
Continuous
 62
     7
370
    15
100
AcDbSpline
210
0.0
220
0.0
230
1.0
 70
     8
 71
     3
 72
     8
 73
     4
 74
     0
 42
0.00000001
 43
0.00000001
 12
1.0
 22
0.0
 32
0.0
 13
1.0
 23
0.0
 33
0.0
 40
0.0
 40
0.0
 40
0.0
 40
0.0
 40
1.0
 40
1.0
 40
1.0
 40
1.0
 10
195.3784480020104
 20
110.5693804144559
 30
0.0
 10
194.8857379051647
 20
111.4573994125823
 30
0.0
 10
194.3916551998857
 20
112.3446620482683
 30
0.0
 10
193.8965151705214
 20
113.2313416964486
 30
0.0
  0
LINE
  5
BA
330
1F
100
AcDbEntity
  8
0
  6
Continuous
 62
     7
370
    15
100
AcDbLine
 10
195.3784480503
 20
103.8142902102
 30
0.0
 11
195.3784480503
 21
110.5693795975
 31
0.0
  0
LINE
  5
BB
330
1F
100
AcDbEntity
  8
0
  6
Continuous
 62
     7
370
    15
100
AcDbLine
 10
204.6384487113
 20
113.2313416596
 30
0.0
 11
200.6803799233
 21
113.2313416596
 31
0.0
  0
LINE
  5
BC
330
1F
100
AcDbEntity
  8
0
  6
Continuous
 62
     7
370
    15
100
AcDbLine
 10
200.6803799233
 20
107.2228358384
 30
0.0
 11
204.6384487113
 21
107.2228358384
 31
0.0
  0
SPLINE
  5
BD
330
1F
100
AcDbEntity
  8
0
  6
Continuous
 62
     7
370
    15
100
AcDbSpline
210
0.0
220
0.0
230
1.0
 70
     8
 71
     3
 72
    10
 73
     6
 74
     0
 42
0.00000001
 43
0.00000001
 12
1.0
 22
0.0
 32
0.0
 13
1.0
 23
0.0
 33
0.0
 40
0.0
 40
0.0
 40
0.0
 40
0.0
 40
0.5
 40
0.5
 40
1.0
 40
1.0
 40
1.0
 40
1.0
 10
205.2384480020104
 20
112.6105865470482
 30
0.0
 10
205.2384480020104
 20
112.770991813399
 30
0.0
 10
205.1762101709036
 20
112.9300536263876
 30
0.0
 10
204.957075247161
 20
113.160966092018
 30
0.0
 10
204.7994865521692
 20
113.2313416964486
 30
0.0
 10
204.6384480020104
 20
113.2313416964486
 30
0.0
  0
SPLINE
  5
BE
330
1F
100
AcDbEntity
  8
0
  6
Continuous
 62
     7
370
    15
100
AcDbSpline
210
0.0
220
0.0
230
1.0
 70
     8
 71
     3
 72
    12
 73
     8
 74
     0
 42
0.00000001
 43
0.00000001
 12
1.0
 22
0.0
 32
0.0
 13
1.0
 23
0.0
 33
0.0
 40
0.0
 40
0.0
 40
0.0
 40
0.0
 40
0.249999999999998
 40
0.249999999999998
 40
0.499999999999996
 40
0.499999999999996
 40
1.0
 40
1.0
 40
1.0
 40
1.0
 10
204.6384480020104
 20
107.2228358856518
 30
0.0
 10
204.7296477238361
 20
107.2228358856518
 30
0.0
 10
204.8202427329721
 20
107.1946161870639
 30
0.0
 10
204.9736554594188
 20
107.1001731798158
 30
0.0
 10
205.0388643267424
 20
107.0338862031105
 30
0.0
 10
205.1916488560824
 20
106.8082613798221
 30
0.0
 10
205.2384480020105
 20
106.6258351167896
 30
0.0
 10
205.2384480020104
 20
106.4450984845427
 30
0.0
  0
LINE
  5
BF
330
1F
100
AcDbEntity
  8
0
  6
Continuous
 62
     7
370
    15
100
AcDbLine
 10
205.2384476921
 20
106.4450976696
 30
0.0
 11
205.2384476921
 21
112.610587224
 31
0.0
  0
LINE
  5
C0
330
1F
100
AcDbEntity
  8
0
  6
Continuous
 62
     7
370
    15
100
AcDbLine
 10
199.1984482667
 20
102.9000127014
 30
0.0
 11
199.1984482667
 21
103.8142902102
 31
0.0
  0
LINE
  5
C1
330
1F
100
AcDbEntity
  8
0
  6
Continuous
 62
     7
370
    15
100
AcDbLine
 10
205.2384476921
 20
106.4450976696
 30
0.0
 11
205.2384476921
 21
102.6141469624
 31
0.0
  0
SPLINE
  5
C2
330
1F
100
AcDbEntity
  8
0
  6
Continuous
 62
     7
370
    15
100
AcDbSpline
210
0.0
220
0.0
230
1.0
 70
    24
 71
     3
 72
     8
 73
     4
 74
     0
 42
0.00000001
 43
0.00000001
 12
1.0
 22
0.0
 32
0.0
 13
1.0
 23
0.0
 33
0.0
 40
0.0
 40
0.0
 40
0.0
 40
0.0
 40
1.0
 40
1.0
 40
1.0
 40
1.0
 10
221.8862931391831
 20
108.7641462232843
 30
0.0
 10
221.7213177573763
 20
108.7641462232843
 30
0.0
 10
221.5863527416674
 20
108.7641462232843
 30
0.0
 10
221.4870468403216
 20
108.7641462232843
 30
0.0
  0
LWPOLYLINE
  5
C3
330
1F
100
AcDbEntity
  8
0
  6
Continuous
 62
     7
370
    15
100
AcDbPolyline
 90
       29
 70
   128
 43
0.0
 10
271.0070248505
 20
73.5153922137
 10
270.9142874738
 20
72.837246887
 10
270.8286281487
 20
72.2309922125
 10
270.7543458602
 20
71.7270274904
 10
270.6951584479
 20
71.3506232273
 10
270.6540461442
 20
71.1206554692
 10
270.6330578586
 20
71.0486539897
 10
270.6332590243
 20
71.1382304575
 10
270.6546272894
 20
71.3848931041
 10
270.696097221
 20
71.7762721028
 10
270.7555901071
 20
72.2927435558
 10
270.8301182648
 20
72.9084083136
 10
270.9159489533
 20
73.5923948955
 10
271.0087831875
 20
74.310405485
 10
271.1039494535
 20
75.0264351513
 10
271.1966942808
 20
75.704580478
 10
271.2823536059
 20
76.3108356181
 10
271.3566358944
 20
76.8148003403
 10
271.4158233067
 20
77.1912041377
 10
271.4569356104
 20
77.4211723614
 10
271.477923896
 20
77.4931733753
 10
271.4777227303
 20
77.4035969075
 10
271.4563544652
 20
77.1569347266
 10
271.4148845336
 20
76.7655552622
 10
271.3553916475
 20
76.2490838092
 10
271.2808560392
 20
75.6334190514
 10
271.1950253507
 20
74.9494324695
 10
271.1021985671
 20
74.23142188
 10
271.0070248505
 20
73.5153922137
  0
LWPOLYLINE
  5
C4
330
1F
100
AcDbEntity
  8
0
  6
Continuous
 62
     7
370
    15
100
AcDbPolyline
 90
       26
 70
   128
 43
0.0
 10
271.018208172
 20
73.6897432502
 10
270.9386061689
 20
73.1087199669
 10
270.8663504383
 20
72.6007207554
 10
270.8059783837
 20
72.1976666968
 10
270.7612823507
 20
71.9248823147
 10
270.7350712081
 20
71.7995076697
 10
270.728998985
 20
71.8294208195
 10
270.7434307596
 20
72.0127414238
 10
270.7774799129
 20
72.3379508849
 10
270.8289932272
 20
72.784616917
 10
270.8947371503
 20
73.3246713202
 10
270.9705840608
 20
73.924182288
 10
271.051765587
 20
74.5454787534
 10
271.1331855318
 20
75.1495238651
 10
271.2097178957
 20
75.6983629685
 10
271.2765570542
 20
76.1575096544
 10
271.3295083305
 20
76.498114809
 10
271.3652487656
 20
76.6987766396
 10
271.3815133831
 20
76.7468869012
 10
271.377303805
 20
76.6394229863
 10
271.3528659007
 20
76.3831365179
 10
271.3097493908
 20
75.9941314604
 10
271.2506513855
 20
75.4968503747
 10
271.1792971751
 20
74.9225386675
 10
271.100157108
 20
74.3072836917
 10
271.018208172
 20
73.6897432502
  0
LINE
  5
C5
330
1F
100
AcDbEntity
  8
0
  6
Continuous
 62
     7
370
    15
100
AcDbLine
 10
257.7761646172
 20
65.2230748232
 30
0.0
 11
256.4028139969
 21
62.6839337196
 31
0.0
  0
LINE
  5
C6
330
1F
100
AcDbEntity
  8
0
  6
Continuous
 62
     7
370
    15
100
AcDbLine
 10
257.9150955936
 20
60.2250055667
 30
0.0
 11
256.4028139969
 21
62.6839337196
 31
0.0
  0
LINE
  5
C7
330
1F
100
AcDbEntity
  8
0
  6
Continuous
 62
     7
370
    15
100
AcDbLine
 10
260.6618042847
 20
65.3032859113
 30
0.0
 11
262.1740858814
 21
62.8443577584
 31
0.0
  0
LINE
  5
C8
330
1F
100
AcDbEntity
  8
0
  6
Continuous
 62
     7
370
    15
100
AcDbLine
 10
260.6618042847
 20
65.3032859113
 30
0.0
 11
257.7761646172
 21
65.2230748232
 31
0.0
  0
CIRCLE
  5
C9
330
1F
100
AcDbEntity
  8
0
  6
Continuous
 62
     7
370
    15
100
AcDbCircle
 10
259.288448002
 20
62.7641462233
 30
0.0
 40
4.172000000000017
  0
LINE
  5
CA
330
1F
100
AcDbEntity
  8
0
  6
Continuous
 62
     7
370
    15
100
AcDbLine
 10
260.8007352611
 20
60.3052166548
 30
0.0
 11
257.9150955936
 21
60.2250055667
 31
0.0
  0
LINE
  5
CB
330
1F
100
AcDbEntity
  8
0
  6
Continuous
 62
     7
370
    15
100
AcDbLine
 10
260.8007352611
 20
60.3052166548
 30
0.0
 11
262.1740858814
 21
62.8443577584
 31
0.0
  0
LINE
  5
CC
330
1F
100
AcDbEntity
  8
0
  6
Continuous
 62
     7
370
    15
100
AcDbLine
 10
241.6803959569
 20
61.1480058428
 30
0.0
 11
241.8840389511
 21
64.0275658365
 31
0.0
  0
LINE
  5
CD
330
1F
100
AcDbEntity
  8
0
  6
Continuous
 62
     7
370
    15
100
AcDbLine
 10
239.4920933804
 20
65.6437048014
 30
0.0
 11
241.8840389511
 21
64.0275658365
 31
0.0
  0
LINE
  5
CE
330
1F
100
AcDbEntity
  8
0
  6
Continuous
 62
     7
370
    15
100
AcDbLine
 10
236.8964973649
 20
64.3802874979
 30
0.0
 11
239.4920933804
 21
65.6437048014
 31
0.0
  0
LINE
  5
CF
330
1F
100
AcDbEntity
  8
0
  6
Continuous
 62
     7
370
    15
100
AcDbLine
 10
239.0848036667
 20
59.8845866766
 30
0.0
 11
236.6928543707
 21
61.5007275041
 31
0.0
  0
LINE
  5
D0
330
1F
100
AcDbEntity
  8
0
  6
Continuous
 62
     7
370
    15
100
AcDbLine
 10
239.0848036667
 20
59.8845866766
 30
0.0
 11
241.6803959569
 21
61.1480058428
 31
0.0
  0
CIRCLE
  5
D1
330
1F
100
AcDbEntity
  8
0
  6
Continuous
 62
     7
370
    15
100
AcDbCircle
 10
239.288448002
 20
62.7641462233
 30
0.0
 40
4.171999999999989
  0
LINE
  5
D2
330
1F
100
AcDbEntity
  8
0
  6
Continuous
 62
     7
370
    15
100
AcDbLine
 10
236.8964973649
 20
64.3802874979
 30
0.0
 11
236.6928543707
 21
61.5007275041
 31
0.0
  0
LINE
  5
D3
330
1F
100
AcDbEntity
  8
0
  6
HIDDEN
 62
     7
370
     0
100
AcDbLine
 10
193.8965154624
 20
107.2228358384
 30
0.0
 11
193.8965154624
 21
102.6141469624
 31
0.0
  0
SPLINE
  5
D4
330
1F
100
AcDbEntity
  8
0
  6
HIDDEN
 62
     7
370
     0
100
AcDbSpline
210
0.0
220
0.0
230
1.0
 70
     8
 71
     3
 72
    14
 73
    10
 74
     0
 42
0.00000001
 43
0.00000001
 12
1.0
 22
0.0
 32
0.0
 13
1.0
 23
0.0
 33
0.0
 40
0.0
 40
0.0
 40
0.0
 40
0.0
 40
0.125
 40
0.125
 40
0.2499999999999999
 40
0.2499999999999999
 40
0.4999999999999999
 40
0.4999999999999999
 40
1.0
 40
1.0
 40
1.0
 40
1.0
 10
224.1522548489088
 20
93.76414622328436
 30
0.0
 10
224.0504569100192
 20
92.49703021632602
 30
0.0
 10
223.9645124074842
 20
91.22766637676607
 30
0.0
 10
223.8273317092174
 20
88.68401746405141
 30
0.0
 10
223.7761526952281
 20
87.40956255980092
 30
0.0
 10
223.6780714383313
 20
83.59452691286589
 30
0.0
 10
223.6869585384109
 20
81.0571424481105
 30
0.0
 10
223.9316090154855
 20
73.46251818645632
 30
0.0
 10
224.3880483941601
 20
68.42302357743283
 30
0.0
 10
225.0397366960462
 20
63.39922949224727
 30
0.0
  0
SPLINE
  5
D5
330
1F
100
AcDbEntity
  8
0
  6
HIDDEN
 62
     7
370
     0
100
AcDbSpline
210
0.0
220
0.0
230
1.0
 70
     8
 71
     3
 72
    10
 73
     6
 74
     0
 42
0.00000001
 43
0.00000001
 12
1.0
 22
0.0
 32
0.0
 13
1.0
 23
0.0
 33
0.0
 40
0.0
 40
0.0
 40
0.0
 40
0.0
 40
0.5
 40
0.5
 40
1.0
 40
1.0
 40
1.0
 40
1.0
 10
223.111156020861
 20
108.7641462232843
 30
0.0
 10
222.9881230037693
 20
106.2538550039161
 30
0.0
 10
223.0212030789673
 20
103.7489814100763
 30
0.0
 10
223.3861160931332
 20
98.74960190596366
 30
0.0
 10
223.7156463331308
 20
96.25501608464323
 30
0.0
 10
224.1522548489088
 20
93.76414622328436
 30
0.0
  0
LINE
  5
D6
330
1F
100
AcDbEntity
  8
0
  6
HIDDEN
 62
     7
370
     0
100
AcDbLine
 10
225.0397365352
 20
52.7641468938
 30
0.0
 11
225.0397365352
 21
63.3992285725
 31
0.0
  0
LINE
  5
D7
330
1F
100
AcDbEntity
  8
0
  6
HIDDEN
 62
     7
370
     0
100
AcDbLine
 10
167.2835985011
 20
59.2395470735
 30
0.0
 11
167.0347332766
 21
59.2162844982
 31
0.0
  0
LINE
  5
D8
330
1F
100
AcDbEntity
  8
0
  6
HIDDEN
 62
     7
370
     0
100
AcDbLine
 10
166.9021725467
 20
106.3242324885
 30
0.0
 11
167.2835053688
 21
106.2887286093
 31
0.0
  0
SPLINE
  5
D9
330
1F
100
AcDbEntity
  8
0
  6
HIDDEN
 62
     7
370
     0
100
AcDbSpline
210
0.0
220
0.0
230
1.0
 70
     8
 71
     3
 72
    15
 73
    11
 74
     0
 42
0.00000001
 43
0.00000001
 12
1.0
 22
0.0
 32
0.0
 13
1.0
 23
0.0
 33
0.0
 40
0.0
 40
0.0
 40
0.0
 40
0.0
 40
0.1409172263352446
 40
0.281889861653346
 40
0.4212989542022905
 40
0.5593768841673977
 40
0.6988856533029646
 40
0.840367202775075
 40
0.9813164473602943
 40
1.0
 40
1.0
 40
1.0
 40
1.0
 10
173.0434500424264
 20
62.926617756106
 30
0.0
 10
172.7274083228138
 20
62.96697107788069
 30
0.0
 10
172.0952006152454
 20
63.04769358845051
 30
0.0
 10
170.8610374429311
 20
63.12425153483328
 30
0.0
 10
169.5903153191155
 20
63.11957346681834
 30
0.0
 10
168.401755852579
 20
63.0387770015951
 30
0.0
 10
167.4086331732886
 20
62.91438245474089
 30
0.0
 10
166.7692246419749
 20
62.80797550797966
 30
0.0
 10
166.4882046536215
 20
62.7548984486701
 30
0.0
 10
166.5547652221103
 20
62.76715294063201
 30
0.0
 10
166.5625555252729
 20
62.76858721635495
 30
0.0
  0
SPLINE
  5
DA
330
1F
100
AcDbEntity
  8
0
  6
HIDDEN
 62
     7
370
     0
100
AcDbSpline
210
0.0
220
0.0
230
1.0
 70
     8
 71
     3
 72
    15
 73
    11
 74
     0
 42
0.00000001
 43
0.00000001
 12
1.0
 22
0.0
 32
0.0
 13
1.0
 23
0.0
 33
0.0
 40
0.0
 40
0.0
 40
0.0
 40
0.0
 40
0.1201202497733958
 40
0.2584739452442804
 40
0.3987302041697883
 40
0.5404022600041716
 40
0.680739511736143
 40
0.8190355942651634
 40
0.9577823154231621
 40
1.0
 40
1.0
 40
1.0
 40
1.0
 10
166.5625555252729
 20
102.7597052302137
 30
0.0
 10
166.5832647740764
 20
102.7556807261394
 30
0.0
 10
166.6278267963114
 20
102.7470208253509
 30
0.0
 10
167.1902662660399
 20
102.6477279066397
 30
0.0
 10
168.0837285214871
 20
102.5238118949284
 30
0.0
 10
169.2427073453393
 20
102.4241005193947
 30
0.0
 10
170.515744214159
 20
102.3969634616967
 30
0.0
 10
171.7500295608861
 20
102.4523008238268
 30
0.0
 10
172.577992638582
 20
102.5387805596181
 30
0.0
 10
172.9554029512283
 20
102.5897774787553
 30
0.0
 10
173.0434500424264
 20
102.6016746904627
 30
0.0
  0
SPLINE
  5
DB
330
1F
100
AcDbEntity
  8
0
  6
HIDDEN
 62
     7
370
     0
100
AcDbSpline
210
0.0
220
0.0
230
1.0
 70
     8
 71
     3
 72
    10
 73
     6
 74
     0
 42
0.00000001
 43
0.00000001
 12
1.0
 22
0.0
 32
0.0
 13
1.0
 23
0.0
 33
0.0
 40
0.0
 40
0.0
 40
0.0
 40
0.0
 40
0.4476571771064548
 40
0.8952976931265143
 40
0.9999999999999999
 40
0.9999999999999999
 40
0.9999999999999999
 40
0.9999999999999999
 10
173.0434500424264
 20
102.6016746904627
 30
0.0
 10
173.2901512428143
 20
102.6311862407564
 30
0.0
 10
173.7835444617645
 20
102.6902082429709
 30
0.0
 10
174.0725553639045
 20
102.7041503662559
 30
0.0
 10
174.0122256931984
 20
102.7002605251418
 30
0.0
 10
174.0007895788251
 20
102.6995231654421
 30
0.0
  0
SPLINE
  5
DC
330
1F
100
AcDbEntity
  8
0
  6
HIDDEN
 62
     7
370
     0
100
AcDbSpline
210
0.0
220
0.0
230
1.0
 70
     8
 71
     3
 72
    10
 73
     6
 74
     0
 42
0.00000001
 43
0.00000001
 12
1.0
 22
0.0
 32
0.0
 13
1.0
 23
0.0
 33
0.0
 40
0.0
 40
0.0
 40
0.0
 40
0.0
 40
0.3456490132537171
 40
0.7967511790367436
 40
1.0
 40
1.0
 40
1.0
 40
1.0
 10
174.0007928384541
 20
62.8287692811266
 30
0.0
 10
173.9912331041853
 20
62.8293243573
 30
0.0
 10
173.9691970813474
 20
62.83060385638334
 30
0.0
 10
173.5521808775455
 20
62.8605684103324
 30
0.0
 10
173.1640178661317
 20
62.91096424087291
 30
0.0
 10
173.0434500424264
 20
62.926617756106
 30
0.0
  0
LINE
  5
DD
330
1F
100
AcDbEntity
  8
0
  6
HIDDEN
 62
     7
370
     0
100
AcDbLine
 10
160.2924234977
 20
65.7641452994
 30
0.0
 11
160.2924234977
 21
99.7641471472
 31
0.0
  0
LINE
  5
DE
330
1F
100
AcDbEntity
  8
0
  6
HIDDEN
 62
     7
370
     0
100
AcDbLine
 10
261.288450267
 20
80.7641461283
 30
0.0
 11
261.288450267
 21
68.7641457912
 31
0.0
  0
LINE
  5
DF
330
1F
100
AcDbEntity
  8
0
  6
HIDDEN
 62
     7
370
     0
100
AcDbLine
 10
186.948273964
 20
65.7641452994
 30
0.0
 11
186.948273964
 21
99.7641471472
 31
0.0
  0
LINE
  5
E0
330
1F
100
AcDbEntity
  8
0
  6
HIDDEN
 62
     7
370
     0
100
AcDbLine
 10
189.2384478634
 20
67.0391463932
 30
0.0
 11
189.2384478634
 21
98.4891460534
 31
0.0
  0
SPLINE
  5
E1
330
1F
100
AcDbEntity
  8
0
  6
HIDDEN
 62
     7
370
     0
100
AcDbSpline
210
0.0
220
0.0
230
1.0
 70
     8
 71
     3
 72
    18
 73
    14
 74
     0
 42
0.00000001
 43
0.00000001
 12
1.0
 22
0.0
 32
0.0
 13
1.0
 23
0.0
 33
0.0
 40
0.0
 40
0.0
 40
0.0
 40
0.0
 40
0.2500000000000009
 40
0.2500000000000009
 40
0.3750000000000007
 40
0.3750000000000007
 40
0.5000000000000006
 40
0.5000000000000006
 40
0.6250000000000003
 40
0.6250000000000003
 40
0.7500000000000001
 40
0.7500000000000001
 40
1.0
 40
1.0
 40
1.0
 40
1.0
 10
153.4884480020104
 20
99.05165984568848
 30
0.0
 10
153.4884480020104
 20
98.99718532513627
 30
0.0
 10
153.4535373106183
 20
98.9408042657838
 30
0.0
 10
153.3515280092852
 20
98.85672742493028
 30
0.0
 10
153.3098916546071
 20
98.8293937209394
 30
0.0
 10
153.2114858591184
 20
98.77643980534042
 30
0.0
 10
153.1539426474141
 20
98.75055245162325
 30
0.0
 10
153.0266444738411
 20
98.70277490678997
 30
0.0
 10
152.9570571690837
 20
98.68082698861208
 30
0.0
 10
152.8056229239287
 20
98.64139442369938
 30
0.0
 10
152.7229390208348
 20
98.6238381744735
 30
0.0
 10
152.4668275587967
 20
98.581399409053
 30
0.0
 10
152.2789125549087
 20
98.56563665931598
 30
0.0
 10
152.0884480020104
 20
98.565636659316
 30
0.0
  0
LINE
  5
E2
330
1F
100
AcDbEntity
  8
0
  6
HIDDEN
 62
     7
370
     0
100
AcDbLine
 10
152.0884476414
 20
98.5656374391
 30
0.0
 11
148.5384471526
 21
98.5656374391
 31
0.0
  0
LINE
  5
E3
330
1F
100
AcDbEntity
  8
0
  6
HIDDEN
 62
     7
370
     0
100
AcDbLine
 10
148.5384471526
 20
66.939960539
 30
0.0
 11
156.0884482971
 21
66.939960539
 31
0.0
  0
SPLINE
  5
E4
330
1F
100
AcDbEntity
  8
0
  6
HIDDEN
 62
     7
370
     0
100
AcDbSpline
210
0.0
220
0.0
230
1.0
 70
     8
 71
     3
 72
    16
 73
    12
 74
     0
 42
0.00000001
 43
0.00000001
 12
1.0
 22
0.0
 32
0.0
 13
1.0
 23
0.0
 33
0.0
 40
0.0
 40
0.0
 40
0.0
 40
0.0
 40
0.1249999999999998
 40
0.1249999999999998
 40
0.2499999999999997
 40
0.2499999999999997
 40
0.4999999999999998
 40
0.4999999999999998
 40
0.7499999999999999
 40
0.7499999999999999
 40
1.0
 40
1.0
 40
1.0
 40
1.0
 10
156.0884480020104
 20
66.93996081770976
 30
0.0
 10
156.1835085917735
 20
66.93996081770976
 30
0.0
 10
156.2767830147044
 20
66.93619014615385
 30
0.0
 10
156.4599432079735
 20
66.92159363718712
 30
0.0
 10
156.5507776011052
 20
66.91056702262857
 30
0.0
 10
156.807516090297
 20
66.86858622872535
 30
0.0
 10
156.9625922784624
 20
66.82800794695035
 30
0.0
 10
157.2164281895209
 20
66.73393469429995
 30
0.0
 10
157.3173812048326
 20
66.67977945414408
 30
0.0
 10
157.452729659706
 20
66.56980142254106
 30
0.0
 10
157.4884480020104
 20
66.5132964359269
 30
0.0
 10
157.4884480020104
 20
66.45955043712638
 30
0.0
  0
LINE
  5
E5
330
1F
100
AcDbEntity
  8
0
  6
HIDDEN
 62
     7
370
     0
100
AcDbLine
 10
148.5384471526
 20
66.939960539
 30
0.0
 11
148.5384471526
 21
98.5656374391
 31
0.0
  0
SPLINE
  5
E6
330
1F
100
AcDbEntity
  8
0
  6
HIDDEN
 62
     7
370
     0
100
AcDbSpline
210
0.0
220
0.0
230
1.0
 70
     8
 71
     3
 72
    24
 73
    20
 74
     0
 42
0.00000001
 43
0.00000001
 12
1.0
 22
0.0
 32
0.0
 13
1.0
 23
0.0
 33
0.0
 40
0.0
 40
0.0
 40
0.0
 40
0.0
 40
0.1249999999999989
 40
0.1249999999999989
 40
0.2499999999999978
 40
0.2499999999999978
 40
0.3749999999999967
 40
0.3749999999999967
 40
0.437499999999997
 40
0.437499999999997
 40
0.4999999999999974
 40
0.4999999999999974
 40
0.6249999999999981
 40
0.6249999999999981
 40
0.7499999999999988
 40
0.7499999999999988
 40
0.8749999999999994
 40
0.8749999999999994
 40
1.0
 40
1.0
 40
1.0
 40
1.0
 10
244.3884480020104
 20
79.07022760312402
 30
0.0
 10
244.4900211408514
 20
79.22520975576303
 30
0.0
 10
244.5883360897826
 20
79.38807798395821
 30
0.0
 10
244.7763646847051
 20
79.7300093730029
 30
0.0
 10
244.8648777454131
 20
79.90738948057833
 30
0.0
 10
245.0163914541324
 20
80.26112389444236
 30
0.0
 10
245.080833691027
 20
80.44176641803169
 30
0.0
 10
245.1467021114754
 20
80.70237328775022
 30
0.0
 10
245.1638102010182
 20
80.78813026677136
 30
0.0
 10
245.1870958300111
 20
80.95769559577857
 30
0.0
 10
245.1931516622299
 20
81.04175571801201
 30
0.0
 10
245.1933709456576
 20
81.28204504683298
 30
0.0
 10
245.1697196404579
 20
81.43122374607906
 30
0.0
 10
245.0814622683581
 20
81.69574702492928
 30
0.0
 10
245.0184800033098
 20
81.80857967799425
 30
0.0
 10
244.8654388293386
 20
81.99214195500898
 30
0.0
 10
244.7784092501512
 20
82.05953561862944
 30
0.0
 10
244.5900261721404
 20
82.14457921104443
 30
0.0
 10
244.4900316919115
 20
82.16097846775304
 30
0.0
 10
244.3884480020104
 20
82.14933871464841
 30
0.0
  0
SPLINE
  5
E7
330
1F
100
AcDbEntity
  8
0
  6
HIDDEN
 62
     7
370
     0
100
AcDbSpline
210
0.0
220
0.0
230
1.0
 70
     8
 71
     3
 72
    40
 73
    36
 74
     0
 42
0.00000001
 43
0.00000001
 12
1.0
 22
0.0
 32
0.0
 13
1.0
 23
0.0
 33
0.0
 40
0.0
 40
0.0
 40
0.0
 40
0.0
 40
0.1250000000000036
 40
0.1250000000000036
 40
0.1875000000000039
 40
0.1875000000000039
 40
0.2500000000000042
 40
0.2500000000000042
 40
0.3125000000000045
 40
0.3125000000000045
 40
0.3437500000000047
 40
0.3437500000000047
 40
0.3750000000000049
 40
0.3750000000000049
 40
0.4062500000000051
 40
0.4062500000000051
 40
0.4375000000000052
 40
0.4375000000000052
 40
0.4687500000000054
 40
0.4687500000000054
 40
0.5000000000000056
 40
0.5000000000000056
 40
0.5625000000000059
 40
0.5625000000000059
 40
0.5937500000000057
 40
0.5937500000000057
 40
0.6250000000000054
 40
0.6250000000000054
 40
0.6875000000000051
 40
0.6875000000000051
 40
0.7500000000000047
 40
0.7500000000000047
 40
0.8750000000000023
 40
0.8750000000000023
 40
1.0
 40
1.0
 40
1.0
 40
1.0
 10
244.3884480020104
 20
79.07022760312402
 30
0.0
 10
243.8223204774147
 20
79.0144489350893
 30
0.0
 10
243.2531593499349
 20
78.98043367587236
 30
0.0
 10
242.3939497878821
 20
78.95803521094696
 30
0.0
 10
242.106611474059
 20
78.95552850050163
 30
0.0
 10
241.5294340870893
 20
78.96349124706538
 30
0.0
 10
241.2394078171861
 20
78.97393287292103
 30
0.0
 10
240.6690708267096
 20
79.0150881192511
 30
0.0
 10
240.384738079479
 20
79.04600627320623
 30
0.0
 10
239.9800776333279
 20
79.119080345326
 30
0.0
 10
239.8487086724398
 20
79.14792841462913
 30
0.0
 10
239.5946410548103
 20
79.21827014275468
 30
0.0
 10
239.4709355269102
 20
79.26015586829075
 30
0.0
 10
239.2394443896238
 20
79.36052486329862
 30
0.0
 10
239.1328578920662
 20
79.41832462027604
 30
0.0
 10
238.9407558929518
 20
79.55432376189404
 30
0.0
 10
238.8555574024183
 20
79.63298671026682
 30
0.0
 10
238.7179107091787
 20
79.80723767339168
 30
0.0
 10
238.6635954057381
 20
79.9046583046155
 30
0.0
 10
238.5898628554959
 20
80.11807967931422
 30
0.0
 10
238.5711803643104
 20
80.2307127679204
 30
0.0
 10
238.5694818951726
 20
80.58750128518076
 30
0.0
 10
238.6450291812363
 20
80.84472925864125
 30
0.0
 10
238.8510359111447
 20
81.19557193764051
 30
0.0
 10
238.9355708338712
 20
81.30822915426265
 30
0.0
 10
239.1274313570407
 20
81.5155341844402
 30
0.0
 10
239.2340605775717
 20
81.60996814146269
 30
0.0
 10
239.5819157363911
 20
81.86775551154534
 30
0.0
 10
239.839760533059
 20
81.99789561292293
 30
0.0
 10
240.3839369001665
 20
82.19787933501806
 30
0.0
 10
240.6665454570804
 20
82.26612607435001
 30
0.0
 10
241.517836814268
 20
82.40524959830245
 30
0.0
 10
242.1020304912796
 20
82.4146760548653
 30
0.0
 10
243.2514346513402
 20
82.3451305027204
 30
0.0
 10
243.8217512890634
 20
82.26540170726489
 30
0.0
 10
244.3884480020104
 20
82.14933871464841
 30
0.0
  0
LINE
  5
E8
330
1F
100
AcDbEntity
  8
0
  6
HIDDEN
 62
     7
370
     0
100
AcDbLine
 10
148.5384471526
 20
64.7741456773
 30
0.0
 11
148.5384471526
 21
61.8944105949
 31
0.0
  0
LINE
  5
E9
330
1F
100
AcDbEntity
  8
0
  6
HIDDEN
 62
     7
370
     0
100
AcDbLine
 10
157.4884477815
 20
64.7741456773
 30
0.0
 11
157.4884477815
 21
60.7898303565
 31
0.0
  0
LINE
  5
EA
330
1F
100
AcDbEntity
  8
0
  6
HIDDEN
 62
     7
370
     0
100
AcDbLine
 10
153.4884471258
 20
100.7541467693
 30
0.0
 11
153.4884471258
 21
104.608253881
 31
0.0
  0
LINE
  5
EB
330
1F
100
AcDbEntity
  8
0
  6
HIDDEN
 62
     7
370
     0
100
AcDbLine
 10
148.5384471526
 20
100.7541467693
 30
0.0
 11
148.5384471526
 21
103.63408488
 31
0.0
  0
LINE
  5
EC
330
1F
100
AcDbEntity
  8
0
  6
HIDDEN
 62
     7
370
     0
100
AcDbLine
 10
201.0884482225
 20
73.2641465288
 30
0.0
 11
201.0884482225
 21
92.2641459178
 31
0.0
  0
LINE
  5
ED
330
1F
100
AcDbEntity
  8
0
  6
HIDDEN
 62
     7
370
     0
100
AcDbLine
 10
198.5884487441
 20
73.2641465288
 30
0.0
 11
198.5884487441
 21
92.2641459178
 31
0.0
  0
LINE
  5
EE
330
1F
100
AcDbEntity
  8
0
  6
HIDDEN
 62
     7
370
     0
100
AcDbLine
 10
189.7384479454
 20
74.2641457613
 30
0.0
 11
189.7384479454
 21
91.2641466852
 31
0.0
  0
LINE
  5
EF
330
1F
100
AcDbEntity
  8
0
  6
HIDDEN
 62
     7
370
     0
100
AcDbLine
 10
205.2384476921
 20
56.3641463663
 30
0.0
 11
199.1007730177
 21
56.3641463663
 31
0.0
  0
LINE
  5
F0
330
1F
100
AcDbEntity
  8
0
  6
HIDDEN
 62
     7
370
     0
100
AcDbLine
 10
184.2384479752
 20
51.2800229039
 30
0.0
 11
184.2384479752
 21
56.3641463663
 31
0.0
  0
LINE
  5
F1
330
1F
100
AcDbEntity
  8
0
  6
HIDDEN
 62
     7
370
     0
100
AcDbLine
 10
192.2384483552
 20
56.3641463663
 30
0.0
 11
184.2384479752
 21
56.3641463663
 31
0.0
  0
LINE
  5
F2
330
1F
100
AcDbEntity
  8
0
  6
HIDDEN
 62
     7
370
     0
100
AcDbLine
 10
195.4761232993
 20
56.3641463663
 30
0.0
 11
192.2384483552
 21
56.3641463663
 31
0.0
  0
LINE
  5
F3
330
1F
100
AcDbEntity
  8
0
  6
HIDDEN
 62
     7
370
     0
100
AcDbLine
 10
205.2384476921
 20
109.1641460802
 30
0.0
 11
198.8041505029
 21
109.1641460802
 31
0.0
  0
LINE
  5
F4
330
1F
100
AcDbEntity
  8
0
  6
HIDDEN
 62
     7
370
     0
100
AcDbLine
 10
195.772745814
 20
109.1641460802
 30
0.0
 11
192.2384483552
 21
109.1641460802
 31
0.0
  0
LINE
  5
F5
330
1F
100
AcDbEntity
  8
0
  6
HIDDEN
 62
     7
370
     0
100
AcDbLine
 10
192.2384483552
 20
109.1641460802
 30
0.0
 11
184.2384479752
 21
109.1641460802
 31
0.0
  0
SPLINE
  5
F6
330
1F
100
AcDbEntity
  8
0
  6
HIDDEN
 62
     7
370
     0
100
AcDbSpline
210
0.0
220
0.0
230
1.0
 70
     8
 71
     3
 72
     8
 73
     4
 74
     0
 42
0.00000001
 43
0.00000001
 12
1.0
 22
0.0
 32
0.0
 13
1.0
 23
0.0
 33
0.0
 40
0.0000002438860713
 40
0.0000002438860713
 40
0.0000002438860713
 40
0.0000002438860713
 40
0.0014006025853533
 40
0.0014006025853533
 40
0.0014006025853533
 40
0.0014006025853533
 10
148.5384480020104
 20
98.565636659316
 30
0.0
 10
148.1556609294455
 20
98.71570818729177
 30
0.0
 10
147.7723075294894
 20
98.86386538920918
 30
0.0
 10
147.3884480020104
 20
99.01023890101243
 30
0.0
  0
SPLINE
  5
F7
330
1F
100
AcDbEntity
  8
0
  6
HIDDEN
 62
     7
370
     0
100
AcDbSpline
210
0.0
220
0.0
230
1.0
 70
     8
 71
     3
 72
     8
 73
     4
 74
     0
 42
0.00000001
 43
0.00000001
 12
1.0
 22
0.0
 32
0.0
 13
1.0
 23
0.0
 33
0.0
 40
0.0000002432968744
 40
0.0000002432968744
 40
0.0000002432968744
 40
0.0000002432968744
 40
0.0014011510532366
 40
0.0014011510532366
 40
0.0014011510532366
 40
0.0014011510532366
 10
147.3884480020104
 20
66.49363222966907
 30
0.0
 10
147.772312468747
 20
66.64057114213135
 30
0.0
 10
148.1556660905706
 20
66.78930350194925
 30
0.0
 10
148.5384480020104
 20
66.93996081770976
 30
0.0
  0
LINE
  5
F8
330
1F
100
AcDbEntity
  8
0
  6
HIDDEN
 62
     7
370
     0
100
AcDbLine
 10
148.5384471526
 20
100.7541467693
 30
0.0
 11
148.5384471526
 21
98.5656374391
 31
0.0
  0
LINE
  5
F9
330
1F
100
AcDbEntity
  8
0
  6
HIDDEN
 62
     7
370
     0
100
AcDbLine
 10
153.4884471258
 20
100.7541467693
 30
0.0
 11
153.4884471258
 21
99.0516593005
 31
0.0
  0
LINE
  5
FA
330
1F
100
AcDbEntity
  8
0
  6
HIDDEN
 62
     7
370
     0
100
AcDbLine
 10
148.5384471526
 20
64.7741456773
 30
0.0
 11
148.5384471526
 21
66.939960539
 31
0.0
  0
LINE
  5
FB
330
1F
100
AcDbEntity
  8
0
  6
HIDDEN
 62
     7
370
     0
100
AcDbLine
 10
157.4884477815
 20
64.7741456773
 30
0.0
 11
157.4884477815
 21
66.4595508274
 31
0.0
  0
LINE
  5
FC
330
1F
100
AcDbEntity
  8
0
  6
HIDDEN
 62
     7
370
     0
100
AcDbLine
 10
232.7884483894
 20
72.7641464468
 30
0.0
 11
232.7884483894
 21
52.7641468938
 31
0.0
  0
LINE
  5
FD
330
1F
100
AcDbEntity
  8
0
  6
HIDDEN
 62
     7
370
     0
100
AcDbLine
 10
224.2884497901
 20
72.7641464468
 30
0.0
 11
232.7884483894
 21
72.7641464468
 31
0.0
  0
LINE
  5
FE
330
1F
100
AcDbEntity
  8
0
  6
HIDDEN
 62
     7
370
     0
100
AcDbLine
 10
224.2884497901
 20
72.7641464468
 30
0.0
 11
224.2884497901
 21
52.7641468938
 31
0.0
  0
SPLINE
  5
FF
330
1F
100
AcDbEntity
  8
0
  6
HIDDEN
 62
     7
370
     0
100
AcDbSpline
210
0.0
220
0.0
230
1.0
 70
     8
 71
     3
 72
    20
 73
    16
 74
     0
 42
0.00000001
 43
0.00000001
 12
1.0
 22
0.0
 32
0.0
 13
1.0
 23
0.0
 33
0.0
 40
0.0
 40
0.0
 40
0.0
 40
0.0
 40
0.1118897291693858
 40
0.1774089262436372
 40
0.2490304791280283
 40
0.3297789356017486
 40
0.3985513193869841
 40
0.4998310599605164
 40
0.613796198493052
 40
0.6789621039386808
 40
0.7494886105625262
 40
0.829634582465829
 40
0.8980782578730401
 40
0.9994886570664602
 40
1.0
 40
1.0
 40
1.0
 40
1.0
 10
174.0371390989123
 20
59.16419190130387
 30
0.0
 10
173.9938362048551
 20
59.17761338334576
 30
0.0
 10
173.9251764628488
 20
59.19889407403403
 30
0.0
 10
173.4801053251556
 20
59.30218342423905
 30
0.0
 10
172.9535523150129
 20
59.41548250208424
 30
0.0
 10
172.2681256235725
 20
59.53841750392928
 30
0.0
 10
171.3748088802535
 20
59.66045209412363
 30
0.0
 10
170.2614491069272
 20
59.77818780196408
 30
0.0
 10
169.1506748613887
 20
59.79016152469814
 30
0.0
 10
168.2659269739488
 20
59.76310631820232
 30
0.0
 10
167.5987292590831
 20
59.71517205025116
 30
0.0
 10
167.0574606944128
 20
59.65887986172282
 30
0.0
 10
166.6698657534521
 20
59.61378946397235
 30
0.0
 10
166.4759298031386
 20
59.57493834368699
 30
0.0
 10
166.5390971105947
 20
59.585638054158
 30
0.0
 10
166.5394140219389
 20
59.5856917347685
 30
0.0
  0
LINE
  5
100
330
1F
100
AcDbEntity
  8
0
  6
HIDDEN
 62
     7
370
     0
100
AcDbLine
 10
167.4484602919
 20
59.6964837309
 30
0.0
 11
167.6323052308
 21
59.7146743234
 31
0.0
  0
SPLINE
  5
101
330
1F
100
AcDbEntity
  8
0
  6
HIDDEN
 62
     7
370
     0
100
AcDbSpline
210
0.0
220
0.0
230
1.0
 70
     8
 71
     3
 72
    27
 73
    23
 74
     0
 42
0.00000001
 43
0.00000001
 12
1.0
 22
0.0
 32
0.0
 13
1.0
 23
0.0
 33
0.0
 40
0.0
 40
0.0
 40
0.0
 40
0.0
 40
0.0007943324015785
 40
0.0456766977043975
 40
0.1022581783187231
 40
0.1705360447237898
 40
0.2091275760893688
 40
0.2506546798891434
 40
0.3211002087645519
 40
0.3861937481921471
 40
0.4266727879657463
 40
0.4648039254762902
 40
0.5006080725132852
 40
0.5451997569962705
 40
0.6016938242502637
 40
0.6700995358681318
 40
0.7088367773178754
 40
0.7505653768180225
 40
0.8222297365210088
 40
0.8877689334349055
 40
0.9472424989946767
 40
1.0
 40
1.0
 40
1.0
 40
1.0
 10
166.5391048228441
 20
105.9425634588972
 30
0.0
 10
166.5388865225341
 20
105.942610206743
 30
0.0
 10
166.5263335443982
 20
105.9452983599872
 30
0.0
 10
166.5754087540379
 20
105.933492317545
 30
0.0
 10
166.7205109218101
 20
105.9100393217179
 30
0.0
 10
166.9935636582196
 20
105.87613551017
 30
0.0
 10
167.3220894266718
 20
105.8425670574197
 30
0.0
 10
167.7148174057133
 20
105.8043842523299
 30
0.0
 10
168.2645452154108
 20
105.7654160692956
 30
0.0
 10
168.8905678437139
 20
105.7459544669174
 30
0.0
 10
169.4337596847022
 20
105.7437693066366
 30
0.0
 10
169.8788284338975
 20
105.7522840287677
 30
0.0
 10
170.3452762884352
 20
105.7720675787227
 30
0.0
 10
170.8825172139922
 20
105.816227460532
 30
0.0
 10
171.5307301837304
 20
105.8886472956891
 30
0.0
 10
172.1162693280952
 20
105.9695449550573
 30
0.0
 10
172.5972384734692
 20
106.0477143136233
 30
0.0
 10
173.0426535507102
 20
106.1324848837153
 30
0.0
 10
173.4811531284788
 20
106.226269573792
 30
0.0
 10
173.8201797566494
 20
106.3041721058582
 30
0.0
 10
174.007533509792
 20
106.3543670891096
 30
0.0
 10
174.0280238827851
 20
106.3610337440259
 30
0.0
 10
174.0376559829412
 20
106.3641676004902
 30
0.0
  0
LINE
  5
102
330
1F
100
AcDbEntity
  8
0
  6
HIDDEN
 62
     7
370
     0
100
AcDbLine
 10
244.3884473106
 20
79.0702275257
 30
0.0
 11
244.3884473106
 21
78.564146373
 31
0.0
  0
LINE
  5
103
330
1F
100
AcDbEntity
  8
0
  6
HIDDEN
 62
     7
370
     0
100
AcDbLine
 10
244.3884473106
 20
79.0702275257
 30
0.0
 11
244.3884473106
 21
82.1493386897
 31
0.0
  0
LINE
  5
104
330
1F
100
AcDbEntity
  8
0
  6
HIDDEN
 62
     7
370
     0
100
AcDbLine
 10
244.3884473106
 20
86.9641460735
 30
0.0
 11
244.3884473106
 21
82.1493386897
 31
0.0
  0
LINE
  5
105
330
1F
100
AcDbEntity
  8
0
  6
HIDDEN
 62
     7
370
     0
100
AcDbLine
 10
266.2140589019
 20
84.3391462253
 30
0.0
 11
266.2140589019
 21
81.1891462212
 31
0.0
  0
LINE
  5
106
330
1F
100
AcDbEntity
  8
0
  6
HIDDEN
 62
     7
370
     0
100
AcDbLine
 10
264.297777023
 20
84.3391462253
 30
0.0
 11
264.297777023
 21
81.1891462212
 31
0.0
  0
LINE
  5
107
330
1F
100
AcDbEntity
  8
0
  6
HIDDEN
 62
     7
370
     0
100
AcDbLine
 10
232.7884483894
 20
72.7641464468
 30
0.0
 11
269.2884515783
 21
72.7641464468
 31
0.0
  0
LINE
  5
108
330
1F
100
AcDbEntity
  8
0
  6
HIDDEN
 62
     7
370
     0
100
AcDbLine
 10
195.3784480503
 20
102.9000127014
 30
0.0
 11
195.3784480503
 21
102.6141469624
 31
0.0
  0
LINE
  5
109
330
1F
100
AcDbEntity
  8
0
  6
HIDDEN
 62
     7
370
     0
100
AcDbLine
 10
199.1984482667
 20
102.9000127014
 30
0.0
 11
199.1984482667
 21
102.6141469624
 31
0.0
  0
LINE
  5
10A
330
1F
100
AcDbEntity
  8
0
  6
HIDDEN
 62
     7
370
     0
100
AcDbLine
 10
200.6803799233
 20
107.2228358384
 30
0.0
 11
200.6803799233
 21
102.6141469624
 31
0.0
  0
CIRCLE
  5
10B
330
1F
100
AcDbEntity
  8
0
  6
HIDDEN
 62
     7
370
     0
100
AcDbCircle
 10
186.288448002
 20
82.7641462233
 30
0.0
 40
5.0
  0
LINE
  5
10C
330
1F
100
AcDbEntity
  8
0
  6
HIDDEN
 62
     7
370
     0
100
AcDbLine
 10
225.0397365352
 20
63.3992285725
 30
0.0
 11
269.2884515783
 21
63.3992285725
 31
0.0
  0
LWPOLYLINE
  5
10D
330
1F
100
AcDbEntity
  8
0
  6
HIDDEN
 62
     7
370
     0
100
AcDbPolyline
 90
       30
 70
   128
 43
0.0
 10
263.696209695
 20
74.414019778
 10
263.5996799728
 20
73.7078043889
 10
263.5101016423
 20
73.0726572942
 10
263.4316693803
 20
72.5382746454
 10
263.3680488726
 20
72.1296447586
 10
263.3222054502
 20
71.8658746477
 10
263.2962997815
 20
71.7592978176
 10
263.2915239593
 20
71.8148977753
 10
263.3081164023
 20
72.0300742682
 10
263.3452947995
 20
72.3947662186
 10
263.4013231656
 20
72.8919211101
 10
263.4735788962
 20
73.4982931312
 10
263.5586868784
 20
74.1855272349
 10
263.6526610514
 20
74.9214909296
 10
263.751120474
 20
75.6717704493
 10
263.8494457861
 20
76.4012838039
 10
263.9430474302
 20
77.0759199072
 10
264.0275444647
 20
77.6641330007
 10
264.0989955327
 20
78.1384192664
 10
264.1540478727
 20
78.476602051
 10
264.1901310345
 20
78.6628674973
 10
264.2055611869
 20
78.6885063421
 10
264.1996156236
 20
78.5523195077
 10
264.1725700161
 20
78.2606753778
 10
264.1256909629
 20
77.8272108432
 10
264.0611763856
 20
77.2721942771
 10
263.9820288679
 20
76.6215774488
 10
263.891958799
 20
75.90578201
 10
263.7951757571
 20
75.1582787629
 10
263.696209695
 20
74.414019778
  0
LWPOLYLINE
  5
10E
330
1F
100
AcDbEntity
  8
0
  6
HIDDEN
 62
     7
370
     0
100
AcDbPolyline
 90
       24
 70
   128
 43
0.0
 10
265.1050623318
 20
74.5577414777
 10
265.0326128861
 20
74.0297234874
 10
264.9678598901
 20
73.5770727765
 10
264.9156089684
 20
73.2333588671
 10
264.8797269723
 20
73.0240757834
 10
264.8628812095
 20
72.9647440161
 10
264.8663233778
 20
73.0597631331
 10
264.8897852561
 20
73.3020876791
 10
264.9315383097
 20
73.6737440597
 10
264.9884905478
 20
74.147168852
 10
265.0564025899
 20
74.6872502636
 10
265.1302452942
 20
75.2539335076
 10
265.2045499345
 20
75.8051893931
 10
265.27378818
 20
76.3001337904
 10
265.3328414818
 20
76.7020595517
 10
265.377321448
 20
76.9811573695
 10
265.4039349219
 20
77.1167276684
 10
265.4107000491
 20
77.0987163555
 10
265.3971250912
 20
76.9284584816
 10
265.3642084261
 20
76.6185823154
 10
265.3143938443
 20
76.1920687068
 10
265.2513768336
 20
75.6805514242
 10
265.1798289081
 20
75.1219664957
 10
265.1050623318
 20
74.5577414777
  0
LWPOLYLINE
  5
10F
330
1F
100
AcDbEntity
  8
0
  6
HIDDEN
 62
     7
370
     0
100
AcDbPolyline
 90
       24
 70
   128
 43
0.0
 10
270.6276114842
 20
73.8346542489
 10
270.5551620385
 20
73.3066362586
 10
270.4904164931
 20
72.8539846163
 10
270.4381581208
 20
72.5102716383
 10
270.4022761246
 20
72.3009885546
 10
270.3854303619
 20
72.241655856
 10
270.3888725301
 20
72.3366759043
 10
270.4123344084
 20
72.578999519
 10
270.4540874621
 20
72.9506568309
 10
270.5110397002
 20
73.4240816232
 10
270.5789517423
 20
73.9641630348
 10
270.6527944466
 20
74.5308458131
 10
270.7270990869
 20
75.0821016986
 10
270.7963373324
 20
75.5770460959
 10
270.8553906342
 20
75.9789718572
 10
270.899878051
 20
76.258069675
 10
270.9264840743
 20
76.3936399739
 10
270.933256652
 20
76.375628661
 10
270.9196742436
 20
76.2053707872
 10
270.8867575785
 20
75.8954946209
 10
270.8369429967
 20
75.4689810123
 10
270.773925986
 20
74.9574637297
 10
270.7023780605
 20
74.3988783356
 10
270.6276114842
 20
73.8346542489
  0
LINE
  5
110
330
1F
100
AcDbEntity
  8
0
  6
HIDDEN
 62
     7
370
     0
100
AcDbLine
 10
263.7177344224
 20
71.2641462009
 30
0.0
 11
263.7177344224
 21
78.264146417
 31
0.0
  0
CIRCLE
  5
111
330
1F
100
AcDbEntity
  8
0
  6
HIDDEN
 62
     7
370
     0
100
AcDbCircle
 10
259.288448002
 20
62.7641462233
 30
0.0
 40
5.000000000000002
  0
CIRCLE
  5
112
330
1F
100
AcDbEntity
  8
0
  6
HIDDEN
 62
     7
370
     0
100
AcDbCircle
 10
259.288448002
 20
62.7641462233
 30
0.0
 40
3.500000000000006
  0
CIRCLE
  5
113
330
1F
100
AcDbEntity
  8
0
  6
HIDDEN
 62
     7
370
     0
100
AcDbCircle
 10
239.288448002
 20
62.7641462233
 30
0.0
 40
5.000000000000005
  0
CIRCLE
  5
114
330
1F
100
AcDbEntity
  8
0
  6
HIDDEN
 62
     7
370
     0
100
AcDbCircle
 10
239.288448002
 20
62.7641462233
 30
0.0
 40
3.500000000000018
  0
LINE
  5
115
330
1F
100
AcDbEntity
  8
0
  6
HIDDEN
 62
     7
370
     0
100
AcDbLine
 10
179.288448002
 20
57.4402225461
 30
0.0
 11
179.3826088398
 21
58.110212281
 31
0.0
  0
LINE
  5
116
330
1F
100
AcDbEntity
  8
0
  6
HIDDEN
 62
     7
370
     0
100
AcDbLine
 10
179.3826088398
 20
107.4180801656
 30
0.0
 11
179.288448002
 21
108.0880699005
 31
0.0
  0
ARC
  5
117
330
1F
100
AcDbEntity
  8
0
  6
HIDDEN
 62
     7
370
     0
100
AcDbCircle
 10
178.788448002
 20
58.1937153616
 30
0.0
 40
0.6000000000000227
100
AcDbArc
 50
352.0
 51
0.0
  0
ARC
  5
118
330
1F
100
AcDbEntity
  8
0
  6
HIDDEN
 62
     7
370
     0
100
AcDbCircle
 10
178.788448002
 20
58.1937153616
 30
0.0
 40
0.6000000000000227
100
AcDbArc
 50
0.0
 51
33.5573097619
  0
ARC
  5
119
330
1F
100
AcDbEntity
  8
0
  6
HIDDEN
 62
     7
370
     0
100
AcDbCircle
 10
178.788448002
 20
107.334577085
 30
0.0
 40
0.6000000000000286
100
AcDbArc
 50
348.75
 51
8.0
  0
LWPOLYLINE
  5
11A
330
1F
100
AcDbEntity
  8
0
  6
HIDDEN
 62
     7
370
     0
100
AcDbPolyline
 90
        3
 70
   128
 43
0.0
 10
179.3769191719
 20
107.2175235744
 10
179.3427757221
 20
107.1049676534
 10
179.288448002
 20
107.0029151883
  0
LINE
  5
11B
330
1F
100
AcDbEntity
  8
0
  6
HIDDEN
 62
     7
370
     0
100
AcDbLine
 10
179.3884479995
 20
58.193714663
 30
0.0
 11
179.3884479995
 21
107.3345777836
 31
0.0
  0
LINE
  5
11C
330
1F
100
AcDbEntity
  8
0
  6
HIDDEN
 62
     7
370
     0
100
AcDbLine
 10
162.3708840272
 20
62.7641466703
 30
0.0
 11
166.5625555253
 21
62.7641466703
 31
0.0
  0
LINE
  5
11D
330
1F
100
AcDbEntity
  8
0
  6
HIDDEN
 62
     7
370
     0
100
AcDbLine
 10
166.5625555253
 20
102.7641457762
 30
0.0
 11
162.3708840272
 21
102.7641457762
 31
0.0
  0
ARC
  5
11E
330
1F
100
AcDbEntity
  8
0
  6
HIDDEN
 62
     7
370
     0
100
AcDbCircle
 10
162.3708835673
 20
63.3641462233
 30
0.0
 40
0.6000000000000049
100
AcDbArc
 50
210.0
 51
270.0
  0
ARC
  5
11F
330
1F
100
AcDbEntity
  8
0
  6
HIDDEN
 62
     7
370
     0
100
AcDbCircle
 10
162.3708835673
 20
102.1641462233
 30
0.0
 40
0.6000000000000085
100
AcDbArc
 50
90.0
 51
150.0
  0
ARC
  5
120
330
1F
100
AcDbEntity
  8
0
  6
HIDDEN
 62
     7
370
     0
100
AcDbCircle
 10
173.0434500036
 20
70.7641462233
 30
0.0
 40
7.999999999999998
100
AcDbArc
 50
276.8788427171
 51
321.3178125465
  0
ARC
  5
121
330
1F
100
AcDbEntity
  8
0
  6
HIDDEN
 62
     7
370
     0
100
AcDbCircle
 10
173.0434500036
 20
94.7641462233
 30
0.0
 40
8.000000000000004
100
AcDbArc
 50
38.6821874535
 51
83.1151015945
  0
LINE
  5
122
330
1F
100
AcDbEntity
  8
0
  6
HIDDEN
 62
     7
370
     0
100
AcDbLine
 10
161.8512674978
 20
102.4641462859
 30
0.0
 11
160.2924234977
 21
99.7641471472
 31
0.0
  0
LINE
  5
123
330
1F
100
AcDbEntity
  8
0
  6
HIDDEN
 62
     7
370
     0
100
AcDbLine
 10
160.2924234977
 20
65.7641452994
 30
0.0
 11
161.8512674978
 21
63.0641461607
 31
0.0
  0
LINE
  5
124
330
1F
100
AcDbEntity
  8
0
  6
HIDDEN
 62
     7
370
     0
100
AcDbLine
 10
269.2884515783
 20
80.7641461283
 30
0.0
 11
261.288450267
 21
80.7641461283
 31
0.0
  0
LINE
  5
125
330
1F
100
AcDbEntity
  8
0
  6
HIDDEN
 62
     7
370
     0
100
AcDbLine
 10
261.288450267
 20
68.7641457912
 30
0.0
 11
269.2884515783
 21
68.7641457912
 31
0.0
  0
ARC
  5
126
330
1F
100
AcDbEntity
  8
0
  6
HIDDEN
 62
     7
370
     0
100
AcDbCircle
 10
187.738448002
 20
67.0391462233
 30
0.0
 40
1.500000000000016
100
AcDbArc
 50
238.2116693829
 51
0.0
  0
ARC
  5
127
330
1F
100
AcDbEntity
  8
0
  6
HIDDEN
 62
     7
370
     0
100
AcDbCircle
 10
187.738448002
 20
98.4891462233
 30
0.0
 40
1.500000000000004
100
AcDbArc
 50
0.0
 51
121.7883306171
  0
LINE
  5
128
330
1F
100
AcDbEntity
  8
0
  6
HIDDEN
 62
     7
370
     0
100
AcDbLine
 10
157.4884477815
 20
65.7641452994
 30
0.0
 11
160.2924234977
 21
65.7641452994
 31
0.0
  0
LINE
  5
129
330
1F
100
AcDbEntity
  8
0
  6
HIDDEN
 62
     7
370
     0
100
AcDbLine
 10
160.2924234977
 20
99.7641471472
 30
0.0
 11
153.4884471258
 21
99.7641471472
 31
0.0
  0
LINE
  5
12A
330
1F
100
AcDbEntity
  8
0
  6
HIDDEN
 62
     7
370
     0
100
AcDbLine
 10
179.288448002
 20
65.7641452994
 30
0.0
 11
186.948273964
 21
65.7641452994
 31
0.0
  0
LINE
  5
12B
330
1F
100
AcDbEntity
  8
0
  6
HIDDEN
 62
     7
370
     0
100
AcDbLine
 10
186.948273964
 20
99.7641471472
 30
0.0
 11
179.288448002
 21
99.7641471472
 31
0.0
  0
LINE
  5
12C
330
1F
100
AcDbEntity
  8
0
  6
HIDDEN
 62
     7
370
     0
100
AcDbLine
 10
239.7107753715
 20
79.185916416
 30
0.0
 11
261.288450267
 21
72.8798027407
 31
0.0
  0
LINE
  5
12D
330
1F
100
AcDbEntity
  8
0
  6
HIDDEN
 62
     7
370
     0
100
AcDbLine
 10
261.288450267
 20
77.2554919381
 30
0.0
 11
244.6080308219
 21
82.1303744592
 31
0.0
  0
LINE
  5
12E
330
1F
100
AcDbEntity
  8
0
  6
HIDDEN
 62
     7
370
     0
100
AcDbLine
 10
198.5884487441
 20
73.2641465288
 30
0.0
 11
201.0884482225
 21
73.2641465288
 31
0.0
  0
LINE
  5
12F
330
1F
100
AcDbEntity
  8
0
  6
HIDDEN
 62
     7
370
     0
100
AcDbLine
 10
201.0884482225
 20
92.2641459178
 30
0.0
 11
198.5884487441
 21
92.2641459178
 31
0.0
  0
LINE
  5
130
330
1F
100
AcDbEntity
  8
0
  6
HIDDEN
 62
     7
370
     0
100
AcDbLine
 10
189.2384478634
 20
73.7641466107
 30
0.0
 11
189.7384479454
 21
74.2641457613
 31
0.0
  0
LINE
  5
131
330
1F
100
AcDbEntity
  8
0
  6
HIDDEN
 62
     7
370
     0
100
AcDbLine
 10
189.7384479454
 20
91.2641466852
 30
0.0
 11
189.2384478634
 21
91.7641458359
 31
0.0
  0
LINE
  5
132
330
1F
100
AcDbEntity
  8
0
  6
HIDDEN
 62
     7
370
     0
100
AcDbLine
 10
189.7384479454
 20
74.2641457613
 30
0.0
 11
198.5884487441
 21
74.2641457613
 31
0.0
  0
LINE
  5
133
330
1F
100
AcDbEntity
  8
0
  6
HIDDEN
 62
     7
370
     0
100
AcDbLine
 10
198.5884487441
 20
91.2641466852
 30
0.0
 11
189.7384479454
 21
91.2641466852
 31
0.0
  0
LINE
  5
134
330
1F
100
AcDbEntity
  8
0
  6
HIDDEN
 62
     7
370
     0
100
AcDbLine
 10
184.2384479752
 20
114.2641467299
 30
0.0
 11
184.2384479752
 21
109.1641460802
 31
0.0
  0
LINE
  5
135
330
1F
100
AcDbEntity
  8
0
  6
HIDDEN
 62
     7
370
     0
100
AcDbLine
 10
174.4728858395
 20
58.6847749796
 30
0.0
 11
174.0384536607
 21
59.163841724
 31
0.0
  0
LINE
  5
136
330
1F
100
AcDbEntity
  8
0
  6
HIDDEN
 62
     7
370
     0
100
AcDbLine
 10
166.5384501031
 20
59.5855296846
 30
0.0
 11
166.0560166275
 21
59.1064629402
 31
0.0
  0
LINE
  5
137
330
1F
100
AcDbEntity
  8
0
  6
HIDDEN
 62
     7
370
     0
100
AcDbLine
 10
166.0558946243
 20
106.4218239184
 30
0.0
 11
166.5384454465
 21
105.9427031573
 31
0.0
  0
LINE
  5
138
330
1F
100
AcDbEntity
  8
0
  6
HIDDEN
 62
     7
370
     0
100
AcDbLine
 10
174.0384480728
 20
106.3644022938
 30
0.0
 11
174.4729901476
 21
106.8435211923
 31
0.0
  0
LINE
  5
139
330
1F
100
AcDbEntity
  8
0
  6
HIDDEN
 62
     7
370
     0
100
AcDbLine
 10
244.3884473106
 20
78.564146373
 30
0.0
 11
246.9120632669
 21
82.7641462233
 31
0.0
  0
LINE
  5
13A
330
1F
100
AcDbEntity
  8
0
  6
HIDDEN
 62
     7
370
     0
100
AcDbLine
 10
246.9120632669
 20
82.7641462233
 30
0.0
 11
244.3884473106
 21
86.9641460735
 31
0.0
  0
LINE
  5
13B
330
1F
100
AcDbEntity
  8
0
  6
HIDDEN
 62
     7
370
     0
100
AcDbLine
 10
201.0884482225
 20
78.564146373
 30
0.0
 11
244.3884473106
 21
78.564146373
 31
0.0
  0
LINE
  5
13C
330
1F
100
AcDbEntity
  8
0
  6
HIDDEN
 62
     7
370
     0
100
AcDbLine
 10
244.3884473106
 20
86.9641460735
 30
0.0
 11
201.0884482225
 21
86.9641460735
 31
0.0
  0
LINE
  5
13D
330
1F
100
AcDbEntity
  8
0
  6
HIDDEN
 62
     7
370
     0
100
AcDbLine
 10
174.0384480728
 20
59.1643241491
 30
0.0
 11
174.0384480728
 21
62.8287450667
 31
0.0
  0
LINE
  5
13E
330
1F
100
AcDbEntity
  8
0
  6
HIDDEN
 62
     7
370
     0
100
AcDbLine
 10
166.5384482404
 20
62.7685238864
 30
0.0
 11
166.5384482404
 21
59.5858519223
 31
0.0
  0
LINE
  5
13F
330
1F
100
AcDbEntity
  8
0
  6
HIDDEN
 62
     7
370
     0
100
AcDbLine
 10
174.0384480728
 20
102.6995473798
 30
0.0
 11
174.0384480728
 21
106.3641098585
 31
0.0
  0
LINE
  5
140
330
1F
100
AcDbEntity
  8
0
  6
HIDDEN
 62
     7
370
     0
100
AcDbLine
 10
166.5384482404
 20
105.9425597336
 30
0.0
 11
166.5384482404
 21
102.7597685601
 31
0.0
  0
LINE
  5
141
330
1F
100
AcDbEntity
  8
0
  6
HIDDEN
 62
     7
370
     0
100
AcDbLine
 10
269.2884515783
 20
86.1141461205
 30
0.0
 11
266.2140589019
 21
84.3391462253
 31
0.0
  0
LINE
  5
142
330
1F
100
AcDbEntity
  8
0
  6
HIDDEN
 62
     7
370
     0
100
AcDbLine
 10
266.2140589019
 20
81.1891462212
 30
0.0
 11
269.2884515783
 21
79.4141463261
 31
0.0
  0
LINE
  5
143
330
1F
100
AcDbEntity
  8
0
  6
HIDDEN
 62
     7
370
     0
100
AcDbLine
 10
266.2140589019
 20
84.3391462253
 30
0.0
 11
264.297777023
 21
84.3391462253
 31
0.0
  0
LINE
  5
144
330
1F
100
AcDbEntity
  8
0
  6
HIDDEN
 62
     7
370
     0
100
AcDbLine
 10
264.297777023
 20
81.1891462212
 30
0.0
 11
266.2140589019
 21
81.1891462212
 31
0.0
  0
LINE
  5
145
330
1F
100
AcDbEntity
  8
0
  6
HIDDEN
 62
     7
370
     0
100
AcDbLine
 10
264.297777023
 20
84.3391462253
 30
0.0
 11
263.3884485623
 21
82.7641462233
 31
0.0
  0
LINE
  5
146
330
1F
100
AcDbEntity
  8
0
  6
HIDDEN
 62
     7
370
     0
100
AcDbLine
 10
263.3884485623
 20
82.7641462233
 30
0.0
 11
264.297777023
 21
81.1891462212
 31
0.0
  0
LINE
  5
147
330
1F
100
AcDbEntity
  8
0
  6
HIDDEN
 62
     7
370
     0
100
AcDbLine
 10
147.6537335476
 20
103.1233568933
 30
0.0
 11
147.6398121378
 21
103.1153195795
 31
0.0
  0
ARC
  5
148
330
1F
100
AcDbEntity
  8
0
  6
HIDDEN
 62
     7
370
     0
100
AcDbCircle
 10
267.288448002
 20
74.7641462233
 30
0.0
 40
5.00000000000021
100
AcDbArc
 50
216.9601685813
 51
262.5404891
  0
ARC
  5
149
330
1F
100
AcDbEntity
  8
0
  6
HIDDEN
 62
     7
370
     0
100
AcDbCircle
 10
267.288448002
 20
74.7641462233
 30
0.0
 40
5.000000000000169
100
AcDbArc
 50
66.4218215218
 51
128.1208096187
  0
ARC
  5
14A
330
1F
100
AcDbEntity
  8
0
  6
HIDDEN
 62
     7
370
     0
100
AcDbCircle
 10
267.288448002
 20
74.7641462233
 30
0.0
 40
5.000000000000016
100
AcDbArc
 50
262.5404891
 51
293.5781784782
  0
LINE
  5
14B
330
1F
100
AcDbEntity
  8
0
  6
HIDDEN
 62
     7
370
     0
100
AcDbLine
 10
263.2949363252
 20
71.7576000165
 30
0.0
 11
264.8642968198
 21
72.9638899933
 31
0.0
  0
LINE
  5
14C
330
1F
100
AcDbEntity
  8
0
  6
HIDDEN
 62
     7
370
     0
100
AcDbLine
 10
265.409493055
 20
77.1278229799
 30
0.0
 11
264.2036016842
 21
78.6974884827
 31
0.0
  0
LINE
  5
14D
330
1F
100
AcDbEntity
  8
0
  6
HIDDEN
 62
     7
370
     0
100
AcDbLine
 10
271.3793899676
 20
76.749526735
 30
0.0
 11
270.9309991261
 21
76.4048721898
 31
0.0
  0
LINE
  5
14E
330
1F
100
AcDbEntity
  8
0
  6
HIDDEN
 62
     7
370
     0
100
AcDbLine
 10
270.3858028909
 20
72.2409396689
 30
0.0
 11
270.7303475401
 21
71.7924631458
 31
0.0
  0
LINE
  5
14F
330
1F
100
AcDbEntity
  8
0
  6
HIDDEN
 62
     7
370
     0
100
AcDbLine
 10
264.8637380263
 20
72.9636972096
 30
0.0
 11
270.3862946292
 21
72.2406099807
 31
0.0
  0
LINE
  5
150
330
1F
100
AcDbEntity
  8
0
  6
HIDDEN
 62
     7
370
     0
100
AcDbLine
 10
270.9315579197
 20
76.4050649736
 30
0.0
 11
265.4090087673
 21
77.1281526681
 31
0.0
  0
LINE
  5
151
330
1F
100
AcDbEntity
  8
0
  6
HIDDEN
 62
     7
370
     0
100
AcDbLine
 10
261.288450267
 20
68.7641457912
 30
0.0
 11
269.2884515783
 21
68.7641457912
 31
0.0
  0
LINE
  5
152
330
1F
100
AcDbEntity
  8
0
  6
HIDDEN
 62
     7
370
     0
100
AcDbLine
 10
269.2884515783
 20
80.7641461283
 30
0.0
 11
261.288450267
 21
80.7641461283
 31
0.0
  0
ARC
  5
153
330
1F
100
AcDbEntity
  8
0
  6
HIDDEN
 62
     7
370
     0
100
AcDbCircle
 10
267.288448002
 20
74.7641462233
 30
0.0
 40
5.000000000000016
100
AcDbArc
 50
224.4270040008
 51
270.0
  0
ARC
  5
154
330
1F
100
AcDbEntity
  8
0
  6
HIDDEN
 62
     7
370
     0
100
AcDbCircle
 10
267.288448002
 20
74.7641462233
 30
0.0
 40
5.000000000000016
100
AcDbArc
 50
66.4218215218
 51
135.5729959992
  0
ARC
  5
155
330
1F
100
AcDbEntity
  8
0
  6
HIDDEN
 62
     7
370
     0
100
AcDbCircle
 10
267.288448002
 20
74.7641462233
 30
0.0
 40
5.000000000000014
100
AcDbArc
 50
270.0
 51
293.5781784782
  0
LINE
  5
156
330
1F
100
AcDbEntity
  8
0
  6
HIDDEN
 62
     7
370
     0
100
AcDbLine
 10
261.288450267
 20
71.2641462009
 30
0.0
 11
263.7177344224
 21
71.2641462009
 31
0.0
  0
LINE
  5
157
330
1F
100
AcDbEntity
  8
0
  6
HIDDEN
 62
     7
370
     0
100
AcDbLine
 10
263.7177344224
 20
78.264146417
 30
0.0
 11
261.288450267
 21
78.264146417
 31
0.0
  0
DIMENSION
  5
158
330
1F
100
AcDbEntity
  8
VERMASSUNG
100
AcDbDimension
  2
_D
 10
269.288448002
 20
124.2641462233
 30
0.0
 11
208.338448002
 21
124.2641462233
 31
0.0
 70
   160
  1
<>
 71
     2
 42
-1.0
  3
SLDDIMSTYLE0
100
AcDbAlignedDimension
 13
147.388448002
 23
102.7402067279
 33
0.0
 14
269.288448002
 24
108.7641462233
 34
0.0
100
AcDbRotatedDimension
  0
DIMENSION
  5
163
330
1F
100
AcDbEntity
  8
VERMASSUNG
100
AcDbDimension
  2
_D_1
 10
269.288448002
 20
118.2641462233
 30
0.0
 11
224.288448002
 21
118.2641462233
 31
0.0
 70
   160
  1
<>
 71
     2
 42
-1.0
  3
SLDDIMSTYLE0
100
AcDbAlignedDimension
 13
179.288448002
 23
113.9641462233
 33
0.0
 14
269.288448002
 24
108.7641462233
 34
0.0
100
AcDbRotatedDimension
  0
DIMENSION
  5
16D
330
1F
100
AcDbEntity
  8
VERMASSUNG
100
AcDbDimension
  2
_D_2
 10
141.7699891658
 20
51.2641462233
 30
0.0
 11
141.7699891658
 21
82.7641462233
 31
0.0
 70
   160
  1
HSK T %%c<>
 71
     2
 42
-1.0
  3
SLDDIMSTYLE0
100
AcDbAlignedDimension
 13
179.588448002
 23
114.2641462233
 33
0.0
 14
179.588448002
 24
51.2641462233
 34
0.0
 50
90.0
100
AcDbRotatedDimension
  0
LINE
  5
179
330
1F
100
AcDbEntity
  8
VERMASSUNG
  6
CENTERX2
370
     0
100
AcDbLine
 10
144.4864342771
 20
82.7641462233
 30
0.0
 11
271.8731351438
 21
82.7641462233
 31
0.0
  0
LINE
  5
17A
330
1F
100
AcDbEntity
  8
0
  6
Continuous
 62
     7
370
    15
100
AcDbLine
 10
83.6676638837
 20
58.264146864
 30
0.0
 11
84.6676639312
 21
59.2641470279
 31
0.0
  0
LINE
  5
17B
330
1F
100
AcDbEntity
  8
0
  6
Continuous
 62
     7
370
    15
100
AcDbLine
 10
84.6676639312
 20
66.2641463127
 30
0.0
 11
83.6676638837
 21
67.2641464766
 31
0.0
  0
LINE
  5
17C
330
1F
100
AcDbEntity
  8
0
  6
Continuous
 62
     7
370
    15
100
AcDbLine
 10
83.6676638837
 20
72.7641464468
 30
0.0
 11
83.6676638837
 21
52.7641468938
 31
0.0
  0
LINE
  5
17D
330
1F
100
AcDbEntity
  8
0
  6
Continuous
 62
     7
370
    15
100
AcDbLine
 10
58.6676633947
 20
52.7641468938
 30
0.0
 11
83.6676638837
 21
52.7641468938
 31
0.0
  0
LINE
  5
17E
330
1F
100
AcDbEntity
  8
0
  6
Continuous
 62
     7
370
    15
100
AcDbLine
 10
58.6676633947
 20
93.7641461637
 30
0.0
 11
58.6676633947
 21
52.7641468938
 31
0.0
  0
LINE
  5
17F
330
1F
100
AcDbEntity
  8
0
  6
Continuous
 62
     7
370
    15
100
AcDbLine
 10
73.6676639908
 20
108.7641467597
 30
0.0
 11
58.6676633947
 21
93.7641461637
 31
0.0
  0
LINE
  5
180
330
1F
100
AcDbEntity
  8
0
  6
Continuous
 62
     7
370
    15
100
AcDbLine
 10
104.6676634842
 20
108.7641467597
 30
0.0
 11
73.6676639908
 21
108.7641467597
 31
0.0
  0
LINE
  5
181
330
1F
100
AcDbEntity
  8
0
  6
Continuous
 62
     7
370
    15
100
AcDbLine
 10
119.6676640802
 20
63.3992285725
 30
0.0
 11
119.6676640802
 21
93.7641461637
 31
0.0
  0
ARC
  5
182
330
1F
100
AcDbEntity
  8
0
  6
Continuous
 62
     7
370
    15
100
AcDbCircle
 10
84.6676639312
 20
82.7641462233
 30
0.0
 40
39.99999999999999
100
AcDbArc
 50
311.4096221093
 51
331.0449756281
  0
LINE
  5
183
330
1F
100
AcDbEntity
  8
0
  6
Continuous
 62
     7
370
    15
100
AcDbLine
 10
104.6676634842
 20
52.7641468938
 30
0.0
 11
111.1251766824
 21
52.7641468938
 31
0.0
  0
LINE
  5
184
330
1F
100
AcDbEntity
  8
0
  6
Continuous
 62
     7
370
    15
100
AcDbLine
 10
104.6676634842
 20
72.7641464468
 30
0.0
 11
104.6676634842
 21
52.7641468938
 31
0.0
  0
LINE
  5
185
330
1F
100
AcDbEntity
  8
0
  6
Continuous
 62
     7
370
    15
100
AcDbLine
 10
83.6676638837
 20
72.7641464468
 30
0.0
 11
104.6676634842
 21
72.7641464468
 31
0.0
  0
CIRCLE
  5
186
330
1F
100
AcDbEntity
  8
0
  6
Continuous
 62
     7
370
    15
100
AcDbCircle
 10
84.6676639312
 20
82.7641462233
 30
0.0
 40
3.350000000000009
  0
CIRCLE
  5
187
330
1F
100
AcDbEntity
  8
0
  6
Continuous
 62
     7
370
    15
100
AcDbCircle
 10
72.6676639312
 20
74.7641462233
 30
0.0
 40
6.000000000000014
  0
LINE
  5
188
330
1F
100
AcDbEntity
  8
0
  6
Continuous
 62
     7
370
    15
100
AcDbLine
 10
119.6676640802
 20
93.7641461637
 30
0.0
 11
104.6676634842
 21
108.7641467597
 31
0.0
  0
CIRCLE
  5
189
330
1F
100
AcDbEntity
  8
0
  6
Continuous
 62
     7
370
    15
100
AcDbCircle
 10
84.6676639312
 20
82.7641462233
 30
0.0
 40
1.575000000000017
  0
ELLIPSE
  5
18A
330
1F
100
AcDbEntity
  8
0
  6
Continuous
 62
     7
370
    15
100
AcDbEllipse
 10
73.6759246324
 20
75.0676475082
 30
0.0
 11
1.930647247026428
 21
1.351853755991741
 31
0.0
210
0.0
220
0.0
230
1.0
 40
0.8910065242
 41
1.87868121433905
 42
3.764299676095038
  0
LINE
  5
18B
330
1F
100
AcDbEntity
  8
0
  6
Continuous
 62
     7
370
    15
100
AcDbLine
 10
104.6676634842
 20
52.7641468938
 30
0.0
 11
83.6676638837
 21
52.7641468938
 31
0.0
  0
SPLINE
  5
18C
330
1F
100
AcDbEntity
  8
0
  6
Continuous
 62
     7
370
    15
100
AcDbSpline
210
0.0
220
0.0
230
1.0
 70
    24
 71
     3
 72
    20
 73
    16
 74
     0
 42
0.00000001
 43
0.00000001
 12
1.0
 22
0.0
 32
0.0
 13
1.0
 23
0.0
 33
0.0
 40
0.0
 40
0.0
 40
0.0
 40
0.0
 40
0.2500000000000001
 40
0.2500000000000001
 40
0.375
 40
0.375
 40
0.4375000000000001
 40
0.4375000000000001
 40
0.4687500000000001
 40
0.4687500000000001
 40
0.5
 40
0.5
 40
0.75
 40
0.75
 40
1.0
 40
1.0
 40
1.0
 40
1.0
 10
90.32805261042314
 20
109.1641462232843
 30
0.0
 10
89.36696855728349
 20
109.1641462232843
 30
0.0
 10
88.40687023538706
 20
109.1641462232843
 30
0.0
 10
86.9665542472212
 20
109.1641462232843
 30
0.0
 10
86.4864258976413
 20
109.1641462232843
 30
0.0
 10
85.76603984118061
 20
109.1641462232843
 30
0.0
 10
85.52587932041607
 20
109.1641462232843
 30
0.0
 10
85.16557858881146
 20
109.1641462232843
 30
0.0
 10
85.04546842921683
 20
109.1641462232843
 30
0.0
 10
84.80522729445487
 20
109.1641462232843
 30
0.0
 10
84.6844825790063
 20
109.1641462232843
 30
0.0
 10
83.64090187551355
 20
109.1641462232843
 30
0.0
 10
82.71430827996416
 20
109.1641462232843
 30
0.0
 10
80.8616199222587
 20
109.1641462232843
 30
0.0
 10
79.93543246509716
 20
109.1641462232843
 30
0.0
 10
79.00727525195522
 20
109.1641462232843
 30
0.0
  0
SPLINE
  5
18D
330
1F
100
AcDbEntity
  8
0
  6
Continuous
 62
     7
370
    15
100
AcDbSpline
210
0.0
220
0.0
230
1.0
 70
    24
 71
     3
 72
    11
 73
     7
 74
     0
 42
0.00000001
 43
0.00000001
 12
1.0
 22
0.0
 32
0.0
 13
1.0
 23
0.0
 33
0.0
 40
0.0
 40
0.0
 40
0.0
 40
0.0
 40
0.0964672107378921
 40
0.5391989056284217
 40
0.9631450969670698
 40
0.9999999999999999
 40
0.9999999999999999
 40
0.9999999999999999
 40
0.9999999999999999
 10
75.66766431861937
 20
52.7641468938366
 30
0.0
 10
75.66766431861937
 20
52.75189531909196
 30
0.0
 10
75.66766431861937
 20
52.68341572230459
 30
0.0
 10
75.66766431861937
 20
52.61062898997712
 30
0.0
 10
75.66766431861937
 20
52.5779500880495
 30
0.0
 10
75.66766431861937
 20
52.57728202240227
 30
0.0
 10
75.66766431861937
 20
52.57722859046613
 30
0.0
  0
LINE
  5
18E
330
1F
100
AcDbEntity
  8
0
  6
Continuous
 62
     7
370
    15
100
AcDbLine
 10
75.6676643186
 20
52.5772285905
 30
0.0
 11
75.0629779913
 21
52.7641468938
 31
0.0
  0
ARC
  5
18F
330
1F
100
AcDbEntity
  8
0
  6
Continuous
 62
     7
370
    15
100
AcDbCircle
 10
84.6676639312
 20
82.7641462233
 30
0.0
 40
31.49999999999999
100
AcDbArc
 50
140.9381656697
 51
214.3712560241
  0
SPLINE
  5
190
330
1F
100
AcDbEntity
  8
0
  6
Continuous
 62
     7
370
    15
100
AcDbSpline
210
0.0
220
0.0
230
1.0
 70
    24
 71
     3
 72
    12
 73
     8
 74
     0
 42
0.00000001
 43
0.00000001
 12
1.0
 22
0.0
 32
0.0
 13
1.0
 23
0.0
 33
0.0
 40
0.0
 40
0.0
 40
0.0
 40
0.0
 40
0.2500000000000006
 40
0.2500000000000006
 40
0.5000000000000012
 40
0.5000000000000012
 40
1.0
 40
1.0
 40
1.0
 40
1.0
 10
60.20897426882158
 20
102.6141462232844
 30
0.0
 10
60.20897426882156
 20
102.6141462232844
 30
0.0
 10
60.23680398912505
 20
102.6141462232844
 30
0.0
 10
60.33194645038172
 20
102.6141462232844
 30
0.0
 10
60.39836926668209
 20
102.6141462232844
 30
0.0
 10
60.62256869820221
 20
102.6141462232844
 30
0.0
 10
60.80655510074782
 20
102.6141462232844
 30
0.0
 10
60.98671166993081
 20
102.6141462232844
 30
0.0
  0
SPLINE
  5
191
330
1F
100
AcDbEntity
  8
0
  6
Continuous
 62
     7
370
    15
100
AcDbSpline
210
0.0
220
0.0
230
1.0
 70
    24
 71
     3
 72
    10
 73
     6
 74
     0
 42
0.00000001
 43
0.00000001
 12
1.0
 22
0.0
 32
0.0
 13
1.0
 23
0.0
 33
0.0
 40
0.0
 40
0.0
 40
0.0
 40
0.0
 40
0.5
 40
0.5
 40
1.0
 40
1.0
 40
1.0
 40
1.0
 10
76.66766393118918
 20
112.6105865470482
 30
0.0
 10
76.66766393118918
 20
112.770991813399
 30
0.0
 10
76.66766393118918
 20
112.9300536263876
 30
0.0
 10
76.66766393118918
 20
113.160966092018
 30
0.0
 10
76.66766393118918
 20
113.2313416964486
 30
0.0
 10
76.66766393118918
 20
113.2313416964486
 30
0.0
  0
SPLINE
  5
192
330
1F
100
AcDbEntity
  8
0
  6
Continuous
 62
     7
370
    15
100
AcDbSpline
210
0.0
220
0.0
230
1.0
 70
    24
 71
     3
 72
    12
 73
     8
 74
     0
 42
0.00000001
 43
0.00000001
 12
1.0
 22
0.0
 32
0.0
 13
1.0
 23
0.0
 33
0.0
 40
0.0
 40
0.0
 40
0.0
 40
0.0
 40
0.249999999999998
 40
0.249999999999998
 40
0.499999999999996
 40
0.499999999999996
 40
1.0
 40
1.0
 40
1.0
 40
1.0
 10
64.81766393118917
 20
107.2228358856518
 30
0.0
 10
64.81766393118917
 20
107.2228358856518
 30
0.0
 10
64.81766393118917
 20
107.1946161870639
 30
0.0
 10
64.81766393118917
 20
107.1001731798158
 30
0.0
 10
64.81766393118917
 20
107.0338862031105
 30
0.0
 10
64.81766393118917
 20
106.8082613798221
 30
0.0
 10
64.81766393118917
 20
106.6258351167896
 30
0.0
 10
64.81766393118917
 20
106.4450984845427
 30
0.0
  0
ARC
  5
193
330
1F
100
AcDbEntity
  8
0
  6
Continuous
 62
     7
370
    15
100
AcDbCircle
 10
84.6676639312
 20
82.7641462233
 30
0.0
 40
31.49999999999999
100
AcDbArc
 50
104.7124579609
 51
129.0618343303
  0
SPLINE
  5
194
330
1F
100
AcDbEntity
  8
0
  6
Continuous
 62
     7
370
    15
100
AcDbSpline
210
0.0
220
0.0
230
1.0
 70
    24
 71
     3
 72
    12
 73
     8
 74
     0
 42
0.00000001
 43
0.00000001
 12
1.0
 22
0.0
 32
0.0
 13
1.0
 23
0.0
 33
0.0
 40
0.0
 40
0.0
 40
0.0
 40
0.0
 40
0.2500000000000038
 40
0.2500000000000038
 40
0.5000000000000077
 40
0.5000000000000077
 40
1.0
 40
1.0
 40
1.0
 40
1.0
 10
92.6676639311892
 20
113.2313416964486
 30
0.0
 10
92.6676639311892
 20
113.2313416964486
 30
0.0
 10
92.6676639311892
 20
113.2143389464878
 30
0.0
 10
92.6676639311892
 20
113.1502784053761
 30
0.0
 10
92.6676639311892
 20
113.1031197897375
 30
0.0
 10
92.6676639311892
 20
112.9298977570453
 30
0.0
 10
92.6676639311892
 20
112.769788666811
 30
0.0
 10
92.6676639311892
 20
112.6105865470476
 30
0.0
  0
ARC
  5
195
330
1F
100
AcDbEntity
  8
0
  6
Continuous
 62
     7
370
    15
100
AcDbCircle
 10
84.6676639312
 20
82.7641462233
 30
0.0
 40
31.49999999999999
100
AcDbArc
 50
55.6287439759
 51
75.2875420391
  0
LINE
  5
196
330
1F
100
AcDbEntity
  8
0
  6
Continuous
 62
     7
370
    15
100
AcDbLine
 10
94.272349871
 20
52.7641468938
 30
0.0
 11
93.6676635438
 21
52.5772285905
 31
0.0
  0
SPLINE
  5
197
330
1F
100
AcDbEntity
  8
0
  6
Continuous
 62
     7
370
    15
100
AcDbSpline
210
0.0
220
0.0
230
1.0
 70
    24
 71
     3
 72
    10
 73
     6
 74
     0
 42
0.00000001
 43
0.00000001
 12
1.0
 22
0.0
 32
0.0
 13
1.0
 23
0.0
 33
0.0
 40
0.0
 40
0.0
 40
0.0
 40
0.0
 40
0.214802991670685
 40
0.621073973928089
 40
0.9999999999999999
 40
0.9999999999999999
 40
0.9999999999999999
 40
0.9999999999999999
 10
93.66766354375899
 20
52.57722859046613
 30
0.0
 10
93.66766354375899
 20
52.57912590295762
 30
0.0
 10
93.66766354375899
 20
52.58461172696648
 30
0.0
 10
93.66766354375899
 20
52.63892965882236
 30
0.0
 10
93.66766354375899
 20
52.72338825591131
 30
0.0
 10
93.66766354375899
 20
52.7641468938366
 30
0.0
  0
LINE
  5
198
330
1F
100
AcDbEntity
  8
0
  6
Continuous
 62
     7
370
    15
100
AcDbLine
 10
92.6676643112
 20
112.610587224
 30
0.0
 11
92.6676643112
 21
109.1641460802
 31
0.0
  0
LINE
  5
199
330
1F
100
AcDbEntity
  8
0
  6
Continuous
 62
     7
370
    15
100
AcDbLine
 10
92.6676643112
 20
109.1641460802
 30
0.0
 11
90.3280525499
 21
109.1641460802
 31
0.0
  0
LINE
  5
19A
330
1F
100
AcDbEntity
  8
0
  6
Continuous
 62
     7
370
    15
100
AcDbLine
 10
76.6676635512
 20
109.1641460802
 30
0.0
 11
76.6676635512
 21
112.610587224
 31
0.0
  0
LINE
  5
19B
330
1F
100
AcDbEntity
  8
0
  6
Continuous
 62
     7
370
    15
100
AcDbLine
 10
64.8176631921
 20
106.4450976696
 30
0.0
 11
64.8176631921
 21
102.6141469624
 31
0.0
  0
LINE
  5
19C
330
1F
100
AcDbEntity
  8
0
  6
Continuous
 62
     7
370
    15
100
AcDbLine
 10
60.9867124849
 20
102.6141469624
 30
0.0
 11
64.8176631921
 21
102.6141469624
 31
0.0
  0
LINE
  5
19D
330
1F
100
AcDbEntity
  8
0
  6
Continuous
 62
     7
370
    15
100
AcDbLine
 10
79.0072753125
 20
109.1641460802
 30
0.0
 11
76.6676635512
 21
109.1641460802
 31
0.0
  0
SPLINE
  5
19E
330
1F
100
AcDbEntity
  8
0
  6
Continuous
 62
     7
370
    15
100
AcDbSpline
210
0.0
220
0.0
230
1.0
 70
     8
 71
     3
 72
    30
 73
    26
 74
     0
 42
0.00000001
 43
0.00000001
 12
1.0
 22
0.0
 32
0.0
 13
1.0
 23
0.0
 33
0.0
 40
0.0
 40
0.0
 40
0.0
 40
0.0
 40
0.1250000000000002
 40
0.1250000000000002
 40
0.1875000000000002
 40
0.1875000000000002
 40
0.2500000000000003
 40
0.2500000000000003
 40
0.3750000000000004
 40
0.3750000000000004
 40
0.4375000000000004
 40
0.4375000000000004
 40
0.5000000000000004
 40
0.5000000000000004
 40
0.6250000000000004
 40
0.6250000000000004
 40
0.6875000000000003
 40
0.6875000000000003
 40
0.7500000000000002
 40
0.7500000000000002
 40
0.8125000000000001
 40
0.8125000000000001
 40
0.8749999999999999
 40
0.8749999999999999
 40
1.0
 40
1.0
 40
1.0
 40
1.0
 10
85.66766393118918
 20
51.28002324042203
 30
0.0
 10
86.19908186158978
 20
51.29690215843065
 30
0.0
 10
86.72074105916394
 20
51.32691972325533
 30
0.0
 10
87.48938284632297
 20
51.38973011252843
 30
0.0
 10
87.74327264548799
 20
51.41363401975533
 30
0.0
 10
88.24634542143407
 20
51.46706931219772
 30
0.0
 10
88.4958092696507
 20
51.49667618036528
 30
0.0
 10
89.22072016724758
 20
51.5911258790797
 30
0.0
 10
89.67859750413976
 20
51.66215327290892
 30
0.0
 10
90.3283647296226
 20
51.7761675596147
 30
0.0
 10
90.53975143303278
 20
51.81562281075527
 30
0.0
 10
90.94438524380294
 20
51.89514425352593
 30
0.0
 10
91.13712571530415
 20
51.93508039602672
 30
0.0
 10
91.68755659168109
 20
52.05401679885487
 30
0.0
 10
92.0177399689617
 20
52.13218156273872
 30
0.0
 10
92.45641578561214
 20
52.24189100300761
 30
0.0
 10
92.59221434409868
 20
52.27697183971603
 30
0.0
 10
92.83909137694484
 20
52.34221211909563
 30
0.0
 10
92.95086991427284
 20
52.37254693514038
 30
0.0
 10
93.15130010414646
 20
52.42788531436222
 30
0.0
 10
93.23995244734995
 20
52.45288999092231
 30
0.0
 10
93.39361999503107
 20
52.49676979981299
 30
0.0
 10
93.4588676992829
 20
52.51571348457529
 30
0.0
 10
93.61517275264718
 20
52.56143321184549
 30
0.0
 10
93.66766393118918
 20
52.57722852703721
 30
0.0
 10
93.66766393118918
 20
52.57722852703721
 30
0.0
  0
SPLINE
  5
19F
330
1F
100
AcDbEntity
  8
0
  6
Continuous
 62
     7
370
    15
100
AcDbSpline
210
0.0
220
0.0
230
1.0
 70
     8
 71
     3
 72
    28
 73
    24
 74
     0
 42
0.00000001
 43
0.00000001
 12
1.0
 22
0.0
 32
0.0
 13
1.0
 23
0.0
 33
0.0
 40
0.0
 40
0.0
 40
0.0
 40
0.0
 40
0.1250000000000001
 40
0.1250000000000001
 40
0.1875000000000001
 40
0.1875000000000001
 40
0.2500000000000001
 40
0.2500000000000001
 40
0.375
 40
0.375
 40
0.4375000000000001
 40
0.4375000000000001
 40
0.5
 40
0.5
 40
0.625
 40
0.625
 40
0.7499999999999999
 40
0.7499999999999999
 40
0.8124999999999999
 40
0.8124999999999999
 40
0.875
 40
0.875
 40
1.0
 40
1.0
 40
1.0
 40
1.0
 10
75.6676639311892
 20
52.57722852703721
 30
0.0
 10
75.66766393118918
 20
52.5772285270372
 30
0.0
 10
75.7201402735074
 20
52.56144381308699
 30
0.0
 10
75.8739372210643
 20
52.51644839901078
 30
0.0
 10
75.93781219609829
 20
52.49789340393506
 30
0.0
 10
76.09130846475485
 20
52.45404068148855
 30
0.0
 10
76.18112344014853
 20
52.42869607453636
 30
0.0
 10
76.48310223519938
 20
52.34529399678625
 30
0.0
 10
76.72905566925515
 20
52.27942843763516
 30
0.0
 10
77.16442284868353
 20
52.17045809714337
 30
0.0
 10
77.32163803085587
 20
52.13221846137672
 30
0.0
 10
77.65380265139832
 20
52.05445972395739
 30
0.0
 10
77.8286099170012
 20
52.01495876178203
 30
0.0
 10
78.37866910758703
 20
51.89605101941602
 30
0.0
 10
78.7792924919825
 20
51.81623333799141
 30
0.0
 10
79.6518786033312
 20
51.66289017619534
 30
0.0
 10
80.11201405093279
 20
51.59155642292609
 30
0.0
 10
80.83198014489896
 20
51.49761291585147
 30
0.0
 10
81.07725385493349
 20
51.46841912249155
 30
0.0
 10
81.57871019136232
 20
51.41495254822812
 30
0.0
 10
81.83614156073484
 20
51.39059321395295
 30
0.0
 10
82.61208135659933
 20
51.32700306850823
 30
0.0
 10
83.13630975650537
 20
51.29690013341897
 30
0.0
 10
83.66766393118918
 20
51.28002324042204
 30
0.0
  0
SPLINE
  5
1A0
330
1F
100
AcDbEntity
  8
0
  6
Continuous
 62
     7
370
    15
100
AcDbSpline
210
0.0
220
0.0
230
1.0
 70
     8
 71
     3
 72
    50
 73
    46
 74
     0
 42
0.00000001
 43
0.00000001
 12
1.0
 22
0.0
 32
0.0
 13
1.0
 23
0.0
 33
0.0
 40
0.0
 40
0.0
 40
0.0
 40
0.0
 40
0.0625000000000003
 40
0.0625000000000003
 40
0.0937500000000003
 40
0.0937500000000003
 40
0.1250000000000004
 40
0.1250000000000004
 40
0.1875000000000002
 40
0.1875000000000002
 40
0.2187500000000001
 40
0.2187500000000001
 40
0.2500000000000001
 40
0.2500000000000001
 40
0.3125000000000001
 40
0.3125000000000001
 40
0.375
 40
0.375
 40
0.40625
 40
0.40625
 40
0.4375000000000001
 40
0.4375000000000001
 40
0.5
 40
0.5
 40
0.5624999999999999
 40
0.5624999999999999
 40
0.6249999999999999
 40
0.6249999999999999
 40
0.6562499999999999
 40
0.6562499999999999
 40
0.6874999999999999
 40
0.6874999999999999
 40
0.71875
 40
0.71875
 40
0.75
 40
0.75
 40
0.8125
 40
0.8125
 40
0.8750000000000001
 40
0.8750000000000001
 40
0.9375000000000001
 40
0.9375000000000001
 40
0.9687500000000001
 40
0.9687500000000001
 40
1.0
 40
1.0
 40
1.0
 40
1.0
 10
76.6676639311892
 20
113.2313416964486
 30
0.0
 10
76.6676639311892
 20
113.2313416964486
 30
0.0
 10
76.71995807314225
 20
113.2452077998298
 30
0.0
 10
76.873310607975
 20
113.2846449427138
 30
0.0
 10
76.9370081033262
 20
113.3008976449788
 30
0.0
 10
77.09009975361603
 20
113.3392463548292
 30
0.0
 10
77.17975585557684
 20
113.3613998012372
 30
0.0
 10
77.48133724375089
 20
113.4341557470993
 30
0.0
 10
77.72707867418488
 20
113.491436449944
 30
0.0
 10
78.16223874053554
 20
113.5854288893998
 30
0.0
 10
78.31937956799672
 20
113.618287856593
 30
0.0
 10
78.65201866072103
 20
113.6848639100412
 30
0.0
 10
78.82708461616106
 20
113.7185073478801
 30
0.0
 10
79.37794014686266
 20
113.8190682124572
 30
0.0
 10
79.77912455604931
 20
113.8856310222073
 30
0.0
 10
80.6526137621367
 20
114.0103300775069
 30
0.0
 10
81.11465435511916
 20
114.0668530865775
 30
0.0
 10
81.83576976871305
 20
114.1375220211923
 30
0.0
 10
82.08133040639643
 20
114.1587982312638
 30
0.0
 10
82.58311870555464
 20
114.1961039575057
 30
0.0
 10
82.84087992187129
 20
114.2121951543658
 30
0.0
 10
83.61599238609108
 20
114.2508366259734
 30
0.0
 10
84.13642156981075
 20
114.2640260445298
 30
0.0
 10
85.18455741059613
 20
114.2642647679879
 30
0.0
 10
85.71706574096989
 20
114.2508647652837
 30
0.0
 10
86.74475600313649
 20
114.1998007770886
 30
0.0
 10
87.24452018371821
 20
114.1623616423343
 30
0.0
 10
87.97301518373868
 20
114.0911981594159
 30
0.0
 10
88.21236617618418
 20
114.0649297012234
 30
0.0
 10
88.67360464767104
 20
114.0092482284711
 30
0.0
 10
88.8968713027383
 20
113.9797104565352
 30
0.0
 10
89.32905890876037
 20
113.9181033115075
 30
0.0
 10
89.53797948900036
 20
113.8860323687863
 30
0.0
 10
89.94140441452406
 20
113.820215391817
 30
0.0
 10
90.13688407449342
 20
113.7862851733537
 30
0.0
 10
90.69274228802966
 20
113.6848565457735
 30
0.0
 10
91.02229967466121
 20
113.6179375170834
 30
0.0
 10
91.60169517244718
 20
113.4929119547416
 30
0.0
 10
91.85321514389156
 20
113.4343351605075
 30
0.0
 10
92.25466964050511
 20
113.3375003088626
 30
0.0
 10
92.40715263605223
 20
113.2987453493034
 30
0.0
 10
92.56246358522746
 20
113.2588178188671
 30
0.0
 10
92.60197703263361
 20
113.2485260276166
 30
0.0
 10
92.65449037992938
 20
113.2348098150776
 30
0.0
 10
92.6676639311892
 20
113.2313416964486
 30
0.0
 10
92.66766393118918
 20
113.2313416964486
 30
0.0
  0
SPLINE
  5
1A1
330
1F
100
AcDbEntity
  8
0
  6
Continuous
 62
     7
370
    15
100
AcDbSpline
210
0.0
220
0.0
230
1.0
 70
     8
 71
     3
 72
    20
 73
    16
 74
     0
 42
0.00000001
 43
0.00000001
 12
1.0
 22
0.0
 32
0.0
 13
1.0
 23
0.0
 33
0.0
 40
0.0
 40
0.0
 40
0.0
 40
0.0
 40
0.2500000000000005
 40
0.2500000000000005
 40
0.3750000000000004
 40
0.3750000000000004
 40
0.5000000000000003
 40
0.5000000000000003
 40
0.6250000000000002
 40
0.6250000000000002
 40
0.7500000000000001
 40
0.7500000000000001
 40
0.8750000000000001
 40
0.8750000000000001
 40
1.0
 40
1.0
 40
1.0
 40
1.0
 10
60.20897426882177
 20
102.6141462232844
 30
0.0
 10
60.73963103665644
 20
103.2680086515818
 30
0.0
 10
61.27335903291797
 20
103.8717944335789
 30
0.0
 10
62.0563313509067
 20
104.6986331697475
 30
0.0
 10
62.31431495100338
 20
104.9610618077004
 30
0.0
 10
62.81871020741121
 20
105.4577244618054
 30
0.0
 10
63.06148862983921
 20
105.6883113408269
 30
0.0
 10
63.51216870935228
 20
106.1048655654095
 30
0.0
 10
63.72163257534355
 20
106.292363367377
 30
0.0
 10
64.0999210919316
 20
106.6237603450135
 30
0.0
 10
64.26366877811607
 20
106.7632643325087
 30
0.0
 10
64.53185458031552
 20
106.9887178399797
 30
0.0
 10
64.63707898840228
 20
107.0753439515233
 30
0.0
 10
64.78113821371579
 20
107.1933247403774
 30
0.0
 10
64.81766393118917
 20
107.2228358856518
 30
0.0
 10
64.81766393118917
 20
107.2228358856518
 30
0.0
  0
ARC
  5
1A2
330
1F
100
AcDbEntity
  8
0
  6
Continuous
 62
     7
370
    15
100
AcDbCircle
 10
84.6676639312
 20
82.7641462233
 30
0.0
 40
31.49999999999998
100
AcDbArc
 50
268.180780706
 51
271.819219294
  0
CIRCLE
  5
1A3
330
1F
100
AcDbEntity
  8
0
  6
Continuous
 62
     7
370
    15
100
AcDbCircle
 10
72.6258082171
 20
74.2687631948
 30
0.0
 40
3.231352003170888
  0
CIRCLE
  5
1A4
330
1F
100
AcDbEntity
  8
0
  6
Continuous
 62
     7
370
    15
100
AcDbCircle
 10
72.622527477
 20
74.2687688922
 30
0.0
 40
2.484627377580933
  0
CIRCLE
  5
1A5
330
1F
100
AcDbEntity
  8
0
  6
Continuous
 62
     7
370
    15
100
AcDbCircle
 10
72.6264478783
 20
74.3207841089
 30
0.0
 40
2.08703863648494
  0
ARC
  5
1A6
330
1F
100
AcDbEntity
  8
0
  6
Continuous
 62
     7
370
    15
100
AcDbCircle
 10
72.7041065765
 20
75.063008154
 30
0.0
 40
2.102504662319633
100
AcDbArc
 50
183.5001272274
 51
342.5954449368
  0
CIRCLE
  5
1A7
330
1F
100
AcDbEntity
  8
0
  6
Continuous
 62
     7
370
    15
100
AcDbCircle
 10
72.6676639312
 20
74.7641462233
 30
0.0
 40
4.582575694955857
  0
LINE
  5
1A8
330
1F
100
AcDbEntity
  8
0
  6
Continuous
 62
     7
370
    15
100
AcDbLine
 10
84.6676639312
 20
62.8613972362
 30
0.0
 11
84.6676639312
 21
66.2641463127
 31
0.0
  0
LINE
  5
1A9
330
1F
100
AcDbEntity
  8
0
  6
Continuous
 62
     7
370
    15
100
AcDbLine
 10
84.6676639312
 20
59.2641470279
 30
0.0
 11
84.6676639312
 21
62.8613972362
 31
0.0
  0
DIMENSION
  5
1AA
330
1F
100
AcDbEntity
  8
VERMASSUNG
100
AcDbDimension
  2
_D_3
 10
104.6676639312
 20
45.9383531961
 30
0.0
 11
94.6676639312
 21
45.9383531961
 31
0.0
 70
   160
  1
<>
 71
     2
 42
-1.0
  3
SLDDIMSTYLE0
100
AcDbAlignedDimension
 13
84.6676639312
 23
48.7641462233
 33
0.0
 14
104.6676639312
 24
52.7641462233
 34
0.0
100
AcDbRotatedDimension
  0
DIMENSION
  5
1B4
330
1F
100
AcDbEntity
  8
VERMASSUNG
100
AcDbDimension
  2
_D_4
 10
119.6676639312
 20
39.9383531961
 30
0.0
 11
102.1676639312
 21
39.9383531961
 31
0.0
 70
   160
  1
<>
 71
     2
 42
-1.0
  3
SLDDIMSTYLE0
100
AcDbAlignedDimension
 13
84.6676639312
 23
48.7641462233
 33
0.0
 14
119.6676639312
 24
63.3992294922
 34
0.0
100
AcDbRotatedDimension
  0
DIMENSION
  5
1BE
330
1F
100
AcDbEntity
  8
VERMASSUNG
100
AcDbDimension
  2
_D_5
 10
119.6676639312
 20
33.9383531961
 30
0.0
 11
89.1676639312
 21
33.9383531961
 31
0.0
 70
   160
  1
<>
 71
     2
 42
-1.0
  3
SLDDIMSTYLE0
100
AcDbAlignedDimension
 13
58.6676639312
 23
52.7641462233
 33
0.0
 14
119.6676639312
 24
63.3992294922
 34
0.0
 50
0.0
100
AcDbRotatedDimension
  0
DIMENSION
  5
1C8
330
1F
100
AcDbEntity
  8
VERMASSUNG
100
AcDbDimension
  2
_D_6
 10
48.2460455038
 20
72.7641462233
 30
0.0
 11
48.2460455038
 21
62.7641462233
 31
0.0
 70
   160
  1
<>
 71
     2
 42
-1.0
  3
SLDDIMSTYLE0
100
AcDbAlignedDimension
 13
58.6676639312
 23
52.7641462233
 33
0.0
 14
79.4176639312
 24
72.7641462233
 34
0.0
 50
90.0
100
AcDbRotatedDimension
  0
DIMENSION
  5
1D2
330
1F
100
AcDbEntity
  8
VERMASSUNG
100
AcDbDimension
  2
_D_7
 10
42.2460455038
 20
52.7641462233
 30
0.0
 11
42.2460455038
 21
67.7641462233
 31
0.0
 70
   160
  1
<>
 71
     2
 42
-1.0
  3
SLDDIMSTYLE0
100
AcDbAlignedDimension
 13
50.6676639312
 23
82.7641462233
 33
0.0
 14
58.6676639312
 24
52.7641462233
 34
0.0
 50
90.0
100
AcDbRotatedDimension
  0
DIMENSION
  5
1DC
330
1F
100
AcDbEntity
  8
VERMASSUNG
100
AcDbDimension
  2
_D_8
 10
36.2460455038
 20
52.7641462233
 30
0.0
 11
36.2460455038
 21
80.7641462233
 31
0.0
 70
   160
  1
<>
 71
     2
 42
-1.0
  3
SLDDIMSTYLE0
100
AcDbAlignedDimension
 13
73.6676639312
 23
108.7641462233
 33
0.0
 14
58.6676639312
 24
52.7641462233
 34
0.0
 50
90.0
100
AcDbRotatedDimension
  0
DIMENSION
  5
1E6
330
1F
100
AcDbEntity
  8
VERMASSUNG
100
AcDbDimension
  2
_D_9
 10
53.2065712217
 20
107.4663656686
 30
0.0
 11
124.6369344469
 21
51.3816021129
 31
0.0
 70
   163
  1
<>
 71
     1
 42
-1.0
  3
SLDDIMSTYLE1
100
AcDbDiametricDimension
 15
116.1287566407
 25
58.0619267779
 35
0.0
 40
0.0
  0
INSERT
  5
1FA
330
1F
100
AcDbEntity
  8
VERMASSUNG
100
AcDbBlockReference
  2
SW_CENTERMARKSYMBOL_0
 10
84.6676639312
 20
82.7641462233
 30
0.0
  0
LINE
  5
1FB
330
1F
100
AcDbEntity
  8
0
  6
Continuous
 62
     7
370
    15
100
AcDbLine
 10
191.2245835921
 20
143.3792696148
 30
0.0
 11
193.8965154624
 21
143.3792696148
 31
0.0
  0
LINE
  5
1FC
330
1F
100
AcDbEntity
  8
0
  6
Continuous
 62
     7
370
    15
100
AcDbLine
 10
179.5884480163
 20
143.3792696148
 30
0.0
 11
181.288448097
 21
143.3792696148
 31
0.0
  0
LINE
  5
1FD
330
1F
100
AcDbEntity
  8
0
  6
Continuous
 62
     7
370
    15
100
AcDbLine
 10
193.8965154624
 20
206.3792706281
 30
0.0
 11
179.5884480163
 21
206.3792706281
 31
0.0
  0
ARC
  5
1FE
330
1F
100
AcDbEntity
  8
0
  6
Continuous
 62
     7
370
    15
100
AcDbCircle
 10
179.588448002
 20
143.6792701214
 30
0.0
 40
0.3000000000000114
100
AcDbArc
 50
180.0
 51
270.0
  0
ARC
  5
1FF
330
1F
100
AcDbEntity
  8
0
  6
Continuous
 62
     7
370
    15
100
AcDbCircle
 10
179.588448002
 20
206.0792701214
 30
0.0
 40
0.3000000000000114
100
AcDbArc
 50
90.0
 51
180.0
  0
ARC
  5
200
330
1F
100
AcDbEntity
  8
0
  6
Continuous
 62
     7
370
    15
100
AcDbCircle
 10
204.638448002
 20
205.7792701214
 30
0.0
 40
0.6000000000000227
100
AcDbArc
 50
0.0
 51
90.0
  0
ARC
  5
201
330
1F
100
AcDbEntity
  8
0
  6
Continuous
 62
     7
370
    15
100
AcDbCircle
 10
204.638448002
 20
143.9792701214
 30
0.0
 40
0.5999999999999943
100
AcDbArc
 50
270.0
 51
0.0
  0
LINE
  5
202
330
1F
100
AcDbEntity
  8
0
  6
Continuous
 62
     7
370
    15
100
AcDbLine
 10
200.6803799233
 20
143.3792696148
 30
0.0
 11
204.6384487113
 21
143.3792696148
 31
0.0
  0
LINE
  5
203
330
1F
100
AcDbEntity
  8
0
  6
Continuous
 62
     7
370
    15
100
AcDbLine
 10
204.6384487113
 20
206.3792706281
 30
0.0
 11
200.6803799233
 21
206.3792706281
 31
0.0
  0
LINE
  5
204
330
1F
100
AcDbEntity
  8
0
  6
Continuous
 62
     7
370
    15
100
AcDbLine
 10
200.6803799233
 20
206.3792706281
 30
0.0
 11
199.1984482667
 21
203.8124878704
 31
0.0
  0
LINE
  5
205
330
1F
100
AcDbEntity
  8
0
  6
Continuous
 62
     7
370
    15
100
AcDbLine
 10
199.1984482667
 20
145.9460523724
 30
0.0
 11
200.6803799233
 21
143.3792696148
 31
0.0
  0
LINE
  5
206
330
1F
100
AcDbEntity
  8
0
  6
Continuous
 62
     7
370
    15
100
AcDbLine
 10
193.8965154624
 20
143.3792696148
 30
0.0
 11
195.3784480503
 21
145.9460523724
 31
0.0
  0
LINE
  5
207
330
1F
100
AcDbEntity
  8
0
  6
Continuous
 62
     7
370
    15
100
AcDbLine
 10
195.3784480503
 20
203.8124878704
 30
0.0
 11
193.8965154624
 21
206.3792706281
 31
0.0
  0
LINE
  5
208
330
1F
100
AcDbEntity
  8
0
  6
Continuous
 62
     7
370
    15
100
AcDbLine
 10
221.4870463869
 20
148.1380895525
 30
0.0
 11
223.6999917587
 21
139.8792699724
 31
0.0
  0
ARC
  5
209
330
1F
100
AcDbEntity
  8
0
  6
Continuous
 62
     7
370
    15
100
AcDbCircle
 10
198.398448002
 20
146.6042701214
 30
0.0
 40
0.8000000000000114
100
AcDbArc
 50
0.0
 51
90.0
  0
ARC
  5
20A
330
1F
100
AcDbEntity
  8
0
  6
Continuous
 62
     7
370
    15
100
AcDbCircle
 10
198.398448002
 20
203.1542701214
 30
0.0
 40
0.8000000000000114
100
AcDbArc
 50
270.0
 51
0.0
  0
ARC
  5
20B
330
1F
100
AcDbEntity
  8
0
  6
Continuous
 62
     7
370
    15
100
AcDbCircle
 10
196.178448002
 20
203.1542701214
 30
0.0
 40
0.8000000000000114
100
AcDbArc
 50
180.0
 51
270.0
  0
ARC
  5
20C
330
1F
100
AcDbEntity
  8
0
  6
Continuous
 62
     7
370
    15
100
AcDbCircle
 10
196.178448002
 20
146.6042701214
 30
0.0
 40
0.8000000000000114
100
AcDbArc
 50
90.0
 51
180.0
  0
ARC
  5
20D
330
1F
100
AcDbEntity
  8
0
  6
Continuous
 62
     7
370
    15
100
AcDbCircle
 10
220.521121014
 20
147.8792701214
 30
0.0
 40
1.000000000000003
100
AcDbArc
 50
15.0
 51
90.0
  0
LINE
  5
20E
330
1F
100
AcDbEntity
  8
0
  6
Continuous
 62
     7
370
    15
100
AcDbLine
 10
196.1784485539
 20
147.4042706936
 30
0.0
 11
198.398447763
 21
147.4042706936
 31
0.0
  0
LINE
  5
20F
330
1F
100
AcDbEntity
  8
0
  6
Continuous
 62
     7
370
    15
100
AcDbLine
 10
198.398447763
 20
202.3542695492
 30
0.0
 11
196.1784485539
 21
202.3542695492
 31
0.0
  0
ARC
  5
210
330
1F
100
AcDbEntity
  8
0
  6
Continuous
 62
     7
370
    15
100
AcDbCircle
 10
206.238448002
 20
147.8792701214
 30
0.0
 40
1.0
100
AcDbArc
 50
90.0
 51
180.0
  0
ARC
  5
211
330
1F
100
AcDbEntity
  8
0
  6
Continuous
 62
     7
370
    15
100
AcDbCircle
 10
206.238448002
 20
201.8792701214
 30
0.0
 40
1.0
100
AcDbArc
 50
180.0
 51
270.0
  0
LINE
  5
212
330
1F
100
AcDbEntity
  8
0
  6
Continuous
 62
     7
370
    15
100
AcDbLine
 10
206.238447856
 20
148.879269585
 30
0.0
 11
220.5211195907
 21
148.879269585
 31
0.0
  0
LINE
  5
213
330
1F
100
AcDbEntity
  8
0
  6
Continuous
 62
     7
370
    15
100
AcDbLine
 10
220.5211195907
 20
200.8792706579
 30
0.0
 11
206.238447856
 21
200.8792706579
 31
0.0
  0
ARC
  5
214
330
1F
100
AcDbEntity
  8
0
  6
Continuous
 62
     7
370
    15
100
AcDbCircle
 10
178.788448002
 20
150.3088392597
 30
0.0
 40
0.6000000000000019
100
AcDbArc
 50
33.5573097619
 51
90.0
  0
ARC
  5
215
330
1F
100
AcDbEntity
  8
0
  6
Continuous
 62
     7
370
    15
100
AcDbCircle
 10
178.788448002
 20
199.4497009832
 30
0.0
 40
0.5999999999999943
100
AcDbArc
 50
270.0
 51
326.4426902381
  0
LINE
  5
216
330
1F
100
AcDbEntity
  8
0
  6
Continuous
 62
     7
370
    15
100
AcDbLine
 10
177.288447907
 20
199.099701345
 30
0.0
 11
148.52840377
 21
197.6588167995
 31
0.0
  0
LINE
  5
217
330
1F
100
AcDbEntity
  8
0
  6
Continuous
 62
     7
370
    15
100
AcDbLine
 10
148.52840377
 20
152.0997234434
 30
0.0
 11
177.288447907
 21
150.6588388979
 31
0.0
  0
LINE
  5
218
330
1F
100
AcDbEntity
  8
0
  6
Continuous
 62
     7
370
    15
100
AcDbLine
 10
177.288447907
 20
150.6588388979
 30
0.0
 11
178.1451608332
 21
150.8883950114
 31
0.0
  0
LINE
  5
219
330
1F
100
AcDbEntity
  8
0
  6
Continuous
 62
     7
370
    15
100
AcDbLine
 10
178.1451608332
 20
198.8701452315
 30
0.0
 11
177.288447907
 21
199.099701345
 31
0.0
  0
ARC
  5
21A
330
1F
100
AcDbEntity
  8
0
  6
Continuous
 62
     7
370
    15
100
AcDbCircle
 10
178.3004522025
 20
150.3088392597
 30
0.0
 40
0.6000000000000282
100
AcDbArc
 50
90.0
 51
105.0
  0
ARC
  5
21B
330
1F
100
AcDbEntity
  8
0
  6
Continuous
 62
     7
370
    15
100
AcDbCircle
 10
178.3004522025
 20
199.4497009832
 30
0.0
 40
0.6000000000000008
100
AcDbArc
 50
255.0
 51
270.0
  0
LINE
  5
21C
330
1F
100
AcDbEntity
  8
0
  6
Continuous
 62
     7
370
    15
100
AcDbLine
 10
178.3004522368
 20
150.9088394046
 30
0.0
 11
178.7884479783
 21
150.9088394046
 31
0.0
  0
LINE
  5
21D
330
1F
100
AcDbEntity
  8
0
  6
Continuous
 62
     7
370
    15
100
AcDbLine
 10
178.7884479783
 20
198.8497008383
 30
0.0
 11
178.3004522368
 21
198.8497008383
 31
0.0
  0
ARC
  5
21E
330
1F
100
AcDbEntity
  8
0
  6
Continuous
 62
     7
370
    15
100
AcDbCircle
 10
148.588448002
 20
196.4603201575
 30
0.0
 40
1.199999999999992
100
AcDbArc
 50
92.8681319407
 51
180.0
  0
ARC
  5
21F
330
1F
100
AcDbEntity
  8
0
  6
Continuous
 62
     7
370
    15
100
AcDbCircle
 10
148.588448002
 20
153.2982200854
 30
0.0
 40
1.199999999999992
100
AcDbArc
 50
180.0
 51
267.1318680593
  0
ARC
  5
220
330
1F
100
AcDbEntity
  8
0
  6
Continuous
 62
     7
370
    15
100
AcDbCircle
 10
267.288448002
 20
186.8792701214
 30
0.0
 40
5.000000000000003
100
AcDbArc
 50
40.881305851
 51
66.4218215218
  0
ARC
  5
221
330
1F
100
AcDbEntity
  8
0
  6
Continuous
 62
     7
370
    15
100
AcDbCircle
 10
267.288448002
 20
186.8792701214
 30
0.0
 40
5.000000000000003
100
AcDbArc
 50
293.5781784782
 51
320.9480830532
  0
LINE
  5
222
330
1F
100
AcDbEntity
  8
0
  6
Continuous
 62
     7
370
    15
100
AcDbLine
 10
254.7884445449
 20
175.8792701689
 30
0.0
 11
255.7884465715
 21
174.8792701214
 31
0.0
  0
LINE
  5
223
330
1F
100
AcDbEntity
  8
0
  6
Continuous
 62
     7
370
    15
100
AcDbLine
 10
262.7884458562
 20
174.8792701214
 30
0.0
 11
263.7884478828
 21
175.8792701689
 31
0.0
  0
LINE
  5
224
330
1F
100
AcDbEntity
  8
0
  6
Continuous
 62
     7
370
    15
100
AcDbLine
 10
234.7884487173
 20
175.8792701689
 30
0.0
 11
235.7884470185
 21
174.8792701214
 31
0.0
  0
LINE
  5
225
330
1F
100
AcDbEntity
  8
0
  6
Continuous
 62
     7
370
    15
100
AcDbLine
 10
242.7884500286
 20
174.8792701214
 30
0.0
 11
243.7884446045
 21
175.8792701689
 31
0.0
  0
LINE
  5
226
330
1F
100
AcDbEntity
  8
0
  6
Continuous
 62
     7
370
    15
100
AcDbLine
 10
193.8965154624
 20
183.879269734
 30
0.0
 11
193.8965154624
 21
206.3792706281
 31
0.0
  0
LINE
  5
227
330
1F
100
AcDbEntity
  8
0
  6
Continuous
 62
     7
370
    15
100
AcDbLine
 10
193.8965154624
 20
183.879269734
 30
0.0
 11
192.2384483552
 21
183.879269734
 31
0.0
  0
SPLINE
  5
228
330
1F
100
AcDbEntity
  8
0
  6
Continuous
 62
     7
370
    15
100
AcDbSpline
210
0.0
220
0.0
230
1.0
 70
     8
 71
     3
 72
    28
 73
    24
 74
     0
 42
0.00000001
 43
0.00000001
 12
1.0
 22
0.0
 32
0.0
 13
1.0
 23
0.0
 33
0.0
 40
0.0
 40
0.0
 40
0.0
 40
0.0
 40
0.1250000000000001
 40
0.1250000000000001
 40
0.1875000000000001
 40
0.1875000000000001
 40
0.2500000000000001
 40
0.2500000000000001
 40
0.375
 40
0.375
 40
0.4375000000000001
 40
0.4375000000000001
 40
0.5
 40
0.5
 40
0.625
 40
0.625
 40
0.7499999999999999
 40
0.7499999999999999
 40
0.8124999999999999
 40
0.8124999999999999
 40
0.875
 40
0.875
 40
1.0
 40
1.0
 40
1.0
 40
1.0
 10
192.2384480020104
 20
183.8792701214403
 30
0.0
 10
191.7067402445175
 20
183.8792701214403
 30
0.0
 10
191.1845016792072
 20
183.8267937791221
 30
0.0
 10
190.4146311929322
 20
183.6729968315652
 30
0.0
 10
190.1602716207408
 20
183.6091218565312
 30
0.0
 10
189.6561500400423
 20
183.4556255878746
 30
0.0
 10
189.4064272226144
 20
183.3658106124809
 30
0.0
 10
188.680837271168
 20
183.0638318174301
 30
0.0
 10
188.2224770095864
 20
182.8178783833743
 30
0.0
 10
187.5719790661926
 20
182.3825112039459
 30
0.0
 10
187.3602970154001
 20
182.2252960217736
 30
0.0
 10
186.9562255262621
 20
181.8931314012312
 30
0.0
 10
186.7637190124413
 20
181.7183241356283
 30
0.0
 10
186.21388404142
 20
181.1682649450424
 30
0.0
 10
185.8839552631111
 20
180.767641560647
 30
0.0
 10
185.2994839945425
 20
179.8950554492983
 30
0.0
 10
185.053206856529
 20
179.4349200016967
 30
0.0
 10
184.753364063831
 20
178.7149539077305
 30
0.0
 10
184.6649072067588
 20
178.469680197696
 30
0.0
 10
184.5115458534537
 20
177.9682238612671
 30
0.0
 10
184.4464576392274
 20
177.7107924918946
 30
0.0
 10
184.2908636232866
 20
176.9348526960301
 30
0.0
 10
184.2384480020104
 20
176.4106242961241
 30
0.0
 10
184.2384480020104
 20
175.8792701214403
 30
0.0
  0
LINE
  5
229
330
1F
100
AcDbEntity
  8
0
  6
Continuous
 62
     7
370
    15
100
AcDbLine
 10
192.2384483552
 20
165.8792705089
 30
0.0
 11
193.8965154624
 21
165.8792705089
 31
0.0
  0
LINE
  5
22A
330
1F
100
AcDbEntity
  8
0
  6
Continuous
 62
     7
370
    15
100
AcDbLine
 10
193.8965154624
 20
143.3792696148
 30
0.0
 11
193.8965154624
 21
165.8792705089
 31
0.0
  0
SPLINE
  5
22B
330
1F
100
AcDbEntity
  8
0
  6
Continuous
 62
     7
370
    15
100
AcDbSpline
210
0.0
220
0.0
230
1.0
 70
     8
 71
     3
 72
    17
 73
    13
 74
     0
 42
0.00000001
 43
0.00000001
 12
1.0
 22
0.0
 32
0.0
 13
1.0
 23
0.0
 33
0.0
 40
0.0
 40
0.0
 40
0.0
 40
0.0
 40
0.1064584947925926
 40
0.2128853820649122
 40
0.3201358678267675
 40
0.4279706072970569
 40
0.5348959099635372
 40
0.640833893296311
 40
0.7472465223320981
 40
0.8548490544915606
 40
0.9625155229041981
 40
1.0
 40
1.0
 40
1.0
 40
1.0
 10
181.2884480970053
 20
143.3792696148008
 30
0.0
 10
181.3430238732808
 20
143.3881715563822
 30
0.0
 10
181.4521592222871
 20
143.405972796559
 30
0.0
 10
182.3020539827118
 20
143.5301043944393
 30
0.0
 10
183.5591778416665
 20
143.6700285449967
 30
0.0
 10
185.1395343364432
 20
143.772547753968
 30
0.0
 10
186.8434553397454
 20
143.7890056301343
 30
0.0
 10
188.4735060351776
 20
143.7145808686925
 30
0.0
 10
189.871379187959
 20
143.5803211383304
 30
0.0
 10
190.8396840202332
 20
143.450400583676
 30
0.0
 10
191.3086868309194
 20
143.3761010429592
 30
0.0
 10
191.2418451171774
 20
143.3866072696109
 30
0.0
 10
191.2245835920869
 20
143.389320448026
 30
0.0
  0
SPLINE
  5
22C
330
1F
100
AcDbEntity
  8
0
  6
Continuous
 62
     7
370
    15
100
AcDbSpline
210
0.0
220
0.0
230
1.0
 70
     8
 71
     3
 72
    30
 73
    26
 74
     0
 42
0.00000001
 43
0.00000001
 12
1.0
 22
0.0
 32
0.0
 13
1.0
 23
0.0
 33
0.0
 40
0.0
 40
0.0
 40
0.0
 40
0.0
 40
0.1250000000000002
 40
0.1250000000000002
 40
0.1875000000000002
 40
0.1875000000000002
 40
0.2500000000000003
 40
0.2500000000000003
 40
0.3750000000000004
 40
0.3750000000000004
 40
0.4375000000000004
 40
0.4375000000000004
 40
0.5000000000000004
 40
0.5000000000000004
 40
0.6250000000000004
 40
0.6250000000000004
 40
0.6875000000000003
 40
0.6875000000000003
 40
0.7500000000000002
 40
0.7500000000000002
 40
0.8125000000000001
 40
0.8125000000000001
 40
0.8749999999999999
 40
0.8749999999999999
 40
1.0
 40
1.0
 40
1.0
 40
1.0
 10
184.2384480020104
 20
173.8792701214403
 30
0.0
 10
184.2384480020104
 20
173.3478521910397
 30
0.0
 10
184.2908655679888
 20
172.8261929934655
 30
0.0
 10
184.4442450478911
 20
172.0575512063065
 30
0.0
 10
184.5079261685589
 20
171.8036614071415
 30
0.0
 10
184.6608810360106
 20
171.3005886311954
 30
0.0
 10
184.7504533347798
 20
171.0511247829788
 30
0.0
 10
185.051677367633
 20
170.3262138853819
 30
0.0
 10
185.2969923637171
 20
169.8683365484897
 30
0.0
 10
185.7310893447874
 20
169.2185693230068
 30
0.0
 10
185.887759033891
 20
169.0071826195967
 30
0.0
 10
186.2197521977334
 20
168.6025488088265
 30
0.0
 10
186.3944577267259
 20
168.4098083373253
 30
0.0
 10
186.9441274093174
 20
167.8593774609484
 30
0.0
 10
187.3443783720287
 20
167.5291940836678
 30
0.0
 10
187.9979652386662
 20
167.0905182670174
 30
0.0
 10
188.2236413583433
 20
166.9547197085308
 30
0.0
 10
188.6833531794746
 20
166.7078426756846
 30
0.0
 10
188.9184065135177
 20
166.5960641383566
 30
0.0
 10
189.3989137958167
 20
166.395633948483
 30
0.0
 10
189.6443673237308
 20
166.3069816052795
 30
0.0
 10
190.1459827485382
 20
166.1533140575984
 30
0.0
 10
190.4034751311387
 20
166.0880663533466
 30
0.0
 10
191.1815516475748
 20
165.9317612999823
 30
0.0
 10
191.7067139248197
 20
165.8792701214403
 30
0.0
 10
192.2384480020104
 20
165.8792701214403
 30
0.0
  0
LINE
  5
22D
330
1F
100
AcDbEntity
  8
0
  6
Continuous
 62
     7
370
    15
100
AcDbLine
 10
184.2384479752
 20
175.8792701689
 30
0.0
 11
184.2384479752
 21
173.8792700739
 31
0.0
  0
LINE
  5
22E
330
1F
100
AcDbEntity
  8
0
  6
Continuous
 62
     7
370
    15
100
AcDbLine
 10
179.288448002
 20
174.8792701214
 30
0.0
 11
179.288448002
 21
206.0792692751
 31
0.0
  0
LINE
  5
22F
330
1F
100
AcDbEntity
  8
0
  6
Continuous
 62
     7
370
    15
100
AcDbLine
 10
179.288448002
 20
143.6792709678
 30
0.0
 11
179.288448002
 21
174.8792701214
 31
0.0
  0
LINE
  5
230
330
1F
100
AcDbEntity
  8
0
  6
Continuous
 62
     7
370
    15
100
AcDbLine
 10
205.2384476921
 20
183.879269734
 30
0.0
 11
205.2384476921
 21
205.7792697847
 31
0.0
  0
SPLINE
  5
231
330
1F
100
AcDbEntity
  8
0
  6
Continuous
 62
     7
370
    15
100
AcDbSpline
210
0.0
220
0.0
230
1.0
 70
    24
 71
     3
 72
    10
 73
     6
 74
     0
 42
0.00000001
 43
0.00000001
 12
1.0
 22
0.0
 32
0.0
 13
1.0
 23
0.0
 33
0.0
 40
0.0
 40
0.0
 40
0.0
 40
0.0
 40
0.5
 40
0.5
 40
1.0
 40
1.0
 40
1.0
 40
1.0
 10
205.2384480020105
 20
183.8792701214403
 30
0.0
 10
205.2384480020105
 20
183.8792701214403
 30
0.0
 10
205.1771383507746
 20
183.8792701214403
 30
0.0
 10
204.9580387132395
 20
183.8792701214403
 30
0.0
 10
204.799990506926
 20
183.8792701214403
 30
0.0
 10
204.6384480020104
 20
183.8792701214403
 30
0.0
  0
LINE
  5
232
330
1F
100
AcDbEntity
  8
0
  6
Continuous
 62
     7
370
    15
100
AcDbLine
 10
205.2384476921
 20
143.9792704582
 30
0.0
 11
205.2384476921
 21
165.8792705089
 31
0.0
  0
SPLINE
  5
233
330
1F
100
AcDbEntity
  8
0
  6
Continuous
 62
     7
370
    15
100
AcDbSpline
210
0.0
220
0.0
230
1.0
 70
    24
 71
     3
 72
    12
 73
     8
 74
     0
 42
0.00000001
 43
0.00000001
 12
1.0
 22
0.0
 32
0.0
 13
1.0
 23
0.0
 33
0.0
 40
0.0
 40
0.0
 40
0.0
 40
0.0
 40
0.2499999999999999
 40
0.2499999999999999
 40
0.4999999999999998
 40
0.4999999999999998
 40
1.0
 40
1.0
 40
1.0
 40
1.0
 10
204.6384480020104
 20
165.8792701214403
 30
0.0
 10
204.7183290067576
 20
165.8792701214403
 30
0.0
 10
204.7989231370281
 20
165.8792701214403
 30
0.0
 10
204.9455385828731
 20
165.8792701214403
 30
0.0
 10
205.012039775617
 20
165.8792701214403
 30
0.0
 10
205.1777746767542
 20
165.8792701214403
 30
0.0
 10
205.2384480020104
 20
165.8792701214403
 30
0.0
 10
205.2384480020105
 20
165.8792701214403
 30
0.0
  0
LINE
  5
234
330
1F
100
AcDbEntity
  8
0
  6
Continuous
 62
     7
370
    15
100
AcDbLine
 10
200.6803799233
 20
143.3792696148
 30
0.0
 11
200.6803799233
 21
165.8792705089
 31
0.0
  0
LINE
  5
235
330
1F
100
AcDbEntity
  8
0
  6
Continuous
 62
     7
370
    15
100
AcDbLine
 10
200.6803799233
 20
165.8792705089
 30
0.0
 11
204.6384487113
 21
165.8792705089
 31
0.0
  0
LINE
  5
236
330
1F
100
AcDbEntity
  8
0
  6
Continuous
 62
     7
370
    15
100
AcDbLine
 10
200.6803799233
 20
183.879269734
 30
0.0
 11
200.6803799233
 21
206.3792706281
 31
0.0
  0
LINE
  5
237
330
1F
100
AcDbEntity
  8
0
  6
Continuous
 62
     7
370
    15
100
AcDbLine
 10
204.6384487113
 20
183.879269734
 30
0.0
 11
200.6803799233
 21
183.879269734
 31
0.0
  0
LINE
  5
238
330
1F
100
AcDbEntity
  8
0
  6
Continuous
 62
     7
370
    15
100
AcDbLine
 10
199.1984482667
 20
183.879269734
 30
0.0
 11
199.1984482667
 21
203.8124878704
 31
0.0
  0
SPLINE
  5
239
330
1F
100
AcDbEntity
  8
0
  6
Continuous
 62
     7
370
    15
100
AcDbSpline
210
0.0
220
0.0
230
1.0
 70
    24
 71
     3
 72
     8
 73
     4
 74
     0
 42
0.00000001
 43
0.00000001
 12
1.0
 22
0.0
 32
0.0
 13
1.0
 23
0.0
 33
0.0
 40
0.0
 40
0.0
 40
0.0
 40
0.0
 40
1.0
 40
1.0
 40
1.0
 40
1.0
 10
200.6803808334995
 20
183.8792701214403
 30
0.0
 10
200.1849011728337
 20
183.8792701214403
 30
0.0
 10
199.6907871247916
 20
183.8792701214403
 30
0.0
 10
199.1984480020105
 20
183.8792701214403
 30
0.0
  0
LINE
  5
23A
330
1F
100
AcDbEntity
  8
0
  6
Continuous
 62
     7
370
    15
100
AcDbLine
 10
199.1984482667
 20
145.9460523724
 30
0.0
 11
199.1984482667
 21
165.8792705089
 31
0.0
  0
SPLINE
  5
23B
330
1F
100
AcDbEntity
  8
0
  6
Continuous
 62
     7
370
    15
100
AcDbSpline
210
0.0
220
0.0
230
1.0
 70
    24
 71
     3
 72
     8
 73
     4
 74
     0
 42
0.00000001
 43
0.00000001
 12
1.0
 22
0.0
 32
0.0
 13
1.0
 23
0.0
 33
0.0
 40
0.0
 40
0.0
 40
0.0
 40
0.0
 40
1.0
 40
1.0
 40
1.0
 40
1.0
 10
199.1984480020105
 20
165.8792701214403
 30
0.0
 10
199.6907871247916
 20
165.8792701214403
 30
0.0
 10
200.1849011728337
 20
165.8792701214403
 30
0.0
 10
200.6803808334995
 20
165.8792701214403
 30
0.0
  0
LINE
  5
23C
330
1F
100
AcDbEntity
  8
0
  6
Continuous
 62
     7
370
    15
100
AcDbLine
 10
195.3784480503
 20
145.9460523724
 30
0.0
 11
195.3784480503
 21
165.8792705089
 31
0.0
  0
SPLINE
  5
23D
330
1F
100
AcDbEntity
  8
0
  6
Continuous
 62
     7
370
    15
100
AcDbSpline
210
0.0
220
0.0
230
1.0
 70
    24
 71
     3
 72
     8
 73
     4
 74
     0
 42
0.00000001
 43
0.00000001
 12
1.0
 22
0.0
 32
0.0
 13
1.0
 23
0.0
 33
0.0
 40
0.0
 40
0.0
 40
0.0
 40
0.0
 40
1.0
 40
1.0
 40
1.0
 40
1.0
 10
193.8965151705214
 20
165.8792701214403
 30
0.0
 10
194.3919948311871
 20
165.8792701214403
 30
0.0
 10
194.8861088792293
 20
165.8792701214403
 30
0.0
 10
195.3784480020104
 20
165.8792701214403
 30
0.0
  0
LINE
  5
23E
330
1F
100
AcDbEntity
  8
0
  6
Continuous
 62
     7
370
    15
100
AcDbLine
 10
195.3784480503
 20
183.879269734
 30
0.0
 11
195.3784480503
 21
203.8124878704
 31
0.0
  0
SPLINE
  5
23F
330
1F
100
AcDbEntity
  8
0
  6
Continuous
 62
     7
370
    15
100
AcDbSpline
210
0.0
220
0.0
230
1.0
 70
    24
 71
     3
 72
     8
 73
     4
 74
     0
 42
0.00000001
 43
0.00000001
 12
1.0
 22
0.0
 32
0.0
 13
1.0
 23
0.0
 33
0.0
 40
0.0
 40
0.0
 40
0.0
 40
0.0
 40
1.0
 40
1.0
 40
1.0
 40
1.0
 10
195.3784480020104
 20
183.8792701214403
 30
0.0
 10
194.8861088792293
 20
183.8792701214403
 30
0.0
 10
194.3919948311871
 20
183.8792701214403
 30
0.0
 10
193.8965151705214
 20
183.8792701214403
 30
0.0
  0
LINE
  5
240
330
1F
100
AcDbEntity
  8
0
  6
Continuous
 62
     7
370
    15
100
AcDbLine
 10
269.2884515783
 20
148.4217573702
 30
0.0
 11
225.0397365352
 21
148.4217573702
 31
0.0
  0
SPLINE
  5
241
330
1F
100
AcDbEntity
  8
0
  6
Continuous
 62
     7
370
    15
100
AcDbSpline
210
0.0
220
0.0
230
1.0
 70
     8
 71
     3
 72
    22
 73
    18
 74
     0
 42
0.00000001
 43
0.00000001
 12
1.0
 22
0.0
 32
0.0
 13
1.0
 23
0.0
 33
0.0
 40
0.0
 40
0.0
 40
0.0
 40
0.0
 40
0.2499999999999999
 40
0.2499999999999999
 40
0.3749999999999999
 40
0.3749999999999999
 40
0.4999999999999999
 40
0.4999999999999999
 40
0.6249999999999999
 40
0.6249999999999999
 40
0.7499999999999998
 40
0.7499999999999998
 40
0.8124999999999998
 40
0.8124999999999998
 40
0.8749999999999998
 40
0.8749999999999998
 40
1.0
 40
1.0
 40
1.0
 40
1.0
 10
225.0397366960462
 20
148.4217570107944
 30
0.0
 10
224.2697088432607
 20
152.766508624932
 30
0.0
 10
223.6026413064112
 20
157.1160076901395
 30
0.0
 10
222.8880206549452
 20
163.6534427195244
 30
0.0
 10
222.6982087742061
 20
165.8348191998338
 30
0.0
 10
222.4372851791859
 20
170.2030453685242
 30
0.0
 10
222.3665030136837
 20
172.3899102522423
 30
0.0
 10
222.3547876873525
 20
176.7696272953638
 30
0.0
 10
222.4138962757711
 20
178.9624813798052
 30
0.0
 10
222.6549451396189
 20
183.3538532592022
 30
0.0
 10
222.8365869035724
 20
185.552357289936
 30
0.0
 10
223.1854223815738
 20
188.8536348509042
 30
0.0
 10
223.3144471965221
 20
189.9552069883658
 30
0.0
 10
223.5937159639454
 20
192.1514444721133
 30
0.0
 10
223.7440437854481
 20
193.2471026406571
 30
0.0
 10
224.2224491267428
 20
196.5277673383482
 30
0.0
 10
224.5777544242254
 20
198.706508721999
 30
0.0
 10
224.9590482132338
 20
200.8792701214403
 30
0.0
  0
LINE
  5
242
330
1F
100
AcDbEntity
  8
0
  6
Continuous
 62
     7
370
    15
100
AcDbLine
 10
224.9590467474
 20
200.8792706579
 30
0.0
 11
269.2884515783
 21
200.8792706579
 31
0.0
  0
LINE
  5
243
330
1F
100
AcDbEntity
  8
0
  6
Continuous
 62
     7
370
    15
100
AcDbLine
 10
269.2884515783
 20
200.8792706579
 30
0.0
 11
269.2884515783
 21
175.8792701689
 31
0.0
  0
LINE
  5
244
330
1F
100
AcDbEntity
  8
0
  6
Continuous
 62
     7
370
    15
100
AcDbLine
 10
232.7884483894
 20
175.8792701689
 30
0.0
 11
269.2884515783
 21
175.8792701689
 31
0.0
  0
ARC
  5
245
330
1F
100
AcDbEntity
  8
0
  6
Continuous
 62
     7
370
    15
100
AcDbCircle
 10
228.538448002
 20
175.8792701214
 30
0.0
 40
4.25
100
AcDbArc
 50
0.0
 51
180.0
  0
LINE
  5
246
330
1F
100
AcDbEntity
  8
0
  6
Continuous
 62
     7
370
    15
100
AcDbLine
 10
224.2884497901
 20
154.8792705685
 30
0.0
 11
224.2884497901
 21
175.8792701689
 31
0.0
  0
ARC
  5
247
330
1F
100
AcDbEntity
  8
0
  6
Continuous
 62
     7
370
    15
100
AcDbCircle
 10
228.538448002
 20
154.8792701214
 30
0.0
 40
4.25
100
AcDbArc
 50
180.0
 51
0.0
  0
LINE
  5
248
330
1F
100
AcDbEntity
  8
0
  6
Continuous
 62
     7
370
    15
100
AcDbLine
 10
269.2884515783
 20
154.8792705685
 30
0.0
 11
269.2884515783
 21
148.4217573702
 31
0.0
  0
LINE
  5
249
330
1F
100
AcDbEntity
  8
0
  6
Continuous
 62
     7
370
    15
100
AcDbLine
 10
269.2884515783
 20
154.8792705685
 30
0.0
 11
232.7884483894
 21
154.8792705685
 31
0.0
  0
LINE
  5
24A
330
1F
100
AcDbEntity
  8
0
  6
Continuous
 62
     7
370
    15
100
AcDbLine
 10
225.0397365352
 20
139.8792699724
 30
0.0
 11
269.2884515783
 21
139.8792699724
 31
0.0
  0
LINE
  5
24B
330
1F
100
AcDbEntity
  8
0
  6
Continuous
 62
     7
370
    15
100
AcDbLine
 10
225.0397365352
 20
148.4217573702
 30
0.0
 11
225.0397365352
 21
139.8792699724
 31
0.0
  0
LINE
  5
24C
330
1F
100
AcDbEntity
  8
0
  6
Continuous
 62
     7
370
    15
100
AcDbLine
 10
269.2884515783
 20
148.4217573702
 30
0.0
 11
269.2884515783
 21
139.8792699724
 31
0.0
  0
SPLINE
  5
24D
330
1F
100
AcDbEntity
  8
0
  6
Continuous
 62
     7
370
    15
100
AcDbSpline
210
0.0
220
0.0
230
1.0
 70
    24
 71
     3
 72
    11
 73
     7
 74
     0
 42
0.00000001
 43
0.00000001
 12
1.0
 22
0.0
 32
0.0
 13
1.0
 23
0.0
 33
0.0
 40
0.0
 40
0.0
 40
0.0
 40
0.0
 40
0.0223677297983001
 40
0.3467328053532133
 40
0.6730990555487695
 40
1.0
 40
1.0
 40
1.0
 40
1.0
 10
223.709655161768
 20
139.8792699724287
 30
0.0
 10
223.7064705168146
 20
139.8792699724287
 30
0.0
 10
223.657103822531
 20
139.8792699724287
 30
0.0
 10
223.8473315580104
 20
139.8792699724287
 30
0.0
 10
224.2757510429757
 20
139.8792699724287
 30
0.0
 10
224.784935783187
 20
139.8792699724287
 30
0.0
 10
225.0397365352212
 20
139.8792699724287
 30
0.0
  0
SPLINE
  5
24E
330
1F
100
AcDbEntity
  8
0
  6
Continuous
 62
     7
370
    15
100
AcDbSpline
210
0.0
220
0.0
230
1.0
 70
    24
 71
     3
 72
    10
 73
     6
 74
     0
 42
0.00000001
 43
0.00000001
 12
1.0
 22
0.0
 32
0.0
 13
1.0
 23
0.0
 33
0.0
 40
0.0
 40
0.0
 40
0.0
 40
0.0
 40
0.5
 40
0.5
 40
1.0
 40
1.0
 40
1.0
 40
1.0
 10
224.9590482132338
 20
200.8792701214403
 30
0.0
 10
224.1640894805832
 20
200.8792701214403
 30
0.0
 10
223.4306056456036
 20
200.8792701214403
 30
0.0
 10
222.2162154645541
 20
200.8792701214403
 30
0.0
 10
221.7380399992373
 20
200.8792701214403
 30
0.0
 10
221.4870468403216
 20
200.8792701214403
 30
0.0
  0
SPLINE
  5
24F
330
1F
100
AcDbEntity
  8
0
  6
Continuous
 62
     7
370
    15
100
AcDbSpline
210
0.0
220
0.0
230
1.0
 70
     8
 71
     3
 72
    14
 73
    10
 74
     0
 42
0.00000001
 43
0.00000001
 12
1.0
 22
0.0
 32
0.0
 13
1.0
 23
0.0
 33
0.0
 40
0.0
 40
0.0
 40
0.0
 40
0.0
 40
0.1249999999999997
 40
0.1249999999999997
 40
0.2499999999999993
 40
0.2499999999999993
 40
0.4999999999999996
 40
0.4999999999999996
 40
1.0
 40
1.0
 40
1.0
 40
1.0
 10
198.3984480020104
 20
167.2690385218107
 30
0.0
 10
198.4675446343544
 20
167.2690385218107
 30
0.0
 10
198.5325377999623
 20
167.2347061461307
 30
0.0
 10
198.6368589986075
 20
167.1453995621278
 30
0.0
 10
198.6796393727159
 20
167.0904947239812
 30
0.0
 10
198.7919770323622
 20
166.919263215675
 30
0.0
 10
198.8470242145046
 20
166.7950435133158
 30
0.0
 10
198.9909009882746
 20
166.4115987132114
 30
0.0
 10
199.0539303015497
 20
166.1454314066141
 30
0.0
 10
199.1007731996782
 20
165.8792701214403
 30
0.0
  0
SPLINE
  5
250
330
1F
100
AcDbEntity
  8
0
  6
Continuous
 62
     7
370
    15
100
AcDbSpline
210
0.0
220
0.0
230
1.0
 70
     8
 71
     3
 72
    14
 73
    10
 74
     0
 42
0.00000001
 43
0.00000001
 12
1.0
 22
0.0
 32
0.0
 13
1.0
 23
0.0
 33
0.0
 40
0.0
 40
0.0
 40
0.0
 40
0.0
 40
0.5000000000000027
 40
0.5000000000000027
 40
0.7500000000000013
 40
0.7500000000000013
 40
0.8750000000000007
 40
0.8750000000000007
 40
1.0
 40
1.0
 40
1.0
 40
1.0
 10
199.1007731996782
 20
183.8792701214403
 30
0.0
 10
199.05398849463
 20
183.6134394892713
 30
0.0
 10
198.9919372978503
 20
183.3507453927123
 30
0.0
 10
198.8485456593
 20
182.9670415474152
 30
0.0
 10
198.7924020057487
 20
182.8399313456311
 30
0.0
 10
198.6794509836124
 20
182.6677550916638
 30
0.0
 10
198.6364502215742
 20
182.6127215253545
 30
0.0
 10
198.5323875112678
 20
182.5237750238005
 30
0.0
 10
198.4670552729108
 20
182.4895017210699
 30
0.0
 10
198.3984480020104
 20
182.4895017210699
 30
0.0
  0
SPLINE
  5
251
330
1F
100
AcDbEntity
  8
0
  6
Continuous
 62
     7
370
    15
100
AcDbSpline
210
0.0
220
0.0
230
1.0
 70
     8
 71
     3
 72
    14
 73
    10
 74
     0
 42
0.00000001
 43
0.00000001
 12
1.0
 22
0.0
 32
0.0
 13
1.0
 23
0.0
 33
0.0
 40
0.0
 40
0.0
 40
0.0
 40
0.0
 40
0.1250000000000007
 40
0.1250000000000007
 40
0.2500000000000014
 40
0.2500000000000014
 40
0.5000000000000002
 40
0.5000000000000002
 40
1.0
 40
1.0
 40
1.0
 40
1.0
 10
196.1784480020104
 20
182.4895017210698
 30
0.0
 10
196.1091012802793
 20
182.4895017210698
 30
0.0
 10
196.0439032268954
 20
182.5241036001318
 30
0.0
 10
195.9395240342684
 20
182.6137009298345
 30
0.0
 10
195.8966216632594
 20
182.6688865046748
 30
0.0
 10
195.7842960056547
 20
182.8404835594362
 30
0.0
 10
195.7290723113008
 20
182.9653020277609
 30
0.0
 10
195.5850149325333
 20
183.3502131232102
 30
0.0
 10
195.5229342357018
 20
183.6132876304082
 30
0.0
 10
195.4761228043427
 20
183.8792701214403
 30
0.0
  0
SPLINE
  5
252
330
1F
100
AcDbEntity
  8
0
  6
Continuous
 62
     7
370
    15
100
AcDbSpline
210
0.0
220
0.0
230
1.0
 70
     8
 71
     3
 72
    14
 73
    10
 74
     0
 42
0.00000001
 43
0.00000001
 12
1.0
 22
0.0
 32
0.0
 13
1.0
 23
0.0
 33
0.0
 40
0.0
 40
0.0
 40
0.0
 40
0.0
 40
0.5000000000000022
 40
0.5000000000000022
 40
0.7500000000000029
 40
0.7500000000000029
 40
0.8750000000000014
 40
0.8750000000000014
 40
1.0
 40
1.0
 40
1.0
 40
1.0
 10
195.4761228043426
 20
165.8792701214397
 30
0.0
 10
195.5233292921824
 20
166.1474973228726
 30
0.0
 10
195.5866692956118
 20
166.4134955026777
 30
0.0
 10
195.7297324018676
 20
166.794622043047
 30
0.0
 10
195.7858130521386
 20
166.9207434222504
 30
0.0
 10
195.897248402048
 20
167.0904231341547
 30
0.0
 10
195.939193192721
 20
167.1445497557791
 30
0.0
 10
196.0441896357412
 20
167.2346880573818
 30
0.0
 10
196.1097535728218
 20
167.2690385218104
 30
0.0
 10
196.1784480020103
 20
167.2690385218105
 30
0.0
  0
SPLINE
  5
253
330
1F
100
AcDbEntity
  8
0
  6
Continuous
 62
     7
370
    15
100
AcDbSpline
210
0.0
220
0.0
230
1.0
 70
    24
 71
     3
 72
    12
 73
     8
 74
     0
 42
0.00000001
 43
0.00000001
 12
1.0
 22
0.0
 32
0.0
 13
1.0
 23
0.0
 33
0.0
 40
0.0
 40
0.0
 40
0.0
 40
0.0
 40
0.5000000000000004
 40
0.5000000000000004
 40
0.7500000000000002
 40
0.7500000000000002
 40
1.0
 40
1.0
 40
1.0
 40
1.0
 10
220.5211210140315
 20
200.8792701214403
 30
0.0
 10
220.72423735326
 20
200.8792701214403
 30
0.0
 10
220.9278821767405
 20
200.8792701214403
 30
0.0
 10
221.1882299372716
 20
200.8792701214403
 30
0.0
 10
221.2674389024271
 20
200.8792701214403
 30
0.0
 10
221.4002831055037
 20
200.8792701214403
 30
0.0
 10
221.4541343538486
 20
200.8792701214403
 30
0.0
 10
221.4870468403216
 20
200.8792701214403
 30
0.0
  0
LINE
  5
254
330
1F
100
AcDbEntity
  8
0
  6
Continuous
 62
     7
370
    15
100
AcDbLine
 10
196.1784485539
 20
167.2690384835
 30
0.0
 11
198.398447763
 21
167.2690384835
 31
0.0
  0
LINE
  5
255
330
1F
100
AcDbEntity
  8
0
  6
Continuous
 62
     7
370
    15
100
AcDbLine
 10
198.398447763
 20
182.4895017594
 30
0.0
 11
196.1784485539
 21
182.4895017594
 31
0.0
  0
SPLINE
  5
256
330
1F
100
AcDbEntity
  8
0
  6
Continuous
 62
     7
370
    15
100
AcDbSpline
210
0.0
220
0.0
230
1.0
 70
     8
 71
     3
 72
    20
 73
    16
 74
     0
 42
0.00000001
 43
0.00000001
 12
1.0
 22
0.0
 32
0.0
 13
1.0
 23
0.0
 33
0.0
 40
0.0
 40
0.0
 40
0.0
 40
0.0
 40
0.2500000000000001
 40
0.2500000000000001
 40
0.375
 40
0.375
 40
0.4375000000000001
 40
0.4375000000000001
 40
0.4687500000000001
 40
0.4687500000000001
 40
0.5
 40
0.5
 40
0.75
 40
0.75
 40
1.0
 40
1.0
 40
1.0
 40
1.0
 10
205.2384480020104
 20
169.2188814422063
 30
0.0
 10
205.2384480020104
 20
170.179965495346
 30
0.0
 10
205.2962773987975
 20
171.1400638172424
 30
0.0
 10
205.3731358774388
 20
172.5803798054083
 30
0.0
 10
205.3974048563886
 20
173.0605081549882
 30
0.0
 10
205.4224544754261
 20
173.7808942114488
 30
0.0
 10
205.4289366842904
 20
174.0210547322134
 30
0.0
 10
205.4351429143702
 20
174.381355463818
 30
0.0
 10
205.4366299368187
 20
174.5014656234127
 30
0.0
 10
205.4383828050275
 20
174.7417067581746
 30
0.0
 10
205.4386348406479
 20
174.8624514736232
 30
0.0
 10
205.4356972195005
 20
175.9060321771159
 30
0.0
 10
205.3918191499225
 20
176.8326257726653
 30
0.0
 10
205.2924353514434
 20
178.6853141303708
 30
0.0
 10
205.2384480020104
 20
179.6115015875323
 30
0.0
 10
205.2384480020104
 20
180.5396588006742
 30
0.0
  0
LINE
  5
257
330
1F
100
AcDbEntity
  8
0
  6
Continuous
 62
     7
370
    15
100
AcDbLine
 10
205.2384476921
 20
180.5396587401
 30
0.0
 11
205.2384476921
 21
183.879269734
 31
0.0
  0
LINE
  5
258
330
1F
100
AcDbEntity
  8
0
  6
Continuous
 62
     7
370
    15
100
AcDbLine
 10
205.2384476921
 20
165.8792705089
 30
0.0
 11
205.2384476921
 21
169.2188815027
 31
0.0
  0
SPLINE
  5
259
330
1F
100
AcDbEntity
  8
0
  6
Continuous
 62
     7
370
    15
100
AcDbSpline
210
0.0
220
0.0
230
1.0
 70
     8
 71
     3
 72
    14
 73
    10
 74
     0
 42
0.00000001
 43
0.00000001
 12
1.0
 22
0.0
 32
0.0
 13
1.0
 23
0.0
 33
0.0
 40
0.0
 40
0.0
 40
0.0
 40
0.0
 40
0.5000000000000002
 40
0.5000000000000002
 40
0.7499999999999992
 40
0.7499999999999992
 40
0.8749999999999996
 40
0.8749999999999996
 40
1.0
 40
1.0
 40
1.0
 40
1.0
 10
148.5384480020104
 20
165.7477411500778
 30
0.0
 10
149.3463450261085
 20
165.6435402295386
 30
0.0
 10
150.1521091944347
 20
165.5294813430257
 30
0.0
 10
151.3525498654429
 20
165.3205222336135
 30
0.0
 10
151.7513687187366
 20
165.2447398148277
 30
0.0
 10
152.3448970688853
 20
165.1093860901167
 30
0.0
 10
152.5419599672834
 20
165.0606706796072
 30
0.0
 10
152.9328990021327
 20
164.9485427487447
 30
0.0
 10
153.1272740539562
 20
164.8874307525752
 30
0.0
 10
153.3163216252955
 20
164.8017521086624
 30
0.0
  0
SPLINE
  5
25A
330
1F
100
AcDbEntity
  8
0
  6
Continuous
 62
     7
370
    15
100
AcDbSpline
210
0.0
220
0.0
230
1.0
 70
     8
 71
     3
 72
    10
 73
     6
 74
     0
 42
0.00000001
 43
0.00000001
 12
1.0
 22
0.0
 32
0.0
 13
1.0
 23
0.0
 33
0.0
 40
0.0
 40
0.0
 40
0.0
 40
0.0
 40
0.5
 40
0.5
 40
1.0
 40
1.0
 40
1.0
 40
1.0
 10
153.3163216252955
 20
164.8017521086624
 30
0.0
 10
153.76326256652
 20
164.5991930729553
 30
0.0
 10
154.2233744550621
 20
164.4169565996516
 30
0.0
 10
155.1502641588066
 20
164.0789359121044
 30
0.0
 10
155.6179678908423
 20
163.923085061925
 30
0.0
 10
156.0884480020101
 20
163.7758129324431
 30
0.0
  0
SPLINE
  5
25B
330
1F
100
AcDbEntity
  8
0
  6
Continuous
 62
     7
370
    15
100
AcDbSpline
210
0.0
220
0.0
230
1.0
 70
     8
 71
     3
 72
    14
 73
    10
 74
     0
 42
0.00000001
 43
0.00000001
 12
1.0
 22
0.0
 32
0.0
 13
1.0
 23
0.0
 33
0.0
 40
0.0
 40
0.0
 40
0.0
 40
0.0
 40
0.1250000000000001
 40
0.1250000000000001
 40
0.2500000000000002
 40
0.2500000000000002
 40
0.5000000000000022
 40
0.5000000000000022
 40
1.0
 40
1.0
 40
1.0
 40
1.0
 10
156.0884480020103
 20
163.775812932443
 30
0.0
 10
156.1452227572308
 20
163.7580410035055
 30
0.0
 10
156.20790585816
 20
163.7621872955064
 30
0.0
 10
156.313793632698
 20
163.8059095464057
 30
0.0
 10
156.3576978902992
 20
163.8415296251418
 30
0.0
 10
156.4701311384569
 20
163.9583098082367
 30
0.0
 10
156.5232593423192
 20
164.0513038948744
 30
0.0
 10
156.6582468040594
 20
164.3339570629454
 30
0.0
 10
156.7165075155393
 20
164.5368776251664
 30
0.0
 10
156.7637753491578
 20
164.7423601227568
 30
0.0
  0
SPLINE
  5
25C
330
1F
100
AcDbEntity
  8
0
  6
Continuous
 62
     7
370
    15
100
AcDbSpline
210
0.0
220
0.0
230
1.0
 70
     8
 71
     3
 72
    12
 73
     8
 74
     0
 42
0.00000001
 43
0.00000001
 12
1.0
 22
0.0
 32
0.0
 13
1.0
 23
0.0
 33
0.0
 40
0.0
 40
0.0
 40
0.0
 40
0.0
 40
0.25
 40
0.25
 40
0.5
 40
0.5
 40
1.0
 40
1.0
 40
1.0
 40
1.0
 10
156.7637753491434
 20
164.7423601227603
 30
0.0
 10
156.8126159194785
 20
164.9546796137902
 30
0.0
 10
156.8976628346784
 20
165.1629238609676
 30
0.0
 10
157.067314243242
 20
165.5796205555589
 30
0.0
 10
157.1537762419682
 20
165.7888738033114
 30
0.0
 10
157.3791694468852
 20
166.4293938498707
 30
0.0
 10
157.4884480020104
 20
166.8729206439723
 30
0.0
 10
157.4884480020104
 20
167.3499810277907
 30
0.0
  0
LINE
  5
25D
330
1F
100
AcDbEntity
  8
0
  6
Continuous
 62
     7
370
    15
100
AcDbLine
 10
157.4884477815
 20
167.3499811254
 30
0.0
 11
157.4884477815
 21
182.4085591175
 31
0.0
  0
SPLINE
  5
25E
330
1F
100
AcDbEntity
  8
0
  6
Continuous
 62
     7
370
    15
100
AcDbSpline
210
0.0
220
0.0
230
1.0
 70
     8
 71
     3
 72
    12
 73
     8
 74
     0
 42
0.00000001
 43
0.00000001
 12
1.0
 22
0.0
 32
0.0
 13
1.0
 23
0.0
 33
0.0
 40
0.0
 40
0.0
 40
0.0
 40
0.0
 40
0.25
 40
0.25
 40
0.5
 40
0.5
 40
1.0
 40
1.0
 40
1.0
 40
1.0
 10
156.7637753491434
 20
185.0161801201203
 30
0.0
 10
156.8126159194785
 20
184.8038606290904
 30
0.0
 10
156.8976628346784
 20
184.595616381913
 30
0.0
 10
157.067314243242
 20
184.1789196873217
 30
0.0
 10
157.1537762419682
 20
183.9696664395691
 30
0.0
 10
157.3791694468852
 20
183.3291463930098
 30
0.0
 10
157.4884480020104
 20
182.8856195989082
 30
0.0
 10
157.4884480020104
 20
182.4085592150899
 30
0.0
  0
SPLINE
  5
25F
330
1F
100
AcDbEntity
  8
0
  6
Continuous
 62
     7
370
    15
100
AcDbSpline
210
0.0
220
0.0
230
1.0
 70
     8
 71
     3
 72
    14
 73
    10
 74
     0
 42
0.00000001
 43
0.00000001
 12
1.0
 22
0.0
 32
0.0
 13
1.0
 23
0.0
 33
0.0
 40
0.0
 40
0.0
 40
0.0
 40
0.0
 40
0.1250000000000015
 40
0.1250000000000015
 40
0.2500000000000029
 40
0.2500000000000029
 40
0.500000000000003
 40
0.500000000000003
 40
1.0
 40
1.0
 40
1.0
 40
1.0
 10
156.0884480020104
 20
185.9827273104376
 30
0.0
 10
156.145222757231
 20
186.000499239375
 30
0.0
 10
156.2079058581601
 20
185.9963529473741
 30
0.0
 10
156.3137936326982
 20
185.9526306964748
 30
0.0
 10
156.3576978902994
 20
185.9170106177387
 30
0.0
 10
156.470131138457
 20
185.8002304346438
 30
0.0
 10
156.5232593423193
 20
185.7072363480061
 30
0.0
 10
156.6582468040595
 20
185.4245831799351
 30
0.0
 10
156.7165075155393
 20
185.2216626177142
 30
0.0
 10
156.7637753491578
 20
185.0161801201237
 30
0.0
  0
SPLINE
  5
260
330
1F
100
AcDbEntity
  8
0
  6
Continuous
 62
     7
370
    15
100
AcDbSpline
210
0.0
220
0.0
230
1.0
 70
     8
 71
     3
 72
    10
 73
     6
 74
     0
 42
0.00000001
 43
0.00000001
 12
1.0
 22
0.0
 32
0.0
 13
1.0
 23
0.0
 33
0.0
 40
0.0
 40
0.0
 40
0.0
 40
0.0
 40
0.5
 40
0.5
 40
1.0
 40
1.0
 40
1.0
 40
1.0
 10
153.3163216252955
 20
184.9567881342182
 30
0.0
 10
153.76326256652
 20
185.1593471699253
 30
0.0
 10
154.2233744550622
 20
185.341583643229
 30
0.0
 10
155.1502641588068
 20
185.6796043307763
 30
0.0
 10
155.6179678908425
 20
185.8354551809556
 30
0.0
 10
156.0884480020104
 20
185.9827273104376
 30
0.0
  0
SPLINE
  5
261
330
1F
100
AcDbEntity
  8
0
  6
Continuous
 62
     7
370
    15
100
AcDbSpline
210
0.0
220
0.0
230
1.0
 70
     8
 71
     3
 72
    14
 73
    10
 74
     0
 42
0.00000001
 43
0.00000001
 12
1.0
 22
0.0
 32
0.0
 13
1.0
 23
0.0
 33
0.0
 40
0.0
 40
0.0
 40
0.0
 40
0.0
 40
0.4999999999999978
 40
0.4999999999999978
 40
0.7499999999999978
 40
0.7499999999999978
 40
0.8749999999999989
 40
0.8749999999999989
 40
1.0
 40
1.0
 40
1.0
 40
1.0
 10
148.5384480020104
 20
184.0107990928027
 30
0.0
 10
149.3463450261085
 20
184.1150000133419
 30
0.0
 10
150.1521091944347
 20
184.2290588998549
 30
0.0
 10
151.3525498654429
 20
184.4380180092671
 30
0.0
 10
151.7513687187366
 20
184.5138004280529
 30
0.0
 10
152.3448970688853
 20
184.6491541527638
 30
0.0
 10
152.5419599672834
 20
184.6978695632734
 30
0.0
 10
152.9328990021327
 20
184.8099974941359
 30
0.0
 10
153.1272740539562
 20
184.8711094903053
 30
0.0
 10
153.3163216252955
 20
184.9567881342182
 30
0.0
  0
SPLINE
  5
262
330
1F
100
AcDbEntity
  8
0
  6
Continuous
 62
     7
370
    15
100
AcDbSpline
210
0.0
220
0.0
230
1.0
 70
     8
 71
     3
 72
     8
 73
     4
 74
     0
 42
0.00000001
 43
0.00000001
 12
1.0
 22
0.0
 32
0.0
 13
1.0
 23
0.0
 33
0.0
 40
0.0000003409637668
 40
0.0000003409637668
 40
0.0000003409637668
 40
0.0000003409637668
 40
0.000017415394438
 40
0.000017415394438
 40
0.000017415394438
 40
0.000017415394438
 10
148.5284030715922
 20
184.0232363740362
 30
0.0
 10
148.5317417223505
 20
184.0190845822636
 30
0.0
 10
148.5350900975302
 20
184.0149388364792
 30
0.0
 10
148.5384480020104
 20
184.0107990928027
 30
0.0
  0
SPLINE
  5
263
330
1F
100
AcDbEntity
  8
0
  6
Continuous
 62
     7
370
    15
100
AcDbSpline
210
0.0
220
0.0
230
1.0
 70
     8
 71
     3
 72
     8
 73
     4
 74
     0
 42
0.00000001
 43
0.00000001
 12
1.0
 22
0.0
 32
0.0
 13
1.0
 23
0.0
 33
0.0
 40
0.0000003409637668
 40
0.0000003409637668
 40
0.0000003409637668
 40
0.0000003409637668
 40
0.000017415394438
 40
0.000017415394438
 40
0.000017415394438
 40
0.000017415394438
 10
148.5284030715922
 20
165.7353038688444
 30
0.0
 10
148.5317417223505
 20
165.739455660617
 30
0.0
 10
148.5350900975302
 20
165.7436014064013
 30
0.0
 10
148.5384480020104
 20
165.7477411500778
 30
0.0
  0
LINE
  5
264
330
1F
100
AcDbEntity
  8
0
  6
Continuous
 62
     7
370
    15
100
AcDbLine
 10
177.288447907
 20
174.8792701214
 30
0.0
 11
177.288447907
 21
199.099701345
 31
0.0
  0
LINE
  5
265
330
1F
100
AcDbEntity
  8
0
  6
Continuous
 62
     7
370
    15
100
AcDbLine
 10
177.288447907
 20
150.6588388979
 30
0.0
 11
177.288447907
 21
174.8792701214
 31
0.0
  0
SPLINE
  5
266
330
1F
100
AcDbEntity
  8
0
  6
Continuous
 62
     7
370
    15
100
AcDbSpline
210
0.0
220
0.0
230
1.0
 70
     8
 71
     3
 72
    39
 73
    35
 74
     0
 42
0.00000001
 43
0.00000001
 12
1.0
 22
0.0
 32
0.0
 13
1.0
 23
0.0
 33
0.0
 40
-0.0933919699426577
 40
-0.0622352926917016
 40
-0.0309992083946916
 40
0.0
 40
0.0311599498646861
 40
0.0627535808924605
 40
0.0944596508311171
 40
0.125851510434028
 40
0.1572194424823788
 40
0.1889385825925368
 40
0.2205172649824829
 40
0.2516655135093528
 40
0.2826460492016979
 40
0.3138732040680685
 40
0.3450058810716981
 40
0.3757357868197831
 40
0.4064216380987866
 40
0.4377515690199542
 40
0.4690451480846503
 40
0.5001673303346339
 40
0.5313228550772731
 40
0.5628787254951483
 40
0.5945515920531655
 40
0.6258696768224031
 40
0.6571952644261635
 40
0.6889349863133587
 40
0.7205339476652071
 40
0.7517180686390385
 40
0.782780019109924
 40
0.8139994945516362
 40
0.8452042880911399
 40
0.8758947171426922
 40
0.9066080300573423
 40
0.9377647073082984
 40
0.9690007916053084
 40
1.0
 40
1.031159949864686
 40
1.06275358089246
 40
1.094459650831117
 10
167.9028361311073
 20
171.2900981228995
 30
0.0
 10
167.2629780796648
 20
171.8293240005297
 30
0.0
 10
166.7390407863545
 20
172.485107345854
 30
0.0
 10
166.3522681066418
 20
173.2370582331376
 30
0.0
 10
166.1080468630076
 20
174.049553510541
 30
0.0
 10
166.0289303201892
 20
174.8930985282276
 30
0.0
 10
166.1130117193275
 20
175.7362799492578
 30
0.0
 10
166.3622444008861
 20
176.5470000484726
 30
0.0
 10
166.753613514099
 20
177.2964192376509
 30
0.0
 10
167.2817574728362
 20
177.9483424375038
 30
0.0
 10
167.9249945405554
 20
178.4829643563365
 30
0.0
 10
168.6637474814236
 20
178.875830188167
 30
0.0
 10
169.4612406257667
 20
179.1233178378057
 30
0.0
 10
170.2878260114555
 20
179.2015303816495
 30
0.0
 10
171.1133440700261
 20
179.112579627312
 30
0.0
 10
171.905484219382
 20
178.8565814471046
 30
0.0
 10
172.6380070766666
 20
178.4571603082127
 30
0.0
 10
173.2738303713984
 20
177.9199917455525
 30
0.0
 10
173.7950555514688
 20
177.2670425752441
 30
0.0
 10
174.1792799969085
 20
176.5176495715504
 30
0.0
 10
174.4218198743758
 20
175.7071014448452
 30
0.0
 10
174.4998861969815
 20
174.8647528358436
 30
0.0
 10
174.415080536598
 20
174.0225137205048
 30
0.0
 10
174.1663900961812
 20
173.2128574000633
 30
0.0
 10
173.7767861722976
 20
172.46498157261
 30
0.0
 10
173.251223690284
 20
171.815444572131
 30
0.0
 10
172.6125564052756
 20
171.2831670503416
 30
0.0
 10
171.8793029594218
 20
170.8897459626462
 30
0.0
 10
171.086795198613
 20
170.6403508335376
 30
0.0
 10
170.261914686037
 20
170.557069628092
 30
0.0
 10
169.4356706850411
 20
170.6400393762075
 30
0.0
 10
168.6395755677459
 20
170.8925225128765
 30
0.0
 10
167.9028361311073
 20
171.2900981228995
 30
0.0
 10
167.2629780796648
 20
171.8293240005297
 30
0.0
 10
166.7390407863545
 20
172.485107345854
 30
0.0
  0
SPLINE
  5
267
330
1F
100
AcDbEntity
  8
0
  6
Continuous
 62
     7
370
    15
100
AcDbSpline
210
0.0
220
0.0
230
1.0
 70
     8
 71
     3
 72
    42
 73
    38
 74
     0
 42
0.00000001
 43
0.00000001
 12
1.0
 22
0.0
 32
0.0
 13
1.0
 23
0.0
 33
0.0
 40
-0.0859316076417099
 40
-0.0609210129164024
 40
-0.032276621489006
 40
0.0
 40
0.0284830186126943
 40
0.0552061382827513
 40
0.0801799850298142
 40
0.103417815852785
 40
0.1249363295284943
 40
0.1563046583289859
 40
0.197944235984845
 40
0.2498399451110505
 40
0.2789581882689109
 40
0.3060722233739813
 40
0.3311961508891147
 40
0.3543480223637211
 40
0.3755512451170889
 40
0.4116849508060994
 40
0.4530713443513679
 40
0.4997879465807339
 40
0.5273607821057333
 40
0.5522672815896564
 40
0.5745075514542536
 40
0.5940825939304012
 40
0.6109947617058109
 40
0.6252486355470234
 40
0.6621224546740642
 40
0.70366283702268
 40
0.7499274679880161
 40
0.782426472339801
 40
0.8111789305167617
 40
0.8361828742185502
 40
0.8574379105447573
 40
0.8749461318774902
 40
0.8926915954039033
 40
0.91406839235829
 40
0.9390789870835975
 40
0.9677233785109939
 40
0.9999999999999999
 40
1.028483018612694
 40
1.055206138282751
 40
1.080179985029814
 10
167.1494968936954
 20
172.7857170216644
 30
0.0
 10
167.5951250330879
 20
172.2371212957299
 30
0.0
 10
168.1244011503789
 20
171.7935657186487
 30
0.0
 10
168.6727771795654
 20
171.4767783074518
 30
0.0
 10
169.2264455486562
 20
171.2677319558486
 30
0.0
 10
169.7649382923002
 20
171.1534376362682
 30
0.0
 10
170.3637097233758
 20
171.1124988743904
 30
0.0
 10
171.1058678705917
 20
171.1855506251209
 30
0.0
 10
172.0401105072315
 20
171.5021649909754
 30
0.0
 10
172.8325923477917
 20
172.0684261768951
 30
0.0
 10
173.3761952249914
 20
172.7174422852898
 30
0.0
 10
173.6949526017047
 20
173.2715675759081
 30
0.0
 10
173.9028567689991
 20
173.8271993803174
 30
0.0
 10
174.0150837168291
 20
174.363272567614
 30
0.0
 10
174.0575296450876
 20
174.9966124949515
 30
0.0
 10
173.9684745449565
 20
175.7752053035222
 30
0.0
 10
173.6233359912142
 20
176.697249118074
 30
0.0
 10
173.079657379987
 20
177.4349379692006
 30
0.0
 10
172.4882906805596
 20
177.9369202400112
 30
0.0
 10
171.9865642777317
 20
178.2380151380146
 30
0.0
 10
171.503871913306
 20
178.4381580990957
 30
0.0
 10
171.0593672577752
 20
178.5575386277516
 30
0.0
 10
170.665638908816
 20
178.6162598557215
 30
0.0
 10
170.132027415182
 20
178.6432252206641
 30
0.0
 10
169.4002742187537
 20
178.5622358596858
 30
0.0
 10
168.4714039430634
 20
178.2148338331272
 30
0.0
 10
167.6991154635697
 20
177.6455013227639
 30
0.0
 10
167.1601191836511
 20
176.9890148299306
 30
0.0
 10
166.8364130044979
 20
176.3895634598187
 30
0.0
 10
166.6469359087803
 20
175.8288752789134
 30
0.0
 10
166.5567334475302
 20
175.3342109049213
 30
0.0
 10
166.5307584033618
 20
174.8896206394319
 30
0.0
 10
166.5542273387673
 20
174.4438920353861
 30
0.0
 10
166.6426485173595
 20
173.9459504648649
 30
0.0
 10
166.8298473658997
 20
173.3842876623523
 30
0.0
 10
167.1494968936954
 20
172.7857170216644
 30
0.0
 10
167.5951250330879
 20
172.2371212957299
 30
0.0
 10
168.1244011503789
 20
171.7935657186487
 30
0.0
  0
ARC
  5
268
330
1F
100
AcDbEntity
  8
0
  6
Continuous
 62
     7
370
    15
100
AcDbCircle
 10
156.088448002
 20
170.0667701214
 30
0.0
 40
1.400000000000006
100
AcDbArc
 50
270.0
 51
0.0
  0
ARC
  5
269
330
1F
100
AcDbEntity
  8
0
  6
Continuous
 62
     7
370
    15
100
AcDbCircle
 10
156.088448002
 20
179.6917701214
 30
0.0
 40
1.400000000000006
100
AcDbArc
 50
0.0
 51
90.0
  0
LINE
  5
26A
330
1F
100
AcDbEntity
  8
0
  6
Continuous
 62
     7
370
    15
100
AcDbLine
 10
148.5384471526
 20
181.0917700454
 30
0.0
 11
148.5384471526
 21
184.0107994899
 31
0.0
  0
LINE
  5
26B
330
1F
100
AcDbEntity
  8
0
  6
Continuous
 62
     7
370
    15
100
AcDbLine
 10
148.5384471526
 20
181.0917700454
 30
0.0
 11
147.3884481749
 21
181.7557229474
 31
0.0
  0
LINE
  5
26C
330
1F
100
AcDbEntity
  8
0
  6
Continuous
 62
     7
370
    15
100
AcDbLine
 10
147.3884481749
 20
181.7557229474
 30
0.0
 11
147.3884481749
 21
183.0149139091
 31
0.0
  0
SPLINE
  5
26D
330
1F
100
AcDbEntity
  8
0
  6
Continuous
 62
     7
370
    15
100
AcDbSpline
210
0.0
220
0.0
230
1.0
 70
     8
 71
     3
 72
    22
 73
    18
 74
     0
 42
0.00000001
 43
0.00000001
 12
1.0
 22
0.0
 32
0.0
 13
1.0
 23
0.0
 33
0.0
 40
0.0
 40
0.0
 40
0.0
 40
0.0
 40
0.2499999999999932
 40
0.2499999999999932
 40
0.3749999999999905
 40
0.3749999999999905
 40
0.4999999999999878
 40
0.4999999999999878
 40
0.6249999999999851
 40
0.6249999999999851
 40
0.6874999999999837
 40
0.6874999999999837
 40
0.7499999999999858
 40
0.7499999999999858
 40
0.8749999999999929
 40
0.8749999999999929
 40
1.0
 40
1.0
 40
1.0
 40
1.0
 10
147.3884480020103
 20
183.0149138061618
 30
0.0
 10
147.3884480020103
 20
183.1988747437934
 30
0.0
 10
147.4166985829576
 20
183.3881798008447
 30
0.0
 10
147.4916943834865
 20
183.6691591324395
 30
0.0
 10
147.5224309881508
 20
183.7632546112606
 30
0.0
 10
147.5950876463696
 20
183.9475020720235
 30
0.0
 10
147.6369371041688
 20
184.0384000280683
 30
0.0
 10
147.7371408381199
 20
184.2109924068114
 30
0.0
 10
147.7949208018188
 20
184.2954342711848
 30
0.0
 10
147.9096460697345
 20
184.3837019372736
 30
0.0
 10
147.9533217541154
 20
184.4047137886195
 30
0.0
 10
148.0417204683307
 20
184.4162193620443
 30
0.0
 10
148.0858583716198
 20
184.4072476452399
 30
0.0
 10
148.207122155936
 20
184.3569023020435
 30
0.0
 10
148.2762553043037
 20
184.2972820951072
 30
0.0
 10
148.4069605376867
 20
184.1690154930003
 30
0.0
 10
148.4685710402109
 20
184.0976407228611
 30
0.0
 10
148.5284030715923
 20
184.0232363740363
 30
0.0
  0
SPLINE
  5
26E
330
1F
100
AcDbEntity
  8
0
  6
Continuous
 62
     7
370
    15
100
AcDbSpline
210
0.0
220
0.0
230
1.0
 70
     8
 71
     3
 72
    22
 73
    18
 74
     0
 42
0.00000001
 43
0.00000001
 12
1.0
 22
0.0
 32
0.0
 13
1.0
 23
0.0
 33
0.0
 40
0.0
 40
0.0
 40
0.0
 40
0.0
 40
0.2499999999999915
 40
0.2499999999999915
 40
0.374999999999989
 40
0.374999999999989
 40
0.4999999999999865
 40
0.4999999999999865
 40
0.6249999999999839
 40
0.6249999999999839
 40
0.6874999999999833
 40
0.6874999999999833
 40
0.7499999999999863
 40
0.7499999999999863
 40
0.8749999999999931
 40
0.8749999999999931
 40
1.0
 40
1.0
 40
1.0
 40
1.0
 10
147.3884480020103
 20
166.7436264367188
 30
0.0
 10
147.3884480020103
 20
166.5596654990872
 30
0.0
 10
147.4166985829576
 20
166.3703604420359
 30
0.0
 10
147.4916943834865
 20
166.0893811104411
 30
0.0
 10
147.5224309881508
 20
165.9952856316199
 30
0.0
 10
147.5950876463696
 20
165.8110381708571
 30
0.0
 10
147.6369371041688
 20
165.7201402148122
 30
0.0
 10
147.7371408381199
 20
165.5475478360691
 30
0.0
 10
147.7949208018188
 20
165.4631059716957
 30
0.0
 10
147.9096460697345
 20
165.374838305607
 30
0.0
 10
147.9533217541154
 20
165.3538264542611
 30
0.0
 10
148.0417204683307
 20
165.3423208808363
 30
0.0
 10
148.0858583716198
 20
165.3512925976406
 30
0.0
 10
148.207122155936
 20
165.4016379408371
 30
0.0
 10
148.2762553043037
 20
165.4612581477734
 30
0.0
 10
148.4069605376867
 20
165.5895247498803
 30
0.0
 10
148.4685710402109
 20
165.6608995200195
 30
0.0
 10
148.5284030715923
 20
165.7353038688443
 30
0.0
  0
LINE
  5
26F
330
1F
100
AcDbEntity
  8
0
  6
Continuous
 62
     7
370
    15
100
AcDbLine
 10
147.3884481749
 20
168.0028172955
 30
0.0
 11
147.3884481749
 21
166.7436263338
 31
0.0
  0
LINE
  5
270
330
1F
100
AcDbEntity
  8
0
  6
Continuous
 62
     7
370
    15
100
AcDbLine
 10
148.5384471526
 20
168.6667701974
 30
0.0
 11
147.3884481749
 21
168.0028172955
 31
0.0
  0
LINE
  5
271
330
1F
100
AcDbEntity
  8
0
  6
Continuous
 62
     7
370
    15
100
AcDbLine
 10
148.5384471526
 20
168.6667701974
 30
0.0
 11
148.5384471526
 21
165.747740753
 31
0.0
  0
LINE
  5
272
330
1F
100
AcDbEntity
  8
0
  6
Continuous
 62
     7
370
    15
100
AcDbLine
 10
147.3884481749
 20
183.0149139091
 30
0.0
 11
147.3884481749
 21
196.46032013
 31
0.0
  0
LINE
  5
273
330
1F
100
AcDbEntity
  8
0
  6
Continuous
 62
     7
370
    15
100
AcDbLine
 10
147.3884481749
 20
153.2982201129
 30
0.0
 11
147.3884481749
 21
166.7436263338
 31
0.0
  0
LINE
  5
274
330
1F
100
AcDbEntity
  8
0
  6
Continuous
 62
     7
370
    15
100
AcDbLine
 10
156.0884482971
 20
168.6667701974
 30
0.0
 11
148.5384471526
 21
168.6667701974
 31
0.0
  0
LINE
  5
275
330
1F
100
AcDbEntity
  8
0
  6
Continuous
 62
     7
370
    15
100
AcDbLine
 10
156.0884482971
 20
181.0917700454
 30
0.0
 11
148.5384471526
 21
181.0917700454
 31
0.0
  0
SPLINE
  5
276
330
1F
100
AcDbEntity
  8
0
  6
Continuous
 62
     7
370
    15
100
AcDbSpline
210
0.0
220
0.0
230
1.0
 70
     8
 71
     3
 72
     9
 73
     5
 74
     0
 42
0.00000001
 43
0.00000001
 12
1.0
 22
0.0
 32
0.0
 13
1.0
 23
0.0
 33
0.0
 40
0.0
 40
0.0
 40
0.0
 40
0.0
 40
0.5131028265951941
 40
1.0
 40
1.0
 40
1.0
 40
1.0
 10
168.3879552220999
 20
171.6585154458731
 30
0.0
 10
168.0574611902759
 20
171.884286172142
 30
0.0
 10
167.4133524177381
 20
172.3242968572652
 30
0.0
 10
167.0579808653122
 20
173.0187059202313
 30
0.0
 10
166.8849514609276
 20
173.3568117301762
 30
0.0
  0
LINE
  5
277
330
1F
100
AcDbEntity
  8
0
  6
Continuous
 62
     7
370
    15
100
AcDbLine
 10
172.9736776834
 20
177.4917000253
 30
0.0
 11
173.0434500424
 21
177.4233737774
 31
0.0
  0
SPLINE
  5
278
330
1F
100
AcDbEntity
  8
0
  6
Continuous
 62
     7
370
    15
100
AcDbSpline
210
0.0
220
0.0
230
1.0
 70
     8
 71
     3
 72
    11
 73
     7
 74
     0
 42
0.00000001
 43
0.00000001
 12
1.0
 22
0.0
 32
0.0
 13
1.0
 23
0.0
 33
0.0
 40
0.0
 40
0.0
 40
0.0
 40
0.0
 40
0.2701759094298112
 40
0.5403792549849127
 40
0.8081528522143989
 40
1.0
 40
1.0
 40
1.0
 40
1.0
 10
153.4884471258221
 20
170.0092702917605
 30
0.0
 10
153.4715982294433
 20
169.8444713985235
 30
0.0
 10
153.437898725695
 20
169.5148568768671
 30
0.0
 10
153.1746450238234
 20
169.0873216654924
 30
0.0
 10
152.8273540422491
 20
168.7794835250908
 30
0.0
 10
152.545580174514
 20
168.6999625169149
 30
0.0
 10
152.4279668739138
 20
168.6667701974362
 30
0.0
  0
LINE
  5
279
330
1F
100
AcDbEntity
  8
0
  6
Continuous
 62
     7
370
    15
100
AcDbLine
 10
153.4884471258
 20
170.0092702918
 30
0.0
 11
153.4884471258
 21
179.7492699511
 31
0.0
  0
SPLINE
  5
27A
330
1F
100
AcDbEntity
  8
0
  6
Continuous
 62
     7
370
    15
100
AcDbSpline
210
0.0
220
0.0
230
1.0
 70
     8
 71
     3
 72
    11
 73
     7
 74
     0
 42
0.00000001
 43
0.00000001
 12
1.0
 22
0.0
 32
0.0
 13
1.0
 23
0.0
 33
0.0
 40
0.0
 40
0.0
 40
0.0
 40
0.0
 40
0.2701759094298112
 40
0.5403792549849127
 40
0.8081528522143989
 40
1.0
 40
1.0
 40
1.0
 40
1.0
 10
153.4884471258221
 20
179.74926995112
 30
0.0
 10
153.4715982294433
 20
179.9140688443571
 30
0.0
 10
153.437898725695
 20
180.2436833660135
 30
0.0
 10
153.1746450238234
 20
180.6712185773881
 30
0.0
 10
152.8273540422491
 20
180.9790567177898
 30
0.0
 10
152.545580174514
 20
181.0585777259657
 30
0.0
 10
152.4279668739138
 20
181.0917700454443
 30
0.0
  0
LINE
  5
27B
330
1F
100
AcDbEntity
  8
0
  6
Continuous
 62
     7
370
    15
100
AcDbLine
 10
269.2884515783
 20
175.8792701689
 30
0.0
 11
269.2884515783
 21
154.8792705685
 31
0.0
  0
LWPOLYLINE
  5
27C
330
1F
100
AcDbEntity
  8
0
  6
Continuous
 62
     7
370
    15
100
AcDbPolyline
 90
       29
 70
   128
 43
0.0
 10
271.0070248505
 20
183.778822869
 10
270.9142874738
 20
184.0261402353
 10
270.8286281487
 20
184.4195420667
 10
270.7543458602
 20
184.9393010884
 10
270.6951584479
 20
185.5593542382
 10
270.6540461442
 20
186.2486083805
 10
270.6330578586
 20
186.972503066
 10
270.6332590243
 20
187.6947381347
 10
270.6546272894
 20
188.3790981769
 10
270.696097221
 20
188.9912667498
 10
270.7555901071
 20
189.5005465299
 10
270.8301182648
 20
189.8814006522
 10
270.9159489533
 20
190.1147314161
 10
271.0087831875
 20
190.188838616
 10
271.1039494535
 20
190.1000053435
 10
271.1966942808
 20
189.8526870459
 10
271.2823536059
 20
189.4592852145
 10
271.3566358944
 20
188.9395271242
 10
271.4158233067
 20
188.3194739744
 10
271.4569356104
 20
187.6302189007
 10
271.477923896
 20
186.9063251465
 10
271.4777227303
 20
186.1840891465
 10
271.4563544652
 20
185.4997291043
 10
271.4148845336
 20
184.8875605315
 10
271.3553916475
 20
184.3782807514
 10
271.2808560392
 20
183.9974266291
 10
271.1950253507
 20
183.7640967965
 10
271.1021985671
 20
183.6899895966
 10
271.0070248505
 20
183.778822869
  0
LWPOLYLINE
  5
27D
330
1F
100
AcDbEntity
  8
0
  6
Continuous
 62
     7
370
    15
100
AcDbPolyline
 90
       26
 70
   128
 43
0.0
 10
271.018208172
 20
184.508190006
 10
270.9386061689
 20
184.7290643304
 10
270.8663504383
 20
185.0888239965
 10
270.8059783837
 20
185.5648620799
 10
270.7612823507
 20
186.1272691563
 10
270.7350712081
 20
186.7407061905
 10
270.728998985
 20
187.3666285351
 10
270.7434307596
 20
187.9657073691
 10
270.7774799129
 20
188.5003004968
 10
270.8289932272
 20
188.9368169755
 10
270.8947371503
 20
189.2478302866
 10
270.9705840608
 20
189.413796626
 10
271.051765587
 20
189.4242879748
 10
271.1331855318
 20
189.278645888
 10
271.2097178957
 20
188.986021541
 10
271.2765570542
 20
188.5648011044
 10
271.3295083305
 20
188.0414518341
 10
271.3652487656
 20
187.4488568678
 10
271.3815133831
 20
186.8242523447
 10
271.377303805
 20
186.2068832666
 10
271.3528659007
 20
185.6355429441
 10
271.3097493908
 20
185.1461282745
 10
271.2506513855
 20
184.7693933919
 10
271.1792971751
 20
184.5290078595
 10
271.100157108
 20
184.4400777295
 10
271.018208172
 20
184.508190006
  0
ARC
  5
27E
330
1F
100
AcDbEntity
  8
0
  6
Continuous
 62
     7
370
    15
100
AcDbCircle
 10
258.8738764603
 20
186.7449097345
 30
0.0
 40
12.06677224813023
100
AcDbArc
 50
352.7939862345
 51
9.0355466459
  0
LINE
  5
27F
330
1F
100
AcDbEntity
  8
0
  6
Continuous
 62
     7
370
    15
100
AcDbLine
 10
255.7884465715
 20
174.8792701214
 30
0.0
 11
262.7884458562
 21
174.8792701214
 31
0.0
  0
LINE
  5
280
330
1F
100
AcDbEntity
  8
0
  6
Continuous
 62
     7
370
    15
100
AcDbLine
 10
236.1414592525
 20
174.8792701214
 30
0.0
 11
242.7884500286
 21
174.8792701214
 31
0.0
  0
LINE
  5
281
330
1F
100
AcDbEntity
  8
0
  6
Continuous
 62
     7
370
    15
100
AcDbLine
 10
235.7884470185
 20
174.8792701214
 30
0.0
 11
236.1414592525
 21
174.8792701214
 31
0.0
  0
DIMENSION
  5
282
330
1F
100
AcDbEntity
  8
VERMASSUNG
100
AcDbDimension
  2
_D_10
 10
269.288448002
 20
134.5888407367
 30
0.0
 11
246.788448002
 21
134.5888407367
 31
0.0
 70
   160
  1
<>
 71
     2
 42
-1.0
  3
SLDDIMSTYLE0
100
AcDbAlignedDimension
 13
224.288448002
 23
154.8792701214
 33
0.0
 14
269.288448002
 24
139.8792701214
 34
0.0
100
AcDbRotatedDimension
  0
LINE
  5
28C
330
1F
100
AcDbEntity
  8
VERMASSUNG
  6
CENTERX2
370
     0
100
AcDbLine
 10
143.388448002
 20
174.8792701214
 30
0.0
 11
275.2163297094
 21
174.8792701214
 31
0.0
  0
OLE2FRAME
  5
28D
330
1F
100
AcDbEntity
  8
0
100
AcDbOle2Frame
 70
     2
  3
Paintbrush-Bild
 10
13.8511154363
 20
38.264191557
 30
0.0
 11
51.6290888628
 21
31.9806341108
 31
0.0
 71
     2
 72
     0
 73
     1
 90
    12928
310
80552BED0767C5B32B40DDAF6807D121434000000000000000006FFBDDFB85D0
310
4940DDAF6807D121434000000000000000006FFBDDFB85D04940416F4BD60AFB
310
3F4000000000000000002BED0767C5B32B40416F4BD60AFB3F40000000000000
310
0000000000000100000000010000010000000100000000000100000000320000
310
D0CF11E0A1B11AE1000000000000000000000000000000003E000300FEFF0900
310
0600000000000000000000000100000001000000000000000010000002000000
310
01000000FEFFFFFF0000000000000000FFFFFFFFFFFFFFFFFFFFFFFFFFFFFFFF
310
FFFFFFFFFFFFFFFFFFFFFFFFFFFFFFFFFFFFFFFFFFFFFFFFFFFFFFFFFFFFFFFF
310
FFFFFFFFFFFFFFFFFFFFFFFFFFFFFFFFFFFFFFFFFFFFFFFFFFFFFFFFFFFFFFFF
310
FFFFFFFFFFFFFFFFFFFFFFFFFFFFFFFFFFFFFFFFFFFFFFFFFFFFFFFFFFFFFFFF
310
FFFFFFFFFFFFFFFFFFFFFFFFFFFFFFFFFFFFFFFFFFFFFFFFFFFFFFFFFFFFFFFF
310
FFFFFFFFFFFFFFFFFFFFFFFFFFFFFFFFFFFFFFFFFFFFFFFFFFFFFFFFFFFFFFFF
310
FFFFFFFFFFFFFFFFFFFFFFFFFFFFFFFFFFFFFFFFFFFFFFFFFFFFFFFFFFFFFFFF
310
FFFFFFFFFFFFFFFFFFFFFFFFFFFFFFFFFFFFFFFFFFFFFFFFFFFFFFFFFFFFFFFF
310
FFFFFFFFFFFFFFFFFFFFFFFFFFFFFFFFFFFFFFFFFFFFFFFFFFFFFFFFFFFFFFFF
310
FFFFFFFFFFFFFFFFFFFFFFFFFFFFFFFFFFFFFFFFFFFFFFFFFFFFFFFFFFFFFFFF
310
FFFFFFFFFFFFFFFFFFFFFFFFFFFFFFFFFFFFFFFFFFFFFFFFFFFFFFFFFFFFFFFF
310
FFFFFFFFFFFFFFFFFFFFFFFFFFFFFFFFFFFFFFFFFFFFFFFFFFFFFFFFFFFFFFFF
310
FFFFFFFFFFFFFFFFFFFFFFFFFFFFFFFFFFFFFFFFFFFFFFFFFFFFFFFFFFFFFFFF
310
FFFFFFFFFFFFFFFFFFFFFFFFFFFFFFFFFFFFFFFFFFFFFFFFFFFFFFFFFFFFFFFF
310
FDFFFFFFFEFFFFFFFEFFFFFFFEFFFFFF05000000060000000700000008000000
310
090000000A0000000B0000000C0000000D0000000E0000000F00000010000000
310
11000000120000001300000014000000150000001600000017000000FEFFFFFF
310
FFFFFFFFFFFFFFFFFFFFFFFFFFFFFFFFFFFFFFFFFFFFFFFFFFFFFFFFFFFFFFFF
310
FFFFFFFFFFFFFFFFFFFFFFFFFFFFFFFFFFFFFFFFFFFFFFFFFFFFFFFFFFFFFFFF
310
FFFFFFFFFFFFFFFFFFFFFFFFFFFFFFFFFFFFFFFFFFFFFFFFFFFFFFFFFFFFFFFF
310
FFFFFFFFFFFFFFFFFFFFFFFFFFFFFFFFFFFFFFFFFFFFFFFFFFFFFFFFFFFFFFFF
310
FFFFFFFFFFFFFFFFFFFFFFFFFFFFFFFFFFFFFFFFFFFFFFFFFFFFFFFFFFFFFFFF
310
FFFFFFFFFFFFFFFFFFFFFFFFFFFFFFFFFFFFFFFFFFFFFFFFFFFFFFFFFFFFFFFF
310
FFFFFFFFFFFFFFFFFFFFFFFFFFFFFFFFFFFFFFFFFFFFFFFFFFFFFFFFFFFFFFFF
310
FFFFFFFFFFFFFFFFFFFFFFFFFFFFFFFFFFFFFFFFFFFFFFFFFFFFFFFFFFFFFFFF
310
FFFFFFFFFFFFFFFFFFFFFFFFFFFFFFFFFFFFFFFFFFFFFFFFFFFFFFFFFFFFFFFF
310
FFFFFFFFFFFFFFFFFFFFFFFFFFFFFFFFFFFFFFFFFFFFFFFFFFFFFFFFFFFFFFFF
310
FFFFFFFFFFFFFFFFFFFFFFFFFFFFFFFFFFFFFFFFFFFFFFFFFFFFFFFFFFFFFFFF
310
FFFFFFFFFFFFFFFFFFFFFFFFFFFFFFFFFFFFFFFFFFFFFFFFFFFFFFFFFFFFFFFF
310
FFFFFFFFFFFFFFFFFFFFFFFFFFFFFFFFFFFFFFFFFFFFFFFFFFFFFFFFFFFFFFFF
310
52006F006F007400200045006E00740072007900000000000000000000000000
310
0000000000000000000000000000000000000000000000000000000000000000
310
16000500FFFFFFFFFFFFFFFF020000000A00030000000000C000000000000046
310
000000000000000000000000802B4659A3B5CD0103000000C000000000000000
310
01004F006C006500000000000000000000000000000000000000000000000000
310
0000000000000000000000000000000000000000000000000000000000000000
310
0A000200FFFFFFFFFFFFFFFFFFFFFFFF00000000000000000000000000000000
310
0000000000000000000000000000000000000000000000001400000000000000
310
010043006F006D0070004F0062006A0000000000000000000000000000000000
310
0000000000000000000000000000000000000000000000000000000000000000
310
120002010100000003000000FFFFFFFF00000000000000000000000000000000
310
0000000000000000000000000000000000000000010000004D00000000000000
310
01004F006C006500310030004E00610074006900760065000000000000000000
310
0000000000000000000000000000000000000000000000000000000000000000
310
1A000200FFFFFFFFFFFFFFFFFFFFFFFF00000000000000000000000000000000
310
0000000000000000000000000000000000000000040000002426000000000000
310
FEFFFFFF02000000FEFFFFFFFFFFFFFFFFFFFFFFFFFFFFFFFFFFFFFFFFFFFFFF
310
FFFFFFFFFFFFFFFFFFFFFFFFFFFFFFFFFFFFFFFFFFFFFFFFFFFFFFFFFFFFFFFF
310
FFFFFFFFFFFFFFFFFFFFFFFFFFFFFFFFFFFFFFFFFFFFFFFFFFFFFFFFFFFFFFFF
310
FFFFFFFFFFFFFFFFFFFFFFFFFFFFFFFFFFFFFFFFFFFFFFFFFFFFFFFFFFFFFFFF
310
FFFFFFFFFFFFFFFFFFFFFFFFFFFFFFFFFFFFFFFFFFFFFFFFFFFFFFFFFFFFFFFF
310
FFFFFFFFFFFFFFFFFFFFFFFFFFFFFFFFFFFFFFFFFFFFFFFFFFFFFFFFFFFFFFFF
310
FFFFFFFFFFFFFFFFFFFFFFFFFFFFFFFFFFFFFFFFFFFFFFFFFFFFFFFFFFFFFFFF
310
FFFFFFFFFFFFFFFFFFFFFFFFFFFFFFFFFFFFFFFFFFFFFFFFFFFFFFFFFFFFFFFF
310
FFFFFFFFFFFFFFFFFFFFFFFFFFFFFFFFFFFFFFFFFFFFFFFFFFFFFFFFFFFFFFFF
310
FFFFFFFFFFFFFFFFFFFFFFFFFFFFFFFFFFFFFFFFFFFFFFFFFFFFFFFFFFFFFFFF
310
FFFFFFFFFFFFFFFFFFFFFFFFFFFFFFFFFFFFFFFFFFFFFFFFFFFFFFFFFFFFFFFF
310
FFFFFFFFFFFFFFFFFFFFFFFFFFFFFFFFFFFFFFFFFFFFFFFFFFFFFFFFFFFFFFFF
310
FFFFFFFFFFFFFFFFFFFFFFFFFFFFFFFFFFFFFFFFFFFFFFFFFFFFFFFFFFFFFFFF
310
FFFFFFFFFFFFFFFFFFFFFFFFFFFFFFFFFFFFFFFFFFFFFFFFFFFFFFFFFFFFFFFF
310
FFFFFFFFFFFFFFFFFFFFFFFFFFFFFFFFFFFFFFFFFFFFFFFFFFFFFFFFFFFFFFFF
310
FFFFFFFFFFFFFFFFFFFFFFFFFFFFFFFFFFFFFFFFFFFFFFFFFFFFFFFFFFFFFFFF
310
0100000200000000000000000000000000000000000000000000000000000000
310
0000000000000000000000000000000000000000000000000000000000000000
310
0100FEFF030A0000FFFFFFFF0A00030000000000C00000000000004607000000
310
5042727573680007000000504272757368000700000050427275736800F439B2
310
7100000000000000000000000000000000000000000000000000000000000000
310
0000000000000000000000000000000000000000000000000000000000000000
310
0000000000000000000000000000000000000000000000000000000000000000
310
0000000000000000000000000000000000000000000000000000000000000000
310
0000000000000000000000000000000000000000000000000000000000000000
310
0000000000000000000000000000000000000000000000000000000000000000
310
0000000000000000000000000000000000000000000000000000000000000000
310
0000000000000000000000000000000000000000000000000000000000000000
310
0000000000000000000000000000000000000000000000000000000000000000
310
0000000000000000000000000000000000000000000000000000000000000000
310
0000000000000000000000000000000000000000000000000000000000000000
310
0000000000000000000000000000000000000000000000000000000000000000
310
20260000424D0E260000000000003E00000028000000B40200006E0000000100
310
01000000000000000000130B0000130B00000200000002000000000000FFFFFF
310
FFFFFFFFFFFFFFFFFFFFFFFFFFFFFFFFFFFFFFFFFFFFFFFFFFFFFFFFFFFFFFFF
310
FFFFFFFFFFFFFFFFFFFFFFFFFFFFFFFFFFFFFFFFFFFFFFFFFFFFFFFFFFFFFFFF
310
FFFFFFFFFFFFFFFFFFFFFFFFFFFFFFFFFFFFFFFFFFFFFFFFF000FFFFFFFFFFFF
310
FFFFFFFFFFFFFFFFFFFFFFFFFFFFFFFFFFFFFFFFFFFFFFFFFFFFFFFFFFFFFFFF
310
FFFFFFFFFFFFFFFFFFFFFFFFFFFFFFFFFFFFFFFFFFFFFFFFFFFFFFFFFFFFFFFF
310
FFFFFFFFFFFFFFFFFFFFFFFFFFFFFFFFF000FFFFFFFFFFFFFFFFFFFFFFFFFFFF
310
FFFFFFFFFFFFFFFFFFFFFFFFFFFFFFFFFFFFFFFFFFFFFFFFFFFFFFFFFFFFFFFF
310
FFFFFFFFFFFFFFFFFFFFFFFFFFFFFFFFFFFFFFFFFFFFFFFFFFFFFFFFFFFFFFFF
310
FFFFFFFFFFFFFFFFF000FFFFFFFFFFFFFFFFFFFFFFFFFFFFFFFFFFFFFFFFFFFF
310
FFFFFFFFFFFFFFFFFFFFFFFFFFFFFFFFFFFFFFFFFFFFFFFFFFFFFFFFFFFFFFFF
310
FFFFFFFFFFFFFFFFFFFFFFFFFFFFFFFFFFFFFFFFFFFFFFFFFFFFFFFFFFFFFFFF
310
F000FFFFFFFFFFFFFFFFFFFFFFFFFFFFFFFFFFFFFFFFFFFFFFFFFFFFFFFFFFFF
310
FFFFFFFFFFFFFFFFFFFFFFFFFFFFFFFFFFFFFFFFFFFFFFFFFFFFFFFFFFFFFFFF
310
FFFFFFFFFFFFFFFFFFFFFFFFFFFFFFFFFFFFFFFFFFFFFFFFF000FFFFFFFFFFFF
310
FFFFFFFFFFFFFFFFFFFFFFFFFFFFFFFFFFFFFFFFFFFFFFFFFFFFFFFFFFFFFFFF
310
FFFFFFFFFFFFFFFFFFFFFFFFFFFFFFFFFFFFFFFFFFFFFFFFFFFFFFFFFFFFFFFF
310
FFFFFFFFFFFFFFFFFFFFFFFFFFFFFFFFF000FFFFFFFFFFFFFFFFFFFFFFFFFFFF
310
FFFFFFFFFFFFFFFFFFFFFFFFFFFFFFFFFFFFFFFFFFFFFFFFFFFFFFFFFFFFFFFF
310
FFFFFFFFFFFFFFFFFFFFFFFFFFFFFFFFFFFFFFFFFFFFFFFFFFFFFFFFFFFFFFFF
310
FFFFFFFFFFFFFFFFF000FFFFFFFFFFFFFFFFFFFFFFFFFFFFFFFFFFFFFFFFFFFF
310
FFFFFFFFFFFFFFFFFFFFFFFFFFFFFFFFFFFFFFFFFFFFFFFFFFFFFFFFFFFFFFFF
310
FFFFFFFFFFFFFFFFFFFFFFFFFFFFFFFFFFFFFFFFFFFFFFFFFFFFFFFFFFFFFFFF
310
F000FFFFFFFFFFFFFFFFFFFFFFFFFFFFFFFFFFFFFFFFFFFFFFFFFFFFFFFFFFFF
310
FFFFFFFFFFFFFFFFFFFFFFFFFFFFFFFFFFFFFFFFFFFFFFFFFFFFFFFFFFFFFFFF
310
FFFFFFFFFFFFFFFFFFFFFFFFFFFFFFFFFFFFFFFFFFFFFFFFF000FFFFFFFFFFFF
310
FFFFFFFFFFFFFFFFFFFFFFFFFFFFFFFFFFFFFFFFFFFFFFFFFFFFFFFFFFFFFFFF
310
FFFFFFFFFFFFFFFFFFFFFFFFFFFFFFFFFFFFFFFFFFFFFFFFFFFFFFFFFFFFFFFF
310
FFFFFFFFFFFFFFFFFFFFFFFFFFFFFFFFF000FFFFFFFFFFFFFFFFFFFFFFFFFFFF
310
FFFFFFFFFFFFFFFFFFFFFFFFFFFFFFFFFFFFFFFFFFFFFFFFFFFFFFFFFFFFFFFF
310
FFFFFFFFFFFFFFFFFFFFFFFFFFFFFFFFFFFFFFFFFFFFFFFFFFFFFFFFFFFFFFFF
310
FFFFFFFFFFFFFFFFF000FFFFFFFFFFFFFFFFFFFFFFFFFFFFFFFFFFFFFFFFFFFF
310
FFFFFFFFFFFFFFFFFFFFFFFFFFFFFFFFFFFFFFFFFFFFFFFFFFFFFFFFFFFFFFFF
310
FFFFFFFFFFFFFFFFFFFFFFFFFFFFFFFFFFFFFFFFFFFFFFFFFFFFFFFFFFFFFFFF
310
F000FFFFFFFFFFFFFFFFFFFFFFFFFFFFFFFFFFFFFFFFFFFFFFFFFFFFFFFFFFFF
310
FFFFFFFFFFFFFFFFFFFFFFFFFFFFFFFFFFFFFFFFFFFFFFFFFFFFFFFFFFFFFFFF
310
FFFFFFFFFFFFFFFFFFFFFFFFFFFFFFFFFFFFFFFFFFFFFFFFF000FFFFFFFFFFFF
310
FFFFFFFFFFFFFFFFFFFFFFFFFFFFFFFFFFFFFFFFFFFFFFFFFFFFFFFFFFFFFFFF
310
FFFFFFFFFFFFFFFFFFFFFFFFFFFFFFFFFFFFFFFFFFFFFFFFFFFFFFFFFFFFFFFF
310
FFFFFFFFFFFFFFFFFFFFFFFFFFFFFFFFF000FFFFFFFFFFFFFFFFFFFFFFFFFFFF
310
FFFFFFFFFFFFFFFFFFFFFFFFFFFFFFFFFFFFFFFFFFFFFFFFFFFFFFFFFFFFFFFF
310
FFFFFFFFFFFFFFFFFFFFFFFFFFFFFFFFFFFFFFFFFFFFFFFFFFFFFFFFFFFFFFFF
310
FFFFFFFFFFFFFFFFF000FFFFFFFFFFFFFFFFFFFFFFFFFFFFFFFFFFFFFFFFFFFF
310
FFFFFFFFFFFFFFFFFFFFFFFFFFFFFFFFFFFFFFFFFFFFFFFFFFFFFFFFFFFFFFFF
310
FFFFFFFFFFFFFFFFFFFFFFFFFFFFFFFFFFFFFFFFFFFFFFFFFFFFFFFFFFFFFFFF
310
F000FFFFFFFFFFFFFFFFFFFFFFFFFFFFFFFFFFFFFFFFFFFFFFFFFFFFFFFFFFFF
310
FFFFFFFFFFFFFFFFFFFFFFFFFFFFFFFFFFFFFFFFFFFFFFFFFFFFFFFFFFFFFFFF
310
FFFFFFFFFFFFFFFFFFFFFFFFFFFFFFFFFFFFFFFFFFFFFFFFF000FFFFFFFFFFFF
310
FFFFFFFFFFFFFFFFFFFFFFFFFFFFFFFFFFFFFFFFFFFFFFFFFFFFFFFFFFFFFFFF
310
FFFFFFFFFFFFFFFFFFFFFFFFFFFFFFFFFFFFFFFFFFFFFFFFFFFFFFFFFFFFFFFF
310
FFFFFFFFFFFFFFFFFFFFFFFFFFFFFFFFF000FFFFFFFFFFFFFFFFFFFFFFFFFFFF
310
FFFFFFFFFFFFFFFFFFFFFFFFFFFFFFFFFFFFFFFFFFFFFFFFFFFFFFFFFFFFFFFF
310
FFFFFFFFFFFFFFFFFFFFFFFFFFFFFFFFFFFFFFFFFFFFFFFFFFFFFFFFFFFFFFFF
310
FFFFFFFFFFFFFFFFF000FFFFF80003FFFFFFFFFFFFFFFFFFFFFFFFFFFFFFFFFF
310
FFFFF00007FFFFFFFFFF00007FFFFFF800000000000000007FFFFFFFFFFFFFFF
310
FFFFFFFC001FFFFFFFFFFFFFFC001FFFFFFFFFFFFFFFFFFFFFFFFFFE0007FFFF
310
F000FFFF8000007FFFFFFFF8000FFFFFC0007FFFFF80007FFFFF0000007FFFFF
310
FFF8000007FFFFF800000000000000007FFFFFF0001FFFFFFFFFFFC00001FFFF
310
FFFFFFFFC00001FFFFFFFF000000000003FFFFE000007FFFF000FFFE0000000F
310
FFFFFFF0000FFFFF80007FFFFF80007FFFFC0000001FFFFFFFC0000001FFFFF8
310
00000000000000007FFFFFF0001FFFFFFFFFFE0000003FFFFFFFFFFE0000003F
310
FFFFFF000000000003FFFF0000000FFFF000FFF800000003FFFFFFF00007FFFF
310
80007FFFFF80007FFFF000000007FFFFFF000000003FFFF80000000000000000
310
7FFFFFF0001FFFFFFFFFF80000000FFFFFFFFFF80000000FFFFFFF0000000000
310
03FFFC00000003FFF000FFE000000000FFFFFFF00007FFFF80003FFFFF80007F
310
FFC000000001FFFFFC000000001FFFF800000000000000007FFFFFF0001FFFFF
310
FFFFE000000003FFFFFFFFE000000003FFFFFF000000000003FFF000000000FF
310
F000FF80000000007FFFFFF00007FFFF80003FFFFF80007FFF8000000000FFFF
310
F80000000007FFF800000000000000007FFFFFF0001FFFFFFFFFC000000001FF
310
FFFFFFC000000001FFFFFF000000000003FFC0000000007FF000FF0000000000
310
3FFFFFE00007FFFF00003FFFFF80007FFE00000000003FFFF00000000003FFF8
310
00000000000000007FFFFFF0001FFFFFFFFF8000000000FFFFFFFF8000000000
310
FFFFFF000000000003FF80000000003FF000FE00000000001FFFFFE00003FFFF
310
00003FFFFF80007FFC00000000001FFFE00000000001FFF8000001FFFE000000
310
7FFFFFF0001FFFFFFFFE00000000003FFFFFFE00000000003FFFFF0000000000
310
03FF00000000001FF000FC00000000000FFFFFE00003FFFF00001FFFFF80007F
310
F800000000001FFFC00000000000FFF8000001FFFE0000007FFFFFF0001FFFFF
310
FFFC00000000001FFFFFFC00000000001FFFFF000000000003FE00000000000F
310
F000F8000000000007FFFFE00003FFFF00001FFFFF80007FF800000000000FFF
310
800000000000FFF8000001FFFE0000007FFFFFF0001FFFFFFFF800000000000F
310
FFFFF800000000000FFFFF000000000003FC000000000007F000F80000000000
310
03FFFFC00003FFFE00001FFFFF80007FF0000000000007FF0000000000007FF8
310
000001FFFE0000007FFFFFF0001FFFFFFFF0000000000007FFFFF00000000000
310
07FFFF000000000003F8000000000003F000F0000000000003FFFFC00001FFFE
310
00001FFFFF80007FE0000000000007FE0000000000003FF8000001FFFE000000
310
7FFFFFF0001FFFFFFFF0000000000007FFFFF0000000000007FFFF0000000000
310
03F800001F800003F000E00001FFF00001FFFFC00001FFFE00000FFFFF80007F
310
E00001FFE00003FE00001FFF00003FF8000001FFFE0000007FFFFFF0001FFFFF
310
FFE000003E000003FFFFE000003E000003FFFF000000000003F00001FFF80001
310
F000E00007FFFC0001FFFFC00001FFFE00000FFFFF80007FC0000FFFFC0003FC
310
0000FFFFC0001FF8000001FFFE0000007FFFFFF0001FFFFFFFC00003FFE00001
310
FFFFC00003FFE00001FFFF0001FFFFFFFFF00007FFFE0001F000E0000FFFFF00
310
00FFFF800001FFFC00000FFFFF80007FC0001FFFFE0001FC0001FFFFE0001FF8
310
000001FFFE0000007FFFFFF0001FFFFFFF80000FFFF80000FFFF80000FFFF800
310
00FFFF0003FFFFFFFFE0000FFFFF8000F000C0003FFFFF8000FFFF800000FFFC
310
000007FFFF80007F80003FFFFF0001FC0003FFFFF0001FF8000001FFFE000000
310
7FFFFFF0001FFFFFFF80003FFFFE0000FFFF80003FFFFE0000FFFF0003FFFFFF
310
FFE0003FFFFF8000F000C0003FFFFF8000FFFF800000FFFC000007FFFF80007F
310
80007FFFFF8001F80007FFFFF8000FF8000001FFFE0000007FFFFFF0001FFFFF
310
FF00007FFFFF00007FFF00007FFFFF00007FFF0003FFFFFFFFE0003FFFFFC000
310
F000C0007FFFFFC000FFFF000000FFFC000007FFFF80007F8000FFFFFF8000F8
310
000FFFFFF8000FF8000001FFFE0000007FFFFFF0001FFFFFFF0000FFFFFF8000
310
7FFF0000FFFFFF80007FFF0003FFFFFFFFC0007FFFFFC00070008000FFFFFFC0
310
00FFFF000000FFF8000007FFFF80007F8000FFFFFF8000F8000FFFFFF8000FF8
310
000001FFFE0000007FFFFFF0001FFFFFFE0001FFFFFFC0003FFE0001FFFFFFC0
310
003FFF0003FFFFFFFFC0007FFFFFE00070008000FFFFFFC0007FFF0000007FF8
310
000003FFFF80007F0001FFFFFF8000F8000FFFFFF8000FF8000001FFFE000000
310
7FFFFFF0001FFFFFFE0001FFFFFFC0003FFE0001FFFFFFC0003FFF0003FFFFFF
310
FFC000FFFFFFE00070008000FFFFFFC0007FFF0000007FF8000003FFFF80007F
310
0001FFFFFF8000F8001FFFFFF8000FF8000001FFFE0000007FFFFFF0001FFFFF
310
FE0003FFFFFFE0003FFE0003FFFFFFE0003FFF0003FFFFFFFFC000FFFFFFE000
310
70008000FFFFFFC0007FFE0000007FF8000003FFFF80007F0001FFFFFF8000F0
310
001FFFFFF8000FF8000001FFFE0000007FFFFFF0001FFFFFFC0003FFFFFFE000
310
1FFC0003FFFFFFE0001FFF0003FFFFFFFFC000FFFFFFC00070008000FFFFFF80
310
007FFE0000007FF0000003FFFF80007F0001FFFFFF0000F0001FFFFFF8000FF8
310
000001FFFE0000007FFFFFF0001FFFFFFC0007FFFFFFF0001FFC0007FFFFFFF0
310
001FFF0003FFFFFFFFC000FFFFFFC00070008001FFFFFF0000FFFE0000003FF0
310
000001FFFF80007F0001FFFFFF0000F8001FFFFFF0000FF8000001FFFE000000
310
7FFFFFF0001FFFFFFC0007FFFFFFF0001FFC0007FFFFFFF0001FFF0003FFFFFF
310
FFC001FFFFFF80007000FFFFFFFFFE0000FFFE0008003FF0008001FFFF80007F
310
FFFFFFFFFC0000FFFFFFFFFFE0000FF8000001FFFE0000007FFFFFF0001FFFFF
310
F8000FFFFFFFF8000FF8000FFFFFFFF8000FFF0003FFFFFFFFFFFFFFFFFF0000
310
7000FFFFFFFFFC0000FFFC0008003FF0008001FFFF80007FFFFFFFFFF80001FF
310
FFFFFFFF80000FF8000001FFFE0000007FFFFFF0001FFFFFF8000FFFFFFFF800
310
0FF8000FFFFFFFF8000FFF0003FFFFFFFFFFFFFFFFFE0000F000FFFFFFFFE000
310
00FFFC000C003FE000C001FFFF80007FFFFFFFFFC00001FFFFFFFFFE00001FF8
310
000001FFFE0000007FFFFFF0001FFFFFF8000FFFFFFFF8000FF8000FFFFFFFF8
310
000FFF0003FFFFFFFFFFFFFFFFF00000F000FFFFFFFE000001FFFC000C001FE0
310
00C000FFFF80007FFFFFFFFE000001FFFFFFFFE000001FF80FFFFFFFFFFFFFC0
310
7FFFFFF0001FFFFFF8000FFFFFFFF8000FF8000FFFFFFFF8000FFF0003FFFFFF
310
FFFFFFFFFF800000F000FFFFFFC0000001FFFC001C001FE001C000FFFF80007F
310
FFFFFF80000003FFFFFFF80000001FF80FFFFFFFFFFFFFC07FFFFFF0001FFFFF
310
F8001FFFFFFFFC000FF8001FFFFFFFFC000FFF0003FFFFFFFFFFFFFFF0000001
310
F000FFFFF800000001FFF8001C001FE001C000FFFF80007FFFFFF800000003FF
310
FFFF800000003FF80FFFFFFFFFFFFFC07FFFFFF0001FFFFFF8001FFFFFFFFC00
310
0FF8001FFFFFFFFC000FFF0003FFFFFFFFFFFFFE00000001F000FFFFC0000000
310
03FFF8001E001FC001E000FFFF80007FFFFF8000000007FFFFFC000000003FF8
310
0FFFFFFFFFFFFFC07FFFFFF0001FFFFFF8001FFFFFFFFC000FF8001FFFFFFFFC
310
000FFF0003FFFFFFFFFFFFE000000003F000FFFE0000000007FFF8001E000FC0
310
01E0007FFF80007FFFFE0000000007FFFFE0000000007FF80FFFFFFFFFFFFFC0
310
7FFFFFF0001FFFFFF0001FFFFFFFFC0007F0001FFFFFFFFC0007FF0003FFFFFF
310
FFFFFF0000000003F000FFF80000000007FFF8001E000FC003E0007FFF80007F
310
FFF0000000000FFFFF8000000000FFF80FFFFFFFFFFFFFC07FFFFFF0001FFFFF
310
F0001FFFFFFFFC0007F0001FFFFFFFFC0007FF0003FFFFFFFFFFFC0000000007
310
F000FFE0000000000FFFF0003E000FC003E0007FFF80007FFFC0000000001FFF
310
FE0000000001FFF80FFFFFFFFFFFFFC07FFFFFF0001FFFFFF0001FFFFFFFFC00
310
07F0001FFFFFFFFC0007FF0003FFFFFFFFFFF0000000000FF000FFC000000000
310
1FFFF0003F000F8003F0003FFF80007FFF80000000003FFFF80000000003FFF8
310
0FFFFFFFFFFFFFC07FFFFFF0001FFFFFF0001FFFFFFFFC0007F0001FFFFFFFFC
310
0007FF0003FFFFFFFFFFE0000000001FF000FF00000000007FFFF0003F000780
310
03F0003FFF80007FFF00000000007FFFF00000000007FFF80FFFFFFFFFFFFFC0
310
7FFFFFF0001FFFFFF0001FFFFFFFFC0007F0001FFFFFFFFC0007FF0003FFFFFF
310
FFFF80000000007FF000FE0000000000FFFFE0003F00078007F0003FFF80007F
310
FE0000000001FFFFE0000000001FFFF80FFFFFFFFFFFFFC07FFFFFF0001FFFFF
310
F0001FFFFFFFFC0007F0001FFFFFFFFC0007FF0003FFFFFFFFFF0000000000FF
310
F000FC0000000003FFFFE0007F00078007F0003FFF80007FFC0000000007FFFF
310
C0000000007FFFF80FFFFFFFFFFFFFC07FFFFFF0001FFFFFF8001FFFFFFFFC00
310
0FF8001FFFFFFFFC000FFF0003FFFFFFFFFE0000000003FFF000FC000000000F
310
FFFFE0007F80070007F8001FFF80007FF8000000001FFFFF8000000001FFFFF8
310
0FFFFFFFFFFFFFC07FFFFFF0001FFFFFF8001FFFFFFFFC000FF8001FFFFFFFFC
310
000FFF0003FFFFFFFFFC000000000FFFF000F8000000007FFFFFE0007F800700
310
07F8001FFF80007FF000000000FFFFFF800000000FFFFFF80FFFFFFFFFFFFFC0
310
7FFFFFF0001FFFFFF8000FFFFFFFF8000FF8000FFFFFFFF8000FFF0003FFFFFF
310
FFFC000000007FFFF000F800000007FFFFFFC0007F8003000FF8001FFF80007F
310
F000000007FFFFFF000000007FFFFFF80FFFFFFFFFFFFFC07FFFFFF0001FFFFF
310
F8000FFFFFFFF8000FF8000FFFFFFFF8000FFF0003FFFFFFFFF80000000FFFFF
310
F000F0000000FFFFFFFFC000FF8003000FF8001FFF80007FE0000000FFFFFFFF
310
0000000FFFFFFFF8000001FFFE0000007FFFFFF0001FFFFFF8000FFFFFFFF800
310
0FF8000FFFFFFFF8000FFF0003FFFFFFFFF8000000FFFFFFF000F000000FFFFF
310
FFFFC000FFC002000FF8000FFF80007FE000001FFFFFFFFE000001FFFFFFFFF8
310
000001FFFE0000007FFFFFF0001FFFFFF8000FFFFFFFF8000FF8000FFFFFFFF8
310
000FFF0003FFFFFFFFF000001FFFFFFFF000E00000FFFFFFFFFFC000FFC00200
310
0FFC000FFF80007FE00001FFFFFFFFFE00001FFFFFFFFFF8000001FFFE000000
310
7FFFFFF0001FFFFFFC000FFFFFFFF8001FFC000FFFFFFFF8001FFF0003FFFFFF
310
FFF00001FFFFFFFFF000E00007FFFFFFFFFF8000FFC000001FFC000FFF80007F
310
C0000FFFFFFFFFFE0000FFFFFFFFFFF8000001FFFE0000007FFFFFF0001FFFFF
310
FC0007FFFFFFF0001FFC0007FFFFFFF0001FFF0003FFFFFFFFF00007FFFFFFFF
310
F000E0001FFFFFFFFFFF8000FFC000001FFC000FFF80007FC0003FFFFFFFFFFE
310
0001FFFFFFFFFFF8000001FFFE0000007FFFFFF0001FFFFFFC0007FFFFFFF000
310
1FFC0007FFFFFFF0001FFF0003FFFFFFFFF0001FFFFFFFFFF000E0003FFFFF00
310
03FF8001FFE000001FFC0007FF80007FC0007FFFFF0007FC0003FFFFF0003FF8
310
000001FFFE0000007FFFFFF0001FFFFFFC0003FFFFFFE0001FFC0003FFFFFFE0
310
001FFF0003FFFFFFFFF0003FFFFFFFFFF000E0003FFFFF0001FF8001FFE00000
310
1FFE0007FF80007FC0007FFFFE0003FC0007FFFFE0003FF8000001FFFE000000
310
7FFFFFF0001FFFFFFE0003FFFFFFE0003FFE0003FFFFFFE0003FFF0003FFFFFF
310
FFF0003FFFFF8001F000E0003FFFFF0001FF0001FFE000001FFE0007FF80007F
310
C0007FFFFE0003FC0007FFFFE0003FF8000001FFFE0000007FFFFFF0001FFFFF
310
FE0001FFFFFFC0003FFE0001FFFFFFC0003FFF0003FFFFFFFFF0003FFFFF0001
310
F000E0003FFFFF0003FF0001FFE000003FFE0007FF80007FC0007FFFFE0003FC
310
0007FFFFE0003FF8000001FFFE0000007FFFFFF0001FFFFFFF0001FFFFFFC000
310
7FFF0001FFFFFFC0007FFF0003FFFFFFFFF0003FFFFF0001F000E0003FFFFE00
310
03FF0003FFF000003FFE0003FF80007FC0007FFFFC0003FE0007FFFFE0003FF8
310
000001FFFE0000007FFFFFF0001FFFFFFF0000FFFFFF80007FFF0000FFFFFF80
310
007FFF0003FFFFFFFFF0003FFFFF0001F000E0003FFFFE0003FF0003FFF00000
310
3FFF0003FF80007FC0007FFFFC0007FE0007FFFFC0003FF8000001FFFE000000
310
7FFFFFF0001FFFFFFF80007FFFFF0000FFFF80007FFFFF0000FFFF0003FFFFFF
310
FFF0003FFFFF0003F000E0003FFFFC0003FE0003FFF000003FFF0003FF80007F
310
E0003FFFF80007FE0003FFFFC0007FF8000001FFFE0000007FFFFFF0001FFFFF
310
FF80003FFFFE0000FFFF80003FFFFE0000FFFF0003FFFFFFFFF0001FFFFE0003
310
F000F0001FFFF80003FE0003FFF000007FFF0001FF80007FE0003FFFF00007FE
310
0001FFFF80007FF8000001FFFE0000007FFFFFF0001FFFFFFFC0000FFFF80001
310
FFFFC0000FFFF80001FFFF0003FFFFFFFFF0001FFFFC0003F000F0000FFFF000
310
07FE0007FFF800007FFF0001FF80007FE0001FFFE00007FF0000FFFE00007FF8
310
000001FFFE0000007FFFFFF0001FFFFFFFC00003FFE00001FFFFC00003FFE000
310
01FFFF0003FFFFFFFFF8000FFFF80003F000F00003FFC00007FC0007FFF80000
310
7FFF8001FF80007FF00007FF80000FFF00007FF80000FFF8000001FFFE000000
310
7F80000000000001FFE000003E000003FFFFE000003E000003FFFF0003FFFFFF
310
FFF80003FFE00007F000F800000000000FFC0007FFF800007FFF8001FF80007F
310
F000000000000FFF000000000000FFF8000001FFFE0000007F80000000000001
310
FFF0000000000007FFFFF0000000000007FFFF0003FFFFFFFFFC00007E000007
310
F000F800000000000FFC0007FFF80000FFFF8000FF80007FF800000000001FFF
310
800000000001FFF8000001FFFE0000007F80000000000001FFF800000000000F
310
FFFFF800000000000FFFFF0003FFFFFFFFFC00000000000FF000FC0000000000
310
1FFC0007FFFC0000FFFF8000FF80007FF800000000003FFFC00000000001FFF8
310
000001FFFE0000007F80000000000001FFF800000000000FFFFFF80000000000
310
0FFFFF0003FFFFFFFFFE00000000001FF000FE00000000003FF8000FFFFC0000
310
FFFF8000FF80007FFC00000000003FFFC00000000003FFF8000001FFFE000000
310
7F80000000000001FFFC00000000001FFFFFFC00000000001FFFFF0003FFFFFF
310
FFFF00000000001FF000FF00000000003FF8000FFFFC0000FFFFC000FF80007F
310
FE00000000007FFFE00000000007FFF8000001FFFE0000007F80000000000001
310
FFFE00000000003FFFFFFE00000000003FFFFF0003FFFFFFFFFF80000000003F
310
F000FF80000000007FF8000FFFFC0001FFFFC0007F80007FFF0000000000FFFF
310
F0000000000FFFF800000000000000007F80000000000001FFFF8000000000FF
310
FFFFFF8000000000FFFFFF0003FFFFFFFFFFC0000000007FF000FFC000000000
310
FFF8000FFFFE0001FFFFC0007F80007FFF8000000001FFFFF8000000001FFFF8
310
00000000000000007F80000000000001FFFFC000000001FFFFFFFFC000000001
310
FFFFFF0003FFFFFFFFFFE000000000FFF000FFE000000003FFF0001FFFFE0001
310
FFFFC0007F80007FFFC000000007FFFFFE000000003FFFF80000000000000000
310
7F80000000000001FFFFE000000003FFFFFFFFE000000003FFFFFF0003FFFFFF
310
FFFFF000000003FFF000FFF80000000FFFF0001FFFFE0001FFFFE0007F80007F
310
FFF00000000FFFFFFF00000000FFFFF800000000000000007F80000000000001
310
FFFFF80000000FFFFFFFFFF80000000FFFFFFF0003FFFFFFFFFFFC0000000FFF
310
F000FFFE0000003FFFF0001FFFFE0003FFFFE0003F80007FFFFC0000003FFFFF
310
FFC0000003FFFFF800000000000000007F80000000000001FFFFFE0000003FFF
310
FFFFFFFE0000003FFFFFFF0003FFFFFFFFFFFF0000003FFFF000FFFF800000FF
310
FFF0001FFFFF0003FFFFE0003F80007FFFFF000001FFFFFFFFF800001FFFFFF8
310
00000000000000007F80000000000001FFFFFFC00001FFFFFFFFFFFFC00001FF
310
FFFFFF0003FFFFFFFFFFFFC00000FFFFF000FFFFF8000FFFFFFFFFFFFFFFFFFF
310
FFFFFFFFFFFFFFFFFFFFF0001FFFFFFFFFFF0000FFFFFFF80000000000000000
310
7FFFFFFFFFFFFFFFFFFFFFFC001FFFFFFFFFFFFFFC001FFFFFFFFFFFFFFFFFFF
310
FFFFFFFC001FFFFFF000FFFFFFFFFFFFFFFFFFFFFFFFFFFFFFFFFFFFFFFFFFFF
310
FFFFFFFFFFFFFFFFFFFFFFFFFFFFFFFFFFFFFFFFFFFFFFFFFFFFFFFFFFFFFFFF
310
FFFFFFFFFFFFFFFFFFFFFFFFFFFFFFFFFFFFFFFFFFFFFFFFFFFFFFFFFFFFFFFF
310
F000FFFFFFFFFFFFFFFFFFFFFFFFFFFFFFFFFFFFFFFFFFFFFFFFFFFFFFFFFFFF
310
FFFFFFFFFFFFFFFFFFFFFFFFFFFFFFFFFFFFFFFFFFFFFFFFFFFFFFFFFFFFFFFF
310
FFFFFFFFFFFFFFFFFFFFFFFFFFFFFFFFFFFFFFFFFFFFFFFFF000FFFFFFFFFFFF
310
FFFFFFFFFFFFFFFFFFFFFFFFFFFFFFFFFFFFFFFFFFFFFFFFFFFFFFFFFFFFFFFF
310
FFFFFFFFFFFFFFFFFFFFFFFFFFFFFFFFFFFFFFFFFFFFFFFFFFFFFFFFFFFFFFFF
310
FFFFFFFFFFFFFFFFFFFFFFFFFFFFFFFFF000FFFFFFFFFFFFFFFFFFFFFFFFFFFF
310
FFFFFFFFFFFFFFFFFFFFFFFFFFFFFFFFFFFFFFFFFFFFFFFFFFFFFFFFFFFFFFFF
310
FFFFFFFFFFFFFFFFFFFFFFFFFFFFFFFFFFFFFFFFFFFFFFFFFFFFFFFFFFFFFFFF
310
FFFFFFFFFFFFFFFFF000FFFFFFFFFFFFFFFFFFFFFFFFFFFFFFFFFFFFFFFFFFFF
310
FFFFFFFFFFFFFFFFFFFFFFFFFFFFFFFFFFFFFFFFFFFFFFFFFFFFFFFFFFFFFFFF
310
FFFFFFFFFFFFFFFFFFFFFFFFFFFFFFFFFFFFFFFFFFFFFFFFFFFFFFFFFFFFFFFF
310
F000FFFFFFFFFFFFFFFFFFFFFFFFFFFFFFFFFFFFFFFFFFFFFFFFFFFFFFFFFFFF
310
FFFFFFFFFFFFFFFFFFFFFFFFFFFFFFFFFFFFFFFFFFFFFFFFFFFFFFFFFFFFFFFF
310
FFFFFFFFFFFFFFFFFFFFFFFFFFFFFFFFFFFFFFFFFFFFFFFFF000FFFFFFFFFFFF
310
FFFFFFFFFFFFFFFFFFFFFFFFFFFFFFFFFFFFFFFFFFFFFFFFFFFFFFFFFFFFFFFF
310
FFFFFFFFFFFFFFFFFFFFFFFFFFFFFFFFFFFFFFFFFFFFFFFFFFFFFFFFFFFFFFFF
310
FFFFFFFFFFFFFFFFFFFFFFFFFFFFFFFFF000FFFFFFFFFFFFFFFFFFFFFFFFFFFF
310
FFFFFFFFFFFFFFFFFFFFFFFFFFFFFFFFFFFFFFFFFFFFFFFFFFFFFFFFFFFFFFFF
310
FFFFFFFFFFFFFFFFFFFFFFFFFFFFFFFFFFFFFFFFFFFFFFFFFFFFFFFFFFFFFFFF
310
FFFFFFFFFFFFFFFFF000FFFFFFFFFFFFFFFFFFFFFFFFFFFFFFFFFFFFFFFFFFFF
310
FFFFFFFFFFFFFFFFFFFFFFFFFFFFFFFFFFFFFFFFFFFFFFFFFFFFFFFFFFFFFFFF
310
FFFFFFFFFFFFFFFFFFFFFFFFFFFFFFFFFFFFFFFFFFFFFFFFFFFFFFFFFFFFFFFF
310
F000FFFFFFFFFFFFFFFFFFFFFFFFFFFFFFFFFFFFFFFFFFFFFFFFFFFFFFFFFFFF
310
FFFFFFFFFFFFFFFFFFFFFFFFFFFFFFFFFFFFFFFFFFFFFFFFFFFFFFFFFFFFFFFF
310
FFFFFFFFFFFFFFFFFFFFFFFFFFFFFFFFFFFFFFFFFFFFFFFFF000FFFFFFFFFFFF
310
FFFFFFFFFFFFFFFFFFFFFFFFFFFFFFFFFFFFFFFFFFFFFFFFFFFFFFFFFFFFFFFF
310
FFFFFFFFFFFFFFFFFFFFFFFFFFFFFFFFFFFFFFFFFFFFFFFFFFFFFFFFFFFFFFFF
310
FFFFFFFFFFFFFFFFFFFFFFFFFFFFFFFFF000FFFFFFFFFFFFFFFFFFFFFFFFFFFF
310
FFFFFFFFFFFFFFFFFFFFFFFFFFFFFFFFFFFFFFFFFFFFFFFFFFFFFFFFFFFFFFFF
310
FFFFFFFFFFFFFFFFFFFFFFFFFFFFFFFFFFFFFFFFFFFFFFFFFFFFFFFFFFFFFFFF
310
FFFFFFFFFFFFFFFFF000FFFFFFFFFFFFFFFFFFFFFFFFFFFFFFFFFFFFFFFFFFFF
310
FFFFFFFFFFFFFFFFFFFFFFFFFFFFFFFFFFFFFFFFFFFFFFFFFFFFFFFFFFFFFFFF
310
FFFFFFFFFFFFFFFFFFFFFFFFFFFFFFFFFFFFFFFFFFFFFFFFFFFFFFFFFFFFFFFF
310
F000FFFFFFFFFFFFFFFFFFFFFFFFFFFFFFFFFFFFFFFFFFFFFFFFFFFFFFFFFFFF
310
FFFFFFFFFFFFFFFFFFFFFFFFFFFFFFFFFFFFFFFFFFFFFFFFFFFFFFFFFFFFFFFF
310
FFFFFFFFFFFFFFFFFFFFFFFFFFFFFFFFFFFFFFFFFFFFFFFFF000FFFFFFFFFFFF
310
FFFFFFFFFFFFFFFFFFFFFFFFFFFFFFFFFFFFFFFFFFFFFFFFFFFFFFFFFFFFFFFF
310
FFFFFFFFFFFFFFFFFFFFFFFFFFFFFFFFFFFFFFFFFFFFFFFFFFFFFFFFFFFFFFFF
310
FFFFFFFFFFFFFFFFFFFFFFFFFFFFFFFFF000FFFFFFFFFFFFFFFFFFFFFFFFFFFF
310
FFFFFFFFFFFFFFFFFFFFFFFFFFFFFFFFFFFFFFFFFFFFFFFFFFFFFFFFFFFFFFFF
310
FFFFFFFFFFFFFFFFFFFFFFFFFFFFFFFFFFFFFFFFFFFFFFFFFFFFFFFFFFFFFFFF
310
FFFFFFFFFFFFFFFFF000FFFFFFFFFFFFFFFFFFFFFFFFFFFFFFFFFFFFFFFFFFFF
310
FFFFFFFFFFFFFFFFFFFFFFFFFFFFFFFFFFFFFFFFFFFFFFFFFFFFFFFFFFFFFFFF
310
FFFFFFFFFFFFFFFFFFFFFFFFFFFFFFFFFFFFFFFFFFFFFFFFFFFFFFFFFFFFFFFF
310
F000FFFFFFFFFFFFFFFFFFFFFFFFFFFFFFFFFFFFFFFFFFFFFFFFFFFFFFFFFFFF
310
FFFFFFFFFFFFFFFFFFFFFFFFFFFFFFFFFFFFFFFFFFFFFFFFFFFFFFFFFFFFFFFF
310
FFFFFFFFFFFFFFFFFFFFFFFFFFFFFFFFFFFFFFFFFFFFFFFFF000FFFFFFFFFFFF
310
FFFFFFFFFFFFFFFFFFFFFFFFFFFFFFFFFFFFFFFFFFFFFFFFFFFFFFFFFFFFFFFF
310
FFFFFFFFFFFFFFFFFFFFFFFFFFFFFFFFFFFFFFFFFFFFFFFFFFFFFFFFFFFFFFFF
310
FFFFFFFFFFFFFFFFFFFFFFFFFFFFFFFFF000FFFFFFFFFFFFFFFFFFFFFFFFFFFF
310
FFFFFFFFFFFFFFFFFFFFFFFFFFFFFFFFFFFFFFFFFFFFFFFFFFFFFFFFFFFFFFFF
310
FFFFFFFFFFFFFFFFFFFFFFFFFFFFFFFFFFFFFFFFFFFFFFFFFFFFFFFFFFFFFFFF
310
FFFFFFFFFFFFFFFFF000FFFFFFFFFFFFFFFFFFFFFFFFFFFFFFFFFFFFFFFFFFFF
310
FFFFFFFFFFFFFFFFFFFFFFFFFFFFFFFFFFFFFFFFFFFFFFFFFFFFFFFFFFFFFFFF
310
FFFFFFFFFFFFFFFFFFFFFFFFFFFFFFFFFFFFFFFFFFFFFFFFFFFFFFFFFFFFFFFF
310
F000FFFFFFFFFFFFFFFFFFFFFFFFFFFFFFFFFFFFFFFFFFFFFFFFFFFFFFFFFFFF
310
FFFFFFFFFFFFFFFFFFFFFFFFFFFFFFFFFFFFFFFFFFFFFFFFFFFFFFFFFFFFFFFF
310
FFFFFFFFFFFFFFFFFFFFFFFFFFFFFFFFFFFFFFFFFFFFFFFFF000FFFFFFFFFFFF
310
FFFFFFFFFFFFFFFFFFFFFFFFFFFFFFFFFFFFFFFFFFFFFFFFFFFFFFFFFFFFFFFF
310
FFFFFFFFFFFFFFFFFFFFFFFFFFFFFFFFFFFFFFFFFFFFFFFFFFFFFFFFFFFFFFFF
310
FFFFFFFFFFFFFFFFFFFFFFFFFFFFFFFFF0000000000000000000000000000000
310
0000000000000000000000000000000000000000000000000000000000000000
310
0000000000000000000000000000000000000000000000000000000000000000
310
0000000000000000000000000000000000000000000000000000000000000000
310
0000000000000000000000000000000000000000000000000000000000000000
310
0000000000000000000000000000000000000000000000000000000000000000
310
0000000000000000000000000000000000000000000000000000000000000000
310
0000000000000000000000000000000000000000000000000000000000000000
310
0000000000000000000000000000000000000000000000000000000000000000
310
0000000000000000000000000000000000000000000000000000000000000000
310
0000000000000000000000000000000000000000000000000000000000000000
310
0000000000000000000000000000000000000000000000000000000000000000
310
0000000000000000000000000000000000000000000000000000000000000000
310
0000000000000000000000000000000000000000000000000000000000000000
310
0000000000000000000000000000000000000000000000000000000000000000
310
0000000000000000000000000000000000000000000000000000000000000000
  1
OLE
  0
ENDSEC
  0
SECTION
  2
OBJECTS
  0
DICTIONARY
  5
C
330
0
100
AcDbDictionary
281
     1
  3
ACAD_GROUP
350
D
  3
ACAD_LAYOUT
350
1A
  3
ACAD_MLINESTYLE
350
17
  3
ACAD_PLOTSETTINGS
350
19
  3
ACAD_PLOTSTYLENAME
350
E
  0
DICTIONARY
  5
D
102
{ACAD_REACTORS
330
C
102
}
330
C
100
AcDbDictionary
281
     1
  0
DICTIONARY
  5
1A
102
{ACAD_REACTORS
330
C
102
}
330
C
100
AcDbDictionary
281
     1
  3
Layout1
350
1E
  3
Layout2
350
26
  3
Model
350
22
  0
DICTIONARY
  5
17
102
{ACAD_REACTORS
330
C
102
}
330
C
100
AcDbDictionary
281
     1
  3
Standard
350
18
  0
DICTIONARY
  5
19
102
{ACAD_REACTORS
330
C
102
}
330
C
100
AcDbDictionary
281
     1
  0
ACDBDICTIONARYWDFLT
  5
E
102
{ACAD_REACTORS
330
C
102
}
330
C
100
AcDbDictionary
281
     1
  3
Normal
350
F
100
AcDbDictionaryWithDefault
340
F
  0
LAYOUT
  5
1E
102
{ACAD_REACTORS
330
1A
102
}
330
1A
100
AcDbPlotSettings
  1

  2
none_device
  4

  6

 40
0.0
 41
0.0
 42
0.0
 43
0.0
 44
0.0
 45
0.0
 46
0.0
 47
0.0
 48
0.0
 49
0.0
140
0.0
141
0.0
142
1.0
143
1.0
 70
   688
 72
     0
 73
     0
 74
     5
  7

 75
    16
147
1.0
148
0.0
149
0.0
100
AcDbLayout
  1
Layout1
 70
     1
 71
     1
 10
0.0
 20
0.0
 11
420.0
 21
297.0
 12
0.0
 22
0.0
 32
0.0
 14
1.0000000000E+20
 24
1.0000000000E+20
 34
1.0000000000E+20
 15
-1.0000000000E+20
 25
-1.0000000000E+20
 35
-1.0000000000E+20
146
0.0
 13
0.0
 23
0.0
 33
0.0
 16
1.0
 26
0.0
 36
0.0
 17
0.0
 27
1.0
 37
0.0
 76
     0
330
1B
  0
LAYOUT
  5
26
102
{ACAD_REACTORS
330
1A
102
}
330
1A
100
AcDbPlotSettings
  1

  2
none_device
  4

  6

 40
0.0
 41
0.0
 42
0.0
 43
0.0
 44
0.0
 45
0.0
 46
0.0
 47
0.0
 48
0.0
 49
0.0
140
0.0
141
0.0
142
1.0
143
1.0
 70
   688
 72
     0
 73
     0
 74
     5
  7

 75
    16
147
1.0
148
0.0
149
0.0
100
AcDbLayout
  1
Layout2
 70
     1
 71
     2
 10
0.0
 20
0.0
 11
0.0
 21
0.0
 12
0.0
 22
0.0
 32
0.0
 14
0.0
 24
0.0
 34
0.0
 15
0.0
 25
0.0
 35
0.0
146
0.0
 13
0.0
 23
0.0
 33
0.0
 16
1.0
 26
0.0
 36
0.0
 17
0.0
 27
1.0
 37
0.0
 76
     0
330
23
  0
LAYOUT
  5
22
102
{ACAD_REACTORS
330
1A
102
}
330
1A
100
AcDbPlotSettings
  1

  2
none_device
  4

  6

 40
0.0
 41
0.0
 42
0.0
 43
0.0
 44
0.0
 45
0.0
 46
0.0
 47
0.0
 48
0.0
 49
0.0
140
0.0
141
0.0
142
1.0
143
1.0
 70
  1712
 72
     0
 73
     0
 74
     0
  7

 75
     0
147
1.0
148
0.0
149
0.0
100
AcDbLayout
  1
Model
 70
     1
 71
     0
 10
0.0
 20
0.0
 11
297.0
 21
210.0
 12
0.0
 22
0.0
 32
0.0
 14
0.0
 24
0.0
 34
0.0
 15
297.0
 25
210.0
 35
0.0
146
0.0
 13
0.0
 23
0.0
 33
0.0
 16
1.0
 26
0.0
 36
0.0
 17
0.0
 27
1.0
 37
0.0
 76
     0
330
1F
331
29
  0
MLINESTYLE
  5
18
102
{ACAD_REACTORS
330
17
102
}
330
17
100
AcDbMlineStyle
  2
Standard
 70
     0
  3

 62
   256
 51
90.0
 52
90.0
 71
     2
 49
0.5
 62
   256
  6
BYLAYER
 49
-0.5
 62
   256
  6
BYLAYER
  0
ACDBPLACEHOLDER
  5
F
102
{ACAD_REACTORS
330
E
102
}
330
E
  0
ENDSEC
  0
EOF
