  0
SECTION
  2
HEADER
  9
$ACADVER
  1
AC1015
  9
$ACADMAINTVER
 70
     6
  9
$DWGCODEPAGE
  3
ANSI_1252
  9
$INSBASE
 10
0.0
 20
0.0
 30
0.0
  9
$EXTMIN
 10
0.0
 20
0.0
 30
0.0
  9
$EXTMAX
 10
297.0
 20
210.0
 30
0.0
  9
$LIMMIN
 10
0.0
 20
0.0
  9
$LIMMAX
 10
297.0
 20
210.0
  9
$ORTHOMODE
 70
     0
  9
$REGENMODE
 70
     1
  9
$FILLMODE
 70
     1
  9
$QTEXTMODE
 70
     0
  9
$MIRRTEXT
 70
     1
  9
$LTSCALE
 40
1.0
  9
$ATTMODE
 70
     1
  9
$TEXTSIZE
 40
2.0
  9
$TRACEWID
 40
1.0
  9
$TEXTSTYLE
  7
Standard
  9
$CLAYER
  8
0
  9
$CELTYPE
  6
ByLayer
  9
$CECOLOR
 62
   256
  9
$CELTSCALE
 40
1.0
  9
$DISPSILH
 70
     0
  9
$DIMSCALE
 40
1.0
  9
$DIMASZ
 40
3.0
  9
$DIMEXO
 40
0.0
  9
$DIMDLI
 40
3.75
  9
$DIMRND
 40
0.0
  9
$DIMDLE
 40
0.0
  9
$DIMEXE
 40
1.0
  9
$DIMTP
 40
0.0
  9
$DIMTM
 40
0.0
  9
$DIMTXT
 40
2.0
  9
$DIMCEN
 40
2.5
  9
$DIMTSZ
 40
0.0
  9
$DIMTOL
 70
     0
  9
$DIMLIM
 70
     0
  9
$DIMTIH
 70
     1
  9
$DIMTOH
 70
     1
  9
$DIMSE1
 70
     0
  9
$DIMSE2
 70
     0
  9
$DIMTAD
 70
     1
  9
$DIMZIN
 70
     0
  9
$DIMBLK
  1

  9
$DIMASO
 70
     1
  9
$DIMSHO
 70
     1
  9
$DIMPOST
  1

  9
$DIMAPOST
  1

  9
$DIMALT
 70
     0
  9
$DIMALTD
 70
     3
  9
$DIMALTF
 40
0.0393700787
  9
$DIMLFAC
 40
1.0
  9
$DIMTOFL
 70
     1
  9
$DIMTVP
 40
0.0
  9
$DIMTIX
 70
     0
  9
$DIMSOXD
 70
     0
  9
$DIMSAH
 70
     0
  9
$DIMBLK1
  1

  9
$DIMBLK2
  1

  9
$DIMSTYLE
  2
ISO-25
  9
$DIMCLRD
 70
     0
  9
$DIMCLRE
 70
     0
  9
$DIMCLRT
 70
     0
  9
$DIMTFAC
 40
1.0
  9
$DIMGAP
 40
1.524
  9
$DIMJUST
 70
     0
  9
$DIMSD1
 70
     0
  9
$DIMSD2
 70
     0
  9
$DIMTOLJ
 70
     0
  9
$DIMTZIN
 70
     0
  9
$DIMALTZ
 70
     0
  9
$DIMALTTZ
 70
     0
  9
$DIMUPT
 70
     0
  9
$DIMDEC
 70
     2
  9
$DIMTDEC
 70
     3
  9
$DIMALTU
 70
     2
  9
$DIMALTTD
 70
     3
  9
$DIMTXSTY
  7
Standard
  9
$DIMAUNIT
 70
     0
  9
$DIMADEC
 70
     2
  9
$DIMALTRND
 40
0.0
  9
$DIMAZIN
 70
     0
  9
$DIMDSEP
 70
    44
  9
$DIMATFIT
 70
     3
  9
$DIMFRAC
 70
     0
  9
$DIMLDRBLK
  1

  9
$DIMLUNIT
 70
     2
  9
$DIMLWD
 70
    -2
  9
$DIMLWE
 70
    -2
  9
$DIMTMOVE
 70
     0
  9
$LUNITS
 70
     2
  9
$LUPREC
 70
     2
  9
$SKETCHINC
 40
1.0
  9
$FILLETRAD
 40
10.0
  9
$AUNITS
 70
     0
  9
$AUPREC
 70
     2
  9
$MENU
  1
.
  9
$ELEVATION
 40
0.0
  9
$PELEVATION
 40
0.0
  9
$THICKNESS
 40
0.0
  9
$LIMCHECK
 70
     0
  9
$CHAMFERA
 40
10.0
  9
$CHAMFERB
 40
10.0
  9
$CHAMFERC
 40
20.0
  9
$CHAMFERD
 40
0.0
  9
$SKPOLY
 70
     0
  9
$TDCREATE
 40
2456230.333753773
  9
$TDUCREATE
 40
2456230.292087106
  9
$TDUPDATE
 40
2456230.333755394
  9
$TDUUPDATE
 40
2456230.292088727
  9
$TDINDWG
 40
0.0000000116
  9
$TDUSRTIMER
 40
0.0000000116
  9
$USRTIMER
 70
     1
  9
$ANGBASE
 50
0.0
  9
$ANGDIR
 70
     0
  9
$PDMODE
 70
     0
  9
$PDSIZE
 40
-1.0
  9
$PLINEWID
 40
0.0
  9
$SPLFRAME
 70
     0
  9
$SPLINETYPE
 70
     6
  9
$SPLINESEGS
 70
     8
  9
$HANDSEED
  5
298
  9
$SURFTAB1
 70
     6
  9
$SURFTAB2
 70
     6
  9
$SURFTYPE
 70
     6
  9
$SURFU
 70
     6
  9
$SURFV
 70
     6
  9
$UCSBASE
  2

  9
$UCSNAME
  2

  9
$UCSORG
 10
0.0
 20
0.0
 30
0.0
  9
$UCSXDIR
 10
1.0
 20
0.0
 30
0.0
  9
$UCSYDIR
 10
0.0
 20
1.0
 30
0.0
  9
$UCSORTHOREF
  2

  9
$UCSORTHOVIEW
 70
     0
  9
$UCSORGTOP
 10
0.0
 20
0.0
 30
0.0
  9
$UCSORGBOTTOM
 10
0.0
 20
0.0
 30
0.0
  9
$UCSORGLEFT
 10
0.0
 20
0.0
 30
0.0
  9
$UCSORGRIGHT
 10
0.0
 20
0.0
 30
0.0
  9
$UCSORGFRONT
 10
0.0
 20
0.0
 30
0.0
  9
$UCSORGBACK
 10
0.0
 20
0.0
 30
0.0
  9
$PUCSBASE
  2

  9
$PUCSNAME
  2

  9
$PUCSORG
 10
0.0
 20
0.0
 30
0.0
  9
$PUCSXDIR
 10
1.0
 20
0.0
 30
0.0
  9
$PUCSYDIR
 10
0.0
 20
1.0
 30
0.0
  9
$PUCSORTHOREF
  2

  9
$PUCSORTHOVIEW
 70
     0
  9
$PUCSORGTOP
 10
0.0
 20
0.0
 30
0.0
  9
$PUCSORGBOTTOM
 10
0.0
 20
0.0
 30
0.0
  9
$PUCSORGLEFT
 10
0.0
 20
0.0
 30
0.0
  9
$PUCSORGRIGHT
 10
0.0
 20
0.0
 30
0.0
  9
$PUCSORGFRONT
 10
0.0
 20
0.0
 30
0.0
  9
$PUCSORGBACK
 10
0.0
 20
0.0
 30
0.0
  9
$USERI1
 70
     0
  9
$USERI2
 70
     0
  9
$USERI3
 70
     0
  9
$USERI4
 70
     0
  9
$USERI5
 70
     0
  9
$USERR1
 40
0.0
  9
$USERR2
 40
0.0
  9
$USERR3
 40
0.0
  9
$USERR4
 40
0.0
  9
$USERR5
 40
0.0
  9
$WORLDVIEW
 70
     1
  9
$SHADEDGE
 70
     3
  9
$SHADEDIF
 70
    70
  9
$TILEMODE
 70
     1
  9
$MAXACTVP
 70
    64
  9
$PINSBASE
 10
0.0
 20
0.0
 30
0.0
  9
$PLIMCHECK
 70
     0
  9
$PEXTMIN
 10
1.0000000000E+20
 20
1.0000000000E+20
 30
1.0000000000E+20
  9
$PEXTMAX
 10
-1.0000000000E+20
 20
-1.0000000000E+20
 30
-1.0000000000E+20
  9
$PLIMMIN
 10
0.0
 20
0.0
  9
$PLIMMAX
 10
420.0
 20
297.0
  9
$UNITMODE
 70
     0
  9
$VISRETAIN
 70
     1
  9
$PLINEGEN
 70
     0
  9
$PSLTSCALE
 70
     1
  9
$TREEDEPTH
 70
  3020
  9
$CMLSTYLE
  2
Standard
  9
$CMLJUST
 70
     0
  9
$CMLSCALE
 40
20.0
  9
$PROXYGRAPHICS
 70
     1
  9
$MEASUREMENT
 70
     1
  9
$CELWEIGHT
370
    -1
  9
$ENDCAPS
280
     0
  9
$JOINSTYLE
280
     0
  9
$LWDISPLAY
290
     1
  9
$INSUNITS
 70
     4
  9
$HYPERLINKBASE
  1

  9
$STYLESHEET
  1

  9
$XEDIT
290
     1
  9
$CEPSNTYPE
380
     0
  9
$PSTYLEMODE
290
     1
  9
$FINGERPRINTGUID
  2
{19322818-9043-4FF6-89A8-5E79DFB9545E}
  9
$VERSIONGUID
  2
{FAEB1C32-E019-11D5-929B-00C0DF256EC4}
  9
$EXTNAMES
290
     1
  9
$PSVPSCALE
 40
0.0
  9
$OLESTARTUP
290
     0
  0
ENDSEC
  0
SECTION
  2
CLASSES
  0
CLASS
  1
ACDBDICTIONARYWDFLT
  2
AcDbDictionaryWithDefault
  3
ObjectDBX Classes
 90
        0
280
     0
281
     0
  0
CLASS
  1
VISUALSTYLE
  2
AcDbVisualStyle
  3
ObjectDBX Classes
 90
     4095
280
     0
281
     0
  0
CLASS
  1
MATERIAL
  2
AcDbMaterial
  3
ObjectDBX Classes
 90
     1153
280
     0
281
     0
  0
CLASS
  1
ACDBPLACEHOLDER
  2
AcDbPlaceHolder
  3
ObjectDBX Classes
 90
        0
280
     0
281
     0
  0
CLASS
  1
LAYOUT
  2
AcDbLayout
  3
ObjectDBX Classes
 90
        0
280
     0
281
     0
  0
ENDSEC
  0
SECTION
  2
TABLES
  0
TABLE
  2
VPORT
  5
8
330
0
100
AcDbSymbolTable
 70
     1
  0
VPORT
  5
29
330
8
100
AcDbSymbolTableRecord
100
AcDbViewportTableRecord
  2
*Active
 70
     0
 10
0.0
 20
0.0
 11
1.0
 21
1.0
 12
148.5
 22
105.0
 13
0.0
 23
0.0
 14
10.0
 24
10.0
 15
10.0
 25
10.0
 16
0.0
 26
0.0
 36
1.0
 17
0.0
 27
0.0
 37
0.0
 40
210.0
 41
1.4142857143
 42
50.0
 43
0.0
 44
0.0
 50
0.0
 51
0.0
 71
     0
 72
  2000
 73
     1
 74
     3
 75
     0
 76
     0
 77
     0
 78
     0
281
     0
 65
     1
110
0.0
120
0.0
130
0.0
111
1.0
121
0.0
131
0.0
112
0.0
122
1.0
132
0.0
 79
     0
146
0.0
  0
ENDTAB
  0
TABLE
  2
LTYPE
  5
5
330
0
100
AcDbSymbolTable
 70
     6
  0
LTYPE
  5
14
330
5
100
AcDbSymbolTableRecord
100
AcDbLinetypeTableRecord
  2
ByBlock
 70
     0
  3

 72
    65
 73
     0
 40
0.0
  0
LTYPE
  5
15
330
5
100
AcDbSymbolTableRecord
100
AcDbLinetypeTableRecord
  2
ByLayer
 70
     0
  3

 72
    65
 73
     0
 40
0.0
  0
LTYPE
  5
16
330
5
100
AcDbSymbolTableRecord
100
AcDbLinetypeTableRecord
  2
Continuous
 70
     0
  3
Solid line
 72
    65
 73
     0
 40
0.0
  0
LTYPE
  5
3F
330
5
100
AcDbSymbolTableRecord
100
AcDbLinetypeTableRecord
  2
HIDDEN
 70
     0
  3
Hidden __ __ __ __ __ __ __ __ __ __ __ __ __ __
 72
    65
 73
     2
 40
1.905
 49
1.27
 74
     0
 49
-0.635
 74
     0
  0
LTYPE
  5
40
330
5
100
AcDbSymbolTableRecord
100
AcDbLinetypeTableRecord
  2
PHANTOM
 70
     0
  3
Phantom ______  __  __  ______  __  __  ______
 72
    65
 73
     6
 40
12.7
 49
6.35
 74
     0
 49
-1.27
 74
     0
 49
1.27
 74
     0
 49
-1.27
 74
     0
 49
1.27
 74
     0
 49
-1.27
 74
     0
  0
LTYPE
  5
41
330
5
100
AcDbSymbolTableRecord
100
AcDbLinetypeTableRecord
  2
CENTER
 70
     0
  3
Center ____ _ ____ _ ____ _ ____ _ ____ _ ____
 72
    65
 73
     4
 40
10.16
 49
6.35
 74
     0
 49
-1.27
 74
     0
 49
1.27
 74
     0
 49
-1.27
 74
     0
  0
LTYPE
  5
42
330
5
100
AcDbSymbolTableRecord
100
AcDbLinetypeTableRecord
  2
CENTERX2
 70
     0
  3
Center (2x) ________  __  ________  __  _____
 72
    65
 73
     4
 40
20.32
 49
12.7
 74
     0
 49
-2.54
 74
     0
 49
2.54
 74
     0
 49
-2.54
 74
     0
  0
LTYPE
  5
43
330
5
100
AcDbSymbolTableRecord
100
AcDbLinetypeTableRecord
  2
DOT2
 70
     0
  3
Dot (.5x) ........................................
 72
    65
 73
     2
 40
0.635
 49
0.0
 74
     0
 49
-0.635
 74
     0
  0
ENDTAB
  0
TABLE
  2
LAYER
  5
2
330
0
100
AcDbSymbolTable
 70
     5
  0
LAYER
  5
10
330
2
100
AcDbSymbolTableRecord
100
AcDbLayerTableRecord
  2
0
 70
     0
 62
     7
  6
Continuous
370
    -3
390
F
  0
LAYER
  5
44
330
2
100
AcDbSymbolTableRecord
100
AcDbLayerTableRecord
  2
FORMAT
 70
     0
 62
     7
  6
Continuous
370
    -3
390
F
  0
LAYER
  5
45
330
2
100
AcDbSymbolTableRecord
100
AcDbLayerTableRecord
  2
VERMASSUNG
 70
     0
 62
     7
  6
Continuous
370
    -3
390
F
  0
LAYER
  5
46
330
2
100
AcDbSymbolTableRecord
100
AcDbLayerTableRecord
  2
KOPF_DÜNN
 70
     0
 62
     7
  6
Continuous
370
    -3
390
F
  0
LAYER
  5
47
330
2
100
AcDbSymbolTableRecord
100
AcDbLayerTableRecord
  2
KOPF_DICK
 70
     0
 62
     7
  6
Continuous
370
    15
390
F
  0
ENDTAB
  0
TABLE
  2
STYLE
  5
3
330
0
100
AcDbSymbolTable
 70
     3
  0
STYLE
  5
11
330
3
100
AcDbSymbolTableRecord
100
AcDbTextStyleTableRecord
  2
Standard
 70
     0
 40
0.0
 41
1.0
 50
0.0
 71
     0
 42
2.0
  3
txt
  4

  0
STYLE
  5
48
330
3
100
AcDbSymbolTableRecord
100
AcDbTextStyleTableRecord
  2
SLDTEXTSTYLE0
 70
     0
 40
0.0
 41
0.7
 50
0.0
 71
     0
 42
0.2
  3
TXT
  4

  0
STYLE
  5
4C
330
3
100
AcDbSymbolTableRecord
100
AcDbTextStyleTableRecord
  2
SLDTEXTSTYLE1
 70
     0
 40
0.0
 41
0.65
 50
0.0
 71
     0
 42
0.2
  3
TXT
  4

  0
ENDTAB
  0
TABLE
  2
VIEW
  5
6
330
0
100
AcDbSymbolTable
 70
     0
  0
ENDTAB
  0
TABLE
  2
UCS
  5
7
330
0
100
AcDbSymbolTable
 70
     0
  0
ENDTAB
  0
TABLE
  2
APPID
  5
9
330
0
100
AcDbSymbolTable
 70
     1
  0
APPID
  5
12
330
9
100
AcDbSymbolTableRecord
100
AcDbRegAppTableRecord
  2
ACAD
 70
     0
  0
ENDTAB
  0
TABLE
  2
DIMSTYLE
  5
A
330
0
100
AcDbSymbolTable
 70
     3
100
AcDbDimStyleTable
  0
DIMSTYLE
105
27
330
A
100
AcDbSymbolTableRecord
100
AcDbDimStyleTableRecord
  2
ISO-25
 70
     0
 41
2.5
 42
0.625
 43
3.75
 44
1.25
 73
     0
 74
     0
 77
     1
 78
     8
140
2.5
141
2.5
143
0.0393700787
147
0.625
171
     3
172
     1
178
     0
271
     2
272
     2
274
     3
278
    44
283
     0
284
     8
340
11
  0
DIMSTYLE
105
15B
102
{ACAD_REACTORS
330
15A
330
167
330
171
330
1A6
330
1B0
330
1BA
330
1C4
330
1CE
330
1D8
330
28C
102
}
330
A
100
AcDbSymbolTableRecord
100
AcDbDimStyleTableRecord
  2
SLDDIMSTYLE0
 70
     0
 41
3.0
 44
0.0
 45
0.000000001
 73
     0
 74
     0
 77
     1
 78
    12
 79
     3
140
2.0
147
0.5
173
     1
178
     0
271
     2
272
     3
276
     2
284
    12
340
48
  0
DIMSTYLE
105
1E3
102
{ACAD_REACTORS
330
1E2
102
}
330
A
100
AcDbSymbolTableRecord
100
AcDbDimStyleTableRecord
  2
SLDDIMSTYLE1
 70
     0
 41
3.0
 44
0.0
 45
0.000000001
 73
     0
 74
     0
 77
     1
 78
    12
 79
     3
140
2.0
141
0.0
147
0.5
173
     1
178
     0
271
     2
272
     3
276
     2
284
    12
340
48
  0
ENDTAB
  0
TABLE
  2
BLOCK_RECORD
  5
1
330
0
100
AcDbSymbolTable
 70
    13
  0
BLOCK_RECORD
  5
1F
330
1
100
AcDbSymbolTableRecord
100
AcDbBlockTableRecord
  2
*Model_Space
340
22
  0
BLOCK_RECORD
  5
1B
330
1
100
AcDbSymbolTableRecord
100
AcDbBlockTableRecord
  2
*Paper_Space
340
1E
  0
BLOCK_RECORD
  5
23
330
1
100
AcDbSymbolTableRecord
100
AcDbBlockTableRecord
  2
*Paper_Space0
340
26
  0
BLOCK_RECORD
  5
15C
330
1
100
AcDbSymbolTableRecord
100
AcDbBlockTableRecord
  2
_D
340
0
  0
BLOCK_RECORD
  5
168
330
1
100
AcDbSymbolTableRecord
100
AcDbBlockTableRecord
  2
_D_1
340
0
  0
BLOCK_RECORD
  5
172
330
1
100
AcDbSymbolTableRecord
100
AcDbBlockTableRecord
  2
_D_2
340
0
  0
BLOCK_RECORD
  5
1A7
330
1
100
AcDbSymbolTableRecord
100
AcDbBlockTableRecord
  2
_D_3
340
0
  0
BLOCK_RECORD
  5
1B1
330
1
100
AcDbSymbolTableRecord
100
AcDbBlockTableRecord
  2
_D_4
340
0
  0
BLOCK_RECORD
  5
1BB
330
1
100
AcDbSymbolTableRecord
100
AcDbBlockTableRecord
  2
_D_5
340
0
  0
BLOCK_RECORD
  5
1C5
330
1
100
AcDbSymbolTableRecord
100
AcDbBlockTableRecord
  2
_D_6
340
0
  0
BLOCK_RECORD
  5
1CF
330
1
100
AcDbSymbolTableRecord
100
AcDbBlockTableRecord
  2
_D_7
340
0
  0
BLOCK_RECORD
  5
1D9
330
1
100
AcDbSymbolTableRecord
100
AcDbBlockTableRecord
  2
_D_8
340
0
  0
BLOCK_RECORD
  5
1E4
330
1
100
AcDbSymbolTableRecord
100
AcDbBlockTableRecord
  2
_D_9
340
0
  0
BLOCK_RECORD
  5
1EB
330
1
100
AcDbSymbolTableRecord
100
AcDbBlockTableRecord
  2
SW_CENTERMARKSYMBOL_0
340
0
102
{BLKREFS
331
1F6
102
}
  0
BLOCK_RECORD
  5
28D
330
1
100
AcDbSymbolTableRecord
100
AcDbBlockTableRecord
  2
_D_10
340
0
  0
ENDTAB
  0
ENDSEC
  0
SECTION
  2
BLOCKS
  0
BLOCK
  5
20
330
1F
100
AcDbEntity
  8
0
100
AcDbBlockBegin
  2
*Model_Space
 70
     0
 10
0.0
 20
0.0
 30
0.0
  3
*Model_Space
  1

  0
ENDBLK
  5
21
330
1F
100
AcDbEntity
  8
0
100
AcDbBlockEnd
  0
BLOCK
  5
1C
330
1B
100
AcDbEntity
 67
     1
  8
0
100
AcDbBlockBegin
  2
*Paper_Space
 70
     0
 10
0.0
 20
0.0
 30
0.0
  3
*Paper_Space
  1

  0
ENDBLK
  5
1D
330
1B
100
AcDbEntity
 67
     1
  8
0
100
AcDbBlockEnd
  0
BLOCK
  5
24
330
23
100
AcDbEntity
  8
0
100
AcDbBlockBegin
  2
*Paper_Space0
 70
     0
 10
0.0
 20
0.0
 30
0.0
  3
*Paper_Space0
  1

  0
ENDBLK
  5
25
330
23
100
AcDbEntity
  8
0
100
AcDbBlockEnd
  0
BLOCK
  5
15D
330
15C
100
AcDbEntity
  8
0
100
AcDbBlockBegin
  2
_D
 70
     0
 10
0.0
 20
0.0
 30
0.0
  3
_D
  1

  0
SOLID
  5
15F
330
15C
100
AcDbEntity
  8
VERMASSUNG
100
AcDbTrace
 10
131.791007584
 20
179.6948211408
 30
0.0
 11
131.341007584
 21
176.6948211408
 31
0.0
 12
132.241007584
 22
176.6948211408
 32
0.0
 13
132.241007584
 23
176.6948211408
 33
0.0
  0
SOLID
  5
160
330
15C
100
AcDbEntity
  8
VERMASSUNG
100
AcDbTrace
 10
131.791007584
 20
116.6948211408
 30
0.0
 11
132.241007584
 21
119.6948211408
 31
0.0
 12
131.341007584
 22
119.6948211408
 32
0.0
 13
131.341007584
 23
119.6948211408
 33
0.0
  0
LINE
  5
161
330
15C
100
AcDbEntity
  8
VERMASSUNG
100
AcDbLine
 10
170.3667456241
 20
179.6948211408
 30
0.0
 11
130.791007584
 21
179.6948211408
 31
0.0
  0
LINE
  5
162
330
15C
100
AcDbEntity
  8
VERMASSUNG
100
AcDbLine
 10
170.3667456241
 20
116.6948211408
 30
0.0
 11
130.791007584
 21
116.6948211408
 31
0.0
  0
LINE
  5
163
330
15C
100
AcDbEntity
  8
VERMASSUNG
100
AcDbLine
 10
131.791007584
 20
179.6948211408
 30
0.0
 11
131.791007584
 21
116.6948211408
 31
0.0
  0
MTEXT
  5
164
330
15C
100
AcDbEntity
  8
VERMASSUNG
100
AcDbMText
 10
129.0128720949
 20
140.5930178539
 30
0.0
 40
2.0
 41
0.0
 71
     1
 72
     1
  1
HSK T
  7
SLDTEXTSTYLE0
 11
-7.044195017643634E-15
 21
1.0
 31
0.0
 73
     1
 44
1.0
  0
MTEXT
  5
165
330
15C
100
AcDbEntity
  8
VERMASSUNG
100
AcDbMText
 10
129.2128721044
 20
149.3930178062
 30
0.0
 40
2.0
 41
0.0
 71
     1
 72
     1
  1
%%c
  7
SLDTEXTSTYLE0
 11
-7.044195017643634E-15
 21
1.0
 31
0.0
 73
     1
 44
1.0
  0
MTEXT
  5
166
330
15C
100
AcDbEntity
  8
VERMASSUNG
100
AcDbMText
 10
129.2128722208
 20
153.0011373327
 30
0.0
 40
2.0
 41
0.0
 71
     1
 72
     1
  1
63
  7
SLDTEXTSTYLE0
 11
-7.044195017643634E-15
 21
1.0
 31
0.0
 73
     1
 44
1.0
  0
ENDBLK
  5
15E
330
15C
100
AcDbEntity
  8
0
100
AcDbBlockEnd
  0
BLOCK
  5
169
330
168
100
AcDbEntity
  8
0
100
AcDbBlockBegin
  2
_D_1
 70
     0
 10
0.0
 20
0.0
 30
0.0
  3
_D_1
  1

  0
SOLID
  5
16B
330
168
100
AcDbEntity
  8
VERMASSUNG
100
AcDbTrace
 10
170.0667456241
 20
186.6061755146
 30
0.0
 11
173.0667456241
 21
186.1561755146
 31
0.0
 12
173.0667456241
 22
187.0561755146
 32
0.0
 13
173.0667456241
 23
187.0561755146
 33
0.0
  0
SOLID
  5
16C
330
168
100
AcDbEntity
  8
VERMASSUNG
100
AcDbTrace
 10
260.0667456241
 20
186.6061755146
 30
0.0
 11
257.0667456241
 21
187.0561755146
 31
0.0
 12
257.0667456241
 22
186.1561755146
 32
0.0
 13
257.0667456241
 23
186.1561755146
 33
0.0
  0
LINE
  5
16D
330
168
100
AcDbEntity
  8
VERMASSUNG
100
AcDbLine
 10
170.0667456241
 20
179.3948211408
 30
0.0
 11
170.0667456241
 21
187.6061755146
 31
0.0
  0
LINE
  5
16E
330
168
100
AcDbEntity
  8
VERMASSUNG
100
AcDbLine
 10
260.0667456241
 20
178.1948211408
 30
0.0
 11
260.0667456241
 21
187.6061755146
 31
0.0
  0
LINE
  5
16F
330
168
100
AcDbEntity
  8
VERMASSUNG
100
AcDbLine
 10
170.0667456241
 20
186.6061755146
 30
0.0
 11
260.0667456241
 21
186.6061755146
 31
0.0
  0
MTEXT
  5
170
330
168
100
AcDbEntity
  8
VERMASSUNG
100
AcDbMText
 10
213.6690020766
 20
189.1843108778
 30
0.0
 40
2.0
 41
0.0
 71
     1
 72
     1
  1
90
  7
SLDTEXTSTYLE0
 73
     1
 44
1.0
  0
ENDBLK
  5
16A
330
168
100
AcDbEntity
  8
0
100
AcDbBlockEnd
  0
BLOCK
  5
173
330
172
100
AcDbEntity
  8
0
100
AcDbBlockBegin
  2
_D_2
 70
     0
 10
0.0
 20
0.0
 30
0.0
  3
_D_2
  1

  0
SOLID
  5
175
330
172
100
AcDbEntity
  8
VERMASSUNG
100
AcDbTrace
 10
260.0667456241
 20
192.6061755146
 30
0.0
 11
257.0667456241
 21
193.0561755146
 31
0.0
 12
257.0667456241
 22
192.1561755146
 32
0.0
 13
257.0667456241
 23
192.1561755146
 33
0.0
  0
SOLID
  5
176
330
172
100
AcDbEntity
  8
VERMASSUNG
100
AcDbTrace
 10
138.1667456241
 20
192.6061755146
 30
0.0
 11
141.1667456241
 21
192.1561755146
 31
0.0
 12
141.1667456241
 22
193.0561755146
 32
0.0
 13
141.1667456241
 23
193.0561755146
 33
0.0
  0
LINE
  5
177
330
172
100
AcDbEntity
  8
VERMASSUNG
100
AcDbLine
 10
260.0667456241
 20
178.1948211408
 30
0.0
 11
260.0667456241
 21
193.6061755146
 31
0.0
  0
LINE
  5
178
330
172
100
AcDbEntity
  8
VERMASSUNG
100
AcDbLine
 10
138.1667456241
 20
168.1708816454
 30
0.0
 11
138.1667456241
 21
193.6061755146
 31
0.0
  0
LINE
  5
179
330
172
100
AcDbEntity
  8
VERMASSUNG
100
AcDbLine
 10
260.0667456241
 20
192.6061755146
 30
0.0
 11
138.1667456241
 21
192.6061755146
 31
0.0
  0
MTEXT
  5
17A
330
172
100
AcDbEntity
  8
VERMASSUNG
100
AcDbMText
 10
196.4173391003
 20
195.1843108778
 30
0.0
 40
2.0
 41
0.0
 71
     1
 72
     1
  1
121.9
  7
SLDTEXTSTYLE0
 73
     1
 44
1.0
  0
ENDBLK
  5
174
330
172
100
AcDbEntity
  8
0
100
AcDbBlockEnd
  0
BLOCK
  5
1A8
330
1A7
100
AcDbEntity
  8
0
100
AcDbBlockBegin
  2
_D_3
 70
     0
 10
0.0
 20
0.0
 30
0.0
  3
_D_3
  1

  0
SOLID
  5
1AA
330
1A7
100
AcDbEntity
  8
VERMASSUNG
100
AcDbTrace
 10
55.4087454921
 20
183.5554712893
 30
0.0
 11
58.4087454921
 21
183.1054712893
 31
0.0
 12
58.4087454921
 22
184.0054712893
 32
0.0
 13
58.4087454921
 23
184.0054712893
 33
0.0
  0
SOLID
  5
1AB
330
1A7
100
AcDbEntity
  8
VERMASSUNG
100
AcDbTrace
 10
75.4087454921
 20
183.5554712893
 30
0.0
 11
72.4087454921
 21
184.0054712893
 31
0.0
 12
72.4087454921
 22
183.1054712893
 32
0.0
 13
72.4087454921
 23
183.1054712893
 33
0.0
  0
LINE
  5
1AC
330
1A7
100
AcDbEntity
  8
VERMASSUNG
100
AcDbLine
 10
55.4087454921
 20
182.1948211408
 30
0.0
 11
55.4087454921
 21
184.5554712893
 31
0.0
  0
LINE
  5
1AD
330
1A7
100
AcDbEntity
  8
VERMASSUNG
100
AcDbLine
 10
75.4087454921
 20
178.1948211408
 30
0.0
 11
75.4087454921
 21
184.5554712893
 31
0.0
  0
LINE
  5
1AE
330
1A7
100
AcDbEntity
  8
VERMASSUNG
100
AcDbLine
 10
55.4087454921
 20
183.5554712893
 30
0.0
 11
75.4087454921
 21
183.5554712893
 31
0.0
  0
MTEXT
  5
1AF
330
1A7
100
AcDbEntity
  8
VERMASSUNG
100
AcDbMText
 10
64.0110019446
 20
186.1336066524
 30
0.0
 40
2.0
 41
0.0
 71
     1
 72
     1
  1
20
  7
SLDTEXTSTYLE0
 73
     1
 44
1.0
  0
ENDBLK
  5
1A9
330
1A7
100
AcDbEntity
  8
0
100
AcDbBlockEnd
  0
BLOCK
  5
1B2
330
1B1
100
AcDbEntity
  8
0
100
AcDbBlockBegin
  2
_D_4
 70
     0
 10
0.0
 20
0.0
 30
0.0
  3
_D_4
  1

  0
SOLID
  5
1B4
330
1B1
100
AcDbEntity
  8
VERMASSUNG
100
AcDbTrace
 10
55.4087454921
 20
189.5554712893
 30
0.0
 11
58.4087454921
 21
189.1054712893
 31
0.0
 12
58.4087454921
 22
190.0054712893
 32
0.0
 13
58.4087454921
 23
190.0054712893
 33
0.0
  0
SOLID
  5
1B5
330
1B1
100
AcDbEntity
  8
VERMASSUNG
100
AcDbTrace
 10
90.4087454921
 20
189.5554712893
 30
0.0
 11
87.4087454921
 21
190.0054712893
 31
0.0
 12
87.4087454921
 22
189.1054712893
 32
0.0
 13
87.4087454921
 23
189.1054712893
 33
0.0
  0
LINE
  5
1B6
330
1B1
100
AcDbEntity
  8
VERMASSUNG
100
AcDbLine
 10
55.4087454921
 20
182.1948211408
 30
0.0
 11
55.4087454921
 21
190.5554712893
 31
0.0
  0
LINE
  5
1B7
330
1B1
100
AcDbEntity
  8
VERMASSUNG
100
AcDbLine
 10
90.4087454921
 20
167.5597378718
 30
0.0
 11
90.4087454921
 21
190.5554712893
 31
0.0
  0
LINE
  5
1B8
330
1B1
100
AcDbEntity
  8
VERMASSUNG
100
AcDbLine
 10
55.4087454921
 20
189.5554712893
 30
0.0
 11
90.4087454921
 21
189.5554712893
 31
0.0
  0
MTEXT
  5
1B9
330
1B1
100
AcDbEntity
  8
VERMASSUNG
100
AcDbMText
 10
71.5110019446
 20
192.1336066524
 30
0.0
 40
2.0
 41
0.0
 71
     1
 72
     1
  1
35
  7
SLDTEXTSTYLE0
 73
     1
 44
1.0
  0
ENDBLK
  5
1B3
330
1B1
100
AcDbEntity
  8
0
100
AcDbBlockEnd
  0
BLOCK
  5
1BC
330
1BB
100
AcDbEntity
  8
0
100
AcDbBlockBegin
  2
_D_5
 70
     0
 10
0.0
 20
0.0
 30
0.0
  3
_D_5
  1

  0
SOLID
  5
1BE
330
1BB
100
AcDbEntity
  8
VERMASSUNG
100
AcDbTrace
 10
29.4087454921
 20
195.5554712893
 30
0.0
 11
32.4087454921
 21
195.1054712893
 31
0.0
 12
32.4087454921
 22
196.0054712893
 32
0.0
 13
32.4087454921
 23
196.0054712893
 33
0.0
  0
SOLID
  5
1BF
330
1BB
100
AcDbEntity
  8
VERMASSUNG
100
AcDbTrace
 10
90.4087454921
 20
195.5554712893
 30
0.0
 11
87.4087454921
 21
196.0054712893
 31
0.0
 12
87.4087454921
 22
195.1054712893
 32
0.0
 13
87.4087454921
 23
195.1054712893
 33
0.0
  0
LINE
  5
1C0
330
1BB
100
AcDbEntity
  8
VERMASSUNG
100
AcDbLine
 10
29.4087454921
 20
178.1948211408
 30
0.0
 11
29.4087454921
 21
196.5554712893
 31
0.0
  0
LINE
  5
1C1
330
1BB
100
AcDbEntity
  8
VERMASSUNG
100
AcDbLine
 10
90.4087454921
 20
167.5597378718
 30
0.0
 11
90.4087454921
 21
196.5554712893
 31
0.0
  0
LINE
  5
1C2
330
1BB
100
AcDbEntity
  8
VERMASSUNG
100
AcDbLine
 10
29.4087454921
 20
195.5554712893
 30
0.0
 11
90.4087454921
 21
195.5554712893
 31
0.0
  0
MTEXT
  5
1C3
330
1BB
100
AcDbEntity
  8
VERMASSUNG
100
AcDbMText
 10
58.710025985
 20
198.1336066524
 30
0.0
 40
2.0
 41
0.0
 71
     1
 72
     1
  1
61
  7
SLDTEXTSTYLE0
 73
     1
 44
1.0
  0
ENDBLK
  5
1BD
330
1BB
100
AcDbEntity
  8
0
100
AcDbBlockEnd
  0
BLOCK
  5
1C6
330
1C5
100
AcDbEntity
  8
0
100
AcDbBlockBegin
  2
_D_6
 70
     0
 10
0.0
 20
0.0
 30
0.0
  3
_D_6
  1

  0
SOLID
  5
1C8
330
1C5
100
AcDbEntity
  8
VERMASSUNG
100
AcDbTrace
 10
96.5986470552
 20
178.1948211408
 30
0.0
 11
96.1486470552
 21
175.1948211408
 31
0.0
 12
97.0486470552
 22
175.1948211408
 32
0.0
 13
97.0486470552
 23
175.1948211408
 33
0.0
  0
SOLID
  5
1C9
330
1C5
100
AcDbEntity
  8
VERMASSUNG
100
AcDbTrace
 10
96.5986470552
 20
158.1948211408
 30
0.0
 11
97.0486470552
 21
161.1948211408
 31
0.0
 12
96.1486470552
 22
161.1948211408
 32
0.0
 13
96.1486470552
 23
161.1948211408
 33
0.0
  0
LINE
  5
1CA
330
1C5
100
AcDbEntity
  8
VERMASSUNG
100
AcDbLine
 10
81.8662586028
 20
178.1948211408
 30
0.0
 11
97.5986470552
 21
178.1948211408
 31
0.0
  0
LINE
  5
1CB
330
1C5
100
AcDbEntity
  8
VERMASSUNG
100
AcDbLine
 10
54.4087454921
 20
158.1948211408
 30
0.0
 11
97.5986470552
 21
158.1948211408
 31
0.0
  0
LINE
  5
1CC
330
1C5
100
AcDbEntity
  8
VERMASSUNG
100
AcDbLine
 10
96.5986470552
 20
178.1948211408
 30
0.0
 11
96.5986470552
 21
158.1948211408
 31
0.0
  0
MTEXT
  5
1CD
330
1C5
100
AcDbEntity
  8
VERMASSUNG
100
AcDbMText
 10
94.0205116921
 20
166.7970775933
 30
0.0
 40
2.0
 41
0.0
 71
     1
 72
     1
  1
20
  7
SLDTEXTSTYLE0
 11
-7.044195017643634E-15
 21
1.0
 31
0.0
 73
     1
 44
1.0
  0
ENDBLK
  5
1C7
330
1C5
100
AcDbEntity
  8
0
100
AcDbBlockEnd
  0
BLOCK
  5
1D0
330
1CF
100
AcDbEntity
  8
0
100
AcDbBlockBegin
  2
_D_7
 70
     0
 10
0.0
 20
0.0
 30
0.0
  3
_D_7
  1

  0
SOLID
  5
1D2
330
1CF
100
AcDbEntity
  8
VERMASSUNG
100
AcDbTrace
 10
102.5986470552
 20
178.1948211408
 30
0.0
 11
102.1486470552
 21
175.1948211408
 31
0.0
 12
103.0486470552
 22
175.1948211408
 32
0.0
 13
103.0486470552
 23
175.1948211408
 33
0.0
  0
SOLID
  5
1D3
330
1CF
100
AcDbEntity
  8
VERMASSUNG
100
AcDbTrace
 10
102.5986470552
 20
148.1948211408
 30
0.0
 11
103.0486470552
 21
151.1948211408
 31
0.0
 12
102.1486470552
 22
151.1948211408
 32
0.0
 13
102.1486470552
 23
151.1948211408
 33
0.0
  0
LINE
  5
1D4
330
1CF
100
AcDbEntity
  8
VERMASSUNG
100
AcDbLine
 10
81.8662586028
 20
178.1948211408
 30
0.0
 11
103.5986470552
 21
178.1948211408
 31
0.0
  0
LINE
  5
1D5
330
1CF
100
AcDbEntity
  8
VERMASSUNG
100
AcDbLine
 10
89.4087454921
 20
148.1948211408
 30
0.0
 11
103.5986470552
 21
148.1948211408
 31
0.0
  0
LINE
  5
1D6
330
1CF
100
AcDbEntity
  8
VERMASSUNG
100
AcDbLine
 10
102.5986470552
 20
178.1948211408
 30
0.0
 11
102.5986470552
 21
148.1948211408
 31
0.0
  0
MTEXT
  5
1D7
330
1CF
100
AcDbEntity
  8
VERMASSUNG
100
AcDbMText
 10
100.0205116921
 20
161.7970775933
 30
0.0
 40
2.0
 41
0.0
 71
     1
 72
     1
  1
30
  7
SLDTEXTSTYLE0
 11
-7.044195017643634E-15
 21
1.0
 31
0.0
 73
     1
 44
1.0
  0
ENDBLK
  5
1D1
330
1CF
100
AcDbEntity
  8
0
100
AcDbBlockEnd
  0
BLOCK
  5
1DA
330
1D9
100
AcDbEntity
  8
0
100
AcDbBlockBegin
  2
_D_8
 70
     0
 10
0.0
 20
0.0
 30
0.0
  3
_D_8
  1

  0
SOLID
  5
1DC
330
1D9
100
AcDbEntity
  8
VERMASSUNG
100
AcDbTrace
 10
108.5986470552
 20
178.1948211408
 30
0.0
 11
108.1486470552
 21
175.1948211408
 31
0.0
 12
109.0486470552
 22
175.1948211408
 32
0.0
 13
109.0486470552
 23
175.1948211408
 33
0.0
  0
SOLID
  5
1DD
330
1D9
100
AcDbEntity
  8
VERMASSUNG
100
AcDbTrace
 10
108.5986470552
 20
122.1948211408
 30
0.0
 11
109.0486470552
 21
125.1948211408
 31
0.0
 12
108.1486470552
 22
125.1948211408
 32
0.0
 13
108.1486470552
 23
125.1948211408
 33
0.0
  0
LINE
  5
1DE
330
1D9
100
AcDbEntity
  8
VERMASSUNG
100
AcDbLine
 10
81.8662586028
 20
178.1948211408
 30
0.0
 11
109.5986470552
 21
178.1948211408
 31
0.0
  0
LINE
  5
1DF
330
1D9
100
AcDbEntity
  8
VERMASSUNG
100
AcDbLine
 10
75.4087454921
 20
122.1948211408
 30
0.0
 11
109.5986470552
 21
122.1948211408
 31
0.0
  0
LINE
  5
1E0
330
1D9
100
AcDbEntity
  8
VERMASSUNG
100
AcDbLine
 10
108.5986470552
 20
178.1948211408
 30
0.0
 11
108.5986470552
 21
122.1948211408
 31
0.0
  0
MTEXT
  5
1E1
330
1D9
100
AcDbEntity
  8
VERMASSUNG
100
AcDbMText
 10
106.0205116921
 20
148.7970775933
 30
0.0
 40
2.0
 41
0.0
 71
     1
 72
     1
  1
56
  7
SLDTEXTSTYLE0
 11
-7.044195017643634E-15
 21
1.0
 31
0.0
 73
     1
 44
1.0
  0
ENDBLK
  5
1DB
330
1D9
100
AcDbEntity
  8
0
100
AcDbBlockEnd
  0
BLOCK
  5
1E5
330
1E4
100
AcDbEntity
  8
0
100
AcDbBlockBegin
  2
_D_9
 70
     0
 10
0.0
 20
0.0
 30
0.0
  3
_D_9
  1

  0
SOLID
  5
1E7
330
1E4
100
AcDbEntity
  8
VERMASSUNG
100
AcDbTrace
 10
86.560894394
 20
173.2855289586
 30
0.0
 11
89.1795760246
 21
174.8168703698
 31
0.0
 12
88.6150350987
 22
175.51779372
 32
0.0
 13
88.6150350987
 23
175.51779372
 33
0.0
  0
LINE
  5
1E8
330
1E4
100
AcDbEntity
  8
VERMASSUNG
100
AcDbLine
 10
86.560894394
 20
173.2855289586
 30
0.0
 11
100.3027432878
 21
184.3535524377
 31
0.0
  0
MTEXT
  5
1E9
330
1E4
100
AcDbEntity
  8
VERMASSUNG
100
AcDbMText
 10
92.4614509576
 20
181.3467918954
 30
0.0
 40
2.0
 41
0.0
 71
     1
 72
     1
  1
%%c
  7
SLDTEXTSTYLE0
 11
0.7788037225461735
 21
0.6272676954444751
 31
0.0
 73
     1
 44
1.0
  0
MTEXT
  5
1EA
330
1E4
100
AcDbEntity
  8
VERMASSUNG
100
AcDbMText
 10
95.272842375
 20
183.6111556214
 30
0.0
 40
2.0
 41
0.0
 71
     1
 72
     1
  1
80
  7
SLDTEXTSTYLE0
 11
0.7788037225461735
 21
0.6272676954444751
 31
0.0
 73
     1
 44
1.0
  0
ENDBLK
  5
1E6
330
1E4
100
AcDbEntity
  8
0
100
AcDbBlockEnd
  0
BLOCK
  5
1EC
330
1EB
100
AcDbEntity
  8
0
100
AcDbBlockBegin
  2
SW_CENTERMARKSYMBOL_0
 70
     0
 10
0.0
 20
0.0
 30
0.0
  3
SW_CENTERMARKSYMBOL_0
  1

  0
LINE
  5
1EE
330
1EB
100
AcDbEntity
  8
VERMASSUNG
 62
     0
100
AcDbLine
 10
0.0
 20
0.0
 30
0.0
 11
0.0
 21
2.5
 31
0.0
  0
LINE
  5
1EF
330
1EB
100
AcDbEntity
  8
VERMASSUNG
 62
     0
100
AcDbLine
 10
0.0
 20
0.0
 30
0.0
 11
-2.5
 21
0.0
 31
0.0
  0
LINE
  5
1F0
330
1EB
100
AcDbEntity
  8
VERMASSUNG
 62
     0
100
AcDbLine
 10
0.0
 20
0.0
 30
0.0
 11
0.0
 21
-2.5
 31
0.0
  0
LINE
  5
1F1
330
1EB
100
AcDbEntity
  8
VERMASSUNG
 62
     0
100
AcDbLine
 10
0.0
 20
0.0
 30
0.0
 11
2.5
 21
0.0
 31
0.0
  0
LINE
  5
1F2
330
1EB
100
AcDbEntity
  8
VERMASSUNG
 62
     0
100
AcDbLine
 10
0.0
 20
5.0
 30
0.0
 11
0.0
 21
34.0
 31
0.0
  0
LINE
  5
1F3
330
1EB
100
AcDbEntity
  8
VERMASSUNG
 62
     0
100
AcDbLine
 10
-5.0
 20
0.0
 30
0.0
 11
-34.0
 21
0.0
 31
0.0
  0
LINE
  5
1F4
330
1EB
100
AcDbEntity
  8
VERMASSUNG
 62
     0
100
AcDbLine
 10
0.0
 20
-5.0
 30
0.0
 11
0.0
 21
-34.0
 31
0.0
  0
LINE
  5
1F5
330
1EB
100
AcDbEntity
  8
VERMASSUNG
 62
     0
100
AcDbLine
 10
5.0
 20
0.0
 30
0.0
 11
34.0
 21
0.0
 31
0.0
  0
ENDBLK
  5
1ED
330
1EB
100
AcDbEntity
  8
0
100
AcDbBlockEnd
  0
BLOCK
  5
28E
330
28D
100
AcDbEntity
  8
0
100
AcDbBlockBegin
  2
_D_10
 70
     0
 10
0.0
 20
0.0
 30
0.0
  3
_D_10
  1

  0
SOLID
  5
290
330
28D
100
AcDbEntity
  8
VERMASSUNG
100
AcDbTrace
 10
215.0667456241
 20
102.3312026002
 30
0.0
 11
218.0667456241
 21
101.8812026002
 31
0.0
 12
218.0667456241
 22
102.7812026002
 32
0.0
 13
218.0667456241
 23
102.7812026002
 33
0.0
  0
SOLID
  5
291
330
28D
100
AcDbEntity
  8
VERMASSUNG
100
AcDbTrace
 10
260.0667456241
 20
102.3312026002
 30
0.0
 11
257.0667456241
 21
102.7812026002
 31
0.0
 12
257.0667456241
 22
101.8812026002
 32
0.0
 13
257.0667456241
 23
101.8812026002
 33
0.0
  0
LINE
  5
292
330
28D
100
AcDbEntity
  8
VERMASSUNG
100
AcDbLine
 10
215.0667456241
 20
80.0420476235
 30
0.0
 11
215.0667456241
 21
103.3312026002
 31
0.0
  0
LINE
  5
293
330
28D
100
AcDbEntity
  8
VERMASSUNG
100
AcDbLine
 10
260.0667456241
 20
95.0420476235
 30
0.0
 11
260.0667456241
 21
103.3312026002
 31
0.0
  0
LINE
  5
294
330
28D
100
AcDbEntity
  8
VERMASSUNG
100
AcDbLine
 10
215.0667456241
 20
102.3312026002
 30
0.0
 11
260.0667456241
 21
102.3312026002
 31
0.0
  0
MTEXT
  5
295
330
28D
100
AcDbEntity
  8
VERMASSUNG
100
AcDbMText
 10
236.0683462401
 20
104.9093379633
 30
0.0
 40
2.0
 41
0.0
 71
     1
 72
     1
  1
45
  7
SLDTEXTSTYLE0
 73
     1
 44
1.0
  0
ENDBLK
  5
28F
330
28D
100
AcDbEntity
  8
0
100
AcDbBlockEnd
  0
ENDSEC
  0
SECTION
  2
ENTITIES
  0
MTEXT
  5
49
330
1F
100
AcDbEntity
  8
KOPF_DÜNN
100
AcDbMText
 10
13.8892156294
 20
23.8442973028
 30
0.0
 40
3.0
 41
0.0
 71
     1
 72
     1
  1
HA6.V20.R11.090
  7
SLDTEXTSTYLE0
 73
     1
 44
1.0
  0
MTEXT
  5
4A
330
1F
100
AcDbEntity
  8
VERMASSUNG
100
AcDbMText
 10
13.9329988022
 20
28.8834360957
 30
0.0
 40
3.0
 41
0.0
 71
     1
 72
     1
  1
Werkzeughalter axial_Tool holder axial
  7
SLDTEXTSTYLE0
 73
     1
 44
1.0
  0
MTEXT
  5
4B
330
1F
100
AcDbEntity
  8
VERMASSUNG
100
AcDbMText
 10
98.8601118557
 20
13.8365368179
 30
0.0
 40
2.0
 41
0.0
 71
     1
 72
     1
  1
Datum: 18.03.2010
  7
SLDTEXTSTYLE0
 73
     1
 44
1.0
  0
MTEXT
  5
4D
330
1F
100
AcDbEntity
  8
VERMASSUNG
100
AcDbMText
 10
13.933048693
 20
18.0482802738
 30
0.0
 40
2.0
 41
0.0
 71
     1
 72
     1
  1
DIN 69893 HSK T ø63  / 20x20
  7
SLDTEXTSTYLE1
 73
     1
 44
1.0
  0
MTEXT
  5
4E
330
1F
100
AcDbEntity
  8
VERMASSUNG
100
AcDbMText
 10
13.9808475933
 20
13.9090973692
 30
0.0
 40
2.0
 41
0.0
 71
     1
 72
     1
  1
Gewicht: 1904g
  7
SLDTEXTSTYLE0
 73
     1
 44
1.0
  0
ARC
  5
4F
330
1F
100
AcDbEntity
  8
0
  6
Continuous
 62
     7
370
    15
100
AcDbCircle
 10
258.0667456241
 20
156.1948211408
 30
0.0
 40
4.999999999999996
100
AcDbArc
 50
33.0736970771
 51
66.4218215218
  0
ARC
  5
50
330
1F
100
AcDbEntity
  8
0
  6
Continuous
 62
     7
370
    15
100
AcDbCircle
 10
258.0667456241
 20
156.1948211408
 30
0.0
 40
4.999999999999996
100
AcDbArc
 50
293.5781784782
 51
312.0072811229
  0
LINE
  5
51
330
1F
100
AcDbEntity
  8
0
  6
Continuous
 62
     7
370
    15
100
AcDbLine
 10
170.3667456241
 20
116.6948211408
 30
0.0
 11
175.0167456241
 21
116.6948211408
 31
0.0
  0
LINE
  5
52
330
1F
100
AcDbEntity
  8
0
  6
Continuous
 62
     7
370
    15
100
AcDbLine
 10
175.0209498214
 20
179.6948211408
 30
0.0
 11
170.3667456241
 21
179.6948211408
 31
0.0
  0
ARC
  5
53
330
1F
100
AcDbEntity
  8
0
  6
Continuous
 62
     7
370
    15
100
AcDbCircle
 10
170.3667456241
 20
116.9948211408
 30
0.0
 40
0.3000000000000114
100
AcDbArc
 50
180.0
 51
270.0
  0
ARC
  5
54
330
1F
100
AcDbEntity
  8
0
  6
Continuous
 62
     7
370
    15
100
AcDbCircle
 10
170.3667456241
 20
179.3948211408
 30
0.0
 40
0.3000000000000114
100
AcDbArc
 50
90.0
 51
180.0
  0
ARC
  5
55
330
1F
100
AcDbEntity
  8
0
  6
Continuous
 62
     7
370
    15
100
AcDbCircle
 10
197.0167456241
 20
121.1948211408
 30
0.0
 40
1.000000000000017
100
AcDbArc
 50
90.0
 51
143.1139143113
  0
ARC
  5
56
330
1F
100
AcDbEntity
  8
0
  6
Continuous
 62
     7
370
    15
100
AcDbCircle
 10
197.0167456241
 20
175.1948211408
 30
0.0
 40
1.0
100
AcDbArc
 50
216.9014908244
 51
270.0
  0
ARC
  5
57
330
1F
100
AcDbEntity
  8
0
  6
Continuous
 62
     7
370
    15
100
AcDbCircle
 10
211.2994186361
 20
175.1948211408
 30
0.0
 40
1.0
100
AcDbArc
 50
270.0
 51
345.0
  0
LINE
  5
58
330
1F
100
AcDbEntity
  8
0
  6
Continuous
 62
     7
370
    15
100
AcDbLine
 10
213.1385423938
 20
178.1948211408
 30
0.0
 11
212.2653444624
 21
174.9360020957
 31
0.0
  0
LINE
  5
59
330
1F
100
AcDbEntity
  8
0
  6
Continuous
 62
     7
370
    15
100
AcDbLine
 10
197.0167456241
 20
122.1948211408
 30
0.0
 11
211.2994186361
 21
122.1948211408
 31
0.0
  0
LINE
  5
5A
330
1F
100
AcDbEntity
  8
0
  6
Continuous
 62
     7
370
    15
100
AcDbLine
 10
211.2994186361
 20
174.1948211408
 30
0.0
 11
197.0167456241
 21
174.1948211408
 31
0.0
  0
ARC
  5
5B
330
1F
100
AcDbEntity
  8
0
  6
Continuous
 62
     7
370
    15
100
AcDbCircle
 10
169.5667456241
 20
123.6243902791
 30
0.0
 40
0.5999999999999943
100
AcDbArc
 50
33.5573097619
 51
90.0
  0
ARC
  5
5C
330
1F
100
AcDbEntity
  8
0
  6
Continuous
 62
     7
370
    15
100
AcDbCircle
 10
169.5667456241
 20
172.7652520025
 30
0.0
 40
0.6000000000000019
100
AcDbArc
 50
270.0
 51
326.4426902381
  0
LINE
  5
5D
330
1F
100
AcDbEntity
  8
0
  6
Continuous
 62
     7
370
    15
100
AcDbLine
 10
156.8352368252
 20
171.8525511609
 30
0.0
 11
144.2667456241
 21
171.222867233
 31
0.0
  0
LINE
  5
5E
330
1F
100
AcDbEntity
  8
0
  6
Continuous
 62
     7
370
    15
100
AcDbLine
 10
168.0667456241
 20
172.4152520025
 30
0.0
 11
165.2497439667
 21
172.274119655
 31
0.0
  0
LINE
  5
5F
330
1F
100
AcDbEntity
  8
0
  6
Continuous
 62
     7
370
    15
100
AcDbLine
 10
165.2498000568
 20
124.1155198165
 30
0.0
 11
168.0667456241
 21
123.9743902791
 31
0.0
  0
LINE
  5
60
330
1F
100
AcDbEntity
  8
0
  6
Continuous
 62
     7
370
    15
100
AcDbLine
 10
148.2667456241
 20
124.966374247
 30
0.0
 11
156.8356393439
 21
124.5370709544
 31
0.0
  0
LINE
  5
61
330
1F
100
AcDbEntity
  8
0
  6
Continuous
 62
     7
370
    15
100
AcDbLine
 10
168.0667456241
 20
123.9743902791
 30
0.0
 11
168.9234583975
 21
124.2039457748
 31
0.0
  0
LINE
  5
62
330
1F
100
AcDbEntity
  8
0
  6
Continuous
 62
     7
370
    15
100
AcDbLine
 10
168.9234583975
 20
172.1856965067
 30
0.0
 11
168.0667456241
 21
172.4152520025
 31
0.0
  0
ARC
  5
63
330
1F
100
AcDbEntity
  8
0
  6
Continuous
 62
     7
370
    15
100
AcDbCircle
 10
169.0787498245
 20
123.6243902791
 30
0.0
 40
0.6000000000000085
100
AcDbArc
 50
90.0
 51
105.0
  0
ARC
  5
64
330
1F
100
AcDbEntity
  8
0
  6
Continuous
 62
     7
370
    15
100
AcDbCircle
 10
169.0787498245
 20
172.7652520025
 30
0.0
 40
0.6000000000000227
100
AcDbArc
 50
255.0
 51
270.0
  0
LINE
  5
65
330
1F
100
AcDbEntity
  8
0
  6
Continuous
 62
     7
370
    15
100
AcDbLine
 10
169.0787498245
 20
124.2243902791
 30
0.0
 11
169.5667456241
 21
124.2243902791
 31
0.0
  0
LINE
  5
66
330
1F
100
AcDbEntity
  8
0
  6
Continuous
 62
     7
370
    15
100
AcDbLine
 10
169.5667456241
 20
172.1652520025
 30
0.0
 11
169.0787498245
 21
172.1652520025
 31
0.0
  0
LINE
  5
67
330
1F
100
AcDbEntity
  8
0
  6
Continuous
 62
     7
370
    15
100
AcDbLine
 10
139.3167456241
 20
127.3248211408
 30
0.0
 11
146.8667456241
 21
127.3248211408
 31
0.0
  0
ARC
  5
68
330
1F
100
AcDbEntity
  8
0
  6
Continuous
 62
     7
370
    15
100
AcDbCircle
 10
146.8667456241
 20
125.9248211408
 30
0.0
 40
1.399999999999989
100
AcDbArc
 50
41.1788388679
 51
90.0
  0
ARC
  5
69
330
1F
100
AcDbEntity
  8
0
  6
Continuous
 62
     7
370
    15
100
AcDbCircle
 10
142.8667456241
 20
170.4648211408
 30
0.0
 40
1.400000000000006
100
AcDbArc
 50
270.0
 51
301.7485287426
  0
LINE
  5
6A
330
1F
100
AcDbEntity
  8
0
  6
Continuous
 62
     7
370
    15
100
AcDbLine
 10
142.8667456241
 20
169.0648211408
 30
0.0
 11
139.441011358
 21
169.0648211408
 31
0.0
  0
LINE
  5
6B
330
1F
100
AcDbEntity
  8
0
  6
Continuous
 62
     7
370
    15
100
AcDbLine
 10
139.2996143047
 20
169.054930369
 30
0.0
 11
138.4320324502
 21
168.5540317517
 31
0.0
  0
LINE
  5
6C
330
1F
100
AcDbEntity
  8
0
  6
Continuous
 62
     7
370
    15
100
AcDbLine
 10
139.3064597806
 20
127.3307596753
 30
0.0
 11
139.3167456241
 21
127.3248211408
 31
0.0
  0
LINE
  5
6D
330
1F
100
AcDbEntity
  8
0
  6
Continuous
 62
     7
370
    15
100
AcDbLine
 10
138.3923682982
 20
127.8585106387
 30
0.0
 11
139.3064597806
 21
127.3307596753
 31
0.0
  0
LWPOLYLINE
  5
6E
330
1F
100
AcDbEntity
  8
0
  6
Continuous
 62
     7
370
    15
100
AcDbPolyline
 90
       29
 70
   128
 43
0.0
 10
261.7853256064
 20
154.9460669412
 10
261.6925849672
 20
154.2679218506
 10
261.6069248119
 20
153.6616667977
 10
261.5326404984
 20
153.1577019424
 10
261.4734569524
 20
152.7812981867
 10
261.4323418839
 20
152.5513299869
 10
261.4113569743
 20
152.4793289086
 10
261.4115544945
 20
152.5689053866
 10
261.43292454
 20
152.8155676823
 10
261.4743955274
 20
153.2069471181
 10
261.5338879284
 20
153.7234182949
 10
261.6084185455
 20
154.3390831914
 10
261.6942501024
 20
155.0230697987
 10
261.7870786464
 20
155.7410801723
 10
261.8822493666
 20
156.457110274
 10
261.9749900059
 20
157.1352553645
 10
262.0606501611
 20
157.7415104174
 10
262.1349344746
 20
158.2454752728
 10
262.1941180207
 20
158.6218790284
 10
262.2352330891
 20
158.8518472283
 10
262.2562179987
 20
158.9238483065
 10
262.2560204785
 20
158.8342718285
 10
262.2346504331
 20
158.5876095329
 10
262.1931794456
 20
158.196230097
 10
262.1336870446
 20
157.6797589202
 10
262.0591564275
 20
157.0640940238
 10
261.9733248706
 20
156.3801074165
 10
261.8804963266
 20
155.6620970428
 10
261.7853256064
 20
154.9460669412
  0
LWPOLYLINE
  5
6F
330
1F
100
AcDbEntity
  8
0
  6
Continuous
 62
     7
370
    15
100
AcDbPolyline
 90
       26
 70
   128
 43
0.0
 10
261.7965091172
 20
155.1204180949
 10
261.716907151
 20
154.539394607
 10
261.6446492061
 20
154.0313960424
 10
261.584275515
 20
153.6283418192
 10
261.5395795787
 20
153.3555573166
 10
261.5133698073
 20
153.2301825881
 10
261.507293057
 20
153.260095389
 10
261.5217311526
 20
153.443416188
 10
261.5557768952
 20
153.7686262651
 10
261.6072910658
 20
154.2152914751
 10
261.6730368395
 20
154.7553462002
 10
261.7488831675
 20
155.3548568157
 10
261.8300643461
 20
155.976153865
 10
261.9114794634
 20
156.5801989693
 10
261.988012908
 20
157.1290377533
 10
262.0548558022
 20
157.5881846577
 10
262.107808161
 20
157.9287897938
 10
262.1435427931
 20
158.1294516883
 10
262.1598143601
 20
158.1775620165
 10
262.1556004596
 20
158.0700978293
 10
262.1311658665
 20
157.813811497
 10
262.088045896
 20
157.4248064323
 10
262.0289499346
 20
156.9275252541
 10
261.9575911988
 20
156.3532139678
 10
261.8784534204
 20
155.7379586636
 10
261.7965091172
 20
155.1204180949
  0
CIRCLE
  5
70
330
1F
100
AcDbEntity
  8
0
  6
Continuous
 62
     7
370
    15
100
AcDbCircle
 10
230.0667456241
 20
168.1948211408
 30
0.0
 40
4.172000000000005
  0
LINE
  5
71
330
1F
100
AcDbEntity
  8
0
  6
Continuous
 62
     7
370
    15
100
AcDbLine
 10
229.8631018414
 20
165.3152617052
 30
0.0
 11
232.4586953556
 21
166.5786807338
 31
0.0
  0
LINE
  5
72
330
1F
100
AcDbEntity
  8
0
  6
Continuous
 62
     7
370
    15
100
AcDbLine
 10
227.6747958925
 20
169.8109615477
 30
0.0
 11
227.4711521098
 21
166.9314021121
 31
0.0
  0
LINE
  5
73
330
1F
100
AcDbEntity
  8
0
  6
Continuous
 62
     7
370
    15
100
AcDbLine
 10
227.6747958925
 20
169.8109615477
 30
0.0
 11
230.2703894068
 21
171.0743805764
 31
0.0
  0
LINE
  5
74
330
1F
100
AcDbEntity
  8
0
  6
Continuous
 62
     7
370
    15
100
AcDbLine
 10
230.2703894068
 20
171.0743805764
 30
0.0
 11
232.6623391384
 21
169.4582401694
 31
0.0
  0
LINE
  5
75
330
1F
100
AcDbEntity
  8
0
  6
Continuous
 62
     7
370
    15
100
AcDbLine
 10
232.4586953556
 20
166.5786807338
 30
0.0
 11
232.6623391384
 21
169.4582401694
 31
0.0
  0
LINE
  5
76
330
1F
100
AcDbEntity
  8
0
  6
Continuous
 62
     7
370
    15
100
AcDbLine
 10
229.8631018414
 20
165.3152617052
 30
0.0
 11
227.4711521098
 21
166.9314021121
 31
0.0
  0
CIRCLE
  5
77
330
1F
100
AcDbEntity
  8
0
  6
Continuous
 62
     7
370
    15
100
AcDbCircle
 10
250.0667456241
 20
168.1948211408
 30
0.0
 40
4.172000000000018
  0
LINE
  5
78
330
1F
100
AcDbEntity
  8
0
  6
Continuous
 62
     7
370
    15
100
AcDbLine
 10
251.4400986628
 20
170.733961697
 30
0.0
 11
248.554461918
 21
170.6537500388
 31
0.0
  0
LINE
  5
79
330
1F
100
AcDbEntity
  8
0
  6
Continuous
 62
     7
370
    15
100
AcDbLine
 10
248.554461918
 20
170.6537500388
 30
0.0
 11
247.1811088792
 21
168.1146094826
 31
0.0
  0
LINE
  5
7A
330
1F
100
AcDbEntity
  8
0
  6
Continuous
 62
     7
370
    15
100
AcDbLine
 10
251.5790293302
 20
165.7358922427
 30
0.0
 11
248.6933925853
 21
165.6556805846
 31
0.0
  0
LINE
  5
7B
330
1F
100
AcDbEntity
  8
0
  6
Continuous
 62
     7
370
    15
100
AcDbLine
 10
251.4400986628
 20
170.733961697
 30
0.0
 11
252.9523823689
 21
168.275032799
 31
0.0
  0
LINE
  5
7C
330
1F
100
AcDbEntity
  8
0
  6
Continuous
 62
     7
370
    15
100
AcDbLine
 10
251.5790293302
 20
165.7358922427
 30
0.0
 11
252.9523823689
 21
168.275032799
 31
0.0
  0
LINE
  5
7D
330
1F
100
AcDbEntity
  8
0
  6
Continuous
 62
     7
370
    15
100
AcDbLine
 10
248.6933925853
 20
165.6556805846
 30
0.0
 11
247.1811088792
 21
168.1146094826
 31
0.0
  0
LINE
  5
7E
330
1F
100
AcDbEntity
  8
0
  6
Continuous
 62
     7
370
    15
100
AcDbLine
 10
191.4586784556
 20
118.0079034445
 30
0.0
 11
191.4586784556
 21
168.0448211408
 31
0.0
  0
SPLINE
  5
7F
330
1F
100
AcDbEntity
  8
0
  6
Continuous
 62
     7
370
    15
100
AcDbSpline
210
0.0
220
0.0
230
1.0
 70
     8
 71
     3
 72
     8
 73
     4
 74
     0
 42
0.00000001
 43
0.00000001
 12
1.0
 22
0.0
 32
0.0
 13
1.0
 23
0.0
 33
0.0
 40
0.0
 40
0.0
 40
0.0
 40
0.0
 40
1.0
 40
1.0
 40
1.0
 40
1.0
 10
191.4586784555641
 20
118.0079034445423
 30
0.0
 10
190.9631987948984
 20
118.9034295324756
 30
0.0
 10
190.4690847468563
 20
119.7997139475279
 30
0.0
 10
189.9767456240751
 20
120.6969839817346
 30
0.0
  0
LINE
  5
80
330
1F
100
AcDbEntity
  8
0
  6
Continuous
 62
     7
370
    15
100
AcDbLine
 10
189.9767456241
 20
120.6969839817
 30
0.0
 11
189.9767456241
 21
168.0448211408
 31
0.0
  0
SPLINE
  5
81
330
1F
100
AcDbEntity
  8
0
  6
Continuous
 62
     7
370
    15
100
AcDbSpline
210
0.0
220
0.0
230
1.0
 70
    24
 71
     3
 72
     8
 73
     4
 74
     0
 42
0.00000001
 43
0.00000001
 12
1.0
 22
0.0
 32
0.0
 13
1.0
 23
0.0
 33
0.0
 40
0.0
 40
0.0
 40
0.0
 40
0.0
 40
1.0
 40
1.0
 40
1.0
 40
1.0
 10
189.9767456240751
 20
168.0448211407895
 30
0.0
 10
190.45669761844
 20
168.0448211407895
 30
0.0
 10
190.9519983474136
 20
168.0448211407895
 30
0.0
 10
191.4586784555642
 20
168.0448211407895
 30
0.0
  0
LINE
  5
82
330
1F
100
AcDbEntity
  8
0
  6
Continuous
 62
     7
370
    15
100
AcDbLine
 10
186.1567456241
 20
120.6969839817
 30
0.0
 11
186.1567456241
 21
168.0448211408
 31
0.0
  0
SPLINE
  5
83
330
1F
100
AcDbEntity
  8
0
  6
Continuous
 62
     7
370
    15
100
AcDbSpline
210
0.0
220
0.0
230
1.0
 70
     8
 71
     3
 72
     8
 73
     4
 74
     0
 42
0.00000001
 43
0.00000001
 12
1.0
 22
0.0
 32
0.0
 13
1.0
 23
0.0
 33
0.0
 40
0.0
 40
0.0
 40
0.0
 40
0.0
 40
1.0
 40
1.0
 40
1.0
 40
1.0
 10
186.1567456240751
 20
120.6969839817346
 30
0.0
 10
185.6644065012939
 20
119.7997139475279
 30
0.0
 10
185.1702924532518
 20
118.9034295324757
 30
0.0
 10
184.6748127925861
 20
118.0079034445423
 30
0.0
  0
LINE
  5
84
330
1F
100
AcDbEntity
  8
0
  6
Continuous
 62
     7
370
    15
100
AcDbLine
 10
184.6748127926
 20
118.0079034445
 30
0.0
 11
184.6748127926
 21
168.0448211408
 31
0.0
  0
SPLINE
  5
85
330
1F
100
AcDbEntity
  8
0
  6
Continuous
 62
     7
370
    15
100
AcDbSpline
210
0.0
220
0.0
230
1.0
 70
    24
 71
     3
 72
     8
 73
     4
 74
     0
 42
0.00000001
 43
0.00000001
 12
1.0
 22
0.0
 32
0.0
 13
1.0
 23
0.0
 33
0.0
 40
0.0
 40
0.0
 40
0.0
 40
0.0
 40
1.0
 40
1.0
 40
1.0
 40
1.0
 10
184.6748127925861
 20
168.0448211407895
 30
0.0
 10
185.1814929007366
 20
168.0448211407895
 30
0.0
 10
185.6767936297102
 20
168.0448211407895
 30
0.0
 10
186.1567456240751
 20
168.0448211407895
 30
0.0
  0
LINE
  5
86
330
1F
100
AcDbEntity
  8
0
  6
Continuous
 62
     7
370
    15
100
AcDbLine
 10
196.0167456241
 20
118.6345437402
 30
0.0
 11
196.0167456241
 21
168.0448211408
 31
0.0
  0
SPLINE
  5
87
330
1F
100
AcDbEntity
  8
0
  6
Continuous
 62
     7
370
    15
100
AcDbSpline
210
0.0
220
0.0
230
1.0
 70
     8
 71
     3
 72
    10
 73
     6
 74
     0
 42
0.00000001
 43
0.00000001
 12
1.0
 22
0.0
 32
0.0
 13
1.0
 23
0.0
 33
0.0
 40
0.0
 40
0.0
 40
0.0
 40
0.0
 40
0.5
 40
0.5
 40
1.0
 40
1.0
 40
1.0
 40
1.0
 10
196.0167456240751
 20
118.6345437401966
 30
0.0
 10
196.0167456240751
 20
118.474656472003
 30
0.0
 10
195.9554359728393
 20
118.3135292164884
 30
0.0
 10
195.7363363353042
 20
118.0794302181335
 30
0.0
 10
195.5782881289907
 20
118.0079034445423
 30
0.0
 10
195.4167456240751
 20
118.0079034445423
 30
0.0
  0
SPLINE
  5
88
330
1F
100
AcDbEntity
  8
0
  6
Continuous
 62
     7
370
    15
100
AcDbSpline
210
0.0
220
0.0
230
1.0
 70
    24
 71
     3
 72
    12
 73
     8
 74
     0
 42
0.00000001
 43
0.00000001
 12
1.0
 22
0.0
 32
0.0
 13
1.0
 23
0.0
 33
0.0
 40
0.0
 40
0.0
 40
0.0
 40
0.0
 40
0.2500000000000006
 40
0.2500000000000006
 40
0.5000000000000012
 40
0.5000000000000012
 40
1.0
 40
1.0
 40
1.0
 40
1.0
 10
195.4167456240751
 20
168.0448211407895
 30
0.0
 10
195.5069846917622
 20
168.0448211407895
 30
0.0
 10
195.5978828058687
 20
168.0448211407895
 30
0.0
 10
195.7524798423572
 20
168.0448211407895
 30
0.0
 10
195.8174582584653
 20
168.0448211407895
 30
0.0
 10
195.9692932864015
 20
168.0448211407895
 30
0.0
 10
196.0167456240751
 20
168.0448211407895
 30
0.0
 10
196.0167456240751
 20
168.0448211407895
 30
0.0
  0
LINE
  5
89
330
1F
100
AcDbEntity
  8
0
  6
Continuous
 62
     7
370
    15
100
AcDbLine
 10
195.4167456241
 20
118.0079034445
 30
0.0
 11
191.4586784556
 21
118.0079034445
 31
0.0
  0
LINE
  5
8A
330
1F
100
AcDbEntity
  8
0
  6
Continuous
 62
     7
370
    15
100
AcDbLine
 10
191.4586784556
 20
168.0448211408
 30
0.0
 11
195.4167456241
 21
168.0448211408
 31
0.0
  0
LINE
  5
8B
330
1F
100
AcDbEntity
  8
0
  6
Continuous
 62
     7
370
    15
100
AcDbLine
 10
175.0167456241
 20
168.0448211408
 30
0.0
 11
184.6748127926
 21
168.0448211408
 31
0.0
  0
LINE
  5
8C
330
1F
100
AcDbEntity
  8
0
  6
Continuous
 62
     7
370
    15
100
AcDbLine
 10
184.6748127926
 20
118.0079034445
 30
0.0
 11
183.0167456241
 21
118.0079034445
 31
0.0
  0
SPLINE
  5
8D
330
1F
100
AcDbEntity
  8
0
  6
Continuous
 62
     7
370
    15
100
AcDbSpline
210
0.0
220
0.0
230
1.0
 70
     8
 71
     3
 72
    28
 73
    24
 74
     0
 42
0.00000001
 43
0.00000001
 12
1.0
 22
0.0
 32
0.0
 13
1.0
 23
0.0
 33
0.0
 40
0.0
 40
0.0
 40
0.0
 40
0.0
 40
0.1250000000000001
 40
0.1250000000000001
 40
0.1875000000000001
 40
0.1875000000000001
 40
0.2500000000000001
 40
0.2500000000000001
 40
0.375
 40
0.375
 40
0.4375000000000001
 40
0.4375000000000001
 40
0.5
 40
0.5
 40
0.625
 40
0.625
 40
0.7499999999999999
 40
0.7499999999999999
 40
0.8124999999999999
 40
0.8124999999999999
 40
0.875
 40
0.875
 40
1.0
 40
1.0
 40
1.0
 40
1.0
 10
183.0167456240751
 20
118.0079034445423
 30
0.0
 10
182.4850378665822
 20
118.0079034445423
 30
0.0
 10
181.9627993012718
 20
117.9921187305921
 30
0.0
 10
181.1929288149969
 20
117.9471233165159
 30
0.0
 10
180.9385692428055
 20
117.9285683214402
 30
0.0
 10
180.434447662107
 20
117.8847155989937
 30
0.0
 10
180.1847248446791
 20
117.8593709920414
 30
0.0
 10
179.4591348932327
 20
117.7759689142913
 30
0.0
 10
179.0007746316511
 20
117.7101033551403
 30
0.0
 10
178.3502766882573
 20
117.6011330146485
 30
0.0
 10
178.1385946374648
 20
117.5628933788818
 30
0.0
 10
177.7345231483268
 20
117.4851346414625
 30
0.0
 10
177.5420166345059
 20
117.4456336792871
 30
0.0
 10
176.9921816634846
 20
117.3267259369211
 30
0.0
 10
176.6622528851758
 20
117.2469082554965
 30
0.0
 10
176.0777816166072
 20
117.0935650937004
 30
0.0
 10
175.8315044785937
 20
117.0222313404312
 30
0.0
 10
175.5316616858956
 20
116.9282878333566
 30
0.0
 10
175.4432048288235
 20
116.8990940399966
 30
0.0
 10
175.2898434755184
 20
116.8456274657332
 30
0.0
 10
175.2247552612921
 20
116.821268131458
 30
0.0
 10
175.0691612453513
 20
116.7576779860133
 30
0.0
 10
175.0167456240751
 20
116.7275750509241
 30
0.0
 10
175.0167456240751
 20
116.7106981579271
 30
0.0
  0
LINE
  5
8E
330
1F
100
AcDbEntity
  8
0
  6
Continuous
 62
     7
370
    15
100
AcDbLine
 10
175.0167456241
 20
116.7106981579
 30
0.0
 11
175.0167456241
 21
116.6948211408
 31
0.0
  0
SPLINE
  5
8F
330
1F
100
AcDbEntity
  8
0
  6
Continuous
 62
     7
370
    15
100
AcDbSpline
210
0.0
220
0.0
230
1.0
 70
     8
 71
     3
 72
    22
 73
    18
 74
     0
 42
0.00000001
 43
0.00000001
 12
1.0
 22
0.0
 32
0.0
 13
1.0
 23
0.0
 33
0.0
 40
0.0
 40
0.0
 40
0.0
 40
0.0
 40
0.1034278614790506
 40
0.1565252440923472
 40
0.2100169463638946
 40
0.3137901453663902
 40
0.3664363657589829
 40
0.4198150504750764
 40
0.5257118757652023
 40
0.5794394749295123
 40
0.6339287133572808
 40
0.6872544630576214
 40
0.7409599762651216
 40
0.7958811174573429
 40
0.8512307557551468
 40
0.9563076756279938
 40
1.0
 40
1.0
 40
1.0
 40
1.0
 10
183.0167456240751
 20
178.6620166139537
 30
0.0
 10
182.5813718884948
 20
178.6672229422724
 30
0.0
 10
181.9224877226754
 20
178.6751020746382
 30
0.0
 10
181.0584482861722
 20
178.7228155956555
 30
0.0
 10
180.2121551007667
 20
178.7857400698811
 30
0.0
 10
179.403333618972
 20
178.871465949457
 30
0.0
 10
178.6490589821533
 20
178.9718473535468
 30
0.0
 10
177.9278325566936
 20
179.0806377111959
 30
0.0
 10
177.2703838804671
 20
179.1967834840521
 30
0.0
 10
176.6926416612369
 20
179.3105581869985
 30
0.0
 10
176.3013254399703
 20
179.3926401618216
 30
0.0
 10
175.9574897560579
 20
179.4686334691029
 30
0.0
 10
175.6625049779155
 20
179.5366748732351
 30
0.0
 10
175.4168019636108
 20
179.5953662190557
 30
0.0
 10
175.1700596211877
 20
179.6559318426147
 30
0.0
 10
175.0307448934043
 20
179.6912693612962
 30
0.0
 10
175.0231734833679
 20
179.6931902418884
 30
0.0
 10
175.0209498214482
 20
179.6937543889898
 30
0.0
  0
LINE
  5
90
330
1F
100
AcDbEntity
  8
0
  6
Continuous
 62
     7
370
    15
100
AcDbLine
 10
184.6748127926
 20
178.662016614
 30
0.0
 11
183.0167456241
 21
178.662016614
 31
0.0
  0
LINE
  5
91
330
1F
100
AcDbEntity
  8
0
  6
Continuous
 62
     7
370
    15
100
AcDbLine
 10
184.6748127926
 20
172.6535108032
 30
0.0
 11
184.6748127926
 21
178.662016614
 31
0.0
  0
LINE
  5
92
330
1F
100
AcDbEntity
  8
0
  6
Continuous
 62
     7
370
    15
100
AcDbLine
 10
182.2623659698
 20
172.6535108032
 30
0.0
 11
184.6748127926
 21
172.6535108032
 31
0.0
  0
SPLINE
  5
93
330
1F
100
AcDbEntity
  8
0
  6
Continuous
 62
     7
370
    15
100
AcDbSpline
210
0.0
220
0.0
230
1.0
 70
     8
 71
     3
 72
    20
 73
    16
 74
     0
 42
0.00000001
 43
0.00000001
 12
1.0
 22
0.0
 32
0.0
 13
1.0
 23
0.0
 33
0.0
 40
0.0
 40
0.0
 40
0.0
 40
0.0
 40
0.2500000000000005
 40
0.2500000000000005
 40
0.3750000000000004
 40
0.3750000000000004
 40
0.5000000000000003
 40
0.5000000000000003
 40
0.6250000000000002
 40
0.6250000000000002
 40
0.7500000000000001
 40
0.7500000000000001
 40
0.8750000000000001
 40
0.8750000000000001
 40
1.0
 40
1.0
 40
1.0
 40
1.0
 10
175.0167456240751
 20
168.0448211407895
 30
0.0
 10
175.2651193583632
 20
168.6986835690869
 30
0.0
 10
175.5846894507085
 20
169.302469351084
 30
0.0
 10
176.2069956839131
 20
170.1293080872526
 30
0.0
 10
176.4384199443439
 20
170.3917367252055
 30
0.0
 10
176.9596342839936
 20
170.8883993793104
 30
0.0
 10
177.2462547666287
 20
171.118986258332
 30
0.0
 10
177.8657395079363
 20
171.5355404829146
 30
0.0
 10
178.2000398874233
 20
171.7230382848821
 30
0.0
 10
178.925300360048
 20
172.0544352625186
 30
0.0
 10
179.3072154174385
 20
172.1939392500138
 30
0.0
 10
180.1020035936102
 20
172.4193927574848
 30
0.0
 10
180.5161617878166
 20
172.5060188690284
 30
0.0
 10
181.381708128398
 20
172.6239996578825
 30
0.0
 10
181.8195957434098
 20
172.6535108031568
 30
0.0
 10
182.2623659697644
 20
172.6535108031568
 30
0.0
  0
LINE
  5
94
330
1F
100
AcDbEntity
  8
0
  6
Continuous
 62
     7
370
    15
100
AcDbLine
 10
170.0667456241
 20
116.9948211408
 30
0.0
 11
170.0667456241
 21
179.3948211352
 31
0.0
  0
SPLINE
  5
95
330
1F
100
AcDbEntity
  8
0
  6
Continuous
 62
     7
370
    15
100
AcDbSpline
210
0.0
220
0.0
230
1.0
 70
     8
 71
     3
 72
    10
 73
     6
 74
     0
 42
0.00000001
 43
0.00000001
 12
1.0
 22
0.0
 32
0.0
 13
1.0
 23
0.0
 33
0.0
 40
0.0
 40
0.0
 40
0.0
 40
0.0
 40
0.5
 40
0.5
 40
1.0
 40
1.0
 40
1.0
 40
1.0
 10
186.5510431557661
 20
174.5948211407894
 30
0.0
 10
186.4295028920975
 20
174.6695473080012
 30
0.0
 10
186.3281685317486
 20
174.778492323918
 30
0.0
 10
186.1925295888602
 20
175.0289228046796
 30
0.0
 10
186.1567456240751
 20
175.1713421667785
 30
0.0
 10
186.1567456240751
 20
175.3144749918252
 30
0.0
  0
SPLINE
  5
96
330
1F
100
AcDbEntity
  8
0
  6
Continuous
 62
     7
370
    15
100
AcDbSpline
210
0.0
220
0.0
230
1.0
 70
    24
 71
     3
 72
    12
 73
     8
 74
     0
 42
0.00000001
 43
0.00000001
 12
1.0
 22
0.0
 32
0.0
 13
1.0
 23
0.0
 33
0.0
 40
0.0
 40
0.0
 40
0.0
 40
0.0
 40
0.2500000000000012
 40
0.2500000000000012
 40
0.5000000000000024
 40
0.5000000000000024
 40
1.0
 40
1.0
 40
1.0
 40
1.0
 10
186.9567456240752
 20
174.5948211407894
 30
0.0
 10
186.9074022622655
 20
174.5948211407894
 30
0.0
 10
186.8587115639639
 20
174.5948211407894
 30
0.0
 10
186.7758604663935
 20
174.5948211407894
 30
0.0
 10
186.7396604987728
 20
174.5948211407894
 30
0.0
 10
186.6439105822235
 20
174.5948211407894
 30
0.0
 10
186.5940286124114
 20
174.5948211407894
 30
0.0
 10
186.5510431557661
 20
174.5948211407894
 30
0.0
  0
SPLINE
  5
97
330
1F
100
AcDbEntity
  8
0
  6
Continuous
 62
     7
370
    15
100
AcDbSpline
210
0.0
220
0.0
230
1.0
 70
    24
 71
     3
 72
    14
 73
    10
 74
     0
 42
0.00000001
 43
0.00000001
 12
1.0
 22
0.0
 32
0.0
 13
1.0
 23
0.0
 33
0.0
 40
0.0
 40
0.0
 40
0.0
 40
0.0
 40
0.1250000000000007
 40
0.1250000000000007
 40
0.2500000000000014
 40
0.2500000000000014
 40
0.5000000000000002
 40
0.5000000000000002
 40
1.0
 40
1.0
 40
1.0
 40
1.0
 10
186.9567456240751
 20
121.7948211407894
 30
0.0
 10
186.887398902344
 20
121.7948211407894
 30
0.0
 10
186.82220084896
 20
121.7948211407895
 30
0.0
 10
186.7178216563331
 20
121.7948211407894
 30
0.0
 10
186.674919285324
 20
121.7948211407894
 30
0.0
 10
186.5625936277193
 20
121.7948211407894
 30
0.0
 10
186.5073699333655
 20
121.7948211407894
 30
0.0
 10
186.363312554598
 20
121.7948211407895
 30
0.0
 10
186.3012318577665
 20
121.7948211407894
 30
0.0
 10
186.2544204264074
 20
121.7948211407894
 30
0.0
  0
SPLINE
  5
98
330
1F
100
AcDbEntity
  8
0
  6
Continuous
 62
     7
370
    15
100
AcDbSpline
210
0.0
220
0.0
230
1.0
 70
     8
 71
     3
 72
     9
 73
     5
 74
     0
 42
0.00000001
 43
0.00000001
 12
1.0
 22
0.0
 32
0.0
 13
1.0
 23
0.0
 33
0.0
 40
0.0
 40
0.0
 40
0.0
 40
0.0
 40
0.5
 40
1.0
 40
1.0
 40
1.0
 40
1.0
 10
186.1567456240751
 20
168.3306877722508
 30
0.0
 10
186.1567456240751
 20
168.2824557201281
 30
0.0
 10
186.1611515987803
 20
168.1865857066885
 30
0.0
 10
186.1741707788741
 20
168.0918770767052
 30
0.0
 10
186.1828932472352
 20
168.0448211407895
 30
0.0
  0
SPLINE
  5
99
330
1F
100
AcDbEntity
  8
0
  6
Continuous
 62
     7
370
    15
100
AcDbSpline
210
0.0
220
0.0
230
1.0
 70
    24
 71
     3
 72
    14
 73
    10
 74
     0
 42
0.00000001
 43
0.00000001
 12
1.0
 22
0.0
 32
0.0
 13
1.0
 23
0.0
 33
0.0
 40
0.0
 40
0.0
 40
0.0
 40
0.0
 40
0.5000000000000027
 40
0.5000000000000027
 40
0.7500000000000013
 40
0.7500000000000013
 40
0.8750000000000007
 40
0.8750000000000007
 40
1.0
 40
1.0
 40
1.0
 40
1.0
 10
189.8790708217428
 20
121.7948211407894
 30
0.0
 10
189.8322861166946
 20
121.7948211407894
 30
0.0
 10
189.770234919915
 20
121.7948211407895
 30
0.0
 10
189.6268432813647
 20
121.7948211407895
 30
0.0
 10
189.5706996278134
 20
121.7948211407895
 30
0.0
 10
189.457748605677
 20
121.7948211407894
 30
0.0
 10
189.4147478436389
 20
121.7948211407894
 30
0.0
 10
189.3106851333324
 20
121.7948211407894
 30
0.0
 10
189.2453528949755
 20
121.7948211407895
 30
0.0
 10
189.1767456240751
 20
121.7948211407894
 30
0.0
  0
SPLINE
  5
9A
330
1F
100
AcDbEntity
  8
0
  6
Continuous
 62
     7
370
    15
100
AcDbSpline
210
0.0
220
0.0
230
1.0
 70
    24
 71
     3
 72
    12
 73
     8
 74
     0
 42
0.00000001
 43
0.00000001
 12
1.0
 22
0.0
 32
0.0
 13
1.0
 23
0.0
 33
0.0
 40
0.0
 40
0.0
 40
0.0
 40
0.0
 40
0.5000000000000024
 40
0.5000000000000024
 40
0.7500000000000012
 40
0.7500000000000012
 40
1.0
 40
1.0
 40
1.0
 40
1.0
 10
189.5824480923841
 20
174.5948211407894
 30
0.0
 10
189.5393625427734
 20
174.5948211407894
 30
0.0
 10
189.4902103410262
 20
174.5948211407894
 30
0.0
 10
189.3937377467367
 20
174.5948211407894
 30
0.0
 10
189.3576361616025
 20
174.5948211407894
 30
0.0
 10
189.2745304037399
 20
174.5948211407894
 30
0.0
 10
189.2265338067758
 20
174.5948211407894
 30
0.0
 10
189.1767456240751
 20
174.5948211407894
 30
0.0
  0
SPLINE
  5
9B
330
1F
100
AcDbEntity
  8
0
  6
Continuous
 62
     7
370
    15
100
AcDbSpline
210
0.0
220
0.0
230
1.0
 70
     8
 71
     3
 72
    10
 73
     6
 74
     0
 42
0.00000001
 43
0.00000001
 12
1.0
 22
0.0
 32
0.0
 13
1.0
 23
0.0
 33
0.0
 40
0.0
 40
0.0
 40
0.0
 40
0.0
 40
0.5
 40
0.5
 40
1.0
 40
1.0
 40
1.0
 40
1.0
 10
189.9767456240751
 20
175.3144749918252
 30
0.0
 10
189.9767456240751
 20
175.1707049340072
 30
0.0
 10
189.9406965653562
 20
175.0282855715121
 30
0.0
 10
189.8051877045822
 20
174.7783912781548
 30
0.0
 10
189.705311711486
 20
174.6703609419066
 30
0.0
 10
189.5824480923841
 20
174.5948211407894
 30
0.0
  0
SPLINE
  5
9C
330
1F
100
AcDbEntity
  8
0
  6
Continuous
 62
     7
370
    15
100
AcDbSpline
210
0.0
220
0.0
230
1.0
 70
     8
 71
     3
 72
    10
 73
     6
 74
     0
 42
0.00000001
 43
0.00000001
 12
1.0
 22
0.0
 32
0.0
 13
1.0
 23
0.0
 33
0.0
 40
0.0
 40
0.0
 40
0.0
 40
0.0
 40
0.5
 40
0.5
 40
1.0
 40
1.0
 40
1.0
 40
1.0
 10
189.950598000915
 20
168.0448211407895
 30
0.0
 10
189.9592876438267
 20
168.0916999901076
 30
0.0
 10
189.9658267085771
 20
168.1391224555089
 30
0.0
 10
189.9745853429702
 20
168.2350592540956
 30
0.0
 10
189.9767456240751
 20
168.2829745421061
 30
0.0
 10
189.9767456240751
 20
168.3306877722506
 30
0.0
  0
LINE
  5
9D
330
1F
100
AcDbEntity
  8
0
  6
Continuous
 62
     7
370
    15
100
AcDbLine
 10
189.1767456241
 20
174.5948211408
 30
0.0
 11
186.9567456241
 21
174.5948211408
 31
0.0
  0
LINE
  5
9E
330
1F
100
AcDbEntity
  8
0
  6
Continuous
 62
     7
370
    15
100
AcDbLine
 10
189.1767456241
 20
121.7948211408
 30
0.0
 11
186.9567456241
 21
121.7948211408
 31
0.0
  0
LINE
  5
9F
330
1F
100
AcDbEntity
  8
0
  6
Continuous
 62
     7
370
    15
100
AcDbLine
 10
196.2167444971
 20
174.5948211408
 30
0.0
 11
196.1842349677
 21
174.5948211408
 31
0.0
  0
LINE
  5
A0
330
1F
100
AcDbEntity
  8
0
  6
Continuous
 62
     7
370
    15
100
AcDbLine
 10
196.2167444579
 20
121.7948211408
 30
0.0
 11
196.1859526202
 21
121.7948211408
 31
0.0
  0
SPLINE
  5
A1
330
1F
100
AcDbEntity
  8
0
  6
Continuous
 62
     7
370
    15
100
AcDbSpline
210
0.0
220
0.0
230
1.0
 70
     8
 71
     3
 72
    14
 73
    10
 74
     0
 42
0.00000001
 43
0.00000001
 12
1.0
 22
0.0
 32
0.0
 13
1.0
 23
0.0
 33
0.0
 40
0.0
 40
0.0
 40
0.0
 40
0.0
 40
0.5000000000000003
 40
0.5000000000000003
 40
0.7500000000000002
 40
0.7500000000000002
 40
0.8750000000000001
 40
0.8750000000000001
 40
1.0
 40
1.0
 40
1.0
 40
1.0
 10
212.2653444623852
 20
154.4470814410786
 30
0.0
 10
212.1995970372245
 20
153.3976119227955
 30
0.0
 10
212.0535264181239
 20
152.3491258998334
 30
0.0
 10
211.7930454349466
 20
150.7872825517168
 30
0.0
 10
211.6986014064693
 20
150.2680058568153
 30
0.0
 10
211.5515899161213
 20
149.4900296177277
 30
0.0
 10
211.5016831808528
 20
149.2308627789403
 30
0.0
 10
211.4009806547503
 20
148.71268524325
 30
0.0
 10
211.3499636814455
 20
148.4525525856038
 30
0.0
 10
211.2994186360962
 20
148.1948211407894
 30
0.0
  0
SPLINE
  5
A2
330
1F
100
AcDbEntity
  8
0
  6
Continuous
 62
     7
370
    15
100
AcDbSpline
210
0.0
220
0.0
230
1.0
 70
     8
 71
     3
 72
     8
 73
     4
 74
     0
 42
0.00000001
 43
0.00000001
 12
1.0
 22
0.0
 32
0.0
 13
1.0
 23
0.0
 33
0.0
 40
0.0
 40
0.0
 40
0.0
 40
0.0
 40
1.0
 40
1.0
 40
1.0
 40
1.0
 10
212.6645907612478
 20
137.1948211407894
 30
0.0
 10
212.4996906692012
 20
138.7742676456744
 30
0.0
 10
212.3646984046913
 20
140.3566594349882
 30
0.0
 10
212.2653444623863
 20
141.942560840483
 30
0.0
  0
SPLINE
  5
A3
330
1F
100
AcDbEntity
  8
0
  6
Continuous
 62
     7
370
    15
100
AcDbSpline
210
0.0
220
0.0
230
1.0
 70
     8
 71
     3
 72
    12
 73
     8
 74
     0
 42
0.00000001
 43
0.00000001
 12
1.0
 22
0.0
 32
0.0
 13
1.0
 23
0.0
 33
0.0
 40
0.0
 40
0.0
 40
0.0
 40
0.0
 40
0.5
 40
0.5
 40
0.75
 40
0.75
 40
1.0
 40
1.0
 40
1.0
 40
1.0
 10
211.2994186360962
 20
148.1948211407894
 30
0.0
 10
211.5025349753165
 20
147.1591217850222
 30
0.0
 10
211.7061797988052
 20
146.123113102807
 30
0.0
 10
211.9665275593363
 20
144.5622076646672
 30
0.0
 10
212.0457365244918
 20
144.0407848456011
 30
0.0
 10
212.1785807275684
 20
142.9941539232447
 30
0.0
 10
212.2324319759133
 20
142.4679145138839
 30
0.0
 10
212.2653444623863
 20
141.942560840483
 30
0.0
  0
SPLINE
  5
A4
330
1F
100
AcDbEntity
  8
0
  6
Continuous
 62
     7
370
    15
100
AcDbSpline
210
0.0
220
0.0
230
1.0
 70
     8
 71
     3
 72
    12
 73
     8
 74
     0
 42
0.00000001
 43
0.00000001
 12
1.0
 22
0.0
 32
0.0
 13
1.0
 23
0.0
 33
0.0
 40
0.0
 40
0.0
 40
0.0
 40
0.0
 40
0.2500000000000001
 40
0.2500000000000001
 40
0.5000000000000002
 40
0.5000000000000002
 40
1.0
 40
1.0
 40
1.0
 40
1.0
 10
212.2653444623852
 20
154.4470814410786
 30
0.0
 10
212.390366560625
 20
156.4427015112741
 30
0.0
 10
212.5732460180905
 20
158.4474260143582
 30
0.0
 10
213.0280840506011
 20
162.4315225709103
 30
0.0
 10
213.2997885647252
 20
164.4149573084798
 30
0.0
 10
214.2111391058332
 20
170.3465434002239
 30
0.0
 10
214.9439544092617
 20
174.2765733062073
 30
0.0
 10
215.7373458352984
 20
178.1948211407894
 30
0.0
  0
LINE
  5
A5
330
1F
100
AcDbEntity
  8
0
  6
Continuous
 62
     7
370
    15
100
AcDbLine
 10
215.7373458353
 20
178.1948211408
 30
0.0
 11
260.0667456241
 21
178.1948211408
 31
0.0
  0
LINE
  5
A6
330
1F
100
AcDbEntity
  8
0
  6
Continuous
 62
     7
370
    15
100
AcDbLine
 10
260.0667456241
 20
178.1948211408
 30
0.0
 11
260.0667456241
 21
137.1948211408
 31
0.0
  0
LINE
  5
A7
330
1F
100
AcDbEntity
  8
0
  6
Continuous
 62
     7
370
    15
100
AcDbLine
 10
212.6645907612
 20
137.1948211408
 30
0.0
 11
260.0667456241
 21
137.1948211408
 31
0.0
  0
CIRCLE
  5
A8
330
1F
100
AcDbEntity
  8
0
  6
Continuous
 62
     7
370
    15
100
AcDbCircle
 10
250.0667456241
 20
168.1948211408
 30
0.0
 40
5.025000000000006
  0
CIRCLE
  5
A9
330
1F
100
AcDbEntity
  8
0
  6
Continuous
 62
     7
370
    15
100
AcDbCircle
 10
230.0667456241
 20
168.1948211408
 30
0.0
 40
5.025000000000006
  0
SPLINE
  5
AA
330
1F
100
AcDbEntity
  8
0
  6
Continuous
 62
     7
370
    15
100
AcDbSpline
210
0.0
220
0.0
230
1.0
 70
    24
 71
     3
 72
    12
 73
     8
 74
     0
 42
0.00000001
 43
0.00000001
 12
1.0
 22
0.0
 32
0.0
 13
1.0
 23
0.0
 33
0.0
 40
0.0
 40
0.0
 40
0.0
 40
0.0
 40
0.2247785748064659
 40
0.4497311962363981
 40
0.6426521647189597
 40
0.8355589348442419
 40
1.0
 40
1.0
 40
1.0
 40
1.0
 10
215.7373458352984
 20
178.1948211407894
 30
0.0
 10
215.4106191519577
 20
178.1948211407894
 30
0.0
 10
214.7569127999724
 20
178.1948211407894
 30
0.0
 10
214.0125937380979
 20
178.1948211407894
 30
0.0
 10
213.4906423947951
 20
178.1948211407894
 30
0.0
 10
213.1847803338559
 20
178.1948211407894
 30
0.0
 10
213.1638543043937
 20
178.1948211407894
 30
0.0
 10
213.1542247551577
 20
178.1948211407894
 30
0.0
  0
SPLINE
  5
AB
330
1F
100
AcDbEntity
  8
0
  6
Continuous
 62
     7
370
    15
100
AcDbSpline
210
0.0
220
0.0
230
1.0
 70
     8
 71
     3
 72
    16
 73
    12
 74
     0
 42
0.00000001
 43
0.00000001
 12
1.0
 22
0.0
 32
0.0
 13
1.0
 23
0.0
 33
0.0
 40
0.0
 40
0.0
 40
0.0
 40
0.0
 40
0.25
 40
0.25
 40
0.5
 40
0.5
 40
0.625
 40
0.625
 40
0.75
 40
0.75
 40
1.0
 40
1.0
 40
1.0
 40
1.0
 10
212.2653444623854
 20
133.605751903573
 30
0.0
 10
212.2142060200952
 20
132.9532744604398
 30
0.0
 10
212.1149315989881
 20
132.3036075739184
 30
0.0
 10
211.9299680932457
 20
131.0034818681082
 30
0.0
 10
211.8468613519052
 20
130.3530099286526
 30
0.0
 10
211.8463904298297
 20
129.3718829192199
 30
0.0
 10
211.8661158556819
 20
129.0440723054529
 30
0.0
 10
211.9311835349537
 20
128.3911845515258
 30
0.0
 10
211.9756136355732
 20
128.0654260225319
 30
0.0
 10
212.1145526007089
 20
127.0884758571188
 30
0.0
 10
212.2141113948069
 20
126.4375751489998
 30
0.0
 10
212.2653444623854
 20
125.7838903780058
 30
0.0
  0
SPLINE
  5
AC
330
1F
100
AcDbEntity
  8
0
  6
Continuous
 62
     7
370
    15
100
AcDbSpline
210
0.0
220
0.0
230
1.0
 70
    24
 71
     3
 72
    14
 73
    10
 74
     0
 42
0.00000001
 43
0.00000001
 12
1.0
 22
0.0
 32
0.0
 13
1.0
 23
0.0
 33
0.0
 40
0.0
 40
0.0
 40
0.0
 40
0.0
 40
0.5000000000000002
 40
0.5000000000000002
 40
0.7500000000000001
 40
0.7500000000000001
 40
0.875
 40
0.875
 40
1.0
 40
1.0
 40
1.0
 40
1.0
 10
212.2653444623852
 20
122.1948211407894
 30
0.0
 10
212.1995970372245
 20
122.1948211407894
 30
0.0
 10
212.053526418124
 20
122.1948211407894
 30
0.0
 10
211.7930454349466
 20
122.1948211407894
 30
0.0
 10
211.6986014064693
 20
122.1948211407894
 30
0.0
 10
211.5515899161213
 20
122.1948211407894
 30
0.0
 10
211.5016831808528
 20
122.1948211407894
 30
0.0
 10
211.4009806547503
 20
122.1948211407894
 30
0.0
 10
211.3499636814458
 20
122.1948211407894
 30
0.0
 10
211.2994186360962
 20
122.1948211407894
 30
0.0
  0
SPLINE
  5
AD
330
1F
100
AcDbEntity
  8
0
  6
Continuous
 62
     7
370
    15
100
AcDbSpline
210
0.0
220
0.0
230
1.0
 70
     8
 71
     3
 72
     8
 73
     4
 74
     0
 42
0.00000001
 43
0.00000001
 12
1.0
 22
0.0
 32
0.0
 13
1.0
 23
0.0
 33
0.0
 40
0.0
 40
0.0
 40
0.0
 40
0.0
 40
1.0
 40
1.0
 40
1.0
 40
1.0
 10
212.2653444623852
 20
133.605751903573
 30
0.0
 10
212.3589542089116
 20
134.8001224266177
 30
0.0
 10
212.493998366882
 20
135.9965775519322
 30
0.0
 10
212.6645907612478
 20
137.1948211407894
 30
0.0
  0
CIRCLE
  5
AE
330
1F
100
AcDbEntity
  8
0
  6
Continuous
 62
     7
370
    15
100
AcDbCircle
 10
250.0667456241
 20
168.1948211408
 30
0.0
 40
4.25
  0
CIRCLE
  5
AF
330
1F
100
AcDbEntity
  8
0
  6
Continuous
 62
     7
370
    15
100
AcDbCircle
 10
230.0667456241
 20
168.1948211408
 30
0.0
 40
4.25
  0
SPLINE
  5
B0
330
1F
100
AcDbEntity
  8
0
  6
Continuous
 62
     7
370
    15
100
AcDbSpline
210
0.0
220
0.0
230
1.0
 70
     8
 71
     3
 72
     8
 73
     4
 74
     0
 42
0.00000001
 43
0.00000001
 12
1.0
 22
0.0
 32
0.0
 13
1.0
 23
0.0
 33
0.0
 40
0.0
 40
0.0
 40
0.0
 40
0.0
 40
1.0
 40
1.0
 40
1.0
 40
1.0
 10
212.6645907612477
 20
122.1948211407894
 30
0.0
 10
212.4945318951358
 20
123.3893172190264
 30
0.0
 10
212.3592642776012
 20
124.5855636760724
 30
0.0
 10
212.2653444623852
 20
125.7838903780058
 30
0.0
  0
LINE
  5
B1
330
1F
100
AcDbEntity
  8
0
  6
Continuous
 62
     7
370
    15
100
AcDbLine
 10
212.6645907612
 20
122.1948211408
 30
0.0
 11
260.0667456241
 21
122.1948211408
 31
0.0
  0
LINE
  5
B2
330
1F
100
AcDbEntity
  8
0
  6
Continuous
 62
     7
370
    15
100
AcDbLine
 10
260.0667456241
 20
137.1948211408
 30
0.0
 11
260.0667456241
 21
122.1948211408
 31
0.0
  0
LINE
  5
B3
330
1F
100
AcDbEntity
  8
0
  6
Continuous
 62
     7
370
    15
100
AcDbLine
 10
148.2667456241
 20
124.966374247
 30
0.0
 11
148.2667456241
 21
126.2205054326
 31
0.0
  0
SPLINE
  5
B4
330
1F
100
AcDbEntity
  8
0
  6
Continuous
 62
     7
370
    15
100
AcDbSpline
210
0.0
220
0.0
230
1.0
 70
     8
 71
     3
 72
    12
 73
     8
 74
     0
 42
0.00000001
 43
0.00000001
 12
1.0
 22
0.0
 32
0.0
 13
1.0
 23
0.0
 33
0.0
 40
0.0
 40
0.0
 40
0.0
 40
0.0
 40
0.25
 40
0.25
 40
0.5
 40
0.5
 40
1.0
 40
1.0
 40
1.0
 40
1.0
 10
147.5420729712081
 20
127.3353282527634
 30
0.0
 10
147.5909135415432
 20
127.2294286054921
 30
0.0
 10
147.6759604567431
 20
127.1274950440846
 30
0.0
 10
147.8456118653066
 20
126.9309888388464
 30
0.0
 10
147.9320738640329
 20
126.8359614772475
 30
0.0
 10
148.1574670689498
 20
126.5586829828885
 30
0.0
 10
148.2667456240751
 20
126.3839656100777
 30
0.0
 10
148.2667456240751
 20
126.2205054326324
 30
0.0
  0
SPLINE
  5
B5
330
1F
100
AcDbEntity
  8
0
  6
Continuous
 62
     7
370
    15
100
AcDbSpline
210
0.0
220
0.0
230
1.0
 70
     8
 71
     3
 72
    14
 73
    10
 74
     0
 42
0.00000001
 43
0.00000001
 12
1.0
 22
0.0
 32
0.0
 13
1.0
 23
0.0
 33
0.0
 40
0.0
 40
0.0
 40
0.0
 40
0.0
 40
0.1250000000000015
 40
0.1250000000000015
 40
0.2500000000000029
 40
0.2500000000000029
 40
0.500000000000003
 40
0.500000000000003
 40
1.0
 40
1.0
 40
1.0
 40
1.0
 10
146.8667456240751
 20
127.8719177152375
 30
0.0
 10
146.9235203792957
 20
127.8783861683762
 30
0.0
 10
146.9862034802248
 20
127.8725288651674
 30
0.0
 10
147.0920912547628
 20
127.8426325438296
 30
0.0
 10
147.135995512364
 20
127.8207576018746
 30
0.0
 10
147.2484287605216
 20
127.7513863152078
 30
0.0
 10
147.301556964384
 20
127.6988872610065
 30
0.0
 10
147.4365444261241
 20
127.5436042526882
 30
0.0
 10
147.494805137604
 20
127.4378177788539
 30
0.0
 10
147.5420729712225
 20
127.3353282527643
 30
0.0
  0
SPLINE
  5
B6
330
1F
100
AcDbEntity
  8
0
  6
Continuous
 62
     7
370
    15
100
AcDbSpline
210
0.0
220
0.0
230
1.0
 70
     8
 71
     3
 72
    10
 73
     6
 74
     0
 42
0.00000001
 43
0.00000001
 12
1.0
 22
0.0
 32
0.0
 13
1.0
 23
0.0
 33
0.0
 40
0.0
 40
0.0
 40
0.0
 40
0.0
 40
0.5
 40
0.5
 40
1.0
 40
1.0
 40
1.0
 40
1.0
 10
144.0946192473602
 20
127.498506392926
 30
0.0
 10
144.5415601885847
 20
127.5722318526051
 30
0.0
 10
145.0016720771269
 20
127.6385605044853
 30
0.0
 10
145.9285617808715
 20
127.7615899733187
 30
0.0
 10
146.3962655129072
 20
127.818315043769
 30
0.0
 10
146.8667456240751
 20
127.8719177152375
 30
0.0
  0
SPLINE
  5
B7
330
1F
100
AcDbEntity
  8
0
  6
Continuous
 62
     7
370
    15
100
AcDbSpline
210
0.0
220
0.0
230
1.0
 70
     8
 71
     3
 72
    14
 73
    10
 74
     0
 42
0.00000001
 43
0.00000001
 12
1.0
 22
0.0
 32
0.0
 13
1.0
 23
0.0
 33
0.0
 40
0.0
 40
0.0
 40
0.0
 40
0.0
 40
0.4999999999999978
 40
0.4999999999999978
 40
0.7499999999999978
 40
0.7499999999999978
 40
0.8749999999999989
 40
0.8749999999999989
 40
1.0
 40
1.0
 40
1.0
 40
1.0
 10
139.3167456240751
 20
127.3250856078985
 30
0.0
 10
140.1246426481731
 20
127.3264978399237
 30
0.0
 10
140.9304068164994
 20
127.3328908176409
 30
0.0
 10
142.1308474875076
 20
127.3619426292757
 30
0.0
 10
142.5296663408013
 20
127.3747755650494
 30
0.0
 10
143.12319469095
 20
127.4052337466149
 30
0.0
 10
143.3202575893481
 20
127.4172463768768
 30
0.0
 10
143.7111966241974
 20
127.4488878441553
 30
0.0
 10
143.9055716760209
 20
127.4673219168295
 30
0.0
 10
144.0946192473602
 20
127.498506392926
 30
0.0
  0
SPLINE
  5
B8
330
1F
100
AcDbEntity
  8
0
  6
Continuous
 62
     7
370
    15
100
AcDbSpline
210
0.0
220
0.0
230
1.0
 70
     8
 71
     3
 72
     8
 73
     4
 74
     0
 42
0.00000001
 43
0.00000001
 12
1.0
 22
0.0
 32
0.0
 13
1.0
 23
0.0
 33
0.0
 40
0.0000003409637668
 40
0.0000003409637668
 40
0.0000003409637668
 40
0.0000003409637668
 40
0.000017415394438
 40
0.000017415394438
 40
0.000017415394438
 40
0.000017415394438
 10
139.3067006936569
 20
127.3310814056903
 30
0.0
 10
139.3100393444152
 20
127.3290791705929
 30
0.0
 10
139.3133877195949
 20
127.3270805788227
 30
0.0
 10
139.3167456240751
 20
127.3250856078985
 30
0.0
  0
SPLINE
  5
B9
330
1F
100
AcDbEntity
  8
0
  6
Continuous
 62
     7
370
    15
100
AcDbSpline
210
0.0
220
0.0
230
1.0
 70
     8
 71
     3
 72
     8
 73
     4
 74
     0
 42
0.00000001
 43
0.00000001
 12
1.0
 22
0.0
 32
0.0
 13
1.0
 23
0.0
 33
0.0
 40
0.0000003292049707
 40
0.0000003292049707
 40
0.0000003292049707
 40
0.0000003292049707
 40
0.0000169050949325
 40
0.0000169050949325
 40
0.0000169050949325
 40
0.0000169050949325
 10
139.3167456240751
 20
169.0647589061845
 30
0.0
 10
139.3133890419383
 20
169.0628469120877
 30
0.0
 10
139.3100406778128
 20
169.0609316218326
 30
0.0
 10
139.3067006936437
 20
169.0590130132172
 30
0.0
  0
SPLINE
  5
BA
330
1F
100
AcDbEntity
  8
0
  6
Continuous
 62
     7
370
    15
100
AcDbSpline
210
0.0
220
0.0
230
1.0
 70
     8
 71
     3
 72
    10
 73
     6
 74
     0
 42
0.00000001
 43
0.00000001
 12
1.0
 22
0.0
 32
0.0
 13
1.0
 23
0.0
 33
0.0
 40
0.0
 40
0.0
 40
0.0
 40
0.0
 40
0.5
 40
0.5
 40
1.0
 40
1.0
 40
1.0
 40
1.0
 10
142.8667456240751
 20
169.0179085326172
 30
0.0
 10
142.2791600769845
 20
169.0389740528536
 30
0.0
 10
141.6884136835241
 20
169.0497325387258
 30
0.0
 10
140.5043945182253
 20
169.0630973192615
 30
0.0
 10
139.9109805300198
 20
169.0652399619261
 30
0.0
 10
139.3167456240751
 20
169.0647589061845
 30
0.0
  0
SPLINE
  5
BB
330
1F
100
AcDbEntity
  8
0
  6
Continuous
 62
     7
370
    15
100
AcDbSpline
210
0.0
220
0.0
230
1.0
 70
     8
 71
     3
 72
    18
 73
    14
 74
     0
 42
0.00000001
 43
0.00000001
 12
1.0
 22
0.0
 32
0.0
 13
1.0
 23
0.0
 33
0.0
 40
0.0
 40
0.0
 40
0.0
 40
0.0
 40
0.2500000000000003
 40
0.2500000000000003
 40
0.4999999999999999
 40
0.4999999999999999
 40
0.7499999999999996
 40
0.7499999999999996
 40
0.8749999999999993
 40
0.8749999999999993
 40
0.9374999999999997
 40
0.9374999999999997
 40
1.0
 40
1.0
 40
1.0
 40
1.0
 10
144.2667456240751
 20
170.0389288131524
 30
0.0
 10
144.2667456240752
 20
169.9557219042952
 30
0.0
 10
144.2308965241369
 20
169.8669852489817
 30
0.0
 10
144.106024788103
 20
169.6848600584214
 30
0.0
 10
144.0156243704551
 20
169.5897300097948
 30
0.0
 10
143.7933817157129
 20
169.4005485006705
 30
0.0
 10
143.6636169292671
 20
169.3056033325758
 30
0.0
 10
143.4229794719556
 20
169.1673246249958
 30
0.0
 10
143.3352121738182
 20
169.1216141916935
 30
0.0
 10
143.1806880866114
 20
169.063790886472
 30
0.0
 10
143.1240772005566
 20
169.0460761224341
 30
0.0
 10
143.00003316965
 20
169.0215368192012
 30
0.0
 10
142.9323184946317
 20
169.0155576806629
 30
0.0
 10
142.8667456240751
 20
169.0179085326172
 30
0.0
  0
LINE
  5
BC
330
1F
100
AcDbEntity
  8
0
  6
Continuous
 62
     7
370
    15
100
AcDbLine
 10
144.2667456241
 20
170.0389288132
 30
0.0
 11
144.2667456241
 21
171.222867233
 31
0.0
  0
LINE
  5
BD
330
1F
100
AcDbEntity
  8
0
  6
Continuous
 62
     7
370
    15
100
AcDbLine
 10
168.0667456241
 20
123.9743902791
 30
0.0
 11
168.0667456241
 21
172.4152520025
 31
0.0
  0
SPLINE
  5
BE
330
1F
100
AcDbEntity
  8
0
  6
Continuous
 62
     7
370
    15
100
AcDbSpline
210
0.0
220
0.0
230
1.0
 70
     8
 71
     3
 72
    24
 73
    20
 74
     0
 42
0.00000001
 43
0.00000001
 12
1.0
 22
0.0
 32
0.0
 13
1.0
 23
0.0
 33
0.0
 40
0.0
 40
0.0
 40
0.0
 40
0.0
 40
0.0010489762969683
 40
0.0637843125639743
 40
0.1272220590447995
 40
0.1903788924486898
 40
0.252674865369359
 40
0.3146354154430904
 40
0.3770891997150003
 40
0.4393540298512115
 40
0.500813324253785
 40
0.5621845104595019
 40
0.6248438451115881
 40
0.6874304766624255
 40
0.7496743174679408
 40
0.8119848426977112
 40
0.8750960525413178
 40
0.9384412526965089
 40
1.0
 40
1.0
 40
1.0
 40
1.0
 10
156.8356514560508
 20
124.5373127122093
 30
0.0
 10
156.8352049959466
 20
124.5372544263904
 30
0.0
 10
156.8080574322527
 20
124.5337102844478
 30
0.0
 10
156.9036692098653
 20
124.5465440291307
 30
0.0
 10
157.1372294677608
 20
124.5757907143308
 30
0.0
 10
157.5327837750791
 20
124.6224050373935
 30
0.0
 10
158.0598240789176
 20
124.672588179053
 30
0.0
 10
158.7033544909053
 20
124.7169646415034
 30
0.0
 10
159.4420283461503
 20
124.7439094224409
 30
0.0
 10
160.239542851582
 20
124.747381273147
 30
0.0
 10
161.0661217340275
 20
124.719754029117
 30
0.0
 10
161.8916447516357
 20
124.6612751401442
 30
0.0
 10
162.6837712996389
 20
124.5758301107832
 30
0.0
 10
163.4163435736392
 20
124.4740958709469
 30
0.0
 10
164.051983810369
 20
124.3662527489744
 30
0.0
 10
164.5738949173758
 20
124.2646225922356
 30
0.0
 10
164.9555236944915
 20
124.1821374355574
 30
0.0
 10
165.2063381647253
 20
124.1259882292077
 30
0.0
 10
165.2354597207096
 20
124.119138770594
 30
0.0
 10
165.2498122415258
 20
124.1157630238658
 30
0.0
  0
SPLINE
  5
BF
330
1F
100
AcDbEntity
  8
0
  6
Continuous
 62
     7
370
    15
100
AcDbSpline
210
0.0
220
0.0
230
1.0
 70
     8
 71
     3
 72
    24
 73
    20
 74
     0
 42
0.00000001
 43
0.00000001
 12
1.0
 22
0.0
 32
0.0
 13
1.0
 23
0.0
 33
0.0
 40
0.0
 40
0.0
 40
0.0
 40
0.0
 40
0.0614384276249341
 40
0.1250736755369512
 40
0.188425349072644
 40
0.250862390403742
 40
0.3129665632509107
 40
0.3753451453465124
 40
0.4377328972322135
 40
0.4990927322917224
 40
0.5605807588447959
 40
0.6229469893028957
 40
0.6854686282027745
 40
0.7475477813740224
 40
0.8098225060803523
 40
0.8730684085990407
 40
0.9364041844528636
 40
0.9991757196257849
 40
1.0
 40
1.0
 40
1.0
 40
1.0
 10
165.2497574707228
 20
172.2738501152468
 30
0.0
 10
165.235156746419
 20
172.2704820583942
 30
0.0
 10
165.20543322769
 20
172.2636255149204
 30
0.0
 10
164.9526954120435
 20
172.2072868943946
 30
0.0
 10
164.5696994955945
 20
172.1244298122647
 30
0.0
 10
164.0473439111576
 20
172.0225227823135
 30
0.0
 10
163.4125594331567
 20
171.9146836432696
 30
0.0
 10
162.6823358289855
 20
171.8132166912945
 30
0.0
 10
161.8918672437508
 20
171.7281569776037
 30
0.0
 10
161.0673837289224
 20
171.6699526837174
 30
0.0
 10
160.2403472700375
 20
171.6423692448903
 30
0.0
 10
159.4420230023854
 20
171.6458622223834
 30
0.0
 10
158.7021990380968
 20
171.6728181422367
 30
0.0
 10
158.0579448051217
 20
171.7171720842357
 30
0.0
 10
157.530537549907
 20
171.7673775339937
 30
0.0
 10
157.1358729477568
 20
171.8139873891918
 30
0.0
 10
156.90334366857
 20
171.8431829817393
 30
0.0
 10
156.8079636360186
 20
171.8559610506809
 30
0.0
 10
156.8348972729197
 20
171.8524067921728
 30
0.0
 10
156.835246366144
 20
171.8523607245895
 30
0.0
  0
SPLINE
  5
C0
330
1F
100
AcDbEntity
  8
0
  6
Continuous
 62
     7
370
    15
100
AcDbSpline
210
0.0
220
0.0
230
1.0
 70
     8
 71
     3
 72
    22
 73
    18
 74
     0
 42
0.00000001
 43
0.00000001
 12
1.0
 22
0.0
 32
0.0
 13
1.0
 23
0.0
 33
0.0
 40
0.0
 40
0.0
 40
0.0
 40
0.0
 40
0.1249999999999972
 40
0.1249999999999972
 40
0.2499999999999943
 40
0.2499999999999943
 40
0.3124999999999916
 40
0.3124999999999916
 40
0.3749999999999887
 40
0.3749999999999887
 40
0.4999999999999911
 40
0.4999999999999911
 40
0.6249999999999934
 40
0.6249999999999934
 40
0.7499999999999959
 40
0.7499999999999959
 40
1.0
 40
1.0
 40
1.0
 40
1.0
 10
139.3067006936442
 20
169.0590130132181
 30
0.0
 10
139.2460809727679
 20
169.0241908365709
 30
0.0
 10
139.1838916328013
 20
168.9856870328702
 30
0.0
 10
139.0501621665719
 20
168.8997525450715
 30
0.0
 10
138.9779076248596
 20
168.8514459438693
 30
0.0
 10
138.8560096840239
 20
168.7750942256995
 30
0.0
 10
138.8122031308718
 20
168.7486797650924
 30
0.0
 10
138.7258079616969
 20
168.7001708405618
 30
0.0
 10
138.6834679854052
 20
168.6782367178355
 30
0.0
 10
138.5694972390362
 20
168.6218669278908
 30
0.0
 10
138.511078513046
 20
168.5955101033572
 30
0.0
 10
138.4111709418585
 20
168.543370278853
 30
0.0
 10
138.3697569510631
 20
168.5182096891405
 30
0.0
 10
138.2977319831859
 20
168.4631028458134
 30
0.0
 10
138.2673834418729
 20
168.4332464423185
 30
0.0
 10
138.1938917118408
 20
168.3358397403258
 30
0.0
 10
138.1667456240751
 20
168.2595080565155
 30
0.0
 10
138.1667456240751
 20
168.1708816454453
 30
0.0
  0
SPLINE
  5
C1
330
1F
100
AcDbEntity
  8
0
  6
Continuous
 62
     7
370
    15
100
AcDbSpline
210
0.0
220
0.0
230
1.0
 70
     8
 71
     3
 72
    22
 73
    18
 74
     0
 42
0.00000001
 43
0.00000001
 12
1.0
 22
0.0
 32
0.0
 13
1.0
 23
0.0
 33
0.0
 40
0.0
 40
0.0
 40
0.0
 40
0.0
 40
0.2499999999999932
 40
0.2499999999999932
 40
0.3749999999999905
 40
0.3749999999999905
 40
0.4999999999999878
 40
0.4999999999999878
 40
0.6249999999999851
 40
0.6249999999999851
 40
0.6874999999999837
 40
0.6874999999999837
 40
0.7499999999999858
 40
0.7499999999999858
 40
0.8749999999999929
 40
0.8749999999999929
 40
1.0
 40
1.0
 40
1.0
 40
1.0
 10
138.166745624075
 20
128.2059987019188
 30
0.0
 10
138.1667456240749
 20
128.1179347591122
 30
0.0
 10
138.1949962050223
 20
128.0412534638043
 30
0.0
 10
138.2699920055512
 20
127.9472594767851
 30
0.0
 10
138.3007286102155
 20
127.9190128237453
 30
0.0
 10
138.3733852684343
 20
127.8677336477871
 30
0.0
 10
138.4152347262335
 20
127.8447322500022
 30
0.0
 10
138.5154384601846
 20
127.7978340505998
 30
0.0
 10
138.5732184238834
 20
127.7749922293462
 30
0.0
 10
138.6879436917992
 20
127.7216579763495
 30
0.0
 10
138.73161937618
 20
127.6997808791659
 30
0.0
 10
138.8200180903954
 20
127.6499773322001
 30
0.0
 10
138.8641559936844
 20
127.6225034063995
 30
0.0
 10
138.9854197780007
 20
127.5435150895045
 30
0.0
 10
139.0545529263684
 20
127.4948304312171
 30
0.0
 10
139.1852581597514
 20
127.4068548978049
 30
0.0
 10
139.2468686622756
 20
127.366963503535
 30
0.0
 10
139.3067006936569
 20
127.3310814056902
 30
0.0
  0
LINE
  5
C2
330
1F
100
AcDbEntity
  8
0
  6
Continuous
 62
     7
370
    15
100
AcDbLine
 10
138.1667456241
 20
128.2059987019
 30
0.0
 11
138.1667456241
 21
168.1708816454
 31
0.0
  0
SPLINE
  5
C3
330
1F
100
AcDbEntity
  8
0
  6
Continuous
 62
     7
370
    15
100
AcDbSpline
210
0.0
220
0.0
230
1.0
 70
     8
 71
     3
 72
     8
 73
     4
 74
     0
 42
0.00000001
 43
0.00000001
 12
1.0
 22
0.0
 32
0.0
 13
1.0
 23
0.0
 33
0.0
 40
0.0
 40
0.0
 40
0.0
 40
0.0
 40
1.0
 40
1.0
 40
1.0
 40
1.0
 10
186.1567456240751
 20
176.0000553319611
 30
0.0
 10
185.6640355272293
 20
176.8880743300874
 30
0.0
 10
185.1699528219504
 20
177.7753369657734
 30
0.0
 10
184.6748127925861
 20
178.6620166139537
 30
0.0
  0
LINE
  5
C4
330
1F
100
AcDbEntity
  8
0
  6
Continuous
 62
     7
370
    15
100
AcDbLine
 10
186.1567456241
 20
169.2449648084
 30
0.0
 11
186.1567456241
 21
176.000055332
 31
0.0
  0
SPLINE
  5
C5
330
1F
100
AcDbEntity
  8
0
  6
Continuous
 62
     7
370
    15
100
AcDbSpline
210
0.0
220
0.0
230
1.0
 70
     8
 71
     3
 72
     8
 73
     4
 74
     0
 42
0.00000001
 43
0.00000001
 12
1.0
 22
0.0
 32
0.0
 13
1.0
 23
0.0
 33
0.0
 40
0.0
 40
0.0
 40
0.0
 40
0.0
 40
1.0
 40
1.0
 40
1.0
 40
1.0
 10
184.6748127925861
 20
172.6535108031568
 30
0.0
 10
185.1818996343453
 20
171.5223604489932
 30
0.0
 10
185.6774674734853
 20
170.3859760382254
 30
0.0
 10
186.1567456240751
 20
169.2449648083728
 30
0.0
  0
LINE
  5
C6
330
1F
100
AcDbEntity
  8
0
  6
Continuous
 62
     7
370
    15
100
AcDbLine
 10
186.1567456241
 20
169.2449648084
 30
0.0
 11
186.1567456241
 21
168.3306877723
 31
0.0
  0
SPLINE
  5
C7
330
1F
100
AcDbEntity
  8
0
  6
Continuous
 62
     7
370
    15
100
AcDbSpline
210
0.0
220
0.0
230
1.0
 70
     8
 71
     3
 72
     8
 73
     4
 74
     0
 42
0.00000001
 43
0.00000001
 12
1.0
 22
0.0
 32
0.0
 13
1.0
 23
0.0
 33
0.0
 40
0.0
 40
0.0
 40
0.0
 40
0.0
 40
1.0
 40
1.0
 40
1.0
 40
1.0
 10
191.4586784555641
 20
178.6620166139537
 30
0.0
 10
190.9635384261998
 20
177.7753369657734
 30
0.0
 10
190.4694557209208
 20
176.8880743300874
 30
0.0
 10
189.9767456240751
 20
176.0000553319611
 30
0.0
  0
LINE
  5
C8
330
1F
100
AcDbEntity
  8
0
  6
Continuous
 62
     7
370
    15
100
AcDbLine
 10
191.4586784556
 20
172.6535108032
 30
0.0
 11
191.4586784556
 21
178.662016614
 31
0.0
  0
SPLINE
  5
C9
330
1F
100
AcDbEntity
  8
0
  6
Continuous
 62
     7
370
    15
100
AcDbSpline
210
0.0
220
0.0
230
1.0
 70
     8
 71
     3
 72
     8
 73
     4
 74
     0
 42
0.00000001
 43
0.00000001
 12
1.0
 22
0.0
 32
0.0
 13
1.0
 23
0.0
 33
0.0
 40
0.0
 40
0.0
 40
0.0
 40
0.0
 40
1.0
 40
1.0
 40
1.0
 40
1.0
 10
189.9767456240751
 20
169.2449648083727
 30
0.0
 10
190.4560237746649
 20
170.3859760382254
 30
0.0
 10
190.9515916138049
 20
171.5223604489932
 30
0.0
 10
191.4586784555641
 20
172.6535108031568
 30
0.0
  0
LINE
  5
CA
330
1F
100
AcDbEntity
  8
0
  6
Continuous
 62
     7
370
    15
100
AcDbLine
 10
189.9767456241
 20
169.2449648084
 30
0.0
 11
189.9767456241
 21
176.000055332
 31
0.0
  0
LINE
  5
CB
330
1F
100
AcDbEntity
  8
0
  6
Continuous
 62
     7
370
    15
100
AcDbLine
 10
195.4167456241
 20
178.662016614
 30
0.0
 11
191.4586784556
 21
178.662016614
 31
0.0
  0
LINE
  5
CC
330
1F
100
AcDbEntity
  8
0
  6
Continuous
 62
     7
370
    15
100
AcDbLine
 10
191.4586784556
 20
172.6535108032
 30
0.0
 11
195.4167456241
 21
172.6535108032
 31
0.0
  0
SPLINE
  5
CD
330
1F
100
AcDbEntity
  8
0
  6
Continuous
 62
     7
370
    15
100
AcDbSpline
210
0.0
220
0.0
230
1.0
 70
     8
 71
     3
 72
    12
 73
     8
 74
     0
 42
0.00000001
 43
0.00000001
 12
1.0
 22
0.0
 32
0.0
 13
1.0
 23
0.0
 33
0.0
 40
0.0
 40
0.0
 40
0.0
 40
0.0
 40
0.249999999999998
 40
0.249999999999998
 40
0.499999999999996
 40
0.499999999999996
 40
1.0
 40
1.0
 40
1.0
 40
1.0
 10
195.4167456240751
 20
172.6535108031568
 30
0.0
 10
195.5079453459008
 20
172.6535108031568
 30
0.0
 10
195.5985403550368
 20
172.625291104569
 30
0.0
 10
195.7519530814835
 20
172.5308480973209
 30
0.0
 10
195.8171619488071
 20
172.4645611206156
 30
0.0
 10
195.9699464781471
 20
172.2389362973273
 30
0.0
 10
196.0167456240751
 20
172.0565100342947
 30
0.0
 10
196.0167456240751
 20
171.8757734020478
 30
0.0
  0
LINE
  5
CE
330
1F
100
AcDbEntity
  8
0
  6
Continuous
 62
     7
370
    15
100
AcDbLine
 10
189.9767456241
 20
168.3306877723
 30
0.0
 11
189.9767456241
 21
169.2449648084
 31
0.0
  0
LINE
  5
CF
330
1F
100
AcDbEntity
  8
0
  6
Continuous
 62
     7
370
    15
100
AcDbLine
 10
196.0167456241
 20
171.875773402
 30
0.0
 11
196.0167456241
 21
168.0448211408
 31
0.0
  0
SPLINE
  5
D0
330
1F
100
AcDbEntity
  8
0
  6
Continuous
 62
     7
370
    15
100
AcDbSpline
210
0.0
220
0.0
230
1.0
 70
     8
 71
     3
 72
    10
 73
     6
 74
     0
 42
0.00000001
 43
0.00000001
 12
1.0
 22
0.0
 32
0.0
 13
1.0
 23
0.0
 33
0.0
 40
0.0
 40
0.0
 40
0.0
 40
0.0
 40
0.5
 40
0.5
 40
1.0
 40
1.0
 40
1.0
 40
1.0
 10
196.0167456240751
 20
178.0412614645533
 30
0.0
 10
196.0167456240751
 20
178.2016667309041
 30
0.0
 10
195.9545077929683
 20
178.3607285438927
 30
0.0
 10
195.7353728692257
 20
178.591641009523
 30
0.0
 10
195.5777841742338
 20
178.6620166139537
 30
0.0
 10
195.4167456240751
 20
178.6620166139537
 30
0.0
  0
LINE
  5
D1
330
1F
100
AcDbEntity
  8
0
  6
Continuous
 62
     7
370
    15
100
AcDbLine
 10
196.0167456241
 20
171.875773402
 30
0.0
 11
196.0167456241
 21
178.0412614646
 31
0.0
  0
SPLINE
  5
D2
330
1F
100
AcDbEntity
  8
0
  6
Continuous
 62
     7
370
    15
100
AcDbSpline
210
0.0
220
0.0
230
1.0
 70
    24
 71
     3
 72
     8
 73
     4
 74
     0
 42
0.00000001
 43
0.00000001
 12
1.0
 22
0.0
 32
0.0
 13
1.0
 23
0.0
 33
0.0
 40
0.0
 40
0.0
 40
0.0
 40
0.0
 40
1.0
 40
1.0
 40
1.0
 40
1.0
 10
212.2653444623852
 20
122.1948211407894
 30
0.0
 10
212.3643767136153
 20
122.1948211407894
 30
0.0
 10
212.499618504797
 20
122.1948211407894
 30
0.0
 10
212.6645907612477
 20
122.1948211407894
 30
0.0
  0
LWPOLYLINE
  5
D3
330
1F
100
AcDbEntity
  8
0
  6
HIDDEN
 62
     7
370
     0
100
AcDbPolyline
 90
       30
 70
   128
 43
0.0
 10
254.474504732
 20
155.8446942375
 10
254.3779751624
 20
155.1384797298
 10
254.2883995414
 20
154.5033318697
 10
254.2099663254
 20
153.9689494652
 10
254.1463429644
 20
153.5603196437
 10
254.1005044162
 20
153.2965494814
 10
254.0745940402
 20
153.189972578
 10
254.0698233768
 20
153.2455723511
 10
254.086415497
 20
153.460749017
 10
254.1235945717
 20
153.825441154
 10
254.1796221486
 20
154.322596163
 10
254.2518784406
 20
154.9289676285
 10
254.3369848237
 20
155.6162022947
 10
254.430961818
 20
156.3521658322
 10
254.5294151637
 20
157.1024454042
 10
254.6277412919
 20
157.8319587716
 10
254.721342582
 20
158.5065947003
 10
254.8058423417
 20
159.0948079639
 10
254.8772894563
 20
159.5690943641
 10
254.9323431379
 20
159.9072767959
 10
254.9684291377
 20
160.0935422246
 10
254.9838601145
 20
160.1191810859
 10
254.9779145328
 20
159.982994535
 10
254.9508704015
 20
159.6913505038
 10
254.9039922741
 20
159.2578859429
 10
254.8394721197
 20
158.7028691736
 10
254.7603268291
 20
158.052252163
 10
254.6702571481
 20
157.3364570395
 10
254.5734746348
 20
156.5889535874
 10
254.474504732
 20
155.8446942375
  0
LWPOLYLINE
  5
D4
330
1F
100
AcDbEntity
  8
0
  6
HIDDEN
 62
     7
370
     0
100
AcDbPolyline
 90
       24
 70
   128
 43
0.0
 10
255.8833583028
 20
155.9884167431
 10
255.8109115336
 20
155.4603985422
 10
255.7461602133
 20
155.0077473527
 10
255.6939066513
 20
154.6640342425
 10
255.6580262551
 20
154.4547508407
 10
255.6411801096
 20
154.3954187397
 10
255.6446176164
 20
154.49043833
 10
255.6680838312
 20
154.7327624434
 10
255.7098383723
 20
155.1044190089
 10
255.7667844964
 20
155.5778439593
 10
255.8346987699
 20
156.1179255317
 10
255.9085443019
 20
156.6846083466
 10
255.9828443071
 20
157.2358641321
 10
256.0520882941
 20
157.7308087684
 10
256.111140753
 20
158.132734476
 10
256.1556220331
 20
158.4118322639
 10
256.1822331615
 20
158.5474027259
 10
256.1890005123
 20
158.5293912211
 10
256.1754221822
 20
158.3591335803
 10
256.1425052139
 20
158.049257034
 10
256.0926909082
 20
157.6227437079
 10
256.0296737643
 20
157.1112261444
 10
255.9581274755
 20
156.552641261
 10
255.8833583028
 20
155.9884167431
  0
LWPOLYLINE
  5
D5
330
1F
100
AcDbEntity
  8
0
  6
HIDDEN
 62
     7
370
     0
100
AcDbPolyline
 90
       24
 70
   128
 43
0.0
 10
261.4059086037
 20
155.265329086
 10
261.3334618345
 20
154.7373108851
 10
261.2687105143
 20
154.2846596955
 10
261.2164569523
 20
153.9409465853
 10
261.1805765561
 20
153.7316631835
 10
261.1637304106
 20
153.6723310825
 10
261.1671679173
 20
153.7673506729
 10
261.1906341322
 20
154.0096747863
 10
261.2323886732
 20
154.3813313518
 10
261.2893347973
 20
154.8547563021
 10
261.3572490709
 20
155.3948378745
 10
261.4310946029
 20
155.9615206895
 10
261.5053946081
 20
156.512776475
 10
261.574638595
 20
157.0077211113
 10
261.633691054
 20
157.4096468189
 10
261.6781723341
 20
157.6887446067
 10
261.7047834624
 20
157.8243150687
 10
261.7115508133
 20
157.8063035639
 10
261.6979724832
 20
157.6360459232
 10
261.6650555148
 20
157.3261693768
 10
261.6152412091
 20
156.8996560508
 10
261.5522240652
 20
156.3881384872
 10
261.4806777765
 20
155.8295536038
 10
261.4059086037
 20
155.265329086
  0
LINE
  5
D6
330
1F
100
AcDbEntity
  8
0
  6
HIDDEN
 62
     7
370
     0
100
AcDbLine
 10
252.0667456241
 20
150.1948211408
 30
0.0
 11
252.0667456241
 21
162.1948211408
 31
0.0
  0
LINE
  5
D7
330
1F
100
AcDbEntity
  8
0
  6
HIDDEN
 62
     7
370
     0
100
AcDbLine
 10
254.4960314098
 20
152.6948211408
 30
0.0
 11
254.4960314098
 21
159.6948211408
 31
0.0
  0
CIRCLE
  5
D8
330
1F
100
AcDbEntity
  8
0
  6
HIDDEN
 62
     7
370
     0
100
AcDbCircle
 10
230.0667456241
 20
168.1948211408
 30
0.0
 40
4.999999999999993
  0
CIRCLE
  5
D9
330
1F
100
AcDbEntity
  8
0
  6
HIDDEN
 62
     7
370
     0
100
AcDbCircle
 10
230.0667456241
 20
168.1948211408
 30
0.0
 40
3.500000000000002
  0
CIRCLE
  5
DA
330
1F
100
AcDbEntity
  8
0
  6
HIDDEN
 62
     7
370
     0
100
AcDbCircle
 10
250.0667456241
 20
168.1948211408
 30
0.0
 40
5.00000000000003
  0
CIRCLE
  5
DB
330
1F
100
AcDbEntity
  8
0
  6
HIDDEN
 62
     7
370
     0
100
AcDbCircle
 10
250.0667456241
 20
168.1948211408
 30
0.0
 40
3.500000000000007
  0
LINE
  5
DC
330
1F
100
AcDbEntity
  8
0
  6
HIDDEN
 62
     7
370
     0
100
AcDbLine
 10
184.6748127926
 20
172.6535108032
 30
0.0
 11
184.6748127926
 21
168.0448211408
 31
0.0
  0
SPLINE
  5
DD
330
1F
100
AcDbEntity
  8
0
  6
HIDDEN
 62
     7
370
     0
100
AcDbSpline
210
0.0
220
0.0
230
1.0
 70
     8
 71
     3
 72
    10
 73
     6
 74
     0
 42
0.00000001
 43
0.00000001
 12
1.0
 22
0.0
 32
0.0
 13
1.0
 23
0.0
 33
0.0
 40
0.0
 40
0.0
 40
0.0
 40
0.0
 40
0.5
 40
0.5
 40
1.0
 40
1.0
 40
1.0
 40
1.0
 10
214.9305524709735
 20
137.1948211407895
 30
0.0
 10
214.4939439551955
 20
134.7039512794306
 30
0.0
 10
214.1644137151979
 20
132.2093654581102
 30
0.0
 10
213.7995007010319
 20
127.2099859539975
 30
0.0
 10
213.766420625834
 20
124.7051123601577
 30
0.0
 10
213.8894536429257
 20
122.1948211407894
 30
0.0
  0
SPLINE
  5
DE
330
1F
100
AcDbEntity
  8
0
  6
HIDDEN
 62
     7
370
     0
100
AcDbSpline
210
0.0
220
0.0
230
1.0
 70
     8
 71
     3
 72
    14
 73
    10
 74
     0
 42
0.00000001
 43
0.00000001
 12
1.0
 22
0.0
 32
0.0
 13
1.0
 23
0.0
 33
0.0
 40
0.0
 40
0.0
 40
0.0
 40
0.0
 40
0.25
 40
0.25
 40
0.5
 40
0.5
 40
0.75
 40
0.75
 40
1.0
 40
1.0
 40
1.0
 40
1.0
 10
215.8180343181109
 20
167.5597378718265
 30
0.0
 10
215.490397409525
 20
165.0340206559763
 30
0.0
 10
215.2104196367412
 20
162.4955192246599
 30
0.0
 10
214.7773717036676
 20
157.4229916184385
 30
0.0
 10
214.6244791090375
 20
154.8888182901911
 30
0.0
 10
214.4642594320415
 20
149.8252538823773
 30
0.0
 10
214.4571465714014
 20
147.2958698406149
 30
0.0
 10
214.5890709965404
 20
142.2419032126963
 30
0.0
 10
214.7278997149783
 20
139.7173137744989
 30
0.0
 10
214.9305524709735
 20
137.1948211407895
 30
0.0
  0
LINE
  5
DF
330
1F
100
AcDbEntity
  8
0
  6
HIDDEN
 62
     7
370
     0
100
AcDbLine
 10
215.8180343181
 20
167.5597378718
 30
0.0
 11
215.8180343181
 21
178.1948211408
 31
0.0
  0
LINE
  5
E0
330
1F
100
AcDbEntity
  8
0
  6
HIDDEN
 62
     7
370
     0
100
AcDbLine
 10
158.0618958286
 20
124.670221518
 30
0.0
 11
157.8130310098
 21
124.6469585514
 31
0.0
  0
LINE
  5
E1
330
1F
100
AcDbEntity
  8
0
  6
HIDDEN
 62
     7
370
     0
100
AcDbLine
 10
157.6804702491
 20
171.754907469
 30
0.0
 11
158.0618031084
 21
171.7194041708
 31
0.0
  0
SPLINE
  5
E2
330
1F
100
AcDbEntity
  8
0
  6
HIDDEN
 62
     7
370
     0
100
AcDbSpline
210
0.0
220
0.0
230
1.0
 70
     8
 71
     3
 72
    10
 73
     6
 74
     0
 42
0.00000001
 43
0.00000001
 12
1.0
 22
0.0
 32
0.0
 13
1.0
 23
0.0
 33
0.0
 40
0.0
 40
0.0
 40
0.0
 40
0.0
 40
0.4476572299985406
 40
0.8952976981880614
 40
1.0
 40
1.0
 40
1.0
 40
1.0
 10
163.8217476256767
 20
168.0323496166059
 30
0.0
 10
164.0684488686137
 20
168.0618618708639
 30
0.0
 10
164.5618421171543
 20
168.1208852743406
 30
0.0
 10
164.8508535094448
 20
168.1348233644604
 30
0.0
 10
164.7905233546172
 20
168.1309349264985
 30
0.0
 10
164.7790871479314
 20
168.1301978327459
 30
0.0
  0
SPLINE
  5
E3
330
1F
100
AcDbEntity
  8
0
  6
HIDDEN
 62
     7
370
     0
100
AcDbSpline
210
0.0
220
0.0
230
1.0
 70
     8
 71
     3
 72
    10
 73
     6
 74
     0
 42
0.00000001
 43
0.00000001
 12
1.0
 22
0.0
 32
0.0
 13
1.0
 23
0.0
 33
0.0
 40
0.0
 40
0.0
 40
0.0
 40
0.0
 40
0.3456489785123772
 40
0.7967511281040573
 40
1.0
 40
1.0
 40
1.0
 40
1.0
 10
164.7790902413051
 20
128.259444238553
 30
0.0
 10
164.7695306776203
 20
128.2599997051419
 30
0.0
 10
164.7474950471875
 20
128.2612801042138
 30
0.0
 10
164.3304786529598
 20
128.291242835978
 30
0.0
 10
163.9423155130931
 20
128.3416390328589
 30
0.0
 10
163.8217476256767
 20
128.357292664973
 30
0.0
  0
SPLINE
  5
E4
330
1F
100
AcDbEntity
  8
0
  6
HIDDEN
 62
     7
370
     0
100
AcDbSpline
210
0.0
220
0.0
230
1.0
 70
     8
 71
     3
 72
    15
 73
    11
 74
     0
 42
0.00000001
 43
0.00000001
 12
1.0
 22
0.0
 32
0.0
 13
1.0
 23
0.0
 33
0.0
 40
0.0
 40
0.0
 40
0.0
 40
0.0
 40
0.1409172169897704
 40
0.2818898291171904
 40
0.4212989265166056
 40
0.5593768372264386
 40
0.698885620598057
 40
0.8403671979046413
 40
0.981316445467027
 40
1.0
 40
1.0
 40
1.0
 40
1.0
 10
163.8217476256767
 20
128.357292664973
 30
0.0
 10
163.5057059394042
 20
128.3976464822946
 30
0.0
 10
162.8734983295722
 20
128.4783699801894
 30
0.0
 10
161.6393352078949
 20
128.5549250777917
 30
0.0
 10
160.3686132070364
 20
128.5502490266527
 30
0.0
 10
159.180053802009
 20
128.4694530149205
 30
0.0
 10
158.1869311292279
 20
128.3450562184087
 30
0.0
 10
157.5475221229313
 20
128.2386526797466
 30
0.0
 10
157.2665020163478
 20
128.1855720190694
 30
0.0
 10
157.3330627540409
 20
128.1978280590837
 30
0.0
 10
157.3408530775592
 20
128.1992625160935
 30
0.0
  0
SPLINE
  5
E5
330
1F
100
AcDbEntity
  8
0
  6
HIDDEN
 62
     7
370
     0
100
AcDbSpline
210
0.0
220
0.0
230
1.0
 70
     8
 71
     3
 72
    15
 73
    11
 74
     0
 42
0.00000001
 43
0.00000001
 12
1.0
 22
0.0
 32
0.0
 13
1.0
 23
0.0
 33
0.0
 40
0.0
 40
0.0
 40
0.0
 40
0.0
 40
0.1201202395113832
 40
0.2584739316900698
 40
0.3987301965958648
 40
0.5404022890432708
 40
0.6807395403003654
 40
0.8190356063860886
 40
0.9577823106998856
 40
0.9999999999999999
 40
0.9999999999999999
 40
0.9999999999999999
 40
0.9999999999999999
 10
157.3408530775592
 20
168.1903797654854
 30
0.0
 10
157.3615622140296
 20
168.1863551716318
 30
0.0
 10
157.4061239960174
 20
168.1776950773709
 30
0.0
 10
157.9685636018902
 20
168.0784039507622
 30
0.0
 10
158.8620258142115
 20
167.9544863607809
 30
0.0
 10
160.0210049684036
 20
167.8547759239595
 30
0.0
 10
161.294041848529
 20
167.8276374348839
 30
0.0
 10
162.5283271231726
 20
167.8829762690478
 30
0.0
 10
163.3562899199386
 20
167.969454868032
 30
0.0
 10
163.7337004646026
 20
168.0204522863219
 30
0.0
 10
163.8217476256767
 20
168.0323496166059
 30
0.0
  0
LINE
  5
E6
330
1F
100
AcDbEntity
  8
0
  6
HIDDEN
 62
     7
370
     0
100
AcDbLine
 10
151.0707202203
 20
131.1948211408
 30
0.0
 11
151.0707202203
 21
165.1948211408
 31
0.0
  0
LINE
  5
E7
330
1F
100
AcDbEntity
  8
0
  6
HIDDEN
 62
     7
370
     0
100
AcDbLine
 10
177.7265715926
 20
131.1948211408
 30
0.0
 11
177.7265715926
 21
165.1948211408
 31
0.0
  0
LINE
  5
E8
330
1F
100
AcDbEntity
  8
0
  6
HIDDEN
 62
     7
370
     0
100
AcDbLine
 10
180.0167456241
 20
132.4698211408
 30
0.0
 11
180.0167456241
 21
163.9198211125
 31
0.0
  0
SPLINE
  5
E9
330
1F
100
AcDbEntity
  8
0
  6
HIDDEN
 62
     7
370
     0
100
AcDbSpline
210
0.0
220
0.0
230
1.0
 70
     8
 71
     3
 72
    18
 73
    14
 74
     0
 42
0.00000001
 43
0.00000001
 12
1.0
 22
0.0
 32
0.0
 13
1.0
 23
0.0
 33
0.0
 40
0.0
 40
0.0
 40
0.0
 40
0.0
 40
0.2500000000000009
 40
0.2500000000000009
 40
0.3750000000000007
 40
0.3750000000000007
 40
0.5000000000000006
 40
0.5000000000000006
 40
0.6250000000000003
 40
0.6250000000000003
 40
0.7500000000000001
 40
0.7500000000000001
 40
1.0
 40
1.0
 40
1.0
 40
1.0
 10
144.2667456240751
 20
164.4823347631936
 30
0.0
 10
144.2667456240751
 20
164.4278602426414
 30
0.0
 10
144.2318349326829
 20
164.3714791832889
 30
0.0
 10
144.1298256313499
 20
164.2874023424354
 30
0.0
 10
144.0881892766718
 20
164.2600686384445
 30
0.0
 10
143.989783481183
 20
164.2071147228455
 30
0.0
 10
143.9322402694788
 20
164.1812273691283
 30
0.0
 10
143.8049420959058
 20
164.1334498242951
 30
0.0
 10
143.7353547911484
 20
164.1115019061172
 30
0.0
 10
143.5839205459934
 20
164.0720693412045
 30
0.0
 10
143.5012366428994
 20
164.0545130919786
 30
0.0
 10
143.2451251808614
 20
164.0120743265581
 30
0.0
 10
143.0572101769734
 20
163.9963115768211
 30
0.0
 10
142.8667456240751
 20
163.9963115768211
 30
0.0
  0
LINE
  5
EA
330
1F
100
AcDbEntity
  8
0
  6
HIDDEN
 62
     7
370
     0
100
AcDbLine
 10
142.8667456241
 20
163.9963115768
 30
0.0
 11
139.3167456241
 21
163.9963115768
 31
0.0
  0
LINE
  5
EB
330
1F
100
AcDbEntity
  8
0
  6
HIDDEN
 62
     7
370
     0
100
AcDbLine
 10
139.3167456241
 20
132.3706357352
 30
0.0
 11
146.8667456241
 21
132.3706357352
 31
0.0
  0
SPLINE
  5
EC
330
1F
100
AcDbEntity
  8
0
  6
HIDDEN
 62
     7
370
     0
100
AcDbSpline
210
0.0
220
0.0
230
1.0
 70
     8
 71
     3
 72
    16
 73
    12
 74
     0
 42
0.00000001
 43
0.00000001
 12
1.0
 22
0.0
 32
0.0
 13
1.0
 23
0.0
 33
0.0
 40
0.0
 40
0.0
 40
0.0
 40
0.0
 40
0.1249999999999998
 40
0.1249999999999998
 40
0.2499999999999997
 40
0.2499999999999997
 40
0.4999999999999998
 40
0.4999999999999998
 40
0.7499999999999999
 40
0.7499999999999999
 40
1.0
 40
1.0
 40
1.0
 40
1.0
 10
146.8667456240751
 20
132.3706357352148
 30
0.0
 10
146.9618062138383
 20
132.3706357352148
 30
0.0
 10
147.0550806367691
 20
132.3668650636589
 30
0.0
 10
147.2382408300381
 20
132.3522685546922
 30
0.0
 10
147.3290752231699
 20
132.3412419401337
 30
0.0
 10
147.5858137123617
 20
132.2992611462304
 30
0.0
 10
147.7408899005272
 20
132.2586828644554
 30
0.0
 10
147.9947258115856
 20
132.164609611805
 30
0.0
 10
148.0956788268973
 20
132.1104543716492
 30
0.0
 10
148.2310272817707
 20
132.0004763400461
 30
0.0
 10
148.2667456240751
 20
131.943971353432
 30
0.0
 10
148.2667456240751
 20
131.8902253546315
 30
0.0
  0
LINE
  5
ED
330
1F
100
AcDbEntity
  8
0
  6
HIDDEN
 62
     7
370
     0
100
AcDbLine
 10
139.3167456241
 20
132.3706357352
 30
0.0
 11
139.3167456241
 21
163.9963115768
 31
0.0
  0
SPLINE
  5
EE
330
1F
100
AcDbEntity
  8
0
  6
HIDDEN
 62
     7
370
     0
100
AcDbSpline
210
0.0
220
0.0
230
1.0
 70
     8
 71
     3
 72
    24
 73
    20
 74
     0
 42
0.00000001
 43
0.00000001
 12
1.0
 22
0.0
 32
0.0
 13
1.0
 23
0.0
 33
0.0
 40
0.0
 40
0.0
 40
0.0
 40
0.0
 40
0.1249999999999985
 40
0.1249999999999985
 40
0.2499999999999971
 40
0.2499999999999971
 40
0.3749999999999956
 40
0.3749999999999956
 40
0.4374999999999959
 40
0.4374999999999959
 40
0.4999999999999962
 40
0.4999999999999962
 40
0.6249999999999971
 40
0.6249999999999971
 40
0.749999999999998
 40
0.749999999999998
 40
0.874999999999999
 40
0.874999999999999
 40
1.0
 40
1.0
 40
1.0
 40
1.0
 10
235.1667456240751
 20
148.8096286494254
 30
0.0
 10
235.2683187629161
 20
148.7979901052917
 30
0.0
 10
235.3666337118472
 20
148.8140076709912
 30
0.0
 10
235.5546623067698
 20
148.8981337847784
 30
0.0
 10
235.6431753674778
 20
148.9665883615786
 30
0.0
 10
235.794689076197
 20
149.14745424771
 30
0.0
 10
235.8591313130916
 20
149.262315423239
 30
0.0
 10
235.9249997335401
 20
149.4582804427867
 30
0.0
 10
235.9421078230828
 20
149.5278419028012
 30
0.0
 10
235.9653934520758
 20
149.6755617055616
 30
0.0
 10
235.9714492842945
 20
149.7540734048995
 30
0.0
 10
235.9716685677223
 20
149.9941603169377
 30
0.0
 10
235.9480172625226
 20
150.164574200367
 30
0.0
 10
235.8597598904228
 20
150.5156475619387
 30
0.0
 10
235.7967776253745
 20
150.6926168240243
 30
0.0
 10
235.6437364514032
 20
151.050612502372
 30
0.0
 10
235.5567068722159
 20
151.2250172839516
 30
0.0
 10
235.368323794205
 20
151.56803423516
 30
0.0
 10
235.2683293139761
 20
151.7337415093104
 30
0.0
 10
235.1667456240751
 20
151.8887397609498
 30
0.0
  0
SPLINE
  5
EF
330
1F
100
AcDbEntity
  8
0
  6
HIDDEN
 62
     7
370
     0
100
AcDbSpline
210
0.0
220
0.0
230
1.0
 70
     8
 71
     3
 72
    40
 73
    36
 74
     0
 42
0.00000001
 43
0.00000001
 12
1.0
 22
0.0
 32
0.0
 13
1.0
 23
0.0
 33
0.0
 40
0.0
 40
0.0
 40
0.0
 40
0.0
 40
0.1250000000000028
 40
0.1250000000000028
 40
0.1875000000000027
 40
0.1875000000000027
 40
0.2500000000000026
 40
0.2500000000000026
 40
0.3125000000000025
 40
0.3125000000000025
 40
0.3437500000000024
 40
0.3437500000000024
 40
0.3750000000000023
 40
0.3750000000000023
 40
0.4062500000000023
 40
0.4062500000000023
 40
0.4375000000000022
 40
0.4375000000000022
 40
0.4687500000000021
 40
0.4687500000000021
 40
0.500000000000002
 40
0.500000000000002
 40
0.562500000000002
 40
0.562500000000002
 40
0.5937500000000023
 40
0.5937500000000023
 40
0.6250000000000027
 40
0.6250000000000027
 40
0.6875000000000022
 40
0.6875000000000022
 40
0.7500000000000017
 40
0.7500000000000017
 40
0.8750000000000009
 40
0.8750000000000009
 40
1.0
 40
1.0
 40
1.0
 40
1.0
 10
235.1667456240751
 20
148.8096286494254
 30
0.0
 10
234.6006180994794
 20
148.6936822301045
 30
0.0
 10
234.0314569719996
 20
148.6141396775343
 30
0.0
 10
233.1722474099467
 20
148.5618558099471
 30
0.0
 10
232.8849090961237
 20
148.5558829130328
 30
0.0
 10
232.307731709154
 20
148.5746090116246
 30
0.0
 10
232.0177054392508
 20
148.5994290588586
 30
0.0
 10
231.4473684487742
 20
148.6922228034618
 30
0.0
 10
231.1630357015436
 20
148.7610672561626
 30
0.0
 10
230.7583752553925
 20
148.9093710269895
 30
0.0
 10
230.6270062945045
 20
148.9662855409322
 30
0.0
 10
230.372938676875
 20
149.0982039717067
 30
0.0
 10
230.2492331489749
 20
149.1739256381071
 30
0.0
 10
230.0177420116885
 20
149.3445610179692
 30
0.0
 10
229.9111555141309
 20
149.4383572817271
 30
0.0
 10
229.7190535150164
 20
149.6443907282892
 30
0.0
 10
229.633855024483
 20
149.757025315816
 30
0.0
 10
229.4962083312434
 20
149.988868098566
 30
0.0
 10
229.4418930278028
 20
150.1105977288776
 30
0.0
 10
229.3681604775606
 20
150.3576316858801
 30
0.0
 10
229.349477986375
 20
150.4791577536251
 30
0.0
 10
229.3477795172372
 20
150.8367438866763
 30
0.0
 10
229.423326803301
 20
151.0569917009468
 30
0.0
 10
229.6293335332095
 20
151.3214365162717
 30
0.0
 10
229.7138684559359
 20
151.4002934666204
 30
0.0
 10
229.9057289791053
 20
151.5374439098575
 30
0.0
 10
230.0123581996363
 20
151.5957488009923
 30
0.0
 10
230.3602133584558
 20
151.7476251567209
 30
0.0
 10
230.6180581551237
 20
151.8143856689261
 30
0.0
 10
231.1622345222311
 20
151.9129772796911
 30
0.0
 10
231.4448430791452
 20
151.943598125174
 30
0.0
 10
232.2961344363326
 20
152.0053215363798
 30
0.0
 10
232.8803281133443
 20
152.0084550678098
 30
0.0
 10
234.0297322734048
 20
151.978665140307
 30
0.0
 10
234.6000489111281
 20
151.9445745092256
 30
0.0
 10
235.1667456240751
 20
151.8887397609498
 30
0.0
  0
LINE
  5
F0
330
1F
100
AcDbEntity
  8
0
  6
HIDDEN
 62
     7
370
     0
100
AcDbLine
 10
139.3167456241
 20
130.2048211408
 30
0.0
 11
139.3167456241
 21
127.3250856079
 31
0.0
  0
LINE
  5
F1
330
1F
100
AcDbEntity
  8
0
  6
HIDDEN
 62
     7
370
     0
100
AcDbLine
 10
148.2667456241
 20
130.2048211408
 30
0.0
 11
148.2667456241
 21
126.2205054326
 31
0.0
  0
LINE
  5
F2
330
1F
100
AcDbEntity
  8
0
  6
HIDDEN
 62
     7
370
     0
100
AcDbLine
 10
144.2667456241
 20
166.1848211408
 30
0.0
 11
144.2667456241
 21
170.0389288132
 31
0.0
  0
LINE
  5
F3
330
1F
100
AcDbEntity
  8
0
  6
HIDDEN
 62
     7
370
     0
100
AcDbLine
 10
139.3167456241
 20
166.1848211408
 30
0.0
 11
139.3167456241
 21
169.0647589062
 31
0.0
  0
LINE
  5
F4
330
1F
100
AcDbEntity
  8
0
  6
HIDDEN
 62
     7
370
     0
100
AcDbLine
 10
189.3667456241
 20
138.6948211408
 30
0.0
 11
189.3667456241
 21
157.6948211408
 31
0.0
  0
LINE
  5
F5
330
1F
100
AcDbEntity
  8
0
  6
HIDDEN
 62
     7
370
     0
100
AcDbLine
 10
191.8667456241
 20
138.6948211408
 30
0.0
 11
191.8667456241
 21
157.6948211408
 31
0.0
  0
LINE
  5
F6
330
1F
100
AcDbEntity
  8
0
  6
HIDDEN
 62
     7
370
     0
100
AcDbLine
 10
180.5167456241
 20
139.6948211408
 30
0.0
 11
180.5167456241
 21
156.6948211408
 31
0.0
  0
LINE
  5
F7
330
1F
100
AcDbEntity
  8
0
  6
HIDDEN
 62
     7
370
     0
100
AcDbLine
 10
196.0167456241
 20
121.7948211408
 30
0.0
 11
189.8790708217
 21
121.7948211408
 31
0.0
  0
LINE
  5
F8
330
1F
100
AcDbEntity
  8
0
  6
HIDDEN
 62
     7
370
     0
100
AcDbLine
 10
186.2544204264
 20
121.7948211408
 30
0.0
 11
183.0167456241
 21
121.7948211408
 31
0.0
  0
LINE
  5
F9
330
1F
100
AcDbEntity
  8
0
  6
HIDDEN
 62
     7
370
     0
100
AcDbLine
 10
175.0167456241
 20
116.7106981579
 30
0.0
 11
175.0167456241
 21
121.7948211408
 31
0.0
  0
LINE
  5
FA
330
1F
100
AcDbEntity
  8
0
  6
HIDDEN
 62
     7
370
     0
100
AcDbLine
 10
183.0167456241
 20
121.7948211408
 30
0.0
 11
175.0167456241
 21
121.7948211408
 31
0.0
  0
LINE
  5
FB
330
1F
100
AcDbEntity
  8
0
  6
HIDDEN
 62
     7
370
     0
100
AcDbLine
 10
186.5510431558
 20
174.5948211408
 30
0.0
 11
183.0167456241
 21
174.5948211408
 31
0.0
  0
LINE
  5
FC
330
1F
100
AcDbEntity
  8
0
  6
HIDDEN
 62
     7
370
     0
100
AcDbLine
 10
196.0167456241
 20
174.5948211408
 30
0.0
 11
189.5824480924
 21
174.5948211408
 31
0.0
  0
LINE
  5
FD
330
1F
100
AcDbEntity
  8
0
  6
HIDDEN
 62
     7
370
     0
100
AcDbLine
 10
183.0167456241
 20
174.5948211408
 30
0.0
 11
175.0167456241
 21
174.5948211408
 31
0.0
  0
SPLINE
  5
FE
330
1F
100
AcDbEntity
  8
0
  6
HIDDEN
 62
     7
370
     0
100
AcDbSpline
210
0.0
220
0.0
230
1.0
 70
     8
 71
     3
 72
     8
 73
     4
 74
     0
 42
0.00000001
 43
0.00000001
 12
1.0
 22
0.0
 32
0.0
 13
1.0
 23
0.0
 33
0.0
 40
0.0000002438860713
 40
0.0000002438860713
 40
0.0000002438860713
 40
0.0000002438860713
 40
0.0014006025853533
 40
0.0014006025853533
 40
0.0014006025853533
 40
0.0014006025853533
 10
139.3167456240751
 20
163.9963115768211
 30
0.0
 10
138.9339585515102
 20
164.1463831047969
 30
0.0
 10
138.550605151554
 20
164.2945403067143
 30
0.0
 10
138.1667456240751
 20
164.4409138185175
 30
0.0
  0
SPLINE
  5
FF
330
1F
100
AcDbEntity
  8
0
  6
HIDDEN
 62
     7
370
     0
100
AcDbSpline
210
0.0
220
0.0
230
1.0
 70
     8
 71
     3
 72
     8
 73
     4
 74
     0
 42
0.00000001
 43
0.00000001
 12
1.0
 22
0.0
 32
0.0
 13
1.0
 23
0.0
 33
0.0
 40
0.0000002432968744
 40
0.0000002432968744
 40
0.0000002432968744
 40
0.0000002432968744
 40
0.0014011510532366
 40
0.0014011510532366
 40
0.0014011510532366
 40
0.0014011510532366
 10
138.1667456240751
 20
131.9243071471742
 30
0.0
 10
138.5506100908117
 20
132.0712460596365
 30
0.0
 10
138.9339637126353
 20
132.2199784194543
 30
0.0
 10
139.3167456240751
 20
132.3706357352148
 30
0.0
  0
LINE
  5
100
330
1F
100
AcDbEntity
  8
0
  6
HIDDEN
 62
     7
370
     0
100
AcDbLine
 10
144.2667456241
 20
166.1848211408
 30
0.0
 11
144.2667456241
 21
164.4823347632
 31
0.0
  0
LINE
  5
101
330
1F
100
AcDbEntity
  8
0
  6
HIDDEN
 62
     7
370
     0
100
AcDbLine
 10
139.3167456241
 20
166.1848211408
 30
0.0
 11
139.3167456241
 21
163.9963115768
 31
0.0
  0
LINE
  5
102
330
1F
100
AcDbEntity
  8
0
  6
HIDDEN
 62
     7
370
     0
100
AcDbLine
 10
139.3167456241
 20
130.2048211408
 30
0.0
 11
139.3167456241
 21
132.3706357352
 31
0.0
  0
LINE
  5
103
330
1F
100
AcDbEntity
  8
0
  6
HIDDEN
 62
     7
370
     0
100
AcDbLine
 10
148.2667456241
 20
130.2048211408
 30
0.0
 11
148.2667456241
 21
131.8902253546
 31
0.0
  0
LINE
  5
104
330
1F
100
AcDbEntity
  8
0
  6
HIDDEN
 62
     7
370
     0
100
AcDbLine
 10
225.0667456241
 20
168.6954457507
 30
0.0
 11
225.0667456241
 21
178.1948211408
 31
0.0
  0
LINE
  5
105
330
1F
100
AcDbEntity
  8
0
  6
HIDDEN
 62
     7
370
     0
100
AcDbLine
 10
215.0667456241
 20
158.1948211408
 30
0.0
 11
215.0667456241
 21
178.1948211408
 31
0.0
  0
LINE
  5
106
330
1F
100
AcDbEntity
  8
0
  6
HIDDEN
 62
     7
370
     0
100
AcDbLine
 10
225.0667456241
 20
158.1948211408
 30
0.0
 11
225.0667456241
 21
167.6941965309
 31
0.0
  0
SPLINE
  5
107
330
1F
100
AcDbEntity
  8
0
  6
HIDDEN
 62
     7
370
     0
100
AcDbSpline
210
0.0
220
0.0
230
1.0
 70
    24
 71
     3
 72
     8
 73
     4
 74
     0
 42
0.00000001
 43
0.00000001
 12
1.0
 22
0.0
 32
0.0
 13
1.0
 23
0.0
 33
0.0
 40
0.0
 40
0.0
 40
0.0
 40
0.0
 40
1.0
 40
1.0
 40
1.0
 40
1.0
 10
225.0667456240751
 20
167.694196530927
 30
0.0
 10
225.0667456240751
 20
168.0262273540235
 30
0.0
 10
225.0667456240751
 20
168.3600565150093
 30
0.0
 10
225.0667456240751
 20
168.6954457506519
 30
0.0
  0
LINE
  5
108
330
1F
100
AcDbEntity
  8
0
  6
HIDDEN
 62
     7
370
     0
100
AcDbLine
 10
225.0667456241
 20
158.1948211408
 30
0.0
 11
215.0667456241
 21
158.1948211408
 31
0.0
  0
SPLINE
  5
109
330
1F
100
AcDbEntity
  8
0
  6
HIDDEN
 62
     7
370
     0
100
AcDbSpline
210
0.0
220
0.0
230
1.0
 70
     8
 71
     3
 72
    20
 73
    16
 74
     0
 42
0.00000001
 43
0.00000001
 12
1.0
 22
0.0
 32
0.0
 13
1.0
 23
0.0
 33
0.0
 40
0.0
 40
0.0
 40
0.0
 40
0.0
 40
0.1118897260489035
 40
0.177408921098362
 40
0.2490304797515661
 40
0.3297789271732725
 40
0.3985513262967114
 40
0.4998310619528087
 40
0.6137961838122177
 40
0.6789621130215618
 40
0.7494886161691218
 40
0.8296345772505792
 40
0.8980782498123876
 40
0.9994886591540689
 40
1.0
 40
1.0
 40
1.0
 40
1.0
 10
164.8154365901518
 20
124.5948672921598
 30
0.0
 10
164.7721338750869
 20
124.6082893702033
 30
0.0
 10
164.7034744169618
 20
124.6295710058698
 30
0.0
 10
164.2584026674245
 20
124.7328563972085
 30
0.0
 10
163.7318500806354
 20
124.8461584276965
 30
0.0
 10
163.04642336437
 20
124.9690916530883
 30
0.0
 10
162.1531064026146
 20
125.0911260178458
 30
0.0
 10
161.0397468868654
 20
125.2088623679669
 30
0.0
 10
159.9289727120155
 20
125.2208378321768
 30
0.0
 10
159.044224746224
 20
125.1937796090239
 30
0.0
 10
158.3770269019346
 20
125.1458473069242
 30
0.0
 10
157.8357595253655
 20
125.0895547666207
 30
0.0
 10
157.4481600819167
 20
125.0444681617207
 30
0.0
 10
157.2542400499441
 20
125.0055975778942
 30
0.0
 10
157.3173946173777
 20
125.0163129793181
 30
0.0
 10
157.3177114634863
 20
125.0163667384266
 30
0.0
  0
LINE
  5
10A
330
1F
100
AcDbEntity
  8
0
  6
HIDDEN
 62
     7
370
     0
100
AcDbLine
 10
158.226757539
 20
125.1271592845
 30
0.0
 11
158.4106028496
 21
125.1453486268
 31
0.0
  0
SPLINE
  5
10B
330
1F
100
AcDbEntity
  8
0
  6
HIDDEN
 62
     7
370
     0
100
AcDbSpline
210
0.0
220
0.0
230
1.0
 70
     8
 71
     3
 72
    27
 73
    23
 74
     0
 42
0.00000001
 43
0.00000001
 12
1.0
 22
0.0
 32
0.0
 13
1.0
 23
0.0
 33
0.0
 40
0.0
 40
0.0
 40
0.0
 40
0.0
 40
0.0007943347159958
 40
0.0456766999077829
 40
0.1022581811793934
 40
0.1705360489283327
 40
0.2091275953431734
 40
0.2506546990943919
 40
0.3211002469278205
 40
0.386193769267644
 40
0.4266727871993599
 40
0.4648039158669142
 40
0.5006081159845366
 40
0.5451997350373097
 40
0.6016938071595046
 40
0.6700995591138703
 40
0.7088367630336445
 40
0.7505653726396483
 40
0.8222297246123693
 40
0.8877689358564473
 40
0.9472424972141659
 40
1.0
 40
1.0
 40
1.0
 40
1.0
 10
157.3174025291321
 20
171.3732377753727
 30
0.0
 10
157.3171841623113
 20
171.3732848468929
 30
0.0
 10
157.30462739557
 20
171.3759916047075
 30
0.0
 10
157.3537082706922
 20
171.3641586563706
 30
0.0
 10
157.4988072079634
 20
171.3407157416293
 30
0.0
 10
157.7718610929829
 20
171.306811195771
 30
0.0
 10
158.1003872964085
 20
171.2732424626537
 30
0.0
 10
158.4931151349435
 20
171.2350591071962
 30
0.0
 10
159.042843078457
 20
171.196090441959
 30
0.0
 10
159.6688657321542
 20
171.1766293356054
 30
0.0
 10
160.2120572412227
 20
171.1744436580789
 30
0.0
 10
160.6571261383659
 20
171.1829585391984
 30
0.0
 10
161.1235739346901
 20
171.2027419361218
 30
0.0
 10
161.6608145842275
 20
171.2469043217231
 30
0.0
 10
162.309028013092
 20
171.3193199412507
 30
0.0
 10
162.894566650694
 20
171.400222036366
 30
0.0
 10
163.3755362469255
 20
171.4783880201942
 30
0.0
 10
163.8209512220962
 20
171.563160179138
 30
0.0
 10
164.2594504444416
 20
171.6569430948821
 30
0.0
 10
164.598477509659
 20
171.7348473215152
 30
0.0
 10
164.7858312183743
 20
171.7850424506118
 30
0.0
 10
164.8063216794693
 20
171.7917092870695
 30
0.0
 10
164.8159538215732
 20
171.7948432290461
 30
0.0
  0
LINE
  5
10C
330
1F
100
AcDbEntity
  8
0
  6
HIDDEN
 62
     7
370
     0
100
AcDbLine
 10
235.1667456241
 20
148.8096286494
 30
0.0
 11
235.1667456241
 21
143.9948211408
 31
0.0
  0
LINE
  5
10D
330
1F
100
AcDbEntity
  8
0
  6
HIDDEN
 62
     7
370
     0
100
AcDbLine
 10
235.1667456241
 20
148.8096286494
 30
0.0
 11
235.1667456241
 21
151.8887397609
 31
0.0
  0
LINE
  5
10E
330
1F
100
AcDbEntity
  8
0
  6
HIDDEN
 62
     7
370
     0
100
AcDbLine
 10
235.1667456241
 20
152.3948211408
 30
0.0
 11
235.1667456241
 21
151.8887397609
 31
0.0
  0
LINE
  5
10F
330
1F
100
AcDbEntity
  8
0
  6
HIDDEN
 62
     7
370
     0
100
AcDbLine
 10
256.9923554406
 20
149.7698211408
 30
0.0
 11
256.9923554406
 21
146.6198211408
 31
0.0
  0
LINE
  5
110
330
1F
100
AcDbEntity
  8
0
  6
HIDDEN
 62
     7
370
     0
100
AcDbLine
 10
255.076072298
 20
149.7698211408
 30
0.0
 11
255.076072298
 21
146.6198211408
 31
0.0
  0
LINE
  5
111
330
1F
100
AcDbEntity
  8
0
  6
HIDDEN
 62
     7
370
     0
100
AcDbLine
 10
260.0667456241
 20
158.1948211408
 30
0.0
 11
225.0667456241
 21
158.1948211408
 31
0.0
  0
LINE
  5
112
330
1F
100
AcDbEntity
  8
0
  6
HIDDEN
 62
     7
370
     0
100
AcDbLine
 10
186.1567456241
 20
168.3306877723
 30
0.0
 11
186.1567456241
 21
168.0448211408
 31
0.0
  0
LINE
  5
113
330
1F
100
AcDbEntity
  8
0
  6
HIDDEN
 62
     7
370
     0
100
AcDbLine
 10
189.9767456241
 20
168.3306877723
 30
0.0
 11
189.9767456241
 21
168.0448211408
 31
0.0
  0
LINE
  5
114
330
1F
100
AcDbEntity
  8
0
  6
HIDDEN
 62
     7
370
     0
100
AcDbLine
 10
191.4586784556
 20
172.6535108032
 30
0.0
 11
191.4586784556
 21
168.0448211408
 31
0.0
  0
LINE
  5
115
330
1F
100
AcDbEntity
  8
0
  6
HIDDEN
 62
     7
370
     0
100
AcDbLine
 10
225.0667456241
 20
167.6941965309
 30
0.0
 11
225.0667456241
 21
168.6954457507
 31
0.0
  0
CIRCLE
  5
116
330
1F
100
AcDbEntity
  8
0
  6
HIDDEN
 62
     7
370
     0
100
AcDbCircle
 10
177.0667456241
 20
148.1948211408
 30
0.0
 40
5.0
  0
LINE
  5
117
330
1F
100
AcDbEntity
  8
0
  6
HIDDEN
 62
     7
370
     0
100
AcDbLine
 10
260.0667456241
 20
167.5597378718
 30
0.0
 11
215.8180343181
 21
167.5597378718
 31
0.0
  0
ARC
  5
118
330
1F
100
AcDbEntity
  8
0
  6
HIDDEN
 62
     7
370
     0
100
AcDbCircle
 10
258.0667456241
 20
156.1948211408
 30
0.0
 40
5.00000000000002
100
AcDbArc
 50
216.9601685813
 51
262.5404891
  0
ARC
  5
119
330
1F
100
AcDbEntity
  8
0
  6
HIDDEN
 62
     7
370
     0
100
AcDbCircle
 10
258.0667456241
 20
156.1948211408
 30
0.0
 40
5.00000000000003
100
AcDbArc
 50
66.4218215218
 51
128.1208096187
  0
ARC
  5
11A
330
1F
100
AcDbEntity
  8
0
  6
HIDDEN
 62
     7
370
     0
100
AcDbCircle
 10
258.0667456241
 20
156.1948211408
 30
0.0
 40
5.00000000000002
100
AcDbArc
 50
262.5404891
 51
293.5781784782
  0
LINE
  5
11B
330
1F
100
AcDbEntity
  8
0
  6
HIDDEN
 62
     7
370
     0
100
AcDbLine
 10
254.0732316123
 20
153.1882749942
 30
0.0
 11
255.6425944309
 21
154.3945651971
 31
0.0
  0
LINE
  5
11C
330
1F
100
AcDbEntity
  8
0
  6
HIDDEN
 62
     7
370
     0
100
AcDbLine
 10
256.1877933582
 20
158.558498118
 30
0.0
 11
254.9818964912
 21
160.1281631957
 31
0.0
  0
LINE
  5
11D
330
1F
100
AcDbEntity
  8
0
  6
HIDDEN
 62
     7
370
     0
100
AcDbLine
 10
262.1576895128
 20
158.1802014369
 30
0.0
 11
261.7093001361
 21
157.8355470932
 31
0.0
  0
LINE
  5
11E
330
1F
100
AcDbEntity
  8
0
  6
HIDDEN
 62
     7
370
     0
100
AcDbLine
 10
261.1641012087
 20
153.6716141723
 30
0.0
 11
261.5086431707
 21
153.2231384358
 31
0.0
  0
LINE
  5
11F
330
1F
100
AcDbEntity
  8
0
  6
HIDDEN
 62
     7
370
     0
100
AcDbLine
 10
255.6420385048
 20
154.3943725835
 30
0.0
 11
261.1645888058
 21
153.6712849263
 31
0.0
  0
LINE
  5
120
330
1F
100
AcDbEntity
  8
0
  6
HIDDEN
 62
     7
370
     0
100
AcDbLine
 10
261.7098560621
 20
157.8357397068
 30
0.0
 11
256.1873057612
 21
158.558827364
 31
0.0
  0
LINE
  5
121
330
1F
100
AcDbEntity
  8
0
  6
HIDDEN
 62
     7
370
     0
100
AcDbLine
 10
252.0667456241
 20
150.1948211408
 30
0.0
 11
260.0667456241
 21
150.1948211408
 31
0.0
  0
LINE
  5
122
330
1F
100
AcDbEntity
  8
0
  6
HIDDEN
 62
     7
370
     0
100
AcDbLine
 10
260.0667456241
 20
162.1948211408
 30
0.0
 11
252.0667456241
 21
162.1948211408
 31
0.0
  0
ARC
  5
123
330
1F
100
AcDbEntity
  8
0
  6
HIDDEN
 62
     7
370
     0
100
AcDbCircle
 10
258.0667456241
 20
156.1948211408
 30
0.0
 40
5.000000000000028
100
AcDbArc
 50
224.4270040008
 51
270.0
  0
ARC
  5
124
330
1F
100
AcDbEntity
  8
0
  6
HIDDEN
 62
     7
370
     0
100
AcDbCircle
 10
258.0667456241
 20
156.1948211408
 30
0.0
 40
4.999999999999996
100
AcDbArc
 50
66.4218215218
 51
135.5729959992
  0
ARC
  5
125
330
1F
100
AcDbEntity
  8
0
  6
HIDDEN
 62
     7
370
     0
100
AcDbCircle
 10
258.0667456241
 20
156.1948211408
 30
0.0
 40
5.000000000000028
100
AcDbArc
 50
270.0
 51
293.5781784782
  0
LINE
  5
126
330
1F
100
AcDbEntity
  8
0
  6
HIDDEN
 62
     7
370
     0
100
AcDbLine
 10
252.0667456241
 20
152.6948211408
 30
0.0
 11
254.4960314098
 21
152.6948211408
 31
0.0
  0
LINE
  5
127
330
1F
100
AcDbEntity
  8
0
  6
HIDDEN
 62
     7
370
     0
100
AcDbLine
 10
254.4960314098
 20
159.6948211408
 30
0.0
 11
252.0667456241
 21
159.6948211408
 31
0.0
  0
LINE
  5
128
330
1F
100
AcDbEntity
  8
0
  6
HIDDEN
 62
     7
370
     0
100
AcDbLine
 10
170.0667456241
 20
122.8708972197
 30
0.0
 11
170.1609064653
 21
123.5408864185
 31
0.0
  0
LINE
  5
129
330
1F
100
AcDbEntity
  8
0
  6
HIDDEN
 62
     7
370
     0
100
AcDbLine
 10
170.1609064653
 20
172.8487558631
 30
0.0
 11
170.0667456241
 21
173.5187450619
 31
0.0
  0
ARC
  5
12A
330
1F
100
AcDbEntity
  8
0
  6
HIDDEN
 62
     7
370
     0
100
AcDbCircle
 10
169.5667456241
 20
123.6243902791
 30
0.0
 40
0.6000000000000152
100
AcDbArc
 50
352.0
 51
0.0
  0
ARC
  5
12B
330
1F
100
AcDbEntity
  8
0
  6
HIDDEN
 62
     7
370
     0
100
AcDbCircle
 10
169.5667456241
 20
123.6243902791
 30
0.0
 40
0.5999999999999943
100
AcDbArc
 50
0.0
 51
33.5573097619
  0
ARC
  5
12C
330
1F
100
AcDbEntity
  8
0
  6
HIDDEN
 62
     7
370
     0
100
AcDbCircle
 10
169.5667456241
 20
172.7652520025
 30
0.0
 40
0.6000000000000172
100
AcDbArc
 50
348.75
 51
8.0
  0
LWPOLYLINE
  5
12D
330
1F
100
AcDbEntity
  8
0
  6
HIDDEN
 62
     7
370
     0
100
AcDbPolyline
 90
        3
 70
   128
 43
0.0
 10
170.1552167923
 20
172.6481978093
 10
170.1210733436
 20
172.5356419431
 10
170.0667456241
 20
172.4335895235
  0
LINE
  5
12E
330
1F
100
AcDbEntity
  8
0
  6
HIDDEN
 62
     7
370
     0
100
AcDbLine
 10
170.1667456241
 20
123.6243902791
 30
0.0
 11
170.1667456241
 21
172.7652520025
 31
0.0
  0
ARC
  5
12F
330
1F
100
AcDbEntity
  8
0
  6
HIDDEN
 62
     7
370
     0
100
AcDbCircle
 10
163.8217476257
 20
136.1948211408
 30
0.0
 40
8.000000000000012
100
AcDbArc
 50
276.8788427171
 51
321.3178125465
  0
ARC
  5
130
330
1F
100
AcDbEntity
  8
0
  6
HIDDEN
 62
     7
370
     0
100
AcDbCircle
 10
163.8217476257
 20
160.1948211408
 30
0.0
 40
7.99999999999999
100
AcDbArc
 50
38.6821874535
 51
83.1151015945
  0
ARC
  5
131
330
1F
100
AcDbEntity
  8
0
  6
HIDDEN
 62
     7
370
     0
100
AcDbCircle
 10
153.1491811894
 20
128.7948211408
 30
0.0
 40
0.6000000000000155
100
AcDbArc
 50
210.0
 51
270.0
  0
ARC
  5
132
330
1F
100
AcDbEntity
  8
0
  6
HIDDEN
 62
     7
370
     0
100
AcDbCircle
 10
153.1491811894
 20
167.5948211408
 30
0.0
 40
0.6000000000000155
100
AcDbArc
 50
90.0
 51
150.0
  0
LINE
  5
133
330
1F
100
AcDbEntity
  8
0
  6
HIDDEN
 62
     7
370
     0
100
AcDbLine
 10
153.1491811894
 20
128.1948211408
 30
0.0
 11
157.3408530776
 21
128.1948211408
 31
0.0
  0
LINE
  5
134
330
1F
100
AcDbEntity
  8
0
  6
HIDDEN
 62
     7
370
     0
100
AcDbLine
 10
157.3408530776
 20
168.1948211408
 30
0.0
 11
153.1491811894
 21
168.1948211408
 31
0.0
  0
LINE
  5
135
330
1F
100
AcDbEntity
  8
0
  6
HIDDEN
 62
     7
370
     0
100
AcDbLine
 10
152.6295659471
 20
167.8948211408
 30
0.0
 11
151.0707202203
 21
165.1948211408
 31
0.0
  0
LINE
  5
136
330
1F
100
AcDbEntity
  8
0
  6
HIDDEN
 62
     7
370
     0
100
AcDbLine
 10
151.0707202203
 20
131.1948211408
 30
0.0
 11
152.6295659471
 21
128.4948211408
 31
0.0
  0
LINE
  5
137
330
1F
100
AcDbEntity
  8
0
  6
HIDDEN
 62
     7
370
     0
100
AcDbLine
 10
260.0667456241
 20
162.1948211408
 30
0.0
 11
252.0667456241
 21
162.1948211408
 31
0.0
  0
LINE
  5
138
330
1F
100
AcDbEntity
  8
0
  6
HIDDEN
 62
     7
370
     0
100
AcDbLine
 10
252.0667456241
 20
150.1948211408
 30
0.0
 11
260.0667456241
 21
150.1948211408
 31
0.0
  0
ARC
  5
139
330
1F
100
AcDbEntity
  8
0
  6
HIDDEN
 62
     7
370
     0
100
AcDbCircle
 10
178.5167456241
 20
132.4698211408
 30
0.0
 40
1.500000000000016
100
AcDbArc
 50
238.2116693829
 51
0.0
  0
ARC
  5
13A
330
1F
100
AcDbEntity
  8
0
  6
HIDDEN
 62
     7
370
     0
100
AcDbCircle
 10
178.5167456241
 20
163.9198211408
 30
0.0
 40
1.500000000000016
100
AcDbArc
 50
0.0
 51
121.7883306171
  0
LINE
  5
13B
330
1F
100
AcDbEntity
  8
0
  6
HIDDEN
 62
     7
370
     0
100
AcDbLine
 10
148.2667456241
 20
131.1948211408
 30
0.0
 11
151.0707202203
 21
131.1948211408
 31
0.0
  0
LINE
  5
13C
330
1F
100
AcDbEntity
  8
0
  6
HIDDEN
 62
     7
370
     0
100
AcDbLine
 10
151.0707202203
 20
165.1948211408
 30
0.0
 11
144.2667456241
 21
165.1948211408
 31
0.0
  0
LINE
  5
13D
330
1F
100
AcDbEntity
  8
0
  6
HIDDEN
 62
     7
370
     0
100
AcDbLine
 10
170.0667456241
 20
131.1948211408
 30
0.0
 11
177.7265715926
 21
131.1948211408
 31
0.0
  0
LINE
  5
13E
330
1F
100
AcDbEntity
  8
0
  6
HIDDEN
 62
     7
370
     0
100
AcDbLine
 10
177.7265715926
 20
165.1948211408
 30
0.0
 11
170.0667456241
 21
165.1948211408
 31
0.0
  0
LINE
  5
13F
330
1F
100
AcDbEntity
  8
0
  6
HIDDEN
 62
     7
370
     0
100
AcDbLine
 10
235.389212156
 20
148.8294364497
 30
0.0
 11
252.0667456241
 21
153.7034754844
 31
0.0
  0
LINE
  5
140
330
1F
100
AcDbEntity
  8
0
  6
HIDDEN
 62
     7
370
     0
100
AcDbLine
 10
252.0667456241
 20
158.0791642273
 30
0.0
 11
230.4847494766
 21
151.7717871879
 31
0.0
  0
LINE
  5
141
330
1F
100
AcDbEntity
  8
0
  6
HIDDEN
 62
     7
370
     0
100
AcDbLine
 10
189.3667456241
 20
138.6948211408
 30
0.0
 11
191.8667456241
 21
138.6948211408
 31
0.0
  0
LINE
  5
142
330
1F
100
AcDbEntity
  8
0
  6
HIDDEN
 62
     7
370
     0
100
AcDbLine
 10
191.8667456241
 20
157.6948211408
 30
0.0
 11
189.3667456241
 21
157.6948211408
 31
0.0
  0
LINE
  5
143
330
1F
100
AcDbEntity
  8
0
  6
HIDDEN
 62
     7
370
     0
100
AcDbLine
 10
180.0167456241
 20
139.1948211408
 30
0.0
 11
180.5167456241
 21
139.6948211408
 31
0.0
  0
LINE
  5
144
330
1F
100
AcDbEntity
  8
0
  6
HIDDEN
 62
     7
370
     0
100
AcDbLine
 10
180.5167456241
 20
156.6948211408
 30
0.0
 11
180.0167456241
 21
157.1948211408
 31
0.0
  0
LINE
  5
145
330
1F
100
AcDbEntity
  8
0
  6
HIDDEN
 62
     7
370
     0
100
AcDbLine
 10
180.5167456241
 20
139.6948211408
 30
0.0
 11
189.3667456241
 21
139.6948211408
 31
0.0
  0
LINE
  5
146
330
1F
100
AcDbEntity
  8
0
  6
HIDDEN
 62
     7
370
     0
100
AcDbLine
 10
189.3667456241
 20
156.6948211408
 30
0.0
 11
180.5167456241
 21
156.6948211408
 31
0.0
  0
LINE
  5
147
330
1F
100
AcDbEntity
  8
0
  6
HIDDEN
 62
     7
370
     0
100
AcDbLine
 10
175.0167456241
 20
179.6948211408
 30
0.0
 11
175.0167456241
 21
174.5948211408
 31
0.0
  0
LINE
  5
148
330
1F
100
AcDbEntity
  8
0
  6
HIDDEN
 62
     7
370
     0
100
AcDbLine
 10
165.2511834545
 20
124.1154498072
 30
0.0
 11
164.8167513051
 21
124.5945158263
 31
0.0
  0
LINE
  5
149
330
1F
100
AcDbEntity
  8
0
  6
HIDDEN
 62
     7
370
     0
100
AcDbLine
 10
157.31674798
 20
125.0162037855
 30
0.0
 11
156.8343142366
 21
124.53713781
 31
0.0
  0
LINE
  5
14A
330
1F
100
AcDbEntity
  8
0
  6
HIDDEN
 62
     7
370
     0
100
AcDbLine
 10
156.8341923084
 20
171.8524991811
 30
0.0
 11
157.3167430594
 21
171.3733789232
 31
0.0
  0
LINE
  5
14B
330
1F
100
AcDbEntity
  8
0
  6
HIDDEN
 62
     7
370
     0
100
AcDbLine
 10
164.8167455061
 20
171.7950767009
 30
0.0
 11
165.2512878964
 21
172.2741969514
 31
0.0
  0
LINE
  5
14C
330
1F
100
AcDbEntity
  8
0
  6
HIDDEN
 62
     7
370
     0
100
AcDbLine
 10
235.1667456241
 20
143.9948211408
 30
0.0
 11
237.690360224
 21
148.1948211408
 31
0.0
  0
LINE
  5
14D
330
1F
100
AcDbEntity
  8
0
  6
HIDDEN
 62
     7
370
     0
100
AcDbLine
 10
237.690360224
 20
148.1948211408
 30
0.0
 11
235.1667456241
 21
152.3948211408
 31
0.0
  0
LINE
  5
14E
330
1F
100
AcDbEntity
  8
0
  6
HIDDEN
 62
     7
370
     0
100
AcDbLine
 10
191.8667456241
 20
143.9948211408
 30
0.0
 11
235.1667456241
 21
143.9948211408
 31
0.0
  0
LINE
  5
14F
330
1F
100
AcDbEntity
  8
0
  6
HIDDEN
 62
     7
370
     0
100
AcDbLine
 10
235.1667456241
 20
152.3948211408
 30
0.0
 11
191.8667456241
 21
152.3948211408
 31
0.0
  0
LINE
  5
150
330
1F
100
AcDbEntity
  8
0
  6
HIDDEN
 62
     7
370
     0
100
AcDbLine
 10
164.8167456241
 20
168.130221479
 30
0.0
 11
164.8167456241
 21
171.7947853948
 31
0.0
  0
LINE
  5
151
330
1F
100
AcDbEntity
  8
0
  6
HIDDEN
 62
     7
370
     0
100
AcDbLine
 10
157.3167456241
 20
171.373235144
 30
0.0
 11
157.3167456241
 21
168.1904433727
 31
0.0
  0
LINE
  5
152
330
1F
100
AcDbEntity
  8
0
  6
HIDDEN
 62
     7
370
     0
100
AcDbLine
 10
164.8167456241
 20
124.5949997281
 30
0.0
 11
164.8167456241
 21
128.2594208025
 31
0.0
  0
LINE
  5
153
330
1F
100
AcDbEntity
  8
0
  6
HIDDEN
 62
     7
370
     0
100
AcDbLine
 10
157.3167456241
 20
128.1991989088
 30
0.0
 11
157.3167456241
 21
125.0165270233
 31
0.0
  0
LINE
  5
154
330
1F
100
AcDbEntity
  8
0
  6
HIDDEN
 62
     7
370
     0
100
AcDbLine
 10
260.0667456241
 20
151.5448211408
 30
0.0
 11
256.9923554406
 21
149.7698211408
 31
0.0
  0
LINE
  5
155
330
1F
100
AcDbEntity
  8
0
  6
HIDDEN
 62
     7
370
     0
100
AcDbLine
 10
256.9923554406
 20
146.6198211408
 30
0.0
 11
260.0667456241
 21
144.8448211408
 31
0.0
  0
LINE
  5
156
330
1F
100
AcDbEntity
  8
0
  6
HIDDEN
 62
     7
370
     0
100
AcDbLine
 10
256.9923554406
 20
149.7698211408
 30
0.0
 11
255.076072298
 21
149.7698211408
 31
0.0
  0
LINE
  5
157
330
1F
100
AcDbEntity
  8
0
  6
HIDDEN
 62
     7
370
     0
100
AcDbLine
 10
255.076072298
 20
146.6198211408
 30
0.0
 11
256.9923554406
 21
146.6198211408
 31
0.0
  0
LINE
  5
158
330
1F
100
AcDbEntity
  8
0
  6
HIDDEN
 62
     7
370
     0
100
AcDbLine
 10
255.076072298
 20
149.7698211408
 30
0.0
 11
254.1667456241
 21
148.1948211408
 31
0.0
  0
LINE
  5
159
330
1F
100
AcDbEntity
  8
0
  6
HIDDEN
 62
     7
370
     0
100
AcDbLine
 10
254.1667456241
 20
148.1948211408
 30
0.0
 11
255.076072298
 21
146.6198211408
 31
0.0
  0
DIMENSION
  5
15A
330
1F
100
AcDbEntity
  8
VERMASSUNG
100
AcDbDimension
  2
_D
 10
131.791007584
 20
116.6948211408
 30
0.0
 11
131.791007584
 21
148.1948211408
 31
0.0
 70
   160
  1
HSK T %%c<>
 71
     2
 42
-1.0
  3
SLDDIMSTYLE0
100
AcDbAlignedDimension
 13
170.3667456241
 23
179.6948211408
 33
0.0
 14
170.3667456241
 24
116.6948211408
 34
0.0
 50
90.0
100
AcDbRotatedDimension
  0
DIMENSION
  5
167
330
1F
100
AcDbEntity
  8
VERMASSUNG
100
AcDbDimension
  2
_D_1
 10
260.0667456241
 20
186.6061755146
 30
0.0
 11
215.0667456241
 21
186.6061755146
 31
0.0
 70
   160
  1
<>
 71
     2
 42
-1.0
  3
SLDDIMSTYLE0
100
AcDbAlignedDimension
 13
170.0667456241
 23
179.3948211408
 33
0.0
 14
260.0667456241
 24
178.1948211408
 34
0.0
100
AcDbRotatedDimension
  0
DIMENSION
  5
171
330
1F
100
AcDbEntity
  8
VERMASSUNG
100
AcDbDimension
  2
_D_2
 10
138.1667456241
 20
192.6061755146
 30
0.0
 11
199.1167456241
 21
192.6061755146
 31
0.0
 70
   160
  1
<>
 71
     2
 42
-1.0
  3
SLDDIMSTYLE0
100
AcDbAlignedDimension
 13
260.0667456241
 23
178.1948211408
 33
0.0
 14
138.1667456241
 24
168.1708816454
 34
0.0
100
AcDbRotatedDimension
  0
LINE
  5
17B
330
1F
100
AcDbEntity
  8
VERMASSUNG
  6
CENTERX2
370
     0
100
AcDbLine
 10
133.871324709
 20
148.1948211408
 30
0.0
 11
263.3580776529
 21
148.1948211408
 31
0.0
  0
LINE
  5
17C
330
1F
100
AcDbEntity
  8
0
  6
Continuous
 62
     7
370
    15
100
AcDbLine
 10
54.4087454921
 20
163.6948211408
 30
0.0
 11
55.4087454921
 21
164.6948211408
 31
0.0
  0
LINE
  5
17D
330
1F
100
AcDbEntity
  8
0
  6
Continuous
 62
     7
370
    15
100
AcDbLine
 10
55.4087454921
 20
171.6948211408
 30
0.0
 11
54.4087454921
 21
172.6948211408
 31
0.0
  0
CIRCLE
  5
17E
330
1F
100
AcDbEntity
  8
0
  6
Continuous
 62
     7
370
    15
100
AcDbCircle
 10
43.36688958
 20
155.6994362601
 30
0.0
 40
3.231352231505634
  0
CIRCLE
  5
17F
330
1F
100
AcDbEntity
  8
0
  6
Continuous
 62
     7
370
    15
100
AcDbCircle
 10
43.3636090309
 20
155.6994432177
 30
0.0
 40
2.484627564214403
  0
CIRCLE
  5
180
330
1F
100
AcDbEntity
  8
0
  6
Continuous
 62
     7
370
    15
100
AcDbCircle
 10
43.3675288335
 20
155.7514589438
 30
0.0
 40
2.087038826909129
  0
ARC
  5
181
330
1F
100
AcDbEntity
  8
0
  6
Continuous
 62
     7
370
    15
100
AcDbCircle
 10
43.4451881308
 20
156.4936831921
 30
0.0
 40
2.102504331745561
100
AcDbArc
 50
183.5001380689
 51
342.595440458
  0
CIRCLE
  5
182
330
1F
100
AcDbEntity
  8
0
  6
Continuous
 62
     7
370
    15
100
AcDbCircle
 10
43.4087454921
 20
156.1948211408
 30
0.0
 40
4.582575694955836
  0
CIRCLE
  5
183
330
1F
100
AcDbEntity
  8
0
  6
Continuous
 62
     7
370
    15
100
AcDbCircle
 10
43.4087454921
 20
156.1948211408
 30
0.0
 40
6.000000000000004
  0
LINE
  5
184
330
1F
100
AcDbEntity
  8
0
  6
Continuous
 62
     7
370
    15
100
AcDbLine
 10
55.4087454921
 20
168.2920726079
 30
0.0
 11
55.4087454921
 21
171.6948211408
 31
0.0
  0
LINE
  5
185
330
1F
100
AcDbEntity
  8
0
  6
Continuous
 62
     7
370
    15
100
AcDbLine
 10
55.4087454921
 20
164.6948211408
 30
0.0
 11
55.4087454921
 21
168.2920726079
 31
0.0
  0
LINE
  5
186
330
1F
100
AcDbEntity
  8
0
  6
Continuous
 62
     7
370
    15
100
AcDbLine
 10
75.4087454921
 20
158.1948211408
 30
0.0
 11
75.4087454921
 21
178.1948211408
 31
0.0
  0
LINE
  5
187
330
1F
100
AcDbEntity
  8
0
  6
Continuous
 62
     7
370
    15
100
AcDbLine
 10
81.8662586028
 20
178.1948211408
 30
0.0
 11
75.4087454921
 21
178.1948211408
 31
0.0
  0
ARC
  5
188
330
1F
100
AcDbEntity
  8
0
  6
Continuous
 62
     7
370
    15
100
AcDbCircle
 10
55.4087454921
 20
148.1948211408
 30
0.0
 40
40.00000000000001
100
AcDbArc
 50
28.9550243719
 51
48.5903778907
  0
LINE
  5
189
330
1F
100
AcDbEntity
  8
0
  6
Continuous
 62
     7
370
    15
100
AcDbLine
 10
44.4087454921
 20
122.1948211408
 30
0.0
 11
75.4087454921
 21
122.1948211408
 31
0.0
  0
LINE
  5
18A
330
1F
100
AcDbEntity
  8
0
  6
Continuous
 62
     7
370
    15
100
AcDbLine
 10
29.4087454921
 20
137.1948211408
 30
0.0
 11
44.4087454921
 21
122.1948211408
 31
0.0
  0
LINE
  5
18B
330
1F
100
AcDbEntity
  8
0
  6
Continuous
 62
     7
370
    15
100
AcDbLine
 10
29.4087454921
 20
178.1948211408
 30
0.0
 11
29.4087454921
 21
137.1948211408
 31
0.0
  0
LINE
  5
18C
330
1F
100
AcDbEntity
  8
0
  6
Continuous
 62
     7
370
    15
100
AcDbLine
 10
54.4087454921
 20
178.1948211408
 30
0.0
 11
29.4087454921
 21
178.1948211408
 31
0.0
  0
LINE
  5
18D
330
1F
100
AcDbEntity
  8
0
  6
Continuous
 62
     7
370
    15
100
AcDbLine
 10
54.4087454921
 20
158.1948211408
 30
0.0
 11
54.4087454921
 21
178.1948211408
 31
0.0
  0
LINE
  5
18E
330
1F
100
AcDbEntity
  8
0
  6
Continuous
 62
     7
370
    15
100
AcDbLine
 10
75.4087454921
 20
158.1948211408
 30
0.0
 11
54.4087454921
 21
158.1948211408
 31
0.0
  0
CIRCLE
  5
18F
330
1F
100
AcDbEntity
  8
0
  6
Continuous
 62
     7
370
    15
100
AcDbCircle
 10
55.4087454921
 20
148.1948211408
 30
0.0
 40
3.349999999999994
  0
LINE
  5
190
330
1F
100
AcDbEntity
  8
0
  6
Continuous
 62
     7
370
    15
100
AcDbLine
 10
90.4087454921
 20
137.1948211408
 30
0.0
 11
90.4087454921
 21
167.5597378718
 31
0.0
  0
LINE
  5
191
330
1F
100
AcDbEntity
  8
0
  6
Continuous
 62
     7
370
    15
100
AcDbLine
 10
75.4087454921
 20
122.1948211408
 30
0.0
 11
90.4087454921
 21
137.1948211408
 31
0.0
  0
CIRCLE
  5
192
330
1F
100
AcDbEntity
  8
0
  6
Continuous
 62
     7
370
    15
100
AcDbCircle
 10
55.4087454921
 20
148.1948211408
 30
0.0
 40
1.575000000000017
  0
ELLIPSE
  5
193
330
1F
100
AcDbEntity
  8
0
  6
Continuous
 62
     7
370
    15
100
AcDbEllipse
 10
44.4170061933
 20
155.8913198559
 30
0.0
 11
1.930647247026443
 21
-1.351853755991727
 31
0.0
210
0.0
220
0.0
230
1.0
 40
0.8910065242
 41
2.723210450435597
 42
4.50769420300842
  0
LINE
  5
194
330
1F
100
AcDbEntity
  8
0
  6
Continuous
 62
     7
370
    15
100
AcDbLine
 10
54.4087454921
 20
178.1948211408
 30
0.0
 11
75.4087454921
 21
178.1948211408
 31
0.0
  0
SPLINE
  5
195
330
1F
100
AcDbEntity
  8
0
  6
Continuous
 62
     7
370
    15
100
AcDbSpline
210
0.0
220
0.0
230
1.0
 70
    24
 71
     3
 72
    20
 73
    16
 74
     0
 42
0.00000001
 43
0.00000001
 12
1.0
 22
0.0
 32
0.0
 13
1.0
 23
0.0
 33
0.0
 40
0.0
 40
0.0
 40
0.0
 40
0.0
 40
0.2500000000000001
 40
0.2500000000000001
 40
0.375
 40
0.375
 40
0.4375000000000001
 40
0.4375000000000001
 40
0.4687500000000001
 40
0.4687500000000001
 40
0.5
 40
0.5
 40
0.75
 40
0.75
 40
1.0
 40
1.0
 40
1.0
 40
1.0
 10
61.06913417135482
 20
121.7948211407894
 30
0.0
 10
60.10805011821514
 20
121.7948211407894
 30
0.0
 10
59.14795179631871
 20
121.7948211407894
 30
0.0
 10
57.70763580815287
 20
121.7948211407894
 30
0.0
 10
57.22750745857296
 20
121.7948211407894
 30
0.0
 10
56.50712140211227
 20
121.7948211407895
 30
0.0
 10
56.26696088134773
 20
121.7948211407895
 30
0.0
 10
55.90666014974312
 20
121.7948211407894
 30
0.0
 10
55.78654999014849
 20
121.7948211407894
 30
0.0
 10
55.54630885538652
 20
121.7948211407895
 30
0.0
 10
55.42556413993797
 20
121.7948211407895
 30
0.0
 10
54.38198343644522
 20
121.7948211407895
 30
0.0
 10
53.45538984089583
 20
121.7948211407894
 30
0.0
 10
51.60270148319036
 20
121.7948211407895
 30
0.0
 10
50.67651402602883
 20
121.7948211407894
 30
0.0
 10
49.74835681288688
 20
121.7948211407894
 30
0.0
  0
SPLINE
  5
196
330
1F
100
AcDbEntity
  8
0
  6
Continuous
 62
     7
370
    15
100
AcDbSpline
210
0.0
220
0.0
230
1.0
 70
    24
 71
     3
 72
    10
 73
     6
 74
     0
 42
0.00000001
 43
0.00000001
 12
1.0
 22
0.0
 32
0.0
 13
1.0
 23
0.0
 33
0.0
 40
0.0
 40
0.0
 40
0.0
 40
0.0
 40
0.5
 40
0.5
 40
1.0
 40
1.0
 40
1.0
 40
1.0
 10
46.40874549212084
 20
118.6345437401966
 30
0.0
 10
46.40874549212084
 20
118.474656472003
 30
0.0
 10
46.40874549212084
 20
118.3135292164884
 30
0.0
 10
46.40874549212084
 20
118.0794302181335
 30
0.0
 10
46.40874549212084
 20
118.0079034445423
 30
0.0
 10
46.40874549212084
 20
118.0079034445423
 30
0.0
  0
ARC
  5
197
330
1F
100
AcDbEntity
  8
0
  6
Continuous
 62
     7
370
    15
100
AcDbCircle
 10
55.4087454921
 20
148.1948211408
 30
0.0
 40
31.49999999999999
100
AcDbArc
 50
145.6287439759
 51
253.398450401
  0
SPLINE
  5
198
330
1F
100
AcDbEntity
  8
0
  6
Continuous
 62
     7
370
    15
100
AcDbSpline
210
0.0
220
0.0
230
1.0
 70
    24
 71
     3
 72
    13
 73
     9
 74
     0
 42
0.00000001
 43
0.00000001
 12
1.0
 22
0.0
 32
0.0
 13
1.0
 23
0.0
 33
0.0
 40
0.0
 40
0.0
 40
0.0
 40
0.0
 40
0.0487153782545641
 40
0.3180302263653364
 40
0.5818979844213995
 40
0.7472480861131678
 40
0.9916810939019924
 40
1.0
 40
1.0
 40
1.0
 40
1.0
 10
47.40874549212084
 20
178.1948211407894
 30
0.0
 10
47.40874549212084
 20
178.2077201352747
 30
0.0
 10
47.40874549212084
 20
178.2919290705846
 30
0.0
 10
47.40874549212085
 20
178.4303711228403
 30
0.0
 10
47.40874549212083
 20
178.560721122553
 30
0.0
 10
47.40874549212089
 20
178.6410053664524
 30
0.0
 10
47.40874549212072
 20
178.6617572956895
 30
0.0
 10
47.40874549212085
 20
178.662008350892
 30
0.0
 10
47.40874549212086
 20
178.6620166139537
 30
0.0
  0
LINE
  5
199
330
1F
100
AcDbEntity
  8
0
  6
Continuous
 62
     7
370
    15
100
AcDbLine
 10
45.804059136
 20
178.1948211408
 30
0.0
 11
47.4087454921
 21
178.662016614
 31
0.0
  0
SPLINE
  5
19A
330
1F
100
AcDbEntity
  8
0
  6
Continuous
 62
     7
370
    15
100
AcDbSpline
210
0.0
220
0.0
230
1.0
 70
    24
 71
     3
 72
    12
 73
     8
 74
     0
 42
0.00000001
 43
0.00000001
 12
1.0
 22
0.0
 32
0.0
 13
1.0
 23
0.0
 33
0.0
 40
0.0
 40
0.0
 40
0.0
 40
0.0
 40
0.1114395823133986
 40
0.2533278573461862
 40
0.5048933069157362
 40
0.756228814630366
 40
0.9999999999999999
 40
0.9999999999999999
 40
0.9999999999999999
 40
0.9999999999999999
 10
63.40874549212083
 20
178.6620166139537
 30
0.0
 10
63.40874549212083
 20
178.6606623924372
 30
0.0
 10
63.40874549212084
 20
178.6575839347832
 30
0.0
 10
63.40874549212084
 20
178.6227476844719
 30
0.0
 10
63.40874549212084
 20
178.5357337854049
 30
0.0
 10
63.40874549212084
 20
178.3834432359016
 30
0.0
 10
63.40874549212084
 20
178.2570514944828
 30
0.0
 10
63.40874549212084
 20
178.1948211407894
 30
0.0
  0
LINE
  5
19B
330
1F
100
AcDbEntity
  8
0
  6
Continuous
 62
     7
370
    15
100
AcDbLine
 10
63.4087454921
 20
178.662016614
 30
0.0
 11
65.0134318483
 21
178.1948211408
 31
0.0
  0
ARC
  5
19C
330
1F
100
AcDbEntity
  8
0
  6
Continuous
 62
     7
370
    15
100
AcDbCircle
 10
55.4087454921
 20
148.1948211408
 30
0.0
 40
31.49999999999998
100
AcDbArc
 50
286.601549599
 51
304.3712560241
  0
SPLINE
  5
19D
330
1F
100
AcDbEntity
  8
0
  6
Continuous
 62
     7
370
    15
100
AcDbSpline
210
0.0
220
0.0
230
1.0
 70
    24
 71
     3
 72
    12
 73
     8
 74
     0
 42
0.00000001
 43
0.00000001
 12
1.0
 22
0.0
 32
0.0
 13
1.0
 23
0.0
 33
0.0
 40
0.0
 40
0.0
 40
0.0
 40
0.0
 40
0.2499999999999999
 40
0.2499999999999999
 40
0.4999999999999998
 40
0.4999999999999998
 40
1.0
 40
1.0
 40
1.0
 40
1.0
 10
64.40874549212084
 20
118.0079034445423
 30
0.0
 10
64.40874549212084
 20
118.0079034445423
 30
0.0
 10
64.40874549212084
 20
118.0250205308081
 30
0.0
 10
64.40874549212084
 20
118.0897566422832
 30
0.0
 10
64.40874549212084
 20
118.1372138851636
 30
0.0
 10
64.40874549212084
 20
118.3140383277031
 30
0.0
 10
64.40874549212084
 20
118.4743148349088
 30
0.0
 10
64.40874549212084
 20
118.6345437401965
 30
0.0
  0
LINE
  5
19E
330
1F
100
AcDbEntity
  8
0
  6
Continuous
 62
     7
370
    15
100
AcDbLine
 10
64.4087454921
 20
118.6345437402
 30
0.0
 11
64.4087454921
 21
121.7948211408
 31
0.0
  0
LINE
  5
19F
330
1F
100
AcDbEntity
  8
0
  6
Continuous
 62
     7
370
    15
100
AcDbLine
 10
64.4087454921
 20
121.7948211408
 30
0.0
 11
61.0691341714
 21
121.7948211408
 31
0.0
  0
LINE
  5
1A0
330
1F
100
AcDbEntity
  8
0
  6
Continuous
 62
     7
370
    15
100
AcDbLine
 10
46.4087454921
 20
121.7948211408
 30
0.0
 11
46.4087454921
 21
118.6345437402
 31
0.0
  0
LINE
  5
1A1
330
1F
100
AcDbEntity
  8
0
  6
Continuous
 62
     7
370
    15
100
AcDbLine
 10
49.7483568129
 20
121.7948211408
 30
0.0
 11
46.4087454921
 21
121.7948211408
 31
0.0
  0
SPLINE
  5
1A2
330
1F
100
AcDbEntity
  8
0
  6
Continuous
 62
     7
370
    15
100
AcDbSpline
210
0.0
220
0.0
230
1.0
 70
     8
 71
     3
 72
    30
 73
    26
 74
     0
 42
0.00000001
 43
0.00000001
 12
1.0
 22
0.0
 32
0.0
 13
1.0
 23
0.0
 33
0.0
 40
0.0
 40
0.0
 40
0.0
 40
0.0
 40
0.1250000000000002
 40
0.1250000000000002
 40
0.1875000000000002
 40
0.1875000000000002
 40
0.2500000000000003
 40
0.2500000000000003
 40
0.3750000000000004
 40
0.3750000000000004
 40
0.4375000000000004
 40
0.4375000000000004
 40
0.5000000000000004
 40
0.5000000000000004
 40
0.6250000000000004
 40
0.6250000000000004
 40
0.6875000000000003
 40
0.6875000000000003
 40
0.7500000000000002
 40
0.7500000000000002
 40
0.8125000000000001
 40
0.8125000000000001
 40
0.8749999999999999
 40
0.8749999999999999
 40
1.0
 40
1.0
 40
1.0
 40
1.0
 10
56.40874549212085
 20
116.7106981579271
 30
0.0
 10
56.94016342252144
 20
116.7275770759357
 30
0.0
 10
57.46182262009561
 20
116.7575946407604
 30
0.0
 10
58.23046440725464
 20
116.8204050300335
 30
0.0
 10
58.48435420641965
 20
116.8443089372604
 30
0.0
 10
58.98742698236574
 20
116.8977442297028
 30
0.0
 10
59.23689083058238
 20
116.9273510978704
 30
0.0
 10
59.96180172817925
 20
117.0218007965848
 30
0.0
 10
60.41967906507143
 20
117.092828190414
 30
0.0
 10
61.06944629055427
 20
117.2068424771198
 30
0.0
 10
61.28083299396444
 20
117.2462977282604
 30
0.0
 10
61.6854668047346
 20
117.325819171031
 30
0.0
 10
61.87820727623582
 20
117.3657553135318
 30
0.0
 10
62.42863815261275
 20
117.48469171636
 30
0.0
 10
62.75882152989337
 20
117.5628564802438
 30
0.0
 10
63.1974973465438
 20
117.6725659205127
 30
0.0
 10
63.33329590503033
 20
117.7076467572211
 30
0.0
 10
63.5801729378765
 20
117.7728870366007
 30
0.0
 10
63.69195147520451
 20
117.8032218526455
 30
0.0
 10
63.89238166507812
 20
117.8585602318673
 30
0.0
 10
63.98103400828162
 20
117.8835649084274
 30
0.0
 10
64.13470155596272
 20
117.9274447173181
 30
0.0
 10
64.19994926021457
 20
117.9463884020804
 30
0.0
 10
64.35625431357884
 20
117.9921081293506
 30
0.0
 10
64.40874549212084
 20
118.0079034445423
 30
0.0
 10
64.40874549212084
 20
118.0079034445423
 30
0.0
  0
SPLINE
  5
1A3
330
1F
100
AcDbEntity
  8
0
  6
Continuous
 62
     7
370
    15
100
AcDbSpline
210
0.0
220
0.0
230
1.0
 70
     8
 71
     3
 72
    28
 73
    24
 74
     0
 42
0.00000001
 43
0.00000001
 12
1.0
 22
0.0
 32
0.0
 13
1.0
 23
0.0
 33
0.0
 40
0.0
 40
0.0
 40
0.0
 40
0.0
 40
0.1250000000000001
 40
0.1250000000000001
 40
0.1875000000000001
 40
0.1875000000000001
 40
0.2500000000000001
 40
0.2500000000000001
 40
0.375
 40
0.375
 40
0.4375000000000001
 40
0.4375000000000001
 40
0.5
 40
0.5
 40
0.625
 40
0.625
 40
0.7499999999999999
 40
0.7499999999999999
 40
0.8124999999999999
 40
0.8124999999999999
 40
0.875
 40
0.875
 40
1.0
 40
1.0
 40
1.0
 40
1.0
 10
46.40874549212084
 20
118.0079034445423
 30
0.0
 10
46.40874549212084
 20
118.0079034445423
 30
0.0
 10
46.46122183443906
 20
117.9921187305921
 30
0.0
 10
46.61501878199596
 20
117.9471233165159
 30
0.0
 10
46.67889375702997
 20
117.9285683214402
 30
0.0
 10
46.83239002568649
 20
117.8847155989937
 30
0.0
 10
46.92220500108019
 20
117.8593709920414
 30
0.0
 10
47.22418379613105
 20
117.7759689142913
 30
0.0
 10
47.4701372301868
 20
117.7101033551403
 30
0.0
 10
47.90550440961518
 20
117.6011330146485
 30
0.0
 10
48.06271959178753
 20
117.5628933788818
 30
0.0
 10
48.39488421232998
 20
117.4851346414625
 30
0.0
 10
48.56969147793287
 20
117.4456336792871
 30
0.0
 10
49.11975066851869
 20
117.3267259369211
 30
0.0
 10
49.52037405291416
 20
117.2469082554965
 30
0.0
 10
50.39296016426287
 20
117.0935650937004
 30
0.0
 10
50.85309561186444
 20
117.0222313404312
 30
0.0
 10
51.57306170583062
 20
116.9282878333566
 30
0.0
 10
51.81833541586515
 20
116.8990940399966
 30
0.0
 10
52.31979175229398
 20
116.8456274657332
 30
0.0
 10
52.5772231216665
 20
116.821268131458
 30
0.0
 10
53.353162917531
 20
116.7576779860133
 30
0.0
 10
53.87739131743703
 20
116.7275750509241
 30
0.0
 10
54.40874549212085
 20
116.7106981579271
 30
0.0
  0
SPLINE
  5
1A4
330
1F
100
AcDbEntity
  8
0
  6
Continuous
 62
     7
370
    15
100
AcDbSpline
210
0.0
220
0.0
230
1.0
 70
     8
 71
     3
 72
    50
 73
    46
 74
     0
 42
0.00000001
 43
0.00000001
 12
1.0
 22
0.0
 32
0.0
 13
1.0
 23
0.0
 33
0.0
 40
0.0
 40
0.0
 40
0.0
 40
0.0
 40
0.0625000000000003
 40
0.0625000000000003
 40
0.0937500000000003
 40
0.0937500000000003
 40
0.1250000000000004
 40
0.1250000000000004
 40
0.1875000000000002
 40
0.1875000000000002
 40
0.2187500000000001
 40
0.2187500000000001
 40
0.2500000000000001
 40
0.2500000000000001
 40
0.3125000000000001
 40
0.3125000000000001
 40
0.375
 40
0.375
 40
0.40625
 40
0.40625
 40
0.4375000000000001
 40
0.4375000000000001
 40
0.5
 40
0.5
 40
0.5624999999999999
 40
0.5624999999999999
 40
0.6249999999999999
 40
0.6249999999999999
 40
0.6562499999999999
 40
0.6562499999999999
 40
0.6874999999999999
 40
0.6874999999999999
 40
0.71875
 40
0.71875
 40
0.75
 40
0.75
 40
0.8125
 40
0.8125
 40
0.8750000000000001
 40
0.8750000000000001
 40
0.9375000000000001
 40
0.9375000000000001
 40
0.9687500000000001
 40
0.9687500000000001
 40
1.0
 40
1.0
 40
1.0
 40
1.0
 10
47.40874549212084
 20
178.6620166139537
 30
0.0
 10
47.40874549212084
 20
178.6620166139537
 30
0.0
 10
47.4610396340739
 20
178.6758827173349
 30
0.0
 10
47.61439216890665
 20
178.7153198602189
 30
0.0
 10
47.67808966425788
 20
178.7315725624839
 30
0.0
 10
47.83118131454768
 20
178.7699212723343
 30
0.0
 10
47.92083741650851
 20
178.7920747187423
 30
0.0
 10
48.22241880468256
 20
178.8648306646044
 30
0.0
 10
48.46816023511654
 20
178.9221113674491
 30
0.0
 10
48.9033203014672
 20
179.0161038069049
 30
0.0
 10
49.06046112892837
 20
179.0489627740981
 30
0.0
 10
49.39310022165268
 20
179.1155388275463
 30
0.0
 10
49.56816617709271
 20
179.1491822653852
 30
0.0
 10
50.11902170779432
 20
179.2497431299623
 30
0.0
 10
50.52020611698098
 20
179.3163059397124
 30
0.0
 10
51.39369532306836
 20
179.441004995012
 30
0.0
 10
51.8557359160508
 20
179.4975280040826
 30
0.0
 10
52.57685132964473
 20
179.5681969386974
 30
0.0
 10
52.8224119673281
 20
179.5894731487689
 30
0.0
 10
53.3242002664863
 20
179.6267788750108
 30
0.0
 10
53.58196148280295
 20
179.6428700718708
 30
0.0
 10
54.35707394702273
 20
179.6815115434785
 30
0.0
 10
54.87750313074241
 20
179.6947009620349
 30
0.0
 10
55.92563897152778
 20
179.694939685493
 30
0.0
 10
56.45814730190155
 20
179.6815396827888
 30
0.0
 10
57.48583756406814
 20
179.6304756945937
 30
0.0
 10
57.98560174464988
 20
179.5930365598394
 30
0.0
 10
58.71409674467035
 20
179.521873076921
 30
0.0
 10
58.95344773711583
 20
179.4956046187285
 30
0.0
 10
59.4146862086027
 20
179.4399231459762
 30
0.0
 10
59.63795286366997
 20
179.4103853740403
 30
0.0
 10
60.07014046969203
 20
179.3487782290126
 30
0.0
 10
60.27906104993201
 20
179.3167072862914
 30
0.0
 10
60.68248597545573
 20
179.250890309322
 30
0.0
 10
60.87796563542508
 20
179.2169600908588
 30
0.0
 10
61.43382384896132
 20
179.1155314632786
 30
0.0
 10
61.76338123559289
 20
179.0486124345885
 30
0.0
 10
62.34277673337883
 20
178.9235868722467
 30
0.0
 10
62.59429670482321
 20
178.8650100780126
 30
0.0
 10
62.99575120143678
 20
178.7681752263676
 30
0.0
 10
63.14823419698389
 20
178.7294202668085
 30
0.0
 10
63.30354514615912
 20
178.6894927363722
 30
0.0
 10
63.34305859356527
 20
178.6792009451217
 30
0.0
 10
63.39557194086105
 20
178.6654847325827
 30
0.0
 10
63.40874549212084
 20
178.6620166139537
 30
0.0
 10
63.40874549212084
 20
178.6620166139537
 30
0.0
  0
ARC
  5
1A5
330
1F
100
AcDbEntity
  8
0
  6
Continuous
 62
     7
370
    15
100
AcDbCircle
 10
55.4087454921
 20
148.1948211408
 30
0.0
 40
31.49999999999999
100
AcDbArc
 50
268.180780706
 51
271.819219294
  0
DIMENSION
  5
1A6
330
1F
100
AcDbEntity
  8
VERMASSUNG
100
AcDbDimension
  2
_D_3
 10
75.4087454921
 20
183.5554712893
 30
0.0
 11
65.4087454921
 21
183.5554712893
 31
0.0
 70
   160
  1
<>
 71
     2
 42
-1.0
  3
SLDDIMSTYLE0
100
AcDbAlignedDimension
 13
55.4087454921
 23
182.1948211408
 33
0.0
 14
75.4087454921
 24
178.1948211408
 34
0.0
100
AcDbRotatedDimension
  0
DIMENSION
  5
1B0
330
1F
100
AcDbEntity
  8
VERMASSUNG
100
AcDbDimension
  2
_D_4
 10
90.4087454921
 20
189.5554712893
 30
0.0
 11
72.9087454921
 21
189.5554712893
 31
0.0
 70
   160
  1
<>
 71
     2
 42
-1.0
  3
SLDDIMSTYLE0
100
AcDbAlignedDimension
 13
55.4087454921
 23
182.1948211408
 33
0.0
 14
90.4087454921
 24
167.5597378718
 34
0.0
100
AcDbRotatedDimension
  0
DIMENSION
  5
1BA
330
1F
100
AcDbEntity
  8
VERMASSUNG
100
AcDbDimension
  2
_D_5
 10
90.4087454921
 20
195.5554712893
 30
0.0
 11
59.9087454921
 21
195.5554712893
 31
0.0
 70
   160
  1
<>
 71
     2
 42
-1.0
  3
SLDDIMSTYLE0
100
AcDbAlignedDimension
 13
29.4087454921
 23
178.1948211408
 33
0.0
 14
90.4087454921
 24
167.5597378718
 34
0.0
100
AcDbRotatedDimension
  0
DIMENSION
  5
1C4
330
1F
100
AcDbEntity
  8
VERMASSUNG
100
AcDbDimension
  2
_D_6
 10
96.5986470552
 20
158.1948211408
 30
0.0
 11
96.5986470552
 21
168.1948211408
 31
0.0
 70
   160
  1
<>
 71
     2
 42
-1.0
  3
SLDDIMSTYLE0
100
AcDbAlignedDimension
 13
81.8662586028
 23
178.1948211408
 33
0.0
 14
54.4087454921
 24
158.1948211408
 34
0.0
 50
90.0
100
AcDbRotatedDimension
  0
DIMENSION
  5
1CE
330
1F
100
AcDbEntity
  8
VERMASSUNG
100
AcDbDimension
  2
_D_7
 10
102.5986470552
 20
148.1948211408
 30
0.0
 11
102.5986470552
 21
163.1948211408
 31
0.0
 70
   160
  1
<>
 71
     2
 42
-1.0
  3
SLDDIMSTYLE0
100
AcDbAlignedDimension
 13
81.8662586028
 23
178.1948211408
 33
0.0
 14
89.4087454921
 24
148.1948211408
 34
0.0
 50
90.0
100
AcDbRotatedDimension
  0
DIMENSION
  5
1D8
330
1F
100
AcDbEntity
  8
VERMASSUNG
100
AcDbDimension
  2
_D_8
 10
108.5986470552
 20
122.1948211408
 30
0.0
 11
108.5986470552
 21
150.1948211408
 31
0.0
 70
   160
  1
<>
 71
     2
 42
-1.0
  3
SLDDIMSTYLE0
100
AcDbAlignedDimension
 13
81.8662586028
 23
178.1948211408
 33
0.0
 14
75.4087454921
 24
122.1948211408
 34
0.0
 50
90.0
100
AcDbRotatedDimension
  0
DIMENSION
  5
1E2
330
1F
100
AcDbEntity
  8
VERMASSUNG
100
AcDbDimension
  2
_D_9
 10
24.2565965903
 20
123.104113323
 30
0.0
 11
96.5986570552
 21
181.3701921221
 31
0.0
 70
   163
  1
<>
 71
     1
 42
-1.0
  3
SLDDIMSTYLE1
100
AcDbDiametricDimension
 15
86.560894394
 25
173.2855289586
 35
0.0
 40
0.0
  0
INSERT
  5
1F6
330
1F
100
AcDbEntity
  8
VERMASSUNG
100
AcDbBlockReference
  2
SW_CENTERMARKSYMBOL_0
 10
55.4087454921
 20
148.1948211408
 30
0.0
  0
ARC
  5
1F7
330
1F
100
AcDbEntity
  8
0
  6
Continuous
 62
     7
370
    15
100
AcDbCircle
 10
258.0667456241
 20
48.0420476235
 30
0.0
 40
5.000000000000015
100
AcDbArc
 50
39.0519169468
 51
66.4218215218
  0
ARC
  5
1F8
330
1F
100
AcDbEntity
  8
0
  6
Continuous
 62
     7
370
    15
100
AcDbCircle
 10
258.0667456241
 20
48.0420476235
 30
0.0
 40
5.000000000000009
100
AcDbArc
 50
293.5781784782
 51
319.118694149
  0
LINE
  5
1F9
330
1F
100
AcDbEntity
  8
0
  6
Continuous
 62
     7
370
    15
100
AcDbLine
 10
234.5667456241
 20
59.0420476235
 30
0.0
 11
233.5667456241
 21
60.0420476235
 31
0.0
  0
LINE
  5
1FA
330
1F
100
AcDbEntity
  8
0
  6
Continuous
 62
     7
370
    15
100
AcDbLine
 10
226.5667456241
 20
60.0420476235
 30
0.0
 11
225.5667456241
 21
59.0420476235
 31
0.0
  0
LINE
  5
1FB
330
1F
100
AcDbEntity
  8
0
  6
Continuous
 62
     7
370
    15
100
AcDbLine
 10
254.5667456241
 20
59.0420476235
 30
0.0
 11
253.5667456241
 21
60.0420476235
 31
0.0
  0
LINE
  5
1FC
330
1F
100
AcDbEntity
  8
0
  6
Continuous
 62
     7
370
    15
100
AcDbLine
 10
246.5667456241
 20
60.0420476235
 30
0.0
 11
245.5667456241
 21
59.0420476235
 31
0.0
  0
LINE
  5
1FD
330
1F
100
AcDbEntity
  8
0
  6
Continuous
 62
     7
370
    15
100
AcDbLine
 10
170.3667456241
 20
28.5420476235
 30
0.0
 11
184.6748127926
 21
28.5420476235
 31
0.0
  0
LINE
  5
1FE
330
1F
100
AcDbEntity
  8
0
  6
Continuous
 62
     7
370
    15
100
AcDbLine
 10
172.0667456241
 20
91.5420476235
 30
0.0
 11
170.3667456241
 21
91.5420476235
 31
0.0
  0
LINE
  5
1FF
330
1F
100
AcDbEntity
  8
0
  6
Continuous
 62
     7
370
    15
100
AcDbLine
 10
184.6748127926
 20
91.5420476235
 30
0.0
 11
182.0028808292
 21
91.5420476235
 31
0.0
  0
ARC
  5
200
330
1F
100
AcDbEntity
  8
0
  6
Continuous
 62
     7
370
    15
100
AcDbCircle
 10
170.3667456241
 20
28.8420476235
 30
0.0
 40
0.3000000000000114
100
AcDbArc
 50
180.0
 51
270.0
  0
ARC
  5
201
330
1F
100
AcDbEntity
  8
0
  6
Continuous
 62
     7
370
    15
100
AcDbCircle
 10
170.3667456241
 20
91.2420476235
 30
0.0
 40
0.3000000000000114
100
AcDbArc
 50
90.0
 51
180.0
  0
ARC
  5
202
330
1F
100
AcDbEntity
  8
0
  6
Continuous
 62
     7
370
    15
100
AcDbCircle
 10
195.4167456241
 20
90.9420476235
 30
0.0
 40
0.6000000000000227
100
AcDbArc
 50
0.0
 51
90.0
  0
LINE
  5
203
330
1F
100
AcDbEntity
  8
0
  6
Continuous
 62
     7
370
    15
100
AcDbLine
 10
195.4167456241
 20
91.5420476235
 30
0.0
 11
191.4586784556
 21
91.5420476235
 31
0.0
  0
LINE
  5
204
330
1F
100
AcDbEntity
  8
0
  6
Continuous
 62
     7
370
    15
100
AcDbLine
 10
191.4586784556
 20
91.5420476235
 30
0.0
 11
189.9767456241
 21
88.9752646659
 31
0.0
  0
LINE
  5
205
330
1F
100
AcDbEntity
  8
0
  6
Continuous
 62
     7
370
    15
100
AcDbLine
 10
186.1567456241
 20
88.9752646659
 30
0.0
 11
184.6748127926
 21
91.5420476235
 31
0.0
  0
LINE
  5
206
330
1F
100
AcDbEntity
  8
0
  6
Continuous
 62
     7
370
    15
100
AcDbLine
 10
214.478288356
 20
95.0420476235
 30
0.0
 11
212.2653444624
 21
86.7832285784
 31
0.0
  0
ARC
  5
207
330
1F
100
AcDbEntity
  8
0
  6
Continuous
 62
     7
370
    15
100
AcDbCircle
 10
189.1767456241
 20
88.3170476235
 30
0.0
 40
0.8000000000000114
100
AcDbArc
 50
270.0
 51
0.0
  0
ARC
  5
208
330
1F
100
AcDbEntity
  8
0
  6
Continuous
 62
     7
370
    15
100
AcDbCircle
 10
186.9567456241
 20
88.3170476235
 30
0.0
 40
0.7999999999999972
100
AcDbArc
 50
180.0
 51
270.0
  0
ARC
  5
209
330
1F
100
AcDbEntity
  8
0
  6
Continuous
 62
     7
370
    15
100
AcDbCircle
 10
189.1767456241
 20
31.7670476235
 30
0.0
 40
0.8000000000000114
100
AcDbArc
 50
0.0
 51
90.0
  0
ARC
  5
20A
330
1F
100
AcDbEntity
  8
0
  6
Continuous
 62
     7
370
    15
100
AcDbCircle
 10
186.9567456241
 20
31.7670476235
 30
0.0
 40
0.7999999999999936
100
AcDbArc
 50
90.0
 51
180.0
  0
ARC
  5
20B
330
1F
100
AcDbEntity
  8
0
  6
Continuous
 62
     7
370
    15
100
AcDbCircle
 10
211.2994186361
 20
87.0420476235
 30
0.0
 40
1.0
100
AcDbArc
 50
270.0
 51
345.0
  0
LINE
  5
20C
330
1F
100
AcDbEntity
  8
0
  6
Continuous
 62
     7
370
    15
100
AcDbLine
 10
189.1767456241
 20
87.5170476235
 30
0.0
 11
186.9567456241
 21
87.5170476235
 31
0.0
  0
ARC
  5
20D
330
1F
100
AcDbEntity
  8
0
  6
Continuous
 62
     7
370
    15
100
AcDbCircle
 10
197.0167456241
 20
33.0420476235
 30
0.0
 40
1.0
100
AcDbArc
 50
90.0
 51
180.0
  0
ARC
  5
20E
330
1F
100
AcDbEntity
  8
0
  6
Continuous
 62
     7
370
    15
100
AcDbCircle
 10
197.0167456241
 20
87.0420476235
 30
0.0
 40
1.0
100
AcDbArc
 50
180.0
 51
270.0
  0
LINE
  5
20F
330
1F
100
AcDbEntity
  8
0
  6
Continuous
 62
     7
370
    15
100
AcDbLine
 10
186.9567456241
 20
32.5670476235
 30
0.0
 11
189.1767456241
 21
32.5670476235
 31
0.0
  0
LINE
  5
210
330
1F
100
AcDbEntity
  8
0
  6
Continuous
 62
     7
370
    15
100
AcDbLine
 10
197.0167456241
 20
34.0420476235
 30
0.0
 11
211.2994186361
 21
34.0420476235
 31
0.0
  0
LINE
  5
211
330
1F
100
AcDbEntity
  8
0
  6
Continuous
 62
     7
370
    15
100
AcDbLine
 10
211.2994186361
 20
86.0420476235
 30
0.0
 11
197.0167456241
 21
86.0420476235
 31
0.0
  0
ARC
  5
212
330
1F
100
AcDbEntity
  8
0
  6
Continuous
 62
     7
370
    15
100
AcDbCircle
 10
169.5667456241
 20
35.4716167618
 30
0.0
 40
0.6000000000000085
100
AcDbArc
 50
33.5573097619
 51
90.0
  0
ARC
  5
213
330
1F
100
AcDbEntity
  8
0
  6
Continuous
 62
     7
370
    15
100
AcDbCircle
 10
169.5667456241
 20
84.6124784852
 30
0.0
 40
0.6000000000000097
100
AcDbArc
 50
270.0
 51
326.4426902381
  0
LINE
  5
214
330
1F
100
AcDbEntity
  8
0
  6
Continuous
 62
     7
370
    15
100
AcDbLine
 10
168.0667456241
 20
35.8216167618
 30
0.0
 11
168.9234583975
 21
36.0511722575
 31
0.0
  0
LINE
  5
215
330
1F
100
AcDbEntity
  8
0
  6
Continuous
 62
     7
370
    15
100
AcDbLine
 10
168.9234583975
 20
84.0329229894
 30
0.0
 11
168.0667456241
 21
84.2624784852
 31
0.0
  0
LINE
  5
216
330
1F
100
AcDbEntity
  8
0
  6
Continuous
 62
     7
370
    15
100
AcDbLine
 10
168.0667456241
 20
84.2624784852
 30
0.0
 11
139.3067006937
 21
82.8215944707
 31
0.0
  0
LINE
  5
217
330
1F
100
AcDbEntity
  8
0
  6
Continuous
 62
     7
370
    15
100
AcDbLine
 10
139.3067006937
 20
37.2625007763
 30
0.0
 11
168.0667456241
 21
35.8216167618
 31
0.0
  0
ARC
  5
218
330
1F
100
AcDbEntity
  8
0
  6
Continuous
 62
     7
370
    15
100
AcDbCircle
 10
169.0787498245
 20
35.4716167618
 30
0.0
 40
0.6000000000000156
100
AcDbArc
 50
90.0
 51
105.0
  0
ARC
  5
219
330
1F
100
AcDbEntity
  8
0
  6
Continuous
 62
     7
370
    15
100
AcDbCircle
 10
169.0787498245
 20
84.6124784852
 30
0.0
 40
0.6000000000000145
100
AcDbArc
 50
255.0
 51
270.0
  0
LINE
  5
21A
330
1F
100
AcDbEntity
  8
0
  6
Continuous
 62
     7
370
    15
100
AcDbLine
 10
169.0787498245
 20
36.0716167618
 30
0.0
 11
169.5667456241
 21
36.0716167618
 31
0.0
  0
LINE
  5
21B
330
1F
100
AcDbEntity
  8
0
  6
Continuous
 62
     7
370
    15
100
AcDbLine
 10
169.5667456241
 20
84.0124784852
 30
0.0
 11
169.0787498245
 21
84.0124784852
 31
0.0
  0
ARC
  5
21C
330
1F
100
AcDbEntity
  8
0
  6
Continuous
 62
     7
370
    15
100
AcDbCircle
 10
139.3667456241
 20
81.6230976595
 30
0.0
 40
1.199999999999992
100
AcDbArc
 50
92.8681319407
 51
180.0
  0
ARC
  5
21D
330
1F
100
AcDbEntity
  8
0
  6
Continuous
 62
     7
370
    15
100
AcDbCircle
 10
139.3667456241
 20
38.4609975875
 30
0.0
 40
1.199999999999999
100
AcDbArc
 50
180.0
 51
267.1318680593
  0
ARC
  5
21E
330
1F
100
AcDbEntity
  8
0
  6
Continuous
 62
     7
370
    15
100
AcDbCircle
 10
195.4167456241
 20
29.1420476235
 30
0.0
 40
0.6000000000000227
100
AcDbArc
 50
270.0
 51
0.0
  0
LINE
  5
21F
330
1F
100
AcDbEntity
  8
0
  6
Continuous
 62
     7
370
    15
100
AcDbLine
 10
184.6748127926
 20
28.5420476235
 30
0.0
 11
186.1567456241
 21
31.108830581
 31
0.0
  0
LINE
  5
220
330
1F
100
AcDbEntity
  8
0
  6
Continuous
 62
     7
370
    15
100
AcDbLine
 10
189.9767456241
 20
31.108830581
 30
0.0
 11
191.4586784556
 21
28.5420476235
 31
0.0
  0
LINE
  5
221
330
1F
100
AcDbEntity
  8
0
  6
Continuous
 62
     7
370
    15
100
AcDbLine
 10
191.4586784556
 20
28.5420476235
 30
0.0
 11
195.4167456241
 21
28.5420476235
 31
0.0
  0
ARC
  5
222
330
1F
100
AcDbEntity
  8
0
  6
Continuous
 62
     7
370
    15
100
AcDbCircle
 10
250.7339549195
 20
48.1591213923
 30
0.0
 40
11.61854472098907
100
AcDbArc
 50
343.0380999551
 51
15.1325111407
  0
LINE
  5
223
330
1F
100
AcDbEntity
  8
0
  6
Continuous
 62
     7
370
    15
100
AcDbLine
 10
233.5667456241
 20
60.0420476235
 30
0.0
 11
226.5667456241
 21
60.0420476235
 31
0.0
  0
LINE
  5
224
330
1F
100
AcDbEntity
  8
0
  6
Continuous
 62
     7
370
    15
100
AcDbLine
 10
253.5667456241
 20
60.0420476235
 30
0.0
 11
246.5667456241
 21
60.0420476235
 31
0.0
  0
LINE
  5
225
330
1F
100
AcDbEntity
  8
0
  6
Continuous
 62
     7
370
    15
100
AcDbLine
 10
175.0167456241
 20
35.5833579611
 30
0.0
 11
184.6748127926
 21
35.5833579611
 31
0.0
  0
LINE
  5
226
330
1F
100
AcDbEntity
  8
0
  6
Continuous
 62
     7
370
    15
100
AcDbLine
 10
184.6748127926
 20
28.5420476235
 30
0.0
 11
184.6748127926
 21
35.5833579611
 31
0.0
  0
LINE
  5
227
330
1F
100
AcDbEntity
  8
0
  6
Continuous
 62
     7
370
    15
100
AcDbLine
 10
184.6748127926
 20
68.0420476235
 30
0.0
 11
184.6748127926
 21
91.5420476235
 31
0.0
  0
LINE
  5
228
330
1F
100
AcDbEntity
  8
0
  6
Continuous
 62
     7
370
    15
100
AcDbLine
 10
183.0167456241
 20
68.0420476235
 30
0.0
 11
184.6748127926
 21
68.0420476235
 31
0.0
  0
SPLINE
  5
229
330
1F
100
AcDbEntity
  8
0
  6
Continuous
 62
     7
370
    15
100
AcDbSpline
210
0.0
220
0.0
230
1.0
 70
     8
 71
     3
 72
    50
 73
    46
 74
     0
 42
0.00000001
 43
0.00000001
 12
1.0
 22
0.0
 32
0.0
 13
1.0
 23
0.0
 33
0.0
 40
0.0
 40
0.0
 40
0.0
 40
0.0
 40
0.0625000000000003
 40
0.0625000000000003
 40
0.0937500000000003
 40
0.0937500000000003
 40
0.1250000000000004
 40
0.1250000000000004
 40
0.1875000000000002
 40
0.1875000000000002
 40
0.2187500000000001
 40
0.2187500000000001
 40
0.2500000000000001
 40
0.2500000000000001
 40
0.3125000000000001
 40
0.3125000000000001
 40
0.375
 40
0.375
 40
0.40625
 40
0.40625
 40
0.4375000000000001
 40
0.4375000000000001
 40
0.5
 40
0.5
 40
0.5624999999999999
 40
0.5624999999999999
 40
0.6249999999999999
 40
0.6249999999999999
 40
0.6562499999999999
 40
0.6562499999999999
 40
0.6874999999999999
 40
0.6874999999999999
 40
0.71875
 40
0.71875
 40
0.75
 40
0.75
 40
0.8125
 40
0.8125
 40
0.8750000000000001
 40
0.8750000000000001
 40
0.9375000000000001
 40
0.9375000000000001
 40
0.9687500000000001
 40
0.9687500000000001
 40
1.0
 40
1.0
 40
1.0
 40
1.0
 10
183.0167456240751
 20
52.04204762348257
 30
0.0
 10
182.4859757934804
 20
52.04204762348257
 30
0.0
 10
181.9645284671084
 20
52.09434176543562
 30
0.0
 10
181.1956597911825
 20
52.24769430026838
 30
0.0
 10
180.9416031364207
 20
52.3113917956196
 30
0.0
 10
180.4380294691445
 20
52.46448344590941
 30
0.0
 10
180.1883462058417
 20
52.55413954787023
 30
0.0
 10
179.462712532931
 20
52.85572093604428
 30
0.0
 10
179.0041763810853
 20
53.10146236647825
 30
0.0
 10
178.3533185582048
 20
53.53662243282892
 30
0.0
 10
178.1415072248058
 20
53.69376326029009
 30
0.0
 10
177.736530118477
 20
54.0264023530144
 30
0.0
 10
177.5436233597791
 20
54.20146830845443
 30
0.0
 10
176.9927470761172
 20
54.75232383915603
 30
0.0
 10
176.6623383846056
 20
55.15350824834269
 30
0.0
 10
176.077316200318
 20
56.02699745443009
 30
0.0
 10
175.8301456605099
 20
56.48903804741252
 30
0.0
 10
175.5302144197373
 20
57.21015346100644
 30
0.0
 10
175.4418072635228
 20
57.45571409868982
 30
0.0
 10
175.2886486092908
 20
57.95750239784801
 30
0.0
 10
175.2236535510928
 20
58.21526361416468
 30
0.0
 10
175.0686840704667
 20
58.99037607838445
 30
0.0
 10
175.0172188280984
 20
59.51080526210413
 30
0.0
 10
175.0162788541286
 20
60.5589411028895
 30
0.0
 10
175.0685839032845
 20
61.09144943326326
 30
0.0
 10
175.2733479574907
 20
62.11913969542987
 30
0.0
 10
175.4248959136725
 20
62.6189038760116
 30
0.0
 10
175.7267699286319
 20
63.34739887603207
 30
0.0
 10
175.8401510705938
 20
63.58674986847755
 30
0.0
 10
176.0870369457278
 20
64.04798833996442
 30
0.0
 10
176.2210587688619
 20
64.27125499503168
 30
0.0
 10
176.50990678415
 20
64.70344260105375
 30
0.0
 10
176.6647331978656
 20
64.91236318129373
 30
0.0
 10
176.9954752589601
 20
65.31578810681745
 30
0.0
 10
177.1724119632138
 20
65.5112677667868
 30
0.0
 10
177.7278090149317
 20
66.06712598032304
 30
0.0
 10
178.1290923331671
 20
66.3966833669546
 30
0.0
 10
178.993095431825
 20
66.97607886474056
 30
0.0
 10
179.4613367335189
 20
67.22759883618492
 30
0.0
 10
180.4262972118843
 20
67.62905333279849
 30
0.0
 10
180.9248062706402
 20
67.78153632834561
 30
0.0
 10
181.6972334640762
 20
67.93684727752084
 30
0.0
 10
181.9599647127139
 20
67.97636072492699
 30
0.0
 10
182.4869215362174
 20
68.02887407222278
 30
0.0
 10
182.7513531814535
 20
68.04204762348256
 30
0.0
 10
183.0167456240751
 20
68.04204762348256
 30
0.0
  0
LINE
  5
22A
330
1F
100
AcDbEntity
  8
0
  6
Continuous
 62
     7
370
    15
100
AcDbLine
 10
184.6748127926
 20
52.0420476235
 30
0.0
 11
183.0167456241
 21
52.0420476235
 31
0.0
  0
LINE
  5
22B
330
1F
100
AcDbEntity
  8
0
  6
Continuous
 62
     7
370
    15
100
AcDbLine
 10
184.6748127926
 20
40.1920476235
 30
0.0
 11
184.6748127926
 21
52.0420476235
 31
0.0
  0
LINE
  5
22C
330
1F
100
AcDbEntity
  8
0
  6
Continuous
 62
     7
370
    15
100
AcDbLine
 10
182.2623659698
 20
40.1920476235
 30
0.0
 11
184.6748127926
 21
40.1920476235
 31
0.0
  0
SPLINE
  5
22D
330
1F
100
AcDbEntity
  8
0
  6
Continuous
 62
     7
370
    15
100
AcDbSpline
210
0.0
220
0.0
230
1.0
 70
     8
 71
     3
 72
    20
 73
    16
 74
     0
 42
0.00000001
 43
0.00000001
 12
1.0
 22
0.0
 32
0.0
 13
1.0
 23
0.0
 33
0.0
 40
0.0
 40
0.0
 40
0.0
 40
0.0
 40
0.2500000000000005
 40
0.2500000000000005
 40
0.3750000000000004
 40
0.3750000000000004
 40
0.5000000000000003
 40
0.5000000000000003
 40
0.6250000000000002
 40
0.6250000000000002
 40
0.7500000000000001
 40
0.7500000000000001
 40
0.8750000000000001
 40
0.8750000000000001
 40
1.0
 40
1.0
 40
1.0
 40
1.0
 10
175.0167456240752
 20
35.58335796111515
 30
0.0
 10
175.2651193583632
 20
36.11401472894983
 30
0.0
 10
175.5846894507085
 20
36.64774272521134
 30
0.0
 10
176.2069956839132
 20
37.43071504320009
 30
0.0
 10
176.4384199443439
 20
37.68869864329676
 30
0.0
 10
176.9596342839936
 20
38.19309389970459
 30
0.0
 10
177.2462547666287
 20
38.4358723221326
 30
0.0
 10
177.8657395079363
 20
38.88655240164567
 30
0.0
 10
178.2000398874233
 20
39.09601626763694
 30
0.0
 10
178.9253003600481
 20
39.47430478422498
 30
0.0
 10
179.3072154174386
 20
39.63805247040946
 30
0.0
 10
180.1020035936102
 20
39.9062382726089
 30
0.0
 10
180.5161617878166
 20
40.01146268069566
 30
0.0
 10
181.381708128398
 20
40.15552190600917
 30
0.0
 10
181.8195957434098
 20
40.19204762348256
 30
0.0
 10
182.2623659697644
 20
40.19204762348257
 30
0.0
  0
LWPOLYLINE
  5
22E
330
1F
100
AcDbEntity
  8
0
  6
Continuous
 62
     7
370
    15
100
AcDbPolyline
 90
       12
 70
   128
 43
0.0
 10
182.0028808292
 20
91.5319980829
 10
181.9488026999
 20
91.5235418906
 10
181.3280324944
 20
91.4332655959
 10
180.2308620187
 20
91.3032317431
 10
178.7657900412
 20
91.1890659709
 10
177.1114656655
 20
91.1427228554
 10
175.4701255331
 20
91.1836467429
 10
174.0088048841
 20
91.2926636425
 10
172.8744159987
 20
91.4239791716
 10
172.2071056948
 20
91.520073296
 10
172.0667456241
 20
91.5420476235
 10
172.0667456241
 20
91.5420476235
  0
LINE
  5
22F
330
1F
100
AcDbEntity
  8
0
  6
Continuous
 62
     7
370
    15
100
AcDbLine
 10
170.0667456241
 20
28.8420476235
 30
0.0
 11
170.0667456241
 21
91.2420476235
 31
0.0
  0
SPLINE
  5
230
330
1F
100
AcDbEntity
  8
0
  6
Continuous
 62
     7
370
    15
100
AcDbSpline
210
0.0
220
0.0
230
1.0
 70
    24
 71
     3
 72
    10
 73
     6
 74
     0
 42
0.00000001
 43
0.00000001
 12
1.0
 22
0.0
 32
0.0
 13
1.0
 23
0.0
 33
0.0
 40
0.0
 40
0.0
 40
0.0
 40
0.0
 40
0.5
 40
0.5
 40
1.0
 40
1.0
 40
1.0
 40
1.0
 10
196.0167456240752
 20
52.04204762348257
 30
0.0
 10
196.0167456240752
 20
52.04204762348257
 30
0.0
 10
195.9545077929683
 20
52.04204762348257
 30
0.0
 10
195.7353728692257
 20
52.04204762348257
 30
0.0
 10
195.5777841742338
 20
52.04204762348257
 30
0.0
 10
195.4167456240751
 20
52.04204762348257
 30
0.0
  0
LINE
  5
231
330
1F
100
AcDbEntity
  8
0
  6
Continuous
 62
     7
370
    15
100
AcDbLine
 10
196.0167456241
 20
40.1920476235
 30
0.0
 11
196.0167456241
 21
52.0420476235
 31
0.0
  0
SPLINE
  5
232
330
1F
100
AcDbEntity
  8
0
  6
Continuous
 62
     7
370
    15
100
AcDbSpline
210
0.0
220
0.0
230
1.0
 70
    24
 71
     3
 72
    12
 73
     8
 74
     0
 42
0.00000001
 43
0.00000001
 12
1.0
 22
0.0
 32
0.0
 13
1.0
 23
0.0
 33
0.0
 40
0.0
 40
0.0
 40
0.0
 40
0.0
 40
0.249999999999998
 40
0.249999999999998
 40
0.499999999999996
 40
0.499999999999996
 40
1.0
 40
1.0
 40
1.0
 40
1.0
 10
195.4167456240751
 20
40.19204762348256
 30
0.0
 10
195.5079453459008
 20
40.19204762348256
 30
0.0
 10
195.5985403550368
 20
40.19204762348255
 30
0.0
 10
195.7519530814835
 20
40.19204762348257
 30
0.0
 10
195.8171619488072
 20
40.19204762348255
 30
0.0
 10
195.9699464781471
 20
40.19204762348255
 30
0.0
 10
196.0167456240752
 20
40.19204762348255
 30
0.0
 10
196.0167456240752
 20
40.19204762348256
 30
0.0
  0
LINE
  5
233
330
1F
100
AcDbEntity
  8
0
  6
Continuous
 62
     7
370
    15
100
AcDbLine
 10
196.0167456241
 20
68.0420476235
 30
0.0
 11
196.0167456241
 21
90.9420476235
 31
0.0
  0
SPLINE
  5
234
330
1F
100
AcDbEntity
  8
0
  6
Continuous
 62
     7
370
    15
100
AcDbSpline
210
0.0
220
0.0
230
1.0
 70
    24
 71
     3
 72
    12
 73
     8
 74
     0
 42
0.00000001
 43
0.00000001
 12
1.0
 22
0.0
 32
0.0
 13
1.0
 23
0.0
 33
0.0
 40
0.0
 40
0.0
 40
0.0
 40
0.0
 40
0.2500000000000038
 40
0.2500000000000038
 40
0.5000000000000077
 40
0.5000000000000077
 40
1.0
 40
1.0
 40
1.0
 40
1.0
 10
195.4167456240751
 20
68.04204762348256
 30
0.0
 10
195.4962385731234
 20
68.04204762348256
 30
0.0
 10
195.577322074479
 20
68.04204762348256
 30
0.0
 10
195.7237524716167
 20
68.04204762348256
 30
0.0
 10
195.7903010814905
 20
68.04204762348256
 30
0.0
 10
195.9545909554642
 20
68.04204762348256
 30
0.0
 10
196.0167456240753
 20
68.04204762348256
 30
0.0
 10
196.0167456240752
 20
68.04204762348256
 30
0.0
  0
LINE
  5
235
330
1F
100
AcDbEntity
  8
0
  6
Continuous
 62
     7
370
    15
100
AcDbLine
 10
191.4586784556
 20
68.0420476235
 30
0.0
 11
191.4586784556
 21
91.5420476235
 31
0.0
  0
LINE
  5
236
330
1F
100
AcDbEntity
  8
0
  6
Continuous
 62
     7
370
    15
100
AcDbLine
 10
191.4586784556
 20
68.0420476235
 30
0.0
 11
195.4167456241
 21
68.0420476235
 31
0.0
  0
LINE
  5
237
330
1F
100
AcDbEntity
  8
0
  6
Continuous
 62
     7
370
    15
100
AcDbLine
 10
189.9767456241
 20
68.0420476235
 30
0.0
 11
189.9767456241
 21
88.9752646659
 31
0.0
  0
SPLINE
  5
238
330
1F
100
AcDbEntity
  8
0
  6
Continuous
 62
     7
370
    15
100
AcDbSpline
210
0.0
220
0.0
230
1.0
 70
    24
 71
     3
 72
     8
 73
     4
 74
     0
 42
0.00000001
 43
0.00000001
 12
1.0
 22
0.0
 32
0.0
 13
1.0
 23
0.0
 33
0.0
 40
0.0
 40
0.0
 40
0.0
 40
0.0
 40
1.0
 40
1.0
 40
1.0
 40
1.0
 10
189.9767456240751
 20
68.04204762348256
 30
0.0
 10
190.4694557209209
 20
68.04204762348256
 30
0.0
 10
190.9635384261999
 20
68.04204762348256
 30
0.0
 10
191.4586784555642
 20
68.04204762348256
 30
0.0
  0
LINE
  5
239
330
1F
100
AcDbEntity
  8
0
  6
Continuous
 62
     7
370
    15
100
AcDbLine
 10
186.1567456241
 20
68.0420476235
 30
0.0
 11
186.1567456241
 21
88.9752646659
 31
0.0
  0
SPLINE
  5
23A
330
1F
100
AcDbEntity
  8
0
  6
Continuous
 62
     7
370
    15
100
AcDbSpline
210
0.0
220
0.0
230
1.0
 70
    24
 71
     3
 72
     8
 73
     4
 74
     0
 42
0.00000001
 43
0.00000001
 12
1.0
 22
0.0
 32
0.0
 13
1.0
 23
0.0
 33
0.0
 40
0.0
 40
0.0
 40
0.0
 40
0.0
 40
1.0
 40
1.0
 40
1.0
 40
1.0
 10
184.6748127925861
 20
68.04204762348256
 30
0.0
 10
185.1699528219504
 20
68.04204762348256
 30
0.0
 10
185.6640355272294
 20
68.04204762348256
 30
0.0
 10
186.1567456240751
 20
68.04204762348256
 30
0.0
  0
LINE
  5
23B
330
1F
100
AcDbEntity
  8
0
  6
Continuous
 62
     7
370
    15
100
AcDbLine
 10
191.4586784556
 20
40.1920476235
 30
0.0
 11
191.4586784556
 21
52.0420476235
 31
0.0
  0
SPLINE
  5
23C
330
1F
100
AcDbEntity
  8
0
  6
Continuous
 62
     7
370
    15
100
AcDbSpline
210
0.0
220
0.0
230
1.0
 70
    24
 71
     3
 72
     8
 73
     4
 74
     0
 42
0.00000001
 43
0.00000001
 12
1.0
 22
0.0
 32
0.0
 13
1.0
 23
0.0
 33
0.0
 40
0.0
 40
0.0
 40
0.0
 40
0.0
 40
1.0
 40
1.0
 40
1.0
 40
1.0
 10
189.9767456240751
 20
40.19204762348256
 30
0.0
 10
190.456023774665
 20
40.19204762348256
 30
0.0
 10
190.9515916138049
 20
40.19204762348256
 30
0.0
 10
191.4586784555642
 20
40.19204762348256
 30
0.0
  0
LINE
  5
23D
330
1F
100
AcDbEntity
  8
0
  6
Continuous
 62
     7
370
    15
100
AcDbLine
 10
189.9767456241
 20
40.1920476235
 30
0.0
 11
189.9767456241
 21
52.0420476235
 31
0.0
  0
SPLINE
  5
23E
330
1F
100
AcDbEntity
  8
0
  6
Continuous
 62
     7
370
    15
100
AcDbSpline
210
0.0
220
0.0
230
1.0
 70
    24
 71
     3
 72
     8
 73
     4
 74
     0
 42
0.00000001
 43
0.00000001
 12
1.0
 22
0.0
 32
0.0
 13
1.0
 23
0.0
 33
0.0
 40
0.0
 40
0.0
 40
0.0
 40
0.0
 40
1.0
 40
1.0
 40
1.0
 40
1.0
 10
191.4586784555642
 20
52.04204762348257
 30
0.0
 10
190.9635384261999
 20
52.04204762348257
 30
0.0
 10
190.4694557209209
 20
52.04204762348257
 30
0.0
 10
189.9767456240751
 20
52.04204762348257
 30
0.0
  0
LINE
  5
23F
330
1F
100
AcDbEntity
  8
0
  6
Continuous
 62
     7
370
    15
100
AcDbLine
 10
191.4586784556
 20
40.1920476235
 30
0.0
 11
195.4167456241
 21
40.1920476235
 31
0.0
  0
LINE
  5
240
330
1F
100
AcDbEntity
  8
0
  6
Continuous
 62
     7
370
    15
100
AcDbLine
 10
195.4167456241
 20
52.0420476235
 30
0.0
 11
191.4586784556
 21
52.0420476235
 31
0.0
  0
SPLINE
  5
241
330
1F
100
AcDbEntity
  8
0
  6
Continuous
 62
     7
370
    15
100
AcDbSpline
210
0.0
220
0.0
230
1.0
 70
    24
 71
     3
 72
     8
 73
     4
 74
     0
 42
0.00000001
 43
0.00000001
 12
1.0
 22
0.0
 32
0.0
 13
1.0
 23
0.0
 33
0.0
 40
0.0
 40
0.0
 40
0.0
 40
0.0
 40
1.0
 40
1.0
 40
1.0
 40
1.0
 10
186.1567456240751
 20
52.04204762348257
 30
0.0
 10
185.6640355272294
 20
52.04204762348257
 30
0.0
 10
185.1699528219504
 20
52.04204762348257
 30
0.0
 10
184.6748127925861
 20
52.04204762348257
 30
0.0
  0
LINE
  5
242
330
1F
100
AcDbEntity
  8
0
  6
Continuous
 62
     7
370
    15
100
AcDbLine
 10
186.1567456241
 20
40.1920476235
 30
0.0
 11
186.1567456241
 21
52.0420476235
 31
0.0
  0
SPLINE
  5
243
330
1F
100
AcDbEntity
  8
0
  6
Continuous
 62
     7
370
    15
100
AcDbSpline
210
0.0
220
0.0
230
1.0
 70
    24
 71
     3
 72
     8
 73
     4
 74
     0
 42
0.00000001
 43
0.00000001
 12
1.0
 22
0.0
 32
0.0
 13
1.0
 23
0.0
 33
0.0
 40
0.0
 40
0.0
 40
0.0
 40
0.0
 40
1.0
 40
1.0
 40
1.0
 40
1.0
 10
184.6748127925861
 20
40.19204762348256
 30
0.0
 10
185.1818996343454
 20
40.19204762348256
 30
0.0
 10
185.6774674734853
 20
40.19204762348256
 30
0.0
 10
186.1567456240751
 20
40.19204762348256
 30
0.0
  0
SPLINE
  5
244
330
1F
100
AcDbEntity
  8
0
  6
Continuous
 62
     7
370
    15
100
AcDbSpline
210
0.0
220
0.0
230
1.0
 70
     8
 71
     3
 72
    22
 73
    18
 74
     0
 42
0.00000001
 43
0.00000001
 12
1.0
 22
0.0
 32
0.0
 13
1.0
 23
0.0
 33
0.0
 40
0.0
 40
0.0
 40
0.0
 40
0.0
 40
0.25
 40
0.25
 40
0.375
 40
0.375
 40
0.5
 40
0.5
 40
0.625
 40
0.625
 40
0.75
 40
0.75
 40
0.8125
 40
0.8125
 40
0.875
 40
0.875
 40
1.0
 40
1.0
 40
1.0
 40
1.0
 10
215.8180343181109
 20
86.49956073412845
 30
0.0
 10
215.0480064653254
 20
82.15480911999084
 30
0.0
 10
214.380938928476
 20
77.80531005478333
 30
0.0
 10
213.6663182770099
 20
71.26787502539845
 30
0.0
 10
213.4765063962708
 20
69.08649854508911
 30
0.0
 10
213.2155828012506
 20
64.71827237639869
 30
0.0
 10
213.1448006357484
 20
62.53140749268057
 30
0.0
 10
213.1330853094172
 20
58.15169044955899
 30
0.0
 10
213.1921938978358
 20
55.95883636511762
 30
0.0
 10
213.4332427616836
 20
51.56746448572066
 30
0.0
 10
213.6148845256371
 20
49.36896045498688
 30
0.0
 10
213.9637200036385
 20
46.06768289401872
 30
0.0
 10
214.0927448185868
 20
44.96611075655704
 30
0.0
 10
214.3720135860101
 20
42.76987327280955
 30
0.0
 10
214.5223414075128
 20
41.67421510426582
 30
0.0
 10
215.0007467488075
 20
38.39355040657463
 30
0.0
 10
215.3560520462901
 20
36.21480902292387
 30
0.0
 10
215.7373458352985
 20
34.04204762348256
 30
0.0
  0
SPLINE
  5
245
330
1F
100
AcDbEntity
  8
0
  6
Continuous
 62
     7
370
    15
100
AcDbSpline
210
0.0
220
0.0
230
1.0
 70
    24
 71
     3
 72
    12
 73
     8
 74
     0
 42
0.00000001
 43
0.00000001
 12
1.0
 22
0.0
 32
0.0
 13
1.0
 23
0.0
 33
0.0
 40
0.0
 40
0.0
 40
0.0
 40
0.0
 40
0.2500000000000001
 40
0.2500000000000001
 40
0.5000000000000002
 40
0.5000000000000002
 40
1.0
 40
1.0
 40
1.0
 40
1.0
 10
212.2653444623853
 20
34.04204762348256
 30
0.0
 10
212.390366560625
 20
34.04204762348256
 30
0.0
 10
212.5732460180905
 20
34.04204762348256
 30
0.0
 10
213.0280840506012
 20
34.04204762348256
 30
0.0
 10
213.2997885647252
 20
34.04204762348256
 30
0.0
 10
214.2111391058332
 20
34.04204762348257
 30
0.0
 10
214.9439544092617
 20
34.04204762348257
 30
0.0
 10
215.7373458352985
 20
34.04204762348256
 30
0.0
  0
SPLINE
  5
246
330
1F
100
AcDbEntity
  8
0
  6
Continuous
 62
     7
370
    15
100
AcDbSpline
210
0.0
220
0.0
230
1.0
 70
    24
 71
     3
 72
    11
 73
     7
 74
     0
 42
0.00000001
 43
0.00000001
 12
1.0
 22
0.0
 32
0.0
 13
1.0
 23
0.0
 33
0.0
 40
0.0
 40
0.0
 40
0.0
 40
0.0
 40
0.2521586653164126
 40
0.5791461553715611
 40
0.906749622221615
 40
1.0
 40
1.0
 40
1.0
 40
1.0
 10
215.8180343181109
 20
95.04204762348256
 30
0.0
 10
215.618833016998
 20
95.04204762348256
 30
0.0
 10
215.1613168434421
 20
95.04204762348256
 30
0.0
 10
214.6994891974625
 20
95.04204762348256
 30
0.0
 10
214.4587645336655
 20
95.04204762348256
 30
0.0
 10
214.5007262275474
 20
95.04204762348256
 30
0.0
 10
214.5100238586767
 20
95.04204762348256
 30
0.0
  0
LINE
  5
247
330
1F
100
AcDbEntity
  8
0
  6
Continuous
 62
     7
370
    15
100
AcDbLine
 10
215.8180343181
 20
95.0420476235
 30
0.0
 11
215.8180343181
 21
86.4995607341
 31
0.0
  0
LINE
  5
248
330
1F
100
AcDbEntity
  8
0
  6
Continuous
 62
     7
370
    15
100
AcDbLine
 10
260.0667456241
 20
95.0420476235
 30
0.0
 11
215.8180343181
 21
95.0420476235
 31
0.0
  0
LINE
  5
249
330
1F
100
AcDbEntity
  8
0
  6
Continuous
 62
     7
370
    15
100
AcDbLine
 10
260.0667456241
 20
95.0420476235
 30
0.0
 11
260.0667456241
 21
86.4995607341
 31
0.0
  0
LINE
  5
24A
330
1F
100
AcDbEntity
  8
0
  6
Continuous
 62
     7
370
    15
100
AcDbLine
 10
215.8180343181
 20
86.4995607341
 30
0.0
 11
260.0667456241
 21
86.4995607341
 31
0.0
  0
LINE
  5
24B
330
1F
100
AcDbEntity
  8
0
  6
Continuous
 62
     7
370
    15
100
AcDbLine
 10
215.7373458353
 20
34.0420476235
 30
0.0
 11
260.0667456241
 21
34.0420476235
 31
0.0
  0
LINE
  5
24C
330
1F
100
AcDbEntity
  8
0
  6
Continuous
 62
     7
370
    15
100
AcDbLine
 10
225.0667456241
 20
80.0420476235
 30
0.0
 11
260.0667456241
 21
80.0420476235
 31
0.0
  0
ARC
  5
24D
330
1F
100
AcDbEntity
  8
0
  6
Continuous
 62
     7
370
    15
100
AcDbCircle
 10
220.0667456241
 20
80.0420476235
 30
0.0
 40
5.0
100
AcDbArc
 50
0.0
 51
180.0
  0
LINE
  5
24E
330
1F
100
AcDbEntity
  8
0
  6
Continuous
 62
     7
370
    15
100
AcDbLine
 10
215.0667456241
 20
59.0420476235
 30
0.0
 11
215.0667456241
 21
80.0420476235
 31
0.0
  0
ARC
  5
24F
330
1F
100
AcDbEntity
  8
0
  6
Continuous
 62
     7
370
    15
100
AcDbCircle
 10
220.0667456241
 20
59.0420476235
 30
0.0
 40
5.0
100
AcDbArc
 50
180.0
 51
0.0
  0
LINE
  5
250
330
1F
100
AcDbEntity
  8
0
  6
Continuous
 62
     7
370
    15
100
AcDbLine
 10
260.0667456241
 20
59.0420476235
 30
0.0
 11
225.0667456241
 21
59.0420476235
 31
0.0
  0
LINE
  5
251
330
1F
100
AcDbEntity
  8
0
  6
Continuous
 62
     7
370
    15
100
AcDbLine
 10
260.0667456241
 20
86.4995607341
 30
0.0
 11
260.0667456241
 21
80.0420476235
 31
0.0
  0
LINE
  5
252
330
1F
100
AcDbEntity
  8
0
  6
Continuous
 62
     7
370
    15
100
AcDbLine
 10
260.0667456241
 20
59.0420476235
 30
0.0
 11
260.0667456241
 21
34.0420476235
 31
0.0
  0
SPLINE
  5
253
330
1F
100
AcDbEntity
  8
0
  6
Continuous
 62
     7
370
    15
100
AcDbSpline
210
0.0
220
0.0
230
1.0
 70
     8
 71
     3
 72
    12
 73
     8
 74
     0
 42
0.00000001
 43
0.00000001
 12
1.0
 22
0.0
 32
0.0
 13
1.0
 23
0.0
 33
0.0
 40
0.0
 40
0.0
 40
0.0
 40
0.0
 40
0.2499999999999983
 40
0.2499999999999983
 40
0.4999999999999967
 40
0.4999999999999967
 40
1.0
 40
1.0
 40
1.0
 40
1.0
 10
189.1767456240751
 20
67.65227922311215
 30
0.0
 10
189.2262807302931
 20
67.65227922311215
 30
0.0
 10
189.2746856188946
 20
67.67000372672304
 30
0.0
 10
189.3575721680722
 20
67.72266904809
 30
0.0
 10
189.3940868895405
 20
67.75764423517386
 30
0.0
 10
189.4904197278952
 20
67.86984118435142
 30
0.0
 10
189.5391722755579
 20
67.95424413984769
 30
0.0
 10
189.5824480923885
 20
68.04204762347986
 30
0.0
  0
SPLINE
  5
254
330
1F
100
AcDbEntity
  8
0
  6
Continuous
 62
     7
370
    15
100
AcDbSpline
210
0.0
220
0.0
230
1.0
 70
    24
 71
     3
 72
    10
 73
     6
 74
     0
 42
0.00000001
 43
0.00000001
 12
1.0
 22
0.0
 32
0.0
 13
1.0
 23
0.0
 33
0.0
 40
0.0
 40
0.0
 40
0.0
 40
0.0
 40
0.5
 40
0.5
 40
1.0
 40
1.0
 40
1.0
 40
1.0
 10
189.5824480923842
 20
68.04204762348256
 30
0.0
 10
189.7037606154819
 20
68.04204762348256
 30
0.0
 10
189.8051889777071
 20
68.04204762348256
 30
0.0
 10
189.9411325439672
 20
68.04204762348256
 30
0.0
 10
189.9767456240752
 20
68.04204762348256
 30
0.0
 10
189.9767456240752
 20
68.04204762348256
 30
0.0
  0
SPLINE
  5
255
330
1F
100
AcDbEntity
  8
0
  6
Continuous
 62
     7
370
    15
100
AcDbSpline
210
0.0
220
0.0
230
1.0
 70
     8
 71
     3
 72
    12
 73
     8
 74
     0
 42
0.00000001
 43
0.00000001
 12
1.0
 22
0.0
 32
0.0
 13
1.0
 23
0.0
 33
0.0
 40
0.0
 40
0.0
 40
0.0
 40
0.0
 40
0.4999999999999967
 40
0.4999999999999967
 40
0.7499999999999983
 40
0.7499999999999983
 40
1.0
 40
1.0
 40
1.0
 40
1.0
 10
186.5510431557661
 20
68.04204762348252
 30
0.0
 10
186.5941665041997
 20
67.95455348713544
 30
0.0
 10
186.6439060914999
 20
67.86856209202905
 30
0.0
 10
186.7404270683218
 20
67.7566101096561
 30
0.0
 10
186.7759921991736
 20
67.72256386197648
 30
0.0
 10
186.8593405297965
 20
67.66972301295601
 30
0.0
 10
186.9078104294868
 20
67.65227922311223
 30
0.0
 10
186.9567456240763
 20
67.6522792231125
 30
0.0
  0
SPLINE
  5
256
330
1F
100
AcDbEntity
  8
0
  6
Continuous
 62
     7
370
    15
100
AcDbSpline
210
0.0
220
0.0
230
1.0
 70
    24
 71
     3
 72
    10
 73
     6
 74
     0
 42
0.00000001
 43
0.00000001
 12
1.0
 22
0.0
 32
0.0
 13
1.0
 23
0.0
 33
0.0
 40
0.0
 40
0.0
 40
0.0
 40
0.0
 40
0.5
 40
0.5
 40
1.0
 40
1.0
 40
1.0
 40
1.0
 10
186.1567456240751
 20
68.04204762348256
 30
0.0
 10
186.1567456240751
 20
68.04204762348256
 30
0.0
 10
186.1929128991729
 20
68.04204762348256
 30
0.0
 10
186.3286688429269
 20
68.04204762348256
 30
0.0
 10
186.4289385335498
 20
68.04204762348256
 30
0.0
 10
186.5510431557662
 20
68.04204762348256
 30
0.0
  0
SPLINE
  5
257
330
1F
100
AcDbEntity
  8
0
  6
Continuous
 62
     7
370
    15
100
AcDbSpline
210
0.0
220
0.0
230
1.0
 70
     8
 71
     3
 72
    12
 73
     8
 74
     0
 42
0.00000001
 43
0.00000001
 12
1.0
 22
0.0
 32
0.0
 13
1.0
 23
0.0
 33
0.0
 40
0.0
 40
0.0
 40
0.0
 40
0.0
 40
0.5000000000000024
 40
0.5000000000000024
 40
0.7500000000000012
 40
0.7500000000000012
 40
1.0
 40
1.0
 40
1.0
 40
1.0
 10
189.5824480923842
 20
52.04204762348259
 30
0.0
 10
189.5393625427734
 20
52.1294650687684
 30
0.0
 10
189.4902103410263
 20
52.21459519220367
 30
0.0
 10
189.3937377467367
 20
52.32680867709265
 30
0.0
 10
189.3576361616025
 20
52.36139435103848
 30
0.0
 10
189.27453040374
 20
52.41418131975374
 30
0.0
 10
189.2265338067759
 20
52.431816023853
 30
0.0
 10
189.1767456240751
 20
52.431816023853
 30
0.0
  0
SPLINE
  5
258
330
1F
100
AcDbEntity
  8
0
  6
Continuous
 62
     7
370
    15
100
AcDbSpline
210
0.0
220
0.0
230
1.0
 70
     8
 71
     3
 72
    10
 73
     6
 74
     0
 42
0.00000001
 43
0.00000001
 12
1.0
 22
0.0
 32
0.0
 13
1.0
 23
0.0
 33
0.0
 40
0.0
 40
0.0
 40
0.0
 40
0.0
 40
0.5
 40
0.5
 40
1.0
 40
1.0
 40
1.0
 40
1.0
 10
189.950598000915
 20
40.19204762348257
 30
0.0
 10
189.9592757758227
 20
40.14523279962304
 30
0.0
 10
189.9658287998296
 20
40.09768679567589
 30
0.0
 10
189.9745634093266
 20
40.00208628175347
 30
0.0
 10
189.9767456240751
 20
39.95397774884733
 30
0.0
 10
189.9767456240751
 20
39.90618099202117
 30
0.0
  0
SPLINE
  5
259
330
1F
100
AcDbEntity
  8
0
  6
Continuous
 62
     7
370
    15
100
AcDbSpline
210
0.0
220
0.0
230
1.0
 70
    24
 71
     3
 72
    10
 73
     6
 74
     0
 42
0.00000001
 43
0.00000001
 12
1.0
 22
0.0
 32
0.0
 13
1.0
 23
0.0
 33
0.0
 40
0.0
 40
0.0
 40
0.0
 40
0.0
 40
0.5
 40
0.5
 40
1.0
 40
1.0
 40
1.0
 40
1.0
 10
189.9767456240751
 20
52.04204762348257
 30
0.0
 10
189.9767456240751
 20
52.04204762348257
 30
0.0
 10
189.9406965653563
 20
52.04204762348257
 30
0.0
 10
189.8051877045822
 20
52.04204762348257
 30
0.0
 10
189.7053117114861
 20
52.04204762348257
 30
0.0
 10
189.5824480923841
 20
52.04204762348257
 30
0.0
  0
SPLINE
  5
25A
330
1F
100
AcDbEntity
  8
0
  6
Continuous
 62
     7
370
    15
100
AcDbSpline
210
0.0
220
0.0
230
1.0
 70
     8
 71
     3
 72
    12
 73
     8
 74
     0
 42
0.00000001
 43
0.00000001
 12
1.0
 22
0.0
 32
0.0
 13
1.0
 23
0.0
 33
0.0
 40
0.0
 40
0.0
 40
0.0
 40
0.0
 40
0.2500000000000012
 40
0.2500000000000012
 40
0.5000000000000024
 40
0.5000000000000024
 40
1.0
 40
1.0
 40
1.0
 40
1.0
 10
186.9567456240752
 20
52.43181602385297
 30
0.0
 10
186.9074022622655
 20
52.43181602385298
 30
0.0
 10
186.8587115639639
 20
52.41404645228939
 30
0.0
 10
186.7758604663935
 20
52.36137422895057
 30
0.0
 10
186.7396604987729
 20
52.32667680177872
 30
0.0
 10
186.6439105822235
 20
52.21537483942362
 30
0.0
 10
186.5940286124114
 20
52.12926198742409
 30
0.0
 10
186.5510431557661
 20
52.04204762348257
 30
0.0
  0
SPLINE
  5
25B
330
1F
100
AcDbEntity
  8
0
  6
Continuous
 62
     7
370
    15
100
AcDbSpline
210
0.0
220
0.0
230
1.0
 70
     8
 71
     3
 72
    10
 73
     6
 74
     0
 42
0.00000001
 43
0.00000001
 12
1.0
 22
0.0
 32
0.0
 13
1.0
 23
0.0
 33
0.0
 40
0.0
 40
0.0
 40
0.0
 40
0.0
 40
0.5
 40
0.5
 40
1.0
 40
1.0
 40
1.0
 40
1.0
 10
186.1567456240751
 20
39.90618099202117
 30
0.0
 10
186.1567456240751
 20
39.95443554006141
 30
0.0
 10
186.1589674825598
 20
40.00266857267074
 30
0.0
 10
186.1677041542834
 20
40.09799348888762
 30
0.0
 10
186.1742156680777
 20
40.14523385565502
 30
0.0
 10
186.1828932472353
 20
40.19204762348256
 30
0.0
  0
SPLINE
  5
25C
330
1F
100
AcDbEntity
  8
0
  6
Continuous
 62
     7
370
    15
100
AcDbSpline
210
0.0
220
0.0
230
1.0
 70
    24
 71
     3
 72
    10
 73
     6
 74
     0
 42
0.00000001
 43
0.00000001
 12
1.0
 22
0.0
 32
0.0
 13
1.0
 23
0.0
 33
0.0
 40
0.0
 40
0.0
 40
0.0
 40
0.0
 40
0.5
 40
0.5
 40
1.0
 40
1.0
 40
1.0
 40
1.0
 10
186.5510431557661
 20
52.04204762348257
 30
0.0
 10
186.4295028920976
 20
52.04204762348257
 30
0.0
 10
186.3281685317487
 20
52.04204762348257
 30
0.0
 10
186.1925295888602
 20
52.04204762348257
 30
0.0
 10
186.1567456240751
 20
52.04204762348257
 30
0.0
 10
186.1567456240751
 20
52.04204762348257
 30
0.0
  0
SPLINE
  5
25D
330
1F
100
AcDbEntity
  8
0
  6
Continuous
 62
     7
370
    15
100
AcDbSpline
210
0.0
220
0.0
230
1.0
 70
    24
 71
     3
 72
    14
 73
    10
 74
     0
 42
0.00000001
 43
0.00000001
 12
1.0
 22
0.0
 32
0.0
 13
1.0
 23
0.0
 33
0.0
 40
0.0
 40
0.0
 40
0.0
 40
0.0
 40
0.5000000000000003
 40
0.5000000000000003
 40
0.7500000000000002
 40
0.7500000000000002
 40
0.8750000000000001
 40
0.8750000000000001
 40
1.0
 40
1.0
 40
1.0
 40
1.0
 10
212.2653444623853
 20
34.04204762348256
 30
0.0
 10
212.1995970372245
 20
34.04204762348256
 30
0.0
 10
212.053526418124
 20
34.04204762348256
 30
0.0
 10
211.7930454349466
 20
34.04204762348257
 30
0.0
 10
211.6986014064693
 20
34.04204762348256
 30
0.0
 10
211.5515899161213
 20
34.04204762348256
 30
0.0
 10
211.5016831808528
 20
34.04204762348256
 30
0.0
 10
211.4009806547503
 20
34.04204762348255
 30
0.0
 10
211.3499636814456
 20
34.04204762348256
 30
0.0
 10
211.2994186360962
 20
34.04204762348256
 30
0.0
  0
LINE
  5
25E
330
1F
100
AcDbEntity
  8
0
  6
Continuous
 62
     7
370
    15
100
AcDbLine
 10
186.9567456241
 20
67.6522792231
 30
0.0
 11
189.1767456241
 21
67.6522792231
 31
0.0
  0
SPLINE
  5
25F
330
1F
100
AcDbEntity
  8
0
  6
Continuous
 62
     7
370
    15
100
AcDbSpline
210
0.0
220
0.0
230
1.0
 70
     8
 71
     3
 72
    20
 73
    16
 74
     0
 42
0.00000001
 43
0.00000001
 12
1.0
 22
0.0
 32
0.0
 13
1.0
 23
0.0
 33
0.0
 40
0.0
 40
0.0
 40
0.0
 40
0.0
 40
0.2500000000000001
 40
0.2500000000000001
 40
0.375
 40
0.375
 40
0.4375000000000001
 40
0.4375000000000001
 40
0.4687500000000001
 40
0.4687500000000001
 40
0.5
 40
0.5
 40
0.75
 40
0.75
 40
1.0
 40
1.0
 40
1.0
 40
1.0
 10
196.0167456240752
 20
65.70243630271654
 30
0.0
 10
196.0167456240752
 20
64.74135224957686
 30
0.0
 10
196.0745750208622
 20
63.78125392768045
 30
0.0
 10
196.1514334995035
 20
62.34093793951458
 30
0.0
 10
196.1757024784532
 20
61.86080958993468
 30
0.0
 10
196.2007520974908
 20
61.14042353347399
 30
0.0
 10
196.207234306355
 20
60.90026301270944
 30
0.0
 10
196.2134405364349
 20
60.53996228110483
 30
0.0
 10
196.2149275588834
 20
60.41985212151022
 30
0.0
 10
196.2166804270923
 20
60.17961098674824
 30
0.0
 10
196.2169324627127
 20
60.05886627129969
 30
0.0
 10
196.2139948415652
 20
59.01528556780693
 30
0.0
 10
196.1701167719872
 20
58.08869197225754
 30
0.0
 10
196.0707329735081
 20
56.23600361455208
 30
0.0
 10
196.0167456240752
 20
55.30981615739054
 30
0.0
 10
196.0167456240752
 20
54.3816589442486
 30
0.0
  0
LINE
  5
260
330
1F
100
AcDbEntity
  8
0
  6
Continuous
 62
     7
370
    15
100
AcDbLine
 10
189.1767456241
 20
52.4318160239
 30
0.0
 11
186.9567456241
 21
52.4318160239
 31
0.0
  0
LINE
  5
261
330
1F
100
AcDbEntity
  8
0
  6
Continuous
 62
     7
370
    15
100
AcDbLine
 10
196.0167456241
 20
68.0420476235
 30
0.0
 11
196.0167456241
 21
65.7024363027
 31
0.0
  0
LINE
  5
262
330
1F
100
AcDbEntity
  8
0
  6
Continuous
 62
     7
370
    15
100
AcDbLine
 10
196.0167456241
 20
54.3816589442
 30
0.0
 11
196.0167456241
 21
52.0420476235
 31
0.0
  0
LINE
  5
263
330
1F
100
AcDbEntity
  8
0
  6
Continuous
 62
     7
370
    15
100
AcDbLine
 10
168.0667456241
 20
35.8216167618
 30
0.0
 11
168.0667456241
 21
84.2624784852
 31
0.0
  0
SPLINE
  5
264
330
1F
100
AcDbEntity
  8
0
  6
Continuous
 62
     7
370
    15
100
AcDbSpline
210
0.0
220
0.0
230
1.0
 70
     8
 71
     3
 72
     8
 73
     4
 74
     0
 42
0.00000001
 43
0.00000001
 12
1.0
 22
0.0
 32
0.0
 13
1.0
 23
0.0
 33
0.0
 40
0.0000003292049707
 40
0.0000003292049707
 40
0.0000003292049707
 40
0.0000003292049707
 40
0.0000169050949325
 40
0.0000169050949325
 40
0.0000169050949325
 40
0.0000169050949325
 10
139.3167456240751
 20
50.91098086016424
 30
0.0
 10
139.3133890419383
 20
50.90703034905221
 30
0.0
 10
139.3100406778128
 20
50.90307443670741
 30
0.0
 10
139.3067006936437
 20
50.89911307963624
 30
0.0
  0
SPLINE
  5
265
330
1F
100
AcDbEntity
  8
0
  6
Continuous
 62
     7
370
    15
100
AcDbSpline
210
0.0
220
0.0
230
1.0
 70
     8
 71
     3
 72
    10
 73
     6
 74
     0
 42
0.00000001
 43
0.00000001
 12
1.0
 22
0.0
 32
0.0
 13
1.0
 23
0.0
 33
0.0
 40
0.0
 40
0.0
 40
0.0
 40
0.0
 40
0.5
 40
0.5
 40
1.0
 40
1.0
 40
1.0
 40
1.0
 10
142.8667456240752
 20
50.3743451700726
 30
0.0
 10
142.2791600769845
 20
50.48962463106606
 30
0.0
 10
141.6884136835242
 20
50.58489418490628
 30
0.0
 10
140.5043945182253
 20
50.75943241585028
 30
0.0
 10
139.9109805300199
 20
50.83780739169391
 30
0.0
 10
139.3167456240751
 20
50.91098086016422
 30
0.0
  0
SPLINE
  5
266
330
1F
100
AcDbEntity
  8
0
  6
Continuous
 62
     7
370
    15
100
AcDbSpline
210
0.0
220
0.0
230
1.0
 70
     8
 71
     3
 72
    18
 73
    14
 74
     0
 42
0.00000001
 43
0.00000001
 12
1.0
 22
0.0
 32
0.0
 13
1.0
 23
0.0
 33
0.0
 40
0.0
 40
0.0
 40
0.0
 40
0.0
 40
0.2500000000000003
 40
0.2500000000000003
 40
0.4999999999999999
 40
0.4999999999999999
 40
0.7499999999999996
 40
0.7499999999999996
 40
0.8749999999999993
 40
0.8749999999999993
 40
0.9374999999999997
 40
0.9374999999999997
 40
1.0
 40
1.0
 40
1.0
 40
1.0
 10
144.2667456240752
 20
52.75329829167124
 30
0.0
 10
144.2667456240752
 20
52.50393031461261
 30
0.0
 10
144.2308965241369
 20
52.25812176023381
 30
0.0
 10
144.106024788103
 20
51.78599793645564
 30
0.0
 10
144.0156243704551
 20
51.55526935750417
 30
0.0
 10
143.7933817157129
 20
51.12171942843892
 30
0.0
 10
143.6636169292672
 20
50.91632159799411
 30
0.0
 10
143.4229794719556
 20
50.63402807612744
 30
0.0
 10
143.3352121738182
 20
50.54364848386279
 30
0.0
 10
143.1806880866114
 20
50.43602707899317
 30
0.0
 10
143.1240772005567
 20
50.40445250301887
 30
0.0
 10
143.00003316965
 20
50.3662780609215
 30
0.0
 10
142.9323184946317
 20
50.36148031114102
 30
0.0
 10
142.8667456240752
 20
50.37434517007259
 30
0.0
  0
LINE
  5
267
330
1F
100
AcDbEntity
  8
0
  6
Continuous
 62
     7
370
    15
100
AcDbLine
 10
144.2667456241
 20
52.7532982917
 30
0.0
 11
144.2667456241
 21
67.3307969553
 31
0.0
  0
SPLINE
  5
268
330
1F
100
AcDbEntity
  8
0
  6
Continuous
 62
     7
370
    15
100
AcDbSpline
210
0.0
220
0.0
230
1.0
 70
     8
 71
     3
 72
    18
 73
    14
 74
     0
 42
0.00000001
 43
0.00000001
 12
1.0
 22
0.0
 32
0.0
 13
1.0
 23
0.0
 33
0.0
 40
0.0
 40
0.0
 40
0.0
 40
0.0
 40
0.2499999999999996
 40
0.2499999999999996
 40
0.5
 40
0.5
 40
0.7500000000000003
 40
0.7500000000000003
 40
0.8750000000000007
 40
0.8750000000000007
 40
0.9375000000000003
 40
0.9375000000000003
 40
1.0
 40
1.0
 40
1.0
 40
1.0
 10
144.2667456240752
 20
67.33079695529389
 30
0.0
 10
144.2667456240752
 20
67.58016493235253
 30
0.0
 10
144.2308965241369
 20
67.82597348673131
 30
0.0
 10
144.106024788103
 20
68.29809731050948
 30
0.0
 10
144.0156243704551
 20
68.52882588946096
 30
0.0
 10
143.7933817157129
 20
68.96237581852621
 30
0.0
 10
143.6636169292672
 20
69.16777364897102
 30
0.0
 10
143.4229794719556
 20
69.4500671708377
 30
0.0
 10
143.3352121738182
 20
69.54044676310235
 30
0.0
 10
143.1806880866114
 20
69.64806816797197
 30
0.0
 10
143.1240772005566
 20
69.67964274394625
 30
0.0
 10
143.00003316965
 20
69.71781718604362
 30
0.0
 10
142.9323184946317
 20
69.7226149358241
 30
0.0
 10
142.8667456240752
 20
69.70975007689252
 30
0.0
  0
SPLINE
  5
269
330
1F
100
AcDbEntity
  8
0
  6
Continuous
 62
     7
370
    15
100
AcDbSpline
210
0.0
220
0.0
230
1.0
 70
     8
 71
     3
 72
    10
 73
     6
 74
     0
 42
0.00000001
 43
0.00000001
 12
1.0
 22
0.0
 32
0.0
 13
1.0
 23
0.0
 33
0.0
 40
0.0
 40
0.0
 40
0.0
 40
0.0
 40
0.5
 40
0.5
 40
1.0
 40
1.0
 40
1.0
 40
1.0
 10
142.8667456240752
 20
69.70975007689253
 30
0.0
 10
142.2791600769845
 20
69.59447061589907
 30
0.0
 10
141.6884136835242
 20
69.49920106205886
 30
0.0
 10
140.5043945182253
 20
69.32466283111485
 30
0.0
 10
139.9109805300199
 20
69.24628785527123
 30
0.0
 10
139.3167456240751
 20
69.1731143868009
 30
0.0
  0
SPLINE
  5
26A
330
1F
100
AcDbEntity
  8
0
  6
Continuous
 62
     7
370
    15
100
AcDbSpline
210
0.0
220
0.0
230
1.0
 70
     8
 71
     3
 72
     8
 73
     4
 74
     0
 42
0.00000001
 43
0.00000001
 12
1.0
 22
0.0
 32
0.0
 13
1.0
 23
0.0
 33
0.0
 40
0.0000003292049693
 40
0.0000003292049693
 40
0.0000003292049693
 40
0.0000003292049693
 40
0.000016905094931
 40
0.000016905094931
 40
0.000016905094931
 40
0.000016905094931
 10
139.3167456240751
 20
69.17311438680089
 30
0.0
 10
139.3133890419383
 20
69.17706489791293
 30
0.0
 10
139.3100406778128
 20
69.18102081025772
 30
0.0
 10
139.3067006936437
 20
69.18498216732891
 30
0.0
  0
SPLINE
  5
26B
330
1F
100
AcDbEntity
  8
0
  6
Continuous
 62
     7
370
    15
100
AcDbSpline
210
0.0
220
0.0
230
1.0
 70
     8
 71
     3
 72
    41
 73
    37
 74
     0
 42
0.00000001
 43
0.00000001
 12
1.0
 22
0.0
 32
0.0
 13
1.0
 23
0.0
 33
0.0
 40
-0.0940865190510254
 40
-0.0625079973924747
 40
-0.0310214310383392
 40
0.0
 40
0.0310286301596213
 40
0.062266043577249
 40
0.0934345644894559
 40
0.1242054351189649
 40
0.1548770270535461
 40
0.1861441789778781
 40
0.217318010926304
 40
0.2483913843714051
 40
0.2795144603518663
 40
0.3110740838700811
 40
0.342755815237211
 40
0.3740614836773025
 40
0.3746568878034042
 40
0.4058391077761273
 40
0.4375136922561945
 40
0.4690248846778461
 40
0.5000905621707045
 40
0.531141900667525
 40
0.5623304404838242
 40
0.5935235650847404
 40
0.6242027436518655
 40
0.6549460164219498
 40
0.6861283805682501
 40
0.7173884470638404
 40
0.748427276024015
 40
0.7795638883964432
 40
0.8111860779790591
 40
0.8428532031468887
 40
0.8742382147694744
 40
0.874648614737692
 40
0.9059134809489746
 40
0.9374920026075253
 40
0.9689785689616608
 40
1.0
 40
1.031028630159621
 40
1.062266043577249
 40
1.093434564489456
 10
157.5182271674215
 20
62.43991515191907
 30
0.0
 10
158.0423315004936
 20
63.09314859298862
 30
0.0
 10
158.6824058275639
 20
63.63057398962657
 30
0.0
 10
159.4194472991117
 20
64.02833362031986
 30
0.0
 10
160.2161935219444
 20
64.28089437717075
 30
0.0
 10
161.04284868058
 20
64.36447058305264
 30
0.0
 10
161.868722051147
 20
64.28114532384511
 30
0.0
 10
162.6609434751834
 20
64.03065238725974
 30
0.0
 10
163.3938553771873
 20
63.63613996660002
 30
0.0
 10
164.0314677711858
 20
63.10390749230467
 30
0.0
 10
164.5564291100077
 20
62.45492600711348
 30
0.0
 10
164.9453838285774
 20
61.70818502876962
 30
0.0
 10
165.193723572388
 20
60.89979790710383
 30
0.0
 10
165.2507632003854
 20
60.33162370013326
 30
0.0
 10
165.2518009702547
 20
59.7694891390863
 30
0.0
 10
165.1965667411313
 20
59.20229143679138
 30
0.0
 10
164.9514507663021
 20
58.39459367057633
 30
0.0
 10
164.5666481234508
 20
57.64687246740365
 30
0.0
 10
164.0464554495173
 20
56.99551533113764
 30
0.0
 10
163.4125204886864
 20
56.45976236021227
 30
0.0
 10
162.6823463713924
 20
56.06169049896626
 30
0.0
 10
161.8918641725978
 20
55.80752954060647
 30
0.0
 10
161.0673856390173
 20
55.71978785370656
 30
0.0
 10
160.2403426383816
 20
55.79836762019445
 30
0.0
 10
159.4420398770304
 20
56.04623518619834
 30
0.0
 10
158.7021362922325
 20
56.43962982612756
 30
0.0
 10
158.0581773642979
 20
56.97457762318705
 30
0.0
 10
157.529660653363
 20
57.62729391915158
 30
0.0
 10
157.1392041397325
 20
58.37715163656031
 30
0.0
 10
156.8909451973354
 20
59.18793717590019
 30
0.0
 10
156.834683796972
 20
59.75505851548156
 30
0.0
 10
156.8337131503874
 20
60.31699446955368
 30
0.0
 10
156.8878627327377
 20
60.88243400259757
 30
0.0
 10
157.1322611221917
 20
61.69116665654063
 30
0.0
 10
157.5182271674215
 20
62.43991515191907
 30
0.0
 10
158.0423315004936
 20
63.09314859298862
 30
0.0
 10
158.6824058275639
 20
63.63057398962657
 30
0.0
  0
SPLINE
  5
26C
330
1F
100
AcDbEntity
  8
0
  6
Continuous
 62
     7
370
    15
100
AcDbSpline
210
0.0
220
0.0
230
1.0
 70
     8
 71
     3
 72
    38
 73
    34
 74
     0
 42
0.00000001
 43
0.00000001
 12
1.0
 22
0.0
 32
0.0
 13
1.0
 23
0.0
 33
0.0
 40
-0.0939221400677813
 40
-0.0657752597762167
 40
-0.034473949601632
 40
0.0
 40
0.0323124298479844
 40
0.0609695982577475
 40
0.0859698687835571
 40
0.1073131755946586
 40
0.1250019290169639
 40
0.156235872197748
 40
0.1978507372990818
 40
0.2498168793248409
 40
0.2782629480312299
 40
0.3049884159840449
 40
0.3300042168921436
 40
0.3533239044423266
 40
0.3749644360933921
 40
0.4060267838313035
 40
0.4476555976000322
 40
0.4998320869201294
 40
0.5286685248932678
 40
0.5555536435540274
 40
0.5805015705743413
 40
0.603530287911748
 40
0.6246629693429089
 40
0.6685312637089721
 40
0.7183269153555374
 40
0.7652375706113054
 40
0.7915712044421753
 40
0.8122937035710348
 40
0.8615656629621373
 40
0.9060778599322187
 40
0.9342247402237833
 40
0.965526050398368
 40
1.0
 40
1.032312429847984
 40
1.060969598257748
 40
1.085969868783557
 10
159.0070107882674
 20
63.20790701358366
 30
0.0
 10
158.4029425697514
 20
62.72066585792946
 30
0.0
 10
157.927627506901
 20
62.13535490111499
 30
0.0
 10
157.6080286809011
 20
61.53672917854612
 30
0.0
 10
157.4210342751871
 20
60.97557423715707
 30
0.0
 10
157.3327286156348
 20
60.47863099011413
 30
0.0
 10
157.3033151197655
 20
59.92599549946662
 30
0.0
 10
157.3754471898343
 20
59.21310908501088
 30
0.0
 10
157.6965591920288
 20
58.2754253704012
 30
0.0
 10
158.2685866822457
 20
57.48381306458414
 30
0.0
 10
158.9191190300075
 20
56.94501584979787
 30
0.0
 10
159.4689951587554
 20
56.6310687955115
 30
0.0
 10
160.0244330245345
 20
56.42472026210769
 30
0.0
 10
160.5652085721656
 20
56.31308968267574
 30
0.0
 10
161.1631384669511
 20
56.27591525483385
 30
0.0
 10
161.9028043241059
 20
56.35282749473255
 30
0.0
 10
162.8348539573807
 20
56.67321100237206
 30
0.0
 10
163.6241906910621
 20
57.2432831988006
 30
0.0
 10
164.1631203789035
 20
57.89324166253694
 30
0.0
 10
164.477224718799
 20
58.4434450341165
 30
0.0
 10
164.6825050871659
 20
58.99530287487272
 30
0.0
 10
164.7935750732581
 20
59.52839399813993
 30
0.0
 10
164.839846575062
 20
60.22061952306742
 30
0.0
 10
164.7138817067195
 20
61.12684746482288
 30
0.0
 10
164.2436361778502
 20
62.14137346565199
 30
0.0
 10
163.5904382142465
 20
62.86100535862089
 30
0.0
 10
162.9864192587278
 20
63.27911265813619
 30
0.0
 10
162.3120812090997
 20
63.61272141106753
 30
0.0
 10
161.4267317261264
 20
63.830211081939
 30
0.0
 10
160.4572528355192
 20
63.77603201240196
 30
0.0
 10
159.6689172582461
 20
63.54543703207909
 30
0.0
 10
159.0070107882674
 20
63.20790701358366
 30
0.0
 10
158.4029425697514
 20
62.72066585792946
 30
0.0
 10
157.927627506901
 20
62.13535490111499
 30
0.0
  0
ARC
  5
26D
330
1F
100
AcDbEntity
  8
0
  6
Continuous
 62
     7
370
    15
100
AcDbCircle
 10
142.8667456241
 20
64.9120476235
 30
0.0
 40
1.400000000000006
100
AcDbArc
 50
0.0
 51
90.0
  0
ARC
  5
26E
330
1F
100
AcDbEntity
  8
0
  6
Continuous
 62
     7
370
    15
100
AcDbCircle
 10
142.8667456241
 20
55.1720476235
 30
0.0
 40
1.400000000000006
100
AcDbArc
 50
270.0
 51
0.0
  0
SPLINE
  5
26F
330
1F
100
AcDbEntity
  8
0
  6
Continuous
 62
     7
370
    15
100
AcDbSpline
210
0.0
220
0.0
230
1.0
 70
     8
 71
     3
 72
    22
 73
    18
 74
     0
 42
0.00000001
 43
0.00000001
 12
1.0
 22
0.0
 32
0.0
 13
1.0
 23
0.0
 33
0.0
 40
0.0
 40
0.0
 40
0.0
 40
0.0
 40
0.1249999999999943
 40
0.1249999999999943
 40
0.2499999999999885
 40
0.2499999999999885
 40
0.3124999999999866
 40
0.3124999999999866
 40
0.3749999999999846
 40
0.3749999999999846
 40
0.4999999999999888
 40
0.4999999999999888
 40
0.624999999999993
 40
0.624999999999993
 40
0.7499999999999972
 40
0.7499999999999972
 40
1.0
 40
1.0
 40
1.0
 40
1.0
 10
139.3067006936442
 20
69.18498216732998
 30
0.0
 10
139.2460809727679
 20
69.25687962186493
 30
0.0
 10
139.1838916328013
 20
69.32498000568204
 30
0.0
 10
139.0501621665719
 20
69.44651056986527
 30
0.0
 10
138.9779076248596
 20
69.50209176083538
 30
0.0
 10
138.8560096840239
 20
69.54381559168333
 30
0.0
 10
138.8122031308718
 20
69.54984526390508
 30
0.0
 10
138.7258079616969
 20
69.53649467302778
 30
0.0
 10
138.6834679854053
 20
69.51700399758646
 30
0.0
 10
138.5694972390362
 20
69.43461109137236
 30
0.0
 10
138.511078513046
 20
69.35511378722212
 30
0.0
 10
138.4111709418585
 20
69.19172793388486
 30
0.0
 10
138.3697569510632
 20
69.10539873150297
 30
0.0
 10
138.2977319831859
 20
68.92875823290011
 30
0.0
 10
138.2673834418729
 20
68.83806021865298
 30
0.0
 10
138.1938917118408
 20
68.56791182591896
 30
0.0
 10
138.1667456240752
 20
68.38802501179234
 30
0.0
 10
138.1667456240752
 20
68.20897650598026
 30
0.0
  0
LINE
  5
270
330
1F
100
AcDbEntity
  8
0
  6
Continuous
 62
     7
370
    15
100
AcDbLine
 10
138.1667456241
 20
68.208976506
 30
0.0
 11
138.1667456241
 21
81.6230976595
 31
0.0
  0
LINE
  5
271
330
1F
100
AcDbEntity
  8
0
  6
Continuous
 62
     7
370
    15
100
AcDbLine
 10
139.3167456241
 20
66.3120476235
 30
0.0
 11
139.3167456241
 21
69.1731143868
 31
0.0
  0
LINE
  5
272
330
1F
100
AcDbEntity
  8
0
  6
Continuous
 62
     7
370
    15
100
AcDbLine
 10
138.1667456241
 20
66.9760004331
 30
0.0
 11
139.3167456241
 21
66.3120476235
 31
0.0
  0
LINE
  5
273
330
1F
100
AcDbEntity
  8
0
  6
Continuous
 62
     7
370
    15
100
AcDbLine
 10
138.1667456241
 20
66.9760004331
 30
0.0
 11
138.1667456241
 21
68.208976506
 31
0.0
  0
SPLINE
  5
274
330
1F
100
AcDbEntity
  8
0
  6
Continuous
 62
     7
370
    15
100
AcDbSpline
210
0.0
220
0.0
230
1.0
 70
     8
 71
     3
 72
    22
 73
    18
 74
     0
 42
0.00000001
 43
0.00000001
 12
1.0
 22
0.0
 32
0.0
 13
1.0
 23
0.0
 33
0.0
 40
0.0
 40
0.0
 40
0.0
 40
0.0
 40
0.1249999999999972
 40
0.1249999999999972
 40
0.2499999999999943
 40
0.2499999999999943
 40
0.3124999999999916
 40
0.3124999999999916
 40
0.3749999999999887
 40
0.3749999999999887
 40
0.4999999999999911
 40
0.4999999999999911
 40
0.6249999999999934
 40
0.6249999999999934
 40
0.7499999999999959
 40
0.7499999999999959
 40
1.0
 40
1.0
 40
1.0
 40
1.0
 10
139.3067006936442
 20
50.89911307963516
 30
0.0
 10
139.2460809727679
 20
50.8272156251002
 30
0.0
 10
139.1838916328013
 20
50.75911524128311
 30
0.0
 10
139.0501621665719
 20
50.63758467709985
 30
0.0
 10
138.9779076248596
 20
50.58200348612975
 30
0.0
 10
138.8560096840239
 20
50.54027965528181
 30
0.0
 10
138.8122031308718
 20
50.53424998306005
 30
0.0
 10
138.7258079616969
 20
50.54760057393735
 30
0.0
 10
138.6834679854052
 20
50.56709124937867
 30
0.0
 10
138.5694972390362
 20
50.64948415559275
 30
0.0
 10
138.511078513046
 20
50.72898145974301
 30
0.0
 10
138.4111709418585
 20
50.89236731308026
 30
0.0
 10
138.3697569510632
 20
50.97869651546216
 30
0.0
 10
138.2977319831859
 20
51.15533701406502
 30
0.0
 10
138.2673834418729
 20
51.24603502831215
 30
0.0
 10
138.1938917118408
 20
51.51618342104619
 30
0.0
 10
138.1667456240751
 20
51.69607023517279
 30
0.0
 10
138.1667456240752
 20
51.87511874098486
 30
0.0
  0
LINE
  5
275
330
1F
100
AcDbEntity
  8
0
  6
Continuous
 62
     7
370
    15
100
AcDbLine
 10
138.1667456241
 20
53.1080948139
 30
0.0
 11
138.1667456241
 21
51.875118741
 31
0.0
  0
LINE
  5
276
330
1F
100
AcDbEntity
  8
0
  6
Continuous
 62
     7
370
    15
100
AcDbLine
 10
138.1667456241
 20
53.1080948139
 30
0.0
 11
139.3167456241
 21
53.7720476235
 31
0.0
  0
LINE
  5
277
330
1F
100
AcDbEntity
  8
0
  6
Continuous
 62
     7
370
    15
100
AcDbLine
 10
139.3167456241
 20
53.7720476235
 30
0.0
 11
139.3167456241
 21
50.9109808602
 31
0.0
  0
LINE
  5
278
330
1F
100
AcDbEntity
  8
0
  6
Continuous
 62
     7
370
    15
100
AcDbLine
 10
138.1667456241
 20
38.4609975875
 30
0.0
 11
138.1667456241
 21
51.875118741
 31
0.0
  0
LINE
  5
279
330
1F
100
AcDbEntity
  8
0
  6
Continuous
 62
     7
370
    15
100
AcDbLine
 10
139.3167456241
 20
66.3120476235
 30
0.0
 11
142.8667456241
 21
66.3120476235
 31
0.0
  0
LINE
  5
27A
330
1F
100
AcDbEntity
  8
0
  6
Continuous
 62
     7
370
    15
100
AcDbLine
 10
139.3167456241
 20
53.7720476235
 30
0.0
 11
142.8667456241
 21
53.7720476235
 31
0.0
  0
SPLINE
  5
27B
330
1F
100
AcDbEntity
  8
0
  6
Continuous
 62
     7
370
    15
100
AcDbSpline
210
0.0
220
0.0
230
1.0
 70
     8
 71
     3
 72
     9
 73
     5
 74
     0
 42
0.00000001
 43
0.00000001
 12
1.0
 22
0.0
 32
0.0
 13
1.0
 23
0.0
 33
0.0
 40
0.0
 40
0.0
 40
0.0
 40
0.0
 40
0.9437458724468543
 40
1.0
 40
1.0
 40
1.0
 40
1.0
 10
158.1612137139214
 20
62.36686554217349
 30
0.0
 10
158.3761378608151
 20
62.65765980606196
 30
0.0
 10
158.6038730522141
 20
62.96578752601111
 30
0.0
 10
158.9396269387574
 20
63.1223675986254
 30
0.0
 10
158.9585144807174
 20
63.13117587400252
 30
0.0
  0
SPLINE
  5
27C
330
1F
100
AcDbEntity
  8
0
  6
Continuous
 62
     7
370
    15
100
AcDbSpline
210
0.0
220
0.0
230
1.0
 70
     8
 71
     3
 72
    12
 73
     8
 74
     0
 42
0.00000001
 43
0.00000001
 12
1.0
 22
0.0
 32
0.0
 13
1.0
 23
0.0
 33
0.0
 40
0.0
 40
0.0
 40
0.0
 40
0.0
 40
0.2500000000000006
 40
0.2500000000000006
 40
0.5000000000000012
 40
0.5000000000000012
 40
1.0
 40
1.0
 40
1.0
 40
1.0
 10
195.4167456240751
 20
35.58335796111495
 30
0.0
 10
195.5069846917622
 20
35.58335796111494
 30
0.0
 10
195.5978828058687
 20
35.61118768141843
 30
0.0
 10
195.7524798423572
 20
35.7063301426751
 30
0.0
 10
195.8174582584653
 20
35.77275295897546
 30
0.0
 10
195.9692932864016
 20
35.99695239049559
 30
0.0
 10
196.0167456240752
 20
36.18093879304121
 30
0.0
 10
196.0167456240752
 20
36.36109536222418
 30
0.0
  0
LINE
  5
27D
330
1F
100
AcDbEntity
  8
0
  6
Continuous
 62
     7
370
    15
100
AcDbLine
 10
196.0167456241
 20
29.1420476235
 30
0.0
 11
196.0167456241
 21
36.3610953622
 31
0.0
  0
LINE
  5
27E
330
1F
100
AcDbEntity
  8
0
  6
Continuous
 62
     7
370
    15
100
AcDbLine
 10
186.1567456241
 20
31.108830581
 30
0.0
 11
186.1567456241
 21
38.9919039559
 31
0.0
  0
SPLINE
  5
27F
330
1F
100
AcDbEntity
  8
0
  6
Continuous
 62
     7
370
    15
100
AcDbSpline
210
0.0
220
0.0
230
1.0
 70
     8
 71
     3
 72
     8
 73
     4
 74
     0
 42
0.00000001
 43
0.00000001
 12
1.0
 22
0.0
 32
0.0
 13
1.0
 23
0.0
 33
0.0
 40
0.0
 40
0.0
 40
0.0
 40
0.0
 40
1.0
 40
1.0
 40
1.0
 40
1.0
 10
184.6748127925861
 20
35.58335796111515
 30
0.0
 10
185.1814929007366
 20
36.71360102124613
 30
0.0
 10
185.6767936297103
 20
37.84928851497725
 30
0.0
 10
186.1567456240751
 20
38.99190395589925
 30
0.0
  0
LINE
  5
280
330
1F
100
AcDbEntity
  8
0
  6
Continuous
 62
     7
370
    15
100
AcDbLine
 10
191.4586784556
 20
28.5420476235
 30
0.0
 11
191.4586784556
 21
35.5833579611
 31
0.0
  0
LINE
  5
281
330
1F
100
AcDbEntity
  8
0
  6
Continuous
 62
     7
370
    15
100
AcDbLine
 10
189.9767456241
 20
31.108830581
 30
0.0
 11
189.9767456241
 21
38.9919039559
 31
0.0
  0
SPLINE
  5
282
330
1F
100
AcDbEntity
  8
0
  6
Continuous
 62
     7
370
    15
100
AcDbSpline
210
0.0
220
0.0
230
1.0
 70
     8
 71
     3
 72
     8
 73
     4
 74
     0
 42
0.00000001
 43
0.00000001
 12
1.0
 22
0.0
 32
0.0
 13
1.0
 23
0.0
 33
0.0
 40
0.0
 40
0.0
 40
0.0
 40
0.0
 40
1.0
 40
1.0
 40
1.0
 40
1.0
 10
189.9767456240751
 20
38.99190395589924
 30
0.0
 10
190.45669761844
 20
37.84928851497722
 30
0.0
 10
190.9519983474137
 20
36.71360102124608
 30
0.0
 10
191.4586784555642
 20
35.58335796111508
 30
0.0
  0
LINE
  5
283
330
1F
100
AcDbEntity
  8
0
  6
Continuous
 62
     7
370
    15
100
AcDbLine
 10
191.4586784556
 20
35.5833579611
 30
0.0
 11
195.4167456241
 21
35.5833579611
 31
0.0
  0
LINE
  5
284
330
1F
100
AcDbEntity
  8
0
  6
Continuous
 62
     7
370
    15
100
AcDbLine
 10
189.9767456241
 20
39.906180992
 30
0.0
 11
189.9767456241
 21
38.9919039559
 31
0.0
  0
LINE
  5
285
330
1F
100
AcDbEntity
  8
0
  6
Continuous
 62
     7
370
    15
100
AcDbLine
 10
196.0167456241
 20
36.3610953622
 30
0.0
 11
196.0167456241
 21
40.1920476235
 31
0.0
  0
LINE
  5
286
330
1F
100
AcDbEntity
  8
0
  6
Continuous
 62
     7
370
    15
100
AcDbLine
 10
186.1567456241
 20
38.9919039559
 30
0.0
 11
186.1567456241
 21
39.906180992
 31
0.0
  0
LINE
  5
287
330
1F
100
AcDbEntity
  8
0
  6
Continuous
 62
     7
370
    15
100
AcDbLine
 10
139.3167456241
 20
66.2545476235
 30
0.0
 11
143.2638523478
 21
66.2545476235
 31
0.0
  0
LINE
  5
288
330
1F
100
AcDbEntity
  8
0
  6
Continuous
 62
     7
370
    15
100
AcDbLine
 10
139.3167456241
 20
53.8295476235
 30
0.0
 11
143.2638523478
 21
53.8295476235
 31
0.0
  0
SPLINE
  5
289
330
1F
100
AcDbEntity
  8
0
  6
Continuous
 62
     7
370
    15
100
AcDbSpline
210
0.0
220
0.0
230
1.0
 70
    24
 71
     3
 72
     8
 73
     4
 74
     0
 42
0.00000001
 43
0.00000001
 12
1.0
 22
0.0
 32
0.0
 13
1.0
 23
0.0
 33
0.0
 40
0.0000002432968744
 40
0.0000002432968744
 40
0.0000002432968744
 40
0.0000002432968744
 40
0.0014011510532366
 40
0.0014011510532366
 40
0.0014011510532366
 40
0.0014011510532366
 10
138.1667456240752
 20
66.91850043305064
 30
0.0
 10
138.5506100908117
 20
66.69687617984795
 30
0.0
 10
138.9339637126353
 20
66.47554686309326
 30
0.0
 10
139.3167456240751
 20
66.25454762348257
 30
0.0
  0
SPLINE
  5
28A
330
1F
100
AcDbEntity
  8
0
  6
Continuous
 62
     7
370
    15
100
AcDbSpline
210
0.0
220
0.0
230
1.0
 70
    24
 71
     3
 72
     8
 73
     4
 74
     0
 42
0.00000001
 43
0.00000001
 12
1.0
 22
0.0
 32
0.0
 13
1.0
 23
0.0
 33
0.0
 40
0.0000002432968744
 40
0.0000002432968744
 40
0.0000002432968744
 40
0.0000002432968744
 40
0.0014011510532366
 40
0.0014011510532366
 40
0.0014011510532366
 40
0.0014011510532366
 10
138.1667456240752
 20
53.1655948139145
 30
0.0
 10
138.5506100908117
 20
53.38721906711719
 30
0.0
 10
138.9339637126353
 20
53.60854838387186
 30
0.0
 10
139.3167456240751
 20
53.82954762348256
 30
0.0
  0
LINE
  5
28B
330
1F
100
AcDbEntity
  8
0
  6
Continuous
 62
     7
370
    15
100
AcDbLine
 10
260.0667456241
 20
80.0420476235
 30
0.0
 11
260.0667456241
 21
59.0420476235
 31
0.0
  0
DIMENSION
  5
28C
330
1F
100
AcDbEntity
  8
VERMASSUNG
100
AcDbDimension
  2
_D_10
 10
260.0667456241
 20
102.3312026002
 30
0.0
 11
237.5667456241
 21
102.3312026002
 31
0.0
 70
   160
  1
<>
 71
     2
 42
-1.0
  3
SLDDIMSTYLE0
100
AcDbAlignedDimension
 13
215.0667456241
 23
80.0420476235
 33
0.0
 14
260.0667456241
 24
95.0420476235
 34
0.0
100
AcDbRotatedDimension
  0
LINE
  5
296
330
1F
100
AcDbEntity
  8
VERMASSUNG
  6
CENTERX2
370
     0
100
AcDbLine
 10
137.8460175788
 20
60.0420476235
 30
0.0
 11
263.7153058349
 21
60.0420476235
 31
0.0
  0
OLE2FRAME
  5
297
330
1F
100
AcDbEntity
  8
0
100
AcDbOle2Frame
 70
     2
  3
Paintbrush-Bild
 10
13.8511154363
 20
38.264191557
 30
0.0
 11
51.6290888628
 21
31.9806341108
 31
0.0
 71
     2
 72
     0
 73
     1
 90
    12928
310
80552BED0767C5B32B40DDAF6807D121434000000000000000006FFBDDFB85D0
310
4940DDAF6807D121434000000000000000006FFBDDFB85D04940416F4BD60AFB
310
3F4000000000000000002BED0767C5B32B40416F4BD60AFB3F40000000000000
310
0000000000000100000000010000010000000100000000000100000000320000
310
D0CF11E0A1B11AE1000000000000000000000000000000003E000300FEFF0900
310
0600000000000000000000000100000001000000000000000010000002000000
310
01000000FEFFFFFF0000000000000000FFFFFFFFFFFFFFFFFFFFFFFFFFFFFFFF
310
FFFFFFFFFFFFFFFFFFFFFFFFFFFFFFFFFFFFFFFFFFFFFFFFFFFFFFFFFFFFFFFF
310
FFFFFFFFFFFFFFFFFFFFFFFFFFFFFFFFFFFFFFFFFFFFFFFFFFFFFFFFFFFFFFFF
310
FFFFFFFFFFFFFFFFFFFFFFFFFFFFFFFFFFFFFFFFFFFFFFFFFFFFFFFFFFFFFFFF
310
FFFFFFFFFFFFFFFFFFFFFFFFFFFFFFFFFFFFFFFFFFFFFFFFFFFFFFFFFFFFFFFF
310
FFFFFFFFFFFFFFFFFFFFFFFFFFFFFFFFFFFFFFFFFFFFFFFFFFFFFFFFFFFFFFFF
310
FFFFFFFFFFFFFFFFFFFFFFFFFFFFFFFFFFFFFFFFFFFFFFFFFFFFFFFFFFFFFFFF
310
FFFFFFFFFFFFFFFFFFFFFFFFFFFFFFFFFFFFFFFFFFFFFFFFFFFFFFFFFFFFFFFF
310
FFFFFFFFFFFFFFFFFFFFFFFFFFFFFFFFFFFFFFFFFFFFFFFFFFFFFFFFFFFFFFFF
310
FFFFFFFFFFFFFFFFFFFFFFFFFFFFFFFFFFFFFFFFFFFFFFFFFFFFFFFFFFFFFFFF
310
FFFFFFFFFFFFFFFFFFFFFFFFFFFFFFFFFFFFFFFFFFFFFFFFFFFFFFFFFFFFFFFF
310
FFFFFFFFFFFFFFFFFFFFFFFFFFFFFFFFFFFFFFFFFFFFFFFFFFFFFFFFFFFFFFFF
310
FFFFFFFFFFFFFFFFFFFFFFFFFFFFFFFFFFFFFFFFFFFFFFFFFFFFFFFFFFFFFFFF
310
FFFFFFFFFFFFFFFFFFFFFFFFFFFFFFFFFFFFFFFFFFFFFFFFFFFFFFFFFFFFFFFF
310
FDFFFFFFFEFFFFFFFEFFFFFFFEFFFFFF05000000060000000700000008000000
310
090000000A0000000B0000000C0000000D0000000E0000000F00000010000000
310
11000000120000001300000014000000150000001600000017000000FEFFFFFF
310
FFFFFFFFFFFFFFFFFFFFFFFFFFFFFFFFFFFFFFFFFFFFFFFFFFFFFFFFFFFFFFFF
310
FFFFFFFFFFFFFFFFFFFFFFFFFFFFFFFFFFFFFFFFFFFFFFFFFFFFFFFFFFFFFFFF
310
FFFFFFFFFFFFFFFFFFFFFFFFFFFFFFFFFFFFFFFFFFFFFFFFFFFFFFFFFFFFFFFF
310
FFFFFFFFFFFFFFFFFFFFFFFFFFFFFFFFFFFFFFFFFFFFFFFFFFFFFFFFFFFFFFFF
310
FFFFFFFFFFFFFFFFFFFFFFFFFFFFFFFFFFFFFFFFFFFFFFFFFFFFFFFFFFFFFFFF
310
FFFFFFFFFFFFFFFFFFFFFFFFFFFFFFFFFFFFFFFFFFFFFFFFFFFFFFFFFFFFFFFF
310
FFFFFFFFFFFFFFFFFFFFFFFFFFFFFFFFFFFFFFFFFFFFFFFFFFFFFFFFFFFFFFFF
310
FFFFFFFFFFFFFFFFFFFFFFFFFFFFFFFFFFFFFFFFFFFFFFFFFFFFFFFFFFFFFFFF
310
FFFFFFFFFFFFFFFFFFFFFFFFFFFFFFFFFFFFFFFFFFFFFFFFFFFFFFFFFFFFFFFF
310
FFFFFFFFFFFFFFFFFFFFFFFFFFFFFFFFFFFFFFFFFFFFFFFFFFFFFFFFFFFFFFFF
310
FFFFFFFFFFFFFFFFFFFFFFFFFFFFFFFFFFFFFFFFFFFFFFFFFFFFFFFFFFFFFFFF
310
FFFFFFFFFFFFFFFFFFFFFFFFFFFFFFFFFFFFFFFFFFFFFFFFFFFFFFFFFFFFFFFF
310
FFFFFFFFFFFFFFFFFFFFFFFFFFFFFFFFFFFFFFFFFFFFFFFFFFFFFFFFFFFFFFFF
310
52006F006F007400200045006E00740072007900000000000000000000000000
310
0000000000000000000000000000000000000000000000000000000000000000
310
16000500FFFFFFFFFFFFFFFF020000000A00030000000000C000000000000046
310
000000000000000000000000201DD718A3B5CD0103000000C000000000000000
310
01004F006C006500000000000000000000000000000000000000000000000000
310
0000000000000000000000000000000000000000000000000000000000000000
310
0A000200FFFFFFFFFFFFFFFFFFFFFFFF00000000000000000000000000000000
310
0000000000000000000000000000000000000000000000001400000000000000
310
010043006F006D0070004F0062006A0000000000000000000000000000000000
310
0000000000000000000000000000000000000000000000000000000000000000
310
120002010100000003000000FFFFFFFF00000000000000000000000000000000
310
0000000000000000000000000000000000000000010000004D00000000000000
310
01004F006C006500310030004E00610074006900760065000000000000000000
310
0000000000000000000000000000000000000000000000000000000000000000
310
1A000200FFFFFFFFFFFFFFFFFFFFFFFF00000000000000000000000000000000
310
0000000000000000000000000000000000000000040000002426000000000000
310
FEFFFFFF02000000FEFFFFFFFFFFFFFFFFFFFFFFFFFFFFFFFFFFFFFFFFFFFFFF
310
FFFFFFFFFFFFFFFFFFFFFFFFFFFFFFFFFFFFFFFFFFFFFFFFFFFFFFFFFFFFFFFF
310
FFFFFFFFFFFFFFFFFFFFFFFFFFFFFFFFFFFFFFFFFFFFFFFFFFFFFFFFFFFFFFFF
310
FFFFFFFFFFFFFFFFFFFFFFFFFFFFFFFFFFFFFFFFFFFFFFFFFFFFFFFFFFFFFFFF
310
FFFFFFFFFFFFFFFFFFFFFFFFFFFFFFFFFFFFFFFFFFFFFFFFFFFFFFFFFFFFFFFF
310
FFFFFFFFFFFFFFFFFFFFFFFFFFFFFFFFFFFFFFFFFFFFFFFFFFFFFFFFFFFFFFFF
310
FFFFFFFFFFFFFFFFFFFFFFFFFFFFFFFFFFFFFFFFFFFFFFFFFFFFFFFFFFFFFFFF
310
FFFFFFFFFFFFFFFFFFFFFFFFFFFFFFFFFFFFFFFFFFFFFFFFFFFFFFFFFFFFFFFF
310
FFFFFFFFFFFFFFFFFFFFFFFFFFFFFFFFFFFFFFFFFFFFFFFFFFFFFFFFFFFFFFFF
310
FFFFFFFFFFFFFFFFFFFFFFFFFFFFFFFFFFFFFFFFFFFFFFFFFFFFFFFFFFFFFFFF
310
FFFFFFFFFFFFFFFFFFFFFFFFFFFFFFFFFFFFFFFFFFFFFFFFFFFFFFFFFFFFFFFF
310
FFFFFFFFFFFFFFFFFFFFFFFFFFFFFFFFFFFFFFFFFFFFFFFFFFFFFFFFFFFFFFFF
310
FFFFFFFFFFFFFFFFFFFFFFFFFFFFFFFFFFFFFFFFFFFFFFFFFFFFFFFFFFFFFFFF
310
FFFFFFFFFFFFFFFFFFFFFFFFFFFFFFFFFFFFFFFFFFFFFFFFFFFFFFFFFFFFFFFF
310
FFFFFFFFFFFFFFFFFFFFFFFFFFFFFFFFFFFFFFFFFFFFFFFFFFFFFFFFFFFFFFFF
310
FFFFFFFFFFFFFFFFFFFFFFFFFFFFFFFFFFFFFFFFFFFFFFFFFFFFFFFFFFFFFFFF
310
0100000200000000000000000000000000000000000000000000000000000000
310
0000000000000000000000000000000000000000000000000000000000000000
310
0100FEFF030A0000FFFFFFFF0A00030000000000C00000000000004607000000
310
5042727573680007000000504272757368000700000050427275736800F439B2
310
7100000000000000000000000000000000000000000000000000000000000000
310
0000000000000000000000000000000000000000000000000000000000000000
310
0000000000000000000000000000000000000000000000000000000000000000
310
0000000000000000000000000000000000000000000000000000000000000000
310
0000000000000000000000000000000000000000000000000000000000000000
310
0000000000000000000000000000000000000000000000000000000000000000
310
0000000000000000000000000000000000000000000000000000000000000000
310
0000000000000000000000000000000000000000000000000000000000000000
310
0000000000000000000000000000000000000000000000000000000000000000
310
0000000000000000000000000000000000000000000000000000000000000000
310
0000000000000000000000000000000000000000000000000000000000000000
310
0000000000000000000000000000000000000000000000000000000000000000
310
20260000424D0E260000000000003E00000028000000B40200006E0000000100
310
01000000000000000000130B0000130B00000200000002000000000000FFFFFF
310
FFFFFFFFFFFFFFFFFFFFFFFFFFFFFFFFFFFFFFFFFFFFFFFFFFFFFFFFFFFFFFFF
310
FFFFFFFFFFFFFFFFFFFFFFFFFFFFFFFFFFFFFFFFFFFFFFFFFFFFFFFFFFFFFFFF
310
FFFFFFFFFFFFFFFFFFFFFFFFFFFFFFFFFFFFFFFFFFFFFFFFF000FFFFFFFFFFFF
310
FFFFFFFFFFFFFFFFFFFFFFFFFFFFFFFFFFFFFFFFFFFFFFFFFFFFFFFFFFFFFFFF
310
FFFFFFFFFFFFFFFFFFFFFFFFFFFFFFFFFFFFFFFFFFFFFFFFFFFFFFFFFFFFFFFF
310
FFFFFFFFFFFFFFFFFFFFFFFFFFFFFFFFF000FFFFFFFFFFFFFFFFFFFFFFFFFFFF
310
FFFFFFFFFFFFFFFFFFFFFFFFFFFFFFFFFFFFFFFFFFFFFFFFFFFFFFFFFFFFFFFF
310
FFFFFFFFFFFFFFFFFFFFFFFFFFFFFFFFFFFFFFFFFFFFFFFFFFFFFFFFFFFFFFFF
310
FFFFFFFFFFFFFFFFF000FFFFFFFFFFFFFFFFFFFFFFFFFFFFFFFFFFFFFFFFFFFF
310
FFFFFFFFFFFFFFFFFFFFFFFFFFFFFFFFFFFFFFFFFFFFFFFFFFFFFFFFFFFFFFFF
310
FFFFFFFFFFFFFFFFFFFFFFFFFFFFFFFFFFFFFFFFFFFFFFFFFFFFFFFFFFFFFFFF
310
F000FFFFFFFFFFFFFFFFFFFFFFFFFFFFFFFFFFFFFFFFFFFFFFFFFFFFFFFFFFFF
310
FFFFFFFFFFFFFFFFFFFFFFFFFFFFFFFFFFFFFFFFFFFFFFFFFFFFFFFFFFFFFFFF
310
FFFFFFFFFFFFFFFFFFFFFFFFFFFFFFFFFFFFFFFFFFFFFFFFF000FFFFFFFFFFFF
310
FFFFFFFFFFFFFFFFFFFFFFFFFFFFFFFFFFFFFFFFFFFFFFFFFFFFFFFFFFFFFFFF
310
FFFFFFFFFFFFFFFFFFFFFFFFFFFFFFFFFFFFFFFFFFFFFFFFFFFFFFFFFFFFFFFF
310
FFFFFFFFFFFFFFFFFFFFFFFFFFFFFFFFF000FFFFFFFFFFFFFFFFFFFFFFFFFFFF
310
FFFFFFFFFFFFFFFFFFFFFFFFFFFFFFFFFFFFFFFFFFFFFFFFFFFFFFFFFFFFFFFF
310
FFFFFFFFFFFFFFFFFFFFFFFFFFFFFFFFFFFFFFFFFFFFFFFFFFFFFFFFFFFFFFFF
310
FFFFFFFFFFFFFFFFF000FFFFFFFFFFFFFFFFFFFFFFFFFFFFFFFFFFFFFFFFFFFF
310
FFFFFFFFFFFFFFFFFFFFFFFFFFFFFFFFFFFFFFFFFFFFFFFFFFFFFFFFFFFFFFFF
310
FFFFFFFFFFFFFFFFFFFFFFFFFFFFFFFFFFFFFFFFFFFFFFFFFFFFFFFFFFFFFFFF
310
F000FFFFFFFFFFFFFFFFFFFFFFFFFFFFFFFFFFFFFFFFFFFFFFFFFFFFFFFFFFFF
310
FFFFFFFFFFFFFFFFFFFFFFFFFFFFFFFFFFFFFFFFFFFFFFFFFFFFFFFFFFFFFFFF
310
FFFFFFFFFFFFFFFFFFFFFFFFFFFFFFFFFFFFFFFFFFFFFFFFF000FFFFFFFFFFFF
310
FFFFFFFFFFFFFFFFFFFFFFFFFFFFFFFFFFFFFFFFFFFFFFFFFFFFFFFFFFFFFFFF
310
FFFFFFFFFFFFFFFFFFFFFFFFFFFFFFFFFFFFFFFFFFFFFFFFFFFFFFFFFFFFFFFF
310
FFFFFFFFFFFFFFFFFFFFFFFFFFFFFFFFF000FFFFFFFFFFFFFFFFFFFFFFFFFFFF
310
FFFFFFFFFFFFFFFFFFFFFFFFFFFFFFFFFFFFFFFFFFFFFFFFFFFFFFFFFFFFFFFF
310
FFFFFFFFFFFFFFFFFFFFFFFFFFFFFFFFFFFFFFFFFFFFFFFFFFFFFFFFFFFFFFFF
310
FFFFFFFFFFFFFFFFF000FFFFFFFFFFFFFFFFFFFFFFFFFFFFFFFFFFFFFFFFFFFF
310
FFFFFFFFFFFFFFFFFFFFFFFFFFFFFFFFFFFFFFFFFFFFFFFFFFFFFFFFFFFFFFFF
310
FFFFFFFFFFFFFFFFFFFFFFFFFFFFFFFFFFFFFFFFFFFFFFFFFFFFFFFFFFFFFFFF
310
F000FFFFFFFFFFFFFFFFFFFFFFFFFFFFFFFFFFFFFFFFFFFFFFFFFFFFFFFFFFFF
310
FFFFFFFFFFFFFFFFFFFFFFFFFFFFFFFFFFFFFFFFFFFFFFFFFFFFFFFFFFFFFFFF
310
FFFFFFFFFFFFFFFFFFFFFFFFFFFFFFFFFFFFFFFFFFFFFFFFF000FFFFFFFFFFFF
310
FFFFFFFFFFFFFFFFFFFFFFFFFFFFFFFFFFFFFFFFFFFFFFFFFFFFFFFFFFFFFFFF
310
FFFFFFFFFFFFFFFFFFFFFFFFFFFFFFFFFFFFFFFFFFFFFFFFFFFFFFFFFFFFFFFF
310
FFFFFFFFFFFFFFFFFFFFFFFFFFFFFFFFF000FFFFFFFFFFFFFFFFFFFFFFFFFFFF
310
FFFFFFFFFFFFFFFFFFFFFFFFFFFFFFFFFFFFFFFFFFFFFFFFFFFFFFFFFFFFFFFF
310
FFFFFFFFFFFFFFFFFFFFFFFFFFFFFFFFFFFFFFFFFFFFFFFFFFFFFFFFFFFFFFFF
310
FFFFFFFFFFFFFFFFF000FFFFFFFFFFFFFFFFFFFFFFFFFFFFFFFFFFFFFFFFFFFF
310
FFFFFFFFFFFFFFFFFFFFFFFFFFFFFFFFFFFFFFFFFFFFFFFFFFFFFFFFFFFFFFFF
310
FFFFFFFFFFFFFFFFFFFFFFFFFFFFFFFFFFFFFFFFFFFFFFFFFFFFFFFFFFFFFFFF
310
F000FFFFFFFFFFFFFFFFFFFFFFFFFFFFFFFFFFFFFFFFFFFFFFFFFFFFFFFFFFFF
310
FFFFFFFFFFFFFFFFFFFFFFFFFFFFFFFFFFFFFFFFFFFFFFFFFFFFFFFFFFFFFFFF
310
FFFFFFFFFFFFFFFFFFFFFFFFFFFFFFFFFFFFFFFFFFFFFFFFF000FFFFFFFFFFFF
310
FFFFFFFFFFFFFFFFFFFFFFFFFFFFFFFFFFFFFFFFFFFFFFFFFFFFFFFFFFFFFFFF
310
FFFFFFFFFFFFFFFFFFFFFFFFFFFFFFFFFFFFFFFFFFFFFFFFFFFFFFFFFFFFFFFF
310
FFFFFFFFFFFFFFFFFFFFFFFFFFFFFFFFF000FFFFFFFFFFFFFFFFFFFFFFFFFFFF
310
FFFFFFFFFFFFFFFFFFFFFFFFFFFFFFFFFFFFFFFFFFFFFFFFFFFFFFFFFFFFFFFF
310
FFFFFFFFFFFFFFFFFFFFFFFFFFFFFFFFFFFFFFFFFFFFFFFFFFFFFFFFFFFFFFFF
310
FFFFFFFFFFFFFFFFF000FFFFF80003FFFFFFFFFFFFFFFFFFFFFFFFFFFFFFFFFF
310
FFFFF00007FFFFFFFFFF00007FFFFFF800000000000000007FFFFFFFFFFFFFFF
310
FFFFFFFC001FFFFFFFFFFFFFFC001FFFFFFFFFFFFFFFFFFFFFFFFFFE0007FFFF
310
F000FFFF8000007FFFFFFFF8000FFFFFC0007FFFFF80007FFFFF0000007FFFFF
310
FFF8000007FFFFF800000000000000007FFFFFF0001FFFFFFFFFFFC00001FFFF
310
FFFFFFFFC00001FFFFFFFF000000000003FFFFE000007FFFF000FFFE0000000F
310
FFFFFFF0000FFFFF80007FFFFF80007FFFFC0000001FFFFFFFC0000001FFFFF8
310
00000000000000007FFFFFF0001FFFFFFFFFFE0000003FFFFFFFFFFE0000003F
310
FFFFFF000000000003FFFF0000000FFFF000FFF800000003FFFFFFF00007FFFF
310
80007FFFFF80007FFFF000000007FFFFFF000000003FFFF80000000000000000
310
7FFFFFF0001FFFFFFFFFF80000000FFFFFFFFFF80000000FFFFFFF0000000000
310
03FFFC00000003FFF000FFE000000000FFFFFFF00007FFFF80003FFFFF80007F
310
FFC000000001FFFFFC000000001FFFF800000000000000007FFFFFF0001FFFFF
310
FFFFE000000003FFFFFFFFE000000003FFFFFF000000000003FFF000000000FF
310
F000FF80000000007FFFFFF00007FFFF80003FFFFF80007FFF8000000000FFFF
310
F80000000007FFF800000000000000007FFFFFF0001FFFFFFFFFC000000001FF
310
FFFFFFC000000001FFFFFF000000000003FFC0000000007FF000FF0000000000
310
3FFFFFE00007FFFF00003FFFFF80007FFE00000000003FFFF00000000003FFF8
310
00000000000000007FFFFFF0001FFFFFFFFF8000000000FFFFFFFF8000000000
310
FFFFFF000000000003FF80000000003FF000FE00000000001FFFFFE00003FFFF
310
00003FFFFF80007FFC00000000001FFFE00000000001FFF8000001FFFE000000
310
7FFFFFF0001FFFFFFFFE00000000003FFFFFFE00000000003FFFFF0000000000
310
03FF00000000001FF000FC00000000000FFFFFE00003FFFF00001FFFFF80007F
310
F800000000001FFFC00000000000FFF8000001FFFE0000007FFFFFF0001FFFFF
310
FFFC00000000001FFFFFFC00000000001FFFFF000000000003FE00000000000F
310
F000F8000000000007FFFFE00003FFFF00001FFFFF80007FF800000000000FFF
310
800000000000FFF8000001FFFE0000007FFFFFF0001FFFFFFFF800000000000F
310
FFFFF800000000000FFFFF000000000003FC000000000007F000F80000000000
310
03FFFFC00003FFFE00001FFFFF80007FF0000000000007FF0000000000007FF8
310
000001FFFE0000007FFFFFF0001FFFFFFFF0000000000007FFFFF00000000000
310
07FFFF000000000003F8000000000003F000F0000000000003FFFFC00001FFFE
310
00001FFFFF80007FE0000000000007FE0000000000003FF8000001FFFE000000
310
7FFFFFF0001FFFFFFFF0000000000007FFFFF0000000000007FFFF0000000000
310
03F800001F800003F000E00001FFF00001FFFFC00001FFFE00000FFFFF80007F
310
E00001FFE00003FE00001FFF00003FF8000001FFFE0000007FFFFFF0001FFFFF
310
FFE000003E000003FFFFE000003E000003FFFF000000000003F00001FFF80001
310
F000E00007FFFC0001FFFFC00001FFFE00000FFFFF80007FC0000FFFFC0003FC
310
0000FFFFC0001FF8000001FFFE0000007FFFFFF0001FFFFFFFC00003FFE00001
310
FFFFC00003FFE00001FFFF0001FFFFFFFFF00007FFFE0001F000E0000FFFFF00
310
00FFFF800001FFFC00000FFFFF80007FC0001FFFFE0001FC0001FFFFE0001FF8
310
000001FFFE0000007FFFFFF0001FFFFFFF80000FFFF80000FFFF80000FFFF800
310
00FFFF0003FFFFFFFFE0000FFFFF8000F000C0003FFFFF8000FFFF800000FFFC
310
000007FFFF80007F80003FFFFF0001FC0003FFFFF0001FF8000001FFFE000000
310
7FFFFFF0001FFFFFFF80003FFFFE0000FFFF80003FFFFE0000FFFF0003FFFFFF
310
FFE0003FFFFF8000F000C0003FFFFF8000FFFF800000FFFC000007FFFF80007F
310
80007FFFFF8001F80007FFFFF8000FF8000001FFFE0000007FFFFFF0001FFFFF
310
FF00007FFFFF00007FFF00007FFFFF00007FFF0003FFFFFFFFE0003FFFFFC000
310
F000C0007FFFFFC000FFFF000000FFFC000007FFFF80007F8000FFFFFF8000F8
310
000FFFFFF8000FF8000001FFFE0000007FFFFFF0001FFFFFFF0000FFFFFF8000
310
7FFF0000FFFFFF80007FFF0003FFFFFFFFC0007FFFFFC00070008000FFFFFFC0
310
00FFFF000000FFF8000007FFFF80007F8000FFFFFF8000F8000FFFFFF8000FF8
310
000001FFFE0000007FFFFFF0001FFFFFFE0001FFFFFFC0003FFE0001FFFFFFC0
310
003FFF0003FFFFFFFFC0007FFFFFE00070008000FFFFFFC0007FFF0000007FF8
310
000003FFFF80007F0001FFFFFF8000F8000FFFFFF8000FF8000001FFFE000000
310
7FFFFFF0001FFFFFFE0001FFFFFFC0003FFE0001FFFFFFC0003FFF0003FFFFFF
310
FFC000FFFFFFE00070008000FFFFFFC0007FFF0000007FF8000003FFFF80007F
310
0001FFFFFF8000F8001FFFFFF8000FF8000001FFFE0000007FFFFFF0001FFFFF
310
FE0003FFFFFFE0003FFE0003FFFFFFE0003FFF0003FFFFFFFFC000FFFFFFE000
310
70008000FFFFFFC0007FFE0000007FF8000003FFFF80007F0001FFFFFF8000F0
310
001FFFFFF8000FF8000001FFFE0000007FFFFFF0001FFFFFFC0003FFFFFFE000
310
1FFC0003FFFFFFE0001FFF0003FFFFFFFFC000FFFFFFC00070008000FFFFFF80
310
007FFE0000007FF0000003FFFF80007F0001FFFFFF0000F0001FFFFFF8000FF8
310
000001FFFE0000007FFFFFF0001FFFFFFC0007FFFFFFF0001FFC0007FFFFFFF0
310
001FFF0003FFFFFFFFC000FFFFFFC00070008001FFFFFF0000FFFE0000003FF0
310
000001FFFF80007F0001FFFFFF0000F8001FFFFFF0000FF8000001FFFE000000
310
7FFFFFF0001FFFFFFC0007FFFFFFF0001FFC0007FFFFFFF0001FFF0003FFFFFF
310
FFC001FFFFFF80007000FFFFFFFFFE0000FFFE0008003FF0008001FFFF80007F
310
FFFFFFFFFC0000FFFFFFFFFFE0000FF8000001FFFE0000007FFFFFF0001FFFFF
310
F8000FFFFFFFF8000FF8000FFFFFFFF8000FFF0003FFFFFFFFFFFFFFFFFF0000
310
7000FFFFFFFFFC0000FFFC0008003FF0008001FFFF80007FFFFFFFFFF80001FF
310
FFFFFFFF80000FF8000001FFFE0000007FFFFFF0001FFFFFF8000FFFFFFFF800
310
0FF8000FFFFFFFF8000FFF0003FFFFFFFFFFFFFFFFFE0000F000FFFFFFFFE000
310
00FFFC000C003FE000C001FFFF80007FFFFFFFFFC00001FFFFFFFFFE00001FF8
310
000001FFFE0000007FFFFFF0001FFFFFF8000FFFFFFFF8000FF8000FFFFFFFF8
310
000FFF0003FFFFFFFFFFFFFFFFF00000F000FFFFFFFE000001FFFC000C001FE0
310
00C000FFFF80007FFFFFFFFE000001FFFFFFFFE000001FF80FFFFFFFFFFFFFC0
310
7FFFFFF0001FFFFFF8000FFFFFFFF8000FF8000FFFFFFFF8000FFF0003FFFFFF
310
FFFFFFFFFF800000F000FFFFFFC0000001FFFC001C001FE001C000FFFF80007F
310
FFFFFF80000003FFFFFFF80000001FF80FFFFFFFFFFFFFC07FFFFFF0001FFFFF
310
F8001FFFFFFFFC000FF8001FFFFFFFFC000FFF0003FFFFFFFFFFFFFFF0000001
310
F000FFFFF800000001FFF8001C001FE001C000FFFF80007FFFFFF800000003FF
310
FFFF800000003FF80FFFFFFFFFFFFFC07FFFFFF0001FFFFFF8001FFFFFFFFC00
310
0FF8001FFFFFFFFC000FFF0003FFFFFFFFFFFFFE00000001F000FFFFC0000000
310
03FFF8001E001FC001E000FFFF80007FFFFF8000000007FFFFFC000000003FF8
310
0FFFFFFFFFFFFFC07FFFFFF0001FFFFFF8001FFFFFFFFC000FF8001FFFFFFFFC
310
000FFF0003FFFFFFFFFFFFE000000003F000FFFE0000000007FFF8001E000FC0
310
01E0007FFF80007FFFFE0000000007FFFFE0000000007FF80FFFFFFFFFFFFFC0
310
7FFFFFF0001FFFFFF0001FFFFFFFFC0007F0001FFFFFFFFC0007FF0003FFFFFF
310
FFFFFF0000000003F000FFF80000000007FFF8001E000FC003E0007FFF80007F
310
FFF0000000000FFFFF8000000000FFF80FFFFFFFFFFFFFC07FFFFFF0001FFFFF
310
F0001FFFFFFFFC0007F0001FFFFFFFFC0007FF0003FFFFFFFFFFFC0000000007
310
F000FFE0000000000FFFF0003E000FC003E0007FFF80007FFFC0000000001FFF
310
FE0000000001FFF80FFFFFFFFFFFFFC07FFFFFF0001FFFFFF0001FFFFFFFFC00
310
07F0001FFFFFFFFC0007FF0003FFFFFFFFFFF0000000000FF000FFC000000000
310
1FFFF0003F000F8003F0003FFF80007FFF80000000003FFFF80000000003FFF8
310
0FFFFFFFFFFFFFC07FFFFFF0001FFFFFF0001FFFFFFFFC0007F0001FFFFFFFFC
310
0007FF0003FFFFFFFFFFE0000000001FF000FF00000000007FFFF0003F000780
310
03F0003FFF80007FFF00000000007FFFF00000000007FFF80FFFFFFFFFFFFFC0
310
7FFFFFF0001FFFFFF0001FFFFFFFFC0007F0001FFFFFFFFC0007FF0003FFFFFF
310
FFFF80000000007FF000FE0000000000FFFFE0003F00078007F0003FFF80007F
310
FE0000000001FFFFE0000000001FFFF80FFFFFFFFFFFFFC07FFFFFF0001FFFFF
310
F0001FFFFFFFFC0007F0001FFFFFFFFC0007FF0003FFFFFFFFFF0000000000FF
310
F000FC0000000003FFFFE0007F00078007F0003FFF80007FFC0000000007FFFF
310
C0000000007FFFF80FFFFFFFFFFFFFC07FFFFFF0001FFFFFF8001FFFFFFFFC00
310
0FF8001FFFFFFFFC000FFF0003FFFFFFFFFE0000000003FFF000FC000000000F
310
FFFFE0007F80070007F8001FFF80007FF8000000001FFFFF8000000001FFFFF8
310
0FFFFFFFFFFFFFC07FFFFFF0001FFFFFF8001FFFFFFFFC000FF8001FFFFFFFFC
310
000FFF0003FFFFFFFFFC000000000FFFF000F8000000007FFFFFE0007F800700
310
07F8001FFF80007FF000000000FFFFFF800000000FFFFFF80FFFFFFFFFFFFFC0
310
7FFFFFF0001FFFFFF8000FFFFFFFF8000FF8000FFFFFFFF8000FFF0003FFFFFF
310
FFFC000000007FFFF000F800000007FFFFFFC0007F8003000FF8001FFF80007F
310
F000000007FFFFFF000000007FFFFFF80FFFFFFFFFFFFFC07FFFFFF0001FFFFF
310
F8000FFFFFFFF8000FF8000FFFFFFFF8000FFF0003FFFFFFFFF80000000FFFFF
310
F000F0000000FFFFFFFFC000FF8003000FF8001FFF80007FE0000000FFFFFFFF
310
0000000FFFFFFFF8000001FFFE0000007FFFFFF0001FFFFFF8000FFFFFFFF800
310
0FF8000FFFFFFFF8000FFF0003FFFFFFFFF8000000FFFFFFF000F000000FFFFF
310
FFFFC000FFC002000FF8000FFF80007FE000001FFFFFFFFE000001FFFFFFFFF8
310
000001FFFE0000007FFFFFF0001FFFFFF8000FFFFFFFF8000FF8000FFFFFFFF8
310
000FFF0003FFFFFFFFF000001FFFFFFFF000E00000FFFFFFFFFFC000FFC00200
310
0FFC000FFF80007FE00001FFFFFFFFFE00001FFFFFFFFFF8000001FFFE000000
310
7FFFFFF0001FFFFFFC000FFFFFFFF8001FFC000FFFFFFFF8001FFF0003FFFFFF
310
FFF00001FFFFFFFFF000E00007FFFFFFFFFF8000FFC000001FFC000FFF80007F
310
C0000FFFFFFFFFFE0000FFFFFFFFFFF8000001FFFE0000007FFFFFF0001FFFFF
310
FC0007FFFFFFF0001FFC0007FFFFFFF0001FFF0003FFFFFFFFF00007FFFFFFFF
310
F000E0001FFFFFFFFFFF8000FFC000001FFC000FFF80007FC0003FFFFFFFFFFE
310
0001FFFFFFFFFFF8000001FFFE0000007FFFFFF0001FFFFFFC0007FFFFFFF000
310
1FFC0007FFFFFFF0001FFF0003FFFFFFFFF0001FFFFFFFFFF000E0003FFFFF00
310
03FF8001FFE000001FFC0007FF80007FC0007FFFFF0007FC0003FFFFF0003FF8
310
000001FFFE0000007FFFFFF0001FFFFFFC0003FFFFFFE0001FFC0003FFFFFFE0
310
001FFF0003FFFFFFFFF0003FFFFFFFFFF000E0003FFFFF0001FF8001FFE00000
310
1FFE0007FF80007FC0007FFFFE0003FC0007FFFFE0003FF8000001FFFE000000
310
7FFFFFF0001FFFFFFE0003FFFFFFE0003FFE0003FFFFFFE0003FFF0003FFFFFF
310
FFF0003FFFFF8001F000E0003FFFFF0001FF0001FFE000001FFE0007FF80007F
310
C0007FFFFE0003FC0007FFFFE0003FF8000001FFFE0000007FFFFFF0001FFFFF
310
FE0001FFFFFFC0003FFE0001FFFFFFC0003FFF0003FFFFFFFFF0003FFFFF0001
310
F000E0003FFFFF0003FF0001FFE000003FFE0007FF80007FC0007FFFFE0003FC
310
0007FFFFE0003FF8000001FFFE0000007FFFFFF0001FFFFFFF0001FFFFFFC000
310
7FFF0001FFFFFFC0007FFF0003FFFFFFFFF0003FFFFF0001F000E0003FFFFE00
310
03FF0003FFF000003FFE0003FF80007FC0007FFFFC0003FE0007FFFFE0003FF8
310
000001FFFE0000007FFFFFF0001FFFFFFF0000FFFFFF80007FFF0000FFFFFF80
310
007FFF0003FFFFFFFFF0003FFFFF0001F000E0003FFFFE0003FF0003FFF00000
310
3FFF0003FF80007FC0007FFFFC0007FE0007FFFFC0003FF8000001FFFE000000
310
7FFFFFF0001FFFFFFF80007FFFFF0000FFFF80007FFFFF0000FFFF0003FFFFFF
310
FFF0003FFFFF0003F000E0003FFFFC0003FE0003FFF000003FFF0003FF80007F
310
E0003FFFF80007FE0003FFFFC0007FF8000001FFFE0000007FFFFFF0001FFFFF
310
FF80003FFFFE0000FFFF80003FFFFE0000FFFF0003FFFFFFFFF0001FFFFE0003
310
F000F0001FFFF80003FE0003FFF000007FFF0001FF80007FE0003FFFF00007FE
310
0001FFFF80007FF8000001FFFE0000007FFFFFF0001FFFFFFFC0000FFFF80001
310
FFFFC0000FFFF80001FFFF0003FFFFFFFFF0001FFFFC0003F000F0000FFFF000
310
07FE0007FFF800007FFF0001FF80007FE0001FFFE00007FF0000FFFE00007FF8
310
000001FFFE0000007FFFFFF0001FFFFFFFC00003FFE00001FFFFC00003FFE000
310
01FFFF0003FFFFFFFFF8000FFFF80003F000F00003FFC00007FC0007FFF80000
310
7FFF8001FF80007FF00007FF80000FFF00007FF80000FFF8000001FFFE000000
310
7F80000000000001FFE000003E000003FFFFE000003E000003FFFF0003FFFFFF
310
FFF80003FFE00007F000F800000000000FFC0007FFF800007FFF8001FF80007F
310
F000000000000FFF000000000000FFF8000001FFFE0000007F80000000000001
310
FFF0000000000007FFFFF0000000000007FFFF0003FFFFFFFFFC00007E000007
310
F000F800000000000FFC0007FFF80000FFFF8000FF80007FF800000000001FFF
310
800000000001FFF8000001FFFE0000007F80000000000001FFF800000000000F
310
FFFFF800000000000FFFFF0003FFFFFFFFFC00000000000FF000FC0000000000
310
1FFC0007FFFC0000FFFF8000FF80007FF800000000003FFFC00000000001FFF8
310
000001FFFE0000007F80000000000001FFF800000000000FFFFFF80000000000
310
0FFFFF0003FFFFFFFFFE00000000001FF000FE00000000003FF8000FFFFC0000
310
FFFF8000FF80007FFC00000000003FFFC00000000003FFF8000001FFFE000000
310
7F80000000000001FFFC00000000001FFFFFFC00000000001FFFFF0003FFFFFF
310
FFFF00000000001FF000FF00000000003FF8000FFFFC0000FFFFC000FF80007F
310
FE00000000007FFFE00000000007FFF8000001FFFE0000007F80000000000001
310
FFFE00000000003FFFFFFE00000000003FFFFF0003FFFFFFFFFF80000000003F
310
F000FF80000000007FF8000FFFFC0001FFFFC0007F80007FFF0000000000FFFF
310
F0000000000FFFF800000000000000007F80000000000001FFFF8000000000FF
310
FFFFFF8000000000FFFFFF0003FFFFFFFFFFC0000000007FF000FFC000000000
310
FFF8000FFFFE0001FFFFC0007F80007FFF8000000001FFFFF8000000001FFFF8
310
00000000000000007F80000000000001FFFFC000000001FFFFFFFFC000000001
310
FFFFFF0003FFFFFFFFFFE000000000FFF000FFE000000003FFF0001FFFFE0001
310
FFFFC0007F80007FFFC000000007FFFFFE000000003FFFF80000000000000000
310
7F80000000000001FFFFE000000003FFFFFFFFE000000003FFFFFF0003FFFFFF
310
FFFFF000000003FFF000FFF80000000FFFF0001FFFFE0001FFFFE0007F80007F
310
FFF00000000FFFFFFF00000000FFFFF800000000000000007F80000000000001
310
FFFFF80000000FFFFFFFFFF80000000FFFFFFF0003FFFFFFFFFFFC0000000FFF
310
F000FFFE0000003FFFF0001FFFFE0003FFFFE0003F80007FFFFC0000003FFFFF
310
FFC0000003FFFFF800000000000000007F80000000000001FFFFFE0000003FFF
310
FFFFFFFE0000003FFFFFFF0003FFFFFFFFFFFF0000003FFFF000FFFF800000FF
310
FFF0001FFFFF0003FFFFE0003F80007FFFFF000001FFFFFFFFF800001FFFFFF8
310
00000000000000007F80000000000001FFFFFFC00001FFFFFFFFFFFFC00001FF
310
FFFFFF0003FFFFFFFFFFFFC00000FFFFF000FFFFF8000FFFFFFFFFFFFFFFFFFF
310
FFFFFFFFFFFFFFFFFFFFF0001FFFFFFFFFFF0000FFFFFFF80000000000000000
310
7FFFFFFFFFFFFFFFFFFFFFFC001FFFFFFFFFFFFFFC001FFFFFFFFFFFFFFFFFFF
310
FFFFFFFC001FFFFFF000FFFFFFFFFFFFFFFFFFFFFFFFFFFFFFFFFFFFFFFFFFFF
310
FFFFFFFFFFFFFFFFFFFFFFFFFFFFFFFFFFFFFFFFFFFFFFFFFFFFFFFFFFFFFFFF
310
FFFFFFFFFFFFFFFFFFFFFFFFFFFFFFFFFFFFFFFFFFFFFFFFFFFFFFFFFFFFFFFF
310
F000FFFFFFFFFFFFFFFFFFFFFFFFFFFFFFFFFFFFFFFFFFFFFFFFFFFFFFFFFFFF
310
FFFFFFFFFFFFFFFFFFFFFFFFFFFFFFFFFFFFFFFFFFFFFFFFFFFFFFFFFFFFFFFF
310
FFFFFFFFFFFFFFFFFFFFFFFFFFFFFFFFFFFFFFFFFFFFFFFFF000FFFFFFFFFFFF
310
FFFFFFFFFFFFFFFFFFFFFFFFFFFFFFFFFFFFFFFFFFFFFFFFFFFFFFFFFFFFFFFF
310
FFFFFFFFFFFFFFFFFFFFFFFFFFFFFFFFFFFFFFFFFFFFFFFFFFFFFFFFFFFFFFFF
310
FFFFFFFFFFFFFFFFFFFFFFFFFFFFFFFFF000FFFFFFFFFFFFFFFFFFFFFFFFFFFF
310
FFFFFFFFFFFFFFFFFFFFFFFFFFFFFFFFFFFFFFFFFFFFFFFFFFFFFFFFFFFFFFFF
310
FFFFFFFFFFFFFFFFFFFFFFFFFFFFFFFFFFFFFFFFFFFFFFFFFFFFFFFFFFFFFFFF
310
FFFFFFFFFFFFFFFFF000FFFFFFFFFFFFFFFFFFFFFFFFFFFFFFFFFFFFFFFFFFFF
310
FFFFFFFFFFFFFFFFFFFFFFFFFFFFFFFFFFFFFFFFFFFFFFFFFFFFFFFFFFFFFFFF
310
FFFFFFFFFFFFFFFFFFFFFFFFFFFFFFFFFFFFFFFFFFFFFFFFFFFFFFFFFFFFFFFF
310
F000FFFFFFFFFFFFFFFFFFFFFFFFFFFFFFFFFFFFFFFFFFFFFFFFFFFFFFFFFFFF
310
FFFFFFFFFFFFFFFFFFFFFFFFFFFFFFFFFFFFFFFFFFFFFFFFFFFFFFFFFFFFFFFF
310
FFFFFFFFFFFFFFFFFFFFFFFFFFFFFFFFFFFFFFFFFFFFFFFFF000FFFFFFFFFFFF
310
FFFFFFFFFFFFFFFFFFFFFFFFFFFFFFFFFFFFFFFFFFFFFFFFFFFFFFFFFFFFFFFF
310
FFFFFFFFFFFFFFFFFFFFFFFFFFFFFFFFFFFFFFFFFFFFFFFFFFFFFFFFFFFFFFFF
310
FFFFFFFFFFFFFFFFFFFFFFFFFFFFFFFFF000FFFFFFFFFFFFFFFFFFFFFFFFFFFF
310
FFFFFFFFFFFFFFFFFFFFFFFFFFFFFFFFFFFFFFFFFFFFFFFFFFFFFFFFFFFFFFFF
310
FFFFFFFFFFFFFFFFFFFFFFFFFFFFFFFFFFFFFFFFFFFFFFFFFFFFFFFFFFFFFFFF
310
FFFFFFFFFFFFFFFFF000FFFFFFFFFFFFFFFFFFFFFFFFFFFFFFFFFFFFFFFFFFFF
310
FFFFFFFFFFFFFFFFFFFFFFFFFFFFFFFFFFFFFFFFFFFFFFFFFFFFFFFFFFFFFFFF
310
FFFFFFFFFFFFFFFFFFFFFFFFFFFFFFFFFFFFFFFFFFFFFFFFFFFFFFFFFFFFFFFF
310
F000FFFFFFFFFFFFFFFFFFFFFFFFFFFFFFFFFFFFFFFFFFFFFFFFFFFFFFFFFFFF
310
FFFFFFFFFFFFFFFFFFFFFFFFFFFFFFFFFFFFFFFFFFFFFFFFFFFFFFFFFFFFFFFF
310
FFFFFFFFFFFFFFFFFFFFFFFFFFFFFFFFFFFFFFFFFFFFFFFFF000FFFFFFFFFFFF
310
FFFFFFFFFFFFFFFFFFFFFFFFFFFFFFFFFFFFFFFFFFFFFFFFFFFFFFFFFFFFFFFF
310
FFFFFFFFFFFFFFFFFFFFFFFFFFFFFFFFFFFFFFFFFFFFFFFFFFFFFFFFFFFFFFFF
310
FFFFFFFFFFFFFFFFFFFFFFFFFFFFFFFFF000FFFFFFFFFFFFFFFFFFFFFFFFFFFF
310
FFFFFFFFFFFFFFFFFFFFFFFFFFFFFFFFFFFFFFFFFFFFFFFFFFFFFFFFFFFFFFFF
310
FFFFFFFFFFFFFFFFFFFFFFFFFFFFFFFFFFFFFFFFFFFFFFFFFFFFFFFFFFFFFFFF
310
FFFFFFFFFFFFFFFFF000FFFFFFFFFFFFFFFFFFFFFFFFFFFFFFFFFFFFFFFFFFFF
310
FFFFFFFFFFFFFFFFFFFFFFFFFFFFFFFFFFFFFFFFFFFFFFFFFFFFFFFFFFFFFFFF
310
FFFFFFFFFFFFFFFFFFFFFFFFFFFFFFFFFFFFFFFFFFFFFFFFFFFFFFFFFFFFFFFF
310
F000FFFFFFFFFFFFFFFFFFFFFFFFFFFFFFFFFFFFFFFFFFFFFFFFFFFFFFFFFFFF
310
FFFFFFFFFFFFFFFFFFFFFFFFFFFFFFFFFFFFFFFFFFFFFFFFFFFFFFFFFFFFFFFF
310
FFFFFFFFFFFFFFFFFFFFFFFFFFFFFFFFFFFFFFFFFFFFFFFFF000FFFFFFFFFFFF
310
FFFFFFFFFFFFFFFFFFFFFFFFFFFFFFFFFFFFFFFFFFFFFFFFFFFFFFFFFFFFFFFF
310
FFFFFFFFFFFFFFFFFFFFFFFFFFFFFFFFFFFFFFFFFFFFFFFFFFFFFFFFFFFFFFFF
310
FFFFFFFFFFFFFFFFFFFFFFFFFFFFFFFFF000FFFFFFFFFFFFFFFFFFFFFFFFFFFF
310
FFFFFFFFFFFFFFFFFFFFFFFFFFFFFFFFFFFFFFFFFFFFFFFFFFFFFFFFFFFFFFFF
310
FFFFFFFFFFFFFFFFFFFFFFFFFFFFFFFFFFFFFFFFFFFFFFFFFFFFFFFFFFFFFFFF
310
FFFFFFFFFFFFFFFFF000FFFFFFFFFFFFFFFFFFFFFFFFFFFFFFFFFFFFFFFFFFFF
310
FFFFFFFFFFFFFFFFFFFFFFFFFFFFFFFFFFFFFFFFFFFFFFFFFFFFFFFFFFFFFFFF
310
FFFFFFFFFFFFFFFFFFFFFFFFFFFFFFFFFFFFFFFFFFFFFFFFFFFFFFFFFFFFFFFF
310
F000FFFFFFFFFFFFFFFFFFFFFFFFFFFFFFFFFFFFFFFFFFFFFFFFFFFFFFFFFFFF
310
FFFFFFFFFFFFFFFFFFFFFFFFFFFFFFFFFFFFFFFFFFFFFFFFFFFFFFFFFFFFFFFF
310
FFFFFFFFFFFFFFFFFFFFFFFFFFFFFFFFFFFFFFFFFFFFFFFFF000FFFFFFFFFFFF
310
FFFFFFFFFFFFFFFFFFFFFFFFFFFFFFFFFFFFFFFFFFFFFFFFFFFFFFFFFFFFFFFF
310
FFFFFFFFFFFFFFFFFFFFFFFFFFFFFFFFFFFFFFFFFFFFFFFFFFFFFFFFFFFFFFFF
310
FFFFFFFFFFFFFFFFFFFFFFFFFFFFFFFFF000FFFFFFFFFFFFFFFFFFFFFFFFFFFF
310
FFFFFFFFFFFFFFFFFFFFFFFFFFFFFFFFFFFFFFFFFFFFFFFFFFFFFFFFFFFFFFFF
310
FFFFFFFFFFFFFFFFFFFFFFFFFFFFFFFFFFFFFFFFFFFFFFFFFFFFFFFFFFFFFFFF
310
FFFFFFFFFFFFFFFFF000FFFFFFFFFFFFFFFFFFFFFFFFFFFFFFFFFFFFFFFFFFFF
310
FFFFFFFFFFFFFFFFFFFFFFFFFFFFFFFFFFFFFFFFFFFFFFFFFFFFFFFFFFFFFFFF
310
FFFFFFFFFFFFFFFFFFFFFFFFFFFFFFFFFFFFFFFFFFFFFFFFFFFFFFFFFFFFFFFF
310
F000FFFFFFFFFFFFFFFFFFFFFFFFFFFFFFFFFFFFFFFFFFFFFFFFFFFFFFFFFFFF
310
FFFFFFFFFFFFFFFFFFFFFFFFFFFFFFFFFFFFFFFFFFFFFFFFFFFFFFFFFFFFFFFF
310
FFFFFFFFFFFFFFFFFFFFFFFFFFFFFFFFFFFFFFFFFFFFFFFFF000FFFFFFFFFFFF
310
FFFFFFFFFFFFFFFFFFFFFFFFFFFFFFFFFFFFFFFFFFFFFFFFFFFFFFFFFFFFFFFF
310
FFFFFFFFFFFFFFFFFFFFFFFFFFFFFFFFFFFFFFFFFFFFFFFFFFFFFFFFFFFFFFFF
310
FFFFFFFFFFFFFFFFFFFFFFFFFFFFFFFFF0000000000000000000000000000000
310
0000000000000000000000000000000000000000000000000000000000000000
310
0000000000000000000000000000000000000000000000000000000000000000
310
0000000000000000000000000000000000000000000000000000000000000000
310
0000000000000000000000000000000000000000000000000000000000000000
310
0000000000000000000000000000000000000000000000000000000000000000
310
0000000000000000000000000000000000000000000000000000000000000000
310
0000000000000000000000000000000000000000000000000000000000000000
310
0000000000000000000000000000000000000000000000000000000000000000
310
0000000000000000000000000000000000000000000000000000000000000000
310
0000000000000000000000000000000000000000000000000000000000000000
310
0000000000000000000000000000000000000000000000000000000000000000
310
0000000000000000000000000000000000000000000000000000000000000000
310
0000000000000000000000000000000000000000000000000000000000000000
310
0000000000000000000000000000000000000000000000000000000000000000
310
0000000000000000000000000000000000000000000000000000000000000000
  1
OLE
  0
ENDSEC
  0
SECTION
  2
OBJECTS
  0
DICTIONARY
  5
C
330
0
100
AcDbDictionary
281
     1
  3
ACAD_GROUP
350
D
  3
ACAD_LAYOUT
350
1A
  3
ACAD_MLINESTYLE
350
17
  3
ACAD_PLOTSETTINGS
350
19
  3
ACAD_PLOTSTYLENAME
350
E
  0
DICTIONARY
  5
D
102
{ACAD_REACTORS
330
C
102
}
330
C
100
AcDbDictionary
281
     1
  0
DICTIONARY
  5
1A
102
{ACAD_REACTORS
330
C
102
}
330
C
100
AcDbDictionary
281
     1
  3
Layout1
350
1E
  3
Layout2
350
26
  3
Model
350
22
  0
DICTIONARY
  5
17
102
{ACAD_REACTORS
330
C
102
}
330
C
100
AcDbDictionary
281
     1
  3
Standard
350
18
  0
DICTIONARY
  5
19
102
{ACAD_REACTORS
330
C
102
}
330
C
100
AcDbDictionary
281
     1
  0
ACDBDICTIONARYWDFLT
  5
E
102
{ACAD_REACTORS
330
C
102
}
330
C
100
AcDbDictionary
281
     1
  3
Normal
350
F
100
AcDbDictionaryWithDefault
340
F
  0
LAYOUT
  5
1E
102
{ACAD_REACTORS
330
1A
102
}
330
1A
100
AcDbPlotSettings
  1

  2
none_device
  4

  6

 40
0.0
 41
0.0
 42
0.0
 43
0.0
 44
0.0
 45
0.0
 46
0.0
 47
0.0
 48
0.0
 49
0.0
140
0.0
141
0.0
142
1.0
143
1.0
 70
   688
 72
     0
 73
     0
 74
     5
  7

 75
    16
147
1.0
148
0.0
149
0.0
100
AcDbLayout
  1
Layout1
 70
     1
 71
     1
 10
0.0
 20
0.0
 11
420.0
 21
297.0
 12
0.0
 22
0.0
 32
0.0
 14
1.0000000000E+20
 24
1.0000000000E+20
 34
1.0000000000E+20
 15
-1.0000000000E+20
 25
-1.0000000000E+20
 35
-1.0000000000E+20
146
0.0
 13
0.0
 23
0.0
 33
0.0
 16
1.0
 26
0.0
 36
0.0
 17
0.0
 27
1.0
 37
0.0
 76
     0
330
1B
  0
LAYOUT
  5
26
102
{ACAD_REACTORS
330
1A
102
}
330
1A
100
AcDbPlotSettings
  1

  2
none_device
  4

  6

 40
0.0
 41
0.0
 42
0.0
 43
0.0
 44
0.0
 45
0.0
 46
0.0
 47
0.0
 48
0.0
 49
0.0
140
0.0
141
0.0
142
1.0
143
1.0
 70
   688
 72
     0
 73
     0
 74
     5
  7

 75
    16
147
1.0
148
0.0
149
0.0
100
AcDbLayout
  1
Layout2
 70
     1
 71
     2
 10
0.0
 20
0.0
 11
0.0
 21
0.0
 12
0.0
 22
0.0
 32
0.0
 14
0.0
 24
0.0
 34
0.0
 15
0.0
 25
0.0
 35
0.0
146
0.0
 13
0.0
 23
0.0
 33
0.0
 16
1.0
 26
0.0
 36
0.0
 17
0.0
 27
1.0
 37
0.0
 76
     0
330
23
  0
LAYOUT
  5
22
102
{ACAD_REACTORS
330
1A
102
}
330
1A
100
AcDbPlotSettings
  1

  2
none_device
  4

  6

 40
0.0
 41
0.0
 42
0.0
 43
0.0
 44
0.0
 45
0.0
 46
0.0
 47
0.0
 48
0.0
 49
0.0
140
0.0
141
0.0
142
1.0
143
1.0
 70
  1712
 72
     0
 73
     0
 74
     0
  7

 75
     0
147
1.0
148
0.0
149
0.0
100
AcDbLayout
  1
Model
 70
     1
 71
     0
 10
0.0
 20
0.0
 11
297.0
 21
210.0
 12
0.0
 22
0.0
 32
0.0
 14
0.0
 24
0.0
 34
0.0
 15
297.0
 25
210.0
 35
0.0
146
0.0
 13
0.0
 23
0.0
 33
0.0
 16
1.0
 26
0.0
 36
0.0
 17
0.0
 27
1.0
 37
0.0
 76
     0
330
1F
331
29
  0
MLINESTYLE
  5
18
102
{ACAD_REACTORS
330
17
102
}
330
17
100
AcDbMlineStyle
  2
Standard
 70
     0
  3

 62
   256
 51
90.0
 52
90.0
 71
     2
 49
0.5
 62
   256
  6
BYLAYER
 49
-0.5
 62
   256
  6
BYLAYER
  0
ACDBPLACEHOLDER
  5
F
102
{ACAD_REACTORS
330
E
102
}
330
E
  0
ENDSEC
  0
EOF
