  0
SECTION
  2
HEADER
  9
$ACADVER
  1
AC1015
  9
$ACADMAINTVER
 70
     6
  9
$DWGCODEPAGE
  3
ANSI_1252
  9
$INSBASE
 10
0.0
 20
0.0
 30
0.0
  9
$EXTMIN
 10
0.0
 20
0.0
 30
0.0
  9
$EXTMAX
 10
297.0
 20
210.0
 30
0.0
  9
$LIMMIN
 10
0.0
 20
0.0
  9
$LIMMAX
 10
297.0
 20
210.0
  9
$ORTHOMODE
 70
     0
  9
$REGENMODE
 70
     1
  9
$FILLMODE
 70
     1
  9
$QTEXTMODE
 70
     0
  9
$MIRRTEXT
 70
     1
  9
$LTSCALE
 40
1.0
  9
$ATTMODE
 70
     1
  9
$TEXTSIZE
 40
2.0
  9
$TRACEWID
 40
1.0
  9
$TEXTSTYLE
  7
Standard
  9
$CLAYER
  8
0
  9
$CELTYPE
  6
ByLayer
  9
$CECOLOR
 62
   256
  9
$CELTSCALE
 40
1.0
  9
$DISPSILH
 70
     0
  9
$DIMSCALE
 40
1.0
  9
$DIMASZ
 40
3.0
  9
$DIMEXO
 40
0.0
  9
$DIMDLI
 40
3.75
  9
$DIMRND
 40
0.0
  9
$DIMDLE
 40
0.0
  9
$DIMEXE
 40
1.0
  9
$DIMTP
 40
0.0
  9
$DIMTM
 40
0.0
  9
$DIMTXT
 40
2.0
  9
$DIMCEN
 40
2.5
  9
$DIMTSZ
 40
0.0
  9
$DIMTOL
 70
     0
  9
$DIMLIM
 70
     0
  9
$DIMTIH
 70
     1
  9
$DIMTOH
 70
     1
  9
$DIMSE1
 70
     0
  9
$DIMSE2
 70
     0
  9
$DIMTAD
 70
     1
  9
$DIMZIN
 70
     0
  9
$DIMBLK
  1

  9
$DIMASO
 70
     1
  9
$DIMSHO
 70
     1
  9
$DIMPOST
  1

  9
$DIMAPOST
  1

  9
$DIMALT
 70
     0
  9
$DIMALTD
 70
     3
  9
$DIMALTF
 40
0.0393700787
  9
$DIMLFAC
 40
1.0
  9
$DIMTOFL
 70
     1
  9
$DIMTVP
 40
0.0
  9
$DIMTIX
 70
     0
  9
$DIMSOXD
 70
     0
  9
$DIMSAH
 70
     0
  9
$DIMBLK1
  1

  9
$DIMBLK2
  1

  9
$DIMSTYLE
  2
ISO-25
  9
$DIMCLRD
 70
     0
  9
$DIMCLRE
 70
     0
  9
$DIMCLRT
 70
     0
  9
$DIMTFAC
 40
1.0
  9
$DIMGAP
 40
1.524
  9
$DIMJUST
 70
     0
  9
$DIMSD1
 70
     0
  9
$DIMSD2
 70
     0
  9
$DIMTOLJ
 70
     0
  9
$DIMTZIN
 70
     0
  9
$DIMALTZ
 70
     0
  9
$DIMALTTZ
 70
     0
  9
$DIMUPT
 70
     0
  9
$DIMDEC
 70
     2
  9
$DIMTDEC
 70
     3
  9
$DIMALTU
 70
     2
  9
$DIMALTTD
 70
     3
  9
$DIMTXSTY
  7
Standard
  9
$DIMAUNIT
 70
     0
  9
$DIMADEC
 70
     2
  9
$DIMALTRND
 40
0.0
  9
$DIMAZIN
 70
     0
  9
$DIMDSEP
 70
    44
  9
$DIMATFIT
 70
     3
  9
$DIMFRAC
 70
     0
  9
$DIMLDRBLK
  1

  9
$DIMLUNIT
 70
     2
  9
$DIMLWD
 70
    -2
  9
$DIMLWE
 70
    -2
  9
$DIMTMOVE
 70
     0
  9
$LUNITS
 70
     2
  9
$LUPREC
 70
     2
  9
$SKETCHINC
 40
1.0
  9
$FILLETRAD
 40
10.0
  9
$AUNITS
 70
     0
  9
$AUPREC
 70
     2
  9
$MENU
  1
.
  9
$ELEVATION
 40
0.0
  9
$PELEVATION
 40
0.0
  9
$THICKNESS
 40
0.0
  9
$LIMCHECK
 70
     0
  9
$CHAMFERA
 40
10.0
  9
$CHAMFERB
 40
10.0
  9
$CHAMFERC
 40
20.0
  9
$CHAMFERD
 40
0.0
  9
$SKPOLY
 70
     0
  9
$TDCREATE
 40
2455685.526380046
  9
$TDUCREATE
 40
2455685.443046713
  9
$TDUPDATE
 40
2455685.526380058
  9
$TDUUPDATE
 40
2455685.443046724
  9
$TDINDWG
 40
0.0000000116
  9
$TDUSRTIMER
 40
0.0000000116
  9
$USRTIMER
 70
     1
  9
$ANGBASE
 50
0.0
  9
$ANGDIR
 70
     0
  9
$PDMODE
 70
     0
  9
$PDSIZE
 40
-1.0
  9
$PLINEWID
 40
0.0
  9
$SPLFRAME
 70
     0
  9
$SPLINETYPE
 70
     6
  9
$SPLINESEGS
 70
     8
  9
$HANDSEED
  5
2FA
  9
$SURFTAB1
 70
     6
  9
$SURFTAB2
 70
     6
  9
$SURFTYPE
 70
     6
  9
$SURFU
 70
     6
  9
$SURFV
 70
     6
  9
$UCSBASE
  2

  9
$UCSNAME
  2

  9
$UCSORG
 10
0.0
 20
0.0
 30
0.0
  9
$UCSXDIR
 10
1.0
 20
0.0
 30
0.0
  9
$UCSYDIR
 10
0.0
 20
1.0
 30
0.0
  9
$UCSORTHOREF
  2

  9
$UCSORTHOVIEW
 70
     0
  9
$UCSORGTOP
 10
0.0
 20
0.0
 30
0.0
  9
$UCSORGBOTTOM
 10
0.0
 20
0.0
 30
0.0
  9
$UCSORGLEFT
 10
0.0
 20
0.0
 30
0.0
  9
$UCSORGRIGHT
 10
0.0
 20
0.0
 30
0.0
  9
$UCSORGFRONT
 10
0.0
 20
0.0
 30
0.0
  9
$UCSORGBACK
 10
0.0
 20
0.0
 30
0.0
  9
$PUCSBASE
  2

  9
$PUCSNAME
  2

  9
$PUCSORG
 10
0.0
 20
0.0
 30
0.0
  9
$PUCSXDIR
 10
1.0
 20
0.0
 30
0.0
  9
$PUCSYDIR
 10
0.0
 20
1.0
 30
0.0
  9
$PUCSORTHOREF
  2

  9
$PUCSORTHOVIEW
 70
     0
  9
$PUCSORGTOP
 10
0.0
 20
0.0
 30
0.0
  9
$PUCSORGBOTTOM
 10
0.0
 20
0.0
 30
0.0
  9
$PUCSORGLEFT
 10
0.0
 20
0.0
 30
0.0
  9
$PUCSORGRIGHT
 10
0.0
 20
0.0
 30
0.0
  9
$PUCSORGFRONT
 10
0.0
 20
0.0
 30
0.0
  9
$PUCSORGBACK
 10
0.0
 20
0.0
 30
0.0
  9
$USERI1
 70
     0
  9
$USERI2
 70
     0
  9
$USERI3
 70
     0
  9
$USERI4
 70
     0
  9
$USERI5
 70
     0
  9
$USERR1
 40
0.0
  9
$USERR2
 40
0.0
  9
$USERR3
 40
0.0
  9
$USERR4
 40
0.0
  9
$USERR5
 40
0.0
  9
$WORLDVIEW
 70
     1
  9
$SHADEDGE
 70
     3
  9
$SHADEDIF
 70
    70
  9
$TILEMODE
 70
     1
  9
$MAXACTVP
 70
    64
  9
$PINSBASE
 10
0.0
 20
0.0
 30
0.0
  9
$PLIMCHECK
 70
     0
  9
$PEXTMIN
 10
1.0000000000E+20
 20
1.0000000000E+20
 30
1.0000000000E+20
  9
$PEXTMAX
 10
-1.0000000000E+20
 20
-1.0000000000E+20
 30
-1.0000000000E+20
  9
$PLIMMIN
 10
0.0
 20
0.0
  9
$PLIMMAX
 10
420.0
 20
297.0
  9
$UNITMODE
 70
     0
  9
$VISRETAIN
 70
     1
  9
$PLINEGEN
 70
     0
  9
$PSLTSCALE
 70
     1
  9
$TREEDEPTH
 70
  3020
  9
$CMLSTYLE
  2
Standard
  9
$CMLJUST
 70
     0
  9
$CMLSCALE
 40
20.0
  9
$PROXYGRAPHICS
 70
     1
  9
$MEASUREMENT
 70
     1
  9
$CELWEIGHT
370
    -1
  9
$ENDCAPS
280
     0
  9
$JOINSTYLE
280
     0
  9
$LWDISPLAY
290
     1
  9
$INSUNITS
 70
     4
  9
$HYPERLINKBASE
  1

  9
$STYLESHEET
  1

  9
$XEDIT
290
     1
  9
$CEPSNTYPE
380
     0
  9
$PSTYLEMODE
290
     1
  9
$FINGERPRINTGUID
  2
{47496EFB-33C5-4CF1-ADD9-65D15A4B7ACF}
  9
$VERSIONGUID
  2
{FAEB1C32-E019-11D5-929B-00C0DF256EC4}
  9
$EXTNAMES
290
     1
  9
$PSVPSCALE
 40
0.0
  9
$OLESTARTUP
290
     0
  0
ENDSEC
  0
SECTION
  2
CLASSES
  0
CLASS
  1
ACDBDICTIONARYWDFLT
  2
AcDbDictionaryWithDefault
  3
ObjectDBX Classes
 90
        0
280
     0
281
     0
  0
CLASS
  1
VISUALSTYLE
  2
AcDbVisualStyle
  3
ObjectDBX Classes
 90
     4095
280
     0
281
     0
  0
CLASS
  1
DICTIONARYVAR
  2
AcDbDictionaryVar
  3
ObjectDBX Classes
 90
        0
280
     0
281
     0
  0
CLASS
  1
ACDBPLACEHOLDER
  2
AcDbPlaceHolder
  3
ObjectDBX Classes
 90
        0
280
     0
281
     0
  0
CLASS
  1
LAYOUT
  2
AcDbLayout
  3
ObjectDBX Classes
 90
        0
280
     0
281
     0
  0
ENDSEC
  0
SECTION
  2
TABLES
  0
TABLE
  2
VPORT
  5
8
330
0
100
AcDbSymbolTable
 70
     1
  0
VPORT
  5
29
330
8
100
AcDbSymbolTableRecord
100
AcDbViewportTableRecord
  2
*Active
 70
     0
 10
0.0
 20
0.0
 11
1.0
 21
1.0
 12
148.5
 22
105.0
 13
0.0
 23
0.0
 14
10.0
 24
10.0
 15
10.0
 25
10.0
 16
0.0
 26
0.0
 36
1.0
 17
0.0
 27
0.0
 37
0.0
 40
210.0
 41
1.4142857143
 42
50.0
 43
0.0
 44
0.0
 50
0.0
 51
0.0
 71
     0
 72
  2000
 73
     1
 74
     3
 75
     0
 76
     0
 77
     0
 78
     0
281
     0
 65
     1
110
0.0
120
0.0
130
0.0
111
1.0
121
0.0
131
0.0
112
0.0
122
1.0
132
0.0
 79
     0
146
0.0
  0
ENDTAB
  0
TABLE
  2
LTYPE
  5
5
330
0
100
AcDbSymbolTable
 70
     6
  0
LTYPE
  5
14
330
5
100
AcDbSymbolTableRecord
100
AcDbLinetypeTableRecord
  2
ByBlock
 70
     0
  3

 72
    65
 73
     0
 40
0.0
  0
LTYPE
  5
15
330
5
100
AcDbSymbolTableRecord
100
AcDbLinetypeTableRecord
  2
ByLayer
 70
     0
  3

 72
    65
 73
     0
 40
0.0
  0
LTYPE
  5
16
330
5
100
AcDbSymbolTableRecord
100
AcDbLinetypeTableRecord
  2
Continuous
 70
     0
  3
Solid line
 72
    65
 73
     0
 40
0.0
  0
LTYPE
  5
3B
330
5
100
AcDbSymbolTableRecord
100
AcDbLinetypeTableRecord
  2
HIDDEN
 70
     0
  3
Hidden __ __ __ __ __ __ __ __ __ __ __ __ __ __
 72
    65
 73
     2
 40
1.905
 49
1.27
 74
     0
 49
-0.635
 74
     0
  0
LTYPE
  5
3C
330
5
100
AcDbSymbolTableRecord
100
AcDbLinetypeTableRecord
  2
PHANTOM
 70
     0
  3
Phantom ______  __  __  ______  __  __  ______
 72
    65
 73
     6
 40
12.7
 49
6.35
 74
     0
 49
-1.27
 74
     0
 49
1.27
 74
     0
 49
-1.27
 74
     0
 49
1.27
 74
     0
 49
-1.27
 74
     0
  0
LTYPE
  5
3D
330
5
100
AcDbSymbolTableRecord
100
AcDbLinetypeTableRecord
  2
CENTER
 70
     0
  3
Center ____ _ ____ _ ____ _ ____ _ ____ _ ____
 72
    65
 73
     4
 40
10.16
 49
6.35
 74
     0
 49
-1.27
 74
     0
 49
1.27
 74
     0
 49
-1.27
 74
     0
  0
LTYPE
  5
3E
330
5
100
AcDbSymbolTableRecord
100
AcDbLinetypeTableRecord
  2
CENTERX2
 70
     0
  3
Center (2x) ________  __  ________  __  _____
 72
    65
 73
     4
 40
20.32
 49
12.7
 74
     0
 49
-2.54
 74
     0
 49
2.54
 74
     0
 49
-2.54
 74
     0
  0
LTYPE
  5
3F
330
5
100
AcDbSymbolTableRecord
100
AcDbLinetypeTableRecord
  2
DOT2
 70
     0
  3
Dot (.5x) ........................................
 72
    65
 73
     2
 40
0.635
 49
0.0
 74
     0
 49
-0.635
 74
     0
  0
ENDTAB
  0
TABLE
  2
LAYER
  5
2
330
0
100
AcDbSymbolTable
 70
     5
  0
LAYER
  5
10
330
2
100
AcDbSymbolTableRecord
100
AcDbLayerTableRecord
  2
0
 70
     0
 62
     7
  6
Continuous
370
    -3
390
F
  0
LAYER
  5
40
330
2
100
AcDbSymbolTableRecord
100
AcDbLayerTableRecord
  2
FORMAT
 70
     0
 62
     7
  6
Continuous
370
    -3
390
F
  0
LAYER
  5
41
330
2
100
AcDbSymbolTableRecord
100
AcDbLayerTableRecord
  2
VERMASSUNG
 70
     0
 62
     7
  6
Continuous
370
    -3
390
F
  0
LAYER
  5
42
330
2
100
AcDbSymbolTableRecord
100
AcDbLayerTableRecord
  2
KOPF_DÜNN
 70
     0
 62
     7
  6
Continuous
370
    -3
390
F
  0
LAYER
  5
43
330
2
100
AcDbSymbolTableRecord
100
AcDbLayerTableRecord
  2
KOPF_DICK
 70
     0
 62
     7
  6
Continuous
370
    15
390
F
  0
ENDTAB
  0
TABLE
  2
STYLE
  5
3
330
0
100
AcDbSymbolTable
 70
     2
  0
STYLE
  5
11
330
3
100
AcDbSymbolTableRecord
100
AcDbTextStyleTableRecord
  2
Standard
 70
     0
 40
0.0
 41
1.0
 50
0.0
 71
     0
 42
2.5
  3
txt
  4

  0
STYLE
  5
44
330
3
100
AcDbSymbolTableRecord
100
AcDbTextStyleTableRecord
  2
SLDTEXTSTYLE0
 70
     0
 40
0.0
 41
0.7
 50
0.0
 71
     0
 42
0.2
  3
TXT
  4

  0
ENDTAB
  0
TABLE
  2
VIEW
  5
6
330
0
100
AcDbSymbolTable
 70
     0
  0
ENDTAB
  0
TABLE
  2
UCS
  5
7
330
0
100
AcDbSymbolTable
 70
     0
  0
ENDTAB
  0
TABLE
  2
APPID
  5
9
330
0
100
AcDbSymbolTable
 70
     1
  0
APPID
  5
12
330
9
100
AcDbSymbolTableRecord
100
AcDbRegAppTableRecord
  2
ACAD
 70
     0
  0
ENDTAB
  0
TABLE
  2
DIMSTYLE
  5
A
330
0
100
AcDbSymbolTable
 70
     3
100
AcDbDimStyleTable
  0
DIMSTYLE
105
27
330
A
100
AcDbSymbolTableRecord
100
AcDbDimStyleTableRecord
  2
ISO-25
 70
     0
 41
2.5
 42
0.625
 43
3.75
 44
1.25
 73
     0
 74
     0
 77
     1
 78
     8
140
2.5
141
2.5
143
0.0393700787
147
0.625
171
     3
172
     1
271
     2
272
     2
274
     3
278
    44
283
     0
284
     8
340
11
  0
DIMSTYLE
105
19C
102
{ACAD_REACTORS
330
19B
330
1A6
330
1B0
330
1F9
330
202
330
20B
330
215
330
21F
330
229
330
2E9
102
}
330
A
100
AcDbSymbolTableRecord
100
AcDbDimStyleTableRecord
  2
SLDDIMSTYLE0
 70
     0
 41
3.0
 44
0.0
 45
0.000000001
 73
     0
 74
     0
 77
     1
 78
    12
140
2.0
147
0.5
173
     1
271
     2
272
     3
284
    12
340
44
  0
DIMSTYLE
105
234
102
{ACAD_REACTORS
330
233
102
}
330
A
100
AcDbSymbolTableRecord
100
AcDbDimStyleTableRecord
  2
SLDDIMSTYLE1
 70
     0
 41
3.0
 44
0.0
 45
0.000000001
 73
     0
 74
     0
 77
     1
 78
    12
140
2.0
147
0.5
173
     1
271
     2
272
     3
284
    12
340
44
  0
ENDTAB
  0
TABLE
  2
BLOCK_RECORD
  5
1
330
0
100
AcDbSymbolTable
 70
    13
  0
BLOCK_RECORD
  5
1F
330
1
100
AcDbSymbolTableRecord
100
AcDbBlockTableRecord
  2
*Model_Space
340
22
  0
BLOCK_RECORD
  5
1B
330
1
100
AcDbSymbolTableRecord
100
AcDbBlockTableRecord
  2
*Paper_Space
340
1E
  0
BLOCK_RECORD
  5
23
330
1
100
AcDbSymbolTableRecord
100
AcDbBlockTableRecord
  2
*Paper_Space0
340
26
  0
BLOCK_RECORD
  5
19D
330
1
100
AcDbSymbolTableRecord
100
AcDbBlockTableRecord
  2
*D1
340
0
  0
BLOCK_RECORD
  5
1A7
330
1
100
AcDbSymbolTableRecord
100
AcDbBlockTableRecord
  2
*D2
340
0
  0
BLOCK_RECORD
  5
1B1
330
1
100
AcDbSymbolTableRecord
100
AcDbBlockTableRecord
  2
*D3
340
0
  0
BLOCK_RECORD
  5
1FA
330
1
100
AcDbSymbolTableRecord
100
AcDbBlockTableRecord
  2
*D4
340
0
  0
BLOCK_RECORD
  5
203
330
1
100
AcDbSymbolTableRecord
100
AcDbBlockTableRecord
  2
*D5
340
0
  0
BLOCK_RECORD
  5
20C
330
1
100
AcDbSymbolTableRecord
100
AcDbBlockTableRecord
  2
*D6
340
0
  0
BLOCK_RECORD
  5
216
330
1
100
AcDbSymbolTableRecord
100
AcDbBlockTableRecord
  2
*D7
340
0
  0
BLOCK_RECORD
  5
220
330
1
100
AcDbSymbolTableRecord
100
AcDbBlockTableRecord
  2
*D8
340
0
  0
BLOCK_RECORD
  5
22A
330
1
100
AcDbSymbolTableRecord
100
AcDbBlockTableRecord
  2
*D9
340
0
  0
BLOCK_RECORD
  5
235
330
1
100
AcDbSymbolTableRecord
100
AcDbBlockTableRecord
  2
*D10
340
0
  0
BLOCK_RECORD
  5
23C
330
1
100
AcDbSymbolTableRecord
100
AcDbBlockTableRecord
  2
SW_CENTERMARKSYMBOL_0
340
0
102
{BLKREFS
331
247
102
}
  0
BLOCK_RECORD
  5
2EA
330
1
100
AcDbSymbolTableRecord
100
AcDbBlockTableRecord
  2
*D12
340
0
  0
ENDTAB
  0
ENDSEC
  0
SECTION
  2
BLOCKS
  0
BLOCK
  5
20
330
1F
100
AcDbEntity
  8
0
100
AcDbBlockBegin
  2
*Model_Space
 70
     0
 10
0.0
 20
0.0
 30
0.0
  3
*Model_Space
  1

  0
ENDBLK
  5
21
330
1F
100
AcDbEntity
  8
0
100
AcDbBlockEnd
  0
BLOCK
  5
1C
330
1B
100
AcDbEntity
 67
     1
  8
0
100
AcDbBlockBegin
  2
*Paper_Space
 70
     0
 10
0.0
 20
0.0
 30
0.0
  3
*Paper_Space
  1

  0
ENDBLK
  5
1D
330
1B
100
AcDbEntity
 67
     1
  8
0
100
AcDbBlockEnd
  0
BLOCK
  5
24
330
23
100
AcDbEntity
  8
0
100
AcDbBlockBegin
  2
*Paper_Space0
 70
     0
 10
0.0
 20
0.0
 30
0.0
  3
*Paper_Space0
  1

  0
ENDBLK
  5
25
330
23
100
AcDbEntity
  8
0
100
AcDbBlockEnd
  0
BLOCK
  5
19E
330
19D
100
AcDbEntity
  8
0
100
AcDbBlockBegin
  2
*D1
 70
     1
 10
0.0
 20
0.0
 30
0.0
  3
*D1
  1

  0
SOLID
  5
1A0
330
19D
100
AcDbEntity
  8
VERMASSUNG
100
AcDbTrace
 10
171.3529321177
 20
182.3951245937
 30
0.0
 11
174.3529321177
 21
181.9451245937
 31
0.0
 12
174.3529321177
 22
182.8451245937
 32
0.0
 13
174.3529321177
 23
182.8451245937
 33
0.0
  0
SOLID
  5
1A1
330
19D
100
AcDbEntity
  8
VERMASSUNG
100
AcDbTrace
 10
261.3529321177
 20
182.3951245937
 30
0.0
 11
258.3529321177
 21
182.8451245937
 31
0.0
 12
258.3529321177
 22
181.9451245937
 32
0.0
 13
258.3529321177
 23
181.9451245937
 33
0.0
  0
LINE
  5
1A2
330
19D
100
AcDbEntity
  8
VERMASSUNG
100
AcDbLine
 10
171.3529321177
 20
176.4640303359
 30
0.0
 11
171.3529321177
 21
183.3951245937
 31
0.0
  0
LINE
  5
1A3
330
19D
100
AcDbEntity
  8
VERMASSUNG
100
AcDbLine
 10
261.3529321177
 20
175.2640303359
 30
0.0
 11
261.3529321177
 21
183.3951245937
 31
0.0
  0
LINE
  5
1A4
330
19D
100
AcDbEntity
  8
VERMASSUNG
100
AcDbLine
 10
171.3529321177
 20
182.3951245937
 30
0.0
 11
261.3529321177
 21
182.3951245937
 31
0.0
  0
MTEXT
  5
1A5
330
19D
100
AcDbEntity
  8
VERMASSUNG
100
AcDbMText
 10
214.9535540029
 20
184.9732599568
 30
0.0
 40
2.0
 41
0.0
 71
     1
 72
     1
  1
90
  7
SLDTEXTSTYLE0
 73
     1
 44
1.0
  0
ENDBLK
  5
19F
330
19D
100
AcDbEntity
  8
0
100
AcDbBlockEnd
  0
BLOCK
  5
1A8
330
1A7
100
AcDbEntity
  8
0
100
AcDbBlockBegin
  2
*D2
 70
     1
 10
0.0
 20
0.0
 30
0.0
  3
*D2
  1

  0
SOLID
  5
1AA
330
1A7
100
AcDbEntity
  8
VERMASSUNG
100
AcDbTrace
 10
139.4529321177
 20
188.3951245937
 30
0.0
 11
142.4529321177
 21
187.9451245937
 31
0.0
 12
142.4529321177
 22
188.8451245937
 32
0.0
 13
142.4529321177
 23
188.8451245937
 33
0.0
  0
SOLID
  5
1AB
330
1A7
100
AcDbEntity
  8
VERMASSUNG
100
AcDbTrace
 10
261.3529321177
 20
188.3951245937
 30
0.0
 11
258.3529321177
 21
188.8451245937
 31
0.0
 12
258.3529321177
 22
187.9451245937
 32
0.0
 13
258.3529321177
 23
187.9451245937
 33
0.0
  0
LINE
  5
1AC
330
1A7
100
AcDbEntity
  8
VERMASSUNG
100
AcDbLine
 10
139.4529321177
 20
165.2400908405
 30
0.0
 11
139.4529321177
 21
189.3951245937
 31
0.0
  0
LINE
  5
1AD
330
1A7
100
AcDbEntity
  8
VERMASSUNG
100
AcDbLine
 10
261.3529321177
 20
175.2640303359
 30
0.0
 11
261.3529321177
 21
189.3951245937
 31
0.0
  0
LINE
  5
1AE
330
1A7
100
AcDbEntity
  8
VERMASSUNG
100
AcDbLine
 10
139.4529321177
 20
188.3951245937
 30
0.0
 11
261.3529321177
 21
188.3951245937
 31
0.0
  0
MTEXT
  5
1AF
330
1A7
100
AcDbEntity
  8
VERMASSUNG
100
AcDbMText
 10
197.7039657039
 20
190.9732599568
 30
0.0
 40
2.0
 41
0.0
 71
     1
 72
     1
  1
121.9
  7
SLDTEXTSTYLE0
 73
     1
 44
1.0
  0
ENDBLK
  5
1A9
330
1A7
100
AcDbEntity
  8
0
100
AcDbBlockEnd
  0
BLOCK
  5
1B2
330
1B1
100
AcDbEntity
  8
0
100
AcDbBlockBegin
  2
*D3
 70
     1
 10
0.0
 20
0.0
 30
0.0
  3
*D3
  1

  0
SOLID
  5
1B4
330
1B1
100
AcDbEntity
  8
VERMASSUNG
100
AcDbTrace
 10
133.6475622969
 20
176.7640303359
 30
0.0
 11
133.1975622969
 21
173.7640303359
 31
0.0
 12
134.0975622969
 22
173.7640303359
 32
0.0
 13
134.0975622969
 23
173.7640303359
 33
0.0
  0
SOLID
  5
1B5
330
1B1
100
AcDbEntity
  8
VERMASSUNG
100
AcDbTrace
 10
133.6475622969
 20
113.7640303359
 30
0.0
 11
134.0975622969
 21
116.7640303359
 31
0.0
 12
133.1975622969
 22
116.7640303359
 32
0.0
 13
133.1975622969
 23
116.7640303359
 33
0.0
  0
LINE
  5
1B6
330
1B1
100
AcDbEntity
  8
VERMASSUNG
100
AcDbLine
 10
171.6529321177
 20
176.7640303359
 30
0.0
 11
132.6475622969
 21
176.7640303359
 31
0.0
  0
LINE
  5
1B7
330
1B1
100
AcDbEntity
  8
VERMASSUNG
100
AcDbLine
 10
171.6529321177
 20
113.7640303359
 30
0.0
 11
132.6475622969
 21
113.7640303359
 31
0.0
  0
LINE
  5
1B8
330
1B1
100
AcDbEntity
  8
VERMASSUNG
100
AcDbLine
 10
133.6475622969
 20
176.7640303359
 30
0.0
 11
133.6475622969
 21
113.7640303359
 31
0.0
  0
MTEXT
  5
1B9
330
1B1
100
AcDbEntity
  8
VERMASSUNG
100
AcDbMText
 10
130.8694268078
 20
137.6602784399
 30
0.0
 40
2.0
 41
0.0
 71
     1
 72
     1
  1
HSK T 
  7
SLDTEXTSTYLE0
 11
-7.044195017643634E-15
 21
1.0
 31
0.0
 73
     1
 44
1.0
  0
MTEXT
  5
1BA
330
1B1
100
AcDbEntity
  8
VERMASSUNG
100
AcDbMText
 10
131.0694268173
 20
146.4602783922
 30
0.0
 40
2.0
 41
0.0
 71
     1
 72
     1
  1
%%c
  7
SLDTEXTSTYLE0
 11
-7.044195017643634E-15
 21
1.0
 31
0.0
 73
     1
 44
1.0
  0
MTEXT
  5
1BB
330
1B1
100
AcDbEntity
  8
VERMASSUNG
100
AcDbMText
 10
131.0694269337
 20
150.0690260022
 30
0.0
 40
2.0
 41
0.0
 71
     1
 72
     1
  1
63
  7
SLDTEXTSTYLE0
 11
-7.044195017643634E-15
 21
1.0
 31
0.0
 73
     1
 44
1.0
  0
ENDBLK
  5
1B3
330
1B1
100
AcDbEntity
  8
0
100
AcDbBlockEnd
  0
BLOCK
  5
1FB
330
1FA
100
AcDbEntity
  8
0
100
AcDbBlockBegin
  2
*D4
 70
     1
 10
0.0
 20
0.0
 30
0.0
  3
*D4
  1

  0
SOLID
  5
1FD
330
1FA
100
AcDbEntity
  8
VERMASSUNG
100
AcDbTrace
 10
64.0267605634
 20
181.5155388268
 30
0.0
 11
67.0267605634
 21
181.0655388268
 31
0.0
 12
67.0267605634
 22
181.9655388268
 32
0.0
 13
67.0267605634
 23
181.9655388268
 33
0.0
  0
SOLID
  5
1FE
330
1FA
100
AcDbEntity
  8
VERMASSUNG
100
AcDbTrace
 10
84.0267605634
 20
181.5155388268
 30
0.0
 11
81.0267605634
 21
181.9655388268
 31
0.0
 12
81.0267605634
 22
181.0655388268
 32
0.0
 13
81.0267605634
 23
181.0655388268
 33
0.0
  0
LINE
  5
1FF
330
1FA
100
AcDbEntity
  8
VERMASSUNG
100
AcDbLine
 10
84.0267605634
 20
175.2640303359
 30
0.0
 11
84.0267605634
 21
182.5155388268
 31
0.0
  0
LINE
  5
200
330
1FA
100
AcDbEntity
  8
VERMASSUNG
100
AcDbLine
 10
64.0267605634
 20
181.5155388268
 30
0.0
 11
84.0267605634
 21
181.5155388268
 31
0.0
  0
MTEXT
  5
201
330
1FA
100
AcDbEntity
  8
VERMASSUNG
100
AcDbMText
 10
72.6273824485
 20
184.0936741899
 30
0.0
 40
2.0
 41
0.0
 71
     1
 72
     1
  1
20
  7
SLDTEXTSTYLE0
 73
     1
 44
1.0
  0
ENDBLK
  5
1FC
330
1FA
100
AcDbEntity
  8
0
100
AcDbBlockEnd
  0
BLOCK
  5
204
330
203
100
AcDbEntity
  8
0
100
AcDbBlockBegin
  2
*D5
 70
     1
 10
0.0
 20
0.0
 30
0.0
  3
*D5
  1

  0
SOLID
  5
206
330
203
100
AcDbEntity
  8
VERMASSUNG
100
AcDbTrace
 10
64.0267605634
 20
186.7640303359
 30
0.0
 11
67.0267605634
 21
186.3140303359
 31
0.0
 12
67.0267605634
 22
187.2140303359
 32
0.0
 13
67.0267605634
 23
187.2140303359
 33
0.0
  0
SOLID
  5
207
330
203
100
AcDbEntity
  8
VERMASSUNG
100
AcDbTrace
 10
99.0267605634
 20
186.7640303359
 30
0.0
 11
96.0267605634
 21
187.2140303359
 31
0.0
 12
96.0267605634
 22
186.3140303359
 32
0.0
 13
96.0267605634
 23
186.3140303359
 33
0.0
  0
LINE
  5
208
330
203
100
AcDbEntity
  8
VERMASSUNG
100
AcDbLine
 10
99.0267605634
 20
164.6289470669
 30
0.0
 11
99.0267605634
 21
187.7640303359
 31
0.0
  0
LINE
  5
209
330
203
100
AcDbEntity
  8
VERMASSUNG
100
AcDbLine
 10
64.0267605634
 20
186.7640303359
 30
0.0
 11
99.0267605634
 21
186.7640303359
 31
0.0
  0
MTEXT
  5
20A
330
203
100
AcDbEntity
  8
VERMASSUNG
100
AcDbMText
 10
80.1273824485
 20
189.342165699
 30
0.0
 40
2.0
 41
0.0
 71
     1
 72
     1
  1
35
  7
SLDTEXTSTYLE0
 73
     1
 44
1.0
  0
ENDBLK
  5
205
330
203
100
AcDbEntity
  8
0
100
AcDbBlockEnd
  0
BLOCK
  5
20D
330
20C
100
AcDbEntity
  8
0
100
AcDbBlockBegin
  2
*D6
 70
     1
 10
0.0
 20
0.0
 30
0.0
  3
*D6
  1

  0
SOLID
  5
20F
330
20C
100
AcDbEntity
  8
VERMASSUNG
100
AcDbTrace
 10
29.0267605634
 20
192.7640303359
 30
0.0
 11
32.0267605634
 21
192.3140303359
 31
0.0
 12
32.0267605634
 22
193.2140303359
 32
0.0
 13
32.0267605634
 23
193.2140303359
 33
0.0
  0
SOLID
  5
210
330
20C
100
AcDbEntity
  8
VERMASSUNG
100
AcDbTrace
 10
99.0267605634
 20
192.7640303359
 30
0.0
 11
96.0267605634
 21
193.2140303359
 31
0.0
 12
96.0267605634
 22
192.3140303359
 32
0.0
 13
96.0267605634
 23
192.3140303359
 33
0.0
  0
LINE
  5
211
330
20C
100
AcDbEntity
  8
VERMASSUNG
100
AcDbLine
 10
29.0267605634
 20
153.2640303359
 30
0.0
 11
29.0267605634
 21
193.7640303359
 31
0.0
  0
LINE
  5
212
330
20C
100
AcDbEntity
  8
VERMASSUNG
100
AcDbLine
 10
99.0267605634
 20
164.6289470669
 30
0.0
 11
99.0267605634
 21
193.7640303359
 31
0.0
  0
LINE
  5
213
330
20C
100
AcDbEntity
  8
VERMASSUNG
100
AcDbLine
 10
29.0267605634
 20
192.7640303359
 30
0.0
 11
99.0267605634
 21
192.7640303359
 31
0.0
  0
MTEXT
  5
214
330
20C
100
AcDbEntity
  8
VERMASSUNG
100
AcDbMText
 10
62.6273824485
 20
195.342165699
 30
0.0
 40
2.0
 41
0.0
 71
     1
 72
     1
  1
70
  7
SLDTEXTSTYLE0
 73
     1
 44
1.0
  0
ENDBLK
  5
20E
330
20C
100
AcDbEntity
  8
0
100
AcDbBlockEnd
  0
BLOCK
  5
217
330
216
100
AcDbEntity
  8
0
100
AcDbBlockBegin
  2
*D7
 70
     1
 10
0.0
 20
0.0
 30
0.0
  3
*D7
  1

  0
SOLID
  5
219
330
216
100
AcDbEntity
  8
VERMASSUNG
100
AcDbTrace
 10
104.4196527798
 20
175.2640303359
 30
0.0
 11
103.9696527798
 21
172.2640303359
 31
0.0
 12
104.8696527798
 22
172.2640303359
 32
0.0
 13
104.8696527798
 23
172.2640303359
 33
0.0
  0
SOLID
  5
21A
330
216
100
AcDbEntity
  8
VERMASSUNG
100
AcDbTrace
 10
104.4196527798
 20
155.2640303359
 30
0.0
 11
104.8696527798
 21
158.2640303359
 31
0.0
 12
103.9696527798
 22
158.2640303359
 32
0.0
 13
103.9696527798
 23
158.2640303359
 33
0.0
  0
LINE
  5
21B
330
216
100
AcDbEntity
  8
VERMASSUNG
100
AcDbLine
 10
90.484273674
 20
175.2640303359
 30
0.0
 11
105.4196527798
 21
175.2640303359
 31
0.0
  0
LINE
  5
21C
330
216
100
AcDbEntity
  8
VERMASSUNG
100
AcDbLine
 10
88.2767605634
 20
155.2640303359
 30
0.0
 11
105.4196527798
 21
155.2640303359
 31
0.0
  0
LINE
  5
21D
330
216
100
AcDbEntity
  8
VERMASSUNG
100
AcDbLine
 10
104.4196527798
 20
175.2640303359
 30
0.0
 11
104.4196527798
 21
155.2640303359
 31
0.0
  0
MTEXT
  5
21E
330
216
100
AcDbEntity
  8
VERMASSUNG
100
AcDbMText
 10
101.8415174167
 20
163.864652221
 30
0.0
 40
2.0
 41
0.0
 71
     1
 72
     1
  1
20
  7
SLDTEXTSTYLE0
 11
-7.044195017643634E-15
 21
1.0
 31
0.0
 73
     1
 44
1.0
  0
ENDBLK
  5
218
330
216
100
AcDbEntity
  8
0
100
AcDbBlockEnd
  0
BLOCK
  5
221
330
220
100
AcDbEntity
  8
0
100
AcDbBlockBegin
  2
*D8
 70
     1
 10
0.0
 20
0.0
 30
0.0
  3
*D8
  1

  0
SOLID
  5
223
330
220
100
AcDbEntity
  8
VERMASSUNG
100
AcDbTrace
 10
109.0267605634
 20
175.2640303359
 30
0.0
 11
108.5767605634
 21
172.2640303359
 31
0.0
 12
109.4767605634
 22
172.2640303359
 32
0.0
 13
109.4767605634
 23
172.2640303359
 33
0.0
  0
SOLID
  5
224
330
220
100
AcDbEntity
  8
VERMASSUNG
100
AcDbTrace
 10
109.0267605634
 20
145.2640303359
 30
0.0
 11
109.4767605634
 21
148.2640303359
 31
0.0
 12
108.5767605634
 22
148.2640303359
 32
0.0
 13
108.5767605634
 23
148.2640303359
 33
0.0
  0
LINE
  5
225
330
220
100
AcDbEntity
  8
VERMASSUNG
100
AcDbLine
 10
90.484273674
 20
175.2640303359
 30
0.0
 11
110.0267605634
 21
175.2640303359
 31
0.0
  0
LINE
  5
226
330
220
100
AcDbEntity
  8
VERMASSUNG
100
AcDbLine
 10
106.5267605634
 20
145.2640303359
 30
0.0
 11
110.0267605634
 21
145.2640303359
 31
0.0
  0
LINE
  5
227
330
220
100
AcDbEntity
  8
VERMASSUNG
100
AcDbLine
 10
109.0267605634
 20
175.2640303359
 30
0.0
 11
109.0267605634
 21
145.2640303359
 31
0.0
  0
MTEXT
  5
228
330
220
100
AcDbEntity
  8
VERMASSUNG
100
AcDbMText
 10
106.4486252003
 20
158.864652221
 30
0.0
 40
2.0
 41
0.0
 71
     1
 72
     1
  1
30
  7
SLDTEXTSTYLE0
 11
-7.044195017643634E-15
 21
1.0
 31
0.0
 73
     1
 44
1.0
  0
ENDBLK
  5
222
330
220
100
AcDbEntity
  8
0
100
AcDbBlockEnd
  0
BLOCK
  5
22B
330
22A
100
AcDbEntity
  8
0
100
AcDbBlockBegin
  2
*D9
 70
     1
 10
0.0
 20
0.0
 30
0.0
  3
*D9
  1

  0
SOLID
  5
22D
330
22A
100
AcDbEntity
  8
VERMASSUNG
100
AcDbTrace
 10
115.0267605634
 20
115.2640303359
 30
0.0
 11
115.4767605634
 21
118.2640303359
 31
0.0
 12
114.5767605634
 22
118.2640303359
 32
0.0
 13
114.5767605634
 23
118.2640303359
 33
0.0
  0
SOLID
  5
22E
330
22A
100
AcDbEntity
  8
VERMASSUNG
100
AcDbTrace
 10
115.0267605634
 20
175.2640303359
 30
0.0
 11
114.5767605634
 21
172.2640303359
 31
0.0
 12
115.4767605634
 22
172.2640303359
 32
0.0
 13
115.4767605634
 23
172.2640303359
 33
0.0
  0
LINE
  5
22F
330
22A
100
AcDbEntity
  8
VERMASSUNG
100
AcDbLine
 10
90.484273674
 20
115.2640303359
 30
0.0
 11
116.0267605634
 21
115.2640303359
 31
0.0
  0
LINE
  5
230
330
22A
100
AcDbEntity
  8
VERMASSUNG
100
AcDbLine
 10
90.484273674
 20
175.2640303359
 30
0.0
 11
116.0267605634
 21
175.2640303359
 31
0.0
  0
LINE
  5
231
330
22A
100
AcDbEntity
  8
VERMASSUNG
100
AcDbLine
 10
115.0267605634
 20
115.2640303359
 30
0.0
 11
115.0267605634
 21
175.2640303359
 31
0.0
  0
MTEXT
  5
232
330
22A
100
AcDbEntity
  8
VERMASSUNG
100
AcDbMText
 10
112.4486252003
 20
143.864652221
 30
0.0
 40
2.0
 41
0.0
 71
     1
 72
     1
  1
60
  7
SLDTEXTSTYLE0
 11
6.123233995736766E-17
 21
1.0
 31
0.0
 73
     1
 44
1.0
  0
ENDBLK
  5
22C
330
22A
100
AcDbEntity
  8
0
100
AcDbBlockEnd
  0
BLOCK
  5
236
330
235
100
AcDbEntity
  8
0
100
AcDbBlockBegin
  2
*D10
 70
     1
 10
0.0
 20
0.0
 30
0.0
  3
*D10
  1

  0
SOLID
  5
238
330
235
100
AcDbEntity
  8
VERMASSUNG
100
AcDbTrace
 10
33.7538402526
 20
119.119235522
 30
0.0
 11
31.1892422877
 21
117.4989462645
 31
0.0
 12
31.777500171
 22
116.8178055575
 32
0.0
 13
31.777500171
 23
116.8178055575
 33
0.0
  0
LINE
  5
239
330
235
100
AcDbEntity
  8
VERMASSUNG
100
AcDbLine
 10
33.7538402526
 20
119.119235522
 30
0.0
 11
24.690856863
 21
111.2921135038
 31
0.0
  0
MTEXT
  5
23A
330
235
100
AcDbEntity
  8
VERMASSUNG
100
AcDbMText
 10
24.2081960149
 20
114.2797656903
 30
0.0
 40
2.0
 41
0.0
 71
     1
 72
     1
  1
%%c
  7
SLDTEXTSTYLE0
 11
0.7568230077691508
 21
0.6536198703461026
 31
0.0
 73
     1
 44
1.0
  0
MTEXT
  5
23B
330
235
100
AcDbEntity
  8
VERMASSUNG
100
AcDbMText
 10
26.9393267979
 20
116.6384693946
 30
0.0
 40
2.0
 41
0.0
 71
     1
 72
     1
  1
80
  7
SLDTEXTSTYLE0
 11
0.7568230077691508
 21
0.6536198703461026
 31
0.0
 73
     1
 44
1.0
  0
ENDBLK
  5
237
330
235
100
AcDbEntity
  8
0
100
AcDbBlockEnd
  0
BLOCK
  5
23D
330
23C
100
AcDbEntity
  8
0
100
AcDbBlockBegin
  2
SW_CENTERMARKSYMBOL_0
 70
     0
 10
0.0
 20
0.0
 30
0.0
  3
SW_CENTERMARKSYMBOL_0
  1

  0
LINE
  5
23F
330
23C
100
AcDbEntity
  8
VERMASSUNG
 62
     0
100
AcDbLine
 10
0.0
 20
0.0
 30
0.0
 11
0.0
 21
2.5
 31
0.0
  0
LINE
  5
240
330
23C
100
AcDbEntity
  8
VERMASSUNG
 62
     0
100
AcDbLine
 10
0.0
 20
0.0
 30
0.0
 11
-2.5
 21
0.0
 31
0.0
  0
LINE
  5
241
330
23C
100
AcDbEntity
  8
VERMASSUNG
 62
     0
100
AcDbLine
 10
0.0
 20
0.0
 30
0.0
 11
0.0
 21
-2.5
 31
0.0
  0
LINE
  5
242
330
23C
100
AcDbEntity
  8
VERMASSUNG
 62
     0
100
AcDbLine
 10
0.0
 20
0.0
 30
0.0
 11
2.5
 21
0.0
 31
0.0
  0
LINE
  5
243
330
23C
100
AcDbEntity
  8
VERMASSUNG
 62
     0
100
AcDbLine
 10
0.0
 20
5.0
 30
0.0
 11
0.0
 21
42.5
 31
0.0
  0
LINE
  5
244
330
23C
100
AcDbEntity
  8
VERMASSUNG
 62
     0
100
AcDbLine
 10
-5.0
 20
0.0
 30
0.0
 11
-42.5
 21
0.0
 31
0.0
  0
LINE
  5
245
330
23C
100
AcDbEntity
  8
VERMASSUNG
 62
     0
100
AcDbLine
 10
0.0
 20
-5.0
 30
0.0
 11
0.0
 21
-42.5
 31
0.0
  0
LINE
  5
246
330
23C
100
AcDbEntity
  8
VERMASSUNG
 62
     0
100
AcDbLine
 10
5.0
 20
0.0
 30
0.0
 11
42.5
 21
0.0
 31
0.0
  0
ENDBLK
  5
23E
330
23C
100
AcDbEntity
  8
0
100
AcDbBlockEnd
  0
BLOCK
  5
2EB
330
2EA
100
AcDbEntity
  8
0
100
AcDbBlockBegin
  2
*D12
 70
     1
 10
0.0
 20
0.0
 30
0.0
  3
*D12
  1

  0
SOLID
  5
2ED
330
2EA
100
AcDbEntity
  8
VERMASSUNG
100
AcDbTrace
 10
216.3529321177
 20
104.4198266522
 30
0.0
 11
219.3529321177
 21
103.9698266522
 31
0.0
 12
219.3529321177
 22
104.8698266522
 32
0.0
 13
219.3529321177
 23
104.8698266522
 33
0.0
  0
SOLID
  5
2EE
330
2EA
100
AcDbEntity
  8
VERMASSUNG
100
AcDbTrace
 10
261.3529321177
 20
104.4198266522
 30
0.0
 11
258.3529321177
 21
104.8698266522
 31
0.0
 12
258.3529321177
 22
103.9698266522
 32
0.0
 13
258.3529321177
 23
103.9698266522
 33
0.0
  0
LINE
  5
2EF
330
2EA
100
AcDbEntity
  8
VERMASSUNG
100
AcDbLine
 10
216.3529321177
 20
85.2001083424
 30
0.0
 11
216.3529321177
 21
105.4198266522
 31
0.0
  0
LINE
  5
2F0
330
2EA
100
AcDbEntity
  8
VERMASSUNG
100
AcDbLine
 10
261.3529321177
 20
100.2001083424
 30
0.0
 11
261.3529321177
 21
105.4198266522
 31
0.0
  0
LINE
  5
2F1
330
2EA
100
AcDbEntity
  8
VERMASSUNG
100
AcDbLine
 10
216.3529321177
 20
104.4198266522
 30
0.0
 11
261.3529321177
 21
104.4198266522
 31
0.0
  0
MTEXT
  5
2F2
330
2EA
100
AcDbEntity
  8
VERMASSUNG
100
AcDbMText
 10
237.3537641871
 20
106.9979620153
 30
0.0
 40
2.0
 41
0.0
 71
     1
 72
     1
  1
45
  7
SLDTEXTSTYLE0
 73
     1
 44
1.0
  0
ENDBLK
  5
2EC
330
2EA
100
AcDbEntity
  8
0
100
AcDbBlockEnd
  0
ENDSEC
  0
SECTION
  2
ENTITIES
  0
MTEXT
  5
45
330
1F
100
AcDbEntity
  8
KOPF_DÜNN
100
AcDbMText
 10
13.8892156294
 20
23.8442973028
 30
0.0
 40
3.0
 41
0.0
 71
     1
 72
     1
  1
HA6.V20.R21.090
  7
SLDTEXTSTYLE0
 73
     1
 44
1.0
  0
MTEXT
  5
46
330
1F
100
AcDbEntity
  8
VERMASSUNG
100
AcDbMText
 10
13.9329988022
 20
28.8834360957
 30
0.0
 40
3.0
 41
0.0
 71
     1
 72
     1
  1
Werkzeughalter axial doppelt_Tool holder axial double
  7
SLDTEXTSTYLE0
 73
     1
 44
1.0
  0
MTEXT
  5
47
330
1F
100
AcDbEntity
  8
VERMASSUNG
100
AcDbMText
 10
98.8601118557
 20
13.8365368179
 30
0.0
 40
2.0
 41
0.0
 71
     1
 72
     1
  1
Datum: 03.05.2011
  7
SLDTEXTSTYLE0
 73
     1
 44
1.0
  0
MTEXT
  5
48
330
1F
100
AcDbEntity
  8
VERMASSUNG
100
AcDbMText
 10
13.933048693
 20
18.0482802738
 30
0.0
 40
2.0
 41
0.0
 71
     1
 72
     1
  1
DIN 69893 HSK 63 A ICTM / 20x20
  7
SLDTEXTSTYLE0
 73
     1
 44
1.0
  0
MTEXT
  5
49
330
1F
100
AcDbEntity
  8
VERMASSUNG
100
AcDbMText
 10
13.9808475933
 20
13.9090973692
 30
0.0
 40
2.0
 41
0.0
 71
     1
 72
     1
  1
Gewicht: 2033g
  7
SLDTEXTSTYLE0
 73
     1
 44
1.0
  0
ARC
  5
4A
330
1F
100
AcDbEntity
  8
0
  6
Continuous
 62
     7
370
    15
100
AcDbCircle
 10
259.3529321177
 20
137.2640303359
 30
0.0
 40
5.000000000000022
100
AcDbArc
 50
40.6387501149
 51
66.4218215218
  0
ARC
  5
4B
330
1F
100
AcDbEntity
  8
0
  6
Continuous
 62
     7
370
    15
100
AcDbCircle
 10
259.3529321177
 20
137.2640303359
 30
0.0
 40
5.000000000000004
100
AcDbArc
 50
293.5781784782
 51
319.7270342867
  0
ARC
  5
4C
330
1F
100
AcDbEntity
  8
0
  6
Continuous
 62
     7
370
    15
100
AcDbCircle
 10
259.3529321177
 20
153.2640303359
 30
0.0
 40
5.000000000000004
100
AcDbArc
 50
40.2729657133
 51
66.4218215218
  0
ARC
  5
4D
330
1F
100
AcDbEntity
  8
0
  6
Continuous
 62
     7
370
    15
100
AcDbCircle
 10
259.3529321177
 20
153.2640303359
 30
0.0
 40
5.000000000000004
100
AcDbArc
 50
293.5781784782
 51
319.3612498851
  0
LINE
  5
4E
330
1F
100
AcDbEntity
  8
0
  6
Continuous
 62
     7
370
    15
100
AcDbLine
 10
214.4247273727
 20
175.2640296653
 30
0.0
 11
213.5515305026
 21
172.0052109048
 31
0.0
  0
LINE
  5
4F
330
1F
100
AcDbEntity
  8
0
  6
Continuous
 62
     7
370
    15
100
AcDbLine
 10
213.5515305026
 20
118.5228497669
 30
0.0
 11
214.4247273727
 21
115.2640310064
 31
0.0
  0
LINE
  5
50
330
1F
100
AcDbEntity
  8
0
  6
Continuous
 62
     7
370
    15
100
AcDbLine
 10
171.652932132
 20
113.7640298292
 30
0.0
 11
176.3029320909
 21
113.7640298292
 31
0.0
  0
LINE
  5
51
330
1F
100
AcDbEntity
  8
0
  6
Continuous
 62
     7
370
    15
100
AcDbLine
 10
176.3309206626
 20
176.7640308425
 30
0.0
 11
171.652932132
 21
176.7640308425
 31
0.0
  0
ARC
  5
52
330
1F
100
AcDbEntity
  8
0
  6
Continuous
 62
     7
370
    15
100
AcDbCircle
 10
171.6529321177
 20
114.0640303359
 30
0.0
 40
0.3000000000000114
100
AcDbArc
 50
180.0
 51
270.0
  0
ARC
  5
53
330
1F
100
AcDbEntity
  8
0
  6
Continuous
 62
     7
370
    15
100
AcDbCircle
 10
171.6529321177
 20
176.4640303359
 30
0.0
 40
0.3000000000000114
100
AcDbArc
 50
90.0
 51
180.0
  0
ARC
  5
54
330
1F
100
AcDbEntity
  8
0
  6
Continuous
 62
     7
370
    15
100
AcDbCircle
 10
198.3029321177
 20
118.2640303359
 30
0.0
 40
1.000000000000008
100
AcDbArc
 50
90.0
 51
143.1139143113
  0
ARC
  5
55
330
1F
100
AcDbEntity
  8
0
  6
Continuous
 62
     7
370
    15
100
AcDbCircle
 10
198.3029321177
 20
172.2640303359
 30
0.0
 40
1.0
100
AcDbArc
 50
216.9018244278
 51
270.0
  0
ARC
  5
56
330
1F
100
AcDbEntity
  8
0
  6
Continuous
 62
     7
370
    15
100
AcDbCircle
 10
212.5856051298
 20
172.2640303359
 30
0.0
 40
1.0
100
AcDbArc
 50
270.0
 51
345.0
  0
ARC
  5
57
330
1F
100
AcDbEntity
  8
0
  6
Continuous
 62
     7
370
    15
100
AcDbCircle
 10
212.5856051298
 20
118.2640303359
 30
0.0
 40
1.0
100
AcDbArc
 50
15.0
 51
90.0
  0
LINE
  5
58
330
1F
100
AcDbEntity
  8
0
  6
Continuous
 62
     7
370
    15
100
AcDbLine
 10
198.3029319717
 20
119.2640297994
 30
0.0
 11
212.5856037064
 21
119.2640297994
 31
0.0
  0
LINE
  5
59
330
1F
100
AcDbEntity
  8
0
  6
Continuous
 62
     7
370
    15
100
AcDbLine
 10
212.5856037064
 20
171.2640308723
 30
0.0
 11
198.3029319717
 21
171.2640308723
 31
0.0
  0
ARC
  5
5A
330
1F
100
AcDbEntity
  8
0
  6
Continuous
 62
     7
370
    15
100
AcDbCircle
 10
170.8529321177
 20
120.6935994741
 30
0.0
 40
0.599999999999994
100
AcDbArc
 50
33.5573097619
 51
90.0
  0
ARC
  5
5B
330
1F
100
AcDbEntity
  8
0
  6
Continuous
 62
     7
370
    15
100
AcDbCircle
 10
170.8529321177
 20
169.8344611976
 30
0.0
 40
0.6000000000000019
100
AcDbArc
 50
270.0
 51
326.4426902381
  0
LINE
  5
5C
330
1F
100
AcDbEntity
  8
0
  6
Continuous
 62
     7
370
    15
100
AcDbLine
 10
158.1214236839
 20
168.9217601851
 30
0.0
 11
145.5529312416
 21
168.2920762286
 31
0.0
  0
LINE
  5
5D
330
1F
100
AcDbEntity
  8
0
  6
Continuous
 62
     7
370
    15
100
AcDbLine
 10
169.3529320228
 20
169.4844615594
 30
0.0
 11
166.5359305962
 21
169.3433289364
 31
0.0
  0
LINE
  5
5E
330
1F
100
AcDbEntity
  8
0
  6
Continuous
 62
     7
370
    15
100
AcDbLine
 10
166.5359864755
 20
121.1847298727
 30
0.0
 11
169.3529320228
 21
121.0435991123
 31
0.0
  0
LINE
  5
5F
330
1F
100
AcDbEntity
  8
0
  6
Continuous
 62
     7
370
    15
100
AcDbLine
 10
149.5529318972
 20
122.0355843142
 30
0.0
 11
158.1218260153
 21
121.6062799975
 31
0.0
  0
LINE
  5
60
330
1F
100
AcDbEntity
  8
0
  6
Continuous
 62
     7
370
    15
100
AcDbLine
 10
169.3529320228
 20
121.0435991123
 30
0.0
 11
170.2096449489
 21
121.2731552258
 31
0.0
  0
LINE
  5
61
330
1F
100
AcDbEntity
  8
0
  6
Continuous
 62
     7
370
    15
100
AcDbLine
 10
170.2096449489
 20
169.2549054459
 30
0.0
 11
169.3529320228
 21
169.4844615594
 31
0.0
  0
ARC
  5
62
330
1F
100
AcDbEntity
  8
0
  6
Continuous
 62
     7
370
    15
100
AcDbCircle
 10
170.3649363182
 20
120.6935994741
 30
0.0
 40
0.6000000000000071
100
AcDbArc
 50
90.0
 51
105.0
  0
ARC
  5
63
330
1F
100
AcDbEntity
  8
0
  6
Continuous
 62
     7
370
    15
100
AcDbCircle
 10
170.3649363182
 20
169.8344611976
 30
0.0
 40
0.5999999999999943
100
AcDbArc
 50
255.0
 51
270.0
  0
LINE
  5
64
330
1F
100
AcDbEntity
  8
0
  6
Continuous
 62
     7
370
    15
100
AcDbLine
 10
170.3649363526
 20
121.293599619
 30
0.0
 11
170.852932094
 21
121.293599619
 31
0.0
  0
LINE
  5
65
330
1F
100
AcDbEntity
  8
0
  6
Continuous
 62
     7
370
    15
100
AcDbLine
 10
170.852932094
 20
169.2344610527
 30
0.0
 11
170.3649363526
 21
169.2344610527
 31
0.0
  0
LINE
  5
66
330
1F
100
AcDbEntity
  8
0
  6
Continuous
 62
     7
370
    15
100
AcDbLine
 10
140.6029312684
 20
124.3940302119
 30
0.0
 11
148.1529324128
 21
124.3940302119
 31
0.0
  0
ARC
  5
67
330
1F
100
AcDbEntity
  8
0
  6
Continuous
 62
     7
370
    15
100
AcDbCircle
 10
148.1529321177
 20
122.9940303359
 30
0.0
 40
1.400000000000008
100
AcDbArc
 50
41.1788388679
 51
90.0
  0
ARC
  5
68
330
1F
100
AcDbEntity
  8
0
  6
Continuous
 62
     7
370
    15
100
AcDbCircle
 10
144.1529321177
 20
167.5340303359
 30
0.0
 40
1.400000000000015
100
AcDbArc
 50
270.0
 51
301.7485287426
  0
LINE
  5
69
330
1F
100
AcDbEntity
  8
0
  6
Continuous
 62
     7
370
    15
100
AcDbLine
 10
144.1529317571
 20
166.1340304598
 30
0.0
 11
140.7271976395
 21
166.1340304598
 31
0.0
  0
LINE
  5
6A
330
1F
100
AcDbEntity
  8
0
  6
Continuous
 62
     7
370
    15
100
AcDbLine
 10
140.5858005209
 20
166.1241398141
 30
0.0
 11
139.7182176633
 21
165.6232410059
 31
0.0
  0
LINE
  5
6B
330
1F
100
AcDbEntity
  8
0
  6
Continuous
 62
     7
370
    15
100
AcDbLine
 10
140.5926382913
 20
124.3999739126
 30
0.0
 11
140.6029312684
 21
124.3940302119
 31
0.0
  0
LINE
  5
6C
330
1F
100
AcDbEntity
  8
0
  6
Continuous
 62
     7
370
    15
100
AcDbLine
 10
139.6785544975
 20
124.9277190253
 30
0.0
 11
140.5926382913
 21
124.3999739126
 31
0.0
  0
ARC
  5
6D
330
1F
100
AcDbEntity
  8
0
  6
Continuous
 62
     7
370
    15
100
AcDbCircle
 10
258.0492985137
 20
139.3812915784
 30
0.0
 40
5.223521574603434
100
AcDbArc
 50
358.6818719561
 51
12.5966366026
  0
ARC
  5
6E
330
1F
100
AcDbEntity
  8
0
  6
Continuous
 62
     7
370
    15
100
AcDbCircle
 10
233.8418681047
 20
137.2287389276
 30
0.0
 40
29.49966431834409
100
AcDbArc
 50
353.7786796401
 51
3.9505479283
  0
LWPOLYLINE
  5
6F
330
1F
100
AcDbEntity
  8
0
  6
Continuous
 62
     7
370
    15
100
AcDbPolyline
 90
       29
 70
   128
 43
0.0
 10
263.271437846
 20
151.2669291295
 10
263.2441910727
 20
150.7440688037
 10
263.2121163233
 20
150.3469626367
 10
263.1768080218
 20
150.0955232367
 10
263.1400394066
 20
150.002358383
 10
263.1036582215
 20
150.0721400552
 10
263.0694898589
 20
150.3013688088
 10
263.0392405017
 20
150.6785507262
 10
263.0144375189
 20
151.1847715773
 10
262.9963102563
 20
151.7946481653
 10
262.9857825859
 20
152.4775977194
 10
262.9833760484
 20
153.1993755087
 10
262.9892024024
 20
153.9237880096
 10
263.0029859765
 20
154.614508985
 10
263.0240264161
 20
155.2369053424
 10
263.0512657388
 20
155.7597656682
 10
263.0833479388
 20
156.1568713695
 10
263.1186562403
 20
156.4083107695
 10
263.1554248555
 20
156.5014756233
 10
263.19179859
 20
156.4316944167
 10
263.2259744032
 20
156.2024651975
 10
263.2562163098
 20
155.82528328
 10
263.2810267432
 20
155.3190619633
 10
263.2991465552
 20
154.7091863066
 10
263.3096816762
 20
154.0262362868
 10
263.3120882137
 20
153.3044584975
 10
263.3062544091
 20
152.5800464623
 10
263.292470835
 20
151.8893245556
 10
263.271437846
 20
151.2669291295
  0
LWPOLYLINE
  5
70
330
1F
100
AcDbEntity
  8
0
  6
Continuous
 62
     7
370
    15
100
AcDbPolyline
 90
       26
 70
   128
 43
0.0
 10
263.2428872211
 20
151.7250029318
 10
263.2191422208
 20
151.2806889549
 10
263.1909119709
 20
150.9602348268
 10
263.1599697097
 20
150.7837748103
 10
263.1282600387
 20
150.7623976976
 10
263.0977648123
 20
150.8974464558
 10
263.0704211815
 20
151.1804348737
 10
263.0479278787
 20
151.5935821407
 10
263.0317079647
 20
152.1109285712
 10
263.0227747186
 20
152.6999677479
 10
263.0216943844
 20
153.323688446
 10
263.0285340174
 20
153.9428987488
 10
263.0428614839
 20
154.5186917246
 10
263.0637827142
 20
155.0148892164
 10
263.0899789556
 20
155.4003133387
 10
263.1197961791
 20
155.6507450476
 10
263.1513791903
 20
155.7504496485
 10
263.1827237828
 20
155.6931621343
 10
263.2118779047
 20
155.4824820668
 10
263.2369938119
 20
155.1316481963
 10
263.2565068825
 20
154.6627030656
 10
263.2691803201
 20
154.1051137209
 10
263.2742243631
 20
153.4939146549
 10
263.2713186367
 20
152.8675098852
 10
263.2606494053
 20
152.2652585007
 10
263.2428872211
 20
151.7250029318
  0
CIRCLE
  5
71
330
1F
100
AcDbEntity
  8
0
  6
Continuous
 62
     7
370
    15
100
AcDbCircle
 10
231.3529321177
 20
165.2640303359
 30
0.0
 40
4.171999999999992
  0
LINE
  5
72
330
1F
100
AcDbEntity
  8
0
  6
Continuous
 62
     7
370
    15
100
AcDbLine
 10
233.7448800726
 20
163.6478890613
 30
0.0
 11
233.9485230668
 21
166.527449055
 31
0.0
  0
LINE
  5
73
330
1F
100
AcDbEntity
  8
0
  6
Continuous
 62
     7
370
    15
100
AcDbLine
 10
228.9609814806
 20
166.8801707164
 30
0.0
 11
231.5565774961
 21
168.1435898826
 31
0.0
  0
LINE
  5
74
330
1F
100
AcDbEntity
  8
0
  6
Continuous
 62
     7
370
    15
100
AcDbLine
 10
231.1492877825
 20
162.3844717577
 30
0.0
 11
228.7573384865
 21
164.0006107226
 31
0.0
  0
LINE
  5
75
330
1F
100
AcDbEntity
  8
0
  6
Continuous
 62
     7
370
    15
100
AcDbLine
 10
231.1492877825
 20
162.3844717577
 30
0.0
 11
233.7448800726
 21
163.6478890613
 31
0.0
  0
LINE
  5
76
330
1F
100
AcDbEntity
  8
0
  6
Continuous
 62
     7
370
    15
100
AcDbLine
 10
228.9609814806
 20
166.8801707164
 30
0.0
 11
228.7573384865
 21
164.0006107226
 31
0.0
  0
LINE
  5
77
330
1F
100
AcDbEntity
  8
0
  6
Continuous
 62
     7
370
    15
100
AcDbLine
 10
231.5565774961
 20
168.1435898826
 30
0.0
 11
233.9485230668
 21
166.527449055
 31
0.0
  0
LINE
  5
78
330
1F
100
AcDbEntity
  8
0
  6
Continuous
 62
     7
370
    15
100
AcDbLine
 10
249.8406487329
 20
167.7229599044
 30
0.0
 11
248.4672981127
 21
165.1838188008
 31
0.0
  0
LINE
  5
79
330
1F
100
AcDbEntity
  8
0
  6
Continuous
 62
     7
370
    15
100
AcDbLine
 10
249.9795797093
 20
162.7248906478
 30
0.0
 11
248.4672981127
 21
165.1838188008
 31
0.0
  0
LINE
  5
7A
330
1F
100
AcDbEntity
  8
0
  6
Continuous
 62
     7
370
    15
100
AcDbLine
 10
252.7262884005
 20
167.8031709925
 30
0.0
 11
254.2385699971
 21
165.3442428395
 31
0.0
  0
CIRCLE
  5
7B
330
1F
100
AcDbEntity
  8
0
  6
Continuous
 62
     7
370
    15
100
AcDbCircle
 10
251.3529321177
 20
165.2640303359
 30
0.0
 40
4.171999999999961
  0
LINE
  5
7C
330
1F
100
AcDbEntity
  8
0
  6
Continuous
 62
     7
370
    15
100
AcDbLine
 10
252.7262884005
 20
167.8031709925
 30
0.0
 11
249.8406487329
 21
167.7229599044
 31
0.0
  0
LINE
  5
7D
330
1F
100
AcDbEntity
  8
0
  6
Continuous
 62
     7
370
    15
100
AcDbLine
 10
252.8652193768
 20
162.8051017359
 30
0.0
 11
254.2385699971
 21
165.3442428395
 31
0.0
  0
LINE
  5
7E
330
1F
100
AcDbEntity
  8
0
  6
Continuous
 62
     7
370
    15
100
AcDbLine
 10
252.8652193768
 20
162.8051017359
 30
0.0
 11
249.9795797093
 21
162.7248906478
 31
0.0
  0
LINE
  5
7F
330
1F
100
AcDbEntity
  8
0
  6
Continuous
 62
     7
370
    15
100
AcDbLine
 10
261.352935694
 20
153.2640307158
 30
0.0
 11
261.352935694
 21
125.899112685
 31
0.0
  0
LINE
  5
80
330
1F
100
AcDbEntity
  8
0
  6
Continuous
 62
     7
370
    15
100
AcDbLine
 10
261.352935694
 20
125.899112685
 30
0.0
 11
217.104220651
 21
125.899112685
 31
0.0
  0
SPLINE
  5
81
330
1F
100
AcDbEntity
  8
0
  6
Continuous
 62
     7
370
    15
100
AcDbSpline
210
0.0
220
0.0
230
1.0
 70
     8
 71
     3
 72
    12
 73
     8
 74
     0
 42
0.00000001
 43
0.00000001
 40
0.0
 40
0.0
 40
0.0
 40
0.0
 40
0.2500000000000001
 40
0.2500000000000001
 40
0.5000000000000001
 40
0.5000000000000001
 40
1.0
 40
1.0
 40
1.0
 40
1.0
 10
216.0063381544338
 20
153.2640303358613
 30
0.0
 10
215.8702655135635
 20
150.9849751955684
 30
0.0
 10
215.7899062878419
 20
148.7055884164331
 30
0.0
 10
215.7493743011664
 20
144.1460994380083
 30
0.0
 10
215.7892449214949
 20
141.8659969804881
 30
0.0
 10
216.0828178482215
 20
135.0246540898872
 30
0.0
 10
216.5122739464516
 20
130.4623674674117
 30
0.0
 10
217.1042208117808
 20
125.8991136048243
 30
0.0
  0
LINE
  5
82
330
1F
100
AcDbEntity
  8
0
  6
Continuous
 62
     7
370
    15
100
AcDbLine
 10
216.0063366218
 20
153.2640307158
 30
0.0
 11
261.352935694
 21
153.2640307158
 31
0.0
  0
SPLINE
  5
83
330
1F
100
AcDbEntity
  8
0
  6
Continuous
 62
     7
370
    15
100
AcDbSpline
210
0.0
220
0.0
230
1.0
 70
    24
 71
     3
 72
    12
 73
     8
 74
     0
 42
0.00000001
 43
0.00000001
 40
0.0
 40
0.0
 40
0.0
 40
0.0
 40
0.2477556841432495
 40
0.4957565963693568
 40
0.743470541351258
 40
0.9913398851659446
 40
1.0
 40
1.0
 40
1.0
 40
1.0
 10
217.1042206509558
 20
175.2640296653091
 30
0.0
 10
216.7360215125659
 20
175.2640296653091
 30
0.0
 10
215.999258793012
 20
175.2640296653091
 30
0.0
 10
215.1339102736261
 20
175.2640296653091
 30
0.0
 10
214.6072932711507
 20
175.2640296653091
 30
0.0
 10
214.377303720695
 20
175.264029665309
 30
0.0
 10
214.4378238677211
 20
175.2640296653091
 30
0.0
 10
214.4398669524637
 20
175.2640296653091
 30
0.0
  0
LINE
  5
84
330
1F
100
AcDbEntity
  8
0
  6
Continuous
 62
     7
370
    15
100
AcDbLine
 10
217.104220651
 20
175.2640296653
 30
0.0
 11
217.104220651
 21
171.7215430871
 31
0.0
  0
SPLINE
  5
85
330
1F
100
AcDbEntity
  8
0
  6
Continuous
 62
     7
370
    15
100
AcDbSpline
210
0.0
220
0.0
230
1.0
 70
     8
 71
     3
 72
     8
 73
     4
 74
     0
 42
0.00000001
 43
0.00000001
 40
0.0
 40
0.0
 40
0.0
 40
0.0
 40
1.0
 40
1.0
 40
1.0
 40
1.0
 10
217.1042208117808
 20
171.7215434465072
 30
0.0
 10
216.3113089997062
 20
167.2476729716693
 30
0.0
 10
215.6264874218665
 20
162.7645961977635
 30
0.0
 10
215.1470034725521
 20
158.2640303358614
 30
0.0
  0
SPLINE
  5
86
330
1F
100
AcDbEntity
  8
0
  6
Continuous
 62
     7
370
    15
100
AcDbSpline
210
0.0
220
0.0
230
1.0
 70
     8
 71
     3
 72
     8
 73
     4
 74
     0
 42
0.00000001
 43
0.00000001
 40
0.0
 40
0.0
 40
0.0
 40
0.0
 40
1.0
 40
1.0
 40
1.0
 40
1.0
 10
215.1470034725521
 20
158.2640303358614
 30
0.0
 10
215.379844721987
 20
156.5927573252301
 30
0.0
 10
215.6713343029354
 20
154.9265241657189
 30
0.0
 10
216.0063381544338
 20
153.2640303358613
 30
0.0
  0
LINE
  5
87
330
1F
100
AcDbEntity
  8
0
  6
Continuous
 62
     7
370
    15
100
AcDbLine
 10
217.104220651
 20
125.899112685
 30
0.0
 11
217.104220651
 21
115.2640310064
 31
0.0
  0
SPLINE
  5
88
330
1F
100
AcDbEntity
  8
0
  6
Continuous
 62
     7
370
    15
100
AcDbSpline
210
0.0
220
0.0
230
1.0
 70
    24
 71
     3
 72
    11
 73
     7
 74
     0
 42
0.00000001
 43
0.00000001
 40
0.0
 40
0.0
 40
0.0
 40
0.0
 40
0.2510730384748479
 40
0.5042613872753651
 40
0.7519800119527511
 40
0.9999999999999999
 40
0.9999999999999999
 40
0.9999999999999999
 40
0.9999999999999999
 10
214.4363614542929
 20
115.2640310064136
 30
0.0
 10
214.4751607139098
 20
115.2640310064136
 30
0.0
 10
214.5530861199931
 20
115.2640310064136
 30
0.0
 10
215.1392020861378
 20
115.2640310064136
 30
0.0
 10
215.9959530977037
 20
115.2640310064136
 30
0.0
 10
216.7346484469833
 20
115.2640310064136
 30
0.0
 10
217.1042206509558
 20
115.2640310064136
 30
0.0
  0
LINE
  5
89
330
1F
100
AcDbEntity
  8
0
  6
Continuous
 62
     7
370
    15
100
AcDbLine
 10
215.1470052822
 20
158.2640306041
 30
0.0
 11
261.352935694
 21
158.2640306041
 31
0.0
  0
LINE
  5
8A
330
1F
100
AcDbEntity
  8
0
  6
Continuous
 62
     7
370
    15
100
AcDbLine
 10
261.352935694
 20
153.2640307158
 30
0.0
 11
261.352935694
 21
158.2640306041
 31
0.0
  0
LINE
  5
8B
330
1F
100
AcDbEntity
  8
0
  6
Continuous
 62
     7
370
    15
100
AcDbLine
 10
217.104220651
 20
115.2640310064
 30
0.0
 11
261.352935694
 21
115.2640310064
 31
0.0
  0
LINE
  5
8C
330
1F
100
AcDbEntity
  8
0
  6
Continuous
 62
     7
370
    15
100
AcDbLine
 10
261.352935694
 20
125.899112685
 30
0.0
 11
261.352935694
 21
115.2640310064
 31
0.0
  0
LINE
  5
8D
330
1F
100
AcDbEntity
  8
0
  6
Continuous
 62
     7
370
    15
100
AcDbLine
 10
197.3029318078
 20
115.7037530974
 30
0.0
 11
197.3029318078
 21
165.114031075
 31
0.0
  0
SPLINE
  5
8E
330
1F
100
AcDbEntity
  8
0
  6
Continuous
 62
     7
370
    15
100
AcDbSpline
210
0.0
220
0.0
230
1.0
 70
     8
 71
     3
 72
    10
 73
     6
 74
     0
 42
0.00000001
 43
0.00000001
 40
0.0
 40
0.0
 40
0.0
 40
0.0
 40
0.5
 40
0.5
 40
1.0
 40
1.0
 40
1.0
 40
1.0
 10
197.3029321177451
 20
115.7037529352685
 30
0.0
 10
197.3029321177451
 20
115.5438656670749
 30
0.0
 10
197.2416224665092
 20
115.3827384115602
 30
0.0
 10
197.0225228289741
 20
115.1486394132054
 30
0.0
 10
196.8644746226607
 20
115.0771126396142
 30
0.0
 10
196.7029321177451
 20
115.0771126396142
 30
0.0
  0
SPLINE
  5
8F
330
1F
100
AcDbEntity
  8
0
  6
Continuous
 62
     7
370
    15
100
AcDbSpline
210
0.0
220
0.0
230
1.0
 70
    24
 71
     3
 72
    12
 73
     8
 74
     0
 42
0.00000001
 43
0.00000001
 40
0.0
 40
0.0
 40
0.0
 40
0.0
 40
0.2500000000000006
 40
0.2500000000000006
 40
0.5000000000000012
 40
0.5000000000000012
 40
1.0
 40
1.0
 40
1.0
 40
1.0
 10
196.702932117745
 20
165.1140303358613
 30
0.0
 10
196.7931711854321
 20
165.1140303358613
 30
0.0
 10
196.8840692995386
 20
165.1140303358613
 30
0.0
 10
197.0386663360271
 20
165.1140303358613
 30
0.0
 10
197.1036447521352
 20
165.1140303358613
 30
0.0
 10
197.2554797800715
 20
165.1140303358613
 30
0.0
 10
197.3029321177451
 20
165.1140303358613
 30
0.0
 10
197.3029321177451
 20
165.1140303358613
 30
0.0
  0
LINE
  5
90
330
1F
100
AcDbEntity
  8
0
  6
Continuous
 62
     7
370
    15
100
AcDbLine
 10
176.3029320909
 20
165.114031075
 30
0.0
 11
185.9609995781
 21
165.114031075
 31
0.0
  0
LINE
  5
91
330
1F
100
AcDbEntity
  8
0
  6
Continuous
 62
     7
370
    15
100
AcDbLine
 10
185.9609995781
 20
115.077112703
 30
0.0
 11
185.9609995781
 21
165.114031075
 31
0.0
  0
LINE
  5
92
330
1F
100
AcDbEntity
  8
0
  6
Continuous
 62
     7
370
    15
100
AcDbLine
 10
185.9609995781
 20
115.077112703
 30
0.0
 11
184.3029324709
 21
115.077112703
 31
0.0
  0
SPLINE
  5
93
330
1F
100
AcDbEntity
  8
0
  6
Continuous
 62
     7
370
    15
100
AcDbSpline
210
0.0
220
0.0
230
1.0
 70
     8
 71
     3
 72
    28
 73
    24
 74
     0
 42
0.00000001
 43
0.00000001
 40
0.0
 40
0.0
 40
0.0
 40
0.0
 40
0.1250000000000001
 40
0.1250000000000001
 40
0.1875000000000001
 40
0.1875000000000001
 40
0.2500000000000001
 40
0.2500000000000001
 40
0.375
 40
0.375
 40
0.4375000000000001
 40
0.4375000000000001
 40
0.5
 40
0.5
 40
0.625
 40
0.625
 40
0.7499999999999999
 40
0.7499999999999999
 40
0.8124999999999999
 40
0.8124999999999999
 40
0.875
 40
0.875
 40
1.0
 40
1.0
 40
1.0
 40
1.0
 10
184.3029321177451
 20
115.0771126396142
 30
0.0
 10
183.7712243602521
 20
115.0771126396142
 30
0.0
 10
183.2489857949418
 20
115.061327925664
 30
0.0
 10
182.4791153086668
 20
115.0163325115878
 30
0.0
 10
182.2247557364755
 20
114.997777516512
 30
0.0
 10
181.7206341557769
 20
114.9539247940655
 30
0.0
 10
181.470911338349
 20
114.9285801871133
 30
0.0
 10
180.7453213869026
 20
114.8451781093632
 30
0.0
 10
180.2869611253211
 20
114.7793125502122
 30
0.0
 10
179.6364631819272
 20
114.6703422097203
 30
0.0
 10
179.4247811311348
 20
114.6321025739537
 30
0.0
 10
179.0207096419967
 20
114.5543438365344
 30
0.0
 10
178.8282031281759
 20
114.514842874359
 30
0.0
 10
178.2783681571546
 20
114.395935131993
 30
0.0
 10
177.9484393788458
 20
114.3161174505684
 30
0.0
 10
177.3639681102771
 20
114.1627742887723
 30
0.0
 10
177.1176909722637
 20
114.0914405355031
 30
0.0
 10
176.8178481795656
 20
113.9974970284285
 30
0.0
 10
176.7293913224934
 20
113.9683032350685
 30
0.0
 10
176.5760299691883
 20
113.9148366608051
 30
0.0
 10
176.510941754962
 20
113.8904773265299
 30
0.0
 10
176.3553477390213
 20
113.8268871810852
 30
0.0
 10
176.3029321177451
 20
113.796784245996
 30
0.0
 10
176.3029321177451
 20
113.779907352999
 30
0.0
  0
LINE
  5
94
330
1F
100
AcDbEntity
  8
0
  6
Continuous
 62
     7
370
    15
100
AcDbLine
 10
176.3029320909
 20
113.7799070165
 30
0.0
 11
176.3029320909
 21
113.7640298292
 31
0.0
  0
SPLINE
  5
95
330
1F
100
AcDbEntity
  8
0
  6
Continuous
 62
     7
370
    15
100
AcDbSpline
210
0.0
220
0.0
230
1.0
 70
     8
 71
     3
 72
    17
 73
    13
 74
     0
 42
0.00000001
 43
0.00000001
 40
0.0
 40
0.0
 40
0.0
 40
0.0
 40
0.1034797280380778
 40
0.2100239090909901
 40
0.3134862262879433
 40
0.4198361712144981
 40
0.5254127947779869
 40
0.6339610881168427
 40
0.7409508662120068
 40
0.8511696072047016
 40
0.9558996557845765
 40
1.0
 40
1.0
 40
1.0
 40
1.0
 10
184.3029324709026
 20
175.7312257722198
 30
0.0
 10
183.8676839791767
 20
175.7366737638574
 30
0.0
 10
182.9842975285997
 20
175.7477310841861
 30
0.0
 10
181.7034696663769
 20
175.8340898445611
 30
0.0
 10
180.486053470935
 20
175.9619609876941
 30
0.0
 10
179.3782468546092
 20
176.1209053950126
 30
0.0
 10
178.3900083752803
 20
176.2953999679972
 30
0.0
 10
177.5652852754645
 20
176.4645664011841
 30
0.0
 10
176.9163316179659
 20
176.6124472096517
 30
0.0
 10
176.4992963144862
 20
176.7142379611743
 30
0.0
 10
176.3006995716083
 20
176.7645948608088
 30
0.0
 10
176.3240126885962
 20
176.7586852558333
 30
0.0
 10
176.3309206625966
 20
176.7569341644822
 30
0.0
  0
LINE
  5
96
330
1F
100
AcDbEntity
  8
0
  6
Continuous
 62
     7
370
    15
100
AcDbLine
 10
185.9609995781
 20
175.7312257722
 30
0.0
 11
184.3029324709
 21
175.7312257722
 31
0.0
  0
LINE
  5
97
330
1F
100
AcDbEntity
  8
0
  6
Continuous
 62
     7
370
    15
100
AcDbLine
 10
185.9609995781
 20
169.722719951
 30
0.0
 11
185.9609995781
 21
175.7312257722
 31
0.0
  0
LINE
  5
98
330
1F
100
AcDbEntity
  8
0
  6
Continuous
 62
     7
370
    15
100
AcDbLine
 10
183.5485528036
 20
169.722719951
 30
0.0
 11
185.9609995781
 21
169.722719951
 31
0.0
  0
SPLINE
  5
99
330
1F
100
AcDbEntity
  8
0
  6
Continuous
 62
     7
370
    15
100
AcDbSpline
210
0.0
220
0.0
230
1.0
 70
     8
 71
     3
 72
    20
 73
    16
 74
     0
 42
0.00000001
 43
0.00000001
 40
0.0
 40
0.0
 40
0.0
 40
0.0
 40
0.2500000000000005
 40
0.2500000000000005
 40
0.3750000000000004
 40
0.3750000000000004
 40
0.5000000000000003
 40
0.5000000000000003
 40
0.6250000000000002
 40
0.6250000000000002
 40
0.7500000000000001
 40
0.7500000000000001
 40
0.8750000000000001
 40
0.8750000000000001
 40
1.0
 40
1.0
 40
1.0
 40
1.0
 10
176.3029321177451
 20
165.1140303358613
 30
0.0
 10
176.5513058520331
 20
165.7678927641587
 30
0.0
 10
176.8708759443784
 20
166.3716785461559
 30
0.0
 10
177.4931821775831
 20
167.1985172823245
 30
0.0
 10
177.7246064380138
 20
167.4609459202774
 30
0.0
 10
178.2458207776635
 20
167.9576085743824
 30
0.0
 10
178.5324412602986
 20
168.1881954534039
 30
0.0
 10
179.1519260016062
 20
168.6047496779865
 30
0.0
 10
179.4862263810932
 20
168.792247479954
 30
0.0
 10
180.211486853718
 20
169.1236444575904
 30
0.0
 10
180.5934019111085
 20
169.2631484450857
 30
0.0
 10
181.3881900872801
 20
169.4886019525566
 30
0.0
 10
181.8023482814865
 20
169.5752280641003
 30
0.0
 10
182.6678946220679
 20
169.6932088529544
 30
0.0
 10
183.1057822370797
 20
169.7227199982287
 30
0.0
 10
183.5485524634343
 20
169.7227199982287
 30
0.0
  0
LINE
  5
9A
330
1F
100
AcDbEntity
  8
0
  6
Continuous
 62
     7
370
    15
100
AcDbLine
 10
192.744864039
 20
115.077112703
 30
0.0
 11
192.744864039
 21
165.114031075
 31
0.0
  0
SPLINE
  5
9B
330
1F
100
AcDbEntity
  8
0
  6
Continuous
 62
     7
370
    15
100
AcDbSpline
210
0.0
220
0.0
230
1.0
 70
     8
 71
     3
 72
     8
 73
     4
 74
     0
 42
0.00000001
 43
0.00000001
 40
0.0
 40
0.0
 40
0.0
 40
0.0
 40
1.0
 40
1.0
 40
1.0
 40
1.0
 10
192.7448649492341
 20
115.0771126396142
 30
0.0
 10
192.2493852885684
 20
115.9726387275475
 30
0.0
 10
191.7552712405262
 20
116.8689231425998
 30
0.0
 10
191.2629321177451
 20
117.7661931768065
 30
0.0
  0
LINE
  5
9C
330
1F
100
AcDbEntity
  8
0
  6
Continuous
 62
     7
370
    15
100
AcDbLine
 10
191.2629323824
 20
117.7661930159
 30
0.0
 11
191.2629323824
 21
165.114031075
 31
0.0
  0
SPLINE
  5
9D
330
1F
100
AcDbEntity
  8
0
  6
Continuous
 62
     7
370
    15
100
AcDbSpline
210
0.0
220
0.0
230
1.0
 70
    24
 71
     3
 72
     8
 73
     4
 74
     0
 42
0.00000001
 43
0.00000001
 40
0.0
 40
0.0
 40
0.0
 40
0.0
 40
1.0
 40
1.0
 40
1.0
 40
1.0
 10
191.2629321177451
 20
165.1140303358613
 30
0.0
 10
191.74288411211
 20
165.1140303358613
 30
0.0
 10
192.2381848410836
 20
165.1140303358613
 30
0.0
 10
192.7448649492341
 20
165.1140303358613
 30
0.0
  0
LINE
  5
9E
330
1F
100
AcDbEntity
  8
0
  6
Continuous
 62
     7
370
    15
100
AcDbLine
 10
196.702932827
 20
115.077112703
 30
0.0
 11
192.744864039
 21
115.077112703
 31
0.0
  0
LINE
  5
9F
330
1F
100
AcDbEntity
  8
0
  6
Continuous
 62
     7
370
    15
100
AcDbLine
 10
192.744864039
 20
165.114031075
 30
0.0
 11
196.702932827
 21
165.114031075
 31
0.0
  0
LINE
  5
A0
330
1F
100
AcDbEntity
  8
0
  6
Continuous
 62
     7
370
    15
100
AcDbLine
 10
187.442932166
 20
117.7661930159
 30
0.0
 11
187.442932166
 21
165.114031075
 31
0.0
  0
SPLINE
  5
A1
330
1F
100
AcDbEntity
  8
0
  6
Continuous
 62
     7
370
    15
100
AcDbSpline
210
0.0
220
0.0
230
1.0
 70
     8
 71
     3
 72
     8
 73
     4
 74
     0
 42
0.00000001
 43
0.00000001
 40
0.0
 40
0.0
 40
0.0
 40
0.0
 40
1.0
 40
1.0
 40
1.0
 40
1.0
 10
187.442932117745
 20
117.7661931768065
 30
0.0
 10
186.9505929949639
 20
116.8689231425998
 30
0.0
 10
186.4564789469217
 20
115.9726387275475
 30
0.0
 10
185.960999286256
 20
115.0771126396142
 30
0.0
  0
SPLINE
  5
A2
330
1F
100
AcDbEntity
  8
0
  6
Continuous
 62
     7
370
    15
100
AcDbSpline
210
0.0
220
0.0
230
1.0
 70
    24
 71
     3
 72
     8
 73
     4
 74
     0
 42
0.00000001
 43
0.00000001
 40
0.0
 40
0.0
 40
0.0
 40
0.0
 40
1.0
 40
1.0
 40
1.0
 40
1.0
 10
185.960999286256
 20
165.1140303358613
 30
0.0
 10
186.4676793944065
 20
165.1140303358613
 30
0.0
 10
186.9629801233802
 20
165.1140303358613
 30
0.0
 10
187.442932117745
 20
165.1140303358613
 30
0.0
  0
LINE
  5
A3
330
1F
100
AcDbEntity
  8
0
  6
Continuous
 62
     7
370
    15
100
AcDbLine
 10
171.3529321177
 20
114.0640311822
 30
0.0
 11
171.3529321177
 21
176.4640294895
 31
0.0
  0
LINE
  5
A4
330
1F
100
AcDbEntity
  8
0
  6
Continuous
 62
     7
370
    15
100
AcDbLine
 10
261.352935694
 20
175.2640296653
 30
0.0
 11
217.104220651
 21
175.2640296653
 31
0.0
  0
LINE
  5
A5
330
1F
100
AcDbEntity
  8
0
  6
Continuous
 62
     7
370
    15
100
AcDbLine
 10
261.352935694
 20
171.7215430871
 30
0.0
 11
217.104220651
 21
171.7215430871
 31
0.0
  0
LINE
  5
A6
330
1F
100
AcDbEntity
  8
0
  6
Continuous
 62
     7
370
    15
100
AcDbLine
 10
261.352935694
 20
175.2640296653
 30
0.0
 11
261.352935694
 21
171.7215430871
 31
0.0
  0
CIRCLE
  5
A7
330
1F
100
AcDbEntity
  8
0
  6
Continuous
 62
     7
370
    15
100
AcDbCircle
 10
251.3529321177
 20
165.2640303359
 30
0.0
 40
4.249999999999972
  0
CIRCLE
  5
A8
330
1F
100
AcDbEntity
  8
0
  6
Continuous
 62
     7
370
    15
100
AcDbCircle
 10
231.3529321177
 20
165.2640303359
 30
0.0
 40
4.25
  0
LINE
  5
A9
330
1F
100
AcDbEntity
  8
0
  6
Continuous
 62
     7
370
    15
100
AcDbLine
 10
261.352935694
 20
158.2640306041
 30
0.0
 11
261.352935694
 21
171.7215430871
 31
0.0
  0
SPLINE
  5
AA
330
1F
100
AcDbEntity
  8
0
  6
Continuous
 62
     7
370
    15
100
AcDbSpline
210
0.0
220
0.0
230
1.0
 70
    24
 71
     3
 72
    14
 73
    10
 74
     0
 42
0.00000001
 43
0.00000001
 40
0.0
 40
0.0
 40
0.0
 40
0.0
 40
0.5000000000000027
 40
0.5000000000000027
 40
0.7500000000000013
 40
0.7500000000000013
 40
0.8750000000000007
 40
0.8750000000000007
 40
1.0
 40
1.0
 40
1.0
 40
1.0
 10
191.1652573154128
 20
118.8640303358613
 30
0.0
 10
191.1184726103646
 20
118.8640303358613
 30
0.0
 10
191.056421413585
 20
118.8640303358613
 30
0.0
 10
190.9130297750346
 20
118.8640303358613
 30
0.0
 10
190.8568861214833
 20
118.8640303358613
 30
0.0
 10
190.743935099347
 20
118.8640303358613
 30
0.0
 10
190.7009343373088
 20
118.8640303358613
 30
0.0
 10
190.5968716270024
 20
118.8640303358613
 30
0.0
 10
190.5315393886455
 20
118.8640303358613
 30
0.0
 10
190.462932117745
 20
118.8640303358613
 30
0.0
  0
SPLINE
  5
AB
330
1F
100
AcDbEntity
  8
0
  6
Continuous
 62
     7
370
    15
100
AcDbSpline
210
0.0
220
0.0
230
1.0
 70
    24
 71
     3
 72
    12
 73
     8
 74
     0
 42
0.00000001
 43
0.00000001
 40
0.0
 40
0.0
 40
0.0
 40
0.0
 40
0.5000000000000024
 40
0.5000000000000024
 40
0.7500000000000012
 40
0.7500000000000012
 40
1.0
 40
1.0
 40
1.0
 40
1.0
 10
190.8686345860541
 20
171.6640303358613
 30
0.0
 10
190.8255490364433
 20
171.6640303358613
 30
0.0
 10
190.7763968346962
 20
171.6640303358613
 30
0.0
 10
190.6799242404066
 20
171.6640303358613
 30
0.0
 10
190.6438226552724
 20
171.6640303358613
 30
0.0
 10
190.5607168974099
 20
171.6640303358613
 30
0.0
 10
190.5127203004458
 20
171.6640303358613
 30
0.0
 10
190.4629321177451
 20
171.6640303358613
 30
0.0
  0
SPLINE
  5
AC
330
1F
100
AcDbEntity
  8
0
  6
Continuous
 62
     7
370
    15
100
AcDbSpline
210
0.0
220
0.0
230
1.0
 70
     8
 71
     3
 72
    10
 73
     6
 74
     0
 42
0.00000001
 43
0.00000001
 40
0.0
 40
0.0
 40
0.0
 40
0.0
 40
0.5
 40
0.5
 40
1.0
 40
1.0
 40
1.0
 40
1.0
 10
191.2629321177451
 20
172.3836841868971
 30
0.0
 10
191.2629321177451
 20
172.2399141290791
 30
0.0
 10
191.2268830590262
 20
172.0974947665839
 30
0.0
 10
191.0913741982521
 20
171.8476004732267
 30
0.0
 10
190.991498205156
 20
171.7395701369785
 30
0.0
 10
190.868634586054
 20
171.6640303358613
 30
0.0
  0
SPLINE
  5
AD
330
1F
100
AcDbEntity
  8
0
  6
Continuous
 62
     7
370
    15
100
AcDbSpline
210
0.0
220
0.0
230
1.0
 70
     8
 71
     3
 72
    10
 73
     6
 74
     0
 42
0.00000001
 43
0.00000001
 40
0.0
 40
0.0
 40
0.0
 40
0.0
 40
0.5
 40
0.5
 40
1.0
 40
1.0
 40
1.0
 40
1.0
 10
191.2367844945849
 20
165.1140303358613
 30
0.0
 10
191.2454741374966
 20
165.1609091851795
 30
0.0
 10
191.2520132022471
 20
165.2083316505807
 30
0.0
 10
191.2607718366401
 20
165.3042684491675
 30
0.0
 10
191.2629321177451
 20
165.352183737178
 30
0.0
 10
191.2629321177451
 20
165.3998969673225
 30
0.0
  0
SPLINE
  5
AE
330
1F
100
AcDbEntity
  8
0
  6
Continuous
 62
     7
370
    15
100
AcDbSpline
210
0.0
220
0.0
230
1.0
 70
     8
 71
     3
 72
    10
 73
     6
 74
     0
 42
0.00000001
 43
0.00000001
 40
0.0
 40
0.0
 40
0.0
 40
0.0
 40
0.5
 40
0.5
 40
1.0
 40
1.0
 40
1.0
 40
1.0
 10
187.837229649436
 20
171.6640303358613
 30
0.0
 10
187.7156893857675
 20
171.7387565030731
 30
0.0
 10
187.6143550254186
 20
171.8477015189899
 30
0.0
 10
187.4787160825301
 20
172.0981319997515
 30
0.0
 10
187.442932117745
 20
172.2405513618504
 30
0.0
 10
187.442932117745
 20
172.3836841868971
 30
0.0
  0
SPLINE
  5
AF
330
1F
100
AcDbEntity
  8
0
  6
Continuous
 62
     7
370
    15
100
AcDbSpline
210
0.0
220
0.0
230
1.0
 70
    24
 71
     3
 72
    12
 73
     8
 74
     0
 42
0.00000001
 43
0.00000001
 40
0.0
 40
0.0
 40
0.0
 40
0.0
 40
0.2500000000000012
 40
0.2500000000000012
 40
0.5000000000000024
 40
0.5000000000000024
 40
1.0
 40
1.0
 40
1.0
 40
1.0
 10
188.2429321177451
 20
171.6640303358613
 30
0.0
 10
188.1935887559354
 20
171.6640303358613
 30
0.0
 10
188.1448980576338
 20
171.6640303358613
 30
0.0
 10
188.0620469600634
 20
171.6640303358613
 30
0.0
 10
188.0258469924428
 20
171.6640303358613
 30
0.0
 10
187.9300970758934
 20
171.6640303358613
 30
0.0
 10
187.8802151060813
 20
171.6640303358613
 30
0.0
 10
187.837229649436
 20
171.6640303358613
 30
0.0
  0
SPLINE
  5
B0
330
1F
100
AcDbEntity
  8
0
  6
Continuous
 62
     7
370
    15
100
AcDbSpline
210
0.0
220
0.0
230
1.0
 70
    24
 71
     3
 72
    14
 73
    10
 74
     0
 42
0.00000001
 43
0.00000001
 40
0.0
 40
0.0
 40
0.0
 40
0.0
 40
0.1250000000000007
 40
0.1250000000000007
 40
0.2500000000000014
 40
0.2500000000000014
 40
0.5000000000000002
 40
0.5000000000000002
 40
1.0
 40
1.0
 40
1.0
 40
1.0
 10
188.2429321177451
 20
118.8640303358613
 30
0.0
 10
188.1735853960139
 20
118.8640303358613
 30
0.0
 10
188.10838734263
 20
118.8640303358613
 30
0.0
 10
188.004008150003
 20
118.8640303358613
 30
0.0
 10
187.961105778994
 20
118.8640303358613
 30
0.0
 10
187.8487801213893
 20
118.8640303358613
 30
0.0
 10
187.7935564270354
 20
118.8640303358613
 30
0.0
 10
187.649499048268
 20
118.8640303358613
 30
0.0
 10
187.5874183514364
 20
118.8640303358613
 30
0.0
 10
187.5406069200774
 20
118.8640303358613
 30
0.0
  0
SPLINE
  5
B1
330
1F
100
AcDbEntity
  8
0
  6
Continuous
 62
     7
370
    15
100
AcDbSpline
210
0.0
220
0.0
230
1.0
 70
     8
 71
     3
 72
     9
 73
     5
 74
     0
 42
0.00000001
 43
0.00000001
 40
0.0
 40
0.0
 40
0.0
 40
0.0
 40
0.5
 40
1.0
 40
1.0
 40
1.0
 40
1.0
 10
187.442932117745
 20
165.3998969673227
 30
0.0
 10
187.442932117745
 20
165.3516649152
 30
0.0
 10
187.4473380924502
 20
165.2557949017604
 30
0.0
 10
187.4603572725441
 20
165.1610862717771
 30
0.0
 10
187.4690797409052
 20
165.1140303358613
 30
0.0
  0
LINE
  5
B2
330
1F
100
AcDbEntity
  8
0
  6
Continuous
 62
     7
370
    15
100
AcDbLine
 10
190.4629318787
 20
171.6640301928
 30
0.0
 11
188.2429326697
 21
171.6640301928
 31
0.0
  0
LINE
  5
B3
330
1F
100
AcDbEntity
  8
0
  6
Continuous
 62
     7
370
    15
100
AcDbLine
 10
190.4629318787
 20
118.8640304789
 30
0.0
 11
188.2429326697
 21
118.8640304789
 31
0.0
  0
LINE
  5
B4
330
1F
100
AcDbEntity
  8
0
  6
Continuous
 62
     7
370
    15
100
AcDbLine
 10
197.5029314681
 20
171.6640301928
 30
0.0
 11
197.4716800077
 21
171.6640301928
 31
0.0
  0
LINE
  5
B5
330
1F
100
AcDbEntity
  8
0
  6
Continuous
 62
     7
370
    15
100
AcDbLine
 10
197.5029314681
 20
118.8640304789
 30
0.0
 11
197.4724846704
 21
118.8640304789
 31
0.0
  0
LINE
  5
B6
330
1F
100
AcDbEntity
  8
0
  6
Continuous
 62
     7
370
    15
100
AcDbLine
 10
149.5529318972
 20
122.0355843142
 30
0.0
 11
149.5529318972
 21
123.289714469
 31
0.0
  0
SPLINE
  5
B7
330
1F
100
AcDbEntity
  8
0
  6
Continuous
 62
     7
370
    15
100
AcDbSpline
210
0.0
220
0.0
230
1.0
 70
     8
 71
     3
 72
    12
 73
     8
 74
     0
 42
0.00000001
 43
0.00000001
 40
0.0
 40
0.0
 40
0.0
 40
0.0
 40
0.25
 40
0.25
 40
0.5
 40
0.5
 40
1.0
 40
1.0
 40
1.0
 40
1.0
 10
148.828259464878
 20
124.4045374478353
 30
0.0
 10
148.8771000352131
 20
124.298637800564
 30
0.0
 10
148.9621469504131
 20
124.1967042391565
 30
0.0
 10
149.1317983589766
 20
124.0001980339183
 30
0.0
 10
149.2182603577029
 20
123.9051706723194
 30
0.0
 10
149.4436535626198
 20
123.6278921779604
 30
0.0
 10
149.5529321177451
 20
123.4531748051496
 30
0.0
 10
149.5529321177451
 20
123.2897146277042
 30
0.0
  0
SPLINE
  5
B8
330
1F
100
AcDbEntity
  8
0
  6
Continuous
 62
     7
370
    15
100
AcDbSpline
210
0.0
220
0.0
230
1.0
 70
     8
 71
     3
 72
    14
 73
    10
 74
     0
 42
0.00000001
 43
0.00000001
 40
0.0
 40
0.0
 40
0.0
 40
0.0
 40
0.1250000000000015
 40
0.1250000000000015
 40
0.2500000000000029
 40
0.2500000000000029
 40
0.500000000000003
 40
0.500000000000003
 40
1.0
 40
1.0
 40
1.0
 40
1.0
 10
148.1529321177451
 20
124.9411269103094
 30
0.0
 10
148.2097068729656
 20
124.9475953634481
 30
0.0
 10
148.2723899738947
 20
124.9417380602393
 30
0.0
 10
148.3782777484328
 20
124.9118417389014
 30
0.0
 10
148.422182006034
 20
124.8899667969465
 30
0.0
 10
148.5346152541916
 20
124.8205955102797
 30
0.0
 10
148.5877434580539
 20
124.7680964560784
 30
0.0
 10
148.7227309197941
 20
124.6128134477601
 30
0.0
 10
148.7809916312739
 20
124.5070269739257
 30
0.0
 10
148.8282594648924
 20
124.4045374478361
 30
0.0
  0
SPLINE
  5
B9
330
1F
100
AcDbEntity
  8
0
  6
Continuous
 62
     7
370
    15
100
AcDbSpline
210
0.0
220
0.0
230
1.0
 70
     8
 71
     3
 72
    10
 73
     6
 74
     0
 42
0.00000001
 43
0.00000001
 40
0.0
 40
0.0
 40
0.0
 40
0.0
 40
0.5
 40
0.5
 40
1.0
 40
1.0
 40
1.0
 40
1.0
 10
145.3808057410301
 20
124.5677155879979
 30
0.0
 10
145.8277466822546
 20
124.641441047677
 30
0.0
 10
146.2878585707968
 20
124.7077696995572
 30
0.0
 10
147.2147482745414
 20
124.8307991683906
 30
0.0
 10
147.6824520065771
 20
124.8875242388409
 30
0.0
 10
148.1529321177451
 20
124.9411269103094
 30
0.0
  0
SPLINE
  5
BA
330
1F
100
AcDbEntity
  8
0
  6
Continuous
 62
     7
370
    15
100
AcDbSpline
210
0.0
220
0.0
230
1.0
 70
     8
 71
     3
 72
    14
 73
    10
 74
     0
 42
0.00000001
 43
0.00000001
 40
0.0
 40
0.0
 40
0.0
 40
0.0
 40
0.4999999999999978
 40
0.4999999999999978
 40
0.7499999999999978
 40
0.7499999999999978
 40
0.8749999999999989
 40
0.8749999999999989
 40
1.0
 40
1.0
 40
1.0
 40
1.0
 10
140.602932117745
 20
124.3942948029704
 30
0.0
 10
141.4108291418431
 20
124.3957070349956
 30
0.0
 10
142.2165933101693
 20
124.4021000127128
 30
0.0
 10
143.4170339811776
 20
124.4311518243476
 30
0.0
 10
143.8158528344712
 20
124.4439847601213
 30
0.0
 10
144.4093811846199
 20
124.4744429416868
 30
0.0
 10
144.606444083018
 20
124.4864555719487
 30
0.0
 10
144.9973831178673
 20
124.5180970392272
 30
0.0
 10
145.1917581696908
 20
124.5365311119013
 30
0.0
 10
145.3808057410301
 20
124.5677155879979
 30
0.0
  0
SPLINE
  5
BB
330
1F
100
AcDbEntity
  8
0
  6
Continuous
 62
     7
370
    15
100
AcDbSpline
210
0.0
220
0.0
230
1.0
 70
     8
 71
     3
 72
     8
 73
     4
 74
     0
 42
0.00000001
 43
0.00000001
 40
0.0000003409637668
 40
0.0000003409637668
 40
0.0000003409637668
 40
0.0000003409637668
 40
0.000017415394438
 40
0.000017415394438
 40
0.000017415394438
 40
0.000017415394438
 10
140.5928871873268
 20
124.4002906007621
 30
0.0
 10
140.5962258380852
 20
124.3982883656648
 30
0.0
 10
140.5995742132648
 20
124.3962897738946
 30
0.0
 10
140.602932117745
 20
124.3942948029704
 30
0.0
  0
SPLINE
  5
BC
330
1F
100
AcDbEntity
  8
0
  6
Continuous
 62
     7
370
    15
100
AcDbSpline
210
0.0
220
0.0
230
1.0
 70
     8
 71
     3
 72
     8
 73
     4
 74
     0
 42
0.00000001
 43
0.00000001
 40
0.0000003292049707
 40
0.0000003292049707
 40
0.0000003292049707
 40
0.0000003292049707
 40
0.0000169050949325
 40
0.0000169050949325
 40
0.0000169050949325
 40
0.0000169050949325
 10
140.602932117745
 20
166.1339681012564
 30
0.0
 10
140.5995755356082
 20
166.1320561071595
 30
0.0
 10
140.5962271714827
 20
166.1301408169044
 30
0.0
 10
140.5928871873137
 20
166.1282222082891
 30
0.0
  0
SPLINE
  5
BD
330
1F
100
AcDbEntity
  8
0
  6
Continuous
 62
     7
370
    15
100
AcDbSpline
210
0.0
220
0.0
230
1.0
 70
     8
 71
     3
 72
    10
 73
     6
 74
     0
 42
0.00000001
 43
0.00000001
 40
0.0
 40
0.0
 40
0.0
 40
0.0
 40
0.5
 40
0.5
 40
1.0
 40
1.0
 40
1.0
 40
1.0
 10
144.1529321177451
 20
166.0871177276891
 30
0.0
 10
143.5653465706544
 20
166.1081832479255
 30
0.0
 10
142.9746001771941
 20
166.1189417337977
 30
0.0
 10
141.7905810118952
 20
166.1323065143334
 30
0.0
 10
141.1971670236898
 20
166.134449156998
 30
0.0
 10
140.602932117745
 20
166.1339681012564
 30
0.0
  0
SPLINE
  5
BE
330
1F
100
AcDbEntity
  8
0
  6
Continuous
 62
     7
370
    15
100
AcDbSpline
210
0.0
220
0.0
230
1.0
 70
     8
 71
     3
 72
    18
 73
    14
 74
     0
 42
0.00000001
 43
0.00000001
 40
0.0
 40
0.0
 40
0.0
 40
0.0
 40
0.2500000000000003
 40
0.2500000000000003
 40
0.4999999999999999
 40
0.4999999999999999
 40
0.7499999999999996
 40
0.7499999999999996
 40
0.8749999999999993
 40
0.8749999999999993
 40
0.9374999999999997
 40
0.9374999999999997
 40
1.0
 40
1.0
 40
1.0
 40
1.0
 10
145.5529321177451
 20
167.1081380082243
 30
0.0
 10
145.5529321177451
 20
167.0249310993671
 30
0.0
 10
145.5170830178068
 20
166.9361944440535
 30
0.0
 10
145.3922112817729
 20
166.7540692534933
 30
0.0
 10
145.301810864125
 20
166.6589392048667
 30
0.0
 10
145.0795682093828
 20
166.4697576957424
 30
0.0
 10
144.9498034229371
 20
166.3748125276477
 30
0.0
 10
144.7091659656255
 20
166.2365338200677
 30
0.0
 10
144.6213986674881
 20
166.1908233867653
 30
0.0
 10
144.4668745802813
 20
166.1330000815439
 30
0.0
 10
144.4102636942266
 20
166.115285317506
 30
0.0
 10
144.2862196633199
 20
166.0907460142731
 30
0.0
 10
144.2185049883016
 20
166.0847668757348
 30
0.0
 10
144.1529321177451
 20
166.0871177276891
 30
0.0
  0
LINE
  5
BF
330
1F
100
AcDbEntity
  8
0
  6
Continuous
 62
     7
370
    15
100
AcDbLine
 10
145.5529312416
 20
167.1081379935
 30
0.0
 11
145.5529312416
 21
168.2920762286
 31
0.0
  0
LINE
  5
C0
330
1F
100
AcDbEntity
  8
0
  6
Continuous
 62
     7
370
    15
100
AcDbLine
 10
169.3529320228
 20
121.0435991123
 30
0.0
 11
169.3529320228
 21
169.4844615594
 31
0.0
  0
SPLINE
  5
C1
330
1F
100
AcDbEntity
  8
0
  6
Continuous
 62
     7
370
    15
100
AcDbSpline
210
0.0
220
0.0
230
1.0
 70
     8
 71
     3
 72
    24
 73
    20
 74
     0
 42
0.00000001
 43
0.00000001
 40
0.0
 40
0.0
 40
0.0
 40
0.0
 40
0.0010489815523775
 40
0.0637843212772741
 40
0.1272220630088516
 40
0.1903789073370505
 40
0.2526748662763491
 40
0.3146354150030102
 40
0.3770891884518245
 40
0.4393540587943444
 40
0.5008133488401828
 40
0.5621845177353679
 40
0.6248438462901906
 40
0.6874304788646655
 40
0.7496743245911356
 40
0.811984857412469
 40
0.8750960476811308
 40
0.9384412548145236
 40
1.0
 40
1.0
 40
1.0
 40
1.0
 10
158.1218381224719
 20
121.6065221414148
 30
0.0
 10
158.1213914567212
 20
121.6064634964483
 30
0.0
 10
158.0942315207976
 20
121.6028975334676
 30
0.0
 10
158.1898614439294
 20
121.6157621429428
 30
0.0
 10
158.4234146199499
 20
121.6449966252829
 30
0.0
 10
158.8189705721844
 20
121.6916158360243
 30
0.0
 10
159.3460105725544
 20
121.7417966354494
 30
0.0
 10
159.9895410143906
 20
121.7861753088925
 30
0.0
 10
160.7282148486603
 20
121.8131185054033
 30
0.0
 10
161.5257295187792
 20
121.8165902537054
 30
0.0
 10
162.3523085685438
 20
121.788964807412
 30
0.0
 10
163.1778313899624
 20
121.7304836644334
 30
0.0
 10
163.9699578608781
 20
121.6450406010348
 30
0.0
 10
164.7025302397154
 20
121.5433054325423
 30
0.0
 10
165.3381704215362
 20
121.4354617814943
 30
0.0
 10
165.8600813520824
 20
121.3338303862195
 30
0.0
 10
166.2417101897213
 20
121.251348421927
 30
0.0
 10
166.4925248656547
 20
121.1951963144201
 30
0.0
 10
166.521646181362
 20
121.1883474635072
 30
0.0
 10
166.5359985827056
 20
121.1849720165311
 30
0.0
  0
SPLINE
  5
C2
330
1F
100
AcDbEntity
  8
0
  6
Continuous
 62
     7
370
    15
100
AcDbSpline
210
0.0
220
0.0
230
1.0
 70
     8
 71
     3
 72
    24
 73
    20
 74
     0
 42
0.00000001
 43
0.00000001
 40
0.0
 40
0.0
 40
0.0
 40
0.0
 40
0.061438429114026
 40
0.1250736777967296
 40
0.1884253375120635
 40
0.2508623992448768
 40
0.3129665476325514
 40
0.3753451442328022
 40
0.4377328732174486
 40
0.499092717251918
 40
0.560580729454827
 40
0.622946985474185
 40
0.6854686070210457
 40
0.7475477863222202
 40
0.8098225081553685
 40
0.873068419947611
 40
0.936404185690527
 40
0.9991757203144552
 40
1.0
 40
1.0
 40
1.0
 40
1.0
 10
166.535944100335
 20
169.3430588528691
 30
0.0
 10
166.5213432918828
 20
169.3396906949962
 30
0.0
 10
166.4916196020318
 20
169.3328339459118
 30
0.0
 10
166.2388816020459
 20
169.2764961260157
 30
0.0
 10
165.8558863030248
 20
169.1936383131304
 30
0.0
 10
165.3335303461418
 20
169.0917315649094
 30
0.0
 10
164.6987460014401
 20
168.9838929950204
 30
0.0
 10
163.968522264826
 20
168.8824267417914
 30
0.0
 10
163.1780541699149
 20
168.7973646632242
 30
0.0
 10
162.3535704424572
 20
168.7391633062676
 30
0.0
 10
161.5265340619771
 20
168.711578858583
 30
0.0
 10
160.7282096029867
 20
168.7150727871172
 30
0.0
 10
159.9883858519871
 20
168.7420264457908
 30
0.0
 10
159.3441309805274
 20
168.7863819464042
 30
0.0
 10
158.8167241234299
 20
168.836587130127
 30
0.0
 10
158.4220588831168
 20
168.8831945901722
 30
0.0
 10
158.1895301975286
 20
168.9123977670105
 30
0.0
 10
158.0941509688623
 20
168.9251559057277
 30
0.0
 10
158.1210839131891
 20
168.921616075809
 30
0.0
 10
158.121432997152
 20
168.9215701952754
 30
0.0
  0
SPLINE
  5
C3
330
1F
100
AcDbEntity
  8
0
  6
Continuous
 62
     7
370
    15
100
AcDbSpline
210
0.0
220
0.0
230
1.0
 70
     8
 71
     3
 72
    22
 73
    18
 74
     0
 42
0.00000001
 43
0.00000001
 40
0.0
 40
0.0
 40
0.0
 40
0.0
 40
0.1249999999999972
 40
0.1249999999999972
 40
0.2499999999999943
 40
0.2499999999999943
 40
0.3124999999999916
 40
0.3124999999999916
 40
0.3749999999999887
 40
0.3749999999999887
 40
0.4999999999999911
 40
0.4999999999999911
 40
0.6249999999999934
 40
0.6249999999999934
 40
0.7499999999999959
 40
0.7499999999999959
 40
1.0
 40
1.0
 40
1.0
 40
1.0
 10
140.5928871873142
 20
166.1282222082901
 30
0.0
 10
140.5322674664378
 20
166.0934000316428
 30
0.0
 10
140.4700781264712
 20
166.0548962279421
 30
0.0
 10
140.3363486602418
 20
165.9689617401434
 30
0.0
 10
140.2640941185295
 20
165.9206551389412
 30
0.0
 10
140.1421961776938
 20
165.8443034207714
 30
0.0
 10
140.0983896245417
 20
165.8178889601643
 30
0.0
 10
140.0119944553668
 20
165.7693800356337
 30
0.0
 10
139.9696544790752
 20
165.7474459129074
 30
0.0
 10
139.8556837327061
 20
165.6910761229627
 30
0.0
 10
139.7972650067159
 20
165.664719298429
 30
0.0
 10
139.6973574355284
 20
165.6125794739249
 30
0.0
 10
139.6559434447331
 20
165.5874188842124
 30
0.0
 10
139.5839184768558
 20
165.5323120408853
 30
0.0
 10
139.5535699355428
 20
165.5024556373904
 30
0.0
 10
139.4800782055107
 20
165.4050489353977
 30
0.0
 10
139.4529321177451
 20
165.3287172515873
 30
0.0
 10
139.4529321177451
 20
165.2400908405172
 30
0.0
  0
SPLINE
  5
C4
330
1F
100
AcDbEntity
  8
0
  6
Continuous
 62
     7
370
    15
100
AcDbSpline
210
0.0
220
0.0
230
1.0
 70
     8
 71
     3
 72
    22
 73
    18
 74
     0
 42
0.00000001
 43
0.00000001
 40
0.0
 40
0.0
 40
0.0
 40
0.0
 40
0.2499999999999932
 40
0.2499999999999932
 40
0.3749999999999905
 40
0.3749999999999905
 40
0.4999999999999878
 40
0.4999999999999878
 40
0.6249999999999851
 40
0.6249999999999851
 40
0.6874999999999837
 40
0.6874999999999837
 40
0.7499999999999858
 40
0.7499999999999858
 40
0.8749999999999929
 40
0.8749999999999929
 40
1.0
 40
1.0
 40
1.0
 40
1.0
 10
139.4529321177449
 20
125.2752078969907
 30
0.0
 10
139.4529321177449
 20
125.1871439541841
 30
0.0
 10
139.4811826986922
 20
125.1104626588761
 30
0.0
 10
139.5561784992211
 20
125.016468671857
 30
0.0
 10
139.5869151038854
 20
124.9882220188172
 30
0.0
 10
139.6595717621043
 20
124.936942842859
 30
0.0
 10
139.7014212199034
 20
124.9139414450741
 30
0.0
 10
139.8016249538545
 20
124.8670432456717
 30
0.0
 10
139.8594049175534
 20
124.8442014244181
 30
0.0
 10
139.9741301854692
 20
124.7908671714214
 30
0.0
 10
140.01780586985
 20
124.7689900742378
 30
0.0
 10
140.1062045840653
 20
124.719186527272
 30
0.0
 10
140.1503424873544
 20
124.6917126014714
 30
0.0
 10
140.2716062716706
 20
124.6127242845763
 30
0.0
 10
140.3407394200383
 20
124.564039626289
 30
0.0
 10
140.4714446534213
 20
124.4760640928768
 30
0.0
 10
140.5330551559455
 20
124.4361726986069
 30
0.0
 10
140.5928871873269
 20
124.4002906007621
 30
0.0
  0
LINE
  5
C5
330
1F
100
AcDbEntity
  8
0
  6
Continuous
 62
     7
370
    15
100
AcDbLine
 10
139.4529322906
 20
125.2752085164
 30
0.0
 11
139.4529322906
 21
165.2400911734
 31
0.0
  0
SPLINE
  5
C6
330
1F
100
AcDbEntity
  8
0
  6
Continuous
 62
     7
370
    15
100
AcDbSpline
210
0.0
220
0.0
230
1.0
 70
     8
 71
     3
 72
     8
 73
     4
 74
     0
 42
0.00000001
 43
0.00000001
 40
0.0
 40
0.0
 40
0.0
 40
0.0
 40
1.0
 40
1.0
 40
1.0
 40
1.0
 10
187.442932117745
 20
173.0692645270329
 30
0.0
 10
186.9502220208993
 20
173.9572835251593
 30
0.0
 10
186.4561393156203
 20
174.8445461608453
 30
0.0
 10
185.960999286256
 20
175.7312258090255
 30
0.0
  0
SPLINE
  5
C7
330
1F
100
AcDbEntity
  8
0
  6
Continuous
 62
     7
370
    15
100
AcDbSpline
210
0.0
220
0.0
230
1.0
 70
     8
 71
     3
 72
     8
 73
     4
 74
     0
 42
0.00000001
 43
0.00000001
 40
0.0
 40
0.0
 40
0.0
 40
0.0
 40
1.0
 40
1.0
 40
1.0
 40
1.0
 10
185.960999286256
 20
169.7227199982287
 30
0.0
 10
186.4680861280153
 20
168.5915696440651
 30
0.0
 10
186.9636539671552
 20
167.4551852332972
 30
0.0
 10
187.442932117745
 20
166.3141740034447
 30
0.0
  0
LINE
  5
C8
330
1F
100
AcDbEntity
  8
0
  6
Continuous
 62
     7
370
    15
100
AcDbLine
 10
187.442932166
 20
166.3141743228
 30
0.0
 11
187.442932166
 21
173.0692637101
 31
0.0
  0
LINE
  5
C9
330
1F
100
AcDbEntity
  8
0
  6
Continuous
 62
     7
370
    15
100
AcDbLine
 10
196.702932827
 20
175.7312257722
 30
0.0
 11
192.744864039
 21
175.7312257722
 31
0.0
  0
LINE
  5
CA
330
1F
100
AcDbEntity
  8
0
  6
Continuous
 62
     7
370
    15
100
AcDbLine
 10
192.744864039
 20
169.722719951
 30
0.0
 11
196.702932827
 21
169.722719951
 31
0.0
  0
LINE
  5
CB
330
1F
100
AcDbEntity
  8
0
  6
Continuous
 62
     7
370
    15
100
AcDbLine
 10
192.744864039
 20
169.722719951
 30
0.0
 11
192.744864039
 21
175.7312257722
 31
0.0
  0
LINE
  5
CC
330
1F
100
AcDbEntity
  8
0
  6
Continuous
 62
     7
370
    15
100
AcDbLine
 10
187.442932166
 20
166.3141743228
 30
0.0
 11
187.442932166
 21
165.3998968139
 31
0.0
  0
SPLINE
  5
CD
330
1F
100
AcDbEntity
  8
0
  6
Continuous
 62
     7
370
    15
100
AcDbSpline
210
0.0
220
0.0
230
1.0
 70
     8
 71
     3
 72
     8
 73
     4
 74
     0
 42
0.00000001
 43
0.00000001
 40
0.0
 40
0.0
 40
0.0
 40
0.0
 40
1.0
 40
1.0
 40
1.0
 40
1.0
 10
191.2629321177451
 20
166.3141740034446
 30
0.0
 10
191.7422102683349
 20
167.4551852332972
 30
0.0
 10
192.2377781074748
 20
168.5915696440651
 30
0.0
 10
192.7448649492341
 20
169.7227199982287
 30
0.0
  0
SPLINE
  5
CE
330
1F
100
AcDbEntity
  8
0
  6
Continuous
 62
     7
370
    15
100
AcDbSpline
210
0.0
220
0.0
230
1.0
 70
     8
 71
     3
 72
    12
 73
     8
 74
     0
 42
0.00000001
 43
0.00000001
 40
0.0
 40
0.0
 40
0.0
 40
0.0
 40
0.249999999999998
 40
0.249999999999998
 40
0.499999999999996
 40
0.499999999999996
 40
1.0
 40
1.0
 40
1.0
 40
1.0
 10
196.7029321177451
 20
169.7227199982287
 30
0.0
 10
196.7941318395707
 20
169.7227199982287
 30
0.0
 10
196.8847268487067
 20
169.6945002996409
 30
0.0
 10
197.0381395751534
 20
169.6000572923928
 30
0.0
 10
197.1033484424771
 20
169.5337703156875
 30
0.0
 10
197.256132971817
 20
169.3081454923991
 30
0.0
 10
197.3029321177451
 20
169.1257192293666
 30
0.0
 10
197.3029321177451
 20
168.9449825971197
 30
0.0
  0
LINE
  5
CF
330
1F
100
AcDbEntity
  8
0
  6
Continuous
 62
     7
370
    15
100
AcDbLine
 10
191.2629323824
 20
165.3998968139
 30
0.0
 11
191.2629323824
 21
166.3141743228
 31
0.0
  0
LINE
  5
D0
330
1F
100
AcDbEntity
  8
0
  6
Continuous
 62
     7
370
    15
100
AcDbLine
 10
197.3029318078
 20
168.9449817822
 30
0.0
 11
197.3029318078
 21
165.114031075
 31
0.0
  0
SPLINE
  5
D1
330
1F
100
AcDbEntity
  8
0
  6
Continuous
 62
     7
370
    15
100
AcDbSpline
210
0.0
220
0.0
230
1.0
 70
     8
 71
     3
 72
     8
 73
     4
 74
     0
 42
0.00000001
 43
0.00000001
 40
0.0
 40
0.0
 40
0.0
 40
0.0
 40
1.0
 40
1.0
 40
1.0
 40
1.0
 10
192.7448649492341
 20
175.7312258090255
 30
0.0
 10
192.2497249198698
 20
174.8445461608453
 30
0.0
 10
191.7556422145908
 20
173.9572835251593
 30
0.0
 10
191.2629321177451
 20
173.0692645270329
 30
0.0
  0
LINE
  5
D2
330
1F
100
AcDbEntity
  8
0
  6
Continuous
 62
     7
370
    15
100
AcDbLine
 10
191.2629323824
 20
166.3141743228
 30
0.0
 11
191.2629323824
 21
173.0692637101
 31
0.0
  0
SPLINE
  5
D3
330
1F
100
AcDbEntity
  8
0
  6
Continuous
 62
     7
370
    15
100
AcDbSpline
210
0.0
220
0.0
230
1.0
 70
     8
 71
     3
 72
    10
 73
     6
 74
     0
 42
0.00000001
 43
0.00000001
 40
0.0
 40
0.0
 40
0.0
 40
0.0
 40
0.5
 40
0.5
 40
1.0
 40
1.0
 40
1.0
 40
1.0
 10
197.3029321177451
 20
175.1104706596252
 30
0.0
 10
197.3029321177451
 20
175.270875925976
 30
0.0
 10
197.2406942866382
 20
175.4299377389646
 30
0.0
 10
197.0215593628956
 20
175.6608502045949
 30
0.0
 10
196.8639706679038
 20
175.7312258090255
 30
0.0
 10
196.7029321177451
 20
175.7312258090255
 30
0.0
  0
LINE
  5
D4
330
1F
100
AcDbEntity
  8
0
  6
Continuous
 62
     7
370
    15
100
AcDbLine
 10
197.3029318078
 20
168.9449817822
 30
0.0
 11
197.3029318078
 21
175.1104713366
 31
0.0
  0
LWPOLYLINE
  5
D5
330
1F
100
AcDbEntity
  8
0
  6
HIDDEN
 62
     7
370
     0
100
AcDbPolyline
 90
       17
 70
   128
 43
0.0
 10
263.1470876558
 20
140.5204682559
 10
263.1400394066
 20
140.5257022888
 10
263.1036582215
 20
140.4559206166
 10
263.0694898589
 20
140.226691863
 10
263.0392405017
 20
139.8495099455
 10
263.0144375189
 20
139.3432890944
 10
262.9963102563
 20
138.7334125064
 10
262.9857825859
 20
138.0504629523
 10
262.9833760484
 20
137.328685163
 10
262.9892024024
 20
136.6042726621
 10
263.0029859765
 20
135.9135516867
 10
263.0240264161
 20
135.2911553294
 10
263.0512657388
 20
134.7682950035
 10
263.0833479388
 20
134.3711893022
 10
263.1186562403
 20
134.1197499022
 10
263.1554248555
 20
134.0265850485
 10
263.1678002699
 20
134.0318814799
  0
LWPOLYLINE
  5
D6
330
1F
100
AcDbEntity
  8
0
  6
HIDDEN
 62
     7
370
     0
100
AcDbPolyline
 90
       30
 70
   128
 43
0.0
 10
255.9200170262
 20
139.3903264724
 10
255.8917867763
 20
139.9361001276
 10
255.8586465939
 20
140.3563985549
 10
255.8221461995
 20
140.6315689855
 10
255.7839917763
 20
140.7487447322
 10
255.7459714635
 20
140.7024468243
 10
255.7098584993
 20
140.4948401213
 10
255.6773441656
 20
140.1356317982
 10
255.6499483808
 20
139.6416187234
 10
255.6289526446
 20
139.0359000251
 10
255.6153329833
 20
138.346798154
 10
255.6097301467
 20
137.6065350086
 10
255.6124123557
 20
136.8497245893
 10
255.6232454999
 20
136.1117538944
 10
255.6417229398
 20
135.4271312192
 10
255.6669878586
 20
134.8278661207
 10
255.697855614
 20
134.341982095
 10
255.7328807934
 20
133.992197825
 10
255.770424269
 20
133.7948673353
 10
255.8087351544
 20
133.7592200324
 10
255.8460253103
 20
133.8869201899
 10
255.8805363996
 20
134.1719989613
 10
255.9106739982
 20
134.6011253953
 10
255.935015045
 20
135.1542332158
 10
255.9524196012
 20
135.8054614574
 10
255.9620904549
 20
136.5243577346
 10
255.9635582192
 20
137.2773087532
 10
255.9567632897
 20
138.0291063287
 10
255.9420185907
 20
138.7445972249
 10
255.9200170262
 20
139.3903264724
  0
LWPOLYLINE
  5
D7
330
1F
100
AcDbEntity
  8
0
  6
HIDDEN
 62
     7
370
     0
100
AcDbPolyline
 90
       23
 70
   128
 43
0.0
 10
257.2649362309
 20
138.5397179
 10
257.2419437392
 20
138.9562253788
 10
257.2143467887
 20
139.2350810528
 10
257.1843656524
 20
139.3536928989
 10
257.1544441207
 20
139.3024519965
 10
257.1269887312
 20
139.0855101817
 10
257.1042421086
 20
138.720441977
 10
257.0880296452
 20
138.2368233934
 10
257.0796775444
 20
137.6738342405
 10
257.0798563583
 20
137.0770846442
 10
257.0885586365
 20
136.4949195594
 10
257.1050691231
 20
135.9745020926
 10
257.1280541642
 20
135.5579950795
 10
257.1556585653
 20
135.2791394055
 10
257.1856322511
 20
135.1605270937
 10
257.2155612333
 20
135.2117684618
 10
257.2430091722
 20
135.428709811
 10
257.2657632454
 20
135.7937780157
 10
257.2819682582
 20
136.2773970649
 10
257.290320359
 20
136.8403862179
 10
257.2901415451
 20
137.4371358141
 10
257.2814467175
 20
138.0193008989
 10
257.2649362309
 20
138.5397179
  0
LWPOLYLINE
  5
D8
330
1F
100
AcDbEntity
  8
0
  6
HIDDEN
 62
     7
370
     0
100
AcDbPolyline
 90
       23
 70
   128
 43
0.0
 10
262.828173004
 20
138.5574763589
 10
262.8051879628
 20
138.9739838377
 10
262.7775910123
 20
139.252839046
 10
262.747609876
 20
139.3714513578
 10
262.7176808937
 20
139.3202104554
 10
262.6902329548
 20
139.1032681748
 10
262.6674788816
 20
138.7381999701
 10
262.6512738688
 20
138.2545813866
 10
262.642921768
 20
137.6915922336
 10
262.6431005819
 20
137.094843103
 10
262.6518028601
 20
136.5126780182
 10
262.6683133467
 20
135.9922605515
 10
262.6912983878
 20
135.5757535383
 10
262.7189027889
 20
135.2968978644
 10
262.7488764747
 20
135.1782855526
 10
262.7788054569
 20
135.2295259893
 10
262.8062533958
 20
135.4464682698
 10
262.829007469
 20
135.8115364745
 10
262.8452124818
 20
136.2951555237
 10
262.8535645826
 20
136.8581446767
 10
262.8533857687
 20
137.454894273
 10
262.8446834906
 20
138.0370593578
 10
262.828173004
 20
138.5574763589
  0
LWPOLYLINE
  5
D9
330
1F
100
AcDbEntity
  8
0
  6
HIDDEN
 62
     7
370
     0
100
AcDbPolyline
 90
       26
 70
   128
 43
0.0
 10
263.2428872211
 20
138.8030577399
 10
263.2191422208
 20
139.2473717168
 10
263.1909119709
 20
139.5678258449
 10
263.1599697097
 20
139.7442858614
 10
263.1282600387
 20
139.7656629741
 10
263.0977648123
 20
139.6306142159
 10
263.0704211815
 20
139.347625798
 10
263.0479278787
 20
138.9344785311
 10
263.0317079647
 20
138.4171321005
 10
263.0227747186
 20
137.8280929238
 10
263.0216943844
 20
137.2043722257
 10
263.0285340174
 20
136.5851619229
 10
263.0428614839
 20
136.0093689472
 10
263.0637827142
 20
135.5131714553
 10
263.0899789556
 20
135.1277473331
 10
263.1197961791
 20
134.8773156241
 10
263.1513791903
 20
134.7776110232
 10
263.1827237828
 20
134.8348985374
 10
263.2118779047
 20
135.045578605
 10
263.2369938119
 20
135.3964124754
 10
263.2565068825
 20
135.8653576061
 10
263.2691803201
 20
136.4229469508
 10
263.2742243631
 20
137.0341460169
 10
263.2713186367
 20
137.6605507866
 10
263.2606494053
 20
138.262802171
 10
263.2428872211
 20
138.8030577399
  0
LWPOLYLINE
  5
DA
330
1F
100
AcDbEntity
  8
0
  6
HIDDEN
 62
     7
370
     0
100
AcDbPolyline
 90
       30
 70
   128
 43
0.0
 10
255.9200170262
 20
151.1377341993
 10
255.8917867763
 20
150.5919605442
 10
255.8586465939
 20
150.1716621168
 10
255.8221461995
 20
149.8964916863
 10
255.7839917763
 20
149.7793159396
 10
255.7459714635
 20
149.8256138474
 10
255.7098584993
 20
150.0332205504
 10
255.6773441656
 20
150.3924288735
 10
255.6499483808
 20
150.8864419483
 10
255.6289526446
 20
151.4921606466
 10
255.6153329833
 20
152.1812625177
 10
255.6097301467
 20
152.9215256632
 10
255.6124123557
 20
153.6783360824
 10
255.6232454999
 20
154.4163067773
 10
255.6417229398
 20
155.1009294525
 10
255.6669878586
 20
155.7001945511
 10
255.697855614
 20
156.1860785768
 10
255.7328807934
 20
156.5358628467
 10
255.770424269
 20
156.7331933364
 10
255.8087351544
 20
156.7688406393
 10
255.8460253103
 20
156.6411404818
 10
255.8805363996
 20
156.3560617104
 10
255.9106739982
 20
155.9269352764
 10
255.935015045
 20
155.373827456
 10
255.9524196012
 20
154.7225992143
 10
255.9620904549
 20
154.0037029371
 10
255.9635582192
 20
153.2507519186
 10
255.9567632897
 20
152.4989543431
 10
255.9420185907
 20
151.7834634468
 10
255.9200170262
 20
151.1377341993
  0
LWPOLYLINE
  5
DB
330
1F
100
AcDbEntity
  8
0
  6
HIDDEN
 62
     7
370
     0
100
AcDbPolyline
 90
       23
 70
   128
 43
0.0
 10
257.2649362309
 20
151.9883427717
 10
257.2419437392
 20
151.5718352929
 10
257.2143467887
 20
151.2929796189
 10
257.1843656524
 20
151.1743677728
 10
257.1544441207
 20
151.2256086752
 10
257.1269887312
 20
151.4425504901
 10
257.1042421086
 20
151.8076186948
 10
257.0880296452
 20
152.2912372783
 10
257.0796775444
 20
152.8542264313
 10
257.0798563583
 20
153.4509760276
 10
257.0885586365
 20
154.0331411123
 10
257.1050691231
 20
154.5535585791
 10
257.1280541642
 20
154.9700655922
 10
257.1556585653
 20
155.2489212662
 10
257.1856322511
 20
155.367533578
 10
257.2155612333
 20
155.3162922099
 10
257.2430091722
 20
155.0993508607
 10
257.2657632454
 20
154.734282656
 10
257.2819682582
 20
154.2506636068
 10
257.290320359
 20
153.6876744539
 10
257.2901415451
 20
153.0909248576
 10
257.2814467175
 20
152.5087597728
 10
257.2649362309
 20
151.9883427717
  0
LWPOLYLINE
  5
DC
330
1F
100
AcDbEntity
  8
0
  6
HIDDEN
 62
     7
370
     0
100
AcDbPolyline
 90
       23
 70
   128
 43
0.0
 10
262.828173004
 20
151.9705843128
 10
262.8051879628
 20
151.554076834
 10
262.7775910123
 20
151.2752216257
 10
262.747609876
 20
151.156609314
 10
262.7176808937
 20
151.2078502163
 10
262.6902329548
 20
151.4247924969
 10
262.6674788816
 20
151.7898607016
 10
262.6512738688
 20
152.2734792851
 10
262.642921768
 20
152.8364684381
 10
262.6431005819
 20
153.4332175687
 10
262.6518028601
 20
154.0153826535
 10
262.6683133467
 20
154.5358001203
 10
262.6912983878
 20
154.9523071334
 10
262.7189027889
 20
155.2311628074
 10
262.7488764747
 20
155.3497751191
 10
262.7788054569
 20
155.2985346824
 10
262.8062533958
 20
155.0815924019
 10
262.829007469
 20
154.7165241972
 10
262.8452124818
 20
154.232905148
 10
262.8535645826
 20
153.669915995
 10
262.8533857687
 20
153.0731663987
 10
262.8446834906
 20
152.4910013139
 10
262.828173004
 20
151.9705843128
  0
LINE
  5
DD
330
1F
100
AcDbEntity
  8
0
  6
HIDDEN
 62
     7
370
     0
100
AcDbLine
 10
253.3529343827
 20
147.2640304309
 30
0.0
 11
253.3529343827
 21
159.264030768
 31
0.0
  0
LINE
  5
DE
330
1F
100
AcDbEntity
  8
0
  6
HIDDEN
 62
     7
370
     0
100
AcDbLine
 10
255.7822185381
 20
149.7640301421
 30
0.0
 11
255.7822185381
 21
156.7640303582
 31
0.0
  0
LINE
  5
DF
330
1F
100
AcDbEntity
  8
0
  6
HIDDEN
 62
     7
370
     0
100
AcDbLine
 10
253.3529343827
 20
142.165686604
 30
0.0
 11
253.3529343827
 21
143.2640302409
 31
0.0
  0
LINE
  5
E0
330
1F
100
AcDbEntity
  8
0
  6
HIDDEN
 62
     7
370
     0
100
AcDbLine
 10
253.3529343827
 20
131.2640299037
 30
0.0
 11
253.3529343827
 21
142.165686604
 31
0.0
  0
LINE
  5
E1
330
1F
100
AcDbEntity
  8
0
  6
HIDDEN
 62
     7
370
     0
100
AcDbLine
 10
255.7822185381
 20
140.1233299583
 30
0.0
 11
255.7822185381
 21
140.7640305296
 31
0.0
  0
LINE
  5
E2
330
1F
100
AcDbEntity
  8
0
  6
HIDDEN
 62
     7
370
     0
100
AcDbLine
 10
255.7822185381
 20
133.7640303135
 30
0.0
 11
255.7822185381
 21
140.1233299583
 31
0.0
  0
CIRCLE
  5
E3
330
1F
100
AcDbEntity
  8
0
  6
HIDDEN
 62
     7
370
     0
100
AcDbCircle
 10
231.3529321177
 20
165.2640303359
 30
0.0
 40
5.000000000000005
  0
CIRCLE
  5
E4
330
1F
100
AcDbEntity
  8
0
  6
HIDDEN
 62
     7
370
     0
100
AcDbCircle
 10
231.3529321177
 20
165.2640303359
 30
0.0
 40
3.49999999999999
  0
CIRCLE
  5
E5
330
1F
100
AcDbEntity
  8
0
  6
HIDDEN
 62
     7
370
     0
100
AcDbCircle
 10
251.3529321177
 20
165.2640303359
 30
0.0
 40
5.000000000000001
  0
CIRCLE
  5
E6
330
1F
100
AcDbEntity
  8
0
  6
HIDDEN
 62
     7
370
     0
100
AcDbCircle
 10
251.3529321177
 20
165.2640303359
 30
0.0
 40
3.500000000000007
  0
CIRCLE
  5
E7
330
1F
100
AcDbEntity
  8
0
  6
HIDDEN
 62
     7
370
     0
100
AcDbCircle
 10
231.3529321177
 20
125.2640303359
 30
0.0
 40
5.000000000000005
  0
CIRCLE
  5
E8
330
1F
100
AcDbEntity
  8
0
  6
HIDDEN
 62
     7
370
     0
100
AcDbCircle
 10
231.3529321177
 20
125.2640303359
 30
0.0
 40
3.49999999999999
  0
LINE
  5
E9
330
1F
100
AcDbEntity
  8
0
  6
HIDDEN
 62
     7
370
     0
100
AcDbLine
 10
231.5565774961
 20
122.3844707892
 30
0.0
 11
233.9485230668
 21
124.0006116167
 31
0.0
  0
LINE
  5
EA
330
1F
100
AcDbEntity
  8
0
  6
HIDDEN
 62
     7
370
     0
100
AcDbLine
 10
228.9609814806
 20
123.6478899554
 30
0.0
 11
231.5565774961
 21
122.3844707892
 31
0.0
  0
LINE
  5
EB
330
1F
100
AcDbEntity
  8
0
  6
HIDDEN
 62
     7
370
     0
100
AcDbLine
 10
228.9609814806
 20
123.6478899554
 30
0.0
 11
228.7573384865
 21
126.5274499491
 31
0.0
  0
LINE
  5
EC
330
1F
100
AcDbEntity
  8
0
  6
HIDDEN
 62
     7
370
     0
100
AcDbLine
 10
233.7448800726
 20
126.8801716104
 30
0.0
 11
233.9485230668
 21
124.0006116167
 31
0.0
  0
LINE
  5
ED
330
1F
100
AcDbEntity
  8
0
  6
HIDDEN
 62
     7
370
     0
100
AcDbLine
 10
231.1492877825
 20
128.143588914
 30
0.0
 11
228.7573384865
 21
126.5274499491
 31
0.0
  0
LINE
  5
EE
330
1F
100
AcDbEntity
  8
0
  6
HIDDEN
 62
     7
370
     0
100
AcDbLine
 10
231.1492877825
 20
128.143588914
 30
0.0
 11
233.7448800726
 21
126.8801716104
 31
0.0
  0
CIRCLE
  5
EF
330
1F
100
AcDbEntity
  8
0
  6
HIDDEN
 62
     7
370
     0
100
AcDbCircle
 10
231.3529321177
 20
125.2640303359
 30
0.0
 40
4.171999999999985
  0
CIRCLE
  5
F0
330
1F
100
AcDbEntity
  8
0
  6
HIDDEN
 62
     7
370
     0
100
AcDbCircle
 10
251.3529321177
 20
125.2640303359
 30
0.0
 40
5.000000000000001
  0
CIRCLE
  5
F1
330
1F
100
AcDbEntity
  8
0
  6
HIDDEN
 62
     7
370
     0
100
AcDbCircle
 10
251.3529321177
 20
125.2640303359
 30
0.0
 40
3.500000000000007
  0
LINE
  5
F2
330
1F
100
AcDbEntity
  8
0
  6
HIDDEN
 62
     7
370
     0
100
AcDbLine
 10
249.8406487329
 20
122.8051007673
 30
0.0
 11
248.4672981127
 21
125.344241871
 31
0.0
  0
LINE
  5
F3
330
1F
100
AcDbEntity
  8
0
  6
HIDDEN
 62
     7
370
     0
100
AcDbLine
 10
252.7262884005
 20
122.7248896793
 30
0.0
 11
254.2385699971
 21
125.1838178322
 31
0.0
  0
LINE
  5
F4
330
1F
100
AcDbEntity
  8
0
  6
HIDDEN
 62
     7
370
     0
100
AcDbLine
 10
252.7262884005
 20
122.7248896793
 30
0.0
 11
249.8406487329
 21
122.8051007673
 31
0.0
  0
LINE
  5
F5
330
1F
100
AcDbEntity
  8
0
  6
HIDDEN
 62
     7
370
     0
100
AcDbLine
 10
252.8652193768
 20
127.7229589358
 30
0.0
 11
254.2385699971
 21
125.1838178322
 31
0.0
  0
LINE
  5
F6
330
1F
100
AcDbEntity
  8
0
  6
HIDDEN
 62
     7
370
     0
100
AcDbLine
 10
249.9795797093
 20
127.8031700239
 30
0.0
 11
248.4672981127
 21
125.344241871
 31
0.0
  0
LINE
  5
F7
330
1F
100
AcDbEntity
  8
0
  6
HIDDEN
 62
     7
370
     0
100
AcDbLine
 10
252.8652193768
 20
127.7229589358
 30
0.0
 11
249.9795797093
 21
127.8031700239
 31
0.0
  0
CIRCLE
  5
F8
330
1F
100
AcDbEntity
  8
0
  6
HIDDEN
 62
     7
370
     0
100
AcDbCircle
 10
251.3529321177
 20
125.2640303359
 30
0.0
 40
4.171999999999962
  0
SPLINE
  5
F9
330
1F
100
AcDbEntity
  8
0
  6
HIDDEN
 62
     7
370
     0
100
AcDbSpline
210
0.0
220
0.0
230
1.0
 70
     8
 71
     3
 72
     8
 73
     4
 74
     0
 42
0.00000001
 43
0.00000001
 40
0.0
 40
0.0
 40
0.0
 40
0.0
 40
1.0
 40
1.0
 40
1.0
 40
1.0
 10
215.1470034725521
 20
132.2640303358611
 30
0.0
 10
215.379844721987
 20
133.9353033464923
 30
0.0
 10
215.6713343029354
 20
135.6015365060036
 30
0.0
 10
216.0063381544339
 20
137.2640303358611
 30
0.0
  0
SPLINE
  5
FA
330
1F
100
AcDbEntity
  8
0
  6
HIDDEN
 62
     7
370
     0
100
AcDbSpline
210
0.0
220
0.0
230
1.0
 70
     8
 71
     3
 72
     9
 73
     5
 74
     0
 42
0.00000001
 43
0.00000001
 40
0.0
 40
0.0
 40
0.0
 40
0.0
 40
0.546764081976808
 40
1.0
 40
1.0
 40
1.0
 40
1.0
 10
217.1042206509558
 20
164.6289479866801
 30
0.0
 10
216.8271481202663
 20
162.3694476920146
 30
0.0
 10
216.3203984272582
 20
158.236951851219
 30
0.0
 10
216.0792004965121
 20
154.0807607205593
 30
0.0
 10
215.969880930945
 20
152.1970256179749
 30
0.0
  0
LINE
  5
FB
330
1F
100
AcDbEntity
  8
0
  6
HIDDEN
 62
     7
370
     0
100
AcDbLine
 10
215.9698809309
 20
138.3310350537
 30
0.0
 11
216.0063366218
 21
137.2640299559
 31
0.0
  0
LINE
  5
FC
330
1F
100
AcDbEntity
  8
0
  6
HIDDEN
 62
     7
370
     0
100
AcDbLine
 10
217.104220651
 20
164.6289479867
 30
0.0
 11
217.104220651
 21
171.7215430871
 31
0.0
  0
SPLINE
  5
FD
330
1F
100
AcDbEntity
  8
0
  6
HIDDEN
 62
     7
370
     0
100
AcDbSpline
210
0.0
220
0.0
230
1.0
 70
     8
 71
     3
 72
    10
 73
     6
 74
     0
 42
0.00000001
 43
0.00000001
 40
0.0
 40
0.0
 40
0.0
 40
0.0
 40
0.5
 40
0.5
 40
1.0
 40
1.0
 40
1.0
 40
1.0
 10
217.1042208117808
 20
118.8065172252152
 30
0.0
 10
216.7089018580606
 20
121.0370374019361
 30
0.0
 10
216.3405389123903
 20
123.2725801871441
 30
0.0
 10
215.6797222652532
 20
127.7578096327762
 30
0.0
 10
215.3870609062591
 20
130.0107864210597
 30
0.0
 10
215.1470034725521
 20
132.2640303358611
 30
0.0
  0
LINE
  5
FE
330
1F
100
AcDbEntity
  8
0
  6
HIDDEN
 62
     7
370
     0
100
AcDbLine
 10
185.9609995781
 20
169.722719951
 30
0.0
 11
185.9609995781
 21
165.114031075
 31
0.0
  0
LINE
  5
FF
330
1F
100
AcDbEntity
  8
0
  6
HIDDEN
 62
     7
370
     0
100
AcDbLine
 10
224.8529325052
 20
135.2640305594
 30
0.0
 11
224.8529325052
 21
115.2640310064
 31
0.0
  0
LINE
  5
100
330
1F
100
AcDbEntity
  8
0
  6
HIDDEN
 62
     7
370
     0
100
AcDbLine
 10
216.3529339059
 20
135.2640305594
 30
0.0
 11
224.8529325052
 21
135.2640305594
 31
0.0
  0
LINE
  5
101
330
1F
100
AcDbEntity
  8
0
  6
HIDDEN
 62
     7
370
     0
100
AcDbLine
 10
216.3529339059
 20
135.2640305594
 30
0.0
 11
216.3529339059
 21
115.2640310064
 31
0.0
  0
LINE
  5
102
330
1F
100
AcDbEntity
  8
0
  6
HIDDEN
 62
     7
370
     0
100
AcDbLine
 10
159.3480826168
 20
121.739431186
 30
0.0
 11
159.0992173924
 21
121.7161686108
 31
0.0
  0
LINE
  5
103
330
1F
100
AcDbEntity
  8
0
  6
HIDDEN
 62
     7
370
     0
100
AcDbLine
 10
158.9666566624
 20
168.8241166011
 30
0.0
 11
159.3479894845
 21
168.7886127219
 31
0.0
  0
LINE
  5
104
330
1F
100
AcDbEntity
  8
0
  6
HIDDEN
 62
     7
370
     0
100
AcDbLine
 10
224.8529325052
 20
135.2640305594
 30
0.0
 11
261.352935694
 21
135.2640305594
 31
0.0
  0
SPLINE
  5
105
330
1F
100
AcDbEntity
  8
0
  6
HIDDEN
 62
     7
370
     0
100
AcDbSpline
210
0.0
220
0.0
230
1.0
 70
     8
 71
     3
 72
    15
 73
    11
 74
     0
 42
0.00000001
 43
0.00000001
 40
0.0
 40
0.0
 40
0.0
 40
0.0
 40
0.1409172263352446
 40
0.281889861653346
 40
0.4212989542022905
 40
0.5593768841673977
 40
0.6988856533029646
 40
0.840367202775075
 40
0.9813164473602943
 40
1.0
 40
1.0
 40
1.0
 40
1.0
 10
165.107934158161
 20
125.426501868683
 30
0.0
 10
164.7918924385484
 20
125.4668551904577
 30
0.0
 10
164.15968473098
 20
125.5475777010275
 30
0.0
 10
162.9255215586658
 20
125.6241356474103
 30
0.0
 10
161.6547994348501
 20
125.6194575793953
 30
0.0
 10
160.4662399683137
 20
125.5386611141721
 30
0.0
 10
159.4731172890232
 20
125.4142665673179
 30
0.0
 10
158.8337087577095
 20
125.3078596205566
 30
0.0
 10
158.5526887693561
 20
125.2547825612471
 30
0.0
 10
158.6192493378449
 20
125.267037053209
 30
0.0
 10
158.6270396410075
 20
125.2684713289319
 30
0.0
  0
SPLINE
  5
106
330
1F
100
AcDbEntity
  8
0
  6
HIDDEN
 62
     7
370
     0
100
AcDbSpline
210
0.0
220
0.0
230
1.0
 70
     8
 71
     3
 72
    15
 73
    11
 74
     0
 42
0.00000001
 43
0.00000001
 40
0.0
 40
0.0
 40
0.0
 40
0.0
 40
0.1201202497733958
 40
0.2584739452442804
 40
0.3987302041697883
 40
0.5404022600041716
 40
0.680739511736143
 40
0.8190355942651634
 40
0.9577823154231621
 40
1.0
 40
1.0
 40
1.0
 40
1.0
 10
158.6270396410075
 20
165.2595893427907
 30
0.0
 10
158.647748889811
 20
165.2555648387164
 30
0.0
 10
158.6923109120461
 20
165.2469049379278
 30
0.0
 10
159.2547503817745
 20
165.1476120192167
 30
0.0
 10
160.1482126372217
 20
165.0236960075054
 30
0.0
 10
161.3071914610739
 20
164.9239846319717
 30
0.0
 10
162.5802283298936
 20
164.8968475742737
 30
0.0
 10
163.8145136766207
 20
164.9521849364038
 30
0.0
 10
164.6424767543166
 20
165.0386646721951
 30
0.0
 10
165.019887066963
 20
165.0896615913323
 30
0.0
 10
165.107934158161
 20
165.1015588030397
 30
0.0
  0
SPLINE
  5
107
330
1F
100
AcDbEntity
  8
0
  6
HIDDEN
 62
     7
370
     0
100
AcDbSpline
210
0.0
220
0.0
230
1.0
 70
     8
 71
     3
 72
    10
 73
     6
 74
     0
 42
0.00000001
 43
0.00000001
 40
0.0
 40
0.0
 40
0.0
 40
0.0
 40
0.4476665264450866
 40
0.8953163914558105
 40
0.9999999999999999
 40
0.9999999999999999
 40
0.9999999999999999
 40
0.9999999999999999
 10
165.107934158161
 20
165.1015588030397
 30
0.0
 10
165.3546348287364
 20
165.1310702690852
 30
0.0
 10
165.8480269880813
 20
165.1900921028066
 30
0.0
 10
166.1370377717014
 20
165.2040348758646
 30
0.0
 10
166.0767122887261
 20
165.2001446007685
 30
0.0
 10
166.0652788168339
 20
165.1994072780191
 30
0.0
  0
SPLINE
  5
108
330
1F
100
AcDbEntity
  8
0
  6
HIDDEN
 62
     7
370
     0
100
AcDbSpline
210
0.0
220
0.0
230
1.0
 70
     8
 71
     3
 72
    10
 73
     6
 74
     0
 42
0.00000001
 43
0.00000001
 40
0.0
 40
0.0
 40
0.0
 40
0.0
 40
0.3456899711901815
 40
0.7967639010352797
 40
1.0
 40
1.0
 40
1.0
 40
1.0
 10
166.0652923210112
 20
125.3286515310584
 30
0.0
 10
166.055732851367
 20
125.3292069014794
 30
0.0
 10
166.0336996974998
 20
125.3304869475901
 30
0.0
 10
165.6166658291455
 20
125.3604524289933
 30
0.0
 10
165.2285021799642
 20
125.410848331192
 30
0.0
 10
165.107934158161
 20
125.426501868683
 30
0.0
  0
LINE
  5
109
330
1F
100
AcDbEntity
  8
0
  6
HIDDEN
 62
     7
370
     0
100
AcDbLine
 10
152.3569076134
 20
128.264029412
 30
0.0
 11
152.3569076134
 21
162.2640312597
 31
0.0
  0
LINE
  5
10A
330
1F
100
AcDbEntity
  8
0
  6
HIDDEN
 62
     7
370
     0
100
AcDbLine
 10
253.3529343827
 20
159.264030768
 30
0.0
 11
253.3529343827
 21
147.2640304309
 31
0.0
  0
LINE
  5
10B
330
1F
100
AcDbEntity
  8
0
  6
HIDDEN
 62
     7
370
     0
100
AcDbLine
 10
179.0127580798
 20
128.264029412
 30
0.0
 11
179.0127580798
 21
162.2640312597
 31
0.0
  0
LINE
  5
10C
330
1F
100
AcDbEntity
  8
0
  6
HIDDEN
 62
     7
370
     0
100
AcDbLine
 10
181.3029319792
 20
129.5390305057
 30
0.0
 11
181.3029319792
 21
160.989030166
 31
0.0
  0
SPLINE
  5
10D
330
1F
100
AcDbEntity
  8
0
  6
HIDDEN
 62
     7
370
     0
100
AcDbSpline
210
0.0
220
0.0
230
1.0
 70
     8
 71
     3
 72
    18
 73
    14
 74
     0
 42
0.00000001
 43
0.00000001
 40
0.0
 40
0.0
 40
0.0
 40
0.0
 40
0.2500000000000009
 40
0.2500000000000009
 40
0.3750000000000007
 40
0.3750000000000007
 40
0.5000000000000006
 40
0.5000000000000006
 40
0.6250000000000003
 40
0.6250000000000003
 40
0.7500000000000001
 40
0.7500000000000001
 40
1.0
 40
1.0
 40
1.0
 40
1.0
 10
145.5529321177451
 20
161.5515439582655
 30
0.0
 10
145.5529321177451
 20
161.4970694377132
 30
0.0
 10
145.5180214263529
 20
161.4406883783608
 30
0.0
 10
145.4160121250198
 20
161.3566115375073
 30
0.0
 10
145.3743757703417
 20
161.3292778335164
 30
0.0
 10
145.275969974853
 20
161.2763239179174
 30
0.0
 10
145.2184267631487
 20
161.2504365642002
 30
0.0
 10
145.0911285895757
 20
161.202659019367
 30
0.0
 10
145.0215412848183
 20
161.1807111011891
 30
0.0
 10
144.8701070396633
 20
161.1412785362764
 30
0.0
 10
144.7874231365694
 20
161.1237222870505
 30
0.0
 10
144.5313116745313
 20
161.08128352163
 30
0.0
 10
144.3433966706433
 20
161.065520771893
 30
0.0
 10
144.1529321177451
 20
161.065520771893
 30
0.0
  0
LINE
  5
10E
330
1F
100
AcDbEntity
  8
0
  6
HIDDEN
 62
     7
370
     0
100
AcDbLine
 10
144.1529317571
 20
161.0655215517
 30
0.0
 11
140.6029312684
 21
161.0655215517
 31
0.0
  0
LINE
  5
10F
330
1F
100
AcDbEntity
  8
0
  6
HIDDEN
 62
     7
370
     0
100
AcDbLine
 10
140.6029312684
 20
129.4398446515
 30
0.0
 11
148.1529324128
 21
129.4398446515
 31
0.0
  0
SPLINE
  5
110
330
1F
100
AcDbEntity
  8
0
  6
HIDDEN
 62
     7
370
     0
100
AcDbSpline
210
0.0
220
0.0
230
1.0
 70
     8
 71
     3
 72
    16
 73
    12
 74
     0
 42
0.00000001
 43
0.00000001
 40
0.0
 40
0.0
 40
0.0
 40
0.0
 40
0.1249999999999998
 40
0.1249999999999998
 40
0.2499999999999997
 40
0.2499999999999997
 40
0.4999999999999998
 40
0.4999999999999998
 40
0.7499999999999999
 40
0.7499999999999999
 40
1.0
 40
1.0
 40
1.0
 40
1.0
 10
148.1529321177451
 20
129.4398449302867
 30
0.0
 10
148.2479927075082
 20
129.4398449302867
 30
0.0
 10
148.3412671304391
 20
129.4360742587308
 30
0.0
 10
148.5244273237081
 20
129.4214777497641
 30
0.0
 10
148.6152617168399
 20
129.4104511352056
 30
0.0
 10
148.8720002060316
 20
129.3684703413023
 30
0.0
 10
149.0270763941971
 20
129.3278920595273
 30
0.0
 10
149.2809123052555
 20
129.2338188068769
 30
0.0
 10
149.3818653205672
 20
129.179663566721
 30
0.0
 10
149.5172137754406
 20
129.0696855351181
 30
0.0
 10
149.5529321177451
 20
129.0131805485039
 30
0.0
 10
149.5529321177451
 20
128.9594345497034
 30
0.0
  0
LINE
  5
111
330
1F
100
AcDbEntity
  8
0
  6
HIDDEN
 62
     7
370
     0
100
AcDbLine
 10
140.6029312684
 20
129.4398446515
 30
0.0
 11
140.6029312684
 21
161.0655215517
 31
0.0
  0
SPLINE
  5
112
330
1F
100
AcDbEntity
  8
0
  6
HIDDEN
 62
     7
370
     0
100
AcDbSpline
210
0.0
220
0.0
230
1.0
 70
     8
 71
     3
 72
    24
 73
    20
 74
     0
 42
0.00000001
 43
0.00000001
 40
0.0
 40
0.0
 40
0.0
 40
0.0
 40
0.1249999999999985
 40
0.1249999999999985
 40
0.2499999999999971
 40
0.2499999999999971
 40
0.3749999999999956
 40
0.3749999999999956
 40
0.4374999999999959
 40
0.4374999999999959
 40
0.4999999999999962
 40
0.4999999999999962
 40
0.6249999999999971
 40
0.6249999999999971
 40
0.749999999999998
 40
0.749999999999998
 40
0.874999999999999
 40
0.874999999999999
 40
1.0
 40
1.0
 40
1.0
 40
1.0
 10
236.4529321177451
 20
145.8788378444973
 30
0.0
 10
236.5545052565861
 20
145.8671993003636
 30
0.0
 10
236.6528202055172
 20
145.8832168660631
 30
0.0
 10
236.8408488004397
 20
145.9673429798503
 30
0.0
 10
236.9293618611477
 20
146.0357975566505
 30
0.0
 10
237.0808755698669
 20
146.2166634427819
 30
0.0
 10
237.1453178067616
 20
146.3315246183109
 30
0.0
 10
237.2111862272101
 20
146.5274896378586
 30
0.0
 10
237.2282943167528
 20
146.5970510978731
 30
0.0
 10
237.2515799457458
 20
146.7447709006335
 30
0.0
 10
237.2576357779644
 20
146.8232825999714
 30
0.0
 10
237.2578550613922
 20
147.0633695120096
 30
0.0
 10
237.2342037561925
 20
147.2337833954389
 30
0.0
 10
237.1459463840928
 20
147.5848567570106
 30
0.0
 10
237.0829641190444
 20
147.7618260190962
 30
0.0
 10
236.9299229450732
 20
148.1198216974439
 30
0.0
 10
236.8428933658859
 20
148.2942264790235
 30
0.0
 10
236.654510287875
 20
148.6372434302319
 30
0.0
 10
236.5545158076461
 20
148.8029507043823
 30
0.0
 10
236.4529321177451
 20
148.9579489560217
 30
0.0
  0
SPLINE
  5
113
330
1F
100
AcDbEntity
  8
0
  6
HIDDEN
 62
     7
370
     0
100
AcDbSpline
210
0.0
220
0.0
230
1.0
 70
     8
 71
     3
 72
    40
 73
    36
 74
     0
 42
0.00000001
 43
0.00000001
 40
0.0
 40
0.0
 40
0.0
 40
0.0
 40
0.1250000000000028
 40
0.1250000000000028
 40
0.1875000000000027
 40
0.1875000000000027
 40
0.2500000000000026
 40
0.2500000000000026
 40
0.3125000000000025
 40
0.3125000000000025
 40
0.3437500000000024
 40
0.3437500000000024
 40
0.3750000000000023
 40
0.3750000000000023
 40
0.4062500000000023
 40
0.4062500000000023
 40
0.4375000000000022
 40
0.4375000000000022
 40
0.4687500000000021
 40
0.4687500000000021
 40
0.500000000000002
 40
0.500000000000002
 40
0.562500000000002
 40
0.562500000000002
 40
0.5937500000000023
 40
0.5937500000000023
 40
0.6250000000000027
 40
0.6250000000000027
 40
0.6875000000000022
 40
0.6875000000000022
 40
0.7500000000000017
 40
0.7500000000000017
 40
0.8750000000000009
 40
0.8750000000000009
 40
1.0
 40
1.0
 40
1.0
 40
1.0
 10
236.4529321177451
 20
145.8788378444973
 30
0.0
 10
235.8868045931493
 20
145.7628914251763
 30
0.0
 10
235.3176434656695
 20
145.6833488726062
 30
0.0
 10
234.4584339036167
 20
145.631065005019
 30
0.0
 10
234.1710955897936
 20
145.6250921081047
 30
0.0
 10
233.5939182028239
 20
145.6438182066965
 30
0.0
 10
233.3038919329207
 20
145.6686382539305
 30
0.0
 10
232.7335549424441
 20
145.7614319985337
 30
0.0
 10
232.4492221952136
 20
145.8302764512345
 30
0.0
 10
232.0445617490625
 20
145.9785802220614
 30
0.0
 10
231.9131927881744
 20
146.035494736004
 30
0.0
 10
231.6591251705449
 20
146.1674131667786
 30
0.0
 10
231.5354196426449
 20
146.243134833179
 30
0.0
 10
231.3039285053584
 20
146.4137702130411
 30
0.0
 10
231.1973420078008
 20
146.507566476799
 30
0.0
 10
231.0052400086864
 20
146.7135999233611
 30
0.0
 10
230.9200415181529
 20
146.8262345108879
 30
0.0
 10
230.7823948249133
 20
147.0580772936379
 30
0.0
 10
230.7280795214727
 20
147.1798069239494
 30
0.0
 10
230.6543469712305
 20
147.4268408809519
 30
0.0
 10
230.635664480045
 20
147.548366948697
 30
0.0
 10
230.6339660109072
 20
147.9059530817482
 30
0.0
 10
230.709513296971
 20
148.1262008960187
 30
0.0
 10
230.9155200268794
 20
148.3906457113436
 30
0.0
 10
231.0000549496058
 20
148.4695026616923
 30
0.0
 10
231.1919154727753
 20
148.6066531049294
 30
0.0
 10
231.2985446933062
 20
148.6649579960642
 30
0.0
 10
231.6463998521257
 20
148.8168343517927
 30
0.0
 10
231.9042446487936
 20
148.883594863998
 30
0.0
 10
232.4484210159011
 20
148.9821864747629
 30
0.0
 10
232.7310295728151
 20
149.0128073202459
 30
0.0
 10
233.5823209300026
 20
149.0745307314517
 30
0.0
 10
234.1665146070142
 20
149.0776642628817
 30
0.0
 10
235.3159187670748
 20
149.0478743353789
 30
0.0
 10
235.886235404798
 20
149.0137837042975
 30
0.0
 10
236.4529321177451
 20
148.9579489560217
 30
0.0
  0
LINE
  5
114
330
1F
100
AcDbEntity
  8
0
  6
HIDDEN
 62
     7
370
     0
100
AcDbLine
 10
140.6029312684
 20
127.2740297899
 30
0.0
 11
140.6029312684
 21
124.3942947075
 31
0.0
  0
LINE
  5
115
330
1F
100
AcDbEntity
  8
0
  6
HIDDEN
 62
     7
370
     0
100
AcDbLine
 10
149.5529318972
 20
127.2740297899
 30
0.0
 11
149.5529318972
 21
123.289714469
 31
0.0
  0
LINE
  5
116
330
1F
100
AcDbEntity
  8
0
  6
HIDDEN
 62
     7
370
     0
100
AcDbLine
 10
145.5529312416
 20
163.2540308818
 30
0.0
 11
145.5529312416
 21
167.1081379935
 31
0.0
  0
LINE
  5
117
330
1F
100
AcDbEntity
  8
0
  6
HIDDEN
 62
     7
370
     0
100
AcDbLine
 10
140.6029312684
 20
163.2540308818
 30
0.0
 11
140.6029312684
 21
166.1339689925
 31
0.0
  0
LINE
  5
118
330
1F
100
AcDbEntity
  8
0
  6
HIDDEN
 62
     7
370
     0
100
AcDbLine
 10
193.1529323383
 20
135.7640306413
 30
0.0
 11
193.1529323383
 21
154.7640300304
 31
0.0
  0
LINE
  5
119
330
1F
100
AcDbEntity
  8
0
  6
HIDDEN
 62
     7
370
     0
100
AcDbLine
 10
190.6529328598
 20
135.7640306413
 30
0.0
 11
190.6529328598
 21
154.7640300304
 31
0.0
  0
LINE
  5
11A
330
1F
100
AcDbEntity
  8
0
  6
HIDDEN
 62
     7
370
     0
100
AcDbLine
 10
181.8029320611
 20
136.7640298739
 30
0.0
 11
181.8029320611
 21
153.7640307978
 31
0.0
  0
LINE
  5
11B
330
1F
100
AcDbEntity
  8
0
  6
HIDDEN
 62
     7
370
     0
100
AcDbLine
 10
197.3029318078
 20
118.8640304789
 30
0.0
 11
191.1652571334
 21
118.8640304789
 31
0.0
  0
LINE
  5
11C
330
1F
100
AcDbEntity
  8
0
  6
HIDDEN
 62
     7
370
     0
100
AcDbLine
 10
176.3029320909
 20
113.7799070165
 30
0.0
 11
176.3029320909
 21
118.8640304789
 31
0.0
  0
LINE
  5
11D
330
1F
100
AcDbEntity
  8
0
  6
HIDDEN
 62
     7
370
     0
100
AcDbLine
 10
184.3029324709
 20
118.8640304789
 30
0.0
 11
176.3029320909
 21
118.8640304789
 31
0.0
  0
LINE
  5
11E
330
1F
100
AcDbEntity
  8
0
  6
HIDDEN
 62
     7
370
     0
100
AcDbLine
 10
187.540607415
 20
118.8640304789
 30
0.0
 11
184.3029324709
 21
118.8640304789
 31
0.0
  0
LINE
  5
11F
330
1F
100
AcDbEntity
  8
0
  6
HIDDEN
 62
     7
370
     0
100
AcDbLine
 10
187.8372299297
 20
171.6640301928
 30
0.0
 11
184.3029324709
 21
171.6640301928
 31
0.0
  0
LINE
  5
120
330
1F
100
AcDbEntity
  8
0
  6
HIDDEN
 62
     7
370
     0
100
AcDbLine
 10
197.3029318078
 20
171.6640301928
 30
0.0
 11
190.8686346187
 21
171.6640301928
 31
0.0
  0
LINE
  5
121
330
1F
100
AcDbEntity
  8
0
  6
HIDDEN
 62
     7
370
     0
100
AcDbLine
 10
184.3029324709
 20
171.6640301928
 30
0.0
 11
176.3029320909
 21
171.6640301928
 31
0.0
  0
SPLINE
  5
122
330
1F
100
AcDbEntity
  8
0
  6
HIDDEN
 62
     7
370
     0
100
AcDbSpline
210
0.0
220
0.0
230
1.0
 70
     8
 71
     3
 72
     8
 73
     4
 74
     0
 42
0.00000001
 43
0.00000001
 40
0.0000002438860713
 40
0.0000002438860713
 40
0.0000002438860713
 40
0.0000002438860713
 40
0.0014006025853533
 40
0.0014006025853533
 40
0.0014006025853533
 40
0.0014006025853533
 10
140.602932117745
 20
161.065520771893
 30
0.0
 10
140.2201450451801
 20
161.2155922998687
 30
0.0
 10
139.836791645224
 20
161.3637495017862
 30
0.0
 10
139.4529321177451
 20
161.5101230135894
 30
0.0
  0
SPLINE
  5
123
330
1F
100
AcDbEntity
  8
0
  6
HIDDEN
 62
     7
370
     0
100
AcDbSpline
210
0.0
220
0.0
230
1.0
 70
     8
 71
     3
 72
     8
 73
     4
 74
     0
 42
0.00000001
 43
0.00000001
 40
0.0000002432968744
 40
0.0000002432968744
 40
0.0000002432968744
 40
0.0000002432968744
 40
0.0014011510532366
 40
0.0014011510532366
 40
0.0014011510532366
 40
0.0014011510532366
 10
139.4529321177451
 20
128.993516342246
 30
0.0
 10
139.8367965844816
 20
129.1404552547083
 30
0.0
 10
140.2201502063052
 20
129.2891876145262
 30
0.0
 10
140.602932117745
 20
129.4398449302867
 30
0.0
  0
LINE
  5
124
330
1F
100
AcDbEntity
  8
0
  6
HIDDEN
 62
     7
370
     0
100
AcDbLine
 10
140.6029312684
 20
163.2540308818
 30
0.0
 11
140.6029312684
 21
161.0655215517
 31
0.0
  0
LINE
  5
125
330
1F
100
AcDbEntity
  8
0
  6
HIDDEN
 62
     7
370
     0
100
AcDbLine
 10
145.5529312416
 20
163.2540308818
 30
0.0
 11
145.5529312416
 21
161.5515434131
 31
0.0
  0
LINE
  5
126
330
1F
100
AcDbEntity
  8
0
  6
HIDDEN
 62
     7
370
     0
100
AcDbLine
 10
149.5529318972
 20
127.2740297899
 30
0.0
 11
149.5529318972
 21
128.9594349399
 31
0.0
  0
LINE
  5
127
330
1F
100
AcDbEntity
  8
0
  6
HIDDEN
 62
     7
370
     0
100
AcDbLine
 10
140.6029312684
 20
127.2740297899
 30
0.0
 11
140.6029312684
 21
129.4398446515
 31
0.0
  0
LINE
  5
128
330
1F
100
AcDbEntity
  8
0
  6
HIDDEN
 62
     7
370
     0
100
AcDbLine
 10
216.3529339059
 20
155.2640301123
 30
0.0
 11
216.3529339059
 21
175.2640296653
 31
0.0
  0
LINE
  5
129
330
1F
100
AcDbEntity
  8
0
  6
HIDDEN
 62
     7
370
     0
100
AcDbLine
 10
224.8529325052
 20
155.2640301123
 30
0.0
 11
216.3529339059
 21
155.2640301123
 31
0.0
  0
LINE
  5
12A
330
1F
100
AcDbEntity
  8
0
  6
HIDDEN
 62
     7
370
     0
100
AcDbLine
 10
224.8529325052
 20
155.2640301123
 30
0.0
 11
224.8529325052
 21
175.2640296653
 31
0.0
  0
SPLINE
  5
12B
330
1F
100
AcDbEntity
  8
0
  6
HIDDEN
 62
     7
370
     0
100
AcDbSpline
210
0.0
220
0.0
230
1.0
 70
     8
 71
     3
 72
    20
 73
    16
 74
     0
 42
0.00000001
 43
0.00000001
 40
0.0
 40
0.0
 40
0.0
 40
0.0
 40
0.1118937660588015
 40
0.1774129271302838
 40
0.2490344406586638
 40
0.3297828527611439
 40
0.3985551987559857
 40
0.4998348836763462
 40
0.6137999595850898
 40
0.678965829222083
 40
0.749492297091645
 40
0.8296382249547725
 40
0.8980818627522149
 40
0.9994922062206665
 40
1.0
 40
1.0
 40
1.0
 40
1.0
 10
166.1016315965501
 20
121.6640741512357
 30
0.0
 10
166.0583275222841
 20
121.6774958729815
 30
0.0
 10
165.9896668377545
 20
121.6987766558699
 30
0.0
 10
165.5445896832325
 20
121.8020674984191
 30
0.0
 10
165.018036353536
 20
121.9153666265757
 30
0.0
 10
164.3326097570299
 20
122.038301615063
 30
0.0
 10
163.4392929898808
 20
122.1603362025691
 30
0.0
 10
162.3259332203932
 20
122.278071945997
 30
0.0
 10
161.2151589930023
 20
122.2900455281285
 30
0.0
 10
160.3304110561695
 20
122.2629906565245
 30
0.0
 10
159.6632135224238
 20
122.2150551707884
 30
0.0
 10
159.1219442154697
 20
122.1587679703873
 30
0.0
 10
158.7343520959807
 20
122.1136586131796
 30
0.0
 10
158.5404106514148
 20
122.0748723685257
 30
0.0
 10
158.6035769008452
 20
122.0855209296383
 30
0.0
 10
158.6038916184155
 20
122.0855739847003
 30
0.0
  0
LINE
  5
12C
330
1F
100
AcDbEntity
  8
0
  6
HIDDEN
 62
     7
370
     0
100
AcDbLine
 10
159.5129444076
 20
122.1963678435
 30
0.0
 11
159.6967893465
 21
122.214558436
 31
0.0
  0
SPLINE
  5
12D
330
1F
100
AcDbEntity
  8
0
  6
HIDDEN
 62
     7
370
     0
100
AcDbSpline
210
0.0
220
0.0
230
1.0
 70
     8
 71
     3
 72
    27
 73
    23
 74
     0
 42
0.00000001
 43
0.00000001
 40
0.0
 40
0.0
 40
0.0
 40
0.0
 40
0.0007927467393948
 40
0.0456750955519498
 40
0.1022565553776306
 40
0.1705343966966744
 40
0.2091259138833096
 40
0.2506530024255794
 40
0.3210985054185426
 40
0.386192020930071
 40
0.4266710458312354
 40
0.4648021693319891
 40
0.5006063032141552
 40
0.5451979713136759
 40
0.6016920178111408
 40
0.6700977042960143
 40
0.7088349315132787
 40
0.7505635156818893
 40
0.8222278490546188
 40
0.8877670218887093
 40
0.9472405655972526
 40
0.9999999999999999
 40
0.9999999999999999
 40
0.9999999999999999
 40
0.9999999999999999
 10
158.6035880072561
 20
168.4424475714742
 30
0.0
 10
158.6033700299467
 20
168.4424943170519
 30
0.0
 10
158.5908109944523
 20
168.4451876220161
 30
0.0
 10
158.6398971810111
 20
168.4333733345107
 30
0.0
 10
158.7849934548088
 20
168.4099245707513
 30
0.0
 10
159.058048016153
 20
168.3760194488402
 30
0.0
 10
159.3865734899847
 20
168.3424512076373
 30
0.0
 10
159.7793015474977
 20
168.3042683462023
 30
0.0
 10
160.3290293232652
 20
168.2653001875307
 30
0.0
 10
160.9550519606533
 20
168.2458385786296
 30
0.0
 10
161.498243800196
 20
168.2436534193856
 30
0.0
 10
161.9433125496917
 20
168.2521681413048
 30
0.0
 10
162.4097604041443
 20
168.2719516913066
 30
0.0
 10
162.947001329768
 20
168.3161115731404
 30
0.0
 10
163.5952142992842
 20
168.3885314080757
 30
0.0
 10
164.1807534444929
 20
168.4694290683492
 30
0.0
 10
164.6617225878529
 20
168.5475984247423
 30
0.0
 10
165.1071376737261
 20
168.6323690041509
 30
0.0
 10
165.5456371965979
 20
168.7261536349767
 30
0.0
 10
165.8846640244865
 20
168.8040563826022
 30
0.0
 10
166.0720191973775
 20
168.8542512283025
 30
0.0
 10
166.092509639664
 20
168.8609190903304
 30
0.0
 10
166.102141961321
 20
168.8640535757123
 30
0.0
  0
LINE
  5
12E
330
1F
100
AcDbEntity
  8
0
  6
HIDDEN
 62
     7
370
     0
100
AcDbLine
 10
236.4529314263
 20
145.8788378694
 30
0.0
 11
236.4529314263
 21
141.0640304856
 31
0.0
  0
SPLINE
  5
12F
330
1F
100
AcDbEntity
  8
0
  6
HIDDEN
 62
     7
370
     0
100
AcDbSpline
210
0.0
220
0.0
230
1.0
 70
     8
 71
     3
 72
    24
 73
    20
 74
     0
 42
0.00000001
 43
0.00000001
 40
0.0
 40
0.0
 40
0.0
 40
0.0
 40
0.1249999999999988
 40
0.1249999999999988
 40
0.2499999999999975
 40
0.2499999999999975
 40
0.3749999999999962
 40
0.3749999999999962
 40
0.4374999999999966
 40
0.4374999999999966
 40
0.4999999999999969
 40
0.4999999999999969
 40
0.6249999999999977
 40
0.6249999999999977
 40
0.7499999999999983
 40
0.7499999999999983
 40
0.8749999999999992
 40
0.8749999999999992
 40
1.0
 40
1.0
 40
1.0
 40
1.0
 10
236.4529321177451
 20
144.6492228272254
 30
0.0
 10
236.554505256586
 20
144.660861371359
 30
0.0
 10
236.6528202055172
 20
144.6448438056595
 30
0.0
 10
236.8408488004397
 20
144.5607176918724
 30
0.0
 10
236.9293618611477
 20
144.4922631150721
 30
0.0
 10
237.080875569867
 20
144.3113972289407
 30
0.0
 10
237.1453178067616
 20
144.1965360534117
 30
0.0
 10
237.21118622721
 20
144.000571033864
 30
0.0
 10
237.2282943167528
 20
143.9310095738495
 30
0.0
 10
237.2515799457457
 20
143.7832897710891
 30
0.0
 10
237.2576357779644
 20
143.7047780717512
 30
0.0
 10
237.2578550613922
 20
143.4646911597131
 30
0.0
 10
237.2342037561925
 20
143.2942772762837
 30
0.0
 10
237.1459463840928
 20
142.943203914712
 30
0.0
 10
237.0829641190444
 20
142.7662346526265
 30
0.0
 10
236.9299229450732
 20
142.4082389742788
 30
0.0
 10
236.8428933658859
 20
142.2338341926991
 30
0.0
 10
236.654510287875
 20
141.8908172414907
 30
0.0
 10
236.554515807646
 20
141.7251099673403
 30
0.0
 10
236.4529321177451
 20
141.570111715701
 30
0.0
  0
LINE
  5
130
330
1F
100
AcDbEntity
  8
0
  6
HIDDEN
 62
     7
370
     0
100
AcDbLine
 10
236.4529314263
 20
145.8788378694
 30
0.0
 11
236.4529314263
 21
148.9579490334
 31
0.0
  0
LINE
  5
131
330
1F
100
AcDbEntity
  8
0
  6
HIDDEN
 62
     7
370
     0
100
AcDbLine
 10
236.4529314263
 20
149.4640301861
 30
0.0
 11
236.4529314263
 21
148.9579490334
 31
0.0
  0
SPLINE
  5
132
330
1F
100
AcDbEntity
  8
0
  6
HIDDEN
 62
     7
370
     0
100
AcDbSpline
210
0.0
220
0.0
230
1.0
 70
     8
 71
     3
 72
    40
 73
    36
 74
     0
 42
0.00000001
 43
0.00000001
 40
0.0
 40
0.0
 40
0.0
 40
0.0
 40
0.1250000000000029
 40
0.1250000000000029
 40
0.1875000000000029
 40
0.1875000000000029
 40
0.2500000000000028
 40
0.2500000000000028
 40
0.3125000000000028
 40
0.3125000000000028
 40
0.3437500000000027
 40
0.3437500000000027
 40
0.3750000000000027
 40
0.3750000000000027
 40
0.4062500000000027
 40
0.4062500000000027
 40
0.4375000000000026
 40
0.4375000000000026
 40
0.4687500000000026
 40
0.4687500000000026
 40
0.5000000000000026
 40
0.5000000000000026
 40
0.5625000000000024
 40
0.5625000000000024
 40
0.5937500000000028
 40
0.5937500000000028
 40
0.625000000000003
 40
0.625000000000003
 40
0.6875000000000024
 40
0.6875000000000024
 40
0.7500000000000019
 40
0.7500000000000019
 40
0.875000000000001
 40
0.875000000000001
 40
1.0
 40
1.0
 40
1.0
 40
1.0
 10
236.4529321177451
 20
144.6492228272254
 30
0.0
 10
235.8868045931493
 20
144.7651692465463
 30
0.0
 10
235.3176434656695
 20
144.8447117991164
 30
0.0
 10
234.4584339036167
 20
144.8969956667036
 30
0.0
 10
234.1710955897936
 20
144.9029685636179
 30
0.0
 10
233.5939182028239
 20
144.8842424650261
 30
0.0
 10
233.3038919329207
 20
144.8594224177922
 30
0.0
 10
232.7335549424442
 20
144.7666286731889
 30
0.0
 10
232.4492221952136
 20
144.6977842204882
 30
0.0
 10
232.0445617490625
 20
144.5494804496612
 30
0.0
 10
231.9131927881744
 20
144.4925659357186
 30
0.0
 10
231.6591251705449
 20
144.360647504944
 30
0.0
 10
231.5354196426449
 20
144.2849258385437
 30
0.0
 10
231.3039285053584
 20
144.1142904586816
 30
0.0
 10
231.1973420078008
 20
144.0204941949236
 30
0.0
 10
231.0052400086864
 20
143.8144607483615
 30
0.0
 10
230.9200415181529
 20
143.7018261608347
 30
0.0
 10
230.7823948249133
 20
143.4699833780847
 30
0.0
 10
230.7280795214727
 20
143.3482537477732
 30
0.0
 10
230.6543469712305
 20
143.1012197907707
 30
0.0
 10
230.635664480045
 20
142.9796937230257
 30
0.0
 10
230.6339660109072
 20
142.6221075899744
 30
0.0
 10
230.709513296971
 20
142.401859775704
 30
0.0
 10
230.9155200268794
 20
142.137414960379
 30
0.0
 10
231.0000549496058
 20
142.0585580100303
 30
0.0
 10
231.1919154727753
 20
141.9214075667932
 30
0.0
 10
231.2985446933062
 20
141.8631026756585
 30
0.0
 10
231.6463998521257
 20
141.7112263199299
 30
0.0
 10
231.9042446487936
 20
141.6444658077247
 30
0.0
 10
232.4484210159011
 20
141.5458741969597
 30
0.0
 10
232.7310295728151
 20
141.5152533514767
 30
0.0
 10
233.5823209300026
 20
141.4535299402709
 30
0.0
 10
234.1665146070142
 20
141.450396408841
 30
0.0
 10
235.3159187670748
 20
141.4801863363437
 30
0.0
 10
235.886235404798
 20
141.5142769674251
 30
0.0
 10
236.452932117745
 20
141.570111715701
 30
0.0
  0
LINE
  5
133
330
1F
100
AcDbEntity
  8
0
  6
HIDDEN
 62
     7
370
     0
100
AcDbLine
 10
258.2785430177
 20
146.8390303379
 30
0.0
 11
258.2785430177
 21
143.6890303338
 31
0.0
  0
LINE
  5
134
330
1F
100
AcDbEntity
  8
0
  6
HIDDEN
 62
     7
370
     0
100
AcDbLine
 10
256.3622611387
 20
146.8390303379
 30
0.0
 11
256.3622611387
 21
143.6890303338
 31
0.0
  0
CIRCLE
  5
135
330
1F
100
AcDbEntity
  8
0
  6
HIDDEN
 62
     7
370
     0
100
AcDbCircle
 10
251.3529321177
 20
165.2640303359
 30
0.0
 40
5.024999999999977
  0
CIRCLE
  5
136
330
1F
100
AcDbEntity
  8
0
  6
HIDDEN
 62
     7
370
     0
100
AcDbCircle
 10
231.3529321177
 20
165.2640303359
 30
0.0
 40
5.024999999999977
  0
LINE
  5
137
330
1F
100
AcDbEntity
  8
0
  6
HIDDEN
 62
     7
370
     0
100
AcDbLine
 10
261.352935694
 20
155.2640301123
 30
0.0
 11
224.8529325052
 21
155.2640301123
 31
0.0
  0
CIRCLE
  5
138
330
1F
100
AcDbEntity
  8
0
  6
HIDDEN
 62
     7
370
     0
100
AcDbCircle
 10
231.3529321177
 20
125.2640303359
 30
0.0
 40
4.249999999999972
  0
CIRCLE
  5
139
330
1F
100
AcDbEntity
  8
0
  6
HIDDEN
 62
     7
370
     0
100
AcDbCircle
 10
231.3529321177
 20
125.2640303359
 30
0.0
 40
5.025000000000006
  0
CIRCLE
  5
13A
330
1F
100
AcDbEntity
  8
0
  6
HIDDEN
 62
     7
370
     0
100
AcDbCircle
 10
251.3529321177
 20
125.2640303359
 30
0.0
 40
5.025000000000006
  0
CIRCLE
  5
13B
330
1F
100
AcDbEntity
  8
0
  6
HIDDEN
 62
     7
370
     0
100
AcDbCircle
 10
251.3529321177
 20
125.2640303359
 30
0.0
 40
4.249999999999972
  0
LINE
  5
13C
330
1F
100
AcDbEntity
  8
0
  6
HIDDEN
 62
     7
370
     0
100
AcDbLine
 10
253.3529343827
 20
143.2640302409
 30
0.0
 11
253.3529343827
 21
131.2640299037
 31
0.0
  0
LINE
  5
13D
330
1F
100
AcDbEntity
  8
0
  6
HIDDEN
 62
     7
370
     0
100
AcDbLine
 10
187.442932166
 20
165.4450696841
 30
0.0
 11
187.442932166
 21
165.114031075
 31
0.0
  0
LINE
  5
13E
330
1F
100
AcDbEntity
  8
0
  6
HIDDEN
 62
     7
370
     0
100
AcDbLine
 10
191.2629323824
 20
165.4450696841
 30
0.0
 11
191.2629323824
 21
165.114031075
 31
0.0
  0
LINE
  5
13F
330
1F
100
AcDbEntity
  8
0
  6
HIDDEN
 62
     7
370
     0
100
AcDbLine
 10
192.744864039
 20
169.722719951
 30
0.0
 11
192.744864039
 21
165.114031075
 31
0.0
  0
CIRCLE
  5
140
330
1F
100
AcDbEntity
  8
0
  6
HIDDEN
 62
     7
370
     0
100
AcDbCircle
 10
178.3529321177
 20
145.2640303359
 30
0.0
 40
5.0
  0
LINE
  5
141
330
1F
100
AcDbEntity
  8
0
  6
HIDDEN
 62
     7
370
     0
100
AcDbLine
 10
261.352935694
 20
118.8065175846
 30
0.0
 11
217.104220651
 21
118.8065175846
 31
0.0
  0
LINE
  5
142
330
1F
100
AcDbEntity
  8
0
  6
HIDDEN
 62
     7
370
     0
100
AcDbLine
 10
215.1470052822
 20
132.2640300676
 30
0.0
 11
261.352935694
 21
132.2640300676
 31
0.0
  0
LINE
  5
143
330
1F
100
AcDbEntity
  8
0
  6
HIDDEN
 62
     7
370
     0
100
AcDbLine
 10
216.0063366218
 20
137.2640299559
 30
0.0
 11
261.352935694
 21
137.2640299559
 31
0.0
  0
LINE
  5
144
330
1F
100
AcDbEntity
  8
0
  6
HIDDEN
 62
     7
370
     0
100
AcDbLine
 10
261.352935694
 20
164.6289479867
 30
0.0
 11
217.104220651
 21
164.6289479867
 31
0.0
  0
ARC
  5
145
330
1F
100
AcDbEntity
  8
0
  6
HIDDEN
 62
     7
370
     0
100
AcDbCircle
 10
259.3529321177
 20
137.2640303359
 30
0.0
 40
5.00000000000001
100
AcDbArc
 50
224.5350900783
 51
270.1828922008
  0
ARC
  5
146
330
1F
100
AcDbEntity
  8
0
  6
HIDDEN
 62
     7
370
     0
100
AcDbCircle
 10
259.3529321177
 20
137.2640303359
 30
0.0
 40
4.999999999999996
100
AcDbArc
 50
66.4218215218
 51
135.8306943233
  0
ARC
  5
147
330
1F
100
AcDbEntity
  8
0
  6
HIDDEN
 62
     7
370
     0
100
AcDbCircle
 10
259.3529321177
 20
137.2640303359
 30
0.0
 40
5.000000000000009
100
AcDbArc
 50
270.1828922008
 51
293.5781784782
  0
LINE
  5
148
330
1F
100
AcDbEntity
  8
0
  6
HIDDEN
 62
     7
370
     0
100
AcDbLine
 10
255.8069023116
 20
133.757174848
 30
0.0
 11
257.1970614417
 21
135.1598267392
 31
0.0
  0
LINE
  5
149
330
1F
100
AcDbEntity
  8
0
  6
HIDDEN
 62
     7
370
     0
100
AcDbLine
 10
257.1836727484
 20
139.3544272468
 30
0.0
 11
255.7845878227
 21
140.7481756941
 31
0.0
  0
LINE
  5
14A
330
1F
100
AcDbEntity
  8
0
  6
HIDDEN
 62
     7
370
     0
100
AcDbLine
 10
263.1333711369
 20
139.7729091294
 30
0.0
 11
262.7361806853
 21
139.3721517123
 31
0.0
  0
LINE
  5
14B
330
1F
100
AcDbEntity
  8
0
  6
HIDDEN
 62
     7
370
     0
100
AcDbLine
 10
262.7495693787
 20
135.1775507391
 30
0.0
 11
263.1493079288
 21
134.7793376953
 31
0.0
  0
LINE
  5
14C
330
1F
100
AcDbEntity
  8
0
  6
HIDDEN
 62
     7
370
     0
100
AcDbLine
 10
257.1917044743
 20
135.1571212471
 30
0.0
 11
262.7549486978
 21
135.1748787746
 31
0.0
  0
LINE
  5
14D
330
1F
100
AcDbEntity
  8
0
  6
HIDDEN
 62
     7
370
     0
100
AcDbLine
 10
262.7415376528
 20
139.3748576701
 30
0.0
 11
257.1783008798
 21
139.3570992112
 31
0.0
  0
ARC
  5
14E
330
1F
100
AcDbEntity
  8
0
  6
HIDDEN
 62
     7
370
     0
100
AcDbCircle
 10
259.3529321177
 20
153.2640303359
 30
0.0
 40
4.99999999999998
100
AcDbArc
 50
224.1693056767
 51
269.8171077992
  0
ARC
  5
14F
330
1F
100
AcDbEntity
  8
0
  6
HIDDEN
 62
     7
370
     0
100
AcDbCircle
 10
259.3529321177
 20
153.2640303359
 30
0.0
 40
5.000000000000029
100
AcDbArc
 50
66.4218215218
 51
135.4649099217
  0
ARC
  5
150
330
1F
100
AcDbEntity
  8
0
  6
HIDDEN
 62
     7
370
     0
100
AcDbCircle
 10
259.3529321177
 20
153.2640303359
 30
0.0
 40
4.999999999999996
100
AcDbArc
 50
269.8171077992
 51
293.5781784782
  0
LINE
  5
151
330
1F
100
AcDbEntity
  8
0
  6
HIDDEN
 62
     7
370
     0
100
AcDbLine
 10
255.7845878227
 20
149.7798849777
 30
0.0
 11
257.1836727484
 21
151.173633425
 31
0.0
  0
LINE
  5
152
330
1F
100
AcDbEntity
  8
0
  6
HIDDEN
 62
     7
370
     0
100
AcDbLine
 10
257.1970614417
 20
155.3682339326
 30
0.0
 11
255.8069023116
 21
156.7708858237
 31
0.0
  0
LINE
  5
153
330
1F
100
AcDbEntity
  8
0
  6
HIDDEN
 62
     7
370
     0
100
AcDbLine
 10
263.1493079288
 20
155.7487229765
 30
0.0
 11
262.7495693787
 21
155.3505099327
 31
0.0
  0
LINE
  5
154
330
1F
100
AcDbEntity
  8
0
  6
HIDDEN
 62
     7
370
     0
100
AcDbLine
 10
262.7361806853
 20
151.1559089594
 30
0.0
 11
263.1333711369
 21
150.7551515423
 31
0.0
  0
LINE
  5
155
330
1F
100
AcDbEntity
  8
0
  6
HIDDEN
 62
     7
370
     0
100
AcDbLine
 10
257.1783008798
 20
151.1709614605
 30
0.0
 11
262.7415376528
 21
151.1532030016
 31
0.0
  0
LINE
  5
156
330
1F
100
AcDbEntity
  8
0
  6
HIDDEN
 62
     7
370
     0
100
AcDbLine
 10
262.7549486978
 20
155.3531818971
 30
0.0
 11
257.1917044743
 21
155.3709394247
 31
0.0
  0
LINE
  5
157
330
1F
100
AcDbEntity
  8
0
  6
HIDDEN
 62
     7
370
     0
100
AcDbLine
 10
253.3529343827
 20
147.2640304309
 30
0.0
 11
261.352935694
 21
147.2640304309
 31
0.0
  0
LINE
  5
158
330
1F
100
AcDbEntity
  8
0
  6
HIDDEN
 62
     7
370
     0
100
AcDbLine
 10
261.352935694
 20
159.264030768
 30
0.0
 11
253.3529343827
 21
159.264030768
 31
0.0
  0
ARC
  5
159
330
1F
100
AcDbEntity
  8
0
  6
HIDDEN
 62
     7
370
     0
100
AcDbCircle
 10
259.3529321177
 20
153.2640303359
 30
0.0
 40
5.000000000000036
100
AcDbArc
 50
224.4270040008
 51
270.0
  0
ARC
  5
15A
330
1F
100
AcDbEntity
  8
0
  6
HIDDEN
 62
     7
370
     0
100
AcDbCircle
 10
259.3529321177
 20
153.2640303359
 30
0.0
 40
5.000000000000056
100
AcDbArc
 50
66.4218215218
 51
135.5729959992
  0
ARC
  5
15B
330
1F
100
AcDbEntity
  8
0
  6
HIDDEN
 62
     7
370
     0
100
AcDbCircle
 10
259.3529321177
 20
153.2640303359
 30
0.0
 40
5.0
100
AcDbArc
 50
270.0
 51
293.5781784782
  0
LINE
  5
15C
330
1F
100
AcDbEntity
  8
0
  6
HIDDEN
 62
     7
370
     0
100
AcDbLine
 10
253.3529343827
 20
149.7640301421
 30
0.0
 11
255.7822185381
 21
149.7640301421
 31
0.0
  0
LINE
  5
15D
330
1F
100
AcDbEntity
  8
0
  6
HIDDEN
 62
     7
370
     0
100
AcDbLine
 10
255.7822185381
 20
156.7640303582
 30
0.0
 11
253.3529343827
 21
156.7640303582
 31
0.0
  0
LINE
  5
15E
330
1F
100
AcDbEntity
  8
0
  6
HIDDEN
 62
     7
370
     0
100
AcDbLine
 10
253.3529343827
 20
131.2640299037
 30
0.0
 11
261.352935694
 21
131.2640299037
 31
0.0
  0
LINE
  5
15F
330
1F
100
AcDbEntity
  8
0
  6
HIDDEN
 62
     7
370
     0
100
AcDbLine
 10
261.352935694
 20
143.2640302409
 30
0.0
 11
253.3529343827
 21
143.2640302409
 31
0.0
  0
ARC
  5
160
330
1F
100
AcDbEntity
  8
0
  6
HIDDEN
 62
     7
370
     0
100
AcDbCircle
 10
259.3529321177
 20
137.2640303359
 30
0.0
 40
5.000000000000036
100
AcDbArc
 50
224.4270040008
 51
270.0
  0
ARC
  5
161
330
1F
100
AcDbEntity
  8
0
  6
HIDDEN
 62
     7
370
     0
100
AcDbCircle
 10
259.3529321177
 20
137.2640303359
 30
0.0
 40
5.000000000000036
100
AcDbArc
 50
66.4218215218
 51
135.5729959992
  0
ARC
  5
162
330
1F
100
AcDbEntity
  8
0
  6
HIDDEN
 62
     7
370
     0
100
AcDbCircle
 10
259.3529321177
 20
137.2640303359
 30
0.0
 40
5.0
100
AcDbArc
 50
270.0
 51
293.5781784782
  0
LINE
  5
163
330
1F
100
AcDbEntity
  8
0
  6
HIDDEN
 62
     7
370
     0
100
AcDbLine
 10
253.3529343827
 20
133.7640303135
 30
0.0
 11
255.7822185381
 21
133.7640303135
 31
0.0
  0
LINE
  5
164
330
1F
100
AcDbEntity
  8
0
  6
HIDDEN
 62
     7
370
     0
100
AcDbLine
 10
255.7822185381
 20
140.7640305296
 30
0.0
 11
253.3529343827
 21
140.7640305296
 31
0.0
  0
LINE
  5
165
330
1F
100
AcDbEntity
  8
0
  6
HIDDEN
 62
     7
370
     0
100
AcDbLine
 10
171.3529321177
 20
119.9401066587
 30
0.0
 11
171.4470929555
 21
120.6100963935
 31
0.0
  0
LINE
  5
166
330
1F
100
AcDbEntity
  8
0
  6
HIDDEN
 62
     7
370
     0
100
AcDbLine
 10
171.4470929555
 20
169.9179642782
 30
0.0
 11
171.3529321177
 21
170.5879540131
 31
0.0
  0
ARC
  5
167
330
1F
100
AcDbEntity
  8
0
  6
HIDDEN
 62
     7
370
     0
100
AcDbCircle
 10
170.8529321177
 20
120.6935994741
 30
0.0
 40
0.6000000000000227
100
AcDbArc
 50
352.0
 51
0.0
  0
ARC
  5
168
330
1F
100
AcDbEntity
  8
0
  6
HIDDEN
 62
     7
370
     0
100
AcDbCircle
 10
170.8529321177
 20
120.6935994741
 30
0.0
 40
0.6000000000000227
100
AcDbArc
 50
0.0
 51
33.5573097619
  0
ARC
  5
169
330
1F
100
AcDbEntity
  8
0
  6
HIDDEN
 62
     7
370
     0
100
AcDbCircle
 10
170.8529321177
 20
169.8344611976
 30
0.0
 40
0.6000000000000258
100
AcDbArc
 50
348.75
 51
8.0
  0
LWPOLYLINE
  5
16A
330
1F
100
AcDbEntity
  8
0
  6
HIDDEN
 62
     7
370
     0
100
AcDbPolyline
 90
        3
 70
   128
 43
0.0
 10
171.4414032876
 20
169.717407687
 10
171.4072598379
 20
169.6048517659
 10
171.3529321177
 20
169.5027993009
  0
LINE
  5
16B
330
1F
100
AcDbEntity
  8
0
  6
HIDDEN
 62
     7
370
     0
100
AcDbLine
 10
171.4529321152
 20
120.6935987756
 30
0.0
 11
171.4529321152
 21
169.8344618961
 31
0.0
  0
ARC
  5
16C
330
1F
100
AcDbEntity
  8
0
  6
HIDDEN
 62
     7
370
     0
100
AcDbCircle
 10
154.435367683
 20
125.8640303359
 30
0.0
 40
0.6000000000000084
100
AcDbArc
 50
210.0
 51
270.0
  0
ARC
  5
16D
330
1F
100
AcDbEntity
  8
0
  6
HIDDEN
 62
     7
370
     0
100
AcDbCircle
 10
154.435367683
 20
164.6640303359
 30
0.0
 40
0.6000000000000013
100
AcDbArc
 50
90.0
 51
150.0
  0
LINE
  5
16E
330
1F
100
AcDbEntity
  8
0
  6
HIDDEN
 62
     7
370
     0
100
AcDbLine
 10
154.4353681429
 20
125.2640307829
 30
0.0
 11
158.627039641
 21
125.2640307829
 31
0.0
  0
LINE
  5
16F
330
1F
100
AcDbEntity
  8
0
  6
HIDDEN
 62
     7
370
     0
100
AcDbLine
 10
158.627039641
 20
165.2640298888
 30
0.0
 11
154.4353681429
 21
165.2640298888
 31
0.0
  0
ARC
  5
170
330
1F
100
AcDbEntity
  8
0
  6
HIDDEN
 62
     7
370
     0
100
AcDbCircle
 10
165.1079341193
 20
133.2640303359
 30
0.0
 40
7.999999999999991
100
AcDbArc
 50
276.8808995564
 51
321.3178125465
  0
ARC
  5
171
330
1F
100
AcDbEntity
  8
0
  6
HIDDEN
 62
     7
370
     0
100
AcDbCircle
 10
165.1079341193
 20
157.2640303359
 30
0.0
 40
7.999999999999976
100
AcDbArc
 50
38.6821874535
 51
83.11532329
  0
LINE
  5
172
330
1F
100
AcDbEntity
  8
0
  6
HIDDEN
 62
     7
370
     0
100
AcDbLine
 10
153.9157516135
 20
164.9640303984
 30
0.0
 11
152.3569076134
 21
162.2640312597
 31
0.0
  0
LINE
  5
173
330
1F
100
AcDbEntity
  8
0
  6
HIDDEN
 62
     7
370
     0
100
AcDbLine
 10
152.3569076134
 20
128.264029412
 30
0.0
 11
153.9157516135
 21
125.5640302733
 31
0.0
  0
LINE
  5
174
330
1F
100
AcDbEntity
  8
0
  6
HIDDEN
 62
     7
370
     0
100
AcDbLine
 10
261.352935694
 20
159.264030768
 30
0.0
 11
253.3529343827
 21
159.264030768
 31
0.0
  0
LINE
  5
175
330
1F
100
AcDbEntity
  8
0
  6
HIDDEN
 62
     7
370
     0
100
AcDbLine
 10
253.3529343827
 20
147.2640304309
 30
0.0
 11
261.352935694
 21
147.2640304309
 31
0.0
  0
ARC
  5
176
330
1F
100
AcDbEntity
  8
0
  6
HIDDEN
 62
     7
370
     0
100
AcDbCircle
 10
179.8029321177
 20
129.5390303359
 30
0.0
 40
1.5
100
AcDbArc
 50
238.2116693829
 51
0.0
  0
ARC
  5
177
330
1F
100
AcDbEntity
  8
0
  6
HIDDEN
 62
     7
370
     0
100
AcDbCircle
 10
179.8029321177
 20
160.9890303359
 30
0.0
 40
1.500000000000016
100
AcDbArc
 50
0.0
 51
121.7883306171
  0
LINE
  5
178
330
1F
100
AcDbEntity
  8
0
  6
HIDDEN
 62
     7
370
     0
100
AcDbLine
 10
149.5529318972
 20
128.264029412
 30
0.0
 11
152.3569076134
 21
128.264029412
 31
0.0
  0
LINE
  5
179
330
1F
100
AcDbEntity
  8
0
  6
HIDDEN
 62
     7
370
     0
100
AcDbLine
 10
152.3569076134
 20
162.2640312597
 30
0.0
 11
145.5529312416
 21
162.2640312597
 31
0.0
  0
LINE
  5
17A
330
1F
100
AcDbEntity
  8
0
  6
HIDDEN
 62
     7
370
     0
100
AcDbLine
 10
171.3529321177
 20
128.264029412
 30
0.0
 11
179.0127580798
 21
128.264029412
 31
0.0
  0
LINE
  5
17B
330
1F
100
AcDbEntity
  8
0
  6
HIDDEN
 62
     7
370
     0
100
AcDbLine
 10
179.0127580798
 20
162.2640312597
 30
0.0
 11
171.3529321177
 21
162.2640312597
 31
0.0
  0
LINE
  5
17C
330
1F
100
AcDbEntity
  8
0
  6
HIDDEN
 62
     7
370
     0
100
AcDbLine
 10
236.6753983124
 20
145.8986456454
 30
0.0
 11
253.3529343827
 21
150.7726846211
 31
0.0
  0
LINE
  5
17D
330
1F
100
AcDbEntity
  8
0
  6
HIDDEN
 62
     7
370
     0
100
AcDbLine
 10
253.3529343827
 20
155.1483738184
 30
0.0
 11
231.7709344252
 21
148.8409963384
 31
0.0
  0
LINE
  5
17E
330
1F
100
AcDbEntity
  8
0
  6
HIDDEN
 62
     7
370
     0
100
AcDbLine
 10
190.6529328598
 20
135.7640306413
 30
0.0
 11
193.1529323383
 21
135.7640306413
 31
0.0
  0
LINE
  5
17F
330
1F
100
AcDbEntity
  8
0
  6
HIDDEN
 62
     7
370
     0
100
AcDbLine
 10
193.1529323383
 20
154.7640300304
 30
0.0
 11
190.6529328598
 21
154.7640300304
 31
0.0
  0
LINE
  5
180
330
1F
100
AcDbEntity
  8
0
  6
HIDDEN
 62
     7
370
     0
100
AcDbLine
 10
181.3029319792
 20
136.2640307233
 30
0.0
 11
181.8029320611
 21
136.7640298739
 31
0.0
  0
LINE
  5
181
330
1F
100
AcDbEntity
  8
0
  6
HIDDEN
 62
     7
370
     0
100
AcDbLine
 10
181.8029320611
 20
153.7640307978
 30
0.0
 11
181.3029319792
 21
154.2640299484
 31
0.0
  0
LINE
  5
182
330
1F
100
AcDbEntity
  8
0
  6
HIDDEN
 62
     7
370
     0
100
AcDbLine
 10
181.8029320611
 20
136.7640298739
 30
0.0
 11
190.6529328598
 21
136.7640298739
 31
0.0
  0
LINE
  5
183
330
1F
100
AcDbEntity
  8
0
  6
HIDDEN
 62
     7
370
     0
100
AcDbLine
 10
190.6529328598
 20
153.7640307978
 30
0.0
 11
181.8029320611
 21
153.7640307978
 31
0.0
  0
LINE
  5
184
330
1F
100
AcDbEntity
  8
0
  6
HIDDEN
 62
     7
370
     0
100
AcDbLine
 10
176.3029320909
 20
176.7640308425
 30
0.0
 11
176.3029320909
 21
171.6640301928
 31
0.0
  0
LINE
  5
185
330
1F
100
AcDbEntity
  8
0
  6
HIDDEN
 62
     7
370
     0
100
AcDbLine
 10
166.5373699552
 20
121.1846590921
 30
0.0
 11
166.1029377765
 21
121.6637258366
 31
0.0
  0
LINE
  5
186
330
1F
100
AcDbEntity
  8
0
  6
HIDDEN
 62
     7
370
     0
100
AcDbLine
 10
158.6029342188
 20
122.0854137972
 30
0.0
 11
158.1205007433
 21
121.6063470528
 31
0.0
  0
LINE
  5
187
330
1F
100
AcDbEntity
  8
0
  6
HIDDEN
 62
     7
370
     0
100
AcDbLine
 10
158.12037874
 20
168.921708031
 30
0.0
 11
158.6029295622
 21
168.4425872699
 31
0.0
  0
LINE
  5
188
330
1F
100
AcDbEntity
  8
0
  6
HIDDEN
 62
     7
370
     0
100
AcDbLine
 10
166.1029321885
 20
168.8642864064
 30
0.0
 11
166.5374742633
 21
169.3434053049
 31
0.0
  0
LINE
  5
189
330
1F
100
AcDbEntity
  8
0
  6
HIDDEN
 62
     7
370
     0
100
AcDbLine
 10
236.4529314263
 20
141.0640304856
 30
0.0
 11
238.9765473826
 21
145.2640303359
 31
0.0
  0
LINE
  5
18A
330
1F
100
AcDbEntity
  8
0
  6
HIDDEN
 62
     7
370
     0
100
AcDbLine
 10
238.9765473826
 20
145.2640303359
 30
0.0
 11
236.4529314263
 21
149.4640301861
 31
0.0
  0
LINE
  5
18B
330
1F
100
AcDbEntity
  8
0
  6
HIDDEN
 62
     7
370
     0
100
AcDbLine
 10
193.1529323383
 20
141.0640304856
 30
0.0
 11
236.4529314263
 21
141.0640304856
 31
0.0
  0
LINE
  5
18C
330
1F
100
AcDbEntity
  8
0
  6
HIDDEN
 62
     7
370
     0
100
AcDbLine
 10
236.4529314263
 20
149.4640301861
 30
0.0
 11
193.1529323383
 21
149.4640301861
 31
0.0
  0
LINE
  5
18D
330
1F
100
AcDbEntity
  8
0
  6
HIDDEN
 62
     7
370
     0
100
AcDbLine
 10
166.1029321885
 20
165.1994314924
 30
0.0
 11
166.1029321885
 21
168.8639939711
 31
0.0
  0
LINE
  5
18E
330
1F
100
AcDbEntity
  8
0
  6
HIDDEN
 62
     7
370
     0
100
AcDbLine
 10
158.6029323562
 20
168.4424438462
 30
0.0
 11
158.6029323562
 21
165.2596526727
 31
0.0
  0
LINE
  5
18F
330
1F
100
AcDbEntity
  8
0
  6
HIDDEN
 62
     7
370
     0
100
AcDbLine
 10
166.1029321885
 20
121.6642082617
 30
0.0
 11
166.1029321885
 21
125.3286291793
 31
0.0
  0
LINE
  5
190
330
1F
100
AcDbEntity
  8
0
  6
HIDDEN
 62
     7
370
     0
100
AcDbLine
 10
158.6029323562
 20
125.268407999
 30
0.0
 11
158.6029323562
 21
122.0857360348
 31
0.0
  0
LINE
  5
191
330
1F
100
AcDbEntity
  8
0
  6
HIDDEN
 62
     7
370
     0
100
AcDbLine
 10
261.352935694
 20
148.614030233
 30
0.0
 11
258.2785430177
 21
146.8390303379
 31
0.0
  0
LINE
  5
192
330
1F
100
AcDbEntity
  8
0
  6
HIDDEN
 62
     7
370
     0
100
AcDbLine
 10
258.2785430177
 20
143.6890303338
 30
0.0
 11
261.352935694
 21
141.9140304387
 31
0.0
  0
LINE
  5
193
330
1F
100
AcDbEntity
  8
0
  6
HIDDEN
 62
     7
370
     0
100
AcDbLine
 10
258.2785430177
 20
146.8390303379
 30
0.0
 11
256.3622611387
 21
146.8390303379
 31
0.0
  0
LINE
  5
194
330
1F
100
AcDbEntity
  8
0
  6
HIDDEN
 62
     7
370
     0
100
AcDbLine
 10
256.3622611387
 20
143.6890303338
 30
0.0
 11
258.2785430177
 21
143.6890303338
 31
0.0
  0
LINE
  5
195
330
1F
100
AcDbEntity
  8
0
  6
HIDDEN
 62
     7
370
     0
100
AcDbLine
 10
256.3622611387
 20
146.8390303379
 30
0.0
 11
255.452932678
 21
145.2640303359
 31
0.0
  0
LINE
  5
196
330
1F
100
AcDbEntity
  8
0
  6
HIDDEN
 62
     7
370
     0
100
AcDbLine
 10
255.452932678
 20
145.2640303359
 30
0.0
 11
256.3622611387
 21
143.6890303338
 31
0.0
  0
LINE
  5
197
330
1F
100
AcDbEntity
  8
0
  6
HIDDEN
 62
     7
370
     0
100
AcDbLine
 10
231.7709344252
 20
141.6870643333
 30
0.0
 11
253.3529343827
 21
135.3796868533
 31
0.0
  0
LINE
  5
198
330
1F
100
AcDbEntity
  8
0
  6
HIDDEN
 62
     7
370
     0
100
AcDbLine
 10
253.3529343827
 20
139.7553760506
 30
0.0
 11
236.6753983124
 21
144.6294150263
 31
0.0
  0
LINE
  5
199
330
1F
100
AcDbEntity
  8
0
  6
HIDDEN
 62
     7
370
     0
100
AcDbLine
 10
261.352935694
 20
143.2640302409
 30
0.0
 11
253.3529343827
 21
143.2640302409
 31
0.0
  0
LINE
  5
19A
330
1F
100
AcDbEntity
  8
0
  6
HIDDEN
 62
     7
370
     0
100
AcDbLine
 10
253.3529343827
 20
131.2640299037
 30
0.0
 11
261.352935694
 21
131.2640299037
 31
0.0
  0
DIMENSION
  5
19B
330
1F
100
AcDbEntity
  8
VERMASSUNG
100
AcDbDimension
  2
*D1
 10
261.3529321177
 20
182.3951245937
 30
0.0
 11
216.3529321177
 21
182.3951245937
 31
0.0
 70
   160
 71
     2
 42
-1.0
  3
SLDDIMSTYLE0
100
AcDbAlignedDimension
 13
171.3529321177
 23
176.4640303359
 33
0.0
 14
261.3529321177
 24
175.2640303359
 34
0.0
100
AcDbRotatedDimension
  0
DIMENSION
  5
1A6
330
1F
100
AcDbEntity
  8
VERMASSUNG
100
AcDbDimension
  2
*D2
 10
261.3529321177
 20
188.3951245937
 30
0.0
 11
200.4029321177
 21
188.3951245937
 31
0.0
 70
   160
 71
     2
 42
-1.0
  3
SLDDIMSTYLE0
100
AcDbAlignedDimension
 13
139.4529321177
 23
165.2400908405
 33
0.0
 14
261.3529321177
 24
175.2640303359
 34
0.0
100
AcDbRotatedDimension
  0
DIMENSION
  5
1B0
330
1F
100
AcDbEntity
  8
VERMASSUNG
100
AcDbDimension
  2
*D3
 10
133.6475622969
 20
113.7640303359
 30
0.0
 11
133.6475622969
 21
145.2640303359
 31
0.0
 70
   160
  1
HSK T %%c<>
 71
     2
 42
-1.0
  3
SLDDIMSTYLE0
100
AcDbAlignedDimension
 13
171.6529321177
 23
176.7640303359
 33
0.0
 14
171.6529321177
 24
113.7640303359
 34
0.0
 50
90.0
100
AcDbRotatedDimension
  0
LINE
  5
1BC
330
1F
100
AcDbEntity
  8
VERMASSUNG
  6
CENTERX2
370
     0
100
AcDbLine
 10
135.318668604
 20
145.2640303359
 30
0.0
 11
266.3912242687
 21
145.2640303359
 31
0.0
  0
LINE
  5
1BD
330
1F
100
AcDbEntity
  8
0
  6
Continuous
 62
     7
370
    15
100
AcDbLine
 10
63.0267605159
 20
160.7640300825
 30
0.0
 11
64.0267605634
 21
161.7640302465
 31
0.0
  0
LINE
  5
1BE
330
1F
100
AcDbEntity
  8
0
  6
Continuous
 62
     7
370
    15
100
AcDbLine
 10
64.0267605634
 20
168.7640295312
 30
0.0
 11
63.0267605159
 21
169.7640296951
 31
0.0
  0
LINE
  5
1BF
330
1F
100
AcDbEntity
  8
0
  6
Continuous
 62
     7
370
    15
100
AcDbLine
 10
65.0267606109
 20
129.7640305892
 30
0.0
 11
64.0267605634
 21
128.7640304253
 31
0.0
  0
LINE
  5
1C0
330
1F
100
AcDbEntity
  8
0
  6
Continuous
 62
     7
370
    15
100
AcDbLine
 10
64.0267605634
 20
121.7640311405
 30
0.0
 11
65.0267606109
 21
120.7640309766
 31
0.0
  0
CIRCLE
  5
1C1
330
1F
100
AcDbEntity
  8
0
  6
Continuous
 62
     7
370
    15
100
AcDbCircle
 10
76.2217035459
 20
137.278888833
 30
0.0
 40
3.248311939234191
  0
CIRCLE
  5
1C2
330
1F
100
AcDbEntity
  8
0
  6
Continuous
 62
     7
370
    15
100
AcDbCircle
 10
76.2211718014
 20
137.2781386044
 30
0.0
 40
2.498892533312214
  0
CIRCLE
  5
1C3
330
1F
100
AcDbEntity
  8
0
  6
Continuous
 62
     7
370
    15
100
AcDbCircle
 10
76.200521326
 20
137.2765452246
 30
0.0
 40
2.099028648510802
  0
ARC
  5
1C4
330
1F
100
AcDbEntity
  8
0
  6
Continuous
 62
     7
370
    15
100
AcDbCircle
 10
75.9148537667
 20
137.2569696637
 30
0.0
 40
2.100138880328192
100
AcDbArc
 50
277.5211854633
 51
89.6994667968
  0
CIRCLE
  5
1C5
330
1F
100
AcDbEntity
  8
0
  6
Continuous
 62
     7
370
    15
100
AcDbCircle
 10
51.8318175808
 20
153.2491718387
 30
0.0
 40
3.248311939234186
  0
CIRCLE
  5
1C6
330
1F
100
AcDbEntity
  8
0
  6
Continuous
 62
     7
370
    15
100
AcDbCircle
 10
51.8323493254
 20
153.2499220673
 30
0.0
 40
2.498892533312203
  0
CIRCLE
  5
1C7
330
1F
100
AcDbEntity
  8
0
  6
Continuous
 62
     7
370
    15
100
AcDbCircle
 10
51.8529998008
 20
153.2515154471
 30
0.0
 40
2.099028648510807
  0
ARC
  5
1C8
330
1F
100
AcDbEntity
  8
0
  6
Continuous
 62
     7
370
    15
100
AcDbCircle
 10
52.1386673601
 20
153.271091008
 30
0.0
 40
2.100138880328192
100
AcDbArc
 50
97.5211854633
 51
269.6994667968
  0
CIRCLE
  5
1C9
330
1F
100
AcDbEntity
  8
0
  6
Continuous
 62
     7
370
    15
100
AcDbCircle
 10
52.0267605634
 20
153.2640303359
 30
0.0
 40
4.582575694955813
  0
CIRCLE
  5
1CA
330
1F
100
AcDbEntity
  8
0
  6
Continuous
 62
     7
370
    15
100
AcDbCircle
 10
52.0267605634
 20
153.2640303359
 30
0.0
 40
5.999999999999976
  0
CIRCLE
  5
1CB
330
1F
100
AcDbEntity
  8
0
  6
Continuous
 62
     7
370
    15
100
AcDbCircle
 10
76.0267605634
 20
137.2640303359
 30
0.0
 40
4.58257569495582
  0
CIRCLE
  5
1CC
330
1F
100
AcDbEntity
  8
0
  6
Continuous
 62
     7
370
    15
100
AcDbCircle
 10
76.0267605634
 20
137.2640303359
 30
0.0
 40
5.999999999999983
  0
LINE
  5
1CD
330
1F
100
AcDbEntity
  8
0
  6
Continuous
 62
     7
370
    15
100
AcDbLine
 10
64.0267605634
 20
165.3612823174
 30
0.0
 11
64.0267605634
 21
168.7640295312
 31
0.0
  0
LINE
  5
1CE
330
1F
100
AcDbEntity
  8
0
  6
Continuous
 62
     7
370
    15
100
AcDbLine
 10
64.0267605634
 20
161.7640302465
 30
0.0
 11
64.0267605634
 21
165.3612823174
 31
0.0
  0
LINE
  5
1CF
330
1F
100
AcDbEntity
  8
0
  6
Continuous
 62
     7
370
    15
100
AcDbLine
 10
64.0267605634
 20
125.1667783544
 30
0.0
 11
64.0267605634
 21
121.7640311405
 31
0.0
  0
LINE
  5
1D0
330
1F
100
AcDbEntity
  8
0
  6
Continuous
 62
     7
370
    15
100
AcDbLine
 10
64.0267605634
 20
128.7640304253
 30
0.0
 11
64.0267605634
 21
125.1667783544
 31
0.0
  0
CIRCLE
  5
1D1
330
1F
100
AcDbEntity
  8
0
  6
Continuous
 62
     7
370
    15
100
AcDbCircle
 10
52.0267605634
 20
153.2640303359
 30
0.0
 40
6.000000000000028
  0
CIRCLE
  5
1D2
330
1F
100
AcDbEntity
  8
0
  6
Continuous
 62
     7
370
    15
100
AcDbCircle
 10
64.0267605634
 20
145.2640303359
 30
0.0
 40
3.349999999999994
  0
CIRCLE
  5
1D3
330
1F
100
AcDbEntity
  8
0
  6
Continuous
 62
     7
370
    15
100
AcDbCircle
 10
76.0267605634
 20
137.2640303359
 30
0.0
 40
6.000000000000028
  0
ARC
  5
1D4
330
1F
100
AcDbEntity
  8
0
  6
Continuous
 62
     7
370
    15
100
AcDbCircle
 10
64.0267605634
 20
145.2640303359
 30
0.0
 40
39.99999999999999
100
AcDbArc
 50
311.4096221093
 51
318.5903778907
  0
LINE
  5
1D5
330
1F
100
AcDbEntity
  8
0
  6
Continuous
 62
     7
370
    15
100
AcDbLine
 10
65.0267606109
 20
115.2640310064
 30
0.0
 11
90.4842733146
 21
115.2640310064
 31
0.0
  0
LINE
  5
1D6
330
1F
100
AcDbEntity
  8
0
  6
Continuous
 62
     7
370
    15
100
AcDbLine
 10
65.0267606109
 20
135.2640305594
 30
0.0
 11
65.0267606109
 21
115.2640310064
 31
0.0
  0
LINE
  5
1D7
330
1F
100
AcDbEntity
  8
0
  6
Continuous
 62
     7
370
    15
100
AcDbLine
 10
44.0267610104
 20
135.2640305594
 30
0.0
 11
65.0267606109
 21
135.2640305594
 31
0.0
  0
LINE
  5
1D8
330
1F
100
AcDbEntity
  8
0
  6
Continuous
 62
     7
370
    15
100
AcDbLine
 10
44.0267610104
 20
135.2640305594
 30
0.0
 11
44.0267610104
 21
115.2640310064
 31
0.0
  0
LINE
  5
1D9
330
1F
100
AcDbEntity
  8
0
  6
Continuous
 62
     7
370
    15
100
AcDbLine
 10
37.5692478122
 20
115.2640310064
 30
0.0
 11
44.0267610104
 21
115.2640310064
 31
0.0
  0
ARC
  5
1DA
330
1F
100
AcDbEntity
  8
0
  6
Continuous
 62
     7
370
    15
100
AcDbCircle
 10
64.0267605634
 20
145.2640303359
 30
0.0
 40
39.99999999999999
100
AcDbArc
 50
208.9550243719
 51
228.5903778907
  0
LINE
  5
1DB
330
1F
100
AcDbEntity
  8
0
  6
Continuous
 62
     7
370
    15
100
AcDbLine
 10
29.0267604144
 20
153.2640307158
 30
0.0
 11
29.0267604144
 21
125.899112685
 31
0.0
  0
LINE
  5
1DC
330
1F
100
AcDbEntity
  8
0
  6
Continuous
 62
     7
370
    15
100
AcDbLine
 10
29.0267604144
 20
153.2640307158
 30
0.0
 11
34.0267612339
 21
158.2640306041
 31
0.0
  0
LINE
  5
1DD
330
1F
100
AcDbEntity
  8
0
  6
Continuous
 62
     7
370
    15
100
AcDbLine
 10
34.0267612339
 20
158.2640306041
 30
0.0
 11
34.0267612339
 21
171.7215430871
 31
0.0
  0
ARC
  5
1DE
330
1F
100
AcDbEntity
  8
0
  6
Continuous
 62
     7
370
    15
100
AcDbCircle
 10
64.0267605634
 20
145.2640303359
 30
0.0
 40
39.99999999999999
100
AcDbArc
 50
131.4096221093
 51
138.5903778907
  0
LINE
  5
1DF
330
1F
100
AcDbEntity
  8
0
  6
Continuous
 62
     7
370
    15
100
AcDbLine
 10
63.0267605159
 20
175.2640296653
 30
0.0
 11
37.5692478122
 21
175.2640296653
 31
0.0
  0
LINE
  5
1E0
330
1F
100
AcDbEntity
  8
0
  6
Continuous
 62
     7
370
    15
100
AcDbLine
 10
63.0267605159
 20
155.2640301123
 30
0.0
 11
63.0267605159
 21
175.2640296653
 31
0.0
  0
LINE
  5
1E1
330
1F
100
AcDbEntity
  8
0
  6
Continuous
 62
     7
370
    15
100
AcDbLine
 10
84.0267601163
 20
155.2640301123
 30
0.0
 11
63.0267605159
 21
155.2640301123
 31
0.0
  0
LINE
  5
1E2
330
1F
100
AcDbEntity
  8
0
  6
Continuous
 62
     7
370
    15
100
AcDbLine
 10
84.0267601163
 20
155.2640301123
 30
0.0
 11
84.0267601163
 21
175.2640296653
 31
0.0
  0
LINE
  5
1E3
330
1F
100
AcDbEntity
  8
0
  6
Continuous
 62
     7
370
    15
100
AcDbLine
 10
90.4842733146
 20
175.2640296653
 30
0.0
 11
84.0267601163
 21
175.2640296653
 31
0.0
  0
ARC
  5
1E4
330
1F
100
AcDbEntity
  8
0
  6
Continuous
 62
     7
370
    15
100
AcDbCircle
 10
64.0267605634
 20
145.2640303359
 30
0.0
 40
40.0
100
AcDbArc
 50
28.9550243719
 51
48.5903778907
  0
LINE
  5
1E5
330
1F
100
AcDbEntity
  8
0
  6
Continuous
 62
     7
370
    15
100
AcDbLine
 10
99.0267607124
 20
137.2640299559
 30
0.0
 11
99.0267607124
 21
164.6289479867
 31
0.0
  0
LINE
  5
1E6
330
1F
100
AcDbEntity
  8
0
  6
Continuous
 62
     7
370
    15
100
AcDbLine
 10
99.0267607124
 20
137.2640299559
 30
0.0
 11
94.0267598928
 21
132.2640300676
 31
0.0
  0
LINE
  5
1E7
330
1F
100
AcDbEntity
  8
0
  6
Continuous
 62
     7
370
    15
100
AcDbLine
 10
94.0267598928
 20
132.2640300676
 30
0.0
 11
94.0267598928
 21
118.8065175846
 31
0.0
  0
CIRCLE
  5
1E8
330
1F
100
AcDbEntity
  8
0
  6
Continuous
 62
     7
370
    15
100
AcDbCircle
 10
64.0267605634
 20
145.2640303359
 30
0.0
 40
1.574999999999989
  0
ELLIPSE
  5
1E9
330
1F
100
AcDbEntity
  8
0
  6
Continuous
 62
     7
370
    15
100
AcDbEllipse
 10
75.0184998622
 20
137.5675316208
 30
0.0
 11
-1.930647247026443
 21
1.351853755991755
 31
-7.105427357601003E-15
210
-4.410258409018477E-15
220
-1.042439607242792E-15
230
1.0
 40
0.8910065242
 41
2.250406028900625
 42
4.756339331323062
  0
ELLIPSE
  5
1EA
330
1F
100
AcDbEntity
  8
0
  6
Continuous
 62
     7
370
    15
100
AcDbEllipse
 10
53.0350212646
 20
152.9605290509
 30
0.0
 11
1.93064724702645
 21
-1.351853755991726
 31
7.105427357601002E-15
210
-4.410258409018481E-15
220
-1.042439607242844E-15
230
1.0
 40
0.8910065242
 41
2.250406028900629
 42
4.756339331321464
  0
LINE
  5
1EB
330
1F
100
AcDbEntity
  8
0
  6
Continuous
 62
     7
370
    15
100
AcDbLine
 10
63.0267605159
 20
175.2640296653
 30
0.0
 11
84.0267601163
 21
175.2640296653
 31
0.0
  0
LINE
  5
1EC
330
1F
100
AcDbEntity
  8
0
  6
Continuous
 62
     7
370
    15
100
AcDbLine
 10
65.0267606109
 20
115.2640310064
 30
0.0
 11
44.0267610104
 21
115.2640310064
 31
0.0
  0
SPLINE
  5
1ED
330
1F
100
AcDbEntity
  8
0
  6
Continuous
 62
     7
370
    15
100
AcDbSpline
210
0.0
220
0.0
230
1.0
 70
    24
 71
     3
 72
    11
 73
     7
 74
     0
 42
0.00000001
 43
0.00000001
 40
0.0
 40
0.0
 40
0.0
 40
0.0
 40
0.0964672107378921
 40
0.5391989056284217
 40
0.9631450969670698
 40
0.9999999999999999
 40
0.9999999999999999
 40
0.9999999999999999
 40
0.9999999999999999
 10
55.02676095081049
 20
115.2640310064136
 30
0.0
 10
55.02676095081049
 20
115.251779431669
 30
0.0
 10
55.02676095081049
 20
115.1832998348816
 30
0.0
 10
55.02676095081049
 20
115.1105131025541
 30
0.0
 10
55.0267609508105
 20
115.0778342006265
 30
0.0
 10
55.02676095081049
 20
115.0771661349793
 30
0.0
 10
55.02676095081049
 20
115.0771127030431
 30
0.0
  0
LINE
  5
1EE
330
1F
100
AcDbEntity
  8
0
  6
Continuous
 62
     7
370
    15
100
AcDbLine
 10
55.0267609508
 20
115.077112703
 30
0.0
 11
54.4220746235
 21
115.2640310064
 31
0.0
  0
SPLINE
  5
1EF
330
1F
100
AcDbEntity
  8
0
  6
Continuous
 62
     7
370
    15
100
AcDbSpline
210
0.0
220
0.0
230
1.0
 70
    24
 71
     3
 72
    13
 73
     9
 74
     0
 42
0.00000001
 43
0.00000001
 40
0.0
 40
0.0
 40
0.0
 40
0.0
 40
0.0487161862758134
 40
0.3180303887332733
 40
0.5818979786736849
 40
0.7472493530324965
 40
0.9916820470854202
 40
1.0
 40
1.0
 40
1.0
 40
1.0
 10
56.02676018340069
 20
175.2640296653091
 30
0.0
 10
56.02676018340069
 20
175.2769288783321
 30
0.0
 10
56.02676018340069
 20
175.3611378865837
 30
0.0
 10
56.02676018340069
 20
175.4995808939991
 30
0.0
 10
56.02676018340069
 20
175.6299312916683
 30
0.0
 10
56.02676018340069
 20
175.7102127107345
 30
0.0
 10
56.0267601834007
 20
175.730975505097
 30
0.0
 10
56.02676018340069
 20
175.7312177984146
 30
0.0
 10
56.02676018340069
 20
175.7312257722198
 30
0.0
  0
LINE
  5
1F0
330
1F
100
AcDbEntity
  8
0
  6
Continuous
 62
     7
370
    15
100
AcDbLine
 10
54.4220746235
 20
175.2640296653
 30
0.0
 11
56.0267601834
 21
175.7312257722
 31
0.0
  0
SPLINE
  5
1F1
330
1F
100
AcDbEntity
  8
0
  6
Continuous
 62
     7
370
    15
100
AcDbSpline
210
0.0
220
0.0
230
1.0
 70
    24
 71
     3
 72
    12
 73
     8
 74
     0
 42
0.00000001
 43
0.00000001
 40
0.0
 40
0.0
 40
0.0
 40
0.0
 40
0.1114381427058298
 40
0.253326761701286
 40
0.5048932297683326
 40
0.7562281967826665
 40
1.0
 40
1.0
 40
1.0
 40
1.0
 10
72.02676094335992
 20
175.7312257722198
 30
0.0
 10
72.02676094335992
 20
175.7298716607665
 30
0.0
 10
72.02676094335992
 20
175.7267934268592
 30
0.0
 10
72.02676094335992
 20
175.6919578550298
 30
0.0
 10
72.02676094335992
 20
175.6049418339938
 30
0.0
 10
72.02676094335992
 20
175.4526517326084
 30
0.0
 10
72.02676094335992
 20
175.3262601090172
 30
0.0
 10
72.02676094335992
 20
175.2640296653091
 30
0.0
  0
LINE
  5
1F2
330
1F
100
AcDbEntity
  8
0
  6
Continuous
 62
     7
370
    15
100
AcDbLine
 10
72.0267609434
 20
175.7312257722
 30
0.0
 11
73.6314465032
 21
175.2640296653
 31
0.0
  0
LINE
  5
1F3
330
1F
100
AcDbEntity
  8
0
  6
Continuous
 62
     7
370
    15
100
AcDbLine
 10
73.6314465032
 20
115.2640310064
 30
0.0
 11
73.026760176
 21
115.077112703
 31
0.0
  0
SPLINE
  5
1F4
330
1F
100
AcDbEntity
  8
0
  6
Continuous
 62
     7
370
    15
100
AcDbSpline
210
0.0
220
0.0
230
1.0
 70
    24
 71
     3
 72
    10
 73
     6
 74
     0
 42
0.00000001
 43
0.00000001
 40
0.0
 40
0.0
 40
0.0
 40
0.0
 40
0.214802991670685
 40
0.621073973928089
 40
0.9999999999999999
 40
0.9999999999999999
 40
0.9999999999999999
 40
0.9999999999999999
 10
73.02676017595012
 20
115.0771127030431
 30
0.0
 10
73.02676017595012
 20
115.0790100155346
 30
0.0
 10
73.02676017595012
 20
115.0844958395435
 30
0.0
 10
73.02676017595012
 20
115.1388137713993
 30
0.0
 10
73.02676017595012
 20
115.2232723684883
 30
0.0
 10
73.02676017595012
 20
115.2640310064136
 30
0.0
  0
SPLINE
  5
1F5
330
1F
100
AcDbEntity
  8
0
  6
Continuous
 62
     7
370
    15
100
AcDbSpline
210
0.0
220
0.0
230
1.0
 70
     8
 71
     3
 72
    30
 73
    26
 74
     0
 42
0.00000001
 43
0.00000001
 40
0.0
 40
0.0
 40
0.0
 40
0.0
 40
0.1250000000000002
 40
0.1250000000000002
 40
0.1875000000000002
 40
0.1875000000000002
 40
0.2500000000000003
 40
0.2500000000000003
 40
0.3750000000000004
 40
0.3750000000000004
 40
0.4375000000000004
 40
0.4375000000000004
 40
0.5000000000000004
 40
0.5000000000000004
 40
0.6250000000000004
 40
0.6250000000000004
 40
0.6875000000000003
 40
0.6875000000000003
 40
0.7500000000000002
 40
0.7500000000000002
 40
0.8125000000000001
 40
0.8125000000000001
 40
0.8749999999999999
 40
0.8749999999999999
 40
1.0
 40
1.0
 40
1.0
 40
1.0
 10
65.02676056338038
 20
113.779907352999
 30
0.0
 10
65.55817849378097
 20
113.7967862710076
 30
0.0
 10
66.07983769135514
 20
113.8268038358323
 30
0.0
 10
66.84847947851416
 20
113.8896142251054
 30
0.0
 10
67.10236927767917
 20
113.9135181323323
 30
0.0
 10
67.60544205362527
 20
113.9669534247747
 30
0.0
 10
67.8549059018419
 20
113.9965602929422
 30
0.0
 10
68.57981679943877
 20
114.0910099916567
 30
0.0
 10
69.03769413633094
 20
114.1620373854859
 30
0.0
 10
69.68746136181379
 20
114.2760516721917
 30
0.0
 10
69.89884806522396
 20
114.3155069233323
 30
0.0
 10
70.30348187599412
 20
114.3950283661029
 30
0.0
 10
70.49622234749533
 20
114.4349645086037
 30
0.0
 10
71.04665322387227
 20
114.5539009114319
 30
0.0
 10
71.37683660115289
 20
114.6320656753157
 30
0.0
 10
71.81551241780332
 20
114.7417751155846
 30
0.0
 10
71.95131097628985
 20
114.776855952293
 30
0.0
 10
72.19818800913602
 20
114.8420962316726
 30
0.0
 10
72.30996654646401
 20
114.8724310477174
 30
0.0
 10
72.51039673633764
 20
114.9277694269392
 30
0.0
 10
72.59904907954112
 20
114.9527741034993
 30
0.0
 10
72.75271662722224
 20
114.99665391239
 30
0.0
 10
72.81796433147409
 20
115.0155975971523
 30
0.0
 10
72.97426938483834
 20
115.0613173244225
 30
0.0
 10
73.02676056338035
 20
115.0771126396142
 30
0.0
 10
73.02676056338035
 20
115.0771126396142
 30
0.0
  0
SPLINE
  5
1F6
330
1F
100
AcDbEntity
  8
0
  6
Continuous
 62
     7
370
    15
100
AcDbSpline
210
0.0
220
0.0
230
1.0
 70
     8
 71
     3
 72
    28
 73
    24
 74
     0
 42
0.00000001
 43
0.00000001
 40
0.0
 40
0.0
 40
0.0
 40
0.0
 40
0.1250000000000001
 40
0.1250000000000001
 40
0.1875000000000001
 40
0.1875000000000001
 40
0.2500000000000001
 40
0.2500000000000001
 40
0.375
 40
0.375
 40
0.4375000000000001
 40
0.4375000000000001
 40
0.5
 40
0.5
 40
0.625
 40
0.625
 40
0.7499999999999999
 40
0.7499999999999999
 40
0.8124999999999999
 40
0.8124999999999999
 40
0.875
 40
0.875
 40
1.0
 40
1.0
 40
1.0
 40
1.0
 10
55.02676056338035
 20
115.0771126396142
 30
0.0
 10
55.02676056338035
 20
115.0771126396142
 30
0.0
 10
55.07923690569856
 20
115.061327925664
 30
0.0
 10
55.23303385325547
 20
115.0163325115878
 30
0.0
 10
55.29690882828947
 20
114.997777516512
 30
0.0
 10
55.450405096946
 20
114.9539247940655
 30
0.0
 10
55.54022007233969
 20
114.9285801871133
 30
0.0
 10
55.84219886739056
 20
114.8451781093632
 30
0.0
 10
56.08815230144631
 20
114.7793125502122
 30
0.0
 10
56.5235194808747
 20
114.6703422097203
 30
0.0
 10
56.68073466304705
 20
114.6321025739537
 30
0.0
 10
57.0128992835895
 20
114.5543438365344
 30
0.0
 10
57.18770654919239
 20
114.514842874359
 30
0.0
 10
57.73776573977821
 20
114.395935131993
 30
0.0
 10
58.13838912417368
 20
114.3161174505684
 30
0.0
 10
59.01097523552239
 20
114.1627742887723
 30
0.0
 10
59.47111068312397
 20
114.0914405355031
 30
0.0
 10
60.19107677709015
 20
113.9974970284285
 30
0.0
 10
60.43635048712467
 20
113.9683032350685
 30
0.0
 10
60.93780682355351
 20
113.9148366608051
 30
0.0
 10
61.19523819292603
 20
113.8904773265299
 30
0.0
 10
61.97117798879053
 20
113.8268871810852
 30
0.0
 10
62.49540638869656
 20
113.796784245996
 30
0.0
 10
63.02676056338039
 20
113.779907352999
 30
0.0
  0
SPLINE
  5
1F7
330
1F
100
AcDbEntity
  8
0
  6
Continuous
 62
     7
370
    15
100
AcDbSpline
210
0.0
220
0.0
230
1.0
 70
     8
 71
     3
 72
    50
 73
    46
 74
     0
 42
0.00000001
 43
0.00000001
 40
0.0
 40
0.0
 40
0.0
 40
0.0
 40
0.0625000000000003
 40
0.0625000000000003
 40
0.0937500000000003
 40
0.0937500000000003
 40
0.1250000000000004
 40
0.1250000000000004
 40
0.1875000000000002
 40
0.1875000000000002
 40
0.2187500000000001
 40
0.2187500000000001
 40
0.2500000000000001
 40
0.2500000000000001
 40
0.3125000000000001
 40
0.3125000000000001
 40
0.375
 40
0.375
 40
0.40625
 40
0.40625
 40
0.4375000000000001
 40
0.4375000000000001
 40
0.5
 40
0.5
 40
0.5624999999999999
 40
0.5624999999999999
 40
0.6249999999999999
 40
0.6249999999999999
 40
0.6562499999999999
 40
0.6562499999999999
 40
0.6874999999999999
 40
0.6874999999999999
 40
0.71875
 40
0.71875
 40
0.75
 40
0.75
 40
0.8125
 40
0.8125
 40
0.8750000000000001
 40
0.8750000000000001
 40
0.9375000000000001
 40
0.9375000000000001
 40
0.9687500000000001
 40
0.9687500000000001
 40
1.0
 40
1.0
 40
1.0
 40
1.0
 10
56.02676056338035
 20
175.7312258090255
 30
0.0
 10
56.02676056338035
 20
175.7312258090255
 30
0.0
 10
56.07905470533341
 20
175.7450919124068
 30
0.0
 10
56.23240724016617
 20
175.7845290552908
 30
0.0
 10
56.29610473551738
 20
175.8007817575558
 30
0.0
 10
56.4491963858072
 20
175.8391304674062
 30
0.0
 10
56.53885248776802
 20
175.8612839138142
 30
0.0
 10
56.84043387594207
 20
175.9340398596763
 30
0.0
 10
57.08617530637605
 20
175.991320562521
 30
0.0
 10
57.52133537272672
 20
176.0853130019768
 30
0.0
 10
57.67847620018789
 20
176.11817196917
 30
0.0
 10
58.01111529291219
 20
176.1847480226182
 30
0.0
 10
58.18618124835223
 20
176.2183914604571
 30
0.0
 10
58.73703677905384
 20
176.3189523250342
 30
0.0
 10
59.1382211882405
 20
176.3855151347843
 30
0.0
 10
60.01171039432789
 20
176.5102141900839
 30
0.0
 10
60.47375098731033
 20
176.5667371991545
 30
0.0
 10
61.19486640090425
 20
176.6374061337693
 30
0.0
 10
61.44042703858763
 20
176.6586823438408
 30
0.0
 10
61.94221533774583
 20
176.6959880700827
 30
0.0
 10
62.19997655406249
 20
176.7120792669427
 30
0.0
 10
62.97508901828226
 20
176.7507207385504
 30
0.0
 10
63.49551820200195
 20
176.7639101571068
 30
0.0
 10
64.54365404278731
 20
176.7641488805649
 30
0.0
 10
65.07616237316108
 20
176.7507488778607
 30
0.0
 10
66.10385263532767
 20
176.6996848896655
 30
0.0
 10
66.6036168159094
 20
176.6622457549113
 30
0.0
 10
67.33211181592986
 20
176.5910822719929
 30
0.0
 10
67.57146280837537
 20
176.5648138138004
 30
0.0
 10
68.03270127986224
 20
176.5091323410481
 30
0.0
 10
68.2559679349295
 20
176.4795945691122
 30
0.0
 10
68.68815554095156
 20
176.4179874240845
 30
0.0
 10
68.89707612119153
 20
176.3859164813633
 30
0.0
 10
69.30050104671524
 20
176.3200995043939
 30
0.0
 10
69.4959807066846
 20
176.2861692859307
 30
0.0
 10
70.05183892022083
 20
176.1847406583505
 30
0.0
 10
70.38139630685241
 20
176.1178216296604
 30
0.0
 10
70.96079180463835
 20
175.9927960673186
 30
0.0
 10
71.21231177608273
 20
175.9342192730845
 30
0.0
 10
71.6137662726963
 20
175.8373844214395
 30
0.0
 10
71.76624926824339
 20
175.7986294618804
 30
0.0
 10
71.92156021741862
 20
175.7587019314441
 30
0.0
 10
71.96107366482478
 20
175.7484101401936
 30
0.0
 10
72.01358701212055
 20
175.7346939276546
 30
0.0
 10
72.02676056338035
 20
175.7312258090255
 30
0.0
 10
72.02676056338034
 20
175.7312258090255
 30
0.0
  0
ARC
  5
1F8
330
1F
100
AcDbEntity
  8
0
  6
Continuous
 62
     7
370
    15
100
AcDbCircle
 10
64.0267605634
 20
145.2640303359
 30
0.0
 40
31.49999999999999
100
AcDbArc
 50
268.180780706
 51
271.819219294
  0
DIMENSION
  5
1F9
330
1F
100
AcDbEntity
  8
VERMASSUNG
100
AcDbDimension
  2
*D4
 10
84.0267605634
 20
181.5155388268
 30
0.0
 11
74.0267605634
 21
181.5155388268
 31
0.0
 70
   160
 71
     2
 42
-1.0
  3
SLDDIMSTYLE0
100
AcDbAlignedDimension
 13
64.0267605634
 23
187.7640303359
 33
0.0
 14
84.0267605634
 24
175.2640303359
 34
0.0
100
AcDbRotatedDimension
  0
DIMENSION
  5
202
330
1F
100
AcDbEntity
  8
VERMASSUNG
100
AcDbDimension
  2
*D5
 10
99.0267605634
 20
186.7640303359
 30
0.0
 11
81.5267605634
 21
186.7640303359
 31
0.0
 70
   160
 71
     2
 42
-1.0
  3
SLDDIMSTYLE0
100
AcDbAlignedDimension
 13
64.0267605634
 23
187.7640303359
 33
0.0
 14
99.0267605634
 24
164.6289470669
 34
0.0
100
AcDbRotatedDimension
  0
DIMENSION
  5
20B
330
1F
100
AcDbEntity
  8
VERMASSUNG
100
AcDbDimension
  2
*D6
 10
99.0267605634
 20
192.7640303359
 30
0.0
 11
64.0267605634
 21
192.7640303359
 31
0.0
 70
   160
 71
     2
 42
-1.0
  3
SLDDIMSTYLE0
100
AcDbAlignedDimension
 13
29.0267605634
 23
153.2640303359
 33
0.0
 14
99.0267605634
 24
164.6289470669
 34
0.0
 50
0.0
100
AcDbRotatedDimension
  0
DIMENSION
  5
215
330
1F
100
AcDbEntity
  8
VERMASSUNG
100
AcDbDimension
  2
*D7
 10
104.4196527798
 20
155.2640303359
 30
0.0
 11
104.4196527798
 21
165.2640303359
 31
0.0
 70
   160
 71
     2
 42
-1.0
  3
SLDDIMSTYLE0
100
AcDbAlignedDimension
 13
90.484273674
 23
175.2640303359
 33
0.0
 14
88.2767605634
 24
155.2640303359
 34
0.0
 50
90.0
100
AcDbRotatedDimension
  0
DIMENSION
  5
21F
330
1F
100
AcDbEntity
  8
VERMASSUNG
100
AcDbDimension
  2
*D8
 10
109.0267605634
 20
145.2640303359
 30
0.0
 11
109.0267605634
 21
160.2640303359
 31
0.0
 70
   160
 71
     2
 42
-1.0
  3
SLDDIMSTYLE0
100
AcDbAlignedDimension
 13
90.484273674
 23
175.2640303359
 33
0.0
 14
106.5267605634
 24
145.2640303359
 34
0.0
 50
90.0
100
AcDbRotatedDimension
  0
DIMENSION
  5
229
330
1F
100
AcDbEntity
  8
VERMASSUNG
100
AcDbDimension
  2
*D9
 10
115.0267605634
 20
175.2640303359
 30
0.0
 11
115.0267605634
 21
145.2640303359
 31
0.0
 70
   160
 71
     2
 42
-1.0
  3
SLDDIMSTYLE0
100
AcDbAlignedDimension
 13
90.484273674
 23
115.2640303359
 33
0.0
 14
90.484273674
 24
175.2640303359
 34
0.0
 50
90.0
100
AcDbRotatedDimension
  0
DIMENSION
  5
233
330
1F
100
AcDbEntity
  8
VERMASSUNG
100
AcDbDimension
  2
*D10
 10
94.2996808741
 20
171.4088251497
 30
0.0
 11
28.2880923402
 21
114.398818234
 31
0.0
 70
   163
  1
<>
 71
     1
 42
-1.0
  3
SLDDIMSTYLE1
100
AcDbDiametricDimension
 15
33.7538402526
 25
119.119235522
 35
0.0
 40
0.0
  0
INSERT
  5
247
330
1F
100
AcDbEntity
  8
VERMASSUNG
100
AcDbBlockReference
  2
SW_CENTERMARKSYMBOL_0
 10
64.0267605634
 20
145.2640303359
 30
0.0
  0
ARC
  5
248
330
1F
100
AcDbEntity
  8
0
  6
Continuous
 62
     7
370
    15
100
AcDbCircle
 10
259.3529321177
 20
77.2001083424
 30
0.0
 40
4.999999999999996
100
AcDbArc
 50
43.4374547933
 51
66.4218215218
  0
ARC
  5
249
330
1F
100
AcDbEntity
  8
0
  6
Continuous
 62
     7
370
    15
100
AcDbCircle
 10
259.3529321177
 20
77.2001083424
 30
0.0
 40
4.999999999999982
100
AcDbArc
 50
293.5781784782
 51
322.3549318526
  0
ARC
  5
24A
330
1F
100
AcDbEntity
  8
0
  6
Continuous
 62
     7
370
    15
100
AcDbCircle
 10
259.3529321177
 20
53.2001083424
 30
0.0
 40
4.999999999999996
100
AcDbArc
 50
37.6450681474
 51
66.4218215218
  0
ARC
  5
24B
330
1F
100
AcDbEntity
  8
0
  6
Continuous
 62
     7
370
    15
100
AcDbCircle
 10
259.3529321177
 20
53.2001083424
 30
0.0
 40
5.000000000000002
100
AcDbArc
 50
293.5781784782
 51
316.5625452067
  0
LINE
  5
24C
330
1F
100
AcDbEntity
  8
0
  6
Continuous
 62
     7
370
    15
100
AcDbLine
 10
235.8529287203
 20
64.2001082949
 30
0.0
 11
234.8529341443
 21
65.2001083424
 31
0.0
  0
LINE
  5
24D
330
1F
100
AcDbEntity
  8
0
  6
Continuous
 62
     7
370
    15
100
AcDbLine
 10
227.8529311343
 20
65.2001083424
 30
0.0
 11
226.852932833
 21
64.2001082949
 31
0.0
  0
LINE
  5
24E
330
1F
100
AcDbEntity
  8
0
  6
Continuous
 62
     7
370
    15
100
AcDbLine
 10
255.8529319985
 20
64.2001082949
 30
0.0
 11
254.852929972
 21
65.2001083424
 31
0.0
  0
LINE
  5
24F
330
1F
100
AcDbEntity
  8
0
  6
Continuous
 62
     7
370
    15
100
AcDbLine
 10
247.8529306872
 20
65.2001083424
 30
0.0
 11
246.8529286607
 21
64.2001082949
 31
0.0
  0
LINE
  5
250
330
1F
100
AcDbEntity
  8
0
  6
Continuous
 62
     7
370
    15
100
AcDbLine
 10
171.652932132
 20
33.7001078357
 30
0.0
 11
185.9609995781
 21
33.7001078357
 31
0.0
  0
LINE
  5
251
330
1F
100
AcDbEntity
  8
0
  6
Continuous
 62
     7
370
    15
100
AcDbLine
 10
173.3529322127
 20
96.700108849
 30
0.0
 11
171.652932132
 21
96.700108849
 31
0.0
  0
LINE
  5
252
330
1F
100
AcDbEntity
  8
0
  6
Continuous
 62
     7
370
    15
100
AcDbLine
 10
185.9609995781
 20
96.700108849
 30
0.0
 11
183.2890677078
 21
96.700108849
 31
0.0
  0
ARC
  5
253
330
1F
100
AcDbEntity
  8
0
  6
Continuous
 62
     7
370
    15
100
AcDbCircle
 10
171.6529321177
 20
34.0001083424
 30
0.0
 40
0.3000000000000114
100
AcDbArc
 50
180.0
 51
270.0
  0
ARC
  5
254
330
1F
100
AcDbEntity
  8
0
  6
Continuous
 62
     7
370
    15
100
AcDbCircle
 10
171.6529321177
 20
96.4001083424
 30
0.0
 40
0.3000000000000114
100
AcDbArc
 50
90.0
 51
180.0
  0
ARC
  5
255
330
1F
100
AcDbEntity
  8
0
  6
Continuous
 62
     7
370
    15
100
AcDbCircle
 10
196.7029321177
 20
96.1001083424
 30
0.0
 40
0.6000000000000085
100
AcDbArc
 50
0.0
 51
90.0
  0
LINE
  5
256
330
1F
100
AcDbEntity
  8
0
  6
Continuous
 62
     7
370
    15
100
AcDbLine
 10
192.744864039
 20
96.700108849
 30
0.0
 11
191.2629323824
 21
94.1333260914
 31
0.0
  0
LINE
  5
257
330
1F
100
AcDbEntity
  8
0
  6
Continuous
 62
     7
370
    15
100
AcDbLine
 10
196.702932827
 20
96.700108849
 30
0.0
 11
192.744864039
 21
96.700108849
 31
0.0
  0
LINE
  5
258
330
1F
100
AcDbEntity
  8
0
  6
Continuous
 62
     7
370
    15
100
AcDbLine
 10
187.442932166
 20
94.1333260914
 30
0.0
 11
185.9609995781
 21
96.700108849
 31
0.0
  0
LINE
  5
259
330
1F
100
AcDbEntity
  8
0
  6
Continuous
 62
     7
370
    15
100
AcDbLine
 10
215.7644758745
 20
100.2001084914
 30
0.0
 11
213.5515305026
 21
91.9412889113
 31
0.0
  0
LINE
  5
25A
330
1F
100
AcDbEntity
  8
0
  6
Continuous
 62
     7
370
    15
100
AcDbLine
 10
213.5515305026
 20
38.4589277734
 30
0.0
 11
215.7644758745
 21
30.2001081934
 31
0.0
  0
ARC
  5
25B
330
1F
100
AcDbEntity
  8
0
  6
Continuous
 62
     7
370
    15
100
AcDbCircle
 10
190.4629321177
 20
93.4751083424
 30
0.0
 40
0.8000000000000114
100
AcDbArc
 50
270.0
 51
0.0
  0
ARC
  5
25C
330
1F
100
AcDbEntity
  8
0
  6
Continuous
 62
     7
370
    15
100
AcDbCircle
 10
188.2429321177
 20
93.4751083424
 30
0.0
 40
0.8000000000000114
100
AcDbArc
 50
180.0
 51
270.0
  0
ARC
  5
25D
330
1F
100
AcDbEntity
  8
0
  6
Continuous
 62
     7
370
    15
100
AcDbCircle
 10
188.2429321177
 20
36.9251083424
 30
0.0
 40
0.8000000000000114
100
AcDbArc
 50
90.0
 51
180.0
  0
ARC
  5
25E
330
1F
100
AcDbEntity
  8
0
  6
Continuous
 62
     7
370
    15
100
AcDbCircle
 10
190.4629321177
 20
36.9251083424
 30
0.0
 40
0.8000000000000114
100
AcDbArc
 50
0.0
 51
90.0
  0
ARC
  5
25F
330
1F
100
AcDbEntity
  8
0
  6
Continuous
 62
     7
370
    15
100
AcDbCircle
 10
212.5856051298
 20
92.2001083424
 30
0.0
 40
1.0
100
AcDbArc
 50
270.0
 51
345.0
  0
ARC
  5
260
330
1F
100
AcDbEntity
  8
0
  6
Continuous
 62
     7
370
    15
100
AcDbCircle
 10
212.5856051298
 20
38.2001083424
 30
0.0
 40
1.0
100
AcDbArc
 50
15.0
 51
90.0
  0
LINE
  5
261
330
1F
100
AcDbEntity
  8
0
  6
Continuous
 62
     7
370
    15
100
AcDbLine
 10
190.4629318787
 20
92.6751077702
 30
0.0
 11
188.2429326697
 21
92.6751077702
 31
0.0
  0
ARC
  5
262
330
1F
100
AcDbEntity
  8
0
  6
Continuous
 62
     7
370
    15
100
AcDbCircle
 10
198.3029321177
 20
38.2001083424
 30
0.0
 40
1.0
100
AcDbArc
 50
90.0
 51
180.0
  0
ARC
  5
263
330
1F
100
AcDbEntity
  8
0
  6
Continuous
 62
     7
370
    15
100
AcDbCircle
 10
198.3029321177
 20
92.2001083424
 30
0.0
 40
1.0
100
AcDbArc
 50
180.0
 51
270.0
  0
LINE
  5
264
330
1F
100
AcDbEntity
  8
0
  6
Continuous
 62
     7
370
    15
100
AcDbLine
 10
188.2429326697
 20
37.7251089146
 30
0.0
 11
190.4629318787
 21
37.7251089146
 31
0.0
  0
LINE
  5
265
330
1F
100
AcDbEntity
  8
0
  6
Continuous
 62
     7
370
    15
100
AcDbLine
 10
198.3029319717
 20
39.2001078059
 30
0.0
 11
212.5856037064
 21
39.2001078059
 31
0.0
  0
LINE
  5
266
330
1F
100
AcDbEntity
  8
0
  6
Continuous
 62
     7
370
    15
100
AcDbLine
 10
212.5856037064
 20
91.2001088788
 30
0.0
 11
198.3029319717
 21
91.2001088788
 31
0.0
  0
ARC
  5
267
330
1F
100
AcDbEntity
  8
0
  6
Continuous
 62
     7
370
    15
100
AcDbCircle
 10
170.8529321177
 20
40.6296774806
 30
0.0
 40
0.5999999999999943
100
AcDbArc
 50
33.5573097619
 51
90.0
  0
ARC
  5
268
330
1F
100
AcDbEntity
  8
0
  6
Continuous
 62
     7
370
    15
100
AcDbCircle
 10
170.8529321177
 20
89.7705392041
 30
0.0
 40
0.599999999999994
100
AcDbArc
 50
270.0
 51
326.4426902381
  0
LINE
  5
269
330
1F
100
AcDbEntity
  8
0
  6
Continuous
 62
     7
370
    15
100
AcDbLine
 10
169.3529320228
 20
40.9796771189
 30
0.0
 11
170.2096449489
 21
41.2092332323
 31
0.0
  0
LINE
  5
26A
330
1F
100
AcDbEntity
  8
0
  6
Continuous
 62
     7
370
    15
100
AcDbLine
 10
170.2096449489
 20
89.1909834524
 30
0.0
 11
169.3529320228
 21
89.4205395659
 31
0.0
  0
LINE
  5
26B
330
1F
100
AcDbEntity
  8
0
  6
Continuous
 62
     7
370
    15
100
AcDbLine
 10
169.3529320228
 20
89.4205395659
 30
0.0
 11
140.5928878857
 21
87.9796550204
 31
0.0
  0
LINE
  5
26C
330
1F
100
AcDbEntity
  8
0
  6
Continuous
 62
     7
370
    15
100
AcDbLine
 10
140.5928878857
 20
42.4205616643
 30
0.0
 11
169.3529320228
 21
40.9796771189
 31
0.0
  0
ARC
  5
26D
330
1F
100
AcDbEntity
  8
0
  6
Continuous
 62
     7
370
    15
100
AcDbCircle
 10
170.3649363182
 20
40.6296774806
 30
0.0
 40
0.6000000000000071
100
AcDbArc
 50
90.0
 51
105.0
  0
ARC
  5
26E
330
1F
100
AcDbEntity
  8
0
  6
Continuous
 62
     7
370
    15
100
AcDbCircle
 10
170.3649363182
 20
89.7705392041
 30
0.0
 40
0.6000000000000071
100
AcDbArc
 50
255.0
 51
270.0
  0
LINE
  5
26F
330
1F
100
AcDbEntity
  8
0
  6
Continuous
 62
     7
370
    15
100
AcDbLine
 10
170.3649363526
 20
41.2296776255
 30
0.0
 11
170.852932094
 21
41.2296776255
 31
0.0
  0
LINE
  5
270
330
1F
100
AcDbEntity
  8
0
  6
Continuous
 62
     7
370
    15
100
AcDbLine
 10
170.852932094
 20
89.1705390592
 30
0.0
 11
170.3649363526
 21
89.1705390592
 31
0.0
  0
ARC
  5
271
330
1F
100
AcDbEntity
  8
0
  6
Continuous
 62
     7
370
    15
100
AcDbCircle
 10
140.6529321177
 20
86.7811583784
 30
0.0
 40
1.200000000000006
100
AcDbArc
 50
92.8681319407
 51
180.0
  0
ARC
  5
272
330
1F
100
AcDbEntity
  8
0
  6
Continuous
 62
     7
370
    15
100
AcDbCircle
 10
140.6529321177
 20
43.6190583063
 30
0.0
 40
1.199999999999999
100
AcDbArc
 50
180.0
 51
267.1318680593
  0
ARC
  5
273
330
1F
100
AcDbEntity
  8
0
  6
Continuous
 62
     7
370
    15
100
AcDbCircle
 10
196.7029321177
 20
34.3001083424
 30
0.0
 40
0.6000000000000014
100
AcDbArc
 50
270.0
 51
0.0
  0
LINE
  5
274
330
1F
100
AcDbEntity
  8
0
  6
Continuous
 62
     7
370
    15
100
AcDbLine
 10
185.9609995781
 20
33.7001078357
 30
0.0
 11
187.442932166
 21
36.2668905934
 31
0.0
  0
LINE
  5
275
330
1F
100
AcDbEntity
  8
0
  6
Continuous
 62
     7
370
    15
100
AcDbLine
 10
192.744864039
 20
33.7001078357
 30
0.0
 11
196.702932827
 21
33.7001078357
 31
0.0
  0
LINE
  5
276
330
1F
100
AcDbEntity
  8
0
  6
Continuous
 62
     7
370
    15
100
AcDbLine
 10
191.2629323824
 20
36.2668905934
 30
0.0
 11
192.744864039
 21
33.7001078357
 31
0.0
  0
LWPOLYLINE
  5
277
330
1F
100
AcDbEntity
  8
0
  6
Continuous
 62
     7
370
    15
100
AcDbPolyline
 90
       29
 70
   128
 43
0.0
 10
263.271437846
 20
74.8216791605
 10
263.2441910727
 20
75.327172183
 10
263.2121163233
 20
75.936208718
 10
263.1768080218
 20
76.618249767
 10
263.1400394066
 20
77.3390934398
 10
263.1036582215
 20
78.0625951072
 10
263.0694898589
 20
78.7524750983
 10
263.0392405017
 20
79.3741403674
 10
263.0144375189
 20
79.896416754
 10
262.9963102563
 20
80.2931154673
 10
262.9857825859
 20
80.5443453198
 10
262.9833760484
 20
80.6375083109
 10
262.9892024024
 20
80.5679319953
 10
263.0029859765
 20
80.3391060387
 10
263.0240264161
 20
79.9625043352
 10
263.0512657388
 20
79.4570113127
 10
263.0833479388
 20
78.8479747777
 10
263.1186562403
 20
78.1659337287
 10
263.1554248555
 20
77.445090056
 10
263.19179859
 20
76.7215883886
 10
263.2259744032
 20
76.0317083975
 10
263.2562163098
 20
75.4100431283
 10
263.2810267432
 20
74.8877667417
 10
263.2991465552
 20
74.4910680284
 10
263.3096816762
 20
74.239838176
 10
263.3120882137
 20
74.1466751849
 10
263.3062544091
 20
74.2162515004
 10
263.292470835
 20
74.445077457
 10
263.271437846
 20
74.8216791605
  0
LWPOLYLINE
  5
278
330
1F
100
AcDbEntity
  8
0
  6
Continuous
 62
     7
370
    15
100
AcDbPolyline
 90
       26
 70
   128
 43
0.0
 10
263.2428872211
 20
75.4148515468
 10
263.2191422208
 20
75.8561354657
 10
263.1909119709
 20
76.3939295491
 10
263.1599697097
 20
76.9944416885
 10
263.1282600387
 20
77.6199402814
 10
263.0977648123
 20
78.2311216523
 10
263.0704211815
 20
78.7895836463
 10
263.0479278787
 20
79.2602368226
 10
263.0317079647
 20
79.6135061016
 10
263.0227747186
 20
79.827197135
 10
263.0216943844
 20
79.8878811826
 10
263.0285340174
 20
79.7917454099
 10
263.0428614839
 20
79.5448303749
 10
263.0637827142
 20
79.1626509805
 10
263.0899789556
 20
78.6692213794
 10
263.1197961791
 20
78.0955443685
 10
263.1513791903
 20
77.4776667883
 10
263.1827237828
 20
76.8544126828
 10
263.2118779047
 20
76.2649432351
 10
263.2369938119
 20
75.7462962126
 10
263.2565068825
 20
75.3310604547
 10
263.2691803201
 20
75.0453269636
 10
263.2742243631
 20
74.9070488443
 10
263.2713186367
 20
74.9249162679
 10
263.2606494053
 20
75.0978041967
 10
263.2428872211
 20
75.4148515468
  0
ARC
  5
279
330
1F
100
AcDbEntity
  8
0
  6
Continuous
 62
     7
370
    15
100
AcDbCircle
 10
-111.9387634975
 20
71.9838335452
 30
0.0
 40
375.5802804854049
100
AcDbArc
 50
356.6080640003
 51
357.5996618979
  0
LINE
  5
27A
330
1F
100
AcDbEntity
  8
0
  6
Continuous
 62
     7
370
    15
100
AcDbLine
 10
234.8529341443
 20
65.2001083424
 30
0.0
 11
227.8529311343
 21
65.2001083424
 31
0.0
  0
LINE
  5
27B
330
1F
100
AcDbEntity
  8
0
  6
Continuous
 62
     7
370
    15
100
AcDbLine
 10
254.852929972
 20
65.2001083424
 30
0.0
 11
247.8529306872
 21
65.2001083424
 31
0.0
  0
LINE
  5
27C
330
1F
100
AcDbEntity
  8
0
  6
Continuous
 62
     7
370
    15
100
AcDbLine
 10
176.3029320909
 20
40.7414187272
 30
0.0
 11
185.9609995781
 21
40.7414187272
 31
0.0
  0
LINE
  5
27D
330
1F
100
AcDbEntity
  8
0
  6
Continuous
 62
     7
370
    15
100
AcDbLine
 10
185.9609995781
 20
33.7001078357
 30
0.0
 11
185.9609995781
 21
40.7414187272
 31
0.0
  0
LINE
  5
27E
330
1F
100
AcDbEntity
  8
0
  6
Continuous
 62
     7
370
    15
100
AcDbLine
 10
185.9609995781
 20
73.2001087223
 30
0.0
 11
185.9609995781
 21
96.700108849
 31
0.0
  0
LINE
  5
27F
330
1F
100
AcDbEntity
  8
0
  6
Continuous
 62
     7
370
    15
100
AcDbLine
 10
184.3029324709
 20
73.2001087223
 30
0.0
 11
185.9609995781
 21
73.2001087223
 31
0.0
  0
SPLINE
  5
280
330
1F
100
AcDbEntity
  8
0
  6
Continuous
 62
     7
370
    15
100
AcDbSpline
210
0.0
220
0.0
230
1.0
 70
     8
 71
     3
 72
    50
 73
    46
 74
     0
 42
0.00000001
 43
0.00000001
 40
0.0
 40
0.0
 40
0.0
 40
0.0
 40
0.0625000000000003
 40
0.0625000000000003
 40
0.0937500000000003
 40
0.0937500000000003
 40
0.1250000000000004
 40
0.1250000000000004
 40
0.1875000000000002
 40
0.1875000000000002
 40
0.2187500000000001
 40
0.2187500000000001
 40
0.2500000000000001
 40
0.2500000000000001
 40
0.3125000000000001
 40
0.3125000000000001
 40
0.375
 40
0.375
 40
0.40625
 40
0.40625
 40
0.4375000000000001
 40
0.4375000000000001
 40
0.5
 40
0.5
 40
0.5624999999999999
 40
0.5624999999999999
 40
0.6249999999999999
 40
0.6249999999999999
 40
0.6562499999999999
 40
0.6562499999999999
 40
0.6874999999999999
 40
0.6874999999999999
 40
0.71875
 40
0.71875
 40
0.75
 40
0.75
 40
0.8125
 40
0.8125
 40
0.8750000000000001
 40
0.8750000000000001
 40
0.9375000000000001
 40
0.9375000000000001
 40
0.9687500000000001
 40
0.9687500000000001
 40
1.0
 40
1.0
 40
1.0
 40
1.0
 10
184.3029321177451
 20
57.20010834236179
 30
0.0
 10
183.7721622871503
 20
57.20010834236179
 30
0.0
 10
183.2507149607784
 20
57.25240248431484
 30
0.0
 10
182.4818462848525
 20
57.40575501914761
 30
0.0
 10
182.2277896300906
 20
57.46945251449882
 30
0.0
 10
181.7242159628144
 20
57.62254416478863
 30
0.0
 10
181.4745326995116
 20
57.71220026674945
 30
0.0
 10
180.7488990266009
 20
58.0137816549235
 30
0.0
 10
180.2903628747552
 20
58.25952308535748
 30
0.0
 10
179.6395050518747
 20
58.69468315170813
 30
0.0
 10
179.4276937184757
 20
58.85182397916931
 30
0.0
 10
179.022716612147
 20
59.18446307189362
 30
0.0
 10
178.829809853449
 20
59.35952902733365
 30
0.0
 10
178.2789335697871
 20
59.91038455803526
 30
0.0
 10
177.9485248782756
 20
60.31156896722192
 30
0.0
 10
177.3635026939879
 20
61.18505817330931
 30
0.0
 10
177.1163321541798
 20
61.64709876629174
 30
0.0
 10
176.8164009134072
 20
62.36821417988566
 30
0.0
 10
176.7279937571927
 20
62.61377481756904
 30
0.0
 10
176.5748351029607
 20
63.11556311672724
 30
0.0
 10
176.5098400447627
 20
63.37332433304389
 30
0.0
 10
176.3548705641366
 20
64.14843679726367
 30
0.0
 10
176.3034053217683
 20
64.66886598098336
 30
0.0
 10
176.3024653477985
 20
65.71700182176872
 30
0.0
 10
176.3547703969545
 20
66.24951015214249
 30
0.0
 10
176.5595344511606
 20
67.27720041430908
 30
0.0
 10
176.7110824073424
 20
67.77696459489081
 30
0.0
 10
177.0129564223018
 20
68.50545959491127
 30
0.0
 10
177.1263375642637
 20
68.74481058735678
 30
0.0
 10
177.3732234393977
 20
69.20604905884365
 30
0.0
 10
177.5072452625318
 20
69.42931571391091
 30
0.0
 10
177.7960932778199
 20
69.86150331993298
 30
0.0
 10
177.9509196915355
 20
70.07042390017295
 30
0.0
 10
178.28166175263
 20
70.47384882569665
 30
0.0
 10
178.4585984568837
 20
70.66932848566603
 30
0.0
 10
179.0139955086016
 20
71.22518669920227
 30
0.0
 10
179.4152788268371
 20
71.55474408583383
 30
0.0
 10
180.279281925495
 20
72.13413958361977
 30
0.0
 10
180.7475232271889
 20
72.38565955506415
 30
0.0
 10
181.7124837055542
 20
72.78711405167772
 30
0.0
 10
182.2109927643101
 20
72.93959704722484
 30
0.0
 10
182.9834199577461
 20
73.09490799640005
 30
0.0
 10
183.2461512063838
 20
73.13442144380622
 30
0.0
 10
183.7731080298874
 20
73.186934791102
 30
0.0
 10
184.0375396751234
 20
73.20010834236179
 30
0.0
 10
184.3029321177451
 20
73.20010834236179
 30
0.0
  0
LINE
  5
281
330
1F
100
AcDbEntity
  8
0
  6
Continuous
 62
     7
370
    15
100
AcDbLine
 10
185.9609995781
 20
57.2001079624
 30
0.0
 11
184.3029324709
 21
57.2001079624
 31
0.0
  0
LINE
  5
282
330
1F
100
AcDbEntity
  8
0
  6
Continuous
 62
     7
370
    15
100
AcDbLine
 10
185.9609995781
 20
45.3501076033
 30
0.0
 11
185.9609995781
 21
57.2001079624
 31
0.0
  0
LINE
  5
283
330
1F
100
AcDbEntity
  8
0
  6
Continuous
 62
     7
370
    15
100
AcDbLine
 10
183.5485528036
 20
45.3501076033
 30
0.0
 11
185.9609995781
 21
45.3501076033
 31
0.0
  0
SPLINE
  5
284
330
1F
100
AcDbEntity
  8
0
  6
Continuous
 62
     7
370
    15
100
AcDbSpline
210
0.0
220
0.0
230
1.0
 70
     8
 71
     3
 72
    20
 73
    16
 74
     0
 42
0.00000001
 43
0.00000001
 40
0.0
 40
0.0
 40
0.0
 40
0.0
 40
0.2500000000000005
 40
0.2500000000000005
 40
0.3750000000000004
 40
0.3750000000000004
 40
0.5000000000000003
 40
0.5000000000000003
 40
0.6250000000000002
 40
0.6250000000000002
 40
0.7500000000000001
 40
0.7500000000000001
 40
0.8750000000000001
 40
0.8750000000000001
 40
1.0
 40
1.0
 40
1.0
 40
1.0
 10
176.3029321177451
 20
40.74141867999441
 30
0.0
 10
176.5513058520331
 20
41.27207544782908
 30
0.0
 10
176.8708759443784
 20
41.8058034440906
 30
0.0
 10
177.4931821775831
 20
42.58877576207934
 30
0.0
 10
177.7246064380138
 20
42.84675936217602
 30
0.0
 10
178.2458207776635
 20
43.35115461858384
 30
0.0
 10
178.5324412602986
 20
43.59393304101184
 30
0.0
 10
179.1519260016062
 20
44.04461312052491
 30
0.0
 10
179.4862263810932
 20
44.25407698651617
 30
0.0
 10
180.211486853718
 20
44.63236550310423
 30
0.0
 10
180.5934019111085
 20
44.7961131892887
 30
0.0
 10
181.3881900872801
 20
45.06429899148815
 30
0.0
 10
181.8023482814865
 20
45.16952339957491
 30
0.0
 10
182.6678946220679
 20
45.31358262488842
 30
0.0
 10
183.1057822370797
 20
45.35010834236181
 30
0.0
 10
183.5485524634343
 20
45.35010834236181
 30
0.0
  0
ARC
  5
285
330
1F
100
AcDbEntity
  8
0
  6
Continuous
 62
     7
370
    15
100
AcDbCircle
 10
178.352654055
 20
127.9879491464
 30
0.0
 40
31.68479397088422
100
AcDbArc
 50
260.9210305418
 51
278.9630551516
  0
LINE
  5
286
330
1F
100
AcDbEntity
  8
0
  6
Continuous
 62
     7
370
    15
100
AcDbLine
 10
171.3529321177
 20
34.0001091887
 30
0.0
 11
171.3529321177
 21
96.400107496
 31
0.0
  0
SPLINE
  5
287
330
1F
100
AcDbEntity
  8
0
  6
Continuous
 62
     7
370
    15
100
AcDbSpline
210
0.0
220
0.0
230
1.0
 70
    24
 71
     3
 72
    10
 73
     6
 74
     0
 42
0.00000001
 43
0.00000001
 40
0.0
 40
0.0
 40
0.0
 40
0.0
 40
0.5
 40
0.5
 40
1.0
 40
1.0
 40
1.0
 40
1.0
 10
197.3029321177451
 20
57.20010834236179
 30
0.0
 10
197.3029321177451
 20
57.20010834236179
 30
0.0
 10
197.2406942866382
 20
57.20010834236179
 30
0.0
 10
197.0215593628956
 20
57.20010834236179
 30
0.0
 10
196.8639706679038
 20
57.20010834236179
 30
0.0
 10
196.7029321177451
 20
57.20010834236179
 30
0.0
  0
LINE
  5
288
330
1F
100
AcDbEntity
  8
0
  6
Continuous
 62
     7
370
    15
100
AcDbLine
 10
197.3029318078
 20
45.3501076033
 30
0.0
 11
197.3029318078
 21
57.2001079624
 31
0.0
  0
SPLINE
  5
289
330
1F
100
AcDbEntity
  8
0
  6
Continuous
 62
     7
370
    15
100
AcDbSpline
210
0.0
220
0.0
230
1.0
 70
    24
 71
     3
 72
    12
 73
     8
 74
     0
 42
0.00000001
 43
0.00000001
 40
0.0
 40
0.0
 40
0.0
 40
0.0
 40
0.249999999999998
 40
0.249999999999998
 40
0.499999999999996
 40
0.499999999999996
 40
1.0
 40
1.0
 40
1.0
 40
1.0
 10
196.7029321177451
 20
45.35010834236181
 30
0.0
 10
196.7941318395707
 20
45.35010834236181
 30
0.0
 10
196.8847268487067
 20
45.3501083423618
 30
0.0
 10
197.0381395751534
 20
45.35010834236181
 30
0.0
 10
197.1033484424771
 20
45.3501083423618
 30
0.0
 10
197.256132971817
 20
45.35010834236181
 30
0.0
 10
197.3029321177451
 20
45.35010834236181
 30
0.0
 10
197.3029321177451
 20
45.35010834236181
 30
0.0
  0
LINE
  5
28A
330
1F
100
AcDbEntity
  8
0
  6
Continuous
 62
     7
370
    15
100
AcDbLine
 10
197.3029318078
 20
73.2001087223
 30
0.0
 11
197.3029318078
 21
96.1001080056
 31
0.0
  0
SPLINE
  5
28B
330
1F
100
AcDbEntity
  8
0
  6
Continuous
 62
     7
370
    15
100
AcDbSpline
210
0.0
220
0.0
230
1.0
 70
    24
 71
     3
 72
    12
 73
     8
 74
     0
 42
0.00000001
 43
0.00000001
 40
0.0
 40
0.0
 40
0.0
 40
0.0
 40
0.2500000000000038
 40
0.2500000000000038
 40
0.5000000000000077
 40
0.5000000000000077
 40
1.0
 40
1.0
 40
1.0
 40
1.0
 10
196.7029321177451
 20
73.20010834236179
 30
0.0
 10
196.7824250667933
 20
73.20010834236179
 30
0.0
 10
196.8635085681489
 20
73.20010834236179
 30
0.0
 10
197.0099389652867
 20
73.20010834236179
 30
0.0
 10
197.0764875751604
 20
73.20010834236179
 30
0.0
 10
197.2407774491341
 20
73.20010834236179
 30
0.0
 10
197.3029321177452
 20
73.20010834236179
 30
0.0
 10
197.3029321177451
 20
73.20010834236179
 30
0.0
  0
LINE
  5
28C
330
1F
100
AcDbEntity
  8
0
  6
Continuous
 62
     7
370
    15
100
AcDbLine
 10
192.744864039
 20
73.2001087223
 30
0.0
 11
192.744864039
 21
96.700108849
 31
0.0
  0
LINE
  5
28D
330
1F
100
AcDbEntity
  8
0
  6
Continuous
 62
     7
370
    15
100
AcDbLine
 10
191.2629323824
 20
73.2001087223
 30
0.0
 11
191.2629323824
 21
94.1333260914
 31
0.0
  0
SPLINE
  5
28E
330
1F
100
AcDbEntity
  8
0
  6
Continuous
 62
     7
370
    15
100
AcDbSpline
210
0.0
220
0.0
230
1.0
 70
    24
 71
     3
 72
     8
 73
     4
 74
     0
 42
0.00000001
 43
0.00000001
 40
0.0
 40
0.0
 40
0.0
 40
0.0
 40
1.0
 40
1.0
 40
1.0
 40
1.0
 10
191.2629321177451
 20
73.20010834236179
 30
0.0
 10
191.7556422145908
 20
73.20010834236179
 30
0.0
 10
192.2497249198698
 20
73.20010834236179
 30
0.0
 10
192.7448649492341
 20
73.20010834236179
 30
0.0
  0
LINE
  5
28F
330
1F
100
AcDbEntity
  8
0
  6
Continuous
 62
     7
370
    15
100
AcDbLine
 10
192.744864039
 20
73.2001087223
 30
0.0
 11
196.702932827
 21
73.2001087223
 31
0.0
  0
LINE
  5
290
330
1F
100
AcDbEntity
  8
0
  6
Continuous
 62
     7
370
    15
100
AcDbLine
 10
187.442932166
 20
73.2001087223
 30
0.0
 11
187.442932166
 21
94.1333260914
 31
0.0
  0
SPLINE
  5
291
330
1F
100
AcDbEntity
  8
0
  6
Continuous
 62
     7
370
    15
100
AcDbSpline
210
0.0
220
0.0
230
1.0
 70
    24
 71
     3
 72
     8
 73
     4
 74
     0
 42
0.00000001
 43
0.00000001
 40
0.0
 40
0.0
 40
0.0
 40
0.0
 40
1.0
 40
1.0
 40
1.0
 40
1.0
 10
185.960999286256
 20
73.20010834236179
 30
0.0
 10
186.4561393156203
 20
73.20010834236179
 30
0.0
 10
186.9502220208993
 20
73.20010834236179
 30
0.0
 10
187.442932117745
 20
73.20010834236179
 30
0.0
  0
LINE
  5
292
330
1F
100
AcDbEntity
  8
0
  6
Continuous
 62
     7
370
    15
100
AcDbLine
 10
192.744864039
 20
45.3501076033
 30
0.0
 11
196.702932827
 21
45.3501076033
 31
0.0
  0
LINE
  5
293
330
1F
100
AcDbEntity
  8
0
  6
Continuous
 62
     7
370
    15
100
AcDbLine
 10
192.744864039
 20
45.3501076033
 30
0.0
 11
192.744864039
 21
57.2001079624
 31
0.0
  0
LINE
  5
294
330
1F
100
AcDbEntity
  8
0
  6
Continuous
 62
     7
370
    15
100
AcDbLine
 10
196.702932827
 20
57.2001079624
 30
0.0
 11
192.744864039
 21
57.2001079624
 31
0.0
  0
SPLINE
  5
295
330
1F
100
AcDbEntity
  8
0
  6
Continuous
 62
     7
370
    15
100
AcDbSpline
210
0.0
220
0.0
230
1.0
 70
    24
 71
     3
 72
     8
 73
     4
 74
     0
 42
0.00000001
 43
0.00000001
 40
0.0
 40
0.0
 40
0.0
 40
0.0
 40
1.0
 40
1.0
 40
1.0
 40
1.0
 10
191.2629321177451
 20
45.35010834236182
 30
0.0
 10
191.7422102683349
 20
45.35010834236181
 30
0.0
 10
192.2377781074748
 20
45.35010834236181
 30
0.0
 10
192.7448649492341
 20
45.35010834236181
 30
0.0
  0
LINE
  5
296
330
1F
100
AcDbEntity
  8
0
  6
Continuous
 62
     7
370
    15
100
AcDbLine
 10
191.2629323824
 20
45.3501076033
 30
0.0
 11
191.2629323824
 21
57.2001079624
 31
0.0
  0
SPLINE
  5
297
330
1F
100
AcDbEntity
  8
0
  6
Continuous
 62
     7
370
    15
100
AcDbSpline
210
0.0
220
0.0
230
1.0
 70
    24
 71
     3
 72
     8
 73
     4
 74
     0
 42
0.00000001
 43
0.00000001
 40
0.0
 40
0.0
 40
0.0
 40
0.0
 40
1.0
 40
1.0
 40
1.0
 40
1.0
 10
192.7448649492341
 20
57.20010834236179
 30
0.0
 10
192.2497249198698
 20
57.20010834236179
 30
0.0
 10
191.7556422145908
 20
57.2001083423618
 30
0.0
 10
191.2629321177451
 20
57.2001083423618
 30
0.0
  0
LINE
  5
298
330
1F
100
AcDbEntity
  8
0
  6
Continuous
 62
     7
370
    15
100
AcDbLine
 10
187.442932166
 20
45.3501076033
 30
0.0
 11
187.442932166
 21
57.2001079624
 31
0.0
  0
SPLINE
  5
299
330
1F
100
AcDbEntity
  8
0
  6
Continuous
 62
     7
370
    15
100
AcDbSpline
210
0.0
220
0.0
230
1.0
 70
    24
 71
     3
 72
     8
 73
     4
 74
     0
 42
0.00000001
 43
0.00000001
 40
0.0
 40
0.0
 40
0.0
 40
0.0
 40
1.0
 40
1.0
 40
1.0
 40
1.0
 10
185.960999286256
 20
45.35010834236181
 30
0.0
 10
186.4680861280153
 20
45.35010834236181
 30
0.0
 10
186.9636539671552
 20
45.35010834236181
 30
0.0
 10
187.442932117745
 20
45.35010834236182
 30
0.0
  0
SPLINE
  5
29A
330
1F
100
AcDbEntity
  8
0
  6
Continuous
 62
     7
370
    15
100
AcDbSpline
210
0.0
220
0.0
230
1.0
 70
    24
 71
     3
 72
     8
 73
     4
 74
     0
 42
0.00000001
 43
0.00000001
 40
0.0
 40
0.0
 40
0.0
 40
0.0
 40
1.0
 40
1.0
 40
1.0
 40
1.0
 10
187.442932117745
 20
57.20010834236181
 30
0.0
 10
186.9502220208993
 20
57.2001083423618
 30
0.0
 10
186.4561393156203
 20
57.20010834236179
 30
0.0
 10
185.960999286256
 20
57.20010834236179
 30
0.0
  0
LINE
  5
29B
330
1F
100
AcDbEntity
  8
0
  6
Continuous
 62
     7
370
    15
100
AcDbLine
 10
261.352935694
 20
100.2001084914
 30
0.0
 11
217.104220651
 21
100.2001084914
 31
0.0
  0
LINE
  5
29C
330
1F
100
AcDbEntity
  8
0
  6
Continuous
 62
     7
370
    15
100
AcDbLine
 10
261.352935694
 20
100.2001084914
 30
0.0
 11
261.352935694
 21
91.6576210936
 31
0.0
  0
LINE
  5
29D
330
1F
100
AcDbEntity
  8
0
  6
Continuous
 62
     7
370
    15
100
AcDbLine
 10
217.104220651
 20
91.6576210936
 30
0.0
 11
261.352935694
 21
91.6576210936
 31
0.0
  0
LINE
  5
29E
330
1F
100
AcDbEntity
  8
0
  6
Continuous
 62
     7
370
    15
100
AcDbLine
 10
217.104220651
 20
100.2001084914
 30
0.0
 11
217.104220651
 21
91.6576210936
 31
0.0
  0
SPLINE
  5
29F
330
1F
100
AcDbEntity
  8
0
  6
Continuous
 62
     7
370
    15
100
AcDbSpline
210
0.0
220
0.0
230
1.0
 70
    24
 71
     3
 72
    10
 73
     6
 74
     0
 42
0.00000001
 43
0.00000001
 40
0.0
 40
0.0
 40
0.0
 40
0.0
 40
0.3514864707577212
 40
0.7029320803304265
 40
1.0
 40
1.0
 40
1.0
 40
1.0
 10
217.1042206509558
 20
100.2001084913734
 30
0.0
 10
216.8359511529822
 20
100.2001084913734
 30
0.0
 10
216.299443344038
 20
100.2001084913735
 30
0.0
 10
215.8376334100709
 20
100.2001084913735
 30
0.0
 10
215.805372023583
 20
100.2001084913735
 30
0.0
 10
215.790593884751
 20
100.2001084913735
 30
0.0
  0
SPLINE
  5
2A0
330
1F
100
AcDbEntity
  8
0
  6
Continuous
 62
     7
370
    15
100
AcDbSpline
210
0.0
220
0.0
230
1.0
 70
     8
 71
     3
 72
    18
 73
    14
 74
     0
 42
0.00000001
 43
0.00000001
 40
0.0
 40
0.0
 40
0.0
 40
0.0
 40
0.25
 40
0.25
 40
0.375
 40
0.375
 40
0.5
 40
0.5
 40
0.625
 40
0.625
 40
0.75
 40
0.75
 40
1.0
 40
1.0
 40
1.0
 40
1.0
 10
217.1042208117808
 20
91.65762145300768
 30
0.0
 10
216.3288336556231
 20
87.28263087817194
 30
0.0
 10
215.6575046845123
 20
82.90144369734973
 30
0.0
 10
214.9415595091897
 20
76.31233116579688
 30
0.0
 10
214.7521851627331
 20
74.11302608045351
 30
0.0
 10
214.4945051459156
 20
69.70720633867214
 30
0.0
 10
214.4265437165814
 20
67.500671182876
 30
0.0
 10
214.4229865436633
 20
63.07971856966225
 30
0.0
 10
214.4874279067259
 20
60.86529890256487
 30
0.0
 10
214.7410953050712
 20
56.42902871181084
 30
0.0
 10
214.9300040201438
 20
54.20719708439302
 30
0.0
 10
215.6511066830373
 20
47.53250916794271
 30
0.0
 10
216.3275064102537
 20
43.12507456353653
 30
0.0
 10
217.1042208117808
 20
38.7425952317159
 30
0.0
  0
LINE
  5
2A1
330
1F
100
AcDbEntity
  8
0
  6
Continuous
 62
     7
370
    15
100
AcDbLine
 10
217.104220651
 20
38.7425955911
 30
0.0
 11
217.104220651
 21
35.2001090129
 31
0.0
  0
SPLINE
  5
2A2
330
1F
100
AcDbEntity
  8
0
  6
Continuous
 62
     7
370
    15
100
AcDbSpline
210
0.0
220
0.0
230
1.0
 70
    24
 71
     3
 72
     8
 73
     4
 74
     0
 42
0.00000001
 43
0.00000001
 40
0.0
 40
0.0
 40
0.0
 40
0.0
 40
1.0
 40
1.0
 40
1.0
 40
1.0
 10
217.1042208117808
 20
35.2001083423618
 30
0.0
 10
216.3113089997062
 20
35.20010834236182
 30
0.0
 10
215.6264874218665
 20
35.20010834236183
 30
0.0
 10
215.1470034725521
 20
35.20010834236185
 30
0.0
  0
SPLINE
  5
2A3
330
1F
100
AcDbEntity
  8
0
  6
Continuous
 62
     7
370
    15
100
AcDbSpline
210
0.0
220
0.0
230
1.0
 70
     8
 71
     3
 72
     8
 73
     4
 74
     0
 42
0.00000001
 43
0.00000001
 40
0.0
 40
0.0
 40
0.0
 40
0.0
 40
1.0
 40
1.0
 40
1.0
 40
1.0
 10
215.1470034725521
 20
35.20010834236185
 30
0.0
 10
215.379844721987
 20
33.52883533173058
 30
0.0
 10
215.6713343029354
 20
31.86260217221937
 30
0.0
 10
216.0063381544338
 20
30.20010834236187
 30
0.0
  0
SPLINE
  5
2A4
330
1F
100
AcDbEntity
  8
0
  6
Continuous
 62
     7
370
    15
100
AcDbSpline
210
0.0
220
0.0
230
1.0
 70
    24
 71
     3
 72
     9
 73
     5
 74
     0
 42
0.00000001
 43
0.00000001
 40
0.0
 40
0.0
 40
0.0
 40
0.0
 40
0.1395221839440282
 40
1.0
 40
1.0
 40
1.0
 40
1.0
 10
215.790593884751
 20
30.20010819335028
 30
0.0
 10
215.7827782852555
 20
30.20010819335028
 30
0.0
 10
215.7267613904898
 20
30.20010819335025
 30
0.0
 10
215.8770320515551
 20
30.20010819335026
 30
0.0
 10
216.0063366218058
 20
30.20010819335026
 30
0.0
  0
LINE
  5
2A5
330
1F
100
AcDbEntity
  8
0
  6
Continuous
 62
     7
370
    15
100
AcDbLine
 10
261.352935694
 20
38.7425955911
 30
0.0
 11
217.104220651
 21
38.7425955911
 31
0.0
  0
LINE
  5
2A6
330
1F
100
AcDbEntity
  8
0
  6
Continuous
 62
     7
370
    15
100
AcDbLine
 10
224.8529325052
 20
85.2001078953
 30
0.0
 11
261.352935694
 21
85.2001078953
 31
0.0
  0
ARC
  5
2A7
330
1F
100
AcDbEntity
  8
0
  6
Continuous
 62
     7
370
    15
100
AcDbCircle
 10
220.6029321177
 20
85.2001083424
 30
0.0
 40
4.25
100
AcDbArc
 50
0.0
 51
180.0
  0
LINE
  5
2A8
330
1F
100
AcDbEntity
  8
0
  6
Continuous
 62
     7
370
    15
100
AcDbLine
 10
216.3529339059
 20
64.2001082949
 30
0.0
 11
216.3529339059
 21
85.2001078953
 31
0.0
  0
ARC
  5
2A9
330
1F
100
AcDbEntity
  8
0
  6
Continuous
 62
     7
370
    15
100
AcDbCircle
 10
220.6029321177
 20
64.2001083424
 30
0.0
 40
4.25
100
AcDbArc
 50
180.0
 51
0.0
  0
LINE
  5
2AA
330
1F
100
AcDbEntity
  8
0
  6
Continuous
 62
     7
370
    15
100
AcDbLine
 10
261.352935694
 20
64.2001082949
 30
0.0
 11
224.8529325052
 21
64.2001082949
 31
0.0
  0
LINE
  5
2AB
330
1F
100
AcDbEntity
  8
0
  6
Continuous
 62
     7
370
    15
100
AcDbLine
 10
261.352935694
 20
64.2001082949
 30
0.0
 11
261.352935694
 21
38.7425955911
 31
0.0
  0
LINE
  5
2AC
330
1F
100
AcDbEntity
  8
0
  6
Continuous
 62
     7
370
    15
100
AcDbLine
 10
261.352935694
 20
91.6576210936
 30
0.0
 11
261.352935694
 21
85.2001078953
 31
0.0
  0
LINE
  5
2AD
330
1F
100
AcDbEntity
  8
0
  6
Continuous
 62
     7
370
    15
100
AcDbLine
 10
261.352935694
 20
35.2001090129
 30
0.0
 11
217.104220651
 21
35.2001090129
 31
0.0
  0
LINE
  5
2AE
330
1F
100
AcDbEntity
  8
0
  6
Continuous
 62
     7
370
    15
100
AcDbLine
 10
261.352935694
 20
38.7425955911
 30
0.0
 11
261.352935694
 21
35.2001090129
 31
0.0
  0
SPLINE
  5
2AF
330
1F
100
AcDbEntity
  8
0
  6
Continuous
 62
     7
370
    15
100
AcDbSpline
210
0.0
220
0.0
230
1.0
 70
     8
 71
     3
 72
    12
 73
     8
 74
     0
 42
0.00000001
 43
0.00000001
 40
0.0
 40
0.0
 40
0.0
 40
0.0
 40
0.2499999999999983
 40
0.2499999999999983
 40
0.4999999999999967
 40
0.4999999999999967
 40
1.0
 40
1.0
 40
1.0
 40
1.0
 10
190.4629321177451
 20
72.81033994199139
 30
0.0
 10
190.512467223963
 20
72.81033994199137
 30
0.0
 10
190.5608721125645
 20
72.82806444560228
 30
0.0
 10
190.6437586617421
 20
72.88072976696924
 30
0.0
 10
190.6802733832105
 20
72.9157049540531
 30
0.0
 10
190.7766062215651
 20
73.02790190323064
 30
0.0
 10
190.8253587692278
 20
73.11230485872693
 30
0.0
 10
190.8686345860584
 20
73.2001083423591
 30
0.0
  0
SPLINE
  5
2B0
330
1F
100
AcDbEntity
  8
0
  6
Continuous
 62
     7
370
    15
100
AcDbSpline
210
0.0
220
0.0
230
1.0
 70
    24
 71
     3
 72
    10
 73
     6
 74
     0
 42
0.00000001
 43
0.00000001
 40
0.0
 40
0.0
 40
0.0
 40
0.0
 40
0.5
 40
0.5
 40
1.0
 40
1.0
 40
1.0
 40
1.0
 10
190.8686345860541
 20
73.2001083423618
 30
0.0
 10
190.9899471091518
 20
73.2001083423618
 30
0.0
 10
191.091375471377
 20
73.2001083423618
 30
0.0
 10
191.2273190376371
 20
73.2001083423618
 30
0.0
 10
191.2629321177451
 20
73.2001083423618
 30
0.0
 10
191.2629321177451
 20
73.20010834236179
 30
0.0
  0
SPLINE
  5
2B1
330
1F
100
AcDbEntity
  8
0
  6
Continuous
 62
     7
370
    15
100
AcDbSpline
210
0.0
220
0.0
230
1.0
 70
     8
 71
     3
 72
    12
 73
     8
 74
     0
 42
0.00000001
 43
0.00000001
 40
0.0
 40
0.0
 40
0.0
 40
0.0
 40
0.4999999999999967
 40
0.4999999999999967
 40
0.7499999999999983
 40
0.7499999999999983
 40
1.0
 40
1.0
 40
1.0
 40
1.0
 10
187.837229649436
 20
73.20010834236176
 30
0.0
 10
187.8803529978696
 20
73.11261420601468
 30
0.0
 10
187.9300925851698
 20
73.0266228109083
 30
0.0
 10
188.0266135619918
 20
72.91467082853534
 30
0.0
 10
188.0621786928435
 20
72.88062458085571
 30
0.0
 10
188.1455270234664
 20
72.82778373183524
 30
0.0
 10
188.1939969231567
 20
72.81033994199147
 30
0.0
 10
188.2429321177462
 20
72.81033994199174
 30
0.0
  0
SPLINE
  5
2B2
330
1F
100
AcDbEntity
  8
0
  6
Continuous
 62
     7
370
    15
100
AcDbSpline
210
0.0
220
0.0
230
1.0
 70
    24
 71
     3
 72
    10
 73
     6
 74
     0
 42
0.00000001
 43
0.00000001
 40
0.0
 40
0.0
 40
0.0
 40
0.0
 40
0.5
 40
0.5
 40
1.0
 40
1.0
 40
1.0
 40
1.0
 10
187.442932117745
 20
73.20010834236179
 30
0.0
 10
187.442932117745
 20
73.20010834236179
 30
0.0
 10
187.4790993928429
 20
73.2001083423618
 30
0.0
 10
187.6148553365968
 20
73.20010834236179
 30
0.0
 10
187.7151250272197
 20
73.2001083423618
 30
0.0
 10
187.8372296494361
 20
73.2001083423618
 30
0.0
  0
SPLINE
  5
2B3
330
1F
100
AcDbEntity
  8
0
  6
Continuous
 62
     7
370
    15
100
AcDbSpline
210
0.0
220
0.0
230
1.0
 70
     8
 71
     3
 72
    12
 73
     8
 74
     0
 42
0.00000001
 43
0.00000001
 40
0.0
 40
0.0
 40
0.0
 40
0.0
 40
0.2500000000000012
 40
0.2500000000000012
 40
0.5000000000000024
 40
0.5000000000000024
 40
1.0
 40
1.0
 40
1.0
 40
1.0
 10
188.2429321177451
 20
57.58987674273221
 30
0.0
 10
188.1935887559354
 20
57.58987674273222
 30
0.0
 10
188.1448980576338
 20
57.57210717116863
 30
0.0
 10
188.0620469600634
 20
57.51943494782981
 30
0.0
 10
188.0258469924428
 20
57.48473752065797
 30
0.0
 10
187.9300970758934
 20
57.37343555830286
 30
0.0
 10
187.8802151060813
 20
57.28732270630332
 30
0.0
 10
187.837229649436
 20
57.20010834236181
 30
0.0
  0
SPLINE
  5
2B4
330
1F
100
AcDbEntity
  8
0
  6
Continuous
 62
     7
370
    15
100
AcDbSpline
210
0.0
220
0.0
230
1.0
 70
     8
 71
     3
 72
    10
 73
     6
 74
     0
 42
0.00000001
 43
0.00000001
 40
0.0
 40
0.0
 40
0.0
 40
0.0
 40
0.5
 40
0.5
 40
1.0
 40
1.0
 40
1.0
 40
1.0
 10
187.442932117745
 20
45.06424171090044
 30
0.0
 10
187.442932117745
 20
45.11249625894066
 30
0.0
 10
187.4451539762297
 20
45.16072929155
 30
0.0
 10
187.4538906479533
 20
45.25605420776689
 30
0.0
 10
187.4604021617477
 20
45.30329457453428
 30
0.0
 10
187.4690797409052
 20
45.35010834236182
 30
0.0
  0
SPLINE
  5
2B5
330
1F
100
AcDbEntity
  8
0
  6
Continuous
 62
     7
370
    15
100
AcDbSpline
210
0.0
220
0.0
230
1.0
 70
    24
 71
     3
 72
    10
 73
     6
 74
     0
 42
0.00000001
 43
0.00000001
 40
0.0
 40
0.0
 40
0.0
 40
0.0
 40
0.5
 40
0.5
 40
1.0
 40
1.0
 40
1.0
 40
1.0
 10
187.837229649436
 20
57.20010834236181
 30
0.0
 10
187.7156893857675
 20
57.20010834236181
 30
0.0
 10
187.6143550254186
 20
57.20010834236181
 30
0.0
 10
187.4787160825301
 20
57.20010834236181
 30
0.0
 10
187.442932117745
 20
57.20010834236181
 30
0.0
 10
187.442932117745
 20
57.20010834236181
 30
0.0
  0
SPLINE
  5
2B6
330
1F
100
AcDbEntity
  8
0
  6
Continuous
 62
     7
370
    15
100
AcDbSpline
210
0.0
220
0.0
230
1.0
 70
     8
 71
     3
 72
    12
 73
     8
 74
     0
 42
0.00000001
 43
0.00000001
 40
0.0
 40
0.0
 40
0.0
 40
0.0
 40
0.5000000000000024
 40
0.5000000000000024
 40
0.7500000000000012
 40
0.7500000000000012
 40
1.0
 40
1.0
 40
1.0
 40
1.0
 10
190.8686345860541
 20
57.20010834236182
 30
0.0
 10
190.8255490364433
 20
57.28752578764764
 30
0.0
 10
190.7763968346962
 20
57.37265591108291
 30
0.0
 10
190.6799242404066
 20
57.48486939597189
 30
0.0
 10
190.6438226552724
 20
57.51945506991771
 30
0.0
 10
190.5607168974099
 20
57.57224203863297
 30
0.0
 10
190.5127203004458
 20
57.58987674273223
 30
0.0
 10
190.4629321177451
 20
57.58987674273224
 30
0.0
  0
SPLINE
  5
2B7
330
1F
100
AcDbEntity
  8
0
  6
Continuous
 62
     7
370
    15
100
AcDbSpline
210
0.0
220
0.0
230
1.0
 70
     8
 71
     3
 72
    10
 73
     6
 74
     0
 42
0.00000001
 43
0.00000001
 40
0.0
 40
0.0
 40
0.0
 40
0.0
 40
0.5
 40
0.5
 40
1.0
 40
1.0
 40
1.0
 40
1.0
 10
191.236784494585
 20
45.35010834236183
 30
0.0
 10
191.2454622694926
 20
45.3032935185023
 30
0.0
 10
191.2520152934995
 20
45.25574751455515
 30
0.0
 10
191.2607499029965
 20
45.16014700063273
 30
0.0
 10
191.2629321177451
 20
45.11203846772658
 30
0.0
 10
191.2629321177451
 20
45.06424171090044
 30
0.0
  0
SPLINE
  5
2B8
330
1F
100
AcDbEntity
  8
0
  6
Continuous
 62
     7
370
    15
100
AcDbSpline
210
0.0
220
0.0
230
1.0
 70
    24
 71
     3
 72
    10
 73
     6
 74
     0
 42
0.00000001
 43
0.00000001
 40
0.0
 40
0.0
 40
0.0
 40
0.0
 40
0.5
 40
0.5
 40
1.0
 40
1.0
 40
1.0
 40
1.0
 10
191.2629321177451
 20
57.20010834236181
 30
0.0
 10
191.2629321177451
 20
57.20010834236181
 30
0.0
 10
191.2268830590262
 20
57.20010834236181
 30
0.0
 10
191.0913741982521
 20
57.20010834236181
 30
0.0
 10
190.991498205156
 20
57.20010834236181
 30
0.0
 10
190.868634586054
 20
57.20010834236181
 30
0.0
  0
LINE
  5
2B9
330
1F
100
AcDbEntity
  8
0
  6
Continuous
 62
     7
370
    15
100
AcDbLine
 10
188.2429326697
 20
72.8103399803
 30
0.0
 11
190.4629318787
 21
72.8103399803
 31
0.0
  0
SPLINE
  5
2BA
330
1F
100
AcDbEntity
  8
0
  6
Continuous
 62
     7
370
    15
100
AcDbSpline
210
0.0
220
0.0
230
1.0
 70
     8
 71
     3
 72
    20
 73
    16
 74
     0
 42
0.00000001
 43
0.00000001
 40
0.0
 40
0.0
 40
0.0
 40
0.0
 40
0.2500000000000001
 40
0.2500000000000001
 40
0.375
 40
0.375
 40
0.4375000000000001
 40
0.4375000000000001
 40
0.4687500000000001
 40
0.4687500000000001
 40
0.5
 40
0.5
 40
0.75
 40
0.75
 40
1.0
 40
1.0
 40
1.0
 40
1.0
 10
197.3029321177451
 20
70.86049702159578
 30
0.0
 10
197.3029321177451
 20
69.8994129684561
 30
0.0
 10
197.3607615145321
 20
68.93931464655967
 30
0.0
 10
197.4376199931734
 20
67.49899865839382
 30
0.0
 10
197.4618889721231
 20
67.01887030881392
 30
0.0
 10
197.4869385911607
 20
66.29848425235322
 30
0.0
 10
197.493420800025
 20
66.05832373158869
 30
0.0
 10
197.4996270301048
 20
65.69802299998408
 30
0.0
 10
197.5011140525533
 20
65.57791284038946
 30
0.0
 10
197.5028669207622
 20
65.33767170562747
 30
0.0
 10
197.5031189563826
 20
65.21692699017892
 30
0.0
 10
197.5001813352351
 20
64.17334628668618
 30
0.0
 10
197.4563032656571
 20
63.24675269113678
 30
0.0
 10
197.356919467178
 20
61.39406433343131
 30
0.0
 10
197.3029321177451
 20
60.46787687626978
 30
0.0
 10
197.3029321177451
 20
59.53971966312784
 30
0.0
  0
LINE
  5
2BB
330
1F
100
AcDbEntity
  8
0
  6
Continuous
 62
     7
370
    15
100
AcDbLine
 10
190.4629318787
 20
57.5898767044
 30
0.0
 11
188.2429326697
 21
57.5898767044
 31
0.0
  0
LINE
  5
2BC
330
1F
100
AcDbEntity
  8
0
  6
Continuous
 62
     7
370
    15
100
AcDbLine
 10
197.3029318078
 20
73.2001087223
 30
0.0
 11
197.3029318078
 21
70.8604969611
 31
0.0
  0
LINE
  5
2BD
330
1F
100
AcDbEntity
  8
0
  6
Continuous
 62
     7
370
    15
100
AcDbLine
 10
197.3029318078
 20
59.5397197237
 30
0.0
 11
197.3029318078
 21
57.2001079624
 31
0.0
  0
LINE
  5
2BE
330
1F
100
AcDbEntity
  8
0
  6
Continuous
 62
     7
370
    15
100
AcDbLine
 10
169.3529320228
 20
40.9796771189
 30
0.0
 11
169.3529320228
 21
89.4205395659
 31
0.0
  0
SPLINE
  5
2BF
330
1F
100
AcDbEntity
  8
0
  6
Continuous
 62
     7
370
    15
100
AcDbSpline
210
0.0
220
0.0
230
1.0
 70
     8
 71
     3
 72
     8
 73
     4
 74
     0
 42
0.00000001
 43
0.00000001
 40
0.0000003292049707
 40
0.0000003292049707
 40
0.0000003292049707
 40
0.0000003292049707
 40
0.0000169050949325
 40
0.0000169050949325
 40
0.0000169050949325
 40
0.0000169050949325
 10
140.602932117745
 20
56.06904157904349
 30
0.0
 10
140.5995755356082
 20
56.06509106793146
 30
0.0
 10
140.5962271714827
 20
56.06113515558668
 30
0.0
 10
140.5928871873137
 20
56.05717379851549
 30
0.0
  0
SPLINE
  5
2C0
330
1F
100
AcDbEntity
  8
0
  6
Continuous
 62
     7
370
    15
100
AcDbSpline
210
0.0
220
0.0
230
1.0
 70
     8
 71
     3
 72
    10
 73
     6
 74
     0
 42
0.00000001
 43
0.00000001
 40
0.0
 40
0.0
 40
0.0
 40
0.0
 40
0.5
 40
0.5
 40
1.0
 40
1.0
 40
1.0
 40
1.0
 10
144.1529321177451
 20
55.53240588895186
 30
0.0
 10
143.5653465706544
 20
55.64768534994531
 30
0.0
 10
142.9746001771941
 20
55.74295490378553
 30
0.0
 10
141.7905810118952
 20
55.91749313472953
 30
0.0
 10
141.1971670236898
 20
55.99586811057316
 30
0.0
 10
140.602932117745
 20
56.06904157904348
 30
0.0
  0
SPLINE
  5
2C1
330
1F
100
AcDbEntity
  8
0
  6
Continuous
 62
     7
370
    15
100
AcDbSpline
210
0.0
220
0.0
230
1.0
 70
     8
 71
     3
 72
    18
 73
    14
 74
     0
 42
0.00000001
 43
0.00000001
 40
0.0
 40
0.0
 40
0.0
 40
0.0
 40
0.2500000000000003
 40
0.2500000000000003
 40
0.4999999999999999
 40
0.4999999999999999
 40
0.7499999999999996
 40
0.7499999999999996
 40
0.8749999999999993
 40
0.8749999999999993
 40
0.9374999999999997
 40
0.9374999999999997
 40
1.0
 40
1.0
 40
1.0
 40
1.0
 10
145.5529321177451
 20
57.91135901055049
 30
0.0
 10
145.5529321177451
 20
57.66199103349187
 30
0.0
 10
145.5170830178068
 20
57.41618247911307
 30
0.0
 10
145.3922112817729
 20
56.94405865533491
 30
0.0
 10
145.301810864125
 20
56.71333007638342
 30
0.0
 10
145.0795682093828
 20
56.27978014731817
 30
0.0
 10
144.9498034229371
 20
56.07438231687337
 30
0.0
 10
144.7091659656255
 20
55.79208879500669
 30
0.0
 10
144.6213986674881
 20
55.70170920274204
 30
0.0
 10
144.4668745802813
 20
55.59408779787242
 30
0.0
 10
144.4102636942266
 20
55.56251322189813
 30
0.0
 10
144.2862196633199
 20
55.52433877980076
 30
0.0
 10
144.2185049883016
 20
55.51954103002027
 30
0.0
 10
144.1529321177451
 20
55.53240588895186
 30
0.0
  0
LINE
  5
2C2
330
1F
100
AcDbEntity
  8
0
  6
Continuous
 62
     7
370
    15
100
AcDbLine
 10
145.5529312416
 20
57.9113590126
 30
0.0
 11
145.5529312416
 21
72.4888576721
 31
0.0
  0
SPLINE
  5
2C3
330
1F
100
AcDbEntity
  8
0
  6
Continuous
 62
     7
370
    15
100
AcDbSpline
210
0.0
220
0.0
230
1.0
 70
     8
 71
     3
 72
    18
 73
    14
 74
     0
 42
0.00000001
 43
0.00000001
 40
0.0
 40
0.0
 40
0.0
 40
0.0
 40
0.2499999999999996
 40
0.2499999999999996
 40
0.5
 40
0.5
 40
0.7500000000000003
 40
0.7500000000000003
 40
0.8750000000000007
 40
0.8750000000000007
 40
0.9375000000000003
 40
0.9375000000000003
 40
1.0
 40
1.0
 40
1.0
 40
1.0
 10
145.5529321177451
 20
72.48885767417315
 30
0.0
 10
145.5529321177451
 20
72.73822565123179
 30
0.0
 10
145.5170830178068
 20
72.98403420561057
 30
0.0
 10
145.3922112817729
 20
73.45615802938873
 30
0.0
 10
145.301810864125
 20
73.68688660834022
 30
0.0
 10
145.0795682093828
 20
74.12043653740548
 30
0.0
 10
144.9498034229371
 20
74.32583436785029
 30
0.0
 10
144.7091659656255
 20
74.60812788971697
 30
0.0
 10
144.6213986674881
 20
74.69850748198161
 30
0.0
 10
144.4668745802813
 20
74.80612888685123
 30
0.0
 10
144.4102636942266
 20
74.8377034628255
 30
0.0
 10
144.2862196633199
 20
74.87587790492287
 30
0.0
 10
144.2185049883016
 20
74.88067565470337
 30
0.0
 10
144.1529321177451
 20
74.86781079577179
 30
0.0
  0
SPLINE
  5
2C4
330
1F
100
AcDbEntity
  8
0
  6
Continuous
 62
     7
370
    15
100
AcDbSpline
210
0.0
220
0.0
230
1.0
 70
     8
 71
     3
 72
    10
 73
     6
 74
     0
 42
0.00000001
 43
0.00000001
 40
0.0
 40
0.0
 40
0.0
 40
0.0
 40
0.5
 40
0.5
 40
1.0
 40
1.0
 40
1.0
 40
1.0
 10
144.1529321177451
 20
74.86781079577179
 30
0.0
 10
143.5653465706544
 20
74.75253133477833
 30
0.0
 10
142.9746001771941
 20
74.65726178093811
 30
0.0
 10
141.7905810118952
 20
74.4827235499941
 30
0.0
 10
141.1971670236898
 20
74.40434857415049
 30
0.0
 10
140.602932117745
 20
74.33117510568016
 30
0.0
  0
SPLINE
  5
2C5
330
1F
100
AcDbEntity
  8
0
  6
Continuous
 62
     7
370
    15
100
AcDbSpline
210
0.0
220
0.0
230
1.0
 70
     8
 71
     3
 72
     8
 73
     4
 74
     0
 42
0.00000001
 43
0.00000001
 40
0.0000003292049693
 40
0.0000003292049693
 40
0.0000003292049693
 40
0.0000003292049693
 40
0.000016905094931
 40
0.000016905094931
 40
0.000016905094931
 40
0.000016905094931
 10
140.602932117745
 20
74.33117510568015
 30
0.0
 10
140.5995755356082
 20
74.33512561679217
 30
0.0
 10
140.5962271714827
 20
74.33908152913698
 30
0.0
 10
140.5928871873137
 20
74.34304288620817
 30
0.0
  0
SPLINE
  5
2C6
330
1F
100
AcDbEntity
  8
0
  6
Continuous
 62
     7
370
    15
100
AcDbSpline
210
0.0
220
0.0
230
1.0
 70
     8
 71
     3
 72
    41
 73
    37
 74
     0
 42
0.00000001
 43
0.00000001
 40
-0.0940865190510254
 40
-0.0625079973924747
 40
-0.0310214310383392
 40
0.0
 40
0.0310286301596213
 40
0.062266043577249
 40
0.0934345644894559
 40
0.1242054351189649
 40
0.1548770270535461
 40
0.1861441789778781
 40
0.217318010926304
 40
0.2483913843714051
 40
0.2795144603518663
 40
0.3110740838700811
 40
0.342755815237211
 40
0.3740614836773025
 40
0.3746568878034042
 40
0.4058391077761273
 40
0.4375136922561945
 40
0.4690248846778461
 40
0.5000905621707045
 40
0.531141900667525
 40
0.5623304404838242
 40
0.5935235650847404
 40
0.6242027436518655
 40
0.6549460164219498
 40
0.6861283805682501
 40
0.7173884470638404
 40
0.748427276024015
 40
0.7795638883964432
 40
0.8111860779790591
 40
0.8428532031468887
 40
0.8742382147694744
 40
0.874648614737692
 40
0.9059134809489746
 40
0.9374920026075253
 40
0.9689785689616608
 40
1.0
 40
1.031028630159621
 40
1.062266043577249
 40
1.093434564489456
 10
158.8044136610914
 20
67.59797587079831
 30
0.0
 10
159.3285179941635
 20
68.25120931186785
 30
0.0
 10
159.9685923212338
 20
68.78863470850581
 30
0.0
 10
160.7056337927816
 20
69.18639433919911
 30
0.0
 10
161.5023800156143
 20
69.43895509605001
 30
0.0
 10
162.3290351742499
 20
69.52253130193188
 30
0.0
 10
163.1549085448169
 20
69.43920604272436
 30
0.0
 10
163.9471299688533
 20
69.18871310613898
 30
0.0
 10
164.6800418708572
 20
68.79420068547927
 30
0.0
 10
165.3176542648557
 20
68.26196821118391
 30
0.0
 10
165.8426156036776
 20
67.61298672599273
 30
0.0
 10
166.2315703222473
 20
66.86624574764886
 30
0.0
 10
166.4799100660579
 20
66.05785862598307
 30
0.0
 10
166.5369496940553
 20
65.4896844190125
 30
0.0
 10
166.5379874639246
 20
64.92754985796553
 30
0.0
 10
166.4827532348012
 20
64.36035215567063
 30
0.0
 10
166.237637259972
 20
63.55265438945558
 30
0.0
 10
165.8528346171207
 20
62.80493318628289
 30
0.0
 10
165.3326419431872
 20
62.15357605001689
 30
0.0
 10
164.6987069823563
 20
61.61782307909152
 30
0.0
 10
163.9685328650623
 20
61.2197512178455
 30
0.0
 10
163.1780506662677
 20
60.96559025948571
 30
0.0
 10
162.3535721326872
 20
60.87784857258582
 30
0.0
 10
161.5265291320515
 20
60.9564283390737
 30
0.0
 10
160.7282263707003
 20
61.20429590507759
 30
0.0
 10
159.9883227859025
 20
61.59769054500681
 30
0.0
 10
159.3443638579679
 20
62.13263834206629
 30
0.0
 10
158.8158471470329
 20
62.78535463803082
 30
0.0
 10
158.4253906334024
 20
63.53521235543956
 30
0.0
 10
158.1771316910053
 20
64.34599789477943
 30
0.0
 10
158.1208702906419
 20
64.9131192343608
 30
0.0
 10
158.1198996440574
 20
65.47505518843293
 30
0.0
 10
158.1740492264076
 20
66.04049472147682
 30
0.0
 10
158.4184476158617
 20
66.84922737541987
 30
0.0
 10
158.8044136610914
 20
67.59797587079831
 30
0.0
 10
159.3285179941635
 20
68.25120931186785
 30
0.0
 10
159.9685923212338
 20
68.78863470850581
 30
0.0
  0
SPLINE
  5
2C7
330
1F
100
AcDbEntity
  8
0
  6
Continuous
 62
     7
370
    15
100
AcDbSpline
210
0.0
220
0.0
230
1.0
 70
     8
 71
     3
 72
    38
 73
    34
 74
     0
 42
0.00000001
 43
0.00000001
 40
-0.0939221400677813
 40
-0.0657752597762167
 40
-0.034473949601632
 40
0.0
 40
0.0323124298479844
 40
0.0609695982577475
 40
0.0859698687835571
 40
0.1073131755946586
 40
0.1250019290169639
 40
0.156235872197748
 40
0.1978507372990818
 40
0.2498168793248409
 40
0.2782629480312299
 40
0.3049884159840449
 40
0.3300042168921436
 40
0.3533239044423266
 40
0.3749644360933921
 40
0.4060267838313035
 40
0.4476555976000322
 40
0.4998320869201294
 40
0.5286685248932678
 40
0.5555536435540274
 40
0.5805015705743413
 40
0.603530287911748
 40
0.6246629693429089
 40
0.6685312637089721
 40
0.7183269153555374
 40
0.7652375706113054
 40
0.7915712044421753
 40
0.8122937035710348
 40
0.8615656629621373
 40
0.9060778599322187
 40
0.9342247402237833
 40
0.965526050398368
 40
1.0
 40
1.032312429847984
 40
1.060969598257748
 40
1.085969868783557
 10
160.2931972819373
 20
68.36596773246289
 30
0.0
 10
159.6891290634213
 20
67.87872657680872
 30
0.0
 10
159.2138140005709
 20
67.29341561999425
 30
0.0
 10
158.894215174571
 20
66.69478989742538
 30
0.0
 10
158.707220768857
 20
66.13363495603632
 30
0.0
 10
158.6189151093047
 20
65.63669170899338
 30
0.0
 10
158.5895016134354
 20
65.08405621834586
 30
0.0
 10
158.6616336835042
 20
64.37116980389013
 30
0.0
 10
158.9827456856987
 20
63.43348608928046
 30
0.0
 10
159.5547731759156
 20
62.64187378346339
 30
0.0
 10
160.2053055236774
 20
62.10307656867712
 30
0.0
 10
160.7551816524253
 20
61.78912951439074
 30
0.0
 10
161.3106195182044
 20
61.58278098098694
 30
0.0
 10
161.8513950658355
 20
61.47115040155499
 30
0.0
 10
162.449324960621
 20
61.4339759737131
 30
0.0
 10
163.1889908177758
 20
61.51088821361181
 30
0.0
 10
164.1210404510506
 20
61.8312717212513
 30
0.0
 10
164.910377184732
 20
62.40134391767985
 30
0.0
 10
165.4493068725734
 20
63.05130238141619
 30
0.0
 10
165.7634112124689
 20
63.60150575299575
 30
0.0
 10
165.9686915808358
 20
64.15336359375198
 30
0.0
 10
166.079761566928
 20
64.68645471701917
 30
0.0
 10
166.1260330687319
 20
65.37868024194667
 30
0.0
 10
166.0000682003894
 20
66.28490818370213
 30
0.0
 10
165.5298226715201
 20
67.29943418453124
 30
0.0
 10
164.8766247079164
 20
68.01906607750013
 30
0.0
 10
164.2726057523977
 20
68.43717337701544
 30
0.0
 10
163.5982677027696
 20
68.77078212994678
 30
0.0
 10
162.7129182197963
 20
68.98827180081825
 30
0.0
 10
161.7434393291891
 20
68.93409273128123
 30
0.0
 10
160.955103751916
 20
68.70349775095833
 30
0.0
 10
160.2931972819373
 20
68.36596773246289
 30
0.0
 10
159.6891290634213
 20
67.87872657680872
 30
0.0
 10
159.2138140005709
 20
67.29341561999425
 30
0.0
  0
ARC
  5
2C8
330
1F
100
AcDbEntity
  8
0
  6
Continuous
 62
     7
370
    15
100
AcDbCircle
 10
144.1529321177
 20
70.0701083424
 30
0.0
 40
1.40000000000002
100
AcDbArc
 50
0.0
 51
90.0
  0
ARC
  5
2C9
330
1F
100
AcDbEntity
  8
0
  6
Continuous
 62
     7
370
    15
100
AcDbCircle
 10
144.1529321177
 20
60.3301083424
 30
0.0
 40
1.400000000000006
100
AcDbArc
 50
270.0
 51
0.0
  0
SPLINE
  5
2CA
330
1F
100
AcDbEntity
  8
0
  6
Continuous
 62
     7
370
    15
100
AcDbSpline
210
0.0
220
0.0
230
1.0
 70
     8
 71
     3
 72
    22
 73
    18
 74
     0
 42
0.00000001
 43
0.00000001
 40
0.0
 40
0.0
 40
0.0
 40
0.0
 40
0.1249999999999943
 40
0.1249999999999943
 40
0.2499999999999885
 40
0.2499999999999885
 40
0.3124999999999866
 40
0.3124999999999866
 40
0.3749999999999846
 40
0.3749999999999846
 40
0.4999999999999888
 40
0.4999999999999888
 40
0.624999999999993
 40
0.624999999999993
 40
0.7499999999999972
 40
0.7499999999999972
 40
1.0
 40
1.0
 40
1.0
 40
1.0
 10
140.5928871873142
 20
74.34304288620923
 30
0.0
 10
140.5322674664378
 20
74.41494034074418
 30
0.0
 10
140.4700781264712
 20
74.48304072456129
 30
0.0
 10
140.3363486602418
 20
74.60457128874454
 30
0.0
 10
140.2640941185295
 20
74.66015247971464
 30
0.0
 10
140.1421961776938
 20
74.70187631056258
 30
0.0
 10
140.0983896245417
 20
74.70790598278433
 30
0.0
 10
140.0119944553668
 20
74.69455539190703
 30
0.0
 10
139.9696544790752
 20
74.67506471646571
 30
0.0
 10
139.8556837327061
 20
74.59267181025163
 30
0.0
 10
139.7972650067159
 20
74.51317450610138
 30
0.0
 10
139.6973574355284
 20
74.34978865276412
 30
0.0
 10
139.6559434447331
 20
74.26345945038223
 30
0.0
 10
139.5839184768558
 20
74.08681895177938
 30
0.0
 10
139.5535699355428
 20
73.99612093753224
 30
0.0
 10
139.4800782055107
 20
73.72597254479821
 30
0.0
 10
139.4529321177451
 20
73.5460857306716
 30
0.0
 10
139.4529321177451
 20
73.36703722485953
 30
0.0
  0
LINE
  5
2CB
330
1F
100
AcDbEntity
  8
0
  6
Continuous
 62
     7
370
    15
100
AcDbLine
 10
139.4529322906
 20
73.367037118
 30
0.0
 11
139.4529322906
 21
86.7811583509
 31
0.0
  0
LINE
  5
2CC
330
1F
100
AcDbEntity
  8
0
  6
Continuous
 62
     7
370
    15
100
AcDbLine
 10
140.6029312684
 20
71.4701081221
 30
0.0
 11
140.6029312684
 21
74.3311748435
 31
0.0
  0
LINE
  5
2CD
330
1F
100
AcDbEntity
  8
0
  6
Continuous
 62
     7
370
    15
100
AcDbLine
 10
139.4529322906
 20
72.1340610241
 30
0.0
 11
140.6029312684
 21
71.4701081221
 31
0.0
  0
LINE
  5
2CE
330
1F
100
AcDbEntity
  8
0
  6
Continuous
 62
     7
370
    15
100
AcDbLine
 10
139.4529322906
 20
72.1340610241
 30
0.0
 11
139.4529322906
 21
73.367037118
 31
0.0
  0
SPLINE
  5
2CF
330
1F
100
AcDbEntity
  8
0
  6
Continuous
 62
     7
370
    15
100
AcDbSpline
210
0.0
220
0.0
230
1.0
 70
     8
 71
     3
 72
    22
 73
    18
 74
     0
 42
0.00000001
 43
0.00000001
 40
0.0
 40
0.0
 40
0.0
 40
0.0
 40
0.1249999999999972
 40
0.1249999999999972
 40
0.2499999999999943
 40
0.2499999999999943
 40
0.3124999999999916
 40
0.3124999999999916
 40
0.3749999999999887
 40
0.3749999999999887
 40
0.4999999999999911
 40
0.4999999999999911
 40
0.6249999999999934
 40
0.6249999999999934
 40
0.7499999999999959
 40
0.7499999999999959
 40
1.0
 40
1.0
 40
1.0
 40
1.0
 10
140.5928871873142
 20
56.05717379851442
 30
0.0
 10
140.5322674664378
 20
55.98527634397946
 30
0.0
 10
140.4700781264712
 20
55.91717596016236
 30
0.0
 10
140.3363486602418
 20
55.79564539597911
 30
0.0
 10
140.2640941185295
 20
55.740064205009
 30
0.0
 10
140.1421961776938
 20
55.69834037416107
 30
0.0
 10
140.0983896245417
 20
55.69231070193931
 30
0.0
 10
140.0119944553668
 20
55.70566129281661
 30
0.0
 10
139.9696544790752
 20
55.72515196825793
 30
0.0
 10
139.8556837327061
 20
55.80754487447201
 30
0.0
 10
139.7972650067159
 20
55.88704217862227
 30
0.0
 10
139.6973574355284
 20
56.05042803195952
 30
0.0
 10
139.6559434447331
 20
56.13675723434142
 30
0.0
 10
139.5839184768558
 20
56.31339773294427
 30
0.0
 10
139.5535699355428
 20
56.40409574719141
 30
0.0
 10
139.4800782055107
 20
56.67424413992544
 30
0.0
 10
139.4529321177451
 20
56.85413095405205
 30
0.0
 10
139.4529321177451
 20
57.03317945986412
 30
0.0
  0
LINE
  5
2D0
330
1F
100
AcDbEntity
  8
0
  6
Continuous
 62
     7
370
    15
100
AcDbLine
 10
139.4529322906
 20
58.2661556606
 30
0.0
 11
139.4529322906
 21
57.0331795668
 31
0.0
  0
LINE
  5
2D1
330
1F
100
AcDbEntity
  8
0
  6
Continuous
 62
     7
370
    15
100
AcDbLine
 10
139.4529322906
 20
58.2661556606
 30
0.0
 11
140.6029312684
 21
58.9301085626
 31
0.0
  0
LINE
  5
2D2
330
1F
100
AcDbEntity
  8
0
  6
Continuous
 62
     7
370
    15
100
AcDbLine
 10
140.6029312684
 20
58.9301085626
 30
0.0
 11
140.6029312684
 21
56.0690418412
 31
0.0
  0
LINE
  5
2D3
330
1F
100
AcDbEntity
  8
0
  6
Continuous
 62
     7
370
    15
100
AcDbLine
 10
139.4529322906
 20
43.6190583338
 30
0.0
 11
139.4529322906
 21
57.0331795668
 31
0.0
  0
LINE
  5
2D4
330
1F
100
AcDbEntity
  8
0
  6
Continuous
 62
     7
370
    15
100
AcDbLine
 10
140.6029312684
 20
71.4701081221
 30
0.0
 11
144.1529317571
 21
71.4701081221
 31
0.0
  0
LINE
  5
2D5
330
1F
100
AcDbEntity
  8
0
  6
Continuous
 62
     7
370
    15
100
AcDbLine
 10
140.6029312684
 20
58.9301085626
 30
0.0
 11
144.1529317571
 21
58.9301085626
 31
0.0
  0
SPLINE
  5
2D6
330
1F
100
AcDbEntity
  8
0
  6
Continuous
 62
     7
370
    15
100
AcDbSpline
210
0.0
220
0.0
230
1.0
 70
     8
 71
     3
 72
     9
 73
     5
 74
     0
 42
0.00000001
 43
0.00000001
 40
0.0
 40
0.0
 40
0.0
 40
0.0
 40
0.9437458719410854
 40
1.0
 40
1.0
 40
1.0
 40
1.0
 10
159.4473997874705
 20
67.5249262773668
 30
0.0
 10
159.6623242995141
 20
67.8157202131493
 30
0.0
 10
159.8900598779507
 20
68.1238475856001
 30
0.0
 10
160.2258137755563
 20
68.28042832439017
 30
0.0
 10
160.2447013183085
 20
68.28923663732164
 30
0.0
  0
SPLINE
  5
2D7
330
1F
100
AcDbEntity
  8
0
  6
Continuous
 62
     7
370
    15
100
AcDbSpline
210
0.0
220
0.0
230
1.0
 70
     8
 71
     3
 72
    12
 73
     8
 74
     0
 42
0.00000001
 43
0.00000001
 40
0.0
 40
0.0
 40
0.0
 40
0.0
 40
0.2500000000000006
 40
0.2500000000000006
 40
0.5000000000000012
 40
0.5000000000000012
 40
1.0
 40
1.0
 40
1.0
 40
1.0
 10
196.702932117745
 20
40.74141867999422
 30
0.0
 10
196.7931711854321
 20
40.7414186799942
 30
0.0
 10
196.8840692995386
 20
40.76924840029769
 30
0.0
 10
197.0386663360271
 20
40.86439086155436
 30
0.0
 10
197.1036447521352
 20
40.93081367785473
 30
0.0
 10
197.2554797800715
 20
41.15501310937485
 30
0.0
 10
197.3029321177451
 20
41.33899951192046
 30
0.0
 10
197.3029321177451
 20
41.51915608110345
 30
0.0
  0
LINE
  5
2D8
330
1F
100
AcDbEntity
  8
0
  6
Continuous
 62
     7
370
    15
100
AcDbLine
 10
197.3029318078
 20
34.3001086791
 30
0.0
 11
197.3029318078
 21
41.5191568961
 31
0.0
  0
LINE
  5
2D9
330
1F
100
AcDbEntity
  8
0
  6
Continuous
 62
     7
370
    15
100
AcDbLine
 10
187.442932166
 20
36.2668905934
 30
0.0
 11
187.442932166
 21
44.1499643554
 31
0.0
  0
SPLINE
  5
2DA
330
1F
100
AcDbEntity
  8
0
  6
Continuous
 62
     7
370
    15
100
AcDbSpline
210
0.0
220
0.0
230
1.0
 70
     8
 71
     3
 72
     8
 73
     4
 74
     0
 42
0.00000001
 43
0.00000001
 40
0.0
 40
0.0
 40
0.0
 40
0.0
 40
1.0
 40
1.0
 40
1.0
 40
1.0
 10
185.960999286256
 20
40.74141867999441
 30
0.0
 10
186.4676793944065
 20
41.8716617401254
 30
0.0
 10
186.9629801233802
 20
43.0073492338565
 30
0.0
 10
187.442932117745
 20
44.1499646747785
 30
0.0
  0
LINE
  5
2DB
330
1F
100
AcDbEntity
  8
0
  6
Continuous
 62
     7
370
    15
100
AcDbLine
 10
192.744864039
 20
33.7001078357
 30
0.0
 11
192.744864039
 21
40.7414187272
 31
0.0
  0
LINE
  5
2DC
330
1F
100
AcDbEntity
  8
0
  6
Continuous
 62
     7
370
    15
100
AcDbLine
 10
192.744864039
 20
40.7414187272
 30
0.0
 11
196.702932827
 21
40.7414187272
 31
0.0
  0
SPLINE
  5
2DD
330
1F
100
AcDbEntity
  8
0
  6
Continuous
 62
     7
370
    15
100
AcDbSpline
210
0.0
220
0.0
230
1.0
 70
     8
 71
     3
 72
     8
 73
     4
 74
     0
 42
0.00000001
 43
0.00000001
 40
0.0
 40
0.0
 40
0.0
 40
0.0
 40
1.0
 40
1.0
 40
1.0
 40
1.0
 10
191.2629321177451
 20
44.1499646747785
 30
0.0
 10
191.74288411211
 20
43.00734923385647
 30
0.0
 10
192.2381848410836
 20
41.87166174012535
 30
0.0
 10
192.7448649492341
 20
40.74141867999434
 30
0.0
  0
LINE
  5
2DE
330
1F
100
AcDbEntity
  8
0
  6
Continuous
 62
     7
370
    15
100
AcDbLine
 10
191.2629323824
 20
36.2668905934
 30
0.0
 11
191.2629323824
 21
44.1499643554
 31
0.0
  0
LINE
  5
2DF
330
1F
100
AcDbEntity
  8
0
  6
Continuous
 62
     7
370
    15
100
AcDbLine
 10
191.2629323824
 20
45.0642418643
 30
0.0
 11
191.2629323824
 21
44.1499643554
 31
0.0
  0
LINE
  5
2E0
330
1F
100
AcDbEntity
  8
0
  6
Continuous
 62
     7
370
    15
100
AcDbLine
 10
197.3029318078
 20
41.5191568961
 30
0.0
 11
197.3029318078
 21
45.3501076033
 31
0.0
  0
LINE
  5
2E1
330
1F
100
AcDbEntity
  8
0
  6
Continuous
 62
     7
370
    15
100
AcDbLine
 10
187.442932166
 20
44.1499643554
 30
0.0
 11
187.442932166
 21
45.0642418643
 31
0.0
  0
LINE
  5
2E2
330
1F
100
AcDbEntity
  8
0
  6
Continuous
 62
     7
370
    15
100
AcDbLine
 10
140.6029312684
 20
71.4126082664
 30
0.0
 11
144.5500383897
 21
71.4126082664
 31
0.0
  0
LINE
  5
2E3
330
1F
100
AcDbEntity
  8
0
  6
Continuous
 62
     7
370
    15
100
AcDbLine
 10
140.6029312684
 20
58.9876084184
 30
0.0
 11
144.5500383897
 21
58.9876084184
 31
0.0
  0
SPLINE
  5
2E4
330
1F
100
AcDbEntity
  8
0
  6
Continuous
 62
     7
370
    15
100
AcDbSpline
210
0.0
220
0.0
230
1.0
 70
    24
 71
     3
 72
     8
 73
     4
 74
     0
 42
0.00000001
 43
0.00000001
 40
0.0000002432968744
 40
0.0000002432968744
 40
0.0000002432968744
 40
0.0000002432968744
 40
0.0014011510532366
 40
0.0014011510532366
 40
0.0014011510532366
 40
0.0014011510532366
 10
139.4529321177451
 20
72.07656115193002
 30
0.0
 10
139.8367965844816
 20
71.85493689872733
 30
0.0
 10
140.2201502063052
 20
71.63360758197265
 30
0.0
 10
140.602932117745
 20
71.41260834236195
 30
0.0
  0
SPLINE
  5
2E5
330
1F
100
AcDbEntity
  8
0
  6
Continuous
 62
     7
370
    15
100
AcDbSpline
210
0.0
220
0.0
230
1.0
 70
    24
 71
     3
 72
     8
 73
     4
 74
     0
 42
0.00000001
 43
0.00000001
 40
0.0000002432968744
 40
0.0000002432968744
 40
0.0000002432968744
 40
0.0000002432968744
 40
0.0014011510532366
 40
0.0014011510532366
 40
0.0014011510532366
 40
0.0014011510532366
 10
139.4529321177451
 20
58.32365553279388
 30
0.0
 10
139.8367965844816
 20
58.54527978599657
 30
0.0
 10
140.2201502063052
 20
58.76660910275125
 30
0.0
 10
140.602932117745
 20
58.98760834236195
 30
0.0
  0
LINE
  5
2E6
330
1F
100
AcDbEntity
  8
0
  6
Continuous
 62
     7
370
    15
100
AcDbLine
 10
216.0063366218
 20
30.2001081934
 30
0.0
 11
261.352935694
 21
30.2001081934
 31
0.0
  0
LINE
  5
2E7
330
1F
100
AcDbEntity
  8
0
  6
Continuous
 62
     7
370
    15
100
AcDbLine
 10
261.352935694
 20
30.2001081934
 30
0.0
 11
261.352935694
 21
35.2001090129
 31
0.0
  0
LINE
  5
2E8
330
1F
100
AcDbEntity
  8
0
  6
Continuous
 62
     7
370
    15
100
AcDbLine
 10
261.352935694
 20
85.2001078953
 30
0.0
 11
261.352935694
 21
64.2001082949
 31
0.0
  0
DIMENSION
  5
2E9
330
1F
100
AcDbEntity
  8
VERMASSUNG
100
AcDbDimension
  2
*D12
 10
261.3529321177
 20
104.4198266522
 30
0.0
 11
238.8529321177
 21
104.4198266522
 31
0.0
 70
   160
 71
     2
 42
-1.0
  3
SLDDIMSTYLE0
100
AcDbAlignedDimension
 13
216.3529321177
 23
85.2001083424
 33
0.0
 14
261.3529321177
 24
100.2001083424
 34
0.0
100
AcDbRotatedDimension
  0
LINE
  5
2F3
330
1F
100
AcDbEntity
  8
VERMASSUNG
  6
CENTERX2
370
     0
100
AcDbLine
 10
135.318668604
 20
65.2001083424
 30
0.0
 11
267.3195016251
 21
65.2001083424
 31
0.0
  0
OLE2FRAME
  5
2F4
330
1F
100
AcDbEntity
  8
0
100
AcDbOle2Frame
 70
     2
  3
Bitmap Image
 10
13.8511154363
 20
38.264191557
 30
0.0
 11
51.6290888628
 21
31.9806341108
 31
0.0
 71
     2
 72
     0
 73
     1
 90
    12928
310
80552BED0767C5B32B40DDAF6807D121434000000000000000006FFBDDFB85D0
310
4940DDAF6807D121434000000000000000006FFBDDFB85D04940416F4BD60AFB
310
3F4000000000000000002BED0767C5B32B40416F4BD60AFB3F40000000000000
310
0000000000000100000000010000010000000100000000000100000000320000
310
D0CF11E0A1B11AE1000000000000000000000000000000003E000300FEFF0900
310
0600000000000000000000000100000001000000000000000010000002000000
310
01000000FEFFFFFF0000000000000000FFFFFFFFFFFFFFFFFFFFFFFFFFFFFFFF
310
FFFFFFFFFFFFFFFFFFFFFFFFFFFFFFFFFFFFFFFFFFFFFFFFFFFFFFFFFFFFFFFF
310
FFFFFFFFFFFFFFFFFFFFFFFFFFFFFFFFFFFFFFFFFFFFFFFFFFFFFFFFFFFFFFFF
310
FFFFFFFFFFFFFFFFFFFFFFFFFFFFFFFFFFFFFFFFFFFFFFFFFFFFFFFFFFFFFFFF
310
FFFFFFFFFFFFFFFFFFFFFFFFFFFFFFFFFFFFFFFFFFFFFFFFFFFFFFFFFFFFFFFF
310
FFFFFFFFFFFFFFFFFFFFFFFFFFFFFFFFFFFFFFFFFFFFFFFFFFFFFFFFFFFFFFFF
310
FFFFFFFFFFFFFFFFFFFFFFFFFFFFFFFFFFFFFFFFFFFFFFFFFFFFFFFFFFFFFFFF
310
FFFFFFFFFFFFFFFFFFFFFFFFFFFFFFFFFFFFFFFFFFFFFFFFFFFFFFFFFFFFFFFF
310
FFFFFFFFFFFFFFFFFFFFFFFFFFFFFFFFFFFFFFFFFFFFFFFFFFFFFFFFFFFFFFFF
310
FFFFFFFFFFFFFFFFFFFFFFFFFFFFFFFFFFFFFFFFFFFFFFFFFFFFFFFFFFFFFFFF
310
FFFFFFFFFFFFFFFFFFFFFFFFFFFFFFFFFFFFFFFFFFFFFFFFFFFFFFFFFFFFFFFF
310
FFFFFFFFFFFFFFFFFFFFFFFFFFFFFFFFFFFFFFFFFFFFFFFFFFFFFFFFFFFFFFFF
310
FFFFFFFFFFFFFFFFFFFFFFFFFFFFFFFFFFFFFFFFFFFFFFFFFFFFFFFFFFFFFFFF
310
FFFFFFFFFFFFFFFFFFFFFFFFFFFFFFFFFFFFFFFFFFFFFFFFFFFFFFFFFFFFFFFF
310
FDFFFFFFFEFFFFFFFEFFFFFFFEFFFFFF05000000060000000700000008000000
310
090000000A0000000B0000000C0000000D0000000E0000000F00000010000000
310
11000000120000001300000014000000150000001600000017000000FEFFFFFF
310
FFFFFFFFFFFFFFFFFFFFFFFFFFFFFFFFFFFFFFFFFFFFFFFFFFFFFFFFFFFFFFFF
310
FFFFFFFFFFFFFFFFFFFFFFFFFFFFFFFFFFFFFFFFFFFFFFFFFFFFFFFFFFFFFFFF
310
FFFFFFFFFFFFFFFFFFFFFFFFFFFFFFFFFFFFFFFFFFFFFFFFFFFFFFFFFFFFFFFF
310
FFFFFFFFFFFFFFFFFFFFFFFFFFFFFFFFFFFFFFFFFFFFFFFFFFFFFFFFFFFFFFFF
310
FFFFFFFFFFFFFFFFFFFFFFFFFFFFFFFFFFFFFFFFFFFFFFFFFFFFFFFFFFFFFFFF
310
FFFFFFFFFFFFFFFFFFFFFFFFFFFFFFFFFFFFFFFFFFFFFFFFFFFFFFFFFFFFFFFF
310
FFFFFFFFFFFFFFFFFFFFFFFFFFFFFFFFFFFFFFFFFFFFFFFFFFFFFFFFFFFFFFFF
310
FFFFFFFFFFFFFFFFFFFFFFFFFFFFFFFFFFFFFFFFFFFFFFFFFFFFFFFFFFFFFFFF
310
FFFFFFFFFFFFFFFFFFFFFFFFFFFFFFFFFFFFFFFFFFFFFFFFFFFFFFFFFFFFFFFF
310
FFFFFFFFFFFFFFFFFFFFFFFFFFFFFFFFFFFFFFFFFFFFFFFFFFFFFFFFFFFFFFFF
310
FFFFFFFFFFFFFFFFFFFFFFFFFFFFFFFFFFFFFFFFFFFFFFFFFFFFFFFFFFFFFFFF
310
FFFFFFFFFFFFFFFFFFFFFFFFFFFFFFFFFFFFFFFFFFFFFFFFFFFFFFFFFFFFFFFF
310
FFFFFFFFFFFFFFFFFFFFFFFFFFFFFFFFFFFFFFFFFFFFFFFFFFFFFFFFFFFFFFFF
310
52006F006F007400200045006E00740072007900000000000000000000000000
310
0000000000000000000000000000000000000000000000000000000000000000
310
16000500FFFFFFFFFFFFFFFF020000000A00030000000000C000000000000046
310
000000000000000000000000005FE82B7E09CC0103000000C000000000000000
310
01004F006C006500000000000000000000000000000000000000000000000000
310
0000000000000000000000000000000000000000000000000000000000000000
310
0A000200FFFFFFFFFFFFFFFFFFFFFFFF00000000000000000000000000000000
310
0000000000000000000000000000000000000000000000001400000000000000
310
010043006F006D0070004F0062006A0000000000000000000000000000000000
310
0000000000000000000000000000000000000000000000000000000000000000
310
120002010100000003000000FFFFFFFF00000000000000000000000000000000
310
0000000000000000000000000000000000000000010000004D00000000000000
310
01004F006C006500310030004E00610074006900760065000000000000000000
310
0000000000000000000000000000000000000000000000000000000000000000
310
1A000200FFFFFFFFFFFFFFFFFFFFFFFF00000000000000000000000000000000
310
0000000000000000000000000000000000000000040000002426000000000000
310
FEFFFFFF02000000FEFFFFFFFFFFFFFFFFFFFFFFFFFFFFFFFFFFFFFFFFFFFFFF
310
FFFFFFFFFFFFFFFFFFFFFFFFFFFFFFFFFFFFFFFFFFFFFFFFFFFFFFFFFFFFFFFF
310
FFFFFFFFFFFFFFFFFFFFFFFFFFFFFFFFFFFFFFFFFFFFFFFFFFFFFFFFFFFFFFFF
310
FFFFFFFFFFFFFFFFFFFFFFFFFFFFFFFFFFFFFFFFFFFFFFFFFFFFFFFFFFFFFFFF
310
FFFFFFFFFFFFFFFFFFFFFFFFFFFFFFFFFFFFFFFFFFFFFFFFFFFFFFFFFFFFFFFF
310
FFFFFFFFFFFFFFFFFFFFFFFFFFFFFFFFFFFFFFFFFFFFFFFFFFFFFFFFFFFFFFFF
310
FFFFFFFFFFFFFFFFFFFFFFFFFFFFFFFFFFFFFFFFFFFFFFFFFFFFFFFFFFFFFFFF
310
FFFFFFFFFFFFFFFFFFFFFFFFFFFFFFFFFFFFFFFFFFFFFFFFFFFFFFFFFFFFFFFF
310
FFFFFFFFFFFFFFFFFFFFFFFFFFFFFFFFFFFFFFFFFFFFFFFFFFFFFFFFFFFFFFFF
310
FFFFFFFFFFFFFFFFFFFFFFFFFFFFFFFFFFFFFFFFFFFFFFFFFFFFFFFFFFFFFFFF
310
FFFFFFFFFFFFFFFFFFFFFFFFFFFFFFFFFFFFFFFFFFFFFFFFFFFFFFFFFFFFFFFF
310
FFFFFFFFFFFFFFFFFFFFFFFFFFFFFFFFFFFFFFFFFFFFFFFFFFFFFFFFFFFFFFFF
310
FFFFFFFFFFFFFFFFFFFFFFFFFFFFFFFFFFFFFFFFFFFFFFFFFFFFFFFFFFFFFFFF
310
FFFFFFFFFFFFFFFFFFFFFFFFFFFFFFFFFFFFFFFFFFFFFFFFFFFFFFFFFFFFFFFF
310
FFFFFFFFFFFFFFFFFFFFFFFFFFFFFFFFFFFFFFFFFFFFFFFFFFFFFFFFFFFFFFFF
310
FFFFFFFFFFFFFFFFFFFFFFFFFFFFFFFFFFFFFFFFFFFFFFFFFFFFFFFFFFFFFFFF
310
0100000200000000000000000000000000000000000000000000000000000000
310
000000000000000038000000410000003C0FBB0400000000E80F1B0400000000
310
0100FEFF030A0000FFFFFFFF0A00030000000000C00000000000004607000000
310
5042727573680007000000504272757368000700000050427275736800F439B2
310
7100000000000000000000000000000000000000000000000000C70600000000
310
425D000000000000000000000000000000000000000000003800000041000000
310
3C0FBB04000000008E0F74040000000000000000000000000000000000000000
310
0000C70600000000435D00000000000000000000000000000000000000000000
310
38000000410000003C0FBB0400000000660F4704000000000000000000000000
310
00000000000000000000C706000000003D5D0000000000000000000000000000
310
000000000000000038000000410000003C0FBB0400000000E60F3B0400000000
310
000000000000000000000000000000000000C706000000003E5D000000000000
310
0000000000000000000000000000000038000000410000003C0FBB0400000000
310
F20F550400000000000000000000000000000000000000000000C70600000000
310
3F5D000000000000000000000000000000000000000000003800000041000000
310
3C0FBB0400000000B00F4C040000000000000000000000000000000000000000
310
20260000424D0E260000000000003E00000028000000B40200006E0000000100
310
01000000000000000000130B0000130B00000200000002000000000000FFFFFF
310
FFFFFFFFFFFFFFFFFFFFFFFFFFFFFFFFFFFFFFFFFFFFFFFFFFFFFFFFFFFFFFFF
310
FFFFFFFFFFFFFFFFFFFFFFFFFFFFFFFFFFFFFFFFFFFFFFFFFFFFFFFFFFFFFFFF
310
FFFFFFFFFFFFFFFFFFFFFFFFFFFFFFFFFFFFFFFFFFFFFFFFF000FFFFFFFFFFFF
310
FFFFFFFFFFFFFFFFFFFFFFFFFFFFFFFFFFFFFFFFFFFFFFFFFFFFFFFFFFFFFFFF
310
FFFFFFFFFFFFFFFFFFFFFFFFFFFFFFFFFFFFFFFFFFFFFFFFFFFFFFFFFFFFFFFF
310
FFFFFFFFFFFFFFFFFFFFFFFFFFFFFFFFF000FFFFFFFFFFFFFFFFFFFFFFFFFFFF
310
FFFFFFFFFFFFFFFFFFFFFFFFFFFFFFFFFFFFFFFFFFFFFFFFFFFFFFFFFFFFFFFF
310
FFFFFFFFFFFFFFFFFFFFFFFFFFFFFFFFFFFFFFFFFFFFFFFFFFFFFFFFFFFFFFFF
310
FFFFFFFFFFFFFFFFF000FFFFFFFFFFFFFFFFFFFFFFFFFFFFFFFFFFFFFFFFFFFF
310
FFFFFFFFFFFFFFFFFFFFFFFFFFFFFFFFFFFFFFFFFFFFFFFFFFFFFFFFFFFFFFFF
310
FFFFFFFFFFFFFFFFFFFFFFFFFFFFFFFFFFFFFFFFFFFFFFFFFFFFFFFFFFFFFFFF
310
F000FFFFFFFFFFFFFFFFFFFFFFFFFFFFFFFFFFFFFFFFFFFFFFFFFFFFFFFFFFFF
310
FFFFFFFFFFFFFFFFFFFFFFFFFFFFFFFFFFFFFFFFFFFFFFFFFFFFFFFFFFFFFFFF
310
FFFFFFFFFFFFFFFFFFFFFFFFFFFFFFFFFFFFFFFFFFFFFFFFF000FFFFFFFFFFFF
310
FFFFFFFFFFFFFFFFFFFFFFFFFFFFFFFFFFFFFFFFFFFFFFFFFFFFFFFFFFFFFFFF
310
FFFFFFFFFFFFFFFFFFFFFFFFFFFFFFFFFFFFFFFFFFFFFFFFFFFFFFFFFFFFFFFF
310
FFFFFFFFFFFFFFFFFFFFFFFFFFFFFFFFF000FFFFFFFFFFFFFFFFFFFFFFFFFFFF
310
FFFFFFFFFFFFFFFFFFFFFFFFFFFFFFFFFFFFFFFFFFFFFFFFFFFFFFFFFFFFFFFF
310
FFFFFFFFFFFFFFFFFFFFFFFFFFFFFFFFFFFFFFFFFFFFFFFFFFFFFFFFFFFFFFFF
310
FFFFFFFFFFFFFFFFF000FFFFFFFFFFFFFFFFFFFFFFFFFFFFFFFFFFFFFFFFFFFF
310
FFFFFFFFFFFFFFFFFFFFFFFFFFFFFFFFFFFFFFFFFFFFFFFFFFFFFFFFFFFFFFFF
310
FFFFFFFFFFFFFFFFFFFFFFFFFFFFFFFFFFFFFFFFFFFFFFFFFFFFFFFFFFFFFFFF
310
F000FFFFFFFFFFFFFFFFFFFFFFFFFFFFFFFFFFFFFFFFFFFFFFFFFFFFFFFFFFFF
310
FFFFFFFFFFFFFFFFFFFFFFFFFFFFFFFFFFFFFFFFFFFFFFFFFFFFFFFFFFFFFFFF
310
FFFFFFFFFFFFFFFFFFFFFFFFFFFFFFFFFFFFFFFFFFFFFFFFF000FFFFFFFFFFFF
310
FFFFFFFFFFFFFFFFFFFFFFFFFFFFFFFFFFFFFFFFFFFFFFFFFFFFFFFFFFFFFFFF
310
FFFFFFFFFFFFFFFFFFFFFFFFFFFFFFFFFFFFFFFFFFFFFFFFFFFFFFFFFFFFFFFF
310
FFFFFFFFFFFFFFFFFFFFFFFFFFFFFFFFF000FFFFFFFFFFFFFFFFFFFFFFFFFFFF
310
FFFFFFFFFFFFFFFFFFFFFFFFFFFFFFFFFFFFFFFFFFFFFFFFFFFFFFFFFFFFFFFF
310
FFFFFFFFFFFFFFFFFFFFFFFFFFFFFFFFFFFFFFFFFFFFFFFFFFFFFFFFFFFFFFFF
310
FFFFFFFFFFFFFFFFF000FFFFFFFFFFFFFFFFFFFFFFFFFFFFFFFFFFFFFFFFFFFF
310
FFFFFFFFFFFFFFFFFFFFFFFFFFFFFFFFFFFFFFFFFFFFFFFFFFFFFFFFFFFFFFFF
310
FFFFFFFFFFFFFFFFFFFFFFFFFFFFFFFFFFFFFFFFFFFFFFFFFFFFFFFFFFFFFFFF
310
F000FFFFFFFFFFFFFFFFFFFFFFFFFFFFFFFFFFFFFFFFFFFFFFFFFFFFFFFFFFFF
310
FFFFFFFFFFFFFFFFFFFFFFFFFFFFFFFFFFFFFFFFFFFFFFFFFFFFFFFFFFFFFFFF
310
FFFFFFFFFFFFFFFFFFFFFFFFFFFFFFFFFFFFFFFFFFFFFFFFF000FFFFFFFFFFFF
310
FFFFFFFFFFFFFFFFFFFFFFFFFFFFFFFFFFFFFFFFFFFFFFFFFFFFFFFFFFFFFFFF
310
FFFFFFFFFFFFFFFFFFFFFFFFFFFFFFFFFFFFFFFFFFFFFFFFFFFFFFFFFFFFFFFF
310
FFFFFFFFFFFFFFFFFFFFFFFFFFFFFFFFF000FFFFFFFFFFFFFFFFFFFFFFFFFFFF
310
FFFFFFFFFFFFFFFFFFFFFFFFFFFFFFFFFFFFFFFFFFFFFFFFFFFFFFFFFFFFFFFF
310
FFFFFFFFFFFFFFFFFFFFFFFFFFFFFFFFFFFFFFFFFFFFFFFFFFFFFFFFFFFFFFFF
310
FFFFFFFFFFFFFFFFF000FFFFFFFFFFFFFFFFFFFFFFFFFFFFFFFFFFFFFFFFFFFF
310
FFFFFFFFFFFFFFFFFFFFFFFFFFFFFFFFFFFFFFFFFFFFFFFFFFFFFFFFFFFFFFFF
310
FFFFFFFFFFFFFFFFFFFFFFFFFFFFFFFFFFFFFFFFFFFFFFFFFFFFFFFFFFFFFFFF
310
F000FFFFFFFFFFFFFFFFFFFFFFFFFFFFFFFFFFFFFFFFFFFFFFFFFFFFFFFFFFFF
310
FFFFFFFFFFFFFFFFFFFFFFFFFFFFFFFFFFFFFFFFFFFFFFFFFFFFFFFFFFFFFFFF
310
FFFFFFFFFFFFFFFFFFFFFFFFFFFFFFFFFFFFFFFFFFFFFFFFF000FFFFFFFFFFFF
310
FFFFFFFFFFFFFFFFFFFFFFFFFFFFFFFFFFFFFFFFFFFFFFFFFFFFFFFFFFFFFFFF
310
FFFFFFFFFFFFFFFFFFFFFFFFFFFFFFFFFFFFFFFFFFFFFFFFFFFFFFFFFFFFFFFF
310
FFFFFFFFFFFFFFFFFFFFFFFFFFFFFFFFF000FFFFFFFFFFFFFFFFFFFFFFFFFFFF
310
FFFFFFFFFFFFFFFFFFFFFFFFFFFFFFFFFFFFFFFFFFFFFFFFFFFFFFFFFFFFFFFF
310
FFFFFFFFFFFFFFFFFFFFFFFFFFFFFFFFFFFFFFFFFFFFFFFFFFFFFFFFFFFFFFFF
310
FFFFFFFFFFFFFFFFF000FFFFF80003FFFFFFFFFFFFFFFFFFFFFFFFFFFFFFFFFF
310
FFFFF00007FFFFFFFFFF00007FFFFFF800000000000000007FFFFFFFFFFFFFFF
310
FFFFFFFC001FFFFFFFFFFFFFFC001FFFFFFFFFFFFFFFFFFFFFFFFFFE0007FFFF
310
F000FFFF8000007FFFFFFFF8000FFFFFC0007FFFFF80007FFFFF0000007FFFFF
310
FFF8000007FFFFF800000000000000007FFFFFF0001FFFFFFFFFFFC00001FFFF
310
FFFFFFFFC00001FFFFFFFF000000000003FFFFE000007FFFF000FFFE0000000F
310
FFFFFFF0000FFFFF80007FFFFF80007FFFFC0000001FFFFFFFC0000001FFFFF8
310
00000000000000007FFFFFF0001FFFFFFFFFFE0000003FFFFFFFFFFE0000003F
310
FFFFFF000000000003FFFF0000000FFFF000FFF800000003FFFFFFF00007FFFF
310
80007FFFFF80007FFFF000000007FFFFFF000000003FFFF80000000000000000
310
7FFFFFF0001FFFFFFFFFF80000000FFFFFFFFFF80000000FFFFFFF0000000000
310
03FFFC00000003FFF000FFE000000000FFFFFFF00007FFFF80003FFFFF80007F
310
FFC000000001FFFFFC000000001FFFF800000000000000007FFFFFF0001FFFFF
310
FFFFE000000003FFFFFFFFE000000003FFFFFF000000000003FFF000000000FF
310
F000FF80000000007FFFFFF00007FFFF80003FFFFF80007FFF8000000000FFFF
310
F80000000007FFF800000000000000007FFFFFF0001FFFFFFFFFC000000001FF
310
FFFFFFC000000001FFFFFF000000000003FFC0000000007FF000FF0000000000
310
3FFFFFE00007FFFF00003FFFFF80007FFE00000000003FFFF00000000003FFF8
310
00000000000000007FFFFFF0001FFFFFFFFF8000000000FFFFFFFF8000000000
310
FFFFFF000000000003FF80000000003FF000FE00000000001FFFFFE00003FFFF
310
00003FFFFF80007FFC00000000001FFFE00000000001FFF8000001FFFE000000
310
7FFFFFF0001FFFFFFFFE00000000003FFFFFFE00000000003FFFFF0000000000
310
03FF00000000001FF000FC00000000000FFFFFE00003FFFF00001FFFFF80007F
310
F800000000001FFFC00000000000FFF8000001FFFE0000007FFFFFF0001FFFFF
310
FFFC00000000001FFFFFFC00000000001FFFFF000000000003FE00000000000F
310
F000F8000000000007FFFFE00003FFFF00001FFFFF80007FF800000000000FFF
310
800000000000FFF8000001FFFE0000007FFFFFF0001FFFFFFFF800000000000F
310
FFFFF800000000000FFFFF000000000003FC000000000007F000F80000000000
310
03FFFFC00003FFFE00001FFFFF80007FF0000000000007FF0000000000007FF8
310
000001FFFE0000007FFFFFF0001FFFFFFFF0000000000007FFFFF00000000000
310
07FFFF000000000003F8000000000003F000F0000000000003FFFFC00001FFFE
310
00001FFFFF80007FE0000000000007FE0000000000003FF8000001FFFE000000
310
7FFFFFF0001FFFFFFFF0000000000007FFFFF0000000000007FFFF0000000000
310
03F800001F800003F000E00001FFF00001FFFFC00001FFFE00000FFFFF80007F
310
E00001FFE00003FE00001FFF00003FF8000001FFFE0000007FFFFFF0001FFFFF
310
FFE000003E000003FFFFE000003E000003FFFF000000000003F00001FFF80001
310
F000E00007FFFC0001FFFFC00001FFFE00000FFFFF80007FC0000FFFFC0003FC
310
0000FFFFC0001FF8000001FFFE0000007FFFFFF0001FFFFFFFC00003FFE00001
310
FFFFC00003FFE00001FFFF0001FFFFFFFFF00007FFFE0001F000E0000FFFFF00
310
00FFFF800001FFFC00000FFFFF80007FC0001FFFFE0001FC0001FFFFE0001FF8
310
000001FFFE0000007FFFFFF0001FFFFFFF80000FFFF80000FFFF80000FFFF800
310
00FFFF0003FFFFFFFFE0000FFFFF8000F000C0003FFFFF8000FFFF800000FFFC
310
000007FFFF80007F80003FFFFF0001FC0003FFFFF0001FF8000001FFFE000000
310
7FFFFFF0001FFFFFFF80003FFFFE0000FFFF80003FFFFE0000FFFF0003FFFFFF
310
FFE0003FFFFF8000F000C0003FFFFF8000FFFF800000FFFC000007FFFF80007F
310
80007FFFFF8001F80007FFFFF8000FF8000001FFFE0000007FFFFFF0001FFFFF
310
FF00007FFFFF00007FFF00007FFFFF00007FFF0003FFFFFFFFE0003FFFFFC000
310
F000C0007FFFFFC000FFFF000000FFFC000007FFFF80007F8000FFFFFF8000F8
310
000FFFFFF8000FF8000001FFFE0000007FFFFFF0001FFFFFFF0000FFFFFF8000
310
7FFF0000FFFFFF80007FFF0003FFFFFFFFC0007FFFFFC00070008000FFFFFFC0
310
00FFFF000000FFF8000007FFFF80007F8000FFFFFF8000F8000FFFFFF8000FF8
310
000001FFFE0000007FFFFFF0001FFFFFFE0001FFFFFFC0003FFE0001FFFFFFC0
310
003FFF0003FFFFFFFFC0007FFFFFE00070008000FFFFFFC0007FFF0000007FF8
310
000003FFFF80007F0001FFFFFF8000F8000FFFFFF8000FF8000001FFFE000000
310
7FFFFFF0001FFFFFFE0001FFFFFFC0003FFE0001FFFFFFC0003FFF0003FFFFFF
310
FFC000FFFFFFE00070008000FFFFFFC0007FFF0000007FF8000003FFFF80007F
310
0001FFFFFF8000F8001FFFFFF8000FF8000001FFFE0000007FFFFFF0001FFFFF
310
FE0003FFFFFFE0003FFE0003FFFFFFE0003FFF0003FFFFFFFFC000FFFFFFE000
310
70008000FFFFFFC0007FFE0000007FF8000003FFFF80007F0001FFFFFF8000F0
310
001FFFFFF8000FF8000001FFFE0000007FFFFFF0001FFFFFFC0003FFFFFFE000
310
1FFC0003FFFFFFE0001FFF0003FFFFFFFFC000FFFFFFC00070008000FFFFFF80
310
007FFE0000007FF0000003FFFF80007F0001FFFFFF0000F0001FFFFFF8000FF8
310
000001FFFE0000007FFFFFF0001FFFFFFC0007FFFFFFF0001FFC0007FFFFFFF0
310
001FFF0003FFFFFFFFC000FFFFFFC00070008001FFFFFF0000FFFE0000003FF0
310
000001FFFF80007F0001FFFFFF0000F8001FFFFFF0000FF8000001FFFE000000
310
7FFFFFF0001FFFFFFC0007FFFFFFF0001FFC0007FFFFFFF0001FFF0003FFFFFF
310
FFC001FFFFFF80007000FFFFFFFFFE0000FFFE0008003FF0008001FFFF80007F
310
FFFFFFFFFC0000FFFFFFFFFFE0000FF8000001FFFE0000007FFFFFF0001FFFFF
310
F8000FFFFFFFF8000FF8000FFFFFFFF8000FFF0003FFFFFFFFFFFFFFFFFF0000
310
7000FFFFFFFFFC0000FFFC0008003FF0008001FFFF80007FFFFFFFFFF80001FF
310
FFFFFFFF80000FF8000001FFFE0000007FFFFFF0001FFFFFF8000FFFFFFFF800
310
0FF8000FFFFFFFF8000FFF0003FFFFFFFFFFFFFFFFFE0000F000FFFFFFFFE000
310
00FFFC000C003FE000C001FFFF80007FFFFFFFFFC00001FFFFFFFFFE00001FF8
310
000001FFFE0000007FFFFFF0001FFFFFF8000FFFFFFFF8000FF8000FFFFFFFF8
310
000FFF0003FFFFFFFFFFFFFFFFF00000F000FFFFFFFE000001FFFC000C001FE0
310
00C000FFFF80007FFFFFFFFE000001FFFFFFFFE000001FF80FFFFFFFFFFFFFC0
310
7FFFFFF0001FFFFFF8000FFFFFFFF8000FF8000FFFFFFFF8000FFF0003FFFFFF
310
FFFFFFFFFF800000F000FFFFFFC0000001FFFC001C001FE001C000FFFF80007F
310
FFFFFF80000003FFFFFFF80000001FF80FFFFFFFFFFFFFC07FFFFFF0001FFFFF
310
F8001FFFFFFFFC000FF8001FFFFFFFFC000FFF0003FFFFFFFFFFFFFFF0000001
310
F000FFFFF800000001FFF8001C001FE001C000FFFF80007FFFFFF800000003FF
310
FFFF800000003FF80FFFFFFFFFFFFFC07FFFFFF0001FFFFFF8001FFFFFFFFC00
310
0FF8001FFFFFFFFC000FFF0003FFFFFFFFFFFFFE00000001F000FFFFC0000000
310
03FFF8001E001FC001E000FFFF80007FFFFF8000000007FFFFFC000000003FF8
310
0FFFFFFFFFFFFFC07FFFFFF0001FFFFFF8001FFFFFFFFC000FF8001FFFFFFFFC
310
000FFF0003FFFFFFFFFFFFE000000003F000FFFE0000000007FFF8001E000FC0
310
01E0007FFF80007FFFFE0000000007FFFFE0000000007FF80FFFFFFFFFFFFFC0
310
7FFFFFF0001FFFFFF0001FFFFFFFFC0007F0001FFFFFFFFC0007FF0003FFFFFF
310
FFFFFF0000000003F000FFF80000000007FFF8001E000FC003E0007FFF80007F
310
FFF0000000000FFFFF8000000000FFF80FFFFFFFFFFFFFC07FFFFFF0001FFFFF
310
F0001FFFFFFFFC0007F0001FFFFFFFFC0007FF0003FFFFFFFFFFFC0000000007
310
F000FFE0000000000FFFF0003E000FC003E0007FFF80007FFFC0000000001FFF
310
FE0000000001FFF80FFFFFFFFFFFFFC07FFFFFF0001FFFFFF0001FFFFFFFFC00
310
07F0001FFFFFFFFC0007FF0003FFFFFFFFFFF0000000000FF000FFC000000000
310
1FFFF0003F000F8003F0003FFF80007FFF80000000003FFFF80000000003FFF8
310
0FFFFFFFFFFFFFC07FFFFFF0001FFFFFF0001FFFFFFFFC0007F0001FFFFFFFFC
310
0007FF0003FFFFFFFFFFE0000000001FF000FF00000000007FFFF0003F000780
310
03F0003FFF80007FFF00000000007FFFF00000000007FFF80FFFFFFFFFFFFFC0
310
7FFFFFF0001FFFFFF0001FFFFFFFFC0007F0001FFFFFFFFC0007FF0003FFFFFF
310
FFFF80000000007FF000FE0000000000FFFFE0003F00078007F0003FFF80007F
310
FE0000000001FFFFE0000000001FFFF80FFFFFFFFFFFFFC07FFFFFF0001FFFFF
310
F0001FFFFFFFFC0007F0001FFFFFFFFC0007FF0003FFFFFFFFFF0000000000FF
310
F000FC0000000003FFFFE0007F00078007F0003FFF80007FFC0000000007FFFF
310
C0000000007FFFF80FFFFFFFFFFFFFC07FFFFFF0001FFFFFF8001FFFFFFFFC00
310
0FF8001FFFFFFFFC000FFF0003FFFFFFFFFE0000000003FFF000FC000000000F
310
FFFFE0007F80070007F8001FFF80007FF8000000001FFFFF8000000001FFFFF8
310
0FFFFFFFFFFFFFC07FFFFFF0001FFFFFF8001FFFFFFFFC000FF8001FFFFFFFFC
310
000FFF0003FFFFFFFFFC000000000FFFF000F8000000007FFFFFE0007F800700
310
07F8001FFF80007FF000000000FFFFFF800000000FFFFFF80FFFFFFFFFFFFFC0
310
7FFFFFF0001FFFFFF8000FFFFFFFF8000FF8000FFFFFFFF8000FFF0003FFFFFF
310
FFFC000000007FFFF000F800000007FFFFFFC0007F8003000FF8001FFF80007F
310
F000000007FFFFFF000000007FFFFFF80FFFFFFFFFFFFFC07FFFFFF0001FFFFF
310
F8000FFFFFFFF8000FF8000FFFFFFFF8000FFF0003FFFFFFFFF80000000FFFFF
310
F000F0000000FFFFFFFFC000FF8003000FF8001FFF80007FE0000000FFFFFFFF
310
0000000FFFFFFFF8000001FFFE0000007FFFFFF0001FFFFFF8000FFFFFFFF800
310
0FF8000FFFFFFFF8000FFF0003FFFFFFFFF8000000FFFFFFF000F000000FFFFF
310
FFFFC000FFC002000FF8000FFF80007FE000001FFFFFFFFE000001FFFFFFFFF8
310
000001FFFE0000007FFFFFF0001FFFFFF8000FFFFFFFF8000FF8000FFFFFFFF8
310
000FFF0003FFFFFFFFF000001FFFFFFFF000E00000FFFFFFFFFFC000FFC00200
310
0FFC000FFF80007FE00001FFFFFFFFFE00001FFFFFFFFFF8000001FFFE000000
310
7FFFFFF0001FFFFFFC000FFFFFFFF8001FFC000FFFFFFFF8001FFF0003FFFFFF
310
FFF00001FFFFFFFFF000E00007FFFFFFFFFF8000FFC000001FFC000FFF80007F
310
C0000FFFFFFFFFFE0000FFFFFFFFFFF8000001FFFE0000007FFFFFF0001FFFFF
310
FC0007FFFFFFF0001FFC0007FFFFFFF0001FFF0003FFFFFFFFF00007FFFFFFFF
310
F000E0001FFFFFFFFFFF8000FFC000001FFC000FFF80007FC0003FFFFFFFFFFE
310
0001FFFFFFFFFFF8000001FFFE0000007FFFFFF0001FFFFFFC0007FFFFFFF000
310
1FFC0007FFFFFFF0001FFF0003FFFFFFFFF0001FFFFFFFFFF000E0003FFFFF00
310
03FF8001FFE000001FFC0007FF80007FC0007FFFFF0007FC0003FFFFF0003FF8
310
000001FFFE0000007FFFFFF0001FFFFFFC0003FFFFFFE0001FFC0003FFFFFFE0
310
001FFF0003FFFFFFFFF0003FFFFFFFFFF000E0003FFFFF0001FF8001FFE00000
310
1FFE0007FF80007FC0007FFFFE0003FC0007FFFFE0003FF8000001FFFE000000
310
7FFFFFF0001FFFFFFE0003FFFFFFE0003FFE0003FFFFFFE0003FFF0003FFFFFF
310
FFF0003FFFFF8001F000E0003FFFFF0001FF0001FFE000001FFE0007FF80007F
310
C0007FFFFE0003FC0007FFFFE0003FF8000001FFFE0000007FFFFFF0001FFFFF
310
FE0001FFFFFFC0003FFE0001FFFFFFC0003FFF0003FFFFFFFFF0003FFFFF0001
310
F000E0003FFFFF0003FF0001FFE000003FFE0007FF80007FC0007FFFFE0003FC
310
0007FFFFE0003FF8000001FFFE0000007FFFFFF0001FFFFFFF0001FFFFFFC000
310
7FFF0001FFFFFFC0007FFF0003FFFFFFFFF0003FFFFF0001F000E0003FFFFE00
310
03FF0003FFF000003FFE0003FF80007FC0007FFFFC0003FE0007FFFFE0003FF8
310
000001FFFE0000007FFFFFF0001FFFFFFF0000FFFFFF80007FFF0000FFFFFF80
310
007FFF0003FFFFFFFFF0003FFFFF0001F000E0003FFFFE0003FF0003FFF00000
310
3FFF0003FF80007FC0007FFFFC0007FE0007FFFFC0003FF8000001FFFE000000
310
7FFFFFF0001FFFFFFF80007FFFFF0000FFFF80007FFFFF0000FFFF0003FFFFFF
310
FFF0003FFFFF0003F000E0003FFFFC0003FE0003FFF000003FFF0003FF80007F
310
E0003FFFF80007FE0003FFFFC0007FF8000001FFFE0000007FFFFFF0001FFFFF
310
FF80003FFFFE0000FFFF80003FFFFE0000FFFF0003FFFFFFFFF0001FFFFE0003
310
F000F0001FFFF80003FE0003FFF000007FFF0001FF80007FE0003FFFF00007FE
310
0001FFFF80007FF8000001FFFE0000007FFFFFF0001FFFFFFFC0000FFFF80001
310
FFFFC0000FFFF80001FFFF0003FFFFFFFFF0001FFFFC0003F000F0000FFFF000
310
07FE0007FFF800007FFF0001FF80007FE0001FFFE00007FF0000FFFE00007FF8
310
000001FFFE0000007FFFFFF0001FFFFFFFC00003FFE00001FFFFC00003FFE000
310
01FFFF0003FFFFFFFFF8000FFFF80003F000F00003FFC00007FC0007FFF80000
310
7FFF8001FF80007FF00007FF80000FFF00007FF80000FFF8000001FFFE000000
310
7F80000000000001FFE000003E000003FFFFE000003E000003FFFF0003FFFFFF
310
FFF80003FFE00007F000F800000000000FFC0007FFF800007FFF8001FF80007F
310
F000000000000FFF000000000000FFF8000001FFFE0000007F80000000000001
310
FFF0000000000007FFFFF0000000000007FFFF0003FFFFFFFFFC00007E000007
310
F000F800000000000FFC0007FFF80000FFFF8000FF80007FF800000000001FFF
310
800000000001FFF8000001FFFE0000007F80000000000001FFF800000000000F
310
FFFFF800000000000FFFFF0003FFFFFFFFFC00000000000FF000FC0000000000
310
1FFC0007FFFC0000FFFF8000FF80007FF800000000003FFFC00000000001FFF8
310
000001FFFE0000007F80000000000001FFF800000000000FFFFFF80000000000
310
0FFFFF0003FFFFFFFFFE00000000001FF000FE00000000003FF8000FFFFC0000
310
FFFF8000FF80007FFC00000000003FFFC00000000003FFF8000001FFFE000000
310
7F80000000000001FFFC00000000001FFFFFFC00000000001FFFFF0003FFFFFF
310
FFFF00000000001FF000FF00000000003FF8000FFFFC0000FFFFC000FF80007F
310
FE00000000007FFFE00000000007FFF8000001FFFE0000007F80000000000001
310
FFFE00000000003FFFFFFE00000000003FFFFF0003FFFFFFFFFF80000000003F
310
F000FF80000000007FF8000FFFFC0001FFFFC0007F80007FFF0000000000FFFF
310
F0000000000FFFF800000000000000007F80000000000001FFFF8000000000FF
310
FFFFFF8000000000FFFFFF0003FFFFFFFFFFC0000000007FF000FFC000000000
310
FFF8000FFFFE0001FFFFC0007F80007FFF8000000001FFFFF8000000001FFFF8
310
00000000000000007F80000000000001FFFFC000000001FFFFFFFFC000000001
310
FFFFFF0003FFFFFFFFFFE000000000FFF000FFE000000003FFF0001FFFFE0001
310
FFFFC0007F80007FFFC000000007FFFFFE000000003FFFF80000000000000000
310
7F80000000000001FFFFE000000003FFFFFFFFE000000003FFFFFF0003FFFFFF
310
FFFFF000000003FFF000FFF80000000FFFF0001FFFFE0001FFFFE0007F80007F
310
FFF00000000FFFFFFF00000000FFFFF800000000000000007F80000000000001
310
FFFFF80000000FFFFFFFFFF80000000FFFFFFF0003FFFFFFFFFFFC0000000FFF
310
F000FFFE0000003FFFF0001FFFFE0003FFFFE0003F80007FFFFC0000003FFFFF
310
FFC0000003FFFFF800000000000000007F80000000000001FFFFFE0000003FFF
310
FFFFFFFE0000003FFFFFFF0003FFFFFFFFFFFF0000003FFFF000FFFF800000FF
310
FFF0001FFFFF0003FFFFE0003F80007FFFFF000001FFFFFFFFF800001FFFFFF8
310
00000000000000007F80000000000001FFFFFFC00001FFFFFFFFFFFFC00001FF
310
FFFFFF0003FFFFFFFFFFFFC00000FFFFF000FFFFF8000FFFFFFFFFFFFFFFFFFF
310
FFFFFFFFFFFFFFFFFFFFF0001FFFFFFFFFFF0000FFFFFFF80000000000000000
310
7FFFFFFFFFFFFFFFFFFFFFFC001FFFFFFFFFFFFFFC001FFFFFFFFFFFFFFFFFFF
310
FFFFFFFC001FFFFFF000FFFFFFFFFFFFFFFFFFFFFFFFFFFFFFFFFFFFFFFFFFFF
310
FFFFFFFFFFFFFFFFFFFFFFFFFFFFFFFFFFFFFFFFFFFFFFFFFFFFFFFFFFFFFFFF
310
FFFFFFFFFFFFFFFFFFFFFFFFFFFFFFFFFFFFFFFFFFFFFFFFFFFFFFFFFFFFFFFF
310
F000FFFFFFFFFFFFFFFFFFFFFFFFFFFFFFFFFFFFFFFFFFFFFFFFFFFFFFFFFFFF
310
FFFFFFFFFFFFFFFFFFFFFFFFFFFFFFFFFFFFFFFFFFFFFFFFFFFFFFFFFFFFFFFF
310
FFFFFFFFFFFFFFFFFFFFFFFFFFFFFFFFFFFFFFFFFFFFFFFFF000FFFFFFFFFFFF
310
FFFFFFFFFFFFFFFFFFFFFFFFFFFFFFFFFFFFFFFFFFFFFFFFFFFFFFFFFFFFFFFF
310
FFFFFFFFFFFFFFFFFFFFFFFFFFFFFFFFFFFFFFFFFFFFFFFFFFFFFFFFFFFFFFFF
310
FFFFFFFFFFFFFFFFFFFFFFFFFFFFFFFFF000FFFFFFFFFFFFFFFFFFFFFFFFFFFF
310
FFFFFFFFFFFFFFFFFFFFFFFFFFFFFFFFFFFFFFFFFFFFFFFFFFFFFFFFFFFFFFFF
310
FFFFFFFFFFFFFFFFFFFFFFFFFFFFFFFFFFFFFFFFFFFFFFFFFFFFFFFFFFFFFFFF
310
FFFFFFFFFFFFFFFFF000FFFFFFFFFFFFFFFFFFFFFFFFFFFFFFFFFFFFFFFFFFFF
310
FFFFFFFFFFFFFFFFFFFFFFFFFFFFFFFFFFFFFFFFFFFFFFFFFFFFFFFFFFFFFFFF
310
FFFFFFFFFFFFFFFFFFFFFFFFFFFFFFFFFFFFFFFFFFFFFFFFFFFFFFFFFFFFFFFF
310
F000FFFFFFFFFFFFFFFFFFFFFFFFFFFFFFFFFFFFFFFFFFFFFFFFFFFFFFFFFFFF
310
FFFFFFFFFFFFFFFFFFFFFFFFFFFFFFFFFFFFFFFFFFFFFFFFFFFFFFFFFFFFFFFF
310
FFFFFFFFFFFFFFFFFFFFFFFFFFFFFFFFFFFFFFFFFFFFFFFFF000FFFFFFFFFFFF
310
FFFFFFFFFFFFFFFFFFFFFFFFFFFFFFFFFFFFFFFFFFFFFFFFFFFFFFFFFFFFFFFF
310
FFFFFFFFFFFFFFFFFFFFFFFFFFFFFFFFFFFFFFFFFFFFFFFFFFFFFFFFFFFFFFFF
310
FFFFFFFFFFFFFFFFFFFFFFFFFFFFFFFFF000FFFFFFFFFFFFFFFFFFFFFFFFFFFF
310
FFFFFFFFFFFFFFFFFFFFFFFFFFFFFFFFFFFFFFFFFFFFFFFFFFFFFFFFFFFFFFFF
310
FFFFFFFFFFFFFFFFFFFFFFFFFFFFFFFFFFFFFFFFFFFFFFFFFFFFFFFFFFFFFFFF
310
FFFFFFFFFFFFFFFFF000FFFFFFFFFFFFFFFFFFFFFFFFFFFFFFFFFFFFFFFFFFFF
310
FFFFFFFFFFFFFFFFFFFFFFFFFFFFFFFFFFFFFFFFFFFFFFFFFFFFFFFFFFFFFFFF
310
FFFFFFFFFFFFFFFFFFFFFFFFFFFFFFFFFFFFFFFFFFFFFFFFFFFFFFFFFFFFFFFF
310
F000FFFFFFFFFFFFFFFFFFFFFFFFFFFFFFFFFFFFFFFFFFFFFFFFFFFFFFFFFFFF
310
FFFFFFFFFFFFFFFFFFFFFFFFFFFFFFFFFFFFFFFFFFFFFFFFFFFFFFFFFFFFFFFF
310
FFFFFFFFFFFFFFFFFFFFFFFFFFFFFFFFFFFFFFFFFFFFFFFFF000FFFFFFFFFFFF
310
FFFFFFFFFFFFFFFFFFFFFFFFFFFFFFFFFFFFFFFFFFFFFFFFFFFFFFFFFFFFFFFF
310
FFFFFFFFFFFFFFFFFFFFFFFFFFFFFFFFFFFFFFFFFFFFFFFFFFFFFFFFFFFFFFFF
310
FFFFFFFFFFFFFFFFFFFFFFFFFFFFFFFFF000FFFFFFFFFFFFFFFFFFFFFFFFFFFF
310
FFFFFFFFFFFFFFFFFFFFFFFFFFFFFFFFFFFFFFFFFFFFFFFFFFFFFFFFFFFFFFFF
310
FFFFFFFFFFFFFFFFFFFFFFFFFFFFFFFFFFFFFFFFFFFFFFFFFFFFFFFFFFFFFFFF
310
FFFFFFFFFFFFFFFFF000FFFFFFFFFFFFFFFFFFFFFFFFFFFFFFFFFFFFFFFFFFFF
310
FFFFFFFFFFFFFFFFFFFFFFFFFFFFFFFFFFFFFFFFFFFFFFFFFFFFFFFFFFFFFFFF
310
FFFFFFFFFFFFFFFFFFFFFFFFFFFFFFFFFFFFFFFFFFFFFFFFFFFFFFFFFFFFFFFF
310
F000FFFFFFFFFFFFFFFFFFFFFFFFFFFFFFFFFFFFFFFFFFFFFFFFFFFFFFFFFFFF
310
FFFFFFFFFFFFFFFFFFFFFFFFFFFFFFFFFFFFFFFFFFFFFFFFFFFFFFFFFFFFFFFF
310
FFFFFFFFFFFFFFFFFFFFFFFFFFFFFFFFFFFFFFFFFFFFFFFFF000FFFFFFFFFFFF
310
FFFFFFFFFFFFFFFFFFFFFFFFFFFFFFFFFFFFFFFFFFFFFFFFFFFFFFFFFFFFFFFF
310
FFFFFFFFFFFFFFFFFFFFFFFFFFFFFFFFFFFFFFFFFFFFFFFFFFFFFFFFFFFFFFFF
310
FFFFFFFFFFFFFFFFFFFFFFFFFFFFFFFFF000FFFFFFFFFFFFFFFFFFFFFFFFFFFF
310
FFFFFFFFFFFFFFFFFFFFFFFFFFFFFFFFFFFFFFFFFFFFFFFFFFFFFFFFFFFFFFFF
310
FFFFFFFFFFFFFFFFFFFFFFFFFFFFFFFFFFFFFFFFFFFFFFFFFFFFFFFFFFFFFFFF
310
FFFFFFFFFFFFFFFFF000FFFFFFFFFFFFFFFFFFFFFFFFFFFFFFFFFFFFFFFFFFFF
310
FFFFFFFFFFFFFFFFFFFFFFFFFFFFFFFFFFFFFFFFFFFFFFFFFFFFFFFFFFFFFFFF
310
FFFFFFFFFFFFFFFFFFFFFFFFFFFFFFFFFFFFFFFFFFFFFFFFFFFFFFFFFFFFFFFF
310
F000FFFFFFFFFFFFFFFFFFFFFFFFFFFFFFFFFFFFFFFFFFFFFFFFFFFFFFFFFFFF
310
FFFFFFFFFFFFFFFFFFFFFFFFFFFFFFFFFFFFFFFFFFFFFFFFFFFFFFFFFFFFFFFF
310
FFFFFFFFFFFFFFFFFFFFFFFFFFFFFFFFFFFFFFFFFFFFFFFFF000FFFFFFFFFFFF
310
FFFFFFFFFFFFFFFFFFFFFFFFFFFFFFFFFFFFFFFFFFFFFFFFFFFFFFFFFFFFFFFF
310
FFFFFFFFFFFFFFFFFFFFFFFFFFFFFFFFFFFFFFFFFFFFFFFFFFFFFFFFFFFFFFFF
310
FFFFFFFFFFFFFFFFFFFFFFFFFFFFFFFFF000FFFFFFFFFFFFFFFFFFFFFFFFFFFF
310
FFFFFFFFFFFFFFFFFFFFFFFFFFFFFFFFFFFFFFFFFFFFFFFFFFFFFFFFFFFFFFFF
310
FFFFFFFFFFFFFFFFFFFFFFFFFFFFFFFFFFFFFFFFFFFFFFFFFFFFFFFFFFFFFFFF
310
FFFFFFFFFFFFFFFFF000FFFFFFFFFFFFFFFFFFFFFFFFFFFFFFFFFFFFFFFFFFFF
310
FFFFFFFFFFFFFFFFFFFFFFFFFFFFFFFFFFFFFFFFFFFFFFFFFFFFFFFFFFFFFFFF
310
FFFFFFFFFFFFFFFFFFFFFFFFFFFFFFFFFFFFFFFFFFFFFFFFFFFFFFFFFFFFFFFF
310
F000FFFFFFFFFFFFFFFFFFFFFFFFFFFFFFFFFFFFFFFFFFFFFFFFFFFFFFFFFFFF
310
FFFFFFFFFFFFFFFFFFFFFFFFFFFFFFFFFFFFFFFFFFFFFFFFFFFFFFFFFFFFFFFF
310
FFFFFFFFFFFFFFFFFFFFFFFFFFFFFFFFFFFFFFFFFFFFFFFFF000FFFFFFFFFFFF
310
FFFFFFFFFFFFFFFFFFFFFFFFFFFFFFFFFFFFFFFFFFFFFFFFFFFFFFFFFFFFFFFF
310
FFFFFFFFFFFFFFFFFFFFFFFFFFFFFFFFFFFFFFFFFFFFFFFFFFFFFFFFFFFFFFFF
310
FFFFFFFFFFFFFFFFFFFFFFFFFFFFFFFFF0000000000000000000000000000000
310
0000000001000000010000000000000001000000010000000100000000000000
310
0100000001000000010000000100000000000000010000000000000001000000
310
0100000001000000010000000000000001000000000000000100000000000000
310
0100000000000000010000000100000001000000010000000100000001000000
310
0100000001000000010000000100000001000000010000000100000001000000
310
0100000001000000010000000100000001000000010000000100000001000000
310
0100000001000000010000000100000001000000010000000100000001000000
310
0100000001000000010000000100000001000000010000000100000001000000
310
0100000001000000000000000100000000000000010000000000000001000000
310
0100000001000000010000000100000001000000010000000000000001000000
310
0100000001000000010000000100000001000000010000000100000000000000
310
0100000001000000010000000100000001000000010000000100000000000000
310
0100000000000000010000000000000001000000010000000100000001000000
310
0100000001000000010000000100000001000000010000000100000001000000
310
0100000001000000010000000100000001000000010000000100000001000000
  1
OLE
  0
ENDSEC
  0
SECTION
  2
OBJECTS
  0
DICTIONARY
  5
C
330
0
100
AcDbDictionary
281
     1
  3
ACAD_GROUP
350
D
  3
ACAD_LAYOUT
350
1A
  3
ACAD_MLEADERSTYLE
350
2F6
  3
ACAD_MLINESTYLE
350
17
  3
ACAD_PLOTSETTINGS
350
19
  3
ACAD_PLOTSTYLENAME
350
E
  3
ACAD_TABLESTYLE
350
2F5
  3
ACAD_VISUALSTYLE
350
2A
  3
AcDbVariableDictionary
350
2F7
  0
DICTIONARY
  5
D
102
{ACAD_REACTORS
330
C
102
}
330
C
100
AcDbDictionary
281
     1
  0
DICTIONARY
  5
1A
102
{ACAD_REACTORS
330
C
102
}
330
C
100
AcDbDictionary
281
     1
  3
Layout1
350
1E
  3
Layout2
350
26
  3
Model
350
22
  0
DICTIONARY
  5
2F6
102
{ACAD_REACTORS
330
C
102
}
330
C
100
AcDbDictionary
281
     1
  0
DICTIONARY
  5
17
102
{ACAD_REACTORS
330
C
102
}
330
C
100
AcDbDictionary
281
     1
  3
Standard
350
18
  0
DICTIONARY
  5
19
102
{ACAD_REACTORS
330
C
102
}
330
C
100
AcDbDictionary
281
     1
  0
ACDBDICTIONARYWDFLT
  5
E
102
{ACAD_REACTORS
330
C
102
}
330
C
100
AcDbDictionary
281
     1
  3
Normal
350
F
100
AcDbDictionaryWithDefault
340
F
  0
DICTIONARY
  5
2F5
102
{ACAD_REACTORS
330
C
102
}
330
C
100
AcDbDictionary
281
     1
  0
DICTIONARY
  5
2A
102
{ACAD_REACTORS
330
C
102
}
330
C
100
AcDbDictionary
281
     1
  3
2dWireframe
350
2F
  3
3D Hidden
350
31
  3
3dWireframe
350
30
  3
Basic
350
32
  3
Brighten
350
36
  3
ColorChange
350
3A
  3
Conceptual
350
34
  3
Dim
350
35
  3
Facepattern
350
39
  3
Flat
350
2B
  3
FlatWithEdges
350
2C
  3
Gouraud
350
2D
  3
GouraudWithEdges
350
2E
  3
Linepattern
350
38
  3
Realistic
350
33
  3
Thicken
350
37
  0
DICTIONARY
  5
2F7
102
{ACAD_REACTORS
330
C
102
}
330
C
100
AcDbDictionary
281
     1
  3
PSOLHEIGHT
350
2F9
  3
PSOLWIDTH
350
2F8
  0
LAYOUT
  5
1E
102
{ACAD_REACTORS
330
1A
102
}
330
1A
100
AcDbPlotSettings
  1

  2
none_device
  4

  6

 40
0.0
 41
0.0
 42
0.0
 43
0.0
 44
0.0
 45
0.0
 46
0.0
 47
0.0
 48
0.0
 49
0.0
140
0.0
141
0.0
142
1.0
143
1.0
 70
   688
 72
     0
 73
     0
 74
     5
  7

 75
    16
147
1.0
148
0.0
149
0.0
100
AcDbLayout
  1
Layout1
 70
     1
 71
     1
 10
0.0
 20
0.0
 11
420.0
 21
297.0
 12
0.0
 22
0.0
 32
0.0
 14
1.0000000000E+20
 24
1.0000000000E+20
 34
1.0000000000E+20
 15
-1.0000000000E+20
 25
-1.0000000000E+20
 35
-1.0000000000E+20
146
0.0
 13
0.0
 23
0.0
 33
0.0
 16
1.0
 26
0.0
 36
0.0
 17
0.0
 27
1.0
 37
0.0
 76
     0
330
1B
  0
LAYOUT
  5
26
102
{ACAD_REACTORS
330
1A
102
}
330
1A
100
AcDbPlotSettings
  1

  2
none_device
  4

  6

 40
0.0
 41
0.0
 42
0.0
 43
0.0
 44
0.0
 45
0.0
 46
0.0
 47
0.0
 48
0.0
 49
0.0
140
0.0
141
0.0
142
1.0
143
1.0
 70
   688
 72
     0
 73
     0
 74
     5
  7

 75
    16
147
1.0
148
0.0
149
0.0
100
AcDbLayout
  1
Layout2
 70
     1
 71
     2
 10
0.0
 20
0.0
 11
0.0
 21
0.0
 12
0.0
 22
0.0
 32
0.0
 14
0.0
 24
0.0
 34
0.0
 15
0.0
 25
0.0
 35
0.0
146
0.0
 13
0.0
 23
0.0
 33
0.0
 16
1.0
 26
0.0
 36
0.0
 17
0.0
 27
1.0
 37
0.0
 76
     0
330
23
  0
LAYOUT
  5
22
102
{ACAD_REACTORS
330
1A
102
}
330
1A
100
AcDbPlotSettings
  1

  2
none_device
  4

  6

 40
0.0
 41
0.0
 42
0.0
 43
0.0
 44
0.0
 45
0.0
 46
0.0
 47
0.0
 48
0.0
 49
0.0
140
0.0
141
0.0
142
1.0
143
1.0
 70
  1712
 72
     0
 73
     0
 74
     0
  7

 75
     0
147
1.0
148
0.0
149
0.0
100
AcDbLayout
  1
Model
 70
     1
 71
     0
 10
0.0
 20
0.0
 11
297.0
 21
210.0
 12
0.0
 22
0.0
 32
0.0
 14
0.0
 24
0.0
 34
0.0
 15
297.0
 25
210.0
 35
0.0
146
0.0
 13
0.0
 23
0.0
 33
0.0
 16
1.0
 26
0.0
 36
0.0
 17
0.0
 27
1.0
 37
0.0
 76
     0
330
1F
331
29
  0
MLINESTYLE
  5
18
102
{ACAD_REACTORS
330
17
102
}
330
17
100
AcDbMlineStyle
  2
Standard
 70
     0
  3

 62
   256
 51
90.0
 52
90.0
 71
     2
 49
0.5
 62
   256
  6
BYLAYER
 49
-0.5
 62
   256
  6
BYLAYER
  0
ACDBPLACEHOLDER
  5
F
102
{ACAD_REACTORS
330
E
102
}
330
E
  0
VISUALSTYLE
  5
2F
102
{ACAD_REACTORS
330
2A
102
}
330
2A
100
AcDbVisualStyle
  2
2dWireframe
 70
     4
 71
     0
 72
     2
 73
     0
 90
        0
 40
-0.6
 41
-30.0
 62
     5
 63
     7
 74
     1
 91
        4
 64
     7
 65
   257
 75
     1
175
     1
 42
1.0
 92
        0
 66
   257
 43
1.0
 76
     1
 77
     6
 78
     2
 67
     7
 79
     5
170
     0
171
     0
290
     0
174
     0
 93
        1
 44
0.0
173
     0
291
     0
 45
0.0
1001
ACAD
1000
AcDbSavedByObjectVersion
1070
     0
  0
VISUALSTYLE
  5
31
102
{ACAD_REACTORS
330
2A
102
}
330
2A
100
AcDbVisualStyle
  2
3D Hidden
 70
     6
 71
     1
 72
     2
 73
     2
 90
        0
 40
-0.6
 41
-30.0
 62
     5
 63
     7
 74
     2
 91
        2
 64
     7
 65
   257
 75
     2
175
     1
 42
40.0
 92
        0
 66
   257
 43
1.0
 76
     1
 77
     6
 78
     2
 67
     7
 79
     3
170
     0
171
     0
290
     0
174
     0
 93
        1
 44
0.0
173
     0
291
     0
 45
0.0
1001
ACAD
1000
AcDbSavedByObjectVersion
1070
     0
  0
VISUALSTYLE
  5
30
102
{ACAD_REACTORS
330
2A
102
}
330
2A
100
AcDbVisualStyle
  2
3dWireframe
 70
     5
 71
     0
 72
     2
 73
     0
 90
        0
 40
-0.6
 41
-30.0
 62
     5
 63
     7
 74
     1
 91
        4
 64
     7
 65
   257
 75
     1
175
     1
 42
1.0
 92
        0
 66
   257
 43
1.0
 76
     1
 77
     6
 78
     2
 67
     7
 79
     5
170
     0
171
     0
290
     0
174
     0
 93
        1
 44
0.0
173
     0
291
     0
 45
0.0
1001
ACAD
1000
AcDbSavedByObjectVersion
1070
     0
  0
VISUALSTYLE
  5
32
102
{ACAD_REACTORS
330
2A
102
}
330
2A
100
AcDbVisualStyle
  2
Basic
 70
     7
 71
     1
 72
     0
 73
     1
 90
        0
 40
-0.6
 41
-30.0
 62
     5
 63
     7
 74
     0
 91
        4
 64
     7
 65
   257
 75
     1
175
     1
 42
1.0
 92
        8
 66
     7
 43
1.0
 76
     1
 77
     6
 78
     2
 67
     7
 79
     5
170
     0
171
     0
290
     0
174
     0
 93
        1
 44
0.0
173
     0
291
     1
 45
0.0
1001
ACAD
1000
AcDbSavedByObjectVersion
1070
     0
  0
VISUALSTYLE
  5
36
102
{ACAD_REACTORS
330
2A
102
}
330
2A
100
AcDbVisualStyle
  2
Brighten
 70
    12
 71
     2
 72
     2
 73
     0
 90
        0
 40
-0.6
 41
-30.0
 62
     5
 63
     7
 74
     1
 91
        4
 64
     7
 65
   257
 75
     1
175
     1
 42
1.0
 92
        8
 66
     7
 43
1.0
 76
     1
 77
     6
 78
     2
 67
     7
 79
     5
170
     0
171
     0
290
     0
174
     0
 93
        1
 44
50.0
173
     0
291
     1
 45
0.0
1001
ACAD
1000
AcDbSavedByObjectVersion
1070
     0
  0
VISUALSTYLE
  5
3A
102
{ACAD_REACTORS
330
2A
102
}
330
2A
100
AcDbVisualStyle
  2
ColorChange
 70
    16
 71
     2
 72
     2
 73
     3
 90
        0
 40
-0.6
 41
-30.0
 62
     5
 63
     8
 74
     1
 91
        4
 64
     7
 65
   257
 75
     1
175
     1
 42
1.0
 92
        8
 66
     8
 43
1.0
 76
     1
 77
     6
 78
     2
 67
     7
 79
     5
170
     0
171
     0
290
     0
174
     0
 93
        1
 44
0.0
173
     0
291
     1
 45
0.0
1001
ACAD
1000
AcDbSavedByObjectVersion
1070
     0
  0
VISUALSTYLE
  5
34
102
{ACAD_REACTORS
330
2A
102
}
330
2A
100
AcDbVisualStyle
  2
Conceptual
 70
     9
 71
     3
 72
     2
 73
     0
 90
        0
 40
-0.6
 41
-30.0
 62
     5
 63
     7
 74
     2
 91
        2
 64
     7
 65
   257
 75
     1
175
     1
 42
40.0
 92
        8
 66
     7
 43
1.0
 76
     1
 77
     6
 78
     2
 67
     7
 79
     3
170
     0
171
     0
290
     0
174
     0
 93
        1
 44
0.0
173
     0
291
     0
 45
0.0
1001
ACAD
1000
AcDbSavedByObjectVersion
1070
     0
  0
VISUALSTYLE
  5
35
102
{ACAD_REACTORS
330
2A
102
}
330
2A
100
AcDbVisualStyle
  2
Dim
 70
    11
 71
     2
 72
     2
 73
     0
 90
        0
 40
-0.6
 41
-30.0
 62
     5
 63
     7
 74
     1
 91
        4
 64
     7
 65
   257
 75
     1
175
     1
 42
1.0
 92
        8
 66
     7
 43
1.0
 76
     1
 77
     6
 78
     2
 67
     7
 79
     5
170
     0
171
     0
290
     0
174
     0
 93
        1
 44
-50.0
173
     0
291
     1
 45
0.0
1001
ACAD
1000
AcDbSavedByObjectVersion
1070
     0
  0
VISUALSTYLE
  5
39
102
{ACAD_REACTORS
330
2A
102
}
330
2A
100
AcDbVisualStyle
  2
Facepattern
 70
    15
 71
     2
 72
     2
 73
     0
 90
        0
 40
-0.6
 41
-30.0
 62
     5
 63
     7
 74
     1
 91
        4
 64
     7
 65
   257
 75
     1
175
     1
 42
1.0
 92
        8
 66
     7
 43
1.0
 76
     1
 77
     6
 78
     2
 67
     7
 79
     5
170
     0
171
     0
290
     0
174
     0
 93
        1
 44
0.0
173
     0
291
     1
 45
0.0
1001
ACAD
1000
AcDbSavedByObjectVersion
1070
     0
  0
VISUALSTYLE
  5
2B
102
{ACAD_REACTORS
330
2A
102
}
330
2A
100
AcDbVisualStyle
  2
Flat
 70
     0
 71
     2
 72
     1
 73
     1
 90
        2
 40
-0.6
 41
30.0
 62
     5
 63
     7
 74
     0
 91
        4
 64
     7
 65
   257
 75
     1
175
     1
 42
1.0
 92
        8
 66
     7
 43
1.0
 76
     1
 77
     6
 78
     2
 67
     7
 79
     5
170
     0
171
     0
290
     0
174
     0
 93
       13
 44
0.0
173
     0
291
     1
 45
0.0
1001
ACAD
1000
AcDbSavedByObjectVersion
1070
     0
  0
VISUALSTYLE
  5
2C
102
{ACAD_REACTORS
330
2A
102
}
330
2A
100
AcDbVisualStyle
  2
FlatWithEdges
 70
     1
 71
     2
 72
     1
 73
     1
 90
        2
 40
-0.6
 41
30.0
 62
     5
 63
     7
 74
     1
 91
        4
 64
     7
 65
   257
 75
     1
175
     1
 42
1.0
 92
        0
 66
   257
 43
1.0
 76
     1
 77
     6
 78
     2
 67
     7
 79
     5
170
     0
171
     0
290
     0
174
     0
 93
       13
 44
0.0
173
     0
291
     1
 45
0.0
1001
ACAD
1000
AcDbSavedByObjectVersion
1070
     0
  0
VISUALSTYLE
  5
2D
102
{ACAD_REACTORS
330
2A
102
}
330
2A
100
AcDbVisualStyle
  2
Gouraud
 70
     2
 71
     2
 72
     2
 73
     1
 90
        2
 40
-0.6
 41
30.0
 62
     5
 63
     7
 74
     0
 91
        4
 64
     7
 65
   257
 75
     1
175
     1
 42
1.0
 92
        0
 66
     7
 43
1.0
 76
     1
 77
     6
 78
     2
 67
     7
 79
     5
170
     0
171
     0
290
     0
174
     0
 93
       13
 44
0.0
173
     0
291
     1
 45
0.0
1001
ACAD
1000
AcDbSavedByObjectVersion
1070
     0
  0
VISUALSTYLE
  5
2E
102
{ACAD_REACTORS
330
2A
102
}
330
2A
100
AcDbVisualStyle
  2
GouraudWithEdges
 70
     3
 71
     2
 72
     2
 73
     1
 90
        2
 40
-0.6
 41
30.0
 62
     5
 63
     7
 74
     1
 91
        4
 64
     7
 65
   257
 75
     1
175
     1
 42
1.0
 92
        0
 66
   257
 43
1.0
 76
     1
 77
     6
 78
     2
 67
     7
 79
     5
170
     0
171
     0
290
     0
174
     0
 93
       13
 44
0.0
173
     0
291
     1
 45
0.0
1001
ACAD
1000
AcDbSavedByObjectVersion
1070
     0
  0
VISUALSTYLE
  5
38
102
{ACAD_REACTORS
330
2A
102
}
330
2A
100
AcDbVisualStyle
  2
Linepattern
 70
    14
 71
     2
 72
     2
 73
     0
 90
        0
 40
-0.6
 41
-30.0
 62
     5
 63
     7
 74
     1
 91
        4
 64
     7
 65
   257
 75
     7
175
     7
 42
1.0
 92
        8
 66
     7
 43
1.0
 76
     1
 77
     6
 78
     2
 67
     7
 79
     5
170
     0
171
     0
290
     0
174
     0
 93
        1
 44
0.0
173
     0
291
     1
 45
0.0
1001
ACAD
1000
AcDbSavedByObjectVersion
1070
     0
  0
VISUALSTYLE
  5
33
102
{ACAD_REACTORS
330
2A
102
}
330
2A
100
AcDbVisualStyle
  2
Realistic
 70
     8
 71
     2
 72
     2
 73
     0
 90
        0
 40
-0.6
 41
-30.0
 62
     5
 63
     7
 74
     1
 91
        0
 64
     7
 65
   257
 75
     1
175
     1
 42
1.0
 92
        8
 66
     8
 43
1.0
 76
     1
 77
     6
 78
     2
 67
     7
 79
     5
170
     0
171
     0
290
     0
174
     0
 93
       13
 44
0.0
173
     0
291
     0
 45
0.0
1001
ACAD
1000
AcDbSavedByObjectVersion
1070
     0
  0
VISUALSTYLE
  5
37
102
{ACAD_REACTORS
330
2A
102
}
330
2A
100
AcDbVisualStyle
  2
Thicken
 70
    13
 71
     2
 72
     2
 73
     0
 90
        0
 40
-0.6
 41
-30.0
 62
     5
 63
     7
 74
     1
 91
        4
 64
     7
 65
   257
 75
     1
175
     1
 42
1.0
 92
       12
 66
     7
 43
1.0
 76
     1
 77
     6
 78
     2
 67
     7
 79
     5
170
     0
171
     0
290
     0
174
     0
 93
        1
 44
0.0
173
     0
291
     1
 45
0.0
1001
ACAD
1000
AcDbSavedByObjectVersion
1070
     0
  0
DICTIONARYVAR
  5
2F9
102
{ACAD_REACTORS
330
2F7
102
}
330
2F7
100
DictionaryVariables
280
     0
  1
80.000000
  0
DICTIONARYVAR
  5
2F8
102
{ACAD_REACTORS
330
2F7
102
}
330
2F7
100
DictionaryVariables
280
     0
  1
5.000000
  0
ENDSEC
  0
EOF
