  0
SECTION
  2
HEADER
  9
$ACADVER
  1
AC1015
  9
$ACADMAINTVER
 70
     6
  9
$DWGCODEPAGE
  3
ANSI_1252
  9
$INSBASE
 10
0.0
 20
0.0
 30
0.0
  9
$EXTMIN
 10
0.0
 20
0.0
 30
0.0
  9
$EXTMAX
 10
297.0
 20
210.0
 30
0.0
  9
$LIMMIN
 10
0.0
 20
0.0
  9
$LIMMAX
 10
297.0
 20
210.0
  9
$ORTHOMODE
 70
     0
  9
$REGENMODE
 70
     1
  9
$FILLMODE
 70
     1
  9
$QTEXTMODE
 70
     0
  9
$MIRRTEXT
 70
     1
  9
$LTSCALE
 40
1.0
  9
$ATTMODE
 70
     1
  9
$TEXTSIZE
 40
2.0
  9
$TRACEWID
 40
1.0
  9
$TEXTSTYLE
  7
Standard
  9
$CLAYER
  8
0
  9
$CELTYPE
  6
ByLayer
  9
$CECOLOR
 62
   256
  9
$CELTSCALE
 40
1.0
  9
$DISPSILH
 70
     0
  9
$DIMSCALE
 40
1.0
  9
$DIMASZ
 40
3.0
  9
$DIMEXO
 40
0.0
  9
$DIMDLI
 40
3.75
  9
$DIMRND
 40
0.0
  9
$DIMDLE
 40
0.0
  9
$DIMEXE
 40
1.0
  9
$DIMTP
 40
0.0
  9
$DIMTM
 40
0.0
  9
$DIMTXT
 40
2.0
  9
$DIMCEN
 40
2.5
  9
$DIMTSZ
 40
0.0
  9
$DIMTOL
 70
     0
  9
$DIMLIM
 70
     0
  9
$DIMTIH
 70
     1
  9
$DIMTOH
 70
     1
  9
$DIMSE1
 70
     0
  9
$DIMSE2
 70
     0
  9
$DIMTAD
 70
     1
  9
$DIMZIN
 70
     0
  9
$DIMBLK
  1

  9
$DIMASO
 70
     1
  9
$DIMSHO
 70
     1
  9
$DIMPOST
  1

  9
$DIMAPOST
  1

  9
$DIMALT
 70
     0
  9
$DIMALTD
 70
     3
  9
$DIMALTF
 40
0.0393700787
  9
$DIMLFAC
 40
1.0
  9
$DIMTOFL
 70
     1
  9
$DIMTVP
 40
0.0
  9
$DIMTIX
 70
     0
  9
$DIMSOXD
 70
     0
  9
$DIMSAH
 70
     0
  9
$DIMBLK1
  1

  9
$DIMBLK2
  1

  9
$DIMSTYLE
  2
ISO-25
  9
$DIMCLRD
 70
     0
  9
$DIMCLRE
 70
     0
  9
$DIMCLRT
 70
     0
  9
$DIMTFAC
 40
1.0
  9
$DIMGAP
 40
1.524
  9
$DIMJUST
 70
     0
  9
$DIMSD1
 70
     0
  9
$DIMSD2
 70
     0
  9
$DIMTOLJ
 70
     0
  9
$DIMTZIN
 70
     0
  9
$DIMALTZ
 70
     0
  9
$DIMALTTZ
 70
     0
  9
$DIMUPT
 70
     0
  9
$DIMDEC
 70
     2
  9
$DIMTDEC
 70
     3
  9
$DIMALTU
 70
     2
  9
$DIMALTTD
 70
     3
  9
$DIMTXSTY
  7
Standard
  9
$DIMAUNIT
 70
     0
  9
$DIMADEC
 70
     2
  9
$DIMALTRND
 40
0.0
  9
$DIMAZIN
 70
     0
  9
$DIMDSEP
 70
    44
  9
$DIMATFIT
 70
     3
  9
$DIMFRAC
 70
     0
  9
$DIMLDRBLK
  1

  9
$DIMLUNIT
 70
     2
  9
$DIMLWD
 70
    -2
  9
$DIMLWE
 70
    -2
  9
$DIMTMOVE
 70
     0
  9
$LUNITS
 70
     2
  9
$LUPREC
 70
     2
  9
$SKETCHINC
 40
1.0
  9
$FILLETRAD
 40
10.0
  9
$AUNITS
 70
     0
  9
$AUPREC
 70
     2
  9
$MENU
  1
.
  9
$ELEVATION
 40
0.0
  9
$PELEVATION
 40
0.0
  9
$THICKNESS
 40
0.0
  9
$LIMCHECK
 70
     0
  9
$CHAMFERA
 40
10.0
  9
$CHAMFERB
 40
10.0
  9
$CHAMFERC
 40
20.0
  9
$CHAMFERD
 40
0.0
  9
$SKPOLY
 70
     0
  9
$TDCREATE
 40
2455672.362238727
  9
$TDUCREATE
 40
2455672.278905394
  9
$TDUPDATE
 40
2455672.362238738
  9
$TDUUPDATE
 40
2455672.278905405
  9
$TDINDWG
 40
0.0000000116
  9
$TDUSRTIMER
 40
0.0000000116
  9
$USRTIMER
 70
     1
  9
$ANGBASE
 50
0.0
  9
$ANGDIR
 70
     0
  9
$PDMODE
 70
     0
  9
$PDSIZE
 40
-1.0
  9
$PLINEWID
 40
0.0
  9
$SPLFRAME
 70
     0
  9
$SPLINETYPE
 70
     6
  9
$SPLINESEGS
 70
     8
  9
$HANDSEED
  5
184
  9
$SURFTAB1
 70
     6
  9
$SURFTAB2
 70
     6
  9
$SURFTYPE
 70
     6
  9
$SURFU
 70
     6
  9
$SURFV
 70
     6
  9
$UCSBASE
  2

  9
$UCSNAME
  2

  9
$UCSORG
 10
0.0
 20
0.0
 30
0.0
  9
$UCSXDIR
 10
1.0
 20
0.0
 30
0.0
  9
$UCSYDIR
 10
0.0
 20
1.0
 30
0.0
  9
$UCSORTHOREF
  2

  9
$UCSORTHOVIEW
 70
     0
  9
$UCSORGTOP
 10
0.0
 20
0.0
 30
0.0
  9
$UCSORGBOTTOM
 10
0.0
 20
0.0
 30
0.0
  9
$UCSORGLEFT
 10
0.0
 20
0.0
 30
0.0
  9
$UCSORGRIGHT
 10
0.0
 20
0.0
 30
0.0
  9
$UCSORGFRONT
 10
0.0
 20
0.0
 30
0.0
  9
$UCSORGBACK
 10
0.0
 20
0.0
 30
0.0
  9
$PUCSBASE
  2

  9
$PUCSNAME
  2

  9
$PUCSORG
 10
0.0
 20
0.0
 30
0.0
  9
$PUCSXDIR
 10
1.0
 20
0.0
 30
0.0
  9
$PUCSYDIR
 10
0.0
 20
1.0
 30
0.0
  9
$PUCSORTHOREF
  2

  9
$PUCSORTHOVIEW
 70
     0
  9
$PUCSORGTOP
 10
0.0
 20
0.0
 30
0.0
  9
$PUCSORGBOTTOM
 10
0.0
 20
0.0
 30
0.0
  9
$PUCSORGLEFT
 10
0.0
 20
0.0
 30
0.0
  9
$PUCSORGRIGHT
 10
0.0
 20
0.0
 30
0.0
  9
$PUCSORGFRONT
 10
0.0
 20
0.0
 30
0.0
  9
$PUCSORGBACK
 10
0.0
 20
0.0
 30
0.0
  9
$USERI1
 70
     0
  9
$USERI2
 70
     0
  9
$USERI3
 70
     0
  9
$USERI4
 70
     0
  9
$USERI5
 70
     0
  9
$USERR1
 40
0.0
  9
$USERR2
 40
0.0
  9
$USERR3
 40
0.0
  9
$USERR4
 40
0.0
  9
$USERR5
 40
0.0
  9
$WORLDVIEW
 70
     1
  9
$SHADEDGE
 70
     3
  9
$SHADEDIF
 70
    70
  9
$TILEMODE
 70
     1
  9
$MAXACTVP
 70
    64
  9
$PINSBASE
 10
0.0
 20
0.0
 30
0.0
  9
$PLIMCHECK
 70
     0
  9
$PEXTMIN
 10
1.0000000000E+20
 20
1.0000000000E+20
 30
1.0000000000E+20
  9
$PEXTMAX
 10
-1.0000000000E+20
 20
-1.0000000000E+20
 30
-1.0000000000E+20
  9
$PLIMMIN
 10
0.0
 20
0.0
  9
$PLIMMAX
 10
420.0
 20
297.0
  9
$UNITMODE
 70
     0
  9
$VISRETAIN
 70
     1
  9
$PLINEGEN
 70
     0
  9
$PSLTSCALE
 70
     1
  9
$TREEDEPTH
 70
  3020
  9
$CMLSTYLE
  2
Standard
  9
$CMLJUST
 70
     0
  9
$CMLSCALE
 40
20.0
  9
$PROXYGRAPHICS
 70
     1
  9
$MEASUREMENT
 70
     1
  9
$CELWEIGHT
370
    -1
  9
$ENDCAPS
280
     0
  9
$JOINSTYLE
280
     0
  9
$LWDISPLAY
290
     1
  9
$INSUNITS
 70
     4
  9
$HYPERLINKBASE
  1

  9
$STYLESHEET
  1

  9
$XEDIT
290
     1
  9
$CEPSNTYPE
380
     0
  9
$PSTYLEMODE
290
     1
  9
$FINGERPRINTGUID
  2
{B949DD97-359F-4395-868D-D2684478B996}
  9
$VERSIONGUID
  2
{FAEB1C32-E019-11D5-929B-00C0DF256EC4}
  9
$EXTNAMES
290
     1
  9
$PSVPSCALE
 40
0.0
  9
$OLESTARTUP
290
     0
  0
ENDSEC
  0
SECTION
  2
CLASSES
  0
CLASS
  1
ACDBDICTIONARYWDFLT
  2
AcDbDictionaryWithDefault
  3
ObjectDBX Classes
 90
        0
280
     0
281
     0
  0
CLASS
  1
VISUALSTYLE
  2
AcDbVisualStyle
  3
ObjectDBX Classes
 90
     4095
280
     0
281
     0
  0
CLASS
  1
DICTIONARYVAR
  2
AcDbDictionaryVar
  3
ObjectDBX Classes
 90
        0
280
     0
281
     0
  0
CLASS
  1
ACDBPLACEHOLDER
  2
AcDbPlaceHolder
  3
ObjectDBX Classes
 90
        0
280
     0
281
     0
  0
CLASS
  1
LAYOUT
  2
AcDbLayout
  3
ObjectDBX Classes
 90
        0
280
     0
281
     0
  0
ENDSEC
  0
SECTION
  2
TABLES
  0
TABLE
  2
VPORT
  5
8
330
0
100
AcDbSymbolTable
 70
     1
  0
VPORT
  5
29
330
8
100
AcDbSymbolTableRecord
100
AcDbViewportTableRecord
  2
*Active
 70
     0
 10
0.0
 20
0.0
 11
1.0
 21
1.0
 12
148.5
 22
105.0
 13
0.0
 23
0.0
 14
10.0
 24
10.0
 15
10.0
 25
10.0
 16
0.0
 26
0.0
 36
1.0
 17
0.0
 27
0.0
 37
0.0
 40
210.0
 41
1.4142857143
 42
50.0
 43
0.0
 44
0.0
 50
0.0
 51
0.0
 71
     0
 72
  2000
 73
     1
 74
     3
 75
     0
 76
     0
 77
     0
 78
     0
281
     0
 65
     1
110
0.0
120
0.0
130
0.0
111
1.0
121
0.0
131
0.0
112
0.0
122
1.0
132
0.0
 79
     0
146
0.0
  0
ENDTAB
  0
TABLE
  2
LTYPE
  5
5
330
0
100
AcDbSymbolTable
 70
     6
  0
LTYPE
  5
14
330
5
100
AcDbSymbolTableRecord
100
AcDbLinetypeTableRecord
  2
ByBlock
 70
     0
  3

 72
    65
 73
     0
 40
0.0
  0
LTYPE
  5
15
330
5
100
AcDbSymbolTableRecord
100
AcDbLinetypeTableRecord
  2
ByLayer
 70
     0
  3

 72
    65
 73
     0
 40
0.0
  0
LTYPE
  5
16
330
5
100
AcDbSymbolTableRecord
100
AcDbLinetypeTableRecord
  2
Continuous
 70
     0
  3
Solid line
 72
    65
 73
     0
 40
0.0
  0
LTYPE
  5
3B
330
5
100
AcDbSymbolTableRecord
100
AcDbLinetypeTableRecord
  2
HIDDEN
 70
     0
  3
Hidden __ __ __ __ __ __ __ __ __ __ __ __ __ __
 72
    65
 73
     2
 40
1.905
 49
1.27
 74
     0
 49
-0.635
 74
     0
  0
LTYPE
  5
3C
330
5
100
AcDbSymbolTableRecord
100
AcDbLinetypeTableRecord
  2
PHANTOM
 70
     0
  3
Phantom ______  __  __  ______  __  __  ______
 72
    65
 73
     6
 40
12.7
 49
6.35
 74
     0
 49
-1.27
 74
     0
 49
1.27
 74
     0
 49
-1.27
 74
     0
 49
1.27
 74
     0
 49
-1.27
 74
     0
  0
LTYPE
  5
3D
330
5
100
AcDbSymbolTableRecord
100
AcDbLinetypeTableRecord
  2
CENTER
 70
     0
  3
Center ____ _ ____ _ ____ _ ____ _ ____ _ ____
 72
    65
 73
     4
 40
10.16
 49
6.35
 74
     0
 49
-1.27
 74
     0
 49
1.27
 74
     0
 49
-1.27
 74
     0
  0
LTYPE
  5
3E
330
5
100
AcDbSymbolTableRecord
100
AcDbLinetypeTableRecord
  2
CENTERX2
 70
     0
  3
Center (2x) ________  __  ________  __  _____
 72
    65
 73
     4
 40
20.32
 49
12.7
 74
     0
 49
-2.54
 74
     0
 49
2.54
 74
     0
 49
-2.54
 74
     0
  0
LTYPE
  5
3F
330
5
100
AcDbSymbolTableRecord
100
AcDbLinetypeTableRecord
  2
DOT2
 70
     0
  3
Dot (.5x) ........................................
 72
    65
 73
     2
 40
0.635
 49
0.0
 74
     0
 49
-0.635
 74
     0
  0
ENDTAB
  0
TABLE
  2
LAYER
  5
2
330
0
100
AcDbSymbolTable
 70
     5
  0
LAYER
  5
10
330
2
100
AcDbSymbolTableRecord
100
AcDbLayerTableRecord
  2
0
 70
     0
 62
     7
  6
Continuous
370
    -3
390
F
  0
LAYER
  5
40
330
2
100
AcDbSymbolTableRecord
100
AcDbLayerTableRecord
  2
FORMAT
 70
     0
 62
     7
  6
Continuous
370
    -3
390
F
  0
LAYER
  5
41
330
2
100
AcDbSymbolTableRecord
100
AcDbLayerTableRecord
  2
VERMASSUNG
 70
     0
 62
     7
  6
Continuous
370
    -3
390
F
  0
LAYER
  5
42
330
2
100
AcDbSymbolTableRecord
100
AcDbLayerTableRecord
  2
KOPF_DÜNN
 70
     0
 62
     7
  6
Continuous
370
    -3
390
F
  0
LAYER
  5
43
330
2
100
AcDbSymbolTableRecord
100
AcDbLayerTableRecord
  2
KOPF_DICK
 70
     0
 62
     7
  6
Continuous
370
    15
390
F
  0
ENDTAB
  0
TABLE
  2
STYLE
  5
3
330
0
100
AcDbSymbolTable
 70
     3
  0
STYLE
  5
11
330
3
100
AcDbSymbolTableRecord
100
AcDbTextStyleTableRecord
  2
Standard
 70
     0
 40
0.0
 41
1.0
 50
0.0
 71
     0
 42
2.5
  3
txt
  4

  0
STYLE
  5
44
330
3
100
AcDbSymbolTableRecord
100
AcDbTextStyleTableRecord
  2
SLDTEXTSTYLE0
 70
     0
 40
0.0
 41
0.7
 50
0.0
 71
     0
 42
0.2
  3
TXT
  4

  0
STYLE
  5
48
330
3
100
AcDbSymbolTableRecord
100
AcDbTextStyleTableRecord
  2
SLDTEXTSTYLE1
 70
     0
 40
0.0
 41
0.6473684211
 50
0.0
 71
     0
 42
0.2
  3
TXT
  4

  0
ENDTAB
  0
TABLE
  2
VIEW
  5
6
330
0
100
AcDbSymbolTable
 70
     0
  0
ENDTAB
  0
TABLE
  2
UCS
  5
7
330
0
100
AcDbSymbolTable
 70
     0
  0
ENDTAB
  0
TABLE
  2
APPID
  5
9
330
0
100
AcDbSymbolTable
 70
     1
  0
APPID
  5
12
330
9
100
AcDbSymbolTableRecord
100
AcDbRegAppTableRecord
  2
ACAD
 70
     0
  0
ENDTAB
  0
TABLE
  2
DIMSTYLE
  5
A
330
0
100
AcDbSymbolTable
 70
     3
100
AcDbDimStyleTable
  0
DIMSTYLE
105
27
330
A
100
AcDbSymbolTableRecord
100
AcDbDimStyleTableRecord
  2
ISO-25
 70
     0
 41
2.5
 42
0.625
 43
3.75
 44
1.25
 73
     0
 74
     0
 77
     1
 78
     8
140
2.5
141
2.5
143
0.0393700787
147
0.625
171
     3
172
     1
271
     2
272
     2
274
     3
278
    44
283
     0
284
     8
340
11
  0
DIMSTYLE
105
139
102
{ACAD_REACTORS
330
138
330
153
330
15D
330
167
330
171
102
}
330
A
100
AcDbSymbolTableRecord
100
AcDbDimStyleTableRecord
  2
SLDDIMSTYLE0
 70
     0
 41
3.0
 44
0.0
 45
0.000000001
 73
     0
 74
     0
 77
     1
 78
    12
140
2.0
147
0.5
173
     1
271
     2
272
     3
284
    12
340
44
  0
DIMSTYLE
105
146
102
{ACAD_REACTORS
330
145
102
}
330
A
100
AcDbSymbolTableRecord
100
AcDbDimStyleTableRecord
  2
SLDDIMSTYLE1
 70
     0
 41
3.0
 44
0.0
 45
0.000000001
 73
     0
 74
     0
 77
     1
 78
    12
140
2.0
147
0.5
173
     1
271
     2
272
     3
284
    12
340
44
  0
ENDTAB
  0
TABLE
  2
BLOCK_RECORD
  5
1
330
0
100
AcDbSymbolTable
 70
     7
  0
BLOCK_RECORD
  5
1F
330
1
100
AcDbSymbolTableRecord
100
AcDbBlockTableRecord
  2
*Model_Space
340
22
  0
BLOCK_RECORD
  5
1B
330
1
100
AcDbSymbolTableRecord
100
AcDbBlockTableRecord
  2
*Paper_Space
340
1E
  0
BLOCK_RECORD
  5
23
330
1
100
AcDbSymbolTableRecord
100
AcDbBlockTableRecord
  2
*Paper_Space0
340
26
  0
BLOCK_RECORD
  5
13A
330
1
100
AcDbSymbolTableRecord
100
AcDbBlockTableRecord
  2
*D1
340
0
  0
BLOCK_RECORD
  5
147
330
1
100
AcDbSymbolTableRecord
100
AcDbBlockTableRecord
  2
*D2
340
0
  0
BLOCK_RECORD
  5
154
330
1
100
AcDbSymbolTableRecord
100
AcDbBlockTableRecord
  2
*D3
340
0
  0
BLOCK_RECORD
  5
15E
330
1
100
AcDbSymbolTableRecord
100
AcDbBlockTableRecord
  2
*D4
340
0
  0
BLOCK_RECORD
  5
168
330
1
100
AcDbSymbolTableRecord
100
AcDbBlockTableRecord
  2
*D5
340
0
  0
BLOCK_RECORD
  5
172
330
1
100
AcDbSymbolTableRecord
100
AcDbBlockTableRecord
  2
*D6
340
0
  0
ENDTAB
  0
ENDSEC
  0
SECTION
  2
BLOCKS
  0
BLOCK
  5
20
330
1F
100
AcDbEntity
  8
0
100
AcDbBlockBegin
  2
*Model_Space
 70
     0
 10
0.0
 20
0.0
 30
0.0
  3
*Model_Space
  1

  0
ENDBLK
  5
21
330
1F
100
AcDbEntity
  8
0
100
AcDbBlockEnd
  0
BLOCK
  5
1C
330
1B
100
AcDbEntity
 67
     1
  8
0
100
AcDbBlockBegin
  2
*Paper_Space
 70
     0
 10
0.0
 20
0.0
 30
0.0
  3
*Paper_Space
  1

  0
ENDBLK
  5
1D
330
1B
100
AcDbEntity
 67
     1
  8
0
100
AcDbBlockEnd
  0
BLOCK
  5
24
330
23
100
AcDbEntity
  8
0
100
AcDbBlockBegin
  2
*Paper_Space0
 70
     0
 10
0.0
 20
0.0
 30
0.0
  3
*Paper_Space0
  1

  0
ENDBLK
  5
25
330
23
100
AcDbEntity
  8
0
100
AcDbBlockEnd
  0
BLOCK
  5
13B
330
13A
100
AcDbEntity
  8
0
100
AcDbBlockBegin
  2
*D1
 70
     1
 10
0.0
 20
0.0
 30
0.0
  3
*D1
  1

  0
SOLID
  5
13D
330
13A
100
AcDbEntity
  8
VERMASSUNG
100
AcDbTrace
 10
80.3005550684
 20
139.844048518
 30
0.0
 11
79.8505550684
 21
136.844048518
 31
0.0
 12
80.7505550684
 22
136.844048518
 32
0.0
 13
80.7505550684
 23
136.844048518
 33
0.0
  0
SOLID
  5
13E
330
13A
100
AcDbEntity
  8
VERMASSUNG
100
AcDbTrace
 10
80.3005550684
 20
76.844048518
 30
0.0
 11
80.7505550684
 21
79.844048518
 31
0.0
 12
79.8505550684
 22
79.844048518
 32
0.0
 13
79.8505550684
 23
79.844048518
 33
0.0
  0
LINE
  5
13F
330
13A
100
AcDbEntity
  8
VERMASSUNG
100
AcDbLine
 10
118.8231725969
 20
139.844048518
 30
0.0
 11
79.3005550684
 21
139.844048518
 31
0.0
  0
LINE
  5
140
330
13A
100
AcDbEntity
  8
VERMASSUNG
100
AcDbLine
 10
118.8231725969
 20
76.844048518
 30
0.0
 11
79.3005550684
 21
76.844048518
 31
0.0
  0
LINE
  5
141
330
13A
100
AcDbEntity
  8
VERMASSUNG
100
AcDbLine
 10
80.3005550684
 20
139.844048518
 30
0.0
 11
80.3005550684
 21
76.844048518
 31
0.0
  0
MTEXT
  5
142
330
13A
100
AcDbEntity
  8
VERMASSUNG
100
AcDbMText
 10
77.5224195793
 20
100.7962825748
 30
0.0
 40
2.0
 41
0.0
 71
     1
 72
     1
  1
HSK A
  7
SLDTEXTSTYLE0
 11
-7.044195017643634E-15
 21
1.0
 31
0.0
 73
     1
 44
1.0
  0
MTEXT
  5
143
330
13A
100
AcDbEntity
  8
VERMASSUNG
100
AcDbMText
 10
77.7224195888
 20
108.5962828289
 30
0.0
 40
2.0
 41
0.0
 71
     1
 72
     1
  1
%%c
  7
SLDTEXTSTYLE0
 11
-7.044195017643634E-15
 21
1.0
 31
0.0
 73
     1
 44
1.0
  0
MTEXT
  5
144
330
13A
100
AcDbEntity
  8
VERMASSUNG
100
AcDbMText
 10
77.7224197053
 20
112.2048112855
 30
0.0
 40
2.0
 41
0.0
 71
     1
 72
     1
  1
63
  7
SLDTEXTSTYLE0
 11
-7.044195017643634E-15
 21
1.0
 31
0.0
 73
     1
 44
1.0
  0
ENDBLK
  5
13C
330
13A
100
AcDbEntity
  8
0
100
AcDbBlockEnd
  0
BLOCK
  5
148
330
147
100
AcDbEntity
  8
0
100
AcDbBlockBegin
  2
*D2
 70
     1
 10
0.0
 20
0.0
 30
0.0
  3
*D2
  1

  0
SOLID
  5
14A
330
147
100
AcDbEntity
  8
VERMASSUNG
100
AcDbTrace
 10
226.4487102021
 20
111.344048518
 30
0.0
 11
226.8987102021
 21
114.344048518
 31
0.0
 12
225.9987102021
 22
114.344048518
 32
0.0
 13
225.9987102021
 23
114.344048518
 33
0.0
  0
SOLID
  5
14B
330
147
100
AcDbEntity
  8
VERMASSUNG
100
AcDbTrace
 10
226.4487102021
 20
105.344048518
 30
0.0
 11
225.9987102021
 21
102.344048518
 31
0.0
 12
226.8987102021
 22
102.344048518
 32
0.0
 13
226.8987102021
 23
102.344048518
 33
0.0
  0
LINE
  5
14C
330
147
100
AcDbEntity
  8
VERMASSUNG
100
AcDbLine
 10
218.2231725969
 20
111.344048518
 30
0.0
 11
227.4487102021
 21
111.344048518
 31
0.0
  0
LINE
  5
14D
330
147
100
AcDbEntity
  8
VERMASSUNG
100
AcDbLine
 10
218.2231725969
 20
105.344048518
 30
0.0
 11
227.4487102021
 21
105.344048518
 31
0.0
  0
LINE
  5
14E
330
147
100
AcDbEntity
  8
VERMASSUNG
100
AcDbLine
 10
226.4487102021
 20
111.344048518
 30
0.0
 11
226.4487102021
 21
117.344048518
 31
0.0
  0
LINE
  5
14F
330
147
100
AcDbEntity
  8
VERMASSUNG
100
AcDbLine
 10
226.4487102021
 20
111.344048518
 30
0.0
 11
226.4487102021
 21
105.344048518
 31
0.0
  0
LINE
  5
150
330
147
100
AcDbEntity
  8
VERMASSUNG
100
AcDbLine
 10
226.4487102021
 20
105.344048518
 30
0.0
 11
226.4487102021
 21
99.344048518
 31
0.0
  0
MTEXT
  5
151
330
147
100
AcDbEntity
  8
VERMASSUNG
100
AcDbMText
 10
223.8705747226
 20
105.8072696864
 30
0.0
 40
2.0
 41
0.0
 71
     1
 72
     1
  1
%%c
  7
SLDTEXTSTYLE0
 11
-7.044195017643634E-15
 21
1.0
 31
0.0
 73
     1
 44
1.0
  0
MTEXT
  5
152
330
147
100
AcDbEntity
  8
VERMASSUNG
100
AcDbMText
 10
223.870574839
 20
109.4159479096
 30
0.0
 40
2.0
 41
0.0
 71
     1
 72
     1
  1
6
  7
SLDTEXTSTYLE0
 11
-7.044195017643634E-15
 21
1.0
 31
0.0
 73
     1
 44
1.0
  0
ENDBLK
  5
149
330
147
100
AcDbEntity
  8
0
100
AcDbBlockEnd
  0
BLOCK
  5
155
330
154
100
AcDbEntity
  8
0
100
AcDbBlockBegin
  2
*D3
 70
     1
 10
0.0
 20
0.0
 30
0.0
  3
*D3
  1

  0
SOLID
  5
157
330
154
100
AcDbEntity
  8
VERMASSUNG
100
AcDbTrace
 10
218.5231725969
 20
144.5646332766
 30
0.0
 11
215.5231725969
 21
145.0146332766
 31
0.0
 12
215.5231725969
 22
144.1146332766
 32
0.0
 13
215.5231725969
 23
144.1146332766
 33
0.0
  0
SOLID
  5
158
330
154
100
AcDbEntity
  8
VERMASSUNG
100
AcDbTrace
 10
144.4731725969
 20
144.5646332766
 30
0.0
 11
147.4731725969
 21
144.1146332766
 31
0.0
 12
147.4731725969
 22
145.0146332766
 32
0.0
 13
147.4731725969
 23
145.0146332766
 33
0.0
  0
LINE
  5
159
330
154
100
AcDbEntity
  8
VERMASSUNG
100
AcDbLine
 10
218.5231725969
 20
115.5699079964
 30
0.0
 11
218.5231725969
 21
145.5646332766
 31
0.0
  0
LINE
  5
15A
330
154
100
AcDbEntity
  8
VERMASSUNG
100
AcDbLine
 10
144.4731725969
 20
138.1904888418
 30
0.0
 11
144.4731725969
 21
145.5646332766
 31
0.0
  0
LINE
  5
15B
330
154
100
AcDbEntity
  8
VERMASSUNG
100
AcDbLine
 10
218.5231725969
 20
144.5646332766
 30
0.0
 11
144.4731725969
 21
144.5646332766
 31
0.0
  0
MTEXT
  5
15C
330
154
100
AcDbEntity
  8
VERMASSUNG
100
AcDbMText
 10
174.7412700926
 20
147.1427686397
 30
0.0
 40
2.0
 41
0.0
 71
     1
 72
     1
  1
74.05
  7
SLDTEXTSTYLE0
 73
     1
 44
1.0
  0
ENDBLK
  5
156
330
154
100
AcDbEntity
  8
0
100
AcDbBlockEnd
  0
BLOCK
  5
15F
330
15E
100
AcDbEntity
  8
0
100
AcDbBlockBegin
  2
*D4
 70
     1
 10
0.0
 20
0.0
 30
0.0
  3
*D4
  1

  0
SOLID
  5
161
330
15E
100
AcDbEntity
  8
VERMASSUNG
100
AcDbTrace
 10
218.5231725969
 20
150.5646332766
 30
0.0
 11
215.5231725969
 21
151.0146332766
 31
0.0
 12
215.5231725969
 22
150.1146332766
 32
0.0
 13
215.5231725969
 23
150.1146332766
 33
0.0
  0
SOLID
  5
162
330
15E
100
AcDbEntity
  8
VERMASSUNG
100
AcDbTrace
 10
118.5231725969
 20
150.5646332766
 30
0.0
 11
121.5231725969
 21
150.1146332766
 31
0.0
 12
121.5231725969
 22
151.0146332766
 32
0.0
 13
121.5231725969
 23
151.0146332766
 33
0.0
  0
LINE
  5
163
330
15E
100
AcDbEntity
  8
VERMASSUNG
100
AcDbLine
 10
218.5231725969
 20
115.5699079964
 30
0.0
 11
218.5231725969
 21
151.5646332766
 31
0.0
  0
LINE
  5
164
330
15E
100
AcDbEntity
  8
VERMASSUNG
100
AcDbLine
 10
118.5231725969
 20
139.544048518
 30
0.0
 11
118.5231725969
 21
151.5646332766
 31
0.0
  0
LINE
  5
165
330
15E
100
AcDbEntity
  8
VERMASSUNG
100
AcDbLine
 10
218.5231725969
 20
150.5646332766
 30
0.0
 11
118.5231725969
 21
150.5646332766
 31
0.0
  0
MTEXT
  5
166
330
15E
100
AcDbEntity
  8
VERMASSUNG
100
AcDbMText
 10
165.3165128078
 20
153.1427686397
 30
0.0
 40
2.0
 41
0.0
 71
     1
 72
     1
  1
100
  7
SLDTEXTSTYLE0
 73
     1
 44
1.0
  0
ENDBLK
  5
160
330
15E
100
AcDbEntity
  8
0
100
AcDbBlockEnd
  0
BLOCK
  5
169
330
168
100
AcDbEntity
  8
0
100
AcDbBlockBegin
  2
*D5
 70
     1
 10
0.0
 20
0.0
 30
0.0
  3
*D5
  1

  0
SOLID
  5
16B
330
168
100
AcDbEntity
  8
VERMASSUNG
100
AcDbTrace
 10
218.5231725969
 20
156.5646332766
 30
0.0
 11
215.5231725969
 21
157.0146332766
 31
0.0
 12
215.5231725969
 22
156.1146332766
 32
0.0
 13
215.5231725969
 23
156.1146332766
 33
0.0
  0
SOLID
  5
16C
330
168
100
AcDbEntity
  8
VERMASSUNG
100
AcDbTrace
 10
86.6231725969
 20
156.5646332766
 30
0.0
 11
89.6231725969
 21
156.1146332766
 31
0.0
 12
89.6231725969
 22
157.0146332766
 32
0.0
 13
89.6231725969
 23
157.0146332766
 33
0.0
  0
LINE
  5
16D
330
168
100
AcDbEntity
  8
VERMASSUNG
100
AcDbLine
 10
218.5231725969
 20
115.5699079964
 30
0.0
 11
218.5231725969
 21
157.5646332766
 31
0.0
  0
LINE
  5
16E
330
168
100
AcDbEntity
  8
VERMASSUNG
100
AcDbLine
 10
86.6231725969
 20
128.0347262645
 30
0.0
 11
86.6231725969
 21
157.5646332766
 31
0.0
  0
LINE
  5
16F
330
168
100
AcDbEntity
  8
VERMASSUNG
100
AcDbLine
 10
218.5231725969
 20
156.5646332766
 30
0.0
 11
86.6231725969
 21
156.5646332766
 31
0.0
  0
MTEXT
  5
170
330
168
100
AcDbEntity
  8
VERMASSUNG
100
AcDbMText
 10
147.0153059839
 20
159.1427686397
 30
0.0
 40
2.0
 41
0.0
 71
     1
 72
     1
  1
131.9
  7
SLDTEXTSTYLE0
 73
     1
 44
1.0
  0
ENDBLK
  5
16A
330
168
100
AcDbEntity
  8
0
100
AcDbBlockEnd
  0
BLOCK
  5
173
330
172
100
AcDbEntity
  8
0
100
AcDbBlockBegin
  2
*D6
 70
     1
 10
0.0
 20
0.0
 30
0.0
  3
*D6
  1

  0
SOLID
  5
175
330
172
100
AcDbEntity
  8
VERMASSUNG
100
AcDbTrace
 10
232.4487102021
 20
123.344048518
 30
0.0
 11
231.9987102021
 21
120.344048518
 31
0.0
 12
232.8987102021
 22
120.344048518
 32
0.0
 13
232.8987102021
 23
120.344048518
 33
0.0
  0
SOLID
  5
176
330
172
100
AcDbEntity
  8
VERMASSUNG
100
AcDbTrace
 10
232.4487102021
 20
93.344048518
 30
0.0
 11
232.8987102021
 21
96.344048518
 31
0.0
 12
231.9987102021
 22
96.344048518
 32
0.0
 13
231.9987102021
 23
96.344048518
 33
0.0
  0
LINE
  5
177
330
172
100
AcDbEntity
  8
VERMASSUNG
100
AcDbLine
 10
204.5838776136
 20
123.344048518
 30
0.0
 11
233.4487102021
 21
123.344048518
 31
0.0
  0
LINE
  5
178
330
172
100
AcDbEntity
  8
VERMASSUNG
100
AcDbLine
 10
204.5838776136
 20
93.344048518
 30
0.0
 11
233.4487102021
 21
93.344048518
 31
0.0
  0
LINE
  5
179
330
172
100
AcDbEntity
  8
VERMASSUNG
100
AcDbLine
 10
232.4487102021
 20
123.344048518
 30
0.0
 11
232.4487102021
 21
93.344048518
 31
0.0
  0
MTEXT
  5
17A
330
172
100
AcDbEntity
  8
VERMASSUNG
100
AcDbMText
 10
229.8705747226
 20
104.8238730817
 30
0.0
 40
2.0
 41
0.0
 71
     1
 72
     1
  1
%%c
  7
SLDTEXTSTYLE0
 11
-7.044195017643634E-15
 21
1.0
 31
0.0
 73
     1
 44
1.0
  0
MTEXT
  5
17B
330
172
100
AcDbEntity
  8
VERMASSUNG
100
AcDbMText
 10
229.870574839
 20
108.4325513049
 30
0.0
 40
2.0
 41
0.0
 71
     1
 72
     1
  1
30
  7
SLDTEXTSTYLE0
 11
-7.044195017643634E-15
 21
1.0
 31
0.0
 73
     1
 44
1.0
  0
ENDBLK
  5
174
330
172
100
AcDbEntity
  8
0
100
AcDbBlockEnd
  0
ENDSEC
  0
SECTION
  2
ENTITIES
  0
MTEXT
  5
45
330
1F
100
AcDbEntity
  8
KOPF_DÜNN
100
AcDbMText
 10
13.8892156294
 20
23.8442973028
 30
0.0
 40
3.0
 41
0.0
 71
     1
 72
     1
  1
HA6.W06.K01.100
  7
SLDTEXTSTYLE0
 73
     1
 44
1.0
  0
MTEXT
  5
46
330
1F
100
AcDbEntity
  8
VERMASSUNG
100
AcDbMText
 10
13.9329988022
 20
28.8834360957
 30
0.0
 40
3.0
 41
0.0
 71
     1
 72
     1
  1
Flächenspannfutter_End mill adapter Weldon ø6
  7
SLDTEXTSTYLE0
 73
     1
 44
1.0
  0
MTEXT
  5
47
330
1F
100
AcDbEntity
  8
VERMASSUNG
100
AcDbMText
 10
98.8601118557
 20
13.8365368179
 30
0.0
 40
2.0
 41
0.0
 71
     1
 72
     1
  1
Datum: 25.04.2006
  7
SLDTEXTSTYLE0
 73
     1
 44
1.0
  0
MTEXT
  5
49
330
1F
100
AcDbEntity
  8
VERMASSUNG
100
AcDbMText
 10
13.933048693
 20
18.0482802738
 30
0.0
 40
2.0
 41
0.0
 71
     1
 72
     1
  1
DIN 69 893 HSK A 63
  7
SLDTEXTSTYLE1
 73
     1
 44
1.0
  0
MTEXT
  5
4A
330
1F
100
AcDbEntity
  8
VERMASSUNG
100
AcDbMText
 10
13.9808475933
 20
13.9090973692
 30
0.0
 40
2.0
 41
0.0
 71
     1
 72
     1
  1
Gewicht: 1018g
  7
SLDTEXTSTYLE0
 73
     1
 44
1.0
  0
LINE
  5
4B
330
1F
100
AcDbEntity
  8
0
  6
Continuous
 62
     7
370
    15
100
AcDbLine
 10
118.8231726111
 20
76.8440480114
 30
0.0
 11
123.4731725701
 21
76.8440480114
 31
0.0
  0
LINE
  5
4C
330
1F
100
AcDbEntity
  8
0
  6
Continuous
 62
     7
370
    15
100
AcDbLine
 10
123.5011611417
 20
139.8440490247
 30
0.0
 11
118.8231726111
 21
139.8440490247
 31
0.0
  0
ARC
  5
4D
330
1F
100
AcDbEntity
  8
0
  6
Continuous
 62
     7
370
    15
100
AcDbCircle
 10
118.8231725969
 20
77.144048518
 30
0.0
 40
0.3000000000000114
100
AcDbArc
 50
180.0
 51
270.0
  0
ARC
  5
4E
330
1F
100
AcDbEntity
  8
0
  6
Continuous
 62
     7
370
    15
100
AcDbCircle
 10
118.8231725969
 20
139.544048518
 30
0.0
 40
0.3000000000000114
100
AcDbArc
 50
90.0
 51
180.0
  0
ARC
  5
4F
330
1F
100
AcDbEntity
  8
0
  6
Continuous
 62
     7
370
    15
100
AcDbCircle
 10
118.0231658442
 20
83.7736109037
 30
0.0
 40
0.6000067526677321
100
AcDbArc
 50
33.5571153394
 51
90.0
  0
ARC
  5
50
330
1F
100
AcDbEntity
  8
0
  6
Continuous
 62
     7
370
    15
100
AcDbCircle
 10
118.0231658442
 20
132.9144861324
 30
0.0
 40
0.6000067526677164
100
AcDbArc
 50
270.0
 51
326.4428846606
  0
LINE
  5
51
330
1F
100
AcDbEntity
  8
0
  6
Continuous
 62
     7
370
    15
100
AcDbLine
 10
116.5231725019
 20
84.1236172945
 30
0.0
 11
117.3798854281
 21
84.353173408
 31
0.0
  0
LINE
  5
52
330
1F
100
AcDbEntity
  8
0
  6
Continuous
 62
     7
370
    15
100
AcDbLine
 10
117.3798854281
 20
132.3349236281
 30
0.0
 11
116.5231725019
 21
132.5644797416
 31
0.0
  0
LINE
  5
53
330
1F
100
AcDbEntity
  8
0
  6
Continuous
 62
     7
370
    15
100
AcDbLine
 10
105.2916641631
 20
132.0017783673
 30
0.0
 11
92.7231717207
 21
131.3720944108
 31
0.0
  0
LINE
  5
54
330
1F
100
AcDbEntity
  8
0
  6
Continuous
 62
     7
370
    15
100
AcDbLine
 10
116.5231725019
 20
132.5644797416
 30
0.0
 11
113.7061710753
 21
132.4233471186
 31
0.0
  0
LINE
  5
55
330
1F
100
AcDbEntity
  8
0
  6
Continuous
 62
     7
370
    15
100
AcDbLine
 10
113.7062269547
 20
84.2647480548
 30
0.0
 11
116.5231725019
 21
84.1236172945
 31
0.0
  0
LINE
  5
56
330
1F
100
AcDbEntity
  8
0
  6
Continuous
 62
     7
370
    15
100
AcDbLine
 10
96.7231723764
 20
85.1156024964
 30
0.0
 11
105.2920664944
 21
84.6862981797
 31
0.0
  0
ARC
  5
57
330
1F
100
AcDbEntity
  8
0
  6
Continuous
 62
     7
370
    15
100
AcDbCircle
 10
117.5351767973
 20
83.7736176563
 30
0.0
 40
0.6000000000000085
100
AcDbArc
 50
90.0
 51
105.0
  0
ARC
  5
58
330
1F
100
AcDbEntity
  8
0
  6
Continuous
 62
     7
370
    15
100
AcDbCircle
 10
117.5351767973
 20
132.9144793798
 30
0.0
 40
0.6000000000000208
100
AcDbArc
 50
255.0
 51
270.0
  0
LINE
  5
59
330
1F
100
AcDbEntity
  8
0
  6
Continuous
 62
     7
370
    15
100
AcDbLine
 10
117.5351768317
 20
84.3736178012
 30
0.0
 11
118.0231658211
 21
84.3736178012
 31
0.0
  0
LINE
  5
5A
330
1F
100
AcDbEntity
  8
0
  6
Continuous
 62
     7
370
    15
100
AcDbLine
 10
118.0231658211
 20
132.3144792349
 30
0.0
 11
117.5351768317
 21
132.3144792349
 31
0.0
  0
ARC
  5
5B
330
1F
100
AcDbEntity
  8
0
  6
Continuous
 62
     7
370
    15
100
AcDbCircle
 10
147.4731725969
 20
87.3280897165
 30
0.0
 40
3.0
100
AcDbArc
 50
104.3250519401
 51
180.0
  0
ARC
  5
5C
330
1F
100
AcDbEntity
  8
0
  6
Continuous
 62
     7
370
    15
100
AcDbCircle
 10
147.4731725969
 20
129.3600073196
 30
0.0
 40
3.000000000000009
100
AcDbArc
 50
180.0
 51
255.6749480599
  0
ARC
  5
5D
330
1F
100
AcDbEntity
  8
0
  6
Continuous
 62
     7
370
    15
100
AcDbCircle
 10
171.4731725969
 20
-6.655951482
 30
0.0
 40
100.0
100
AcDbArc
 50
90.0
 51
104.3250519401
  0
ARC
  5
5E
330
1F
100
AcDbEntity
  8
0
  6
Continuous
 62
     7
370
    15
100
AcDbCircle
 10
171.4731725969
 20
223.344048518
 30
0.0
 40
100.0
100
AcDbArc
 50
255.6749480599
 51
270.0
  0
LINE
  5
5F
330
1F
100
AcDbEntity
  8
0
  6
Continuous
 62
     7
370
    15
100
AcDbLine
 10
171.4731711247
 20
93.3440488533
 30
0.0
 11
204.5838753976
 21
93.3440488533
 31
0.0
  0
LINE
  5
60
330
1F
100
AcDbEntity
  8
0
  6
Continuous
 62
     7
370
    15
100
AcDbLine
 10
204.5838753976
 20
123.3440481828
 30
0.0
 11
171.4731711247
 21
123.3440481828
 31
0.0
  0
LINE
  5
61
330
1F
100
AcDbEntity
  8
0
  6
Continuous
 62
     7
370
    15
100
AcDbLine
 10
204.5838753976
 20
93.3440488533
 30
0.0
 11
217.3684086003
 21
99.305573176
 31
0.0
  0
LINE
  5
62
330
1F
100
AcDbEntity
  8
0
  6
Continuous
 62
     7
370
    15
100
AcDbLine
 10
217.3684086003
 20
117.3825238601
 30
0.0
 11
204.5838753976
 21
123.3440481828
 31
0.0
  0
LINE
  5
63
330
1F
100
AcDbEntity
  8
0
  6
Continuous
 62
     7
370
    15
100
AcDbLine
 10
87.9065092005
 20
87.4740483941
 30
0.0
 11
95.3231728919
 21
87.4740483941
 31
0.0
  0
ARC
  5
64
330
1F
100
AcDbEntity
  8
0
  6
Continuous
 62
     7
370
    15
100
AcDbCircle
 10
95.3231725969
 20
86.074048518
 30
0.0
 40
1.399999999999997
100
AcDbArc
 50
42.2465410162
 51
90.0
  0
LINE
  5
65
330
1F
100
AcDbEntity
  8
0
  6
Continuous
 62
     7
370
    15
100
AcDbLine
 10
86.6242046752
 20
88.6230154664
 30
0.0
 11
87.7643353589
 21
87.4828847827
 31
0.0
  0
LINE
  5
66
330
1F
100
AcDbEntity
  8
0
  6
Continuous
 62
     7
370
    15
100
AcDbLine
 10
87.7643353589
 20
129.2052122534
 30
0.0
 11
86.6330745914
 21
128.0739496232
 31
0.0
  0
ARC
  5
67
330
1F
100
AcDbEntity
  8
0
  6
Continuous
 62
     7
370
    15
100
AcDbCircle
 10
91.3231725969
 20
130.614048518
 30
0.0
 40
1.400000000000006
100
AcDbArc
 50
270.0
 51
302.5610026528
  0
LINE
  5
68
330
1F
100
AcDbEntity
  8
0
  6
Continuous
 62
     7
370
    15
100
AcDbLine
 10
91.3231722363
 20
129.214048642
 30
0.0
 11
87.8974381187
 21
129.214048642
 31
0.0
  0
ARC
  5
69
330
1F
100
AcDbEntity
  8
0
  6
Continuous
 62
     7
370
    15
100
AcDbCircle
 10
216.5231725969
 20
101.1181890397
 30
0.0
 40
2.000000000000014
100
AcDbArc
 50
295.0
 51
0.0
  0
ARC
  5
6A
330
1F
100
AcDbEntity
  8
0
  6
Continuous
 62
     7
370
    15
100
AcDbCircle
 10
216.5231725969
 20
115.5699079964
 30
0.0
 40
2.000000000000001
100
AcDbArc
 50
0.0
 51
65.0
  0
CIRCLE
  5
6B
330
1F
100
AcDbEntity
  8
0
  6
Continuous
 62
     7
370
    15
100
AcDbCircle
 10
201.0231725969
 20
108.344048518
 30
0.0
 40
2.499999999999996
  0
LINE
  5
6C
330
1F
100
AcDbEntity
  8
0
  6
Continuous
 62
     7
370
    15
100
AcDbLine
 10
201.2935723462
 20
110.0548628255
 30
0.0
 11
199.6767591037
 21
109.4336259647
 31
0.0
  0
LINE
  5
6D
330
1F
100
AcDbEntity
  8
0
  6
Continuous
 62
     7
370
    15
100
AcDbLine
 10
202.639981667
 20
108.9652853788
 30
0.0
 11
202.369585196
 21
107.2544710714
 31
0.0
  0
LINE
  5
6E
330
1F
100
AcDbEntity
  8
0
  6
Continuous
 62
     7
370
    15
100
AcDbLine
 10
199.4063626327
 20
107.7228116573
 30
0.0
 11
200.7527794041
 21
106.6332342106
 31
0.0
  0
LINE
  5
6F
330
1F
100
AcDbEntity
  8
0
  6
Continuous
 62
     7
370
    15
100
AcDbLine
 10
199.4063626327
 20
107.7228116573
 30
0.0
 11
199.6767591037
 21
109.4336259647
 31
0.0
  0
LINE
  5
70
330
1F
100
AcDbEntity
  8
0
  6
Continuous
 62
     7
370
    15
100
AcDbLine
 10
200.7527794041
 20
106.6332342106
 30
0.0
 11
202.369585196
 21
107.2544710714
 31
0.0
  0
LINE
  5
71
330
1F
100
AcDbEntity
  8
0
  6
Continuous
 62
     7
370
    15
100
AcDbLine
 10
201.2935723462
 20
110.0548628255
 30
0.0
 11
202.639981667
 21
108.9652853788
 31
0.0
  0
LINE
  5
72
330
1F
100
AcDbEntity
  8
0
  6
Continuous
 62
     7
370
    15
100
AcDbLine
 10
143.8731733062
 20
78.1571308852
 30
0.0
 11
139.9151045181
 21
78.1571308852
 31
0.0
  0
LINE
  5
73
330
1F
100
AcDbEntity
  8
0
  6
Continuous
 62
     7
370
    15
100
AcDbLine
 10
139.9151045181
 20
78.1571308852
 30
0.0
 11
139.9151045181
 21
128.1940492571
 31
0.0
  0
LINE
  5
74
330
1F
100
AcDbEntity
  8
0
  6
Continuous
 62
     7
370
    15
100
AcDbLine
 10
139.9151045181
 20
128.1940492571
 30
0.0
 11
143.8731733062
 21
128.1940492571
 31
0.0
  0
LINE
  5
75
330
1F
100
AcDbEntity
  8
0
  6
Continuous
 62
     7
370
    15
100
AcDbLine
 10
144.473172287
 20
78.7837712796
 30
0.0
 11
144.473172287
 21
128.1940492571
 31
0.0
  0
SPLINE
  5
76
330
1F
100
AcDbEntity
  8
0
  6
Continuous
 62
     7
370
    15
100
AcDbSpline
210
0.0
220
0.0
230
1.0
 70
     8
 71
     3
 72
    10
 73
     6
 74
     0
 42
0.00000001
 43
0.00000001
 40
0.0
 40
0.0
 40
0.0
 40
0.0
 40
0.5
 40
0.5
 40
1.0
 40
1.0
 40
1.0
 40
1.0
 10
144.4731725968975
 20
78.78377111745539
 30
0.0
 10
144.4731725968975
 20
78.62388384926172
 30
0.0
 10
144.4118629456617
 20
78.46275659374712
 30
0.0
 10
144.1927633081266
 20
78.22865759539228
 30
0.0
 10
144.0347151018131
 20
78.15713082180106
 30
0.0
 10
143.8731725968975
 20
78.15713082180106
 30
0.0
  0
SPLINE
  5
77
330
1F
100
AcDbEntity
  8
0
  6
Continuous
 62
     7
370
    15
100
AcDbSpline
210
0.0
220
0.0
230
1.0
 70
    24
 71
     3
 72
    12
 73
     8
 74
     0
 42
0.00000001
 43
0.00000001
 40
0.0
 40
0.0
 40
0.0
 40
0.0
 40
0.250000000000002
 40
0.250000000000002
 40
0.500000000000004
 40
0.500000000000004
 40
1.0
 40
1.0
 40
1.0
 40
1.0
 10
143.8731725968975
 20
128.1940485180482
 30
0.0
 10
143.9634116645846
 20
128.1940485180482
 30
0.0
 10
144.054309778691
 20
128.1940485180482
 30
0.0
 10
144.2089068151796
 20
128.1940485180482
 30
0.0
 10
144.2738852312877
 20
128.1940485180482
 30
0.0
 10
144.425720259224
 20
128.1940485180482
 30
0.0
 10
144.4731725968975
 20
128.1940485180482
 30
0.0
 10
144.4731725968975
 20
128.1940485180482
 30
0.0
  0
LINE
  5
78
330
1F
100
AcDbEntity
  8
0
  6
Continuous
 62
     7
370
    15
100
AcDbLine
 10
123.4731725701
 20
128.1940492571
 30
0.0
 11
133.1312400573
 21
128.1940492571
 31
0.0
  0
LINE
  5
79
330
1F
100
AcDbEntity
  8
0
  6
Continuous
 62
     7
370
    15
100
AcDbLine
 10
133.1312400573
 20
78.1571308852
 30
0.0
 11
133.1312400573
 21
128.1940492571
 31
0.0
  0
LINE
  5
7A
330
1F
100
AcDbEntity
  8
0
  6
Continuous
 62
     7
370
    15
100
AcDbLine
 10
133.1312400573
 20
78.1571308852
 30
0.0
 11
131.4731729501
 21
78.1571308852
 31
0.0
  0
SPLINE
  5
7B
330
1F
100
AcDbEntity
  8
0
  6
Continuous
 62
     7
370
    15
100
AcDbSpline
210
0.0
220
0.0
230
1.0
 70
     8
 71
     3
 72
    28
 73
    24
 74
     0
 42
0.00000001
 43
0.00000001
 40
0.0
 40
0.0
 40
0.0
 40
0.0
 40
0.1249999999999999
 40
0.1249999999999999
 40
0.1874999999999998
 40
0.1874999999999998
 40
0.2499999999999997
 40
0.2499999999999997
 40
0.3749999999999993
 40
0.3749999999999993
 40
0.4374999999999993
 40
0.4374999999999993
 40
0.4999999999999992
 40
0.4999999999999992
 40
0.6249999999999992
 40
0.6249999999999992
 40
0.7499999999999992
 40
0.7499999999999992
 40
0.8124999999999993
 40
0.8124999999999993
 40
0.8749999999999996
 40
0.8749999999999996
 40
1.0
 40
1.0
 40
1.0
 40
1.0
 10
131.4731725968975
 20
78.15713082180106
 30
0.0
 10
130.9414648394046
 20
78.15713082180106
 30
0.0
 10
130.4192262740943
 20
78.14134610785084
 30
0.0
 10
129.6493557878192
 20
78.09635069377464
 30
0.0
 10
129.3949962156279
 20
78.0777956986989
 30
0.0
 10
128.8908746349294
 20
78.03394297625242
 30
0.0
 10
128.6411518175015
 20
78.00859836930022
 30
0.0
 10
127.9155618660551
 20
77.92519629155011
 30
0.0
 10
127.4572016044736
 20
77.85933073239902
 30
0.0
 10
126.8067036610797
 20
77.75036039190725
 30
0.0
 10
126.5950216102872
 20
77.71212075614059
 30
0.0
 10
126.1909501211492
 20
77.63436201872123
 30
0.0
 10
125.9984436073283
 20
77.5948610565459
 30
0.0
 10
125.4486086363071
 20
77.47595331417988
 30
0.0
 10
125.1186798579982
 20
77.39613563275526
 30
0.0
 10
124.5342085894296
 20
77.2427924709592
 30
0.0
 10
124.2879314514161
 20
77.17145871768994
 30
0.0
 10
123.9880886587181
 20
77.07751521061533
 30
0.0
 10
123.8996318016459
 20
77.0483214172554
 30
0.0
 10
123.7462704483407
 20
76.994854842992
 30
0.0
 10
123.6811822341145
 20
76.97049550871682
 30
0.0
 10
123.5255882181737
 20
76.90690536327207
 30
0.0
 10
123.4731725968975
 20
76.87680242818281
 30
0.0
 10
123.4731725968975
 20
76.8599255351859
 30
0.0
  0
LINE
  5
7C
330
1F
100
AcDbEntity
  8
0
  6
Continuous
 62
     7
370
    15
100
AcDbLine
 10
123.4731725701
 20
76.8599251987
 30
0.0
 11
123.4731725701
 21
76.8440480114
 31
0.0
  0
SPLINE
  5
7D
330
1F
100
AcDbEntity
  8
0
  6
Continuous
 62
     7
370
    15
100
AcDbSpline
210
0.0
220
0.0
230
1.0
 70
     8
 71
     3
 72
    17
 73
    13
 74
     0
 42
0.00000001
 43
0.00000001
 40
0.0
 40
0.0
 40
0.0
 40
0.0
 40
0.1034797280380778
 40
0.2100239090909901
 40
0.3134862262879433
 40
0.4198361712144981
 40
0.5254127947779869
 40
0.6339610881168427
 40
0.7409508662120068
 40
0.8511696072047016
 40
0.9558996557845765
 40
1.0
 40
1.0
 40
1.0
 40
1.0
 10
131.4731729500551
 20
138.8112439544067
 30
0.0
 10
131.0379244583291
 20
138.8166919460444
 30
0.0
 10
130.1545380077521
 20
138.827749266373
 30
0.0
 10
128.8737101455294
 20
138.914108026748
 30
0.0
 10
127.6562939500875
 20
139.041979169881
 30
0.0
 10
126.5484873337616
 20
139.2009235771995
 30
0.0
 10
125.5602488544328
 20
139.3754181501841
 30
0.0
 10
124.735525754617
 20
139.5445845833709
 30
0.0
 10
124.0865720971183
 20
139.6924653918386
 30
0.0
 10
123.6695367936387
 20
139.7942561433612
 30
0.0
 10
123.4709400507607
 20
139.8446130429957
 30
0.0
 10
123.4942531677487
 20
139.8387034380202
 30
0.0
 10
123.5011611417491
 20
139.8369523466692
 30
0.0
  0
LINE
  5
7E
330
1F
100
AcDbEntity
  8
0
  6
Continuous
 62
     7
370
    15
100
AcDbLine
 10
133.1312400573
 20
138.8112439544
 30
0.0
 11
131.4731729501
 21
138.8112439544
 31
0.0
  0
LINE
  5
7F
330
1F
100
AcDbEntity
  8
0
  6
Continuous
 62
     7
370
    15
100
AcDbLine
 10
133.1312400573
 20
132.8027381332
 30
0.0
 11
133.1312400573
 21
138.8112439544
 31
0.0
  0
LINE
  5
80
330
1F
100
AcDbEntity
  8
0
  6
Continuous
 62
     7
370
    15
100
AcDbLine
 10
130.7187932827
 20
132.8027381332
 30
0.0
 11
133.1312400573
 21
132.8027381332
 31
0.0
  0
SPLINE
  5
81
330
1F
100
AcDbEntity
  8
0
  6
Continuous
 62
     7
370
    15
100
AcDbSpline
210
0.0
220
0.0
230
1.0
 70
     8
 71
     3
 72
    20
 73
    16
 74
     0
 42
0.00000001
 43
0.00000001
 40
0.0
 40
0.0
 40
0.0
 40
0.0
 40
0.2499999999999995
 40
0.2499999999999995
 40
0.3749999999999996
 40
0.3749999999999996
 40
0.4999999999999997
 40
0.4999999999999997
 40
0.6249999999999998
 40
0.6249999999999998
 40
0.7499999999999998
 40
0.7499999999999998
 40
0.8749999999999999
 40
0.8749999999999999
 40
1.0
 40
1.0
 40
1.0
 40
1.0
 10
123.4731725968975
 20
128.1940485180482
 30
0.0
 10
123.7215463311856
 20
128.8479109463456
 30
0.0
 10
124.0411164235308
 20
129.4516967283428
 30
0.0
 10
124.6634226567355
 20
130.2785354645114
 30
0.0
 10
124.8948469171663
 20
130.5409641024643
 30
0.0
 10
125.416061256816
 20
131.0376267565693
 30
0.0
 10
125.7026817394511
 20
131.2682136355908
 30
0.0
 10
126.3221664807587
 20
131.6847678601735
 30
0.0
 10
126.6564668602456
 20
131.8722656621409
 30
0.0
 10
127.3817273328704
 20
132.2036626397773
 30
0.0
 10
127.7636423902609
 20
132.3431666272726
 30
0.0
 10
128.5584305664326
 20
132.5686201347436
 30
0.0
 10
128.972588760639
 20
132.6552462462872
 30
0.0
 10
129.8381351012204
 20
132.7732270351413
 30
0.0
 10
130.2760227162322
 20
132.8027381804156
 30
0.0
 10
130.7187929425868
 20
132.8027381804156
 30
0.0
  0
SPLINE
  5
82
330
1F
100
AcDbEntity
  8
0
  6
Continuous
 62
     7
370
    15
100
AcDbSpline
210
0.0
220
0.0
230
1.0
 70
     8
 71
     3
 72
    70
 73
    66
 74
     0
 42
0.00000001
 43
0.00000001
 40
-0.0312500000000001
 40
-0.0312500000000001
 40
0.0
 40
0.0
 40
0.0312499999999999
 40
0.0312499999999999
 40
0.0624999999999998
 40
0.0624999999999998
 40
0.0937499999999997
 40
0.0937499999999997
 40
0.1249999999999996
 40
0.1249999999999996
 40
0.1562499999999994
 40
0.1562499999999994
 40
0.1874999999999993
 40
0.1874999999999993
 40
0.2187499999999992
 40
0.2187499999999992
 40
0.2499999999999991
 40
0.2499999999999991
 40
0.281249999999999
 40
0.281249999999999
 40
0.3124999999999989
 40
0.3124999999999989
 40
0.3437499999999988
 40
0.3437499999999988
 40
0.3749999999999987
 40
0.3749999999999987
 40
0.4062499999999986
 40
0.4062499999999986
 40
0.4374999999999984
 40
0.4374999999999984
 40
0.4687499999999983
 40
0.4687499999999983
 40
0.4999999999999982
 40
0.4999999999999982
 40
0.5312499999999983
 40
0.5312499999999983
 40
0.5624999999999984
 40
0.5624999999999984
 40
0.5937499999999986
 40
0.5937499999999986
 40
0.6249999999999987
 40
0.6249999999999987
 40
0.6562499999999988
 40
0.6562499999999988
 40
0.6874999999999989
 40
0.6874999999999989
 40
0.718749999999999
 40
0.718749999999999
 40
0.7499999999999991
 40
0.7499999999999991
 40
0.7812499999999992
 40
0.7812499999999992
 40
0.8124999999999993
 40
0.8124999999999993
 40
0.8437499999999994
 40
0.8437499999999994
 40
0.8749999999999996
 40
0.8749999999999996
 40
0.9062499999999997
 40
0.9062499999999997
 40
0.9374999999999998
 40
0.9374999999999998
 40
0.9687499999999999
 40
0.9687499999999999
 40
1.0
 40
1.0
 40
1.03125
 40
1.03125
 10
126.7877179355577
 20
118.9649554040316
 30
0.0
 10
126.2586272582374
 20
118.9649554040316
 30
0.0
 10
125.9985565908603
 20
118.9896326988168
 30
0.0
 10
125.4869819110249
 20
119.0861043718587
 30
0.0
 10
125.2328066272847
 20
119.1590852878387
 30
0.0
 10
124.748535997223
 20
119.3488258907774
 30
0.0
 10
124.5188949053418
 20
119.4646865491711
 30
0.0
 10
124.0842905571083
 20
119.7373043951288
 30
0.0
 10
123.8787247804617
 20
119.8953434771826
 30
0.0
 10
123.5101676398665
 20
120.2388863281532
 30
0.0
 10
123.344686657131
 20
120.4256487722549
 30
0.0
 10
123.0522621476959
 20
120.8291919466517
 30
0.0
 10
122.9281611710694
 20
121.0426889430809
 30
0.0
 10
122.7285819743197
 20
121.4820722570034
 30
0.0
 10
122.6516483884614
 20
121.711212244149
 30
0.0
 10
122.548791329941
 20
122.177186366909
 30
0.0
 10
122.5233184204819
 20
122.4100688125852
 30
0.0
 10
122.5230280099141
 20
122.875466347665
 30
0.0
 10
122.5490526436899
 20
123.1103421050593
 30
0.0
 10
122.6512009281819
 20
123.5618352523056
 30
0.0
 10
122.726777375765
 20
123.779881727717
 30
0.0
 10
122.92727490691
 20
124.2009762527548
 30
0.0
 10
123.0524037484183
 20
124.4028976372731
 30
0.0
 10
123.3417625494399
 20
124.774927119792
 30
0.0
 10
123.5071735364954
 20
124.9475554233723
 30
0.0
 10
123.8801640946432
 20
125.2648734279184
 30
0.0
 10
124.0818971277323
 20
125.40466036142
 30
0.0
 10
124.5147563785602
 20
125.6488366149718
 30
0.0
 10
124.7486749114496
 20
125.7540661260133
 30
0.0
 10
125.2328586465922
 20
125.9222232723884
 30
0.0
 10
125.4821742725477
 20
125.9854741629823
 30
0.0
 10
125.9952067969754
 20
126.0710533720849
 30
0.0
 10
126.2605006198801
 20
126.0929255370073
 30
0.0
 10
126.7828352397498
 20
126.0930891866512
 30
0.0
 10
127.0425889022315
 20
126.0720874945552
 30
0.0
 10
127.5592007178768
 20
125.9866851394776
 30
0.0
 10
127.811566758377
 20
125.9226789561906
 30
0.0
 10
128.2930918799099
 20
125.7558644361494
 30
0.0
 10
128.5259426120234
 20
125.6517312727503
 30
0.0
 10
128.9630324604622
 20
125.4057446202553
 30
0.0
 10
129.1643534491194
 20
125.2659947893064
 30
0.0
 10
129.5334394744193
 20
124.9528567195819
 30
0.0
 10
129.702424225471
 20
124.7774005603118
 30
0.0
 10
129.9928802821302
 20
124.4045602962116
 30
0.0
 10
130.1159520934923
 20
124.2064384861006
 30
0.0
 10
130.3172883349143
 20
123.7857271433669
 30
0.0
 10
130.3945008808566
 20
123.5637371226994
 30
0.0
 10
130.4967044237566
 20
123.113872182991
 30
0.0
 10
130.522932775209
 20
122.8836167698743
 30
0.0
 10
130.5234091745261
 20
122.4123008273252
 30
0.0
 10
130.4976667620281
 20
122.1790634116111
 30
0.0
 10
130.3963559856642
 20
121.717386872113
 30
0.0
 10
130.3195233462733
 20
121.4864894850009
 30
0.0
 10
130.1191195070581
 20
121.0442134712092
 30
0.0
 10
129.9964480087661
 20
120.8331510399233
 30
0.0
 10
129.7065007196018
 20
120.4316525291906
 30
0.0
 10
129.5379297402366
 20
120.2407460071147
 30
0.0
 10
129.1696601461234
 20
119.8970206751176
 30
0.0
 10
128.9685982888531
 20
119.7418834889036
 30
0.0
 10
128.5315673702682
 20
119.4668061288238
 30
0.0
 10
128.2994191571386
 20
119.3496898994018
 30
0.0
 10
127.8184088756397
 20
119.1607634143373
 30
0.0
 10
127.5663087928093
 20
119.087688443943
 30
0.0
 10
127.0492393065503
 20
118.9896363848085
 30
0.0
 10
126.7877179355577
 20
118.9649554040316
 30
0.0
 10
126.2586272582374
 20
118.9649554040316
 30
0.0
  0
SPLINE
  5
83
330
1F
100
AcDbEntity
  8
0
  6
Continuous
 62
     7
370
    15
100
AcDbSpline
210
0.0
220
0.0
230
1.0
 70
     8
 71
     3
 72
    70
 73
    66
 74
     0
 42
0.00000001
 43
0.00000001
 40
-0.0312499999999999
 40
-0.0312499999999999
 40
0.0
 40
0.0
 40
0.0312499999999999
 40
0.0312499999999999
 40
0.0624999999999998
 40
0.0624999999999998
 40
0.0937499999999997
 40
0.0937499999999997
 40
0.1249999999999996
 40
0.1249999999999996
 40
0.1562499999999995
 40
0.1562499999999995
 40
0.1874999999999994
 40
0.1874999999999994
 40
0.2187499999999993
 40
0.2187499999999993
 40
0.2499999999999992
 40
0.2499999999999992
 40
0.2812499999999993
 40
0.2812499999999993
 40
0.3124999999999993
 40
0.3124999999999993
 40
0.3437499999999994
 40
0.3437499999999994
 40
0.3749999999999995
 40
0.3749999999999995
 40
0.4062499999999996
 40
0.4062499999999996
 40
0.4374999999999996
 40
0.4374999999999996
 40
0.4687499999999997
 40
0.4687499999999997
 40
0.4999999999999998
 40
0.4999999999999998
 40
0.5312499999999999
 40
0.5312499999999999
 40
0.5625
 40
0.5625
 40
0.5937500000000001
 40
0.5937500000000001
 40
0.6250000000000002
 40
0.6250000000000002
 40
0.6562500000000004
 40
0.6562500000000004
 40
0.6875000000000006
 40
0.6875000000000006
 40
0.7187500000000007
 40
0.7187500000000007
 40
0.7500000000000008
 40
0.7500000000000008
 40
0.7812500000000007
 40
0.7812500000000007
 40
0.8125000000000006
 40
0.8125000000000006
 40
0.8437500000000004
 40
0.8437500000000004
 40
0.8750000000000003
 40
0.8750000000000003
 40
0.9062500000000003
 40
0.9062500000000003
 40
0.9375000000000002
 40
0.9375000000000002
 40
0.9687500000000001
 40
0.9687500000000001
 40
1.0
 40
1.0
 40
1.03125
 40
1.03125
 10
126.7877179355577
 20
133.4030119128274
 30
0.0
 10
126.2586272582374
 20
133.4030119128274
 30
0.0
 10
125.9985565908603
 20
133.4189123532422
 30
0.0
 10
125.4869819110249
 20
133.4808567034164
 30
0.0
 10
125.2328066272847
 20
133.5276589375077
 30
0.0
 10
124.748535997223
 20
133.6486359209628
 30
0.0
 10
124.5188949053418
 20
133.7222382487697
 30
0.0
 10
124.0842905571083
 20
133.8940625197478
 30
0.0
 10
123.8787247804617
 20
133.9930659426752
 30
0.0
 10
123.5101676398665
 20
134.2061623565881
 30
0.0
 10
123.344686657131
 20
134.3210620727177
 30
0.0
 10
123.0522621476959
 20
134.566428971408
 30
0.0
 10
122.9281611710694
 20
134.6948688718783
 30
0.0
 10
122.7285819743197
 20
134.9557610199642
 30
0.0
 10
122.6516483884614
 20
135.0901421913037
 30
0.0
 10
122.548791329941
 20
135.35946214241
 30
0.0
 10
122.5233184204819
 20
135.4921434066281
 30
0.0
 10
122.5230280099141
 20
135.7533298807592
 30
0.0
 10
122.5490526436899
 20
135.8830949189239
 30
0.0
 10
122.6512009281819
 20
136.1286775531966
 30
0.0
 10
122.726777375765
 20
136.2453390905054
 30
0.0
 10
122.92727490691
 20
136.46724428066
 30
0.0
 10
123.0524037484183
 20
136.571855534583
 30
0.0
 10
123.3417625494399
 20
136.7619019461911
 30
0.0
 10
123.5071735364954
 20
136.8486616176407
 30
0.0
 10
123.8801640946432
 20
137.0061659933923
 30
0.0
 10
124.0818971277323
 20
137.0744912581795
 30
0.0
 10
124.5147563785602
 20
137.1927209817987
 30
0.0
 10
124.7486749114496
 20
137.2430158979026
 30
0.0
 10
125.2328586465922
 20
137.3228814347922
 30
0.0
 10
125.4821742725477
 20
137.3526225625918
 30
0.0
 10
125.9952067969754
 20
137.3927753041
 30
0.0
 10
126.26050061988
 20
137.4029735735098
 30
0.0
 10
126.7828352397498
 20
137.4030500318945
 30
0.0
 10
127.0425889022315
 20
137.3932590202855
 30
0.0
 10
127.5592007178768
 20
137.3531921815468
 30
0.0
 10
127.811566758377
 20
137.32309501469
 30
0.0
 10
128.2930918799099
 20
137.2438728048597
 30
0.0
 10
128.5259426120234
 20
137.1941153253964
 30
0.0
 10
128.9630324604622
 20
137.075023382946
 30
0.0
 10
129.1643534491194
 20
137.0067081213987
 30
0.0
 10
129.5334394744193
 20
136.8513071544652
 30
0.0
 10
129.702424225471
 20
136.7631548123983
 30
0.0
 10
129.9928802821302
 20
136.5727154232819
 30
0.0
 10
130.1159520934923
 20
136.4700908455828
 30
0.0
 10
130.3172883349143
 20
136.2484504989747
 30
0.0
 10
130.3945008808566
 20
136.1296964234272
 30
0.0
 10
130.4967044237566
 20
135.8850304845095
 30
0.0
 10
130.522932775209
 20
135.757873759061
 30
0.0
 10
130.5234091745261
 20
135.4934256132054
 30
0.0
 10
130.4976667620281
 20
135.3605249329483
 30
0.0
 10
130.3963559856642
 20
135.0937326594662
 30
0.0
 10
130.3195233462733
 20
134.9583687579976
 30
0.0
 10
130.1191195070581
 20
134.6957889626951
 30
0.0
 10
129.9964480087661
 20
134.5688138029413
 30
0.0
 10
129.7065007196018
 20
134.3247344168589
 30
0.0
 10
129.5379297402366
 20
134.2073092921051
 30
0.0
 10
129.1696601461234
 20
133.9941128311567
 30
0.0
 10
128.9685982888531
 20
133.8969387127318
 30
0.0
 10
128.5315673702682
 20
133.7235838255176
 30
0.0
 10
128.2994191571386
 20
133.6491842738609
 30
0.0
 10
127.8184088756397
 20
133.5287313943562
 30
0.0
 10
127.5663087928093
 20
133.4818730190902
 30
0.0
 10
127.0492393065503
 20
133.4189155221065
 30
0.0
 10
126.7877179355577
 20
133.4030119128274
 30
0.0
 10
126.2586272582374
 20
133.4030119128274
 30
0.0
  0
LINE
  5
84
330
1F
100
AcDbEntity
  8
0
  6
Continuous
 62
     7
370
    15
100
AcDbLine
 10
134.6131726452
 20
80.8462111981
 30
0.0
 11
134.6131726452
 21
128.1940492571
 31
0.0
  0
SPLINE
  5
85
330
1F
100
AcDbEntity
  8
0
  6
Continuous
 62
     7
370
    15
100
AcDbSpline
210
0.0
220
0.0
230
1.0
 70
     8
 71
     3
 72
     8
 73
     4
 74
     0
 42
0.00000001
 43
0.00000001
 40
0.0
 40
0.0
 40
0.0
 40
0.0
 40
1.0
 40
1.0
 40
1.0
 40
1.0
 10
134.6131725968975
 20
80.84621135899336
 30
0.0
 10
134.1208334741164
 20
79.94894132478666
 30
0.0
 10
133.6267194260742
 20
79.05265690973442
 30
0.0
 10
133.1312397654085
 20
78.15713082180106
 30
0.0
  0
SPLINE
  5
86
330
1F
100
AcDbEntity
  8
0
  6
Continuous
 62
     7
370
    15
100
AcDbSpline
210
0.0
220
0.0
230
1.0
 70
    24
 71
     3
 72
     8
 73
     4
 74
     0
 42
0.00000001
 43
0.00000001
 40
0.0
 40
0.0
 40
0.0
 40
0.0
 40
1.0
 40
1.0
 40
1.0
 40
1.0
 10
133.1312397654085
 20
128.1940485180482
 30
0.0
 10
133.637919873559
 20
128.1940485180482
 30
0.0
 10
134.1332206025326
 20
128.1940485180482
 30
0.0
 10
134.6131725968975
 20
128.1940485180482
 30
0.0
  0
SPLINE
  5
87
330
1F
100
AcDbEntity
  8
0
  6
Continuous
 62
     7
370
    15
100
AcDbSpline
210
0.0
220
0.0
230
1.0
 70
     8
 71
     3
 72
     8
 73
     4
 74
     0
 42
0.00000001
 43
0.00000001
 40
0.0
 40
0.0
 40
0.0
 40
0.0
 40
1.0
 40
1.0
 40
1.0
 40
1.0
 10
139.9151054283866
 20
78.15713082180106
 30
0.0
 10
139.4196257677208
 20
79.05265690973442
 30
0.0
 10
138.9255117196787
 20
79.94894132478667
 30
0.0
 10
138.4331725968975
 20
80.84621135899337
 30
0.0
  0
LINE
  5
88
330
1F
100
AcDbEntity
  8
0
  6
Continuous
 62
     7
370
    15
100
AcDbLine
 10
138.4331728615
 20
80.8462111981
 30
0.0
 11
138.4331728615
 21
128.1940492571
 31
0.0
  0
SPLINE
  5
89
330
1F
100
AcDbEntity
  8
0
  6
Continuous
 62
     7
370
    15
100
AcDbSpline
210
0.0
220
0.0
230
1.0
 70
    24
 71
     3
 72
     8
 73
     4
 74
     0
 42
0.00000001
 43
0.00000001
 40
0.0
 40
0.0
 40
0.0
 40
0.0
 40
1.0
 40
1.0
 40
1.0
 40
1.0
 10
138.4331725968975
 20
128.1940485180482
 30
0.0
 10
138.9131245912624
 20
128.1940485180482
 30
0.0
 10
139.408425320236
 20
128.1940485180482
 30
0.0
 10
139.9151054283866
 20
128.1940485180482
 30
0.0
  0
LINE
  5
8A
330
1F
100
AcDbEntity
  8
0
  6
Continuous
 62
     7
370
    15
100
AcDbLine
 10
118.5231725969
 20
77.1440493644
 30
0.0
 11
118.5231725969
 21
139.5440476717
 31
0.0
  0
ARC
  5
8B
330
1F
100
AcDbEntity
  8
0
  6
Continuous
 62
     7
370
    15
100
AcDbCircle
 10
126.5206460952
 20
120.2558429214
 30
0.0
 40
4.110156032299398
100
AcDbArc
 50
19.1742613699
 51
159.6514936674
  0
SPLINE
  5
8C
330
1F
100
AcDbEntity
  8
0
  6
Continuous
 62
     7
370
    15
100
AcDbSpline
210
0.0
220
0.0
230
1.0
 70
     8
 71
     3
 72
    10
 73
     6
 74
     0
 42
0.00000001
 43
0.00000001
 40
0.0
 40
0.0
 40
0.0
 40
0.0
 40
0.5
 40
0.5
 40
1.0
 40
1.0
 40
1.0
 40
1.0
 10
135.0074701285885
 20
134.7440485180482
 30
0.0
 10
134.8859298649199
 20
134.81877468526
 30
0.0
 10
134.784595504571
 20
134.9277197011768
 30
0.0
 10
134.6489565616826
 20
135.1781501819384
 30
0.0
 10
134.6131725968975
 20
135.3205695440373
 30
0.0
 10
134.6131725968975
 20
135.463702369084
 30
0.0
  0
SPLINE
  5
8D
330
1F
100
AcDbEntity
  8
0
  6
Continuous
 62
     7
370
    15
100
AcDbSpline
210
0.0
220
0.0
230
1.0
 70
    24
 71
     3
 72
    12
 73
     8
 74
     0
 42
0.00000001
 43
0.00000001
 40
0.0
 40
0.0
 40
0.0
 40
0.0
 40
0.2499999999999992
 40
0.2499999999999992
 40
0.4999999999999983
 40
0.4999999999999983
 40
1.0
 40
1.0
 40
1.0
 40
1.0
 10
135.4131725968975
 20
134.7440485180482
 30
0.0
 10
135.3632959145802
 20
134.7440485180482
 30
0.0
 10
135.3152927211764
 20
134.7440485180482
 30
0.0
 10
135.2322446184645
 20
134.7440485180482
 30
0.0
 10
135.1961150389967
 20
134.7440485180482
 30
0.0
 10
135.1002030080525
 20
134.7440485180482
 30
0.0
 10
135.0504443400837
 20
134.7440485180482
 30
0.0
 10
135.0074701285885
 20
134.7440485180482
 30
0.0
  0
SPLINE
  5
8E
330
1F
100
AcDbEntity
  8
0
  6
Continuous
 62
     7
370
    15
100
AcDbSpline
210
0.0
220
0.0
230
1.0
 70
    24
 71
     3
 72
    14
 73
    10
 74
     0
 42
0.00000001
 43
0.00000001
 40
0.0
 40
0.0
 40
0.0
 40
0.0
 40
0.1250000000000012
 40
0.1250000000000012
 40
0.2500000000000024
 40
0.2500000000000024
 40
0.5000000000000013
 40
0.5000000000000013
 40
1.0
 40
1.0
 40
1.0
 40
1.0
 10
135.4131725968975
 20
81.94404851804823
 30
0.0
 10
135.3447347490111
 20
81.94404851804823
 30
0.0
 10
135.279184710246
 20
81.94404851804823
 30
0.0
 10
135.1747580708381
 20
81.94404851804823
 30
0.0
 10
135.1322134610767
 20
81.94404851804822
 30
0.0
 10
135.0196040005364
 20
81.94404851804822
 30
0.0
 10
134.9640649535169
 20
81.94404851804822
 30
0.0
 10
134.8214532580531
 20
81.94404851804823
 30
0.0
 10
134.7580479030573
 20
81.94404851804822
 30
0.0
 10
134.7108473992298
 20
81.94404851804823
 30
0.0
  0
SPLINE
  5
8F
330
1F
100
AcDbEntity
  8
0
  6
Continuous
 62
     7
370
    15
100
AcDbSpline
210
0.0
220
0.0
230
1.0
 70
     8
 71
     3
 72
    10
 73
     6
 74
     0
 42
0.00000001
 43
0.00000001
 40
0.0
 40
0.0
 40
0.0
 40
0.0
 40
0.5
 40
0.5
 40
1.0
 40
1.0
 40
1.0
 40
1.0
 10
134.6131725968975
 20
128.4799151495096
 30
0.0
 10
134.6131725968975
 20
128.4321436415163
 30
0.0
 10
134.6153338404947
 20
128.3844339194546
 30
0.0
 10
134.6240052143549
 20
128.2891388019064
 30
0.0
 10
134.6305343973108
 20
128.2414462379397
 30
0.0
 10
134.6393202200576
 20
128.1940485180482
 30
0.0
  0
SPLINE
  5
90
330
1F
100
AcDbEntity
  8
0
  6
Continuous
 62
     7
370
    15
100
AcDbSpline
210
0.0
220
0.0
230
1.0
 70
    24
 71
     3
 72
    14
 73
    10
 74
     0
 42
0.00000001
 43
0.00000001
 40
0.0
 40
0.0
 40
0.0
 40
0.0
 40
0.5
 40
0.5
 40
0.75
 40
0.75
 40
0.875
 40
0.875
 40
1.0
 40
1.0
 40
1.0
 40
1.0
 10
138.3354977945652
 20
81.94404851804823
 30
0.0
 10
138.288713089517
 20
81.94404851804823
 30
0.0
 10
138.2266618927374
 20
81.94404851804823
 30
0.0
 10
138.0832702541868
 20
81.94404851804822
 30
0.0
 10
138.0271266006357
 20
81.94404851804823
 30
0.0
 10
137.9141755784995
 20
81.94404851804822
 30
0.0
 10
137.8711748164613
 20
81.94404851804823
 30
0.0
 10
137.7671121061549
 20
81.94404851804822
 30
0.0
 10
137.7017798677979
 20
81.94404851804822
 30
0.0
 10
137.6331725968975
 20
81.94404851804823
 30
0.0
  0
SPLINE
  5
91
330
1F
100
AcDbEntity
  8
0
  6
Continuous
 62
     7
370
    15
100
AcDbSpline
210
0.0
220
0.0
230
1.0
 70
    24
 71
     3
 72
    12
 73
     8
 74
     0
 42
0.00000001
 43
0.00000001
 40
0.0
 40
0.0
 40
0.0
 40
0.0
 40
0.5000000000000017
 40
0.5000000000000017
 40
0.7500000000000008
 40
0.7500000000000008
 40
1.0
 40
1.0
 40
1.0
 40
1.0
 10
138.0388750652066
 20
134.7440485180482
 30
0.0
 10
137.9957895155956
 20
134.7440485180482
 30
0.0
 10
137.9466373138463
 20
134.7440485180482
 30
0.0
 10
137.8501647195584
 20
134.7440485180482
 30
0.0
 10
137.8140631344238
 20
134.7440485180482
 30
0.0
 10
137.7309573765625
 20
134.7440485180482
 30
0.0
 10
137.6829607795962
 20
134.7440485180482
 30
0.0
 10
137.6331725968975
 20
134.7440485180482
 30
0.0
  0
SPLINE
  5
92
330
1F
100
AcDbEntity
  8
0
  6
Continuous
 62
     7
370
    15
100
AcDbSpline
210
0.0
220
0.0
230
1.0
 70
     8
 71
     3
 72
    10
 73
     6
 74
     0
 42
0.00000001
 43
0.00000001
 40
0.0
 40
0.0
 40
0.0
 40
0.0
 40
0.5
 40
0.5
 40
1.0
 40
1.0
 40
1.0
 40
1.0
 10
138.4331725968975
 20
135.463702369084
 30
0.0
 10
138.4331725968975
 20
135.319932311266
 30
0.0
 10
138.3971235381786
 20
135.1775129487708
 30
0.0
 10
138.2616146774046
 20
134.9276186554136
 30
0.0
 10
138.1617386843085
 20
134.8195883191654
 30
0.0
 10
138.0388750652066
 20
134.7440485180482
 30
0.0
  0
SPLINE
  5
93
330
1F
100
AcDbEntity
  8
0
  6
Continuous
 62
     7
370
    15
100
AcDbSpline
210
0.0
220
0.0
230
1.0
 70
     8
 71
     3
 72
    10
 73
     6
 74
     0
 42
0.00000001
 43
0.00000001
 40
0.0
 40
0.0
 40
0.0
 40
0.0
 40
0.5
 40
0.5
 40
1.0
 40
1.0
 40
1.0
 40
1.0
 10
138.4070249737374
 20
128.1940485180482
 30
0.0
 10
138.4157146166491
 20
128.2409273673664
 30
0.0
 10
138.4222536813996
 20
128.2883498327677
 30
0.0
 10
138.4310123157926
 20
128.3842866313545
 30
0.0
 10
138.4331725968975
 20
128.432201919365
 30
0.0
 10
138.4331725968975
 20
128.4799151495096
 30
0.0
  0
LINE
  5
94
330
1F
100
AcDbEntity
  8
0
  6
Continuous
 62
     7
370
    15
100
AcDbLine
 10
137.6331723579
 20
134.744048375
 30
0.0
 11
135.4131731488
 21
134.744048375
 31
0.0
  0
LINE
  5
95
330
1F
100
AcDbEntity
  8
0
  6
Continuous
 62
     7
370
    15
100
AcDbLine
 10
137.6331723579
 20
81.9440486611
 30
0.0
 11
135.4131731488
 21
81.9440486611
 31
0.0
  0
LINE
  5
96
330
1F
100
AcDbEntity
  8
0
  6
Continuous
 62
     7
370
    15
100
AcDbLine
 10
116.5231725019
 20
84.1236172945
 30
0.0
 11
116.5231725019
 21
132.5644797416
 31
0.0
  0
LINE
  5
97
330
1F
100
AcDbEntity
  8
0
  6
Continuous
 62
     7
370
    15
100
AcDbLine
 10
96.7231723764
 20
85.1156024964
 30
0.0
 11
96.7231723764
 21
86.380310613
 31
0.0
  0
SPLINE
  5
98
330
1F
100
AcDbEntity
  8
0
  6
Continuous
 62
     7
370
    15
100
AcDbSpline
210
0.0
220
0.0
230
1.0
 70
     8
 71
     3
 72
    14
 73
    10
 74
     0
 42
0.00000001
 43
0.00000001
 40
0.0
 40
0.0
 40
0.0
 40
0.0
 40
0.25
 40
0.25
 40
0.5
 40
0.5
 40
0.75
 40
0.75
 40
1.0
 40
1.0
 40
1.0
 40
1.0
 10
95.9448854789818
 20
87.51089719448828
 30
0.0
 10
96.00151215418389
 20
87.40319974065142
 30
0.0
 10
96.09603481447361
 20
87.3004101589321
 30
0.0
 10
96.27907979003585
 20
87.10205284671196
 30
0.0
 10
96.37070636699058
 20
87.0059933380337
 30
0.0
 10
96.52955968468378
 20
86.81846429532446
 30
0.0
 10
96.59745029230545
 20
86.7270553225409
 30
0.0
 10
96.69436731801305
 20
86.54867910163075
 30
0.0
 10
96.72317259689811
 20
86.46145719538457
 30
0.0
 10
96.7231725968981
 20
86.38031098685032
 30
0.0
  0
SPLINE
  5
99
330
1F
100
AcDbEntity
  8
0
  6
Continuous
 62
     7
370
    15
100
AcDbSpline
210
0.0
220
0.0
230
1.0
 70
     8
 71
     3
 72
    14
 73
    10
 74
     0
 42
0.00000001
 43
0.00000001
 40
0.0
 40
0.0
 40
0.0
 40
0.0
 40
0.125
 40
0.125
 40
0.25
 40
0.25
 40
0.5
 40
0.5
 40
1.0
 40
1.0
 40
1.0
 40
1.0
 10
95.32317259689754
 20
87.9575790567676
 30
0.0
 10
95.37171700555469
 20
87.96332737004789
 30
0.0
 10
95.4246323603396
 20
87.96022648139166
 30
0.0
 10
95.51992770532264
 20
87.93803163722933
 30
0.0
 10
95.56017870260759
 20
87.92079941013347
 30
0.0
 10
95.66444871612055
 20
87.8644714936814
 30
0.0
 10
95.71477069127388
 20
87.8202851477356
 30
0.0
 10
95.84245363879926
 20
87.68927724888498
 30
0.0
 10
95.89853908586153
 20
87.59904272865468
 30
0.0
 10
95.94488547898328
 20
87.5108971944888
 30
0.0
  0
SPLINE
  5
9A
330
1F
100
AcDbEntity
  8
0
  6
Continuous
 62
     7
370
    15
100
AcDbSpline
210
0.0
220
0.0
230
1.0
 70
     8
 71
     3
 72
     8
 73
     4
 74
     0
 42
0.00000001
 43
0.00000001
 40
0.0
 40
0.0
 40
0.0
 40
0.0
 40
1.0
 40
1.0
 40
1.0
 40
1.0
 10
93.05464750395126
 20
87.6477337701848
 30
0.0
 10
93.78922453043423
 20
87.76635878125376
 30
0.0
 10
94.5526995998299
 20
87.86634465339004
 30
0.0
 10
95.32317259689754
 20
87.9575790567676
 30
0.0
  0
SPLINE
  5
9B
330
1F
100
AcDbEntity
  8
0
  6
Continuous
 62
     7
370
    15
100
AcDbSpline
210
0.0
220
0.0
230
1.0
 70
     8
 71
     3
 72
    14
 73
    10
 74
     0
 42
0.00000001
 43
0.00000001
 40
0.0
 40
0.0
 40
0.0
 40
0.0
 40
0.5000000000000002
 40
0.5000000000000002
 40
0.7500000000000002
 40
0.7500000000000002
 40
0.8750000000000001
 40
0.8750000000000001
 40
1.0
 40
1.0
 40
1.0
 40
1.0
 10
87.77317259689752
 20
87.47411075265316
 30
0.0
 10
88.6653187274511
 20
87.47338852645251
 30
0.0
 10
89.55529516324468
 20
87.47797473290997
 30
0.0
 10
90.88189033032026
 20
87.5056997373015
 30
0.0
 10
91.32273725881899
 20
87.51830627492568
 30
0.0
 10
91.97917749624142
 20
87.54932242293312
 30
0.0
 10
92.1971911528333
 20
87.5616655955599
 30
0.0
 10
92.62990000651605
 20
87.59468965072317
 30
0.0
 10
92.84517647168086
 20
87.61390681586163
 30
0.0
 10
93.05464750395126
 20
87.6477337701848
 30
0.0
  0
SPLINE
  5
9C
330
1F
100
AcDbEntity
  8
0
  6
Continuous
 62
     7
370
    15
100
AcDbSpline
210
0.0
220
0.0
230
1.0
 70
     8
 71
     3
 72
     8
 73
     4
 74
     0
 42
0.00000001
 43
0.00000001
 40
0.0000005163856711
 40
0.0000005163856711
 40
0.0000005163856711
 40
0.0000005163856711
 40
0.000026289209185
 40
0.000026289209185
 40
0.000026289209185
 40
0.000026289209185
 10
87.76312766647882
 20
87.48409462576105
 30
0.0
 10
87.7664554046903
 20
87.48076037888822
 30
0.0
 10
87.76980385766961
 20
87.47743242160918
 30
0.0
 10
87.7731725968975
 20
87.47411075265315
 30
0.0
  0
SPLINE
  5
9D
330
1F
100
AcDbEntity
  8
0
  6
Continuous
 62
     7
370
    15
100
AcDbSpline
210
0.0
220
0.0
230
1.0
 70
     8
 71
     3
 72
     8
 73
     4
 74
     0
 42
0.00000001
 43
0.00000001
 40
0.0000005099763573
 40
0.0000005099763573
 40
0.0000005099763573
 40
0.0000005099763573
 40
0.0000262827998699
 40
0.0000262827998699
 40
0.0000262827998699
 40
0.0000262827998699
 10
87.77317259689751
 20
129.2139862834433
 30
0.0
 10
87.76980385766977
 20
129.2106646144874
 30
0.0
 10
87.76645540469063
 20
129.2073366572086
 30
0.0
 10
87.7631276664793
 20
129.2040024103359
 30
0.0
  0
SPLINE
  5
9E
330
1F
100
AcDbEntity
  8
0
  6
Continuous
 62
     7
370
    15
100
AcDbSpline
210
0.0
220
0.0
230
1.0
 70
     8
 71
     3
 72
    10
 73
     6
 74
     0
 42
0.00000001
 43
0.00000001
 40
0.0
 40
0.0
 40
0.0
 40
0.0
 40
0.5
 40
0.5
 40
1.0
 40
1.0
 40
1.0
 40
1.0
 10
91.32317259689754
 20
129.167135909876
 30
0.0
 10
90.73558704980694
 20
129.1882014301124
 30
0.0
 10
90.14484065634655
 20
129.1989599159846
 30
0.0
 10
88.9608214910477
 20
129.2123246965203
 30
0.0
 10
88.36740750284224
 20
129.2144673391848
 30
0.0
 10
87.77317259689752
 20
129.2139862834433
 30
0.0
  0
SPLINE
  5
9F
330
1F
100
AcDbEntity
  8
0
  6
Continuous
 62
     7
370
    15
100
AcDbSpline
210
0.0
220
0.0
230
1.0
 70
     8
 71
     3
 72
    18
 73
    14
 74
     0
 42
0.00000001
 43
0.00000001
 40
0.0
 40
0.0
 40
0.0
 40
0.0
 40
0.2500000000000008
 40
0.2500000000000008
 40
0.5000000000000009
 40
0.5000000000000009
 40
0.7500000000000009
 40
0.7500000000000009
 40
0.875000000000001
 40
0.875000000000001
 40
0.9375000000000006
 40
0.9375000000000006
 40
1.0
 40
1.0
 40
1.0
 40
1.0
 10
92.72317259689754
 20
130.1881561904112
 30
0.0
 10
92.72317259689756
 20
130.104949281554
 30
0.0
 10
92.68732349695928
 20
130.0162126262404
 30
0.0
 10
92.56245176092536
 20
129.8340874356802
 30
0.0
 10
92.47205134327749
 20
129.7389573870536
 30
0.0
 10
92.2498086885353
 20
129.5497758779292
 30
0.0
 10
92.12004390208952
 20
129.4548307098345
 30
0.0
 10
91.87940644477803
 20
129.3165520022546
 30
0.0
 10
91.79163914664059
 20
129.2708415689522
 30
0.0
 10
91.63711505943375
 20
129.2130182637308
 30
0.0
 10
91.58050417337901
 20
129.1953034996929
 30
0.0
 10
91.45646014247241
 20
129.17076419646
 30
0.0
 10
91.38874546745413
 20
129.1647850579217
 30
0.0
 10
91.32317259689752
 20
129.167135909876
 30
0.0
  0
LINE
  5
A0
330
1F
100
AcDbEntity
  8
0
  6
Continuous
 62
     7
370
    15
100
AcDbLine
 10
92.7231717207
 20
130.1881561757
 30
0.0
 11
92.7231717207
 21
131.3720944108
 31
0.0
  0
SPLINE
  5
A1
330
1F
100
AcDbEntity
  8
0
  6
Continuous
 62
     7
370
    15
100
AcDbSpline
210
0.0
220
0.0
230
1.0
 70
     8
 71
     3
 72
    24
 73
    20
 74
     0
 42
0.00000001
 43
0.00000001
 40
0.0
 40
0.0
 40
0.0
 40
0.0
 40
0.0010489815523775
 40
0.0637843212772741
 40
0.1272220630088516
 40
0.1903789073370505
 40
0.2526748662763491
 40
0.3146354150030102
 40
0.3770891884518245
 40
0.4393540587943444
 40
0.5008133488401828
 40
0.5621845177353679
 40
0.6248438462901906
 40
0.6874304788646655
 40
0.7496743245911356
 40
0.811984857412469
 40
0.8750960476811308
 40
0.9384412548145236
 40
1.0
 40
1.0
 40
1.0
 40
1.0
 10
105.2920786016244
 20
84.68654032360166
 30
0.0
 10
105.2916319358737
 20
84.68648167863519
 30
0.0
 10
105.2644719999501
 20
84.68291571565449
 30
0.0
 10
105.3601019230819
 20
84.6957803251297
 30
0.0
 10
105.5936550991024
 20
84.72501480746976
 30
0.0
 10
105.9892110513368
 20
84.77163401821119
 30
0.0
 10
106.5162510517068
 20
84.82181481763634
 30
0.0
 10
107.1597814935431
 20
84.86619349107939
 30
0.0
 10
107.8984553278128
 20
84.89313668759019
 30
0.0
 10
108.6959699979317
 20
84.89660843589232
 30
0.0
 10
109.5225490476963
 20
84.8689829895989
 30
0.0
 10
110.3480718691149
 20
84.81050184662026
 30
0.0
 10
111.1401983400306
 20
84.72505878322167
 30
0.0
 10
111.8727707188679
 20
84.62332361472916
 30
0.0
 10
112.5084109006886
 20
84.51547996368123
 30
0.0
 10
113.0303218312349
 20
84.41384856840641
 30
0.0
 10
113.4119506688738
 20
84.3313666041139
 30
0.0
 10
113.6627653448072
 20
84.27521449660699
 30
0.0
 10
113.6918866605144
 20
84.26836564569412
 30
0.0
 10
113.7062390618581
 20
84.26499019871801
 30
0.0
  0
SPLINE
  5
A2
330
1F
100
AcDbEntity
  8
0
  6
Continuous
 62
     7
370
    15
100
AcDbSpline
210
0.0
220
0.0
230
1.0
 70
     8
 71
     3
 72
    24
 73
    20
 74
     0
 42
0.00000001
 43
0.00000001
 40
0.0
 40
0.0
 40
0.0
 40
0.0
 40
0.061438429114026
 40
0.1250736777967296
 40
0.1884253375120635
 40
0.2508623992448768
 40
0.3129665476325514
 40
0.3753451442328022
 40
0.4377328732174486
 40
0.499092717251918
 40
0.560580729454827
 40
0.622946985474185
 40
0.6854686070210457
 40
0.7475477863222202
 40
0.8098225081553685
 40
0.873068419947611
 40
0.936404185690527
 40
0.9991757203144552
 40
1.0
 40
1.0
 40
1.0
 40
1.0
 10
113.7061845794875
 20
132.4230770350561
 30
0.0
 10
113.6915837710353
 20
132.4197088771831
 30
0.0
 10
113.6618600811843
 20
132.4128521280987
 30
0.0
 10
113.4091220811983
 20
132.3565143082026
 30
0.0
 10
113.0261267821772
 20
132.2736564953174
 30
0.0
 10
112.5037708252943
 20
132.1717497470963
 30
0.0
 10
111.8689864805926
 20
132.0639111772073
 30
0.0
 10
111.1387627439784
 20
131.9624449239783
 30
0.0
 10
110.3482946490674
 20
131.8773828454111
 30
0.0
 10
109.5238109216096
 20
131.8191814884545
 30
0.0
 10
108.6967745411296
 20
131.7915970407699
 30
0.0
 10
107.8984500821391
 20
131.7950909693041
 30
0.0
 10
107.1586263311395
 20
131.8220446279777
 30
0.0
 10
106.5143714596799
 20
131.8664001285911
 30
0.0
 10
105.9869646025823
 20
131.9166053123139
 30
0.0
 10
105.5922993622692
 20
131.9632127723591
 30
0.0
 10
105.3597706766811
 20
131.9924159491974
 30
0.0
 10
105.2643914480148
 20
132.0051740879146
 30
0.0
 10
105.2913243923416
 20
132.0016342579959
 30
0.0
 10
105.2916734763045
 20
132.0015883774624
 30
0.0
  0
SPLINE
  5
A3
330
1F
100
AcDbEntity
  8
0
  6
Continuous
 62
     7
370
    15
100
AcDbSpline
210
0.0
220
0.0
230
1.0
 70
     8
 71
     3
 72
     9
 73
     5
 74
     0
 42
0.00000001
 43
0.00000001
 40
0.0
 40
0.0
 40
0.0
 40
0.0
 40
0.7009339503679092
 40
0.9999999999999999
 40
0.9999999999999999
 40
0.9999999999999999
 40
0.9999999999999999
 10
86.64395616432611
 20
88.64276881824583
 30
0.0
 10
86.65309683527595
 20
88.62493953448492
 30
0.0
 10
86.66613753753475
 20
88.59950306682413
 30
0.0
 10
86.68130100080305
 20
88.65338242629768
 30
0.0
 10
86.68583587786142
 20
88.66949591349214
 30
0.0
  0
LINE
  5
A4
330
1F
100
AcDbEntity
  8
0
  6
Continuous
 62
     7
370
    15
100
AcDbLine
 10
86.6231727698
 20
88.6533709944
 30
0.0
 11
86.6231727698
 21
128.0347260417
 31
0.0
  0
SPLINE
  5
A5
330
1F
100
AcDbEntity
  8
0
  6
Continuous
 62
     7
370
    15
100
AcDbSpline
210
0.0
220
0.0
230
1.0
 70
     8
 71
     3
 72
    10
 73
     6
 74
     0
 42
0.00000001
 43
0.00000001
 40
0.0
 40
0.0
 40
0.0
 40
0.0
 40
0.5
 40
0.5
 40
1.0
 40
1.0
 40
1.0
 40
1.0
 10
86.68583597162095
 20
128.018601062829
 30
0.0
 10
86.67693168251218
 20
128.0643425820421
 30
0.0
 10
86.66041630231919
 20
128.0815334215111
 30
0.0
 10
86.63330835625757
 20
128.0812101445754
 30
0.0
 10
86.62317259689753
 20
128.063332602279
 30
0.0
 10
86.62317259689753
 20
128.0347262645264
 30
0.0
  0
SPLINE
  5
A6
330
1F
100
AcDbEntity
  8
0
  6
Continuous
 62
     7
370
    15
100
AcDbSpline
210
0.0
220
0.0
230
1.0
 70
     8
 71
     3
 72
    26
 73
    22
 74
     0
 42
0.00000001
 43
0.00000001
 40
0.0
 40
0.0
 40
0.0
 40
0.0
 40
0.2500000000000165
 40
0.2500000000000165
 40
0.3750000000000256
 40
0.3750000000000256
 40
0.4375000000000291
 40
0.4375000000000291
 40
0.4687500000000291
 40
0.4687500000000291
 40
0.5000000000000292
 40
0.5000000000000292
 40
0.5312500000000293
 40
0.5312500000000293
 40
0.5625000000000293
 40
0.5625000000000293
 40
0.625000000000026
 40
0.625000000000026
 40
0.7500000000000173
 40
0.7500000000000173
 40
1.0
 40
1.0
 40
1.0
 40
1.0
 10
87.44732624300204
 20
128.7341678516461
 30
0.0
 10
87.40872572013357
 20
128.6163931552906
 30
0.0
 10
87.3624287175793
 20
128.4920034691287
 30
0.0
 10
87.26848936914539
 20
128.2867841367752
 30
0.0
 10
87.23317790223193
 20
128.2152112703288
 30
0.0
 10
87.16699792648625
 20
128.0992580377283
 30
0.0
 10
87.14245955981804
 20
128.0586735029181
 30
0.0
 10
87.09908681426423
 20
127.9945318210463
 30
0.0
 10
87.08357841283903
 20
127.9726653957613
 30
0.0
 10
87.048535768252
 20
127.9270711274181
 30
0.0
 10
87.02898547753225
 20
127.9034008364507
 30
0.0
 10
86.98705819716163
 20
127.8587842771107
 30
0.0
 10
86.96440608692998
 20
127.8379042645928
 30
0.0
 10
86.92343237284337
 20
127.807030850842
 30
0.0
 10
86.90583307294794
 20
127.7971919810096
 30
0.0
 10
86.86120608709179
 20
127.7782023653134
 30
0.0
 10
86.84064686443845
 20
127.77787804066
 30
0.0
 10
86.78952142494178
 20
127.7871014815362
 30
0.0
 10
86.76861001195324
 20
127.8083483777531
 30
0.0
 10
86.71716010439232
 20
127.8823172565839
 30
0.0
 10
86.69949480508777
 20
127.9484353498987
 30
0.0
 10
86.68583597162095
 20
128.018601062829
 30
0.0
  0
SPLINE
  5
A7
330
1F
100
AcDbEntity
  8
0
  6
Continuous
 62
     7
370
    15
100
AcDbSpline
210
0.0
220
0.0
230
1.0
 70
     8
 71
     3
 72
    10
 73
     6
 74
     0
 42
0.00000001
 43
0.00000001
 40
0.0
 40
0.0
 40
0.0
 40
0.0
 40
0.5
 40
0.5
 40
1.0
 40
1.0
 40
1.0
 40
1.0
 10
87.76312766647932
 20
129.2040024103359
 30
0.0
 10
87.6955684115611
 20
129.1363110175261
 30
0.0
 10
87.63193175622459
 20
129.0616038527725
 30
0.0
 10
87.52171100165272
 20
128.9026377203459
 30
0.0
 10
87.4748947084301
 20
128.8182824543379
 30
0.0
 10
87.44732624300202
 20
128.7341678516461
 30
0.0
  0
SPLINE
  5
A8
330
1F
100
AcDbEntity
  8
0
  6
Continuous
 62
     7
370
    15
100
AcDbSpline
210
0.0
220
0.0
230
1.0
 70
     8
 71
     3
 72
    10
 73
     6
 74
     0
 42
0.00000001
 43
0.00000001
 40
0.0
 40
0.0
 40
0.0
 40
0.0
 40
0.5
 40
0.5
 40
1.0
 40
1.0
 40
1.0
 40
1.0
 10
87.44732624300208
 20
87.95392918445026
 30
0.0
 10
87.47480365775529
 20
87.87009238798467
 30
0.0
 10
87.52151228804293
 20
87.78578190039785
 30
0.0
 10
87.63179075078489
 20
87.626660669915
 30
0.0
 10
87.69567828939653
 20
87.55167592582691
 30
0.0
 10
87.76312766647884
 20
87.48409462576105
 30
0.0
  0
SPLINE
  5
A9
330
1F
100
AcDbEntity
  8
0
  6
Continuous
 62
     7
370
    15
100
AcDbSpline
210
0.0
220
0.0
230
1.0
 70
     8
 71
     3
 72
    24
 73
    20
 74
     0
 42
0.00000001
 43
0.00000001
 40
0.0
 40
0.0
 40
0.0
 40
0.0
 40
0.249999999999999
 40
0.249999999999999
 40
0.3749999999999983
 40
0.3749999999999983
 40
0.4374999999999987
 40
0.4374999999999987
 40
0.4687499999999975
 40
0.4687499999999975
 40
0.4999999999999963
 40
0.4999999999999963
 40
0.5624999999999984
 40
0.5624999999999984
 40
0.6250000000000006
 40
0.6250000000000006
 40
0.7500000000000001
 40
0.7500000000000001
 40
1.0
 40
1.0
 40
1.0
 40
1.0
 10
86.68583597162095
 20
88.66949597326749
 30
0.0
 10
86.69958909029116
 20
88.74014603125777
 30
0.0
 10
86.71736165769703
 20
88.8067441440227
 30
0.0
 10
86.76961274925237
 20
88.8808421642559
 30
0.0
 10
86.79064782483395
 20
88.90209997141746
 30
0.0
 10
86.84354823246238
 20
88.9102458975637
 30
0.0
 10
86.86465390534029
 20
88.90930609416792
 30
0.0
 10
86.91070607401826
 20
88.88829010259057
 30
0.0
 10
86.92907654600165
 20
88.87738129648297
 30
0.0
 10
86.97062818106738
 20
88.84474638553559
 30
0.0
 10
86.99319485382429
 20
88.8232544051642
 30
0.0
 10
87.0559758702843
 20
88.7547884615779
 30
0.0
 10
87.0891056312522
 20
88.7087140033728
 30
0.0
 10
87.14602331773722
 20
88.62370611503815
 30
0.0
 10
87.17020934324096
 20
88.58342581385676
 30
0.0
 10
87.23541729362071
 20
88.46848958739083
 30
0.0
 10
87.27013335381199
 20
88.39790660224381
 30
0.0
 10
87.36334862414286
 20
88.19370084316522
 30
0.0
 10
87.40902115950354
 20
88.07080246083785
 30
0.0
 10
87.44732624300207
 20
87.95392918445027
 30
0.0
  0
SPLINE
  5
AA
330
1F
100
AcDbEntity
  8
0
  6
Continuous
 62
     7
370
    15
100
AcDbSpline
210
0.0
220
0.0
230
1.0
 70
     8
 71
     3
 72
     8
 73
     4
 74
     0
 42
0.00000001
 43
0.00000001
 40
0.0
 40
0.0
 40
0.0
 40
0.0
 40
1.0
 40
1.0
 40
1.0
 40
1.0
 10
134.6131725968975
 20
136.1492827092198
 30
0.0
 10
134.1204625000518
 20
137.0373017073462
 30
0.0
 10
133.6263797947728
 20
137.9245643430322
 30
0.0
 10
133.1312397654085
 20
138.8112439912125
 30
0.0
  0
SPLINE
  5
AB
330
1F
100
AcDbEntity
  8
0
  6
Continuous
 62
     7
370
    15
100
AcDbSpline
210
0.0
220
0.0
230
1.0
 70
     8
 71
     3
 72
     8
 73
     4
 74
     0
 42
0.00000001
 43
0.00000001
 40
0.0
 40
0.0
 40
0.0
 40
0.0
 40
1.0
 40
1.0
 40
1.0
 40
1.0
 10
133.1312397654085
 20
132.8027381804156
 30
0.0
 10
133.6383266071677
 20
131.671587826252
 30
0.0
 10
134.1338944463077
 20
130.5352034154842
 30
0.0
 10
134.6131725968975
 20
129.3941921856316
 30
0.0
  0
LINE
  5
AC
330
1F
100
AcDbEntity
  8
0
  6
Continuous
 62
     7
370
    15
100
AcDbLine
 10
134.6131726452
 20
129.394192505
 30
0.0
 11
134.6131726452
 21
136.1492818923
 31
0.0
  0
SPLINE
  5
AD
330
1F
100
AcDbEntity
  8
0
  6
Continuous
 62
     7
370
    15
100
AcDbSpline
210
0.0
220
0.0
230
1.0
 70
     8
 71
     3
 72
    10
 73
     6
 74
     0
 42
0.00000001
 43
0.00000001
 40
0.0
 40
0.0
 40
0.0
 40
0.0
 40
0.5
 40
0.5
 40
1.0
 40
1.0
 40
1.0
 40
1.0
 10
144.4731725968975
 20
138.1904888418121
 30
0.0
 10
144.4731725968975
 20
138.3508941081629
 30
0.0
 10
144.4109347657907
 20
138.5099559211515
 30
0.0
 10
144.1917998420481
 20
138.7408683867818
 30
0.0
 10
144.0342111470562
 20
138.8112439912125
 30
0.0
 10
143.8731725968975
 20
138.8112439912125
 30
0.0
  0
SPLINE
  5
AE
330
1F
100
AcDbEntity
  8
0
  6
Continuous
 62
     7
370
    15
100
AcDbSpline
210
0.0
220
0.0
230
1.0
 70
     8
 71
     3
 72
    12
 73
     8
 74
     0
 42
0.00000001
 43
0.00000001
 40
0.0
 40
0.0
 40
0.0
 40
0.0
 40
0.2499999999999987
 40
0.2499999999999987
 40
0.4999999999999973
 40
0.4999999999999973
 40
1.0
 40
1.0
 40
1.0
 40
1.0
 10
143.8731725968975
 20
132.8027381804157
 30
0.0
 10
143.9643723187232
 20
132.8027381804157
 30
0.0
 10
144.0549673278592
 20
132.7745184818278
 30
0.0
 10
144.2083800543058
 20
132.6800754745797
 30
0.0
 10
144.2735889216295
 20
132.6137884978744
 30
0.0
 10
144.4263734509695
 20
132.3881636745861
 30
0.0
 10
144.4731725968975
 20
132.2057374115535
 30
0.0
 10
144.4731725968975
 20
132.0250007793066
 30
0.0
  0
LINE
  5
AF
330
1F
100
AcDbEntity
  8
0
  6
Continuous
 62
     7
370
    15
100
AcDbLine
 10
144.473172287
 20
132.0249999643
 30
0.0
 11
144.473172287
 21
138.1904895187
 31
0.0
  0
LINE
  5
B0
330
1F
100
AcDbEntity
  8
0
  6
Continuous
 62
     7
370
    15
100
AcDbLine
 10
134.6131726452
 20
129.394192505
 30
0.0
 11
134.6131726452
 21
128.4799149961
 31
0.0
  0
LINE
  5
B1
330
1F
100
AcDbEntity
  8
0
  6
Continuous
 62
     7
370
    15
100
AcDbLine
 10
143.8731733062
 20
138.8112439544
 30
0.0
 11
139.9151045181
 21
138.8112439544
 31
0.0
  0
LINE
  5
B2
330
1F
100
AcDbEntity
  8
0
  6
Continuous
 62
     7
370
    15
100
AcDbLine
 10
139.9151045181
 20
132.8027381332
 30
0.0
 11
143.8731733062
 21
132.8027381332
 31
0.0
  0
LINE
  5
B3
330
1F
100
AcDbEntity
  8
0
  6
Continuous
 62
     7
370
    15
100
AcDbLine
 10
139.9151045181
 20
132.8027381332
 30
0.0
 11
139.9151045181
 21
138.8112439544
 31
0.0
  0
SPLINE
  5
B4
330
1F
100
AcDbEntity
  8
0
  6
Continuous
 62
     7
370
    15
100
AcDbSpline
210
0.0
220
0.0
230
1.0
 70
     8
 71
     3
 72
     8
 73
     4
 74
     0
 42
0.00000001
 43
0.00000001
 40
0.0
 40
0.0
 40
0.0
 40
0.0
 40
1.0
 40
1.0
 40
1.0
 40
1.0
 10
139.9151054283866
 20
138.8112439912125
 30
0.0
 10
139.4199653990223
 20
137.9245643430322
 30
0.0
 10
138.9258826937433
 20
137.0373017073462
 30
0.0
 10
138.4331725968975
 20
136.1492827092198
 30
0.0
  0
SPLINE
  5
B5
330
1F
100
AcDbEntity
  8
0
  6
Continuous
 62
     7
370
    15
100
AcDbSpline
210
0.0
220
0.0
230
1.0
 70
     8
 71
     3
 72
     8
 73
     4
 74
     0
 42
0.00000001
 43
0.00000001
 40
0.0
 40
0.0
 40
0.0
 40
0.0
 40
1.0
 40
1.0
 40
1.0
 40
1.0
 10
138.4331725968975
 20
129.3941921856316
 30
0.0
 10
138.9124507474874
 20
130.5352034154842
 30
0.0
 10
139.4080185866273
 20
131.671587826252
 30
0.0
 10
139.9151054283866
 20
132.8027381804156
 30
0.0
  0
LINE
  5
B6
330
1F
100
AcDbEntity
  8
0
  6
Continuous
 62
     7
370
    15
100
AcDbLine
 10
138.4331728615
 20
129.394192505
 30
0.0
 11
138.4331728615
 21
136.1492818923
 31
0.0
  0
LINE
  5
B7
330
1F
100
AcDbEntity
  8
0
  6
Continuous
 62
     7
370
    15
100
AcDbLine
 10
138.4331728615
 20
128.4799149961
 30
0.0
 11
138.4331728615
 21
129.394192505
 31
0.0
  0
LINE
  5
B8
330
1F
100
AcDbEntity
  8
0
  6
Continuous
 62
     7
370
    15
100
AcDbLine
 10
144.473172287
 20
132.0249999643
 30
0.0
 11
144.473172287
 21
128.1940492571
 31
0.0
  0
ARC
  5
B9
330
1F
100
AcDbEntity
  8
0
  6
Continuous
 62
     7
370
    15
100
AcDbCircle
 10
126.5232590335
 20
127.0576459327
 30
0.0
 40
7.241632650760297
100
AcDbArc
 50
70.7889224027
 51
109.2352481375
  0
SPLINE
  5
BA
330
1F
100
AcDbEntity
  8
0
  6
Continuous
 62
     7
370
    15
100
AcDbSpline
210
0.0
220
0.0
230
1.0
 70
     8
 71
     3
 72
    39
 73
    35
 74
     0
 42
0.00000001
 43
0.00000001
 40
-0.0930101214669516
 40
-0.0618280028303914
 40
-0.03064361999209
 40
0.0
 40
0.0306596107133943
 40
0.0618452964000896
 40
0.0930163102300508
 40
0.1240785945074901
 40
0.1552163478474737
 40
0.1868112107939535
 40
0.2185267826075259
 40
0.2499192584027656
 40
0.2813177417211247
 40
0.3130921101017579
 40
0.3447271324240789
 40
0.375922023279728
 40
0.4069779730814058
 40
0.4381192479309745
 40
0.4692677792202777
 40
0.5000093392007163
 40
0.5307192062576094
 40
0.5619180231307592
 40
0.5930486394302006
 40
0.6241331762561645
 40
0.655296459328235
 40
0.6869387764013126
 40
0.7186659751595844
 40
0.7500826423953663
 40
0.7814523712110477
 40
0.8132065805149599
 40
0.8447916839895296
 40
0.8759584677019109
 40
0.9069898785330482
 40
0.9381719971696085
 40
0.9693563800079099
 40
0.9999999999999999
 40
1.030659610713394
 40
1.06184529640009
 40
1.093016310230051
 10
201.5957887505478
 20
105.3991240920487
 30
0.0
 10
201.0230670987949
 20
105.3410734481545
 30
0.0
 10
200.4503764869263
 20
105.3993078820365
 30
0.0
 10
199.8998925863378
 20
105.5743431687727
 30
0.0
 10
199.3908248708337
 20
105.8498828424178
 30
0.0
 10
198.9485442709535
 20
106.2218680313786
 30
0.0
 10
198.5853776772585
 20
106.6747168440306
 30
0.0
 10
198.3170624928869
 20
107.1947082637336
 30
0.0
 10
198.1467958366771
 20
107.7574653957545
 30
0.0
 10
198.0905436201184
 20
108.3425907312866
 30
0.0
 10
198.1469671652495
 20
108.9280432752367
 30
0.0
 10
198.3170671652376
 20
109.4915084857143
 30
0.0
 10
198.585271789383
 20
110.0126485361466
 30
0.0
 10
198.9485007206875
 20
110.4661845440245
 30
0.0
 10
199.3905626140299
 20
110.8385966497132
 30
0.0
 10
199.899037847997
 20
111.1143275158978
 30
0.0
 10
200.4497399053139
 20
111.2891189413662
 30
0.0
 10
201.0231473959173
 20
111.346946251309
 30
0.0
 10
201.5968616418774
 20
111.2890636699055
 30
0.0
 10
202.1475631070981
 20
111.1140802242614
 30
0.0
 10
202.656395147606
 20
110.8381485975867
 30
0.0
 10
203.0983265310154
 20
110.4656871826867
 30
0.0
 10
203.4614748960695
 20
110.0120707044462
 30
0.0
 10
203.7294473287563
 20
109.4912966966614
 30
0.0
 10
203.8993941579794
 20
108.9279365815801
 30
0.0
 10
203.9557948354431
 20
108.342804282025
 30
0.0
 10
203.8995624268052
 20
107.7574683747425
 30
0.0
 10
203.7292372507428
 20
107.1946800754642
 30
0.0
 10
203.4607766165146
 20
106.6743675929136
 30
0.0
 10
203.0975672327118
 20
106.2216288161581
 30
0.0
 10
202.6551809143057
 20
105.8496882100537
 30
0.0
 10
202.1461893651109
 20
105.5742996451192
 30
0.0
 10
201.5957887505478
 20
105.3991240920487
 30
0.0
 10
201.0230670987949
 20
105.3410734481545
 30
0.0
 10
200.4503764869263
 20
105.3993078820365
 30
0.0
  0
LINE
  5
BB
330
1F
100
AcDbEntity
  8
0
  6
Continuous
 62
     7
370
    15
100
AcDbLine
 10
204.5838753976
 20
93.3440488533
 30
0.0
 11
204.5838753976
 21
123.3440481828
 31
0.0
  0
LINE
  5
BC
330
1F
100
AcDbEntity
  8
0
  6
Continuous
 62
     7
370
    15
100
AcDbLine
 10
218.523174087
 20
101.1181890735
 30
0.0
 11
218.523174087
 21
115.5699079626
 31
0.0
  0
CIRCLE
  5
BD
330
1F
100
AcDbEntity
  8
0
  6
HIDDEN
 62
     7
370
     0
100
AcDbCircle
 10
201.0231725969
 20
108.344048518
 30
0.0
 40
2.99999999999997
  0
CIRCLE
  5
BE
330
1F
100
AcDbEntity
  8
0
  6
HIDDEN
 62
     7
370
     0
100
AcDbCircle
 10
201.0231725969
 20
108.344048518
 30
0.0
 40
1.249999999999987
  0
CIRCLE
  5
BF
330
1F
100
AcDbEntity
  8
0
  6
HIDDEN
 62
     7
370
     0
100
AcDbCircle
 10
201.0231725969
 20
108.344048518
 30
0.0
 40
2.099999999999977
  0
LINE
  5
C0
330
1F
100
AcDbEntity
  8
0
  6
HIDDEN
 62
     7
370
     0
100
AcDbLine
 10
133.1312400573
 20
132.8027381332
 30
0.0
 11
133.1312400573
 21
128.1940492571
 31
0.0
  0
ARC
  5
C1
330
1F
100
AcDbEntity
  8
0
  6
HIDDEN
 62
     7
370
     0
100
AcDbCircle
 10
126.8071414094
 20
120.8393957789
 30
0.0
 40
3.676415644107822
100
AcDbArc
 50
265.5700290317
 51
12.032294133
  0
ARC
  5
C2
330
1F
100
AcDbEntity
  8
0
  6
HIDDEN
 62
     7
370
     0
100
AcDbCircle
 10
126.2220826577
 20
120.8203127177
 30
0.0
 40
3.658759096118223
100
AcDbArc
 50
166.3287028976
 51
274.7203805789
  0
LINE
  5
C3
330
1F
100
AcDbEntity
  8
0
  6
HIDDEN
 62
     7
370
     0
100
AcDbLine
 10
106.5183230959
 20
84.8194493682
 30
0.0
 11
106.2666648351
 21
84.7959278853
 31
0.0
  0
LINE
  5
C4
330
1F
100
AcDbEntity
  8
0
  6
HIDDEN
 62
     7
370
     0
100
AcDbLine
 10
106.1439733305
 20
131.9034791322
 30
0.0
 11
106.5182299637
 21
131.8686309041
 31
0.0
  0
SPLINE
  5
C5
330
1F
100
AcDbEntity
  8
0
  6
HIDDEN
 62
     7
370
     0
100
AcDbSpline
210
0.0
220
0.0
230
1.0
 70
     8
 71
     3
 72
    32
 73
    28
 74
     0
 42
0.00000001
 43
0.00000001
 40
0.0
 40
0.0
 40
0.0
 40
0.0
 40
0.0346246398690349
 40
0.0694870586071574
 40
0.1051007942635744
 40
0.1409754003922404
 40
0.1756005999802061
 40
0.2104692913927726
 40
0.2461123024905376
 40
0.2820258489382428
 40
0.3162664415223801
 40
0.3859338983833381
 40
0.4214462221160897
 40
0.4553763288093113
 40
0.5243713480224321
 40
0.5595125206652528
 40
0.593798732937926
 40
0.6635059792189233
 40
0.6990055738234109
 40
0.7337623606872737
 40
0.7687606796896899
 40
0.8045245796794579
 40
0.8405553862630515
 40
0.8751701097005637
 40
0.9456085120736846
 40
0.9815233260152604
 40
1.0
 40
1.0
 40
1.0
 40
1.0
 10
112.2781746373135
 20
88.50652005086988
 30
0.0
 10
112.2061763416591
 20
88.5163085507012
 30
0.0
 10
112.0616853142094
 20
88.53595277123398
 30
0.0
 10
111.8203649932913
 20
88.56539866344646
 30
0.0
 10
111.5610670378138
 20
88.59395182175285
 30
0.0
 10
111.2870794191615
 20
88.62038061880727
 30
0.0
 10
111.0024516032009
 20
88.64383404121655
 30
0.0
 10
110.7078667531311
 20
88.66383289263972
 30
0.0
 10
110.4009357975298
 20
88.67998850608255
 30
0.0
 10
110.0892042637087
 20
88.69143003901475
 30
0.0
 10
109.6719386444833
 20
88.7001209479316
 30
0.0
 10
109.2512956578741
 20
88.6988330423135
 30
0.0
 10
108.8378923668031
 20
88.68760436550369
 30
0.0
 10
108.4330485633416
 20
88.6703055367754
 30
0.0
 10
108.0424104312104
 20
88.64459140894544
 30
0.0
 10
107.6736289933852
 20
88.61249680463575
 30
0.0
 10
107.320211799941
 20
88.57693820963719
 30
0.0
 10
106.9947704730212
 20
88.5376906328554
 30
0.0
 10
106.70539284292
 20
88.49806002976709
 30
0.0
 10
106.5074797497345
 20
88.4689223862214
 30
0.0
 10
106.3301521725374
 20
88.44118916422231
 30
0.0
 10
106.173543420697
 20
88.41541052030439
 30
0.0
 10
106.0418955150627
 20
88.39280025996989
 30
0.0
 10
105.9000348079389
 20
88.36761839594092
 30
0.0
 10
105.8112157097739
 20
88.35116965099083
 30
0.0
 10
105.7743929759292
 20
88.34427846936075
 30
0.0
 10
105.7758089638549
 20
88.34454233754714
 30
0.0
 10
105.7762899719733
 20
88.34463197301477
 30
0.0
  0
SPLINE
  5
C6
330
1F
100
AcDbEntity
  8
0
  6
HIDDEN
 62
     7
370
     0
100
AcDbSpline
210
0.0
220
0.0
230
1.0
 70
     8
 71
     3
 72
    30
 73
    26
 74
     0
 42
0.00000001
 43
0.00000001
 40
0.0
 40
0.0
 40
0.0
 40
0.0
 40
0.0156161599134492
 40
0.0849748354430979
 40
0.1203204707274447
 40
0.1543185374002934
 40
0.2234436738941646
 40
0.2586467327159568
 40
0.2931107352539268
 40
0.3631864008633959
 40
0.3988795402369778
 40
0.4336750588357229
 40
0.4687146119081173
 40
0.5045294366644589
 40
0.5406150942464
 40
0.5750767691290661
 40
0.6452033550959662
 40
0.6809575540931957
 40
0.7149323054552074
 40
0.7840330493487319
 40
0.8192378352640541
 40
0.8533346902847149
 40
0.9226550316361518
 40
0.9579547206872956
 40
1.0
 40
1.0
 40
1.0
 40
1.0
 10
105.7762899719733
 20
128.3434650630817
 30
0.0
 10
105.7756921527968
 20
128.3435768989006
 30
0.0
 10
105.77243913884
 20
128.3441854499378
 30
0.0
 10
105.8227600576231
 20
128.3347291703683
 30
0.0
 10
105.9230660049143
 20
128.3164236525756
 30
0.0
 10
106.0576831458252
 20
128.2924401921946
 30
0.0
 10
106.2397404886391
 20
128.2613405593366
 30
0.0
 10
106.4666642802907
 20
128.2254217595728
 30
0.0
 10
106.7232500542347
 20
128.1871015675765
 30
0.0
 10
107.021286738774
 20
128.146859437861
 30
0.0
 10
107.3538363929963
 20
128.1081967834393
 30
0.0
 10
107.6190338008815
 20
128.0807940397936
 30
0.0
 10
107.8980919771927
 20
128.0557480278277
 30
0.0
 10
108.1925429268042
 20
128.033583067946
 30
0.0
 10
108.4954076312556
 20
128.0154190395999
 30
0.0
 10
108.9057935331111
 20
127.9971625533366
 30
0.0
 10
109.3266343907873
 20
127.9883144041094
 30
0.0
 10
109.7465382778186
 20
127.989780463352
 30
0.0
 10
110.1611528536736
 20
127.9978222042403
 30
0.0
 10
110.5673739638889
 20
128.0153302690088
 30
0.0
 10
110.9569045574418
 20
128.0408951710935
 30
0.0
 10
111.3337252842756
 20
128.0710789173005
 30
0.0
 10
111.6868623501197
 20
128.1069785043189
 30
0.0
 10
112.028614140112
 20
128.1477953595352
 30
0.0
 10
112.1902877201285
 20
128.16968021882
 30
0.0
 10
112.2781746373135
 20
128.1815769852266
 30
0.0
  0
SPLINE
  5
C7
330
1F
100
AcDbEntity
  8
0
  6
HIDDEN
 62
     7
370
     0
100
AcDbSpline
210
0.0
220
0.0
230
1.0
 70
     8
 71
     3
 72
    15
 73
    11
 74
     0
 42
0.00000001
 43
0.00000001
 40
0.0
 40
0.0
 40
0.0
 40
0.0
 40
0.110051543785069
 40
0.2208771380323124
 40
0.3341302503335283
 40
0.4482177950853038
 40
0.5582923780342179
 40
0.7821476818975915
 40
0.8961890729625006
 40
1.0
 40
1.0
 40
1.0
 40
1.0
 10
112.2781746373135
 20
128.1815769852266
 30
0.0
 10
112.3457686932013
 20
128.1906449356289
 30
0.0
 10
112.481432229568
 20
128.2088446161042
 30
0.0
 10
112.6618775948011
 20
128.2295664083327
 30
0.0
 10
112.824025849171
 20
128.2463061341068
 30
0.0
 10
112.9620772537256
 20
128.2588867739341
 30
0.0
 10
113.1137176922977
 20
128.2712695722037
 30
0.0
 10
113.2151668068202
 20
128.2782241280042
 30
0.0
 10
113.2665942002882
 20
128.2815236718812
 30
0.0
 10
113.2705493987752
 20
128.2817678135038
 30
0.0
 10
113.2724341288764
 20
128.281884151803
 30
0.0
  0
SPLINE
  5
C8
330
1F
100
AcDbEntity
  8
0
  6
HIDDEN
 62
     7
370
     0
100
AcDbSpline
210
0.0
220
0.0
230
1.0
 70
     8
 71
     3
 72
    17
 73
    13
 74
     0
 42
0.00000001
 43
0.00000001
 40
0.0
 40
0.0
 40
0.0
 40
0.0
 40
0.0067816362738917
 40
0.1181454781676686
 40
0.2319238050706307
 40
0.3465370209495693
 40
0.4572767003195868
 40
0.56878899339559
 40
0.6827457878060759
 40
0.7975524635818956
 40
0.8984785683050195
 40
1.0
 40
1.0
 40
1.0
 40
1.0
 10
113.2724373885054
 20
88.4062128842935
 30
0.0
 10
113.272680047751
 20
88.40619711689418
 30
0.0
 10
113.2769075072374
 20
88.40592242700258
 30
0.0
 10
113.2609803281116
 20
88.40693148979761
 30
0.0
 10
113.2219739977679
 20
88.40944185757438
 30
0.0
 10
113.1535189673333
 20
88.4141405080996
 30
0.0
 10
113.0607677121846
 20
88.42109059011614
 30
0.0
 10
112.943476015277
 20
88.43082082271333
 30
0.0
 10
112.8006399081375
 20
88.44406694450839
 30
0.0
 10
112.6390898705596
 20
88.46105522548552
 30
0.0
 10
112.4652870172166
 20
88.48134653077513
 30
0.0
 10
112.3406675845822
 20
88.49811244328846
 30
0.0
 10
112.2781746373135
 20
88.50652005086988
 30
0.0
  0
LINE
  5
C9
330
1F
100
AcDbEntity
  8
0
  6
HIDDEN
 62
     7
370
     0
100
AcDbLine
 10
99.5271480926
 20
91.3440475942
 30
0.0
 11
99.5271480926
 21
125.3440494419
 31
0.0
  0
LWPOLYLINE
  5
CA
330
1F
100
AcDbEntity
  8
0
  6
HIDDEN
 62
     7
370
     0
100
AcDbPolyline
 90
       14
 70
   128
 43
0.0
 10
126.5231729769
 20
130.2896517099
 10
127.3283665352
 20
130.3305907876
 10
128.100595931
 20
130.4517353655
 10
128.8082455569
 20
130.6481233568
 10
129.4223438301
 20
130.9117174477
 10
129.9177496978
 20
131.2317236097
 10
130.2741808169
 20
131.5950399966
 10
130.4770461567
 20
131.9867952497
 10
130.5180383199
 20
132.3909501315
 10
130.3954809256
 20
132.7909569026
 10
130.1143910088
 20
133.1704391868
 10
129.6862759911
 20
133.5138625235
 10
129.128662432
 20
133.8071676673
 10
128.9061126583
 20
133.8960121156
  0
LWPOLYLINE
  5
CB
330
1F
100
AcDbEntity
  8
0
  6
HIDDEN
 62
     7
370
     0
100
AcDbPolyline
 90
       14
 70
   128
 43
0.0
 10
124.1375208185
 20
133.8950062872
 10
123.9176825904
 20
133.8071676673
 10
123.360069497
 20
133.5138625235
 10
122.9319544793
 20
133.1704391868
 10
122.6508640968
 20
132.7909569026
 10
122.5283067026
 20
132.3909501315
 10
122.5692993314
 20
131.9867952497
 10
122.7721642055
 20
131.5950399966
 10
123.1285957903
 20
131.2317236097
 10
123.624001658
 20
130.9117174477
 10
124.2380999312
 20
130.6481233568
 10
124.9457490914
 20
130.4517353655
 10
125.7179784872
 20
130.3305907876
 10
126.5231729769
 20
130.2896517099
  0
SPLINE
  5
CC
330
1F
100
AcDbEntity
  8
0
  6
HIDDEN
 62
     7
370
     0
100
AcDbSpline
210
0.0
220
0.0
230
1.0
 70
     8
 71
     3
 72
    11
 73
     7
 74
     0
 42
0.00000001
 43
0.00000001
 40
0.0
 40
0.0
 40
0.0
 40
0.0
 40
0.0005779865010846
 40
0.0005779865010846
 40
0.0005779865010846
 40
0.0011559733324422
 40
0.0011559733324422
 40
0.0011559733324422
 40
0.0011559733324422
 10
86.62317259689753
 20
110.3438891262082
 30
0.0
 10
86.78983985170349
 20
110.3419054868675
 30
0.0
 10
86.95650628138115
 20
110.3398678798592
 30
0.0
 10
87.12317261983299
 20
110.3377564164531
 30
0.0
 10
87.28983904865939
 20
110.3356449519021
 30
0.0
 10
87.45650542229707
 20
110.333459388746
 30
0.0
 10
87.62317259689752
 20
110.3311768114147
 30
0.0
  0
SPLINE
  5
CD
330
1F
100
AcDbEntity
  8
0
  6
HIDDEN
 62
     7
370
     0
100
AcDbSpline
210
0.0
220
0.0
230
1.0
 70
     8
 71
     3
 72
    11
 73
     7
 74
     0
 42
0.00000001
 43
0.00000001
 40
0.0
 40
0.0
 40
0.0
 40
0.0
 40
0.0005782382535738
 40
0.0005782382535738
 40
0.0005782382535738
 40
0.0011564766069467
 40
0.0011564766069467
 40
0.0011564766069467
 40
0.0011564766069467
 10
87.62317259689753
 20
106.34734821583
 30
0.0
 10
87.4565186429289
 20
106.3469106380684
 30
0.0
 10
87.28985797072693
 20
106.346430573396
 30
0.0
 10
87.12319108206151
 20
106.3459110340266
 30
0.0
 10
86.95652416366546
 20
106.3453914945646
 30
0.0
 10
86.78985103383224
 20
106.3448326655427
 30
0.0
 10
86.62317259689752
 20
106.3442471219596
 30
0.0
  0
LINE
  5
CE
330
1F
100
AcDbEntity
  8
0
  6
HIDDEN
 62
     7
370
     0
100
AcDbLine
 10
126.1829985589
 20
91.3440475942
 30
0.0
 11
126.1829985589
 21
125.3440494419
 31
0.0
  0
LINE
  5
CF
330
1F
100
AcDbEntity
  8
0
  6
HIDDEN
 62
     7
370
     0
100
AcDbLine
 10
128.4731724583
 20
92.6190486879
 30
0.0
 11
128.4731724583
 21
124.0690483482
 31
0.0
  0
SPLINE
  5
D0
330
1F
100
AcDbEntity
  8
0
  6
HIDDEN
 62
     7
370
     0
100
AcDbSpline
210
0.0
220
0.0
230
1.0
 70
     8
 71
     3
 72
    16
 73
    12
 74
     0
 42
0.00000001
 43
0.00000001
 40
0.0
 40
0.0
 40
0.0
 40
0.0
 40
0.124999999999998
 40
0.124999999999998
 40
0.249999999999996
 40
0.249999999999996
 40
0.4999999999999973
 40
0.4999999999999973
 40
0.7499999999999987
 40
0.7499999999999987
 40
1.0
 40
1.0
 40
1.0
 40
1.0
 10
95.32317259689754
 20
92.54255808201657
 30
0.0
 10
95.41829435156335
 20
92.54255808201657
 30
0.0
 10
95.51162442029143
 20
92.53874224862376
 30
0.0
 10
95.69488618102943
 20
92.52397169589396
 30
0.0
 10
95.78576389658645
 20
92.51281364791838
 30
0.0
 10
96.04256559410618
 20
92.47034237777666
 30
0.0
 10
96.19763295897818
 20
92.42929618057386
 30
0.0
 10
96.45137942053279
 20
92.33415006399197
 30
0.0
 10
96.55224987220065
 20
92.27938732991039
 30
0.0
 10
96.6874962868955
 20
92.1681262060065
 30
0.0
 10
96.72317259689753
 20
92.11095646867783
 30
0.0
 10
96.72317259689753
 20
92.0565348956441
 30
0.0
  0
SPLINE
  5
D1
330
1F
100
AcDbEntity
  8
0
  6
HIDDEN
 62
     7
370
     0
100
AcDbSpline
210
0.0
220
0.0
230
1.0
 70
     8
 71
     3
 72
     8
 73
     4
 74
     0
 42
0.00000001
 43
0.00000001
 40
0.0
 40
0.0
 40
0.0
 40
0.0
 40
1.0
 40
1.0
 40
1.0
 40
1.0
 10
87.92317260017836
 20
94.68736102809879
 30
0.0
 10
87.9231726001803
 20
93.80346388578187
 30
0.0
 10
87.90969197427087
 20
93.0888806407199
 30
0.0
 10
87.90834060608158
 20
92.54255808201655
 30
0.0
  0
SPLINE
  5
D2
330
1F
100
AcDbEntity
  8
0
  6
HIDDEN
 62
     7
370
     0
100
AcDbSpline
210
0.0
220
0.0
230
1.0
 70
     8
 71
     3
 72
    10
 73
     6
 74
     0
 42
0.00000001
 43
0.00000001
 40
0.0
 40
0.0
 40
0.0
 40
0.0
 40
0.5
 40
0.5
 40
1.0
 40
1.0
 40
1.0
 40
1.0
 10
87.62317259689752
 20
95.71227129375158
 30
0.0
 10
87.71456371257977
 20
95.53763250614229
 30
0.0
 10
87.78721554630526
 20
95.36403067889532
 30
0.0
 10
87.89471443930087
 20
95.0204172599057
 30
0.0
 10
87.92317260017275
 20
94.85209143338265
 30
0.0
 10
87.92317260017838
 20
94.68736102815828
 30
0.0
  0
LINE
  5
D3
330
1F
100
AcDbEntity
  8
0
  6
HIDDEN
 62
     7
370
     0
100
AcDbLine
 10
87.6231729337
 20
98.7432219789
 30
0.0
 11
87.6231729337
 21
95.7122708441
 31
0.0
  0
SPLINE
  5
D4
330
1F
100
AcDbEntity
  8
0
  6
HIDDEN
 62
     7
370
     0
100
AcDbSpline
210
0.0
220
0.0
230
1.0
 70
     8
 71
     3
 72
    10
 73
     6
 74
     0
 42
0.00000001
 43
0.00000001
 40
0.0
 40
0.0
 40
0.0
 40
0.0
 40
0.5
 40
0.5
 40
1.0
 40
1.0
 40
1.0
 40
1.0
 10
87.92317259998273
 20
100.1110621424054
 30
0.0
 10
87.92317259998272
 20
99.86907817483409
 30
0.0
 10
87.89502257092241
 20
99.634735745902
 30
0.0
 10
87.7914326568171
 20
99.17936072368593
 30
0.0
 10
87.71480394725205
 20
98.95775616060826
 30
0.0
 10
87.62317259689752
 20
98.74322172583547
 30
0.0
  0
LINE
  5
D5
330
1F
100
AcDbEntity
  8
0
  6
HIDDEN
 62
     7
370
     0
100
AcDbLine
 10
87.923172424
 20
111.9486822517
 30
0.0
 11
87.923172424
 21
100.1110619635
 31
0.0
  0
SPLINE
  5
D6
330
1F
100
AcDbEntity
  8
0
  6
HIDDEN
 62
     7
370
     0
100
AcDbSpline
210
0.0
220
0.0
230
1.0
 70
     8
 71
     3
 72
     8
 73
     4
 74
     0
 42
0.00000001
 43
0.00000001
 40
0.0
 40
0.0
 40
0.0
 40
0.0
 40
1.0
 40
1.0
 40
1.0
 40
1.0
 10
87.62317259689753
 20
117.9509878389288
 30
0.0
 10
87.80420406339684
 20
117.5188803533185
 30
0.0
 10
87.92317259998846
 20
117.0647349472789
 30
0.0
 10
87.92317259998275
 20
116.5770348936601
 30
0.0
  0
LINE
  5
D7
330
1F
100
AcDbEntity
  8
0
  6
HIDDEN
 62
     7
370
     0
100
AcDbLine
 10
87.6231729337
 20
120.9841904001
 30
0.0
 11
87.6231729337
 21
117.9509882585
 31
0.0
  0
SPLINE
  5
D8
330
1F
100
AcDbEntity
  8
0
  6
HIDDEN
 62
     7
370
     0
100
AcDbSpline
210
0.0
220
0.0
230
1.0
 70
     8
 71
     3
 72
    10
 73
     6
 74
     0
 42
0.00000001
 43
0.00000001
 40
0.0
 40
0.0
 40
0.0
 40
0.0
 40
0.5
 40
0.5
 40
1.0
 40
1.0
 40
1.0
 40
1.0
 10
87.9231726002899
 20
122.0007360079681
 30
0.0
 10
87.92317260028811
 20
121.8360996613629
 30
0.0
 10
87.89601392953311
 20
121.6689444375332
 30
0.0
 10
87.79024893421578
 20
121.3303214297334
 30
0.0
 10
87.71383414591736
 20
121.1580496524394
 30
0.0
 10
87.62317259689755
 20
120.9841908250962
 30
0.0
  0
SPLINE
  5
D9
330
1F
100
AcDbEntity
  8
0
  6
HIDDEN
 62
     7
370
     0
100
AcDbSpline
210
0.0
220
0.0
230
1.0
 70
     8
 71
     3
 72
    18
 73
    14
 74
     0
 42
0.00000001
 43
0.00000001
 40
0.0
 40
0.0
 40
0.0
 40
0.0
 40
0.2500000000000033
 40
0.2500000000000033
 40
0.3750000000000029
 40
0.3750000000000029
 40
0.5000000000000026
 40
0.5000000000000026
 40
0.6250000000000022
 40
0.6250000000000022
 40
0.7500000000000018
 40
0.7500000000000018
 40
1.0
 40
1.0
 40
1.0
 40
1.0
 10
92.72317259689753
 20
124.6315621404524
 30
0.0
 10
92.72317259689753
 20
124.5770876199002
 30
0.0
 10
92.68826190550536
 20
124.5207065605477
 30
0.0
 10
92.5862526041723
 20
124.4366297196942
 30
0.0
 10
92.5446162494942
 20
124.4092960157033
 30
0.0
 10
92.44621045400544
 20
124.3563421001043
 30
0.0
 10
92.38866724230115
 20
124.3304547463871
 30
0.0
 10
92.26136906872821
 20
124.2826772015539
 30
0.0
 10
92.19178176397075
 20
124.260729283376
 30
0.0
 10
92.04034751881579
 20
124.2212967184633
 30
0.0
 10
91.95766361572184
 20
124.2037404692374
 30
0.0
 10
91.70155215368379
 20
124.1613017038169
 30
0.0
 10
91.51363714979581
 20
124.1455389540799
 30
0.0
 10
91.32317259689752
 20
124.1455389540799
 30
0.0
  0
LINE
  5
DA
330
1F
100
AcDbEntity
  8
0
  6
HIDDEN
 62
     7
370
     0
100
AcDbLine
 10
91.3231722363
 20
124.1455397339
 30
0.0
 11
87.923172424
 21
124.1455397339
 31
0.0
  0
LINE
  5
DB
330
1F
100
AcDbEntity
  8
0
  6
HIDDEN
 62
     7
370
     0
100
AcDbLine
 10
87.8542042621
 20
92.5425573022
 30
0.0
 11
95.3231728919
 21
92.5425573022
 31
0.0
  0
SPLINE
  5
DC
330
1F
100
AcDbEntity
  8
0
  6
HIDDEN
 62
     7
370
     0
100
AcDbSpline
210
0.0
220
0.0
230
1.0
 70
     8
 71
     3
 72
    22
 73
    18
 74
     0
 42
0.00000001
 43
0.00000001
 40
0.0
 40
0.0
 40
0.0
 40
0.0
 40
0.125
 40
0.125
 40
0.25
 40
0.25
 40
0.5000000000000001
 40
0.5000000000000001
 40
0.5625000000000001
 40
0.5625000000000001
 40
0.6250000000000001
 40
0.6250000000000001
 40
0.75
 40
0.75
 40
0.875
 40
0.875
 40
1.0
 40
1.0
 40
1.0
 40
1.0
 10
87.85420361025542
 20
92.54255808201657
 30
0.0
 10
87.84112121752705
 20
92.79766379216424
 30
0.0
 10
87.82790165408721
 20
93.09082205126815
 30
0.0
 10
87.80545447629311
 20
93.75312251689296
 30
0.0
 10
87.79597600926866
 20
94.12339643750434
 30
0.0
 10
87.77677804833215
 20
95.34595324061812
 30
0.0
 10
87.77789182132902
 20
96.28309216675
 30
0.0
 10
87.79680261428207
 20
97.60296339626498
 30
0.0
 10
87.80143214214108
 20
97.87446530524129
 30
0.0
 10
87.81191336188702
 20
98.43285014004358
 30
0.0
 10
87.81770862317146
 20
98.7199729959832
 30
0.0
 10
87.83601784407638
 20
99.59256225035489
 30
0.0
 10
87.85005277835675
 20
100.1930179267108
 30
0.0
 10
87.8795099504936
 20
101.4304924192068
 30
0.0
 10
87.89506564147516
 20
102.0675085758503
 30
0.0
 10
87.91886019147205
 20
103.3789971735348
 30
0.0
 10
87.9268792436174
 20
104.0551197851953
 30
0.0
 10
87.92317259689753
 20
104.7394148964801
 30
0.0
  0
LINE
  5
DD
330
1F
100
AcDbEntity
  8
0
  6
HIDDEN
 62
     7
370
     0
100
AcDbLine
 10
87.923172424
 20
111.9486822517
 30
0.0
 11
87.923172424
 21
124.1455397339
 31
0.0
  0
SPLINE
  5
DE
330
1F
100
AcDbEntity
  8
0
  6
HIDDEN
 62
     7
370
     0
100
AcDbSpline
210
0.0
220
0.0
230
1.0
 70
     8
 71
     3
 72
    10
 73
     6
 74
     0
 42
0.00000001
 43
0.00000001
 40
0.0
 40
0.0
 40
0.0
 40
0.0
 40
0.5
 40
0.5
 40
1.0
 40
1.0
 40
1.0
 40
1.0
 10
87.92317259689752
 20
104.7394148964651
 30
0.0
 10
87.92317259689734
 20
105.0133300445391
 30
0.0
 10
87.8974133670285
 20
105.2842716232688
 30
0.0
 10
87.7942074342951
 20
105.8199627048709
 30
0.0
 10
87.71686927042069
 20
106.0857095083927
 30
0.0
 10
87.62317259689752
 20
106.34734821583
 30
0.0
  0
SPLINE
  5
DF
330
1F
100
AcDbEntity
  8
0
  6
HIDDEN
 62
     7
370
     0
100
AcDbSpline
210
0.0
220
0.0
230
1.0
 70
     8
 71
     3
 72
    10
 73
     6
 74
     0
 42
0.00000001
 43
0.00000001
 40
0.0
 40
0.0
 40
0.0
 40
0.0
 40
0.5
 40
0.5
 40
1.0
 40
1.0
 40
1.0
 40
1.0
 10
87.62317259689753
 20
110.3311768114147
 30
0.0
 10
87.71640317828829
 20
110.5950706194845
 30
0.0
 10
87.79143279052485
 20
110.8612509301225
 30
0.0
 10
87.89649988970271
 20
111.39957350508
 30
0.0
 10
87.92317260028874
 20
111.6723216213252
 30
0.0
 10
87.92317260028993
 20
111.9486821396153
 30
0.0
  0
LINE
  5
E0
330
1F
100
AcDbEntity
  8
0
  6
HIDDEN
 62
     7
370
     0
100
AcDbLine
 10
87.6231729337
 20
106.3473483318
 30
0.0
 11
87.6231729337
 21
110.3311768037
 31
0.0
  0
SPLINE
  5
E1
330
1F
100
AcDbEntity
  8
0
  6
HIDDEN
 62
     7
370
     0
100
AcDbSpline
210
0.0
220
0.0
230
1.0
 70
     8
 71
     3
 72
    37
 73
    33
 74
     0
 42
0.00000001
 43
0.00000001
 40
-0.06729619923939
 40
-0.0422745354154018
 40
-0.0198477749531012
 40
0.0
 40
0.0252075669981205
 40
0.0544363278062261
 40
0.0877117524165096
 40
0.1250489433360367
 40
0.1620915304698169
 40
0.1952559607571548
 40
0.2245582096138715
 40
0.2500241769224321
 40
0.2848342141695344
 40
0.3264523844554088
 40
0.374919623036534
 40
0.4123147764334429
 40
0.4456207602119714
 40
0.4748524896771585
 40
0.5000352833317101
 40
0.5344594906468372
 40
0.576083469927168
 40
0.6249453020700689
 40
0.6620128839145659
 40
0.6952092116710509
 40
0.7245502584388577
 40
0.7500618788844161
 40
0.7848149950150671
 40
0.8263926145811394
 40
0.8748356825798669
 40
0.9050763678487764
 40
0.93270380076061
 40
0.9577254645845982
 40
0.9801522250468988
 40
1.0
 40
1.02520756699812
 40
1.054436327806226
 40
1.08771175241651
 10
200.697327846796
 20
105.8579229993585
 30
0.0
 10
201.0512550647416
 20
105.835769601421
 30
0.0
 10
201.4410978834267
 20
105.86677232243
 30
0.0
 10
201.8882060139541
 20
105.9812797687865
 30
0.0
 10
202.3617698229788
 20
106.2083417226553
 30
0.0
 10
202.8058320857797
 20
106.5590719741636
 30
0.0
 10
203.1565934293144
 20
107.0022642626378
 30
0.0
 10
203.383985996364
 20
107.4737261598715
 30
0.0
 10
203.4998462102623
 20
107.9217736665531
 30
0.0
 10
203.5379071844276
 20
108.3916917296964
 30
0.0
 10
203.4792537484168
 20
108.9270106221608
 30
0.0
 10
203.2529366111498
 20
109.5473193464498
 30
0.0
 10
202.8534685055653
 20
110.0914744507199
 30
0.0
 10
202.3621853888006
 20
110.4795097929906
 30
0.0
 10
201.8881631927841
 20
110.7068706658377
 30
0.0
 10
201.4409601973379
 20
110.8213195687352
 30
0.0
 10
200.9749132386141
 20
110.8584352591878
 30
0.0
 10
200.4431440444887
 20
110.8005766414914
 30
0.0
 10
199.8223691079984
 20
110.575494793875
 30
0.0
 10
199.2774673742103
 20
110.176081359731
 30
0.0
 10
198.8893883338515
 20
109.6852474470943
 30
0.0
 10
198.6618750262938
 20
109.2131953835465
 30
0.0
 10
198.5461502998091
 20
108.764483492638
 30
0.0
 10
198.5084823818083
 20
108.294379689865
 30
0.0
 10
198.5675687230724
 20
107.7593892633095
 30
0.0
 10
198.7939211438122
 20
107.1398738713262
 30
0.0
 10
199.1711742543959
 20
106.6264756192713
 30
0.0
 10
199.6001470559934
 20
106.2719295100224
 30
0.0
 10
199.9796536717415
 20
106.0596932584237
 30
0.0
 10
200.3505348584987
 20
105.9265976106726
 30
0.0
 10
200.697327846796
 20
105.8579229993585
 30
0.0
 10
201.0512550647416
 20
105.835769601421
 30
0.0
 10
201.4410978834267
 20
105.86677232243
 30
0.0
  0
LINE
  5
E2
330
1F
100
AcDbEntity
  8
0
  6
HIDDEN
 62
     7
370
     0
100
AcDbLine
 10
87.7731717475
 20
90.3540479721
 30
0.0
 11
87.7731717475
 21
87.4741098614
 31
0.0
  0
LINE
  5
E3
330
1F
100
AcDbEntity
  8
0
  6
HIDDEN
 62
     7
370
     0
100
AcDbLine
 10
96.7231723764
 20
90.3540479721
 30
0.0
 11
96.7231723764
 21
86.380310613
 31
0.0
  0
LINE
  5
E4
330
1F
100
AcDbEntity
  8
0
  6
HIDDEN
 62
     7
370
     0
100
AcDbLine
 10
87.7731717475
 20
126.334049064
 30
0.0
 11
87.7731717475
 21
129.2139871747
 31
0.0
  0
LINE
  5
E5
330
1F
100
AcDbEntity
  8
0
  6
HIDDEN
 62
     7
370
     0
100
AcDbLine
 10
92.7231717207
 20
126.334049064
 30
0.0
 11
92.7231717207
 21
130.1881561757
 31
0.0
  0
LINE
  5
E6
330
1F
100
AcDbEntity
  8
0
  6
HIDDEN
 62
     7
370
     0
100
AcDbLine
 10
140.3231728174
 20
98.8440488235
 30
0.0
 11
140.3231728174
 21
117.8440482126
 31
0.0
  0
LINE
  5
E7
330
1F
100
AcDbEntity
  8
0
  6
HIDDEN
 62
     7
370
     0
100
AcDbLine
 10
137.3231723257
 20
98.8440488235
 30
0.0
 11
137.3231723257
 21
117.8440482126
 31
0.0
  0
LINE
  5
E8
330
1F
100
AcDbEntity
  8
0
  6
HIDDEN
 62
     7
370
     0
100
AcDbLine
 10
128.9731725403
 20
99.8440480561
 30
0.0
 11
128.9731725403
 21
116.84404898
 31
0.0
  0
LINE
  5
E9
330
1F
100
AcDbEntity
  8
0
  6
HIDDEN
 62
     7
370
     0
100
AcDbLine
 10
123.4731725701
 20
76.8599251987
 30
0.0
 11
123.4731725701
 21
81.9440486611
 31
0.0
  0
LINE
  5
EA
330
1F
100
AcDbEntity
  8
0
  6
HIDDEN
 62
     7
370
     0
100
AcDbLine
 10
131.4731729501
 20
81.9440486611
 30
0.0
 11
123.4731725701
 21
81.9440486611
 31
0.0
  0
LINE
  5
EB
330
1F
100
AcDbEntity
  8
0
  6
HIDDEN
 62
     7
370
     0
100
AcDbLine
 10
134.7108478942
 20
81.9440486611
 30
0.0
 11
131.4731729501
 21
81.9440486611
 31
0.0
  0
LINE
  5
EC
330
1F
100
AcDbEntity
  8
0
  6
HIDDEN
 62
     7
370
     0
100
AcDbLine
 10
144.473172287
 20
81.9440486611
 30
0.0
 11
138.3354976126
 21
81.9440486611
 31
0.0
  0
LINE
  5
ED
330
1F
100
AcDbEntity
  8
0
  6
HIDDEN
 62
     7
370
     0
100
AcDbLine
 10
131.4731729501
 20
134.744048375
 30
0.0
 11
123.4731725701
 21
134.744048375
 31
0.0
  0
LINE
  5
EE
330
1F
100
AcDbEntity
  8
0
  6
HIDDEN
 62
     7
370
     0
100
AcDbLine
 10
144.473172287
 20
134.744048375
 30
0.0
 11
138.0388750978
 21
134.744048375
 31
0.0
  0
LINE
  5
EF
330
1F
100
AcDbEntity
  8
0
  6
HIDDEN
 62
     7
370
     0
100
AcDbLine
 10
135.0074704089
 20
134.744048375
 30
0.0
 11
131.4731729501
 21
134.744048375
 31
0.0
  0
SPLINE
  5
F0
330
1F
100
AcDbEntity
  8
0
  6
HIDDEN
 62
     7
370
     0
100
AcDbSpline
210
0.0
220
0.0
230
1.0
 70
     8
 71
     3
 72
    11
 73
     7
 74
     0
 42
0.00000001
 43
0.00000001
 40
0.0
 40
0.0
 40
0.0
 40
0.0
 40
0.0008203708524183
 40
0.0008203708524183
 40
0.0008203708524183
 40
0.0016409967870154
 40
0.0016409967870154
 40
0.0016409967870154
 40
0.0016409967870154
 10
87.77317259689752
 20
92.4920157674055
 30
0.0
 10
87.58201429659887
 20
92.45083673878638
 30
0.0
 10
87.39058722652668
 20
92.41208276655637
 30
0.0
 10
87.19894160300605
 20
92.37571500727783
 30
0.0
 10
87.00723619792558
 20
92.33933590351178
 30
0.0
 10
86.81529724586663
 20
92.30534165274423
 30
0.0
 10
86.62317259879582
 20
92.27369352735303
 30
0.0
  0
ELLIPSE
  5
F1
330
1F
100
AcDbEntity
  8
0
  6
HIDDEN
 62
     7
370
     0
100
AcDbEllipse
 10
82.3807407283
 20
108.344048518
 30
0.0
 11
20.19992453367506
 21
-1.421085471520200E-14
 31
0.0
210
0.0
220
0.0
230
1.0
 40
0.8164965809
 41
1.300566354717479
 42
1.359198697209065
  0
LINE
  5
F2
330
1F
100
AcDbEntity
  8
0
  6
HIDDEN
 62
     7
370
     0
100
AcDbLine
 10
96.7231723764
 20
90.3540479721
 30
0.0
 11
96.7231723764
 21
92.0565354408
 31
0.0
  0
LINE
  5
F3
330
1F
100
AcDbEntity
  8
0
  6
HIDDEN
 62
     7
370
     0
100
AcDbLine
 10
87.7731717475
 20
90.3540479721
 30
0.0
 11
87.7731717475
 21
92.4920162887
 31
0.0
  0
LINE
  5
F4
330
1F
100
AcDbEntity
  8
0
  6
HIDDEN
 62
     7
370
     0
100
AcDbLine
 10
87.8542042621
 20
92.5425573022
 30
0.0
 11
87.7731717475
 21
92.4920162887
 31
0.0
  0
LINE
  5
F5
330
1F
100
AcDbEntity
  8
0
  6
HIDDEN
 62
     7
370
     0
100
AcDbLine
 10
87.7731717475
 20
126.334049064
 30
0.0
 11
87.7731717475
 21
124.238673854
 31
0.0
  0
SPLINE
  5
F6
330
1F
100
AcDbEntity
  8
0
  6
HIDDEN
 62
     7
370
     0
100
AcDbSpline
210
0.0
220
0.0
230
1.0
 70
     8
 71
     3
 72
     8
 73
     4
 74
     0
 42
0.00000001
 43
0.00000001
 40
0.0
 40
0.0
 40
0.0
 40
0.0
 40
1.0
 40
1.0
 40
1.0
 40
1.0
 10
87.77317259689752
 20
124.2386729691064
 30
0.0
 10
87.82317809584097
 20
124.2076371948874
 30
0.0
 10
87.87317816650511
 20
124.17659254986
 30
0.0
 10
87.92317260028994
 20
124.1455389540799
 30
0.0
  0
LINE
  5
F7
330
1F
100
AcDbEntity
  8
0
  6
HIDDEN
 62
     7
370
     0
100
AcDbLine
 10
92.7231717207
 20
126.334049064
 30
0.0
 11
92.7231717207
 21
124.6315615953
 31
0.0
  0
SPLINE
  5
F8
330
1F
100
AcDbEntity
  8
0
  6
HIDDEN
 62
     7
370
     0
100
AcDbSpline
210
0.0
220
0.0
230
1.0
 70
     8
 71
     3
 72
    20
 73
    16
 74
     0
 42
0.00000001
 43
0.00000001
 40
0.0
 40
0.0
 40
0.0
 40
0.0
 40
0.1119047131392668
 40
0.177423775918874
 40
0.2490451820006272
 40
0.329793472964303
 40
0.3985657157868402
 40
0.4998452487673717
 40
0.6138101537056571
 40
0.6789759255807832
 40
0.7495022876465063
 40
0.8296480952746766
 40
0.8980916303929427
 40
0.9995018224110955
 40
1.0
 40
1.0
 40
1.0
 40
1.0
 10
113.2718948931057
 20
84.74408674548715
 30
0.0
 10
113.2285875802569
 20
84.75750935532949
 30
0.0
 10
113.1599242795346
 20
84.77879076568392
 30
0.0
 10
112.714830822426
 20
84.88208555819094
 30
0.0
 10
112.1882766223824
 20
84.99538484831488
 30
0.0
 10
111.5028502845093
 20
85.11831978594361
 30
0.0
 10
110.6095334521851
 20
85.24035439663606
 30
0.0
 10
109.4961736946741
 20
85.35809007569436
 30
0.0
 10
108.3853995109201
 20
85.37006388621202
 30
0.0
 10
107.5006514533104
 20
85.34300847543177
 30
0.0
 10
106.833454362875
 20
85.29507494915566
 30
0.0
 10
106.2921832389876
 20
85.23877972299248
 30
0.0
 10
105.9045980247567
 20
85.19370087082825
 30
0.0
 10
105.7106441899462
 20
85.15481374027887
 30
0.0
 10
105.773805638612
 20
85.1655378794431
 30
0.0
 10
105.774114402439
 20
85.16559030424207
 30
0.0
  0
LINE
  5
F9
330
1F
100
AcDbEntity
  8
0
  6
HIDDEN
 62
     7
370
     0
100
AcDbLine
 10
106.6831848868
 20
85.2763860257
 30
0.0
 11
106.8670298257
 21
85.2945766182
 31
0.0
  0
SPLINE
  5
FA
330
1F
100
AcDbEntity
  8
0
  6
HIDDEN
 62
     7
370
     0
100
AcDbSpline
210
0.0
220
0.0
230
1.0
 70
     8
 71
     3
 72
    27
 73
    23
 74
     0
 42
0.00000001
 43
0.00000001
 40
0.0
 40
0.0
 40
0.0
 40
0.0
 40
0.0007884401771522
 40
0.0456707454626512
 40
0.1022521497375279
 40
0.1705299240224407
 40
0.2091214033205198
 40
0.2506484510921349
 40
0.3210938849227903
 40
0.3861873365265096
 40
0.4266663216859919
 40
0.464797407750197
 40
0.500601506480417
 40
0.5451931308005259
 40
0.6016871218330078
 40
0.6700927411582338
 40
0.7088299303438862
 40
0.75055846062018
 40
0.8222227389568694
 40
0.8877618474456114
 40
0.9472353327639471
 40
1.0
 40
1.0
 40
1.0
 40
1.0
 10
105.7738247611183
 20
131.5224657536611
 30
0.0
 10
105.7736080634685
 20
131.5225124930919
 30
0.0
 10
105.7610557563985
 20
131.525219895262
 30
0.0
 10
105.8101363729546
 20
131.5133830473593
 30
0.0
 10
105.9552344063509
 20
131.4899458622172
 30
0.0
 10
106.2282884230179
 20
131.4560371552284
 30
0.0
 10
106.5568139847831
 20
131.4224694928064
 30
0.0
 10
106.9495420188756
 20
131.3842864772145
 30
0.0
 10
107.4992698047672
 20
131.3453183851978
 30
0.0
 10
108.1252924394531
 20
131.3258567584512
 30
0.0
 10
108.6684842794055
 20
131.3236716020421
 30
0.0
 10
109.1135530288774
 20
131.3321863233864
 30
0.0
 10
109.5800008831081
 20
131.3519698734975
 30
0.0
 10
110.1172418099542
 20
131.3961297554925
 30
0.0
 10
110.7654547729925
 20
131.4685495893247
 30
0.0
 10
111.3509939438945
 20
131.5494472540429
 30
0.0
 10
111.8319629839728
 20
131.6276165929929
 30
0.0
 10
112.2773783480515
 20
131.712387218646
 30
0.0
 10
112.7158774523242
 20
131.8061718096663
 30
0.0
 10
113.0549049382062
 20
131.8840745307624
 30
0.0
 10
113.2422639022524
 20
131.9342710203968
 30
0.0
 10
113.2627546066322
 20
131.9409376741688
 30
0.0
 10
113.2723875627476
 20
131.9440717578993
 30
0.0
  0
LINE
  5
FB
330
1F
100
AcDbEntity
  8
0
  6
HIDDEN
 62
     7
370
     0
100
AcDbLine
 10
184.802136878
 20
104.1440486678
 30
0.0
 11
184.802136878
 21
112.5440483683
 31
0.0
  0
LINE
  5
FC
330
1F
100
AcDbEntity
  8
0
  6
HIDDEN
 62
     7
370
     0
100
AcDbLine
 10
185.5231742658
 20
105.344048492
 30
0.0
 11
185.5231742658
 21
111.3440485441
 31
0.0
  0
SPLINE
  5
FD
330
1F
100
AcDbEntity
  8
0
  6
HIDDEN
 62
     7
370
     0
100
AcDbSpline
210
0.0
220
0.0
230
1.0
 70
     8
 71
     3
 72
     8
 73
     4
 74
     0
 42
0.00000001
 43
0.00000001
 40
0.0
 40
0.0
 40
0.0
 40
0.0
 40
0.0001590976953043
 40
0.0001590976953043
 40
0.0001590976953043
 40
0.0001590976953043
 10
87.90834060608161
 20
92.54255808201657
 30
0.0
 10
87.86328913558857
 20
92.51457919769908
 30
0.0
 10
87.81823309718509
 20
92.48660766733029
 30
0.0
 10
87.77317259689754
 20
92.45864332798405
 30
0.0
  0
SPLINE
  5
FE
330
1F
100
AcDbEntity
  8
0
  6
HIDDEN
 62
     7
370
     0
100
AcDbSpline
210
0.0
220
0.0
230
1.0
 70
     8
 71
     3
 72
    11
 73
     7
 74
     0
 42
0.00000001
 43
0.00000001
 40
0.0
 40
0.0
 40
0.0
 40
0.0
 40
0.000821290931147
 40
0.000821290931147
 40
0.000821290931147
 40
0.0016428257243086
 40
0.0016428257243086
 40
0.0016428257243086
 40
0.0016428257243086
 10
87.77317259689751
 20
92.45864332798403
 30
0.0
 10
87.58202757541537
 20
92.41535713912843
 30
0.0
 10
87.39060923973891
 20
92.37442062948806
 30
0.0
 10
87.19896316507777
 20
92.33581885809835
 30
0.0
 10
87.00726008353617
 20
92.29720560425811
 30
0.0
 10
86.81531496025062
 20
92.2609253949689
 30
0.0
 10
86.62317259689742
 20
92.22695848861416
 30
0.0
  0
LINE
  5
FF
330
1F
100
AcDbEntity
  8
0
  6
HIDDEN
 62
     7
370
     0
100
AcDbLine
 10
134.6131726452
 20
128.4799149961
 30
0.0
 11
134.6131726452
 21
128.1940492571
 31
0.0
  0
LINE
  5
100
330
1F
100
AcDbEntity
  8
0
  6
HIDDEN
 62
     7
370
     0
100
AcDbLine
 10
138.4331728615
 20
128.5224354596
 30
0.0
 11
138.4331728615
 21
128.1940492571
 31
0.0
  0
LINE
  5
101
330
1F
100
AcDbEntity
  8
0
  6
HIDDEN
 62
     7
370
     0
100
AcDbLine
 10
139.9151045181
 20
132.8027381332
 30
0.0
 11
139.9151045181
 21
128.1940492571
 31
0.0
  0
SPLINE
  5
102
330
1F
100
AcDbEntity
  8
0
  6
HIDDEN
 62
     7
370
     0
100
AcDbSpline
210
0.0
220
0.0
230
1.0
 70
     8
 71
     3
 72
    24
 73
    20
 74
     0
 42
0.00000001
 43
0.00000001
 40
0.0
 40
0.0
 40
0.0
 40
0.0
 40
0.249999999999999
 40
0.249999999999999
 40
0.3749999999999983
 40
0.3749999999999983
 40
0.4374999999999987
 40
0.4374999999999987
 40
0.4687499999999975
 40
0.4687499999999975
 40
0.4999999999999963
 40
0.4999999999999963
 40
0.5624999999999984
 40
0.5624999999999984
 40
0.6250000000000006
 40
0.6250000000000006
 40
0.7500000000000001
 40
0.7500000000000001
 40
1.0
 40
1.0
 40
1.0
 40
1.0
 10
86.68583597162095
 20
88.66949597326749
 30
0.0
 10
86.69958909029116
 20
88.74014603125777
 30
0.0
 10
86.71736165769703
 20
88.8067441440227
 30
0.0
 10
86.76961274925237
 20
88.8808421642559
 30
0.0
 10
86.79064782483395
 20
88.90209997141746
 30
0.0
 10
86.84354823246238
 20
88.9102458975637
 30
0.0
 10
86.86465390534029
 20
88.90930609416792
 30
0.0
 10
86.91070607401826
 20
88.88829010259057
 30
0.0
 10
86.92907654600165
 20
88.87738129648297
 30
0.0
 10
86.97062818106738
 20
88.84474638553559
 30
0.0
 10
86.99319485382429
 20
88.8232544051642
 30
0.0
 10
87.0559758702843
 20
88.7547884615779
 30
0.0
 10
87.0891056312522
 20
88.7087140033728
 30
0.0
 10
87.14602331773722
 20
88.62370611503815
 30
0.0
 10
87.17020934324096
 20
88.58342581385676
 30
0.0
 10
87.23541729362071
 20
88.46848958739083
 30
0.0
 10
87.27013335381199
 20
88.39790660224381
 30
0.0
 10
87.36334862414286
 20
88.19370084316522
 30
0.0
 10
87.40902115950354
 20
88.07080246083785
 30
0.0
 10
87.44732624300207
 20
87.95392918445027
 30
0.0
  0
SPLINE
  5
103
330
1F
100
AcDbEntity
  8
0
  6
HIDDEN
 62
     7
370
     0
100
AcDbSpline
210
0.0
220
0.0
230
1.0
 70
     8
 71
     3
 72
    11
 73
     7
 74
     0
 42
0.00000001
 43
0.00000001
 40
0.0
 40
0.0
 40
0.0
 40
0.0
 40
0.0005781862223981
 40
0.0005781862223981
 40
0.0005781862223981
 40
0.0011563724723932
 40
0.0011563724723932
 40
0.0011563724723932
 40
0.0011563724723932
 10
87.6231725968978
 20
120.984190825101
 30
0.0
 10
87.45651204262214
 20
121.0487203365144
 30
0.0
 10
87.28984874571563
 20
121.1132230403531
 30
0.0
 10
87.12318216188534
 20
121.1777094887866
 30
0.0
 10
86.95651556962622
 20
121.2421959404813
 30
0.0
 10
86.78984570400029
 20
121.3066659492092
 30
0.0
 10
86.6231725968975
 20
121.3711217159416
 30
0.0
  0
SPLINE
  5
104
330
1F
100
AcDbEntity
  8
0
  6
HIDDEN
 62
     7
370
     0
100
AcDbSpline
210
0.0
220
0.0
230
1.0
 70
     8
 71
     3
 72
    11
 73
     7
 74
     0
 42
0.00000001
 43
0.00000001
 40
0.0
 40
0.0
 40
0.0
 40
0.0
 40
0.0005778746105124
 40
0.0005778746105124
 40
0.0005778746105124
 40
0.0011557494857259
 40
0.0011557494857259
 40
0.0011557494857259
 40
0.0011557494857259
 10
86.62317259689749
 20
95.31682666255837
 30
0.0
 10
86.78983947331082
 20
95.38263878924344
 30
0.0
 10
86.95650619287227
 20
95.44849726937242
 30
0.0
 10
87.12317284092092
 20
95.51440484229464
 30
0.0
 10
87.28983956543958
 20
95.58031244545656
 30
0.0
 10
87.45650625986016
 20
95.64626955383685
 30
0.0
 10
87.62317259689752
 20
95.7122712937516
 30
0.0
  0
SPLINE
  5
105
330
1F
100
AcDbEntity
  8
0
  6
HIDDEN
 62
     7
370
     0
100
AcDbSpline
210
0.0
220
0.0
230
1.0
 70
     8
 71
     3
 72
    11
 73
     7
 74
     0
 42
0.00000001
 43
0.00000001
 40
0.0000000000000006
 40
0.0000000000000006
 40
0.0000000000000006
 40
0.0000000000000006
 40
0.0005780486062825
 40
0.0005780486062825
 40
0.0005780486062825
 40
0.0011560973514241
 40
0.0011560973514241
 40
0.0011560973514241
 40
0.0011560973514241
 10
86.6231725968975
 20
118.32486301974
 30
0.0
 10
86.78984245294238
 20
118.262491158193
 30
0.0
 10
86.95651015702664
 20
118.2001372978635
 30
0.0
 10
87.1231764614803
 20
118.1378177376462
 30
0.0
 10
87.28984280217402
 20
118.075498163878
 30
0.0
 10
87.45650775880284
 20
118.0132129595277
 30
0.0
 10
87.62317259689753
 20
117.9509878389288
 30
0.0
  0
SPLINE
  5
106
330
1F
100
AcDbEntity
  8
0
  6
HIDDEN
 62
     7
370
     0
100
AcDbSpline
210
0.0
220
0.0
230
1.0
 70
     8
 71
     3
 72
    11
 73
     7
 74
     0
 42
0.00000001
 43
0.00000001
 40
0.0
 40
0.0
 40
0.0
 40
0.0
 40
0.0005782401583596
 40
0.0005782401583596
 40
0.0005782401583596
 40
0.0011564805961118
 40
0.0011564805961118
 40
0.0011564805961118
 40
0.0011564805961118
 10
87.62317259689753
 20
98.74322172583547
 30
0.0
 10
87.4565216465486
 20
98.67979626774554
 30
0.0
 10
87.28986205396592
 20
98.61644074406037
 30
0.0
 10
87.12319500153737
 20
98.55314315967958
 30
0.0
 10
86.95652786497355
 20
98.48984554334552
 30
0.0
 10
86.7898532575275
 20
98.42660574837313
 30
0.0
 10
86.62317259689746
 20
98.3634057417017
 30
0.0
  0
CIRCLE
  5
107
330
1F
100
AcDbEntity
  8
0
  6
HIDDEN
 62
     7
370
     0
100
AcDbCircle
 10
125.5231725969
 20
108.344048518
 30
0.0
 40
5.0
  0
LINE
  5
108
330
1F
100
AcDbEntity
  8
0
  6
HIDDEN
 62
     7
370
     0
100
AcDbLine
 10
122.5231727869
 20
122.6418840469
 30
0.0
 11
122.5231727869
 21
120.7379887582
 31
0.0
  0
LINE
  5
109
330
1F
100
AcDbEntity
  8
0
  6
HIDDEN
 62
     7
370
     0
100
AcDbLine
 10
130.5231727012
 20
120.7379887582
 30
0.0
 11
130.5231727012
 21
122.6446789459
 31
0.0
  0
LINE
  5
10A
330
1F
100
AcDbEntity
  8
0
  6
HIDDEN
 62
     7
370
     0
100
AcDbLine
 10
118.5231725969
 20
83.0201173903
 30
0.0
 11
118.6173333692
 21
83.6901052625
 31
0.0
  0
LINE
  5
10B
330
1F
100
AcDbEntity
  8
0
  6
HIDDEN
 62
     7
370
     0
100
AcDbLine
 10
118.6173333692
 20
132.9979917736
 30
0.0
 11
118.5231725969
 21
133.6679796458
 31
0.0
  0
ARC
  5
10C
330
1F
100
AcDbEntity
  8
0
  6
HIDDEN
 62
     7
370
     0
100
AcDbCircle
 10
118.0231658442
 20
83.7736109037
 30
0.0
 40
0.6000067526677242
100
AcDbArc
 50
352.0
 51
0.0
  0
ARC
  5
10D
330
1F
100
AcDbEntity
  8
0
  6
HIDDEN
 62
     7
370
     0
100
AcDbCircle
 10
118.0231658442
 20
83.7736109037
 30
0.0
 40
0.6000067526677321
100
AcDbArc
 50
0.0
 51
33.5571153394
  0
ARC
  5
10E
330
1F
100
AcDbEntity
  8
0
  6
HIDDEN
 62
     7
370
     0
100
AcDbCircle
 10
118.0231658442
 20
132.9144861324
 30
0.0
 40
0.6000067526677253
100
AcDbArc
 50
348.75
 51
8.0
  0
LWPOLYLINE
  5
10F
330
1F
100
AcDbEntity
  8
0
  6
HIDDEN
 62
     7
370
     0
100
AcDbPolyline
 90
        3
 70
   128
 43
0.0
 10
118.6116436358
 20
132.7974314571
 10
118.5774998041
 20
132.6848736734
 10
118.5231725969
 20
132.5828212083
  0
LINE
  5
110
330
1F
100
AcDbEntity
  8
0
  6
HIDDEN
 62
     7
370
     0
100
AcDbLine
 10
118.6231725944
 20
83.7736113698
 30
0.0
 11
118.6231725944
 21
132.9144856663
 31
0.0
  0
LINE
  5
111
330
1F
100
AcDbEntity
  8
0
  6
HIDDEN
 62
     7
370
     0
100
AcDbLine
 10
101.605608622
 20
88.3440489651
 30
0.0
 11
105.776289972
 21
88.3440489651
 31
0.0
  0
LINE
  5
112
330
1F
100
AcDbEntity
  8
0
  6
HIDDEN
 62
     7
370
     0
100
AcDbLine
 10
105.776289972
 20
128.344048071
 30
0.0
 11
101.605608622
 21
128.344048071
 31
0.0
  0
ARC
  5
113
330
1F
100
AcDbEntity
  8
0
  6
HIDDEN
 62
     7
370
     0
100
AcDbCircle
 10
112.2781745985
 20
96.344048518
 30
0.0
 40
8.000000000000009
100
AcDbArc
 50
277.1393418159
 51
321.3178125465
  0
ARC
  5
114
330
1F
100
AcDbEntity
  8
0
  6
HIDDEN
 62
     7
370
     0
100
AcDbCircle
 10
112.2781745985
 20
120.344048518
 30
0.0
 40
8.000000000000004
100
AcDbArc
 50
38.6821874535
 51
82.8520060266
  0
ARC
  5
115
330
1F
100
AcDbEntity
  8
0
  6
HIDDEN
 62
     7
370
     0
100
AcDbCircle
 10
101.6056081622
 20
88.944048518
 30
0.0
 40
0.6000000000000085
100
AcDbArc
 50
210.0
 51
270.0
  0
ARC
  5
116
330
1F
100
AcDbEntity
  8
0
  6
HIDDEN
 62
     7
370
     0
100
AcDbCircle
 10
101.6056081622
 20
127.744048518
 30
0.0
 40
0.5999999999999962
100
AcDbArc
 50
90.0
 51
150.0
  0
LINE
  5
117
330
1F
100
AcDbEntity
  8
0
  6
HIDDEN
 62
     7
370
     0
100
AcDbLine
 10
101.0859920927
 20
128.0440485806
 30
0.0
 11
99.5271480926
 21
125.3440494419
 31
0.0
  0
LINE
  5
118
330
1F
100
AcDbEntity
  8
0
  6
HIDDEN
 62
     7
370
     0
100
AcDbLine
 10
99.5271480926
 20
91.3440475942
 30
0.0
 11
101.0859920927
 21
88.6440484555
 31
0.0
  0
LINE
  5
119
330
1F
100
AcDbEntity
  8
0
  6
HIDDEN
 62
     7
370
     0
100
AcDbLine
 10
122.5231727869
 20
135.6224066348
 30
0.0
 11
122.5231727869
 21
132.2896501751
 31
0.0
  0
LINE
  5
11A
330
1F
100
AcDbEntity
  8
0
  6
HIDDEN
 62
     7
370
     0
100
AcDbLine
 10
130.5231727012
 20
132.2896501751
 30
0.0
 11
130.5231727012
 21
135.6237812669
 31
0.0
  0
ARC
  5
11B
330
1F
100
AcDbEntity
  8
0
  6
HIDDEN
 62
     7
370
     0
100
AcDbCircle
 10
126.9731725969
 20
92.619048518
 30
0.0
 40
1.500000000000014
100
AcDbArc
 50
238.2116693829
 51
0.0
  0
ARC
  5
11C
330
1F
100
AcDbEntity
  8
0
  6
HIDDEN
 62
     7
370
     0
100
AcDbCircle
 10
126.9731725969
 20
124.069048518
 30
0.0
 40
1.500000000000014
100
AcDbArc
 50
0.0
 51
121.7883306171
  0
LINE
  5
11D
330
1F
100
AcDbEntity
  8
0
  6
HIDDEN
 62
     7
370
     0
100
AcDbLine
 10
118.5231725969
 20
91.3440475942
 30
0.0
 11
126.1829985589
 21
91.3440475942
 31
0.0
  0
LINE
  5
11E
330
1F
100
AcDbEntity
  8
0
  6
HIDDEN
 62
     7
370
     0
100
AcDbLine
 10
126.1829985589
 20
125.3440494419
 30
0.0
 11
118.5231725969
 21
125.3440494419
 31
0.0
  0
LINE
  5
11F
330
1F
100
AcDbEntity
  8
0
  6
HIDDEN
 62
     7
370
     0
100
AcDbLine
 10
96.7231723764
 20
91.3440475942
 30
0.0
 11
99.5271480926
 21
91.3440475942
 31
0.0
  0
LINE
  5
120
330
1F
100
AcDbEntity
  8
0
  6
HIDDEN
 62
     7
370
     0
100
AcDbLine
 10
99.5271480926
 20
125.3440494419
 30
0.0
 11
92.7231717207
 21
125.3440494419
 31
0.0
  0
LINE
  5
121
330
1F
100
AcDbEntity
  8
0
  6
HIDDEN
 62
     7
370
     0
100
AcDbLine
 10
137.3231723257
 20
98.8440488235
 30
0.0
 11
140.3231728174
 21
98.8440488235
 31
0.0
  0
LINE
  5
122
330
1F
100
AcDbEntity
  8
0
  6
HIDDEN
 62
     7
370
     0
100
AcDbLine
 10
140.3231728174
 20
117.8440482126
 30
0.0
 11
137.3231723257
 21
117.8440482126
 31
0.0
  0
LINE
  5
123
330
1F
100
AcDbEntity
  8
0
  6
HIDDEN
 62
     7
370
     0
100
AcDbLine
 10
128.4731724583
 20
99.3440489055
 30
0.0
 11
128.9731725403
 21
99.8440480561
 31
0.0
  0
LINE
  5
124
330
1F
100
AcDbEntity
  8
0
  6
HIDDEN
 62
     7
370
     0
100
AcDbLine
 10
128.9731725403
 20
116.84404898
 30
0.0
 11
128.4731724583
 21
117.3440481306
 31
0.0
  0
LINE
  5
125
330
1F
100
AcDbEntity
  8
0
  6
HIDDEN
 62
     7
370
     0
100
AcDbLine
 10
128.9731725403
 20
99.8440480561
 30
0.0
 11
137.3231723257
 21
99.8440480561
 31
0.0
  0
LINE
  5
126
330
1F
100
AcDbEntity
  8
0
  6
HIDDEN
 62
     7
370
     0
100
AcDbLine
 10
137.3231723257
 20
116.84404898
 30
0.0
 11
128.9731725403
 21
116.84404898
 31
0.0
  0
LINE
  5
127
330
1F
100
AcDbEntity
  8
0
  6
HIDDEN
 62
     7
370
     0
100
AcDbLine
 10
123.4731725701
 20
139.8440490247
 30
0.0
 11
123.4731725701
 21
134.744048375
 31
0.0
  0
LINE
  5
128
330
1F
100
AcDbEntity
  8
0
  6
HIDDEN
 62
     7
370
     0
100
AcDbLine
 10
113.7076104343
 20
84.2646772743
 30
0.0
 11
113.2731782556
 21
84.7437440188
 31
0.0
  0
LINE
  5
129
330
1F
100
AcDbEntity
  8
0
  6
HIDDEN
 62
     7
370
     0
100
AcDbLine
 10
105.773174698
 20
85.1654319794
 30
0.0
 11
105.2907412224
 21
84.686365235
 31
0.0
  0
LINE
  5
12A
330
1F
100
AcDbEntity
  8
0
  6
HIDDEN
 62
     7
370
     0
100
AcDbLine
 10
105.2906192191
 20
132.0017262132
 30
0.0
 11
105.7731700413
 21
131.522605452
 31
0.0
  0
LINE
  5
12B
330
1F
100
AcDbEntity
  8
0
  6
HIDDEN
 62
     7
370
     0
100
AcDbLine
 10
113.2731726677
 20
131.9443045885
 30
0.0
 11
113.7077147425
 21
132.4234234871
 31
0.0
  0
LINE
  5
12C
330
1F
100
AcDbEntity
  8
0
  6
HIDDEN
 62
     7
370
     0
100
AcDbLine
 10
140.3231728174
 20
104.1440486678
 30
0.0
 11
184.802136878
 21
104.1440486678
 31
0.0
  0
LINE
  5
12D
330
1F
100
AcDbEntity
  8
0
  6
HIDDEN
 62
     7
370
     0
100
AcDbLine
 10
184.802136878
 20
112.5440483683
 30
0.0
 11
140.3231728174
 21
112.5440483683
 31
0.0
  0
LINE
  5
12E
330
1F
100
AcDbEntity
  8
0
  6
HIDDEN
 62
     7
370
     0
100
AcDbLine
 10
184.802136878
 20
104.1440486678
 30
0.0
 11
185.5231742658
 21
105.344048492
 31
0.0
  0
LINE
  5
12F
330
1F
100
AcDbEntity
  8
0
  6
HIDDEN
 62
     7
370
     0
100
AcDbLine
 10
185.5231742658
 20
111.3440485441
 30
0.0
 11
184.802136878
 21
112.5440483683
 31
0.0
  0
LINE
  5
130
330
1F
100
AcDbEntity
  8
0
  6
HIDDEN
 62
     7
370
     0
100
AcDbLine
 10
113.2731726677
 20
84.7442264439
 30
0.0
 11
113.2731726677
 21
88.4062128843
 31
0.0
  0
LINE
  5
131
330
1F
100
AcDbEntity
  8
0
  6
HIDDEN
 62
     7
370
     0
100
AcDbLine
 10
105.7731728353
 20
88.344631973
 30
0.0
 11
105.7731728353
 21
85.165754217
 31
0.0
  0
LINE
  5
132
330
1F
100
AcDbEntity
  8
0
  6
HIDDEN
 62
     7
370
     0
100
AcDbLine
 10
113.2731726677
 20
128.2818841518
 30
0.0
 11
113.2731726677
 21
131.9440121533
 31
0.0
  0
LINE
  5
133
330
1F
100
AcDbEntity
  8
0
  6
HIDDEN
 62
     7
370
     0
100
AcDbLine
 10
105.7731728353
 20
131.5224620284
 30
0.0
 11
105.7731728353
 21
128.3434650631
 31
0.0
  0
ARC
  5
134
330
1F
100
AcDbEntity
  8
0
  6
HIDDEN
 62
     7
370
     0
100
AcDbCircle
 10
218.2231725969
 20
105.044048518
 30
0.0
 40
0.2999999999999972
100
AcDbArc
 50
0.0
 51
90.0
  0
ARC
  5
135
330
1F
100
AcDbEntity
  8
0
  6
HIDDEN
 62
     7
370
     0
100
AcDbCircle
 10
218.2231725969
 20
111.644048518
 30
0.0
 40
0.2999999999999972
100
AcDbArc
 50
270.0
 51
0.0
  0
LINE
  5
136
330
1F
100
AcDbEntity
  8
0
  6
HIDDEN
 62
     7
370
     0
100
AcDbLine
 10
185.5231742658
 20
105.344048492
 30
0.0
 11
218.2231690087
 21
105.344048492
 31
0.0
  0
LINE
  5
137
330
1F
100
AcDbEntity
  8
0
  6
HIDDEN
 62
     7
370
     0
100
AcDbLine
 10
218.2231690087
 20
111.3440485441
 30
0.0
 11
185.5231742658
 21
111.3440485441
 31
0.0
  0
DIMENSION
  5
138
330
1F
100
AcDbEntity
  8
VERMASSUNG
100
AcDbDimension
  2
*D1
 10
80.3005550684
 20
76.844048518
 30
0.0
 11
80.3005550684
 21
107.899925045
 31
0.0
 70
   160
  1
HSK A%%c<>
 71
     2
 42
-1.0
  3
SLDDIMSTYLE0
100
AcDbAlignedDimension
 13
118.8231725969
 23
139.844048518
 33
0.0
 14
118.8231725969
 24
76.844048518
 34
0.0
 50
90.0
100
AcDbRotatedDimension
  0
DIMENSION
  5
145
330
1F
100
AcDbEntity
  8
VERMASSUNG
100
AcDbDimension
  2
*D2
 10
226.4487102021
 20
105.344048518
 30
0.0
 11
226.4487102021
 21
108.3112978554
 31
0.0
 70
   160
  1
%%c<>
 71
     2
 42
-1.0
  3
SLDDIMSTYLE1
100
AcDbAlignedDimension
 13
218.2231725969
 23
111.344048518
 33
0.0
 14
218.2231725969
 24
105.344048518
 34
0.0
 50
90.0
100
AcDbRotatedDimension
  0
DIMENSION
  5
153
330
1F
100
AcDbEntity
  8
VERMASSUNG
100
AcDbDimension
  2
*D3
 10
144.4731725969
 20
144.5646332766
 30
0.0
 11
177.9403459322
 21
144.5646332766
 31
0.0
 70
   160
 71
     2
 42
-1.0
  3
SLDDIMSTYLE0
100
AcDbAlignedDimension
 13
218.5231725969
 23
115.5699079964
 33
0.0
 14
144.4731725969
 24
138.1904888418
 34
0.0
100
AcDbRotatedDimension
  0
DIMENSION
  5
15D
330
1F
100
AcDbEntity
  8
VERMASSUNG
100
AcDbDimension
  2
*D4
 10
118.5231725969
 20
150.5646332766
 30
0.0
 11
167.2160003485
 21
150.5646332766
 31
0.0
 70
   160
 71
     2
 42
-1.0
  3
SLDDIMSTYLE0
100
AcDbAlignedDimension
 13
218.5231725969
 23
115.5699079964
 33
0.0
 14
118.5231725969
 24
139.544048518
 34
0.0
100
AcDbRotatedDimension
  0
DIMENSION
  5
167
330
1F
100
AcDbEntity
  8
VERMASSUNG
100
AcDbDimension
  2
*D5
 10
86.6231725969
 20
156.5646332766
 30
0.0
 11
149.7142723977
 21
156.5646332766
 31
0.0
 70
   160
 71
     2
 42
-1.0
  3
SLDDIMSTYLE0
100
AcDbAlignedDimension
 13
218.5231725969
 23
115.5699079964
 33
0.0
 14
86.6231725969
 24
128.0347262645
 34
0.0
100
AcDbRotatedDimension
  0
DIMENSION
  5
171
330
1F
100
AcDbEntity
  8
VERMASSUNG
100
AcDbDimension
  2
*D6
 10
232.4487102021
 20
93.344048518
 30
0.0
 11
232.4487102021
 21
108.0275903081
 31
0.0
 70
   160
  1
%%c<>
 71
     2
 42
-1.0
  3
SLDDIMSTYLE0
100
AcDbAlignedDimension
 13
204.5838776136
 23
123.344048518
 33
0.0
 14
204.5838776136
 24
93.344048518
 34
0.0
 50
90.0
100
AcDbRotatedDimension
  0
LINE
  5
17C
330
1F
100
AcDbEntity
  8
VERMASSUNG
  6
CENTERX2
 62
     7
370
     0
100
AcDbLine
 10
130.7187929426
 20
134.7003638041
 30
0.0
 11
130.7187929426
 21
124.0944524394
 31
0.0
  0
LINE
  5
17D
330
1F
100
AcDbEntity
  8
VERMASSUNG
  6
CENTERX2
 62
     7
370
     0
100
AcDbLine
 10
84.4778687546
 20
108.344048518
 30
0.0
 11
220.5231725969
 21
108.344048518
 31
0.0
  0
OLE2FRAME
  5
17E
330
1F
100
AcDbEntity
  8
0
100
AcDbOle2Frame
 70
     2
  3
Bitmap Image
 10
13.8511154363
 20
38.264191557
 30
0.0
 11
51.6290888628
 21
31.9806341108
 31
0.0
 71
     2
 72
     0
 73
     1
 90
    12928
310
80552BED0767C5B32B40DDAF6807D121434000000000000000006FFBDDFB85D0
310
4940DDAF6807D121434000000000000000006FFBDDFB85D04940416F4BD60AFB
310
3F4000000000000000002BED0767C5B32B40416F4BD60AFB3F40000000000000
310
0000000000000100000000010000010000000100000000000100000000320000
310
D0CF11E0A1B11AE1000000000000000000000000000000003E000300FEFF0900
310
0600000000000000000000000100000001000000000000000010000002000000
310
01000000FEFFFFFF0000000000000000FFFFFFFFFFFFFFFFFFFFFFFFFFFFFFFF
310
FFFFFFFFFFFFFFFFFFFFFFFFFFFFFFFFFFFFFFFFFFFFFFFFFFFFFFFFFFFFFFFF
310
FFFFFFFFFFFFFFFFFFFFFFFFFFFFFFFFFFFFFFFFFFFFFFFFFFFFFFFFFFFFFFFF
310
FFFFFFFFFFFFFFFFFFFFFFFFFFFFFFFFFFFFFFFFFFFFFFFFFFFFFFFFFFFFFFFF
310
FFFFFFFFFFFFFFFFFFFFFFFFFFFFFFFFFFFFFFFFFFFFFFFFFFFFFFFFFFFFFFFF
310
FFFFFFFFFFFFFFFFFFFFFFFFFFFFFFFFFFFFFFFFFFFFFFFFFFFFFFFFFFFFFFFF
310
FFFFFFFFFFFFFFFFFFFFFFFFFFFFFFFFFFFFFFFFFFFFFFFFFFFFFFFFFFFFFFFF
310
FFFFFFFFFFFFFFFFFFFFFFFFFFFFFFFFFFFFFFFFFFFFFFFFFFFFFFFFFFFFFFFF
310
FFFFFFFFFFFFFFFFFFFFFFFFFFFFFFFFFFFFFFFFFFFFFFFFFFFFFFFFFFFFFFFF
310
FFFFFFFFFFFFFFFFFFFFFFFFFFFFFFFFFFFFFFFFFFFFFFFFFFFFFFFFFFFFFFFF
310
FFFFFFFFFFFFFFFFFFFFFFFFFFFFFFFFFFFFFFFFFFFFFFFFFFFFFFFFFFFFFFFF
310
FFFFFFFFFFFFFFFFFFFFFFFFFFFFFFFFFFFFFFFFFFFFFFFFFFFFFFFFFFFFFFFF
310
FFFFFFFFFFFFFFFFFFFFFFFFFFFFFFFFFFFFFFFFFFFFFFFFFFFFFFFFFFFFFFFF
310
FFFFFFFFFFFFFFFFFFFFFFFFFFFFFFFFFFFFFFFFFFFFFFFFFFFFFFFFFFFFFFFF
310
FDFFFFFFFEFFFFFFFEFFFFFFFEFFFFFF05000000060000000700000008000000
310
090000000A0000000B0000000C0000000D0000000E0000000F00000010000000
310
11000000120000001300000014000000150000001600000017000000FEFFFFFF
310
FFFFFFFFFFFFFFFFFFFFFFFFFFFFFFFFFFFFFFFFFFFFFFFFFFFFFFFFFFFFFFFF
310
FFFFFFFFFFFFFFFFFFFFFFFFFFFFFFFFFFFFFFFFFFFFFFFFFFFFFFFFFFFFFFFF
310
FFFFFFFFFFFFFFFFFFFFFFFFFFFFFFFFFFFFFFFFFFFFFFFFFFFFFFFFFFFFFFFF
310
FFFFFFFFFFFFFFFFFFFFFFFFFFFFFFFFFFFFFFFFFFFFFFFFFFFFFFFFFFFFFFFF
310
FFFFFFFFFFFFFFFFFFFFFFFFFFFFFFFFFFFFFFFFFFFFFFFFFFFFFFFFFFFFFFFF
310
FFFFFFFFFFFFFFFFFFFFFFFFFFFFFFFFFFFFFFFFFFFFFFFFFFFFFFFFFFFFFFFF
310
FFFFFFFFFFFFFFFFFFFFFFFFFFFFFFFFFFFFFFFFFFFFFFFFFFFFFFFFFFFFFFFF
310
FFFFFFFFFFFFFFFFFFFFFFFFFFFFFFFFFFFFFFFFFFFFFFFFFFFFFFFFFFFFFFFF
310
FFFFFFFFFFFFFFFFFFFFFFFFFFFFFFFFFFFFFFFFFFFFFFFFFFFFFFFFFFFFFFFF
310
FFFFFFFFFFFFFFFFFFFFFFFFFFFFFFFFFFFFFFFFFFFFFFFFFFFFFFFFFFFFFFFF
310
FFFFFFFFFFFFFFFFFFFFFFFFFFFFFFFFFFFFFFFFFFFFFFFFFFFFFFFFFFFFFFFF
310
FFFFFFFFFFFFFFFFFFFFFFFFFFFFFFFFFFFFFFFFFFFFFFFFFFFFFFFFFFFFFFFF
310
FFFFFFFFFFFFFFFFFFFFFFFFFFFFFFFFFFFFFFFFFFFFFFFFFFFFFFFFFFFFFFFF
310
52006F006F007400200045006E00740072007900000000000000000000000000
310
0000000000000000000000000000000000000000000000000000000000000000
310
16000500FFFFFFFFFFFFFFFF020000000A00030000000000C000000000000046
310
000000000000000000000000F0DB82FF25FFCB0103000000C000000000000000
310
01004F006C006500000000000000000000000000000000000000000000000000
310
0000000000000000000000000000000000000000000000000000000000000000
310
0A000200FFFFFFFFFFFFFFFFFFFFFFFF00000000000000000000000000000000
310
0000000000000000000000000000000000000000000000001400000000000000
310
010043006F006D0070004F0062006A0000000000000000000000000000000000
310
0000000000000000000000000000000000000000000000000000000000000000
310
120002010100000003000000FFFFFFFF00000000000000000000000000000000
310
0000000000000000000000000000000000000000010000004D00000000000000
310
01004F006C006500310030004E00610074006900760065000000000000000000
310
0000000000000000000000000000000000000000000000000000000000000000
310
1A000200FFFFFFFFFFFFFFFFFFFFFFFF00000000000000000000000000000000
310
0000000000000000000000000000000000000000040000002426000000000000
310
FEFFFFFF02000000FEFFFFFFFFFFFFFFFFFFFFFFFFFFFFFFFFFFFFFFFFFFFFFF
310
FFFFFFFFFFFFFFFFFFFFFFFFFFFFFFFFFFFFFFFFFFFFFFFFFFFFFFFFFFFFFFFF
310
FFFFFFFFFFFFFFFFFFFFFFFFFFFFFFFFFFFFFFFFFFFFFFFFFFFFFFFFFFFFFFFF
310
FFFFFFFFFFFFFFFFFFFFFFFFFFFFFFFFFFFFFFFFFFFFFFFFFFFFFFFFFFFFFFFF
310
FFFFFFFFFFFFFFFFFFFFFFFFFFFFFFFFFFFFFFFFFFFFFFFFFFFFFFFFFFFFFFFF
310
FFFFFFFFFFFFFFFFFFFFFFFFFFFFFFFFFFFFFFFFFFFFFFFFFFFFFFFFFFFFFFFF
310
FFFFFFFFFFFFFFFFFFFFFFFFFFFFFFFFFFFFFFFFFFFFFFFFFFFFFFFFFFFFFFFF
310
FFFFFFFFFFFFFFFFFFFFFFFFFFFFFFFFFFFFFFFFFFFFFFFFFFFFFFFFFFFFFFFF
310
FFFFFFFFFFFFFFFFFFFFFFFFFFFFFFFFFFFFFFFFFFFFFFFFFFFFFFFFFFFFFFFF
310
FFFFFFFFFFFFFFFFFFFFFFFFFFFFFFFFFFFFFFFFFFFFFFFFFFFFFFFFFFFFFFFF
310
FFFFFFFFFFFFFFFFFFFFFFFFFFFFFFFFFFFFFFFFFFFFFFFFFFFFFFFFFFFFFFFF
310
FFFFFFFFFFFFFFFFFFFFFFFFFFFFFFFFFFFFFFFFFFFFFFFFFFFFFFFFFFFFFFFF
310
FFFFFFFFFFFFFFFFFFFFFFFFFFFFFFFFFFFFFFFFFFFFFFFFFFFFFFFFFFFFFFFF
310
FFFFFFFFFFFFFFFFFFFFFFFFFFFFFFFFFFFFFFFFFFFFFFFFFFFFFFFFFFFFFFFF
310
FFFFFFFFFFFFFFFFFFFFFFFFFFFFFFFFFFFFFFFFFFFFFFFFFFFFFFFFFFFFFFFF
310
FFFFFFFFFFFFFFFFFFFFFFFFFFFFFFFFFFFFFFFFFFFFFFFFFFFFFFFFFFFFFFFF
310
010000020000000000000000000000000000000061007200650064005C003100
310
30002E0030005C0044004C004C005300680061007200650064005C003B004300
310
0100FEFF030A0000FFFFFFFF0A00030000000000C00000000000004607000000
310
5042727573680007000000504272757368000700000050427275736800F439B2
310
71000000000000000000000000004100540049002E004100430045005C004300
310
6F00720065002D005300740061007400690063003B0043003A005C0050007200
310
6F006700720061006D002000460069006C006500730020002800780038003600
310
29005C0043006F006D006D006F006E002000460069006C00650073005C004100
310
750074006F006400650073006B0020005300680061007200650064005C003B00
310
43003A005C00500072006F006700720061006D002000460069006C0065007300
310
5C004E006F0072006D0061006E005C004E0070006D005C00420069006E000000
310
43003A005C00500072006F006700720061006D002000460069006C0065007300
310
5C0053006F006C006900640057006F0072006B007300200043006F0072007000
310
5C0053006F006C006900640057006F0072006B00730020002800320029005C00
310
730065007400750070005C0069003300380036005C0073007700610063007400
310
770069007A002E006500780065000000220043003A005C00500072006F006700
310
20260000424D0E260000000000003E00000028000000B40200006E0000000100
310
01000000000000000000130B0000130B00000200000002000000000000FFFFFF
310
FFFFFFFFFFFFFFFFFFFFFFFFFFFFFFFFFFFFFFFFFFFFFFFFFFFFFFFFFFFFFFFF
310
FFFFFFFFFFFFFFFFFFFFFFFFFFFFFFFFFFFFFFFFFFFFFFFFFFFFFFFFFFFFFFFF
310
FFFFFFFFFFFFFFFFFFFFFFFFFFFFFFFFFFFFFFFFFFFFFFFFF000FFFFFFFFFFFF
310
FFFFFFFFFFFFFFFFFFFFFFFFFFFFFFFFFFFFFFFFFFFFFFFFFFFFFFFFFFFFFFFF
310
FFFFFFFFFFFFFFFFFFFFFFFFFFFFFFFFFFFFFFFFFFFFFFFFFFFFFFFFFFFFFFFF
310
FFFFFFFFFFFFFFFFFFFFFFFFFFFFFFFFF000FFFFFFFFFFFFFFFFFFFFFFFFFFFF
310
FFFFFFFFFFFFFFFFFFFFFFFFFFFFFFFFFFFFFFFFFFFFFFFFFFFFFFFFFFFFFFFF
310
FFFFFFFFFFFFFFFFFFFFFFFFFFFFFFFFFFFFFFFFFFFFFFFFFFFFFFFFFFFFFFFF
310
FFFFFFFFFFFFFFFFF000FFFFFFFFFFFFFFFFFFFFFFFFFFFFFFFFFFFFFFFFFFFF
310
FFFFFFFFFFFFFFFFFFFFFFFFFFFFFFFFFFFFFFFFFFFFFFFFFFFFFFFFFFFFFFFF
310
FFFFFFFFFFFFFFFFFFFFFFFFFFFFFFFFFFFFFFFFFFFFFFFFFFFFFFFFFFFFFFFF
310
F000FFFFFFFFFFFFFFFFFFFFFFFFFFFFFFFFFFFFFFFFFFFFFFFFFFFFFFFFFFFF
310
FFFFFFFFFFFFFFFFFFFFFFFFFFFFFFFFFFFFFFFFFFFFFFFFFFFFFFFFFFFFFFFF
310
FFFFFFFFFFFFFFFFFFFFFFFFFFFFFFFFFFFFFFFFFFFFFFFFF000FFFFFFFFFFFF
310
FFFFFFFFFFFFFFFFFFFFFFFFFFFFFFFFFFFFFFFFFFFFFFFFFFFFFFFFFFFFFFFF
310
FFFFFFFFFFFFFFFFFFFFFFFFFFFFFFFFFFFFFFFFFFFFFFFFFFFFFFFFFFFFFFFF
310
FFFFFFFFFFFFFFFFFFFFFFFFFFFFFFFFF000FFFFFFFFFFFFFFFFFFFFFFFFFFFF
310
FFFFFFFFFFFFFFFFFFFFFFFFFFFFFFFFFFFFFFFFFFFFFFFFFFFFFFFFFFFFFFFF
310
FFFFFFFFFFFFFFFFFFFFFFFFFFFFFFFFFFFFFFFFFFFFFFFFFFFFFFFFFFFFFFFF
310
FFFFFFFFFFFFFFFFF000FFFFFFFFFFFFFFFFFFFFFFFFFFFFFFFFFFFFFFFFFFFF
310
FFFFFFFFFFFFFFFFFFFFFFFFFFFFFFFFFFFFFFFFFFFFFFFFFFFFFFFFFFFFFFFF
310
FFFFFFFFFFFFFFFFFFFFFFFFFFFFFFFFFFFFFFFFFFFFFFFFFFFFFFFFFFFFFFFF
310
F000FFFFFFFFFFFFFFFFFFFFFFFFFFFFFFFFFFFFFFFFFFFFFFFFFFFFFFFFFFFF
310
FFFFFFFFFFFFFFFFFFFFFFFFFFFFFFFFFFFFFFFFFFFFFFFFFFFFFFFFFFFFFFFF
310
FFFFFFFFFFFFFFFFFFFFFFFFFFFFFFFFFFFFFFFFFFFFFFFFF000FFFFFFFFFFFF
310
FFFFFFFFFFFFFFFFFFFFFFFFFFFFFFFFFFFFFFFFFFFFFFFFFFFFFFFFFFFFFFFF
310
FFFFFFFFFFFFFFFFFFFFFFFFFFFFFFFFFFFFFFFFFFFFFFFFFFFFFFFFFFFFFFFF
310
FFFFFFFFFFFFFFFFFFFFFFFFFFFFFFFFF000FFFFFFFFFFFFFFFFFFFFFFFFFFFF
310
FFFFFFFFFFFFFFFFFFFFFFFFFFFFFFFFFFFFFFFFFFFFFFFFFFFFFFFFFFFFFFFF
310
FFFFFFFFFFFFFFFFFFFFFFFFFFFFFFFFFFFFFFFFFFFFFFFFFFFFFFFFFFFFFFFF
310
FFFFFFFFFFFFFFFFF000FFFFFFFFFFFFFFFFFFFFFFFFFFFFFFFFFFFFFFFFFFFF
310
FFFFFFFFFFFFFFFFFFFFFFFFFFFFFFFFFFFFFFFFFFFFFFFFFFFFFFFFFFFFFFFF
310
FFFFFFFFFFFFFFFFFFFFFFFFFFFFFFFFFFFFFFFFFFFFFFFFFFFFFFFFFFFFFFFF
310
F000FFFFFFFFFFFFFFFFFFFFFFFFFFFFFFFFFFFFFFFFFFFFFFFFFFFFFFFFFFFF
310
FFFFFFFFFFFFFFFFFFFFFFFFFFFFFFFFFFFFFFFFFFFFFFFFFFFFFFFFFFFFFFFF
310
FFFFFFFFFFFFFFFFFFFFFFFFFFFFFFFFFFFFFFFFFFFFFFFFF000FFFFFFFFFFFF
310
FFFFFFFFFFFFFFFFFFFFFFFFFFFFFFFFFFFFFFFFFFFFFFFFFFFFFFFFFFFFFFFF
310
FFFFFFFFFFFFFFFFFFFFFFFFFFFFFFFFFFFFFFFFFFFFFFFFFFFFFFFFFFFFFFFF
310
FFFFFFFFFFFFFFFFFFFFFFFFFFFFFFFFF000FFFFFFFFFFFFFFFFFFFFFFFFFFFF
310
FFFFFFFFFFFFFFFFFFFFFFFFFFFFFFFFFFFFFFFFFFFFFFFFFFFFFFFFFFFFFFFF
310
FFFFFFFFFFFFFFFFFFFFFFFFFFFFFFFFFFFFFFFFFFFFFFFFFFFFFFFFFFFFFFFF
310
FFFFFFFFFFFFFFFFF000FFFFFFFFFFFFFFFFFFFFFFFFFFFFFFFFFFFFFFFFFFFF
310
FFFFFFFFFFFFFFFFFFFFFFFFFFFFFFFFFFFFFFFFFFFFFFFFFFFFFFFFFFFFFFFF
310
FFFFFFFFFFFFFFFFFFFFFFFFFFFFFFFFFFFFFFFFFFFFFFFFFFFFFFFFFFFFFFFF
310
F000FFFFFFFFFFFFFFFFFFFFFFFFFFFFFFFFFFFFFFFFFFFFFFFFFFFFFFFFFFFF
310
FFFFFFFFFFFFFFFFFFFFFFFFFFFFFFFFFFFFFFFFFFFFFFFFFFFFFFFFFFFFFFFF
310
FFFFFFFFFFFFFFFFFFFFFFFFFFFFFFFFFFFFFFFFFFFFFFFFF000FFFFFFFFFFFF
310
FFFFFFFFFFFFFFFFFFFFFFFFFFFFFFFFFFFFFFFFFFFFFFFFFFFFFFFFFFFFFFFF
310
FFFFFFFFFFFFFFFFFFFFFFFFFFFFFFFFFFFFFFFFFFFFFFFFFFFFFFFFFFFFFFFF
310
FFFFFFFFFFFFFFFFFFFFFFFFFFFFFFFFF000FFFFFFFFFFFFFFFFFFFFFFFFFFFF
310
FFFFFFFFFFFFFFFFFFFFFFFFFFFFFFFFFFFFFFFFFFFFFFFFFFFFFFFFFFFFFFFF
310
FFFFFFFFFFFFFFFFFFFFFFFFFFFFFFFFFFFFFFFFFFFFFFFFFFFFFFFFFFFFFFFF
310
FFFFFFFFFFFFFFFFF000FFFFF80003FFFFFFFFFFFFFFFFFFFFFFFFFFFFFFFFFF
310
FFFFF00007FFFFFFFFFF00007FFFFFF800000000000000007FFFFFFFFFFFFFFF
310
FFFFFFFC001FFFFFFFFFFFFFFC001FFFFFFFFFFFFFFFFFFFFFFFFFFE0007FFFF
310
F000FFFF8000007FFFFFFFF8000FFFFFC0007FFFFF80007FFFFF0000007FFFFF
310
FFF8000007FFFFF800000000000000007FFFFFF0001FFFFFFFFFFFC00001FFFF
310
FFFFFFFFC00001FFFFFFFF000000000003FFFFE000007FFFF000FFFE0000000F
310
FFFFFFF0000FFFFF80007FFFFF80007FFFFC0000001FFFFFFFC0000001FFFFF8
310
00000000000000007FFFFFF0001FFFFFFFFFFE0000003FFFFFFFFFFE0000003F
310
FFFFFF000000000003FFFF0000000FFFF000FFF800000003FFFFFFF00007FFFF
310
80007FFFFF80007FFFF000000007FFFFFF000000003FFFF80000000000000000
310
7FFFFFF0001FFFFFFFFFF80000000FFFFFFFFFF80000000FFFFFFF0000000000
310
03FFFC00000003FFF000FFE000000000FFFFFFF00007FFFF80003FFFFF80007F
310
FFC000000001FFFFFC000000001FFFF800000000000000007FFFFFF0001FFFFF
310
FFFFE000000003FFFFFFFFE000000003FFFFFF000000000003FFF000000000FF
310
F000FF80000000007FFFFFF00007FFFF80003FFFFF80007FFF8000000000FFFF
310
F80000000007FFF800000000000000007FFFFFF0001FFFFFFFFFC000000001FF
310
FFFFFFC000000001FFFFFF000000000003FFC0000000007FF000FF0000000000
310
3FFFFFE00007FFFF00003FFFFF80007FFE00000000003FFFF00000000003FFF8
310
00000000000000007FFFFFF0001FFFFFFFFF8000000000FFFFFFFF8000000000
310
FFFFFF000000000003FF80000000003FF000FE00000000001FFFFFE00003FFFF
310
00003FFFFF80007FFC00000000001FFFE00000000001FFF8000001FFFE000000
310
7FFFFFF0001FFFFFFFFE00000000003FFFFFFE00000000003FFFFF0000000000
310
03FF00000000001FF000FC00000000000FFFFFE00003FFFF00001FFFFF80007F
310
F800000000001FFFC00000000000FFF8000001FFFE0000007FFFFFF0001FFFFF
310
FFFC00000000001FFFFFFC00000000001FFFFF000000000003FE00000000000F
310
F000F8000000000007FFFFE00003FFFF00001FFFFF80007FF800000000000FFF
310
800000000000FFF8000001FFFE0000007FFFFFF0001FFFFFFFF800000000000F
310
FFFFF800000000000FFFFF000000000003FC000000000007F000F80000000000
310
03FFFFC00003FFFE00001FFFFF80007FF0000000000007FF0000000000007FF8
310
000001FFFE0000007FFFFFF0001FFFFFFFF0000000000007FFFFF00000000000
310
07FFFF000000000003F8000000000003F000F0000000000003FFFFC00001FFFE
310
00001FFFFF80007FE0000000000007FE0000000000003FF8000001FFFE000000
310
7FFFFFF0001FFFFFFFF0000000000007FFFFF0000000000007FFFF0000000000
310
03F800001F800003F000E00001FFF00001FFFFC00001FFFE00000FFFFF80007F
310
E00001FFE00003FE00001FFF00003FF8000001FFFE0000007FFFFFF0001FFFFF
310
FFE000003E000003FFFFE000003E000003FFFF000000000003F00001FFF80001
310
F000E00007FFFC0001FFFFC00001FFFE00000FFFFF80007FC0000FFFFC0003FC
310
0000FFFFC0001FF8000001FFFE0000007FFFFFF0001FFFFFFFC00003FFE00001
310
FFFFC00003FFE00001FFFF0001FFFFFFFFF00007FFFE0001F000E0000FFFFF00
310
00FFFF800001FFFC00000FFFFF80007FC0001FFFFE0001FC0001FFFFE0001FF8
310
000001FFFE0000007FFFFFF0001FFFFFFF80000FFFF80000FFFF80000FFFF800
310
00FFFF0003FFFFFFFFE0000FFFFF8000F000C0003FFFFF8000FFFF800000FFFC
310
000007FFFF80007F80003FFFFF0001FC0003FFFFF0001FF8000001FFFE000000
310
7FFFFFF0001FFFFFFF80003FFFFE0000FFFF80003FFFFE0000FFFF0003FFFFFF
310
FFE0003FFFFF8000F000C0003FFFFF8000FFFF800000FFFC000007FFFF80007F
310
80007FFFFF8001F80007FFFFF8000FF8000001FFFE0000007FFFFFF0001FFFFF
310
FF00007FFFFF00007FFF00007FFFFF00007FFF0003FFFFFFFFE0003FFFFFC000
310
F000C0007FFFFFC000FFFF000000FFFC000007FFFF80007F8000FFFFFF8000F8
310
000FFFFFF8000FF8000001FFFE0000007FFFFFF0001FFFFFFF0000FFFFFF8000
310
7FFF0000FFFFFF80007FFF0003FFFFFFFFC0007FFFFFC00070008000FFFFFFC0
310
00FFFF000000FFF8000007FFFF80007F8000FFFFFF8000F8000FFFFFF8000FF8
310
000001FFFE0000007FFFFFF0001FFFFFFE0001FFFFFFC0003FFE0001FFFFFFC0
310
003FFF0003FFFFFFFFC0007FFFFFE00070008000FFFFFFC0007FFF0000007FF8
310
000003FFFF80007F0001FFFFFF8000F8000FFFFFF8000FF8000001FFFE000000
310
7FFFFFF0001FFFFFFE0001FFFFFFC0003FFE0001FFFFFFC0003FFF0003FFFFFF
310
FFC000FFFFFFE00070008000FFFFFFC0007FFF0000007FF8000003FFFF80007F
310
0001FFFFFF8000F8001FFFFFF8000FF8000001FFFE0000007FFFFFF0001FFFFF
310
FE0003FFFFFFE0003FFE0003FFFFFFE0003FFF0003FFFFFFFFC000FFFFFFE000
310
70008000FFFFFFC0007FFE0000007FF8000003FFFF80007F0001FFFFFF8000F0
310
001FFFFFF8000FF8000001FFFE0000007FFFFFF0001FFFFFFC0003FFFFFFE000
310
1FFC0003FFFFFFE0001FFF0003FFFFFFFFC000FFFFFFC00070008000FFFFFF80
310
007FFE0000007FF0000003FFFF80007F0001FFFFFF0000F0001FFFFFF8000FF8
310
000001FFFE0000007FFFFFF0001FFFFFFC0007FFFFFFF0001FFC0007FFFFFFF0
310
001FFF0003FFFFFFFFC000FFFFFFC00070008001FFFFFF0000FFFE0000003FF0
310
000001FFFF80007F0001FFFFFF0000F8001FFFFFF0000FF8000001FFFE000000
310
7FFFFFF0001FFFFFFC0007FFFFFFF0001FFC0007FFFFFFF0001FFF0003FFFFFF
310
FFC001FFFFFF80007000FFFFFFFFFE0000FFFE0008003FF0008001FFFF80007F
310
FFFFFFFFFC0000FFFFFFFFFFE0000FF8000001FFFE0000007FFFFFF0001FFFFF
310
F8000FFFFFFFF8000FF8000FFFFFFFF8000FFF0003FFFFFFFFFFFFFFFFFF0000
310
7000FFFFFFFFFC0000FFFC0008003FF0008001FFFF80007FFFFFFFFFF80001FF
310
FFFFFFFF80000FF8000001FFFE0000007FFFFFF0001FFFFFF8000FFFFFFFF800
310
0FF8000FFFFFFFF8000FFF0003FFFFFFFFFFFFFFFFFE0000F000FFFFFFFFE000
310
00FFFC000C003FE000C001FFFF80007FFFFFFFFFC00001FFFFFFFFFE00001FF8
310
000001FFFE0000007FFFFFF0001FFFFFF8000FFFFFFFF8000FF8000FFFFFFFF8
310
000FFF0003FFFFFFFFFFFFFFFFF00000F000FFFFFFFE000001FFFC000C001FE0
310
00C000FFFF80007FFFFFFFFE000001FFFFFFFFE000001FF80FFFFFFFFFFFFFC0
310
7FFFFFF0001FFFFFF8000FFFFFFFF8000FF8000FFFFFFFF8000FFF0003FFFFFF
310
FFFFFFFFFF800000F000FFFFFFC0000001FFFC001C001FE001C000FFFF80007F
310
FFFFFF80000003FFFFFFF80000001FF80FFFFFFFFFFFFFC07FFFFFF0001FFFFF
310
F8001FFFFFFFFC000FF8001FFFFFFFFC000FFF0003FFFFFFFFFFFFFFF0000001
310
F000FFFFF800000001FFF8001C001FE001C000FFFF80007FFFFFF800000003FF
310
FFFF800000003FF80FFFFFFFFFFFFFC07FFFFFF0001FFFFFF8001FFFFFFFFC00
310
0FF8001FFFFFFFFC000FFF0003FFFFFFFFFFFFFE00000001F000FFFFC0000000
310
03FFF8001E001FC001E000FFFF80007FFFFF8000000007FFFFFC000000003FF8
310
0FFFFFFFFFFFFFC07FFFFFF0001FFFFFF8001FFFFFFFFC000FF8001FFFFFFFFC
310
000FFF0003FFFFFFFFFFFFE000000003F000FFFE0000000007FFF8001E000FC0
310
01E0007FFF80007FFFFE0000000007FFFFE0000000007FF80FFFFFFFFFFFFFC0
310
7FFFFFF0001FFFFFF0001FFFFFFFFC0007F0001FFFFFFFFC0007FF0003FFFFFF
310
FFFFFF0000000003F000FFF80000000007FFF8001E000FC003E0007FFF80007F
310
FFF0000000000FFFFF8000000000FFF80FFFFFFFFFFFFFC07FFFFFF0001FFFFF
310
F0001FFFFFFFFC0007F0001FFFFFFFFC0007FF0003FFFFFFFFFFFC0000000007
310
F000FFE0000000000FFFF0003E000FC003E0007FFF80007FFFC0000000001FFF
310
FE0000000001FFF80FFFFFFFFFFFFFC07FFFFFF0001FFFFFF0001FFFFFFFFC00
310
07F0001FFFFFFFFC0007FF0003FFFFFFFFFFF0000000000FF000FFC000000000
310
1FFFF0003F000F8003F0003FFF80007FFF80000000003FFFF80000000003FFF8
310
0FFFFFFFFFFFFFC07FFFFFF0001FFFFFF0001FFFFFFFFC0007F0001FFFFFFFFC
310
0007FF0003FFFFFFFFFFE0000000001FF000FF00000000007FFFF0003F000780
310
03F0003FFF80007FFF00000000007FFFF00000000007FFF80FFFFFFFFFFFFFC0
310
7FFFFFF0001FFFFFF0001FFFFFFFFC0007F0001FFFFFFFFC0007FF0003FFFFFF
310
FFFF80000000007FF000FE0000000000FFFFE0003F00078007F0003FFF80007F
310
FE0000000001FFFFE0000000001FFFF80FFFFFFFFFFFFFC07FFFFFF0001FFFFF
310
F0001FFFFFFFFC0007F0001FFFFFFFFC0007FF0003FFFFFFFFFF0000000000FF
310
F000FC0000000003FFFFE0007F00078007F0003FFF80007FFC0000000007FFFF
310
C0000000007FFFF80FFFFFFFFFFFFFC07FFFFFF0001FFFFFF8001FFFFFFFFC00
310
0FF8001FFFFFFFFC000FFF0003FFFFFFFFFE0000000003FFF000FC000000000F
310
FFFFE0007F80070007F8001FFF80007FF8000000001FFFFF8000000001FFFFF8
310
0FFFFFFFFFFFFFC07FFFFFF0001FFFFFF8001FFFFFFFFC000FF8001FFFFFFFFC
310
000FFF0003FFFFFFFFFC000000000FFFF000F8000000007FFFFFE0007F800700
310
07F8001FFF80007FF000000000FFFFFF800000000FFFFFF80FFFFFFFFFFFFFC0
310
7FFFFFF0001FFFFFF8000FFFFFFFF8000FF8000FFFFFFFF8000FFF0003FFFFFF
310
FFFC000000007FFFF000F800000007FFFFFFC0007F8003000FF8001FFF80007F
310
F000000007FFFFFF000000007FFFFFF80FFFFFFFFFFFFFC07FFFFFF0001FFFFF
310
F8000FFFFFFFF8000FF8000FFFFFFFF8000FFF0003FFFFFFFFF80000000FFFFF
310
F000F0000000FFFFFFFFC000FF8003000FF8001FFF80007FE0000000FFFFFFFF
310
0000000FFFFFFFF8000001FFFE0000007FFFFFF0001FFFFFF8000FFFFFFFF800
310
0FF8000FFFFFFFF8000FFF0003FFFFFFFFF8000000FFFFFFF000F000000FFFFF
310
FFFFC000FFC002000FF8000FFF80007FE000001FFFFFFFFE000001FFFFFFFFF8
310
000001FFFE0000007FFFFFF0001FFFFFF8000FFFFFFFF8000FF8000FFFFFFFF8
310
000FFF0003FFFFFFFFF000001FFFFFFFF000E00000FFFFFFFFFFC000FFC00200
310
0FFC000FFF80007FE00001FFFFFFFFFE00001FFFFFFFFFF8000001FFFE000000
310
7FFFFFF0001FFFFFFC000FFFFFFFF8001FFC000FFFFFFFF8001FFF0003FFFFFF
310
FFF00001FFFFFFFFF000E00007FFFFFFFFFF8000FFC000001FFC000FFF80007F
310
C0000FFFFFFFFFFE0000FFFFFFFFFFF8000001FFFE0000007FFFFFF0001FFFFF
310
FC0007FFFFFFF0001FFC0007FFFFFFF0001FFF0003FFFFFFFFF00007FFFFFFFF
310
F000E0001FFFFFFFFFFF8000FFC000001FFC000FFF80007FC0003FFFFFFFFFFE
310
0001FFFFFFFFFFF8000001FFFE0000007FFFFFF0001FFFFFFC0007FFFFFFF000
310
1FFC0007FFFFFFF0001FFF0003FFFFFFFFF0001FFFFFFFFFF000E0003FFFFF00
310
03FF8001FFE000001FFC0007FF80007FC0007FFFFF0007FC0003FFFFF0003FF8
310
000001FFFE0000007FFFFFF0001FFFFFFC0003FFFFFFE0001FFC0003FFFFFFE0
310
001FFF0003FFFFFFFFF0003FFFFFFFFFF000E0003FFFFF0001FF8001FFE00000
310
1FFE0007FF80007FC0007FFFFE0003FC0007FFFFE0003FF8000001FFFE000000
310
7FFFFFF0001FFFFFFE0003FFFFFFE0003FFE0003FFFFFFE0003FFF0003FFFFFF
310
FFF0003FFFFF8001F000E0003FFFFF0001FF0001FFE000001FFE0007FF80007F
310
C0007FFFFE0003FC0007FFFFE0003FF8000001FFFE0000007FFFFFF0001FFFFF
310
FE0001FFFFFFC0003FFE0001FFFFFFC0003FFF0003FFFFFFFFF0003FFFFF0001
310
F000E0003FFFFF0003FF0001FFE000003FFE0007FF80007FC0007FFFFE0003FC
310
0007FFFFE0003FF8000001FFFE0000007FFFFFF0001FFFFFFF0001FFFFFFC000
310
7FFF0001FFFFFFC0007FFF0003FFFFFFFFF0003FFFFF0001F000E0003FFFFE00
310
03FF0003FFF000003FFE0003FF80007FC0007FFFFC0003FE0007FFFFE0003FF8
310
000001FFFE0000007FFFFFF0001FFFFFFF0000FFFFFF80007FFF0000FFFFFF80
310
007FFF0003FFFFFFFFF0003FFFFF0001F000E0003FFFFE0003FF0003FFF00000
310
3FFF0003FF80007FC0007FFFFC0007FE0007FFFFC0003FF8000001FFFE000000
310
7FFFFFF0001FFFFFFF80007FFFFF0000FFFF80007FFFFF0000FFFF0003FFFFFF
310
FFF0003FFFFF0003F000E0003FFFFC0003FE0003FFF000003FFF0003FF80007F
310
E0003FFFF80007FE0003FFFFC0007FF8000001FFFE0000007FFFFFF0001FFFFF
310
FF80003FFFFE0000FFFF80003FFFFE0000FFFF0003FFFFFFFFF0001FFFFE0003
310
F000F0001FFFF80003FE0003FFF000007FFF0001FF80007FE0003FFFF00007FE
310
0001FFFF80007FF8000001FFFE0000007FFFFFF0001FFFFFFFC0000FFFF80001
310
FFFFC0000FFFF80001FFFF0003FFFFFFFFF0001FFFFC0003F000F0000FFFF000
310
07FE0007FFF800007FFF0001FF80007FE0001FFFE00007FF0000FFFE00007FF8
310
000001FFFE0000007FFFFFF0001FFFFFFFC00003FFE00001FFFFC00003FFE000
310
01FFFF0003FFFFFFFFF8000FFFF80003F000F00003FFC00007FC0007FFF80000
310
7FFF8001FF80007FF00007FF80000FFF00007FF80000FFF8000001FFFE000000
310
7F80000000000001FFE000003E000003FFFFE000003E000003FFFF0003FFFFFF
310
FFF80003FFE00007F000F800000000000FFC0007FFF800007FFF8001FF80007F
310
F000000000000FFF000000000000FFF8000001FFFE0000007F80000000000001
310
FFF0000000000007FFFFF0000000000007FFFF0003FFFFFFFFFC00007E000007
310
F000F800000000000FFC0007FFF80000FFFF8000FF80007FF800000000001FFF
310
800000000001FFF8000001FFFE0000007F80000000000001FFF800000000000F
310
FFFFF800000000000FFFFF0003FFFFFFFFFC00000000000FF000FC0000000000
310
1FFC0007FFFC0000FFFF8000FF80007FF800000000003FFFC00000000001FFF8
310
000001FFFE0000007F80000000000001FFF800000000000FFFFFF80000000000
310
0FFFFF0003FFFFFFFFFE00000000001FF000FE00000000003FF8000FFFFC0000
310
FFFF8000FF80007FFC00000000003FFFC00000000003FFF8000001FFFE000000
310
7F80000000000001FFFC00000000001FFFFFFC00000000001FFFFF0003FFFFFF
310
FFFF00000000001FF000FF00000000003FF8000FFFFC0000FFFFC000FF80007F
310
FE00000000007FFFE00000000007FFF8000001FFFE0000007F80000000000001
310
FFFE00000000003FFFFFFE00000000003FFFFF0003FFFFFFFFFF80000000003F
310
F000FF80000000007FF8000FFFFC0001FFFFC0007F80007FFF0000000000FFFF
310
F0000000000FFFF800000000000000007F80000000000001FFFF8000000000FF
310
FFFFFF8000000000FFFFFF0003FFFFFFFFFFC0000000007FF000FFC000000000
310
FFF8000FFFFE0001FFFFC0007F80007FFF8000000001FFFFF8000000001FFFF8
310
00000000000000007F80000000000001FFFFC000000001FFFFFFFFC000000001
310
FFFFFF0003FFFFFFFFFFE000000000FFF000FFE000000003FFF0001FFFFE0001
310
FFFFC0007F80007FFFC000000007FFFFFE000000003FFFF80000000000000000
310
7F80000000000001FFFFE000000003FFFFFFFFE000000003FFFFFF0003FFFFFF
310
FFFFF000000003FFF000FFF80000000FFFF0001FFFFE0001FFFFE0007F80007F
310
FFF00000000FFFFFFF00000000FFFFF800000000000000007F80000000000001
310
FFFFF80000000FFFFFFFFFF80000000FFFFFFF0003FFFFFFFFFFFC0000000FFF
310
F000FFFE0000003FFFF0001FFFFE0003FFFFE0003F80007FFFFC0000003FFFFF
310
FFC0000003FFFFF800000000000000007F80000000000001FFFFFE0000003FFF
310
FFFFFFFE0000003FFFFFFF0003FFFFFFFFFFFF0000003FFFF000FFFF800000FF
310
FFF0001FFFFF0003FFFFE0003F80007FFFFF000001FFFFFFFFF800001FFFFFF8
310
00000000000000007F80000000000001FFFFFFC00001FFFFFFFFFFFFC00001FF
310
FFFFFF0003FFFFFFFFFFFFC00000FFFFF000FFFFF8000FFFFFFFFFFFFFFFFFFF
310
FFFFFFFFFFFFFFFFFFFFF0001FFFFFFFFFFF0000FFFFFFF80000000000000000
310
7FFFFFFFFFFFFFFFFFFFFFFC001FFFFFFFFFFFFFFC001FFFFFFFFFFFFFFFFFFF
310
FFFFFFFC001FFFFFF000FFFFFFFFFFFFFFFFFFFFFFFFFFFFFFFFFFFFFFFFFFFF
310
FFFFFFFFFFFFFFFFFFFFFFFFFFFFFFFFFFFFFFFFFFFFFFFFFFFFFFFFFFFFFFFF
310
FFFFFFFFFFFFFFFFFFFFFFFFFFFFFFFFFFFFFFFFFFFFFFFFFFFFFFFFFFFFFFFF
310
F000FFFFFFFFFFFFFFFFFFFFFFFFFFFFFFFFFFFFFFFFFFFFFFFFFFFFFFFFFFFF
310
FFFFFFFFFFFFFFFFFFFFFFFFFFFFFFFFFFFFFFFFFFFFFFFFFFFFFFFFFFFFFFFF
310
FFFFFFFFFFFFFFFFFFFFFFFFFFFFFFFFFFFFFFFFFFFFFFFFF000FFFFFFFFFFFF
310
FFFFFFFFFFFFFFFFFFFFFFFFFFFFFFFFFFFFFFFFFFFFFFFFFFFFFFFFFFFFFFFF
310
FFFFFFFFFFFFFFFFFFFFFFFFFFFFFFFFFFFFFFFFFFFFFFFFFFFFFFFFFFFFFFFF
310
FFFFFFFFFFFFFFFFFFFFFFFFFFFFFFFFF000FFFFFFFFFFFFFFFFFFFFFFFFFFFF
310
FFFFFFFFFFFFFFFFFFFFFFFFFFFFFFFFFFFFFFFFFFFFFFFFFFFFFFFFFFFFFFFF
310
FFFFFFFFFFFFFFFFFFFFFFFFFFFFFFFFFFFFFFFFFFFFFFFFFFFFFFFFFFFFFFFF
310
FFFFFFFFFFFFFFFFF000FFFFFFFFFFFFFFFFFFFFFFFFFFFFFFFFFFFFFFFFFFFF
310
FFFFFFFFFFFFFFFFFFFFFFFFFFFFFFFFFFFFFFFFFFFFFFFFFFFFFFFFFFFFFFFF
310
FFFFFFFFFFFFFFFFFFFFFFFFFFFFFFFFFFFFFFFFFFFFFFFFFFFFFFFFFFFFFFFF
310
F000FFFFFFFFFFFFFFFFFFFFFFFFFFFFFFFFFFFFFFFFFFFFFFFFFFFFFFFFFFFF
310
FFFFFFFFFFFFFFFFFFFFFFFFFFFFFFFFFFFFFFFFFFFFFFFFFFFFFFFFFFFFFFFF
310
FFFFFFFFFFFFFFFFFFFFFFFFFFFFFFFFFFFFFFFFFFFFFFFFF000FFFFFFFFFFFF
310
FFFFFFFFFFFFFFFFFFFFFFFFFFFFFFFFFFFFFFFFFFFFFFFFFFFFFFFFFFFFFFFF
310
FFFFFFFFFFFFFFFFFFFFFFFFFFFFFFFFFFFFFFFFFFFFFFFFFFFFFFFFFFFFFFFF
310
FFFFFFFFFFFFFFFFFFFFFFFFFFFFFFFFF000FFFFFFFFFFFFFFFFFFFFFFFFFFFF
310
FFFFFFFFFFFFFFFFFFFFFFFFFFFFFFFFFFFFFFFFFFFFFFFFFFFFFFFFFFFFFFFF
310
FFFFFFFFFFFFFFFFFFFFFFFFFFFFFFFFFFFFFFFFFFFFFFFFFFFFFFFFFFFFFFFF
310
FFFFFFFFFFFFFFFFF000FFFFFFFFFFFFFFFFFFFFFFFFFFFFFFFFFFFFFFFFFFFF
310
FFFFFFFFFFFFFFFFFFFFFFFFFFFFFFFFFFFFFFFFFFFFFFFFFFFFFFFFFFFFFFFF
310
FFFFFFFFFFFFFFFFFFFFFFFFFFFFFFFFFFFFFFFFFFFFFFFFFFFFFFFFFFFFFFFF
310
F000FFFFFFFFFFFFFFFFFFFFFFFFFFFFFFFFFFFFFFFFFFFFFFFFFFFFFFFFFFFF
310
FFFFFFFFFFFFFFFFFFFFFFFFFFFFFFFFFFFFFFFFFFFFFFFFFFFFFFFFFFFFFFFF
310
FFFFFFFFFFFFFFFFFFFFFFFFFFFFFFFFFFFFFFFFFFFFFFFFF000FFFFFFFFFFFF
310
FFFFFFFFFFFFFFFFFFFFFFFFFFFFFFFFFFFFFFFFFFFFFFFFFFFFFFFFFFFFFFFF
310
FFFFFFFFFFFFFFFFFFFFFFFFFFFFFFFFFFFFFFFFFFFFFFFFFFFFFFFFFFFFFFFF
310
FFFFFFFFFFFFFFFFFFFFFFFFFFFFFFFFF000FFFFFFFFFFFFFFFFFFFFFFFFFFFF
310
FFFFFFFFFFFFFFFFFFFFFFFFFFFFFFFFFFFFFFFFFFFFFFFFFFFFFFFFFFFFFFFF
310
FFFFFFFFFFFFFFFFFFFFFFFFFFFFFFFFFFFFFFFFFFFFFFFFFFFFFFFFFFFFFFFF
310
FFFFFFFFFFFFFFFFF000FFFFFFFFFFFFFFFFFFFFFFFFFFFFFFFFFFFFFFFFFFFF
310
FFFFFFFFFFFFFFFFFFFFFFFFFFFFFFFFFFFFFFFFFFFFFFFFFFFFFFFFFFFFFFFF
310
FFFFFFFFFFFFFFFFFFFFFFFFFFFFFFFFFFFFFFFFFFFFFFFFFFFFFFFFFFFFFFFF
310
F000FFFFFFFFFFFFFFFFFFFFFFFFFFFFFFFFFFFFFFFFFFFFFFFFFFFFFFFFFFFF
310
FFFFFFFFFFFFFFFFFFFFFFFFFFFFFFFFFFFFFFFFFFFFFFFFFFFFFFFFFFFFFFFF
310
FFFFFFFFFFFFFFFFFFFFFFFFFFFFFFFFFFFFFFFFFFFFFFFFF000FFFFFFFFFFFF
310
FFFFFFFFFFFFFFFFFFFFFFFFFFFFFFFFFFFFFFFFFFFFFFFFFFFFFFFFFFFFFFFF
310
FFFFFFFFFFFFFFFFFFFFFFFFFFFFFFFFFFFFFFFFFFFFFFFFFFFFFFFFFFFFFFFF
310
FFFFFFFFFFFFFFFFFFFFFFFFFFFFFFFFF000FFFFFFFFFFFFFFFFFFFFFFFFFFFF
310
FFFFFFFFFFFFFFFFFFFFFFFFFFFFFFFFFFFFFFFFFFFFFFFFFFFFFFFFFFFFFFFF
310
FFFFFFFFFFFFFFFFFFFFFFFFFFFFFFFFFFFFFFFFFFFFFFFFFFFFFFFFFFFFFFFF
310
FFFFFFFFFFFFFFFFF000FFFFFFFFFFFFFFFFFFFFFFFFFFFFFFFFFFFFFFFFFFFF
310
FFFFFFFFFFFFFFFFFFFFFFFFFFFFFFFFFFFFFFFFFFFFFFFFFFFFFFFFFFFFFFFF
310
FFFFFFFFFFFFFFFFFFFFFFFFFFFFFFFFFFFFFFFFFFFFFFFFFFFFFFFFFFFFFFFF
310
F000FFFFFFFFFFFFFFFFFFFFFFFFFFFFFFFFFFFFFFFFFFFFFFFFFFFFFFFFFFFF
310
FFFFFFFFFFFFFFFFFFFFFFFFFFFFFFFFFFFFFFFFFFFFFFFFFFFFFFFFFFFFFFFF
310
FFFFFFFFFFFFFFFFFFFFFFFFFFFFFFFFFFFFFFFFFFFFFFFFF000FFFFFFFFFFFF
310
FFFFFFFFFFFFFFFFFFFFFFFFFFFFFFFFFFFFFFFFFFFFFFFFFFFFFFFFFFFFFFFF
310
FFFFFFFFFFFFFFFFFFFFFFFFFFFFFFFFFFFFFFFFFFFFFFFFFFFFFFFFFFFFFFFF
310
FFFFFFFFFFFFFFFFFFFFFFFFFFFFFFFFF000FFFFFFFFFFFFFFFFFFFFFFFFFFFF
310
FFFFFFFFFFFFFFFFFFFFFFFFFFFFFFFFFFFFFFFFFFFFFFFFFFFFFFFFFFFFFFFF
310
FFFFFFFFFFFFFFFFFFFFFFFFFFFFFFFFFFFFFFFFFFFFFFFFFFFFFFFFFFFFFFFF
310
FFFFFFFFFFFFFFFFF000FFFFFFFFFFFFFFFFFFFFFFFFFFFFFFFFFFFFFFFFFFFF
310
FFFFFFFFFFFFFFFFFFFFFFFFFFFFFFFFFFFFFFFFFFFFFFFFFFFFFFFFFFFFFFFF
310
FFFFFFFFFFFFFFFFFFFFFFFFFFFFFFFFFFFFFFFFFFFFFFFFFFFFFFFFFFFFFFFF
310
F000FFFFFFFFFFFFFFFFFFFFFFFFFFFFFFFFFFFFFFFFFFFFFFFFFFFFFFFFFFFF
310
FFFFFFFFFFFFFFFFFFFFFFFFFFFFFFFFFFFFFFFFFFFFFFFFFFFFFFFFFFFFFFFF
310
FFFFFFFFFFFFFFFFFFFFFFFFFFFFFFFFFFFFFFFFFFFFFFFFF000FFFFFFFFFFFF
310
FFFFFFFFFFFFFFFFFFFFFFFFFFFFFFFFFFFFFFFFFFFFFFFFFFFFFFFFFFFFFFFF
310
FFFFFFFFFFFFFFFFFFFFFFFFFFFFFFFFFFFFFFFFFFFFFFFFFFFFFFFFFFFFFFFF
310
FFFFFFFFFFFFFFFFFFFFFFFFFFFFFFFFF0000000000000000000000000000000
310
00000000000000000000000042006C00610063006B0000000000000000000000
310
0000000000000000000000000000000000000000000000000000000000000000
310
0000000000000000000000000000FFFFFFFFFFFFFFFFFFFFFFFFFFFFFFFFFFFF
310
FFFFFFFFFFFFFFFFFFFFFFFFFFFFFFFFFFFFFFFFFFFFFFFFFFFFFFFFFFFFFFFF
310
FFFFFFFFFFFFFFFFFFFFFFFF6476000800000000FFFFFFFF20FF202026000000
310
1E00000008000000060000000000000011000000200000008403000000000000
310
6000000060000000200002FB200020000000002B00FFFFFF40002200E8030000
310
A80400001C020000AF0000804A20004000000000000000000100000000000000
310
616C000800000000E40100007001000002000000270000001100000000000000
310
00000000BC0200000000000003020122420065006C006C00200047006F007400
310
680069006300200053007400640020004C006900670068007400000000000000
310
00000000000000000000000000000000420065006C006C0047006F0074006800
310
690063005300740064002D0042006F006C006400000000000000000000000000
310
0000000000000000000000000000000000000000000000000000000000000000
310
0000000000000000000000000000000000000000000000000000000000000000
  1
OLE
  0
ENDSEC
  0
SECTION
  2
OBJECTS
  0
DICTIONARY
  5
C
330
0
100
AcDbDictionary
281
     1
  3
ACAD_GROUP
350
D
  3
ACAD_LAYOUT
350
1A
  3
ACAD_MLEADERSTYLE
350
180
  3
ACAD_MLINESTYLE
350
17
  3
ACAD_PLOTSETTINGS
350
19
  3
ACAD_PLOTSTYLENAME
350
E
  3
ACAD_TABLESTYLE
350
17F
  3
ACAD_VISUALSTYLE
350
2A
  3
AcDbVariableDictionary
350
181
  0
DICTIONARY
  5
D
102
{ACAD_REACTORS
330
C
102
}
330
C
100
AcDbDictionary
281
     1
  0
DICTIONARY
  5
1A
102
{ACAD_REACTORS
330
C
102
}
330
C
100
AcDbDictionary
281
     1
  3
Layout1
350
1E
  3
Layout2
350
26
  3
Model
350
22
  0
DICTIONARY
  5
180
102
{ACAD_REACTORS
330
C
102
}
330
C
100
AcDbDictionary
281
     1
  0
DICTIONARY
  5
17
102
{ACAD_REACTORS
330
C
102
}
330
C
100
AcDbDictionary
281
     1
  3
Standard
350
18
  0
DICTIONARY
  5
19
102
{ACAD_REACTORS
330
C
102
}
330
C
100
AcDbDictionary
281
     1
  0
ACDBDICTIONARYWDFLT
  5
E
102
{ACAD_REACTORS
330
C
102
}
330
C
100
AcDbDictionary
281
     1
  3
Normal
350
F
100
AcDbDictionaryWithDefault
340
F
  0
DICTIONARY
  5
17F
102
{ACAD_REACTORS
330
C
102
}
330
C
100
AcDbDictionary
281
     1
  0
DICTIONARY
  5
2A
102
{ACAD_REACTORS
330
C
102
}
330
C
100
AcDbDictionary
281
     1
  3
2dWireframe
350
2F
  3
3D Hidden
350
31
  3
3dWireframe
350
30
  3
Basic
350
32
  3
Brighten
350
36
  3
ColorChange
350
3A
  3
Conceptual
350
34
  3
Dim
350
35
  3
Facepattern
350
39
  3
Flat
350
2B
  3
FlatWithEdges
350
2C
  3
Gouraud
350
2D
  3
GouraudWithEdges
350
2E
  3
Linepattern
350
38
  3
Realistic
350
33
  3
Thicken
350
37
  0
DICTIONARY
  5
181
102
{ACAD_REACTORS
330
C
102
}
330
C
100
AcDbDictionary
281
     1
  3
PSOLHEIGHT
350
183
  3
PSOLWIDTH
350
182
  0
LAYOUT
  5
1E
102
{ACAD_REACTORS
330
1A
102
}
330
1A
100
AcDbPlotSettings
  1

  2
none_device
  4

  6

 40
0.0
 41
0.0
 42
0.0
 43
0.0
 44
0.0
 45
0.0
 46
0.0
 47
0.0
 48
0.0
 49
0.0
140
0.0
141
0.0
142
1.0
143
1.0
 70
   688
 72
     0
 73
     0
 74
     5
  7

 75
    16
147
1.0
148
0.0
149
0.0
100
AcDbLayout
  1
Layout1
 70
     1
 71
     1
 10
0.0
 20
0.0
 11
420.0
 21
297.0
 12
0.0
 22
0.0
 32
0.0
 14
1.0000000000E+20
 24
1.0000000000E+20
 34
1.0000000000E+20
 15
-1.0000000000E+20
 25
-1.0000000000E+20
 35
-1.0000000000E+20
146
0.0
 13
0.0
 23
0.0
 33
0.0
 16
1.0
 26
0.0
 36
0.0
 17
0.0
 27
1.0
 37
0.0
 76
     0
330
1B
  0
LAYOUT
  5
26
102
{ACAD_REACTORS
330
1A
102
}
330
1A
100
AcDbPlotSettings
  1

  2
none_device
  4

  6

 40
0.0
 41
0.0
 42
0.0
 43
0.0
 44
0.0
 45
0.0
 46
0.0
 47
0.0
 48
0.0
 49
0.0
140
0.0
141
0.0
142
1.0
143
1.0
 70
   688
 72
     0
 73
     0
 74
     5
  7

 75
    16
147
1.0
148
0.0
149
0.0
100
AcDbLayout
  1
Layout2
 70
     1
 71
     2
 10
0.0
 20
0.0
 11
0.0
 21
0.0
 12
0.0
 22
0.0
 32
0.0
 14
0.0
 24
0.0
 34
0.0
 15
0.0
 25
0.0
 35
0.0
146
0.0
 13
0.0
 23
0.0
 33
0.0
 16
1.0
 26
0.0
 36
0.0
 17
0.0
 27
1.0
 37
0.0
 76
     0
330
23
  0
LAYOUT
  5
22
102
{ACAD_REACTORS
330
1A
102
}
330
1A
100
AcDbPlotSettings
  1

  2
none_device
  4

  6

 40
0.0
 41
0.0
 42
0.0
 43
0.0
 44
0.0
 45
0.0
 46
0.0
 47
0.0
 48
0.0
 49
0.0
140
0.0
141
0.0
142
1.0
143
1.0
 70
  1712
 72
     0
 73
     0
 74
     0
  7

 75
     0
147
1.0
148
0.0
149
0.0
100
AcDbLayout
  1
Model
 70
     1
 71
     0
 10
0.0
 20
0.0
 11
297.0
 21
210.0
 12
0.0
 22
0.0
 32
0.0
 14
0.0
 24
0.0
 34
0.0
 15
297.0
 25
210.0
 35
0.0
146
0.0
 13
0.0
 23
0.0
 33
0.0
 16
1.0
 26
0.0
 36
0.0
 17
0.0
 27
1.0
 37
0.0
 76
     0
330
1F
331
29
  0
MLINESTYLE
  5
18
102
{ACAD_REACTORS
330
17
102
}
330
17
100
AcDbMlineStyle
  2
Standard
 70
     0
  3

 62
   256
 51
90.0
 52
90.0
 71
     2
 49
0.5
 62
   256
  6
BYLAYER
 49
-0.5
 62
   256
  6
BYLAYER
  0
ACDBPLACEHOLDER
  5
F
102
{ACAD_REACTORS
330
E
102
}
330
E
  0
VISUALSTYLE
  5
2F
102
{ACAD_REACTORS
330
2A
102
}
330
2A
100
AcDbVisualStyle
  2
2dWireframe
 70
     4
 71
     0
 72
     2
 73
     0
 90
        0
 40
-0.6
 41
-30.0
 62
     5
 63
     7
 74
     1
 91
        4
 64
     7
 65
   257
 75
     1
175
     1
 42
1.0
 92
        0
 66
   257
 43
1.0
 76
     1
 77
     6
 78
     2
 67
     7
 79
     5
170
     0
171
     0
290
     0
174
     0
 93
        1
 44
0.0
173
     0
291
     0
 45
0.0
1001
ACAD
1000
AcDbSavedByObjectVersion
1070
     0
  0
VISUALSTYLE
  5
31
102
{ACAD_REACTORS
330
2A
102
}
330
2A
100
AcDbVisualStyle
  2
3D Hidden
 70
     6
 71
     1
 72
     2
 73
     2
 90
        0
 40
-0.6
 41
-30.0
 62
     5
 63
     7
 74
     2
 91
        2
 64
     7
 65
   257
 75
     2
175
     1
 42
40.0
 92
        0
 66
   257
 43
1.0
 76
     1
 77
     6
 78
     2
 67
     7
 79
     3
170
     0
171
     0
290
     0
174
     0
 93
        1
 44
0.0
173
     0
291
     0
 45
0.0
1001
ACAD
1000
AcDbSavedByObjectVersion
1070
     0
  0
VISUALSTYLE
  5
30
102
{ACAD_REACTORS
330
2A
102
}
330
2A
100
AcDbVisualStyle
  2
3dWireframe
 70
     5
 71
     0
 72
     2
 73
     0
 90
        0
 40
-0.6
 41
-30.0
 62
     5
 63
     7
 74
     1
 91
        4
 64
     7
 65
   257
 75
     1
175
     1
 42
1.0
 92
        0
 66
   257
 43
1.0
 76
     1
 77
     6
 78
     2
 67
     7
 79
     5
170
     0
171
     0
290
     0
174
     0
 93
        1
 44
0.0
173
     0
291
     0
 45
0.0
1001
ACAD
1000
AcDbSavedByObjectVersion
1070
     0
  0
VISUALSTYLE
  5
32
102
{ACAD_REACTORS
330
2A
102
}
330
2A
100
AcDbVisualStyle
  2
Basic
 70
     7
 71
     1
 72
     0
 73
     1
 90
        0
 40
-0.6
 41
-30.0
 62
     5
 63
     7
 74
     0
 91
        4
 64
     7
 65
   257
 75
     1
175
     1
 42
1.0
 92
        8
 66
     7
 43
1.0
 76
     1
 77
     6
 78
     2
 67
     7
 79
     5
170
     0
171
     0
290
     0
174
     0
 93
        1
 44
0.0
173
     0
291
     1
 45
0.0
1001
ACAD
1000
AcDbSavedByObjectVersion
1070
     0
  0
VISUALSTYLE
  5
36
102
{ACAD_REACTORS
330
2A
102
}
330
2A
100
AcDbVisualStyle
  2
Brighten
 70
    12
 71
     2
 72
     2
 73
     0
 90
        0
 40
-0.6
 41
-30.0
 62
     5
 63
     7
 74
     1
 91
        4
 64
     7
 65
   257
 75
     1
175
     1
 42
1.0
 92
        8
 66
     7
 43
1.0
 76
     1
 77
     6
 78
     2
 67
     7
 79
     5
170
     0
171
     0
290
     0
174
     0
 93
        1
 44
50.0
173
     0
291
     1
 45
0.0
1001
ACAD
1000
AcDbSavedByObjectVersion
1070
     0
  0
VISUALSTYLE
  5
3A
102
{ACAD_REACTORS
330
2A
102
}
330
2A
100
AcDbVisualStyle
  2
ColorChange
 70
    16
 71
     2
 72
     2
 73
     3
 90
        0
 40
-0.6
 41
-30.0
 62
     5
 63
     8
 74
     1
 91
        4
 64
     7
 65
   257
 75
     1
175
     1
 42
1.0
 92
        8
 66
     8
 43
1.0
 76
     1
 77
     6
 78
     2
 67
     7
 79
     5
170
     0
171
     0
290
     0
174
     0
 93
        1
 44
0.0
173
     0
291
     1
 45
0.0
1001
ACAD
1000
AcDbSavedByObjectVersion
1070
     0
  0
VISUALSTYLE
  5
34
102
{ACAD_REACTORS
330
2A
102
}
330
2A
100
AcDbVisualStyle
  2
Conceptual
 70
     9
 71
     3
 72
     2
 73
     0
 90
        0
 40
-0.6
 41
-30.0
 62
     5
 63
     7
 74
     2
 91
        2
 64
     7
 65
   257
 75
     1
175
     1
 42
40.0
 92
        8
 66
     7
 43
1.0
 76
     1
 77
     6
 78
     2
 67
     7
 79
     3
170
     0
171
     0
290
     0
174
     0
 93
        1
 44
0.0
173
     0
291
     0
 45
0.0
1001
ACAD
1000
AcDbSavedByObjectVersion
1070
     0
  0
VISUALSTYLE
  5
35
102
{ACAD_REACTORS
330
2A
102
}
330
2A
100
AcDbVisualStyle
  2
Dim
 70
    11
 71
     2
 72
     2
 73
     0
 90
        0
 40
-0.6
 41
-30.0
 62
     5
 63
     7
 74
     1
 91
        4
 64
     7
 65
   257
 75
     1
175
     1
 42
1.0
 92
        8
 66
     7
 43
1.0
 76
     1
 77
     6
 78
     2
 67
     7
 79
     5
170
     0
171
     0
290
     0
174
     0
 93
        1
 44
-50.0
173
     0
291
     1
 45
0.0
1001
ACAD
1000
AcDbSavedByObjectVersion
1070
     0
  0
VISUALSTYLE
  5
39
102
{ACAD_REACTORS
330
2A
102
}
330
2A
100
AcDbVisualStyle
  2
Facepattern
 70
    15
 71
     2
 72
     2
 73
     0
 90
        0
 40
-0.6
 41
-30.0
 62
     5
 63
     7
 74
     1
 91
        4
 64
     7
 65
   257
 75
     1
175
     1
 42
1.0
 92
        8
 66
     7
 43
1.0
 76
     1
 77
     6
 78
     2
 67
     7
 79
     5
170
     0
171
     0
290
     0
174
     0
 93
        1
 44
0.0
173
     0
291
     1
 45
0.0
1001
ACAD
1000
AcDbSavedByObjectVersion
1070
     0
  0
VISUALSTYLE
  5
2B
102
{ACAD_REACTORS
330
2A
102
}
330
2A
100
AcDbVisualStyle
  2
Flat
 70
     0
 71
     2
 72
     1
 73
     1
 90
        2
 40
-0.6
 41
30.0
 62
     5
 63
     7
 74
     0
 91
        4
 64
     7
 65
   257
 75
     1
175
     1
 42
1.0
 92
        8
 66
     7
 43
1.0
 76
     1
 77
     6
 78
     2
 67
     7
 79
     5
170
     0
171
     0
290
     0
174
     0
 93
       13
 44
0.0
173
     0
291
     1
 45
0.0
1001
ACAD
1000
AcDbSavedByObjectVersion
1070
     0
  0
VISUALSTYLE
  5
2C
102
{ACAD_REACTORS
330
2A
102
}
330
2A
100
AcDbVisualStyle
  2
FlatWithEdges
 70
     1
 71
     2
 72
     1
 73
     1
 90
        2
 40
-0.6
 41
30.0
 62
     5
 63
     7
 74
     1
 91
        4
 64
     7
 65
   257
 75
     1
175
     1
 42
1.0
 92
        0
 66
   257
 43
1.0
 76
     1
 77
     6
 78
     2
 67
     7
 79
     5
170
     0
171
     0
290
     0
174
     0
 93
       13
 44
0.0
173
     0
291
     1
 45
0.0
1001
ACAD
1000
AcDbSavedByObjectVersion
1070
     0
  0
VISUALSTYLE
  5
2D
102
{ACAD_REACTORS
330
2A
102
}
330
2A
100
AcDbVisualStyle
  2
Gouraud
 70
     2
 71
     2
 72
     2
 73
     1
 90
        2
 40
-0.6
 41
30.0
 62
     5
 63
     7
 74
     0
 91
        4
 64
     7
 65
   257
 75
     1
175
     1
 42
1.0
 92
        0
 66
     7
 43
1.0
 76
     1
 77
     6
 78
     2
 67
     7
 79
     5
170
     0
171
     0
290
     0
174
     0
 93
       13
 44
0.0
173
     0
291
     1
 45
0.0
1001
ACAD
1000
AcDbSavedByObjectVersion
1070
     0
  0
VISUALSTYLE
  5
2E
102
{ACAD_REACTORS
330
2A
102
}
330
2A
100
AcDbVisualStyle
  2
GouraudWithEdges
 70
     3
 71
     2
 72
     2
 73
     1
 90
        2
 40
-0.6
 41
30.0
 62
     5
 63
     7
 74
     1
 91
        4
 64
     7
 65
   257
 75
     1
175
     1
 42
1.0
 92
        0
 66
   257
 43
1.0
 76
     1
 77
     6
 78
     2
 67
     7
 79
     5
170
     0
171
     0
290
     0
174
     0
 93
       13
 44
0.0
173
     0
291
     1
 45
0.0
1001
ACAD
1000
AcDbSavedByObjectVersion
1070
     0
  0
VISUALSTYLE
  5
38
102
{ACAD_REACTORS
330
2A
102
}
330
2A
100
AcDbVisualStyle
  2
Linepattern
 70
    14
 71
     2
 72
     2
 73
     0
 90
        0
 40
-0.6
 41
-30.0
 62
     5
 63
     7
 74
     1
 91
        4
 64
     7
 65
   257
 75
     7
175
     7
 42
1.0
 92
        8
 66
     7
 43
1.0
 76
     1
 77
     6
 78
     2
 67
     7
 79
     5
170
     0
171
     0
290
     0
174
     0
 93
        1
 44
0.0
173
     0
291
     1
 45
0.0
1001
ACAD
1000
AcDbSavedByObjectVersion
1070
     0
  0
VISUALSTYLE
  5
33
102
{ACAD_REACTORS
330
2A
102
}
330
2A
100
AcDbVisualStyle
  2
Realistic
 70
     8
 71
     2
 72
     2
 73
     0
 90
        0
 40
-0.6
 41
-30.0
 62
     5
 63
     7
 74
     1
 91
        0
 64
     7
 65
   257
 75
     1
175
     1
 42
1.0
 92
        8
 66
     8
 43
1.0
 76
     1
 77
     6
 78
     2
 67
     7
 79
     5
170
     0
171
     0
290
     0
174
     0
 93
       13
 44
0.0
173
     0
291
     0
 45
0.0
1001
ACAD
1000
AcDbSavedByObjectVersion
1070
     0
  0
VISUALSTYLE
  5
37
102
{ACAD_REACTORS
330
2A
102
}
330
2A
100
AcDbVisualStyle
  2
Thicken
 70
    13
 71
     2
 72
     2
 73
     0
 90
        0
 40
-0.6
 41
-30.0
 62
     5
 63
     7
 74
     1
 91
        4
 64
     7
 65
   257
 75
     1
175
     1
 42
1.0
 92
       12
 66
     7
 43
1.0
 76
     1
 77
     6
 78
     2
 67
     7
 79
     5
170
     0
171
     0
290
     0
174
     0
 93
        1
 44
0.0
173
     0
291
     1
 45
0.0
1001
ACAD
1000
AcDbSavedByObjectVersion
1070
     0
  0
DICTIONARYVAR
  5
183
102
{ACAD_REACTORS
330
181
102
}
330
181
100
DictionaryVariables
280
     0
  1
80.000000
  0
DICTIONARYVAR
  5
182
102
{ACAD_REACTORS
330
181
102
}
330
181
100
DictionaryVariables
280
     0
  1
5.000000
  0
ENDSEC
  0
EOF
