  0
SECTION
  2
HEADER
  9
$ACADVER
  1
AC1015
  9
$ACADMAINTVER
 70
     6
  9
$DWGCODEPAGE
  3
ANSI_1252
  9
$INSBASE
 10
0.0
 20
0.0
 30
0.0
  9
$EXTMIN
 10
0.0
 20
0.0
 30
0.0
  9
$EXTMAX
 10
297.0
 20
210.0
 30
0.0
  9
$LIMMIN
 10
0.0
 20
0.0
  9
$LIMMAX
 10
297.0
 20
210.0
  9
$ORTHOMODE
 70
     0
  9
$REGENMODE
 70
     1
  9
$FILLMODE
 70
     1
  9
$QTEXTMODE
 70
     0
  9
$MIRRTEXT
 70
     1
  9
$LTSCALE
 40
1.0
  9
$ATTMODE
 70
     1
  9
$TEXTSIZE
 40
2.0
  9
$TRACEWID
 40
1.0
  9
$TEXTSTYLE
  7
Standard
  9
$CLAYER
  8
0
  9
$CELTYPE
  6
ByLayer
  9
$CECOLOR
 62
   256
  9
$CELTSCALE
 40
1.0
  9
$DISPSILH
 70
     0
  9
$DIMSCALE
 40
1.0
  9
$DIMASZ
 40
3.0
  9
$DIMEXO
 40
0.0
  9
$DIMDLI
 40
3.75
  9
$DIMRND
 40
0.0
  9
$DIMDLE
 40
0.0
  9
$DIMEXE
 40
1.0
  9
$DIMTP
 40
0.0
  9
$DIMTM
 40
0.0
  9
$DIMTXT
 40
2.0
  9
$DIMCEN
 40
2.5
  9
$DIMTSZ
 40
0.0
  9
$DIMTOL
 70
     0
  9
$DIMLIM
 70
     0
  9
$DIMTIH
 70
     1
  9
$DIMTOH
 70
     1
  9
$DIMSE1
 70
     0
  9
$DIMSE2
 70
     0
  9
$DIMTAD
 70
     1
  9
$DIMZIN
 70
     0
  9
$DIMBLK
  1

  9
$DIMASO
 70
     1
  9
$DIMSHO
 70
     1
  9
$DIMPOST
  1

  9
$DIMAPOST
  1

  9
$DIMALT
 70
     0
  9
$DIMALTD
 70
     3
  9
$DIMALTF
 40
0.0393700787
  9
$DIMLFAC
 40
1.0
  9
$DIMTOFL
 70
     1
  9
$DIMTVP
 40
0.0
  9
$DIMTIX
 70
     0
  9
$DIMSOXD
 70
     0
  9
$DIMSAH
 70
     0
  9
$DIMBLK1
  1

  9
$DIMBLK2
  1

  9
$DIMSTYLE
  2
ISO-25
  9
$DIMCLRD
 70
     0
  9
$DIMCLRE
 70
     0
  9
$DIMCLRT
 70
     0
  9
$DIMTFAC
 40
1.0
  9
$DIMGAP
 40
1.524
  9
$DIMJUST
 70
     0
  9
$DIMSD1
 70
     0
  9
$DIMSD2
 70
     0
  9
$DIMTOLJ
 70
     0
  9
$DIMTZIN
 70
     0
  9
$DIMALTZ
 70
     0
  9
$DIMALTTZ
 70
     0
  9
$DIMUPT
 70
     0
  9
$DIMDEC
 70
     2
  9
$DIMTDEC
 70
     3
  9
$DIMALTU
 70
     2
  9
$DIMALTTD
 70
     3
  9
$DIMTXSTY
  7
Standard
  9
$DIMAUNIT
 70
     0
  9
$DIMADEC
 70
     2
  9
$DIMALTRND
 40
0.0
  9
$DIMAZIN
 70
     0
  9
$DIMDSEP
 70
    44
  9
$DIMATFIT
 70
     3
  9
$DIMFRAC
 70
     0
  9
$DIMLDRBLK
  1

  9
$DIMLUNIT
 70
     2
  9
$DIMLWD
 70
    -2
  9
$DIMLWE
 70
    -2
  9
$DIMTMOVE
 70
     0
  9
$LUNITS
 70
     2
  9
$LUPREC
 70
     2
  9
$SKETCHINC
 40
1.0
  9
$FILLETRAD
 40
10.0
  9
$AUNITS
 70
     0
  9
$AUPREC
 70
     2
  9
$MENU
  1
.
  9
$ELEVATION
 40
0.0
  9
$PELEVATION
 40
0.0
  9
$THICKNESS
 40
0.0
  9
$LIMCHECK
 70
     0
  9
$CHAMFERA
 40
10.0
  9
$CHAMFERB
 40
10.0
  9
$CHAMFERC
 40
20.0
  9
$CHAMFERD
 40
0.0
  9
$SKPOLY
 70
     0
  9
$TDCREATE
 40
2455673.380654155
  9
$TDUCREATE
 40
2455673.297320822
  9
$TDUPDATE
 40
2455673.380654166
  9
$TDUUPDATE
 40
2455673.297320833
  9
$TDINDWG
 40
0.0000000116
  9
$TDUSRTIMER
 40
0.0000000116
  9
$USRTIMER
 70
     1
  9
$ANGBASE
 50
0.0
  9
$ANGDIR
 70
     0
  9
$PDMODE
 70
     0
  9
$PDSIZE
 40
-1.0
  9
$PLINEWID
 40
0.0
  9
$SPLFRAME
 70
     0
  9
$SPLINETYPE
 70
     6
  9
$SPLINESEGS
 70
     8
  9
$HANDSEED
  5
20D
  9
$SURFTAB1
 70
     6
  9
$SURFTAB2
 70
     6
  9
$SURFTYPE
 70
     6
  9
$SURFU
 70
     6
  9
$SURFV
 70
     6
  9
$UCSBASE
  2

  9
$UCSNAME
  2

  9
$UCSORG
 10
0.0
 20
0.0
 30
0.0
  9
$UCSXDIR
 10
1.0
 20
0.0
 30
0.0
  9
$UCSYDIR
 10
0.0
 20
1.0
 30
0.0
  9
$UCSORTHOREF
  2

  9
$UCSORTHOVIEW
 70
     0
  9
$UCSORGTOP
 10
0.0
 20
0.0
 30
0.0
  9
$UCSORGBOTTOM
 10
0.0
 20
0.0
 30
0.0
  9
$UCSORGLEFT
 10
0.0
 20
0.0
 30
0.0
  9
$UCSORGRIGHT
 10
0.0
 20
0.0
 30
0.0
  9
$UCSORGFRONT
 10
0.0
 20
0.0
 30
0.0
  9
$UCSORGBACK
 10
0.0
 20
0.0
 30
0.0
  9
$PUCSBASE
  2

  9
$PUCSNAME
  2

  9
$PUCSORG
 10
0.0
 20
0.0
 30
0.0
  9
$PUCSXDIR
 10
1.0
 20
0.0
 30
0.0
  9
$PUCSYDIR
 10
0.0
 20
1.0
 30
0.0
  9
$PUCSORTHOREF
  2

  9
$PUCSORTHOVIEW
 70
     0
  9
$PUCSORGTOP
 10
0.0
 20
0.0
 30
0.0
  9
$PUCSORGBOTTOM
 10
0.0
 20
0.0
 30
0.0
  9
$PUCSORGLEFT
 10
0.0
 20
0.0
 30
0.0
  9
$PUCSORGRIGHT
 10
0.0
 20
0.0
 30
0.0
  9
$PUCSORGFRONT
 10
0.0
 20
0.0
 30
0.0
  9
$PUCSORGBACK
 10
0.0
 20
0.0
 30
0.0
  9
$USERI1
 70
     0
  9
$USERI2
 70
     0
  9
$USERI3
 70
     0
  9
$USERI4
 70
     0
  9
$USERI5
 70
     0
  9
$USERR1
 40
0.0
  9
$USERR2
 40
0.0
  9
$USERR3
 40
0.0
  9
$USERR4
 40
0.0
  9
$USERR5
 40
0.0
  9
$WORLDVIEW
 70
     1
  9
$SHADEDGE
 70
     3
  9
$SHADEDIF
 70
    70
  9
$TILEMODE
 70
     1
  9
$MAXACTVP
 70
    64
  9
$PINSBASE
 10
0.0
 20
0.0
 30
0.0
  9
$PLIMCHECK
 70
     0
  9
$PEXTMIN
 10
1.0000000000E+20
 20
1.0000000000E+20
 30
1.0000000000E+20
  9
$PEXTMAX
 10
-1.0000000000E+20
 20
-1.0000000000E+20
 30
-1.0000000000E+20
  9
$PLIMMIN
 10
0.0
 20
0.0
  9
$PLIMMAX
 10
420.0
 20
297.0
  9
$UNITMODE
 70
     0
  9
$VISRETAIN
 70
     1
  9
$PLINEGEN
 70
     0
  9
$PSLTSCALE
 70
     1
  9
$TREEDEPTH
 70
  3020
  9
$CMLSTYLE
  2
Standard
  9
$CMLJUST
 70
     0
  9
$CMLSCALE
 40
20.0
  9
$PROXYGRAPHICS
 70
     1
  9
$MEASUREMENT
 70
     1
  9
$CELWEIGHT
370
    -1
  9
$ENDCAPS
280
     0
  9
$JOINSTYLE
280
     0
  9
$LWDISPLAY
290
     1
  9
$INSUNITS
 70
     4
  9
$HYPERLINKBASE
  1

  9
$STYLESHEET
  1

  9
$XEDIT
290
     1
  9
$CEPSNTYPE
380
     0
  9
$PSTYLEMODE
290
     1
  9
$FINGERPRINTGUID
  2
{2C3C0DA2-C6C0-4F2F-8E85-A5DF0C83BDDF}
  9
$VERSIONGUID
  2
{FAEB1C32-E019-11D5-929B-00C0DF256EC4}
  9
$EXTNAMES
290
     1
  9
$PSVPSCALE
 40
0.0
  9
$OLESTARTUP
290
     0
  0
ENDSEC
  0
SECTION
  2
CLASSES
  0
CLASS
  1
ACDBDICTIONARYWDFLT
  2
AcDbDictionaryWithDefault
  3
ObjectDBX Classes
 90
        0
280
     0
281
     0
  0
CLASS
  1
VISUALSTYLE
  2
AcDbVisualStyle
  3
ObjectDBX Classes
 90
     4095
280
     0
281
     0
  0
CLASS
  1
DICTIONARYVAR
  2
AcDbDictionaryVar
  3
ObjectDBX Classes
 90
        0
280
     0
281
     0
  0
CLASS
  1
ACDBPLACEHOLDER
  2
AcDbPlaceHolder
  3
ObjectDBX Classes
 90
        0
280
     0
281
     0
  0
CLASS
  1
LAYOUT
  2
AcDbLayout
  3
ObjectDBX Classes
 90
        0
280
     0
281
     0
  0
ENDSEC
  0
SECTION
  2
TABLES
  0
TABLE
  2
VPORT
  5
8
330
0
100
AcDbSymbolTable
 70
     1
  0
VPORT
  5
29
330
8
100
AcDbSymbolTableRecord
100
AcDbViewportTableRecord
  2
*Active
 70
     0
 10
0.0
 20
0.0
 11
1.0
 21
1.0
 12
148.5
 22
105.0
 13
0.0
 23
0.0
 14
10.0
 24
10.0
 15
10.0
 25
10.0
 16
0.0
 26
0.0
 36
1.0
 17
0.0
 27
0.0
 37
0.0
 40
210.0
 41
1.4142857143
 42
50.0
 43
0.0
 44
0.0
 50
0.0
 51
0.0
 71
     0
 72
  2000
 73
     1
 74
     3
 75
     0
 76
     0
 77
     0
 78
     0
281
     0
 65
     1
110
0.0
120
0.0
130
0.0
111
1.0
121
0.0
131
0.0
112
0.0
122
1.0
132
0.0
 79
     0
146
0.0
  0
ENDTAB
  0
TABLE
  2
LTYPE
  5
5
330
0
100
AcDbSymbolTable
 70
     6
  0
LTYPE
  5
14
330
5
100
AcDbSymbolTableRecord
100
AcDbLinetypeTableRecord
  2
ByBlock
 70
     0
  3

 72
    65
 73
     0
 40
0.0
  0
LTYPE
  5
15
330
5
100
AcDbSymbolTableRecord
100
AcDbLinetypeTableRecord
  2
ByLayer
 70
     0
  3

 72
    65
 73
     0
 40
0.0
  0
LTYPE
  5
16
330
5
100
AcDbSymbolTableRecord
100
AcDbLinetypeTableRecord
  2
Continuous
 70
     0
  3
Solid line
 72
    65
 73
     0
 40
0.0
  0
LTYPE
  5
3B
330
5
100
AcDbSymbolTableRecord
100
AcDbLinetypeTableRecord
  2
HIDDEN
 70
     0
  3
Hidden __ __ __ __ __ __ __ __ __ __ __ __ __ __
 72
    65
 73
     2
 40
1.905
 49
1.27
 74
     0
 49
-0.635
 74
     0
  0
LTYPE
  5
3C
330
5
100
AcDbSymbolTableRecord
100
AcDbLinetypeTableRecord
  2
PHANTOM
 70
     0
  3
Phantom ______  __  __  ______  __  __  ______
 72
    65
 73
     6
 40
12.7
 49
6.35
 74
     0
 49
-1.27
 74
     0
 49
1.27
 74
     0
 49
-1.27
 74
     0
 49
1.27
 74
     0
 49
-1.27
 74
     0
  0
LTYPE
  5
3D
330
5
100
AcDbSymbolTableRecord
100
AcDbLinetypeTableRecord
  2
CENTER
 70
     0
  3
Center ____ _ ____ _ ____ _ ____ _ ____ _ ____
 72
    65
 73
     4
 40
10.16
 49
6.35
 74
     0
 49
-1.27
 74
     0
 49
1.27
 74
     0
 49
-1.27
 74
     0
  0
LTYPE
  5
3E
330
5
100
AcDbSymbolTableRecord
100
AcDbLinetypeTableRecord
  2
CENTERX2
 70
     0
  3
Center (2x) ________  __  ________  __  _____
 72
    65
 73
     4
 40
20.32
 49
12.7
 74
     0
 49
-2.54
 74
     0
 49
2.54
 74
     0
 49
-2.54
 74
     0
  0
LTYPE
  5
3F
330
5
100
AcDbSymbolTableRecord
100
AcDbLinetypeTableRecord
  2
DOT2
 70
     0
  3
Dot (.5x) ........................................
 72
    65
 73
     2
 40
0.635
 49
0.0
 74
     0
 49
-0.635
 74
     0
  0
ENDTAB
  0
TABLE
  2
LAYER
  5
2
330
0
100
AcDbSymbolTable
 70
     5
  0
LAYER
  5
10
330
2
100
AcDbSymbolTableRecord
100
AcDbLayerTableRecord
  2
0
 70
     0
 62
     7
  6
Continuous
370
    -3
390
F
  0
LAYER
  5
40
330
2
100
AcDbSymbolTableRecord
100
AcDbLayerTableRecord
  2
FORMAT
 70
     0
 62
     7
  6
Continuous
370
    -3
390
F
  0
LAYER
  5
41
330
2
100
AcDbSymbolTableRecord
100
AcDbLayerTableRecord
  2
VERMASSUNG
 70
     0
 62
     7
  6
Continuous
370
    -3
390
F
  0
LAYER
  5
42
330
2
100
AcDbSymbolTableRecord
100
AcDbLayerTableRecord
  2
KOPF_DÜNN
 70
     0
 62
     7
  6
Continuous
370
    -3
390
F
  0
LAYER
  5
43
330
2
100
AcDbSymbolTableRecord
100
AcDbLayerTableRecord
  2
KOPF_DICK
 70
     0
 62
     7
  6
Continuous
370
    15
390
F
  0
ENDTAB
  0
TABLE
  2
STYLE
  5
3
330
0
100
AcDbSymbolTable
 70
     3
  0
STYLE
  5
11
330
3
100
AcDbSymbolTableRecord
100
AcDbTextStyleTableRecord
  2
Standard
 70
     0
 40
0.0
 41
1.0
 50
0.0
 71
     0
 42
2.5
  3
txt
  4

  0
STYLE
  5
44
330
3
100
AcDbSymbolTableRecord
100
AcDbTextStyleTableRecord
  2
SLDTEXTSTYLE0
 70
     0
 40
0.0
 41
0.7
 50
0.0
 71
     0
 42
0.2
  3
TXT
  4

  0
STYLE
  5
48
330
3
100
AcDbSymbolTableRecord
100
AcDbTextStyleTableRecord
  2
SLDTEXTSTYLE1
 70
     0
 40
0.0
 41
0.6473684211
 50
0.0
 71
     0
 42
0.2
  3
TXT
  4

  0
ENDTAB
  0
TABLE
  2
VIEW
  5
6
330
0
100
AcDbSymbolTable
 70
     0
  0
ENDTAB
  0
TABLE
  2
UCS
  5
7
330
0
100
AcDbSymbolTable
 70
     0
  0
ENDTAB
  0
TABLE
  2
APPID
  5
9
330
0
100
AcDbSymbolTable
 70
     1
  0
APPID
  5
12
330
9
100
AcDbSymbolTableRecord
100
AcDbRegAppTableRecord
  2
ACAD
 70
     0
  0
ENDTAB
  0
TABLE
  2
DIMSTYLE
  5
A
330
0
100
AcDbSymbolTable
 70
     3
100
AcDbDimStyleTable
  0
DIMSTYLE
105
27
330
A
100
AcDbSymbolTableRecord
100
AcDbDimStyleTableRecord
  2
ISO-25
 70
     0
 41
2.5
 42
0.625
 43
3.75
 44
1.25
 73
     0
 74
     0
 77
     1
 78
     8
140
2.5
141
2.5
143
0.0393700787
147
0.625
171
     3
172
     1
271
     2
272
     2
274
     3
278
    44
283
     0
284
     8
340
11
  0
DIMSTYLE
105
1C3
102
{ACAD_REACTORS
330
1C2
330
1DD
330
1E7
330
1F1
330
1FB
102
}
330
A
100
AcDbSymbolTableRecord
100
AcDbDimStyleTableRecord
  2
SLDDIMSTYLE0
 70
     0
 41
3.0
 44
0.0
 45
0.000000001
 73
     0
 74
     0
 77
     1
 78
    12
140
2.0
147
0.5
173
     1
271
     2
272
     3
284
    12
340
44
  0
DIMSTYLE
105
1D0
102
{ACAD_REACTORS
330
1CF
102
}
330
A
100
AcDbSymbolTableRecord
100
AcDbDimStyleTableRecord
  2
SLDDIMSTYLE1
 70
     0
 41
3.0
 44
0.0
 45
0.000000001
 73
     0
 74
     0
 77
     1
 78
    12
140
2.0
147
0.5
173
     1
271
     2
272
     3
284
    12
340
44
  0
ENDTAB
  0
TABLE
  2
BLOCK_RECORD
  5
1
330
0
100
AcDbSymbolTable
 70
     7
  0
BLOCK_RECORD
  5
1F
330
1
100
AcDbSymbolTableRecord
100
AcDbBlockTableRecord
  2
*Model_Space
340
22
  0
BLOCK_RECORD
  5
1B
330
1
100
AcDbSymbolTableRecord
100
AcDbBlockTableRecord
  2
*Paper_Space
340
1E
  0
BLOCK_RECORD
  5
23
330
1
100
AcDbSymbolTableRecord
100
AcDbBlockTableRecord
  2
*Paper_Space0
340
26
  0
BLOCK_RECORD
  5
1C4
330
1
100
AcDbSymbolTableRecord
100
AcDbBlockTableRecord
  2
*D1
340
0
  0
BLOCK_RECORD
  5
1D1
330
1
100
AcDbSymbolTableRecord
100
AcDbBlockTableRecord
  2
*D2
340
0
  0
BLOCK_RECORD
  5
1DE
330
1
100
AcDbSymbolTableRecord
100
AcDbBlockTableRecord
  2
*D3
340
0
  0
BLOCK_RECORD
  5
1E8
330
1
100
AcDbSymbolTableRecord
100
AcDbBlockTableRecord
  2
*D4
340
0
  0
BLOCK_RECORD
  5
1F2
330
1
100
AcDbSymbolTableRecord
100
AcDbBlockTableRecord
  2
*D5
340
0
  0
BLOCK_RECORD
  5
1FC
330
1
100
AcDbSymbolTableRecord
100
AcDbBlockTableRecord
  2
*D6
340
0
  0
ENDTAB
  0
ENDSEC
  0
SECTION
  2
BLOCKS
  0
BLOCK
  5
20
330
1F
100
AcDbEntity
  8
0
100
AcDbBlockBegin
  2
*Model_Space
 70
     0
 10
0.0
 20
0.0
 30
0.0
  3
*Model_Space
  1

  0
ENDBLK
  5
21
330
1F
100
AcDbEntity
  8
0
100
AcDbBlockEnd
  0
BLOCK
  5
1C
330
1B
100
AcDbEntity
 67
     1
  8
0
100
AcDbBlockBegin
  2
*Paper_Space
 70
     0
 10
0.0
 20
0.0
 30
0.0
  3
*Paper_Space
  1

  0
ENDBLK
  5
1D
330
1B
100
AcDbEntity
 67
     1
  8
0
100
AcDbBlockEnd
  0
BLOCK
  5
24
330
23
100
AcDbEntity
  8
0
100
AcDbBlockBegin
  2
*Paper_Space0
 70
     0
 10
0.0
 20
0.0
 30
0.0
  3
*Paper_Space0
  1

  0
ENDBLK
  5
25
330
23
100
AcDbEntity
  8
0
100
AcDbBlockEnd
  0
BLOCK
  5
1C5
330
1C4
100
AcDbEntity
  8
0
100
AcDbBlockBegin
  2
*D1
 70
     1
 10
0.0
 20
0.0
 30
0.0
  3
*D1
  1

  0
SOLID
  5
1C7
330
1C4
100
AcDbEntity
  8
VERMASSUNG
100
AcDbTrace
 10
94.5887854393
 20
142.0787523378
 30
0.0
 11
94.1387854393
 21
139.0787523378
 31
0.0
 12
95.0387854393
 22
139.0787523378
 32
0.0
 13
95.0387854393
 23
139.0787523378
 33
0.0
  0
SOLID
  5
1C8
330
1C4
100
AcDbEntity
  8
VERMASSUNG
100
AcDbTrace
 10
94.5887854393
 20
79.0787523378
 30
0.0
 11
95.0387854393
 21
82.0787523378
 31
0.0
 12
94.1387854393
 22
82.0787523378
 32
0.0
 13
94.1387854393
 23
82.0787523378
 33
0.0
  0
LINE
  5
1C9
330
1C4
100
AcDbEntity
  8
VERMASSUNG
100
AcDbLine
 10
132.4239910391
 20
142.0787523378
 30
0.0
 11
93.5887854393
 21
142.0787523378
 31
0.0
  0
LINE
  5
1CA
330
1C4
100
AcDbEntity
  8
VERMASSUNG
100
AcDbLine
 10
132.4239910391
 20
79.0787523378
 30
0.0
 11
93.5887854393
 21
79.0787523378
 31
0.0
  0
LINE
  5
1CB
330
1C4
100
AcDbEntity
  8
VERMASSUNG
100
AcDbLine
 10
94.5887854393
 20
142.0787523378
 30
0.0
 11
94.5887854393
 21
79.0787523378
 31
0.0
  0
MTEXT
  5
1CC
330
1C4
100
AcDbEntity
  8
VERMASSUNG
100
AcDbMText
 10
91.8106499502
 20
101.3866949286
 30
0.0
 40
2.0
 41
0.0
 71
     1
 72
     1
  1
HSK A 
  7
SLDTEXTSTYLE0
 11
-7.044195017643634E-15
 21
1.0
 31
0.0
 73
     1
 44
1.0
  0
MTEXT
  5
1CD
330
1C4
100
AcDbEntity
  8
VERMASSUNG
100
AcDbMText
 10
92.0106499597
 20
110.3866954725
 30
0.0
 40
2.0
 41
0.0
 71
     1
 72
     1
  1
%%c
  7
SLDTEXTSTYLE0
 11
-7.044195017643634E-15
 21
1.0
 31
0.0
 73
     1
 44
1.0
  0
MTEXT
  5
1CE
330
1C4
100
AcDbEntity
  8
VERMASSUNG
100
AcDbMText
 10
92.0106500761
 20
113.9950221225
 30
0.0
 40
2.0
 41
0.0
 71
     1
 72
     1
  1
63
  7
SLDTEXTSTYLE0
 11
-7.044195017643634E-15
 21
1.0
 31
0.0
 73
     1
 44
1.0
  0
ENDBLK
  5
1C6
330
1C4
100
AcDbEntity
  8
0
100
AcDbBlockEnd
  0
BLOCK
  5
1D2
330
1D1
100
AcDbEntity
  8
0
100
AcDbBlockBegin
  2
*D2
 70
     1
 10
0.0
 20
0.0
 30
0.0
  3
*D2
  1

  0
SOLID
  5
1D4
330
1D1
100
AcDbEntity
  8
VERMASSUNG
100
AcDbTrace
 10
202.4130958467
 20
113.5787523378
 30
0.0
 11
202.8630958467
 21
116.5787523378
 31
0.0
 12
201.9630958467
 22
116.5787523378
 32
0.0
 13
201.9630958467
 23
116.5787523378
 33
0.0
  0
SOLID
  5
1D5
330
1D1
100
AcDbEntity
  8
VERMASSUNG
100
AcDbTrace
 10
202.4130958467
 20
107.5787523378
 30
0.0
 11
201.9630958467
 21
104.5787523378
 31
0.0
 12
202.8630958467
 22
104.5787523378
 32
0.0
 13
202.8630958467
 23
104.5787523378
 33
0.0
  0
LINE
  5
1D6
330
1D1
100
AcDbEntity
  8
VERMASSUNG
100
AcDbLine
 10
196.8239910391
 20
113.5787523378
 30
0.0
 11
203.4130958467
 21
113.5787523378
 31
0.0
  0
LINE
  5
1D7
330
1D1
100
AcDbEntity
  8
VERMASSUNG
100
AcDbLine
 10
196.8239910391
 20
107.5787523378
 30
0.0
 11
203.4130958467
 21
107.5787523378
 31
0.0
  0
LINE
  5
1D8
330
1D1
100
AcDbEntity
  8
VERMASSUNG
100
AcDbLine
 10
202.4130958467
 20
113.5787523378
 30
0.0
 11
202.4130958467
 21
119.5787523378
 31
0.0
  0
LINE
  5
1D9
330
1D1
100
AcDbEntity
  8
VERMASSUNG
100
AcDbLine
 10
202.4130958467
 20
113.5787523378
 30
0.0
 11
202.4130958467
 21
107.5787523378
 31
0.0
  0
LINE
  5
1DA
330
1D1
100
AcDbEntity
  8
VERMASSUNG
100
AcDbLine
 10
202.4130958467
 20
107.5787523378
 30
0.0
 11
202.4130958467
 21
101.5787523378
 31
0.0
  0
MTEXT
  5
1DB
330
1D1
100
AcDbEntity
  8
VERMASSUNG
100
AcDbMText
 10
199.8349603671
 20
108.0747241688
 30
0.0
 40
2.0
 41
0.0
 71
     1
 72
     1
  1
%%c
  7
SLDTEXTSTYLE0
 11
-7.044195017643634E-15
 21
1.0
 31
0.0
 73
     1
 44
1.0
  0
MTEXT
  5
1DC
330
1D1
100
AcDbEntity
  8
VERMASSUNG
100
AcDbMText
 10
199.8349604836
 20
111.683402392
 30
0.0
 40
2.0
 41
0.0
 71
     1
 72
     1
  1
6
  7
SLDTEXTSTYLE0
 11
-7.044195017643634E-15
 21
1.0
 31
0.0
 73
     1
 44
1.0
  0
ENDBLK
  5
1D3
330
1D1
100
AcDbEntity
  8
0
100
AcDbBlockEnd
  0
BLOCK
  5
1DF
330
1DE
100
AcDbEntity
  8
0
100
AcDbBlockBegin
  2
*D3
 70
     1
 10
0.0
 20
0.0
 30
0.0
  3
*D3
  1

  0
SOLID
  5
1E1
330
1DE
100
AcDbEntity
  8
VERMASSUNG
100
AcDbTrace
 10
132.1239910391
 20
151.496099675
 30
0.0
 11
135.1239910391
 21
151.046099675
 31
0.0
 12
135.1239910391
 22
151.946099675
 32
0.0
 13
135.1239910391
 23
151.946099675
 33
0.0
  0
SOLID
  5
1E2
330
1DE
100
AcDbEntity
  8
VERMASSUNG
100
AcDbTrace
 10
197.1239910391
 20
151.496099675
 30
0.0
 11
194.1239910391
 21
151.946099675
 31
0.0
 12
194.1239910391
 22
151.046099675
 32
0.0
 13
194.1239910391
 23
151.046099675
 33
0.0
  0
LINE
  5
1E3
330
1DE
100
AcDbEntity
  8
VERMASSUNG
100
AcDbLine
 10
132.1239910391
 20
141.7787523378
 30
0.0
 11
132.1239910391
 21
152.496099675
 31
0.0
  0
LINE
  5
1E4
330
1DE
100
AcDbEntity
  8
VERMASSUNG
100
AcDbLine
 10
197.1239910391
 20
117.8046118162
 30
0.0
 11
197.1239910391
 21
152.496099675
 31
0.0
  0
LINE
  5
1E5
330
1DE
100
AcDbEntity
  8
VERMASSUNG
100
AcDbLine
 10
132.1239910391
 20
151.496099675
 30
0.0
 11
197.1239910391
 21
151.496099675
 31
0.0
  0
MTEXT
  5
1E6
330
1DE
100
AcDbEntity
  8
VERMASSUNG
100
AcDbMText
 10
163.2246129242
 20
154.0742350381
 30
0.0
 40
2.0
 41
0.0
 71
     1
 72
     1
  1
65
  7
SLDTEXTSTYLE0
 73
     1
 44
1.0
  0
ENDBLK
  5
1E0
330
1DE
100
AcDbEntity
  8
0
100
AcDbBlockEnd
  0
BLOCK
  5
1E9
330
1E8
100
AcDbEntity
  8
0
100
AcDbBlockBegin
  2
*D4
 70
     1
 10
0.0
 20
0.0
 30
0.0
  3
*D4
  1

  0
SOLID
  5
1EB
330
1E8
100
AcDbEntity
  8
VERMASSUNG
100
AcDbTrace
 10
158.0739910391
 20
145.496099675
 30
0.0
 11
161.0739910391
 21
145.046099675
 31
0.0
 12
161.0739910391
 22
145.946099675
 32
0.0
 13
161.0739910391
 23
145.946099675
 33
0.0
  0
SOLID
  5
1EC
330
1E8
100
AcDbEntity
  8
VERMASSUNG
100
AcDbTrace
 10
197.1239910391
 20
145.496099675
 30
0.0
 11
194.1239910391
 21
145.946099675
 31
0.0
 12
194.1239910391
 22
145.046099675
 32
0.0
 13
194.1239910391
 23
145.046099675
 33
0.0
  0
LINE
  5
1ED
330
1E8
100
AcDbEntity
  8
VERMASSUNG
100
AcDbLine
 10
158.0739910391
 20
140.4251926616
 30
0.0
 11
158.0739910391
 21
146.496099675
 31
0.0
  0
LINE
  5
1EE
330
1E8
100
AcDbEntity
  8
VERMASSUNG
100
AcDbLine
 10
197.1239910391
 20
117.8046118162
 30
0.0
 11
197.1239910391
 21
146.496099675
 31
0.0
  0
LINE
  5
1EF
330
1E8
100
AcDbEntity
  8
VERMASSUNG
100
AcDbLine
 10
158.0739910391
 20
145.496099675
 30
0.0
 11
197.1239910391
 21
145.496099675
 31
0.0
  0
MTEXT
  5
1F0
330
1E8
100
AcDbEntity
  8
VERMASSUNG
100
AcDbMText
 10
174.4997050152
 20
148.0742350381
 30
0.0
 40
2.0
 41
0.0
 71
     1
 72
     1
  1
39.05
  7
SLDTEXTSTYLE0
 73
     1
 44
1.0
  0
ENDBLK
  5
1EA
330
1E8
100
AcDbEntity
  8
0
100
AcDbBlockEnd
  0
BLOCK
  5
1F3
330
1F2
100
AcDbEntity
  8
0
100
AcDbBlockBegin
  2
*D5
 70
     1
 10
0.0
 20
0.0
 30
0.0
  3
*D5
  1

  0
SOLID
  5
1F5
330
1F2
100
AcDbEntity
  8
VERMASSUNG
100
AcDbTrace
 10
197.1239910391
 20
157.496099675
 30
0.0
 11
194.1239910391
 21
157.946099675
 31
0.0
 12
194.1239910391
 22
157.046099675
 32
0.0
 13
194.1239910391
 23
157.046099675
 33
0.0
  0
SOLID
  5
1F6
330
1F2
100
AcDbEntity
  8
VERMASSUNG
100
AcDbTrace
 10
100.2239910391
 20
157.496099675
 30
0.0
 11
103.2239910391
 21
157.046099675
 31
0.0
 12
103.2239910391
 22
157.946099675
 32
0.0
 13
103.2239910391
 23
157.946099675
 33
0.0
  0
LINE
  5
1F7
330
1F2
100
AcDbEntity
  8
VERMASSUNG
100
AcDbLine
 10
197.1239910391
 20
117.8046118162
 30
0.0
 11
197.1239910391
 21
158.496099675
 31
0.0
  0
LINE
  5
1F8
330
1F2
100
AcDbEntity
  8
VERMASSUNG
100
AcDbLine
 10
100.2239910391
 20
130.2694300843
 30
0.0
 11
100.2239910391
 21
158.496099675
 31
0.0
  0
LINE
  5
1F9
330
1F2
100
AcDbEntity
  8
VERMASSUNG
100
AcDbLine
 10
197.1239910391
 20
157.496099675
 30
0.0
 11
100.2239910391
 21
157.496099675
 31
0.0
  0
MTEXT
  5
1FA
330
1F2
100
AcDbEntity
  8
VERMASSUNG
100
AcDbMText
 10
146.2743940727
 20
160.0742350381
 30
0.0
 40
2.0
 41
0.0
 71
     1
 72
     1
  1
96.9
  7
SLDTEXTSTYLE0
 73
     1
 44
1.0
  0
ENDBLK
  5
1F4
330
1F2
100
AcDbEntity
  8
0
100
AcDbBlockEnd
  0
BLOCK
  5
1FD
330
1FC
100
AcDbEntity
  8
0
100
AcDbBlockBegin
  2
*D6
 70
     1
 10
0.0
 20
0.0
 30
0.0
  3
*D6
  1

  0
SOLID
  5
1FF
330
1FC
100
AcDbEntity
  8
VERMASSUNG
100
AcDbTrace
 10
208.4130958467
 20
125.5787523378
 30
0.0
 11
207.9630958467
 21
122.5787523378
 31
0.0
 12
208.8630958467
 22
122.5787523378
 32
0.0
 13
208.8630958467
 23
122.5787523378
 33
0.0
  0
SOLID
  5
200
330
1FC
100
AcDbEntity
  8
VERMASSUNG
100
AcDbTrace
 10
208.4130958467
 20
95.5787523378
 30
0.0
 11
208.8630958467
 21
98.5787523378
 31
0.0
 12
207.9630958467
 22
98.5787523378
 32
0.0
 13
207.9630958467
 23
98.5787523378
 33
0.0
  0
LINE
  5
201
330
1FC
100
AcDbEntity
  8
VERMASSUNG
100
AcDbLine
 10
183.1846960558
 20
125.5787523378
 30
0.0
 11
209.4130958467
 21
125.5787523378
 31
0.0
  0
LINE
  5
202
330
1FC
100
AcDbEntity
  8
VERMASSUNG
100
AcDbLine
 10
183.1846960558
 20
95.5787523378
 30
0.0
 11
209.4130958467
 21
95.5787523378
 31
0.0
  0
LINE
  5
203
330
1FC
100
AcDbEntity
  8
VERMASSUNG
100
AcDbLine
 10
208.4130958467
 20
125.5787523378
 30
0.0
 11
208.4130958467
 21
95.5787523378
 31
0.0
  0
MTEXT
  5
204
330
1FC
100
AcDbEntity
  8
VERMASSUNG
100
AcDbMText
 10
205.8349603671
 20
107.3750351114
 30
0.0
 40
2.0
 41
0.0
 71
     1
 72
     1
  1
%%c
  7
SLDTEXTSTYLE0
 11
-7.044195017643634E-15
 21
1.0
 31
0.0
 73
     1
 44
1.0
  0
MTEXT
  5
205
330
1FC
100
AcDbEntity
  8
VERMASSUNG
100
AcDbMText
 10
205.8349604836
 20
110.9837133345
 30
0.0
 40
2.0
 41
0.0
 71
     1
 72
     1
  1
30
  7
SLDTEXTSTYLE0
 11
-7.044195017643634E-15
 21
1.0
 31
0.0
 73
     1
 44
1.0
  0
ENDBLK
  5
1FE
330
1FC
100
AcDbEntity
  8
0
100
AcDbBlockEnd
  0
ENDSEC
  0
SECTION
  2
ENTITIES
  0
MTEXT
  5
45
330
1F
100
AcDbEntity
  8
KOPF_DÜNN
100
AcDbMText
 10
13.8892156294
 20
23.8442973028
 30
0.0
 40
3.0
 41
0.0
 71
     1
 72
     1
  1
HA6.W06.K21.065
  7
SLDTEXTSTYLE0
 73
     1
 44
1.0
  0
MTEXT
  5
46
330
1F
100
AcDbEntity
  8
VERMASSUNG
100
AcDbMText
 10
13.9329988022
 20
28.8834360957
 30
0.0
 40
3.0
 41
0.0
 71
     1
 72
     1
  1
Flächenspannfutter_End mill adapter Weldon ø6
  7
SLDTEXTSTYLE0
 73
     1
 44
1.0
  0
MTEXT
  5
47
330
1F
100
AcDbEntity
  8
VERMASSUNG
100
AcDbMText
 10
98.8601118557
 20
13.8365368179
 30
0.0
 40
2.0
 41
0.0
 71
     1
 72
     1
  1
Datum: 09.10.2006
  7
SLDTEXTSTYLE0
 73
     1
 44
1.0
  0
MTEXT
  5
49
330
1F
100
AcDbEntity
  8
VERMASSUNG
100
AcDbMText
 10
13.933048693
 20
18.0482802738
 30
0.0
 40
2.0
 41
0.0
 71
     1
 72
     1
  1
DIN 69 893 HSK A 63
  7
SLDTEXTSTYLE1
 73
     1
 44
1.0
  0
MTEXT
  5
4A
330
1F
100
AcDbEntity
  8
VERMASSUNG
100
AcDbMText
 10
13.9808475933
 20
13.9090973692
 30
0.0
 40
2.0
 41
0.0
 71
     1
 72
     1
  1
Gewicht: 806g
  7
SLDTEXTSTYLE0
 73
     1
 44
1.0
  0
LINE
  5
4B
330
1F
100
AcDbEntity
  8
0
  6
Continuous
 62
     7
370
    15
100
AcDbLine
 10
132.4239910391
 20
79.0787523378
 30
0.0
 11
137.0739910391
 21
79.0787523378
 31
0.0
  0
LINE
  5
4C
330
1F
100
AcDbEntity
  8
0
  6
Continuous
 62
     7
370
    15
100
AcDbLine
 10
137.1019793982
 20
142.0787523378
 30
0.0
 11
132.4239910391
 21
142.0787523378
 31
0.0
  0
ARC
  5
4D
330
1F
100
AcDbEntity
  8
0
  6
Continuous
 62
     7
370
    15
100
AcDbCircle
 10
132.4239910391
 20
79.3787523378
 30
0.0
 40
0.3000000000000114
100
AcDbArc
 50
180.0
 51
270.0
  0
ARC
  5
4E
330
1F
100
AcDbEntity
  8
0
  6
Continuous
 62
     7
370
    15
100
AcDbCircle
 10
132.4239910391
 20
141.7787523378
 30
0.0
 40
0.3000000000000398
100
AcDbArc
 50
90.0
 51
180.0
  0
ARC
  5
4F
330
1F
100
AcDbEntity
  8
0
  6
Continuous
 62
     7
370
    15
100
AcDbCircle
 10
131.6239842864
 20
86.0083147234
 30
0.0
 40
0.6000067526677242
100
AcDbArc
 50
33.5571153394
 51
90.0
  0
ARC
  5
50
330
1F
100
AcDbEntity
  8
0
  6
Continuous
 62
     7
370
    15
100
AcDbCircle
 10
131.6239842864
 20
135.1491899522
 30
0.0
 40
0.6000067526677242
100
AcDbArc
 50
270.0
 51
326.4428846606
  0
LINE
  5
51
330
1F
100
AcDbEntity
  8
0
  6
Continuous
 62
     7
370
    15
100
AcDbLine
 10
130.1239910391
 20
86.3583214761
 30
0.0
 11
130.9807038125
 21
86.5878769718
 31
0.0
  0
LINE
  5
52
330
1F
100
AcDbEntity
  8
0
  6
Continuous
 62
     7
370
    15
100
AcDbLine
 10
130.9807038125
 20
134.5696277037
 30
0.0
 11
130.1239910391
 21
134.7991831995
 31
0.0
  0
LINE
  5
53
330
1F
100
AcDbEntity
  8
0
  6
Continuous
 62
     7
370
    15
100
AcDbLine
 10
118.8924822403
 20
134.2364823579
 30
0.0
 11
106.3239910391
 21
133.60679843
 31
0.0
  0
LINE
  5
54
330
1F
100
AcDbEntity
  8
0
  6
Continuous
 62
     7
370
    15
100
AcDbLine
 10
130.1239910391
 20
134.7991831995
 30
0.0
 11
127.3069893817
 21
134.658050852
 31
0.0
  0
LINE
  5
55
330
1F
100
AcDbEntity
  8
0
  6
Continuous
 62
     7
370
    15
100
AcDbLine
 10
127.3070454718
 20
86.4994510135
 30
0.0
 11
130.1239910391
 21
86.3583214761
 31
0.0
  0
LINE
  5
56
330
1F
100
AcDbEntity
  8
0
  6
Continuous
 62
     7
370
    15
100
AcDbLine
 10
110.3239910391
 20
87.350305444
 30
0.0
 11
118.8928847589
 21
86.9210021514
 31
0.0
  0
ARC
  5
57
330
1F
100
AcDbEntity
  8
0
  6
Continuous
 62
     7
370
    15
100
AcDbCircle
 10
131.1359952395
 20
86.0083214761
 30
0.0
 40
0.6000000000000145
100
AcDbArc
 50
90.0
 51
105.0
  0
ARC
  5
58
330
1F
100
AcDbEntity
  8
0
  6
Continuous
 62
     7
370
    15
100
AcDbCircle
 10
131.1359952395
 20
135.1491831995
 30
0.0
 40
0.6000000000000008
100
AcDbArc
 50
255.0
 51
270.0
  0
LINE
  5
59
330
1F
100
AcDbEntity
  8
0
  6
Continuous
 62
     7
370
    15
100
AcDbLine
 10
131.1359952395
 20
86.6083214761
 30
0.0
 11
131.6239842864
 21
86.6083214761
 31
0.0
  0
LINE
  5
5A
330
1F
100
AcDbEntity
  8
0
  6
Continuous
 62
     7
370
    15
100
AcDbLine
 10
131.6239842864
 20
134.5491831995
 30
0.0
 11
131.1359952395
 21
134.5491831995
 31
0.0
  0
ARC
  5
5B
330
1F
100
AcDbEntity
  8
0
  6
Continuous
 62
     7
370
    15
100
AcDbCircle
 10
159.0739910391
 20
94.5787523378
 30
0.0
 40
1.0
100
AcDbArc
 50
90.0
 51
180.0
  0
ARC
  5
5C
330
1F
100
AcDbEntity
  8
0
  6
Continuous
 62
     7
370
    15
100
AcDbCircle
 10
159.0739910391
 20
126.5787523378
 30
0.0
 40
1.0
100
AcDbArc
 50
180.0
 51
270.0
  0
LINE
  5
5D
330
1F
100
AcDbEntity
  8
0
  6
Continuous
 62
     7
370
    15
100
AcDbLine
 10
170.5484982541
 20
95.5787523378
 30
0.0
 11
183.1846960558
 21
95.5787523378
 31
0.0
  0
LINE
  5
5E
330
1F
100
AcDbEntity
  8
0
  6
Continuous
 62
     7
370
    15
100
AcDbLine
 10
159.0739910391
 20
95.5787523378
 30
0.0
 11
163.6097469031
 21
95.5787523378
 31
0.0
  0
LINE
  5
5F
330
1F
100
AcDbEntity
  8
0
  6
Continuous
 62
     7
370
    15
100
AcDbLine
 10
163.5787808411
 20
125.5787523378
 30
0.0
 11
159.0739910391
 21
125.5787523378
 31
0.0
  0
LINE
  5
60
330
1F
100
AcDbEntity
  8
0
  6
Continuous
 62
     7
370
    15
100
AcDbLine
 10
183.1846960558
 20
125.5787523378
 30
0.0
 11
170.5341306443
 21
125.5787523378
 31
0.0
  0
LINE
  5
61
330
1F
100
AcDbEntity
  8
0
  6
Continuous
 62
     7
370
    15
100
AcDbLine
 10
183.1846960558
 20
95.5787523378
 30
0.0
 11
195.9692275626
 21
101.5402772853
 31
0.0
  0
LINE
  5
62
330
1F
100
AcDbEntity
  8
0
  6
Continuous
 62
     7
370
    15
100
AcDbLine
 10
195.9692275626
 20
119.6172273902
 30
0.0
 11
183.1846960558
 21
125.5787523378
 31
0.0
  0
LINE
  5
63
330
1F
100
AcDbEntity
  8
0
  6
Continuous
 62
     7
370
    15
100
AcDbLine
 10
101.5073276791
 20
89.7087523378
 30
0.0
 11
108.9239910391
 21
89.7087523378
 31
0.0
  0
ARC
  5
64
330
1F
100
AcDbEntity
  8
0
  6
Continuous
 62
     7
370
    15
100
AcDbCircle
 10
108.9239910391
 20
88.3087523378
 30
0.0
 40
1.399999999999997
100
AcDbArc
 50
42.2465410162
 51
90.0
  0
LINE
  5
65
330
1F
100
AcDbEntity
  8
0
  6
Continuous
 62
     7
370
    15
100
AcDbLine
 10
100.2250235333
 20
90.8577198436
 30
0.0
 11
101.3651544973
 21
89.7175888796
 31
0.0
  0
LINE
  5
66
330
1F
100
AcDbEntity
  8
0
  6
Continuous
 62
     7
370
    15
100
AcDbLine
 10
101.3651544973
 20
131.439915796
 30
0.0
 11
100.2338918125
 21
130.3086531112
 31
0.0
  0
ARC
  5
67
330
1F
100
AcDbEntity
  8
0
  6
Continuous
 62
     7
370
    15
100
AcDbCircle
 10
104.9239910391
 20
132.8487523378
 30
0.0
 40
1.400000000000006
100
AcDbArc
 50
270.0
 51
302.5610026528
  0
LINE
  5
68
330
1F
100
AcDbEntity
  8
0
  6
Continuous
 62
     7
370
    15
100
AcDbLine
 10
104.9239910391
 20
131.4487523378
 30
0.0
 11
101.5148794405
 21
131.4487523378
 31
0.0
  0
ARC
  5
69
330
1F
100
AcDbEntity
  8
0
  6
Continuous
 62
     7
370
    15
100
AcDbCircle
 10
195.1239910391
 20
103.3528928594
 30
0.0
 40
2.000000000000028
100
AcDbArc
 50
295.0
 51
0.0
  0
ARC
  5
6A
330
1F
100
AcDbEntity
  8
0
  6
Continuous
 62
     7
370
    15
100
AcDbCircle
 10
195.1239910391
 20
117.8046118162
 30
0.0
 40
2.000000000000028
100
AcDbArc
 50
0.0
 51
65.0
  0
LINE
  5
6B
330
1F
100
AcDbEntity
  8
0
  6
Continuous
 62
     7
370
    15
100
AcDbLine
 10
197.1239910391
 20
105.1759525395
 30
0.0
 11
197.1888919747
 21
105.2961330856
 31
0.0
  0
LINE
  5
6C
330
1F
100
AcDbEntity
  8
0
  6
Continuous
 62
     7
370
    15
100
AcDbLine
 10
197.1300022511
 20
115.8630076821
 30
0.0
 11
197.1239910391
 21
115.874138966
 31
0.0
  0
CIRCLE
  5
6D
330
1F
100
AcDbEntity
  8
0
  6
Continuous
 62
     7
370
    15
100
AcDbCircle
 10
179.6239910391
 20
110.5787523378
 30
0.0
 40
2.49999999999999
  0
LINE
  5
6E
330
1F
100
AcDbEntity
  8
0
  6
Continuous
 62
     7
370
    15
100
AcDbLine
 10
180.2961059758
 20
112.1750798455
 30
0.0
 11
178.577588333
 21
111.9589847011
 31
0.0
  0
LINE
  5
6F
330
1F
100
AcDbEntity
  8
0
  6
Continuous
 62
     7
370
    15
100
AcDbLine
 10
178.9518761024
 20
108.9824248301
 30
0.0
 11
177.9054733963
 21
110.3626571934
 31
0.0
  0
LINE
  5
70
330
1F
100
AcDbEntity
  8
0
  6
Continuous
 62
     7
370
    15
100
AcDbLine
 10
181.3425086819
 20
110.7948474822
 30
0.0
 11
180.6703937452
 21
109.1985199745
 31
0.0
  0
LINE
  5
71
330
1F
100
AcDbEntity
  8
0
  6
Continuous
 62
     7
370
    15
100
AcDbLine
 10
181.3425086819
 20
110.7948474822
 30
0.0
 11
180.2961059758
 21
112.1750798455
 31
0.0
  0
LINE
  5
72
330
1F
100
AcDbEntity
  8
0
  6
Continuous
 62
     7
370
    15
100
AcDbLine
 10
178.9518761024
 20
108.9824248301
 30
0.0
 11
180.6703937452
 21
109.1985199745
 31
0.0
  0
LINE
  5
73
330
1F
100
AcDbEntity
  8
0
  6
Continuous
 62
     7
370
    15
100
AcDbLine
 10
177.9054733963
 20
110.3626571934
 30
0.0
 11
178.577588333
 21
111.9589847011
 31
0.0
  0
SPLINE
  5
74
330
1F
100
AcDbEntity
  8
0
  6
Continuous
 62
     7
370
    15
100
AcDbSpline
210
0.0
220
0.0
230
1.0
 70
     8
 71
     3
 72
    70
 73
    66
 74
     0
 42
0.00000001
 43
0.00000001
 40
-0.03125
 40
-0.03125
 40
0.0
 40
0.0
 40
0.0312500000000002
 40
0.0312500000000002
 40
0.0625000000000004
 40
0.0625000000000004
 40
0.0937500000000005
 40
0.0937500000000005
 40
0.1250000000000007
 40
0.1250000000000007
 40
0.1562500000000009
 40
0.1562500000000009
 40
0.1875000000000011
 40
0.1875000000000011
 40
0.2187500000000013
 40
0.2187500000000013
 40
0.2500000000000014
 40
0.2500000000000014
 40
0.2812500000000014
 40
0.2812500000000014
 40
0.3125000000000014
 40
0.3125000000000014
 40
0.3437500000000015
 40
0.3437500000000015
 40
0.3750000000000015
 40
0.3750000000000015
 40
0.4062500000000015
 40
0.4062500000000015
 40
0.4375000000000015
 40
0.4375000000000015
 40
0.4687500000000016
 40
0.4687500000000016
 40
0.5000000000000016
 40
0.5000000000000016
 40
0.5312500000000014
 40
0.5312500000000014
 40
0.5625000000000012
 40
0.5625000000000012
 40
0.5937500000000011
 40
0.5937500000000011
 40
0.6250000000000009
 40
0.6250000000000009
 40
0.6562500000000008
 40
0.6562500000000008
 40
0.6875000000000007
 40
0.6875000000000007
 40
0.7187500000000004
 40
0.7187500000000004
 40
0.7500000000000003
 40
0.7500000000000003
 40
0.7812500000000003
 40
0.7812500000000003
 40
0.8125000000000002
 40
0.8125000000000002
 40
0.8437500000000002
 40
0.8437500000000002
 40
0.8750000000000001
 40
0.8750000000000001
 40
0.9062500000000001
 40
0.9062500000000001
 40
0.9375000000000001
 40
0.9375000000000001
 40
0.96875
 40
0.96875
 40
1.0
 40
1.0
 40
1.03125
 40
1.03125
 10
139.859445700423
 20
135.6377157325687
 30
0.0
 10
140.3885363777433
 20
135.6377157325687
 30
0.0
 10
140.6486070451204
 20
135.6536161729835
 30
0.0
 10
141.1601817249558
 20
135.7155605231578
 30
0.0
 10
141.414357008696
 20
135.7623627572491
 30
0.0
 10
141.8986276387577
 20
135.8833397407041
 30
0.0
 10
142.1282687306389
 20
135.956942068511
 30
0.0
 10
142.5628730788724
 20
136.1287663394891
 30
0.0
 10
142.768438855519
 20
136.2277697624165
 30
0.0
 10
143.1369959961142
 20
136.4408661763293
 30
0.0
 10
143.3024769788497
 20
136.555765892459
 30
0.0
 10
143.5949014882848
 20
136.8011327911493
 30
0.0
 10
143.7190024649113
 20
136.9295726916196
 30
0.0
 10
143.918581661661
 20
137.1904648397055
 30
0.0
 10
143.9955152475193
 20
137.324846011045
 30
0.0
 10
144.0983723060397
 20
137.5941659621513
 30
0.0
 10
144.1238452154988
 20
137.7268472263694
 30
0.0
 10
144.1241356260665
 20
137.9880337005005
 30
0.0
 10
144.0981109922908
 20
138.1177987386652
 30
0.0
 10
143.9959627077988
 20
138.3633813729379
 30
0.0
 10
143.9203862602157
 20
138.4800429102467
 30
0.0
 10
143.7198887290707
 20
138.7019481004013
 30
0.0
 10
143.5947598875623
 20
138.8065593543243
 30
0.0
 10
143.3054010865408
 20
138.9966057659324
 30
0.0
 10
143.1399900994853
 20
139.083365437382
 30
0.0
 10
142.7669995413375
 20
139.2408698131336
 30
0.0
 10
142.5652665082484
 20
139.3091950779208
 30
0.0
 10
142.1324072574205
 20
139.42742480154
 30
0.0
 10
141.8984887245311
 20
139.4777197176439
 30
0.0
 10
141.4143049893885
 20
139.5575852545335
 30
0.0
 10
141.164989363433
 20
139.5873263823331
 30
0.0
 10
140.6519568390053
 20
139.6274791238413
 30
0.0
 10
140.3866630161006
 20
139.6376773932512
 30
0.0
 10
139.8643283962309
 20
139.6377538516358
 30
0.0
 10
139.6045747337492
 20
139.6279628400268
 30
0.0
 10
139.0879629181039
 20
139.5878960012881
 30
0.0
 10
138.8355968776036
 20
139.5577988344313
 30
0.0
 10
138.3540717560708
 20
139.4785766246011
 30
0.0
 10
138.1212210239572
 20
139.4288191451377
 30
0.0
 10
137.6841311755185
 20
139.3097272026873
 30
0.0
 10
137.4828101868613
 20
139.24141194114
 30
0.0
 10
137.1137241615614
 20
139.0860109742065
 30
0.0
 10
136.9447394105097
 20
138.9978586321396
 30
0.0
 10
136.6542833538505
 20
138.8074192430232
 30
0.0
 10
136.5312115424884
 20
138.7047946653242
 30
0.0
 10
136.3298753010664
 20
138.4831543187161
 30
0.0
 10
136.2526627551241
 20
138.3644002431685
 30
0.0
 10
136.150459212224
 20
138.1197343042508
 30
0.0
 10
136.1242308607717
 20
137.9925775788023
 30
0.0
 10
136.1237544614546
 20
137.7281294329468
 30
0.0
 10
136.1494968739526
 20
137.5952287526896
 30
0.0
 10
136.2508076503164
 20
137.3284364792075
 30
0.0
 10
136.3276402897074
 20
137.193072577739
 30
0.0
 10
136.5280441289225
 20
136.9304927824364
 30
0.0
 10
136.6507156272146
 20
136.8035176226827
 30
0.0
 10
136.9406629163788
 20
136.5594382366002
 30
0.0
 10
137.1092338957441
 20
136.4420131118464
 30
0.0
 10
137.4775034898572
 20
136.228816650898
 30
0.0
 10
137.6785653471275
 20
136.1316425324731
 30
0.0
 10
138.1155962657125
 20
135.9582876452589
 30
0.0
 10
138.3477444788421
 20
135.8838880936022
 30
0.0
 10
138.828754760341
 20
135.7634352140975
 30
0.0
 10
139.0808548431714
 20
135.7165768388315
 30
0.0
 10
139.5979243294304
 20
135.6536193418478
 30
0.0
 10
139.859445700423
 20
135.6377157325687
 30
0.0
 10
140.3885363777433
 20
135.6377157325687
 30
0.0
  0
SPLINE
  5
75
330
1F
100
AcDbEntity
  8
0
  6
Continuous
 62
     7
370
    15
100
AcDbSpline
210
0.0
220
0.0
230
1.0
 70
     8
 71
     3
 72
    70
 73
    66
 74
     0
 42
0.00000001
 43
0.00000001
 40
-0.0312499999999998
 40
-0.0312499999999998
 40
0.0
 40
0.0
 40
0.0312500000000001
 40
0.0312500000000001
 40
0.0625000000000002
 40
0.0625000000000002
 40
0.0937500000000003
 40
0.0937500000000003
 40
0.1250000000000004
 40
0.1250000000000004
 40
0.1562500000000005
 40
0.1562500000000005
 40
0.1875000000000006
 40
0.1875000000000006
 40
0.2187500000000007
 40
0.2187500000000007
 40
0.2500000000000008
 40
0.2500000000000008
 40
0.2812500000000009
 40
0.2812500000000009
 40
0.3125000000000011
 40
0.3125000000000011
 40
0.3437500000000012
 40
0.3437500000000012
 40
0.3750000000000012
 40
0.3750000000000012
 40
0.4062500000000013
 40
0.4062500000000013
 40
0.4375000000000014
 40
0.4375000000000014
 40
0.4687500000000016
 40
0.4687500000000016
 40
0.5000000000000017
 40
0.5000000000000017
 40
0.5312500000000018
 40
0.5312500000000018
 40
0.5625000000000019
 40
0.5625000000000019
 40
0.593750000000002
 40
0.593750000000002
 40
0.6250000000000021
 40
0.6250000000000021
 40
0.6562500000000022
 40
0.6562500000000022
 40
0.6875000000000023
 40
0.6875000000000023
 40
0.7187500000000021
 40
0.7187500000000021
 40
0.7500000000000018
 40
0.7500000000000018
 40
0.7812500000000016
 40
0.7812500000000016
 40
0.8125000000000013
 40
0.8125000000000013
 40
0.8437500000000011
 40
0.8437500000000011
 40
0.8750000000000009
 40
0.8750000000000009
 40
0.9062500000000007
 40
0.9062500000000007
 40
0.9375000000000004
 40
0.9375000000000004
 40
0.9687500000000002
 40
0.9687500000000002
 40
1.0
 40
1.0
 40
1.03125
 40
1.03125
 10
139.859445700423
 20
121.1996592237729
 30
0.0
 10
140.3885363777433
 20
121.1996592237729
 30
0.0
 10
140.6486070451204
 20
121.2243365185581
 30
0.0
 10
141.1601817249558
 20
121.3208081916
 30
0.0
 10
141.414357008696
 20
121.39378910758
 30
0.0
 10
141.8986276387577
 20
121.5835297105187
 30
0.0
 10
142.1282687306389
 20
121.6993903689124
 30
0.0
 10
142.5628730788724
 20
121.9720082148701
 30
0.0
 10
142.768438855519
 20
122.1300472969239
 30
0.0
 10
143.1369959961142
 20
122.4735901478945
 30
0.0
 10
143.3024769788497
 20
122.6603525919962
 30
0.0
 10
143.5949014882848
 20
123.063895766393
 30
0.0
 10
143.7190024649113
 20
123.2773927628222
 30
0.0
 10
143.918581661661
 20
123.7167760767447
 30
0.0
 10
143.9955152475193
 20
123.9459160638903
 30
0.0
 10
144.0983723060396
 20
124.4118901866503
 30
0.0
 10
144.1238452154988
 20
124.6447726323265
 30
0.0
 10
144.1241356260665
 20
125.1101701674063
 30
0.0
 10
144.0981109922908
 20
125.3450459248006
 30
0.0
 10
143.9959627077988
 20
125.7965390720469
 30
0.0
 10
143.9203862602157
 20
126.0145855474583
 30
0.0
 10
143.7198887290707
 20
126.4356800724961
 30
0.0
 10
143.5947598875623
 20
126.6376014570144
 30
0.0
 10
143.3054010865408
 20
127.0096309395333
 30
0.0
 10
143.1399900994853
 20
127.1822592431137
 30
0.0
 10
142.7669995413374
 20
127.4995772476596
 30
0.0
 10
142.5652665082484
 20
127.6393641811613
 30
0.0
 10
142.1324072574205
 20
127.8835404347131
 30
0.0
 10
141.8984887245311
 20
127.9887699457546
 30
0.0
 10
141.4143049893885
 20
128.1569270921297
 30
0.0
 10
141.164989363433
 20
128.2201779827236
 30
0.0
 10
140.6519568390053
 20
128.3057571918262
 30
0.0
 10
140.3866630161006
 20
128.3276293567486
 30
0.0
 10
139.8643283962309
 20
128.3277930063925
 30
0.0
 10
139.6045747337492
 20
128.3067913142965
 30
0.0
 10
139.0879629181039
 20
128.2213889592189
 30
0.0
 10
138.8355968776036
 20
128.1573827759319
 30
0.0
 10
138.3540717560708
 20
127.9905682558907
 30
0.0
 10
138.1212210239572
 20
127.8864350924916
 30
0.0
 10
137.6841311755185
 20
127.6404484399966
 30
0.0
 10
137.4828101868613
 20
127.5006986090477
 30
0.0
 10
137.1137241615614
 20
127.1875605393232
 30
0.0
 10
136.9447394105097
 20
127.0121043800531
 30
0.0
 10
136.6542833538505
 20
126.6392641159529
 30
0.0
 10
136.5312115424883
 20
126.4411423058419
 30
0.0
 10
136.3298753010664
 20
126.0204309631083
 30
0.0
 10
136.2526627551241
 20
125.7984409424407
 30
0.0
 10
136.150459212224
 20
125.3485760027324
 30
0.0
 10
136.1242308607717
 20
125.1183205896156
 30
0.0
 10
136.1237544614546
 20
124.6470046470665
 30
0.0
 10
136.1494968739526
 20
124.4137672313524
 30
0.0
 10
136.2508076503164
 20
123.9520906918543
 30
0.0
 10
136.3276402897074
 20
123.7211933047422
 30
0.0
 10
136.5280441289226
 20
123.2789172909505
 30
0.0
 10
136.6507156272146
 20
123.0678548596646
 30
0.0
 10
136.9406629163788
 20
122.6663563489319
 30
0.0
 10
137.1092338957441
 20
122.475449826856
 30
0.0
 10
137.4775034898572
 20
122.1317244948589
 30
0.0
 10
137.6785653471275
 20
121.9765873086449
 30
0.0
 10
138.1155962657125
 20
121.7015099485651
 30
0.0
 10
138.3477444788421
 20
121.5843937191431
 30
0.0
 10
138.828754760341
 20
121.3954672340786
 30
0.0
 10
139.0808548431714
 20
121.3223922636843
 30
0.0
 10
139.5979243294304
 20
121.2243402045498
 30
0.0
 10
139.859445700423
 20
121.1996592237729
 30
0.0
 10
140.3885363777433
 20
121.1996592237729
 30
0.0
  0
LINE
  5
76
330
1F
100
AcDbEntity
  8
0
  6
Continuous
 62
     7
370
    15
100
AcDbLine
 10
137.0739910391
 20
130.4287523378
 30
0.0
 11
146.7320582076
 21
130.4287523378
 31
0.0
  0
LINE
  5
77
330
1F
100
AcDbEntity
  8
0
  6
Continuous
 62
     7
370
    15
100
AcDbLine
 10
146.7320582076
 20
80.3918346415
 30
0.0
 11
146.7320582076
 21
130.4287523378
 31
0.0
  0
LINE
  5
78
330
1F
100
AcDbEntity
  8
0
  6
Continuous
 62
     7
370
    15
100
AcDbLine
 10
146.7320582076
 20
80.3918346415
 30
0.0
 11
145.0739910391
 21
80.3918346415
 31
0.0
  0
SPLINE
  5
79
330
1F
100
AcDbEntity
  8
0
  6
Continuous
 62
     7
370
    15
100
AcDbSpline
210
0.0
220
0.0
230
1.0
 70
     8
 71
     3
 72
    28
 73
    24
 74
     0
 42
0.00000001
 43
0.00000001
 40
0.0
 40
0.0
 40
0.0
 40
0.0
 40
0.1250000000000001
 40
0.1250000000000001
 40
0.1875000000000001
 40
0.1875000000000001
 40
0.2500000000000001
 40
0.2500000000000001
 40
0.3749999999999999
 40
0.3749999999999999
 40
0.4375
 40
0.4375
 40
0.4999999999999999
 40
0.4999999999999999
 40
0.6249999999999999
 40
0.6249999999999999
 40
0.7499999999999997
 40
0.7499999999999997
 40
0.8124999999999998
 40
0.8124999999999998
 40
0.8749999999999998
 40
0.8749999999999998
 40
1.0
 40
1.0
 40
1.0
 40
1.0
 10
145.0739910390831
 20
80.39183464154237
 30
0.0
 10
144.5422832815902
 20
80.39183464154237
 30
0.0
 10
144.0200447162799
 20
80.37604992759216
 30
0.0
 10
143.2501742300049
 20
80.33105451351597
 30
0.0
 10
142.9958146578136
 20
80.31249951844022
 30
0.0
 10
142.491693077115
 20
80.26864679599372
 30
0.0
 10
142.2419702596871
 20
80.24330218904151
 30
0.0
 10
141.5163803082407
 20
80.15990011129142
 30
0.0
 10
141.0580200466592
 20
80.09403455214034
 30
0.0
 10
140.4075221032653
 20
79.98506421164853
 30
0.0
 10
140.1958400524728
 20
79.94682457588189
 30
0.0
 10
139.7917685633348
 20
79.86906583846253
 30
0.0
 10
139.599262049514
 20
79.82956487628718
 30
0.0
 10
139.0494270784927
 20
79.71065713392119
 30
0.0
 10
138.7194983001839
 20
79.63083945249657
 30
0.0
 10
138.1350270316152
 20
79.47749629070051
 30
0.0
 10
137.8887498936018
 20
79.40616253743127
 30
0.0
 10
137.5889071009037
 20
79.31221903035664
 30
0.0
 10
137.5004502438315
 20
79.2830252369967
 30
0.0
 10
137.3470888905264
 20
79.2295586627333
 30
0.0
 10
137.2820006763001
 20
79.20519932845811
 30
0.0
 10
137.1264066603593
 20
79.14160918301339
 30
0.0
 10
137.0739910390831
 20
79.11150624792413
 30
0.0
 10
137.0739910390831
 20
79.09462935492719
 30
0.0
  0
LINE
  5
7A
330
1F
100
AcDbEntity
  8
0
  6
Continuous
 62
     7
370
    15
100
AcDbLine
 10
137.0739910391
 20
79.0946293549
 30
0.0
 11
137.0739910391
 21
79.0787523378
 31
0.0
  0
SPLINE
  5
7B
330
1F
100
AcDbEntity
  8
0
  6
Continuous
 62
     7
370
    15
100
AcDbSpline
210
0.0
220
0.0
230
1.0
 70
     8
 71
     3
 72
    17
 73
    13
 74
     0
 42
0.00000001
 43
0.00000001
 40
0.0
 40
0.0
 40
0.0
 40
0.0
 40
0.1034796923964056
 40
0.210023918880785
 40
0.3134862136955583
 40
0.4198361274354882
 40
0.5254127712915682
 40
0.633961069541979
 40
0.7409508756305031
 40
0.8511696089308174
 40
0.9558996534551937
 40
1.0
 40
1.0
 40
1.0
 40
1.0
 10
145.0739910390831
 20
141.0459478109538
 30
0.0
 10
144.6387426899731
 20
141.0513960074871
 30
0.0
 10
143.7553561834081
 20
141.0624537479989
 30
0.0
 10
142.4745285981795
 20
141.1488121409005
 30
0.0
 10
141.2571120623054
 20
141.2766823174383
 30
0.0
 10
140.1493062100589
 20
141.4356276160314
 30
0.0
 10
139.1610674061107
 20
141.610121303747
 30
0.0
 10
138.3363438485791
 20
141.7792871543869
 30
0.0
 10
137.6873903479198
 20
141.9271709369152
 30
0.0
 10
137.2703555324581
 20
142.028961521146
 30
0.0
 10
137.0717588194936
 20
142.0793130437492
 30
0.0
 10
137.0950715409269
 20
142.0734073595268
 30
0.0
 10
137.1019793981644
 20
142.0716574298322
 30
0.0
  0
LINE
  5
7C
330
1F
100
AcDbEntity
  8
0
  6
Continuous
 62
     7
370
    15
100
AcDbLine
 10
146.7320582076
 20
141.045947811
 30
0.0
 11
145.0739910391
 21
141.045947811
 31
0.0
  0
LINE
  5
7D
330
1F
100
AcDbEntity
  8
0
  6
Continuous
 62
     7
370
    15
100
AcDbLine
 10
146.7320582076
 20
135.0374420002
 30
0.0
 11
146.7320582076
 21
141.045947811
 31
0.0
  0
LINE
  5
7E
330
1F
100
AcDbEntity
  8
0
  6
Continuous
 62
     7
370
    15
100
AcDbLine
 10
144.3196113848
 20
135.0374420002
 30
0.0
 11
146.7320582076
 21
135.0374420002
 31
0.0
  0
SPLINE
  5
7F
330
1F
100
AcDbEntity
  8
0
  6
Continuous
 62
     7
370
    15
100
AcDbSpline
210
0.0
220
0.0
230
1.0
 70
     8
 71
     3
 72
    20
 73
    16
 74
     0
 42
0.00000001
 43
0.00000001
 40
0.0
 40
0.0
 40
0.0
 40
0.0
 40
0.2499999999999997
 40
0.2499999999999997
 40
0.3749999999999997
 40
0.3749999999999997
 40
0.4999999999999998
 40
0.4999999999999998
 40
0.6249999999999998
 40
0.6249999999999998
 40
0.7499999999999999
 40
0.7499999999999999
 40
0.8749999999999999
 40
0.8749999999999999
 40
1.0
 40
1.0
 40
1.0
 40
1.0
 10
137.0739910390831
 20
130.4287523377895
 30
0.0
 10
137.3223647733712
 20
131.0826147660869
 30
0.0
 10
137.6419348657165
 20
131.6864005480841
 30
0.0
 10
138.2642410989212
 20
132.5132392842527
 30
0.0
 10
138.4956653593519
 20
132.7756679222056
 30
0.0
 10
139.0168796990016
 20
133.2723305763106
 30
0.0
 10
139.3035001816367
 20
133.5029174553321
 30
0.0
 10
139.9229849229443
 20
133.9194716799147
 30
0.0
 10
140.2572853024313
 20
134.1069694818823
 30
0.0
 10
140.9825457750561
 20
134.4383664595186
 30
0.0
 10
141.3644608324465
 20
134.5778704470139
 30
0.0
 10
142.1592490086182
 20
134.8033239544849
 30
0.0
 10
142.5734072028246
 20
134.8899500660285
 30
0.0
 10
143.438953543406
 20
135.0079308548826
 30
0.0
 10
143.8768411584178
 20
135.037442000157
 30
0.0
 10
144.3196113847724
 20
135.037442000157
 30
0.0
  0
LINE
  5
80
330
1F
100
AcDbEntity
  8
0
  6
Continuous
 62
     7
370
    15
100
AcDbLine
 10
132.1239910391
 20
79.3787523378
 30
0.0
 11
132.1239910391
 21
141.7787523334
 31
0.0
  0
LINE
  5
81
330
1F
100
AcDbEntity
  8
0
  6
Continuous
 62
     7
370
    15
100
AcDbLine
 10
148.2139910391
 20
83.0809151787
 30
0.0
 11
148.2139910391
 21
130.4287523378
 31
0.0
  0
SPLINE
  5
82
330
1F
100
AcDbEntity
  8
0
  6
Continuous
 62
     7
370
    15
100
AcDbSpline
210
0.0
220
0.0
230
1.0
 70
     8
 71
     3
 72
     8
 73
     4
 74
     0
 42
0.00000001
 43
0.00000001
 40
0.0
 40
0.0
 40
0.0
 40
0.0
 40
1.0
 40
1.0
 40
1.0
 40
1.0
 10
148.2139910390831
 20
83.08091517873467
 30
0.0
 10
147.721651916302
 20
82.18364514452797
 30
0.0
 10
147.2275378682598
 20
81.28736072947572
 30
0.0
 10
146.7320582075941
 20
80.39183464154237
 30
0.0
  0
SPLINE
  5
83
330
1F
100
AcDbEntity
  8
0
  6
Continuous
 62
     7
370
    15
100
AcDbSpline
210
0.0
220
0.0
230
1.0
 70
    24
 71
     3
 72
     8
 73
     4
 74
     0
 42
0.00000001
 43
0.00000001
 40
0.0
 40
0.0
 40
0.0
 40
0.0
 40
1.0
 40
1.0
 40
1.0
 40
1.0
 10
146.7320582075941
 20
130.4287523377895
 30
0.0
 10
147.2387383157446
 20
130.4287523377895
 30
0.0
 10
147.7340390447182
 20
130.4287523377895
 30
0.0
 10
148.2139910390831
 20
130.4287523377895
 30
0.0
  0
LINE
  5
84
330
1F
100
AcDbEntity
  8
0
  6
Continuous
 62
     7
370
    15
100
AcDbLine
 10
158.0739910391
 20
81.0184749372
 30
0.0
 11
158.0739910391
 21
130.4287523378
 31
0.0
  0
SPLINE
  5
85
330
1F
100
AcDbEntity
  8
0
  6
Continuous
 62
     7
370
    15
100
AcDbSpline
210
0.0
220
0.0
230
1.0
 70
     8
 71
     3
 72
    10
 73
     6
 74
     0
 42
0.00000001
 43
0.00000001
 40
0.0
 40
0.0
 40
0.0
 40
0.0
 40
0.5
 40
0.5
 40
1.0
 40
1.0
 40
1.0
 40
1.0
 10
158.0739910390832
 20
81.01847493719669
 30
0.0
 10
158.0739910390832
 20
80.85858766900303
 30
0.0
 10
158.0126813878473
 20
80.69746041348843
 30
0.0
 10
157.7935817503122
 20
80.46336141513359
 30
0.0
 10
157.6355335439987
 20
80.39183464154237
 30
0.0
 10
157.4739910390831
 20
80.39183464154237
 30
0.0
  0
SPLINE
  5
86
330
1F
100
AcDbEntity
  8
0
  6
Continuous
 62
     7
370
    15
100
AcDbSpline
210
0.0
220
0.0
230
1.0
 70
    24
 71
     3
 72
    12
 73
     8
 74
     0
 42
0.00000001
 43
0.00000001
 40
0.0
 40
0.0
 40
0.0
 40
0.0
 40
0.2500000000000033
 40
0.2500000000000033
 40
0.5000000000000067
 40
0.5000000000000067
 40
1.0
 40
1.0
 40
1.0
 40
1.0
 10
157.4739910390831
 20
130.4287523377895
 30
0.0
 10
157.5642301067702
 20
130.4287523377895
 30
0.0
 10
157.6551282208767
 20
130.4287523377895
 30
0.0
 10
157.8097252573652
 20
130.4287523377895
 30
0.0
 10
157.8747036734733
 20
130.4287523377895
 30
0.0
 10
158.0265387014095
 20
130.4287523377895
 30
0.0
 10
158.0739910390832
 20
130.4287523377895
 30
0.0
 10
158.0739910390832
 20
130.4287523377895
 30
0.0
  0
LINE
  5
87
330
1F
100
AcDbEntity
  8
0
  6
Continuous
 62
     7
370
    15
100
AcDbLine
 10
157.4739910391
 20
80.3918346415
 30
0.0
 11
153.5159238706
 21
80.3918346415
 31
0.0
  0
LINE
  5
88
330
1F
100
AcDbEntity
  8
0
  6
Continuous
 62
     7
370
    15
100
AcDbLine
 10
153.5159238706
 20
80.3918346415
 30
0.0
 11
153.5159238706
 21
130.4287523378
 31
0.0
  0
LINE
  5
89
330
1F
100
AcDbEntity
  8
0
  6
Continuous
 62
     7
370
    15
100
AcDbLine
 10
153.5159238706
 20
130.4287523378
 30
0.0
 11
157.4739910391
 21
130.4287523378
 31
0.0
  0
SPLINE
  5
8A
330
1F
100
AcDbEntity
  8
0
  6
Continuous
 62
     7
370
    15
100
AcDbSpline
210
0.0
220
0.0
230
1.0
 70
     8
 71
     3
 72
     8
 73
     4
 74
     0
 42
0.00000001
 43
0.00000001
 40
0.0
 40
0.0
 40
0.0
 40
0.0
 40
1.0
 40
1.0
 40
1.0
 40
1.0
 10
153.5159238705722
 20
80.39183464154237
 30
0.0
 10
153.0204442099065
 20
81.28736072947574
 30
0.0
 10
152.5263301618643
 20
82.18364514452797
 30
0.0
 10
152.0339910390831
 20
83.08091517873467
 30
0.0
  0
LINE
  5
8B
330
1F
100
AcDbEntity
  8
0
  6
Continuous
 62
     7
370
    15
100
AcDbLine
 10
152.0339910391
 20
83.0809151787
 30
0.0
 11
152.0339910391
 21
130.4287523378
 31
0.0
  0
SPLINE
  5
8C
330
1F
100
AcDbEntity
  8
0
  6
Continuous
 62
     7
370
    15
100
AcDbSpline
210
0.0
220
0.0
230
1.0
 70
    24
 71
     3
 72
     8
 73
     4
 74
     0
 42
0.00000001
 43
0.00000001
 40
0.0
 40
0.0
 40
0.0
 40
0.0
 40
1.0
 40
1.0
 40
1.0
 40
1.0
 10
152.0339910390831
 20
130.4287523377895
 30
0.0
 10
152.513943033448
 20
130.4287523377895
 30
0.0
 10
153.0092437624217
 20
130.4287523377895
 30
0.0
 10
153.5159238705722
 20
130.4287523377895
 30
0.0
  0
ARC
  5
8D
330
1F
100
AcDbEntity
  8
0
  6
Continuous
 62
     7
370
    15
100
AcDbCircle
 10
140.1252955266
 20
122.4675871021
 30
0.0
 40
4.120568309938267
100
AcDbArc
 50
20.9284850325
 51
159.6483190869
  0
SPLINE
  5
8E
330
1F
100
AcDbEntity
  8
0
  6
Continuous
 62
     7
370
    15
100
AcDbSpline
210
0.0
220
0.0
230
1.0
 70
     8
 71
     3
 72
    10
 73
     6
 74
     0
 42
0.00000001
 43
0.00000001
 40
0.0
 40
0.0
 40
0.0
 40
0.0
 40
0.5
 40
0.5
 40
1.0
 40
1.0
 40
1.0
 40
1.0
 10
148.6082885707741
 20
136.9787523377895
 30
0.0
 10
148.4867483071056
 20
137.0534785050013
 30
0.0
 10
148.3854139467567
 20
137.1624235209181
 30
0.0
 10
148.2497750038683
 20
137.4128540016797
 30
0.0
 10
148.2139910390831
 20
137.5552733637786
 30
0.0
 10
148.2139910390831
 20
137.6984061888253
 30
0.0
  0
SPLINE
  5
8F
330
1F
100
AcDbEntity
  8
0
  6
Continuous
 62
     7
370
    15
100
AcDbSpline
210
0.0
220
0.0
230
1.0
 70
    24
 71
     3
 72
    12
 73
     8
 74
     0
 42
0.00000001
 43
0.00000001
 40
0.0
 40
0.0
 40
0.0
 40
0.0
 40
0.2500000000000037
 40
0.2500000000000037
 40
0.5000000000000074
 40
0.5000000000000074
 40
1.0
 40
1.0
 40
1.0
 40
1.0
 10
149.0139910390832
 20
136.9787523377895
 30
0.0
 10
148.9641143567657
 20
136.9787523377895
 30
0.0
 10
148.9161111633621
 20
136.9787523377895
 30
0.0
 10
148.8330630606501
 20
136.9787523377895
 30
0.0
 10
148.7969334811823
 20
136.9787523377895
 30
0.0
 10
148.701021450238
 20
136.9787523377895
 30
0.0
 10
148.6512627822692
 20
136.9787523377895
 30
0.0
 10
148.6082885707741
 20
136.9787523377895
 30
0.0
  0
SPLINE
  5
90
330
1F
100
AcDbEntity
  8
0
  6
Continuous
 62
     7
370
    15
100
AcDbSpline
210
0.0
220
0.0
230
1.0
 70
    24
 71
     3
 72
    14
 73
    10
 74
     0
 42
0.00000001
 43
0.00000001
 40
0.0
 40
0.0
 40
0.0
 40
0.0
 40
0.1249999999999991
 40
0.1249999999999991
 40
0.2499999999999982
 40
0.2499999999999982
 40
0.4999999999999998
 40
0.4999999999999998
 40
1.0
 40
1.0
 40
1.0
 40
1.0
 10
149.0139910390832
 20
84.17875233778955
 30
0.0
 10
148.9455531911967
 20
84.17875233778955
 30
0.0
 10
148.8800031524316
 20
84.17875233778955
 30
0.0
 10
148.7755765130237
 20
84.17875233778955
 30
0.0
 10
148.7330319032623
 20
84.17875233778955
 30
0.0
 10
148.620422442722
 20
84.17875233778953
 30
0.0
 10
148.5648833957025
 20
84.17875233778955
 30
0.0
 10
148.4222717002387
 20
84.17875233778953
 30
0.0
 10
148.358866345243
 20
84.17875233778953
 30
0.0
 10
148.3116658414154
 20
84.17875233778955
 30
0.0
  0
SPLINE
  5
91
330
1F
100
AcDbEntity
  8
0
  6
Continuous
 62
     7
370
    15
100
AcDbSpline
210
0.0
220
0.0
230
1.0
 70
     8
 71
     3
 72
    10
 73
     6
 74
     0
 42
0.00000001
 43
0.00000001
 40
0.0
 40
0.0
 40
0.0
 40
0.0
 40
0.5
 40
0.5
 40
1.0
 40
1.0
 40
1.0
 40
1.0
 10
148.2139910390831
 20
130.7146189692509
 30
0.0
 10
148.2139910390831
 20
130.6668474612576
 30
0.0
 10
148.2161522826803
 20
130.619137739196
 30
0.0
 10
148.2248236565405
 20
130.5238426216477
 30
0.0
 10
148.2313528394965
 20
130.4761500576811
 30
0.0
 10
148.2401386622433
 20
130.4287523377895
 30
0.0
  0
SPLINE
  5
92
330
1F
100
AcDbEntity
  8
0
  6
Continuous
 62
     7
370
    15
100
AcDbSpline
210
0.0
220
0.0
230
1.0
 70
    24
 71
     3
 72
    14
 73
    10
 74
     0
 42
0.00000001
 43
0.00000001
 40
0.0
 40
0.0
 40
0.0
 40
0.0
 40
0.5000000000000013
 40
0.5000000000000013
 40
0.750000000000002
 40
0.750000000000002
 40
0.875000000000001
 40
0.875000000000001
 40
1.0
 40
1.0
 40
1.0
 40
1.0
 10
151.9363162367509
 20
84.17875233778955
 30
0.0
 10
151.8895315317027
 20
84.17875233778953
 30
0.0
 10
151.827480334923
 20
84.17875233778955
 30
0.0
 10
151.6840886963724
 20
84.17875233778955
 30
0.0
 10
151.6279450428213
 20
84.17875233778953
 30
0.0
 10
151.5149940206851
 20
84.17875233778953
 30
0.0
 10
151.4719932586469
 20
84.17875233778955
 30
0.0
 10
151.3679305483405
 20
84.17875233778953
 30
0.0
 10
151.3025983099836
 20
84.17875233778955
 30
0.0
 10
151.2339910390832
 20
84.17875233778955
 30
0.0
  0
SPLINE
  5
93
330
1F
100
AcDbEntity
  8
0
  6
Continuous
 62
     7
370
    15
100
AcDbSpline
210
0.0
220
0.0
230
1.0
 70
    24
 71
     3
 72
    12
 73
     8
 74
     0
 42
0.00000001
 43
0.00000001
 40
0.0
 40
0.0
 40
0.0
 40
0.0
 40
0.5000000000000017
 40
0.5000000000000017
 40
0.7500000000000008
 40
0.7500000000000008
 40
1.0
 40
1.0
 40
1.0
 40
1.0
 10
151.6396935073922
 20
136.9787523377895
 30
0.0
 10
151.5966079577812
 20
136.9787523377895
 30
0.0
 10
151.5474557560319
 20
136.9787523377895
 30
0.0
 10
151.450983161744
 20
136.9787523377895
 30
0.0
 10
151.4148815766094
 20
136.9787523377895
 30
0.0
 10
151.3317758187482
 20
136.9787523377895
 30
0.0
 10
151.2837792217819
 20
136.9787523377895
 30
0.0
 10
151.2339910390832
 20
136.9787523377895
 30
0.0
  0
SPLINE
  5
94
330
1F
100
AcDbEntity
  8
0
  6
Continuous
 62
     7
370
    15
100
AcDbSpline
210
0.0
220
0.0
230
1.0
 70
     8
 71
     3
 72
    10
 73
     6
 74
     0
 42
0.00000001
 43
0.00000001
 40
0.0
 40
0.0
 40
0.0
 40
0.0
 40
0.5
 40
0.5
 40
1.0
 40
1.0
 40
1.0
 40
1.0
 10
152.0339910390831
 20
137.6984061888253
 30
0.0
 10
152.0339910390831
 20
137.5546361310073
 30
0.0
 10
151.9979419803643
 20
137.4122167685121
 30
0.0
 10
151.8624331195902
 20
137.1623224751549
 30
0.0
 10
151.7625571264941
 20
137.0542921389067
 30
0.0
 10
151.6396935073921
 20
136.9787523377895
 30
0.0
  0
SPLINE
  5
95
330
1F
100
AcDbEntity
  8
0
  6
Continuous
 62
     7
370
    15
100
AcDbSpline
210
0.0
220
0.0
230
1.0
 70
     8
 71
     3
 72
    10
 73
     6
 74
     0
 42
0.00000001
 43
0.00000001
 40
0.0
 40
0.0
 40
0.0
 40
0.0
 40
0.5
 40
0.5
 40
1.0
 40
1.0
 40
1.0
 40
1.0
 10
152.007843415923
 20
130.4287523377895
 30
0.0
 10
152.0165330588347
 20
130.4756311871077
 30
0.0
 10
152.0230721235852
 20
130.5230536525089
 30
0.0
 10
152.0318307579782
 20
130.6189904510957
 30
0.0
 10
152.0339910390832
 20
130.6669057391062
 30
0.0
 10
152.0339910390832
 20
130.7146189692507
 30
0.0
  0
LINE
  5
96
330
1F
100
AcDbEntity
  8
0
  6
Continuous
 62
     7
370
    15
100
AcDbLine
 10
151.2339910391
 20
136.9787523378
 30
0.0
 11
149.0139910391
 21
136.9787523378
 31
0.0
  0
LINE
  5
97
330
1F
100
AcDbEntity
  8
0
  6
Continuous
 62
     7
370
    15
100
AcDbLine
 10
151.2339910391
 20
84.1787523378
 30
0.0
 11
149.0139910391
 21
84.1787523378
 31
0.0
  0
LINE
  5
98
330
1F
100
AcDbEntity
  8
0
  6
Continuous
 62
     7
370
    15
100
AcDbLine
 10
130.1239910391
 20
86.3583214761
 30
0.0
 11
130.1239910391
 21
134.7991831995
 31
0.0
  0
LINE
  5
99
330
1F
100
AcDbEntity
  8
0
  6
Continuous
 62
     7
370
    15
100
AcDbLine
 10
110.3239910391
 20
87.350305444
 30
0.0
 11
110.3239910391
 21
88.6150148066
 31
0.0
  0
SPLINE
  5
9A
330
1F
100
AcDbEntity
  8
0
  6
Continuous
 62
     7
370
    15
100
AcDbSpline
210
0.0
220
0.0
230
1.0
 70
     8
 71
     3
 72
    14
 73
    10
 74
     0
 42
0.00000001
 43
0.00000001
 40
0.0
 40
0.0
 40
0.0
 40
0.0
 40
0.25
 40
0.25
 40
0.5
 40
0.5
 40
0.75
 40
0.75
 40
1.0
 40
1.0
 40
1.0
 40
1.0
 10
109.5457039211674
 20
89.74560101422958
 30
0.0
 10
109.6023305963695
 20
89.63790356039273
 30
0.0
 10
109.6968532566592
 20
89.53511397867341
 30
0.0
 10
109.8798982322215
 20
89.33675666645325
 30
0.0
 10
109.9715248091762
 20
89.240697157775
 30
0.0
 10
110.1303781268694
 20
89.05316811506576
 30
0.0
 10
110.1982687344911
 20
88.96175914228222
 30
0.0
 10
110.2951857601987
 20
88.78338292137205
 30
0.0
 10
110.3239910390837
 20
88.69616101512588
 30
0.0
 10
110.3239910390837
 20
88.61501480659162
 30
0.0
  0
SPLINE
  5
9B
330
1F
100
AcDbEntity
  8
0
  6
Continuous
 62
     7
370
    15
100
AcDbSpline
210
0.0
220
0.0
230
1.0
 70
     8
 71
     3
 72
    14
 73
    10
 74
     0
 42
0.00000001
 43
0.00000001
 40
0.0
 40
0.0
 40
0.0
 40
0.0
 40
0.1249999999999975
 40
0.1249999999999975
 40
0.249999999999995
 40
0.249999999999995
 40
0.4999999999999953
 40
0.4999999999999953
 40
1.0
 40
1.0
 40
1.0
 40
1.0
 10
108.9239910390831
 20
90.19228287650891
 30
0.0
 10
108.9725354477403
 20
90.19803118978919
 30
0.0
 10
109.0254508025252
 20
90.19493030113296
 30
0.0
 10
109.1207461475083
 20
90.17273545697063
 30
0.0
 10
109.1609971447932
 20
90.15550322987477
 30
0.0
 10
109.2652671583062
 20
90.0991753134227
 30
0.0
 10
109.3155891334595
 20
90.0549889674769
 30
0.0
 10
109.4432720809849
 20
89.92398106862629
 30
0.0
 10
109.4993575280472
 20
89.833746548396
 30
0.0
 10
109.5457039211689
 20
89.74560101423012
 30
0.0
  0
SPLINE
  5
9C
330
1F
100
AcDbEntity
  8
0
  6
Continuous
 62
     7
370
    15
100
AcDbSpline
210
0.0
220
0.0
230
1.0
 70
     8
 71
     3
 72
     8
 73
     4
 74
     0
 42
0.00000001
 43
0.00000001
 40
0.0
 40
0.0
 40
0.0
 40
0.0
 40
1.0
 40
1.0
 40
1.0
 40
1.0
 10
106.6554659461369
 20
89.88243758992611
 30
0.0
 10
107.3900429726199
 20
90.00106260099508
 30
0.0
 10
108.1535180420155
 20
90.10104847313136
 30
0.0
 10
108.9239910390831
 20
90.19228287650891
 30
0.0
  0
SPLINE
  5
9D
330
1F
100
AcDbEntity
  8
0
  6
Continuous
 62
     7
370
    15
100
AcDbSpline
210
0.0
220
0.0
230
1.0
 70
     8
 71
     3
 72
    14
 73
    10
 74
     0
 42
0.00000001
 43
0.00000001
 40
0.0
 40
0.0
 40
0.0
 40
0.0
 40
0.500000000000001
 40
0.500000000000001
 40
0.7500000000000004
 40
0.7500000000000004
 40
0.8750000000000003
 40
0.8750000000000003
 40
1.0
 40
1.0
 40
1.0
 40
1.0
 10
101.3739910390832
 20
89.70881457239446
 30
0.0
 10
102.2661371696367
 20
89.70809234619381
 30
0.0
 10
103.1561136054303
 20
89.71267855265127
 30
0.0
 10
104.4827087725059
 20
89.74040355704281
 30
0.0
 10
104.9235557010047
 20
89.75301009466699
 30
0.0
 10
105.5799959384271
 20
89.78402624267444
 30
0.0
 10
105.798009595019
 20
89.79636941530121
 30
0.0
 10
106.2307184487018
 20
89.8293934704645
 30
0.0
 10
106.4459949138665
 20
89.84861063560292
 30
0.0
 10
106.6554659461369
 20
89.88243758992611
 30
0.0
  0
SPLINE
  5
9E
330
1F
100
AcDbEntity
  8
0
  6
Continuous
 62
     7
370
    15
100
AcDbSpline
210
0.0
220
0.0
230
1.0
 70
     8
 71
     3
 72
     8
 73
     4
 74
     0
 42
0.00000001
 43
0.00000001
 40
0.0000005163856998
 40
0.0000005163856998
 40
0.0000005163856998
 40
0.0000005163856998
 40
0.000026289209185
 40
0.000026289209185
 40
0.000026289209185
 40
0.000026289209185
 10
101.3639461086755
 20
89.71879844549125
 30
0.0
 10
101.3672738468834
 20
89.71546419862213
 30
0.0
 10
101.370622299859
 20
89.71213624134681
 30
0.0
 10
101.3739910390831
 20
89.70881457239445
 30
0.0
  0
SPLINE
  5
9F
330
1F
100
AcDbEntity
  8
0
  6
Continuous
 62
     7
370
    15
100
AcDbSpline
210
0.0
220
0.0
230
1.0
 70
     8
 71
     3
 72
     8
 73
     4
 74
     0
 42
0.00000001
 43
0.00000001
 40
0.0000005099763573
 40
0.0000005099763573
 40
0.0000005099763573
 40
0.0000005099763573
 40
0.0000262827998699
 40
0.0000262827998699
 40
0.0000262827998699
 40
0.0000262827998699
 10
101.3739910390831
 20
131.4486901031846
 30
0.0
 10
101.3706222998554
 20
131.4453684342287
 30
0.0
 10
101.3672738468762
 20
131.4420404769498
 30
0.0
 10
101.3639461086649
 20
131.4387062300772
 30
0.0
  0
SPLINE
  5
A0
330
1F
100
AcDbEntity
  8
0
  6
Continuous
 62
     7
370
    15
100
AcDbSpline
210
0.0
220
0.0
230
1.0
 70
     8
 71
     3
 72
    10
 73
     6
 74
     0
 42
0.00000001
 43
0.00000001
 40
0.0
 40
0.0
 40
0.0
 40
0.0
 40
0.5
 40
0.5
 40
1.0
 40
1.0
 40
1.0
 40
1.0
 10
104.9239910390831
 20
131.4018397296173
 30
0.0
 10
104.3364054919926
 20
131.4229052498537
 30
0.0
 10
103.7456590985322
 20
131.4336637357259
 30
0.0
 10
102.5616399332333
 20
131.4470285162616
 30
0.0
 10
101.9682259450279
 20
131.4491711589262
 30
0.0
 10
101.3739910390832
 20
131.4486901031846
 30
0.0
  0
SPLINE
  5
A1
330
1F
100
AcDbEntity
  8
0
  6
Continuous
 62
     7
370
    15
100
AcDbSpline
210
0.0
220
0.0
230
1.0
 70
     8
 71
     3
 72
    18
 73
    14
 74
     0
 42
0.00000001
 43
0.00000001
 40
0.0
 40
0.0
 40
0.0
 40
0.0
 40
0.2500000000000009
 40
0.2500000000000009
 40
0.500000000000001
 40
0.500000000000001
 40
0.7500000000000011
 40
0.7500000000000011
 40
0.875000000000001
 40
0.875000000000001
 40
0.9375000000000006
 40
0.9375000000000006
 40
1.0
 40
1.0
 40
1.0
 40
1.0
 10
106.3239910390832
 20
132.4228600101525
 30
0.0
 10
106.3239910390832
 20
132.3396531012953
 30
0.0
 10
106.2881419391449
 20
132.2509164459817
 30
0.0
 10
106.163270203111
 20
132.0687912554215
 30
0.0
 10
106.0728697854631
 20
131.9736612067949
 30
0.0
 10
105.8506271307209
 20
131.7844796976706
 30
0.0
 10
105.7208623442752
 20
131.6895345295759
 30
0.0
 10
105.4802248869636
 20
131.5512558219959
 30
0.0
 10
105.3924575888262
 20
131.5055453886935
 30
0.0
 10
105.2379335016194
 20
131.4477220834721
 30
0.0
 10
105.1813226155646
 20
131.4300073194342
 30
0.0
 10
105.057278584658
 20
131.4054680162013
 30
0.0
 10
104.9895639096397
 20
131.399488877663
 30
0.0
 10
104.9239910390831
 20
131.4018397296173
 30
0.0
  0
LINE
  5
A2
330
1F
100
AcDbEntity
  8
0
  6
Continuous
 62
     7
370
    15
100
AcDbLine
 10
106.3239910391
 20
132.4228600102
 30
0.0
 11
106.3239910391
 21
133.60679843
 31
0.0
  0
SPLINE
  5
A3
330
1F
100
AcDbEntity
  8
0
  6
Continuous
 62
     7
370
    15
100
AcDbSpline
210
0.0
220
0.0
230
1.0
 70
     8
 71
     3
 72
    24
 73
    20
 74
     0
 42
0.00000001
 43
0.00000001
 40
0.0
 40
0.0
 40
0.0
 40
0.0
 40
0.0010489762969682
 40
0.0637843125639766
 40
0.1272220590447888
 40
0.1903788924487598
 40
0.252674865369363
 40
0.3146354154424954
 40
0.377089199714964
 40
0.4393540298504154
 40
0.5008133242537826
 40
0.562184510458698
 40
0.624843845111553
 40
0.6874304766616532
 40
0.7496743174679398
 40
0.8119848426977657
 40
0.8750960525413161
 40
0.9384412526965076
 40
0.9999999999999999
 40
0.9999999999999999
 40
0.9999999999999999
 40
0.9999999999999999
 10
118.8928968710588
 20
86.92124390920938
 30
0.0
 10
118.8924504109546
 20
86.92118562339049
 30
0.0
 10
118.8653028472608
 20
86.91764148144797
 30
0.0
 10
118.9609146248746
 20
86.93047522613072
 30
0.0
 10
119.194474882769
 20
86.9597219113309
 30
0.0
 10
119.5900291900862
 20
87.00633623439374
 30
0.0
 10
120.1170694939238
 20
87.0565193760531
 30
0.0
 10
120.7605999059136
 20
87.10089583850271
 30
0.0
 10
121.4992737611526
 20
87.12784061944092
 30
0.0
 10
122.2967882665859
 20
87.1313124701477
 30
0.0
 10
123.1233671490287
 20
87.10368522611746
 30
0.0
 10
123.9488901666394
 20
87.04520633714414
 30
0.0
 10
124.7410167146406
 20
86.95976130778405
 30
0.0
 10
125.4735889886465
 20
86.85802706794772
 30
0.0
 10
126.1092292253745
 20
86.75018394597475
 30
0.0
 10
126.631140332384
 20
86.64855378923566
 30
0.0
 10
127.0127691094996
 20
86.56606863255745
 30
0.0
 10
127.2635835797333
 20
86.50991942620783
 30
0.0
 10
127.2927051357177
 20
86.50306996759407
 30
0.0
 10
127.3070576565338
 20
86.4996942208659
 30
0.0
  0
SPLINE
  5
A4
330
1F
100
AcDbEntity
  8
0
  6
Continuous
 62
     7
370
    15
100
AcDbSpline
210
0.0
220
0.0
230
1.0
 70
     8
 71
     3
 72
    24
 73
    20
 74
     0
 42
0.00000001
 43
0.00000001
 40
0.0
 40
0.0
 40
0.0
 40
0.0
 40
0.0614384276250176
 40
0.1250736755369651
 40
0.1884253490729237
 40
0.2508623904037427
 40
0.3129665632511172
 40
0.3753451453465143
 40
0.4377328972324873
 40
0.4990927322917189
 40
0.5605807588447405
 40
0.6229469893028771
 40
0.6854686282025979
 40
0.7475477813740068
 40
0.8098225060804932
 40
0.8730684085990272
 40
0.9364041844536292
 40
0.9991757196257863
 40
1.0
 40
1.0
 40
1.0
 40
1.0
 10
127.3070028857309
 20
134.6577813122469
 30
0.0
 10
127.2924021614275
 20
134.6544132553943
 30
0.0
 10
127.2626786426995
 20
134.6475567119205
 30
0.0
 10
127.0099408270509
 20
134.5912180913946
 30
0.0
 10
126.6269449106012
 20
134.5083610092646
 30
0.0
 10
126.1045893261641
 20
134.4064539793134
 30
0.0
 10
125.4698048481642
 20
134.2986148402695
 30
0.0
 10
124.7395812439916
 20
134.1971478882944
 30
0.0
 10
123.9491126587575
 20
134.1120881746037
 30
0.0
 10
123.1246291439294
 20
134.0538838807173
 30
0.0
 10
122.2975926850459
 20
134.0263004418907
 30
0.0
 10
121.4992684173942
 20
134.0297934193835
 30
0.0
 10
120.759444453105
 20
134.0567493392366
 30
0.0
 10
120.1151902201299
 20
134.1011032812359
 30
0.0
 10
119.5877829649139
 20
134.1513087309937
 30
0.0
 10
119.1931183627637
 20
134.1979185861921
 30
0.0
 10
118.9605890835754
 20
134.2271141787395
 30
0.0
 10
118.8652090510268
 20
134.2398922476807
 30
0.0
 10
118.8921426879277
 20
134.2363379891729
 30
0.0
 10
118.8924917811521
 20
134.2362919215896
 30
0.0
  0
SPLINE
  5
A5
330
1F
100
AcDbEntity
  8
0
  6
Continuous
 62
     7
370
    15
100
AcDbSpline
210
0.0
220
0.0
230
1.0
 70
     8
 71
     3
 72
     9
 73
     5
 74
     0
 42
0.00000001
 43
0.00000001
 40
0.0
 40
0.0
 40
0.0
 40
0.0
 40
0.7009329310330167
 40
1.0
 40
1.0
 40
1.0
 40
1.0
 10
100.2447757233186
 20
90.87747203368691
 30
0.0
 10
100.2539149999939
 20
90.85964274814539
 30
0.0
 10
100.2669537320475
 20
90.83420624095311
 30
0.0
 10
100.2821189858128
 20
90.8880861011449
 30
0.0
 10
100.2866544138065
 20
90.90419979300881
 30
0.0
  0
LINE
  5
A6
330
1F
100
AcDbEntity
  8
0
  6
Continuous
 62
     7
370
    15
100
AcDbLine
 10
100.2239910391
 20
90.8880745913
 30
0.0
 11
100.2239910391
 21
130.2694300843
 31
0.0
  0
SPLINE
  5
A7
330
1F
100
AcDbEntity
  8
0
  6
Continuous
 62
     7
370
    15
100
AcDbSpline
210
0.0
220
0.0
230
1.0
 70
     8
 71
     3
 72
    10
 73
     6
 74
     0
 42
0.00000001
 43
0.00000001
 40
0.0
 40
0.0
 40
0.0
 40
0.0
 40
0.5
 40
0.5
 40
1.0
 40
1.0
 40
1.0
 40
1.0
 10
100.2866544138065
 20
130.2533048825703
 30
0.0
 10
100.2777501246978
 20
130.2990464017834
 30
0.0
 10
100.2612347445048
 20
130.3162372412524
 30
0.0
 10
100.2341267984432
 20
130.3159139643167
 30
0.0
 10
100.2239910390831
 20
130.2980364220203
 30
0.0
 10
100.2239910390831
 20
130.2694300842677
 30
0.0
  0
SPLINE
  5
A8
330
1F
100
AcDbEntity
  8
0
  6
Continuous
 62
     7
370
    15
100
AcDbSpline
210
0.0
220
0.0
230
1.0
 70
     8
 71
     3
 72
    26
 73
    22
 74
     0
 42
0.00000001
 43
0.00000001
 40
0.0
 40
0.0
 40
0.0
 40
0.0
 40
0.2500000000000165
 40
0.2500000000000165
 40
0.3750000000000256
 40
0.3750000000000256
 40
0.4375000000000291
 40
0.4375000000000291
 40
0.4687500000000291
 40
0.4687500000000291
 40
0.5000000000000292
 40
0.5000000000000292
 40
0.5312500000000293
 40
0.5312500000000293
 40
0.5625000000000293
 40
0.5625000000000293
 40
0.625000000000026
 40
0.625000000000026
 40
0.7500000000000173
 40
0.7500000000000173
 40
1.0
 40
1.0
 40
1.0
 40
1.0
 10
101.0481446851877
 20
130.9688716713874
 30
0.0
 10
101.0095441623192
 20
130.8510969750319
 30
0.0
 10
100.9632471597649
 20
130.72670728887
 30
0.0
 10
100.869307811331
 20
130.5214879565165
 30
0.0
 10
100.8339963444175
 20
130.4499150900701
 30
0.0
 10
100.7678163686719
 20
130.3339618574696
 30
0.0
 10
100.7432780020036
 20
130.2933773226594
 30
0.0
 10
100.6999052564499
 20
130.2292356407876
 30
0.0
 10
100.6843968550246
 20
130.2073692155026
 30
0.0
 10
100.6493542104376
 20
130.1617749471594
 30
0.0
 10
100.6298039197179
 20
130.138104656192
 30
0.0
 10
100.5878766393473
 20
130.093488096852
 30
0.0
 10
100.5652245291156
 20
130.0726080843341
 30
0.0
 10
100.524250815029
 20
130.0417346705833
 30
0.0
 10
100.5066515151336
 20
130.0318958007509
 30
0.0
 10
100.4620245292774
 20
130.0129061850547
 30
0.0
 10
100.4414653066241
 20
130.0125818604013
 30
0.0
 10
100.3903398671274
 20
130.0218053012775
 30
0.0
 10
100.3694284541389
 20
130.0430521974945
 30
0.0
 10
100.3179785465779
 20
130.1170210763252
 30
0.0
 10
100.3003132472734
 20
130.18313916964
 30
0.0
 10
100.2866544138065
 20
130.2533048825703
 30
0.0
  0
SPLINE
  5
A9
330
1F
100
AcDbEntity
  8
0
  6
Continuous
 62
     7
370
    15
100
AcDbSpline
210
0.0
220
0.0
230
1.0
 70
     8
 71
     3
 72
    10
 73
     6
 74
     0
 42
0.00000001
 43
0.00000001
 40
0.0
 40
0.0
 40
0.0
 40
0.0
 40
0.5
 40
0.5
 40
1.0
 40
1.0
 40
1.0
 40
1.0
 10
101.3639461086649
 20
131.4387062300772
 30
0.0
 10
101.2963868537467
 20
131.3710148372674
 30
0.0
 10
101.2327501984102
 20
131.2963076725138
 30
0.0
 10
101.1225294438384
 20
131.1373415400872
 30
0.0
 10
101.0757131506157
 20
131.0529862740792
 30
0.0
 10
101.0481446851877
 20
130.9688716713874
 30
0.0
  0
SPLINE
  5
AA
330
1F
100
AcDbEntity
  8
0
  6
Continuous
 62
     7
370
    15
100
AcDbSpline
210
0.0
220
0.0
230
1.0
 70
     8
 71
     3
 72
    10
 73
     6
 74
     0
 42
0.00000001
 43
0.00000001
 40
0.0
 40
0.0
 40
0.0
 40
0.0
 40
0.5
 40
0.5
 40
1.0
 40
1.0
 40
1.0
 40
1.0
 10
101.0481446851877
 20
90.18863300419157
 30
0.0
 10
101.0756220999417
 20
90.10479620772368
 30
0.0
 10
101.1223307302311
 20
90.02048572013454
 30
0.0
 10
101.232609192977
 20
89.86136448964784
 30
0.0
 10
101.2964967315909
 20
89.78637974555818
 30
0.0
 10
101.3639461086755
 20
89.71879844549125
 30
0.0
  0
SPLINE
  5
AB
330
1F
100
AcDbEntity
  8
0
  6
Continuous
 62
     7
370
    15
100
AcDbSpline
210
0.0
220
0.0
230
1.0
 70
     8
 71
     3
 72
    24
 73
    20
 74
     0
 42
0.00000001
 43
0.00000001
 40
0.0
 40
0.0
 40
0.0
 40
0.0
 40
0.25
 40
0.25
 40
0.374999999999999
 40
0.374999999999999
 40
0.4374999999999993
 40
0.4374999999999993
 40
0.4687499999999994
 40
0.4687499999999994
 40
0.4999999999999995
 40
0.4999999999999995
 40
0.5624999999999971
 40
0.5624999999999971
 40
0.6249999999999947
 40
0.6249999999999947
 40
0.7499999999999947
 40
0.7499999999999947
 40
1.0
 40
1.0
 40
1.0
 40
1.0
 10
100.2866544138065
 20
90.90419979300879
 30
0.0
 10
100.3004075324768
 20
90.97484985099908
 30
0.0
 10
100.3181800998827
 20
91.04144796376401
 30
0.0
 10
100.370431191438
 20
91.11554598399721
 30
0.0
 10
100.3914662670196
 20
91.13680379115877
 30
0.0
 10
100.444366674648
 20
91.14494971730501
 30
0.0
 10
100.4654723475259
 20
91.14400991390924
 30
0.0
 10
100.5115245162039
 20
91.12299392233189
 30
0.0
 10
100.5298949881873
 20
91.11208511622428
 30
0.0
 10
100.571446623253
 20
91.07945020527691
 30
0.0
 10
100.5940132960099
 20
91.05795822490553
 30
0.0
 10
100.6567943124699
 20
90.98949228131923
 30
0.0
 10
100.6899240734378
 20
90.94341782311413
 30
0.0
 10
100.7468417599228
 20
90.85840993477946
 30
0.0
 10
100.7710277854266
 20
90.81812963359809
 30
0.0
 10
100.8362357358064
 20
90.70319340713213
 30
0.0
 10
100.8709517959976
 20
90.63261042198513
 30
0.0
 10
100.9641670663285
 20
90.42840466290653
 30
0.0
 10
101.0098396016892
 20
90.30550628057917
 30
0.0
 10
101.0481446851877
 20
90.18863300419159
 30
0.0
  0
SPLINE
  5
AC
330
1F
100
AcDbEntity
  8
0
  6
Continuous
 62
     7
370
    15
100
AcDbSpline
210
0.0
220
0.0
230
1.0
 70
     8
 71
     3
 72
     8
 73
     4
 74
     0
 42
0.00000001
 43
0.00000001
 40
0.0
 40
0.0
 40
0.0
 40
0.0
 40
1.0
 40
1.0
 40
1.0
 40
1.0
 10
153.5159238705722
 20
141.0459478109538
 30
0.0
 10
153.0207838412079
 20
140.1592681627735
 30
0.0
 10
152.5267011359289
 20
139.2720055270875
 30
0.0
 10
152.0339910390831
 20
138.3839865289611
 30
0.0
  0
LINE
  5
AD
330
1F
100
AcDbEntity
  8
0
  6
Continuous
 62
     7
370
    15
100
AcDbLine
 10
153.5159238706
 20
135.0374420002
 30
0.0
 11
153.5159238706
 21
141.045947811
 31
0.0
  0
SPLINE
  5
AE
330
1F
100
AcDbEntity
  8
0
  6
Continuous
 62
     7
370
    15
100
AcDbSpline
210
0.0
220
0.0
230
1.0
 70
     8
 71
     3
 72
     8
 73
     4
 74
     0
 42
0.00000001
 43
0.00000001
 40
0.0
 40
0.0
 40
0.0
 40
0.0
 40
1.0
 40
1.0
 40
1.0
 40
1.0
 10
152.0339910390831
 20
131.6288960053728
 30
0.0
 10
152.513269189673
 20
132.7699072352254
 30
0.0
 10
153.0088370288129
 20
133.9062916459933
 30
0.0
 10
153.5159238705722
 20
135.037442000157
 30
0.0
  0
LINE
  5
AF
330
1F
100
AcDbEntity
  8
0
  6
Continuous
 62
     7
370
    15
100
AcDbLine
 10
152.0339910391
 20
131.6288960054
 30
0.0
 11
152.0339910391
 21
138.383986529
 31
0.0
  0
SPLINE
  5
B0
330
1F
100
AcDbEntity
  8
0
  6
Continuous
 62
     7
370
    15
100
AcDbSpline
210
0.0
220
0.0
230
1.0
 70
     8
 71
     3
 72
     8
 73
     4
 74
     0
 42
0.00000001
 43
0.00000001
 40
0.0
 40
0.0
 40
0.0
 40
0.0
 40
1.0
 40
1.0
 40
1.0
 40
1.0
 10
148.2139910390831
 20
138.3839865289611
 30
0.0
 10
147.7212809422374
 20
139.2720055270875
 30
0.0
 10
147.2271982369584
 20
140.1592681627735
 30
0.0
 10
146.7320582075941
 20
141.0459478109538
 30
0.0
  0
LINE
  5
B1
330
1F
100
AcDbEntity
  8
0
  6
Continuous
 62
     7
370
    15
100
AcDbLine
 10
148.2139910391
 20
131.6288960054
 30
0.0
 11
148.2139910391
 21
138.383986529
 31
0.0
  0
SPLINE
  5
B2
330
1F
100
AcDbEntity
  8
0
  6
Continuous
 62
     7
370
    15
100
AcDbSpline
210
0.0
220
0.0
230
1.0
 70
     8
 71
     3
 72
     8
 73
     4
 74
     0
 42
0.00000001
 43
0.00000001
 40
0.0
 40
0.0
 40
0.0
 40
0.0
 40
1.0
 40
1.0
 40
1.0
 40
1.0
 10
146.7320582075941
 20
135.037442000157
 30
0.0
 10
147.2391450493534
 20
133.9062916459933
 30
0.0
 10
147.7347128884933
 20
132.7699072352255
 30
0.0
 10
148.2139910390831
 20
131.6288960053729
 30
0.0
  0
LINE
  5
B3
330
1F
100
AcDbEntity
  8
0
  6
Continuous
 62
     7
370
    15
100
AcDbLine
 10
157.4739910391
 20
141.045947811
 30
0.0
 11
153.5159238706
 21
141.045947811
 31
0.0
  0
LINE
  5
B4
330
1F
100
AcDbEntity
  8
0
  6
Continuous
 62
     7
370
    15
100
AcDbLine
 10
153.5159238706
 20
135.0374420002
 30
0.0
 11
157.4739910391
 21
135.0374420002
 31
0.0
  0
LINE
  5
B5
330
1F
100
AcDbEntity
  8
0
  6
Continuous
 62
     7
370
    15
100
AcDbLine
 10
148.2139910391
 20
131.6288960054
 30
0.0
 11
148.2139910391
 21
130.7146189693
 31
0.0
  0
SPLINE
  5
B6
330
1F
100
AcDbEntity
  8
0
  6
Continuous
 62
     7
370
    15
100
AcDbSpline
210
0.0
220
0.0
230
1.0
 70
     8
 71
     3
 72
    12
 73
     8
 74
     0
 42
0.00000001
 43
0.00000001
 40
0.0
 40
0.0
 40
0.0
 40
0.0
 40
0.250000000000002
 40
0.250000000000002
 40
0.500000000000004
 40
0.500000000000004
 40
1.0
 40
1.0
 40
1.0
 40
1.0
 10
157.4739910390831
 20
135.037442000157
 30
0.0
 10
157.5651907609088
 20
135.037442000157
 30
0.0
 10
157.6557857700448
 20
135.0092223015691
 30
0.0
 10
157.8091984964915
 20
134.914779294321
 30
0.0
 10
157.8744073638152
 20
134.8484923176157
 30
0.0
 10
158.0271918931551
 20
134.6228674943274
 30
0.0
 10
158.0739910390832
 20
134.4404412312948
 30
0.0
 10
158.0739910390832
 20
134.2597045990479
 30
0.0
  0
LINE
  5
B7
330
1F
100
AcDbEntity
  8
0
  6
Continuous
 62
     7
370
    15
100
AcDbLine
 10
152.0339910391
 20
130.7146189693
 30
0.0
 11
152.0339910391
 21
131.6288960054
 31
0.0
  0
LINE
  5
B8
330
1F
100
AcDbEntity
  8
0
  6
Continuous
 62
     7
370
    15
100
AcDbLine
 10
158.0739910391
 20
134.259704599
 30
0.0
 11
158.0739910391
 21
130.4287523378
 31
0.0
  0
SPLINE
  5
B9
330
1F
100
AcDbEntity
  8
0
  6
Continuous
 62
     7
370
    15
100
AcDbSpline
210
0.0
220
0.0
230
1.0
 70
     8
 71
     3
 72
    10
 73
     6
 74
     0
 42
0.00000001
 43
0.00000001
 40
0.0
 40
0.0
 40
0.0
 40
0.0
 40
0.5
 40
0.5
 40
1.0
 40
1.0
 40
1.0
 40
1.0
 10
158.0739910390832
 20
140.4251926615535
 30
0.0
 10
158.0739910390832
 20
140.5855979279042
 30
0.0
 10
158.0117532079763
 20
140.7446597408928
 30
0.0
 10
157.7926182842337
 20
140.9755722065232
 30
0.0
 10
157.6350295892419
 20
141.0459478109538
 30
0.0
 10
157.4739910390831
 20
141.0459478109538
 30
0.0
  0
LINE
  5
BA
330
1F
100
AcDbEntity
  8
0
  6
Continuous
 62
     7
370
    15
100
AcDbLine
 10
158.0739910391
 20
134.259704599
 30
0.0
 11
158.0739910391
 21
140.4251926616
 31
0.0
  0
ARC
  5
BB
330
1F
100
AcDbEntity
  8
0
  6
Continuous
 62
     7
370
    15
100
AcDbCircle
 10
140.1233372964
 20
129.2477154352
 30
0.0
 40
7.283914461518954
100
AcDbArc
 50
70.8542110362
 51
108.9804910151
  0
SPLINE
  5
BC
330
1F
100
AcDbEntity
  8
0
  6
Continuous
 62
     7
370
    15
100
AcDbSpline
210
0.0
220
0.0
230
1.0
 70
     8
 71
     3
 72
    39
 73
    35
 74
     0
 42
0.00000001
 43
0.00000001
 40
-0.0930101214675854
 40
-0.0618280028304187
 40
-0.0306436199927063
 40
0.0
 40
0.030659610713742
 40
0.0618452964001026
 40
0.093016310229969
 40
0.1240785945074736
 40
0.1552163478469663
 40
0.1868112107939512
 40
0.2185267826074666
 40
0.2499192584027654
 40
0.2813177417199902
 40
0.3130921101017151
 40
0.3447271324225012
 40
0.3759220232797119
 40
0.4069779730811023
 40
0.4381192479309818
 40
0.4692677792204117
 40
0.5000093392007163
 40
0.5307192062576093
 40
0.5619180231307591
 40
0.5930486394301996
 40
0.6241331762561638
 40
0.6552964593294193
 40
0.6869387764013561
 40
0.7186659751614044
 40
0.7500826423953888
 40
0.7814523712128012
 40
0.813206580515002
 40
0.8447916839906556
 40
0.8759584677019099
 40
0.9069898785324146
 40
0.9381719971695813
 40
0.9693563800072937
 40
1.0
 40
1.030659610713742
 40
1.061845296400103
 40
1.093016310229969
 10
180.1966071927379
 20
107.6338279117871
 30
0.0
 10
179.6238855409822
 20
107.5757772678967
 30
0.0
 10
179.0511949291096
 20
107.6340117017761
 30
0.0
 10
178.5007110285217
 20
107.8090469885144
 30
0.0
 10
177.9916433130225
 20
108.0845866621626
 30
0.0
 10
177.5493627131414
 20
108.4565718511171
 30
0.0
 10
177.1861961194442
 20
108.9094206637682
 30
0.0
 10
176.9178809350741
 20
109.4294120834719
 30
0.0
 10
176.7476142788629
 20
109.9921692154953
 30
0.0
 10
176.6913620623031
 20
110.5772945510208
 30
0.0
 10
176.7477856074404
 20
111.1627470949698
 30
0.0
 10
176.9178856074168
 20
111.7262123054404
 30
0.0
 10
177.1860902315601
 20
112.247352355882
 30
0.0
 10
177.5493191628661
 20
112.7008883637568
 30
0.0
 10
177.9913810562118
 20
113.0733004694564
 30
0.0
 10
178.4998562901821
 20
113.3490313356382
 30
0.0
 10
179.0505583475005
 20
113.523822761107
 30
0.0
 10
179.6239658381038
 20
113.5816500710503
 30
0.0
 10
180.1976800840631
 20
113.5237674896467
 30
0.0
 10
180.7483815492836
 20
113.3487840440026
 30
0.0
 10
181.257213589792
 20
113.0728524173282
 30
0.0
 10
181.6991449732051
 20
112.7003910024221
 30
0.0
 10
182.0622933382651
 20
112.2467745241851
 30
0.0
 10
182.330265770948
 20
111.7260005163854
 30
0.0
 10
182.5002126001644
 20
111.1626404013097
 30
0.0
 10
182.5566132776287
 20
110.5775081017447
 30
0.0
 10
182.5003808689911
 20
109.9921721944726
 30
0.0
 10
182.3300556929226
 20
109.429383895189
 30
0.0
 10
182.0615950586906
 20
108.9090714126529
 30
0.0
 10
181.6983856748966
 20
108.4563326358963
 30
0.0
 10
181.255999356492
 20
108.0843920298005
 30
0.0
 10
180.7470078073036
 20
107.8090034648635
 30
0.0
 10
180.1966071927379
 20
107.6338279117871
 30
0.0
 10
179.6238855409822
 20
107.5757772678967
 30
0.0
 10
179.0511949291096
 20
107.6340117017761
 30
0.0
  0
LINE
  5
BD
330
1F
100
AcDbEntity
  8
0
  6
Continuous
 62
     7
370
    15
100
AcDbLine
 10
164.7475676017
 20
95.7436576205
 30
0.0
 11
164.5156450991
 21
95.7132897263
 31
0.0
  0
SPLINE
  5
BE
330
1F
100
AcDbEntity
  8
0
  6
Continuous
 62
     7
370
    15
100
AcDbSpline
210
0.0
220
0.0
230
1.0
 70
     8
 71
     3
 72
    19
 73
    15
 74
     0
 42
0.00000001
 43
0.00000001
 40
0.0
 40
0.0
 40
0.0
 40
0.0
 40
0.0287978870463249
 40
0.1106340066634565
 40
0.1955185885884806
 40
0.2919397550717333
 40
0.4037492502601787
 40
0.5282702234638561
 40
0.658195150183108
 40
0.7216526810918844
 40
0.7872860880032189
 40
0.8841915019943816
 40
0.9815972986391209
 40
1.0
 40
1.0
 40
1.0
 40
1.0
 10
163.609746903134
 20
95.58465186332151
 30
0.0
 10
163.5996327539527
 20
95.5829856266474
 30
0.0
 10
163.5607768182334
 20
95.57658437786787
 30
0.0
 10
163.7989107260782
 20
95.61605949595729
 30
0.0
 10
164.2882873035474
 20
95.689188217075
 30
0.0
 10
165.0725266932611
 20
95.78491835031464
 30
0.0
 10
166.127109309727
 20
95.86713881744902
 30
0.0
 10
167.3850352786242
 20
95.8903951358537
 30
0.0
 10
168.4541855548627
 20
95.8371483599333
 30
0.0
 10
169.2267649354332
 20
95.76512887759868
 30
0.0
 10
169.8280745147949
 20
95.69335038430442
 30
0.0
 10
170.3388978689042
 20
95.61813953383793
 30
0.0
 10
170.6054659283784
 20
95.57357277229384
 30
0.0
 10
170.5563095180414
 20
95.58166287176356
 30
0.0
 10
170.5484982541447
 20
95.58294843963712
 30
0.0
  0
SPLINE
  5
BF
330
1F
100
AcDbEntity
  8
0
  6
Continuous
 62
     7
370
    15
100
AcDbSpline
210
0.0
220
0.0
230
1.0
 70
     8
 71
     3
 72
     9
 73
     5
 74
     0
 42
0.00000001
 43
0.00000001
 40
0.0
 40
0.0
 40
0.0
 40
0.0
 40
0.1193890419454737
 40
1.0
 40
1.0
 40
1.0
 40
1.0
 10
164.9954643740745
 20
95.76954991226226
 30
0.0
 10
164.9844153514688
 20
95.76874480036663
 30
0.0
 10
164.8918689801637
 20
95.76200120076562
 30
0.0
 10
164.8151378631931
 20
95.7522471498944
 30
0.0
 10
164.7475676007649
 20
95.74365762581178
 30
0.0
  0
SPLINE
  5
C0
330
1F
100
AcDbEntity
  8
0
  6
Continuous
 62
     7
370
    15
100
AcDbSpline
210
0.0
220
0.0
230
1.0
 70
     8
 71
     3
 72
    60
 73
    56
 74
     0
 42
0.00000001
 43
0.00000001
 40
-0.0312500000000006
 40
-0.0312500000000006
 40
0.0
 40
0.0
 40
0.0625000000000004
 40
0.0625000000000004
 40
0.0937500000000006
 40
0.0937500000000006
 40
0.1250000000000008
 40
0.1250000000000008
 40
0.1875000000000002
 40
0.1875000000000002
 40
0.2499999999999996
 40
0.2499999999999996
 40
0.2812499999999993
 40
0.2812499999999993
 40
0.312499999999999
 40
0.312499999999999
 40
0.3437499999999987
 40
0.3437499999999987
 40
0.3749999999999984
 40
0.3749999999999984
 40
0.4062499999999981
 40
0.4062499999999981
 40
0.4374999999999978
 40
0.4374999999999978
 40
0.4687499999999976
 40
0.4687499999999976
 40
0.4999999999999973
 40
0.4999999999999973
 40
0.5624999999999967
 40
0.5624999999999967
 40
0.5937499999999963
 40
0.5937499999999963
 40
0.624999999999996
 40
0.624999999999996
 40
0.6562499999999957
 40
0.6562499999999957
 40
0.6874999999999953
 40
0.6874999999999953
 40
0.7499999999999956
 40
0.7499999999999956
 40
0.7812499999999961
 40
0.7812499999999961
 40
0.8124999999999967
 40
0.8124999999999967
 40
0.8437499999999972
 40
0.8437499999999972
 40
0.8749999999999978
 40
0.8749999999999978
 40
0.9062499999999983
 40
0.9062499999999983
 40
0.9374999999999989
 40
0.9374999999999989
 40
0.9687499999999994
 40
0.9687499999999994
 40
1.0
 40
1.0
 40
1.0625
 40
1.0625
 10
164.5778578937081
 20
112.6674261254456
 30
0.0
 10
165.0869870177452
 20
113.0557029189391
 30
0.0
 10
165.4642051732748
 20
113.2465508614087
 30
0.0
 10
166.0742902429858
 20
113.43983608142
 30
0.0
 10
166.2805915425525
 20
113.4869484749767
 30
0.0
 10
166.6987874611514
 20
113.5484070252988
 30
0.0
 10
166.9118952848689
 20
113.5627136163548
 30
0.0
 10
167.551811078341
 20
113.5545792838757
 30
0.0
 10
167.9689345786841
 20
113.483239316496
 30
0.0
 10
168.7755618382765
 20
113.2045404670533
 30
0.0
 10
169.1451308427947
 20
113.0050728223857
 30
0.0
 10
169.6426812909419
 20
112.6027218464462
 30
0.0
 10
169.7939405652011
 20
112.4547152082442
 30
0.0
 10
170.0638294762659
 20
112.1305982056412
 30
0.0
 10
170.1840236330982
 20
111.9515236260278
 30
0.0
 10
170.3780264983633
 20
111.5753173161985
 30
0.0
 10
170.4525806575583
 20
111.3785604177047
 30
0.0
 10
170.5527042368693
 20
110.9660745245431
 30
0.0
 10
170.5770470375695
 20
110.7505841845541
 30
0.0
 10
170.5703016569311
 20
110.3274543142096
 30
0.0
 10
170.539283849376
 20
110.1134423920236
 30
0.0
 10
170.4260490178232
 20
109.7027923557284
 30
0.0
 10
170.3450010840521
 20
109.5067930954496
 30
0.0
 10
170.1372065483861
 20
109.1321507037399
 30
0.0
 10
170.0138095157298
 20
108.9595764474201
 30
0.0
 10
169.73359065919
 20
108.6412153641645
 30
0.0
 10
169.5757294492963
 20
108.4950936945585
 30
0.0
 10
169.0720636191216
 20
108.1088101542095
 30
0.0
 10
168.6862186588963
 20
107.9124456305265
 30
0.0
 10
168.081401356728
 20
107.7197598795081
 30
0.0
 10
167.8729152645499
 20
107.6715571258594
 30
0.0
 10
167.4505422432688
 20
107.6091097444039
 30
0.0
 10
167.2391663734917
 20
107.5950082710118
 30
0.0
 10
166.8160482190049
 20
107.5998798313881
 30
0.0
 10
166.6031038564296
 20
107.6190687422931
 30
0.0
 10
166.1822020174107
 20
107.6915498408969
 30
0.0
 10
165.9773403407197
 20
107.7440963186746
 30
0.0
 10
165.379306112329
 20
107.9503097060145
 30
0.0
 10
164.9975076281734
 20
108.1567158226103
 30
0.0
 10
164.5077000719352
 20
108.5528612360829
 30
0.0
 10
164.356550693485
 20
108.6998443920679
 30
0.0
 10
164.0824452422939
 20
109.0288888158943
 30
0.0
 10
163.9645548423146
 20
109.2049600543468
 30
0.0
 10
163.7701035090024
 20
109.5817654902019
 30
0.0
 10
163.6934388742757
 20
109.7849929922133
 30
0.0
 10
163.5944716313935
 20
110.1968455474833
 30
0.0
 10
163.5705456196525
 20
110.4080657150034
 30
0.0
 10
163.5782311918323
 20
110.8384527472993
 30
0.0
 10
163.6095405297533
 20
111.0485386667516
 30
0.0
 10
163.7235628256352
 20
111.4591697038233
 30
0.0
 10
163.806881703038
 20
111.6588174485512
 30
0.0
 10
164.0136961155643
 20
112.0295104557018
 30
0.0
 10
164.1394326133681
 20
112.2048294524767
 30
0.0
 10
164.4212686331953
 20
112.5231366263985
 30
0.0
 10
164.5778578937081
 20
112.6674261254456
 30
0.0
 10
165.0869870177452
 20
113.0557029189391
 30
0.0
  0
SPLINE
  5
C1
330
1F
100
AcDbEntity
  8
0
  6
Continuous
 62
     7
370
    15
100
AcDbSpline
210
0.0
220
0.0
230
1.0
 70
     8
 71
     3
 72
    18
 73
    14
 74
     0
 42
0.00000001
 43
0.00000001
 40
0.0
 40
0.0
 40
0.0
 40
0.0
 40
0.0484708253591329
 40
0.1300984777698924
 40
0.2171586883189591
 40
0.3171584769473503
 40
0.4325623094425997
 40
0.559120215231447
 40
0.6893725284024806
 40
0.7520563823154524
 40
0.8170003316012614
 40
0.9095880165835786
 40
1.0
 40
1.0
 40
1.0
 40
1.0
 10
170.5341306443366
 20
125.5721635825576
 30
0.0
 10
170.5401853161213
 20
125.5731492286945
 30
0.0
 10
170.5564364027646
 20
125.5757947595079
 30
0.0
 10
170.2553995699808
 20
125.5266063868752
 30
0.0
 10
169.6981467384661
 20
125.4463742802082
 30
0.0
 10
168.8476111211591
 20
125.3501731588827
 30
0.0
 10
167.7334545962836
 20
125.2776722838103
 30
0.0
 10
166.4500063218652
 20
125.2745695679843
 30
0.0
 10
165.4010899619983
 20
125.3432186207623
 30
0.0
 10
164.6689780706397
 20
125.4210152806301
 30
0.0
 10
164.1360662969962
 20
125.4899800900059
 30
0.0
 10
163.6751310940256
 20
125.5615749966117
 30
0.0
 10
163.6106420196668
 20
125.5725504810534
 30
0.0
 10
163.5787808410512
 20
125.577972978952
 30
0.0
  0
LINE
  5
C2
330
1F
100
AcDbEntity
  8
0
  6
Continuous
 62
     7
370
    15
100
AcDbLine
 10
183.1846960558
 20
95.5787523378
 30
0.0
 11
183.1846960558
 21
125.5787523378
 31
0.0
  0
CIRCLE
  5
C3
330
1F
100
AcDbEntity
  8
0
  6
Continuous
 62
     7
370
    15
100
AcDbCircle
 10
167.0739910391
 20
110.5787523378
 30
0.0
 40
2.499999999999986
  0
LINE
  5
C4
330
1F
100
AcDbEntity
  8
0
  6
Continuous
 62
     7
370
    15
100
AcDbLine
 10
197.1239910391
 20
103.3528928594
 30
0.0
 11
197.1239910391
 21
117.8046118162
 31
0.0
  0
ARC
  5
C5
330
1F
100
AcDbEntity
  8
0
  6
Continuous
 62
     7
370
    15
100
AcDbCircle
 10
180.1116497498
 20
106.0541444362
 30
0.0
 40
17.09405695605436
100
AcDbArc
 50
357.4584677399
 51
5.6045517019
  0
LWPOLYLINE
  5
C6
330
1F
100
AcDbEntity
  8
0
  6
Continuous
 62
     7
370
    15
100
AcDbPolyline
 90
        7
 70
   128
 43
0.0
 10
197.1239910391
 20
114.4953996234
 10
197.1331240715
 20
114.8290290533
 10
197.1402405551
 20
115.2103849508
 10
197.1424053439
 20
115.5305196873
 10
197.1393838494
 20
115.7547416968
 10
197.1315034973
 20
115.8587530453
 10
197.1239910391
 20
115.8553115691
  0
CIRCLE
  5
C7
330
1F
100
AcDbEntity
  8
0
  6
HIDDEN
 62
     7
370
     0
100
AcDbCircle
 10
179.6239910391
 20
110.5787523378
 30
0.0
 40
3.000000000000005
  0
CIRCLE
  5
C8
330
1F
100
AcDbEntity
  8
0
  6
HIDDEN
 62
     7
370
     0
100
AcDbCircle
 10
179.6239910391
 20
110.5787523378
 30
0.0
 40
1.249999999999986
  0
CIRCLE
  5
C9
330
1F
100
AcDbEntity
  8
0
  6
HIDDEN
 62
     7
370
     0
100
AcDbCircle
 10
179.6239910391
 20
110.5787523378
 30
0.0
 40
2.100000000000005
  0
LINE
  5
CA
330
1F
100
AcDbEntity
  8
0
  6
HIDDEN
 62
     7
370
     0
100
AcDbLine
 10
146.7320582076
 20
135.0374420002
 30
0.0
 11
146.7320582076
 21
130.4287523378
 31
0.0
  0
ARC
  5
CB
330
1F
100
AcDbEntity
  8
0
  6
HIDDEN
 62
     7
370
     0
100
AcDbCircle
 10
140.4029719963
 20
123.072774764
 30
0.0
 40
3.674713176777396
100
AcDbArc
 50
265.6459659443
 51
13.6418631495
  0
ARC
  5
CC
330
1F
100
AcDbEntity
  8
0
  6
HIDDEN
 62
     7
370
     0
100
AcDbCircle
 10
139.8463394625
 20
123.0761620097
 30
0.0
 40
3.677990061962087
100
AcDbArc
 50
167.0461247996
 51
274.3293787217
  0
LINE
  5
CD
330
1F
100
AcDbEntity
  8
0
  6
HIDDEN
 62
     7
370
     0
100
AcDbLine
 10
120.1191412437
 20
87.054152715
 30
0.0
 11
119.8702764249
 21
87.0308897485
 31
0.0
  0
LINE
  5
CE
330
1F
100
AcDbEntity
  8
0
  6
HIDDEN
 62
     7
370
     0
100
AcDbLine
 10
119.7377156637
 20
134.138838666
 30
0.0
 11
120.1190485234
 21
134.1033353678
 31
0.0
  0
SPLINE
  5
CF
330
1F
100
AcDbEntity
  8
0
  6
HIDDEN
 62
     7
370
     0
100
AcDbSpline
210
0.0
220
0.0
230
1.0
 70
     8
 71
     3
 72
    10
 73
     6
 74
     0
 42
0.00000001
 43
0.00000001
 40
0.0
 40
0.0
 40
0.0
 40
0.0
 40
0.4475540578465433
 40
0.8950913577471822
 40
1.0
 40
1.0
 40
1.0
 40
1.0
 10
125.8789930406848
 20
130.416280813606
 30
0.0
 10
126.12569987255
 20
130.4457933622725
 30
0.0
 10
126.6191042987377
 20
130.5048173545554
 30
0.0
 10
126.90811987804
 20
130.5187553687357
 30
0.0
 10
126.8477403985927
 20
130.5148640359964
 30
0.0
 10
126.8362744274896
 20
130.5141250778412
 30
0.0
  0
SPLINE
  5
D0
330
1F
100
AcDbEntity
  8
0
  6
HIDDEN
 62
     7
370
     0
100
AcDbSpline
210
0.0
220
0.0
230
1.0
 70
     8
 71
     3
 72
    10
 73
     6
 74
     0
 42
0.00000001
 43
0.00000001
 40
0.0
 40
0.0
 40
0.0
 40
0.0
 40
0.3455414873656232
 40
0.7967177401309405
 40
1.0
 40
1.0
 40
1.0
 40
1.0
 10
126.8362942858263
 20
90.64337824781698
 30
0.0
 10
126.8267344637904
 20
90.64393380008912
 30
0.0
 10
126.8046923065186
 20
90.64521474135654
 30
0.0
 10
126.387721831762
 20
90.67517419583325
 30
0.0
 10
125.9995603981263
 20
90.72557026845517
 30
0.0
 10
125.8789930406848
 20
90.74122386197307
 30
0.0
  0
SPLINE
  5
D1
330
1F
100
AcDbEntity
  8
0
  6
HIDDEN
 62
     7
370
     0
100
AcDbSpline
210
0.0
220
0.0
230
1.0
 70
     8
 71
     3
 72
    15
 73
    11
 74
     0
 42
0.00000001
 43
0.00000001
 40
0.0
 40
0.0
 40
0.0
 40
0.0
 40
0.1409172169897704
 40
0.2818898291171903
 40
0.4212989265166057
 40
0.5593768372264385
 40
0.6988856205980568
 40
0.840367197904641
 40
0.9813164454670267
 40
1.0
 40
1.0
 40
1.0
 40
1.0
 10
125.8789930406848
 20
90.74122386197307
 30
0.0
 10
125.5629513544122
 20
90.7815776792947
 30
0.0
 10
124.9307437445802
 20
90.86230117718954
 30
0.0
 10
123.6965806229029
 20
90.9388562747918
 30
0.0
 10
122.4258586220444
 20
90.93418022365275
 30
0.0
 10
121.237299217017
 20
90.85338421192053
 30
0.0
 10
120.2441765442359
 20
90.7289874154088
 30
0.0
 10
119.6047675379393
 20
90.62258387674669
 30
0.0
 10
119.3237474313558
 20
90.56950321606952
 30
0.0
 10
119.390308169049
 20
90.58175925608377
 30
0.0
 10
119.3980984925672
 20
90.5831937130936
 30
0.0
  0
SPLINE
  5
D2
330
1F
100
AcDbEntity
  8
0
  6
HIDDEN
 62
     7
370
     0
100
AcDbSpline
210
0.0
220
0.0
230
1.0
 70
     8
 71
     3
 72
    15
 73
    11
 74
     0
 42
0.00000001
 43
0.00000001
 40
0.0
 40
0.0
 40
0.0
 40
0.0
 40
0.1201202395113828
 40
0.2584739316900693
 40
0.3987301965958639
 40
0.54040228904327
 40
0.6807395403003644
 40
0.8190356063860877
 40
0.9577823106998845
 40
1.0
 40
1.0
 40
1.0
 40
1.0
 10
119.3980984925672
 20
130.5743109624854
 30
0.0
 10
119.4188076290377
 20
130.5702863686318
 30
0.0
 10
119.4633694110255
 20
130.561626274371
 30
0.0
 10
120.0258090168982
 20
130.4623351477623
 30
0.0
 10
120.9192712292195
 20
130.338417557781
 30
0.0
 10
122.0782503834117
 20
130.2387071209596
 30
0.0
 10
123.351287263537
 20
130.211568631884
 30
0.0
 10
124.5855725381806
 20
130.2669074660479
 30
0.0
 10
125.4135353349466
 20
130.3533860650321
 30
0.0
 10
125.7909458796106
 20
130.404383483322
 30
0.0
 10
125.8789930406848
 20
130.416280813606
 30
0.0
  0
LINE
  5
D3
330
1F
100
AcDbEntity
  8
0
  6
HIDDEN
 62
     7
370
     0
100
AcDbLine
 10
113.1279656353
 20
93.5787523378
 30
0.0
 11
113.1279656353
 21
127.5787523378
 31
0.0
  0
LWPOLYLINE
  5
D4
330
1F
100
AcDbEntity
  8
0
  6
HIDDEN
 62
     7
370
     0
100
AcDbPolyline
 90
       15
 70
   128
 43
0.0
 10
140.1239910391
 20
132.5243547524
 10
140.8589891103
 20
132.5584085531
 10
141.5689577038
 20
132.6594102936
 10
142.2297196906
 20
132.823920481
 10
142.8187736137
 20
133.046336918
 10
143.3160599482
 20
133.3190854797
 10
143.7046442045
 20
133.6328780409
 10
143.9712936118
 20
133.9770287723
 10
144.1069277443
 20
134.3398180335
 10
144.1069277443
 20
134.7088914714
 10
143.9712936118
 20
135.0716807326
 10
143.7046442045
 20
135.415831464
 10
143.3160599482
 20
135.7296240252
 10
142.8187736137
 20
136.0023725869
 10
142.5122643374
 20
136.1287355249
  0
LWPOLYLINE
  5
D5
330
1F
100
AcDbEntity
  8
0
  6
HIDDEN
 62
     7
370
     0
100
AcDbPolyline
 90
       15
 70
   128
 43
0.0
 10
137.7542718674
 20
136.1355989182
 10
137.4292084645
 20
136.0023725869
 10
136.93192213
 20
135.7296240252
 10
136.5433378737
 20
135.415831464
 10
136.2766884664
 20
135.0716807326
 10
136.1410543339
 20
134.7088914714
 10
136.1410543339
 20
134.3398180335
 10
136.2766884664
 20
133.9770287723
 10
136.5433378737
 20
133.6328780409
 10
136.93192213
 20
133.3190854797
 10
137.4292084645
 20
133.046336918
 10
138.0182623876
 20
132.823920481
 10
138.6790243743
 20
132.6594102936
 10
139.3889929678
 20
132.5584085531
 10
140.1239910391
 20
132.5243547524
  0
SPLINE
  5
D6
330
1F
100
AcDbEntity
  8
0
  6
HIDDEN
 62
     7
370
     0
100
AcDbSpline
210
0.0
220
0.0
230
1.0
 70
     8
 71
     3
 72
    11
 73
     7
 74
     0
 42
0.00000001
 43
0.00000001
 40
0.0
 40
0.0
 40
0.0
 40
0.0
 40
0.0005779865010845
 40
0.0005779865010845
 40
0.0005779865010845
 40
0.0011559733324421
 40
0.0011559733324421
 40
0.0011559733324421
 40
0.0011559733324421
 10
100.2239910390832
 20
112.5785929459433
 30
0.0
 10
100.3906582938891
 20
112.5766093066024
 30
0.0
 10
100.5573247235668
 20
112.5745716995998
 30
0.0
 10
100.7239910620186
 20
112.5724602361934
 30
0.0
 10
100.890657490845
 20
112.570348771642
 30
0.0
 10
101.0573238644827
 20
112.5681632084857
 30
0.0
 10
101.2239910390832
 20
112.5658806311541
 30
0.0
  0
SPLINE
  5
D7
330
1F
100
AcDbEntity
  8
0
  6
HIDDEN
 62
     7
370
     0
100
AcDbSpline
210
0.0
220
0.0
230
1.0
 70
     8
 71
     3
 72
     8
 73
     4
 74
     0
 42
0.00000001
 43
0.00000001
 40
0.0
 40
0.0
 40
0.0
 40
0.0
 40
0.0011564765856722
 40
0.0011564765856722
 40
0.0011564765856722
 40
0.0011564765856722
 10
101.2239910390831
 20
108.5820520355733
 30
0.0
 10
100.8906831085143
 20
108.58117687999
 30
0.0
 10
100.5573478761221
 20
108.5801220287385
 30
0.0
 10
100.2239910390831
 20
108.5789509417009
 30
0.0
  0
LINE
  5
D8
330
1F
100
AcDbEntity
  8
0
  6
HIDDEN
 62
     7
370
     0
100
AcDbLine
 10
139.7838170076
 20
93.5787523378
 30
0.0
 11
139.7838170076
 21
127.5787523378
 31
0.0
  0
LINE
  5
D9
330
1F
100
AcDbEntity
  8
0
  6
HIDDEN
 62
     7
370
     0
100
AcDbLine
 10
142.0739910391
 20
94.8537523378
 30
0.0
 11
142.0739910391
 21
126.3037523213
 31
0.0
  0
SPLINE
  5
DA
330
1F
100
AcDbEntity
  8
0
  6
HIDDEN
 62
     7
370
     0
100
AcDbSpline
210
0.0
220
0.0
230
1.0
 70
     8
 71
     3
 72
    16
 73
    12
 74
     0
 42
0.00000001
 43
0.00000001
 40
0.0
 40
0.0
 40
0.0
 40
0.0
 40
0.124999999999998
 40
0.124999999999998
 40
0.249999999999996
 40
0.249999999999996
 40
0.4999999999999973
 40
0.4999999999999973
 40
0.7499999999999987
 40
0.7499999999999987
 40
1.0
 40
1.0
 40
1.0
 40
1.0
 10
108.9239910390831
 20
94.77726190175788
 30
0.0
 10
109.019112793749
 20
94.77726190175788
 30
0.0
 10
109.1124428624771
 20
94.77344606836508
 30
0.0
 10
109.2957046232151
 20
94.75867551563528
 30
0.0
 10
109.3865823387721
 20
94.74751746765969
 30
0.0
 10
109.6433840362918
 20
94.70504619751796
 30
0.0
 10
109.7984514011638
 20
94.66400000031516
 30
0.0
 10
110.0521978627184
 20
94.56885388373327
 30
0.0
 10
110.1530683143863
 20
94.5140911496517
 30
0.0
 10
110.2883147290811
 20
94.40283002574782
 30
0.0
 10
110.3239910390832
 20
94.34566028841914
 30
0.0
 10
110.3239910390832
 20
94.29123871538542
 30
0.0
  0
SPLINE
  5
DB
330
1F
100
AcDbEntity
  8
0
  6
HIDDEN
 62
     7
370
     0
100
AcDbSpline
210
0.0
220
0.0
230
1.0
 70
     8
 71
     3
 72
     8
 73
     4
 74
     0
 42
0.00000001
 43
0.00000001
 40
0.0
 40
0.0
 40
0.0
 40
0.0
 40
1.0
 40
1.0
 40
1.0
 40
1.0
 10
101.5239910423983
 20
96.92206484784012
 30
0.0
 10
101.5239910424003
 20
96.0381677055232
 30
0.0
 10
101.5105104164905
 20
95.32358446046125
 30
0.0
 10
101.5091590483012
 20
94.77726190175788
 30
0.0
  0
SPLINE
  5
DC
330
1F
100
AcDbEntity
  8
0
  6
HIDDEN
 62
     7
370
     0
100
AcDbSpline
210
0.0
220
0.0
230
1.0
 70
     8
 71
     3
 72
    10
 73
     6
 74
     0
 42
0.00000001
 43
0.00000001
 40
0.0
 40
0.0
 40
0.0
 40
0.0
 40
0.5
 40
0.5
 40
1.0
 40
1.0
 40
1.0
 40
1.0
 10
101.2239910390831
 20
97.94697511354332
 30
0.0
 10
101.315382154776
 20
97.77233632592589
 30
0.0
 10
101.3880339885091
 20
97.59873449867032
 30
0.0
 10
101.4955328815173
 20
97.25512107966361
 30
0.0
 10
101.5239910423927
 20
97.08679525313215
 30
0.0
 10
101.5239910423983
 20
96.92206484789959
 30
0.0
  0
LINE
  5
DD
330
1F
100
AcDbEntity
  8
0
  6
HIDDEN
 62
     7
370
     0
100
AcDbLine
 10
101.2239910391
 20
100.9779255454
 30
0.0
 11
101.2239910391
 21
97.9469751135
 31
0.0
  0
SPLINE
  5
DE
330
1F
100
AcDbEntity
  8
0
  6
HIDDEN
 62
     7
370
     0
100
AcDbSpline
210
0.0
220
0.0
230
1.0
 70
     8
 71
     3
 72
    10
 73
     6
 74
     0
 42
0.00000001
 43
0.00000001
 40
0.0
 40
0.0
 40
0.0
 40
0.0
 40
0.5
 40
0.5
 40
1.0
 40
1.0
 40
1.0
 40
1.0
 10
101.5239910422709
 20
102.3457659621467
 30
0.0
 10
101.5239910422708
 20
102.1037819945399
 30
0.0
 10
101.4958410132003
 20
101.8694395655749
 30
0.0
 10
101.3922510990579
 20
101.4140645432972
 30
0.0
 10
101.3156223894664
 20
101.1924599801898
 30
0.0
 10
101.2239910390832
 20
100.9779255453919
 30
0.0
  0
LINE
  5
DF
330
1F
100
AcDbEntity
  8
0
  6
HIDDEN
 62
     7
370
     0
100
AcDbLine
 10
101.5239910423
 20
114.1833859594
 30
0.0
 11
101.5239910423
 21
102.3457659621
 31
0.0
  0
SPLINE
  5
E0
330
1F
100
AcDbEntity
  8
0
  6
HIDDEN
 62
     7
370
     0
100
AcDbSpline
210
0.0
220
0.0
230
1.0
 70
     8
 71
     3
 72
     8
 73
     4
 74
     0
 42
0.00000001
 43
0.00000001
 40
0.0
 40
0.0
 40
0.0
 40
0.0
 40
1.0
 40
1.0
 40
1.0
 40
1.0
 10
101.2239910390831
 20
120.1856916588579
 30
0.0
 10
101.4050225056421
 20
119.7535841731952
 30
0.0
 10
101.5239910422766
 20
119.2994387670955
 30
0.0
 10
101.5239910422709
 20
118.8117387134015
 30
0.0
  0
LINE
  5
E1
330
1F
100
AcDbEntity
  8
0
  6
HIDDEN
 62
     7
370
     0
100
AcDbLine
 10
101.2239910391
 20
123.2188946448
 30
0.0
 11
101.2239910391
 21
120.1856916589
 31
0.0
  0
SPLINE
  5
E2
330
1F
100
AcDbEntity
  8
0
  6
HIDDEN
 62
     7
370
     0
100
AcDbSpline
210
0.0
220
0.0
230
1.0
 70
     8
 71
     3
 72
    10
 73
     6
 74
     0
 42
0.00000001
 43
0.00000001
 40
0.0
 40
0.0
 40
0.0
 40
0.0
 40
0.5
 40
0.5
 40
1.0
 40
1.0
 40
1.0
 40
1.0
 10
101.5239910424764
 20
124.2354398277094
 30
0.0
 10
101.5239910424746
 20
124.0708034811034
 30
0.0
 10
101.4968323717191
 20
123.9036482572729
 30
0.0
 10
101.3910673764006
 20
123.5650252494713
 30
0.0
 10
101.3146525881035
 20
123.3927534721802
 30
0.0
 10
101.2239910390832
 20
123.2188946448362
 30
0.0
  0
SPLINE
  5
E3
330
1F
100
AcDbEntity
  8
0
  6
HIDDEN
 62
     7
370
     0
100
AcDbSpline
210
0.0
220
0.0
230
1.0
 70
     8
 71
     3
 72
    18
 73
    14
 74
     0
 42
0.00000001
 43
0.00000001
 40
0.0
 40
0.0
 40
0.0
 40
0.0
 40
0.2500000000000033
 40
0.2500000000000033
 40
0.3750000000000029
 40
0.3750000000000029
 40
0.5000000000000026
 40
0.5000000000000026
 40
0.6250000000000022
 40
0.6250000000000022
 40
0.7500000000000018
 40
0.7500000000000018
 40
1.0
 40
1.0
 40
1.0
 40
1.0
 10
106.3239910390832
 20
126.8662659601937
 30
0.0
 10
106.3239910390831
 20
126.8117914396415
 30
0.0
 10
106.289080347691
 20
126.755410380289
 30
0.0
 10
106.1870710463579
 20
126.6713335394355
 30
0.0
 10
106.1454346916798
 20
126.6439998354446
 30
0.0
 10
106.0470288961911
 20
126.5910459198456
 30
0.0
 10
105.9894856844868
 20
126.5651585661284
 30
0.0
 10
105.8621875109138
 20
126.5173810212952
 30
0.0
 10
105.7926002061564
 20
126.4954331031173
 30
0.0
 10
105.6411659610014
 20
126.4560005382045
 30
0.0
 10
105.5584820579075
 20
126.4384442889787
 30
0.0
 10
105.3023705958694
 20
126.3960055235582
 30
0.0
 10
105.1144555919814
 20
126.3802427738212
 30
0.0
 10
104.9239910390831
 20
126.3802427738212
 30
0.0
  0
LINE
  5
E4
330
1F
100
AcDbEntity
  8
0
  6
HIDDEN
 62
     7
370
     0
100
AcDbLine
 10
104.9239910391
 20
126.3802427738
 30
0.0
 11
101.5239910425
 21
126.3802427738
 31
0.0
  0
LINE
  5
E5
330
1F
100
AcDbEntity
  8
0
  6
HIDDEN
 62
     7
370
     0
100
AcDbLine
 10
101.4550220524
 20
94.7772619018
 30
0.0
 11
108.9239910391
 21
94.7772619018
 31
0.0
  0
SPLINE
  5
E6
330
1F
100
AcDbEntity
  8
0
  6
HIDDEN
 62
     7
370
     0
100
AcDbSpline
210
0.0
220
0.0
230
1.0
 70
     8
 71
     3
 72
    22
 73
    18
 74
     0
 42
0.00000001
 43
0.00000001
 40
0.0
 40
0.0
 40
0.0
 40
0.0
 40
0.1249999999999998
 40
0.1249999999999998
 40
0.2499999999999995
 40
0.2499999999999995
 40
0.4999999999999992
 40
0.4999999999999992
 40
0.5624999999999993
 40
0.5624999999999993
 40
0.6249999999999994
 40
0.6249999999999994
 40
0.7499999999999996
 40
0.7499999999999996
 40
0.8749999999999998
 40
0.8749999999999998
 40
1.0
 40
1.0
 40
1.0
 40
1.0
 10
101.4550220524411
 20
94.77726190175788
 30
0.0
 10
101.4419396597127
 20
95.03236761190554
 30
0.0
 10
101.4287200962729
 20
95.32552587100945
 30
0.0
 10
101.4062729184788
 20
95.98782633663426
 30
0.0
 10
101.3967944514543
 20
96.35810025724564
 30
0.0
 10
101.3775964905177
 20
97.58065706035943
 30
0.0
 10
101.3787102635146
 20
98.5177959864913
 30
0.0
 10
101.3976210564677
 20
99.83766721600628
 30
0.0
 10
101.4022505843267
 20
100.1091691249826
 30
0.0
 10
101.4127318040727
 20
100.6675539597849
 30
0.0
 10
101.4185270653571
 20
100.9546768157245
 30
0.0
 10
101.436836286262
 20
101.8272660700962
 30
0.0
 10
101.4508712205424
 20
102.4277217464521
 30
0.0
 10
101.4803283926792
 20
103.6651962389481
 30
0.0
 10
101.4958840836608
 20
104.3022123955916
 30
0.0
 10
101.5196786336577
 20
105.6137009932761
 30
0.0
 10
101.527697685803
 20
106.2898236049366
 30
0.0
 10
101.5239910390831
 20
106.9741187162214
 30
0.0
  0
LINE
  5
E7
330
1F
100
AcDbEntity
  8
0
  6
HIDDEN
 62
     7
370
     0
100
AcDbLine
 10
101.5239910425
 20
114.1833859594
 30
0.0
 11
101.5239910425
 21
126.3802427738
 31
0.0
  0
SPLINE
  5
E8
330
1F
100
AcDbEntity
  8
0
  6
HIDDEN
 62
     7
370
     0
100
AcDbSpline
210
0.0
220
0.0
230
1.0
 70
     8
 71
     3
 72
    10
 73
     6
 74
     0
 42
0.00000001
 43
0.00000001
 40
0.0
 40
0.0
 40
0.0
 40
0.0
 40
0.5
 40
0.5
 40
1.0
 40
1.0
 40
1.0
 40
1.0
 10
101.5239910390831
 20
106.9741187162063
 30
0.0
 10
101.523991039083
 20
107.2480338642807
 30
0.0
 10
101.4982318092153
 20
107.5189754430108
 30
0.0
 10
101.3950258764821
 20
108.0546665246137
 30
0.0
 10
101.3176877126069
 20
108.3204133281357
 30
0.0
 10
101.2239910390831
 20
108.5820520355733
 30
0.0
  0
SPLINE
  5
E9
330
1F
100
AcDbEntity
  8
0
  6
HIDDEN
 62
     7
370
     0
100
AcDbSpline
210
0.0
220
0.0
230
1.0
 70
     8
 71
     3
 72
    10
 73
     6
 74
     0
 42
0.00000001
 43
0.00000001
 40
0.0
 40
0.0
 40
0.0
 40
0.0
 40
0.5
 40
0.5
 40
1.0
 40
1.0
 40
1.0
 40
1.0
 10
101.2239910390831
 20
112.5658806311541
 30
0.0
 10
101.3172216204742
 20
112.8297744392242
 30
0.0
 10
101.3922512327109
 20
113.0959547498624
 30
0.0
 10
101.497318331889
 20
113.6342773248206
 30
0.0
 10
101.5239910424752
 20
113.9070254410662
 30
0.0
 10
101.5239910424764
 20
114.1833859593566
 30
0.0
  0
LINE
  5
EA
330
1F
100
AcDbEntity
  8
0
  6
HIDDEN
 62
     7
370
     0
100
AcDbLine
 10
101.2239910391
 20
108.5820520356
 30
0.0
 11
101.2239910391
 21
112.5658806312
 31
0.0
  0
SPLINE
  5
EB
330
1F
100
AcDbEntity
  8
0
  6
HIDDEN
 62
     7
370
     0
100
AcDbSpline
210
0.0
220
0.0
230
1.0
 70
     8
 71
     3
 72
     9
 73
     5
 74
     0
 42
0.00000001
 43
0.00000001
 40
0.0
 40
0.0
 40
0.0
 40
0.0
 40
0.9378540242487091
 40
1.0
 40
1.0
 40
1.0
 40
1.0
 10
179.6239910390832
 20
108.0787523377895
 30
0.0
 10
179.9153310803204
 20
108.0924528263728
 30
0.0
 10
180.2259764832342
 20
108.1070611643754
 30
0.0
 10
180.4974468040489
 20
108.2400087601846
 30
0.0
 10
180.5143175920235
 20
108.2482709182499
 30
0.0
  0
ARC
  5
EC
330
1F
100
AcDbEntity
  8
0
  6
HIDDEN
 62
     7
370
     0
100
AcDbCircle
 10
179.6040400916
 20
110.5735915169
 30
0.0
 40
2.494918950539141
100
AcDbArc
 50
305.1754755871
 51
270.4581781189
  0
SPLINE
  5
ED
330
1F
100
AcDbEntity
  8
0
  6
HIDDEN
 62
     7
370
     0
100
AcDbSpline
210
0.0
220
0.0
230
1.0
 70
     8
 71
     3
 72
    72
 73
    68
 74
     0
 42
0.00000001
 43
0.00000001
 40
-0.0312500000000004
 40
-0.0312500000000004
 40
0.0
 40
0.0
 40
0.03125
 40
0.03125
 40
0.0624999999999999
 40
0.0624999999999999
 40
0.0937499999999999
 40
0.0937499999999999
 40
0.1249999999999999
 40
0.1249999999999999
 40
0.1562499999999999
 40
0.1562499999999999
 40
0.1874999999999999
 40
0.1874999999999999
 40
0.2187499999999998
 40
0.2187499999999998
 40
0.2499999999999998
 40
0.2499999999999998
 40
0.2812499999999997
 40
0.2812499999999997
 40
0.3124999999999997
 40
0.3124999999999997
 40
0.3437499999999997
 40
0.3437499999999997
 40
0.3749999999999996
 40
0.3749999999999996
 40
0.4062499999999996
 40
0.4062499999999996
 40
0.4374999999999995
 40
0.4374999999999995
 40
0.4687499999999995
 40
0.4687499999999995
 40
0.4999999999999994
 40
0.4999999999999994
 40
0.5312499999999994
 40
0.5312499999999994
 40
0.5624999999999993
 40
0.5624999999999993
 40
0.5937499999999993
 40
0.5937499999999993
 40
0.6249999999999992
 40
0.6249999999999992
 40
0.6562499999999992
 40
0.6562499999999992
 40
0.6874999999999992
 40
0.6874999999999992
 40
0.7187499999999991
 40
0.7187499999999991
 40
0.7499999999999991
 40
0.7499999999999991
 40
0.7812499999999991
 40
0.7812499999999991
 40
0.812499999999999
 40
0.812499999999999
 40
0.843749999999999
 40
0.843749999999999
 40
0.8749999999999989
 40
0.8749999999999989
 40
0.9062499999999989
 40
0.9062499999999989
 40
0.9218749999999991
 40
0.9218749999999991
 40
0.9374999999999993
 40
0.9374999999999993
 40
0.9687499999999996
 40
0.9687499999999996
 40
1.0
 40
1.0
 40
1.03125
 40
1.03125
 10
173.6163801800462
 20
110.2831428560397
 30
0.0
 10
173.6163801800462
 20
110.8743618195393
 30
0.0
 10
173.6507102360345
 20
111.1635114187308
 30
0.0
 10
173.7840483879083
 20
111.7296861420947
 30
0.0
 10
173.8850419129942
 20
112.0093187690441
 30
0.0
 10
174.141641660417
 20
112.5301199176972
 30
0.0
 10
174.2973397795554
 20
112.7743438710542
 30
0.0
 10
174.6621452638581
 20
113.2317724468552
 30
0.0
 10
174.8659005184967
 20
113.4381383537759
 30
0.0
 10
175.3104888997019
 20
113.8088512466956
 30
0.0
 10
175.5540061912423
 20
113.9744976806665
 30
0.0
 10
176.0617010931778
 20
114.2557815274512
 30
0.0
 10
176.3268884698442
 20
114.3728209943691
 30
0.0
 10
176.8792218637817
 20
114.5619877936992
 30
0.0
 10
177.1654199264058
 20
114.6332410679114
 30
0.0
 10
177.7394865205618
 20
114.7272604156707
 30
0.0
 10
178.0297816819024
 20
114.7509279087014
 30
0.0
 10
178.6170051218166
 20
114.7509926490824
 30
0.0
 10
178.9100911223674
 20
114.727057498679
 30
0.0
 10
179.4830612270388
 20
114.6331007155378
 30
0.0
 10
179.7648630240363
 20
114.5631154370952
 30
0.0
 10
180.3185585177239
 20
114.3738939289044
 30
0.0
 10
180.58606193742
 20
114.2557539486994
 30
0.0
 10
181.0904226067283
 20
113.9766141740725
 30
0.0
 10
181.3292146692129
 20
113.8150303642521
 30
0.0
 10
181.7774851072833
 20
113.4426743045662
 30
0.0
 10
181.9821656280421
 20
113.235256935291
 30
0.0
 10
182.3419280404625
 20
112.7863515319014
 30
0.0
 10
182.4990867659045
 20
112.5429194185605
 30
0.0
 10
182.7602719668402
 20
112.0165850131803
 30
0.0
 10
182.8593794819072
 20
111.7438330864244
 30
0.0
 10
182.9947842994775
 20
111.1789995698967
 30
0.0
 10
183.0306916203123
 20
110.8825938829383
 30
0.0
 10
183.0324769988094
 20
110.2979492032056
 30
0.0
 10
182.9997752989349
 20
110.0081980613382
 30
0.0
 10
182.8661776110835
 20
109.4338959289094
 30
0.0
 10
182.7671934614401
 20
109.1586135986724
 30
0.0
 10
182.5113912692476
 20
108.6359049410942
 30
0.0
 10
182.352500145004
 20
108.3861777511972
 30
0.0
 10
181.9915551048975
 20
107.9322292434623
 30
0.0
 10
181.7877326709471
 20
107.7244859321882
 30
0.0
 10
181.3390998387785
 20
107.34959213146
 30
0.0
 10
181.0995177122243
 20
107.1865356366944
 30
0.0
 10
180.5921700087979
 20
106.9045378714249
 30
0.0
 10
180.3219340825804
 20
106.7850564595199
 30
0.0
 10
179.7705760521968
 20
106.5960542630729
 30
0.0
 10
179.4884096463748
 20
106.5254694658298
 30
0.0
 10
178.9114022566964
 20
106.4304758805328
 30
0.0
 10
178.6156680113
 20
106.4065470090781
 30
0.0
 10
178.0324124025033
 20
106.4065417188537
 30
0.0
 10
177.7422853299122
 20
106.4298555627434
 30
0.0
 10
177.1650927475848
 20
106.5242478044666
 30
0.0
 10
176.8779151016454
 20
106.5959907597124
 30
0.0
 10
176.3290240181661
 20
106.7839259949209
 30
0.0
 10
176.0643930764031
 20
106.9004129783461
 30
0.0
 10
175.5558656033584
 20
107.1817971202964
 30
0.0
 10
175.3121105505233
 20
107.3475591716854
 30
0.0
 10
174.8689539452581
 20
107.7165650481583
 30
0.0
 10
174.6664734510245
 20
107.9212150685959
 30
0.0
 10
174.3938736934922
 20
108.2616807662578
 30
0.0
 10
174.3078438924967
 20
108.3815395174507
 30
0.0
 10
174.1510747534961
 20
108.6270994670686
 30
0.0
 10
174.0798353213289
 20
108.753287787949
 30
0.0
 10
173.887569063563
 20
109.1421634214787
 30
0.0
 10
173.7875741384565
 20
109.415591091246
 30
0.0
 10
173.650872306704
 20
109.990634978702
 30
0.0
 10
173.6163801800462
 20
110.2831428560397
 30
0.0
 10
173.6163801800462
 20
110.8743618195393
 30
0.0
  0
LINE
  5
EE
330
1F
100
AcDbEntity
  8
0
  6
HIDDEN
 62
     7
370
     0
100
AcDbLine
 10
101.3739910391
 20
92.5887523378
 30
0.0
 11
101.3739910391
 21
89.7088145724
 31
0.0
  0
LINE
  5
EF
330
1F
100
AcDbEntity
  8
0
  6
HIDDEN
 62
     7
370
     0
100
AcDbLine
 10
110.3239910391
 20
92.5887523378
 30
0.0
 11
110.3239910391
 21
88.6150148066
 31
0.0
  0
LINE
  5
F0
330
1F
100
AcDbEntity
  8
0
  6
HIDDEN
 62
     7
370
     0
100
AcDbLine
 10
101.3739910391
 20
128.5687523378
 30
0.0
 11
101.3739910391
 21
131.4486901032
 31
0.0
  0
LINE
  5
F1
330
1F
100
AcDbEntity
  8
0
  6
HIDDEN
 62
     7
370
     0
100
AcDbLine
 10
106.3239910391
 20
128.5687523378
 30
0.0
 11
106.3239910391
 21
132.4228600102
 31
0.0
  0
LINE
  5
F2
330
1F
100
AcDbEntity
  8
0
  6
HIDDEN
 62
     7
370
     0
100
AcDbLine
 10
150.9239910391
 20
101.0787523378
 30
0.0
 11
150.9239910391
 21
120.0787523378
 31
0.0
  0
LINE
  5
F3
330
1F
100
AcDbEntity
  8
0
  6
HIDDEN
 62
     7
370
     0
100
AcDbLine
 10
153.9239910391
 20
101.0787523378
 30
0.0
 11
153.9239910391
 21
120.0787523378
 31
0.0
  0
LINE
  5
F4
330
1F
100
AcDbEntity
  8
0
  6
HIDDEN
 62
     7
370
     0
100
AcDbLine
 10
142.5739910391
 20
102.0787523378
 30
0.0
 11
142.5739910391
 21
119.0787523378
 31
0.0
  0
LINE
  5
F5
330
1F
100
AcDbEntity
  8
0
  6
HIDDEN
 62
     7
370
     0
100
AcDbLine
 10
148.3116658414
 20
84.1787523378
 30
0.0
 11
145.0739910391
 21
84.1787523378
 31
0.0
  0
LINE
  5
F6
330
1F
100
AcDbEntity
  8
0
  6
HIDDEN
 62
     7
370
     0
100
AcDbLine
 10
158.0739910391
 20
84.1787523378
 30
0.0
 11
151.9363162368
 21
84.1787523378
 31
0.0
  0
LINE
  5
F7
330
1F
100
AcDbEntity
  8
0
  6
HIDDEN
 62
     7
370
     0
100
AcDbLine
 10
137.0739910391
 20
79.0946293549
 30
0.0
 11
137.0739910391
 21
84.1787523378
 31
0.0
  0
LINE
  5
F8
330
1F
100
AcDbEntity
  8
0
  6
HIDDEN
 62
     7
370
     0
100
AcDbLine
 10
145.0739910391
 20
84.1787523378
 30
0.0
 11
137.0739910391
 21
84.1787523378
 31
0.0
  0
LINE
  5
F9
330
1F
100
AcDbEntity
  8
0
  6
HIDDEN
 62
     7
370
     0
100
AcDbLine
 10
145.0739910391
 20
136.9787523378
 30
0.0
 11
137.0739910391
 21
136.9787523378
 31
0.0
  0
LINE
  5
FA
330
1F
100
AcDbEntity
  8
0
  6
HIDDEN
 62
     7
370
     0
100
AcDbLine
 10
158.0739910391
 20
136.9787523378
 30
0.0
 11
151.6396935074
 21
136.9787523378
 31
0.0
  0
LINE
  5
FB
330
1F
100
AcDbEntity
  8
0
  6
HIDDEN
 62
     7
370
     0
100
AcDbLine
 10
148.6082885708
 20
136.9787523378
 30
0.0
 11
145.0739910391
 21
136.9787523378
 31
0.0
  0
LWPOLYLINE
  5
FC
330
1F
100
AcDbEntity
  8
0
  6
HIDDEN
 62
     7
370
     0
100
AcDbPolyline
 90
       22
 70
   128
 43
0.0
 10
162.1239910391
 20
103.1541311353
 10
161.6818582775
 20
103.2012532908
 10
161.279010952
 20
103.3384327468
 10
160.9512438154
 20
103.5534805068
 10
160.7276804161
 20
103.8272886334
 10
160.6281853433
 20
104.1355280732
 10
160.6615991708
 20
104.4508103991
 10
160.8249529334
 20
104.745121393
 10
161.1037319324
 20
104.9923102314
 10
161.4731654304
 20
105.1704131013
 10
161.9004276398
 20
105.2636047811
 10
162.3475544383
 20
105.2636047811
 10
162.7748166478
 20
105.1704131013
 10
163.1442501457
 20
104.9923102314
 10
163.4230291448
 20
104.745121393
 10
163.5863829074
 20
104.4508103991
 10
163.6197967349
 20
104.1355280732
 10
163.520301662
 20
103.8272886334
 10
163.2967382628
 20
103.5534805068
 10
162.9689711262
 20
103.3384327468
 10
162.5661238007
 20
103.2012532908
 10
162.1239910391
 20
103.1541311353
  0
SPLINE
  5
FD
330
1F
100
AcDbEntity
  8
0
  6
HIDDEN
 62
     7
370
     0
100
AcDbSpline
210
0.0
220
0.0
230
1.0
 70
     8
 71
     3
 72
    14
 73
    10
 74
     0
 42
0.00000001
 43
0.00000001
 40
0.0
 40
0.0
 40
0.0
 40
0.0
 40
0.25
 40
0.25
 40
0.5
 40
0.5
 40
0.75
 40
0.75
 40
1.0
 40
1.0
 40
1.0
 40
1.0
 10
161.1702489012252
 20
104.3618437307946
 30
0.0
 10
161.2079958788127
 20
104.3949594027184
 30
0.0
 10
161.2410950710112
 20
104.4356290604807
 30
0.0
 10
161.2870655249186
 20
104.5368997431775
 30
0.0
 10
161.2982934958404
 20
104.5955453228543
 30
0.0
 10
161.2894395944233
 20
104.7292170716831
 30
0.0
 10
161.2694201446485
 20
104.8017050378484
 30
0.0
 10
161.2098624507819
 20
104.9519876104607
 30
0.0
 10
161.1716962474803
 20
105.0280258066209
 30
0.0
 10
161.1302408331323
 20
105.1060217869676
 30
0.0
  0
SPLINE
  5
FE
330
1F
100
AcDbEntity
  8
0
  6
HIDDEN
 62
     7
370
     0
100
AcDbSpline
210
0.0
220
0.0
230
1.0
 70
     8
 71
     3
 72
    14
 73
    10
 74
     0
 42
0.00000001
 43
0.00000001
 40
0.0
 40
0.0
 40
0.0
 40
0.0
 40
0.25
 40
0.25
 40
0.5
 40
0.5
 40
0.75
 40
0.75
 40
1.0
 40
1.0
 40
1.0
 40
1.0
 10
161.1302408331324
 20
105.1060217869674
 30
0.0
 10
161.0956764067298
 20
105.0695623931974
 30
0.0
 10
161.0622862029816
 20
105.0345898619703
 30
0.0
 10
161.0066894573166
 20
104.956003473779
 30
0.0
 10
160.9835571295863
 20
104.9109937763736
 30
0.0
 10
160.9949934191201
 20
104.7677413953338
 30
0.0
 10
161.0260369996717
 20
104.6825730675749
 30
0.0
 10
161.0928931086126
 20
104.5205771778191
 30
0.0
 10
161.1308952369731
 20
104.4404864272966
 30
0.0
 10
161.1702489012248
 20
104.3618437307928
 30
0.0
  0
SPLINE
  5
FF
330
1F
100
AcDbEntity
  8
0
  6
HIDDEN
 62
     7
370
     0
100
AcDbSpline
210
0.0
220
0.0
230
1.0
 70
     8
 71
     3
 72
    48
 73
    44
 74
     0
 42
0.00000001
 43
0.00000001
 40
-0.0625000000000009
 40
-0.0625000000000009
 40
0.0
 40
0.0
 40
0.0312499999999993
 40
0.0312499999999993
 40
0.0624999999999987
 40
0.0624999999999987
 40
0.1249999999999974
 40
0.1249999999999974
 40
0.1874999999999961
 40
0.1874999999999961
 40
0.2499999999999948
 40
0.2499999999999948
 40
0.312499999999994
 40
0.312499999999994
 40
0.343749999999994
 40
0.343749999999994
 40
0.3749999999999939
 40
0.3749999999999939
 40
0.4062499999999939
 40
0.4062499999999939
 40
0.4374999999999938
 40
0.4374999999999938
 40
0.4999999999999944
 40
0.4999999999999944
 40
0.562499999999995
 40
0.562499999999995
 40
0.6249999999999956
 40
0.6249999999999956
 40
0.6874999999999962
 40
0.6874999999999962
 40
0.7499999999999968
 40
0.7499999999999968
 40
0.8124999999999973
 40
0.8124999999999973
 40
0.8437499999999977
 40
0.8437499999999977
 40
0.8749999999999981
 40
0.8749999999999981
 40
0.9062499999999987
 40
0.9062499999999987
 40
0.9374999999999991
 40
0.9374999999999991
 40
1.0
 40
1.0
 40
1.031249999999999
 40
1.031249999999999
 10
163.2547810164347
 20
104.3214414380365
 30
0.0
 10
163.3768488469518
 20
104.3248327632584
 30
0.0
 10
163.4153111768693
 20
104.3332795792047
 30
0.0
 10
163.4854606526358
 20
104.3655544432589
 30
0.0
 10
163.517477785411
 20
104.3898272007248
 30
0.0
 10
163.5962133723287
 20
104.486649862246
 30
0.0
 10
163.6259417731495
 20
104.585799499981
 30
0.0
 10
163.6218300191194
 20
104.8347213017507
 30
0.0
 10
163.5877839264539
 20
104.9853227488453
 30
0.0
 10
163.4764177679292
 20
105.2942379193738
 30
0.0
 10
163.4000188443385
 20
105.4529977989996
 30
0.0
 10
163.2368456640743
 20
105.7607690458379
 30
0.0
 10
163.1482061980587
 20
105.911506578748
 30
0.0
 10
163.0389920973298
 20
106.1294317922706
 30
0.0
 10
163.0060705496178
 20
106.202587451963
 30
0.0
 10
162.961619836618
 20
106.3421240956088
 30
0.0
 10
162.9503870181939
 20
106.4101247309774
 30
0.0
 10
162.9571748166179
 20
106.5300582424885
 30
0.0
 10
162.9749217799034
 20
106.5834769771434
 30
0.0
 10
163.0270723063762
 20
106.6716240554729
 30
0.0
 10
163.0614454708434
 20
106.7077462415572
 30
0.0
 10
163.1733921315414
 20
106.793845591908
 30
0.0
 10
163.2588761086949
 20
106.8229426093023
 30
0.0
 10
163.4170275865953
 20
106.826481204737
 30
0.0
 10
163.4892724620302
 20
106.8005163512569
 30
0.0
 10
163.5949625184152
 20
106.6788192873096
 30
0.0
 10
163.6254615641735
 20
106.5819705280818
 30
0.0
 10
163.6224051882556
 20
106.3328214576146
 30
0.0
 10
163.5884825378611
 20
106.1798861347479
 30
0.0
 10
163.478517110263
 20
105.8670052385816
 30
0.0
 10
163.4033618448702
 20
105.7060493165224
 30
0.0
 10
163.2446019151238
 20
105.3965468543183
 30
0.0
 10
163.157957194482
 20
105.2436683877875
 30
0.0
 10
163.0494870600363
 20
105.0250447722956
 30
0.0
 10
163.0165374933856
 20
104.9528977865104
 30
0.0
 10
162.9677479536253
 20
104.8105497766486
 30
0.0
 10
162.9531563595016
 20
104.7422611247276
 30
0.0
 10
162.9531381226701
 20
104.6171803627383
 30
0.0
 10
162.9678203496293
 20
104.5623188072577
 30
0.0
 10
163.0178327256539
 20
104.4703727838103
 30
0.0
 10
163.0518190316846
 20
104.4340542187379
 30
0.0
 10
163.1661166002771
 20
104.3475811297989
 30
0.0
 10
163.2547810164347
 20
104.3214414380365
 30
0.0
 10
163.3768488469518
 20
104.3248327632584
 30
0.0
  0
SPLINE
  5
100
330
1F
100
AcDbEntity
  8
0
  6
HIDDEN
 62
     7
370
     0
100
AcDbSpline
210
0.0
220
0.0
230
1.0
 70
     8
 71
     3
 72
     8
 73
     4
 74
     0
 42
0.00000001
 43
0.00000001
 40
0.0
 40
0.0
 40
0.0
 40
0.0
 40
1.0
 40
1.0
 40
1.0
 40
1.0
 10
163.3660250782937
 20
108.934706983381
 30
0.0
 10
163.3241566514793
 20
108.978892576918
 30
0.0
 10
163.2783847323934
 20
109.0251984509832
 30
0.0
 10
163.2292170209634
 20
109.0753240999241
 30
0.0
  0
SPLINE
  5
101
330
1F
100
AcDbEntity
  8
0
  6
HIDDEN
 62
     7
370
     0
100
AcDbSpline
210
0.0
220
0.0
230
1.0
 70
     8
 71
     3
 72
    34
 73
    30
 74
     0
 42
0.00000001
 43
0.00000001
 40
0.0
 40
0.0
 40
0.0
 40
0.0
 40
0.0625000000000002
 40
0.0625000000000002
 40
0.1250000000000004
 40
0.1250000000000004
 40
0.1875000000000007
 40
0.1875000000000007
 40
0.2500000000000009
 40
0.2500000000000009
 40
0.3750000000000013
 40
0.3750000000000013
 40
0.4375000000000012
 40
0.4375000000000012
 40
0.500000000000001
 40
0.500000000000001
 40
0.5625000000000009
 40
0.5625000000000009
 40
0.6250000000000008
 40
0.6250000000000008
 40
0.6875000000000007
 40
0.6875000000000007
 40
0.7500000000000006
 40
0.7500000000000006
 40
0.8125000000000004
 40
0.8125000000000004
 40
0.8750000000000003
 40
0.8750000000000003
 40
1.0
 40
1.0
 40
1.0
 40
1.0
 10
163.2292170209634
 20
109.0753240999241
 30
0.0
 10
163.1283136998534
 20
109.1781933265736
 30
0.0
 10
163.0140269396842
 20
109.2691301781525
 30
0.0
 10
162.75713212083
 20
109.4217457907921
 30
0.0
 10
162.6174271243442
 20
109.4810051758746
 30
0.0
 10
162.3242199073739
 20
109.5545745414
 30
0.0
 10
162.1698251284862
 20
109.5683346287166
 30
0.0
 10
161.8678083405257
 20
109.545687358539
 30
0.0
 10
161.7171874056743
 20
109.5091055454574
 30
0.0
 10
161.2988451678247
 20
109.3393897730175
 30
0.0
 10
161.0569700837505
 20
109.1444994633484
 30
0.0
 10
160.8052980146434
 20
108.8175459659643
 30
0.0
 10
160.7379433670156
 20
108.7001087249087
 30
0.0
 10
160.6480675638536
 20
108.4700886913183
 30
0.0
 10
160.624205005168
 20
108.3541794638731
 30
0.0
 10
160.6237800130445
 20
108.1393912719115
 30
0.0
 10
160.6470140462573
 20
108.0391634792527
 30
0.0
 10
160.7367884720301
 20
107.8632386350177
 30
0.0
 10
160.8033399417645
 20
107.7869997948339
 30
0.0
 10
160.9716949356911
 20
107.6598233770753
 30
0.0
 10
161.0735087376138
 20
107.6085742539908
 30
0.0
 10
161.3055497333082
 20
107.5276138032876
 30
0.0
 10
161.4333930907078
 20
107.498317262766
 30
0.0
 10
161.7150405818361
 20
107.456478784328
 30
0.0
 10
161.8613050202175
 20
107.4449544844024
 30
0.0
 10
162.1655029254233
 20
107.4371398858003
 30
0.0
 10
162.3185919509643
 20
107.4411767366658
 30
0.0
 10
162.7614404625761
 20
107.478340648776
 30
0.0
 10
163.0271712819641
 20
107.5356987052766
 30
0.0
 10
163.2292170209634
 20
107.6411166330792
 30
0.0
  0
SPLINE
  5
102
330
1F
100
AcDbEntity
  8
0
  6
HIDDEN
 62
     7
370
     0
100
AcDbSpline
210
0.0
220
0.0
230
1.0
 70
     8
 71
     3
 72
     8
 73
     4
 74
     0
 42
0.00000001
 43
0.00000001
 40
0.0
 40
0.0
 40
0.0
 40
0.0
 40
1.0
 40
1.0
 40
1.0
 40
1.0
 10
163.2292170209634
 20
107.6411166330792
 30
0.0
 10
163.2783847323934
 20
107.6667700236403
 30
0.0
 10
163.3241566514793
 20
107.7020382590811
 30
0.0
 10
163.3660250782937
 20
107.7452941488761
 30
0.0
  0
SPLINE
  5
103
330
1F
100
AcDbEntity
  8
0
  6
HIDDEN
 62
     7
370
     0
100
AcDbSpline
210
0.0
220
0.0
230
1.0
 70
     8
 71
     3
 72
    14
 73
    10
 74
     0
 42
0.00000001
 43
0.00000001
 40
0.0
 40
0.0
 40
0.0
 40
0.0
 40
0.2500000000000001
 40
0.2500000000000001
 40
0.5
 40
0.5
 40
0.7499999999999999
 40
0.7499999999999999
 40
1.0
 40
1.0
 40
1.0
 40
1.0
 10
163.3660250782937
 20
107.7452941488761
 30
0.0
 10
163.450188906427
 20
107.8322470523279
 30
0.0
 10
163.5139735870018
 20
107.9234034392085
 30
0.0
 10
163.6016210430327
 20
108.1198413012003
 30
0.0
 10
163.6238520332614
 20
108.222727900394
 30
0.0
 10
163.6241287438048
 20
108.4327946891935
 30
0.0
 10
163.6018195594803
 20
108.5403268961296
 30
0.0
 10
163.5152612941716
 20
108.7458332885407
 30
0.0
 10
163.4501841000979
 20
108.8458902636509
 30
0.0
 10
163.3660250782937
 20
108.934706983381
 30
0.0
  0
SPLINE
  5
104
330
1F
100
AcDbEntity
  8
0
  6
HIDDEN
 62
     7
370
     0
100
AcDbSpline
210
0.0
220
0.0
230
1.0
 70
     8
 71
     3
 72
    12
 73
     8
 74
     0
 42
0.00000001
 43
0.00000001
 40
0.0
 40
0.0
 40
0.0
 40
0.0
 40
0.4999999999999989
 40
0.4999999999999989
 40
0.7499999999999994
 40
0.7499999999999994
 40
1.0
 40
1.0
 40
1.0
 40
1.0
 10
161.1302408331324
 20
106.6950218046973
 30
0.0
 10
161.2130474783656
 20
106.6427993265869
 30
0.0
 10
161.2846309224802
 20
106.5561393941798
 30
0.0
 10
161.2983974921922
 20
106.3670002239145
 30
0.0
 10
161.2870570526759
 20
106.297744740369
 30
0.0
 10
161.2410943898901
 20
106.1510212506568
 30
0.0
 10
161.2079986674878
 20
106.0762411855005
 30
0.0
 10
161.1702489012252
 20
105.9991439075945
 30
0.0
  0
SPLINE
  5
105
330
1F
100
AcDbEntity
  8
0
  6
HIDDEN
 62
     7
370
     0
100
AcDbSpline
210
0.0
220
0.0
230
1.0
 70
     8
 71
     3
 72
    18
 73
    14
 74
     0
 42
0.00000001
 43
0.00000001
 40
0.0
 40
0.0
 40
0.0
 40
0.0
 40
0.2500000000000027
 40
0.2500000000000027
 40
0.3750000000000024
 40
0.3750000000000024
 40
0.5000000000000021
 40
0.5000000000000021
 40
0.6250000000000018
 40
0.6250000000000018
 40
0.7500000000000014
 40
0.7500000000000014
 40
1.0
 40
1.0
 40
1.0
 40
1.0
 10
161.1702489012252
 20
105.9991439075945
 30
0.0
 10
161.1308005250968
 20
106.0320178016728
 30
0.0
 10
161.0926438445932
 20
106.0629063007677
 30
0.0
 10
161.0424135633591
 20
106.113140668114
 30
0.0
 10
161.0268842515218
 20
106.1305368513495
 30
0.0
 10
161.0016248475308
 20
106.1717797870533
 30
0.0
 10
160.992053178221
 20
106.196245341543
 30
0.0
 10
160.9864690703043
 20
106.257571579771
 30
0.0
 10
160.9908004170777
 20
106.2950097802927
 30
0.0
 10
161.00820355117
 20
106.3728932270573
 30
0.0
 10
161.0208125962881
 20
106.4136467853466
 30
0.0
 10
161.0625135431617
 20
106.5347661545395
 30
0.0
 10
161.0957527403616
 20
106.6155056747242
 30
0.0
 10
161.1302408331324
 20
106.6950218046973
 30
0.0
  0
SPLINE
  5
106
330
1F
100
AcDbEntity
  8
0
  6
HIDDEN
 62
     7
370
     0
100
AcDbSpline
210
0.0
220
0.0
230
1.0
 70
     8
 71
     3
 72
    10
 73
     6
 74
     0
 42
0.00000001
 43
0.00000001
 40
0.0
 40
0.0
 40
0.0
 40
0.0
 40
0.5
 40
0.5
 40
1.0
 40
1.0
 40
1.0
 40
1.0
 10
160.6239910390827
 20
105.7797350304192
 30
0.0
 10
160.6239910390827
 20
105.8045585611952
 30
0.0
 10
160.6252211879908
 20
105.8270971193336
 30
0.0
 10
160.6299559766689
 20
105.8678454165951
 30
0.0
 10
160.6334616041126
 20
105.8860572344796
 30
0.0
 10
160.6380308443239
 20
105.9020659452892
 30
0.0
  0
SPLINE
  5
107
330
1F
100
AcDbEntity
  8
0
  6
HIDDEN
 62
     7
370
     0
100
AcDbSpline
210
0.0
220
0.0
230
1.0
 70
     8
 71
     3
 72
    18
 73
    14
 74
     0
 42
0.00000001
 43
0.00000001
 40
0.0
 40
0.0
 40
0.0
 40
0.0
 40
0.0772759599426578
 40
0.1655767670744068
 40
0.2251187958671528
 40
0.2700431158235982
 40
0.3151044203741042
 40
0.374837607808632
 40
0.4788024122396579
 40
0.6283518597251563
 40
0.7774437918839883
 40
0.9120098986051247
 40
1.0
 40
1.0
 40
1.0
 40
1.0
 10
160.6556687183496
 20
105.9328196418018
 30
0.0
 10
160.6618642314758
 20
105.9463564391043
 30
0.0
 10
160.6751391624449
 20
105.9753613086077
 30
0.0
 10
160.7007724302867
 20
105.9768207374434
 30
0.0
 10
160.7185201319169
 20
105.9576927034409
 30
0.0
 10
160.7254685984232
 20
105.9203291427874
 30
0.0
 10
160.7225740418503
 20
105.8635904176668
 30
0.0
 10
160.7064862428003
 20
105.7689942486701
 30
0.0
 10
160.6734907671091
 20
105.6205903532099
 30
0.0
 10
160.6361993220086
 20
105.433125764682
 30
0.0
 10
160.6196228111081
 20
105.2579905436378
 30
0.0
 10
160.6289267576267
 20
105.1444343874414
 30
0.0
 10
160.6477018524487
 20
105.1150378886462
 30
0.0
 10
160.6551247974704
 20
105.1034156520367
 30
0.0
  0
LWPOLYLINE
  5
108
330
1F
100
AcDbEntity
  8
0
  6
HIDDEN
 62
     7
370
     0
100
AcDbPolyline
 90
       10
 70
   128
 43
0.0
 10
160.6652364281
 20
105.0829466103
 10
160.7020484892
 20
105.076723367
 10
160.7171063904
 20
105.0975045181
 10
160.7238571071
 20
105.1331109465
 10
160.7214062694
 20
105.1879275769
 10
160.709347783
 20
105.2611555898
 10
160.6813956281
 20
105.3896470113
 10
160.6419694464
 20
105.5871113568
 10
160.6239910391
 20
105.7797350304
 10
160.6239910391
 20
105.7797350304
  0
SPLINE
  5
109
330
1F
100
AcDbEntity
  8
0
  6
HIDDEN
 62
     7
370
     0
100
AcDbSpline
210
0.0
220
0.0
230
1.0
 70
     8
 71
     3
 72
    11
 73
     7
 74
     0
 42
0.00000001
 43
0.00000001
 40
0.0
 40
0.0
 40
0.0
 40
0.0
 40
0.0008203708524183
 40
0.0008203708524183
 40
0.0008203708524183
 40
0.0016409967870154
 40
0.0016409967870154
 40
0.0016409967870154
 40
0.0016409967870154
 10
101.3739910390832
 20
94.7267195871468
 30
0.0
 10
101.1828327387845
 20
94.68554055852766
 30
0.0
 10
100.9914056687123
 20
94.64678658629767
 30
0.0
 10
100.7997600451917
 20
94.61041882701912
 30
0.0
 10
100.6080546401112
 20
94.5740397232531
 30
0.0
 10
100.4161156880523
 20
94.54004547248555
 30
0.0
 10
100.2239910409814
 20
94.50839734709433
 30
0.0
  0
ELLIPSE
  5
10A
330
1F
100
AcDbEntity
  8
0
  6
HIDDEN
 62
     7
370
     0
100
AcDbEllipse
 10
95.9815591705
 20
110.5787523378
 30
0.0
 11
20.19992453366628
 21
-1.421085471520200E-14
 31
0.0
210
0.0
220
0.0
230
1.0
 40
0.8164965809
 41
1.300566354718001
 42
1.359198697209605
  0
LINE
  5
10B
330
1F
100
AcDbEntity
  8
0
  6
HIDDEN
 62
     7
370
     0
100
AcDbLine
 10
110.3239910391
 20
92.5887523378
 30
0.0
 11
110.3239910391
 21
94.2912387154
 31
0.0
  0
LINE
  5
10C
330
1F
100
AcDbEntity
  8
0
  6
HIDDEN
 62
     7
370
     0
100
AcDbLine
 10
101.3739910391
 20
92.5887523378
 30
0.0
 11
101.3739910391
 21
94.7267195871
 31
0.0
  0
LINE
  5
10D
330
1F
100
AcDbEntity
  8
0
  6
HIDDEN
 62
     7
370
     0
100
AcDbLine
 10
101.4550220524
 20
94.7772619018
 30
0.0
 11
101.3739910391
 21
94.7267195871
 31
0.0
  0
LINE
  5
10E
330
1F
100
AcDbEntity
  8
0
  6
HIDDEN
 62
     7
370
     0
100
AcDbLine
 10
106.3239910391
 20
128.5687523378
 30
0.0
 11
106.3239910391
 21
126.8662659602
 31
0.0
  0
LINE
  5
10F
330
1F
100
AcDbEntity
  8
0
  6
HIDDEN
 62
     7
370
     0
100
AcDbLine
 10
101.3739910391
 20
128.5687523378
 30
0.0
 11
101.3739910391
 21
126.4733767888
 31
0.0
  0
SPLINE
  5
110
330
1F
100
AcDbEntity
  8
0
  6
HIDDEN
 62
     7
370
     0
100
AcDbSpline
210
0.0
220
0.0
230
1.0
 70
     8
 71
     3
 72
     8
 73
     4
 74
     0
 42
0.00000001
 43
0.00000001
 40
0.0
 40
0.0
 40
0.0
 40
0.0
 40
1.0
 40
1.0
 40
1.0
 40
1.0
 10
101.3739910390832
 20
126.4733767888482
 30
0.0
 10
101.4239965380269
 20
126.442341014629
 30
0.0
 10
101.4739966086913
 20
126.4112963696015
 30
0.0
 10
101.5239910424764
 20
126.3802427738212
 30
0.0
  0
ARC
  5
111
330
1F
100
AcDbEntity
  8
0
  6
HIDDEN
 62
     7
370
     0
100
AcDbCircle
 10
148.1115798273
 20
105.5974516336
 30
0.0
 40
13.06484575744784
100
AcDbArc
 50
1.7618960119
 51
4.8190653226
  0
ARC
  5
112
330
1F
100
AcDbEntity
  8
0
  6
HIDDEN
 62
     7
370
     0
100
AcDbCircle
 10
177.2603239578
 20
105.6000334668
 30
0.0
 40
16.1376463323437
100
AcDbArc
 50
181.7542339436
 51
184.4004458049
  0
SPLINE
  5
113
330
1F
100
AcDbEntity
  8
0
  6
HIDDEN
 62
     7
370
     0
100
AcDbSpline
210
0.0
220
0.0
230
1.0
 70
     8
 71
     3
 72
    27
 73
    23
 74
     0
 42
0.00000001
 43
0.00000001
 40
0.0
 40
0.0
 40
0.0
 40
0.0
 40
0.0524809871611386
 40
0.1118478463875825
 40
0.1772462483340226
 40
0.2122789604913938
 40
0.2488471429598136
 40
0.3294467201781816
 40
0.3980923284948498
 40
0.4372409890607389
 40
0.4710640939922707
 40
0.4995708044892083
 40
0.5540645676755962
 40
0.6138045200494485
 40
0.678850307445111
 40
0.7134289054523831
 40
0.7493558537945016
 40
0.8293540554283408
 40
0.8976715432313676
 40
0.9542944908280148
 40
0.9992202033171105
 40
1.0
 40
1.0
 40
1.0
 40
1.0
 10
126.8730813728352
 20
86.97871605790891
 30
0.0
 10
126.8634459526656
 20
86.9818254694688
 30
0.0
 10
126.8429108779021
 20
86.98845226910271
 30
0.0
 10
126.6565081365789
 20
87.03823297701447
 30
0.0
 10
126.38161661768
 20
87.10194204252178
 30
0.0
 10
126.073474967921
 20
87.16782990777244
 30
0.0
 10
125.680355960802
 20
87.25031277655728
 30
0.0
 10
125.1039924903446
 20
87.35266816681172
 30
0.0
 10
124.4307790814314
 20
87.44521068960954
 30
0.0
 10
123.8949235030122
 20
87.50679361851115
 30
0.0
 10
123.5011904311114
 20
87.5450071010125
 30
0.0
 10
123.0430138070238
 20
87.57883094216416
 30
0.0
 10
122.4806040592812
 20
87.59840928150754
 30
0.0
 10
121.7952585994163
 20
87.59933791326654
 30
0.0
 10
121.2285862162252
 20
87.58115038972475
 30
0.0
 10
120.792496904475
 20
87.55629787654196
 30
0.0
 10
120.3490482709852
 20
87.52031457869347
 30
0.0
 10
119.8989533599272
 20
87.47483303877426
 30
0.0
 10
119.5571377728316
 20
87.43297994471533
 30
0.0
 10
119.4113781310623
 20
87.40935940468965
 30
0.0
 10
119.3619535629709
 20
87.3975372901419
 30
0.0
 10
119.3744263994726
 20
87.40022697222291
 30
0.0
 10
119.3746392026271
 20
87.40027286177107
 30
0.0
  0
LINE
  5
114
330
1F
100
AcDbEntity
  8
0
  6
HIDDEN
 62
     7
370
     0
100
AcDbLine
 10
120.2840029514
 20
87.5110904812
 30
0.0
 11
120.4678482646
 21
87.5292798238
 31
0.0
  0
SPLINE
  5
115
330
1F
100
AcDbEntity
  8
0
  6
HIDDEN
 62
     7
370
     0
100
AcDbSpline
210
0.0
220
0.0
230
1.0
 70
     8
 71
     3
 72
    27
 73
    23
 74
     0
 42
0.00000001
 43
0.00000001
 40
0.0
 40
0.0
 40
0.0
 40
0.0
 40
0.0008228672017529
 40
0.0457055245891655
 40
0.10228737422212
 40
0.1705656864803495
 40
0.2091574841380411
 40
0.2506848582437102
 40
0.3211308646991408
 40
0.3862248108170453
 40
0.4267040922787764
 40
0.4648354691906021
 40
0.5006399024032143
 40
0.5452318117587255
 40
0.6017262516731922
 40
0.6701324489694233
 40
0.708869905080335
 40
0.7505987863526696
 40
0.8222636048825664
 40
0.8878032428064209
 40
0.9472771913538107
 40
0.9999999999999999
 40
0.9999999999999999
 40
0.9999999999999999
 40
0.9999999999999999
 10
119.3746710964248
 20
133.7571639877061
 30
0.0
 10
119.3744447606673
 20
133.7572127790799
 30
0.0
 10
119.3618731154405
 20
133.7599228583385
 30
0.0
 10
119.4109455639342
 20
133.7480917359472
 30
0.0
 10
119.5560556046152
 20
133.7246462475026
 30
0.0
 10
119.829106051713
 20
133.6907424985326
 30
0.0
 10
120.1576328101652
 20
133.6571736367637
 30
0.0
 10
120.5503605008769
 20
133.6189903155714
 30
0.0
 10
121.1000885083194
 20
133.5800216355177
 30
0.0
 10
121.7261111449021
 20
133.5605605331293
 30
0.0
 10
122.269302656705
 20
133.5583748549751
 30
0.0
 10
122.7143715532426
 20
133.5668897362155
 30
0.0
 10
123.1808193498454
 20
133.5866731331428
 30
0.0
 10
123.7180599985955
 20
133.6308355185708
 30
0.0
 10
124.3662734312959
 20
133.7032511390722
 30
0.0
 10
124.9518120537404
 20
133.7841532303104
 30
0.0
 10
125.4327816862742
 20
133.8623192234247
 30
0.0
 10
125.8781965058622
 20
133.9470913425554
 30
0.0
 10
126.3166967177302
 20
134.0408745114958
 30
0.0
 10
126.6557201830164
 20
134.1187778169811
 30
0.0
 10
126.8430484686389
 20
134.1689659963534
 30
0.0
 10
126.8635375784537
 20
134.175632042567
 30
0.0
 10
126.8731656946588
 20
134.1787645099193
 30
0.0
  0
SPLINE
  5
116
330
1F
100
AcDbEntity
  8
0
  6
HIDDEN
 62
     7
370
     0
100
AcDbSpline
210
0.0
220
0.0
230
1.0
 70
     8
 71
     3
 72
     8
 73
     4
 74
     0
 42
0.00000001
 43
0.00000001
 40
0.0
 40
0.0
 40
0.0
 40
0.0
 40
1.0
 40
1.0
 40
1.0
 40
1.0
 10
163.2292170209634
 20
113.5163880424999
 30
0.0
 10
163.2783847323934
 20
113.4907346519388
 30
0.0
 10
163.3241566514793
 20
113.455466416498
 30
0.0
 10
163.3660250782937
 20
113.4122105267029
 30
0.0
  0
SPLINE
  5
117
330
1F
100
AcDbEntity
  8
0
  6
HIDDEN
 62
     7
370
     0
100
AcDbSpline
210
0.0
220
0.0
230
1.0
 70
     8
 71
     3
 72
    34
 73
    30
 74
     0
 42
0.00000001
 43
0.00000001
 40
0.0
 40
0.0
 40
0.0
 40
0.0
 40
0.0624999999999997
 40
0.0624999999999997
 40
0.1249999999999994
 40
0.1249999999999994
 40
0.1874999999999991
 40
0.1874999999999991
 40
0.2499999999999988
 40
0.2499999999999988
 40
0.3749999999999983
 40
0.3749999999999983
 40
0.4374999999999984
 40
0.4374999999999984
 40
0.4999999999999987
 40
0.4999999999999987
 40
0.5624999999999989
 40
0.5624999999999989
 40
0.6249999999999991
 40
0.6249999999999991
 40
0.6874999999999992
 40
0.6874999999999992
 40
0.7499999999999993
 40
0.7499999999999993
 40
0.8124999999999996
 40
0.8124999999999996
 40
0.8749999999999997
 40
0.8749999999999997
 40
1.0
 40
1.0
 40
1.0
 40
1.0
 10
163.2292170209634
 20
112.0821805756549
 30
0.0
 10
163.1283136998534
 20
111.9793113490054
 30
0.0
 10
163.0140269396842
 20
111.8883744974265
 30
0.0
 10
162.75713212083
 20
111.7357588847869
 30
0.0
 10
162.6174271243442
 20
111.6764994997045
 30
0.0
 10
162.3242199073739
 20
111.6029301341791
 30
0.0
 10
162.1698251284862
 20
111.5891700468625
 30
0.0
 10
161.8678083405257
 20
111.61181731704
 30
0.0
 10
161.7171874056743
 20
111.6483991301216
 30
0.0
 10
161.2988451678247
 20
111.8181149025616
 30
0.0
 10
161.0569700837505
 20
112.0130052122307
 30
0.0
 10
160.8052980146434
 20
112.3399587096148
 30
0.0
 10
160.7379433670156
 20
112.4573959506703
 30
0.0
 10
160.6480675638536
 20
112.6874159842608
 30
0.0
 10
160.624205005168
 20
112.803325211706
 30
0.0
 10
160.6237800130445
 20
113.0181134036675
 30
0.0
 10
160.6470140462573
 20
113.1183411963264
 30
0.0
 10
160.7367884720301
 20
113.2942660405614
 30
0.0
 10
160.8033399417645
 20
113.3705048807452
 30
0.0
 10
160.9716949356911
 20
113.4976812985037
 30
0.0
 10
161.0735087376138
 20
113.5489304215882
 30
0.0
 10
161.3055497333082
 20
113.6298908722915
 30
0.0
 10
161.4333930907078
 20
113.659187412813
 30
0.0
 10
161.7150405818361
 20
113.701025891251
 30
0.0
 10
161.8613050202175
 20
113.7125501911767
 30
0.0
 10
162.1655029254233
 20
113.7203647897788
 30
0.0
 10
162.3185919509643
 20
113.7163279389133
 30
0.0
 10
162.7614404625761
 20
113.6791640268031
 30
0.0
 10
163.0271712819641
 20
113.6218059703025
 30
0.0
 10
163.2292170209634
 20
113.5163880424998
 30
0.0
  0
LINE
  5
118
330
1F
100
AcDbEntity
  8
0
  6
HIDDEN
 62
     7
370
     0
100
AcDbLine
 10
160.1239910391
 20
107.6787523378
 30
0.0
 11
160.1239910391
 21
113.4787519885
 31
0.0
  0
SPLINE
  5
119
330
1F
100
AcDbEntity
  8
0
  6
HIDDEN
 62
     7
370
     0
100
AcDbSpline
210
0.0
220
0.0
230
1.0
 70
     8
 71
     3
 72
    14
 73
    10
 74
     0
 42
0.00000001
 43
0.00000001
 40
0.0
 40
0.0
 40
0.0
 40
0.0
 40
0.2499999999999998
 40
0.2499999999999998
 40
0.4999999999999999
 40
0.4999999999999999
 40
0.7499999999999999
 40
0.7499999999999999
 40
1.0
 40
1.0
 40
1.0
 40
1.0
 10
163.3660250782937
 20
113.4122105267029
 30
0.0
 10
163.450188906427
 20
113.3252576232512
 30
0.0
 10
163.5139735870018
 20
113.2341012363706
 30
0.0
 10
163.6016210430327
 20
113.0376633743787
 30
0.0
 10
163.6238520332614
 20
112.9347767751851
 30
0.0
 10
163.6241287438048
 20
112.7247099863856
 30
0.0
 10
163.6018195594803
 20
112.6171777794495
 30
0.0
 10
163.5152612941716
 20
112.4116713870384
 30
0.0
 10
163.4501841000978
 20
112.3116144119281
 30
0.0
 10
163.3660250782937
 20
112.2227976921981
 30
0.0
  0
LINE
  5
11A
330
1F
100
AcDbEntity
  8
0
  6
HIDDEN
 62
     7
370
     0
100
AcDbLine
 10
164.1239910391
 20
107.5787523378
 30
0.0
 11
164.1239910391
 21
113.5787523378
 31
0.0
  0
LINE
  5
11B
330
1F
100
AcDbEntity
  8
0
  6
HIDDEN
 62
     7
370
     0
100
AcDbLine
 10
169.5739910391
 20
96.156102607
 30
0.0
 11
164.5739910391
 21
96.156102607
 31
0.0
  0
LINE
  5
11C
330
1F
100
AcDbEntity
  8
0
  6
HIDDEN
 62
     7
370
     0
100
AcDbLine
 10
167.0739910391
 20
125.0014020686
 30
0.0
 11
169.5739910391
 21
125.0014020686
 31
0.0
  0
LINE
  5
11D
330
1F
100
AcDbEntity
  8
0
  6
HIDDEN
 62
     7
370
     0
100
AcDbLine
 10
164.5739910391
 20
125.0014020686
 30
0.0
 11
167.0739910391
 21
125.0014020686
 31
0.0
  0
LINE
  5
11E
330
1F
100
AcDbEntity
  8
0
  6
HIDDEN
 62
     7
370
     0
100
AcDbLine
 10
167.0739910391
 20
116.5787523378
 30
0.0
 11
169.5739910391
 21
116.5787523378
 31
0.0
  0
LINE
  5
11F
330
1F
100
AcDbEntity
  8
0
  6
HIDDEN
 62
     7
370
     0
100
AcDbLine
 10
164.5739910391
 20
116.5787523378
 30
0.0
 11
167.0739910391
 21
116.5787523378
 31
0.0
  0
LINE
  5
120
330
1F
100
AcDbEntity
  8
0
  6
HIDDEN
 62
     7
370
     0
100
AcDbLine
 10
169.5739910391
 20
104.5787523378
 30
0.0
 11
164.5739910391
 21
104.5787523378
 31
0.0
  0
SPLINE
  5
121
330
1F
100
AcDbEntity
  8
0
  6
HIDDEN
 62
     7
370
     0
100
AcDbSpline
210
0.0
220
0.0
230
1.0
 70
     8
 71
     3
 72
     8
 73
     4
 74
     0
 42
0.00000001
 43
0.00000001
 40
0.0
 40
0.0
 40
0.0
 40
0.0
 40
1.0
 40
1.0
 40
1.0
 40
1.0
 10
163.3660250782937
 20
112.2227976921981
 30
0.0
 10
163.3241566514793
 20
112.1786120986611
 30
0.0
 10
163.2783847323934
 20
112.1323062245958
 30
0.0
 10
163.2292170209634
 20
112.0821805756549
 30
0.0
  0
SPLINE
  5
122
330
1F
100
AcDbEntity
  8
0
  6
HIDDEN
 62
     7
370
     0
100
AcDbSpline
210
0.0
220
0.0
230
1.0
 70
     8
 71
     3
 72
    10
 73
     6
 74
     0
 42
0.00000001
 43
0.00000001
 40
0.0
 40
0.0
 40
0.0
 40
0.0
 40
0.5
 40
0.5
 40
1.0
 40
1.0
 40
1.0
 40
1.0
 10
160.6435353347216
 20
115.6988326812581
 30
0.0
 10
160.6335530894307
 20
115.7607510797005
 30
0.0
 10
160.6269824591873
 20
115.8176524031483
 30
0.0
 10
160.6225973106923
 20
115.9204537594834
 30
0.0
 10
160.6249449557153
 20
115.9631830124643
 30
0.0
 10
160.6314571407013
 20
115.9973732885641
 30
0.0
  0
SPLINE
  5
123
330
1F
100
AcDbEntity
  8
0
  6
HIDDEN
 62
     7
370
     0
100
AcDbSpline
210
0.0
220
0.0
230
1.0
 70
     8
 71
     3
 72
    18
 73
    14
 74
     0
 42
0.00000001
 43
0.00000001
 40
0.0
 40
0.0
 40
0.0
 40
0.0
 40
0.0196114411167663
 40
0.1648741297061387
 40
0.2236902984682556
 40
0.2831430743180726
 40
0.3347406426486575
 40
0.393356017413743
 40
0.4938616378942566
 40
0.6439170356197805
 40
0.7947426143055
 40
0.9415561435746971
 40
1.0
 40
1.0
 40
1.0
 40
1.0
 10
160.6546270747087
 20
116.0569202058302
 30
0.0
 10
160.6559417657382
 20
116.0605473516096
 30
0.0
 10
160.6669944231153
 20
116.0910409038234
 30
0.0
 10
160.6937469733603
 20
116.0911757559878
 30
0.0
 10
160.7172901443465
 20
116.0664880670116
 30
0.0
 10
160.7262313248914
 20
116.0259762952046
 30
0.0
 10
160.7215008858143
 20
115.959326627894
 30
0.0
 10
160.7031926711908
 20
115.86240638409
 30
0.0
 10
160.6692393240184
 20
115.717048748805
 30
0.0
 10
160.6327635421093
 20
115.5350494175914
 30
0.0
 10
160.6194635781647
 20
115.364199861154
 30
0.0
 10
160.6307989192586
 20
115.25604280764
 30
0.0
 10
160.6500374382598
 20
115.2314832082306
 30
0.0
 10
160.6555153080989
 20
115.224490243291
 30
0.0
  0
LWPOLYLINE
  5
124
330
1F
100
AcDbEntity
  8
0
  6
HIDDEN
 62
     7
370
     0
100
AcDbPolyline
 90
        8
 70
   128
 43
0.0
 10
160.6789483315
 20
115.1879154444
 10
160.7042671718
 20
115.1868427899
 10
160.7191277745
 20
115.2087609277
 10
160.7241070512
 20
115.2434814871
 10
160.7213264643
 20
115.2934876207
 10
160.7080348358
 20
115.3753984318
 10
160.6763287379
 20
115.5268176699
 10
160.6435353347
 20
115.6988326813
  0
SPLINE
  5
125
330
1F
100
AcDbEntity
  8
0
  6
HIDDEN
 62
     7
370
     0
100
AcDbSpline
210
0.0
220
0.0
230
1.0
 70
     8
 71
     3
 72
    14
 73
    10
 74
     0
 42
0.00000001
 43
0.00000001
 40
0.0
 40
0.0
 40
0.0
 40
0.0
 40
0.25
 40
0.25
 40
0.5
 40
0.5
 40
0.75
 40
0.75
 40
1.0
 40
1.0
 40
1.0
 40
1.0
 10
161.1702489012252
 20
116.7956609447843
 30
0.0
 10
161.2079958788127
 20
116.7625452728605
 30
0.0
 10
161.2410950710111
 20
116.7218756150983
 30
0.0
 10
161.2870655249185
 20
116.6206049324015
 30
0.0
 10
161.2982934958403
 20
116.5619593527247
 30
0.0
 10
161.2894395944232
 20
116.428287603896
 30
0.0
 10
161.2694201446484
 20
116.3557996377307
 30
0.0
 10
161.2098624507819
 20
116.2055170651184
 30
0.0
 10
161.1716962474803
 20
116.1294788689584
 30
0.0
 10
161.1302408331324
 20
116.0514828886116
 30
0.0
  0
SPLINE
  5
126
330
1F
100
AcDbEntity
  8
0
  6
HIDDEN
 62
     7
370
     0
100
AcDbSpline
210
0.0
220
0.0
230
1.0
 70
     8
 71
     3
 72
    14
 73
    10
 74
     0
 42
0.00000001
 43
0.00000001
 40
0.0
 40
0.0
 40
0.0
 40
0.0
 40
0.25
 40
0.25
 40
0.5
 40
0.5
 40
0.75
 40
0.75
 40
1.0
 40
1.0
 40
1.0
 40
1.0
 10
161.1302408331324
 20
116.0514828886117
 30
0.0
 10
161.0956764067298
 20
116.0879422823818
 30
0.0
 10
161.0622862029816
 20
116.1229148136089
 30
0.0
 10
161.0066894573166
 20
116.2015012018002
 30
0.0
 10
160.9835571295864
 20
116.2465108992056
 30
0.0
 10
160.9949934191202
 20
116.3897632802454
 30
0.0
 10
161.0260369996718
 20
116.4749316080042
 30
0.0
 10
161.0928931086127
 20
116.6369274977599
 30
0.0
 10
161.1308952369731
 20
116.7170182482823
 30
0.0
 10
161.1702489012248
 20
116.7956609447862
 30
0.0
  0
LWPOLYLINE
  5
127
330
1F
100
AcDbEntity
  8
0
  6
HIDDEN
 62
     7
370
     0
100
AcDbPolyline
 90
       22
 70
   128
 43
0.0
 10
162.1239910391
 20
115.8820531967
 10
162.5661238007
 20
115.9291753521
 10
162.9689711262
 20
116.0663548082
 10
163.2967382628
 20
116.2814025681
 10
163.520301662
 20
116.5552106948
 10
163.6197967349
 20
116.8634501346
 10
163.5863829074
 20
117.1787324605
 10
163.4230291448
 20
117.4730434544
 10
163.1442501457
 20
117.7202322928
 10
162.7748166478
 20
117.8983351627
 10
162.3475544383
 20
117.9915268425
 10
161.9004276398
 20
117.9915268425
 10
161.4731654304
 20
117.8983351627
 10
161.1037319324
 20
117.7202322928
 10
160.8249529334
 20
117.4730434544
 10
160.6615991708
 20
117.1787324605
 10
160.6281853433
 20
116.8634501346
 10
160.7276804161
 20
116.5552106948
 10
160.9512438154
 20
116.2814025681
 10
161.279010952
 20
116.0663548082
 10
161.6818582775
 20
115.9291753521
 10
162.1239910391
 20
115.8820531967
  0
SPLINE
  5
128
330
1F
100
AcDbEntity
  8
0
  6
HIDDEN
 62
     7
370
     0
100
AcDbSpline
210
0.0
220
0.0
230
1.0
 70
     8
 71
     3
 72
    48
 73
    44
 74
     0
 42
0.00000001
 43
0.00000001
 40
-0.0625000000000003
 40
-0.0625000000000003
 40
0.0
 40
0.0
 40
0.0625000000000005
 40
0.0625000000000005
 40
0.1250000000000011
 40
0.1250000000000011
 40
0.1875000000000016
 40
0.1875000000000016
 40
0.2500000000000022
 40
0.2500000000000022
 40
0.3125000000000028
 40
0.3125000000000028
 40
0.3437500000000027
 40
0.3437500000000027
 40
0.3750000000000026
 40
0.3750000000000026
 40
0.4062500000000026
 40
0.4062500000000026
 40
0.4375000000000024
 40
0.4375000000000024
 40
0.500000000000002
 40
0.500000000000002
 40
0.5625000000000017
 40
0.5625000000000017
 40
0.6250000000000012
 40
0.6250000000000012
 40
0.656250000000001
 40
0.656250000000001
 40
0.6875000000000007
 40
0.6875000000000007
 40
0.7500000000000006
 40
0.7500000000000006
 40
0.8125000000000004
 40
0.8125000000000004
 40
0.8437500000000002
 40
0.8437500000000002
 40
0.875
 40
0.875
 40
0.9062499999999999
 40
0.9062499999999999
 40
0.9374999999999997
 40
0.9374999999999997
 40
1.0
 40
1.0
 40
1.0625
 40
1.0625
 10
163.417737248108
 20
115.7402965488623
 30
0.0
 10
163.2545818921176
 20
115.4282724214101
 30
0.0
 10
163.1668779828663
 20
115.2789411681104
 30
0.0
 10
163.0148861534154
 20
114.9834571315258
 30
0.0
 10
162.9539985357237
 20
114.8384938045636
 30
0.0
 10
162.9523146992786
 20
114.5872517177037
 30
0.0
 10
163.0107613997823
 20
114.4949561261189
 30
0.0
 10
163.1557844691414
 20
114.3721602342983
 30
0.0
 10
163.241303577402
 20
114.3394003066763
 30
0.0
 10
163.4005959196797
 20
114.3278084193056
 30
0.0
 10
163.4753099614648
 20
114.3495555905317
 30
0.0
 10
163.5589643685154
 20
114.4341121525246
 30
0.0
 10
163.5815277263465
 20
114.4705043807412
 30
0.0
 10
163.6133646996778
 20
114.5604338356209
 30
0.0
 10
163.6225156982948
 20
114.6146823139108
 30
0.0
 10
163.6251274724842
 20
114.7352456668142
 30
0.0
 10
163.6186724850911
 20
114.8033414545186
 30
0.0
 10
163.5914851346146
 20
114.9472305899181
 30
0.0
 10
163.5709653501447
 20
115.0229298252612
 30
0.0
 10
163.4925497806241
 20
115.257279133106
 30
0.0
 10
163.4193637862473
 20
115.4179861178538
 30
0.0
 10
163.2623845305246
 20
115.7281323157276
 30
0.0
 10
163.176009229475
 20
115.8810933022021
 30
0.0
 10
163.0269077752199
 20
116.1750537971149
 30
0.0
 10
162.9621554259519
 20
116.3222989319781
 30
0.0
 10
162.9499828886868
 20
116.5140884477131
 30
0.0
 10
162.9603641165519
 20
116.5712109062796
 30
0.0
 10
163.0040050479045
 20
116.668206201993
 30
0.0
 10
163.0358039221827
 20
116.7070105430606
 30
0.0
 10
163.1458574812447
 20
116.8008110499492
 30
0.0
 10
163.2335239881741
 20
116.8311333599905
 30
0.0
 10
163.3982606557928
 20
116.8363801012302
 30
0.0
 10
163.473573847447
 20
116.8105246296968
 30
0.0
 10
163.5582877933812
 20
116.7211997576078
 30
0.0
 10
163.5809848613051
 20
116.6836763428523
 30
0.0
 10
163.6132381293163
 20
116.5915491350067
 30
0.0
 10
163.6223968709641
 20
116.5371088937446
 30
0.0
 10
163.6251961697972
 20
116.4165111794164
 30
0.0
 10
163.6188022280947
 20
116.3485683742471
 30
0.0
 10
163.5917091640123
 20
116.2061113600104
 30
0.0
 10
163.571087392222
 20
116.1309829170518
 30
0.0
 10
163.4919925758817
 20
115.8991139131935
 30
0.0
 10
163.417737248108
 20
115.7402965488623
 30
0.0
 10
163.2545818921176
 20
115.4282724214101
 30
0.0
  0
SPLINE
  5
129
330
1F
100
AcDbEntity
  8
0
  6
HIDDEN
 62
     7
370
     0
100
AcDbSpline
210
0.0
220
0.0
230
1.0
 70
     8
 71
     3
 72
    12
 73
     8
 74
     0
 42
0.00000001
 43
0.00000001
 40
0.0
 40
0.0
 40
0.0
 40
0.0
 40
0.5
 40
0.5
 40
0.75
 40
0.75
 40
1.0
 40
1.0
 40
1.0
 40
1.0
 10
161.1302408331324
 20
114.4624828708818
 30
0.0
 10
161.2130474783656
 20
114.5147053489922
 30
0.0
 10
161.2846309224803
 20
114.6013652813993
 30
0.0
 10
161.2983974921923
 20
114.7905044516646
 30
0.0
 10
161.287057052676
 20
114.8597599352102
 30
0.0
 10
161.2410943898902
 20
115.0064834249223
 30
0.0
 10
161.2079986674879
 20
115.0812634900785
 30
0.0
 10
161.1702489012252
 20
115.1583607679845
 30
0.0
  0
SPLINE
  5
12A
330
1F
100
AcDbEntity
  8
0
  6
HIDDEN
 62
     7
370
     0
100
AcDbSpline
210
0.0
220
0.0
230
1.0
 70
     8
 71
     3
 72
    18
 73
    14
 74
     0
 42
0.00000001
 43
0.00000001
 40
0.0
 40
0.0
 40
0.0
 40
0.0
 40
0.2499999999999954
 40
0.2499999999999954
 40
0.3749999999999962
 40
0.3749999999999962
 40
0.499999999999997
 40
0.499999999999997
 40
0.6249999999999977
 40
0.6249999999999977
 40
0.7499999999999986
 40
0.7499999999999986
 40
1.0
 40
1.0
 40
1.0
 40
1.0
 10
161.1702489012252
 20
115.1583607679846
 30
0.0
 10
161.1308005250968
 20
115.1254868739064
 30
0.0
 10
161.0926438445931
 20
115.0945983748114
 30
0.0
 10
161.042413563359
 20
115.0443640074651
 30
0.0
 10
161.0268842515218
 20
115.0269678242296
 30
0.0
 10
161.0016248475308
 20
114.9857248885258
 30
0.0
 10
160.9920531782209
 20
114.9612593340362
 30
0.0
 10
160.9864690703043
 20
114.8999330958082
 30
0.0
 10
160.9908004170775
 20
114.8624948952865
 30
0.0
 10
161.0082035511699
 20
114.7846114485218
 30
0.0
 10
161.020812596288
 20
114.7438578902325
 30
0.0
 10
161.0625135431617
 20
114.6227385210396
 30
0.0
 10
161.0957527403615
 20
114.5419990008549
 30
0.0
 10
161.1302408331324
 20
114.4624828708818
 30
0.0
  0
ARC
  5
12B
330
1F
100
AcDbEntity
  8
0
  6
HIDDEN
 62
     7
370
     0
100
AcDbCircle
 10
177.2603239579
 20
115.5574712088
 30
0.0
 40
16.13764633244166
100
AcDbArc
 50
175.5995541951
 51
178.2457660564
  0
ARC
  5
12C
330
1F
100
AcDbEntity
  8
0
  6
HIDDEN
 62
     7
370
     0
100
AcDbCircle
 10
148.1115798273
 20
115.560053042
 30
0.0
 40
13.06484575739903
100
AcDbArc
 50
355.1809346774
 51
358.2381039881
  0
SPLINE
  5
12D
330
1F
100
AcDbEntity
  8
0
  6
HIDDEN
 62
     7
370
     0
100
AcDbSpline
210
0.0
220
0.0
230
1.0
 70
     8
 71
     3
 72
     8
 73
     4
 74
     0
 42
0.00000001
 43
0.00000001
 40
0.0
 40
0.0
 40
0.0
 40
0.0
 40
0.000159097695343
 40
0.000159097695343
 40
0.000159097695343
 40
0.000159097695343
 10
101.5091590483012
 20
94.77726190175788
 30
0.0
 10
101.4641075777968
 20
94.7492830174341
 30
0.0
 10
101.419051539382
 20
94.72131148705904
 30
0.0
 10
101.3739910390832
 20
94.6933471477065
 30
0.0
  0
SPLINE
  5
12E
330
1F
100
AcDbEntity
  8
0
  6
HIDDEN
 62
     7
370
     0
100
AcDbSpline
210
0.0
220
0.0
230
1.0
 70
     8
 71
     3
 72
    11
 73
     7
 74
     0
 42
0.00000001
 43
0.00000001
 40
0.0
 40
0.0
 40
0.0
 40
0.0
 40
0.0008212909311456
 40
0.0008212909311456
 40
0.0008212909311456
 40
0.001642825724306
 40
0.001642825724306
 40
0.001642825724306
 40
0.001642825724306
 10
101.3739910390832
 20
94.6933471477065
 30
0.0
 10
101.182846017601
 20
94.65006095885394
 30
0.0
 10
100.9914276819245
 20
94.60912444921668
 30
0.0
 10
100.7997816072634
 20
94.57052267783008
 30
0.0
 10
100.6080785257218
 20
94.531909423993
 30
0.0
 10
100.4161334024362
 20
94.495629214707
 30
0.0
 10
100.2239910390831
 20
94.46166230835549
 30
0.0
  0
LINE
  5
12F
330
1F
100
AcDbEntity
  8
0
  6
HIDDEN
 62
     7
370
     0
100
AcDbLine
 10
148.2139910391
 20
130.7607695563
 30
0.0
 11
148.2139910391
 21
130.4287523378
 31
0.0
  0
LINE
  5
130
330
1F
100
AcDbEntity
  8
0
  6
HIDDEN
 62
     7
370
     0
100
AcDbLine
 10
152.0339910391
 20
130.7607695563
 30
0.0
 11
152.0339910391
 21
130.4287523378
 31
0.0
  0
LINE
  5
131
330
1F
100
AcDbEntity
  8
0
  6
HIDDEN
 62
     7
370
     0
100
AcDbLine
 10
153.5159238706
 20
135.0374420002
 30
0.0
 11
153.5159238706
 21
130.4287523378
 31
0.0
  0
SPLINE
  5
132
330
1F
100
AcDbEntity
  8
0
  6
HIDDEN
 62
     7
370
     0
100
AcDbSpline
210
0.0
220
0.0
230
1.0
 70
     8
 71
     3
 72
    24
 73
    20
 74
     0
 42
0.00000001
 43
0.00000001
 40
0.0
 40
0.0
 40
0.0
 40
0.0
 40
0.25
 40
0.25
 40
0.374999999999999
 40
0.374999999999999
 40
0.4374999999999993
 40
0.4374999999999993
 40
0.4687499999999994
 40
0.4687499999999994
 40
0.4999999999999995
 40
0.4999999999999995
 40
0.5624999999999971
 40
0.5624999999999971
 40
0.6249999999999947
 40
0.6249999999999947
 40
0.7499999999999947
 40
0.7499999999999947
 40
1.0
 40
1.0
 40
1.0
 40
1.0
 10
100.2866544138065
 20
90.90419979300879
 30
0.0
 10
100.3004075324768
 20
90.97484985099908
 30
0.0
 10
100.3181800998827
 20
91.04144796376401
 30
0.0
 10
100.370431191438
 20
91.11554598399721
 30
0.0
 10
100.3914662670196
 20
91.13680379115877
 30
0.0
 10
100.444366674648
 20
91.14494971730501
 30
0.0
 10
100.4654723475259
 20
91.14400991390924
 30
0.0
 10
100.5115245162039
 20
91.12299392233189
 30
0.0
 10
100.5298949881873
 20
91.11208511622428
 30
0.0
 10
100.571446623253
 20
91.07945020527691
 30
0.0
 10
100.5940132960099
 20
91.05795822490553
 30
0.0
 10
100.6567943124699
 20
90.98949228131923
 30
0.0
 10
100.6899240734378
 20
90.94341782311413
 30
0.0
 10
100.7468417599228
 20
90.85840993477946
 30
0.0
 10
100.7710277854266
 20
90.81812963359809
 30
0.0
 10
100.8362357358064
 20
90.70319340713213
 30
0.0
 10
100.8709517959976
 20
90.63261042198513
 30
0.0
 10
100.9641670663285
 20
90.42840466290653
 30
0.0
 10
101.0098396016892
 20
90.30550628057917
 30
0.0
 10
101.0481446851877
 20
90.18863300419159
 30
0.0
  0
SPLINE
  5
133
330
1F
100
AcDbEntity
  8
0
  6
HIDDEN
 62
     7
370
     0
100
AcDbSpline
210
0.0
220
0.0
230
1.0
 70
     8
 71
     3
 72
    11
 73
     7
 74
     0
 42
0.00000001
 43
0.00000001
 40
0.0
 40
0.0
 40
0.0
 40
0.0
 40
0.0005781862223978
 40
0.0005781862223978
 40
0.0005781862223978
 40
0.0011563724723928
 40
0.0011563724723928
 40
0.0011563724723928
 40
0.0011563724723928
 10
101.2239910390831
 20
123.2188946448363
 30
0.0
 10
101.0573304848075
 20
123.2834241562499
 30
0.0
 10
100.890667187901
 20
123.3479268600937
 30
0.0
 10
100.7240006040708
 20
123.4124133085273
 30
0.0
 10
100.5573340118117
 20
123.4768997602223
 30
0.0
 10
100.3906641461858
 20
123.5413697689503
 30
0.0
 10
100.2239910390831
 20
123.6058255356829
 30
0.0
  0
SPLINE
  5
134
330
1F
100
AcDbEntity
  8
0
  6
HIDDEN
 62
     7
370
     0
100
AcDbSpline
210
0.0
220
0.0
230
1.0
 70
     8
 71
     3
 72
    11
 73
     7
 74
     0
 42
0.00000001
 43
0.00000001
 40
0.0
 40
0.0
 40
0.0
 40
0.0
 40
0.0005778746105108
 40
0.0005778746105108
 40
0.0005778746105108
 40
0.0011557494857226
 40
0.0011557494857226
 40
0.0011557494857226
 40
0.0011557494857226
 10
100.2239910390831
 20
97.55153048229964
 30
0.0
 10
100.3906579154964
 20
97.61734260899351
 30
0.0
 10
100.5573246350579
 20
97.6832010891311
 30
0.0
 10
100.7239912831066
 20
97.74910866206174
 30
0.0
 10
100.8906580076252
 20
97.8150162652321
 30
0.0
 10
101.0573247020458
 20
97.88097337362062
 30
0.0
 10
101.2239910390831
 20
97.94697511354332
 30
0.0
  0
SPLINE
  5
135
330
1F
100
AcDbEntity
  8
0
  6
HIDDEN
 62
     7
370
     0
100
AcDbSpline
210
0.0
220
0.0
230
1.0
 70
     8
 71
     3
 72
    11
 73
     7
 74
     0
 42
0.00000001
 43
0.00000001
 40
0.0000000000000006
 40
0.0000000000000006
 40
0.0000000000000006
 40
0.0000000000000006
 40
0.0005780486062768
 40
0.0005780486062768
 40
0.0005780486062768
 40
0.0011560973514127
 40
0.0011560973514127
 40
0.0011560973514127
 40
0.0011560973514127
 10
100.2239910390831
 20
120.5595668394813
 30
0.0
 10
100.3906608951281
 20
120.4971949779668
 30
0.0
 10
100.5573285992123
 20
120.4348411176691
 30
0.0
 10
100.723994903666
 20
120.372521557483
 30
0.0
 10
100.8906612443597
 20
120.3102019837461
 30
0.0
 10
101.0573262009885
 20
120.2479167794265
 30
0.0
 10
101.2239910390831
 20
120.1856916588578
 30
0.0
  0
SPLINE
  5
136
330
1F
100
AcDbEntity
  8
0
  6
HIDDEN
 62
     7
370
     0
100
AcDbSpline
210
0.0
220
0.0
230
1.0
 70
     8
 71
     3
 72
    11
 73
     7
 74
     0
 42
0.00000001
 43
0.00000001
 40
0.0
 40
0.0
 40
0.0
 40
0.0
 40
0.0005782401583533
 40
0.0005782401583533
 40
0.0005782401583533
 40
0.0011564805960993
 40
0.0011564805960993
 40
0.0011564805960993
 40
0.0011564805960993
 10
101.2239910390831
 20
100.9779255453919
 30
0.0
 10
101.0573400887342
 20
100.9145000873311
 30
0.0
 10
100.8906804961516
 20
100.8511445636758
 30
0.0
 10
100.724013443723
 20
100.7878469793258
 30
0.0
 10
100.5573463071592
 20
100.7245493630226
 30
0.0
 10
100.3906716997132
 20
100.6613095680819
 30
0.0
 10
100.2239910390831
 20
100.5981095614431
 30
0.0
  0
CIRCLE
  5
137
330
1F
100
AcDbEntity
  8
0
  6
HIDDEN
 62
     7
370
     0
100
AcDbCircle
 10
139.1239910391
 20
110.5787523378
 30
0.0
 40
5.000000000000014
  0
LWPOLYLINE
  5
138
330
1F
100
AcDbEntity
  8
0
  6
HIDDEN
 62
     7
370
     0
100
AcDbPolyline
 90
       22
 70
   128
 43
0.0
 10
191.6066762049
 20
106.7485419335
 10
191.6002629663
 20
107.1582724277
 10
191.5989511456
 20
107.497163682
 10
191.6028573038
 20
107.7351037212
 10
191.6116343616
 20
107.8509505286
 10
191.624502439
 20
107.8344106071
 10
191.6403181508
 20
107.6869536012
 10
191.6576762016
 20
107.421681713
 10
191.6750342523
 20
107.062165514
 10
191.6908499641
 20
106.640349596
 10
191.7037180415
 20
106.1937141546
 10
191.7124950994
 20
105.7619447087
 10
191.7164012576
 20
105.3834058683
 10
191.7150894369
 20
105.0917324708
 10
191.7086761983
 20
104.9128409773
 10
191.6977313861
 20
104.8626266821
 10
191.6832274951
 20
104.9455513458
 10
191.6664532594
 20
105.154246748
 10
191.6488991437
 20
105.4701693865
 10
191.6321249081
 20
105.8652481483
 10
191.617621017
 20
106.3043785518
 10
191.6066762049
 20
106.7485419335
  0
LWPOLYLINE
  5
139
330
1F
100
AcDbEntity
  8
0
  6
HIDDEN
 62
     7
370
     0
100
AcDbPolyline
 90
       18
 70
   128
 43
0.0
 10
191.1240616857
 20
106.6054880284
 10
191.1192664891
 20
106.9368766251
 10
191.1197107985
 20
107.1886181713
 10
191.1253346074
 20
107.3267135763
 10
191.1353783893
 20
107.3325122904
 10
191.1484856757
 20
107.2052311652
 10
191.1628862551
 20
106.9620602218
 10
191.1766352493
 20
106.6358410437
 10
191.1878757806
 20
106.2706313385
 10
191.1950897528
 20
105.9157547006
 10
191.1973028791
 20
105.6191391863
 10
191.1942162644
 20
105.4208443645
 10
191.1862467733
 20
105.3476510497
 10
191.1744707296
 20
105.4094444046
 10
191.1604785533
 20
105.5978788942
 10
191.1461599653
 20
105.8875053965
 10
191.1334487703
 20
106.2392082475
 10
191.1240616857
 20
106.6054880284
  0
LWPOLYLINE
  5
13A
330
1F
100
AcDbEntity
  8
0
  6
HIDDEN
 62
     7
370
     0
100
AcDbPolyline
 90
       22
 70
   128
 43
0.0
 10
196.9406140088
 20
106.8967309996
 10
196.9342007702
 20
107.3064614938
 10
196.9328889494
 20
107.6453527481
 10
196.9367951077
 20
107.8832927873
 10
196.9455721655
 20
107.9991395947
 10
196.9584402429
 20
107.9825996732
 10
196.9742559547
 20
107.8351426673
 10
196.9916140055
 20
107.5698707791
 10
197.0089720562
 20
107.2103545801
 10
197.024787768
 20
106.7885386621
 10
197.0376558454
 20
106.3419032207
 10
197.0464329033
 20
105.9101337748
 10
197.0503390615
 20
105.5315949345
 10
197.0490272408
 20
105.2399215369
 10
197.0426140022
 20
105.0610300434
 10
197.03166919
 20
105.0108157482
 10
197.017165299
 20
105.0937404119
 10
197.0003910633
 20
105.3024358141
 10
196.9828369476
 20
105.6183584526
 10
196.966062712
 20
106.0134372144
 10
196.9515588209
 20
106.4525676179
 10
196.9406140088
 20
106.8967309996
  0
LWPOLYLINE
  5
13B
330
1F
100
AcDbEntity
  8
0
  6
HIDDEN
 62
     7
370
     0
100
AcDbPolyline
 90
        6
 70
   128
 43
0.0
 10
197.1119729036
 20
106.8287604709
 10
197.1064466088
 20
107.1940606573
 10
197.106012333
 20
107.4856339023
 10
197.1107171366
 20
107.6718837205
 10
197.1200511812
 20
107.7326270543
 10
197.1239910391
 20
107.7235835854
  0
ARC
  5
13C
330
1F
100
AcDbEntity
  8
0
  6
HIDDEN
 62
     7
370
     0
100
AcDbCircle
 10
209.600750802
 20
106.6872998461
 30
0.0
 40
12.48957903628483
100
AcDbArc
 50
179.3510373691
 51
186.3952301452
  0
LINE
  5
13D
330
1F
100
AcDbEntity
  8
0
  6
HIDDEN
 62
     7
370
     0
100
AcDbLine
 10
195.1549778284
 20
107.0705570638
 30
0.0
 11
195.1844226902
 21
106.2344496253
 31
0.0
  0
LINE
  5
13E
330
1F
100
AcDbEntity
  8
0
  6
HIDDEN
 62
     7
370
     0
100
AcDbLine
 10
197.1534359009
 20
107.1260788277
 30
0.0
 11
197.1828807627
 21
106.2899713892
 31
0.0
  0
LINE
  5
13F
330
1F
100
AcDbEntity
  8
0
  6
HIDDEN
 62
     7
370
     0
100
AcDbLine
 10
195.1844226902
 20
106.2344496253
 30
0.0
 11
197.1828807627
 21
106.2899713892
 31
0.0
  0
LINE
  5
140
330
1F
100
AcDbEntity
  8
0
  6
HIDDEN
 62
     7
370
     0
100
AcDbLine
 10
195.1844226902
 20
105.6220771896
 30
0.0
 11
195.1844226902
 21
106.2344496253
 31
0.0
  0
LINE
  5
141
330
1F
100
AcDbEntity
  8
0
  6
HIDDEN
 62
     7
370
     0
100
AcDbLine
 10
197.1828807627
 20
105.6775989535
 30
0.0
 11
197.1828807627
 21
106.2899713892
 31
0.0
  0
LINE
  5
142
330
1F
100
AcDbEntity
  8
0
  6
HIDDEN
 62
     7
370
     0
100
AcDbLine
 10
195.1549778284
 20
107.0705570638
 30
0.0
 11
197.1534359009
 21
107.1260788277
 31
0.0
  0
LINE
  5
143
330
1F
100
AcDbEntity
  8
0
  6
HIDDEN
 62
     7
370
     0
100
AcDbLine
 10
195.1255329666
 20
107.2942920665
 30
0.0
 11
195.1549778284
 21
107.0705570638
 31
0.0
  0
LINE
  5
144
330
1F
100
AcDbEntity
  8
0
  6
HIDDEN
 62
     7
370
     0
100
AcDbLine
 10
197.1239910391
 20
107.3498138304
 30
0.0
 11
197.1534359009
 21
107.1260788277
 31
0.0
  0
LINE
  5
145
330
1F
100
AcDbEntity
  8
0
  6
HIDDEN
 62
     7
370
     0
100
AcDbLine
 10
195.1549778284
 20
105.8458121924
 30
0.0
 11
197.1534359009
 21
105.9013339563
 31
0.0
  0
LINE
  5
146
330
1F
100
AcDbEntity
  8
0
  6
HIDDEN
 62
     7
370
     0
100
AcDbLine
 10
195.1844226902
 20
105.6220771896
 30
0.0
 11
197.1828807627
 21
105.6775989535
 31
0.0
  0
LINE
  5
147
330
1F
100
AcDbEntity
  8
0
  6
HIDDEN
 62
     7
370
     0
100
AcDbLine
 10
195.1549778284
 20
105.8458121924
 30
0.0
 11
195.1844226902
 21
105.6220771896
 31
0.0
  0
LINE
  5
148
330
1F
100
AcDbEntity
  8
0
  6
HIDDEN
 62
     7
370
     0
100
AcDbLine
 10
197.1534359009
 20
105.9013339563
 30
0.0
 11
197.1828807627
 21
105.6775989535
 31
0.0
  0
LINE
  5
149
330
1F
100
AcDbEntity
  8
0
  6
HIDDEN
 62
     7
370
     0
100
AcDbLine
 10
195.1255329666
 20
106.6819196308
 30
0.0
 11
197.1239910391
 21
106.7374413948
 31
0.0
  0
LINE
  5
14A
330
1F
100
AcDbEntity
  8
0
  6
HIDDEN
 62
     7
370
     0
100
AcDbLine
 10
195.1255329666
 20
107.2942920665
 30
0.0
 11
197.1239910391
 21
107.3498138304
 31
0.0
  0
LINE
  5
14B
330
1F
100
AcDbEntity
  8
0
  6
HIDDEN
 62
     7
370
     0
100
AcDbLine
 10
195.1255329666
 20
107.2942920665
 30
0.0
 11
195.1255329666
 21
106.6819196308
 31
0.0
  0
LINE
  5
14C
330
1F
100
AcDbEntity
  8
0
  6
HIDDEN
 62
     7
370
     0
100
AcDbLine
 10
195.1549778284
 20
105.8458121924
 30
0.0
 11
195.1255329666
 21
106.6819196308
 31
0.0
  0
LINE
  5
14D
330
1F
100
AcDbEntity
  8
0
  6
HIDDEN
 62
     7
370
     0
100
AcDbLine
 10
197.1534359009
 20
105.9013339563
 30
0.0
 11
197.1239910391
 21
106.7374413948
 31
0.0
  0
LWPOLYLINE
  5
14E
330
1F
100
AcDbEntity
  8
0
  6
HIDDEN
 62
     7
370
     0
100
AcDbPolyline
 90
        7
 70
   128
 43
0.0
 10
197.05308318
 20
113.4680635771
 10
197.0631026338
 20
113.4292640052
 10
197.0765294835
 20
113.5222553637
 10
197.0919087215
 20
113.7369605961
 10
197.1075737688
 20
114.0501130589
 10
197.1218270744
 20
114.4277778238
 10
197.1239910391
 20
114.4953996234
  0
ARC
  5
14F
330
1F
100
AcDbEntity
  8
0
  6
HIDDEN
 62
     7
370
     0
100
AcDbCircle
 10
218.1303935663
 20
114.036686317
 30
0.0
 40
21.08497913073546
100
AcDbArc
 50
175.0519664768
 51
181.5453481515
  0
LWPOLYLINE
  5
150
330
1F
100
AcDbEntity
  8
0
  6
HIDDEN
 62
     7
370
     0
100
AcDbPolyline
 90
       22
 70
   128
 43
0.0
 10
196.8817242851
 20
113.2017495963
 10
196.8926690973
 20
113.1515353011
 10
196.9071729883
 20
113.2344599648
 10
196.923947224
 20
113.443155367
 10
196.9415013397
 20
113.7590780055
 10
196.9582755753
 20
114.1541567673
 10
196.9727794664
 20
114.5932871708
 10
196.9837242785
 20
115.0374505525
 10
196.9901375171
 20
115.4471810467
 10
196.9914493379
 20
115.786072301
 10
196.9875431796
 20
116.0240123402
 10
196.9787661218
 20
116.1398591476
 10
196.9658980444
 20
116.1233192261
 10
196.9500823326
 20
115.9758622202
 10
196.9327242818
 20
115.710590332
 10
196.9153662311
 20
115.351074133
 10
196.8995505193
 20
114.929258215
 10
196.8866824419
 20
114.4826227736
 10
196.877905384
 20
114.0508533277
 10
196.8739992258
 20
113.6723144873
 10
196.8753110465
 20
113.3806410898
 10
196.8817242851
 20
113.2017495963
  0
LWPOLYLINE
  5
151
330
1F
100
AcDbEntity
  8
0
  6
HIDDEN
 62
     7
370
     0
100
AcDbPolyline
 90
       22
 70
   128
 43
0.0
 10
191.5477864812
 20
113.3499386624
 10
191.5587312934
 20
113.2997243672
 10
191.5732351845
 20
113.3826490309
 10
191.5900094201
 20
113.5913444331
 10
191.6075635358
 20
113.9072670716
 10
191.6243377714
 20
114.3023458334
 10
191.6388416625
 20
114.7414762369
 10
191.6497864746
 20
115.1856396186
 10
191.6561997133
 20
115.5953701128
 10
191.657511534
 20
115.9342613671
 10
191.6536053757
 20
116.1722014063
 10
191.6448283179
 20
116.2880482137
 10
191.6319602405
 20
116.2715082922
 10
191.6161445287
 20
116.1240512863
 10
191.5987864779
 20
115.8587793981
 10
191.5814284272
 20
115.4992631991
 10
191.5656127154
 20
115.0774472811
 10
191.552744638
 20
114.6308118397
 10
191.5439675801
 20
114.1990423938
 10
191.5400614219
 20
113.8205035535
 10
191.5413732426
 20
113.5288301559
 10
191.5477864812
 20
113.3499386624
  0
LWPOLYLINE
  5
152
330
1F
100
AcDbEntity
  8
0
  6
HIDDEN
 62
     7
370
     0
100
AcDbPolyline
 90
       18
 70
   128
 43
0.0
 10
191.065171962
 20
113.846545958
 10
191.0745590467
 20
113.8181462054
 10
191.0872702417
 20
113.92397187
 10
191.1015888297
 20
114.1497306093
 10
191.115581006
 20
114.4649324547
 10
191.1273570497
 20
114.8270076503
 10
191.1353265408
 20
115.1870559346
 10
191.1384131554
 20
115.4964507918
 10
191.1362000291
 20
115.713406732
 10
191.1289860569
 20
115.8086226532
 10
191.1177455257
 20
115.7692391177
 10
191.1039965315
 20
115.6005750902
 10
191.0895959521
 20
115.3254095821
 10
191.0764886656
 20
114.9809052202
 10
191.0664448838
 20
114.6135892274
 10
191.0608210748
 20
114.273069664
 10
191.0603767654
 20
114.0053355838
 10
191.065171962
 20
113.846545958
  0
LINE
  5
153
330
1F
100
AcDbEntity
  8
0
  6
HIDDEN
 62
     7
370
     0
100
AcDbLine
 10
197.0945461773
 20
115.2578068113
 30
0.0
 11
197.1239910391
 21
115.4815418141
 31
0.0
  0
LINE
  5
154
330
1F
100
AcDbEntity
  8
0
  6
HIDDEN
 62
     7
370
     0
100
AcDbLine
 10
197.0651013154
 20
114.4216993729
 30
0.0
 11
197.0945461773
 21
115.2578068113
 31
0.0
  0
LINE
  5
155
330
1F
100
AcDbEntity
  8
0
  6
HIDDEN
 62
     7
370
     0
100
AcDbLine
 10
197.0651013154
 20
114.4216993729
 30
0.0
 11
197.0651013154
 21
113.8093269372
 31
0.0
  0
LINE
  5
156
330
1F
100
AcDbEntity
  8
0
  6
HIDDEN
 62
     7
370
     0
100
AcDbLine
 10
197.0945461773
 20
114.0330619399
 30
0.0
 11
197.0651013154
 21
113.8093269372
 31
0.0
  0
LINE
  5
157
330
1F
100
AcDbEntity
  8
0
  6
HIDDEN
 62
     7
370
     0
100
AcDbLine
 10
197.0945461773
 20
114.0330619399
 30
0.0
 11
197.1239910391
 21
114.8691693784
 31
0.0
  0
LINE
  5
158
330
1F
100
AcDbEntity
  8
0
  6
HIDDEN
 62
     7
370
     0
100
AcDbLine
 10
195.066643243
 20
114.4772211368
 30
0.0
 11
195.0960881048
 21
115.3133285752
 31
0.0
  0
LINE
  5
159
330
1F
100
AcDbEntity
  8
0
  6
HIDDEN
 62
     7
370
     0
100
AcDbLine
 10
195.0960881048
 20
115.3133285752
 30
0.0
 11
195.1255329666
 21
115.537063578
 31
0.0
  0
LINE
  5
15A
330
1F
100
AcDbEntity
  8
0
  6
HIDDEN
 62
     7
370
     0
100
AcDbLine
 10
195.1255329666
 20
114.9246911423
 30
0.0
 11
195.1255329666
 21
115.537063578
 31
0.0
  0
LINE
  5
15B
330
1F
100
AcDbEntity
  8
0
  6
HIDDEN
 62
     7
370
     0
100
AcDbLine
 10
195.0960881048
 20
114.0885837038
 30
0.0
 11
195.1255329666
 21
114.9246911423
 31
0.0
  0
LINE
  5
15C
330
1F
100
AcDbEntity
  8
0
  6
HIDDEN
 62
     7
370
     0
100
AcDbLine
 10
195.0960881048
 20
114.0885837038
 30
0.0
 11
195.066643243
 21
113.8648487011
 31
0.0
  0
LINE
  5
15D
330
1F
100
AcDbEntity
  8
0
  6
HIDDEN
 62
     7
370
     0
100
AcDbLine
 10
195.066643243
 20
114.4772211368
 30
0.0
 11
195.066643243
 21
113.8648487011
 31
0.0
  0
LINE
  5
15E
330
1F
100
AcDbEntity
  8
0
  6
HIDDEN
 62
     7
370
     0
100
AcDbLine
 10
195.066643243
 20
114.4772211368
 30
0.0
 11
197.0651013154
 21
114.4216993729
 31
0.0
  0
LINE
  5
15F
330
1F
100
AcDbEntity
  8
0
  6
HIDDEN
 62
     7
370
     0
100
AcDbLine
 10
195.0960881048
 20
115.3133285752
 30
0.0
 11
197.0945461773
 21
115.2578068113
 31
0.0
  0
LINE
  5
160
330
1F
100
AcDbEntity
  8
0
  6
HIDDEN
 62
     7
370
     0
100
AcDbLine
 10
195.0960881048
 20
114.0885837038
 30
0.0
 11
197.0945461773
 21
114.0330619399
 31
0.0
  0
LINE
  5
161
330
1F
100
AcDbEntity
  8
0
  6
HIDDEN
 62
     7
370
     0
100
AcDbLine
 10
195.066643243
 20
113.8648487011
 30
0.0
 11
197.0651013154
 21
113.8093269372
 31
0.0
  0
LINE
  5
162
330
1F
100
AcDbEntity
  8
0
  6
HIDDEN
 62
     7
370
     0
100
AcDbLine
 10
195.1255329666
 20
114.9246911423
 30
0.0
 11
197.1239910391
 21
114.8691693784
 31
0.0
  0
LINE
  5
163
330
1F
100
AcDbEntity
  8
0
  6
HIDDEN
 62
     7
370
     0
100
AcDbLine
 10
195.1255329666
 20
115.537063578
 30
0.0
 11
197.1239910391
 21
115.4815418141
 31
0.0
  0
LINE
  5
164
330
1F
100
AcDbEntity
  8
0
  6
HIDDEN
 62
     7
370
     0
100
AcDbLine
 10
136.1239910391
 20
124.8793828435
 30
0.0
 11
136.1239910391
 21
122.9726929807
 31
0.0
  0
LINE
  5
165
330
1F
100
AcDbEntity
  8
0
  6
HIDDEN
 62
     7
370
     0
100
AcDbLine
 10
144.1239910391
 20
122.9726929807
 30
0.0
 11
144.1239910391
 21
124.8765874875
 31
0.0
  0
LINE
  5
166
330
1F
100
AcDbEntity
  8
0
  6
HIDDEN
 62
     7
370
     0
100
AcDbLine
 10
132.1239910391
 20
85.2548211918
 30
0.0
 11
132.2181518146
 21
85.924809923
 31
0.0
  0
LINE
  5
167
330
1F
100
AcDbEntity
  8
0
  6
HIDDEN
 62
     7
370
     0
100
AcDbLine
 10
132.2181518146
 20
135.2326947525
 30
0.0
 11
132.1239910391
 21
135.9026834838
 31
0.0
  0
ARC
  5
168
330
1F
100
AcDbEntity
  8
0
  6
HIDDEN
 62
     7
370
     0
100
AcDbCircle
 10
131.6239842864
 20
86.0083147234
 30
0.0
 40
0.6000067526677343
100
AcDbArc
 50
352.0
 51
0.0
  0
ARC
  5
169
330
1F
100
AcDbEntity
  8
0
  6
HIDDEN
 62
     7
370
     0
100
AcDbCircle
 10
131.6239842864
 20
86.0083147234
 30
0.0
 40
0.6000067526677242
100
AcDbArc
 50
0.0
 51
33.5571153394
  0
ARC
  5
16A
330
1F
100
AcDbEntity
  8
0
  6
HIDDEN
 62
     7
370
     0
100
AcDbCircle
 10
131.6239842864
 20
135.1491899522
 30
0.0
 40
0.6000067526677323
100
AcDbArc
 50
348.75
 51
8.0
  0
LWPOLYLINE
  5
16B
330
1F
100
AcDbEntity
  8
0
  6
HIDDEN
 62
     7
370
     0
100
AcDbPolyline
 90
        3
 70
   128
 43
0.0
 10
132.2124620776
 20
135.0321344416
 10
132.1783182446
 20
134.9195773086
 10
132.1239910391
 20
134.8175254371
  0
LINE
  5
16C
330
1F
100
AcDbEntity
  8
0
  6
HIDDEN
 62
     7
370
     0
100
AcDbLine
 10
132.2239910391
 20
86.0083147234
 30
0.0
 11
132.2239910391
 21
135.1491899522
 31
0.0
  0
ARC
  5
16D
330
1F
100
AcDbEntity
  8
0
  6
HIDDEN
 62
     7
370
     0
100
AcDbCircle
 10
125.8789930407
 20
98.5787523378
 30
0.0
 40
8.000000000000005
100
AcDbArc
 50
276.8809132624
 51
321.3178125465
  0
ARC
  5
16E
330
1F
100
AcDbEntity
  8
0
  6
HIDDEN
 62
     7
370
     0
100
AcDbCircle
 10
125.8789930407
 20
122.5787523378
 30
0.0
 40
7.999999999999988
100
AcDbArc
 50
38.6821874535
 51
83.1249005381
  0
ARC
  5
16F
330
1F
100
AcDbEntity
  8
0
  6
HIDDEN
 62
     7
370
     0
100
AcDbCircle
 10
115.2064266044
 20
91.1787523378
 30
0.0
 40
0.6000000000000085
100
AcDbArc
 50
210.0
 51
270.0
  0
ARC
  5
170
330
1F
100
AcDbEntity
  8
0
  6
HIDDEN
 62
     7
370
     0
100
AcDbCircle
 10
115.2064266044
 20
129.9787523378
 30
0.0
 40
0.5999999999999943
100
AcDbArc
 50
90.0
 51
150.0
  0
LINE
  5
171
330
1F
100
AcDbEntity
  8
0
  6
HIDDEN
 62
     7
370
     0
100
AcDbLine
 10
115.2064266044
 20
90.5787523378
 30
0.0
 11
119.3980984926
 21
90.5787523378
 31
0.0
  0
LINE
  5
172
330
1F
100
AcDbEntity
  8
0
  6
HIDDEN
 62
     7
370
     0
100
AcDbLine
 10
119.3980984926
 20
130.5787523378
 30
0.0
 11
115.2064266044
 21
130.5787523378
 31
0.0
  0
LINE
  5
173
330
1F
100
AcDbEntity
  8
0
  6
HIDDEN
 62
     7
370
     0
100
AcDbLine
 10
114.6868113621
 20
130.2787523378
 30
0.0
 11
113.1279656353
 21
127.5787523378
 31
0.0
  0
LINE
  5
174
330
1F
100
AcDbEntity
  8
0
  6
HIDDEN
 62
     7
370
     0
100
AcDbLine
 10
113.1279656353
 20
93.5787523378
 30
0.0
 11
114.6868113621
 21
90.8787523378
 31
0.0
  0
LINE
  5
175
330
1F
100
AcDbEntity
  8
0
  6
HIDDEN
 62
     7
370
     0
100
AcDbLine
 10
136.1239910391
 20
137.8584185757
 30
0.0
 11
136.1239910391
 21
134.5243547524
 31
0.0
  0
LINE
  5
176
330
1F
100
AcDbEntity
  8
0
  6
HIDDEN
 62
     7
370
     0
100
AcDbLine
 10
144.1239910391
 20
134.5243547524
 30
0.0
 11
144.1239910391
 21
137.853086197
 31
0.0
  0
ARC
  5
177
330
1F
100
AcDbEntity
  8
0
  6
HIDDEN
 62
     7
370
     0
100
AcDbCircle
 10
140.5739910391
 20
94.8537523378
 30
0.0
 40
1.5
100
AcDbArc
 50
238.2116693829
 51
0.0
  0
ARC
  5
178
330
1F
100
AcDbEntity
  8
0
  6
HIDDEN
 62
     7
370
     0
100
AcDbCircle
 10
140.5739910391
 20
126.3037523378
 30
0.0
 40
1.500000000000001
100
AcDbArc
 50
0.0
 51
121.7883306171
  0
LINE
  5
179
330
1F
100
AcDbEntity
  8
0
  6
HIDDEN
 62
     7
370
     0
100
AcDbLine
 10
110.3239910391
 20
93.5787523378
 30
0.0
 11
113.1279656353
 21
93.5787523378
 31
0.0
  0
LINE
  5
17A
330
1F
100
AcDbEntity
  8
0
  6
HIDDEN
 62
     7
370
     0
100
AcDbLine
 10
113.1279656353
 20
127.5787523378
 30
0.0
 11
106.3239910391
 21
127.5787523378
 31
0.0
  0
LINE
  5
17B
330
1F
100
AcDbEntity
  8
0
  6
HIDDEN
 62
     7
370
     0
100
AcDbLine
 10
132.1239910391
 20
93.5787523378
 30
0.0
 11
139.7838170076
 21
93.5787523378
 31
0.0
  0
LINE
  5
17C
330
1F
100
AcDbEntity
  8
0
  6
HIDDEN
 62
     7
370
     0
100
AcDbLine
 10
139.7838170076
 20
127.5787523378
 30
0.0
 11
132.1239910391
 21
127.5787523378
 31
0.0
  0
LINE
  5
17D
330
1F
100
AcDbEntity
  8
0
  6
HIDDEN
 62
     7
370
     0
100
AcDbLine
 10
150.9239910391
 20
101.0787523378
 30
0.0
 11
153.9239910391
 21
101.0787523378
 31
0.0
  0
LINE
  5
17E
330
1F
100
AcDbEntity
  8
0
  6
HIDDEN
 62
     7
370
     0
100
AcDbLine
 10
153.9239910391
 20
120.0787523378
 30
0.0
 11
150.9239910391
 21
120.0787523378
 31
0.0
  0
LINE
  5
17F
330
1F
100
AcDbEntity
  8
0
  6
HIDDEN
 62
     7
370
     0
100
AcDbLine
 10
142.0739910391
 20
101.5787523378
 30
0.0
 11
142.5739910391
 21
102.0787523378
 31
0.0
  0
LINE
  5
180
330
1F
100
AcDbEntity
  8
0
  6
HIDDEN
 62
     7
370
     0
100
AcDbLine
 10
142.5739910391
 20
119.0787523378
 30
0.0
 11
142.0739910391
 21
119.5787523378
 31
0.0
  0
LINE
  5
181
330
1F
100
AcDbEntity
  8
0
  6
HIDDEN
 62
     7
370
     0
100
AcDbLine
 10
142.5739910391
 20
102.0787523378
 30
0.0
 11
150.9239910391
 21
102.0787523378
 31
0.0
  0
LINE
  5
182
330
1F
100
AcDbEntity
  8
0
  6
HIDDEN
 62
     7
370
     0
100
AcDbLine
 10
150.9239910391
 20
119.0787523378
 30
0.0
 11
142.5739910391
 21
119.0787523378
 31
0.0
  0
LINE
  5
183
330
1F
100
AcDbEntity
  8
0
  6
HIDDEN
 62
     7
370
     0
100
AcDbLine
 10
137.0739910391
 20
142.0787523378
 30
0.0
 11
137.0739910391
 21
136.9787523378
 31
0.0
  0
LINE
  5
184
330
1F
100
AcDbEntity
  8
0
  6
HIDDEN
 62
     7
370
     0
100
AcDbLine
 10
163.6239910391
 20
106.4583267751
 30
0.0
 11
163.6239910391
 21
108.3298264086
 31
0.0
  0
LINE
  5
185
330
1F
100
AcDbEntity
  8
0
  6
HIDDEN
 62
     7
370
     0
100
AcDbLine
 10
163.6239910391
 20
104.2147913071
 30
0.0
 11
163.6239910391
 21
104.7061306259
 31
0.0
  0
LINE
  5
186
330
1F
100
AcDbEntity
  8
0
  6
HIDDEN
 62
     7
370
     0
100
AcDbLine
 10
160.6239910391
 20
105.2535474662
 30
0.0
 11
160.6239910391
 21
104.2147913071
 31
0.0
  0
LINE
  5
187
330
1F
100
AcDbEntity
  8
0
  6
HIDDEN
 62
     7
370
     0
100
AcDbLine
 10
160.6239910391
 20
108.2503206566
 30
0.0
 11
160.6239910391
 21
105.7797350304
 31
0.0
  0
LINE
  5
188
330
1F
100
AcDbEntity
  8
0
  6
HIDDEN
 62
     7
370
     0
100
AcDbLine
 10
163.3361595701
 20
104.3237023215
 30
0.0
 11
197.1239910391
 21
105.2624060289
 31
0.0
  0
LINE
  5
189
330
1F
100
AcDbEntity
  8
0
  6
HIDDEN
 62
     7
370
     0
100
AcDbLine
 10
197.1239910391
 20
107.7633706631
 30
0.0
 11
163.3317793269
 21
106.8245452625
 31
0.0
  0
LINE
  5
18A
330
1F
100
AcDbEntity
  8
0
  6
HIDDEN
 62
     7
370
     0
100
AcDbLine
 10
160.6505962922
 20
105.9356756167
 30
0.0
 11
160.4012490128
 21
105.4926460698
 31
0.0
  0
LINE
  5
18B
330
1F
100
AcDbEntity
  8
0
  6
HIDDEN
 62
     7
370
     0
100
AcDbLine
 10
160.4012490128
 20
105.4926460698
 30
0.0
 11
160.6513034912
 21
105.1009635599
 31
0.0
  0
LINE
  5
18C
330
1F
100
AcDbEntity
  8
0
  6
HIDDEN
 62
     7
370
     0
100
AcDbLine
 10
127.3084288696
 20
86.4993810042
 30
0.0
 11
126.8739967201
 21
86.9784470233
 31
0.0
  0
LINE
  5
18D
330
1F
100
AcDbEntity
  8
0
  6
HIDDEN
 62
     7
370
     0
100
AcDbLine
 10
119.373993395
 20
87.4001349825
 30
0.0
 11
118.8915596517
 21
86.921069007
 31
0.0
  0
LINE
  5
18E
330
1F
100
AcDbEntity
  8
0
  6
HIDDEN
 62
     7
370
     0
100
AcDbLine
 10
118.8914377234
 20
134.2364303781
 30
0.0
 11
119.3739884744
 21
133.7573101202
 31
0.0
  0
LINE
  5
18F
330
1F
100
AcDbEntity
  8
0
  6
HIDDEN
 62
     7
370
     0
100
AcDbLine
 10
126.8739909211
 20
134.1790078979
 30
0.0
 11
127.3085333114
 21
134.6581281484
 31
0.0
  0
LINE
  5
190
330
1F
100
AcDbEntity
  8
0
  6
HIDDEN
 62
     7
370
     0
100
AcDbLine
 10
126.8739910391
 20
86.9787019894
 30
0.0
 11
126.8739910391
 21
90.6433519995
 31
0.0
  0
LINE
  5
191
330
1F
100
AcDbEntity
  8
0
  6
HIDDEN
 62
     7
370
     0
100
AcDbLine
 10
119.3739910391
 20
90.5831301058
 30
0.0
 11
119.3739910391
 21
87.4003164076
 31
0.0
  0
LINE
  5
192
330
1F
100
AcDbEntity
  8
0
  6
HIDDEN
 62
     7
370
     0
100
AcDbLine
 10
126.8739910391
 20
130.514152676
 30
0.0
 11
126.8739910391
 21
134.1787165918
 31
0.0
  0
LINE
  5
193
330
1F
100
AcDbEntity
  8
0
  6
HIDDEN
 62
     7
370
     0
100
AcDbLine
 10
119.3739910391
 20
133.757166341
 30
0.0
 11
119.3739910391
 21
130.5743745697
 31
0.0
  0
ARC
  5
194
330
1F
100
AcDbEntity
  8
0
  6
HIDDEN
 62
     7
370
     0
100
AcDbCircle
 10
163.229217021
 20
113.4787523378
 30
0.0
 40
0.4000000000000074
100
AcDbArc
 50
70.0
 51
90.0
  0
ARC
  5
195
330
1F
100
AcDbEntity
  8
0
  6
HIDDEN
 62
     7
370
     0
100
AcDbCircle
 10
196.8239910391
 20
107.2787523378
 30
0.0
 40
0.3000000000000114
100
AcDbArc
 50
0.0
 51
90.0
  0
ARC
  5
196
330
1F
100
AcDbEntity
  8
0
  6
HIDDEN
 62
     7
370
     0
100
AcDbCircle
 10
196.8239910391
 20
113.8787523378
 30
0.0
 40
0.3000000000000114
100
AcDbArc
 50
270.0
 51
0.0
  0
LINE
  5
197
330
1F
100
AcDbEntity
  8
0
  6
HIDDEN
 62
     7
370
     0
100
AcDbLine
 10
160.5239910391
 20
107.2787523378
 30
0.0
 11
163.229217021
 21
107.2787523378
 31
0.0
  0
LINE
  5
198
330
1F
100
AcDbEntity
  8
0
  6
HIDDEN
 62
     7
370
     0
100
AcDbLine
 10
163.229217021
 20
113.8787523378
 30
0.0
 11
160.5239910391
 21
113.8787523378
 31
0.0
  0
ARC
  5
199
330
1F
100
AcDbEntity
  8
0
  6
HIDDEN
 62
     7
370
     0
100
AcDbCircle
 10
160.5239910391
 20
107.6787523378
 30
0.0
 40
0.4000000000000341
100
AcDbArc
 50
180.0
 51
270.0
  0
ARC
  5
19A
330
1F
100
AcDbEntity
  8
0
  6
HIDDEN
 62
     7
370
     0
100
AcDbCircle
 10
160.5239910391
 20
113.4787523378
 30
0.0
 40
0.4000000000000341
100
AcDbArc
 50
90.0
 51
180.0
  0
LINE
  5
19B
330
1F
100
AcDbEntity
  8
0
  6
HIDDEN
 62
     7
370
     0
100
AcDbLine
 10
163.3660250783
 20
107.3028752895
 30
0.0
 11
164.1239910391
 21
107.5787523378
 31
0.0
  0
LINE
  5
19C
330
1F
100
AcDbEntity
  8
0
  6
HIDDEN
 62
     7
370
     0
100
AcDbLine
 10
164.1239910391
 20
113.5787523378
 30
0.0
 11
163.3660250783
 21
113.8546293861
 31
0.0
  0
LINE
  5
19D
330
1F
100
AcDbEntity
  8
0
  6
HIDDEN
 62
     7
370
     0
100
AcDbLine
 10
170.5739910391
 20
95.5787523378
 30
0.0
 11
169.5739910391
 21
96.156102607
 31
0.0
  0
LINE
  5
19E
330
1F
100
AcDbEntity
  8
0
  6
HIDDEN
 62
     7
370
     0
100
AcDbLine
 10
164.5739910391
 20
96.156102607
 30
0.0
 11
163.5739910391
 21
95.5787523378
 31
0.0
  0
LINE
  5
19F
330
1F
100
AcDbEntity
  8
0
  6
HIDDEN
 62
     7
370
     0
100
AcDbLine
 10
163.5739910391
 20
125.5787523378
 30
0.0
 11
164.5739910391
 21
125.0014020686
 31
0.0
  0
LINE
  5
1A0
330
1F
100
AcDbEntity
  8
0
  6
HIDDEN
 62
     7
370
     0
100
AcDbLine
 10
169.5739910391
 20
125.0014020686
 30
0.0
 11
170.5739910391
 21
125.5787523378
 31
0.0
  0
LINE
  5
1A1
330
1F
100
AcDbEntity
  8
0
  6
HIDDEN
 62
     7
370
     0
100
AcDbLine
 10
164.1239910391
 20
107.5787523378
 30
0.0
 11
196.8239910391
 21
107.5787523378
 31
0.0
  0
LINE
  5
1A2
330
1F
100
AcDbEntity
  8
0
  6
HIDDEN
 62
     7
370
     0
100
AcDbLine
 10
196.8239910391
 20
113.5787523378
 30
0.0
 11
164.1239910391
 21
113.5787523378
 31
0.0
  0
LINE
  5
1A3
330
1F
100
AcDbEntity
  8
0
  6
HIDDEN
 62
     7
370
     0
100
AcDbLine
 10
164.5739910391
 20
125.0014020686
 30
0.0
 11
164.5739910391
 21
116.5787523378
 31
0.0
  0
LINE
  5
1A4
330
1F
100
AcDbEntity
  8
0
  6
HIDDEN
 62
     7
370
     0
100
AcDbLine
 10
169.5739910391
 20
116.5787523378
 30
0.0
 11
169.5739910391
 21
125.0014020686
 31
0.0
  0
LINE
  5
1A5
330
1F
100
AcDbEntity
  8
0
  6
HIDDEN
 62
     7
370
     0
100
AcDbLine
 10
164.5739910391
 20
116.5787523378
 30
0.0
 11
167.0739910391
 21
115.0766007902
 31
0.0
  0
LINE
  5
1A6
330
1F
100
AcDbEntity
  8
0
  6
HIDDEN
 62
     7
370
     0
100
AcDbLine
 10
167.0739910391
 20
115.0766007902
 30
0.0
 11
169.5739910391
 21
116.5787523378
 31
0.0
  0
LINE
  5
1A7
330
1F
100
AcDbEntity
  8
0
  6
HIDDEN
 62
     7
370
     0
100
AcDbLine
 10
169.5739910391
 20
96.156102607
 30
0.0
 11
169.5739910391
 21
104.5787523378
 31
0.0
  0
LINE
  5
1A8
330
1F
100
AcDbEntity
  8
0
  6
HIDDEN
 62
     7
370
     0
100
AcDbLine
 10
164.5739910391
 20
104.5787523378
 30
0.0
 11
164.5739910391
 21
96.156102607
 31
0.0
  0
LINE
  5
1A9
330
1F
100
AcDbEntity
  8
0
  6
HIDDEN
 62
     7
370
     0
100
AcDbLine
 10
169.5739910391
 20
104.5787523378
 30
0.0
 11
167.0739910391
 21
106.0809038854
 31
0.0
  0
LINE
  5
1AA
330
1F
100
AcDbEntity
  8
0
  6
HIDDEN
 62
     7
370
     0
100
AcDbLine
 10
167.0739910391
 20
106.0809038854
 30
0.0
 11
164.5739910391
 21
104.5787523378
 31
0.0
  0
LINE
  5
1AB
330
1F
100
AcDbEntity
  8
0
  6
HIDDEN
 62
     7
370
     0
100
AcDbLine
 10
153.9239910391
 20
108.4787523378
 30
0.0
 11
160.1239910391
 21
108.4787523378
 31
0.0
  0
LINE
  5
1AC
330
1F
100
AcDbEntity
  8
0
  6
HIDDEN
 62
     7
370
     0
100
AcDbLine
 10
160.1239910391
 20
112.6787523378
 30
0.0
 11
153.9239910391
 21
112.6787523378
 31
0.0
  0
ARC
  5
1AD
330
1F
100
AcDbEntity
  8
0
  6
HIDDEN
 62
     7
370
     0
100
AcDbCircle
 10
163.229217021
 20
107.6787523378
 30
0.0
 40
0.4000000000000074
100
AcDbArc
 50
270.0
 51
290.0
  0
LINE
  5
1AE
330
1F
100
AcDbEntity
  8
0
  6
HIDDEN
 62
     7
370
     0
100
AcDbLine
 10
163.6239910391
 20
116.4514330706
 30
0.0
 11
163.6239910391
 21
116.9427133685
 31
0.0
  0
LINE
  5
1AF
330
1F
100
AcDbEntity
  8
0
  6
HIDDEN
 62
     7
370
     0
100
AcDbLine
 10
163.6239910391
 20
112.827678267
 30
0.0
 11
163.6239910391
 21
114.6995132609
 31
0.0
  0
LINE
  5
1B0
330
1F
100
AcDbEntity
  8
0
  6
HIDDEN
 62
     7
370
     0
100
AcDbLine
 10
160.6239910391
 20
115.3791615946
 30
0.0
 11
160.6239910391
 21
112.907184019
 31
0.0
  0
LINE
  5
1B1
330
1F
100
AcDbEntity
  8
0
  6
HIDDEN
 62
     7
370
     0
100
AcDbLine
 10
160.6239910391
 20
116.9427133685
 30
0.0
 11
160.6239910391
 21
115.9009635822
 31
0.0
  0
LINE
  5
1B2
330
1F
100
AcDbEntity
  8
0
  6
HIDDEN
 62
     7
370
     0
100
AcDbLine
 10
163.3349823369
 20
114.3328704261
 30
0.0
 11
197.1239910391
 21
113.3941340125
 31
0.0
  0
LINE
  5
1B3
330
1F
100
AcDbEntity
  8
0
  6
HIDDEN
 62
     7
370
     0
100
AcDbLine
 10
197.1239910391
 20
115.8950986467
 30
0.0
 11
163.3325806237
 21
116.8339017854
 31
0.0
  0
LINE
  5
1B4
330
1F
100
AcDbEntity
  8
0
  6
HIDDEN
 62
     7
370
     0
100
AcDbLine
 10
160.6524443843
 20
116.0583281978
 30
0.0
 11
160.4012490128
 21
115.6648586058
 31
0.0
  0
LINE
  5
1B5
330
1F
100
AcDbEntity
  8
0
  6
HIDDEN
 62
     7
370
     0
100
AcDbLine
 10
160.4012490128
 20
115.6648586058
 30
0.0
 11
160.6506451911
 21
115.2217421773
 31
0.0
  0
LINE
  5
1B6
330
1F
100
AcDbEntity
  8
0
  6
HIDDEN
 62
     7
370
     0
100
AcDbLine
 10
191.6148788915
 20
107.8598325335
 30
0.0
 11
191.1295301434
 21
107.3463484284
 31
0.0
  0
LINE
  5
1B7
330
1F
100
AcDbEntity
  8
0
  6
HIDDEN
 62
     7
370
     0
100
AcDbLine
 10
191.1850518908
 20
105.3478909503
 30
0.0
 11
191.6981615126
 21
104.8621463164
 31
0.0
  0
LINE
  5
1B8
330
1F
100
AcDbEntity
  8
0
  6
HIDDEN
 62
     7
370
     0
100
AcDbLine
 10
196.9499566275
 20
108.0086320501
 30
0.0
 11
191.6160188236
 21
107.860442984
 31
0.0
  0
LINE
  5
1B9
330
1F
100
AcDbEntity
  8
0
  6
HIDDEN
 62
     7
370
     0
100
AcDbLine
 10
191.6993335796
 20
104.8616000985
 30
0.0
 11
197.0332713835
 21
105.0097891647
 31
0.0
  0
LINE
  5
1BA
330
1F
100
AcDbEntity
  8
0
  6
HIDDEN
 62
     7
370
     0
100
AcDbLine
 10
197.0352254124
 20
105.0115804641
 30
0.0
 11
197.1239910391
 21
105.1759525395
 31
0.0
  0
LINE
  5
1BB
330
1F
100
AcDbEntity
  8
0
  6
HIDDEN
 62
     7
370
     0
100
AcDbLine
 10
197.1212354854
 20
107.7313701481
 30
0.0
 11
196.9520070983
 21
108.0069520048
 31
0.0
  0
LINE
  5
1BC
330
1F
100
AcDbEntity
  8
0
  6
HIDDEN
 62
     7
370
     0
100
AcDbLine
 10
196.8931173747
 20
113.1521887628
 30
0.0
 11
197.0623457618
 21
113.4277706195
 31
0.0
  0
LINE
  5
1BD
330
1F
100
AcDbEntity
  8
0
  6
HIDDEN
 62
     7
370
     0
100
AcDbLine
 10
197.1239910391
 20
115.874138966
 30
0.0
 11
196.9763356887
 21
116.1475603035
 31
0.0
  0
LINE
  5
1BE
330
1F
100
AcDbEntity
  8
0
  6
HIDDEN
 62
     7
370
     0
100
AcDbLine
 10
196.9743816598
 20
116.149351603
 30
0.0
 11
191.6404438559
 21
116.2975406691
 31
0.0
  0
LINE
  5
1BF
330
1F
100
AcDbEntity
  8
0
  6
HIDDEN
 62
     7
370
     0
100
AcDbLine
 10
191.5571290999
 20
113.2986977837
 30
0.0
 11
196.8910669038
 21
113.1505087175
 31
0.0
  0
LINE
  5
1C0
330
1F
100
AcDbEntity
  8
0
  6
HIDDEN
 62
     7
370
     0
100
AcDbLine
 10
191.639271789
 20
116.2969944513
 30
0.0
 11
191.1261621672
 21
115.8112498173
 31
0.0
  0
LINE
  5
1C1
330
1F
100
AcDbEntity
  8
0
  6
HIDDEN
 62
     7
370
     0
100
AcDbLine
 10
191.0706404198
 20
113.8127923392
 30
0.0
 11
191.5559891679
 21
113.2993082341
 31
0.0
  0
DIMENSION
  5
1C2
330
1F
100
AcDbEntity
  8
VERMASSUNG
100
AcDbDimension
  2
*D1
 10
94.5887854393
 20
79.0787523378
 30
0.0
 11
94.5887854393
 21
109.0902366404
 31
0.0
 70
   160
  1
HSK A %%c<>
 71
     2
 42
-1.0
  3
SLDDIMSTYLE0
100
AcDbAlignedDimension
 13
132.4239910391
 23
142.0787523378
 33
0.0
 14
132.4239910391
 24
79.0787523378
 34
0.0
 50
90.0
100
AcDbRotatedDimension
  0
DIMENSION
  5
1CF
330
1F
100
AcDbEntity
  8
VERMASSUNG
100
AcDbDimension
  2
*D2
 10
202.4130958467
 20
107.5787523378
 30
0.0
 11
202.4130958467
 21
110.5787523378
 31
0.0
 70
   160
  1
%%c<>
 71
     2
 42
-1.0
  3
SLDDIMSTYLE1
100
AcDbAlignedDimension
 13
196.8239910391
 23
113.5787523378
 33
0.0
 14
196.8239910391
 24
107.5787523378
 34
0.0
 50
90.0
100
AcDbRotatedDimension
  0
DIMENSION
  5
1DD
330
1F
100
AcDbEntity
  8
VERMASSUNG
100
AcDbDimension
  2
*D3
 10
197.1239910391
 20
151.496099675
 30
0.0
 11
164.6239910391
 21
151.496099675
 31
0.0
 70
   160
 71
     2
 42
-1.0
  3
SLDDIMSTYLE0
100
AcDbAlignedDimension
 13
132.1239910391
 23
141.7787523378
 33
0.0
 14
197.1239910391
 24
117.8046118162
 34
0.0
100
AcDbRotatedDimension
  0
DIMENSION
  5
1E7
330
1F
100
AcDbEntity
  8
VERMASSUNG
100
AcDbDimension
  2
*D4
 10
197.1239910391
 20
145.496099675
 30
0.0
 11
177.5989910391
 21
145.496099675
 31
0.0
 70
   160
 71
     2
 42
-1.0
  3
SLDDIMSTYLE0
100
AcDbAlignedDimension
 13
158.0739910391
 23
140.4251926616
 33
0.0
 14
197.1239910391
 24
117.8046118162
 34
0.0
100
AcDbRotatedDimension
  0
DIMENSION
  5
1F1
330
1F
100
AcDbEntity
  8
VERMASSUNG
100
AcDbDimension
  2
*D5
 10
100.2239910391
 20
157.496099675
 30
0.0
 11
148.6739910391
 21
157.496099675
 31
0.0
 70
   160
 71
     2
 42
-1.0
  3
SLDDIMSTYLE0
100
AcDbAlignedDimension
 13
197.1239910391
 23
117.8046118162
 33
0.0
 14
100.2239910391
 24
130.2694300843
 34
0.0
100
AcDbRotatedDimension
  0
DIMENSION
  5
1FB
330
1F
100
AcDbEntity
  8
VERMASSUNG
100
AcDbDimension
  2
*D6
 10
208.4130958467
 20
95.5787523378
 30
0.0
 11
208.4130958467
 21
110.5787523378
 31
0.0
 70
   160
  1
%%c<>
 71
     2
 42
-1.0
  3
SLDDIMSTYLE0
100
AcDbAlignedDimension
 13
183.1846960558
 23
125.5787523378
 33
0.0
 14
183.1846960558
 24
95.5787523378
 34
0.0
 50
90.0
100
AcDbRotatedDimension
  0
LINE
  5
206
330
1F
100
AcDbEntity
  8
VERMASSUNG
  6
CENTERX2
370
     0
100
AcDbLine
 10
97.4080661473
 20
110.5787523378
 30
0.0
 11
198.1261593217
 21
110.5787523378
 31
0.0
  0
OLE2FRAME
  5
207
330
1F
100
AcDbEntity
  8
0
100
AcDbOle2Frame
 70
     2
  3
Bitmap Image
 10
13.8511154363
 20
38.264191557
 30
0.0
 11
51.6290888628
 21
31.9806341108
 31
0.0
 71
     2
 72
     0
 73
     1
 90
    12928
310
80552BED0767C5B32B40DDAF6807D121434000000000000000006FFBDDFB85D0
310
4940DDAF6807D121434000000000000000006FFBDDFB85D04940416F4BD60AFB
310
3F4000000000000000002BED0767C5B32B40416F4BD60AFB3F40000000000000
310
0000000000000100000000010000010000000100000000000100000000320000
310
D0CF11E0A1B11AE1000000000000000000000000000000003E000300FEFF0900
310
0600000000000000000000000100000001000000000000000010000002000000
310
01000000FEFFFFFF0000000000000000FFFFFFFFFFFFFFFFFFFFFFFFFFFFFFFF
310
FFFFFFFFFFFFFFFFFFFFFFFFFFFFFFFFFFFFFFFFFFFFFFFFFFFFFFFFFFFFFFFF
310
FFFFFFFFFFFFFFFFFFFFFFFFFFFFFFFFFFFFFFFFFFFFFFFFFFFFFFFFFFFFFFFF
310
FFFFFFFFFFFFFFFFFFFFFFFFFFFFFFFFFFFFFFFFFFFFFFFFFFFFFFFFFFFFFFFF
310
FFFFFFFFFFFFFFFFFFFFFFFFFFFFFFFFFFFFFFFFFFFFFFFFFFFFFFFFFFFFFFFF
310
FFFFFFFFFFFFFFFFFFFFFFFFFFFFFFFFFFFFFFFFFFFFFFFFFFFFFFFFFFFFFFFF
310
FFFFFFFFFFFFFFFFFFFFFFFFFFFFFFFFFFFFFFFFFFFFFFFFFFFFFFFFFFFFFFFF
310
FFFFFFFFFFFFFFFFFFFFFFFFFFFFFFFFFFFFFFFFFFFFFFFFFFFFFFFFFFFFFFFF
310
FFFFFFFFFFFFFFFFFFFFFFFFFFFFFFFFFFFFFFFFFFFFFFFFFFFFFFFFFFFFFFFF
310
FFFFFFFFFFFFFFFFFFFFFFFFFFFFFFFFFFFFFFFFFFFFFFFFFFFFFFFFFFFFFFFF
310
FFFFFFFFFFFFFFFFFFFFFFFFFFFFFFFFFFFFFFFFFFFFFFFFFFFFFFFFFFFFFFFF
310
FFFFFFFFFFFFFFFFFFFFFFFFFFFFFFFFFFFFFFFFFFFFFFFFFFFFFFFFFFFFFFFF
310
FFFFFFFFFFFFFFFFFFFFFFFFFFFFFFFFFFFFFFFFFFFFFFFFFFFFFFFFFFFFFFFF
310
FFFFFFFFFFFFFFFFFFFFFFFFFFFFFFFFFFFFFFFFFFFFFFFFFFFFFFFFFFFFFFFF
310
FDFFFFFFFEFFFFFFFEFFFFFFFEFFFFFF05000000060000000700000008000000
310
090000000A0000000B0000000C0000000D0000000E0000000F00000010000000
310
11000000120000001300000014000000150000001600000017000000FEFFFFFF
310
FFFFFFFFFFFFFFFFFFFFFFFFFFFFFFFFFFFFFFFFFFFFFFFFFFFFFFFFFFFFFFFF
310
FFFFFFFFFFFFFFFFFFFFFFFFFFFFFFFFFFFFFFFFFFFFFFFFFFFFFFFFFFFFFFFF
310
FFFFFFFFFFFFFFFFFFFFFFFFFFFFFFFFFFFFFFFFFFFFFFFFFFFFFFFFFFFFFFFF
310
FFFFFFFFFFFFFFFFFFFFFFFFFFFFFFFFFFFFFFFFFFFFFFFFFFFFFFFFFFFFFFFF
310
FFFFFFFFFFFFFFFFFFFFFFFFFFFFFFFFFFFFFFFFFFFFFFFFFFFFFFFFFFFFFFFF
310
FFFFFFFFFFFFFFFFFFFFFFFFFFFFFFFFFFFFFFFFFFFFFFFFFFFFFFFFFFFFFFFF
310
FFFFFFFFFFFFFFFFFFFFFFFFFFFFFFFFFFFFFFFFFFFFFFFFFFFFFFFFFFFFFFFF
310
FFFFFFFFFFFFFFFFFFFFFFFFFFFFFFFFFFFFFFFFFFFFFFFFFFFFFFFFFFFFFFFF
310
FFFFFFFFFFFFFFFFFFFFFFFFFFFFFFFFFFFFFFFFFFFFFFFFFFFFFFFFFFFFFFFF
310
FFFFFFFFFFFFFFFFFFFFFFFFFFFFFFFFFFFFFFFFFFFFFFFFFFFFFFFFFFFFFFFF
310
FFFFFFFFFFFFFFFFFFFFFFFFFFFFFFFFFFFFFFFFFFFFFFFFFFFFFFFFFFFFFFFF
310
FFFFFFFFFFFFFFFFFFFFFFFFFFFFFFFFFFFFFFFFFFFFFFFFFFFFFFFFFFFFFFFF
310
FFFFFFFFFFFFFFFFFFFFFFFFFFFFFFFFFFFFFFFFFFFFFFFFFFFFFFFFFFFFFFFF
310
52006F006F007400200045006E00740072007900000000000000000000000000
310
0000000000000000000000000000000000000000000000000000000000000000
310
16000500FFFFFFFFFFFFFFFF020000000A00030000000000C000000000000046
310
00000000000000000000000040B147DEF2FFCB0103000000C000000000000000
310
01004F006C006500000000000000000000000000000000000000000000000000
310
0000000000000000000000000000000000000000000000000000000000000000
310
0A000200FFFFFFFFFFFFFFFFFFFFFFFF00000000000000000000000000000000
310
0000000000000000000000000000000000000000000000001400000000000000
310
010043006F006D0070004F0062006A0000000000000000000000000000000000
310
0000000000000000000000000000000000000000000000000000000000000000
310
120002010100000003000000FFFFFFFF00000000000000000000000000000000
310
0000000000000000000000000000000000000000010000004D00000000000000
310
01004F006C006500310030004E00610074006900760065000000000000000000
310
0000000000000000000000000000000000000000000000000000000000000000
310
1A000200FFFFFFFFFFFFFFFFFFFFFFFF00000000000000000000000000000000
310
0000000000000000000000000000000000000000040000002426000000000000
310
FEFFFFFF02000000FEFFFFFFFFFFFFFFFFFFFFFFFFFFFFFFFFFFFFFFFFFFFFFF
310
FFFFFFFFFFFFFFFFFFFFFFFFFFFFFFFFFFFFFFFFFFFFFFFFFFFFFFFFFFFFFFFF
310
FFFFFFFFFFFFFFFFFFFFFFFFFFFFFFFFFFFFFFFFFFFFFFFFFFFFFFFFFFFFFFFF
310
FFFFFFFFFFFFFFFFFFFFFFFFFFFFFFFFFFFFFFFFFFFFFFFFFFFFFFFFFFFFFFFF
310
FFFFFFFFFFFFFFFFFFFFFFFFFFFFFFFFFFFFFFFFFFFFFFFFFFFFFFFFFFFFFFFF
310
FFFFFFFFFFFFFFFFFFFFFFFFFFFFFFFFFFFFFFFFFFFFFFFFFFFFFFFFFFFFFFFF
310
FFFFFFFFFFFFFFFFFFFFFFFFFFFFFFFFFFFFFFFFFFFFFFFFFFFFFFFFFFFFFFFF
310
FFFFFFFFFFFFFFFFFFFFFFFFFFFFFFFFFFFFFFFFFFFFFFFFFFFFFFFFFFFFFFFF
310
FFFFFFFFFFFFFFFFFFFFFFFFFFFFFFFFFFFFFFFFFFFFFFFFFFFFFFFFFFFFFFFF
310
FFFFFFFFFFFFFFFFFFFFFFFFFFFFFFFFFFFFFFFFFFFFFFFFFFFFFFFFFFFFFFFF
310
FFFFFFFFFFFFFFFFFFFFFFFFFFFFFFFFFFFFFFFFFFFFFFFFFFFFFFFFFFFFFFFF
310
FFFFFFFFFFFFFFFFFFFFFFFFFFFFFFFFFFFFFFFFFFFFFFFFFFFFFFFFFFFFFFFF
310
FFFFFFFFFFFFFFFFFFFFFFFFFFFFFFFFFFFFFFFFFFFFFFFFFFFFFFFFFFFFFFFF
310
FFFFFFFFFFFFFFFFFFFFFFFFFFFFFFFFFFFFFFFFFFFFFFFFFFFFFFFFFFFFFFFF
310
FFFFFFFFFFFFFFFFFFFFFFFFFFFFFFFFFFFFFFFFFFFFFFFFFFFFFFFFFFFFFFFF
310
FFFFFFFFFFFFFFFFFFFFFFFFFFFFFFFFFFFFFFFFFFFFFFFFFFFFFFFFFFFFFFFF
310
010000020000000000000000000000000000000061007200530082005C003107
310
F807250000000000F807250000000000680061007200650064005C003B004300
310
0100FEFF030A0000FFFFFFFF0A00030000000000C00000000000004607000000
310
5042727573680007000000504272757368000700000050427275736800F439B2
310
71000000000000000000000000004100540049002E004100430045005C004300
310
6F00720065002D005300740061007400690063003B0043003A005C0050007200
310
6F006700720061006D002000460069006C006500730020002800780038003600
310
29005C0043006F006D006D006F006E002000460069006C00650073005C004100
310
750074006F006400650073006B0020005300680061007200650064005C003B00
310
43003A005C00500072006F006700720061006D002000460069006C0065007300
310
5C004E006F0072006D0061006E005C004E0070006D005C00420069006E000000
310
43003A005C00500072006F006700720061006D002000460069006C0065007300
310
5C0053006F006C006900640057006F0072006B007300200043006F0072007000
310
5C0053006F006C006900640057006F0072006B00730020002800320029005C00
310
730065007400750070005C0069003300380036005C0073007700610063007400
310
770069007A002E006500780065000000220043003A005C00500072006F006700
310
20260000424D0E260000000000003E00000028000000B40200006E0000000100
310
01000000000000000000130B0000130B00000200000002000000000000FFFFFF
310
FFFFFFFFFFFFFFFFFFFFFFFFFFFFFFFFFFFFFFFFFFFFFFFFFFFFFFFFFFFFFFFF
310
FFFFFFFFFFFFFFFFFFFFFFFFFFFFFFFFFFFFFFFFFFFFFFFFFFFFFFFFFFFFFFFF
310
FFFFFFFFFFFFFFFFFFFFFFFFFFFFFFFFFFFFFFFFFFFFFFFFF000FFFFFFFFFFFF
310
FFFFFFFFFFFFFFFFFFFFFFFFFFFFFFFFFFFFFFFFFFFFFFFFFFFFFFFFFFFFFFFF
310
FFFFFFFFFFFFFFFFFFFFFFFFFFFFFFFFFFFFFFFFFFFFFFFFFFFFFFFFFFFFFFFF
310
FFFFFFFFFFFFFFFFFFFFFFFFFFFFFFFFF000FFFFFFFFFFFFFFFFFFFFFFFFFFFF
310
FFFFFFFFFFFFFFFFFFFFFFFFFFFFFFFFFFFFFFFFFFFFFFFFFFFFFFFFFFFFFFFF
310
FFFFFFFFFFFFFFFFFFFFFFFFFFFFFFFFFFFFFFFFFFFFFFFFFFFFFFFFFFFFFFFF
310
FFFFFFFFFFFFFFFFF000FFFFFFFFFFFFFFFFFFFFFFFFFFFFFFFFFFFFFFFFFFFF
310
FFFFFFFFFFFFFFFFFFFFFFFFFFFFFFFFFFFFFFFFFFFFFFFFFFFFFFFFFFFFFFFF
310
FFFFFFFFFFFFFFFFFFFFFFFFFFFFFFFFFFFFFFFFFFFFFFFFFFFFFFFFFFFFFFFF
310
F000FFFFFFFFFFFFFFFFFFFFFFFFFFFFFFFFFFFFFFFFFFFFFFFFFFFFFFFFFFFF
310
FFFFFFFFFFFFFFFFFFFFFFFFFFFFFFFFFFFFFFFFFFFFFFFFFFFFFFFFFFFFFFFF
310
FFFFFFFFFFFFFFFFFFFFFFFFFFFFFFFFFFFFFFFFFFFFFFFFF000FFFFFFFFFFFF
310
FFFFFFFFFFFFFFFFFFFFFFFFFFFFFFFFFFFFFFFFFFFFFFFFFFFFFFFFFFFFFFFF
310
FFFFFFFFFFFFFFFFFFFFFFFFFFFFFFFFFFFFFFFFFFFFFFFFFFFFFFFFFFFFFFFF
310
FFFFFFFFFFFFFFFFFFFFFFFFFFFFFFFFF000FFFFFFFFFFFFFFFFFFFFFFFFFFFF
310
FFFFFFFFFFFFFFFFFFFFFFFFFFFFFFFFFFFFFFFFFFFFFFFFFFFFFFFFFFFFFFFF
310
FFFFFFFFFFFFFFFFFFFFFFFFFFFFFFFFFFFFFFFFFFFFFFFFFFFFFFFFFFFFFFFF
310
FFFFFFFFFFFFFFFFF000FFFFFFFFFFFFFFFFFFFFFFFFFFFFFFFFFFFFFFFFFFFF
310
FFFFFFFFFFFFFFFFFFFFFFFFFFFFFFFFFFFFFFFFFFFFFFFFFFFFFFFFFFFFFFFF
310
FFFFFFFFFFFFFFFFFFFFFFFFFFFFFFFFFFFFFFFFFFFFFFFFFFFFFFFFFFFFFFFF
310
F000FFFFFFFFFFFFFFFFFFFFFFFFFFFFFFFFFFFFFFFFFFFFFFFFFFFFFFFFFFFF
310
FFFFFFFFFFFFFFFFFFFFFFFFFFFFFFFFFFFFFFFFFFFFFFFFFFFFFFFFFFFFFFFF
310
FFFFFFFFFFFFFFFFFFFFFFFFFFFFFFFFFFFFFFFFFFFFFFFFF000FFFFFFFFFFFF
310
FFFFFFFFFFFFFFFFFFFFFFFFFFFFFFFFFFFFFFFFFFFFFFFFFFFFFFFFFFFFFFFF
310
FFFFFFFFFFFFFFFFFFFFFFFFFFFFFFFFFFFFFFFFFFFFFFFFFFFFFFFFFFFFFFFF
310
FFFFFFFFFFFFFFFFFFFFFFFFFFFFFFFFF000FFFFFFFFFFFFFFFFFFFFFFFFFFFF
310
FFFFFFFFFFFFFFFFFFFFFFFFFFFFFFFFFFFFFFFFFFFFFFFFFFFFFFFFFFFFFFFF
310
FFFFFFFFFFFFFFFFFFFFFFFFFFFFFFFFFFFFFFFFFFFFFFFFFFFFFFFFFFFFFFFF
310
FFFFFFFFFFFFFFFFF000FFFFFFFFFFFFFFFFFFFFFFFFFFFFFFFFFFFFFFFFFFFF
310
FFFFFFFFFFFFFFFFFFFFFFFFFFFFFFFFFFFFFFFFFFFFFFFFFFFFFFFFFFFFFFFF
310
FFFFFFFFFFFFFFFFFFFFFFFFFFFFFFFFFFFFFFFFFFFFFFFFFFFFFFFFFFFFFFFF
310
F000FFFFFFFFFFFFFFFFFFFFFFFFFFFFFFFFFFFFFFFFFFFFFFFFFFFFFFFFFFFF
310
FFFFFFFFFFFFFFFFFFFFFFFFFFFFFFFFFFFFFFFFFFFFFFFFFFFFFFFFFFFFFFFF
310
FFFFFFFFFFFFFFFFFFFFFFFFFFFFFFFFFFFFFFFFFFFFFFFFF000FFFFFFFFFFFF
310
FFFFFFFFFFFFFFFFFFFFFFFFFFFFFFFFFFFFFFFFFFFFFFFFFFFFFFFFFFFFFFFF
310
FFFFFFFFFFFFFFFFFFFFFFFFFFFFFFFFFFFFFFFFFFFFFFFFFFFFFFFFFFFFFFFF
310
FFFFFFFFFFFFFFFFFFFFFFFFFFFFFFFFF000FFFFFFFFFFFFFFFFFFFFFFFFFFFF
310
FFFFFFFFFFFFFFFFFFFFFFFFFFFFFFFFFFFFFFFFFFFFFFFFFFFFFFFFFFFFFFFF
310
FFFFFFFFFFFFFFFFFFFFFFFFFFFFFFFFFFFFFFFFFFFFFFFFFFFFFFFFFFFFFFFF
310
FFFFFFFFFFFFFFFFF000FFFFFFFFFFFFFFFFFFFFFFFFFFFFFFFFFFFFFFFFFFFF
310
FFFFFFFFFFFFFFFFFFFFFFFFFFFFFFFFFFFFFFFFFFFFFFFFFFFFFFFFFFFFFFFF
310
FFFFFFFFFFFFFFFFFFFFFFFFFFFFFFFFFFFFFFFFFFFFFFFFFFFFFFFFFFFFFFFF
310
F000FFFFFFFFFFFFFFFFFFFFFFFFFFFFFFFFFFFFFFFFFFFFFFFFFFFFFFFFFFFF
310
FFFFFFFFFFFFFFFFFFFFFFFFFFFFFFFFFFFFFFFFFFFFFFFFFFFFFFFFFFFFFFFF
310
FFFFFFFFFFFFFFFFFFFFFFFFFFFFFFFFFFFFFFFFFFFFFFFFF000FFFFFFFFFFFF
310
FFFFFFFFFFFFFFFFFFFFFFFFFFFFFFFFFFFFFFFFFFFFFFFFFFFFFFFFFFFFFFFF
310
FFFFFFFFFFFFFFFFFFFFFFFFFFFFFFFFFFFFFFFFFFFFFFFFFFFFFFFFFFFFFFFF
310
FFFFFFFFFFFFFFFFFFFFFFFFFFFFFFFFF000FFFFFFFFFFFFFFFFFFFFFFFFFFFF
310
FFFFFFFFFFFFFFFFFFFFFFFFFFFFFFFFFFFFFFFFFFFFFFFFFFFFFFFFFFFFFFFF
310
FFFFFFFFFFFFFFFFFFFFFFFFFFFFFFFFFFFFFFFFFFFFFFFFFFFFFFFFFFFFFFFF
310
FFFFFFFFFFFFFFFFF000FFFFF80003FFFFFFFFFFFFFFFFFFFFFFFFFFFFFFFFFF
310
FFFFF00007FFFFFFFFFF00007FFFFFF800000000000000007FFFFFFFFFFFFFFF
310
FFFFFFFC001FFFFFFFFFFFFFFC001FFFFFFFFFFFFFFFFFFFFFFFFFFE0007FFFF
310
F000FFFF8000007FFFFFFFF8000FFFFFC0007FFFFF80007FFFFF0000007FFFFF
310
FFF8000007FFFFF800000000000000007FFFFFF0001FFFFFFFFFFFC00001FFFF
310
FFFFFFFFC00001FFFFFFFF000000000003FFFFE000007FFFF000FFFE0000000F
310
FFFFFFF0000FFFFF80007FFFFF80007FFFFC0000001FFFFFFFC0000001FFFFF8
310
00000000000000007FFFFFF0001FFFFFFFFFFE0000003FFFFFFFFFFE0000003F
310
FFFFFF000000000003FFFF0000000FFFF000FFF800000003FFFFFFF00007FFFF
310
80007FFFFF80007FFFF000000007FFFFFF000000003FFFF80000000000000000
310
7FFFFFF0001FFFFFFFFFF80000000FFFFFFFFFF80000000FFFFFFF0000000000
310
03FFFC00000003FFF000FFE000000000FFFFFFF00007FFFF80003FFFFF80007F
310
FFC000000001FFFFFC000000001FFFF800000000000000007FFFFFF0001FFFFF
310
FFFFE000000003FFFFFFFFE000000003FFFFFF000000000003FFF000000000FF
310
F000FF80000000007FFFFFF00007FFFF80003FFFFF80007FFF8000000000FFFF
310
F80000000007FFF800000000000000007FFFFFF0001FFFFFFFFFC000000001FF
310
FFFFFFC000000001FFFFFF000000000003FFC0000000007FF000FF0000000000
310
3FFFFFE00007FFFF00003FFFFF80007FFE00000000003FFFF00000000003FFF8
310
00000000000000007FFFFFF0001FFFFFFFFF8000000000FFFFFFFF8000000000
310
FFFFFF000000000003FF80000000003FF000FE00000000001FFFFFE00003FFFF
310
00003FFFFF80007FFC00000000001FFFE00000000001FFF8000001FFFE000000
310
7FFFFFF0001FFFFFFFFE00000000003FFFFFFE00000000003FFFFF0000000000
310
03FF00000000001FF000FC00000000000FFFFFE00003FFFF00001FFFFF80007F
310
F800000000001FFFC00000000000FFF8000001FFFE0000007FFFFFF0001FFFFF
310
FFFC00000000001FFFFFFC00000000001FFFFF000000000003FE00000000000F
310
F000F8000000000007FFFFE00003FFFF00001FFFFF80007FF800000000000FFF
310
800000000000FFF8000001FFFE0000007FFFFFF0001FFFFFFFF800000000000F
310
FFFFF800000000000FFFFF000000000003FC000000000007F000F80000000000
310
03FFFFC00003FFFE00001FFFFF80007FF0000000000007FF0000000000007FF8
310
000001FFFE0000007FFFFFF0001FFFFFFFF0000000000007FFFFF00000000000
310
07FFFF000000000003F8000000000003F000F0000000000003FFFFC00001FFFE
310
00001FFFFF80007FE0000000000007FE0000000000003FF8000001FFFE000000
310
7FFFFFF0001FFFFFFFF0000000000007FFFFF0000000000007FFFF0000000000
310
03F800001F800003F000E00001FFF00001FFFFC00001FFFE00000FFFFF80007F
310
E00001FFE00003FE00001FFF00003FF8000001FFFE0000007FFFFFF0001FFFFF
310
FFE000003E000003FFFFE000003E000003FFFF000000000003F00001FFF80001
310
F000E00007FFFC0001FFFFC00001FFFE00000FFFFF80007FC0000FFFFC0003FC
310
0000FFFFC0001FF8000001FFFE0000007FFFFFF0001FFFFFFFC00003FFE00001
310
FFFFC00003FFE00001FFFF0001FFFFFFFFF00007FFFE0001F000E0000FFFFF00
310
00FFFF800001FFFC00000FFFFF80007FC0001FFFFE0001FC0001FFFFE0001FF8
310
000001FFFE0000007FFFFFF0001FFFFFFF80000FFFF80000FFFF80000FFFF800
310
00FFFF0003FFFFFFFFE0000FFFFF8000F000C0003FFFFF8000FFFF800000FFFC
310
000007FFFF80007F80003FFFFF0001FC0003FFFFF0001FF8000001FFFE000000
310
7FFFFFF0001FFFFFFF80003FFFFE0000FFFF80003FFFFE0000FFFF0003FFFFFF
310
FFE0003FFFFF8000F000C0003FFFFF8000FFFF800000FFFC000007FFFF80007F
310
80007FFFFF8001F80007FFFFF8000FF8000001FFFE0000007FFFFFF0001FFFFF
310
FF00007FFFFF00007FFF00007FFFFF00007FFF0003FFFFFFFFE0003FFFFFC000
310
F000C0007FFFFFC000FFFF000000FFFC000007FFFF80007F8000FFFFFF8000F8
310
000FFFFFF8000FF8000001FFFE0000007FFFFFF0001FFFFFFF0000FFFFFF8000
310
7FFF0000FFFFFF80007FFF0003FFFFFFFFC0007FFFFFC00070008000FFFFFFC0
310
00FFFF000000FFF8000007FFFF80007F8000FFFFFF8000F8000FFFFFF8000FF8
310
000001FFFE0000007FFFFFF0001FFFFFFE0001FFFFFFC0003FFE0001FFFFFFC0
310
003FFF0003FFFFFFFFC0007FFFFFE00070008000FFFFFFC0007FFF0000007FF8
310
000003FFFF80007F0001FFFFFF8000F8000FFFFFF8000FF8000001FFFE000000
310
7FFFFFF0001FFFFFFE0001FFFFFFC0003FFE0001FFFFFFC0003FFF0003FFFFFF
310
FFC000FFFFFFE00070008000FFFFFFC0007FFF0000007FF8000003FFFF80007F
310
0001FFFFFF8000F8001FFFFFF8000FF8000001FFFE0000007FFFFFF0001FFFFF
310
FE0003FFFFFFE0003FFE0003FFFFFFE0003FFF0003FFFFFFFFC000FFFFFFE000
310
70008000FFFFFFC0007FFE0000007FF8000003FFFF80007F0001FFFFFF8000F0
310
001FFFFFF8000FF8000001FFFE0000007FFFFFF0001FFFFFFC0003FFFFFFE000
310
1FFC0003FFFFFFE0001FFF0003FFFFFFFFC000FFFFFFC00070008000FFFFFF80
310
007FFE0000007FF0000003FFFF80007F0001FFFFFF0000F0001FFFFFF8000FF8
310
000001FFFE0000007FFFFFF0001FFFFFFC0007FFFFFFF0001FFC0007FFFFFFF0
310
001FFF0003FFFFFFFFC000FFFFFFC00070008001FFFFFF0000FFFE0000003FF0
310
000001FFFF80007F0001FFFFFF0000F8001FFFFFF0000FF8000001FFFE000000
310
7FFFFFF0001FFFFFFC0007FFFFFFF0001FFC0007FFFFFFF0001FFF0003FFFFFF
310
FFC001FFFFFF80007000FFFFFFFFFE0000FFFE0008003FF0008001FFFF80007F
310
FFFFFFFFFC0000FFFFFFFFFFE0000FF8000001FFFE0000007FFFFFF0001FFFFF
310
F8000FFFFFFFF8000FF8000FFFFFFFF8000FFF0003FFFFFFFFFFFFFFFFFF0000
310
7000FFFFFFFFFC0000FFFC0008003FF0008001FFFF80007FFFFFFFFFF80001FF
310
FFFFFFFF80000FF8000001FFFE0000007FFFFFF0001FFFFFF8000FFFFFFFF800
310
0FF8000FFFFFFFF8000FFF0003FFFFFFFFFFFFFFFFFE0000F000FFFFFFFFE000
310
00FFFC000C003FE000C001FFFF80007FFFFFFFFFC00001FFFFFFFFFE00001FF8
310
000001FFFE0000007FFFFFF0001FFFFFF8000FFFFFFFF8000FF8000FFFFFFFF8
310
000FFF0003FFFFFFFFFFFFFFFFF00000F000FFFFFFFE000001FFFC000C001FE0
310
00C000FFFF80007FFFFFFFFE000001FFFFFFFFE000001FF80FFFFFFFFFFFFFC0
310
7FFFFFF0001FFFFFF8000FFFFFFFF8000FF8000FFFFFFFF8000FFF0003FFFFFF
310
FFFFFFFFFF800000F000FFFFFFC0000001FFFC001C001FE001C000FFFF80007F
310
FFFFFF80000003FFFFFFF80000001FF80FFFFFFFFFFFFFC07FFFFFF0001FFFFF
310
F8001FFFFFFFFC000FF8001FFFFFFFFC000FFF0003FFFFFFFFFFFFFFF0000001
310
F000FFFFF800000001FFF8001C001FE001C000FFFF80007FFFFFF800000003FF
310
FFFF800000003FF80FFFFFFFFFFFFFC07FFFFFF0001FFFFFF8001FFFFFFFFC00
310
0FF8001FFFFFFFFC000FFF0003FFFFFFFFFFFFFE00000001F000FFFFC0000000
310
03FFF8001E001FC001E000FFFF80007FFFFF8000000007FFFFFC000000003FF8
310
0FFFFFFFFFFFFFC07FFFFFF0001FFFFFF8001FFFFFFFFC000FF8001FFFFFFFFC
310
000FFF0003FFFFFFFFFFFFE000000003F000FFFE0000000007FFF8001E000FC0
310
01E0007FFF80007FFFFE0000000007FFFFE0000000007FF80FFFFFFFFFFFFFC0
310
7FFFFFF0001FFFFFF0001FFFFFFFFC0007F0001FFFFFFFFC0007FF0003FFFFFF
310
FFFFFF0000000003F000FFF80000000007FFF8001E000FC003E0007FFF80007F
310
FFF0000000000FFFFF8000000000FFF80FFFFFFFFFFFFFC07FFFFFF0001FFFFF
310
F0001FFFFFFFFC0007F0001FFFFFFFFC0007FF0003FFFFFFFFFFFC0000000007
310
F000FFE0000000000FFFF0003E000FC003E0007FFF80007FFFC0000000001FFF
310
FE0000000001FFF80FFFFFFFFFFFFFC07FFFFFF0001FFFFFF0001FFFFFFFFC00
310
07F0001FFFFFFFFC0007FF0003FFFFFFFFFFF0000000000FF000FFC000000000
310
1FFFF0003F000F8003F0003FFF80007FFF80000000003FFFF80000000003FFF8
310
0FFFFFFFFFFFFFC07FFFFFF0001FFFFFF0001FFFFFFFFC0007F0001FFFFFFFFC
310
0007FF0003FFFFFFFFFFE0000000001FF000FF00000000007FFFF0003F000780
310
03F0003FFF80007FFF00000000007FFFF00000000007FFF80FFFFFFFFFFFFFC0
310
7FFFFFF0001FFFFFF0001FFFFFFFFC0007F0001FFFFFFFFC0007FF0003FFFFFF
310
FFFF80000000007FF000FE0000000000FFFFE0003F00078007F0003FFF80007F
310
FE0000000001FFFFE0000000001FFFF80FFFFFFFFFFFFFC07FFFFFF0001FFFFF
310
F0001FFFFFFFFC0007F0001FFFFFFFFC0007FF0003FFFFFFFFFF0000000000FF
310
F000FC0000000003FFFFE0007F00078007F0003FFF80007FFC0000000007FFFF
310
C0000000007FFFF80FFFFFFFFFFFFFC07FFFFFF0001FFFFFF8001FFFFFFFFC00
310
0FF8001FFFFFFFFC000FFF0003FFFFFFFFFE0000000003FFF000FC000000000F
310
FFFFE0007F80070007F8001FFF80007FF8000000001FFFFF8000000001FFFFF8
310
0FFFFFFFFFFFFFC07FFFFFF0001FFFFFF8001FFFFFFFFC000FF8001FFFFFFFFC
310
000FFF0003FFFFFFFFFC000000000FFFF000F8000000007FFFFFE0007F800700
310
07F8001FFF80007FF000000000FFFFFF800000000FFFFFF80FFFFFFFFFFFFFC0
310
7FFFFFF0001FFFFFF8000FFFFFFFF8000FF8000FFFFFFFF8000FFF0003FFFFFF
310
FFFC000000007FFFF000F800000007FFFFFFC0007F8003000FF8001FFF80007F
310
F000000007FFFFFF000000007FFFFFF80FFFFFFFFFFFFFC07FFFFFF0001FFFFF
310
F8000FFFFFFFF8000FF8000FFFFFFFF8000FFF0003FFFFFFFFF80000000FFFFF
310
F000F0000000FFFFFFFFC000FF8003000FF8001FFF80007FE0000000FFFFFFFF
310
0000000FFFFFFFF8000001FFFE0000007FFFFFF0001FFFFFF8000FFFFFFFF800
310
0FF8000FFFFFFFF8000FFF0003FFFFFFFFF8000000FFFFFFF000F000000FFFFF
310
FFFFC000FFC002000FF8000FFF80007FE000001FFFFFFFFE000001FFFFFFFFF8
310
000001FFFE0000007FFFFFF0001FFFFFF8000FFFFFFFF8000FF8000FFFFFFFF8
310
000FFF0003FFFFFFFFF000001FFFFFFFF000E00000FFFFFFFFFFC000FFC00200
310
0FFC000FFF80007FE00001FFFFFFFFFE00001FFFFFFFFFF8000001FFFE000000
310
7FFFFFF0001FFFFFFC000FFFFFFFF8001FFC000FFFFFFFF8001FFF0003FFFFFF
310
FFF00001FFFFFFFFF000E00007FFFFFFFFFF8000FFC000001FFC000FFF80007F
310
C0000FFFFFFFFFFE0000FFFFFFFFFFF8000001FFFE0000007FFFFFF0001FFFFF
310
FC0007FFFFFFF0001FFC0007FFFFFFF0001FFF0003FFFFFFFFF00007FFFFFFFF
310
F000E0001FFFFFFFFFFF8000FFC000001FFC000FFF80007FC0003FFFFFFFFFFE
310
0001FFFFFFFFFFF8000001FFFE0000007FFFFFF0001FFFFFFC0007FFFFFFF000
310
1FFC0007FFFFFFF0001FFF0003FFFFFFFFF0001FFFFFFFFFF000E0003FFFFF00
310
03FF8001FFE000001FFC0007FF80007FC0007FFFFF0007FC0003FFFFF0003FF8
310
000001FFFE0000007FFFFFF0001FFFFFFC0003FFFFFFE0001FFC0003FFFFFFE0
310
001FFF0003FFFFFFFFF0003FFFFFFFFFF000E0003FFFFF0001FF8001FFE00000
310
1FFE0007FF80007FC0007FFFFE0003FC0007FFFFE0003FF8000001FFFE000000
310
7FFFFFF0001FFFFFFE0003FFFFFFE0003FFE0003FFFFFFE0003FFF0003FFFFFF
310
FFF0003FFFFF8001F000E0003FFFFF0001FF0001FFE000001FFE0007FF80007F
310
C0007FFFFE0003FC0007FFFFE0003FF8000001FFFE0000007FFFFFF0001FFFFF
310
FE0001FFFFFFC0003FFE0001FFFFFFC0003FFF0003FFFFFFFFF0003FFFFF0001
310
F000E0003FFFFF0003FF0001FFE000003FFE0007FF80007FC0007FFFFE0003FC
310
0007FFFFE0003FF8000001FFFE0000007FFFFFF0001FFFFFFF0001FFFFFFC000
310
7FFF0001FFFFFFC0007FFF0003FFFFFFFFF0003FFFFF0001F000E0003FFFFE00
310
03FF0003FFF000003FFE0003FF80007FC0007FFFFC0003FE0007FFFFE0003FF8
310
000001FFFE0000007FFFFFF0001FFFFFFF0000FFFFFF80007FFF0000FFFFFF80
310
007FFF0003FFFFFFFFF0003FFFFF0001F000E0003FFFFE0003FF0003FFF00000
310
3FFF0003FF80007FC0007FFFFC0007FE0007FFFFC0003FF8000001FFFE000000
310
7FFFFFF0001FFFFFFF80007FFFFF0000FFFF80007FFFFF0000FFFF0003FFFFFF
310
FFF0003FFFFF0003F000E0003FFFFC0003FE0003FFF000003FFF0003FF80007F
310
E0003FFFF80007FE0003FFFFC0007FF8000001FFFE0000007FFFFFF0001FFFFF
310
FF80003FFFFE0000FFFF80003FFFFE0000FFFF0003FFFFFFFFF0001FFFFE0003
310
F000F0001FFFF80003FE0003FFF000007FFF0001FF80007FE0003FFFF00007FE
310
0001FFFF80007FF8000001FFFE0000007FFFFFF0001FFFFFFFC0000FFFF80001
310
FFFFC0000FFFF80001FFFF0003FFFFFFFFF0001FFFFC0003F000F0000FFFF000
310
07FE0007FFF800007FFF0001FF80007FE0001FFFE00007FF0000FFFE00007FF8
310
000001FFFE0000007FFFFFF0001FFFFFFFC00003FFE00001FFFFC00003FFE000
310
01FFFF0003FFFFFFFFF8000FFFF80003F000F00003FFC00007FC0007FFF80000
310
7FFF8001FF80007FF00007FF80000FFF00007FF80000FFF8000001FFFE000000
310
7F80000000000001FFE000003E000003FFFFE000003E000003FFFF0003FFFFFF
310
FFF80003FFE00007F000F800000000000FFC0007FFF800007FFF8001FF80007F
310
F000000000000FFF000000000000FFF8000001FFFE0000007F80000000000001
310
FFF0000000000007FFFFF0000000000007FFFF0003FFFFFFFFFC00007E000007
310
F000F800000000000FFC0007FFF80000FFFF8000FF80007FF800000000001FFF
310
800000000001FFF8000001FFFE0000007F80000000000001FFF800000000000F
310
FFFFF800000000000FFFFF0003FFFFFFFFFC00000000000FF000FC0000000000
310
1FFC0007FFFC0000FFFF8000FF80007FF800000000003FFFC00000000001FFF8
310
000001FFFE0000007F80000000000001FFF800000000000FFFFFF80000000000
310
0FFFFF0003FFFFFFFFFE00000000001FF000FE00000000003FF8000FFFFC0000
310
FFFF8000FF80007FFC00000000003FFFC00000000003FFF8000001FFFE000000
310
7F80000000000001FFFC00000000001FFFFFFC00000000001FFFFF0003FFFFFF
310
FFFF00000000001FF000FF00000000003FF8000FFFFC0000FFFFC000FF80007F
310
FE00000000007FFFE00000000007FFF8000001FFFE0000007F80000000000001
310
FFFE00000000003FFFFFFE00000000003FFFFF0003FFFFFFFFFF80000000003F
310
F000FF80000000007FF8000FFFFC0001FFFFC0007F80007FFF0000000000FFFF
310
F0000000000FFFF800000000000000007F80000000000001FFFF8000000000FF
310
FFFFFF8000000000FFFFFF0003FFFFFFFFFFC0000000007FF000FFC000000000
310
FFF8000FFFFE0001FFFFC0007F80007FFF8000000001FFFFF8000000001FFFF8
310
00000000000000007F80000000000001FFFFC000000001FFFFFFFFC000000001
310
FFFFFF0003FFFFFFFFFFE000000000FFF000FFE000000003FFF0001FFFFE0001
310
FFFFC0007F80007FFFC000000007FFFFFE000000003FFFF80000000000000000
310
7F80000000000001FFFFE000000003FFFFFFFFE000000003FFFFFF0003FFFFFF
310
FFFFF000000003FFF000FFF80000000FFFF0001FFFFE0001FFFFE0007F80007F
310
FFF00000000FFFFFFF00000000FFFFF800000000000000007F80000000000001
310
FFFFF80000000FFFFFFFFFF80000000FFFFFFF0003FFFFFFFFFFFC0000000FFF
310
F000FFFE0000003FFFF0001FFFFE0003FFFFE0003F80007FFFFC0000003FFFFF
310
FFC0000003FFFFF800000000000000007F80000000000001FFFFFE0000003FFF
310
FFFFFFFE0000003FFFFFFF0003FFFFFFFFFFFF0000003FFFF000FFFF800000FF
310
FFF0001FFFFF0003FFFFE0003F80007FFFFF000001FFFFFFFFF800001FFFFFF8
310
00000000000000007F80000000000001FFFFFFC00001FFFFFFFFFFFFC00001FF
310
FFFFFF0003FFFFFFFFFFFFC00000FFFFF000FFFFF8000FFFFFFFFFFFFFFFFFFF
310
FFFFFFFFFFFFFFFFFFFFF0001FFFFFFFFFFF0000FFFFFFF80000000000000000
310
7FFFFFFFFFFFFFFFFFFFFFFC001FFFFFFFFFFFFFFC001FFFFFFFFFFFFFFFFFFF
310
FFFFFFFC001FFFFFF000FFFFFFFFFFFFFFFFFFFFFFFFFFFFFFFFFFFFFFFFFFFF
310
FFFFFFFFFFFFFFFFFFFFFFFFFFFFFFFFFFFFFFFFFFFFFFFFFFFFFFFFFFFFFFFF
310
FFFFFFFFFFFFFFFFFFFFFFFFFFFFFFFFFFFFFFFFFFFFFFFFFFFFFFFFFFFFFFFF
310
F000FFFFFFFFFFFFFFFFFFFFFFFFFFFFFFFFFFFFFFFFFFFFFFFFFFFFFFFFFFFF
310
FFFFFFFFFFFFFFFFFFFFFFFFFFFFFFFFFFFFFFFFFFFFFFFFFFFFFFFFFFFFFFFF
310
FFFFFFFFFFFFFFFFFFFFFFFFFFFFFFFFFFFFFFFFFFFFFFFFF000FFFFFFFFFFFF
310
FFFFFFFFFFFFFFFFFFFFFFFFFFFFFFFFFFFFFFFFFFFFFFFFFFFFFFFFFFFFFFFF
310
FFFFFFFFFFFFFFFFFFFFFFFFFFFFFFFFFFFFFFFFFFFFFFFFFFFFFFFFFFFFFFFF
310
FFFFFFFFFFFFFFFFFFFFFFFFFFFFFFFFF000FFFFFFFFFFFFFFFFFFFFFFFFFFFF
310
FFFFFFFFFFFFFFFFFFFFFFFFFFFFFFFFFFFFFFFFFFFFFFFFFFFFFFFFFFFFFFFF
310
FFFFFFFFFFFFFFFFFFFFFFFFFFFFFFFFFFFFFFFFFFFFFFFFFFFFFFFFFFFFFFFF
310
FFFFFFFFFFFFFFFFF000FFFFFFFFFFFFFFFFFFFFFFFFFFFFFFFFFFFFFFFFFFFF
310
FFFFFFFFFFFFFFFFFFFFFFFFFFFFFFFFFFFFFFFFFFFFFFFFFFFFFFFFFFFFFFFF
310
FFFFFFFFFFFFFFFFFFFFFFFFFFFFFFFFFFFFFFFFFFFFFFFFFFFFFFFFFFFFFFFF
310
F000FFFFFFFFFFFFFFFFFFFFFFFFFFFFFFFFFFFFFFFFFFFFFFFFFFFFFFFFFFFF
310
FFFFFFFFFFFFFFFFFFFFFFFFFFFFFFFFFFFFFFFFFFFFFFFFFFFFFFFFFFFFFFFF
310
FFFFFFFFFFFFFFFFFFFFFFFFFFFFFFFFFFFFFFFFFFFFFFFFF000FFFFFFFFFFFF
310
FFFFFFFFFFFFFFFFFFFFFFFFFFFFFFFFFFFFFFFFFFFFFFFFFFFFFFFFFFFFFFFF
310
FFFFFFFFFFFFFFFFFFFFFFFFFFFFFFFFFFFFFFFFFFFFFFFFFFFFFFFFFFFFFFFF
310
FFFFFFFFFFFFFFFFFFFFFFFFFFFFFFFFF000FFFFFFFFFFFFFFFFFFFFFFFFFFFF
310
FFFFFFFFFFFFFFFFFFFFFFFFFFFFFFFFFFFFFFFFFFFFFFFFFFFFFFFFFFFFFFFF
310
FFFFFFFFFFFFFFFFFFFFFFFFFFFFFFFFFFFFFFFFFFFFFFFFFFFFFFFFFFFFFFFF
310
FFFFFFFFFFFFFFFFF000FFFFFFFFFFFFFFFFFFFFFFFFFFFFFFFFFFFFFFFFFFFF
310
FFFFFFFFFFFFFFFFFFFFFFFFFFFFFFFFFFFFFFFFFFFFFFFFFFFFFFFFFFFFFFFF
310
FFFFFFFFFFFFFFFFFFFFFFFFFFFFFFFFFFFFFFFFFFFFFFFFFFFFFFFFFFFFFFFF
310
F000FFFFFFFFFFFFFFFFFFFFFFFFFFFFFFFFFFFFFFFFFFFFFFFFFFFFFFFFFFFF
310
FFFFFFFFFFFFFFFFFFFFFFFFFFFFFFFFFFFFFFFFFFFFFFFFFFFFFFFFFFFFFFFF
310
FFFFFFFFFFFFFFFFFFFFFFFFFFFFFFFFFFFFFFFFFFFFFFFFF000FFFFFFFFFFFF
310
FFFFFFFFFFFFFFFFFFFFFFFFFFFFFFFFFFFFFFFFFFFFFFFFFFFFFFFFFFFFFFFF
310
FFFFFFFFFFFFFFFFFFFFFFFFFFFFFFFFFFFFFFFFFFFFFFFFFFFFFFFFFFFFFFFF
310
FFFFFFFFFFFFFFFFFFFFFFFFFFFFFFFFF000FFFFFFFFFFFFFFFFFFFFFFFFFFFF
310
FFFFFFFFFFFFFFFFFFFFFFFFFFFFFFFFFFFFFFFFFFFFFFFFFFFFFFFFFFFFFFFF
310
FFFFFFFFFFFFFFFFFFFFFFFFFFFFFFFFFFFFFFFFFFFFFFFFFFFFFFFFFFFFFFFF
310
FFFFFFFFFFFFFFFFF000FFFFFFFFFFFFFFFFFFFFFFFFFFFFFFFFFFFFFFFFFFFF
310
FFFFFFFFFFFFFFFFFFFFFFFFFFFFFFFFFFFFFFFFFFFFFFFFFFFFFFFFFFFFFFFF
310
FFFFFFFFFFFFFFFFFFFFFFFFFFFFFFFFFFFFFFFFFFFFFFFFFFFFFFFFFFFFFFFF
310
F000FFFFFFFFFFFFFFFFFFFFFFFFFFFFFFFFFFFFFFFFFFFFFFFFFFFFFFFFFFFF
310
FFFFFFFFFFFFFFFFFFFFFFFFFFFFFFFFFFFFFFFFFFFFFFFFFFFFFFFFFFFFFFFF
310
FFFFFFFFFFFFFFFFFFFFFFFFFFFFFFFFFFFFFFFFFFFFFFFFF000FFFFFFFFFFFF
310
FFFFFFFFFFFFFFFFFFFFFFFFFFFFFFFFFFFFFFFFFFFFFFFFFFFFFFFFFFFFFFFF
310
FFFFFFFFFFFFFFFFFFFFFFFFFFFFFFFFFFFFFFFFFFFFFFFFFFFFFFFFFFFFFFFF
310
FFFFFFFFFFFFFFFFFFFFFFFFFFFFFFFFF000FFFFFFFFFFFFFFFFFFFFFFFFFFFF
310
FFFFFFFFFFFFFFFFFFFFFFFFFFFFFFFFFFFFFFFFFFFFFFFFFFFFFFFFFFFFFFFF
310
FFFFFFFFFFFFFFFFFFFFFFFFFFFFFFFFFFFFFFFFFFFFFFFFFFFFFFFFFFFFFFFF
310
FFFFFFFFFFFFFFFFF000FFFFFFFFFFFFFFFFFFFFFFFFFFFFFFFFFFFFFFFFFFFF
310
FFFFFFFFFFFFFFFFFFFFFFFFFFFFFFFFFFFFFFFFFFFFFFFFFFFFFFFFFFFFFFFF
310
FFFFFFFFFFFFFFFFFFFFFFFFFFFFFFFFFFFFFFFFFFFFFFFFFFFFFFFFFFFFFFFF
310
F000FFFFFFFFFFFFFFFFFFFFFFFFFFFFFFFFFFFFFFFFFFFFFFFFFFFFFFFFFFFF
310
FFFFFFFFFFFFFFFFFFFFFFFFFFFFFFFFFFFFFFFFFFFFFFFFFFFFFFFFFFFFFFFF
310
FFFFFFFFFFFFFFFFFFFFFFFFFFFFFFFFFFFFFFFFFFFFFFFFF000FFFFFFFFFFFF
310
FFFFFFFFFFFFFFFFFFFFFFFFFFFFFFFFFFFFFFFFFFFFFFFFFFFFFFFFFFFFFFFF
310
FFFFFFFFFFFFFFFFFFFFFFFFFFFFFFFFFFFFFFFFFFFFFFFFFFFFFFFFFFFFFFFF
310
FFFFFFFFFFFFFFFFFFFFFFFFFFFFFFFFF000FFFFFFFFFFFFFFFFFFFFFFFFFFFF
310
FFFFFFFFFFFFFFFFFFFFFFFFFFFFFFFFFFFFFFFFFFFFFFFFFFFFFFFFFFFFFFFF
310
FFFFFFFFFFFFFFFFFFFFFFFFFFFFFFFFFFFFFFFFFFFFFFFFFFFFFFFFFFFFFFFF
310
FFFFFFFFFFFFFFFFF000FFFFFFFFFFFFFFFFFFFFFFFFFFFFFFFFFFFFFFFFFFFF
310
FFFFFFFFFFFFFFFFFFFFFFFFFFFFFFFFFFFFFFFFFFFFFFFFFFFFFFFFFFFFFFFF
310
FFFFFFFFFFFFFFFFFFFFFFFFFFFFFFFFFFFFFFFFFFFFFFFFFFFFFFFFFFFFFFFF
310
F000FFFFFFFFFFFFFFFFFFFFFFFFFFFFFFFFFFFFFFFFFFFFFFFFFFFFFFFFFFFF
310
FFFFFFFFFFFFFFFFFFFFFFFFFFFFFFFFFFFFFFFFFFFFFFFFFFFFFFFFFFFFFFFF
310
FFFFFFFFFFFFFFFFFFFFFFFFFFFFFFFFFFFFFFFFFFFFFFFFF000FFFFFFFFFFFF
310
FFFFFFFFFFFFFFFFFFFFFFFFFFFFFFFFFFFFFFFFFFFFFFFFFFFFFFFFFFFFFFFF
310
FFFFFFFFFFFFFFFFFFFFFFFFFFFFFFFFFFFFFFFFFFFFFFFFFFFFFFFFFFFFFFFF
310
FFFFFFFFFFFFFFFFFFFFFFFFFFFFFFFFF0000000000000000000000000000000
310
00000000000000000000000042006C00610063006B0000000000000000000000
310
0000000000000000000000000000000000000000000000000000000000000000
310
0000000000000000000000000000FFFFFFFFFFFFFFFFFFFFFFFFFFFFFFFFFFFF
310
FFFFFFFFFFFFFFFFFFFFFFFFFFFFFFFFFFFFFFFFFFFFFFFFFFFFFFFFFFFFFFFF
310
FFFFFFFFFFFFFFFFFFFFFFFF6476000800000000FFFFFFFF20FF202026000000
310
1E00000008000000060000000000000011000000200000008403000000000000
310
6000000060000000200002FB200020000000002B00FFFFFF40002200E8030000
310
A80400001C020000AF0000804A20004000000000000000000100000000000000
310
616C000800000000E40100007001000002000000270000001100000000000000
310
00000000BC0200000000000003020122420065006C006C00200047006F007400
310
680069006300200053007400640020004C006900670068007400000000000000
310
00000000000000000000000000000000420065006C006C0047006F0074006800
310
690063005300740064002D0042006F006C006400000000000000000000000000
310
0000000000000000000000000000000000000000000000000000000000000000
310
0000000000000000000000000000000000000000000000000000000000000000
  1
OLE
  0
ENDSEC
  0
SECTION
  2
OBJECTS
  0
DICTIONARY
  5
C
330
0
100
AcDbDictionary
281
     1
  3
ACAD_GROUP
350
D
  3
ACAD_LAYOUT
350
1A
  3
ACAD_MLEADERSTYLE
350
209
  3
ACAD_MLINESTYLE
350
17
  3
ACAD_PLOTSETTINGS
350
19
  3
ACAD_PLOTSTYLENAME
350
E
  3
ACAD_TABLESTYLE
350
208
  3
ACAD_VISUALSTYLE
350
2A
  3
AcDbVariableDictionary
350
20A
  0
DICTIONARY
  5
D
102
{ACAD_REACTORS
330
C
102
}
330
C
100
AcDbDictionary
281
     1
  0
DICTIONARY
  5
1A
102
{ACAD_REACTORS
330
C
102
}
330
C
100
AcDbDictionary
281
     1
  3
Layout1
350
1E
  3
Layout2
350
26
  3
Model
350
22
  0
DICTIONARY
  5
209
102
{ACAD_REACTORS
330
C
102
}
330
C
100
AcDbDictionary
281
     1
  0
DICTIONARY
  5
17
102
{ACAD_REACTORS
330
C
102
}
330
C
100
AcDbDictionary
281
     1
  3
Standard
350
18
  0
DICTIONARY
  5
19
102
{ACAD_REACTORS
330
C
102
}
330
C
100
AcDbDictionary
281
     1
  0
ACDBDICTIONARYWDFLT
  5
E
102
{ACAD_REACTORS
330
C
102
}
330
C
100
AcDbDictionary
281
     1
  3
Normal
350
F
100
AcDbDictionaryWithDefault
340
F
  0
DICTIONARY
  5
208
102
{ACAD_REACTORS
330
C
102
}
330
C
100
AcDbDictionary
281
     1
  0
DICTIONARY
  5
2A
102
{ACAD_REACTORS
330
C
102
}
330
C
100
AcDbDictionary
281
     1
  3
2dWireframe
350
2F
  3
3D Hidden
350
31
  3
3dWireframe
350
30
  3
Basic
350
32
  3
Brighten
350
36
  3
ColorChange
350
3A
  3
Conceptual
350
34
  3
Dim
350
35
  3
Facepattern
350
39
  3
Flat
350
2B
  3
FlatWithEdges
350
2C
  3
Gouraud
350
2D
  3
GouraudWithEdges
350
2E
  3
Linepattern
350
38
  3
Realistic
350
33
  3
Thicken
350
37
  0
DICTIONARY
  5
20A
102
{ACAD_REACTORS
330
C
102
}
330
C
100
AcDbDictionary
281
     1
  3
PSOLHEIGHT
350
20C
  3
PSOLWIDTH
350
20B
  0
LAYOUT
  5
1E
102
{ACAD_REACTORS
330
1A
102
}
330
1A
100
AcDbPlotSettings
  1

  2
none_device
  4

  6

 40
0.0
 41
0.0
 42
0.0
 43
0.0
 44
0.0
 45
0.0
 46
0.0
 47
0.0
 48
0.0
 49
0.0
140
0.0
141
0.0
142
1.0
143
1.0
 70
   688
 72
     0
 73
     0
 74
     5
  7

 75
    16
147
1.0
148
0.0
149
0.0
100
AcDbLayout
  1
Layout1
 70
     1
 71
     1
 10
0.0
 20
0.0
 11
420.0
 21
297.0
 12
0.0
 22
0.0
 32
0.0
 14
1.0000000000E+20
 24
1.0000000000E+20
 34
1.0000000000E+20
 15
-1.0000000000E+20
 25
-1.0000000000E+20
 35
-1.0000000000E+20
146
0.0
 13
0.0
 23
0.0
 33
0.0
 16
1.0
 26
0.0
 36
0.0
 17
0.0
 27
1.0
 37
0.0
 76
     0
330
1B
  0
LAYOUT
  5
26
102
{ACAD_REACTORS
330
1A
102
}
330
1A
100
AcDbPlotSettings
  1

  2
none_device
  4

  6

 40
0.0
 41
0.0
 42
0.0
 43
0.0
 44
0.0
 45
0.0
 46
0.0
 47
0.0
 48
0.0
 49
0.0
140
0.0
141
0.0
142
1.0
143
1.0
 70
   688
 72
     0
 73
     0
 74
     5
  7

 75
    16
147
1.0
148
0.0
149
0.0
100
AcDbLayout
  1
Layout2
 70
     1
 71
     2
 10
0.0
 20
0.0
 11
0.0
 21
0.0
 12
0.0
 22
0.0
 32
0.0
 14
0.0
 24
0.0
 34
0.0
 15
0.0
 25
0.0
 35
0.0
146
0.0
 13
0.0
 23
0.0
 33
0.0
 16
1.0
 26
0.0
 36
0.0
 17
0.0
 27
1.0
 37
0.0
 76
     0
330
23
  0
LAYOUT
  5
22
102
{ACAD_REACTORS
330
1A
102
}
330
1A
100
AcDbPlotSettings
  1

  2
none_device
  4

  6

 40
0.0
 41
0.0
 42
0.0
 43
0.0
 44
0.0
 45
0.0
 46
0.0
 47
0.0
 48
0.0
 49
0.0
140
0.0
141
0.0
142
1.0
143
1.0
 70
  1712
 72
     0
 73
     0
 74
     0
  7

 75
     0
147
1.0
148
0.0
149
0.0
100
AcDbLayout
  1
Model
 70
     1
 71
     0
 10
0.0
 20
0.0
 11
297.0
 21
210.0
 12
0.0
 22
0.0
 32
0.0
 14
0.0
 24
0.0
 34
0.0
 15
297.0
 25
210.0
 35
0.0
146
0.0
 13
0.0
 23
0.0
 33
0.0
 16
1.0
 26
0.0
 36
0.0
 17
0.0
 27
1.0
 37
0.0
 76
     0
330
1F
331
29
  0
MLINESTYLE
  5
18
102
{ACAD_REACTORS
330
17
102
}
330
17
100
AcDbMlineStyle
  2
Standard
 70
     0
  3

 62
   256
 51
90.0
 52
90.0
 71
     2
 49
0.5
 62
   256
  6
BYLAYER
 49
-0.5
 62
   256
  6
BYLAYER
  0
ACDBPLACEHOLDER
  5
F
102
{ACAD_REACTORS
330
E
102
}
330
E
  0
VISUALSTYLE
  5
2F
102
{ACAD_REACTORS
330
2A
102
}
330
2A
100
AcDbVisualStyle
  2
2dWireframe
 70
     4
 71
     0
 72
     2
 73
     0
 90
        0
 40
-0.6
 41
-30.0
 62
     5
 63
     7
 74
     1
 91
        4
 64
     7
 65
   257
 75
     1
175
     1
 42
1.0
 92
        0
 66
   257
 43
1.0
 76
     1
 77
     6
 78
     2
 67
     7
 79
     5
170
     0
171
     0
290
     0
174
     0
 93
        1
 44
0.0
173
     0
291
     0
 45
0.0
1001
ACAD
1000
AcDbSavedByObjectVersion
1070
     0
  0
VISUALSTYLE
  5
31
102
{ACAD_REACTORS
330
2A
102
}
330
2A
100
AcDbVisualStyle
  2
3D Hidden
 70
     6
 71
     1
 72
     2
 73
     2
 90
        0
 40
-0.6
 41
-30.0
 62
     5
 63
     7
 74
     2
 91
        2
 64
     7
 65
   257
 75
     2
175
     1
 42
40.0
 92
        0
 66
   257
 43
1.0
 76
     1
 77
     6
 78
     2
 67
     7
 79
     3
170
     0
171
     0
290
     0
174
     0
 93
        1
 44
0.0
173
     0
291
     0
 45
0.0
1001
ACAD
1000
AcDbSavedByObjectVersion
1070
     0
  0
VISUALSTYLE
  5
30
102
{ACAD_REACTORS
330
2A
102
}
330
2A
100
AcDbVisualStyle
  2
3dWireframe
 70
     5
 71
     0
 72
     2
 73
     0
 90
        0
 40
-0.6
 41
-30.0
 62
     5
 63
     7
 74
     1
 91
        4
 64
     7
 65
   257
 75
     1
175
     1
 42
1.0
 92
        0
 66
   257
 43
1.0
 76
     1
 77
     6
 78
     2
 67
     7
 79
     5
170
     0
171
     0
290
     0
174
     0
 93
        1
 44
0.0
173
     0
291
     0
 45
0.0
1001
ACAD
1000
AcDbSavedByObjectVersion
1070
     0
  0
VISUALSTYLE
  5
32
102
{ACAD_REACTORS
330
2A
102
}
330
2A
100
AcDbVisualStyle
  2
Basic
 70
     7
 71
     1
 72
     0
 73
     1
 90
        0
 40
-0.6
 41
-30.0
 62
     5
 63
     7
 74
     0
 91
        4
 64
     7
 65
   257
 75
     1
175
     1
 42
1.0
 92
        8
 66
     7
 43
1.0
 76
     1
 77
     6
 78
     2
 67
     7
 79
     5
170
     0
171
     0
290
     0
174
     0
 93
        1
 44
0.0
173
     0
291
     1
 45
0.0
1001
ACAD
1000
AcDbSavedByObjectVersion
1070
     0
  0
VISUALSTYLE
  5
36
102
{ACAD_REACTORS
330
2A
102
}
330
2A
100
AcDbVisualStyle
  2
Brighten
 70
    12
 71
     2
 72
     2
 73
     0
 90
        0
 40
-0.6
 41
-30.0
 62
     5
 63
     7
 74
     1
 91
        4
 64
     7
 65
   257
 75
     1
175
     1
 42
1.0
 92
        8
 66
     7
 43
1.0
 76
     1
 77
     6
 78
     2
 67
     7
 79
     5
170
     0
171
     0
290
     0
174
     0
 93
        1
 44
50.0
173
     0
291
     1
 45
0.0
1001
ACAD
1000
AcDbSavedByObjectVersion
1070
     0
  0
VISUALSTYLE
  5
3A
102
{ACAD_REACTORS
330
2A
102
}
330
2A
100
AcDbVisualStyle
  2
ColorChange
 70
    16
 71
     2
 72
     2
 73
     3
 90
        0
 40
-0.6
 41
-30.0
 62
     5
 63
     8
 74
     1
 91
        4
 64
     7
 65
   257
 75
     1
175
     1
 42
1.0
 92
        8
 66
     8
 43
1.0
 76
     1
 77
     6
 78
     2
 67
     7
 79
     5
170
     0
171
     0
290
     0
174
     0
 93
        1
 44
0.0
173
     0
291
     1
 45
0.0
1001
ACAD
1000
AcDbSavedByObjectVersion
1070
     0
  0
VISUALSTYLE
  5
34
102
{ACAD_REACTORS
330
2A
102
}
330
2A
100
AcDbVisualStyle
  2
Conceptual
 70
     9
 71
     3
 72
     2
 73
     0
 90
        0
 40
-0.6
 41
-30.0
 62
     5
 63
     7
 74
     2
 91
        2
 64
     7
 65
   257
 75
     1
175
     1
 42
40.0
 92
        8
 66
     7
 43
1.0
 76
     1
 77
     6
 78
     2
 67
     7
 79
     3
170
     0
171
     0
290
     0
174
     0
 93
        1
 44
0.0
173
     0
291
     0
 45
0.0
1001
ACAD
1000
AcDbSavedByObjectVersion
1070
     0
  0
VISUALSTYLE
  5
35
102
{ACAD_REACTORS
330
2A
102
}
330
2A
100
AcDbVisualStyle
  2
Dim
 70
    11
 71
     2
 72
     2
 73
     0
 90
        0
 40
-0.6
 41
-30.0
 62
     5
 63
     7
 74
     1
 91
        4
 64
     7
 65
   257
 75
     1
175
     1
 42
1.0
 92
        8
 66
     7
 43
1.0
 76
     1
 77
     6
 78
     2
 67
     7
 79
     5
170
     0
171
     0
290
     0
174
     0
 93
        1
 44
-50.0
173
     0
291
     1
 45
0.0
1001
ACAD
1000
AcDbSavedByObjectVersion
1070
     0
  0
VISUALSTYLE
  5
39
102
{ACAD_REACTORS
330
2A
102
}
330
2A
100
AcDbVisualStyle
  2
Facepattern
 70
    15
 71
     2
 72
     2
 73
     0
 90
        0
 40
-0.6
 41
-30.0
 62
     5
 63
     7
 74
     1
 91
        4
 64
     7
 65
   257
 75
     1
175
     1
 42
1.0
 92
        8
 66
     7
 43
1.0
 76
     1
 77
     6
 78
     2
 67
     7
 79
     5
170
     0
171
     0
290
     0
174
     0
 93
        1
 44
0.0
173
     0
291
     1
 45
0.0
1001
ACAD
1000
AcDbSavedByObjectVersion
1070
     0
  0
VISUALSTYLE
  5
2B
102
{ACAD_REACTORS
330
2A
102
}
330
2A
100
AcDbVisualStyle
  2
Flat
 70
     0
 71
     2
 72
     1
 73
     1
 90
        2
 40
-0.6
 41
30.0
 62
     5
 63
     7
 74
     0
 91
        4
 64
     7
 65
   257
 75
     1
175
     1
 42
1.0
 92
        8
 66
     7
 43
1.0
 76
     1
 77
     6
 78
     2
 67
     7
 79
     5
170
     0
171
     0
290
     0
174
     0
 93
       13
 44
0.0
173
     0
291
     1
 45
0.0
1001
ACAD
1000
AcDbSavedByObjectVersion
1070
     0
  0
VISUALSTYLE
  5
2C
102
{ACAD_REACTORS
330
2A
102
}
330
2A
100
AcDbVisualStyle
  2
FlatWithEdges
 70
     1
 71
     2
 72
     1
 73
     1
 90
        2
 40
-0.6
 41
30.0
 62
     5
 63
     7
 74
     1
 91
        4
 64
     7
 65
   257
 75
     1
175
     1
 42
1.0
 92
        0
 66
   257
 43
1.0
 76
     1
 77
     6
 78
     2
 67
     7
 79
     5
170
     0
171
     0
290
     0
174
     0
 93
       13
 44
0.0
173
     0
291
     1
 45
0.0
1001
ACAD
1000
AcDbSavedByObjectVersion
1070
     0
  0
VISUALSTYLE
  5
2D
102
{ACAD_REACTORS
330
2A
102
}
330
2A
100
AcDbVisualStyle
  2
Gouraud
 70
     2
 71
     2
 72
     2
 73
     1
 90
        2
 40
-0.6
 41
30.0
 62
     5
 63
     7
 74
     0
 91
        4
 64
     7
 65
   257
 75
     1
175
     1
 42
1.0
 92
        0
 66
     7
 43
1.0
 76
     1
 77
     6
 78
     2
 67
     7
 79
     5
170
     0
171
     0
290
     0
174
     0
 93
       13
 44
0.0
173
     0
291
     1
 45
0.0
1001
ACAD
1000
AcDbSavedByObjectVersion
1070
     0
  0
VISUALSTYLE
  5
2E
102
{ACAD_REACTORS
330
2A
102
}
330
2A
100
AcDbVisualStyle
  2
GouraudWithEdges
 70
     3
 71
     2
 72
     2
 73
     1
 90
        2
 40
-0.6
 41
30.0
 62
     5
 63
     7
 74
     1
 91
        4
 64
     7
 65
   257
 75
     1
175
     1
 42
1.0
 92
        0
 66
   257
 43
1.0
 76
     1
 77
     6
 78
     2
 67
     7
 79
     5
170
     0
171
     0
290
     0
174
     0
 93
       13
 44
0.0
173
     0
291
     1
 45
0.0
1001
ACAD
1000
AcDbSavedByObjectVersion
1070
     0
  0
VISUALSTYLE
  5
38
102
{ACAD_REACTORS
330
2A
102
}
330
2A
100
AcDbVisualStyle
  2
Linepattern
 70
    14
 71
     2
 72
     2
 73
     0
 90
        0
 40
-0.6
 41
-30.0
 62
     5
 63
     7
 74
     1
 91
        4
 64
     7
 65
   257
 75
     7
175
     7
 42
1.0
 92
        8
 66
     7
 43
1.0
 76
     1
 77
     6
 78
     2
 67
     7
 79
     5
170
     0
171
     0
290
     0
174
     0
 93
        1
 44
0.0
173
     0
291
     1
 45
0.0
1001
ACAD
1000
AcDbSavedByObjectVersion
1070
     0
  0
VISUALSTYLE
  5
33
102
{ACAD_REACTORS
330
2A
102
}
330
2A
100
AcDbVisualStyle
  2
Realistic
 70
     8
 71
     2
 72
     2
 73
     0
 90
        0
 40
-0.6
 41
-30.0
 62
     5
 63
     7
 74
     1
 91
        0
 64
     7
 65
   257
 75
     1
175
     1
 42
1.0
 92
        8
 66
     8
 43
1.0
 76
     1
 77
     6
 78
     2
 67
     7
 79
     5
170
     0
171
     0
290
     0
174
     0
 93
       13
 44
0.0
173
     0
291
     0
 45
0.0
1001
ACAD
1000
AcDbSavedByObjectVersion
1070
     0
  0
VISUALSTYLE
  5
37
102
{ACAD_REACTORS
330
2A
102
}
330
2A
100
AcDbVisualStyle
  2
Thicken
 70
    13
 71
     2
 72
     2
 73
     0
 90
        0
 40
-0.6
 41
-30.0
 62
     5
 63
     7
 74
     1
 91
        4
 64
     7
 65
   257
 75
     1
175
     1
 42
1.0
 92
       12
 66
     7
 43
1.0
 76
     1
 77
     6
 78
     2
 67
     7
 79
     5
170
     0
171
     0
290
     0
174
     0
 93
        1
 44
0.0
173
     0
291
     1
 45
0.0
1001
ACAD
1000
AcDbSavedByObjectVersion
1070
     0
  0
DICTIONARYVAR
  5
20C
102
{ACAD_REACTORS
330
20A
102
}
330
20A
100
DictionaryVariables
280
     0
  1
80.000000
  0
DICTIONARYVAR
  5
20B
102
{ACAD_REACTORS
330
20A
102
}
330
20A
100
DictionaryVariables
280
     0
  1
5.000000
  0
ENDSEC
  0
EOF
