  0
SECTION
  2
HEADER
  9
$ACADVER
  1
AC1015
  9
$ACADMAINTVER
 70
     6
  9
$DWGCODEPAGE
  3
ANSI_1252
  9
$INSBASE
 10
0.0
 20
0.0
 30
0.0
  9
$EXTMIN
 10
0.0
 20
0.0
 30
0.0
  9
$EXTMAX
 10
297.0
 20
210.0
 30
0.0
  9
$LIMMIN
 10
0.0
 20
0.0
  9
$LIMMAX
 10
297.0
 20
210.0
  9
$ORTHOMODE
 70
     0
  9
$REGENMODE
 70
     1
  9
$FILLMODE
 70
     1
  9
$QTEXTMODE
 70
     0
  9
$MIRRTEXT
 70
     1
  9
$LTSCALE
 40
1.0
  9
$ATTMODE
 70
     1
  9
$TEXTSIZE
 40
2.0
  9
$TRACEWID
 40
1.0
  9
$TEXTSTYLE
  7
Standard
  9
$CLAYER
  8
0
  9
$CELTYPE
  6
ByLayer
  9
$CECOLOR
 62
   256
  9
$CELTSCALE
 40
1.0
  9
$DISPSILH
 70
     0
  9
$DIMSCALE
 40
1.0
  9
$DIMASZ
 40
3.0
  9
$DIMEXO
 40
0.0
  9
$DIMDLI
 40
3.75
  9
$DIMRND
 40
0.0
  9
$DIMDLE
 40
0.0
  9
$DIMEXE
 40
1.0
  9
$DIMTP
 40
0.0
  9
$DIMTM
 40
0.0
  9
$DIMTXT
 40
2.0
  9
$DIMCEN
 40
2.5
  9
$DIMTSZ
 40
0.0
  9
$DIMTOL
 70
     0
  9
$DIMLIM
 70
     0
  9
$DIMTIH
 70
     1
  9
$DIMTOH
 70
     1
  9
$DIMSE1
 70
     0
  9
$DIMSE2
 70
     0
  9
$DIMTAD
 70
     1
  9
$DIMZIN
 70
     0
  9
$DIMBLK
  1

  9
$DIMASO
 70
     1
  9
$DIMSHO
 70
     1
  9
$DIMPOST
  1

  9
$DIMAPOST
  1

  9
$DIMALT
 70
     0
  9
$DIMALTD
 70
     3
  9
$DIMALTF
 40
0.0393700787
  9
$DIMLFAC
 40
1.0
  9
$DIMTOFL
 70
     1
  9
$DIMTVP
 40
0.0
  9
$DIMTIX
 70
     0
  9
$DIMSOXD
 70
     0
  9
$DIMSAH
 70
     0
  9
$DIMBLK1
  1

  9
$DIMBLK2
  1

  9
$DIMSTYLE
  2
ISO-25
  9
$DIMCLRD
 70
     0
  9
$DIMCLRE
 70
     0
  9
$DIMCLRT
 70
     0
  9
$DIMTFAC
 40
1.0
  9
$DIMGAP
 40
1.524
  9
$DIMJUST
 70
     0
  9
$DIMSD1
 70
     0
  9
$DIMSD2
 70
     0
  9
$DIMTOLJ
 70
     0
  9
$DIMTZIN
 70
     0
  9
$DIMALTZ
 70
     0
  9
$DIMALTTZ
 70
     0
  9
$DIMUPT
 70
     0
  9
$DIMDEC
 70
     2
  9
$DIMTDEC
 70
     3
  9
$DIMALTU
 70
     2
  9
$DIMALTTD
 70
     3
  9
$DIMTXSTY
  7
Standard
  9
$DIMAUNIT
 70
     0
  9
$DIMADEC
 70
     2
  9
$DIMALTRND
 40
0.0
  9
$DIMAZIN
 70
     0
  9
$DIMDSEP
 70
    44
  9
$DIMATFIT
 70
     3
  9
$DIMFRAC
 70
     0
  9
$DIMLDRBLK
  1

  9
$DIMLUNIT
 70
     2
  9
$DIMLWD
 70
    -2
  9
$DIMLWE
 70
    -2
  9
$DIMTMOVE
 70
     0
  9
$LUNITS
 70
     2
  9
$LUPREC
 70
     2
  9
$SKETCHINC
 40
1.0
  9
$FILLETRAD
 40
10.0
  9
$AUNITS
 70
     0
  9
$AUPREC
 70
     2
  9
$MENU
  1
.
  9
$ELEVATION
 40
0.0
  9
$PELEVATION
 40
0.0
  9
$THICKNESS
 40
0.0
  9
$LIMCHECK
 70
     0
  9
$CHAMFERA
 40
10.0
  9
$CHAMFERB
 40
10.0
  9
$CHAMFERC
 40
20.0
  9
$CHAMFERD
 40
0.0
  9
$SKPOLY
 70
     0
  9
$TDCREATE
 40
2455672.367660961
  9
$TDUCREATE
 40
2455672.284327627
  9
$TDUPDATE
 40
2455672.367660972
  9
$TDUUPDATE
 40
2455672.284327639
  9
$TDINDWG
 40
0.0000000116
  9
$TDUSRTIMER
 40
0.0000000116
  9
$USRTIMER
 70
     1
  9
$ANGBASE
 50
0.0
  9
$ANGDIR
 70
     0
  9
$PDMODE
 70
     0
  9
$PDSIZE
 40
-1.0
  9
$PLINEWID
 40
0.0
  9
$SPLFRAME
 70
     0
  9
$SPLINETYPE
 70
     6
  9
$SPLINESEGS
 70
     8
  9
$HANDSEED
  5
186
  9
$SURFTAB1
 70
     6
  9
$SURFTAB2
 70
     6
  9
$SURFTYPE
 70
     6
  9
$SURFU
 70
     6
  9
$SURFV
 70
     6
  9
$UCSBASE
  2

  9
$UCSNAME
  2

  9
$UCSORG
 10
0.0
 20
0.0
 30
0.0
  9
$UCSXDIR
 10
1.0
 20
0.0
 30
0.0
  9
$UCSYDIR
 10
0.0
 20
1.0
 30
0.0
  9
$UCSORTHOREF
  2

  9
$UCSORTHOVIEW
 70
     0
  9
$UCSORGTOP
 10
0.0
 20
0.0
 30
0.0
  9
$UCSORGBOTTOM
 10
0.0
 20
0.0
 30
0.0
  9
$UCSORGLEFT
 10
0.0
 20
0.0
 30
0.0
  9
$UCSORGRIGHT
 10
0.0
 20
0.0
 30
0.0
  9
$UCSORGFRONT
 10
0.0
 20
0.0
 30
0.0
  9
$UCSORGBACK
 10
0.0
 20
0.0
 30
0.0
  9
$PUCSBASE
  2

  9
$PUCSNAME
  2

  9
$PUCSORG
 10
0.0
 20
0.0
 30
0.0
  9
$PUCSXDIR
 10
1.0
 20
0.0
 30
0.0
  9
$PUCSYDIR
 10
0.0
 20
1.0
 30
0.0
  9
$PUCSORTHOREF
  2

  9
$PUCSORTHOVIEW
 70
     0
  9
$PUCSORGTOP
 10
0.0
 20
0.0
 30
0.0
  9
$PUCSORGBOTTOM
 10
0.0
 20
0.0
 30
0.0
  9
$PUCSORGLEFT
 10
0.0
 20
0.0
 30
0.0
  9
$PUCSORGRIGHT
 10
0.0
 20
0.0
 30
0.0
  9
$PUCSORGFRONT
 10
0.0
 20
0.0
 30
0.0
  9
$PUCSORGBACK
 10
0.0
 20
0.0
 30
0.0
  9
$USERI1
 70
     0
  9
$USERI2
 70
     0
  9
$USERI3
 70
     0
  9
$USERI4
 70
     0
  9
$USERI5
 70
     0
  9
$USERR1
 40
0.0
  9
$USERR2
 40
0.0
  9
$USERR3
 40
0.0
  9
$USERR4
 40
0.0
  9
$USERR5
 40
0.0
  9
$WORLDVIEW
 70
     1
  9
$SHADEDGE
 70
     3
  9
$SHADEDIF
 70
    70
  9
$TILEMODE
 70
     1
  9
$MAXACTVP
 70
    64
  9
$PINSBASE
 10
0.0
 20
0.0
 30
0.0
  9
$PLIMCHECK
 70
     0
  9
$PEXTMIN
 10
1.0000000000E+20
 20
1.0000000000E+20
 30
1.0000000000E+20
  9
$PEXTMAX
 10
-1.0000000000E+20
 20
-1.0000000000E+20
 30
-1.0000000000E+20
  9
$PLIMMIN
 10
0.0
 20
0.0
  9
$PLIMMAX
 10
420.0
 20
297.0
  9
$UNITMODE
 70
     0
  9
$VISRETAIN
 70
     1
  9
$PLINEGEN
 70
     0
  9
$PSLTSCALE
 70
     1
  9
$TREEDEPTH
 70
  3020
  9
$CMLSTYLE
  2
Standard
  9
$CMLJUST
 70
     0
  9
$CMLSCALE
 40
20.0
  9
$PROXYGRAPHICS
 70
     1
  9
$MEASUREMENT
 70
     1
  9
$CELWEIGHT
370
    -1
  9
$ENDCAPS
280
     0
  9
$JOINSTYLE
280
     0
  9
$LWDISPLAY
290
     1
  9
$INSUNITS
 70
     4
  9
$HYPERLINKBASE
  1

  9
$STYLESHEET
  1

  9
$XEDIT
290
     1
  9
$CEPSNTYPE
380
     0
  9
$PSTYLEMODE
290
     1
  9
$FINGERPRINTGUID
  2
{8EE1A91F-740F-4480-999B-85D0A235903E}
  9
$VERSIONGUID
  2
{FAEB1C32-E019-11D5-929B-00C0DF256EC4}
  9
$EXTNAMES
290
     1
  9
$PSVPSCALE
 40
0.0
  9
$OLESTARTUP
290
     0
  0
ENDSEC
  0
SECTION
  2
CLASSES
  0
CLASS
  1
ACDBDICTIONARYWDFLT
  2
AcDbDictionaryWithDefault
  3
ObjectDBX Classes
 90
        0
280
     0
281
     0
  0
CLASS
  1
VISUALSTYLE
  2
AcDbVisualStyle
  3
ObjectDBX Classes
 90
     4095
280
     0
281
     0
  0
CLASS
  1
DICTIONARYVAR
  2
AcDbDictionaryVar
  3
ObjectDBX Classes
 90
        0
280
     0
281
     0
  0
CLASS
  1
ACDBPLACEHOLDER
  2
AcDbPlaceHolder
  3
ObjectDBX Classes
 90
        0
280
     0
281
     0
  0
CLASS
  1
LAYOUT
  2
AcDbLayout
  3
ObjectDBX Classes
 90
        0
280
     0
281
     0
  0
ENDSEC
  0
SECTION
  2
TABLES
  0
TABLE
  2
VPORT
  5
8
330
0
100
AcDbSymbolTable
 70
     1
  0
VPORT
  5
29
330
8
100
AcDbSymbolTableRecord
100
AcDbViewportTableRecord
  2
*Active
 70
     0
 10
0.0
 20
0.0
 11
1.0
 21
1.0
 12
148.5
 22
105.0
 13
0.0
 23
0.0
 14
10.0
 24
10.0
 15
10.0
 25
10.0
 16
0.0
 26
0.0
 36
1.0
 17
0.0
 27
0.0
 37
0.0
 40
210.0
 41
1.4142857143
 42
50.0
 43
0.0
 44
0.0
 50
0.0
 51
0.0
 71
     0
 72
  2000
 73
     1
 74
     3
 75
     0
 76
     0
 77
     0
 78
     0
281
     0
 65
     1
110
0.0
120
0.0
130
0.0
111
1.0
121
0.0
131
0.0
112
0.0
122
1.0
132
0.0
 79
     0
146
0.0
  0
ENDTAB
  0
TABLE
  2
LTYPE
  5
5
330
0
100
AcDbSymbolTable
 70
     6
  0
LTYPE
  5
14
330
5
100
AcDbSymbolTableRecord
100
AcDbLinetypeTableRecord
  2
ByBlock
 70
     0
  3

 72
    65
 73
     0
 40
0.0
  0
LTYPE
  5
15
330
5
100
AcDbSymbolTableRecord
100
AcDbLinetypeTableRecord
  2
ByLayer
 70
     0
  3

 72
    65
 73
     0
 40
0.0
  0
LTYPE
  5
16
330
5
100
AcDbSymbolTableRecord
100
AcDbLinetypeTableRecord
  2
Continuous
 70
     0
  3
Solid line
 72
    65
 73
     0
 40
0.0
  0
LTYPE
  5
3B
330
5
100
AcDbSymbolTableRecord
100
AcDbLinetypeTableRecord
  2
HIDDEN
 70
     0
  3
Hidden __ __ __ __ __ __ __ __ __ __ __ __ __ __
 72
    65
 73
     2
 40
1.905
 49
1.27
 74
     0
 49
-0.635
 74
     0
  0
LTYPE
  5
3C
330
5
100
AcDbSymbolTableRecord
100
AcDbLinetypeTableRecord
  2
PHANTOM
 70
     0
  3
Phantom ______  __  __  ______  __  __  ______
 72
    65
 73
     6
 40
12.7
 49
6.35
 74
     0
 49
-1.27
 74
     0
 49
1.27
 74
     0
 49
-1.27
 74
     0
 49
1.27
 74
     0
 49
-1.27
 74
     0
  0
LTYPE
  5
3D
330
5
100
AcDbSymbolTableRecord
100
AcDbLinetypeTableRecord
  2
CENTER
 70
     0
  3
Center ____ _ ____ _ ____ _ ____ _ ____ _ ____
 72
    65
 73
     4
 40
10.16
 49
6.35
 74
     0
 49
-1.27
 74
     0
 49
1.27
 74
     0
 49
-1.27
 74
     0
  0
LTYPE
  5
3E
330
5
100
AcDbSymbolTableRecord
100
AcDbLinetypeTableRecord
  2
CENTERX2
 70
     0
  3
Center (2x) ________  __  ________  __  _____
 72
    65
 73
     4
 40
20.32
 49
12.7
 74
     0
 49
-2.54
 74
     0
 49
2.54
 74
     0
 49
-2.54
 74
     0
  0
LTYPE
  5
3F
330
5
100
AcDbSymbolTableRecord
100
AcDbLinetypeTableRecord
  2
DOT2
 70
     0
  3
Dot (.5x) ........................................
 72
    65
 73
     2
 40
0.635
 49
0.0
 74
     0
 49
-0.635
 74
     0
  0
ENDTAB
  0
TABLE
  2
LAYER
  5
2
330
0
100
AcDbSymbolTable
 70
     5
  0
LAYER
  5
10
330
2
100
AcDbSymbolTableRecord
100
AcDbLayerTableRecord
  2
0
 70
     0
 62
     7
  6
Continuous
370
    -3
390
F
  0
LAYER
  5
40
330
2
100
AcDbSymbolTableRecord
100
AcDbLayerTableRecord
  2
FORMAT
 70
     0
 62
     7
  6
Continuous
370
    -3
390
F
  0
LAYER
  5
41
330
2
100
AcDbSymbolTableRecord
100
AcDbLayerTableRecord
  2
VERMASSUNG
 70
     0
 62
     7
  6
Continuous
370
    -3
390
F
  0
LAYER
  5
42
330
2
100
AcDbSymbolTableRecord
100
AcDbLayerTableRecord
  2
KOPF_DÜNN
 70
     0
 62
     7
  6
Continuous
370
    -3
390
F
  0
LAYER
  5
43
330
2
100
AcDbSymbolTableRecord
100
AcDbLayerTableRecord
  2
KOPF_DICK
 70
     0
 62
     7
  6
Continuous
370
    15
390
F
  0
ENDTAB
  0
TABLE
  2
STYLE
  5
3
330
0
100
AcDbSymbolTable
 70
     3
  0
STYLE
  5
11
330
3
100
AcDbSymbolTableRecord
100
AcDbTextStyleTableRecord
  2
Standard
 70
     0
 40
0.0
 41
1.0
 50
0.0
 71
     0
 42
2.5
  3
txt
  4

  0
STYLE
  5
44
330
3
100
AcDbSymbolTableRecord
100
AcDbTextStyleTableRecord
  2
SLDTEXTSTYLE0
 70
     0
 40
0.0
 41
0.7
 50
0.0
 71
     0
 42
0.2
  3
TXT
  4

  0
STYLE
  5
48
330
3
100
AcDbSymbolTableRecord
100
AcDbTextStyleTableRecord
  2
SLDTEXTSTYLE1
 70
     0
 40
0.0
 41
0.6473684211
 50
0.0
 71
     0
 42
0.2
  3
TXT
  4

  0
ENDTAB
  0
TABLE
  2
VIEW
  5
6
330
0
100
AcDbSymbolTable
 70
     0
  0
ENDTAB
  0
TABLE
  2
UCS
  5
7
330
0
100
AcDbSymbolTable
 70
     0
  0
ENDTAB
  0
TABLE
  2
APPID
  5
9
330
0
100
AcDbSymbolTable
 70
     1
  0
APPID
  5
12
330
9
100
AcDbSymbolTableRecord
100
AcDbRegAppTableRecord
  2
ACAD
 70
     0
  0
ENDTAB
  0
TABLE
  2
DIMSTYLE
  5
A
330
0
100
AcDbSymbolTable
 70
     3
100
AcDbDimStyleTable
  0
DIMSTYLE
105
27
330
A
100
AcDbSymbolTableRecord
100
AcDbDimStyleTableRecord
  2
ISO-25
 70
     0
 41
2.5
 42
0.625
 43
3.75
 44
1.25
 73
     0
 74
     0
 77
     1
 78
     8
140
2.5
141
2.5
143
0.0393700787
147
0.625
171
     3
172
     1
271
     2
272
     2
274
     3
278
    44
283
     0
284
     8
340
11
  0
DIMSTYLE
105
13B
102
{ACAD_REACTORS
330
13A
330
147
330
151
330
15B
330
173
102
}
330
A
100
AcDbSymbolTableRecord
100
AcDbDimStyleTableRecord
  2
SLDDIMSTYLE0
 70
     0
 41
3.0
 44
0.0
 45
0.000000001
 73
     0
 74
     0
 77
     1
 78
    12
140
2.0
147
0.5
173
     1
271
     2
272
     3
284
    12
340
44
  0
DIMSTYLE
105
166
102
{ACAD_REACTORS
330
165
102
}
330
A
100
AcDbSymbolTableRecord
100
AcDbDimStyleTableRecord
  2
SLDDIMSTYLE1
 70
     0
 41
3.0
 44
0.0
 45
0.000000001
 73
     0
 74
     0
 77
     1
 78
    12
140
2.0
147
0.5
173
     1
271
     2
272
     3
284
    12
340
44
  0
ENDTAB
  0
TABLE
  2
BLOCK_RECORD
  5
1
330
0
100
AcDbSymbolTable
 70
     7
  0
BLOCK_RECORD
  5
1F
330
1
100
AcDbSymbolTableRecord
100
AcDbBlockTableRecord
  2
*Model_Space
340
22
  0
BLOCK_RECORD
  5
1B
330
1
100
AcDbSymbolTableRecord
100
AcDbBlockTableRecord
  2
*Paper_Space
340
1E
  0
BLOCK_RECORD
  5
23
330
1
100
AcDbSymbolTableRecord
100
AcDbBlockTableRecord
  2
*Paper_Space0
340
26
  0
BLOCK_RECORD
  5
13C
330
1
100
AcDbSymbolTableRecord
100
AcDbBlockTableRecord
  2
*D1
340
0
  0
BLOCK_RECORD
  5
148
330
1
100
AcDbSymbolTableRecord
100
AcDbBlockTableRecord
  2
*D2
340
0
  0
BLOCK_RECORD
  5
152
330
1
100
AcDbSymbolTableRecord
100
AcDbBlockTableRecord
  2
*D3
340
0
  0
BLOCK_RECORD
  5
15C
330
1
100
AcDbSymbolTableRecord
100
AcDbBlockTableRecord
  2
*D4
340
0
  0
BLOCK_RECORD
  5
167
330
1
100
AcDbSymbolTableRecord
100
AcDbBlockTableRecord
  2
*D5
340
0
  0
BLOCK_RECORD
  5
174
330
1
100
AcDbSymbolTableRecord
100
AcDbBlockTableRecord
  2
*D6
340
0
  0
ENDTAB
  0
ENDSEC
  0
SECTION
  2
BLOCKS
  0
BLOCK
  5
20
330
1F
100
AcDbEntity
  8
0
100
AcDbBlockBegin
  2
*Model_Space
 70
     0
 10
0.0
 20
0.0
 30
0.0
  3
*Model_Space
  1

  0
ENDBLK
  5
21
330
1F
100
AcDbEntity
  8
0
100
AcDbBlockEnd
  0
BLOCK
  5
1C
330
1B
100
AcDbEntity
 67
     1
  8
0
100
AcDbBlockBegin
  2
*Paper_Space
 70
     0
 10
0.0
 20
0.0
 30
0.0
  3
*Paper_Space
  1

  0
ENDBLK
  5
1D
330
1B
100
AcDbEntity
 67
     1
  8
0
100
AcDbBlockEnd
  0
BLOCK
  5
24
330
23
100
AcDbEntity
  8
0
100
AcDbBlockBegin
  2
*Paper_Space0
 70
     0
 10
0.0
 20
0.0
 30
0.0
  3
*Paper_Space0
  1

  0
ENDBLK
  5
25
330
23
100
AcDbEntity
  8
0
100
AcDbBlockEnd
  0
BLOCK
  5
13D
330
13C
100
AcDbEntity
  8
0
100
AcDbBlockBegin
  2
*D1
 70
     1
 10
0.0
 20
0.0
 30
0.0
  3
*D1
  1

  0
SOLID
  5
13F
330
13C
100
AcDbEntity
  8
VERMASSUNG
100
AcDbTrace
 10
78.9116972655
 20
145.2146283773
 30
0.0
 11
78.4616972655
 21
142.2146283773
 31
0.0
 12
79.3616972655
 22
142.2146283773
 32
0.0
 13
79.3616972655
 23
142.2146283773
 33
0.0
  0
SOLID
  5
140
330
13C
100
AcDbEntity
  8
VERMASSUNG
100
AcDbTrace
 10
78.9116972655
 20
82.2146283773
 30
0.0
 11
79.3616972655
 21
85.2146283773
 31
0.0
 12
78.4616972655
 22
85.2146283773
 32
0.0
 13
78.4616972655
 23
85.2146283773
 33
0.0
  0
LINE
  5
141
330
13C
100
AcDbEntity
  8
VERMASSUNG
100
AcDbLine
 10
117.434314794
 20
145.2146283773
 30
0.0
 11
77.9116972655
 21
145.2146283773
 31
0.0
  0
LINE
  5
142
330
13C
100
AcDbEntity
  8
VERMASSUNG
100
AcDbLine
 10
117.434314794
 20
82.2146283773
 30
0.0
 11
77.9116972655
 21
82.2146283773
 31
0.0
  0
LINE
  5
143
330
13C
100
AcDbEntity
  8
VERMASSUNG
100
AcDbLine
 10
78.9116972655
 20
145.2146283773
 30
0.0
 11
78.9116972655
 21
82.2146283773
 31
0.0
  0
MTEXT
  5
144
330
13C
100
AcDbEntity
  8
VERMASSUNG
100
AcDbMText
 10
76.1335617765
 20
106.1678573713
 30
0.0
 40
2.0
 41
0.0
 71
     1
 72
     1
  1
HSK A
  7
SLDTEXTSTYLE0
 11
-7.044195017643634E-15
 21
1.0
 31
0.0
 73
     1
 44
1.0
  0
MTEXT
  5
145
330
13C
100
AcDbEntity
  8
VERMASSUNG
100
AcDbMText
 10
76.333561786
 20
113.9678576254
 30
0.0
 40
2.0
 41
0.0
 71
     1
 72
     1
  1
%%c
  7
SLDTEXTSTYLE0
 11
-7.044195017643634E-15
 21
1.0
 31
0.0
 73
     1
 44
1.0
  0
MTEXT
  5
146
330
13C
100
AcDbEntity
  8
VERMASSUNG
100
AcDbMText
 10
76.3335619024
 20
117.5754417463
 30
0.0
 40
2.0
 41
0.0
 71
     1
 72
     1
  1
63
  7
SLDTEXTSTYLE0
 11
-7.044195017643634E-15
 21
1.0
 31
0.0
 73
     1
 44
1.0
  0
ENDBLK
  5
13E
330
13C
100
AcDbEntity
  8
0
100
AcDbBlockEnd
  0
BLOCK
  5
149
330
148
100
AcDbEntity
  8
0
100
AcDbBlockBegin
  2
*D2
 70
     1
 10
0.0
 20
0.0
 30
0.0
  3
*D2
  1

  0
SOLID
  5
14B
330
148
100
AcDbEntity
  8
VERMASSUNG
100
AcDbTrace
 10
217.134314794
 20
150.3940887149
 30
0.0
 11
214.134314794
 21
150.8440887149
 31
0.0
 12
214.134314794
 22
149.9440887149
 32
0.0
 13
214.134314794
 23
149.9440887149
 33
0.0
  0
SOLID
  5
14C
330
148
100
AcDbEntity
  8
VERMASSUNG
100
AcDbTrace
 10
143.084314794
 20
150.3940887149
 30
0.0
 11
146.084314794
 21
149.9440887149
 31
0.0
 12
146.084314794
 22
150.8440887149
 32
0.0
 13
146.084314794
 23
150.8440887149
 33
0.0
  0
LINE
  5
14D
330
148
100
AcDbEntity
  8
VERMASSUNG
100
AcDbLine
 10
217.134314794
 20
122.4404878557
 30
0.0
 11
217.134314794
 21
151.3940887149
 31
0.0
  0
LINE
  5
14E
330
148
100
AcDbEntity
  8
VERMASSUNG
100
AcDbLine
 10
143.084314794
 20
143.561068701
 30
0.0
 11
143.084314794
 21
151.3940887149
 31
0.0
  0
LINE
  5
14F
330
148
100
AcDbEntity
  8
VERMASSUNG
100
AcDbLine
 10
217.134314794
 20
150.3940887149
 30
0.0
 11
143.084314794
 21
150.3940887149
 31
0.0
  0
MTEXT
  5
150
330
148
100
AcDbEntity
  8
VERMASSUNG
100
AcDbMText
 10
173.1333175026
 20
152.9722240781
 30
0.0
 40
2.0
 41
0.0
 71
     1
 72
     1
  1
74.05
  7
SLDTEXTSTYLE0
 73
     1
 44
1.0
  0
ENDBLK
  5
14A
330
148
100
AcDbEntity
  8
0
100
AcDbBlockEnd
  0
BLOCK
  5
153
330
152
100
AcDbEntity
  8
0
100
AcDbBlockBegin
  2
*D3
 70
     1
 10
0.0
 20
0.0
 30
0.0
  3
*D3
  1

  0
SOLID
  5
155
330
152
100
AcDbEntity
  8
VERMASSUNG
100
AcDbTrace
 10
217.134314794
 20
156.3940887149
 30
0.0
 11
214.134314794
 21
156.8440887149
 31
0.0
 12
214.134314794
 22
155.9440887149
 32
0.0
 13
214.134314794
 23
155.9440887149
 33
0.0
  0
SOLID
  5
156
330
152
100
AcDbEntity
  8
VERMASSUNG
100
AcDbTrace
 10
117.134314794
 20
156.3940887149
 30
0.0
 11
120.134314794
 21
155.9440887149
 31
0.0
 12
120.134314794
 22
156.8440887149
 32
0.0
 13
120.134314794
 23
156.8440887149
 33
0.0
  0
LINE
  5
157
330
152
100
AcDbEntity
  8
VERMASSUNG
100
AcDbLine
 10
217.134314794
 20
122.4404878557
 30
0.0
 11
217.134314794
 21
157.3940887149
 31
0.0
  0
LINE
  5
158
330
152
100
AcDbEntity
  8
VERMASSUNG
100
AcDbLine
 10
117.134314794
 20
144.9146283773
 30
0.0
 11
117.134314794
 21
157.3940887149
 31
0.0
  0
LINE
  5
159
330
152
100
AcDbEntity
  8
VERMASSUNG
100
AcDbLine
 10
217.134314794
 20
156.3940887149
 30
0.0
 11
117.134314794
 21
156.3940887149
 31
0.0
  0
MTEXT
  5
15A
330
152
100
AcDbEntity
  8
VERMASSUNG
100
AcDbMText
 10
163.9275393384
 20
158.9722240781
 30
0.0
 40
2.0
 41
0.0
 71
     1
 72
     1
  1
100
  7
SLDTEXTSTYLE0
 73
     1
 44
1.0
  0
ENDBLK
  5
154
330
152
100
AcDbEntity
  8
0
100
AcDbBlockEnd
  0
BLOCK
  5
15D
330
15C
100
AcDbEntity
  8
0
100
AcDbBlockBegin
  2
*D4
 70
     1
 10
0.0
 20
0.0
 30
0.0
  3
*D4
  1

  0
SOLID
  5
15F
330
15C
100
AcDbEntity
  8
VERMASSUNG
100
AcDbTrace
 10
217.134314794
 20
162.3940887149
 30
0.0
 11
214.134314794
 21
162.8440887149
 31
0.0
 12
214.134314794
 22
161.9440887149
 32
0.0
 13
214.134314794
 23
161.9440887149
 33
0.0
  0
SOLID
  5
160
330
15C
100
AcDbEntity
  8
VERMASSUNG
100
AcDbTrace
 10
85.234314794
 20
162.3940887149
 30
0.0
 11
88.234314794
 21
161.9440887149
 31
0.0
 12
88.234314794
 22
162.8440887149
 32
0.0
 13
88.234314794
 23
162.8440887149
 33
0.0
  0
LINE
  5
161
330
15C
100
AcDbEntity
  8
VERMASSUNG
100
AcDbLine
 10
217.134314794
 20
122.4404878557
 30
0.0
 11
217.134314794
 21
163.3940887149
 31
0.0
  0
LINE
  5
162
330
15C
100
AcDbEntity
  8
VERMASSUNG
100
AcDbLine
 10
85.234314794
 20
133.4053061238
 30
0.0
 11
85.234314794
 21
163.3940887149
 31
0.0
  0
LINE
  5
163
330
15C
100
AcDbEntity
  8
VERMASSUNG
100
AcDbLine
 10
217.134314794
 20
162.3940887149
 30
0.0
 11
85.234314794
 21
162.3940887149
 31
0.0
  0
MTEXT
  5
164
330
15C
100
AcDbEntity
  8
VERMASSUNG
100
AcDbMText
 10
145.6261095784
 20
164.9722240781
 30
0.0
 40
2.0
 41
0.0
 71
     1
 72
     1
  1
131.9
  7
SLDTEXTSTYLE0
 73
     1
 44
1.0
  0
ENDBLK
  5
15E
330
15C
100
AcDbEntity
  8
0
100
AcDbBlockEnd
  0
BLOCK
  5
168
330
167
100
AcDbEntity
  8
0
100
AcDbBlockBegin
  2
*D5
 70
     1
 10
0.0
 20
0.0
 30
0.0
  3
*D5
  1

  0
SOLID
  5
16A
330
167
100
AcDbEntity
  8
VERMASSUNG
100
AcDbTrace
 10
223.8733189143
 20
117.7146283773
 30
0.0
 11
224.3233189143
 21
120.7146283773
 31
0.0
 12
223.4233189143
 22
120.7146283773
 32
0.0
 13
223.4233189143
 23
120.7146283773
 33
0.0
  0
SOLID
  5
16B
330
167
100
AcDbEntity
  8
VERMASSUNG
100
AcDbTrace
 10
223.8733189143
 20
109.7146283773
 30
0.0
 11
223.4233189143
 21
106.7146283773
 31
0.0
 12
224.3233189143
 22
106.7146283773
 32
0.0
 13
224.3233189143
 23
106.7146283773
 33
0.0
  0
LINE
  5
16C
330
167
100
AcDbEntity
  8
VERMASSUNG
100
AcDbLine
 10
216.834314794
 20
117.7146283773
 30
0.0
 11
224.8733189143
 21
117.7146283773
 31
0.0
  0
LINE
  5
16D
330
167
100
AcDbEntity
  8
VERMASSUNG
100
AcDbLine
 10
216.834314794
 20
109.7146283773
 30
0.0
 11
224.8733189143
 21
109.7146283773
 31
0.0
  0
LINE
  5
16E
330
167
100
AcDbEntity
  8
VERMASSUNG
100
AcDbLine
 10
223.8733189143
 20
117.7146283773
 30
0.0
 11
223.8733189143
 21
123.7146283773
 31
0.0
  0
LINE
  5
16F
330
167
100
AcDbEntity
  8
VERMASSUNG
100
AcDbLine
 10
223.8733189143
 20
117.7146283773
 30
0.0
 11
223.8733189143
 21
109.7146283773
 31
0.0
  0
LINE
  5
170
330
167
100
AcDbEntity
  8
VERMASSUNG
100
AcDbLine
 10
223.8733189143
 20
109.7146283773
 30
0.0
 11
223.8733189143
 21
103.7146283773
 31
0.0
  0
MTEXT
  5
171
330
167
100
AcDbEntity
  8
VERMASSUNG
100
AcDbMText
 10
221.2951834347
 20
111.0143699608
 30
0.0
 40
2.0
 41
0.0
 71
     1
 72
     1
  1
%%c
  7
SLDTEXTSTYLE0
 11
-7.044195017643634E-15
 21
1.0
 31
0.0
 73
     1
 44
1.0
  0
MTEXT
  5
172
330
167
100
AcDbEntity
  8
VERMASSUNG
100
AcDbMText
 10
221.2951835511
 20
114.6242388753
 30
0.0
 40
2.0
 41
0.0
 71
     1
 72
     1
  1
8
  7
SLDTEXTSTYLE0
 11
-7.044195017643634E-15
 21
1.0
 31
0.0
 73
     1
 44
1.0
  0
ENDBLK
  5
169
330
167
100
AcDbEntity
  8
0
100
AcDbBlockEnd
  0
BLOCK
  5
175
330
174
100
AcDbEntity
  8
0
100
AcDbBlockBegin
  2
*D6
 70
     1
 10
0.0
 20
0.0
 30
0.0
  3
*D6
  1

  0
SOLID
  5
177
330
174
100
AcDbEntity
  8
VERMASSUNG
100
AcDbTrace
 10
229.8733189143
 20
97.7146283773
 30
0.0
 11
230.3233189143
 21
100.7146283773
 31
0.0
 12
229.4233189143
 22
100.7146283773
 32
0.0
 13
229.4233189143
 23
100.7146283773
 33
0.0
  0
SOLID
  5
178
330
174
100
AcDbEntity
  8
VERMASSUNG
100
AcDbTrace
 10
229.8733189143
 20
129.7146283773
 30
0.0
 11
229.4233189143
 21
126.7146283773
 31
0.0
 12
230.3233189143
 22
126.7146283773
 32
0.0
 13
230.3233189143
 23
126.7146283773
 33
0.0
  0
LINE
  5
179
330
174
100
AcDbEntity
  8
VERMASSUNG
100
AcDbLine
 10
204.267273271
 20
97.7146283773
 30
0.0
 11
230.8733189143
 21
97.7146283773
 31
0.0
  0
LINE
  5
17A
330
174
100
AcDbEntity
  8
VERMASSUNG
100
AcDbLine
 10
204.267273271
 20
129.7146283773
 30
0.0
 11
230.8733189143
 21
129.7146283773
 31
0.0
  0
LINE
  5
17B
330
174
100
AcDbEntity
  8
VERMASSUNG
100
AcDbLine
 10
229.8733189143
 20
97.7146283773
 30
0.0
 11
229.8733189143
 21
129.7146283773
 31
0.0
  0
MTEXT
  5
17C
330
174
100
AcDbEntity
  8
VERMASSUNG
100
AcDbMText
 10
227.2951834347
 20
110.3143194674
 30
0.0
 40
2.0
 41
0.0
 71
     1
 72
     1
  1
%%c
  7
SLDTEXTSTYLE0
 11
6.123233995736766E-17
 21
1.0
 31
0.0
 73
     1
 44
1.0
  0
MTEXT
  5
17D
330
174
100
AcDbEntity
  8
VERMASSUNG
100
AcDbMText
 10
227.2951835511
 20
113.9241883819
 30
0.0
 40
2.0
 41
0.0
 71
     1
 72
     1
  1
32
  7
SLDTEXTSTYLE0
 11
6.123233995736766E-17
 21
1.0
 31
0.0
 73
     1
 44
1.0
  0
ENDBLK
  5
176
330
174
100
AcDbEntity
  8
0
100
AcDbBlockEnd
  0
ENDSEC
  0
SECTION
  2
ENTITIES
  0
MTEXT
  5
45
330
1F
100
AcDbEntity
  8
KOPF_DÜNN
100
AcDbMText
 10
13.8892156294
 20
23.8442973028
 30
0.0
 40
3.0
 41
0.0
 71
     1
 72
     1
  1
HA6.W08.K01.100
  7
SLDTEXTSTYLE0
 73
     1
 44
1.0
  0
MTEXT
  5
46
330
1F
100
AcDbEntity
  8
VERMASSUNG
100
AcDbMText
 10
13.9329988022
 20
28.8834360957
 30
0.0
 40
3.0
 41
0.0
 71
     1
 72
     1
  1
Flächenspannfutter_End mill adapter Weldon ø8
  7
SLDTEXTSTYLE0
 73
     1
 44
1.0
  0
MTEXT
  5
47
330
1F
100
AcDbEntity
  8
VERMASSUNG
100
AcDbMText
 10
98.8601118557
 20
13.8365368179
 30
0.0
 40
2.0
 41
0.0
 71
     1
 72
     1
  1
Datum: 25.04.2006
  7
SLDTEXTSTYLE0
 73
     1
 44
1.0
  0
MTEXT
  5
49
330
1F
100
AcDbEntity
  8
VERMASSUNG
100
AcDbMText
 10
13.933048693
 20
18.0482802738
 30
0.0
 40
2.0
 41
0.0
 71
     1
 72
     1
  1
DIN 69 893 HSK A 63
  7
SLDTEXTSTYLE1
 73
     1
 44
1.0
  0
MTEXT
  5
4A
330
1F
100
AcDbEntity
  8
VERMASSUNG
100
AcDbMText
 10
13.9808475933
 20
13.9090973692
 30
0.0
 40
2.0
 41
0.0
 71
     1
 72
     1
  1
Gewicht: 1072g
  7
SLDTEXTSTYLE0
 73
     1
 44
1.0
  0
LINE
  5
4B
330
1F
100
AcDbEntity
  8
0
  6
Continuous
 62
     7
370
    15
100
AcDbLine
 10
117.4343148083
 20
82.2146278706
 30
0.0
 11
122.0843147672
 21
82.2146278706
 31
0.0
  0
LINE
  5
4C
330
1F
100
AcDbEntity
  8
0
  6
Continuous
 62
     7
370
    15
100
AcDbLine
 10
122.1123033389
 20
145.2146288839
 30
0.0
 11
117.4343148083
 21
145.2146288839
 31
0.0
  0
ARC
  5
4D
330
1F
100
AcDbEntity
  8
0
  6
Continuous
 62
     7
370
    15
100
AcDbCircle
 10
117.434314794
 20
82.5146283773
 30
0.0
 40
0.3000000000000114
100
AcDbArc
 50
180.0
 51
270.0
  0
ARC
  5
4E
330
1F
100
AcDbEntity
  8
0
  6
Continuous
 62
     7
370
    15
100
AcDbCircle
 10
117.434314794
 20
144.9146283773
 30
0.0
 40
0.3000000000000114
100
AcDbArc
 50
90.0
 51
180.0
  0
ARC
  5
4F
330
1F
100
AcDbEntity
  8
0
  6
Continuous
 62
     7
370
    15
100
AcDbCircle
 10
116.6343080413
 20
89.1441907629
 30
0.0
 40
0.6000067526677242
100
AcDbArc
 50
33.5571153394
 51
90.0
  0
ARC
  5
50
330
1F
100
AcDbEntity
  8
0
  6
Continuous
 62
     7
370
    15
100
AcDbCircle
 10
116.6343080413
 20
138.2850659917
 30
0.0
 40
0.6000067526677242
100
AcDbArc
 50
270.0
 51
326.4428846606
  0
LINE
  5
51
330
1F
100
AcDbEntity
  8
0
  6
Continuous
 62
     7
370
    15
100
AcDbLine
 10
115.134314699
 20
89.4941971538
 30
0.0
 11
115.9910276252
 21
89.7237532673
 31
0.0
  0
LINE
  5
52
330
1F
100
AcDbEntity
  8
0
  6
Continuous
 62
     7
370
    15
100
AcDbLine
 10
115.9910276252
 20
137.7055034873
 30
0.0
 11
115.134314699
 21
137.9350596008
 31
0.0
  0
LINE
  5
53
330
1F
100
AcDbEntity
  8
0
  6
Continuous
 62
     7
370
    15
100
AcDbLine
 10
103.9028063602
 20
137.3723582265
 30
0.0
 11
91.3343139178
 21
136.74267427
 31
0.0
  0
LINE
  5
54
330
1F
100
AcDbEntity
  8
0
  6
Continuous
 62
     7
370
    15
100
AcDbLine
 10
115.134314699
 20
137.9350596008
 30
0.0
 11
112.3173132724
 21
137.7939269778
 31
0.0
  0
LINE
  5
55
330
1F
100
AcDbEntity
  8
0
  6
Continuous
 62
     7
370
    15
100
AcDbLine
 10
112.3173691518
 20
89.6353279141
 30
0.0
 11
115.134314699
 21
89.4941971538
 31
0.0
  0
LINE
  5
56
330
1F
100
AcDbEntity
  8
0
  6
Continuous
 62
     7
370
    15
100
AcDbLine
 10
95.3343145735
 20
90.4861823556
 30
0.0
 11
103.9032086915
 21
90.056878039
 31
0.0
  0
ARC
  5
57
330
1F
100
AcDbEntity
  8
0
  6
Continuous
 62
     7
370
    15
100
AcDbCircle
 10
116.1463189945
 20
89.1441975156
 30
0.0
 40
0.6000000000000085
100
AcDbArc
 50
90.0
 51
105.0
  0
ARC
  5
58
330
1F
100
AcDbEntity
  8
0
  6
Continuous
 62
     7
370
    15
100
AcDbCircle
 10
116.1463189945
 20
138.285059239
 30
0.0
 40
0.5999999999999943
100
AcDbArc
 50
255.0
 51
270.0
  0
LINE
  5
59
330
1F
100
AcDbEntity
  8
0
  6
Continuous
 62
     7
370
    15
100
AcDbLine
 10
116.1463190288
 20
89.7441976604
 30
0.0
 11
116.6343080182
 21
89.7441976604
 31
0.0
  0
LINE
  5
5A
330
1F
100
AcDbEntity
  8
0
  6
Continuous
 62
     7
370
    15
100
AcDbLine
 10
116.6343080182
 20
137.6850590942
 30
0.0
 11
116.1463190288
 21
137.6850590942
 31
0.0
  0
ARC
  5
5B
330
1F
100
AcDbEntity
  8
0
  6
Continuous
 62
     7
370
    15
100
AcDbCircle
 10
146.084314794
 20
91.6986695758
 30
0.0
 40
3.000000000000003
100
AcDbArc
 50
104.3250519401
 51
180.0
  0
ARC
  5
5C
330
1F
100
AcDbEntity
  8
0
  6
Continuous
 62
     7
370
    15
100
AcDbCircle
 10
146.084314794
 20
135.7305871788
 30
0.0
 40
3.0
100
AcDbArc
 50
180.0
 51
255.6749480599
  0
ARC
  5
5D
330
1F
100
AcDbEntity
  8
0
  6
Continuous
 62
     7
370
    15
100
AcDbCircle
 10
170.084314794
 20
-2.2853716227
 30
0.0
 40
100.0
100
AcDbArc
 50
90.0
 51
104.3250519401
  0
ARC
  5
5E
330
1F
100
AcDbEntity
  8
0
  6
Continuous
 62
     7
370
    15
100
AcDbCircle
 10
170.084314794
 20
229.7146283773
 30
0.0
 40
100.0
100
AcDbArc
 50
255.6749480599
 51
270.0
  0
LINE
  5
5F
330
1F
100
AcDbEntity
  8
0
  6
Continuous
 62
     7
370
    15
100
AcDbLine
 10
170.0843133218
 20
97.7146276173
 30
0.0
 11
204.2672753519
 21
97.7146276173
 31
0.0
  0
LINE
  5
60
330
1F
100
AcDbEntity
  8
0
  6
Continuous
 62
     7
370
    15
100
AcDbLine
 10
204.2672753519
 20
129.7146291372
 30
0.0
 11
170.0843133218
 21
129.7146291372
 31
0.0
  0
LINE
  5
61
330
1F
100
AcDbEntity
  8
0
  6
Continuous
 62
     7
370
    15
100
AcDbLine
 10
204.2672753519
 20
97.7146276173
 30
0.0
 11
215.9795507974
 21
103.1761537206
 31
0.0
  0
LINE
  5
62
330
1F
100
AcDbEntity
  8
0
  6
Continuous
 62
     7
370
    15
100
AcDbLine
 10
215.9795507974
 20
124.2531030339
 30
0.0
 11
204.2672753519
 21
129.7146291372
 31
0.0
  0
LINE
  5
63
330
1F
100
AcDbEntity
  8
0
  6
Continuous
 62
     7
370
    15
100
AcDbLine
 10
86.5176513977
 20
92.8446282533
 30
0.0
 11
93.9343150891
 21
92.8446282533
 31
0.0
  0
ARC
  5
64
330
1F
100
AcDbEntity
  8
0
  6
Continuous
 62
     7
370
    15
100
AcDbCircle
 10
215.134314794
 20
104.9887688989
 30
0.0
 40
2.000000000000001
100
AcDbArc
 50
295.0
 51
0.0
  0
ARC
  5
65
330
1F
100
AcDbEntity
  8
0
  6
Continuous
 62
     7
370
    15
100
AcDbCircle
 10
215.134314794
 20
122.4404878557
 30
0.0
 40
2.000000000000001
100
AcDbArc
 50
0.0
 51
65.0
  0
ARC
  5
66
330
1F
100
AcDbEntity
  8
0
  6
Continuous
 62
     7
370
    15
100
AcDbCircle
 10
93.934314794
 20
91.4446283773
 30
0.0
 40
1.399999999999991
100
AcDbArc
 50
42.2465410162
 51
90.0
  0
LINE
  5
67
330
1F
100
AcDbEntity
  8
0
  6
Continuous
 62
     7
370
    15
100
AcDbLine
 10
85.2353468723
 20
93.9935953257
 30
0.0
 11
86.3754775561
 21
92.8534646419
 31
0.0
  0
LINE
  5
68
330
1F
100
AcDbEntity
  8
0
  6
Continuous
 62
     7
370
    15
100
AcDbLine
 10
86.3754775561
 20
134.5757921127
 30
0.0
 11
85.2442167885
 21
133.4445294824
 31
0.0
  0
ARC
  5
69
330
1F
100
AcDbEntity
  8
0
  6
Continuous
 62
     7
370
    15
100
AcDbCircle
 10
89.934314794
 20
135.9846283773
 30
0.0
 40
1.400000000000008
100
AcDbArc
 50
270.0
 51
301.7485287426
  0
LINE
  5
6A
330
1F
100
AcDbEntity
  8
0
  6
Continuous
 62
     7
370
    15
100
AcDbLine
 10
89.9343144334
 20
134.5846285013
 30
0.0
 11
86.5252025611
 21
134.5846285013
 31
0.0
  0
LWPOLYLINE
  5
6B
330
1F
100
AcDbEntity
  8
0
  6
Continuous
 62
     7
370
    15
100
AcDbPolyline
 90
        3
 70
   128
 43
0.0
 10
196.5572729892
 20
115.1609349663
 10
196.3125884718
 20
114.43996638
 10
196.2626174278
 20
114.1524335153
  0
ARC
  5
6C
330
1F
100
AcDbEntity
  8
0
  6
Continuous
 62
     7
370
    15
100
AcDbCircle
 10
199.634314794
 20
113.7146283773
 30
0.0
 40
3.400000000000007
100
AcDbArc
 50
269.7928096958
 51
291.6242098569
  0
LINE
  5
6D
330
1F
100
AcDbEntity
  8
0
  6
Continuous
 62
     7
370
    15
100
AcDbLine
 10
196.6217726654
 20
115.2908872946
 30
0.0
 11
196.5572729892
 21
115.1609349663
 31
0.0
  0
LINE
  5
6E
330
1F
100
AcDbEntity
  8
0
  6
Continuous
 62
     7
370
    15
100
AcDbLine
 10
201.530103404
 20
115.0334625172
 30
0.0
 11
201.7243549413
 21
112.7322454604
 31
0.0
  0
LINE
  5
6F
330
1F
100
AcDbEntity
  8
0
  6
Continuous
 62
     7
370
    15
100
AcDbLine
 10
199.4400665349
 20
116.0158454341
 30
0.0
 11
197.5442737526
 21
114.6970112941
 31
0.0
  0
LINE
  5
70
330
1F
100
AcDbEntity
  8
0
  6
Continuous
 62
     7
370
    15
100
AcDbLine
 10
197.73852529
 20
112.3957942373
 30
0.0
 11
197.5442737526
 21
114.6970112941
 31
0.0
  0
LINE
  5
71
330
1F
100
AcDbEntity
  8
0
  6
Continuous
 62
     7
370
    15
100
AcDbLine
 10
199.828562159
 20
111.4134113205
 30
0.0
 11
201.7243549413
 21
112.7322454604
 31
0.0
  0
LINE
  5
72
330
1F
100
AcDbEntity
  8
0
  6
Continuous
 62
     7
370
    15
100
AcDbLine
 10
197.73852529
 20
112.3957942373
 30
0.0
 11
199.828562159
 21
111.4134113205
 31
0.0
  0
LINE
  5
73
330
1F
100
AcDbEntity
  8
0
  6
Continuous
 62
     7
370
    15
100
AcDbLine
 10
199.4400665349
 20
116.0158454341
 30
0.0
 11
201.530103404
 21
115.0334625172
 31
0.0
  0
LINE
  5
74
330
1F
100
AcDbEntity
  8
0
  6
Continuous
 62
     7
370
    15
100
AcDbLine
 10
142.4843155033
 20
83.5277107445
 30
0.0
 11
138.5262467153
 21
83.5277107445
 31
0.0
  0
LINE
  5
75
330
1F
100
AcDbEntity
  8
0
  6
Continuous
 62
     7
370
    15
100
AcDbLine
 10
138.5262467153
 20
83.5277107445
 30
0.0
 11
138.5262467153
 21
133.5646291164
 31
0.0
  0
LINE
  5
76
330
1F
100
AcDbEntity
  8
0
  6
Continuous
 62
     7
370
    15
100
AcDbLine
 10
138.5262467153
 20
133.5646291164
 30
0.0
 11
142.4843155033
 21
133.5646291164
 31
0.0
  0
LINE
  5
77
330
1F
100
AcDbEntity
  8
0
  6
Continuous
 62
     7
370
    15
100
AcDbLine
 10
143.0843144841
 20
84.1543511388
 30
0.0
 11
143.0843144841
 21
133.5646291164
 31
0.0
  0
SPLINE
  5
78
330
1F
100
AcDbEntity
  8
0
  6
Continuous
 62
     7
370
    15
100
AcDbSpline
210
0.0
220
0.0
230
1.0
 70
     8
 71
     3
 72
    10
 73
     6
 74
     0
 42
0.00000001
 43
0.00000001
 40
0.0
 40
0.0
 40
0.0
 40
0.0
 40
0.5
 40
0.5
 40
1.0
 40
1.0
 40
1.0
 40
1.0
 10
143.0843147940108
 20
84.15435097669142
 30
0.0
 10
143.0843147940108
 20
83.99446370849776
 30
0.0
 10
143.0230051427749
 20
83.83333645298316
 30
0.0
 10
142.8039055052399
 20
83.59923745462832
 30
0.0
 10
142.6458572989264
 20
83.5277106810371
 30
0.0
 10
142.4843147940108
 20
83.5277106810371
 30
0.0
  0
SPLINE
  5
79
330
1F
100
AcDbEntity
  8
0
  6
Continuous
 62
     7
370
    15
100
AcDbSpline
210
0.0
220
0.0
230
1.0
 70
    24
 71
     3
 72
    12
 73
     8
 74
     0
 42
0.00000001
 43
0.00000001
 40
0.0
 40
0.0
 40
0.0
 40
0.0
 40
0.250000000000002
 40
0.250000000000002
 40
0.500000000000004
 40
0.500000000000004
 40
1.0
 40
1.0
 40
1.0
 40
1.0
 10
142.4843147940108
 20
133.5646283772843
 30
0.0
 10
142.5745538616978
 20
133.5646283772843
 30
0.0
 10
142.6654519758043
 20
133.5646283772843
 30
0.0
 10
142.8200490122929
 20
133.5646283772843
 30
0.0
 10
142.885027428401
 20
133.5646283772843
 30
0.0
 10
143.0368624563372
 20
133.5646283772843
 30
0.0
 10
143.0843147940108
 20
133.5646283772843
 30
0.0
 10
143.0843147940108
 20
133.5646283772843
 30
0.0
  0
LINE
  5
7A
330
1F
100
AcDbEntity
  8
0
  6
Continuous
 62
     7
370
    15
100
AcDbLine
 10
122.0843147672
 20
133.5646291164
 30
0.0
 11
131.7423822544
 21
133.5646291164
 31
0.0
  0
LINE
  5
7B
330
1F
100
AcDbEntity
  8
0
  6
Continuous
 62
     7
370
    15
100
AcDbLine
 10
131.7423822544
 20
83.5277107445
 30
0.0
 11
131.7423822544
 21
133.5646291164
 31
0.0
  0
LINE
  5
7C
330
1F
100
AcDbEntity
  8
0
  6
Continuous
 62
     7
370
    15
100
AcDbLine
 10
131.7423822544
 20
83.5277107445
 30
0.0
 11
130.0843151472
 21
83.5277107445
 31
0.0
  0
SPLINE
  5
7D
330
1F
100
AcDbEntity
  8
0
  6
Continuous
 62
     7
370
    15
100
AcDbSpline
210
0.0
220
0.0
230
1.0
 70
     8
 71
     3
 72
    28
 73
    24
 74
     0
 42
0.00000001
 43
0.00000001
 40
0.0
 40
0.0
 40
0.0
 40
0.0
 40
0.1249999999999999
 40
0.1249999999999999
 40
0.1874999999999998
 40
0.1874999999999998
 40
0.2499999999999997
 40
0.2499999999999997
 40
0.3749999999999993
 40
0.3749999999999993
 40
0.4374999999999993
 40
0.4374999999999993
 40
0.4999999999999992
 40
0.4999999999999992
 40
0.6249999999999992
 40
0.6249999999999992
 40
0.7499999999999992
 40
0.7499999999999992
 40
0.8124999999999993
 40
0.8124999999999993
 40
0.8749999999999996
 40
0.8749999999999996
 40
1.0
 40
1.0
 40
1.0
 40
1.0
 10
130.0843147940108
 20
83.5277106810371
 30
0.0
 10
129.5526070365179
 20
83.5277106810371
 30
0.0
 10
129.0303684712075
 20
83.5119259670869
 30
0.0
 10
128.2604979849325
 20
83.46693055301068
 30
0.0
 10
128.0061384127412
 20
83.44837555793497
 30
0.0
 10
127.5020168320427
 20
83.40452283548846
 30
0.0
 10
127.2522940146148
 20
83.37917822853626
 30
0.0
 10
126.5267040631684
 20
83.29577615078615
 30
0.0
 10
126.0683438015868
 20
83.22991059163506
 30
0.0
 10
125.4178458581929
 20
83.12094025114328
 30
0.0
 10
125.2061638074005
 20
83.08270061537662
 30
0.0
 10
124.8020923182625
 20
83.00494187795728
 30
0.0
 10
124.6095858044416
 20
82.96544091578193
 30
0.0
 10
124.0597508334203
 20
82.84653317341592
 30
0.0
 10
123.7298220551115
 20
82.7667154919913
 30
0.0
 10
123.1453507865428
 20
82.61337233019525
 30
0.0
 10
122.8990736485294
 20
82.54203857692599
 30
0.0
 10
122.5992308558313
 20
82.44809506985138
 30
0.0
 10
122.5107739987591
 20
82.41890127649145
 30
0.0
 10
122.357412645454
 20
82.36543470222804
 30
0.0
 10
122.2923244312278
 20
82.34107536795285
 30
0.0
 10
122.136730415287
 20
82.27748522250812
 30
0.0
 10
122.0843147940108
 20
82.24738228741887
 30
0.0
 10
122.0843147940108
 20
82.23050539442195
 30
0.0
  0
LINE
  5
7E
330
1F
100
AcDbEntity
  8
0
  6
Continuous
 62
     7
370
    15
100
AcDbLine
 10
122.0843147672
 20
82.2305050579
 30
0.0
 11
122.0843147672
 21
82.2146278706
 31
0.0
  0
SPLINE
  5
7F
330
1F
100
AcDbEntity
  8
0
  6
Continuous
 62
     7
370
    15
100
AcDbSpline
210
0.0
220
0.0
230
1.0
 70
     8
 71
     3
 72
    17
 73
    13
 74
     0
 42
0.00000001
 43
0.00000001
 40
0.0
 40
0.0
 40
0.0
 40
0.0
 40
0.1034797280380778
 40
0.2100239090909901
 40
0.3134862262879433
 40
0.4198361712144981
 40
0.5254127947779869
 40
0.6339610881168427
 40
0.7409508662120068
 40
0.8511696072047016
 40
0.9558996557845765
 40
1.0
 40
1.0
 40
1.0
 40
1.0
 10
130.0843151471683
 20
144.1818238136427
 30
0.0
 10
129.6490666554424
 20
144.1872718052804
 30
0.0
 10
128.7656802048654
 20
144.198329125609
 30
0.0
 10
127.4848523426426
 20
144.284687885984
 30
0.0
 10
126.2674361472007
 20
144.4125590291171
 30
0.0
 10
125.1596295308749
 20
144.5715034364355
 30
0.0
 10
124.1713910515461
 20
144.7459980094201
 30
0.0
 10
123.3466679517303
 20
144.915164442607
 30
0.0
 10
122.6977142942316
 20
145.0630452510747
 30
0.0
 10
122.280678990752
 20
145.1648360025973
 30
0.0
 10
122.082082247874
 20
145.2151929022318
 30
0.0
 10
122.1053953648619
 20
145.2092832972562
 30
0.0
 10
122.1123033388623
 20
145.2075322059052
 30
0.0
  0
LINE
  5
80
330
1F
100
AcDbEntity
  8
0
  6
Continuous
 62
     7
370
    15
100
AcDbLine
 10
131.7423822544
 20
144.1818238136
 30
0.0
 11
130.0843151472
 21
144.1818238136
 31
0.0
  0
LINE
  5
81
330
1F
100
AcDbEntity
  8
0
  6
Continuous
 62
     7
370
    15
100
AcDbLine
 10
131.7423822544
 20
138.1733179924
 30
0.0
 11
131.7423822544
 21
144.1818238136
 31
0.0
  0
LINE
  5
82
330
1F
100
AcDbEntity
  8
0
  6
Continuous
 62
     7
370
    15
100
AcDbLine
 10
129.3299354798
 20
138.1733179924
 30
0.0
 11
131.7423822544
 21
138.1733179924
 31
0.0
  0
SPLINE
  5
83
330
1F
100
AcDbEntity
  8
0
  6
Continuous
 62
     7
370
    15
100
AcDbSpline
210
0.0
220
0.0
230
1.0
 70
     8
 71
     3
 72
    20
 73
    16
 74
     0
 42
0.00000001
 43
0.00000001
 40
0.0
 40
0.0
 40
0.0
 40
0.0
 40
0.2499999999999995
 40
0.2499999999999995
 40
0.3749999999999996
 40
0.3749999999999996
 40
0.4999999999999997
 40
0.4999999999999997
 40
0.6249999999999998
 40
0.6249999999999998
 40
0.7499999999999998
 40
0.7499999999999998
 40
0.8749999999999999
 40
0.8749999999999999
 40
1.0
 40
1.0
 40
1.0
 40
1.0
 10
122.0843147940108
 20
133.5646283772843
 30
0.0
 10
122.3326885282989
 20
134.2184908055817
 30
0.0
 10
122.6522586206441
 20
134.8222765875788
 30
0.0
 10
123.2745648538488
 20
135.6491153237474
 30
0.0
 10
123.5059891142796
 20
135.9115439617003
 30
0.0
 10
124.0272034539293
 20
136.4082066158053
 30
0.0
 10
124.3138239365644
 20
136.6387934948268
 30
0.0
 10
124.933308677872
 20
137.0553477194095
 30
0.0
 10
125.2676090573589
 20
137.242845521377
 30
0.0
 10
125.9928695299837
 20
137.5742424990134
 30
0.0
 10
126.3747845873742
 20
137.7137464865087
 30
0.0
 10
127.1695727635459
 20
137.9391999939796
 30
0.0
 10
127.5837309577523
 20
138.0258261055232
 30
0.0
 10
128.4492772983336
 20
138.1438068943774
 30
0.0
 10
128.8871649133455
 20
138.1733180396517
 30
0.0
 10
129.3299351397001
 20
138.1733180396517
 30
0.0
  0
SPLINE
  5
84
330
1F
100
AcDbEntity
  8
0
  6
Continuous
 62
     7
370
    15
100
AcDbSpline
210
0.0
220
0.0
230
1.0
 70
     8
 71
     3
 72
    70
 73
    66
 74
     0
 42
0.00000001
 43
0.00000001
 40
-0.0312500000000001
 40
-0.0312500000000001
 40
0.0
 40
0.0
 40
0.0312499999999999
 40
0.0312499999999999
 40
0.0624999999999998
 40
0.0624999999999998
 40
0.0937499999999997
 40
0.0937499999999997
 40
0.1249999999999996
 40
0.1249999999999996
 40
0.1562499999999994
 40
0.1562499999999994
 40
0.1874999999999993
 40
0.1874999999999993
 40
0.2187499999999992
 40
0.2187499999999992
 40
0.2499999999999991
 40
0.2499999999999991
 40
0.281249999999999
 40
0.281249999999999
 40
0.3124999999999989
 40
0.3124999999999989
 40
0.3437499999999988
 40
0.3437499999999988
 40
0.3749999999999987
 40
0.3749999999999987
 40
0.4062499999999986
 40
0.4062499999999986
 40
0.4374999999999984
 40
0.4374999999999984
 40
0.4687499999999983
 40
0.4687499999999983
 40
0.4999999999999982
 40
0.4999999999999982
 40
0.5312499999999983
 40
0.5312499999999983
 40
0.5624999999999984
 40
0.5624999999999984
 40
0.5937499999999986
 40
0.5937499999999986
 40
0.6249999999999987
 40
0.6249999999999987
 40
0.6562499999999988
 40
0.6562499999999988
 40
0.6874999999999989
 40
0.6874999999999989
 40
0.718749999999999
 40
0.718749999999999
 40
0.7499999999999991
 40
0.7499999999999991
 40
0.7812499999999992
 40
0.7812499999999992
 40
0.8124999999999993
 40
0.8124999999999993
 40
0.8437499999999994
 40
0.8437499999999994
 40
0.8749999999999996
 40
0.8749999999999996
 40
0.9062499999999997
 40
0.9062499999999997
 40
0.9374999999999998
 40
0.9374999999999998
 40
0.9687499999999999
 40
0.9687499999999999
 40
1.0
 40
1.0
 40
1.03125
 40
1.03125
 10
125.398860132671
 20
124.3355352632676
 30
0.0
 10
124.8697694553507
 20
124.3355352632676
 30
0.0
 10
124.6096987879736
 20
124.3602125580528
 30
0.0
 10
124.0981241081381
 20
124.4566842310947
 30
0.0
 10
123.8439488243979
 20
124.5296651470748
 30
0.0
 10
123.3596781943362
 20
124.7194057500134
 30
0.0
 10
123.1300371024551
 20
124.8352664084072
 30
0.0
 10
122.6954327542216
 20
125.1078842543648
 30
0.0
 10
122.489866977575
 20
125.2659233364186
 30
0.0
 10
122.1213098369797
 20
125.6094661873893
 30
0.0
 10
121.9558288542443
 20
125.7962286314909
 30
0.0
 10
121.6634043448092
 20
126.1997718058878
 30
0.0
 10
121.5393033681827
 20
126.4132688023169
 30
0.0
 10
121.3397241714329
 20
126.8526521162394
 30
0.0
 10
121.2627905855747
 20
127.081792103385
 30
0.0
 10
121.1599335270543
 20
127.5477662261451
 30
0.0
 10
121.1344606175952
 20
127.7806486718212
 30
0.0
 10
121.1341702070274
 20
128.246046206901
 30
0.0
 10
121.1601948408031
 20
128.4809219642954
 30
0.0
 10
121.2623431252951
 20
128.9324151115416
 30
0.0
 10
121.3379195728783
 20
129.150461586953
 30
0.0
 10
121.5384171040232
 20
129.5715561119908
 30
0.0
 10
121.6635459455316
 20
129.7734774965091
 30
0.0
 10
121.9529047465532
 20
130.1455069790281
 30
0.0
 10
122.1183157336087
 20
130.3181352826084
 30
0.0
 10
122.4913062917565
 20
130.6354532871544
 30
0.0
 10
122.6930393248456
 20
130.775240220656
 30
0.0
 10
123.1258985756735
 20
131.0194164742078
 30
0.0
 10
123.3598171085628
 20
131.1246459852493
 30
0.0
 10
123.8440008437054
 20
131.2928031316245
 30
0.0
 10
124.093316469661
 20
131.3560540222183
 30
0.0
 10
124.6063489940887
 20
131.4416332313209
 30
0.0
 10
124.8716428169933
 20
131.4635053962433
 30
0.0
 10
125.3939774368631
 20
131.4636690458873
 30
0.0
 10
125.6537310993448
 20
131.4426673537913
 30
0.0
 10
126.17034291499
 20
131.3572649987136
 30
0.0
 10
126.4227089554903
 20
131.2932588154267
 30
0.0
 10
126.9042340770231
 20
131.1264442953855
 30
0.0
 10
127.1370848091367
 20
131.0223111319863
 30
0.0
 10
127.5741746575755
 20
130.7763244794914
 30
0.0
 10
127.7754956462327
 20
130.6365746485425
 30
0.0
 10
128.1445816715326
 20
130.3234365788179
 30
0.0
 10
128.3135664225843
 20
130.1479804195478
 30
0.0
 10
128.6040224792435
 20
129.7751401554476
 30
0.0
 10
128.7270942906056
 20
129.5770183453367
 30
0.0
 10
128.9284305320276
 20
129.156307002603
 30
0.0
 10
129.0056430779699
 20
128.9343169819354
 30
0.0
 10
129.1078466208699
 20
128.4844520422271
 30
0.0
 10
129.1340749723222
 20
128.2541966291103
 30
0.0
 10
129.1345513716393
 20
127.7828806865613
 30
0.0
 10
129.1088089591414
 20
127.5496432708471
 30
0.0
 10
129.0074981827775
 20
127.0879667313491
 30
0.0
 10
128.9306655433866
 20
126.8570693442369
 30
0.0
 10
128.7302617041714
 20
126.4147933304452
 30
0.0
 10
128.6075902058793
 20
126.2037308991593
 30
0.0
 10
128.3176429167151
 20
125.8022323884267
 30
0.0
 10
128.1490719373499
 20
125.6113258663508
 30
0.0
 10
127.7808023432367
 20
125.2676005343537
 30
0.0
 10
127.5797404859664
 20
125.1124633481396
 30
0.0
 10
127.1427095673815
 20
124.8373859880599
 30
0.0
 10
126.9105613542519
 20
124.7202697586379
 30
0.0
 10
126.429551072753
 20
124.5313432735733
 30
0.0
 10
126.1774509899226
 20
124.4582683031791
 30
0.0
 10
125.6603815036636
 20
124.3602162440445
 30
0.0
 10
125.398860132671
 20
124.3355352632676
 30
0.0
 10
124.8697694553507
 20
124.3355352632676
 30
0.0
  0
SPLINE
  5
85
330
1F
100
AcDbEntity
  8
0
  6
Continuous
 62
     7
370
    15
100
AcDbSpline
210
0.0
220
0.0
230
1.0
 70
     8
 71
     3
 72
    70
 73
    66
 74
     0
 42
0.00000001
 43
0.00000001
 40
-0.0312499999999999
 40
-0.0312499999999999
 40
0.0
 40
0.0
 40
0.0312499999999999
 40
0.0312499999999999
 40
0.0624999999999998
 40
0.0624999999999998
 40
0.0937499999999997
 40
0.0937499999999997
 40
0.1249999999999996
 40
0.1249999999999996
 40
0.1562499999999995
 40
0.1562499999999995
 40
0.1874999999999994
 40
0.1874999999999994
 40
0.2187499999999993
 40
0.2187499999999993
 40
0.2499999999999992
 40
0.2499999999999992
 40
0.2812499999999993
 40
0.2812499999999993
 40
0.3124999999999993
 40
0.3124999999999993
 40
0.3437499999999994
 40
0.3437499999999994
 40
0.3749999999999995
 40
0.3749999999999995
 40
0.4062499999999996
 40
0.4062499999999996
 40
0.4374999999999996
 40
0.4374999999999996
 40
0.4687499999999997
 40
0.4687499999999997
 40
0.4999999999999998
 40
0.4999999999999998
 40
0.5312499999999999
 40
0.5312499999999999
 40
0.5625
 40
0.5625
 40
0.5937500000000001
 40
0.5937500000000001
 40
0.6250000000000002
 40
0.6250000000000002
 40
0.6562500000000004
 40
0.6562500000000004
 40
0.6875000000000006
 40
0.6875000000000006
 40
0.7187500000000007
 40
0.7187500000000007
 40
0.7500000000000008
 40
0.7500000000000008
 40
0.7812500000000007
 40
0.7812500000000007
 40
0.8125000000000006
 40
0.8125000000000006
 40
0.8437500000000004
 40
0.8437500000000004
 40
0.8750000000000003
 40
0.8750000000000003
 40
0.9062500000000003
 40
0.9062500000000003
 40
0.9375000000000002
 40
0.9375000000000002
 40
0.9687500000000001
 40
0.9687500000000001
 40
1.0
 40
1.0
 40
1.03125
 40
1.03125
 10
125.398860132671
 20
138.7735917720634
 30
0.0
 10
124.8697694553507
 20
138.7735917720634
 30
0.0
 10
124.6096987879736
 20
138.7894922124782
 30
0.0
 10
124.0981241081381
 20
138.8514365626525
 30
0.0
 10
123.8439488243979
 20
138.8982387967438
 30
0.0
 10
123.3596781943362
 20
139.0192157801989
 30
0.0
 10
123.1300371024551
 20
139.0928181080057
 30
0.0
 10
122.6954327542216
 20
139.2646423789838
 30
0.0
 10
122.489866977575
 20
139.3636458019112
 30
0.0
 10
122.1213098369797
 20
139.5767422158241
 30
0.0
 10
121.9558288542443
 20
139.6916419319538
 30
0.0
 10
121.6634043448092
 20
139.937008830644
 30
0.0
 10
121.5393033681827
 20
140.0654487311143
 30
0.0
 10
121.3397241714329
 20
140.3263408792003
 30
0.0
 10
121.2627905855747
 20
140.4607220505397
 30
0.0
 10
121.1599335270543
 20
140.730042001646
 30
0.0
 10
121.1344606175952
 20
140.8627232658642
 30
0.0
 10
121.1341702070274
 20
141.1239097399952
 30
0.0
 10
121.1601948408031
 20
141.25367477816
 30
0.0
 10
121.2623431252951
 20
141.4992574124326
 30
0.0
 10
121.3379195728783
 20
141.6159189497415
 30
0.0
 10
121.5384171040232
 20
141.837824139896
 30
0.0
 10
121.6635459455316
 20
141.942435393819
 30
0.0
 10
121.9529047465532
 20
142.1324818054271
 30
0.0
 10
122.1183157336087
 20
142.2192414768767
 30
0.0
 10
122.4913062917565
 20
142.3767458526283
 30
0.0
 10
122.6930393248456
 20
142.4450711174156
 30
0.0
 10
123.1258985756735
 20
142.5633008410347
 30
0.0
 10
123.3598171085628
 20
142.6135957571386
 30
0.0
 10
123.8440008437054
 20
142.6934612940282
 30
0.0
 10
124.093316469661
 20
142.7232024218278
 30
0.0
 10
124.6063489940887
 20
142.7633551633361
 30
0.0
 10
124.8716428169933
 20
142.7735534327459
 30
0.0
 10
125.3939774368631
 20
142.7736298911306
 30
0.0
 10
125.6537310993448
 20
142.7638388795215
 30
0.0
 10
126.17034291499
 20
142.7237720407828
 30
0.0
 10
126.4227089554903
 20
142.693674873926
 30
0.0
 10
126.9042340770231
 20
142.6144526640958
 30
0.0
 10
127.1370848091367
 20
142.5646951846324
 30
0.0
 10
127.5741746575755
 20
142.445603242182
 30
0.0
 10
127.7754956462327
 20
142.3772879806347
 30
0.0
 10
128.1445816715326
 20
142.2218870137012
 30
0.0
 10
128.3135664225843
 20
142.1337346716343
 30
0.0
 10
128.6040224792435
 20
141.9432952825179
 30
0.0
 10
128.7270942906056
 20
141.8406707048189
 30
0.0
 10
128.9284305320276
 20
141.6190303582108
 30
0.0
 10
129.0056430779699
 20
141.5002762826633
 30
0.0
 10
129.1078466208699
 20
141.2556103437456
 30
0.0
 10
129.1340749723222
 20
141.128453618297
 30
0.0
 10
129.1345513716393
 20
140.8640054724415
 30
0.0
 10
129.1088089591414
 20
140.7311047921843
 30
0.0
 10
129.0074981827775
 20
140.4643125187023
 30
0.0
 10
128.9306655433866
 20
140.3289486172337
 30
0.0
 10
128.7302617041714
 20
140.0663688219311
 30
0.0
 10
128.6075902058794
 20
139.9393936621774
 30
0.0
 10
128.3176429167151
 20
139.695314276095
 30
0.0
 10
128.1490719373499
 20
139.5778891513411
 30
0.0
 10
127.7808023432367
 20
139.3646926903927
 30
0.0
 10
127.5797404859664
 20
139.2675185719678
 30
0.0
 10
127.1427095673815
 20
139.0941636847536
 30
0.0
 10
126.9105613542519
 20
139.0197641330969
 30
0.0
 10
126.429551072753
 20
138.8993112535923
 30
0.0
 10
126.1774509899226
 20
138.8524528783263
 30
0.0
 10
125.6603815036636
 20
138.7894953813426
 30
0.0
 10
125.398860132671
 20
138.7735917720634
 30
0.0
 10
124.8697694553507
 20
138.7735917720634
 30
0.0
  0
LINE
  5
86
330
1F
100
AcDbEntity
  8
0
  6
Continuous
 62
     7
370
    15
100
AcDbLine
 10
133.2243148423
 20
86.2167910573
 30
0.0
 11
133.2243148423
 21
133.5646291164
 31
0.0
  0
SPLINE
  5
87
330
1F
100
AcDbEntity
  8
0
  6
Continuous
 62
     7
370
    15
100
AcDbSpline
210
0.0
220
0.0
230
1.0
 70
     8
 71
     3
 72
     8
 73
     4
 74
     0
 42
0.00000001
 43
0.00000001
 40
0.0
 40
0.0
 40
0.0
 40
0.0
 40
1.0
 40
1.0
 40
1.0
 40
1.0
 10
133.2243147940108
 20
86.2167912182294
 30
0.0
 10
132.7319756712296
 20
85.3195211840227
 30
0.0
 10
132.2378616231875
 20
84.42323676897045
 30
0.0
 10
131.7423819625218
 20
83.5277106810371
 30
0.0
  0
SPLINE
  5
88
330
1F
100
AcDbEntity
  8
0
  6
Continuous
 62
     7
370
    15
100
AcDbSpline
210
0.0
220
0.0
230
1.0
 70
    24
 71
     3
 72
     8
 73
     4
 74
     0
 42
0.00000001
 43
0.00000001
 40
0.0
 40
0.0
 40
0.0
 40
0.0
 40
1.0
 40
1.0
 40
1.0
 40
1.0
 10
131.7423819625217
 20
133.5646283772843
 30
0.0
 10
132.2490620706723
 20
133.5646283772843
 30
0.0
 10
132.7443627996459
 20
133.5646283772843
 30
0.0
 10
133.2243147940108
 20
133.5646283772843
 30
0.0
  0
SPLINE
  5
89
330
1F
100
AcDbEntity
  8
0
  6
Continuous
 62
     7
370
    15
100
AcDbSpline
210
0.0
220
0.0
230
1.0
 70
     8
 71
     3
 72
     8
 73
     4
 74
     0
 42
0.00000001
 43
0.00000001
 40
0.0
 40
0.0
 40
0.0
 40
0.0
 40
1.0
 40
1.0
 40
1.0
 40
1.0
 10
138.5262476254999
 20
83.5277106810371
 30
0.0
 10
138.0307679648341
 20
84.42323676897047
 30
0.0
 10
137.536653916792
 20
85.31952118402272
 30
0.0
 10
137.0443147940108
 20
86.21679121822942
 30
0.0
  0
LINE
  5
8A
330
1F
100
AcDbEntity
  8
0
  6
Continuous
 62
     7
370
    15
100
AcDbLine
 10
137.0443150587
 20
86.2167910573
 30
0.0
 11
137.0443150587
 21
133.5646291164
 31
0.0
  0
SPLINE
  5
8B
330
1F
100
AcDbEntity
  8
0
  6
Continuous
 62
     7
370
    15
100
AcDbSpline
210
0.0
220
0.0
230
1.0
 70
    24
 71
     3
 72
     8
 73
     4
 74
     0
 42
0.00000001
 43
0.00000001
 40
0.0
 40
0.0
 40
0.0
 40
0.0
 40
1.0
 40
1.0
 40
1.0
 40
1.0
 10
137.0443147940108
 20
133.5646283772843
 30
0.0
 10
137.5242667883757
 20
133.5646283772843
 30
0.0
 10
138.0195675173493
 20
133.5646283772843
 30
0.0
 10
138.5262476254999
 20
133.5646283772843
 30
0.0
  0
LINE
  5
8C
330
1F
100
AcDbEntity
  8
0
  6
Continuous
 62
     7
370
    15
100
AcDbLine
 10
117.134314794
 20
82.5146292237
 30
0.0
 11
117.134314794
 21
144.9146275309
 31
0.0
  0
ARC
  5
8D
330
1F
100
AcDbEntity
  8
0
  6
Continuous
 62
     7
370
    15
100
AcDbCircle
 10
125.1317882923
 20
125.6264227806
 30
0.0
 40
4.110156032299384
100
AcDbArc
 50
19.1742613699
 51
159.6514936674
  0
SPLINE
  5
8E
330
1F
100
AcDbEntity
  8
0
  6
Continuous
 62
     7
370
    15
100
AcDbSpline
210
0.0
220
0.0
230
1.0
 70
     8
 71
     3
 72
    10
 73
     6
 74
     0
 42
0.00000001
 43
0.00000001
 40
0.0
 40
0.0
 40
0.0
 40
0.0
 40
0.5
 40
0.5
 40
1.0
 40
1.0
 40
1.0
 40
1.0
 10
133.6186123257017
 20
140.1146283772843
 30
0.0
 10
133.4970720620332
 20
140.189354544496
 30
0.0
 10
133.3957377016843
 20
140.2982995604128
 30
0.0
 10
133.2600987587959
 20
140.5487300411744
 30
0.0
 10
133.2243147940108
 20
140.6911494032734
 30
0.0
 10
133.2243147940108
 20
140.8342822283201
 30
0.0
  0
SPLINE
  5
8F
330
1F
100
AcDbEntity
  8
0
  6
Continuous
 62
     7
370
    15
100
AcDbSpline
210
0.0
220
0.0
230
1.0
 70
    24
 71
     3
 72
    12
 73
     8
 74
     0
 42
0.00000001
 43
0.00000001
 40
0.0
 40
0.0
 40
0.0
 40
0.0
 40
0.2499999999999992
 40
0.2499999999999992
 40
0.4999999999999983
 40
0.4999999999999983
 40
1.0
 40
1.0
 40
1.0
 40
1.0
 10
134.0243147940108
 20
140.1146283772843
 30
0.0
 10
133.9744381116935
 20
140.1146283772843
 30
0.0
 10
133.9264349182897
 20
140.1146283772843
 30
0.0
 10
133.8433868155778
 20
140.1146283772843
 30
0.0
 10
133.8072572361099
 20
140.1146283772843
 30
0.0
 10
133.7113452051657
 20
140.1146283772843
 30
0.0
 10
133.6615865371969
 20
140.1146283772843
 30
0.0
 10
133.6186123257017
 20
140.1146283772843
 30
0.0
  0
SPLINE
  5
90
330
1F
100
AcDbEntity
  8
0
  6
Continuous
 62
     7
370
    15
100
AcDbSpline
210
0.0
220
0.0
230
1.0
 70
    24
 71
     3
 72
    14
 73
    10
 74
     0
 42
0.00000001
 43
0.00000001
 40
0.0
 40
0.0
 40
0.0
 40
0.0
 40
0.1250000000000012
 40
0.1250000000000012
 40
0.2500000000000024
 40
0.2500000000000024
 40
0.5000000000000013
 40
0.5000000000000013
 40
1.0
 40
1.0
 40
1.0
 40
1.0
 10
134.0243147940108
 20
87.31462837728427
 30
0.0
 10
133.9558769461243
 20
87.31462837728427
 30
0.0
 10
133.8903269073593
 20
87.31462837728427
 30
0.0
 10
133.7859002679513
 20
87.31462837728428
 30
0.0
 10
133.74335565819
 20
87.31462837728427
 30
0.0
 10
133.6307461976497
 20
87.31462837728427
 30
0.0
 10
133.5752071506302
 20
87.31462837728427
 30
0.0
 10
133.4325954551664
 20
87.31462837728427
 30
0.0
 10
133.3691901001706
 20
87.31462837728427
 30
0.0
 10
133.3219895963431
 20
87.31462837728427
 30
0.0
  0
SPLINE
  5
91
330
1F
100
AcDbEntity
  8
0
  6
Continuous
 62
     7
370
    15
100
AcDbSpline
210
0.0
220
0.0
230
1.0
 70
     8
 71
     3
 72
    10
 73
     6
 74
     0
 42
0.00000001
 43
0.00000001
 40
0.0
 40
0.0
 40
0.0
 40
0.0
 40
0.5
 40
0.5
 40
1.0
 40
1.0
 40
1.0
 40
1.0
 10
133.2243147940108
 20
133.8504950087457
 30
0.0
 10
133.2243147940108
 20
133.8027235007523
 30
0.0
 10
133.226476037608
 20
133.7550137786907
 30
0.0
 10
133.2351474114681
 20
133.6597186611424
 30
0.0
 10
133.2416765944241
 20
133.6120260971758
 30
0.0
 10
133.2504624171709
 20
133.5646283772843
 30
0.0
  0
SPLINE
  5
92
330
1F
100
AcDbEntity
  8
0
  6
Continuous
 62
     7
370
    15
100
AcDbSpline
210
0.0
220
0.0
230
1.0
 70
    24
 71
     3
 72
    14
 73
    10
 74
     0
 42
0.00000001
 43
0.00000001
 40
0.0
 40
0.0
 40
0.0
 40
0.0
 40
0.5
 40
0.5
 40
0.75
 40
0.75
 40
0.875
 40
0.875
 40
1.0
 40
1.0
 40
1.0
 40
1.0
 10
136.9466399916785
 20
87.31462837728427
 30
0.0
 10
136.8998552866303
 20
87.31462837728428
 30
0.0
 10
136.8378040898507
 20
87.31462837728428
 30
0.0
 10
136.6944124513001
 20
87.31462837728427
 30
0.0
 10
136.6382687977489
 20
87.31462837728428
 30
0.0
 10
136.5253177756127
 20
87.31462837728427
 30
0.0
 10
136.4823170135746
 20
87.31462837728427
 30
0.0
 10
136.3782543032681
 20
87.31462837728427
 30
0.0
 10
136.3129220649112
 20
87.31462837728427
 30
0.0
 10
136.2443147940108
 20
87.31462837728427
 30
0.0
  0
SPLINE
  5
93
330
1F
100
AcDbEntity
  8
0
  6
Continuous
 62
     7
370
    15
100
AcDbSpline
210
0.0
220
0.0
230
1.0
 70
    24
 71
     3
 72
    12
 73
     8
 74
     0
 42
0.00000001
 43
0.00000001
 40
0.0
 40
0.0
 40
0.0
 40
0.0
 40
0.5000000000000017
 40
0.5000000000000017
 40
0.7500000000000008
 40
0.7500000000000008
 40
1.0
 40
1.0
 40
1.0
 40
1.0
 10
136.6500172623198
 20
140.1146283772843
 30
0.0
 10
136.6069317127089
 20
140.1146283772843
 30
0.0
 10
136.5577795109595
 20
140.1146283772843
 30
0.0
 10
136.4613069166716
 20
140.1146283772843
 30
0.0
 10
136.4252053315371
 20
140.1146283772843
 30
0.0
 10
136.3420995736758
 20
140.1146283772843
 30
0.0
 10
136.2941029767095
 20
140.1146283772843
 30
0.0
 10
136.2443147940108
 20
140.1146283772843
 30
0.0
  0
SPLINE
  5
94
330
1F
100
AcDbEntity
  8
0
  6
Continuous
 62
     7
370
    15
100
AcDbSpline
210
0.0
220
0.0
230
1.0
 70
     8
 71
     3
 72
    10
 73
     6
 74
     0
 42
0.00000001
 43
0.00000001
 40
0.0
 40
0.0
 40
0.0
 40
0.0
 40
0.5
 40
0.5
 40
1.0
 40
1.0
 40
1.0
 40
1.0
 10
137.0443147940108
 20
140.8342822283201
 30
0.0
 10
137.0443147940108
 20
140.690512170502
 30
0.0
 10
137.0082657352919
 20
140.5480928080069
 30
0.0
 10
136.8727568745179
 20
140.2981985146496
 30
0.0
 10
136.7728808814217
 20
140.1901681784014
 30
0.0
 10
136.6500172623198
 20
140.1146283772842
 30
0.0
  0
SPLINE
  5
95
330
1F
100
AcDbEntity
  8
0
  6
Continuous
 62
     7
370
    15
100
AcDbSpline
210
0.0
220
0.0
230
1.0
 70
     8
 71
     3
 72
    10
 73
     6
 74
     0
 42
0.00000001
 43
0.00000001
 40
0.0
 40
0.0
 40
0.0
 40
0.0
 40
0.5
 40
0.5
 40
1.0
 40
1.0
 40
1.0
 40
1.0
 10
137.0181671708507
 20
133.5646283772843
 30
0.0
 10
137.0268568137624
 20
133.6115072266024
 30
0.0
 10
137.0333958785128
 20
133.6589296920037
 30
0.0
 10
137.0421545129059
 20
133.7548664905906
 30
0.0
 10
137.0443147940108
 20
133.8027817786011
 30
0.0
 10
137.0443147940108
 20
133.8504950087457
 30
0.0
  0
LINE
  5
96
330
1F
100
AcDbEntity
  8
0
  6
Continuous
 62
     7
370
    15
100
AcDbLine
 10
136.244314555
 20
140.1146282342
 30
0.0
 11
134.0243153459
 21
140.1146282342
 31
0.0
  0
LINE
  5
97
330
1F
100
AcDbEntity
  8
0
  6
Continuous
 62
     7
370
    15
100
AcDbLine
 10
136.244314555
 20
87.3146285203
 30
0.0
 11
134.0243153459
 21
87.3146285203
 31
0.0
  0
LINE
  5
98
330
1F
100
AcDbEntity
  8
0
  6
Continuous
 62
     7
370
    15
100
AcDbLine
 10
115.134314699
 20
89.4941971538
 30
0.0
 11
115.134314699
 21
137.9350596008
 31
0.0
  0
LINE
  5
99
330
1F
100
AcDbEntity
  8
0
  6
Continuous
 62
     7
370
    15
100
AcDbLine
 10
95.3343145735
 20
90.4861823556
 30
0.0
 11
95.3343145735
 21
91.7508904723
 31
0.0
  0
SPLINE
  5
9A
330
1F
100
AcDbEntity
  8
0
  6
Continuous
 62
     7
370
    15
100
AcDbSpline
210
0.0
220
0.0
230
1.0
 70
     8
 71
     3
 72
    14
 73
    10
 74
     0
 42
0.00000001
 43
0.00000001
 40
0.0
 40
0.0
 40
0.0
 40
0.0
 40
0.25
 40
0.25
 40
0.5
 40
0.5
 40
0.75
 40
0.75
 40
1.0
 40
1.0
 40
1.0
 40
1.0
 10
94.55602767609508
 20
92.88147705372432
 30
0.0
 10
94.61265435129717
 20
92.77377959988746
 30
0.0
 10
94.7071770115869
 20
92.67099001816814
 30
0.0
 10
94.89022198714912
 20
92.47263270594799
 30
0.0
 10
94.98184856410386
 20
92.37657319726975
 30
0.0
 10
95.14070188179704
 20
92.1890441545605
 30
0.0
 10
95.20859248941873
 20
92.09763518177694
 30
0.0
 10
95.30550951512633
 20
91.9192589608668
 30
0.0
 10
95.33431479401139
 20
91.83203705462061
 30
0.0
 10
95.33431479401138
 20
91.75089084608636
 30
0.0
  0
SPLINE
  5
9B
330
1F
100
AcDbEntity
  8
0
  6
Continuous
 62
     7
370
    15
100
AcDbSpline
210
0.0
220
0.0
230
1.0
 70
     8
 71
     3
 72
    14
 73
    10
 74
     0
 42
0.00000001
 43
0.00000001
 40
0.0
 40
0.0
 40
0.0
 40
0.0
 40
0.125
 40
0.125
 40
0.25
 40
0.25
 40
0.5
 40
0.5
 40
1.0
 40
1.0
 40
1.0
 40
1.0
 10
93.9343147940108
 20
93.32815891600364
 30
0.0
 10
93.98285920266797
 20
93.33390722928394
 30
0.0
 10
94.03577455745288
 20
93.33080634062769
 30
0.0
 10
94.13106990243591
 20
93.30861149646537
 30
0.0
 10
94.17132089972087
 20
93.2913792693695
 30
0.0
 10
94.27559091323383
 20
93.23505135291744
 30
0.0
 10
94.32591288838717
 20
93.19086500697165
 30
0.0
 10
94.45359583591254
 20
93.05985710812102
 30
0.0
 10
94.50968128297481
 20
92.96962258789074
 30
0.0
 10
94.55602767609655
 20
92.88147705372485
 30
0.0
  0
SPLINE
  5
9C
330
1F
100
AcDbEntity
  8
0
  6
Continuous
 62
     7
370
    15
100
AcDbSpline
210
0.0
220
0.0
230
1.0
 70
     8
 71
     3
 72
     8
 73
     4
 74
     0
 42
0.00000001
 43
0.00000001
 40
0.0
 40
0.0
 40
0.0
 40
0.0
 40
1.0
 40
1.0
 40
1.0
 40
1.0
 10
91.66578970106454
 20
93.01831362942085
 30
0.0
 10
92.4003667275475
 20
93.1369386404898
 30
0.0
 10
93.16384179694317
 20
93.23692451262609
 30
0.0
 10
93.9343147940108
 20
93.32815891600364
 30
0.0
  0
SPLINE
  5
9D
330
1F
100
AcDbEntity
  8
0
  6
Continuous
 62
     7
370
    15
100
AcDbSpline
210
0.0
220
0.0
230
1.0
 70
     8
 71
     3
 72
    14
 73
    10
 74
     0
 42
0.00000001
 43
0.00000001
 40
0.0
 40
0.0
 40
0.0
 40
0.0
 40
0.5000000000000002
 40
0.5000000000000002
 40
0.7500000000000002
 40
0.7500000000000002
 40
0.8750000000000001
 40
0.8750000000000001
 40
1.0
 40
1.0
 40
1.0
 40
1.0
 10
86.3843147940108
 20
92.8446906118892
 30
0.0
 10
87.27646092456438
 20
92.84396838568856
 30
0.0
 10
88.16643736035795
 20
92.84855459214602
 30
0.0
 10
89.49303252743354
 20
92.87627959653754
 30
0.0
 10
89.93387945593227
 20
92.88888613416171
 30
0.0
 10
90.5903196933547
 20
92.91990228216916
 30
0.0
 10
90.80833334994658
 20
92.93224545479595
 30
0.0
 10
91.24104220362933
 20
92.9652695099592
 30
0.0
 10
91.45631866879414
 20
92.98448667509766
 30
0.0
 10
91.66578970106454
 20
93.01831362942085
 30
0.0
  0
SPLINE
  5
9E
330
1F
100
AcDbEntity
  8
0
  6
Continuous
 62
     7
370
    15
100
AcDbSpline
210
0.0
220
0.0
230
1.0
 70
     8
 71
     3
 72
     8
 73
     4
 74
     0
 42
0.00000001
 43
0.00000001
 40
0.0000005163856711
 40
0.0000005163856711
 40
0.0000005163856711
 40
0.0000005163856711
 40
0.000026289209185
 40
0.000026289209185
 40
0.000026289209185
 40
0.000026289209185
 10
86.3742698635921
 20
92.85467448499709
 30
0.0
 10
86.37759760180359
 20
92.85134023812427
 30
0.0
 10
86.38094605478288
 20
92.84801228084524
 30
0.0
 10
86.38431479401078
 20
92.84469061188919
 30
0.0
  0
SPLINE
  5
9F
330
1F
100
AcDbEntity
  8
0
  6
Continuous
 62
     7
370
    15
100
AcDbSpline
210
0.0
220
0.0
230
1.0
 70
     8
 71
     3
 72
     8
 73
     4
 74
     0
 42
0.00000001
 43
0.00000001
 40
0.0000005099763573
 40
0.0000005099763573
 40
0.0000005099763573
 40
0.0000005099763573
 40
0.0000262827998699
 40
0.0000262827998699
 40
0.0000262827998699
 40
0.0000262827998699
 10
86.38431479401079
 20
134.5845661426794
 30
0.0
 10
86.38094605478305
 20
134.5812444737235
 30
0.0
 10
86.37759760180391
 20
134.5779165164446
 30
0.0
 10
86.37426986359259
 20
134.5745822695719
 30
0.0
  0
SPLINE
  5
A0
330
1F
100
AcDbEntity
  8
0
  6
Continuous
 62
     7
370
    15
100
AcDbSpline
210
0.0
220
0.0
230
1.0
 70
     8
 71
     3
 72
    10
 73
     6
 74
     0
 42
0.00000001
 43
0.00000001
 40
0.0
 40
0.0
 40
0.0
 40
0.0
 40
0.5
 40
0.5
 40
1.0
 40
1.0
 40
1.0
 40
1.0
 10
89.93431479401082
 20
134.537715769112
 30
0.0
 10
89.34672924692022
 20
134.5587812893484
 30
0.0
 10
88.75598285345983
 20
134.5695397752206
 30
0.0
 10
87.57196368816098
 20
134.5829045557563
 30
0.0
 10
86.97854969995551
 20
134.5850471984209
 30
0.0
 10
86.3843147940108
 20
134.5845661426793
 30
0.0
  0
SPLINE
  5
A1
330
1F
100
AcDbEntity
  8
0
  6
Continuous
 62
     7
370
    15
100
AcDbSpline
210
0.0
220
0.0
230
1.0
 70
     8
 71
     3
 72
    18
 73
    14
 74
     0
 42
0.00000001
 43
0.00000001
 40
0.0
 40
0.0
 40
0.0
 40
0.0
 40
0.2500000000000008
 40
0.2500000000000008
 40
0.5000000000000009
 40
0.5000000000000009
 40
0.7500000000000009
 40
0.7500000000000009
 40
0.875000000000001
 40
0.875000000000001
 40
0.9375000000000006
 40
0.9375000000000006
 40
1.0
 40
1.0
 40
1.0
 40
1.0
 10
91.33431479401081
 20
135.5587360496473
 30
0.0
 10
91.33431479401082
 20
135.4755291407901
 30
0.0
 10
91.29846569407256
 20
135.3867924854765
 30
0.0
 10
91.17359395803864
 20
135.2046672949162
 30
0.0
 10
91.08319354039077
 20
135.1095372462896
 30
0.0
 10
90.86095088564858
 20
134.9203557371653
 30
0.0
 10
90.7311860992028
 20
134.8254105690706
 30
0.0
 10
90.49054864189131
 20
134.6871318614907
 30
0.0
 10
90.40278134375387
 20
134.6414214281883
 30
0.0
 10
90.24825725654703
 20
134.5835981229668
 30
0.0
 10
90.1916463704923
 20
134.5658833589289
 30
0.0
 10
90.06760233958569
 20
134.541344055696
 30
0.0
 10
89.9998876645674
 20
134.5353649171578
 30
0.0
 10
89.9343147940108
 20
134.537715769112
 30
0.0
  0
LINE
  5
A2
330
1F
100
AcDbEntity
  8
0
  6
Continuous
 62
     7
370
    15
100
AcDbLine
 10
91.3343139178
 20
135.558736035
 30
0.0
 11
91.3343139178
 21
136.74267427
 31
0.0
  0
SPLINE
  5
A3
330
1F
100
AcDbEntity
  8
0
  6
Continuous
 62
     7
370
    15
100
AcDbSpline
210
0.0
220
0.0
230
1.0
 70
     8
 71
     3
 72
    24
 73
    20
 74
     0
 42
0.00000001
 43
0.00000001
 40
0.0
 40
0.0
 40
0.0
 40
0.0
 40
0.0010489815523775
 40
0.0637843212772741
 40
0.1272220630088516
 40
0.1903789073370505
 40
0.2526748662763491
 40
0.3146354150030102
 40
0.3770891884518245
 40
0.4393540587943444
 40
0.5008133488401828
 40
0.5621845177353679
 40
0.6248438462901906
 40
0.6874304788646655
 40
0.7496743245911356
 40
0.811984857412469
 40
0.8750960476811308
 40
0.9384412548145236
 40
1.0
 40
1.0
 40
1.0
 40
1.0
 10
103.9032207987377
 20
90.0571201828377
 30
0.0
 10
103.902774132987
 20
90.05706153787122
 30
0.0
 10
103.8756141970634
 20
90.05349557489053
 30
0.0
 10
103.9712441201952
 20
90.06636018436575
 30
0.0
 10
104.2047972962157
 20
90.09559466670581
 30
0.0
 10
104.6003532484501
 20
90.14221387744722
 30
0.0
 10
105.1273932488201
 20
90.19239467687238
 30
0.0
 10
105.7709236906564
 20
90.23677335031543
 30
0.0
 10
106.5095975249261
 20
90.26371654682623
 30
0.0
 10
107.307112195045
 20
90.26718829512836
 30
0.0
 10
108.1336912448095
 20
90.23956284883494
 30
0.0
 10
108.9592140662282
 20
90.1810817058563
 30
0.0
 10
109.7513405371438
 20
90.09563864245771
 30
0.0
 10
110.4839129159812
 20
89.9939034739652
 30
0.0
 10
111.1195530978019
 20
89.88605982291728
 30
0.0
 10
111.6414640283482
 20
89.78442842764245
 30
0.0
 10
112.0230928659871
 20
89.70194646334994
 30
0.0
 10
112.2739075419204
 20
89.64579435584304
 30
0.0
 10
112.3030288576277
 20
89.63894550493016
 30
0.0
 10
112.3173812589714
 20
89.63557005795406
 30
0.0
  0
SPLINE
  5
A4
330
1F
100
AcDbEntity
  8
0
  6
Continuous
 62
     7
370
    15
100
AcDbSpline
210
0.0
220
0.0
230
1.0
 70
     8
 71
     3
 72
    24
 73
    20
 74
     0
 42
0.00000001
 43
0.00000001
 40
0.0
 40
0.0
 40
0.0
 40
0.0
 40
0.061438429114026
 40
0.1250736777967296
 40
0.1884253375120635
 40
0.2508623992448768
 40
0.3129665476325514
 40
0.3753451442328022
 40
0.4377328732174486
 40
0.499092717251918
 40
0.560580729454827
 40
0.622946985474185
 40
0.6854686070210457
 40
0.7475477863222202
 40
0.8098225081553685
 40
0.873068419947611
 40
0.936404185690527
 40
0.9991757203144552
 40
1.0
 40
1.0
 40
1.0
 40
1.0
 10
112.3173267766008
 20
137.7936568942921
 30
0.0
 10
112.3027259681486
 20
137.7902887364191
 30
0.0
 10
112.2730022782976
 20
137.7834319873348
 30
0.0
 10
112.0202642783116
 20
137.7270941674387
 30
0.0
 10
111.6372689792905
 20
137.6442363545534
 30
0.0
 10
111.1149130224075
 20
137.5423296063324
 30
0.0
 10
110.4801286777059
 20
137.4344910364433
 30
0.0
 10
109.7499049410917
 20
137.3330247832143
 30
0.0
 10
108.9594368461806
 20
137.2479627046471
 30
0.0
 10
108.1349531187229
 20
137.1897613476905
 30
0.0
 10
107.3079167382428
 20
137.162176900006
 30
0.0
 10
106.5095922792524
 20
137.1656708285401
 30
0.0
 10
105.7697685282528
 20
137.1926244872138
 30
0.0
 10
105.1255136567932
 20
137.2369799878272
 30
0.0
 10
104.5981067996956
 20
137.2871851715499
 30
0.0
 10
104.2034415593825
 20
137.3337926315951
 30
0.0
 10
103.9709128737943
 20
137.3629958084335
 30
0.0
 10
103.8755336451281
 20
137.3757539471507
 30
0.0
 10
103.9024665894549
 20
137.3722141172319
 30
0.0
 10
103.9028156734177
 20
137.3721682366984
 30
0.0
  0
SPLINE
  5
A5
330
1F
100
AcDbEntity
  8
0
  6
Continuous
 62
     7
370
    15
100
AcDbSpline
210
0.0
220
0.0
230
1.0
 70
     8
 71
     3
 72
     9
 73
     5
 74
     0
 42
0.00000001
 43
0.00000001
 40
0.0
 40
0.0
 40
0.0
 40
0.0
 40
0.7009339503679092
 40
0.9999999999999999
 40
0.9999999999999999
 40
0.9999999999999999
 40
0.9999999999999999
 10
85.2550983614394
 20
94.01334867748187
 30
0.0
 10
85.26423903238923
 20
93.99551939372097
 30
0.0
 10
85.27727973464803
 20
93.97008292606019
 30
0.0
 10
85.29244319791631
 20
94.02396228553373
 30
0.0
 10
85.2969780749747
 20
94.04007577272819
 30
0.0
  0
LINE
  5
A6
330
1F
100
AcDbEntity
  8
0
  6
Continuous
 62
     7
370
    15
100
AcDbLine
 10
85.2343149669
 20
94.0239508537
 30
0.0
 11
85.2343149669
 21
133.4053059009
 31
0.0
  0
SPLINE
  5
A7
330
1F
100
AcDbEntity
  8
0
  6
Continuous
 62
     7
370
    15
100
AcDbSpline
210
0.0
220
0.0
230
1.0
 70
     8
 71
     3
 72
    10
 73
     6
 74
     0
 42
0.00000001
 43
0.00000001
 40
0.0
 40
0.0
 40
0.0
 40
0.0
 40
0.5
 40
0.5
 40
1.0
 40
1.0
 40
1.0
 40
1.0
 10
85.29697816873421
 20
133.389180922065
 30
0.0
 10
85.28807387962544
 20
133.4349224412782
 30
0.0
 10
85.27155849943246
 20
133.4521132807472
 30
0.0
 10
85.24445055337085
 20
133.4517900038115
 30
0.0
 10
85.23431479401081
 20
133.433912461515
 30
0.0
 10
85.23431479401081
 20
133.4053061237624
 30
0.0
  0
SPLINE
  5
A8
330
1F
100
AcDbEntity
  8
0
  6
Continuous
 62
     7
370
    15
100
AcDbSpline
210
0.0
220
0.0
230
1.0
 70
     8
 71
     3
 72
    26
 73
    22
 74
     0
 42
0.00000001
 43
0.00000001
 40
0.0
 40
0.0
 40
0.0
 40
0.0
 40
0.2500000000000165
 40
0.2500000000000165
 40
0.3750000000000256
 40
0.3750000000000256
 40
0.4375000000000291
 40
0.4375000000000291
 40
0.4687500000000291
 40
0.4687500000000291
 40
0.5000000000000292
 40
0.5000000000000292
 40
0.5312500000000293
 40
0.5312500000000293
 40
0.5625000000000293
 40
0.5625000000000293
 40
0.625000000000026
 40
0.625000000000026
 40
0.7500000000000173
 40
0.7500000000000173
 40
1.0
 40
1.0
 40
1.0
 40
1.0
 10
86.05846844011532
 20
134.1047477108821
 30
0.0
 10
86.01986791724684
 20
133.9869730145267
 30
0.0
 10
85.97357091469259
 20
133.8625833283647
 30
0.0
 10
85.87963156625867
 20
133.6573639960112
 30
0.0
 10
85.8443200993452
 20
133.5857911295648
 30
0.0
 10
85.77814012359953
 20
133.4698378969644
 30
0.0
 10
85.7536017569313
 20
133.4292533621541
 30
0.0
 10
85.7102290113775
 20
133.3651116802824
 30
0.0
 10
85.69472060995231
 20
133.3432452549973
 30
0.0
 10
85.65967796536528
 20
133.2976509866541
 30
0.0
 10
85.64012767464551
 20
133.2739806956867
 30
0.0
 10
85.5982003942749
 20
133.2293641363468
 30
0.0
 10
85.57554828404326
 20
133.2084841238288
 30
0.0
 10
85.53457456995665
 20
133.177610710078
 30
0.0
 10
85.51697527006122
 20
133.1677718402456
 30
0.0
 10
85.47234828420507
 20
133.1487822245494
 30
0.0
 10
85.45178906155174
 20
133.148457899896
 30
0.0
 10
85.40066362205506
 20
133.1576813407723
 30
0.0
 10
85.37975220906652
 20
133.1789282369892
 30
0.0
 10
85.32830230150559
 20
133.25289711582
 30
0.0
 10
85.31063700220103
 20
133.3190152091347
 30
0.0
 10
85.29697816873421
 20
133.389180922065
 30
0.0
  0
SPLINE
  5
A9
330
1F
100
AcDbEntity
  8
0
  6
Continuous
 62
     7
370
    15
100
AcDbSpline
210
0.0
220
0.0
230
1.0
 70
     8
 71
     3
 72
    10
 73
     6
 74
     0
 42
0.00000001
 43
0.00000001
 40
0.0
 40
0.0
 40
0.0
 40
0.0
 40
0.5
 40
0.5
 40
1.0
 40
1.0
 40
1.0
 40
1.0
 10
86.3742698635926
 20
134.5745822695719
 30
0.0
 10
86.30671060867436
 20
134.5068908767622
 30
0.0
 10
86.24307395333787
 20
134.4321837120085
 30
0.0
 10
86.132853198766
 20
134.2732175795819
 30
0.0
 10
86.08603690554338
 20
134.1888623135739
 30
0.0
 10
86.0584684401153
 20
134.1047477108821
 30
0.0
  0
SPLINE
  5
AA
330
1F
100
AcDbEntity
  8
0
  6
Continuous
 62
     7
370
    15
100
AcDbSpline
210
0.0
220
0.0
230
1.0
 70
     8
 71
     3
 72
    10
 73
     6
 74
     0
 42
0.00000001
 43
0.00000001
 40
0.0
 40
0.0
 40
0.0
 40
0.0
 40
0.5
 40
0.5
 40
1.0
 40
1.0
 40
1.0
 40
1.0
 10
86.05846844011536
 20
93.3245090436863
 30
0.0
 10
86.08594585486856
 20
93.24067224722072
 30
0.0
 10
86.13265448515621
 20
93.15636175963388
 30
0.0
 10
86.24293294789817
 20
92.99724052915104
 30
0.0
 10
86.30682048650979
 20
92.92225578506297
 30
0.0
 10
86.37426986359212
 20
92.85467448499709
 30
0.0
  0
SPLINE
  5
AB
330
1F
100
AcDbEntity
  8
0
  6
Continuous
 62
     7
370
    15
100
AcDbSpline
210
0.0
220
0.0
230
1.0
 70
     8
 71
     3
 72
    24
 73
    20
 74
     0
 42
0.00000001
 43
0.00000001
 40
0.0
 40
0.0
 40
0.0
 40
0.0
 40
0.249999999999999
 40
0.249999999999999
 40
0.3749999999999983
 40
0.3749999999999983
 40
0.4374999999999987
 40
0.4374999999999987
 40
0.4687499999999975
 40
0.4687499999999975
 40
0.4999999999999963
 40
0.4999999999999963
 40
0.5624999999999984
 40
0.5624999999999984
 40
0.6250000000000006
 40
0.6250000000000006
 40
0.7500000000000001
 40
0.7500000000000001
 40
1.0
 40
1.0
 40
1.0
 40
1.0
 10
85.29697816873421
 20
94.04007583250353
 30
0.0
 10
85.31073128740444
 20
94.11072589049382
 30
0.0
 10
85.32850385481031
 20
94.17732400325873
 30
0.0
 10
85.38075494636566
 20
94.25142202349194
 30
0.0
 10
85.40179002194722
 20
94.2726798306535
 30
0.0
 10
85.45469042957565
 20
94.28082575679974
 30
0.0
 10
85.47579610245357
 20
94.27988595340396
 30
0.0
 10
85.52184827113155
 20
94.25886996182662
 30
0.0
 10
85.54021874311493
 20
94.24796115571901
 30
0.0
 10
85.58177037818065
 20
94.21532624477163
 30
0.0
 10
85.60433705093756
 20
94.19383426440025
 30
0.0
 10
85.66711806739758
 20
94.12536832081395
 30
0.0
 10
85.70024782836546
 20
94.07929386260885
 30
0.0
 10
85.7571655148505
 20
93.99428597427419
 30
0.0
 10
85.78135154035424
 20
93.95400567309281
 30
0.0
 10
85.846559490734
 20
93.83906944662687
 30
0.0
 10
85.88127555092525
 20
93.76848646147985
 30
0.0
 10
85.97449082125614
 20
93.56428070240126
 30
0.0
 10
86.02016335661682
 20
93.4413823200739
 30
0.0
 10
86.05846844011535
 20
93.32450904368633
 30
0.0
  0
SPLINE
  5
AC
330
1F
100
AcDbEntity
  8
0
  6
Continuous
 62
     7
370
    15
100
AcDbSpline
210
0.0
220
0.0
230
1.0
 70
     8
 71
     3
 72
     8
 73
     4
 74
     0
 42
0.00000001
 43
0.00000001
 40
0.0
 40
0.0
 40
0.0
 40
0.0
 40
1.0
 40
1.0
 40
1.0
 40
1.0
 10
133.2243147940108
 20
141.5198625684559
 30
0.0
 10
132.731604697165
 20
142.4078815665823
 30
0.0
 10
132.2375219918861
 20
143.2951442022682
 30
0.0
 10
131.7423819625218
 20
144.1818238504485
 30
0.0
  0
SPLINE
  5
AD
330
1F
100
AcDbEntity
  8
0
  6
Continuous
 62
     7
370
    15
100
AcDbSpline
210
0.0
220
0.0
230
1.0
 70
     8
 71
     3
 72
     8
 73
     4
 74
     0
 42
0.00000001
 43
0.00000001
 40
0.0
 40
0.0
 40
0.0
 40
0.0
 40
1.0
 40
1.0
 40
1.0
 40
1.0
 10
131.7423819625218
 20
138.1733180396517
 30
0.0
 10
132.249468804281
 20
137.042167685488
 30
0.0
 10
132.745036643421
 20
135.9057832747202
 30
0.0
 10
133.2243147940108
 20
134.7647720448676
 30
0.0
  0
LINE
  5
AE
330
1F
100
AcDbEntity
  8
0
  6
Continuous
 62
     7
370
    15
100
AcDbLine
 10
133.2243148423
 20
134.7647723642
 30
0.0
 11
133.2243148423
 21
141.5198617515
 31
0.0
  0
SPLINE
  5
AF
330
1F
100
AcDbEntity
  8
0
  6
Continuous
 62
     7
370
    15
100
AcDbSpline
210
0.0
220
0.0
230
1.0
 70
     8
 71
     3
 72
    10
 73
     6
 74
     0
 42
0.00000001
 43
0.00000001
 40
0.0
 40
0.0
 40
0.0
 40
0.0
 40
0.5
 40
0.5
 40
1.0
 40
1.0
 40
1.0
 40
1.0
 10
143.0843147940108
 20
143.5610687010482
 30
0.0
 10
143.0843147940108
 20
143.721473967399
 30
0.0
 10
143.022076962904
 20
143.8805357803876
 30
0.0
 10
142.8029420391614
 20
144.1114482460179
 30
0.0
 10
142.6453533441695
 20
144.1818238504485
 30
0.0
 10
142.4843147940108
 20
144.1818238504485
 30
0.0
  0
SPLINE
  5
B0
330
1F
100
AcDbEntity
  8
0
  6
Continuous
 62
     7
370
    15
100
AcDbSpline
210
0.0
220
0.0
230
1.0
 70
     8
 71
     3
 72
    12
 73
     8
 74
     0
 42
0.00000001
 43
0.00000001
 40
0.0
 40
0.0
 40
0.0
 40
0.0
 40
0.2499999999999987
 40
0.2499999999999987
 40
0.4999999999999973
 40
0.4999999999999973
 40
1.0
 40
1.0
 40
1.0
 40
1.0
 10
142.4843147940108
 20
138.1733180396517
 30
0.0
 10
142.5755145158365
 20
138.1733180396517
 30
0.0
 10
142.6661095249725
 20
138.1450983410638
 30
0.0
 10
142.8195222514191
 20
138.0506553338157
 30
0.0
 10
142.8847311187428
 20
137.9843683571104
 30
0.0
 10
143.0375156480827
 20
137.7587435338221
 30
0.0
 10
143.0843147940108
 20
137.5763172707896
 30
0.0
 10
143.0843147940108
 20
137.3955806385427
 30
0.0
  0
LINE
  5
B1
330
1F
100
AcDbEntity
  8
0
  6
Continuous
 62
     7
370
    15
100
AcDbLine
 10
143.0843144841
 20
137.3955798236
 30
0.0
 11
143.0843144841
 21
143.561069378
 31
0.0
  0
LINE
  5
B2
330
1F
100
AcDbEntity
  8
0
  6
Continuous
 62
     7
370
    15
100
AcDbLine
 10
133.2243148423
 20
134.7647723642
 30
0.0
 11
133.2243148423
 21
133.8504948554
 31
0.0
  0
LINE
  5
B3
330
1F
100
AcDbEntity
  8
0
  6
Continuous
 62
     7
370
    15
100
AcDbLine
 10
142.4843155033
 20
144.1818238136
 30
0.0
 11
138.5262467153
 21
144.1818238136
 31
0.0
  0
LINE
  5
B4
330
1F
100
AcDbEntity
  8
0
  6
Continuous
 62
     7
370
    15
100
AcDbLine
 10
138.5262467153
 20
138.1733179924
 30
0.0
 11
142.4843155033
 21
138.1733179924
 31
0.0
  0
LINE
  5
B5
330
1F
100
AcDbEntity
  8
0
  6
Continuous
 62
     7
370
    15
100
AcDbLine
 10
138.5262467153
 20
138.1733179924
 30
0.0
 11
138.5262467153
 21
144.1818238136
 31
0.0
  0
SPLINE
  5
B6
330
1F
100
AcDbEntity
  8
0
  6
Continuous
 62
     7
370
    15
100
AcDbSpline
210
0.0
220
0.0
230
1.0
 70
     8
 71
     3
 72
     8
 73
     4
 74
     0
 42
0.00000001
 43
0.00000001
 40
0.0
 40
0.0
 40
0.0
 40
0.0
 40
1.0
 40
1.0
 40
1.0
 40
1.0
 10
138.5262476254999
 20
144.1818238504485
 30
0.0
 10
138.0311075961355
 20
143.2951442022682
 30
0.0
 10
137.5370248908566
 20
142.4078815665823
 30
0.0
 10
137.0443147940108
 20
141.5198625684559
 30
0.0
  0
SPLINE
  5
B7
330
1F
100
AcDbEntity
  8
0
  6
Continuous
 62
     7
370
    15
100
AcDbSpline
210
0.0
220
0.0
230
1.0
 70
     8
 71
     3
 72
     8
 73
     4
 74
     0
 42
0.00000001
 43
0.00000001
 40
0.0
 40
0.0
 40
0.0
 40
0.0
 40
1.0
 40
1.0
 40
1.0
 40
1.0
 10
137.0443147940108
 20
134.7647720448676
 30
0.0
 10
137.5235929446006
 20
135.9057832747202
 30
0.0
 10
138.0191607837406
 20
137.042167685488
 30
0.0
 10
138.5262476254999
 20
138.1733180396517
 30
0.0
  0
LINE
  5
B8
330
1F
100
AcDbEntity
  8
0
  6
Continuous
 62
     7
370
    15
100
AcDbLine
 10
137.0443150587
 20
134.7647723642
 30
0.0
 11
137.0443150587
 21
141.5198617515
 31
0.0
  0
LINE
  5
B9
330
1F
100
AcDbEntity
  8
0
  6
Continuous
 62
     7
370
    15
100
AcDbLine
 10
137.0443150587
 20
133.8504948554
 30
0.0
 11
137.0443150587
 21
134.7647723642
 31
0.0
  0
LINE
  5
BA
330
1F
100
AcDbEntity
  8
0
  6
Continuous
 62
     7
370
    15
100
AcDbLine
 10
143.0843144841
 20
137.3955798236
 30
0.0
 11
143.0843144841
 21
133.5646291164
 31
0.0
  0
ARC
  5
BB
330
1F
100
AcDbEntity
  8
0
  6
Continuous
 62
     7
370
    15
100
AcDbCircle
 10
125.1345259489
 20
132.4195869403
 30
0.0
 40
7.250126202801805
100
AcDbArc
 50
70.9628461809
 51
109.0966336114
  0
SPLINE
  5
BC
330
1F
100
AcDbEntity
  8
0
  6
Continuous
 62
     7
370
    15
100
AcDbSpline
210
0.0
220
0.0
230
1.0
 70
     8
 71
     3
 72
    44
 73
    40
 74
     0
 42
0.00000001
 43
0.00000001
 40
-0.0542986170241641
 40
-0.0343720013564285
 40
-0.016277299824175
 40
0.0
 40
0.0197533517037078
 40
0.0421172912128273
 40
0.0671142568507604
 40
0.0947596943534762
 40
0.1250644115378986
 40
0.1550045412096548
 40
0.1824618030911299
 40
0.2074477368075715
 40
0.2299783173718432
 40
0.2500760254514892
 40
0.2849173337321228
 40
0.3265109732478975
 40
0.3749208740782756
 40
0.4004148468404978
 40
0.4240456092325141
 40
0.4458191306697823
 40
0.465743314445526
 40
0.483828756706831
 40
0.5000899210327658
 40
0.5343674268989981
 40
0.5759569854544827
 40
0.6249181002958576
 40
0.6500699256060741
 40
0.6734973768538712
 40
0.6952068738887218
 40
0.7152066970109785
 40
0.7335076558362047
 40
0.7501240871983614
 40
0.7849044257229767
 40
0.8264538241652563
 40
0.8748362900579382
 40
0.9003125129975139
 40
0.9239322054295127
 40
0.945701382975836
 40
0.9656279986435715
 40
0.983722700175825
 40
1.0
 40
1.019753351703708
 40
1.042117291212827
 40
1.06711425685076
 10
199.2724633535178
 20
110.3272441081567
 30
0.0
 10
199.6591304069395
 20
110.3073756183817
 30
0.0
 10
200.0764316592087
 20
110.3334019402898
 30
0.0
 10
200.5473705141029
 20
110.4264367159819
 30
0.0
 10
201.051727494503
 20
110.607103987168
 30
0.0
 10
201.5683052391006
 20
110.8955320125497
 30
0.0
 10
202.0506270215806
 20
111.2941284344176
 30
0.0
 10
202.4489737498535
 20
111.7748133679723
 30
0.0
 10
202.737038804045
 20
112.2870200365994
 30
0.0
 10
202.9195146568596
 20
112.7905291761797
 30
0.0
 10
203.0147523135241
 20
113.2647943815497
 30
0.0
 10
203.0502140592555
 20
113.8181954412289
 30
0.0
 10
202.974253036468
 20
114.5092377015101
 30
0.0
 10
202.6658871233774
 20
115.3526840813575
 30
0.0
 10
202.1731601452684
 20
116.0229407411123
 30
0.0
 10
201.6461233384745
 20
116.4721165145987
 30
0.0
 10
201.2164371154799
 20
116.7371066434737
 30
0.0
 10
200.7893751469588
 20
116.9227603247065
 30
0.0
 10
200.3791212468258
 20
117.0403728692487
 30
0.0
 10
199.9961000627211
 20
117.1020002773074
 30
0.0
 10
199.5059769241641
 20
117.127245617512
 30
0.0
 10
198.8464909581917
 20
117.0556750628724
 30
0.0
 10
198.0023549046162
 20
116.7501316325802
 30
0.0
 10
197.3299184127418
 20
116.2573638123171
 30
0.0
 10
196.880321931494
 20
115.7307156608262
 30
0.0
 10
196.6165162035628
 20
115.3053730121831
 30
0.0
 10
196.429957969358
 20
114.880140682914
 30
0.0
 10
196.3105209759087
 20
114.4686625139502
 30
0.0
 10
196.2472318007354
 20
114.0811765569253
 30
0.0
 10
196.2213028092945
 20
113.5833685903612
 30
0.0
 10
196.2949481534843
 20
112.9179894989874
 30
0.0
 10
196.6033388649417
 20
112.0756357857504
 30
0.0
 10
197.095798033278
 20
111.4060122570166
 30
0.0
 10
197.6225417609848
 20
110.9571342713981
 30
0.0
 10
198.0520126085709
 20
110.6922537332342
 30
0.0
 10
198.4789698264238
 20
110.5065984956958
 30
0.0
 10
198.8892729868287
 20
110.3889351319481
 30
0.0
 10
199.2724633535178
 20
110.3272441081567
 30
0.0
 10
199.6591304069395
 20
110.3073756183817
 30
0.0
 10
200.0764316592087
 20
110.3334019402898
 30
0.0
  0
SPLINE
  5
BD
330
1F
100
AcDbEntity
  8
0
  6
Continuous
 62
     7
370
    15
100
AcDbSpline
210
0.0
220
0.0
230
1.0
 70
     8
 71
     3
 72
    39
 73
    35
 74
     0
 42
0.00000001
 43
0.00000001
 40
-0.0931102473293712
 40
-0.0619213968680532
 40
-0.0306708306485677
 40
0.0
 40
0.0306856150675709
 40
0.061948223649754
 40
0.0931389682125652
 40
0.1242353660049149
 40
0.1553791717802343
 40
0.1869236166023554
 40
0.2186032199238123
 40
0.2499252161707478
 40
0.2812618749399992
 40
0.3130058611570803
 40
0.3446066213885576
 40
0.3758050985221361
 40
0.4068941952430684
 40
0.4380461897407548
 40
0.4692609185493182
 40
0.500012182142932
 40
0.5307427550044623
 40
0.5620031531144711
 40
0.5931559557625761
 40
0.6242689070960684
 40
0.6554398400972814
 40
0.6870342707185784
 40
0.7187291690309954
 40
0.7500762020617074
 40
0.7813835916557894
 40
0.8131037368899899
 40
0.8446515541927975
 40
0.8758210372251216
 40
0.9068897526706288
 40
0.9380786031319468
 40
0.9693291693514323
 40
1.0
 40
1.030685615067571
 40
1.061948223649754
 40
1.093138968212565
 10
200.3820950240309
 20
109.8856590716392
 30
0.0
 10
199.6341908266066
 20
109.8099647024843
 30
0.0
 10
198.8862169621138
 20
109.8858158868322
 30
0.0
 10
198.1677772263787
 20
110.1136933571717
 30
0.0
 10
197.5036589179184
 20
110.4719464612832
 30
0.0
 10
196.9271518338655
 20
110.9552029429737
 30
0.0
 10
196.4536329786965
 20
111.543362941924
 30
0.0
 10
196.1033164708844
 20
112.2191285188247
 30
0.0
 10
195.8808766853687
 20
112.9511266975532
 30
0.0
 10
195.8073082768225
 20
113.7129138204689
 30
0.0
 10
195.8812325822357
 20
114.4751674648172
 30
0.0
 10
196.1037024526246
 20
115.2082704801822
 30
0.0
 10
196.4540352121018
 20
115.8856215784352
 30
0.0
 10
196.9277673901957
 20
116.4746982386549
 30
0.0
 10
197.5040192323522
 20
116.9583232678339
 30
0.0
 10
198.1673089752936
 20
117.3165791764313
 30
0.0
 10
198.8858034403918
 20
117.5438905105757
 30
0.0
 10
199.6344324793096
 20
117.6191807078922
 30
0.0
 10
200.3834165907562
 20
117.5437324674381
 30
0.0
 10
201.1020274893935
 20
117.3160884130176
 30
0.0
 10
201.7657780717041
 20
116.9575146647594
 30
0.0
 10
202.341852163685
 20
116.4736819313426
 30
0.0
 10
202.8153212020988
 20
115.8845206353394
 30
0.0
 10
203.1652740179929
 20
115.2077115456673
 30
0.0
 10
203.3874160651914
 20
114.4749020402665
 30
0.0
 10
203.4613125381479
 20
113.713086543172
 30
0.0
 10
203.3877722630762
 20
112.9509990557396
 30
0.0
 10
203.1651256799376
 20
112.218804870436
 30
0.0
 10
202.8145329563907
 20
111.5425594276202
 30
0.0
 10
202.3408139446917
 20
110.9545241041706
 30
0.0
 10
201.7641828816876
 20
110.4714782894273
 30
0.0
 10
201.1002947278053
 20
110.113520920658
 30
0.0
 10
200.3820950240309
 20
109.8856590716392
 30
0.0
 10
199.6341908266066
 20
109.8099647024843
 30
0.0
 10
198.8862169621138
 20
109.8858158868322
 30
0.0
  0
LINE
  5
BE
330
1F
100
AcDbEntity
  8
0
  6
Continuous
 62
     7
370
    15
100
AcDbLine
 10
204.2672753519
 20
97.7146276173
 30
0.0
 11
204.2672753519
 21
129.7146291372
 31
0.0
  0
LINE
  5
BF
330
1F
100
AcDbEntity
  8
0
  6
Continuous
 62
     7
370
    15
100
AcDbLine
 10
217.1343162841
 20
104.9887691525
 30
0.0
 11
217.1343162841
 21
122.4404876021
 31
0.0
  0
CIRCLE
  5
C0
330
1F
100
AcDbEntity
  8
0
  6
HIDDEN
 62
     7
370
     0
100
AcDbCircle
 10
199.634314794
 20
113.7146283773
 30
0.0
 40
4.000000000000008
  0
CIRCLE
  5
C1
330
1F
100
AcDbEntity
  8
0
  6
HIDDEN
 62
     7
370
     0
100
AcDbCircle
 10
199.634314794
 20
113.7146283773
 30
0.0
 40
1.850000000000021
  0
CIRCLE
  5
C2
330
1F
100
AcDbEntity
  8
0
  6
HIDDEN
 62
     7
370
     0
100
AcDbCircle
 10
199.634314794
 20
113.7146283773
 30
0.0
 40
2.750000000000021
  0
LINE
  5
C3
330
1F
100
AcDbEntity
  8
0
  6
HIDDEN
 62
     7
370
     0
100
AcDbLine
 10
131.7423822544
 20
138.1733179924
 30
0.0
 11
131.7423822544
 21
133.5646291164
 31
0.0
  0
ARC
  5
C4
330
1F
100
AcDbEntity
  8
0
  6
HIDDEN
 62
     7
370
     0
100
AcDbCircle
 10
125.4182836066
 20
126.2099756382
 30
0.0
 40
3.676415644107822
100
AcDbArc
 50
265.5700290317
 51
12.032294133
  0
ARC
  5
C5
330
1F
100
AcDbEntity
  8
0
  6
HIDDEN
 62
     7
370
     0
100
AcDbCircle
 10
124.8332248549
 20
126.190892577
 30
0.0
 40
3.658759096118237
100
AcDbArc
 50
166.3287028976
 51
274.7203805789
  0
LINE
  5
C6
330
1F
100
AcDbEntity
  8
0
  6
HIDDEN
 62
     7
370
     0
100
AcDbLine
 10
105.1294652931
 20
90.1900292275
 30
0.0
 11
104.8778070322
 21
90.1665077445
 31
0.0
  0
LINE
  5
C7
330
1F
100
AcDbEntity
  8
0
  6
HIDDEN
 62
     7
370
     0
100
AcDbLine
 10
104.7551155276
 20
137.2740589914
 30
0.0
 11
105.1293721608
 21
137.2392107633
 31
0.0
  0
SPLINE
  5
C8
330
1F
100
AcDbEntity
  8
0
  6
HIDDEN
 62
     7
370
     0
100
AcDbSpline
210
0.0
220
0.0
230
1.0
 70
     8
 71
     3
 72
    15
 73
    11
 74
     0
 42
0.00000001
 43
0.00000001
 40
0.0
 40
0.0
 40
0.0
 40
0.0
 40
0.1409172263352446
 40
0.281889861653346
 40
0.4212989542022905
 40
0.5593768841673977
 40
0.6988856533029646
 40
0.840367202775075
 40
0.9813164473602943
 40
1.0
 40
1.0
 40
1.0
 40
1.0
 10
110.8893168344268
 20
93.87709991010593
 30
0.0
 10
110.5732751148141
 20
93.91745323188061
 30
0.0
 10
109.9410674072457
 20
93.99817574245044
 30
0.0
 10
108.7069042349315
 20
94.0747336888332
 30
0.0
 10
107.4361821111159
 20
94.07005562081827
 30
0.0
 10
106.2476226445794
 20
93.98925915559502
 30
0.0
 10
105.254499965289
 20
93.86486460874082
 30
0.0
 10
104.6150914339752
 20
93.75845766197959
 30
0.0
 10
104.3340714456218
 20
93.70538060267003
 30
0.0
 10
104.4006320141106
 20
93.71763509463193
 30
0.0
 10
104.4084223172733
 20
93.71906937035487
 30
0.0
  0
SPLINE
  5
C9
330
1F
100
AcDbEntity
  8
0
  6
HIDDEN
 62
     7
370
     0
100
AcDbSpline
210
0.0
220
0.0
230
1.0
 70
     8
 71
     3
 72
    15
 73
    11
 74
     0
 42
0.00000001
 43
0.00000001
 40
0.0
 40
0.0
 40
0.0
 40
0.0
 40
0.1201202497733958
 40
0.2584739452442804
 40
0.3987302041697883
 40
0.5404022600041716
 40
0.680739511736143
 40
0.8190355942651634
 40
0.9577823154231621
 40
1.0
 40
1.0
 40
1.0
 40
1.0
 10
104.4084223172733
 20
133.7101873842137
 30
0.0
 10
104.4291315660768
 20
133.7061628801394
 30
0.0
 10
104.4736935883118
 20
133.6975029793508
 30
0.0
 10
105.0361330580402
 20
133.5982100606396
 30
0.0
 10
105.9295953134875
 20
133.4742940489283
 30
0.0
 10
107.0885741373397
 20
133.3745826733946
 30
0.0
 10
108.3616110061594
 20
133.3474456156966
 30
0.0
 10
109.5958963528865
 20
133.4027829778267
 30
0.0
 10
110.4238594305824
 20
133.489262713618
 30
0.0
 10
110.8012697432287
 20
133.5402596327553
 30
0.0
 10
110.8893168344268
 20
133.5521568444626
 30
0.0
  0
SPLINE
  5
CA
330
1F
100
AcDbEntity
  8
0
  6
HIDDEN
 62
     7
370
     0
100
AcDbSpline
210
0.0
220
0.0
230
1.0
 70
     8
 71
     3
 72
    10
 73
     6
 74
     0
 42
0.00000001
 43
0.00000001
 40
0.0
 40
0.0
 40
0.0
 40
0.0
 40
0.4476904421849672
 40
0.895364222045466
 40
1.0
 40
1.0
 40
1.0
 40
1.0
 10
110.8893168344268
 20
133.5521568444626
 30
0.0
 10
111.1360162142771
 20
133.5816683943796
 30
0.0
 10
111.62940579222
 20
133.6406903958406
 30
0.0
 10
111.9184155518609
 20
133.6546314873809
 30
0.0
 10
111.8581015625192
 20
133.6507437240117
 30
0.0
 10
111.8466749972769
 20
133.6500071820872
 30
0.0
  0
SPLINE
  5
CB
330
1F
100
AcDbEntity
  8
0
  6
HIDDEN
 62
     7
370
     0
100
AcDbSpline
210
0.0
220
0.0
230
1.0
 70
     8
 71
     3
 72
    10
 73
     6
 74
     0
 42
0.00000001
 43
0.00000001
 40
0.0
 40
0.0
 40
0.0
 40
0.0
 40
0.3457481865191991
 40
0.7967819833752234
 40
1.0
 40
1.0
 40
1.0
 40
1.0
 10
111.84669781468
 20
93.77924957248138
 30
0.0
 10
111.8371383196956
 20
93.77980426634933
 30
0.0
 10
111.8151083173101
 20
93.78108256685096
 30
0.0
 10
111.3980497325647
 20
93.8110504435776
 30
0.0
 10
111.0098851470619
 20
93.8614463662543
 30
0.0
 10
110.8893168344268
 20
93.87709991010593
 30
0.0
  0
LINE
  5
CC
330
1F
100
AcDbEntity
  8
0
  6
HIDDEN
 62
     7
370
     0
100
AcDbLine
 10
98.1382902897
 20
96.7146274534
 30
0.0
 11
98.1382902897
 21
130.7146293012
 31
0.0
  0
LWPOLYLINE
  5
CD
330
1F
100
AcDbEntity
  8
0
  6
HIDDEN
 62
     7
370
     0
100
AcDbPolyline
 90
       14
 70
   128
 43
0.0
 10
125.134315174
 20
135.6602315691
 10
125.9395087323
 20
135.7011706469
 10
126.7117381281
 20
135.8223152247
 10
127.419387754
 20
136.018703216
 10
128.0334860272
 20
136.282297307
 10
128.5288918949
 20
136.6023034689
 10
128.885323014
 20
136.9656198558
 10
129.0881883538
 20
137.3573751089
 10
129.129180517
 20
137.7615299908
 10
129.0066231228
 20
138.1615367618
 10
128.7255332059
 20
138.541019046
 10
128.2974181882
 20
138.8844423828
 10
127.7398046292
 20
139.1777475265
 10
127.4993809125
 20
139.273183876
  0
LWPOLYLINE
  5
CE
330
1F
100
AcDbEntity
  8
0
  6
HIDDEN
 62
     7
370
     0
100
AcDbPolyline
 90
       14
 70
   128
 43
0.0
 10
122.7625574171
 20
139.2707251844
 10
122.5288247875
 20
139.1777475265
 10
121.9712116941
 20
138.8844423828
 10
121.5430966764
 20
138.541019046
 10
121.2620062939
 20
138.1615367618
 10
121.1394488997
 20
137.7615299908
 10
121.1804415285
 20
137.3573751089
 10
121.3833064026
 20
136.9656198558
 10
121.7397379874
 20
136.6023034689
 10
122.2351438551
 20
136.282297307
 10
122.8492421283
 20
136.018703216
 10
123.5568912885
 20
135.8223152247
 10
124.3291206843
 20
135.7011706469
 10
125.134315174
 20
135.6602315691
  0
SPLINE
  5
CF
330
1F
100
AcDbEntity
  8
0
  6
HIDDEN
 62
     7
370
     0
100
AcDbSpline
210
0.0
220
0.0
230
1.0
 70
     8
 71
     3
 72
    11
 73
     7
 74
     0
 42
0.00000001
 43
0.00000001
 40
0.0
 40
0.0
 40
0.0
 40
0.0
 40
0.0005779865010846
 40
0.0005779865010846
 40
0.0005779865010846
 40
0.0011559733324422
 40
0.0011559733324422
 40
0.0011559733324422
 40
0.0011559733324422
 10
85.23431479401081
 20
115.7144689854442
 30
0.0
 10
85.40098204881677
 20
115.7124853461035
 30
0.0
 10
85.56764847849443
 20
115.7104477390953
 30
0.0
 10
85.73431481694627
 20
115.7083362756892
 30
0.0
 10
85.90098124577267
 20
115.7062248111381
 30
0.0
 10
86.06764761941035
 20
115.704039247982
 30
0.0
 10
86.2343147940108
 20
115.7017566706507
 30
0.0
  0
SPLINE
  5
D0
330
1F
100
AcDbEntity
  8
0
  6
HIDDEN
 62
     7
370
     0
100
AcDbSpline
210
0.0
220
0.0
230
1.0
 70
     8
 71
     3
 72
    11
 73
     7
 74
     0
 42
0.00000001
 43
0.00000001
 40
0.0
 40
0.0
 40
0.0
 40
0.0
 40
0.0005782382535738
 40
0.0005782382535738
 40
0.0005782382535738
 40
0.0011564766069467
 40
0.0011564766069467
 40
0.0011564766069467
 40
0.0011564766069467
 10
86.23431479401081
 20
111.7179280750661
 30
0.0
 10
86.06766084004218
 20
111.7174904973044
 30
0.0
 10
85.90100016784021
 20
111.717010432632
 30
0.0
 10
85.73433327917479
 20
111.7164908932627
 30
0.0
 10
85.56766636077874
 20
111.7159713538007
 30
0.0
 10
85.4009932309455
 20
111.7154125247787
 30
0.0
 10
85.2343147940108
 20
111.7148269811956
 30
0.0
  0
LINE
  5
D1
330
1F
100
AcDbEntity
  8
0
  6
HIDDEN
 62
     7
370
     0
100
AcDbLine
 10
124.794140756
 20
96.7146274534
 30
0.0
 11
124.794140756
 21
130.7146293012
 31
0.0
  0
LINE
  5
D2
330
1F
100
AcDbEntity
  8
0
  6
HIDDEN
 62
     7
370
     0
100
AcDbLine
 10
127.0843146554
 20
97.9896285472
 30
0.0
 11
127.0843146554
 21
129.4396282074
 31
0.0
  0
SPLINE
  5
D3
330
1F
100
AcDbEntity
  8
0
  6
HIDDEN
 62
     7
370
     0
100
AcDbSpline
210
0.0
220
0.0
230
1.0
 70
     8
 71
     3
 72
    16
 73
    12
 74
     0
 42
0.00000001
 43
0.00000001
 40
0.0
 40
0.0
 40
0.0
 40
0.0
 40
0.124999999999998
 40
0.124999999999998
 40
0.249999999999996
 40
0.249999999999996
 40
0.4999999999999973
 40
0.4999999999999973
 40
0.7499999999999987
 40
0.7499999999999987
 40
1.0
 40
1.0
 40
1.0
 40
1.0
 10
93.9343147940108
 20
97.91313794125261
 30
0.0
 10
94.02943654867663
 20
97.91313794125261
 30
0.0
 10
94.12276661740471
 20
97.90932210785981
 30
0.0
 10
94.30602837814271
 20
97.89455155513
 30
0.0
 10
94.39690609369971
 20
97.88339350715441
 30
0.0
 10
94.65370779121946
 20
97.84092223701269
 30
0.0
 10
94.80877515609146
 20
97.7998760398099
 30
0.0
 10
95.06252161764607
 20
97.70472992322802
 30
0.0
 10
95.16339206931393
 20
97.64996718914642
 30
0.0
 10
95.29863848400876
 20
97.53870606524256
 30
0.0
 10
95.33431479401081
 20
97.48153632791387
 30
0.0
 10
95.33431479401081
 20
97.42711475488014
 30
0.0
  0
SPLINE
  5
D4
330
1F
100
AcDbEntity
  8
0
  6
HIDDEN
 62
     7
370
     0
100
AcDbSpline
210
0.0
220
0.0
230
1.0
 70
     8
 71
     3
 72
     8
 73
     4
 74
     0
 42
0.00000001
 43
0.00000001
 40
0.0
 40
0.0
 40
0.0
 40
0.0
 40
1.0
 40
1.0
 40
1.0
 40
1.0
 10
86.53431479729164
 20
100.0579408873348
 30
0.0
 10
86.53431479729356
 20
99.17404374501791
 30
0.0
 10
86.52083417138415
 20
98.45946049995595
 30
0.0
 10
86.51948280319485
 20
97.9131379412526
 30
0.0
  0
SPLINE
  5
D5
330
1F
100
AcDbEntity
  8
0
  6
HIDDEN
 62
     7
370
     0
100
AcDbSpline
210
0.0
220
0.0
230
1.0
 70
     8
 71
     3
 72
    10
 73
     6
 74
     0
 42
0.00000001
 43
0.00000001
 40
0.0
 40
0.0
 40
0.0
 40
0.0
 40
0.5
 40
0.5
 40
1.0
 40
1.0
 40
1.0
 40
1.0
 10
86.2343147940108
 20
101.0828511529876
 30
0.0
 10
86.32570590969304
 20
100.9082123653783
 30
0.0
 10
86.39835774341854
 20
100.7346105381314
 30
0.0
 10
86.50585663641415
 20
100.3909971191417
 30
0.0
 10
86.53431479728603
 20
100.2226712926187
 30
0.0
 10
86.53431479729166
 20
100.0579408873943
 30
0.0
  0
LINE
  5
D6
330
1F
100
AcDbEntity
  8
0
  6
HIDDEN
 62
     7
370
     0
100
AcDbLine
 10
86.2343151308
 20
104.1138018382
 30
0.0
 11
86.2343151308
 21
101.0828507033
 31
0.0
  0
SPLINE
  5
D7
330
1F
100
AcDbEntity
  8
0
  6
HIDDEN
 62
     7
370
     0
100
AcDbSpline
210
0.0
220
0.0
230
1.0
 70
     8
 71
     3
 72
    10
 73
     6
 74
     0
 42
0.00000001
 43
0.00000001
 40
0.0
 40
0.0
 40
0.0
 40
0.0
 40
0.5
 40
0.5
 40
1.0
 40
1.0
 40
1.0
 40
1.0
 10
86.53431479709602
 20
105.4816420016414
 30
0.0
 10
86.534314797096
 20
105.2396580340701
 30
0.0
 10
86.50616476803569
 20
105.0053156051381
 30
0.0
 10
86.40257485393036
 20
104.549940582922
 30
0.0
 10
86.32594614436533
 20
104.3283360198443
 30
0.0
 10
86.2343147940108
 20
104.1138015850715
 30
0.0
  0
LINE
  5
D8
330
1F
100
AcDbEntity
  8
0
  6
HIDDEN
 62
     7
370
     0
100
AcDbLine
 10
86.5343146212
 20
117.3192621109
 30
0.0
 11
86.5343146212
 21
105.4816418228
 31
0.0
  0
SPLINE
  5
D9
330
1F
100
AcDbEntity
  8
0
  6
HIDDEN
 62
     7
370
     0
100
AcDbSpline
210
0.0
220
0.0
230
1.0
 70
     8
 71
     3
 72
     8
 73
     4
 74
     0
 42
0.00000001
 43
0.00000001
 40
0.0
 40
0.0
 40
0.0
 40
0.0
 40
1.0
 40
1.0
 40
1.0
 40
1.0
 10
86.23431479401081
 20
123.3215676981648
 30
0.0
 10
86.41534626051012
 20
122.8894602125545
 30
0.0
 10
86.53431479710173
 20
122.4353148065149
 30
0.0
 10
86.53431479709603
 20
121.9476147528962
 30
0.0
  0
LINE
  5
DA
330
1F
100
AcDbEntity
  8
0
  6
HIDDEN
 62
     7
370
     0
100
AcDbLine
 10
86.2343151308
 20
126.3547702593
 30
0.0
 11
86.2343151308
 21
123.3215681178
 31
0.0
  0
SPLINE
  5
DB
330
1F
100
AcDbEntity
  8
0
  6
HIDDEN
 62
     7
370
     0
100
AcDbSpline
210
0.0
220
0.0
230
1.0
 70
     8
 71
     3
 72
    10
 73
     6
 74
     0
 42
0.00000001
 43
0.00000001
 40
0.0
 40
0.0
 40
0.0
 40
0.0
 40
0.5
 40
0.5
 40
1.0
 40
1.0
 40
1.0
 40
1.0
 10
86.53431479740318
 20
127.3713158672041
 30
0.0
 10
86.5343147974014
 20
127.2066795205989
 30
0.0
 10
86.5071561266464
 20
127.0395242967693
 30
0.0
 10
86.40139113132905
 20
126.7009012889694
 30
0.0
 10
86.32497634303064
 20
126.5286295116754
 30
0.0
 10
86.23431479401083
 20
126.3547706843323
 30
0.0
  0
SPLINE
  5
DC
330
1F
100
AcDbEntity
  8
0
  6
HIDDEN
 62
     7
370
     0
100
AcDbSpline
210
0.0
220
0.0
230
1.0
 70
     8
 71
     3
 72
    18
 73
    14
 74
     0
 42
0.00000001
 43
0.00000001
 40
0.0
 40
0.0
 40
0.0
 40
0.0
 40
0.2500000000000033
 40
0.2500000000000033
 40
0.3750000000000029
 40
0.3750000000000029
 40
0.5000000000000026
 40
0.5000000000000026
 40
0.6250000000000022
 40
0.6250000000000022
 40
0.7500000000000018
 40
0.7500000000000018
 40
1.0
 40
1.0
 40
1.0
 40
1.0
 10
91.33431479401081
 20
130.0021419996884
 30
0.0
 10
91.33431479401081
 20
129.9476674791362
 30
0.0
 10
91.29940410261864
 20
129.8912864197837
 30
0.0
 10
91.19739480128558
 20
129.8072095789302
 30
0.0
 10
91.15575844660748
 20
129.7798758749393
 30
0.0
 10
91.05735265111872
 20
129.7269219593404
 30
0.0
 10
90.99980943941443
 20
129.7010346056232
 30
0.0
 10
90.8725112658415
 20
129.6532570607899
 30
0.0
 10
90.80292396108402
 20
129.631309142612
 30
0.0
 10
90.65148971592907
 20
129.5918765776993
 30
0.0
 10
90.56880581283512
 20
129.5743203284734
 30
0.0
 10
90.31269435079707
 20
129.5318815630529
 30
0.0
 10
90.1247793469091
 20
129.5161188133159
 30
0.0
 10
89.9343147940108
 20
129.5161188133159
 30
0.0
  0
LINE
  5
DD
330
1F
100
AcDbEntity
  8
0
  6
HIDDEN
 62
     7
370
     0
100
AcDbLine
 10
89.9343144334
 20
129.5161195931
 30
0.0
 11
86.5343146212
 21
129.5161195931
 31
0.0
  0
LINE
  5
DE
330
1F
100
AcDbEntity
  8
0
  6
HIDDEN
 62
     7
370
     0
100
AcDbLine
 10
86.4653464592
 20
97.9131371615
 30
0.0
 11
93.9343150891
 21
97.9131371615
 31
0.0
  0
SPLINE
  5
DF
330
1F
100
AcDbEntity
  8
0
  6
HIDDEN
 62
     7
370
     0
100
AcDbSpline
210
0.0
220
0.0
230
1.0
 70
     8
 71
     3
 72
    22
 73
    18
 74
     0
 42
0.00000001
 43
0.00000001
 40
0.0
 40
0.0
 40
0.0
 40
0.0
 40
0.125
 40
0.125
 40
0.25
 40
0.25
 40
0.5000000000000001
 40
0.5000000000000001
 40
0.5625000000000001
 40
0.5625000000000001
 40
0.6250000000000001
 40
0.6250000000000001
 40
0.75
 40
0.75
 40
0.875
 40
0.875
 40
1.0
 40
1.0
 40
1.0
 40
1.0
 10
86.46534580736869
 20
97.91313794125261
 30
0.0
 10
86.45226341464033
 20
98.16824365140029
 30
0.0
 10
86.4390438512005
 20
98.4614019105042
 30
0.0
 10
86.41659667340639
 20
99.123702376129
 30
0.0
 10
86.40711820638192
 20
99.49397629674039
 30
0.0
 10
86.38792024544541
 20
100.7165330998542
 30
0.0
 10
86.38903401844229
 20
101.653672025986
 30
0.0
 10
86.40794481139535
 20
102.973543255501
 30
0.0
 10
86.41257433925435
 20
103.2450451644773
 30
0.0
 10
86.4230555590003
 20
103.8034299992796
 30
0.0
 10
86.42885082028474
 20
104.0905528552192
 30
0.0
 10
86.44716004118966
 20
104.9631421095909
 30
0.0
 10
86.46119497547004
 20
105.5635977859468
 30
0.0
 10
86.49065214760687
 20
106.8010722784428
 30
0.0
 10
86.50620783858844
 20
107.4380884350863
 30
0.0
 10
86.53000238858533
 20
108.7495770327709
 30
0.0
 10
86.53802144073067
 20
109.4256996444314
 30
0.0
 10
86.5343147940108
 20
110.1099947557162
 30
0.0
  0
LINE
  5
E0
330
1F
100
AcDbEntity
  8
0
  6
HIDDEN
 62
     7
370
     0
100
AcDbLine
 10
86.5343146212
 20
117.3192621109
 30
0.0
 11
86.5343146212
 21
129.5161195931
 31
0.0
  0
SPLINE
  5
E1
330
1F
100
AcDbEntity
  8
0
  6
HIDDEN
 62
     7
370
     0
100
AcDbSpline
210
0.0
220
0.0
230
1.0
 70
     8
 71
     3
 72
    10
 73
     6
 74
     0
 42
0.00000001
 43
0.00000001
 40
0.0
 40
0.0
 40
0.0
 40
0.0
 40
0.5
 40
0.5
 40
1.0
 40
1.0
 40
1.0
 40
1.0
 10
86.53431479401078
 20
110.1099947557011
 30
0.0
 10
86.53431479401063
 20
110.3839099037752
 30
0.0
 10
86.50855556414179
 20
110.6548514825048
 30
0.0
 10
86.40534963140837
 20
111.190542564107
 30
0.0
 10
86.32801146753397
 20
111.4562893676287
 30
0.0
 10
86.2343147940108
 20
111.7179280750661
 30
0.0
  0
SPLINE
  5
E2
330
1F
100
AcDbEntity
  8
0
  6
HIDDEN
 62
     7
370
     0
100
AcDbSpline
210
0.0
220
0.0
230
1.0
 70
     8
 71
     3
 72
    10
 73
     6
 74
     0
 42
0.00000001
 43
0.00000001
 40
0.0
 40
0.0
 40
0.0
 40
0.0
 40
0.5
 40
0.5
 40
1.0
 40
1.0
 40
1.0
 40
1.0
 10
86.23431479401081
 20
115.7017566706507
 30
0.0
 10
86.32754537540156
 20
115.9656504787205
 30
0.0
 10
86.40257498763813
 20
116.2318307893585
 30
0.0
 10
86.50764208681598
 20
116.770153364316
 30
0.0
 10
86.53431479740202
 20
117.0429014805613
 30
0.0
 10
86.53431479740321
 20
117.3192619988514
 30
0.0
  0
LINE
  5
E3
330
1F
100
AcDbEntity
  8
0
  6
HIDDEN
 62
     7
370
     0
100
AcDbLine
 10
86.2343151308
 20
111.717928191
 30
0.0
 11
86.2343151308
 21
115.701756663
 31
0.0
  0
LINE
  5
E4
330
1F
100
AcDbEntity
  8
0
  6
HIDDEN
 62
     7
370
     0
100
AcDbLine
 10
86.3843139446
 20
95.7246278313
 30
0.0
 11
86.3843139446
 21
92.8446897206
 31
0.0
  0
LINE
  5
E5
330
1F
100
AcDbEntity
  8
0
  6
HIDDEN
 62
     7
370
     0
100
AcDbLine
 10
95.3343145735
 20
95.7246278313
 30
0.0
 11
95.3343145735
 21
91.7508904723
 31
0.0
  0
LINE
  5
E6
330
1F
100
AcDbEntity
  8
0
  6
HIDDEN
 62
     7
370
     0
100
AcDbLine
 10
86.3843139446
 20
131.7046289233
 30
0.0
 11
86.3843139446
 21
134.584567034
 31
0.0
  0
LINE
  5
E7
330
1F
100
AcDbEntity
  8
0
  6
HIDDEN
 62
     7
370
     0
100
AcDbLine
 10
91.3343139178
 20
131.7046289233
 30
0.0
 11
91.3343139178
 21
135.558736035
 31
0.0
  0
LINE
  5
E8
330
1F
100
AcDbEntity
  8
0
  6
HIDDEN
 62
     7
370
     0
100
AcDbLine
 10
135.9343145228
 20
104.2146286828
 30
0.0
 11
135.9343145228
 21
123.2146280718
 31
0.0
  0
LINE
  5
E9
330
1F
100
AcDbEntity
  8
0
  6
HIDDEN
 62
     7
370
     0
100
AcDbLine
 10
138.9343150145
 20
104.2146286828
 30
0.0
 11
138.9343150145
 21
123.2146280718
 31
0.0
  0
LINE
  5
EA
330
1F
100
AcDbEntity
  8
0
  6
HIDDEN
 62
     7
370
     0
100
AcDbLine
 10
127.5843147374
 20
105.2146279153
 30
0.0
 11
127.5843147374
 21
122.2146288392
 31
0.0
  0
LINE
  5
EB
330
1F
100
AcDbEntity
  8
0
  6
HIDDEN
 62
     7
370
     0
100
AcDbLine
 10
143.0843144841
 20
87.3146285203
 30
0.0
 11
136.9466398097
 21
87.3146285203
 31
0.0
  0
LINE
  5
EC
330
1F
100
AcDbEntity
  8
0
  6
HIDDEN
 62
     7
370
     0
100
AcDbLine
 10
122.0843147672
 20
82.2305050579
 30
0.0
 11
122.0843147672
 21
87.3146285203
 31
0.0
  0
LINE
  5
ED
330
1F
100
AcDbEntity
  8
0
  6
HIDDEN
 62
     7
370
     0
100
AcDbLine
 10
130.0843151472
 20
87.3146285203
 30
0.0
 11
122.0843147672
 21
87.3146285203
 31
0.0
  0
LINE
  5
EE
330
1F
100
AcDbEntity
  8
0
  6
HIDDEN
 62
     7
370
     0
100
AcDbLine
 10
133.3219900913
 20
87.3146285203
 30
0.0
 11
130.0843151472
 21
87.3146285203
 31
0.0
  0
LINE
  5
EF
330
1F
100
AcDbEntity
  8
0
  6
HIDDEN
 62
     7
370
     0
100
AcDbLine
 10
133.618612606
 20
140.1146282342
 30
0.0
 11
130.0843151472
 21
140.1146282342
 31
0.0
  0
LINE
  5
F0
330
1F
100
AcDbEntity
  8
0
  6
HIDDEN
 62
     7
370
     0
100
AcDbLine
 10
143.0843144841
 20
140.1146282342
 30
0.0
 11
136.650017295
 21
140.1146282342
 31
0.0
  0
LINE
  5
F1
330
1F
100
AcDbEntity
  8
0
  6
HIDDEN
 62
     7
370
     0
100
AcDbLine
 10
130.0843151472
 20
140.1146282342
 30
0.0
 11
122.0843147672
 21
140.1146282342
 31
0.0
  0
SPLINE
  5
F2
330
1F
100
AcDbEntity
  8
0
  6
HIDDEN
 62
     7
370
     0
100
AcDbSpline
210
0.0
220
0.0
230
1.0
 70
     8
 71
     3
 72
    11
 73
     7
 74
     0
 42
0.00000001
 43
0.00000001
 40
0.0
 40
0.0
 40
0.0
 40
0.0
 40
0.0008203708524183
 40
0.0008203708524183
 40
0.0008203708524183
 40
0.0016409967870154
 40
0.0016409967870154
 40
0.0016409967870154
 40
0.0016409967870154
 10
86.3843147940108
 20
97.86259562664154
 30
0.0
 10
86.19315649371215
 20
97.82141659802241
 30
0.0
 10
86.00172942363996
 20
97.78266262579241
 30
0.0
 10
85.81008380011933
 20
97.74629486651388
 30
0.0
 10
85.61837839503886
 20
97.70991576274784
 30
0.0
 10
85.42643944297991
 20
97.67592151198028
 30
0.0
 10
85.2343147959091
 20
97.64427338658906
 30
0.0
  0
ELLIPSE
  5
F3
330
1F
100
AcDbEntity
  8
0
  6
HIDDEN
 62
     7
370
     0
100
AcDbEllipse
 10
80.9918829254
 20
113.7146283773
 30
0.0
 11
20.19992453367506
 21
-1.421085471520200E-14
 31
0.0
210
0.0
220
0.0
230
1.0
 40
0.8164965809
 41
1.300566354717478
 42
1.359198697209065
  0
LINE
  5
F4
330
1F
100
AcDbEntity
  8
0
  6
HIDDEN
 62
     7
370
     0
100
AcDbLine
 10
95.3343145735
 20
95.7246278313
 30
0.0
 11
95.3343145735
 21
97.4271153
 31
0.0
  0
LINE
  5
F5
330
1F
100
AcDbEntity
  8
0
  6
HIDDEN
 62
     7
370
     0
100
AcDbLine
 10
86.3843139446
 20
95.7246278313
 30
0.0
 11
86.3843139446
 21
97.862596148
 31
0.0
  0
LINE
  5
F6
330
1F
100
AcDbEntity
  8
0
  6
HIDDEN
 62
     7
370
     0
100
AcDbLine
 10
86.4653464592
 20
97.9131371615
 30
0.0
 11
86.3843139446
 21
97.862596148
 31
0.0
  0
LINE
  5
F7
330
1F
100
AcDbEntity
  8
0
  6
HIDDEN
 62
     7
370
     0
100
AcDbLine
 10
86.3843139446
 20
131.7046289233
 30
0.0
 11
86.3843139446
 21
129.6092537132
 31
0.0
  0
SPLINE
  5
F8
330
1F
100
AcDbEntity
  8
0
  6
HIDDEN
 62
     7
370
     0
100
AcDbSpline
210
0.0
220
0.0
230
1.0
 70
     8
 71
     3
 72
     8
 73
     4
 74
     0
 42
0.00000001
 43
0.00000001
 40
0.0
 40
0.0
 40
0.0
 40
0.0
 40
1.0
 40
1.0
 40
1.0
 40
1.0
 10
86.3843147940108
 20
129.6092528283424
 30
0.0
 10
86.43432029295425
 20
129.5782170541235
 30
0.0
 10
86.4843203636184
 20
129.5471724090961
 30
0.0
 10
86.53431479740323
 20
129.5161188133159
 30
0.0
  0
LINE
  5
F9
330
1F
100
AcDbEntity
  8
0
  6
HIDDEN
 62
     7
370
     0
100
AcDbLine
 10
91.3343139178
 20
131.7046289233
 30
0.0
 11
91.3343139178
 21
130.0021414545
 31
0.0
  0
SPLINE
  5
FA
330
1F
100
AcDbEntity
  8
0
  6
HIDDEN
 62
     7
370
     0
100
AcDbSpline
210
0.0
220
0.0
230
1.0
 70
     8
 71
     3
 72
    20
 73
    16
 74
     0
 42
0.00000001
 43
0.00000001
 40
0.0
 40
0.0
 40
0.0
 40
0.0
 40
0.1119047131392668
 40
0.177423775918874
 40
0.2490451820006272
 40
0.329793472964303
 40
0.3985657157868402
 40
0.4998452487673717
 40
0.6138101537056571
 40
0.6789759255807832
 40
0.7495022876465063
 40
0.8296480952746766
 40
0.8980916303929427
 40
0.9995018224110955
 40
1.0
 40
1.0
 40
1.0
 40
1.0
 10
111.8830370902189
 20
90.1146666047232
 30
0.0
 10
111.8397297773702
 20
90.12808921456552
 30
0.0
 10
111.7710664766479
 20
90.14937062491997
 30
0.0
 10
111.3259730195392
 20
90.25266541742698
 30
0.0
 10
110.7994188194957
 20
90.36596470755093
 30
0.0
 10
110.1139924816226
 20
90.48889964517966
 30
0.0
 10
109.2206756492984
 20
90.61093425587211
 30
0.0
 10
108.1073158917874
 20
90.7286699349304
 30
0.0
 10
106.9965417080334
 20
90.74064374544805
 30
0.0
 10
106.1117936504236
 20
90.71358833466782
 30
0.0
 10
105.4445965599883
 20
90.6656548083917
 30
0.0
 10
104.9033254361009
 20
90.60935958222852
 30
0.0
 10
104.5157402218699
 20
90.56428073006431
 30
0.0
 10
104.3217863870595
 20
90.52539359951489
 30
0.0
 10
104.3849478357253
 20
90.53611773867912
 30
0.0
 10
104.3852565995523
 20
90.53617016347812
 30
0.0
  0
LINE
  5
FB
330
1F
100
AcDbEntity
  8
0
  6
HIDDEN
 62
     7
370
     0
100
AcDbLine
 10
105.2943270839
 20
90.6469658849
 30
0.0
 11
105.4781720228
 21
90.6651564774
 31
0.0
  0
SPLINE
  5
FC
330
1F
100
AcDbEntity
  8
0
  6
HIDDEN
 62
     7
370
     0
100
AcDbSpline
210
0.0
220
0.0
230
1.0
 70
     8
 71
     3
 72
    27
 73
    23
 74
     0
 42
0.00000001
 43
0.00000001
 40
0.0
 40
0.0
 40
0.0
 40
0.0
 40
0.0007884401771522
 40
0.0456707454626512
 40
0.1022521497375279
 40
0.1705299240224407
 40
0.2091214033205198
 40
0.2506484510921349
 40
0.3210938849227903
 40
0.3861873365265096
 40
0.4266663216859919
 40
0.464797407750197
 40
0.500601506480417
 40
0.5451931308005259
 40
0.6016871218330078
 40
0.6700927411582338
 40
0.7088299303438862
 40
0.75055846062018
 40
0.8222227389568694
 40
0.8877618474456114
 40
0.9472353327639471
 40
1.0
 40
1.0
 40
1.0
 40
1.0
 10
104.3849669582316
 20
136.8930456128971
 30
0.0
 10
104.3847502605817
 20
136.8930923523279
 30
0.0
 10
104.3721979535118
 20
136.8957997544981
 30
0.0
 10
104.4212785700679
 20
136.8839629065954
 30
0.0
 10
104.5663766034642
 20
136.8605257214532
 30
0.0
 10
104.8394306201312
 20
136.8266170144645
 30
0.0
 10
105.1679561818964
 20
136.7930493520424
 30
0.0
 10
105.5606842159889
 20
136.7548663364506
 30
0.0
 10
106.1104120018805
 20
136.7158982444338
 30
0.0
 10
106.7364346365663
 20
136.6964366176873
 30
0.0
 10
107.2796264765188
 20
136.6942514612782
 30
0.0
 10
107.7246952259907
 20
136.7027661826224
 30
0.0
 10
108.1911430802214
 20
136.7225497327335
 30
0.0
 10
108.7283840070675
 20
136.7667096147286
 30
0.0
 10
109.3765969701058
 20
136.8391294485608
 30
0.0
 10
109.9621361410078
 20
136.920027113279
 30
0.0
 10
110.4431051810861
 20
136.9981964522289
 30
0.0
 10
110.8885205451647
 20
137.0829670778821
 30
0.0
 10
111.3270196494374
 20
137.1767516689023
 30
0.0
 10
111.6660471353195
 20
137.2546543899984
 30
0.0
 10
111.8534060993656
 20
137.3048508796329
 30
0.0
 10
111.8738968037455
 20
137.3115175334048
 30
0.0
 10
111.8835297598609
 20
137.3146516171353
 30
0.0
  0
LINE
  5
FD
330
1F
100
AcDbEntity
  8
0
  6
HIDDEN
 62
     7
370
     0
100
AcDbLine
 10
184.0141460485
 20
109.514628527
 30
0.0
 11
184.0141460485
 21
117.9146282275
 31
0.0
  0
LINE
  5
FE
330
1F
100
AcDbEntity
  8
0
  6
HIDDEN
 62
     7
370
     0
100
AcDbLine
 10
184.1343164629
 20
109.7146281873
 30
0.0
 11
184.1343164629
 21
117.7146285673
 31
0.0
  0
SPLINE
  5
FF
330
1F
100
AcDbEntity
  8
0
  6
HIDDEN
 62
     7
370
     0
100
AcDbSpline
210
0.0
220
0.0
230
1.0
 70
     8
 71
     3
 72
     8
 73
     4
 74
     0
 42
0.00000001
 43
0.00000001
 40
0.0
 40
0.0
 40
0.0
 40
0.0
 40
0.0001590976953043
 40
0.0001590976953043
 40
0.0001590976953043
 40
0.0001590976953043
 10
86.51948280319488
 20
97.91313794125261
 30
0.0
 10
86.47443133270185
 20
97.88515905693512
 30
0.0
 10
86.42937529429837
 20
97.85718752656634
 30
0.0
 10
86.38431479401082
 20
97.8292231872201
 30
0.0
  0
SPLINE
  5
100
330
1F
100
AcDbEntity
  8
0
  6
HIDDEN
 62
     7
370
     0
100
AcDbSpline
210
0.0
220
0.0
230
1.0
 70
     8
 71
     3
 72
    11
 73
     7
 74
     0
 42
0.00000001
 43
0.00000001
 40
0.0
 40
0.0
 40
0.0
 40
0.0
 40
0.000821290931147
 40
0.000821290931147
 40
0.000821290931147
 40
0.0016428257243086
 40
0.0016428257243086
 40
0.0016428257243086
 40
0.0016428257243086
 10
86.38431479401079
 20
97.8292231872201
 30
0.0
 10
86.19316977252863
 20
97.78593699836448
 30
0.0
 10
86.00175143685217
 20
97.74500048872412
 30
0.0
 10
85.81010536219105
 20
97.70639871733438
 30
0.0
 10
85.61840228064945
 20
97.66778546349416
 30
0.0
 10
85.4264571573639
 20
97.63150525420494
 30
0.0
 10
85.2343147940107
 20
97.5975383478502
 30
0.0
  0
LINE
  5
101
330
1F
100
AcDbEntity
  8
0
  6
HIDDEN
 62
     7
370
     0
100
AcDbLine
 10
133.2243148423
 20
133.8504948554
 30
0.0
 11
133.2243148423
 21
133.5646291164
 31
0.0
  0
LINE
  5
102
330
1F
100
AcDbEntity
  8
0
  6
HIDDEN
 62
     7
370
     0
100
AcDbLine
 10
137.0443150587
 20
133.8930153188
 30
0.0
 11
137.0443150587
 21
133.5646291164
 31
0.0
  0
LINE
  5
103
330
1F
100
AcDbEntity
  8
0
  6
HIDDEN
 62
     7
370
     0
100
AcDbLine
 10
138.5262467153
 20
138.1733179924
 30
0.0
 11
138.5262467153
 21
133.5646291164
 31
0.0
  0
SPLINE
  5
104
330
1F
100
AcDbEntity
  8
0
  6
HIDDEN
 62
     7
370
     0
100
AcDbSpline
210
0.0
220
0.0
230
1.0
 70
     8
 71
     3
 72
    24
 73
    20
 74
     0
 42
0.00000001
 43
0.00000001
 40
0.0
 40
0.0
 40
0.0
 40
0.0
 40
0.249999999999999
 40
0.249999999999999
 40
0.3749999999999983
 40
0.3749999999999983
 40
0.4374999999999987
 40
0.4374999999999987
 40
0.4687499999999975
 40
0.4687499999999975
 40
0.4999999999999963
 40
0.4999999999999963
 40
0.5624999999999984
 40
0.5624999999999984
 40
0.6250000000000006
 40
0.6250000000000006
 40
0.7500000000000001
 40
0.7500000000000001
 40
1.0
 40
1.0
 40
1.0
 40
1.0
 10
85.29697816873421
 20
94.04007583250353
 30
0.0
 10
85.31073128740444
 20
94.11072589049382
 30
0.0
 10
85.32850385481031
 20
94.17732400325873
 30
0.0
 10
85.38075494636566
 20
94.25142202349194
 30
0.0
 10
85.40179002194722
 20
94.2726798306535
 30
0.0
 10
85.45469042957565
 20
94.28082575679974
 30
0.0
 10
85.47579610245357
 20
94.27988595340396
 30
0.0
 10
85.52184827113155
 20
94.25886996182662
 30
0.0
 10
85.54021874311493
 20
94.24796115571901
 30
0.0
 10
85.58177037818065
 20
94.21532624477163
 30
0.0
 10
85.60433705093756
 20
94.19383426440025
 30
0.0
 10
85.66711806739758
 20
94.12536832081395
 30
0.0
 10
85.70024782836546
 20
94.07929386260885
 30
0.0
 10
85.7571655148505
 20
93.99428597427419
 30
0.0
 10
85.78135154035424
 20
93.95400567309281
 30
0.0
 10
85.846559490734
 20
93.83906944662687
 30
0.0
 10
85.88127555092525
 20
93.76848646147985
 30
0.0
 10
85.97449082125614
 20
93.56428070240126
 30
0.0
 10
86.02016335661682
 20
93.4413823200739
 30
0.0
 10
86.05846844011535
 20
93.32450904368633
 30
0.0
  0
SPLINE
  5
105
330
1F
100
AcDbEntity
  8
0
  6
HIDDEN
 62
     7
370
     0
100
AcDbSpline
210
0.0
220
0.0
230
1.0
 70
     8
 71
     3
 72
    11
 73
     7
 74
     0
 42
0.00000001
 43
0.00000001
 40
0.0
 40
0.0
 40
0.0
 40
0.0
 40
0.0005781862223981
 40
0.0005781862223981
 40
0.0005781862223981
 40
0.0011563724723932
 40
0.0011563724723932
 40
0.0011563724723932
 40
0.0011563724723932
 10
86.23431479401108
 20
126.3547706843371
 30
0.0
 10
86.06765423973542
 20
126.4193001957505
 30
0.0
 10
85.90099094282891
 20
126.4838028995892
 30
0.0
 10
85.7343243589986
 20
126.5482893480226
 30
0.0
 10
85.5676577667395
 20
126.6127757997173
 30
0.0
 10
85.40098790111355
 20
126.6772458084452
 30
0.0
 10
85.23431479401079
 20
126.7417015751776
 30
0.0
  0
SPLINE
  5
106
330
1F
100
AcDbEntity
  8
0
  6
HIDDEN
 62
     7
370
     0
100
AcDbSpline
210
0.0
220
0.0
230
1.0
 70
     8
 71
     3
 72
    11
 73
     7
 74
     0
 42
0.00000001
 43
0.00000001
 40
0.0
 40
0.0
 40
0.0
 40
0.0
 40
0.0005778746105124
 40
0.0005778746105124
 40
0.0005778746105124
 40
0.0011557494857259
 40
0.0011557494857259
 40
0.0011557494857259
 40
0.0011557494857259
 10
85.23431479401077
 20
100.6874065217944
 30
0.0
 10
85.40098167042409
 20
100.7532186484795
 30
0.0
 10
85.56764838998554
 20
100.8190771286085
 30
0.0
 10
85.7343150380342
 20
100.8849847015307
 30
0.0
 10
85.90098176255286
 20
100.9508923046926
 30
0.0
 10
86.06764845697344
 20
101.0168494130729
 30
0.0
 10
86.2343147940108
 20
101.0828511529876
 30
0.0
  0
SPLINE
  5
107
330
1F
100
AcDbEntity
  8
0
  6
HIDDEN
 62
     7
370
     0
100
AcDbSpline
210
0.0
220
0.0
230
1.0
 70
     8
 71
     3
 72
    11
 73
     7
 74
     0
 42
0.00000001
 43
0.00000001
 40
0.0000000000000006
 40
0.0000000000000006
 40
0.0000000000000006
 40
0.0000000000000006
 40
0.0005780486062825
 40
0.0005780486062825
 40
0.0005780486062825
 40
0.0011560973514241
 40
0.0011560973514241
 40
0.0011560973514241
 40
0.0011560973514241
 10
85.23431479401079
 20
123.6954428789761
 30
0.0
 10
85.40098465005566
 20
123.6330710174291
 30
0.0
 10
85.56765235413992
 20
123.5707171570995
 30
0.0
 10
85.73431865859357
 20
123.5083975968822
 30
0.0
 10
85.9009849992873
 20
123.446078023114
 30
0.0
 10
86.06764995591612
 20
123.3837928187637
 30
0.0
 10
86.23431479401081
 20
123.3215676981648
 30
0.0
  0
SPLINE
  5
108
330
1F
100
AcDbEntity
  8
0
  6
HIDDEN
 62
     7
370
     0
100
AcDbSpline
210
0.0
220
0.0
230
1.0
 70
     8
 71
     3
 72
    11
 73
     7
 74
     0
 42
0.00000001
 43
0.00000001
 40
0.0
 40
0.0
 40
0.0
 40
0.0
 40
0.0005782401583596
 40
0.0005782401583596
 40
0.0005782401583596
 40
0.0011564805961118
 40
0.0011564805961118
 40
0.0011564805961118
 40
0.0011564805961118
 10
86.23431479401081
 20
104.1138015850715
 30
0.0
 10
86.06766384366188
 20
104.0503761269816
 30
0.0
 10
85.9010042510792
 20
103.9870206032964
 30
0.0
 10
85.73433719865065
 20
103.9237230189156
 30
0.0
 10
85.56767006208683
 20
103.8604254025816
 30
0.0
 10
85.40099545464078
 20
103.7971856076092
 30
0.0
 10
85.23431479401074
 20
103.7339856009377
 30
0.0
  0
CIRCLE
  5
109
330
1F
100
AcDbEntity
  8
0
  6
HIDDEN
 62
     7
370
     0
100
AcDbCircle
 10
124.134314794
 20
113.7146283773
 30
0.0
 40
5.0
  0
LINE
  5
10A
330
1F
100
AcDbEntity
  8
0
  6
HIDDEN
 62
     7
370
     0
100
AcDbLine
 10
121.134314984
 20
128.0124639061
 30
0.0
 11
121.134314984
 21
126.1085686174
 31
0.0
  0
LINE
  5
10B
330
1F
100
AcDbEntity
  8
0
  6
HIDDEN
 62
     7
370
     0
100
AcDbLine
 10
129.1343148983
 20
126.1085686174
 30
0.0
 11
129.1343148983
 21
128.0152588052
 31
0.0
  0
LINE
  5
10C
330
1F
100
AcDbEntity
  8
0
  6
HIDDEN
 62
     7
370
     0
100
AcDbLine
 10
117.134314794
 20
88.3906972495
 30
0.0
 11
117.2284755663
 21
89.0606851217
 31
0.0
  0
LINE
  5
10D
330
1F
100
AcDbEntity
  8
0
  6
HIDDEN
 62
     7
370
     0
100
AcDbLine
 10
117.2284755663
 20
138.3685716328
 30
0.0
 11
117.134314794
 21
139.0385595051
 31
0.0
  0
ARC
  5
10E
330
1F
100
AcDbEntity
  8
0
  6
HIDDEN
 62
     7
370
     0
100
AcDbCircle
 10
116.6343080413
 20
89.1441907629
 30
0.0
 40
0.6000067526677242
100
AcDbArc
 50
352.0
 51
0.0
  0
ARC
  5
10F
330
1F
100
AcDbEntity
  8
0
  6
HIDDEN
 62
     7
370
     0
100
AcDbCircle
 10
116.6343080413
 20
89.1441907629
 30
0.0
 40
0.6000067526677242
100
AcDbArc
 50
0.0
 51
33.5571153394
  0
ARC
  5
110
330
1F
100
AcDbEntity
  8
0
  6
HIDDEN
 62
     7
370
     0
100
AcDbCircle
 10
116.6343080413
 20
138.2850659917
 30
0.0
 40
0.6000067526677169
100
AcDbArc
 50
348.75
 51
8.0
  0
LWPOLYLINE
  5
111
330
1F
100
AcDbEntity
  8
0
  6
HIDDEN
 62
     7
370
     0
100
AcDbPolyline
 90
        3
 70
   128
 43
0.0
 10
117.2227858329
 20
138.1680113164
 10
117.1886420012
 20
138.0554535327
 10
117.134314794
 20
137.9534010676
  0
LINE
  5
112
330
1F
100
AcDbEntity
  8
0
  6
HIDDEN
 62
     7
370
     0
100
AcDbLine
 10
117.2343147915
 20
89.1441912291
 30
0.0
 11
117.2343147915
 21
138.2850655255
 31
0.0
  0
LINE
  5
113
330
1F
100
AcDbEntity
  8
0
  6
HIDDEN
 62
     7
370
     0
100
AcDbLine
 10
100.2167508192
 20
93.7146288243
 30
0.0
 11
104.4084223173
 21
93.7146288243
 31
0.0
  0
LINE
  5
114
330
1F
100
AcDbEntity
  8
0
  6
HIDDEN
 62
     7
370
     0
100
AcDbLine
 10
104.4084223173
 20
133.7146279302
 30
0.0
 11
100.2167508192
 21
133.7146279302
 31
0.0
  0
ARC
  5
115
330
1F
100
AcDbEntity
  8
0
  6
HIDDEN
 62
     7
370
     0
100
AcDbCircle
 10
110.8893167956
 20
101.7146283773
 30
0.0
 40
7.999999999999996
100
AcDbArc
 50
276.8737647156
 51
321.3178125465
  0
ARC
  5
116
330
1F
100
AcDbEntity
  8
0
  6
HIDDEN
 62
     7
370
     0
100
AcDbCircle
 10
110.8893167956
 20
125.7146283773
 30
0.0
 40
7.999999999999996
100
AcDbArc
 50
38.6821874535
 51
83.1168281217
  0
ARC
  5
117
330
1F
100
AcDbEntity
  8
0
  6
HIDDEN
 62
     7
370
     0
100
AcDbCircle
 10
100.2167503593
 20
94.3146283773
 30
0.0
 40
0.5999999999999943
100
AcDbArc
 50
210.0
 51
270.0
  0
ARC
  5
118
330
1F
100
AcDbEntity
  8
0
  6
HIDDEN
 62
     7
370
     0
100
AcDbCircle
 10
100.2167503593
 20
133.1146283773
 30
0.0
 40
0.5999999999999943
100
AcDbArc
 50
90.0
 51
150.0
  0
LINE
  5
119
330
1F
100
AcDbEntity
  8
0
  6
HIDDEN
 62
     7
370
     0
100
AcDbLine
 10
99.6971342898
 20
133.4146284399
 30
0.0
 11
98.1382902897
 21
130.7146293012
 31
0.0
  0
LINE
  5
11A
330
1F
100
AcDbEntity
  8
0
  6
HIDDEN
 62
     7
370
     0
100
AcDbLine
 10
98.1382902897
 20
96.7146274534
 30
0.0
 11
99.6971342898
 21
94.0146283147
 31
0.0
  0
LINE
  5
11B
330
1F
100
AcDbEntity
  8
0
  6
HIDDEN
 62
     7
370
     0
100
AcDbLine
 10
121.134314984
 20
140.9889613179
 30
0.0
 11
121.134314984
 21
137.6602300343
 31
0.0
  0
LINE
  5
11C
330
1F
100
AcDbEntity
  8
0
  6
HIDDEN
 62
     7
370
     0
100
AcDbLine
 10
129.1343148983
 20
137.6602300343
 30
0.0
 11
129.1343148983
 21
140.9942940709
 31
0.0
  0
ARC
  5
11D
330
1F
100
AcDbEntity
  8
0
  6
HIDDEN
 62
     7
370
     0
100
AcDbCircle
 10
125.584314794
 20
97.9896283773
 30
0.0
 40
1.5
100
AcDbArc
 50
238.2116693829
 51
0.0
  0
ARC
  5
11E
330
1F
100
AcDbEntity
  8
0
  6
HIDDEN
 62
     7
370
     0
100
AcDbCircle
 10
125.584314794
 20
129.4396283773
 30
0.0
 40
1.500000000000001
100
AcDbArc
 50
0.0
 51
121.7883306171
  0
LINE
  5
11F
330
1F
100
AcDbEntity
  8
0
  6
HIDDEN
 62
     7
370
     0
100
AcDbLine
 10
117.134314794
 20
96.7146274534
 30
0.0
 11
124.794140756
 21
96.7146274534
 31
0.0
  0
LINE
  5
120
330
1F
100
AcDbEntity
  8
0
  6
HIDDEN
 62
     7
370
     0
100
AcDbLine
 10
124.794140756
 20
130.7146293012
 30
0.0
 11
117.134314794
 21
130.7146293012
 31
0.0
  0
LINE
  5
121
330
1F
100
AcDbEntity
  8
0
  6
HIDDEN
 62
     7
370
     0
100
AcDbLine
 10
95.3343145735
 20
96.7146274534
 30
0.0
 11
98.1382902897
 21
96.7146274534
 31
0.0
  0
LINE
  5
122
330
1F
100
AcDbEntity
  8
0
  6
HIDDEN
 62
     7
370
     0
100
AcDbLine
 10
98.1382902897
 20
130.7146293012
 30
0.0
 11
91.3343139178
 21
130.7146293012
 31
0.0
  0
LINE
  5
123
330
1F
100
AcDbEntity
  8
0
  6
HIDDEN
 62
     7
370
     0
100
AcDbLine
 10
135.9343145228
 20
104.2146286828
 30
0.0
 11
138.9343150145
 21
104.2146286828
 31
0.0
  0
LINE
  5
124
330
1F
100
AcDbEntity
  8
0
  6
HIDDEN
 62
     7
370
     0
100
AcDbLine
 10
138.9343150145
 20
123.2146280718
 30
0.0
 11
135.9343145228
 21
123.2146280718
 31
0.0
  0
LINE
  5
125
330
1F
100
AcDbEntity
  8
0
  6
HIDDEN
 62
     7
370
     0
100
AcDbLine
 10
127.0843146554
 20
104.7146287647
 30
0.0
 11
127.5843147374
 21
105.2146279153
 31
0.0
  0
LINE
  5
126
330
1F
100
AcDbEntity
  8
0
  6
HIDDEN
 62
     7
370
     0
100
AcDbLine
 10
127.5843147374
 20
122.2146288392
 30
0.0
 11
127.0843146554
 21
122.7146279899
 31
0.0
  0
LINE
  5
127
330
1F
100
AcDbEntity
  8
0
  6
HIDDEN
 62
     7
370
     0
100
AcDbLine
 10
127.5843147374
 20
105.2146279153
 30
0.0
 11
135.9343145228
 21
105.2146279153
 31
0.0
  0
LINE
  5
128
330
1F
100
AcDbEntity
  8
0
  6
HIDDEN
 62
     7
370
     0
100
AcDbLine
 10
135.9343145228
 20
122.2146288392
 30
0.0
 11
127.5843147374
 21
122.2146288392
 31
0.0
  0
LINE
  5
129
330
1F
100
AcDbEntity
  8
0
  6
HIDDEN
 62
     7
370
     0
100
AcDbLine
 10
122.0843147672
 20
145.2146288839
 30
0.0
 11
122.0843147672
 21
140.1146282342
 31
0.0
  0
LINE
  5
12A
330
1F
100
AcDbEntity
  8
0
  6
HIDDEN
 62
     7
370
     0
100
AcDbLine
 10
112.3187526315
 20
89.6352571336
 30
0.0
 11
111.8843204527
 21
90.114323878
 31
0.0
  0
LINE
  5
12B
330
1F
100
AcDbEntity
  8
0
  6
HIDDEN
 62
     7
370
     0
100
AcDbLine
 10
104.3843168951
 20
90.5360118386
 30
0.0
 11
103.9018834195
 21
90.0569450942
 31
0.0
  0
LINE
  5
12C
330
1F
100
AcDbEntity
  8
0
  6
HIDDEN
 62
     7
370
     0
100
AcDbLine
 10
103.9017614163
 20
137.3723060724
 30
0.0
 11
104.3843122385
 21
136.8931853113
 31
0.0
  0
LINE
  5
12D
330
1F
100
AcDbEntity
  8
0
  6
HIDDEN
 62
     7
370
     0
100
AcDbLine
 10
111.8843148648
 20
137.3148844478
 30
0.0
 11
112.3188569396
 21
137.7940033463
 31
0.0
  0
ARC
  5
12E
330
1F
100
AcDbEntity
  8
0
  6
HIDDEN
 62
     7
370
     0
100
AcDbCircle
 10
216.834314794
 20
109.4146283773
 30
0.0
 40
0.2999999999999972
100
AcDbArc
 50
0.0
 51
90.0
  0
ARC
  5
12F
330
1F
100
AcDbEntity
  8
0
  6
HIDDEN
 62
     7
370
     0
100
AcDbCircle
 10
216.834314794
 20
118.0146283773
 30
0.0
 40
0.2999999999999972
100
AcDbArc
 50
270.0
 51
0.0
  0
LINE
  5
130
330
1F
100
AcDbEntity
  8
0
  6
HIDDEN
 62
     7
370
     0
100
AcDbLine
 10
138.9343150145
 20
109.514628527
 30
0.0
 11
184.0141460485
 21
109.514628527
 31
0.0
  0
LINE
  5
131
330
1F
100
AcDbEntity
  8
0
  6
HIDDEN
 62
     7
370
     0
100
AcDbLine
 10
184.0141460485
 20
117.9146282275
 30
0.0
 11
138.9343150145
 21
117.9146282275
 31
0.0
  0
LINE
  5
132
330
1F
100
AcDbEntity
  8
0
  6
HIDDEN
 62
     7
370
     0
100
AcDbLine
 10
184.0141460485
 20
109.514628527
 30
0.0
 11
184.1343164629
 21
109.7146281873
 31
0.0
  0
LINE
  5
133
330
1F
100
AcDbEntity
  8
0
  6
HIDDEN
 62
     7
370
     0
100
AcDbLine
 10
184.1343164629
 20
117.7146285673
 30
0.0
 11
184.0141460485
 21
117.9146282275
 31
0.0
  0
LINE
  5
134
330
1F
100
AcDbEntity
  8
0
  6
HIDDEN
 62
     7
370
     0
100
AcDbLine
 10
184.1343164629
 20
109.7146281873
 30
0.0
 11
216.8343112058
 21
109.7146281873
 31
0.0
  0
LINE
  5
135
330
1F
100
AcDbEntity
  8
0
  6
HIDDEN
 62
     7
370
     0
100
AcDbLine
 10
216.8343112058
 20
117.7146285673
 30
0.0
 11
184.1343164629
 21
117.7146285673
 31
0.0
  0
LINE
  5
136
330
1F
100
AcDbEntity
  8
0
  6
HIDDEN
 62
     7
370
     0
100
AcDbLine
 10
111.8843148648
 20
90.1148063031
 30
0.0
 11
111.8843148648
 21
93.7792272207
 31
0.0
  0
LINE
  5
137
330
1F
100
AcDbEntity
  8
0
  6
HIDDEN
 62
     7
370
     0
100
AcDbLine
 10
104.3843150324
 20
93.7190060404
 30
0.0
 11
104.3843150324
 21
90.5363340763
 31
0.0
  0
LINE
  5
138
330
1F
100
AcDbEntity
  8
0
  6
HIDDEN
 62
     7
370
     0
100
AcDbLine
 10
111.8843148648
 20
133.6500295338
 30
0.0
 11
111.8843148648
 21
137.3145920125
 31
0.0
  0
LINE
  5
139
330
1F
100
AcDbEntity
  8
0
  6
HIDDEN
 62
     7
370
     0
100
AcDbLine
 10
104.3843150324
 20
136.8930418876
 30
0.0
 11
104.3843150324
 21
133.7102507141
 31
0.0
  0
DIMENSION
  5
13A
330
1F
100
AcDbEntity
  8
VERMASSUNG
100
AcDbDimension
  2
*D1
 10
78.9116972655
 20
82.2146283773
 30
0.0
 11
78.9116972655
 21
113.2705049042
 31
0.0
 70
   160
  1
HSK A%%c<>
 71
     2
 42
-1.0
  3
SLDDIMSTYLE0
100
AcDbAlignedDimension
 13
117.434314794
 23
145.2146283773
 33
0.0
 14
117.434314794
 24
82.2146283773
 34
0.0
 50
90.0
100
AcDbRotatedDimension
  0
DIMENSION
  5
147
330
1F
100
AcDbEntity
  8
VERMASSUNG
100
AcDbDimension
  2
*D2
 10
143.084314794
 20
150.3940887149
 30
0.0
 11
176.3321247395
 21
150.3940887149
 31
0.0
 70
   160
 71
     2
 42
-1.0
  3
SLDDIMSTYLE0
100
AcDbAlignedDimension
 13
217.134314794
 23
122.4404878557
 33
0.0
 14
143.084314794
 24
143.561068701
 34
0.0
100
AcDbRotatedDimension
  0
DIMENSION
  5
151
330
1F
100
AcDbEntity
  8
VERMASSUNG
100
AcDbDimension
  2
*D3
 10
117.134314794
 20
156.3940887149
 30
0.0
 11
165.8271425456
 21
156.3940887149
 31
0.0
 70
   160
 71
     2
 42
-1.0
  3
SLDDIMSTYLE0
100
AcDbAlignedDimension
 13
217.134314794
 23
122.4404878557
 33
0.0
 14
117.134314794
 24
144.9146283773
 34
0.0
100
AcDbRotatedDimension
  0
DIMENSION
  5
15B
330
1F
100
AcDbEntity
  8
VERMASSUNG
100
AcDbDimension
  2
*D4
 10
85.234314794
 20
162.3940887149
 30
0.0
 11
148.3254145948
 21
162.3940887149
 31
0.0
 70
   160
 71
     2
 42
-1.0
  3
SLDDIMSTYLE0
100
AcDbAlignedDimension
 13
217.134314794
 23
122.4404878557
 33
0.0
 14
85.234314794
 24
133.4053061238
 34
0.0
100
AcDbRotatedDimension
  0
DIMENSION
  5
165
330
1F
100
AcDbEntity
  8
VERMASSUNG
100
AcDbDimension
  2
*D5
 10
223.8733189143
 20
109.7146283773
 30
0.0
 11
223.8733189143
 21
113.51810927
 31
0.0
 70
   160
  1
%%c<>
 71
     2
 42
-1.0
  3
SLDDIMSTYLE1
100
AcDbAlignedDimension
 13
216.834314794
 23
117.7146283773
 33
0.0
 14
216.834314794
 24
109.7146283773
 34
0.0
 50
90.0
100
AcDbRotatedDimension
  0
DIMENSION
  5
173
330
1F
100
AcDbEntity
  8
VERMASSUNG
100
AcDbDimension
  2
*D6
 10
229.8733189143
 20
129.7146283773
 30
0.0
 11
229.8733189143
 21
113.51810927
 31
0.0
 70
   160
  1
%%c<>
 71
     2
 42
-1.0
  3
SLDDIMSTYLE0
100
AcDbAlignedDimension
 13
204.267273271
 23
97.7146283773
 33
0.0
 14
204.267273271
 24
129.7146283773
 34
0.0
 50
90.0
100
AcDbRotatedDimension
  0
LINE
  5
17E
330
1F
100
AcDbEntity
  8
VERMASSUNG
  6
CENTERX2
 62
     7
370
     0
100
AcDbLine
 10
129.3299351397
 20
140.0709436634
 30
0.0
 11
129.3299351397
 21
129.4650322986
 31
0.0
  0
LINE
  5
17F
330
1F
100
AcDbEntity
  8
VERMASSUNG
  6
CENTERX2
 62
     7
370
     0
100
AcDbLine
 10
83.0890109517
 20
113.7146283773
 30
0.0
 11
217.8901098871
 21
113.7146283773
 31
0.0
  0
OLE2FRAME
  5
180
330
1F
100
AcDbEntity
  8
0
100
AcDbOle2Frame
 70
     2
  3
Bitmap Image
 10
13.8511154363
 20
38.264191557
 30
0.0
 11
51.6290888628
 21
31.9806341108
 31
0.0
 71
     2
 72
     0
 73
     1
 90
    12928
310
80552BED0767C5B32B40DDAF6807D121434000000000000000006FFBDDFB85D0
310
4940DDAF6807D121434000000000000000006FFBDDFB85D04940416F4BD60AFB
310
3F4000000000000000002BED0767C5B32B40416F4BD60AFB3F40000000000000
310
0000000000000100000000010000010000000100000000000100000000320000
310
D0CF11E0A1B11AE1000000000000000000000000000000003E000300FEFF0900
310
0600000000000000000000000100000001000000000000000010000002000000
310
01000000FEFFFFFF0000000000000000FFFFFFFFFFFFFFFFFFFFFFFFFFFFFFFF
310
FFFFFFFFFFFFFFFFFFFFFFFFFFFFFFFFFFFFFFFFFFFFFFFFFFFFFFFFFFFFFFFF
310
FFFFFFFFFFFFFFFFFFFFFFFFFFFFFFFFFFFFFFFFFFFFFFFFFFFFFFFFFFFFFFFF
310
FFFFFFFFFFFFFFFFFFFFFFFFFFFFFFFFFFFFFFFFFFFFFFFFFFFFFFFFFFFFFFFF
310
FFFFFFFFFFFFFFFFFFFFFFFFFFFFFFFFFFFFFFFFFFFFFFFFFFFFFFFFFFFFFFFF
310
FFFFFFFFFFFFFFFFFFFFFFFFFFFFFFFFFFFFFFFFFFFFFFFFFFFFFFFFFFFFFFFF
310
FFFFFFFFFFFFFFFFFFFFFFFFFFFFFFFFFFFFFFFFFFFFFFFFFFFFFFFFFFFFFFFF
310
FFFFFFFFFFFFFFFFFFFFFFFFFFFFFFFFFFFFFFFFFFFFFFFFFFFFFFFFFFFFFFFF
310
FFFFFFFFFFFFFFFFFFFFFFFFFFFFFFFFFFFFFFFFFFFFFFFFFFFFFFFFFFFFFFFF
310
FFFFFFFFFFFFFFFFFFFFFFFFFFFFFFFFFFFFFFFFFFFFFFFFFFFFFFFFFFFFFFFF
310
FFFFFFFFFFFFFFFFFFFFFFFFFFFFFFFFFFFFFFFFFFFFFFFFFFFFFFFFFFFFFFFF
310
FFFFFFFFFFFFFFFFFFFFFFFFFFFFFFFFFFFFFFFFFFFFFFFFFFFFFFFFFFFFFFFF
310
FFFFFFFFFFFFFFFFFFFFFFFFFFFFFFFFFFFFFFFFFFFFFFFFFFFFFFFFFFFFFFFF
310
FFFFFFFFFFFFFFFFFFFFFFFFFFFFFFFFFFFFFFFFFFFFFFFFFFFFFFFFFFFFFFFF
310
FDFFFFFFFEFFFFFFFEFFFFFFFEFFFFFF05000000060000000700000008000000
310
090000000A0000000B0000000C0000000D0000000E0000000F00000010000000
310
11000000120000001300000014000000150000001600000017000000FEFFFFFF
310
FFFFFFFFFFFFFFFFFFFFFFFFFFFFFFFFFFFFFFFFFFFFFFFFFFFFFFFFFFFFFFFF
310
FFFFFFFFFFFFFFFFFFFFFFFFFFFFFFFFFFFFFFFFFFFFFFFFFFFFFFFFFFFFFFFF
310
FFFFFFFFFFFFFFFFFFFFFFFFFFFFFFFFFFFFFFFFFFFFFFFFFFFFFFFFFFFFFFFF
310
FFFFFFFFFFFFFFFFFFFFFFFFFFFFFFFFFFFFFFFFFFFFFFFFFFFFFFFFFFFFFFFF
310
FFFFFFFFFFFFFFFFFFFFFFFFFFFFFFFFFFFFFFFFFFFFFFFFFFFFFFFFFFFFFFFF
310
FFFFFFFFFFFFFFFFFFFFFFFFFFFFFFFFFFFFFFFFFFFFFFFFFFFFFFFFFFFFFFFF
310
FFFFFFFFFFFFFFFFFFFFFFFFFFFFFFFFFFFFFFFFFFFFFFFFFFFFFFFFFFFFFFFF
310
FFFFFFFFFFFFFFFFFFFFFFFFFFFFFFFFFFFFFFFFFFFFFFFFFFFFFFFFFFFFFFFF
310
FFFFFFFFFFFFFFFFFFFFFFFFFFFFFFFFFFFFFFFFFFFFFFFFFFFFFFFFFFFFFFFF
310
FFFFFFFFFFFFFFFFFFFFFFFFFFFFFFFFFFFFFFFFFFFFFFFFFFFFFFFFFFFFFFFF
310
FFFFFFFFFFFFFFFFFFFFFFFFFFFFFFFFFFFFFFFFFFFFFFFFFFFFFFFFFFFFFFFF
310
FFFFFFFFFFFFFFFFFFFFFFFFFFFFFFFFFFFFFFFFFFFFFFFFFFFFFFFFFFFFFFFF
310
FFFFFFFFFFFFFFFFFFFFFFFFFFFFFFFFFFFFFFFFFFFFFFFFFFFFFFFFFFFFFFFF
310
52006F006F007400200045006E00740072007900000000000000000000000000
310
0000000000000000000000000000000000000000000000000000000000000000
310
16000500FFFFFFFFFFFFFFFF020000000A00030000000000C000000000000046
310
0000000000000000000000000010B81627FFCB0103000000C000000000000000
310
01004F006C006500000000000000000000000000000000000000000000000000
310
0000000000000000000000000000000000000000000000000000000000000000
310
0A000200FFFFFFFFFFFFFFFFFFFFFFFF00000000000000000000000000000000
310
0000000000000000000000000000000000000000000000001400000000000000
310
010043006F006D0070004F0062006A0000000000000000000000000000000000
310
0000000000000000000000000000000000000000000000000000000000000000
310
120002010100000003000000FFFFFFFF00000000000000000000000000000000
310
0000000000000000000000000000000000000000010000004D00000000000000
310
01004F006C006500310030004E00610074006900760065000000000000000000
310
0000000000000000000000000000000000000000000000000000000000000000
310
1A000200FFFFFFFFFFFFFFFFFFFFFFFF00000000000000000000000000000000
310
0000000000000000000000000000000000000000040000002426000000000000
310
FEFFFFFF02000000FEFFFFFFFFFFFFFFFFFFFFFFFFFFFFFFFFFFFFFFFFFFFFFF
310
FFFFFFFFFFFFFFFFFFFFFFFFFFFFFFFFFFFFFFFFFFFFFFFFFFFFFFFFFFFFFFFF
310
FFFFFFFFFFFFFFFFFFFFFFFFFFFFFFFFFFFFFFFFFFFFFFFFFFFFFFFFFFFFFFFF
310
FFFFFFFFFFFFFFFFFFFFFFFFFFFFFFFFFFFFFFFFFFFFFFFFFFFFFFFFFFFFFFFF
310
FFFFFFFFFFFFFFFFFFFFFFFFFFFFFFFFFFFFFFFFFFFFFFFFFFFFFFFFFFFFFFFF
310
FFFFFFFFFFFFFFFFFFFFFFFFFFFFFFFFFFFFFFFFFFFFFFFFFFFFFFFFFFFFFFFF
310
FFFFFFFFFFFFFFFFFFFFFFFFFFFFFFFFFFFFFFFFFFFFFFFFFFFFFFFFFFFFFFFF
310
FFFFFFFFFFFFFFFFFFFFFFFFFFFFFFFFFFFFFFFFFFFFFFFFFFFFFFFFFFFFFFFF
310
FFFFFFFFFFFFFFFFFFFFFFFFFFFFFFFFFFFFFFFFFFFFFFFFFFFFFFFFFFFFFFFF
310
FFFFFFFFFFFFFFFFFFFFFFFFFFFFFFFFFFFFFFFFFFFFFFFFFFFFFFFFFFFFFFFF
310
FFFFFFFFFFFFFFFFFFFFFFFFFFFFFFFFFFFFFFFFFFFFFFFFFFFFFFFFFFFFFFFF
310
FFFFFFFFFFFFFFFFFFFFFFFFFFFFFFFFFFFFFFFFFFFFFFFFFFFFFFFFFFFFFFFF
310
FFFFFFFFFFFFFFFFFFFFFFFFFFFFFFFFFFFFFFFFFFFFFFFFFFFFFFFFFFFFFFFF
310
FFFFFFFFFFFFFFFFFFFFFFFFFFFFFFFFFFFFFFFFFFFFFFFFFFFFFFFFFFFFFFFF
310
FFFFFFFFFFFFFFFFFFFFFFFFFFFFFFFFFFFFFFFFFFFFFFFFFFFFFFFFFFFFFFFF
310
FFFFFFFFFFFFFFFFFFFFFFFFFFFFFFFFFFFFFFFFFFFFFFFFFFFFFFFFFFFFFFFF
310
0100000200000000000000000000000000000000500260012003E003B0024004
310
B002F00180030003B002800350023001B0028003800380033001500250024004
310
0100FEFF030A0000FFFFFFFF0A00030000000000C00000000000004607000000
310
5042727573680007000000504272757368000700000050427275736800F439B2
310
7100000000000000000000000003200320032003200320032003B002E0032003
310
200320032003800320032003B002B002B002B002B002B00280035002B002B002
310
B002B002F001F001500250028003B002B002B002B002B002B002B0028003B002
310
B002B002B002B002B002B0020000000000000000680000002200900000000004
310
E804250000000000009D2E0000000000450052005F005F005A004C0042000000
310
0000000000000000000000000000000000000000000000000000000000000000
310
20000201FFFFFFFFFFFFFFFFFFFFFFFF00000000000000000000000000000000
310
0000000000000000000000000000000000000000A00000002C00000000000000
310
420069006F006700720061007000680079000000000000000000000000000000
310
0000000000000000000000000000000000000000000000000000000000000000
310
140002011C000000FFFFFFFFFFFFFFFF00000000000000000000000000000000
310
00000000000000000000000000000000000000002C0100001B4F000000000000
310
20260000424D0E260000000000003E00000028000000B40200006E0000000100
310
01000000000000000000130B0000130B00000200000002000000000000FFFFFF
310
FFFFFFFFFFFFFFFFFFFFFFFFFFFFFFFFFFFFFFFFFFFFFFFFFFFFFFFFFFFFFFFF
310
FFFFFFFFFFFFFFFFFFFFFFFFFFFFFFFFFFFFFFFFFFFFFFFFFFFFFFFFFFFFFFFF
310
FFFFFFFFFFFFFFFFFFFFFFFFFFFFFFFFFFFFFFFFFFFFFFFFF000FFFFFFFFFFFF
310
FFFFFFFFFFFFFFFFFFFFFFFFFFFFFFFFFFFFFFFFFFFFFFFFFFFFFFFFFFFFFFFF
310
FFFFFFFFFFFFFFFFFFFFFFFFFFFFFFFFFFFFFFFFFFFFFFFFFFFFFFFFFFFFFFFF
310
FFFFFFFFFFFFFFFFFFFFFFFFFFFFFFFFF000FFFFFFFFFFFFFFFFFFFFFFFFFFFF
310
FFFFFFFFFFFFFFFFFFFFFFFFFFFFFFFFFFFFFFFFFFFFFFFFFFFFFFFFFFFFFFFF
310
FFFFFFFFFFFFFFFFFFFFFFFFFFFFFFFFFFFFFFFFFFFFFFFFFFFFFFFFFFFFFFFF
310
FFFFFFFFFFFFFFFFF000FFFFFFFFFFFFFFFFFFFFFFFFFFFFFFFFFFFFFFFFFFFF
310
FFFFFFFFFFFFFFFFFFFFFFFFFFFFFFFFFFFFFFFFFFFFFFFFFFFFFFFFFFFFFFFF
310
FFFFFFFFFFFFFFFFFFFFFFFFFFFFFFFFFFFFFFFFFFFFFFFFFFFFFFFFFFFFFFFF
310
F000FFFFFFFFFFFFFFFFFFFFFFFFFFFFFFFFFFFFFFFFFFFFFFFFFFFFFFFFFFFF
310
FFFFFFFFFFFFFFFFFFFFFFFFFFFFFFFFFFFFFFFFFFFFFFFFFFFFFFFFFFFFFFFF
310
FFFFFFFFFFFFFFFFFFFFFFFFFFFFFFFFFFFFFFFFFFFFFFFFF000FFFFFFFFFFFF
310
FFFFFFFFFFFFFFFFFFFFFFFFFFFFFFFFFFFFFFFFFFFFFFFFFFFFFFFFFFFFFFFF
310
FFFFFFFFFFFFFFFFFFFFFFFFFFFFFFFFFFFFFFFFFFFFFFFFFFFFFFFFFFFFFFFF
310
FFFFFFFFFFFFFFFFFFFFFFFFFFFFFFFFF000FFFFFFFFFFFFFFFFFFFFFFFFFFFF
310
FFFFFFFFFFFFFFFFFFFFFFFFFFFFFFFFFFFFFFFFFFFFFFFFFFFFFFFFFFFFFFFF
310
FFFFFFFFFFFFFFFFFFFFFFFFFFFFFFFFFFFFFFFFFFFFFFFFFFFFFFFFFFFFFFFF
310
FFFFFFFFFFFFFFFFF000FFFFFFFFFFFFFFFFFFFFFFFFFFFFFFFFFFFFFFFFFFFF
310
FFFFFFFFFFFFFFFFFFFFFFFFFFFFFFFFFFFFFFFFFFFFFFFFFFFFFFFFFFFFFFFF
310
FFFFFFFFFFFFFFFFFFFFFFFFFFFFFFFFFFFFFFFFFFFFFFFFFFFFFFFFFFFFFFFF
310
F000FFFFFFFFFFFFFFFFFFFFFFFFFFFFFFFFFFFFFFFFFFFFFFFFFFFFFFFFFFFF
310
FFFFFFFFFFFFFFFFFFFFFFFFFFFFFFFFFFFFFFFFFFFFFFFFFFFFFFFFFFFFFFFF
310
FFFFFFFFFFFFFFFFFFFFFFFFFFFFFFFFFFFFFFFFFFFFFFFFF000FFFFFFFFFFFF
310
FFFFFFFFFFFFFFFFFFFFFFFFFFFFFFFFFFFFFFFFFFFFFFFFFFFFFFFFFFFFFFFF
310
FFFFFFFFFFFFFFFFFFFFFFFFFFFFFFFFFFFFFFFFFFFFFFFFFFFFFFFFFFFFFFFF
310
FFFFFFFFFFFFFFFFFFFFFFFFFFFFFFFFF000FFFFFFFFFFFFFFFFFFFFFFFFFFFF
310
FFFFFFFFFFFFFFFFFFFFFFFFFFFFFFFFFFFFFFFFFFFFFFFFFFFFFFFFFFFFFFFF
310
FFFFFFFFFFFFFFFFFFFFFFFFFFFFFFFFFFFFFFFFFFFFFFFFFFFFFFFFFFFFFFFF
310
FFFFFFFFFFFFFFFFF000FFFFFFFFFFFFFFFFFFFFFFFFFFFFFFFFFFFFFFFFFFFF
310
FFFFFFFFFFFFFFFFFFFFFFFFFFFFFFFFFFFFFFFFFFFFFFFFFFFFFFFFFFFFFFFF
310
FFFFFFFFFFFFFFFFFFFFFFFFFFFFFFFFFFFFFFFFFFFFFFFFFFFFFFFFFFFFFFFF
310
F000FFFFFFFFFFFFFFFFFFFFFFFFFFFFFFFFFFFFFFFFFFFFFFFFFFFFFFFFFFFF
310
FFFFFFFFFFFFFFFFFFFFFFFFFFFFFFFFFFFFFFFFFFFFFFFFFFFFFFFFFFFFFFFF
310
FFFFFFFFFFFFFFFFFFFFFFFFFFFFFFFFFFFFFFFFFFFFFFFFF000FFFFFFFFFFFF
310
FFFFFFFFFFFFFFFFFFFFFFFFFFFFFFFFFFFFFFFFFFFFFFFFFFFFFFFFFFFFFFFF
310
FFFFFFFFFFFFFFFFFFFFFFFFFFFFFFFFFFFFFFFFFFFFFFFFFFFFFFFFFFFFFFFF
310
FFFFFFFFFFFFFFFFFFFFFFFFFFFFFFFFF000FFFFFFFFFFFFFFFFFFFFFFFFFFFF
310
FFFFFFFFFFFFFFFFFFFFFFFFFFFFFFFFFFFFFFFFFFFFFFFFFFFFFFFFFFFFFFFF
310
FFFFFFFFFFFFFFFFFFFFFFFFFFFFFFFFFFFFFFFFFFFFFFFFFFFFFFFFFFFFFFFF
310
FFFFFFFFFFFFFFFFF000FFFFFFFFFFFFFFFFFFFFFFFFFFFFFFFFFFFFFFFFFFFF
310
FFFFFFFFFFFFFFFFFFFFFFFFFFFFFFFFFFFFFFFFFFFFFFFFFFFFFFFFFFFFFFFF
310
FFFFFFFFFFFFFFFFFFFFFFFFFFFFFFFFFFFFFFFFFFFFFFFFFFFFFFFFFFFFFFFF
310
F000FFFFFFFFFFFFFFFFFFFFFFFFFFFFFFFFFFFFFFFFFFFFFFFFFFFFFFFFFFFF
310
FFFFFFFFFFFFFFFFFFFFFFFFFFFFFFFFFFFFFFFFFFFFFFFFFFFFFFFFFFFFFFFF
310
FFFFFFFFFFFFFFFFFFFFFFFFFFFFFFFFFFFFFFFFFFFFFFFFF000FFFFFFFFFFFF
310
FFFFFFFFFFFFFFFFFFFFFFFFFFFFFFFFFFFFFFFFFFFFFFFFFFFFFFFFFFFFFFFF
310
FFFFFFFFFFFFFFFFFFFFFFFFFFFFFFFFFFFFFFFFFFFFFFFFFFFFFFFFFFFFFFFF
310
FFFFFFFFFFFFFFFFFFFFFFFFFFFFFFFFF000FFFFFFFFFFFFFFFFFFFFFFFFFFFF
310
FFFFFFFFFFFFFFFFFFFFFFFFFFFFFFFFFFFFFFFFFFFFFFFFFFFFFFFFFFFFFFFF
310
FFFFFFFFFFFFFFFFFFFFFFFFFFFFFFFFFFFFFFFFFFFFFFFFFFFFFFFFFFFFFFFF
310
FFFFFFFFFFFFFFFFF000FFFFF80003FFFFFFFFFFFFFFFFFFFFFFFFFFFFFFFFFF
310
FFFFF00007FFFFFFFFFF00007FFFFFF800000000000000007FFFFFFFFFFFFFFF
310
FFFFFFFC001FFFFFFFFFFFFFFC001FFFFFFFFFFFFFFFFFFFFFFFFFFE0007FFFF
310
F000FFFF8000007FFFFFFFF8000FFFFFC0007FFFFF80007FFFFF0000007FFFFF
310
FFF8000007FFFFF800000000000000007FFFFFF0001FFFFFFFFFFFC00001FFFF
310
FFFFFFFFC00001FFFFFFFF000000000003FFFFE000007FFFF000FFFE0000000F
310
FFFFFFF0000FFFFF80007FFFFF80007FFFFC0000001FFFFFFFC0000001FFFFF8
310
00000000000000007FFFFFF0001FFFFFFFFFFE0000003FFFFFFFFFFE0000003F
310
FFFFFF000000000003FFFF0000000FFFF000FFF800000003FFFFFFF00007FFFF
310
80007FFFFF80007FFFF000000007FFFFFF000000003FFFF80000000000000000
310
7FFFFFF0001FFFFFFFFFF80000000FFFFFFFFFF80000000FFFFFFF0000000000
310
03FFFC00000003FFF000FFE000000000FFFFFFF00007FFFF80003FFFFF80007F
310
FFC000000001FFFFFC000000001FFFF800000000000000007FFFFFF0001FFFFF
310
FFFFE000000003FFFFFFFFE000000003FFFFFF000000000003FFF000000000FF
310
F000FF80000000007FFFFFF00007FFFF80003FFFFF80007FFF8000000000FFFF
310
F80000000007FFF800000000000000007FFFFFF0001FFFFFFFFFC000000001FF
310
FFFFFFC000000001FFFFFF000000000003FFC0000000007FF000FF0000000000
310
3FFFFFE00007FFFF00003FFFFF80007FFE00000000003FFFF00000000003FFF8
310
00000000000000007FFFFFF0001FFFFFFFFF8000000000FFFFFFFF8000000000
310
FFFFFF000000000003FF80000000003FF000FE00000000001FFFFFE00003FFFF
310
00003FFFFF80007FFC00000000001FFFE00000000001FFF8000001FFFE000000
310
7FFFFFF0001FFFFFFFFE00000000003FFFFFFE00000000003FFFFF0000000000
310
03FF00000000001FF000FC00000000000FFFFFE00003FFFF00001FFFFF80007F
310
F800000000001FFFC00000000000FFF8000001FFFE0000007FFFFFF0001FFFFF
310
FFFC00000000001FFFFFFC00000000001FFFFF000000000003FE00000000000F
310
F000F8000000000007FFFFE00003FFFF00001FFFFF80007FF800000000000FFF
310
800000000000FFF8000001FFFE0000007FFFFFF0001FFFFFFFF800000000000F
310
FFFFF800000000000FFFFF000000000003FC000000000007F000F80000000000
310
03FFFFC00003FFFE00001FFFFF80007FF0000000000007FF0000000000007FF8
310
000001FFFE0000007FFFFFF0001FFFFFFFF0000000000007FFFFF00000000000
310
07FFFF000000000003F8000000000003F000F0000000000003FFFFC00001FFFE
310
00001FFFFF80007FE0000000000007FE0000000000003FF8000001FFFE000000
310
7FFFFFF0001FFFFFFFF0000000000007FFFFF0000000000007FFFF0000000000
310
03F800001F800003F000E00001FFF00001FFFFC00001FFFE00000FFFFF80007F
310
E00001FFE00003FE00001FFF00003FF8000001FFFE0000007FFFFFF0001FFFFF
310
FFE000003E000003FFFFE000003E000003FFFF000000000003F00001FFF80001
310
F000E00007FFFC0001FFFFC00001FFFE00000FFFFF80007FC0000FFFFC0003FC
310
0000FFFFC0001FF8000001FFFE0000007FFFFFF0001FFFFFFFC00003FFE00001
310
FFFFC00003FFE00001FFFF0001FFFFFFFFF00007FFFE0001F000E0000FFFFF00
310
00FFFF800001FFFC00000FFFFF80007FC0001FFFFE0001FC0001FFFFE0001FF8
310
000001FFFE0000007FFFFFF0001FFFFFFF80000FFFF80000FFFF80000FFFF800
310
00FFFF0003FFFFFFFFE0000FFFFF8000F000C0003FFFFF8000FFFF800000FFFC
310
000007FFFF80007F80003FFFFF0001FC0003FFFFF0001FF8000001FFFE000000
310
7FFFFFF0001FFFFFFF80003FFFFE0000FFFF80003FFFFE0000FFFF0003FFFFFF
310
FFE0003FFFFF8000F000C0003FFFFF8000FFFF800000FFFC000007FFFF80007F
310
80007FFFFF8001F80007FFFFF8000FF8000001FFFE0000007FFFFFF0001FFFFF
310
FF00007FFFFF00007FFF00007FFFFF00007FFF0003FFFFFFFFE0003FFFFFC000
310
F000C0007FFFFFC000FFFF000000FFFC000007FFFF80007F8000FFFFFF8000F8
310
000FFFFFF8000FF8000001FFFE0000007FFFFFF0001FFFFFFF0000FFFFFF8000
310
7FFF0000FFFFFF80007FFF0003FFFFFFFFC0007FFFFFC00070008000FFFFFFC0
310
00FFFF000000FFF8000007FFFF80007F8000FFFFFF8000F8000FFFFFF8000FF8
310
000001FFFE0000007FFFFFF0001FFFFFFE0001FFFFFFC0003FFE0001FFFFFFC0
310
003FFF0003FFFFFFFFC0007FFFFFE00070008000FFFFFFC0007FFF0000007FF8
310
000003FFFF80007F0001FFFFFF8000F8000FFFFFF8000FF8000001FFFE000000
310
7FFFFFF0001FFFFFFE0001FFFFFFC0003FFE0001FFFFFFC0003FFF0003FFFFFF
310
FFC000FFFFFFE00070008000FFFFFFC0007FFF0000007FF8000003FFFF80007F
310
0001FFFFFF8000F8001FFFFFF8000FF8000001FFFE0000007FFFFFF0001FFFFF
310
FE0003FFFFFFE0003FFE0003FFFFFFE0003FFF0003FFFFFFFFC000FFFFFFE000
310
70008000FFFFFFC0007FFE0000007FF8000003FFFF80007F0001FFFFFF8000F0
310
001FFFFFF8000FF8000001FFFE0000007FFFFFF0001FFFFFFC0003FFFFFFE000
310
1FFC0003FFFFFFE0001FFF0003FFFFFFFFC000FFFFFFC00070008000FFFFFF80
310
007FFE0000007FF0000003FFFF80007F0001FFFFFF0000F0001FFFFFF8000FF8
310
000001FFFE0000007FFFFFF0001FFFFFFC0007FFFFFFF0001FFC0007FFFFFFF0
310
001FFF0003FFFFFFFFC000FFFFFFC00070008001FFFFFF0000FFFE0000003FF0
310
000001FFFF80007F0001FFFFFF0000F8001FFFFFF0000FF8000001FFFE000000
310
7FFFFFF0001FFFFFFC0007FFFFFFF0001FFC0007FFFFFFF0001FFF0003FFFFFF
310
FFC001FFFFFF80007000FFFFFFFFFE0000FFFE0008003FF0008001FFFF80007F
310
FFFFFFFFFC0000FFFFFFFFFFE0000FF8000001FFFE0000007FFFFFF0001FFFFF
310
F8000FFFFFFFF8000FF8000FFFFFFFF8000FFF0003FFFFFFFFFFFFFFFFFF0000
310
7000FFFFFFFFFC0000FFFC0008003FF0008001FFFF80007FFFFFFFFFF80001FF
310
FFFFFFFF80000FF8000001FFFE0000007FFFFFF0001FFFFFF8000FFFFFFFF800
310
0FF8000FFFFFFFF8000FFF0003FFFFFFFFFFFFFFFFFE0000F000FFFFFFFFE000
310
00FFFC000C003FE000C001FFFF80007FFFFFFFFFC00001FFFFFFFFFE00001FF8
310
000001FFFE0000007FFFFFF0001FFFFFF8000FFFFFFFF8000FF8000FFFFFFFF8
310
000FFF0003FFFFFFFFFFFFFFFFF00000F000FFFFFFFE000001FFFC000C001FE0
310
00C000FFFF80007FFFFFFFFE000001FFFFFFFFE000001FF80FFFFFFFFFFFFFC0
310
7FFFFFF0001FFFFFF8000FFFFFFFF8000FF8000FFFFFFFF8000FFF0003FFFFFF
310
FFFFFFFFFF800000F000FFFFFFC0000001FFFC001C001FE001C000FFFF80007F
310
FFFFFF80000003FFFFFFF80000001FF80FFFFFFFFFFFFFC07FFFFFF0001FFFFF
310
F8001FFFFFFFFC000FF8001FFFFFFFFC000FFF0003FFFFFFFFFFFFFFF0000001
310
F000FFFFF800000001FFF8001C001FE001C000FFFF80007FFFFFF800000003FF
310
FFFF800000003FF80FFFFFFFFFFFFFC07FFFFFF0001FFFFFF8001FFFFFFFFC00
310
0FF8001FFFFFFFFC000FFF0003FFFFFFFFFFFFFE00000001F000FFFFC0000000
310
03FFF8001E001FC001E000FFFF80007FFFFF8000000007FFFFFC000000003FF8
310
0FFFFFFFFFFFFFC07FFFFFF0001FFFFFF8001FFFFFFFFC000FF8001FFFFFFFFC
310
000FFF0003FFFFFFFFFFFFE000000003F000FFFE0000000007FFF8001E000FC0
310
01E0007FFF80007FFFFE0000000007FFFFE0000000007FF80FFFFFFFFFFFFFC0
310
7FFFFFF0001FFFFFF0001FFFFFFFFC0007F0001FFFFFFFFC0007FF0003FFFFFF
310
FFFFFF0000000003F000FFF80000000007FFF8001E000FC003E0007FFF80007F
310
FFF0000000000FFFFF8000000000FFF80FFFFFFFFFFFFFC07FFFFFF0001FFFFF
310
F0001FFFFFFFFC0007F0001FFFFFFFFC0007FF0003FFFFFFFFFFFC0000000007
310
F000FFE0000000000FFFF0003E000FC003E0007FFF80007FFFC0000000001FFF
310
FE0000000001FFF80FFFFFFFFFFFFFC07FFFFFF0001FFFFFF0001FFFFFFFFC00
310
07F0001FFFFFFFFC0007FF0003FFFFFFFFFFF0000000000FF000FFC000000000
310
1FFFF0003F000F8003F0003FFF80007FFF80000000003FFFF80000000003FFF8
310
0FFFFFFFFFFFFFC07FFFFFF0001FFFFFF0001FFFFFFFFC0007F0001FFFFFFFFC
310
0007FF0003FFFFFFFFFFE0000000001FF000FF00000000007FFFF0003F000780
310
03F0003FFF80007FFF00000000007FFFF00000000007FFF80FFFFFFFFFFFFFC0
310
7FFFFFF0001FFFFFF0001FFFFFFFFC0007F0001FFFFFFFFC0007FF0003FFFFFF
310
FFFF80000000007FF000FE0000000000FFFFE0003F00078007F0003FFF80007F
310
FE0000000001FFFFE0000000001FFFF80FFFFFFFFFFFFFC07FFFFFF0001FFFFF
310
F0001FFFFFFFFC0007F0001FFFFFFFFC0007FF0003FFFFFFFFFF0000000000FF
310
F000FC0000000003FFFFE0007F00078007F0003FFF80007FFC0000000007FFFF
310
C0000000007FFFF80FFFFFFFFFFFFFC07FFFFFF0001FFFFFF8001FFFFFFFFC00
310
0FF8001FFFFFFFFC000FFF0003FFFFFFFFFE0000000003FFF000FC000000000F
310
FFFFE0007F80070007F8001FFF80007FF8000000001FFFFF8000000001FFFFF8
310
0FFFFFFFFFFFFFC07FFFFFF0001FFFFFF8001FFFFFFFFC000FF8001FFFFFFFFC
310
000FFF0003FFFFFFFFFC000000000FFFF000F8000000007FFFFFE0007F800700
310
07F8001FFF80007FF000000000FFFFFF800000000FFFFFF80FFFFFFFFFFFFFC0
310
7FFFFFF0001FFFFFF8000FFFFFFFF8000FF8000FFFFFFFF8000FFF0003FFFFFF
310
FFFC000000007FFFF000F800000007FFFFFFC0007F8003000FF8001FFF80007F
310
F000000007FFFFFF000000007FFFFFF80FFFFFFFFFFFFFC07FFFFFF0001FFFFF
310
F8000FFFFFFFF8000FF8000FFFFFFFF8000FFF0003FFFFFFFFF80000000FFFFF
310
F000F0000000FFFFFFFFC000FF8003000FF8001FFF80007FE0000000FFFFFFFF
310
0000000FFFFFFFF8000001FFFE0000007FFFFFF0001FFFFFF8000FFFFFFFF800
310
0FF8000FFFFFFFF8000FFF0003FFFFFFFFF8000000FFFFFFF000F000000FFFFF
310
FFFFC000FFC002000FF8000FFF80007FE000001FFFFFFFFE000001FFFFFFFFF8
310
000001FFFE0000007FFFFFF0001FFFFFF8000FFFFFFFF8000FF8000FFFFFFFF8
310
000FFF0003FFFFFFFFF000001FFFFFFFF000E00000FFFFFFFFFFC000FFC00200
310
0FFC000FFF80007FE00001FFFFFFFFFE00001FFFFFFFFFF8000001FFFE000000
310
7FFFFFF0001FFFFFFC000FFFFFFFF8001FFC000FFFFFFFF8001FFF0003FFFFFF
310
FFF00001FFFFFFFFF000E00007FFFFFFFFFF8000FFC000001FFC000FFF80007F
310
C0000FFFFFFFFFFE0000FFFFFFFFFFF8000001FFFE0000007FFFFFF0001FFFFF
310
FC0007FFFFFFF0001FFC0007FFFFFFF0001FFF0003FFFFFFFFF00007FFFFFFFF
310
F000E0001FFFFFFFFFFF8000FFC000001FFC000FFF80007FC0003FFFFFFFFFFE
310
0001FFFFFFFFFFF8000001FFFE0000007FFFFFF0001FFFFFFC0007FFFFFFF000
310
1FFC0007FFFFFFF0001FFF0003FFFFFFFFF0001FFFFFFFFFF000E0003FFFFF00
310
03FF8001FFE000001FFC0007FF80007FC0007FFFFF0007FC0003FFFFF0003FF8
310
000001FFFE0000007FFFFFF0001FFFFFFC0003FFFFFFE0001FFC0003FFFFFFE0
310
001FFF0003FFFFFFFFF0003FFFFFFFFFF000E0003FFFFF0001FF8001FFE00000
310
1FFE0007FF80007FC0007FFFFE0003FC0007FFFFE0003FF8000001FFFE000000
310
7FFFFFF0001FFFFFFE0003FFFFFFE0003FFE0003FFFFFFE0003FFF0003FFFFFF
310
FFF0003FFFFF8001F000E0003FFFFF0001FF0001FFE000001FFE0007FF80007F
310
C0007FFFFE0003FC0007FFFFE0003FF8000001FFFE0000007FFFFFF0001FFFFF
310
FE0001FFFFFFC0003FFE0001FFFFFFC0003FFF0003FFFFFFFFF0003FFFFF0001
310
F000E0003FFFFF0003FF0001FFE000003FFE0007FF80007FC0007FFFFE0003FC
310
0007FFFFE0003FF8000001FFFE0000007FFFFFF0001FFFFFFF0001FFFFFFC000
310
7FFF0001FFFFFFC0007FFF0003FFFFFFFFF0003FFFFF0001F000E0003FFFFE00
310
03FF0003FFF000003FFE0003FF80007FC0007FFFFC0003FE0007FFFFE0003FF8
310
000001FFFE0000007FFFFFF0001FFFFFFF0000FFFFFF80007FFF0000FFFFFF80
310
007FFF0003FFFFFFFFF0003FFFFF0001F000E0003FFFFE0003FF0003FFF00000
310
3FFF0003FF80007FC0007FFFFC0007FE0007FFFFC0003FF8000001FFFE000000
310
7FFFFFF0001FFFFFFF80007FFFFF0000FFFF80007FFFFF0000FFFF0003FFFFFF
310
FFF0003FFFFF0003F000E0003FFFFC0003FE0003FFF000003FFF0003FF80007F
310
E0003FFFF80007FE0003FFFFC0007FF8000001FFFE0000007FFFFFF0001FFFFF
310
FF80003FFFFE0000FFFF80003FFFFE0000FFFF0003FFFFFFFFF0001FFFFE0003
310
F000F0001FFFF80003FE0003FFF000007FFF0001FF80007FE0003FFFF00007FE
310
0001FFFF80007FF8000001FFFE0000007FFFFFF0001FFFFFFFC0000FFFF80001
310
FFFFC0000FFFF80001FFFF0003FFFFFFFFF0001FFFFC0003F000F0000FFFF000
310
07FE0007FFF800007FFF0001FF80007FE0001FFFE00007FF0000FFFE00007FF8
310
000001FFFE0000007FFFFFF0001FFFFFFFC00003FFE00001FFFFC00003FFE000
310
01FFFF0003FFFFFFFFF8000FFFF80003F000F00003FFC00007FC0007FFF80000
310
7FFF8001FF80007FF00007FF80000FFF00007FF80000FFF8000001FFFE000000
310
7F80000000000001FFE000003E000003FFFFE000003E000003FFFF0003FFFFFF
310
FFF80003FFE00007F000F800000000000FFC0007FFF800007FFF8001FF80007F
310
F000000000000FFF000000000000FFF8000001FFFE0000007F80000000000001
310
FFF0000000000007FFFFF0000000000007FFFF0003FFFFFFFFFC00007E000007
310
F000F800000000000FFC0007FFF80000FFFF8000FF80007FF800000000001FFF
310
800000000001FFF8000001FFFE0000007F80000000000001FFF800000000000F
310
FFFFF800000000000FFFFF0003FFFFFFFFFC00000000000FF000FC0000000000
310
1FFC0007FFFC0000FFFF8000FF80007FF800000000003FFFC00000000001FFF8
310
000001FFFE0000007F80000000000001FFF800000000000FFFFFF80000000000
310
0FFFFF0003FFFFFFFFFE00000000001FF000FE00000000003FF8000FFFFC0000
310
FFFF8000FF80007FFC00000000003FFFC00000000003FFF8000001FFFE000000
310
7F80000000000001FFFC00000000001FFFFFFC00000000001FFFFF0003FFFFFF
310
FFFF00000000001FF000FF00000000003FF8000FFFFC0000FFFFC000FF80007F
310
FE00000000007FFFE00000000007FFF8000001FFFE0000007F80000000000001
310
FFFE00000000003FFFFFFE00000000003FFFFF0003FFFFFFFFFF80000000003F
310
F000FF80000000007FF8000FFFFC0001FFFFC0007F80007FFF0000000000FFFF
310
F0000000000FFFF800000000000000007F80000000000001FFFF8000000000FF
310
FFFFFF8000000000FFFFFF0003FFFFFFFFFFC0000000007FF000FFC000000000
310
FFF8000FFFFE0001FFFFC0007F80007FFF8000000001FFFFF8000000001FFFF8
310
00000000000000007F80000000000001FFFFC000000001FFFFFFFFC000000001
310
FFFFFF0003FFFFFFFFFFE000000000FFF000FFE000000003FFF0001FFFFE0001
310
FFFFC0007F80007FFFC000000007FFFFFE000000003FFFF80000000000000000
310
7F80000000000001FFFFE000000003FFFFFFFFE000000003FFFFFF0003FFFFFF
310
FFFFF000000003FFF000FFF80000000FFFF0001FFFFE0001FFFFE0007F80007F
310
FFF00000000FFFFFFF00000000FFFFF800000000000000007F80000000000001
310
FFFFF80000000FFFFFFFFFF80000000FFFFFFF0003FFFFFFFFFFFC0000000FFF
310
F000FFFE0000003FFFF0001FFFFE0003FFFFE0003F80007FFFFC0000003FFFFF
310
FFC0000003FFFFF800000000000000007F80000000000001FFFFFE0000003FFF
310
FFFFFFFE0000003FFFFFFF0003FFFFFFFFFFFF0000003FFFF000FFFF800000FF
310
FFF0001FFFFF0003FFFFE0003F80007FFFFF000001FFFFFFFFF800001FFFFFF8
310
00000000000000007F80000000000001FFFFFFC00001FFFFFFFFFFFFC00001FF
310
FFFFFF0003FFFFFFFFFFFFC00000FFFFF000FFFFF8000FFFFFFFFFFFFFFFFFFF
310
FFFFFFFFFFFFFFFFFFFFF0001FFFFFFFFFFF0000FFFFFFF80000000000000000
310
7FFFFFFFFFFFFFFFFFFFFFFC001FFFFFFFFFFFFFFC001FFFFFFFFFFFFFFFFFFF
310
FFFFFFFC001FFFFFF000FFFFFFFFFFFFFFFFFFFFFFFFFFFFFFFFFFFFFFFFFFFF
310
FFFFFFFFFFFFFFFFFFFFFFFFFFFFFFFFFFFFFFFFFFFFFFFFFFFFFFFFFFFFFFFF
310
FFFFFFFFFFFFFFFFFFFFFFFFFFFFFFFFFFFFFFFFFFFFFFFFFFFFFFFFFFFFFFFF
310
F000FFFFFFFFFFFFFFFFFFFFFFFFFFFFFFFFFFFFFFFFFFFFFFFFFFFFFFFFFFFF
310
FFFFFFFFFFFFFFFFFFFFFFFFFFFFFFFFFFFFFFFFFFFFFFFFFFFFFFFFFFFFFFFF
310
FFFFFFFFFFFFFFFFFFFFFFFFFFFFFFFFFFFFFFFFFFFFFFFFF000FFFFFFFFFFFF
310
FFFFFFFFFFFFFFFFFFFFFFFFFFFFFFFFFFFFFFFFFFFFFFFFFFFFFFFFFFFFFFFF
310
FFFFFFFFFFFFFFFFFFFFFFFFFFFFFFFFFFFFFFFFFFFFFFFFFFFFFFFFFFFFFFFF
310
FFFFFFFFFFFFFFFFFFFFFFFFFFFFFFFFF000FFFFFFFFFFFFFFFFFFFFFFFFFFFF
310
FFFFFFFFFFFFFFFFFFFFFFFFFFFFFFFFFFFFFFFFFFFFFFFFFFFFFFFFFFFFFFFF
310
FFFFFFFFFFFFFFFFFFFFFFFFFFFFFFFFFFFFFFFFFFFFFFFFFFFFFFFFFFFFFFFF
310
FFFFFFFFFFFFFFFFF000FFFFFFFFFFFFFFFFFFFFFFFFFFFFFFFFFFFFFFFFFFFF
310
FFFFFFFFFFFFFFFFFFFFFFFFFFFFFFFFFFFFFFFFFFFFFFFFFFFFFFFFFFFFFFFF
310
FFFFFFFFFFFFFFFFFFFFFFFFFFFFFFFFFFFFFFFFFFFFFFFFFFFFFFFFFFFFFFFF
310
F000FFFFFFFFFFFFFFFFFFFFFFFFFFFFFFFFFFFFFFFFFFFFFFFFFFFFFFFFFFFF
310
FFFFFFFFFFFFFFFFFFFFFFFFFFFFFFFFFFFFFFFFFFFFFFFFFFFFFFFFFFFFFFFF
310
FFFFFFFFFFFFFFFFFFFFFFFFFFFFFFFFFFFFFFFFFFFFFFFFF000FFFFFFFFFFFF
310
FFFFFFFFFFFFFFFFFFFFFFFFFFFFFFFFFFFFFFFFFFFFFFFFFFFFFFFFFFFFFFFF
310
FFFFFFFFFFFFFFFFFFFFFFFFFFFFFFFFFFFFFFFFFFFFFFFFFFFFFFFFFFFFFFFF
310
FFFFFFFFFFFFFFFFFFFFFFFFFFFFFFFFF000FFFFFFFFFFFFFFFFFFFFFFFFFFFF
310
FFFFFFFFFFFFFFFFFFFFFFFFFFFFFFFFFFFFFFFFFFFFFFFFFFFFFFFFFFFFFFFF
310
FFFFFFFFFFFFFFFFFFFFFFFFFFFFFFFFFFFFFFFFFFFFFFFFFFFFFFFFFFFFFFFF
310
FFFFFFFFFFFFFFFFF000FFFFFFFFFFFFFFFFFFFFFFFFFFFFFFFFFFFFFFFFFFFF
310
FFFFFFFFFFFFFFFFFFFFFFFFFFFFFFFFFFFFFFFFFFFFFFFFFFFFFFFFFFFFFFFF
310
FFFFFFFFFFFFFFFFFFFFFFFFFFFFFFFFFFFFFFFFFFFFFFFFFFFFFFFFFFFFFFFF
310
F000FFFFFFFFFFFFFFFFFFFFFFFFFFFFFFFFFFFFFFFFFFFFFFFFFFFFFFFFFFFF
310
FFFFFFFFFFFFFFFFFFFFFFFFFFFFFFFFFFFFFFFFFFFFFFFFFFFFFFFFFFFFFFFF
310
FFFFFFFFFFFFFFFFFFFFFFFFFFFFFFFFFFFFFFFFFFFFFFFFF000FFFFFFFFFFFF
310
FFFFFFFFFFFFFFFFFFFFFFFFFFFFFFFFFFFFFFFFFFFFFFFFFFFFFFFFFFFFFFFF
310
FFFFFFFFFFFFFFFFFFFFFFFFFFFFFFFFFFFFFFFFFFFFFFFFFFFFFFFFFFFFFFFF
310
FFFFFFFFFFFFFFFFFFFFFFFFFFFFFFFFF000FFFFFFFFFFFFFFFFFFFFFFFFFFFF
310
FFFFFFFFFFFFFFFFFFFFFFFFFFFFFFFFFFFFFFFFFFFFFFFFFFFFFFFFFFFFFFFF
310
FFFFFFFFFFFFFFFFFFFFFFFFFFFFFFFFFFFFFFFFFFFFFFFFFFFFFFFFFFFFFFFF
310
FFFFFFFFFFFFFFFFF000FFFFFFFFFFFFFFFFFFFFFFFFFFFFFFFFFFFFFFFFFFFF
310
FFFFFFFFFFFFFFFFFFFFFFFFFFFFFFFFFFFFFFFFFFFFFFFFFFFFFFFFFFFFFFFF
310
FFFFFFFFFFFFFFFFFFFFFFFFFFFFFFFFFFFFFFFFFFFFFFFFFFFFFFFFFFFFFFFF
310
F000FFFFFFFFFFFFFFFFFFFFFFFFFFFFFFFFFFFFFFFFFFFFFFFFFFFFFFFFFFFF
310
FFFFFFFFFFFFFFFFFFFFFFFFFFFFFFFFFFFFFFFFFFFFFFFFFFFFFFFFFFFFFFFF
310
FFFFFFFFFFFFFFFFFFFFFFFFFFFFFFFFFFFFFFFFFFFFFFFFF000FFFFFFFFFFFF
310
FFFFFFFFFFFFFFFFFFFFFFFFFFFFFFFFFFFFFFFFFFFFFFFFFFFFFFFFFFFFFFFF
310
FFFFFFFFFFFFFFFFFFFFFFFFFFFFFFFFFFFFFFFFFFFFFFFFFFFFFFFFFFFFFFFF
310
FFFFFFFFFFFFFFFFFFFFFFFFFFFFFFFFF000FFFFFFFFFFFFFFFFFFFFFFFFFFFF
310
FFFFFFFFFFFFFFFFFFFFFFFFFFFFFFFFFFFFFFFFFFFFFFFFFFFFFFFFFFFFFFFF
310
FFFFFFFFFFFFFFFFFFFFFFFFFFFFFFFFFFFFFFFFFFFFFFFFFFFFFFFFFFFFFFFF
310
FFFFFFFFFFFFFFFFF000FFFFFFFFFFFFFFFFFFFFFFFFFFFFFFFFFFFFFFFFFFFF
310
FFFFFFFFFFFFFFFFFFFFFFFFFFFFFFFFFFFFFFFFFFFFFFFFFFFFFFFFFFFFFFFF
310
FFFFFFFFFFFFFFFFFFFFFFFFFFFFFFFFFFFFFFFFFFFFFFFFFFFFFFFFFFFFFFFF
310
F000FFFFFFFFFFFFFFFFFFFFFFFFFFFFFFFFFFFFFFFFFFFFFFFFFFFFFFFFFFFF
310
FFFFFFFFFFFFFFFFFFFFFFFFFFFFFFFFFFFFFFFFFFFFFFFFFFFFFFFFFFFFFFFF
310
FFFFFFFFFFFFFFFFFFFFFFFFFFFFFFFFFFFFFFFFFFFFFFFFF000FFFFFFFFFFFF
310
FFFFFFFFFFFFFFFFFFFFFFFFFFFFFFFFFFFFFFFFFFFFFFFFFFFFFFFFFFFFFFFF
310
FFFFFFFFFFFFFFFFFFFFFFFFFFFFFFFFFFFFFFFFFFFFFFFFFFFFFFFFFFFFFFFF
310
FFFFFFFFFFFFFFFFFFFFFFFFFFFFFFFFF000FFFFFFFFFFFFFFFFFFFFFFFFFFFF
310
FFFFFFFFFFFFFFFFFFFFFFFFFFFFFFFFFFFFFFFFFFFFFFFFFFFFFFFFFFFFFFFF
310
FFFFFFFFFFFFFFFFFFFFFFFFFFFFFFFFFFFFFFFFFFFFFFFFFFFFFFFFFFFFFFFF
310
FFFFFFFFFFFFFFFFF000FFFFFFFFFFFFFFFFFFFFFFFFFFFFFFFFFFFFFFFFFFFF
310
FFFFFFFFFFFFFFFFFFFFFFFFFFFFFFFFFFFFFFFFFFFFFFFFFFFFFFFFFFFFFFFF
310
FFFFFFFFFFFFFFFFFFFFFFFFFFFFFFFFFFFFFFFFFFFFFFFFFFFFFFFFFFFFFFFF
310
F000FFFFFFFFFFFFFFFFFFFFFFFFFFFFFFFFFFFFFFFFFFFFFFFFFFFFFFFFFFFF
310
FFFFFFFFFFFFFFFFFFFFFFFFFFFFFFFFFFFFFFFFFFFFFFFFFFFFFFFFFFFFFFFF
310
FFFFFFFFFFFFFFFFFFFFFFFFFFFFFFFFFFFFFFFFFFFFFFFFF000FFFFFFFFFFFF
310
FFFFFFFFFFFFFFFFFFFFFFFFFFFFFFFFFFFFFFFFFFFFFFFFFFFFFFFFFFFFFFFF
310
FFFFFFFFFFFFFFFFFFFFFFFFFFFFFFFFFFFFFFFFFFFFFFFFFFFFFFFFFFFFFFFF
310
FFFFFFFFFFFFFFFFFFFFFFFFFFFFFFFFF0000000000000000000000000000000
310
00000000F0CAA6F0CAA6F0CAA6F0CAA6F0CAA6F0CAA6F0CAA6F0CAA6F0CAA6F0
310
CAA6F0CAA6F0CAA6F0CAA6F0CAA6F0CAA6F0CAA6F0CAA6F0CAA6F0CAA6F0CAA6
310
F0CAA6F0CAA6F0CAA6F0CAA6F0CAA6F0CAA6F0CAA6F0CAA6F0CAA6F0CAA6F0CA
310
A6F0CAA6F0CAA6F0CAA6F0CAA6F0CAA6F0CAA6F0CAA6F0CAA6F0CAA6F0CAA6F0
310
CAA6F0CAA6F0CAA6F0CAA6F0CAA6F0CAA6F0CAA6F0CAA6F0CAA6F0CAA6F0CAA6
310
F0CAA6F0CAA6F0CAA6F0CAA6F0CAA6F0CAA6F0CAA6F0CAA6F0CAA6F0CAA6F0CA
310
A6F0CAA6F0CAA6F0CAA6F0CAA6F0CAA6F0CAA6F0CAA6F0CAA6F0CAA6F0CAA6F0
310
CAA6F0CAA6F0CAA6F0CAA6F0CAA6F0CAA6F0CAA6F0CAA6F0CAA6F0CAA6F0CAA6
310
F0CAA6F0CAA6F0CAA6F0CAA6F0CAA6F0CAA6F0CAA6F0CAA6F0CAA6F0CAA6F0CA
310
A6F0CAA6F0CAA6F0CAA6F0CAA6F0CAA6F0CAA6F0CAA6F0CAA6F0CAA6F0CAA6F0
310
CAA6F0CAA6F0CAA6F0CAA6F0CAA6F0CAA6F0CAA6F0CAA6F0CAA6F0CAA6F0CAA6
310
F0CAA6F0CAA6F0CAA6F0CAA6F0CAA6F0CAA6F0CAA6F0CAA6F0CAA6F0CAA6F0CA
310
A6F0CAA6F0CAA6F0CAA6F0CAA6F0CAA6F0CAA6F0CAA6F0CAA6F0CAA6F0CAA6F0
310
CAA6F0CAA6F0CAA6F0CAA6F0CAA6F0CAA6F0CAA6F0CAA6F0CAA6F0CAA6F0CAA6
310
F0CAA6F0CAA6F0CAA6F0CAA6F0CAA6F0CAA6F0CAA6F0CAA6F0CAA6F0CAA6F0CA
  1
OLE
  0
ENDSEC
  0
SECTION
  2
OBJECTS
  0
DICTIONARY
  5
C
330
0
100
AcDbDictionary
281
     1
  3
ACAD_GROUP
350
D
  3
ACAD_LAYOUT
350
1A
  3
ACAD_MLEADERSTYLE
350
182
  3
ACAD_MLINESTYLE
350
17
  3
ACAD_PLOTSETTINGS
350
19
  3
ACAD_PLOTSTYLENAME
350
E
  3
ACAD_TABLESTYLE
350
181
  3
ACAD_VISUALSTYLE
350
2A
  3
AcDbVariableDictionary
350
183
  0
DICTIONARY
  5
D
102
{ACAD_REACTORS
330
C
102
}
330
C
100
AcDbDictionary
281
     1
  0
DICTIONARY
  5
1A
102
{ACAD_REACTORS
330
C
102
}
330
C
100
AcDbDictionary
281
     1
  3
Layout1
350
1E
  3
Layout2
350
26
  3
Model
350
22
  0
DICTIONARY
  5
182
102
{ACAD_REACTORS
330
C
102
}
330
C
100
AcDbDictionary
281
     1
  0
DICTIONARY
  5
17
102
{ACAD_REACTORS
330
C
102
}
330
C
100
AcDbDictionary
281
     1
  3
Standard
350
18
  0
DICTIONARY
  5
19
102
{ACAD_REACTORS
330
C
102
}
330
C
100
AcDbDictionary
281
     1
  0
ACDBDICTIONARYWDFLT
  5
E
102
{ACAD_REACTORS
330
C
102
}
330
C
100
AcDbDictionary
281
     1
  3
Normal
350
F
100
AcDbDictionaryWithDefault
340
F
  0
DICTIONARY
  5
181
102
{ACAD_REACTORS
330
C
102
}
330
C
100
AcDbDictionary
281
     1
  0
DICTIONARY
  5
2A
102
{ACAD_REACTORS
330
C
102
}
330
C
100
AcDbDictionary
281
     1
  3
2dWireframe
350
2F
  3
3D Hidden
350
31
  3
3dWireframe
350
30
  3
Basic
350
32
  3
Brighten
350
36
  3
ColorChange
350
3A
  3
Conceptual
350
34
  3
Dim
350
35
  3
Facepattern
350
39
  3
Flat
350
2B
  3
FlatWithEdges
350
2C
  3
Gouraud
350
2D
  3
GouraudWithEdges
350
2E
  3
Linepattern
350
38
  3
Realistic
350
33
  3
Thicken
350
37
  0
DICTIONARY
  5
183
102
{ACAD_REACTORS
330
C
102
}
330
C
100
AcDbDictionary
281
     1
  3
PSOLHEIGHT
350
185
  3
PSOLWIDTH
350
184
  0
LAYOUT
  5
1E
102
{ACAD_REACTORS
330
1A
102
}
330
1A
100
AcDbPlotSettings
  1

  2
none_device
  4

  6

 40
0.0
 41
0.0
 42
0.0
 43
0.0
 44
0.0
 45
0.0
 46
0.0
 47
0.0
 48
0.0
 49
0.0
140
0.0
141
0.0
142
1.0
143
1.0
 70
   688
 72
     0
 73
     0
 74
     5
  7

 75
    16
147
1.0
148
0.0
149
0.0
100
AcDbLayout
  1
Layout1
 70
     1
 71
     1
 10
0.0
 20
0.0
 11
420.0
 21
297.0
 12
0.0
 22
0.0
 32
0.0
 14
1.0000000000E+20
 24
1.0000000000E+20
 34
1.0000000000E+20
 15
-1.0000000000E+20
 25
-1.0000000000E+20
 35
-1.0000000000E+20
146
0.0
 13
0.0
 23
0.0
 33
0.0
 16
1.0
 26
0.0
 36
0.0
 17
0.0
 27
1.0
 37
0.0
 76
     0
330
1B
  0
LAYOUT
  5
26
102
{ACAD_REACTORS
330
1A
102
}
330
1A
100
AcDbPlotSettings
  1

  2
none_device
  4

  6

 40
0.0
 41
0.0
 42
0.0
 43
0.0
 44
0.0
 45
0.0
 46
0.0
 47
0.0
 48
0.0
 49
0.0
140
0.0
141
0.0
142
1.0
143
1.0
 70
   688
 72
     0
 73
     0
 74
     5
  7

 75
    16
147
1.0
148
0.0
149
0.0
100
AcDbLayout
  1
Layout2
 70
     1
 71
     2
 10
0.0
 20
0.0
 11
0.0
 21
0.0
 12
0.0
 22
0.0
 32
0.0
 14
0.0
 24
0.0
 34
0.0
 15
0.0
 25
0.0
 35
0.0
146
0.0
 13
0.0
 23
0.0
 33
0.0
 16
1.0
 26
0.0
 36
0.0
 17
0.0
 27
1.0
 37
0.0
 76
     0
330
23
  0
LAYOUT
  5
22
102
{ACAD_REACTORS
330
1A
102
}
330
1A
100
AcDbPlotSettings
  1

  2
none_device
  4

  6

 40
0.0
 41
0.0
 42
0.0
 43
0.0
 44
0.0
 45
0.0
 46
0.0
 47
0.0
 48
0.0
 49
0.0
140
0.0
141
0.0
142
1.0
143
1.0
 70
  1712
 72
     0
 73
     0
 74
     0
  7

 75
     0
147
1.0
148
0.0
149
0.0
100
AcDbLayout
  1
Model
 70
     1
 71
     0
 10
0.0
 20
0.0
 11
297.0
 21
210.0
 12
0.0
 22
0.0
 32
0.0
 14
0.0
 24
0.0
 34
0.0
 15
297.0
 25
210.0
 35
0.0
146
0.0
 13
0.0
 23
0.0
 33
0.0
 16
1.0
 26
0.0
 36
0.0
 17
0.0
 27
1.0
 37
0.0
 76
     0
330
1F
331
29
  0
MLINESTYLE
  5
18
102
{ACAD_REACTORS
330
17
102
}
330
17
100
AcDbMlineStyle
  2
Standard
 70
     0
  3

 62
   256
 51
90.0
 52
90.0
 71
     2
 49
0.5
 62
   256
  6
BYLAYER
 49
-0.5
 62
   256
  6
BYLAYER
  0
ACDBPLACEHOLDER
  5
F
102
{ACAD_REACTORS
330
E
102
}
330
E
  0
VISUALSTYLE
  5
2F
102
{ACAD_REACTORS
330
2A
102
}
330
2A
100
AcDbVisualStyle
  2
2dWireframe
 70
     4
 71
     0
 72
     2
 73
     0
 90
        0
 40
-0.6
 41
-30.0
 62
     5
 63
     7
 74
     1
 91
        4
 64
     7
 65
   257
 75
     1
175
     1
 42
1.0
 92
        0
 66
   257
 43
1.0
 76
     1
 77
     6
 78
     2
 67
     7
 79
     5
170
     0
171
     0
290
     0
174
     0
 93
        1
 44
0.0
173
     0
291
     0
 45
0.0
1001
ACAD
1000
AcDbSavedByObjectVersion
1070
     0
  0
VISUALSTYLE
  5
31
102
{ACAD_REACTORS
330
2A
102
}
330
2A
100
AcDbVisualStyle
  2
3D Hidden
 70
     6
 71
     1
 72
     2
 73
     2
 90
        0
 40
-0.6
 41
-30.0
 62
     5
 63
     7
 74
     2
 91
        2
 64
     7
 65
   257
 75
     2
175
     1
 42
40.0
 92
        0
 66
   257
 43
1.0
 76
     1
 77
     6
 78
     2
 67
     7
 79
     3
170
     0
171
     0
290
     0
174
     0
 93
        1
 44
0.0
173
     0
291
     0
 45
0.0
1001
ACAD
1000
AcDbSavedByObjectVersion
1070
     0
  0
VISUALSTYLE
  5
30
102
{ACAD_REACTORS
330
2A
102
}
330
2A
100
AcDbVisualStyle
  2
3dWireframe
 70
     5
 71
     0
 72
     2
 73
     0
 90
        0
 40
-0.6
 41
-30.0
 62
     5
 63
     7
 74
     1
 91
        4
 64
     7
 65
   257
 75
     1
175
     1
 42
1.0
 92
        0
 66
   257
 43
1.0
 76
     1
 77
     6
 78
     2
 67
     7
 79
     5
170
     0
171
     0
290
     0
174
     0
 93
        1
 44
0.0
173
     0
291
     0
 45
0.0
1001
ACAD
1000
AcDbSavedByObjectVersion
1070
     0
  0
VISUALSTYLE
  5
32
102
{ACAD_REACTORS
330
2A
102
}
330
2A
100
AcDbVisualStyle
  2
Basic
 70
     7
 71
     1
 72
     0
 73
     1
 90
        0
 40
-0.6
 41
-30.0
 62
     5
 63
     7
 74
     0
 91
        4
 64
     7
 65
   257
 75
     1
175
     1
 42
1.0
 92
        8
 66
     7
 43
1.0
 76
     1
 77
     6
 78
     2
 67
     7
 79
     5
170
     0
171
     0
290
     0
174
     0
 93
        1
 44
0.0
173
     0
291
     1
 45
0.0
1001
ACAD
1000
AcDbSavedByObjectVersion
1070
     0
  0
VISUALSTYLE
  5
36
102
{ACAD_REACTORS
330
2A
102
}
330
2A
100
AcDbVisualStyle
  2
Brighten
 70
    12
 71
     2
 72
     2
 73
     0
 90
        0
 40
-0.6
 41
-30.0
 62
     5
 63
     7
 74
     1
 91
        4
 64
     7
 65
   257
 75
     1
175
     1
 42
1.0
 92
        8
 66
     7
 43
1.0
 76
     1
 77
     6
 78
     2
 67
     7
 79
     5
170
     0
171
     0
290
     0
174
     0
 93
        1
 44
50.0
173
     0
291
     1
 45
0.0
1001
ACAD
1000
AcDbSavedByObjectVersion
1070
     0
  0
VISUALSTYLE
  5
3A
102
{ACAD_REACTORS
330
2A
102
}
330
2A
100
AcDbVisualStyle
  2
ColorChange
 70
    16
 71
     2
 72
     2
 73
     3
 90
        0
 40
-0.6
 41
-30.0
 62
     5
 63
     8
 74
     1
 91
        4
 64
     7
 65
   257
 75
     1
175
     1
 42
1.0
 92
        8
 66
     8
 43
1.0
 76
     1
 77
     6
 78
     2
 67
     7
 79
     5
170
     0
171
     0
290
     0
174
     0
 93
        1
 44
0.0
173
     0
291
     1
 45
0.0
1001
ACAD
1000
AcDbSavedByObjectVersion
1070
     0
  0
VISUALSTYLE
  5
34
102
{ACAD_REACTORS
330
2A
102
}
330
2A
100
AcDbVisualStyle
  2
Conceptual
 70
     9
 71
     3
 72
     2
 73
     0
 90
        0
 40
-0.6
 41
-30.0
 62
     5
 63
     7
 74
     2
 91
        2
 64
     7
 65
   257
 75
     1
175
     1
 42
40.0
 92
        8
 66
     7
 43
1.0
 76
     1
 77
     6
 78
     2
 67
     7
 79
     3
170
     0
171
     0
290
     0
174
     0
 93
        1
 44
0.0
173
     0
291
     0
 45
0.0
1001
ACAD
1000
AcDbSavedByObjectVersion
1070
     0
  0
VISUALSTYLE
  5
35
102
{ACAD_REACTORS
330
2A
102
}
330
2A
100
AcDbVisualStyle
  2
Dim
 70
    11
 71
     2
 72
     2
 73
     0
 90
        0
 40
-0.6
 41
-30.0
 62
     5
 63
     7
 74
     1
 91
        4
 64
     7
 65
   257
 75
     1
175
     1
 42
1.0
 92
        8
 66
     7
 43
1.0
 76
     1
 77
     6
 78
     2
 67
     7
 79
     5
170
     0
171
     0
290
     0
174
     0
 93
        1
 44
-50.0
173
     0
291
     1
 45
0.0
1001
ACAD
1000
AcDbSavedByObjectVersion
1070
     0
  0
VISUALSTYLE
  5
39
102
{ACAD_REACTORS
330
2A
102
}
330
2A
100
AcDbVisualStyle
  2
Facepattern
 70
    15
 71
     2
 72
     2
 73
     0
 90
        0
 40
-0.6
 41
-30.0
 62
     5
 63
     7
 74
     1
 91
        4
 64
     7
 65
   257
 75
     1
175
     1
 42
1.0
 92
        8
 66
     7
 43
1.0
 76
     1
 77
     6
 78
     2
 67
     7
 79
     5
170
     0
171
     0
290
     0
174
     0
 93
        1
 44
0.0
173
     0
291
     1
 45
0.0
1001
ACAD
1000
AcDbSavedByObjectVersion
1070
     0
  0
VISUALSTYLE
  5
2B
102
{ACAD_REACTORS
330
2A
102
}
330
2A
100
AcDbVisualStyle
  2
Flat
 70
     0
 71
     2
 72
     1
 73
     1
 90
        2
 40
-0.6
 41
30.0
 62
     5
 63
     7
 74
     0
 91
        4
 64
     7
 65
   257
 75
     1
175
     1
 42
1.0
 92
        8
 66
     7
 43
1.0
 76
     1
 77
     6
 78
     2
 67
     7
 79
     5
170
     0
171
     0
290
     0
174
     0
 93
       13
 44
0.0
173
     0
291
     1
 45
0.0
1001
ACAD
1000
AcDbSavedByObjectVersion
1070
     0
  0
VISUALSTYLE
  5
2C
102
{ACAD_REACTORS
330
2A
102
}
330
2A
100
AcDbVisualStyle
  2
FlatWithEdges
 70
     1
 71
     2
 72
     1
 73
     1
 90
        2
 40
-0.6
 41
30.0
 62
     5
 63
     7
 74
     1
 91
        4
 64
     7
 65
   257
 75
     1
175
     1
 42
1.0
 92
        0
 66
   257
 43
1.0
 76
     1
 77
     6
 78
     2
 67
     7
 79
     5
170
     0
171
     0
290
     0
174
     0
 93
       13
 44
0.0
173
     0
291
     1
 45
0.0
1001
ACAD
1000
AcDbSavedByObjectVersion
1070
     0
  0
VISUALSTYLE
  5
2D
102
{ACAD_REACTORS
330
2A
102
}
330
2A
100
AcDbVisualStyle
  2
Gouraud
 70
     2
 71
     2
 72
     2
 73
     1
 90
        2
 40
-0.6
 41
30.0
 62
     5
 63
     7
 74
     0
 91
        4
 64
     7
 65
   257
 75
     1
175
     1
 42
1.0
 92
        0
 66
     7
 43
1.0
 76
     1
 77
     6
 78
     2
 67
     7
 79
     5
170
     0
171
     0
290
     0
174
     0
 93
       13
 44
0.0
173
     0
291
     1
 45
0.0
1001
ACAD
1000
AcDbSavedByObjectVersion
1070
     0
  0
VISUALSTYLE
  5
2E
102
{ACAD_REACTORS
330
2A
102
}
330
2A
100
AcDbVisualStyle
  2
GouraudWithEdges
 70
     3
 71
     2
 72
     2
 73
     1
 90
        2
 40
-0.6
 41
30.0
 62
     5
 63
     7
 74
     1
 91
        4
 64
     7
 65
   257
 75
     1
175
     1
 42
1.0
 92
        0
 66
   257
 43
1.0
 76
     1
 77
     6
 78
     2
 67
     7
 79
     5
170
     0
171
     0
290
     0
174
     0
 93
       13
 44
0.0
173
     0
291
     1
 45
0.0
1001
ACAD
1000
AcDbSavedByObjectVersion
1070
     0
  0
VISUALSTYLE
  5
38
102
{ACAD_REACTORS
330
2A
102
}
330
2A
100
AcDbVisualStyle
  2
Linepattern
 70
    14
 71
     2
 72
     2
 73
     0
 90
        0
 40
-0.6
 41
-30.0
 62
     5
 63
     7
 74
     1
 91
        4
 64
     7
 65
   257
 75
     7
175
     7
 42
1.0
 92
        8
 66
     7
 43
1.0
 76
     1
 77
     6
 78
     2
 67
     7
 79
     5
170
     0
171
     0
290
     0
174
     0
 93
        1
 44
0.0
173
     0
291
     1
 45
0.0
1001
ACAD
1000
AcDbSavedByObjectVersion
1070
     0
  0
VISUALSTYLE
  5
33
102
{ACAD_REACTORS
330
2A
102
}
330
2A
100
AcDbVisualStyle
  2
Realistic
 70
     8
 71
     2
 72
     2
 73
     0
 90
        0
 40
-0.6
 41
-30.0
 62
     5
 63
     7
 74
     1
 91
        0
 64
     7
 65
   257
 75
     1
175
     1
 42
1.0
 92
        8
 66
     8
 43
1.0
 76
     1
 77
     6
 78
     2
 67
     7
 79
     5
170
     0
171
     0
290
     0
174
     0
 93
       13
 44
0.0
173
     0
291
     0
 45
0.0
1001
ACAD
1000
AcDbSavedByObjectVersion
1070
     0
  0
VISUALSTYLE
  5
37
102
{ACAD_REACTORS
330
2A
102
}
330
2A
100
AcDbVisualStyle
  2
Thicken
 70
    13
 71
     2
 72
     2
 73
     0
 90
        0
 40
-0.6
 41
-30.0
 62
     5
 63
     7
 74
     1
 91
        4
 64
     7
 65
   257
 75
     1
175
     1
 42
1.0
 92
       12
 66
     7
 43
1.0
 76
     1
 77
     6
 78
     2
 67
     7
 79
     5
170
     0
171
     0
290
     0
174
     0
 93
        1
 44
0.0
173
     0
291
     1
 45
0.0
1001
ACAD
1000
AcDbSavedByObjectVersion
1070
     0
  0
DICTIONARYVAR
  5
185
102
{ACAD_REACTORS
330
183
102
}
330
183
100
DictionaryVariables
280
     0
  1
80.000000
  0
DICTIONARYVAR
  5
184
102
{ACAD_REACTORS
330
183
102
}
330
183
100
DictionaryVariables
280
     0
  1
5.000000
  0
ENDSEC
  0
EOF
