  0
SECTION
  2
HEADER
  9
$ACADVER
  1
AC1015
  9
$ACADMAINTVER
 70
     6
  9
$DWGCODEPAGE
  3
ANSI_1252
  9
$INSBASE
 10
0.0
 20
0.0
 30
0.0
  9
$EXTMIN
 10
0.0
 20
0.0
 30
0.0
  9
$EXTMAX
 10
297.0
 20
210.0
 30
0.0
  9
$LIMMIN
 10
0.0
 20
0.0
  9
$LIMMAX
 10
297.0
 20
210.0
  9
$ORTHOMODE
 70
     0
  9
$REGENMODE
 70
     1
  9
$FILLMODE
 70
     1
  9
$QTEXTMODE
 70
     0
  9
$MIRRTEXT
 70
     1
  9
$LTSCALE
 40
1.0
  9
$ATTMODE
 70
     1
  9
$TEXTSIZE
 40
2.0
  9
$TRACEWID
 40
1.0
  9
$TEXTSTYLE
  7
Standard
  9
$CLAYER
  8
0
  9
$CELTYPE
  6
ByLayer
  9
$CECOLOR
 62
   256
  9
$CELTSCALE
 40
1.0
  9
$DISPSILH
 70
     0
  9
$DIMSCALE
 40
1.0
  9
$DIMASZ
 40
3.0
  9
$DIMEXO
 40
0.0
  9
$DIMDLI
 40
3.75
  9
$DIMRND
 40
0.0
  9
$DIMDLE
 40
0.0
  9
$DIMEXE
 40
1.0
  9
$DIMTP
 40
0.0
  9
$DIMTM
 40
0.0
  9
$DIMTXT
 40
2.0
  9
$DIMCEN
 40
2.5
  9
$DIMTSZ
 40
0.0
  9
$DIMTOL
 70
     0
  9
$DIMLIM
 70
     0
  9
$DIMTIH
 70
     1
  9
$DIMTOH
 70
     1
  9
$DIMSE1
 70
     0
  9
$DIMSE2
 70
     0
  9
$DIMTAD
 70
     1
  9
$DIMZIN
 70
     0
  9
$DIMBLK
  1

  9
$DIMASO
 70
     1
  9
$DIMSHO
 70
     1
  9
$DIMPOST
  1

  9
$DIMAPOST
  1

  9
$DIMALT
 70
     0
  9
$DIMALTD
 70
     3
  9
$DIMALTF
 40
0.0393700787
  9
$DIMLFAC
 40
1.0
  9
$DIMTOFL
 70
     1
  9
$DIMTVP
 40
0.0
  9
$DIMTIX
 70
     0
  9
$DIMSOXD
 70
     0
  9
$DIMSAH
 70
     0
  9
$DIMBLK1
  1

  9
$DIMBLK2
  1

  9
$DIMSTYLE
  2
ISO-25
  9
$DIMCLRD
 70
     0
  9
$DIMCLRE
 70
     0
  9
$DIMCLRT
 70
     0
  9
$DIMTFAC
 40
1.0
  9
$DIMGAP
 40
1.524
  9
$DIMJUST
 70
     0
  9
$DIMSD1
 70
     0
  9
$DIMSD2
 70
     0
  9
$DIMTOLJ
 70
     0
  9
$DIMTZIN
 70
     0
  9
$DIMALTZ
 70
     0
  9
$DIMALTTZ
 70
     0
  9
$DIMUPT
 70
     0
  9
$DIMDEC
 70
     2
  9
$DIMTDEC
 70
     3
  9
$DIMALTU
 70
     2
  9
$DIMALTTD
 70
     3
  9
$DIMTXSTY
  7
Standard
  9
$DIMAUNIT
 70
     0
  9
$DIMADEC
 70
     2
  9
$DIMALTRND
 40
0.0
  9
$DIMAZIN
 70
     0
  9
$DIMDSEP
 70
    44
  9
$DIMATFIT
 70
     3
  9
$DIMFRAC
 70
     0
  9
$DIMLDRBLK
  1

  9
$DIMLUNIT
 70
     2
  9
$DIMLWD
 70
    -2
  9
$DIMLWE
 70
    -2
  9
$DIMTMOVE
 70
     0
  9
$LUNITS
 70
     2
  9
$LUPREC
 70
     2
  9
$SKETCHINC
 40
1.0
  9
$FILLETRAD
 40
10.0
  9
$AUNITS
 70
     0
  9
$AUPREC
 70
     2
  9
$MENU
  1
.
  9
$ELEVATION
 40
0.0
  9
$PELEVATION
 40
0.0
  9
$THICKNESS
 40
0.0
  9
$LIMCHECK
 70
     0
  9
$CHAMFERA
 40
10.0
  9
$CHAMFERB
 40
10.0
  9
$CHAMFERC
 40
20.0
  9
$CHAMFERD
 40
0.0
  9
$SKPOLY
 70
     0
  9
$TDCREATE
 40
2455672.372893923
  9
$TDUCREATE
 40
2455672.28956059
  9
$TDUPDATE
 40
2455672.372893935
  9
$TDUUPDATE
 40
2455672.289560602
  9
$TDINDWG
 40
0.0000000116
  9
$TDUSRTIMER
 40
0.0000000116
  9
$USRTIMER
 70
     1
  9
$ANGBASE
 50
0.0
  9
$ANGDIR
 70
     0
  9
$PDMODE
 70
     0
  9
$PDSIZE
 40
-1.0
  9
$PLINEWID
 40
0.0
  9
$SPLFRAME
 70
     0
  9
$SPLINETYPE
 70
     6
  9
$SPLINESEGS
 70
     8
  9
$HANDSEED
  5
189
  9
$SURFTAB1
 70
     6
  9
$SURFTAB2
 70
     6
  9
$SURFTYPE
 70
     6
  9
$SURFU
 70
     6
  9
$SURFV
 70
     6
  9
$UCSBASE
  2

  9
$UCSNAME
  2

  9
$UCSORG
 10
0.0
 20
0.0
 30
0.0
  9
$UCSXDIR
 10
1.0
 20
0.0
 30
0.0
  9
$UCSYDIR
 10
0.0
 20
1.0
 30
0.0
  9
$UCSORTHOREF
  2

  9
$UCSORTHOVIEW
 70
     0
  9
$UCSORGTOP
 10
0.0
 20
0.0
 30
0.0
  9
$UCSORGBOTTOM
 10
0.0
 20
0.0
 30
0.0
  9
$UCSORGLEFT
 10
0.0
 20
0.0
 30
0.0
  9
$UCSORGRIGHT
 10
0.0
 20
0.0
 30
0.0
  9
$UCSORGFRONT
 10
0.0
 20
0.0
 30
0.0
  9
$UCSORGBACK
 10
0.0
 20
0.0
 30
0.0
  9
$PUCSBASE
  2

  9
$PUCSNAME
  2

  9
$PUCSORG
 10
0.0
 20
0.0
 30
0.0
  9
$PUCSXDIR
 10
1.0
 20
0.0
 30
0.0
  9
$PUCSYDIR
 10
0.0
 20
1.0
 30
0.0
  9
$PUCSORTHOREF
  2

  9
$PUCSORTHOVIEW
 70
     0
  9
$PUCSORGTOP
 10
0.0
 20
0.0
 30
0.0
  9
$PUCSORGBOTTOM
 10
0.0
 20
0.0
 30
0.0
  9
$PUCSORGLEFT
 10
0.0
 20
0.0
 30
0.0
  9
$PUCSORGRIGHT
 10
0.0
 20
0.0
 30
0.0
  9
$PUCSORGFRONT
 10
0.0
 20
0.0
 30
0.0
  9
$PUCSORGBACK
 10
0.0
 20
0.0
 30
0.0
  9
$USERI1
 70
     0
  9
$USERI2
 70
     0
  9
$USERI3
 70
     0
  9
$USERI4
 70
     0
  9
$USERI5
 70
     0
  9
$USERR1
 40
0.0
  9
$USERR2
 40
0.0
  9
$USERR3
 40
0.0
  9
$USERR4
 40
0.0
  9
$USERR5
 40
0.0
  9
$WORLDVIEW
 70
     1
  9
$SHADEDGE
 70
     3
  9
$SHADEDIF
 70
    70
  9
$TILEMODE
 70
     1
  9
$MAXACTVP
 70
    64
  9
$PINSBASE
 10
0.0
 20
0.0
 30
0.0
  9
$PLIMCHECK
 70
     0
  9
$PEXTMIN
 10
1.0000000000E+20
 20
1.0000000000E+20
 30
1.0000000000E+20
  9
$PEXTMAX
 10
-1.0000000000E+20
 20
-1.0000000000E+20
 30
-1.0000000000E+20
  9
$PLIMMIN
 10
0.0
 20
0.0
  9
$PLIMMAX
 10
420.0
 20
297.0
  9
$UNITMODE
 70
     0
  9
$VISRETAIN
 70
     1
  9
$PLINEGEN
 70
     0
  9
$PSLTSCALE
 70
     1
  9
$TREEDEPTH
 70
  3020
  9
$CMLSTYLE
  2
Standard
  9
$CMLJUST
 70
     0
  9
$CMLSCALE
 40
20.0
  9
$PROXYGRAPHICS
 70
     1
  9
$MEASUREMENT
 70
     1
  9
$CELWEIGHT
370
    -1
  9
$ENDCAPS
280
     0
  9
$JOINSTYLE
280
     0
  9
$LWDISPLAY
290
     1
  9
$INSUNITS
 70
     4
  9
$HYPERLINKBASE
  1

  9
$STYLESHEET
  1

  9
$XEDIT
290
     1
  9
$CEPSNTYPE
380
     0
  9
$PSTYLEMODE
290
     1
  9
$FINGERPRINTGUID
  2
{B91ACD48-01F5-4852-AD4C-79A62E171BDA}
  9
$VERSIONGUID
  2
{FAEB1C32-E019-11D5-929B-00C0DF256EC4}
  9
$EXTNAMES
290
     1
  9
$PSVPSCALE
 40
0.0
  9
$OLESTARTUP
290
     0
  0
ENDSEC
  0
SECTION
  2
CLASSES
  0
CLASS
  1
ACDBDICTIONARYWDFLT
  2
AcDbDictionaryWithDefault
  3
ObjectDBX Classes
 90
        0
280
     0
281
     0
  0
CLASS
  1
VISUALSTYLE
  2
AcDbVisualStyle
  3
ObjectDBX Classes
 90
     4095
280
     0
281
     0
  0
CLASS
  1
DICTIONARYVAR
  2
AcDbDictionaryVar
  3
ObjectDBX Classes
 90
        0
280
     0
281
     0
  0
CLASS
  1
ACDBPLACEHOLDER
  2
AcDbPlaceHolder
  3
ObjectDBX Classes
 90
        0
280
     0
281
     0
  0
CLASS
  1
LAYOUT
  2
AcDbLayout
  3
ObjectDBX Classes
 90
        0
280
     0
281
     0
  0
ENDSEC
  0
SECTION
  2
TABLES
  0
TABLE
  2
VPORT
  5
8
330
0
100
AcDbSymbolTable
 70
     1
  0
VPORT
  5
29
330
8
100
AcDbSymbolTableRecord
100
AcDbViewportTableRecord
  2
*Active
 70
     0
 10
0.0
 20
0.0
 11
1.0
 21
1.0
 12
148.5
 22
105.0
 13
0.0
 23
0.0
 14
10.0
 24
10.0
 15
10.0
 25
10.0
 16
0.0
 26
0.0
 36
1.0
 17
0.0
 27
0.0
 37
0.0
 40
210.0
 41
1.4142857143
 42
50.0
 43
0.0
 44
0.0
 50
0.0
 51
0.0
 71
     0
 72
  2000
 73
     1
 74
     3
 75
     0
 76
     0
 77
     0
 78
     0
281
     0
 65
     1
110
0.0
120
0.0
130
0.0
111
1.0
121
0.0
131
0.0
112
0.0
122
1.0
132
0.0
 79
     0
146
0.0
  0
ENDTAB
  0
TABLE
  2
LTYPE
  5
5
330
0
100
AcDbSymbolTable
 70
     6
  0
LTYPE
  5
14
330
5
100
AcDbSymbolTableRecord
100
AcDbLinetypeTableRecord
  2
ByBlock
 70
     0
  3

 72
    65
 73
     0
 40
0.0
  0
LTYPE
  5
15
330
5
100
AcDbSymbolTableRecord
100
AcDbLinetypeTableRecord
  2
ByLayer
 70
     0
  3

 72
    65
 73
     0
 40
0.0
  0
LTYPE
  5
16
330
5
100
AcDbSymbolTableRecord
100
AcDbLinetypeTableRecord
  2
Continuous
 70
     0
  3
Solid line
 72
    65
 73
     0
 40
0.0
  0
LTYPE
  5
3B
330
5
100
AcDbSymbolTableRecord
100
AcDbLinetypeTableRecord
  2
HIDDEN
 70
     0
  3
Hidden __ __ __ __ __ __ __ __ __ __ __ __ __ __
 72
    65
 73
     2
 40
1.905
 49
1.27
 74
     0
 49
-0.635
 74
     0
  0
LTYPE
  5
3C
330
5
100
AcDbSymbolTableRecord
100
AcDbLinetypeTableRecord
  2
PHANTOM
 70
     0
  3
Phantom ______  __  __  ______  __  __  ______
 72
    65
 73
     6
 40
12.7
 49
6.35
 74
     0
 49
-1.27
 74
     0
 49
1.27
 74
     0
 49
-1.27
 74
     0
 49
1.27
 74
     0
 49
-1.27
 74
     0
  0
LTYPE
  5
3D
330
5
100
AcDbSymbolTableRecord
100
AcDbLinetypeTableRecord
  2
CENTER
 70
     0
  3
Center ____ _ ____ _ ____ _ ____ _ ____ _ ____
 72
    65
 73
     4
 40
10.16
 49
6.35
 74
     0
 49
-1.27
 74
     0
 49
1.27
 74
     0
 49
-1.27
 74
     0
  0
LTYPE
  5
3E
330
5
100
AcDbSymbolTableRecord
100
AcDbLinetypeTableRecord
  2
CENTERX2
 70
     0
  3
Center (2x) ________  __  ________  __  _____
 72
    65
 73
     4
 40
20.32
 49
12.7
 74
     0
 49
-2.54
 74
     0
 49
2.54
 74
     0
 49
-2.54
 74
     0
  0
LTYPE
  5
3F
330
5
100
AcDbSymbolTableRecord
100
AcDbLinetypeTableRecord
  2
DOT2
 70
     0
  3
Dot (.5x) ........................................
 72
    65
 73
     2
 40
0.635
 49
0.0
 74
     0
 49
-0.635
 74
     0
  0
ENDTAB
  0
TABLE
  2
LAYER
  5
2
330
0
100
AcDbSymbolTable
 70
     5
  0
LAYER
  5
10
330
2
100
AcDbSymbolTableRecord
100
AcDbLayerTableRecord
  2
0
 70
     0
 62
     7
  6
Continuous
370
    -3
390
F
  0
LAYER
  5
40
330
2
100
AcDbSymbolTableRecord
100
AcDbLayerTableRecord
  2
FORMAT
 70
     0
 62
     7
  6
Continuous
370
    -3
390
F
  0
LAYER
  5
41
330
2
100
AcDbSymbolTableRecord
100
AcDbLayerTableRecord
  2
VERMASSUNG
 70
     0
 62
     7
  6
Continuous
370
    -3
390
F
  0
LAYER
  5
42
330
2
100
AcDbSymbolTableRecord
100
AcDbLayerTableRecord
  2
KOPF_DÜNN
 70
     0
 62
     7
  6
Continuous
370
    -3
390
F
  0
LAYER
  5
43
330
2
100
AcDbSymbolTableRecord
100
AcDbLayerTableRecord
  2
KOPF_DICK
 70
     0
 62
     7
  6
Continuous
370
    15
390
F
  0
ENDTAB
  0
TABLE
  2
STYLE
  5
3
330
0
100
AcDbSymbolTable
 70
     3
  0
STYLE
  5
11
330
3
100
AcDbSymbolTableRecord
100
AcDbTextStyleTableRecord
  2
Standard
 70
     0
 40
0.0
 41
1.0
 50
0.0
 71
     0
 42
2.5
  3
txt
  4

  0
STYLE
  5
44
330
3
100
AcDbSymbolTableRecord
100
AcDbTextStyleTableRecord
  2
SLDTEXTSTYLE0
 70
     0
 40
0.0
 41
0.7
 50
0.0
 71
     0
 42
0.2
  3
TXT
  4

  0
STYLE
  5
48
330
3
100
AcDbSymbolTableRecord
100
AcDbTextStyleTableRecord
  2
SLDTEXTSTYLE1
 70
     0
 40
0.0
 41
0.6473684211
 50
0.0
 71
     0
 42
0.2
  3
TXT
  4

  0
ENDTAB
  0
TABLE
  2
VIEW
  5
6
330
0
100
AcDbSymbolTable
 70
     0
  0
ENDTAB
  0
TABLE
  2
UCS
  5
7
330
0
100
AcDbSymbolTable
 70
     0
  0
ENDTAB
  0
TABLE
  2
APPID
  5
9
330
0
100
AcDbSymbolTable
 70
     1
  0
APPID
  5
12
330
9
100
AcDbSymbolTableRecord
100
AcDbRegAppTableRecord
  2
ACAD
 70
     0
  0
ENDTAB
  0
TABLE
  2
DIMSTYLE
  5
A
330
0
100
AcDbSymbolTable
 70
     2
100
AcDbDimStyleTable
  0
DIMSTYLE
105
27
330
A
100
AcDbSymbolTableRecord
100
AcDbDimStyleTableRecord
  2
ISO-25
 70
     0
 41
2.5
 42
0.625
 43
3.75
 44
1.25
 73
     0
 74
     0
 77
     1
 78
     8
140
2.5
141
2.5
143
0.0393700787
147
0.625
171
     3
172
     1
271
     2
272
     2
274
     3
278
    44
283
     0
284
     8
340
11
  0
DIMSTYLE
105
141
102
{ACAD_REACTORS
330
140
330
14D
330
157
330
161
330
16B
330
176
102
}
330
A
100
AcDbSymbolTableRecord
100
AcDbDimStyleTableRecord
  2
SLDDIMSTYLE0
 70
     0
 41
3.0
 44
0.0
 45
0.000000001
 73
     0
 74
     0
 77
     1
 78
    12
140
2.0
147
0.5
173
     1
271
     2
272
     3
284
    12
340
44
  0
ENDTAB
  0
TABLE
  2
BLOCK_RECORD
  5
1
330
0
100
AcDbSymbolTable
 70
     7
  0
BLOCK_RECORD
  5
1F
330
1
100
AcDbSymbolTableRecord
100
AcDbBlockTableRecord
  2
*Model_Space
340
22
  0
BLOCK_RECORD
  5
1B
330
1
100
AcDbSymbolTableRecord
100
AcDbBlockTableRecord
  2
*Paper_Space
340
1E
  0
BLOCK_RECORD
  5
23
330
1
100
AcDbSymbolTableRecord
100
AcDbBlockTableRecord
  2
*Paper_Space0
340
26
  0
BLOCK_RECORD
  5
142
330
1
100
AcDbSymbolTableRecord
100
AcDbBlockTableRecord
  2
*D1
340
0
  0
BLOCK_RECORD
  5
14E
330
1
100
AcDbSymbolTableRecord
100
AcDbBlockTableRecord
  2
*D2
340
0
  0
BLOCK_RECORD
  5
158
330
1
100
AcDbSymbolTableRecord
100
AcDbBlockTableRecord
  2
*D3
340
0
  0
BLOCK_RECORD
  5
162
330
1
100
AcDbSymbolTableRecord
100
AcDbBlockTableRecord
  2
*D4
340
0
  0
BLOCK_RECORD
  5
16C
330
1
100
AcDbSymbolTableRecord
100
AcDbBlockTableRecord
  2
*D5
340
0
  0
BLOCK_RECORD
  5
177
330
1
100
AcDbSymbolTableRecord
100
AcDbBlockTableRecord
  2
*D6
340
0
  0
ENDTAB
  0
ENDSEC
  0
SECTION
  2
BLOCKS
  0
BLOCK
  5
20
330
1F
100
AcDbEntity
  8
0
100
AcDbBlockBegin
  2
*Model_Space
 70
     0
 10
0.0
 20
0.0
 30
0.0
  3
*Model_Space
  1

  0
ENDBLK
  5
21
330
1F
100
AcDbEntity
  8
0
100
AcDbBlockEnd
  0
BLOCK
  5
1C
330
1B
100
AcDbEntity
 67
     1
  8
0
100
AcDbBlockBegin
  2
*Paper_Space
 70
     0
 10
0.0
 20
0.0
 30
0.0
  3
*Paper_Space
  1

  0
ENDBLK
  5
1D
330
1B
100
AcDbEntity
 67
     1
  8
0
100
AcDbBlockEnd
  0
BLOCK
  5
24
330
23
100
AcDbEntity
  8
0
100
AcDbBlockBegin
  2
*Paper_Space0
 70
     0
 10
0.0
 20
0.0
 30
0.0
  3
*Paper_Space0
  1

  0
ENDBLK
  5
25
330
23
100
AcDbEntity
  8
0
100
AcDbBlockEnd
  0
BLOCK
  5
143
330
142
100
AcDbEntity
  8
0
100
AcDbBlockBegin
  2
*D1
 70
     1
 10
0.0
 20
0.0
 30
0.0
  3
*D1
  1

  0
SOLID
  5
145
330
142
100
AcDbEntity
  8
VERMASSUNG
100
AcDbTrace
 10
82.6724253106
 20
146.0175318854
 30
0.0
 11
82.2224253106
 21
143.0175318854
 31
0.0
 12
83.1224253106
 22
143.0175318854
 32
0.0
 13
83.1224253106
 23
143.0175318854
 33
0.0
  0
SOLID
  5
146
330
142
100
AcDbEntity
  8
VERMASSUNG
100
AcDbTrace
 10
82.6724253106
 20
83.0175318854
 30
0.0
 11
83.1224253106
 21
86.0175318854
 31
0.0
 12
82.2224253106
 22
86.0175318854
 32
0.0
 13
82.2224253106
 23
86.0175318854
 33
0.0
  0
LINE
  5
147
330
142
100
AcDbEntity
  8
VERMASSUNG
100
AcDbLine
 10
121.1950428391
 20
146.0175318854
 30
0.0
 11
81.6724253106
 21
146.0175318854
 31
0.0
  0
LINE
  5
148
330
142
100
AcDbEntity
  8
VERMASSUNG
100
AcDbLine
 10
121.1950428391
 20
83.0175318854
 30
0.0
 11
81.6724253106
 21
83.0175318854
 31
0.0
  0
LINE
  5
149
330
142
100
AcDbEntity
  8
VERMASSUNG
100
AcDbLine
 10
82.6724253106
 20
146.0175318854
 30
0.0
 11
82.6724253106
 21
83.0175318854
 31
0.0
  0
MTEXT
  5
14A
330
142
100
AcDbEntity
  8
VERMASSUNG
100
AcDbMText
 10
79.8942898215
 20
106.9697659421
 30
0.0
 40
2.0
 41
0.0
 71
     1
 72
     1
  1
HSK A
  7
SLDTEXTSTYLE0
 11
-7.044195017643634E-15
 21
1.0
 31
0.0
 73
     1
 44
1.0
  0
MTEXT
  5
14B
330
142
100
AcDbEntity
  8
VERMASSUNG
100
AcDbMText
 10
80.094289831
 20
114.7697661962
 30
0.0
 40
2.0
 41
0.0
 71
     1
 72
     1
  1
%%c
  7
SLDTEXTSTYLE0
 11
-7.044195017643634E-15
 21
1.0
 31
0.0
 73
     1
 44
1.0
  0
MTEXT
  5
14C
330
142
100
AcDbEntity
  8
VERMASSUNG
100
AcDbMText
 10
80.0942899475
 20
118.3782946528
 30
0.0
 40
2.0
 41
0.0
 71
     1
 72
     1
  1
63
  7
SLDTEXTSTYLE0
 11
-7.044195017643634E-15
 21
1.0
 31
0.0
 73
     1
 44
1.0
  0
ENDBLK
  5
144
330
142
100
AcDbEntity
  8
0
100
AcDbBlockEnd
  0
BLOCK
  5
14F
330
14E
100
AcDbEntity
  8
0
100
AcDbBlockBegin
  2
*D2
 70
     1
 10
0.0
 20
0.0
 30
0.0
  3
*D2
  1

  0
SOLID
  5
151
330
14E
100
AcDbEntity
  8
VERMASSUNG
100
AcDbTrace
 10
185.8950428391
 20
151.423529335
 30
0.0
 11
182.8950428391
 21
151.873529335
 31
0.0
 12
182.8950428391
 22
150.973529335
 32
0.0
 13
182.8950428391
 23
150.973529335
 33
0.0
  0
SOLID
  5
152
330
14E
100
AcDbEntity
  8
VERMASSUNG
100
AcDbTrace
 10
146.8450428391
 20
151.423529335
 30
0.0
 11
149.8450428391
 21
150.973529335
 31
0.0
 12
149.8450428391
 22
151.873529335
 32
0.0
 13
149.8450428391
 23
151.873529335
 33
0.0
  0
LINE
  5
153
330
14E
100
AcDbEntity
  8
VERMASSUNG
100
AcDbLine
 10
185.8950428391
 20
125.7433913637
 30
0.0
 11
185.8950428391
 21
152.423529335
 31
0.0
  0
LINE
  5
154
330
14E
100
AcDbEntity
  8
VERMASSUNG
100
AcDbLine
 10
146.8450428391
 20
144.3639722091
 30
0.0
 11
146.8450428391
 21
152.423529335
 31
0.0
  0
LINE
  5
155
330
14E
100
AcDbEntity
  8
VERMASSUNG
100
AcDbLine
 10
185.8950428391
 20
151.423529335
 30
0.0
 11
146.8450428391
 21
151.423529335
 31
0.0
  0
MTEXT
  5
156
330
14E
100
AcDbEntity
  8
VERMASSUNG
100
AcDbMText
 10
161.2564419715
 20
154.0016646981
 30
0.0
 40
2.0
 41
0.0
 71
     1
 72
     1
  1
39.05
  7
SLDTEXTSTYLE0
 73
     1
 44
1.0
  0
ENDBLK
  5
150
330
14E
100
AcDbEntity
  8
0
100
AcDbBlockEnd
  0
BLOCK
  5
159
330
158
100
AcDbEntity
  8
0
100
AcDbBlockBegin
  2
*D3
 70
     1
 10
0.0
 20
0.0
 30
0.0
  3
*D3
  1

  0
SOLID
  5
15B
330
158
100
AcDbEntity
  8
VERMASSUNG
100
AcDbTrace
 10
185.8950428391
 20
157.423529335
 30
0.0
 11
182.8950428391
 21
157.873529335
 31
0.0
 12
182.8950428391
 22
156.973529335
 32
0.0
 13
182.8950428391
 23
156.973529335
 33
0.0
  0
SOLID
  5
15C
330
158
100
AcDbEntity
  8
VERMASSUNG
100
AcDbTrace
 10
120.8950428391
 20
157.423529335
 30
0.0
 11
123.8950428391
 21
156.973529335
 31
0.0
 12
123.8950428391
 22
157.873529335
 32
0.0
 13
123.8950428391
 23
157.873529335
 33
0.0
  0
LINE
  5
15D
330
158
100
AcDbEntity
  8
VERMASSUNG
100
AcDbLine
 10
185.8950428391
 20
125.7433913637
 30
0.0
 11
185.8950428391
 21
158.423529335
 31
0.0
  0
LINE
  5
15E
330
158
100
AcDbEntity
  8
VERMASSUNG
100
AcDbLine
 10
120.8950428391
 20
145.7175318854
 30
0.0
 11
120.8950428391
 21
158.423529335
 31
0.0
  0
LINE
  5
15F
330
158
100
AcDbEntity
  8
VERMASSUNG
100
AcDbLine
 10
185.8950428391
 20
157.423529335
 30
0.0
 11
120.8950428391
 21
157.423529335
 31
0.0
  0
MTEXT
  5
160
330
158
100
AcDbEntity
  8
VERMASSUNG
100
AcDbMText
 10
151.1460027628
 20
160.0016646981
 30
0.0
 40
2.0
 41
0.0
 71
     1
 72
     1
  1
65
  7
SLDTEXTSTYLE0
 73
     1
 44
1.0
  0
ENDBLK
  5
15A
330
158
100
AcDbEntity
  8
0
100
AcDbBlockEnd
  0
BLOCK
  5
163
330
162
100
AcDbEntity
  8
0
100
AcDbBlockBegin
  2
*D4
 70
     1
 10
0.0
 20
0.0
 30
0.0
  3
*D4
  1

  0
SOLID
  5
165
330
162
100
AcDbEntity
  8
VERMASSUNG
100
AcDbTrace
 10
185.8950428391
 20
163.423529335
 30
0.0
 11
182.8950428391
 21
163.873529335
 31
0.0
 12
182.8950428391
 22
162.973529335
 32
0.0
 13
182.8950428391
 23
162.973529335
 33
0.0
  0
SOLID
  5
166
330
162
100
AcDbEntity
  8
VERMASSUNG
100
AcDbTrace
 10
88.9950428391
 20
163.423529335
 30
0.0
 11
91.9950428391
 21
162.973529335
 31
0.0
 12
91.9950428391
 22
163.873529335
 32
0.0
 13
91.9950428391
 23
163.873529335
 33
0.0
  0
LINE
  5
167
330
162
100
AcDbEntity
  8
VERMASSUNG
100
AcDbLine
 10
185.8950428391
 20
125.7433913637
 30
0.0
 11
185.8950428391
 21
164.423529335
 31
0.0
  0
LINE
  5
168
330
162
100
AcDbEntity
  8
VERMASSUNG
100
AcDbLine
 10
88.9950428391
 20
134.2082096318
 30
0.0
 11
88.9950428391
 21
164.423529335
 31
0.0
  0
LINE
  5
169
330
162
100
AcDbEntity
  8
VERMASSUNG
100
AcDbLine
 10
185.8950428391
 20
163.423529335
 30
0.0
 11
88.9950428391
 21
163.423529335
 31
0.0
  0
MTEXT
  5
16A
330
162
100
AcDbEntity
  8
VERMASSUNG
100
AcDbMText
 10
132.9451621024
 20
166.0016646981
 30
0.0
 40
2.0
 41
0.0
 71
     1
 72
     1
  1
96.9
  7
SLDTEXTSTYLE0
 73
     1
 44
1.0
  0
ENDBLK
  5
164
330
162
100
AcDbEntity
  8
0
100
AcDbBlockEnd
  0
BLOCK
  5
16D
330
16C
100
AcDbEntity
  8
0
100
AcDbBlockBegin
  2
*D5
 70
     1
 10
0.0
 20
0.0
 30
0.0
  3
*D5
  1

  0
SOLID
  5
16F
330
16C
100
AcDbEntity
  8
VERMASSUNG
100
AcDbTrace
 10
193.3073483175
 20
119.5175318854
 30
0.0
 11
192.8573483175
 21
116.5175318854
 31
0.0
 12
193.7573483175
 22
116.5175318854
 32
0.0
 13
193.7573483175
 23
116.5175318854
 33
0.0
  0
SOLID
  5
170
330
16C
100
AcDbEntity
  8
VERMASSUNG
100
AcDbTrace
 10
193.3073483175
 20
109.5175318854
 30
0.0
 11
193.7573483175
 21
112.5175318854
 31
0.0
 12
192.8573483175
 22
112.5175318854
 32
0.0
 13
192.8573483175
 23
112.5175318854
 33
0.0
  0
LINE
  5
171
330
16C
100
AcDbEntity
  8
VERMASSUNG
100
AcDbLine
 10
185.5950428391
 20
119.5175318854
 30
0.0
 11
194.3073483175
 21
119.5175318854
 31
0.0
  0
LINE
  5
172
330
16C
100
AcDbEntity
  8
VERMASSUNG
100
AcDbLine
 10
185.5950428391
 20
109.5175318854
 30
0.0
 11
194.3073483175
 21
109.5175318854
 31
0.0
  0
LINE
  5
173
330
16C
100
AcDbEntity
  8
VERMASSUNG
100
AcDbLine
 10
193.3073483175
 20
119.5175318854
 30
0.0
 11
193.3073483175
 21
109.5175318854
 31
0.0
  0
MTEXT
  5
174
330
16C
100
AcDbEntity
  8
VERMASSUNG
100
AcDbMText
 10
190.7292128379
 20
111.272496677
 30
0.0
 40
2.0
 41
0.0
 71
     1
 72
     1
  1
%%c
  7
SLDTEXTSTYLE0
 11
-7.044195017643634E-15
 21
1.0
 31
0.0
 73
     1
 44
1.0
  0
MTEXT
  5
175
330
16C
100
AcDbEntity
  8
VERMASSUNG
100
AcDbMText
 10
190.7292129543
 20
114.8811749002
 30
0.0
 40
2.0
 41
0.0
 71
     1
 72
     1
  1
10
  7
SLDTEXTSTYLE0
 11
-7.044195017643634E-15
 21
1.0
 31
0.0
 73
     1
 44
1.0
  0
ENDBLK
  5
16E
330
16C
100
AcDbEntity
  8
0
100
AcDbBlockEnd
  0
BLOCK
  5
178
330
177
100
AcDbEntity
  8
0
100
AcDbBlockBegin
  2
*D6
 70
     1
 10
0.0
 20
0.0
 30
0.0
  3
*D6
  1

  0
SOLID
  5
17A
330
177
100
AcDbEntity
  8
VERMASSUNG
100
AcDbTrace
 10
199.3073483175
 20
132.0175318854
 30
0.0
 11
198.8573483175
 21
129.0175318854
 31
0.0
 12
199.7573483175
 22
129.0175318854
 32
0.0
 13
199.7573483175
 23
129.0175318854
 33
0.0
  0
SOLID
  5
17B
330
177
100
AcDbEntity
  8
VERMASSUNG
100
AcDbTrace
 10
199.3073483175
 20
97.0175318854
 30
0.0
 11
199.7573483175
 21
100.0175318854
 31
0.0
 12
198.8573483175
 22
100.0175318854
 32
0.0
 13
198.8573483175
 23
100.0175318854
 33
0.0
  0
LINE
  5
17C
330
177
100
AcDbEntity
  8
VERMASSUNG
100
AcDbLine
 10
175.1725082366
 20
132.0175318854
 30
0.0
 11
200.3073483175
 21
132.0175318854
 31
0.0
  0
LINE
  5
17D
330
177
100
AcDbEntity
  8
VERMASSUNG
100
AcDbLine
 10
175.1725082366
 20
97.0175318854
 30
0.0
 11
200.3073483175
 21
97.0175318854
 31
0.0
  0
LINE
  5
17E
330
177
100
AcDbEntity
  8
VERMASSUNG
100
AcDbLine
 10
199.3073483175
 20
132.0175318854
 30
0.0
 11
199.3073483175
 21
97.0175318854
 31
0.0
  0
MTEXT
  5
17F
330
177
100
AcDbEntity
  8
VERMASSUNG
100
AcDbMText
 10
196.7292128379
 20
111.0729170454
 30
0.0
 40
2.0
 41
0.0
 71
     1
 72
     1
  1
%%c
  7
SLDTEXTSTYLE0
 11
-7.044195017643634E-15
 21
1.0
 31
0.0
 73
     1
 44
1.0
  0
MTEXT
  5
180
330
177
100
AcDbEntity
  8
VERMASSUNG
100
AcDbMText
 10
196.7292129543
 20
114.6815952686
 30
0.0
 40
2.0
 41
0.0
 71
     1
 72
     1
  1
35
  7
SLDTEXTSTYLE0
 11
-7.044195017643634E-15
 21
1.0
 31
0.0
 73
     1
 44
1.0
  0
ENDBLK
  5
179
330
177
100
AcDbEntity
  8
0
100
AcDbBlockEnd
  0
ENDSEC
  0
SECTION
  2
ENTITIES
  0
MTEXT
  5
45
330
1F
100
AcDbEntity
  8
KOPF_DÜNN
100
AcDbMText
 10
13.8892156294
 20
23.8442973028
 30
0.0
 40
3.0
 41
0.0
 71
     1
 72
     1
  1
HA6.W10.K01.065
  7
SLDTEXTSTYLE0
 73
     1
 44
1.0
  0
MTEXT
  5
46
330
1F
100
AcDbEntity
  8
VERMASSUNG
100
AcDbMText
 10
13.9329988022
 20
28.8834360957
 30
0.0
 40
3.0
 41
0.0
 71
     1
 72
     1
  1
Flächenspannfutter_End mill adapter Weldon ø10
  7
SLDTEXTSTYLE0
 73
     1
 44
1.0
  0
MTEXT
  5
47
330
1F
100
AcDbEntity
  8
VERMASSUNG
100
AcDbMText
 10
98.8601118557
 20
13.8365368179
 30
0.0
 40
2.0
 41
0.0
 71
     1
 72
     1
  1
Datum: 25.04.2006
  7
SLDTEXTSTYLE0
 73
     1
 44
1.0
  0
MTEXT
  5
49
330
1F
100
AcDbEntity
  8
VERMASSUNG
100
AcDbMText
 10
13.933048693
 20
18.0482802738
 30
0.0
 40
2.0
 41
0.0
 71
     1
 72
     1
  1
DIN 69 893 HSK A 63
  7
SLDTEXTSTYLE1
 73
     1
 44
1.0
  0
MTEXT
  5
4A
330
1F
100
AcDbEntity
  8
VERMASSUNG
100
AcDbMText
 10
13.9808475933
 20
13.9090973692
 30
0.0
 40
2.0
 41
0.0
 71
     1
 72
     1
  1
Gewicht: 884g
  7
SLDTEXTSTYLE0
 73
     1
 44
1.0
  0
LINE
  5
4B
330
1F
100
AcDbEntity
  8
0
  6
Continuous
 62
     7
370
    15
100
AcDbLine
 10
121.1950428391
 20
83.0175318854
 30
0.0
 11
125.8450428391
 21
83.0175318854
 31
0.0
  0
LINE
  5
4C
330
1F
100
AcDbEntity
  8
0
  6
Continuous
 62
     7
370
    15
100
AcDbLine
 10
125.8730311982
 20
146.0175318854
 30
0.0
 11
121.1950428391
 21
146.0175318854
 31
0.0
  0
ARC
  5
4D
330
1F
100
AcDbEntity
  8
0
  6
Continuous
 62
     7
370
    15
100
AcDbCircle
 10
121.1950428391
 20
83.3175318854
 30
0.0
 40
0.3000000000000114
100
AcDbArc
 50
180.0
 51
270.0
  0
ARC
  5
4E
330
1F
100
AcDbEntity
  8
0
  6
Continuous
 62
     7
370
    15
100
AcDbCircle
 10
121.1950428391
 20
145.7175318854
 30
0.0
 40
0.3000000000000398
100
AcDbArc
 50
90.0
 51
180.0
  0
ARC
  5
4F
330
1F
100
AcDbEntity
  8
0
  6
Continuous
 62
     7
370
    15
100
AcDbCircle
 10
120.3950360864
 20
89.947094271
 30
0.0
 40
0.6000067526677242
100
AcDbArc
 50
33.5571153394
 51
90.0
  0
ARC
  5
50
330
1F
100
AcDbEntity
  8
0
  6
Continuous
 62
     7
370
    15
100
AcDbCircle
 10
120.3950360864
 20
139.0879694997
 30
0.0
 40
0.6000067526677321
100
AcDbArc
 50
270.0
 51
326.4428846606
  0
LINE
  5
51
330
1F
100
AcDbEntity
  8
0
  6
Continuous
 62
     7
370
    15
100
AcDbLine
 10
118.8950428391
 20
90.2971010236
 30
0.0
 11
119.7517556125
 21
90.5266565194
 31
0.0
  0
LINE
  5
52
330
1F
100
AcDbEntity
  8
0
  6
Continuous
 62
     7
370
    15
100
AcDbLine
 10
119.7517556125
 20
138.5084072513
 30
0.0
 11
118.8950428391
 21
138.7379627471
 31
0.0
  0
LINE
  5
53
330
1F
100
AcDbEntity
  8
0
  6
Continuous
 62
     7
370
    15
100
AcDbLine
 10
107.6635340403
 20
138.1752619055
 30
0.0
 11
95.0950428391
 21
137.5455779775
 31
0.0
  0
LINE
  5
54
330
1F
100
AcDbEntity
  8
0
  6
Continuous
 62
     7
370
    15
100
AcDbLine
 10
118.8950428391
 20
138.7379627471
 30
0.0
 11
116.0780411818
 21
138.5968303995
 31
0.0
  0
LINE
  5
55
330
1F
100
AcDbEntity
  8
0
  6
Continuous
 62
     7
370
    15
100
AcDbLine
 10
116.0780972718
 20
90.4382305611
 30
0.0
 11
118.8950428391
 21
90.2971010236
 31
0.0
  0
LINE
  5
56
330
1F
100
AcDbEntity
  8
0
  6
Continuous
 62
     7
370
    15
100
AcDbLine
 10
99.0950428391
 20
91.2890849916
 30
0.0
 11
107.663936559
 21
90.859781699
 31
0.0
  0
ARC
  5
57
330
1F
100
AcDbEntity
  8
0
  6
Continuous
 62
     7
370
    15
100
AcDbCircle
 10
119.9070470395
 20
89.9471010236
 30
0.0
 40
0.6000000000000071
100
AcDbArc
 50
90.0
 51
105.0
  0
ARC
  5
58
330
1F
100
AcDbEntity
  8
0
  6
Continuous
 62
     7
370
    15
100
AcDbCircle
 10
119.9070470395
 20
139.0879627471
 30
0.0
 40
0.5999999999999943
100
AcDbArc
 50
255.0
 51
270.0
  0
LINE
  5
59
330
1F
100
AcDbEntity
  8
0
  6
Continuous
 62
     7
370
    15
100
AcDbLine
 10
119.9070470395
 20
90.5471010236
 30
0.0
 11
120.3950360864
 21
90.5471010236
 31
0.0
  0
LINE
  5
5A
330
1F
100
AcDbEntity
  8
0
  6
Continuous
 62
     7
370
    15
100
AcDbLine
 10
120.3950360864
 20
138.4879627471
 30
0.0
 11
119.9070470395
 21
138.4879627471
 31
0.0
  0
ARC
  5
5B
330
1F
100
AcDbEntity
  8
0
  6
Continuous
 62
     7
370
    15
100
AcDbCircle
 10
149.8450428391
 20
94.0175318854
 30
0.0
 40
3.0
100
AcDbArc
 50
90.0
 51
180.0
  0
ARC
  5
5C
330
1F
100
AcDbEntity
  8
0
  6
Continuous
 62
     7
370
    15
100
AcDbCircle
 10
149.8450428391
 20
135.0175318854
 30
0.0
 40
3.0
100
AcDbArc
 50
191.5742578494
 51
270.0
  0
LINE
  5
5D
330
1F
100
AcDbEntity
  8
0
  6
Continuous
 62
     7
370
    15
100
AcDbLine
 10
149.8450428391
 20
97.0175318854
 30
0.0
 11
175.1725082366
 21
97.0175318854
 31
0.0
  0
LINE
  5
5E
330
1F
100
AcDbEntity
  8
0
  6
Continuous
 62
     7
370
    15
100
AcDbLine
 10
175.1725082366
 20
132.0175318854
 30
0.0
 11
149.8450428391
 21
132.0175318854
 31
0.0
  0
LINE
  5
5F
330
1F
100
AcDbEntity
  8
0
  6
Continuous
 62
     7
370
    15
100
AcDbLine
 10
175.1725082366
 20
97.0175318854
 30
0.0
 11
184.7402793626
 21
101.4790568329
 31
0.0
  0
LINE
  5
60
330
1F
100
AcDbEntity
  8
0
  6
Continuous
 62
     7
370
    15
100
AcDbLine
 10
184.7402793626
 20
127.5560069378
 30
0.0
 11
175.1725082366
 21
132.0175318854
 31
0.0
  0
ARC
  5
61
330
1F
100
AcDbEntity
  8
0
  6
Continuous
 62
     7
370
    15
100
AcDbCircle
 10
183.8950428391
 20
103.291672407
 30
0.0
 40
2.000000000000001
100
AcDbArc
 50
295.0
 51
0.0
  0
ARC
  5
62
330
1F
100
AcDbEntity
  8
0
  6
Continuous
 62
     7
370
    15
100
AcDbCircle
 10
183.8950428391
 20
125.7433913637
 30
0.0
 40
2.000000000000001
100
AcDbArc
 50
0.0
 51
65.0
  0
LINE
  5
63
330
1F
100
AcDbEntity
  8
0
  6
Continuous
 62
     7
370
    15
100
AcDbLine
 10
90.2783794791
 20
93.6475318854
 30
0.0
 11
97.6950428391
 21
93.6475318854
 31
0.0
  0
ARC
  5
64
330
1F
100
AcDbEntity
  8
0
  6
Continuous
 62
     7
370
    15
100
AcDbCircle
 10
97.6950428391
 20
92.2475318854
 30
0.0
 40
1.400000000000006
100
AcDbArc
 50
42.2465410162
 51
90.0
  0
LINE
  5
65
330
1F
100
AcDbEntity
  8
0
  6
Continuous
 62
     7
370
    15
100
AcDbLine
 10
88.9960753333
 20
94.7964993912
 30
0.0
 11
90.1362062973
 21
93.6563684272
 31
0.0
  0
LINE
  5
66
330
1F
100
AcDbEntity
  8
0
  6
Continuous
 62
     7
370
    15
100
AcDbLine
 10
90.1362062973
 20
135.3786953435
 30
0.0
 11
89.0049436125
 21
134.2474326587
 31
0.0
  0
ARC
  5
67
330
1F
100
AcDbEntity
  8
0
  6
Continuous
 62
     7
370
    15
100
AcDbCircle
 10
93.6950428391
 20
136.7875318854
 30
0.0
 40
1.400000000000008
100
AcDbArc
 50
270.0
 51
301.7485287426
  0
LINE
  5
68
330
1F
100
AcDbEntity
  8
0
  6
Continuous
 62
     7
370
    15
100
AcDbLine
 10
93.6950428391
 20
135.3875318854
 30
0.0
 11
90.269308573
 21
135.3875318854
 31
0.0
  0
CIRCLE
  5
69
330
1F
100
AcDbEntity
  8
0
  6
Continuous
 62
     7
370
    15
100
AcDbCircle
 10
166.3950428391
 20
114.5175318854
 30
0.0
 40
4.19999999999999
  0
LINE
  5
6A
330
1F
100
AcDbEntity
  8
0
  6
Continuous
 62
     7
370
    15
100
AcDbLine
 10
169.2377773183
 20
115.019721107
 30
0.0
 11
167.3815014552
 21
117.2305067714
 31
0.0
  0
LINE
  5
6B
330
1F
100
AcDbEntity
  8
0
  6
Continuous
 62
     7
370
    15
100
AcDbLine
 10
169.2377773183
 20
115.019721107
 30
0.0
 11
168.2513187022
 21
112.306746221
 31
0.0
  0
LINE
  5
6C
330
1F
100
AcDbEntity
  8
0
  6
Continuous
 62
     7
370
    15
100
AcDbLine
 10
164.538766976
 20
116.7283175497
 30
0.0
 11
167.3815014552
 21
117.2305067714
 31
0.0
  0
LINE
  5
6D
330
1F
100
AcDbEntity
  8
0
  6
Continuous
 62
     7
370
    15
100
AcDbLine
 10
163.5523083599
 20
114.0153426637
 30
0.0
 11
165.408584223
 21
111.8045569994
 31
0.0
  0
LINE
  5
6E
330
1F
100
AcDbEntity
  8
0
  6
Continuous
 62
     7
370
    15
100
AcDbLine
 10
164.538766976
 20
116.7283175497
 30
0.0
 11
163.5523083599
 21
114.0153426637
 31
0.0
  0
LINE
  5
6F
330
1F
100
AcDbEntity
  8
0
  6
Continuous
 62
     7
370
    15
100
AcDbLine
 10
168.2513187022
 20
112.306746221
 30
0.0
 11
165.408584223
 21
111.8045569994
 31
0.0
  0
LINE
  5
70
330
1F
100
AcDbEntity
  8
0
  6
Continuous
 62
     7
370
    15
100
AcDbLine
 10
146.2450428391
 20
84.3306141891
 30
0.0
 11
142.2869756706
 21
84.3306141891
 31
0.0
  0
LINE
  5
71
330
1F
100
AcDbEntity
  8
0
  6
Continuous
 62
     7
370
    15
100
AcDbLine
 10
142.2869756706
 20
84.3306141891
 30
0.0
 11
142.2869756706
 21
134.3675318854
 31
0.0
  0
LINE
  5
72
330
1F
100
AcDbEntity
  8
0
  6
Continuous
 62
     7
370
    15
100
AcDbLine
 10
142.2869756706
 20
134.3675318854
 30
0.0
 11
146.2450428391
 21
134.3675318854
 31
0.0
  0
LINE
  5
73
330
1F
100
AcDbEntity
  8
0
  6
Continuous
 62
     7
370
    15
100
AcDbLine
 10
146.8450428391
 20
84.9572544848
 30
0.0
 11
146.8450428391
 21
134.3675318854
 31
0.0
  0
SPLINE
  5
74
330
1F
100
AcDbEntity
  8
0
  6
Continuous
 62
     7
370
    15
100
AcDbSpline
210
0.0
220
0.0
230
1.0
 70
     8
 71
     3
 72
    10
 73
     6
 74
     0
 42
0.00000001
 43
0.00000001
 40
0.0
 40
0.0
 40
0.0
 40
0.0
 40
0.5
 40
0.5
 40
1.0
 40
1.0
 40
1.0
 40
1.0
 10
146.8450428390997
 20
84.95725448476452
 30
0.0
 10
146.8450428390997
 20
84.79736721657086
 30
0.0
 10
146.7837331878639
 20
84.63623996105625
 30
0.0
 10
146.5646335503288
 20
84.40214096270142
 30
0.0
 10
146.4065853440154
 20
84.3306141891102
 30
0.0
 10
146.2450428390998
 20
84.3306141891102
 30
0.0
  0
SPLINE
  5
75
330
1F
100
AcDbEntity
  8
0
  6
Continuous
 62
     7
370
    15
100
AcDbSpline
210
0.0
220
0.0
230
1.0
 70
    24
 71
     3
 72
    12
 73
     8
 74
     0
 42
0.00000001
 43
0.00000001
 40
0.0
 40
0.0
 40
0.0
 40
0.0
 40
0.250000000000002
 40
0.250000000000002
 40
0.500000000000004
 40
0.500000000000004
 40
1.0
 40
1.0
 40
1.0
 40
1.0
 10
146.2450428390997
 20
134.3675318853574
 30
0.0
 10
146.3352819067868
 20
134.3675318853574
 30
0.0
 10
146.4261800208933
 20
134.3675318853574
 30
0.0
 10
146.5807770573818
 20
134.3675318853574
 30
0.0
 10
146.6457554734899
 20
134.3675318853574
 30
0.0
 10
146.7975905014262
 20
134.3675318853574
 30
0.0
 10
146.8450428390997
 20
134.3675318853574
 30
0.0
 10
146.8450428390997
 20
134.3675318853574
 30
0.0
  0
LINE
  5
76
330
1F
100
AcDbEntity
  8
0
  6
Continuous
 62
     7
370
    15
100
AcDbLine
 10
125.8450428391
 20
134.3675318854
 30
0.0
 11
135.5031100076
 21
134.3675318854
 31
0.0
  0
LINE
  5
77
330
1F
100
AcDbEntity
  8
0
  6
Continuous
 62
     7
370
    15
100
AcDbLine
 10
135.5031100076
 20
84.3306141891
 30
0.0
 11
135.5031100076
 21
134.3675318854
 31
0.0
  0
LINE
  5
78
330
1F
100
AcDbEntity
  8
0
  6
Continuous
 62
     7
370
    15
100
AcDbLine
 10
135.5031100076
 20
84.3306141891
 30
0.0
 11
133.8450428391
 21
84.3306141891
 31
0.0
  0
SPLINE
  5
79
330
1F
100
AcDbEntity
  8
0
  6
Continuous
 62
     7
370
    15
100
AcDbSpline
210
0.0
220
0.0
230
1.0
 70
     8
 71
     3
 72
    28
 73
    24
 74
     0
 42
0.00000001
 43
0.00000001
 40
0.0
 40
0.0
 40
0.0
 40
0.0
 40
0.1249999999999999
 40
0.1249999999999999
 40
0.1874999999999998
 40
0.1874999999999998
 40
0.2499999999999997
 40
0.2499999999999997
 40
0.3749999999999993
 40
0.3749999999999993
 40
0.4374999999999993
 40
0.4374999999999993
 40
0.4999999999999992
 40
0.4999999999999992
 40
0.6249999999999992
 40
0.6249999999999992
 40
0.7499999999999992
 40
0.7499999999999992
 40
0.8124999999999993
 40
0.8124999999999993
 40
0.8749999999999996
 40
0.8749999999999996
 40
1.0
 40
1.0
 40
1.0
 40
1.0
 10
133.8450428390998
 20
84.3306141891102
 30
0.0
 10
133.3133350816068
 20
84.3306141891102
 30
0.0
 10
132.7910965162965
 20
84.31482947515997
 30
0.0
 10
132.0212260300215
 20
84.26983406108378
 30
0.0
 10
131.7668664578301
 20
84.25127906600804
 30
0.0
 10
131.2627448771316
 20
84.20742634356155
 30
0.0
 10
131.0130220597037
 20
84.18208173660935
 30
0.0
 10
130.2874321082573
 20
84.09867965885924
 30
0.0
 10
129.8290718466758
 20
84.03281409970816
 30
0.0
 10
129.1785739032819
 20
83.92384375921638
 30
0.0
 10
128.9668918524894
 20
83.88560412344972
 30
0.0
 10
128.5628203633514
 20
83.80784538603037
 30
0.0
 10
128.3703138495306
 20
83.76834442385503
 30
0.0
 10
127.8204788785093
 20
83.64943668148901
 30
0.0
 10
127.4905501002005
 20
83.56961900006439
 30
0.0
 10
126.9060788316318
 20
83.41627583826835
 30
0.0
 10
126.6598016936183
 20
83.34494208499908
 30
0.0
 10
126.3599589009203
 20
83.25099857792446
 30
0.0
 10
126.2715020438481
 20
83.22180478456454
 30
0.0
 10
126.118140690543
 20
83.16833821030113
 30
0.0
 10
126.0530524763167
 20
83.14397887602595
 30
0.0
 10
125.8974584603759
 20
83.0803887305812
 30
0.0
 10
125.8450428390997
 20
83.05028579549194
 30
0.0
 10
125.8450428390997
 20
83.03340890249503
 30
0.0
  0
LINE
  5
7A
330
1F
100
AcDbEntity
  8
0
  6
Continuous
 62
     7
370
    15
100
AcDbLine
 10
125.8450428391
 20
83.0334089025
 30
0.0
 11
125.8450428391
 21
83.0175318854
 31
0.0
  0
SPLINE
  5
7B
330
1F
100
AcDbEntity
  8
0
  6
Continuous
 62
     7
370
    15
100
AcDbSpline
210
0.0
220
0.0
230
1.0
 70
     8
 71
     3
 72
    17
 73
    13
 74
     0
 42
0.00000001
 43
0.00000001
 40
0.0
 40
0.0
 40
0.0
 40
0.0
 40
0.1034796923964057
 40
0.210023918880785
 40
0.3134862136955584
 40
0.4198361274354883
 40
0.5254127712915682
 40
0.6339610695419791
 40
0.7409508756305032
 40
0.8511696089308174
 40
0.9558996534551938
 40
0.9999999999999999
 40
0.9999999999999999
 40
0.9999999999999999
 40
0.9999999999999999
 10
133.8450428390998
 20
144.9847273585216
 30
0.0
 10
133.4097944899897
 20
144.9901755550549
 30
0.0
 10
132.5264079834247
 20
145.0012332955667
 30
0.0
 10
131.2455803981961
 20
145.0875916884683
 30
0.0
 10
130.028163862322
 20
145.2154618650061
 30
0.0
 10
128.9203580100755
 20
145.3744071635992
 30
0.0
 10
127.9321192061273
 20
145.5489008513148
 30
0.0
 10
127.1073956485957
 20
145.7180667019547
 30
0.0
 10
126.4584421479364
 20
145.8659504844831
 30
0.0
 10
126.0414073324747
 20
145.9677410687138
 30
0.0
 10
125.8428106195102
 20
146.018092591317
 30
0.0
 10
125.8661233409435
 20
146.0121869070947
 30
0.0
 10
125.873031198181
 20
146.0104369774001
 30
0.0
  0
LINE
  5
7C
330
1F
100
AcDbEntity
  8
0
  6
Continuous
 62
     7
370
    15
100
AcDbLine
 10
135.5031100076
 20
144.9847273585
 30
0.0
 11
133.8450428391
 21
144.9847273585
 31
0.0
  0
LINE
  5
7D
330
1F
100
AcDbEntity
  8
0
  6
Continuous
 62
     7
370
    15
100
AcDbLine
 10
135.5031100076
 20
138.9762215477
 30
0.0
 11
135.5031100076
 21
144.9847273585
 31
0.0
  0
LINE
  5
7E
330
1F
100
AcDbEntity
  8
0
  6
Continuous
 62
     7
370
    15
100
AcDbLine
 10
133.0906631848
 20
138.9762215477
 30
0.0
 11
135.5031100076
 21
138.9762215477
 31
0.0
  0
SPLINE
  5
7F
330
1F
100
AcDbEntity
  8
0
  6
Continuous
 62
     7
370
    15
100
AcDbSpline
210
0.0
220
0.0
230
1.0
 70
     8
 71
     3
 72
    20
 73
    16
 74
     0
 42
0.00000001
 43
0.00000001
 40
0.0
 40
0.0
 40
0.0
 40
0.0
 40
0.2499999999999995
 40
0.2499999999999995
 40
0.3749999999999996
 40
0.3749999999999996
 40
0.4999999999999997
 40
0.4999999999999997
 40
0.6249999999999998
 40
0.6249999999999998
 40
0.7499999999999998
 40
0.7499999999999998
 40
0.8749999999999999
 40
0.8749999999999999
 40
1.0
 40
1.0
 40
1.0
 40
1.0
 10
125.8450428390997
 20
134.3675318853574
 30
0.0
 10
126.0934165733878
 20
135.0213943136548
 30
0.0
 10
126.4129866657331
 20
135.6251800956519
 30
0.0
 10
127.0352928989378
 20
136.4520188318205
 30
0.0
 10
127.2667171593685
 20
136.7144474697734
 30
0.0
 10
127.7879314990182
 20
137.2111101238784
 30
0.0
 10
128.0745519816533
 20
137.4416970028999
 30
0.0
 10
128.6940367229609
 20
137.8582512274826
 30
0.0
 10
129.0283371024479
 20
138.0457490294501
 30
0.0
 10
129.7535975750727
 20
138.3771460070865
 30
0.0
 10
130.1355126324631
 20
138.5166499945818
 30
0.0
 10
130.9303008086348
 20
138.7421035020527
 30
0.0
 10
131.3444590028412
 20
138.8287296135964
 30
0.0
 10
132.2100053434226
 20
138.9467104024505
 30
0.0
 10
132.6478929584344
 20
138.9762215477248
 30
0.0
 10
133.090663184789
 20
138.9762215477248
 30
0.0
  0
SPLINE
  5
80
330
1F
100
AcDbEntity
  8
0
  6
Continuous
 62
     7
370
    15
100
AcDbSpline
210
0.0
220
0.0
230
1.0
 70
     8
 71
     3
 72
    70
 73
    66
 74
     0
 42
0.00000001
 43
0.00000001
 40
-0.0312500000000001
 40
-0.0312500000000001
 40
0.0
 40
0.0
 40
0.0312499999999999
 40
0.0312499999999999
 40
0.0624999999999998
 40
0.0624999999999998
 40
0.0937499999999997
 40
0.0937499999999997
 40
0.1249999999999996
 40
0.1249999999999996
 40
0.1562499999999994
 40
0.1562499999999994
 40
0.1874999999999993
 40
0.1874999999999993
 40
0.2187499999999992
 40
0.2187499999999992
 40
0.2499999999999991
 40
0.2499999999999991
 40
0.281249999999999
 40
0.281249999999999
 40
0.3124999999999989
 40
0.3124999999999989
 40
0.3437499999999988
 40
0.3437499999999988
 40
0.3749999999999987
 40
0.3749999999999987
 40
0.4062499999999986
 40
0.4062499999999986
 40
0.4374999999999984
 40
0.4374999999999984
 40
0.4687499999999983
 40
0.4687499999999983
 40
0.4999999999999982
 40
0.4999999999999982
 40
0.5312499999999983
 40
0.5312499999999983
 40
0.5624999999999984
 40
0.5624999999999984
 40
0.5937499999999986
 40
0.5937499999999986
 40
0.6249999999999987
 40
0.6249999999999987
 40
0.6562499999999988
 40
0.6562499999999988
 40
0.6874999999999989
 40
0.6874999999999989
 40
0.718749999999999
 40
0.718749999999999
 40
0.7499999999999991
 40
0.7499999999999991
 40
0.7812499999999992
 40
0.7812499999999992
 40
0.8124999999999993
 40
0.8124999999999993
 40
0.8437499999999994
 40
0.8437499999999994
 40
0.8749999999999996
 40
0.8749999999999996
 40
0.9062499999999997
 40
0.9062499999999997
 40
0.9374999999999998
 40
0.9374999999999998
 40
0.9687499999999999
 40
0.9687499999999999
 40
1.0
 40
1.0
 40
1.03125
 40
1.03125
 10
129.1595881777599
 20
125.1384387713407
 30
0.0
 10
128.6304975004396
 20
125.1384387713407
 30
0.0
 10
128.3704268330625
 20
125.1631160661259
 30
0.0
 10
127.8588521532271
 20
125.2595877391678
 30
0.0
 10
127.6046768694869
 20
125.3325686551479
 30
0.0
 10
127.1204062394252
 20
125.5223092580865
 30
0.0
 10
126.890765147544
 20
125.6381699164803
 30
0.0
 10
126.4561607993106
 20
125.9107877624379
 30
0.0
 10
126.2505950226639
 20
126.0688268444917
 30
0.0
 10
125.8820378820687
 20
126.4123696954623
 30
0.0
 10
125.7165568993332
 20
126.599132139564
 30
0.0
 10
125.4241323898981
 20
127.0026753139608
 30
0.0
 10
125.3000314132716
 20
127.21617231039
 30
0.0
 10
125.1004522165219
 20
127.6555556243125
 30
0.0
 10
125.0235186306636
 20
127.8846956114581
 30
0.0
 10
124.9206615721432
 20
128.3506697342181
 30
0.0
 10
124.8951886626841
 20
128.5835521798943
 30
0.0
 10
124.8948982521164
 20
129.0489497149741
 30
0.0
 10
124.9209228858921
 20
129.2838254723685
 30
0.0
 10
125.0230711703841
 20
129.7353186196147
 30
0.0
 10
125.0986476179673
 20
129.9533650950261
 30
0.0
 10
125.2991451491122
 20
130.3744596200639
 30
0.0
 10
125.4242739906206
 20
130.5763810045822
 30
0.0
 10
125.7136327916421
 20
130.9484104871011
 30
0.0
 10
125.8790437786976
 20
131.1210387906815
 30
0.0
 10
126.2520343368455
 20
131.4383567952275
 30
0.0
 10
126.4537673699346
 20
131.5781437287291
 30
0.0
 10
126.8866266207624
 20
131.8223199822809
 30
0.0
 10
127.1205451536518
 20
131.9275494933224
 30
0.0
 10
127.6047288887944
 20
132.0957066396975
 30
0.0
 10
127.8540445147499
 20
132.1589575302914
 30
0.0
 10
128.3670770391776
 20
132.244536739394
 30
0.0
 10
128.6323708620823
 20
132.2664089043164
 30
0.0
 10
129.154705481952
 20
132.2665725539603
 30
0.0
 10
129.4144591444337
 20
132.2455708618644
 30
0.0
 10
129.931070960079
 20
132.1601685067867
 30
0.0
 10
130.1834370005793
 20
132.0961623234998
 30
0.0
 10
130.6649621221121
 20
131.9293478034585
 30
0.0
 10
130.8978128542257
 20
131.8252146400594
 30
0.0
 10
131.3349027026644
 20
131.5792279875645
 30
0.0
 10
131.5362236913216
 20
131.4394781566156
 30
0.0
 10
131.9053097166215
 20
131.126340086891
 30
0.0
 10
132.0742944676732
 20
130.9508839276209
 30
0.0
 10
132.3647505243324
 20
130.5780436635207
 30
0.0
 10
132.4878223356945
 20
130.3799218534097
 30
0.0
 10
132.6891585771166
 20
129.9592105106761
 30
0.0
 10
132.7663711230588
 20
129.7372204900086
 30
0.0
 10
132.8685746659589
 20
129.2873555503002
 30
0.0
 10
132.8948030174112
 20
129.0571001371834
 30
0.0
 10
132.8952794167283
 20
128.5857841946344
 30
0.0
 10
132.8695370042303
 20
128.3525467789202
 30
0.0
 10
132.7682262278665
 20
127.8908702394221
 30
0.0
 10
132.6913935884755
 20
127.65997285231
 30
0.0
 10
132.4909897492604
 20
127.2176968385183
 30
0.0
 10
132.3683182509683
 20
127.0066344072325
 30
0.0
 10
132.078370961804
 20
126.6051358964998
 30
0.0
 10
131.9097999824388
 20
126.4142293744238
 30
0.0
 10
131.5415303883257
 20
126.0705040424268
 30
0.0
 10
131.3404685310554
 20
125.9153668562127
 30
0.0
 10
130.9034376124704
 20
125.640289496133
 30
0.0
 10
130.6712893993408
 20
125.5231732667109
 30
0.0
 10
130.190279117842
 20
125.3342467816464
 30
0.0
 10
129.9381790350115
 20
125.2611718112521
 30
0.0
 10
129.4211095487525
 20
125.1631197521176
 30
0.0
 10
129.1595881777599
 20
125.1384387713407
 30
0.0
 10
128.6304975004396
 20
125.1384387713407
 30
0.0
  0
SPLINE
  5
81
330
1F
100
AcDbEntity
  8
0
  6
Continuous
 62
     7
370
    15
100
AcDbSpline
210
0.0
220
0.0
230
1.0
 70
     8
 71
     3
 72
    70
 73
    66
 74
     0
 42
0.00000001
 43
0.00000001
 40
-0.0312499999999999
 40
-0.0312499999999999
 40
0.0
 40
0.0
 40
0.0312499999999999
 40
0.0312499999999999
 40
0.0624999999999998
 40
0.0624999999999998
 40
0.0937499999999997
 40
0.0937499999999997
 40
0.1249999999999996
 40
0.1249999999999996
 40
0.1562499999999995
 40
0.1562499999999995
 40
0.1874999999999994
 40
0.1874999999999994
 40
0.2187499999999993
 40
0.2187499999999993
 40
0.2499999999999992
 40
0.2499999999999992
 40
0.2812499999999993
 40
0.2812499999999993
 40
0.3124999999999993
 40
0.3124999999999993
 40
0.3437499999999994
 40
0.3437499999999994
 40
0.3749999999999995
 40
0.3749999999999995
 40
0.4062499999999996
 40
0.4062499999999996
 40
0.4374999999999996
 40
0.4374999999999996
 40
0.4687499999999997
 40
0.4687499999999997
 40
0.4999999999999998
 40
0.4999999999999998
 40
0.5312499999999999
 40
0.5312499999999999
 40
0.5625
 40
0.5625
 40
0.5937500000000001
 40
0.5937500000000001
 40
0.6250000000000002
 40
0.6250000000000002
 40
0.6562500000000004
 40
0.6562500000000004
 40
0.6875000000000006
 40
0.6875000000000006
 40
0.7187500000000007
 40
0.7187500000000007
 40
0.7500000000000008
 40
0.7500000000000008
 40
0.7812500000000007
 40
0.7812500000000007
 40
0.8125000000000006
 40
0.8125000000000006
 40
0.8437500000000004
 40
0.8437500000000004
 40
0.8750000000000003
 40
0.8750000000000003
 40
0.9062500000000003
 40
0.9062500000000003
 40
0.9375000000000002
 40
0.9375000000000002
 40
0.9687500000000001
 40
0.9687500000000001
 40
1.0
 40
1.0
 40
1.03125
 40
1.03125
 10
129.1595881777599
 20
139.5764952801366
 30
0.0
 10
128.6304975004396
 20
139.5764952801366
 30
0.0
 10
128.3704268330625
 20
139.5923957205513
 30
0.0
 10
127.8588521532271
 20
139.6543400707256
 30
0.0
 10
127.6046768694869
 20
139.7011423048169
 30
0.0
 10
127.1204062394252
 20
139.8221192882719
 30
0.0
 10
126.890765147544
 20
139.8957216160788
 30
0.0
 10
126.4561607993106
 20
140.0675458870569
 30
0.0
 10
126.2505950226639
 20
140.1665493099843
 30
0.0
 10
125.8820378820687
 20
140.3796457238972
 30
0.0
 10
125.7165568993332
 20
140.4945454400269
 30
0.0
 10
125.4241323898981
 20
140.7399123387171
 30
0.0
 10
125.3000314132716
 20
140.8683522391874
 30
0.0
 10
125.1004522165219
 20
141.1292443872734
 30
0.0
 10
125.0235186306636
 20
141.2636255586128
 30
0.0
 10
124.9206615721432
 20
141.5329455097191
 30
0.0
 10
124.8951886626841
 20
141.6656267739373
 30
0.0
 10
124.8948982521164
 20
141.9268132480683
 30
0.0
 10
124.9209228858921
 20
142.056578286233
 30
0.0
 10
125.0230711703841
 20
142.3021609205057
 30
0.0
 10
125.0986476179673
 20
142.4188224578146
 30
0.0
 10
125.2991451491122
 20
142.6407276479691
 30
0.0
 10
125.4242739906206
 20
142.7453389018921
 30
0.0
 10
125.7136327916421
 20
142.9353853135002
 30
0.0
 10
125.8790437786976
 20
143.0221449849498
 30
0.0
 10
126.2520343368454
 20
143.1796493607014
 30
0.0
 10
126.4537673699346
 20
143.2479746254886
 30
0.0
 10
126.8866266207624
 20
143.3662043491078
 30
0.0
 10
127.1205451536518
 20
143.4164992652117
 30
0.0
 10
127.6047288887944
 20
143.4963648021013
 30
0.0
 10
127.8540445147499
 20
143.5261059299009
 30
0.0
 10
128.3670770391776
 20
143.5662586714091
 30
0.0
 10
128.6323708620823
 20
143.576456940819
 30
0.0
 10
129.154705481952
 20
143.5765333992037
 30
0.0
 10
129.4144591444337
 20
143.5667423875946
 30
0.0
 10
129.931070960079
 20
143.5266755488559
 30
0.0
 10
130.1834370005793
 20
143.4965783819991
 30
0.0
 10
130.6649621221121
 20
143.4173561721689
 30
0.0
 10
130.8978128542257
 20
143.3675986927055
 30
0.0
 10
131.3349027026644
 20
143.2485067502551
 30
0.0
 10
131.5362236913216
 20
143.1801914887078
 30
0.0
 10
131.9053097166215
 20
143.0247905217743
 30
0.0
 10
132.0742944676732
 20
142.9366381797074
 30
0.0
 10
132.3647505243324
 20
142.746198790591
 30
0.0
 10
132.4878223356946
 20
142.643574212892
 30
0.0
 10
132.6891585771166
 20
142.4219338662838
 30
0.0
 10
132.7663711230588
 20
142.3031797907364
 30
0.0
 10
132.8685746659589
 20
142.0585138518187
 30
0.0
 10
132.8948030174112
 20
141.9313571263701
 30
0.0
 10
132.8952794167283
 20
141.6669089805146
 30
0.0
 10
132.8695370042303
 20
141.5340083002575
 30
0.0
 10
132.7682262278665
 20
141.2672160267754
 30
0.0
 10
132.6913935884755
 20
141.1318521253068
 30
0.0
 10
132.4909897492603
 20
140.8692723300042
 30
0.0
 10
132.3683182509683
 20
140.7422971702505
 30
0.0
 10
132.078370961804
 20
140.498217784168
 30
0.0
 10
131.9097999824388
 20
140.3807926594142
 30
0.0
 10
131.5415303883257
 20
140.1675961984658
 30
0.0
 10
131.3404685310554
 20
140.0704220800409
 30
0.0
 10
130.9034376124704
 20
139.8970671928267
 30
0.0
 10
130.6712893993408
 20
139.82266764117
 30
0.0
 10
130.190279117842
 20
139.7022147616654
 30
0.0
 10
129.9381790350115
 20
139.6553563863994
 30
0.0
 10
129.4211095487525
 20
139.5923988894156
 30
0.0
 10
129.1595881777599
 20
139.5764952801366
 30
0.0
 10
128.6304975004396
 20
139.5764952801366
 30
0.0
  0
LINE
  5
82
330
1F
100
AcDbEntity
  8
0
  6
Continuous
 62
     7
370
    15
100
AcDbLine
 10
120.8950428391
 20
83.3175318854
 30
0.0
 11
120.8950428391
 21
145.7175318808
 31
0.0
  0
SPLINE
  5
83
330
1F
100
AcDbEntity
  8
0
  6
Continuous
 62
     7
370
    15
100
AcDbSpline
210
0.0
220
0.0
230
1.0
 70
     8
 71
     3
 72
     8
 73
     4
 74
     0
 42
0.00000001
 43
0.00000001
 40
0.0
 40
0.0
 40
0.0
 40
0.0
 40
1.0
 40
1.0
 40
1.0
 40
1.0
 10
142.2869756705888
 20
84.3306141891102
 30
0.0
 10
141.7914960099231
 20
85.22614027704356
 30
0.0
 10
141.2973819618809
 20
86.12242469209582
 30
0.0
 10
140.8050428390997
 20
87.01969472630252
 30
0.0
  0
LINE
  5
84
330
1F
100
AcDbEntity
  8
0
  6
Continuous
 62
     7
370
    15
100
AcDbLine
 10
140.8050428391
 20
87.0196947263
 30
0.0
 11
140.8050428391
 21
134.3675318854
 31
0.0
  0
SPLINE
  5
85
330
1F
100
AcDbEntity
  8
0
  6
Continuous
 62
     7
370
    15
100
AcDbSpline
210
0.0
220
0.0
230
1.0
 70
    24
 71
     3
 72
     8
 73
     4
 74
     0
 42
0.00000001
 43
0.00000001
 40
0.0
 40
0.0
 40
0.0
 40
0.0
 40
1.0
 40
1.0
 40
1.0
 40
1.0
 10
140.8050428390997
 20
134.3675318853574
 30
0.0
 10
141.2849948334647
 20
134.3675318853574
 30
0.0
 10
141.7802955624383
 20
134.3675318853574
 30
0.0
 10
142.2869756705888
 20
134.3675318853574
 30
0.0
  0
LINE
  5
86
330
1F
100
AcDbEntity
  8
0
  6
Continuous
 62
     7
370
    15
100
AcDbLine
 10
136.9850428391
 20
87.0196947263
 30
0.0
 11
136.9850428391
 21
134.3675318854
 31
0.0
  0
SPLINE
  5
87
330
1F
100
AcDbEntity
  8
0
  6
Continuous
 62
     7
370
    15
100
AcDbSpline
210
0.0
220
0.0
230
1.0
 70
     8
 71
     3
 72
     8
 73
     4
 74
     0
 42
0.00000001
 43
0.00000001
 40
0.0
 40
0.0
 40
0.0
 40
0.0
 40
1.0
 40
1.0
 40
1.0
 40
1.0
 10
136.9850428390998
 20
87.0196947263025
 30
0.0
 10
136.4927037163186
 20
86.1224246920958
 30
0.0
 10
135.9985896682764
 20
85.22614027704356
 30
0.0
 10
135.5031100076107
 20
84.3306141891102
 30
0.0
  0
SPLINE
  5
88
330
1F
100
AcDbEntity
  8
0
  6
Continuous
 62
     7
370
    15
100
AcDbSpline
210
0.0
220
0.0
230
1.0
 70
    24
 71
     3
 72
     8
 73
     4
 74
     0
 42
0.00000001
 43
0.00000001
 40
0.0
 40
0.0
 40
0.0
 40
0.0
 40
1.0
 40
1.0
 40
1.0
 40
1.0
 10
135.5031100076107
 20
134.3675318853574
 30
0.0
 10
136.0097901157612
 20
134.3675318853574
 30
0.0
 10
136.5050908447349
 20
134.3675318853574
 30
0.0
 10
136.9850428390998
 20
134.3675318853574
 30
0.0
  0
ARC
  5
89
330
1F
100
AcDbEntity
  8
0
  6
Continuous
 62
     7
370
    15
100
AcDbCircle
 10
128.8967335981
 20
126.4123846937
 30
0.0
 40
4.118928091844451
100
AcDbArc
 50
21.0630477537
 51
159.7085928056
  0
SPLINE
  5
8A
330
1F
100
AcDbEntity
  8
0
  6
Continuous
 62
     7
370
    15
100
AcDbSpline
210
0.0
220
0.0
230
1.0
 70
    24
 71
     3
 72
    14
 73
    10
 74
     0
 42
0.00000001
 43
0.00000001
 40
0.0
 40
0.0
 40
0.0
 40
0.0
 40
0.5
 40
0.5
 40
0.75
 40
0.75
 40
0.875
 40
0.875
 40
1.0
 40
1.0
 40
1.0
 40
1.0
 10
140.7073680367675
 20
88.11753188535737
 30
0.0
 10
140.6605833317192
 20
88.11753188535737
 30
0.0
 10
140.5985321349396
 20
88.11753188535737
 30
0.0
 10
140.455140496389
 20
88.11753188535735
 30
0.0
 10
140.3989968428379
 20
88.11753188535737
 30
0.0
 10
140.2860458207017
 20
88.11753188535735
 30
0.0
 10
140.2430450586636
 20
88.11753188535737
 30
0.0
 10
140.1389823483571
 20
88.11753188535735
 30
0.0
 10
140.0736501100002
 20
88.11753188535735
 30
0.0
 10
140.0050428390998
 20
88.11753188535737
 30
0.0
  0
SPLINE
  5
8B
330
1F
100
AcDbEntity
  8
0
  6
Continuous
 62
     7
370
    15
100
AcDbSpline
210
0.0
220
0.0
230
1.0
 70
    24
 71
     3
 72
    12
 73
     8
 74
     0
 42
0.00000001
 43
0.00000001
 40
0.0
 40
0.0
 40
0.0
 40
0.0
 40
0.5000000000000017
 40
0.5000000000000017
 40
0.7500000000000008
 40
0.7500000000000008
 40
1.0
 40
1.0
 40
1.0
 40
1.0
 10
140.4107453074088
 20
140.9175318853574
 30
0.0
 10
140.3676597577978
 20
140.9175318853574
 30
0.0
 10
140.3185075560485
 20
140.9175318853574
 30
0.0
 10
140.2220349617606
 20
140.9175318853574
 30
0.0
 10
140.185933376626
 20
140.9175318853574
 30
0.0
 10
140.1028276187647
 20
140.9175318853574
 30
0.0
 10
140.0548310217984
 20
140.9175318853574
 30
0.0
 10
140.0050428390998
 20
140.9175318853574
 30
0.0
  0
SPLINE
  5
8C
330
1F
100
AcDbEntity
  8
0
  6
Continuous
 62
     7
370
    15
100
AcDbSpline
210
0.0
220
0.0
230
1.0
 70
     8
 71
     3
 72
    10
 73
     6
 74
     0
 42
0.00000001
 43
0.00000001
 40
0.0
 40
0.0
 40
0.0
 40
0.0
 40
0.5
 40
0.5
 40
1.0
 40
1.0
 40
1.0
 40
1.0
 10
140.8050428390997
 20
141.6371857363931
 30
0.0
 10
140.8050428390997
 20
141.4934156785751
 30
0.0
 10
140.7689937803809
 20
141.35099631608
 30
0.0
 10
140.6334849196068
 20
141.1011020227228
 30
0.0
 10
140.5336089265107
 20
140.9930716864745
 30
0.0
 10
140.4107453074088
 20
140.9175318853573
 30
0.0
  0
SPLINE
  5
8D
330
1F
100
AcDbEntity
  8
0
  6
Continuous
 62
     7
370
    15
100
AcDbSpline
210
0.0
220
0.0
230
1.0
 70
     8
 71
     3
 72
    10
 73
     6
 74
     0
 42
0.00000001
 43
0.00000001
 40
0.0
 40
0.0
 40
0.0
 40
0.0
 40
0.5
 40
0.5
 40
1.0
 40
1.0
 40
1.0
 40
1.0
 10
140.7788952159396
 20
134.3675318853574
 30
0.0
 10
140.7875848588513
 20
134.4144107346755
 30
0.0
 10
140.7941239236018
 20
134.4618332000769
 30
0.0
 10
140.8028825579948
 20
134.5577699986636
 30
0.0
 10
140.8050428390997
 20
134.6056852866741
 30
0.0
 10
140.8050428390997
 20
134.6533985168187
 30
0.0
  0
SPLINE
  5
8E
330
1F
100
AcDbEntity
  8
0
  6
Continuous
 62
     7
370
    15
100
AcDbSpline
210
0.0
220
0.0
230
1.0
 70
     8
 71
     3
 72
    10
 73
     6
 74
     0
 42
0.00000001
 43
0.00000001
 40
0.0
 40
0.0
 40
0.0
 40
0.0
 40
0.5
 40
0.5
 40
1.0
 40
1.0
 40
1.0
 40
1.0
 10
137.3793403707907
 20
140.9175318853574
 30
0.0
 10
137.2578001071222
 20
140.9922580525692
 30
0.0
 10
137.1564657467733
 20
141.1012030684859
 30
0.0
 10
137.0208268038848
 20
141.3516335492475
 30
0.0
 10
136.9850428390998
 20
141.4940529113464
 30
0.0
 10
136.9850428390998
 20
141.6371857363931
 30
0.0
  0
SPLINE
  5
8F
330
1F
100
AcDbEntity
  8
0
  6
Continuous
 62
     7
370
    15
100
AcDbSpline
210
0.0
220
0.0
230
1.0
 70
    24
 71
     3
 72
    12
 73
     8
 74
     0
 42
0.00000001
 43
0.00000001
 40
0.0
 40
0.0
 40
0.0
 40
0.0
 40
0.2499999999999992
 40
0.2499999999999992
 40
0.4999999999999983
 40
0.4999999999999983
 40
1.0
 40
1.0
 40
1.0
 40
1.0
 10
137.7850428390998
 20
140.9175318853574
 30
0.0
 10
137.7351661567824
 20
140.9175318853574
 30
0.0
 10
137.6871629633787
 20
140.9175318853574
 30
0.0
 10
137.6041148606667
 20
140.9175318853574
 30
0.0
 10
137.5679852811989
 20
140.9175318853574
 30
0.0
 10
137.4720732502547
 20
140.9175318853574
 30
0.0
 10
137.4223145822859
 20
140.9175318853574
 30
0.0
 10
137.3793403707907
 20
140.9175318853574
 30
0.0
  0
SPLINE
  5
90
330
1F
100
AcDbEntity
  8
0
  6
Continuous
 62
     7
370
    15
100
AcDbSpline
210
0.0
220
0.0
230
1.0
 70
    24
 71
     3
 72
    14
 73
    10
 74
     0
 42
0.00000001
 43
0.00000001
 40
0.0
 40
0.0
 40
0.0
 40
0.0
 40
0.1250000000000012
 40
0.1250000000000012
 40
0.2500000000000024
 40
0.2500000000000024
 40
0.5000000000000013
 40
0.5000000000000013
 40
1.0
 40
1.0
 40
1.0
 40
1.0
 10
137.7850428390997
 20
88.11753188535737
 30
0.0
 10
137.7166049912133
 20
88.11753188535737
 30
0.0
 10
137.6510549524483
 20
88.11753188535737
 30
0.0
 10
137.5466283130403
 20
88.11753188535737
 30
0.0
 10
137.5040837032789
 20
88.11753188535735
 30
0.0
 10
137.3914742427386
 20
88.11753188535735
 30
0.0
 10
137.3359351957191
 20
88.11753188535735
 30
0.0
 10
137.1933235002554
 20
88.11753188535737
 30
0.0
 10
137.1299181452596
 20
88.11753188535735
 30
0.0
 10
137.082717641432
 20
88.11753188535737
 30
0.0
  0
SPLINE
  5
91
330
1F
100
AcDbEntity
  8
0
  6
Continuous
 62
     7
370
    15
100
AcDbSpline
210
0.0
220
0.0
230
1.0
 70
     8
 71
     3
 72
    10
 73
     6
 74
     0
 42
0.00000001
 43
0.00000001
 40
0.0
 40
0.0
 40
0.0
 40
0.0
 40
0.5
 40
0.5
 40
1.0
 40
1.0
 40
1.0
 40
1.0
 10
136.9850428390998
 20
134.6533985168187
 30
0.0
 10
136.9850428390998
 20
134.6056270088255
 30
0.0
 10
136.9872040826969
 20
134.5579172867638
 30
0.0
 10
136.9958754565571
 20
134.4626221692155
 30
0.0
 10
137.0024046395131
 20
134.4149296052489
 30
0.0
 10
137.0111904622599
 20
134.3675318853574
 30
0.0
  0
LINE
  5
92
330
1F
100
AcDbEntity
  8
0
  6
Continuous
 62
     7
370
    15
100
AcDbLine
 10
140.0050428391
 20
140.9175318854
 30
0.0
 11
137.7850428391
 21
140.9175318854
 31
0.0
  0
LINE
  5
93
330
1F
100
AcDbEntity
  8
0
  6
Continuous
 62
     7
370
    15
100
AcDbLine
 10
140.0050428391
 20
88.1175318854
 30
0.0
 11
137.7850428391
 21
88.1175318854
 31
0.0
  0
LINE
  5
94
330
1F
100
AcDbEntity
  8
0
  6
Continuous
 62
     7
370
    15
100
AcDbLine
 10
118.8950428391
 20
90.2971010236
 30
0.0
 11
118.8950428391
 21
138.7379627471
 31
0.0
  0
LINE
  5
95
330
1F
100
AcDbEntity
  8
0
  6
Continuous
 62
     7
370
    15
100
AcDbLine
 10
99.0950428391
 20
91.2890849916
 30
0.0
 11
99.0950428391
 21
92.5537943542
 31
0.0
  0
SPLINE
  5
96
330
1F
100
AcDbEntity
  8
0
  6
Continuous
 62
     7
370
    15
100
AcDbSpline
210
0.0
220
0.0
230
1.0
 70
     8
 71
     3
 72
    14
 73
    10
 74
     0
 42
0.00000001
 43
0.00000001
 40
0.0
 40
0.0
 40
0.0
 40
0.0
 40
0.25
 40
0.25
 40
0.5
 40
0.5
 40
0.75
 40
0.75
 40
1.0
 40
1.0
 40
1.0
 40
1.0
 10
98.31675572118404
 20
93.68438056179741
 30
0.0
 10
98.37338239638612
 20
93.57668310796055
 30
0.0
 10
98.46790505667583
 20
93.47389352624123
 30
0.0
 10
98.65095003223807
 20
93.27553621402109
 30
0.0
 10
98.74257660919281
 20
93.17947670534284
 30
0.0
 10
98.901429926886
 20
92.99194766263359
 30
0.0
 10
98.96932053450769
 20
92.90053868985004
 30
0.0
 10
99.06623756021528
 20
92.72216246893989
 30
0.0
 10
99.09504283910034
 20
92.63494056269371
 30
0.0
 10
99.09504283910033
 20
92.55379435415945
 30
0.0
  0
SPLINE
  5
97
330
1F
100
AcDbEntity
  8
0
  6
Continuous
 62
     7
370
    15
100
AcDbSpline
210
0.0
220
0.0
230
1.0
 70
     8
 71
     3
 72
    14
 73
    10
 74
     0
 42
0.00000001
 43
0.00000001
 40
0.0
 40
0.0
 40
0.0
 40
0.0
 40
0.125
 40
0.125
 40
0.25
 40
0.25
 40
0.5
 40
0.5
 40
1.0
 40
1.0
 40
1.0
 40
1.0
 10
97.69504283909976
 20
94.13106242407673
 30
0.0
 10
97.74358724775692
 20
94.13681073735702
 30
0.0
 10
97.79650260254184
 20
94.13370984870079
 30
0.0
 10
97.89179794752486
 20
94.11151500453846
 30
0.0
 10
97.93204894480982
 20
94.0942827774426
 30
0.0
 10
98.03631895832278
 20
94.03795486099054
 30
0.0
 10
98.08664093347612
 20
93.99376851504474
 30
0.0
 10
98.21432388100149
 20
93.86276061619411
 30
0.0
 10
98.27040932806376
 20
93.77252609596381
 30
0.0
 10
98.3167557211855
 20
93.68438056179794
 30
0.0
  0
SPLINE
  5
98
330
1F
100
AcDbEntity
  8
0
  6
Continuous
 62
     7
370
    15
100
AcDbSpline
210
0.0
220
0.0
230
1.0
 70
     8
 71
     3
 72
     8
 73
     4
 74
     0
 42
0.00000001
 43
0.00000001
 40
0.0
 40
0.0
 40
0.0
 40
0.0
 40
1.0
 40
1.0
 40
1.0
 40
1.0
 10
95.4265177461535
 20
93.82121713749393
 30
0.0
 10
96.16109477263646
 20
93.93984214856289
 30
0.0
 10
96.92456984203213
 20
94.03982802069919
 30
0.0
 10
97.69504283909976
 20
94.13106242407673
 30
0.0
  0
SPLINE
  5
99
330
1F
100
AcDbEntity
  8
0
  6
Continuous
 62
     7
370
    15
100
AcDbSpline
210
0.0
220
0.0
230
1.0
 70
     8
 71
     3
 72
    14
 73
    10
 74
     0
 42
0.00000001
 43
0.00000001
 40
0.0
 40
0.0
 40
0.0
 40
0.0
 40
0.5000000000000002
 40
0.5000000000000002
 40
0.7500000000000002
 40
0.7500000000000002
 40
0.8750000000000001
 40
0.8750000000000001
 40
1.0
 40
1.0
 40
1.0
 40
1.0
 10
90.14504283909976
 20
93.64759411996229
 30
0.0
 10
91.03718896965331
 20
93.64687189376164
 30
0.0
 10
91.9271654054469
 20
93.6514581002191
 30
0.0
 10
93.2537605725225
 20
93.67918310461064
 30
0.0
 10
93.69460750102122
 20
93.69178964223482
 30
0.0
 10
94.35104773844364
 20
93.72280579024225
 30
0.0
 10
94.56906139503553
 20
93.73514896286903
 30
0.0
 10
95.00177024871829
 20
93.76817301803231
 30
0.0
 10
95.2170467138831
 20
93.78739018317076
 30
0.0
 10
95.4265177461535
 20
93.82121713749393
 30
0.0
  0
SPLINE
  5
9A
330
1F
100
AcDbEntity
  8
0
  6
Continuous
 62
     7
370
    15
100
AcDbSpline
210
0.0
220
0.0
230
1.0
 70
     8
 71
     3
 72
     8
 73
     4
 74
     0
 42
0.00000001
 43
0.00000001
 40
0.0000005163856711
 40
0.0000005163856711
 40
0.0000005163856711
 40
0.0000005163856711
 40
0.000026289209185
 40
0.000026289209185
 40
0.000026289209185
 40
0.000026289209185
 10
90.13499790868106
 20
93.65757799307018
 30
0.0
 10
90.13832564689253
 20
93.65424374619735
 30
0.0
 10
90.14167409987184
 20
93.65091578891833
 30
0.0
 10
90.14504283909973
 20
93.64759411996228
 30
0.0
  0
SPLINE
  5
9B
330
1F
100
AcDbEntity
  8
0
  6
Continuous
 62
     7
370
    15
100
AcDbSpline
210
0.0
220
0.0
230
1.0
 70
     8
 71
     3
 72
     8
 73
     4
 74
     0
 42
0.00000001
 43
0.00000001
 40
0.0000005099763573
 40
0.0000005099763573
 40
0.0000005099763573
 40
0.0000005099763573
 40
0.0000262827998699
 40
0.0000262827998699
 40
0.0000262827998699
 40
0.0000262827998699
 10
90.14504283909974
 20
135.3874696507524
 30
0.0
 10
90.141674099872
 20
135.3841479817965
 30
0.0
 10
90.13832564689287
 20
135.3808200245177
 30
0.0
 10
90.13499790868154
 20
135.377485777645
 30
0.0
  0
SPLINE
  5
9C
330
1F
100
AcDbEntity
  8
0
  6
Continuous
 62
     7
370
    15
100
AcDbSpline
210
0.0
220
0.0
230
1.0
 70
     8
 71
     3
 72
    10
 73
     6
 74
     0
 42
0.00000001
 43
0.00000001
 40
0.0
 40
0.0
 40
0.0
 40
0.0
 40
0.5
 40
0.5
 40
1.0
 40
1.0
 40
1.0
 40
1.0
 10
93.69504283909977
 20
135.3406192771851
 30
0.0
 10
93.10745729200917
 20
135.3616847974215
 30
0.0
 10
92.51671089854878
 20
135.3724432832937
 30
0.0
 10
91.33269173324993
 20
135.3858080638294
 30
0.0
 10
90.73927774504446
 20
135.387950706494
 30
0.0
 10
90.14504283909976
 20
135.3874696507524
 30
0.0
  0
SPLINE
  5
9D
330
1F
100
AcDbEntity
  8
0
  6
Continuous
 62
     7
370
    15
100
AcDbSpline
210
0.0
220
0.0
230
1.0
 70
     8
 71
     3
 72
    18
 73
    14
 74
     0
 42
0.00000001
 43
0.00000001
 40
0.0
 40
0.0
 40
0.0
 40
0.0
 40
0.2500000000000008
 40
0.2500000000000008
 40
0.5000000000000009
 40
0.5000000000000009
 40
0.7500000000000009
 40
0.7500000000000009
 40
0.875000000000001
 40
0.875000000000001
 40
0.9375000000000006
 40
0.9375000000000006
 40
1.0
 40
1.0
 40
1.0
 40
1.0
 10
95.09504283909976
 20
136.3616395577203
 30
0.0
 10
95.09504283909978
 20
136.2784326488632
 30
0.0
 10
95.05919373916151
 20
136.1896959935496
 30
0.0
 10
94.93432200312758
 20
136.0075708029894
 30
0.0
 10
94.84392158547972
 20
135.9124407543627
 30
0.0
 10
94.62167893073753
 20
135.7232592452384
 30
0.0
 10
94.49191414429175
 20
135.6283140771437
 30
0.0
 10
94.25127668698026
 20
135.4900353695637
 30
0.0
 10
94.16350938884283
 20
135.4443249362614
 30
0.0
 10
94.00898530163599
 20
135.3865016310399
 30
0.0
 10
93.95237441558125
 20
135.3687868670021
 30
0.0
 10
93.82833038467464
 20
135.3442475637691
 30
0.0
 10
93.76061570965635
 20
135.3382684252308
 30
0.0
 10
93.69504283909976
 20
135.3406192771851
 30
0.0
  0
LINE
  5
9E
330
1F
100
AcDbEntity
  8
0
  6
Continuous
 62
     7
370
    15
100
AcDbLine
 10
95.0950428391
 20
136.3616395577
 30
0.0
 11
95.0950428391
 21
137.5455779775
 31
0.0
  0
SPLINE
  5
9F
330
1F
100
AcDbEntity
  8
0
  6
Continuous
 62
     7
370
    15
100
AcDbSpline
210
0.0
220
0.0
230
1.0
 70
     8
 71
     3
 72
    24
 73
    20
 74
     0
 42
0.00000001
 43
0.00000001
 40
0.0
 40
0.0
 40
0.0
 40
0.0
 40
0.0010489762969682
 40
0.0637843125639767
 40
0.1272220590447889
 40
0.19037889244876
 40
0.2526748653693632
 40
0.3146354154433589
 40
0.3770891997149993
 40
0.4393540298512636
 40
0.5008133242537819
 40
0.5621845104587263
 40
0.6248438451115537
 40
0.6874304766616293
 40
0.7496743174679374
 40
0.8119848426977089
 40
0.875096052541316
 40
0.9384412526965075
 40
0.9999999999999999
 40
0.9999999999999999
 40
0.9999999999999999
 40
0.9999999999999999
 10
107.6639486710755
 20
90.86002345677721
 30
0.0
 10
107.6635022109712
 20
90.85996517095832
 30
0.0
 10
107.6363546472775
 20
90.85642102901572
 30
0.0
 10
107.7319664248912
 20
90.86925477369859
 30
0.0
 10
107.9655266827856
 20
90.89850145889872
 30
0.0
 10
108.3610809901027
 20
90.94511578196162
 30
0.0
 10
108.8881212939434
 20
90.99529892362102
 30
0.0
 10
109.5316517059313
 20
91.03967538607128
 30
0.0
 10
110.2703255611762
 20
91.0666201670089
 30
0.0
 10
111.0678400666069
 20
91.0700920177148
 30
0.0
 10
111.8944189490491
 20
91.04246477368518
 30
0.0
 10
112.7199419666562
 20
90.98398588471193
 30
0.0
 10
113.5120685146573
 20
90.89854085535188
 30
0.0
 10
114.2446407886628
 20
90.79680661551554
 30
0.0
 10
114.8802810253909
 20
90.68896349354263
 30
0.0
 10
115.4021921324006
 20
90.58733333680352
 30
0.0
 10
115.7838209095161
 20
90.5048481801253
 30
0.0
 10
116.03463537975
 20
90.44869897377566
 30
0.0
 10
116.0637569357343
 20
90.4418495151619
 30
0.0
 10
116.0781094565504
 20
90.43847376843374
 30
0.0
  0
SPLINE
  5
A0
330
1F
100
AcDbEntity
  8
0
  6
Continuous
 62
     7
370
    15
100
AcDbSpline
210
0.0
220
0.0
230
1.0
 70
     8
 71
     3
 72
    24
 73
    20
 74
     0
 42
0.00000001
 43
0.00000001
 40
0.0
 40
0.0
 40
0.0
 40
0.0
 40
0.061438427625136
 40
0.1250736755369643
 40
0.1884253490730172
 40
0.2508623904037476
 40
0.3129665632512369
 40
0.3753451453465166
 40
0.4377328972325402
 40
0.4990927322917273
 40
0.5605807588448041
 40
0.6229469893028856
 40
0.6854686282026866
 40
0.7475477813740222
 40
0.8098225060807238
 40
0.8730684085990468
 40
0.9364041844533111
 40
0.9991757196257863
 40
1.0
 40
1.0
 40
1.0
 40
1.0
 10
116.0780546857475
 20
138.5965608598148
 30
0.0
 10
116.0634539614438
 20
138.5931928029621
 30
0.0
 10
116.0337304427153
 20
138.5863362594883
 30
0.0
 10
115.7809926270671
 20
138.5299976389624
 30
0.0
 10
115.3979967106181
 20
138.4471405568324
 30
0.0
 10
114.8756411261801
 20
138.3452335268811
 30
0.0
 10
114.2408566481801
 20
138.2373943878373
 30
0.0
 10
113.5106330440075
 20
138.1359274358622
 30
0.0
 10
112.720164458774
 20
138.0508677221715
 30
0.0
 10
111.8956809439456
 20
137.9926634282851
 30
0.0
 10
111.0686444850623
 20
137.9650799894585
 30
0.0
 10
110.2703202174103
 20
137.9685729669513
 30
0.0
 10
109.5304962531211
 20
137.9955288868044
 30
0.0
 10
108.8862420201456
 20
138.0398828288038
 30
0.0
 10
108.3588347649299
 20
138.0900882785616
 30
0.0
 10
107.96417016278
 20
138.1366981337599
 30
0.0
 10
107.7316408835952
 20
138.1658937263072
 30
0.0
 10
107.6362608510429
 20
138.1786717952491
 30
0.0
 10
107.6631944879443
 20
138.1751175367408
 30
0.0
 10
107.6635435811687
 20
138.1750714691574
 30
0.0
  0
SPLINE
  5
A1
330
1F
100
AcDbEntity
  8
0
  6
Continuous
 62
     7
370
    15
100
AcDbSpline
210
0.0
220
0.0
230
1.0
 70
     8
 71
     3
 72
     9
 73
     5
 74
     0
 42
0.00000001
 43
0.00000001
 40
0.0
 40
0.0
 40
0.0
 40
0.0
 40
0.7009329310330151
 40
1.0
 40
1.0
 40
1.0
 40
1.0
 10
89.01582752333522
 20
94.81625158125475
 30
0.0
 10
89.02496680001049
 20
94.79842229571322
 30
0.0
 10
89.03800553206409
 20
94.77298578852094
 30
0.0
 10
89.05317078582942
 20
94.82686564871273
 30
0.0
 10
89.05770621382314
 20
94.84297934057665
 30
0.0
  0
LINE
  5
A2
330
1F
100
AcDbEntity
  8
0
  6
Continuous
 62
     7
370
    15
100
AcDbLine
 10
88.9950428391
 20
94.8268541389
 30
0.0
 11
88.9950428391
 21
134.2082096318
 31
0.0
  0
SPLINE
  5
A3
330
1F
100
AcDbEntity
  8
0
  6
Continuous
 62
     7
370
    15
100
AcDbSpline
210
0.0
220
0.0
230
1.0
 70
     8
 71
     3
 72
    10
 73
     6
 74
     0
 42
0.00000001
 43
0.00000001
 40
0.0
 40
0.0
 40
0.0
 40
0.0
 40
0.5
 40
0.5
 40
1.0
 40
1.0
 40
1.0
 40
1.0
 10
89.05770621382317
 20
134.1920844301381
 30
0.0
 10
89.0488019247144
 20
134.2378259493513
 30
0.0
 10
89.03228654452141
 20
134.2550167888203
 30
0.0
 10
89.00517859845979
 20
134.2546935118846
 30
0.0
 10
88.99504283909975
 20
134.2368159695881
 30
0.0
 10
88.99504283909975
 20
134.2082096318355
 30
0.0
  0
SPLINE
  5
A4
330
1F
100
AcDbEntity
  8
0
  6
Continuous
 62
     7
370
    15
100
AcDbSpline
210
0.0
220
0.0
230
1.0
 70
     8
 71
     3
 72
    26
 73
    22
 74
     0
 42
0.00000001
 43
0.00000001
 40
0.0
 40
0.0
 40
0.0
 40
0.0
 40
0.2500000000000165
 40
0.2500000000000165
 40
0.3750000000000256
 40
0.3750000000000256
 40
0.4375000000000291
 40
0.4375000000000291
 40
0.4687500000000291
 40
0.4687500000000291
 40
0.5000000000000292
 40
0.5000000000000292
 40
0.5312500000000293
 40
0.5312500000000293
 40
0.5625000000000293
 40
0.5625000000000293
 40
0.625000000000026
 40
0.625000000000026
 40
0.7500000000000173
 40
0.7500000000000173
 40
1.0
 40
1.0
 40
1.0
 40
1.0
 10
89.81919648520427
 20
134.9076512189552
 30
0.0
 10
89.7805959623358
 20
134.7898765225998
 30
0.0
 10
89.73429895978154
 20
134.6654868364379
 30
0.0
 10
89.64035961134762
 20
134.4602675040844
 30
0.0
 10
89.60504814443415
 20
134.3886946376379
 30
0.0
 10
89.53886816868847
 20
134.2727414050374
 30
0.0
 10
89.51432980202026
 20
134.2321568702272
 30
0.0
 10
89.47095705646646
 20
134.1680151883555
 30
0.0
 10
89.45544865504127
 20
134.1461487630704
 30
0.0
 10
89.42040601045423
 20
134.1005544947272
 30
0.0
 10
89.40085571973447
 20
134.0768842037598
 30
0.0
 10
89.35892843936385
 20
134.0322676444199
 30
0.0
 10
89.33627632913222
 20
134.011387631902
 30
0.0
 10
89.29530261504559
 20
133.9805142181511
 30
0.0
 10
89.27770331515018
 20
133.9706753483187
 30
0.0
 10
89.23307632929402
 20
133.9516857326226
 30
0.0
 10
89.21251710664069
 20
133.9513614079691
 30
0.0
 10
89.16139166714402
 20
133.9605848488453
 30
0.0
 10
89.14048025415546
 20
133.9818317450623
 30
0.0
 10
89.08903034659454
 20
134.055800623893
 30
0.0
 10
89.07136504728999
 20
134.1219187172078
 30
0.0
 10
89.05770621382317
 20
134.1920844301381
 30
0.0
  0
SPLINE
  5
A5
330
1F
100
AcDbEntity
  8
0
  6
Continuous
 62
     7
370
    15
100
AcDbSpline
210
0.0
220
0.0
230
1.0
 70
     8
 71
     3
 72
    10
 73
     6
 74
     0
 42
0.00000001
 43
0.00000001
 40
0.0
 40
0.0
 40
0.0
 40
0.0
 40
0.5
 40
0.5
 40
1.0
 40
1.0
 40
1.0
 40
1.0
 10
90.13499790868156
 20
135.377485777645
 30
0.0
 10
90.06743865376332
 20
135.3097943848353
 30
0.0
 10
90.00380199842682
 20
135.2350872200816
 30
0.0
 10
89.89358124385495
 20
135.076121087655
 30
0.0
 10
89.84676495063233
 20
134.991765821647
 30
0.0
 10
89.81919648520426
 20
134.9076512189552
 30
0.0
  0
SPLINE
  5
A6
330
1F
100
AcDbEntity
  8
0
  6
Continuous
 62
     7
370
    15
100
AcDbSpline
210
0.0
220
0.0
230
1.0
 70
     8
 71
     3
 72
    10
 73
     6
 74
     0
 42
0.00000001
 43
0.00000001
 40
0.0
 40
0.0
 40
0.0
 40
0.0
 40
0.5
 40
0.5
 40
1.0
 40
1.0
 40
1.0
 40
1.0
 10
89.81919648520432
 20
94.12741255175939
 30
0.0
 10
89.84667389995751
 20
94.0435757552938
 30
0.0
 10
89.89338253024516
 20
93.95926526770698
 30
0.0
 10
90.00366099298712
 20
93.80014403722413
 30
0.0
 10
90.06754853159875
 20
93.72515929313604
 30
0.0
 10
90.13499790868107
 20
93.65757799307019
 30
0.0
  0
SPLINE
  5
A7
330
1F
100
AcDbEntity
  8
0
  6
Continuous
 62
     7
370
    15
100
AcDbSpline
210
0.0
220
0.0
230
1.0
 70
     8
 71
     3
 72
    24
 73
    20
 74
     0
 42
0.00000001
 43
0.00000001
 40
0.0
 40
0.0
 40
0.0
 40
0.0
 40
0.249999999999999
 40
0.249999999999999
 40
0.3749999999999983
 40
0.3749999999999983
 40
0.4374999999999987
 40
0.4374999999999987
 40
0.4687499999999975
 40
0.4687499999999975
 40
0.4999999999999963
 40
0.4999999999999963
 40
0.5624999999999984
 40
0.5624999999999984
 40
0.6250000000000006
 40
0.6250000000000006
 40
0.7500000000000001
 40
0.7500000000000001
 40
1.0
 40
1.0
 40
1.0
 40
1.0
 10
89.05770621382317
 20
94.84297934057662
 30
0.0
 10
89.07145933249339
 20
94.9136293985669
 30
0.0
 10
89.08923189989926
 20
94.98022751133183
 30
0.0
 10
89.14148299145461
 20
95.05432553156504
 30
0.0
 10
89.16251806703617
 20
95.07558333872659
 30
0.0
 10
89.2154184746646
 20
95.08372926487284
 30
0.0
 10
89.23652414754251
 20
95.08278946147705
 30
0.0
 10
89.2825763162205
 20
95.0617734698997
 30
0.0
 10
89.30094678820389
 20
95.0508646637921
 30
0.0
 10
89.3424984232696
 20
95.01822975284473
 30
0.0
 10
89.36506509602651
 20
94.99673777247335
 30
0.0
 10
89.42784611248652
 20
94.92827182888703
 30
0.0
 10
89.46097587345442
 20
94.88219737068195
 30
0.0
 10
89.51789355993944
 20
94.79718948234728
 30
0.0
 10
89.54207958544319
 20
94.7569091811659
 30
0.0
 10
89.60728753582295
 20
94.64197295469997
 30
0.0
 10
89.6420035960142
 20
94.57138996955294
 30
0.0
 10
89.73521886634508
 20
94.36718421047435
 30
0.0
 10
89.78089140170577
 20
94.244285828147
 30
0.0
 10
89.8191964852043
 20
94.1274125517594
 30
0.0
  0
SPLINE
  5
A8
330
1F
100
AcDbEntity
  8
0
  6
Continuous
 62
     7
370
    15
100
AcDbSpline
210
0.0
220
0.0
230
1.0
 70
     8
 71
     3
 72
     8
 73
     4
 74
     0
 42
0.00000001
 43
0.00000001
 40
0.0
 40
0.0
 40
0.0
 40
0.0
 40
1.0
 40
1.0
 40
1.0
 40
1.0
 10
142.2869756705888
 20
144.9847273585216
 30
0.0
 10
141.7918356412245
 20
144.0980477103413
 30
0.0
 10
141.2977529359455
 20
143.2107850746553
 30
0.0
 10
140.8050428390997
 20
142.322766076529
 30
0.0
  0
LINE
  5
A9
330
1F
100
AcDbEntity
  8
0
  6
Continuous
 62
     7
370
    15
100
AcDbLine
 10
142.2869756706
 20
138.9762215477
 30
0.0
 11
142.2869756706
 21
144.9847273585
 31
0.0
  0
SPLINE
  5
AA
330
1F
100
AcDbEntity
  8
0
  6
Continuous
 62
     7
370
    15
100
AcDbSpline
210
0.0
220
0.0
230
1.0
 70
     8
 71
     3
 72
     8
 73
     4
 74
     0
 42
0.00000001
 43
0.00000001
 40
0.0
 40
0.0
 40
0.0
 40
0.0
 40
1.0
 40
1.0
 40
1.0
 40
1.0
 10
140.8050428390997
 20
135.5676755529407
 30
0.0
 10
141.2843209896896
 20
136.7086867827933
 30
0.0
 10
141.7798888288295
 20
137.8450711935611
 30
0.0
 10
142.2869756705888
 20
138.9762215477248
 30
0.0
  0
LINE
  5
AB
330
1F
100
AcDbEntity
  8
0
  6
Continuous
 62
     7
370
    15
100
AcDbLine
 10
140.8050428391
 20
135.5676755529
 30
0.0
 11
140.8050428391
 21
142.3227660765
 31
0.0
  0
SPLINE
  5
AC
330
1F
100
AcDbEntity
  8
0
  6
Continuous
 62
     7
370
    15
100
AcDbSpline
210
0.0
220
0.0
230
1.0
 70
     8
 71
     3
 72
    10
 73
     6
 74
     0
 42
0.00000001
 43
0.00000001
 40
0.0
 40
0.0
 40
0.0
 40
0.0
 40
0.5
 40
0.5
 40
1.0
 40
1.0
 40
1.0
 40
1.0
 10
146.8450428390997
 20
144.3639722091213
 30
0.0
 10
146.8450428390997
 20
144.5243774754721
 30
0.0
 10
146.7828050079929
 20
144.6834392884607
 30
0.0
 10
146.5636700842503
 20
144.914351754091
 30
0.0
 10
146.4060813892584
 20
144.9847273585216
 30
0.0
 10
146.2450428390998
 20
144.9847273585216
 30
0.0
  0
SPLINE
  5
AD
330
1F
100
AcDbEntity
  8
0
  6
Continuous
 62
     7
370
    15
100
AcDbSpline
210
0.0
220
0.0
230
1.0
 70
     8
 71
     3
 72
    12
 73
     8
 74
     0
 42
0.00000001
 43
0.00000001
 40
0.0
 40
0.0
 40
0.0
 40
0.0
 40
0.2499999999999987
 40
0.2499999999999987
 40
0.4999999999999973
 40
0.4999999999999973
 40
1.0
 40
1.0
 40
1.0
 40
1.0
 10
146.2450428390998
 20
138.9762215477248
 30
0.0
 10
146.3362425609254
 20
138.9762215477248
 30
0.0
 10
146.4268375700614
 20
138.9480018491369
 30
0.0
 10
146.5802502965081
 20
138.8535588418888
 30
0.0
 10
146.6454591638318
 20
138.7872718651835
 30
0.0
 10
146.7982436931717
 20
138.5616470418952
 30
0.0
 10
146.8450428390997
 20
138.3792207788627
 30
0.0
 10
146.8450428390997
 20
138.1984841466158
 30
0.0
  0
LINE
  5
AE
330
1F
100
AcDbEntity
  8
0
  6
Continuous
 62
     7
370
    15
100
AcDbLine
 10
146.8450428391
 20
138.1984841466
 30
0.0
 11
146.8450428391
 21
144.3639722091
 31
0.0
  0
SPLINE
  5
AF
330
1F
100
AcDbEntity
  8
0
  6
Continuous
 62
     7
370
    15
100
AcDbSpline
210
0.0
220
0.0
230
1.0
 70
     8
 71
     3
 72
     8
 73
     4
 74
     0
 42
0.00000001
 43
0.00000001
 40
0.0
 40
0.0
 40
0.0
 40
0.0
 40
1.0
 40
1.0
 40
1.0
 40
1.0
 10
136.9850428390998
 20
142.322766076529
 30
0.0
 10
136.492332742254
 20
143.2107850746554
 30
0.0
 10
135.998250036975
 20
144.0980477103413
 30
0.0
 10
135.5031100076107
 20
144.9847273585216
 30
0.0
  0
SPLINE
  5
B0
330
1F
100
AcDbEntity
  8
0
  6
Continuous
 62
     7
370
    15
100
AcDbSpline
210
0.0
220
0.0
230
1.0
 70
     8
 71
     3
 72
     8
 73
     4
 74
     0
 42
0.00000001
 43
0.00000001
 40
0.0
 40
0.0
 40
0.0
 40
0.0
 40
1.0
 40
1.0
 40
1.0
 40
1.0
 10
135.5031100076107
 20
138.9762215477248
 30
0.0
 10
136.01019684937
 20
137.8450711935611
 30
0.0
 10
136.5057646885099
 20
136.7086867827933
 30
0.0
 10
136.9850428390998
 20
135.5676755529407
 30
0.0
  0
LINE
  5
B1
330
1F
100
AcDbEntity
  8
0
  6
Continuous
 62
     7
370
    15
100
AcDbLine
 10
136.9850428391
 20
135.5676755529
 30
0.0
 11
136.9850428391
 21
142.3227660765
 31
0.0
  0
LINE
  5
B2
330
1F
100
AcDbEntity
  8
0
  6
Continuous
 62
     7
370
    15
100
AcDbLine
 10
136.9850428391
 20
135.5676755529
 30
0.0
 11
136.9850428391
 21
134.6533985168
 31
0.0
  0
LINE
  5
B3
330
1F
100
AcDbEntity
  8
0
  6
Continuous
 62
     7
370
    15
100
AcDbLine
 10
142.2869756706
 20
138.9762215477
 30
0.0
 11
146.2450428391
 21
138.9762215477
 31
0.0
  0
LINE
  5
B4
330
1F
100
AcDbEntity
  8
0
  6
Continuous
 62
     7
370
    15
100
AcDbLine
 10
140.8050428391
 20
134.6533985168
 30
0.0
 11
140.8050428391
 21
135.5676755529
 31
0.0
  0
LINE
  5
B5
330
1F
100
AcDbEntity
  8
0
  6
Continuous
 62
     7
370
    15
100
AcDbLine
 10
146.8450428391
 20
138.1984841466
 30
0.0
 11
146.8450428391
 21
134.3675318854
 31
0.0
  0
LINE
  5
B6
330
1F
100
AcDbEntity
  8
0
  6
Continuous
 62
     7
370
    15
100
AcDbLine
 10
146.2450428391
 20
144.9847273585
 30
0.0
 11
142.2869756706
 21
144.9847273585
 31
0.0
  0
ARC
  5
B7
330
1F
100
AcDbEntity
  8
0
  6
Continuous
 62
     7
370
    15
100
AcDbCircle
 10
128.8951410307
 20
133.1845441251
 30
0.0
 40
7.285839823783525
100
AcDbArc
 50
70.983283609
 51
109.0416487784
  0
SPLINE
  5
B8
330
1F
100
AcDbEntity
  8
0
  6
Continuous
 62
     7
370
    15
100
AcDbSpline
210
0.0
220
0.0
230
1.0
 70
     8
 71
     3
 72
    39
 73
    35
 74
     0
 42
0.00000001
 43
0.00000001
 40
-0.0928043551745918
 40
-0.061704846735871
 40
-0.0305245298597161
 40
0.0
 40
0.0305379537712857
 40
0.0617396733444303
 40
0.0928511562863616
 40
0.1239581635814532
 40
0.1551451717995399
 40
0.1867314500165631
 40
0.2185162744046339
 40
0.2499298363871434
 40
0.2813650559789579
 40
0.3132232878484781
 40
0.344881941920815
 40
0.3761241187089456
 40
0.4072203283786568
 40
0.4382883502617059
 40
0.4694286048558121
 40
0.5000111438430811
 40
0.5305819932534598
 40
0.5617670451414667
 40
0.5928468450964569
 40
0.6239637556318322
 40
0.655179480564537
 40
0.6868189513443428
 40
0.7186229856212575
 40
0.7500614968638895
 40
0.7814671780303882
 40
0.813297598151944
 40
0.8449019848417562
 40
0.8761138750536882
 40
0.9071956448254082
 40
0.938295153264129
 40
0.9694754701402839
 40
1.0
 40
1.030537953771286
 40
1.06173967334443
 40
1.092851156286362
 10
167.3540532556421
 20
109.5783256846337
 30
0.0
 10
166.3949028838902
 20
109.4802398708968
 30
0.0
 10
165.4355322137273
 20
109.5783903822533
 30
0.0
 10
164.5150999543414
 20
109.8729646022449
 30
0.0
 10
163.6648190073045
 20
110.3353632153914
 30
0.0
 10
162.9276531448247
 20
110.9582945186871
 30
0.0
 10
162.3220342907635
 20
111.7160962515841
 30
0.0
 10
161.8733706307402
 20
112.5871574179445
 30
0.0
 10
161.5882734459625
 20
113.5316514944686
 30
0.0
 10
161.4938525627021
 20
114.5154960814781
 30
0.0
 10
161.5888513668174
 20
115.5000360415866
 30
0.0
 10
161.8743092113492
 20
116.4462057227971
 30
0.0
 10
162.3232245400797
 20
117.3194711319812
 30
0.0
 10
162.9292762564907
 20
118.0784856947783
 30
0.0
 10
163.6662029558907
 20
118.7016628423176
 30
0.0
 10
164.5153627321876
 20
119.1636979335959
 30
0.0
 10
165.4355307964764
 20
119.4572344474032
 30
0.0
 10
166.3952287715227
 20
119.5546670223578
 30
0.0
 10
167.3553702648021
 20
119.4569694150347
 30
0.0
 10
168.2758577697467
 20
119.1629166346948
 30
0.0
 10
169.1256709260811
 20
118.70042388
 30
0.0
 10
169.8623853602391
 20
118.0768579234374
 30
0.0
 10
170.4679335207389
 20
117.3178003013311
 30
0.0
 10
170.9162748638059
 20
116.4453837670199
 30
0.0
 10
171.2011867223823
 20
115.4998277443855
 30
0.0
 10
171.2962217141925
 20
114.515926331891
 30
0.0
 10
171.2019103208022
 20
113.5316287361483
 30
0.0
 10
170.9164252627471
 20
112.5866303585445
 30
0.0
 10
170.4673200765941
 20
111.7147748997788
 30
0.0
 10
169.861249560846
 20
110.9570654535389
 30
0.0
 10
169.123894269015
 20
110.3345750461559
 30
0.0
 10
168.2740401981624
 20
109.8726738809763
 30
0.0
 10
167.3540532556421
 20
109.5783256846337
 30
0.0
 10
166.3949028838902
 20
109.4802398708968
 30
0.0
 10
165.4355322137273
 20
109.5783903822533
 30
0.0
  0
LINE
  5
B9
330
1F
100
AcDbEntity
  8
0
  6
Continuous
 62
     7
370
    15
100
AcDbLine
 10
175.1725082366
 20
97.0175318854
 30
0.0
 11
175.1725082366
 21
132.0175318854
 31
0.0
  0
LINE
  5
BA
330
1F
100
AcDbEntity
  8
0
  6
Continuous
 62
     7
370
    15
100
AcDbLine
 10
185.8950428391
 20
103.291672407
 30
0.0
 11
185.8950428391
 21
125.7433913637
 31
0.0
  0
CIRCLE
  5
BB
330
1F
100
AcDbEntity
  8
0
  6
HIDDEN
 62
     7
370
     0
100
AcDbCircle
 10
166.3950428391
 20
114.5175318854
 30
0.0
 40
5.000000000000004
  0
CIRCLE
  5
BC
330
1F
100
AcDbEntity
  8
0
  6
HIDDEN
 62
     7
370
     0
100
AcDbCircle
 10
166.3950428391
 20
114.5175318854
 30
0.0
 40
2.500000000000013
  0
CIRCLE
  5
BD
330
1F
100
AcDbEntity
  8
0
  6
HIDDEN
 62
     7
370
     0
100
AcDbCircle
 10
166.3950428391
 20
114.5175318854
 30
0.0
 40
3.500000000000005
  0
LINE
  5
BE
330
1F
100
AcDbEntity
  8
0
  6
HIDDEN
 62
     7
370
     0
100
AcDbLine
 10
135.5031100076
 20
138.9762215477
 30
0.0
 11
135.5031100076
 21
134.3675318854
 31
0.0
  0
ARC
  5
BF
330
1F
100
AcDbEntity
  8
0
  6
HIDDEN
 62
     7
370
     0
100
AcDbCircle
 10
129.2254846167
 20
126.9671769959
 30
0.0
 40
3.634782129280568
100
AcDbArc
 50
264.783980018
 51
14.7517505878
  0
ARC
  5
C0
330
1F
100
AcDbEntity
  8
0
  6
HIDDEN
 62
     7
370
     0
100
AcDbCircle
 10
128.6173436429
 20
127.0148203915
 30
0.0
 40
3.677872837091718
100
AcDbArc
 50
167.0216383152
 51
274.3302609423
  0
LINE
  5
C1
330
1F
100
AcDbEntity
  8
0
  6
HIDDEN
 62
     7
370
     0
100
AcDbLine
 10
108.8901930437
 20
90.9929322625
 30
0.0
 11
108.6385354495
 21
90.9694106411
 31
0.0
  0
LINE
  5
C2
330
1F
100
AcDbEntity
  8
0
  6
HIDDEN
 62
     7
370
     0
100
AcDbLine
 10
108.5158438308
 20
138.0769629179
 30
0.0
 11
108.8901003234
 21
138.0421149153
 31
0.0
  0
SPLINE
  5
C3
330
1F
100
AcDbEntity
  8
0
  6
HIDDEN
 62
     7
370
     0
100
AcDbSpline
210
0.0
220
0.0
230
1.0
 70
     8
 71
     3
 72
    15
 73
    11
 74
     0
 42
0.00000001
 43
0.00000001
 40
0.0
 40
0.0
 40
0.0
 40
0.0
 40
0.1409172169897705
 40
0.2818898291171906
 40
0.4212989265166057
 40
0.5593768372264388
 40
0.6988856205980569
 40
0.8403671979046411
 40
0.981316445467027
 40
1.0
 40
1.0
 40
1.0
 40
1.0
 10
114.6500448407014
 20
94.6800034095409
 30
0.0
 10
114.3340031544288
 20
94.72035722686252
 30
0.0
 10
113.7017955445968
 20
94.80108072475736
 30
0.0
 10
112.4676324229196
 20
94.87763582235962
 30
0.0
 10
111.196910422061
 20
94.87295977122058
 30
0.0
 10
110.0083510170336
 20
94.79216375948837
 30
0.0
 10
109.0152283442525
 20
94.66776696297661
 30
0.0
 10
108.3758193379559
 20
94.56136342431451
 30
0.0
 10
108.0947992313724
 20
94.50828276363735
 30
0.0
 10
108.1613599690656
 20
94.52053880365159
 30
0.0
 10
108.1691502925838
 20
94.52197326066143
 30
0.0
  0
SPLINE
  5
C4
330
1F
100
AcDbEntity
  8
0
  6
HIDDEN
 62
     7
370
     0
100
AcDbSpline
210
0.0
220
0.0
230
1.0
 70
     8
 71
     3
 72
    15
 73
    11
 74
     0
 42
0.00000001
 43
0.00000001
 40
0.0
 40
0.0
 40
0.0
 40
0.0
 40
0.1201202395113831
 40
0.2584739316900695
 40
0.3987301965958642
 40
0.5404022890432704
 40
0.680739540300365
 40
0.819035606386088
 40
0.9577823106998845
 40
1.0
 40
1.0
 40
1.0
 40
1.0
 10
108.1691502925838
 20
134.5130905100533
 30
0.0
 10
108.1898594290543
 20
134.5090659161997
 30
0.0
 10
108.2344212110421
 20
134.5004058219388
 30
0.0
 10
108.7968608169148
 20
134.4011146953301
 30
0.0
 10
109.6903230292361
 20
134.2771971053489
 30
0.0
 10
110.8493021834283
 20
134.1774866685275
 30
0.0
 10
112.1223390635537
 20
134.1503481794518
 30
0.0
 10
113.3566243381972
 20
134.2056870136157
 30
0.0
 10
114.1845871349633
 20
134.2921656125999
 30
0.0
 10
114.5619976796272
 20
134.3431630308898
 30
0.0
 10
114.6500448407014
 20
134.3550603611738
 30
0.0
  0
SPLINE
  5
C5
330
1F
100
AcDbEntity
  8
0
  6
HIDDEN
 62
     7
370
     0
100
AcDbSpline
210
0.0
220
0.0
230
1.0
 70
     8
 71
     3
 72
    10
 73
     6
 74
     0
 42
0.00000001
 43
0.00000001
 40
0.0
 40
0.0
 40
0.0
 40
0.0
 40
0.4475542943784988
 40
0.8950918308022365
 40
1.0
 40
1.0
 40
1.0
 40
1.0
 10
114.6500448407014
 20
134.3550603611738
 30
0.0
 10
114.8967516597564
 20
134.3845729091656
 30
0.0
 10
115.3901560603243
 20
134.4435969000988
 30
0.0
 10
115.6791716299919
 20
134.4575349144515
 30
0.0
 10
115.6187922636494
 20
134.4536435883502
 30
0.0
 10
115.6073263608179
 20
134.4529046344713
 30
0.0
  0
SPLINE
  5
C6
330
1F
100
AcDbEntity
  8
0
  6
HIDDEN
 62
     7
370
     0
100
AcDbSpline
210
0.0
220
0.0
230
1.0
 70
     8
 71
     3
 72
    10
 73
     6
 74
     0
 42
0.00000001
 43
0.00000001
 40
0.0
 40
0.0
 40
0.0
 40
0.0
 40
0.3455425620612574
 40
0.7967180739436314
 40
1.0
 40
1.0
 40
1.0
 40
1.0
 10
115.6073464993974
 20
94.58215776727238
 30
0.0
 10
115.5977866799324
 20
94.58271331868885
 30
0.0
 10
115.5757445879077
 20
94.58399425453612
 30
0.0
 10
115.1587736541376
 20
94.61395374177275
 30
0.0
 10
114.770612203442
 20
94.66434981563708
 30
0.0
 10
114.6500448407014
 20
94.6800034095409
 30
0.0
  0
LINE
  5
C7
330
1F
100
AcDbEntity
  8
0
  6
HIDDEN
 62
     7
370
     0
100
AcDbLine
 10
101.8990174353
 20
97.5175318854
 30
0.0
 11
101.8990174353
 21
131.5175318854
 31
0.0
  0
LWPOLYLINE
  5
C8
330
1F
100
AcDbEntity
  8
0
  6
HIDDEN
 62
     7
370
     0
100
AcDbPolyline
 90
       15
 70
   128
 43
0.0
 10
128.8950428391
 20
136.4631343
 10
129.6300409104
 20
136.4971881006
 10
130.3400095038
 20
136.5981898412
 10
131.0007714906
 20
136.7627000285
 10
131.5898254137
 20
136.9851164656
 10
132.0871117482
 20
137.2578650272
 10
132.4756960045
 20
137.5716575884
 10
132.7423454118
 20
137.9158083199
 10
132.8779795443
 20
138.2785975811
 10
132.8779795443
 20
138.6476710189
 10
132.7423454118
 20
139.0104602801
 10
132.4756960045
 20
139.3546110116
 10
132.0871117482
 20
139.6684035728
 10
131.5898254137
 20
139.9411521344
 10
131.2691882322
 20
140.0727486678
  0
LWPOLYLINE
  5
C9
330
1F
100
AcDbEntity
  8
0
  6
HIDDEN
 62
     7
370
     0
100
AcDbPolyline
 90
       15
 70
   128
 43
0.0
 10
126.5180966363
 20
140.0717149437
 10
126.2002602645
 20
139.9411521344
 10
125.70297393
 20
139.6684035728
 10
125.3143896737
 20
139.3546110116
 10
125.0477402664
 20
139.0104602801
 10
124.9121061339
 20
138.6476710189
 10
124.9121061339
 20
138.2785975811
 10
125.0477402664
 20
137.9158083199
 10
125.3143896737
 20
137.5716575884
 10
125.70297393
 20
137.2578650272
 10
126.2002602645
 20
136.9851164656
 10
126.7893141876
 20
136.7627000285
 10
127.4500761744
 20
136.5981898412
 10
128.1600447678
 20
136.4971881006
 10
128.8950428391
 20
136.4631343
  0
SPLINE
  5
CA
330
1F
100
AcDbEntity
  8
0
  6
HIDDEN
 62
     7
370
     0
100
AcDbSpline
210
0.0
220
0.0
230
1.0
 70
     8
 71
     3
 72
    83
 73
    79
 74
     0
 42
0.00000001
 43
0.00000001
 40
-0.0312500000000006
 40
-0.0312500000000006
 40
0.0
 40
0.0
 40
0.031249999999999
 40
0.031249999999999
 40
0.0468749999999987
 40
0.0468749999999987
 40
0.0624999999999985
 40
0.0624999999999985
 40
0.0937499999999981
 40
0.0937499999999981
 40
0.1249999999999976
 40
0.1249999999999976
 40
0.1562499999999972
 40
0.1562499999999972
 40
0.1874999999999968
 40
0.1874999999999968
 40
0.2187499999999963
 40
0.2187499999999963
 40
0.2343749999999961
 40
0.2343749999999961
 40
0.2499999999999959
 40
0.2656249999999957
 40
0.2656249999999957
 40
0.2812499999999955
 40
0.2812499999999955
 40
0.3124999999999951
 40
0.3124999999999951
 40
0.3281249999999949
 40
0.3281249999999949
 40
0.3437499999999947
 40
0.3437499999999947
 40
0.3593749999999945
 40
0.3593749999999945
 40
0.3749999999999943
 40
0.3749999999999943
 40
0.4062499999999943
 40
0.4062499999999943
 40
0.4374999999999942
 40
0.4374999999999942
 40
0.4687499999999942
 40
0.4687499999999942
 40
0.4999999999999941
 40
0.4999999999999941
 40
0.5312499999999941
 40
0.5312499999999941
 40
0.562499999999994
 40
0.562499999999994
 40
0.5781249999999939
 40
0.5781249999999939
 40
0.5937499999999939
 40
0.5937499999999939
 40
0.6249999999999942
 40
0.6249999999999942
 40
0.6562499999999947
 40
0.6562499999999947
 40
0.687499999999995
 40
0.687499999999995
 40
0.7031249999999953
 40
0.7031249999999953
 40
0.7187499999999954
 40
0.7187499999999954
 40
0.7499999999999959
 40
0.7499999999999959
 40
0.7812499999999964
 40
0.7812499999999964
 40
0.812499999999997
 40
0.812499999999997
 40
0.8437499999999974
 40
0.8437499999999974
 40
0.874999999999998
 40
0.874999999999998
 40
0.9062499999999984
 40
0.9062499999999984
 40
0.937499999999999
 40
0.937499999999999
 40
0.9687499999999994
 40
0.9687499999999994
 40
1.0
 40
1.0
 40
1.031249999999999
 40
1.031249999999999
 10
166.2599629005571
 20
109.2082104860701
 30
0.0
 10
165.5301227776425
 20
109.2082104860701
 30
0.0
 10
165.1708648201157
 20
109.2401111663159
 30
0.0
 10
164.6401488201475
 20
109.3342416959359
 30
0.0
 10
164.4646147125741
 20
109.373389652751
 30
0.0
 10
164.1163474136418
 20
109.467660341059
 30
0.0
 10
163.942718601289
 20
109.5231491582009
 30
0.0
 10
163.4347830865663
 20
109.7116004358302
 30
0.0
 10
163.1126096130111
 20
109.8660873955055
 30
0.0
 10
162.5008904389102
 20
110.2335578932254
 30
0.0
 10
162.2083948193689
 20
110.4495443323059
 30
0.0
 10
161.6784192672787
 20
110.9293624045684
 30
0.0
 10
161.4398221257146
 20
111.1927282588084
 30
0.0
 10
161.0165103924003
 20
111.768551950613
 30
0.0
 10
160.8314655013615
 20
112.083738583351
 30
0.0
 10
160.5358667323
 20
112.7358780813519
 30
0.0
 10
160.4223735533107
 20
113.0759173305631
 30
0.0
 10
160.3061791313744
 20
113.6082837298878
 30
0.0
 10
160.27682447577
 20
113.7888095086222
 30
0.0
 10
160.237872905761
 20
114.14809721114
 30
0.0
 10
160.2181585267773
 20
114.5078228830854
 30
0.0
 10
160.236530672272
 20
114.8684167212924
 30
0.0
 10
160.2743974793926
 20
115.2294544295612
 30
0.0
 10
160.3032924751854
 20
115.4105510103362
 30
0.0
 10
160.4172032067703
 20
115.9410542082119
 30
0.0
 10
160.5294096288888
 20
116.2823130591466
 30
0.0
 10
160.7514617487836
 20
116.7760565029048
 30
0.0
 10
160.8348753551494
 20
116.9380117296613
 30
0.0
 10
161.0160307606702
 20
117.2487314828122
 30
0.0
 10
161.1141157842063
 20
117.3984034214798
 30
0.0
 10
161.3248893118104
 20
117.6868044114325
 30
0.0
 10
161.4375791694853
 20
117.8255322337374
 30
0.0
 10
161.6776053563263
 20
118.0921433803177
 30
0.0
 10
161.8055929650918
 20
118.22053689901
 30
0.0
 10
162.2043033360662
 20
118.5824033440905
 30
0.0
 10
162.4909909689743
 20
118.7947837928535
 30
0.0
 10
163.1048127713771
 20
119.1650459529065
 30
0.0
 10
163.4337979665513
 20
119.3228782304904
 30
0.0
 10
164.1066855139895
 20
119.5729662167919
 30
0.0
 10
164.4534597816965
 20
119.6673171890335
 30
0.0
 10
165.1679190521901
 20
119.7948159468108
 30
0.0
 10
165.5310812298603
 20
119.8266228904962
 30
0.0
 10
166.2511132890425
 20
119.8270811673439
 30
0.0
 10
166.611148531448
 20
119.796190111478
 30
0.0
 10
167.3286138052687
 20
119.6693235529723
 30
0.0
 10
167.6756782530132
 20
119.575249799321
 30
0.0
 10
168.1793148344195
 20
119.3889349600645
 30
0.0
 10
168.3443476695383
 20
119.3192412979392
 30
0.0
 10
168.6685763473402
 20
119.1641292511759
 30
0.0
 10
168.8286123433633
 20
119.0781649821941
 30
0.0
 10
169.2913189699205
 20
118.8002723445767
 30
0.0
 10
169.5776492328779
 20
118.5886016931509
 30
0.0
 10
170.1061607795912
 20
118.1112524721561
 30
0.0
 10
170.3507574172714
 20
117.8418138533051
 30
0.0
 10
170.7746239746175
 20
117.2649346222004
 30
0.0
 10
170.9553154044182
 20
116.9576194166189
 30
0.0
 10
171.1783530479611
 20
116.4670446133217
 30
0.0
 10
171.2449775031948
 20
116.2974626035924
 30
0.0
 10
171.3593135014954
 20
115.9533267896844
 30
0.0
 10
171.4069494632231
 20
115.779448381443
 30
0.0
 10
171.5219173501085
 20
115.2524759368079
 30
0.0
 10
171.5616334322952
 20
114.8939834990108
 30
0.0
 10
171.5631727366949
 20
114.1625197663136
 30
0.0
 10
171.5249885072561
 20
113.8036148262648
 30
0.0
 10
171.3741688383287
 20
113.0987930307474
 30
0.0
 10
171.259443279495
 20
112.7497121296132
 30
0.0
 10
170.9644049485832
 20
112.0942767458516
 30
0.0
 10
170.7841319470148
 20
111.7847478311243
 30
0.0
 10
170.3579363407823
 20
111.2014063090123
 30
0.0
 10
170.1172479466592
 20
110.9351826905024
 30
0.0
 10
169.5887156620769
 20
110.4551553720392
 30
0.0
 10
169.2967575877804
 20
110.2386229698577
 30
0.0
 10
168.6818758524781
 20
109.8682182426081
 30
0.0
 10
168.3592114658344
 20
109.7133926493609
 30
0.0
 10
167.6839414717184
 20
109.4621788994829
 30
0.0
 10
167.3305294382449
 20
109.3664180589285
 30
0.0
 10
166.6203058038875
 20
109.2401590418035
 30
0.0
 10
166.2599629005571
 20
109.2082104860701
 30
0.0
 10
165.5301227776425
 20
109.2082104860701
 30
0.0
  0
SPLINE
  5
CB
330
1F
100
AcDbEntity
  8
0
  6
HIDDEN
 62
     7
370
     0
100
AcDbSpline
210
0.0
220
0.0
230
1.0
 70
     8
 71
     3
 72
    49
 73
    45
 74
     0
 42
0.00000001
 43
0.00000001
 40
-0.0453289120053134
 40
-0.0288496406627727
 40
-0.0137448999164239
 40
0.0
 40
0.0161749300512397
 40
0.0341951114529339
 40
0.0540821746199395
 40
0.075851978456679
 40
0.0995163878699252
 40
0.1250844199077876
 40
0.1502122363044939
 40
0.1736095456507621
 40
0.1952861273068682
 40
0.2152544869640919
 40
0.2335308377917996
 40
0.2501365530631879
 40
0.2850050262080893
 40
0.3265790049403803
 40
0.3749615561881987
 40
0.3970363947906101
 40
0.4177011086878471
 40
0.4369611297394411
 40
0.4548232786298784
 40
0.4712962209798562
 40
0.4863911248999447
 40
0.5001226324881293
 40
0.5342115554729655
 40
0.5757710868834712
 40
0.6248974126761324
 40
0.6465640803628251
 40
0.6669596739976683
 40
0.6860901303064931
 40
0.703962723311894
 40
0.7205864555658942
 40
0.7359725999381246
 40
0.7501354635862337
 40
0.7849405197656496
 40
0.8264670213202238
 40
0.8748182531463204
 40
0.8968858172443949
 40
0.9175466010995706
 40
0.9368060714706348
 40
0.9546710879946866
 40
0.9711503593372273
 40
0.9862551000835761
 40
1.0
 40
1.01617493005124
 40
1.034195111452934
 40
1.05408217461994
 10
166.013820147262
 20
110.2787556145906
 30
0.0
 10
166.416779990027
 20
110.2612374961126
 30
0.0
 10
166.8459164639769
 20
110.2831956789921
 30
0.0
 10
167.3238255451456
 20
110.3598887456983
 30
0.0
 10
167.8362829444146
 20
110.5064438435012
 30
0.0
 10
168.3701953845963
 20
110.7381382514011
 30
0.0
 10
168.9077397186072
 20
111.0690708493607
 30
0.0
 10
169.4094965683554
 20
111.4965267638294
 30
0.0
 10
169.8362365601061
 20
111.9957016656268
 30
0.0
 10
170.1655591202421
 20
112.5259597225733
 30
0.0
 10
170.398976653723
 20
113.0565485573029
 30
0.0
 10
170.5487561330417
 20
113.570472745061
 30
0.0
 10
170.6284440270006
 20
114.0550134914276
 30
0.0
 10
170.661563791246
 20
114.6791673606721
 30
0.0
 10
170.5694049584226
 20
115.513813526365
 30
0.0
 10
170.1827708828803
 20
116.5680743650298
 30
0.0
 10
169.5856224345006
 20
117.379165537937
 30
0.0
 10
168.9778047105723
 20
117.9085483597126
 30
0.0
 10
168.5184009352351
 20
118.2118941430825
 30
0.0
 10
168.0574871747102
 20
118.4393485197207
 30
0.0
 10
167.6073846289506
 20
118.599579377495
 30
0.0
 10
167.1778956584364
 20
118.7019568609661
 30
0.0
 10
166.7761797512742
 20
118.7562960375125
 30
0.0
 10
166.2132432612565
 20
118.7808402310879
 30
0.0
 10
165.411615087269
 20
118.6940568178896
 30
0.0
 10
164.3563700863903
 20
118.3127268828996
 30
0.0
 10
163.5411187235483
 20
117.7156369433768
 30
0.0
 10
163.0105288821667
 20
117.1081563117718
 30
0.0
 10
162.7095035907512
 20
116.6557360582263
 30
0.0
 10
162.481363587572
 20
116.1988971902471
 30
0.0
 10
162.3187095572262
 20
115.7492306886586
 30
0.0
 10
162.2133995352921
 20
115.3161774880686
 30
0.0
 10
162.1567205039777
 20
114.90681414549
 30
0.0
 10
162.1311220033752
 20
114.3309938234219
 30
0.0
 10
162.2212764848405
 20
113.5192579014887
 30
0.0
 10
162.6077643699724
 20
112.4663837014644
 30
0.0
 10
163.2044551835351
 20
111.6559701277522
 30
0.0
 10
163.8119254838496
 20
111.1267953060687
 30
0.0
 10
164.2711967181878
 20
110.823453111603
 30
0.0
 10
164.7320633328786
 20
110.595941407041
 30
0.0
 10
165.1822149809789
 20
110.4356227526865
 30
0.0
 10
165.6118697756398
 20
110.3331632295818
 30
0.0
 10
166.013820147262
 20
110.2787556145906
 30
0.0
 10
166.416779990027
 20
110.2612374961126
 30
0.0
 10
166.8459164639769
 20
110.2831956789921
 30
0.0
  0
SPLINE
  5
CC
330
1F
100
AcDbEntity
  8
0
  6
HIDDEN
 62
     7
370
     0
100
AcDbSpline
210
0.0
220
0.0
230
1.0
 70
     8
 71
     3
 72
    11
 73
     7
 74
     0
 42
0.00000001
 43
0.00000001
 40
0.0
 40
0.0
 40
0.0
 40
0.0
 40
0.0005779865010846
 40
0.0005779865010846
 40
0.0005779865010846
 40
0.0011559733324422
 40
0.0011559733324422
 40
0.0011559733324422
 40
0.0011559733324422
 10
88.99504283909975
 20
116.5173724935173
 30
0.0
 10
89.16171009390573
 20
116.5153888541766
 30
0.0
 10
89.32837652358339
 20
116.5133512471684
 30
0.0
 10
89.49504286203522
 20
116.5112397837622
 30
0.0
 10
89.66170929086162
 20
116.5091283192112
 30
0.0
 10
89.8283756644993
 20
116.5069427560551
 30
0.0
 10
89.99504283909974
 20
116.5046601787238
 30
0.0
  0
SPLINE
  5
CD
330
1F
100
AcDbEntity
  8
0
  6
HIDDEN
 62
     7
370
     0
100
AcDbSpline
210
0.0
220
0.0
230
1.0
 70
     8
 71
     3
 72
    11
 73
     7
 74
     0
 42
0.00000001
 43
0.00000001
 40
0.0
 40
0.0
 40
0.0
 40
0.0
 40
0.0005782382535738
 40
0.0005782382535738
 40
0.0005782382535738
 40
0.0011564766069467
 40
0.0011564766069467
 40
0.0011564766069467
 40
0.0011564766069467
 10
89.99504283909975
 20
112.5208315831392
 30
0.0
 10
89.82838888513113
 20
112.5203940053775
 30
0.0
 10
89.66172821292916
 20
112.5199139407051
 30
0.0
 10
89.49506132426374
 20
112.5193944013358
 30
0.0
 10
89.3283944058677
 20
112.5188748618737
 30
0.0
 10
89.16172127603446
 20
112.5183160328518
 30
0.0
 10
88.99504283909974
 20
112.5177304892687
 30
0.0
  0
LINE
  5
CE
330
1F
100
AcDbEntity
  8
0
  6
HIDDEN
 62
     7
370
     0
100
AcDbLine
 10
128.5548688076
 20
97.5175318854
 30
0.0
 11
128.5548688076
 21
131.5175318854
 31
0.0
  0
LINE
  5
CF
330
1F
100
AcDbEntity
  8
0
  6
HIDDEN
 62
     7
370
     0
100
AcDbLine
 10
130.8450428391
 20
98.7925318854
 30
0.0
 11
130.8450428391
 21
130.2425318685
 31
0.0
  0
SPLINE
  5
D0
330
1F
100
AcDbEntity
  8
0
  6
HIDDEN
 62
     7
370
     0
100
AcDbSpline
210
0.0
220
0.0
230
1.0
 70
     8
 71
     3
 72
    16
 73
    12
 74
     0
 42
0.00000001
 43
0.00000001
 40
0.0
 40
0.0
 40
0.0
 40
0.0
 40
0.124999999999998
 40
0.124999999999998
 40
0.249999999999996
 40
0.249999999999996
 40
0.4999999999999973
 40
0.4999999999999973
 40
0.7499999999999987
 40
0.7499999999999987
 40
1.0
 40
1.0
 40
1.0
 40
1.0
 10
97.69504283909976
 20
98.7160414493257
 30
0.0
 10
97.79016459376558
 20
98.7160414493257
 30
0.0
 10
97.88349466249366
 20
98.71222561593291
 30
0.0
 10
98.06675642323167
 20
98.6974550632031
 30
0.0
 10
98.15763413878867
 20
98.68629701522752
 30
0.0
 10
98.4144358363084
 20
98.64382574508579
 30
0.0
 10
98.56950320118041
 20
98.60277954788299
 30
0.0
 10
98.82324966273502
 20
98.5076334313011
 30
0.0
 10
98.92412011440288
 20
98.45287069721952
 30
0.0
 10
99.05936652909772
 20
98.34160957331564
 30
0.0
 10
99.09504283909976
 20
98.28443983598696
 30
0.0
 10
99.09504283909976
 20
98.23001826295325
 30
0.0
  0
SPLINE
  5
D1
330
1F
100
AcDbEntity
  8
0
  6
HIDDEN
 62
     7
370
     0
100
AcDbSpline
210
0.0
220
0.0
230
1.0
 70
     8
 71
     3
 72
     8
 73
     4
 74
     0
 42
0.00000001
 43
0.00000001
 40
0.0
 40
0.0
 40
0.0
 40
0.0
 40
1.0
 40
1.0
 40
1.0
 40
1.0
 10
90.29504284238058
 20
100.8608443954079
 30
0.0
 10
90.29504284238251
 20
99.976947253091
 30
0.0
 10
90.2815622164731
 20
99.26236400802904
 30
0.0
 10
90.2802108482838
 20
98.71604144932569
 30
0.0
  0
SPLINE
  5
D2
330
1F
100
AcDbEntity
  8
0
  6
HIDDEN
 62
     7
370
     0
100
AcDbSpline
210
0.0
220
0.0
230
1.0
 70
     8
 71
     3
 72
    10
 73
     6
 74
     0
 42
0.00000001
 43
0.00000001
 40
0.0
 40
0.0
 40
0.0
 40
0.0
 40
0.5
 40
0.5
 40
1.0
 40
1.0
 40
1.0
 40
1.0
 10
89.99504283909974
 20
101.8857546610607
 30
0.0
 10
90.086433954782
 20
101.7111158734514
 30
0.0
 10
90.1590857885075
 20
101.5375140462044
 30
0.0
 10
90.2665846815031
 20
101.1939006272148
 30
0.0
 10
90.29504284237498
 20
101.0255748006918
 30
0.0
 10
90.2950428423806
 20
100.8608443954674
 30
0.0
  0
LINE
  5
D3
330
1F
100
AcDbEntity
  8
0
  6
HIDDEN
 62
     7
370
     0
100
AcDbLine
 10
89.9950428391
 20
104.9167050931
 30
0.0
 11
89.9950428391
 21
101.8857546611
 31
0.0
  0
SPLINE
  5
D4
330
1F
100
AcDbEntity
  8
0
  6
HIDDEN
 62
     7
370
     0
100
AcDbSpline
210
0.0
220
0.0
230
1.0
 70
     8
 71
     3
 72
    10
 73
     6
 74
     0
 42
0.00000001
 43
0.00000001
 40
0.0
 40
0.0
 40
0.0
 40
0.0
 40
0.5
 40
0.5
 40
1.0
 40
1.0
 40
1.0
 40
1.0
 10
90.29504284218497
 20
106.2845455097145
 30
0.0
 10
90.29504284218496
 20
106.0425615421432
 30
0.0
 10
90.26689281312464
 20
105.8082191132111
 30
0.0
 10
90.16330289901931
 20
105.3528440909951
 30
0.0
 10
90.08667418945427
 20
105.1312395279174
 30
0.0
 10
89.99504283909974
 20
104.9167050931446
 30
0.0
  0
LINE
  5
D5
330
1F
100
AcDbEntity
  8
0
  6
HIDDEN
 62
     7
370
     0
100
AcDbLine
 10
90.2950428422
 20
118.1221655069
 30
0.0
 11
90.2950428422
 21
106.2845455097
 31
0.0
  0
SPLINE
  5
D6
330
1F
100
AcDbEntity
  8
0
  6
HIDDEN
 62
     7
370
     0
100
AcDbSpline
210
0.0
220
0.0
230
1.0
 70
     8
 71
     3
 72
     8
 73
     4
 74
     0
 42
0.00000001
 43
0.00000001
 40
0.0
 40
0.0
 40
0.0
 40
0.0
 40
1.0
 40
1.0
 40
1.0
 40
1.0
 10
89.99504283909975
 20
124.1244712062379
 30
0.0
 10
90.17607430559907
 20
123.6923637206276
 30
0.0
 10
90.29504284219068
 20
123.238218314588
 30
0.0
 10
90.29504284218498
 20
122.7505182609693
 30
0.0
  0
LINE
  5
D7
330
1F
100
AcDbEntity
  8
0
  6
HIDDEN
 62
     7
370
     0
100
AcDbLine
 10
89.9950428391
 20
127.1576741924
 30
0.0
 11
89.9950428391
 21
124.1244712062
 31
0.0
  0
SPLINE
  5
D8
330
1F
100
AcDbEntity
  8
0
  6
HIDDEN
 62
     7
370
     0
100
AcDbSpline
210
0.0
220
0.0
230
1.0
 70
     8
 71
     3
 72
    10
 73
     6
 74
     0
 42
0.00000001
 43
0.00000001
 40
0.0
 40
0.0
 40
0.0
 40
0.0
 40
0.5
 40
0.5
 40
1.0
 40
1.0
 40
1.0
 40
1.0
 10
90.29504284249214
 20
128.1742193752772
 30
0.0
 10
90.29504284249035
 20
128.009583028672
 30
0.0
 10
90.26788417173535
 20
127.8424278048424
 30
0.0
 10
90.162119176418
 20
127.5038047970425
 30
0.0
 10
90.0857043881196
 20
127.3315330197485
 30
0.0
 10
89.99504283909977
 20
127.1576741924054
 30
0.0
  0
SPLINE
  5
D9
330
1F
100
AcDbEntity
  8
0
  6
HIDDEN
 62
     7
370
     0
100
AcDbSpline
210
0.0
220
0.0
230
1.0
 70
     8
 71
     3
 72
    18
 73
    14
 74
     0
 42
0.00000001
 43
0.00000001
 40
0.0
 40
0.0
 40
0.0
 40
0.0
 40
0.2500000000000033
 40
0.2500000000000033
 40
0.3750000000000029
 40
0.3750000000000029
 40
0.5000000000000026
 40
0.5000000000000026
 40
0.6250000000000022
 40
0.6250000000000022
 40
0.7500000000000018
 40
0.7500000000000018
 40
1.0
 40
1.0
 40
1.0
 40
1.0
 10
95.09504283909975
 20
130.8050455077615
 30
0.0
 10
95.09504283909975
 20
130.7505709872093
 30
0.0
 10
95.06013214770759
 20
130.6941899278568
 30
0.0
 10
94.95812284637454
 20
130.6101130870033
 30
0.0
 10
94.91648649169643
 20
130.5827793830124
 30
0.0
 10
94.81808069620767
 20
130.5298254674134
 30
0.0
 10
94.76053748450339
 20
130.5039381136963
 30
0.0
 10
94.63323931093045
 20
130.456160568863
 30
0.0
 10
94.56365200617297
 20
130.4342126506851
 30
0.0
 10
94.41221776101801
 20
130.3947800857724
 30
0.0
 10
94.32953385792408
 20
130.3772238365465
 30
0.0
 10
94.07342239588603
 20
130.334785071126
 30
0.0
 10
93.88550739199803
 20
130.319022321389
 30
0.0
 10
93.69504283909976
 20
130.319022321389
 30
0.0
  0
LINE
  5
DA
330
1F
100
AcDbEntity
  8
0
  6
HIDDEN
 62
     7
370
     0
100
AcDbLine
 10
93.6950428391
 20
130.3190223214
 30
0.0
 11
90.2950428425
 21
130.3190223214
 31
0.0
  0
LINE
  5
DB
330
1F
100
AcDbEntity
  8
0
  6
HIDDEN
 62
     7
370
     0
100
AcDbLine
 10
90.2260738525
 20
98.7160414493
 30
0.0
 11
97.6950428391
 21
98.7160414493
 31
0.0
  0
SPLINE
  5
DC
330
1F
100
AcDbEntity
  8
0
  6
HIDDEN
 62
     7
370
     0
100
AcDbSpline
210
0.0
220
0.0
230
1.0
 70
     8
 71
     3
 72
    22
 73
    18
 74
     0
 42
0.00000001
 43
0.00000001
 40
0.0
 40
0.0
 40
0.0
 40
0.0
 40
0.125
 40
0.125
 40
0.25
 40
0.25
 40
0.5000000000000001
 40
0.5000000000000001
 40
0.5625000000000001
 40
0.5625000000000001
 40
0.6250000000000001
 40
0.6250000000000001
 40
0.75
 40
0.75
 40
0.875
 40
0.875
 40
1.0
 40
1.0
 40
1.0
 40
1.0
 10
90.22607385245765
 20
98.7160414493257
 30
0.0
 10
90.21299145972928
 20
98.97114715947338
 30
0.0
 10
90.19977189628945
 20
99.26430541857728
 30
0.0
 10
90.17732471849534
 20
99.92660588420209
 30
0.0
 10
90.16784625147088
 20
100.2968798048135
 30
0.0
 10
90.14864829053437
 20
101.5194366079273
 30
0.0
 10
90.14976206353124
 20
102.4565755340591
 30
0.0
 10
90.1686728564843
 20
103.7764467635741
 30
0.0
 10
90.1733023843433
 20
104.0479486725504
 30
0.0
 10
90.18378360408926
 20
104.6063335073527
 30
0.0
 10
90.18957886537368
 20
104.8934563632923
 30
0.0
 10
90.20788808627861
 20
105.766045617664
 30
0.0
 10
90.22192302055898
 20
106.3665012940199
 30
0.0
 10
90.25138019269582
 20
107.6039757865159
 30
0.0
 10
90.26693588367739
 20
108.2409919431594
 30
0.0
 10
90.29073043367427
 20
109.552480540844
 30
0.0
 10
90.29874948581963
 20
110.2286031525045
 30
0.0
 10
90.29504283909975
 20
110.9128982637893
 30
0.0
  0
LINE
  5
DD
330
1F
100
AcDbEntity
  8
0
  6
HIDDEN
 62
     7
370
     0
100
AcDbLine
 10
90.2950428425
 20
118.1221655069
 30
0.0
 11
90.2950428425
 21
130.3190223214
 31
0.0
  0
SPLINE
  5
DE
330
1F
100
AcDbEntity
  8
0
  6
HIDDEN
 62
     7
370
     0
100
AcDbSpline
210
0.0
220
0.0
230
1.0
 70
     8
 71
     3
 72
    10
 73
     6
 74
     0
 42
0.00000001
 43
0.00000001
 40
0.0
 40
0.0
 40
0.0
 40
0.0
 40
0.5
 40
0.5
 40
1.0
 40
1.0
 40
1.0
 40
1.0
 10
90.29504283909974
 20
110.9128982637742
 30
0.0
 10
90.29504283909958
 20
111.1868134118483
 30
0.0
 10
90.26928360923074
 20
111.4577549905779
 30
0.0
 10
90.16607767649732
 20
111.99344607218
 30
0.0
 10
90.08873951262292
 20
112.2591928757018
 30
0.0
 10
89.99504283909974
 20
112.5208315831392
 30
0.0
  0
SPLINE
  5
DF
330
1F
100
AcDbEntity
  8
0
  6
HIDDEN
 62
     7
370
     0
100
AcDbSpline
210
0.0
220
0.0
230
1.0
 70
     8
 71
     3
 72
    10
 73
     6
 74
     0
 42
0.00000001
 43
0.00000001
 40
0.0
 40
0.0
 40
0.0
 40
0.0
 40
0.5
 40
0.5
 40
1.0
 40
1.0
 40
1.0
 40
1.0
 10
89.99504283909975
 20
116.5046601787238
 30
0.0
 10
90.08827342049051
 20
116.7685539867936
 30
0.0
 10
90.16330303272709
 20
117.0347342974316
 30
0.0
 10
90.26837013190493
 20
117.5730568723891
 30
0.0
 10
90.29504284249097
 20
117.8458049886344
 30
0.0
 10
90.29504284249217
 20
118.1221655069245
 30
0.0
  0
LINE
  5
E0
330
1F
100
AcDbEntity
  8
0
  6
HIDDEN
 62
     7
370
     0
100
AcDbLine
 10
89.9950428391
 20
112.5208315831
 30
0.0
 11
89.9950428391
 21
116.5046601787
 31
0.0
  0
LINE
  5
E1
330
1F
100
AcDbEntity
  8
0
  6
HIDDEN
 62
     7
370
     0
100
AcDbLine
 10
90.1450428391
 20
96.5275318854
 30
0.0
 11
90.1450428391
 21
93.64759412
 31
0.0
  0
LINE
  5
E2
330
1F
100
AcDbEntity
  8
0
  6
HIDDEN
 62
     7
370
     0
100
AcDbLine
 10
99.0950428391
 20
96.5275318854
 30
0.0
 11
99.0950428391
 21
92.5537943542
 31
0.0
  0
LINE
  5
E3
330
1F
100
AcDbEntity
  8
0
  6
HIDDEN
 62
     7
370
     0
100
AcDbLine
 10
90.1450428391
 20
132.5075318854
 30
0.0
 11
90.1450428391
 21
135.3874696508
 31
0.0
  0
LINE
  5
E4
330
1F
100
AcDbEntity
  8
0
  6
HIDDEN
 62
     7
370
     0
100
AcDbLine
 10
95.0950428391
 20
132.5075318854
 30
0.0
 11
95.0950428391
 21
136.3616395577
 31
0.0
  0
LINE
  5
E5
330
1F
100
AcDbEntity
  8
0
  6
HIDDEN
 62
     7
370
     0
100
AcDbLine
 10
139.6950428391
 20
105.0175318854
 30
0.0
 11
139.6950428391
 21
124.0175318854
 31
0.0
  0
LINE
  5
E6
330
1F
100
AcDbEntity
  8
0
  6
HIDDEN
 62
     7
370
     0
100
AcDbLine
 10
142.6950428391
 20
105.0175318854
 30
0.0
 11
142.6950428391
 21
124.0175318854
 31
0.0
  0
LINE
  5
E7
330
1F
100
AcDbEntity
  8
0
  6
HIDDEN
 62
     7
370
     0
100
AcDbLine
 10
131.3450428391
 20
106.0175318854
 30
0.0
 11
131.3450428391
 21
123.0175318854
 31
0.0
  0
LINE
  5
E8
330
1F
100
AcDbEntity
  8
0
  6
HIDDEN
 62
     7
370
     0
100
AcDbLine
 10
137.0827176414
 20
88.1175318854
 30
0.0
 11
133.8450428391
 21
88.1175318854
 31
0.0
  0
LINE
  5
E9
330
1F
100
AcDbEntity
  8
0
  6
HIDDEN
 62
     7
370
     0
100
AcDbLine
 10
125.8450428391
 20
83.0334089025
 30
0.0
 11
125.8450428391
 21
88.1175318854
 31
0.0
  0
LINE
  5
EA
330
1F
100
AcDbEntity
  8
0
  6
HIDDEN
 62
     7
370
     0
100
AcDbLine
 10
133.8450428391
 20
88.1175318854
 30
0.0
 11
125.8450428391
 21
88.1175318854
 31
0.0
  0
LINE
  5
EB
330
1F
100
AcDbEntity
  8
0
  6
HIDDEN
 62
     7
370
     0
100
AcDbLine
 10
146.8450428391
 20
88.1175318854
 30
0.0
 11
140.7073680368
 21
88.1175318854
 31
0.0
  0
LINE
  5
EC
330
1F
100
AcDbEntity
  8
0
  6
HIDDEN
 62
     7
370
     0
100
AcDbLine
 10
146.8450428391
 20
140.9175318854
 30
0.0
 11
140.4107453074
 21
140.9175318854
 31
0.0
  0
LINE
  5
ED
330
1F
100
AcDbEntity
  8
0
  6
HIDDEN
 62
     7
370
     0
100
AcDbLine
 10
133.8450428391
 20
140.9175318854
 30
0.0
 11
125.8450428391
 21
140.9175318854
 31
0.0
  0
LINE
  5
EE
330
1F
100
AcDbEntity
  8
0
  6
HIDDEN
 62
     7
370
     0
100
AcDbLine
 10
137.3793403708
 20
140.9175318854
 30
0.0
 11
133.8450428391
 21
140.9175318854
 31
0.0
  0
SPLINE
  5
EF
330
1F
100
AcDbEntity
  8
0
  6
HIDDEN
 62
     7
370
     0
100
AcDbSpline
210
0.0
220
0.0
230
1.0
 70
     8
 71
     3
 72
    11
 73
     7
 74
     0
 42
0.00000001
 43
0.00000001
 40
0.0
 40
0.0
 40
0.0
 40
0.0
 40
0.0008203708524183
 40
0.0008203708524183
 40
0.0008203708524183
 40
0.0016409967870154
 40
0.0016409967870154
 40
0.0016409967870154
 40
0.0016409967870154
 10
90.14504283909976
 20
98.66549913471465
 30
0.0
 10
89.9538845388011
 20
98.62432010609551
 30
0.0
 10
89.76245746872891
 20
98.5855661338655
 30
0.0
 10
89.57081184520828
 20
98.54919837458696
 30
0.0
 10
89.37910644012781
 20
98.51281927082093
 30
0.0
 10
89.18716748806887
 20
98.47882502005336
 30
0.0
 10
88.99504284099804
 20
98.44717689466216
 30
0.0
  0
ELLIPSE
  5
F0
330
1F
100
AcDbEntity
  8
0
  6
HIDDEN
 62
     7
370
     0
100
AcDbEllipse
 10
84.7526109705
 20
114.5175318854
 30
0.0
 11
20.19992453367506
 21
-1.421085471520200E-14
 31
0.0
210
0.0
220
0.0
230
1.0
 40
0.8164965809
 41
1.300566354717478
 42
1.359198697209065
  0
LINE
  5
F1
330
1F
100
AcDbEntity
  8
0
  6
HIDDEN
 62
     7
370
     0
100
AcDbLine
 10
99.0950428391
 20
96.5275318854
 30
0.0
 11
99.0950428391
 21
98.230018263
 31
0.0
  0
LINE
  5
F2
330
1F
100
AcDbEntity
  8
0
  6
HIDDEN
 62
     7
370
     0
100
AcDbLine
 10
90.1450428391
 20
96.5275318854
 30
0.0
 11
90.1450428391
 21
98.6654991347
 31
0.0
  0
LINE
  5
F3
330
1F
100
AcDbEntity
  8
0
  6
HIDDEN
 62
     7
370
     0
100
AcDbLine
 10
90.2260738525
 20
98.7160414493
 30
0.0
 11
90.1450428391
 21
98.6654991347
 31
0.0
  0
LINE
  5
F4
330
1F
100
AcDbEntity
  8
0
  6
HIDDEN
 62
     7
370
     0
100
AcDbLine
 10
90.1450428391
 20
132.5075318854
 30
0.0
 11
90.1450428391
 21
130.4121563364
 31
0.0
  0
SPLINE
  5
F5
330
1F
100
AcDbEntity
  8
0
  6
HIDDEN
 62
     7
370
     0
100
AcDbSpline
210
0.0
220
0.0
230
1.0
 70
     8
 71
     3
 72
     8
 73
     4
 74
     0
 42
0.00000001
 43
0.00000001
 40
0.0
 40
0.0
 40
0.0
 40
0.0
 40
1.0
 40
1.0
 40
1.0
 40
1.0
 10
90.14504283909976
 20
130.4121563364155
 30
0.0
 10
90.19504833804321
 20
130.3811205621965
 30
0.0
 10
90.24504840870733
 20
130.3500759171692
 30
0.0
 10
90.29504284249218
 20
130.319022321389
 30
0.0
  0
LINE
  5
F6
330
1F
100
AcDbEntity
  8
0
  6
HIDDEN
 62
     7
370
     0
100
AcDbLine
 10
95.0950428391
 20
132.5075318854
 30
0.0
 11
95.0950428391
 21
130.8050455078
 31
0.0
  0
LINE
  5
F7
330
1F
100
AcDbEntity
  8
0
  6
HIDDEN
 62
     7
370
     0
100
AcDbLine
 10
144.8950428391
 20
109.6175318854
 30
0.0
 11
144.8950428391
 21
119.4175318854
 31
0.0
  0
LINE
  5
F8
330
1F
100
AcDbEntity
  8
0
  6
HIDDEN
 62
     7
370
     0
100
AcDbLine
 10
148.8950428391
 20
109.5175318854
 30
0.0
 11
148.8950428391
 21
119.5175318854
 31
0.0
  0
SPLINE
  5
F9
330
1F
100
AcDbEntity
  8
0
  6
HIDDEN
 62
     7
370
     0
100
AcDbSpline
210
0.0
220
0.0
230
1.0
 70
     8
 71
     3
 72
    27
 73
    23
 74
     0
 42
0.00000001
 43
0.00000001
 40
0.0
 40
0.0
 40
0.0
 40
0.0
 40
0.0524808647777106
 40
0.1118477254943011
 40
0.177246129002196
 40
0.212278841968819
 40
0.248847025264912
 40
0.3294466040471044
 40
0.3980922137952683
 40
0.4372408752430754
 40
0.471063980998196
 40
0.4995706922607955
 40
0.5540644566037805
 40
0.6138044102697404
 40
0.678850199093956
 40
0.713428797868054
 40
0.7493557470114884
 40
0.8293539501530618
 40
0.8976714393665504
 40
0.9542943882769905
 40
0.9992201019839524
 40
1.0
 40
1.0
 40
1.0
 40
1.0
 10
115.6441330542587
 20
90.91749564034576
 30
0.0
 10
115.6344976483875
 20
90.92060504680994
 30
0.0
 10
115.6139625784058
 20
90.92723184387448
 30
0.0
 10
115.4275599250415
 20
90.9770125277074
 30
0.0
 10
115.1526684158397
 20
91.0407215905659
 30
0.0
 10
114.8445267631228
 20
91.10660945640007
 30
0.0
 10
114.4514077558725
 20
91.1890923250902
 30
0.0
 10
113.8750442851354
 20
91.29144771533542
 30
0.0
 10
113.2018308766855
 20
91.38399023791482
 30
0.0
 10
112.6659752978642
 20
91.44557316668295
 30
0.0
 10
112.2722422248536
 20
91.48378664911245
 30
0.0
 10
111.8140655999189
 20
91.51761049009745
 30
0.0
 10
111.2516558518653
 20
91.53718882921956
 30
0.0
 10
110.5663103924644
 20
91.53811746070917
 30
0.0
 10
109.9996380098272
 20
91.5199299370026
 30
0.0
 10
109.5635486984518
 20
91.49507742367332
 30
0.0
 10
109.120100066876
 20
91.45909412588891
 30
0.0
 10
108.6700051534645
 20
91.41361258504143
 30
0.0
 10
108.3281895817182
 20
91.37175949434263
 30
0.0
 10
108.1824299012175
 20
91.34813894538861
 30
0.0
 10
108.1330053634508
 20
91.33631683742287
 30
0.0
 10
108.1454782530391
 20
91.33900653131352
 30
0.0
 10
108.1456910842753
 20
91.3390524269235
 30
0.0
  0
LINE
  5
FA
330
1F
100
AcDbEntity
  8
0
  6
HIDDEN
 62
     7
370
     0
100
AcDbLine
 10
109.0550547243
 20
91.4498700261
 30
0.0
 11
109.2389000701
 21
91.4680593718
 31
0.0
  0
SPLINE
  5
FB
330
1F
100
AcDbEntity
  8
0
  6
HIDDEN
 62
     7
370
     0
100
AcDbSpline
210
0.0
220
0.0
230
1.0
 70
     8
 71
     3
 72
    27
 73
    23
 74
     0
 42
0.00000001
 43
0.00000001
 40
0.0
 40
0.0
 40
0.0
 40
0.0
 40
0.0008229681927263
 40
0.0457056267976437
 40
0.1022874777999806
 40
0.1705657915800083
 40
0.2091575900571049
 40
0.2506849650205536
 40
0.3211309731286836
 40
0.3862249207613612
 40
0.4267042031574998
 40
0.4648355809429535
 40
0.5006400149688267
 40
0.5452319255102623
 40
0.6017263667837497
 40
0.6701325656129992
 40
0.7088700225571184
 40
0.750598904706524
 40
0.8222637249468001
 40
0.8878033644859397
 40
0.9472773145549916
 40
0.9999999999999999
 40
0.9999999999999999
 40
0.9999999999999999
 40
0.9999999999999999
 10
108.1457229783874
 20
137.6959435176311
 30
0.0
 10
108.1454966144043
 20
137.6959923150966
 30
0.0
 10
108.13292491622
 20
137.6987024061638
 30
0.0
 10
108.1819973345134
 20
137.6868712903278
 30
0.0
 10
108.3271074140875
 20
137.6634257928758
 30
0.0
 10
108.6001578483799
 20
137.6295220467796
 30
0.0
 10
108.9286846077509
 20
137.5959531845907
 30
0.0
 10
109.3214122969211
 20
137.557769863508
 30
0.0
 10
109.8711403037082
 20
137.5188011833181
 30
0.0
 10
110.4971629398749
 20
137.4993400807977
 30
0.0
 10
111.0403544514342
 20
137.4971544024973
 30
0.0
 10
111.4854233477527
 20
137.5056692836005
 30
0.0
 10
111.9518711448286
 20
137.5254526804066
 30
0.0
 10
112.4891117943967
 20
137.5696150656954
 30
0.0
 10
113.1373252278656
 20
137.6420306861039
 30
0.0
 10
113.722863850278
 20
137.7229327772446
 30
0.0
 10
114.2038334826442
 20
137.8010987702955
 30
0.0
 10
114.6492483019029
 20
137.8858708892845
 30
0.0
 10
115.0877485182253
 20
137.9796540592268
 30
0.0
 10
115.4267719720407
 20
138.057557361617
 30
0.0
 10
115.6141001682824
 20
138.1077455164657
 30
0.0
 10
115.634589273432
 20
138.1144115600368
 30
0.0
 10
115.6442173753881
 20
138.1175440222247
 30
0.0
  0
SPLINE
  5
FC
330
1F
100
AcDbEntity
  8
0
  6
HIDDEN
 62
     7
370
     0
100
AcDbSpline
210
0.0
220
0.0
230
1.0
 70
     8
 71
     3
 72
     8
 73
     4
 74
     0
 42
0.00000001
 43
0.00000001
 40
0.0
 40
0.0
 40
0.0
 40
0.0
 40
0.0001590976953043
 40
0.0001590976953043
 40
0.0001590976953043
 40
0.0001590976953043
 10
90.28021084828383
 20
98.7160414493257
 30
0.0
 10
90.23515937779081
 20
98.68806256500821
 30
0.0
 10
90.19010333938732
 20
98.66009103463942
 30
0.0
 10
90.14504283909977
 20
98.63212669529318
 30
0.0
  0
SPLINE
  5
FD
330
1F
100
AcDbEntity
  8
0
  6
HIDDEN
 62
     7
370
     0
100
AcDbSpline
210
0.0
220
0.0
230
1.0
 70
     8
 71
     3
 72
    11
 73
     7
 74
     0
 42
0.00000001
 43
0.00000001
 40
0.0
 40
0.0
 40
0.0
 40
0.0
 40
0.000821290931147
 40
0.000821290931147
 40
0.000821290931147
 40
0.0016428257243086
 40
0.0016428257243086
 40
0.0016428257243086
 40
0.0016428257243086
 10
90.14504283909974
 20
98.63212669529317
 30
0.0
 10
89.95389781761759
 20
98.58884050643756
 30
0.0
 10
89.76247948194113
 20
98.54790399679719
 30
0.0
 10
89.57083340728
 20
98.50930222540748
 30
0.0
 10
89.3791303257384
 20
98.47068897156724
 30
0.0
 10
89.18718520245285
 20
98.43440876227804
 30
0.0
 10
88.99504283909965
 20
98.40044185592329
 30
0.0
  0
LINE
  5
FE
330
1F
100
AcDbEntity
  8
0
  6
HIDDEN
 62
     7
370
     0
100
AcDbLine
 10
136.9850428391
 20
134.6533985168
 30
0.0
 11
136.9850428391
 21
134.3675318854
 31
0.0
  0
LINE
  5
FF
330
1F
100
AcDbEntity
  8
0
  6
HIDDEN
 62
     7
370
     0
100
AcDbLine
 10
140.8050428391
 20
134.6994905454
 30
0.0
 11
140.8050428391
 21
134.3675318854
 31
0.0
  0
LINE
  5
100
330
1F
100
AcDbEntity
  8
0
  6
HIDDEN
 62
     7
370
     0
100
AcDbLine
 10
142.2869756706
 20
138.9762215477
 30
0.0
 11
142.2869756706
 21
134.3675318854
 31
0.0
  0
SPLINE
  5
101
330
1F
100
AcDbEntity
  8
0
  6
HIDDEN
 62
     7
370
     0
100
AcDbSpline
210
0.0
220
0.0
230
1.0
 70
     8
 71
     3
 72
    24
 73
    20
 74
     0
 42
0.00000001
 43
0.00000001
 40
0.0
 40
0.0
 40
0.0
 40
0.0
 40
0.249999999999999
 40
0.249999999999999
 40
0.3749999999999983
 40
0.3749999999999983
 40
0.4374999999999987
 40
0.4374999999999987
 40
0.4687499999999975
 40
0.4687499999999975
 40
0.4999999999999963
 40
0.4999999999999963
 40
0.5624999999999984
 40
0.5624999999999984
 40
0.6250000000000006
 40
0.6250000000000006
 40
0.7500000000000001
 40
0.7500000000000001
 40
1.0
 40
1.0
 40
1.0
 40
1.0
 10
89.05770621382317
 20
94.84297934057662
 30
0.0
 10
89.07145933249339
 20
94.9136293985669
 30
0.0
 10
89.08923189989926
 20
94.98022751133183
 30
0.0
 10
89.14148299145461
 20
95.05432553156504
 30
0.0
 10
89.16251806703617
 20
95.07558333872659
 30
0.0
 10
89.2154184746646
 20
95.08372926487284
 30
0.0
 10
89.23652414754251
 20
95.08278946147705
 30
0.0
 10
89.2825763162205
 20
95.0617734698997
 30
0.0
 10
89.30094678820389
 20
95.0508646637921
 30
0.0
 10
89.3424984232696
 20
95.01822975284473
 30
0.0
 10
89.36506509602651
 20
94.99673777247335
 30
0.0
 10
89.42784611248652
 20
94.92827182888703
 30
0.0
 10
89.46097587345442
 20
94.88219737068195
 30
0.0
 10
89.51789355993944
 20
94.79718948234728
 30
0.0
 10
89.54207958544319
 20
94.7569091811659
 30
0.0
 10
89.60728753582295
 20
94.64197295469997
 30
0.0
 10
89.6420035960142
 20
94.57138996955294
 30
0.0
 10
89.73521886634508
 20
94.36718421047435
 30
0.0
 10
89.78089140170577
 20
94.244285828147
 30
0.0
 10
89.8191964852043
 20
94.1274125517594
 30
0.0
  0
SPLINE
  5
102
330
1F
100
AcDbEntity
  8
0
  6
HIDDEN
 62
     7
370
     0
100
AcDbSpline
210
0.0
220
0.0
230
1.0
 70
     8
 71
     3
 72
    11
 73
     7
 74
     0
 42
0.00000001
 43
0.00000001
 40
0.0
 40
0.0
 40
0.0
 40
0.0
 40
0.0005781862223981
 40
0.0005781862223981
 40
0.0005781862223981
 40
0.0011563724723932
 40
0.0011563724723932
 40
0.0011563724723932
 40
0.0011563724723932
 10
89.99504283910004
 20
127.1576741924102
 30
0.0
 10
89.82838228482437
 20
127.2222037038236
 30
0.0
 10
89.66171898791787
 20
127.2867064076623
 30
0.0
 10
89.49505240408756
 20
127.3511928560957
 30
0.0
 10
89.32838581182845
 20
127.4156793077904
 30
0.0
 10
89.1617159462025
 20
127.4801493165183
 30
0.0
 10
88.99504283909972
 20
127.5446050832507
 30
0.0
  0
SPLINE
  5
103
330
1F
100
AcDbEntity
  8
0
  6
HIDDEN
 62
     7
370
     0
100
AcDbSpline
210
0.0
220
0.0
230
1.0
 70
     8
 71
     3
 72
    11
 73
     7
 74
     0
 42
0.00000001
 43
0.00000001
 40
0.0
 40
0.0
 40
0.0
 40
0.0
 40
0.0005778746105124
 40
0.0005778746105124
 40
0.0005778746105124
 40
0.0011557494857259
 40
0.0011557494857259
 40
0.0011557494857259
 40
0.0011557494857259
 10
88.99504283909971
 20
101.4903100298675
 30
0.0
 10
89.16170971551304
 20
101.5561221565526
 30
0.0
 10
89.32837643507449
 20
101.6219806366816
 30
0.0
 10
89.49504308312315
 20
101.6878882096038
 30
0.0
 10
89.66170980764181
 20
101.7537958127657
 30
0.0
 10
89.8283765020624
 20
101.819752921146
 30
0.0
 10
89.99504283909974
 20
101.8857546610607
 30
0.0
  0
SPLINE
  5
104
330
1F
100
AcDbEntity
  8
0
  6
HIDDEN
 62
     7
370
     0
100
AcDbSpline
210
0.0
220
0.0
230
1.0
 70
     8
 71
     3
 72
    11
 73
     7
 74
     0
 42
0.00000001
 43
0.00000001
 40
0.0000000000000006
 40
0.0000000000000006
 40
0.0000000000000006
 40
0.0000000000000006
 40
0.0005780486062825
 40
0.0005780486062825
 40
0.0005780486062825
 40
0.0011560973514241
 40
0.0011560973514241
 40
0.0011560973514241
 40
0.0011560973514241
 10
88.99504283909972
 20
124.4983463870491
 30
0.0
 10
89.16171269514462
 20
124.4359745255022
 30
0.0
 10
89.32838039922888
 20
124.3736206651726
 30
0.0
 10
89.49504670368252
 20
124.3113011049553
 30
0.0
 10
89.66171304437626
 20
124.2489815311871
 30
0.0
 10
89.82837800100508
 20
124.1866963268368
 30
0.0
 10
89.99504283909975
 20
124.1244712062379
 30
0.0
  0
SPLINE
  5
105
330
1F
100
AcDbEntity
  8
0
  6
HIDDEN
 62
     7
370
     0
100
AcDbSpline
210
0.0
220
0.0
230
1.0
 70
     8
 71
     3
 72
    11
 73
     7
 74
     0
 42
0.00000001
 43
0.00000001
 40
0.0
 40
0.0
 40
0.0
 40
0.0
 40
0.0005782401583596
 40
0.0005782401583596
 40
0.0005782401583596
 40
0.0011564805961118
 40
0.0011564805961118
 40
0.0011564805961118
 40
0.0011564805961118
 10
89.99504283909975
 20
104.9167050931446
 30
0.0
 10
89.82839188875083
 20
104.8532796350547
 30
0.0
 10
89.66173229616815
 20
104.7899241113695
 30
0.0
 10
89.4950652437396
 20
104.7266265269887
 30
0.0
 10
89.32839810717579
 20
104.6633289106547
 30
0.0
 10
89.16172349972973
 20
104.6000891156823
 30
0.0
 10
88.99504283909968
 20
104.5368891090108
 30
0.0
  0
CIRCLE
  5
106
330
1F
100
AcDbEntity
  8
0
  6
HIDDEN
 62
     7
370
     0
100
AcDbCircle
 10
127.8950428391
 20
114.5175318854
 30
0.0
 40
5.0
  0
LINE
  5
107
330
1F
100
AcDbEntity
  8
0
  6
HIDDEN
 62
     7
370
     0
100
AcDbLine
 10
124.8950428391
 20
128.8153670351
 30
0.0
 11
124.8950428391
 21
126.9114725282
 31
0.0
  0
LINE
  5
108
330
1F
100
AcDbEntity
  8
0
  6
HIDDEN
 62
     7
370
     0
100
AcDbLine
 10
132.8950428391
 20
126.9114725282
 30
0.0
 11
132.8950428391
 21
128.8181623911
 31
0.0
  0
LINE
  5
109
330
1F
100
AcDbEntity
  8
0
  6
HIDDEN
 62
     7
370
     0
100
AcDbLine
 10
120.8950428391
 20
89.1936007394
 30
0.0
 11
120.9892036146
 21
89.8635894706
 31
0.0
  0
LINE
  5
10A
330
1F
100
AcDbEntity
  8
0
  6
HIDDEN
 62
     7
370
     0
100
AcDbLine
 10
120.9892036146
 20
139.1714743001
 30
0.0
 11
120.8950428391
 21
139.8414630313
 31
0.0
  0
ARC
  5
10B
330
1F
100
AcDbEntity
  8
0
  6
HIDDEN
 62
     7
370
     0
100
AcDbCircle
 10
120.3950360864
 20
89.947094271
 30
0.0
 40
0.60000675266771
100
AcDbArc
 50
352.0
 51
0.0
  0
ARC
  5
10C
330
1F
100
AcDbEntity
  8
0
  6
HIDDEN
 62
     7
370
     0
100
AcDbCircle
 10
120.3950360864
 20
89.947094271
 30
0.0
 40
0.6000067526677242
100
AcDbArc
 50
0.0
 51
33.5571153394
  0
ARC
  5
10D
330
1F
100
AcDbEntity
  8
0
  6
HIDDEN
 62
     7
370
     0
100
AcDbCircle
 10
120.3950360864
 20
139.0879694997
 30
0.0
 40
0.6000067526677169
100
AcDbArc
 50
348.75
 51
8.0
  0
LWPOLYLINE
  5
10E
330
1F
100
AcDbEntity
  8
0
  6
HIDDEN
 62
     7
370
     0
100
AcDbPolyline
 90
        3
 70
   128
 43
0.0
 10
120.9835138776
 20
138.9709139892
 10
120.9493700446
 20
138.8583568562
 10
120.8950428391
 20
138.7563049847
  0
LINE
  5
10F
330
1F
100
AcDbEntity
  8
0
  6
HIDDEN
 62
     7
370
     0
100
AcDbLine
 10
120.9950428391
 20
89.947094271
 30
0.0
 11
120.9950428391
 21
139.0879694997
 31
0.0
  0
LWPOLYLINE
  5
110
330
1F
100
AcDbEntity
  8
0
  6
HIDDEN
 62
     7
370
     0
100
AcDbPolyline
 90
        3
 70
   128
 43
0.0
 10
146.9060463629
 20
134.415618509
 10
146.9026869979
 20
134.4322609193
 10
146.8450428391
 20
135.0175318854
  0
ARC
  5
111
330
1F
100
AcDbEntity
  8
0
  6
HIDDEN
 62
     7
370
     0
100
AcDbCircle
 10
103.9774784044
 20
95.1175318854
 30
0.0
 40
0.6000000000000085
100
AcDbArc
 50
210.0
 51
270.0
  0
ARC
  5
112
330
1F
100
AcDbEntity
  8
0
  6
HIDDEN
 62
     7
370
     0
100
AcDbCircle
 10
103.9774784044
 20
133.9175318854
 30
0.0
 40
0.599999999999989
100
AcDbArc
 50
90.0
 51
150.0
  0
LINE
  5
113
330
1F
100
AcDbEntity
  8
0
  6
HIDDEN
 62
     7
370
     0
100
AcDbLine
 10
103.9774784044
 20
94.5175318854
 30
0.0
 11
108.1691502926
 21
94.5175318854
 31
0.0
  0
LINE
  5
114
330
1F
100
AcDbEntity
  8
0
  6
HIDDEN
 62
     7
370
     0
100
AcDbLine
 10
108.1691502926
 20
134.5175318854
 30
0.0
 11
103.9774784044
 21
134.5175318854
 31
0.0
  0
ARC
  5
115
330
1F
100
AcDbEntity
  8
0
  6
HIDDEN
 62
     7
370
     0
100
AcDbCircle
 10
114.6500448407
 20
102.5175318854
 30
0.0
 40
8.000000000000021
100
AcDbArc
 50
276.8809624126
 51
321.3178125465
  0
ARC
  5
116
330
1F
100
AcDbEntity
  8
0
  6
HIDDEN
 62
     7
370
     0
100
AcDbCircle
 10
114.6500448407
 20
126.5175318854
 30
0.0
 40
8.000000000000009
100
AcDbArc
 50
38.6821874535
 51
83.1249243845
  0
LINE
  5
117
330
1F
100
AcDbEntity
  8
0
  6
HIDDEN
 62
     7
370
     0
100
AcDbLine
 10
103.4578631621
 20
134.2175318854
 30
0.0
 11
101.8990174353
 21
131.5175318854
 31
0.0
  0
LINE
  5
118
330
1F
100
AcDbEntity
  8
0
  6
HIDDEN
 62
     7
370
     0
100
AcDbLine
 10
101.8990174353
 20
97.5175318854
 30
0.0
 11
103.4578631621
 21
94.8175318854
 31
0.0
  0
LINE
  5
119
330
1F
100
AcDbEntity
  8
0
  6
HIDDEN
 62
     7
370
     0
100
AcDbLine
 10
124.8950428391
 20
141.7918657446
 30
0.0
 11
124.8950428391
 21
138.4631343
 31
0.0
  0
LINE
  5
11A
330
1F
100
AcDbEntity
  8
0
  6
HIDDEN
 62
     7
370
     0
100
AcDbLine
 10
132.8950428391
 20
138.4631343
 30
0.0
 11
132.8950428391
 21
141.7971981233
 31
0.0
  0
ARC
  5
11B
330
1F
100
AcDbEntity
  8
0
  6
HIDDEN
 62
     7
370
     0
100
AcDbCircle
 10
129.3450428391
 20
98.7925318854
 30
0.0
 40
1.500000000000001
100
AcDbArc
 50
238.2116693829
 51
0.0
  0
ARC
  5
11C
330
1F
100
AcDbEntity
  8
0
  6
HIDDEN
 62
     7
370
     0
100
AcDbCircle
 10
129.3450428391
 20
130.2425318854
 30
0.0
 40
1.500000000000001
100
AcDbArc
 50
0.0
 51
121.7883306171
  0
LINE
  5
11D
330
1F
100
AcDbEntity
  8
0
  6
HIDDEN
 62
     7
370
     0
100
AcDbLine
 10
120.8950428391
 20
97.5175318854
 30
0.0
 11
128.5548688076
 21
97.5175318854
 31
0.0
  0
LINE
  5
11E
330
1F
100
AcDbEntity
  8
0
  6
HIDDEN
 62
     7
370
     0
100
AcDbLine
 10
128.5548688076
 20
131.5175318854
 30
0.0
 11
120.8950428391
 21
131.5175318854
 31
0.0
  0
LINE
  5
11F
330
1F
100
AcDbEntity
  8
0
  6
HIDDEN
 62
     7
370
     0
100
AcDbLine
 10
99.0950428391
 20
97.5175318854
 30
0.0
 11
101.8990174353
 21
97.5175318854
 31
0.0
  0
LINE
  5
120
330
1F
100
AcDbEntity
  8
0
  6
HIDDEN
 62
     7
370
     0
100
AcDbLine
 10
101.8990174353
 20
131.5175318854
 30
0.0
 11
95.0950428391
 21
131.5175318854
 31
0.0
  0
LINE
  5
121
330
1F
100
AcDbEntity
  8
0
  6
HIDDEN
 62
     7
370
     0
100
AcDbLine
 10
139.6950428391
 20
105.0175318854
 30
0.0
 11
142.6950428391
 21
105.0175318854
 31
0.0
  0
LINE
  5
122
330
1F
100
AcDbEntity
  8
0
  6
HIDDEN
 62
     7
370
     0
100
AcDbLine
 10
142.6950428391
 20
124.0175318854
 30
0.0
 11
139.6950428391
 21
124.0175318854
 31
0.0
  0
LINE
  5
123
330
1F
100
AcDbEntity
  8
0
  6
HIDDEN
 62
     7
370
     0
100
AcDbLine
 10
130.8450428391
 20
105.5175318854
 30
0.0
 11
131.3450428391
 21
106.0175318854
 31
0.0
  0
LINE
  5
124
330
1F
100
AcDbEntity
  8
0
  6
HIDDEN
 62
     7
370
     0
100
AcDbLine
 10
131.3450428391
 20
123.0175318854
 30
0.0
 11
130.8450428391
 21
123.5175318854
 31
0.0
  0
LINE
  5
125
330
1F
100
AcDbEntity
  8
0
  6
HIDDEN
 62
     7
370
     0
100
AcDbLine
 10
131.3450428391
 20
106.0175318854
 30
0.0
 11
139.6950428391
 21
106.0175318854
 31
0.0
  0
LINE
  5
126
330
1F
100
AcDbEntity
  8
0
  6
HIDDEN
 62
     7
370
     0
100
AcDbLine
 10
139.6950428391
 20
123.0175318854
 30
0.0
 11
131.3450428391
 21
123.0175318854
 31
0.0
  0
LINE
  5
127
330
1F
100
AcDbEntity
  8
0
  6
HIDDEN
 62
     7
370
     0
100
AcDbLine
 10
125.8450428391
 20
146.0175318854
 30
0.0
 11
125.8450428391
 21
140.9175318854
 31
0.0
  0
LINE
  5
128
330
1F
100
AcDbEntity
  8
0
  6
HIDDEN
 62
     7
370
     0
100
AcDbLine
 10
145.2950428391
 20
109.2175318854
 30
0.0
 11
148.000268821
 21
109.2175318854
 31
0.0
  0
LINE
  5
129
330
1F
100
AcDbEntity
  8
0
  6
HIDDEN
 62
     7
370
     0
100
AcDbLine
 10
148.000268821
 20
119.8175318854
 30
0.0
 11
145.2950428391
 21
119.8175318854
 31
0.0
  0
ARC
  5
12A
330
1F
100
AcDbEntity
  8
0
  6
HIDDEN
 62
     7
370
     0
100
AcDbCircle
 10
145.2950428391
 20
109.6175318854
 30
0.0
 40
0.4000000000000057
100
AcDbArc
 50
180.0
 51
270.0
  0
ARC
  5
12B
330
1F
100
AcDbEntity
  8
0
  6
HIDDEN
 62
     7
370
     0
100
AcDbCircle
 10
145.2950428391
 20
119.4175318854
 30
0.0
 40
0.4000000000000057
100
AcDbArc
 50
90.0
 51
180.0
  0
ARC
  5
12C
330
1F
100
AcDbEntity
  8
0
  6
HIDDEN
 62
     7
370
     0
100
AcDbCircle
 10
185.5950428391
 20
109.2175318854
 30
0.0
 40
0.2999999999999972
100
AcDbArc
 50
0.0
 51
90.0
  0
ARC
  5
12D
330
1F
100
AcDbEntity
  8
0
  6
HIDDEN
 62
     7
370
     0
100
AcDbCircle
 10
185.5950428391
 20
119.8175318854
 30
0.0
 40
0.2999999999999972
100
AcDbArc
 50
270.0
 51
0.0
  0
ARC
  5
12E
330
1F
100
AcDbEntity
  8
0
  6
HIDDEN
 62
     7
370
     0
100
AcDbCircle
 10
148.000268821
 20
109.6175318854
 30
0.0
 40
0.4000000000000057
100
AcDbArc
 50
270.0
 51
290.0
  0
ARC
  5
12F
330
1F
100
AcDbEntity
  8
0
  6
HIDDEN
 62
     7
370
     0
100
AcDbCircle
 10
148.000268821
 20
119.4175318854
 30
0.0
 40
0.4000000000000057
100
AcDbArc
 50
70.0
 51
90.0
  0
LINE
  5
130
330
1F
100
AcDbEntity
  8
0
  6
HIDDEN
 62
     7
370
     0
100
AcDbLine
 10
148.1370768783
 20
109.241654837
 30
0.0
 11
148.8950428391
 21
109.5175318854
 31
0.0
  0
LINE
  5
131
330
1F
100
AcDbEntity
  8
0
  6
HIDDEN
 62
     7
370
     0
100
AcDbLine
 10
148.8950428391
 20
119.5175318854
 30
0.0
 11
148.1370768783
 21
119.7934089337
 31
0.0
  0
LINE
  5
132
330
1F
100
AcDbEntity
  8
0
  6
HIDDEN
 62
     7
370
     0
100
AcDbLine
 10
148.8950428391
 20
109.5175318854
 30
0.0
 11
166.3479872363
 21
109.5175318854
 31
0.0
  0
LINE
  5
133
330
1F
100
AcDbEntity
  8
0
  6
HIDDEN
 62
     7
370
     0
100
AcDbLine
 10
166.4421127745
 20
109.5175318854
 30
0.0
 11
185.5950428391
 21
109.5175318854
 31
0.0
  0
LINE
  5
134
330
1F
100
AcDbEntity
  8
0
  6
HIDDEN
 62
     7
370
     0
100
AcDbLine
 10
185.5950428391
 20
119.5175318854
 30
0.0
 11
166.4425368732
 21
119.5175318854
 31
0.0
  0
LINE
  5
135
330
1F
100
AcDbEntity
  8
0
  6
HIDDEN
 62
     7
370
     0
100
AcDbLine
 10
166.3480452155
 20
119.5175318854
 30
0.0
 11
148.8950428391
 21
119.5175318854
 31
0.0
  0
LINE
  5
136
330
1F
100
AcDbEntity
  8
0
  6
HIDDEN
 62
     7
370
     0
100
AcDbLine
 10
116.0794806696
 20
90.4381605518
 30
0.0
 11
115.6450485201
 21
90.9172265709
 31
0.0
  0
LINE
  5
137
330
1F
100
AcDbEntity
  8
0
  6
HIDDEN
 62
     7
370
     0
100
AcDbLine
 10
108.145045195
 20
91.33891453
 30
0.0
 11
107.6626114517
 21
90.8598485546
 31
0.0
  0
LINE
  5
138
330
1F
100
AcDbEntity
  8
0
  6
HIDDEN
 62
     7
370
     0
100
AcDbLine
 10
107.6624895234
 20
138.1752099257
 30
0.0
 11
108.1450402744
 21
137.6960896678
 31
0.0
  0
LINE
  5
139
330
1F
100
AcDbEntity
  8
0
  6
HIDDEN
 62
     7
370
     0
100
AcDbLine
 10
115.6450427211
 20
138.1177874454
 30
0.0
 11
116.0795851114
 21
138.596907696
 31
0.0
  0
LINE
  5
13A
330
1F
100
AcDbEntity
  8
0
  6
HIDDEN
 62
     7
370
     0
100
AcDbLine
 10
142.6950428391
 20
110.3175318854
 30
0.0
 11
144.8950428391
 21
110.3175318854
 31
0.0
  0
LINE
  5
13B
330
1F
100
AcDbEntity
  8
0
  6
HIDDEN
 62
     7
370
     0
100
AcDbLine
 10
144.8950428391
 20
118.7175318854
 30
0.0
 11
142.6950428391
 21
118.7175318854
 31
0.0
  0
LINE
  5
13C
330
1F
100
AcDbEntity
  8
0
  6
HIDDEN
 62
     7
370
     0
100
AcDbLine
 10
115.6450428391
 20
134.4529322236
 30
0.0
 11
115.6450428391
 21
138.1174961394
 31
0.0
  0
LINE
  5
13D
330
1F
100
AcDbEntity
  8
0
  6
HIDDEN
 62
     7
370
     0
100
AcDbLine
 10
108.1450428391
 20
137.6959458886
 30
0.0
 11
108.1450428391
 21
134.5131541173
 31
0.0
  0
LINE
  5
13E
330
1F
100
AcDbEntity
  8
0
  6
HIDDEN
 62
     7
370
     0
100
AcDbLine
 10
115.6450428391
 20
90.917481537
 30
0.0
 11
115.6450428391
 21
94.5821315471
 31
0.0
  0
LINE
  5
13F
330
1F
100
AcDbEntity
  8
0
  6
HIDDEN
 62
     7
370
     0
100
AcDbLine
 10
108.1450428391
 20
94.5219096534
 30
0.0
 11
108.1450428391
 21
91.339095955
 31
0.0
  0
DIMENSION
  5
140
330
1F
100
AcDbEntity
  8
VERMASSUNG
100
AcDbDimension
  2
*D1
 10
82.6724253106
 20
83.0175318854
 30
0.0
 11
82.6724253106
 21
114.0734084123
 31
0.0
 70
   160
  1
HSK A%%c<>
 71
     2
 42
-1.0
  3
SLDDIMSTYLE0
100
AcDbAlignedDimension
 13
121.1950428391
 23
146.0175318854
 33
0.0
 14
121.1950428391
 24
83.0175318854
 34
0.0
 50
90.0
100
AcDbRotatedDimension
  0
DIMENSION
  5
14D
330
1F
100
AcDbEntity
  8
VERMASSUNG
100
AcDbDimension
  2
*D2
 10
146.8450428391
 20
151.423529335
 30
0.0
 11
164.3557279953
 21
151.423529335
 31
0.0
 70
   160
 71
     2
 42
-1.0
  3
SLDDIMSTYLE0
100
AcDbAlignedDimension
 13
185.8950428391
 23
125.7433913637
 33
0.0
 14
146.8450428391
 24
144.3639722091
 34
0.0
100
AcDbRotatedDimension
  0
DIMENSION
  5
157
330
1F
100
AcDbEntity
  8
VERMASSUNG
100
AcDbDimension
  2
*D3
 10
120.8950428391
 20
157.423529335
 30
0.0
 11
152.5453808776
 21
157.423529335
 31
0.0
 70
   160
 71
     2
 42
-1.0
  3
SLDDIMSTYLE0
100
AcDbAlignedDimension
 13
185.8950428391
 23
125.7433913637
 33
0.0
 14
120.8950428391
 24
145.7175318854
 34
0.0
100
AcDbRotatedDimension
  0
DIMENSION
  5
161
330
1F
100
AcDbEntity
  8
VERMASSUNG
100
AcDbDimension
  2
*D4
 10
88.9950428391
 20
163.423529335
 30
0.0
 11
135.3447590688
 21
163.423529335
 31
0.0
 70
   160
 71
     2
 42
-1.0
  3
SLDDIMSTYLE0
100
AcDbAlignedDimension
 13
185.8950428391
 23
125.7433913637
 33
0.0
 14
88.9950428391
 24
134.2082096318
 34
0.0
100
AcDbRotatedDimension
  0
DIMENSION
  5
16B
330
1F
100
AcDbEntity
  8
VERMASSUNG
100
AcDbDimension
  2
*D5
 10
193.3073483175
 20
109.5175318854
 30
0.0
 11
193.3073483175
 21
114.2766342718
 31
0.0
 70
   160
  1
%%c<>
 71
     2
 42
-1.0
  3
SLDDIMSTYLE0
100
AcDbAlignedDimension
 13
185.5950428391
 23
119.5175318854
 33
0.0
 14
185.5950428391
 24
109.5175318854
 34
0.0
 50
90.0
100
AcDbRotatedDimension
  0
DIMENSION
  5
176
330
1F
100
AcDbEntity
  8
VERMASSUNG
100
AcDbDimension
  2
*D6
 10
199.3073483175
 20
97.0175318854
 30
0.0
 11
199.3073483175
 21
114.2766342718
 31
0.0
 70
   160
  1
%%c<>
 71
     2
 42
-1.0
  3
SLDDIMSTYLE0
100
AcDbAlignedDimension
 13
175.1725082366
 23
132.0175318854
 33
0.0
 14
175.1725082366
 24
97.0175318854
 34
0.0
 50
90.0
100
AcDbRotatedDimension
  0
LINE
  5
181
330
1F
100
AcDbEntity
  8
VERMASSUNG
  6
CENTERX2
 62
     7
370
     0
100
AcDbLine
 10
133.0906631848
 20
140.8738471715
 30
0.0
 11
133.0906631848
 21
130.2679358067
 31
0.0
  0
LINE
  5
182
330
1F
100
AcDbEntity
  8
VERMASSUNG
  6
CENTERX2
 62
     7
370
     0
100
AcDbLine
 10
86.8497389968
 20
114.5175318854
 30
0.0
 11
187.1898832026
 21
114.5175318854
 31
0.0
  0
OLE2FRAME
  5
183
330
1F
100
AcDbEntity
  8
0
100
AcDbOle2Frame
 70
     2
  3
Bitmap Image
 10
13.8511154363
 20
38.264191557
 30
0.0
 11
51.6290888628
 21
31.9806341108
 31
0.0
 71
     2
 72
     0
 73
     1
 90
    12928
310
80552BED0767C5B32B40DDAF6807D121434000000000000000006FFBDDFB85D0
310
4940DDAF6807D121434000000000000000006FFBDDFB85D04940416F4BD60AFB
310
3F4000000000000000002BED0767C5B32B40416F4BD60AFB3F40000000000000
310
0000000000000100000000010000010000000100000000000100000000320000
310
D0CF11E0A1B11AE1000000000000000000000000000000003E000300FEFF0900
310
0600000000000000000000000100000001000000000000000010000002000000
310
01000000FEFFFFFF0000000000000000FFFFFFFFFFFFFFFFFFFFFFFFFFFFFFFF
310
FFFFFFFFFFFFFFFFFFFFFFFFFFFFFFFFFFFFFFFFFFFFFFFFFFFFFFFFFFFFFFFF
310
FFFFFFFFFFFFFFFFFFFFFFFFFFFFFFFFFFFFFFFFFFFFFFFFFFFFFFFFFFFFFFFF
310
FFFFFFFFFFFFFFFFFFFFFFFFFFFFFFFFFFFFFFFFFFFFFFFFFFFFFFFFFFFFFFFF
310
FFFFFFFFFFFFFFFFFFFFFFFFFFFFFFFFFFFFFFFFFFFFFFFFFFFFFFFFFFFFFFFF
310
FFFFFFFFFFFFFFFFFFFFFFFFFFFFFFFFFFFFFFFFFFFFFFFFFFFFFFFFFFFFFFFF
310
FFFFFFFFFFFFFFFFFFFFFFFFFFFFFFFFFFFFFFFFFFFFFFFFFFFFFFFFFFFFFFFF
310
FFFFFFFFFFFFFFFFFFFFFFFFFFFFFFFFFFFFFFFFFFFFFFFFFFFFFFFFFFFFFFFF
310
FFFFFFFFFFFFFFFFFFFFFFFFFFFFFFFFFFFFFFFFFFFFFFFFFFFFFFFFFFFFFFFF
310
FFFFFFFFFFFFFFFFFFFFFFFFFFFFFFFFFFFFFFFFFFFFFFFFFFFFFFFFFFFFFFFF
310
FFFFFFFFFFFFFFFFFFFFFFFFFFFFFFFFFFFFFFFFFFFFFFFFFFFFFFFFFFFFFFFF
310
FFFFFFFFFFFFFFFFFFFFFFFFFFFFFFFFFFFFFFFFFFFFFFFFFFFFFFFFFFFFFFFF
310
FFFFFFFFFFFFFFFFFFFFFFFFFFFFFFFFFFFFFFFFFFFFFFFFFFFFFFFFFFFFFFFF
310
FFFFFFFFFFFFFFFFFFFFFFFFFFFFFFFFFFFFFFFFFFFFFFFFFFFFFFFFFFFFFFFF
310
FDFFFFFFFEFFFFFFFEFFFFFFFEFFFFFF05000000060000000700000008000000
310
090000000A0000000B0000000C0000000D0000000E0000000F00000010000000
310
11000000120000001300000014000000150000001600000017000000FEFFFFFF
310
FFFFFFFFFFFFFFFFFFFFFFFFFFFFFFFFFFFFFFFFFFFFFFFFFFFFFFFFFFFFFFFF
310
FFFFFFFFFFFFFFFFFFFFFFFFFFFFFFFFFFFFFFFFFFFFFFFFFFFFFFFFFFFFFFFF
310
FFFFFFFFFFFFFFFFFFFFFFFFFFFFFFFFFFFFFFFFFFFFFFFFFFFFFFFFFFFFFFFF
310
FFFFFFFFFFFFFFFFFFFFFFFFFFFFFFFFFFFFFFFFFFFFFFFFFFFFFFFFFFFFFFFF
310
FFFFFFFFFFFFFFFFFFFFFFFFFFFFFFFFFFFFFFFFFFFFFFFFFFFFFFFFFFFFFFFF
310
FFFFFFFFFFFFFFFFFFFFFFFFFFFFFFFFFFFFFFFFFFFFFFFFFFFFFFFFFFFFFFFF
310
FFFFFFFFFFFFFFFFFFFFFFFFFFFFFFFFFFFFFFFFFFFFFFFFFFFFFFFFFFFFFFFF
310
FFFFFFFFFFFFFFFFFFFFFFFFFFFFFFFFFFFFFFFFFFFFFFFFFFFFFFFFFFFFFFFF
310
FFFFFFFFFFFFFFFFFFFFFFFFFFFFFFFFFFFFFFFFFFFFFFFFFFFFFFFFFFFFFFFF
310
FFFFFFFFFFFFFFFFFFFFFFFFFFFFFFFFFFFFFFFFFFFFFFFFFFFFFFFFFFFFFFFF
310
FFFFFFFFFFFFFFFFFFFFFFFFFFFFFFFFFFFFFFFFFFFFFFFFFFFFFFFFFFFFFFFF
310
FFFFFFFFFFFFFFFFFFFFFFFFFFFFFFFFFFFFFFFFFFFFFFFFFFFFFFFFFFFFFFFF
310
FFFFFFFFFFFFFFFFFFFFFFFFFFFFFFFFFFFFFFFFFFFFFFFFFFFFFFFFFFFFFFFF
310
52006F006F007400200045006E00740072007900000000000000000000000000
310
0000000000000000000000000000000000000000000000000000000000000000
310
16000500FFFFFFFFFFFFFFFF020000000A00030000000000C000000000000046
310
0000000000000000000000000052352428FFCB0103000000C000000000000000
310
01004F006C006500000000000000000000000000000000000000000000000000
310
0000000000000000000000000000000000000000000000000000000000000000
310
0A000200FFFFFFFFFFFFFFFFFFFFFFFF00000000000000000000000000000000
310
0000000000000000000000000000000000000000000000001400000000000000
310
010043006F006D0070004F0062006A0000000000000000000000000000000000
310
0000000000000000000000000000000000000000000000000000000000000000
310
120002010100000003000000FFFFFFFF00000000000000000000000000000000
310
0000000000000000000000000000000000000000010000004D00000000000000
310
01004F006C006500310030004E00610074006900760065000000000000000000
310
0000000000000000000000000000000000000000000000000000000000000000
310
1A000200FFFFFFFFFFFFFFFFFFFFFFFF00000000000000000000000000000000
310
0000000000000000000000000000000000000000040000002426000000000000
310
FEFFFFFF02000000FEFFFFFFFFFFFFFFFFFFFFFFFFFFFFFFFFFFFFFFFFFFFFFF
310
FFFFFFFFFFFFFFFFFFFFFFFFFFFFFFFFFFFFFFFFFFFFFFFFFFFFFFFFFFFFFFFF
310
FFFFFFFFFFFFFFFFFFFFFFFFFFFFFFFFFFFFFFFFFFFFFFFFFFFFFFFFFFFFFFFF
310
FFFFFFFFFFFFFFFFFFFFFFFFFFFFFFFFFFFFFFFFFFFFFFFFFFFFFFFFFFFFFFFF
310
FFFFFFFFFFFFFFFFFFFFFFFFFFFFFFFFFFFFFFFFFFFFFFFFFFFFFFFFFFFFFFFF
310
FFFFFFFFFFFFFFFFFFFFFFFFFFFFFFFFFFFFFFFFFFFFFFFFFFFFFFFFFFFFFFFF
310
FFFFFFFFFFFFFFFFFFFFFFFFFFFFFFFFFFFFFFFFFFFFFFFFFFFFFFFFFFFFFFFF
310
FFFFFFFFFFFFFFFFFFFFFFFFFFFFFFFFFFFFFFFFFFFFFFFFFFFFFFFFFFFFFFFF
310
FFFFFFFFFFFFFFFFFFFFFFFFFFFFFFFFFFFFFFFFFFFFFFFFFFFFFFFFFFFFFFFF
310
FFFFFFFFFFFFFFFFFFFFFFFFFFFFFFFFFFFFFFFFFFFFFFFFFFFFFFFFFFFFFFFF
310
FFFFFFFFFFFFFFFFFFFFFFFFFFFFFFFFFFFFFFFFFFFFFFFFFFFFFFFFFFFFFFFF
310
FFFFFFFFFFFFFFFFFFFFFFFFFFFFFFFFFFFFFFFFFFFFFFFFFFFFFFFFFFFFFFFF
310
FFFFFFFFFFFFFFFFFFFFFFFFFFFFFFFFFFFFFFFFFFFFFFFFFFFFFFFFFFFFFFFF
310
FFFFFFFFFFFFFFFFFFFFFFFFFFFFFFFFFFFFFFFFFFFFFFFFFFFFFFFFFFFFFFFF
310
FFFFFFFFFFFFFFFFFFFFFFFFFFFFFFFFFFFFFFFFFFFFFFFFFFFFFFFFFFFFFFFF
310
FFFFFFFFFFFFFFFFFFFFFFFFFFFFFFFFFFFFFFFFFFFFFFFFFFFFFFFFFFFFFFFF
310
010000020000000000000000000000000000000061007200410082005C003104
310
D806250000000000D806250000000000680061007200650064005C003B004300
310
0100FEFF030A0000FFFFFFFF0A00030000000000C00000000000004607000000
310
5042727573680007000000504272757368000700000050427275736800F439B2
310
71000000000000000000000000004100540049002E004100430045005C004300
310
6F00720065002D005300740061007400690063003B0043003A005C0050007200
310
6F006700720061006D002000460069006C006500730020002800780038003600
310
29005C0043006F006D006D006F006E002000460069006C00650073005C004100
310
750074006F006400650073006B0020005300680061007200650064005C003B00
310
43003A005C00500072006F006700720061006D002000460069006C0065007300
310
5C004E006F0072006D0061006E005C004E0070006D005C00420069006E000000
310
43003A005C00500072006F006700720061006D002000460069006C0065007300
310
5C0053006F006C006900640057006F0072006B007300200043006F0072007000
310
5C0053006F006C006900640057006F0072006B00730020002800320029005C00
310
730065007400750070005C0069003300380036005C0073007700610063007400
310
770069007A002E006500780065000000220043003A005C00500072006F006700
310
20260000424D0E260000000000003E00000028000000B40200006E0000000100
310
01000000000000000000130B0000130B00000200000002000000000000FFFFFF
310
FFFFFFFFFFFFFFFFFFFFFFFFFFFFFFFFFFFFFFFFFFFFFFFFFFFFFFFFFFFFFFFF
310
FFFFFFFFFFFFFFFFFFFFFFFFFFFFFFFFFFFFFFFFFFFFFFFFFFFFFFFFFFFFFFFF
310
FFFFFFFFFFFFFFFFFFFFFFFFFFFFFFFFFFFFFFFFFFFFFFFFF000FFFFFFFFFFFF
310
FFFFFFFFFFFFFFFFFFFFFFFFFFFFFFFFFFFFFFFFFFFFFFFFFFFFFFFFFFFFFFFF
310
FFFFFFFFFFFFFFFFFFFFFFFFFFFFFFFFFFFFFFFFFFFFFFFFFFFFFFFFFFFFFFFF
310
FFFFFFFFFFFFFFFFFFFFFFFFFFFFFFFFF000FFFFFFFFFFFFFFFFFFFFFFFFFFFF
310
FFFFFFFFFFFFFFFFFFFFFFFFFFFFFFFFFFFFFFFFFFFFFFFFFFFFFFFFFFFFFFFF
310
FFFFFFFFFFFFFFFFFFFFFFFFFFFFFFFFFFFFFFFFFFFFFFFFFFFFFFFFFFFFFFFF
310
FFFFFFFFFFFFFFFFF000FFFFFFFFFFFFFFFFFFFFFFFFFFFFFFFFFFFFFFFFFFFF
310
FFFFFFFFFFFFFFFFFFFFFFFFFFFFFFFFFFFFFFFFFFFFFFFFFFFFFFFFFFFFFFFF
310
FFFFFFFFFFFFFFFFFFFFFFFFFFFFFFFFFFFFFFFFFFFFFFFFFFFFFFFFFFFFFFFF
310
F000FFFFFFFFFFFFFFFFFFFFFFFFFFFFFFFFFFFFFFFFFFFFFFFFFFFFFFFFFFFF
310
FFFFFFFFFFFFFFFFFFFFFFFFFFFFFFFFFFFFFFFFFFFFFFFFFFFFFFFFFFFFFFFF
310
FFFFFFFFFFFFFFFFFFFFFFFFFFFFFFFFFFFFFFFFFFFFFFFFF000FFFFFFFFFFFF
310
FFFFFFFFFFFFFFFFFFFFFFFFFFFFFFFFFFFFFFFFFFFFFFFFFFFFFFFFFFFFFFFF
310
FFFFFFFFFFFFFFFFFFFFFFFFFFFFFFFFFFFFFFFFFFFFFFFFFFFFFFFFFFFFFFFF
310
FFFFFFFFFFFFFFFFFFFFFFFFFFFFFFFFF000FFFFFFFFFFFFFFFFFFFFFFFFFFFF
310
FFFFFFFFFFFFFFFFFFFFFFFFFFFFFFFFFFFFFFFFFFFFFFFFFFFFFFFFFFFFFFFF
310
FFFFFFFFFFFFFFFFFFFFFFFFFFFFFFFFFFFFFFFFFFFFFFFFFFFFFFFFFFFFFFFF
310
FFFFFFFFFFFFFFFFF000FFFFFFFFFFFFFFFFFFFFFFFFFFFFFFFFFFFFFFFFFFFF
310
FFFFFFFFFFFFFFFFFFFFFFFFFFFFFFFFFFFFFFFFFFFFFFFFFFFFFFFFFFFFFFFF
310
FFFFFFFFFFFFFFFFFFFFFFFFFFFFFFFFFFFFFFFFFFFFFFFFFFFFFFFFFFFFFFFF
310
F000FFFFFFFFFFFFFFFFFFFFFFFFFFFFFFFFFFFFFFFFFFFFFFFFFFFFFFFFFFFF
310
FFFFFFFFFFFFFFFFFFFFFFFFFFFFFFFFFFFFFFFFFFFFFFFFFFFFFFFFFFFFFFFF
310
FFFFFFFFFFFFFFFFFFFFFFFFFFFFFFFFFFFFFFFFFFFFFFFFF000FFFFFFFFFFFF
310
FFFFFFFFFFFFFFFFFFFFFFFFFFFFFFFFFFFFFFFFFFFFFFFFFFFFFFFFFFFFFFFF
310
FFFFFFFFFFFFFFFFFFFFFFFFFFFFFFFFFFFFFFFFFFFFFFFFFFFFFFFFFFFFFFFF
310
FFFFFFFFFFFFFFFFFFFFFFFFFFFFFFFFF000FFFFFFFFFFFFFFFFFFFFFFFFFFFF
310
FFFFFFFFFFFFFFFFFFFFFFFFFFFFFFFFFFFFFFFFFFFFFFFFFFFFFFFFFFFFFFFF
310
FFFFFFFFFFFFFFFFFFFFFFFFFFFFFFFFFFFFFFFFFFFFFFFFFFFFFFFFFFFFFFFF
310
FFFFFFFFFFFFFFFFF000FFFFFFFFFFFFFFFFFFFFFFFFFFFFFFFFFFFFFFFFFFFF
310
FFFFFFFFFFFFFFFFFFFFFFFFFFFFFFFFFFFFFFFFFFFFFFFFFFFFFFFFFFFFFFFF
310
FFFFFFFFFFFFFFFFFFFFFFFFFFFFFFFFFFFFFFFFFFFFFFFFFFFFFFFFFFFFFFFF
310
F000FFFFFFFFFFFFFFFFFFFFFFFFFFFFFFFFFFFFFFFFFFFFFFFFFFFFFFFFFFFF
310
FFFFFFFFFFFFFFFFFFFFFFFFFFFFFFFFFFFFFFFFFFFFFFFFFFFFFFFFFFFFFFFF
310
FFFFFFFFFFFFFFFFFFFFFFFFFFFFFFFFFFFFFFFFFFFFFFFFF000FFFFFFFFFFFF
310
FFFFFFFFFFFFFFFFFFFFFFFFFFFFFFFFFFFFFFFFFFFFFFFFFFFFFFFFFFFFFFFF
310
FFFFFFFFFFFFFFFFFFFFFFFFFFFFFFFFFFFFFFFFFFFFFFFFFFFFFFFFFFFFFFFF
310
FFFFFFFFFFFFFFFFFFFFFFFFFFFFFFFFF000FFFFFFFFFFFFFFFFFFFFFFFFFFFF
310
FFFFFFFFFFFFFFFFFFFFFFFFFFFFFFFFFFFFFFFFFFFFFFFFFFFFFFFFFFFFFFFF
310
FFFFFFFFFFFFFFFFFFFFFFFFFFFFFFFFFFFFFFFFFFFFFFFFFFFFFFFFFFFFFFFF
310
FFFFFFFFFFFFFFFFF000FFFFFFFFFFFFFFFFFFFFFFFFFFFFFFFFFFFFFFFFFFFF
310
FFFFFFFFFFFFFFFFFFFFFFFFFFFFFFFFFFFFFFFFFFFFFFFFFFFFFFFFFFFFFFFF
310
FFFFFFFFFFFFFFFFFFFFFFFFFFFFFFFFFFFFFFFFFFFFFFFFFFFFFFFFFFFFFFFF
310
F000FFFFFFFFFFFFFFFFFFFFFFFFFFFFFFFFFFFFFFFFFFFFFFFFFFFFFFFFFFFF
310
FFFFFFFFFFFFFFFFFFFFFFFFFFFFFFFFFFFFFFFFFFFFFFFFFFFFFFFFFFFFFFFF
310
FFFFFFFFFFFFFFFFFFFFFFFFFFFFFFFFFFFFFFFFFFFFFFFFF000FFFFFFFFFFFF
310
FFFFFFFFFFFFFFFFFFFFFFFFFFFFFFFFFFFFFFFFFFFFFFFFFFFFFFFFFFFFFFFF
310
FFFFFFFFFFFFFFFFFFFFFFFFFFFFFFFFFFFFFFFFFFFFFFFFFFFFFFFFFFFFFFFF
310
FFFFFFFFFFFFFFFFFFFFFFFFFFFFFFFFF000FFFFFFFFFFFFFFFFFFFFFFFFFFFF
310
FFFFFFFFFFFFFFFFFFFFFFFFFFFFFFFFFFFFFFFFFFFFFFFFFFFFFFFFFFFFFFFF
310
FFFFFFFFFFFFFFFFFFFFFFFFFFFFFFFFFFFFFFFFFFFFFFFFFFFFFFFFFFFFFFFF
310
FFFFFFFFFFFFFFFFF000FFFFF80003FFFFFFFFFFFFFFFFFFFFFFFFFFFFFFFFFF
310
FFFFF00007FFFFFFFFFF00007FFFFFF800000000000000007FFFFFFFFFFFFFFF
310
FFFFFFFC001FFFFFFFFFFFFFFC001FFFFFFFFFFFFFFFFFFFFFFFFFFE0007FFFF
310
F000FFFF8000007FFFFFFFF8000FFFFFC0007FFFFF80007FFFFF0000007FFFFF
310
FFF8000007FFFFF800000000000000007FFFFFF0001FFFFFFFFFFFC00001FFFF
310
FFFFFFFFC00001FFFFFFFF000000000003FFFFE000007FFFF000FFFE0000000F
310
FFFFFFF0000FFFFF80007FFFFF80007FFFFC0000001FFFFFFFC0000001FFFFF8
310
00000000000000007FFFFFF0001FFFFFFFFFFE0000003FFFFFFFFFFE0000003F
310
FFFFFF000000000003FFFF0000000FFFF000FFF800000003FFFFFFF00007FFFF
310
80007FFFFF80007FFFF000000007FFFFFF000000003FFFF80000000000000000
310
7FFFFFF0001FFFFFFFFFF80000000FFFFFFFFFF80000000FFFFFFF0000000000
310
03FFFC00000003FFF000FFE000000000FFFFFFF00007FFFF80003FFFFF80007F
310
FFC000000001FFFFFC000000001FFFF800000000000000007FFFFFF0001FFFFF
310
FFFFE000000003FFFFFFFFE000000003FFFFFF000000000003FFF000000000FF
310
F000FF80000000007FFFFFF00007FFFF80003FFFFF80007FFF8000000000FFFF
310
F80000000007FFF800000000000000007FFFFFF0001FFFFFFFFFC000000001FF
310
FFFFFFC000000001FFFFFF000000000003FFC0000000007FF000FF0000000000
310
3FFFFFE00007FFFF00003FFFFF80007FFE00000000003FFFF00000000003FFF8
310
00000000000000007FFFFFF0001FFFFFFFFF8000000000FFFFFFFF8000000000
310
FFFFFF000000000003FF80000000003FF000FE00000000001FFFFFE00003FFFF
310
00003FFFFF80007FFC00000000001FFFE00000000001FFF8000001FFFE000000
310
7FFFFFF0001FFFFFFFFE00000000003FFFFFFE00000000003FFFFF0000000000
310
03FF00000000001FF000FC00000000000FFFFFE00003FFFF00001FFFFF80007F
310
F800000000001FFFC00000000000FFF8000001FFFE0000007FFFFFF0001FFFFF
310
FFFC00000000001FFFFFFC00000000001FFFFF000000000003FE00000000000F
310
F000F8000000000007FFFFE00003FFFF00001FFFFF80007FF800000000000FFF
310
800000000000FFF8000001FFFE0000007FFFFFF0001FFFFFFFF800000000000F
310
FFFFF800000000000FFFFF000000000003FC000000000007F000F80000000000
310
03FFFFC00003FFFE00001FFFFF80007FF0000000000007FF0000000000007FF8
310
000001FFFE0000007FFFFFF0001FFFFFFFF0000000000007FFFFF00000000000
310
07FFFF000000000003F8000000000003F000F0000000000003FFFFC00001FFFE
310
00001FFFFF80007FE0000000000007FE0000000000003FF8000001FFFE000000
310
7FFFFFF0001FFFFFFFF0000000000007FFFFF0000000000007FFFF0000000000
310
03F800001F800003F000E00001FFF00001FFFFC00001FFFE00000FFFFF80007F
310
E00001FFE00003FE00001FFF00003FF8000001FFFE0000007FFFFFF0001FFFFF
310
FFE000003E000003FFFFE000003E000003FFFF000000000003F00001FFF80001
310
F000E00007FFFC0001FFFFC00001FFFE00000FFFFF80007FC0000FFFFC0003FC
310
0000FFFFC0001FF8000001FFFE0000007FFFFFF0001FFFFFFFC00003FFE00001
310
FFFFC00003FFE00001FFFF0001FFFFFFFFF00007FFFE0001F000E0000FFFFF00
310
00FFFF800001FFFC00000FFFFF80007FC0001FFFFE0001FC0001FFFFE0001FF8
310
000001FFFE0000007FFFFFF0001FFFFFFF80000FFFF80000FFFF80000FFFF800
310
00FFFF0003FFFFFFFFE0000FFFFF8000F000C0003FFFFF8000FFFF800000FFFC
310
000007FFFF80007F80003FFFFF0001FC0003FFFFF0001FF8000001FFFE000000
310
7FFFFFF0001FFFFFFF80003FFFFE0000FFFF80003FFFFE0000FFFF0003FFFFFF
310
FFE0003FFFFF8000F000C0003FFFFF8000FFFF800000FFFC000007FFFF80007F
310
80007FFFFF8001F80007FFFFF8000FF8000001FFFE0000007FFFFFF0001FFFFF
310
FF00007FFFFF00007FFF00007FFFFF00007FFF0003FFFFFFFFE0003FFFFFC000
310
F000C0007FFFFFC000FFFF000000FFFC000007FFFF80007F8000FFFFFF8000F8
310
000FFFFFF8000FF8000001FFFE0000007FFFFFF0001FFFFFFF0000FFFFFF8000
310
7FFF0000FFFFFF80007FFF0003FFFFFFFFC0007FFFFFC00070008000FFFFFFC0
310
00FFFF000000FFF8000007FFFF80007F8000FFFFFF8000F8000FFFFFF8000FF8
310
000001FFFE0000007FFFFFF0001FFFFFFE0001FFFFFFC0003FFE0001FFFFFFC0
310
003FFF0003FFFFFFFFC0007FFFFFE00070008000FFFFFFC0007FFF0000007FF8
310
000003FFFF80007F0001FFFFFF8000F8000FFFFFF8000FF8000001FFFE000000
310
7FFFFFF0001FFFFFFE0001FFFFFFC0003FFE0001FFFFFFC0003FFF0003FFFFFF
310
FFC000FFFFFFE00070008000FFFFFFC0007FFF0000007FF8000003FFFF80007F
310
0001FFFFFF8000F8001FFFFFF8000FF8000001FFFE0000007FFFFFF0001FFFFF
310
FE0003FFFFFFE0003FFE0003FFFFFFE0003FFF0003FFFFFFFFC000FFFFFFE000
310
70008000FFFFFFC0007FFE0000007FF8000003FFFF80007F0001FFFFFF8000F0
310
001FFFFFF8000FF8000001FFFE0000007FFFFFF0001FFFFFFC0003FFFFFFE000
310
1FFC0003FFFFFFE0001FFF0003FFFFFFFFC000FFFFFFC00070008000FFFFFF80
310
007FFE0000007FF0000003FFFF80007F0001FFFFFF0000F0001FFFFFF8000FF8
310
000001FFFE0000007FFFFFF0001FFFFFFC0007FFFFFFF0001FFC0007FFFFFFF0
310
001FFF0003FFFFFFFFC000FFFFFFC00070008001FFFFFF0000FFFE0000003FF0
310
000001FFFF80007F0001FFFFFF0000F8001FFFFFF0000FF8000001FFFE000000
310
7FFFFFF0001FFFFFFC0007FFFFFFF0001FFC0007FFFFFFF0001FFF0003FFFFFF
310
FFC001FFFFFF80007000FFFFFFFFFE0000FFFE0008003FF0008001FFFF80007F
310
FFFFFFFFFC0000FFFFFFFFFFE0000FF8000001FFFE0000007FFFFFF0001FFFFF
310
F8000FFFFFFFF8000FF8000FFFFFFFF8000FFF0003FFFFFFFFFFFFFFFFFF0000
310
7000FFFFFFFFFC0000FFFC0008003FF0008001FFFF80007FFFFFFFFFF80001FF
310
FFFFFFFF80000FF8000001FFFE0000007FFFFFF0001FFFFFF8000FFFFFFFF800
310
0FF8000FFFFFFFF8000FFF0003FFFFFFFFFFFFFFFFFE0000F000FFFFFFFFE000
310
00FFFC000C003FE000C001FFFF80007FFFFFFFFFC00001FFFFFFFFFE00001FF8
310
000001FFFE0000007FFFFFF0001FFFFFF8000FFFFFFFF8000FF8000FFFFFFFF8
310
000FFF0003FFFFFFFFFFFFFFFFF00000F000FFFFFFFE000001FFFC000C001FE0
310
00C000FFFF80007FFFFFFFFE000001FFFFFFFFE000001FF80FFFFFFFFFFFFFC0
310
7FFFFFF0001FFFFFF8000FFFFFFFF8000FF8000FFFFFFFF8000FFF0003FFFFFF
310
FFFFFFFFFF800000F000FFFFFFC0000001FFFC001C001FE001C000FFFF80007F
310
FFFFFF80000003FFFFFFF80000001FF80FFFFFFFFFFFFFC07FFFFFF0001FFFFF
310
F8001FFFFFFFFC000FF8001FFFFFFFFC000FFF0003FFFFFFFFFFFFFFF0000001
310
F000FFFFF800000001FFF8001C001FE001C000FFFF80007FFFFFF800000003FF
310
FFFF800000003FF80FFFFFFFFFFFFFC07FFFFFF0001FFFFFF8001FFFFFFFFC00
310
0FF8001FFFFFFFFC000FFF0003FFFFFFFFFFFFFE00000001F000FFFFC0000000
310
03FFF8001E001FC001E000FFFF80007FFFFF8000000007FFFFFC000000003FF8
310
0FFFFFFFFFFFFFC07FFFFFF0001FFFFFF8001FFFFFFFFC000FF8001FFFFFFFFC
310
000FFF0003FFFFFFFFFFFFE000000003F000FFFE0000000007FFF8001E000FC0
310
01E0007FFF80007FFFFE0000000007FFFFE0000000007FF80FFFFFFFFFFFFFC0
310
7FFFFFF0001FFFFFF0001FFFFFFFFC0007F0001FFFFFFFFC0007FF0003FFFFFF
310
FFFFFF0000000003F000FFF80000000007FFF8001E000FC003E0007FFF80007F
310
FFF0000000000FFFFF8000000000FFF80FFFFFFFFFFFFFC07FFFFFF0001FFFFF
310
F0001FFFFFFFFC0007F0001FFFFFFFFC0007FF0003FFFFFFFFFFFC0000000007
310
F000FFE0000000000FFFF0003E000FC003E0007FFF80007FFFC0000000001FFF
310
FE0000000001FFF80FFFFFFFFFFFFFC07FFFFFF0001FFFFFF0001FFFFFFFFC00
310
07F0001FFFFFFFFC0007FF0003FFFFFFFFFFF0000000000FF000FFC000000000
310
1FFFF0003F000F8003F0003FFF80007FFF80000000003FFFF80000000003FFF8
310
0FFFFFFFFFFFFFC07FFFFFF0001FFFFFF0001FFFFFFFFC0007F0001FFFFFFFFC
310
0007FF0003FFFFFFFFFFE0000000001FF000FF00000000007FFFF0003F000780
310
03F0003FFF80007FFF00000000007FFFF00000000007FFF80FFFFFFFFFFFFFC0
310
7FFFFFF0001FFFFFF0001FFFFFFFFC0007F0001FFFFFFFFC0007FF0003FFFFFF
310
FFFF80000000007FF000FE0000000000FFFFE0003F00078007F0003FFF80007F
310
FE0000000001FFFFE0000000001FFFF80FFFFFFFFFFFFFC07FFFFFF0001FFFFF
310
F0001FFFFFFFFC0007F0001FFFFFFFFC0007FF0003FFFFFFFFFF0000000000FF
310
F000FC0000000003FFFFE0007F00078007F0003FFF80007FFC0000000007FFFF
310
C0000000007FFFF80FFFFFFFFFFFFFC07FFFFFF0001FFFFFF8001FFFFFFFFC00
310
0FF8001FFFFFFFFC000FFF0003FFFFFFFFFE0000000003FFF000FC000000000F
310
FFFFE0007F80070007F8001FFF80007FF8000000001FFFFF8000000001FFFFF8
310
0FFFFFFFFFFFFFC07FFFFFF0001FFFFFF8001FFFFFFFFC000FF8001FFFFFFFFC
310
000FFF0003FFFFFFFFFC000000000FFFF000F8000000007FFFFFE0007F800700
310
07F8001FFF80007FF000000000FFFFFF800000000FFFFFF80FFFFFFFFFFFFFC0
310
7FFFFFF0001FFFFFF8000FFFFFFFF8000FF8000FFFFFFFF8000FFF0003FFFFFF
310
FFFC000000007FFFF000F800000007FFFFFFC0007F8003000FF8001FFF80007F
310
F000000007FFFFFF000000007FFFFFF80FFFFFFFFFFFFFC07FFFFFF0001FFFFF
310
F8000FFFFFFFF8000FF8000FFFFFFFF8000FFF0003FFFFFFFFF80000000FFFFF
310
F000F0000000FFFFFFFFC000FF8003000FF8001FFF80007FE0000000FFFFFFFF
310
0000000FFFFFFFF8000001FFFE0000007FFFFFF0001FFFFFF8000FFFFFFFF800
310
0FF8000FFFFFFFF8000FFF0003FFFFFFFFF8000000FFFFFFF000F000000FFFFF
310
FFFFC000FFC002000FF8000FFF80007FE000001FFFFFFFFE000001FFFFFFFFF8
310
000001FFFE0000007FFFFFF0001FFFFFF8000FFFFFFFF8000FF8000FFFFFFFF8
310
000FFF0003FFFFFFFFF000001FFFFFFFF000E00000FFFFFFFFFFC000FFC00200
310
0FFC000FFF80007FE00001FFFFFFFFFE00001FFFFFFFFFF8000001FFFE000000
310
7FFFFFF0001FFFFFFC000FFFFFFFF8001FFC000FFFFFFFF8001FFF0003FFFFFF
310
FFF00001FFFFFFFFF000E00007FFFFFFFFFF8000FFC000001FFC000FFF80007F
310
C0000FFFFFFFFFFE0000FFFFFFFFFFF8000001FFFE0000007FFFFFF0001FFFFF
310
FC0007FFFFFFF0001FFC0007FFFFFFF0001FFF0003FFFFFFFFF00007FFFFFFFF
310
F000E0001FFFFFFFFFFF8000FFC000001FFC000FFF80007FC0003FFFFFFFFFFE
310
0001FFFFFFFFFFF8000001FFFE0000007FFFFFF0001FFFFFFC0007FFFFFFF000
310
1FFC0007FFFFFFF0001FFF0003FFFFFFFFF0001FFFFFFFFFF000E0003FFFFF00
310
03FF8001FFE000001FFC0007FF80007FC0007FFFFF0007FC0003FFFFF0003FF8
310
000001FFFE0000007FFFFFF0001FFFFFFC0003FFFFFFE0001FFC0003FFFFFFE0
310
001FFF0003FFFFFFFFF0003FFFFFFFFFF000E0003FFFFF0001FF8001FFE00000
310
1FFE0007FF80007FC0007FFFFE0003FC0007FFFFE0003FF8000001FFFE000000
310
7FFFFFF0001FFFFFFE0003FFFFFFE0003FFE0003FFFFFFE0003FFF0003FFFFFF
310
FFF0003FFFFF8001F000E0003FFFFF0001FF0001FFE000001FFE0007FF80007F
310
C0007FFFFE0003FC0007FFFFE0003FF8000001FFFE0000007FFFFFF0001FFFFF
310
FE0001FFFFFFC0003FFE0001FFFFFFC0003FFF0003FFFFFFFFF0003FFFFF0001
310
F000E0003FFFFF0003FF0001FFE000003FFE0007FF80007FC0007FFFFE0003FC
310
0007FFFFE0003FF8000001FFFE0000007FFFFFF0001FFFFFFF0001FFFFFFC000
310
7FFF0001FFFFFFC0007FFF0003FFFFFFFFF0003FFFFF0001F000E0003FFFFE00
310
03FF0003FFF000003FFE0003FF80007FC0007FFFFC0003FE0007FFFFE0003FF8
310
000001FFFE0000007FFFFFF0001FFFFFFF0000FFFFFF80007FFF0000FFFFFF80
310
007FFF0003FFFFFFFFF0003FFFFF0001F000E0003FFFFE0003FF0003FFF00000
310
3FFF0003FF80007FC0007FFFFC0007FE0007FFFFC0003FF8000001FFFE000000
310
7FFFFFF0001FFFFFFF80007FFFFF0000FFFF80007FFFFF0000FFFF0003FFFFFF
310
FFF0003FFFFF0003F000E0003FFFFC0003FE0003FFF000003FFF0003FF80007F
310
E0003FFFF80007FE0003FFFFC0007FF8000001FFFE0000007FFFFFF0001FFFFF
310
FF80003FFFFE0000FFFF80003FFFFE0000FFFF0003FFFFFFFFF0001FFFFE0003
310
F000F0001FFFF80003FE0003FFF000007FFF0001FF80007FE0003FFFF00007FE
310
0001FFFF80007FF8000001FFFE0000007FFFFFF0001FFFFFFFC0000FFFF80001
310
FFFFC0000FFFF80001FFFF0003FFFFFFFFF0001FFFFC0003F000F0000FFFF000
310
07FE0007FFF800007FFF0001FF80007FE0001FFFE00007FF0000FFFE00007FF8
310
000001FFFE0000007FFFFFF0001FFFFFFFC00003FFE00001FFFFC00003FFE000
310
01FFFF0003FFFFFFFFF8000FFFF80003F000F00003FFC00007FC0007FFF80000
310
7FFF8001FF80007FF00007FF80000FFF00007FF80000FFF8000001FFFE000000
310
7F80000000000001FFE000003E000003FFFFE000003E000003FFFF0003FFFFFF
310
FFF80003FFE00007F000F800000000000FFC0007FFF800007FFF8001FF80007F
310
F000000000000FFF000000000000FFF8000001FFFE0000007F80000000000001
310
FFF0000000000007FFFFF0000000000007FFFF0003FFFFFFFFFC00007E000007
310
F000F800000000000FFC0007FFF80000FFFF8000FF80007FF800000000001FFF
310
800000000001FFF8000001FFFE0000007F80000000000001FFF800000000000F
310
FFFFF800000000000FFFFF0003FFFFFFFFFC00000000000FF000FC0000000000
310
1FFC0007FFFC0000FFFF8000FF80007FF800000000003FFFC00000000001FFF8
310
000001FFFE0000007F80000000000001FFF800000000000FFFFFF80000000000
310
0FFFFF0003FFFFFFFFFE00000000001FF000FE00000000003FF8000FFFFC0000
310
FFFF8000FF80007FFC00000000003FFFC00000000003FFF8000001FFFE000000
310
7F80000000000001FFFC00000000001FFFFFFC00000000001FFFFF0003FFFFFF
310
FFFF00000000001FF000FF00000000003FF8000FFFFC0000FFFFC000FF80007F
310
FE00000000007FFFE00000000007FFF8000001FFFE0000007F80000000000001
310
FFFE00000000003FFFFFFE00000000003FFFFF0003FFFFFFFFFF80000000003F
310
F000FF80000000007FF8000FFFFC0001FFFFC0007F80007FFF0000000000FFFF
310
F0000000000FFFF800000000000000007F80000000000001FFFF8000000000FF
310
FFFFFF8000000000FFFFFF0003FFFFFFFFFFC0000000007FF000FFC000000000
310
FFF8000FFFFE0001FFFFC0007F80007FFF8000000001FFFFF8000000001FFFF8
310
00000000000000007F80000000000001FFFFC000000001FFFFFFFFC000000001
310
FFFFFF0003FFFFFFFFFFE000000000FFF000FFE000000003FFF0001FFFFE0001
310
FFFFC0007F80007FFFC000000007FFFFFE000000003FFFF80000000000000000
310
7F80000000000001FFFFE000000003FFFFFFFFE000000003FFFFFF0003FFFFFF
310
FFFFF000000003FFF000FFF80000000FFFF0001FFFFE0001FFFFE0007F80007F
310
FFF00000000FFFFFFF00000000FFFFF800000000000000007F80000000000001
310
FFFFF80000000FFFFFFFFFF80000000FFFFFFF0003FFFFFFFFFFFC0000000FFF
310
F000FFFE0000003FFFF0001FFFFE0003FFFFE0003F80007FFFFC0000003FFFFF
310
FFC0000003FFFFF800000000000000007F80000000000001FFFFFE0000003FFF
310
FFFFFFFE0000003FFFFFFF0003FFFFFFFFFFFF0000003FFFF000FFFF800000FF
310
FFF0001FFFFF0003FFFFE0003F80007FFFFF000001FFFFFFFFF800001FFFFFF8
310
00000000000000007F80000000000001FFFFFFC00001FFFFFFFFFFFFC00001FF
310
FFFFFF0003FFFFFFFFFFFFC00000FFFFF000FFFFF8000FFFFFFFFFFFFFFFFFFF
310
FFFFFFFFFFFFFFFFFFFFF0001FFFFFFFFFFF0000FFFFFFF80000000000000000
310
7FFFFFFFFFFFFFFFFFFFFFFC001FFFFFFFFFFFFFFC001FFFFFFFFFFFFFFFFFFF
310
FFFFFFFC001FFFFFF000FFFFFFFFFFFFFFFFFFFFFFFFFFFFFFFFFFFFFFFFFFFF
310
FFFFFFFFFFFFFFFFFFFFFFFFFFFFFFFFFFFFFFFFFFFFFFFFFFFFFFFFFFFFFFFF
310
FFFFFFFFFFFFFFFFFFFFFFFFFFFFFFFFFFFFFFFFFFFFFFFFFFFFFFFFFFFFFFFF
310
F000FFFFFFFFFFFFFFFFFFFFFFFFFFFFFFFFFFFFFFFFFFFFFFFFFFFFFFFFFFFF
310
FFFFFFFFFFFFFFFFFFFFFFFFFFFFFFFFFFFFFFFFFFFFFFFFFFFFFFFFFFFFFFFF
310
FFFFFFFFFFFFFFFFFFFFFFFFFFFFFFFFFFFFFFFFFFFFFFFFF000FFFFFFFFFFFF
310
FFFFFFFFFFFFFFFFFFFFFFFFFFFFFFFFFFFFFFFFFFFFFFFFFFFFFFFFFFFFFFFF
310
FFFFFFFFFFFFFFFFFFFFFFFFFFFFFFFFFFFFFFFFFFFFFFFFFFFFFFFFFFFFFFFF
310
FFFFFFFFFFFFFFFFFFFFFFFFFFFFFFFFF000FFFFFFFFFFFFFFFFFFFFFFFFFFFF
310
FFFFFFFFFFFFFFFFFFFFFFFFFFFFFFFFFFFFFFFFFFFFFFFFFFFFFFFFFFFFFFFF
310
FFFFFFFFFFFFFFFFFFFFFFFFFFFFFFFFFFFFFFFFFFFFFFFFFFFFFFFFFFFFFFFF
310
FFFFFFFFFFFFFFFFF000FFFFFFFFFFFFFFFFFFFFFFFFFFFFFFFFFFFFFFFFFFFF
310
FFFFFFFFFFFFFFFFFFFFFFFFFFFFFFFFFFFFFFFFFFFFFFFFFFFFFFFFFFFFFFFF
310
FFFFFFFFFFFFFFFFFFFFFFFFFFFFFFFFFFFFFFFFFFFFFFFFFFFFFFFFFFFFFFFF
310
F000FFFFFFFFFFFFFFFFFFFFFFFFFFFFFFFFFFFFFFFFFFFFFFFFFFFFFFFFFFFF
310
FFFFFFFFFFFFFFFFFFFFFFFFFFFFFFFFFFFFFFFFFFFFFFFFFFFFFFFFFFFFFFFF
310
FFFFFFFFFFFFFFFFFFFFFFFFFFFFFFFFFFFFFFFFFFFFFFFFF000FFFFFFFFFFFF
310
FFFFFFFFFFFFFFFFFFFFFFFFFFFFFFFFFFFFFFFFFFFFFFFFFFFFFFFFFFFFFFFF
310
FFFFFFFFFFFFFFFFFFFFFFFFFFFFFFFFFFFFFFFFFFFFFFFFFFFFFFFFFFFFFFFF
310
FFFFFFFFFFFFFFFFFFFFFFFFFFFFFFFFF000FFFFFFFFFFFFFFFFFFFFFFFFFFFF
310
FFFFFFFFFFFFFFFFFFFFFFFFFFFFFFFFFFFFFFFFFFFFFFFFFFFFFFFFFFFFFFFF
310
FFFFFFFFFFFFFFFFFFFFFFFFFFFFFFFFFFFFFFFFFFFFFFFFFFFFFFFFFFFFFFFF
310
FFFFFFFFFFFFFFFFF000FFFFFFFFFFFFFFFFFFFFFFFFFFFFFFFFFFFFFFFFFFFF
310
FFFFFFFFFFFFFFFFFFFFFFFFFFFFFFFFFFFFFFFFFFFFFFFFFFFFFFFFFFFFFFFF
310
FFFFFFFFFFFFFFFFFFFFFFFFFFFFFFFFFFFFFFFFFFFFFFFFFFFFFFFFFFFFFFFF
310
F000FFFFFFFFFFFFFFFFFFFFFFFFFFFFFFFFFFFFFFFFFFFFFFFFFFFFFFFFFFFF
310
FFFFFFFFFFFFFFFFFFFFFFFFFFFFFFFFFFFFFFFFFFFFFFFFFFFFFFFFFFFFFFFF
310
FFFFFFFFFFFFFFFFFFFFFFFFFFFFFFFFFFFFFFFFFFFFFFFFF000FFFFFFFFFFFF
310
FFFFFFFFFFFFFFFFFFFFFFFFFFFFFFFFFFFFFFFFFFFFFFFFFFFFFFFFFFFFFFFF
310
FFFFFFFFFFFFFFFFFFFFFFFFFFFFFFFFFFFFFFFFFFFFFFFFFFFFFFFFFFFFFFFF
310
FFFFFFFFFFFFFFFFFFFFFFFFFFFFFFFFF000FFFFFFFFFFFFFFFFFFFFFFFFFFFF
310
FFFFFFFFFFFFFFFFFFFFFFFFFFFFFFFFFFFFFFFFFFFFFFFFFFFFFFFFFFFFFFFF
310
FFFFFFFFFFFFFFFFFFFFFFFFFFFFFFFFFFFFFFFFFFFFFFFFFFFFFFFFFFFFFFFF
310
FFFFFFFFFFFFFFFFF000FFFFFFFFFFFFFFFFFFFFFFFFFFFFFFFFFFFFFFFFFFFF
310
FFFFFFFFFFFFFFFFFFFFFFFFFFFFFFFFFFFFFFFFFFFFFFFFFFFFFFFFFFFFFFFF
310
FFFFFFFFFFFFFFFFFFFFFFFFFFFFFFFFFFFFFFFFFFFFFFFFFFFFFFFFFFFFFFFF
310
F000FFFFFFFFFFFFFFFFFFFFFFFFFFFFFFFFFFFFFFFFFFFFFFFFFFFFFFFFFFFF
310
FFFFFFFFFFFFFFFFFFFFFFFFFFFFFFFFFFFFFFFFFFFFFFFFFFFFFFFFFFFFFFFF
310
FFFFFFFFFFFFFFFFFFFFFFFFFFFFFFFFFFFFFFFFFFFFFFFFF000FFFFFFFFFFFF
310
FFFFFFFFFFFFFFFFFFFFFFFFFFFFFFFFFFFFFFFFFFFFFFFFFFFFFFFFFFFFFFFF
310
FFFFFFFFFFFFFFFFFFFFFFFFFFFFFFFFFFFFFFFFFFFFFFFFFFFFFFFFFFFFFFFF
310
FFFFFFFFFFFFFFFFFFFFFFFFFFFFFFFFF000FFFFFFFFFFFFFFFFFFFFFFFFFFFF
310
FFFFFFFFFFFFFFFFFFFFFFFFFFFFFFFFFFFFFFFFFFFFFFFFFFFFFFFFFFFFFFFF
310
FFFFFFFFFFFFFFFFFFFFFFFFFFFFFFFFFFFFFFFFFFFFFFFFFFFFFFFFFFFFFFFF
310
FFFFFFFFFFFFFFFFF000FFFFFFFFFFFFFFFFFFFFFFFFFFFFFFFFFFFFFFFFFFFF
310
FFFFFFFFFFFFFFFFFFFFFFFFFFFFFFFFFFFFFFFFFFFFFFFFFFFFFFFFFFFFFFFF
310
FFFFFFFFFFFFFFFFFFFFFFFFFFFFFFFFFFFFFFFFFFFFFFFFFFFFFFFFFFFFFFFF
310
F000FFFFFFFFFFFFFFFFFFFFFFFFFFFFFFFFFFFFFFFFFFFFFFFFFFFFFFFFFFFF
310
FFFFFFFFFFFFFFFFFFFFFFFFFFFFFFFFFFFFFFFFFFFFFFFFFFFFFFFFFFFFFFFF
310
FFFFFFFFFFFFFFFFFFFFFFFFFFFFFFFFFFFFFFFFFFFFFFFFF000FFFFFFFFFFFF
310
FFFFFFFFFFFFFFFFFFFFFFFFFFFFFFFFFFFFFFFFFFFFFFFFFFFFFFFFFFFFFFFF
310
FFFFFFFFFFFFFFFFFFFFFFFFFFFFFFFFFFFFFFFFFFFFFFFFFFFFFFFFFFFFFFFF
310
FFFFFFFFFFFFFFFFFFFFFFFFFFFFFFFFF000FFFFFFFFFFFFFFFFFFFFFFFFFFFF
310
FFFFFFFFFFFFFFFFFFFFFFFFFFFFFFFFFFFFFFFFFFFFFFFFFFFFFFFFFFFFFFFF
310
FFFFFFFFFFFFFFFFFFFFFFFFFFFFFFFFFFFFFFFFFFFFFFFFFFFFFFFFFFFFFFFF
310
FFFFFFFFFFFFFFFFF000FFFFFFFFFFFFFFFFFFFFFFFFFFFFFFFFFFFFFFFFFFFF
310
FFFFFFFFFFFFFFFFFFFFFFFFFFFFFFFFFFFFFFFFFFFFFFFFFFFFFFFFFFFFFFFF
310
FFFFFFFFFFFFFFFFFFFFFFFFFFFFFFFFFFFFFFFFFFFFFFFFFFFFFFFFFFFFFFFF
310
F000FFFFFFFFFFFFFFFFFFFFFFFFFFFFFFFFFFFFFFFFFFFFFFFFFFFFFFFFFFFF
310
FFFFFFFFFFFFFFFFFFFFFFFFFFFFFFFFFFFFFFFFFFFFFFFFFFFFFFFFFFFFFFFF
310
FFFFFFFFFFFFFFFFFFFFFFFFFFFFFFFFFFFFFFFFFFFFFFFFF000FFFFFFFFFFFF
310
FFFFFFFFFFFFFFFFFFFFFFFFFFFFFFFFFFFFFFFFFFFFFFFFFFFFFFFFFFFFFFFF
310
FFFFFFFFFFFFFFFFFFFFFFFFFFFFFFFFFFFFFFFFFFFFFFFFFFFFFFFFFFFFFFFF
310
FFFFFFFFFFFFFFFFFFFFFFFFFFFFFFFFF0000000000000000000000000000000
310
0000000001000000010000000100000000000000010000000100000001000000
310
0100000001000000010000000100000001000000000000000100000000000000
310
0100000000000000010000000000000001000000000000000100000001000000
310
0100000001000000010000000100000001000000010000000000000001000000
310
0100000001000000010000000100000001000000010000000100000000000000
310
0100000000000000010000000000000001000000000000000100000000000000
310
0100000000000000010000000000000001000000000000000100000000000000
310
0100000000000000010000000000000001000000000000000100000000000000
310
0100000000000000010000000100000001000000010000000100000001000000
310
0100000001000000000000000100000001000000010000000100000001000000
310
0100000001000000010000000000000001000000010000000100000001000000
310
0100000001000000010000000100000000000000010000000100000001000000
310
0100000001000000010000000100000001000000000000000100000001000000
310
0100000001000000010000000100000001000000010000000000000001000000
310
0100000001000000010000000100000001000000010000000100000000000000
  1
OLE
  0
ENDSEC
  0
SECTION
  2
OBJECTS
  0
DICTIONARY
  5
C
330
0
100
AcDbDictionary
281
     1
  3
ACAD_GROUP
350
D
  3
ACAD_LAYOUT
350
1A
  3
ACAD_MLEADERSTYLE
350
185
  3
ACAD_MLINESTYLE
350
17
  3
ACAD_PLOTSETTINGS
350
19
  3
ACAD_PLOTSTYLENAME
350
E
  3
ACAD_TABLESTYLE
350
184
  3
ACAD_VISUALSTYLE
350
2A
  3
AcDbVariableDictionary
350
186
  0
DICTIONARY
  5
D
102
{ACAD_REACTORS
330
C
102
}
330
C
100
AcDbDictionary
281
     1
  0
DICTIONARY
  5
1A
102
{ACAD_REACTORS
330
C
102
}
330
C
100
AcDbDictionary
281
     1
  3
Layout1
350
1E
  3
Layout2
350
26
  3
Model
350
22
  0
DICTIONARY
  5
185
102
{ACAD_REACTORS
330
C
102
}
330
C
100
AcDbDictionary
281
     1
  0
DICTIONARY
  5
17
102
{ACAD_REACTORS
330
C
102
}
330
C
100
AcDbDictionary
281
     1
  3
Standard
350
18
  0
DICTIONARY
  5
19
102
{ACAD_REACTORS
330
C
102
}
330
C
100
AcDbDictionary
281
     1
  0
ACDBDICTIONARYWDFLT
  5
E
102
{ACAD_REACTORS
330
C
102
}
330
C
100
AcDbDictionary
281
     1
  3
Normal
350
F
100
AcDbDictionaryWithDefault
340
F
  0
DICTIONARY
  5
184
102
{ACAD_REACTORS
330
C
102
}
330
C
100
AcDbDictionary
281
     1
  0
DICTIONARY
  5
2A
102
{ACAD_REACTORS
330
C
102
}
330
C
100
AcDbDictionary
281
     1
  3
2dWireframe
350
2F
  3
3D Hidden
350
31
  3
3dWireframe
350
30
  3
Basic
350
32
  3
Brighten
350
36
  3
ColorChange
350
3A
  3
Conceptual
350
34
  3
Dim
350
35
  3
Facepattern
350
39
  3
Flat
350
2B
  3
FlatWithEdges
350
2C
  3
Gouraud
350
2D
  3
GouraudWithEdges
350
2E
  3
Linepattern
350
38
  3
Realistic
350
33
  3
Thicken
350
37
  0
DICTIONARY
  5
186
102
{ACAD_REACTORS
330
C
102
}
330
C
100
AcDbDictionary
281
     1
  3
PSOLHEIGHT
350
188
  3
PSOLWIDTH
350
187
  0
LAYOUT
  5
1E
102
{ACAD_REACTORS
330
1A
102
}
330
1A
100
AcDbPlotSettings
  1

  2
none_device
  4

  6

 40
0.0
 41
0.0
 42
0.0
 43
0.0
 44
0.0
 45
0.0
 46
0.0
 47
0.0
 48
0.0
 49
0.0
140
0.0
141
0.0
142
1.0
143
1.0
 70
   688
 72
     0
 73
     0
 74
     5
  7

 75
    16
147
1.0
148
0.0
149
0.0
100
AcDbLayout
  1
Layout1
 70
     1
 71
     1
 10
0.0
 20
0.0
 11
420.0
 21
297.0
 12
0.0
 22
0.0
 32
0.0
 14
1.0000000000E+20
 24
1.0000000000E+20
 34
1.0000000000E+20
 15
-1.0000000000E+20
 25
-1.0000000000E+20
 35
-1.0000000000E+20
146
0.0
 13
0.0
 23
0.0
 33
0.0
 16
1.0
 26
0.0
 36
0.0
 17
0.0
 27
1.0
 37
0.0
 76
     0
330
1B
  0
LAYOUT
  5
26
102
{ACAD_REACTORS
330
1A
102
}
330
1A
100
AcDbPlotSettings
  1

  2
none_device
  4

  6

 40
0.0
 41
0.0
 42
0.0
 43
0.0
 44
0.0
 45
0.0
 46
0.0
 47
0.0
 48
0.0
 49
0.0
140
0.0
141
0.0
142
1.0
143
1.0
 70
   688
 72
     0
 73
     0
 74
     5
  7

 75
    16
147
1.0
148
0.0
149
0.0
100
AcDbLayout
  1
Layout2
 70
     1
 71
     2
 10
0.0
 20
0.0
 11
0.0
 21
0.0
 12
0.0
 22
0.0
 32
0.0
 14
0.0
 24
0.0
 34
0.0
 15
0.0
 25
0.0
 35
0.0
146
0.0
 13
0.0
 23
0.0
 33
0.0
 16
1.0
 26
0.0
 36
0.0
 17
0.0
 27
1.0
 37
0.0
 76
     0
330
23
  0
LAYOUT
  5
22
102
{ACAD_REACTORS
330
1A
102
}
330
1A
100
AcDbPlotSettings
  1

  2
none_device
  4

  6

 40
0.0
 41
0.0
 42
0.0
 43
0.0
 44
0.0
 45
0.0
 46
0.0
 47
0.0
 48
0.0
 49
0.0
140
0.0
141
0.0
142
1.0
143
1.0
 70
  1712
 72
     0
 73
     0
 74
     0
  7

 75
     0
147
1.0
148
0.0
149
0.0
100
AcDbLayout
  1
Model
 70
     1
 71
     0
 10
0.0
 20
0.0
 11
297.0
 21
210.0
 12
0.0
 22
0.0
 32
0.0
 14
0.0
 24
0.0
 34
0.0
 15
297.0
 25
210.0
 35
0.0
146
0.0
 13
0.0
 23
0.0
 33
0.0
 16
1.0
 26
0.0
 36
0.0
 17
0.0
 27
1.0
 37
0.0
 76
     0
330
1F
331
29
  0
MLINESTYLE
  5
18
102
{ACAD_REACTORS
330
17
102
}
330
17
100
AcDbMlineStyle
  2
Standard
 70
     0
  3

 62
   256
 51
90.0
 52
90.0
 71
     2
 49
0.5
 62
   256
  6
BYLAYER
 49
-0.5
 62
   256
  6
BYLAYER
  0
ACDBPLACEHOLDER
  5
F
102
{ACAD_REACTORS
330
E
102
}
330
E
  0
VISUALSTYLE
  5
2F
102
{ACAD_REACTORS
330
2A
102
}
330
2A
100
AcDbVisualStyle
  2
2dWireframe
 70
     4
 71
     0
 72
     2
 73
     0
 90
        0
 40
-0.6
 41
-30.0
 62
     5
 63
     7
 74
     1
 91
        4
 64
     7
 65
   257
 75
     1
175
     1
 42
1.0
 92
        0
 66
   257
 43
1.0
 76
     1
 77
     6
 78
     2
 67
     7
 79
     5
170
     0
171
     0
290
     0
174
     0
 93
        1
 44
0.0
173
     0
291
     0
 45
0.0
1001
ACAD
1000
AcDbSavedByObjectVersion
1070
     0
  0
VISUALSTYLE
  5
31
102
{ACAD_REACTORS
330
2A
102
}
330
2A
100
AcDbVisualStyle
  2
3D Hidden
 70
     6
 71
     1
 72
     2
 73
     2
 90
        0
 40
-0.6
 41
-30.0
 62
     5
 63
     7
 74
     2
 91
        2
 64
     7
 65
   257
 75
     2
175
     1
 42
40.0
 92
        0
 66
   257
 43
1.0
 76
     1
 77
     6
 78
     2
 67
     7
 79
     3
170
     0
171
     0
290
     0
174
     0
 93
        1
 44
0.0
173
     0
291
     0
 45
0.0
1001
ACAD
1000
AcDbSavedByObjectVersion
1070
     0
  0
VISUALSTYLE
  5
30
102
{ACAD_REACTORS
330
2A
102
}
330
2A
100
AcDbVisualStyle
  2
3dWireframe
 70
     5
 71
     0
 72
     2
 73
     0
 90
        0
 40
-0.6
 41
-30.0
 62
     5
 63
     7
 74
     1
 91
        4
 64
     7
 65
   257
 75
     1
175
     1
 42
1.0
 92
        0
 66
   257
 43
1.0
 76
     1
 77
     6
 78
     2
 67
     7
 79
     5
170
     0
171
     0
290
     0
174
     0
 93
        1
 44
0.0
173
     0
291
     0
 45
0.0
1001
ACAD
1000
AcDbSavedByObjectVersion
1070
     0
  0
VISUALSTYLE
  5
32
102
{ACAD_REACTORS
330
2A
102
}
330
2A
100
AcDbVisualStyle
  2
Basic
 70
     7
 71
     1
 72
     0
 73
     1
 90
        0
 40
-0.6
 41
-30.0
 62
     5
 63
     7
 74
     0
 91
        4
 64
     7
 65
   257
 75
     1
175
     1
 42
1.0
 92
        8
 66
     7
 43
1.0
 76
     1
 77
     6
 78
     2
 67
     7
 79
     5
170
     0
171
     0
290
     0
174
     0
 93
        1
 44
0.0
173
     0
291
     1
 45
0.0
1001
ACAD
1000
AcDbSavedByObjectVersion
1070
     0
  0
VISUALSTYLE
  5
36
102
{ACAD_REACTORS
330
2A
102
}
330
2A
100
AcDbVisualStyle
  2
Brighten
 70
    12
 71
     2
 72
     2
 73
     0
 90
        0
 40
-0.6
 41
-30.0
 62
     5
 63
     7
 74
     1
 91
        4
 64
     7
 65
   257
 75
     1
175
     1
 42
1.0
 92
        8
 66
     7
 43
1.0
 76
     1
 77
     6
 78
     2
 67
     7
 79
     5
170
     0
171
     0
290
     0
174
     0
 93
        1
 44
50.0
173
     0
291
     1
 45
0.0
1001
ACAD
1000
AcDbSavedByObjectVersion
1070
     0
  0
VISUALSTYLE
  5
3A
102
{ACAD_REACTORS
330
2A
102
}
330
2A
100
AcDbVisualStyle
  2
ColorChange
 70
    16
 71
     2
 72
     2
 73
     3
 90
        0
 40
-0.6
 41
-30.0
 62
     5
 63
     8
 74
     1
 91
        4
 64
     7
 65
   257
 75
     1
175
     1
 42
1.0
 92
        8
 66
     8
 43
1.0
 76
     1
 77
     6
 78
     2
 67
     7
 79
     5
170
     0
171
     0
290
     0
174
     0
 93
        1
 44
0.0
173
     0
291
     1
 45
0.0
1001
ACAD
1000
AcDbSavedByObjectVersion
1070
     0
  0
VISUALSTYLE
  5
34
102
{ACAD_REACTORS
330
2A
102
}
330
2A
100
AcDbVisualStyle
  2
Conceptual
 70
     9
 71
     3
 72
     2
 73
     0
 90
        0
 40
-0.6
 41
-30.0
 62
     5
 63
     7
 74
     2
 91
        2
 64
     7
 65
   257
 75
     1
175
     1
 42
40.0
 92
        8
 66
     7
 43
1.0
 76
     1
 77
     6
 78
     2
 67
     7
 79
     3
170
     0
171
     0
290
     0
174
     0
 93
        1
 44
0.0
173
     0
291
     0
 45
0.0
1001
ACAD
1000
AcDbSavedByObjectVersion
1070
     0
  0
VISUALSTYLE
  5
35
102
{ACAD_REACTORS
330
2A
102
}
330
2A
100
AcDbVisualStyle
  2
Dim
 70
    11
 71
     2
 72
     2
 73
     0
 90
        0
 40
-0.6
 41
-30.0
 62
     5
 63
     7
 74
     1
 91
        4
 64
     7
 65
   257
 75
     1
175
     1
 42
1.0
 92
        8
 66
     7
 43
1.0
 76
     1
 77
     6
 78
     2
 67
     7
 79
     5
170
     0
171
     0
290
     0
174
     0
 93
        1
 44
-50.0
173
     0
291
     1
 45
0.0
1001
ACAD
1000
AcDbSavedByObjectVersion
1070
     0
  0
VISUALSTYLE
  5
39
102
{ACAD_REACTORS
330
2A
102
}
330
2A
100
AcDbVisualStyle
  2
Facepattern
 70
    15
 71
     2
 72
     2
 73
     0
 90
        0
 40
-0.6
 41
-30.0
 62
     5
 63
     7
 74
     1
 91
        4
 64
     7
 65
   257
 75
     1
175
     1
 42
1.0
 92
        8
 66
     7
 43
1.0
 76
     1
 77
     6
 78
     2
 67
     7
 79
     5
170
     0
171
     0
290
     0
174
     0
 93
        1
 44
0.0
173
     0
291
     1
 45
0.0
1001
ACAD
1000
AcDbSavedByObjectVersion
1070
     0
  0
VISUALSTYLE
  5
2B
102
{ACAD_REACTORS
330
2A
102
}
330
2A
100
AcDbVisualStyle
  2
Flat
 70
     0
 71
     2
 72
     1
 73
     1
 90
        2
 40
-0.6
 41
30.0
 62
     5
 63
     7
 74
     0
 91
        4
 64
     7
 65
   257
 75
     1
175
     1
 42
1.0
 92
        8
 66
     7
 43
1.0
 76
     1
 77
     6
 78
     2
 67
     7
 79
     5
170
     0
171
     0
290
     0
174
     0
 93
       13
 44
0.0
173
     0
291
     1
 45
0.0
1001
ACAD
1000
AcDbSavedByObjectVersion
1070
     0
  0
VISUALSTYLE
  5
2C
102
{ACAD_REACTORS
330
2A
102
}
330
2A
100
AcDbVisualStyle
  2
FlatWithEdges
 70
     1
 71
     2
 72
     1
 73
     1
 90
        2
 40
-0.6
 41
30.0
 62
     5
 63
     7
 74
     1
 91
        4
 64
     7
 65
   257
 75
     1
175
     1
 42
1.0
 92
        0
 66
   257
 43
1.0
 76
     1
 77
     6
 78
     2
 67
     7
 79
     5
170
     0
171
     0
290
     0
174
     0
 93
       13
 44
0.0
173
     0
291
     1
 45
0.0
1001
ACAD
1000
AcDbSavedByObjectVersion
1070
     0
  0
VISUALSTYLE
  5
2D
102
{ACAD_REACTORS
330
2A
102
}
330
2A
100
AcDbVisualStyle
  2
Gouraud
 70
     2
 71
     2
 72
     2
 73
     1
 90
        2
 40
-0.6
 41
30.0
 62
     5
 63
     7
 74
     0
 91
        4
 64
     7
 65
   257
 75
     1
175
     1
 42
1.0
 92
        0
 66
     7
 43
1.0
 76
     1
 77
     6
 78
     2
 67
     7
 79
     5
170
     0
171
     0
290
     0
174
     0
 93
       13
 44
0.0
173
     0
291
     1
 45
0.0
1001
ACAD
1000
AcDbSavedByObjectVersion
1070
     0
  0
VISUALSTYLE
  5
2E
102
{ACAD_REACTORS
330
2A
102
}
330
2A
100
AcDbVisualStyle
  2
GouraudWithEdges
 70
     3
 71
     2
 72
     2
 73
     1
 90
        2
 40
-0.6
 41
30.0
 62
     5
 63
     7
 74
     1
 91
        4
 64
     7
 65
   257
 75
     1
175
     1
 42
1.0
 92
        0
 66
   257
 43
1.0
 76
     1
 77
     6
 78
     2
 67
     7
 79
     5
170
     0
171
     0
290
     0
174
     0
 93
       13
 44
0.0
173
     0
291
     1
 45
0.0
1001
ACAD
1000
AcDbSavedByObjectVersion
1070
     0
  0
VISUALSTYLE
  5
38
102
{ACAD_REACTORS
330
2A
102
}
330
2A
100
AcDbVisualStyle
  2
Linepattern
 70
    14
 71
     2
 72
     2
 73
     0
 90
        0
 40
-0.6
 41
-30.0
 62
     5
 63
     7
 74
     1
 91
        4
 64
     7
 65
   257
 75
     7
175
     7
 42
1.0
 92
        8
 66
     7
 43
1.0
 76
     1
 77
     6
 78
     2
 67
     7
 79
     5
170
     0
171
     0
290
     0
174
     0
 93
        1
 44
0.0
173
     0
291
     1
 45
0.0
1001
ACAD
1000
AcDbSavedByObjectVersion
1070
     0
  0
VISUALSTYLE
  5
33
102
{ACAD_REACTORS
330
2A
102
}
330
2A
100
AcDbVisualStyle
  2
Realistic
 70
     8
 71
     2
 72
     2
 73
     0
 90
        0
 40
-0.6
 41
-30.0
 62
     5
 63
     7
 74
     1
 91
        0
 64
     7
 65
   257
 75
     1
175
     1
 42
1.0
 92
        8
 66
     8
 43
1.0
 76
     1
 77
     6
 78
     2
 67
     7
 79
     5
170
     0
171
     0
290
     0
174
     0
 93
       13
 44
0.0
173
     0
291
     0
 45
0.0
1001
ACAD
1000
AcDbSavedByObjectVersion
1070
     0
  0
VISUALSTYLE
  5
37
102
{ACAD_REACTORS
330
2A
102
}
330
2A
100
AcDbVisualStyle
  2
Thicken
 70
    13
 71
     2
 72
     2
 73
     0
 90
        0
 40
-0.6
 41
-30.0
 62
     5
 63
     7
 74
     1
 91
        4
 64
     7
 65
   257
 75
     1
175
     1
 42
1.0
 92
       12
 66
     7
 43
1.0
 76
     1
 77
     6
 78
     2
 67
     7
 79
     5
170
     0
171
     0
290
     0
174
     0
 93
        1
 44
0.0
173
     0
291
     1
 45
0.0
1001
ACAD
1000
AcDbSavedByObjectVersion
1070
     0
  0
DICTIONARYVAR
  5
188
102
{ACAD_REACTORS
330
186
102
}
330
186
100
DictionaryVariables
280
     0
  1
80.000000
  0
DICTIONARYVAR
  5
187
102
{ACAD_REACTORS
330
186
102
}
330
186
100
DictionaryVariables
280
     0
  1
5.000000
  0
ENDSEC
  0
EOF
