  0
SECTION
  2
HEADER
  9
$ACADVER
  1
AC1015
  9
$ACADMAINTVER
 70
     6
  9
$DWGCODEPAGE
  3
ANSI_1252
  9
$INSBASE
 10
0.0
 20
0.0
 30
0.0
  9
$EXTMIN
 10
0.0
 20
0.0
 30
0.0
  9
$EXTMAX
 10
297.0
 20
210.0
 30
0.0
  9
$LIMMIN
 10
0.0
 20
0.0
  9
$LIMMAX
 10
297.0
 20
210.0
  9
$ORTHOMODE
 70
     0
  9
$REGENMODE
 70
     1
  9
$FILLMODE
 70
     1
  9
$QTEXTMODE
 70
     0
  9
$MIRRTEXT
 70
     1
  9
$LTSCALE
 40
1.0
  9
$ATTMODE
 70
     1
  9
$TEXTSIZE
 40
2.0
  9
$TRACEWID
 40
1.0
  9
$TEXTSTYLE
  7
Standard
  9
$CLAYER
  8
0
  9
$CELTYPE
  6
ByLayer
  9
$CECOLOR
 62
   256
  9
$CELTSCALE
 40
1.0
  9
$DISPSILH
 70
     0
  9
$DIMSCALE
 40
1.0
  9
$DIMASZ
 40
3.0
  9
$DIMEXO
 40
0.0
  9
$DIMDLI
 40
3.75
  9
$DIMRND
 40
0.0
  9
$DIMDLE
 40
0.0
  9
$DIMEXE
 40
1.0
  9
$DIMTP
 40
0.0
  9
$DIMTM
 40
0.0
  9
$DIMTXT
 40
2.0
  9
$DIMCEN
 40
2.5
  9
$DIMTSZ
 40
0.0
  9
$DIMTOL
 70
     0
  9
$DIMLIM
 70
     0
  9
$DIMTIH
 70
     1
  9
$DIMTOH
 70
     1
  9
$DIMSE1
 70
     0
  9
$DIMSE2
 70
     0
  9
$DIMTAD
 70
     1
  9
$DIMZIN
 70
     0
  9
$DIMBLK
  1

  9
$DIMASO
 70
     1
  9
$DIMSHO
 70
     1
  9
$DIMPOST
  1

  9
$DIMAPOST
  1

  9
$DIMALT
 70
     0
  9
$DIMALTD
 70
     3
  9
$DIMALTF
 40
0.0393700787
  9
$DIMLFAC
 40
1.0
  9
$DIMTOFL
 70
     1
  9
$DIMTVP
 40
0.0
  9
$DIMTIX
 70
     0
  9
$DIMSOXD
 70
     0
  9
$DIMSAH
 70
     0
  9
$DIMBLK1
  1

  9
$DIMBLK2
  1

  9
$DIMSTYLE
  2
ISO-25
  9
$DIMCLRD
 70
     0
  9
$DIMCLRE
 70
     0
  9
$DIMCLRT
 70
     0
  9
$DIMTFAC
 40
1.0
  9
$DIMGAP
 40
1.524
  9
$DIMJUST
 70
     0
  9
$DIMSD1
 70
     0
  9
$DIMSD2
 70
     0
  9
$DIMTOLJ
 70
     0
  9
$DIMTZIN
 70
     0
  9
$DIMALTZ
 70
     0
  9
$DIMALTTZ
 70
     0
  9
$DIMUPT
 70
     0
  9
$DIMDEC
 70
     2
  9
$DIMTDEC
 70
     3
  9
$DIMALTU
 70
     2
  9
$DIMALTTD
 70
     3
  9
$DIMTXSTY
  7
Standard
  9
$DIMAUNIT
 70
     0
  9
$DIMADEC
 70
     2
  9
$DIMALTRND
 40
0.0
  9
$DIMAZIN
 70
     0
  9
$DIMDSEP
 70
    44
  9
$DIMATFIT
 70
     3
  9
$DIMFRAC
 70
     0
  9
$DIMLDRBLK
  1

  9
$DIMLUNIT
 70
     2
  9
$DIMLWD
 70
    -2
  9
$DIMLWE
 70
    -2
  9
$DIMTMOVE
 70
     0
  9
$LUNITS
 70
     2
  9
$LUPREC
 70
     2
  9
$SKETCHINC
 40
1.0
  9
$FILLETRAD
 40
10.0
  9
$AUNITS
 70
     0
  9
$AUPREC
 70
     2
  9
$MENU
  1
.
  9
$ELEVATION
 40
0.0
  9
$PELEVATION
 40
0.0
  9
$THICKNESS
 40
0.0
  9
$LIMCHECK
 70
     0
  9
$CHAMFERA
 40
10.0
  9
$CHAMFERB
 40
10.0
  9
$CHAMFERC
 40
20.0
  9
$CHAMFERD
 40
0.0
  9
$SKPOLY
 70
     0
  9
$TDCREATE
 40
2456231.40038559
  9
$TDUCREATE
 40
2456231.358718924
  9
$TDUPDATE
 40
2456231.400386667
  9
$TDUUPDATE
 40
2456231.35872
  9
$TDINDWG
 40
0.0000000116
  9
$TDUSRTIMER
 40
0.0000000116
  9
$USRTIMER
 70
     1
  9
$ANGBASE
 50
0.0
  9
$ANGDIR
 70
     0
  9
$PDMODE
 70
     0
  9
$PDSIZE
 40
-1.0
  9
$PLINEWID
 40
0.0
  9
$SPLFRAME
 70
     0
  9
$SPLINETYPE
 70
     6
  9
$SPLINESEGS
 70
     8
  9
$HANDSEED
  5
18A
  9
$SURFTAB1
 70
     6
  9
$SURFTAB2
 70
     6
  9
$SURFTYPE
 70
     6
  9
$SURFU
 70
     6
  9
$SURFV
 70
     6
  9
$UCSBASE
  2

  9
$UCSNAME
  2

  9
$UCSORG
 10
0.0
 20
0.0
 30
0.0
  9
$UCSXDIR
 10
1.0
 20
0.0
 30
0.0
  9
$UCSYDIR
 10
0.0
 20
1.0
 30
0.0
  9
$UCSORTHOREF
  2

  9
$UCSORTHOVIEW
 70
     0
  9
$UCSORGTOP
 10
0.0
 20
0.0
 30
0.0
  9
$UCSORGBOTTOM
 10
0.0
 20
0.0
 30
0.0
  9
$UCSORGLEFT
 10
0.0
 20
0.0
 30
0.0
  9
$UCSORGRIGHT
 10
0.0
 20
0.0
 30
0.0
  9
$UCSORGFRONT
 10
0.0
 20
0.0
 30
0.0
  9
$UCSORGBACK
 10
0.0
 20
0.0
 30
0.0
  9
$PUCSBASE
  2

  9
$PUCSNAME
  2

  9
$PUCSORG
 10
0.0
 20
0.0
 30
0.0
  9
$PUCSXDIR
 10
1.0
 20
0.0
 30
0.0
  9
$PUCSYDIR
 10
0.0
 20
1.0
 30
0.0
  9
$PUCSORTHOREF
  2

  9
$PUCSORTHOVIEW
 70
     0
  9
$PUCSORGTOP
 10
0.0
 20
0.0
 30
0.0
  9
$PUCSORGBOTTOM
 10
0.0
 20
0.0
 30
0.0
  9
$PUCSORGLEFT
 10
0.0
 20
0.0
 30
0.0
  9
$PUCSORGRIGHT
 10
0.0
 20
0.0
 30
0.0
  9
$PUCSORGFRONT
 10
0.0
 20
0.0
 30
0.0
  9
$PUCSORGBACK
 10
0.0
 20
0.0
 30
0.0
  9
$USERI1
 70
     0
  9
$USERI2
 70
     0
  9
$USERI3
 70
     0
  9
$USERI4
 70
     0
  9
$USERI5
 70
     0
  9
$USERR1
 40
0.0
  9
$USERR2
 40
0.0
  9
$USERR3
 40
0.0
  9
$USERR4
 40
0.0
  9
$USERR5
 40
0.0
  9
$WORLDVIEW
 70
     1
  9
$SHADEDGE
 70
     3
  9
$SHADEDIF
 70
    70
  9
$TILEMODE
 70
     1
  9
$MAXACTVP
 70
    64
  9
$PINSBASE
 10
0.0
 20
0.0
 30
0.0
  9
$PLIMCHECK
 70
     0
  9
$PEXTMIN
 10
1.0000000000E+20
 20
1.0000000000E+20
 30
1.0000000000E+20
  9
$PEXTMAX
 10
-1.0000000000E+20
 20
-1.0000000000E+20
 30
-1.0000000000E+20
  9
$PLIMMIN
 10
0.0
 20
0.0
  9
$PLIMMAX
 10
420.0
 20
297.0
  9
$UNITMODE
 70
     0
  9
$VISRETAIN
 70
     1
  9
$PLINEGEN
 70
     0
  9
$PSLTSCALE
 70
     1
  9
$TREEDEPTH
 70
  3020
  9
$CMLSTYLE
  2
Standard
  9
$CMLJUST
 70
     0
  9
$CMLSCALE
 40
20.0
  9
$PROXYGRAPHICS
 70
     1
  9
$MEASUREMENT
 70
     1
  9
$CELWEIGHT
370
    -1
  9
$ENDCAPS
280
     0
  9
$JOINSTYLE
280
     0
  9
$LWDISPLAY
290
     1
  9
$INSUNITS
 70
     4
  9
$HYPERLINKBASE
  1

  9
$STYLESHEET
  1

  9
$XEDIT
290
     1
  9
$CEPSNTYPE
380
     0
  9
$PSTYLEMODE
290
     1
  9
$FINGERPRINTGUID
  2
{3C6C79E9-BC14-41B1-8CE6-82804E1D6966}
  9
$VERSIONGUID
  2
{FAEB1C32-E019-11D5-929B-00C0DF256EC4}
  9
$EXTNAMES
290
     1
  9
$PSVPSCALE
 40
0.0
  9
$OLESTARTUP
290
     0
  0
ENDSEC
  0
SECTION
  2
CLASSES
  0
CLASS
  1
ACDBDICTIONARYWDFLT
  2
AcDbDictionaryWithDefault
  3
ObjectDBX Classes
 90
        0
280
     0
281
     0
  0
CLASS
  1
VISUALSTYLE
  2
AcDbVisualStyle
  3
ObjectDBX Classes
 90
     4095
280
     0
281
     0
  0
CLASS
  1
MATERIAL
  2
AcDbMaterial
  3
ObjectDBX Classes
 90
     1153
280
     0
281
     0
  0
CLASS
  1
ACDBPLACEHOLDER
  2
AcDbPlaceHolder
  3
ObjectDBX Classes
 90
        0
280
     0
281
     0
  0
CLASS
  1
LAYOUT
  2
AcDbLayout
  3
ObjectDBX Classes
 90
        0
280
     0
281
     0
  0
ENDSEC
  0
SECTION
  2
TABLES
  0
TABLE
  2
VPORT
  5
8
330
0
100
AcDbSymbolTable
 70
     1
  0
VPORT
  5
29
330
8
100
AcDbSymbolTableRecord
100
AcDbViewportTableRecord
  2
*Active
 70
     0
 10
0.0
 20
0.0
 11
1.0
 21
1.0
 12
148.5
 22
105.0
 13
0.0
 23
0.0
 14
10.0
 24
10.0
 15
10.0
 25
10.0
 16
0.0
 26
0.0
 36
1.0
 17
0.0
 27
0.0
 37
0.0
 40
210.0
 41
1.4142857143
 42
50.0
 43
0.0
 44
0.0
 50
0.0
 51
0.0
 71
     0
 72
  2000
 73
     1
 74
     3
 75
     0
 76
     0
 77
     0
 78
     0
281
     0
 65
     1
110
0.0
120
0.0
130
0.0
111
1.0
121
0.0
131
0.0
112
0.0
122
1.0
132
0.0
 79
     0
146
0.0
  0
ENDTAB
  0
TABLE
  2
LTYPE
  5
5
330
0
100
AcDbSymbolTable
 70
     6
  0
LTYPE
  5
14
330
5
100
AcDbSymbolTableRecord
100
AcDbLinetypeTableRecord
  2
ByBlock
 70
     0
  3

 72
    65
 73
     0
 40
0.0
  0
LTYPE
  5
15
330
5
100
AcDbSymbolTableRecord
100
AcDbLinetypeTableRecord
  2
ByLayer
 70
     0
  3

 72
    65
 73
     0
 40
0.0
  0
LTYPE
  5
16
330
5
100
AcDbSymbolTableRecord
100
AcDbLinetypeTableRecord
  2
Continuous
 70
     0
  3
Solid line
 72
    65
 73
     0
 40
0.0
  0
LTYPE
  5
3F
330
5
100
AcDbSymbolTableRecord
100
AcDbLinetypeTableRecord
  2
HIDDEN
 70
     0
  3
Hidden __ __ __ __ __ __ __ __ __ __ __ __ __ __
 72
    65
 73
     2
 40
1.905
 49
1.27
 74
     0
 49
-0.635
 74
     0
  0
LTYPE
  5
40
330
5
100
AcDbSymbolTableRecord
100
AcDbLinetypeTableRecord
  2
PHANTOM
 70
     0
  3
Phantom ______  __  __  ______  __  __  ______
 72
    65
 73
     6
 40
12.7
 49
6.35
 74
     0
 49
-1.27
 74
     0
 49
1.27
 74
     0
 49
-1.27
 74
     0
 49
1.27
 74
     0
 49
-1.27
 74
     0
  0
LTYPE
  5
41
330
5
100
AcDbSymbolTableRecord
100
AcDbLinetypeTableRecord
  2
CENTER
 70
     0
  3
Center ____ _ ____ _ ____ _ ____ _ ____ _ ____
 72
    65
 73
     4
 40
10.16
 49
6.35
 74
     0
 49
-1.27
 74
     0
 49
1.27
 74
     0
 49
-1.27
 74
     0
  0
LTYPE
  5
42
330
5
100
AcDbSymbolTableRecord
100
AcDbLinetypeTableRecord
  2
CENTERX2
 70
     0
  3
Center (2x) ________  __  ________  __  _____
 72
    65
 73
     4
 40
20.32
 49
12.7
 74
     0
 49
-2.54
 74
     0
 49
2.54
 74
     0
 49
-2.54
 74
     0
  0
LTYPE
  5
43
330
5
100
AcDbSymbolTableRecord
100
AcDbLinetypeTableRecord
  2
DOT2
 70
     0
  3
Dot (.5x) ........................................
 72
    65
 73
     2
 40
0.635
 49
0.0
 74
     0
 49
-0.635
 74
     0
  0
ENDTAB
  0
TABLE
  2
LAYER
  5
2
330
0
100
AcDbSymbolTable
 70
     5
  0
LAYER
  5
10
330
2
100
AcDbSymbolTableRecord
100
AcDbLayerTableRecord
  2
0
 70
     0
 62
     7
  6
Continuous
370
    -3
390
F
  0
LAYER
  5
44
330
2
100
AcDbSymbolTableRecord
100
AcDbLayerTableRecord
  2
FORMAT
 70
     0
 62
     7
  6
Continuous
370
    -3
390
F
  0
LAYER
  5
45
330
2
100
AcDbSymbolTableRecord
100
AcDbLayerTableRecord
  2
VERMASSUNG
 70
     0
 62
     7
  6
Continuous
370
    -3
390
F
  0
LAYER
  5
46
330
2
100
AcDbSymbolTableRecord
100
AcDbLayerTableRecord
  2
KOPF_DÜNN
 70
     0
 62
     7
  6
Continuous
370
    -3
390
F
  0
LAYER
  5
47
330
2
100
AcDbSymbolTableRecord
100
AcDbLayerTableRecord
  2
KOPF_DICK
 70
     0
 62
     7
  6
Continuous
370
    15
390
F
  0
ENDTAB
  0
TABLE
  2
STYLE
  5
3
330
0
100
AcDbSymbolTable
 70
     3
  0
STYLE
  5
11
330
3
100
AcDbSymbolTableRecord
100
AcDbTextStyleTableRecord
  2
Standard
 70
     0
 40
0.0
 41
1.0
 50
0.0
 71
     0
 42
2.0
  3
txt
  4

  0
STYLE
  5
48
330
3
100
AcDbSymbolTableRecord
100
AcDbTextStyleTableRecord
  2
SLDTEXTSTYLE0
 70
     0
 40
0.0
 41
0.7
 50
0.0
 71
     0
 42
0.2
  3
TXT
  4

  0
STYLE
  5
4C
330
3
100
AcDbSymbolTableRecord
100
AcDbTextStyleTableRecord
  2
SLDTEXTSTYLE1
 70
     0
 40
0.0
 41
0.64
 50
0.0
 71
     0
 42
0.2
  3
TXT
  4

  0
ENDTAB
  0
TABLE
  2
VIEW
  5
6
330
0
100
AcDbSymbolTable
 70
     0
  0
ENDTAB
  0
TABLE
  2
UCS
  5
7
330
0
100
AcDbSymbolTable
 70
     0
  0
ENDTAB
  0
TABLE
  2
APPID
  5
9
330
0
100
AcDbSymbolTable
 70
     1
  0
APPID
  5
12
330
9
100
AcDbSymbolTableRecord
100
AcDbRegAppTableRecord
  2
ACAD
 70
     0
  0
ENDTAB
  0
TABLE
  2
DIMSTYLE
  5
A
330
0
100
AcDbSymbolTable
 70
     2
100
AcDbDimStyleTable
  0
DIMSTYLE
105
27
330
A
100
AcDbSymbolTableRecord
100
AcDbDimStyleTableRecord
  2
ISO-25
 70
     0
 41
2.5
 42
0.625
 43
3.75
 44
1.25
 73
     0
 74
     0
 77
     1
 78
     8
140
2.5
141
2.5
143
0.0393700787
147
0.625
171
     3
172
     1
178
     0
271
     2
272
     2
274
     3
278
    44
283
     0
284
     8
340
11
  0
DIMSTYLE
105
148
102
{ACAD_REACTORS
330
147
330
153
330
15E
330
16A
330
174
330
17E
102
}
330
A
100
AcDbSymbolTableRecord
100
AcDbDimStyleTableRecord
  2
SLDDIMSTYLE0
 70
     0
 41
3.0
 44
0.0
 45
0.000000001
 73
     0
 74
     0
 77
     1
 78
    12
 79
     3
140
2.0
147
0.5
173
     1
178
     0
271
     2
272
     3
276
     2
284
    12
340
48
  0
ENDTAB
  0
TABLE
  2
BLOCK_RECORD
  5
1
330
0
100
AcDbSymbolTable
 70
     7
  0
BLOCK_RECORD
  5
1F
330
1
100
AcDbSymbolTableRecord
100
AcDbBlockTableRecord
  2
*Model_Space
340
22
  0
BLOCK_RECORD
  5
1B
330
1
100
AcDbSymbolTableRecord
100
AcDbBlockTableRecord
  2
*Paper_Space
340
1E
  0
BLOCK_RECORD
  5
23
330
1
100
AcDbSymbolTableRecord
100
AcDbBlockTableRecord
  2
*Paper_Space0
340
26
  0
BLOCK_RECORD
  5
149
330
1
100
AcDbSymbolTableRecord
100
AcDbBlockTableRecord
  2
_D
340
0
  0
BLOCK_RECORD
  5
154
330
1
100
AcDbSymbolTableRecord
100
AcDbBlockTableRecord
  2
_D_1
340
0
  0
BLOCK_RECORD
  5
15F
330
1
100
AcDbSymbolTableRecord
100
AcDbBlockTableRecord
  2
_D_2
340
0
  0
BLOCK_RECORD
  5
16B
330
1
100
AcDbSymbolTableRecord
100
AcDbBlockTableRecord
  2
_D_3
340
0
  0
BLOCK_RECORD
  5
175
330
1
100
AcDbSymbolTableRecord
100
AcDbBlockTableRecord
  2
_D_4
340
0
  0
BLOCK_RECORD
  5
17F
330
1
100
AcDbSymbolTableRecord
100
AcDbBlockTableRecord
  2
_D_5
340
0
  0
ENDTAB
  0
ENDSEC
  0
SECTION
  2
BLOCKS
  0
BLOCK
  5
20
330
1F
100
AcDbEntity
  8
0
100
AcDbBlockBegin
  2
*Model_Space
 70
     0
 10
0.0
 20
0.0
 30
0.0
  3
*Model_Space
  1

  0
ENDBLK
  5
21
330
1F
100
AcDbEntity
  8
0
100
AcDbBlockEnd
  0
BLOCK
  5
1C
330
1B
100
AcDbEntity
 67
     1
  8
0
100
AcDbBlockBegin
  2
*Paper_Space
 70
     0
 10
0.0
 20
0.0
 30
0.0
  3
*Paper_Space
  1

  0
ENDBLK
  5
1D
330
1B
100
AcDbEntity
 67
     1
  8
0
100
AcDbBlockEnd
  0
BLOCK
  5
24
330
23
100
AcDbEntity
  8
0
100
AcDbBlockBegin
  2
*Paper_Space0
 70
     0
 10
0.0
 20
0.0
 30
0.0
  3
*Paper_Space0
  1

  0
ENDBLK
  5
25
330
23
100
AcDbEntity
  8
0
100
AcDbBlockEnd
  0
BLOCK
  5
14A
330
149
100
AcDbEntity
  8
0
100
AcDbBlockBegin
  2
_D
 70
     0
 10
0.0
 20
0.0
 30
0.0
  3
_D
  1

  0
SOLID
  5
14C
330
149
100
AcDbEntity
  8
VERMASSUNG
100
AcDbTrace
 10
241.1294691224
 20
121.487432286
 30
0.0
 11
240.6794691224
 21
118.487432286
 31
0.0
 12
241.5794691224
 22
118.487432286
 32
0.0
 13
241.5794691224
 23
118.487432286
 33
0.0
  0
SOLID
  5
14D
330
149
100
AcDbEntity
  8
VERMASSUNG
100
AcDbTrace
 10
241.1294691224
 20
111.487432286
 30
0.0
 11
241.5794691224
 21
114.487432286
 31
0.0
 12
240.6794691224
 22
114.487432286
 32
0.0
 13
240.6794691224
 23
114.487432286
 33
0.0
  0
LINE
  5
14E
330
149
100
AcDbEntity
  8
VERMASSUNG
100
AcDbLine
 10
233.3999000252
 20
121.487432286
 30
0.0
 11
242.1294691224
 21
121.487432286
 31
0.0
  0
LINE
  5
14F
330
149
100
AcDbEntity
  8
VERMASSUNG
100
AcDbLine
 10
233.3999000252
 20
111.487432286
 30
0.0
 11
242.1294691224
 21
111.487432286
 31
0.0
  0
LINE
  5
150
330
149
100
AcDbEntity
  8
VERMASSUNG
100
AcDbLine
 10
241.1294691224
 20
121.487432286
 30
0.0
 11
241.1294691224
 21
111.487432286
 31
0.0
  0
MTEXT
  5
151
330
149
100
AcDbEntity
  8
VERMASSUNG
100
AcDbMText
 10
238.5513336429
 20
113.4837852088
 30
0.0
 40
2.0
 41
0.0
 71
     1
 72
     1
  1
%%c
  7
SLDTEXTSTYLE0
 11
-7.044195017643634E-15
 21
1.0
 31
0.0
 73
     1
 44
1.0
  0
MTEXT
  5
152
330
149
100
AcDbEntity
  8
VERMASSUNG
100
AcDbMText
 10
238.5513337593
 20
117.092285702
 30
0.0
 40
2.0
 41
0.0
 71
     1
 72
     1
  1
10
  7
SLDTEXTSTYLE0
 11
-7.044195017643634E-15
 21
1.0
 31
0.0
 73
     1
 44
1.0
  0
ENDBLK
  5
14B
330
149
100
AcDbEntity
  8
0
100
AcDbBlockEnd
  0
BLOCK
  5
155
330
154
100
AcDbEntity
  8
0
100
AcDbBlockBegin
  2
_D_1
 70
     0
 10
0.0
 20
0.0
 30
0.0
  3
_D_1
  1

  0
SOLID
  5
157
330
154
100
AcDbEntity
  8
VERMASSUNG
100
AcDbTrace
 10
247.1294691224
 20
133.987432286
 30
0.0
 11
246.6794691224
 21
130.987432286
 31
0.0
 12
247.5794691224
 22
130.987432286
 32
0.0
 13
247.5794691224
 23
130.987432286
 33
0.0
  0
SOLID
  5
158
330
154
100
AcDbEntity
  8
VERMASSUNG
100
AcDbTrace
 10
247.1294691224
 20
98.987432286
 30
0.0
 11
247.5794691224
 21
101.987432286
 31
0.0
 12
246.6794691224
 22
101.987432286
 32
0.0
 13
246.6794691224
 23
101.987432286
 33
0.0
  0
LINE
  5
159
330
154
100
AcDbEntity
  8
VERMASSUNG
100
AcDbLine
 10
222.9773654226
 20
133.987432286
 30
0.0
 11
248.1294691224
 21
133.987432286
 31
0.0
  0
LINE
  5
15A
330
154
100
AcDbEntity
  8
VERMASSUNG
100
AcDbLine
 10
222.9773654226
 20
98.987432286
 30
0.0
 11
248.1294691224
 21
98.987432286
 31
0.0
  0
LINE
  5
15B
330
154
100
AcDbEntity
  8
VERMASSUNG
100
AcDbLine
 10
247.1294691224
 20
133.987432286
 30
0.0
 11
247.1294691224
 21
98.987432286
 31
0.0
  0
MTEXT
  5
15C
330
154
100
AcDbEntity
  8
VERMASSUNG
100
AcDbMText
 10
244.5513336429
 20
113.2844585149
 30
0.0
 40
2.0
 41
0.0
 71
     1
 72
     1
  1
%%c
  7
SLDTEXTSTYLE0
 11
-7.044195017643634E-15
 21
1.0
 31
0.0
 73
     1
 44
1.0
  0
MTEXT
  5
15D
330
154
100
AcDbEntity
  8
VERMASSUNG
100
AcDbMText
 10
244.5513337593
 20
116.8929590081
 30
0.0
 40
2.0
 41
0.0
 71
     1
 72
     1
  1
35
  7
SLDTEXTSTYLE0
 11
-7.044195017643634E-15
 21
1.0
 31
0.0
 73
     1
 44
1.0
  0
ENDBLK
  5
156
330
154
100
AcDbEntity
  8
0
100
AcDbBlockEnd
  0
BLOCK
  5
160
330
15F
100
AcDbEntity
  8
0
100
AcDbBlockBegin
  2
_D_2
 70
     0
 10
0.0
 20
0.0
 30
0.0
  3
_D_2
  1

  0
SOLID
  5
162
330
15F
100
AcDbEntity
  8
VERMASSUNG
100
AcDbTrace
 10
66.1153846154
 20
147.987432286
 30
0.0
 11
65.6653846154
 21
144.987432286
 31
0.0
 12
66.5653846154
 22
144.987432286
 32
0.0
 13
66.5653846154
 23
144.987432286
 33
0.0
  0
SOLID
  5
163
330
15F
100
AcDbEntity
  8
VERMASSUNG
100
AcDbTrace
 10
66.1153846154
 20
84.987432286
 30
0.0
 11
66.5653846154
 21
87.987432286
 31
0.0
 12
65.6653846154
 22
87.987432286
 32
0.0
 13
65.6653846154
 23
87.987432286
 33
0.0
  0
LINE
  5
164
330
15F
100
AcDbEntity
  8
VERMASSUNG
100
AcDbLine
 10
103.9999000252
 20
147.987432286
 30
0.0
 11
65.1153846154
 21
147.987432286
 31
0.0
  0
LINE
  5
165
330
15F
100
AcDbEntity
  8
VERMASSUNG
100
AcDbLine
 10
103.9999000252
 20
84.987432286
 30
0.0
 11
65.1153846154
 21
84.987432286
 31
0.0
  0
LINE
  5
166
330
15F
100
AcDbEntity
  8
VERMASSUNG
100
AcDbLine
 10
66.1153846154
 20
147.987432286
 30
0.0
 11
66.1153846154
 21
84.987432286
 31
0.0
  0
MTEXT
  5
167
330
15F
100
AcDbEntity
  8
VERMASSUNG
100
AcDbMText
 10
63.3372491263
 20
108.7841428998
 30
0.0
 40
2.0
 41
0.0
 71
     1
 72
     1
  1
HSK A
  7
SLDTEXTSTYLE0
 11
-7.044195017643634E-15
 21
1.0
 31
0.0
 73
     1
 44
1.0
  0
MTEXT
  5
168
330
15F
100
AcDbEntity
  8
VERMASSUNG
100
AcDbMText
 10
63.5372491358
 20
117.7841434437
 30
0.0
 40
2.0
 41
0.0
 71
     1
 72
     1
  1
%%c
  7
SLDTEXTSTYLE0
 11
-7.044195017643634E-15
 21
1.0
 31
0.0
 73
     1
 44
1.0
  0
MTEXT
  5
169
330
15F
100
AcDbEntity
  8
VERMASSUNG
100
AcDbMText
 10
63.5372492523
 20
121.3932746233
 30
0.0
 40
2.0
 41
0.0
 71
     1
 72
     1
  1
63
  7
SLDTEXTSTYLE0
 11
-7.044195017643634E-15
 21
1.0
 31
0.0
 73
     1
 44
1.0
  0
ENDBLK
  5
161
330
15F
100
AcDbEntity
  8
0
100
AcDbBlockEnd
  0
BLOCK
  5
16C
330
16B
100
AcDbEntity
  8
0
100
AcDbBlockBegin
  2
_D_3
 70
     0
 10
0.0
 20
0.0
 30
0.0
  3
_D_3
  1

  0
SOLID
  5
16E
330
16B
100
AcDbEntity
  8
VERMASSUNG
100
AcDbTrace
 10
129.6499000252
 20
153.3864572048
 30
0.0
 11
132.6499000252
 21
152.9364572048
 31
0.0
 12
132.6499000252
 22
153.8364572048
 32
0.0
 13
132.6499000252
 23
153.8364572048
 33
0.0
  0
SOLID
  5
16F
330
16B
100
AcDbEntity
  8
VERMASSUNG
100
AcDbTrace
 10
233.6999000252
 20
153.3864572048
 30
0.0
 11
230.6999000252
 21
153.8364572048
 31
0.0
 12
230.6999000252
 22
152.9364572048
 32
0.0
 13
230.6999000252
 23
152.9364572048
 33
0.0
  0
LINE
  5
170
330
16B
100
AcDbEntity
  8
VERMASSUNG
100
AcDbLine
 10
129.6499000252
 20
146.3338726098
 30
0.0
 11
129.6499000252
 21
154.3864572048
 31
0.0
  0
LINE
  5
171
330
16B
100
AcDbEntity
  8
VERMASSUNG
100
AcDbLine
 10
233.6999000252
 20
127.7132917644
 30
0.0
 11
233.6999000252
 21
154.3864572048
 31
0.0
  0
LINE
  5
172
330
16B
100
AcDbEntity
  8
VERMASSUNG
100
AcDbLine
 10
129.6499000252
 20
153.3864572048
 30
0.0
 11
233.6999000252
 21
153.3864572048
 31
0.0
  0
MTEXT
  5
173
330
16B
100
AcDbEntity
  8
VERMASSUNG
100
AcDbMText
 10
177.9753278528
 20
155.9645925679
 30
0.0
 40
2.0
 41
0.0
 71
     1
 72
     1
  1
104.05
  7
SLDTEXTSTYLE0
 73
     1
 44
1.0
  0
ENDBLK
  5
16D
330
16B
100
AcDbEntity
  8
0
100
AcDbBlockEnd
  0
BLOCK
  5
176
330
175
100
AcDbEntity
  8
0
100
AcDbBlockBegin
  2
_D_4
 70
     0
 10
0.0
 20
0.0
 30
0.0
  3
_D_4
  1

  0
SOLID
  5
178
330
175
100
AcDbEntity
  8
VERMASSUNG
100
AcDbTrace
 10
103.6999000252
 20
159.3864572048
 30
0.0
 11
106.6999000252
 21
158.9364572048
 31
0.0
 12
106.6999000252
 22
159.8364572048
 32
0.0
 13
106.6999000252
 23
159.8364572048
 33
0.0
  0
SOLID
  5
179
330
175
100
AcDbEntity
  8
VERMASSUNG
100
AcDbTrace
 10
233.6999000252
 20
159.3864572048
 30
0.0
 11
230.6999000252
 21
159.8364572048
 31
0.0
 12
230.6999000252
 22
158.9364572048
 32
0.0
 13
230.6999000252
 23
158.9364572048
 33
0.0
  0
LINE
  5
17A
330
175
100
AcDbEntity
  8
VERMASSUNG
100
AcDbLine
 10
103.6999000252
 20
147.687432286
 30
0.0
 11
103.6999000252
 21
160.3864572048
 31
0.0
  0
LINE
  5
17B
330
175
100
AcDbEntity
  8
VERMASSUNG
100
AcDbLine
 10
233.6999000252
 20
127.7132917644
 30
0.0
 11
233.6999000252
 21
160.3864572048
 31
0.0
  0
LINE
  5
17C
330
175
100
AcDbEntity
  8
VERMASSUNG
100
AcDbLine
 10
103.6999000252
 20
159.3864572048
 30
0.0
 11
233.6999000252
 21
159.3864572048
 31
0.0
  0
MTEXT
  5
17D
330
175
100
AcDbEntity
  8
VERMASSUNG
100
AcDbMText
 10
166.8011414323
 20
161.9645925679
 30
0.0
 40
2.0
 41
0.0
 71
     1
 72
     1
  1
130
  7
SLDTEXTSTYLE0
 73
     1
 44
1.0
  0
ENDBLK
  5
177
330
175
100
AcDbEntity
  8
0
100
AcDbBlockEnd
  0
BLOCK
  5
180
330
17F
100
AcDbEntity
  8
0
100
AcDbBlockBegin
  2
_D_5
 70
     0
 10
0.0
 20
0.0
 30
0.0
  3
_D_5
  1

  0
SOLID
  5
182
330
17F
100
AcDbEntity
  8
VERMASSUNG
100
AcDbTrace
 10
71.7999000252
 20
165.3864572048
 30
0.0
 11
74.7999000252
 21
164.9364572048
 31
0.0
 12
74.7999000252
 22
165.8364572048
 32
0.0
 13
74.7999000252
 23
165.8364572048
 33
0.0
  0
SOLID
  5
183
330
17F
100
AcDbEntity
  8
VERMASSUNG
100
AcDbTrace
 10
233.6999000252
 20
165.3864572048
 30
0.0
 11
230.6999000252
 21
165.8364572048
 31
0.0
 12
230.6999000252
 22
164.9364572048
 32
0.0
 13
230.6999000252
 23
164.9364572048
 33
0.0
  0
LINE
  5
184
330
17F
100
AcDbEntity
  8
VERMASSUNG
100
AcDbLine
 10
71.7999000252
 20
136.1781100325
 30
0.0
 11
71.7999000252
 21
166.3864572048
 31
0.0
  0
LINE
  5
185
330
17F
100
AcDbEntity
  8
VERMASSUNG
100
AcDbLine
 10
233.6999000252
 20
127.7132917644
 30
0.0
 11
233.6999000252
 21
166.3864572048
 31
0.0
  0
LINE
  5
186
330
17F
100
AcDbEntity
  8
VERMASSUNG
100
AcDbLine
 10
71.7999000252
 20
165.3864572048
 30
0.0
 11
233.6999000252
 21
165.3864572048
 31
0.0
  0
MTEXT
  5
187
330
17F
100
AcDbEntity
  8
VERMASSUNG
100
AcDbMText
 10
150.0503979895
 20
167.9645925679
 30
0.0
 40
2.0
 41
0.0
 71
     1
 72
     1
  1
161.9
  7
SLDTEXTSTYLE0
 73
     1
 44
1.0
  0
ENDBLK
  5
181
330
17F
100
AcDbEntity
  8
0
100
AcDbBlockEnd
  0
ENDSEC
  0
SECTION
  2
ENTITIES
  0
MTEXT
  5
49
330
1F
100
AcDbEntity
  8
KOPF_DÜNN
100
AcDbMText
 10
13.8892156294
 20
23.8442973028
 30
0.0
 40
3.0
 41
0.0
 71
     1
 72
     1
  1
HA6.W10.K01.130
  7
SLDTEXTSTYLE0
 73
     1
 44
1.0
  0
MTEXT
  5
4A
330
1F
100
AcDbEntity
  8
VERMASSUNG
100
AcDbMText
 10
13.9329988022
 20
28.8834360957
 30
0.0
 40
3.0
 41
0.0
 71
     1
 72
     1
  1
Flächenspannfutter_End mill adapter Weldon ø10
  7
SLDTEXTSTYLE0
 73
     1
 44
1.0
  0
MTEXT
  5
4B
330
1F
100
AcDbEntity
  8
VERMASSUNG
100
AcDbMText
 10
98.8601118557
 20
13.8365368179
 30
0.0
 40
2.0
 41
0.0
 71
     1
 72
     1
  1
Datum: 20.04.2011
  7
SLDTEXTSTYLE0
 73
     1
 44
1.0
  0
MTEXT
  5
4D
330
1F
100
AcDbEntity
  8
VERMASSUNG
100
AcDbMText
 10
13.933048693
 20
18.0482802738
 30
0.0
 40
2.0
 41
0.0
 71
     1
 72
     1
  1
DIN 69 893 HSK A  63
  7
SLDTEXTSTYLE1
 73
     1
 44
1.0
  0
MTEXT
  5
4E
330
1F
100
AcDbEntity
  8
VERMASSUNG
100
AcDbMText
 10
13.9808475933
 20
13.9090973692
 30
0.0
 40
2.0
 41
0.0
 71
     1
 72
     1
  1
Gewicht: 1377g
  7
SLDTEXTSTYLE0
 73
     1
 44
1.0
  0
LINE
  5
4F
330
1F
100
AcDbEntity
  8
0
  6
Continuous
 62
     7
370
    15
100
AcDbLine
 10
103.9999000394
 20
84.9874317794
 30
0.0
 11
108.6498999984
 21
84.9874317794
 31
0.0
  0
LINE
  5
50
330
1F
100
AcDbEntity
  8
0
  6
Continuous
 62
     7
370
    15
100
AcDbLine
 10
108.6592081018
 20
147.9874327927
 30
0.0
 11
103.9999000394
 21
147.9874327927
 31
0.0
  0
ARC
  5
51
330
1F
100
AcDbEntity
  8
0
  6
Continuous
 62
     7
370
    15
100
AcDbCircle
 10
103.9999000252
 20
85.287432286
 30
0.0
 40
0.3000000000000114
100
AcDbArc
 50
180.0
 51
270.0
  0
ARC
  5
52
330
1F
100
AcDbEntity
  8
0
  6
Continuous
 62
     7
370
    15
100
AcDbCircle
 10
103.9999000252
 20
147.687432286
 30
0.0
 40
0.3000000000000114
100
AcDbArc
 50
90.0
 51
180.0
  0
ARC
  5
53
330
1F
100
AcDbEntity
  8
0
  6
Continuous
 62
     7
370
    15
100
AcDbCircle
 10
103.1998932725
 20
91.9169946716
 30
0.0
 40
0.6000067526677242
100
AcDbArc
 50
33.5571153394
 51
90.0
  0
ARC
  5
54
330
1F
100
AcDbEntity
  8
0
  6
Continuous
 62
     7
370
    15
100
AcDbCircle
 10
103.1998932725
 20
141.0578699004
 30
0.0
 40
0.6000067526677242
100
AcDbArc
 50
270.0
 51
326.4428846606
  0
LINE
  5
55
330
1F
100
AcDbEntity
  8
0
  6
Continuous
 62
     7
370
    15
100
AcDbLine
 10
90.4694775135
 20
140.145216152
 30
0.0
 11
77.899899149
 21
139.5154781787
 31
0.0
  0
LINE
  5
56
330
1F
100
AcDbEntity
  8
0
  6
Continuous
 62
     7
370
    15
100
AcDbLine
 10
101.6998999302
 20
140.7078635095
 30
0.0
 11
98.8812905752
 21
140.5666507928
 31
0.0
  0
LINE
  5
57
330
1F
100
AcDbEntity
  8
0
  6
Continuous
 62
     7
370
    15
100
AcDbLine
 10
98.8815122299
 20
92.4082026033
 30
0.0
 11
101.6998999302
 21
92.2670010625
 31
0.0
  0
LINE
  5
58
330
1F
100
AcDbEntity
  8
0
  6
Continuous
 62
     7
370
    15
100
AcDbLine
 10
81.8998998046
 20
93.2589862643
 30
0.0
 11
90.4701769367
 21
92.8296130298
 31
0.0
  0
LINE
  5
59
330
1F
100
AcDbEntity
  8
0
  6
Continuous
 62
     7
370
    15
100
AcDbLine
 10
101.6998999302
 20
92.2670010625
 30
0.0
 11
102.5566128564
 21
92.496557176
 31
0.0
  0
LINE
  5
5A
330
1F
100
AcDbEntity
  8
0
  6
Continuous
 62
     7
370
    15
100
AcDbLine
 10
102.5566128564
 20
140.4783073961
 30
0.0
 11
101.6998999302
 21
140.7078635095
 31
0.0
  0
ARC
  5
5B
330
1F
100
AcDbEntity
  8
0
  6
Continuous
 62
     7
370
    15
100
AcDbCircle
 10
102.7119042256
 20
91.9170014243
 30
0.0
 40
0.6000000000000085
100
AcDbArc
 50
90.0
 51
105.0
  0
ARC
  5
5C
330
1F
100
AcDbEntity
  8
0
  6
Continuous
 62
     7
370
    15
100
AcDbCircle
 10
102.7119042256
 20
141.0578631477
 30
0.0
 40
0.5999999999999943
100
AcDbArc
 50
255.0
 51
270.0
  0
LINE
  5
5D
330
1F
100
AcDbEntity
  8
0
  6
Continuous
 62
     7
370
    15
100
AcDbLine
 10
102.71190426
 20
92.5170015692
 30
0.0
 11
103.1998932493
 21
92.5170015692
 31
0.0
  0
LINE
  5
5E
330
1F
100
AcDbEntity
  8
0
  6
Continuous
 62
     7
370
    15
100
AcDbLine
 10
103.1998932493
 20
140.4578630029
 30
0.0
 11
102.71190426
 21
140.4578630029
 31
0.0
  0
ARC
  5
5F
330
1F
100
AcDbEntity
  8
0
  6
Continuous
 62
     7
370
    15
100
AcDbCircle
 10
132.6499000252
 20
92.9714734845
 30
0.0
 40
3.000000000000003
100
AcDbArc
 50
104.3250519401
 51
180.0
  0
ARC
  5
60
330
1F
100
AcDbEntity
  8
0
  6
Continuous
 62
     7
370
    15
100
AcDbCircle
 10
132.6499000252
 20
140.0033910875
 30
0.0
 40
3.0
100
AcDbArc
 50
180.0
 51
255.6749480599
  0
ARC
  5
61
330
1F
100
AcDbEntity
  8
0
  6
Continuous
 62
     7
370
    15
100
AcDbCircle
 10
156.6499000252
 20
-1.012567714
 30
0.0
 40
100.0
100
AcDbArc
 50
90.0
 51
104.3250519401
  0
ARC
  5
62
330
1F
100
AcDbEntity
  8
0
  6
Continuous
 62
     7
370
    15
100
AcDbCircle
 10
156.6499000252
 20
233.987432286
 30
0.0
 40
100.0000000000001
100
AcDbArc
 50
255.6749480599
 51
270.0
  0
LINE
  5
63
330
1F
100
AcDbEntity
  8
0
  6
Continuous
 62
     7
370
    15
100
AcDbLine
 10
156.6498985529
 20
98.9874322115
 30
0.0
 11
222.9773623884
 21
98.9874322115
 31
0.0
  0
LINE
  5
64
330
1F
100
AcDbEntity
  8
0
  6
Continuous
 62
     7
370
    15
100
AcDbLine
 10
222.9773623884
 20
133.9874323605
 30
0.0
 11
156.6498985529
 21
133.9874323605
 31
0.0
  0
LINE
  5
65
330
1F
100
AcDbEntity
  8
0
  6
Continuous
 62
     7
370
    15
100
AcDbLine
 10
222.9773623884
 20
98.9874322115
 30
0.0
 11
232.5451297701
 21
103.4489572196
 31
0.0
  0
LINE
  5
66
330
1F
100
AcDbEntity
  8
0
  6
Continuous
 62
     7
370
    15
100
AcDbLine
 10
232.5451297701
 20
129.5259073524
 30
0.0
 11
222.9773623884
 21
133.9874323605
 31
0.0
  0
ARC
  5
67
330
1F
100
AcDbEntity
  8
0
  6
Continuous
 62
     7
370
    15
100
AcDbCircle
 10
231.6999000252
 20
105.2615728076
 30
0.0
 40
1.999999999999975
100
AcDbArc
 50
295.0
 51
0.0
  0
ARC
  5
68
330
1F
100
AcDbEntity
  8
0
  6
Continuous
 62
     7
370
    15
100
AcDbCircle
 10
231.6999000252
 20
127.7132917644
 30
0.0
 40
1.999999999999962
100
AcDbArc
 50
0.0
 51
65.0
  0
LINE
  5
69
330
1F
100
AcDbEntity
  8
0
  6
Continuous
 62
     7
370
    15
100
AcDbLine
 10
73.0943193675
 20
95.617432162
 30
0.0
 11
80.4999003202
 21
95.617432162
 31
0.0
  0
ARC
  5
6A
330
1F
100
AcDbEntity
  8
0
  6
Continuous
 62
     7
370
    15
100
AcDbCircle
 10
80.4999000252
 20
94.217432286
 30
0.0
 40
1.399999999999995
100
AcDbArc
 50
42.2210104152
 51
90.0
  0
LINE
  5
6B
330
1F
100
AcDbEntity
  8
0
  6
Continuous
 62
     7
370
    15
100
AcDbLine
 10
71.8114560485
 20
96.7558752893
 30
0.0
 11
72.9410627872
 21
95.6262685506
 31
0.0
  0
LINE
  5
6C
330
1F
100
AcDbEntity
  8
0
  6
Continuous
 62
     7
370
    15
100
AcDbLine
 10
72.9410627872
 20
137.3485960214
 30
0.0
 11
71.8110686183
 21
136.2185999899
 31
0.0
  0
ARC
  5
6D
330
1F
100
AcDbEntity
  8
0
  6
Continuous
 62
     7
370
    15
100
AcDbCircle
 10
76.4999000252
 20
138.757432286
 30
0.0
 40
1.400000000000006
100
AcDbArc
 50
270.0
 51
302.5610026528
  0
LINE
  5
6E
330
1F
100
AcDbEntity
  8
0
  6
Continuous
 62
     7
370
    15
100
AcDbLine
 10
76.4998996646
 20
137.35743241
 30
0.0
 11
73.0975547821
 21
137.35743241
 31
0.0
  0
CIRCLE
  5
6F
330
1F
100
AcDbEntity
  8
0
  6
Continuous
 62
     7
370
    15
100
AcDbCircle
 10
214.1999000252
 20
116.487432286
 30
0.0
 40
4.199999999999979
  0
ARC
  5
70
330
1F
100
AcDbEntity
  8
0
  6
Continuous
 62
     7
370
    15
100
AcDbCircle
 10
214.1999000252
 20
116.487432286
 30
0.0
 40
5.000000000000005
100
AcDbArc
 50
267.1338721057
 51
286.0441731494
  0
LINE
  5
71
330
1F
100
AcDbEntity
  8
0
  6
Continuous
 62
     7
370
    15
100
AcDbLine
 10
212.4395666659
 20
118.7753495908
 30
0.0
 11
211.3383410514
 21
116.1068990625
 31
0.0
  0
LINE
  5
72
330
1F
100
AcDbEntity
  8
0
  6
Continuous
 62
     7
370
    15
100
AcDbLine
 10
217.0614598334
 20
116.8679655095
 30
0.0
 11
215.9602342189
 21
114.1995149812
 31
0.0
  0
LINE
  5
73
330
1F
100
AcDbEntity
  8
0
  6
Continuous
 62
     7
370
    15
100
AcDbLine
 10
211.3383410514
 20
116.1068990625
 30
0.0
 11
213.0986748279
 21
113.8189816995
 31
0.0
  0
LINE
  5
74
330
1F
100
AcDbEntity
  8
0
  6
Continuous
 62
     7
370
    15
100
AcDbLine
 10
212.4395666659
 20
118.7753495908
 30
0.0
 11
215.301126057
 21
119.1558828725
 31
0.0
  0
LINE
  5
75
330
1F
100
AcDbEntity
  8
0
  6
Continuous
 62
     7
370
    15
100
AcDbLine
 10
217.0614598334
 20
116.8679655095
 30
0.0
 11
215.301126057
 21
119.1558828725
 31
0.0
  0
LINE
  5
76
330
1F
100
AcDbEntity
  8
0
  6
Continuous
 62
     7
370
    15
100
AcDbLine
 10
215.9602342189
 20
114.1995149812
 30
0.0
 11
213.0986748279
 21
113.8189816995
 31
0.0
  0
LINE
  5
77
330
1F
100
AcDbEntity
  8
0
  6
Continuous
 62
     7
370
    15
100
AcDbLine
 10
129.0499007345
 20
86.3005146532
 30
0.0
 11
125.0918319464
 21
86.3005146532
 31
0.0
  0
LINE
  5
78
330
1F
100
AcDbEntity
  8
0
  6
Continuous
 62
     7
370
    15
100
AcDbLine
 10
125.0918319464
 20
86.3005146532
 30
0.0
 11
125.0918319464
 21
136.3374330251
 31
0.0
  0
LINE
  5
79
330
1F
100
AcDbEntity
  8
0
  6
Continuous
 62
     7
370
    15
100
AcDbLine
 10
125.0918319464
 20
136.3374330251
 30
0.0
 11
129.0499007345
 21
136.3374330251
 31
0.0
  0
LINE
  5
7A
330
1F
100
AcDbEntity
  8
0
  6
Continuous
 62
     7
370
    15
100
AcDbLine
 10
129.6498997152
 20
86.9271550475
 30
0.0
 11
129.6498997152
 21
136.3374330251
 31
0.0
  0
SPLINE
  5
7B
330
1F
100
AcDbEntity
  8
0
  6
Continuous
 62
     7
370
    15
100
AcDbSpline
210
0.0
220
0.0
230
1.0
 70
     8
 71
     3
 72
    10
 73
     6
 74
     0
 42
0.00000001
 43
0.00000001
 12
1.0
 22
0.0
 32
0.0
 13
1.0
 23
0.0
 33
0.0
 40
0.0
 40
0.0
 40
0.0
 40
0.0
 40
0.5
 40
0.5
 40
1.0
 40
1.0
 40
1.0
 40
1.0
 10
129.6499000251793
 20
86.92715488543104
 30
0.0
 10
129.6499000251793
 20
86.76726761723738
 30
0.0
 10
129.5885903739435
 20
86.60614036172278
 30
0.0
 10
129.3694907364084
 20
86.37204136336794
 30
0.0
 10
129.2114425300949
 20
86.30051458977672
 30
0.0
 10
129.0499000251793
 20
86.30051458977672
 30
0.0
  0
SPLINE
  5
7C
330
1F
100
AcDbEntity
  8
0
  6
Continuous
 62
     7
370
    15
100
AcDbSpline
210
0.0
220
0.0
230
1.0
 70
    24
 71
     3
 72
    12
 73
     8
 74
     0
 42
0.00000001
 43
0.00000001
 12
1.0
 22
0.0
 32
0.0
 13
1.0
 23
0.0
 33
0.0
 40
0.0
 40
0.0
 40
0.0
 40
0.0
 40
0.2500000000000033
 40
0.2500000000000033
 40
0.5000000000000067
 40
0.5000000000000067
 40
1.0
 40
1.0
 40
1.0
 40
1.0
 10
129.0499000251793
 20
136.3374322860239
 30
0.0
 10
129.1401390928664
 20
136.3374322860239
 30
0.0
 10
129.2310372069728
 20
136.3374322860239
 30
0.0
 10
129.3856342434614
 20
136.3374322860239
 30
0.0
 10
129.4506126595695
 20
136.3374322860239
 30
0.0
 10
129.6024476875057
 20
136.3374322860239
 30
0.0
 10
129.6499000251793
 20
136.3374322860239
 30
0.0
 10
129.6499000251793
 20
136.3374322860239
 30
0.0
  0
LINE
  5
7D
330
1F
100
AcDbEntity
  8
0
  6
Continuous
 62
     7
370
    15
100
AcDbLine
 10
108.6498999984
 20
136.3374330251
 30
0.0
 11
118.3079674855
 21
136.3374330251
 31
0.0
  0
LINE
  5
7E
330
1F
100
AcDbEntity
  8
0
  6
Continuous
 62
     7
370
    15
100
AcDbLine
 10
118.3079674855
 20
86.3005146532
 30
0.0
 11
118.3079674855
 21
136.3374330251
 31
0.0
  0
LINE
  5
7F
330
1F
100
AcDbEntity
  8
0
  6
Continuous
 62
     7
370
    15
100
AcDbLine
 10
118.3079674855
 20
86.3005146532
 30
0.0
 11
116.6499003783
 21
86.3005146532
 31
0.0
  0
SPLINE
  5
80
330
1F
100
AcDbEntity
  8
0
  6
Continuous
 62
     7
370
    15
100
AcDbSpline
210
0.0
220
0.0
230
1.0
 70
     8
 71
     3
 72
    28
 73
    24
 74
     0
 42
0.00000001
 43
0.00000001
 12
1.0
 22
0.0
 32
0.0
 13
1.0
 23
0.0
 33
0.0
 40
0.0
 40
0.0
 40
0.0
 40
0.0
 40
0.1249999999999999
 40
0.1249999999999999
 40
0.1874999999999998
 40
0.1874999999999998
 40
0.2499999999999997
 40
0.2499999999999997
 40
0.3749999999999993
 40
0.3749999999999993
 40
0.4374999999999993
 40
0.4374999999999993
 40
0.4999999999999992
 40
0.4999999999999992
 40
0.6249999999999992
 40
0.6249999999999992
 40
0.7499999999999992
 40
0.7499999999999992
 40
0.8124999999999993
 40
0.8124999999999993
 40
0.8749999999999996
 40
0.8749999999999996
 40
1.0
 40
1.0
 40
1.0
 40
1.0
 10
116.6499000251793
 20
86.30051458977672
 30
0.0
 10
116.1181922676864
 20
86.30051458977672
 30
0.0
 10
115.5959537023761
 20
86.2847298758265
 30
0.0
 10
114.8260832161011
 20
86.2397344617503
 30
0.0
 10
114.5717236439097
 20
86.22117946667457
 30
0.0
 10
114.0676020632112
 20
86.17732674422808
 30
0.0
 10
113.8178792457833
 20
86.15198213727588
 30
0.0
 10
113.0922892943369
 20
86.06858005952577
 30
0.0
 10
112.6339290327553
 20
86.00271450037468
 30
0.0
 10
111.9834310893615
 20
85.8937441598829
 30
0.0
 10
111.771749038569
 20
85.85550452411626
 30
0.0
 10
111.367677549431
 20
85.7777457866969
 30
0.0
 10
111.1751710356101
 20
85.73824482452156
 30
0.0
 10
110.6253360645889
 20
85.61933708215554
 30
0.0
 10
110.29540728628
 20
85.53951940073091
 30
0.0
 10
109.7109360177114
 20
85.38617623893487
 30
0.0
 10
109.4646588796979
 20
85.31484248566561
 30
0.0
 10
109.1648160869998
 20
85.220898978591
 30
0.0
 10
109.0763592299277
 20
85.19170518523106
 30
0.0
 10
108.9229978766225
 20
85.13823861096766
 30
0.0
 10
108.8579096623963
 20
85.11387927669247
 30
0.0
 10
108.7023156464555
 20
85.05028913124774
 30
0.0
 10
108.6499000251793
 20
85.02018619615848
 30
0.0
 10
108.6499000251793
 20
85.00330930316154
 30
0.0
  0
LINE
  5
81
330
1F
100
AcDbEntity
  8
0
  6
Continuous
 62
     7
370
    15
100
AcDbLine
 10
108.6498999984
 20
85.0033089666
 30
0.0
 11
108.6498999984
 21
84.9874317794
 31
0.0
  0
SPLINE
  5
82
330
1F
100
AcDbEntity
  8
0
  6
Continuous
 62
     7
370
    15
100
AcDbSpline
210
0.0
220
0.0
230
1.0
 70
     8
 71
     3
 72
    22
 73
    18
 74
     0
 42
0.00000001
 43
0.00000001
 12
1.0
 22
0.0
 32
0.0
 13
1.0
 23
0.0
 33
0.0
 40
0.0
 40
0.0
 40
0.0
 40
0.0
 40
0.0515773577784208
 40
0.1565264757892313
 40
0.2100197406902932
 40
0.2615951437009166
 40
0.3664424270180118
 40
0.4198227064993583
 40
0.4724528986337964
 40
0.5794489137126942
 40
0.6339397578022523
 40
0.6872670505634269
 40
0.7409741306318132
 40
0.7958968745516029
 40
0.8512481486671734
 40
0.9034470737560792
 40
0.9999999999999999
 40
0.9999999999999999
 40
0.9999999999999999
 40
0.9999999999999999
 10
116.6499003783369
 20
146.9546277223823
 30
0.0
 10
116.4330901042576
 20
146.956024429045
 30
0.0
 10
115.7751163425477
 20
146.9602631411665
 30
0.0
 10
114.9000214691651
 20
146.9997965777592
 30
0.0
 10
114.055195770263
 20
147.0627678323395
 30
0.0
 10
113.2354703722178
 20
147.1407828666365
 30
0.0
 10
112.4596805810776
 20
147.2376669376901
 30
0.0
 10
111.742191439071
 20
147.3459248906865
 30
0.0
 10
111.0629270904686
 20
147.4596431235066
 30
0.0
 10
110.4546120614403
 20
147.5761440457214
 30
0.0
 10
109.93452050677
 20
147.685244563215
 30
0.0
 10
109.5906300933299
 20
147.7612479037246
 30
0.0
 10
109.295676489964
 20
147.8292798063345
 30
0.0
 10
109.0499019829083
 20
147.8879920490494
 30
0.0
 10
108.863999377853
 20
147.9336099894178
 30
0.0
 10
108.6924029255283
 20
147.97656631928
 30
0.0
 10
108.6722737151286
 20
147.9817280170913
 30
0.0
 10
108.6592081018292
 20
147.9850784091947
 30
0.0
  0
LINE
  5
83
330
1F
100
AcDbEntity
  8
0
  6
Continuous
 62
     7
370
    15
100
AcDbLine
 10
118.3079674855
 20
146.9546277224
 30
0.0
 11
116.6499003783
 21
146.9546277224
 31
0.0
  0
LINE
  5
84
330
1F
100
AcDbEntity
  8
0
  6
Continuous
 62
     7
370
    15
100
AcDbLine
 10
118.3079674855
 20
140.9461219012
 30
0.0
 11
118.3079674855
 21
146.9546277224
 31
0.0
  0
LINE
  5
85
330
1F
100
AcDbEntity
  8
0
  6
Continuous
 62
     7
370
    15
100
AcDbLine
 10
115.895520711
 20
140.9461219012
 30
0.0
 11
118.3079674855
 21
140.9461219012
 31
0.0
  0
SPLINE
  5
86
330
1F
100
AcDbEntity
  8
0
  6
Continuous
 62
     7
370
    15
100
AcDbSpline
210
0.0
220
0.0
230
1.0
 70
     8
 71
     3
 72
    20
 73
    16
 74
     0
 42
0.00000001
 43
0.00000001
 12
1.0
 22
0.0
 32
0.0
 13
1.0
 23
0.0
 33
0.0
 40
0.0
 40
0.0
 40
0.0
 40
0.0
 40
0.2499999999999995
 40
0.2499999999999995
 40
0.3749999999999996
 40
0.3749999999999996
 40
0.4999999999999997
 40
0.4999999999999997
 40
0.6249999999999998
 40
0.6249999999999998
 40
0.7499999999999998
 40
0.7499999999999998
 40
0.8749999999999999
 40
0.8749999999999999
 40
1.0
 40
1.0
 40
1.0
 40
1.0
 10
108.6499000251793
 20
136.3374322860239
 30
0.0
 10
108.8982737594674
 20
136.9912947143213
 30
0.0
 10
109.2178438518127
 20
137.5950804963184
 30
0.0
 10
109.8401500850173
 20
138.421919232487
 30
0.0
 10
110.0715743454481
 20
138.68434787044
 30
0.0
 10
110.5927886850978
 20
139.1810105245449
 30
0.0
 10
110.8794091677329
 20
139.4115974035664
 30
0.0
 10
111.4988939090405
 20
139.8281516281491
 30
0.0
 10
111.8331942885275
 20
140.0156494301166
 30
0.0
 10
112.5584547611522
 20
140.347046407753
 30
0.0
 10
112.9403698185427
 20
140.4865503952483
 30
0.0
 10
113.7351579947144
 20
140.7120039027192
 30
0.0
 10
114.1493161889208
 20
140.7986300142629
 30
0.0
 10
115.0148625295022
 20
140.916610803117
 30
0.0
 10
115.452750144514
 20
140.9461219483913
 30
0.0
 10
115.8955203708686
 20
140.9461219483913
 30
0.0
  0
SPLINE
  5
87
330
1F
100
AcDbEntity
  8
0
  6
Continuous
 62
     7
370
    15
100
AcDbSpline
210
0.0
220
0.0
230
1.0
 70
     8
 71
     3
 72
    70
 73
    66
 74
     0
 42
0.00000001
 43
0.00000001
 12
1.0
 22
0.0
 32
0.0
 13
1.0
 23
0.0
 33
0.0
 40
-0.0312500000000001
 40
-0.0312500000000001
 40
0.0
 40
0.0
 40
0.0312499999999999
 40
0.0312499999999999
 40
0.0624999999999998
 40
0.0624999999999998
 40
0.0937499999999997
 40
0.0937499999999997
 40
0.1249999999999996
 40
0.1249999999999996
 40
0.1562499999999994
 40
0.1562499999999994
 40
0.1874999999999993
 40
0.1874999999999993
 40
0.2187499999999992
 40
0.2187499999999992
 40
0.2499999999999991
 40
0.2499999999999991
 40
0.281249999999999
 40
0.281249999999999
 40
0.3124999999999989
 40
0.3124999999999989
 40
0.3437499999999988
 40
0.3437499999999988
 40
0.3749999999999987
 40
0.3749999999999987
 40
0.4062499999999986
 40
0.4062499999999986
 40
0.4374999999999984
 40
0.4374999999999984
 40
0.4687499999999983
 40
0.4687499999999983
 40
0.4999999999999982
 40
0.4999999999999982
 40
0.5312499999999983
 40
0.5312499999999983
 40
0.5624999999999984
 40
0.5624999999999984
 40
0.5937499999999986
 40
0.5937499999999986
 40
0.6249999999999987
 40
0.6249999999999987
 40
0.6562499999999988
 40
0.6562499999999988
 40
0.6874999999999989
 40
0.6874999999999989
 40
0.718749999999999
 40
0.718749999999999
 40
0.7499999999999991
 40
0.7499999999999991
 40
0.7812499999999992
 40
0.7812499999999992
 40
0.8124999999999993
 40
0.8124999999999993
 40
0.8437499999999994
 40
0.8437499999999994
 40
0.8749999999999996
 40
0.8749999999999996
 40
0.9062499999999997
 40
0.9062499999999997
 40
0.9374999999999998
 40
0.9374999999999998
 40
0.9687499999999999
 40
0.9687499999999999
 40
1.0
 40
1.0
 40
1.03125
 40
1.03125
 10
111.9644453638395
 20
127.1083391720072
 30
0.0
 10
111.4353546865192
 20
127.1083391720072
 30
0.0
 10
111.1752840191421
 20
127.1330164667924
 30
0.0
 10
110.6637093393067
 20
127.2294881398343
 30
0.0
 10
110.4095340555665
 20
127.3024690558144
 30
0.0
 10
109.9252634255048
 20
127.492209658753
 30
0.0
 10
109.6956223336236
 20
127.6080703171468
 30
0.0
 10
109.2610179853901
 20
127.8806881631045
 30
0.0
 10
109.0554522087435
 20
128.0387272451582
 30
0.0
 10
108.6868950681483
 20
128.3822700961289
 30
0.0
 10
108.5214140854128
 20
128.5690325402306
 30
0.0
 10
108.2289895759777
 20
128.9725757146274
 30
0.0
 10
108.1048885993512
 20
129.1860727110565
 30
0.0
 10
107.9053094026015
 20
129.625456024979
 30
0.0
 10
107.8283758167432
 20
129.8545960121247
 30
0.0
 10
107.7255187582228
 20
130.3205701348847
 30
0.0
 10
107.7000458487637
 20
130.5534525805608
 30
0.0
 10
107.6997554381959
 20
131.0188501156406
 30
0.0
 10
107.7257800719717
 20
131.253725873035
 30
0.0
 10
107.8279283564637
 20
131.7052190202812
 30
0.0
 10
107.9035048040468
 20
131.9232654956926
 30
0.0
 10
108.1040023351918
 20
132.3443600207304
 30
0.0
 10
108.2291311767001
 20
132.5462814052487
 30
0.0
 10
108.5184899777217
 20
132.9183108877677
 30
0.0
 10
108.6839009647772
 20
133.090939191348
 30
0.0
 10
109.056891522925
 20
133.408257195894
 30
0.0
 10
109.2586245560141
 20
133.5480441293956
 30
0.0
 10
109.691483806842
 20
133.7922203829475
 30
0.0
 10
109.9254023397314
 20
133.8974498939889
 30
0.0
 10
110.409586074874
 20
134.0656070403641
 30
0.0
 10
110.6589017008295
 20
134.1288579309579
 30
0.0
 10
111.1719342252572
 20
134.2144371400605
 30
0.0
 10
111.4372280481619
 20
134.2363093049829
 30
0.0
 10
111.9595626680316
 20
134.2364729546269
 30
0.0
 10
112.2193163305133
 20
134.2154712625309
 30
0.0
 10
112.7359281461586
 20
134.1300689074532
 30
0.0
 10
112.9882941866588
 20
134.0660627241663
 30
0.0
 10
113.4698193081917
 20
133.8992482041251
 30
0.0
 10
113.7026700403052
 20
133.7951150407259
 30
0.0
 10
114.139759888744
 20
133.549128388231
 30
0.0
 10
114.3410808774012
 20
133.4093785572821
 30
0.0
 10
114.7101669027011
 20
133.0962404875575
 30
0.0
 10
114.8791516537528
 20
132.9207843282874
 30
0.0
 10
115.169607710412
 20
132.5479440641872
 30
0.0
 10
115.2926795217741
 20
132.3498222540763
 30
0.0
 10
115.4940157631961
 20
131.9291109113426
 30
0.0
 10
115.5712283091384
 20
131.7071208906751
 30
0.0
 10
115.6734318520384
 20
131.2572559509667
 30
0.0
 10
115.6996602034908
 20
131.0270005378499
 30
0.0
 10
115.7001366028079
 20
130.5556845953009
 30
0.0
 10
115.6743941903099
 20
130.3224471795867
 30
0.0
 10
115.573083413946
 20
129.8607706400887
 30
0.0
 10
115.4962507745551
 20
129.6298732529765
 30
0.0
 10
115.2958469353399
 20
129.1875972391849
 30
0.0
 10
115.1731754370479
 20
128.976534807899
 30
0.0
 10
114.8832281478836
 20
128.5750362971663
 30
0.0
 10
114.7146571685184
 20
128.3841297750904
 30
0.0
 10
114.3463875744052
 20
128.0404044430933
 30
0.0
 10
114.1453257171349
 20
127.8852672568792
 30
0.0
 10
113.70829479855
 20
127.6101898967995
 30
0.0
 10
113.4761465854204
 20
127.4930736673775
 30
0.0
 10
112.9951363039215
 20
127.3041471823129
 30
0.0
 10
112.7430362210911
 20
127.2310722119186
 30
0.0
 10
112.2259667348321
 20
127.1330201527841
 30
0.0
 10
111.9644453638395
 20
127.1083391720072
 30
0.0
 10
111.4353546865192
 20
127.1083391720072
 30
0.0
  0
SPLINE
  5
88
330
1F
100
AcDbEntity
  8
0
  6
Continuous
 62
     7
370
    15
100
AcDbSpline
210
0.0
220
0.0
230
1.0
 70
     8
 71
     3
 72
    70
 73
    66
 74
     0
 42
0.00000001
 43
0.00000001
 12
1.0
 22
0.0
 32
0.0
 13
1.0
 23
0.0
 33
0.0
 40
-0.0312500000000001
 40
-0.0312500000000001
 40
0.0
 40
0.0
 40
0.0312500000000001
 40
0.0312500000000001
 40
0.0625000000000002
 40
0.0625000000000002
 40
0.0937500000000003
 40
0.0937500000000003
 40
0.1250000000000004
 40
0.1250000000000004
 40
0.1562500000000005
 40
0.1562500000000005
 40
0.1875000000000006
 40
0.1875000000000006
 40
0.2187500000000007
 40
0.2187500000000007
 40
0.2500000000000008
 40
0.2500000000000008
 40
0.2812500000000007
 40
0.2812500000000007
 40
0.3125000000000006
 40
0.3125000000000006
 40
0.3437500000000006
 40
0.3437500000000006
 40
0.3750000000000005
 40
0.3750000000000005
 40
0.4062500000000004
 40
0.4062500000000004
 40
0.4375000000000003
 40
0.4375000000000003
 40
0.4687500000000003
 40
0.4687500000000003
 40
0.5000000000000002
 40
0.5000000000000002
 40
0.5312500000000001
 40
0.5312500000000001
 40
0.5625
 40
0.5625
 40
0.5937499999999999
 40
0.5937499999999999
 40
0.6249999999999997
 40
0.6249999999999997
 40
0.6562499999999996
 40
0.6562499999999996
 40
0.6874999999999994
 40
0.6874999999999994
 40
0.7187499999999993
 40
0.7187499999999993
 40
0.7499999999999992
 40
0.7499999999999992
 40
0.7812499999999993
 40
0.7812499999999993
 40
0.8124999999999994
 40
0.8124999999999994
 40
0.8437499999999996
 40
0.8437499999999996
 40
0.8749999999999996
 40
0.8749999999999996
 40
0.9062499999999997
 40
0.9062499999999997
 40
0.9374999999999998
 40
0.9374999999999998
 40
0.9687499999999999
 40
0.9687499999999999
 40
1.0
 40
1.0
 40
1.03125
 40
1.03125
 10
111.9644453638395
 20
141.5463956808031
 30
0.0
 10
111.4353546865192
 20
141.5463956808031
 30
0.0
 10
111.1752840191421
 20
141.5622961212179
 30
0.0
 10
110.6637093393067
 20
141.6242404713921
 30
0.0
 10
110.4095340555665
 20
141.6710427054834
 30
0.0
 10
109.9252634255048
 20
141.7920196889385
 30
0.0
 10
109.6956223336236
 20
141.8656220167453
 30
0.0
 10
109.2610179853901
 20
142.0374462877235
 30
0.0
 10
109.0554522087435
 20
142.1364497106509
 30
0.0
 10
108.6868950681483
 20
142.3495461245637
 30
0.0
 10
108.5214140854128
 20
142.4644458406934
 30
0.0
 10
108.2289895759777
 20
142.7098127393837
 30
0.0
 10
108.1048885993512
 20
142.8382526398539
 30
0.0
 10
107.9053094026015
 20
143.0991447879399
 30
0.0
 10
107.8283758167432
 20
143.2335259592793
 30
0.0
 10
107.7255187582228
 20
143.5028459103856
 30
0.0
 10
107.7000458487637
 20
143.6355271746038
 30
0.0
 10
107.6997554381959
 20
143.8967136487348
 30
0.0
 10
107.7257800719717
 20
144.0264786868995
 30
0.0
 10
107.8279283564637
 20
144.2720613211722
 30
0.0
 10
107.9035048040468
 20
144.3887228584811
 30
0.0
 10
108.1040023351918
 20
144.6106280486356
 30
0.0
 10
108.2291311767001
 20
144.7152393025586
 30
0.0
 10
108.5184899777217
 20
144.9052857141667
 30
0.0
 10
108.6839009647772
 20
144.9920453856164
 30
0.0
 10
109.056891522925
 20
145.1495497613679
 30
0.0
 10
109.2586245560141
 20
145.2178750261552
 30
0.0
 10
109.691483806842
 20
145.3361047497743
 30
0.0
 10
109.9254023397314
 20
145.3863996658782
 30
0.0
 10
110.409586074874
 20
145.4662652027678
 30
0.0
 10
110.6589017008295
 20
145.4960063305674
 30
0.0
 10
111.1719342252572
 20
145.5361590720757
 30
0.0
 10
111.4372280481618
 20
145.5463573414855
 30
0.0
 10
111.9595626680316
 20
145.5464337998702
 30
0.0
 10
112.2193163305133
 20
145.5366427882612
 30
0.0
 10
112.7359281461586
 20
145.4965759495224
 30
0.0
 10
112.9882941866588
 20
145.4664787826656
 30
0.0
 10
113.4698193081917
 20
145.3872565728354
 30
0.0
 10
113.7026700403052
 20
145.337499093372
 30
0.0
 10
114.139759888744
 20
145.2184071509216
 30
0.0
 10
114.3410808774012
 20
145.1500918893744
 30
0.0
 10
114.7101669027011
 20
144.9946909224408
 30
0.0
 10
114.8791516537528
 20
144.9065385803739
 30
0.0
 10
115.169607710412
 20
144.7160991912576
 30
0.0
 10
115.2926795217741
 20
144.6134746135585
 30
0.0
 10
115.4940157631961
 20
144.3918342669504
 30
0.0
 10
115.5712283091384
 20
144.2730801914029
 30
0.0
 10
115.6734318520384
 20
144.0284142524852
 30
0.0
 10
115.6996602034908
 20
143.9012575270367
 30
0.0
 10
115.7001366028079
 20
143.6368093811811
 30
0.0
 10
115.6743941903099
 20
143.503908700924
 30
0.0
 10
115.573083413946
 20
143.2371164274419
 30
0.0
 10
115.4962507745551
 20
143.1017525259733
 30
0.0
 10
115.2958469353399
 20
142.8391727306708
 30
0.0
 10
115.1731754370479
 20
142.712197570917
 30
0.0
 10
114.8832281478836
 20
142.4681181848346
 30
0.0
 10
114.7146571685184
 20
142.3506930600807
 30
0.0
 10
114.3463875744052
 20
142.1374965991323
 30
0.0
 10
114.1453257171349
 20
142.0403224807074
 30
0.0
 10
113.70829479855
 20
141.8669675934932
 30
0.0
 10
113.4761465854204
 20
141.7925680418365
 30
0.0
 10
112.9951363039215
 20
141.6721151623319
 30
0.0
 10
112.7430362210911
 20
141.6252567870659
 30
0.0
 10
112.2259667348321
 20
141.5622992900822
 30
0.0
 10
111.9644453638395
 20
141.5463956808031
 30
0.0
 10
111.4353546865192
 20
141.5463956808031
 30
0.0
  0
LINE
  5
89
330
1F
100
AcDbEntity
  8
0
  6
Continuous
 62
     7
370
    15
100
AcDbLine
 10
103.6999000252
 20
85.2874331324
 30
0.0
 11
103.6999000252
 21
147.6874314396
 31
0.0
  0
SPLINE
  5
8A
330
1F
100
AcDbEntity
  8
0
  6
Continuous
 62
     7
370
    15
100
AcDbSpline
210
0.0
220
0.0
230
1.0
 70
     8
 71
     3
 72
     8
 73
     4
 74
     0
 42
0.00000001
 43
0.00000001
 12
1.0
 22
0.0
 32
0.0
 13
1.0
 23
0.0
 33
0.0
 40
0.0
 40
0.0
 40
0.0
 40
0.0
 40
1.0
 40
1.0
 40
1.0
 40
1.0
 10
125.0918328566684
 20
86.30051458977672
 30
0.0
 10
124.5963531960026
 20
87.19604067771009
 30
0.0
 10
124.1022391479605
 20
88.09232509276234
 30
0.0
 10
123.6099000251793
 20
88.98959512696904
 30
0.0
  0
LINE
  5
8B
330
1F
100
AcDbEntity
  8
0
  6
Continuous
 62
     7
370
    15
100
AcDbLine
 10
123.6099002898
 20
88.9895949661
 30
0.0
 11
123.6099002898
 21
136.3374330251
 31
0.0
  0
SPLINE
  5
8C
330
1F
100
AcDbEntity
  8
0
  6
Continuous
 62
     7
370
    15
100
AcDbSpline
210
0.0
220
0.0
230
1.0
 70
    24
 71
     3
 72
     8
 73
     4
 74
     0
 42
0.00000001
 43
0.00000001
 12
1.0
 22
0.0
 32
0.0
 13
1.0
 23
0.0
 33
0.0
 40
0.0
 40
0.0
 40
0.0
 40
0.0
 40
1.0
 40
1.0
 40
1.0
 40
1.0
 10
123.6099000251793
 20
136.3374322860239
 30
0.0
 10
124.0898520195442
 20
136.3374322860239
 30
0.0
 10
124.5851527485178
 20
136.3374322860239
 30
0.0
 10
125.0918328566684
 20
136.3374322860239
 30
0.0
  0
LINE
  5
8D
330
1F
100
AcDbEntity
  8
0
  6
Continuous
 62
     7
370
    15
100
AcDbLine
 10
119.7899000735
 20
88.9895949661
 30
0.0
 11
119.7899000735
 21
136.3374330251
 31
0.0
  0
SPLINE
  5
8E
330
1F
100
AcDbEntity
  8
0
  6
Continuous
 62
     7
370
    15
100
AcDbSpline
210
0.0
220
0.0
230
1.0
 70
     8
 71
     3
 72
     8
 73
     4
 74
     0
 42
0.00000001
 43
0.00000001
 12
1.0
 22
0.0
 32
0.0
 13
1.0
 23
0.0
 33
0.0
 40
0.0
 40
0.0
 40
0.0
 40
0.0
 40
1.0
 40
1.0
 40
1.0
 40
1.0
 10
119.7899000251793
 20
88.98959512696902
 30
0.0
 10
119.2975609023981
 20
88.09232509276232
 30
0.0
 10
118.803446854356
 20
87.19604067771009
 30
0.0
 10
118.3079671936903
 20
86.30051458977672
 30
0.0
  0
SPLINE
  5
8F
330
1F
100
AcDbEntity
  8
0
  6
Continuous
 62
     7
370
    15
100
AcDbSpline
210
0.0
220
0.0
230
1.0
 70
    24
 71
     3
 72
     8
 73
     4
 74
     0
 42
0.00000001
 43
0.00000001
 12
1.0
 22
0.0
 32
0.0
 13
1.0
 23
0.0
 33
0.0
 40
0.0
 40
0.0
 40
0.0
 40
0.0
 40
1.0
 40
1.0
 40
1.0
 40
1.0
 10
118.3079671936902
 20
136.3374322860239
 30
0.0
 10
118.8146473018408
 20
136.3374322860239
 30
0.0
 10
119.3099480308144
 20
136.3374322860239
 30
0.0
 10
119.7899000251793
 20
136.3374322860239
 30
0.0
  0
ARC
  5
90
330
1F
100
AcDbEntity
  8
0
  6
Continuous
 62
     7
370
    15
100
AcDbCircle
 10
111.6972499794
 20
128.3891646107
 30
0.0
 40
4.11213560320906
100
AcDbArc
 50
18.9858196819
 51
159.8575889575
  0
SPLINE
  5
91
330
1F
100
AcDbEntity
  8
0
  6
Continuous
 62
     7
370
    15
100
AcDbSpline
210
0.0
220
0.0
230
1.0
 70
    24
 71
     3
 72
    14
 73
    10
 74
     0
 42
0.00000001
 43
0.00000001
 12
1.0
 22
0.0
 32
0.0
 13
1.0
 23
0.0
 33
0.0
 40
0.0
 40
0.0
 40
0.0
 40
0.0
 40
0.5
 40
0.5
 40
0.75
 40
0.75
 40
0.875
 40
0.875
 40
1.0
 40
1.0
 40
1.0
 40
1.0
 10
123.512225222847
 20
90.0874322860239
 30
0.0
 10
123.4654405177988
 20
90.0874322860239
 30
0.0
 10
123.4033893210192
 20
90.0874322860239
 30
0.0
 10
123.2599976824686
 20
90.08743228602388
 30
0.0
 10
123.2038540289174
 20
90.0874322860239
 30
0.0
 10
123.0909030067813
 20
90.08743228602388
 30
0.0
 10
123.0479022447431
 20
90.0874322860239
 30
0.0
 10
122.9438395344367
 20
90.08743228602388
 30
0.0
 10
122.8785072960797
 20
90.08743228602388
 30
0.0
 10
122.8099000251793
 20
90.0874322860239
 30
0.0
  0
SPLINE
  5
92
330
1F
100
AcDbEntity
  8
0
  6
Continuous
 62
     7
370
    15
100
AcDbSpline
210
0.0
220
0.0
230
1.0
 70
    24
 71
     3
 72
    12
 73
     8
 74
     0
 42
0.00000001
 43
0.00000001
 12
1.0
 22
0.0
 32
0.0
 13
1.0
 23
0.0
 33
0.0
 40
0.0
 40
0.0
 40
0.0
 40
0.0
 40
0.5000000000000074
 40
0.5000000000000074
 40
0.7500000000000037
 40
0.7500000000000037
 40
1.0
 40
1.0
 40
1.0
 40
1.0
 10
123.2156024934884
 20
142.8874322860239
 30
0.0
 10
123.1725169438774
 20
142.8874322860239
 30
0.0
 10
123.1233647421281
 20
142.8874322860239
 30
0.0
 10
123.0268921478402
 20
142.8874322860239
 30
0.0
 10
122.9907905627056
 20
142.8874322860239
 30
0.0
 10
122.9076848048443
 20
142.8874322860239
 30
0.0
 10
122.8596882078781
 20
142.8874322860239
 30
0.0
 10
122.8099000251793
 20
142.8874322860239
 30
0.0
  0
SPLINE
  5
93
330
1F
100
AcDbEntity
  8
0
  6
Continuous
 62
     7
370
    15
100
AcDbSpline
210
0.0
220
0.0
230
1.0
 70
     8
 71
     3
 72
    10
 73
     6
 74
     0
 42
0.00000001
 43
0.00000001
 12
1.0
 22
0.0
 32
0.0
 13
1.0
 23
0.0
 33
0.0
 40
0.0
 40
0.0
 40
0.0
 40
0.0
 40
0.5
 40
0.5
 40
1.0
 40
1.0
 40
1.0
 40
1.0
 10
123.6099000251793
 20
143.6070861370597
 30
0.0
 10
123.6099000251793
 20
143.4633160792417
 30
0.0
 10
123.5738509664604
 20
143.3208967167465
 30
0.0
 10
123.4383421056864
 20
143.0710024233893
 30
0.0
 10
123.3384661125903
 20
142.9629720871411
 30
0.0
 10
123.2156024934883
 20
142.8874322860239
 30
0.0
  0
SPLINE
  5
94
330
1F
100
AcDbEntity
  8
0
  6
Continuous
 62
     7
370
    15
100
AcDbSpline
210
0.0
220
0.0
230
1.0
 70
     8
 71
     3
 72
    10
 73
     6
 74
     0
 42
0.00000001
 43
0.00000001
 12
1.0
 22
0.0
 32
0.0
 13
1.0
 23
0.0
 33
0.0
 40
0.0
 40
0.0
 40
0.0
 40
0.0
 40
0.5
 40
0.5
 40
1.0
 40
1.0
 40
1.0
 40
1.0
 10
123.5837524020192
 20
136.3374322860239
 30
0.0
 10
123.5924420449309
 20
136.384311135342
 30
0.0
 10
123.5989811096814
 20
136.4317336007434
 30
0.0
 10
123.6077397440744
 20
136.5276703993302
 30
0.0
 10
123.6099000251793
 20
136.5755856873407
 30
0.0
 10
123.6099000251793
 20
136.6232989174853
 30
0.0
  0
SPLINE
  5
95
330
1F
100
AcDbEntity
  8
0
  6
Continuous
 62
     7
370
    15
100
AcDbSpline
210
0.0
220
0.0
230
1.0
 70
     8
 71
     3
 72
    10
 73
     6
 74
     0
 42
0.00000001
 43
0.00000001
 12
1.0
 22
0.0
 32
0.0
 13
1.0
 23
0.0
 33
0.0
 40
0.0
 40
0.0
 40
0.0
 40
0.0
 40
0.5
 40
0.5
 40
1.0
 40
1.0
 40
1.0
 40
1.0
 10
120.1841975568703
 20
142.8874322860239
 30
0.0
 10
120.0626572932018
 20
142.9621584532357
 30
0.0
 10
119.9613229328528
 20
143.0711034691524
 30
0.0
 10
119.8256839899644
 20
143.321533949914
 30
0.0
 10
119.7899000251793
 20
143.463953312013
 30
0.0
 10
119.7899000251793
 20
143.6070861370597
 30
0.0
  0
SPLINE
  5
96
330
1F
100
AcDbEntity
  8
0
  6
Continuous
 62
     7
370
    15
100
AcDbSpline
210
0.0
220
0.0
230
1.0
 70
    24
 71
     3
 72
    12
 73
     8
 74
     0
 42
0.00000001
 43
0.00000001
 12
1.0
 22
0.0
 32
0.0
 13
1.0
 23
0.0
 33
0.0
 40
0.0
 40
0.0
 40
0.0
 40
0.0
 40
0.2499999999999971
 40
0.2499999999999971
 40
0.4999999999999942
 40
0.4999999999999942
 40
1.0
 40
1.0
 40
1.0
 40
1.0
 10
120.5899000251793
 20
142.8874322860239
 30
0.0
 10
120.5400233428619
 20
142.8874322860239
 30
0.0
 10
120.4920201494583
 20
142.8874322860239
 30
0.0
 10
120.4089720467463
 20
142.8874322860239
 30
0.0
 10
120.3728424672785
 20
142.8874322860239
 30
0.0
 10
120.2769304363342
 20
142.8874322860239
 30
0.0
 10
120.2271717683655
 20
142.8874322860239
 30
0.0
 10
120.1841975568703
 20
142.8874322860239
 30
0.0
  0
SPLINE
  5
97
330
1F
100
AcDbEntity
  8
0
  6
Continuous
 62
     7
370
    15
100
AcDbSpline
210
0.0
220
0.0
230
1.0
 70
    24
 71
     3
 72
    14
 73
    10
 74
     0
 42
0.00000001
 43
0.00000001
 12
1.0
 22
0.0
 32
0.0
 13
1.0
 23
0.0
 33
0.0
 40
0.0
 40
0.0
 40
0.0
 40
0.0
 40
0.1250000000000017
 40
0.1250000000000017
 40
0.2500000000000034
 40
0.2500000000000034
 40
0.5000000000000032
 40
0.5000000000000032
 40
1.0
 40
1.0
 40
1.0
 40
1.0
 10
120.5899000251793
 20
90.0874322860239
 30
0.0
 10
120.5214621772929
 20
90.0874322860239
 30
0.0
 10
120.4559121385278
 20
90.0874322860239
 30
0.0
 10
120.3514854991199
 20
90.0874322860239
 30
0.0
 10
120.3089408893585
 20
90.0874322860239
 30
0.0
 10
120.1963314288182
 20
90.0874322860239
 30
0.0
 10
120.1407923817987
 20
90.08743228602388
 30
0.0
 10
119.9981806863349
 20
90.0874322860239
 30
0.0
 10
119.9347753313391
 20
90.0874322860239
 30
0.0
 10
119.8875748275116
 20
90.0874322860239
 30
0.0
  0
SPLINE
  5
98
330
1F
100
AcDbEntity
  8
0
  6
Continuous
 62
     7
370
    15
100
AcDbSpline
210
0.0
220
0.0
230
1.0
 70
     8
 71
     3
 72
    10
 73
     6
 74
     0
 42
0.00000001
 43
0.00000001
 12
1.0
 22
0.0
 32
0.0
 13
1.0
 23
0.0
 33
0.0
 40
0.0
 40
0.0
 40
0.0
 40
0.0
 40
0.5
 40
0.5
 40
1.0
 40
1.0
 40
1.0
 40
1.0
 10
119.7899000251793
 20
136.6232989174853
 30
0.0
 10
119.7899000251793
 20
136.575527409492
 30
0.0
 10
119.7920612687765
 20
136.5278176874303
 30
0.0
 10
119.8007326426366
 20
136.432522569882
 30
0.0
 10
119.8072618255926
 20
136.3848300059154
 30
0.0
 10
119.8160476483395
 20
136.3374322860239
 30
0.0
  0
LINE
  5
99
330
1F
100
AcDbEntity
  8
0
  6
Continuous
 62
     7
370
    15
100
AcDbLine
 10
122.8098997862
 20
142.887432143
 30
0.0
 11
120.5899005771
 21
142.887432143
 31
0.0
  0
LINE
  5
9A
330
1F
100
AcDbEntity
  8
0
  6
Continuous
 62
     7
370
    15
100
AcDbLine
 10
122.8098997862
 20
90.0874324291
 30
0.0
 11
120.5899005771
 21
90.0874324291
 31
0.0
  0
LINE
  5
9B
330
1F
100
AcDbEntity
  8
0
  6
Continuous
 62
     7
370
    15
100
AcDbLine
 10
81.8998998046
 20
93.2589862643
 30
0.0
 11
81.8998998046
 21
94.523694381
 31
0.0
  0
SPLINE
  5
9C
330
1F
100
AcDbEntity
  8
0
  6
Continuous
 62
     7
370
    15
100
AcDbSpline
210
0.0
220
0.0
230
1.0
 70
     8
 71
     3
 72
    14
 73
    10
 74
     0
 42
0.00000001
 43
0.00000001
 12
1.0
 22
0.0
 32
0.0
 13
1.0
 23
0.0
 33
0.0
 40
0.0
 40
0.0
 40
0.0
 40
0.0
 40
0.25
 40
0.25
 40
0.5
 40
0.5
 40
0.75
 40
0.75
 40
1.0
 40
1.0
 40
1.0
 40
1.0
 10
81.12161290726361
 20
95.65428096246394
 30
0.0
 10
81.1782395824657
 20
95.54658350862708
 30
0.0
 10
81.2727622427554
 20
95.44379392690776
 30
0.0
 10
81.45580721831764
 20
95.2454366146876
 30
0.0
 10
81.54743379527238
 20
95.14937710600937
 30
0.0
 10
81.70628711296557
 20
94.96184806330011
 30
0.0
 10
81.77417772058726
 20
94.87043909051657
 30
0.0
 10
81.87109474629484
 20
94.6920628696064
 30
0.0
 10
81.89990002517992
 20
94.60484096336023
 30
0.0
 10
81.8999000251799
 20
94.52369475482597
 30
0.0
  0
SPLINE
  5
9D
330
1F
100
AcDbEntity
  8
0
  6
Continuous
 62
     7
370
    15
100
AcDbSpline
210
0.0
220
0.0
230
1.0
 70
     8
 71
     3
 72
    14
 73
    10
 74
     0
 42
0.00000001
 43
0.00000001
 12
1.0
 22
0.0
 32
0.0
 13
1.0
 23
0.0
 33
0.0
 40
0.0
 40
0.0
 40
0.0
 40
0.0
 40
0.125
 40
0.125
 40
0.25
 40
0.25
 40
0.5
 40
0.5
 40
1.0
 40
1.0
 40
1.0
 40
1.0
 10
80.49990002517933
 20
96.10096282474326
 30
0.0
 10
80.5484444338365
 20
96.10671113802354
 30
0.0
 10
80.60135978862141
 20
96.1036102493673
 30
0.0
 10
80.69665513360444
 20
96.08141540520498
 30
0.0
 10
80.7369061308894
 20
96.06418317810912
 30
0.0
 10
80.84117614440235
 20
96.00785526165706
 30
0.0
 10
80.89149811955569
 20
95.96366891571125
 30
0.0
 10
81.01918106708106
 20
95.83266101686064
 30
0.0
 10
81.07526651414334
 20
95.74242649663034
 30
0.0
 10
81.12161290726507
 20
95.65428096246447
 30
0.0
  0
SPLINE
  5
9E
330
1F
100
AcDbEntity
  8
0
  6
Continuous
 62
     7
370
    15
100
AcDbSpline
210
0.0
220
0.0
230
1.0
 70
     8
 71
     3
 72
     8
 73
     4
 74
     0
 42
0.00000001
 43
0.00000001
 12
1.0
 22
0.0
 32
0.0
 13
1.0
 23
0.0
 33
0.0
 40
0.0
 40
0.0
 40
0.0
 40
0.0
 40
1.0
 40
1.0
 40
1.0
 40
1.0
 10
78.23137493223307
 20
95.79111753816045
 30
0.0
 10
78.96595195871603
 20
95.90974254922942
 30
0.0
 10
79.7294270281117
 20
96.00972842136571
 30
0.0
 10
80.49990002517933
 20
96.10096282474326
 30
0.0
  0
SPLINE
  5
9F
330
1F
100
AcDbEntity
  8
0
  6
Continuous
 62
     7
370
    15
100
AcDbSpline
210
0.0
220
0.0
230
1.0
 70
     8
 71
     3
 72
    14
 73
    10
 74
     0
 42
0.00000001
 43
0.00000001
 12
1.0
 22
0.0
 32
0.0
 13
1.0
 23
0.0
 33
0.0
 40
0.0
 40
0.0
 40
0.0
 40
0.0
 40
0.5000000000000002
 40
0.5000000000000002
 40
0.7500000000000002
 40
0.7500000000000002
 40
0.8750000000000001
 40
0.8750000000000001
 40
1.0
 40
1.0
 40
1.0
 40
1.0
 10
72.94990002517933
 20
95.61749452062881
 30
0.0
 10
73.84204615573289
 20
95.61677229442816
 30
0.0
 10
74.73202259152647
 20
95.62135850088563
 30
0.0
 10
76.05861775860207
 20
95.64908350527716
 30
0.0
 10
76.4994646871008
 20
95.66169004290134
 30
0.0
 10
77.15590492452321
 20
95.69270619090878
 30
0.0
 10
77.3739185811151
 20
95.70504936353557
 30
0.0
 10
77.80662743479786
 20
95.73807341869883
 30
0.0
 10
78.02190389996267
 20
95.75729058383727
 30
0.0
 10
78.23137493223307
 20
95.79111753816045
 30
0.0
  0
SPLINE
  5
A0
330
1F
100
AcDbEntity
  8
0
  6
Continuous
 62
     7
370
    15
100
AcDbSpline
210
0.0
220
0.0
230
1.0
 70
     8
 71
     3
 72
     8
 73
     4
 74
     0
 42
0.00000001
 43
0.00000001
 12
1.0
 22
0.0
 32
0.0
 13
1.0
 23
0.0
 33
0.0
 40
0.0000005163856712
 40
0.0000005163856712
 40
0.0000005163856712
 40
0.0000005163856712
 40
0.000026289209185
 40
0.000026289209185
 40
0.000026289209185
 40
0.000026289209185
 10
72.93985509476065
 20
95.62747839373668
 30
0.0
 10
72.94318283297211
 20
95.62414414686386
 30
0.0
 10
72.94653128595141
 20
95.62081618958484
 30
0.0
 10
72.9499000251793
 20
95.6174945206288
 30
0.0
  0
SPLINE
  5
A1
330
1F
100
AcDbEntity
  8
0
  6
Continuous
 62
     7
370
    15
100
AcDbSpline
210
0.0
220
0.0
230
1.0
 70
     8
 71
     3
 72
     8
 73
     4
 74
     0
 42
0.00000001
 43
0.00000001
 12
1.0
 22
0.0
 32
0.0
 13
1.0
 23
0.0
 33
0.0
 40
0.0000005099763573
 40
0.0000005099763573
 40
0.0000005099763573
 40
0.0000005099763573
 40
0.0000262827998699
 40
0.0000262827998699
 40
0.0000262827998699
 40
0.0000262827998699
 10
72.94990002517932
 20
137.357370051419
 30
0.0
 10
72.94653128595158
 20
137.3540483824631
 30
0.0
 10
72.94318283297244
 20
137.3507204251842
 30
0.0
 10
72.93985509476111
 20
137.3473861783116
 30
0.0
  0
SPLINE
  5
A2
330
1F
100
AcDbEntity
  8
0
  6
Continuous
 62
     7
370
    15
100
AcDbSpline
210
0.0
220
0.0
230
1.0
 70
     8
 71
     3
 72
    10
 73
     6
 74
     0
 42
0.00000001
 43
0.00000001
 12
1.0
 22
0.0
 32
0.0
 13
1.0
 23
0.0
 33
0.0
 40
0.0
 40
0.0
 40
0.0
 40
0.0
 40
0.5
 40
0.5
 40
1.0
 40
1.0
 40
1.0
 40
1.0
 10
76.49990002517934
 20
137.3105196778516
 30
0.0
 10
75.91231447808875
 20
137.331585198088
 30
0.0
 10
75.32156808462835
 20
137.3423436839603
 30
0.0
 10
74.1375489193295
 20
137.3557084644959
 30
0.0
 10
73.54413493112403
 20
137.3578511071605
 30
0.0
 10
72.94990002517933
 20
137.357370051419
 30
0.0
  0
SPLINE
  5
A3
330
1F
100
AcDbEntity
  8
0
  6
Continuous
 62
     7
370
    15
100
AcDbSpline
210
0.0
220
0.0
230
1.0
 70
     8
 71
     3
 72
    18
 73
    14
 74
     0
 42
0.00000001
 43
0.00000001
 12
1.0
 22
0.0
 32
0.0
 13
1.0
 23
0.0
 33
0.0
 40
0.0
 40
0.0
 40
0.0
 40
0.0
 40
0.2500000000000008
 40
0.2500000000000008
 40
0.5000000000000009
 40
0.5000000000000009
 40
0.7500000000000009
 40
0.7500000000000009
 40
0.875000000000001
 40
0.875000000000001
 40
0.9375000000000006
 40
0.9375000000000006
 40
1.0
 40
1.0
 40
1.0
 40
1.0
 10
77.89990002517933
 20
138.3315399583869
 30
0.0
 10
77.89990002517935
 20
138.2483330495297
 30
0.0
 10
77.86405092524109
 20
138.1595963942161
 30
0.0
 10
77.73917918920715
 20
137.9774712036559
 30
0.0
 10
77.6487787715593
 20
137.8823411550293
 30
0.0
 10
77.4265361168171
 20
137.6931596459049
 30
0.0
 10
77.29677133037133
 20
137.5982144778102
 30
0.0
 10
77.05613387305984
 20
137.4599357702303
 30
0.0
 10
76.9683665749224
 20
137.4142253369279
 30
0.0
 10
76.81384248771556
 20
137.3564020317064
 30
0.0
 10
76.75723160166082
 20
137.3386872676686
 30
0.0
 10
76.63318757075422
 20
137.3141479644356
 30
0.0
 10
76.56547289573592
 20
137.3081688258974
 30
0.0
 10
76.49990002517933
 20
137.3105196778516
 30
0.0
  0
LINE
  5
A4
330
1F
100
AcDbEntity
  8
0
  6
Continuous
 62
     7
370
    15
100
AcDbLine
 10
77.899899149
 20
138.3315399437
 30
0.0
 11
77.899899149
 21
139.5154781787
 31
0.0
  0
LINE
  5
A5
330
1F
100
AcDbEntity
  8
0
  6
Continuous
 62
     7
370
    15
100
AcDbLine
 10
101.6998999302
 20
92.2670010625
 30
0.0
 11
101.6998999302
 21
140.7078635095
 31
0.0
  0
SPLINE
  5
A6
330
1F
100
AcDbEntity
  8
0
  6
Continuous
 62
     7
370
    15
100
AcDbSpline
210
0.0
220
0.0
230
1.0
 70
     8
 71
     3
 72
    18
 73
    14
 74
     0
 42
0.00000001
 43
0.00000001
 12
1.0
 22
0.0
 32
0.0
 13
1.0
 23
0.0
 33
0.0
 40
0.0
 40
0.0
 40
0.0
 40
0.0
 40
0.001067142096085
 40
0.1270947925777493
 40
0.2524053537361832
 40
0.3766468838452861
 40
0.4391416358858051
 40
0.5008278334298175
 40
0.5624255844801763
 40
0.6253162510714301
 40
0.7499985254815132
 40
0.8752758926324193
 40
1.0
 40
1.0
 40
1.0
 40
1.0
 10
90.47020115112299
 20
92.8300935922859
 30
0.0
 10
90.46928907584027
 20
92.82997842439386
 30
0.0
 10
90.36066247465973
 20
92.81626212606412
 30
0.0
 10
90.74834394670248
 20
92.86724838744576
 30
0.0
 10
91.61429240681203
 20
92.96680542332027
 30
0.0
 10
92.81470020053484
 20
93.03593605293935
 30
0.0
 10
93.87227575039257
 20
93.03988675320608
 30
0.0
 10
94.69941011451583
 20
93.01239988528182
 30
0.0
 10
95.52468175056367
 20
92.95385739646953
 30
0.0
 10
96.57904695767246
 20
92.84033879450982
 30
0.0
 10
97.74088316392587
 20
92.65718463867628
 30
0.0
 10
98.69311788459902
 20
92.45258449001014
 30
0.0
 10
98.81882298730766
 20
92.42329782000103
 30
0.0
 10
98.88153644432658
 20
92.40868689107874
 30
0.0
  0
SPLINE
  5
A7
330
1F
100
AcDbEntity
  8
0
  6
Continuous
 62
     7
370
    15
100
AcDbSpline
210
0.0
220
0.0
230
1.0
 70
     8
 71
     3
 72
    18
 73
    14
 74
     0
 42
0.00000001
 43
0.00000001
 12
1.0
 22
0.0
 32
0.0
 13
1.0
 23
0.0
 33
0.0
 40
0.0
 40
0.0
 40
0.0
 40
0.0
 40
0.1248907819469273
 40
0.2505384063477967
 40
0.3748721756041158
 40
0.4374907331267689
 40
0.4990776026247599
 40
0.5607931145009658
 40
0.6233901196104445
 40
0.7478191009174896
 40
0.8731941046696081
 40
0.9991614615322162
 40
0.9999999999999999
 40
0.9999999999999999
 40
0.9999999999999999
 40
0.9999999999999999
 10
98.88131758352155
 20
140.5661124883888
 30
0.0
 10
98.81757675155384
 20
140.5514510221618
 30
0.0
 10
98.68970881597427
 20
140.5220392407158
 30
0.0
 10
97.73770997938574
 20
140.3170852813582
 30
0.0
 10
96.57716590853312
 20
140.1338240194945
 30
0.0
 10
95.52490213686973
 20
140.0207934651195
 30
0.0
 10
94.70067483785147
 20
139.9625326576468
 30
0.0
 10
93.8730710925268
 20
139.9350855215247
 30
0.0
 10
92.81425376283256
 20
139.9390703153993
 30
0.0
 10
91.61203402320672
 20
140.0081630998953
 30
0.0
 10
90.74685325220783
 20
140.1077718370824
 30
0.0
 10
90.36070450457015
 20
140.1586294427257
 30
0.0
 10
90.46878237693376
 20
140.1449286353023
 30
0.0
 10
90.46949707125658
 20
140.1448380349872
 30
0.0
  0
SPLINE
  5
A8
330
1F
100
AcDbEntity
  8
0
  6
Continuous
 62
     7
370
    15
100
AcDbSpline
210
0.0
220
0.0
230
1.0
 70
     8
 71
     3
 72
     8
 73
     4
 74
     0
 42
0.00000001
 43
0.00000001
 12
1.0
 22
0.0
 32
0.0
 13
1.0
 23
0.0
 33
0.0
 40
0.0
 40
0.0
 40
0.0
 40
0.0
 40
1.0
 40
1.0
 40
1.0
 40
1.0
 10
71.79990002517866
 20
96.7967545395464
 30
0.0
 10
71.79990002517864
 20
96.78535770555163
 30
0.0
 10
71.80146904302684
 20
96.77577229012314
 30
0.0
 10
71.80420650697792
 20
96.768295209771
 30
0.0
  0
SPLINE
  5
A9
330
1F
100
AcDbEntity
  8
0
  6
Continuous
 62
     7
370
    15
100
AcDbSpline
210
0.0
220
0.0
230
1.0
 70
     8
 71
     3
 72
    12
 73
     8
 74
     0
 42
0.00000001
 43
0.00000001
 12
1.0
 22
0.0
 32
0.0
 13
1.0
 23
0.0
 33
0.0
 40
0.0
 40
0.0
 40
0.0
 40
0.0
 40
0.0839988210086903
 40
0.3910879480274829
 40
0.7012513005448348
 40
0.8502945962695989
 40
1.0
 40
1.0
 40
1.0
 40
1.0
 10
71.81245815162892
 20
96.75687552976588
 30
0.0
 10
71.81347829505205
 20
96.75526972490157
 30
0.0
 10
71.81822795455032
 20
96.74779329937829
 30
0.0
 10
71.8320255305314
 20
96.74961512307121
 30
0.0
 10
71.84651728985584
 20
96.7644909263014
 30
0.0
 10
71.85682423731208
 20
96.78798018362446
 30
0.0
 10
71.86064745876821
 20
96.80456759478861
 30
0.0
 10
71.86256330614323
 20
96.8128796814678
 30
0.0
  0
LINE
  5
AA
330
1F
100
AcDbEntity
  8
0
  6
Continuous
 62
     7
370
    15
100
AcDbLine
 10
71.799900198
 20
96.7967547624
 30
0.0
 11
71.799900198
 21
136.1781098096
 31
0.0
  0
SPLINE
  5
AB
330
1F
100
AcDbEntity
  8
0
  6
Continuous
 62
     7
370
    15
100
AcDbSpline
210
0.0
220
0.0
230
1.0
 70
     8
 71
     3
 72
    10
 73
     6
 74
     0
 42
0.00000001
 43
0.00000001
 12
1.0
 22
0.0
 32
0.0
 13
1.0
 23
0.0
 33
0.0
 40
0.0
 40
0.0
 40
0.0
 40
0.0
 40
0.5
 40
0.5
 40
1.0
 40
1.0
 40
1.0
 40
1.0
 10
71.86256339990274
 20
136.1619848308046
 30
0.0
 10
71.85365911079397
 20
136.2077263500178
 30
0.0
 10
71.83714373060099
 20
136.2249171894868
 30
0.0
 10
71.81003578453937
 20
136.2245939125511
 30
0.0
 10
71.79990002517933
 20
136.2067163702546
 30
0.0
 10
71.79990002517933
 20
136.178110032502
 30
0.0
  0
SPLINE
  5
AC
330
1F
100
AcDbEntity
  8
0
  6
Continuous
 62
     7
370
    15
100
AcDbSpline
210
0.0
220
0.0
230
1.0
 70
     8
 71
     3
 72
    26
 73
    22
 74
     0
 42
0.00000001
 43
0.00000001
 12
1.0
 22
0.0
 32
0.0
 13
1.0
 23
0.0
 33
0.0
 40
0.0
 40
0.0
 40
0.0
 40
0.0
 40
0.2500000000000165
 40
0.2500000000000165
 40
0.3750000000000256
 40
0.3750000000000256
 40
0.4375000000000291
 40
0.4375000000000291
 40
0.4687500000000291
 40
0.4687500000000291
 40
0.5000000000000292
 40
0.5000000000000292
 40
0.5312500000000293
 40
0.5312500000000293
 40
0.5625000000000293
 40
0.5625000000000293
 40
0.625000000000026
 40
0.625000000000026
 40
0.7500000000000173
 40
0.7500000000000173
 40
1.0
 40
1.0
 40
1.0
 40
1.0
 10
72.62405367128385
 20
136.8775516196217
 30
0.0
 10
72.58545314841537
 20
136.7597769232663
 30
0.0
 10
72.53915614586111
 20
136.6353872371044
 30
0.0
 10
72.4452167974272
 20
136.4301679047509
 30
0.0
 10
72.40990533051372
 20
136.3585950383044
 30
0.0
 10
72.34372535476804
 20
136.242641805704
 30
0.0
 10
72.31918698809983
 20
136.2020572708937
 30
0.0
 10
72.27581424254603
 20
136.137915589022
 30
0.0
 10
72.26030584112084
 20
136.1160491637369
 30
0.0
 10
72.2252631965338
 20
136.0704548953938
 30
0.0
 10
72.20571290581404
 20
136.0467846044263
 30
0.0
 10
72.16378562544342
 20
136.0021680450864
 30
0.0
 10
72.14113351521179
 20
135.9812880325685
 30
0.0
 10
72.10015980112516
 20
135.9504146188177
 30
0.0
 10
72.08256050122974
 20
135.9405757489853
 30
0.0
 10
72.0379335153736
 20
135.9215861332891
 30
0.0
 10
72.01737429272026
 20
135.9212618086356
 30
0.0
 10
71.96624885322359
 20
135.9304852495118
 30
0.0
 10
71.94533744023504
 20
135.9517321457288
 30
0.0
 10
71.89388753267411
 20
136.0257010245596
 30
0.0
 10
71.87622223336956
 20
136.0918191178743
 30
0.0
 10
71.86256339990274
 20
136.1619848308046
 30
0.0
  0
SPLINE
  5
AD
330
1F
100
AcDbEntity
  8
0
  6
Continuous
 62
     7
370
    15
100
AcDbSpline
210
0.0
220
0.0
230
1.0
 70
     8
 71
     3
 72
    10
 73
     6
 74
     0
 42
0.00000001
 43
0.00000001
 12
1.0
 22
0.0
 32
0.0
 13
1.0
 23
0.0
 33
0.0
 40
0.0
 40
0.0
 40
0.0
 40
0.0
 40
0.5
 40
0.5
 40
1.0
 40
1.0
 40
1.0
 40
1.0
 10
72.93985509476114
 20
137.3473861783116
 30
0.0
 10
72.87229583984289
 20
137.2796947855018
 30
0.0
 10
72.8086591845064
 20
137.2049876207481
 30
0.0
 10
72.69843842993453
 20
137.0460214883215
 30
0.0
 10
72.65162213671191
 20
136.9616662223135
 30
0.0
 10
72.62405367128383
 20
136.8775516196217
 30
0.0
  0
SPLINE
  5
AE
330
1F
100
AcDbEntity
  8
0
  6
Continuous
 62
     7
370
    15
100
AcDbSpline
210
0.0
220
0.0
230
1.0
 70
     8
 71
     3
 72
    10
 73
     6
 74
     0
 42
0.00000001
 43
0.00000001
 12
1.0
 22
0.0
 32
0.0
 13
1.0
 23
0.0
 33
0.0
 40
0.0
 40
0.0
 40
0.0
 40
0.0
 40
0.5
 40
0.5
 40
1.0
 40
1.0
 40
1.0
 40
1.0
 10
72.62405367128389
 20
96.09731295242592
 30
0.0
 10
72.65153108603708
 20
96.01347615596033
 30
0.0
 10
72.69823971632475
 20
95.92916566837349
 30
0.0
 10
72.8085181790667
 20
95.77004443789063
 30
0.0
 10
72.87240571767833
 20
95.69505969380256
 30
0.0
 10
72.93985509476067
 20
95.62747839373668
 30
0.0
  0
SPLINE
  5
AF
330
1F
100
AcDbEntity
  8
0
  6
Continuous
 62
     7
370
    15
100
AcDbSpline
210
0.0
220
0.0
230
1.0
 70
     8
 71
     3
 72
    24
 73
    20
 74
     0
 42
0.00000001
 43
0.00000001
 12
1.0
 22
0.0
 32
0.0
 13
1.0
 23
0.0
 33
0.0
 40
0.0
 40
0.0
 40
0.0
 40
0.0
 40
0.2499999999999952
 40
0.2499999999999952
 40
0.3749999999999937
 40
0.3749999999999937
 40
0.4374999999999931
 40
0.4374999999999931
 40
0.468749999999992
 40
0.468749999999992
 40
0.4999999999999909
 40
0.4999999999999909
 40
0.5624999999999933
 40
0.5624999999999933
 40
0.6249999999999958
 40
0.6249999999999958
 40
0.7499999999999981
 40
0.7499999999999981
 40
1.0
 40
1.0
 40
1.0
 40
1.0
 10
71.86256339990274
 20
96.81287974124314
 30
0.0
 10
71.87631651857296
 20
96.88352979923343
 30
0.0
 10
71.89408908597882
 20
96.95012791199836
 30
0.0
 10
71.94634017753418
 20
97.02422593223154
 30
0.0
 10
71.96737525311572
 20
97.04548373939312
 30
0.0
 10
72.02027566074418
 20
97.05362966553936
 30
0.0
 10
72.04138133362207
 20
97.0526898621436
 30
0.0
 10
72.08743350230004
 20
97.03167387056625
 30
0.0
 10
72.10580397428343
 20
97.02076506445864
 30
0.0
 10
72.14735560934913
 20
96.98813015351128
 30
0.0
 10
72.16992228210606
 20
96.96663817313991
 30
0.0
 10
72.23270329856608
 20
96.8981722295536
 30
0.0
 10
72.26583305953396
 20
96.85209777134851
 30
0.0
 10
72.32275074601898
 20
96.76708988301382
 30
0.0
 10
72.34693677152275
 20
96.72680958183244
 30
0.0
 10
72.41214472190252
 20
96.6118733553665
 30
0.0
 10
72.44686078209376
 20
96.5412903702195
 30
0.0
 10
72.54007605242465
 20
96.3370846111409
 30
0.0
 10
72.58574858778533
 20
96.21418622881352
 30
0.0
 10
72.62405367128387
 20
96.09731295242594
 30
0.0
  0
SPLINE
  5
B0
330
1F
100
AcDbEntity
  8
0
  6
Continuous
 62
     7
370
    15
100
AcDbSpline
210
0.0
220
0.0
230
1.0
 70
     8
 71
     3
 72
     8
 73
     4
 74
     0
 42
0.00000001
 43
0.00000001
 12
1.0
 22
0.0
 32
0.0
 13
1.0
 23
0.0
 33
0.0
 40
0.0
 40
0.0
 40
0.0
 40
0.0
 40
1.0
 40
1.0
 40
1.0
 40
1.0
 10
125.0918328566684
 20
146.9546277591881
 30
0.0
 10
124.5966928273041
 20
146.0679481110079
 30
0.0
 10
124.1026101220251
 20
145.1806854753219
 30
0.0
 10
123.6099000251793
 20
144.2926664771955
 30
0.0
  0
LINE
  5
B1
330
1F
100
AcDbEntity
  8
0
  6
Continuous
 62
     7
370
    15
100
AcDbLine
 10
125.0918319464
 20
140.9461219012
 30
0.0
 11
125.0918319464
 21
146.9546277224
 31
0.0
  0
SPLINE
  5
B2
330
1F
100
AcDbEntity
  8
0
  6
Continuous
 62
     7
370
    15
100
AcDbSpline
210
0.0
220
0.0
230
1.0
 70
     8
 71
     3
 72
     8
 73
     4
 74
     0
 42
0.00000001
 43
0.00000001
 12
1.0
 22
0.0
 32
0.0
 13
1.0
 23
0.0
 33
0.0
 40
0.0
 40
0.0
 40
0.0
 40
0.0
 40
1.0
 40
1.0
 40
1.0
 40
1.0
 10
123.6099000251793
 20
137.5375759536072
 30
0.0
 10
124.0891781757692
 20
138.6785871834598
 30
0.0
 10
124.5847460149091
 20
139.8149715942276
 30
0.0
 10
125.0918328566684
 20
140.9461219483913
 30
0.0
  0
LINE
  5
B3
330
1F
100
AcDbEntity
  8
0
  6
Continuous
 62
     7
370
    15
100
AcDbLine
 10
123.6099002898
 20
137.537576273
 30
0.0
 11
123.6099002898
 21
144.2926656603
 31
0.0
  0
LINE
  5
B4
330
1F
100
AcDbEntity
  8
0
  6
Continuous
 62
     7
370
    15
100
AcDbLine
 10
129.0499007345
 20
146.9546277224
 30
0.0
 11
125.0918319464
 21
146.9546277224
 31
0.0
  0
LINE
  5
B5
330
1F
100
AcDbEntity
  8
0
  6
Continuous
 62
     7
370
    15
100
AcDbLine
 10
125.0918319464
 20
140.9461219012
 30
0.0
 11
129.0499007345
 21
140.9461219012
 31
0.0
  0
SPLINE
  5
B6
330
1F
100
AcDbEntity
  8
0
  6
Continuous
 62
     7
370
    15
100
AcDbSpline
210
0.0
220
0.0
230
1.0
 70
     8
 71
     3
 72
     8
 73
     4
 74
     0
 42
0.00000001
 43
0.00000001
 12
1.0
 22
0.0
 32
0.0
 13
1.0
 23
0.0
 33
0.0
 40
0.0
 40
0.0
 40
0.0
 40
0.0
 40
1.0
 40
1.0
 40
1.0
 40
1.0
 10
118.3079671936903
 20
140.9461219483913
 30
0.0
 10
118.8150540354495
 20
139.8149715942276
 30
0.0
 10
119.3106218745895
 20
138.6785871834598
 30
0.0
 10
119.7899000251793
 20
137.5375759536072
 30
0.0
  0
LINE
  5
B7
330
1F
100
AcDbEntity
  8
0
  6
Continuous
 62
     7
370
    15
100
AcDbLine
 10
119.7899000735
 20
137.537576273
 30
0.0
 11
119.7899000735
 21
136.6232987641
 31
0.0
  0
SPLINE
  5
B8
330
1F
100
AcDbEntity
  8
0
  6
Continuous
 62
     7
370
    15
100
AcDbSpline
210
0.0
220
0.0
230
1.0
 70
     8
 71
     3
 72
     8
 73
     4
 74
     0
 42
0.00000001
 43
0.00000001
 12
1.0
 22
0.0
 32
0.0
 13
1.0
 23
0.0
 33
0.0
 40
0.0
 40
0.0
 40
0.0
 40
0.0
 40
1.0
 40
1.0
 40
1.0
 40
1.0
 10
119.7899000251793
 20
144.2926664771955
 30
0.0
 10
119.2971899283336
 20
145.1806854753219
 30
0.0
 10
118.8031072230546
 20
146.0679481110079
 30
0.0
 10
118.3079671936903
 20
146.9546277591881
 30
0.0
  0
LINE
  5
B9
330
1F
100
AcDbEntity
  8
0
  6
Continuous
 62
     7
370
    15
100
AcDbLine
 10
119.7899000735
 20
137.537576273
 30
0.0
 11
119.7899000735
 21
144.2926656603
 31
0.0
  0
SPLINE
  5
BA
330
1F
100
AcDbEntity
  8
0
  6
Continuous
 62
     7
370
    15
100
AcDbSpline
210
0.0
220
0.0
230
1.0
 70
     8
 71
     3
 72
    10
 73
     6
 74
     0
 42
0.00000001
 43
0.00000001
 12
1.0
 22
0.0
 32
0.0
 13
1.0
 23
0.0
 33
0.0
 40
0.0
 40
0.0
 40
0.0
 40
0.0
 40
0.5
 40
0.5
 40
1.0
 40
1.0
 40
1.0
 40
1.0
 10
129.6499000251793
 20
146.3338726097878
 30
0.0
 10
129.6499000251793
 20
146.4942778761386
 30
0.0
 10
129.5876621940725
 20
146.6533396891272
 30
0.0
 10
129.3685272703299
 20
146.8842521547575
 30
0.0
 10
129.210938575338
 20
146.9546277591881
 30
0.0
 10
129.0499000251793
 20
146.9546277591881
 30
0.0
  0
SPLINE
  5
BB
330
1F
100
AcDbEntity
  8
0
  6
Continuous
 62
     7
370
    15
100
AcDbSpline
210
0.0
220
0.0
230
1.0
 70
     8
 71
     3
 72
    12
 73
     8
 74
     0
 42
0.00000001
 43
0.00000001
 12
1.0
 22
0.0
 32
0.0
 13
1.0
 23
0.0
 33
0.0
 40
0.0
 40
0.0
 40
0.0
 40
0.0
 40
0.25
 40
0.25
 40
0.5
 40
0.5
 40
1.0
 40
1.0
 40
1.0
 40
1.0
 10
129.0499000251793
 20
140.9461219483914
 30
0.0
 10
129.141099747005
 20
140.9461219483914
 30
0.0
 10
129.231694756141
 20
140.9179022498034
 30
0.0
 10
129.3851074825877
 20
140.8234592425553
 30
0.0
 10
129.4503163499113
 20
140.75717226585
 30
0.0
 10
129.6031008792513
 20
140.5315474425617
 30
0.0
 10
129.6499000251793
 20
140.3491211795292
 30
0.0
 10
129.6499000251793
 20
140.1683845472823
 30
0.0
  0
LINE
  5
BC
330
1F
100
AcDbEntity
  8
0
  6
Continuous
 62
     7
370
    15
100
AcDbLine
 10
129.6498997152
 20
140.1683837323
 30
0.0
 11
129.6498997152
 21
146.3338732867
 31
0.0
  0
LINE
  5
BD
330
1F
100
AcDbEntity
  8
0
  6
Continuous
 62
     7
370
    15
100
AcDbLine
 10
123.6099002898
 20
136.6232987641
 30
0.0
 11
123.6099002898
 21
137.537576273
 31
0.0
  0
LINE
  5
BE
330
1F
100
AcDbEntity
  8
0
  6
Continuous
 62
     7
370
    15
100
AcDbLine
 10
129.6498997152
 20
140.1683837323
 30
0.0
 11
129.6498997152
 21
136.3374330251
 31
0.0
  0
ARC
  5
BF
330
1F
100
AcDbEntity
  8
0
  6
Continuous
 62
     7
370
    15
100
AcDbCircle
 10
111.699988221
 20
135.2259516081
 30
0.0
 40
7.218098113140914
100
AcDbArc
 50
70.7218395909
 51
109.3041177045
  0
SPLINE
  5
C0
330
1F
100
AcDbEntity
  8
0
  6
Continuous
 62
     7
370
    15
100
AcDbSpline
210
0.0
220
0.0
230
1.0
 70
     8
 71
     3
 72
    39
 73
    35
 74
     0
 42
0.00000001
 43
0.00000001
 12
1.0
 22
0.0
 32
0.0
 13
1.0
 23
0.0
 33
0.0
 40
-0.0928043551758307
 40
-0.0617048467358988
 40
-0.0305245298603541
 40
0.0
 40
0.0305379537708001
 40
0.0617396733444093
 40
0.0928511562858527
 40
0.1239581635814517
 40
0.1551451717989359
 40
0.1867314500165392
 40
0.2185162744046583
 40
0.249929836387164
 40
0.2813650559789813
 40
0.313223287848454
 40
0.3448819419202119
 40
0.3761241187089435
 40
0.407220328378562
 40
0.438288350261699
 40
0.4694286048557196
 40
0.500011143843078
 40
0.5305819932533669
 40
0.5617670451414589
 40
0.5928468450959129
 40
0.6239637556318111
 40
0.6551794805652085
 40
0.6868189513443796
 40
0.7186229856223901
 40
0.7500614968638851
 40
0.7814671780315161
 40
0.8132975981519821
 40
0.8449019848423025
 40
0.8761138750536638
 40
0.9071956448241693
 40
0.9382951532641012
 40
0.9694754701396459
 40
1.0
 40
1.0305379537708
 40
1.061739673344409
 40
1.092851156285853
 10
215.1589104417298
 20
111.5482260852952
 30
0.0
 10
214.1997600699809
 20
111.4501402715636
 30
0.0
 10
213.2403893998129
 20
111.5482907829231
 30
0.0
 10
212.3199571404301
 20
111.8428650029074
 30
0.0
 10
211.4696761933857
 20
112.3052636160512
 30
0.0
 10
210.7325103309119
 20
112.9281949193456
 30
0.0
 10
210.1268914768507
 20
113.6859966522481
 30
0.0
 10
209.6782278168228
 20
114.5570578186058
 30
0.0
 10
209.3931306320309
 20
115.5015518951331
 30
0.0
 10
209.2987097487816
 20
116.4853964821455
 30
0.0
 10
209.3937085529082
 20
117.4699364422511
 30
0.0
 10
209.6791663974257
 20
118.4161061234583
 30
0.0
 10
210.1280817261514
 20
119.2893715326455
 30
0.0
 10
210.7341334425659
 20
120.0483860954394
 30
0.0
 10
211.4710601419696
 20
120.6715632429831
 30
0.0
 10
212.3202199182656
 20
121.1335983342616
 30
0.0
 10
213.2403879825548
 20
121.4271348480704
 30
0.0
 10
214.2000859576004
 20
121.5245674230244
 30
0.0
 10
215.1602274508804
 20
121.4268698157004
 30
0.0
 10
216.0807149558205
 20
121.1328170353644
 30
0.0
 10
216.9305281121547
 20
120.6703242806674
 30
0.0
 10
217.6672425463181
 20
120.0467583241019
 30
0.0
 10
218.2727907068352
 20
119.287700702
 30
0.0
 10
218.7211320498915
 20
118.4152841676688
 30
0.0
 10
219.0060439084545
 20
117.4697281450385
 30
0.0
 10
219.1010789002721
 20
116.4858267325346
 30
0.0
 10
219.0067675068892
 20
115.5015291368014
 30
0.0
 10
218.7212824488213
 20
114.5565307591945
 30
0.0
 10
218.2721772626566
 20
113.6846753004497
 30
0.0
 10
217.6661067469326
 20
112.9269658542086
 30
0.0
 10
216.9287514551039
 20
112.3044754468307
 30
0.0
 10
216.0788973842592
 20
111.8425742816509
 30
0.0
 10
215.1589104417298
 20
111.5482260852952
 30
0.0
 10
214.1997600699809
 20
111.4501402715636
 30
0.0
 10
213.2403893998129
 20
111.5482907829231
 30
0.0
  0
LINE
  5
C1
330
1F
100
AcDbEntity
  8
0
  6
Continuous
 62
     7
370
    15
100
AcDbLine
 10
222.9773623884
 20
98.9874322115
 30
0.0
 11
222.9773623884
 21
133.9874323605
 31
0.0
  0
LINE
  5
C2
330
1F
100
AcDbEntity
  8
0
  6
Continuous
 62
     7
370
    15
100
AcDbLine
 10
233.6998952568
 20
105.2615726514
 30
0.0
 11
233.6998952568
 21
127.7132919206
 31
0.0
  0
ARC
  5
C3
330
1F
100
AcDbEntity
  8
0
  6
HIDDEN
 62
     7
370
     0
100
AcDbCircle
 10
214.1999000252
 20
116.487432286
 30
0.0
 40
4.999999999999998
100
AcDbArc
 50
67.5748093136
 51
267.1338721057
  0
ARC
  5
C4
330
1F
100
AcDbEntity
  8
0
  6
HIDDEN
 62
     7
370
     0
100
AcDbCircle
 10
214.1999000252
 20
116.487432286
 30
0.0
 40
5.000000000000005
100
AcDbArc
 50
286.0441731494
 51
67.5748093136
  0
CIRCLE
  5
C5
330
1F
100
AcDbEntity
  8
0
  6
HIDDEN
 62
     7
370
     0
100
AcDbCircle
 10
214.1999000252
 20
116.487432286
 30
0.0
 40
2.499999999999996
  0
CIRCLE
  5
C6
330
1F
100
AcDbEntity
  8
0
  6
HIDDEN
 62
     7
370
     0
100
AcDbCircle
 10
214.1999000252
 20
116.487432286
 30
0.0
 40
3.49999999999999
  0
LINE
  5
C7
330
1F
100
AcDbEntity
  8
0
  6
HIDDEN
 62
     7
370
     0
100
AcDbLine
 10
118.3079674855
 20
140.9461219012
 30
0.0
 11
118.3079674855
 21
136.3374330251
 31
0.0
  0
ARC
  5
C8
330
1F
100
AcDbEntity
  8
0
  6
HIDDEN
 62
     7
370
     0
100
AcDbCircle
 10
112.0003476871
 20
128.9694900714
 30
0.0
 40
3.664480283970477
100
AcDbArc
 50
265.2970940286
 51
11.9297454046
  0
ARC
  5
C9
330
1F
100
AcDbEntity
  8
0
  6
HIDDEN
 62
     7
370
     0
100
AcDbCircle
 10
111.4189630286
 20
128.982253192
 30
0.0
 40
3.67565795032167
100
AcDbArc
 50
167.0623579908
 51
274.3834980666
  0
LINE
  5
CA
330
1F
100
AcDbEntity
  8
0
  6
HIDDEN
 62
     7
370
     0
100
AcDbLine
 10
91.6950505242
 20
92.9628331362
 30
0.0
 11
91.1609044314
 21
92.9082185178
 31
0.0
  0
LINE
  5
CB
330
1F
100
AcDbEntity
  8
0
  6
HIDDEN
 62
     7
370
     0
100
AcDbLine
 10
90.9232513994
 20
140.0907654463
 30
0.0
 11
91.694957392
 21
140.012014672
 31
0.0
  0
SPLINE
  5
CC
330
1F
100
AcDbEntity
  8
0
  6
HIDDEN
 62
     7
370
     0
100
AcDbSpline
210
0.0
220
0.0
230
1.0
 70
     8
 71
     3
 72
    12
 73
     8
 74
     0
 42
0.00000001
 43
0.00000001
 12
1.0
 22
0.0
 32
0.0
 13
1.0
 23
0.0
 33
0.0
 40
0.0
 40
0.0
 40
0.0
 40
0.0
 40
0.2208160577745682
 40
0.4480844541775293
 40
0.6689349640810746
 40
0.8961259924444047
 40
1.0
 40
1.0
 40
1.0
 40
1.0
 10
97.45490206559533
 20
136.3249607532022
 30
0.0
 10
97.58694536463183
 20
136.3420178168747
 30
0.0
 10
97.85489032376597
 20
136.3766303588365
 30
0.0
 10
98.15004559094177
 20
136.4036008617845
 30
0.0
 10
98.35113928696379
 20
136.4191130911258
 30
0.0
 10
98.4484714367852
 20
136.4252234518254
 30
0.0
 10
98.43981222965162
 20
136.4246760016501
 30
0.0
 10
98.43709534188146
 20
136.4245042352674
 30
0.0
  0
SPLINE
  5
CD
330
1F
100
AcDbEntity
  8
0
  6
HIDDEN
 62
     7
370
     0
100
AcDbSpline
210
0.0
220
0.0
230
1.0
 70
     8
 71
     3
 72
    12
 73
     8
 74
     0
 42
0.00000001
 43
0.00000001
 12
1.0
 22
0.0
 32
0.0
 13
1.0
 23
0.0
 33
0.0
 40
0.0
 40
0.0
 40
0.0
 40
0.0
 40
0.1180988075654406
 40
0.3464914726130977
 40
0.5687544192146958
 40
0.7975154664833446
 40
0.9999999999999999
 40
0.9999999999999999
 40
0.9999999999999999
 40
0.9999999999999999
 10
98.43709534188146
 20
96.55036033678034
 30
0.0
 10
98.43921803806919
 20
96.55022612278835
 30
0.0
 10
98.44544584123807
 20
96.54983235078771
 30
0.0
 10
98.34078057857909
 20
96.55645420330531
 30
0.0
 10
98.13080741739141
 20
96.57286027051636
 30
0.0
 10
97.835348738836
 20
96.60046184073353
 30
0.0
 10
97.57645943744906
 20
96.63410650126788
 30
0.0
 10
97.45490206559533
 20
96.64990381884554
 30
0.0
  0
SPLINE
  5
CE
330
1F
100
AcDbEntity
  8
0
  6
HIDDEN
 62
     7
370
     0
100
AcDbSpline
210
0.0
220
0.0
230
1.0
 70
     8
 71
     3
 72
    22
 73
    18
 74
     0
 42
0.00000001
 43
0.00000001
 12
1.0
 22
0.0
 32
0.0
 13
1.0
 23
0.0
 33
0.0
 40
0.0
 40
0.0
 40
0.0
 40
0.0
 40
0.0694705205686055
 40
0.1409377331649949
 40
0.2104135932234474
 40
0.2819466554347119
 40
0.3506518590239928
 40
0.4213898075947659
 40
0.4894670079785227
 40
0.559481139205132
 40
0.6282707070598401
 40
0.6989997640116924
 40
0.7687375463058662
 40
0.8405098058647738
 40
0.9099666327908917
 40
0.9814998906941905
 40
1.0
 40
1.0
 40
1.0
 40
1.0
 10
97.45490206559533
 20
96.64990381884554
 30
0.0
 10
97.30672815286628
 20
96.66962994575016
 30
0.0
 10
97.00612157610114
 20
96.70964915947289
 30
0.0
 10
96.4712265975443
 20
96.76502215149381
 30
0.0
 10
95.8855881346936
 20
96.80948124866757
 30
0.0
 10
95.27135543813453
 20
96.8371653724157
 30
0.0
 10
94.6374388409407
 20
96.84541793755338
 30
0.0
 10
94.01529022553504
 20
96.83343700730491
 30
0.0
 10
93.40929253109917
 20
96.80268913599905
 30
0.0
 10
92.8448035157332
 20
96.75722011215925
 30
0.0
 10
92.32542757135518
 20
96.70113920031261
 30
0.0
 10
91.87256175230245
 20
96.64115055550846
 30
0.0
 10
91.49384690487464
 20
96.58317001962801
 30
0.0
 10
91.20576221006951
 20
96.53425024849231
 30
0.0
 10
91.0233030777611
 20
96.50121501140544
 30
0.0
 10
90.94264659316161
 20
96.48607623596453
 30
0.0
 10
90.95693578321803
 20
96.4887482034093
 30
0.0
 10
90.95987193440432
 20
96.4892972408531
 30
0.0
  0
SPLINE
  5
CF
330
1F
100
AcDbEntity
  8
0
  6
HIDDEN
 62
     7
370
     0
100
AcDbSpline
210
0.0
220
0.0
230
1.0
 70
     8
 71
     3
 72
    22
 73
    18
 74
     0
 42
0.00000001
 43
0.00000001
 12
1.0
 22
0.0
 32
0.0
 13
1.0
 23
0.0
 33
0.0
 40
0.0
 40
0.0
 40
0.0
 40
0.0
 40
0.0499040264366858
 40
0.120307606233534
 40
0.1885125575187676
 40
0.2586444383709652
 40
0.3277839293783175
 40
0.3988873421999256
 40
0.4686969862694503
 40
0.5405663562233802
 40
0.6097088194995841
 40
0.6809159464843816
 40
0.7490773455562517
 40
0.8192056025505766
 40
0.8876078267004751
 40
0.9579332920453139
 40
1.0
 40
1.0
 40
1.0
 40
1.0
 10
90.95987193440432
 20
136.4855673311947
 30
0.0
 10
90.9611227768893
 20
136.4853285649647
 30
0.0
 10
90.96413828236828
 20
136.484752952221
 30
0.0
 10
91.08903277096563
 20
136.4615546962887
 30
0.0
 10
91.31351409689861
 20
136.4218734254624
 30
0.0
 10
91.63254258872526
 20
136.36966165666
 30
0.0
 10
92.04007728986035
 20
136.3103344828154
 30
0.0
 10
92.521864328646
 20
136.2508580353398
 30
0.0
 10
93.07228382958792
 20
136.197250685191
 30
0.0
 10
93.66517871245448
 20
136.1567776609586
 30
0.0
 10
94.29213119199238
 20
136.1335797289396
 30
0.0
 10
94.92034220456189
 20
136.1306007861698
 30
0.0
 10
95.5446022337901
 20
136.1477353106873
 30
0.0
 10
96.1372205987976
 20
136.1824204349267
 30
0.0
 10
96.69404644170523
 20
136.23137728658
 30
0.0
 10
97.13185363543327
 20
136.281277614131
 30
0.0
 10
97.36692017775245
 20
136.3130636978893
 30
0.0
 10
97.45490206559533
 20
136.3249607532022
 30
0.0
  0
LINE
  5
D0
330
1F
100
AcDbEntity
  8
0
  6
HIDDEN
 62
     7
370
     0
100
AcDbLine
 10
84.7038755209
 20
99.4874313622
 30
0.0
 11
84.7038755209
 21
133.4874332099
 31
0.0
  0
LWPOLYLINE
  5
D1
330
1F
100
AcDbEntity
  8
0
  6
HIDDEN
 62
     7
370
     0
100
AcDbPolyline
 90
       13
 70
   128
 43
0.0
 10
111.6999004052
 20
138.4330354779
 10
112.5597821564
 20
138.4797934591
 10
113.3794568494
 20
138.6178843825
 10
114.1205968351
 20
138.8408485948
 10
114.7485485316
 20
139.1382627337
 10
115.2339482695
 20
139.4962184279
 10
115.5540997178
 20
139.8979779481
 10
115.6940337286
 20
140.3247565179
 10
115.6472058982
 20
140.7565996199
 10
115.4158066974
 20
141.1733105927
 10
115.0106562317
 20
141.5554080306
 10
114.4506976024
 20
141.8850254415
 10
114.0830766425
 20
142.0393083392
  0
LWPOLYLINE
  5
D2
330
1F
100
AcDbEntity
  8
0
  6
HIDDEN
 62
     7
370
     0
100
AcDbPolyline
 90
       13
 70
   128
 43
0.0
 10
109.3138133191
 20
142.0382280051
 10
108.9491022766
 20
141.8850254415
 10
108.389144113
 20
141.5554080306
 10
107.9839931816
 20
141.1733105927
 10
107.7525939808
 20
140.7565996199
 10
107.7057661504
 20
140.3247565179
 10
107.8457001612
 20
139.8979779481
 10
108.1658520751
 20
139.4962184279
 10
108.6512518131
 20
139.1382627337
 10
109.2792030439
 20
138.8408485948
 10
110.0203434952
 20
138.6178843825
 10
110.8400181883
 20
138.4797934591
 10
111.6999004052
 20
138.4330354779
  0
SPLINE
  5
D3
330
1F
100
AcDbEntity
  8
0
  6
HIDDEN
 62
     7
370
     0
100
AcDbSpline
210
0.0
220
0.0
230
1.0
 70
     8
 71
     3
 72
    83
 73
    79
 74
     0
 42
0.00000001
 43
0.00000001
 12
1.0
 22
0.0
 32
0.0
 13
1.0
 23
0.0
 33
0.0
 40
-0.0312499999999998
 40
-0.0312499999999998
 40
0.0
 40
0.0
 40
0.0312499999999991
 40
0.0312499999999991
 40
0.0468749999999987
 40
0.0468749999999987
 40
0.0624999999999983
 40
0.0624999999999983
 40
0.0937499999999985
 40
0.0937499999999985
 40
0.1249999999999988
 40
0.1249999999999988
 40
0.1562499999999991
 40
0.1562499999999991
 40
0.1874999999999993
 40
0.1874999999999993
 40
0.2187499999999996
 40
0.2187499999999996
 40
0.2343749999999997
 40
0.2343749999999997
 40
0.2499999999999998
 40
0.2656249999999999
 40
0.2656249999999999
 40
0.2812500000000001
 40
0.2812500000000001
 40
0.3125000000000003
 40
0.3125000000000003
 40
0.3281250000000004
 40
0.3281250000000004
 40
0.3437500000000005
 40
0.3437500000000005
 40
0.3593750000000006
 40
0.3593750000000006
 40
0.3750000000000006
 40
0.3750000000000006
 40
0.4062500000000008
 40
0.4062500000000008
 40
0.4375000000000009
 40
0.4375000000000009
 40
0.4687500000000011
 40
0.4687500000000011
 40
0.5000000000000012
 40
0.5000000000000012
 40
0.5312500000000013
 40
0.5312500000000013
 40
0.5625000000000016
 40
0.5625000000000016
 40
0.5781250000000016
 40
0.5781250000000016
 40
0.5937500000000016
 40
0.5937500000000016
 40
0.6250000000000016
 40
0.6250000000000016
 40
0.6562500000000017
 40
0.6562500000000017
 40
0.6875000000000017
 40
0.6875000000000017
 40
0.7031250000000017
 40
0.7031250000000017
 40
0.7187500000000017
 40
0.7187500000000017
 40
0.7500000000000014
 40
0.7500000000000014
 40
0.7812500000000013
 40
0.7812500000000013
 40
0.8125000000000011
 40
0.8125000000000011
 40
0.8437500000000009
 40
0.8437500000000009
 40
0.8750000000000008
 40
0.8750000000000008
 40
0.9062500000000006
 40
0.9062500000000006
 40
0.9375000000000003
 40
0.9375000000000003
 40
0.9687500000000002
 40
0.9687500000000002
 40
1.0
 40
1.0
 40
1.031249999999999
 40
1.031249999999999
 10
214.0648200866366
 20
111.1781108867366
 30
0.0
 10
213.3349799637221
 20
111.1781108867366
 30
0.0
 10
212.9757220061952
 20
111.2100115669825
 30
0.0
 10
212.4450060062271
 20
111.3041420966025
 30
0.0
 10
212.2694718986537
 20
111.3432900534176
 30
0.0
 10
211.9212045997214
 20
111.4375607417255
 30
0.0
 10
211.7475757873686
 20
111.4930495588674
 30
0.0
 10
211.2396402726459
 20
111.6815008364968
 30
0.0
 10
210.9174667990907
 20
111.835987796172
 30
0.0
 10
210.3057476249898
 20
112.2034582938919
 30
0.0
 10
210.0132520054485
 20
112.4194447329724
 30
0.0
 10
209.4832764533583
 20
112.8992628052349
 30
0.0
 10
209.2446793117941
 20
113.1626286594749
 30
0.0
 10
208.8213675784799
 20
113.7384523512795
 30
0.0
 10
208.6363226874411
 20
114.0536389840175
 30
0.0
 10
208.3407239183796
 20
114.7057784820185
 30
0.0
 10
208.2272307393904
 20
115.0458177312296
 30
0.0
 10
208.111036317454
 20
115.5781841305543
 30
0.0
 10
208.0816816618496
 20
115.7587099092888
 30
0.0
 10
208.0427307958253
 20
116.1179976271122
 30
0.0
 10
208.023015712857
 20
116.4777232837519
 30
0.0
 10
208.0413878583516
 20
116.8383171219589
 30
0.0
 10
208.0792546654723
 20
117.1993548302278
 30
0.0
 10
208.1081496612649
 20
117.3804514110027
 30
0.0
 10
208.2220603928499
 20
117.9109546088784
 30
0.0
 10
208.3342668149684
 20
118.2522134598131
 30
0.0
 10
208.5563189348632
 20
118.7459569035714
 30
0.0
 10
208.6397325412289
 20
118.9079121303278
 30
0.0
 10
208.8208879467498
 20
119.2186318834787
 30
0.0
 10
208.9189729702858
 20
119.3683038221463
 30
0.0
 10
209.1297464978899
 20
119.6567048120991
 30
0.0
 10
209.2424363555649
 20
119.7954326344039
 30
0.0
 10
209.4824625424059
 20
120.0620437809842
 30
0.0
 10
209.6104501511714
 20
120.1904372996765
 30
0.0
 10
210.0091605221457
 20
120.552303744757
 30
0.0
 10
210.2958481550539
 20
120.76468419352
 30
0.0
 10
210.9096699574567
 20
121.134946353573
 30
0.0
 10
211.2386551526308
 20
121.2927786311569
 30
0.0
 10
211.911542700069
 20
121.5428666174584
 30
0.0
 10
212.2583169677761
 20
121.6372175897
 30
0.0
 10
212.9727762382698
 20
121.7647163474773
 30
0.0
 10
213.3359384159399
 20
121.7965232911628
 30
0.0
 10
214.055970475122
 20
121.7969815680105
 30
0.0
 10
214.4160057175276
 20
121.7660905121446
 30
0.0
 10
215.1334709913483
 20
121.6392239536388
 30
0.0
 10
215.4805354390928
 20
121.5451501999875
 30
0.0
 10
215.9841720204991
 20
121.358835360731
 30
0.0
 10
216.1492048556179
 20
121.2891416986057
 30
0.0
 10
216.4734335334198
 20
121.1340296518424
 30
0.0
 10
216.6334695294428
 20
121.0480653828606
 30
0.0
 10
217.0961761560001
 20
120.7701727452432
 30
0.0
 10
217.3825064189574
 20
120.5585020938175
 30
0.0
 10
217.9110179656707
 20
120.0811528728226
 30
0.0
 10
218.1556146033509
 20
119.8117142539716
 30
0.0
 10
218.5794811606971
 20
119.2348350228669
 30
0.0
 10
218.7601725904979
 20
118.9275198172854
 30
0.0
 10
218.9832102340406
 20
118.4369450139882
 30
0.0
 10
219.0498346892744
 20
118.267363004259
 30
0.0
 10
219.164170687575
 20
117.9232271903509
 30
0.0
 10
219.2118066493027
 20
117.7493487821095
 30
0.0
 10
219.3267745361881
 20
117.2223763374744
 30
0.0
 10
219.3664906183748
 20
116.8638838996773
 30
0.0
 10
219.3680299227745
 20
116.1324201669801
 30
0.0
 10
219.3298456933356
 20
115.7735152269313
 30
0.0
 10
219.1790260244082
 20
115.0686934314139
 30
0.0
 10
219.0643004655747
 20
114.7196125302797
 30
0.0
 10
218.7692621346627
 20
114.0641771465181
 30
0.0
 10
218.5889891330944
 20
113.7546482317909
 30
0.0
 10
218.1627935268619
 20
113.1713067096789
 30
0.0
 10
217.9221051327389
 20
112.9050830911689
 30
0.0
 10
217.3935728481565
 20
112.4250557727057
 30
0.0
 10
217.10161477386
 20
112.2085233705243
 30
0.0
 10
216.4867330385577
 20
111.8381186432746
 30
0.0
 10
216.1640686519139
 20
111.6832930500274
 30
0.0
 10
215.4887986577979
 20
111.4320793001494
 30
0.0
 10
215.1353866243245
 20
111.336318459595
 30
0.0
 10
214.4251629899671
 20
111.2100594424701
 30
0.0
 10
214.0648200866366
 20
111.1781108867366
 30
0.0
 10
213.3349799637221
 20
111.1781108867366
 30
0.0
  0
SPLINE
  5
D4
330
1F
100
AcDbEntity
  8
0
  6
HIDDEN
 62
     7
370
     0
100
AcDbSpline
210
0.0
220
0.0
230
1.0
 70
     8
 71
     3
 72
    49
 73
    45
 74
     0
 42
0.00000001
 43
0.00000001
 12
1.0
 22
0.0
 32
0.0
 13
1.0
 23
0.0
 33
0.0
 40
-0.0453289120044603
 40
-0.0288496406620617
 40
-0.0137448999159971
 40
0.0
 40
0.0161749300518576
 40
0.0341951114539223
 40
0.0540821746210509
 40
0.0758519784576682
 40
0.0995163878705481
 40
0.1250844199078019
 40
0.1502122363036202
 40
0.1736095456493546
 40
0.1952861273052826
 40
0.2152544869626854
 40
0.2335308377909301
 40
0.2501365530632131
 40
0.2850050262071619
 40
0.3265790049394538
 40
0.3749615561882201
 40
0.397036394790905
 40
0.4177011086883252
 40
0.436961129740011
 40
0.4548232786304482
 40
0.4712962209803342
 40
0.4863911249002383
 40
0.5001226324881457
 40
0.5342115554730535
 40
0.5757710868835596
 40
0.6248974126761512
 40
0.6465640803625479
 40
0.6669596739971938
 40
0.6860901303059201
 40
0.7039627233113215
 40
0.7205864555654207
 40
0.7359725999378482
 40
0.7501354635862515
 40
0.7849405197644517
 40
0.8264670213190258
 40
0.8748182531463276
 40
0.8968858172448236
 40
0.9175466011002814
 40
0.9368060714714871
 40
0.9546710879955397
 40
0.9711503593379383
 40
0.9862551000840029
 40
1.0
 40
1.016174930051858
 40
1.034195111453922
 40
1.054082174621051
 10
213.8186773333517
 20
112.2486560152564
 30
0.0
 10
214.2216371761159
 20
112.231137896779
 30
0.0
 10
214.6507736500708
 20
112.2530960796597
 30
0.0
 10
215.1286827312491
 20
112.3297891463699
 30
0.0
 10
215.6411401305204
 20
112.4763442441771
 30
0.0
 10
216.1750525706975
 20
112.7080386520793
 30
0.0
 10
216.7125969046981
 20
113.0389712500364
 30
0.0
 10
217.2143537544325
 20
113.4664271644949
 30
0.0
 10
217.6410937461725
 20
113.9656020662769
 30
0.0
 10
217.9704163063047
 20
114.4958601232087
 30
0.0
 10
218.2038338397889
 20
115.0264489579317
 30
0.0
 10
218.3536133191138
 20
115.540373145693
 30
0.0
 10
218.4333012130786
 20
116.0249138920733
 30
0.0
 10
218.466420977326
 20
116.6490677613221
 30
0.0
 10
218.3742621445052
 20
117.4837139270143
 30
0.0
 10
217.9876280689695
 20
118.5379747656814
 30
0.0
 10
217.390479620585
 20
119.3490659385999
 30
0.0
 10
216.7826618966468
 20
119.8784487603834
 30
0.0
 10
216.3232581213046
 20
120.181794543755
 30
0.0
 10
215.8623443607768
 20
120.4092489203928
 30
0.0
 10
215.4122418150166
 20
120.5694797781655
 30
0.0
 10
214.9827528445046
 20
120.6718572616347
 30
0.0
 10
214.5810369373471
 20
120.7261964381794
 30
0.0
 10
214.0181004473329
 20
120.7507406317542
 30
0.0
 10
213.2164722733473
 20
120.6639572185559
 30
0.0
 10
212.1612272724687
 20
120.2826272835654
 30
0.0
 10
211.3459759096295
 20
119.6855373440444
 30
0.0
 10
210.8153860682508
 20
119.0780567124437
 30
0.0
 10
210.514360776837
 20
118.6256364589034
 30
0.0
 10
210.2862207736575
 20
118.1687975909273
 30
0.0
 10
210.1235667433101
 20
117.7191310893394
 30
0.0
 10
210.0182567213739
 20
117.2860778887472
 30
0.0
 10
209.9615776900577
 20
116.8767145461636
 30
0.0
 10
209.935979189455
 20
116.3008942241019
 30
0.0
 10
210.0261336709162
 20
115.4891583021771
 30
0.0
 10
210.4126215560397
 20
114.43628410215
 30
0.0
 10
211.0093123696087
 20
113.6258705284228
 30
0.0
 10
211.6167826699371
 20
113.0966957067286
 30
0.0
 10
212.0760539042828
 20
112.7933535122603
 30
0.0
 10
212.5369205189782
 20
112.565841807699
 30
0.0
 10
212.9870721670794
 20
112.4055231533469
 30
0.0
 10
213.416726961737
 20
112.3030636302452
 30
0.0
 10
213.8186773333517
 20
112.2486560152564
 30
0.0
 10
214.2216371761159
 20
112.231137896779
 30
0.0
 10
214.6507736500708
 20
112.2530960796597
 30
0.0
  0
SPLINE
  5
D5
330
1F
100
AcDbEntity
  8
0
  6
HIDDEN
 62
     7
370
     0
100
AcDbSpline
210
0.0
220
0.0
230
1.0
 70
     8
 71
     3
 72
     8
 73
     4
 74
     0
 42
0.00000001
 43
0.00000001
 12
1.0
 22
0.0
 32
0.0
 13
1.0
 23
0.0
 33
0.0
 40
0.0
 40
0.0
 40
0.0
 40
0.0
 40
0.0011559732291307
 40
0.0011559732291307
 40
0.0011559732291307
 40
0.0011559732291307
 10
71.79990002517931
 20
118.4872729046505
 30
0.0
 10
72.13323460024664
 20
118.483305624851
 30
0.0
 10
72.4665657912734
 20
118.4791257422801
 30
0.0
 10
72.79990002517933
 20
118.474560588872
 30
0.0
  0
SPLINE
  5
D6
330
1F
100
AcDbEntity
  8
0
  6
HIDDEN
 62
     7
370
     0
100
AcDbSpline
210
0.0
220
0.0
230
1.0
 70
     8
 71
     3
 72
     8
 73
     4
 74
     0
 42
0.00000001
 43
0.00000001
 12
1.0
 22
0.0
 32
0.0
 13
1.0
 23
0.0
 33
0.0
 40
0.0
 40
0.0
 40
0.0
 40
0.0
 40
0.0011564765856722
 40
0.0011564765856722
 40
0.0011564765856722
 40
0.0011564765856722
 10
72.79990002517933
 20
114.4907319838068
 30
0.0
 10
72.46659209461048
 20
114.4898568282238
 30
0.0
 10
72.13325686221827
 20
114.4888019769725
 30
0.0
 10
71.79990002517933
 20
114.4876308899353
 30
0.0
  0
LINE
  5
D7
330
1F
100
AcDbEntity
  8
0
  6
HIDDEN
 62
     7
370
     0
100
AcDbLine
 10
111.3597259872
 20
99.4874313622
 30
0.0
 11
111.3597259872
 21
133.4874332099
 31
0.0
  0
LINE
  5
D8
330
1F
100
AcDbEntity
  8
0
  6
HIDDEN
 62
     7
370
     0
100
AcDbLine
 10
113.6498998866
 20
100.7624324559
 30
0.0
 11
113.6498998866
 21
132.2124321162
 31
0.0
  0
SPLINE
  5
D9
330
1F
100
AcDbEntity
  8
0
  6
HIDDEN
 62
     7
370
     0
100
AcDbSpline
210
0.0
220
0.0
230
1.0
 70
     8
 71
     3
 72
    16
 73
    12
 74
     0
 42
0.00000001
 43
0.00000001
 12
1.0
 22
0.0
 32
0.0
 13
1.0
 23
0.0
 33
0.0
 40
0.0
 40
0.0
 40
0.0
 40
0.0
 40
0.124999999999998
 40
0.124999999999998
 40
0.249999999999996
 40
0.249999999999996
 40
0.4999999999999973
 40
0.4999999999999973
 40
0.7499999999999987
 40
0.7499999999999987
 40
1.0
 40
1.0
 40
1.0
 40
1.0
 10
80.49990002517933
 20
100.6859418499922
 30
0.0
 10
80.59502177984515
 20
100.6859418499922
 30
0.0
 10
80.68835184857323
 20
100.6821260165994
 30
0.0
 10
80.87161360931124
 20
100.6673554638696
 30
0.0
 10
80.96249132486824
 20
100.656197415894
 30
0.0
 10
81.21929302238797
 20
100.6137261457523
 30
0.0
 10
81.37436038725998
 20
100.5726799485495
 30
0.0
 10
81.6281068488146
 20
100.4775338319676
 30
0.0
 10
81.72897730048246
 20
100.4227710978861
 30
0.0
 10
81.86422371517729
 20
100.3115099739822
 30
0.0
 10
81.89990002517933
 20
100.2543402366535
 30
0.0
 10
81.89990002517933
 20
100.1999186636198
 30
0.0
  0
SPLINE
  5
DA
330
1F
100
AcDbEntity
  8
0
  6
HIDDEN
 62
     7
370
     0
100
AcDbSpline
210
0.0
220
0.0
230
1.0
 70
     8
 71
     3
 72
     8
 73
     4
 74
     0
 42
0.00000001
 43
0.00000001
 12
1.0
 22
0.0
 32
0.0
 13
1.0
 23
0.0
 33
0.0
 40
0.0
 40
0.0
 40
0.0
 40
0.0
 40
1.0
 40
1.0
 40
1.0
 40
1.0
 10
73.09990002527196
 20
102.8307447960745
 30
0.0
 10
73.09990002527388
 20
101.9468476537575
 30
0.0
 10
73.08641939936335
 20
101.2322644086956
 30
0.0
 10
73.08506803117224
 20
100.6859418499922
 30
0.0
  0
LINE
  5
DB
330
1F
100
AcDbEntity
  8
0
  6
HIDDEN
 62
     7
370
     0
100
AcDbLine
 10
72.7999003619
 20
106.8866057469
 30
0.0
 11
72.7999003619
 21
103.8556546121
 31
0.0
  0
SPLINE
  5
DC
330
1F
100
AcDbEntity
  8
0
  6
HIDDEN
 62
     7
370
     0
100
AcDbSpline
210
0.0
220
0.0
230
1.0
 70
     8
 71
     3
 72
    10
 73
     6
 74
     0
 42
0.00000001
 43
0.00000001
 12
1.0
 22
0.0
 32
0.0
 13
1.0
 23
0.0
 33
0.0
 40
0.0
 40
0.0
 40
0.0
 40
0.0
 40
0.5
 40
0.5
 40
1.0
 40
1.0
 40
1.0
 40
1.0
 10
73.09990002526587
 20
108.2544459103811
 30
0.0
 10
73.09990002526587
 20
108.0124619441667
 30
0.0
 10
73.07174999650744
 20
107.7781195165081
 30
0.0
 10
72.9681600834922
 20
107.3227444966997
 30
0.0
 10
72.8915313746986
 20
107.1011399347821
 30
0.0
 10
72.79990002517933
 20
106.8866055010428
 30
0.0
  0
LINE
  5
DD
330
1F
100
AcDbEntity
  8
0
  6
HIDDEN
 62
     7
370
     0
100
AcDbLine
 10
73.0998998523
 20
120.0920660197
 30
0.0
 11
73.0998998523
 21
108.2544457315
 31
0.0
  0
SPLINE
  5
DE
330
1F
100
AcDbEntity
  8
0
  6
HIDDEN
 62
     7
370
     0
100
AcDbSpline
210
0.0
220
0.0
230
1.0
 70
     8
 71
     3
 72
     8
 73
     4
 74
     0
 42
0.00000001
 43
0.00000001
 12
1.0
 22
0.0
 32
0.0
 13
1.0
 23
0.0
 33
0.0
 40
0.0
 40
0.0
 40
0.0
 40
0.0
 40
1.0
 40
1.0
 40
1.0
 40
1.0
 10
72.79990002517933
 20
126.0943715995295
 30
0.0
 10
72.98093148991815
 20
125.6622641160549
 30
0.0
 10
73.09990002527152
 20
125.2081187124061
 30
0.0
 10
73.09990002526581
 20
124.7204186616358
 30
0.0
  0
LINE
  5
DF
330
1F
100
AcDbEntity
  8
0
  6
HIDDEN
 62
     7
370
     0
100
AcDbLine
 10
72.7999003619
 20
129.127574168
 30
0.0
 11
72.7999003619
 21
126.0943720265
 31
0.0
  0
SPLINE
  5
E0
330
1F
100
AcDbEntity
  8
0
  6
HIDDEN
 62
     7
370
     0
100
AcDbSpline
210
0.0
220
0.0
230
1.0
 70
     8
 71
     3
 72
    10
 73
     6
 74
     0
 42
0.00000001
 43
0.00000001
 12
1.0
 22
0.0
 32
0.0
 13
1.0
 23
0.0
 33
0.0
 40
0.0
 40
0.0
 40
0.0
 40
0.0
 40
0.5
 40
0.5
 40
1.0
 40
1.0
 40
1.0
 40
1.0
 10
73.09990002528488
 20
130.1441197759437
 30
0.0
 10
73.0999000252831
 20
129.9794834303504
 30
0.0
 10
73.07274135485805
 20
129.8123282075639
 30
0.0
 10
72.96697636079841
 20
129.4737052019015
 30
0.0
 10
72.8905615732776
 20
129.3014334257448
 30
0.0
 10
72.79990002517935
 20
129.1275745994943
 30
0.0
  0
SPLINE
  5
E1
330
1F
100
AcDbEntity
  8
0
  6
HIDDEN
 62
     7
370
     0
100
AcDbSpline
210
0.0
220
0.0
230
1.0
 70
     8
 71
     3
 72
    18
 73
    14
 74
     0
 42
0.00000001
 43
0.00000001
 12
1.0
 22
0.0
 32
0.0
 13
1.0
 23
0.0
 33
0.0
 40
0.0
 40
0.0
 40
0.0
 40
0.0
 40
0.2500000000000033
 40
0.2500000000000033
 40
0.3750000000000029
 40
0.3750000000000029
 40
0.5000000000000026
 40
0.5000000000000026
 40
0.6250000000000022
 40
0.6250000000000022
 40
0.7500000000000018
 40
0.7500000000000018
 40
1.0
 40
1.0
 40
1.0
 40
1.0
 10
77.89990002517932
 20
132.774945908428
 30
0.0
 10
77.89990002517932
 20
132.7204713878758
 30
0.0
 10
77.86498933378716
 20
132.6640903285233
 30
0.0
 10
77.76298003245411
 20
132.5800134876698
 30
0.0
 10
77.721343677776
 20
132.5526797836789
 30
0.0
 10
77.62293788228725
 20
132.49972586808
 30
0.0
 10
77.56539467058296
 20
132.4738385143628
 30
0.0
 10
77.43809649701001
 20
132.4260609695295
 30
0.0
 10
77.36850919225255
 20
132.4041130513516
 30
0.0
 10
77.21707494709759
 20
132.3646804864389
 30
0.0
 10
77.13439104400365
 20
132.3471242372131
 30
0.0
 10
76.8782795819656
 20
132.3046854717925
 30
0.0
 10
76.6903645780776
 20
132.2889227220556
 30
0.0
 10
76.49990002517933
 20
132.2889227220556
 30
0.0
  0
LINE
  5
E2
330
1F
100
AcDbEntity
  8
0
  6
HIDDEN
 62
     7
370
     0
100
AcDbLine
 10
76.4998996646
 20
132.2889235018
 30
0.0
 11
73.0998998523
 21
132.2889235018
 31
0.0
  0
LINE
  5
E3
330
1F
100
AcDbEntity
  8
0
  6
HIDDEN
 62
     7
370
     0
100
AcDbLine
 10
73.0309316904
 20
100.6859410702
 30
0.0
 11
80.4999003202
 21
100.6859410702
 31
0.0
  0
SPLINE
  5
E4
330
1F
100
AcDbEntity
  8
0
  6
HIDDEN
 62
     7
370
     0
100
AcDbSpline
210
0.0
220
0.0
230
1.0
 70
     8
 71
     3
 72
    22
 73
    18
 74
     0
 42
0.00000001
 43
0.00000001
 12
1.0
 22
0.0
 32
0.0
 13
1.0
 23
0.0
 33
0.0
 40
0.0
 40
0.0
 40
0.0
 40
0.0
 40
0.1249999999999998
 40
0.1249999999999998
 40
0.2499999999999996
 40
0.2499999999999996
 40
0.4999999999999992
 40
0.4999999999999992
 40
0.5624999999999992
 40
0.5624999999999992
 40
0.6249999999999992
 40
0.6249999999999992
 40
0.7499999999999994
 40
0.7499999999999994
 40
0.8749999999999998
 40
0.8749999999999998
 40
1.0
 40
1.0
 40
1.0
 40
1.0
 10
73.03093103853725
 20
100.6859418499922
 30
0.0
 10
73.01784864580887
 20
100.9410475601399
 30
0.0
 10
73.00462908236906
 20
101.2342058192438
 30
0.0
 10
72.98218190457492
 20
101.8965062848686
 30
0.0
 10
72.97270343755046
 20
102.26678020548
 30
0.0
 10
72.95350547661391
 20
103.4893370085938
 30
0.0
 10
72.9546192496108
 20
104.4264759347256
 30
0.0
 10
72.97353004256388
 20
105.7463471642406
 30
0.0
 10
72.97815957042287
 20
106.017849073217
 30
0.0
 10
72.98864079016884
 20
106.5762339080192
 30
0.0
 10
72.99443605145325
 20
106.8633567639589
 30
0.0
 10
73.01274527235819
 20
107.7359460183306
 30
0.0
 10
73.02678020663855
 20
108.3364016946864
 30
0.0
 10
73.05623737877538
 20
109.5738761871825
 30
0.0
 10
73.07179306975695
 20
110.2108923438259
 30
0.0
 10
73.09558761975383
 20
111.5223809415105
 30
0.0
 10
73.1036066718992
 20
112.198503553171
 30
0.0
 10
73.09990002517932
 20
112.8827986644558
 30
0.0
  0
LINE
  5
E5
330
1F
100
AcDbEntity
  8
0
  6
HIDDEN
 62
     7
370
     0
100
AcDbLine
 10
73.0998998523
 20
120.0920660197
 30
0.0
 11
73.0998998523
 21
132.2889235018
 31
0.0
  0
SPLINE
  5
E6
330
1F
100
AcDbEntity
  8
0
  6
HIDDEN
 62
     7
370
     0
100
AcDbSpline
210
0.0
220
0.0
230
1.0
 70
     8
 71
     3
 72
    10
 73
     6
 74
     0
 42
0.00000001
 43
0.00000001
 12
1.0
 22
0.0
 32
0.0
 13
1.0
 23
0.0
 33
0.0
 40
0.0
 40
0.0
 40
0.0
 40
0.0
 40
0.5
 40
0.5
 40
1.0
 40
1.0
 40
1.0
 40
1.0
 10
73.09990002517932
 20
112.8827986644407
 30
0.0
 10
73.09990002517914
 20
113.1567138125149
 30
0.0
 10
73.0741407953113
 20
113.4276553912449
 30
0.0
 10
72.97093486257816
 20
113.9633464728474
 30
0.0
 10
72.89359669870304
 20
114.2290932763693
 30
0.0
 10
72.79990002517933
 20
114.4907319838067
 30
0.0
  0
SPLINE
  5
E7
330
1F
100
AcDbEntity
  8
0
  6
HIDDEN
 62
     7
370
     0
100
AcDbSpline
210
0.0
220
0.0
230
1.0
 70
     8
 71
     3
 72
    10
 73
     6
 74
     0
 42
0.00000001
 43
0.00000001
 12
1.0
 22
0.0
 32
0.0
 13
1.0
 23
0.0
 33
0.0
 40
0.0
 40
0.0
 40
0.0
 40
0.0
 40
0.5
 40
0.5
 40
1.0
 40
1.0
 40
1.0
 40
1.0
 10
72.79990002517933
 20
118.4745605888721
 30
0.0
 10
72.89313060553057
 20
118.7384543954704
 30
0.0
 10
72.96816021705938
 20
119.004634704569
 30
0.0
 10
73.07322731503903
 20
119.5429572763879
 30
0.0
 10
73.09990002528367
 20
119.8157053910037
 30
0.0
 10
73.09990002528485
 20
120.092065907591
 30
0.0
  0
LINE
  5
E8
330
1F
100
AcDbEntity
  8
0
  6
HIDDEN
 62
     7
370
     0
100
AcDbLine
 10
72.7999003619
 20
114.4907320997
 30
0.0
 11
72.7999003619
 21
118.4745605717
 31
0.0
  0
LINE
  5
E9
330
1F
100
AcDbEntity
  8
0
  6
HIDDEN
 62
     7
370
     0
100
AcDbLine
 10
72.9498991758
 20
98.49743174
 30
0.0
 11
72.9498991758
 21
95.6174936293
 31
0.0
  0
LINE
  5
EA
330
1F
100
AcDbEntity
  8
0
  6
HIDDEN
 62
     7
370
     0
100
AcDbLine
 10
81.8998998046
 20
98.49743174
 30
0.0
 11
81.8998998046
 21
94.523694381
 31
0.0
  0
LINE
  5
EB
330
1F
100
AcDbEntity
  8
0
  6
HIDDEN
 62
     7
370
     0
100
AcDbLine
 10
72.9498991758
 20
134.477432832
 30
0.0
 11
72.9498991758
 21
137.3573709427
 31
0.0
  0
LINE
  5
EC
330
1F
100
AcDbEntity
  8
0
  6
HIDDEN
 62
     7
370
     0
100
AcDbLine
 10
77.899899149
 20
134.477432832
 30
0.0
 11
77.899899149
 21
138.3315399437
 31
0.0
  0
LINE
  5
ED
330
1F
100
AcDbEntity
  8
0
  6
HIDDEN
 62
     7
370
     0
100
AcDbLine
 10
122.499899754
 20
106.9874325915
 30
0.0
 11
122.499899754
 21
125.9874319806
 31
0.0
  0
LINE
  5
EE
330
1F
100
AcDbEntity
  8
0
  6
HIDDEN
 62
     7
370
     0
100
AcDbLine
 10
125.4999002457
 20
106.9874325915
 30
0.0
 11
125.4999002457
 21
125.9874319806
 31
0.0
  0
LINE
  5
EF
330
1F
100
AcDbEntity
  8
0
  6
HIDDEN
 62
     7
370
     0
100
AcDbLine
 10
114.1498999686
 20
107.9874318241
 30
0.0
 11
114.1498999686
 21
124.987432748
 31
0.0
  0
LINE
  5
F0
330
1F
100
AcDbEntity
  8
0
  6
HIDDEN
 62
     7
370
     0
100
AcDbLine
 10
119.8875753224
 20
90.0874324291
 30
0.0
 11
116.6499003783
 21
90.0874324291
 31
0.0
  0
LINE
  5
F1
330
1F
100
AcDbEntity
  8
0
  6
HIDDEN
 62
     7
370
     0
100
AcDbLine
 10
129.6498997152
 20
90.0874324291
 30
0.0
 11
123.5122250408
 21
90.0874324291
 31
0.0
  0
LINE
  5
F2
330
1F
100
AcDbEntity
  8
0
  6
HIDDEN
 62
     7
370
     0
100
AcDbLine
 10
108.6498999984
 20
85.0033089666
 30
0.0
 11
108.6498999984
 21
90.0874324291
 31
0.0
  0
LINE
  5
F3
330
1F
100
AcDbEntity
  8
0
  6
HIDDEN
 62
     7
370
     0
100
AcDbLine
 10
116.6499003783
 20
90.0874324291
 30
0.0
 11
108.6498999984
 21
90.0874324291
 31
0.0
  0
LINE
  5
F4
330
1F
100
AcDbEntity
  8
0
  6
HIDDEN
 62
     7
370
     0
100
AcDbLine
 10
120.1841978372
 20
142.887432143
 30
0.0
 11
116.6499003783
 21
142.887432143
 31
0.0
  0
LINE
  5
F5
330
1F
100
AcDbEntity
  8
0
  6
HIDDEN
 62
     7
370
     0
100
AcDbLine
 10
116.6499003783
 20
142.887432143
 30
0.0
 11
108.6498999984
 21
142.887432143
 31
0.0
  0
LINE
  5
F6
330
1F
100
AcDbEntity
  8
0
  6
HIDDEN
 62
     7
370
     0
100
AcDbLine
 10
129.6498997152
 20
142.887432143
 30
0.0
 11
123.2156025261
 21
142.887432143
 31
0.0
  0
SPLINE
  5
F7
330
1F
100
AcDbEntity
  8
0
  6
HIDDEN
 62
     7
370
     0
100
AcDbSpline
210
0.0
220
0.0
230
1.0
 70
     8
 71
     3
 72
    11
 73
     7
 74
     0
 42
0.00000001
 43
0.00000001
 12
1.0
 22
0.0
 32
0.0
 13
1.0
 23
0.0
 33
0.0
 40
0.0
 40
0.0
 40
0.0
 40
0.0
 40
0.0008203708524183
 40
0.0008203708524183
 40
0.0008203708524183
 40
0.0016409967870154
 40
0.0016409967870154
 40
0.0016409967870154
 40
0.0016409967870154
 10
72.94990002517933
 20
100.6353995353812
 30
0.0
 10
72.75874172488066
 20
100.594220506762
 30
0.0
 10
72.5673146548085
 20
100.555466534532
 30
0.0
 10
72.37566903128787
 20
100.5190987752535
 30
0.0
 10
72.18396362620742
 20
100.4827196714875
 30
0.0
 10
71.99202467414845
 20
100.4487254207199
 30
0.0
 10
71.79990002707761
 20
100.4170772953287
 30
0.0
  0
ELLIPSE
  5
F8
330
1F
100
AcDbEntity
  8
0
  6
HIDDEN
 62
     7
370
     0
100
AcDbEllipse
 10
67.5574681624
 20
116.487432286
 30
0.0
 11
20.19992452771987
 21
-1.421085471520200E-14
 31
0.0
210
0.0
220
0.0
230
1.0
 40
0.816496581
 41
1.300566354937426
 42
1.359198697443034
  0
LINE
  5
F9
330
1F
100
AcDbEntity
  8
0
  6
HIDDEN
 62
     7
370
     0
100
AcDbLine
 10
72.9498991758
 20
98.49743174
 30
0.0
 11
72.9498991758
 21
100.6354000567
 31
0.0
  0
LINE
  5
FA
330
1F
100
AcDbEntity
  8
0
  6
HIDDEN
 62
     7
370
     0
100
AcDbLine
 10
73.0309316904
 20
100.6859410702
 30
0.0
 11
72.9498991758
 21
100.6354000567
 31
0.0
  0
LINE
  5
FB
330
1F
100
AcDbEntity
  8
0
  6
HIDDEN
 62
     7
370
     0
100
AcDbLine
 10
81.8998998046
 20
98.49743174
 30
0.0
 11
81.8998998046
 21
100.1999192088
 31
0.0
  0
LINE
  5
FC
330
1F
100
AcDbEntity
  8
0
  6
HIDDEN
 62
     7
370
     0
100
AcDbLine
 10
77.899899149
 20
134.477432832
 30
0.0
 11
77.899899149
 21
132.7749453633
 31
0.0
  0
LINE
  5
FD
330
1F
100
AcDbEntity
  8
0
  6
HIDDEN
 62
     7
370
     0
100
AcDbLine
 10
72.9498991758
 20
134.477432832
 30
0.0
 11
72.9498991758
 21
132.382057622
 31
0.0
  0
SPLINE
  5
FE
330
1F
100
AcDbEntity
  8
0
  6
HIDDEN
 62
     7
370
     0
100
AcDbSpline
210
0.0
220
0.0
230
1.0
 70
     8
 71
     3
 72
     8
 73
     4
 74
     0
 42
0.00000001
 43
0.00000001
 12
1.0
 22
0.0
 32
0.0
 13
1.0
 23
0.0
 33
0.0
 40
0.0
 40
0.0
 40
0.0
 40
0.0
 40
1.0
 40
1.0
 40
1.0
 40
1.0
 10
72.94990002517933
 20
132.3820567350226
 30
0.0
 10
72.99990552302691
 20
132.3510209614898
 30
0.0
 10
73.04990559259542
 20
132.3199763171488
 30
0.0
 10
73.09990002528487
 20
132.2889227220555
 30
0.0
  0
LINE
  5
FF
330
1F
100
AcDbEntity
  8
0
  6
HIDDEN
 62
     7
370
     0
100
AcDbLine
 10
192.6999015749
 20
111.5874322279
 30
0.0
 11
192.6999015749
 21
121.3874318785
 31
0.0
  0
LINE
  5
100
330
1F
100
AcDbEntity
  8
0
  6
HIDDEN
 62
     7
370
     0
100
AcDbLine
 10
196.6999022306
 20
111.4874323978
 30
0.0
 11
196.6999022306
 21
121.4874321743
 31
0.0
  0
SPLINE
  5
101
330
1F
100
AcDbEntity
  8
0
  6
HIDDEN
 62
     7
370
     0
100
AcDbSpline
210
0.0
220
0.0
230
1.0
 70
     8
 71
     3
 72
    20
 73
    16
 74
     0
 42
0.00000001
 43
0.00000001
 12
1.0
 22
0.0
 32
0.0
 13
1.0
 23
0.0
 33
0.0
 40
0.0
 40
0.0
 40
0.0
 40
0.0
 40
0.1119595197270015
 40
0.1774767654920859
 40
0.249096185325418
 40
0.3298422369283467
 40
0.3986125725171922
 40
0.4998892967520781
 40
0.6138510411462624
 40
0.6790150058045442
 40
0.7495394119902732
 40
0.8296829969661308
 40
0.8981246339666275
 40
0.9995320129300933
 40
0.9999999999999999
 40
0.9999999999999999
 40
0.9999999999999999
 40
0.9999999999999999
 10
98.44874059935445
 20
92.88743884849528
 30
0.0
 10
98.40541668288708
 20
92.90086721671271
 30
0.0
 10
98.33674017746951
 20
92.92215369027815
 30
0.0
 10
97.89156166809931
 20
93.02546860394447
 30
0.0
 10
97.36500296139971
 20
93.13876884666263
 30
0.0
 10
96.67957796469878
 20
93.26170349995478
 30
0.0
 10
95.78626078691016
 20
93.38373818710018
 30
0.0
 10
94.67290113630368
 20
93.50147382428338
 30
0.0
 10
93.56212700765232
 20
93.51344769652599
 30
0.0
 10
92.67737873038969
 20
93.48639215793169
 30
0.0
 10
92.01018246033173
 20
93.4384590917314
 30
0.0
 10
91.46890797032451
 20
93.38216198232732
 30
0.0
 10
91.08133555311576
 20
93.33709028797765
 30
0.0
 10
90.88737284799276
 20
93.29818586542287
 30
0.0
 10
90.9504959812653
 20
93.30891547017484
 30
0.0
 10
90.95078595136637
 20
93.30896475899199
 30
0.0
  0
LINE
  5
102
330
1F
100
AcDbEntity
  8
0
  6
HIDDEN
 62
     7
370
     0
100
AcDbLine
 10
91.8599123151
 20
93.4197697936
 30
0.0
 11
92.0437572539
 21
93.4379603862
 31
0.0
  0
LINE
  5
103
330
1F
100
AcDbEntity
  8
0
  6
HIDDEN
 62
     7
370
     0
100
AcDbLine
 10
92.04375446
 20
139.536835268
 30
0.0
 11
91.8696809575
 21
139.5540442466
 31
0.0
  0
SPLINE
  5
104
330
1F
100
AcDbEntity
  8
0
  6
HIDDEN
 62
     7
370
     0
100
AcDbSpline
210
0.0
220
0.0
230
1.0
 70
     8
 71
     3
 72
    20
 73
    16
 74
     0
 42
0.00000001
 43
0.00000001
 12
1.0
 22
0.0
 32
0.0
 13
1.0
 23
0.0
 33
0.0
 40
0.0
 40
0.0
 40
0.0
 40
0.0
 40
0.0004889697591047
 40
0.1018319945141926
 40
0.1702475571949642
 40
0.2503691863856972
 40
0.3209567830713191
 40
0.3861815969282947
 40
0.5002554405931924
 40
0.6012243594512068
 40
0.6697680251707869
 40
0.7502401868573377
 40
0.8220490723920678
 40
0.8877204424947721
 40
1.0
 40
1.0
 40
1.0
 40
1.0
 10
90.95081947897906
 20
139.6658346204756
 30
0.0
 10
90.95051573512373
 20
139.6658857927787
 30
0.0
 10
90.88725856628439
 20
139.6765428479247
 30
0.0
 10
91.08049061770964
 20
139.6378010869853
 30
0.0
 10
91.46742896286064
 20
139.5927406741536
 30
0.0
 10
92.00843778125575
 20
139.5364882662284
 30
0.0
 10
92.67593744935007
 20
139.4885552000696
 30
0.0
 10
93.56176526652726
 20
139.4614821267375
 30
0.0
 10
94.67257208534288
 20
139.4733074157966
 30
0.0
 10
95.7846422028138
 20
139.5907583910596
 30
0.0
 10
96.6757431278052
 20
139.7124595189196
 30
0.0
 10
97.36122700486449
 20
139.8352826368898
 30
0.0
 10
97.88921554288243
 20
139.9487216335682
 30
0.0
 10
98.33659892651136
 20
140.0524602859044
 30
0.0
 10
98.40540962305836
 20
140.0738840281024
 30
0.0
 10
98.44882628103132
 20
140.0874015091656
 30
0.0
  0
SPLINE
  5
105
330
1F
100
AcDbEntity
  8
0
  6
HIDDEN
 62
     7
370
     0
100
AcDbSpline
210
0.0
220
0.0
230
1.0
 70
     8
 71
     3
 72
     8
 73
     4
 74
     0
 42
0.00000001
 43
0.00000001
 12
1.0
 22
0.0
 32
0.0
 13
1.0
 23
0.0
 33
0.0
 40
0.0
 40
0.0
 40
0.0
 40
0.0
 40
0.0001590976915385
 40
0.0001590976915385
 40
0.0001590976915385
 40
0.0001590976915385
 10
73.08506803117224
 20
100.6859418499922
 30
0.0
 10
73.0400165617427
 20
100.6579629663416
 30
0.0
 10
72.99496052440296
 20
100.6299914366393
 30
0.0
 10
72.94990002517935
 20
100.6020270979592
 30
0.0
  0
SPLINE
  5
106
330
1F
100
AcDbEntity
  8
0
  6
HIDDEN
 62
     7
370
     0
100
AcDbSpline
210
0.0
220
0.0
230
1.0
 70
     8
 71
     3
 72
    11
 73
     7
 74
     0
 42
0.00000001
 43
0.00000001
 12
1.0
 22
0.0
 32
0.0
 13
1.0
 23
0.0
 33
0.0
 40
0.0
 40
0.0
 40
0.0
 40
0.0
 40
0.000821290931132
 40
0.000821290931132
 40
0.000821290931132
 40
0.0016428257242788
 40
0.0016428257242788
 40
0.0016428257242788
 40
0.0016428257242788
 10
72.94990002517933
 20
100.6020270979592
 30
0.0
 10
72.7587550036969
 20
100.5587409091375
 30
0.0
 10
72.5673366680203
 20
100.5178043995318
 30
0.0
 10
72.37569059335917
 20
100.4792026281773
 30
0.0
 10
72.18398751181756
 20
100.4405893743723
 30
0.0
 10
71.99204238853223
 20
100.4043091651191
 30
0.0
 10
71.79990002517933
 20
100.370342258801
 30
0.0
  0
LINE
  5
107
330
1F
100
AcDbEntity
  8
0
  6
HIDDEN
 62
     7
370
     0
100
AcDbLine
 10
119.7899000735
 20
136.6232987641
 30
0.0
 11
119.7899000735
 21
136.3374330251
 31
0.0
  0
LINE
  5
108
330
1F
100
AcDbEntity
  8
0
  6
HIDDEN
 62
     7
370
     0
100
AcDbLine
 10
123.6099002898
 20
136.6316750793
 30
0.0
 11
123.6099002898
 21
136.3374330251
 31
0.0
  0
LINE
  5
109
330
1F
100
AcDbEntity
  8
0
  6
HIDDEN
 62
     7
370
     0
100
AcDbLine
 10
125.0918319464
 20
140.9461219012
 30
0.0
 11
125.0918319464
 21
136.3374330251
 31
0.0
  0
SPLINE
  5
10A
330
1F
100
AcDbEntity
  8
0
  6
HIDDEN
 62
     7
370
     0
100
AcDbSpline
210
0.0
220
0.0
230
1.0
 70
     8
 71
     3
 72
    24
 73
    20
 74
     0
 42
0.00000001
 43
0.00000001
 12
1.0
 22
0.0
 32
0.0
 13
1.0
 23
0.0
 33
0.0
 40
0.0
 40
0.0
 40
0.0
 40
0.0
 40
0.2499999999999952
 40
0.2499999999999952
 40
0.3749999999999937
 40
0.3749999999999937
 40
0.4374999999999931
 40
0.4374999999999931
 40
0.468749999999992
 40
0.468749999999992
 40
0.4999999999999909
 40
0.4999999999999909
 40
0.5624999999999933
 40
0.5624999999999933
 40
0.6249999999999958
 40
0.6249999999999958
 40
0.7499999999999981
 40
0.7499999999999981
 40
1.0
 40
1.0
 40
1.0
 40
1.0
 10
71.86256339990274
 20
96.81287974124314
 30
0.0
 10
71.87631651857296
 20
96.88352979923343
 30
0.0
 10
71.89408908597882
 20
96.95012791199836
 30
0.0
 10
71.94634017753418
 20
97.02422593223154
 30
0.0
 10
71.96737525311572
 20
97.04548373939312
 30
0.0
 10
72.02027566074418
 20
97.05362966553936
 30
0.0
 10
72.04138133362207
 20
97.0526898621436
 30
0.0
 10
72.08743350230004
 20
97.03167387056625
 30
0.0
 10
72.10580397428343
 20
97.02076506445864
 30
0.0
 10
72.14735560934913
 20
96.98813015351128
 30
0.0
 10
72.16992228210606
 20
96.96663817313991
 30
0.0
 10
72.23270329856608
 20
96.8981722295536
 30
0.0
 10
72.26583305953396
 20
96.85209777134851
 30
0.0
 10
72.32275074601898
 20
96.76708988301382
 30
0.0
 10
72.34693677152275
 20
96.72680958183244
 30
0.0
 10
72.41214472190252
 20
96.6118733553665
 30
0.0
 10
72.44686078209376
 20
96.5412903702195
 30
0.0
 10
72.54007605242465
 20
96.3370846111409
 30
0.0
 10
72.58574858778533
 20
96.21418622881352
 30
0.0
 10
72.62405367128387
 20
96.09731295242594
 30
0.0
  0
SPLINE
  5
10B
330
1F
100
AcDbEntity
  8
0
  6
HIDDEN
 62
     7
370
     0
100
AcDbSpline
210
0.0
220
0.0
230
1.0
 70
     8
 71
     3
 72
     8
 73
     4
 74
     0
 42
0.00000001
 43
0.00000001
 12
1.0
 22
0.0
 32
0.0
 13
1.0
 23
0.0
 33
0.0
 40
0.0
 40
0.0
 40
0.0
 40
0.0
 40
0.0011563724678166
 40
0.0011563724678166
 40
0.0011563724678166
 40
0.0011563724678166
 10
72.79990002517933
 20
129.1275745994943
 30
0.0
 10
72.46657890998218
 20
129.2566336251211
 30
0.0
 10
72.13324622917419
 20
129.3855939612948
 30
0.0
 10
71.7999000251793
 20
129.5145054910679
 30
0.0
  0
SPLINE
  5
10C
330
1F
100
AcDbEntity
  8
0
  6
HIDDEN
 62
     7
370
     0
100
AcDbSpline
210
0.0
220
0.0
230
1.0
 70
     8
 71
     3
 72
     8
 73
     4
 74
     0
 42
0.00000001
 43
0.00000001
 12
1.0
 22
0.0
 32
0.0
 13
1.0
 23
0.0
 33
0.0
 40
0.0
 40
0.0
 40
0.0
 40
0.0
 40
0.0011557494192775
 40
0.0011557494192775
 40
0.0011557494192775
 40
0.0011557494192775
 10
71.7999000251793
 20
103.460210423573
 30
0.0
 10
72.13323383519347
 20
103.5918346997679
 30
0.0
 10
72.46656744685613
 20
103.7236516133414
 30
0.0
 10
72.79990002517934
 20
103.8556550555043
 30
0.0
  0
SPLINE
  5
10D
330
1F
100
AcDbEntity
  8
0
  6
HIDDEN
 62
     7
370
     0
100
AcDbSpline
210
0.0
220
0.0
230
1.0
 70
     8
 71
     3
 72
     8
 73
     4
 74
     0
 42
0.00000001
 43
0.00000001
 12
1.0
 22
0.0
 32
0.0
 13
1.0
 23
0.0
 33
0.0
 40
0.0000000000000006
 40
0.0000000000000006
 40
0.0000000000000006
 40
0.0000000000000006
 40
0.0011560973009451
 40
0.0011560973009451
 40
0.0011560973009451
 40
0.0011560973009451
 10
71.7999000251793
 20
126.468246779311
 30
0.0
 10
72.13323976276605
 20
126.3435030470377
 30
0.0
 10
72.46657039597467
 20
126.2188218228607
 30
0.0
 10
72.79990002517931
 20
126.0943715995295
 30
0.0
  0
SPLINE
  5
10E
330
1F
100
AcDbEntity
  8
0
  6
HIDDEN
 62
     7
370
     0
100
AcDbSpline
210
0.0
220
0.0
230
1.0
 70
     8
 71
     3
 72
     8
 73
     4
 74
     0
 42
0.00000001
 43
0.00000001
 12
1.0
 22
0.0
 32
0.0
 13
1.0
 23
0.0
 33
0.0
 40
0.0
 40
0.0
 40
0.0
 40
0.0
 40
0.0011564805411644
 40
0.0011564805411644
 40
0.0011564805411644
 40
0.0011564805411644
 10
72.79990002517931
 20
106.8866055010428
 30
0.0
 10
72.46659805977785
 20
106.7597545606085
 30
0.0
 10
72.1332612428712
 20
106.6331894917463
 30
0.0
 10
71.79990002517933
 20
106.5067895180855
 30
0.0
  0
CIRCLE
  5
10F
330
1F
100
AcDbEntity
  8
0
  6
HIDDEN
 62
     7
370
     0
100
AcDbCircle
 10
110.6999000252
 20
116.487432286
 30
0.0
 40
5.0
  0
LINE
  5
110
330
1F
100
AcDbEntity
  8
0
  6
HIDDEN
 62
     7
370
     0
100
AcDbLine
 10
107.6999002152
 20
130.7873763292
 30
0.0
 11
107.6999002152
 21
128.8813725262
 31
0.0
  0
LINE
  5
111
330
1F
100
AcDbEntity
  8
0
  6
HIDDEN
 62
     7
370
     0
100
AcDbLine
 10
115.6999001295
 20
128.8813725262
 30
0.0
 11
115.6999001295
 21
130.7880971729
 31
0.0
  0
LINE
  5
112
330
1F
100
AcDbEntity
  8
0
  6
HIDDEN
 62
     7
370
     0
100
AcDbLine
 10
103.6999000252
 20
91.1635011582
 30
0.0
 11
103.7940607975
 21
91.8334890305
 31
0.0
  0
LINE
  5
113
330
1F
100
AcDbEntity
  8
0
  6
HIDDEN
 62
     7
370
     0
100
AcDbLine
 10
103.7940607975
 20
141.1413755416
 30
0.0
 11
103.6999000252
 21
141.8113634138
 31
0.0
  0
ARC
  5
114
330
1F
100
AcDbEntity
  8
0
  6
HIDDEN
 62
     7
370
     0
100
AcDbCircle
 10
103.1998932725
 20
91.9169946716
 30
0.0
 40
0.60000675266771
100
AcDbArc
 50
352.0
 51
0.0
  0
ARC
  5
115
330
1F
100
AcDbEntity
  8
0
  6
HIDDEN
 62
     7
370
     0
100
AcDbCircle
 10
103.1998932725
 20
91.9169946716
 30
0.0
 40
0.6000067526677164
100
AcDbArc
 50
0.0
 51
33.5571153394
  0
ARC
  5
116
330
1F
100
AcDbEntity
  8
0
  6
HIDDEN
 62
     7
370
     0
100
AcDbCircle
 10
103.1998932725
 20
141.0578699004
 30
0.0
 40
0.6000067526677169
100
AcDbArc
 50
348.75
 51
8.0
  0
LWPOLYLINE
  5
117
330
1F
100
AcDbEntity
  8
0
  6
HIDDEN
 62
     7
370
     0
100
AcDbPolyline
 90
        3
 70
   128
 43
0.0
 10
103.7883710641
 20
140.9408152251
 10
103.7542272324
 20
140.8282574414
 10
103.6999000252
 20
140.7262049763
  0
LINE
  5
118
330
1F
100
AcDbEntity
  8
0
  6
HIDDEN
 62
     7
370
     0
100
AcDbLine
 10
103.7999000227
 20
91.9169951378
 30
0.0
 11
103.7999000227
 21
141.0578694342
 31
0.0
  0
ARC
  5
119
330
1F
100
AcDbEntity
  8
0
  6
HIDDEN
 62
     7
370
     0
100
AcDbCircle
 10
97.4549020268
 20
104.487432286
 30
0.0
 40
8.000000000000016
100
AcDbArc
 50
277.0583436777
 51
321.3178125465
  0
ARC
  5
11A
330
1F
100
AcDbEntity
  8
0
  6
HIDDEN
 62
     7
370
     0
100
AcDbCircle
 10
97.4549020268
 20
128.487432286
 30
0.0
 40
8.000000000000016
100
AcDbArc
 50
38.6821874535
 51
82.95706422
  0
LINE
  5
11B
330
1F
100
AcDbEntity
  8
0
  6
HIDDEN
 62
     7
370
     0
100
AcDbLine
 10
86.7823360503
 20
96.4874327331
 30
0.0
 11
90.9598719344
 21
96.4874327331
 31
0.0
  0
LINE
  5
11C
330
1F
100
AcDbEntity
  8
0
  6
HIDDEN
 62
     7
370
     0
100
AcDbLine
 10
90.9598719344
 20
136.487431839
 30
0.0
 11
86.7823360503
 21
136.487431839
 31
0.0
  0
ARC
  5
11D
330
1F
100
AcDbEntity
  8
0
  6
HIDDEN
 62
     7
370
     0
100
AcDbCircle
 10
86.7823355905
 20
97.087432286
 30
0.0
 40
0.6000000000000032
100
AcDbArc
 50
210.0
 51
270.0
  0
ARC
  5
11E
330
1F
100
AcDbEntity
  8
0
  6
HIDDEN
 62
     7
370
     0
100
AcDbCircle
 10
86.7823355905
 20
135.887432286
 30
0.0
 40
0.5999999999999943
100
AcDbArc
 50
90.0
 51
150.0
  0
LINE
  5
11F
330
1F
100
AcDbEntity
  8
0
  6
HIDDEN
 62
     7
370
     0
100
AcDbLine
 10
86.262719521
 20
136.1874323486
 30
0.0
 11
84.7038755209
 21
133.4874332099
 31
0.0
  0
LINE
  5
120
330
1F
100
AcDbEntity
  8
0
  6
HIDDEN
 62
     7
370
     0
100
AcDbLine
 10
84.7038755209
 20
99.4874313622
 30
0.0
 11
86.262719521
 21
96.7874322234
 31
0.0
  0
LINE
  5
121
330
1F
100
AcDbEntity
  8
0
  6
HIDDEN
 62
     7
370
     0
100
AcDbLine
 10
107.6999002152
 20
143.7657904028
 30
0.0
 11
107.6999002152
 21
140.4330339431
 31
0.0
  0
LINE
  5
122
330
1F
100
AcDbEntity
  8
0
  6
HIDDEN
 62
     7
370
     0
100
AcDbLine
 10
115.6999001295
 20
140.4330339431
 30
0.0
 11
115.6999001295
 21
143.7671650349
 31
0.0
  0
ARC
  5
123
330
1F
100
AcDbEntity
  8
0
  6
HIDDEN
 62
     7
370
     0
100
AcDbCircle
 10
112.1499000252
 20
100.762432286
 30
0.0
 40
1.5
100
AcDbArc
 50
238.2116693829
 51
0.0
  0
ARC
  5
124
330
1F
100
AcDbEntity
  8
0
  6
HIDDEN
 62
     7
370
     0
100
AcDbCircle
 10
112.1499000252
 20
132.212432286
 30
0.0
 40
1.5
100
AcDbArc
 50
0.0
 51
121.7883306171
  0
LINE
  5
125
330
1F
100
AcDbEntity
  8
0
  6
HIDDEN
 62
     7
370
     0
100
AcDbLine
 10
103.6999000252
 20
99.4874313622
 30
0.0
 11
111.3597259872
 21
99.4874313622
 31
0.0
  0
LINE
  5
126
330
1F
100
AcDbEntity
  8
0
  6
HIDDEN
 62
     7
370
     0
100
AcDbLine
 10
111.3597259872
 20
133.4874332099
 30
0.0
 11
103.6999000252
 21
133.4874332099
 31
0.0
  0
LINE
  5
127
330
1F
100
AcDbEntity
  8
0
  6
HIDDEN
 62
     7
370
     0
100
AcDbLine
 10
81.8998998046
 20
99.4874313622
 30
0.0
 11
84.7038755209
 21
99.4874313622
 31
0.0
  0
LINE
  5
128
330
1F
100
AcDbEntity
  8
0
  6
HIDDEN
 62
     7
370
     0
100
AcDbLine
 10
84.7038755209
 20
133.4874332099
 30
0.0
 11
77.899899149
 21
133.4874332099
 31
0.0
  0
LINE
  5
129
330
1F
100
AcDbEntity
  8
0
  6
HIDDEN
 62
     7
370
     0
100
AcDbLine
 10
122.499899754
 20
106.9874325915
 30
0.0
 11
125.4999002457
 21
106.9874325915
 31
0.0
  0
LINE
  5
12A
330
1F
100
AcDbEntity
  8
0
  6
HIDDEN
 62
     7
370
     0
100
AcDbLine
 10
125.4999002457
 20
125.9874319806
 30
0.0
 11
122.499899754
 21
125.9874319806
 31
0.0
  0
LINE
  5
12B
330
1F
100
AcDbEntity
  8
0
  6
HIDDEN
 62
     7
370
     0
100
AcDbLine
 10
113.6498998866
 20
107.4874326735
 30
0.0
 11
114.1498999686
 21
107.9874318241
 31
0.0
  0
LINE
  5
12C
330
1F
100
AcDbEntity
  8
0
  6
HIDDEN
 62
     7
370
     0
100
AcDbLine
 10
114.1498999686
 20
124.987432748
 30
0.0
 11
113.6498998866
 21
125.4874318986
 31
0.0
  0
LINE
  5
12D
330
1F
100
AcDbEntity
  8
0
  6
HIDDEN
 62
     7
370
     0
100
AcDbLine
 10
114.1498999686
 20
107.9874318241
 30
0.0
 11
122.499899754
 21
107.9874318241
 31
0.0
  0
LINE
  5
12E
330
1F
100
AcDbEntity
  8
0
  6
HIDDEN
 62
     7
370
     0
100
AcDbLine
 10
122.499899754
 20
124.987432748
 30
0.0
 11
114.1498999686
 21
124.987432748
 31
0.0
  0
LINE
  5
12F
330
1F
100
AcDbEntity
  8
0
  6
HIDDEN
 62
     7
370
     0
100
AcDbLine
 10
108.6498999984
 20
147.9874327927
 30
0.0
 11
108.6498999984
 21
142.887432143
 31
0.0
  0
ARC
  5
130
330
1F
100
AcDbEntity
  8
0
  6
HIDDEN
 62
     7
370
     0
100
AcDbCircle
 10
193.0999000252
 20
111.587432286
 30
0.0
 40
0.4000000000000057
100
AcDbArc
 50
180.0
 51
270.0
  0
ARC
  5
131
330
1F
100
AcDbEntity
  8
0
  6
HIDDEN
 62
     7
370
     0
100
AcDbCircle
 10
193.0999000252
 20
121.387432286
 30
0.0
 40
0.4000000000000057
100
AcDbArc
 50
90.0
 51
180.0
  0
LINE
  5
132
330
1F
100
AcDbEntity
  8
0
  6
HIDDEN
 62
     7
370
     0
100
AcDbLine
 10
193.0999008954
 20
111.1874324417
 30
0.0
 11
195.8051247538
 21
111.1874324417
 31
0.0
  0
LINE
  5
133
330
1F
100
AcDbEntity
  8
0
  6
HIDDEN
 62
     7
370
     0
100
AcDbLine
 10
195.8051247538
 20
121.7874321303
 30
0.0
 11
193.0999008954
 21
121.7874321303
 31
0.0
  0
ARC
  5
134
330
1F
100
AcDbEntity
  8
0
  6
HIDDEN
 62
     7
370
     0
100
AcDbCircle
 10
233.3999000252
 20
111.187432286
 30
0.0
 40
0.2999999999999972
100
AcDbArc
 50
0.0
 51
90.0
  0
ARC
  5
135
330
1F
100
AcDbEntity
  8
0
  6
HIDDEN
 62
     7
370
     0
100
AcDbCircle
 10
233.3999000252
 20
121.787432286
 30
0.0
 40
0.2999999999999972
100
AcDbArc
 50
270.0
 51
0.0
  0
ARC
  5
136
330
1F
100
AcDbEntity
  8
0
  6
HIDDEN
 62
     7
370
     0
100
AcDbCircle
 10
195.8051260071
 20
111.587432286
 30
0.0
 40
0.3999999999999915
100
AcDbArc
 50
270.0
 51
290.0
  0
ARC
  5
137
330
1F
100
AcDbEntity
  8
0
  6
HIDDEN
 62
     7
370
     0
100
AcDbCircle
 10
195.8051260071
 20
121.387432286
 30
0.0
 40
0.3999999999999915
100
AcDbArc
 50
70.0
 51
90.0
  0
LINE
  5
138
330
1F
100
AcDbEntity
  8
0
  6
HIDDEN
 62
     7
370
     0
100
AcDbLine
 10
195.9419323147
 20
111.2115550934
 30
0.0
 11
196.6999022306
 21
111.4874323978
 31
0.0
  0
LINE
  5
139
330
1F
100
AcDbEntity
  8
0
  6
HIDDEN
 62
     7
370
     0
100
AcDbLine
 10
196.6999022306
 20
121.4874321743
 30
0.0
 11
195.9419323147
 21
121.7633094786
 31
0.0
  0
LINE
  5
13A
330
1F
100
AcDbEntity
  8
0
  6
HIDDEN
 62
     7
370
     0
100
AcDbLine
 10
196.6999022306
 20
111.4874323978
 30
0.0
 11
233.3999050797
 21
111.4874323978
 31
0.0
  0
LINE
  5
13B
330
1F
100
AcDbEntity
  8
0
  6
HIDDEN
 62
     7
370
     0
100
AcDbLine
 10
233.3999050797
 20
121.4874321743
 30
0.0
 11
214.2473904431
 21
121.4874321743
 31
0.0
  0
LINE
  5
13C
330
1F
100
AcDbEntity
  8
0
  6
HIDDEN
 62
     7
370
     0
100
AcDbLine
 10
214.15290218
 20
121.4874321743
 30
0.0
 11
196.6999022306
 21
121.4874321743
 31
0.0
  0
LINE
  5
13D
330
1F
100
AcDbEntity
  8
0
  6
HIDDEN
 62
     7
370
     0
100
AcDbLine
 10
98.8843378626
 20
92.4080610423
 30
0.0
 11
98.4499056839
 21
92.8871277868
 31
0.0
  0
LINE
  5
13E
330
1F
100
AcDbEntity
  8
0
  6
HIDDEN
 62
     7
370
     0
100
AcDbLine
 10
90.9499021262
 20
93.3088157474
 30
0.0
 11
90.4674686507
 21
92.8297490029
 31
0.0
  0
LINE
  5
13F
330
1F
100
AcDbEntity
  8
0
  6
HIDDEN
 62
     7
370
     0
100
AcDbLine
 10
90.4673466474
 20
140.1451099812
 30
0.0
 11
90.9498974696
 21
139.66598922
 31
0.0
  0
LINE
  5
140
330
1F
100
AcDbEntity
  8
0
  6
HIDDEN
 62
     7
370
     0
100
AcDbLine
 10
98.449900096
 20
140.0876883565
 30
0.0
 11
98.8844421708
 21
140.566807255
 31
0.0
  0
LINE
  5
141
330
1F
100
AcDbEntity
  8
0
  6
HIDDEN
 62
     7
370
     0
100
AcDbLine
 10
125.4999002457
 20
112.2874324358
 30
0.0
 11
192.6999015749
 21
112.2874324358
 31
0.0
  0
LINE
  5
142
330
1F
100
AcDbEntity
  8
0
  6
HIDDEN
 62
     7
370
     0
100
AcDbLine
 10
192.6999015749
 20
120.6874321363
 30
0.0
 11
125.4999002457
 21
120.6874321363
 31
0.0
  0
LINE
  5
143
330
1F
100
AcDbEntity
  8
0
  6
HIDDEN
 62
     7
370
     0
100
AcDbLine
 10
98.449900096
 20
136.4245042353
 30
0.0
 11
98.449900096
 21
140.0871351509
 31
0.0
  0
LINE
  5
144
330
1F
100
AcDbEntity
  8
0
  6
HIDDEN
 62
     7
370
     0
100
AcDbLine
 10
90.9499002636
 20
139.6657340376
 30
0.0
 11
90.9499002636
 21
136.4855691938
 31
0.0
  0
LINE
  5
145
330
1F
100
AcDbEntity
  8
0
  6
HIDDEN
 62
     7
370
     0
100
AcDbLine
 10
98.449900096
 20
92.8876102118
 30
0.0
 11
98.449900096
 21
96.5503603368
 31
0.0
  0
LINE
  5
146
330
1F
100
AcDbEntity
  8
0
  6
HIDDEN
 62
     7
370
     0
100
AcDbLine
 10
90.9499002636
 20
96.4892953782
 30
0.0
 11
90.9499002636
 21
93.309137985
 31
0.0
  0
DIMENSION
  5
147
330
1F
100
AcDbEntity
  8
VERMASSUNG
100
AcDbDimension
  2
_D
 10
241.1294691224
 20
111.487432286
 30
0.0
 11
241.1294691224
 21
116.487432286
 31
0.0
 70
   160
  1
%%c<>
 71
     2
 42
-1.0
  3
SLDDIMSTYLE0
100
AcDbAlignedDimension
 13
233.3999000252
 23
121.487432286
 33
0.0
 14
233.3999000252
 24
111.487432286
 34
0.0
 50
90.0
100
AcDbRotatedDimension
  0
DIMENSION
  5
153
330
1F
100
AcDbEntity
  8
VERMASSUNG
100
AcDbDimension
  2
_D_1
 10
247.1294691224
 20
98.987432286
 30
0.0
 11
247.1294691224
 21
116.487432286
 31
0.0
 70
   160
  1
%%c<>
 71
     2
 42
-1.0
  3
SLDDIMSTYLE0
100
AcDbAlignedDimension
 13
222.9773654226
 23
133.987432286
 33
0.0
 14
222.9773654226
 24
98.987432286
 34
0.0
 50
90.0
100
AcDbRotatedDimension
  0
DIMENSION
  5
15E
330
1F
100
AcDbEntity
  8
VERMASSUNG
100
AcDbDimension
  2
_D_2
 10
66.1153846154
 20
84.987432286
 30
0.0
 11
66.1153846154
 21
116.487432286
 31
0.0
 70
   160
  1
HSK A %%c<>
 71
     2
 42
-1.0
  3
SLDDIMSTYLE0
100
AcDbAlignedDimension
 13
103.9999000252
 23
147.987432286
 33
0.0
 14
103.9999000252
 24
84.987432286
 34
0.0
 50
90.0
100
AcDbRotatedDimension
  0
DIMENSION
  5
16A
330
1F
100
AcDbEntity
  8
VERMASSUNG
100
AcDbDimension
  2
_D_3
 10
233.6999000252
 20
153.3864572048
 30
0.0
 11
181.6749000252
 21
153.3864572048
 31
0.0
 70
   160
  1
<>
 71
     2
 42
-1.0
  3
SLDDIMSTYLE0
100
AcDbAlignedDimension
 13
129.6499000252
 23
146.3338726098
 33
0.0
 14
233.6999000252
 24
127.7132917644
 34
0.0
100
AcDbRotatedDimension
  0
DIMENSION
  5
174
330
1F
100
AcDbEntity
  8
VERMASSUNG
100
AcDbDimension
  2
_D_4
 10
233.6999000252
 20
159.3864572048
 30
0.0
 11
168.6999000252
 21
159.3864572048
 31
0.0
 70
   160
  1
<>
 71
     2
 42
-1.0
  3
SLDDIMSTYLE0
100
AcDbAlignedDimension
 13
103.6999000252
 23
147.687432286
 33
0.0
 14
233.6999000252
 24
127.7132917644
 34
0.0
100
AcDbRotatedDimension
  0
DIMENSION
  5
17E
330
1F
100
AcDbEntity
  8
VERMASSUNG
100
AcDbDimension
  2
_D_5
 10
233.6999000252
 20
165.3864572048
 30
0.0
 11
152.7499000252
 21
165.3864572048
 31
0.0
 70
   160
  1
<>
 71
     2
 42
-1.0
  3
SLDDIMSTYLE0
100
AcDbAlignedDimension
 13
71.7999000252
 23
136.1781100325
 33
0.0
 14
233.6999000252
 24
127.7132917644
 34
0.0
100
AcDbRotatedDimension
  0
LINE
  5
188
330
1F
100
AcDbEntity
  8
VERMASSUNG
  6
CENTERX2
370
     0
100
AcDbLine
 10
67.9719393283
 20
116.487432286
 30
0.0
 11
235.5260021668
 21
116.487432286
 31
0.0
  0
OLE2FRAME
  5
189
330
1F
100
AcDbEntity
  8
0
100
AcDbOle2Frame
 70
     2
  3
Paintbrush-Bild
 10
13.8511154363
 20
38.264191557
 30
0.0
 11
51.6290888628
 21
31.9806341108
 31
0.0
 71
     2
 72
     0
 73
     1
 90
    12928
310
80552BED0767C5B32B40DDAF6807D121434000000000000000006FFBDDFB85D0
310
4940DDAF6807D121434000000000000000006FFBDDFB85D04940416F4BD60AFB
310
3F4000000000000000002BED0767C5B32B40416F4BD60AFB3F40000000000000
310
0000000000000100000000010000010000000100000000000100000000320000
310
D0CF11E0A1B11AE1000000000000000000000000000000003E000300FEFF0900
310
0600000000000000000000000100000001000000000000000010000002000000
310
01000000FEFFFFFF0000000000000000FFFFFFFFFFFFFFFFFFFFFFFFFFFFFFFF
310
FFFFFFFFFFFFFFFFFFFFFFFFFFFFFFFFFFFFFFFFFFFFFFFFFFFFFFFFFFFFFFFF
310
FFFFFFFFFFFFFFFFFFFFFFFFFFFFFFFFFFFFFFFFFFFFFFFFFFFFFFFFFFFFFFFF
310
FFFFFFFFFFFFFFFFFFFFFFFFFFFFFFFFFFFFFFFFFFFFFFFFFFFFFFFFFFFFFFFF
310
FFFFFFFFFFFFFFFFFFFFFFFFFFFFFFFFFFFFFFFFFFFFFFFFFFFFFFFFFFFFFFFF
310
FFFFFFFFFFFFFFFFFFFFFFFFFFFFFFFFFFFFFFFFFFFFFFFFFFFFFFFFFFFFFFFF
310
FFFFFFFFFFFFFFFFFFFFFFFFFFFFFFFFFFFFFFFFFFFFFFFFFFFFFFFFFFFFFFFF
310
FFFFFFFFFFFFFFFFFFFFFFFFFFFFFFFFFFFFFFFFFFFFFFFFFFFFFFFFFFFFFFFF
310
FFFFFFFFFFFFFFFFFFFFFFFFFFFFFFFFFFFFFFFFFFFFFFFFFFFFFFFFFFFFFFFF
310
FFFFFFFFFFFFFFFFFFFFFFFFFFFFFFFFFFFFFFFFFFFFFFFFFFFFFFFFFFFFFFFF
310
FFFFFFFFFFFFFFFFFFFFFFFFFFFFFFFFFFFFFFFFFFFFFFFFFFFFFFFFFFFFFFFF
310
FFFFFFFFFFFFFFFFFFFFFFFFFFFFFFFFFFFFFFFFFFFFFFFFFFFFFFFFFFFFFFFF
310
FFFFFFFFFFFFFFFFFFFFFFFFFFFFFFFFFFFFFFFFFFFFFFFFFFFFFFFFFFFFFFFF
310
FFFFFFFFFFFFFFFFFFFFFFFFFFFFFFFFFFFFFFFFFFFFFFFFFFFFFFFFFFFFFFFF
310
FDFFFFFFFEFFFFFFFEFFFFFFFEFFFFFF05000000060000000700000008000000
310
090000000A0000000B0000000C0000000D0000000E0000000F00000010000000
310
11000000120000001300000014000000150000001600000017000000FEFFFFFF
310
FFFFFFFFFFFFFFFFFFFFFFFFFFFFFFFFFFFFFFFFFFFFFFFFFFFFFFFFFFFFFFFF
310
FFFFFFFFFFFFFFFFFFFFFFFFFFFFFFFFFFFFFFFFFFFFFFFFFFFFFFFFFFFFFFFF
310
FFFFFFFFFFFFFFFFFFFFFFFFFFFFFFFFFFFFFFFFFFFFFFFFFFFFFFFFFFFFFFFF
310
FFFFFFFFFFFFFFFFFFFFFFFFFFFFFFFFFFFFFFFFFFFFFFFFFFFFFFFFFFFFFFFF
310
FFFFFFFFFFFFFFFFFFFFFFFFFFFFFFFFFFFFFFFFFFFFFFFFFFFFFFFFFFFFFFFF
310
FFFFFFFFFFFFFFFFFFFFFFFFFFFFFFFFFFFFFFFFFFFFFFFFFFFFFFFFFFFFFFFF
310
FFFFFFFFFFFFFFFFFFFFFFFFFFFFFFFFFFFFFFFFFFFFFFFFFFFFFFFFFFFFFFFF
310
FFFFFFFFFFFFFFFFFFFFFFFFFFFFFFFFFFFFFFFFFFFFFFFFFFFFFFFFFFFFFFFF
310
FFFFFFFFFFFFFFFFFFFFFFFFFFFFFFFFFFFFFFFFFFFFFFFFFFFFFFFFFFFFFFFF
310
FFFFFFFFFFFFFFFFFFFFFFFFFFFFFFFFFFFFFFFFFFFFFFFFFFFFFFFFFFFFFFFF
310
FFFFFFFFFFFFFFFFFFFFFFFFFFFFFFFFFFFFFFFFFFFFFFFFFFFFFFFFFFFFFFFF
310
FFFFFFFFFFFFFFFFFFFFFFFFFFFFFFFFFFFFFFFFFFFFFFFFFFFFFFFFFFFFFFFF
310
FFFFFFFFFFFFFFFFFFFFFFFFFFFFFFFFFFFFFFFFFFFFFFFFFFFFFFFFFFFFFFFF
310
52006F006F007400200045006E00740072007900000000000000000000000000
310
0000000000000000000000000000000000000000000000000000000000000000
310
16000500FFFFFFFFFFFFFFFF020000000A00030000000000C000000000000046
310
0000000000000000000000000080A8AA79B6CD0103000000C000000000000000
310
01004F006C006500000000000000000000000000000000000000000000000000
310
0000000000000000000000000000000000000000000000000000000000000000
310
0A000200FFFFFFFFFFFFFFFFFFFFFFFF00000000000000000000000000000000
310
0000000000000000000000000000000000000000000000001400000000000000
310
010043006F006D0070004F0062006A0000000000000000000000000000000000
310
0000000000000000000000000000000000000000000000000000000000000000
310
120002010100000003000000FFFFFFFF00000000000000000000000000000000
310
0000000000000000000000000000000000000000010000004D00000000000000
310
01004F006C006500310030004E00610074006900760065000000000000000000
310
0000000000000000000000000000000000000000000000000000000000000000
310
1A000200FFFFFFFFFFFFFFFFFFFFFFFF00000000000000000000000000000000
310
0000000000000000000000000000000000000000040000002426000000000000
310
FEFFFFFF02000000FEFFFFFFFFFFFFFFFFFFFFFFFFFFFFFFFFFFFFFFFFFFFFFF
310
FFFFFFFFFFFFFFFFFFFFFFFFFFFFFFFFFFFFFFFFFFFFFFFFFFFFFFFFFFFFFFFF
310
FFFFFFFFFFFFFFFFFFFFFFFFFFFFFFFFFFFFFFFFFFFFFFFFFFFFFFFFFFFFFFFF
310
FFFFFFFFFFFFFFFFFFFFFFFFFFFFFFFFFFFFFFFFFFFFFFFFFFFFFFFFFFFFFFFF
310
FFFFFFFFFFFFFFFFFFFFFFFFFFFFFFFFFFFFFFFFFFFFFFFFFFFFFFFFFFFFFFFF
310
FFFFFFFFFFFFFFFFFFFFFFFFFFFFFFFFFFFFFFFFFFFFFFFFFFFFFFFFFFFFFFFF
310
FFFFFFFFFFFFFFFFFFFFFFFFFFFFFFFFFFFFFFFFFFFFFFFFFFFFFFFFFFFFFFFF
310
FFFFFFFFFFFFFFFFFFFFFFFFFFFFFFFFFFFFFFFFFFFFFFFFFFFFFFFFFFFFFFFF
310
FFFFFFFFFFFFFFFFFFFFFFFFFFFFFFFFFFFFFFFFFFFFFFFFFFFFFFFFFFFFFFFF
310
FFFFFFFFFFFFFFFFFFFFFFFFFFFFFFFFFFFFFFFFFFFFFFFFFFFFFFFFFFFFFFFF
310
FFFFFFFFFFFFFFFFFFFFFFFFFFFFFFFFFFFFFFFFFFFFFFFFFFFFFFFFFFFFFFFF
310
FFFFFFFFFFFFFFFFFFFFFFFFFFFFFFFFFFFFFFFFFFFFFFFFFFFFFFFFFFFFFFFF
310
FFFFFFFFFFFFFFFFFFFFFFFFFFFFFFFFFFFFFFFFFFFFFFFFFFFFFFFFFFFFFFFF
310
FFFFFFFFFFFFFFFFFFFFFFFFFFFFFFFFFFFFFFFFFFFFFFFFFFFFFFFFFFFFFFFF
310
FFFFFFFFFFFFFFFFFFFFFFFFFFFFFFFFFFFFFFFFFFFFFFFFFFFFFFFFFFFFFFFF
310
FFFFFFFFFFFFFFFFFFFFFFFFFFFFFFFFFFFFFFFFFFFFFFFFFFFFFFFFFFFFFFFF
310
0100000200000000000000000000000000000000000000000000000000000000
310
0000000000000000000000000000000000000000000000000000000000000000
310
0100FEFF030A0000FFFFFFFF0A00030000000000C00000000000004607000000
310
5042727573680007000000504272757368000700000050427275736800F439B2
310
7100000000000000000000000000000000000000000000000000000000000000
310
0000000000000000000000000000000000000000000000000000000000000000
310
0000000000000000000000000000000000000000000000000000000000000000
310
0000000000000000000000000000000000000000000000000000000000000000
310
0000000000000000000000000000000000000000000000000000000000000000
310
0000000000000000000000000000000000000000000000000000000000000000
310
0000000000000000000000000000000000000000000000000000000000000000
310
0000000000000000000000000000000000000000000000000000000000000000
310
0000000000000000000000000000000000000000000000000000000000000000
310
0000000000000000000000000000000000000000000000000000000000000000
310
0000000000000000000000000000000000000000000000000000000000000000
310
0000000000000000000000000000000000000000000000000000000000000000
310
20260000424D0E260000000000003E00000028000000B40200006E0000000100
310
01000000000000000000130B0000130B00000200000002000000000000FFFFFF
310
FFFFFFFFFFFFFFFFFFFFFFFFFFFFFFFFFFFFFFFFFFFFFFFFFFFFFFFFFFFFFFFF
310
FFFFFFFFFFFFFFFFFFFFFFFFFFFFFFFFFFFFFFFFFFFFFFFFFFFFFFFFFFFFFFFF
310
FFFFFFFFFFFFFFFFFFFFFFFFFFFFFFFFFFFFFFFFFFFFFFFFF000FFFFFFFFFFFF
310
FFFFFFFFFFFFFFFFFFFFFFFFFFFFFFFFFFFFFFFFFFFFFFFFFFFFFFFFFFFFFFFF
310
FFFFFFFFFFFFFFFFFFFFFFFFFFFFFFFFFFFFFFFFFFFFFFFFFFFFFFFFFFFFFFFF
310
FFFFFFFFFFFFFFFFFFFFFFFFFFFFFFFFF000FFFFFFFFFFFFFFFFFFFFFFFFFFFF
310
FFFFFFFFFFFFFFFFFFFFFFFFFFFFFFFFFFFFFFFFFFFFFFFFFFFFFFFFFFFFFFFF
310
FFFFFFFFFFFFFFFFFFFFFFFFFFFFFFFFFFFFFFFFFFFFFFFFFFFFFFFFFFFFFFFF
310
FFFFFFFFFFFFFFFFF000FFFFFFFFFFFFFFFFFFFFFFFFFFFFFFFFFFFFFFFFFFFF
310
FFFFFFFFFFFFFFFFFFFFFFFFFFFFFFFFFFFFFFFFFFFFFFFFFFFFFFFFFFFFFFFF
310
FFFFFFFFFFFFFFFFFFFFFFFFFFFFFFFFFFFFFFFFFFFFFFFFFFFFFFFFFFFFFFFF
310
F000FFFFFFFFFFFFFFFFFFFFFFFFFFFFFFFFFFFFFFFFFFFFFFFFFFFFFFFFFFFF
310
FFFFFFFFFFFFFFFFFFFFFFFFFFFFFFFFFFFFFFFFFFFFFFFFFFFFFFFFFFFFFFFF
310
FFFFFFFFFFFFFFFFFFFFFFFFFFFFFFFFFFFFFFFFFFFFFFFFF000FFFFFFFFFFFF
310
FFFFFFFFFFFFFFFFFFFFFFFFFFFFFFFFFFFFFFFFFFFFFFFFFFFFFFFFFFFFFFFF
310
FFFFFFFFFFFFFFFFFFFFFFFFFFFFFFFFFFFFFFFFFFFFFFFFFFFFFFFFFFFFFFFF
310
FFFFFFFFFFFFFFFFFFFFFFFFFFFFFFFFF000FFFFFFFFFFFFFFFFFFFFFFFFFFFF
310
FFFFFFFFFFFFFFFFFFFFFFFFFFFFFFFFFFFFFFFFFFFFFFFFFFFFFFFFFFFFFFFF
310
FFFFFFFFFFFFFFFFFFFFFFFFFFFFFFFFFFFFFFFFFFFFFFFFFFFFFFFFFFFFFFFF
310
FFFFFFFFFFFFFFFFF000FFFFFFFFFFFFFFFFFFFFFFFFFFFFFFFFFFFFFFFFFFFF
310
FFFFFFFFFFFFFFFFFFFFFFFFFFFFFFFFFFFFFFFFFFFFFFFFFFFFFFFFFFFFFFFF
310
FFFFFFFFFFFFFFFFFFFFFFFFFFFFFFFFFFFFFFFFFFFFFFFFFFFFFFFFFFFFFFFF
310
F000FFFFFFFFFFFFFFFFFFFFFFFFFFFFFFFFFFFFFFFFFFFFFFFFFFFFFFFFFFFF
310
FFFFFFFFFFFFFFFFFFFFFFFFFFFFFFFFFFFFFFFFFFFFFFFFFFFFFFFFFFFFFFFF
310
FFFFFFFFFFFFFFFFFFFFFFFFFFFFFFFFFFFFFFFFFFFFFFFFF000FFFFFFFFFFFF
310
FFFFFFFFFFFFFFFFFFFFFFFFFFFFFFFFFFFFFFFFFFFFFFFFFFFFFFFFFFFFFFFF
310
FFFFFFFFFFFFFFFFFFFFFFFFFFFFFFFFFFFFFFFFFFFFFFFFFFFFFFFFFFFFFFFF
310
FFFFFFFFFFFFFFFFFFFFFFFFFFFFFFFFF000FFFFFFFFFFFFFFFFFFFFFFFFFFFF
310
FFFFFFFFFFFFFFFFFFFFFFFFFFFFFFFFFFFFFFFFFFFFFFFFFFFFFFFFFFFFFFFF
310
FFFFFFFFFFFFFFFFFFFFFFFFFFFFFFFFFFFFFFFFFFFFFFFFFFFFFFFFFFFFFFFF
310
FFFFFFFFFFFFFFFFF000FFFFFFFFFFFFFFFFFFFFFFFFFFFFFFFFFFFFFFFFFFFF
310
FFFFFFFFFFFFFFFFFFFFFFFFFFFFFFFFFFFFFFFFFFFFFFFFFFFFFFFFFFFFFFFF
310
FFFFFFFFFFFFFFFFFFFFFFFFFFFFFFFFFFFFFFFFFFFFFFFFFFFFFFFFFFFFFFFF
310
F000FFFFFFFFFFFFFFFFFFFFFFFFFFFFFFFFFFFFFFFFFFFFFFFFFFFFFFFFFFFF
310
FFFFFFFFFFFFFFFFFFFFFFFFFFFFFFFFFFFFFFFFFFFFFFFFFFFFFFFFFFFFFFFF
310
FFFFFFFFFFFFFFFFFFFFFFFFFFFFFFFFFFFFFFFFFFFFFFFFF000FFFFFFFFFFFF
310
FFFFFFFFFFFFFFFFFFFFFFFFFFFFFFFFFFFFFFFFFFFFFFFFFFFFFFFFFFFFFFFF
310
FFFFFFFFFFFFFFFFFFFFFFFFFFFFFFFFFFFFFFFFFFFFFFFFFFFFFFFFFFFFFFFF
310
FFFFFFFFFFFFFFFFFFFFFFFFFFFFFFFFF000FFFFFFFFFFFFFFFFFFFFFFFFFFFF
310
FFFFFFFFFFFFFFFFFFFFFFFFFFFFFFFFFFFFFFFFFFFFFFFFFFFFFFFFFFFFFFFF
310
FFFFFFFFFFFFFFFFFFFFFFFFFFFFFFFFFFFFFFFFFFFFFFFFFFFFFFFFFFFFFFFF
310
FFFFFFFFFFFFFFFFF000FFFFFFFFFFFFFFFFFFFFFFFFFFFFFFFFFFFFFFFFFFFF
310
FFFFFFFFFFFFFFFFFFFFFFFFFFFFFFFFFFFFFFFFFFFFFFFFFFFFFFFFFFFFFFFF
310
FFFFFFFFFFFFFFFFFFFFFFFFFFFFFFFFFFFFFFFFFFFFFFFFFFFFFFFFFFFFFFFF
310
F000FFFFFFFFFFFFFFFFFFFFFFFFFFFFFFFFFFFFFFFFFFFFFFFFFFFFFFFFFFFF
310
FFFFFFFFFFFFFFFFFFFFFFFFFFFFFFFFFFFFFFFFFFFFFFFFFFFFFFFFFFFFFFFF
310
FFFFFFFFFFFFFFFFFFFFFFFFFFFFFFFFFFFFFFFFFFFFFFFFF000FFFFFFFFFFFF
310
FFFFFFFFFFFFFFFFFFFFFFFFFFFFFFFFFFFFFFFFFFFFFFFFFFFFFFFFFFFFFFFF
310
FFFFFFFFFFFFFFFFFFFFFFFFFFFFFFFFFFFFFFFFFFFFFFFFFFFFFFFFFFFFFFFF
310
FFFFFFFFFFFFFFFFFFFFFFFFFFFFFFFFF000FFFFFFFFFFFFFFFFFFFFFFFFFFFF
310
FFFFFFFFFFFFFFFFFFFFFFFFFFFFFFFFFFFFFFFFFFFFFFFFFFFFFFFFFFFFFFFF
310
FFFFFFFFFFFFFFFFFFFFFFFFFFFFFFFFFFFFFFFFFFFFFFFFFFFFFFFFFFFFFFFF
310
FFFFFFFFFFFFFFFFF000FFFFF80003FFFFFFFFFFFFFFFFFFFFFFFFFFFFFFFFFF
310
FFFFF00007FFFFFFFFFF00007FFFFFF800000000000000007FFFFFFFFFFFFFFF
310
FFFFFFFC001FFFFFFFFFFFFFFC001FFFFFFFFFFFFFFFFFFFFFFFFFFE0007FFFF
310
F000FFFF8000007FFFFFFFF8000FFFFFC0007FFFFF80007FFFFF0000007FFFFF
310
FFF8000007FFFFF800000000000000007FFFFFF0001FFFFFFFFFFFC00001FFFF
310
FFFFFFFFC00001FFFFFFFF000000000003FFFFE000007FFFF000FFFE0000000F
310
FFFFFFF0000FFFFF80007FFFFF80007FFFFC0000001FFFFFFFC0000001FFFFF8
310
00000000000000007FFFFFF0001FFFFFFFFFFE0000003FFFFFFFFFFE0000003F
310
FFFFFF000000000003FFFF0000000FFFF000FFF800000003FFFFFFF00007FFFF
310
80007FFFFF80007FFFF000000007FFFFFF000000003FFFF80000000000000000
310
7FFFFFF0001FFFFFFFFFF80000000FFFFFFFFFF80000000FFFFFFF0000000000
310
03FFFC00000003FFF000FFE000000000FFFFFFF00007FFFF80003FFFFF80007F
310
FFC000000001FFFFFC000000001FFFF800000000000000007FFFFFF0001FFFFF
310
FFFFE000000003FFFFFFFFE000000003FFFFFF000000000003FFF000000000FF
310
F000FF80000000007FFFFFF00007FFFF80003FFFFF80007FFF8000000000FFFF
310
F80000000007FFF800000000000000007FFFFFF0001FFFFFFFFFC000000001FF
310
FFFFFFC000000001FFFFFF000000000003FFC0000000007FF000FF0000000000
310
3FFFFFE00007FFFF00003FFFFF80007FFE00000000003FFFF00000000003FFF8
310
00000000000000007FFFFFF0001FFFFFFFFF8000000000FFFFFFFF8000000000
310
FFFFFF000000000003FF80000000003FF000FE00000000001FFFFFE00003FFFF
310
00003FFFFF80007FFC00000000001FFFE00000000001FFF8000001FFFE000000
310
7FFFFFF0001FFFFFFFFE00000000003FFFFFFE00000000003FFFFF0000000000
310
03FF00000000001FF000FC00000000000FFFFFE00003FFFF00001FFFFF80007F
310
F800000000001FFFC00000000000FFF8000001FFFE0000007FFFFFF0001FFFFF
310
FFFC00000000001FFFFFFC00000000001FFFFF000000000003FE00000000000F
310
F000F8000000000007FFFFE00003FFFF00001FFFFF80007FF800000000000FFF
310
800000000000FFF8000001FFFE0000007FFFFFF0001FFFFFFFF800000000000F
310
FFFFF800000000000FFFFF000000000003FC000000000007F000F80000000000
310
03FFFFC00003FFFE00001FFFFF80007FF0000000000007FF0000000000007FF8
310
000001FFFE0000007FFFFFF0001FFFFFFFF0000000000007FFFFF00000000000
310
07FFFF000000000003F8000000000003F000F0000000000003FFFFC00001FFFE
310
00001FFFFF80007FE0000000000007FE0000000000003FF8000001FFFE000000
310
7FFFFFF0001FFFFFFFF0000000000007FFFFF0000000000007FFFF0000000000
310
03F800001F800003F000E00001FFF00001FFFFC00001FFFE00000FFFFF80007F
310
E00001FFE00003FE00001FFF00003FF8000001FFFE0000007FFFFFF0001FFFFF
310
FFE000003E000003FFFFE000003E000003FFFF000000000003F00001FFF80001
310
F000E00007FFFC0001FFFFC00001FFFE00000FFFFF80007FC0000FFFFC0003FC
310
0000FFFFC0001FF8000001FFFE0000007FFFFFF0001FFFFFFFC00003FFE00001
310
FFFFC00003FFE00001FFFF0001FFFFFFFFF00007FFFE0001F000E0000FFFFF00
310
00FFFF800001FFFC00000FFFFF80007FC0001FFFFE0001FC0001FFFFE0001FF8
310
000001FFFE0000007FFFFFF0001FFFFFFF80000FFFF80000FFFF80000FFFF800
310
00FFFF0003FFFFFFFFE0000FFFFF8000F000C0003FFFFF8000FFFF800000FFFC
310
000007FFFF80007F80003FFFFF0001FC0003FFFFF0001FF8000001FFFE000000
310
7FFFFFF0001FFFFFFF80003FFFFE0000FFFF80003FFFFE0000FFFF0003FFFFFF
310
FFE0003FFFFF8000F000C0003FFFFF8000FFFF800000FFFC000007FFFF80007F
310
80007FFFFF8001F80007FFFFF8000FF8000001FFFE0000007FFFFFF0001FFFFF
310
FF00007FFFFF00007FFF00007FFFFF00007FFF0003FFFFFFFFE0003FFFFFC000
310
F000C0007FFFFFC000FFFF000000FFFC000007FFFF80007F8000FFFFFF8000F8
310
000FFFFFF8000FF8000001FFFE0000007FFFFFF0001FFFFFFF0000FFFFFF8000
310
7FFF0000FFFFFF80007FFF0003FFFFFFFFC0007FFFFFC00070008000FFFFFFC0
310
00FFFF000000FFF8000007FFFF80007F8000FFFFFF8000F8000FFFFFF8000FF8
310
000001FFFE0000007FFFFFF0001FFFFFFE0001FFFFFFC0003FFE0001FFFFFFC0
310
003FFF0003FFFFFFFFC0007FFFFFE00070008000FFFFFFC0007FFF0000007FF8
310
000003FFFF80007F0001FFFFFF8000F8000FFFFFF8000FF8000001FFFE000000
310
7FFFFFF0001FFFFFFE0001FFFFFFC0003FFE0001FFFFFFC0003FFF0003FFFFFF
310
FFC000FFFFFFE00070008000FFFFFFC0007FFF0000007FF8000003FFFF80007F
310
0001FFFFFF8000F8001FFFFFF8000FF8000001FFFE0000007FFFFFF0001FFFFF
310
FE0003FFFFFFE0003FFE0003FFFFFFE0003FFF0003FFFFFFFFC000FFFFFFE000
310
70008000FFFFFFC0007FFE0000007FF8000003FFFF80007F0001FFFFFF8000F0
310
001FFFFFF8000FF8000001FFFE0000007FFFFFF0001FFFFFFC0003FFFFFFE000
310
1FFC0003FFFFFFE0001FFF0003FFFFFFFFC000FFFFFFC00070008000FFFFFF80
310
007FFE0000007FF0000003FFFF80007F0001FFFFFF0000F0001FFFFFF8000FF8
310
000001FFFE0000007FFFFFF0001FFFFFFC0007FFFFFFF0001FFC0007FFFFFFF0
310
001FFF0003FFFFFFFFC000FFFFFFC00070008001FFFFFF0000FFFE0000003FF0
310
000001FFFF80007F0001FFFFFF0000F8001FFFFFF0000FF8000001FFFE000000
310
7FFFFFF0001FFFFFFC0007FFFFFFF0001FFC0007FFFFFFF0001FFF0003FFFFFF
310
FFC001FFFFFF80007000FFFFFFFFFE0000FFFE0008003FF0008001FFFF80007F
310
FFFFFFFFFC0000FFFFFFFFFFE0000FF8000001FFFE0000007FFFFFF0001FFFFF
310
F8000FFFFFFFF8000FF8000FFFFFFFF8000FFF0003FFFFFFFFFFFFFFFFFF0000
310
7000FFFFFFFFFC0000FFFC0008003FF0008001FFFF80007FFFFFFFFFF80001FF
310
FFFFFFFF80000FF8000001FFFE0000007FFFFFF0001FFFFFF8000FFFFFFFF800
310
0FF8000FFFFFFFF8000FFF0003FFFFFFFFFFFFFFFFFE0000F000FFFFFFFFE000
310
00FFFC000C003FE000C001FFFF80007FFFFFFFFFC00001FFFFFFFFFE00001FF8
310
000001FFFE0000007FFFFFF0001FFFFFF8000FFFFFFFF8000FF8000FFFFFFFF8
310
000FFF0003FFFFFFFFFFFFFFFFF00000F000FFFFFFFE000001FFFC000C001FE0
310
00C000FFFF80007FFFFFFFFE000001FFFFFFFFE000001FF80FFFFFFFFFFFFFC0
310
7FFFFFF0001FFFFFF8000FFFFFFFF8000FF8000FFFFFFFF8000FFF0003FFFFFF
310
FFFFFFFFFF800000F000FFFFFFC0000001FFFC001C001FE001C000FFFF80007F
310
FFFFFF80000003FFFFFFF80000001FF80FFFFFFFFFFFFFC07FFFFFF0001FFFFF
310
F8001FFFFFFFFC000FF8001FFFFFFFFC000FFF0003FFFFFFFFFFFFFFF0000001
310
F000FFFFF800000001FFF8001C001FE001C000FFFF80007FFFFFF800000003FF
310
FFFF800000003FF80FFFFFFFFFFFFFC07FFFFFF0001FFFFFF8001FFFFFFFFC00
310
0FF8001FFFFFFFFC000FFF0003FFFFFFFFFFFFFE00000001F000FFFFC0000000
310
03FFF8001E001FC001E000FFFF80007FFFFF8000000007FFFFFC000000003FF8
310
0FFFFFFFFFFFFFC07FFFFFF0001FFFFFF8001FFFFFFFFC000FF8001FFFFFFFFC
310
000FFF0003FFFFFFFFFFFFE000000003F000FFFE0000000007FFF8001E000FC0
310
01E0007FFF80007FFFFE0000000007FFFFE0000000007FF80FFFFFFFFFFFFFC0
310
7FFFFFF0001FFFFFF0001FFFFFFFFC0007F0001FFFFFFFFC0007FF0003FFFFFF
310
FFFFFF0000000003F000FFF80000000007FFF8001E000FC003E0007FFF80007F
310
FFF0000000000FFFFF8000000000FFF80FFFFFFFFFFFFFC07FFFFFF0001FFFFF
310
F0001FFFFFFFFC0007F0001FFFFFFFFC0007FF0003FFFFFFFFFFFC0000000007
310
F000FFE0000000000FFFF0003E000FC003E0007FFF80007FFFC0000000001FFF
310
FE0000000001FFF80FFFFFFFFFFFFFC07FFFFFF0001FFFFFF0001FFFFFFFFC00
310
07F0001FFFFFFFFC0007FF0003FFFFFFFFFFF0000000000FF000FFC000000000
310
1FFFF0003F000F8003F0003FFF80007FFF80000000003FFFF80000000003FFF8
310
0FFFFFFFFFFFFFC07FFFFFF0001FFFFFF0001FFFFFFFFC0007F0001FFFFFFFFC
310
0007FF0003FFFFFFFFFFE0000000001FF000FF00000000007FFFF0003F000780
310
03F0003FFF80007FFF00000000007FFFF00000000007FFF80FFFFFFFFFFFFFC0
310
7FFFFFF0001FFFFFF0001FFFFFFFFC0007F0001FFFFFFFFC0007FF0003FFFFFF
310
FFFF80000000007FF000FE0000000000FFFFE0003F00078007F0003FFF80007F
310
FE0000000001FFFFE0000000001FFFF80FFFFFFFFFFFFFC07FFFFFF0001FFFFF
310
F0001FFFFFFFFC0007F0001FFFFFFFFC0007FF0003FFFFFFFFFF0000000000FF
310
F000FC0000000003FFFFE0007F00078007F0003FFF80007FFC0000000007FFFF
310
C0000000007FFFF80FFFFFFFFFFFFFC07FFFFFF0001FFFFFF8001FFFFFFFFC00
310
0FF8001FFFFFFFFC000FFF0003FFFFFFFFFE0000000003FFF000FC000000000F
310
FFFFE0007F80070007F8001FFF80007FF8000000001FFFFF8000000001FFFFF8
310
0FFFFFFFFFFFFFC07FFFFFF0001FFFFFF8001FFFFFFFFC000FF8001FFFFFFFFC
310
000FFF0003FFFFFFFFFC000000000FFFF000F8000000007FFFFFE0007F800700
310
07F8001FFF80007FF000000000FFFFFF800000000FFFFFF80FFFFFFFFFFFFFC0
310
7FFFFFF0001FFFFFF8000FFFFFFFF8000FF8000FFFFFFFF8000FFF0003FFFFFF
310
FFFC000000007FFFF000F800000007FFFFFFC0007F8003000FF8001FFF80007F
310
F000000007FFFFFF000000007FFFFFF80FFFFFFFFFFFFFC07FFFFFF0001FFFFF
310
F8000FFFFFFFF8000FF8000FFFFFFFF8000FFF0003FFFFFFFFF80000000FFFFF
310
F000F0000000FFFFFFFFC000FF8003000FF8001FFF80007FE0000000FFFFFFFF
310
0000000FFFFFFFF8000001FFFE0000007FFFFFF0001FFFFFF8000FFFFFFFF800
310
0FF8000FFFFFFFF8000FFF0003FFFFFFFFF8000000FFFFFFF000F000000FFFFF
310
FFFFC000FFC002000FF8000FFF80007FE000001FFFFFFFFE000001FFFFFFFFF8
310
000001FFFE0000007FFFFFF0001FFFFFF8000FFFFFFFF8000FF8000FFFFFFFF8
310
000FFF0003FFFFFFFFF000001FFFFFFFF000E00000FFFFFFFFFFC000FFC00200
310
0FFC000FFF80007FE00001FFFFFFFFFE00001FFFFFFFFFF8000001FFFE000000
310
7FFFFFF0001FFFFFFC000FFFFFFFF8001FFC000FFFFFFFF8001FFF0003FFFFFF
310
FFF00001FFFFFFFFF000E00007FFFFFFFFFF8000FFC000001FFC000FFF80007F
310
C0000FFFFFFFFFFE0000FFFFFFFFFFF8000001FFFE0000007FFFFFF0001FFFFF
310
FC0007FFFFFFF0001FFC0007FFFFFFF0001FFF0003FFFFFFFFF00007FFFFFFFF
310
F000E0001FFFFFFFFFFF8000FFC000001FFC000FFF80007FC0003FFFFFFFFFFE
310
0001FFFFFFFFFFF8000001FFFE0000007FFFFFF0001FFFFFFC0007FFFFFFF000
310
1FFC0007FFFFFFF0001FFF0003FFFFFFFFF0001FFFFFFFFFF000E0003FFFFF00
310
03FF8001FFE000001FFC0007FF80007FC0007FFFFF0007FC0003FFFFF0003FF8
310
000001FFFE0000007FFFFFF0001FFFFFFC0003FFFFFFE0001FFC0003FFFFFFE0
310
001FFF0003FFFFFFFFF0003FFFFFFFFFF000E0003FFFFF0001FF8001FFE00000
310
1FFE0007FF80007FC0007FFFFE0003FC0007FFFFE0003FF8000001FFFE000000
310
7FFFFFF0001FFFFFFE0003FFFFFFE0003FFE0003FFFFFFE0003FFF0003FFFFFF
310
FFF0003FFFFF8001F000E0003FFFFF0001FF0001FFE000001FFE0007FF80007F
310
C0007FFFFE0003FC0007FFFFE0003FF8000001FFFE0000007FFFFFF0001FFFFF
310
FE0001FFFFFFC0003FFE0001FFFFFFC0003FFF0003FFFFFFFFF0003FFFFF0001
310
F000E0003FFFFF0003FF0001FFE000003FFE0007FF80007FC0007FFFFE0003FC
310
0007FFFFE0003FF8000001FFFE0000007FFFFFF0001FFFFFFF0001FFFFFFC000
310
7FFF0001FFFFFFC0007FFF0003FFFFFFFFF0003FFFFF0001F000E0003FFFFE00
310
03FF0003FFF000003FFE0003FF80007FC0007FFFFC0003FE0007FFFFE0003FF8
310
000001FFFE0000007FFFFFF0001FFFFFFF0000FFFFFF80007FFF0000FFFFFF80
310
007FFF0003FFFFFFFFF0003FFFFF0001F000E0003FFFFE0003FF0003FFF00000
310
3FFF0003FF80007FC0007FFFFC0007FE0007FFFFC0003FF8000001FFFE000000
310
7FFFFFF0001FFFFFFF80007FFFFF0000FFFF80007FFFFF0000FFFF0003FFFFFF
310
FFF0003FFFFF0003F000E0003FFFFC0003FE0003FFF000003FFF0003FF80007F
310
E0003FFFF80007FE0003FFFFC0007FF8000001FFFE0000007FFFFFF0001FFFFF
310
FF80003FFFFE0000FFFF80003FFFFE0000FFFF0003FFFFFFFFF0001FFFFE0003
310
F000F0001FFFF80003FE0003FFF000007FFF0001FF80007FE0003FFFF00007FE
310
0001FFFF80007FF8000001FFFE0000007FFFFFF0001FFFFFFFC0000FFFF80001
310
FFFFC0000FFFF80001FFFF0003FFFFFFFFF0001FFFFC0003F000F0000FFFF000
310
07FE0007FFF800007FFF0001FF80007FE0001FFFE00007FF0000FFFE00007FF8
310
000001FFFE0000007FFFFFF0001FFFFFFFC00003FFE00001FFFFC00003FFE000
310
01FFFF0003FFFFFFFFF8000FFFF80003F000F00003FFC00007FC0007FFF80000
310
7FFF8001FF80007FF00007FF80000FFF00007FF80000FFF8000001FFFE000000
310
7F80000000000001FFE000003E000003FFFFE000003E000003FFFF0003FFFFFF
310
FFF80003FFE00007F000F800000000000FFC0007FFF800007FFF8001FF80007F
310
F000000000000FFF000000000000FFF8000001FFFE0000007F80000000000001
310
FFF0000000000007FFFFF0000000000007FFFF0003FFFFFFFFFC00007E000007
310
F000F800000000000FFC0007FFF80000FFFF8000FF80007FF800000000001FFF
310
800000000001FFF8000001FFFE0000007F80000000000001FFF800000000000F
310
FFFFF800000000000FFFFF0003FFFFFFFFFC00000000000FF000FC0000000000
310
1FFC0007FFFC0000FFFF8000FF80007FF800000000003FFFC00000000001FFF8
310
000001FFFE0000007F80000000000001FFF800000000000FFFFFF80000000000
310
0FFFFF0003FFFFFFFFFE00000000001FF000FE00000000003FF8000FFFFC0000
310
FFFF8000FF80007FFC00000000003FFFC00000000003FFF8000001FFFE000000
310
7F80000000000001FFFC00000000001FFFFFFC00000000001FFFFF0003FFFFFF
310
FFFF00000000001FF000FF00000000003FF8000FFFFC0000FFFFC000FF80007F
310
FE00000000007FFFE00000000007FFF8000001FFFE0000007F80000000000001
310
FFFE00000000003FFFFFFE00000000003FFFFF0003FFFFFFFFFF80000000003F
310
F000FF80000000007FF8000FFFFC0001FFFFC0007F80007FFF0000000000FFFF
310
F0000000000FFFF800000000000000007F80000000000001FFFF8000000000FF
310
FFFFFF8000000000FFFFFF0003FFFFFFFFFFC0000000007FF000FFC000000000
310
FFF8000FFFFE0001FFFFC0007F80007FFF8000000001FFFFF8000000001FFFF8
310
00000000000000007F80000000000001FFFFC000000001FFFFFFFFC000000001
310
FFFFFF0003FFFFFFFFFFE000000000FFF000FFE000000003FFF0001FFFFE0001
310
FFFFC0007F80007FFFC000000007FFFFFE000000003FFFF80000000000000000
310
7F80000000000001FFFFE000000003FFFFFFFFE000000003FFFFFF0003FFFFFF
310
FFFFF000000003FFF000FFF80000000FFFF0001FFFFE0001FFFFE0007F80007F
310
FFF00000000FFFFFFF00000000FFFFF800000000000000007F80000000000001
310
FFFFF80000000FFFFFFFFFF80000000FFFFFFF0003FFFFFFFFFFFC0000000FFF
310
F000FFFE0000003FFFF0001FFFFE0003FFFFE0003F80007FFFFC0000003FFFFF
310
FFC0000003FFFFF800000000000000007F80000000000001FFFFFE0000003FFF
310
FFFFFFFE0000003FFFFFFF0003FFFFFFFFFFFF0000003FFFF000FFFF800000FF
310
FFF0001FFFFF0003FFFFE0003F80007FFFFF000001FFFFFFFFF800001FFFFFF8
310
00000000000000007F80000000000001FFFFFFC00001FFFFFFFFFFFFC00001FF
310
FFFFFF0003FFFFFFFFFFFFC00000FFFFF000FFFFF8000FFFFFFFFFFFFFFFFFFF
310
FFFFFFFFFFFFFFFFFFFFF0001FFFFFFFFFFF0000FFFFFFF80000000000000000
310
7FFFFFFFFFFFFFFFFFFFFFFC001FFFFFFFFFFFFFFC001FFFFFFFFFFFFFFFFFFF
310
FFFFFFFC001FFFFFF000FFFFFFFFFFFFFFFFFFFFFFFFFFFFFFFFFFFFFFFFFFFF
310
FFFFFFFFFFFFFFFFFFFFFFFFFFFFFFFFFFFFFFFFFFFFFFFFFFFFFFFFFFFFFFFF
310
FFFFFFFFFFFFFFFFFFFFFFFFFFFFFFFFFFFFFFFFFFFFFFFFFFFFFFFFFFFFFFFF
310
F000FFFFFFFFFFFFFFFFFFFFFFFFFFFFFFFFFFFFFFFFFFFFFFFFFFFFFFFFFFFF
310
FFFFFFFFFFFFFFFFFFFFFFFFFFFFFFFFFFFFFFFFFFFFFFFFFFFFFFFFFFFFFFFF
310
FFFFFFFFFFFFFFFFFFFFFFFFFFFFFFFFFFFFFFFFFFFFFFFFF000FFFFFFFFFFFF
310
FFFFFFFFFFFFFFFFFFFFFFFFFFFFFFFFFFFFFFFFFFFFFFFFFFFFFFFFFFFFFFFF
310
FFFFFFFFFFFFFFFFFFFFFFFFFFFFFFFFFFFFFFFFFFFFFFFFFFFFFFFFFFFFFFFF
310
FFFFFFFFFFFFFFFFFFFFFFFFFFFFFFFFF000FFFFFFFFFFFFFFFFFFFFFFFFFFFF
310
FFFFFFFFFFFFFFFFFFFFFFFFFFFFFFFFFFFFFFFFFFFFFFFFFFFFFFFFFFFFFFFF
310
FFFFFFFFFFFFFFFFFFFFFFFFFFFFFFFFFFFFFFFFFFFFFFFFFFFFFFFFFFFFFFFF
310
FFFFFFFFFFFFFFFFF000FFFFFFFFFFFFFFFFFFFFFFFFFFFFFFFFFFFFFFFFFFFF
310
FFFFFFFFFFFFFFFFFFFFFFFFFFFFFFFFFFFFFFFFFFFFFFFFFFFFFFFFFFFFFFFF
310
FFFFFFFFFFFFFFFFFFFFFFFFFFFFFFFFFFFFFFFFFFFFFFFFFFFFFFFFFFFFFFFF
310
F000FFFFFFFFFFFFFFFFFFFFFFFFFFFFFFFFFFFFFFFFFFFFFFFFFFFFFFFFFFFF
310
FFFFFFFFFFFFFFFFFFFFFFFFFFFFFFFFFFFFFFFFFFFFFFFFFFFFFFFFFFFFFFFF
310
FFFFFFFFFFFFFFFFFFFFFFFFFFFFFFFFFFFFFFFFFFFFFFFFF000FFFFFFFFFFFF
310
FFFFFFFFFFFFFFFFFFFFFFFFFFFFFFFFFFFFFFFFFFFFFFFFFFFFFFFFFFFFFFFF
310
FFFFFFFFFFFFFFFFFFFFFFFFFFFFFFFFFFFFFFFFFFFFFFFFFFFFFFFFFFFFFFFF
310
FFFFFFFFFFFFFFFFFFFFFFFFFFFFFFFFF000FFFFFFFFFFFFFFFFFFFFFFFFFFFF
310
FFFFFFFFFFFFFFFFFFFFFFFFFFFFFFFFFFFFFFFFFFFFFFFFFFFFFFFFFFFFFFFF
310
FFFFFFFFFFFFFFFFFFFFFFFFFFFFFFFFFFFFFFFFFFFFFFFFFFFFFFFFFFFFFFFF
310
FFFFFFFFFFFFFFFFF000FFFFFFFFFFFFFFFFFFFFFFFFFFFFFFFFFFFFFFFFFFFF
310
FFFFFFFFFFFFFFFFFFFFFFFFFFFFFFFFFFFFFFFFFFFFFFFFFFFFFFFFFFFFFFFF
310
FFFFFFFFFFFFFFFFFFFFFFFFFFFFFFFFFFFFFFFFFFFFFFFFFFFFFFFFFFFFFFFF
310
F000FFFFFFFFFFFFFFFFFFFFFFFFFFFFFFFFFFFFFFFFFFFFFFFFFFFFFFFFFFFF
310
FFFFFFFFFFFFFFFFFFFFFFFFFFFFFFFFFFFFFFFFFFFFFFFFFFFFFFFFFFFFFFFF
310
FFFFFFFFFFFFFFFFFFFFFFFFFFFFFFFFFFFFFFFFFFFFFFFFF000FFFFFFFFFFFF
310
FFFFFFFFFFFFFFFFFFFFFFFFFFFFFFFFFFFFFFFFFFFFFFFFFFFFFFFFFFFFFFFF
310
FFFFFFFFFFFFFFFFFFFFFFFFFFFFFFFFFFFFFFFFFFFFFFFFFFFFFFFFFFFFFFFF
310
FFFFFFFFFFFFFFFFFFFFFFFFFFFFFFFFF000FFFFFFFFFFFFFFFFFFFFFFFFFFFF
310
FFFFFFFFFFFFFFFFFFFFFFFFFFFFFFFFFFFFFFFFFFFFFFFFFFFFFFFFFFFFFFFF
310
FFFFFFFFFFFFFFFFFFFFFFFFFFFFFFFFFFFFFFFFFFFFFFFFFFFFFFFFFFFFFFFF
310
FFFFFFFFFFFFFFFFF000FFFFFFFFFFFFFFFFFFFFFFFFFFFFFFFFFFFFFFFFFFFF
310
FFFFFFFFFFFFFFFFFFFFFFFFFFFFFFFFFFFFFFFFFFFFFFFFFFFFFFFFFFFFFFFF
310
FFFFFFFFFFFFFFFFFFFFFFFFFFFFFFFFFFFFFFFFFFFFFFFFFFFFFFFFFFFFFFFF
310
F000FFFFFFFFFFFFFFFFFFFFFFFFFFFFFFFFFFFFFFFFFFFFFFFFFFFFFFFFFFFF
310
FFFFFFFFFFFFFFFFFFFFFFFFFFFFFFFFFFFFFFFFFFFFFFFFFFFFFFFFFFFFFFFF
310
FFFFFFFFFFFFFFFFFFFFFFFFFFFFFFFFFFFFFFFFFFFFFFFFF000FFFFFFFFFFFF
310
FFFFFFFFFFFFFFFFFFFFFFFFFFFFFFFFFFFFFFFFFFFFFFFFFFFFFFFFFFFFFFFF
310
FFFFFFFFFFFFFFFFFFFFFFFFFFFFFFFFFFFFFFFFFFFFFFFFFFFFFFFFFFFFFFFF
310
FFFFFFFFFFFFFFFFFFFFFFFFFFFFFFFFF000FFFFFFFFFFFFFFFFFFFFFFFFFFFF
310
FFFFFFFFFFFFFFFFFFFFFFFFFFFFFFFFFFFFFFFFFFFFFFFFFFFFFFFFFFFFFFFF
310
FFFFFFFFFFFFFFFFFFFFFFFFFFFFFFFFFFFFFFFFFFFFFFFFFFFFFFFFFFFFFFFF
310
FFFFFFFFFFFFFFFFF000FFFFFFFFFFFFFFFFFFFFFFFFFFFFFFFFFFFFFFFFFFFF
310
FFFFFFFFFFFFFFFFFFFFFFFFFFFFFFFFFFFFFFFFFFFFFFFFFFFFFFFFFFFFFFFF
310
FFFFFFFFFFFFFFFFFFFFFFFFFFFFFFFFFFFFFFFFFFFFFFFFFFFFFFFFFFFFFFFF
310
F000FFFFFFFFFFFFFFFFFFFFFFFFFFFFFFFFFFFFFFFFFFFFFFFFFFFFFFFFFFFF
310
FFFFFFFFFFFFFFFFFFFFFFFFFFFFFFFFFFFFFFFFFFFFFFFFFFFFFFFFFFFFFFFF
310
FFFFFFFFFFFFFFFFFFFFFFFFFFFFFFFFFFFFFFFFFFFFFFFFF000FFFFFFFFFFFF
310
FFFFFFFFFFFFFFFFFFFFFFFFFFFFFFFFFFFFFFFFFFFFFFFFFFFFFFFFFFFFFFFF
310
FFFFFFFFFFFFFFFFFFFFFFFFFFFFFFFFFFFFFFFFFFFFFFFFFFFFFFFFFFFFFFFF
310
FFFFFFFFFFFFFFFFFFFFFFFFFFFFFFFFF000FFFFFFFFFFFFFFFFFFFFFFFFFFFF
310
FFFFFFFFFFFFFFFFFFFFFFFFFFFFFFFFFFFFFFFFFFFFFFFFFFFFFFFFFFFFFFFF
310
FFFFFFFFFFFFFFFFFFFFFFFFFFFFFFFFFFFFFFFFFFFFFFFFFFFFFFFFFFFFFFFF
310
FFFFFFFFFFFFFFFFF000FFFFFFFFFFFFFFFFFFFFFFFFFFFFFFFFFFFFFFFFFFFF
310
FFFFFFFFFFFFFFFFFFFFFFFFFFFFFFFFFFFFFFFFFFFFFFFFFFFFFFFFFFFFFFFF
310
FFFFFFFFFFFFFFFFFFFFFFFFFFFFFFFFFFFFFFFFFFFFFFFFFFFFFFFFFFFFFFFF
310
F000FFFFFFFFFFFFFFFFFFFFFFFFFFFFFFFFFFFFFFFFFFFFFFFFFFFFFFFFFFFF
310
FFFFFFFFFFFFFFFFFFFFFFFFFFFFFFFFFFFFFFFFFFFFFFFFFFFFFFFFFFFFFFFF
310
FFFFFFFFFFFFFFFFFFFFFFFFFFFFFFFFFFFFFFFFFFFFFFFFF000FFFFFFFFFFFF
310
FFFFFFFFFFFFFFFFFFFFFFFFFFFFFFFFFFFFFFFFFFFFFFFFFFFFFFFFFFFFFFFF
310
FFFFFFFFFFFFFFFFFFFFFFFFFFFFFFFFFFFFFFFFFFFFFFFFFFFFFFFFFFFFFFFF
310
FFFFFFFFFFFFFFFFFFFFFFFFFFFFFFFFF0000000000000000000000000000000
310
0000000000000000000000000000000000000000000000000000000000000000
310
0000000000000000000000000000000000000000000000000000000000000000
310
0000000000000000000000000000000000000000000000000000000000000000
310
0000000000000000000000000000000000000000000000000000000000000000
310
0000000000000000000000000000000000000000000000000000000000000000
310
0000000000000000000000000000000000000000000000000000000000000000
310
0000000000000000000000000000000000000000000000000000000000000000
310
0000000000000000000000000000000000000000000000000000000000000000
310
0000000000000000000000000000000000000000000000000000000000000000
310
0000000000000000000000000000000000000000000000000000000000000000
310
0000000000000000000000000000000000000000000000000000000000000000
310
0000000000000000000000000000000000000000000000000000000000000000
310
0000000000000000000000000000000000000000000000000000000000000000
310
0000000000000000000000000000000000000000000000000000000000000000
310
0000000000000000000000000000000000000000000000000000000000000000
  1
OLE
  0
ENDSEC
  0
SECTION
  2
OBJECTS
  0
DICTIONARY
  5
C
330
0
100
AcDbDictionary
281
     1
  3
ACAD_GROUP
350
D
  3
ACAD_LAYOUT
350
1A
  3
ACAD_MLINESTYLE
350
17
  3
ACAD_PLOTSETTINGS
350
19
  3
ACAD_PLOTSTYLENAME
350
E
  0
DICTIONARY
  5
D
102
{ACAD_REACTORS
330
C
102
}
330
C
100
AcDbDictionary
281
     1
  0
DICTIONARY
  5
1A
102
{ACAD_REACTORS
330
C
102
}
330
C
100
AcDbDictionary
281
     1
  3
Layout1
350
1E
  3
Layout2
350
26
  3
Model
350
22
  0
DICTIONARY
  5
17
102
{ACAD_REACTORS
330
C
102
}
330
C
100
AcDbDictionary
281
     1
  3
Standard
350
18
  0
DICTIONARY
  5
19
102
{ACAD_REACTORS
330
C
102
}
330
C
100
AcDbDictionary
281
     1
  0
ACDBDICTIONARYWDFLT
  5
E
102
{ACAD_REACTORS
330
C
102
}
330
C
100
AcDbDictionary
281
     1
  3
Normal
350
F
100
AcDbDictionaryWithDefault
340
F
  0
LAYOUT
  5
1E
102
{ACAD_REACTORS
330
1A
102
}
330
1A
100
AcDbPlotSettings
  1

  2
none_device
  4

  6

 40
0.0
 41
0.0
 42
0.0
 43
0.0
 44
0.0
 45
0.0
 46
0.0
 47
0.0
 48
0.0
 49
0.0
140
0.0
141
0.0
142
1.0
143
1.0
 70
   688
 72
     0
 73
     0
 74
     5
  7

 75
    16
147
1.0
148
0.0
149
0.0
100
AcDbLayout
  1
Layout1
 70
     1
 71
     1
 10
0.0
 20
0.0
 11
420.0
 21
297.0
 12
0.0
 22
0.0
 32
0.0
 14
1.0000000000E+20
 24
1.0000000000E+20
 34
1.0000000000E+20
 15
-1.0000000000E+20
 25
-1.0000000000E+20
 35
-1.0000000000E+20
146
0.0
 13
0.0
 23
0.0
 33
0.0
 16
1.0
 26
0.0
 36
0.0
 17
0.0
 27
1.0
 37
0.0
 76
     0
330
1B
  0
LAYOUT
  5
26
102
{ACAD_REACTORS
330
1A
102
}
330
1A
100
AcDbPlotSettings
  1

  2
none_device
  4

  6

 40
0.0
 41
0.0
 42
0.0
 43
0.0
 44
0.0
 45
0.0
 46
0.0
 47
0.0
 48
0.0
 49
0.0
140
0.0
141
0.0
142
1.0
143
1.0
 70
   688
 72
     0
 73
     0
 74
     5
  7

 75
    16
147
1.0
148
0.0
149
0.0
100
AcDbLayout
  1
Layout2
 70
     1
 71
     2
 10
0.0
 20
0.0
 11
0.0
 21
0.0
 12
0.0
 22
0.0
 32
0.0
 14
0.0
 24
0.0
 34
0.0
 15
0.0
 25
0.0
 35
0.0
146
0.0
 13
0.0
 23
0.0
 33
0.0
 16
1.0
 26
0.0
 36
0.0
 17
0.0
 27
1.0
 37
0.0
 76
     0
330
23
  0
LAYOUT
  5
22
102
{ACAD_REACTORS
330
1A
102
}
330
1A
100
AcDbPlotSettings
  1

  2
none_device
  4

  6

 40
0.0
 41
0.0
 42
0.0
 43
0.0
 44
0.0
 45
0.0
 46
0.0
 47
0.0
 48
0.0
 49
0.0
140
0.0
141
0.0
142
1.0
143
1.0
 70
  1712
 72
     0
 73
     0
 74
     0
  7

 75
     0
147
1.0
148
0.0
149
0.0
100
AcDbLayout
  1
Model
 70
     1
 71
     0
 10
0.0
 20
0.0
 11
297.0
 21
210.0
 12
0.0
 22
0.0
 32
0.0
 14
0.0
 24
0.0
 34
0.0
 15
297.0
 25
210.0
 35
0.0
146
0.0
 13
0.0
 23
0.0
 33
0.0
 16
1.0
 26
0.0
 36
0.0
 17
0.0
 27
1.0
 37
0.0
 76
     0
330
1F
331
29
  0
MLINESTYLE
  5
18
102
{ACAD_REACTORS
330
17
102
}
330
17
100
AcDbMlineStyle
  2
Standard
 70
     0
  3

 62
   256
 51
90.0
 52
90.0
 71
     2
 49
0.5
 62
   256
  6
BYLAYER
 49
-0.5
 62
   256
  6
BYLAYER
  0
ACDBPLACEHOLDER
  5
F
102
{ACAD_REACTORS
330
E
102
}
330
E
  0
ENDSEC
  0
EOF
